  0
SECTION
  2
HEADER
  9
$ACADVER
  1
AC1024
  9
$DWGCODEPAGE
  3
ANSI_1252
  9
$EXTMAX
 10
420.0
 20
297.0
 30
0.0
  9
$EXTMIN
 10
0.0
 20
-0.0
 30
0.0
  9
$LIMMIN
 10
0.0
 20
-0.0
  9
$LIMMAX
 10
420.0
 20
297.0
  9
$VIEWCTR
 10
210.0
 20
148.5
  9
$VIEWSIZE
 40
297.0
  9
$CLAYER
  8
0
  9
$LTSCALE
 40
23.1
  9
$CELTYPE
  6
BYLAYER
  9
$DIMSCALE
 40
1.0
  9
$DIMASZ
 40
3.0
  9
$DIMEXO
 40
0.5
  9
$DIMDLI
 40
15.96
  9
$DIMEXE
 40
1.5
  9
$DIMCEN
 40
3.78
  9
$DIMLFAC
 40
1.0
  9
$DIMBLK
  1
_FILLED
  9
$DIMALT
 70
0
  9
$DIMALTF
 40
0.0393700787
  9
$DIMTXT
 40
3.0
  9
$DIMTOL
 70
1
  9
$DIMLIM
 70
0
  9
$DIMTFAC
 40
1.0
  9
$DIMTP
 40
0.01
  9
$DIMTM
 40
0.01
  9
$DIMGAP
 40
0.625
  9
$DIMDSEP
 70
44
  9
$AUNITS
 70
0
  9
$PDMODE
 70
3
  9
$PDSIZE
 40
3.0
  9
$HANDSEED
  5
2E2
  9
$TILEMODE
 70
1
  9
$MEASUREMENT
 70
1
  9
$INSUNITS
 70
4
  0
ENDSEC
  0
SECTION
  2
CLASSES
  0
CLASS
  1
ACDBDICTIONARYWDFLT
  2
AcDbDictionaryWithDefault
  3
AutoCAD 2000
 90
0
 91
1
280
0
281
0
  0
CLASS
  1
ACDBPLACEHOLDER
  2
AcDbPlaceHolder
  3
AutoCAD 2000
 90
0
 91
1
280
0
281
0
  0
CLASS
  1
LAYOUT
  2
AcDbLayout
  3
AutoCAD 2000
 90
0
 91
0
280
0
281
0
  0
ENDSEC
  0
SECTION
  2
TABLES
  0
TABLE
  2
VPORT
  5
8
100
AcDbSymbolTable
 70
2
  0
VPORT
  5
1F4
100
AcDbSymbolTableRecord
100
AcDbViewportTableRecord
  2
*ACTIVE
 70
0
 10
0.0
 20
0.0
 11
1.0
 21
1.0
 12
210.0
 22
148.5
 13
0.0
 23
0.0
 14
1.0
 24
1.0
 15
0.0
 25
0.0
 16
0.0
 26
0.0
 36
1.0
 17
0.0
 27
0.0
 37
0.0
 40
297.0
 41
1.4141414141
 42
50.0
 43
0.0
 44
0.0
 50
0.0
 51
0.0
 71
0
 72
100
 73
1
 74
1
 75
0
 76
0
 77
0
 78
0
  0
ENDTAB
  0
TABLE
  2
LTYPE
  5
5
100
AcDbSymbolTable
 70
6
  0
LTYPE
  5
14
100
AcDbSymbolTableRecord
100
AcDbLinetypeTableRecord
  2
BYBLOCK
 70
0
  3

 72
65
 73
0
 40
0.0
  0
LTYPE
  5
15
100
AcDbSymbolTableRecord
100
AcDbLinetypeTableRecord
  2
BYLAYER
 70
0
  3

 72
65
 73
0
 40
0.0
  0
LTYPE
  5
16
100
AcDbSymbolTableRecord
100
AcDbLinetypeTableRecord
  2
CONTINUOUS
 70
64
  3
Solid line
 72
65
 73
0
 40
0.0
  0
LTYPE
  5
1F5
100
AcDbSymbolTableRecord
100
AcDbLinetypeTableRecord
  2
CENTER
 70
64
  3
____ _ ____ _ ____ _ ____ _ ____ _ ____ _ ____
 72
65
 73
4
 40
0.6
 49
0.375
 74
0
 49
-0.075
 74
0
 49
0.075
 74
0
 49
-0.075
 74
0
  0
LTYPE
  5
1F6
100
AcDbSymbolTableRecord
100
AcDbLinetypeTableRecord
  2
HIDDEN
 70
64
  3
- - - - - - - - - - - - - - - - - - - -
 72
65
 73
2
 40
0.2
 49
0.1
 74
0
 49
-0.1
 74
0
  0
LTYPE
  5
1F7
100
AcDbSymbolTableRecord
100
AcDbLinetypeTableRecord
  2
PHANTOM
 70
64
  3
_____ _ _ _____ _ _ _____ _ _ _____
 72
65
 73
6
 40
0.8
 49
0.45
 74
0
 49
-0.05
 74
0
 49
0.1
 74
0
 49
-0.05
 74
0
 49
0.1
 74
0
 49
-0.05
 74
0
  0
LTYPE
  5
1F8
100
AcDbSymbolTableRecord
100
AcDbLinetypeTableRecord
  2
DOT
 70
64
  3
. . . . . . . . . . . . . . . . . . . .
 72
65
 73
2
 40
0.2
 49
0.1
 74
0
 49
-0.1
 74
0
  0
LTYPE
  5
1F9
100
AcDbSymbolTableRecord
100
AcDbLinetypeTableRecord
  2
DASHED
 70
64
  3
- - - - - - - - - - - - - - - - - - - -
 72
65
 73
2
 40
0.2
 49
0.1
 74
0
 49
-0.1
 74
0
  0
ENDTAB
  0
TABLE
  2
LAYER
  5
2
100
AcDbSymbolTable
 70
36
  0
LAYER
  5
10
100
AcDbSymbolTableRecord
100
AcDbLayerTableRecord
  2
0
 70
0
 62
7
  6
CONTINUOUS
370
-3
390
F
  0
LAYER
  5
1FA
100
AcDbSymbolTableRecord
100
AcDbLayerTableRecord
  2
DEFAULT_1
 70
0
 62
7
  6
CENTER
370
-3
390
F
  0
LAYER
  5
1FB
100
AcDbSymbolTableRecord
100
AcDbLayerTableRecord
  2
DEFAULT_2
 70
0
 62
7
  6
HIDDEN
370
-3
390
F
  0
LAYER
  5
1FC
100
AcDbSymbolTableRecord
100
AcDbLayerTableRecord
  2
DEFAULT_3
 70
0
 62
7
  6
PHANTOM
370
-3
390
F
  0
ENDTAB
  0
TABLE
  2
STYLE
  5
3
100
AcDbSymbolTable
 70
1
  0
STYLE
  5
11
100
AcDbSymbolTableRecord
100
AcDbTextStyleTableRecord
  2
STANDARD
 70
0
 40
0.0
 41
0.8
 50
0.0
 71
0
 42
0.2
  3
txt
  4

  0
STYLE
  5
1FD
100
AcDbSymbolTableRecord
100
AcDbTextStyleTableRecord
  2
TEXTSTYLE_1
 70
0
 40
0.0
 41
0.8
 50
0.0
 71
0
 42
0.2
  3
gdt
  4

  0
STYLE
  5
1FE
100
AcDbSymbolTableRecord
100
AcDbTextStyleTableRecord
  2
TEXTSTYLE_2
 70
0
 40
0.0
 41
0.75
 50
0.0
 71
0
 42
0.2
  3
txt
  4

  0
ENDTAB
  0
TABLE
  2
VIEW
  5
6
100
AcDbSymbolTable
 70
0
  0
ENDTAB
  0
TABLE
  2
UCS
  5
7
100
AcDbSymbolTable
 70
0
  0
ENDTAB
  0
TABLE
  2
APPID
  5
9
100
AcDbSymbolTable
 70
1
  0
APPID
  5
1FF
100
AcDbSymbolTableRecord
100
AcDbRegAppTableRecord
  2
ACAD
 70
0
  0
ENDTAB
  0
TABLE
  2
BLOCK_RECORD
  5
1
100
AcDbSymbolTable
 70
0
  0
BLOCK_RECORD
  5
200
100
AcDbSymbolTableRecord
100
AcDbBlockTableRecord
  2
*Model_Space
  0
BLOCK_RECORD
  5
201
100
AcDbSymbolTableRecord
100
AcDbBlockTableRecord
  2
*Paper_Space
  0
BLOCK_RECORD
  5
202
100
AcDbSymbolTableRecord
100
AcDbBlockTableRecord
  2
_FILLED
  0
BLOCK_RECORD
  5
203
100
AcDbSymbolTableRecord
100
AcDbBlockTableRecord
  2
*D0
  0
BLOCK_RECORD
  5
204
100
AcDbSymbolTableRecord
100
AcDbBlockTableRecord
  2
*D1
  0
BLOCK_RECORD
  5
205
100
AcDbSymbolTableRecord
100
AcDbBlockTableRecord
  2
*D2
  0
BLOCK_RECORD
  5
206
100
AcDbSymbolTableRecord
100
AcDbBlockTableRecord
  2
*D3
  0
ENDTAB
  0
TABLE
  2
DIMSTYLE
  5
A
100
AcDbSymbolTable
 70
1
100
AcDbDimStyleTable
 71
0
  0
DIMSTYLE
105
207
100
AcDbSymbolTableRecord
100
AcDbDimStyleTableRecord
  2
STANDARD
 70
0
  3

  4

 40
1.0
 41
3.0
 42
0.5
 43
0.38
 44
1.5
 45
0.0
 46
0.0
 47
0.01
 48
0.01
140
3.0
141
0.09
142
0.0
143
25.4
144
1.0
145
0.0
146
1.0
147
0.625
 71
1.0
 72
0.0
 73
0
 74
0
 75
0
 76
0
 77
1
 78
8
 79
2
170
0
171
1
172
0
173
0
174
0
175
0
176
0
177
0
178
0
270
2
179
2
271
2
272
2
273
2
274
2
275
0
280
0
281
0
282
0
283
1
284
8
285
0
286
0
287
3
288
0
340
11
278
44
341
202
342
202
343
202
344
202
  0
DIMSTYLE
105
208
100
AcDbSymbolTableRecord
100
AcDbDimStyleTableRecord
  2
DIMSTYLE_1
 70
0
  3

  4

 40
1.0
 41
3.0
 42
0.5
 43
0.38
 44
1.5
 45
0.0
 46
0.0
 47
0.0
 48
0.0
140
14.0
141
0.09
142
0.0
143
25.4
144
1.0
145
0.0
146
1.0
147
3.5
 71
0.0
 72
0.0
 73
0
 74
0
 75
0
 76
0
 77
1
 78
8
 79
2
170
0
171
1
172
0
173
0
174
0
175
0
176
0
177
0
178
0
270
2
179
2
271
2
272
0
273
2
274
2
275
0
280
0
281
0
282
0
283
1
284
8
285
0
286
0
287
3
288
0
340
1FE
278
44
341
202
342
202
343
202
344
202
  0
ENDTAB
  0
ENDSEC
  0
SECTION
  2
BLOCKS
  0
BLOCK
  5
20
100
AcDbEntity
  8
0
100
AcDbBlockBegin
  2
*Model_Space
 70
0
 10
0.0
 20
0.0
 30
0.0
  3
*Model_Space
  1

  0
ENDBLK
  5
21
100
AcDbEntity
  8
0
100
AcDbBlockEnd
  0
BLOCK
  5
1C
100
AcDbEntity
  8
0
100
AcDbBlockBegin
  2
*Paper_Space
 70
0
 10
0.0
 20
0.0
 30
0.0
  3
*Paper_Space
  1

  0
ENDBLK
  5
1D
100
AcDbEntity
  8
0
100
AcDbBlockEnd
  0
BLOCK
  5
209
100
AcDbEntity
  8
0
100
AcDbBlockBegin
  2
_FILLED
 70
64
 10
0.0
 20
0.0
  3
_FILLED
  1

  0
SOLID
  5
20A
100
AcDbEntity
  8
0
  6
BYBLOCK
 62
0
100
AcDbTrace
 10
0.0
 20
0.0
 11
-1.0
 21
0.1333333333
 12
-1.0
 22
-0.1333333333
 13
-1.0
 23
-0.1333333333
  0
ENDBLK
  5
20B
100
AcDbEntity
  8
0
  6
BYBLOCK
 62
0
100
AcDbBlockEnd
  0
BLOCK
  5
20C
100
AcDbEntity
  8
0
100
AcDbBlockBegin
 62
7
  6
CONTINUOUS
  2
*D0
 70
65
 10
0.0
 20
0.0
  3
*D0
  1

  0
LINE
  5
20D
100
AcDbEntity
  8
0
100
AcDbLine
 62
7
  6
CONTINUOUS
 10
-171.0200954793
 20
60.6548475564
 11
-219.4399033011
 21
60.6548475564
  0
LINE
  5
20E
100
AcDbEntity
  8
0
100
AcDbLine
 62
7
  6
CONTINUOUS
 10
-171.0200954793
 20
-70.5451524436
 11
-219.4399033011
 21
-70.5451524436
  0
LINE
  5
20F
100
AcDbEntity
  8
0
100
AcDbLine
 62
7
  6
CONTINUOUS
 10
-217.9399033011
 20
60.6548475564
 11
-217.9399033011
 21
-4.9451524436
  0
LINE
  5
210
100
AcDbEntity
  8
0
100
AcDbLine
 62
7
  6
CONTINUOUS
 10
-217.9399033011
 20
-70.5451524436
 11
-217.9399033011
 21
-4.9451524436
  0
INSERT
  5
211
100
AcDbEntity
  8
0
100
AcDbBlockReference
 62
7
  6
CONTINUOUS
  2
_FILLED
 10
-217.9399033011
 20
60.6548475564
 41
3.0
 42
3.0
 43
3.0
 50
90.0
  0
INSERT
  5
212
100
AcDbEntity
  8
0
100
AcDbBlockReference
 62
7
  6
CONTINUOUS
  2
_FILLED
 10
-217.9399033011
 20
-70.5451524436
 41
3.0
 42
3.0
 43
3.0
 50
270.0
  0
ENDBLK
  5
213
100
AcDbEntity
  8
0
  6
BYBLOCK
 62
0
100
AcDbBlockEnd
  0
BLOCK
  5
214
100
AcDbEntity
  8
0
100
AcDbBlockBegin
 62
7
  6
CONTINUOUS
  2
*D1
 70
65
 10
0.0
 20
0.0
  3
*D1
  1

  0
LINE
  5
215
100
AcDbEntity
  8
0
100
AcDbLine
 62
7
  6
CONTINUOUS
 10
-171.5200954793
 20
-67.0451524436
 11
-171.5200954793
 21
-123.6688762331
  0
LINE
  5
216
100
AcDbEntity
  8
0
100
AcDbLine
 62
7
  6
CONTINUOUS
 10
-171.5200954793
 20
-123.6688762331
 11
-171.5200954793
 21
-128.6688762331
  0
LINE
  5
217
100
AcDbEntity
  8
0
100
AcDbLine
 62
7
  6
CONTINUOUS
 10
137.4799045207
 20
-67.0451524436
 11
137.4799045207
 21
-123.6688762331
  0
LINE
  5
218
100
AcDbEntity
  8
0
100
AcDbLine
 62
7
  6
CONTINUOUS
 10
137.4799045207
 20
-123.6688762331
 11
137.4799045207
 21
-128.6688762331
  0
LINE
  5
219
100
AcDbEntity
  8
0
100
AcDbLine
 62
7
  6
CONTINUOUS
 10
-171.5200954793
 20
-127.1688762331
 11
-17.0200954793
 21
-127.1688762331
  0
LINE
  5
21A
100
AcDbEntity
  8
0
100
AcDbLine
 62
7
  6
CONTINUOUS
 10
137.4799045207
 20
-127.1688762331
 11
-17.0200954793
 21
-127.1688762331
  0
INSERT
  5
21B
100
AcDbEntity
  8
0
100
AcDbBlockReference
 62
7
  6
CONTINUOUS
  2
_FILLED
 10
-171.5200954793
 20
-127.1688762331
 41
3.0
 42
3.0
 43
3.0
 50
180.0
  0
INSERT
  5
21C
100
AcDbEntity
  8
0
100
AcDbBlockReference
 62
7
  6
CONTINUOUS
  2
_FILLED
 10
137.4799045207
 20
-127.1688762331
 41
3.0
 42
3.0
 43
3.0
  0
ENDBLK
  5
21D
100
AcDbEntity
  8
0
  6
BYBLOCK
 62
0
100
AcDbBlockEnd
  0
BLOCK
  5
21E
100
AcDbEntity
  8
0
100
AcDbBlockBegin
 62
7
  6
CONTINUOUS
  2
*D2
 70
65
 10
0.0
 20
0.0
  3
*D2
  1

  0
LINE
  5
21F
100
AcDbEntity
  8
0
100
AcDbLine
 62
7
  6
CONTINUOUS
 10
138.4799045207
 20
-67.0451524436
 11
138.4799045207
 21
-123.6688762331
  0
LINE
  5
220
100
AcDbEntity
  8
0
100
AcDbLine
 62
7
  6
CONTINUOUS
 10
138.4799045207
 20
-123.6688762331
 11
138.4799045207
 21
-128.6688762331
  0
LINE
  5
221
100
AcDbEntity
  8
0
100
AcDbLine
 62
7
  6
CONTINUOUS
 10
278.4799045207
 20
-70.0451524436
 11
278.4799045207
 21
-123.6688762331
  0
LINE
  5
222
100
AcDbEntity
  8
0
100
AcDbLine
 62
7
  6
CONTINUOUS
 10
278.4799045207
 20
-123.6688762331
 11
278.4799045207
 21
-128.6688762331
  0
LINE
  5
223
100
AcDbEntity
  8
0
100
AcDbLine
 62
7
  6
CONTINUOUS
 10
138.4799045207
 20
-127.1688762331
 11
208.4799045207
 21
-127.1688762331
  0
LINE
  5
224
100
AcDbEntity
  8
0
100
AcDbLine
 62
7
  6
CONTINUOUS
 10
278.4799045207
 20
-127.1688762331
 11
208.4799045207
 21
-127.1688762331
  0
INSERT
  5
225
100
AcDbEntity
  8
0
100
AcDbBlockReference
 62
7
  6
CONTINUOUS
  2
_FILLED
 10
138.4799045207
 20
-127.1688762331
 41
3.0
 42
3.0
 43
3.0
 50
180.0
  0
INSERT
  5
226
100
AcDbEntity
  8
0
100
AcDbBlockReference
 62
7
  6
CONTINUOUS
  2
_FILLED
 10
278.4799045207
 20
-127.1688762331
 41
3.0
 42
3.0
 43
3.0
  0
ENDBLK
  5
227
100
AcDbEntity
  8
0
  6
BYBLOCK
 62
0
100
AcDbBlockEnd
  0
BLOCK
  5
228
100
AcDbEntity
  8
0
100
AcDbBlockBegin
 62
7
  6
CONTINUOUS
  2
*D3
 70
65
 10
0.0
 20
0.0
  3
*D3
  1

  0
LINE
  5
229
100
AcDbEntity
  8
0
100
AcDbLine
 62
7
  6
CONTINUOUS
 10
499.5897909231
 20
-67.0451524436
 11
499.5897909231
 21
-123.5671781581
  0
LINE
  5
22A
100
AcDbEntity
  8
0
100
AcDbLine
 62
7
  6
CONTINUOUS
 10
499.5897909231
 20
-123.5671781581
 11
499.5897909231
 21
-128.5671781581
  0
LINE
  5
22B
100
AcDbEntity
  8
0
100
AcDbLine
 62
7
  6
CONTINUOUS
 10
374.5897909231
 20
-70.0451524436
 11
374.5897909231
 21
-123.5671781581
  0
LINE
  5
22C
100
AcDbEntity
  8
0
100
AcDbLine
 62
7
  6
CONTINUOUS
 10
374.5897909231
 20
-123.5671781581
 11
374.5897909231
 21
-128.5671781581
  0
LINE
  5
22D
100
AcDbEntity
  8
0
100
AcDbLine
 62
7
  6
CONTINUOUS
 10
499.5897909231
 20
-127.0671781581
 11
437.0897909231
 21
-127.0671781581
  0
LINE
  5
22E
100
AcDbEntity
  8
0
100
AcDbLine
 62
7
  6
CONTINUOUS
 10
374.5897909231
 20
-127.0671781581
 11
437.0897909231
 21
-127.0671781581
  0
INSERT
  5
22F
100
AcDbEntity
  8
0
100
AcDbBlockReference
 62
7
  6
CONTINUOUS
  2
_FILLED
 10
499.5897909231
 20
-127.0671781581
 41
3.0
 42
3.0
 43
3.0
  0
INSERT
  5
230
100
AcDbEntity
  8
0
100
AcDbBlockReference
 62
7
  6
CONTINUOUS
  2
_FILLED
 10
374.5897909231
 20
-127.0671781581
 41
3.0
 42
3.0
 43
3.0
 50
180.0
  0
ENDBLK
  5
231
100
AcDbEntity
  8
0
  6
BYBLOCK
 62
0
100
AcDbBlockEnd
  0
ENDSEC
  0
SECTION
  2
ENTITIES
  0
DIMENSION
  5
232
100
AcDbEntity
  8
0
100
AcDbDimension
 62
7
  6
CONTINUOUS
  2
*D0
 10
-217.9399033011
 20
-70.5451524436
 11
-217.9399033011
 21
-36.4451524436
 70
160
 71
2
 72
2
 41
0.9
  1
131,20
  3
DIMSTYLE_1
100
AcDbAlignedDimension
 13
-170.5200954793
 23
60.6548475564
 14
-170.5200954793
 24
-70.5451524436
 50
270.0
100
AcDbRotatedDimension
  0
DIMENSION
  5
233
100
AcDbEntity
  8
0
100
AcDbDimension
 62
7
  6
CONTINUOUS
  2
*D1
 10
137.4799045207
 20
-127.1688762331
 11
-32.7700954793
 21
-127.1688762331
 70
160
 71
2
 72
2
 41
0.9
  1
309
  3
DIMSTYLE_1
100
AcDbAlignedDimension
 13
-171.5200954793
 23
-66.5451524436
 14
137.4799045207
 24
-66.5451524436
100
AcDbRotatedDimension
  0
DIMENSION
  5
234
100
AcDbEntity
  8
0
100
AcDbDimension
 62
7
  6
CONTINUOUS
  2
*D2
 10
278.4799045207
 20
-127.1688762331
 11
192.7299045207
 21
-127.1688762331
 70
160
 71
2
 72
2
 41
0.9
  1
140
  3
DIMSTYLE_1
100
AcDbAlignedDimension
 13
138.4799045207
 23
-66.5451524436
 14
278.4799045207
 24
-69.5451524436
100
AcDbRotatedDimension
  0
DIMENSION
  5
235
100
AcDbEntity
  8
0
100
AcDbDimension
 62
7
  6
CONTINUOUS
  2
*D3
 10
374.5897909231
 20
-127.0671781581
 11
421.3397909231
 21
-127.0671781581
 70
160
 71
2
 72
2
 41
0.9
  1
125
  3
DIMSTYLE_1
100
AcDbAlignedDimension
 13
499.5897909231
 23
-66.5451524436
 14
374.5897909231
 24
-69.5451524436
 50
180.0
100
AcDbRotatedDimension
  0
LWPOLYLINE
  5
236
100
AcDbEntity
  8
0
100
AcDbPolyline
 62
7
  6
CONTINUOUS
 90
2
 70
0
 43
0.3499999917
 10
-229.6065710449
 20
-21.3514020538
 10
-229.6065710449
 20
-20.0389020538
  0
LINE
  5
237
100
AcDbEntity
  8
0
100
AcDbLine
 62
7
  6
CONTINUOUS
 10
-171.5200895185
 20
-69.5451510608
 11
-171.5200895185
 21
59.6548475088
  0
LINE
  5
238
100
AcDbEntity
  8
0
100
AcDbLine
 62
7
  6
CONTINUOUS
 10
-170.5201023933
 20
-70.5451530872
 11
-170.5201023933
 21
-68.78121323
  0
LINE
  5
239
100
AcDbEntity
  8
0
100
AcDbLine
 62
7
  6
CONTINUOUS
 10
-170.5201023933
 20
58.8909154988
 11
-170.5201023933
 21
60.6548475564
  0
LINE
  5
23A
100
AcDbEntity
  8
0
100
AcDbLine
 62
7
  6
CONTINUOUS
 10
-170.0200939293
 20
60.6548475564
 11
-170.0200939293
 21
59.6548475088
  0
LINE
  5
23B
100
AcDbEntity
  8
0
100
AcDbLine
 62
7
  6
CONTINUOUS
 10
-170.0200939293
 20
-70.5451530872
 11
-170.0200939293
 21
-69.5451510608
  0
LINE
  5
23C
100
AcDbEntity
  8
0
100
AcDbLine
 62
7
  6
CONTINUOUS
 10
-169.8200905437
 20
-69.2488563716
 11
-169.8200905437
 21
-70.5451530872
  0
LINE
  5
23D
100
AcDbEntity
  8
0
100
AcDbLine
 62
7
  6
CONTINUOUS
 10
-169.8200905437
 20
59.3585487452
 11
-169.8200905437
 21
60.6548475564
  0
LINE
  5
23E
100
AcDbEntity
  8
0
100
AcDbLine
 62
7
  6
CONTINUOUS
 10
-160.1200902577
 20
54.4048474632
 11
-160.1200902577
 21
52.9048476832
  0
LINE
  5
23F
100
AcDbEntity
  8
0
100
AcDbLine
 62
7
  6
CONTINUOUS
 10
-156.9200956937
 20
52.9048476832
 11
-156.9200956937
 21
54.4048474632
  0
LINE
  5
240
100
AcDbEntity
  8
0
100
AcDbLine
 62
7
  6
CONTINUOUS
 10
-170.4664433117
 20
58.937774412
 11
-170.3526282425
 21
59.2967510684
  0
LINE
  5
241
100
AcDbEntity
  8
0
100
AcDbLine
 62
7
  6
CONTINUOUS
 10
-170.3526282425
 20
59.2967510684
 11
-170.1640093441
 21
59.6548475088
  0
LWPOLYLINE
  5
242
100
AcDbEntity
  8
0
100
AcDbPolyline
 62
7
  6
CONTINUOUS
 90
15
 70
0
 43
0.3499999917
 10
-221.4398986816
 20
21.304846344
 10
-222.6065625
 20
19.992346344
 10
-223.7732263184
 20
19.336096344
 10
-226.1065795898
 20
18.679846344
 10
-230.7732348633
 20
18.679846344
 10
-233.1065625
 20
19.336096344
 10
-234.2732263184
 20
19.992346344
 10
-235.4399157715
 20
21.304846344
 10
-234.2732263184
 20
22.617346344
 10
-233.1065625
 20
23.273596344
 10
-230.7732348633
 20
23.929846344
 10
-226.1065795898
 20
23.929846344
 10
-223.7732263184
 20
23.273596344
 10
-222.6065625
 20
22.617346344
 10
-221.4398986816
 20
21.304846344
  0
LWPOLYLINE
  5
243
100
AcDbEntity
  8
0
100
AcDbPolyline
 62
7
  6
CONTINUOUS
 90
2
 70
0
 43
0.3499999917
 10
-28.1763468933
 20
-115.502210083
 10
-26.8638452911
 20
-115.502210083
  0
LWPOLYLINE
  5
244
100
AcDbEntity
  8
0
100
AcDbPolyline
 62
7
  6
CONTINUOUS
 90
14
 70
0
 43
0.3499999917
 10
450.2147753906
 20
-109.5671786499
 10
446.2772753906
 20
-109.5671786499
 10
445.6210253906
 20
-115.4005105591
 10
446.9335253906
 20
-114.2338467407
 10
448.2460253906
 20
-114.2338467407
 10
449.5585253906
 20
-115.4005105591
 10
450.2147753906
 20
-116.5671807861
 10
450.8710253906
 20
-118.9005084229
 10
450.2147753906
 20
-121.2338424683
 10
449.5585253906
 20
-122.4005126953
 10
448.2460253906
 20
-123.5671765137
 10
446.9335253906
 20
-123.5671765137
 10
445.6210253906
 20
-122.4005126953
 10
444.9647753906
 20
-121.2338424683
  0
LINE
  5
245
100
AcDbEntity
  8
0
100
AcDbLine
 62
7
  6
CONTINUOUS
 10
277.4799114351
 20
-70.5451530872
 11
-170.5201023933
 21
-70.5451530872
  0
LINE
  5
246
100
AcDbEntity
  8
0
100
AcDbLine
 62
7
  6
CONTINUOUS
 10
377.7897879311
 20
-70.5451530872
 11
523.3897864647
 21
-70.5451530872
  0
LINE
  5
247
100
AcDbEntity
  8
0
100
AcDbLine
 62
7
  6
CONTINUOUS
 10
-171.5200895185
 20
-69.5451510608
 11
-169.8200905437
 21
-69.5451510608
  0
LINE
  5
248
100
AcDbEntity
  8
0
100
AcDbLine
 62
7
  6
CONTINUOUS
 10
-168.5200983401
 20
-69.5451510608
 11
134.4799047591
 21
-69.5451510608
  0
LINE
  5
249
100
AcDbEntity
  8
0
100
AcDbLine
 62
7
  6
CONTINUOUS
 10
141.4799040439
 20
-69.5451510608
 11
278.4798985603
 21
-69.5451510608
  0
LINE
  5
24A
100
AcDbEntity
  8
0
100
AcDbLine
 62
7
  6
CONTINUOUS
 10
374.5897933671
 20
-69.5451510608
 11
496.5897910127
 21
-69.5451510608
  0
LINE
  5
24B
100
AcDbEntity
  8
0
100
AcDbLine
 62
7
  6
CONTINUOUS
 10
504.5897923239
 20
-69.5451510608
 11
526.5897884795
 21
-69.5451510608
  0
LWPOLYLINE
  5
24C
100
AcDbEntity
  8
0
100
AcDbPolyline
 62
7
  6
CONTINUOUS
 90
8
 70
0
 43
0.3499999917
 10
-233.1065625
 20
8.179846344
 10
-234.2732263184
 20
8.836096344
 10
-235.4399157715
 20
10.148596344
 10
-235.4399157715
 20
11.461096344
 10
-234.2732263184
 20
12.773596344
 10
-233.1065625
 20
13.429846344
 10
-230.7732348633
 20
13.429846344
 10
-229.6065710449
 20
12.773596344
  0
LWPOLYLINE
  5
24D
100
AcDbEntity
  8
0
100
AcDbPolyline
 62
7
  6
CONTINUOUS
 90
15
 70
0
 43
0.3499999917
 10
-17.0200952911
 20
-123.6688760376
 10
-18.3325952911
 20
-122.5022122192
 10
-18.9888452911
 20
-121.3355419922
 10
-19.6450952911
 20
-119.0022079468
 10
-19.6450952911
 20
-114.335539856
 10
-18.9888452911
 20
-112.0022122192
 10
-18.3325952911
 20
-110.8355419922
 10
-17.0200952911
 20
-109.6688781738
 10
-15.7075952911
 20
-110.8355419922
 10
-15.0513452911
 20
-112.0022122192
 10
-14.3950952911
 20
-114.335539856
 10
-14.3950952911
 20
-119.0022079468
 10
-15.0513452911
 20
-121.3355419922
 10
-15.7075952911
 20
-122.5022122192
 10
-17.0200952911
 20
-123.6688760376
  0
LWPOLYLINE
  5
24E
100
AcDbEntity
  8
0
100
AcDbPolyline
 62
7
  6
CONTINUOUS
 90
9
 70
0
 43
0.3499999917
 10
-234.2732263184
 20
-22.6639024544
 10
-235.4399157715
 20
-21.3514020538
 10
-235.4399157715
 20
-20.0389020538
 10
-234.2732263184
 20
-18.7264020538
 10
-233.1065625
 20
-18.0701520538
 10
-231.9398986816
 20
-18.0701520538
 10
-230.7732348633
 20
-18.7264020538
 10
-229.6065710449
 20
-20.0389020538
 10
-228.4399072266
 20
-18.7264020538
  0
LWPOLYLINE
  5
24F
100
AcDbEntity
  8
0
100
AcDbPolyline
 62
7
  6
CONTINUOUS
 90
5
 70
0
 43
0.3499999917
 10
-229.6065710449
 20
12.773596344
 10
-227.2732434082
 20
10.148596344
 10
-224.9399157715
 20
8.836096344
 10
-221.4398986816
 20
8.179846344
 10
-221.4398986816
 20
13.429846344
  0
LINE
  5
250
100
AcDbEntity
  8
0
100
AcDbLine
 62
7
  6
CONTINUOUS
 10
-170.3526282425
 20
-69.187061256
 11
-170.1640093441
 21
-69.5451510608
  0
LINE
  5
251
100
AcDbEntity
  8
0
100
AcDbLine
 62
7
  6
CONTINUOUS
 10
-170.4664433117
 20
-68.828077382
 11
-170.3526282425
 21
-69.187061256
  0
LINE
  5
252
100
AcDbEntity
  8
0
100
AcDbLine
 62
7
  6
CONTINUOUS
 10
-171.5200895185
 20
-69.045157498
 11
-170.5201023933
 21
-69.045157498
  0
LINE
  5
253
100
AcDbEntity
  8
0
100
AcDbLine
 62
8
  6
CONTINUOUS
 10
136.8799081331
 20
-68.3451456488
 11
139.0799081211
 21
-68.3451456488
  0
LINE
  5
254
100
AcDbEntity
  8
0
100
AcDbLine
 62
7
  6
CONTINUOUS
 10
-170.9200942633
 20
-68.3451456488
 11
-171.5200895185
 21
-68.3451456488
  0
LINE
  5
255
100
AcDbEntity
  8
0
100
AcDbLine
 62
8
  6
CONTINUOUS
 10
498.9897906607
 20
-68.3451456488
 11
502.1897926755
 21
-68.3451456488
  0
LINE
  5
256
100
AcDbEntity
  8
0
100
AcDbLine
 62
7
  6
CONTINUOUS
 10
137.4799033883
 20
-60.5451551736
 11
138.4799054151
 21
-60.5451551736
  0
LINE
  5
257
100
AcDbEntity
  8
0
100
AcDbLine
 62
7
  6
CONTINUOUS
 10
499.5897896415
 20
-60.5451551736
 11
501.5897899695
 21
-60.5451551736
  0
LINE
  5
258
100
AcDbEntity
  8
0
100
AcDbLine
 62
7
  6
CONTINUOUS
 10
-12.4292874453
 20
-50.0451487956
 11
-15.6109014269
 21
-50.0451487956
  0
LINE
  5
259
100
AcDbEntity
  8
0
100
AcDbLine
 62
7
  6
CONTINUOUS
 10
-149.9292904253
 20
-50.0451487956
 11
-153.1108969565
 21
-50.0451487956
  0
LWPOLYLINE
  5
25A
100
AcDbEntity
  8
0
100
AcDbPolyline
 62
7
  6
CONTINUOUS
 90
15
 70
0
 43
0.3499999917
 10
218.979909668
 20
-123.6688760376
 10
217.667409668
 20
-122.5022122192
 10
217.011159668
 20
-121.3355419922
 10
216.354909668
 20
-119.0022079468
 10
216.354909668
 20
-114.335539856
 10
217.011159668
 20
-112.0022122192
 10
217.667409668
 20
-110.8355419922
 10
218.979909668
 20
-109.6688781738
 10
220.292409668
 20
-110.8355419922
 10
220.948659668
 20
-112.0022122192
 10
221.604909668
 20
-114.335539856
 10
221.604909668
 20
-119.0022079468
 10
220.948659668
 20
-121.3355419922
 10
220.292409668
 20
-122.5022122192
 10
218.979909668
 20
-123.6688760376
  0
LINE
  5
25B
100
AcDbEntity
  8
0
100
AcDbLine
 62
7
  6
CONTINUOUS
 10
-169.4218835477
 20
60.7166089064
 11
-169.4120620317
 21
60.7251380388
  0
LWPOLYLINE
  5
25C
100
AcDbEntity
  8
0
100
AcDbPolyline
 62
7
  6
CONTINUOUS
 90
2
 70
0
 43
0.3499999917
 10
-235.4399157715
 20
-31.1951524544
 10
-221.4398986816
 20
-31.1951524544
  0
LINE
  5
25D
100
AcDbEntity
  8
0
100
AcDbLine
 62
7
  6
CONTINUOUS
 10
497.8756494647
 20
-26.1451540052
 11
498.8339319655
 21
-26.1451540052
  0
LINE
  5
25E
100
AcDbEntity
  8
0
100
AcDbLine
 62
7
  6
CONTINUOUS
 10
-169.4317051069
 20
60.7086909424
 11
-169.4218835477
 21
60.7166089064
  0
LINE
  5
25F
100
AcDbEntity
  8
0
100
AcDbLine
 62
7
  6
CONTINUOUS
 10
498.8339319655
 20
-12.5451547564
 11
497.5897893139
 21
-12.5451547564
  0
LINE
  5
260
100
AcDbEntity
  8
0
100
AcDbLine
 62
7
  6
CONTINUOUS
 10
-169.4415267045
 20
60.7013230292
 11
-169.4317051069
 21
60.7086909424
  0
LINE
  5
261
100
AcDbEntity
  8
0
100
AcDbLine
 62
7
  6
CONTINUOUS
 10
-169.4513483369
 20
60.6944440508
 11
-169.4415267045
 21
60.7013230292
  0
LWPOLYLINE
  5
262
100
AcDbEntity
  8
0
100
AcDbPolyline
 62
7
  6
CONTINUOUS
 90
2
 70
0
 43
0.3499999917
 10
-235.4399157715
 20
-10.1951520538
 10
-221.4398986816
 20
-10.1951520538
  0
LINE
  5
263
100
AcDbEntity
  8
0
100
AcDbLine
 62
7
  6
CONTINUOUS
 10
153.4799045207
 20
-3.9451524436
 11
147.9799045227
 21
-3.9451524436
  0
LINE
  5
264
100
AcDbEntity
  8
0
100
AcDbLine
 62
7
  6
CONTINUOUS
 10
155.9799045207
 20
-3.9451524436
 11
160.9799045207
 21
-3.9451524436
  0
LINE
  5
265
100
AcDbEntity
  8
0
100
AcDbLine
 62
7
  6
CONTINUOUS
 10
163.4799045207
 20
-3.9451524436
 11
168.9799045187
 21
-3.9451524436
  0
LINE
  5
266
100
AcDbEntity
  8
0
100
AcDbLine
 62
7
  6
CONTINUOUS
 10
497.5897893139
 20
1.8548468592
 11
498.8339319655
 21
1.8548468592
  0
LWPOLYLINE
  5
267
100
AcDbEntity
  8
0
100
AcDbPolyline
 62
7
  6
CONTINUOUS
 90
17
 70
0
 43
0.3499999917
 10
-3.8950952911
 20
-114.335539856
 10
-4.5513452911
 20
-116.6688739014
 10
-6.5200952911
 20
-117.8355441284
 10
-8.4888452911
 20
-116.6688739014
 10
-9.1450952911
 20
-114.335539856
 10
-8.4888452911
 20
-112.0022122192
 10
-7.8325952911
 20
-110.8355419922
 10
-6.5200952911
 20
-109.6688781738
 10
-5.2075952911
 20
-110.8355419922
 10
-4.5513452911
 20
-112.0022122192
 10
-3.8950952911
 20
-114.335539856
 10
-3.8950952911
 20
-119.0022079468
 10
-4.5513452911
 20
-121.3355419922
 10
-5.2075952911
 20
-122.5022122192
 10
-6.5200952911
 20
-123.6688760376
 10
-7.8325952911
 20
-122.5022122192
 10
-8.4888452911
 20
-121.3355419922
  0
LINE
  5
268
100
AcDbEntity
  8
0
100
AcDbLine
 62
7
  6
CONTINUOUS
 10
-169.4611699993
 20
60.6879928904
 11
-169.4513483369
 21
60.6944440508
  0
LINE
  5
269
100
AcDbEntity
  8
0
100
AcDbLine
 62
7
  6
CONTINUOUS
 10
498.8339319655
 20
15.454846108
 11
498.1539025731
 21
15.454846108
  0
LINE
  5
26A
100
AcDbEntity
  8
0
100
AcDbLine
 62
7
  6
CONTINUOUS
 10
-169.4759025401
 20
60.6789846144
 11
-169.4611699993
 21
60.6879928904
  0
LINE
  5
26B
100
AcDbEntity
  8
0
100
AcDbLine
 62
7
  6
CONTINUOUS
 10
-169.4906351249
 20
60.6705951464
 11
-169.4759025401
 21
60.6789846144
  0
LINE
  5
26C
100
AcDbEntity
  8
0
100
AcDbLine
 62
7
  6
CONTINUOUS
 10
-169.5053677385
 20
60.6626182168
 11
-169.4906351249
 21
60.6705951464
  0
LINE
  5
26D
100
AcDbEntity
  8
0
100
AcDbLine
 62
7
  6
CONTINUOUS
 10
-169.5201003669
 20
60.6548475564
 11
-169.5053677385
 21
60.6626182168
  0
LINE
  5
26E
100
AcDbEntity
  8
0
100
AcDbLine
 62
7
  6
CONTINUOUS
 10
137.4799033883
 20
50.65484778
 11
138.4799054151
 21
50.65484778
  0
LINE
  5
26F
100
AcDbEntity
  8
0
100
AcDbLine
 62
7
  6
CONTINUOUS
 10
499.5897896415
 20
50.65484778
 11
501.5897899695
 21
50.65484778
  0
LINE
  5
270
100
AcDbEntity
  8
0
100
AcDbLine
 62
7
  6
CONTINUOUS
 10
158.4799012427
 20
57.6548475304
 11
148.4799033287
 21
57.6548475304
  0
LINE
  5
271
100
AcDbEntity
  8
0
100
AcDbLine
 62
7
  6
CONTINUOUS
 10
147.9799023155
 20
58.1548476124
 11
148.4799033287
 21
58.1548476124
  0
LINE
  5
272
100
AcDbEntity
  8
0
100
AcDbLine
 62
7
  6
CONTINUOUS
 10
158.4799012427
 20
58.1548476124
 11
159.0434110051
 21
58.1548476124
  0
LINE
  5
273
100
AcDbEntity
  8
0
100
AcDbLine
 62
8
  6
CONTINUOUS
 10
159.1468772175
 20
58.4548475684
 11
158.4799012427
 21
58.4548475684
  0
LINE
  5
274
100
AcDbEntity
  8
0
100
AcDbLine
 62
8
  6
CONTINUOUS
 10
136.8799081331
 20
58.4548475684
 11
139.0799081211
 21
58.4548475684
  0
LINE
  5
275
100
AcDbEntity
  8
0
100
AcDbLine
 62
8
  6
CONTINUOUS
 10
147.8129348043
 20
58.4548475684
 11
148.4799033287
 21
58.4548475684
  0
LINE
  5
276
100
AcDbEntity
  8
0
100
AcDbLine
 62
7
  6
CONTINUOUS
 10
-170.9200942633
 20
58.4548475684
 11
-171.5200895185
 21
58.4548475684
  0
LINE
  5
277
100
AcDbEntity
  8
0
100
AcDbLine
 62
8
  6
CONTINUOUS
 10
498.9897906607
 20
58.4548475684
 11
502.1897926755
 21
58.4548475684
  0
LINE
  5
278
100
AcDbEntity
  8
0
100
AcDbLine
 62
7
  6
CONTINUOUS
 10
-171.5200895185
 20
59.1548475432
 11
-170.5201023933
 21
59.1548475432
  0
LINE
  5
279
100
AcDbEntity
  8
0
100
AcDbLine
 62
7
  6
CONTINUOUS
 10
496.5897910127
 20
59.6548475088
 11
374.5897933671
 21
59.6548475088
  0
LINE
  5
27A
100
AcDbEntity
  8
0
100
AcDbLine
 62
7
  6
CONTINUOUS
 10
-171.5200895185
 20
59.6548475088
 11
-169.8200905437
 21
59.6548475088
  0
LINE
  5
27B
100
AcDbEntity
  8
0
100
AcDbLine
 62
7
  6
CONTINUOUS
 10
278.4798985603
 20
59.6548475088
 11
160.9799063091
 21
59.6548475088
  0
LINE
  5
27C
100
AcDbEntity
  8
0
100
AcDbLine
 62
7
  6
CONTINUOUS
 10
145.9799057131
 20
59.6548475088
 11
141.4799040439
 21
59.6548475088
  0
LINE
  5
27D
100
AcDbEntity
  8
0
100
AcDbLine
 62
7
  6
CONTINUOUS
 10
147.9799023155
 20
59.6548475088
 11
160.4799052959
 21
59.6548475088
  0
LINE
  5
27E
100
AcDbEntity
  8
0
100
AcDbLine
 62
7
  6
CONTINUOUS
 10
134.4799047591
 20
59.6548475088
 11
-168.5200983401
 21
59.6548475088
  0
LINE
  5
27F
100
AcDbEntity
  8
0
100
AcDbLine
 62
7
  6
CONTINUOUS
 10
504.5897923239
 20
59.6548475088
 11
526.5897884795
 21
59.6548475088
  0
LINE
  5
280
100
AcDbEntity
  8
0
100
AcDbLine
 62
7
  6
CONTINUOUS
 10
-170.5201023933
 20
60.6548475564
 11
277.4799114351
 21
60.6548475564
  0
LINE
  5
281
100
AcDbEntity
  8
0
100
AcDbLine
 62
7
  6
CONTINUOUS
 10
128.3799058083
 20
54.4048474632
 11
128.3799058083
 21
52.9048476832
  0
LINE
  5
282
100
AcDbEntity
  8
0
100
AcDbLine
 62
7
  6
CONTINUOUS
 10
131.5799078231
 20
52.9048476832
 11
131.5799078231
 21
54.4048474632
  0
LINE
  5
283
100
AcDbEntity
  8
0
100
AcDbLine
 62
7
  6
CONTINUOUS
 10
137.4799033883
 20
56.6548473664
 11
137.4799033883
 21
-66.5451598824
  0
LINE
  5
284
100
AcDbEntity
  8
0
100
AcDbLine
 62
7
  6
CONTINUOUS
 10
138.4799054151
 20
56.6548473664
 11
138.4799054151
 21
-66.5451598824
  0
LWPOLYLINE
  5
285
100
AcDbEntity
  8
0
100
AcDbPolyline
 62
7
  6
CONTINUOUS
 90
5
 70
0
 43
0.3499999917
 10
-221.4398986816
 20
0.304846344
 10
-222.6065625
 20
-0.351403656
 10
-222.6065625
 20
0.304846344
 10
-221.4398986816
 20
0.304846344
 10
-219.1065710449
 20
-1.007653656
  0
LINE
  5
286
100
AcDbEntity
  8
0
100
AcDbLine
 62
7
  6
CONTINUOUS
 10
147.9799023155
 20
57.1548474484
 11
147.9799023155
 21
57.6548475304
  0
LINE
  5
287
100
AcDbEntity
  8
0
100
AcDbLine
 62
7
  6
CONTINUOUS
 10
147.9799023155
 20
58.1548476124
 11
147.9799023155
 21
60.6548475564
  0
LINE
  5
288
100
AcDbEntity
  8
0
100
AcDbLine
 62
7
  6
CONTINUOUS
 10
148.4799033287
 20
57.1548474484
 11
148.4799033287
 21
60.6548475564
  0
LINE
  5
289
100
AcDbEntity
  8
0
100
AcDbLine
 62
7
  6
CONTINUOUS
 10
149.4799053555
 20
60.6548475564
 11
149.4799053555
 21
59.6548475088
  0
LINE
  5
28A
100
AcDbEntity
  8
0
100
AcDbLine
 62
7
  6
CONTINUOUS
 10
152.1799063567
 20
-8.8756693064
 11
152.1799063567
 21
0.9853641032
  0
LWPOLYLINE
  5
28B
100
AcDbEntity
  8
0
100
AcDbPolyline
 62
7
  6
CONTINUOUS
 90
9
 70
0
 43
0.3499999917
 10
-228.4399072266
 20
-18.7264020538
 10
-226.1065795898
 20
-17.4139020538
 10
-224.9399157715
 20
-17.4139020538
 10
-223.7732263184
 20
-18.0701520538
 10
-222.6065625
 20
-18.7264020538
 10
-221.4398986816
 20
-20.0389020538
 10
-221.4398986816
 20
-21.3514020538
 10
-222.6065625
 20
-22.6639024544
 10
-223.7732263184
 20
-23.3201524544
  0
LINE
  5
28C
100
AcDbEntity
  8
0
100
AcDbLine
 62
7
  6
CONTINUOUS
 10
158.4799012427
 20
57.1548474484
 11
158.4799012427
 21
59.6548475088
  0
LINE
  5
28D
100
AcDbEntity
  8
0
100
AcDbLine
 62
7
  6
CONTINUOUS
 10
158.4799045207
 20
-8.9451524436
 11
158.4799045207
 21
-14.4451524416
  0
LINE
  5
28E
100
AcDbEntity
  8
0
100
AcDbLine
 62
7
  6
CONTINUOUS
 10
158.4799045207
 20
-6.4451524436
 11
158.4799045207
 21
-1.4451524436
  0
LINE
  5
28F
100
AcDbEntity
  8
0
100
AcDbLine
 62
7
  6
CONTINUOUS
 10
158.4799045207
 20
1.0548475564
 11
158.4799045207
 21
6.5548475544
  0
LINE
  5
290
100
AcDbEntity
  8
0
100
AcDbLine
 62
7
  6
CONTINUOUS
 10
158.9799022559
 20
57.6548475304
 11
158.9799022559
 21
57.1548474484
  0
LINE
  5
291
100
AcDbEntity
  8
0
100
AcDbLine
 62
7
  6
CONTINUOUS
 10
160.4799052959
 20
60.6548475564
 11
160.4799052959
 21
59.6548475088
  0
LINE
  5
292
100
AcDbEntity
  8
0
100
AcDbLine
 62
7
  6
CONTINUOUS
 10
161.4799073223
 20
60.6548475564
 11
161.4799073223
 21
59.6548475088
  0
LINE
  5
293
100
AcDbEntity
  8
0
100
AcDbLine
 62
7
  6
CONTINUOUS
 10
162.4799018983
 20
59.6548475088
 11
162.4799018983
 21
60.6548475564
  0
LINE
  5
294
100
AcDbEntity
  8
0
100
AcDbLine
 62
7
  6
CONTINUOUS
 10
164.7799035791
 20
0.9853641032
 11
164.7799035791
 21
-8.8756693064
  0
LWPOLYLINE
  5
295
100
AcDbEntity
  8
0
100
AcDbPolyline
 62
7
  6
CONTINUOUS
 90
2
 70
0
 43
0.3499999917
 10
197.979909668
 20
-109.6688781738
 10
197.979909668
 20
-123.6688760376
  0
LWPOLYLINE
  5
296
100
AcDbEntity
  8
0
100
AcDbPolyline
 62
7
  6
CONTINUOUS
 90
4
 70
0
 43
0.3499999917
 10
210.448659668
 20
-123.6688760376
 10
210.448659668
 20
-109.6688781738
 10
205.854909668
 20
-120.1688781738
 10
211.761159668
 20
-120.1688781738
  0
LWPOLYLINE
  5
297
100
AcDbEntity
  8
0
100
AcDbPolyline
 62
7
  6
CONTINUOUS
 90
18
 70
0
 43
0.3499999917
 10
-29.4888468933
 20
-110.8355419922
 10
-28.1763468933
 20
-109.6688781738
 10
-26.8638452911
 20
-109.6688781738
 10
-25.5513452911
 20
-110.8355419922
 10
-24.8950952911
 20
-112.0022122192
 10
-24.8950952911
 20
-113.1688760376
 10
-25.5513452911
 20
-114.335539856
 10
-26.8638452911
 20
-115.502210083
 10
-25.5513452911
 20
-116.6688739014
 10
-24.8950952911
 20
-117.8355441284
 10
-24.2388452911
 20
-119.0022079468
 10
-24.2388452911
 20
-120.1688781738
 10
-24.8950952911
 20
-121.3355419922
 10
-25.5513452911
 20
-122.5022122192
 10
-26.8638452911
 20
-123.6688760376
 10
-28.1763468933
 20
-123.6688760376
 10
-29.4888468933
 20
-122.5022122192
 10
-30.1450968933
 20
-121.3355419922
  0
LINE
  5
298
100
AcDbEntity
  8
0
100
AcDbLine
 62
7
  6
CONTINUOUS
 10
275.2799039963
 20
60.6548475564
 11
275.2799039963
 21
59.6548475088
  0
LINE
  5
299
100
AcDbEntity
  8
0
100
AcDbLine
 62
7
  6
CONTINUOUS
 10
275.2799039963
 20
-70.5451530872
 11
275.2799039963
 21
-69.5451510608
  0
LINE
  5
29A
100
AcDbEntity
  8
0
100
AcDbLine
 62
7
  6
CONTINUOUS
 10
276.4799094083
 20
-69.5451510608
 11
276.4799094083
 21
59.6548475088
  0
LINE
  5
29B
100
AcDbEntity
  8
0
100
AcDbLine
 62
7
  6
CONTINUOUS
 10
277.4799114351
 20
60.6548475564
 11
277.4799114351
 21
59.6548475088
  0
LINE
  5
29C
100
AcDbEntity
  8
0
100
AcDbLine
 62
7
  6
CONTINUOUS
 10
277.4799114351
 20
-70.5451530872
 11
277.4799114351
 21
-69.5451510608
  0
LINE
  5
29D
100
AcDbEntity
  8
0
100
AcDbLine
 62
7
  6
CONTINUOUS
 10
278.4798985603
 20
-69.5451510608
 11
278.4798985603
 21
59.6548475088
  0
LINE
  5
29E
100
AcDbEntity
  8
0
100
AcDbLine
 62
7
  6
CONTINUOUS
 10
374.5897933671
 20
-69.5451510608
 11
374.5897933671
 21
59.6548475088
  0
LINE
  5
29F
100
AcDbEntity
  8
0
100
AcDbLine
 62
7
  6
CONTINUOUS
 10
376.5897899695
 20
-69.5451510608
 11
376.5897899695
 21
59.6548475088
  0
LINE
  5
2A0
100
AcDbEntity
  8
0
100
AcDbLine
 62
7
  6
CONTINUOUS
 10
377.7897879311
 20
-70.5451530872
 11
377.7897879311
 21
-69.5451510608
  0
LINE
  5
2A1
100
AcDbEntity
  8
0
100
AcDbLine
 62
7
  6
CONTINUOUS
 10
386.0897943207
 20
-70.5451530872
 11
386.0897943207
 21
-69.5451510608
  0
LINE
  5
2A2
100
AcDbEntity
  8
0
100
AcDbLine
 62
7
  6
CONTINUOUS
 10
386.5897878835
 20
-70.5451530872
 11
386.5897878835
 21
-69.5451510608
  0
LWPOLYLINE
  5
2A3
100
AcDbEntity
  8
0
100
AcDbPolyline
 62
7
  6
CONTINUOUS
 90
2
 70
0
 43
0.3499999917
 10
426.5898010254
 20
-109.5671786499
 10
426.5898010254
 20
-123.5671765137
  0
LINE
  5
2A4
100
AcDbEntity
  8
0
100
AcDbLine
 62
7
  6
CONTINUOUS
 10
489.2339296467
 20
7.9280795992
 11
489.2339296467
 21
7.1816171052
  0
LINE
  5
2A5
100
AcDbEntity
  8
0
100
AcDbLine
 62
7
  6
CONTINUOUS
 10
489.2339296467
 20
-18.0719209372
 11
489.2339296467
 21
-18.818379706
  0
LINE
  5
2A6
100
AcDbEntity
  8
0
100
AcDbLine
 62
7
  6
CONTINUOUS
 10
497.5897893139
 20
14.5548457744
 11
497.5897893139
 21
-25.4451496064
  0
LINE
  5
2A7
100
AcDbEntity
  8
0
100
AcDbLine
 62
7
  6
CONTINUOUS
 10
498.8339319655
 20
-26.1451540052
 11
498.8339319655
 21
-12.5451547564
  0
LINE
  5
2A8
100
AcDbEntity
  8
0
100
AcDbLine
 62
7
  6
CONTINUOUS
 10
498.8339319655
 20
1.8548468592
 11
498.8339319655
 21
15.454846108
  0
LINE
  5
2A9
100
AcDbEntity
  8
0
100
AcDbLine
 62
7
  6
CONTINUOUS
 10
499.5897896415
 20
-66.5451598824
 11
499.5897896415
 21
-27.4451536596
  0
LINE
  5
2AA
100
AcDbEntity
  8
0
100
AcDbLine
 62
7
  6
CONTINUOUS
 10
499.5897896415
 20
16.554846102
 11
499.5897896415
 21
56.6548473664
  0
LINE
  5
2AB
100
AcDbEntity
  8
0
100
AcDbLine
 62
7
  6
CONTINUOUS
 10
501.5897899695
 20
56.6548473664
 11
501.5897899695
 21
16.554846102
  0
LINE
  5
2AC
100
AcDbEntity
  8
0
100
AcDbLine
 62
7
  6
CONTINUOUS
 10
501.5897899695
 20
-27.4451536596
 11
501.5897899695
 21
-66.5451598824
  0
LINE
  5
2AD
100
AcDbEntity
  8
0
100
AcDbLine
 62
7
  6
CONTINUOUS
 10
503.5897902971
 20
-25.4451496064
 11
503.5897902971
 21
14.5548457744
  0
LINE
  5
2AE
100
AcDbEntity
  8
0
100
AcDbLine
 62
7
  6
CONTINUOUS
 10
514.5897939631
 20
-69.5451510608
 11
514.5897939631
 21
-70.5451530872
  0
LINE
  5
2AF
100
AcDbEntity
  8
0
100
AcDbLine
 62
7
  6
CONTINUOUS
 10
515.0897875255
 20
-70.5451530872
 11
515.0897875255
 21
-69.5451510608
  0
LINE
  5
2B0
100
AcDbEntity
  8
0
100
AcDbLine
 62
7
  6
CONTINUOUS
 10
523.3897864647
 20
-70.5451530872
 11
523.3897864647
 21
-69.5451510608
  0
LINE
  5
2B1
100
AcDbEntity
  8
0
100
AcDbLine
 62
7
  6
CONTINUOUS
 10
524.0897908635
 20
-69.5451510608
 11
524.0897908635
 21
59.6548475088
  0
LINE
  5
2B2
100
AcDbEntity
  8
0
100
AcDbLine
 62
7
  6
CONTINUOUS
 10
526.5897884795
 20
59.6548475088
 11
526.5897884795
 21
-69.5451510608
  0
LWPOLYLINE
  5
2B3
100
AcDbEntity
  8
0
100
AcDbPolyline
 62
7
  6
CONTINUOUS
 90
8
 70
0
 43
0.3499999917
 10
434.4647753906
 20
-111.9005126953
 10
435.1210253906
 20
-110.7338424683
 10
436.4335253906
 20
-109.5671786499
 10
437.7460253906
 20
-109.5671786499
 10
439.0585253906
 20
-110.7338424683
 10
439.7147753906
 20
-111.9005126953
 10
439.7147753906
 20
-114.2338467407
 10
439.0585253906
 20
-115.4005105591
  0
LWPOLYLINE
  5
2B4
100
AcDbEntity
  8
0
100
AcDbPolyline
 62
7
  6
CONTINUOUS
 90
5
 70
0
 43
0.3499999917
 10
439.0585253906
 20
-115.4005105591
 10
436.4335253906
 20
-117.7338446045
 10
435.1210253906
 20
-120.0671786499
 10
434.4647753906
 20
-123.5671765137
 10
439.7147753906
 20
-123.5671765137
  0
ARC
  5
2B5
100
AcDbEntity
  8
0
100
AcDbCircle
 62
7
  6
CONTINUOUS
 10
-168.5200954793
 20
-66.5451524436
 40
3.0
100
AcDbArc
 50
180.0
 51
270.0
  0
ARC
  5
2B6
100
AcDbEntity
  8
0
100
AcDbCircle
 62
7
  6
CONTINUOUS
 10
141.4799045207
 20
-66.5451524436
 40
3.0
100
AcDbArc
 50
180.0
 51
270.0
  0
ARC
  5
2B7
100
AcDbEntity
  8
0
100
AcDbCircle
 62
7
  6
CONTINUOUS
 10
134.4799045207
 20
-66.5451524436
 40
3.0
100
AcDbArc
 50
270.0
 51
360.0
  0
CIRCLE
  5
2B8
100
AcDbEntity
  8
0
100
AcDbCircle
 62
7
  6
CONTINUOUS
 10
-151.5200954793
 20
-49.873870624
 40
1.6
  0
CIRCLE
  5
2B9
100
AcDbEntity
  8
0
100
AcDbCircle
 62
7
  6
CONTINUOUS
 10
123.4799045207
 20
-49.873870624
 40
1.6
  0
CIRCLE
  5
2BA
100
AcDbEntity
  8
0
100
AcDbCircle
 62
7
  6
CONTINUOUS
 10
-14.0200954793
 20
-49.873870624
 40
1.6
  0
CIRCLE
  5
2BB
100
AcDbEntity
  8
0
100
AcDbCircle
 62
7
  6
CONTINUOUS
 10
-158.5200954793
 20
-64.5451524436
 40
1.0
  0
CIRCLE
  5
2BC
100
AcDbEntity
  8
0
100
AcDbCircle
 62
7
  6
CONTINUOUS
 10
129.9799045207
 20
-64.5451524436
 40
1.0
  0
ARC
  5
2BD
100
AcDbEntity
  8
0
100
AcDbCircle
 62
7
  6
CONTINUOUS
 10
158.4799045207
 20
-3.9451524436
 40
7.999999998
100
AcDbArc
 50
218.0475074371
 51
321.9524925629
  0
ARC
  5
2BE
100
AcDbEntity
  8
0
100
AcDbCircle
 62
7
  6
CONTINUOUS
 10
158.4799045207
 20
-3.9451524436
 40
7.999999998
100
AcDbArc
 50
38.0475074371
 51
141.9524925629
  0
ARC
  5
2BF
100
AcDbEntity
  8
0
100
AcDbCircle
 62
7
  6
CONTINUOUS
 10
-168.5200954793
 20
56.6548475564
 40
3.0
100
AcDbArc
 50
90.0
 51
180.0
  0
ARC
  5
2C0
100
AcDbEntity
  8
0
100
AcDbCircle
 62
7
  6
CONTINUOUS
 10
141.4799045207
 20
56.6548475564
 40
3.0
100
AcDbArc
 50
90.0
 51
180.0
  0
ARC
  5
2C1
100
AcDbEntity
  8
0
100
AcDbCircle
 62
7
  6
CONTINUOUS
 10
134.4799045207
 20
56.6548475564
 40
3.0
100
AcDbArc
 50
0.0
 51
90.0
  0
ARC
  5
2C2
100
AcDbEntity
  8
0
100
AcDbCircle
 62
7
  6
CONTINUOUS
 10
160.9799045207
 20
57.6548475564
 40
2.0
100
AcDbArc
 50
90.0
 51
180.0
  0
ARC
  5
2C3
100
AcDbEntity
  8
0
100
AcDbCircle
 62
7
  6
CONTINUOUS
 10
145.9799045207
 20
57.6548475564
 40
2.0
100
AcDbArc
 50
0.0
 51
90.0
  0
ARC
  5
2C4
100
AcDbEntity
  8
0
100
AcDbCircle
 62
7
  6
CONTINUOUS
 10
-158.5200954793
 20
52.9048475564
 40
1.6
100
AcDbArc
 50
180.0
 51
360.0
  0
ARC
  5
2C5
100
AcDbEntity
  8
0
100
AcDbCircle
 62
7
  6
CONTINUOUS
 10
-158.5200954793
 20
54.4048475564
 40
1.6
100
AcDbArc
 50
0.0
 51
180.0
  0
ARC
  5
2C6
100
AcDbEntity
  8
0
100
AcDbCircle
 62
7
  6
CONTINUOUS
 10
129.9799045207
 20
52.9048475564
 40
1.6
100
AcDbArc
 50
180.0
 51
360.0
  0
ARC
  5
2C7
100
AcDbEntity
  8
0
100
AcDbCircle
 62
7
  6
CONTINUOUS
 10
129.9799045207
 20
54.4048475564
 40
1.6
100
AcDbArc
 50
0.0
 51
180.0
  0
CIRCLE
  5
2C8
100
AcDbEntity
  8
0
100
AcDbCircle
 62
7
  6
CONTINUOUS
 10
-158.5200954793
 20
53.6548475564
 40
1.0
  0
CIRCLE
  5
2C9
100
AcDbEntity
  8
0
100
AcDbCircle
 62
7
  6
CONTINUOUS
 10
129.9799045207
 20
53.6548475564
 40
1.0
  0
ARC
  5
2CA
100
AcDbEntity
  8
0
100
AcDbCircle
 62
7
  6
CONTINUOUS
 10
148.2299045207
 20
57.1548475564
 40
0.25
100
AcDbArc
 50
180.0
 51
360.0
  0
ARC
  5
2CB
100
AcDbEntity
  8
0
100
AcDbCircle
 62
7
  6
CONTINUOUS
 10
158.7299045207
 20
57.1548475564
 40
0.25
100
AcDbArc
 50
180.0
 51
360.0
  0
ARC
  5
2CC
100
AcDbEntity
  8
0
100
AcDbCircle
 62
7
  6
CONTINUOUS
 10
504.5897909231
 20
-66.5451524436
 40
3.0
100
AcDbArc
 50
180.0
 51
270.0
  0
ARC
  5
2CD
100
AcDbEntity
  8
0
100
AcDbCircle
 62
7
  6
CONTINUOUS
 10
496.5897909231
 20
-66.5451524436
 40
3.0
100
AcDbArc
 50
270.0
 51
360.0
  0
ARC
  5
2CE
100
AcDbEntity
  8
0
100
AcDbCircle
 62
7
  6
CONTINUOUS
 10
523.3897909231
 20
-68.3451524436
 40
2.2
100
AcDbArc
 50
270.0
 51
326.9442688491
  0
ARC
  5
2CF
100
AcDbEntity
  8
0
100
AcDbCircle
 62
7
  6
CONTINUOUS
 10
377.7897909231
 20
-68.3451524436
 40
2.2
100
AcDbArc
 50
213.0557311508
 51
270.0
  0
CIRCLE
  5
2D0
100
AcDbEntity
  8
0
100
AcDbCircle
 62
7
  6
CONTINUOUS
 10
511.5897909231
 20
-63.5451524436
 40
1.6
  0
CIRCLE
  5
2D1
100
AcDbEntity
  8
0
100
AcDbCircle
 62
7
  6
CONTINUOUS
 10
510.3897909231
 20
-18.4451524436
 40
1.6
  0
CIRCLE
  5
2D2
100
AcDbEntity
  8
0
100
AcDbCircle
 62
7
  6
CONTINUOUS
 10
490.7897909231
 20
-18.4451524436
 40
1.6
  0
ARC
  5
2D3
100
AcDbEntity
  8
0
100
AcDbCircle
 62
7
  6
CONTINUOUS
 10
502.5897909231
 20
-27.4451524436
 40
1.0
100
AcDbArc
 50
90.0
 51
180.0
  0
ARC
  5
2D4
100
AcDbEntity
  8
0
100
AcDbCircle
 62
7
  6
CONTINUOUS
 10
502.5897909231
 20
-25.4451524436
 40
1.0
100
AcDbArc
 50
270.0
 51
360.0
  0
ARC
  5
2D5
100
AcDbEntity
  8
0
100
AcDbCircle
 62
7
  6
CONTINUOUS
 10
498.5897909231
 20
-25.4451524436
 40
1.0
100
AcDbArc
 50
180.0
 51
270.0
  0
ARC
  5
2D6
100
AcDbEntity
  8
0
100
AcDbCircle
 62
7
  6
CONTINUOUS
 10
498.5897909231
 20
-27.4451524436
 40
1.0
100
AcDbArc
 50
0.0
 51
90.0
  0
ARC
  5
2D7
100
AcDbEntity
  8
0
100
AcDbCircle
 62
7
  6
CONTINUOUS
 10
504.5897909231
 20
56.6548475564
 40
3.0
100
AcDbArc
 50
90.0
 51
180.0
  0
ARC
  5
2D8
100
AcDbEntity
  8
0
100
AcDbCircle
 62
7
  6
CONTINUOUS
 10
496.5897909231
 20
56.6548475564
 40
3.0
100
AcDbArc
 50
0.0
 51
90.0
  0
CIRCLE
  5
2D9
100
AcDbEntity
  8
0
100
AcDbCircle
 62
7
  6
CONTINUOUS
 10
511.5897909231
 20
53.6548475564
 40
1.6
  0
CIRCLE
  5
2DA
100
AcDbEntity
  8
0
100
AcDbCircle
 62
7
  6
CONTINUOUS
 10
510.3897909231
 20
7.5548475564
 40
1.6
  0
CIRCLE
  5
2DB
100
AcDbEntity
  8
0
100
AcDbCircle
 62
7
  6
CONTINUOUS
 10
490.7897909231
 20
7.5548475564
 40
1.6
  0
ARC
  5
2DC
100
AcDbEntity
  8
0
100
AcDbCircle
 62
7
  6
CONTINUOUS
 10
502.5897909231
 20
14.5548475564
 40
1.0
100
AcDbArc
 50
0.0
 51
90.0
  0
ARC
  5
2DD
100
AcDbEntity
  8
0
100
AcDbCircle
 62
7
  6
CONTINUOUS
 10
502.5897909231
 20
16.5548475564
 40
1.0
100
AcDbArc
 50
180.0
 51
270.0
  0
ARC
  5
2DE
100
AcDbEntity
  8
0
100
AcDbCircle
 62
7
  6
CONTINUOUS
 10
498.5897909231
 20
14.5548475564
 40
1.0
100
AcDbArc
 50
90.0
 51
180.0
  0
ARC
  5
2DF
100
AcDbEntity
  8
0
100
AcDbCircle
 62
7
  6
CONTINUOUS
 10
498.5897909231
 20
16.5548475564
 40
1.0
100
AcDbArc
 50
270.0
 51
360.0
  0
ENDSEC
  0
SECTION
  2
OBJECTS
  0
DICTIONARY
  5
C
100
AcDbDictionary
280
0
281
1
  3
ACAD_GROUP
350
D
  3
ACAD_MLINESTYLE
350
17
  3
ACAD_LAYOUT
350
1A
  3
ACAD_PLOTSETTINGS
350
19
  3
ACAD_PLOTSTYLENAME
350
E
  0
DICTIONARY
  5
D
102
{ACAD_REACTORS
330
C
102
}
100
AcDbDictionary
280
0
281
1
  0
ACDBDICTIONARYWDFLT
  5
E
102
{ACAD_REACTORS
330
C
102
}
100
AcDbDictionary
281
1
  3
Normal
350
F
100
AcDbDictionaryWithDefault
340
F
  0
DICTIONARY
  5
17
102
{ACAD_REACTORS
330
C
102
}
100
AcDbDictionary
280
0
281
1
  3
Standard
350
18
  0
DICTIONARY
  5
19
102
{ACAD_REACTORS
330
C
102
}
100
AcDbDictionary
281
1
  0
DICTIONARY
  5
1A
102
{ACAD_REACTORS
330
C
102
}
100
AcDbDictionary
281
1
  3
Model
350
2E0
  3
Layout1
350
2E1
  0
ACDBPLACEHOLDER
  5
F
102
{ACAD_REACTORS
330
E
102
}
  0
MLINESTYLE
  5
18
102
{ACAD_REACTORS
330
17
102
}
100
AcDbMlineStyle
  2
STANDARD
 70
0
  3

 62
256
 51
90.0
 52
90.0
 71
2
 49
0.5
 62
256
  6
BYLAYER
 49
-0.5
 62
256
  6
BYLAYER
  0
LAYOUT
  5
2E0
102
{ACAD_REACTORS
330
1A
102
}
100
AcDbPlotSettings
  1

  2
none_device
  4
ISO_A3_(420.00_x_297.00_MM)
  6

 40
0.0
 41
0.0
 42
0.0
 43
0.0
 44
420.0
 45
297.0
 46
0.0
 47
0.0
 48
0.0
 49
0.0
140
0.0
141
0.0
142
1.0
143
1.0
 70
1024
 72
1
 73
0
 74
0
  7

 75
0
147
1.0
148
0.0
149
0.0
100
AcDbLayout
  1
Model
 70
0
 71
0
 10
0.0
 20
0.0
 11
420.0
 21
297.0
 12
0.0
 22
0.0
 32
0.0
 14
0.0
 24
0.0
 34
0.0
 15
0.0
 25
0.0
 35
0.0
146
0.0
 13
0.0
 23
0.0
 33
0.0
 16
1.0
 26
0.0
 36
0.0
 17
0.0
 27
1.0
 37
0.0
 76
0
330
200
345
0
346
0
  0
LAYOUT
  5
2E1
102
{ACAD_REACTORS
330
1A
102
}
100
AcDbPlotSettings
  1

  2
none_device
  4
ISO_A3_(420.00_x_297.00_MM)
  6

 40
0.0
 41
0.0
 42
0.0
 43
0.0
 44
420.0
 45
297.0
 46
0.0
 47
0.0
 48
0.0
 49
0.0
140
0.0
141
0.0
142
1.0
143
1.0
 70
0
 72
1
 73
0
 74
0
  7

 75
0
147
1.0
148
0.0
149
0.0
100
AcDbLayout
  1
Layout1
 70
0
 71
1
 10
0.0
 20
0.0
 11
420.0
 21
297.0
 12
0.0
 22
0.0
 32
0.0
 14
0.0
 24
0.0
 34
0.0
 15
0.0
 25
0.0
 35
0.0
146
0.0
 13
0.0
 23
0.0
 33
0.0
 16
1.0
 26
0.0
 36
0.0
 17
0.0
 27
1.0
 37
0.0
 76
0
330
201
345
0
346
0
  0
ENDSEC
  0
EOF
