0
SECTION
2
HEADER
9
$ACADVER
1
AC1014
9
$HANDSEED
5
       2F0
9
$EXTMAX
10
297.0000000000
20
210.0000000000
9
$EXTMIN
10
0.0000000000
20
0.0000000000
9
$LIMMIN
10
0.0000000000
20
0.0000000000
9
$LIMMAX
10
297.0000000000
20
210.0000000000
9
$VIEWCTR
10
148.5000000000
20
105.0000000000
9
$VIEWSIZE
40
210.0000000000
9
$CLAYER
8
0
9
$LTSCALE
40
16.3350000000
9
$CELTYPE
6
BYLAYER
9
$DIMSCALE
40
1
9
$DIMASZ
40
3.0000000000
9
$DIMEXO
40
1.8562500000
9
$DIMDLI
40
11.2860000000
9
$DIMEXE
40
5.3460000000
9
$DIMCEN
40
2.6730000000
9
$DIMLFAC
40
1.0000000000
9
$DIMTXT
40
3.0000000000
9
$DIMTOL
70
1
9
$DIMLIM
70
0
9
$DIMTFAC
40
1.0000000000
9
$DIMTP
40
0.0100000000
9
$DIMTM
40
0.0100000000
9
$MEASUREMENT
70
1
0
ENDSEC
0
SECTION
2
CLASSES
0
ENDSEC
0
SECTION
2
TABLES
0
TABLE
2
VPORT
5
8
100
AcDbSymbolTable
70
2
0
VPORT
5
1F4
100
AcDbSymbolTableRecord
100
AcDbViewportTableRecord
2
*ACTIVE
70
0
10
0.0
20
0.0
11
1.0
21
1.0
12
148.5000000000
22
105.0000000000
13
0.0
23
0.0
14
1.0
24
1.0
15
0.0
25
0.0
16
0.0
26
0.0
36
1.0
17
0.0
27
0.0
37
0.0
40
210.0000000000
41
1.4142857143
42
50.0
43
0.0
44
0.0
50
0.0
51
0.0
71
0
72
100
73
1
74
1
75
0
76
0
77
0
78
0
0
ENDTAB
0
TABLE
2
LTYPE
5
5
100
AcDbSymbolTable
70
6
0
LTYPE
5
14
100
AcDbSymbolTableRecord
100
AcDbLinetypeTableRecord
2
BYBLOCK
70
0
3

72
65
73
0
40
0.0
0
LTYPE
5
15
100
AcDbSymbolTableRecord
100
AcDbLinetypeTableRecord
2
BYLAYER
70
0
3

72
65
73
0
40
0.0
0
LTYPE
5
16
100
AcDbSymbolTableRecord
100
AcDbLinetypeTableRecord
2
CONTINUOUS
70
64
3
Solid line
72
65
73
0
40
0
0
LTYPE
5
1F5
100
AcDbSymbolTableRecord
100
AcDbLinetypeTableRecord
2
CENTER
70
64
3
____ _ ____ _ ____ _ ____ _ ____ _ ____ _ ____
72
65
73
4
40
0.6
49
0.375
74
0
49
-0.075
74
0
49
0.075
74
0
49
-0.075
74
0
0
LTYPE
5
1F6
100
AcDbSymbolTableRecord
100
AcDbLinetypeTableRecord
2
HIDDEN
70
64
3
- - - - - - - - - - - - - - - - - - - -
72
65
73
2
40
0.2
49
0.1
74
0
49
-0.1
74
0
0
LTYPE
5
1F7
100
AcDbSymbolTableRecord
100
AcDbLinetypeTableRecord
2
PHANTOM
70
64
3
_____ _ _ _____ _ _ _____ _ _ _____
72
65
73
6
40
0.8
49
0.45
74
0
49
-0.05
74
0
49
0.1
74
0
49
-0.05
74
0
49
0.1
74
0
49
-0.05
74
0
0
LTYPE
5
1F8
100
AcDbSymbolTableRecord
100
AcDbLinetypeTableRecord
2
DOT
70
64
3
. . . . . . . . . . . . . . . . . . . .
72
65
73
2
40
0.2
49
0.1
74
0
49
-0.1
74
0
0
LTYPE
5
1F9
100
AcDbSymbolTableRecord
100
AcDbLinetypeTableRecord
2
DASHED
70
64
3
- - - - - - - - - - - - - - - - - - - -
72
65
73
2
40
0.2
49
0.1
74
0
49
-0.1
74
0
0
ENDTAB
0
TABLE
2
LAYER
5
2
100
AcDbSymbolTable
70
36
0
LAYER
5
10
100
AcDbSymbolTableRecord
100
AcDbLayerTableRecord
2
0
70
0
62
7
6
CONTINUOUS
0
LAYER
5
1FA
100
AcDbSymbolTableRecord
100
AcDbLayerTableRecord
2
DEFAULT_1
70
0
62
7
6
CENTER
0
LAYER
5
1FB
100
AcDbSymbolTableRecord
100
AcDbLayerTableRecord
2
DEFAULT_2
70
0
62
8
6
HIDDEN
0
LAYER
5
1FC
100
AcDbSymbolTableRecord
100
AcDbLayerTableRecord
2
DEFAULT_3
70
0
62
7
6
PHANTOM
0
LAYER
5
1FD
100
AcDbSymbolTableRecord
100
AcDbLayerTableRecord
2
ASSI
70
0
62
7
6
CONTINUOUS
0
LAYER
5
1FE
100
AcDbSymbolTableRecord
100
AcDbLayerTableRecord
2
COORDINATE
70
0
62
7
6
CONTINUOUS
0
LAYER
5
1FF
100
AcDbSymbolTableRecord
100
AcDbLayerTableRecord
2
COORD_ORIGINE
70
0
62
7
6
CONTINUOUS
0
LAYER
5
200
100
AcDbSymbolTableRecord
100
AcDbLayerTableRecord
2
PIANI
70
0
62
7
6
CONTINUOUS
0
LAYER
5
201
100
AcDbSymbolTableRecord
100
AcDbLayerTableRecord
2
PIANI_ORIGINE
70
0
62
7
6
CONTINUOUS
0
LAYER
5
202
100
AcDbSymbolTableRecord
100
AcDbLayerTableRecord
2
RACCORDO
70
0
62
7
6
CONTINUOUS
0
LAYER
5
203
100
AcDbSymbolTableRecord
100
AcDbLayerTableRecord
2
SNAPLINE
70
0
62
7
6
CONTINUOUS
0
LAYER
5
204
100
AcDbSymbolTableRecord
100
AcDbLayerTableRecord
2
TRASH
70
0
62
7
6
CONTINUOUS
0
ENDTAB
0
TABLE
2
STYLE
5
3
100
AcDbSymbolTable
70
1
0
STYLE
5
11
100
AcDbSymbolTableRecord
100
AcDbTextStyleTableRecord
2
STANDARD
70
0
40
0.0
41
0.8000000000
50
0.0
71
0
42
0.2
3
txt
4

0
ENDTAB
0
TABLE
2
VIEW
5
6
100
AcDbSymbolTable
70
0
0
ENDTAB
0
TABLE
2
UCS
5
7
100
AcDbSymbolTable
70
0
0
ENDTAB
0
TABLE
2
APPID
5
9
100
AcDbSymbolTable
70
1
0
APPID
5
205
100
AcDbSymbolTableRecord
100
AcDbRegAppTableRecord
2
ACAD
70
0
0
ENDTAB
0
TABLE
2
DIMSTYLE
5
A
100
AcDbSymbolTable
70
1
0
DIMSTYLE
105
206
100
AcDbSymbolTableRecord
100
AcDbDimStyleTableRecord
2
STANDARD
70
0
3

4

5

6

7

40
1.0
41
3.0000000000
42
0.0625
43
0.38
44
0.18
45
0.0
46
0.0
47
0.0100000000
48
0.0100000000
140
3.0000000000
141
0.09
142
0.0
143
25.4
144
1.0000000000
145
0.0
146
1.0000000000
147
0.09
71
1
72
0
73
0
74
0
75
0
76
0
77
1
78
8
170
0
171
2
172
0
173
0
174
0
175
0
176
0
177
0
178
0
270
2
271
2
272
2
273
2
274
2
340
11
275
0
280
0
281
0
282
0
283
1
284
8
285
0
286
0
287
3
288
0
0
DIMSTYLE
105
207
100
AcDbSymbolTableRecord
100
AcDbDimStyleTableRecord
2
DIMSTYLE_1
70
0
3

4

5

6

7

40
1.0
41
3.0000000000
42
0.0625
43
0.38
44
0.18
45
0.0
46
0.0
47
0.0000000000
48
0.0000000000
140
3.0000000000
141
0.09
142
0.0
143
25.4
144
1.0000000000
145
0.0
146
1.0000000000
147
0.09
71
0
72
0
73
0
74
0
75
0
76
0
77
1
78
8
170
0
171
2
172
0
173
0
174
0
175
0
176
0
177
0
178
0
270
2
271
2
272
2
273
2
274
2
340
11
275
0
280
0
281
0
282
0
283
1
284
8
285
0
286
0
287
3
288
0
0
ENDTAB
0
TABLE
2
BLOCK_RECORD
5
1
100
AcDbSymbolTable
70
0
0
BLOCK_RECORD
5
1B
100
AcDbSymbolTableRecord
100
AcDbBlockTableRecord
2
*MODEL_SPACE
0
BLOCK_RECORD
5
1C
100
AcDbSymbolTableRecord
100
AcDbBlockTableRecord
2
*PAPER_SPACE
0
BLOCK_RECORD
5
208
100
AcDbSymbolTableRecord
100
AcDbBlockTableRecord
2
*D0
0
BLOCK_RECORD
5
209
100
AcDbSymbolTableRecord
100
AcDbBlockTableRecord
2
*D1
0
BLOCK_RECORD
5
20A
100
AcDbSymbolTableRecord
100
AcDbBlockTableRecord
2
*D2
0
BLOCK_RECORD
5
20B
100
AcDbSymbolTableRecord
100
AcDbBlockTableRecord
2
*D3
0
ENDTAB
0
ENDSEC
0
SECTION
2
BLOCKS
0
BLOCK
5
1E
100
AcDbEntity
8
0
100
AcDbBlockBegin
2
*MODEL_SPACE
70
0
10
0.0
20
0.0
30
0.0
3
*MODEL_SPACE
1

0
ENDBLK
5
1F
100
AcDbEntity
8
0
100
AcDbBlockEnd
0
BLOCK
5
20
100
AcDbEntity
8
0
100
AcDbBlockBegin
2
*PAPER_SPACE
70
0
10
0.0
20
0.0
30
0.0
3
*PAPER_SPACE
1

0
ENDBLK
5
21
100
AcDbEntity
8
0
100
AcDbBlockEnd
0
BLOCK
5
20C
100
AcDbEntity
8
0
100
AcDbBlockBegin
62
7
6
CONTINUOUS
2
*D0
70
65
10
0.0000000000
20
0.0000000000
3
*D0
1

0
TEXT
5
20D
100
AcDbEntity
8
0
100
AcDbText
62
7
6
CONTINUOUS
10
-5.6189389520
20
32.8850121860
7
STANDARD
40
3.0000000000
1
485
41
0.7619047619
72
0
100
AcDbText
0
LINE
5
20E
100
AcDbEntity
8
0
100
AcDbLine
62
7
6
CONTINUOUS
10
242.1729673664
20
18.6350121860
11
242.1729673664
21
33.6350121860
0
LINE
5
20F
100
AcDbEntity
8
0
100
AcDbLine
62
7
6
CONTINUOUS
10
-242.8270326336
20
18.6350121860
11
-242.8270326336
21
33.6350121860
0
LINE
5
210
100
AcDbEntity
8
0
100
AcDbLine
62
7
6
CONTINUOUS
10
242.1729673664
20
32.1350121860
11
-0.3270326336
21
32.1350121860
0
LINE
5
211
100
AcDbEntity
8
0
100
AcDbLine
62
7
6
CONTINUOUS
10
-242.8270326336
20
32.1350121860
11
-0.3270326336
21
32.1350121860
0
SOLID
5
212
100
AcDbEntity
8
0
100
AcDbTrace
62
7
6
CONTINUOUS
10
239.1729673664
20
31.1850121860
11
242.1729673664
21
32.1350121860
12
239.1729673664
22
33.0850121860
13
239.1729673664
23
33.0850121860
0
SOLID
5
213
100
AcDbEntity
8
0
100
AcDbTrace
62
7
6
CONTINUOUS
10
-239.8270326336
20
33.0850121860
11
-242.8270326336
21
32.1350121860
12
-239.8270326336
22
31.1850121860
13
-239.8270326336
23
31.1850121860
0
ENDBLK
5
214
100
AcDbEntity
8
0
100
AcDbBlockEnd
0
BLOCK
5
215
100
AcDbEntity
8
0
100
AcDbBlockBegin
62
7
6
CONTINUOUS
2
*D1
70
65
10
0.0000000000
20
0.0000000000
3
*D1
1

0
TEXT
5
216
100
AcDbEntity
8
0
100
AcDbText
62
7
6
CONTINUOUS
10
261.4229673664
20
-1.4262407219
7
STANDARD
40
3.0000000000
1
44
50
90.0000000000
41
0.7857142857
72
0
100
AcDbText
0
LINE
5
217
100
AcDbEntity
8
0
100
AcDbLine
62
7
6
CONTINUOUS
10
238.6729673664
20
22.1350121860
11
263.6729673664
21
22.1350121860
0
LINE
5
218
100
AcDbEntity
8
0
100
AcDbLine
62
7
6
CONTINUOUS
10
238.6729673664
20
-21.8649878140
11
263.6729673664
21
-21.8649878140
0
LINE
5
219
100
AcDbEntity
8
0
100
AcDbLine
62
7
6
CONTINUOUS
10
262.1729673664
20
22.1350121860
11
262.1729673664
21
0.1350121860
0
LINE
5
21A
100
AcDbEntity
8
0
100
AcDbLine
62
7
6
CONTINUOUS
10
262.1729673664
20
-21.8649878140
11
262.1729673664
21
0.1350121860
0
SOLID
5
21B
100
AcDbEntity
8
0
100
AcDbTrace
62
7
6
CONTINUOUS
10
263.1229673664
20
19.1350121860
11
262.1729673664
21
22.1350121860
12
261.2229673664
22
19.1350121860
13
261.2229673664
23
19.1350121860
0
SOLID
5
21C
100
AcDbEntity
8
0
100
AcDbTrace
62
7
6
CONTINUOUS
10
261.2229673664
20
-18.8649878140
11
262.1729673664
21
-21.8649878140
12
263.1229673664
22
-18.8649878140
13
263.1229673664
23
-18.8649878140
0
ENDBLK
5
21D
100
AcDbEntity
8
0
100
AcDbBlockEnd
0
BLOCK
5
21E
100
AcDbEntity
8
0
100
AcDbBlockBegin
62
7
6
CONTINUOUS
2
*D2
70
65
10
0.0000000000
20
0.0000000000
3
*D2
1

0
TEXT
5
21F
100
AcDbEntity
8
0
100
AcDbText
62
7
6
CONTINUOUS
10
251.4229673664
20
-4.9922644392
7
STANDARD
40
3.0000000000
1
31,75
50
90.0000000000
41
0.6714285714
72
0
100
AcDbText
0
LINE
5
220
100
AcDbEntity
8
0
100
AcDbLine
62
7
6
CONTINUOUS
10
234.3229673664
20
16.0100121860
11
253.6729673664
21
16.0100121860
0
LINE
5
221
100
AcDbEntity
8
0
100
AcDbLine
62
7
6
CONTINUOUS
10
234.3229673664
20
-15.7399878140
11
253.6729673664
21
-15.7399878140
0
LINE
5
222
100
AcDbEntity
8
0
100
AcDbLine
62
7
6
CONTINUOUS
10
252.1729673664
20
16.0100121860
11
252.1729673664
21
0.1350121860
0
LINE
5
223
100
AcDbEntity
8
0
100
AcDbLine
62
7
6
CONTINUOUS
10
252.1729673664
20
-15.7399878140
11
252.1729673664
21
0.1350121860
0
SOLID
5
224
100
AcDbEntity
8
0
100
AcDbTrace
62
7
6
CONTINUOUS
10
253.1229673664
20
13.0100121860
11
252.1729673664
21
16.0100121860
12
251.2229673664
22
13.0100121860
13
251.2229673664
23
13.0100121860
0
SOLID
5
225
100
AcDbEntity
8
0
100
AcDbTrace
62
7
6
CONTINUOUS
10
251.2229673664
20
-12.7399878140
11
252.1729673664
21
-15.7399878140
12
253.1229673664
22
-12.7399878140
13
253.1229673664
23
-12.7399878140
0
ENDBLK
5
226
100
AcDbEntity
8
0
100
AcDbBlockEnd
0
BLOCK
5
227
100
AcDbEntity
8
0
100
AcDbBlockBegin
62
7
6
CONTINUOUS
2
*D3
70
65
10
0.0000000000
20
0.0000000000
3
*D3
1

0
TEXT
5
228
100
AcDbEntity
8
0
100
AcDbText
62
7
6
CONTINUOUS
10
-313.9491145907
20
32.8850121860
7
STANDARD
40
3.0000000000
1
94,1
41
0.6785714286
72
0
100
AcDbText
0
LINE
5
229
100
AcDbEntity
8
0
100
AcDbLine
62
7
6
CONTINUOUS
10
-260.9592591538
20
18.6350121860
11
-260.9592591538
21
33.6350121860
0
LINE
5
22A
100
AcDbEntity
8
0
100
AcDbLine
62
7
6
CONTINUOUS
10
-355.0592591538
20
-4.3649878140
11
-355.0592591538
21
33.6350121860
0
LINE
5
22B
100
AcDbEntity
8
0
100
AcDbLine
62
7
6
CONTINUOUS
10
-260.9592591538
20
32.1350121860
11
-308.0092591538
21
32.1350121860
0
LINE
5
22C
100
AcDbEntity
8
0
100
AcDbLine
62
7
6
CONTINUOUS
10
-355.0592591538
20
32.1350121860
11
-308.0092591538
21
32.1350121860
0
SOLID
5
22D
100
AcDbEntity
8
0
100
AcDbTrace
62
7
6
CONTINUOUS
10
-263.9592591538
20
31.1850121860
11
-260.9592591538
21
32.1350121860
12
-263.9592591538
22
33.0850121860
13
-263.9592591538
23
33.0850121860
0
SOLID
5
22E
100
AcDbEntity
8
0
100
AcDbTrace
62
7
6
CONTINUOUS
10
-352.0592591538
20
33.0850121860
11
-355.0592591538
21
32.1350121860
12
-352.0592591538
22
31.1850121860
13
-352.0592591538
23
31.1850121860
0
ENDBLK
5
22F
100
AcDbEntity
8
0
100
AcDbBlockEnd
0
ENDSEC
0
SECTION
2
ENTITIES
0
DIMENSION
5
230
100
AcDbEntity
8
0
100
AcDbDimension
62
7
6
CONTINUOUS
2
*D0
10
-242.8270326336
20
32.1350121860
11
-2.1903675235
21
34.3850121860
70
160
3
DIMSTYLE_1
100
AcDbAlignedDimension
13
242.1729673664
23
18.6350121860
14
-242.8270326336
24
18.6350121860
50
180.000000
100
AcDbRotatedDimension
0
DIMENSION
5
231
100
AcDbEntity
8
0
100
AcDbDimension
62
7
6
CONTINUOUS
2
*D1
10
262.1729673664
20
-21.8649878140
11
259.9229673664
21
0.9309021352
70
160
3
DIMSTYLE_1
100
AcDbAlignedDimension
13
238.6729673664
23
22.1350121860
14
238.6729673664
24
-21.8649878140
50
270.000000
100
AcDbRotatedDimension
0
DIMENSION
5
232
100
AcDbEntity
8
0
100
AcDbDimension
62
7
6
CONTINUOUS
2
*D2
10
252.1729673664
20
-15.7399878140
11
249.9229673664
21
0.0434498465
70
160
3
DIMSTYLE_1
100
AcDbAlignedDimension
13
234.3229673664
23
16.0100121860
14
234.3229673664
24
-15.7399878140
50
270.000000
100
AcDbRotatedDimension
0
DIMENSION
5
233
100
AcDbEntity
8
0
100
AcDbDimension
62
7
6
CONTINUOUS
2
*D3
10
-355.0592591538
20
32.1350121860
11
-309.8776860193
21
34.3850121860
70
160
3
DIMSTYLE_1
100
AcDbAlignedDimension
13
-260.9592591538
23
18.6350121860
14
-355.0592591538
24
-4.3649878140
50
180.000000
100
AcDbRotatedDimension
0
LINE
5
234
100
AcDbEntity
8
0
100
AcDbLine
62
7
6
CONTINUOUS
10
-242.8270326336
20
18.1350121860
11
-242.8270326336
21
-17.8649878140
0
LINE
5
235
100
AcDbEntity
8
0
100
AcDbLine
62
7
6
CONTINUOUS
10
-223.8270326336
20
22.1350121860
11
-223.8270326336
21
20.6350121860
0
LINE
5
236
100
AcDbEntity
8
0
100
AcDbLine
62
7
6
CONTINUOUS
10
-223.8270326336
20
-21.8649878140
11
-223.8270326336
21
-20.3649878140
0
LINE
5
237
100
AcDbEntity
8
0
100
AcDbLine
62
7
6
CONTINUOUS
10
-222.3270326336
20
-21.8649878140
11
-222.3270326336
21
-20.3649878140
0
LINE
5
238
100
AcDbEntity
8
0
100
AcDbLine
62
7
6
CONTINUOUS
10
-222.3270326336
20
20.6350121860
11
-222.3270326336
21
22.1350121860
0
LINE
5
239
100
AcDbEntity
8
0
100
AcDbLine
62
9
6
CONTINUOUS
10
-218.8270326336
20
-21.8649878140
11
-218.8270326336
21
-20.3649878140
0
LINE
5
23A
100
AcDbEntity
8
0
100
AcDbLine
62
9
6
CONTINUOUS
10
-218.8270326336
20
20.6350121860
11
-218.8270326336
21
22.1350121860
0
LINE
5
23B
100
AcDbEntity
8
0
100
AcDbLine
62
9
6
CONTINUOUS
10
-177.1270326336
20
22.1350121860
11
-177.1270326336
21
20.6350121860
0
LINE
5
23C
100
AcDbEntity
8
0
100
AcDbLine
62
9
6
CONTINUOUS
10
-177.1270326336
20
-20.3649878140
11
-177.1270326336
21
-21.8649878140
0
LINE
5
23D
100
AcDbEntity
8
0
100
AcDbLine
62
7
6
CONTINUOUS
10
-167.1270326336
20
-21.8649878140
11
-167.1270326336
21
-14.6741761232
0
LINE
5
23E
100
AcDbEntity
8
0
100
AcDbLine
62
7
6
CONTINUOUS
10
-167.1270326336
20
-5.6149878140
11
-167.1270326336
21
22.1350121860
0
LINE
5
23F
100
AcDbEntity
8
0
100
AcDbLine
62
7
6
CONTINUOUS
10
-147.6270326336
20
-21.8649878140
11
-147.6270326336
21
-14.6741761232
0
LINE
5
240
100
AcDbEntity
8
0
100
AcDbLine
62
7
6
CONTINUOUS
10
-147.6270326336
20
-5.6149878140
11
-147.6270326336
21
22.1350121860
0
LINE
5
241
100
AcDbEntity
8
0
100
AcDbLine
62
9
6
CONTINUOUS
10
-137.6270326336
20
22.1350121860
11
-137.6270326336
21
20.6350121860
0
LINE
5
242
100
AcDbEntity
8
0
100
AcDbLine
62
9
6
CONTINUOUS
10
-137.6270326336
20
-20.3649878140
11
-137.6270326336
21
-21.8649878140
0
LINE
5
243
100
AcDbEntity
8
0
100
AcDbLine
62
9
6
CONTINUOUS
10
-72.4270326336
20
22.1350121860
11
-72.4270326336
21
20.6350121860
0
LINE
5
244
100
AcDbEntity
8
0
100
AcDbLine
62
9
6
CONTINUOUS
10
-72.4270326336
20
-20.3649878140
11
-72.4270326336
21
-21.8649878140
0
LINE
5
245
100
AcDbEntity
8
0
100
AcDbLine
62
7
6
CONTINUOUS
10
-62.4270326336
20
-21.8649878140
11
-62.4270326336
21
-14.6741761232
0
LINE
5
246
100
AcDbEntity
8
0
100
AcDbLine
62
7
6
CONTINUOUS
10
-62.4270326336
20
-5.6149878140
11
-62.4270326336
21
22.1350121860
0
LINE
5
247
100
AcDbEntity
8
0
100
AcDbLine
62
7
6
CONTINUOUS
10
-42.9270326336
20
-21.8649878140
11
-42.9270326336
21
-14.6741761232
0
LINE
5
248
100
AcDbEntity
8
0
100
AcDbLine
62
7
6
CONTINUOUS
10
-42.9270326336
20
-5.6149878140
11
-42.9270326336
21
22.1350121860
0
LINE
5
249
100
AcDbEntity
8
0
100
AcDbLine
62
9
6
CONTINUOUS
10
-32.9270326336
20
22.1350121860
11
-32.9270326336
21
20.6350121860
0
LINE
5
24A
100
AcDbEntity
8
0
100
AcDbLine
62
9
6
CONTINUOUS
10
-32.9270326336
20
-20.3649878140
11
-32.9270326336
21
-21.8649878140
0
LINE
5
24B
100
AcDbEntity
8
0
100
AcDbLine
62
7
6
CONTINUOUS
10
-238.8270326336
20
-21.8649878140
11
-223.8270326336
21
-21.8649878140
0
LINE
5
24C
100
AcDbEntity
8
0
100
AcDbLine
62
7
6
CONTINUOUS
10
221.6729673664
20
-21.8649878140
11
-222.3270326336
21
-21.8649878140
0
LINE
5
24D
100
AcDbEntity
8
0
100
AcDbLine
62
7
6
CONTINUOUS
10
223.1729673664
20
-21.8649878140
11
238.1729673664
21
-21.8649878140
0
LINE
5
24E
100
AcDbEntity
8
0
100
AcDbLine
62
9
6
CONTINUOUS
10
-167.1270326336
20
-21.2499120545
11
-147.6270326336
21
-21.2499120545
0
LINE
5
24F
100
AcDbEntity
8
0
100
AcDbLine
62
9
6
CONTINUOUS
10
-62.4270326336
20
-21.2499120545
11
-42.9270326336
21
-21.2499120545
0
LINE
5
250
100
AcDbEntity
8
0
100
AcDbLine
62
9
6
CONTINUOUS
10
42.2729673664
20
-21.2499120545
11
61.7729673664
21
-21.2499120545
0
LINE
5
251
100
AcDbEntity
8
0
100
AcDbLine
62
9
6
CONTINUOUS
10
146.9729673664
20
-21.2499120545
11
166.4729673664
21
-21.2499120545
0
LINE
5
252
100
AcDbEntity
8
0
100
AcDbLine
62
7
6
CONTINUOUS
10
-222.3270326336
20
-20.3649878140
11
-167.1270326336
21
-20.3649878140
0
LINE
5
253
100
AcDbEntity
8
0
100
AcDbLine
62
7
6
CONTINUOUS
10
42.2729673664
20
-20.3649878140
11
-42.9270326336
21
-20.3649878140
0
LINE
5
254
100
AcDbEntity
8
0
100
AcDbLine
62
7
6
CONTINUOUS
10
61.7729673664
20
-20.3649878140
11
146.9729673664
21
-20.3649878140
0
LINE
5
255
100
AcDbEntity
8
0
100
AcDbLine
62
7
6
CONTINUOUS
10
-62.4270326336
20
-20.3649878140
11
-147.6270326336
21
-20.3649878140
0
LINE
5
256
100
AcDbEntity
8
0
100
AcDbLine
62
7
6
CONTINUOUS
10
166.4729673664
20
-20.3649878140
11
221.6729673664
21
-20.3649878140
0
LINE
5
257
100
AcDbEntity
8
0
100
AcDbLine
62
7
6
CONTINUOUS
10
222.6729673664
20
-19.8649878140
11
222.1729600944
21
-19.8649878140
0
LINE
5
258
100
AcDbEntity
8
0
100
AcDbLine
62
9
6
CONTINUOUS
10
-222.8270253617
20
-19.8649878140
11
-167.1270326336
21
-19.8649878140
0
LINE
5
259
100
AcDbEntity
8
0
100
AcDbLine
62
9
6
CONTINUOUS
10
-147.6270326336
20
-19.8649878140
11
-62.4270326336
21
-19.8649878140
0
LINE
5
25A
100
AcDbEntity
8
0
100
AcDbLine
62
9
6
CONTINUOUS
10
-42.9270326336
20
-19.8649878140
11
42.2729673664
21
-19.8649878140
0
LINE
5
25B
100
AcDbEntity
8
0
100
AcDbLine
62
9
6
CONTINUOUS
10
61.7729673664
20
-19.8649878140
11
146.9729673664
21
-19.8649878140
0
LINE
5
25C
100
AcDbEntity
8
0
100
AcDbLine
62
9
6
CONTINUOUS
10
166.4729673664
20
-19.8649878140
11
222.1729600944
21
-19.8649878140
0
LINE
5
25D
100
AcDbEntity
8
0
100
AcDbLine
62
7
6
CONTINUOUS
10
-222.8270253617
20
-19.8649878140
11
-223.3270326336
21
-19.8649878140
0
LINE
5
25E
100
AcDbEntity
8
0
100
AcDbLine
62
7
6
CONTINUOUS
10
233.8229673664
20
-19.2399878140
11
230.5229673664
21
-19.2399878140
0
LINE
5
25F
100
AcDbEntity
8
0
100
AcDbLine
62
7
6
CONTINUOUS
10
-231.1770326336
20
-19.2399878140
11
-234.4770326336
21
-19.2399878140
0
LINE
5
260
100
AcDbEntity
8
0
100
AcDbLine
62
7
6
CONTINUOUS
10
-167.1270326336
20
-15.7348362949
11
-147.6270326336
21
-15.7348362949
0
LINE
5
261
100
AcDbEntity
8
0
100
AcDbLine
62
7
6
CONTINUOUS
10
-62.4270326336
20
-15.7348362949
11
-42.9270326336
21
-15.7348362949
0
LINE
5
262
100
AcDbEntity
8
0
100
AcDbLine
62
7
6
CONTINUOUS
10
42.2729673664
20
-15.7348362949
11
61.7729673664
21
-15.7348362949
0
LINE
5
263
100
AcDbEntity
8
0
100
AcDbLine
62
7
6
CONTINUOUS
10
146.9729673664
20
-15.7348362949
11
166.4729673664
21
-15.7348362949
0
LINE
5
264
100
AcDbEntity
8
0
100
AcDbLine
62
7
6
CONTINUOUS
10
-167.1270326336
20
-14.6741761232
11
-147.6270326336
21
-14.6741761232
0
LINE
5
265
100
AcDbEntity
8
0
100
AcDbLine
62
7
6
CONTINUOUS
10
-62.4270326336
20
-14.6741761232
11
-42.9270326336
21
-14.6741761232
0
LINE
5
266
100
AcDbEntity
8
0
100
AcDbLine
62
7
6
CONTINUOUS
10
42.2729673664
20
-14.6741761232
11
61.7729673664
21
-14.6741761232
0
LINE
5
267
100
AcDbEntity
8
0
100
AcDbLine
62
7
6
CONTINUOUS
10
146.9729673664
20
-14.6741761232
11
166.4729673664
21
-14.6741761232
0
LINE
5
268
100
AcDbEntity
8
0
100
AcDbLine
62
7
6
CONTINUOUS
10
-234.4770326336
20
-12.2399878140
11
-231.1770326336
21
-12.2399878140
0
LINE
5
269
100
AcDbEntity
8
0
100
AcDbLine
62
7
6
CONTINUOUS
10
230.5229673664
20
-12.2399878140
11
233.8229673664
21
-12.2399878140
0
LINE
5
26A
100
AcDbEntity
8
0
100
AcDbLine
62
7
6
CONTINUOUS
10
-167.1270326336
20
-5.6149878140
11
-147.6270326336
21
-5.6149878140
0
LINE
5
26B
100
AcDbEntity
8
0
100
AcDbLine
62
7
6
CONTINUOUS
10
-62.4270326336
20
-5.6149878140
11
-42.9270326336
21
-5.6149878140
0
LINE
5
26C
100
AcDbEntity
8
0
100
AcDbLine
62
7
6
CONTINUOUS
10
42.2729673664
20
-5.6149878140
11
61.7729673664
21
-5.6149878140
0
LINE
5
26D
100
AcDbEntity
8
0
100
AcDbLine
62
7
6
CONTINUOUS
10
146.9729673664
20
-5.6149878140
11
166.4729673664
21
-5.6149878140
0
LINE
5
26E
100
AcDbEntity
8
0
100
AcDbLine
62
7
6
CONTINUOUS
10
-167.1270326336
20
-4.8649878140
11
-147.6270326336
21
-4.8649878140
0
LINE
5
26F
100
AcDbEntity
8
0
100
AcDbLine
62
7
6
CONTINUOUS
10
-62.4270326336
20
-4.8649878140
11
-42.9270326336
21
-4.8649878140
0
LINE
5
270
100
AcDbEntity
8
0
100
AcDbLine
62
7
6
CONTINUOUS
10
42.2729673664
20
-4.8649878140
11
61.7729673664
21
-4.8649878140
0
LINE
5
271
100
AcDbEntity
8
0
100
AcDbLine
62
7
6
CONTINUOUS
10
146.9729673664
20
-4.8649878140
11
166.4729673664
21
-4.8649878140
0
LINE
5
272
100
AcDbEntity
8
0
100
AcDbLine
62
9
6
CONTINUOUS
10
-167.1270326336
20
2.7543696895
11
-147.6270326336
21
2.7543696895
0
LINE
5
273
100
AcDbEntity
8
0
100
AcDbLine
62
9
6
CONTINUOUS
10
-62.4270326336
20
2.7543696895
11
-42.9270326336
21
2.7543696895
0
LINE
5
274
100
AcDbEntity
8
0
100
AcDbLine
62
9
6
CONTINUOUS
10
42.2729673664
20
2.7543696895
11
61.7729673664
21
2.7543696895
0
LINE
5
275
100
AcDbEntity
8
0
100
AcDbLine
62
9
6
CONTINUOUS
10
146.9729673664
20
2.7543696895
11
166.4729673664
21
2.7543696895
0
LINE
5
276
100
AcDbEntity
8
0
100
AcDbLine
62
9
6
CONTINUOUS
10
-167.1270326336
20
3.5043696895
11
-147.6270326336
21
3.5043696895
0
LINE
5
277
100
AcDbEntity
8
0
100
AcDbLine
62
9
6
CONTINUOUS
10
-62.4270326336
20
3.5043696895
11
-42.9270326336
21
3.5043696895
0
LINE
5
278
100
AcDbEntity
8
0
100
AcDbLine
62
9
6
CONTINUOUS
10
42.2729673664
20
3.5043696895
11
61.7729673664
21
3.5043696895
0
LINE
5
279
100
AcDbEntity
8
0
100
AcDbLine
62
9
6
CONTINUOUS
10
146.9729673664
20
3.5043696895
11
166.4729673664
21
3.5043696895
0
LINE
5
27A
100
AcDbEntity
8
0
100
AcDbLine
62
7
6
CONTINUOUS
10
233.8229673664
20
12.5100121860
11
230.5229673664
21
12.5100121860
0
LINE
5
27B
100
AcDbEntity
8
0
100
AcDbLine
62
7
6
CONTINUOUS
10
-231.1770326336
20
12.5100121860
11
-234.4770326336
21
12.5100121860
0
LINE
5
27C
100
AcDbEntity
8
0
100
AcDbLine
62
9
6
CONTINUOUS
10
32.2729673664
20
22.1350121860
11
32.2729673664
21
20.6350121860
0
LINE
5
27D
100
AcDbEntity
8
0
100
AcDbLine
62
9
6
CONTINUOUS
10
32.2729673664
20
-20.3649878140
11
32.2729673664
21
-21.8649878140
0
LINE
5
27E
100
AcDbEntity
8
0
100
AcDbLine
62
9
6
CONTINUOUS
10
-167.1270326336
20
19.1350121860
11
-147.6270326336
21
19.1350121860
0
LINE
5
27F
100
AcDbEntity
8
0
100
AcDbLine
62
9
6
CONTINUOUS
10
-62.4270326336
20
19.1350121860
11
-42.9270326336
21
19.1350121860
0
LINE
5
280
100
AcDbEntity
8
0
100
AcDbLine
62
9
6
CONTINUOUS
10
42.2729673664
20
19.1350121860
11
61.7729673664
21
19.1350121860
0
LINE
5
281
100
AcDbEntity
8
0
100
AcDbLine
62
9
6
CONTINUOUS
10
146.9729673664
20
19.1350121860
11
166.4729673664
21
19.1350121860
0
LINE
5
282
100
AcDbEntity
8
0
100
AcDbLine
62
7
6
CONTINUOUS
10
-234.4770326336
20
19.5100121860
11
-231.1770326336
21
19.5100121860
0
LINE
5
283
100
AcDbEntity
8
0
100
AcDbLine
62
7
6
CONTINUOUS
10
230.5229673664
20
19.5100121860
11
233.8229673664
21
19.5100121860
0
LINE
5
284
100
AcDbEntity
8
0
100
AcDbLine
62
7
6
CONTINUOUS
10
-223.3270326336
20
20.1350121860
11
-222.8270253617
21
20.1350121860
0
LINE
5
285
100
AcDbEntity
8
0
100
AcDbLine
62
9
6
CONTINUOUS
10
-222.8270253617
20
20.1350121860
11
-167.1270326336
21
20.1350121860
0
LINE
5
286
100
AcDbEntity
8
0
100
AcDbLine
62
9
6
CONTINUOUS
10
-147.6270326336
20
20.1350121860
11
-62.4270326336
21
20.1350121860
0
LINE
5
287
100
AcDbEntity
8
0
100
AcDbLine
62
9
6
CONTINUOUS
10
-42.9270326336
20
20.1350121860
11
42.2729673664
21
20.1350121860
0
LINE
5
288
100
AcDbEntity
8
0
100
AcDbLine
62
9
6
CONTINUOUS
10
61.7729673664
20
20.1350121860
11
146.9729673664
21
20.1350121860
0
LINE
5
289
100
AcDbEntity
8
0
100
AcDbLine
62
9
6
CONTINUOUS
10
166.4729673664
20
20.1350121860
11
222.1729600944
21
20.1350121860
0
LINE
5
28A
100
AcDbEntity
8
0
100
AcDbLine
62
7
6
CONTINUOUS
10
222.1729600944
20
20.1350121860
11
222.6729673664
21
20.1350121860
0
LINE
5
28B
100
AcDbEntity
8
0
100
AcDbLine
62
7
6
CONTINUOUS
10
221.6729673664
20
20.6350121860
11
166.4729673664
21
20.6350121860
0
LINE
5
28C
100
AcDbEntity
8
0
100
AcDbLine
62
7
6
CONTINUOUS
10
146.9729673664
20
20.6350121860
11
61.7729673664
21
20.6350121860
0
LINE
5
28D
100
AcDbEntity
8
0
100
AcDbLine
62
7
6
CONTINUOUS
10
42.2729673664
20
20.6350121860
11
-42.9270326336
21
20.6350121860
0
LINE
5
28E
100
AcDbEntity
8
0
100
AcDbLine
62
7
6
CONTINUOUS
10
-62.4270326336
20
20.6350121860
11
-147.6270326336
21
20.6350121860
0
LINE
5
28F
100
AcDbEntity
8
0
100
AcDbLine
62
7
6
CONTINUOUS
10
-167.1270326336
20
20.6350121860
11
-222.3270326336
21
20.6350121860
0
LINE
5
290
100
AcDbEntity
8
0
100
AcDbLine
62
7
6
CONTINUOUS
10
238.1729673664
20
22.1350121860
11
223.1729673664
21
22.1350121860
0
LINE
5
291
100
AcDbEntity
8
0
100
AcDbLine
62
7
6
CONTINUOUS
10
-222.3270326336
20
22.1350121860
11
221.6729673664
21
22.1350121860
0
LINE
5
292
100
AcDbEntity
8
0
100
AcDbLine
62
7
6
CONTINUOUS
10
-223.8270326336
20
22.1350121860
11
-238.8270326336
21
22.1350121860
0
LINE
5
293
100
AcDbEntity
8
0
100
AcDbLine
62
7
6
CONTINUOUS
10
42.2729673664
20
-21.8649878140
11
42.2729673664
21
-14.6741761232
0
LINE
5
294
100
AcDbEntity
8
0
100
AcDbLine
62
7
6
CONTINUOUS
10
42.2729673664
20
-5.6149878140
11
42.2729673664
21
22.1350121860
0
LINE
5
295
100
AcDbEntity
8
0
100
AcDbLine
62
7
6
CONTINUOUS
10
61.7729673664
20
-21.8649878140
11
61.7729673664
21
-14.6741761232
0
LINE
5
296
100
AcDbEntity
8
0
100
AcDbLine
62
7
6
CONTINUOUS
10
61.7729673664
20
-5.6149878140
11
61.7729673664
21
22.1350121860
0
LINE
5
297
100
AcDbEntity
8
0
100
AcDbLine
62
9
6
CONTINUOUS
10
71.7729673664
20
22.1350121860
11
71.7729673664
21
20.6350121860
0
LINE
5
298
100
AcDbEntity
8
0
100
AcDbLine
62
9
6
CONTINUOUS
10
71.7729673664
20
-20.3649878140
11
71.7729673664
21
-21.8649878140
0
LINE
5
299
100
AcDbEntity
8
0
100
AcDbLine
62
9
6
CONTINUOUS
10
136.9729673664
20
22.1350121860
11
136.9729673664
21
20.6350121860
0
LINE
5
29A
100
AcDbEntity
8
0
100
AcDbLine
62
9
6
CONTINUOUS
10
136.9729673664
20
-20.3649878140
11
136.9729673664
21
-21.8649878140
0
LINE
5
29B
100
AcDbEntity
8
0
100
AcDbLine
62
7
6
CONTINUOUS
10
146.9729673664
20
-21.8649878140
11
146.9729673664
21
-14.6741761232
0
LINE
5
29C
100
AcDbEntity
8
0
100
AcDbLine
62
7
6
CONTINUOUS
10
146.9729673664
20
-5.6149878140
11
146.9729673664
21
22.1350121860
0
LINE
5
29D
100
AcDbEntity
8
0
100
AcDbLine
62
7
6
CONTINUOUS
10
166.4729673664
20
-21.8649878140
11
166.4729673664
21
-14.6741761232
0
LINE
5
29E
100
AcDbEntity
8
0
100
AcDbLine
62
7
6
CONTINUOUS
10
166.4729673664
20
-5.6149878140
11
166.4729673664
21
22.1350121860
0
LINE
5
29F
100
AcDbEntity
8
0
100
AcDbLine
62
9
6
CONTINUOUS
10
176.4729673664
20
22.1350121860
11
176.4729673664
21
20.6350121860
0
LINE
5
2A0
100
AcDbEntity
8
0
100
AcDbLine
62
9
6
CONTINUOUS
10
176.4729673664
20
-20.3649878140
11
176.4729673664
21
-21.8649878140
0
LINE
5
2A1
100
AcDbEntity
8
0
100
AcDbLine
62
9
6
CONTINUOUS
10
218.1729673664
20
22.1350121860
11
218.1729673664
21
20.6350121860
0
LINE
5
2A2
100
AcDbEntity
8
0
100
AcDbLine
62
9
6
CONTINUOUS
10
218.1729673664
20
-20.3649878140
11
218.1729673664
21
-21.8649878140
0
LINE
5
2A3
100
AcDbEntity
8
0
100
AcDbLine
62
7
6
CONTINUOUS
10
221.6729673664
20
22.1350121860
11
221.6729673664
21
20.6350121860
0
LINE
5
2A4
100
AcDbEntity
8
0
100
AcDbLine
62
7
6
CONTINUOUS
10
221.6729673664
20
-20.3649878140
11
221.6729673664
21
-21.8649878140
0
LINE
5
2A5
100
AcDbEntity
8
0
100
AcDbLine
62
7
6
CONTINUOUS
10
223.1729673664
20
22.1350121860
11
223.1729673664
21
20.6350121860
0
LINE
5
2A6
100
AcDbEntity
8
0
100
AcDbLine
62
7
6
CONTINUOUS
10
223.1729673664
20
-21.8649878140
11
223.1729673664
21
-20.3649878140
0
LINE
5
2A7
100
AcDbEntity
8
0
100
AcDbLine
62
7
6
CONTINUOUS
10
242.1729673664
20
-17.8649878140
11
242.1729673664
21
18.1350121860
0
LINE
5
2A8
100
AcDbEntity
8
0
100
AcDbLine
62
7
6
CONTINUOUS
10
-350.4592591538
20
3.5043696895
11
-350.4592591538
21
19.1350121860
0
LINE
5
2A9
100
AcDbEntity
8
0
100
AcDbLine
62
7
6
CONTINUOUS
10
-348.9592591538
20
3.5043696895
11
-348.9592591538
21
19.1350121860
0
LINE
5
2AA
100
AcDbEntity
8
0
100
AcDbLine
62
7
6
CONTINUOUS
10
-355.0592591538
20
-4.8649878140
11
-350.6602210482
21
2.7543696895
0
LINE
5
2AB
100
AcDbEntity
8
0
100
AcDbLine
62
7
6
CONTINUOUS
10
-343.4441833943
20
-21.2499120545
11
-348.9592591538
21
-15.7348362949
0
LINE
5
2AC
100
AcDbEntity
8
0
100
AcDbLine
62
7
6
CONTINUOUS
10
-342.3835232225
20
-20.1892518827
11
-347.8985989820
21
-14.6741761232
0
LINE
5
2AD
100
AcDbEntity
8
0
100
AcDbLine
62
7
6
CONTINUOUS
10
-353.7602210482
20
-5.6149878140
11
-349.3611829425
21
2.0043696895
0
LINE
5
2AE
100
AcDbEntity
8
0
100
AcDbLine
62
7
6
CONTINUOUS
10
-353.7602210482
20
-5.6149878140
11
-355.0592591538
21
-4.8649878140
0
LINE
5
2AF
100
AcDbEntity
8
0
100
AcDbLine
62
7
6
CONTINUOUS
10
-262.4592591538
20
-21.8649878140
11
-260.9592591538
21
-21.8649878140
0
LINE
5
2B0
100
AcDbEntity
8
0
100
AcDbLine
62
7
6
CONTINUOUS
10
-262.9592591538
20
-21.8649878140
11
-341.9592591538
21
-21.8649878140
0
LINE
5
2B1
100
AcDbEntity
8
0
100
AcDbLine
62
9
6
CONTINUOUS
10
-260.9592591538
20
-20.3649878140
11
-262.9592586972
21
-20.3649878140
0
LINE
5
2B2
100
AcDbEntity
8
0
100
AcDbLine
62
7
6
CONTINUOUS
10
-262.9592591538
20
-20.3649878140
11
-341.9592591538
21
-20.3649878140
0
LINE
5
2B3
100
AcDbEntity
8
0
100
AcDbLine
62
7
6
CONTINUOUS
10
-327.1592591538
20
22.1350121860
11
-327.1592591538
21
20.6350121860
0
LINE
5
2B4
100
AcDbEntity
8
0
100
AcDbLine
62
7
6
CONTINUOUS
10
-327.1592591538
20
-20.3649878140
11
-327.1592591538
21
-21.8649878140
0
LINE
5
2B5
100
AcDbEntity
8
0
100
AcDbLine
62
7
6
CONTINUOUS
10
-347.8985989820
20
-14.6741761232
11
-348.9592591538
21
-15.7348362949
0
LINE
5
2B6
100
AcDbEntity
8
0
100
AcDbLine
62
7
6
CONTINUOUS
10
-262.4592591538
20
-19.8649878140
11
-260.9592591538
21
-19.8649878140
0
LINE
5
2B7
100
AcDbEntity
8
0
100
AcDbLine
62
7
6
CONTINUOUS
10
-260.9592591538
20
-19.2399878140
11
-262.4592591538
21
-19.2399878140
0
LINE
5
2B8
100
AcDbEntity
8
0
100
AcDbLine
62
9
6
CONTINUOUS
10
-260.9592591538
20
-17.8649878140
11
-262.4592591538
21
-17.8649878140
0
LINE
5
2B9
100
AcDbEntity
8
0
100
AcDbLine
62
7
6
CONTINUOUS
10
-260.9592591538
20
-12.2399878140
11
-262.4592591538
21
-12.2399878140
0
LINE
5
2BA
100
AcDbEntity
8
0
100
AcDbLine
62
7
6
CONTINUOUS
10
-316.5592591538
20
22.1350121860
11
-316.5592591538
21
20.6350121860
0
LINE
5
2BB
100
AcDbEntity
8
0
100
AcDbLine
62
7
6
CONTINUOUS
10
-316.5592591538
20
-20.3649878140
11
-316.5592591538
21
-21.8649878140
0
LINE
5
2BC
100
AcDbEntity
8
0
100
AcDbLine
62
7
6
CONTINUOUS
10
-260.9592591538
20
12.5100121860
11
-262.4592591538
21
12.5100121860
0
LINE
5
2BD
100
AcDbEntity
8
0
100
AcDbLine
62
9
6
CONTINUOUS
10
-260.9592591538
20
18.1350121860
11
-262.4592591538
21
18.1350121860
0
LINE
5
2BE
100
AcDbEntity
8
0
100
AcDbLine
62
7
6
CONTINUOUS
10
-260.9592591538
20
19.5100121860
11
-262.4592591538
21
19.5100121860
0
LINE
5
2BF
100
AcDbEntity
8
0
100
AcDbLine
62
7
6
CONTINUOUS
10
-262.4592591538
20
20.1350121860
11
-260.9592591538
21
20.1350121860
0
LINE
5
2C0
100
AcDbEntity
8
0
100
AcDbLine
62
9
6
CONTINUOUS
10
-260.9592591538
20
20.6350121860
11
-262.9592586974
21
20.6350121860
0
LINE
5
2C1
100
AcDbEntity
8
0
100
AcDbLine
62
7
6
CONTINUOUS
10
-262.9592591538
20
20.6350121860
11
-347.4592591538
21
20.6350121860
0
LINE
5
2C2
100
AcDbEntity
8
0
100
AcDbLine
62
7
6
CONTINUOUS
10
-262.4592591538
20
22.1350121860
11
-260.9592591538
21
22.1350121860
0
LINE
5
2C3
100
AcDbEntity
8
0
100
AcDbLine
62
7
6
CONTINUOUS
10
-262.9592591538
20
22.1350121860
11
-347.4592591538
21
22.1350121860
0
LINE
5
2C4
100
AcDbEntity
8
0
100
AcDbLine
62
9
6
CONTINUOUS
10
-280.4592591538
20
22.1350121860
11
-280.4592591538
21
20.6350121860
0
LINE
5
2C5
100
AcDbEntity
8
0
100
AcDbLine
62
9
6
CONTINUOUS
10
-280.4592591538
20
-20.3649878140
11
-280.4592591538
21
-21.8649878140
0
LINE
5
2C6
100
AcDbEntity
8
0
100
AcDbLine
62
7
6
CONTINUOUS
10
-270.4592591538
20
22.1350121860
11
-270.4592591538
21
20.6350121860
0
LINE
5
2C7
100
AcDbEntity
8
0
100
AcDbLine
62
7
6
CONTINUOUS
10
-270.4592591538
20
-20.3649878140
11
-270.4592591538
21
-21.8649878140
0
LINE
5
2C8
100
AcDbEntity
8
0
100
AcDbLine
62
9
6
CONTINUOUS
10
-266.9592591538
20
22.1350121860
11
-266.9592591538
21
20.6350121860
0
LINE
5
2C9
100
AcDbEntity
8
0
100
AcDbLine
62
9
6
CONTINUOUS
10
-266.9592591538
20
-21.8649878140
11
-266.9592591538
21
-20.3649878140
0
LINE
5
2CA
100
AcDbEntity
8
0
100
AcDbLine
62
9
6
CONTINUOUS
10
-262.9592591538
20
22.1350121860
11
-262.9592591538
21
20.6350121860
0
LINE
5
2CB
100
AcDbEntity
8
0
100
AcDbLine
62
9
6
CONTINUOUS
10
-262.9592591538
20
-21.8649878140
11
-262.9592591538
21
-20.3649878140
0
LINE
5
2CC
100
AcDbEntity
8
0
100
AcDbLine
62
7
6
CONTINUOUS
10
-262.4592591538
20
22.1350121860
11
-262.4592591538
21
-21.8649878140
0
LINE
5
2CD
100
AcDbEntity
8
0
100
AcDbLine
62
7
6
CONTINUOUS
10
-260.9592591538
20
22.1350121860
11
-260.9592591538
21
-21.8649878140
0
ARC
5
2CE
100
AcDbEntity
8
0
100
AcDbCircle
62
7
6
CONTINUOUS
10
-231.1770326336
20
-15.7399878140
40
3.5000000000
100
AcDbArc
50
270.0000000000
51
90.0000000000
0
ARC
5
2CF
100
AcDbEntity
8
0
100
AcDbCircle
62
7
6
CONTINUOUS
10
-234.4770326336
20
-15.7399878140
40
3.5000000000
100
AcDbArc
50
90.0000000000
51
270.0000000000
0
ARC
5
2D0
100
AcDbEntity
8
0
100
AcDbCircle
62
7
6
CONTINUOUS
10
-231.1770326336
20
16.0100121860
40
3.5000000000
100
AcDbArc
50
270.0000000000
51
90.0000000000
0
ARC
5
2D1
100
AcDbEntity
8
0
100
AcDbCircle
62
7
6
CONTINUOUS
10
-234.4770326336
20
16.0100121860
40
3.5000000000
100
AcDbArc
50
90.0000000000
51
270.0000000000
0
ARC
5
2D2
100
AcDbEntity
8
0
100
AcDbCircle
62
7
6
CONTINUOUS
10
230.5229673664
20
-15.7399878140
40
3.5000000000
100
AcDbArc
50
90.0000000000
51
270.0000000000
0
ARC
5
2D3
100
AcDbEntity
8
0
100
AcDbCircle
62
7
6
CONTINUOUS
10
233.8229673664
20
-15.7399878140
40
3.5000000000
100
AcDbArc
50
270.0000000000
51
90.0000000000
0
ARC
5
2D4
100
AcDbEntity
8
0
100
AcDbCircle
62
7
6
CONTINUOUS
10
230.5229673664
20
16.0100121860
40
3.5000000000
100
AcDbArc
50
90.0000000000
51
270.0000000000
0
ARC
5
2D5
100
AcDbEntity
8
0
100
AcDbCircle
62
7
6
CONTINUOUS
10
233.8229673664
20
16.0100121860
40
3.5000000000
100
AcDbArc
50
270.0000000000
51
90.0000000000
0
ARC
5
2D6
100
AcDbEntity
8
0
100
AcDbCircle
62
7
6
CONTINUOUS
10
-238.8270326336
20
18.1350121860
40
4.0000000000
100
AcDbArc
50
90.0000000000
51
180.0000000000
0
ARC
5
2D7
100
AcDbEntity
8
0
100
AcDbCircle
62
7
6
CONTINUOUS
10
238.1729673664
20
18.1350121860
40
4.0000000000
100
AcDbArc
50
0.0000000000
51
90.0000000000
0
ARC
5
2D8
100
AcDbEntity
8
0
100
AcDbCircle
62
7
6
CONTINUOUS
10
238.1729673664
20
-17.8649878140
40
4.0000000000
100
AcDbArc
50
270.0000000000
51
360.0000000000
0
ARC
5
2D9
100
AcDbEntity
8
0
100
AcDbCircle
62
7
6
CONTINUOUS
10
-238.8270326336
20
-17.8649878140
40
4.0000000000
100
AcDbArc
50
180.0000000000
51
270.0000000000
0
ARC
5
2DA
100
AcDbEntity
8
0
100
AcDbCircle
62
7
6
CONTINUOUS
10
-222.8270326336
20
20.6350121860
40
0.5000000000
100
AcDbArc
50
270.0000000000
51
360.0000000000
0
ARC
5
2DB
100
AcDbEntity
8
0
100
AcDbCircle
62
7
6
CONTINUOUS
10
222.6729673664
20
20.6350121860
40
0.5000000000
100
AcDbArc
50
270.0000000000
51
360.0000000000
0
ARC
5
2DC
100
AcDbEntity
8
0
100
AcDbCircle
62
7
6
CONTINUOUS
10
222.1729673664
20
20.6350121860
40
0.5000000000
100
AcDbArc
50
181.4424385139
51
270.0000000000
0
ARC
5
2DD
100
AcDbEntity
8
0
100
AcDbCircle
62
7
6
CONTINUOUS
10
222.6729673664
20
-20.3649878140
40
0.5000000000
100
AcDbArc
50
0.0000000000
51
90.0000000000
0
ARC
5
2DE
100
AcDbEntity
8
0
100
AcDbCircle
62
7
6
CONTINUOUS
10
222.1729673664
20
-20.3649878140
40
0.5000000000
100
AcDbArc
50
90.0000000000
51
180.0000000000
0
ARC
5
2DF
100
AcDbEntity
8
0
100
AcDbCircle
62
7
6
CONTINUOUS
10
-223.3270326336
20
-20.3649878140
40
0.5000000000
100
AcDbArc
50
90.0000000000
51
180.0000000000
0
ARC
5
2E0
100
AcDbEntity
8
0
100
AcDbCircle
62
7
6
CONTINUOUS
10
-222.8270326336
20
-20.3649878140
40
0.5000000000
100
AcDbArc
50
1.4420958475
51
90.0000000000
0
ARC
5
2E1
100
AcDbEntity
8
0
100
AcDbCircle
62
7
6
CONTINUOUS
10
-223.3270326336
20
20.6350121860
40
0.5000000000
100
AcDbArc
50
180.0000000000
51
270.0000000000
0
ARC
5
2E2
100
AcDbEntity
8
0
100
AcDbCircle
62
7
6
CONTINUOUS
10
-351.9592591538
20
3.5043696895
40
3.0000000000
100
AcDbArc
50
330.0000000000
51
360.0000000000
0
ARC
5
2E3
100
AcDbEntity
8
0
100
AcDbCircle
62
7
6
CONTINUOUS
10
-347.4592591538
20
19.1350121860
40
1.5000000000
100
AcDbArc
50
90.0000000000
51
180.0000000000
0
ARC
5
2E4
100
AcDbEntity
8
0
100
AcDbCircle
62
7
6
CONTINUOUS
10
-341.9592591538
20
-19.7649878140
40
0.6000000000
100
AcDbArc
50
225.0000000000
51
270.0000000000
0
ARC
5
2E5
100
AcDbEntity
8
0
100
AcDbCircle
62
7
6
CONTINUOUS
10
-351.9592591538
20
3.5043696895
40
1.5000000000
100
AcDbArc
50
330.0000000000
51
360.0000000000
0
ARC
5
2E6
100
AcDbEntity
8
0
100
AcDbCircle
62
7
6
CONTINUOUS
10
-347.4592591538
20
19.1350121860
40
3.0000000000
100
AcDbArc
50
90.0000000000
51
180.0000000000
0
ARC
5
2E7
100
AcDbEntity
8
0
100
AcDbCircle
62
7
6
CONTINUOUS
10
-341.9592591538
20
-19.7649878140
40
2.1000000000
100
AcDbArc
50
225.0000000000
51
270.0000000000
0
ARC
5
2E8
100
AcDbEntity
8
0
100
AcDbCircle
62
7
6
CONTINUOUS
10
-262.9592591538
20
-19.8649878140
40
2.0000000000
100
AcDbArc
50
270.0000000000
51
360.0000000000
0
ARC
5
2E9
100
AcDbEntity
8
0
100
AcDbCircle
62
7
6
CONTINUOUS
10
-262.9592591538
20
-19.8649878140
40
0.5000000000
100
AcDbArc
50
270.0000000000
51
360.0000000000
0
ARC
5
2EA
100
AcDbEntity
8
0
100
AcDbCircle
62
7
6
CONTINUOUS
10
-262.9592591538
20
20.1350121860
40
2.0000000000
100
AcDbArc
50
0.0000000000
51
90.0000000000
0
ARC
5
2EB
100
AcDbEntity
8
0
100
AcDbCircle
62
7
6
CONTINUOUS
10
-262.9592591538
20
20.1350121860
40
0.5000000000
100
AcDbArc
50
0.0000000000
51
90.0000000000
0
ENDSEC
0
SECTION
2
OBJECTS
0
DICTIONARY
5
2EC
100
AcDbDictionary
3
ACAD_GROUP
350
2ED
3
ACAD_MLINESTYLE
350
2EE
0
DICTIONARY
5
2ED
102
{ACAD_REACTORS
330
2EC
102
}
100
AcDbDictionary
0
DICTIONARY
5
2EE
102
{ACAD_REACTORS
330
2EC
102
}
100
AcDbDictionary
3
STANDARD
350
2EF
0
MLINESTYLE
5
2EF
102
{ACAD_REACTORS
330
2EE
102
}
100
AcDbMlineStyle
2
STANDARD
70
0
3

62
256
51
90.0
52
90.0
71
2
49
0.5
62
256
6
BYLAYER
49
-0.5
62
256
6
BYLAYER
0
ENDSEC
0
EOF
