0
SECTION
2
HEADER
9
$ACADVER
1
AC1014
9
$HANDSEED
5
       2AD
9
$EXTMAX
10
297.0000000000
20
210.0000000000
9
$EXTMIN
10
0.0000000000
20
0.0000000000
9
$LIMMIN
10
0.0000000000
20
0.0000000000
9
$LIMMAX
10
297.0000000000
20
210.0000000000
9
$VIEWCTR
10
148.5000000000
20
105.0000000000
9
$VIEWSIZE
40
210.0000000000
9
$CLAYER
8
0
9
$LTSCALE
40
16.3350000000
9
$CELTYPE
6
BYLAYER
9
$DIMSCALE
40
1
9
$DIMASZ
40
3.0000000000
9
$DIMEXO
40
1.8562500000
9
$DIMDLI
40
11.2860000000
9
$DIMEXE
40
5.3460000000
9
$DIMCEN
40
2.6730000000
9
$DIMLFAC
40
1.0000000000
9
$DIMTXT
40
3.0000000000
9
$DIMTOL
70
1
9
$DIMLIM
70
0
9
$DIMTFAC
40
1.0000000000
9
$DIMTP
40
0.0100000000
9
$DIMTM
40
0.0100000000
9
$MEASUREMENT
70
1
0
ENDSEC
0
SECTION
2
CLASSES
0
ENDSEC
0
SECTION
2
TABLES
0
TABLE
2
VPORT
5
8
100
AcDbSymbolTable
70
2
0
VPORT
5
1F4
100
AcDbSymbolTableRecord
100
AcDbViewportTableRecord
2
*ACTIVE
70
0
10
0.0
20
0.0
11
1.0
21
1.0
12
148.5000000000
22
105.0000000000
13
0.0
23
0.0
14
1.0
24
1.0
15
0.0
25
0.0
16
0.0
26
0.0
36
1.0
17
0.0
27
0.0
37
0.0
40
210.0000000000
41
1.4142857143
42
50.0
43
0.0
44
0.0
50
0.0
51
0.0
71
0
72
100
73
1
74
1
75
0
76
0
77
0
78
0
0
ENDTAB
0
TABLE
2
LTYPE
5
5
100
AcDbSymbolTable
70
6
0
LTYPE
5
14
100
AcDbSymbolTableRecord
100
AcDbLinetypeTableRecord
2
BYBLOCK
70
0
3

72
65
73
0
40
0.0
0
LTYPE
5
15
100
AcDbSymbolTableRecord
100
AcDbLinetypeTableRecord
2
BYLAYER
70
0
3

72
65
73
0
40
0.0
0
LTYPE
5
16
100
AcDbSymbolTableRecord
100
AcDbLinetypeTableRecord
2
CONTINUOUS
70
64
3
Solid line
72
65
73
0
40
0
0
LTYPE
5
1F5
100
AcDbSymbolTableRecord
100
AcDbLinetypeTableRecord
2
CENTER
70
64
3
____ _ ____ _ ____ _ ____ _ ____ _ ____ _ ____
72
65
73
4
40
0.6
49
0.375
74
0
49
-0.075
74
0
49
0.075
74
0
49
-0.075
74
0
0
LTYPE
5
1F6
100
AcDbSymbolTableRecord
100
AcDbLinetypeTableRecord
2
HIDDEN
70
64
3
- - - - - - - - - - - - - - - - - - - -
72
65
73
2
40
0.2
49
0.1
74
0
49
-0.1
74
0
0
LTYPE
5
1F7
100
AcDbSymbolTableRecord
100
AcDbLinetypeTableRecord
2
PHANTOM
70
64
3
_____ _ _ _____ _ _ _____ _ _ _____
72
65
73
6
40
0.8
49
0.45
74
0
49
-0.05
74
0
49
0.1
74
0
49
-0.05
74
0
49
0.1
74
0
49
-0.05
74
0
0
LTYPE
5
1F8
100
AcDbSymbolTableRecord
100
AcDbLinetypeTableRecord
2
DOT
70
64
3
. . . . . . . . . . . . . . . . . . . .
72
65
73
2
40
0.2
49
0.1
74
0
49
-0.1
74
0
0
LTYPE
5
1F9
100
AcDbSymbolTableRecord
100
AcDbLinetypeTableRecord
2
DASHED
70
64
3
- - - - - - - - - - - - - - - - - - - -
72
65
73
2
40
0.2
49
0.1
74
0
49
-0.1
74
0
0
ENDTAB
0
TABLE
2
LAYER
5
2
100
AcDbSymbolTable
70
36
0
LAYER
5
10
100
AcDbSymbolTableRecord
100
AcDbLayerTableRecord
2
0
70
0
62
7
6
CONTINUOUS
0
LAYER
5
1FA
100
AcDbSymbolTableRecord
100
AcDbLayerTableRecord
2
DEFAULT_1
70
0
62
7
6
CENTER
0
LAYER
5
1FB
100
AcDbSymbolTableRecord
100
AcDbLayerTableRecord
2
DEFAULT_2
70
0
62
8
6
HIDDEN
0
LAYER
5
1FC
100
AcDbSymbolTableRecord
100
AcDbLayerTableRecord
2
DEFAULT_3
70
0
62
7
6
PHANTOM
0
LAYER
5
1FD
100
AcDbSymbolTableRecord
100
AcDbLayerTableRecord
2
ASSI
70
0
62
7
6
CONTINUOUS
0
LAYER
5
1FE
100
AcDbSymbolTableRecord
100
AcDbLayerTableRecord
2
COORDINATE
70
0
62
7
6
CONTINUOUS
0
LAYER
5
1FF
100
AcDbSymbolTableRecord
100
AcDbLayerTableRecord
2
COORD_ORIGINE
70
0
62
7
6
CONTINUOUS
0
LAYER
5
200
100
AcDbSymbolTableRecord
100
AcDbLayerTableRecord
2
PIANI
70
0
62
7
6
CONTINUOUS
0
LAYER
5
201
100
AcDbSymbolTableRecord
100
AcDbLayerTableRecord
2
PIANI_ORIGINE
70
0
62
7
6
CONTINUOUS
0
LAYER
5
202
100
AcDbSymbolTableRecord
100
AcDbLayerTableRecord
2
RACCORDO
70
0
62
7
6
CONTINUOUS
0
LAYER
5
203
100
AcDbSymbolTableRecord
100
AcDbLayerTableRecord
2
SNAPLINE
70
0
62
7
6
CONTINUOUS
0
LAYER
5
204
100
AcDbSymbolTableRecord
100
AcDbLayerTableRecord
2
TRASH
70
0
62
7
6
CONTINUOUS
0
ENDTAB
0
TABLE
2
STYLE
5
3
100
AcDbSymbolTable
70
1
0
STYLE
5
11
100
AcDbSymbolTableRecord
100
AcDbTextStyleTableRecord
2
STANDARD
70
0
40
0.0
41
0.8000000000
50
0.0
71
0
42
0.2
3
txt
4

0
ENDTAB
0
TABLE
2
VIEW
5
6
100
AcDbSymbolTable
70
0
0
ENDTAB
0
TABLE
2
UCS
5
7
100
AcDbSymbolTable
70
0
0
ENDTAB
0
TABLE
2
APPID
5
9
100
AcDbSymbolTable
70
1
0
APPID
5
205
100
AcDbSymbolTableRecord
100
AcDbRegAppTableRecord
2
ACAD
70
0
0
ENDTAB
0
TABLE
2
DIMSTYLE
5
A
100
AcDbSymbolTable
70
1
0
DIMSTYLE
105
206
100
AcDbSymbolTableRecord
100
AcDbDimStyleTableRecord
2
STANDARD
70
0
3

4

5

6

7

40
1.0
41
3.0000000000
42
0.0625
43
0.38
44
0.18
45
0.0
46
0.0
47
0.0100000000
48
0.0100000000
140
3.0000000000
141
0.09
142
0.0
143
25.4
144
1.0000000000
145
0.0
146
1.0000000000
147
0.09
71
1
72
0
73
0
74
0
75
0
76
0
77
1
78
8
170
0
171
2
172
0
173
0
174
0
175
0
176
0
177
0
178
0
270
2
271
2
272
2
273
2
274
2
340
11
275
0
280
0
281
0
282
0
283
1
284
8
285
0
286
0
287
3
288
0
0
DIMSTYLE
105
207
100
AcDbSymbolTableRecord
100
AcDbDimStyleTableRecord
2
DIMSTYLE_1
70
0
3

4

5

6

7

40
1.0
41
3.0000000000
42
0.0625
43
0.38
44
0.18
45
0.0
46
0.0
47
0.0000000000
48
0.0000000000
140
3.0000000000
141
0.09
142
0.0
143
25.4
144
1.0000000000
145
0.0
146
1.0000000000
147
0.09
71
0
72
0
73
0
74
0
75
0
76
0
77
1
78
8
170
0
171
2
172
0
173
0
174
0
175
0
176
0
177
0
178
0
270
2
271
2
272
2
273
2
274
2
340
11
275
0
280
0
281
0
282
0
283
1
284
8
285
0
286
0
287
3
288
0
0
ENDTAB
0
TABLE
2
BLOCK_RECORD
5
1
100
AcDbSymbolTable
70
0
0
BLOCK_RECORD
5
1B
100
AcDbSymbolTableRecord
100
AcDbBlockTableRecord
2
*MODEL_SPACE
0
BLOCK_RECORD
5
1C
100
AcDbSymbolTableRecord
100
AcDbBlockTableRecord
2
*PAPER_SPACE
0
BLOCK_RECORD
5
208
100
AcDbSymbolTableRecord
100
AcDbBlockTableRecord
2
*D0
0
BLOCK_RECORD
5
209
100
AcDbSymbolTableRecord
100
AcDbBlockTableRecord
2
*D1
0
BLOCK_RECORD
5
20A
100
AcDbSymbolTableRecord
100
AcDbBlockTableRecord
2
*D2
0
BLOCK_RECORD
5
20B
100
AcDbSymbolTableRecord
100
AcDbBlockTableRecord
2
*D3
0
ENDTAB
0
ENDSEC
0
SECTION
2
BLOCKS
0
BLOCK
5
1E
100
AcDbEntity
8
0
100
AcDbBlockBegin
2
*MODEL_SPACE
70
0
10
0.0
20
0.0
30
0.0
3
*MODEL_SPACE
1

0
ENDBLK
5
1F
100
AcDbEntity
8
0
100
AcDbBlockEnd
0
BLOCK
5
20
100
AcDbEntity
8
0
100
AcDbBlockBegin
2
*PAPER_SPACE
70
0
10
0.0
20
0.0
30
0.0
3
*PAPER_SPACE
1

0
ENDBLK
5
21
100
AcDbEntity
8
0
100
AcDbBlockEnd
0
BLOCK
5
20C
100
AcDbEntity
8
0
100
AcDbBlockBegin
62
7
6
CONTINUOUS
2
*D0
70
65
10
0.0000000000
20
0.0000000000
3
*D0
1

0
TEXT
5
20D
100
AcDbEntity
8
0
100
AcDbText
62
7
6
CONTINUOUS
10
259.9321171737
20
-1.2284162890
7
STANDARD
40
3.0000000000
1
44
50
90.0000000000
41
0.7857142857
72
0
100
AcDbText
0
LINE
5
20E
100
AcDbEntity
8
0
100
AcDbLine
62
7
6
CONTINUOUS
10
237.1821171737
20
22.5874531783
11
262.1821171737
21
22.5874531783
0
LINE
5
20F
100
AcDbEntity
8
0
100
AcDbLine
62
7
6
CONTINUOUS
10
237.1821171737
20
-21.4125468217
11
262.1821171737
21
-21.4125468217
0
LINE
5
210
100
AcDbEntity
8
0
100
AcDbLine
62
7
6
CONTINUOUS
10
260.6821171737
20
22.5874531783
11
260.6821171737
21
0.5874531783
0
LINE
5
211
100
AcDbEntity
8
0
100
AcDbLine
62
7
6
CONTINUOUS
10
260.6821171737
20
-21.4125468217
11
260.6821171737
21
0.5874531783
0
SOLID
5
212
100
AcDbEntity
8
0
100
AcDbTrace
62
7
6
CONTINUOUS
10
261.6321171737
20
19.5874531783
11
260.6821171737
21
22.5874531783
12
259.7321171737
22
19.5874531783
13
259.7321171737
23
19.5874531783
0
SOLID
5
213
100
AcDbEntity
8
0
100
AcDbTrace
62
7
6
CONTINUOUS
10
259.7321171737
20
-18.4125468217
11
260.6821171737
21
-21.4125468217
12
261.6321171737
22
-18.4125468217
13
261.6321171737
23
-18.4125468217
0
ENDBLK
5
214
100
AcDbEntity
8
0
100
AcDbBlockEnd
0
BLOCK
5
215
100
AcDbEntity
8
0
100
AcDbBlockBegin
62
7
6
CONTINUOUS
2
*D1
70
65
10
0.0000000000
20
0.0000000000
3
*D1
1

0
TEXT
5
216
100
AcDbEntity
8
0
100
AcDbText
62
7
6
CONTINUOUS
10
249.9321171737
20
-3.4595424568
7
STANDARD
40
3.0000000000
1
31,75
50
90.0000000000
41
0.6714285714
72
0
100
AcDbText
0
LINE
5
217
100
AcDbEntity
8
0
100
AcDbLine
62
7
6
CONTINUOUS
10
234.4321171737
20
16.4624531783
11
252.1821171737
21
16.4624531783
0
LINE
5
218
100
AcDbEntity
8
0
100
AcDbLine
62
7
6
CONTINUOUS
10
234.4321171737
20
-15.2875468217
11
252.1821171737
21
-15.2875468217
0
LINE
5
219
100
AcDbEntity
8
0
100
AcDbLine
62
7
6
CONTINUOUS
10
250.6821171737
20
16.4624531783
11
250.6821171737
21
0.5874531783
0
LINE
5
21A
100
AcDbEntity
8
0
100
AcDbLine
62
7
6
CONTINUOUS
10
250.6821171737
20
-15.2875468217
11
250.6821171737
21
0.5874531783
0
SOLID
5
21B
100
AcDbEntity
8
0
100
AcDbTrace
62
7
6
CONTINUOUS
10
251.6321171737
20
13.4624531783
11
250.6821171737
21
16.4624531783
12
249.7321171737
22
13.4624531783
13
249.7321171737
23
13.4624531783
0
SOLID
5
21C
100
AcDbEntity
8
0
100
AcDbTrace
62
7
6
CONTINUOUS
10
249.7321171737
20
-12.2875468217
11
250.6821171737
21
-15.2875468217
12
251.6321171737
22
-12.2875468217
13
251.6321171737
23
-12.2875468217
0
ENDBLK
5
21D
100
AcDbEntity
8
0
100
AcDbBlockEnd
0
BLOCK
5
21E
100
AcDbEntity
8
0
100
AcDbBlockBegin
62
7
6
CONTINUOUS
2
*D2
70
65
10
0.0000000000
20
0.0000000000
3
*D2
1

0
TEXT
5
21F
100
AcDbEntity
8
0
100
AcDbText
62
7
6
CONTINUOUS
10
-39.9446926869
20
33.3374531783
7
STANDARD
40
3.0000000000
1
482
41
0.7857142857
72
0
100
AcDbText
0
LINE
5
220
100
AcDbEntity
8
0
100
AcDbLine
62
7
6
CONTINUOUS
10
240.6821171737
20
19.0874531783
11
240.6821171737
21
34.0874531783
0
LINE
5
221
100
AcDbEntity
8
0
100
AcDbLine
62
7
6
CONTINUOUS
10
-241.3178828263
20
19.0874531783
11
-241.3178828263
21
34.0874531783
0
LINE
5
222
100
AcDbEntity
8
0
100
AcDbLine
62
7
6
CONTINUOUS
10
240.6821171737
20
32.5874531783
11
-0.3178828263
21
32.5874531783
0
LINE
5
223
100
AcDbEntity
8
0
100
AcDbLine
62
7
6
CONTINUOUS
10
-241.3178828263
20
32.5874531783
11
-0.3178828263
21
32.5874531783
0
SOLID
5
224
100
AcDbEntity
8
0
100
AcDbTrace
62
7
6
CONTINUOUS
10
237.6821171737
20
31.6374531783
11
240.6821171737
21
32.5874531783
12
237.6821171737
22
33.5374531783
13
237.6821171737
23
33.5374531783
0
SOLID
5
225
100
AcDbEntity
8
0
100
AcDbTrace
62
7
6
CONTINUOUS
10
-238.3178828263
20
33.5374531783
11
-241.3178828263
21
32.5874531783
12
-238.3178828263
22
31.6374531783
13
-238.3178828263
23
31.6374531783
0
ENDBLK
5
226
100
AcDbEntity
8
0
100
AcDbBlockEnd
0
BLOCK
5
227
100
AcDbEntity
8
0
100
AcDbBlockBegin
62
7
6
CONTINUOUS
2
*D3
70
65
10
0.0000000000
20
0.0000000000
3
*D3
1

0
TEXT
5
228
100
AcDbEntity
8
0
100
AcDbText
62
7
6
CONTINUOUS
10
-278.2876374917
20
33.3374531783
7
STANDARD
40
3.0000000000
1
12,5
41
0.6607142857
72
0
100
AcDbText
0
LINE
5
229
100
AcDbEntity
8
0
100
AcDbLine
62
7
6
CONTINUOUS
10
-280.9938135012
20
19.0874531783
11
-280.9938135012
21
34.0874531783
0
LINE
5
22A
100
AcDbEntity
8
0
100
AcDbLine
62
7
6
CONTINUOUS
10
-268.4938135012
20
23.0874531783
11
-268.4938135012
21
34.0874531783
0
LINE
5
22B
100
AcDbEntity
8
0
100
AcDbLine
62
7
6
CONTINUOUS
10
-280.9938135012
20
32.5874531783
11
-274.7438135012
21
32.5874531783
0
LINE
5
22C
100
AcDbEntity
8
0
100
AcDbLine
62
7
6
CONTINUOUS
10
-268.4938135012
20
32.5874531783
11
-274.7438135012
21
32.5874531783
0
SOLID
5
22D
100
AcDbEntity
8
0
100
AcDbTrace
62
7
6
CONTINUOUS
10
-277.9938135012
20
33.5374531783
11
-280.9938135012
21
32.5874531783
12
-277.9938135012
22
31.6374531783
13
-277.9938135012
23
31.6374531783
0
SOLID
5
22E
100
AcDbEntity
8
0
100
AcDbTrace
62
7
6
CONTINUOUS
10
-271.4938135012
20
31.6374531783
11
-268.4938135012
21
32.5874531783
12
-271.4938135012
22
33.5374531783
13
-271.4938135012
23
33.5374531783
0
ENDBLK
5
22F
100
AcDbEntity
8
0
100
AcDbBlockEnd
0
ENDSEC
0
SECTION
2
ENTITIES
0
DIMENSION
5
230
100
AcDbEntity
8
0
100
AcDbDimension
62
7
6
CONTINUOUS
2
*D0
10
260.6821171737
20
-21.4125468217
11
258.4321171737
21
1.1287265681
70
160
3
DIMSTYLE_1
100
AcDbAlignedDimension
13
237.1821171737
23
22.5874531783
14
237.1821171737
24
-21.4125468217
50
270.000000
100
AcDbRotatedDimension
0
DIMENSION
5
231
100
AcDbEntity
8
0
100
AcDbDimension
62
7
6
CONTINUOUS
2
*D1
10
250.6821171737
20
-15.2875468217
11
248.4321171737
21
1.5761718290
70
160
3
DIMSTYLE_1
100
AcDbAlignedDimension
13
234.4321171737
23
16.4624531783
14
234.4321171737
24
-15.2875468217
50
270.000000
100
AcDbRotatedDimension
0
DIMENSION
5
232
100
AcDbEntity
8
0
100
AcDbDimension
62
7
6
CONTINUOUS
2
*D2
10
-241.3178828263
20
32.5874531783
11
-36.4089784012
21
34.8374531783
70
160
3
DIMSTYLE_1
100
AcDbAlignedDimension
13
240.6821171737
23
19.0874531783
14
-241.3178828263
24
19.0874531783
50
180.000000
100
AcDbRotatedDimension
0
DIMENSION
5
233
100
AcDbEntity
8
0
100
AcDbDimension
62
7
6
CONTINUOUS
2
*D3
10
-268.4938135012
20
32.5874531783
11
-274.3233517774
21
34.8374531783
70
160
3
DIMSTYLE_1
100
AcDbAlignedDimension
13
-280.9938135012
23
19.0874531783
14
-268.4938135012
24
23.0874531783
100
AcDbRotatedDimension
0
LINE
5
234
100
AcDbEntity
8
0
100
AcDbLine
62
7
6
CONTINUOUS
10
-241.3178828263
20
-21.4125468217
11
-241.3178828263
21
18.5874531783
0
LINE
5
235
100
AcDbEntity
8
0
100
AcDbLine
62
7
6
CONTINUOUS
10
-220.3270268747
20
-19.8223289349
11
-220.3178828263
21
-19.9125468217
0
LINE
5
236
100
AcDbEntity
8
0
100
AcDbLine
62
7
6
CONTINUOUS
10
-222.3178828263
20
22.5874531783
11
-222.3178828263
21
21.0874531783
0
LINE
5
237
100
AcDbEntity
8
0
100
AcDbLine
62
7
6
CONTINUOUS
10
-222.3178828263
20
-21.4125468217
11
-222.3178828263
21
-19.9125468217
0
LINE
5
238
100
AcDbEntity
8
0
100
AcDbLine
62
7
6
CONTINUOUS
10
-220.3178828263
20
22.5874531783
11
-220.3178828263
21
21.0874531806
0
LINE
5
239
100
AcDbEntity
8
0
100
AcDbLine
62
7
6
CONTINUOUS
10
-220.3178828263
20
-21.4125468217
11
-220.3178828263
21
-19.9125468247
0
LINE
5
23A
100
AcDbEntity
8
0
100
AcDbLine
62
7
6
CONTINUOUS
10
-220.5633455245
20
20.6571277482
11
-220.6254993784
21
20.6264236102
0
LINE
5
23B
100
AcDbEntity
8
0
100
AcDbLine
62
7
6
CONTINUOUS
10
-220.6254993286
20
-19.4515171291
11
-220.5639972172
21
-19.4818372461
0
LINE
5
23C
100
AcDbEntity
8
0
100
AcDbLine
62
7
6
CONTINUOUS
10
236.6821171737
20
-21.4125468217
11
221.6821171737
21
-21.4125468217
0
LINE
5
23D
100
AcDbEntity
8
0
100
AcDbLine
62
7
6
CONTINUOUS
10
-220.3178828263
20
-21.4125468217
11
219.6821171737
21
-21.4125468217
0
LINE
5
23E
100
AcDbEntity
8
0
100
AcDbLine
62
7
6
CONTINUOUS
10
-222.3178828263
20
-21.4125468217
11
-241.3178828263
21
-21.4125468217
0
LINE
5
23F
100
AcDbEntity
8
0
100
AcDbLine
62
7
6
CONTINUOUS
10
221.1821171737
20
-19.4125468217
11
220.1821099210
21
-19.4125468217
0
LINE
5
240
100
AcDbEntity
8
0
100
AcDbLine
62
9
6
CONTINUOUS
10
-220.8178755735
20
-19.4125468217
11
220.1821099210
21
-19.4125468217
0
LINE
5
241
100
AcDbEntity
8
0
100
AcDbLine
62
7
6
CONTINUOUS
10
-220.8178755735
20
-19.4125468217
11
-221.8178828263
21
-19.4125468217
0
LINE
5
242
100
AcDbEntity
8
0
100
AcDbLine
62
7
6
CONTINUOUS
10
-234.5678828263
20
-18.7875468217
11
-231.0678828263
21
-18.7875468217
0
LINE
5
243
100
AcDbEntity
8
0
100
AcDbLine
62
7
6
CONTINUOUS
10
230.4321171737
20
-18.7875468217
11
233.9321171737
21
-18.7875468217
0
LINE
5
244
100
AcDbEntity
8
0
100
AcDbLine
62
7
6
CONTINUOUS
10
233.9321171737
20
-11.7875468217
11
230.4321171737
21
-11.7875468217
0
LINE
5
245
100
AcDbEntity
8
0
100
AcDbLine
62
7
6
CONTINUOUS
10
-231.0678828263
20
-11.7875468217
11
-234.5678828263
21
-11.7875468217
0
LINE
5
246
100
AcDbEntity
8
0
100
AcDbLine
62
7
6
CONTINUOUS
10
-234.5678828263
20
12.9624531783
11
-231.0678828263
21
12.9624531783
0
LINE
5
247
100
AcDbEntity
8
0
100
AcDbLine
62
7
6
CONTINUOUS
10
230.4321171737
20
12.9624531783
11
233.9321171737
21
12.9624531783
0
LINE
5
248
100
AcDbEntity
8
0
100
AcDbLine
62
7
6
CONTINUOUS
10
233.9321171737
20
19.9624531783
11
230.4321171737
21
19.9624531783
0
LINE
5
249
100
AcDbEntity
8
0
100
AcDbLine
62
7
6
CONTINUOUS
10
-231.0678828263
20
19.9624531783
11
-234.5678828263
21
19.9624531783
0
LINE
5
24A
100
AcDbEntity
8
0
100
AcDbLine
62
7
6
CONTINUOUS
10
-221.8178828263
20
20.5874531783
11
-220.8178755735
21
20.5874531783
0
LINE
5
24B
100
AcDbEntity
8
0
100
AcDbLine
62
7
6
CONTINUOUS
10
220.1821099210
20
20.5874531783
11
221.1821171737
21
20.5874531783
0
LINE
5
24C
100
AcDbEntity
8
0
100
AcDbLine
62
9
6
CONTINUOUS
10
220.1821099210
20
20.5874531783
11
-220.8178755735
21
20.5874531783
0
LINE
5
24D
100
AcDbEntity
8
0
100
AcDbLine
62
7
6
CONTINUOUS
10
-237.3178828263
20
22.5874531783
11
-222.3178828263
21
22.5874531783
0
LINE
5
24E
100
AcDbEntity
8
0
100
AcDbLine
62
7
6
CONTINUOUS
10
-220.3178828263
20
22.5874531783
11
219.6821171737
21
22.5874531783
0
LINE
5
24F
100
AcDbEntity
8
0
100
AcDbLine
62
7
6
CONTINUOUS
10
221.6821171737
20
22.5874531783
11
236.6821171737
21
22.5874531783
0
LINE
5
250
100
AcDbEntity
8
0
100
AcDbLine
62
7
6
CONTINUOUS
10
219.9275798720
20
-19.4822213915
11
219.9897337257
21
-19.4515172536
0
LINE
5
251
100
AcDbEntity
8
0
100
AcDbLine
62
7
6
CONTINUOUS
10
219.9897336761
20
20.6264234858
11
219.9282315817
21
20.6567435928
0
LINE
5
252
100
AcDbEntity
8
0
100
AcDbLine
62
7
6
CONTINUOUS
10
219.6912612221
20
20.9972352916
11
219.6821171737
21
21.0874531783
0
LINE
5
253
100
AcDbEntity
8
0
100
AcDbLine
62
7
6
CONTINUOUS
10
219.6821171737
20
22.5874531783
11
219.6821171737
21
21.0874531814
0
LINE
5
254
100
AcDbEntity
8
0
100
AcDbLine
62
7
6
CONTINUOUS
10
219.6821171737
20
-21.4125468217
11
219.6821171737
21
-19.9125468240
0
LINE
5
255
100
AcDbEntity
8
0
100
AcDbLine
62
7
6
CONTINUOUS
10
221.6821171737
20
22.5874531783
11
221.6821171737
21
21.0874531783
0
LINE
5
256
100
AcDbEntity
8
0
100
AcDbLine
62
7
6
CONTINUOUS
10
221.6821171737
20
-21.4125468217
11
221.6821171737
21
-19.9125468217
0
LINE
5
257
100
AcDbEntity
8
0
100
AcDbLine
62
7
6
CONTINUOUS
10
240.6821171737
20
18.5874531783
11
240.6821171737
21
-17.4125468217
0
LINE
5
258
100
AcDbEntity
8
0
100
AcDbLine
62
7
6
CONTINUOUS
10
-280.9938135012
20
-21.4125468217
11
-279.4938135012
21
-21.4125468217
0
LINE
5
259
100
AcDbEntity
8
0
100
AcDbLine
62
7
6
CONTINUOUS
10
-268.4938135012
20
-21.4125468217
11
-278.9938135012
21
-21.4125468217
0
LINE
5
25A
100
AcDbEntity
8
0
100
AcDbLine
62
7
6
CONTINUOUS
10
-268.4938135012
20
-19.9125468217
11
-278.9938135012
21
-19.9125468217
0
LINE
5
25B
100
AcDbEntity
8
0
100
AcDbLine
62
9
6
CONTINUOUS
10
-279.4938135012
20
-19.9125468217
11
-280.9938135012
21
-19.9125468217
0
LINE
5
25C
100
AcDbEntity
8
0
100
AcDbLine
62
7
6
CONTINUOUS
10
-279.4938135012
20
-19.4125468217
11
-280.9938135012
21
-19.4125468217
0
LINE
5
25D
100
AcDbEntity
8
0
100
AcDbLine
62
7
6
CONTINUOUS
10
-280.9938135012
20
-18.7875468217
11
-279.4938135012
21
-18.7875468217
0
LINE
5
25E
100
AcDbEntity
8
0
100
AcDbLine
62
9
6
CONTINUOUS
10
-280.9938135012
20
-17.4125468217
11
-279.4938135012
21
-17.4125468217
0
LINE
5
25F
100
AcDbEntity
8
0
100
AcDbLine
62
7
6
CONTINUOUS
10
-280.9938135012
20
-11.7875468217
11
-279.4938135012
21
-11.7875468217
0
LINE
5
260
100
AcDbEntity
8
0
100
AcDbLine
62
7
6
CONTINUOUS
10
-280.9938135012
20
-21.4125468217
11
-280.9938135012
21
22.5874531783
0
LINE
5
261
100
AcDbEntity
8
0
100
AcDbLine
62
7
6
CONTINUOUS
10
-279.4938135012
20
-21.4125468217
11
-279.4938135012
21
22.5874531783
0
LINE
5
262
100
AcDbEntity
8
0
100
AcDbLine
62
9
6
CONTINUOUS
10
-278.9938135012
20
-19.9125468217
11
-278.9938135012
21
-21.4125468217
0
LINE
5
263
100
AcDbEntity
8
0
100
AcDbLine
62
9
6
CONTINUOUS
10
-278.9938135012
20
21.0874531783
11
-278.9938135012
21
22.5874531783
0
LINE
5
264
100
AcDbEntity
8
0
100
AcDbLine
62
9
6
CONTINUOUS
10
-271.4938135012
20
22.5874531783
11
-271.4938135012
21
21.0874531783
0
LINE
5
265
100
AcDbEntity
8
0
100
AcDbLine
62
9
6
CONTINUOUS
10
-271.4938135012
20
-21.4125468217
11
-271.4938135012
21
-19.9125468217
0
LINE
5
266
100
AcDbEntity
8
0
100
AcDbLine
62
7
6
CONTINUOUS
10
-268.4938135012
20
22.5874531783
11
-268.4938135012
21
21.0874531783
0
LINE
5
267
100
AcDbEntity
8
0
100
AcDbLine
62
7
6
CONTINUOUS
10
-268.4938135012
20
-21.4125468217
11
-268.4938135012
21
-19.9125468217
0
LINE
5
268
100
AcDbEntity
8
0
100
AcDbLine
62
7
6
CONTINUOUS
10
-280.9938135012
20
12.9624531783
11
-279.4938135012
21
12.9624531783
0
LINE
5
269
100
AcDbEntity
8
0
100
AcDbLine
62
9
6
CONTINUOUS
10
-280.9938135012
20
18.5874531783
11
-279.4938135012
21
18.5874531783
0
LINE
5
26A
100
AcDbEntity
8
0
100
AcDbLine
62
7
6
CONTINUOUS
10
-280.9938135012
20
19.9624531783
11
-279.4938135012
21
19.9624531783
0
LINE
5
26B
100
AcDbEntity
8
0
100
AcDbLine
62
7
6
CONTINUOUS
10
-279.4938135012
20
20.5874531783
11
-280.9938135012
21
20.5874531783
0
LINE
5
26C
100
AcDbEntity
8
0
100
AcDbLine
62
7
6
CONTINUOUS
10
-268.4938135012
20
21.0874531783
11
-278.9938135012
21
21.0874531783
0
LINE
5
26D
100
AcDbEntity
8
0
100
AcDbLine
62
9
6
CONTINUOUS
10
-279.4938135012
20
21.0874531783
11
-280.9938135012
21
21.0874531783
0
LINE
5
26E
100
AcDbEntity
8
0
100
AcDbLine
62
7
6
CONTINUOUS
10
-280.9938135012
20
22.5874531783
11
-279.4938135012
21
22.5874531783
0
LINE
5
26F
100
AcDbEntity
8
0
100
AcDbLine
62
7
6
CONTINUOUS
10
-268.4938135012
20
22.5874531783
11
-278.9938135012
21
22.5874531783
0
ARC
5
270
100
AcDbEntity
8
0
100
AcDbCircle
62
7
6
CONTINUOUS
10
236.6821171737
20
18.5874531783
40
4.0000000000
100
AcDbArc
50
0.0000000000
51
90.0000000000
0
ARC
5
271
100
AcDbEntity
8
0
100
AcDbCircle
62
7
6
CONTINUOUS
10
236.6821171737
20
-17.4125468217
40
4.0000000000
100
AcDbArc
50
270.0000000000
51
360.0000000000
0
ARC
5
272
100
AcDbEntity
8
0
100
AcDbCircle
62
7
6
CONTINUOUS
10
-237.3178828263
20
18.5874531783
40
4.0000000000
100
AcDbArc
50
90.0000000000
51
180.0000000000
0
ARC
5
273
100
AcDbEntity
8
0
100
AcDbCircle
62
7
6
CONTINUOUS
10
-234.5678828263
20
16.4624531783
40
3.5000000000
100
AcDbArc
50
90.0000000000
51
270.0000000000
0
ARC
5
274
100
AcDbEntity
8
0
100
AcDbCircle
62
7
6
CONTINUOUS
10
-231.0678828263
20
16.4624531783
40
3.5000000000
100
AcDbArc
50
270.0000000000
51
90.0000000000
0
ARC
5
275
100
AcDbEntity
8
0
100
AcDbCircle
62
7
6
CONTINUOUS
10
-234.5678828263
20
-15.2875468217
40
3.5000000000
100
AcDbArc
50
90.0000000000
51
270.0000000000
0
ARC
5
276
100
AcDbEntity
8
0
100
AcDbCircle
62
7
6
CONTINUOUS
10
-231.0678828263
20
-15.2875468217
40
3.5000000000
100
AcDbArc
50
270.0000000000
51
90.0000000000
0
ARC
5
277
100
AcDbEntity
8
0
100
AcDbCircle
62
7
6
CONTINUOUS
10
233.9321171737
20
16.4624531783
40
3.5000000000
100
AcDbArc
50
270.0000000000
51
90.0000000000
0
ARC
5
278
100
AcDbEntity
8
0
100
AcDbCircle
62
7
6
CONTINUOUS
10
230.4321171737
20
16.4624531783
40
3.5000000000
100
AcDbArc
50
90.0000000000
51
270.0000000000
0
ARC
5
279
100
AcDbEntity
8
0
100
AcDbCircle
62
7
6
CONTINUOUS
10
233.9321171737
20
-15.2875468217
40
3.5000000000
100
AcDbArc
50
270.0000000000
51
90.0000000000
0
ARC
5
27A
100
AcDbEntity
8
0
100
AcDbCircle
62
7
6
CONTINUOUS
10
230.4321171737
20
-15.2875468217
40
3.5000000000
100
AcDbArc
50
90.0000000000
51
270.0000000000
0
ARC
5
27B
100
AcDbEntity
8
0
100
AcDbCircle
62
7
6
CONTINUOUS
10
221.1821171737
20
-19.9125468217
40
0.5000000000
100
AcDbArc
50
0.0000000000
51
90.0000000000
0
ARC
5
27C
100
AcDbEntity
8
0
100
AcDbCircle
62
7
6
CONTINUOUS
10
-221.8178828263
20
-19.9125468217
40
0.5000000000
100
AcDbArc
50
90.0000000000
51
180.0000000000
0
ARC
5
27D
100
AcDbEntity
8
0
100
AcDbCircle
62
7
6
CONTINUOUS
10
-221.8178828263
20
21.0874531783
40
0.5000000000
100
AcDbArc
50
180.0000000000
51
270.0000000000
0
ARC
5
27E
100
AcDbEntity
8
0
100
AcDbCircle
62
7
6
CONTINUOUS
10
221.1821171737
20
21.0874531783
40
0.5000000000
100
AcDbArc
50
270.0000000000
51
360.0000000000
0
ARC
5
27F
100
AcDbEntity
8
0
100
AcDbCircle
62
7
6
CONTINUOUS
10
-278.9938135012
20
20.5874531783
40
0.5000000000
100
AcDbArc
50
90.0000000000
51
180.0000000000
0
ARC
5
280
100
AcDbEntity
8
0
100
AcDbCircle
62
7
6
CONTINUOUS
10
-278.9938135012
20
20.5874531783
40
2.0000000000
100
AcDbArc
50
90.0000000000
51
180.0000000000
0
ARC
5
281
100
AcDbEntity
8
0
100
AcDbCircle
62
7
6
CONTINUOUS
10
-278.9938135012
20
-19.4125468217
40
0.5000000000
100
AcDbArc
50
180.0000000000
51
270.0000000000
0
ARC
5
282
100
AcDbEntity
8
0
100
AcDbCircle
62
7
6
CONTINUOUS
10
-278.9938135012
20
-19.4125468217
40
2.0000000000
100
AcDbArc
50
180.0000000000
51
270.0000000000
0
SPLINE
5
283
100
AcDbEntity
8
0
100
AcDbSpline
62
7
6
CONTINUOUS
70
0
71
3
72
26
73
22
74
20
42
0.0000001000
43
0.0000001000
44
0.0000000001
12
0.5973816454
22
-0.5559230531
32
0.0000000000
13
0.5407593725
23
-0.7296355651
33
0.0000000000
40
0.0000000000
40
0.0000000000
40
0.0000000000
40
0.0000000000
40
0.0194984351
40
0.0728452354
40
0.1070468688
40
0.1383042971
40
0.2037054403
40
0.2949322934
40
0.3800276024
40
0.4416206765
40
0.4813636641
40
0.5541783763
40
0.5780779359
40
0.6240956699
40
0.6944071847
40
0.7320942074
40
0.8029388731
40
0.9071028741
40
0.9643900082
40
0.9879946185
40
1.0000000000
40
1.0000000000
40
1.0000000000
40
1.0000000000
10
219.8403715237
20
-20.2775026366
30
0.0000000000
10
219.8442541928
20
-20.2811158465
30
0.0000000000
10
219.8588591296
20
-20.2943383457
30
0.0000000000
10
219.8735572288
20
-20.3072481600
30
0.0000000000
10
219.9211314317
20
-20.3397807972
30
0.0000000000
10
219.8618415081
20
-20.2986768760
30
0.0000000000
10
219.9503353131
20
-20.3602404323
30
0.0000000000
10
219.9929752079
20
-20.3744229773
30
0.0000000000
10
220.0416768297
20
-20.3950321468
30
0.0000000000
10
220.1301533596
20
-20.4102588269
30
0.0000000000
10
220.0607551789
20
-20.3983779312
30
0.0000000000
10
220.0337980295
20
-20.3899245976
30
0.0000000000
10
219.9972588185
20
-20.3770461096
30
0.0000000000
10
219.9634213169
20
-20.3624492468
30
0.0000000000
10
219.9271193613
20
-20.3429005120
30
0.0000000000
10
219.8878300360
20
-20.3173983345
30
0.0000000000
10
219.8409338917
20
-20.2785943699
30
0.0000000000
10
219.8106982127
20
-20.2527688192
30
0.0000000000
10
219.7561956218
20
-20.1753689789
30
0.0000000000
10
219.7751340463
20
-20.2028930122
30
0.0000000000
10
219.7817282342
20
-20.2119757646
30
0.0000000000
10
219.7838922418
20
-20.2148956158
30
0.0000000000
11
219.8403715237
21
-20.2775026366
31
0.0000000000
11
219.8517429965
21
-20.2878764363
31
0.0000000000
11
219.8847394000
21
-20.3145380294
31
0.0000000000
11
219.9070581111
21
-20.3300806118
31
0.0000000000
11
219.8866518759
21
-20.3158886420
31
0.0000000000
11
219.9301263100
21
-20.3444323928
31
0.0000000000
11
219.9953926518
21
-20.3761020246
31
0.0000000000
11
220.0598101931
21
-20.3968236720
31
0.0000000000
11
220.1078377755
21
-20.4064317681
31
0.0000000000
11
220.0767539159
21
-20.4007221794
31
0.0000000000
11
220.0209306189
21
-20.3853440398
31
0.0000000000
11
220.0030411071
21
-20.3789285305
31
0.0000000000
11
219.9693853974
21
-20.3645624124
31
0.0000000000
11
219.9201628538
21
-20.3380423539
31
0.0000000000
11
219.8951038479
21
-20.3216050353
31
0.0000000000
11
219.8508706549
21
-20.2867168378
31
0.0000000000
11
219.7935511086
21
-20.2269205648
31
0.0000000000
11
219.7664951344
21
-20.1902702948
31
0.0000000000
11
219.7772063363
21
-20.2056846854
31
0.0000000000
11
219.7838922418
21
-20.2148956158
31
0.0000000000
0
SPLINE
5
284
100
AcDbEntity
8
0
100
AcDbSpline
62
7
6
CONTINUOUS
70
0
71
3
72
15
73
11
74
9
42
0.0000001000
43
0.0000001000
44
0.0000000001
12
-0.2236186898
22
0.3200201082
32
0.0000000000
13
0.1345068096
23
-0.3737842534
33
0.0000000000
40
0.0000000000
40
0.0000000000
40
0.0000000000
40
0.0000000000
40
0.0542401548
40
0.1726786870
40
0.3625196351
40
0.5211568833
40
0.6651322741
40
0.7077052422
40
0.8521279555
40
1.0000000000
40
1.0000000000
40
1.0000000000
40
1.0000000000
10
219.7719857725
20
-20.1980950315
30
0.0000000000
10
219.7679427351
20
-20.1923090515
30
0.0000000000
10
219.7554517347
20
-20.1735280885
30
0.0000000000
10
219.7321383289
20
-20.1334620746
30
0.0000000000
10
219.7078989826
20
-20.0713742574
30
0.0000000000
10
219.6928627292
20
-20.0288308361
30
0.0000000000
10
219.6820153961
20
-19.9354523913
30
0.0000000000
10
219.6875237633
20
-19.9907320614
30
0.0000000000
10
219.6946928372
20
-20.0277373867
30
0.0000000000
10
219.7057603513
20
-20.0654506095
30
0.0000000000
10
219.7123902836
20
-20.0838746901
30
0.0000000000
11
219.7719857725
21
-20.1980950315
31
0.0000000000
11
219.7602323955
21
-20.1804805039
31
0.0000000000
11
219.7372942169
21
-20.1403318498
31
0.0000000000
11
219.7084902336
21
-20.0720426202
31
0.0000000000
11
219.6923409319
21
-20.0122519678
31
0.0000000000
11
219.6841700551
21
-19.9566399173
31
0.0000000000
11
219.6858748641
21
-19.9731730698
31
0.0000000000
11
219.6957932465
21
-20.0286775929
31
0.0000000000
11
219.7123902836
21
-20.0838746901
31
0.0000000000
0
SPLINE
5
285
100
AcDbEntity
8
0
100
AcDbSpline
62
7
6
CONTINUOUS
70
0
71
3
72
8
73
4
74
2
42
0.0000001000
43
0.0000001000
44
0.0000000001
12
0.0970248685
22
0.0402239627
32
0.0000000000
13
0.1027714575
23
0.0195283688
33
0.0000000000
40
0.0000000000
40
0.0000000000
40
0.0000000000
40
0.0000000000
40
1.0000000000
40
1.0000000000
40
1.0000000000
40
1.0000000000
10
219.9896452280
20
-19.4513037867
30
0.0000000000
10
220.0219868508
20
-19.4378957992
30
0.0000000000
10
220.0557266755
20
-19.4278283421
30
0.0000000000
10
220.0899838280
20
-19.4213188859
30
0.0000000000
11
219.9896452280
21
-19.4513037867
31
0.0000000000
11
220.0899838280
21
-19.4213188859
31
0.0000000000
0
SPLINE
5
286
100
AcDbEntity
8
0
100
AcDbSpline
62
7
6
CONTINUOUS
70
0
71
3
72
8
73
4
74
2
42
0.0000001000
43
0.0000001000
44
0.0000000001
12
0.0915102191
22
0.0173885371
32
0.0000000000
13
0.0921055835
23
0.0000020621
33
0.0000000000
40
0.0000000000
40
0.0000000000
40
0.0000000000
40
0.0000000000
40
1.0000000000
40
1.0000000000
40
1.0000000000
40
1.0000000000
10
220.0899838280
20
-19.4213188859
30
0.0000000000
10
220.1204872343
20
-19.4155227068
30
0.0000000000
10
220.1514008070
20
-19.4125475090
30
0.0000000000
10
220.1821026682
20
-19.4125468217
30
0.0000000000
11
220.0899838280
21
-19.4213188859
31
0.0000000000
11
220.1821026682
21
-19.4125468217
31
0.0000000000
0
SPLINE
5
287
100
AcDbEntity
8
0
100
AcDbSpline
62
7
6
CONTINUOUS
70
0
71
3
72
8
73
4
74
2
42
0.0000001000
43
0.0000001000
44
0.0000000001
12
0.0427040265
22
0.0436708374
32
0.0000000000
13
0.0477343763
23
0.0381535608
33
0.0000000000
40
0.0000000000
40
0.0000000000
40
0.0000000000
40
0.0000000000
40
1.0000000000
40
1.0000000000
40
1.0000000000
40
1.0000000000
10
219.8246125573
20
-19.5629513273
30
0.0000000000
10
219.8388472328
20
-19.5483943815
30
0.0000000000
10
219.8539706261
20
-19.5347057645
30
0.0000000000
10
219.8698820849
20
-19.5219879109
30
0.0000000000
11
219.8246125573
21
-19.5629513273
31
0.0000000000
11
219.8698820849
21
-19.5219879109
31
0.0000000000
0
SPLINE
5
288
100
AcDbEntity
8
0
100
AcDbSpline
62
7
6
CONTINUOUS
70
0
71
3
72
8
73
4
74
2
42
0.0000001000
43
0.0000001000
44
0.0000000001
12
0.0547394579
22
0.0437526453
32
0.0000000000
13
0.0605021181
23
0.0356296759
33
0.0000000000
40
0.0000000000
40
0.0000000000
40
0.0000000000
40
0.0000000000
40
1.0000000000
40
1.0000000000
40
1.0000000000
40
1.0000000000
10
219.8698820849
20
-19.5219879109
30
0.0000000000
10
219.8881285709
20
-19.5074036957
30
0.0000000000
10
219.9074113932
20
-19.4940960720
30
0.0000000000
10
219.9275787659
20
-19.4822195133
30
0.0000000000
11
219.8698820849
21
-19.5219879109
31
0.0000000000
11
219.9275787659
21
-19.4822195133
31
0.0000000000
0
SPLINE
5
289
100
AcDbEntity
8
0
100
AcDbSpline
62
7
6
CONTINUOUS
70
0
71
3
72
8
73
4
74
2
42
0.0000001000
43
0.0000001000
44
0.0000000001
12
0.0612257998
22
-0.0625968174
32
0.0000000000
13
0.0493792602
23
-0.0723995262
33
0.0000000000
40
0.0000000000
40
0.0000000000
40
0.0000000000
40
0.0000000000
40
1.0000000000
40
1.0000000000
40
1.0000000000
40
1.0000000000
10
-220.4604204644
20
-19.5629081319
30
0.0000000000
10
-220.4400118645
20
-19.5837737377
30
0.0000000000
10
-220.4214294252
20
-19.6064240162
30
0.0000000000
10
-220.4049696718
20
-19.6305571916
30
0.0000000000
11
-220.4604204644
21
-19.5629081319
31
0.0000000000
11
-220.4049696718
21
-19.6305571916
31
0.0000000000
0
SPLINE
5
28A
100
AcDbEntity
8
0
100
AcDbSpline
62
7
6
CONTINUOUS
70
0
71
3
72
16
73
12
74
10
42
0.0000001000
43
0.0000001000
44
0.0000000001
12
0.2191343225
22
0.4061670466
32
0.0000000000
13
-0.2663206428
23
-0.3844926138
33
0.0000000000
40
0.0000000000
40
0.0000000000
40
0.0000000000
40
0.0000000000
40
0.0785991508
40
0.2231718494
40
0.3667339662
40
0.4375841635
40
0.5530374872
40
0.6783295357
40
0.8293474987
40
0.9510761812
40
1.0000000000
40
1.0000000000
40
1.0000000000
40
1.0000000000
10
-220.3772243345
20
-20.1488373670
30
0.0000000000
10
-220.3714830773
20
-20.1381959053
30
0.0000000000
10
-220.3562806767
20
-20.1074081318
30
0.0000000000
10
-220.3363777702
20
-20.0508165767
30
0.0000000000
10
-220.3253479932
20
-20.0075427636
30
0.0000000000
10
-220.3171277158
20
-19.9310838622
30
0.0000000000
10
-220.3275694436
20
-20.0210571077
30
0.0000000000
10
-220.3414545246
20
-20.0652094641
30
0.0000000000
10
-220.3647590314
20
-20.1271351095
30
0.0000000000
10
-220.3888029343
20
-20.1699151354
30
0.0000000000
10
-220.4034082845
20
-20.1918247498
30
0.0000000000
10
-220.4077514255
20
-20.1980950321
30
0.0000000000
11
-220.3772243345
21
-20.1488373670
31
0.0000000000
11
-220.3611581427
21
-20.1160567539
31
0.0000000000
11
-220.3380309346
21
-20.0531101132
31
0.0000000000
11
-220.3236719070
21
-19.9880846250
31
0.0000000000
11
-220.3198135794
21
-19.9554476783
31
0.0000000000
11
-220.3273467134
21
-20.0084688108
31
0.0000000000
11
-220.3418554524
21
-20.0647460042
31
0.0000000000
11
-220.3678283634
21
-20.1298034579
31
0.0000000000
11
-220.3951859787
21
-20.1791977522
31
0.0000000000
11
-220.4077514255
21
-20.1980950321
31
0.0000000000
0
SPLINE
5
28B
100
AcDbEntity
8
0
100
AcDbSpline
62
7
6
CONTINUOUS
70
0
71
3
72
8
73
4
74
2
42
0.0000001000
43
0.0000001000
44
0.0000000001
12
0.0346340142
22
-0.0891006010
32
0.0000000000
13
0.0174238863
23
-0.0936153329
33
0.0000000000
40
0.0000000000
40
0.0000000000
40
0.0000000000
40
0.0000000000
40
1.0000000000
40
1.0000000000
40
1.0000000000
40
1.0000000000
10
-220.3524341347
20
-19.7305089398
30
0.0000000000
10
-220.3408894633
20
-19.7602091401
30
0.0000000000
10
-220.3321355895
20
-19.7909936785
30
0.0000000000
10
-220.3263276274
20
-19.8221987895
30
0.0000000000
11
-220.3524341347
21
-19.7305089398
31
0.0000000000
11
-220.3263276274
21
-19.8221987895
31
0.0000000000
0
SPLINE
5
28C
100
AcDbEntity
8
0
100
AcDbSpline
62
7
6
CONTINUOUS
70
0
71
3
72
9
73
5
74
3
42
0.0000001000
43
0.0000001000
44
0.0000000001
12
0.0636526956
22
-0.0933271374
32
0.0000000000
13
0.0410496403
23
-0.1056056511
33
0.0000000000
40
0.0000000000
40
0.0000000000
40
0.0000000000
40
0.0000000000
40
0.3582802396
40
1.0000000000
40
1.0000000000
40
1.0000000000
40
1.0000000000
10
-220.4049696718
20
-19.6305571916
30
0.0000000000
10
-220.3973678374
20
-19.6417029480
30
0.0000000000
10
-220.3774139985
20
-19.6736948262
30
0.0000000000
10
-220.3612149232
20
-19.7079191954
30
0.0000000000
10
-220.3524341347
20
-19.7305089398
30
0.0000000000
11
-220.4049696718
21
-19.6305571916
31
0.0000000000
11
-220.3835516843
21
-19.6649136367
31
0.0000000000
11
-220.3524341347
21
-19.7305089398
31
0.0000000000
0
SPLINE
5
28D
100
AcDbEntity
8
0
100
AcDbSpline
62
7
6
CONTINUOUS
70
0
71
3
72
8
73
4
74
2
42
0.0000001000
43
0.0000001000
44
0.0000000001
12
0.0094460486
22
-0.0115688264
32
0.0000000000
13
0.0158203731
23
-0.0226425532
33
0.0000000000
40
0.0000000000
40
0.0000000000
40
0.0000000000
40
0.0000000000
40
1.0000000000
40
1.0000000000
40
1.0000000000
40
1.0000000000
10
-220.4256113190
20
-19.6022963656
30
0.0000000000
10
-220.4224626362
20
-19.6061526411
30
0.0000000000
10
-220.4190667183
20
-19.6105908804
30
0.0000000000
10
-220.4137932606
20
-19.6181383981
30
0.0000000000
11
-220.4256113190
21
-19.6022963656
31
0.0000000000
11
-220.4137932606
21
-19.6181383981
31
0.0000000000
0
SPLINE
5
28E
100
AcDbEntity
8
0
100
AcDbSpline
62
7
6
CONTINUOUS
70
0
71
3
72
8
73
4
74
2
42
0.0000001000
43
0.0000001000
44
0.0000000001
12
0.0616834639
22
-0.0361968320
32
0.0000000000
13
0.0557062783
23
-0.0446256274
33
0.0000000000
40
0.0000000000
40
0.0000000000
40
0.0000000000
40
0.0000000000
40
1.0000000000
40
1.0000000000
40
1.0000000000
40
1.0000000000
10
-220.5639965684
20
-19.4818361405
30
0.0000000000
10
-220.5434354138
20
-19.4939017511
30
0.0000000000
10
-220.5237902578
20
-19.5074537800
30
0.0000000000
10
-220.5052214984
20
-19.5223289891
30
0.0000000000
11
-220.5639965684
21
-19.4818361405
31
0.0000000000
11
-220.5052214984
21
-19.5223289891
31
0.0000000000
0
SPLINE
5
28F
100
AcDbEntity
8
0
100
AcDbSpline
62
7
6
CONTINUOUS
70
0
71
3
72
8
73
4
74
2
42
0.0000001000
43
0.0000001000
44
0.0000000001
12
0.0472188723
22
-0.0378264689
32
0.0000000000
13
0.0422855094
23
-0.0432324007
33
0.0000000000
40
0.0000000000
40
0.0000000000
40
0.0000000000
40
0.0000000000
40
1.0000000000
40
1.0000000000
40
1.0000000000
40
1.0000000000
10
-220.5052214984
20
-19.5223289891
30
0.0000000000
10
-220.4894818743
20
-19.5349378121
30
0.0000000000
10
-220.4745156342
20
-19.5484973316
30
0.0000000000
10
-220.4604204644
20
-19.5629081319
30
0.0000000000
11
-220.5052214984
21
-19.5223289891
31
0.0000000000
11
-220.4604204644
21
-19.5629081319
31
0.0000000000
0
SPLINE
5
290
100
AcDbEntity
8
0
100
AcDbSpline
62
7
6
CONTINUOUS
70
0
71
3
72
26
73
22
74
20
42
0.0000001000
43
0.0000001000
44
0.0000000001
12
-0.5973816456
22
0.5559230533
32
0.0000000000
13
-0.5407593713
23
0.7296355630
33
0.0000000000
40
0.0000000000
40
0.0000000000
40
0.0000000000
40
0.0000000000
40
0.0194984352
40
0.0728452355
40
0.1070468688
40
0.1383042971
40
0.2037054406
40
0.2949322937
40
0.3800276025
40
0.4416206765
40
0.4813636643
40
0.5541783765
40
0.5780779360
40
0.6240956699
40
0.6944071847
40
0.7320942074
40
0.8029388730
40
0.9071028739
40
0.9643900082
40
0.9879946182
40
1.0000000000
40
1.0000000000
40
1.0000000000
40
1.0000000000
10
-220.4761371763
20
21.4524089933
30
0.0000000000
10
-220.4800198454
20
21.4560222032
30
0.0000000000
10
-220.4946247823
20
21.4692447024
30
0.0000000000
10
-220.5093228814
20
21.4821545168
30
0.0000000000
10
-220.5568970842
20
21.5146871539
30
0.0000000000
10
-220.4976071605
20
21.4735832326
30
0.0000000000
10
-220.5861009657
20
21.5351467891
30
0.0000000000
10
-220.6287408606
20
21.5493293340
30
0.0000000000
10
-220.6774424825
20
21.5699385035
30
0.0000000000
10
-220.7659190123
20
21.5851651836
30
0.0000000000
10
-220.6965208314
20
21.5732842879
30
0.0000000000
10
-220.6695636820
20
21.5648309543
30
0.0000000000
10
-220.6330244711
20
21.5519524663
30
0.0000000000
10
-220.5991869695
20
21.5373556035
30
0.0000000000
10
-220.5628850139
20
21.5178068687
30
0.0000000000
10
-220.5235956886
20
21.4923046912
30
0.0000000000
10
-220.4766995444
20
21.4535007267
30
0.0000000000
10
-220.4464638654
20
21.4276751759
30
0.0000000000
10
-220.3919612744
20
21.3502753356
30
0.0000000000
10
-220.4108996989
20
21.3777993689
30
0.0000000000
10
-220.4174938868
20
21.3868821213
30
0.0000000000
10
-220.4196578944
20
21.3898019725
30
0.0000000000
11
-220.4761371763
21
21.4524089933
31
0.0000000000
11
-220.4875086491
21
21.4627827931
31
0.0000000000
11
-220.5205050526
21
21.4894443862
31
0.0000000000
11
-220.5428237636
21
21.5049869685
31
0.0000000000
11
-220.5224175285
21
21.4907949987
31
0.0000000000
11
-220.5658919627
21
21.5193387496
31
0.0000000000
11
-220.6311583045
21
21.5510083814
31
0.0000000000
11
-220.6955758458
21
21.5717300287
31
0.0000000000
11
-220.7436034281
21
21.5813381248
31
0.0000000000
11
-220.7125195684
21
21.5756285361
31
0.0000000000
11
-220.6566962714
21
21.5602503964
31
0.0000000000
11
-220.6388067597
21
21.5538348871
31
0.0000000000
11
-220.6051510500
21
21.5394687691
31
0.0000000000
11
-220.5559285064
21
21.5129487106
31
0.0000000000
11
-220.5308695005
21
21.4965113920
31
0.0000000000
11
-220.4866363075
21
21.4616231945
31
0.0000000000
11
-220.4293167613
21
21.4018269216
31
0.0000000000
11
-220.4022607869
21
21.3651766515
31
0.0000000000
11
-220.4129719888
21
21.3805910420
31
0.0000000000
11
-220.4196578944
21
21.3898019725
31
0.0000000000
0
SPLINE
5
291
100
AcDbEntity
8
0
100
AcDbSpline
62
7
6
CONTINUOUS
70
0
71
3
72
15
73
11
74
9
42
0.0000001000
43
0.0000001000
44
0.0000000001
12
0.2236186901
22
-0.3200201085
32
0.0000000000
13
-0.1345068098
23
0.3737842538
33
0.0000000000
40
0.0000000000
40
0.0000000000
40
0.0000000000
40
0.0000000000
40
0.0542401548
40
0.1726786869
40
0.3625196349
40
0.5211568831
40
0.6651322737
40
0.7077052423
40
0.8521279557
40
1.0000000000
40
1.0000000000
40
1.0000000000
40
1.0000000000
10
-220.4077514251
20
21.3730013882
30
0.0000000000
10
-220.4037083876
20
21.3672154082
30
0.0000000000
10
-220.3912173872
20
21.3484344452
30
0.0000000000
10
-220.3679039814
20
21.3083684313
30
0.0000000000
10
-220.3436646352
20
21.2462806140
30
0.0000000000
10
-220.3286283817
20
21.2037371926
30
0.0000000000
10
-220.3177810486
20
21.1103587478
30
0.0000000000
10
-220.3232894159
20
21.1656384182
30
0.0000000000
10
-220.3304584898
20
21.2026437435
30
0.0000000000
10
-220.3415260039
20
21.2403569663
30
0.0000000000
10
-220.3481559362
20
21.2587810469
30
0.0000000000
11
-220.4077514251
21
21.3730013882
31
0.0000000000
11
-220.3959980481
21
21.3553868605
31
0.0000000000
11
-220.3730598694
21
21.3152382064
31
0.0000000000
11
-220.3442558861
21
21.2469489768
31
0.0000000000
11
-220.3281065844
21
21.1871583243
31
0.0000000000
11
-220.3199357077
21
21.1315462739
31
0.0000000000
11
-220.3216405166
21
21.1480794266
31
0.0000000000
11
-220.3315588991
21
21.2035839497
31
0.0000000000
11
-220.3481559362
21
21.2587810469
31
0.0000000000
0
SPLINE
5
292
100
AcDbEntity
8
0
100
AcDbSpline
62
7
6
CONTINUOUS
70
0
71
3
72
8
73
4
74
2
42
0.0000001000
43
0.0000001000
44
0.0000000001
12
-0.0970248684
22
-0.0402239626
32
0.0000000000
13
-0.1027714574
23
-0.0195283687
33
0.0000000000
40
0.0000000000
40
0.0000000000
40
0.0000000000
40
0.0000000000
40
1.0000000000
40
1.0000000000
40
1.0000000000
40
1.0000000000
10
-220.6254108806
20
20.6262101433
30
0.0000000000
10
-220.6577525034
20
20.6128021558
30
0.0000000000
10
-220.6914923281
20
20.6027346988
30
0.0000000000
10
-220.7257494805
20
20.5962252426
30
0.0000000000
11
-220.6254108806
21
20.6262101433
31
0.0000000000
11
-220.7257494805
21
20.5962252426
31
0.0000000000
0
SPLINE
5
293
100
AcDbEntity
8
0
100
AcDbSpline
62
7
6
CONTINUOUS
70
0
71
3
72
8
73
4
74
2
42
0.0000001000
43
0.0000001000
44
0.0000000001
12
-0.0915102191
22
-0.0173885371
32
0.0000000000
13
-0.0921055835
23
-0.0000020621
33
0.0000000000
40
0.0000000000
40
0.0000000000
40
0.0000000000
40
0.0000000000
40
1.0000000000
40
1.0000000000
40
1.0000000000
40
1.0000000000
10
-220.7257494805
20
20.5962252426
30
0.0000000000
10
-220.7562528869
20
20.5904290635
30
0.0000000000
10
-220.7871664596
20
20.5874538657
30
0.0000000000
10
-220.8178683208
20
20.5874531783
30
0.0000000000
11
-220.7257494805
21
20.5962252426
31
0.0000000000
11
-220.8178683208
21
20.5874531783
31
0.0000000000
0
SPLINE
5
294
100
AcDbEntity
8
0
100
AcDbSpline
62
7
6
CONTINUOUS
70
0
71
3
72
8
73
4
74
2
42
0.0000001000
43
0.0000001000
44
0.0000000001
12
-0.0427040265
22
-0.0436708373
32
0.0000000000
13
-0.0477343763
23
-0.0381535608
33
0.0000000000
40
0.0000000000
40
0.0000000000
40
0.0000000000
40
0.0000000000
40
1.0000000000
40
1.0000000000
40
1.0000000000
40
1.0000000000
10
-220.4603782099
20
20.7378576839
30
0.0000000000
10
-220.4746128854
20
20.7233007382
30
0.0000000000
10
-220.4897362787
20
20.7096121211
30
0.0000000000
10
-220.5056477375
20
20.6968942675
30
0.0000000000
11
-220.4603782099
21
20.7378576839
31
0.0000000000
11
-220.5056477375
21
20.6968942675
31
0.0000000000
0
SPLINE
5
295
100
AcDbEntity
8
0
100
AcDbSpline
62
7
6
CONTINUOUS
70
0
71
3
72
8
73
4
74
2
42
0.0000001000
43
0.0000001000
44
0.0000000001
12
-0.0547394579
22
-0.0437526453
32
0.0000000000
13
-0.0605021181
23
-0.0356296759
33
0.0000000000
40
0.0000000000
40
0.0000000000
40
0.0000000000
40
0.0000000000
40
1.0000000000
40
1.0000000000
40
1.0000000000
40
1.0000000000
10
-220.5056477375
20
20.6968942675
30
0.0000000000
10
-220.5238942234
20
20.6823100524
30
0.0000000000
10
-220.5431770458
20
20.6690024287
30
0.0000000000
10
-220.5633444185
20
20.6571258700
30
0.0000000000
11
-220.5056477375
21
20.6968942675
31
0.0000000000
11
-220.5633444185
21
20.6571258700
31
0.0000000000
0
SPLINE
5
296
100
AcDbEntity
8
0
100
AcDbSpline
62
7
6
CONTINUOUS
70
0
71
3
72
8
73
4
74
2
42
0.0000001000
43
0.0000001000
44
0.0000000001
12
-0.0612257971
22
0.0625968154
32
0.0000000000
13
-0.0493792583
23
0.0723995234
33
0.0000000000
40
0.0000000000
40
0.0000000000
40
0.0000000000
40
0.0000000000
40
1.0000000000
40
1.0000000000
40
1.0000000000
40
1.0000000000
10
219.8246548095
20
20.7378144910
30
0.0000000000
10
219.8042462105
20
20.7586800961
30
0.0000000000
10
219.7856637720
20
20.7813303738
30
0.0000000000
10
219.7692040192
20
20.8054635483
30
0.0000000000
11
219.8246548095
21
20.7378144910
31
0.0000000000
11
219.7692040192
21
20.8054635483
31
0.0000000000
0
SPLINE
5
297
100
AcDbEntity
8
0
100
AcDbSpline
62
7
6
CONTINUOUS
70
0
71
3
72
25
73
21
74
19
42
0.0000001000
43
0.0000001000
44
0.0000000001
12
-0.6244017890
22
-0.8478189877
32
0.0000000000
13
-0.4922603058
23
-0.9244969544
33
0.0000000000
40
0.0000000000
40
0.0000000000
40
0.0000000000
40
0.0000000000
40
0.0126863008
40
0.0562698850
40
0.0965576500
40
0.1574404151
40
0.2209508457
40
0.2588755416
40
0.2965095695
40
0.3577095236
40
0.4291964688
40
0.4822685271
40
0.5444186231
40
0.6184492639
40
0.6918178868
40
0.7249889949
40
0.7640998932
40
0.8128597448
40
0.8917723161
40
1.0000000000
40
1.0000000000
40
1.0000000000
40
1.0000000000
10
219.7797008208
20
21.3842405593
30
0.0000000000
10
219.7770603711
20
21.3806553304
30
0.0000000000
10
219.7655614216
20
21.3645876954
30
0.0000000000
10
219.7474753928
20
21.3357773836
30
0.0000000000
10
219.7242839173
20
21.2912728460
30
0.0000000000
10
219.7030721512
20
21.2333917763
30
0.0000000000
10
219.6909830330
20
21.1917517838
30
0.0000000000
10
219.6817120070
20
21.1106115087
30
0.0000000000
10
219.6909457731
20
21.1901872563
30
0.0000000000
10
219.7036460425
20
21.2345715551
30
0.0000000000
10
219.7279182285
20
21.3000159899
30
0.0000000000
10
219.7597204880
20
21.3565845770
30
0.0000000000
10
219.7979358530
20
21.4101881296
30
0.0000000000
10
219.8537417605
20
21.4653559809
30
0.0000000000
10
219.8908286141
20
21.4962126442
30
0.0000000000
10
219.9618001211
20
21.5367274499
30
0.0000000000
10
219.8973904064
20
21.5000182701
30
0.0000000000
10
219.8609892451
20
21.4715546245
30
0.0000000000
10
219.7957657809
20
21.4111269815
30
0.0000000000
10
219.7593999563
20
21.3574245088
30
0.0000000000
10
219.7416412253
20
21.3240724541
30
0.0000000000
11
219.7797008208
21
21.3842405593
31
0.0000000000
11
219.7719241436
21
21.3733735967
31
0.0000000000
11
219.7474717145
21
21.3345884643
31
0.0000000000
11
219.7280873831
21
21.2968984623
31
0.0000000000
11
219.7050294679
21
21.2371443978
31
0.0000000000
11
219.6893881492
21
21.1721882222
31
0.0000000000
11
219.6842468530
21
21.1326241752
31
0.0000000000
11
219.6894556329
21
21.1718709516
31
0.0000000000
11
219.7044624953
21
21.2344797753
31
0.0000000000
11
219.7319518005
21
21.3044797560
31
0.0000000000
11
219.7589466222
21
21.3533516057
31
0.0000000000
11
219.7973630976
21
21.4062567132
31
0.0000000000
11
219.8516527169
21
21.4620952660
31
0.0000000000
11
219.9133270020
21
21.5085021244
31
0.0000000000
11
219.9433878772
21
21.5262241491
31
0.0000000000
11
219.9079888189
21
21.5052531358
31
0.0000000000
11
219.8664857766
21
21.4751084617
31
0.0000000000
11
219.8066050904
21
21.4176111884
31
0.0000000000
11
219.7416412253
21
21.3240724541
31
0.0000000000
0
SPLINE
5
298
100
AcDbEntity
8
0
100
AcDbSpline
62
7
6
CONTINUOUS
70
0
71
3
72
8
73
4
74
2
42
0.0000001000
43
0.0000001000
44
0.0000000001
12
-0.0346340142
22
0.0891006010
32
0.0000000000
13
-0.0174238863
23
0.0936153329
33
0.0000000000
40
0.0000000000
40
0.0000000000
40
0.0000000000
40
0.0000000000
40
1.0000000000
40
1.0000000000
40
1.0000000000
40
1.0000000000
10
219.7166684822
20
20.9054152964
30
0.0000000000
10
219.7051238108
20
20.9351154968
30
0.0000000000
10
219.6963699369
20
20.9659000352
30
0.0000000000
10
219.6905619749
20
20.9971051462
30
0.0000000000
11
219.7166684822
21
20.9054152964
31
0.0000000000
11
219.6905619749
21
20.9971051462
31
0.0000000000
0
SPLINE
5
299
100
AcDbEntity
8
0
100
AcDbSpline
62
7
6
CONTINUOUS
70
0
71
3
72
9
73
5
74
3
42
0.0000001000
43
0.0000001000
44
0.0000000001
12
-0.0636526956
22
0.0933271374
32
0.0000000000
13
-0.0410496403
23
0.1056056511
33
0.0000000000
40
0.0000000000
40
0.0000000000
40
0.0000000000
40
0.0000000000
40
0.3582802397
40
1.0000000000
40
1.0000000000
40
1.0000000000
40
1.0000000000
10
219.7692040192
20
20.8054635483
30
0.0000000000
10
219.7616021849
20
20.8166093047
30
0.0000000000
10
219.7416483460
20
20.8486011828
30
0.0000000000
10
219.7254492706
20
20.8828255521
30
0.0000000000
10
219.7166684822
20
20.9054152964
30
0.0000000000
11
219.7692040192
21
20.8054635483
31
0.0000000000
11
219.7477860317
21
20.8398199933
31
0.0000000000
11
219.7166684822
21
20.9054152964
31
0.0000000000
0
SPLINE
5
29A
100
AcDbEntity
8
0
100
AcDbSpline
62
7
6
CONTINUOUS
70
0
71
3
72
8
73
4
74
2
42
0.0000001000
43
0.0000001000
44
0.0000000001
12
-0.0094460486
22
0.0115688264
32
0.0000000000
13
-0.0158203731
23
0.0226425531
33
0.0000000000
40
0.0000000000
40
0.0000000000
40
0.0000000000
40
0.0000000000
40
1.0000000000
40
1.0000000000
40
1.0000000000
40
1.0000000000
10
219.7898456665
20
20.7772027223
30
0.0000000000
10
219.7866969836
20
20.7810589977
30
0.0000000000
10
219.7833010657
20
20.7854972370
30
0.0000000000
10
219.7780276080
20
20.7930447548
30
0.0000000000
11
219.7898456665
21
20.7772027223
31
0.0000000000
11
219.7780276080
21
20.7930447548
31
0.0000000000
0
SPLINE
5
29B
100
AcDbEntity
8
0
100
AcDbSpline
62
7
6
CONTINUOUS
70
0
71
3
72
8
73
4
74
2
42
0.0000001000
43
0.0000001000
44
0.0000000001
12
-0.0616834942
22
0.0361968464
32
0.0000000000
13
-0.0557063031
23
0.0446256497
33
0.0000000000
40
0.0000000000
40
0.0000000000
40
0.0000000000
40
0.0000000000
40
1.0000000000
40
1.0000000000
40
1.0000000000
40
1.0000000000
10
219.9282309329
20
20.6567424871
30
0.0000000000
10
219.9076697682
20
20.6688081026
30
0.0000000000
10
219.8880246029
20
20.6823601378
30
0.0000000000
10
219.8694558352
20
20.6972353543
30
0.0000000000
11
219.9282309329
21
20.6567424871
31
0.0000000000
11
219.8694558352
21
20.6972353543
31
0.0000000000
0
SPLINE
5
29C
100
AcDbEntity
8
0
100
AcDbSpline
62
7
6
CONTINUOUS
70
0
71
3
72
8
73
4
74
2
42
0.0000001000
43
0.0000001000
44
0.0000000001
12
-0.0472188633
22
0.0378264638
32
0.0000000000
13
-0.0422855019
23
0.0432323937
33
0.0000000000
40
0.0000000000
40
0.0000000000
40
0.0000000000
40
0.0000000000
40
1.0000000000
40
1.0000000000
40
1.0000000000
40
1.0000000000
10
219.8694558352
20
20.6972353543
30
0.0000000000
10
219.8537162141
20
20.7098441756
30
0.0000000000
10
219.8387499768
20
20.7234036931
30
0.0000000000
10
219.8246548095
20
20.7378144910
30
0.0000000000
11
219.8694558352
21
20.6972353543
31
0.0000000000
11
219.8246548095
21
20.7378144910
31
0.0000000000
0
SPLINE
5
29D
100
AcDbEntity
8
0
100
AcDbSpline
62
7
6
CONTINUOUS
70
0
71
3
72
8
73
4
74
2
42
0.0000001000
43
0.0000001000
44
0.0000000001
12
0.0000847848
22
0.1738698798
32
0.0000000000
13
0.0604110166
23
0.1657638120
33
0.0000000000
40
0.0000000000
40
0.0000000000
40
0.0000000000
40
0.0000000000
40
1.0000000000
40
1.0000000000
40
1.0000000000
40
1.0000000000
10
219.6821171737
20
-19.9125468217
30
0.0000000000
10
219.6821454353
20
-19.8545901951
30
0.0000000000
10
219.6927157001
20
-19.7958979271
30
0.0000000000
10
219.7128527056
20
-19.7406433231
30
0.0000000000
11
219.6821171737
21
-19.9125468217
31
0.0000000000
11
219.7128527056
21
-19.7406433231
31
0.0000000000
0
SPLINE
5
29E
100
AcDbEntity
8
0
100
AcDbSpline
62
7
6
CONTINUOUS
70
0
71
3
72
8
73
4
74
2
42
0.0000001000
43
0.0000001000
44
0.0000000001
12
0.0285884186
22
0.0784447193
32
0.0000000000
13
0.0411330832
23
0.0724987084
33
0.0000000000
40
0.0000000000
40
0.0000000000
40
0.0000000000
40
0.0000000000
40
1.0000000000
40
1.0000000000
40
1.0000000000
40
1.0000000000
10
219.7128527056
20
-19.7406433231
30
0.0000000000
10
219.7223821784
20
-19.7144950833
30
0.0000000000
10
219.7340541077
20
-19.6891167029
30
0.0000000000
10
219.7477651354
20
-19.6649504668
30
0.0000000000
11
219.7128527056
21
-19.7406433231
31
0.0000000000
11
219.7477651354
21
-19.6649504668
31
0.0000000000
0
SPLINE
5
29F
100
AcDbEntity
8
0
100
AcDbSpline
62
7
6
CONTINUOUS
70
0
71
3
72
8
73
4
74
2
42
0.0000001000
43
0.0000001000
44
0.0000000001
12
0.0632901231
22
0.1115513797
32
0.0000000000
13
0.0894787911
23
0.0915045736
33
0.0000000000
40
0.0000000000
40
0.0000000000
40
0.0000000000
40
0.0000000000
40
1.0000000000
40
1.0000000000
40
1.0000000000
40
1.0000000000
10
219.7477651354
20
-19.6649504668
30
0.0000000000
10
219.7688618431
20
-19.6277666735
30
0.0000000000
10
219.7947862936
20
-19.5934528518
30
0.0000000000
10
219.8246125573
20
-19.5629513273
30
0.0000000000
11
219.7477651354
21
-19.6649504668
31
0.0000000000
11
219.8246125573
21
-19.5629513273
31
0.0000000000
0
SPLINE
5
2A0
100
AcDbEntity
8
0
100
AcDbSpline
62
7
6
CONTINUOUS
70
0
71
3
72
8
73
4
74
2
42
0.0000001000
43
0.0000001000
44
0.0000000001
12
0.1955456813
22
-0.0000043783
32
0.0000000000
13
0.1834181804
23
-0.0760403654
33
0.0000000000
40
0.0000000000
40
0.0000000000
40
0.0000000000
40
0.0000000000
40
1.0000000000
40
1.0000000000
40
1.0000000000
40
1.0000000000
10
-220.8178683208
20
-19.4125468217
30
0.0000000000
10
-220.7526864270
20
-19.4125482811
30
0.0000000000
10
-220.6865502731
20
-19.4259569917
30
0.0000000000
10
-220.6254108797
20
-19.4513037802
30
0.0000000000
11
-220.8178683208
21
-19.4125468217
31
0.0000000000
11
-220.6254108797
21
-19.4513037802
31
0.0000000000
0
SPLINE
5
2A1
100
AcDbEntity
8
0
100
AcDbSpline
62
7
6
CONTINUOUS
70
0
71
3
72
8
73
4
74
2
42
0.0000001000
43
0.0000001000
44
0.0000000001
12
-0.0000847848
22
-0.1738698798
32
0.0000000000
13
-0.0604110166
23
-0.1657638120
33
0.0000000000
40
0.0000000000
40
0.0000000000
40
0.0000000000
40
0.0000000000
40
1.0000000000
40
1.0000000000
40
1.0000000000
40
1.0000000000
10
-220.3178828263
20
21.0874531783
30
0.0000000000
10
-220.3179110879
20
21.0294965517
30
0.0000000000
10
-220.3284813526
20
20.9708042838
30
0.0000000000
10
-220.3486183581
20
20.9155496797
30
0.0000000000
11
-220.3178828263
21
21.0874531783
31
0.0000000000
11
-220.3486183581
21
20.9155496797
31
0.0000000000
0
SPLINE
5
2A2
100
AcDbEntity
8
0
100
AcDbSpline
62
7
6
CONTINUOUS
70
0
71
3
72
8
73
4
74
2
42
0.0000001000
43
0.0000001000
44
0.0000000001
12
-0.0285884186
22
-0.0784447195
32
0.0000000000
13
-0.0411330833
23
-0.0724987086
33
0.0000000000
40
0.0000000000
40
0.0000000000
40
0.0000000000
40
0.0000000000
40
1.0000000000
40
1.0000000000
40
1.0000000000
40
1.0000000000
10
-220.3486183581
20
20.9155496797
30
0.0000000000
10
-220.3581478310
20
20.8894014399
30
0.0000000000
10
-220.3698197603
20
20.8640230594
30
0.0000000000
10
-220.3835307881
20
20.8398568232
30
0.0000000000
11
-220.3486183581
21
20.9155496797
31
0.0000000000
11
-220.3835307881
21
20.8398568232
31
0.0000000000
0
SPLINE
5
2A3
100
AcDbEntity
8
0
100
AcDbSpline
62
7
6
CONTINUOUS
70
0
71
3
72
8
73
4
74
2
42
0.0000001000
43
0.0000001000
44
0.0000000001
12
-0.0632901231
22
-0.1115513795
32
0.0000000000
13
-0.0894787909
23
-0.0915045734
33
0.0000000000
40
0.0000000000
40
0.0000000000
40
0.0000000000
40
0.0000000000
40
1.0000000000
40
1.0000000000
40
1.0000000000
40
1.0000000000
10
-220.3835307881
20
20.8398568232
30
0.0000000000
10
-220.4046274957
20
20.8026730301
30
0.0000000000
10
-220.4305519462
20
20.7683592084
30
0.0000000000
10
-220.4603782099
20
20.7378576839
30
0.0000000000
11
-220.3835307881
21
20.8398568232
31
0.0000000000
11
-220.4603782099
21
20.7378576839
31
0.0000000000
0
SPLINE
5
2A4
100
AcDbEntity
8
0
100
AcDbSpline
62
7
6
CONTINUOUS
70
0
71
3
72
8
73
4
74
2
42
0.0000001000
43
0.0000001000
44
0.0000000001
12
-0.1955456813
22
0.0000043783
32
0.0000000000
13
-0.1834181804
23
0.0760403654
33
0.0000000000
40
0.0000000000
40
0.0000000000
40
0.0000000000
40
0.0000000000
40
1.0000000000
40
1.0000000000
40
1.0000000000
40
1.0000000000
10
220.1821026682
20
20.5874531783
30
0.0000000000
10
220.1169207744
20
20.5874546378
30
0.0000000000
10
220.0507846206
20
20.6008633484
30
0.0000000000
10
219.9896452272
20
20.6262101368
30
0.0000000000
11
220.1821026682
21
20.5874531783
31
0.0000000000
11
219.9896452272
21
20.6262101368
31
0.0000000000
0
SPLINE
5
2A5
100
AcDbEntity
8
0
100
AcDbSpline
62
7
6
CONTINUOUS
70
0
71
3
72
12
73
8
74
6
42
0.0000001000
43
0.0000001000
44
0.0000000001
12
-1.1525627271
22
1.7854184602
32
0.0000000000
13
-1.6398543910
23
-1.3516647122
33
0.0000000000
40
0.0000000000
40
0.0000000000
40
0.0000000000
40
0.0000000000
40
0.1561747649
40
0.3471260056
40
0.5628342439
40
0.7756751061
40
1.0000000000
40
1.0000000000
40
1.0000000000
40
1.0000000000
10
-278.9938135012
20
21.0874541671
30
0.0000000000
10
-279.0538139055
20
21.1803999365
30
0.0000000000
10
-279.2502255932
20
21.3471030540
30
0.0000000000
10
-279.6411850121
20
21.4578141192
30
0.0000000000
10
-280.0832181140
20
21.4585091847
30
0.0000000000
10
-280.5417104791
20
21.3599119630
30
0.0000000000
10
-280.8076851192
20
21.1885238617
30
0.0000000000
10
-280.9303051733
20
21.0874531806
30
0.0000000000
11
-278.9938135012
21
21.0874541671
31
0.0000000000
11
-279.2395985852
21
21.3104796670
31
0.0000000000
11
-279.6256832742
21
21.4354079540
31
0.0000000000
11
-280.0840410933
21
21.4419934393
31
0.0000000000
11
-280.5239192904
21
21.3366702673
31
0.0000000000
11
-280.9303051733
21
21.0874531806
31
0.0000000000
0
SPLINE
5
2A6
100
AcDbEntity
8
0
100
AcDbSpline
62
7
6
CONTINUOUS
70
0
71
3
72
12
73
8
74
6
42
0.0000001000
43
0.0000001000
44
0.0000000001
12
-1.1525627271
22
-1.7854184602
32
0.0000000000
13
-1.6398543910
23
1.3516647122
33
0.0000000000
40
0.0000000000
40
0.0000000000
40
0.0000000000
40
0.0000000000
40
0.1561747649
40
0.3471260056
40
0.5628342439
40
0.7756751061
40
1.0000000000
40
1.0000000000
40
1.0000000000
40
1.0000000000
10
-278.9938135012
20
-19.9125478104
30
0.0000000000
10
-279.0538139055
20
-20.0054935798
30
0.0000000000
10
-279.2502255932
20
-20.1721966973
30
0.0000000000
10
-279.6411850121
20
-20.2829077625
30
0.0000000000
10
-280.0832181140
20
-20.2836028280
30
0.0000000000
10
-280.5417104791
20
-20.1850056064
30
0.0000000000
10
-280.8076851192
20
-20.0136175050
30
0.0000000000
10
-280.9303051733
20
-19.9125468240
30
0.0000000000
11
-278.9938135012
21
-19.9125478104
31
0.0000000000
11
-279.2395985852
21
-20.1355733103
31
0.0000000000
11
-279.6256832742
21
-20.2605015974
31
0.0000000000
11
-280.0840410933
21
-20.2670870826
31
0.0000000000
11
-280.5239192904
21
-20.1617639106
31
0.0000000000
11
-280.9303051733
21
-19.9125468240
31
0.0000000000
0
SPLINE
5
2A7
100
AcDbEntity
8
0
100
AcDbSpline
62
7
6
CONTINUOUS
70
0
71
3
72
10
73
6
74
4
42
0.0000001000
43
0.0000001000
44
0.0000000001
12
1.9119819415
22
-0.0000000419
32
0.0000000000
13
1.9119819415
23
0.0000000002
33
0.0000000000
40
0.0000000000
40
0.0000000000
40
0.0000000000
40
0.0000000000
40
0.3818897001
40
0.7108183088
40
1.0000000000
40
1.0000000000
40
1.0000000000
40
1.0000000000
10
-281.1847890602
20
20.5874531897
30
0.0000000000
10
-280.9414003235
20
20.5874531844
30
0.0000000000
10
-280.4883764001
20
20.5874531796
30
0.0000000000
10
-279.8510490863
20
20.5874531783
30
0.0000000000
10
-279.4571105092
20
20.5874531784
30
0.0000000000
10
-279.2728071187
20
20.5874531784
30
0.0000000000
11
-281.1847890602
21
20.5874531897
31
0.0000000000
11
-280.4546228499
21
20.5874531803
31
0.0000000000
11
-279.8257172902
21
20.5874531785
31
0.0000000000
11
-279.2728071187
21
20.5874531784
31
0.0000000000
0
SPLINE
5
2A8
100
AcDbEntity
8
0
100
AcDbSpline
62
7
6
CONTINUOUS
70
0
71
3
72
10
73
6
74
4
42
0.0000001000
43
0.0000001000
44
0.0000000001
12
-1.9119819415
22
0.0000000002
32
0.0000000000
13
-1.9119819415
23
-0.0000000419
33
0.0000000000
40
0.0000000000
40
0.0000000000
40
0.0000000000
40
0.0000000000
40
0.2891816912
40
0.6181102999
40
1.0000000000
40
1.0000000000
40
1.0000000000
40
1.0000000000
10
-279.2728071187
20
-19.4125468217
30
0.0000000000
10
-279.4571105092
20
-19.4125468217
30
0.0000000000
10
-279.8510490863
20
-19.4125468216
30
0.0000000000
10
-280.4883764001
20
-19.4125468229
30
0.0000000000
10
-280.9414003235
20
-19.4125468277
30
0.0000000000
10
-281.1847890602
20
-19.4125468330
30
0.0000000000
11
-279.2728071187
21
-19.4125468217
31
0.0000000000
11
-279.8257172902
21
-19.4125468218
31
0.0000000000
11
-280.4546228499
21
-19.4125468237
31
0.0000000000
11
-281.1847890602
21
-19.4125468330
31
0.0000000000
0
ENDSEC
0
SECTION
2
OBJECTS
0
DICTIONARY
5
2A9
100
AcDbDictionary
3
ACAD_GROUP
350
2AA
3
ACAD_MLINESTYLE
350
2AB
0
DICTIONARY
5
2AA
102
{ACAD_REACTORS
330
2A9
102
}
100
AcDbDictionary
0
DICTIONARY
5
2AB
102
{ACAD_REACTORS
330
2A9
102
}
100
AcDbDictionary
3
STANDARD
350
2AC
0
MLINESTYLE
5
2AC
102
{ACAD_REACTORS
330
2AB
102
}
100
AcDbMlineStyle
2
STANDARD
70
0
3

62
256
51
90.0
52
90.0
71
2
49
0.5
62
256
6
BYLAYER
49
-0.5
62
256
6
BYLAYER
0
ENDSEC
0
EOF
