0
SECTION
2
HEADER
9
$ACADVER
1
AC1014
9
$HANDSEED
5
       2DB
9
$EXTMAX
10
297.0000000000
20
210.0000000000
9
$EXTMIN
10
0.0000000000
20
0.0000000000
9
$LIMMIN
10
0.0000000000
20
0.0000000000
9
$LIMMAX
10
297.0000000000
20
210.0000000000
9
$VIEWCTR
10
148.5000000000
20
105.0000000000
9
$VIEWSIZE
40
210.0000000000
9
$CLAYER
8
0
9
$LTSCALE
40
16.3350000000
9
$CELTYPE
6
BYLAYER
9
$DIMSCALE
40
1
9
$DIMASZ
40
3.0000000000
9
$DIMEXO
40
1.8562500000
9
$DIMDLI
40
11.2860000000
9
$DIMEXE
40
5.3460000000
9
$DIMCEN
40
2.6730000000
9
$DIMLFAC
40
1.0000000000
9
$DIMTXT
40
3.0000000000
9
$DIMTOL
70
1
9
$DIMLIM
70
0
9
$DIMTFAC
40
1.0000000000
9
$DIMTP
40
0.0100000000
9
$DIMTM
40
0.0100000000
9
$MEASUREMENT
70
1
0
ENDSEC
0
SECTION
2
CLASSES
0
ENDSEC
0
SECTION
2
TABLES
0
TABLE
2
VPORT
5
8
100
AcDbSymbolTable
70
2
0
VPORT
5
1F4
100
AcDbSymbolTableRecord
100
AcDbViewportTableRecord
2
*ACTIVE
70
0
10
0.0
20
0.0
11
1.0
21
1.0
12
148.5000000000
22
105.0000000000
13
0.0
23
0.0
14
1.0
24
1.0
15
0.0
25
0.0
16
0.0
26
0.0
36
1.0
17
0.0
27
0.0
37
0.0
40
210.0000000000
41
1.4142857143
42
50.0
43
0.0
44
0.0
50
0.0
51
0.0
71
0
72
100
73
1
74
1
75
0
76
0
77
0
78
0
0
ENDTAB
0
TABLE
2
LTYPE
5
5
100
AcDbSymbolTable
70
6
0
LTYPE
5
14
100
AcDbSymbolTableRecord
100
AcDbLinetypeTableRecord
2
BYBLOCK
70
0
3

72
65
73
0
40
0.0
0
LTYPE
5
15
100
AcDbSymbolTableRecord
100
AcDbLinetypeTableRecord
2
BYLAYER
70
0
3

72
65
73
0
40
0.0
0
LTYPE
5
16
100
AcDbSymbolTableRecord
100
AcDbLinetypeTableRecord
2
CONTINUOUS
70
64
3
Solid line
72
65
73
0
40
0
0
LTYPE
5
1F5
100
AcDbSymbolTableRecord
100
AcDbLinetypeTableRecord
2
CENTER
70
64
3
____ _ ____ _ ____ _ ____ _ ____ _ ____ _ ____
72
65
73
4
40
0.6
49
0.375
74
0
49
-0.075
74
0
49
0.075
74
0
49
-0.075
74
0
0
LTYPE
5
1F6
100
AcDbSymbolTableRecord
100
AcDbLinetypeTableRecord
2
HIDDEN
70
64
3
- - - - - - - - - - - - - - - - - - - -
72
65
73
2
40
0.2
49
0.1
74
0
49
-0.1
74
0
0
LTYPE
5
1F7
100
AcDbSymbolTableRecord
100
AcDbLinetypeTableRecord
2
PHANTOM
70
64
3
_____ _ _ _____ _ _ _____ _ _ _____
72
65
73
6
40
0.8
49
0.45
74
0
49
-0.05
74
0
49
0.1
74
0
49
-0.05
74
0
49
0.1
74
0
49
-0.05
74
0
0
LTYPE
5
1F8
100
AcDbSymbolTableRecord
100
AcDbLinetypeTableRecord
2
DOT
70
64
3
. . . . . . . . . . . . . . . . . . . .
72
65
73
2
40
0.2
49
0.1
74
0
49
-0.1
74
0
0
LTYPE
5
1F9
100
AcDbSymbolTableRecord
100
AcDbLinetypeTableRecord
2
DASHED
70
64
3
- - - - - - - - - - - - - - - - - - - -
72
65
73
2
40
0.2
49
0.1
74
0
49
-0.1
74
0
0
ENDTAB
0
TABLE
2
LAYER
5
2
100
AcDbSymbolTable
70
36
0
LAYER
5
10
100
AcDbSymbolTableRecord
100
AcDbLayerTableRecord
2
0
70
0
62
7
6
CONTINUOUS
0
LAYER
5
1FA
100
AcDbSymbolTableRecord
100
AcDbLayerTableRecord
2
DEFAULT_1
70
0
62
7
6
CENTER
0
LAYER
5
1FB
100
AcDbSymbolTableRecord
100
AcDbLayerTableRecord
2
DEFAULT_2
70
0
62
8
6
HIDDEN
0
LAYER
5
1FC
100
AcDbSymbolTableRecord
100
AcDbLayerTableRecord
2
DEFAULT_3
70
0
62
7
6
PHANTOM
0
LAYER
5
1FD
100
AcDbSymbolTableRecord
100
AcDbLayerTableRecord
2
ALTRI_PIANI
70
0
62
7
6
CONTINUOUS
0
LAYER
5
1FE
100
AcDbSymbolTableRecord
100
AcDbLayerTableRecord
2
ASSI
70
0
62
7
6
CONTINUOUS
0
LAYER
5
1FF
100
AcDbSymbolTableRecord
100
AcDbLayerTableRecord
2
COORDINATE
70
0
62
7
6
CONTINUOUS
0
LAYER
5
200
100
AcDbSymbolTableRecord
100
AcDbLayerTableRecord
2
COORD_ORIGINE
70
0
62
7
6
CONTINUOUS
0
LAYER
5
201
100
AcDbSymbolTableRecord
100
AcDbLayerTableRecord
2
CURVE
70
0
62
7
6
CONTINUOUS
0
LAYER
5
202
100
AcDbSymbolTableRecord
100
AcDbLayerTableRecord
2
PIANI
70
0
62
7
6
CONTINUOUS
0
LAYER
5
203
100
AcDbSymbolTableRecord
100
AcDbLayerTableRecord
2
PIANI_ORIGINE
70
0
62
7
6
CONTINUOUS
0
LAYER
5
204
100
AcDbSymbolTableRecord
100
AcDbLayerTableRecord
2
RACCORDO
70
0
62
7
6
CONTINUOUS
0
LAYER
5
205
100
AcDbSymbolTableRecord
100
AcDbLayerTableRecord
2
SNAPLINE
70
0
62
7
6
CONTINUOUS
0
LAYER
5
206
100
AcDbSymbolTableRecord
100
AcDbLayerTableRecord
2
TRASH
70
0
62
7
6
CONTINUOUS
0
ENDTAB
0
TABLE
2
STYLE
5
3
100
AcDbSymbolTable
70
1
0
STYLE
5
11
100
AcDbSymbolTableRecord
100
AcDbTextStyleTableRecord
2
STANDARD
70
0
40
0.0
41
0.8000000000
50
0.0
71
0
42
0.2
3
txt
4

0
ENDTAB
0
TABLE
2
VIEW
5
6
100
AcDbSymbolTable
70
0
0
ENDTAB
0
TABLE
2
UCS
5
7
100
AcDbSymbolTable
70
0
0
ENDTAB
0
TABLE
2
APPID
5
9
100
AcDbSymbolTable
70
1
0
APPID
5
207
100
AcDbSymbolTableRecord
100
AcDbRegAppTableRecord
2
ACAD
70
0
0
ENDTAB
0
TABLE
2
DIMSTYLE
5
A
100
AcDbSymbolTable
70
1
0
DIMSTYLE
105
208
100
AcDbSymbolTableRecord
100
AcDbDimStyleTableRecord
2
STANDARD
70
0
3

4

5

6

7

40
1.0
41
3.0000000000
42
0.0625
43
0.38
44
0.18
45
0.0
46
0.0
47
0.0100000000
48
0.0100000000
140
3.0000000000
141
0.09
142
0.0
143
25.4
144
1.0000000000
145
0.0
146
1.0000000000
147
0.09
71
1
72
0
73
0
74
0
75
0
76
0
77
1
78
8
170
0
171
2
172
0
173
0
174
0
175
0
176
0
177
0
178
0
270
2
271
2
272
2
273
2
274
2
340
11
275
0
280
0
281
0
282
0
283
1
284
8
285
0
286
0
287
3
288
0
0
DIMSTYLE
105
209
100
AcDbSymbolTableRecord
100
AcDbDimStyleTableRecord
2
DIMSTYLE_1
70
0
3

4

5

6

7

40
1.0
41
3.0000000000
42
0.0625
43
0.38
44
0.18
45
0.0
46
0.0
47
0.0000000000
48
0.0000000000
140
3.0000000000
141
0.09
142
0.0
143
25.4
144
1.0000000000
145
0.0
146
1.0000000000
147
0.09
71
0
72
0
73
0
74
0
75
0
76
0
77
1
78
8
170
0
171
2
172
0
173
0
174
0
175
0
176
0
177
0
178
0
270
2
271
2
272
2
273
2
274
2
340
11
275
0
280
0
281
0
282
0
283
1
284
8
285
0
286
0
287
3
288
0
0
ENDTAB
0
TABLE
2
BLOCK_RECORD
5
1
100
AcDbSymbolTable
70
0
0
BLOCK_RECORD
5
1B
100
AcDbSymbolTableRecord
100
AcDbBlockTableRecord
2
*MODEL_SPACE
0
BLOCK_RECORD
5
1C
100
AcDbSymbolTableRecord
100
AcDbBlockTableRecord
2
*PAPER_SPACE
0
BLOCK_RECORD
5
20A
100
AcDbSymbolTableRecord
100
AcDbBlockTableRecord
2
*D0
0
BLOCK_RECORD
5
20B
100
AcDbSymbolTableRecord
100
AcDbBlockTableRecord
2
*D1
0
BLOCK_RECORD
5
20C
100
AcDbSymbolTableRecord
100
AcDbBlockTableRecord
2
*D2
0
BLOCK_RECORD
5
20D
100
AcDbSymbolTableRecord
100
AcDbBlockTableRecord
2
*D3
0
ENDTAB
0
ENDSEC
0
SECTION
2
BLOCKS
0
BLOCK
5
1E
100
AcDbEntity
8
0
100
AcDbBlockBegin
2
*MODEL_SPACE
70
0
10
0.0
20
0.0
30
0.0
3
*MODEL_SPACE
1

0
ENDBLK
5
1F
100
AcDbEntity
8
0
100
AcDbBlockEnd
0
BLOCK
5
20
100
AcDbEntity
8
0
100
AcDbBlockBegin
2
*PAPER_SPACE
70
0
10
0.0
20
0.0
30
0.0
3
*PAPER_SPACE
1

0
ENDBLK
5
21
100
AcDbEntity
8
0
100
AcDbBlockEnd
0
BLOCK
5
20E
100
AcDbEntity
8
0
100
AcDbBlockBegin
62
7
6
CONTINUOUS
2
*D0
70
65
10
0.0000000000
20
0.0000000000
3
*D0
1

0
TEXT
5
20F
100
AcDbEntity
8
0
100
AcDbText
62
7
6
CONTINUOUS
10
259.7483696758
20
0.3780737448
7
STANDARD
40
3.0000000000
1
89,5
50
90.0000000000
41
0.7142857143
72
0
100
AcDbText
0
LINE
5
210
100
AcDbEntity
8
0
100
AcDbLine
62
7
6
CONTINUOUS
10
201.4983696758
20
-44.6510242081
11
261.9983696758
21
-44.6510242081
0
LINE
5
211
100
AcDbEntity
8
0
100
AcDbLine
62
7
6
CONTINUOUS
10
236.9983696758
20
44.8489757919
11
261.9983696758
21
44.8489757919
0
LINE
5
212
100
AcDbEntity
8
0
100
AcDbLine
62
7
6
CONTINUOUS
10
260.4983696758
20
-44.6510242081
11
260.4983696758
21
0.0989757919
0
LINE
5
213
100
AcDbEntity
8
0
100
AcDbLine
62
7
6
CONTINUOUS
10
260.4983696758
20
44.8489757919
11
260.4983696758
21
0.0989757919
0
SOLID
5
214
100
AcDbEntity
8
0
100
AcDbTrace
62
7
6
CONTINUOUS
10
259.5483696758
20
-41.6510242081
11
260.4983696758
21
-44.6510242081
12
261.4483696758
22
-41.6510242081
13
261.4483696758
23
-41.6510242081
0
SOLID
5
215
100
AcDbEntity
8
0
100
AcDbTrace
62
7
6
CONTINUOUS
10
261.4483696758
20
41.8489757919
11
260.4983696758
21
44.8489757919
12
259.5483696758
22
41.8489757919
13
259.5483696758
23
41.8489757919
0
ENDBLK
5
216
100
AcDbEntity
8
0
100
AcDbBlockEnd
0
BLOCK
5
217
100
AcDbEntity
8
0
100
AcDbBlockBegin
62
7
6
CONTINUOUS
2
*D1
70
65
10
0.0000000000
20
0.0000000000
3
*D1
1

0
TEXT
5
218
100
AcDbEntity
8
0
100
AcDbText
62
7
6
CONTINUOUS
10
249.7483696758
20
-3.2759134665
7
STANDARD
40
3.0000000000
1
76,2
50
90.0000000000
41
0.7321428571
72
0
100
AcDbText
0
LINE
5
219
100
AcDbEntity
8
0
100
AcDbLine
62
7
6
CONTINUOUS
10
234.1483696758
20
38.9489757919
11
251.9983696758
21
38.9489757919
0
LINE
5
21A
100
AcDbEntity
8
0
100
AcDbLine
62
7
6
CONTINUOUS
10
234.1483696758
20
-37.2510242081
11
251.9983696758
21
-37.2510242081
0
LINE
5
21B
100
AcDbEntity
8
0
100
AcDbLine
62
7
6
CONTINUOUS
10
250.4983696758
20
38.9489757919
11
250.4983696758
21
0.8489757919
0
LINE
5
21C
100
AcDbEntity
8
0
100
AcDbLine
62
7
6
CONTINUOUS
10
250.4983696758
20
-37.2510242081
11
250.4983696758
21
0.8489757919
0
SOLID
5
21D
100
AcDbEntity
8
0
100
AcDbTrace
62
7
6
CONTINUOUS
10
251.4483696758
20
35.9489757919
11
250.4983696758
21
38.9489757919
12
249.5483696758
22
35.9489757919
13
249.5483696758
23
35.9489757919
0
SOLID
5
21E
100
AcDbEntity
8
0
100
AcDbTrace
62
7
6
CONTINUOUS
10
249.5483696758
20
-34.2510242081
11
250.4983696758
21
-37.2510242081
12
251.4483696758
22
-34.2510242081
13
251.4483696758
23
-34.2510242081
0
ENDBLK
5
21F
100
AcDbEntity
8
0
100
AcDbBlockEnd
0
BLOCK
5
220
100
AcDbEntity
8
0
100
AcDbBlockBegin
62
7
6
CONTINUOUS
2
*D2
70
65
10
0.0000000000
20
0.0000000000
3
*D2
1

0
TEXT
5
221
100
AcDbEntity
8
0
100
AcDbText
62
7
6
CONTINUOUS
10
4.8257898669
20
55.5989757919
7
STANDARD
40
3.0000000000
1
482
41
0.7857142857
72
0
100
AcDbText
0
LINE
5
222
100
AcDbEntity
8
0
100
AcDbLine
62
7
6
CONTINUOUS
10
240.4983696758
20
41.3489757919
11
240.4983696758
21
56.3489757919
0
LINE
5
223
100
AcDbEntity
8
0
100
AcDbLine
62
7
6
CONTINUOUS
10
-241.5016303242
20
41.3489757919
11
-241.5016303242
21
56.3489757919
0
LINE
5
224
100
AcDbEntity
8
0
100
AcDbLine
62
7
6
CONTINUOUS
10
240.4983696758
20
54.8489757919
11
-0.5016303242
21
54.8489757919
0
LINE
5
225
100
AcDbEntity
8
0
100
AcDbLine
62
7
6
CONTINUOUS
10
-241.5016303242
20
54.8489757919
11
-0.5016303242
21
54.8489757919
0
SOLID
5
226
100
AcDbEntity
8
0
100
AcDbTrace
62
7
6
CONTINUOUS
10
237.4983696758
20
53.8989757919
11
240.4983696758
21
54.8489757919
12
237.4983696758
22
55.7989757919
13
237.4983696758
23
55.7989757919
0
SOLID
5
227
100
AcDbEntity
8
0
100
AcDbTrace
62
7
6
CONTINUOUS
10
-238.5016303242
20
55.7989757919
11
-241.5016303242
21
54.8489757919
12
-238.5016303242
22
53.8989757919
13
-238.5016303242
23
53.8989757919
0
ENDBLK
5
228
100
AcDbEntity
8
0
100
AcDbBlockEnd
0
BLOCK
5
229
100
AcDbEntity
8
0
100
AcDbBlockBegin
62
7
6
CONTINUOUS
2
*D3
70
65
10
0.0000000000
20
0.0000000000
3
*D3
1

0
TEXT
5
22A
100
AcDbEntity
8
0
100
AcDbText
62
7
6
CONTINUOUS
10
-516.4304057625
20
55.5989757919
7
STANDARD
40
3.0000000000
1
380
41
0.7619047619
72
0
100
AcDbText
0
LINE
5
22B
100
AcDbEntity
8
0
100
AcDbLine
62
7
6
CONTINUOUS
10
-310.2270668828
20
1.3489757919
11
-310.2270668828
21
56.3489757919
0
LINE
5
22C
100
AcDbEntity
8
0
100
AcDbLine
62
7
6
CONTINUOUS
10
-690.2270668828
20
41.3489757919
11
-690.2270668828
21
56.3489757919
0
LINE
5
22D
100
AcDbEntity
8
0
100
AcDbLine
62
7
6
CONTINUOUS
10
-310.2270668828
20
54.8489757919
11
-500.2270668828
21
54.8489757919
0
LINE
5
22E
100
AcDbEntity
8
0
100
AcDbLine
62
7
6
CONTINUOUS
10
-690.2270668828
20
54.8489757919
11
-500.2270668828
21
54.8489757919
0
SOLID
5
22F
100
AcDbEntity
8
0
100
AcDbTrace
62
7
6
CONTINUOUS
10
-313.2270668828
20
53.8989757919
11
-310.2270668828
21
54.8489757919
12
-313.2270668828
22
55.7989757919
13
-313.2270668828
23
55.7989757919
0
SOLID
5
230
100
AcDbEntity
8
0
100
AcDbTrace
62
7
6
CONTINUOUS
10
-687.2270668828
20
55.7989757919
11
-690.2270668828
21
54.8489757919
12
-687.2270668828
22
53.8989757919
13
-687.2270668828
23
53.8989757919
0
ENDBLK
5
231
100
AcDbEntity
8
0
100
AcDbBlockEnd
0
ENDSEC
0
SECTION
2
ENTITIES
0
DIMENSION
5
232
100
AcDbEntity
8
0
100
AcDbDimension
62
7
6
CONTINUOUS
2
*D0
10
260.4983696758
20
44.8489757919
11
258.2483696758
21
4.6637880305
70
160
3
DIMSTYLE_1
100
AcDbAlignedDimension
13
201.4983696758
23
-44.6510242081
14
236.9983696758
24
44.8489757919
50
90.000000
100
AcDbRotatedDimension
0
DIMENSION
5
233
100
AcDbEntity
8
0
100
AcDbDimension
62
7
6
CONTINUOUS
2
*D1
10
250.4983696758
20
-37.2510242081
11
248.2483696758
21
1.1169436763
70
160
3
DIMSTYLE_1
100
AcDbAlignedDimension
13
234.1483696758
23
38.9489757919
14
234.1483696758
24
-37.2510242081
50
270.000000
100
AcDbRotatedDimension
0
DIMENSION
5
234
100
AcDbEntity
8
0
100
AcDbDimension
62
7
6
CONTINUOUS
2
*D2
10
-241.5016303242
20
54.8489757919
11
8.3615041526
21
57.0989757919
70
160
3
DIMSTYLE_1
100
AcDbAlignedDimension
13
240.4983696758
23
41.3489757919
14
-241.5016303242
24
41.3489757919
50
180.000000
100
AcDbRotatedDimension
0
DIMENSION
5
235
100
AcDbEntity
8
0
100
AcDbDimension
62
7
6
CONTINUOUS
2
*D3
10
-690.2270668828
20
54.8489757919
11
-513.0018343339
21
57.0989757919
70
160
3
DIMSTYLE_1
100
AcDbAlignedDimension
13
-310.2270668828
23
1.3489757919
14
-690.2270668828
24
41.3489757919
50
180.000000
100
AcDbRotatedDimension
0
LINE
5
236
100
AcDbEntity
8
0
100
AcDbLine
62
7
6
CONTINUOUS
10
-241.5016303242
20
40.8489757919
11
-241.5016303242
21
-39.1510242081
0
LINE
5
237
100
AcDbEntity
8
0
100
AcDbLine
62
9
6
CONTINUOUS
10
-225.0016303242
20
-42.2735232073
11
-225.0016303242
21
44.8489757919
0
LINE
5
238
100
AcDbEntity
8
0
100
AcDbLine
62
7
6
CONTINUOUS
10
-223.5016303242
20
-39.1510242081
11
-223.5016303242
21
-24.1510242081
0
LINE
5
239
100
AcDbEntity
8
0
100
AcDbLine
62
7
6
CONTINUOUS
10
-223.0016303242
20
-29.1510242081
11
-223.0016303242
21
-24.1510242081
0
LINE
5
23A
100
AcDbEntity
8
0
100
AcDbLine
62
7
6
CONTINUOUS
10
-221.5016303242
20
-29.1510242081
11
-221.5016303242
21
44.8489757919
0
LINE
5
23B
100
AcDbEntity
8
0
100
AcDbLine
62
9
6
CONTINUOUS
10
-218.5016303242
20
-33.6510242081
11
-218.5016303242
21
-32.1510242081
0
LINE
5
23C
100
AcDbEntity
8
0
100
AcDbLine
62
7
6
CONTINUOUS
10
-205.5016303242
20
-41.1510242081
11
-205.5016303242
21
-32.1510242081
0
LINE
5
23D
100
AcDbEntity
8
0
100
AcDbLine
62
7
6
CONTINUOUS
10
-202.0016303242
20
-44.6510242081
11
200.9983696758
21
-44.6510242081
0
LINE
5
23E
100
AcDbEntity
8
0
100
AcDbLine
62
7
6
CONTINUOUS
10
-237.5016303242
20
-43.1510242081
11
-227.5016303242
21
-43.1510242081
0
LINE
5
23F
100
AcDbEntity
8
0
100
AcDbLine
62
7
6
CONTINUOUS
10
236.4983696758
20
-43.1510242081
11
226.4983696758
21
-43.1510242081
0
LINE
5
240
100
AcDbEntity
8
0
100
AcDbLine
62
7
6
CONTINUOUS
10
-234.6516303242
20
-40.7510242081
11
-231.3516303242
21
-40.7510242081
0
LINE
5
241
100
AcDbEntity
8
0
100
AcDbLine
62
7
6
CONTINUOUS
10
230.3483696758
20
-40.7510242081
11
233.6483696758
21
-40.7510242081
0
LINE
5
242
100
AcDbEntity
8
0
100
AcDbLine
62
9
6
CONTINUOUS
10
-205.5016303242
20
-36.6510242081
11
204.4983696758
21
-36.6510242081
0
LINE
5
243
100
AcDbEntity
8
0
100
AcDbLine
62
7
6
CONTINUOUS
10
233.6483696758
20
-33.7510242081
11
230.3483696758
21
-33.7510242081
0
LINE
5
244
100
AcDbEntity
8
0
100
AcDbLine
62
7
6
CONTINUOUS
10
-231.3516303242
20
-33.7510242081
11
-234.6516303242
21
-33.7510242081
0
LINE
5
245
100
AcDbEntity
8
0
100
AcDbLine
62
7
6
CONTINUOUS
10
217.4983696758
20
-33.6510242081
11
204.4983696758
21
-33.6510242081
0
LINE
5
246
100
AcDbEntity
8
0
100
AcDbLine
62
7
6
CONTINUOUS
10
-205.5016303242
20
-33.6510242081
11
-218.5016303242
21
-33.6510242081
0
LINE
5
247
100
AcDbEntity
8
0
100
AcDbLine
62
7
6
CONTINUOUS
10
217.4983696758
20
-32.1510242081
11
-218.5016303242
21
-32.1510242081
0
LINE
5
248
100
AcDbEntity
8
0
100
AcDbLine
62
9
6
CONTINUOUS
10
-223.0016303242
20
-29.1510242081
11
-221.5016303242
21
-29.1510242081
0
LINE
5
249
100
AcDbEntity
8
0
100
AcDbLine
62
9
6
CONTINUOUS
10
221.9983696758
20
-29.1510242081
11
220.4983696758
21
-29.1510242081
0
LINE
5
24A
100
AcDbEntity
8
0
100
AcDbLine
62
9
6
CONTINUOUS
10
-241.5016303242
20
-24.1510242081
11
-225.0016303242
21
-24.1510242081
0
LINE
5
24B
100
AcDbEntity
8
0
100
AcDbLine
62
9
6
CONTINUOUS
10
240.4983696758
20
-24.1510242081
11
223.9983696758
21
-24.1510242081
0
LINE
5
24C
100
AcDbEntity
8
0
100
AcDbLine
62
7
6
CONTINUOUS
10
220.4983696758
20
-24.1510242081
11
223.9952726000
21
-24.1510242081
0
LINE
5
24D
100
AcDbEntity
8
0
100
AcDbLine
62
7
6
CONTINUOUS
10
-221.5016303242
20
-24.1510242081
11
-224.9985332484
21
-24.1510242081
0
LINE
5
24E
100
AcDbEntity
8
0
100
AcDbLine
62
7
6
CONTINUOUS
10
-234.6516303242
20
35.4489757919
11
-231.3516303242
21
35.4489757919
0
LINE
5
24F
100
AcDbEntity
8
0
100
AcDbLine
62
7
6
CONTINUOUS
10
230.3483696758
20
35.4489757919
11
233.6483696758
21
35.4489757919
0
LINE
5
250
100
AcDbEntity
8
0
100
AcDbLine
62
7
6
CONTINUOUS
10
233.6483696758
20
42.4489757919
11
230.3483696758
21
42.4489757919
0
LINE
5
251
100
AcDbEntity
8
0
100
AcDbLine
62
7
6
CONTINUOUS
10
-231.3516303242
20
42.4489757919
11
-234.6516303242
21
42.4489757919
0
LINE
5
252
100
AcDbEntity
8
0
100
AcDbLine
62
7
6
CONTINUOUS
10
220.4983696758
20
44.8489757919
11
236.4983696758
21
44.8489757919
0
LINE
5
253
100
AcDbEntity
8
0
100
AcDbLine
62
7
6
CONTINUOUS
10
-221.5016303242
20
44.8489757919
11
-237.5016303242
21
44.8489757919
0
LINE
5
254
100
AcDbEntity
8
0
100
AcDbLine
62
7
6
CONTINUOUS
10
204.4983696758
20
-41.1510242081
11
204.4983696758
21
-32.1510242081
0
LINE
5
255
100
AcDbEntity
8
0
100
AcDbLine
62
9
6
CONTINUOUS
10
217.4983696758
20
-33.6510242081
11
217.4983696758
21
-32.1510242081
0
LINE
5
256
100
AcDbEntity
8
0
100
AcDbLine
62
7
6
CONTINUOUS
10
220.4983696758
20
44.8489757919
11
220.4983696758
21
-29.1510242081
0
LINE
5
257
100
AcDbEntity
8
0
100
AcDbLine
62
7
6
CONTINUOUS
10
221.9983696758
20
-24.1510242081
11
221.9983696758
21
-29.1510242081
0
LINE
5
258
100
AcDbEntity
8
0
100
AcDbLine
62
7
6
CONTINUOUS
10
222.4983696758
20
-39.1510242081
11
222.4983696758
21
-24.1510242081
0
LINE
5
259
100
AcDbEntity
8
0
100
AcDbLine
62
9
6
CONTINUOUS
10
223.9983696758
20
-42.2735232073
11
223.9983696758
21
44.8489757919
0
LINE
5
25A
100
AcDbEntity
8
0
100
AcDbLine
62
7
6
CONTINUOUS
10
240.4983696758
20
40.8489757919
11
240.4983696758
21
-39.1510242081
0
LINE
5
25B
100
AcDbEntity
8
0
100
AcDbLine
62
7
6
CONTINUOUS
10
-690.2270668828
20
44.8489757919
11
-690.2270668828
21
-44.6510242081
0
LINE
5
25C
100
AcDbEntity
8
0
100
AcDbLine
62
7
6
CONTINUOUS
10
-689.8893445429
20
-39.1510242081
11
-689.8893445429
21
-24.1510242081
0
LINE
5
25D
100
AcDbEntity
8
0
100
AcDbLine
62
7
6
CONTINUOUS
10
-688.7270668828
20
44.8489757919
11
-688.7270668828
21
-44.6510242081
0
LINE
5
25E
100
AcDbEntity
8
0
100
AcDbLine
62
9
6
CONTINUOUS
10
-686.7270668828
20
44.8489757919
11
-686.7270668828
21
-24.1510242081
0
LINE
5
25F
100
AcDbEntity
8
0
100
AcDbLine
62
9
6
CONTINUOUS
10
-685.7270668828
20
-32.1510242081
11
-685.7270668828
21
-33.6510242081
0
LINE
5
260
100
AcDbEntity
8
0
100
AcDbLine
62
7
6
CONTINUOUS
10
-673.7270668828
20
-24.1510242081
11
-673.7270668828
21
-32.1510242081
0
LINE
5
261
100
AcDbEntity
8
0
100
AcDbLine
62
7
6
CONTINUOUS
10
-673.7270668828
20
-32.1510242081
11
-673.7270668828
21
-33.6510242081
0
LINE
5
262
100
AcDbEntity
8
0
100
AcDbLine
62
9
6
CONTINUOUS
10
-673.7270668828
20
-24.1510242081
11
-673.7270668828
21
44.8489757919
0
LINE
5
263
100
AcDbEntity
8
0
100
AcDbLine
62
7
6
CONTINUOUS
10
-604.7132104541
20
-33.6510242081
11
-604.7132104541
21
-32.1510242081
0
LINE
5
264
100
AcDbEntity
8
0
100
AcDbLine
62
9
6
CONTINUOUS
10
-604.1567133384
20
-33.6510242081
11
-604.1567133384
21
-32.1510242081
0
LINE
5
265
100
AcDbEntity
8
0
100
AcDbLine
62
9
6
CONTINUOUS
10
-601.4697075699
20
-33.6510242081
11
-601.4697075699
21
-32.1510242081
0
LINE
5
266
100
AcDbEntity
8
0
100
AcDbLine
62
9
6
CONTINUOUS
10
-592.9844261956
20
-33.6510242081
11
-592.9844261956
21
-32.1510242081
0
LINE
5
267
100
AcDbEntity
8
0
100
AcDbLine
62
9
6
CONTINUOUS
10
-590.2974204271
20
-33.6510242081
11
-590.2974204271
21
-32.1510242081
0
LINE
5
268
100
AcDbEntity
8
0
100
AcDbLine
62
7
6
CONTINUOUS
10
-589.7409233114
20
-33.6510242081
11
-589.7409233114
21
-32.1510242081
0
LINE
5
269
100
AcDbEntity
8
0
100
AcDbLine
62
7
6
CONTINUOUS
10
-585.7132104541
20
-33.6510242081
11
-585.7132104541
21
-32.1510242081
0
LINE
5
26A
100
AcDbEntity
8
0
100
AcDbLine
62
9
6
CONTINUOUS
10
-585.1567133384
20
-33.6510242081
11
-585.1567133384
21
-32.1510242081
0
LINE
5
26B
100
AcDbEntity
8
0
100
AcDbLine
62
9
6
CONTINUOUS
10
-582.4697075699
20
-33.6510242081
11
-582.4697075699
21
-32.1510242081
0
LINE
5
26C
100
AcDbEntity
8
0
100
AcDbLine
62
9
6
CONTINUOUS
10
-573.9844261956
20
-32.1510242081
11
-573.9844261956
21
-33.6510242081
0
LINE
5
26D
100
AcDbEntity
8
0
100
AcDbLine
62
9
6
CONTINUOUS
10
-571.2974204271
20
-32.1510242081
11
-571.2974204271
21
-33.6510242081
0
LINE
5
26E
100
AcDbEntity
8
0
100
AcDbLine
62
7
6
CONTINUOUS
10
-570.7409233114
20
-32.1510242081
11
-570.7409233114
21
-33.6510242081
0
LINE
5
26F
100
AcDbEntity
8
0
100
AcDbLine
62
7
6
CONTINUOUS
10
-555.7132104541
20
-32.1510242081
11
-555.7132104541
21
-33.6510242081
0
LINE
5
270
100
AcDbEntity
8
0
100
AcDbLine
62
9
6
CONTINUOUS
10
-555.1567133384
20
-32.1510242081
11
-555.1567133384
21
-33.6510242081
0
LINE
5
271
100
AcDbEntity
8
0
100
AcDbLine
62
9
6
CONTINUOUS
10
-552.4697075699
20
-32.1510242081
11
-552.4697075699
21
-33.6510242081
0
LINE
5
272
100
AcDbEntity
8
0
100
AcDbLine
62
9
6
CONTINUOUS
10
-543.9844261956
20
-33.6510242081
11
-543.9844261956
21
-32.1510242081
0
LINE
5
273
100
AcDbEntity
8
0
100
AcDbLine
62
9
6
CONTINUOUS
10
-541.2974204271
20
-33.6510242081
11
-541.2974204271
21
-32.1510242081
0
LINE
5
274
100
AcDbEntity
8
0
100
AcDbLine
62
7
6
CONTINUOUS
10
-540.7409233114
20
-33.6510242081
11
-540.7409233114
21
-32.1510242081
0
LINE
5
275
100
AcDbEntity
8
0
100
AcDbLine
62
7
6
CONTINUOUS
10
-540.7132104541
20
-33.6510242081
11
-540.7132104541
21
-32.1510242081
0
LINE
5
276
100
AcDbEntity
8
0
100
AcDbLine
62
9
6
CONTINUOUS
10
-540.1567133384
20
-33.6510242081
11
-540.1567133384
21
-32.1510242081
0
LINE
5
277
100
AcDbEntity
8
0
100
AcDbLine
62
7
6
CONTINUOUS
10
-311.7270668828
20
-44.6510242081
11
-310.2270668828
21
-44.6510242081
0
LINE
5
278
100
AcDbEntity
8
0
100
AcDbLine
62
7
6
CONTINUOUS
10
-688.7270668828
20
-44.6510242081
11
-690.2270668828
21
-44.6510242081
0
LINE
5
279
100
AcDbEntity
8
0
100
AcDbLine
62
7
6
CONTINUOUS
10
-688.7270668828
20
-43.1510242081
11
-690.2270668828
21
-43.1510242081
0
LINE
5
27A
100
AcDbEntity
8
0
100
AcDbLine
62
7
6
CONTINUOUS
10
-310.2270668828
20
-42.8510242081
11
-311.7270668828
21
-42.8510242081
0
LINE
5
27B
100
AcDbEntity
8
0
100
AcDbLine
62
9
6
CONTINUOUS
10
-311.7270668828
20
-41.1510242081
11
-310.2270668828
21
-41.1510242081
0
LINE
5
27C
100
AcDbEntity
8
0
100
AcDbLine
62
9
6
CONTINUOUS
10
-688.7270668828
20
-41.1510242081
11
-690.2270668828
21
-41.1510242081
0
LINE
5
27D
100
AcDbEntity
8
0
100
AcDbLine
62
7
6
CONTINUOUS
10
-688.7270668828
20
-40.7510242081
11
-690.2270668828
21
-40.7510242081
0
LINE
5
27E
100
AcDbEntity
8
0
100
AcDbLine
62
9
6
CONTINUOUS
10
-688.7270668828
20
-39.1510242081
11
-690.2270668828
21
-39.1510242081
0
LINE
5
27F
100
AcDbEntity
8
0
100
AcDbLine
62
7
6
CONTINUOUS
10
-310.2270668828
20
-39.0510242081
11
-311.7270668828
21
-39.0510242081
0
LINE
5
280
100
AcDbEntity
8
0
100
AcDbLine
62
9
6
CONTINUOUS
10
-537.4697075699
20
-33.6510242081
11
-537.4697075699
21
-32.1510242081
0
LINE
5
281
100
AcDbEntity
8
0
100
AcDbLine
62
9
6
CONTINUOUS
10
-528.9844261956
20
-32.1510242081
11
-528.9844261956
21
-33.6510242081
0
LINE
5
282
100
AcDbEntity
8
0
100
AcDbLine
62
9
6
CONTINUOUS
10
-526.2974204271
20
-32.1510242081
11
-526.2974204271
21
-33.6510242081
0
LINE
5
283
100
AcDbEntity
8
0
100
AcDbLine
62
7
6
CONTINUOUS
10
-525.7409233114
20
-32.1510242081
11
-525.7409233114
21
-33.6510242081
0
LINE
5
284
100
AcDbEntity
8
0
100
AcDbLine
62
9
6
CONTINUOUS
10
-690.2270668828
20
-36.6510242081
11
-688.7270668828
21
-36.6510242081
0
LINE
5
285
100
AcDbEntity
8
0
100
AcDbLine
62
9
6
CONTINUOUS
10
-310.2270668828
20
-36.6510242081
11
-311.7270668828
21
-36.6510242081
0
LINE
5
286
100
AcDbEntity
8
0
100
AcDbLine
62
7
6
CONTINUOUS
10
-688.7270668828
20
-33.7510242081
11
-690.2270668828
21
-33.7510242081
0
LINE
5
287
100
AcDbEntity
8
0
100
AcDbLine
62
7
6
CONTINUOUS
10
-685.7270668828
20
-33.6510242081
11
-314.7270668828
21
-33.6510242081
0
LINE
5
288
100
AcDbEntity
8
0
100
AcDbLine
62
7
6
CONTINUOUS
10
-685.7270668828
20
-32.1510242081
11
-314.7270668828
21
-32.1510242081
0
LINE
5
289
100
AcDbEntity
8
0
100
AcDbLine
62
9
6
CONTINUOUS
10
-326.7270668828
20
-29.1510242081
11
-673.7270668828
21
-29.1510242081
0
LINE
5
28A
100
AcDbEntity
8
0
100
AcDbLine
62
7
6
CONTINUOUS
10
-326.7270668828
20
-24.1510242081
11
-310.2270668828
21
-24.1510242081
0
LINE
5
28B
100
AcDbEntity
8
0
100
AcDbLine
62
7
6
CONTINUOUS
10
-673.7270668828
20
-24.1510242081
11
-690.2270655118
21
-24.1510242081
0
LINE
5
28C
100
AcDbEntity
8
0
100
AcDbLine
62
7
6
CONTINUOUS
10
-507.7132104541
20
-32.1510242081
11
-507.7132104541
21
-33.6510242081
0
LINE
5
28D
100
AcDbEntity
8
0
100
AcDbLine
62
9
6
CONTINUOUS
10
-507.1567133384
20
-32.1510242081
11
-507.1567133384
21
-33.6510242081
0
LINE
5
28E
100
AcDbEntity
8
0
100
AcDbLine
62
9
6
CONTINUOUS
10
-504.4697075699
20
-32.1510242081
11
-504.4697075699
21
-33.6510242081
0
LINE
5
28F
100
AcDbEntity
8
0
100
AcDbLine
62
9
6
CONTINUOUS
10
-495.9844261956
20
-33.6510242081
11
-495.9844261956
21
-32.1510242081
0
LINE
5
290
100
AcDbEntity
8
0
100
AcDbLine
62
9
6
CONTINUOUS
10
-493.2974204271
20
-33.6510242081
11
-493.2974204271
21
-32.1510242081
0
LINE
5
291
100
AcDbEntity
8
0
100
AcDbLine
62
7
6
CONTINUOUS
10
-492.7409233114
20
-33.6510242081
11
-492.7409233114
21
-32.1510242081
0
LINE
5
292
100
AcDbEntity
8
0
100
AcDbLine
62
7
6
CONTINUOUS
10
-490.7132104541
20
-33.6510242081
11
-490.7132104541
21
-32.1510242081
0
LINE
5
293
100
AcDbEntity
8
0
100
AcDbLine
62
9
6
CONTINUOUS
10
-490.1567133384
20
-33.6510242081
11
-490.1567133384
21
-32.1510242081
0
LINE
5
294
100
AcDbEntity
8
0
100
AcDbLine
62
9
6
CONTINUOUS
10
-487.4697075699
20
-33.6510242081
11
-487.4697075699
21
-32.1510242081
0
LINE
5
295
100
AcDbEntity
8
0
100
AcDbLine
62
9
6
CONTINUOUS
10
-478.9844261956
20
-32.1510242081
11
-478.9844261956
21
-33.6510242081
0
LINE
5
296
100
AcDbEntity
8
0
100
AcDbLine
62
9
6
CONTINUOUS
10
-476.2974204271
20
-32.1510242081
11
-476.2974204271
21
-33.6510242081
0
LINE
5
297
100
AcDbEntity
8
0
100
AcDbLine
62
7
6
CONTINUOUS
10
-475.7409233114
20
-32.1510242081
11
-475.7409233114
21
-33.6510242081
0
LINE
5
298
100
AcDbEntity
8
0
100
AcDbLine
62
7
6
CONTINUOUS
10
-459.7132104541
20
-32.1510242081
11
-459.7132104541
21
-33.6510242081
0
LINE
5
299
100
AcDbEntity
8
0
100
AcDbLine
62
7
6
CONTINUOUS
10
-688.7270668828
20
35.4489757919
11
-690.2270668828
21
35.4489757919
0
LINE
5
29A
100
AcDbEntity
8
0
100
AcDbLine
62
9
6
CONTINUOUS
10
-690.2270668828
20
40.8489757919
11
-688.7270668828
21
40.8489757919
0
LINE
5
29B
100
AcDbEntity
8
0
100
AcDbLine
62
7
6
CONTINUOUS
10
-310.2270668828
20
0.8489757919
11
-517.2307916998
21
44.8489757919
0
LINE
5
29C
100
AcDbEntity
8
0
100
AcDbLine
62
9
6
CONTINUOUS
10
-459.1567133384
20
-32.1510242081
11
-459.1567133384
21
-33.6510242081
0
LINE
5
29D
100
AcDbEntity
8
0
100
AcDbLine
62
9
6
CONTINUOUS
10
-456.4697075699
20
-32.1510242081
11
-456.4697075699
21
-33.6510242081
0
LINE
5
29E
100
AcDbEntity
8
0
100
AcDbLine
62
9
6
CONTINUOUS
10
-447.9844261956
20
-33.6510242081
11
-447.9844261956
21
-32.1510242081
0
LINE
5
29F
100
AcDbEntity
8
0
100
AcDbLine
62
7
6
CONTINUOUS
10
-688.7270668828
20
42.4489757919
11
-690.2270668828
21
42.4489757919
0
LINE
5
2A0
100
AcDbEntity
8
0
100
AcDbLine
62
7
6
CONTINUOUS
10
-517.2307916998
20
44.8489757919
11
-690.2270668828
21
44.8489757919
0
LINE
5
2A1
100
AcDbEntity
8
0
100
AcDbLine
62
9
6
CONTINUOUS
10
-445.2974204271
20
-33.6510242081
11
-445.2974204271
21
-32.1510242081
0
LINE
5
2A2
100
AcDbEntity
8
0
100
AcDbLine
62
7
6
CONTINUOUS
10
-444.7409233114
20
-33.6510242081
11
-444.7409233114
21
-32.1510242081
0
LINE
5
2A3
100
AcDbEntity
8
0
100
AcDbLine
62
7
6
CONTINUOUS
10
-439.7132104541
20
-33.6510242081
11
-439.7132104541
21
-32.1510242081
0
LINE
5
2A4
100
AcDbEntity
8
0
100
AcDbLine
62
9
6
CONTINUOUS
10
-439.1567133384
20
-33.6510242081
11
-439.1567133384
21
-32.1510242081
0
LINE
5
2A5
100
AcDbEntity
8
0
100
AcDbLine
62
9
6
CONTINUOUS
10
-436.4697075699
20
-33.6510242081
11
-436.4697075699
21
-32.1510242081
0
LINE
5
2A6
100
AcDbEntity
8
0
100
AcDbLine
62
9
6
CONTINUOUS
10
-427.9844261956
20
-33.6510242081
11
-427.9844261956
21
-32.1510242081
0
LINE
5
2A7
100
AcDbEntity
8
0
100
AcDbLine
62
9
6
CONTINUOUS
10
-425.2974204271
20
-33.6510242081
11
-425.2974204271
21
-32.1510242081
0
LINE
5
2A8
100
AcDbEntity
8
0
100
AcDbLine
62
7
6
CONTINUOUS
10
-424.7409233114
20
-33.6510242081
11
-424.7409233114
21
-32.1510242081
0
LINE
5
2A9
100
AcDbEntity
8
0
100
AcDbLine
62
7
6
CONTINUOUS
10
-410.7132104541
20
-33.6510242081
11
-410.7132104541
21
-32.1510242081
0
LINE
5
2AA
100
AcDbEntity
8
0
100
AcDbLine
62
9
6
CONTINUOUS
10
-410.1567133384
20
-33.6510242081
11
-410.1567133384
21
-32.1510242081
0
LINE
5
2AB
100
AcDbEntity
8
0
100
AcDbLine
62
9
6
CONTINUOUS
10
-407.4697075699
20
-33.6510242081
11
-407.4697075699
21
-32.1510242081
0
LINE
5
2AC
100
AcDbEntity
8
0
100
AcDbLine
62
9
6
CONTINUOUS
10
-398.9844261956
20
-32.1510242081
11
-398.9844261956
21
-33.6510242081
0
LINE
5
2AD
100
AcDbEntity
8
0
100
AcDbLine
62
7
6
CONTINUOUS
10
-397.7132104541
20
-33.6510242081
11
-397.7132104541
21
-32.1510242081
0
LINE
5
2AE
100
AcDbEntity
8
0
100
AcDbLine
62
9
6
CONTINUOUS
10
-397.1567133384
20
-33.6510242081
11
-397.1567133384
21
-32.1510242081
0
LINE
5
2AF
100
AcDbEntity
8
0
100
AcDbLine
62
9
6
CONTINUOUS
10
-396.2974204271
20
-32.1510242081
11
-396.2974204271
21
-33.6510242081
0
LINE
5
2B0
100
AcDbEntity
8
0
100
AcDbLine
62
7
6
CONTINUOUS
10
-395.7409233114
20
-32.1510242081
11
-395.7409233114
21
-33.6510242081
0
LINE
5
2B1
100
AcDbEntity
8
0
100
AcDbLine
62
9
6
CONTINUOUS
10
-394.4697075699
20
-33.6510242081
11
-394.4697075699
21
-32.1510242081
0
LINE
5
2B2
100
AcDbEntity
8
0
100
AcDbLine
62
9
6
CONTINUOUS
10
-385.9844261956
20
-33.6510242081
11
-385.9844261956
21
-32.1510242081
0
LINE
5
2B3
100
AcDbEntity
8
0
100
AcDbLine
62
9
6
CONTINUOUS
10
-383.2974204271
20
-33.6510242081
11
-383.2974204271
21
-32.1510242081
0
LINE
5
2B4
100
AcDbEntity
8
0
100
AcDbLine
62
7
6
CONTINUOUS
10
-382.7409233114
20
-33.6510242081
11
-382.7409233114
21
-32.1510242081
0
LINE
5
2B5
100
AcDbEntity
8
0
100
AcDbLine
62
7
6
CONTINUOUS
10
-326.7270668828
20
-24.1510242081
11
-326.7270668828
21
-32.1510242081
0
LINE
5
2B6
100
AcDbEntity
8
0
100
AcDbLine
62
7
6
CONTINUOUS
10
-326.7270668828
20
-32.1510242081
11
-326.7270668828
21
-33.6510242081
0
LINE
5
2B7
100
AcDbEntity
8
0
100
AcDbLine
62
9
6
CONTINUOUS
10
-326.7270668828
20
-24.1510242081
11
-326.7270668828
21
4.3561590595
0
LINE
5
2B8
100
AcDbEntity
8
0
100
AcDbLine
62
9
6
CONTINUOUS
10
-314.7270668828
20
-32.1510242081
11
-314.7270668828
21
-33.6510242081
0
LINE
5
2B9
100
AcDbEntity
8
0
100
AcDbLine
62
7
6
CONTINUOUS
10
-311.7270668828
20
-36.6510242081
11
-311.7270668828
21
-44.6510242081
0
LINE
5
2BA
100
AcDbEntity
8
0
100
AcDbLine
62
7
6
CONTINUOUS
10
-310.2270668828
20
0.8489757919
11
-310.2270668828
21
-24.1510242081
0
LINE
5
2BB
100
AcDbEntity
8
0
100
AcDbLine
62
7
6
CONTINUOUS
10
-310.2270668828
20
-36.6510242081
11
-310.2270668828
21
-44.6510242081
0
ARC
5
2BC
100
AcDbEntity
8
0
100
AcDbCircle
62
7
6
CONTINUOUS
10
-218.5016303242
20
-29.1510242081
40
4.5000000000
100
AcDbArc
50
180.0000000000
51
270.0000000000
0
ARC
5
2BD
100
AcDbEntity
8
0
100
AcDbCircle
62
7
6
CONTINUOUS
10
217.4983696758
20
-29.1510242081
40
4.5000000000
100
AcDbArc
50
270.0000000000
51
360.0000000000
0
ARC
5
2BE
100
AcDbEntity
8
0
100
AcDbCircle
62
7
6
CONTINUOUS
10
-227.5016303242
20
-39.1510242081
40
4.0000000000
100
AcDbArc
50
308.6821874535
51
360.0000000000
0
ARC
5
2BF
100
AcDbEntity
8
0
100
AcDbCircle
62
7
6
CONTINUOUS
10
226.4983696758
20
-39.1510242081
40
4.0000000000
100
AcDbArc
50
180.0000000000
51
231.3178125465
0
ARC
5
2C0
100
AcDbEntity
8
0
100
AcDbCircle
62
7
6
CONTINUOUS
10
-202.0016303242
20
-41.1510242081
40
3.5000000000
100
AcDbArc
50
180.0000000000
51
270.0000000000
0
ARC
5
2C1
100
AcDbEntity
8
0
100
AcDbCircle
62
7
6
CONTINUOUS
10
200.9983696758
20
-41.1510242081
40
3.5000000000
100
AcDbArc
50
270.0000000000
51
360.0000000000
0
ARC
5
2C2
100
AcDbEntity
8
0
100
AcDbCircle
62
7
6
CONTINUOUS
10
-231.3516303242
20
38.9489757919
40
3.5000000000
100
AcDbArc
50
270.0000000000
51
90.0000000000
0
ARC
5
2C3
100
AcDbEntity
8
0
100
AcDbCircle
62
7
6
CONTINUOUS
10
-234.6516303242
20
38.9489757919
40
3.5000000000
100
AcDbArc
50
90.0000000000
51
270.0000000000
0
ARC
5
2C4
100
AcDbEntity
8
0
100
AcDbCircle
62
7
6
CONTINUOUS
10
-237.5016303242
20
40.8489757919
40
4.0000000000
100
AcDbArc
50
90.0000000000
51
180.0000000000
0
ARC
5
2C5
100
AcDbEntity
8
0
100
AcDbCircle
62
7
6
CONTINUOUS
10
230.3483696758
20
38.9489757919
40
3.5000000000
100
AcDbArc
50
90.0000000000
51
270.0000000000
0
ARC
5
2C6
100
AcDbEntity
8
0
100
AcDbCircle
62
7
6
CONTINUOUS
10
233.6483696758
20
38.9489757919
40
3.5000000000
100
AcDbArc
50
270.0000000000
51
90.0000000000
0
ARC
5
2C7
100
AcDbEntity
8
0
100
AcDbCircle
62
7
6
CONTINUOUS
10
236.4983696758
20
40.8489757919
40
4.0000000000
100
AcDbArc
50
0.0000000000
51
90.0000000000
0
ARC
5
2C8
100
AcDbEntity
8
0
100
AcDbCircle
62
7
6
CONTINUOUS
10
-218.5016303242
20
-29.1510242081
40
3.0000000000
100
AcDbArc
50
180.0000000000
51
270.0000000000
0
ARC
5
2C9
100
AcDbEntity
8
0
100
AcDbCircle
62
7
6
CONTINUOUS
10
217.4983696758
20
-29.1510242081
40
3.0000000000
100
AcDbArc
50
270.0000000000
51
360.0000000000
0
ARC
5
2CA
100
AcDbEntity
8
0
100
AcDbCircle
62
7
6
CONTINUOUS
10
-231.3516303242
20
-37.2510242081
40
3.5000000000
100
AcDbArc
50
270.0000000000
51
90.0000000000
0
ARC
5
2CB
100
AcDbEntity
8
0
100
AcDbCircle
62
7
6
CONTINUOUS
10
-234.6516303242
20
-37.2510242081
40
3.5000000000
100
AcDbArc
50
90.0000000000
51
270.0000000000
0
ARC
5
2CC
100
AcDbEntity
8
0
100
AcDbCircle
62
7
6
CONTINUOUS
10
-227.5016303242
20
-39.1510242081
40
4.0000000000
100
AcDbArc
50
270.0000000000
51
308.6821874535
0
ARC
5
2CD
100
AcDbEntity
8
0
100
AcDbCircle
62
7
6
CONTINUOUS
10
-237.5016303242
20
-39.1510242081
40
4.0000000000
100
AcDbArc
50
180.0000000000
51
270.0000000000
0
ARC
5
2CE
100
AcDbEntity
8
0
100
AcDbCircle
62
7
6
CONTINUOUS
10
230.3483696758
20
-37.2510242081
40
3.5000000000
100
AcDbArc
50
90.0000000000
51
270.0000000000
0
ARC
5
2CF
100
AcDbEntity
8
0
100
AcDbCircle
62
7
6
CONTINUOUS
10
233.6483696758
20
-37.2510242081
40
3.5000000000
100
AcDbArc
50
270.0000000000
51
90.0000000000
0
ARC
5
2D0
100
AcDbEntity
8
0
100
AcDbCircle
62
7
6
CONTINUOUS
10
236.4983696758
20
-39.1510242081
40
4.0000000000
100
AcDbArc
50
270.0000000000
51
360.0000000000
0
ARC
5
2D1
100
AcDbEntity
8
0
100
AcDbCircle
62
7
6
CONTINUOUS
10
226.4983696758
20
-39.1510242081
40
4.0000000000
100
AcDbArc
50
231.3178125465
51
270.0000000000
0
ARC
5
2D2
100
AcDbEntity
8
0
100
AcDbCircle
62
7
6
CONTINUOUS
10
-314.7270668828
20
-36.6510242081
40
4.5000000000
100
AcDbArc
50
0.0000000000
51
90.0000000000
0
ARC
5
2D3
100
AcDbEntity
8
0
100
AcDbCircle
62
7
6
CONTINUOUS
10
-314.7270668828
20
-36.6510242081
40
3.0000000000
100
AcDbArc
50
0.0000000000
51
90.0000000000
0
ARC
5
2D4
100
AcDbEntity
8
0
100
AcDbCircle
62
7
6
CONTINUOUS
10
-685.7270668828
20
-36.6510242081
40
4.5000000000
100
AcDbArc
50
90.0000000000
51
180.0000000000
0
ARC
5
2D5
100
AcDbEntity
8
0
100
AcDbCircle
62
7
6
CONTINUOUS
10
-685.7270668828
20
-36.6510242081
40
3.0000000000
100
AcDbArc
50
90.0000000000
51
180.0000000000
0
SPLINE
5
2D6
100
AcDbEntity
8
0
100
AcDbSpline
62
7
6
CONTINUOUS
70
0
71
3
72
11
73
7
74
5
42
0.0000001000
43
0.0000001000
44
0.0000000001
12
0.0000000000
22
-3.1435148052
32
0.0000000000
13
0.0000000000
23
-3.1435148052
33
0.0000000000
40
0.0000000000
40
0.0000000000
40
0.0000000000
40
0.0000000000
40
0.3278556985
40
0.6072370636
40
0.8308127047
40
1.0000000000
40
1.0000000000
40
1.0000000000
40
1.0000000000
10
-689.8893445429
20
-39.1510242081
30
0.0000000000
10
-689.8893445429
20
-39.4945639554
30
0.0000000000
10
-689.9299590139
20
-40.1312600367
30
0.0000000000
10
-690.0631564861
20
-40.9919878461
30
0.0000000000
10
-690.1828157380
20
-41.6855265413
30
0.0000000000
10
-690.2270668828
20
-42.0962422847
30
0.0000000000
10
-690.2270668828
20
-42.2735232073
30
0.0000000000
11
-689.8893445429
21
-39.1510242081
31
0.0000000000
11
-689.9497409663
21
-40.1798722504
31
0.0000000000
11
-690.0748508876
21
-41.0491547435
31
0.0000000000
11
-690.1841800832
21
-41.7434124152
31
0.0000000000
11
-690.2270668828
21
-42.2735232073
31
0.0000000000
0
ENDSEC
0
SECTION
2
OBJECTS
0
DICTIONARY
5
2D7
100
AcDbDictionary
3
ACAD_GROUP
350
2D8
3
ACAD_MLINESTYLE
350
2D9
0
DICTIONARY
5
2D8
102
{ACAD_REACTORS
330
2D7
102
}
100
AcDbDictionary
0
DICTIONARY
5
2D9
102
{ACAD_REACTORS
330
2D7
102
}
100
AcDbDictionary
3
STANDARD
350
2DA
0
MLINESTYLE
5
2DA
102
{ACAD_REACTORS
330
2D9
102
}
100
AcDbMlineStyle
2
STANDARD
70
0
3

62
256
51
90.0
52
90.0
71
2
49
0.5
62
256
6
BYLAYER
49
-0.5
62
256
6
BYLAYER
0
ENDSEC
0
EOF
