0
SECTION
2
HEADER
9
$ACADVER
1
AC1014
9
$HANDSEED
5
       299
9
$EXTMAX
10
297.0000000000
20
210.0000000000
9
$EXTMIN
10
0.0000000000
20
0.0000000000
9
$LIMMIN
10
0.0000000000
20
0.0000000000
9
$LIMMAX
10
297.0000000000
20
210.0000000000
9
$VIEWCTR
10
148.5000000000
20
105.0000000000
9
$VIEWSIZE
40
210.0000000000
9
$CLAYER
8
0
9
$LTSCALE
40
16.3350000000
9
$CELTYPE
6
BYLAYER
9
$DIMSCALE
40
1
9
$DIMASZ
40
3.0000000000
9
$DIMEXO
40
1.8562500000
9
$DIMDLI
40
11.2860000000
9
$DIMEXE
40
5.3460000000
9
$DIMCEN
40
2.6730000000
9
$DIMLFAC
40
1.0000000000
9
$DIMTXT
40
3.0000000000
9
$DIMTOL
70
1
9
$DIMLIM
70
0
9
$DIMTFAC
40
1.0000000000
9
$DIMTP
40
0.0100000000
9
$DIMTM
40
0.0100000000
9
$MEASUREMENT
70
1
0
ENDSEC
0
SECTION
2
CLASSES
0
ENDSEC
0
SECTION
2
TABLES
0
TABLE
2
VPORT
5
8
100
AcDbSymbolTable
70
2
0
VPORT
5
1F4
100
AcDbSymbolTableRecord
100
AcDbViewportTableRecord
2
*ACTIVE
70
0
10
0.0
20
0.0
11
1.0
21
1.0
12
148.5000000000
22
105.0000000000
13
0.0
23
0.0
14
1.0
24
1.0
15
0.0
25
0.0
16
0.0
26
0.0
36
1.0
17
0.0
27
0.0
37
0.0
40
210.0000000000
41
1.4142857143
42
50.0
43
0.0
44
0.0
50
0.0
51
0.0
71
0
72
100
73
1
74
1
75
0
76
0
77
0
78
0
0
ENDTAB
0
TABLE
2
LTYPE
5
5
100
AcDbSymbolTable
70
6
0
LTYPE
5
14
100
AcDbSymbolTableRecord
100
AcDbLinetypeTableRecord
2
BYBLOCK
70
0
3

72
65
73
0
40
0.0
0
LTYPE
5
15
100
AcDbSymbolTableRecord
100
AcDbLinetypeTableRecord
2
BYLAYER
70
0
3

72
65
73
0
40
0.0
0
LTYPE
5
16
100
AcDbSymbolTableRecord
100
AcDbLinetypeTableRecord
2
CONTINUOUS
70
64
3
Solid line
72
65
73
0
40
0
0
LTYPE
5
1F5
100
AcDbSymbolTableRecord
100
AcDbLinetypeTableRecord
2
CENTER
70
64
3
____ _ ____ _ ____ _ ____ _ ____ _ ____ _ ____
72
65
73
4
40
0.6
49
0.375
74
0
49
-0.075
74
0
49
0.075
74
0
49
-0.075
74
0
0
LTYPE
5
1F6
100
AcDbSymbolTableRecord
100
AcDbLinetypeTableRecord
2
HIDDEN
70
64
3
- - - - - - - - - - - - - - - - - - - -
72
65
73
2
40
0.2
49
0.1
74
0
49
-0.1
74
0
0
LTYPE
5
1F7
100
AcDbSymbolTableRecord
100
AcDbLinetypeTableRecord
2
PHANTOM
70
64
3
_____ _ _ _____ _ _ _____ _ _ _____
72
65
73
6
40
0.8
49
0.45
74
0
49
-0.05
74
0
49
0.1
74
0
49
-0.05
74
0
49
0.1
74
0
49
-0.05
74
0
0
LTYPE
5
1F8
100
AcDbSymbolTableRecord
100
AcDbLinetypeTableRecord
2
DOT
70
64
3
. . . . . . . . . . . . . . . . . . . .
72
65
73
2
40
0.2
49
0.1
74
0
49
-0.1
74
0
0
LTYPE
5
1F9
100
AcDbSymbolTableRecord
100
AcDbLinetypeTableRecord
2
DASHED
70
64
3
- - - - - - - - - - - - - - - - - - - -
72
65
73
2
40
0.2
49
0.1
74
0
49
-0.1
74
0
0
ENDTAB
0
TABLE
2
LAYER
5
2
100
AcDbSymbolTable
70
36
0
LAYER
5
10
100
AcDbSymbolTableRecord
100
AcDbLayerTableRecord
2
0
70
0
62
7
6
CONTINUOUS
0
LAYER
5
1FA
100
AcDbSymbolTableRecord
100
AcDbLayerTableRecord
2
DEFAULT_1
70
0
62
7
6
CENTER
0
LAYER
5
1FB
100
AcDbSymbolTableRecord
100
AcDbLayerTableRecord
2
DEFAULT_2
70
0
62
8
6
HIDDEN
0
LAYER
5
1FC
100
AcDbSymbolTableRecord
100
AcDbLayerTableRecord
2
DEFAULT_3
70
0
62
7
6
PHANTOM
0
LAYER
5
1FD
100
AcDbSymbolTableRecord
100
AcDbLayerTableRecord
2
ALTRI_PIANI
70
0
62
7
6
CONTINUOUS
0
LAYER
5
1FE
100
AcDbSymbolTableRecord
100
AcDbLayerTableRecord
2
ASSI
70
0
62
7
6
CONTINUOUS
0
LAYER
5
1FF
100
AcDbSymbolTableRecord
100
AcDbLayerTableRecord
2
COORDINATE
70
0
62
7
6
CONTINUOUS
0
LAYER
5
200
100
AcDbSymbolTableRecord
100
AcDbLayerTableRecord
2
COORD_ORIGINE
70
0
62
7
6
CONTINUOUS
0
LAYER
5
201
100
AcDbSymbolTableRecord
100
AcDbLayerTableRecord
2
CURVE
70
0
62
7
6
CONTINUOUS
0
LAYER
5
202
100
AcDbSymbolTableRecord
100
AcDbLayerTableRecord
2
PIANI
70
0
62
7
6
CONTINUOUS
0
LAYER
5
203
100
AcDbSymbolTableRecord
100
AcDbLayerTableRecord
2
PIANI_ORIGINE
70
0
62
7
6
CONTINUOUS
0
LAYER
5
204
100
AcDbSymbolTableRecord
100
AcDbLayerTableRecord
2
RACCORDO
70
0
62
7
6
CONTINUOUS
0
LAYER
5
205
100
AcDbSymbolTableRecord
100
AcDbLayerTableRecord
2
SNAPLINE
70
0
62
7
6
CONTINUOUS
0
LAYER
5
206
100
AcDbSymbolTableRecord
100
AcDbLayerTableRecord
2
TRASH
70
0
62
7
6
CONTINUOUS
0
ENDTAB
0
TABLE
2
STYLE
5
3
100
AcDbSymbolTable
70
1
0
STYLE
5
11
100
AcDbSymbolTableRecord
100
AcDbTextStyleTableRecord
2
STANDARD
70
0
40
0.0
41
0.8000000000
50
0.0
71
0
42
0.2
3
txt
4

0
ENDTAB
0
TABLE
2
VIEW
5
6
100
AcDbSymbolTable
70
0
0
ENDTAB
0
TABLE
2
UCS
5
7
100
AcDbSymbolTable
70
0
0
ENDTAB
0
TABLE
2
APPID
5
9
100
AcDbSymbolTable
70
1
0
APPID
5
207
100
AcDbSymbolTableRecord
100
AcDbRegAppTableRecord
2
ACAD
70
0
0
ENDTAB
0
TABLE
2
DIMSTYLE
5
A
100
AcDbSymbolTable
70
1
0
DIMSTYLE
105
208
100
AcDbSymbolTableRecord
100
AcDbDimStyleTableRecord
2
STANDARD
70
0
3

4

5

6

7

40
1.0
41
3.0000000000
42
0.0625
43
0.38
44
0.18
45
0.0
46
0.0
47
0.0100000000
48
0.0100000000
140
3.0000000000
141
0.09
142
0.0
143
25.4
144
1.0000000000
145
0.0
146
1.0000000000
147
0.09
71
1
72
0
73
0
74
0
75
0
76
0
77
1
78
8
170
0
171
2
172
0
173
0
174
0
175
0
176
0
177
0
178
0
270
2
271
2
272
2
273
2
274
2
340
11
275
0
280
0
281
0
282
0
283
1
284
8
285
0
286
0
287
3
288
0
0
DIMSTYLE
105
209
100
AcDbSymbolTableRecord
100
AcDbDimStyleTableRecord
2
DIMSTYLE_1
70
0
3

4

5

6

7

40
1.0
41
3.0000000000
42
0.0625
43
0.38
44
0.18
45
0.0
46
0.0
47
0.0000000000
48
0.0000000000
140
3.0000000000
141
0.09
142
0.0
143
25.4
144
1.0000000000
145
0.0
146
1.0000000000
147
0.09
71
0
72
0
73
0
74
0
75
0
76
0
77
1
78
8
170
0
171
2
172
0
173
0
174
0
175
0
176
0
177
0
178
0
270
2
271
2
272
2
273
2
274
2
340
11
275
0
280
0
281
0
282
0
283
1
284
8
285
0
286
0
287
3
288
0
0
ENDTAB
0
TABLE
2
BLOCK_RECORD
5
1
100
AcDbSymbolTable
70
0
0
BLOCK_RECORD
5
1B
100
AcDbSymbolTableRecord
100
AcDbBlockTableRecord
2
*MODEL_SPACE
0
BLOCK_RECORD
5
1C
100
AcDbSymbolTableRecord
100
AcDbBlockTableRecord
2
*PAPER_SPACE
0
BLOCK_RECORD
5
20A
100
AcDbSymbolTableRecord
100
AcDbBlockTableRecord
2
*D0
0
BLOCK_RECORD
5
20B
100
AcDbSymbolTableRecord
100
AcDbBlockTableRecord
2
*D1
0
BLOCK_RECORD
5
20C
100
AcDbSymbolTableRecord
100
AcDbBlockTableRecord
2
*D2
0
BLOCK_RECORD
5
20D
100
AcDbSymbolTableRecord
100
AcDbBlockTableRecord
2
*D3
0
ENDTAB
0
ENDSEC
0
SECTION
2
BLOCKS
0
BLOCK
5
1E
100
AcDbEntity
8
0
100
AcDbBlockBegin
2
*MODEL_SPACE
70
0
10
0.0
20
0.0
30
0.0
3
*MODEL_SPACE
1

0
ENDBLK
5
1F
100
AcDbEntity
8
0
100
AcDbBlockEnd
0
BLOCK
5
20
100
AcDbEntity
8
0
100
AcDbBlockBegin
2
*PAPER_SPACE
70
0
10
0.0
20
0.0
30
0.0
3
*PAPER_SPACE
1

0
ENDBLK
5
21
100
AcDbEntity
8
0
100
AcDbBlockEnd
0
BLOCK
5
20E
100
AcDbEntity
8
0
100
AcDbBlockBegin
62
7
6
CONTINUOUS
2
*D0
70
65
10
0.0000000000
20
0.0000000000
3
*D0
1

0
TEXT
5
20F
100
AcDbEntity
8
0
100
AcDbText
62
7
6
CONTINUOUS
10
10.5691496184
20
62.8458653636
7
STANDARD
40
3.0000000000
1
482
41
0.7857142857
72
0
100
AcDbText
0
LINE
5
210
100
AcDbEntity
8
0
100
AcDbLine
62
7
6
CONTINUOUS
10
247.8427246032
20
48.3677449735
11
247.8427246032
21
63.5958653636
0
LINE
5
211
100
AcDbEntity
8
0
100
AcDbLine
62
7
6
CONTINUOUS
10
-234.1572753968
20
48.3677449735
11
-234.1572753968
21
63.5958653636
0
LINE
5
212
100
AcDbEntity
8
0
100
AcDbLine
62
7
6
CONTINUOUS
10
247.8427246032
20
62.0958653636
11
6.8427246032
21
62.0958653636
0
LINE
5
213
100
AcDbEntity
8
0
100
AcDbLine
62
7
6
CONTINUOUS
10
-234.1572753968
20
62.0958653636
11
6.8427246032
21
62.0958653636
0
SOLID
5
214
100
AcDbEntity
8
0
100
AcDbTrace
62
7
6
CONTINUOUS
10
244.8427246032
20
61.1458653636
11
247.8427246032
21
62.0958653636
12
244.8427246032
22
63.0458653636
13
244.8427246032
23
63.0458653636
0
SOLID
5
215
100
AcDbEntity
8
0
100
AcDbTrace
62
7
6
CONTINUOUS
10
-231.1572753968
20
63.0458653636
11
-234.1572753968
21
62.0958653636
12
-231.1572753968
22
61.1458653636
13
-231.1572753968
23
61.1458653636
0
ENDBLK
5
216
100
AcDbEntity
8
0
100
AcDbBlockEnd
0
BLOCK
5
217
100
AcDbEntity
8
0
100
AcDbBlockBegin
62
7
6
CONTINUOUS
2
*D1
70
65
10
0.0000000000
20
0.0000000000
3
*D1
1

0
TEXT
5
218
100
AcDbEntity
8
0
100
AcDbText
62
7
6
CONTINUOUS
10
266.6177246032
20
1.1814105432
7
STANDARD
40
3.0000000000
1
89,5
50
90.0000000000
41
0.7142857143
72
0
100
AcDbText
0
LINE
5
219
100
AcDbEntity
8
0
100
AcDbLine
62
7
6
CONTINUOUS
10
244.3427246032
20
51.8677449735
11
268.8677246032
21
51.8677449735
0
LINE
5
21A
100
AcDbEntity
8
0
100
AcDbLine
62
7
6
CONTINUOUS
10
208.8427246032
20
-37.6322550265
11
268.8677246032
21
-37.6322550265
0
LINE
5
21B
100
AcDbEntity
8
0
100
AcDbLine
62
7
6
CONTINUOUS
10
267.3677246032
20
51.8677449735
11
267.3677246032
21
7.1177449735
0
LINE
5
21C
100
AcDbEntity
8
0
100
AcDbLine
62
7
6
CONTINUOUS
10
267.3677246032
20
-37.6322550265
11
267.3677246032
21
7.1177449735
0
SOLID
5
21D
100
AcDbEntity
8
0
100
AcDbTrace
62
7
6
CONTINUOUS
10
268.3177246032
20
48.8677449735
11
267.3677246032
21
51.8677449735
12
266.4177246032
22
48.8677449735
13
266.4177246032
23
48.8677449735
0
SOLID
5
21E
100
AcDbEntity
8
0
100
AcDbTrace
62
7
6
CONTINUOUS
10
266.4177246032
20
-34.6322550265
11
267.3677246032
21
-37.6322550265
12
268.3177246032
22
-34.6322550265
13
268.3177246032
23
-34.6322550265
0
ENDBLK
5
21F
100
AcDbEntity
8
0
100
AcDbBlockEnd
0
BLOCK
5
220
100
AcDbEntity
8
0
100
AcDbBlockBegin
62
7
6
CONTINUOUS
2
*D2
70
65
10
0.0000000000
20
0.0000000000
3
*D2
1

0
TEXT
5
221
100
AcDbEntity
8
0
100
AcDbText
62
7
6
CONTINUOUS
10
257.0927246032
20
2.3046386764
7
STANDARD
40
3.0000000000
1
76,2
50
90.0000000000
41
0.7321428571
72
0
100
AcDbText
0
LINE
5
222
100
AcDbEntity
8
0
100
AcDbLine
62
7
6
CONTINUOUS
10
241.4927246032
20
45.9677449735
11
259.3427246032
21
45.9677449735
0
LINE
5
223
100
AcDbEntity
8
0
100
AcDbLine
62
7
6
CONTINUOUS
10
241.4927246032
20
-30.2322550265
11
259.3427246032
21
-30.2322550265
0
LINE
5
224
100
AcDbEntity
8
0
100
AcDbLine
62
7
6
CONTINUOUS
10
257.8427246032
20
45.9677449735
11
257.8427246032
21
7.8677449735
0
LINE
5
225
100
AcDbEntity
8
0
100
AcDbLine
62
7
6
CONTINUOUS
10
257.8427246032
20
-30.2322550265
11
257.8427246032
21
7.8677449735
0
SOLID
5
226
100
AcDbEntity
8
0
100
AcDbTrace
62
7
6
CONTINUOUS
10
258.7927246032
20
42.9677449735
11
257.8427246032
21
45.9677449735
12
256.8927246032
22
42.9677449735
13
256.8927246032
23
42.9677449735
0
SOLID
5
227
100
AcDbEntity
8
0
100
AcDbTrace
62
7
6
CONTINUOUS
10
256.8927246032
20
-27.2322550265
11
257.8427246032
21
-30.2322550265
12
258.7927246032
22
-27.2322550265
13
258.7927246032
23
-27.2322550265
0
ENDBLK
5
228
100
AcDbEntity
8
0
100
AcDbBlockEnd
0
BLOCK
5
229
100
AcDbEntity
8
0
100
AcDbBlockBegin
62
7
6
CONTINUOUS
2
*D3
70
65
10
0.0000000000
20
0.0000000000
3
*D3
1

0
TEXT
5
22A
100
AcDbEntity
8
0
100
AcDbText
62
7
6
CONTINUOUS
10
-421.9776919902
20
62.6177449735
7
STANDARD
40
3.0000000000
1
251,5
41
0.6714285714
72
0
100
AcDbText
0
LINE
5
22B
100
AcDbEntity
8
0
100
AcDbLine
62
7
6
CONTINUOUS
10
-289.9765859218
20
8.3677449735
11
-289.9765859218
21
63.3677449735
0
LINE
5
22C
100
AcDbEntity
8
0
100
AcDbLine
62
7
6
CONTINUOUS
10
-541.4765859218
20
48.3677449735
11
-541.4765859218
21
63.3677449735
0
LINE
5
22D
100
AcDbEntity
8
0
100
AcDbLine
62
7
6
CONTINUOUS
10
-289.9765859218
20
61.8677449735
11
-415.7265859218
21
61.8677449735
0
LINE
5
22E
100
AcDbEntity
8
0
100
AcDbLine
62
7
6
CONTINUOUS
10
-541.4765859218
20
61.8677449735
11
-415.7265859218
21
61.8677449735
0
SOLID
5
22F
100
AcDbEntity
8
0
100
AcDbTrace
62
7
6
CONTINUOUS
10
-292.9765859218
20
60.9177449735
11
-289.9765859218
21
61.8677449735
12
-292.9765859218
22
62.8177449735
13
-292.9765859218
23
62.8177449735
0
SOLID
5
230
100
AcDbEntity
8
0
100
AcDbTrace
62
7
6
CONTINUOUS
10
-538.4765859218
20
62.8177449735
11
-541.4765859218
21
61.8677449735
12
-538.4765859218
22
60.9177449735
13
-538.4765859218
23
60.9177449735
0
ENDBLK
5
231
100
AcDbEntity
8
0
100
AcDbBlockEnd
0
ENDSEC
0
SECTION
2
ENTITIES
0
DIMENSION
5
232
100
AcDbEntity
8
0
100
AcDbDimension
62
7
6
CONTINUOUS
2
*D0
10
-234.1572753968
20
62.0958653636
11
14.1048639041
21
64.3458653636
70
160
3
DIMSTYLE_1
100
AcDbAlignedDimension
13
247.8427246032
23
48.3677449735
14
-234.1572753968
24
48.3677449735
50
180.000000
100
AcDbRotatedDimension
0
DIMENSION
5
233
100
AcDbEntity
8
0
100
AcDbDimension
62
7
6
CONTINUOUS
2
*D1
10
267.3677246032
20
-37.6322550265
11
265.1177246032
21
5.4671248289
70
160
3
DIMSTYLE_1
100
AcDbAlignedDimension
13
244.3427246032
23
51.8677449735
14
208.8427246032
24
-37.6322550265
50
270.000000
100
AcDbRotatedDimension
0
DIMENSION
5
234
100
AcDbEntity
8
0
100
AcDbDimension
62
7
6
CONTINUOUS
2
*D2
10
257.8427246032
20
-30.2322550265
11
255.5927246032
21
6.6974958193
70
160
3
DIMSTYLE_1
100
AcDbAlignedDimension
13
241.4927246032
23
45.9677449735
14
241.4927246032
24
-30.2322550265
50
270.000000
100
AcDbRotatedDimension
0
DIMENSION
5
235
100
AcDbEntity
8
0
100
AcDbDimension
62
7
6
CONTINUOUS
2
*D3
10
-541.4765859218
20
61.8677449735
11
-416.9419777045
21
64.1177449735
70
160
3
DIMSTYLE_1
100
AcDbAlignedDimension
13
-289.9765859218
23
8.3677449735
14
-541.4765859218
24
48.3677449735
50
180.000000
100
AcDbRotatedDimension
0
LINE
5
236
100
AcDbEntity
8
0
100
AcDbLine
62
7
6
CONTINUOUS
10
-234.1572753968
20
47.8677449735
11
-234.1572753968
21
-32.1322550265
0
LINE
5
237
100
AcDbEntity
8
0
100
AcDbLine
62
9
6
CONTINUOUS
10
-217.6572753968
20
-35.2547540257
11
-217.6572753968
21
51.8677449735
0
LINE
5
238
100
AcDbEntity
8
0
100
AcDbLine
62
7
6
CONTINUOUS
10
-216.1572753968
20
-32.1322550265
11
-216.1572753968
21
-17.1322550265
0
LINE
5
239
100
AcDbEntity
8
0
100
AcDbLine
62
7
6
CONTINUOUS
10
-215.6572753968
20
-22.1322550265
11
-215.6572753968
21
-17.1322550265
0
LINE
5
23A
100
AcDbEntity
8
0
100
AcDbLine
62
7
6
CONTINUOUS
10
-214.1572753968
20
-22.1322550265
11
-214.1572753968
21
51.8677449735
0
LINE
5
23B
100
AcDbEntity
8
0
100
AcDbLine
62
9
6
CONTINUOUS
10
-211.1572753968
20
-26.6322550265
11
-211.1572753968
21
-25.1322550265
0
LINE
5
23C
100
AcDbEntity
8
0
100
AcDbLine
62
7
6
CONTINUOUS
10
-198.1572753968
20
-34.1322550265
11
-198.1572753968
21
-25.1322550265
0
LINE
5
23D
100
AcDbEntity
8
0
100
AcDbLine
62
7
6
CONTINUOUS
10
-194.6572753968
20
-37.6322550265
11
208.3427246032
21
-37.6322550265
0
LINE
5
23E
100
AcDbEntity
8
0
100
AcDbLine
62
7
6
CONTINUOUS
10
243.8427246032
20
-36.1322550265
11
233.8427246032
21
-36.1322550265
0
LINE
5
23F
100
AcDbEntity
8
0
100
AcDbLine
62
7
6
CONTINUOUS
10
-230.1572753968
20
-36.1322550265
11
-220.1572753968
21
-36.1322550265
0
LINE
5
240
100
AcDbEntity
8
0
100
AcDbLine
62
7
6
CONTINUOUS
10
-227.3072753968
20
-33.7322550265
11
-224.0072753968
21
-33.7322550265
0
LINE
5
241
100
AcDbEntity
8
0
100
AcDbLine
62
7
6
CONTINUOUS
10
237.6927246032
20
-33.7322550265
11
240.9927246032
21
-33.7322550265
0
LINE
5
242
100
AcDbEntity
8
0
100
AcDbLine
62
9
6
CONTINUOUS
10
-198.1572753968
20
-29.6322550265
11
211.8427246032
21
-29.6322550265
0
LINE
5
243
100
AcDbEntity
8
0
100
AcDbLine
62
7
6
CONTINUOUS
10
240.9927246032
20
-26.7322550265
11
237.6927246032
21
-26.7322550265
0
LINE
5
244
100
AcDbEntity
8
0
100
AcDbLine
62
7
6
CONTINUOUS
10
-224.0072753968
20
-26.7322550265
11
-227.3072753968
21
-26.7322550265
0
LINE
5
245
100
AcDbEntity
8
0
100
AcDbLine
62
7
6
CONTINUOUS
10
224.8427246032
20
-26.6322550265
11
211.8427246032
21
-26.6322550265
0
LINE
5
246
100
AcDbEntity
8
0
100
AcDbLine
62
7
6
CONTINUOUS
10
-198.1572753968
20
-26.6322550265
11
-211.1572753968
21
-26.6322550265
0
LINE
5
247
100
AcDbEntity
8
0
100
AcDbLine
62
7
6
CONTINUOUS
10
224.8427246032
20
-25.1322550265
11
-211.1572753968
21
-25.1322550265
0
LINE
5
248
100
AcDbEntity
8
0
100
AcDbLine
62
9
6
CONTINUOUS
10
229.3427246032
20
-22.1322550265
11
227.8427246032
21
-22.1322550265
0
LINE
5
249
100
AcDbEntity
8
0
100
AcDbLine
62
9
6
CONTINUOUS
10
-215.6572753968
20
-22.1322550265
11
-214.1572753968
21
-22.1322550265
0
LINE
5
24A
100
AcDbEntity
8
0
100
AcDbLine
62
9
6
CONTINUOUS
10
-234.1572753968
20
-17.1322550265
11
-217.6572753968
21
-17.1322550265
0
LINE
5
24B
100
AcDbEntity
8
0
100
AcDbLine
62
9
6
CONTINUOUS
10
247.8427246032
20
-17.1322550265
11
231.3427246032
21
-17.1322550265
0
LINE
5
24C
100
AcDbEntity
8
0
100
AcDbLine
62
7
6
CONTINUOUS
10
-214.1572753968
20
-17.1322550265
11
-217.6545267689
21
-17.1322550265
0
LINE
5
24D
100
AcDbEntity
8
0
100
AcDbLine
62
7
6
CONTINUOUS
10
227.8427246032
20
-17.1322550265
11
231.3399759752
21
-17.1322550265
0
LINE
5
24E
100
AcDbEntity
8
0
100
AcDbLine
62
7
6
CONTINUOUS
10
-227.3072753968
20
42.4677449735
11
-224.0072753968
21
42.4677449735
0
LINE
5
24F
100
AcDbEntity
8
0
100
AcDbLine
62
7
6
CONTINUOUS
10
237.6927246032
20
42.4677449735
11
240.9927246032
21
42.4677449735
0
LINE
5
250
100
AcDbEntity
8
0
100
AcDbLine
62
7
6
CONTINUOUS
10
240.9927246032
20
49.4677449735
11
237.6927246032
21
49.4677449735
0
LINE
5
251
100
AcDbEntity
8
0
100
AcDbLine
62
7
6
CONTINUOUS
10
-224.0072753968
20
49.4677449735
11
-227.3072753968
21
49.4677449735
0
LINE
5
252
100
AcDbEntity
8
0
100
AcDbLine
62
7
6
CONTINUOUS
10
-214.1572753968
20
51.8677449735
11
-230.1572753968
21
51.8677449735
0
LINE
5
253
100
AcDbEntity
8
0
100
AcDbLine
62
7
6
CONTINUOUS
10
227.8427246032
20
51.8677449735
11
243.8427246032
21
51.8677449735
0
LINE
5
254
100
AcDbEntity
8
0
100
AcDbLine
62
7
6
CONTINUOUS
10
211.8427246032
20
-34.1322550265
11
211.8427246032
21
-25.1322550265
0
LINE
5
255
100
AcDbEntity
8
0
100
AcDbLine
62
9
6
CONTINUOUS
10
224.8427246032
20
-26.6322550265
11
224.8427246032
21
-25.1322550265
0
LINE
5
256
100
AcDbEntity
8
0
100
AcDbLine
62
7
6
CONTINUOUS
10
227.8427246032
20
51.8677449735
11
227.8427246032
21
-22.1322550265
0
LINE
5
257
100
AcDbEntity
8
0
100
AcDbLine
62
7
6
CONTINUOUS
10
229.3427246032
20
-17.1322550265
11
229.3427246032
21
-22.1322550265
0
LINE
5
258
100
AcDbEntity
8
0
100
AcDbLine
62
7
6
CONTINUOUS
10
229.8427246032
20
-32.1322550265
11
229.8427246032
21
-17.1322550265
0
LINE
5
259
100
AcDbEntity
8
0
100
AcDbLine
62
9
6
CONTINUOUS
10
231.3427246032
20
-35.2547540257
11
231.3427246032
21
51.8677449735
0
LINE
5
25A
100
AcDbEntity
8
0
100
AcDbLine
62
7
6
CONTINUOUS
10
247.8427246032
20
47.8677449735
11
247.8427246032
21
-32.1322550265
0
LINE
5
25B
100
AcDbEntity
8
0
100
AcDbLine
62
7
6
CONTINUOUS
10
-541.4765859218
20
-36.1322550265
11
-541.4765859218
21
51.8677449735
0
LINE
5
25C
100
AcDbEntity
8
0
100
AcDbLine
62
7
6
CONTINUOUS
10
-539.9765859218
20
-37.6322550265
11
-539.9765859218
21
-36.1322550265
0
LINE
5
25D
100
AcDbEntity
8
0
100
AcDbLine
62
7
6
CONTINUOUS
10
-539.9765859218
20
51.8677449735
11
-539.9765859218
21
-36.1322550265
0
LINE
5
25E
100
AcDbEntity
8
0
100
AcDbLine
62
7
6
CONTINUOUS
10
-538.4765859218
20
-29.6322550265
11
-538.4765859218
21
-37.6322550265
0
LINE
5
25F
100
AcDbEntity
8
0
100
AcDbLine
62
9
6
CONTINUOUS
10
-537.9765859218
20
51.8677449735
11
-537.9765859218
21
-17.1322550265
0
LINE
5
260
100
AcDbEntity
8
0
100
AcDbLine
62
9
6
CONTINUOUS
10
-535.4765859218
20
-25.1322550265
11
-535.4765859218
21
-26.6322550265
0
LINE
5
261
100
AcDbEntity
8
0
100
AcDbLine
62
7
6
CONTINUOUS
10
-522.9765859218
20
-17.1322550265
11
-522.9765859218
21
-26.6322550265
0
LINE
5
262
100
AcDbEntity
8
0
100
AcDbLine
62
9
6
CONTINUOUS
10
-522.9765859218
20
-17.1322550265
11
-522.9765859218
21
51.8677449735
0
LINE
5
263
100
AcDbEntity
8
0
100
AcDbLine
62
7
6
CONTINUOUS
10
-291.4765859218
20
-37.6322550265
11
-289.9765859218
21
-37.6322550265
0
LINE
5
264
100
AcDbEntity
8
0
100
AcDbLine
62
7
6
CONTINUOUS
10
-538.4765859218
20
-37.6322550265
11
-539.9765859218
21
-37.6322550265
0
LINE
5
265
100
AcDbEntity
8
0
100
AcDbLine
62
7
6
CONTINUOUS
10
-539.9765859218
20
-36.1322550265
11
-541.4765859218
21
-36.1322550265
0
LINE
5
266
100
AcDbEntity
8
0
100
AcDbLine
62
9
6
CONTINUOUS
10
-291.4765859218
20
-34.1322550265
11
-289.9765859218
21
-34.1322550265
0
LINE
5
267
100
AcDbEntity
8
0
100
AcDbLine
62
9
6
CONTINUOUS
10
-538.4765859218
20
-34.1322550265
11
-539.9765859218
21
-34.1322550265
0
LINE
5
268
100
AcDbEntity
8
0
100
AcDbLine
62
9
6
CONTINUOUS
10
-539.9765859218
20
-32.1322550265
11
-541.4765859218
21
-32.1322550265
0
LINE
5
269
100
AcDbEntity
8
0
100
AcDbLine
62
9
6
CONTINUOUS
10
-539.9765859218
20
-29.6322550265
11
-538.4765859218
21
-29.6322550265
0
LINE
5
26A
100
AcDbEntity
8
0
100
AcDbLine
62
9
6
CONTINUOUS
10
-289.9765859218
20
-29.6322550265
11
-291.4765859218
21
-29.6322550265
0
LINE
5
26B
100
AcDbEntity
8
0
100
AcDbLine
62
7
6
CONTINUOUS
10
-294.4765859218
20
-26.6322550265
11
-535.4765859218
21
-26.6322550265
0
LINE
5
26C
100
AcDbEntity
8
0
100
AcDbLine
62
7
6
CONTINUOUS
10
-535.4765859218
20
-25.1322550265
11
-522.9765859218
21
-25.1322550265
0
LINE
5
26D
100
AcDbEntity
8
0
100
AcDbLine
62
7
6
CONTINUOUS
10
-306.9765859218
20
-25.1322550265
11
-294.4765859218
21
-25.1322550265
0
LINE
5
26E
100
AcDbEntity
8
0
100
AcDbLine
62
9
6
CONTINUOUS
10
-306.9765859218
20
-22.1322550265
11
-522.9765859218
21
-22.1322550265
0
LINE
5
26F
100
AcDbEntity
8
0
100
AcDbLine
62
9
6
CONTINUOUS
10
-541.4765859218
20
-17.1322550265
11
-539.9765859218
21
-17.1322550265
0
LINE
5
270
100
AcDbEntity
8
0
100
AcDbLine
62
7
6
CONTINUOUS
10
-306.9765859218
20
-17.1322550265
11
-289.9765859218
21
-17.1322550265
0
LINE
5
271
100
AcDbEntity
8
0
100
AcDbLine
62
7
6
CONTINUOUS
10
-522.9765859218
20
-17.1322550265
11
-539.9765859218
21
-17.1322550265
0
LINE
5
272
100
AcDbEntity
8
0
100
AcDbLine
62
7
6
CONTINUOUS
10
-289.9765859218
20
7.8677449735
11
-496.9803107389
21
51.8677449735
0
LINE
5
273
100
AcDbEntity
8
0
100
AcDbLine
62
9
6
CONTINUOUS
10
-541.4765859218
20
47.8677449735
11
-539.9765859218
21
47.8677449735
0
LINE
5
274
100
AcDbEntity
8
0
100
AcDbLine
62
7
6
CONTINUOUS
10
-496.9803107389
20
51.8677449735
11
-541.4765859218
21
51.8677449735
0
LINE
5
275
100
AcDbEntity
8
0
100
AcDbLine
62
7
6
CONTINUOUS
10
-306.9765859218
20
-17.1322550265
11
-306.9765859218
21
-26.6322550265
0
LINE
5
276
100
AcDbEntity
8
0
100
AcDbLine
62
9
6
CONTINUOUS
10
-306.9765859218
20
-17.1322550265
11
-306.9765859218
21
11.4812065219
0
LINE
5
277
100
AcDbEntity
8
0
100
AcDbLine
62
9
6
CONTINUOUS
10
-294.4765859218
20
-25.1322550265
11
-294.4765859218
21
-26.6322550265
0
LINE
5
278
100
AcDbEntity
8
0
100
AcDbLine
62
7
6
CONTINUOUS
10
-291.4765859218
20
-29.6322550265
11
-291.4765859218
21
-37.6322550265
0
LINE
5
279
100
AcDbEntity
8
0
100
AcDbLine
62
7
6
CONTINUOUS
10
-289.9765859218
20
7.8677449735
11
-289.9765859218
21
-17.1322550265
0
LINE
5
27A
100
AcDbEntity
8
0
100
AcDbLine
62
7
6
CONTINUOUS
10
-289.9765859218
20
-29.6322550265
11
-289.9765859218
21
-37.6322550265
0
ARC
5
27B
100
AcDbEntity
8
0
100
AcDbCircle
62
7
6
CONTINUOUS
10
-211.1572753968
20
-22.1322550265
40
4.5000000000
100
AcDbArc
50
180.0000000000
51
270.0000000000
0
ARC
5
27C
100
AcDbEntity
8
0
100
AcDbCircle
62
7
6
CONTINUOUS
10
224.8427246032
20
-22.1322550265
40
4.5000000000
100
AcDbArc
50
270.0000000000
51
360.0000000000
0
ARC
5
27D
100
AcDbEntity
8
0
100
AcDbCircle
62
7
6
CONTINUOUS
10
-220.1572753968
20
-32.1322550265
40
4.0000000000
100
AcDbArc
50
308.6821874535
51
360.0000000000
0
ARC
5
27E
100
AcDbEntity
8
0
100
AcDbCircle
62
7
6
CONTINUOUS
10
233.8427246032
20
-32.1322550265
40
4.0000000000
100
AcDbArc
50
180.0000000000
51
231.3178125465
0
ARC
5
27F
100
AcDbEntity
8
0
100
AcDbCircle
62
7
6
CONTINUOUS
10
-194.6572753968
20
-34.1322550265
40
3.5000000000
100
AcDbArc
50
180.0000000000
51
270.0000000000
0
ARC
5
280
100
AcDbEntity
8
0
100
AcDbCircle
62
7
6
CONTINUOUS
10
208.3427246032
20
-34.1322550265
40
3.5000000000
100
AcDbArc
50
270.0000000000
51
360.0000000000
0
ARC
5
281
100
AcDbEntity
8
0
100
AcDbCircle
62
7
6
CONTINUOUS
10
-224.0072753968
20
45.9677449735
40
3.5000000000
100
AcDbArc
50
270.0000000000
51
90.0000000000
0
ARC
5
282
100
AcDbEntity
8
0
100
AcDbCircle
62
7
6
CONTINUOUS
10
-227.3072753968
20
45.9677449735
40
3.5000000000
100
AcDbArc
50
90.0000000000
51
270.0000000000
0
ARC
5
283
100
AcDbEntity
8
0
100
AcDbCircle
62
7
6
CONTINUOUS
10
-230.1572753968
20
47.8677449735
40
4.0000000000
100
AcDbArc
50
90.0000000000
51
180.0000000000
0
ARC
5
284
100
AcDbEntity
8
0
100
AcDbCircle
62
7
6
CONTINUOUS
10
237.6927246032
20
45.9677449735
40
3.5000000000
100
AcDbArc
50
90.0000000000
51
270.0000000000
0
ARC
5
285
100
AcDbEntity
8
0
100
AcDbCircle
62
7
6
CONTINUOUS
10
240.9927246032
20
45.9677449735
40
3.5000000000
100
AcDbArc
50
270.0000000000
51
90.0000000000
0
ARC
5
286
100
AcDbEntity
8
0
100
AcDbCircle
62
7
6
CONTINUOUS
10
243.8427246032
20
47.8677449735
40
4.0000000000
100
AcDbArc
50
0.0000000000
51
90.0000000000
0
ARC
5
287
100
AcDbEntity
8
0
100
AcDbCircle
62
7
6
CONTINUOUS
10
-211.1572753968
20
-22.1322550265
40
3.0000000000
100
AcDbArc
50
180.0000000000
51
270.0000000000
0
ARC
5
288
100
AcDbEntity
8
0
100
AcDbCircle
62
7
6
CONTINUOUS
10
224.8427246032
20
-22.1322550265
40
3.0000000000
100
AcDbArc
50
270.0000000000
51
360.0000000000
0
ARC
5
289
100
AcDbEntity
8
0
100
AcDbCircle
62
7
6
CONTINUOUS
10
-224.0072753968
20
-30.2322550265
40
3.5000000000
100
AcDbArc
50
270.0000000000
51
90.0000000000
0
ARC
5
28A
100
AcDbEntity
8
0
100
AcDbCircle
62
7
6
CONTINUOUS
10
-227.3072753968
20
-30.2322550265
40
3.5000000000
100
AcDbArc
50
90.0000000000
51
270.0000000000
0
ARC
5
28B
100
AcDbEntity
8
0
100
AcDbCircle
62
7
6
CONTINUOUS
10
-220.1572753968
20
-32.1322550265
40
4.0000000000
100
AcDbArc
50
270.0000000000
51
308.6821874535
0
ARC
5
28C
100
AcDbEntity
8
0
100
AcDbCircle
62
7
6
CONTINUOUS
10
-230.1572753968
20
-32.1322550265
40
4.0000000000
100
AcDbArc
50
180.0000000000
51
270.0000000000
0
ARC
5
28D
100
AcDbEntity
8
0
100
AcDbCircle
62
7
6
CONTINUOUS
10
237.6927246032
20
-30.2322550265
40
3.5000000000
100
AcDbArc
50
90.0000000000
51
270.0000000000
0
ARC
5
28E
100
AcDbEntity
8
0
100
AcDbCircle
62
7
6
CONTINUOUS
10
240.9927246032
20
-30.2322550265
40
3.5000000000
100
AcDbArc
50
270.0000000000
51
90.0000000000
0
ARC
5
28F
100
AcDbEntity
8
0
100
AcDbCircle
62
7
6
CONTINUOUS
10
243.8427246032
20
-32.1322550265
40
4.0000000000
100
AcDbArc
50
270.0000000000
51
360.0000000000
0
ARC
5
290
100
AcDbEntity
8
0
100
AcDbCircle
62
7
6
CONTINUOUS
10
233.8427246032
20
-32.1322550265
40
4.0000000000
100
AcDbArc
50
231.3178125465
51
270.0000000000
0
ARC
5
291
100
AcDbEntity
8
0
100
AcDbCircle
62
7
6
CONTINUOUS
10
-294.4765859218
20
-29.6322550265
40
3.0000000000
100
AcDbArc
50
0.0000000000
51
90.0000000000
0
ARC
5
292
100
AcDbEntity
8
0
100
AcDbCircle
62
7
6
CONTINUOUS
10
-535.4765859218
20
-29.6322550265
40
3.0000000000
100
AcDbArc
50
90.0000000000
51
180.0000000000
0
ARC
5
293
100
AcDbEntity
8
0
100
AcDbCircle
62
7
6
CONTINUOUS
10
-294.4765859218
20
-29.6322550265
40
4.5000000000
100
AcDbArc
50
0.0000000000
51
90.0000000000
0
ARC
5
294
100
AcDbEntity
8
0
100
AcDbCircle
62
7
6
CONTINUOUS
10
-535.4765859218
20
-29.6322550265
40
4.5000000000
100
AcDbArc
50
90.0000000000
51
180.0000000000
0
ENDSEC
0
SECTION
2
OBJECTS
0
DICTIONARY
5
295
100
AcDbDictionary
3
ACAD_GROUP
350
296
3
ACAD_MLINESTYLE
350
297
0
DICTIONARY
5
296
102
{ACAD_REACTORS
330
295
102
}
100
AcDbDictionary
0
DICTIONARY
5
297
102
{ACAD_REACTORS
330
295
102
}
100
AcDbDictionary
3
STANDARD
350
298
0
MLINESTYLE
5
298
102
{ACAD_REACTORS
330
297
102
}
100
AcDbMlineStyle
2
STANDARD
70
0
3

62
256
51
90.0
52
90.0
71
2
49
0.5
62
256
6
BYLAYER
49
-0.5
62
256
6
BYLAYER
0
ENDSEC
0
EOF
