0
SECTION
2
HEADER
9
$ACADVER
1
AC1014
9
$HANDSEED
5
       3A4
9
$EXTMAX
10
297.0000000000
20
210.0000000000
9
$EXTMIN
10
0.0000000000
20
0.0000000000
9
$LIMMIN
10
0.0000000000
20
0.0000000000
9
$LIMMAX
10
297.0000000000
20
210.0000000000
9
$VIEWCTR
10
148.5000000000
20
105.0000000000
9
$VIEWSIZE
40
210.0000000000
9
$CLAYER
8
0
9
$LTSCALE
40
16.3350000000
9
$CELTYPE
6
BYLAYER
9
$DIMSCALE
40
1
9
$DIMASZ
40
3.0000000000
9
$DIMEXO
40
1.8562500000
9
$DIMDLI
40
11.2860000000
9
$DIMEXE
40
5.3460000000
9
$DIMCEN
40
2.6730000000
9
$DIMLFAC
40
1.0000000000
9
$DIMTXT
40
3.0000000000
9
$DIMTOL
70
1
9
$DIMLIM
70
0
9
$DIMTFAC
40
1.0000000000
9
$DIMTP
40
0.0100000000
9
$DIMTM
40
0.0100000000
9
$MEASUREMENT
70
1
0
ENDSEC
0
SECTION
2
CLASSES
0
ENDSEC
0
SECTION
2
TABLES
0
TABLE
2
VPORT
5
8
100
AcDbSymbolTable
70
2
0
VPORT
5
1F4
100
AcDbSymbolTableRecord
100
AcDbViewportTableRecord
2
*ACTIVE
70
0
10
0.0
20
0.0
11
1.0
21
1.0
12
148.5000000000
22
105.0000000000
13
0.0
23
0.0
14
1.0
24
1.0
15
0.0
25
0.0
16
0.0
26
0.0
36
1.0
17
0.0
27
0.0
37
0.0
40
210.0000000000
41
1.4142857143
42
50.0
43
0.0
44
0.0
50
0.0
51
0.0
71
0
72
100
73
1
74
1
75
0
76
0
77
0
78
0
0
ENDTAB
0
TABLE
2
LTYPE
5
5
100
AcDbSymbolTable
70
6
0
LTYPE
5
14
100
AcDbSymbolTableRecord
100
AcDbLinetypeTableRecord
2
BYBLOCK
70
0
3

72
65
73
0
40
0.0
0
LTYPE
5
15
100
AcDbSymbolTableRecord
100
AcDbLinetypeTableRecord
2
BYLAYER
70
0
3

72
65
73
0
40
0.0
0
LTYPE
5
16
100
AcDbSymbolTableRecord
100
AcDbLinetypeTableRecord
2
CONTINUOUS
70
64
3
Solid line
72
65
73
0
40
0
0
LTYPE
5
1F5
100
AcDbSymbolTableRecord
100
AcDbLinetypeTableRecord
2
CENTER
70
64
3
____ _ ____ _ ____ _ ____ _ ____ _ ____ _ ____
72
65
73
4
40
0.6
49
0.375
74
0
49
-0.075
74
0
49
0.075
74
0
49
-0.075
74
0
0
LTYPE
5
1F6
100
AcDbSymbolTableRecord
100
AcDbLinetypeTableRecord
2
HIDDEN
70
64
3
- - - - - - - - - - - - - - - - - - - -
72
65
73
2
40
0.2
49
0.1
74
0
49
-0.1
74
0
0
LTYPE
5
1F7
100
AcDbSymbolTableRecord
100
AcDbLinetypeTableRecord
2
PHANTOM
70
64
3
_____ _ _ _____ _ _ _____ _ _ _____
72
65
73
6
40
0.8
49
0.45
74
0
49
-0.05
74
0
49
0.1
74
0
49
-0.05
74
0
49
0.1
74
0
49
-0.05
74
0
0
LTYPE
5
1F8
100
AcDbSymbolTableRecord
100
AcDbLinetypeTableRecord
2
DOT
70
64
3
. . . . . . . . . . . . . . . . . . . .
72
65
73
2
40
0.2
49
0.1
74
0
49
-0.1
74
0
0
LTYPE
5
1F9
100
AcDbSymbolTableRecord
100
AcDbLinetypeTableRecord
2
DASHED
70
64
3
- - - - - - - - - - - - - - - - - - - -
72
65
73
2
40
0.2
49
0.1
74
0
49
-0.1
74
0
0
ENDTAB
0
TABLE
2
LAYER
5
2
100
AcDbSymbolTable
70
36
0
LAYER
5
10
100
AcDbSymbolTableRecord
100
AcDbLayerTableRecord
2
0
70
0
62
7
6
CONTINUOUS
0
LAYER
5
1FA
100
AcDbSymbolTableRecord
100
AcDbLayerTableRecord
2
DEFAULT_1
70
0
62
7
6
CENTER
0
LAYER
5
1FB
100
AcDbSymbolTableRecord
100
AcDbLayerTableRecord
2
DEFAULT_2
70
0
62
8
6
HIDDEN
0
LAYER
5
1FC
100
AcDbSymbolTableRecord
100
AcDbLayerTableRecord
2
DEFAULT_3
70
0
62
7
6
PHANTOM
0
LAYER
5
1FD
100
AcDbSymbolTableRecord
100
AcDbLayerTableRecord
2
ALTRI_PIANI
70
0
62
7
6
CONTINUOUS
0
LAYER
5
1FE
100
AcDbSymbolTableRecord
100
AcDbLayerTableRecord
2
ASSI
70
0
62
7
6
CONTINUOUS
0
LAYER
5
1FF
100
AcDbSymbolTableRecord
100
AcDbLayerTableRecord
2
COORDINATE
70
0
62
7
6
CONTINUOUS
0
LAYER
5
200
100
AcDbSymbolTableRecord
100
AcDbLayerTableRecord
2
COORD_ORIGINE
70
0
62
7
6
CONTINUOUS
0
LAYER
5
201
100
AcDbSymbolTableRecord
100
AcDbLayerTableRecord
2
PIANI
70
0
62
7
6
CONTINUOUS
0
LAYER
5
202
100
AcDbSymbolTableRecord
100
AcDbLayerTableRecord
2
PIANI_ORIGINE
70
0
62
7
6
CONTINUOUS
0
LAYER
5
203
100
AcDbSymbolTableRecord
100
AcDbLayerTableRecord
2
RACCORDO
70
0
62
7
6
CONTINUOUS
0
LAYER
5
204
100
AcDbSymbolTableRecord
100
AcDbLayerTableRecord
2
SNAPLINE
70
0
62
7
6
CONTINUOUS
0
LAYER
5
205
100
AcDbSymbolTableRecord
100
AcDbLayerTableRecord
2
TRASH
70
0
62
7
6
CONTINUOUS
0
ENDTAB
0
TABLE
2
STYLE
5
3
100
AcDbSymbolTable
70
1
0
STYLE
5
11
100
AcDbSymbolTableRecord
100
AcDbTextStyleTableRecord
2
STANDARD
70
0
40
0.0
41
0.8000000000
50
0.0
71
0
42
0.2
3
txt
4

0
ENDTAB
0
TABLE
2
VIEW
5
6
100
AcDbSymbolTable
70
0
0
ENDTAB
0
TABLE
2
UCS
5
7
100
AcDbSymbolTable
70
0
0
ENDTAB
0
TABLE
2
APPID
5
9
100
AcDbSymbolTable
70
1
0
APPID
5
206
100
AcDbSymbolTableRecord
100
AcDbRegAppTableRecord
2
ACAD
70
0
0
ENDTAB
0
TABLE
2
DIMSTYLE
5
A
100
AcDbSymbolTable
70
1
0
DIMSTYLE
105
207
100
AcDbSymbolTableRecord
100
AcDbDimStyleTableRecord
2
STANDARD
70
0
3

4

5

6

7

40
1.0
41
3.0000000000
42
0.0625
43
0.38
44
0.18
45
0.0
46
0.0
47
0.0100000000
48
0.0100000000
140
3.0000000000
141
0.09
142
0.0
143
25.4
144
1.0000000000
145
0.0
146
1.0000000000
147
0.09
71
1
72
0
73
0
74
0
75
0
76
0
77
1
78
8
170
0
171
2
172
0
173
0
174
0
175
0
176
0
177
0
178
0
270
2
271
2
272
2
273
2
274
2
340
11
275
0
280
0
281
0
282
0
283
1
284
8
285
0
286
0
287
3
288
0
0
DIMSTYLE
105
208
100
AcDbSymbolTableRecord
100
AcDbDimStyleTableRecord
2
DIMSTYLE_1
70
0
3

4

5

6

7

40
1.0
41
3.0000000000
42
0.0625
43
0.38
44
0.18
45
0.0
46
0.0
47
0.0000000000
48
0.0000000000
140
3.0000000000
141
0.09
142
0.0
143
25.4
144
1.0000000000
145
0.0
146
1.0000000000
147
0.09
71
0
72
0
73
0
74
0
75
0
76
0
77
1
78
8
170
0
171
2
172
0
173
0
174
0
175
0
176
0
177
0
178
0
270
2
271
2
272
2
273
2
274
2
340
11
275
0
280
0
281
0
282
0
283
1
284
8
285
0
286
0
287
3
288
0
0
ENDTAB
0
TABLE
2
BLOCK_RECORD
5
1
100
AcDbSymbolTable
70
0
0
BLOCK_RECORD
5
1B
100
AcDbSymbolTableRecord
100
AcDbBlockTableRecord
2
*MODEL_SPACE
0
BLOCK_RECORD
5
1C
100
AcDbSymbolTableRecord
100
AcDbBlockTableRecord
2
*PAPER_SPACE
0
BLOCK_RECORD
5
209
100
AcDbSymbolTableRecord
100
AcDbBlockTableRecord
2
*D0
0
BLOCK_RECORD
5
20A
100
AcDbSymbolTableRecord
100
AcDbBlockTableRecord
2
*D1
0
BLOCK_RECORD
5
20B
100
AcDbSymbolTableRecord
100
AcDbBlockTableRecord
2
*D2
0
ENDTAB
0
ENDSEC
0
SECTION
2
BLOCKS
0
BLOCK
5
1E
100
AcDbEntity
8
0
100
AcDbBlockBegin
2
*MODEL_SPACE
70
0
10
0.0
20
0.0
30
0.0
3
*MODEL_SPACE
1

0
ENDBLK
5
1F
100
AcDbEntity
8
0
100
AcDbBlockEnd
0
BLOCK
5
20
100
AcDbEntity
8
0
100
AcDbBlockBegin
2
*PAPER_SPACE
70
0
10
0.0
20
0.0
30
0.0
3
*PAPER_SPACE
1

0
ENDBLK
5
21
100
AcDbEntity
8
0
100
AcDbBlockEnd
0
BLOCK
5
20C
100
AcDbEntity
8
0
100
AcDbBlockBegin
62
7
6
CONTINUOUS
2
*D0
70
65
10
0.0000000000
20
0.0000000000
3
*D0
1

0
TEXT
5
20D
100
AcDbEntity
8
0
100
AcDbText
62
7
6
CONTINUOUS
10
258.5895334069
20
0.7749999478
7
STANDARD
40
3.0000000000
1
62
50
90.0000000000
41
0.7857142857
72
0
100
AcDbText
0
LINE
5
20E
100
AcDbEntity
8
0
100
AcDbLine
62
7
6
CONTINUOUS
10
247.8395334069
20
32.4658334676
11
260.8395334069
21
32.4658334676
0
LINE
5
20F
100
AcDbEntity
8
0
100
AcDbLine
62
7
6
CONTINUOUS
10
247.8395334069
20
-29.5341665324
11
260.8395334069
21
-29.5341665324
0
LINE
5
210
100
AcDbEntity
8
0
100
AcDbLine
62
7
6
CONTINUOUS
10
259.3395334069
20
32.4658334676
11
259.3395334069
21
1.4658334676
0
LINE
5
211
100
AcDbEntity
8
0
100
AcDbLine
62
7
6
CONTINUOUS
10
259.3395334069
20
-29.5341665324
11
259.3395334069
21
1.4658334676
0
SOLID
5
212
100
AcDbEntity
8
0
100
AcDbTrace
62
7
6
CONTINUOUS
10
260.2895334069
20
29.4658334676
11
259.3395334069
21
32.4658334676
12
258.3895334069
22
29.4658334676
13
258.3895334069
23
29.4658334676
0
SOLID
5
213
100
AcDbEntity
8
0
100
AcDbTrace
62
7
6
CONTINUOUS
10
258.3895334069
20
-26.5341665324
11
259.3395334069
21
-29.5341665324
12
260.2895334069
22
-26.5341665324
13
260.2895334069
23
-26.5341665324
0
ENDBLK
5
214
100
AcDbEntity
8
0
100
AcDbBlockEnd
0
BLOCK
5
215
100
AcDbEntity
8
0
100
AcDbBlockBegin
62
7
6
CONTINUOUS
2
*D1
70
65
10
0.0000000000
20
0.0000000000
3
*D1
1

0
TEXT
5
216
100
AcDbEntity
8
0
100
AcDbText
62
7
6
CONTINUOUS
10
-10.4598514228
20
43.2158334676
7
STANDARD
40
3.0000000000
1
500
41
0.7619047619
72
0
100
AcDbText
0
LINE
5
217
100
AcDbEntity
8
0
100
AcDbLine
62
7
6
CONTINUOUS
10
249.3395334069
20
30.9658334676
11
249.3395334069
21
43.9658334676
0
LINE
5
218
100
AcDbEntity
8
0
100
AcDbLine
62
7
6
CONTINUOUS
10
-250.6604665931
20
30.9658334676
11
-250.6604665931
21
43.9658334676
0
LINE
5
219
100
AcDbEntity
8
0
100
AcDbLine
62
7
6
CONTINUOUS
10
249.3395334069
20
42.4658334676
11
-0.6604665931
21
42.4658334676
0
LINE
5
21A
100
AcDbEntity
8
0
100
AcDbLine
62
7
6
CONTINUOUS
10
-250.6604665931
20
42.4658334676
11
-0.6604665931
21
42.4658334676
0
SOLID
5
21B
100
AcDbEntity
8
0
100
AcDbTrace
62
7
6
CONTINUOUS
10
246.3395334069
20
41.5158334676
11
249.3395334069
21
42.4658334676
12
246.3395334069
22
43.4158334676
13
246.3395334069
23
43.4158334676
0
SOLID
5
21C
100
AcDbEntity
8
0
100
AcDbTrace
62
7
6
CONTINUOUS
10
-247.6604665931
20
43.4158334676
11
-250.6604665931
21
42.4658334676
12
-247.6604665931
22
41.5158334676
13
-247.6604665931
23
41.5158334676
0
ENDBLK
5
21D
100
AcDbEntity
8
0
100
AcDbBlockEnd
0
BLOCK
5
21E
100
AcDbEntity
8
0
100
AcDbBlockBegin
62
7
6
CONTINUOUS
2
*D2
70
65
10
0.0000000000
20
0.0000000000
3
*D2
1

0
TEXT
5
21F
100
AcDbEntity
8
0
100
AcDbText
62
7
6
CONTINUOUS
10
-647.9184837746
20
43.2158334676
7
STANDARD
40
3.0000000000
1
705
41
0.7619047619
72
0
100
AcDbText
0
LINE
5
220
100
AcDbEntity
8
0
100
AcDbLine
62
7
6
CONTINUOUS
10
-322.7397233112
20
28.9658334676
11
-322.7397233112
21
43.9658334676
0
LINE
5
221
100
AcDbEntity
8
0
100
AcDbLine
62
7
6
CONTINUOUS
10
-1027.7397233112
20
28.9658334676
11
-1027.7397233112
21
43.9658334676
0
LINE
5
222
100
AcDbEntity
8
0
100
AcDbLine
62
7
6
CONTINUOUS
10
-322.7397233112
20
42.4658334676
11
-675.2397233112
21
42.4658334676
0
LINE
5
223
100
AcDbEntity
8
0
100
AcDbLine
62
7
6
CONTINUOUS
10
-1027.7397233112
20
42.4658334676
11
-675.2397233112
21
42.4658334676
0
SOLID
5
224
100
AcDbEntity
8
0
100
AcDbTrace
62
7
6
CONTINUOUS
10
-325.7397233112
20
41.5158334676
11
-322.7397233112
21
42.4658334676
12
-325.7397233112
22
43.4158334676
13
-325.7397233112
23
43.4158334676
0
SOLID
5
225
100
AcDbEntity
8
0
100
AcDbTrace
62
7
6
CONTINUOUS
10
-1024.7397233112
20
43.4158334676
11
-1027.7397233112
21
42.4658334676
12
-1024.7397233112
22
41.5158334676
13
-1024.7397233112
23
41.5158334676
0
ENDBLK
5
226
100
AcDbEntity
8
0
100
AcDbBlockEnd
0
ENDSEC
0
SECTION
2
ENTITIES
0
DIMENSION
5
227
100
AcDbEntity
8
0
100
AcDbDimension
62
7
6
CONTINUOUS
2
*D0
10
259.3395334069
20
-29.5341665324
11
257.0895334069
21
3.1321428050
70
160
3
DIMSTYLE_1
100
AcDbAlignedDimension
13
247.8395334069
23
32.4658334676
14
247.8395334069
24
-29.5341665324
50
270.000000
100
AcDbRotatedDimension
0
DIMENSION
5
228
100
AcDbEntity
8
0
100
AcDbDimension
62
7
6
CONTINUOUS
2
*D1
10
-250.6604665931
20
42.4658334676
11
-7.0312799942
21
44.7158334676
70
160
3
DIMSTYLE_1
100
AcDbAlignedDimension
13
249.3395334069
23
30.9658334676
14
-250.6604665931
24
30.9658334676
50
180.000000
100
AcDbRotatedDimension
0
DIMENSION
5
229
100
AcDbEntity
8
0
100
AcDbDimension
62
7
6
CONTINUOUS
2
*D2
10
-1027.7397233112
20
42.4658334676
11
-644.4899123460
21
44.7158334676
70
160
3
DIMSTYLE_1
100
AcDbAlignedDimension
13
-322.7397233112
23
28.9658334676
14
-1027.7397233112
24
28.9658334676
50
180.000000
100
AcDbRotatedDimension
0
LINE
5
22A
100
AcDbEntity
8
0
100
AcDbLine
62
7
6
CONTINUOUS
10
-250.6604665931
20
-27.5341665324
11
-250.6604665931
21
30.4658334676
0
LINE
5
22B
100
AcDbEntity
8
0
100
AcDbLine
62
7
6
CONTINUOUS
10
-244.1604665931
20
-25.4341665324
11
-244.1604665931
21
-16.4341665324
0
LINE
5
22C
100
AcDbEntity
8
0
100
AcDbLine
62
7
6
CONTINUOUS
10
-244.1604665931
20
-9.4341665324
11
-244.1604665931
21
-0.4341665324
0
LINE
5
22D
100
AcDbEntity
8
0
100
AcDbLine
62
7
6
CONTINUOUS
10
-244.1604665931
20
3.3658334676
11
-244.1604665931
21
12.3658334676
0
LINE
5
22E
100
AcDbEntity
8
0
100
AcDbLine
62
7
6
CONTINUOUS
10
-244.1604665931
20
19.3658334676
11
-244.1604665931
21
28.3658334676
0
LINE
5
22F
100
AcDbEntity
8
0
100
AcDbLine
62
7
6
CONTINUOUS
10
-243.6604665931
20
-21.5341665324
11
-243.6604665931
21
-16.4341665324
0
LINE
5
230
100
AcDbEntity
8
0
100
AcDbLine
62
7
6
CONTINUOUS
10
-243.6604665931
20
19.3658334676
11
-243.6604665931
21
24.4658334676
0
LINE
5
231
100
AcDbEntity
8
0
100
AcDbLine
62
9
6
CONTINUOUS
10
-243.1604665931
20
27.4658334676
11
-243.1604665931
21
24.9658334676
0
LINE
5
232
100
AcDbEntity
8
0
100
AcDbLine
62
9
6
CONTINUOUS
10
-243.1604665931
20
-24.5341665324
11
-243.1604665931
21
-22.0341665324
0
LINE
5
233
100
AcDbEntity
8
0
100
AcDbLine
62
9
6
CONTINUOUS
10
-238.8604665931
20
28.3658334676
11
-238.8604665931
21
27.4658334676
0
LINE
5
234
100
AcDbEntity
8
0
100
AcDbLine
62
9
6
CONTINUOUS
10
-238.8604665931
20
-25.4341665324
11
-238.8604665931
21
-24.5341665324
0
LINE
5
235
100
AcDbEntity
8
0
100
AcDbLine
62
7
6
CONTINUOUS
10
-235.8604665931
20
28.3658334676
11
-235.8604665931
21
27.4658334676
0
LINE
5
236
100
AcDbEntity
8
0
100
AcDbLine
62
7
6
CONTINUOUS
10
-235.8604665931
20
-25.4341665324
11
-235.8604665931
21
-24.5341665324
0
LINE
5
237
100
AcDbEntity
8
0
100
AcDbLine
62
7
6
CONTINUOUS
10
-235.1604665931
20
28.3658334676
11
-235.1604665931
21
19.3658334676
0
LINE
5
238
100
AcDbEntity
8
0
100
AcDbLine
62
7
6
CONTINUOUS
10
-235.1604665931
20
12.3658334676
11
-235.1604665931
21
3.3658334676
0
LINE
5
239
100
AcDbEntity
8
0
100
AcDbLine
62
7
6
CONTINUOUS
10
-235.1604665931
20
-0.4341665324
11
-235.1604665931
21
-9.4341665324
0
LINE
5
23A
100
AcDbEntity
8
0
100
AcDbLine
62
7
6
CONTINUOUS
10
-235.1604665931
20
-16.4341665324
11
-235.1604665931
21
-25.4341665324
0
LINE
5
23B
100
AcDbEntity
8
0
100
AcDbLine
62
7
6
CONTINUOUS
10
-229.0604665931
20
30.4658334676
11
-229.0604665931
21
24.4658334676
0
LINE
5
23C
100
AcDbEntity
8
0
100
AcDbLine
62
7
6
CONTINUOUS
10
-229.0604665931
20
-27.5341665324
11
-229.0604665931
21
-21.5341665324
0
LINE
5
23D
100
AcDbEntity
8
0
100
AcDbLine
62
9
6
CONTINUOUS
10
-226.1604665931
20
27.4658334676
11
-226.1604665931
21
24.9658334676
0
LINE
5
23E
100
AcDbEntity
8
0
100
AcDbLine
62
9
6
CONTINUOUS
10
-226.1604665931
20
-24.5341665324
11
-226.1604665931
21
-22.0341665324
0
LINE
5
23F
100
AcDbEntity
8
0
100
AcDbLine
62
9
6
CONTINUOUS
10
-226.1604665931
20
-21.5341665324
11
-226.1604665931
21
24.4658334676
0
LINE
5
240
100
AcDbEntity
8
0
100
AcDbLine
62
7
6
CONTINUOUS
10
-223.1604665931
20
-21.5341665324
11
-223.1604665931
21
24.4658334676
0
LINE
5
241
100
AcDbEntity
8
0
100
AcDbLine
62
7
6
CONTINUOUS
10
-221.1604665931
20
-17.2667779103
11
-221.1604665931
21
20.1984448455
0
LINE
5
242
100
AcDbEntity
8
0
100
AcDbLine
62
9
6
CONTINUOUS
10
-218.6604665931
20
30.9658334676
11
-218.6604665931
21
29.4658334676
0
LINE
5
243
100
AcDbEntity
8
0
100
AcDbLine
62
9
6
CONTINUOUS
10
-218.6604665931
20
26.9658334676
11
-218.6604665931
21
28.4658334676
0
LINE
5
244
100
AcDbEntity
8
0
100
AcDbLine
62
7
6
CONTINUOUS
10
-215.6604665931
20
-29.0341665324
11
-215.6604665931
21
30.9658334676
0
LINE
5
245
100
AcDbEntity
8
0
100
AcDbLine
62
7
6
CONTINUOUS
10
-178.1604665931
20
-1.0341665324
11
-178.1604665931
21
0.9658334676
0
LINE
5
246
100
AcDbEntity
8
0
100
AcDbLine
62
9
6
CONTINUOUS
10
-221.6604665931
20
-19.8648541217
11
-220.6604665931
21
-18.1328033141
0
LINE
5
247
100
AcDbEntity
8
0
100
AcDbLine
62
9
6
CONTINUOUS
10
-221.6604665931
20
22.7965210569
11
-220.6604665931
21
21.0644702493
0
LINE
5
248
100
AcDbEntity
8
0
100
AcDbLine
62
7
6
CONTINUOUS
10
-200.6604665931
20
-29.0341665324
11
-180.6604665931
21
0.9658334676
0
LINE
5
249
100
AcDbEntity
8
0
100
AcDbLine
62
7
6
CONTINUOUS
10
-221.6604665931
20
22.7965210569
11
-215.6604665931
21
26.2606226720
0
LINE
5
24A
100
AcDbEntity
8
0
100
AcDbLine
62
7
6
CONTINUOUS
10
-220.6604665931
20
21.0644702493
11
-215.6604665931
21
23.9512215952
0
LINE
5
24B
100
AcDbEntity
8
0
100
AcDbLine
62
7
6
CONTINUOUS
10
-215.6604665931
20
-23.3289557368
11
-221.6604665931
21
-19.8648541217
0
LINE
5
24C
100
AcDbEntity
8
0
100
AcDbLine
62
7
6
CONTINUOUS
10
-215.6604665931
20
-21.0195546601
11
-220.6604665931
21
-18.1328033141
0
LINE
5
24D
100
AcDbEntity
8
0
100
AcDbLine
62
7
6
CONTINUOUS
10
229.7395334069
20
-29.5341665324
11
247.3395334069
21
-29.5341665324
0
LINE
5
24E
100
AcDbEntity
8
0
100
AcDbLine
62
7
6
CONTINUOUS
10
-231.0604665931
20
-29.5341665324
11
-248.6604665931
21
-29.5341665324
0
LINE
5
24F
100
AcDbEntity
8
0
100
AcDbLine
62
7
6
CONTINUOUS
10
-215.6604665931
20
-29.0341665324
11
-200.6604665931
21
-29.0341665324
0
LINE
5
250
100
AcDbEntity
8
0
100
AcDbLine
62
7
6
CONTINUOUS
10
199.3395334069
20
-29.0341665324
11
214.3395334069
21
-29.0341665324
0
LINE
5
251
100
AcDbEntity
8
0
100
AcDbLine
62
7
6
CONTINUOUS
10
242.8395334069
20
-25.4341665324
11
233.8395334069
21
-25.4341665324
0
LINE
5
252
100
AcDbEntity
8
0
100
AcDbLine
62
7
6
CONTINUOUS
10
-235.1604665931
20
-25.4341665324
11
-244.1604665931
21
-25.4341665324
0
LINE
5
253
100
AcDbEntity
8
0
100
AcDbLine
62
7
6
CONTINUOUS
10
-235.8604665931
20
-25.2341665324
11
-235.1604665931
21
-25.2341665324
0
LINE
5
254
100
AcDbEntity
8
0
100
AcDbLine
62
7
6
CONTINUOUS
10
233.8395334069
20
-25.2341665324
11
234.5395334069
21
-25.2341665324
0
LINE
5
255
100
AcDbEntity
8
0
100
AcDbLine
62
7
6
CONTINUOUS
10
-244.1604665931
20
-24.5341665324
11
-235.8604665931
21
-24.5341665324
0
LINE
5
256
100
AcDbEntity
8
0
100
AcDbLine
62
7
6
CONTINUOUS
10
234.5395334069
20
-24.5341665324
11
233.8395334069
21
-24.5341665324
0
LINE
5
257
100
AcDbEntity
8
0
100
AcDbLine
62
7
6
CONTINUOUS
10
227.7395334069
20
-24.5341665324
11
224.8395334069
21
-24.5341665324
0
LINE
5
258
100
AcDbEntity
8
0
100
AcDbLine
62
7
6
CONTINUOUS
10
-226.1604665931
20
-24.5341665324
11
-229.0604665931
21
-24.5341665324
0
LINE
5
259
100
AcDbEntity
8
0
100
AcDbLine
62
7
6
CONTINUOUS
10
-235.1604665931
20
-24.5341665324
11
-235.8604665931
21
-24.5341665324
0
LINE
5
25A
100
AcDbEntity
8
0
100
AcDbLine
62
7
6
CONTINUOUS
10
234.5395334069
20
-24.5341665324
11
242.8395334069
21
-24.5341665324
0
LINE
5
25B
100
AcDbEntity
8
0
100
AcDbLine
62
7
6
CONTINUOUS
10
241.8395334069
20
-22.0341665324
11
233.8395334069
21
-22.0341665324
0
LINE
5
25C
100
AcDbEntity
8
0
100
AcDbLine
62
7
6
CONTINUOUS
10
227.7395334069
20
-22.0341665324
11
224.8395334069
21
-22.0341665324
0
LINE
5
25D
100
AcDbEntity
8
0
100
AcDbLine
62
7
6
CONTINUOUS
10
-226.1604665931
20
-22.0341665324
11
-229.0604665931
21
-22.0341665324
0
LINE
5
25E
100
AcDbEntity
8
0
100
AcDbLine
62
7
6
CONTINUOUS
10
-235.1604665931
20
-22.0341665324
11
-243.1604665931
21
-22.0341665324
0
LINE
5
25F
100
AcDbEntity
8
0
100
AcDbLine
62
9
6
CONTINUOUS
10
-244.1604665931
20
-21.5341665324
11
-243.6604665931
21
-21.5341665324
0
LINE
5
260
100
AcDbEntity
8
0
100
AcDbLine
62
9
6
CONTINUOUS
10
242.8395334069
20
-21.5341665324
11
242.3395334069
21
-21.5341665324
0
LINE
5
261
100
AcDbEntity
8
0
100
AcDbLine
62
7
6
CONTINUOUS
10
221.8395334069
20
-21.5341665324
11
227.7395334069
21
-21.5341665324
0
LINE
5
262
100
AcDbEntity
8
0
100
AcDbLine
62
7
6
CONTINUOUS
10
-223.1604665931
20
-21.5341665324
11
-229.0604665931
21
-21.5341665324
0
LINE
5
263
100
AcDbEntity
8
0
100
AcDbLine
62
9
6
CONTINUOUS
10
-223.1604665931
20
-17.2667779103
11
-221.1604665931
21
-17.2667779103
0
LINE
5
264
100
AcDbEntity
8
0
100
AcDbLine
62
9
6
CONTINUOUS
10
221.8395334069
20
-17.2667779103
11
219.8395334069
21
-17.2667779103
0
LINE
5
265
100
AcDbEntity
8
0
100
AcDbLine
62
7
6
CONTINUOUS
10
-244.1604665931
20
-16.4341665324
11
-235.1604665931
21
-16.4341665324
0
LINE
5
266
100
AcDbEntity
8
0
100
AcDbLine
62
7
6
CONTINUOUS
10
233.8395334069
20
-16.4341665324
11
242.8395334069
21
-16.4341665324
0
LINE
5
267
100
AcDbEntity
8
0
100
AcDbLine
62
7
6
CONTINUOUS
10
242.8395334069
20
-9.4341665324
11
233.8395334069
21
-9.4341665324
0
LINE
5
268
100
AcDbEntity
8
0
100
AcDbLine
62
7
6
CONTINUOUS
10
-235.1604665931
20
-9.4341665324
11
-244.1604665931
21
-9.4341665324
0
LINE
5
269
100
AcDbEntity
8
0
100
AcDbLine
62
7
6
CONTINUOUS
10
-221.1604665931
20
-7.1841665324
11
-215.6604665931
21
-7.1841665324
0
LINE
5
26A
100
AcDbEntity
8
0
100
AcDbLine
62
7
6
CONTINUOUS
10
219.8395334069
20
-7.1841665324
11
214.3395334069
21
-7.1841665324
0
LINE
5
26B
100
AcDbEntity
8
0
100
AcDbLine
62
9
6
CONTINUOUS
10
-221.1604665931
20
-6.2080980416
11
-215.6604665931
21
-6.2080980416
0
LINE
5
26C
100
AcDbEntity
8
0
100
AcDbLine
62
9
6
CONTINUOUS
10
219.8395334069
20
-6.2080980416
11
214.3395334069
21
-6.2080980416
0
LINE
5
26D
100
AcDbEntity
8
0
100
AcDbLine
62
7
6
CONTINUOUS
10
-221.1604665931
20
-5.3899011254
11
-215.6604665931
21
-5.3899011254
0
LINE
5
26E
100
AcDbEntity
8
0
100
AcDbLine
62
7
6
CONTINUOUS
10
219.8395334069
20
-5.3899011254
11
214.3395334069
21
-5.3899011254
0
LINE
5
26F
100
AcDbEntity
8
0
100
AcDbLine
62
7
6
CONTINUOUS
10
-184.6604665931
20
-5.0341665324
11
183.3395334069
21
-5.0341665324
0
LINE
5
270
100
AcDbEntity
8
0
100
AcDbLine
62
7
6
CONTINUOUS
10
-221.1604665931
20
-4.1764321720
11
-215.6604665931
21
-4.1764321720
0
LINE
5
271
100
AcDbEntity
8
0
100
AcDbLine
62
7
6
CONTINUOUS
10
219.8395334069
20
-4.1764321720
11
214.3395334069
21
-4.1764321720
0
LINE
5
272
100
AcDbEntity
8
0
100
AcDbLine
62
7
6
CONTINUOUS
10
-221.1604665931
20
-1.4802369092
11
-215.6604665931
21
-1.4802369092
0
LINE
5
273
100
AcDbEntity
8
0
100
AcDbLine
62
7
6
CONTINUOUS
10
219.8395334069
20
-1.4802369092
11
214.3395334069
21
-1.4802369092
0
LINE
5
274
100
AcDbEntity
8
0
100
AcDbLine
62
7
6
CONTINUOUS
10
-178.1604665931
20
-1.0341665324
11
176.8395334069
21
-1.0341665324
0
LINE
5
275
100
AcDbEntity
8
0
100
AcDbLine
62
7
6
CONTINUOUS
10
242.8395334069
20
-0.5341665324
11
233.8395334069
21
-0.5341665324
0
LINE
5
276
100
AcDbEntity
8
0
100
AcDbLine
62
7
6
CONTINUOUS
10
-235.1604665931
20
-0.5341665324
11
-244.1604665931
21
-0.5341665324
0
LINE
5
277
100
AcDbEntity
8
0
100
AcDbLine
62
7
6
CONTINUOUS
10
-244.1604665931
20
-0.4341665324
11
-235.1604665931
21
-0.4341665324
0
LINE
5
278
100
AcDbEntity
8
0
100
AcDbLine
62
7
6
CONTINUOUS
10
233.8395334069
20
-0.4341665324
11
242.8395334069
21
-0.4341665324
0
LINE
5
279
100
AcDbEntity
8
0
100
AcDbLine
62
9
6
CONTINUOUS
10
-221.1604665931
20
0.3419019584
11
-215.6604665931
21
0.3419019584
0
LINE
5
27A
100
AcDbEntity
8
0
100
AcDbLine
62
9
6
CONTINUOUS
10
219.8395334069
20
0.3419019584
11
214.3395334069
21
0.3419019584
0
LINE
5
27B
100
AcDbEntity
8
0
100
AcDbLine
62
7
6
CONTINUOUS
10
-221.1604665931
20
0.4619863495
11
-215.6604665931
21
0.4619863495
0
LINE
5
27C
100
AcDbEntity
8
0
100
AcDbLine
62
7
6
CONTINUOUS
10
219.8395334069
20
0.4619863495
11
214.3395334069
21
0.4619863495
0
LINE
5
27D
100
AcDbEntity
8
0
100
AcDbLine
62
7
6
CONTINUOUS
10
-180.6604665931
20
0.9658334676
11
-178.1604665931
21
0.9658334676
0
LINE
5
27E
100
AcDbEntity
8
0
100
AcDbLine
62
9
6
CONTINUOUS
10
-178.1604665931
20
0.9658334676
11
176.8395334069
21
0.9658334676
0
LINE
5
27F
100
AcDbEntity
8
0
100
AcDbLine
62
7
6
CONTINUOUS
10
176.8395334069
20
0.9658334676
11
179.3395334069
21
0.9658334676
0
LINE
5
280
100
AcDbEntity
8
0
100
AcDbLine
62
7
6
CONTINUOUS
10
-221.1604665931
20
2.4696805857
11
-215.6604665931
21
2.4696805857
0
LINE
5
281
100
AcDbEntity
8
0
100
AcDbLine
62
7
6
CONTINUOUS
10
219.8395334069
20
2.4696805857
11
214.3395334069
21
2.4696805857
0
LINE
5
282
100
AcDbEntity
8
0
100
AcDbLine
62
9
6
CONTINUOUS
10
-221.1604665931
20
2.5897649768
11
-215.6604665931
21
2.5897649768
0
LINE
5
283
100
AcDbEntity
8
0
100
AcDbLine
62
9
6
CONTINUOUS
10
219.8395334069
20
2.5897649768
11
214.3395334069
21
2.5897649768
0
LINE
5
284
100
AcDbEntity
8
0
100
AcDbLine
62
7
6
CONTINUOUS
10
242.8395334069
20
3.3658334676
11
233.8395334069
21
3.3658334676
0
LINE
5
285
100
AcDbEntity
8
0
100
AcDbLine
62
7
6
CONTINUOUS
10
-235.1604665931
20
3.3658334676
11
-244.1604665931
21
3.3658334676
0
LINE
5
286
100
AcDbEntity
8
0
100
AcDbLine
62
7
6
CONTINUOUS
10
-244.1604665931
20
3.4658334676
11
-235.1604665931
21
3.4658334676
0
LINE
5
287
100
AcDbEntity
8
0
100
AcDbLine
62
7
6
CONTINUOUS
10
233.8395334069
20
3.4658334676
11
242.8395334069
21
3.4658334676
0
LINE
5
288
100
AcDbEntity
8
0
100
AcDbLine
62
7
6
CONTINUOUS
10
-221.1604665931
20
4.4119038444
11
-215.6604665931
21
4.4119038444
0
LINE
5
289
100
AcDbEntity
8
0
100
AcDbLine
62
7
6
CONTINUOUS
10
219.8395334069
20
4.4119038444
11
214.3395334069
21
4.4119038444
0
LINE
5
28A
100
AcDbEntity
8
0
100
AcDbLine
62
7
6
CONTINUOUS
10
-221.1604665931
20
7.1080991072
11
-215.6604665931
21
7.1080991072
0
LINE
5
28B
100
AcDbEntity
8
0
100
AcDbLine
62
7
6
CONTINUOUS
10
219.8395334069
20
7.1080991072
11
214.3395334069
21
7.1080991072
0
LINE
5
28C
100
AcDbEntity
8
0
100
AcDbLine
62
7
6
CONTINUOUS
10
-221.1604665931
20
8.3215680605
11
-215.6604665931
21
8.3215680605
0
LINE
5
28D
100
AcDbEntity
8
0
100
AcDbLine
62
7
6
CONTINUOUS
10
219.8395334069
20
8.3215680605
11
214.3395334069
21
8.3215680605
0
LINE
5
28E
100
AcDbEntity
8
0
100
AcDbLine
62
9
6
CONTINUOUS
10
-221.1604665931
20
9.1397649768
11
-215.6604665931
21
9.1397649768
0
LINE
5
28F
100
AcDbEntity
8
0
100
AcDbLine
62
9
6
CONTINUOUS
10
219.8395334069
20
9.1397649768
11
214.3395334069
21
9.1397649768
0
LINE
5
290
100
AcDbEntity
8
0
100
AcDbLine
62
7
6
CONTINUOUS
10
-221.1604665931
20
10.1158334676
11
-215.6604665931
21
10.1158334676
0
LINE
5
291
100
AcDbEntity
8
0
100
AcDbLine
62
7
6
CONTINUOUS
10
219.8395334069
20
10.1158334676
11
214.3395334069
21
10.1158334676
0
LINE
5
292
100
AcDbEntity
8
0
100
AcDbLine
62
7
6
CONTINUOUS
10
-244.1604665931
20
12.3658334676
11
-235.1604665931
21
12.3658334676
0
LINE
5
293
100
AcDbEntity
8
0
100
AcDbLine
62
7
6
CONTINUOUS
10
233.8395334069
20
12.3658334676
11
242.8395334069
21
12.3658334676
0
LINE
5
294
100
AcDbEntity
8
0
100
AcDbLine
62
7
6
CONTINUOUS
10
242.8395334069
20
19.3658334676
11
233.8395334069
21
19.3658334676
0
LINE
5
295
100
AcDbEntity
8
0
100
AcDbLine
62
7
6
CONTINUOUS
10
-235.1604665931
20
19.3658334676
11
-244.1604665931
21
19.3658334676
0
LINE
5
296
100
AcDbEntity
8
0
100
AcDbLine
62
9
6
CONTINUOUS
10
-223.1604665931
20
20.1984448455
11
-221.1604665931
21
20.1984448455
0
LINE
5
297
100
AcDbEntity
8
0
100
AcDbLine
62
9
6
CONTINUOUS
10
221.8395334069
20
20.1984448455
11
219.8395334069
21
20.1984448455
0
LINE
5
298
100
AcDbEntity
8
0
100
AcDbLine
62
9
6
CONTINUOUS
10
-244.1604665931
20
24.4658334676
11
-243.6604665931
21
24.4658334676
0
LINE
5
299
100
AcDbEntity
8
0
100
AcDbLine
62
9
6
CONTINUOUS
10
242.8395334069
20
24.4658334676
11
242.3395334069
21
24.4658334676
0
LINE
5
29A
100
AcDbEntity
8
0
100
AcDbLine
62
7
6
CONTINUOUS
10
221.8395334069
20
24.4658334676
11
227.7395334069
21
24.4658334676
0
LINE
5
29B
100
AcDbEntity
8
0
100
AcDbLine
62
7
6
CONTINUOUS
10
-223.1604665931
20
24.4658334676
11
-229.0604665931
21
24.4658334676
0
LINE
5
29C
100
AcDbEntity
8
0
100
AcDbLine
62
7
6
CONTINUOUS
10
-243.1604665931
20
24.9658334676
11
-235.1604665931
21
24.9658334676
0
LINE
5
29D
100
AcDbEntity
8
0
100
AcDbLine
62
7
6
CONTINUOUS
10
-229.0604665931
20
24.9658334676
11
-226.1604665931
21
24.9658334676
0
LINE
5
29E
100
AcDbEntity
8
0
100
AcDbLine
62
7
6
CONTINUOUS
10
224.8395334069
20
24.9658334676
11
227.7395334069
21
24.9658334676
0
LINE
5
29F
100
AcDbEntity
8
0
100
AcDbLine
62
7
6
CONTINUOUS
10
233.8395334069
20
24.9658334676
11
241.8395334069
21
24.9658334676
0
LINE
5
2A0
100
AcDbEntity
8
0
100
AcDbLine
62
7
6
CONTINUOUS
10
-218.6604665931
20
26.9658334676
11
-215.6604665931
21
26.9658334676
0
LINE
5
2A1
100
AcDbEntity
8
0
100
AcDbLine
62
7
6
CONTINUOUS
10
217.3395334069
20
26.9658334676
11
214.3395334069
21
26.9658334676
0
LINE
5
2A2
100
AcDbEntity
8
0
100
AcDbLine
62
7
6
CONTINUOUS
10
-235.8604665931
20
27.4658334676
11
-235.1604665931
21
27.4658334676
0
LINE
5
2A3
100
AcDbEntity
8
0
100
AcDbLine
62
7
6
CONTINUOUS
10
242.8395334069
20
27.4658334676
11
234.5395334069
21
27.4658334676
0
LINE
5
2A4
100
AcDbEntity
8
0
100
AcDbLine
62
7
6
CONTINUOUS
10
-229.0604665931
20
27.4658334676
11
-226.1604665931
21
27.4658334676
0
LINE
5
2A5
100
AcDbEntity
8
0
100
AcDbLine
62
7
6
CONTINUOUS
10
224.8395334069
20
27.4658334676
11
227.7395334069
21
27.4658334676
0
LINE
5
2A6
100
AcDbEntity
8
0
100
AcDbLine
62
7
6
CONTINUOUS
10
233.8395334069
20
27.4658334676
11
234.5395334069
21
27.4658334676
0
LINE
5
2A7
100
AcDbEntity
8
0
100
AcDbLine
62
7
6
CONTINUOUS
10
-235.8604665931
20
27.4658334676
11
-244.1604665931
21
27.4658334676
0
LINE
5
2A8
100
AcDbEntity
8
0
100
AcDbLine
62
7
6
CONTINUOUS
10
234.5395334069
20
28.1658334676
11
233.8395334069
21
28.1658334676
0
LINE
5
2A9
100
AcDbEntity
8
0
100
AcDbLine
62
7
6
CONTINUOUS
10
-235.1604665931
20
28.1658334676
11
-235.8604665931
21
28.1658334676
0
LINE
5
2AA
100
AcDbEntity
8
0
100
AcDbLine
62
7
6
CONTINUOUS
10
-244.1604665931
20
28.3658334676
11
-235.1604665931
21
28.3658334676
0
LINE
5
2AB
100
AcDbEntity
8
0
100
AcDbLine
62
7
6
CONTINUOUS
10
233.8395334069
20
28.3658334676
11
242.8395334069
21
28.3658334676
0
LINE
5
2AC
100
AcDbEntity
8
0
100
AcDbLine
62
7
6
CONTINUOUS
10
-218.6604665931
20
28.4658334676
11
-215.6604665931
21
28.4658334676
0
LINE
5
2AD
100
AcDbEntity
8
0
100
AcDbLine
62
9
6
CONTINUOUS
10
-215.6604665931
20
28.4658334676
11
214.3395334069
21
28.4658334676
0
LINE
5
2AE
100
AcDbEntity
8
0
100
AcDbLine
62
7
6
CONTINUOUS
10
217.3395334069
20
28.4658334676
11
214.3395334069
21
28.4658334676
0
LINE
5
2AF
100
AcDbEntity
8
0
100
AcDbLine
62
9
6
CONTINUOUS
10
-220.6604665931
20
28.9658334676
11
-219.1604665931
21
28.9658334676
0
LINE
5
2B0
100
AcDbEntity
8
0
100
AcDbLine
62
9
6
CONTINUOUS
10
219.3395334069
20
28.9658334676
11
217.8395334069
21
28.9658334676
0
LINE
5
2B1
100
AcDbEntity
8
0
100
AcDbLine
62
7
6
CONTINUOUS
10
-218.6604665931
20
29.4658334676
11
-215.6604665931
21
29.4658334676
0
LINE
5
2B2
100
AcDbEntity
8
0
100
AcDbLine
62
7
6
CONTINUOUS
10
217.3395334069
20
29.4658334676
11
214.3395334069
21
29.4658334676
0
LINE
5
2B3
100
AcDbEntity
8
0
100
AcDbLine
62
7
6
CONTINUOUS
10
217.3395334069
20
30.9658334676
11
-218.6604665931
21
30.9658334676
0
LINE
5
2B4
100
AcDbEntity
8
0
100
AcDbLine
62
7
6
CONTINUOUS
10
229.7395334069
20
32.4658334676
11
247.3395334069
21
32.4658334676
0
LINE
5
2B5
100
AcDbEntity
8
0
100
AcDbLine
62
7
6
CONTINUOUS
10
-231.0604665931
20
32.4658334676
11
-248.6604665931
21
32.4658334676
0
LINE
5
2B6
100
AcDbEntity
8
0
100
AcDbLine
62
7
6
CONTINUOUS
10
219.3395334069
20
-18.1328033141
11
214.3395334069
21
-21.0195546601
0
LINE
5
2B7
100
AcDbEntity
8
0
100
AcDbLine
62
7
6
CONTINUOUS
10
220.3395334069
20
-19.8648541217
11
214.3395334069
21
-23.3289557368
0
LINE
5
2B8
100
AcDbEntity
8
0
100
AcDbLine
62
7
6
CONTINUOUS
10
214.3395334069
20
23.9512215952
11
219.3395334069
21
21.0644702493
0
LINE
5
2B9
100
AcDbEntity
8
0
100
AcDbLine
62
7
6
CONTINUOUS
10
214.3395334069
20
26.2606226720
11
220.3395334069
21
22.7965210569
0
LINE
5
2BA
100
AcDbEntity
8
0
100
AcDbLine
62
7
6
CONTINUOUS
10
179.3395334069
20
0.9658334676
11
199.3395334069
21
-29.0341665324
0
LINE
5
2BB
100
AcDbEntity
8
0
100
AcDbLine
62
7
6
CONTINUOUS
10
176.8395334069
20
-1.0341665324
11
176.8395334069
21
0.9658334676
0
LINE
5
2BC
100
AcDbEntity
8
0
100
AcDbLine
62
9
6
CONTINUOUS
10
220.3395334069
20
22.7965210569
11
219.3395334069
21
21.0644702493
0
LINE
5
2BD
100
AcDbEntity
8
0
100
AcDbLine
62
9
6
CONTINUOUS
10
220.3395334069
20
-19.8648541217
11
219.3395334069
21
-18.1328033141
0
LINE
5
2BE
100
AcDbEntity
8
0
100
AcDbLine
62
7
6
CONTINUOUS
10
214.3395334069
20
-29.0341665324
11
214.3395334069
21
30.9658334676
0
LINE
5
2BF
100
AcDbEntity
8
0
100
AcDbLine
62
9
6
CONTINUOUS
10
217.3395334069
20
30.9658334676
11
217.3395334069
21
29.4658334676
0
LINE
5
2C0
100
AcDbEntity
8
0
100
AcDbLine
62
9
6
CONTINUOUS
10
217.3395334069
20
26.9658334676
11
217.3395334069
21
28.4658334676
0
LINE
5
2C1
100
AcDbEntity
8
0
100
AcDbLine
62
7
6
CONTINUOUS
10
219.8395334069
20
20.1984448455
11
219.8395334069
21
-17.2667779103
0
LINE
5
2C2
100
AcDbEntity
8
0
100
AcDbLine
62
7
6
CONTINUOUS
10
221.8395334069
20
24.4658334676
11
221.8395334069
21
-21.5341665324
0
LINE
5
2C3
100
AcDbEntity
8
0
100
AcDbLine
62
9
6
CONTINUOUS
10
224.8395334069
20
27.4658334676
11
224.8395334069
21
24.9658334676
0
LINE
5
2C4
100
AcDbEntity
8
0
100
AcDbLine
62
9
6
CONTINUOUS
10
224.8395334069
20
24.4658334676
11
224.8395334069
21
-21.5341665324
0
LINE
5
2C5
100
AcDbEntity
8
0
100
AcDbLine
62
9
6
CONTINUOUS
10
224.8395334069
20
-24.5341665324
11
224.8395334069
21
-22.0341665324
0
LINE
5
2C6
100
AcDbEntity
8
0
100
AcDbLine
62
7
6
CONTINUOUS
10
227.7395334069
20
30.4658334676
11
227.7395334069
21
24.4658334676
0
LINE
5
2C7
100
AcDbEntity
8
0
100
AcDbLine
62
7
6
CONTINUOUS
10
227.7395334069
20
-27.5341665324
11
227.7395334069
21
-21.5341665324
0
LINE
5
2C8
100
AcDbEntity
8
0
100
AcDbLine
62
7
6
CONTINUOUS
10
233.8395334069
20
-25.4341665324
11
233.8395334069
21
-16.4341665324
0
LINE
5
2C9
100
AcDbEntity
8
0
100
AcDbLine
62
7
6
CONTINUOUS
10
233.8395334069
20
-9.4341665324
11
233.8395334069
21
-0.4341665324
0
LINE
5
2CA
100
AcDbEntity
8
0
100
AcDbLine
62
7
6
CONTINUOUS
10
233.8395334069
20
3.3658334676
11
233.8395334069
21
12.3658334676
0
LINE
5
2CB
100
AcDbEntity
8
0
100
AcDbLine
62
7
6
CONTINUOUS
10
233.8395334069
20
19.3658334676
11
233.8395334069
21
28.3658334676
0
LINE
5
2CC
100
AcDbEntity
8
0
100
AcDbLine
62
7
6
CONTINUOUS
10
234.5395334069
20
28.3658334676
11
234.5395334069
21
27.4658334676
0
LINE
5
2CD
100
AcDbEntity
8
0
100
AcDbLine
62
7
6
CONTINUOUS
10
234.5395334069
20
-25.4341665324
11
234.5395334069
21
-24.5341665324
0
LINE
5
2CE
100
AcDbEntity
8
0
100
AcDbLine
62
9
6
CONTINUOUS
10
237.5395334069
20
28.3658334676
11
237.5395334069
21
27.4658334676
0
LINE
5
2CF
100
AcDbEntity
8
0
100
AcDbLine
62
9
6
CONTINUOUS
10
237.5395334069
20
-25.4341665324
11
237.5395334069
21
-24.5341665324
0
LINE
5
2D0
100
AcDbEntity
8
0
100
AcDbLine
62
9
6
CONTINUOUS
10
241.8395334069
20
27.4658334676
11
241.8395334069
21
24.9658334676
0
LINE
5
2D1
100
AcDbEntity
8
0
100
AcDbLine
62
9
6
CONTINUOUS
10
241.8395334069
20
-24.5341665324
11
241.8395334069
21
-22.0341665324
0
LINE
5
2D2
100
AcDbEntity
8
0
100
AcDbLine
62
7
6
CONTINUOUS
10
242.3395334069
20
24.4658334676
11
242.3395334069
21
19.3658334676
0
LINE
5
2D3
100
AcDbEntity
8
0
100
AcDbLine
62
7
6
CONTINUOUS
10
242.3395334069
20
-16.4341665324
11
242.3395334069
21
-21.5341665324
0
LINE
5
2D4
100
AcDbEntity
8
0
100
AcDbLine
62
7
6
CONTINUOUS
10
242.8395334069
20
28.3658334676
11
242.8395334069
21
19.3658334676
0
LINE
5
2D5
100
AcDbEntity
8
0
100
AcDbLine
62
7
6
CONTINUOUS
10
242.8395334069
20
12.3658334676
11
242.8395334069
21
3.3658334676
0
LINE
5
2D6
100
AcDbEntity
8
0
100
AcDbLine
62
7
6
CONTINUOUS
10
242.8395334069
20
-0.4341665324
11
242.8395334069
21
-9.4341665324
0
LINE
5
2D7
100
AcDbEntity
8
0
100
AcDbLine
62
7
6
CONTINUOUS
10
242.8395334069
20
-16.4341665324
11
242.8395334069
21
-25.4341665324
0
LINE
5
2D8
100
AcDbEntity
8
0
100
AcDbLine
62
7
6
CONTINUOUS
10
249.3395334069
20
30.4658334676
11
249.3395334069
21
-27.5341665324
0
LINE
5
2D9
100
AcDbEntity
8
0
100
AcDbLine
62
7
6
CONTINUOUS
10
-1027.7397233112
20
-29.0341665324
11
-1027.7397233112
21
28.4658334676
0
LINE
5
2DA
100
AcDbEntity
8
0
100
AcDbLine
62
7
6
CONTINUOUS
10
-1026.2397233112
20
-29.0341665324
11
-1026.2397233112
21
28.4658334676
0
LINE
5
2DB
100
AcDbEntity
8
0
100
AcDbLine
62
9
6
CONTINUOUS
10
-1025.7397233112
20
-1.0341665324
11
-1025.7397233112
21
0.4658334676
0
LINE
5
2DC
100
AcDbEntity
8
0
100
AcDbLine
62
9
6
CONTINUOUS
10
-1025.2397233112
20
29.4658334676
11
-1025.2397233112
21
30.9658334676
0
LINE
5
2DD
100
AcDbEntity
8
0
100
AcDbLine
62
7
6
CONTINUOUS
10
-1020.2397233112
20
-25.0341665324
11
-1020.2397233112
21
30.9658334676
0
LINE
5
2DE
100
AcDbEntity
8
0
100
AcDbLine
62
7
6
CONTINUOUS
10
-985.2397233112
20
26.9658334676
11
-985.2397233112
21
-25.0341665324
0
LINE
5
2DF
100
AcDbEntity
8
0
100
AcDbLine
62
7
6
CONTINUOUS
10
-973.9397233112
20
-4.3341665324
11
-973.9397233112
21
7.2658334676
0
LINE
5
2E0
100
AcDbEntity
8
0
100
AcDbLine
62
7
6
CONTINUOUS
10
-966.6397233112
20
4.9658334676
11
-966.6397233112
21
-2.0341665324
0
LINE
5
2E1
100
AcDbEntity
8
0
100
AcDbLine
62
7
6
CONTINUOUS
10
-946.9897233112
20
-29.5341665324
11
-946.9897233112
21
32.4658334676
0
LINE
5
2E2
100
AcDbEntity
8
0
100
AcDbLine
62
7
6
CONTINUOUS
10
-944.4897233112
20
32.4658334676
11
-944.4897233112
21
-29.5341665324
0
LINE
5
2E3
100
AcDbEntity
8
0
100
AcDbLine
62
9
6
CONTINUOUS
10
-943.9897233112
20
24.4658334676
11
-943.9897233112
21
-21.5341665324
0
LINE
5
2E4
100
AcDbEntity
8
0
100
AcDbLine
62
7
6
CONTINUOUS
10
-940.2397233112
20
-26.5341665324
11
-940.2397233112
21
29.4658334676
0
LINE
5
2E5
100
AcDbEntity
8
0
100
AcDbLine
62
7
6
CONTINUOUS
10
-966.6397233112
20
-2.0341665324
11
-968.9397233112
21
-4.3341665324
0
LINE
5
2E6
100
AcDbEntity
8
0
100
AcDbLine
62
7
6
CONTINUOUS
10
-968.9397233112
20
7.2658334676
11
-966.6397233112
21
4.9658334676
0
LINE
5
2E7
100
AcDbEntity
8
0
100
AcDbLine
62
7
6
CONTINUOUS
10
-946.9897233112
20
-29.5341665324
11
-944.4897233112
21
-29.5341665324
0
LINE
5
2E8
100
AcDbEntity
8
0
100
AcDbLine
62
7
6
CONTINUOUS
10
-507.7397233112
20
-29.5341665324
11
-509.7397233112
21
-29.5341665324
0
LINE
5
2E9
100
AcDbEntity
8
0
100
AcDbLine
62
7
6
CONTINUOUS
10
-1026.2397233112
20
-29.0341665324
11
-1027.7397233112
21
-29.0341665324
0
LINE
5
2EA
100
AcDbEntity
8
0
100
AcDbLine
62
9
6
CONTINUOUS
10
-946.9897233112
20
-27.5341665324
11
-944.4897233112
21
-27.5341665324
0
LINE
5
2EB
100
AcDbEntity
8
0
100
AcDbLine
62
9
6
CONTINUOUS
10
-507.7397233112
20
-27.5341665324
11
-509.7397233112
21
-27.5341665324
0
LINE
5
2EC
100
AcDbEntity
8
0
100
AcDbLine
62
7
6
CONTINUOUS
10
-940.2397233112
20
-26.5341665324
11
-525.2397233112
21
-26.5341665324
0
LINE
5
2ED
100
AcDbEntity
8
0
100
AcDbLine
62
7
6
CONTINUOUS
10
-944.4897233112
20
-25.0341665324
11
-940.2397233112
21
-25.0341665324
0
LINE
5
2EE
100
AcDbEntity
8
0
100
AcDbLine
62
7
6
CONTINUOUS
10
-525.2397233112
20
-25.0341665324
11
-509.7397233112
21
-25.0341665324
0
LINE
5
2EF
100
AcDbEntity
8
0
100
AcDbLine
62
7
6
CONTINUOUS
10
-325.2397233112
20
-25.0341665324
11
-507.7397233112
21
-25.0341665324
0
LINE
5
2F0
100
AcDbEntity
8
0
100
AcDbLine
62
7
6
CONTINUOUS
10
-946.9897233112
20
-25.0341665324
11
-1020.2397233112
21
-25.0341665324
0
LINE
5
2F1
100
AcDbEntity
8
0
100
AcDbLine
62
9
6
CONTINUOUS
10
-485.2397233112
20
-24.6322427438
11
-507.7397233112
21
-24.6322427438
0
LINE
5
2F2
100
AcDbEntity
8
0
100
AcDbLine
62
9
6
CONTINUOUS
10
-509.7397233112
20
-24.6322427438
11
-525.2397233112
21
-24.6322427438
0
LINE
5
2F3
100
AcDbEntity
8
0
100
AcDbLine
62
9
6
CONTINUOUS
10
-940.2397233112
20
-24.6322427438
11
-944.4897233112
21
-24.6322427438
0
LINE
5
2F4
100
AcDbEntity
8
0
100
AcDbLine
62
9
6
CONTINUOUS
10
-946.9897233112
20
-24.6322427438
11
-985.2397233112
21
-24.6322427438
0
LINE
5
2F5
100
AcDbEntity
8
0
100
AcDbLine
62
9
6
CONTINUOUS
10
-940.2397233112
20
-23.5341665324
11
-525.2397233112
21
-23.5341665324
0
LINE
5
2F6
100
AcDbEntity
8
0
100
AcDbLine
62
7
6
CONTINUOUS
10
-525.2397233112
20
-23.5341665324
11
-507.7397233112
21
-23.5341665324
0
LINE
5
2F7
100
AcDbEntity
8
0
100
AcDbLine
62
7
6
CONTINUOUS
10
-498.4897233112
20
-21.5341665324
11
-507.7397233112
21
-21.5341665324
0
LINE
5
2F8
100
AcDbEntity
8
0
100
AcDbLine
62
7
6
CONTINUOUS
10
-940.2397233112
20
-21.5341665324
11
-944.4897233112
21
-21.5341665324
0
LINE
5
2F9
100
AcDbEntity
8
0
100
AcDbLine
62
9
6
CONTINUOUS
10
-485.2397233112
20
-19.8648541217
11
-496.4897233112
21
-19.8648541217
0
LINE
5
2FA
100
AcDbEntity
8
0
100
AcDbLine
62
9
6
CONTINUOUS
10
-946.9897233112
20
-19.8648541217
11
-985.2397233112
21
-19.8648541217
0
LINE
5
2FB
100
AcDbEntity
8
0
100
AcDbLine
62
7
6
CONTINUOUS
10
-902.7397233112
20
-19.5341665324
11
-828.2397233112
21
-19.5341665324
0
LINE
5
2FC
100
AcDbEntity
8
0
100
AcDbLine
62
7
6
CONTINUOUS
10
-759.2397233112
20
-19.5341665324
11
-550.2397233112
21
-19.5341665324
0
LINE
5
2FD
100
AcDbEntity
8
0
100
AcDbLine
62
9
6
CONTINUOUS
10
-485.2397233112
20
-17.2667779103
11
-496.4897233112
21
-17.2667779103
0
LINE
5
2FE
100
AcDbEntity
8
0
100
AcDbLine
62
9
6
CONTINUOUS
10
-946.9897233112
20
-17.2667779103
11
-985.2397233112
21
-17.2667779103
0
LINE
5
2FF
100
AcDbEntity
8
0
100
AcDbLine
62
7
6
CONTINUOUS
10
-550.2397233112
20
-13.5341665324
11
-759.2397233112
21
-13.5341665324
0
LINE
5
300
100
AcDbEntity
8
0
100
AcDbLine
62
7
6
CONTINUOUS
10
-828.2397233112
20
-13.5341665324
11
-902.7397233112
21
-13.5341665324
0
LINE
5
301
100
AcDbEntity
8
0
100
AcDbLine
62
7
6
CONTINUOUS
10
-496.4897233112
20
-7.0341665324
11
-493.2397233112
21
-7.0341665324
0
LINE
5
302
100
AcDbEntity
8
0
100
AcDbLine
62
7
6
CONTINUOUS
10
-496.3397233112
20
-5.7841665324
11
-494.1397233112
21
-5.7841665324
0
LINE
5
303
100
AcDbEntity
8
0
100
AcDbLine
62
7
6
CONTINUOUS
10
-322.7397233112
20
-5.0341665324
11
-324.2397233112
21
-5.0341665324
0
LINE
5
304
100
AcDbEntity
8
0
100
AcDbLine
62
7
6
CONTINUOUS
10
-968.9397233112
20
-4.3341665324
11
-973.9397233112
21
-4.3341665324
0
LINE
5
305
100
AcDbEntity
8
0
100
AcDbLine
62
7
6
CONTINUOUS
10
-496.3397233112
20
-3.7841665324
11
-494.1397233112
21
-3.7841665324
0
LINE
5
306
100
AcDbEntity
8
0
100
AcDbLine
62
9
6
CONTINUOUS
10
-494.1397233112
20
-3.7841665324
11
-493.2397233112
21
-3.7841665324
0
LINE
5
307
100
AcDbEntity
8
0
100
AcDbLine
62
9
6
CONTINUOUS
10
-496.3397233112
20
-3.7841665324
11
-496.4897233112
21
-3.7841665324
0
LINE
5
308
100
AcDbEntity
8
0
100
AcDbLine
62
7
6
CONTINUOUS
10
-493.2397233112
20
-3.2841665324
11
-496.2397233112
21
-3.2841665324
0
LINE
5
309
100
AcDbEntity
8
0
100
AcDbLine
62
9
6
CONTINUOUS
10
-496.3397233112
20
-1.6341665324
11
-496.4897233112
21
-1.6341665324
0
LINE
5
30A
100
AcDbEntity
8
0
100
AcDbLine
62
7
6
CONTINUOUS
10
-991.2397233112
20
-1.5341665324
11
-985.2397233112
21
-1.5341665324
0
LINE
5
30B
100
AcDbEntity
8
0
100
AcDbLine
62
7
6
CONTINUOUS
10
-973.9397233112
20
-1.5341665324
11
-966.6397233112
21
-1.5341665324
0
LINE
5
30C
100
AcDbEntity
8
0
100
AcDbLine
62
7
6
CONTINUOUS
10
-954.0367782797
20
-1.5341665324
11
-950.4426683426
21
-1.5341665324
0
LINE
5
30D
100
AcDbEntity
8
0
100
AcDbLine
62
7
6
CONTINUOUS
10
-496.3397233112
20
-1.5341665324
11
-496.2397233112
21
-1.5341665324
0
LINE
5
30E
100
AcDbEntity
8
0
100
AcDbLine
62
7
6
CONTINUOUS
10
-1020.2397233112
20
-1.0341665324
11
-1025.7397233112
21
-1.0341665324
0
LINE
5
30F
100
AcDbEntity
8
0
100
AcDbLine
62
7
6
CONTINUOUS
10
-1020.2397233112
20
0.4658334676
11
-1025.7397233112
21
0.4658334676
0
LINE
5
310
100
AcDbEntity
8
0
100
AcDbLine
62
7
6
CONTINUOUS
10
-950.4426683426
20
4.4658334676
11
-954.0367782797
21
4.4658334676
0
LINE
5
311
100
AcDbEntity
8
0
100
AcDbLine
62
7
6
CONTINUOUS
10
-966.6397233112
20
4.4658334676
11
-973.9397233112
21
4.4658334676
0
LINE
5
312
100
AcDbEntity
8
0
100
AcDbLine
62
7
6
CONTINUOUS
10
-985.2397233112
20
4.4658334676
11
-991.2397233112
21
4.4658334676
0
LINE
5
313
100
AcDbEntity
8
0
100
AcDbLine
62
9
6
CONTINUOUS
10
-496.3397233112
20
4.5658334676
11
-496.4897233112
21
4.5658334676
0
LINE
5
314
100
AcDbEntity
8
0
100
AcDbLine
62
7
6
CONTINUOUS
10
-493.2397233112
20
6.2158334676
11
-496.2397233112
21
6.2158334676
0
LINE
5
315
100
AcDbEntity
8
0
100
AcDbLine
62
9
6
CONTINUOUS
10
-494.1397233112
20
6.7158334676
11
-493.2397233112
21
6.7158334676
0
LINE
5
316
100
AcDbEntity
8
0
100
AcDbLine
62
7
6
CONTINUOUS
10
-494.1397233112
20
6.7158334676
11
-496.3397233112
21
6.7158334676
0
LINE
5
317
100
AcDbEntity
8
0
100
AcDbLine
62
9
6
CONTINUOUS
10
-496.3397233112
20
6.7158334676
11
-496.4897233112
21
6.7158334676
0
LINE
5
318
100
AcDbEntity
8
0
100
AcDbLine
62
7
6
CONTINUOUS
10
-973.9397233112
20
7.2658334676
11
-968.9397233112
21
7.2658334676
0
LINE
5
319
100
AcDbEntity
8
0
100
AcDbLine
62
7
6
CONTINUOUS
10
-494.1397233112
20
8.7158334676
11
-496.3397233112
21
8.7158334676
0
LINE
5
31A
100
AcDbEntity
8
0
100
AcDbLine
62
7
6
CONTINUOUS
10
-493.2397233112
20
9.9658334676
11
-496.4897233112
21
9.9658334676
0
LINE
5
31B
100
AcDbEntity
8
0
100
AcDbLine
62
7
6
CONTINUOUS
10
-902.7397233112
20
16.4658334676
11
-828.2397233112
21
16.4658334676
0
LINE
5
31C
100
AcDbEntity
8
0
100
AcDbLine
62
7
6
CONTINUOUS
10
-759.2397233112
20
16.4658334676
11
-550.2397233112
21
16.4658334676
0
LINE
5
31D
100
AcDbEntity
8
0
100
AcDbLine
62
9
6
CONTINUOUS
10
-485.2397233112
20
20.1984448455
11
-496.4897233112
21
20.1984448455
0
LINE
5
31E
100
AcDbEntity
8
0
100
AcDbLine
62
9
6
CONTINUOUS
10
-946.9897233112
20
20.1984448455
11
-985.2397233112
21
20.1984448455
0
LINE
5
31F
100
AcDbEntity
8
0
100
AcDbLine
62
7
6
CONTINUOUS
10
-550.2397233112
20
22.4658334676
11
-759.2397233112
21
22.4658334676
0
LINE
5
320
100
AcDbEntity
8
0
100
AcDbLine
62
7
6
CONTINUOUS
10
-828.2397233112
20
22.4658334676
11
-902.7397233112
21
22.4658334676
0
LINE
5
321
100
AcDbEntity
8
0
100
AcDbLine
62
9
6
CONTINUOUS
10
-485.2397233112
20
22.7965210569
11
-496.4897233112
21
22.7965210569
0
LINE
5
322
100
AcDbEntity
8
0
100
AcDbLine
62
9
6
CONTINUOUS
10
-946.9897233112
20
22.7965210569
11
-985.2397233112
21
22.7965210569
0
LINE
5
323
100
AcDbEntity
8
0
100
AcDbLine
62
7
6
CONTINUOUS
10
-498.4897233112
20
24.4658334676
11
-507.7397233112
21
24.4658334676
0
LINE
5
324
100
AcDbEntity
8
0
100
AcDbLine
62
7
6
CONTINUOUS
10
-940.2397233112
20
24.4658334676
11
-944.4897233112
21
24.4658334676
0
LINE
5
325
100
AcDbEntity
8
0
100
AcDbLine
62
9
6
CONTINUOUS
10
-325.2397233112
20
24.9658334676
11
-485.2397233112
21
24.9658334676
0
LINE
5
326
100
AcDbEntity
8
0
100
AcDbLine
62
9
6
CONTINUOUS
10
-985.2397233112
20
24.9658334676
11
-1020.2397233112
21
24.9658334676
0
LINE
5
327
100
AcDbEntity
8
0
100
AcDbLine
62
9
6
CONTINUOUS
10
-940.2397233112
20
26.4658334676
11
-525.2397233112
21
26.4658334676
0
LINE
5
328
100
AcDbEntity
8
0
100
AcDbLine
62
7
6
CONTINUOUS
10
-525.2397233112
20
26.4658334676
11
-507.7397233112
21
26.4658334676
0
LINE
5
329
100
AcDbEntity
8
0
100
AcDbLine
62
7
6
CONTINUOUS
10
-325.2397233112
20
26.9658334676
11
-507.7397233112
21
26.9658334676
0
LINE
5
32A
100
AcDbEntity
8
0
100
AcDbLine
62
7
6
CONTINUOUS
10
-509.7397233112
20
26.9658334676
11
-525.2397233112
21
26.9658334676
0
LINE
5
32B
100
AcDbEntity
8
0
100
AcDbLine
62
7
6
CONTINUOUS
10
-940.2397233112
20
26.9658334676
11
-944.4897233112
21
26.9658334676
0
LINE
5
32C
100
AcDbEntity
8
0
100
AcDbLine
62
7
6
CONTINUOUS
10
-946.9897233112
20
26.9658334676
11
-1020.2397233112
21
26.9658334676
0
LINE
5
32D
100
AcDbEntity
8
0
100
AcDbLine
62
9
6
CONTINUOUS
10
-322.7397233112
20
28.4658334676
11
-324.2397233112
21
28.4658334676
0
LINE
5
32E
100
AcDbEntity
8
0
100
AcDbLine
62
9
6
CONTINUOUS
10
-1026.2397233112
20
28.4658334676
11
-1027.7397233112
21
28.4658334676
0
LINE
5
32F
100
AcDbEntity
8
0
100
AcDbLine
62
7
6
CONTINUOUS
10
-1025.2397233112
20
29.4658334676
11
-1020.2397233112
21
29.4658334676
0
LINE
5
330
100
AcDbEntity
8
0
100
AcDbLine
62
7
6
CONTINUOUS
10
-940.2397233112
20
29.4658334676
11
-525.2397233112
21
29.4658334676
0
LINE
5
331
100
AcDbEntity
8
0
100
AcDbLine
62
9
6
CONTINUOUS
10
-946.9897233112
20
30.4658334676
11
-944.4897233112
21
30.4658334676
0
LINE
5
332
100
AcDbEntity
8
0
100
AcDbLine
62
9
6
CONTINUOUS
10
-507.7397233112
20
30.4658334676
11
-509.7397233112
21
30.4658334676
0
LINE
5
333
100
AcDbEntity
8
0
100
AcDbLine
62
7
6
CONTINUOUS
10
-1025.2397233112
20
30.9658334676
11
-946.9897233112
21
30.9658334676
0
LINE
5
334
100
AcDbEntity
8
0
100
AcDbLine
62
7
6
CONTINUOUS
10
-944.4897233112
20
30.9658334676
11
-509.7397233112
21
30.9658334676
0
LINE
5
335
100
AcDbEntity
8
0
100
AcDbLine
62
7
6
CONTINUOUS
10
-507.7397233112
20
30.9658334676
11
-325.2397233112
21
30.9658334676
0
LINE
5
336
100
AcDbEntity
8
0
100
AcDbLine
62
7
6
CONTINUOUS
10
-946.9897233112
20
32.4658334676
11
-944.4897233112
21
32.4658334676
0
LINE
5
337
100
AcDbEntity
8
0
100
AcDbLine
62
7
6
CONTINUOUS
10
-507.7397233112
20
32.4658334676
11
-509.7397233112
21
32.4658334676
0
LINE
5
338
100
AcDbEntity
8
0
100
AcDbLine
62
9
6
CONTINUOUS
10
-493.4658073147
20
9.1397649768
11
-495.1552511209
21
8.0693540157
0
LINE
5
339
100
AcDbEntity
8
0
100
AcDbLine
62
9
6
CONTINUOUS
10
-493.4658073147
20
-6.2080980416
11
-495.1552511209
21
-5.1376870805
0
LINE
5
33A
100
AcDbEntity
8
0
100
AcDbLine
62
9
6
CONTINUOUS
10
-496.4897233112
20
-5.8761512652
11
-495.3241955015
21
-5.1376870805
0
LINE
5
33B
100
AcDbEntity
8
0
100
AcDbLine
62
9
6
CONTINUOUS
10
-496.4897233112
20
8.8078182004
11
-495.3241955015
21
8.0693540157
0
LINE
5
33C
100
AcDbEntity
8
0
100
AcDbLine
62
7
6
CONTINUOUS
10
-525.2397233112
20
-26.5341665324
11
-525.2397233112
21
-23.5341665324
0
LINE
5
33D
100
AcDbEntity
8
0
100
AcDbLine
62
7
6
CONTINUOUS
10
-525.2397233112
20
26.4658334676
11
-525.2397233112
21
29.4658334676
0
LINE
5
33E
100
AcDbEntity
8
0
100
AcDbLine
62
9
6
CONTINUOUS
10
-510.2397233112
20
26.4658334676
11
-510.2397233112
21
-23.5341665324
0
LINE
5
33F
100
AcDbEntity
8
0
100
AcDbLine
62
7
6
CONTINUOUS
10
-509.7397233112
20
-29.5341665324
11
-509.7397233112
21
-23.5341665324
0
LINE
5
340
100
AcDbEntity
8
0
100
AcDbLine
62
7
6
CONTINUOUS
10
-509.7397233112
20
26.4658334676
11
-509.7397233112
21
32.4658334676
0
LINE
5
341
100
AcDbEntity
8
0
100
AcDbLine
62
7
6
CONTINUOUS
10
-507.7397233112
20
32.4658334676
11
-507.7397233112
21
-29.5341665324
0
LINE
5
342
100
AcDbEntity
8
0
100
AcDbLine
62
7
6
CONTINUOUS
10
-496.4897233112
20
6.2297860269
11
-495.3241955015
21
8.0693540157
0
LINE
5
343
100
AcDbEntity
8
0
100
AcDbLine
62
7
6
CONTINUOUS
10
-493.9808831400
20
-3.2841665324
11
-495.1552511209
21
-5.1376870805
0
LINE
5
344
100
AcDbEntity
8
0
100
AcDbLine
62
7
6
CONTINUOUS
10
-493.2397233112
20
-5.8512666626
11
-493.4658073147
21
-6.2080980416
0
LINE
5
345
100
AcDbEntity
8
0
100
AcDbLine
62
7
6
CONTINUOUS
10
-495.3241955015
20
-5.1376870805
11
-496.4897233112
21
-3.2981190917
0
LINE
5
346
100
AcDbEntity
8
0
100
AcDbLine
62
7
6
CONTINUOUS
10
-495.1552511209
20
8.0693540157
11
-494.0550265886
21
6.3328550552
0
LINE
5
347
100
AcDbEntity
8
0
100
AcDbLine
62
7
6
CONTINUOUS
10
-493.4658073147
20
9.1397649768
11
-493.2397233112
21
8.7829335978
0
LINE
5
348
100
AcDbEntity
8
0
100
AcDbLine
62
7
6
CONTINUOUS
10
-496.4897233112
20
22.4658334676
11
-496.4897233112
21
-19.5341665324
0
LINE
5
349
100
AcDbEntity
8
0
100
AcDbLine
62
7
6
CONTINUOUS
10
-496.3397233112
20
6.7158334676
11
-496.3397233112
21
4.5658334676
0
LINE
5
34A
100
AcDbEntity
8
0
100
AcDbLine
62
7
6
CONTINUOUS
10
-496.3397233112
20
-1.6341665324
11
-496.3397233112
21
-3.7841665324
0
LINE
5
34B
100
AcDbEntity
8
0
100
AcDbLine
62
9
6
CONTINUOUS
10
-496.3397233112
20
-3.7841665324
11
-496.3397233112
21
-5.7841665324
0
LINE
5
34C
100
AcDbEntity
8
0
100
AcDbLine
62
9
6
CONTINUOUS
10
-496.3397233112
20
6.7158334676
11
-496.3397233112
21
8.7158334676
0
LINE
5
34D
100
AcDbEntity
8
0
100
AcDbLine
62
7
6
CONTINUOUS
10
-496.2397233112
20
-3.2841665324
11
-496.2397233112
21
6.2158334676
0
LINE
5
34E
100
AcDbEntity
8
0
100
AcDbLine
62
9
6
CONTINUOUS
10
-494.1397233112
20
-3.7841665324
11
-494.1397233112
21
-5.7841665324
0
LINE
5
34F
100
AcDbEntity
8
0
100
AcDbLine
62
7
6
CONTINUOUS
10
-494.1397233112
20
-3.7841665324
11
-494.1397233112
21
-3.2841665324
0
LINE
5
350
100
AcDbEntity
8
0
100
AcDbLine
62
7
6
CONTINUOUS
10
-494.1397233112
20
6.2158334676
11
-494.1397233112
21
6.7158334676
0
LINE
5
351
100
AcDbEntity
8
0
100
AcDbLine
62
9
6
CONTINUOUS
10
-494.1397233112
20
6.7158334676
11
-494.1397233112
21
8.7158334676
0
LINE
5
352
100
AcDbEntity
8
0
100
AcDbLine
62
7
6
CONTINUOUS
10
-493.2397233112
20
-7.0341665324
11
-493.2397233112
21
-3.2841665324
0
LINE
5
353
100
AcDbEntity
8
0
100
AcDbLine
62
9
6
CONTINUOUS
10
-493.2397233112
20
-3.2841665324
11
-493.2397233112
21
6.2158334676
0
LINE
5
354
100
AcDbEntity
8
0
100
AcDbLine
62
7
6
CONTINUOUS
10
-493.2397233112
20
6.2158334676
11
-493.2397233112
21
9.9658334676
0
LINE
5
355
100
AcDbEntity
8
0
100
AcDbLine
62
7
6
CONTINUOUS
10
-485.2397233112
20
26.9658334676
11
-485.2397233112
21
-25.0341665324
0
LINE
5
356
100
AcDbEntity
8
0
100
AcDbLine
62
7
6
CONTINUOUS
10
-325.2397233112
20
30.9658334676
11
-325.2397233112
21
-25.0341665324
0
LINE
5
357
100
AcDbEntity
8
0
100
AcDbLine
62
7
6
CONTINUOUS
10
-324.2397233112
20
28.4658334676
11
-324.2397233112
21
-5.0341665324
0
LINE
5
358
100
AcDbEntity
8
0
100
AcDbLine
62
7
6
CONTINUOUS
10
-322.7397233112
20
28.4658334676
11
-322.7397233112
21
-5.0341665324
0
ARC
5
359
100
AcDbEntity
8
0
100
AcDbCircle
62
7
6
CONTINUOUS
10
218.8395334069
20
-17.2667779103
40
1.0000000000
100
AcDbArc
50
300.0000000000
51
360.0000000000
0
ARC
5
35A
100
AcDbEntity
8
0
100
AcDbCircle
62
7
6
CONTINUOUS
10
218.8395334069
20
20.1984448455
40
1.0000000000
100
AcDbArc
50
0.0000000000
51
60.0000000000
0
ARC
5
35B
100
AcDbEntity
8
0
100
AcDbCircle
62
7
6
CONTINUOUS
10
-220.1604665931
20
20.1984448455
40
1.0000000000
100
AcDbArc
50
120.0000000000
51
180.0000000000
0
ARC
5
35C
100
AcDbEntity
8
0
100
AcDbCircle
62
7
6
CONTINUOUS
10
-220.1604665931
20
-17.2667779103
40
1.0000000000
100
AcDbArc
50
180.0000000000
51
240.0000000000
0
ARC
5
35D
100
AcDbEntity
8
0
100
AcDbCircle
62
7
6
CONTINUOUS
10
224.8395334069
20
24.4658334676
40
0.5000000000
100
AcDbArc
50
90.0000000000
51
180.0000000000
0
ARC
5
35E
100
AcDbEntity
8
0
100
AcDbCircle
62
7
6
CONTINUOUS
10
224.8395334069
20
-21.5341665324
40
0.5000000000
100
AcDbArc
50
180.0000000000
51
270.0000000000
0
ARC
5
35F
100
AcDbEntity
8
0
100
AcDbCircle
62
7
6
CONTINUOUS
10
241.8395334069
20
-21.5341665324
40
0.5000000000
100
AcDbArc
50
270.0000000000
51
360.0000000000
0
ARC
5
360
100
AcDbEntity
8
0
100
AcDbCircle
62
7
6
CONTINUOUS
10
241.8395334069
20
24.4658334676
40
0.5000000000
100
AcDbArc
50
0.0000000000
51
90.0000000000
0
ARC
5
361
100
AcDbEntity
8
0
100
AcDbCircle
62
7
6
CONTINUOUS
10
-226.1604665931
20
-21.5341665324
40
0.5000000000
100
AcDbArc
50
270.0000000000
51
360.0000000000
0
ARC
5
362
100
AcDbEntity
8
0
100
AcDbCircle
62
7
6
CONTINUOUS
10
-226.1604665931
20
24.4658334676
40
0.5000000000
100
AcDbArc
50
0.0000000000
51
90.0000000000
0
ARC
5
363
100
AcDbEntity
8
0
100
AcDbCircle
62
7
6
CONTINUOUS
10
-243.1604665931
20
24.4658334676
40
0.5000000000
100
AcDbArc
50
90.0000000000
51
180.0000000000
0
ARC
5
364
100
AcDbEntity
8
0
100
AcDbCircle
62
7
6
CONTINUOUS
10
-243.1604665931
20
-21.5341665324
40
0.5000000000
100
AcDbArc
50
180.0000000000
51
270.0000000000
0
ARC
5
365
100
AcDbEntity
8
0
100
AcDbCircle
62
7
6
CONTINUOUS
10
-218.6604665931
20
28.9658334676
40
0.5000000000
100
AcDbArc
50
90.0000000000
51
270.0000000000
0
ARC
5
366
100
AcDbEntity
8
0
100
AcDbCircle
62
7
6
CONTINUOUS
10
217.3395334069
20
28.9658334676
40
0.5000000000
100
AcDbArc
50
270.0000000000
51
90.0000000000
0
ARC
5
367
100
AcDbEntity
8
0
100
AcDbCircle
62
7
6
CONTINUOUS
10
218.8395334069
20
-17.2667779103
40
3.0000000000
100
AcDbArc
50
300.0000000000
51
360.0000000000
0
ARC
5
368
100
AcDbEntity
8
0
100
AcDbCircle
62
7
6
CONTINUOUS
10
218.8395334069
20
20.1984448455
40
3.0000000000
100
AcDbArc
50
0.0000000000
51
60.0000000000
0
ARC
5
369
100
AcDbEntity
8
0
100
AcDbCircle
62
7
6
CONTINUOUS
10
-220.1604665931
20
20.1984448455
40
3.0000000000
100
AcDbArc
50
120.0000000000
51
180.0000000000
0
ARC
5
36A
100
AcDbEntity
8
0
100
AcDbCircle
62
7
6
CONTINUOUS
10
-220.1604665931
20
-17.2667779103
40
3.0000000000
100
AcDbArc
50
180.0000000000
51
240.0000000000
0
ARC
5
36B
100
AcDbEntity
8
0
100
AcDbCircle
62
7
6
CONTINUOUS
10
247.3395334069
20
-27.5341665324
40
2.0000000000
100
AcDbArc
50
270.0000000000
51
360.0000000000
0
ARC
5
36C
100
AcDbEntity
8
0
100
AcDbCircle
62
7
6
CONTINUOUS
10
229.7395334069
20
-27.5341665324
40
2.0000000000
100
AcDbArc
50
180.0000000000
51
270.0000000000
0
ARC
5
36D
100
AcDbEntity
8
0
100
AcDbCircle
62
7
6
CONTINUOUS
10
229.7395334069
20
30.4658334676
40
2.0000000000
100
AcDbArc
50
90.0000000000
51
180.0000000000
0
ARC
5
36E
100
AcDbEntity
8
0
100
AcDbCircle
62
7
6
CONTINUOUS
10
247.3395334069
20
30.4658334676
40
2.0000000000
100
AcDbArc
50
0.0000000000
51
90.0000000000
0
ARC
5
36F
100
AcDbEntity
8
0
100
AcDbCircle
62
7
6
CONTINUOUS
10
224.8395334069
20
24.4658334676
40
3.0000000000
100
AcDbArc
50
90.0000000000
51
180.0000000000
0
ARC
5
370
100
AcDbEntity
8
0
100
AcDbCircle
62
7
6
CONTINUOUS
10
224.8395334069
20
-21.5341665324
40
3.0000000000
100
AcDbArc
50
180.0000000000
51
270.0000000000
0
ARC
5
371
100
AcDbEntity
8
0
100
AcDbCircle
62
7
6
CONTINUOUS
10
-248.6604665931
20
30.4658334676
40
2.0000000000
100
AcDbArc
50
90.0000000000
51
180.0000000000
0
ARC
5
372
100
AcDbEntity
8
0
100
AcDbCircle
62
7
6
CONTINUOUS
10
-231.0604665931
20
30.4658334676
40
2.0000000000
100
AcDbArc
50
0.0000000000
51
90.0000000000
0
ARC
5
373
100
AcDbEntity
8
0
100
AcDbCircle
62
7
6
CONTINUOUS
10
-231.0604665931
20
-27.5341665324
40
2.0000000000
100
AcDbArc
50
270.0000000000
51
360.0000000000
0
ARC
5
374
100
AcDbEntity
8
0
100
AcDbCircle
62
7
6
CONTINUOUS
10
-248.6604665931
20
-27.5341665324
40
2.0000000000
100
AcDbArc
50
180.0000000000
51
270.0000000000
0
ARC
5
375
100
AcDbEntity
8
0
100
AcDbCircle
62
7
6
CONTINUOUS
10
-226.1604665931
20
-21.5341665324
40
3.0000000000
100
AcDbArc
50
270.0000000000
51
360.0000000000
0
ARC
5
376
100
AcDbEntity
8
0
100
AcDbCircle
62
7
6
CONTINUOUS
10
-226.1604665931
20
24.4658334676
40
3.0000000000
100
AcDbArc
50
0.0000000000
51
90.0000000000
0
ARC
5
377
100
AcDbEntity
8
0
100
AcDbCircle
62
7
6
CONTINUOUS
10
217.3395334069
20
28.9658334676
40
2.0000000000
100
AcDbArc
50
270.0000000000
51
90.0000000000
0
ARC
5
378
100
AcDbEntity
8
0
100
AcDbCircle
62
7
6
CONTINUOUS
10
-218.6604665931
20
28.9658334676
40
2.0000000000
100
AcDbArc
50
90.0000000000
51
270.0000000000
0
ARC
5
379
100
AcDbEntity
8
0
100
AcDbCircle
62
7
6
CONTINUOUS
10
-495.2397233112
20
-5.0841665324
40
2.1000000000
100
AcDbArc
50
298.8210761639
51
327.6421523279
0
ARC
5
37A
100
AcDbEntity
8
0
100
AcDbCircle
62
7
6
CONTINUOUS
10
-495.2397233112
20
-5.0841665324
40
2.1000000000
100
AcDbArc
50
233.3841406777
51
248.6364254726
0
ARC
5
37B
100
AcDbEntity
8
0
100
AcDbCircle
62
7
6
CONTINUOUS
10
-495.2397233112
20
8.0158334676
40
2.1000000000
100
AcDbArc
50
111.3635745274
51
126.6158593223
0
ARC
5
37C
100
AcDbEntity
8
0
100
AcDbCircle
62
7
6
CONTINUOUS
10
-495.2397233112
20
8.0158334676
40
2.1000000000
100
AcDbArc
50
32.3578476721
51
68.6364254726
0
ARC
5
37D
100
AcDbEntity
8
0
100
AcDbCircle
62
7
6
CONTINUOUS
10
-496.3397233112
20
6.7158334676
40
2.0000000000
100
AcDbArc
50
90.0000000000
51
94.3639244751
0
ARC
5
37E
100
AcDbEntity
8
0
100
AcDbCircle
62
7
6
CONTINUOUS
10
-496.3397233112
20
-3.7841665324
40
2.0000000000
100
AcDbArc
50
265.6360755249
51
270.0000000000
0
ARC
5
37F
100
AcDbEntity
8
0
100
AcDbCircle
62
7
6
CONTINUOUS
10
-494.1397233112
20
-3.7841665324
40
2.0000000000
100
AcDbArc
50
270.0000000000
51
296.7317290056
0
ARC
5
380
100
AcDbEntity
8
0
100
AcDbCircle
62
7
6
CONTINUOUS
10
-494.1397233112
20
6.7158334676
40
2.0000000000
100
AcDbArc
50
63.2682709944
51
90.0000000000
0
ARC
5
381
100
AcDbEntity
8
0
100
AcDbCircle
62
7
6
CONTINUOUS
10
-498.3397233112
20
-1.6341665324
40
2.0000000000
100
AcDbArc
50
0.0000000000
51
22.3002709127
0
ARC
5
382
100
AcDbEntity
8
0
100
AcDbCircle
62
7
6
CONTINUOUS
10
-498.3397233112
20
4.5658334676
40
2.0000000000
100
AcDbArc
50
337.6997290873
51
360.0000000000
0
ARC
5
383
100
AcDbEntity
8
0
100
AcDbCircle
62
7
6
CONTINUOUS
10
-498.4897233112
20
22.4658334676
40
2.0000000000
100
AcDbArc
50
0.0000000000
51
90.0000000000
0
ARC
5
384
100
AcDbEntity
8
0
100
AcDbCircle
62
7
6
CONTINUOUS
10
-498.4897233112
20
-19.5341665324
40
2.0000000000
100
AcDbArc
50
270.0000000000
51
360.0000000000
0
ARC
5
385
100
AcDbEntity
8
0
100
AcDbCircle
62
7
6
CONTINUOUS
10
-506.4897233112
20
1.4658334676
40
2.5000000000
100
AcDbArc
50
240.0000000000
51
120.0000000000
0
ARC
5
386
100
AcDbEntity
8
0
100
AcDbCircle
62
7
6
CONTINUOUS
10
-325.2397233112
20
28.4658334676
40
1.0000000000
100
AcDbArc
50
0.0000000000
51
90.0000000000
0
ARC
5
387
100
AcDbEntity
8
0
100
AcDbCircle
62
7
6
CONTINUOUS
10
-1025.2397233112
20
28.4658334676
40
1.0000000000
100
AcDbArc
50
90.0000000000
51
180.0000000000
0
ARC
5
388
100
AcDbEntity
8
0
100
AcDbCircle
62
7
6
CONTINUOUS
10
-1025.7397233112
20
0.9658334676
40
0.5000000000
100
AcDbArc
50
180.0000000000
51
270.0000000000
0
ARC
5
389
100
AcDbEntity
8
0
100
AcDbCircle
62
7
6
CONTINUOUS
10
-495.2397233112
20
-5.0841665324
40
0.1000000000
100
AcDbArc
50
212.3578476721
51
327.6421523279
0
ARC
5
38A
100
AcDbEntity
8
0
100
AcDbCircle
62
7
6
CONTINUOUS
10
-495.2397233112
20
8.0158334676
40
0.1000000000
100
AcDbArc
50
32.3578476721
51
147.6421523279
0
CIRCLE
5
38B
100
AcDbEntity
8
0
100
AcDbCircle
62
7
6
CONTINUOUS
10
-952.2397233112
20
1.4658334676
40
3.5000000000
0
ARC
5
38C
100
AcDbEntity
8
0
100
AcDbCircle
62
7
6
CONTINUOUS
10
-828.2397233112
20
-16.5341665324
40
3.0000000000
100
AcDbArc
50
270.0000000000
51
90.0000000000
0
ARC
5
38D
100
AcDbEntity
8
0
100
AcDbCircle
62
7
6
CONTINUOUS
10
-902.7397233112
20
-16.5341665324
40
3.0000000000
100
AcDbArc
50
90.0000000000
51
270.0000000000
0
ARC
5
38E
100
AcDbEntity
8
0
100
AcDbCircle
62
7
6
CONTINUOUS
10
-902.7397233112
20
19.4658334676
40
3.0000000000
100
AcDbArc
50
90.0000000000
51
270.0000000000
0
ARC
5
38F
100
AcDbEntity
8
0
100
AcDbCircle
62
7
6
CONTINUOUS
10
-828.2397233112
20
19.4658334676
40
3.0000000000
100
AcDbArc
50
270.0000000000
51
90.0000000000
0
ARC
5
390
100
AcDbEntity
8
0
100
AcDbCircle
62
7
6
CONTINUOUS
10
-550.2397233112
20
-16.5341665324
40
3.0000000000
100
AcDbArc
50
270.0000000000
51
90.0000000000
0
ARC
5
391
100
AcDbEntity
8
0
100
AcDbCircle
62
7
6
CONTINUOUS
10
-759.2397233112
20
-16.5341665324
40
3.0000000000
100
AcDbArc
50
90.0000000000
51
270.0000000000
0
ARC
5
392
100
AcDbEntity
8
0
100
AcDbCircle
62
7
6
CONTINUOUS
10
-759.2397233112
20
19.4658334676
40
3.0000000000
100
AcDbArc
50
90.0000000000
51
270.0000000000
0
ARC
5
393
100
AcDbEntity
8
0
100
AcDbCircle
62
7
6
CONTINUOUS
10
-550.2397233112
20
19.4658334676
40
3.0000000000
100
AcDbArc
50
270.0000000000
51
90.0000000000
0
CIRCLE
5
394
100
AcDbEntity
8
0
100
AcDbCircle
62
7
6
CONTINUOUS
10
-850.9897233112
20
19.4658334676
40
2.0000000000
0
CIRCLE
5
395
100
AcDbEntity
8
0
100
AcDbCircle
62
7
6
CONTINUOUS
10
-692.3897233112
20
19.4658334676
40
2.0000000000
0
CIRCLE
5
396
100
AcDbEntity
8
0
100
AcDbCircle
62
7
6
CONTINUOUS
10
-639.5897233112
20
19.4658334676
40
2.0000000000
0
CIRCLE
5
397
100
AcDbEntity
8
0
100
AcDbCircle
62
7
6
CONTINUOUS
10
-586.7897233112
20
19.4658334676
40
2.0000000000
0
CIRCLE
5
398
100
AcDbEntity
8
0
100
AcDbCircle
62
7
6
CONTINUOUS
10
-850.9897233112
20
-16.5341665324
40
2.0000000000
0
CIRCLE
5
399
100
AcDbEntity
8
0
100
AcDbCircle
62
7
6
CONTINUOUS
10
-692.3897233112
20
-16.5341665324
40
2.0000000000
0
CIRCLE
5
39A
100
AcDbEntity
8
0
100
AcDbCircle
62
7
6
CONTINUOUS
10
-639.5897233112
20
-16.5341665324
40
2.0000000000
0
CIRCLE
5
39B
100
AcDbEntity
8
0
100
AcDbCircle
62
7
6
CONTINUOUS
10
-586.7897233112
20
-16.5341665324
40
2.0000000000
0
ARC
5
39C
100
AcDbEntity
8
0
100
AcDbCircle
62
7
6
CONTINUOUS
10
-991.2397233112
20
1.4658334676
40
3.0000000000
100
AcDbArc
50
90.0000000000
51
270.0000000000
0
ARC
5
39D
100
AcDbEntity
8
0
100
AcDbCircle
62
7
6
CONTINUOUS
10
-325.2397233112
20
28.4658334676
40
2.5000000000
100
AcDbArc
50
0.0000000000
51
90.0000000000
0
ARC
5
39E
100
AcDbEntity
8
0
100
AcDbCircle
62
7
6
CONTINUOUS
10
-1025.2397233112
20
28.4658334676
40
2.5000000000
100
AcDbArc
50
90.0000000000
51
180.0000000000
0
ARC
5
39F
100
AcDbEntity
8
0
100
AcDbCircle
62
7
6
CONTINUOUS
10
-1025.7397233112
20
0.9658334676
40
2.0000000000
100
AcDbArc
50
255.3887798536
51
270.0000000000
0
ENDSEC
0
SECTION
2
OBJECTS
0
DICTIONARY
5
3A0
100
AcDbDictionary
3
ACAD_GROUP
350
3A1
3
ACAD_MLINESTYLE
350
3A2
0
DICTIONARY
5
3A1
102
{ACAD_REACTORS
330
3A0
102
}
100
AcDbDictionary
0
DICTIONARY
5
3A2
102
{ACAD_REACTORS
330
3A0
102
}
100
AcDbDictionary
3
STANDARD
350
3A3
0
MLINESTYLE
5
3A3
102
{ACAD_REACTORS
330
3A2
102
}
100
AcDbMlineStyle
2
STANDARD
70
0
3

62
256
51
90.0
52
90.0
71
2
49
0.5
62
256
6
BYLAYER
49
-0.5
62
256
6
BYLAYER
0
ENDSEC
0
EOF
