0
SECTION
2
HEADER
9
$ACADVER
1
AC1014
9
$HANDSEED
5
       33F
9
$EXTMAX
10
297.0000000000
20
210.0000000000
9
$EXTMIN
10
0.0000000000
20
0.0000000000
9
$LIMMIN
10
0.0000000000
20
0.0000000000
9
$LIMMAX
10
297.0000000000
20
210.0000000000
9
$VIEWCTR
10
148.5000000000
20
105.0000000000
9
$VIEWSIZE
40
210.0000000000
9
$CLAYER
8
0
9
$LTSCALE
40
16.3350000000
9
$CELTYPE
6
BYLAYER
9
$DIMSCALE
40
1
9
$DIMASZ
40
3.0000000000
9
$DIMEXO
40
1.8562500000
9
$DIMDLI
40
11.2860000000
9
$DIMEXE
40
5.3460000000
9
$DIMCEN
40
2.6730000000
9
$DIMLFAC
40
1.0000000000
9
$DIMTXT
40
3.0000000000
9
$DIMTOL
70
1
9
$DIMLIM
70
0
9
$DIMTFAC
40
1.0000000000
9
$DIMTP
40
0.0100000000
9
$DIMTM
40
0.0100000000
9
$MEASUREMENT
70
1
0
ENDSEC
0
SECTION
2
CLASSES
0
ENDSEC
0
SECTION
2
TABLES
0
TABLE
2
VPORT
5
8
100
AcDbSymbolTable
70
2
0
VPORT
5
1F4
100
AcDbSymbolTableRecord
100
AcDbViewportTableRecord
2
*ACTIVE
70
0
10
0.0
20
0.0
11
1.0
21
1.0
12
148.5000000000
22
105.0000000000
13
0.0
23
0.0
14
1.0
24
1.0
15
0.0
25
0.0
16
0.0
26
0.0
36
1.0
17
0.0
27
0.0
37
0.0
40
210.0000000000
41
1.4142857143
42
50.0
43
0.0
44
0.0
50
0.0
51
0.0
71
0
72
100
73
1
74
1
75
0
76
0
77
0
78
0
0
ENDTAB
0
TABLE
2
LTYPE
5
5
100
AcDbSymbolTable
70
6
0
LTYPE
5
14
100
AcDbSymbolTableRecord
100
AcDbLinetypeTableRecord
2
BYBLOCK
70
0
3

72
65
73
0
40
0.0
0
LTYPE
5
15
100
AcDbSymbolTableRecord
100
AcDbLinetypeTableRecord
2
BYLAYER
70
0
3

72
65
73
0
40
0.0
0
LTYPE
5
16
100
AcDbSymbolTableRecord
100
AcDbLinetypeTableRecord
2
CONTINUOUS
70
64
3
Solid line
72
65
73
0
40
0
0
LTYPE
5
1F5
100
AcDbSymbolTableRecord
100
AcDbLinetypeTableRecord
2
CENTER
70
64
3
____ _ ____ _ ____ _ ____ _ ____ _ ____ _ ____
72
65
73
4
40
0.6
49
0.375
74
0
49
-0.075
74
0
49
0.075
74
0
49
-0.075
74
0
0
LTYPE
5
1F6
100
AcDbSymbolTableRecord
100
AcDbLinetypeTableRecord
2
HIDDEN
70
64
3
- - - - - - - - - - - - - - - - - - - -
72
65
73
2
40
0.2
49
0.1
74
0
49
-0.1
74
0
0
LTYPE
5
1F7
100
AcDbSymbolTableRecord
100
AcDbLinetypeTableRecord
2
PHANTOM
70
64
3
_____ _ _ _____ _ _ _____ _ _ _____
72
65
73
6
40
0.8
49
0.45
74
0
49
-0.05
74
0
49
0.1
74
0
49
-0.05
74
0
49
0.1
74
0
49
-0.05
74
0
0
LTYPE
5
1F8
100
AcDbSymbolTableRecord
100
AcDbLinetypeTableRecord
2
DOT
70
64
3
. . . . . . . . . . . . . . . . . . . .
72
65
73
2
40
0.2
49
0.1
74
0
49
-0.1
74
0
0
LTYPE
5
1F9
100
AcDbSymbolTableRecord
100
AcDbLinetypeTableRecord
2
DASHED
70
64
3
- - - - - - - - - - - - - - - - - - - -
72
65
73
2
40
0.2
49
0.1
74
0
49
-0.1
74
0
0
ENDTAB
0
TABLE
2
LAYER
5
2
100
AcDbSymbolTable
70
36
0
LAYER
5
10
100
AcDbSymbolTableRecord
100
AcDbLayerTableRecord
2
0
70
0
62
7
6
CONTINUOUS
0
LAYER
5
1FA
100
AcDbSymbolTableRecord
100
AcDbLayerTableRecord
2
DEFAULT_1
70
0
62
7
6
CENTER
0
LAYER
5
1FB
100
AcDbSymbolTableRecord
100
AcDbLayerTableRecord
2
DEFAULT_2
70
0
62
8
6
HIDDEN
0
LAYER
5
1FC
100
AcDbSymbolTableRecord
100
AcDbLayerTableRecord
2
DEFAULT_3
70
0
62
7
6
PHANTOM
0
LAYER
5
1FD
100
AcDbSymbolTableRecord
100
AcDbLayerTableRecord
2
ALTRI_PIANI
70
0
62
7
6
CONTINUOUS
0
LAYER
5
1FE
100
AcDbSymbolTableRecord
100
AcDbLayerTableRecord
2
ASSI
70
0
62
7
6
CONTINUOUS
0
LAYER
5
1FF
100
AcDbSymbolTableRecord
100
AcDbLayerTableRecord
2
COORDINATE
70
0
62
7
6
CONTINUOUS
0
LAYER
5
200
100
AcDbSymbolTableRecord
100
AcDbLayerTableRecord
2
COORD_ORIGINE
70
0
62
7
6
CONTINUOUS
0
LAYER
5
201
100
AcDbSymbolTableRecord
100
AcDbLayerTableRecord
2
NOTE
70
0
62
7
6
CONTINUOUS
0
LAYER
5
202
100
AcDbSymbolTableRecord
100
AcDbLayerTableRecord
2
PIANI
70
0
62
7
6
CONTINUOUS
0
LAYER
5
203
100
AcDbSymbolTableRecord
100
AcDbLayerTableRecord
2
PIANI_ORIGINE
70
0
62
7
6
CONTINUOUS
0
LAYER
5
204
100
AcDbSymbolTableRecord
100
AcDbLayerTableRecord
2
RACCORDO
70
0
62
7
6
CONTINUOUS
0
LAYER
5
205
100
AcDbSymbolTableRecord
100
AcDbLayerTableRecord
2
SNAPLINE
70
0
62
7
6
CONTINUOUS
0
LAYER
5
206
100
AcDbSymbolTableRecord
100
AcDbLayerTableRecord
2
TRASH
70
0
62
7
6
CONTINUOUS
0
ENDTAB
0
TABLE
2
STYLE
5
3
100
AcDbSymbolTable
70
1
0
STYLE
5
11
100
AcDbSymbolTableRecord
100
AcDbTextStyleTableRecord
2
STANDARD
70
0
40
0.0
41
0.8000000000
50
0.0
71
0
42
0.2
3
txt
4

0
ENDTAB
0
TABLE
2
VIEW
5
6
100
AcDbSymbolTable
70
0
0
ENDTAB
0
TABLE
2
UCS
5
7
100
AcDbSymbolTable
70
0
0
ENDTAB
0
TABLE
2
APPID
5
9
100
AcDbSymbolTable
70
1
0
APPID
5
207
100
AcDbSymbolTableRecord
100
AcDbRegAppTableRecord
2
ACAD
70
0
0
ENDTAB
0
TABLE
2
DIMSTYLE
5
A
100
AcDbSymbolTable
70
1
0
DIMSTYLE
105
208
100
AcDbSymbolTableRecord
100
AcDbDimStyleTableRecord
2
STANDARD
70
0
3

4

5

6

7

40
1.0
41
3.0000000000
42
0.0625
43
0.38
44
0.18
45
0.0
46
0.0
47
0.0100000000
48
0.0100000000
140
3.0000000000
141
0.09
142
0.0
143
25.4
144
1.0000000000
145
0.0
146
1.0000000000
147
0.09
71
1
72
0
73
0
74
0
75
0
76
0
77
1
78
8
170
0
171
2
172
0
173
0
174
0
175
0
176
0
177
0
178
0
270
2
271
2
272
2
273
2
274
2
340
11
275
0
280
0
281
0
282
0
283
1
284
8
285
0
286
0
287
3
288
0
0
DIMSTYLE
105
209
100
AcDbSymbolTableRecord
100
AcDbDimStyleTableRecord
2
DIMSTYLE_1
70
0
3

4

5

6

7

40
1.0
41
3.0000000000
42
0.0625
43
0.38
44
0.18
45
0.0
46
0.0
47
0.0000000000
48
0.0000000000
140
3.0000000000
141
0.09
142
0.0
143
25.4
144
1.0000000000
145
0.0
146
1.0000000000
147
0.09
71
0
72
0
73
0
74
0
75
0
76
0
77
1
78
8
170
0
171
2
172
0
173
0
174
0
175
0
176
0
177
0
178
0
270
2
271
2
272
2
273
2
274
2
340
11
275
0
280
0
281
0
282
0
283
1
284
8
285
0
286
0
287
3
288
0
0
ENDTAB
0
TABLE
2
BLOCK_RECORD
5
1
100
AcDbSymbolTable
70
0
0
BLOCK_RECORD
5
1B
100
AcDbSymbolTableRecord
100
AcDbBlockTableRecord
2
*MODEL_SPACE
0
BLOCK_RECORD
5
1C
100
AcDbSymbolTableRecord
100
AcDbBlockTableRecord
2
*PAPER_SPACE
0
BLOCK_RECORD
5
20A
100
AcDbSymbolTableRecord
100
AcDbBlockTableRecord
2
*D0
0
BLOCK_RECORD
5
20B
100
AcDbSymbolTableRecord
100
AcDbBlockTableRecord
2
*D1
0
BLOCK_RECORD
5
20C
100
AcDbSymbolTableRecord
100
AcDbBlockTableRecord
2
*D2
0
BLOCK_RECORD
5
20D
100
AcDbSymbolTableRecord
100
AcDbBlockTableRecord
2
*D3
0
ENDTAB
0
ENDSEC
0
SECTION
2
BLOCKS
0
BLOCK
5
1E
100
AcDbEntity
8
0
100
AcDbBlockBegin
2
*MODEL_SPACE
70
0
10
0.0
20
0.0
30
0.0
3
*MODEL_SPACE
1

0
ENDBLK
5
1F
100
AcDbEntity
8
0
100
AcDbBlockEnd
0
BLOCK
5
20
100
AcDbEntity
8
0
100
AcDbBlockBegin
2
*PAPER_SPACE
70
0
10
0.0
20
0.0
30
0.0
3
*PAPER_SPACE
1

0
ENDBLK
5
21
100
AcDbEntity
8
0
100
AcDbBlockEnd
0
BLOCK
5
20E
100
AcDbEntity
8
0
100
AcDbBlockBegin
62
7
6
CONTINUOUS
2
*D0
70
65
10
0.0000000000
20
0.0000000000
3
*D0
1

0
TEXT
5
20F
100
AcDbEntity
8
0
100
AcDbText
62
7
6
CONTINUOUS
10
238.1690004905
20
-6.9431861623
7
STANDARD
40
3.0000000000
1
89,4
50
90.0000000000
41
0.7321428571
72
0
100
AcDbText
0
LINE
5
210
100
AcDbEntity
8
0
100
AcDbLine
62
7
6
CONTINUOUS
10
176.9190004905
20
43.6273691490
11
240.4190004905
21
43.6273691490
0
LINE
5
211
100
AcDbEntity
8
0
100
AcDbLine
62
7
6
CONTINUOUS
10
214.4190004905
20
-45.7726308510
11
240.4190004905
21
-45.7726308510
0
LINE
5
212
100
AcDbEntity
8
0
100
AcDbLine
62
7
6
CONTINUOUS
10
238.9190004905
20
43.6273691490
11
238.9190004905
21
-1.0726308510
0
LINE
5
213
100
AcDbEntity
8
0
100
AcDbLine
62
7
6
CONTINUOUS
10
238.9190004905
20
-45.7726308510
11
238.9190004905
21
-1.0726308510
0
SOLID
5
214
100
AcDbEntity
8
0
100
AcDbTrace
62
7
6
CONTINUOUS
10
239.3190004905
20
40.6273691490
11
238.9190004905
21
43.6273691490
12
238.5190004905
22
40.6273691490
13
238.5190004905
23
40.6273691490
0
SOLID
5
215
100
AcDbEntity
8
0
100
AcDbTrace
62
7
6
CONTINUOUS
10
238.5190004905
20
-42.7726308510
11
238.9190004905
21
-45.7726308510
12
239.3190004905
22
-42.7726308510
13
239.3190004905
23
-42.7726308510
0
ENDBLK
5
216
100
AcDbEntity
8
0
100
AcDbBlockEnd
0
BLOCK
5
217
100
AcDbEntity
8
0
100
AcDbBlockBegin
62
7
6
CONTINUOUS
2
*D1
70
65
10
0.0000000000
20
0.0000000000
3
*D1
1

0
TEXT
5
218
100
AcDbEntity
8
0
100
AcDbText
62
7
6
CONTINUOUS
10
228.1690004905
20
-10.4639812354
7
STANDARD
40
3.0000000000
1
66
50
90.0000000000
41
0.7857142857
72
0
100
AcDbText
0
LINE
5
219
100
AcDbEntity
8
0
100
AcDbLine
62
7
6
CONTINUOUS
10
206.9190004905
20
27.2273691490
11
230.4190004905
21
27.2273691490
0
LINE
5
21A
100
AcDbEntity
8
0
100
AcDbLine
62
7
6
CONTINUOUS
10
206.9190004905
20
-38.7726308510
11
230.4190004905
21
-38.7726308510
0
LINE
5
21B
100
AcDbEntity
8
0
100
AcDbLine
62
7
6
CONTINUOUS
10
228.9190004905
20
27.2273691490
11
228.9190004905
21
-5.7726308510
0
LINE
5
21C
100
AcDbEntity
8
0
100
AcDbLine
62
7
6
CONTINUOUS
10
228.9190004905
20
-38.7726308510
11
228.9190004905
21
-5.7726308510
0
SOLID
5
21D
100
AcDbEntity
8
0
100
AcDbTrace
62
7
6
CONTINUOUS
10
229.3190004905
20
24.2273691490
11
228.9190004905
21
27.2273691490
12
228.5190004905
22
24.2273691490
13
228.5190004905
23
24.2273691490
0
SOLID
5
21E
100
AcDbEntity
8
0
100
AcDbTrace
62
7
6
CONTINUOUS
10
228.5190004905
20
-35.7726308510
11
228.9190004905
21
-38.7726308510
12
229.3190004905
22
-35.7726308510
13
229.3190004905
23
-35.7726308510
0
ENDBLK
5
21F
100
AcDbEntity
8
0
100
AcDbBlockEnd
0
BLOCK
5
220
100
AcDbEntity
8
0
100
AcDbBlockBegin
62
7
6
CONTINUOUS
2
*D2
70
65
10
0.0000000000
20
0.0000000000
3
*D2
1

0
TEXT
5
221
100
AcDbEntity
8
0
100
AcDbText
62
7
6
CONTINUOUS
10
-16.6325310572
20
54.3773691490
7
STANDARD
40
3.0000000000
1
490
41
0.7857142857
72
0
100
AcDbText
0
LINE
5
222
100
AcDbEntity
8
0
100
AcDbLine
62
7
6
CONTINUOUS
10
218.9190004905
20
29.7273691490
11
218.9190004905
21
55.1273691490
0
LINE
5
223
100
AcDbEntity
8
0
100
AcDbLine
62
7
6
CONTINUOUS
10
-271.0809995095
20
29.7273691490
11
-271.0809995095
21
55.1273691490
0
LINE
5
224
100
AcDbEntity
8
0
100
AcDbLine
62
7
6
CONTINUOUS
10
218.9190004905
20
53.6273691490
11
-26.0809995095
21
53.6273691490
0
LINE
5
225
100
AcDbEntity
8
0
100
AcDbLine
62
7
6
CONTINUOUS
10
-271.0809995095
20
53.6273691490
11
-26.0809995095
21
53.6273691490
0
SOLID
5
226
100
AcDbEntity
8
0
100
AcDbTrace
62
7
6
CONTINUOUS
10
215.9190004905
20
53.2273691490
11
218.9190004905
21
53.6273691490
12
215.9190004905
22
54.0273691490
13
215.9190004905
23
54.0273691490
0
SOLID
5
227
100
AcDbEntity
8
0
100
AcDbTrace
62
7
6
CONTINUOUS
10
-268.0809995095
20
54.0273691490
11
-271.0809995095
21
53.6273691490
12
-268.0809995095
22
53.2273691490
13
-268.0809995095
23
53.2273691490
0
ENDBLK
5
228
100
AcDbEntity
8
0
100
AcDbBlockEnd
0
BLOCK
5
229
100
AcDbEntity
8
0
100
AcDbBlockBegin
62
7
6
CONTINUOUS
2
*D3
70
65
10
0.0000000000
20
0.0000000000
3
*D3
1

0
TEXT
5
22A
100
AcDbEntity
8
0
100
AcDbText
62
7
6
CONTINUOUS
10
-572.5175684782
20
54.3773691490
7
STANDARD
40
3.0000000000
1
459,5
41
0.7142857143
72
0
100
AcDbText
0
LINE
5
22B
100
AcDbEntity
8
0
100
AcDbLine
62
7
6
CONTINUOUS
10
-329.6401463823
20
41.6273691490
11
-329.6401463823
21
55.1273691490
0
LINE
5
22C
100
AcDbEntity
8
0
100
AcDbLine
62
7
6
CONTINUOUS
10
-789.1401463823
20
32.7273691490
11
-789.1401463823
21
55.1273691490
0
LINE
5
22D
100
AcDbEntity
8
0
100
AcDbLine
62
7
6
CONTINUOUS
10
-329.6401463823
20
53.6273691490
11
-559.3901463823
21
53.6273691490
0
LINE
5
22E
100
AcDbEntity
8
0
100
AcDbLine
62
7
6
CONTINUOUS
10
-789.1401463823
20
53.6273691490
11
-559.3901463823
21
53.6273691490
0
SOLID
5
22F
100
AcDbEntity
8
0
100
AcDbTrace
62
7
6
CONTINUOUS
10
-332.6401463823
20
53.2273691490
11
-329.6401463823
21
53.6273691490
12
-332.6401463823
22
54.0273691490
13
-332.6401463823
23
54.0273691490
0
SOLID
5
230
100
AcDbEntity
8
0
100
AcDbTrace
62
7
6
CONTINUOUS
10
-786.1401463823
20
54.0273691490
11
-789.1401463823
21
53.6273691490
12
-786.1401463823
22
53.2273691490
13
-786.1401463823
23
53.2273691490
0
ENDBLK
5
231
100
AcDbEntity
8
0
100
AcDbBlockEnd
0
ENDSEC
0
SECTION
2
ENTITIES
0
DIMENSION
5
232
100
AcDbEntity
8
0
100
AcDbDimension
62
7
6
CONTINUOUS
2
*D0
10
238.9190004905
20
-45.7726308510
11
236.6690004905
21
-2.5503290195
70
160
3
DIMSTYLE_1
100
AcDbAlignedDimension
13
176.9190004905
23
43.6273691490
14
214.4190004905
24
-45.7726308510
50
270.000000
100
AcDbRotatedDimension
0
DIMENSION
5
233
100
AcDbEntity
8
0
100
AcDbDimension
62
7
6
CONTINUOUS
2
*D1
10
228.9190004905
20
-38.7726308510
11
226.6690004905
21
-8.1068383783
70
160
3
DIMSTYLE_1
100
AcDbAlignedDimension
13
206.9190004905
23
27.2273691490
14
206.9190004905
24
-38.7726308510
50
270.000000
100
AcDbRotatedDimension
0
DIMENSION
5
234
100
AcDbEntity
8
0
100
AcDbDimension
62
7
6
CONTINUOUS
2
*D2
10
-271.0809995095
20
53.6273691490
11
-13.0968167715
21
55.8773691490
70
160
3
DIMSTYLE_1
100
AcDbAlignedDimension
13
218.9190004905
23
29.7273691490
14
-271.0809995095
24
29.7273691490
50
180.000000
100
AcDbRotatedDimension
0
DIMENSION
5
235
100
AcDbEntity
8
0
100
AcDbDimension
62
7
6
CONTINUOUS
2
*D3
10
-789.1401463823
20
53.6273691490
11
-567.1604256210
21
55.8773691490
70
160
3
DIMSTYLE_1
100
AcDbAlignedDimension
13
-329.6401463823
23
41.6273691490
14
-789.1401463823
24
32.7273691490
50
180.000000
100
AcDbRotatedDimension
0
LINE
5
236
100
AcDbEntity
8
0
100
AcDbLine
62
7
6
CONTINUOUS
10
-271.0809995095
20
-40.7726308510
11
-271.0809995095
21
29.2273691490
0
LINE
5
237
100
AcDbEntity
8
0
100
AcDbLine
62
7
6
CONTINUOUS
10
-262.6809995095
20
23.1273691490
11
-262.6809995095
21
7.3273691490
0
LINE
5
238
100
AcDbEntity
8
0
100
AcDbLine
62
7
6
CONTINUOUS
10
-262.6809995095
20
-18.8726308510
11
-262.6809995095
21
-34.6726308510
0
LINE
5
239
100
AcDbEntity
8
0
100
AcDbLine
62
7
6
CONTINUOUS
10
-254.4809995095
20
-34.6726308510
11
-254.4809995095
21
-18.8726308510
0
LINE
5
23A
100
AcDbEntity
8
0
100
AcDbLine
62
7
6
CONTINUOUS
10
-254.4809995095
20
7.3273691490
11
-254.4809995095
21
23.1273691490
0
LINE
5
23B
100
AcDbEntity
8
0
100
AcDbLine
62
9
6
CONTINUOUS
10
-250.5809995095
20
-45.7726308510
11
-250.5809995095
21
34.2273691490
0
LINE
5
23C
100
AcDbEntity
8
0
100
AcDbLine
62
7
6
CONTINUOUS
10
-249.0809995095
20
32.2273691490
11
-249.0809995095
21
3.0273691490
0
LINE
5
23D
100
AcDbEntity
8
0
100
AcDbLine
62
7
6
CONTINUOUS
10
-247.5809995095
20
-0.3242462441
11
-247.5809995095
21
-45.7726308510
0
LINE
5
23E
100
AcDbEntity
8
0
100
AcDbLine
62
7
6
CONTINUOUS
10
-247.0809995095
20
32.2273691490
11
-247.0809995095
21
3.0273691490
0
LINE
5
23F
100
AcDbEntity
8
0
100
AcDbLine
62
9
6
CONTINUOUS
10
-245.0809995095
20
39.2273691490
11
-245.0809995095
21
36.7273691490
0
LINE
5
240
100
AcDbEntity
8
0
100
AcDbLine
62
9
6
CONTINUOUS
10
-245.0809995095
20
-2.7726308510
11
-245.0809995095
21
-1.4726308510
0
LINE
5
241
100
AcDbEntity
8
0
100
AcDbLine
62
7
6
CONTINUOUS
10
-245.0809995095
20
0.6273691490
11
-245.0809995095
21
34.7273691490
0
LINE
5
242
100
AcDbEntity
8
0
100
AcDbLine
62
7
6
CONTINUOUS
10
-245.0809995095
20
39.2273691490
11
-245.0809995095
21
39.9025522027
0
LINE
5
243
100
AcDbEntity
8
0
100
AcDbLine
62
7
6
CONTINUOUS
10
-245.0809995095
20
43.3521860953
11
-245.0809995095
21
43.6273691490
0
LINE
5
244
100
AcDbEntity
8
0
100
AcDbLine
62
9
6
CONTINUOUS
10
-244.5809995095
20
0.5273691490
11
-244.5809995095
21
-1.4726308510
0
LINE
5
245
100
AcDbEntity
8
0
100
AcDbLine
62
9
6
CONTINUOUS
10
-244.5809995095
20
34.7273691490
11
-244.5809995095
21
36.7273691490
0
LINE
5
246
100
AcDbEntity
8
0
100
AcDbLine
62
9
6
CONTINUOUS
10
-244.0809995095
20
43.6273691490
11
-244.0809995095
21
42.1273691490
0
LINE
5
247
100
AcDbEntity
8
0
100
AcDbLine
62
9
6
CONTINUOUS
10
-244.0809995095
20
39.6273691490
11
-244.0809995095
21
41.1273691490
0
LINE
5
248
100
AcDbEntity
8
0
100
AcDbLine
62
9
6
CONTINUOUS
10
-242.5809995095
20
36.7273691490
11
-242.5809995095
21
39.2273691490
0
LINE
5
249
100
AcDbEntity
8
0
100
AcDbLine
62
9
6
CONTINUOUS
10
-235.6045417964
20
-0.8694209005
11
-235.5120469930
21
-2.8672809334
0
LINE
5
24A
100
AcDbEntity
8
0
100
AcDbLine
62
7
6
CONTINUOUS
10
-237.5809995095
20
37.7766275682
11
-237.5809995095
21
39.2273691490
0
LINE
5
24B
100
AcDbEntity
8
0
100
AcDbLine
62
9
6
CONTINUOUS
10
-230.5809995095
20
39.6273691490
11
-230.5809995095
21
41.1273691490
0
LINE
5
24C
100
AcDbEntity
8
0
100
AcDbLine
62
7
6
CONTINUOUS
10
-229.5809995095
20
-2.7726308510
11
-229.5809995095
21
-6.7726308510
0
LINE
5
24D
100
AcDbEntity
8
0
100
AcDbLine
62
7
6
CONTINUOUS
10
-228.5809995095
20
2.6273691490
11
-228.5809995095
21
43.6273691490
0
LINE
5
24E
100
AcDbEntity
8
0
100
AcDbLine
62
7
6
CONTINUOUS
10
-227.0809995095
20
29.6273691490
11
-227.0809995095
21
2.6273691490
0
LINE
5
24F
100
AcDbEntity
8
0
100
AcDbLine
62
9
6
CONTINUOUS
10
-235.6045417964
20
36.1241591985
11
-235.5120469930
21
38.1220192314
0
LINE
5
250
100
AcDbEntity
8
0
100
AcDbLine
62
9
6
CONTINUOUS
10
-238.2809995095
20
0.5273691490
11
-239.2131543160
21
-1.4726308510
0
LINE
5
251
100
AcDbEntity
8
0
100
AcDbLine
62
9
6
CONTINUOUS
10
-238.2809995095
20
34.7273691490
11
-239.2131543160
21
36.7273691490
0
LINE
5
252
100
AcDbEntity
8
0
100
AcDbLine
62
7
6
CONTINUOUS
10
-232.0809995095
20
33.6273691490
11
-230.2267335627
21
34.3768341572
0
LINE
5
253
100
AcDbEntity
8
0
100
AcDbLine
62
7
6
CONTINUOUS
10
-232.0809995095
20
1.6273691490
11
-230.2267335627
21
0.8779041407
0
LINE
5
254
100
AcDbEntity
8
0
100
AcDbLine
62
7
6
CONTINUOUS
10
213.9190004905
20
-45.7726308510
11
195.4190004905
21
-45.7726308510
0
LINE
5
255
100
AcDbEntity
8
0
100
AcDbLine
62
7
6
CONTINUOUS
10
-247.5809995095
20
-45.7726308510
11
-266.0809995095
21
-45.7726308510
0
LINE
5
256
100
AcDbEntity
8
0
100
AcDbLine
62
7
6
CONTINUOUS
10
-226.5809995095
20
-9.7726308510
11
174.4190004905
21
-9.7726308510
0
LINE
5
257
100
AcDbEntity
8
0
100
AcDbLine
62
9
6
CONTINUOUS
10
-229.5809995095
20
-3.2726308510
11
177.4190004905
21
-3.2726308510
0
LINE
5
258
100
AcDbEntity
8
0
100
AcDbLine
62
7
6
CONTINUOUS
10
192.9190004905
20
-2.7726308510
11
184.5734315164
21
-2.7726308510
0
LINE
5
259
100
AcDbEntity
8
0
100
AcDbLine
62
7
6
CONTINUOUS
10
182.5313509393
20
-2.7726308510
11
-234.6933499583
21
-2.7726308510
0
LINE
5
25A
100
AcDbEntity
8
0
100
AcDbLine
62
7
6
CONTINUOUS
10
-236.7354305353
20
-2.7726308510
11
-245.0809995095
21
-2.7726308510
0
LINE
5
25B
100
AcDbEntity
8
0
100
AcDbLine
62
7
6
CONTINUOUS
10
-244.5809995095
20
-1.4726308510
11
-239.2131543160
21
-1.4726308510
0
LINE
5
25C
100
AcDbEntity
8
0
100
AcDbLine
62
7
6
CONTINUOUS
10
187.0511552970
20
-1.4726308510
11
192.4190004905
21
-1.4726308510
0
LINE
5
25D
100
AcDbEntity
8
0
100
AcDbLine
62
7
6
CONTINUOUS
10
185.3792037030
20
-0.2726308510
11
181.5193135175
21
-0.2726308510
0
LINE
5
25E
100
AcDbEntity
8
0
100
AcDbLine
62
7
6
CONTINUOUS
10
178.6840596145
20
-0.2726308510
11
-230.8460586334
21
-0.2726308510
0
LINE
5
25F
100
AcDbEntity
8
0
100
AcDbLine
62
7
6
CONTINUOUS
10
-233.6813125364
20
-0.2726308510
11
-237.5412027219
21
-0.2726308510
0
LINE
5
260
100
AcDbEntity
8
0
100
AcDbLine
62
7
6
CONTINUOUS
10
-244.5809995095
20
0.5273691490
11
-238.2809995095
21
0.5273691490
0
LINE
5
261
100
AcDbEntity
8
0
100
AcDbLine
62
7
6
CONTINUOUS
10
186.1190004905
20
0.5273691490
11
192.4190004905
21
0.5273691490
0
LINE
5
262
100
AcDbEntity
8
0
100
AcDbLine
62
9
6
CONTINUOUS
10
192.9190004905
20
0.6273691490
11
180.5067930997
21
0.6273691490
0
LINE
5
263
100
AcDbEntity
8
0
100
AcDbLine
62
9
6
CONTINUOUS
10
178.1735593816
20
0.6273691490
11
-230.2267335627
21
0.6273691490
0
LINE
5
264
100
AcDbEntity
8
0
100
AcDbLine
62
9
6
CONTINUOUS
10
-232.6687921186
20
0.6273691490
11
-245.0809995095
21
0.6273691490
0
LINE
5
265
100
AcDbEntity
8
0
100
AcDbLine
62
7
6
CONTINUOUS
10
174.9190004905
20
2.6273691490
11
176.4190004905
21
2.6273691490
0
LINE
5
266
100
AcDbEntity
8
0
100
AcDbLine
62
7
6
CONTINUOUS
10
-227.0809995095
20
2.6273691490
11
-228.5809995095
21
2.6273691490
0
LINE
5
267
100
AcDbEntity
8
0
100
AcDbLine
62
9
6
CONTINUOUS
10
194.9190004905
20
3.0273691490
11
196.9190004905
21
3.0273691490
0
LINE
5
268
100
AcDbEntity
8
0
100
AcDbLine
62
9
6
CONTINUOUS
10
-247.0809995095
20
3.0273691490
11
-249.0809995095
21
3.0273691490
0
LINE
5
269
100
AcDbEntity
8
0
100
AcDbLine
62
9
6
CONTINUOUS
10
-271.0809995095
20
7.2273691490
11
-262.6795861910
21
7.2273691490
0
LINE
5
26A
100
AcDbEntity
8
0
100
AcDbLine
62
9
6
CONTINUOUS
10
-254.4824128279
20
7.2273691490
11
-249.0809995095
21
7.2273691490
0
LINE
5
26B
100
AcDbEntity
8
0
100
AcDbLine
62
9
6
CONTINUOUS
10
196.9190004905
20
7.2273691490
11
202.3204138090
21
7.2273691490
0
LINE
5
26C
100
AcDbEntity
8
0
100
AcDbLine
62
9
6
CONTINUOUS
10
210.5175871721
20
7.2273691490
11
218.9190004905
21
7.2273691490
0
LINE
5
26D
100
AcDbEntity
8
0
100
AcDbLine
62
9
6
CONTINUOUS
10
174.9190004905
20
7.6273691490
11
176.4190004905
21
7.6273691490
0
LINE
5
26E
100
AcDbEntity
8
0
100
AcDbLine
62
9
6
CONTINUOUS
10
-227.0809995095
20
7.6273691490
11
-228.5809995095
21
7.6273691490
0
LINE
5
26F
100
AcDbEntity
8
0
100
AcDbLine
62
7
6
CONTINUOUS
10
176.4190004905
20
29.6273691490
11
-228.5809995095
21
29.6273691490
0
LINE
5
270
100
AcDbEntity
8
0
100
AcDbLine
62
9
6
CONTINUOUS
10
194.9190004905
20
32.2273691490
11
196.9190004905
21
32.2273691490
0
LINE
5
271
100
AcDbEntity
8
0
100
AcDbLine
62
9
6
CONTINUOUS
10
-247.0809995095
20
32.2273691490
11
-249.0809995095
21
32.2273691490
0
LINE
5
272
100
AcDbEntity
8
0
100
AcDbLine
62
7
6
CONTINUOUS
10
213.9190004905
20
34.2273691490
11
196.4495085110
21
34.2273691490
0
LINE
5
273
100
AcDbEntity
8
0
100
AcDbLine
62
7
6
CONTINUOUS
10
-248.6115075300
20
34.2273691490
11
-266.0809995095
21
34.2273691490
0
LINE
5
274
100
AcDbEntity
8
0
100
AcDbLine
62
7
6
CONTINUOUS
10
192.4190004905
20
34.7273691490
11
186.1190004905
21
34.7273691490
0
LINE
5
275
100
AcDbEntity
8
0
100
AcDbLine
62
7
6
CONTINUOUS
10
-238.2809995095
20
34.7273691490
11
-244.5809995095
21
34.7273691490
0
LINE
5
276
100
AcDbEntity
8
0
100
AcDbLine
62
7
6
CONTINUOUS
10
192.4190004905
20
36.7273691490
11
187.0511552970
21
36.7273691490
0
LINE
5
277
100
AcDbEntity
8
0
100
AcDbLine
62
7
6
CONTINUOUS
10
-239.2131543160
20
36.7273691490
11
-244.5809995095
21
36.7273691490
0
LINE
5
278
100
AcDbEntity
8
0
100
AcDbLine
62
7
6
CONTINUOUS
10
185.4190004905
20
39.2273691490
11
192.9190004905
21
39.2273691490
0
LINE
5
279
100
AcDbEntity
8
0
100
AcDbLine
62
7
6
CONTINUOUS
10
-237.5809995095
20
39.2273691490
11
-245.0809995095
21
39.2273691490
0
LINE
5
27A
100
AcDbEntity
8
0
100
AcDbLine
62
7
6
CONTINUOUS
10
-244.0809995095
20
39.6273691490
11
-230.5809995095
21
39.6273691490
0
LINE
5
27B
100
AcDbEntity
8
0
100
AcDbLine
62
7
6
CONTINUOUS
10
178.4190004905
20
39.6273691490
11
191.9190004905
21
39.6273691490
0
LINE
5
27C
100
AcDbEntity
8
0
100
AcDbLine
62
7
6
CONTINUOUS
10
-244.0809995095
20
41.1273691490
11
-230.5809995095
21
41.1273691490
0
LINE
5
27D
100
AcDbEntity
8
0
100
AcDbLine
62
9
6
CONTINUOUS
10
178.4190004905
20
41.1273691490
11
176.4190004905
21
41.1273691490
0
LINE
5
27E
100
AcDbEntity
8
0
100
AcDbLine
62
7
6
CONTINUOUS
10
178.4190004905
20
41.1273691490
11
191.9190004905
21
41.1273691490
0
LINE
5
27F
100
AcDbEntity
8
0
100
AcDbLine
62
9
6
CONTINUOUS
10
-228.5809995095
20
41.1273691490
11
-230.5809995095
21
41.1273691490
0
LINE
5
280
100
AcDbEntity
8
0
100
AcDbLine
62
9
6
CONTINUOUS
10
176.4190004905
20
41.6273691490
11
-228.5809995095
21
41.6273691490
0
LINE
5
281
100
AcDbEntity
8
0
100
AcDbLine
62
7
6
CONTINUOUS
10
191.9190004905
20
42.1273691490
11
176.4190004905
21
42.1273691490
0
LINE
5
282
100
AcDbEntity
8
0
100
AcDbLine
62
7
6
CONTINUOUS
10
-228.5809995095
20
42.1273691490
11
-244.0809995095
21
42.1273691490
0
LINE
5
283
100
AcDbEntity
8
0
100
AcDbLine
62
7
6
CONTINUOUS
10
192.9190004905
20
43.6273691490
11
-245.0809995095
21
43.6273691490
0
LINE
5
284
100
AcDbEntity
8
0
100
AcDbLine
62
7
6
CONTINUOUS
10
179.9190004905
20
1.6273691490
11
178.0647345437
21
0.8779041407
0
LINE
5
285
100
AcDbEntity
8
0
100
AcDbLine
62
7
6
CONTINUOUS
10
179.9190004905
20
33.6273691490
11
178.0647345437
21
34.3768341572
0
LINE
5
286
100
AcDbEntity
8
0
100
AcDbLine
62
9
6
CONTINUOUS
10
186.1190004905
20
34.7273691490
11
187.0511552970
21
36.7273691490
0
LINE
5
287
100
AcDbEntity
8
0
100
AcDbLine
62
7
6
CONTINUOUS
10
174.9190004905
20
2.6273691490
11
174.9190004905
21
29.6273691490
0
LINE
5
288
100
AcDbEntity
8
0
100
AcDbLine
62
9
6
CONTINUOUS
10
186.1190004905
20
0.5273691490
11
187.0511552970
21
-1.4726308510
0
LINE
5
289
100
AcDbEntity
8
0
100
AcDbLine
62
9
6
CONTINUOUS
10
183.4425427774
20
36.1241591985
11
183.3500479741
21
38.1220192314
0
LINE
5
28A
100
AcDbEntity
8
0
100
AcDbLine
62
7
6
CONTINUOUS
10
176.4190004905
20
2.6273691490
11
176.4190004905
21
43.6273691490
0
LINE
5
28B
100
AcDbEntity
8
0
100
AcDbLine
62
7
6
CONTINUOUS
10
177.4190004905
20
-2.7726308510
11
177.4190004905
21
-6.7726308510
0
LINE
5
28C
100
AcDbEntity
8
0
100
AcDbLine
62
9
6
CONTINUOUS
10
178.4190004905
20
39.6273691490
11
178.4190004905
21
41.1273691490
0
LINE
5
28D
100
AcDbEntity
8
0
100
AcDbLine
62
7
6
CONTINUOUS
10
185.4190004905
20
37.7766275682
11
185.4190004905
21
39.2273691490
0
LINE
5
28E
100
AcDbEntity
8
0
100
AcDbLine
62
9
6
CONTINUOUS
10
190.4190004905
20
36.7273691490
11
190.4190004905
21
39.2273691490
0
LINE
5
28F
100
AcDbEntity
8
0
100
AcDbLine
62
9
6
CONTINUOUS
10
191.9190004905
20
43.6273691490
11
191.9190004905
21
42.1273691490
0
LINE
5
290
100
AcDbEntity
8
0
100
AcDbLine
62
9
6
CONTINUOUS
10
191.9190004905
20
39.6273691490
11
191.9190004905
21
41.1273691490
0
LINE
5
291
100
AcDbEntity
8
0
100
AcDbLine
62
9
6
CONTINUOUS
10
183.4425427774
20
-0.8694209005
11
183.3500479741
21
-2.8672809334
0
LINE
5
292
100
AcDbEntity
8
0
100
AcDbLine
62
9
6
CONTINUOUS
10
192.4190004905
20
0.5273691490
11
192.4190004905
21
-1.4726308510
0
LINE
5
293
100
AcDbEntity
8
0
100
AcDbLine
62
9
6
CONTINUOUS
10
192.4190004905
20
34.7273691490
11
192.4190004905
21
36.7273691490
0
LINE
5
294
100
AcDbEntity
8
0
100
AcDbLine
62
9
6
CONTINUOUS
10
192.9190004905
20
39.2273691490
11
192.9190004905
21
36.7273691490
0
LINE
5
295
100
AcDbEntity
8
0
100
AcDbLine
62
9
6
CONTINUOUS
10
192.9190004905
20
-2.7726308510
11
192.9190004905
21
-1.4726308510
0
LINE
5
296
100
AcDbEntity
8
0
100
AcDbLine
62
7
6
CONTINUOUS
10
192.9190004905
20
0.6273691490
11
192.9190004905
21
34.7273691490
0
LINE
5
297
100
AcDbEntity
8
0
100
AcDbLine
62
7
6
CONTINUOUS
10
192.9190004905
20
39.2273691490
11
192.9190004905
21
39.9025522027
0
LINE
5
298
100
AcDbEntity
8
0
100
AcDbLine
62
7
6
CONTINUOUS
10
192.9190004905
20
43.3521860953
11
192.9190004905
21
43.6273691490
0
LINE
5
299
100
AcDbEntity
8
0
100
AcDbLine
62
7
6
CONTINUOUS
10
194.9190004905
20
3.0273691490
11
194.9190004905
21
32.2273691490
0
LINE
5
29A
100
AcDbEntity
8
0
100
AcDbLine
62
7
6
CONTINUOUS
10
195.4190004905
20
-0.3242462441
11
195.4190004905
21
-45.7726308510
0
LINE
5
29B
100
AcDbEntity
8
0
100
AcDbLine
62
7
6
CONTINUOUS
10
196.9190004905
20
3.0273691490
11
196.9190004905
21
32.2273691490
0
LINE
5
29C
100
AcDbEntity
8
0
100
AcDbLine
62
9
6
CONTINUOUS
10
198.4190004905
20
-45.7726308510
11
198.4190004905
21
34.2273691490
0
LINE
5
29D
100
AcDbEntity
8
0
100
AcDbLine
62
7
6
CONTINUOUS
10
202.3190004905
20
23.1273691490
11
202.3190004905
21
7.3273691490
0
LINE
5
29E
100
AcDbEntity
8
0
100
AcDbLine
62
7
6
CONTINUOUS
10
202.3190004905
20
-18.8726308510
11
202.3190004905
21
-34.6726308510
0
LINE
5
29F
100
AcDbEntity
8
0
100
AcDbLine
62
7
6
CONTINUOUS
10
210.5190004905
20
-34.6726308510
11
210.5190004905
21
-18.8726308510
0
LINE
5
2A0
100
AcDbEntity
8
0
100
AcDbLine
62
7
6
CONTINUOUS
10
210.5190004905
20
7.3273691490
11
210.5190004905
21
23.1273691490
0
LINE
5
2A1
100
AcDbEntity
8
0
100
AcDbLine
62
7
6
CONTINUOUS
10
218.9190004905
20
-40.7726308510
11
218.9190004905
21
29.2273691490
0
LINE
5
2A2
100
AcDbEntity
8
0
100
AcDbLine
62
7
6
CONTINUOUS
10
-789.1401463823
20
-2.8726169297
11
-789.1401463823
21
38.1273552277
0
LINE
5
2A3
100
AcDbEntity
8
0
100
AcDbLine
62
7
6
CONTINUOUS
10
-782.1401463823
20
41.6273691490
11
-782.1401463823
21
38.1273691490
0
LINE
5
2A4
100
AcDbEntity
8
0
100
AcDbLine
62
7
6
CONTINUOUS
10
-780.6401463823
20
41.6273691490
11
-780.6401463823
21
38.1273691490
0
LINE
5
2A5
100
AcDbEntity
8
0
100
AcDbLine
62
7
6
CONTINUOUS
10
-780.1401463823
20
22.1273691490
11
-780.1401463823
21
13.1273691490
0
LINE
5
2A6
100
AcDbEntity
8
0
100
AcDbLine
62
7
6
CONTINUOUS
10
-780.1401463823
20
38.1273691490
11
-780.1401463823
21
43.6273691490
0
LINE
5
2A7
100
AcDbEntity
8
0
100
AcDbLine
62
7
6
CONTINUOUS
10
-771.1401463823
20
13.1273691490
11
-771.1401463823
21
22.1273691490
0
LINE
5
2A8
100
AcDbEntity
8
0
100
AcDbLine
62
7
6
CONTINUOUS
10
-676.1401463823
20
-45.7726308510
11
-676.1401463823
21
34.2273691490
0
LINE
5
2A9
100
AcDbEntity
8
0
100
AcDbLine
62
7
6
CONTINUOUS
10
-673.6401463823
20
-45.7726308510
11
-673.6401463823
21
34.2273691490
0
LINE
5
2AA
100
AcDbEntity
8
0
100
AcDbLine
62
7
6
CONTINUOUS
10
-673.1401463823
20
39.2273691490
11
-673.1401463823
21
34.2273691490
0
LINE
5
2AB
100
AcDbEntity
8
0
100
AcDbLine
62
9
6
CONTINUOUS
10
-673.1401463823
20
-45.7726308510
11
-673.1401463823
21
34.2273691490
0
LINE
5
2AC
100
AcDbEntity
8
0
100
AcDbLine
62
7
6
CONTINUOUS
10
-660.1401463823
20
7.2273691490
11
-660.1401463823
21
-40.7726308510
0
LINE
5
2AD
100
AcDbEntity
8
0
100
AcDbLine
62
7
6
CONTINUOUS
10
-656.1401463823
20
-2.7726308510
11
-656.1401463823
21
7.2273691490
0
LINE
5
2AE
100
AcDbEntity
8
0
100
AcDbLine
62
9
6
CONTINUOUS
10
-656.1401463823
20
7.2273691490
11
-656.1401463823
21
39.2273691490
0
LINE
5
2AF
100
AcDbEntity
8
0
100
AcDbLine
62
7
6
CONTINUOUS
10
-673.6401463823
20
-45.7726308510
11
-665.1401463823
21
-45.7726308510
0
LINE
5
2B0
100
AcDbEntity
8
0
100
AcDbLine
62
7
6
CONTINUOUS
10
-673.6401463823
20
-45.7726308510
11
-676.1401463823
21
-45.7726308510
0
LINE
5
2B1
100
AcDbEntity
8
0
100
AcDbLine
62
9
6
CONTINUOUS
10
-673.6401463823
20
-40.7726308510
11
-676.1401463823
21
-40.7726308510
0
LINE
5
2B2
100
AcDbEntity
8
0
100
AcDbLine
62
7
6
CONTINUOUS
10
-555.6401463823
20
-9.7726308510
11
-553.1401463823
21
-9.7726308510
0
LINE
5
2B3
100
AcDbEntity
8
0
100
AcDbLine
62
9
6
CONTINUOUS
10
-555.6401463823
20
-6.7726308510
11
-553.1401463823
21
-6.7726308510
0
LINE
5
2B4
100
AcDbEntity
8
0
100
AcDbLine
62
9
6
CONTINUOUS
10
-553.1401463823
20
-3.2726308510
11
-555.6401463823
21
-3.2726308510
0
LINE
5
2B5
100
AcDbEntity
8
0
100
AcDbLine
62
7
6
CONTINUOUS
10
-789.1401463823
20
-2.8726308510
11
-676.1401463823
21
-2.8726308510
0
LINE
5
2B6
100
AcDbEntity
8
0
100
AcDbLine
62
7
6
CONTINUOUS
10
-660.1401463823
20
-2.8726308510
11
-339.1401463823
21
-2.8726308510
0
LINE
5
2B7
100
AcDbEntity
8
0
100
AcDbLine
62
7
6
CONTINUOUS
10
-556.1401463823
20
-2.7726308510
11
-656.1401463823
21
-2.7726308510
0
LINE
5
2B8
100
AcDbEntity
8
0
100
AcDbLine
62
7
6
CONTINUOUS
10
-332.1401463823
20
-1.8726308510
11
-338.6401463823
21
-1.8726308510
0
LINE
5
2B9
100
AcDbEntity
8
0
100
AcDbLine
62
7
6
CONTINUOUS
10
-339.1401463823
20
-1.4726308510
11
-556.1401463823
21
-1.4726308510
0
LINE
5
2BA
100
AcDbEntity
8
0
100
AcDbLine
62
7
6
CONTINUOUS
10
-656.1401463823
20
-1.4726308510
11
-660.1401463823
21
-1.4726308510
0
LINE
5
2BB
100
AcDbEntity
8
0
100
AcDbLine
62
7
6
CONTINUOUS
10
-676.1401463823
20
-1.4726308510
11
-789.1401463823
21
-1.4726308510
0
LINE
5
2BC
100
AcDbEntity
8
0
100
AcDbLine
62
7
6
CONTINUOUS
10
-338.6401463823
20
-0.3726308510
11
-332.1401463823
21
-0.3726308510
0
LINE
5
2BD
100
AcDbEntity
8
0
100
AcDbLine
62
9
6
CONTINUOUS
10
-331.1401463823
20
0.6273691490
11
-329.6401463823
21
0.6273691490
0
LINE
5
2BE
100
AcDbEntity
8
0
100
AcDbLine
62
7
6
CONTINUOUS
10
-556.1401463823
20
39.2273691490
11
-556.1401463823
21
-2.7726308510
0
LINE
5
2BF
100
AcDbEntity
8
0
100
AcDbLine
62
7
6
CONTINUOUS
10
-555.6401463823
20
-9.7726308510
11
-555.6401463823
21
-3.2726308510
0
LINE
5
2C0
100
AcDbEntity
8
0
100
AcDbLine
62
7
6
CONTINUOUS
10
-553.1401463823
20
-3.2726308510
11
-553.1401463823
21
-9.7726308510
0
LINE
5
2C1
100
AcDbEntity
8
0
100
AcDbLine
62
9
6
CONTINUOUS
10
-556.1401463823
20
2.2273691490
11
-656.1401463823
21
2.2273691490
0
LINE
5
2C2
100
AcDbEntity
8
0
100
AcDbLine
62
9
6
CONTINUOUS
10
-339.1401463823
20
3.0273691490
11
-556.1401463823
21
3.0273691490
0
LINE
5
2C3
100
AcDbEntity
8
0
100
AcDbLine
62
9
6
CONTINUOUS
10
-656.1401463823
20
3.0273691490
11
-660.1401463823
21
3.0273691490
0
LINE
5
2C4
100
AcDbEntity
8
0
100
AcDbLine
62
9
6
CONTINUOUS
10
-676.1401463823
20
3.0273691490
11
-789.1401463823
21
3.0273691490
0
LINE
5
2C5
100
AcDbEntity
8
0
100
AcDbLine
62
7
6
CONTINUOUS
10
-656.1401463823
20
7.2273691490
11
-660.1401463823
21
7.2273691490
0
LINE
5
2C6
100
AcDbEntity
8
0
100
AcDbLine
62
9
6
CONTINUOUS
10
-660.1401463823
20
7.2273691490
11
-676.1401463823
21
7.2273691490
0
LINE
5
2C7
100
AcDbEntity
8
0
100
AcDbLine
62
7
6
CONTINUOUS
10
-779.1401463823
20
12.1273691490
11
-772.1401463823
21
12.1273691490
0
LINE
5
2C8
100
AcDbEntity
8
0
100
AcDbLine
62
7
6
CONTINUOUS
10
-639.1401463823
20
17.4773691490
11
-633.1401463823
21
17.4773691490
0
LINE
5
2C9
100
AcDbEntity
8
0
100
AcDbLine
62
7
6
CONTINUOUS
10
-579.1401463823
20
17.4773691490
11
-573.1401463823
21
17.4773691490
0
LINE
5
2CA
100
AcDbEntity
8
0
100
AcDbLine
62
7
6
CONTINUOUS
10
-573.1401463823
20
22.4773691490
11
-579.1401463823
21
22.4773691490
0
LINE
5
2CB
100
AcDbEntity
8
0
100
AcDbLine
62
7
6
CONTINUOUS
10
-633.1401463823
20
22.4773691490
11
-639.1401463823
21
22.4773691490
0
LINE
5
2CC
100
AcDbEntity
8
0
100
AcDbLine
62
7
6
CONTINUOUS
10
-772.1401463823
20
23.1273691490
11
-779.1401463823
21
23.1273691490
0
LINE
5
2CD
100
AcDbEntity
8
0
100
AcDbLine
62
9
6
CONTINUOUS
10
-676.1401463823
20
29.2273691490
11
-673.6401463823
21
29.2273691490
0
LINE
5
2CE
100
AcDbEntity
8
0
100
AcDbLine
62
9
6
CONTINUOUS
10
-339.1401463823
20
32.2273691490
11
-556.1401463823
21
32.2273691490
0
LINE
5
2CF
100
AcDbEntity
8
0
100
AcDbLine
62
9
6
CONTINUOUS
10
-676.1401463823
20
32.2273691490
11
-789.1401463823
21
32.2273691490
0
LINE
5
2D0
100
AcDbEntity
8
0
100
AcDbLine
62
7
6
CONTINUOUS
10
-676.1401463823
20
34.2273691490
11
-673.6401463823
21
34.2273691490
0
LINE
5
2D1
100
AcDbEntity
8
0
100
AcDbLine
62
7
6
CONTINUOUS
10
-673.6401463823
20
34.2273691490
11
-673.1401463823
21
34.2273691490
0
LINE
5
2D2
100
AcDbEntity
8
0
100
AcDbLine
62
9
6
CONTINUOUS
10
-556.1401463823
20
34.2273691490
11
-673.1401463823
21
34.2273691490
0
LINE
5
2D3
100
AcDbEntity
8
0
100
AcDbLine
62
7
6
CONTINUOUS
10
-789.1401463823
20
36.7273691490
11
-673.1401463823
21
36.7273691490
0
LINE
5
2D4
100
AcDbEntity
8
0
100
AcDbLine
62
7
6
CONTINUOUS
10
-556.1401463823
20
36.7273691490
11
-339.1401463823
21
36.7273691490
0
LINE
5
2D5
100
AcDbEntity
8
0
100
AcDbLine
62
7
6
CONTINUOUS
10
-789.1401463823
20
38.1273691490
11
-673.1401463823
21
38.1273691490
0
LINE
5
2D6
100
AcDbEntity
8
0
100
AcDbLine
62
7
6
CONTINUOUS
10
-556.1401463823
20
38.1273691490
11
-339.1401463823
21
38.1273691490
0
LINE
5
2D7
100
AcDbEntity
8
0
100
AcDbLine
62
7
6
CONTINUOUS
10
-673.1401463823
20
39.2273691490
11
-556.1401463823
21
39.2273691490
0
LINE
5
2D8
100
AcDbEntity
8
0
100
AcDbLine
62
7
6
CONTINUOUS
10
-780.1401463823
20
39.6273691490
11
-340.1401463823
21
39.6273691490
0
LINE
5
2D9
100
AcDbEntity
8
0
100
AcDbLine
62
9
6
CONTINUOUS
10
-331.1401463823
20
41.1273691490
11
-329.6401463823
21
41.1273691490
0
LINE
5
2DA
100
AcDbEntity
8
0
100
AcDbLine
62
9
6
CONTINUOUS
10
-782.1401463823
20
41.6273691490
11
-780.6401463823
21
41.6273691490
0
LINE
5
2DB
100
AcDbEntity
8
0
100
AcDbLine
62
7
6
CONTINUOUS
10
-332.1401463823
20
42.1273691490
11
-340.1401463823
21
42.1273691490
0
LINE
5
2DC
100
AcDbEntity
8
0
100
AcDbLine
62
7
6
CONTINUOUS
10
-332.1401463823
20
43.6273691490
11
-780.1401463823
21
43.6273691490
0
LINE
5
2DD
100
AcDbEntity
8
0
100
AcDbLine
62
7
6
CONTINUOUS
10
-357.5714449694
20
26.5295783979
11
-367.5714449694
21
21.7491065999
0
LINE
5
2DE
100
AcDbEntity
8
0
100
AcDbLine
62
7
6
CONTINUOUS
10
-367.5714449694
20
13.5056316981
11
-357.5714449694
21
8.7251599001
0
LINE
5
2DF
100
AcDbEntity
8
0
100
AcDbLine
62
7
6
CONTINUOUS
10
-368.1401463823
20
20.8468973510
11
-368.1401463823
21
14.4078409470
0
LINE
5
2E0
100
AcDbEntity
8
0
100
AcDbLine
62
7
6
CONTINUOUS
10
-356.1401463823
20
9.6273691490
11
-356.1401463823
21
25.6273691490
0
LINE
5
2E1
100
AcDbEntity
8
0
100
AcDbLine
62
7
6
CONTINUOUS
10
-340.1401463823
20
38.1273691490
11
-340.1401463823
21
43.6273691490
0
LINE
5
2E2
100
AcDbEntity
8
0
100
AcDbLine
62
7
6
CONTINUOUS
10
-339.1401463823
20
-2.8726169297
11
-339.1401463823
21
38.1273552277
0
LINE
5
2E3
100
AcDbEntity
8
0
100
AcDbLine
62
7
6
CONTINUOUS
10
-338.6401463823
20
-1.8726308510
11
-338.6401463823
21
-0.3726308510
0
LINE
5
2E4
100
AcDbEntity
8
0
100
AcDbLine
62
9
6
CONTINUOUS
10
-333.6401463823
20
-1.8726308510
11
-333.6401463823
21
-0.3726308510
0
LINE
5
2E5
100
AcDbEntity
8
0
100
AcDbLine
62
9
6
CONTINUOUS
10
-332.1401463823
20
-0.3726308510
11
-332.1401463823
21
-1.8726308510
0
LINE
5
2E6
100
AcDbEntity
8
0
100
AcDbLine
62
7
6
CONTINUOUS
10
-332.1401463823
20
42.1273691490
11
-332.1401463823
21
43.6273691490
0
LINE
5
2E7
100
AcDbEntity
8
0
100
AcDbLine
62
7
6
CONTINUOUS
10
-331.1401463823
20
0.6273691490
11
-331.1401463823
21
41.1273691490
0
LINE
5
2E8
100
AcDbEntity
8
0
100
AcDbLine
62
7
6
CONTINUOUS
10
-329.6401463823
20
0.6273691490
11
-329.6401463823
21
41.1273691490
0
ARC
5
2E9
100
AcDbEntity
8
0
100
AcDbCircle
62
7
6
CONTINUOUS
10
-235.7895314030
20
3.1262991655
40
6.0000000000
100
AcDbArc
50
272.6507264076
51
337.9922190729
0
ARC
5
2EA
100
AcDbEntity
8
0
100
AcDbCircle
62
7
6
CONTINUOUS
10
-235.7432840014
20
2.1273691490
40
5.0000000000
100
AcDbArc
50
226.0544804377
51
272.6507264076
0
ARC
5
2EB
100
AcDbEntity
8
0
100
AcDbCircle
62
7
6
CONTINUOUS
10
-244.5809995095
20
3.0273691490
40
4.5000000000
100
AcDbArc
50
180.0000000000
51
270.0000000000
0
ARC
5
2EC
100
AcDbEntity
8
0
100
AcDbCircle
62
7
6
CONTINUOUS
10
-244.5809995095
20
32.2273691490
40
4.5000000000
100
AcDbArc
50
90.0000000000
51
180.0000000000
0
ARC
5
2ED
100
AcDbEntity
8
0
100
AcDbCircle
62
7
6
CONTINUOUS
10
-235.7432840014
20
33.1273691490
40
5.0000000000
100
AcDbArc
50
87.3492735924
51
133.9455195623
0
ARC
5
2EE
100
AcDbEntity
8
0
100
AcDbCircle
62
7
6
CONTINUOUS
10
-235.7895314030
20
32.1284391325
40
6.0000000000
100
AcDbArc
50
22.0077809271
51
87.3492735924
0
ARC
5
2EF
100
AcDbEntity
8
0
100
AcDbCircle
62
7
6
CONTINUOUS
10
183.6275323841
20
32.1284391325
40
6.0000000000
100
AcDbArc
50
92.6507264076
51
157.9922190729
0
ARC
5
2F0
100
AcDbEntity
8
0
100
AcDbCircle
62
7
6
CONTINUOUS
10
183.5812849824
20
33.1273691490
40
5.0000000000
100
AcDbArc
50
46.0544804377
51
92.6507264076
0
ARC
5
2F1
100
AcDbEntity
8
0
100
AcDbCircle
62
7
6
CONTINUOUS
10
192.4190004905
20
32.2273691490
40
4.5000000000
100
AcDbArc
50
0.0000000000
51
90.0000000000
0
ARC
5
2F2
100
AcDbEntity
8
0
100
AcDbCircle
62
7
6
CONTINUOUS
10
192.4190004905
20
3.0273691490
40
4.5000000000
100
AcDbArc
50
270.0000000000
51
360.0000000000
0
ARC
5
2F3
100
AcDbEntity
8
0
100
AcDbCircle
62
7
6
CONTINUOUS
10
183.5812849824
20
2.1273691490
40
5.0000000000
100
AcDbArc
50
267.3492735924
51
313.9455195623
0
ARC
5
2F4
100
AcDbEntity
8
0
100
AcDbCircle
62
7
6
CONTINUOUS
10
183.6275323841
20
3.1262991655
40
6.0000000000
100
AcDbArc
50
202.0077809271
51
267.3492735924
0
ARC
5
2F5
100
AcDbEntity
8
0
100
AcDbCircle
62
7
6
CONTINUOUS
10
-244.0809995095
20
41.6273691490
40
0.5000000000
100
AcDbArc
50
90.0000000000
51
270.0000000000
0
ARC
5
2F6
100
AcDbEntity
8
0
100
AcDbCircle
62
7
6
CONTINUOUS
10
191.9190004905
20
41.6273691490
40
0.5000000000
100
AcDbArc
50
270.0000000000
51
90.0000000000
0
ARC
5
2F7
100
AcDbEntity
8
0
100
AcDbCircle
62
7
6
CONTINUOUS
10
-230.5809995095
20
37.6273691490
40
3.5000000000
100
AcDbArc
50
55.0458266067
51
90.0000000000
0
ARC
5
2F8
100
AcDbEntity
8
0
100
AcDbCircle
62
7
6
CONTINUOUS
10
178.4190004905
20
37.6273691490
40
3.5000000000
100
AcDbArc
50
90.0000000000
51
124.9541733933
0
ARC
5
2F9
100
AcDbEntity
8
0
100
AcDbCircle
62
7
6
CONTINUOUS
10
213.9190004905
20
-40.7726308510
40
5.0000000000
100
AcDbArc
50
270.0000000000
51
360.0000000000
0
ARC
5
2FA
100
AcDbEntity
8
0
100
AcDbCircle
62
7
6
CONTINUOUS
10
206.4190004905
20
-34.6726308510
40
4.1000000000
100
AcDbArc
50
180.0000000000
51
360.0000000000
0
ARC
5
2FB
100
AcDbEntity
8
0
100
AcDbCircle
62
7
6
CONTINUOUS
10
206.4190004905
20
-18.8726308510
40
4.1000000000
100
AcDbArc
50
0.0000000000
51
180.0000000000
0
ARC
5
2FC
100
AcDbEntity
8
0
100
AcDbCircle
62
7
6
CONTINUOUS
10
206.4190004905
20
23.1273691490
40
4.1000000000
100
AcDbArc
50
0.0000000000
51
180.0000000000
0
ARC
5
2FD
100
AcDbEntity
8
0
100
AcDbCircle
62
7
6
CONTINUOUS
10
206.4190004904
20
7.3273691490
40
4.1000000000
100
AcDbArc
50
180.0000000001
51
360.0000000000
0
ARC
5
2FE
100
AcDbEntity
8
0
100
AcDbCircle
62
7
6
CONTINUOUS
10
213.9190004905
20
29.2273691490
40
5.0000000000
100
AcDbArc
50
0.0000000000
51
90.0000000000
0
ARC
5
2FF
100
AcDbEntity
8
0
100
AcDbCircle
62
7
6
CONTINUOUS
10
-266.0809995095
20
-40.7726308510
40
5.0000000000
100
AcDbArc
50
180.0000000000
51
270.0000000000
0
ARC
5
300
100
AcDbEntity
8
0
100
AcDbCircle
62
7
6
CONTINUOUS
10
-258.5809995095
20
-34.6726308510
40
4.1000000000
100
AcDbArc
50
180.0000000000
51
360.0000000000
0
ARC
5
301
100
AcDbEntity
8
0
100
AcDbCircle
62
7
6
CONTINUOUS
10
-258.5809995095
20
-18.8726308510
40
4.1000000000
100
AcDbArc
50
0.0000000000
51
180.0000000000
0
ARC
5
302
100
AcDbEntity
8
0
100
AcDbCircle
62
7
6
CONTINUOUS
10
-245.0809995095
20
34.2273691490
40
2.5000000000
100
AcDbArc
50
90.0000000000
51
122.2748382861
0
ARC
5
303
100
AcDbEntity
8
0
100
AcDbCircle
62
7
6
CONTINUOUS
10
-258.5809995095
20
23.1273691490
40
4.1000000000
100
AcDbArc
50
0.0000000000
51
180.0000000000
0
ARC
5
304
100
AcDbEntity
8
0
100
AcDbCircle
62
7
6
CONTINUOUS
10
-258.5809995096
20
7.3273691490
40
4.1000000000
100
AcDbArc
50
180.0000000002
51
360.0000000000
0
ARC
5
305
100
AcDbEntity
8
0
100
AcDbCircle
62
7
6
CONTINUOUS
10
-266.0809995095
20
29.2273691490
40
5.0000000000
100
AcDbArc
50
90.0000000000
51
180.0000000000
0
ARC
5
306
100
AcDbEntity
8
0
100
AcDbCircle
62
7
6
CONTINUOUS
10
192.9190004905
20
34.2273691490
40
2.5000000000
100
AcDbArc
50
57.7251617139
51
90.0000000000
0
ARC
5
307
100
AcDbEntity
8
0
100
AcDbCircle
62
7
6
CONTINUOUS
10
-235.7895314030
20
3.1262991655
40
4.0000000000
100
AcDbArc
50
272.6507264076
51
337.9922190729
0
ARC
5
308
100
AcDbEntity
8
0
100
AcDbCircle
62
7
6
CONTINUOUS
10
-235.7432840014
20
2.1273691490
40
3.0000000000
100
AcDbArc
50
212.2309526355
51
272.6507264076
0
ARC
5
309
100
AcDbEntity
8
0
100
AcDbCircle
62
7
6
CONTINUOUS
10
-244.5809995095
20
3.0273691490
40
2.5000000000
100
AcDbArc
50
180.0000000000
51
270.0000000000
0
ARC
5
30A
100
AcDbEntity
8
0
100
AcDbCircle
62
7
6
CONTINUOUS
10
-244.5809995095
20
32.2273691490
40
2.5000000000
100
AcDbArc
50
90.0000000000
51
180.0000000000
0
ARC
5
30B
100
AcDbEntity
8
0
100
AcDbCircle
62
7
6
CONTINUOUS
10
-235.7432840014
20
33.1273691490
40
3.0000000000
100
AcDbArc
50
87.3492735924
51
147.7690473645
0
ARC
5
30C
100
AcDbEntity
8
0
100
AcDbCircle
62
7
6
CONTINUOUS
10
-235.7895314030
20
32.1284391325
40
4.0000000000
100
AcDbArc
50
22.0077809271
51
87.3492735924
0
ARC
5
30D
100
AcDbEntity
8
0
100
AcDbCircle
62
7
6
CONTINUOUS
10
183.6275323841
20
32.1284391325
40
4.0000000000
100
AcDbArc
50
92.6507264076
51
157.9922190729
0
ARC
5
30E
100
AcDbEntity
8
0
100
AcDbCircle
62
7
6
CONTINUOUS
10
183.5812849824
20
33.1273691490
40
3.0000000000
100
AcDbArc
50
32.2309526355
51
92.6507264076
0
ARC
5
30F
100
AcDbEntity
8
0
100
AcDbCircle
62
7
6
CONTINUOUS
10
192.4190004905
20
32.2273691490
40
2.5000000000
100
AcDbArc
50
0.0000000000
51
90.0000000000
0
ARC
5
310
100
AcDbEntity
8
0
100
AcDbCircle
62
7
6
CONTINUOUS
10
192.4190004905
20
3.0273691490
40
2.5000000000
100
AcDbArc
50
270.0000000000
51
360.0000000000
0
ARC
5
311
100
AcDbEntity
8
0
100
AcDbCircle
62
7
6
CONTINUOUS
10
183.5812849824
20
2.1273691490
40
3.0000000000
100
AcDbArc
50
267.3492735924
51
327.7690473645
0
ARC
5
312
100
AcDbEntity
8
0
100
AcDbCircle
62
7
6
CONTINUOUS
10
183.6275323841
20
3.1262991655
40
4.0000000000
100
AcDbArc
50
202.0077809271
51
267.3492735924
0
ARC
5
313
100
AcDbEntity
8
0
100
AcDbCircle
62
7
6
CONTINUOUS
10
-244.0809995095
20
41.6273691490
40
2.0000000000
100
AcDbArc
50
90.0000000000
51
270.0000000000
0
ARC
5
314
100
AcDbEntity
8
0
100
AcDbCircle
62
7
6
CONTINUOUS
10
191.9190004905
20
41.6273691490
40
2.0000000000
100
AcDbArc
50
270.0000000000
51
90.0000000000
0
ARC
5
315
100
AcDbEntity
8
0
100
AcDbCircle
62
7
6
CONTINUOUS
10
-230.5809995095
20
37.6273691490
40
2.0000000000
100
AcDbArc
50
0.0000000000
51
90.0000000000
0
ARC
5
316
100
AcDbEntity
8
0
100
AcDbCircle
62
7
6
CONTINUOUS
10
178.4190004905
20
37.6273691490
40
2.0000000000
100
AcDbArc
50
90.0000000000
51
180.0000000000
0
ARC
5
317
100
AcDbEntity
8
0
100
AcDbCircle
62
7
6
CONTINUOUS
10
-245.0809995095
20
2.2273691490
40
5.0000000000
100
AcDbArc
50
239.9936078530
51
270.0000000000
0
ARC
5
318
100
AcDbEntity
8
0
100
AcDbCircle
62
7
6
CONTINUOUS
10
192.9190004905
20
2.2273691490
40
5.0000000000
100
AcDbArc
50
270.0000000000
51
300.0063921470
0
ARC
5
319
100
AcDbEntity
8
0
100
AcDbCircle
62
7
6
CONTINUOUS
10
174.4190004905
20
-6.7726308510
40
3.0000000000
100
AcDbArc
50
270.0000000000
51
360.0000000000
0
ARC
5
31A
100
AcDbEntity
8
0
100
AcDbCircle
62
7
6
CONTINUOUS
10
-226.5809995095
20
-6.7726308510
40
3.0000000000
100
AcDbArc
50
180.0000000000
51
270.0000000000
0
ARC
5
31B
100
AcDbEntity
8
0
100
AcDbCircle
62
7
6
CONTINUOUS
10
-245.0809995095
20
34.2273691490
40
5.0000000000
100
AcDbArc
50
90.0000000000
51
180.0000000000
0
ARC
5
31C
100
AcDbEntity
8
0
100
AcDbCircle
62
7
6
CONTINUOUS
10
192.9190004905
20
34.2273691490
40
5.0000000000
100
AcDbArc
50
0.0000000000
51
90.0000000000
0
ARC
5
31D
100
AcDbEntity
8
0
100
AcDbCircle
62
7
6
CONTINUOUS
10
-556.1401463823
20
-3.2726308510
40
3.0000000000
100
AcDbArc
50
0.0000000000
51
7.6687558185
0
ARC
5
31E
100
AcDbEntity
8
0
100
AcDbCircle
62
7
6
CONTINUOUS
10
-779.1401463823
20
22.1273691490
40
1.0000000000
100
AcDbArc
50
90.0000000000
51
180.0000000000
0
ARC
5
31F
100
AcDbEntity
8
0
100
AcDbCircle
62
7
6
CONTINUOUS
10
-772.1401463823
20
22.1273691490
40
1.0000000000
100
AcDbArc
50
0.0000000000
51
90.0000000000
0
ARC
5
320
100
AcDbEntity
8
0
100
AcDbCircle
62
7
6
CONTINUOUS
10
-772.1401463823
20
13.1273691490
40
1.0000000000
100
AcDbArc
50
270.0000000000
51
360.0000000000
0
ARC
5
321
100
AcDbEntity
8
0
100
AcDbCircle
62
7
6
CONTINUOUS
10
-779.1401463823
20
13.1273691490
40
1.0000000000
100
AcDbArc
50
180.0000000000
51
270.0000000000
0
ARC
5
322
100
AcDbEntity
8
0
100
AcDbCircle
62
7
6
CONTINUOUS
10
-357.1401463823
20
9.6273691490
40
1.0000000000
100
AcDbArc
50
244.4500000000
51
360.0000000000
0
ARC
5
323
100
AcDbEntity
8
0
100
AcDbCircle
62
7
6
CONTINUOUS
10
-367.1401463823
20
14.4078409470
40
1.0000000000
100
AcDbArc
50
180.0000000000
51
244.4500000000
0
ARC
5
324
100
AcDbEntity
8
0
100
AcDbCircle
62
7
6
CONTINUOUS
10
-367.1401463823
20
20.8468973510
40
1.0000000000
100
AcDbArc
50
115.5500000000
51
180.0000000000
0
ARC
5
325
100
AcDbEntity
8
0
100
AcDbCircle
62
7
6
CONTINUOUS
10
-357.1401463823
20
25.6273691490
40
1.0000000000
100
AcDbArc
50
0.0000000000
51
115.5500000000
0
CIRCLE
5
326
100
AcDbEntity
8
0
100
AcDbCircle
62
7
6
CONTINUOUS
10
-372.0901463823
20
17.6273691490
40
1.7500000000
0
CIRCLE
5
327
100
AcDbEntity
8
0
100
AcDbCircle
62
7
6
CONTINUOUS
10
-433.5901463823
20
17.6273691490
40
1.7500000000
0
CIRCLE
5
328
100
AcDbEntity
8
0
100
AcDbCircle
62
7
6
CONTINUOUS
10
-451.0901463823
20
17.6273691490
40
1.7500000000
0
CIRCLE
5
329
100
AcDbEntity
8
0
100
AcDbCircle
62
7
6
CONTINUOUS
10
-511.3901463823
20
17.6273691490
40
1.7500000000
0
CIRCLE
5
32A
100
AcDbEntity
8
0
100
AcDbCircle
62
7
6
CONTINUOUS
10
-537.8401463823
20
17.6273691490
40
2.8000000000
0
CIRCLE
5
32B
100
AcDbEntity
8
0
100
AcDbCircle
62
7
6
CONTINUOUS
10
-345.9401463823
20
17.6273691490
40
2.8000000000
0
CIRCLE
5
32C
100
AcDbEntity
8
0
100
AcDbCircle
62
7
6
CONTINUOUS
10
-762.0401463823
20
17.6273691490
40
2.8000000000
0
ARC
5
32D
100
AcDbEntity
8
0
100
AcDbCircle
62
7
6
CONTINUOUS
10
-780.1401463823
20
41.6273691490
40
0.5000000000
100
AcDbArc
50
90.0000000000
51
180.0000000000
0
ARC
5
32E
100
AcDbEntity
8
0
100
AcDbCircle
62
7
6
CONTINUOUS
10
-332.1401463823
20
0.6273691490
40
1.0000000000
100
AcDbArc
50
270.0000000000
51
360.0000000000
0
ARC
5
32F
100
AcDbEntity
8
0
100
AcDbCircle
62
7
6
CONTINUOUS
10
-332.1401463823
20
41.1273691490
40
1.0000000000
100
AcDbArc
50
0.0000000000
51
90.0000000000
0
ARC
5
330
100
AcDbEntity
8
0
100
AcDbCircle
62
7
6
CONTINUOUS
10
-579.1401463823
20
19.9773691490
40
2.5000000000
100
AcDbArc
50
90.0000000000
51
270.0000000000
0
ARC
5
331
100
AcDbEntity
8
0
100
AcDbCircle
62
7
6
CONTINUOUS
10
-573.1401463823
20
19.9773691490
40
2.5000000000
100
AcDbArc
50
270.0000000000
51
90.0000000000
0
ARC
5
332
100
AcDbEntity
8
0
100
AcDbCircle
62
7
6
CONTINUOUS
10
-633.1401463823
20
19.9773691490
40
2.5000000000
100
AcDbArc
50
270.0000000000
51
90.0000000000
0
ARC
5
333
100
AcDbEntity
8
0
100
AcDbCircle
62
7
6
CONTINUOUS
10
-639.1401463823
20
19.9773691490
40
2.5000000000
100
AcDbArc
50
90.0000000000
51
270.0000000000
0
ARC
5
334
100
AcDbEntity
8
0
100
AcDbCircle
62
7
6
CONTINUOUS
10
-665.1401463823
20
-40.7726308510
40
5.0000000000
100
AcDbArc
50
270.0000000000
51
360.0000000000
0
ARC
5
335
100
AcDbEntity
8
0
100
AcDbCircle
62
7
6
CONTINUOUS
10
-556.1401463823
20
-3.2726308510
40
0.5000000000
100
AcDbArc
50
0.0000000000
51
53.2244312288
0
ARC
5
336
100
AcDbEntity
8
0
100
AcDbCircle
62
7
6
CONTINUOUS
10
-369.8901463823
20
17.3773691490
40
2.7500000000
100
AcDbArc
50
309.6418174405
51
50.3581825595
0
ARC
5
337
100
AcDbEntity
8
0
100
AcDbCircle
62
7
6
CONTINUOUS
10
-369.8901463823
20
17.3773691490
40
2.7500000000
100
AcDbArc
50
134.1301181598
51
212.9778982693
0
ARC
5
338
100
AcDbEntity
8
0
100
AcDbCircle
62
7
6
CONTINUOUS
10
-780.1401463823
20
41.6273691490
40
2.0000000000
100
AcDbArc
50
90.0000000000
51
180.0000000000
0
ARC
5
339
100
AcDbEntity
8
0
100
AcDbCircle
62
7
6
CONTINUOUS
10
-332.1401463823
20
0.6273691490
40
2.5000000000
100
AcDbArc
50
270.0000000000
51
360.0000000000
0
ARC
5
33A
100
AcDbEntity
8
0
100
AcDbCircle
62
7
6
CONTINUOUS
10
-332.1401463823
20
41.1273691490
40
2.5000000000
100
AcDbArc
50
0.0000000000
51
90.0000000000
0
ENDSEC
0
SECTION
2
OBJECTS
0
DICTIONARY
5
33B
100
AcDbDictionary
3
ACAD_GROUP
350
33C
3
ACAD_MLINESTYLE
350
33D
0
DICTIONARY
5
33C
102
{ACAD_REACTORS
330
33B
102
}
100
AcDbDictionary
0
DICTIONARY
5
33D
102
{ACAD_REACTORS
330
33B
102
}
100
AcDbDictionary
3
STANDARD
350
33E
0
MLINESTYLE
5
33E
102
{ACAD_REACTORS
330
33D
102
}
100
AcDbMlineStyle
2
STANDARD
70
0
3

62
256
51
90.0
52
90.0
71
2
49
0.5
62
256
6
BYLAYER
49
-0.5
62
256
6
BYLAYER
0
ENDSEC
0
EOF
