0
SECTION
2
HEADER
9
$ACADVER
1
AC1014
9
$HANDSEED
5
       3A9
9
$EXTMAX
10
297.0000000000
20
210.0000000000
9
$EXTMIN
10
0.0000000000
20
0.0000000000
9
$LIMMIN
10
0.0000000000
20
0.0000000000
9
$LIMMAX
10
297.0000000000
20
210.0000000000
9
$VIEWCTR
10
148.5000000000
20
105.0000000000
9
$VIEWSIZE
40
210.0000000000
9
$CLAYER
8
0
9
$LTSCALE
40
16.3350000000
9
$CELTYPE
6
BYLAYER
9
$DIMSCALE
40
1
9
$DIMASZ
40
3.0000000000
9
$DIMEXO
40
1.8562500000
9
$DIMDLI
40
11.2860000000
9
$DIMEXE
40
5.3460000000
9
$DIMCEN
40
2.6730000000
9
$DIMLFAC
40
1.0000000000
9
$DIMTXT
40
3.0000000000
9
$DIMTOL
70
1
9
$DIMLIM
70
0
9
$DIMTFAC
40
1.0000000000
9
$DIMTP
40
0.0100000000
9
$DIMTM
40
0.0100000000
9
$MEASUREMENT
70
1
0
ENDSEC
0
SECTION
2
CLASSES
0
ENDSEC
0
SECTION
2
TABLES
0
TABLE
2
VPORT
5
8
100
AcDbSymbolTable
70
2
0
VPORT
5
1F4
100
AcDbSymbolTableRecord
100
AcDbViewportTableRecord
2
*ACTIVE
70
0
10
0.0
20
0.0
11
1.0
21
1.0
12
148.5000000000
22
105.0000000000
13
0.0
23
0.0
14
1.0
24
1.0
15
0.0
25
0.0
16
0.0
26
0.0
36
1.0
17
0.0
27
0.0
37
0.0
40
210.0000000000
41
1.4142857143
42
50.0
43
0.0
44
0.0
50
0.0
51
0.0
71
0
72
100
73
1
74
1
75
0
76
0
77
0
78
0
0
ENDTAB
0
TABLE
2
LTYPE
5
5
100
AcDbSymbolTable
70
6
0
LTYPE
5
14
100
AcDbSymbolTableRecord
100
AcDbLinetypeTableRecord
2
BYBLOCK
70
0
3

72
65
73
0
40
0.0
0
LTYPE
5
15
100
AcDbSymbolTableRecord
100
AcDbLinetypeTableRecord
2
BYLAYER
70
0
3

72
65
73
0
40
0.0
0
LTYPE
5
16
100
AcDbSymbolTableRecord
100
AcDbLinetypeTableRecord
2
CONTINUOUS
70
64
3
Solid line
72
65
73
0
40
0
0
LTYPE
5
1F5
100
AcDbSymbolTableRecord
100
AcDbLinetypeTableRecord
2
CENTER
70
64
3
____ _ ____ _ ____ _ ____ _ ____ _ ____ _ ____
72
65
73
4
40
0.6
49
0.375
74
0
49
-0.075
74
0
49
0.075
74
0
49
-0.075
74
0
0
LTYPE
5
1F6
100
AcDbSymbolTableRecord
100
AcDbLinetypeTableRecord
2
HIDDEN
70
64
3
- - - - - - - - - - - - - - - - - - - -
72
65
73
2
40
0.2
49
0.1
74
0
49
-0.1
74
0
0
LTYPE
5
1F7
100
AcDbSymbolTableRecord
100
AcDbLinetypeTableRecord
2
PHANTOM
70
64
3
_____ _ _ _____ _ _ _____ _ _ _____
72
65
73
6
40
0.8
49
0.45
74
0
49
-0.05
74
0
49
0.1
74
0
49
-0.05
74
0
49
0.1
74
0
49
-0.05
74
0
0
LTYPE
5
1F8
100
AcDbSymbolTableRecord
100
AcDbLinetypeTableRecord
2
DOT
70
64
3
. . . . . . . . . . . . . . . . . . . .
72
65
73
2
40
0.2
49
0.1
74
0
49
-0.1
74
0
0
LTYPE
5
1F9
100
AcDbSymbolTableRecord
100
AcDbLinetypeTableRecord
2
DASHED
70
64
3
- - - - - - - - - - - - - - - - - - - -
72
65
73
2
40
0.2
49
0.1
74
0
49
-0.1
74
0
0
ENDTAB
0
TABLE
2
LAYER
5
2
100
AcDbSymbolTable
70
36
0
LAYER
5
10
100
AcDbSymbolTableRecord
100
AcDbLayerTableRecord
2
0
70
0
62
7
6
CONTINUOUS
0
LAYER
5
1FA
100
AcDbSymbolTableRecord
100
AcDbLayerTableRecord
2
DEFAULT_1
70
0
62
7
6
CENTER
0
LAYER
5
1FB
100
AcDbSymbolTableRecord
100
AcDbLayerTableRecord
2
DEFAULT_2
70
0
62
8
6
HIDDEN
0
LAYER
5
1FC
100
AcDbSymbolTableRecord
100
AcDbLayerTableRecord
2
DEFAULT_3
70
0
62
7
6
PHANTOM
0
LAYER
5
1FD
100
AcDbSymbolTableRecord
100
AcDbLayerTableRecord
2
ASSI
70
0
62
7
6
CONTINUOUS
0
LAYER
5
1FE
100
AcDbSymbolTableRecord
100
AcDbLayerTableRecord
2
COORDINATE
70
0
62
7
6
CONTINUOUS
0
LAYER
5
1FF
100
AcDbSymbolTableRecord
100
AcDbLayerTableRecord
2
COORD_ORIGINE
70
0
62
7
6
CONTINUOUS
0
LAYER
5
200
100
AcDbSymbolTableRecord
100
AcDbLayerTableRecord
2
CURVE
70
0
62
7
6
CONTINUOUS
0
LAYER
5
201
100
AcDbSymbolTableRecord
100
AcDbLayerTableRecord
2
DRAFT
70
0
62
7
6
CONTINUOUS
0
LAYER
5
202
100
AcDbSymbolTableRecord
100
AcDbLayerTableRecord
2
IGES
70
0
62
7
6
CONTINUOUS
0
LAYER
5
203
100
AcDbSymbolTableRecord
100
AcDbLayerTableRecord
2
NOTE
70
0
62
7
6
CONTINUOUS
0
LAYER
5
204
100
AcDbSymbolTableRecord
100
AcDbLayerTableRecord
2
PIANI
70
0
62
7
6
CONTINUOUS
0
LAYER
5
205
100
AcDbSymbolTableRecord
100
AcDbLayerTableRecord
2
PIANI_ORIGINE
70
0
62
7
6
CONTINUOUS
0
LAYER
5
206
100
AcDbSymbolTableRecord
100
AcDbLayerTableRecord
2
PUNTI
70
0
62
7
6
CONTINUOUS
0
LAYER
5
207
100
AcDbSymbolTableRecord
100
AcDbLayerTableRecord
2
RACCORDO
70
0
62
7
6
CONTINUOUS
0
LAYER
5
208
100
AcDbSymbolTableRecord
100
AcDbLayerTableRecord
2
SMUSSO
70
0
62
7
6
CONTINUOUS
0
LAYER
5
209
100
AcDbSymbolTableRecord
100
AcDbLayerTableRecord
2
SNAPLINE
70
0
62
7
6
CONTINUOUS
0
LAYER
5
20A
100
AcDbSymbolTableRecord
100
AcDbLayerTableRecord
2
SUPERFICI
70
0
62
7
6
CONTINUOUS
0
LAYER
5
20B
100
AcDbSymbolTableRecord
100
AcDbLayerTableRecord
2
TRASH
70
0
62
7
6
CONTINUOUS
0
ENDTAB
0
TABLE
2
STYLE
5
3
100
AcDbSymbolTable
70
1
0
STYLE
5
11
100
AcDbSymbolTableRecord
100
AcDbTextStyleTableRecord
2
STANDARD
70
0
40
0.0
41
0.8000000000
50
0.0
71
0
42
0.2
3
txt
4

0
ENDTAB
0
TABLE
2
VIEW
5
6
100
AcDbSymbolTable
70
0
0
ENDTAB
0
TABLE
2
UCS
5
7
100
AcDbSymbolTable
70
0
0
ENDTAB
0
TABLE
2
APPID
5
9
100
AcDbSymbolTable
70
1
0
APPID
5
20C
100
AcDbSymbolTableRecord
100
AcDbRegAppTableRecord
2
ACAD
70
0
0
ENDTAB
0
TABLE
2
DIMSTYLE
5
A
100
AcDbSymbolTable
70
1
0
DIMSTYLE
105
20D
100
AcDbSymbolTableRecord
100
AcDbDimStyleTableRecord
2
STANDARD
70
0
3

4

5

6

7

40
1.0
41
3.0000000000
42
0.0625
43
0.38
44
0.18
45
0.0
46
0.0
47
0.0100000000
48
0.0100000000
140
3.0000000000
141
0.09
142
0.0
143
25.4
144
1.0000000000
145
0.0
146
1.0000000000
147
0.09
71
1
72
0
73
0
74
0
75
0
76
0
77
1
78
8
170
0
171
2
172
0
173
0
174
0
175
0
176
0
177
0
178
0
270
2
271
2
272
2
273
2
274
2
340
11
275
0
280
0
281
0
282
0
283
1
284
8
285
0
286
0
287
3
288
0
0
DIMSTYLE
105
20E
100
AcDbSymbolTableRecord
100
AcDbDimStyleTableRecord
2
DIMSTYLE_1
70
0
3

4

5

6

7

40
1.0
41
3.0000000000
42
0.0625
43
0.38
44
0.18
45
0.0
46
0.0
47
0.0000000000
48
0.0000000000
140
3.0000000000
141
0.09
142
0.0
143
25.4
144
1.0000000000
145
0.0
146
1.0000000000
147
0.09
71
0
72
0
73
0
74
0
75
0
76
0
77
1
78
8
170
0
171
2
172
0
173
0
174
0
175
0
176
0
177
0
178
0
270
2
271
0
272
0
273
2
274
2
340
11
275
0
280
0
281
0
282
0
283
1
284
8
285
0
286
0
287
3
288
0
0
DIMSTYLE
105
20F
100
AcDbSymbolTableRecord
100
AcDbDimStyleTableRecord
2
DIMSTYLE_2
70
0
3

4

5

6

7

40
1.0
41
3.0000000000
42
0.0625
43
0.38
44
0.18
45
0.0
46
0.0
47
0.0000000000
48
0.0000000000
140
3.0000000000
141
0.09
142
0.0
143
25.4
144
1.0000000000
145
0.0
146
1.0000000000
147
0.09
71
0
72
0
73
0
74
0
75
0
76
0
77
1
78
8
170
0
171
2
172
0
173
0
174
0
175
0
176
0
177
0
178
0
270
2
271
2
272
2
273
2
274
2
340
11
275
0
280
0
281
0
282
0
283
1
284
8
285
0
286
0
287
3
288
0
0
ENDTAB
0
TABLE
2
BLOCK_RECORD
5
1
100
AcDbSymbolTable
70
0
0
BLOCK_RECORD
5
1B
100
AcDbSymbolTableRecord
100
AcDbBlockTableRecord
2
*MODEL_SPACE
0
BLOCK_RECORD
5
1C
100
AcDbSymbolTableRecord
100
AcDbBlockTableRecord
2
*PAPER_SPACE
0
BLOCK_RECORD
5
210
100
AcDbSymbolTableRecord
100
AcDbBlockTableRecord
2
*D0
0
BLOCK_RECORD
5
211
100
AcDbSymbolTableRecord
100
AcDbBlockTableRecord
2
*D1
0
BLOCK_RECORD
5
212
100
AcDbSymbolTableRecord
100
AcDbBlockTableRecord
2
*D2
0
ENDTAB
0
ENDSEC
0
SECTION
2
BLOCKS
0
BLOCK
5
1E
100
AcDbEntity
8
0
100
AcDbBlockBegin
2
*MODEL_SPACE
70
0
10
0.0
20
0.0
30
0.0
3
*MODEL_SPACE
1

0
ENDBLK
5
1F
100
AcDbEntity
8
0
100
AcDbBlockEnd
0
BLOCK
5
20
100
AcDbEntity
8
0
100
AcDbBlockBegin
2
*PAPER_SPACE
70
0
10
0.0
20
0.0
30
0.0
3
*PAPER_SPACE
1

0
ENDBLK
5
21
100
AcDbEntity
8
0
100
AcDbBlockEnd
0
BLOCK
5
213
100
AcDbEntity
8
0
100
AcDbBlockBegin
62
7
6
CONTINUOUS
2
*D0
70
65
10
0.0000000000
20
0.0000000000
3
*D0
1

0
TEXT
5
214
100
AcDbEntity
8
0
100
AcDbText
62
7
6
CONTINUOUS
10
115.2726710735
20
-10.5379696415
7
STANDARD
40
3.0000000000
1
302
50
90.0000000000
41
0.7619047619
72
0
100
AcDbText
0
LINE
5
215
100
AcDbEntity
8
0
100
AcDbLine
62
7
6
CONTINUOUS
10
102.7226710735
20
143.6906017871
11
117.5226710735
21
143.6906017871
0
LINE
5
216
100
AcDbEntity
8
0
100
AcDbLine
62
7
6
CONTINUOUS
10
99.3226710735
20
-157.9093982129
11
117.5226710735
21
-157.9093982129
0
LINE
5
217
100
AcDbEntity
8
0
100
AcDbLine
62
7
6
CONTINUOUS
10
116.0226710735
20
143.6906017871
11
116.0226710735
21
-7.1093982129
0
LINE
5
218
100
AcDbEntity
8
0
100
AcDbLine
62
7
6
CONTINUOUS
10
116.0226710735
20
-157.9093982129
11
116.0226710735
21
-7.1093982129
0
SOLID
5
219
100
AcDbEntity
8
0
100
AcDbTrace
62
7
6
CONTINUOUS
10
116.9726710735
20
140.6906017871
11
116.0226710735
21
143.6906017871
12
115.0726710735
22
140.6906017871
13
115.0726710735
23
140.6906017871
0
SOLID
5
21A
100
AcDbEntity
8
0
100
AcDbTrace
62
7
6
CONTINUOUS
10
115.0726710735
20
-154.9093982129
11
116.0226710735
21
-157.9093982129
12
116.9726710735
22
-154.9093982129
13
116.9726710735
23
-154.9093982129
0
ENDBLK
5
21B
100
AcDbEntity
8
0
100
AcDbBlockEnd
0
BLOCK
5
21C
100
AcDbEntity
8
0
100
AcDbBlockBegin
62
7
6
CONTINUOUS
2
*D1
70
65
10
0.0000000000
20
0.0000000000
3
*D1
1

0
TEXT
5
21D
100
AcDbEntity
8
0
100
AcDbText
62
7
6
CONTINUOUS
10
-193.2987574980
20
152.4406017871
7
STANDARD
40
3.0000000000
1
595
41
0.7380952381
72
0
100
AcDbText
0
LINE
5
21E
100
AcDbEntity
8
0
100
AcDbLine
62
7
6
CONTINUOUS
10
107.5226710735
20
130.3906017871
11
107.5226710735
21
153.1906017871
0
LINE
5
21F
100
AcDbEntity
8
0
100
AcDbLine
62
7
6
CONTINUOUS
10
-487.4773289265
20
130.3906017871
11
-487.4773289265
21
153.1906017871
0
LINE
5
220
100
AcDbEntity
8
0
100
AcDbLine
62
7
6
CONTINUOUS
10
107.5226710735
20
151.6906017871
11
-189.9773289265
21
151.6906017871
0
LINE
5
221
100
AcDbEntity
8
0
100
AcDbLine
62
7
6
CONTINUOUS
10
-487.4773289265
20
151.6906017871
11
-189.9773289265
21
151.6906017871
0
SOLID
5
222
100
AcDbEntity
8
0
100
AcDbTrace
62
7
6
CONTINUOUS
10
104.5226710735
20
150.7406017871
11
107.5226710735
21
151.6906017871
12
104.5226710735
22
152.6406017871
13
104.5226710735
23
152.6406017871
0
SOLID
5
223
100
AcDbEntity
8
0
100
AcDbTrace
62
7
6
CONTINUOUS
10
-484.4773289265
20
152.6406017871
11
-487.4773289265
21
151.6906017871
12
-484.4773289265
22
150.7406017871
13
-484.4773289265
23
150.7406017871
0
ENDBLK
5
224
100
AcDbEntity
8
0
100
AcDbBlockEnd
0
BLOCK
5
225
100
AcDbEntity
8
0
100
AcDbBlockBegin
62
7
6
CONTINUOUS
2
*D2
70
65
10
0.0000000000
20
0.0000000000
3
*D2
1

0
TEXT
5
226
100
AcDbEntity
8
0
100
AcDbText
62
7
6
CONTINUOUS
10
-571.1128895496
20
152.4406017871
7
STANDARD
40
3.0000000000
1
62
41
0.7857142857
72
0
100
AcDbText
0
LINE
5
227
100
AcDbEntity
8
0
100
AcDbLine
62
7
6
CONTINUOUS
10
-599.6557466925
20
-10.1093982129
11
-599.6557466925
21
153.1906017871
0
LINE
5
228
100
AcDbEntity
8
0
100
AcDbLine
62
7
6
CONTINUOUS
10
-537.8557466925
20
26.4840014490
11
-537.8557466925
21
153.1906017871
0
LINE
5
229
100
AcDbEntity
8
0
100
AcDbLine
62
7
6
CONTINUOUS
10
-599.6557466925
20
151.6906017871
11
-568.7557466925
21
151.6906017871
0
LINE
5
22A
100
AcDbEntity
8
0
100
AcDbLine
62
7
6
CONTINUOUS
10
-537.8557466925
20
151.6906017871
11
-568.7557466925
21
151.6906017871
0
SOLID
5
22B
100
AcDbEntity
8
0
100
AcDbTrace
62
7
6
CONTINUOUS
10
-596.6557466925
20
152.6406017871
11
-599.6557466925
21
151.6906017871
12
-596.6557466925
22
150.7406017871
13
-596.6557466925
23
150.7406017871
0
SOLID
5
22C
100
AcDbEntity
8
0
100
AcDbTrace
62
7
6
CONTINUOUS
10
-540.8557466925
20
150.7406017871
11
-537.8557466925
21
151.6906017871
12
-540.8557466925
22
152.6406017871
13
-540.8557466925
23
152.6406017871
0
ENDBLK
5
22D
100
AcDbEntity
8
0
100
AcDbBlockEnd
0
ENDSEC
0
SECTION
2
ENTITIES
0
DIMENSION
5
22E
100
AcDbEntity
8
0
100
AcDbDimension
62
7
6
CONTINUOUS
2
*D0
10
116.0226710735
20
-157.9093982129
11
113.7726710735
21
-7.1093982129
70
160
3
DIMSTYLE_1
100
AcDbAlignedDimension
13
102.7226710735
23
143.6906017871
14
99.3226710735
24
-157.9093982129
50
270.000000
100
AcDbRotatedDimension
0
DIMENSION
5
22F
100
AcDbEntity
8
0
100
AcDbDimension
62
7
6
CONTINUOUS
2
*D1
10
-487.4773289265
20
151.6906017871
11
-189.9773289265
21
153.9406017871
70
160
3
DIMSTYLE_2
100
AcDbAlignedDimension
13
107.5226710735
23
130.3906017871
14
-487.4773289265
24
130.3906017871
50
180.000000
100
AcDbRotatedDimension
0
DIMENSION
5
230
100
AcDbEntity
8
0
100
AcDbDimension
62
7
6
CONTINUOUS
2
*D2
10
-537.8557466925
20
151.6906017871
11
-568.7557466925
21
153.9406017871
70
160
3
DIMSTYLE_1
100
AcDbAlignedDimension
13
-599.6557466925
23
-10.1093982129
14
-537.8557466925
24
26.4840014490
100
AcDbRotatedDimension
0
LINE
5
231
100
AcDbEntity
8
0
100
AcDbLine
62
7
6
CONTINUOUS
10
-487.4773289265
20
-144.1093982129
11
-487.4773289265
21
129.8906017871
0
LINE
5
232
100
AcDbEntity
8
0
100
AcDbLine
62
7
6
CONTINUOUS
10
-485.4773289265
20
131.8906017871
11
-485.4773289265
21
129.8906017871
0
LINE
5
233
100
AcDbEntity
8
0
100
AcDbLine
62
7
6
CONTINUOUS
10
-485.4773289265
20
-146.1093982129
11
-485.4773289265
21
-144.1093982129
0
LINE
5
234
100
AcDbEntity
8
0
100
AcDbLine
62
9
6
CONTINUOUS
10
-485.4773289265
20
-144.1093982129
11
-485.4773289265
21
129.8906017871
0
LINE
5
235
100
AcDbEntity
8
0
100
AcDbLine
62
7
6
CONTINUOUS
10
-462.5230279265
20
-103.9660142129
11
-462.5230279265
21
-117.1093982129
0
LINE
5
236
100
AcDbEntity
8
0
100
AcDbLine
62
7
6
CONTINUOUS
10
-462.5228749882
20
-43.6099504131
11
-462.5228749882
21
-51.1248060176
0
LINE
5
237
100
AcDbEntity
8
0
100
AcDbLine
62
7
6
CONTINUOUS
10
-462.5228749882
20
-56.4310042067
11
-462.5228749882
21
-59.7468832357
0
LINE
5
238
100
AcDbEntity
8
0
100
AcDbLine
62
7
6
CONTINUOUS
10
-462.5228749265
20
-65.1544842129
11
-462.5228749265
21
-69.4965842129
0
LINE
5
239
100
AcDbEntity
8
0
100
AcDbLine
62
7
6
CONTINUOUS
10
-462.5228749265
20
-75.8838162129
11
-462.5228749265
21
-80.2259142129
0
LINE
5
23A
100
AcDbEntity
8
0
100
AcDbLine
62
7
6
CONTINUOUS
10
-462.5073439265
20
-81.7460612129
11
-462.5073439265
21
-84.8538032129
0
LINE
5
23B
100
AcDbEntity
8
0
100
AcDbLine
62
7
6
CONTINUOUS
10
-462.4994269265
20
-85.1449202129
11
-462.4994269265
21
-88.3566552129
0
LINE
5
23C
100
AcDbEntity
8
0
100
AcDbLine
62
7
6
CONTINUOUS
10
-462.4994269265
20
-94.9986152129
11
-462.4994269265
21
-98.2103492129
0
LINE
5
23D
100
AcDbEntity
8
0
100
AcDbLine
62
7
6
CONTINUOUS
10
-462.4763889265
20
125.0578967871
11
-462.4763889265
21
112.6303207871
0
LINE
5
23E
100
AcDbEntity
8
0
100
AcDbLine
62
7
6
CONTINUOUS
10
-462.4763889265
20
108.7233027871
11
-462.4763889265
21
96.9004987871
0
LINE
5
23F
100
AcDbEntity
8
0
100
AcDbLine
62
7
6
CONTINUOUS
10
-462.4763889265
20
59.5169387871
11
-462.4763889265
21
45.1230317871
0
LINE
5
240
100
AcDbEntity
8
0
100
AcDbLine
62
7
6
CONTINUOUS
10
-462.4763889265
20
42.8039517871
11
-462.4763889265
21
30.3763747871
0
LINE
5
241
100
AcDbEntity
8
0
100
AcDbLine
62
7
6
CONTINUOUS
10
-462.4763889265
20
25.2341697871
11
-462.4763889265
21
22.9653507871
0
LINE
5
242
100
AcDbEntity
8
0
100
AcDbLine
62
7
6
CONTINUOUS
10
-462.4763889265
20
13.4366234089
11
-462.4763889265
21
10.8906257871
0
LINE
5
243
100
AcDbEntity
8
0
100
AcDbLine
62
7
6
CONTINUOUS
10
-461.5950789265
20
87.1632137871
11
-461.5950789265
21
85.0108519889
0
LINE
5
244
100
AcDbEntity
8
0
100
AcDbLine
62
7
6
CONTINUOUS
10
-460.7958279265
20
32.7711537871
11
-460.7958279265
21
42.8039627865
0
LINE
5
245
100
AcDbEntity
8
0
100
AcDbLine
62
7
6
CONTINUOUS
10
-460.7958279265
20
45.1230367868
11
-460.7958279265
21
51.1225977871
0
LINE
5
246
100
AcDbEntity
8
0
100
AcDbLine
62
7
6
CONTINUOUS
10
-460.7958279265
20
53.5173977871
11
-460.7958279265
21
59.5169577861
0
LINE
5
247
100
AcDbEntity
8
0
100
AcDbLine
62
7
6
CONTINUOUS
10
-460.7958279265
20
99.2954497871
11
-460.7958279265
21
108.7233027871
0
LINE
5
248
100
AcDbEntity
8
0
100
AcDbLine
62
7
6
CONTINUOUS
10
-460.7958279265
20
115.0252017871
11
-460.7958279265
21
125.0578757881
0
LINE
5
249
100
AcDbEntity
8
0
100
AcDbLine
62
7
6
CONTINUOUS
10
-460.1062328747
20
-48.0327465392
11
-460.1062328747
21
-44.3581471965
0
LINE
5
24A
100
AcDbEntity
8
0
100
AcDbLine
62
7
6
CONTINUOUS
10
-457.8744776549
20
73.0345971352
11
-457.8744776549
21
75.5885675913
0
LINE
5
24B
100
AcDbEntity
8
0
100
AcDbLine
62
7
6
CONTINUOUS
10
-456.0271949265
20
124.3774257871
11
-456.0271949265
21
115.0251977871
0
LINE
5
24C
100
AcDbEntity
8
0
100
AcDbLine
62
7
6
CONTINUOUS
10
-456.0271949265
20
107.5636087871
11
-456.0271949265
21
99.2954497871
0
LINE
5
24D
100
AcDbEntity
8
0
100
AcDbLine
62
7
6
CONTINUOUS
10
-456.0271949265
20
42.1233777871
11
-456.0271949265
21
32.7711817869
0
LINE
5
24E
100
AcDbEntity
8
0
100
AcDbLine
62
7
6
CONTINUOUS
10
-455.3743526073
20
-44.5920157881
11
-455.3743526073
21
-48.0327465392
0
LINE
5
24F
100
AcDbEntity
8
0
100
AcDbLine
62
7
6
CONTINUOUS
10
-454.3466769265
20
32.7711817871
11
-454.3466769265
21
42.1233777871
0
LINE
5
250
100
AcDbEntity
8
0
100
AcDbLine
62
7
6
CONTINUOUS
10
-454.3466769265
20
99.2954497871
11
-454.3466769265
21
107.5636087871
0
LINE
5
251
100
AcDbEntity
8
0
100
AcDbLine
62
7
6
CONTINUOUS
10
-454.3466769265
20
115.0251977871
11
-454.3466769265
21
124.3774257871
0
LINE
5
252
100
AcDbEntity
8
0
100
AcDbLine
62
7
6
CONTINUOUS
10
-453.0122189285
20
-56.1660749427
11
-453.0122189285
21
-60.0118124997
0
LINE
5
253
100
AcDbEntity
8
0
100
AcDbLine
62
7
6
CONTINUOUS
10
-452.9810059980
20
-48.0455362278
11
-452.9810059980
21
-45.9952273379
0
LINE
5
254
100
AcDbEntity
8
0
100
AcDbLine
62
7
6
CONTINUOUS
10
-452.5384289028
20
64.2606657809
11
-452.5384289028
21
61.7066943860
0
LINE
5
255
100
AcDbEntity
8
0
100
AcDbLine
62
7
6
CONTINUOUS
10
-450.4862554290
20
-60.7289486107
11
-450.4862554290
21
-55.4489388317
0
LINE
5
256
100
AcDbEntity
8
0
100
AcDbLine
62
7
6
CONTINUOUS
10
-449.1578599265
20
125.1335957871
11
-449.1578599265
21
115.0251977871
0
LINE
5
257
100
AcDbEntity
8
0
100
AcDbLine
62
7
6
CONTINUOUS
10
-449.1578599265
20
42.8795847871
11
-449.1578599265
21
32.7711817871
0
LINE
5
258
100
AcDbEntity
8
0
100
AcDbLine
62
7
6
CONTINUOUS
10
-448.6659189265
20
79.9561850794
11
-448.6659189265
21
82.0868617871
0
LINE
5
259
100
AcDbEntity
8
0
100
AcDbLine
62
7
6
CONTINUOUS
10
-448.6659189265
20
89.9843765811
11
-448.6659189265
21
92.1408756972
0
LINE
5
25A
100
AcDbEntity
8
0
100
AcDbLine
62
7
6
CONTINUOUS
10
-447.5239209265
20
-117.0445352129
11
-447.5239209265
21
-103.9011512129
0
LINE
5
25B
100
AcDbEntity
8
0
100
AcDbLine
62
7
6
CONTINUOUS
10
-447.5163069265
20
-93.2211522129
11
-447.5163069265
21
-90.1341182129
0
LINE
5
25C
100
AcDbEntity
8
0
100
AcDbLine
62
7
6
CONTINUOUS
10
-447.5135663776
20
-51.1248060176
11
-447.5135663776
21
-48.0455362278
0
LINE
5
25D
100
AcDbEntity
8
0
100
AcDbLine
62
7
6
CONTINUOUS
10
-447.5083899265
20
-80.2259142129
11
-447.5083899265
21
-77.3882792129
0
LINE
5
25E
100
AcDbEntity
8
0
100
AcDbLine
62
7
6
CONTINUOUS
10
-447.5083899265
20
-67.9919682129
11
-447.5083899265
21
-65.1544842129
0
LINE
5
25F
100
AcDbEntity
8
0
100
AcDbLine
62
7
6
CONTINUOUS
10
-447.5083895989
20
-64.9230529239
11
-447.5083895989
21
-61.6178319688
0
LINE
5
260
100
AcDbEntity
8
0
100
AcDbLine
62
7
6
CONTINUOUS
10
-447.5083895989
20
-54.5600554736
11
-447.5083895989
21
-51.2548345185
0
LINE
5
261
100
AcDbEntity
8
0
100
AcDbLine
62
7
6
CONTINUOUS
10
-447.5083895989
20
-42.6120501855
11
-447.5083895989
21
-39.1975078444
0
LINE
5
262
100
AcDbEntity
8
0
100
AcDbLine
62
7
6
CONTINUOUS
10
-447.5032129265
20
-74.2467362129
11
-447.5032129265
21
-71.1336642129
0
LINE
5
263
100
AcDbEntity
8
0
100
AcDbLine
62
7
6
CONTINUOUS
10
-447.4773289265
20
-84.8538032129
11
-447.4773289265
21
-81.7460612129
0
LINE
5
264
100
AcDbEntity
8
0
100
AcDbLine
62
7
6
CONTINUOUS
10
-447.4773289265
20
112.6303207871
11
-447.4773289265
21
125.1335957871
0
LINE
5
265
100
AcDbEntity
8
0
100
AcDbLine
62
7
6
CONTINUOUS
10
-447.4772989265
20
10.8906017870
11
-447.4772989265
21
13.1594447871
0
LINE
5
266
100
AcDbEntity
8
0
100
AcDbLine
62
7
6
CONTINUOUS
10
-447.4772989265
20
22.6124987871
11
-447.4772989265
21
25.2341697871
0
LINE
5
267
100
AcDbEntity
8
0
100
AcDbLine
62
7
6
CONTINUOUS
10
-447.4772989265
20
30.3763747871
11
-447.4773289265
21
42.8795847871
0
LINE
5
268
100
AcDbEntity
8
0
100
AcDbLine
62
7
6
CONTINUOUS
10
-447.4772989272
20
51.1225977871
11
-447.4773289265
21
53.5173977871
0
LINE
5
269
100
AcDbEntity
8
0
100
AcDbLine
62
7
6
CONTINUOUS
10
-447.4772989265
20
96.9004987871
11
-447.4773289265
21
99.2954497871
0
LINE
5
26A
100
AcDbEntity
8
0
100
AcDbLine
62
7
6
CONTINUOUS
10
-446.5273289265
20
-1.4593982129
11
-446.5273289265
21
-9.4593982129
0
LINE
5
26B
100
AcDbEntity
8
0
100
AcDbLine
62
7
6
CONTINUOUS
10
-446.4773289265
20
-17.7593982129
11
-446.4773289265
21
3.5406017871
0
LINE
5
26C
100
AcDbEntity
8
0
100
AcDbLine
62
7
6
CONTINUOUS
10
-444.4773289265
20
-17.7593982129
11
-444.4773289265
21
3.5406017871
0
LINE
5
26D
100
AcDbEntity
8
0
100
AcDbLine
62
7
6
CONTINUOUS
10
-444.4273289265
20
-9.4593982129
11
-444.4273289265
21
-1.4593982129
0
LINE
5
26E
100
AcDbEntity
8
0
100
AcDbLine
62
7
6
CONTINUOUS
10
-457.1209137144
20
65.5926413899
11
-457.4467788639
21
65.2382625705
0
LINE
5
26F
100
AcDbEntity
8
0
100
AcDbLine
62
7
6
CONTINUOUS
10
-451.0069789265
20
-110.5519422129
11
-457.5644349265
21
-103.9660142129
0
LINE
5
270
100
AcDbEntity
8
0
100
AcDbLine
62
7
6
CONTINUOUS
10
-454.0815289265
20
-103.9011512129
11
-447.5239209265
21
-110.4870792129
0
LINE
5
271
100
AcDbEntity
8
0
100
AcDbLine
62
7
6
CONTINUOUS
10
-422.4773289265
20
-146.1093982129
11
-422.4773289265
21
131.8906017871
0
LINE
5
272
100
AcDbEntity
8
0
100
AcDbLine
62
7
6
CONTINUOUS
10
-459.5787510675
20
13.1594447871
11
-447.4772989265
21
22.6124987871
0
LINE
5
273
100
AcDbEntity
8
0
100
AcDbLine
62
7
6
CONTINUOUS
10
-450.2486553891
20
22.9653507871
11
-462.4763889265
21
13.4366234089
0
LINE
5
274
100
AcDbEntity
8
0
100
AcDbLine
62
7
6
CONTINUOUS
10
-458.7000349439
20
86.0870084155
11
-448.6659189265
21
89.9843765811
0
LINE
5
275
100
AcDbEntity
8
0
100
AcDbLine
62
7
6
CONTINUOUS
10
-448.6659189265
20
92.1408756972
11
-461.5950789265
21
87.1632137871
0
LINE
5
276
100
AcDbEntity
8
0
100
AcDbLine
62
7
6
CONTINUOUS
10
-462.4994269265
20
-88.3566552129
11
-451.7180239265
21
-91.6775582129
0
LINE
5
277
100
AcDbEntity
8
0
100
AcDbLine
62
7
6
CONTINUOUS
10
-447.5163069265
20
-90.1341182129
11
-462.4994269265
21
-85.1449202129
0
LINE
5
278
100
AcDbEntity
8
0
100
AcDbLine
62
7
6
CONTINUOUS
10
98.8226710735
20
-157.9093982129
11
102.2226710735
21
-157.9093982129
0
LINE
5
279
100
AcDbEntity
8
0
100
AcDbLine
62
7
6
CONTINUOUS
10
98.0226710735
20
-157.1093982129
11
103.0226710735
21
-157.1093982129
0
LINE
5
27A
100
AcDbEntity
8
0
100
AcDbLine
62
7
6
CONTINUOUS
10
93.0226710735
20
-148.9093982129
11
108.0226710735
21
-148.9093982129
0
LINE
5
27B
100
AcDbEntity
8
0
100
AcDbLine
62
7
6
CONTINUOUS
10
42.5226710735
20
-146.1093982129
11
108.0226710735
21
-146.1093982129
0
LINE
5
27C
100
AcDbEntity
8
0
100
AcDbLine
62
7
6
CONTINUOUS
10
-422.4773289265
20
-146.1093982129
11
-485.4773289265
21
-146.1093982129
0
LINE
5
27D
100
AcDbEntity
8
0
100
AcDbLine
62
7
6
CONTINUOUS
10
-487.4773289265
20
-144.1093982129
11
-485.4773289265
21
-144.1093982129
0
LINE
5
27E
100
AcDbEntity
8
0
100
AcDbLine
62
7
6
CONTINUOUS
10
107.5226710735
20
-144.1093982129
11
105.5226710735
21
-144.1093982129
0
LINE
5
27F
100
AcDbEntity
8
0
100
AcDbLine
62
9
6
CONTINUOUS
10
105.5226710735
20
-144.1093982129
11
42.5226710735
21
-144.1093982129
0
LINE
5
280
100
AcDbEntity
8
0
100
AcDbLine
62
9
6
CONTINUOUS
10
-422.4773289265
20
-144.1093982129
11
-485.4773289265
21
-144.1093982129
0
LINE
5
281
100
AcDbEntity
8
0
100
AcDbLine
62
7
6
CONTINUOUS
10
-422.4773289265
20
-141.1093982129
11
42.5226710735
21
-141.1093982129
0
LINE
5
282
100
AcDbEntity
8
0
100
AcDbLine
62
7
6
CONTINUOUS
10
-422.4773289265
20
-140.1093982129
11
42.5226710735
21
-140.1093982129
0
LINE
5
283
100
AcDbEntity
8
0
100
AcDbLine
62
7
6
CONTINUOUS
10
-462.5228749265
20
-69.4965842129
11
-451.8116629265
21
-72.6900482129
0
LINE
5
284
100
AcDbEntity
8
0
100
AcDbLine
62
7
6
CONTINUOUS
10
-447.5032129265
20
-71.1336642129
11
-457.8713869265
21
-67.9998872129
0
LINE
5
285
100
AcDbEntity
8
0
100
AcDbLine
62
7
6
CONTINUOUS
10
-462.5228749882
20
-59.7468832357
11
-447.5083895989
21
-64.9230529239
0
LINE
5
286
100
AcDbEntity
8
0
100
AcDbLine
62
7
6
CONTINUOUS
10
-457.5644349265
20
-117.1093982129
11
-451.0069789265
21
-110.5519422129
0
LINE
5
287
100
AcDbEntity
8
0
100
AcDbLine
62
7
6
CONTINUOUS
10
-447.5239209265
20
-110.4870792129
11
-454.0815289265
21
-117.0445352129
0
LINE
5
288
100
AcDbEntity
8
0
100
AcDbLine
62
7
6
CONTINUOUS
10
-447.5083895989
20
-39.1975078444
11
-453.1526009868
21
-42.8769794495
0
LINE
5
289
100
AcDbEntity
8
0
100
AcDbLine
62
7
6
CONTINUOUS
10
-462.5230279265
20
-117.1093982129
11
-457.5644349265
21
-117.1093982129
0
LINE
5
28A
100
AcDbEntity
8
0
100
AcDbLine
62
7
6
CONTINUOUS
10
-454.0815289265
20
-117.0445352129
11
-447.5239209265
21
-117.0445352129
0
LINE
5
28B
100
AcDbEntity
8
0
100
AcDbLine
62
7
6
CONTINUOUS
10
-447.5083895989
20
-61.6178319688
11
-450.4862554290
21
-60.7289486107
0
LINE
5
28C
100
AcDbEntity
8
0
100
AcDbLine
62
7
6
CONTINUOUS
10
-453.0122189285
20
-60.0118124997
11
-459.4040180670
21
-58.0890959794
0
LINE
5
28D
100
AcDbEntity
8
0
100
AcDbLine
62
7
6
CONTINUOUS
10
-452.9810059980
20
-45.9952273379
11
-447.5083895989
21
-42.6120501855
0
LINE
5
28E
100
AcDbEntity
8
0
100
AcDbLine
62
7
6
CONTINUOUS
10
-457.5644349265
20
-103.9660142129
11
-462.5230279265
21
-103.9660142129
0
LINE
5
28F
100
AcDbEntity
8
0
100
AcDbLine
62
7
6
CONTINUOUS
10
-447.5239209265
20
-103.9011512129
11
-454.0815289265
21
-103.9011512129
0
LINE
5
290
100
AcDbEntity
8
0
100
AcDbLine
62
7
6
CONTINUOUS
10
-462.5073439265
20
-84.8538032129
11
-447.4773289265
21
-84.8538032129
0
LINE
5
291
100
AcDbEntity
8
0
100
AcDbLine
62
7
6
CONTINUOUS
10
-447.4773289265
20
-81.7460612129
11
-462.5073439265
21
-81.7460612129
0
LINE
5
292
100
AcDbEntity
8
0
100
AcDbLine
62
7
6
CONTINUOUS
10
-462.5228749265
20
-80.2259142129
11
-447.5083899265
21
-80.2259142129
0
LINE
5
293
100
AcDbEntity
8
0
100
AcDbLine
62
7
6
CONTINUOUS
10
-447.5083899265
20
-77.3882792129
11
-457.8713869265
21
-77.3805132129
0
LINE
5
294
100
AcDbEntity
8
0
100
AcDbLine
62
7
6
CONTINUOUS
10
-447.5083895989
20
-51.2548345185
11
-462.5228749882
21
-56.4310042067
0
LINE
5
295
100
AcDbEntity
8
0
100
AcDbLine
62
7
6
CONTINUOUS
10
-457.8713869265
20
-67.9998872129
11
-447.5083899265
21
-67.9919682129
0
LINE
5
296
100
AcDbEntity
8
0
100
AcDbLine
62
7
6
CONTINUOUS
10
-447.5083899265
20
-65.1544842129
11
-462.5228749265
21
-65.1544842129
0
LINE
5
297
100
AcDbEntity
8
0
100
AcDbLine
62
7
6
CONTINUOUS
10
-462.5228749882
20
-51.1248060176
11
-447.5135663776
21
-51.1248060176
0
LINE
5
298
100
AcDbEntity
8
0
100
AcDbLine
62
7
6
CONTINUOUS
10
-459.4040180670
20
-58.0890959794
11
-453.0122189285
21
-56.1660749427
0
LINE
5
299
100
AcDbEntity
8
0
100
AcDbLine
62
7
6
CONTINUOUS
10
-450.4862554290
20
-55.4489388317
11
-447.5083895989
21
-54.5600554736
0
LINE
5
29A
100
AcDbEntity
8
0
100
AcDbLine
62
7
6
CONTINUOUS
10
-447.5135663776
20
-48.0455362278
11
-452.9810059980
21
-48.0455362278
0
LINE
5
29B
100
AcDbEntity
8
0
100
AcDbLine
62
7
6
CONTINUOUS
10
-455.3743526073
20
-48.0327465392
11
-460.1062328747
21
-48.0327465392
0
LINE
5
29C
100
AcDbEntity
8
0
100
AcDbLine
62
7
6
CONTINUOUS
10
-462.4994269265
20
-98.2103492129
11
-447.5163069265
21
-93.2211522129
0
LINE
5
29D
100
AcDbEntity
8
0
100
AcDbLine
62
7
6
CONTINUOUS
10
-457.8713869265
20
-77.3805132129
11
-447.5032129265
21
-74.2467362129
0
LINE
5
29E
100
AcDbEntity
8
0
100
AcDbLine
62
7
6
CONTINUOUS
10
-451.8116629265
20
-72.6900482129
11
-462.5228749265
21
-75.8838162129
0
LINE
5
29F
100
AcDbEntity
8
0
100
AcDbLine
62
7
6
CONTINUOUS
10
-444.4773289265
20
-17.7593982129
11
-446.4773289265
21
-17.7593982129
0
LINE
5
2A0
100
AcDbEntity
8
0
100
AcDbLine
62
7
6
CONTINUOUS
10
-444.4773289265
20
-13.6093982129
11
-446.4773289265
21
-13.6093982129
0
LINE
5
2A1
100
AcDbEntity
8
0
100
AcDbLine
62
7
6
CONTINUOUS
10
-444.4773289265
20
-10.6093982129
11
-446.4773289265
21
-10.6093982129
0
LINE
5
2A2
100
AcDbEntity
8
0
100
AcDbLine
62
7
6
CONTINUOUS
10
-446.5273289265
20
-9.4593982129
11
-446.4773289265
21
-9.4593982129
0
LINE
5
2A3
100
AcDbEntity
8
0
100
AcDbLine
62
7
6
CONTINUOUS
10
-444.4773289265
20
-9.4593982129
11
-444.4273289265
21
-9.4593982129
0
LINE
5
2A4
100
AcDbEntity
8
0
100
AcDbLine
62
7
6
CONTINUOUS
10
-461.5950789265
20
85.0108519889
11
-448.6659189265
21
79.9561850794
0
LINE
5
2A5
100
AcDbEntity
8
0
100
AcDbLine
62
7
6
CONTINUOUS
10
-448.6659189265
20
82.0868617871
11
-458.7000349439
21
86.0870084155
0
LINE
5
2A6
100
AcDbEntity
8
0
100
AcDbLine
62
7
6
CONTINUOUS
10
-451.7180239265
20
-91.6775582129
11
-462.4994269265
21
-94.9986152129
0
LINE
5
2A7
100
AcDbEntity
8
0
100
AcDbLine
62
7
6
CONTINUOUS
10
-444.4773289265
20
-3.6093982129
11
-446.4773289265
21
-3.6093982129
0
LINE
5
2A8
100
AcDbEntity
8
0
100
AcDbLine
62
7
6
CONTINUOUS
10
-444.4273289265
20
-1.4593982129
11
-444.4773289265
21
-1.4593982129
0
LINE
5
2A9
100
AcDbEntity
8
0
100
AcDbLine
62
7
6
CONTINUOUS
10
-446.4773289265
20
-1.4593982129
11
-446.5273289265
21
-1.4593982129
0
LINE
5
2AA
100
AcDbEntity
8
0
100
AcDbLine
62
7
6
CONTINUOUS
10
-444.4773289265
20
-0.6093982129
11
-446.4773289265
21
-0.6093982129
0
LINE
5
2AB
100
AcDbEntity
8
0
100
AcDbLine
62
7
6
CONTINUOUS
10
-444.4773289265
20
3.5406017871
11
-446.4773289265
21
3.5406017871
0
LINE
5
2AC
100
AcDbEntity
8
0
100
AcDbLine
62
7
6
CONTINUOUS
10
-462.4763889265
20
10.8906257871
11
-447.4772989265
21
10.8906017870
0
LINE
5
2AD
100
AcDbEntity
8
0
100
AcDbLine
62
7
6
CONTINUOUS
10
-447.4772989265
20
13.1594447871
11
-459.5787510675
21
13.1594447871
0
LINE
5
2AE
100
AcDbEntity
8
0
100
AcDbLine
62
7
6
CONTINUOUS
10
-462.4763889265
20
22.9653507871
11
-450.2486553891
21
22.9653507871
0
LINE
5
2AF
100
AcDbEntity
8
0
100
AcDbLine
62
7
6
CONTINUOUS
10
-447.4772989265
20
25.2341697871
11
-462.4763889265
21
25.2341697871
0
LINE
5
2B0
100
AcDbEntity
8
0
100
AcDbLine
62
7
6
CONTINUOUS
10
-462.4763889265
20
30.3763747871
11
-447.4772989265
21
30.3763747871
0
LINE
5
2B1
100
AcDbEntity
8
0
100
AcDbLine
62
7
6
CONTINUOUS
10
-449.1578599265
20
32.7711817871
11
-454.3466769265
21
32.7711817871
0
LINE
5
2B2
100
AcDbEntity
8
0
100
AcDbLine
62
7
6
CONTINUOUS
10
-456.0271949265
20
32.7711817869
11
-460.7958279265
21
32.7711537871
0
LINE
5
2B3
100
AcDbEntity
8
0
100
AcDbLine
62
7
6
CONTINUOUS
10
-454.3466769265
20
42.1233777871
11
-456.0271949265
21
42.1233777871
0
LINE
5
2B4
100
AcDbEntity
8
0
100
AcDbLine
62
7
6
CONTINUOUS
10
-460.7958279265
20
42.8039627865
11
-462.4763889265
21
42.8039517871
0
LINE
5
2B5
100
AcDbEntity
8
0
100
AcDbLine
62
7
6
CONTINUOUS
10
-447.4773289265
20
42.8795847871
11
-449.1578599265
21
42.8795847871
0
LINE
5
2B6
100
AcDbEntity
8
0
100
AcDbLine
62
7
6
CONTINUOUS
10
-462.4763889265
20
45.1230317871
11
-460.7958279265
21
45.1230367868
0
LINE
5
2B7
100
AcDbEntity
8
0
100
AcDbLine
62
7
6
CONTINUOUS
10
-460.7958279265
20
51.1225977871
11
-447.4772989272
21
51.1225977871
0
LINE
5
2B8
100
AcDbEntity
8
0
100
AcDbLine
62
7
6
CONTINUOUS
10
-447.4773289265
20
53.5173977871
11
-460.7958279265
21
53.5173977871
0
LINE
5
2B9
100
AcDbEntity
8
0
100
AcDbLine
62
7
6
CONTINUOUS
10
-460.7958279265
20
59.5169577861
11
-462.4763889265
21
59.5169387871
0
LINE
5
2BA
100
AcDbEntity
8
0
100
AcDbLine
62
7
6
CONTINUOUS
10
98.8226710735
20
143.6906017871
11
98.0226710735
21
142.8906017871
0
LINE
5
2BB
100
AcDbEntity
8
0
100
AcDbLine
62
7
6
CONTINUOUS
10
-462.4763889265
20
96.9004987871
11
-447.4772989265
21
96.9004987871
0
LINE
5
2BC
100
AcDbEntity
8
0
100
AcDbLine
62
7
6
CONTINUOUS
10
-447.4773289265
20
99.2954497871
11
-454.3466769265
21
99.2954497871
0
LINE
5
2BD
100
AcDbEntity
8
0
100
AcDbLine
62
7
6
CONTINUOUS
10
-456.0271949265
20
99.2954497871
11
-460.7958279265
21
99.2954497871
0
LINE
5
2BE
100
AcDbEntity
8
0
100
AcDbLine
62
7
6
CONTINUOUS
10
98.8226710735
20
-157.9093982129
11
98.0226710735
21
-157.1093982129
0
LINE
5
2BF
100
AcDbEntity
8
0
100
AcDbLine
62
7
6
CONTINUOUS
10
-454.3466769265
20
107.5636087871
11
-456.0271949265
21
107.5636087871
0
LINE
5
2C0
100
AcDbEntity
8
0
100
AcDbLine
62
7
6
CONTINUOUS
10
-460.7958279265
20
108.7233027871
11
-462.4763889265
21
108.7233027871
0
LINE
5
2C1
100
AcDbEntity
8
0
100
AcDbLine
62
7
6
CONTINUOUS
10
-462.4763889265
20
112.6303207871
11
-447.4773289265
21
112.6303207871
0
LINE
5
2C2
100
AcDbEntity
8
0
100
AcDbLine
62
7
6
CONTINUOUS
10
-456.0271949265
20
115.0251977871
11
-460.7958279265
21
115.0252017871
0
LINE
5
2C3
100
AcDbEntity
8
0
100
AcDbLine
62
7
6
CONTINUOUS
10
-449.1578599265
20
115.0251977871
11
-454.3466769265
21
115.0251977871
0
LINE
5
2C4
100
AcDbEntity
8
0
100
AcDbLine
62
7
6
CONTINUOUS
10
-454.3466769265
20
124.3774257871
11
-456.0271949265
21
124.3774257871
0
LINE
5
2C5
100
AcDbEntity
8
0
100
AcDbLine
62
7
6
CONTINUOUS
10
-460.7958279265
20
125.0578757881
11
-462.4763889265
21
125.0578967871
0
LINE
5
2C6
100
AcDbEntity
8
0
100
AcDbLine
62
7
6
CONTINUOUS
10
-447.4773289265
20
125.1335957871
11
-449.1578599265
21
125.1335957871
0
LINE
5
2C7
100
AcDbEntity
8
0
100
AcDbLine
62
7
6
CONTINUOUS
10
42.5226710735
20
125.8906017871
11
-422.4773289265
21
125.8906017871
0
LINE
5
2C8
100
AcDbEntity
8
0
100
AcDbLine
62
7
6
CONTINUOUS
10
42.5226710735
20
126.8906017871
11
-422.4773289265
21
126.8906017871
0
LINE
5
2C9
100
AcDbEntity
8
0
100
AcDbLine
62
7
6
CONTINUOUS
10
-487.4773289265
20
129.8906017871
11
-485.4773289265
21
129.8906017871
0
LINE
5
2CA
100
AcDbEntity
8
0
100
AcDbLine
62
9
6
CONTINUOUS
10
-485.4773289265
20
129.8906017871
11
-422.4773289265
21
129.8906017871
0
LINE
5
2CB
100
AcDbEntity
8
0
100
AcDbLine
62
7
6
CONTINUOUS
10
107.5226710735
20
129.8906017871
11
105.5226710735
21
129.8906017871
0
LINE
5
2CC
100
AcDbEntity
8
0
100
AcDbLine
62
9
6
CONTINUOUS
10
42.5226710735
20
129.8906017871
11
105.5226710735
21
129.8906017871
0
LINE
5
2CD
100
AcDbEntity
8
0
100
AcDbLine
62
7
6
CONTINUOUS
10
-485.4773289265
20
131.8906017871
11
-422.4773289265
21
131.8906017871
0
LINE
5
2CE
100
AcDbEntity
8
0
100
AcDbLine
62
7
6
CONTINUOUS
10
42.5226710735
20
131.8906017871
11
108.0226710735
21
131.8906017871
0
LINE
5
2CF
100
AcDbEntity
8
0
100
AcDbLine
62
7
6
CONTINUOUS
10
108.0226710735
20
134.6906017871
11
93.0226710735
21
134.6906017871
0
LINE
5
2D0
100
AcDbEntity
8
0
100
AcDbLine
62
7
6
CONTINUOUS
10
103.0226710735
20
142.8906017871
11
98.0226710735
21
142.8906017871
0
LINE
5
2D1
100
AcDbEntity
8
0
100
AcDbLine
62
7
6
CONTINUOUS
10
102.2226710735
20
143.6906017871
11
98.8226710735
21
143.6906017871
0
LINE
5
2D2
100
AcDbEntity
8
0
100
AcDbLine
62
7
6
CONTINUOUS
10
42.5226710735
20
-146.1093982129
11
42.5226710735
21
131.8906017871
0
LINE
5
2D3
100
AcDbEntity
8
0
100
AcDbLine
62
7
6
CONTINUOUS
10
93.0226710735
20
-146.1093982129
11
93.0226710735
21
-148.9093982129
0
LINE
5
2D4
100
AcDbEntity
8
0
100
AcDbLine
62
7
6
CONTINUOUS
10
93.0226710735
20
131.8906017871
11
93.0226710735
21
134.6906017871
0
LINE
5
2D5
100
AcDbEntity
8
0
100
AcDbLine
62
7
6
CONTINUOUS
10
98.0226710735
20
142.8906017871
11
98.0226710735
21
134.6906017871
0
LINE
5
2D6
100
AcDbEntity
8
0
100
AcDbLine
62
7
6
CONTINUOUS
10
98.0226710735
20
-157.1093982129
11
98.0226710735
21
-148.9093982129
0
LINE
5
2D7
100
AcDbEntity
8
0
100
AcDbLine
62
7
6
CONTINUOUS
10
103.0226710735
20
142.8906017871
11
103.0226710735
21
134.6906017871
0
LINE
5
2D8
100
AcDbEntity
8
0
100
AcDbLine
62
7
6
CONTINUOUS
10
103.0226710735
20
-157.1093982129
11
103.0226710735
21
-148.9093982129
0
LINE
5
2D9
100
AcDbEntity
8
0
100
AcDbLine
62
7
6
CONTINUOUS
10
105.5226710735
20
131.8906017871
11
105.5226710735
21
129.8906017871
0
LINE
5
2DA
100
AcDbEntity
8
0
100
AcDbLine
62
9
6
CONTINUOUS
10
105.5226710735
20
129.8906017871
11
105.5226710735
21
-144.1093982129
0
LINE
5
2DB
100
AcDbEntity
8
0
100
AcDbLine
62
7
6
CONTINUOUS
10
105.5226710735
20
-146.1093982129
11
105.5226710735
21
-144.1093982129
0
LINE
5
2DC
100
AcDbEntity
8
0
100
AcDbLine
62
7
6
CONTINUOUS
10
107.5226710735
20
129.8906017871
11
107.5226710735
21
-144.1093982129
0
LINE
5
2DD
100
AcDbEntity
8
0
100
AcDbLine
62
7
6
CONTINUOUS
10
108.0226710735
20
-146.1093982129
11
108.0226710735
21
-148.9093982129
0
LINE
5
2DE
100
AcDbEntity
8
0
100
AcDbLine
62
7
6
CONTINUOUS
10
108.0226710735
20
131.8906017871
11
108.0226710735
21
134.6906017871
0
LINE
5
2DF
100
AcDbEntity
8
0
100
AcDbLine
62
7
6
CONTINUOUS
10
102.2226710735
20
-157.9093982129
11
103.0226710735
21
-157.1093982129
0
LINE
5
2E0
100
AcDbEntity
8
0
100
AcDbLine
62
7
6
CONTINUOUS
10
102.2226710735
20
143.6906017871
11
103.0226710735
21
142.8906017871
0
LINE
5
2E1
100
AcDbEntity
8
0
100
AcDbLine
62
7
6
CONTINUOUS
10
-563.5554834011
20
-157.9093982129
11
-560.1560099839
21
-157.9093982129
0
LINE
5
2E2
100
AcDbEntity
8
0
100
AcDbLine
62
7
6
CONTINUOUS
10
-564.3557466925
20
-157.1093982129
11
-559.3557466925
21
-157.1093982129
0
LINE
5
2E3
100
AcDbEntity
8
0
100
AcDbLine
62
7
6
CONTINUOUS
10
-554.3557788755
20
-148.9093982129
11
-569.3557145094
21
-148.9093982129
0
LINE
5
2E4
100
AcDbEntity
8
0
100
AcDbLine
62
7
6
CONTINUOUS
10
-550.3557466925
20
-146.1093982129
11
-569.3557145094
21
-146.1093982129
0
LINE
5
2E5
100
AcDbEntity
8
0
100
AcDbLine
62
7
6
CONTINUOUS
10
-566.3557466925
20
-144.6093982129
11
-550.3557466925
21
-144.6093982129
0
LINE
5
2E6
100
AcDbEntity
8
0
100
AcDbLine
62
7
6
CONTINUOUS
10
-550.3557466925
20
-144.1093982129
11
-568.3557466925
21
-144.1093982129
0
LINE
5
2E7
100
AcDbEntity
8
0
100
AcDbLine
62
7
6
CONTINUOUS
10
-563.5557466925
20
143.6906017871
11
-564.3557466925
21
142.8906017871
0
LINE
5
2E8
100
AcDbEntity
8
0
100
AcDbLine
62
7
6
CONTINUOUS
10
-563.5557466925
20
-157.9093982129
11
-564.3557466925
21
-157.1093982129
0
LINE
5
2E9
100
AcDbEntity
8
0
100
AcDbLine
62
7
6
CONTINUOUS
10
-550.1557466925
20
-91.8593982129
11
-550.3557466925
21
-91.8593982129
0
LINE
5
2EA
100
AcDbEntity
8
0
100
AcDbLine
62
7
6
CONTINUOUS
10
-550.1557466925
20
-84.3593982129
11
-550.3557466925
21
-84.3593982129
0
LINE
5
2EB
100
AcDbEntity
8
0
100
AcDbLine
62
7
6
CONTINUOUS
10
-550.1557466925
20
-76.8593982129
11
-550.3557466925
21
-76.8593982129
0
LINE
5
2EC
100
AcDbEntity
8
0
100
AcDbLine
62
7
6
CONTINUOUS
10
-550.1557466925
20
-69.3593982129
11
-550.3557466925
21
-69.3593982129
0
LINE
5
2ED
100
AcDbEntity
8
0
100
AcDbLine
62
7
6
CONTINUOUS
10
-599.6557466925
20
-10.6093982129
11
-599.6557466925
21
-3.6093982129
0
LINE
5
2EE
100
AcDbEntity
8
0
100
AcDbLine
62
7
6
CONTINUOUS
10
-597.9557466925
20
-13.6093982129
11
-597.9557466925
21
-10.6093982129
0
LINE
5
2EF
100
AcDbEntity
8
0
100
AcDbLine
62
7
6
CONTINUOUS
10
-597.9557466925
20
-3.6093982129
11
-597.9557466925
21
-0.6093982129
0
LINE
5
2F0
100
AcDbEntity
8
0
100
AcDbLine
62
7
6
CONTINUOUS
10
-593.1323448209
20
-3.7859963414
11
-596.4557466925
21
-7.1093982129
0
LINE
5
2F1
100
AcDbEntity
8
0
100
AcDbLine
62
7
6
CONTINUOUS
10
-597.9557466925
20
-0.6093982129
11
-593.4057466925
21
3.5406017871
0
LINE
5
2F2
100
AcDbEntity
8
0
100
AcDbLine
62
7
6
CONTINUOUS
10
-593.4057466925
20
-17.7593982129
11
-597.9557466925
21
-13.6093982129
0
LINE
5
2F3
100
AcDbEntity
8
0
100
AcDbLine
62
7
6
CONTINUOUS
10
-596.4557466925
20
-7.1093982129
11
-593.1323448209
21
-10.4328000845
0
LINE
5
2F4
100
AcDbEntity
8
0
100
AcDbLine
62
7
6
CONTINUOUS
10
-580.8557466925
20
-1.5093982129
11
-580.8557466925
21
-3.6093982129
0
LINE
5
2F5
100
AcDbEntity
8
0
100
AcDbLine
62
7
6
CONTINUOUS
10
-580.8557466925
20
-10.6093982129
11
-580.8557466925
21
-12.7093982129
0
LINE
5
2F6
100
AcDbEntity
8
0
100
AcDbLine
62
7
6
CONTINUOUS
10
-593.1323448209
20
-10.4328000845
11
-589.8089429493
21
-7.1093982129
0
LINE
5
2F7
100
AcDbEntity
8
0
100
AcDbLine
62
7
6
CONTINUOUS
10
-571.8557466925
20
2.3906017871
11
-570.2557466925
21
3.8906017871
0
LINE
5
2F8
100
AcDbEntity
8
0
100
AcDbLine
62
7
6
CONTINUOUS
10
-570.2557466925
20
-18.1093982129
11
-568.3557466925
21
-18.1093982129
0
LINE
5
2F9
100
AcDbEntity
8
0
100
AcDbLine
62
7
6
CONTINUOUS
10
-585.9057466925
20
-17.7593982129
11
-593.4057466925
21
-17.7593982129
0
LINE
5
2FA
100
AcDbEntity
8
0
100
AcDbLine
62
7
6
CONTINUOUS
10
-550.3557466925
20
-16.4593982129
11
-547.8557466925
21
-16.4593982129
0
LINE
5
2FB
100
AcDbEntity
8
0
100
AcDbLine
62
7
6
CONTINUOUS
10
-571.8557466925
20
-16.6093982129
11
-570.2557466925
21
-18.1093982129
0
LINE
5
2FC
100
AcDbEntity
8
0
100
AcDbLine
62
7
6
CONTINUOUS
10
-589.8089429493
20
-7.1093982129
11
-593.1323448209
21
-3.7859963414
0
LINE
5
2FD
100
AcDbEntity
8
0
100
AcDbLine
62
7
6
CONTINUOUS
10
-572.8557466925
20
-14.2593982129
11
-572.8557466925
21
0.0406017871
0
LINE
5
2FE
100
AcDbEntity
8
0
100
AcDbLine
62
7
6
CONTINUOUS
10
-571.8557466925
20
-16.6093982129
11
-571.8557466925
21
2.3906017871
0
LINE
5
2FF
100
AcDbEntity
8
0
100
AcDbLine
62
7
6
CONTINUOUS
10
-570.2557466925
20
-18.1093982129
11
-570.2557466925
21
3.8906017871
0
LINE
5
300
100
AcDbEntity
8
0
100
AcDbLine
62
7
6
CONTINUOUS
10
-569.3557466925
20
-146.1093982129
11
-569.3557466925
21
-148.9093982129
0
LINE
5
301
100
AcDbEntity
8
0
100
AcDbLine
62
7
6
CONTINUOUS
10
-569.3557466925
20
131.8906017871
11
-569.3557466925
21
134.6906017871
0
LINE
5
302
100
AcDbEntity
8
0
100
AcDbLine
62
7
6
CONTINUOUS
10
-568.4557466925
20
125.1335957871
11
-568.4557466925
21
112.6303207871
0
LINE
5
303
100
AcDbEntity
8
0
100
AcDbLine
62
7
6
CONTINUOUS
10
-568.4557466925
20
108.7233027871
11
-568.4557466925
21
96.9004987871
0
LINE
5
304
100
AcDbEntity
8
0
100
AcDbLine
62
7
6
CONTINUOUS
10
-568.4557466925
20
92.1408756972
11
-568.4557466925
21
79.9561850794
0
LINE
5
305
100
AcDbEntity
8
0
100
AcDbLine
62
7
6
CONTINUOUS
10
-568.4557466925
20
75.9796068436
11
-568.4557466925
21
61.7066943860
0
LINE
5
306
100
AcDbEntity
8
0
100
AcDbLine
62
7
6
CONTINUOUS
10
-568.4557466925
20
-117.1093982129
11
-568.4557466925
21
-103.9011512129
0
LINE
5
307
100
AcDbEntity
8
0
100
AcDbLine
62
7
6
CONTINUOUS
10
-568.4557466925
20
59.5169387871
11
-568.4557466925
21
45.1230317871
0
LINE
5
308
100
AcDbEntity
8
0
100
AcDbLine
62
7
6
CONTINUOUS
10
-568.4557466925
20
-98.2103492129
11
-568.4557466925
21
-85.1449202129
0
LINE
5
309
100
AcDbEntity
8
0
100
AcDbLine
62
7
6
CONTINUOUS
10
-568.4557466925
20
42.8795847871
11
-568.4557466925
21
30.3763747871
0
LINE
5
30A
100
AcDbEntity
8
0
100
AcDbLine
62
7
6
CONTINUOUS
10
-568.4557466925
20
-84.8538032129
11
-568.4557466925
21
-81.7460612129
0
LINE
5
30B
100
AcDbEntity
8
0
100
AcDbLine
62
7
6
CONTINUOUS
10
-568.4557466925
20
-80.2259142129
11
-568.4557466925
21
-65.1544842129
0
LINE
5
30C
100
AcDbEntity
8
0
100
AcDbLine
62
7
6
CONTINUOUS
10
-568.4557466925
20
25.2341697871
11
-568.4557466925
21
10.8906257871
0
LINE
5
30D
100
AcDbEntity
8
0
100
AcDbLine
62
7
6
CONTINUOUS
10
-568.4557466925
20
-64.9230529239
11
-568.4557466925
21
-51.2548345185
0
LINE
5
30E
100
AcDbEntity
8
0
100
AcDbLine
62
7
6
CONTINUOUS
10
-568.4557466925
20
-51.1248060176
11
-568.4557466925
21
-39.1975078444
0
LINE
5
30F
100
AcDbEntity
8
0
100
AcDbLine
62
7
6
CONTINUOUS
10
-568.3557466925
20
129.8906017871
11
-568.3557466925
21
-144.1093982129
0
LINE
5
310
100
AcDbEntity
8
0
100
AcDbLine
62
7
6
CONTINUOUS
10
-580.8557466925
20
-12.7093982129
11
-585.9057466925
21
-17.7593982129
0
LINE
5
311
100
AcDbEntity
8
0
100
AcDbLine
62
7
6
CONTINUOUS
10
-572.8557466925
20
0.0406017871
11
-571.8557466925
21
0.6072684537
0
LINE
5
312
100
AcDbEntity
8
0
100
AcDbLine
62
7
6
CONTINUOUS
10
-542.1121102715
20
-6.6291632735
11
-541.8861945950
21
-6.6093982129
0
LINE
5
313
100
AcDbEntity
8
0
100
AcDbLine
62
7
6
CONTINUOUS
10
-542.1121102715
20
-5.1291632735
11
-542.0979614328
21
-5.1279254105
0
LINE
5
314
100
AcDbEntity
8
0
100
AcDbLine
62
7
6
CONTINUOUS
10
-545.8557466925
20
-15.6093982129
11
-547.8557466925
21
-15.6093982129
0
LINE
5
315
100
AcDbEntity
8
0
100
AcDbLine
62
7
6
CONTINUOUS
10
-544.1957466925
20
-11.6093982129
11
-543.1957466925
21
-11.6093982129
0
LINE
5
316
100
AcDbEntity
8
0
100
AcDbLine
62
7
6
CONTINUOUS
10
-550.3557466925
20
-11.5093982129
11
-547.8557466925
21
-11.5093982129
0
LINE
5
317
100
AcDbEntity
8
0
100
AcDbLine
62
7
6
CONTINUOUS
10
-544.3557466925
20
-11.1093982129
11
-547.8557466925
21
-11.1093982129
0
LINE
5
318
100
AcDbEntity
8
0
100
AcDbLine
62
7
6
CONTINUOUS
10
-572.8557466925
20
-10.6093982129
11
-580.8557466925
21
-10.6093982129
0
LINE
5
319
100
AcDbEntity
8
0
100
AcDbLine
62
7
6
CONTINUOUS
10
-597.9557466925
20
-10.6093982129
11
-599.6557466925
21
-10.6093982129
0
LINE
5
31A
100
AcDbEntity
8
0
100
AcDbLine
62
7
6
CONTINUOUS
10
-544.3557466925
20
-9.6093982129
11
-544.1957466925
21
-9.6093982129
0
LINE
5
31B
100
AcDbEntity
8
0
100
AcDbLine
62
7
6
CONTINUOUS
10
-542.0979614328
20
-9.0908710153
11
-542.1121102715
21
-9.0896331523
0
LINE
5
31C
100
AcDbEntity
8
0
100
AcDbLine
62
7
6
CONTINUOUS
10
-572.8557466925
20
-14.2593982129
11
-571.8557466925
21
-14.8260648796
0
LINE
5
31D
100
AcDbEntity
8
0
100
AcDbLine
62
7
6
CONTINUOUS
10
-578.8557466925
20
-3.6093982129
11
-576.8557466925
21
-5.3093982129
0
LINE
5
31E
100
AcDbEntity
8
0
100
AcDbLine
62
7
6
CONTINUOUS
10
-585.9057466925
20
3.5406017871
11
-580.8557466925
21
-1.5093982129
0
LINE
5
31F
100
AcDbEntity
8
0
100
AcDbLine
62
9
6
CONTINUOUS
10
-566.3557466925
20
129.8906017871
11
-566.3557466925
21
-144.1093982129
0
LINE
5
320
100
AcDbEntity
8
0
100
AcDbLine
62
7
6
CONTINUOUS
10
-565.7557466925
20
-144.1093982129
11
-565.7557466925
21
-144.6093982129
0
LINE
5
321
100
AcDbEntity
8
0
100
AcDbLine
62
7
6
CONTINUOUS
10
-565.7557466925
20
129.8906017871
11
-565.7557466925
21
130.3906017871
0
LINE
5
322
100
AcDbEntity
8
0
100
AcDbLine
62
7
6
CONTINUOUS
10
-564.3557466925
20
142.8906017871
11
-564.3557466925
21
134.6906017871
0
LINE
5
323
100
AcDbEntity
8
0
100
AcDbLine
62
7
6
CONTINUOUS
10
-564.3557466925
20
-157.1093982129
11
-564.3557466925
21
-148.9093982129
0
LINE
5
324
100
AcDbEntity
8
0
100
AcDbLine
62
7
6
CONTINUOUS
10
-559.3557466925
20
142.8906017871
11
-559.3557466925
21
134.6906017871
0
LINE
5
325
100
AcDbEntity
8
0
100
AcDbLine
62
7
6
CONTINUOUS
10
-559.3557466925
20
-157.1093982129
11
-559.3557466925
21
-148.9093982129
0
LINE
5
326
100
AcDbEntity
8
0
100
AcDbLine
62
7
6
CONTINUOUS
10
-557.9557466925
20
-144.1093982129
11
-557.9557466925
21
-144.6093982129
0
LINE
5
327
100
AcDbEntity
8
0
100
AcDbLine
62
7
6
CONTINUOUS
10
-557.9557466925
20
129.8906017871
11
-557.9557466925
21
130.3906017871
0
LINE
5
328
100
AcDbEntity
8
0
100
AcDbLine
62
7
6
CONTINUOUS
10
-576.8557466925
20
-5.3093982129
11
-572.8557466925
21
-5.3093982129
0
LINE
5
329
100
AcDbEntity
8
0
100
AcDbLine
62
7
6
CONTINUOUS
10
-544.3557466925
20
-4.6093982129
11
-544.1957466925
21
-4.6093982129
0
LINE
5
32A
100
AcDbEntity
8
0
100
AcDbLine
62
7
6
CONTINUOUS
10
-599.6557466925
20
-3.6093982129
11
-597.9557466925
21
-3.6093982129
0
LINE
5
32B
100
AcDbEntity
8
0
100
AcDbLine
62
7
6
CONTINUOUS
10
-580.8557466925
20
-3.6093982129
11
-578.8557466925
21
-3.6093982129
0
LINE
5
32C
100
AcDbEntity
8
0
100
AcDbLine
62
7
6
CONTINUOUS
10
-544.3557466925
20
-3.1093982129
11
-547.8557466925
21
-3.1093982129
0
LINE
5
32D
100
AcDbEntity
8
0
100
AcDbLine
62
7
6
CONTINUOUS
10
-550.3557466925
20
-2.7093982129
11
-547.8557466925
21
-2.7093982129
0
LINE
5
32E
100
AcDbEntity
8
0
100
AcDbLine
62
7
6
CONTINUOUS
10
-544.1957466925
20
-2.6093982129
11
-543.1957466925
21
-2.6093982129
0
LINE
5
32F
100
AcDbEntity
8
0
100
AcDbLine
62
7
6
CONTINUOUS
10
-547.6781453613
20
-0.9905747966
11
-545.5974069516
21
-0.9905747966
0
LINE
5
330
100
AcDbEntity
8
0
100
AcDbLine
62
7
6
CONTINUOUS
10
-550.3557466925
20
2.2406017871
11
-547.8557466925
21
2.2406017871
0
LINE
5
331
100
AcDbEntity
8
0
100
AcDbLine
62
7
6
CONTINUOUS
10
-593.4057466925
20
3.5406017871
11
-585.9057466925
21
3.5406017871
0
LINE
5
332
100
AcDbEntity
8
0
100
AcDbLine
62
7
6
CONTINUOUS
10
-570.2557466925
20
3.8906017871
11
-568.3557466925
21
3.8906017871
0
LINE
5
333
100
AcDbEntity
8
0
100
AcDbLine
62
7
6
CONTINUOUS
10
-541.8861945950
20
-7.6093982129
11
-542.1121102715
21
-7.5896331523
0
LINE
5
334
100
AcDbEntity
8
0
100
AcDbLine
62
7
6
CONTINUOUS
10
-554.3557466925
20
-146.1093982129
11
-554.3557466925
21
-148.9093982129
0
LINE
5
335
100
AcDbEntity
8
0
100
AcDbLine
62
7
6
CONTINUOUS
10
-554.3557466925
20
131.8906017871
11
-554.3557466925
21
134.6906017871
0
LINE
5
336
100
AcDbEntity
8
0
100
AcDbLine
62
9
6
CONTINUOUS
10
-552.3557466925
20
129.8906017871
11
-552.3557466925
21
-144.1093982129
0
LINE
5
337
100
AcDbEntity
8
0
100
AcDbLine
62
9
6
CONTINUOUS
10
-552.3557466925
20
-146.1093982129
11
-552.3557466925
21
-144.6093982129
0
LINE
5
338
100
AcDbEntity
8
0
100
AcDbLine
62
9
6
CONTINUOUS
10
-552.3557466925
20
130.3906017871
11
-552.3557466925
21
131.8906017871
0
LINE
5
339
100
AcDbEntity
8
0
100
AcDbLine
62
7
6
CONTINUOUS
10
-550.3557466925
20
129.8906017871
11
-550.3557466925
21
-144.1093982129
0
LINE
5
33A
100
AcDbEntity
8
0
100
AcDbLine
62
7
6
CONTINUOUS
10
-550.3557466925
20
-146.1093982129
11
-550.3557466925
21
-144.6093982129
0
LINE
5
33B
100
AcDbEntity
8
0
100
AcDbLine
62
7
6
CONTINUOUS
10
-550.3557466925
20
130.3906017871
11
-550.3557466925
21
131.8906017871
0
LINE
5
33C
100
AcDbEntity
8
0
100
AcDbLine
62
9
6
CONTINUOUS
10
-550.1557466925
20
-69.3593982129
11
-550.1557466925
21
-76.8593982129
0
LINE
5
33D
100
AcDbEntity
8
0
100
AcDbLine
62
9
6
CONTINUOUS
10
-550.1557466925
20
-84.3593982129
11
-550.1557466925
21
-91.8593982129
0
LINE
5
33E
100
AcDbEntity
8
0
100
AcDbLine
62
9
6
CONTINUOUS
10
-550.1557466925
20
55.1406017871
11
-550.1557466925
21
62.6406017871
0
LINE
5
33F
100
AcDbEntity
8
0
100
AcDbLine
62
9
6
CONTINUOUS
10
-550.1557466925
20
70.1406017871
11
-550.1557466925
21
77.6406017871
0
LINE
5
340
100
AcDbEntity
8
0
100
AcDbLine
62
9
6
CONTINUOUS
10
-550.0340075620
20
-69.4007174513
11
-550.0340075620
21
-76.8180789746
0
LINE
5
341
100
AcDbEntity
8
0
100
AcDbLine
62
9
6
CONTINUOUS
10
-550.0340075620
20
-84.4007174513
11
-550.0340075620
21
-91.8180789746
0
LINE
5
342
100
AcDbEntity
8
0
100
AcDbLine
62
9
6
CONTINUOUS
10
-550.0340075620
20
55.1819210254
11
-550.0340075620
21
62.5992825487
0
LINE
5
343
100
AcDbEntity
8
0
100
AcDbLine
62
9
6
CONTINUOUS
10
-550.0340075620
20
70.1819210254
11
-550.0340075620
21
77.5992825487
0
LINE
5
344
100
AcDbEntity
8
0
100
AcDbLine
62
7
6
CONTINUOUS
10
-549.0557466925
20
-89.8345694538
11
-549.0557466925
21
-86.3842269720
0
LINE
5
345
100
AcDbEntity
8
0
100
AcDbLine
62
7
6
CONTINUOUS
10
-549.0557466925
20
-74.8345694538
11
-549.0557466925
21
-71.3842269720
0
LINE
5
346
100
AcDbEntity
8
0
100
AcDbLine
62
7
6
CONTINUOUS
10
-549.0557466925
20
57.1654305462
11
-549.0557466925
21
60.6157428744
0
LINE
5
347
100
AcDbEntity
8
0
100
AcDbLine
62
7
6
CONTINUOUS
10
-549.0557466925
20
72.1654305462
11
-549.0557466925
21
75.6157428744
0
LINE
5
348
100
AcDbEntity
8
0
100
AcDbLine
62
7
6
CONTINUOUS
10
-547.8557466925
20
-16.4592310129
11
-547.8557466925
21
2.2406017871
0
LINE
5
349
100
AcDbEntity
8
0
100
AcDbLine
62
7
6
CONTINUOUS
10
-539.7781411566
20
26.5357255869
11
-547.8557466925
21
-1.6093982129
0
LINE
5
34A
100
AcDbEntity
8
0
100
AcDbLine
62
7
6
CONTINUOUS
10
-537.8557466925
20
25.9840014490
11
-545.8557466925
21
-1.8907182805
0
LINE
5
34B
100
AcDbEntity
8
0
100
AcDbLine
62
7
6
CONTINUOUS
10
-545.7319585226
20
5.7906017871
11
-543.6512201129
21
5.7906017871
0
LINE
5
34C
100
AcDbEntity
8
0
100
AcDbLine
62
7
6
CONTINUOUS
10
-545.2727610805
20
7.3906017871
11
-543.1920226708
21
7.3906017871
0
LINE
5
34D
100
AcDbEntity
8
0
100
AcDbLine
62
7
6
CONTINUOUS
10
-545.8557466925
20
-15.6092461247
11
-545.8557466925
21
-1.8907182805
0
LINE
5
34E
100
AcDbEntity
8
0
100
AcDbLine
62
7
6
CONTINUOUS
10
-544.3557466925
20
-11.1093982129
11
-544.3557466925
21
-3.1093982129
0
LINE
5
34F
100
AcDbEntity
8
0
100
AcDbLine
62
7
6
CONTINUOUS
10
-544.1957466925
20
-11.6093982129
11
-544.1957466925
21
-2.6093982129
0
LINE
5
350
100
AcDbEntity
8
0
100
AcDbLine
62
7
6
CONTINUOUS
10
-543.1957466925
20
-11.6093982129
11
-543.1957466925
21
-2.6093982129
0
LINE
5
351
100
AcDbEntity
8
0
100
AcDbLine
62
7
6
CONTINUOUS
10
-540.1807628896
20
25.1328545912
11
-538.2583684255
21
24.5811304533
0
LINE
5
352
100
AcDbEntity
8
0
100
AcDbLine
62
7
6
CONTINUOUS
10
-539.7781411566
20
26.5357255869
11
-537.8557466925
21
25.9840014490
0
LINE
5
353
100
AcDbEntity
8
0
100
AcDbLine
62
7
6
CONTINUOUS
10
-550.1557466925
20
55.1406017871
11
-550.3557466925
21
55.1406017871
0
LINE
5
354
100
AcDbEntity
8
0
100
AcDbLine
62
7
6
CONTINUOUS
10
-550.1557466925
20
62.6406017871
11
-550.3557466925
21
62.6406017871
0
LINE
5
355
100
AcDbEntity
8
0
100
AcDbLine
62
7
6
CONTINUOUS
10
-550.1557466925
20
70.1406017871
11
-550.3557466925
21
70.1406017871
0
LINE
5
356
100
AcDbEntity
8
0
100
AcDbLine
62
7
6
CONTINUOUS
10
-550.1557466925
20
77.6406017871
11
-550.3557466925
21
77.6406017871
0
LINE
5
357
100
AcDbEntity
8
0
100
AcDbLine
62
7
6
CONTINUOUS
10
-560.1557466925
20
-157.9093982129
11
-559.3557466925
21
-157.1093982129
0
LINE
5
358
100
AcDbEntity
8
0
100
AcDbLine
62
7
6
CONTINUOUS
10
-560.1557466925
20
143.6906017871
11
-559.3557466925
21
142.8906017871
0
LINE
5
359
100
AcDbEntity
8
0
100
AcDbLine
62
7
6
CONTINUOUS
10
-550.3557466925
20
129.8906017871
11
-568.3557466925
21
129.8906017871
0
LINE
5
35A
100
AcDbEntity
8
0
100
AcDbLine
62
7
6
CONTINUOUS
10
-550.3557466925
20
130.3906017871
11
-566.3557466925
21
130.3906017871
0
LINE
5
35B
100
AcDbEntity
8
0
100
AcDbLine
62
7
6
CONTINUOUS
10
-550.3557466925
20
131.8906017871
11
-569.3557145094
21
131.8906017871
0
LINE
5
35C
100
AcDbEntity
8
0
100
AcDbLine
62
7
6
CONTINUOUS
10
-554.3557788755
20
134.6906017871
11
-569.3557145094
21
134.6906017871
0
LINE
5
35D
100
AcDbEntity
8
0
100
AcDbLine
62
7
6
CONTINUOUS
10
-559.3557466925
20
142.8906017871
11
-564.3557466925
21
142.8906017871
0
LINE
5
35E
100
AcDbEntity
8
0
100
AcDbLine
62
7
6
CONTINUOUS
10
-560.1560099839
20
143.6906017871
11
-563.5554834011
21
143.6906017871
0
CIRCLE
5
35F
100
AcDbEntity
8
0
100
AcDbCircle
62
7
6
CONTINUOUS
10
-445.4773289265
20
-7.1093982129
40
11.0000000000
0
ARC
5
360
100
AcDbEntity
8
0
100
AcDbCircle
62
7
6
CONTINUOUS
10
-445.4773289265
20
-7.1093982129
40
8.5000000000
100
AcDbArc
50
96.7565375415
51
263.2434624585
0
ARC
5
361
100
AcDbEntity
8
0
100
AcDbCircle
62
7
6
CONTINUOUS
10
-445.4773289265
20
-7.1093982129
40
8.5000000000
100
AcDbArc
50
276.7565375415
51
83.2434624585
0
ARC
5
362
100
AcDbEntity
8
0
100
AcDbCircle
62
7
6
CONTINUOUS
10
-445.4773289265
20
-7.1093982129
40
3.2500000000
100
AcDbArc
50
108.8491065923
51
252.0797868606
0
ARC
5
363
100
AcDbEntity
8
0
100
AcDbCircle
62
7
6
CONTINUOUS
10
-445.4773289265
20
-7.1093982129
40
9.5000000000
100
AcDbArc
50
96.0445657952
51
263.9554342048
0
ARC
5
364
100
AcDbEntity
8
0
100
AcDbCircle
62
7
6
CONTINUOUS
10
-445.4773289265
20
-7.1093982129
40
9.5000000000
100
AcDbArc
50
276.0445657952
51
83.9554342048
0
ARC
5
365
100
AcDbEntity
8
0
100
AcDbCircle
62
7
6
CONTINUOUS
10
-445.4773289265
20
-7.1093982129
40
3.2500000000
100
AcDbArc
50
287.9202131394
51
71.1508934077
0
ARC
5
366
100
AcDbEntity
8
0
100
AcDbCircle
62
7
6
CONTINUOUS
10
-445.4773289265
20
-7.1093982129
40
8.0000000000
100
AcDbArc
50
97.1809481452
51
262.8190518548
0
ARC
5
367
100
AcDbEntity
8
0
100
AcDbCircle
62
7
6
CONTINUOUS
10
-445.4773289265
20
-7.1093982129
40
8.0000000000
100
AcDbArc
50
277.1809481452
51
82.8190518548
0
ARC
5
368
100
AcDbEntity
8
0
100
AcDbCircle
62
7
6
CONTINUOUS
10
-445.4773289265
20
-7.1093982129
40
7.1500000000
100
AcDbArc
50
98.0439709356
51
261.9560290644
0
ARC
5
369
100
AcDbEntity
8
0
100
AcDbCircle
62
7
6
CONTINUOUS
10
-445.4773289265
20
-7.1093982129
40
7.1500000000
100
AcDbArc
50
278.0439709356
51
81.9560290644
0
ARC
5
36A
100
AcDbEntity
8
0
100
AcDbCircle
62
7
6
CONTINUOUS
10
-550.1557466925
20
70.3406017871
40
0.2000000000
100
AcDbArc
50
270.0000000000
51
307.4952497646
0
ARC
5
36B
100
AcDbEntity
8
0
100
AcDbCircle
62
7
6
CONTINUOUS
10
-551.5557466925
20
72.1654305462
40
2.5000000000
100
AcDbArc
50
307.4952497646
51
360.0000000000
0
ARC
5
36C
100
AcDbEntity
8
0
100
AcDbCircle
62
7
6
CONTINUOUS
10
-551.5557466925
20
75.6157730280
40
2.5000000000
100
AcDbArc
50
0.0000000000
51
52.5047502354
0
ARC
5
36D
100
AcDbEntity
8
0
100
AcDbCircle
62
7
6
CONTINUOUS
10
-550.1557466925
20
77.4406017871
40
0.2000000000
100
AcDbArc
50
52.5047502354
51
90.0000000000
0
ARC
5
36E
100
AcDbEntity
8
0
100
AcDbCircle
62
7
6
CONTINUOUS
10
-550.1557466925
20
55.3406017871
40
0.2000000000
100
AcDbArc
50
270.0000000000
51
307.4952497646
0
ARC
5
36F
100
AcDbEntity
8
0
100
AcDbCircle
62
7
6
CONTINUOUS
10
-551.5557466925
20
57.1654305462
40
2.5000000000
100
AcDbArc
50
307.4952497646
51
360.0000000000
0
ARC
5
370
100
AcDbEntity
8
0
100
AcDbCircle
62
7
6
CONTINUOUS
10
-551.5557466925
20
60.6157730280
40
2.5000000000
100
AcDbArc
50
0.0000000000
51
52.5047502354
0
ARC
5
371
100
AcDbEntity
8
0
100
AcDbCircle
62
7
6
CONTINUOUS
10
-550.1557466925
20
62.4406017871
40
0.2000000000
100
AcDbArc
50
52.5047502354
51
90.0000000000
0
ARC
5
372
100
AcDbEntity
8
0
100
AcDbCircle
62
7
6
CONTINUOUS
10
-550.1557466925
20
-76.6593982129
40
0.2000000000
100
AcDbArc
50
270.0000000000
51
307.4952497646
0
ARC
5
373
100
AcDbEntity
8
0
100
AcDbCircle
62
7
6
CONTINUOUS
10
-551.5557466925
20
-74.8345694538
40
2.5000000000
100
AcDbArc
50
307.4952497646
51
360.0000000000
0
ARC
5
374
100
AcDbEntity
8
0
100
AcDbCircle
62
7
6
CONTINUOUS
10
-551.5557466925
20
-71.3842269720
40
2.5000000000
100
AcDbArc
50
0.0000000000
51
52.5047502354
0
ARC
5
375
100
AcDbEntity
8
0
100
AcDbCircle
62
7
6
CONTINUOUS
10
-550.1557466925
20
-69.5593982129
40
0.2000000000
100
AcDbArc
50
52.5047502354
51
90.0000000000
0
ARC
5
376
100
AcDbEntity
8
0
100
AcDbCircle
62
7
6
CONTINUOUS
10
-550.1557466925
20
-91.6593982129
40
0.2000000000
100
AcDbArc
50
270.0000000000
51
307.4952497646
0
ARC
5
377
100
AcDbEntity
8
0
100
AcDbCircle
62
7
6
CONTINUOUS
10
-551.5557466925
20
-89.8345694538
40
2.5000000000
100
AcDbArc
50
307.4952497646
51
360.0000000000
0
ARC
5
378
100
AcDbEntity
8
0
100
AcDbCircle
62
7
6
CONTINUOUS
10
-551.5557466925
20
-86.3842269720
40
2.5000000000
100
AcDbArc
50
0.0000000000
51
52.5047502354
0
ARC
5
379
100
AcDbEntity
8
0
100
AcDbCircle
62
7
6
CONTINUOUS
10
-550.1557466925
20
-84.5593982129
40
0.2000000000
100
AcDbArc
50
52.5047502354
51
90.0000000000
0
ARC
5
37A
100
AcDbEntity
8
0
100
AcDbCircle
62
7
6
CONTINUOUS
10
-550.0817168417
20
-7.1093982129
40
8.2259701493
100
AcDbArc
50
13.9384924695
51
33.1647238820
0
ARC
5
37B
100
AcDbEntity
8
0
100
AcDbCircle
62
7
6
CONTINUOUS
10
-550.0817168417
20
-7.1093982129
40
8.2259701493
100
AcDbArc
50
326.8352761180
51
346.0615075305
0
ARC
5
37C
100
AcDbEntity
8
0
100
AcDbCircle
62
7
6
CONTINUOUS
10
-566.3557466925
20
-144.1093982129
40
0.5000000000
100
AcDbArc
50
180.0000000000
51
270.0000000000
0
ARC
5
37D
100
AcDbEntity
8
0
100
AcDbCircle
62
7
6
CONTINUOUS
10
-566.3557466925
20
-144.1093982129
40
2.0000000000
100
AcDbArc
50
180.0000000000
51
270.0000000000
0
ARC
5
37E
100
AcDbEntity
8
0
100
AcDbCircle
62
7
6
CONTINUOUS
10
-566.3557466925
20
129.8906017871
40
2.0000000000
100
AcDbArc
50
90.0000000000
51
180.0000000000
0
ARC
5
37F
100
AcDbEntity
8
0
100
AcDbCircle
62
7
6
CONTINUOUS
10
-566.3557466925
20
129.8906017871
40
0.5000000000
100
AcDbArc
50
90.0000000000
51
180.0000000000
0
SPLINE
5
380
100
AcDbEntity
8
0
100
AcDbSpline
62
7
6
CONTINUOUS
70
0
71
3
72
15
73
11
74
9
42
0.0000001000
43
0.0000001000
44
0.0000000001
12
-6.9371500104
22
8.8543811131
32
0.0000000000
13
-1.2826035312
23
-11.1749292321
33
0.0000000000
40
0.0000000000
40
0.0000000000
40
0.0000000000
40
0.0000000000
40
0.1237842683
40
0.2518614093
40
0.3775163904
40
0.5021094675
40
0.6264536826
40
0.7529090833
40
0.8810056360
40
1.0000000000
40
1.0000000000
40
1.0000000000
40
1.0000000000
10
-453.9787539674
20
-41.2557341606
30
0.0000000000
10
-454.2649906468
20
-40.8903897980
30
0.0000000000
10
-454.9672632377
20
-40.2361900142
30
0.0000000000
10
-456.2461774089
20
-39.5854056844
30
0.0000000000
10
-457.6648829393
20
-39.3427605760
30
0.0000000000
10
-459.0802853407
20
-39.5124344396
30
0.0000000000
10
-460.3803609111
20
-40.1056666199
30
0.0000000000
10
-461.4636080711
20
-41.0561171103
30
0.0000000000
10
-462.2147373837
20
-42.2603362333
30
0.0000000000
10
-462.4720007911
20
-43.1666992143
30
0.0000000000
10
-462.5228749882
20
-43.6099504131
30
0.0000000000
11
-453.9787539674
21
-41.2557341606
31
0.0000000000
11
-454.9917576297
21
-40.3004880983
31
0.0000000000
11
-456.2778029164
21
-39.6512131295
31
0.0000000000
11
-457.6706664765
21
-39.4111247997
31
0.0000000000
11
-459.0615656105
21
-39.5828468447
31
0.0000000000
11
-460.3357958635
21
-40.1595511223
31
0.0000000000
11
-461.4056353340
21
-41.0969339835
31
0.0000000000
11
-462.1686487865
21
-42.3191901408
31
0.0000000000
11
-462.5228749882
21
-43.6099504131
31
0.0000000000
0
SPLINE
5
381
100
AcDbEntity
8
0
100
AcDbSpline
62
7
6
CONTINUOUS
70
0
71
3
72
10
73
6
74
4
42
0.0000001000
43
0.0000001000
44
0.0000000001
12
-0.6046145492
22
1.7220149718
32
0.0000000000
13
-1.0649923983
23
1.4821219612
33
0.0000000000
40
0.0000000000
40
0.0000000000
40
0.0000000000
40
0.0000000000
40
0.3506365813
40
0.6842667003
40
1.0000000000
40
1.0000000000
40
1.0000000000
40
1.0000000000
10
-453.1526009868
20
-42.8769794495
30
0.0000000000
10
-453.2232676463
20
-42.6757123019
30
0.0000000000
10
-453.3775520677
20
-42.2883899384
30
0.0000000000
10
-453.6535011633
20
-41.7453015224
30
0.0000000000
10
-453.8666694460
20
-41.4117192464
30
0.0000000000
10
-453.9787539674
20
-41.2557341606
30
0.0000000000
11
-453.1526009868
21
-42.8769794495
31
0.0000000000
11
-453.3904557076
21
-42.2828874491
31
0.0000000000
11
-453.6674086983
21
-41.7406183793
31
0.0000000000
11
-453.9787539674
21
-41.2557341606
31
0.0000000000
0
SPLINE
5
382
100
AcDbEntity
8
0
100
AcDbSpline
62
7
6
CONTINUOUS
70
0
71
3
72
16
73
12
74
10
42
0.0000001000
43
0.0000001000
44
0.0000000001
12
0.5019288759
22
7.1445290730
32
0.0000000000
13
0.1584980951
23
-7.1603845305
33
0.0000000000
40
0.0000000000
40
0.0000000000
40
0.0000000000
40
0.0000000000
40
0.0988727081
40
0.2161340501
40
0.3308737958
40
0.4327276251
40
0.5433996801
40
0.6534350718
40
0.7631622082
40
0.8792154799
40
1.0000000000
40
1.0000000000
40
1.0000000000
40
1.0000000000
10
-460.1062328747
20
-44.3581471965
30
0.0000000000
10
-460.0896905189
20
-44.1226808840
30
0.0000000000
10
-459.9468316755
20
-43.6136275651
30
0.0000000000
10
-459.4965801516
20
-42.9516698328
30
0.0000000000
10
-458.8604585721
20
-42.4412601767
30
0.0000000000
10
-458.0938478662
20
-42.2219737182
30
0.0000000000
10
-457.3144882847
20
-42.2389587095
30
0.0000000000
10
-456.5484913755
20
-42.4858565468
30
0.0000000000
10
-455.9188310935
20
-43.0108718872
30
0.0000000000
10
-455.4864920713
20
-43.7344811816
30
0.0000000000
10
-455.3807339794
20
-44.3037279185
30
0.0000000000
10
-455.3743526073
20
-44.5920157881
30
0.0000000000
11
-460.1062328747
21
-44.3581471965
31
0.0000000000
11
-459.9273328977
21
-43.6729777992
31
0.0000000000
11
-459.4608721801
21
-42.9745875489
31
0.0000000000
11
-458.8093383707
21
-42.4737589611
31
0.0000000000
11
-458.1109073534
21
-42.2631608235
31
0.0000000000
11
-457.3183891244
21
-42.2775358871
31
0.0000000000
11
-456.5721911525
21
-42.5310559351
31
0.0000000000
11
-455.9641559969
21
-43.0289536335
31
0.0000000000
11
-455.5379425986
21
-43.7425489706
31
0.0000000000
11
-455.3743526073
21
-44.5920157881
31
0.0000000000
0
SPLINE
5
383
100
AcDbEntity
8
0
100
AcDbSpline
62
7
6
CONTINUOUS
70
0
71
3
72
10
73
6
74
4
42
0.0000001000
43
0.0000001000
44
0.0000000001
12
-1.6562959364
22
-2.6822347921
32
0.0000000000
13
-3.1405224652
23
-0.2735294406
33
0.0000000000
40
0.0000000000
40
0.0000000000
40
0.0000000000
40
0.0000000000
40
0.2881683981
40
0.5980367552
40
1.0000000000
40
1.0000000000
40
1.0000000000
40
1.0000000000
10
-449.8544813782
20
65.6975602476
30
0.0000000000
10
-450.0135787605
20
65.4399151464
30
0.0000000000
10
-450.4343017062
20
64.9538295271
30
0.0000000000
10
-451.3712117823
20
64.4388271262
30
0.0000000000
10
-452.1176373694
20
64.2973153747
30
0.0000000000
10
-452.5384289028
20
64.2606657809
30
0.0000000000
11
-449.8544813782
21
65.6975602476
31
0.0000000000
11
-450.4514450903
21
65.0128186151
31
0.0000000000
11
-451.2999927237
21
64.5289085752
31
0.0000000000
11
-452.5384289028
21
64.2606657809
31
0.0000000000
0
SPLINE
5
384
100
AcDbEntity
8
0
100
AcDbSpline
62
7
6
CONTINUOUS
70
0
71
3
72
10
73
6
74
4
42
0.0000001000
43
0.0000001000
44
0.0000000001
12
0.0000000000
22
-3.5414817613
32
0.0000000000
13
-1.8607156534
23
-3.0132756798
33
0.0000000000
40
0.0000000000
40
0.0000000000
40
0.0000000000
40
0.0000000000
40
0.4110305818
40
0.7357592182
40
1.0000000000
40
1.0000000000
40
1.0000000000
40
1.0000000000
10
-449.0761068838
20
69.1119898325
30
0.0000000000
10
-449.0761068838
20
68.6267707295
30
0.0000000000
10
-449.1273372119
20
67.7557351878
30
0.0000000000
10
-449.3962108647
20
66.5998114623
30
0.0000000000
10
-449.6905890586
20
65.9629703547
30
0.0000000000
10
-449.8544813782
20
65.6975602476
30
0.0000000000
11
-449.0761068838
21
69.1119898325
31
0.0000000000
11
-449.1790971580
21
67.6599804647
31
0.0000000000
11
-449.4538227811
21
66.5432562009
31
0.0000000000
11
-449.8544813782
21
65.6975602476
31
0.0000000000
0
SPLINE
5
385
100
AcDbEntity
8
0
100
AcDbSpline
62
7
6
CONTINUOUS
70
0
71
3
72
10
73
6
74
4
42
0.0000001000
43
0.0000001000
44
0.0000000001
12
1.5961493549
22
-2.8077721482
32
0.0000000000
13
0.0000000000
23
-3.2297487827
33
0.0000000000
40
0.0000000000
40
0.0000000000
40
0.0000000000
40
0.0000000000
40
0.2672584686
40
0.5928613035
40
1.0000000000
40
1.0000000000
40
1.0000000000
40
1.0000000000
10
-449.7505779514
20
72.2383642444
30
0.0000000000
10
-449.6083831406
20
71.9882306163
30
0.0000000000
10
-449.3542945912
20
71.3973310501
30
0.0000000000
10
-449.1213592943
20
70.3411612501
30
0.0000000000
10
-449.0761068838
20
69.5503084023
30
0.0000000000
10
-449.0761068838
20
69.1119898325
30
0.0000000000
11
-449.7505779514
21
72.2383642444
31
0.0000000000
11
-449.4028708317
21
71.4483164457
31
0.0000000000
11
-449.1651188255
21
70.4239293860
31
0.0000000000
11
-449.0761068838
21
69.1119898325
31
0.0000000000
0
SPLINE
5
386
100
AcDbEntity
8
0
100
AcDbSpline
62
7
6
CONTINUOUS
70
0
71
3
72
10
73
6
74
4
42
0.0000001000
43
0.0000001000
44
0.0000000001
12
2.3309091510
22
0.0000000000
32
0.0000000000
13
1.1519407199
23
-2.0263686851
33
0.0000000000
40
0.0000000000
40
0.0000000000
40
0.0000000000
40
0.0000000000
40
0.3172548965
40
0.6221949505
40
1.0000000000
40
1.0000000000
40
1.0000000000
40
1.0000000000
10
-451.6321149471
20
73.4256353146
30
0.0000000000
10
-451.3856174999
20
73.4256353146
30
0.0000000000
10
-450.8949486499
20
73.3480079851
30
0.0000000000
10
-450.2197049568
20
72.9287324353
30
0.0000000000
10
-449.8956476250
20
72.4935550183
30
0.0000000000
10
-449.7505779514
20
72.2383642444
30
0.0000000000
11
-451.6321149471
21
73.4256353146
31
0.0000000000
11
-450.9035759055
21
73.2988292100
31
0.0000000000
11
-450.2962285439
21
72.9295757186
31
0.0000000000
11
-449.7505779514
21
72.2383642444
31
0.0000000000
0
SPLINE
5
387
100
AcDbEntity
8
0
100
AcDbSpline
62
7
6
CONTINUOUS
70
0
71
3
72
10
73
6
74
4
42
0.0000001000
43
0.0000001000
44
0.0000000001
12
0.8569755107
22
0.7765255193
32
0.0000000000
13
1.1564596440
23
0.0000000000
33
0.0000000000
40
0.0000000000
40
0.0000000000
40
0.0000000000
40
0.0000000000
40
0.3412219247
40
0.6614181329
40
1.0000000000
40
1.0000000000
40
1.0000000000
40
1.0000000000
10
-452.6880094504
20
73.0172674965
30
0.0000000000
10
-452.5905365060
20
73.1055900072
30
0.0000000000
10
-452.3812348237
20
73.2565361652
30
0.0000000000
10
-452.0180520155
20
73.3968407658
30
0.0000000000
10
-451.7626337022
20
73.4256353146
30
0.0000000000
10
-451.6321149471
20
73.4256353146
30
0.0000000000
11
-452.6880094504
21
73.0172674965
31
0.0000000000
11
-452.3663536923
21
73.2458591420
31
0.0000000000
11
-452.0209113859
21
73.3792280071
31
0.0000000000
11
-451.6321149471
21
73.4256353146
31
0.0000000000
0
SPLINE
5
388
100
AcDbEntity
8
0
100
AcDbSpline
62
7
6
CONTINUOUS
70
0
71
3
72
10
73
6
74
4
42
0.0000001000
43
0.0000001000
44
0.0000000001
12
0.3569033863
22
0.6618932031
32
0.0000000000
13
0.5572467799
23
0.5049343182
33
0.0000000000
40
0.0000000000
40
0.0000000000
40
0.0000000000
40
0.0000000000
40
0.3218075216
40
0.6506140476
40
1.0000000000
40
1.0000000000
40
1.0000000000
40
1.0000000000
10
-453.1525259071
20
72.4300712919
30
0.0000000000
10
-453.1142411757
20
72.5010720290
30
0.0000000000
10
-453.0285063789
20
72.6403087139
30
0.0000000000
10
-452.8729855667
20
72.8375275444
30
0.0000000000
10
-452.7529075160
20
72.9584618439
30
0.0000000000
10
-452.6880094504
20
73.0172674965
30
0.0000000000
11
-453.1525259071
21
72.4300712919
31
0.0000000000
11
-453.0256490179
21
72.6361384725
31
0.0000000000
11
-452.8727530734
21
72.8304559148
31
0.0000000000
11
-452.6880094504
21
73.0172674965
31
0.0000000000
0
SPLINE
5
389
100
AcDbEntity
8
0
100
AcDbSpline
62
7
6
CONTINUOUS
70
0
71
3
72
10
73
6
74
4
42
0.0000001000
43
0.0000001000
44
0.0000000001
12
0.6817885807
22
4.0446370394
32
0.0000000000
13
1.9467253534
23
3.6102887485
33
0.0000000000
40
0.0000000000
40
0.0000000000
40
0.0000000000
40
0.0000000000
40
0.4851364643
40
0.8042351892
40
1.0000000000
40
1.0000000000
40
1.0000000000
40
1.0000000000
10
-454.1534491811
20
68.4633244570
30
0.0000000000
10
-454.0431956806
20
69.1173914279
30
0.0000000000
10
-453.8453284064
20
70.2001914174
30
0.0000000000
10
-453.5181910890
20
71.5269217593
30
0.0000000000
10
-453.2795593473
20
72.1944821273
30
0.0000000000
10
-453.1525259071
20
72.4300712919
30
0.0000000000
11
-454.1534491811
21
68.4633244570
31
0.0000000000
11
-453.7807424938
21
70.4179918599
31
0.0000000000
11
-453.4508785488
21
71.6845892694
31
0.0000000000
11
-453.1525259071
21
72.4300712919
31
0.0000000000
0
SPLINE
5
38A
100
AcDbEntity
8
0
100
AcDbSpline
62
7
6
CONTINUOUS
70
0
71
3
72
10
73
6
74
4
42
0.0000001000
43
0.0000001000
44
0.0000000001
12
2.4308952210
22
4.0933127890
32
0.0000000000
13
0.7913320716
23
4.6944919551
33
0.0000000000
40
0.0000000000
40
0.0000000000
40
0.0000000000
40
0.0000000000
40
0.2081086796
40
0.5283108307
40
1.0000000000
40
1.0000000000
40
1.0000000000
40
1.0000000000
10
-455.4176669467
20
63.8918040178
30
0.0000000000
10
-455.2490368151
20
64.1757553244
30
0.0000000000
10
-454.9283005181
20
64.9571661509
30
0.0000000000
10
-454.5122617494
20
66.4890297465
30
0.0000000000
10
-454.2778701036
20
67.7252107869
30
0.0000000000
10
-454.1534491811
20
68.4633244570
30
0.0000000000
11
-455.4176669467
21
63.8918040178
31
0.0000000000
11
-455.0120146059
21
64.7956991282
31
0.0000000000
11
-454.5908294719
21
66.2607510336
31
0.0000000000
11
-454.1534491811
21
68.4633244570
31
0.0000000000
0
SPLINE
5
38B
100
AcDbEntity
8
0
100
AcDbSpline
62
7
6
CONTINUOUS
70
0
71
3
72
10
73
6
74
4
42
0.0000001000
43
0.0000001000
44
0.0000000001
12
0.7139889713
22
0.6533000733
32
0.0000000000
13
0.4941584968
23
0.8320989227
33
0.0000000000
40
0.0000000000
40
0.0000000000
40
0.0000000000
40
0.0000000000
40
0.3488415607
40
0.6784126841
40
1.0000000000
40
1.0000000000
40
1.0000000000
40
1.0000000000
10
-456.0298349230
20
63.1463243031
30
0.0000000000
10
-455.9468119139
20
63.2222903755
30
0.0000000000
10
-455.7918155883
20
63.3773579392
30
0.0000000000
10
-455.5870049137
20
63.6272224904
30
0.0000000000
10
-455.4706386482
20
63.8026065314
30
0.0000000000
10
-455.4176669467
20
63.8918040178
30
0.0000000000
11
-456.0298349230
21
63.1463243031
31
0.0000000000
11
-455.7916566222
21
63.3855816429
31
0.0000000000
11
-455.5897240722
21
63.6324662454
31
0.0000000000
11
-455.4176669467
21
63.8918040178
31
0.0000000000
0
SPLINE
5
38C
100
AcDbEntity
8
0
100
AcDbSpline
62
7
6
CONTINUOUS
70
0
71
3
72
10
73
6
74
4
42
0.0000001000
43
0.0000001000
44
0.0000000001
12
2.3761626314
22
0.0000000000
32
0.0000000000
13
1.7530525653
23
1.6040435013
33
0.0000000000
40
0.0000000000
40
0.0000000000
40
0.0000000000
40
0.0000000000
40
0.3757625350
40
0.6945343373
40
1.0000000000
40
1.0000000000
40
1.0000000000
40
1.0000000000
10
-458.2207097115
20
62.3665722525
30
0.0000000000
10
-457.9230854135
20
62.3665722525
30
0.0000000000
10
-457.3695186032
20
62.4202729523
30
0.0000000000
10
-456.6174027378
20
62.6936162612
30
0.0000000000
10
-456.2083340442
20
62.9829975661
30
0.0000000000
10
-456.0298349230
20
63.1463243031
30
0.0000000000
11
-458.2207097115
21
62.3665722525
31
0.0000000000
11
-457.3332266798
21
62.4645307804
31
0.0000000000
11
-456.6231534554
21
62.7282200662
31
0.0000000000
11
-456.0298349230
21
63.1463243031
31
0.0000000000
0
SPLINE
5
38D
100
AcDbEntity
8
0
100
AcDbSpline
62
7
6
CONTINUOUS
70
0
71
3
72
11
73
7
74
5
42
0.0000001000
43
0.0000001000
44
0.0000000001
12
2.2936407134
22
-3.1215883408
32
0.0000000000
13
3.8736418900
23
0.0000000000
33
0.0000000000
40
0.0000000000
40
0.0000000000
40
0.0000000000
40
0.0000000000
40
0.2696428211
40
0.5050291092
40
0.7380586405
40
1.0000000000
40
1.0000000000
40
1.0000000000
40
1.0000000000
10
-461.5404654487
20
64.0651464816
30
0.0000000000
10
-461.3343108645
20
63.7845751861
30
0.0000000000
10
-460.8939420323
20
63.2944510652
30
0.0000000000
10
-460.0975321524
20
62.7543432829
30
0.0000000000
10
-459.2015831183
20
62.4315947640
30
0.0000000000
10
-458.5589320525
20
62.3665722525
30
0.0000000000
10
-458.2207097115
20
62.3665722525
30
0.0000000000
11
-461.5404654487
21
64.0651464816
31
0.0000000000
11
-460.8342569827
21
63.2955691415
31
0.0000000000
11
-460.0775222597
21
62.7869083652
31
0.0000000000
11
-459.2291911382
21
62.4784399382
31
0.0000000000
11
-458.2207097115
21
62.3665722525
31
0.0000000000
0
SPLINE
5
38E
100
AcDbEntity
8
0
100
AcDbSpline
62
7
6
CONTINUOUS
70
0
71
3
72
10
73
6
74
4
42
0.0000001000
43
0.0000001000
44
0.0000000001
12
0.0000000000
22
-4.9681557554
32
0.0000000000
13
2.9417185778
23
-4.0036063017
33
0.0000000000
40
0.0000000000
40
0.0000000000
40
0.0000000000
40
0.0000000000
40
0.4157089381
40
0.7371518611
40
1.0000000000
40
1.0000000000
40
1.0000000000
40
1.0000000000
10
-462.8031940760
20
68.7942709094
30
0.0000000000
10
-462.8031940760
20
68.1058353248
30
0.0000000000
10
-462.7167099644
20
66.8800308616
30
0.0000000000
10
-462.2702055499
20
65.2729783852
30
0.0000000000
10
-461.7982071998
20
64.4159266366
30
0.0000000000
10
-461.5404654487
20
64.0651464816
30
0.0000000000
11
-462.8031940760
21
68.7942709094
31
0.0000000000
11
-462.6284787270
21
66.7363674779
31
0.0000000000
11
-462.1801490743
21
65.2036115034
31
0.0000000000
11
-461.5404654487
21
64.0651464816
31
0.0000000000
0
SPLINE
5
38F
100
AcDbEntity
8
0
100
AcDbSpline
62
7
6
CONTINUOUS
70
0
71
3
72
10
73
6
74
4
42
0.0000001000
43
0.0000001000
44
0.0000000001
12
-1.1126480318
22
-3.2865894447
32
0.0000000000
13
0.0000000000
23
-3.4698207188
33
0.0000000000
40
0.0000000000
40
0.0000000000
40
0.0000000000
40
0.0000000000
40
0.2873472832
40
0.6178711858
40
1.0000000000
40
1.0000000000
40
1.0000000000
40
1.0000000000
10
-462.2998380762
20
72.2137429660
30
0.0000000000
10
-462.4064102059
20
71.8989454500
30
0.0000000000
10
-462.5924343992
20
71.2069530727
30
0.0000000000
10
-462.7657834842
20
70.0613521987
30
0.0000000000
10
-462.8031940760
20
69.2362437350
30
0.0000000000
10
-462.8031940760
20
68.7942709094
30
0.0000000000
11
-462.2998380762
21
72.2137429660
31
0.0000000000
11
-462.5623668951
21
71.2518830628
31
0.0000000000
11
-462.7383114770
21
70.1186009495
31
0.0000000000
11
-462.8031940760
21
68.7942709094
31
0.0000000000
0
SPLINE
5
390
100
AcDbEntity
8
0
100
AcDbSpline
62
7
6
CONTINUOUS
70
0
71
3
72
10
73
6
74
4
42
0.0000001000
43
0.0000001000
44
0.0000000001
12
-2.1641380177
22
-1.8331537811
32
0.0000000000
13
-0.9094636493
23
-2.6864143417
33
0.0000000000
40
0.0000000000
40
0.0000000000
40
0.0000000000
40
0.0000000000
40
0.3046242105
40
0.6288652095
40
1.0000000000
40
1.0000000000
40
1.0000000000
40
1.0000000000
10
-460.7665346565
20
74.5620915657
30
0.0000000000
10
-460.9862842682
20
74.3759505579
30
0.0000000000
10
-461.4045448447
20
73.9475716465
30
0.0000000000
10
-461.9284097447
20
73.1546584512
30
0.0000000000
10
-462.1873268759
20
72.5460835739
30
0.0000000000
10
-462.2998380762
20
72.2137429660
30
0.0000000000
11
-460.7665346565
21
74.5620915657
31
0.0000000000
11
-461.3706563234
21
73.9444490226
31
0.0000000000
11
-461.8809352389
21
73.1794043258
31
0.0000000000
11
-462.2998380762
21
72.2137429660
31
0.0000000000
0
SPLINE
5
391
100
AcDbEntity
8
0
100
AcDbSpline
62
7
6
CONTINUOUS
70
0
71
3
72
10
73
6
74
4
42
0.0000001000
43
0.0000001000
44
0.0000000001
12
-3.1045135057
22
-0.2442879172
32
0.0000000000
13
-2.3762072547
23
-2.0127890542
33
0.0000000000
40
0.0000000000
40
0.0000000000
40
0.0000000000
40
0.0000000000
40
0.4059759554
40
0.7278607847
40
1.0000000000
40
1.0000000000
40
1.0000000000
40
1.0000000000
10
-457.8744776549
20
75.5885675913
30
0.0000000000
10
-458.2945969337
20
75.5555092511
30
0.0000000000
10
-459.0466490813
20
75.4426223260
30
0.0000000000
10
-460.0291157126
20
75.0853655830
30
0.0000000000
10
-460.5509815972
20
74.7446778436
30
0.0000000000
10
-460.7665346565
20
74.5620915657
30
0.0000000000
11
-457.8744776549
21
75.5885675913
31
0.0000000000
11
-459.1220388310
21
75.3838026707
31
0.0000000000
11
-460.0598598568
21
75.0298720268
31
0.0000000000
11
-460.7665346565
21
74.5620915657
31
0.0000000000
0
SPLINE
5
392
100
AcDbEntity
8
0
100
AcDbSpline
62
7
6
CONTINUOUS
70
0
71
3
72
10
73
6
74
4
42
0.0000001000
43
0.0000001000
44
0.0000000001
12
1.4608007621
22
2.3241485024
32
0.0000000000
13
2.7248286946
23
0.3330371041
33
0.0000000000
40
0.0000000000
40
0.0000000000
40
0.0000000000
40
0.0000000000
40
0.2835735680
40
0.5953524808
40
1.0000000000
40
1.0000000000
40
1.0000000000
40
1.0000000000
10
-460.2032139476
20
71.7485534639
30
0.0000000000
10
-460.0651324528
20
71.9682424917
30
0.0000000000
10
-459.6993998617
20
72.3872624728
30
0.0000000000
10
-458.8911046136
20
72.8460639773
30
0.0000000000
10
-458.2420093788
20
72.9896762558
30
0.0000000000
10
-457.8744776549
20
73.0345971352
30
0.0000000000
11
-460.2032139476
21
71.7485534639
31
0.0000000000
11
-459.6905256356
21
72.3343167335
31
0.0000000000
11
-458.9529106610
21
72.7684029724
31
0.0000000000
11
-457.8744776549
21
73.0345971352
31
0.0000000000
0
SPLINE
5
393
100
AcDbEntity
8
0
100
AcDbSpline
62
7
6
CONTINUOUS
70
0
71
3
72
10
73
6
74
4
42
0.0000001000
43
0.0000001000
44
0.0000000001
12
0.0000000000
22
3.1276725210
32
0.0000000000
13
1.6643827069
23
2.6480493960
33
0.0000000000
40
0.0000000000
40
0.0000000000
40
0.0000000000
40
0.0000000000
40
0.4176384350
40
0.7417896176
40
1.0000000000
40
1.0000000000
40
1.0000000000
40
1.0000000000
10
-460.8887343111
20
68.7331707245
30
0.0000000000
10
-460.8887343111
20
69.1685828101
30
0.0000000000
10
-460.8429536667
20
69.9441871710
30
0.0000000000
10
-460.6050313966
20
70.9649243063
30
0.0000000000
10
-460.3464675793
20
71.5206355149
30
0.0000000000
10
-460.2032139476
20
71.7485534639
30
0.0000000000
11
-460.8887343111
21
68.7331707245
31
0.0000000000
11
-460.7957515385
21
70.0360933479
31
0.0000000000
11
-460.5521620021
21
71.0202341619
31
0.0000000000
11
-460.2032139476
21
71.7485534639
31
0.0000000000
0
SPLINE
5
394
100
AcDbEntity
8
0
100
AcDbSpline
62
7
6
CONTINUOUS
70
0
71
3
72
10
73
6
74
4
42
0.0000001000
43
0.0000001000
44
0.0000000001
12
-1.5198621235
22
2.4460826192
32
0.0000000000
13
0.0000000000
23
2.8798092045
33
0.0000000000
40
0.0000000000
40
0.0000000000
40
0.0000000000
40
0.0000000000
40
0.2677969844
40
0.5935227873
40
1.0000000000
40
1.0000000000
40
1.0000000000
40
1.0000000000
10
-460.2337238763
20
65.9621571186
30
0.0000000000
10
-460.3693953741
20
66.1805083016
30
0.0000000000
10
-460.6141248435
20
66.7004297624
30
0.0000000000
10
-460.8428853738
20
67.6379790523
30
0.0000000000
10
-460.8887343111
20
68.3429784516
30
0.0000000000
10
-460.8887343111
20
68.7331707245
30
0.0000000000
11
-460.2337238763
21
65.9621571186
31
0.0000000000
11
-460.5680577279
21
66.6571224597
31
0.0000000000
11
-460.8003383105
21
67.5659362855
31
0.0000000000
11
-460.8887343111
21
68.7331707245
31
0.0000000000
0
SPLINE
5
395
100
AcDbEntity
8
0
100
AcDbSpline
62
7
6
CONTINUOUS
70
0
71
3
72
10
73
6
74
4
42
0.0000001000
43
0.0000001000
44
0.0000000001
12
-2.1529449833
22
0.0000000000
32
0.0000000000
13
-1.1362487240
23
1.8286910451
33
0.0000000000
40
0.0000000000
40
0.0000000000
40
0.0000000000
40
0.0000000000
40
0.3299646821
40
0.6356774144
40
1.0000000000
40
1.0000000000
40
1.0000000000
40
1.0000000000
10
-458.4549255671
20
64.9205436474
30
0.0000000000
10
-458.6917241695
20
64.9205436474
30
0.0000000000
10
-459.1545033827
20
64.9880163635
30
0.0000000000
10
-459.7877448922
20
65.3574686296
30
0.0000000000
10
-460.0957368520
20
65.7400793020
30
0.0000000000
10
-460.2337238763
20
65.9621571186
30
0.0000000000
11
-458.4549255671
21
64.9205436474
31
0.0000000000
11
-459.1559274857
21
65.0356892626
31
0.0000000000
11
-459.7264193141
21
65.3639323608
31
0.0000000000
11
-460.2337238763
21
65.9621571186
31
0.0000000000
0
SPLINE
5
396
100
AcDbEntity
8
0
100
AcDbSpline
62
7
6
CONTINUOUS
70
0
71
3
72
10
73
6
74
4
42
0.0000001000
43
0.0000001000
44
0.0000000001
12
-0.8284315206
22
-0.6882346424
32
0.0000000000
13
-1.0770170413
23
0.0000000000
33
0.0000000000
40
0.0000000000
40
0.0000000000
40
0.0000000000
40
0.0000000000
40
0.2957887243
40
0.6174626373
40
1.0000000000
40
1.0000000000
40
1.0000000000
40
1.0000000000
10
-457.4467788639
20
65.2382625705
30
0.0000000000
10
-457.5284590981
20
65.1704052215
30
0.0000000000
10
-457.7180738179
20
65.0500920168
30
0.0000000000
10
-458.0635223063
20
64.9407840603
30
0.0000000000
10
-458.3175924809
20
64.9205436474
30
0.0000000000
10
-458.4549255671
20
64.9205436474
30
0.0000000000
11
-457.4467788639
21
65.2382625705
31
0.0000000000
11
-457.7155604272
21
65.0672567359
31
0.0000000000
11
-458.0447508811
21
64.9592749783
31
0.0000000000
11
-458.4549255671
21
64.9205436474
31
0.0000000000
0
SPLINE
5
397
100
AcDbEntity
8
0
100
AcDbSpline
62
7
6
CONTINUOUS
70
0
71
3
72
10
73
6
74
4
42
0.0000001000
43
0.0000001000
44
0.0000000001
12
-0.6863742449
22
-4.2241427381
32
0.0000000000
13
-2.2916478875
23
-3.6142553085
33
0.0000000000
40
0.0000000000
40
0.0000000000
40
0.0000000000
40
0.0000000000
40
0.5024875179
40
0.8182637704
40
1.0000000000
40
1.0000000000
40
1.0000000000
40
1.0000000000
10
-456.0529924287
20
69.7209415276
30
0.0000000000
10
-456.1679572590
20
69.0134151943
30
0.0000000000
10
-456.3740414364
20
67.8623223035
30
0.0000000000
10
-456.7254309959
20
66.4820113643
30
0.0000000000
10
-456.9820885655
20
65.8115884342
30
0.0000000000
10
-457.1209137144
20
65.5926413899
30
0.0000000000
11
-456.0529924287
21
69.7209415276
31
0.0000000000
11
-456.4517791781
21
67.6078246475
31
0.0000000000
11
-456.8054998237
21
66.3035606181
31
0.0000000000
11
-457.1209137144
21
65.5926413899
31
0.0000000000
0
SPLINE
5
398
100
AcDbEntity
8
0
100
AcDbSpline
62
7
6
CONTINUOUS
70
0
71
3
72
10
73
6
74
4
42
0.0000001000
43
0.0000001000
44
0.0000000001
12
-2.3376840563
22
-4.0840706250
32
0.0000000000
13
-0.7547367577
23
-4.6448651265
33
0.0000000000
40
0.0000000000
40
0.0000000000
40
0.0000000000
40
0.0000000000
40
0.2147710074
40
0.5357439133
40
1.0000000000
40
1.0000000000
40
1.0000000000
40
1.0000000000
10
-454.8193482203
20
74.2442572226
30
0.0000000000
10
-454.9867038068
20
73.9518772352
30
0.0000000000
10
-455.3053579532
20
73.1682554992
30
0.0000000000
10
-455.7121521288
20
71.6523626436
30
0.0000000000
10
-455.9361953842
20
70.4397438299
30
0.0000000000
10
-456.0529924287
20
69.7209415276
30
0.0000000000
11
-454.8193482203
21
74.2442572226
31
0.0000000000
11
-455.2260043745
21
73.3190132998
31
0.0000000000
11
-455.6379279991
21
71.8658392442
31
0.0000000000
11
-456.0529924287
21
69.7209415276
31
0.0000000000
0
SPLINE
5
399
100
AcDbEntity
8
0
100
AcDbSpline
62
7
6
CONTINUOUS
70
0
71
3
72
10
73
6
74
4
42
0.0000001000
43
0.0000001000
44
0.0000000001
12
-0.9389843418
22
-0.8351445900
32
0.0000000000
13
-0.6242616605
23
-1.0906215932
33
0.0000000000
40
0.0000000000
40
0.0000000000
40
0.0000000000
40
0.0000000000
40
0.3281420157
40
0.6566246227
40
1.0000000000
40
1.0000000000
40
1.0000000000
40
1.0000000000
10
-454.0328905745
20
75.2179958534
30
0.0000000000
10
-454.1355973127
20
75.1266471770
30
0.0000000000
10
-454.3315177624
20
74.9326727962
30
0.0000000000
10
-454.5954440745
20
74.6064178850
30
0.0000000000
10
-454.7478961926
20
74.3690880896
30
0.0000000000
10
-454.8193482203
20
74.2442572226
30
0.0000000000
11
-454.0328905745
21
75.2179958534
31
0.0000000000
11
-454.3257670198
21
74.9277155051
31
0.0000000000
11
-454.5855688338
21
74.6069422610
31
0.0000000000
11
-454.8193482203
21
74.2442572226
31
0.0000000000
0
SPLINE
5
39A
100
AcDbEntity
8
0
100
AcDbSpline
62
7
6
CONTINUOUS
70
0
71
3
72
10
73
6
74
4
42
0.0000001000
43
0.0000001000
44
0.0000000001
12
-2.3638971725
22
0.0000000000
32
0.0000000000
13
-1.7663392841
23
-1.5710045753
33
0.0000000000
40
0.0000000000
40
0.0000000000
40
0.0000000000
40
0.0000000000
40
0.3768110441
40
0.6965242974
40
1.0000000000
40
1.0000000000
40
1.0000000000
40
1.0000000000
10
-451.8459643426
20
75.9796068436
30
0.0000000000
10
-452.1428785298
20
75.9796068436
30
0.0000000000
10
-452.6949990255
20
75.9261206943
30
0.0000000000
10
-453.4444198191
20
75.6587867633
30
0.0000000000
10
-453.8542102227
20
75.3769164258
30
0.0000000000
10
-454.0328905745
20
75.2179958534
30
0.0000000000
11
-451.8459643426
21
75.9796068436
31
0.0000000000
11
-452.7314409888
21
75.8828937616
31
0.0000000000
11
-453.4415230572
21
75.6241069312
31
0.0000000000
11
-454.0328905745
21
75.2179958534
31
0.0000000000
0
SPLINE
5
39B
100
AcDbEntity
8
0
100
AcDbSpline
62
7
6
CONTINUOUS
70
0
71
3
72
11
73
7
74
5
42
0.0000001000
43
0.0000001000
44
0.0000000001
12
-2.3401392865
22
3.2187175873
32
0.0000000000
13
-3.9794968007
23
0.0000000000
33
0.0000000000
40
0.0000000000
40
0.0000000000
40
0.0000000000
40
0.0000000000
40
0.2791349776
40
0.5179876161
40
0.7480232293
40
1.0000000000
40
1.0000000000
40
1.0000000000
40
1.0000000000
10
-448.4622142320
20
74.1862941740
30
0.0000000000
10
-448.6799524745
20
74.4857797279
30
0.0000000000
10
-449.1395000907
20
75.0058876355
30
0.0000000000
10
-449.9629042127
20
75.5767980097
30
0.0000000000
10
-450.8687573589
20
75.9118920041
30
0.0000000000
10
-451.5117174250
20
75.9796068436
30
0.0000000000
10
-451.8459643426
20
75.9796068436
30
0.0000000000
11
-448.4622142320
21
74.1862941740
31
0.0000000000
11
-449.2073669041
21
75.0101032225
31
0.0000000000
11
-449.9915718799
21
75.5472234226
31
0.0000000000
11
-450.8496705313
21
75.8660830192
31
0.0000000000
11
-451.8459643426
21
75.9796068436
31
0.0000000000
0
SPLINE
5
39C
100
AcDbEntity
8
0
100
AcDbSpline
62
7
6
CONTINUOUS
70
0
71
3
72
10
73
6
74
4
42
0.0000001000
43
0.0000001000
44
0.0000000001
12
0.0000000000
22
5.2555123733
32
0.0000000000
13
-3.0904990232
23
4.2507912315
33
0.0000000000
40
0.0000000000
40
0.0000000000
40
0.0000000000
40
0.0000000000
40
0.4185689228
40
0.7397015008
40
1.0000000000
40
1.0000000000
40
1.0000000000
40
1.0000000000
10
-447.1616466439
20
69.1730894810
30
0.0000000000
10
-447.1616466439
20
69.9063541986
30
0.0000000000
10
-447.2469589116
20
71.2072532191
30
0.0000000000
10
-447.7035505686
20
72.9115036355
30
0.0000000000
10
-448.1940634794
20
73.8174693146
30
0.0000000000
10
-448.4622142320
20
74.1862941740
30
0.0000000000
11
-447.1616466439
21
69.1730894810
31
0.0000000000
11
-447.3390243566
21
71.3657206544
31
0.0000000000
11
-447.7999744273
21
72.9892695845
31
0.0000000000
11
-448.4622142320
21
74.1862941740
31
0.0000000000
0
SPLINE
5
39D
100
AcDbEntity
8
0
100
AcDbSpline
62
7
6
CONTINUOUS
70
0
71
3
72
13
73
9
74
7
42
0.0000001000
43
0.0000001000
44
0.0000000001
12
10.3658234621
22
0.4240562204
32
0.0000000000
13
-0.0000000000
23
10.3744937094
33
0.0000000000
40
0.0000000000
40
0.0000000000
40
0.0000000000
40
0.0000000000
40
0.1598250519
40
0.2897812434
40
0.4141772883
40
0.5571305529
40
0.7436737119
40
1.0000000000
40
1.0000000000
40
1.0000000000
40
1.0000000000
10
-452.5384289028
20
61.7066943860
30
0.0000000000
10
-451.9861894785
20
61.7292859885
30
0.0000000000
10
-450.9808599608
20
61.8740855069
30
0.0000000000
10
-449.6599896178
20
62.4779783744
30
0.0000000000
10
-448.6253605631
20
63.4133546320
30
0.0000000000
10
-447.8124805052
20
64.7802860838
30
0.0000000000
10
-447.2610285301
20
66.7486860099
30
0.0000000000
10
-447.1616466439
20
68.2866709930
30
0.0000000000
10
-447.1616466439
20
69.1730894810
30
0.0000000000
11
-452.5384289028
21
61.7066943860
31
0.0000000000
11
-450.9019299342
21
61.9734901631
31
0.0000000000
11
-449.6811024968
21
62.5455947589
31
0.0000000000
11
-448.7207546381
21
63.4077089802
31
0.0000000000
11
-447.9432376626
21
64.6706251637
31
0.0000000000
11
-447.3830495861
21
66.5230667719
31
0.0000000000
11
-447.1616466439
21
69.1730894810
31
0.0000000000
0
SPLINE
5
39E
100
AcDbEntity
8
0
100
AcDbSpline
62
7
6
CONTINUOUS
70
0
71
3
72
8
73
4
74
2
42
0.0000001000
43
0.0000001000
44
0.0000000001
12
-0.0128023866
22
0.2109645520
32
0.0000000000
13
-0.0182002633
23
0.2105746352
33
0.0000000000
40
0.0000000000
40
0.0000000000
40
0.0000000000
40
0.0000000000
40
1.0000000000
40
1.0000000000
40
1.0000000000
40
1.0000000000
10
-541.8861945950
20
-6.6093982129
30
0.0000000000
10
-541.8904620572
20
-6.5390766956
30
0.0000000000
10
-541.8956301544
20
-6.4688062345
30
0.0000000000
10
-541.9016969089
20
-6.3986146894
30
0.0000000000
11
-541.8861945950
21
-6.6093982129
31
0.0000000000
11
-541.9016969089
21
-6.3986146894
31
0.0000000000
0
SPLINE
5
39F
100
AcDbEntity
8
0
100
AcDbSpline
62
7
6
CONTINUOUS
70
0
71
3
72
16
73
12
74
10
42
0.0000001000
43
0.0000001000
44
0.0000000001
12
-0.1064893469
22
1.2320676361
32
0.0000000000
13
-0.2892382941
23
1.2023350880
33
0.0000000000
40
0.0000000000
40
0.0000000000
40
0.0000000000
40
0.0000000000
40
0.0027532180
40
0.1567758450
40
0.2960356987
40
0.4253449240
40
0.5495405956
40
0.6726560629
40
0.7955681964
40
0.9184833556
40
1.0000000000
40
1.0000000000
40
1.0000000000
40
1.0000000000
10
-541.9016969089
20
-6.3986146894
30
0.0000000000
10
-541.9017946383
20
-6.3974839725
30
0.0000000000
10
-541.9073729033
20
-6.3330989904
30
0.0000000000
10
-541.9193339661
20
-6.2116486226
30
0.0000000000
10
-541.9402130263
20
-6.0386963805
30
0.0000000000
10
-541.9628484569
20
-5.8783761751
30
0.0000000000
10
-541.9874692245
20
-5.7250864718
30
0.0000000000
10
-542.0144598370
20
-5.5748750009
30
0.0000000000
10
-542.0441121737
20
-5.4257042571
30
0.0000000000
10
-542.0728547407
20
-5.2938603082
30
0.0000000000
10
-542.0920641680
20
-5.2118072782
30
0.0000000000
10
-542.0999234130
20
-5.1791371709
30
0.0000000000
11
-541.9016969089
21
-6.3986146894
31
0.0000000000
11
-541.9019907968
21
-6.3952226002
31
0.0000000000
11
-541.9206586795
21
-6.2056722067
31
0.0000000000
11
-541.9412985004
21
-6.0347020467
31
0.0000000000
11
-541.9636538020
21
-5.8763660735
31
0.0000000000
11
-541.9880095235
21
-5.7247267542
31
0.0000000000
11
-542.0149347227
21
-5.5748795325
31
0.0000000000
11
-542.0445688079
21
-5.4258007732
31
0.0000000000
11
-542.0769449644
21
-5.2772895704
31
0.0000000000
11
-542.0999234130
21
-5.1791371709
31
0.0000000000
0
SPLINE
5
3A0
100
AcDbEntity
8
0
100
AcDbSpline
62
7
6
CONTINUOUS
70
0
71
3
72
8
73
4
74
2
42
0.0000001000
43
0.0000001000
44
0.0000000001
12
-0.0120310834
22
0.0500120281
32
0.0000000000
13
-0.0123425435
23
0.0499353826
33
0.0000000000
40
0.0000000000
40
0.0000000000
40
0.0000000000
40
0.0000000000
40
1.0000000000
40
1.0000000000
40
1.0000000000
40
1.0000000000
10
-542.0999234130
20
-5.1791371709
30
0.0000000000
10
-542.1039337742
20
-5.1624664949
30
0.0000000000
10
-542.1079960903
20
-5.1458084011
30
0.0000000000
10
-542.1121102715
20
-5.1291632735
30
0.0000000000
11
-542.0999234130
21
-5.1791371709
31
0.0000000000
11
-542.1121102715
21
-5.1291632735
31
0.0000000000
0
SPLINE
5
3A1
100
AcDbEntity
8
0
100
AcDbSpline
62
7
6
CONTINUOUS
70
0
71
3
72
10
73
6
74
4
42
0.0000001000
43
0.0000001000
44
0.0000000001
12
0.0565757271
22
0.9592969736
32
0.0000000000
13
-0.0565757271
23
0.9592969736
33
0.0000000000
40
0.0000000000
40
0.0000000000
40
0.0000000000
40
0.0000000000
40
0.3328923168
40
0.6671076348
40
1.0000000000
40
1.0000000000
40
1.0000000000
40
1.0000000000
10
-542.1121102715
20
-7.5896331523
30
0.0000000000
10
-542.1058323965
20
-7.4831856217
30
0.0000000000
10
-542.0974344266
20
-7.2695962163
30
0.0000000000
10
-542.0974344257
20
-6.9492002406
30
0.0000000000
10
-542.1058323956
20
-6.7356108197
30
0.0000000000
10
-542.1121102715
20
-6.6291632735
30
0.0000000000
11
-542.1121102715
21
-7.5896331523
31
0.0000000000
11
-542.0995422546
21
-7.2699826534
31
0.0000000000
11
-542.0995422537
21
-6.9488138190
31
0.0000000000
11
-542.1121102715
21
-6.6291632735
31
0.0000000000
0
SPLINE
5
3A2
100
AcDbEntity
8
0
100
AcDbSpline
62
7
6
CONTINUOUS
70
0
71
3
72
8
73
4
74
2
42
0.0000001000
43
0.0000001000
44
0.0000000001
12
0.0123425419
22
0.0499353758
32
0.0000000000
13
0.0120310847
23
0.0500120348
33
0.0000000000
40
0.0000000000
40
0.0000000000
40
0.0000000000
40
0.0000000000
40
1.0000000000
40
1.0000000000
40
1.0000000000
40
1.0000000000
10
-542.1121102715
20
-9.0896331523
30
0.0000000000
10
-542.1079960909
20
-9.0729880270
30
0.0000000000
10
-542.1039337748
20
-9.0563299331
30
0.0000000000
10
-542.0999234132
20
-9.0396592549
30
0.0000000000
11
-542.1121102715
21
-9.0896331523
31
0.0000000000
11
-542.0999234132
21
-9.0396592549
31
0.0000000000
0
SPLINE
5
3A3
100
AcDbEntity
8
0
100
AcDbSpline
62
7
6
CONTINUOUS
70
0
71
3
72
15
73
11
74
9
42
0.0000001000
43
0.0000001000
44
0.0000000001
12
0.2892383581
22
1.2023353861
32
0.0000000000
13
0.1064890751
23
1.2320630579
33
0.0000000000
40
0.0000000000
40
0.0000000000
40
0.0000000000
40
0.0000000000
40
0.0833884798
40
0.2078265170
40
0.3322481491
40
0.4571975835
40
0.5836174835
40
0.7145745119
40
0.8536957576
40
1.0000000000
40
1.0000000000
40
1.0000000000
40
1.0000000000
10
-542.0999234132
20
-9.0396592549
30
0.0000000000
10
-542.0918836976
20
-9.0062389482
30
0.0000000000
10
-542.0723669585
20
-8.9228205073
30
0.0000000000
10
-542.0432465616
20
-8.7889896179
30
0.0000000000
10
-542.0132970734
20
-8.6378324508
30
0.0000000000
10
-541.9860335405
20
-8.4853378902
30
0.0000000000
10
-541.9612227897
20
-8.3296961426
30
0.0000000000
10
-541.9386095282
20
-8.1678184093
30
0.0000000000
10
-541.9183064350
20
-7.9973751353
30
0.0000000000
10
-541.9068901748
20
-7.8802670874
30
0.0000000000
10
-541.9016969069
20
-7.8201817366
30
0.0000000000
11
-542.0999234132
21
-9.0396592549
31
0.0000000000
11
-542.0764314017
21
-8.9392497031
31
0.0000000000
11
-542.0437134640
21
-8.7888855729
31
0.0000000000
11
-542.0138093006
21
-8.6379573352
31
0.0000000000
11
-541.9866157037
21
-8.4858541624
31
0.0000000000
11
-541.9620054015
21
-8.3314700682
31
0.0000000000
11
-541.9396004040
21
-8.1710833748
31
0.0000000000
11
-541.9192509252
21
-8.0002510337
31
0.0000000000
11
-541.9016969069
21
-7.8201817366
31
0.0000000000
0
SPLINE
5
3A4
100
AcDbEntity
8
0
100
AcDbSpline
62
7
6
CONTINUOUS
70
0
71
3
72
9
73
5
74
3
42
0.0000001000
43
0.0000001000
44
0.0000000001
12
0.0182002562
22
0.2105743076
32
0.0000000000
13
0.0128024140
23
0.2109650035
33
0.0000000000
40
0.0000000000
40
0.0000000000
40
0.0000000000
40
0.0000000000
40
0.0268339080
40
1.0000000000
40
1.0000000000
40
1.0000000000
40
1.0000000000
10
-541.9016969069
20
-7.8201817366
30
0.0000000000
10
-541.9015341123
20
-7.8182982261
30
0.0000000000
10
-541.8954914748
20
-7.7481046750
30
0.0000000000
10
-541.8903475534
20
-7.6778328756
30
0.0000000000
10
-541.8861945950
20
-7.6093982129
30
0.0000000000
11
-541.9016969069
21
-7.8201817366
31
0.0000000000
11
-541.9012104642
21
-7.8145310351
31
0.0000000000
11
-541.8861945950
21
-7.6093982129
31
0.0000000000
0
ENDSEC
0
SECTION
2
OBJECTS
0
DICTIONARY
5
3A5
100
AcDbDictionary
3
ACAD_GROUP
350
3A6
3
ACAD_MLINESTYLE
350
3A7
0
DICTIONARY
5
3A6
102
{ACAD_REACTORS
330
3A5
102
}
100
AcDbDictionary
0
DICTIONARY
5
3A7
102
{ACAD_REACTORS
330
3A5
102
}
100
AcDbDictionary
3
STANDARD
350
3A8
0
MLINESTYLE
5
3A8
102
{ACAD_REACTORS
330
3A7
102
}
100
AcDbMlineStyle
2
STANDARD
70
0
3

62
256
51
90.0
52
90.0
71
2
49
0.5
62
256
6
BYLAYER
49
-0.5
62
256
6
BYLAYER
0
ENDSEC
0
EOF
