0
SECTION
2
HEADER
9
$ACADVER
1
AC1014
9
$HANDSEED
5
       3AA
9
$EXTMAX
10
297.0000000000
20
210.0000000000
9
$EXTMIN
10
0.0000000000
20
0.0000000000
9
$LIMMIN
10
0.0000000000
20
0.0000000000
9
$LIMMAX
10
297.0000000000
20
210.0000000000
9
$VIEWCTR
10
148.5000000000
20
105.0000000000
9
$VIEWSIZE
40
210.0000000000
9
$CLAYER
8
0
9
$LTSCALE
40
16.3350000000
9
$CELTYPE
6
BYLAYER
9
$DIMSCALE
40
1
9
$DIMASZ
40
3.0000000000
9
$DIMEXO
40
1.8562500000
9
$DIMDLI
40
11.2860000000
9
$DIMEXE
40
5.3460000000
9
$DIMCEN
40
2.6730000000
9
$DIMLFAC
40
1.0000000000
9
$DIMTXT
40
3.0000000000
9
$DIMTOL
70
1
9
$DIMLIM
70
0
9
$DIMTFAC
40
1.0000000000
9
$DIMTP
40
0.0100000000
9
$DIMTM
40
0.0100000000
9
$MEASUREMENT
70
1
0
ENDSEC
0
SECTION
2
CLASSES
0
ENDSEC
0
SECTION
2
TABLES
0
TABLE
2
VPORT
5
8
100
AcDbSymbolTable
70
2
0
VPORT
5
1F4
100
AcDbSymbolTableRecord
100
AcDbViewportTableRecord
2
*ACTIVE
70
0
10
0.0
20
0.0
11
1.0
21
1.0
12
148.5000000000
22
105.0000000000
13
0.0
23
0.0
14
1.0
24
1.0
15
0.0
25
0.0
16
0.0
26
0.0
36
1.0
17
0.0
27
0.0
37
0.0
40
210.0000000000
41
1.4142857143
42
50.0
43
0.0
44
0.0
50
0.0
51
0.0
71
0
72
100
73
1
74
1
75
0
76
0
77
0
78
0
0
ENDTAB
0
TABLE
2
LTYPE
5
5
100
AcDbSymbolTable
70
6
0
LTYPE
5
14
100
AcDbSymbolTableRecord
100
AcDbLinetypeTableRecord
2
BYBLOCK
70
0
3

72
65
73
0
40
0.0
0
LTYPE
5
15
100
AcDbSymbolTableRecord
100
AcDbLinetypeTableRecord
2
BYLAYER
70
0
3

72
65
73
0
40
0.0
0
LTYPE
5
16
100
AcDbSymbolTableRecord
100
AcDbLinetypeTableRecord
2
CONTINUOUS
70
64
3
Solid line
72
65
73
0
40
0
0
LTYPE
5
1F5
100
AcDbSymbolTableRecord
100
AcDbLinetypeTableRecord
2
CENTER
70
64
3
____ _ ____ _ ____ _ ____ _ ____ _ ____ _ ____
72
65
73
4
40
0.6
49
0.375
74
0
49
-0.075
74
0
49
0.075
74
0
49
-0.075
74
0
0
LTYPE
5
1F6
100
AcDbSymbolTableRecord
100
AcDbLinetypeTableRecord
2
HIDDEN
70
64
3
- - - - - - - - - - - - - - - - - - - -
72
65
73
2
40
0.2
49
0.1
74
0
49
-0.1
74
0
0
LTYPE
5
1F7
100
AcDbSymbolTableRecord
100
AcDbLinetypeTableRecord
2
PHANTOM
70
64
3
_____ _ _ _____ _ _ _____ _ _ _____
72
65
73
6
40
0.8
49
0.45
74
0
49
-0.05
74
0
49
0.1
74
0
49
-0.05
74
0
49
0.1
74
0
49
-0.05
74
0
0
LTYPE
5
1F8
100
AcDbSymbolTableRecord
100
AcDbLinetypeTableRecord
2
DOT
70
64
3
. . . . . . . . . . . . . . . . . . . .
72
65
73
2
40
0.2
49
0.1
74
0
49
-0.1
74
0
0
LTYPE
5
1F9
100
AcDbSymbolTableRecord
100
AcDbLinetypeTableRecord
2
DASHED
70
64
3
- - - - - - - - - - - - - - - - - - - -
72
65
73
2
40
0.2
49
0.1
74
0
49
-0.1
74
0
0
ENDTAB
0
TABLE
2
LAYER
5
2
100
AcDbSymbolTable
70
36
0
LAYER
5
10
100
AcDbSymbolTableRecord
100
AcDbLayerTableRecord
2
0
70
0
62
7
6
CONTINUOUS
0
LAYER
5
1FA
100
AcDbSymbolTableRecord
100
AcDbLayerTableRecord
2
DEFAULT_1
70
0
62
7
6
CENTER
0
LAYER
5
1FB
100
AcDbSymbolTableRecord
100
AcDbLayerTableRecord
2
DEFAULT_2
70
0
62
8
6
HIDDEN
0
LAYER
5
1FC
100
AcDbSymbolTableRecord
100
AcDbLayerTableRecord
2
DEFAULT_3
70
0
62
7
6
PHANTOM
0
LAYER
5
1FD
100
AcDbSymbolTableRecord
100
AcDbLayerTableRecord
2
ASSI
70
0
62
7
6
CONTINUOUS
0
LAYER
5
1FE
100
AcDbSymbolTableRecord
100
AcDbLayerTableRecord
2
COORDINATE
70
0
62
7
6
CONTINUOUS
0
LAYER
5
1FF
100
AcDbSymbolTableRecord
100
AcDbLayerTableRecord
2
COORD_ORIGINE
70
0
62
7
6
CONTINUOUS
0
LAYER
5
200
100
AcDbSymbolTableRecord
100
AcDbLayerTableRecord
2
CURVE
70
0
62
7
6
CONTINUOUS
0
LAYER
5
201
100
AcDbSymbolTableRecord
100
AcDbLayerTableRecord
2
DRAFT
70
0
62
7
6
CONTINUOUS
0
LAYER
5
202
100
AcDbSymbolTableRecord
100
AcDbLayerTableRecord
2
IGES
70
0
62
7
6
CONTINUOUS
0
LAYER
5
203
100
AcDbSymbolTableRecord
100
AcDbLayerTableRecord
2
NOTE
70
0
62
7
6
CONTINUOUS
0
LAYER
5
204
100
AcDbSymbolTableRecord
100
AcDbLayerTableRecord
2
PIANI
70
0
62
7
6
CONTINUOUS
0
LAYER
5
205
100
AcDbSymbolTableRecord
100
AcDbLayerTableRecord
2
PIANI_ORIGINE
70
0
62
7
6
CONTINUOUS
0
LAYER
5
206
100
AcDbSymbolTableRecord
100
AcDbLayerTableRecord
2
PUNTI
70
0
62
7
6
CONTINUOUS
0
LAYER
5
207
100
AcDbSymbolTableRecord
100
AcDbLayerTableRecord
2
RACCORDO
70
0
62
7
6
CONTINUOUS
0
LAYER
5
208
100
AcDbSymbolTableRecord
100
AcDbLayerTableRecord
2
SMUSSO
70
0
62
7
6
CONTINUOUS
0
LAYER
5
209
100
AcDbSymbolTableRecord
100
AcDbLayerTableRecord
2
SNAPLINE
70
0
62
7
6
CONTINUOUS
0
LAYER
5
20A
100
AcDbSymbolTableRecord
100
AcDbLayerTableRecord
2
SUPERFICI
70
0
62
7
6
CONTINUOUS
0
LAYER
5
20B
100
AcDbSymbolTableRecord
100
AcDbLayerTableRecord
2
TRASH
70
0
62
7
6
CONTINUOUS
0
ENDTAB
0
TABLE
2
STYLE
5
3
100
AcDbSymbolTable
70
1
0
STYLE
5
11
100
AcDbSymbolTableRecord
100
AcDbTextStyleTableRecord
2
STANDARD
70
0
40
0.0
41
0.8000000000
50
0.0
71
0
42
0.2
3
txt
4

0
ENDTAB
0
TABLE
2
VIEW
5
6
100
AcDbSymbolTable
70
0
0
ENDTAB
0
TABLE
2
UCS
5
7
100
AcDbSymbolTable
70
0
0
ENDTAB
0
TABLE
2
APPID
5
9
100
AcDbSymbolTable
70
1
0
APPID
5
20C
100
AcDbSymbolTableRecord
100
AcDbRegAppTableRecord
2
ACAD
70
0
0
ENDTAB
0
TABLE
2
DIMSTYLE
5
A
100
AcDbSymbolTable
70
1
0
DIMSTYLE
105
20D
100
AcDbSymbolTableRecord
100
AcDbDimStyleTableRecord
2
STANDARD
70
0
3

4

5

6

7

40
1.0
41
3.0000000000
42
0.0625
43
0.38
44
0.18
45
0.0
46
0.0
47
0.0100000000
48
0.0100000000
140
3.0000000000
141
0.09
142
0.0
143
25.4
144
1.0000000000
145
0.0
146
1.0000000000
147
0.09
71
1
72
0
73
0
74
0
75
0
76
0
77
1
78
8
170
0
171
2
172
0
173
0
174
0
175
0
176
0
177
0
178
0
270
2
271
2
272
2
273
2
274
2
340
11
275
0
280
0
281
0
282
0
283
1
284
8
285
0
286
0
287
3
288
0
0
DIMSTYLE
105
20E
100
AcDbSymbolTableRecord
100
AcDbDimStyleTableRecord
2
DIMSTYLE_1
70
0
3

4

5

6

7

40
1.0
41
3.0000000000
42
0.0625
43
0.38
44
0.18
45
0.0
46
0.0
47
0.0000000000
48
0.0000000000
140
3.0000000000
141
0.09
142
0.0
143
25.4
144
1.0000000000
145
0.0
146
1.0000000000
147
0.09
71
0
72
0
73
0
74
0
75
0
76
0
77
1
78
8
170
0
171
2
172
0
173
0
174
0
175
0
176
0
177
0
178
0
270
2
271
0
272
0
273
2
274
2
340
11
275
0
280
0
281
0
282
0
283
1
284
8
285
0
286
0
287
3
288
0
0
DIMSTYLE
105
20F
100
AcDbSymbolTableRecord
100
AcDbDimStyleTableRecord
2
DIMSTYLE_2
70
0
3

4

5

6

7

40
1.0
41
3.0000000000
42
0.0625
43
0.38
44
0.18
45
0.0
46
0.0
47
0.0000000000
48
0.0000000000
140
3.0000000000
141
0.09
142
0.0
143
25.4
144
1.0000000000
145
0.0
146
1.0000000000
147
0.09
71
0
72
0
73
0
74
0
75
0
76
0
77
1
78
8
170
0
171
2
172
0
173
0
174
0
175
0
176
0
177
0
178
0
270
2
271
2
272
2
273
2
274
2
340
11
275
0
280
0
281
0
282
0
283
1
284
8
285
0
286
0
287
3
288
0
0
ENDTAB
0
TABLE
2
BLOCK_RECORD
5
1
100
AcDbSymbolTable
70
0
0
BLOCK_RECORD
5
1B
100
AcDbSymbolTableRecord
100
AcDbBlockTableRecord
2
*MODEL_SPACE
0
BLOCK_RECORD
5
1C
100
AcDbSymbolTableRecord
100
AcDbBlockTableRecord
2
*PAPER_SPACE
0
BLOCK_RECORD
5
210
100
AcDbSymbolTableRecord
100
AcDbBlockTableRecord
2
*D0
0
BLOCK_RECORD
5
211
100
AcDbSymbolTableRecord
100
AcDbBlockTableRecord
2
*D1
0
BLOCK_RECORD
5
212
100
AcDbSymbolTableRecord
100
AcDbBlockTableRecord
2
*D2
0
ENDTAB
0
ENDSEC
0
SECTION
2
BLOCKS
0
BLOCK
5
1E
100
AcDbEntity
8
0
100
AcDbBlockBegin
2
*MODEL_SPACE
70
0
10
0.0
20
0.0
30
0.0
3
*MODEL_SPACE
1

0
ENDBLK
5
1F
100
AcDbEntity
8
0
100
AcDbBlockEnd
0
BLOCK
5
20
100
AcDbEntity
8
0
100
AcDbBlockBegin
2
*PAPER_SPACE
70
0
10
0.0
20
0.0
30
0.0
3
*PAPER_SPACE
1

0
ENDBLK
5
21
100
AcDbEntity
8
0
100
AcDbBlockEnd
0
BLOCK
5
213
100
AcDbEntity
8
0
100
AcDbBlockBegin
62
7
6
CONTINUOUS
2
*D0
70
65
10
0.0000000000
20
0.0000000000
3
*D0
1

0
TEXT
5
214
100
AcDbEntity
8
0
100
AcDbText
62
7
6
CONTINUOUS
10
137.1535261221
20
-50.7172890755
7
STANDARD
40
3.0000000000
1
435
50
90.0000000000
41
0.7380952381
72
0
100
AcDbText
0
LINE
5
215
100
AcDbEntity
8
0
100
AcDbLine
62
7
6
CONTINUOUS
10
124.6035261221
20
169.9041394959
11
139.4035261221
21
169.9041394959
0
LINE
5
216
100
AcDbEntity
8
0
100
AcDbLine
62
7
6
CONTINUOUS
10
121.2035261221
20
-264.6958605041
11
139.4035261221
21
-264.6958605041
0
LINE
5
217
100
AcDbEntity
8
0
100
AcDbLine
62
7
6
CONTINUOUS
10
137.9035261221
20
169.9041394959
11
137.9035261221
21
-47.3958605041
0
LINE
5
218
100
AcDbEntity
8
0
100
AcDbLine
62
7
6
CONTINUOUS
10
137.9035261221
20
-264.6958605041
11
137.9035261221
21
-47.3958605041
0
SOLID
5
219
100
AcDbEntity
8
0
100
AcDbTrace
62
7
6
CONTINUOUS
10
138.8535261221
20
166.9041394959
11
137.9035261221
21
169.9041394959
12
136.9535261221
22
166.9041394959
13
136.9535261221
23
166.9041394959
0
SOLID
5
21A
100
AcDbEntity
8
0
100
AcDbTrace
62
7
6
CONTINUOUS
10
136.9535261221
20
-261.6958605041
11
137.9035261221
21
-264.6958605041
12
138.8535261221
22
-261.6958605041
13
138.8535261221
23
-261.6958605041
0
ENDBLK
5
21B
100
AcDbEntity
8
0
100
AcDbBlockEnd
0
BLOCK
5
21C
100
AcDbEntity
8
0
100
AcDbBlockBegin
62
7
6
CONTINUOUS
2
*D1
70
65
10
0.0000000000
20
0.0000000000
3
*D1
1

0
TEXT
5
21D
100
AcDbEntity
8
0
100
AcDbText
62
7
6
CONTINUOUS
10
-171.4179024493
20
178.6541394959
7
STANDARD
40
3.0000000000
1
595
41
0.7380952381
72
0
100
AcDbText
0
LINE
5
21E
100
AcDbEntity
8
0
100
AcDbLine
62
7
6
CONTINUOUS
10
129.4035261221
20
156.6041394959
11
129.4035261221
21
179.4041394959
0
LINE
5
21F
100
AcDbEntity
8
0
100
AcDbLine
62
7
6
CONTINUOUS
10
-465.5964738779
20
156.6041394959
11
-465.5964738779
21
179.4041394959
0
LINE
5
220
100
AcDbEntity
8
0
100
AcDbLine
62
7
6
CONTINUOUS
10
129.4035261221
20
177.9041394959
11
-168.0964738779
21
177.9041394959
0
LINE
5
221
100
AcDbEntity
8
0
100
AcDbLine
62
7
6
CONTINUOUS
10
-465.5964738779
20
177.9041394959
11
-168.0964738779
21
177.9041394959
0
SOLID
5
222
100
AcDbEntity
8
0
100
AcDbTrace
62
7
6
CONTINUOUS
10
126.4035261221
20
176.9541394959
11
129.4035261221
21
177.9041394959
12
126.4035261221
22
178.8541394959
13
126.4035261221
23
178.8541394959
0
SOLID
5
223
100
AcDbEntity
8
0
100
AcDbTrace
62
7
6
CONTINUOUS
10
-462.5964738779
20
178.8541394959
11
-465.5964738779
21
177.9041394959
12
-462.5964738779
22
176.9541394959
13
-462.5964738779
23
176.9541394959
0
ENDBLK
5
224
100
AcDbEntity
8
0
100
AcDbBlockEnd
0
BLOCK
5
225
100
AcDbEntity
8
0
100
AcDbBlockBegin
62
7
6
CONTINUOUS
2
*D2
70
65
10
0.0000000000
20
0.0000000000
3
*D2
1

0
TEXT
5
226
100
AcDbEntity
8
0
100
AcDbText
62
7
6
CONTINUOUS
10
-571.1128895496
20
178.6541394959
7
STANDARD
40
3.0000000000
1
62
41
0.7857142857
72
0
100
AcDbText
0
LINE
5
227
100
AcDbEntity
8
0
100
AcDbLine
62
7
6
CONTINUOUS
10
-599.6557466925
20
-50.3958605041
11
-599.6557466925
21
179.4041394959
0
LINE
5
228
100
AcDbEntity
8
0
100
AcDbLine
62
7
6
CONTINUOUS
10
-537.8557466925
20
-13.8024608421
11
-537.8557466925
21
179.4041394959
0
LINE
5
229
100
AcDbEntity
8
0
100
AcDbLine
62
7
6
CONTINUOUS
10
-599.6557466925
20
177.9041394959
11
-568.7557466925
21
177.9041394959
0
LINE
5
22A
100
AcDbEntity
8
0
100
AcDbLine
62
7
6
CONTINUOUS
10
-537.8557466925
20
177.9041394959
11
-568.7557466925
21
177.9041394959
0
SOLID
5
22B
100
AcDbEntity
8
0
100
AcDbTrace
62
7
6
CONTINUOUS
10
-596.6557466925
20
178.8541394959
11
-599.6557466925
21
177.9041394959
12
-596.6557466925
22
176.9541394959
13
-596.6557466925
23
176.9541394959
0
SOLID
5
22C
100
AcDbEntity
8
0
100
AcDbTrace
62
7
6
CONTINUOUS
10
-540.8557466925
20
176.9541394959
11
-537.8557466925
21
177.9041394959
12
-540.8557466925
22
178.8541394959
13
-540.8557466925
23
178.8541394959
0
ENDBLK
5
22D
100
AcDbEntity
8
0
100
AcDbBlockEnd
0
ENDSEC
0
SECTION
2
ENTITIES
0
DIMENSION
5
22E
100
AcDbEntity
8
0
100
AcDbDimension
62
7
6
CONTINUOUS
2
*D0
10
137.9035261221
20
-264.6958605041
11
135.6535261221
21
-47.3958605041
70
160
3
DIMSTYLE_1
100
AcDbAlignedDimension
13
124.6035261221
23
169.9041394959
14
121.2035261221
24
-264.6958605041
50
270.000000
100
AcDbRotatedDimension
0
DIMENSION
5
22F
100
AcDbEntity
8
0
100
AcDbDimension
62
7
6
CONTINUOUS
2
*D1
10
-465.5964738779
20
177.9041394959
11
-168.0964738779
21
180.1541394959
70
160
3
DIMSTYLE_2
100
AcDbAlignedDimension
13
129.4035261221
23
156.6041394959
14
-465.5964738779
24
156.6041394959
50
180.000000
100
AcDbRotatedDimension
0
DIMENSION
5
230
100
AcDbEntity
8
0
100
AcDbDimension
62
7
6
CONTINUOUS
2
*D2
10
-537.8557466925
20
177.9041394959
11
-568.7557466925
21
180.1541394959
70
160
3
DIMSTYLE_1
100
AcDbAlignedDimension
13
-599.6557466925
23
-50.3958605041
14
-537.8557466925
24
-13.8024608421
100
AcDbRotatedDimension
0
LINE
5
231
100
AcDbEntity
8
0
100
AcDbLine
62
7
6
CONTINUOUS
10
-465.5964738779
20
-250.8958605041
11
-465.5964738779
21
156.1041394959
0
LINE
5
232
100
AcDbEntity
8
0
100
AcDbLine
62
7
6
CONTINUOUS
10
-463.5964738779
20
-252.8958605041
11
-463.5964738779
21
-250.8958605041
0
LINE
5
233
100
AcDbEntity
8
0
100
AcDbLine
62
7
6
CONTINUOUS
10
-463.5964738779
20
158.1041394959
11
-463.5964738779
21
156.1041394959
0
LINE
5
234
100
AcDbEntity
8
0
100
AcDbLine
62
9
6
CONTINUOUS
10
-463.5964738779
20
-250.8958605041
11
-463.5964738779
21
156.1041394959
0
LINE
5
235
100
AcDbEntity
8
0
100
AcDbLine
62
7
6
CONTINUOUS
10
-443.1574058779
20
-189.8713485041
11
-443.1574058779
21
-207.3958605041
0
LINE
5
236
100
AcDbEntity
8
0
100
AcDbLine
62
7
6
CONTINUOUS
10
-443.1572019601
20
-109.3965967709
11
-443.1572019601
21
-119.4164042437
0
LINE
5
237
100
AcDbEntity
8
0
100
AcDbLine
62
7
6
CONTINUOUS
10
-443.1572019601
20
-126.4913351624
11
-443.1572019601
21
-130.9125072011
0
LINE
5
238
100
AcDbEntity
8
0
100
AcDbLine
62
7
6
CONTINUOUS
10
-443.1572018779
20
-138.1226425041
11
-443.1572018779
21
-143.9121085041
0
LINE
5
239
100
AcDbEntity
8
0
100
AcDbLine
62
7
6
CONTINUOUS
10
-443.1572018779
20
-152.4284185041
11
-443.1572018779
21
-158.2178825041
0
LINE
5
23A
100
AcDbEntity
8
0
100
AcDbLine
62
7
6
CONTINUOUS
10
-443.1364938779
20
-160.2447445041
11
-443.1364938779
21
-164.3884005041
0
LINE
5
23B
100
AcDbEntity
8
0
100
AcDbLine
62
7
6
CONTINUOUS
10
-443.1259378779
20
-164.7765565041
11
-443.1259378779
21
-169.0588705041
0
LINE
5
23C
100
AcDbEntity
8
0
100
AcDbLine
62
7
6
CONTINUOUS
10
-443.1259378779
20
-177.9148165041
11
-443.1259378779
21
-182.1971285041
0
LINE
5
23D
100
AcDbEntity
8
0
100
AcDbLine
62
7
6
CONTINUOUS
10
-443.0952208779
20
136.8272004959
11
-443.0952208779
21
120.2570974959
0
LINE
5
23E
100
AcDbEntity
8
0
100
AcDbLine
62
7
6
CONTINUOUS
10
-443.0952208779
20
115.0477414959
11
-443.0952208779
21
99.2840014959
0
LINE
5
23F
100
AcDbEntity
8
0
100
AcDbLine
62
7
6
CONTINUOUS
10
-443.0952208779
20
49.4392554959
11
-443.0952208779
21
30.2473794959
0
LINE
5
240
100
AcDbEntity
8
0
100
AcDbLine
62
7
6
CONTINUOUS
10
-443.0952208779
20
27.1552724959
11
-443.0952208779
21
10.5851704959
0
LINE
5
241
100
AcDbEntity
8
0
100
AcDbLine
62
7
6
CONTINUOUS
10
-443.0952208779
20
3.7288964959
11
-443.0952208779
21
0.7038044959
0
LINE
5
242
100
AcDbEntity
8
0
100
AcDbLine
62
7
6
CONTINUOUS
10
-443.0952208779
20
-12.0010615041
11
-443.0952208779
21
-15.3958275041
0
LINE
5
243
100
AcDbEntity
8
0
100
AcDbLine
62
7
6
CONTINUOUS
10
-441.9201408779
20
86.3010261665
11
-441.9201408779
21
83.4311401711
0
LINE
5
244
100
AcDbEntity
8
0
100
AcDbLine
62
7
6
CONTINUOUS
10
-440.8544728779
20
13.7782464959
11
-440.8544728779
21
27.1552874952
0
LINE
5
245
100
AcDbEntity
8
0
100
AcDbLine
62
7
6
CONTINUOUS
10
-440.8544728779
20
30.2473864956
11
-440.8544728779
21
38.2468004959
0
LINE
5
246
100
AcDbEntity
8
0
100
AcDbLine
62
7
6
CONTINUOUS
10
-440.8544728779
20
41.4398674959
11
-440.8544728779
21
49.4392814946
0
LINE
5
247
100
AcDbEntity
8
0
100
AcDbLine
62
7
6
CONTINUOUS
10
-440.8544728779
20
102.4772694959
11
-440.8544728779
21
115.0477414959
0
LINE
5
248
100
AcDbEntity
8
0
100
AcDbLine
62
7
6
CONTINUOUS
10
-440.8544728779
20
123.4502734959
11
-440.8544728779
21
136.8271714974
0
LINE
5
249
100
AcDbEntity
8
0
100
AcDbLine
62
7
6
CONTINUOUS
10
-439.9350124754
20
-115.2936582724
11
-439.9350124754
21
-110.3941924821
0
LINE
5
24A
100
AcDbEntity
8
0
100
AcDbLine
62
7
6
CONTINUOUS
10
-436.9593388490
20
67.5027999456
11
-436.9593388490
21
70.9080938871
0
LINE
5
24B
100
AcDbEntity
8
0
100
AcDbLine
62
7
6
CONTINUOUS
10
-435.9545869283
20
57.5801922853
11
-436.3890737943
21
57.1076871927
0
LINE
5
24C
100
AcDbEntity
8
0
100
AcDbLine
62
7
6
CONTINUOUS
10
-427.8026738779
20
-198.6525865041
11
-436.5459478779
21
-189.8713485041
0
LINE
5
24D
100
AcDbEntity
8
0
100
AcDbLine
62
7
6
CONTINUOUS
10
-431.9020738779
20
-189.7848645041
11
-423.1585958779
21
-198.5661025041
0
LINE
5
24E
100
AcDbEntity
8
0
100
AcDbLine
62
7
6
CONTINUOUS
10
-434.4962958779
20
135.9199044959
11
-434.4962958779
21
123.4502674960
0
LINE
5
24F
100
AcDbEntity
8
0
100
AcDbLine
62
7
6
CONTINUOUS
10
-434.4962958779
20
113.5014824959
11
-434.4962958779
21
102.4772694959
0
LINE
5
250
100
AcDbEntity
8
0
100
AcDbLine
62
7
6
CONTINUOUS
10
-434.4962958779
20
26.2478404959
11
-434.4962958779
21
13.7782464959
0
LINE
5
251
100
AcDbEntity
8
0
100
AcDbLine
62
7
6
CONTINUOUS
10
-433.6258387855
20
-110.7060172710
11
-433.6258387855
21
-115.2936582724
0
LINE
5
252
100
AcDbEntity
8
0
100
AcDbLine
62
7
6
CONTINUOUS
10
-432.2556048779
20
13.7782464959
11
-432.2556048779
21
26.2478404959
0
LINE
5
253
100
AcDbEntity
8
0
100
AcDbLine
62
7
6
CONTINUOUS
10
-432.2556048779
20
102.4772694959
11
-432.2556048779
21
113.5014824959
0
LINE
5
254
100
AcDbEntity
8
0
100
AcDbLine
62
7
6
CONTINUOUS
10
-432.2556048779
20
123.4502674959
11
-432.2556048779
21
135.9199044959
0
LINE
5
255
100
AcDbEntity
8
0
100
AcDbLine
62
7
6
CONTINUOUS
10
-430.4763272138
20
-126.1380961438
11
-430.4763272138
21
-131.2657462197
0
LINE
5
256
100
AcDbEntity
8
0
100
AcDbLine
62
7
6
CONTINUOUS
10
-430.4347099731
20
-115.3107111906
11
-430.4347099731
21
-112.5769660040
0
LINE
5
257
100
AcDbEntity
8
0
100
AcDbLine
62
7
6
CONTINUOUS
10
-429.8446071796
20
55.8042248065
11
-429.8446071796
21
52.3989296134
0
LINE
5
258
100
AcDbEntity
8
0
100
AcDbLine
62
7
6
CONTINUOUS
10
-427.1083758812
20
-132.2219277011
11
-427.1083758812
21
-125.1819146624
0
LINE
5
259
100
AcDbEntity
8
0
100
AcDbLine
62
7
6
CONTINUOUS
10
-425.3371828779
20
136.9281324959
11
-425.3371828779
21
123.4502674959
0
LINE
5
25A
100
AcDbEntity
8
0
100
AcDbLine
62
7
6
CONTINUOUS
10
-425.3371828779
20
27.2561174959
11
-425.3371828779
21
13.7782464959
0
LINE
5
25B
100
AcDbEntity
8
0
100
AcDbLine
62
7
6
CONTINUOUS
10
-424.6812608779
20
76.6915844797
11
-424.6812608779
21
79.5324864959
0
LINE
5
25C
100
AcDbEntity
8
0
100
AcDbLine
62
7
6
CONTINUOUS
10
-424.6812608779
20
90.0625056290
11
-424.6812608779
21
92.9378377864
0
LINE
5
25D
100
AcDbEntity
8
0
100
AcDbLine
62
7
6
CONTINUOUS
10
-424.6464738779
20
-41.7458605041
11
-424.6464738779
21
-49.7458605041
0
LINE
5
25E
100
AcDbEntity
8
0
100
AcDbLine
62
7
6
CONTINUOUS
10
-424.5964738779
20
-58.0458605041
11
-424.5964738779
21
-36.7458605041
0
LINE
5
25F
100
AcDbEntity
8
0
100
AcDbLine
62
7
6
CONTINUOUS
10
-423.1585958779
20
-207.3093765041
11
-423.1585958779
21
-189.7848645041
0
LINE
5
260
100
AcDbEntity
8
0
100
AcDbLine
62
7
6
CONTINUOUS
10
-423.1484438779
20
-175.5448665041
11
-423.1484438779
21
-171.4288205041
0
LINE
5
261
100
AcDbEntity
8
0
100
AcDbLine
62
7
6
CONTINUOUS
10
-423.1447904793
20
-119.4164042437
11
-423.1447904793
21
-115.3107111906
0
LINE
5
262
100
AcDbEntity
8
0
100
AcDbLine
62
7
6
CONTINUOUS
10
-423.1378878779
20
-158.2178825041
11
-423.1378878779
21
-154.4343685041
0
LINE
5
263
100
AcDbEntity
8
0
100
AcDbLine
62
7
6
CONTINUOUS
10
-423.1378878779
20
-141.9059545041
11
-423.1378878779
21
-138.1226425041
0
LINE
5
264
100
AcDbEntity
8
0
100
AcDbLine
62
7
6
CONTINUOUS
10
-423.1378881076
20
-137.8140667854
11
-423.1378881076
21
-133.4071055118
0
LINE
5
265
100
AcDbEntity
8
0
100
AcDbLine
62
7
6
CONTINUOUS
10
-423.1378881076
20
-123.9967368517
11
-423.1378881076
21
-119.5897755781
0
LINE
5
266
100
AcDbEntity
8
0
100
AcDbLine
62
7
6
CONTINUOUS
10
-423.1378881076
20
-108.0660631342
11
-423.1378881076
21
-103.5133400127
0
LINE
5
267
100
AcDbEntity
8
0
100
AcDbLine
62
7
6
CONTINUOUS
10
-423.1309858779
20
-150.2456445041
11
-423.1309858779
21
-146.0948825041
0
LINE
5
268
100
AcDbEntity
8
0
100
AcDbLine
62
7
6
CONTINUOUS
10
-423.0964738779
20
-164.3884005041
11
-423.0964738779
21
-160.2447445041
0
LINE
5
269
100
AcDbEntity
8
0
100
AcDbLine
62
7
6
CONTINUOUS
10
-423.0964738779
20
-15.3958275041
11
-423.0964738779
21
-12.3707355041
0
LINE
5
26A
100
AcDbEntity
8
0
100
AcDbLine
62
7
6
CONTINUOUS
10
-423.0964738779
20
0.2333144959
11
-423.0964738779
21
3.7288964959
0
LINE
5
26B
100
AcDbEntity
8
0
100
AcDbLine
62
7
6
CONTINUOUS
10
-423.0964738779
20
10.5851704959
11
-423.0964738779
21
27.2561174959
0
LINE
5
26C
100
AcDbEntity
8
0
100
AcDbLine
62
7
6
CONTINUOUS
10
-423.0964738779
20
38.2468004959
11
-423.0964738779
21
41.4398674959
0
LINE
5
26D
100
AcDbEntity
8
0
100
AcDbLine
62
7
6
CONTINUOUS
10
-423.0964738779
20
99.2840014959
11
-423.0964738779
21
102.4772694959
0
LINE
5
26E
100
AcDbEntity
8
0
100
AcDbLine
62
7
6
CONTINUOUS
10
-423.0964738779
20
120.2570974959
11
-423.0964738779
21
136.9281324959
0
LINE
5
26F
100
AcDbEntity
8
0
100
AcDbLine
62
7
6
CONTINUOUS
10
-422.5964738779
20
-58.0458605041
11
-422.5964738779
21
-36.7458605041
0
LINE
5
270
100
AcDbEntity
8
0
100
AcDbLine
62
7
6
CONTINUOUS
10
-422.5464738779
20
-49.7458605041
11
-422.5464738779
21
-41.7458605041
0
LINE
5
271
100
AcDbEntity
8
0
100
AcDbLine
62
7
6
CONTINUOUS
10
-400.5964738779
20
-252.8958605041
11
-400.5964738779
21
158.1041394959
0
LINE
5
272
100
AcDbEntity
8
0
100
AcDbLine
62
7
6
CONTINUOUS
10
-438.0600810381
20
84.8660153908
11
-424.6812608779
21
90.0625056290
0
LINE
5
273
100
AcDbEntity
8
0
100
AcDbLine
62
7
6
CONTINUOUS
10
-424.6812608779
20
92.9378377864
11
-441.9201408779
21
86.3010261665
0
LINE
5
274
100
AcDbEntity
8
0
100
AcDbLine
62
7
6
CONTINUOUS
10
-439.1457378779
20
-12.3707355041
11
-423.0964738779
21
0.2333144959
0
LINE
5
275
100
AcDbEntity
8
0
100
AcDbLine
62
7
6
CONTINUOUS
10
-426.8776968779
20
0.7038044959
11
-443.0952208779
21
-12.0010615041
0
LINE
5
276
100
AcDbEntity
8
0
100
AcDbLine
62
7
6
CONTINUOUS
10
120.7035261221
20
-264.6958605041
11
124.1035261221
21
-264.6958605041
0
LINE
5
277
100
AcDbEntity
8
0
100
AcDbLine
62
7
6
CONTINUOUS
10
119.9035261221
20
-263.8958605041
11
124.9035261221
21
-263.8958605041
0
LINE
5
278
100
AcDbEntity
8
0
100
AcDbLine
62
7
6
CONTINUOUS
10
114.9035261221
20
-255.6958605041
11
129.9035261221
21
-255.6958605041
0
LINE
5
279
100
AcDbEntity
8
0
100
AcDbLine
62
7
6
CONTINUOUS
10
64.4035261221
20
-252.8958605041
11
129.9035261221
21
-252.8958605041
0
LINE
5
27A
100
AcDbEntity
8
0
100
AcDbLine
62
7
6
CONTINUOUS
10
-400.5964738779
20
-252.8958605041
11
-463.5964738779
21
-252.8958605041
0
LINE
5
27B
100
AcDbEntity
8
0
100
AcDbLine
62
7
6
CONTINUOUS
10
-465.5964738779
20
-250.8958605041
11
-463.5964738779
21
-250.8958605041
0
LINE
5
27C
100
AcDbEntity
8
0
100
AcDbLine
62
7
6
CONTINUOUS
10
129.4035261221
20
-250.8958605041
11
127.4035261221
21
-250.8958605041
0
LINE
5
27D
100
AcDbEntity
8
0
100
AcDbLine
62
9
6
CONTINUOUS
10
127.4035261221
20
-250.8958605041
11
64.4035261221
21
-250.8958605041
0
LINE
5
27E
100
AcDbEntity
8
0
100
AcDbLine
62
9
6
CONTINUOUS
10
-400.5964738779
20
-250.8958605041
11
-463.5964738779
21
-250.8958605041
0
LINE
5
27F
100
AcDbEntity
8
0
100
AcDbLine
62
7
6
CONTINUOUS
10
-400.5964738779
20
-247.8958605041
11
64.4035261221
21
-247.8958605041
0
LINE
5
280
100
AcDbEntity
8
0
100
AcDbLine
62
7
6
CONTINUOUS
10
-400.5964738779
20
-246.8958605041
11
64.4035261221
21
-246.8958605041
0
LINE
5
281
100
AcDbEntity
8
0
100
AcDbLine
62
7
6
CONTINUOUS
10
-443.1259378779
20
-169.0588705041
11
-428.7507338779
21
-173.4867405041
0
LINE
5
282
100
AcDbEntity
8
0
100
AcDbLine
62
7
6
CONTINUOUS
10
-423.1484438779
20
-171.4288205041
11
-443.1259378779
21
-164.7765565041
0
LINE
5
283
100
AcDbEntity
8
0
100
AcDbLine
62
7
6
CONTINUOUS
10
-443.1572018779
20
-143.9121085041
11
-428.8755858779
21
-148.1700605041
0
LINE
5
284
100
AcDbEntity
8
0
100
AcDbLine
62
7
6
CONTINUOUS
10
-443.1574058779
20
-207.3958605041
11
-436.5459478779
21
-207.3958605041
0
LINE
5
285
100
AcDbEntity
8
0
100
AcDbLine
62
7
6
CONTINUOUS
10
-431.9020738779
20
-207.3093765041
11
-423.1585958779
21
-207.3093765041
0
LINE
5
286
100
AcDbEntity
8
0
100
AcDbLine
62
7
6
CONTINUOUS
10
-423.1378881076
20
-133.4071055118
11
-427.1083758812
21
-132.2219277011
0
LINE
5
287
100
AcDbEntity
8
0
100
AcDbLine
62
7
6
CONTINUOUS
10
-430.4763272138
20
-131.2657462197
11
-438.9987260651
21
-128.7021241927
0
LINE
5
288
100
AcDbEntity
8
0
100
AcDbLine
62
7
6
CONTINUOUS
10
-423.1309858779
20
-146.0948825041
11
-436.9552178779
21
-141.9165125041
0
LINE
5
289
100
AcDbEntity
8
0
100
AcDbLine
62
7
6
CONTINUOUS
10
-443.1572019601
20
-130.9125072011
11
-423.1378881076
21
-137.8140667854
0
LINE
5
28A
100
AcDbEntity
8
0
100
AcDbLine
62
7
6
CONTINUOUS
10
-436.5459478779
20
-189.8713485041
11
-443.1574058779
21
-189.8713485041
0
LINE
5
28B
100
AcDbEntity
8
0
100
AcDbLine
62
7
6
CONTINUOUS
10
-423.1585958779
20
-189.7848645041
11
-431.9020738779
21
-189.7848645041
0
LINE
5
28C
100
AcDbEntity
8
0
100
AcDbLine
62
7
6
CONTINUOUS
10
-443.1364938779
20
-164.3884005041
11
-423.0964738779
21
-164.3884005041
0
LINE
5
28D
100
AcDbEntity
8
0
100
AcDbLine
62
7
6
CONTINUOUS
10
-423.0964738779
20
-160.2447445041
11
-443.1364938779
21
-160.2447445041
0
LINE
5
28E
100
AcDbEntity
8
0
100
AcDbLine
62
7
6
CONTINUOUS
10
-443.1572018779
20
-158.2178825041
11
-423.1378878779
21
-158.2178825041
0
LINE
5
28F
100
AcDbEntity
8
0
100
AcDbLine
62
7
6
CONTINUOUS
10
-423.1378878779
20
-154.4343685041
11
-436.9552178779
21
-154.4240145041
0
LINE
5
290
100
AcDbEntity
8
0
100
AcDbLine
62
7
6
CONTINUOUS
10
-436.5459478779
20
-207.3958605041
11
-427.8026738779
21
-198.6525865041
0
LINE
5
291
100
AcDbEntity
8
0
100
AcDbLine
62
7
6
CONTINUOUS
10
-423.1585958779
20
-198.5661025041
11
-431.9020738779
21
-207.3093765041
0
LINE
5
292
100
AcDbEntity
8
0
100
AcDbLine
62
7
6
CONTINUOUS
10
-423.1378881076
20
-103.5133400127
11
-430.6635032915
21
-108.4193021528
0
LINE
5
293
100
AcDbEntity
8
0
100
AcDbLine
62
7
6
CONTINUOUS
10
-430.4347099731
20
-112.5769660040
11
-423.1378881076
21
-108.0660631342
0
LINE
5
294
100
AcDbEntity
8
0
100
AcDbLine
62
7
6
CONTINUOUS
10
-436.9552178779
20
-141.9165125041
11
-423.1378878779
21
-141.9059545041
0
LINE
5
295
100
AcDbEntity
8
0
100
AcDbLine
62
7
6
CONTINUOUS
10
-423.1378878779
20
-138.1226425041
11
-443.1572018779
21
-138.1226425041
0
LINE
5
296
100
AcDbEntity
8
0
100
AcDbLine
62
7
6
CONTINUOUS
10
-443.1572019601
20
-119.4164042437
11
-423.1447904793
21
-119.4164042437
0
LINE
5
297
100
AcDbEntity
8
0
100
AcDbLine
62
7
6
CONTINUOUS
10
-423.1447904793
20
-115.3107111906
11
-430.4347099731
21
-115.3107111906
0
LINE
5
298
100
AcDbEntity
8
0
100
AcDbLine
62
7
6
CONTINUOUS
10
-433.6258387855
20
-115.2936582724
11
-439.9350124754
21
-115.2936582724
0
LINE
5
299
100
AcDbEntity
8
0
100
AcDbLine
62
7
6
CONTINUOUS
10
-423.1378881076
20
-119.5897755781
11
-443.1572019601
21
-126.4913351624
0
LINE
5
29A
100
AcDbEntity
8
0
100
AcDbLine
62
7
6
CONTINUOUS
10
-438.9987260651
20
-128.7021241927
11
-430.4763272138
21
-126.1380961438
0
LINE
5
29B
100
AcDbEntity
8
0
100
AcDbLine
62
7
6
CONTINUOUS
10
-427.1083758812
20
-125.1819146624
11
-423.1378881076
21
-123.9967368517
0
LINE
5
29C
100
AcDbEntity
8
0
100
AcDbLine
62
7
6
CONTINUOUS
10
-422.5964738779
20
-58.0458605041
11
-424.5964738779
21
-58.0458605041
0
LINE
5
29D
100
AcDbEntity
8
0
100
AcDbLine
62
7
6
CONTINUOUS
10
-422.5964738779
20
-53.8958605041
11
-424.5964738779
21
-53.8958605041
0
LINE
5
29E
100
AcDbEntity
8
0
100
AcDbLine
62
7
6
CONTINUOUS
10
-422.5964738779
20
-50.8958605041
11
-424.5964738779
21
-50.8958605041
0
LINE
5
29F
100
AcDbEntity
8
0
100
AcDbLine
62
7
6
CONTINUOUS
10
-424.6464738779
20
-49.7458605041
11
-424.5964738779
21
-49.7458605041
0
LINE
5
2A0
100
AcDbEntity
8
0
100
AcDbLine
62
7
6
CONTINUOUS
10
-422.5964738779
20
-49.7458605041
11
-422.5464738779
21
-49.7458605041
0
LINE
5
2A1
100
AcDbEntity
8
0
100
AcDbLine
62
7
6
CONTINUOUS
10
-436.9552178779
20
-154.4240145041
11
-423.1309858779
21
-150.2456445041
0
LINE
5
2A2
100
AcDbEntity
8
0
100
AcDbLine
62
7
6
CONTINUOUS
10
-428.8755858779
20
-148.1700605041
11
-443.1572018779
21
-152.4284185041
0
LINE
5
2A3
100
AcDbEntity
8
0
100
AcDbLine
62
7
6
CONTINUOUS
10
-422.5964738779
20
-43.8958605041
11
-424.5964738779
21
-43.8958605041
0
LINE
5
2A4
100
AcDbEntity
8
0
100
AcDbLine
62
7
6
CONTINUOUS
10
-422.5464738779
20
-41.7458605041
11
-422.5964738779
21
-41.7458605041
0
LINE
5
2A5
100
AcDbEntity
8
0
100
AcDbLine
62
7
6
CONTINUOUS
10
-424.5964738779
20
-41.7458605041
11
-424.6464738779
21
-41.7458605041
0
LINE
5
2A6
100
AcDbEntity
8
0
100
AcDbLine
62
7
6
CONTINUOUS
10
-422.5964738779
20
-40.8958605041
11
-424.5964738779
21
-40.8958605041
0
LINE
5
2A7
100
AcDbEntity
8
0
100
AcDbLine
62
7
6
CONTINUOUS
10
-422.5964738779
20
-36.7458605041
11
-424.5964738779
21
-36.7458605041
0
LINE
5
2A8
100
AcDbEntity
8
0
100
AcDbLine
62
7
6
CONTINUOUS
10
-441.9201408779
20
83.4311401711
11
-424.6812608779
21
76.6915844797
0
LINE
5
2A9
100
AcDbEntity
8
0
100
AcDbLine
62
7
6
CONTINUOUS
10
-424.6812608779
20
79.5324864959
11
-438.0600810381
21
84.8660153908
0
LINE
5
2AA
100
AcDbEntity
8
0
100
AcDbLine
62
7
6
CONTINUOUS
10
120.7035261221
20
169.9041394959
11
119.9035261221
21
169.1041394959
0
LINE
5
2AB
100
AcDbEntity
8
0
100
AcDbLine
62
7
6
CONTINUOUS
10
-443.1259378779
20
-182.1971285041
11
-423.1484438779
21
-175.5448665041
0
LINE
5
2AC
100
AcDbEntity
8
0
100
AcDbLine
62
7
6
CONTINUOUS
10
-428.7507338779
20
-173.4867405041
11
-443.1259378779
21
-177.9148165041
0
LINE
5
2AD
100
AcDbEntity
8
0
100
AcDbLine
62
7
6
CONTINUOUS
10
-443.0952208779
20
-15.3958275041
11
-423.0964738779
21
-15.3958275041
0
LINE
5
2AE
100
AcDbEntity
8
0
100
AcDbLine
62
7
6
CONTINUOUS
10
-423.0964738779
20
-12.3707355041
11
-439.1457378779
21
-12.3707355041
0
LINE
5
2AF
100
AcDbEntity
8
0
100
AcDbLine
62
7
6
CONTINUOUS
10
-443.0952208779
20
0.7038044959
11
-426.8776968779
21
0.7038044959
0
LINE
5
2B0
100
AcDbEntity
8
0
100
AcDbLine
62
7
6
CONTINUOUS
10
-423.0964738779
20
3.7288964959
11
-443.0952208779
21
3.7288964959
0
LINE
5
2B1
100
AcDbEntity
8
0
100
AcDbLine
62
7
6
CONTINUOUS
10
120.7035261221
20
-264.6958605041
11
119.9035261221
21
-263.8958605041
0
LINE
5
2B2
100
AcDbEntity
8
0
100
AcDbLine
62
7
6
CONTINUOUS
10
-443.0952208779
20
10.5851704959
11
-423.0964738779
21
10.5851704959
0
LINE
5
2B3
100
AcDbEntity
8
0
100
AcDbLine
62
7
6
CONTINUOUS
10
-425.3371828779
20
13.7782464959
11
-432.2556048779
21
13.7782464959
0
LINE
5
2B4
100
AcDbEntity
8
0
100
AcDbLine
62
7
6
CONTINUOUS
10
-434.4962958779
20
13.7782464959
11
-440.8544728779
21
13.7782464959
0
LINE
5
2B5
100
AcDbEntity
8
0
100
AcDbLine
62
7
6
CONTINUOUS
10
-432.2556048779
20
26.2478404959
11
-434.4962958779
21
26.2478404959
0
LINE
5
2B6
100
AcDbEntity
8
0
100
AcDbLine
62
7
6
CONTINUOUS
10
-440.8544728779
20
27.1552874952
11
-443.0952208779
21
27.1552724959
0
LINE
5
2B7
100
AcDbEntity
8
0
100
AcDbLine
62
7
6
CONTINUOUS
10
-423.0964738779
20
27.2561174959
11
-425.3371828779
21
27.2561174959
0
LINE
5
2B8
100
AcDbEntity
8
0
100
AcDbLine
62
7
6
CONTINUOUS
10
-443.0952208779
20
30.2473794959
11
-440.8544728779
21
30.2473864956
0
LINE
5
2B9
100
AcDbEntity
8
0
100
AcDbLine
62
7
6
CONTINUOUS
10
-440.8544728779
20
38.2468004959
11
-423.0964738779
21
38.2468004959
0
LINE
5
2BA
100
AcDbEntity
8
0
100
AcDbLine
62
7
6
CONTINUOUS
10
-423.0964738779
20
41.4398674959
11
-440.8544728779
21
41.4398674959
0
LINE
5
2BB
100
AcDbEntity
8
0
100
AcDbLine
62
7
6
CONTINUOUS
10
-440.8544728779
20
49.4392814946
11
-443.0952208779
21
49.4392554959
0
LINE
5
2BC
100
AcDbEntity
8
0
100
AcDbLine
62
7
6
CONTINUOUS
10
-443.0952208779
20
99.2840014959
11
-423.0964738779
21
99.2840014959
0
LINE
5
2BD
100
AcDbEntity
8
0
100
AcDbLine
62
7
6
CONTINUOUS
10
-423.0964738779
20
102.4772694959
11
-432.2556048779
21
102.4772694959
0
LINE
5
2BE
100
AcDbEntity
8
0
100
AcDbLine
62
7
6
CONTINUOUS
10
-434.4962958779
20
102.4772694959
11
-440.8544728779
21
102.4772694959
0
LINE
5
2BF
100
AcDbEntity
8
0
100
AcDbLine
62
7
6
CONTINUOUS
10
-432.2556048779
20
113.5014824959
11
-434.4962958779
21
113.5014824959
0
LINE
5
2C0
100
AcDbEntity
8
0
100
AcDbLine
62
7
6
CONTINUOUS
10
-440.8544728779
20
115.0477414959
11
-443.0952208779
21
115.0477414959
0
LINE
5
2C1
100
AcDbEntity
8
0
100
AcDbLine
62
7
6
CONTINUOUS
10
-443.0952208779
20
120.2570974959
11
-423.0964738779
21
120.2570974959
0
LINE
5
2C2
100
AcDbEntity
8
0
100
AcDbLine
62
7
6
CONTINUOUS
10
-434.4962958779
20
123.4502674960
11
-440.8544728779
21
123.4502734959
0
LINE
5
2C3
100
AcDbEntity
8
0
100
AcDbLine
62
7
6
CONTINUOUS
10
-425.3371828779
20
123.4502674959
11
-432.2556048779
21
123.4502674959
0
LINE
5
2C4
100
AcDbEntity
8
0
100
AcDbLine
62
7
6
CONTINUOUS
10
-432.2556048779
20
135.9199044959
11
-434.4962958779
21
135.9199044959
0
LINE
5
2C5
100
AcDbEntity
8
0
100
AcDbLine
62
7
6
CONTINUOUS
10
-440.8544728779
20
136.8271714974
11
-443.0952208779
21
136.8272004959
0
LINE
5
2C6
100
AcDbEntity
8
0
100
AcDbLine
62
7
6
CONTINUOUS
10
-423.0964738779
20
136.9281324959
11
-425.3371828779
21
136.9281324959
0
LINE
5
2C7
100
AcDbEntity
8
0
100
AcDbLine
62
7
6
CONTINUOUS
10
64.4035261221
20
152.1041394959
11
-400.5964738779
21
152.1041394959
0
LINE
5
2C8
100
AcDbEntity
8
0
100
AcDbLine
62
7
6
CONTINUOUS
10
64.4035261221
20
153.1041394959
11
-400.5964738779
21
153.1041394959
0
LINE
5
2C9
100
AcDbEntity
8
0
100
AcDbLine
62
7
6
CONTINUOUS
10
-465.5964738779
20
156.1041394959
11
-463.5964738779
21
156.1041394959
0
LINE
5
2CA
100
AcDbEntity
8
0
100
AcDbLine
62
9
6
CONTINUOUS
10
-463.5964738779
20
156.1041394959
11
-400.5964738779
21
156.1041394959
0
LINE
5
2CB
100
AcDbEntity
8
0
100
AcDbLine
62
7
6
CONTINUOUS
10
129.4035261221
20
156.1041394959
11
127.4035261221
21
156.1041394959
0
LINE
5
2CC
100
AcDbEntity
8
0
100
AcDbLine
62
9
6
CONTINUOUS
10
64.4035261221
20
156.1041394959
11
127.4035261221
21
156.1041394959
0
LINE
5
2CD
100
AcDbEntity
8
0
100
AcDbLine
62
7
6
CONTINUOUS
10
-463.5964738779
20
158.1041394959
11
-400.5964738779
21
158.1041394959
0
LINE
5
2CE
100
AcDbEntity
8
0
100
AcDbLine
62
7
6
CONTINUOUS
10
64.4035261221
20
158.1041394959
11
129.9035261221
21
158.1041394959
0
LINE
5
2CF
100
AcDbEntity
8
0
100
AcDbLine
62
7
6
CONTINUOUS
10
129.9035261221
20
160.9041394959
11
114.9035261221
21
160.9041394959
0
LINE
5
2D0
100
AcDbEntity
8
0
100
AcDbLine
62
7
6
CONTINUOUS
10
124.9035261221
20
169.1041394959
11
119.9035261221
21
169.1041394959
0
LINE
5
2D1
100
AcDbEntity
8
0
100
AcDbLine
62
7
6
CONTINUOUS
10
124.1035261221
20
169.9041394959
11
120.7035261221
21
169.9041394959
0
LINE
5
2D2
100
AcDbEntity
8
0
100
AcDbLine
62
7
6
CONTINUOUS
10
64.4035261221
20
158.1041394959
11
64.4035261221
21
-252.8958605041
0
LINE
5
2D3
100
AcDbEntity
8
0
100
AcDbLine
62
7
6
CONTINUOUS
10
114.9035261221
20
158.1041394959
11
114.9035261221
21
160.9041394959
0
LINE
5
2D4
100
AcDbEntity
8
0
100
AcDbLine
62
7
6
CONTINUOUS
10
114.9035261221
20
-252.8958605041
11
114.9035261221
21
-255.6958605041
0
LINE
5
2D5
100
AcDbEntity
8
0
100
AcDbLine
62
7
6
CONTINUOUS
10
119.9035261221
20
-263.8958605041
11
119.9035261221
21
-255.6958605041
0
LINE
5
2D6
100
AcDbEntity
8
0
100
AcDbLine
62
7
6
CONTINUOUS
10
119.9035261221
20
169.1041394959
11
119.9035261221
21
160.9041394959
0
LINE
5
2D7
100
AcDbEntity
8
0
100
AcDbLine
62
7
6
CONTINUOUS
10
124.9035261221
20
-263.8958605041
11
124.9035261221
21
-255.6958605041
0
LINE
5
2D8
100
AcDbEntity
8
0
100
AcDbLine
62
7
6
CONTINUOUS
10
124.9035261221
20
169.1041394959
11
124.9035261221
21
160.9041394959
0
LINE
5
2D9
100
AcDbEntity
8
0
100
AcDbLine
62
7
6
CONTINUOUS
10
127.4035261221
20
-252.8958605041
11
127.4035261221
21
-250.8958605041
0
LINE
5
2DA
100
AcDbEntity
8
0
100
AcDbLine
62
7
6
CONTINUOUS
10
127.4035261221
20
158.1041394959
11
127.4035261221
21
156.1041394959
0
LINE
5
2DB
100
AcDbEntity
8
0
100
AcDbLine
62
9
6
CONTINUOUS
10
127.4035261221
20
156.1041394959
11
127.4035261221
21
-250.8958605041
0
LINE
5
2DC
100
AcDbEntity
8
0
100
AcDbLine
62
7
6
CONTINUOUS
10
129.4035261221
20
156.1041394959
11
129.4035261221
21
-250.8958605041
0
LINE
5
2DD
100
AcDbEntity
8
0
100
AcDbLine
62
7
6
CONTINUOUS
10
129.9035261221
20
158.1041394959
11
129.9035261221
21
160.9041394959
0
LINE
5
2DE
100
AcDbEntity
8
0
100
AcDbLine
62
7
6
CONTINUOUS
10
129.9035261221
20
-252.8958605041
11
129.9035261221
21
-255.6958605041
0
LINE
5
2DF
100
AcDbEntity
8
0
100
AcDbLine
62
7
6
CONTINUOUS
10
124.1035261221
20
-264.6958605041
11
124.9035261221
21
-263.8958605041
0
LINE
5
2E0
100
AcDbEntity
8
0
100
AcDbLine
62
7
6
CONTINUOUS
10
124.1035261221
20
169.9041394959
11
124.9035261221
21
169.1041394959
0
LINE
5
2E1
100
AcDbEntity
8
0
100
AcDbLine
62
7
6
CONTINUOUS
10
-563.5554834011
20
-264.6958605041
11
-560.1560099839
21
-264.6958605041
0
LINE
5
2E2
100
AcDbEntity
8
0
100
AcDbLine
62
7
6
CONTINUOUS
10
-564.3557466925
20
-263.8958605041
11
-559.3557466925
21
-263.8958605041
0
LINE
5
2E3
100
AcDbEntity
8
0
100
AcDbLine
62
7
6
CONTINUOUS
10
-554.3557788755
20
-255.6958605041
11
-569.3557145094
21
-255.6958605041
0
LINE
5
2E4
100
AcDbEntity
8
0
100
AcDbLine
62
7
6
CONTINUOUS
10
-550.3557466925
20
-252.8958605041
11
-569.3557145094
21
-252.8958605041
0
LINE
5
2E5
100
AcDbEntity
8
0
100
AcDbLine
62
7
6
CONTINUOUS
10
-566.3557466925
20
-251.3958605041
11
-550.3557466925
21
-251.3958605041
0
LINE
5
2E6
100
AcDbEntity
8
0
100
AcDbLine
62
7
6
CONTINUOUS
10
-550.3557466925
20
-250.8958605041
11
-568.3557466925
21
-250.8958605041
0
LINE
5
2E7
100
AcDbEntity
8
0
100
AcDbLine
62
7
6
CONTINUOUS
10
-563.5557466925
20
169.9041394959
11
-564.3557466925
21
169.1041394959
0
LINE
5
2E8
100
AcDbEntity
8
0
100
AcDbLine
62
7
6
CONTINUOUS
10
-550.1557466925
20
-198.6458605041
11
-550.3557466925
21
-198.6458605041
0
LINE
5
2E9
100
AcDbEntity
8
0
100
AcDbLine
62
7
6
CONTINUOUS
10
-563.5557466925
20
-264.6958605041
11
-564.3557466925
21
-263.8958605041
0
LINE
5
2EA
100
AcDbEntity
8
0
100
AcDbLine
62
7
6
CONTINUOUS
10
-550.1557466925
20
-191.1458605041
11
-550.3557466925
21
-191.1458605041
0
LINE
5
2EB
100
AcDbEntity
8
0
100
AcDbLine
62
7
6
CONTINUOUS
10
-550.1557466925
20
-183.6458605041
11
-550.3557466925
21
-183.6458605041
0
LINE
5
2EC
100
AcDbEntity
8
0
100
AcDbLine
62
7
6
CONTINUOUS
10
-550.1557466925
20
-176.1458605041
11
-550.3557466925
21
-176.1458605041
0
LINE
5
2ED
100
AcDbEntity
8
0
100
AcDbLine
62
7
6
CONTINUOUS
10
-599.6557466925
20
-50.8958605041
11
-599.6557466925
21
-43.8958605041
0
LINE
5
2EE
100
AcDbEntity
8
0
100
AcDbLine
62
7
6
CONTINUOUS
10
-597.9557466925
20
-53.8958605041
11
-597.9557466925
21
-50.8958605041
0
LINE
5
2EF
100
AcDbEntity
8
0
100
AcDbLine
62
7
6
CONTINUOUS
10
-597.9557466925
20
-43.8958605041
11
-597.9557466925
21
-40.8958605041
0
LINE
5
2F0
100
AcDbEntity
8
0
100
AcDbLine
62
7
6
CONTINUOUS
10
-593.1323448209
20
-44.0724586325
11
-596.4557466925
21
-47.3958605041
0
LINE
5
2F1
100
AcDbEntity
8
0
100
AcDbLine
62
7
6
CONTINUOUS
10
-593.1323448209
20
-50.7192623756
11
-589.8089429493
21
-47.3958605041
0
LINE
5
2F2
100
AcDbEntity
8
0
100
AcDbLine
62
7
6
CONTINUOUS
10
-597.9557466925
20
-40.8958605041
11
-593.4057466925
21
-36.7458605041
0
LINE
5
2F3
100
AcDbEntity
8
0
100
AcDbLine
62
7
6
CONTINUOUS
10
-593.4057466925
20
-58.0458605041
11
-597.9557466925
21
-53.8958605041
0
LINE
5
2F4
100
AcDbEntity
8
0
100
AcDbLine
62
7
6
CONTINUOUS
10
-596.4557466925
20
-47.3958605041
11
-593.1323448209
21
-50.7192623756
0
LINE
5
2F5
100
AcDbEntity
8
0
100
AcDbLine
62
7
6
CONTINUOUS
10
-589.8089429493
20
-47.3958605041
11
-593.1323448209
21
-44.0724586325
0
LINE
5
2F6
100
AcDbEntity
8
0
100
AcDbLine
62
7
6
CONTINUOUS
10
-580.8557466925
20
-41.7958605041
11
-580.8557466925
21
-43.8958605041
0
LINE
5
2F7
100
AcDbEntity
8
0
100
AcDbLine
62
7
6
CONTINUOUS
10
-580.8557466925
20
-50.8958605041
11
-580.8557466925
21
-52.9958605041
0
LINE
5
2F8
100
AcDbEntity
8
0
100
AcDbLine
62
7
6
CONTINUOUS
10
-572.8557466925
20
-40.2458605041
11
-572.8557466925
21
-54.5458605041
0
LINE
5
2F9
100
AcDbEntity
8
0
100
AcDbLine
62
7
6
CONTINUOUS
10
-571.8557466925
20
-37.8958605041
11
-571.8557466925
21
-56.8958605041
0
LINE
5
2FA
100
AcDbEntity
8
0
100
AcDbLine
62
7
6
CONTINUOUS
10
-570.2557466925
20
-36.3958605041
11
-570.2557466925
21
-58.3958605041
0
LINE
5
2FB
100
AcDbEntity
8
0
100
AcDbLine
62
7
6
CONTINUOUS
10
-569.3557466925
20
158.1041394959
11
-569.3557466925
21
160.9041394959
0
LINE
5
2FC
100
AcDbEntity
8
0
100
AcDbLine
62
7
6
CONTINUOUS
10
-569.3557466925
20
-252.8958605041
11
-569.3557466925
21
-255.6958605041
0
LINE
5
2FD
100
AcDbEntity
8
0
100
AcDbLine
62
7
6
CONTINUOUS
10
-568.4557466925
20
-207.3958605041
11
-568.4557466925
21
-189.7848645041
0
LINE
5
2FE
100
AcDbEntity
8
0
100
AcDbLine
62
7
6
CONTINUOUS
10
-568.4557466925
20
136.9281324959
11
-568.4557466925
21
120.2570974959
0
LINE
5
2FF
100
AcDbEntity
8
0
100
AcDbLine
62
7
6
CONTINUOUS
10
-568.4557466925
20
-182.1971285041
11
-568.4557466925
21
-164.7765565041
0
LINE
5
300
100
AcDbEntity
8
0
100
AcDbLine
62
7
6
CONTINUOUS
10
-568.4557466925
20
-164.3884005041
11
-568.4557466925
21
-160.2447445041
0
LINE
5
301
100
AcDbEntity
8
0
100
AcDbLine
62
7
6
CONTINUOUS
10
-568.4557466925
20
115.0477414959
11
-568.4557466925
21
99.2840014959
0
LINE
5
302
100
AcDbEntity
8
0
100
AcDbLine
62
7
6
CONTINUOUS
10
-568.4557466925
20
-158.2178825041
11
-568.4557466925
21
-138.1226425041
0
LINE
5
303
100
AcDbEntity
8
0
100
AcDbLine
62
7
6
CONTINUOUS
10
-568.4557466925
20
92.9378377864
11
-568.4557466925
21
76.6915844797
0
LINE
5
304
100
AcDbEntity
8
0
100
AcDbLine
62
7
6
CONTINUOUS
10
-568.4557466925
20
-137.8140667854
11
-568.4557466925
21
-119.5897755781
0
LINE
5
305
100
AcDbEntity
8
0
100
AcDbLine
62
7
6
CONTINUOUS
10
-568.4557466925
20
-119.4164042437
11
-568.4557466925
21
-103.5133400127
0
LINE
5
306
100
AcDbEntity
8
0
100
AcDbLine
62
7
6
CONTINUOUS
10
-568.4557466925
20
71.4294795568
11
-568.4557466925
21
52.3989296134
0
LINE
5
307
100
AcDbEntity
8
0
100
AcDbLine
62
7
6
CONTINUOUS
10
-568.4557466925
20
49.4392554959
11
-568.4557466925
21
30.2473794959
0
LINE
5
308
100
AcDbEntity
8
0
100
AcDbLine
62
7
6
CONTINUOUS
10
-568.4557466925
20
27.2561174959
11
-568.4557466925
21
10.5851704959
0
LINE
5
309
100
AcDbEntity
8
0
100
AcDbLine
62
7
6
CONTINUOUS
10
-568.4557466925
20
3.7288964959
11
-568.4557466925
21
-15.3958275041
0
LINE
5
30A
100
AcDbEntity
8
0
100
AcDbLine
62
7
6
CONTINUOUS
10
-568.3557466925
20
156.1041394959
11
-568.3557466925
21
-250.8958605041
0
LINE
5
30B
100
AcDbEntity
8
0
100
AcDbLine
62
7
6
CONTINUOUS
10
-580.8557466925
20
-52.9958605041
11
-585.9057466925
21
-58.0458605041
0
LINE
5
30C
100
AcDbEntity
8
0
100
AcDbLine
62
7
6
CONTINUOUS
10
-571.8557466925
20
-37.8958605041
11
-570.2557466925
21
-36.3958605041
0
LINE
5
30D
100
AcDbEntity
8
0
100
AcDbLine
62
7
6
CONTINUOUS
10
-572.8557466925
20
-40.2458605041
11
-571.8557466925
21
-39.6791938374
0
LINE
5
30E
100
AcDbEntity
8
0
100
AcDbLine
62
7
6
CONTINUOUS
10
-542.1121102715
20
-46.9156255647
11
-541.8861945950
21
-46.8958605041
0
LINE
5
30F
100
AcDbEntity
8
0
100
AcDbLine
62
7
6
CONTINUOUS
10
-542.1121102715
20
-45.4156255647
11
-542.0979614328
21
-45.4143877017
0
LINE
5
310
100
AcDbEntity
8
0
100
AcDbLine
62
7
6
CONTINUOUS
10
-570.2557466925
20
-58.3958605041
11
-568.3557466925
21
-58.3958605041
0
LINE
5
311
100
AcDbEntity
8
0
100
AcDbLine
62
7
6
CONTINUOUS
10
-585.9057466925
20
-58.0458605041
11
-593.4057466925
21
-58.0458605041
0
LINE
5
312
100
AcDbEntity
8
0
100
AcDbLine
62
7
6
CONTINUOUS
10
-550.3557466925
20
-56.7458605041
11
-547.8557466925
21
-56.7458605041
0
LINE
5
313
100
AcDbEntity
8
0
100
AcDbLine
62
7
6
CONTINUOUS
10
-545.8557466925
20
-55.8958605041
11
-547.8557466925
21
-55.8958605041
0
LINE
5
314
100
AcDbEntity
8
0
100
AcDbLine
62
7
6
CONTINUOUS
10
-544.1957466925
20
-51.8958605041
11
-543.1957466925
21
-51.8958605041
0
LINE
5
315
100
AcDbEntity
8
0
100
AcDbLine
62
7
6
CONTINUOUS
10
-550.3557466925
20
-51.7958605041
11
-547.8557466925
21
-51.7958605041
0
LINE
5
316
100
AcDbEntity
8
0
100
AcDbLine
62
7
6
CONTINUOUS
10
-544.3557466925
20
-51.3958605041
11
-547.8557466925
21
-51.3958605041
0
LINE
5
317
100
AcDbEntity
8
0
100
AcDbLine
62
7
6
CONTINUOUS
10
-572.8557466925
20
-50.8958605041
11
-580.8557466925
21
-50.8958605041
0
LINE
5
318
100
AcDbEntity
8
0
100
AcDbLine
62
7
6
CONTINUOUS
10
-597.9557466925
20
-50.8958605041
11
-599.6557466925
21
-50.8958605041
0
LINE
5
319
100
AcDbEntity
8
0
100
AcDbLine
62
7
6
CONTINUOUS
10
-544.3557466925
20
-49.8958605041
11
-544.1957466925
21
-49.8958605041
0
LINE
5
31A
100
AcDbEntity
8
0
100
AcDbLine
62
7
6
CONTINUOUS
10
-576.8557466925
20
-45.5958605041
11
-572.8557466925
21
-45.5958605041
0
LINE
5
31B
100
AcDbEntity
8
0
100
AcDbLine
62
7
6
CONTINUOUS
10
-542.0979614328
20
-49.3773333064
11
-542.1121102715
21
-49.3760954435
0
LINE
5
31C
100
AcDbEntity
8
0
100
AcDbLine
62
7
6
CONTINUOUS
10
-541.8861945950
20
-47.8958605041
11
-542.1121102715
21
-47.8760954435
0
LINE
5
31D
100
AcDbEntity
8
0
100
AcDbLine
62
7
6
CONTINUOUS
10
-572.8557466925
20
-54.5458605041
11
-571.8557466925
21
-55.1125271707
0
LINE
5
31E
100
AcDbEntity
8
0
100
AcDbLine
62
7
6
CONTINUOUS
10
-578.8557466925
20
-43.8958605041
11
-576.8557466925
21
-45.5958605041
0
LINE
5
31F
100
AcDbEntity
8
0
100
AcDbLine
62
7
6
CONTINUOUS
10
-571.8557466925
20
-56.8958605041
11
-570.2557466925
21
-58.3958605041
0
LINE
5
320
100
AcDbEntity
8
0
100
AcDbLine
62
7
6
CONTINUOUS
10
-585.9057466925
20
-36.7458605041
11
-580.8557466925
21
-41.7958605041
0
LINE
5
321
100
AcDbEntity
8
0
100
AcDbLine
62
9
6
CONTINUOUS
10
-566.3557466925
20
156.1041394959
11
-566.3557466925
21
-250.8958605041
0
LINE
5
322
100
AcDbEntity
8
0
100
AcDbLine
62
7
6
CONTINUOUS
10
-565.7557466925
20
156.1041394959
11
-565.7557466925
21
156.6041394959
0
LINE
5
323
100
AcDbEntity
8
0
100
AcDbLine
62
7
6
CONTINUOUS
10
-565.7557466925
20
-250.8958605041
11
-565.7557466925
21
-251.3958605041
0
LINE
5
324
100
AcDbEntity
8
0
100
AcDbLine
62
7
6
CONTINUOUS
10
-564.3557466925
20
-263.8958605041
11
-564.3557466925
21
-255.6958605041
0
LINE
5
325
100
AcDbEntity
8
0
100
AcDbLine
62
7
6
CONTINUOUS
10
-564.3557466925
20
169.1041394959
11
-564.3557466925
21
160.9041394959
0
LINE
5
326
100
AcDbEntity
8
0
100
AcDbLine
62
7
6
CONTINUOUS
10
-559.3557466925
20
-263.8958605041
11
-559.3557466925
21
-255.6958605041
0
LINE
5
327
100
AcDbEntity
8
0
100
AcDbLine
62
7
6
CONTINUOUS
10
-559.3557466925
20
169.1041394959
11
-559.3557466925
21
160.9041394959
0
LINE
5
328
100
AcDbEntity
8
0
100
AcDbLine
62
7
6
CONTINUOUS
10
-557.9557466925
20
156.1041394959
11
-557.9557466925
21
156.6041394959
0
LINE
5
329
100
AcDbEntity
8
0
100
AcDbLine
62
7
6
CONTINUOUS
10
-557.9557466925
20
-250.8958605041
11
-557.9557466925
21
-251.3958605041
0
LINE
5
32A
100
AcDbEntity
8
0
100
AcDbLine
62
7
6
CONTINUOUS
10
-554.3557466925
20
158.1041394959
11
-554.3557466925
21
160.9041394959
0
LINE
5
32B
100
AcDbEntity
8
0
100
AcDbLine
62
7
6
CONTINUOUS
10
-554.3557466925
20
-252.8958605041
11
-554.3557466925
21
-255.6958605041
0
LINE
5
32C
100
AcDbEntity
8
0
100
AcDbLine
62
9
6
CONTINUOUS
10
-552.3557466925
20
-252.8958605041
11
-552.3557466925
21
-251.3958605041
0
LINE
5
32D
100
AcDbEntity
8
0
100
AcDbLine
62
9
6
CONTINUOUS
10
-552.3557466925
20
156.1041394959
11
-552.3557466925
21
-250.8958605041
0
LINE
5
32E
100
AcDbEntity
8
0
100
AcDbLine
62
9
6
CONTINUOUS
10
-552.3557466925
20
156.6041394959
11
-552.3557466925
21
158.1041394959
0
LINE
5
32F
100
AcDbEntity
8
0
100
AcDbLine
62
7
6
CONTINUOUS
10
-544.3557466925
20
-44.8958605041
11
-544.1957466925
21
-44.8958605041
0
LINE
5
330
100
AcDbEntity
8
0
100
AcDbLine
62
7
6
CONTINUOUS
10
-599.6557466925
20
-43.8958605041
11
-597.9557466925
21
-43.8958605041
0
LINE
5
331
100
AcDbEntity
8
0
100
AcDbLine
62
7
6
CONTINUOUS
10
-580.8557466925
20
-43.8958605041
11
-578.8557466925
21
-43.8958605041
0
LINE
5
332
100
AcDbEntity
8
0
100
AcDbLine
62
7
6
CONTINUOUS
10
-544.3557466925
20
-43.3958605041
11
-547.8557466925
21
-43.3958605041
0
LINE
5
333
100
AcDbEntity
8
0
100
AcDbLine
62
7
6
CONTINUOUS
10
-550.3557466925
20
-42.9958605041
11
-547.8557466925
21
-42.9958605041
0
LINE
5
334
100
AcDbEntity
8
0
100
AcDbLine
62
7
6
CONTINUOUS
10
-544.1957466925
20
-42.8958605041
11
-543.1957466925
21
-42.8958605041
0
LINE
5
335
100
AcDbEntity
8
0
100
AcDbLine
62
7
6
CONTINUOUS
10
-547.6781453613
20
-41.2770370878
11
-545.5974069516
21
-41.2770370878
0
LINE
5
336
100
AcDbEntity
8
0
100
AcDbLine
62
7
6
CONTINUOUS
10
-550.3557466925
20
-38.0458605041
11
-547.8557466925
21
-38.0458605041
0
LINE
5
337
100
AcDbEntity
8
0
100
AcDbLine
62
7
6
CONTINUOUS
10
-593.4057466925
20
-36.7458605041
11
-585.9057466925
21
-36.7458605041
0
LINE
5
338
100
AcDbEntity
8
0
100
AcDbLine
62
7
6
CONTINUOUS
10
-570.2557466925
20
-36.3958605041
11
-568.3557466925
21
-36.3958605041
0
LINE
5
339
100
AcDbEntity
8
0
100
AcDbLine
62
7
6
CONTINUOUS
10
-545.7319585226
20
-34.4958605041
11
-543.6512201129
21
-34.4958605041
0
LINE
5
33A
100
AcDbEntity
8
0
100
AcDbLine
62
7
6
CONTINUOUS
10
-545.2727610805
20
-32.8958605041
11
-543.1920226708
21
-32.8958605041
0
LINE
5
33B
100
AcDbEntity
8
0
100
AcDbLine
62
7
6
CONTINUOUS
10
-550.3557466925
20
-252.8958605041
11
-550.3557466925
21
-251.3958605041
0
LINE
5
33C
100
AcDbEntity
8
0
100
AcDbLine
62
7
6
CONTINUOUS
10
-550.3557466925
20
156.1041394959
11
-550.3557466925
21
-250.8958605041
0
LINE
5
33D
100
AcDbEntity
8
0
100
AcDbLine
62
7
6
CONTINUOUS
10
-550.3557466925
20
156.6041394959
11
-550.3557466925
21
158.1041394959
0
LINE
5
33E
100
AcDbEntity
8
0
100
AcDbLine
62
9
6
CONTINUOUS
10
-550.1557466925
20
81.3541394959
11
-550.1557466925
21
88.8541394959
0
LINE
5
33F
100
AcDbEntity
8
0
100
AcDbLine
62
9
6
CONTINUOUS
10
-550.1557466925
20
96.3541394959
11
-550.1557466925
21
103.8541394959
0
LINE
5
340
100
AcDbEntity
8
0
100
AcDbLine
62
9
6
CONTINUOUS
10
-550.1557466925
20
-176.1458605041
11
-550.1557466925
21
-183.6458605041
0
LINE
5
341
100
AcDbEntity
8
0
100
AcDbLine
62
9
6
CONTINUOUS
10
-550.1557466925
20
-191.1458605041
11
-550.1557466925
21
-198.6458605041
0
LINE
5
342
100
AcDbEntity
8
0
100
AcDbLine
62
9
6
CONTINUOUS
10
-550.0340075620
20
81.3954587343
11
-550.0340075620
21
88.8128202576
0
LINE
5
343
100
AcDbEntity
8
0
100
AcDbLine
62
9
6
CONTINUOUS
10
-550.0340075620
20
96.3954587343
11
-550.0340075620
21
103.8128202576
0
LINE
5
344
100
AcDbEntity
8
0
100
AcDbLine
62
9
6
CONTINUOUS
10
-550.0340075620
20
-176.1871797424
11
-550.0340075620
21
-183.6045412657
0
LINE
5
345
100
AcDbEntity
8
0
100
AcDbLine
62
9
6
CONTINUOUS
10
-550.0340075620
20
-191.1871797424
11
-550.0340075620
21
-198.6045412657
0
LINE
5
346
100
AcDbEntity
8
0
100
AcDbLine
62
7
6
CONTINUOUS
10
-549.0557466925
20
-196.6210317450
11
-549.0557466925
21
-193.1706892632
0
LINE
5
347
100
AcDbEntity
8
0
100
AcDbLine
62
7
6
CONTINUOUS
10
-549.0557466925
20
-181.6210317450
11
-549.0557466925
21
-178.1706892632
0
LINE
5
348
100
AcDbEntity
8
0
100
AcDbLine
62
7
6
CONTINUOUS
10
-549.0557466925
20
83.3789682550
11
-549.0557466925
21
86.8292805833
0
LINE
5
349
100
AcDbEntity
8
0
100
AcDbLine
62
7
6
CONTINUOUS
10
-549.0557466925
20
98.3789682550
11
-549.0557466925
21
101.8292805833
0
LINE
5
34A
100
AcDbEntity
8
0
100
AcDbLine
62
7
6
CONTINUOUS
10
-547.8557466925
20
-38.0458605041
11
-547.8557466925
21
-56.7456933040
0
LINE
5
34B
100
AcDbEntity
8
0
100
AcDbLine
62
7
6
CONTINUOUS
10
-545.8557466925
20
-42.1771805717
11
-545.8557466925
21
-55.8957084158
0
LINE
5
34C
100
AcDbEntity
8
0
100
AcDbLine
62
7
6
CONTINUOUS
10
-544.3557466925
20
-51.3958605041
11
-544.3557466925
21
-43.3958605041
0
LINE
5
34D
100
AcDbEntity
8
0
100
AcDbLine
62
7
6
CONTINUOUS
10
-544.1957466925
20
-51.8958605041
11
-544.1957466925
21
-42.8958605041
0
LINE
5
34E
100
AcDbEntity
8
0
100
AcDbLine
62
7
6
CONTINUOUS
10
-543.1957466925
20
-51.8958605041
11
-543.1957466925
21
-42.8958605041
0
LINE
5
34F
100
AcDbEntity
8
0
100
AcDbLine
62
7
6
CONTINUOUS
10
-539.7781411566
20
-13.7507367042
11
-547.8557466925
21
-41.8958605041
0
LINE
5
350
100
AcDbEntity
8
0
100
AcDbLine
62
7
6
CONTINUOUS
10
-537.8557466925
20
-14.3024608421
11
-545.8557466925
21
-42.1771805717
0
LINE
5
351
100
AcDbEntity
8
0
100
AcDbLine
62
7
6
CONTINUOUS
10
-540.1807628896
20
-15.1536076999
11
-538.2583684255
21
-15.7053318378
0
LINE
5
352
100
AcDbEntity
8
0
100
AcDbLine
62
7
6
CONTINUOUS
10
-539.7781411566
20
-13.7507367042
11
-537.8557466925
21
-14.3024608421
0
LINE
5
353
100
AcDbEntity
8
0
100
AcDbLine
62
7
6
CONTINUOUS
10
-550.1557466925
20
81.3541394959
11
-550.3557466925
21
81.3541394959
0
LINE
5
354
100
AcDbEntity
8
0
100
AcDbLine
62
7
6
CONTINUOUS
10
-550.1557466925
20
88.8541394959
11
-550.3557466925
21
88.8541394959
0
LINE
5
355
100
AcDbEntity
8
0
100
AcDbLine
62
7
6
CONTINUOUS
10
-550.1557466925
20
96.3541394959
11
-550.3557466925
21
96.3541394959
0
LINE
5
356
100
AcDbEntity
8
0
100
AcDbLine
62
7
6
CONTINUOUS
10
-560.1557466925
20
-264.6958605041
11
-559.3557466925
21
-263.8958605041
0
LINE
5
357
100
AcDbEntity
8
0
100
AcDbLine
62
7
6
CONTINUOUS
10
-550.1557466925
20
103.8541394959
11
-550.3557466925
21
103.8541394959
0
LINE
5
358
100
AcDbEntity
8
0
100
AcDbLine
62
7
6
CONTINUOUS
10
-560.1557466925
20
169.9041394959
11
-559.3557466925
21
169.1041394959
0
LINE
5
359
100
AcDbEntity
8
0
100
AcDbLine
62
7
6
CONTINUOUS
10
-550.3557466925
20
156.1041394959
11
-568.3557466925
21
156.1041394959
0
LINE
5
35A
100
AcDbEntity
8
0
100
AcDbLine
62
7
6
CONTINUOUS
10
-550.3557466925
20
156.6041394959
11
-566.3557466925
21
156.6041394959
0
LINE
5
35B
100
AcDbEntity
8
0
100
AcDbLine
62
7
6
CONTINUOUS
10
-550.3557466925
20
158.1041394959
11
-569.3557145094
21
158.1041394959
0
LINE
5
35C
100
AcDbEntity
8
0
100
AcDbLine
62
7
6
CONTINUOUS
10
-554.3557788755
20
160.9041394959
11
-569.3557145094
21
160.9041394959
0
LINE
5
35D
100
AcDbEntity
8
0
100
AcDbLine
62
7
6
CONTINUOUS
10
-559.3557466925
20
169.1041394959
11
-564.3557466925
21
169.1041394959
0
LINE
5
35E
100
AcDbEntity
8
0
100
AcDbLine
62
7
6
CONTINUOUS
10
-560.1560099839
20
169.9041394959
11
-563.5554834011
21
169.9041394959
0
CIRCLE
5
35F
100
AcDbEntity
8
0
100
AcDbCircle
62
7
6
CONTINUOUS
10
-423.5964738779
20
-47.3958605041
40
11.0000000000
0
ARC
5
360
100
AcDbEntity
8
0
100
AcDbCircle
62
7
6
CONTINUOUS
10
-423.5964738779
20
-47.3958605041
40
8.5000000000
100
AcDbArc
50
96.7565375415
51
263.2434624585
0
ARC
5
361
100
AcDbEntity
8
0
100
AcDbCircle
62
7
6
CONTINUOUS
10
-423.5964738779
20
-47.3958605041
40
8.5000000000
100
AcDbArc
50
276.7565375415
51
83.2434624585
0
ARC
5
362
100
AcDbEntity
8
0
100
AcDbCircle
62
7
6
CONTINUOUS
10
-423.5964738779
20
-47.3958605041
40
3.2500000000
100
AcDbArc
50
108.8491065923
51
252.0797868606
0
ARC
5
363
100
AcDbEntity
8
0
100
AcDbCircle
62
7
6
CONTINUOUS
10
-423.5964738779
20
-47.3958605041
40
9.5000000000
100
AcDbArc
50
96.0445657952
51
263.9554342048
0
ARC
5
364
100
AcDbEntity
8
0
100
AcDbCircle
62
7
6
CONTINUOUS
10
-423.5964738779
20
-47.3958605041
40
9.5000000000
100
AcDbArc
50
276.0445657952
51
83.9554342048
0
ARC
5
365
100
AcDbEntity
8
0
100
AcDbCircle
62
7
6
CONTINUOUS
10
-423.5964738779
20
-47.3958605041
40
3.2500000000
100
AcDbArc
50
287.9202131394
51
71.1508934077
0
ARC
5
366
100
AcDbEntity
8
0
100
AcDbCircle
62
7
6
CONTINUOUS
10
-423.5964738779
20
-47.3958605041
40
8.0000000000
100
AcDbArc
50
97.1809481452
51
262.8190518548
0
ARC
5
367
100
AcDbEntity
8
0
100
AcDbCircle
62
7
6
CONTINUOUS
10
-423.5964738779
20
-47.3958605041
40
8.0000000000
100
AcDbArc
50
277.1809481452
51
82.8190518548
0
ARC
5
368
100
AcDbEntity
8
0
100
AcDbCircle
62
7
6
CONTINUOUS
10
-423.5964738779
20
-47.3958605041
40
7.1500000000
100
AcDbArc
50
98.0439709356
51
261.9560290644
0
ARC
5
369
100
AcDbEntity
8
0
100
AcDbCircle
62
7
6
CONTINUOUS
10
-423.5964738779
20
-47.3958605041
40
7.1500000000
100
AcDbArc
50
278.0439709356
51
81.9560290644
0
ARC
5
36A
100
AcDbEntity
8
0
100
AcDbCircle
62
7
6
CONTINUOUS
10
-550.1557466925
20
-183.4458605041
40
0.2000000000
100
AcDbArc
50
270.0000000000
51
307.4952497646
0
ARC
5
36B
100
AcDbEntity
8
0
100
AcDbCircle
62
7
6
CONTINUOUS
10
-551.5557466925
20
-181.6210317450
40
2.5000000000
100
AcDbArc
50
307.4952497646
51
360.0000000000
0
ARC
5
36C
100
AcDbEntity
8
0
100
AcDbCircle
62
7
6
CONTINUOUS
10
-551.5557466925
20
-178.1706892632
40
2.5000000000
100
AcDbArc
50
0.0000000000
51
52.5047502354
0
ARC
5
36D
100
AcDbEntity
8
0
100
AcDbCircle
62
7
6
CONTINUOUS
10
-550.1557466925
20
-176.3458605041
40
0.2000000000
100
AcDbArc
50
52.5047502354
51
90.0000000000
0
ARC
5
36E
100
AcDbEntity
8
0
100
AcDbCircle
62
7
6
CONTINUOUS
10
-550.1557466925
20
-198.4458605041
40
0.2000000000
100
AcDbArc
50
270.0000000000
51
307.4952497646
0
ARC
5
36F
100
AcDbEntity
8
0
100
AcDbCircle
62
7
6
CONTINUOUS
10
-551.5557466925
20
-196.6210317450
40
2.5000000000
100
AcDbArc
50
307.4952497646
51
360.0000000000
0
ARC
5
370
100
AcDbEntity
8
0
100
AcDbCircle
62
7
6
CONTINUOUS
10
-551.5557466925
20
-193.1706892632
40
2.5000000000
100
AcDbArc
50
0.0000000000
51
52.5047502354
0
ARC
5
371
100
AcDbEntity
8
0
100
AcDbCircle
62
7
6
CONTINUOUS
10
-550.1557466925
20
-191.3458605041
40
0.2000000000
100
AcDbArc
50
52.5047502354
51
90.0000000000
0
ARC
5
372
100
AcDbEntity
8
0
100
AcDbCircle
62
7
6
CONTINUOUS
10
-550.1557466925
20
81.5541394959
40
0.2000000000
100
AcDbArc
50
270.0000000000
51
307.4952497646
0
ARC
5
373
100
AcDbEntity
8
0
100
AcDbCircle
62
7
6
CONTINUOUS
10
-551.5557466925
20
83.3789682550
40
2.5000000000
100
AcDbArc
50
307.4952497646
51
360.0000000000
0
ARC
5
374
100
AcDbEntity
8
0
100
AcDbCircle
62
7
6
CONTINUOUS
10
-551.5557466925
20
86.8293107368
40
2.5000000000
100
AcDbArc
50
0.0000000000
51
52.5047502354
0
ARC
5
375
100
AcDbEntity
8
0
100
AcDbCircle
62
7
6
CONTINUOUS
10
-550.1557466925
20
88.6541394959
40
0.2000000000
100
AcDbArc
50
52.5047502354
51
90.0000000000
0
ARC
5
376
100
AcDbEntity
8
0
100
AcDbCircle
62
7
6
CONTINUOUS
10
-550.1557466925
20
96.5541394959
40
0.2000000000
100
AcDbArc
50
270.0000000000
51
307.4952497646
0
ARC
5
377
100
AcDbEntity
8
0
100
AcDbCircle
62
7
6
CONTINUOUS
10
-551.5557466925
20
98.3789682550
40
2.5000000000
100
AcDbArc
50
307.4952497646
51
360.0000000000
0
ARC
5
378
100
AcDbEntity
8
0
100
AcDbCircle
62
7
6
CONTINUOUS
10
-551.5557466925
20
101.8293107368
40
2.5000000000
100
AcDbArc
50
0.0000000000
51
52.5047502354
0
ARC
5
379
100
AcDbEntity
8
0
100
AcDbCircle
62
7
6
CONTINUOUS
10
-550.1557466925
20
103.6541394959
40
0.2000000000
100
AcDbArc
50
52.5047502354
51
90.0000000000
0
ARC
5
37A
100
AcDbEntity
8
0
100
AcDbCircle
62
7
6
CONTINUOUS
10
-550.0817168417
20
-47.3958605041
40
8.2259701493
100
AcDbArc
50
13.9384924695
51
33.1647238820
0
ARC
5
37B
100
AcDbEntity
8
0
100
AcDbCircle
62
7
6
CONTINUOUS
10
-550.0817168417
20
-47.3958605041
40
8.2259701493
100
AcDbArc
50
326.8352761180
51
346.0615075305
0
ARC
5
37C
100
AcDbEntity
8
0
100
AcDbCircle
62
7
6
CONTINUOUS
10
-566.3557466925
20
-250.8958605041
40
0.5000000000
100
AcDbArc
50
180.0000000000
51
270.0000000000
0
ARC
5
37D
100
AcDbEntity
8
0
100
AcDbCircle
62
7
6
CONTINUOUS
10
-566.3557466925
20
-250.8958605041
40
2.0000000000
100
AcDbArc
50
180.0000000000
51
270.0000000000
0
ARC
5
37E
100
AcDbEntity
8
0
100
AcDbCircle
62
7
6
CONTINUOUS
10
-566.3557466925
20
156.1041394959
40
2.0000000000
100
AcDbArc
50
90.0000000000
51
180.0000000000
0
ARC
5
37F
100
AcDbEntity
8
0
100
AcDbCircle
62
7
6
CONTINUOUS
10
-566.3557466925
20
156.1041394959
40
0.5000000000
100
AcDbArc
50
90.0000000000
51
180.0000000000
0
SPLINE
5
380
100
AcDbEntity
8
0
100
AcDbSpline
62
7
6
CONTINUOUS
70
0
71
3
72
15
73
11
74
9
42
0.0000001000
43
0.0000001000
44
0.0000000001
12
-9.2495333471
22
11.8058414842
32
0.0000000000
13
-1.7101380416
23
-14.8999056429
33
0.0000000000
40
0.0000000000
40
0.0000000000
40
0.0000000000
40
0.0000000000
40
0.1237842683
40
0.2518614093
40
0.3775163904
40
0.5021094675
40
0.6264536826
40
0.7529090833
40
0.8810056360
40
1.0000000000
40
1.0000000000
40
1.0000000000
40
1.0000000000
10
-431.7650405990
20
-106.2576417677
30
0.0000000000
10
-432.1466895049
20
-105.7705159509
30
0.0000000000
10
-433.0830529595
20
-104.8982495725
30
0.0000000000
10
-434.7882718544
20
-104.0305371327
30
0.0000000000
10
-436.6798792283
20
-103.7070103215
30
0.0000000000
10
-438.5670824300
20
-103.9332421396
30
0.0000000000
10
-440.3005165239
20
-104.7242183800
30
0.0000000000
10
-441.7448460705
20
-105.9914857006
30
0.0000000000
10
-442.7463518207
20
-107.5971111979
30
0.0000000000
10
-443.0893696973
20
-108.8055951725
30
0.0000000000
10
-443.1572019601
20
-109.3965967709
30
0.0000000000
11
-431.7650405990
21
-106.2576417677
31
0.0000000000
11
-433.1157121488
21
-104.9839803513
31
0.0000000000
11
-434.8304391976
21
-104.1182803929
31
0.0000000000
11
-436.6875906111
21
-103.7981626197
31
0.0000000000
11
-438.5421227897
21
-104.0271253464
31
0.0000000000
11
-440.2410964604
21
-104.7960643832
31
0.0000000000
11
-441.6675490879
21
-106.0459081981
31
0.0000000000
11
-442.6849003577
21
-107.6755830745
31
0.0000000000
11
-443.1572019601
21
-109.3965967709
31
0.0000000000
0
SPLINE
5
381
100
AcDbEntity
8
0
100
AcDbSpline
62
7
6
CONTINUOUS
70
0
71
3
72
10
73
6
74
4
42
0.0000001000
43
0.0000001000
44
0.0000000001
12
-0.8061526890
22
2.2960198391
32
0.0000000000
13
-1.4199897882
23
1.9761625088
33
0.0000000000
40
0.0000000000
40
0.0000000000
40
0.0000000000
40
0.0000000000
40
0.3502736528
40
0.6839171528
40
1.0000000000
40
1.0000000000
40
1.0000000000
40
1.0000000000
10
-430.6635032915
20
-108.4193021528
30
0.0000000000
10
-430.7576279739
20
-108.1512237341
30
0.0000000000
10
-430.9632127580
20
-107.6350508643
30
0.0000000000
10
-431.3310713629
20
-106.9108962057
30
0.0000000000
10
-431.6154291272
20
-106.4658521251
30
0.0000000000
10
-431.7650405990
20
-106.2576417677
30
0.0000000000
11
-430.6635032915
21
-108.4193021528
31
0.0000000000
11
-430.9802778397
21
-107.6279846848
31
0.0000000000
11
-431.3494899256
21
-106.9048928368
31
0.0000000000
11
-431.7650405990
21
-106.2576417677
31
0.0000000000
0
SPLINE
5
382
100
AcDbEntity
8
0
100
AcDbSpline
62
7
6
CONTINUOUS
70
0
71
3
72
10
73
6
74
4
42
0.0000001000
43
0.0000001000
44
0.0000000001
12
2.0215068733
22
-1.7762945011
32
0.0000000000
13
0.0595527691
23
-2.6903839244
33
0.0000000000
40
0.0000000000
40
0.0000000000
40
0.0000000000
40
0.0000000000
40
0.3138977147
40
0.6639247660
40
1.0000000000
40
1.0000000000
40
1.0000000000
40
1.0000000000
10
-434.7172255465
20
-108.3153605565
30
0.0000000000
10
-434.5057100839
20
-108.5012188180
30
0.0000000000
10
-434.1190180782
20
-108.9662266413
30
0.0000000000
10
-433.7405125222
20
-109.7893085487
30
0.0000000000
10
-433.6325101891
20
-110.4046268020
30
0.0000000000
10
-433.6258387855
20
-110.7060172710
30
0.0000000000
11
-434.7172255465
21
-108.3153605565
31
0.0000000000
11
-434.1703255559
21
-108.9591300484
31
0.0000000000
11
-433.7747124738
21
-109.8139617085
31
0.0000000000
11
-433.6258387855
21
-110.7060172710
31
0.0000000000
0
SPLINE
5
383
100
AcDbEntity
8
0
100
AcDbSpline
62
7
6
CONTINUOUS
70
0
71
3
72
14
73
10
74
8
42
0.0000001000
43
0.0000001000
44
0.0000000001
12
0.4815658925
22
6.8546793871
32
0.0000000000
13
5.0536373579
23
-4.6561018743
33
0.0000000000
40
0.0000000000
40
0.0000000000
40
0.0000000000
40
0.0000000000
40
0.1380787810
40
0.2917770923
40
0.4407302215
40
0.5806782847
40
0.7290067215
40
0.8734527028
40
1.0000000000
40
1.0000000000
40
1.0000000000
40
1.0000000000
10
-439.9350124754
20
-110.3941924821
30
0.0000000000
10
-439.9128477983
20
-110.0786972240
30
0.0000000000
10
-439.7398131566
20
-109.4175301514
30
0.0000000000
10
-439.1805830112
20
-108.5589457047
30
0.0000000000
10
-438.3823646474
20
-107.9020073536
30
0.0000000000
10
-437.4171978205
20
-107.5716838557
30
0.0000000000
10
-436.4128143172
20
-107.5462462830
30
0.0000000000
10
-435.4698374654
20
-107.7851679046
30
0.0000000000
10
-434.9304002626
20
-108.1189548540
30
0.0000000000
10
-434.7172255465
20
-108.3153605565
30
0.0000000000
11
-439.9350124754
21
-110.3941924821
31
0.0000000000
11
-439.7049146827
21
-109.4736970813
31
0.0000000000
11
-439.1328338219
21
-108.5859048680
31
0.0000000000
11
-438.3350991979
21
-107.9446102791
31
0.0000000000
11
-437.4279778181
21
-107.6253493304
31
0.0000000000
11
-436.4092333974
21
-107.5932533547
31
0.0000000000
11
-435.4494679942
21
-107.8463307772
31
0.0000000000
11
-434.7172255465
21
-108.3153605565
31
0.0000000000
0
SPLINE
5
384
100
AcDbEntity
8
0
100
AcDbSpline
62
7
6
CONTINUOUS
70
0
71
3
72
10
73
6
74
4
42
0.0000001000
43
0.0000001000
44
0.0000000001
12
-2.2083941305
22
-3.5763123252
32
0.0000000000
13
-4.1873624310
23
-0.3647058462
33
0.0000000000
40
0.0000000000
40
0.0000000000
40
0.0000000000
40
0.0000000000
40
0.2884313308
40
0.5985589727
40
1.0000000000
40
1.0000000000
40
1.0000000000
40
1.0000000000
10
-426.2660104801
20
57.7200840955
30
0.0000000000
10
-426.4783338328
20
57.3762439211
30
0.0000000000
10
-427.0399150673
20
56.7276258697
30
0.0000000000
10
-428.2894583831
20
56.0414986622
30
0.0000000000
10
-429.2842808209
20
55.8530274364
30
0.0000000000
10
-429.8446071796
20
55.8042248065
30
0.0000000000
11
-426.2660104801
21
57.7200840955
31
0.0000000000
11
-427.0628290891
21
56.8063852672
31
0.0000000000
11
-428.1954338862
21
56.1610908498
31
0.0000000000
11
-429.8446071796
21
55.8042248065
31
0.0000000000
0
SPLINE
5
385
100
AcDbEntity
8
0
100
AcDbSpline
62
7
6
CONTINUOUS
70
0
71
3
72
10
73
6
74
4
42
0.0000001000
43
0.0000001000
44
0.0000000001
12
0.0000000000
22
-4.7219738803
32
0.0000000000
13
-2.4809532581
23
-4.0176993737
33
0.0000000000
40
0.0000000000
40
0.0000000000
40
0.0000000000
40
0.0000000000
40
0.4103447156
40
0.7351948679
40
1.0000000000
40
1.0000000000
40
1.0000000000
40
1.0000000000
10
-425.2281778209
20
62.2726568754
30
0.0000000000
10
-425.2281778209
20
61.6267778658
30
0.0000000000
10
-425.2963274293
20
60.4663073016
30
0.0000000000
10
-425.6542655788
20
58.9249606448
30
0.0000000000
10
-426.0470207618
20
58.0747198999
30
0.0000000000
10
-426.2660104801
20
57.7200840955
30
0.0000000000
11
-425.2281778209
21
62.2726568754
31
0.0000000000
11
-425.3650012444
21
60.3398566772
31
0.0000000000
11
-425.7309038383
21
58.8502028223
31
0.0000000000
11
-426.2660104801
21
57.7200840955
31
0.0000000000
0
SPLINE
5
386
100
AcDbEntity
8
0
100
AcDbSpline
62
7
6
CONTINUOUS
70
0
71
3
72
10
73
6
74
4
42
0.0000001000
43
0.0000001000
44
0.0000000001
12
2.1281985819
22
-3.7436952161
32
0.0000000000
13
-0.0000000000
23
-4.3063305813
33
0.0000000000
40
0.0000000000
40
0.0000000000
40
0.0000000000
40
0.0000000000
40
0.2677911861
40
0.5935032745
40
1.0000000000
40
1.0000000000
40
1.0000000000
40
1.0000000000
10
-426.1274725777
20
66.4411560913
30
0.0000000000
10
-425.9375016368
20
66.1069798972
30
0.0000000000
10
-425.5985154777
20
65.3181638925
30
0.0000000000
10
-425.2883813265
20
63.9098495635
30
0.0000000000
10
-425.2281778209
20
62.8561599688
30
0.0000000000
10
-425.2281778209
20
62.2726568754
30
0.0000000000
11
-426.1274725777
21
66.4411560913
31
0.0000000000
11
-425.6631371956
21
65.3855724439
31
0.0000000000
11
-425.3464571995
21
64.0191656011
31
0.0000000000
11
-425.2281778209
21
62.2726568754
31
0.0000000000
0
SPLINE
5
387
100
AcDbEntity
8
0
100
AcDbSpline
62
7
6
CONTINUOUS
70
0
71
3
72
10
73
6
74
4
42
0.0000001000
43
0.0000001000
44
0.0000000001
12
3.1078787974
22
0.0000000000
32
0.0000000000
13
1.5359209249
23
-2.7018248521
33
0.0000000000
40
0.0000000000
40
0.0000000000
40
0.0000000000
40
0.0000000000
40
0.3173139484
40
0.6223473328
40
1.0000000000
40
1.0000000000
40
1.0000000000
40
1.0000000000
10
-428.6361885719
20
68.0241841848
30
0.0000000000
10
-428.3074641411
20
68.0241841848
30
0.0000000000
10
-427.6530743930
20
67.9206342411
30
0.0000000000
10
-426.7528158782
20
67.3614664571
30
0.0000000000
10
-426.3208207890
20
66.7812732119
30
0.0000000000
10
-426.1274725777
20
66.4411560913
30
0.0000000000
11
-428.6361885719
21
68.0241841848
31
0.0000000000
11
-427.6646283563
21
67.8550436814
31
0.0000000000
11
-426.8546464689
21
67.3624523577
31
0.0000000000
11
-426.1274725777
21
66.4411560913
31
0.0000000000
0
SPLINE
5
388
100
AcDbEntity
8
0
100
AcDbSpline
62
7
6
CONTINUOUS
70
0
71
3
72
10
73
6
74
4
42
0.0000001000
43
0.0000001000
44
0.0000000001
12
1.1426340142
22
1.0353673591
32
0.0000000000
13
1.5419461919
23
0.0000000000
33
0.0000000000
40
0.0000000000
40
0.0000000000
40
0.0000000000
40
0.0000000000
40
0.3412219247
40
0.6614181329
40
1.0000000000
40
1.0000000000
40
1.0000000000
40
1.0000000000
10
-430.0440479097
20
67.4796937607
30
0.0000000000
10
-429.9140839838
20
67.5974571083
30
0.0000000000
10
-429.6350150741
20
67.7987186524
30
0.0000000000
10
-429.1507713299
20
67.9857914531
30
0.0000000000
10
-428.8102135788
20
68.0241841848
30
0.0000000000
10
-428.6361885719
20
68.0241841848
30
0.0000000000
11
-430.0440479097
21
67.4796937607
31
0.0000000000
11
-429.6151735655
21
67.7844826214
31
0.0000000000
11
-429.1545838237
21
67.9623077749
31
0.0000000000
11
-428.6361885719
21
68.0241841848
31
0.0000000000
0
SPLINE
5
389
100
AcDbEntity
8
0
100
AcDbSpline
62
7
6
CONTINUOUS
70
0
71
3
72
10
73
6
74
4
42
0.0000001000
43
0.0000001000
44
0.0000000001
12
0.4758711817
22
0.8825242708
32
0.0000000000
13
0.7429957066
23
0.6732457576
33
0.0000000000
40
0.0000000000
40
0.0000000000
40
0.0000000000
40
0.0000000000
40
0.3218075216
40
0.6506140476
40
1.0000000000
40
1.0000000000
40
1.0000000000
40
1.0000000000
10
-430.6634031853
20
66.6967654879
30
0.0000000000
10
-430.6123568768
20
66.7914331374
30
0.0000000000
10
-430.4980438144
20
66.9770820506
30
0.0000000000
10
-430.2906827315
20
67.2400404913
30
0.0000000000
10
-430.1305786639
20
67.4012862239
30
0.0000000000
10
-430.0440479097
20
67.4796937607
30
0.0000000000
11
-430.6634031853
21
66.6967654879
31
0.0000000000
11
-430.4942339997
21
66.9715217287
31
0.0000000000
11
-430.2903727403
21
67.2306116518
31
0.0000000000
11
-430.0440479097
21
67.4796937607
31
0.0000000000
0
SPLINE
5
38A
100
AcDbEntity
8
0
100
AcDbSpline
62
7
6
CONTINUOUS
70
0
71
3
72
10
73
6
74
4
42
0.0000001000
43
0.0000001000
44
0.0000000001
12
0.9090503609
22
5.3928429790
32
0.0000000000
13
2.5956307209
23
4.8137126125
33
0.0000000000
40
0.0000000000
40
0.0000000000
40
0.0000000000
40
0.0000000000
40
0.4839918488
40
0.8035115004
40
1.0000000000
40
1.0000000000
40
1.0000000000
40
1.0000000000
10
-431.9979675506
20
61.4077697081
30
0.0000000000
10
-431.8513098956
20
62.2778003893
30
0.0000000000
10
-431.5877602023
20
63.7202411586
30
0.0000000000
10
-431.1519305711
20
65.4892676125
30
0.0000000000
10
-430.8334070473
20
66.3814857651
30
0.0000000000
10
-430.6634031853
20
66.6967654879
30
0.0000000000
11
-431.9979675506
21
61.4077697081
31
0.0000000000
11
-431.5023773666
21
64.0078749088
31
0.0000000000
11
-431.0624090132
21
65.6990090549
31
0.0000000000
11
-430.6634031853
21
66.6967654879
31
0.0000000000
0
SPLINE
5
38B
100
AcDbEntity
8
0
100
AcDbSpline
62
7
6
CONTINUOUS
70
0
71
3
72
10
73
6
74
4
42
0.0000001000
43
0.0000001000
44
0.0000000001
12
3.2411894598
22
5.4577433665
32
0.0000000000
13
1.0551080719
23
6.2593145572
33
0.0000000000
40
0.0000000000
40
0.0000000000
40
0.0000000000
40
0.0000000000
40
0.2088630087
40
0.5294548136
40
1.0000000000
40
1.0000000000
40
1.0000000000
40
1.0000000000
10
-433.6835912381
20
55.3124091225
30
0.0000000000
10
-433.4579363773
20
55.6923826892
30
0.0000000000
10
-433.0297928212
20
56.7367376614
30
0.0000000000
10
-432.4756227937
20
58.7793284738
30
0.0000000000
10
-432.1634595587
20
60.4260062631
30
0.0000000000
10
-431.9979675506
20
61.4077697081
30
0.0000000000
11
-433.6835912381
21
55.3124091225
31
0.0000000000
11
-433.1411098371
21
56.5221256920
31
0.0000000000
11
-432.5794558988
21
58.4780777616
31
0.0000000000
11
-431.9979675506
21
61.4077697081
31
0.0000000000
0
SPLINE
5
38C
100
AcDbEntity
8
0
100
AcDbSpline
62
7
6
CONTINUOUS
70
0
71
3
72
10
73
6
74
4
42
0.0000001000
43
0.0000001000
44
0.0000000001
12
0.9519852940
22
0.8710667634
32
0.0000000000
13
0.6588779949
23
1.1094652289
33
0.0000000000
40
0.0000000000
40
0.0000000000
40
0.0000000000
40
0.0000000000
40
0.3487446181
40
0.6783679808
40
1.0000000000
40
1.0000000000
40
1.0000000000
40
1.0000000000
10
-434.4998152064
20
54.3184361695
30
0.0000000000
10
-434.3891486239
20
54.4196961181
30
0.0000000000
10
-434.1824981388
20
54.6264363871
30
0.0000000000
10
-433.9094098237
20
54.9595833717
30
0.0000000000
10
-433.7542299914
20
55.1934626085
30
0.0000000000
10
-433.6835912381
20
55.3124091225
30
0.0000000000
11
-434.4998152064
21
54.3184361695
31
0.0000000000
11
-434.1823280786
21
54.6373530095
31
0.0000000000
11
-433.9130350258
21
54.9665789501
31
0.0000000000
11
-433.6835912381
21
55.3124091225
31
0.0000000000
0
SPLINE
5
38D
100
AcDbEntity
8
0
100
AcDbSpline
62
7
6
CONTINUOUS
70
0
71
3
72
10
73
6
74
4
42
0.0000001000
43
0.0000001000
44
0.0000000001
12
3.1682168418
22
0.0000000000
32
0.0000000000
13
2.3374034204
23
2.1387246684
33
0.0000000000
40
0.0000000000
40
0.0000000000
40
0.0000000000
40
0.0000000000
40
0.3755498189
40
0.6944453450
40
1.0000000000
40
1.0000000000
40
1.0000000000
40
1.0000000000
10
-437.4209815912
20
53.2787667687
30
0.0000000000
10
-437.0243738375
20
53.2787667687
30
0.0000000000
10
-436.2863885629
20
53.3503155540
30
0.0000000000
10
-435.2835129104
20
53.7146481779
30
0.0000000000
10
-434.7378833717
20
54.1006037435
30
0.0000000000
10
-434.4998152064
20
54.3184361695
30
0.0000000000
11
-437.4209815912
21
53.2787667687
31
0.0000000000
11
-436.2383316323
21
53.4092216176
31
0.0000000000
11
-435.2911581119
21
53.7608313270
31
0.0000000000
11
-434.4998152064
21
54.3184361695
31
0.0000000000
0
SPLINE
5
38E
100
AcDbEntity
8
0
100
AcDbSpline
62
7
6
CONTINUOUS
70
0
71
3
72
10
73
6
74
4
42
0.0000001000
43
0.0000001000
44
0.0000000001
12
3.0526878224
22
-4.1546327019
32
0.0000000000
13
5.1555674594
23
0.0000000000
33
0.0000000000
40
0.0000000000
40
0.0000000000
40
0.0000000000
40
0.0000000000
40
0.3500960199
40
0.6586983883
40
1.0000000000
40
1.0000000000
40
1.0000000000
40
1.0000000000
10
-441.8473225741
20
55.5435324075
30
0.0000000000
10
-441.4910779552
20
55.0586922831
30
0.0000000000
10
-440.6944719186
20
54.2233009952
30
0.0000000000
10
-439.1369949536
20
53.4287488113
30
0.0000000000
10
-438.0075160856
20
53.2787667687
30
0.0000000000
10
-437.4209815912
20
53.2787667687
30
0.0000000000
11
-441.8473225741
21
55.5435324075
31
0.0000000000
11
-440.5795158943
21
54.2588192896
31
0.0000000000
11
-439.1614820771
21
53.5373445655
31
0.0000000000
11
-437.4209815912
21
53.2787667687
31
0.0000000000
0
SPLINE
5
38F
100
AcDbEntity
8
0
100
AcDbSpline
62
7
6
CONTINUOUS
70
0
71
3
72
10
73
6
74
4
42
0.0000001000
43
0.0000001000
44
0.0000000001
12
0.0000000000
22
-6.6242068342
32
0.0000000000
13
3.9222909398
23
-5.3381410589
33
0.0000000000
40
0.0000000000
40
0.0000000000
40
0.0000000000
40
0.0000000000
40
0.4150620543
40
0.7367604098
40
1.0000000000
40
1.0000000000
40
1.0000000000
40
1.0000000000
10
-443.5309607439
20
61.8490316446
30
0.0000000000
10
-443.5309607439
20
60.9325460124
30
0.0000000000
10
-443.4158792316
20
59.2990488314
30
0.0000000000
10
-442.8213103258
20
57.1560949528
30
0.0000000000
10
-442.1914899940
20
56.0119357625
30
0.0000000000
10
-441.8473225741
20
55.5435324075
30
0.0000000000
11
-443.5309607439
21
61.8490316446
31
0.0000000000
11
-443.2987920380
21
59.1093946399
31
0.0000000000
11
-442.7012464395
21
57.0638910082
31
0.0000000000
11
-441.8473225741
21
55.5435324075
31
0.0000000000
0
SPLINE
5
390
100
AcDbEntity
8
0
100
AcDbSpline
62
7
6
CONTINUOUS
70
0
71
3
72
10
73
6
74
4
42
0.0000001000
43
0.0000001000
44
0.0000000001
12
-1.4835307166
22
-4.3821192818
32
0.0000000000
13
0.0000000000
23
-4.6264276485
33
0.0000000000
40
0.0000000000
40
0.0000000000
40
0.0000000000
40
0.0000000000
40
0.2877616689
40
0.6183430320
40
1.0000000000
40
1.0000000000
40
1.0000000000
40
1.0000000000
10
-442.8598194107
20
66.4083277200
30
0.0000000000
10
-443.0021205023
20
65.9879924008
30
0.0000000000
10
-443.2502597477
20
65.0646018599
30
0.0000000000
10
-443.4811696801
20
63.5371020701
30
0.0000000000
10
-443.5309607439
20
62.4376010943
30
0.0000000000
10
-443.5309607439
20
61.8490316446
30
0.0000000000
11
-442.8598194107
21
66.4083277200
31
0.0000000000
11
-443.2102585590
21
65.1239699682
31
0.0000000000
11
-443.4446720686
21
63.6126303061
31
0.0000000000
11
-443.5309607439
21
61.8490316446
31
0.0000000000
0
SPLINE
5
391
100
AcDbEntity
8
0
100
AcDbSpline
62
7
6
CONTINUOUS
70
0
71
3
72
10
73
6
74
4
42
0.0000001000
43
0.0000001000
44
0.0000000001
12
-2.8855173984
22
-2.4442050767
32
0.0000000000
13
-1.2126182165
23
-3.5818858405
33
0.0000000000
40
0.0000000000
40
0.0000000000
40
0.0000000000
40
0.0000000000
40
0.3047027325
40
0.6290507180
40
1.0000000000
40
1.0000000000
40
1.0000000000
40
1.0000000000
10
-440.8154148511
20
69.5394591863
30
0.0000000000
10
-441.1084898632
20
69.2912071978
30
0.0000000000
10
-441.6663228630
20
68.7198510934
30
0.0000000000
10
-442.3647296563
20
67.6625752331
30
0.0000000000
10
-442.7098794585
20
66.8512270469
30
0.0000000000
10
-442.8598194107
20
66.4083277200
30
0.0000000000
11
-440.8154148511
21
69.5394591863
31
0.0000000000
11
-441.6210982922
21
68.7157041832
31
0.0000000000
11
-442.3016193768
21
67.6952577684
31
0.0000000000
11
-442.8598194107
21
66.4083277200
31
0.0000000000
0
SPLINE
5
392
100
AcDbEntity
8
0
100
AcDbSpline
62
7
6
CONTINUOUS
70
0
71
3
72
10
73
6
74
4
42
0.0000001000
43
0.0000001000
44
0.0000000001
12
-4.1393506578
22
-0.3257171692
32
0.0000000000
13
-3.1682758167
23
-2.6837182960
33
0.0000000000
40
0.0000000000
40
0.0000000000
40
0.0000000000
40
0.0000000000
40
0.4054003084
40
0.7274984334
40
1.0000000000
40
1.0000000000
40
1.0000000000
40
1.0000000000
10
-436.9593388490
20
70.9080938871
30
0.0000000000
10
-437.5187035268
20
70.8640786068
30
0.0000000000
10
-438.5209262071
20
70.7137364333
30
0.0000000000
10
-439.8310370339
20
70.2378153991
30
0.0000000000
10
-440.5276281434
20
69.7832316663
30
0.0000000000
10
-440.8154148511
20
69.5394591863
30
0.0000000000
11
-436.9593388490
21
70.9080938871
31
0.0000000000
11
-438.6204327089
21
70.6356918353
31
0.0000000000
11
-439.8718340235
21
70.1638557929
31
0.0000000000
11
-440.8154148511
21
69.5394591863
31
0.0000000000
0
SPLINE
5
393
100
AcDbEntity
8
0
100
AcDbSpline
62
7
6
CONTINUOUS
70
0
71
3
72
10
73
6
74
4
42
0.0000001000
43
0.0000001000
44
0.0000000001
12
1.9477340078
22
3.0988641263
32
0.0000000000
13
3.6331042889
23
0.4440493942
33
0.0000000000
40
0.0000000000
40
0.0000000000
40
0.0000000000
40
0.0000000000
40
0.2839353740
40
0.5959392303
40
1.0000000000
40
1.0000000000
40
1.0000000000
40
1.0000000000
10
-440.0643205726
20
65.7880750506
30
0.0000000000
10
-439.8799770446
20
66.0813674322
30
0.0000000000
10
-439.3917054102
20
66.6405354498
30
0.0000000000
10
-438.3136612214
20
67.2517350502
30
0.0000000000
10
-437.4486704875
20
67.4429922989
30
0.0000000000
10
-436.9593388490
20
67.5027999456
30
0.0000000000
11
-440.0643205726
21
65.7880750506
31
0.0000000000
11
-439.3797038317
21
66.5699487840
31
0.0000000000
11
-438.3952385289
21
67.1486901145
31
0.0000000000
11
-436.9593388490
21
67.5027999456
31
0.0000000000
0
SPLINE
5
394
100
AcDbEntity
8
0
100
AcDbSpline
62
7
6
CONTINUOUS
70
0
71
3
72
10
73
6
74
4
42
0.0000001000
43
0.0000001000
44
0.0000000001
12
0.0000000000
22
4.1702284551
32
0.0000000000
13
2.2191761056
23
3.5307311963
33
0.0000000000
40
0.0000000000
40
0.0000000000
40
0.0000000000
40
0.0000000000
40
0.4169577700
40
0.7412408933
40
1.0000000000
40
1.0000000000
40
1.0000000000
40
1.0000000000
10
-440.9783477239
20
61.7675647314
30
0.0000000000
10
-440.9783477239
20
62.3471677837
30
0.0000000000
10
-440.9174425770
20
63.3805249217
30
0.0000000000
10
-440.6007007471
20
64.7416070333
30
0.0000000000
10
-440.2557312482
20
65.4835387672
30
0.0000000000
10
-440.0643205726
20
65.7880750506
30
0.0000000000
11
-440.9783477239
21
61.7675647314
31
0.0000000000
11
-440.8548095288
21
63.5019797910
31
0.0000000000
11
-440.5303592607
21
64.8148168664
31
0.0000000000
11
-440.0643205726
21
65.7880750506
31
0.0000000000
0
SPLINE
5
395
100
AcDbEntity
8
0
100
AcDbSpline
62
7
6
CONTINUOUS
70
0
71
3
72
10
73
6
74
4
42
0.0000001000
43
0.0000001000
44
0.0000000001
12
-2.0264825339
22
3.2614430137
32
0.0000000000
13
0.0000000000
23
3.8397450426
33
0.0000000000
40
0.0000000000
40
0.0000000000
40
0.0000000000
40
0.0000000000
40
0.2683393596
40
0.5941773522
40
1.0000000000
40
1.0000000000
40
1.0000000000
40
1.0000000000
10
-440.1050004775
20
58.0728799235
30
0.0000000000
10
-440.2862621527
20
58.3646044335
30
0.0000000000
10
-440.6127746982
20
59.0586962802
30
0.0000000000
10
-440.9173547356
20
60.3088584476
30
0.0000000000
10
-440.9783477239
20
61.2481462313
30
0.0000000000
10
-440.9783477239
20
61.7675647314
30
0.0000000000
11
-440.1050004775
21
58.0728799235
31
0.0000000000
11
-440.5514946783
21
59.0014669091
31
0.0000000000
11
-440.8608923807
21
60.2137422042
31
0.0000000000
11
-440.9783477239
21
61.7675647314
31
0.0000000000
0
SPLINE
5
396
100
AcDbEntity
8
0
100
AcDbSpline
62
7
6
CONTINUOUS
70
0
71
3
72
10
73
6
74
4
42
0.0000001000
43
0.0000001000
44
0.0000000001
12
-2.8705929625
22
0.0000000000
32
0.0000000000
13
-1.5149981147
23
2.4382544307
33
0.0000000000
40
0.0000000000
40
0.0000000000
40
0.0000000000
40
0.0000000000
40
0.3300549751
40
0.6359104255
40
1.0000000000
40
1.0000000000
40
1.0000000000
40
1.0000000000
10
-437.7332693987
20
56.6840619619
30
0.0000000000
10
-438.0490872282
20
56.6840619619
30
0.0000000000
10
-438.6663585292
20
56.7740853495
30
0.0000000000
10
-439.5105960634
20
57.2668722282
30
0.0000000000
10
-439.9211354712
20
57.7769655841
30
0.0000000000
10
-440.1050004775
20
58.0728799235
30
0.0000000000
11
-437.7332693987
21
56.6840619619
31
0.0000000000
11
-438.6681866343
21
56.8376779626
31
0.0000000000
11
-439.4291153198
21
57.2756823414
31
0.0000000000
11
-440.1050004775
21
58.0728799235
31
0.0000000000
0
SPLINE
5
397
100
AcDbEntity
8
0
100
AcDbSpline
62
7
6
CONTINUOUS
70
0
71
3
72
10
73
6
74
4
42
0.0000001000
43
0.0000001000
44
0.0000000001
12
-1.1045749396
22
-0.9176458400
32
0.0000000000
13
-1.4360221742
23
-0.0000000000
33
0.0000000000
40
0.0000000000
40
0.0000000000
40
0.0000000000
40
0.0000000000
40
0.2961148741
40
0.6179387621
40
1.0000000000
40
1.0000000000
40
1.0000000000
40
1.0000000000
10
-436.3890737943
20
57.1076871927
30
0.0000000000
10
-436.4981008174
20
57.0171109985
30
0.0000000000
10
-436.7511464117
20
56.8566027718
30
0.0000000000
10
-437.2117910309
20
56.7110029742
30
0.0000000000
10
-437.5503865955
20
56.6840619619
30
0.0000000000
10
-437.7332693987
20
56.6840619619
30
0.0000000000
11
-436.3890737943
21
57.1076871927
31
0.0000000000
11
-436.7478759577
21
56.8794779556
31
0.0000000000
11
-437.1870437445
21
56.7355654767
31
0.0000000000
11
-437.7332693987
21
56.6840619619
31
0.0000000000
0
SPLINE
5
398
100
AcDbEntity
8
0
100
AcDbSpline
62
7
6
CONTINUOUS
70
0
71
3
72
10
73
6
74
4
42
0.0000001000
43
0.0000001000
44
0.0000000001
12
-0.9151639116
22
-5.6321795579
32
0.0000000000
13
-3.0555246796
23
-4.8189978720
33
0.0000000000
40
0.0000000000
40
0.0000000000
40
0.0000000000
40
0.0000000000
40
0.5011988022
40
0.8174883497
40
1.0000000000
40
1.0000000000
40
1.0000000000
40
1.0000000000
10
-434.5306918808
20
63.0845924688
30
0.0000000000
10
-434.6835848996
20
62.1436452527
30
0.0000000000
10
-434.9580509151
20
60.6102970949
30
0.0000000000
10
-435.4261123086
20
58.7698307015
30
0.0000000000
10
-435.7686973110
20
57.8733667035
30
0.0000000000
10
-435.9545869283
20
57.5801922853
30
0.0000000000
11
-434.5306918808
21
63.0845924688
31
0.0000000000
11
-435.0607920869
21
60.2742872861
31
0.0000000000
11
-435.5326019307
21
58.5322870104
31
0.0000000000
11
-435.9545869283
21
57.5801922853
31
0.0000000000
0
SPLINE
5
399
100
AcDbEntity
8
0
100
AcDbSpline
62
7
6
CONTINUOUS
70
0
71
3
72
10
73
6
74
4
42
0.0000001000
43
0.0000001000
44
0.0000000001
12
-3.1169086697
22
-5.4454215506
32
0.0000000000
13
-1.0063145775
23
-6.1931467357
33
0.0000000000
40
0.0000000000
40
0.0000000000
40
0.0000000000
40
0.0000000000
40
0.2155092091
40
0.5368393614
40
1.0000000000
40
1.0000000000
40
1.0000000000
40
1.0000000000
10
-432.8858329362
20
69.1156800622
30
0.0000000000
10
-433.1097404437
20
68.7245005649
30
0.0000000000
10
-433.5350943071
20
67.6773423374
30
0.0000000000
10
-434.0769494308
20
65.6560430668
30
0.0000000000
10
-434.3753301134
20
64.0407330678
30
0.0000000000
10
-434.5306918808
20
63.0845924688
30
0.0000000000
11
-432.8858329362
21
69.1156800622
31
0.0000000000
11
-433.4295795940
21
67.8776399534
31
0.0000000000
11
-433.9788408171
21
65.9377555411
31
0.0000000000
11
-434.5306918808
21
63.0845924688
31
0.0000000000
0
SPLINE
5
39A
100
AcDbEntity
8
0
100
AcDbSpline
62
7
6
CONTINUOUS
70
0
71
3
72
10
73
6
74
4
42
0.0000001000
43
0.0000001000
44
0.0000000001
12
-1.2519791224
22
-1.1135261200
32
0.0000000000
13
-0.8323488806
23
-1.4541621243
33
0.0000000000
40
0.0000000000
40
0.0000000000
40
0.0000000000
40
0.0000000000
40
0.3281420157
40
0.6566246227
40
1.0000000000
40
1.0000000000
40
1.0000000000
40
1.0000000000
10
-431.8372227418
20
70.4139982365
30
0.0000000000
10
-431.9741650594
20
70.2922000013
30
0.0000000000
10
-432.2353923257
20
70.0335674936
30
0.0000000000
10
-432.5872940751
20
69.5985609454
30
0.0000000000
10
-432.7905635659
20
69.2821212183
30
0.0000000000
10
-432.8858329362
20
69.1156800622
30
0.0000000000
11
-431.8372227418
21
70.4139982365
31
0.0000000000
11
-432.2277246688
21
70.0269577721
31
0.0000000000
11
-432.5741270875
21
69.5992601134
31
0.0000000000
11
-432.8858329362
21
69.1156800622
31
0.0000000000
0
SPLINE
5
39B
100
AcDbEntity
8
0
100
AcDbSpline
62
7
6
CONTINUOUS
70
0
71
3
72
10
73
6
74
4
42
0.0000001000
43
0.0000001000
44
0.0000000001
12
-3.1518629637
22
0.0000000000
32
0.0000000000
13
-2.3551190955
23
-2.0946728116
33
0.0000000000
40
0.0000000000
40
0.0000000000
40
0.0000000000
40
0.0000000000
40
0.3765986291
40
0.6964355655
40
1.0000000000
40
1.0000000000
40
1.0000000000
40
1.0000000000
10
-428.9213210992
20
71.4294795568
30
0.0000000000
10
-429.3169835230
20
71.4294795568
30
0.0000000000
10
-430.0530417554
20
71.3582161636
30
0.0000000000
10
-431.0523211273
20
71.0018917629
30
0.0000000000
10
-431.5989126097
20
70.6259542924
30
0.0000000000
10
-431.8372227418
20
70.4139982365
30
0.0000000000
11
-428.9213210992
21
71.4294795568
31
0.0000000000
11
-430.1012999133
21
71.3006821163
31
0.0000000000
11
-431.0484821214
21
70.9556088272
31
0.0000000000
11
-431.8372227418
21
70.4139982365
31
0.0000000000
0
SPLINE
5
39C
100
AcDbEntity
8
0
100
AcDbSpline
62
7
6
CONTINUOUS
70
0
71
3
72
11
73
7
74
5
42
0.0000001000
43
0.0000001000
44
0.0000000001
12
-3.1201857625
22
4.2916235145
32
0.0000000000
13
-5.3059958144
23
-0.0000000000
33
0.0000000000
40
0.0000000000
40
0.0000000000
40
0.0000000000
40
0.0000000000
40
0.2789513198
40
0.5178804367
40
0.7479678237
40
1.0000000000
40
1.0000000000
40
1.0000000000
40
1.0000000000
10
-424.4096542851
20
69.0383959974
30
0.0000000000
10
-424.6997809306
20
69.4374473451
30
0.0000000000
10
-425.3123283102
20
70.1308075673
30
0.0000000000
10
-426.4100089967
20
70.8921378758
30
0.0000000000
10
-427.6180871352
20
71.3391522927
30
0.0000000000
10
-428.4755605417
20
71.4294795568
30
0.0000000000
10
-428.9213210992
20
71.4294795568
30
0.0000000000
11
-424.4096542851
21
69.0383959974
31
0.0000000000
11
-425.4024519681
21
70.1361627292
31
0.0000000000
11
-426.4482890101
21
70.8527047206
31
0.0000000000
11
-427.5926413083
21
71.2780454604
31
0.0000000000
11
-428.9213210992
21
71.4294795568
31
0.0000000000
0
SPLINE
5
39D
100
AcDbEntity
8
0
100
AcDbSpline
62
7
6
CONTINUOUS
70
0
71
3
72
10
73
6
74
4
42
0.0000001000
43
0.0000001000
44
0.0000000001
12
0.0000000000
22
7.0073477843
32
0.0000000000
13
-4.1206641607
23
5.6677199864
33
0.0000000000
40
0.0000000000
40
0.0000000000
40
0.0000000000
40
0.0000000000
40
0.4179184778
40
0.7393112700
40
1.0000000000
40
1.0000000000
40
1.0000000000
40
1.0000000000
10
-422.6755641676
20
62.3541230733
30
0.0000000000
10
-422.6755641676
20
63.3302897799
30
0.0000000000
10
-422.7890911761
20
65.0638636481
30
0.0000000000
10
-423.3970610132
20
67.3364176168
30
0.0000000000
10
-424.0515840496
20
68.5458924224
30
0.0000000000
10
-424.4096542851
20
69.0383959974
30
0.0000000000
11
-422.6755641676
21
62.3541230733
31
0.0000000000
11
-422.9112643382
21
65.2731226245
31
0.0000000000
11
-423.5256197318
21
67.4398186632
31
0.0000000000
11
-424.4096542851
21
69.0383959974
31
0.0000000000
0
SPLINE
5
39E
100
AcDbEntity
8
0
100
AcDbSpline
62
7
6
CONTINUOUS
70
0
71
3
72
13
73
9
74
7
42
0.0000001000
43
0.0000001000
44
0.0000000001
12
13.8210895734
22
0.5654079513
32
0.0000000000
13
0.0000000000
23
13.8326498961
33
0.0000000000
40
0.0000000000
40
0.0000000000
40
0.0000000000
40
0.0000000000
40
0.1598678116
40
0.2899825867
40
0.4145566191
40
0.5577797966
40
0.7443919504
40
1.0000000000
40
1.0000000000
40
1.0000000000
40
1.0000000000
10
-429.8446071796
20
52.3989296134
30
0.0000000000
10
-429.1080913985
20
52.4290597906
30
0.0000000000
10
-427.7667198629
20
52.6222908999
30
0.0000000000
10
-426.0040820515
20
53.4287098398
30
0.0000000000
10
-424.6233147860
20
54.6788233484
30
0.0000000000
10
-423.5401300157
20
56.5046418199
30
0.0000000000
10
-422.8075638595
20
59.1280002872
30
0.0000000000
10
-422.6755641676
20
61.1755441863
30
0.0000000000
10
-422.6755641676
20
62.3541230733
30
0.0000000000
11
-429.8446071796
21
52.3989296134
31
0.0000000000
11
-427.6620393429
21
52.7548334615
31
0.0000000000
11
-426.0324939848
21
53.5190177494
31
0.0000000000
11
-424.7509790317
21
54.6710158703
31
0.0000000000
11
-423.7139837541
21
56.3590976736
31
0.0000000000
11
-422.9689305752
21
58.8305779996
31
0.0000000000
11
-422.6755641676
21
62.3541230733
31
0.0000000000
0
SPLINE
5
39F
100
AcDbEntity
8
0
100
AcDbSpline
62
7
6
CONTINUOUS
70
0
71
3
72
8
73
4
74
2
42
0.0000001000
43
0.0000001000
44
0.0000000001
12
-0.0128023866
22
0.2109645520
32
0.0000000000
13
-0.0182002633
23
0.2105746352
33
0.0000000000
40
0.0000000000
40
0.0000000000
40
0.0000000000
40
0.0000000000
40
1.0000000000
40
1.0000000000
40
1.0000000000
40
1.0000000000
10
-541.8861945950
20
-46.8958605041
30
0.0000000000
10
-541.8904620572
20
-46.8255389867
30
0.0000000000
10
-541.8956301544
20
-46.7552685256
30
0.0000000000
10
-541.9016969089
20
-46.6850769806
30
0.0000000000
11
-541.8861945950
21
-46.8958605041
31
0.0000000000
11
-541.9016969089
21
-46.6850769806
31
0.0000000000
0
SPLINE
5
3A0
100
AcDbEntity
8
0
100
AcDbSpline
62
7
6
CONTINUOUS
70
0
71
3
72
16
73
12
74
10
42
0.0000001000
43
0.0000001000
44
0.0000000001
12
-0.1064893469
22
1.2320676361
32
0.0000000000
13
-0.2892382941
23
1.2023350880
33
0.0000000000
40
0.0000000000
40
0.0000000000
40
0.0000000000
40
0.0000000000
40
0.0027532180
40
0.1567758450
40
0.2960356987
40
0.4253449240
40
0.5495405956
40
0.6726560629
40
0.7955681964
40
0.9184833556
40
1.0000000000
40
1.0000000000
40
1.0000000000
40
1.0000000000
10
-541.9016969089
20
-46.6850769806
30
0.0000000000
10
-541.9017946383
20
-46.6839462636
30
0.0000000000
10
-541.9073729033
20
-46.6195612815
30
0.0000000000
10
-541.9193339661
20
-46.4981109137
30
0.0000000000
10
-541.9402130263
20
-46.3251586716
30
0.0000000000
10
-541.9628484569
20
-46.1648384662
30
0.0000000000
10
-541.9874692245
20
-46.0115487629
30
0.0000000000
10
-542.0144598370
20
-45.8613372921
30
0.0000000000
10
-542.0441121737
20
-45.7121665482
30
0.0000000000
10
-542.0728547407
20
-45.5803225993
30
0.0000000000
10
-542.0920641680
20
-45.4982695694
30
0.0000000000
10
-542.0999234130
20
-45.4655994621
30
0.0000000000
11
-541.9016969089
21
-46.6850769806
31
0.0000000000
11
-541.9019907968
21
-46.6816848913
31
0.0000000000
11
-541.9206586795
21
-46.4921344978
31
0.0000000000
11
-541.9412985004
21
-46.3211643379
31
0.0000000000
11
-541.9636538020
21
-46.1628283647
31
0.0000000000
11
-541.9880095235
21
-46.0111890453
31
0.0000000000
11
-542.0149347227
21
-45.8613418236
31
0.0000000000
11
-542.0445688079
21
-45.7122630643
31
0.0000000000
11
-542.0769449644
21
-45.5637518616
31
0.0000000000
11
-542.0999234130
21
-45.4655994621
31
0.0000000000
0
SPLINE
5
3A1
100
AcDbEntity
8
0
100
AcDbSpline
62
7
6
CONTINUOUS
70
0
71
3
72
8
73
4
74
2
42
0.0000001000
43
0.0000001000
44
0.0000000001
12
-0.0120310834
22
0.0500120281
32
0.0000000000
13
-0.0123425435
23
0.0499353826
33
0.0000000000
40
0.0000000000
40
0.0000000000
40
0.0000000000
40
0.0000000000
40
1.0000000000
40
1.0000000000
40
1.0000000000
40
1.0000000000
10
-542.0999234130
20
-45.4655994621
30
0.0000000000
10
-542.1039337742
20
-45.4489287860
30
0.0000000000
10
-542.1079960903
20
-45.4322706922
30
0.0000000000
10
-542.1121102715
20
-45.4156255647
30
0.0000000000
11
-542.0999234130
21
-45.4655994621
31
0.0000000000
11
-542.1121102715
21
-45.4156255647
31
0.0000000000
0
SPLINE
5
3A2
100
AcDbEntity
8
0
100
AcDbSpline
62
7
6
CONTINUOUS
70
0
71
3
72
10
73
6
74
4
42
0.0000001000
43
0.0000001000
44
0.0000000001
12
0.0565757271
22
0.9592969736
32
0.0000000000
13
-0.0565757271
23
0.9592969736
33
0.0000000000
40
0.0000000000
40
0.0000000000
40
0.0000000000
40
0.0000000000
40
0.3328923168
40
0.6671076348
40
1.0000000000
40
1.0000000000
40
1.0000000000
40
1.0000000000
10
-542.1121102715
20
-47.8760954435
30
0.0000000000
10
-542.1058323965
20
-47.7696479128
30
0.0000000000
10
-542.0974344266
20
-47.5560585074
30
0.0000000000
10
-542.0974344257
20
-47.2356625318
30
0.0000000000
10
-542.1058323956
20
-47.0220731108
30
0.0000000000
10
-542.1121102715
20
-46.9156255647
30
0.0000000000
11
-542.1121102715
21
-47.8760954435
31
0.0000000000
11
-542.0995422546
21
-47.5564449446
31
0.0000000000
11
-542.0995422537
21
-47.2352761101
31
0.0000000000
11
-542.1121102715
21
-46.9156255647
31
0.0000000000
0
SPLINE
5
3A3
100
AcDbEntity
8
0
100
AcDbSpline
62
7
6
CONTINUOUS
70
0
71
3
72
8
73
4
74
2
42
0.0000001000
43
0.0000001000
44
0.0000000001
12
0.0123425419
22
0.0499353758
32
0.0000000000
13
0.0120310847
23
0.0500120348
33
0.0000000000
40
0.0000000000
40
0.0000000000
40
0.0000000000
40
0.0000000000
40
1.0000000000
40
1.0000000000
40
1.0000000000
40
1.0000000000
10
-542.1121102715
20
-49.3760954435
30
0.0000000000
10
-542.1079960909
20
-49.3594503182
30
0.0000000000
10
-542.1039337748
20
-49.3427922243
30
0.0000000000
10
-542.0999234132
20
-49.3261215460
30
0.0000000000
11
-542.1121102715
21
-49.3760954435
31
0.0000000000
11
-542.0999234132
21
-49.3261215460
31
0.0000000000
0
SPLINE
5
3A4
100
AcDbEntity
8
0
100
AcDbSpline
62
7
6
CONTINUOUS
70
0
71
3
72
15
73
11
74
9
42
0.0000001000
43
0.0000001000
44
0.0000000001
12
0.2892383581
22
1.2023353861
32
0.0000000000
13
0.1064890751
23
1.2320630579
33
0.0000000000
40
0.0000000000
40
0.0000000000
40
0.0000000000
40
0.0000000000
40
0.0833884798
40
0.2078265170
40
0.3322481491
40
0.4571975835
40
0.5836174835
40
0.7145745119
40
0.8536957576
40
1.0000000000
40
1.0000000000
40
1.0000000000
40
1.0000000000
10
-542.0999234132
20
-49.3261215460
30
0.0000000000
10
-542.0918836976
20
-49.2927012393
30
0.0000000000
10
-542.0723669585
20
-49.2092827985
30
0.0000000000
10
-542.0432465616
20
-49.0754519090
30
0.0000000000
10
-542.0132970734
20
-48.9242947419
30
0.0000000000
10
-541.9860335405
20
-48.7718001814
30
0.0000000000
10
-541.9612227897
20
-48.6161584338
30
0.0000000000
10
-541.9386095282
20
-48.4542807005
30
0.0000000000
10
-541.9183064350
20
-48.2838374264
30
0.0000000000
10
-541.9068901748
20
-48.1667293785
30
0.0000000000
10
-541.9016969069
20
-48.1066440277
30
0.0000000000
11
-542.0999234132
21
-49.3261215460
31
0.0000000000
11
-542.0764314017
21
-49.2257119943
31
0.0000000000
11
-542.0437134640
21
-49.0753478641
31
0.0000000000
11
-542.0138093006
21
-48.9244196263
31
0.0000000000
11
-541.9866157037
21
-48.7723164535
31
0.0000000000
11
-541.9620054015
21
-48.6179323594
31
0.0000000000
11
-541.9396004040
21
-48.4575456659
31
0.0000000000
11
-541.9192509252
21
-48.2867133248
31
0.0000000000
11
-541.9016969069
21
-48.1066440277
31
0.0000000000
0
SPLINE
5
3A5
100
AcDbEntity
8
0
100
AcDbSpline
62
7
6
CONTINUOUS
70
0
71
3
72
9
73
5
74
3
42
0.0000001000
43
0.0000001000
44
0.0000000001
12
0.0182002562
22
0.2105743076
32
0.0000000000
13
0.0128024140
23
0.2109650035
33
0.0000000000
40
0.0000000000
40
0.0000000000
40
0.0000000000
40
0.0000000000
40
0.0268339080
40
1.0000000000
40
1.0000000000
40
1.0000000000
40
1.0000000000
10
-541.9016969069
20
-48.1066440277
30
0.0000000000
10
-541.9015341123
20
-48.1047605172
30
0.0000000000
10
-541.8954914748
20
-48.0345669662
30
0.0000000000
10
-541.8903475534
20
-47.9642951667
30
0.0000000000
10
-541.8861945950
20
-47.8958605041
30
0.0000000000
11
-541.9016969069
21
-48.1066440277
31
0.0000000000
11
-541.9012104642
21
-48.1009933263
31
0.0000000000
11
-541.8861945950
21
-47.8958605041
31
0.0000000000
0
ENDSEC
0
SECTION
2
OBJECTS
0
DICTIONARY
5
3A6
100
AcDbDictionary
3
ACAD_GROUP
350
3A7
3
ACAD_MLINESTYLE
350
3A8
0
DICTIONARY
5
3A7
102
{ACAD_REACTORS
330
3A6
102
}
100
AcDbDictionary
0
DICTIONARY
5
3A8
102
{ACAD_REACTORS
330
3A6
102
}
100
AcDbDictionary
3
STANDARD
350
3A9
0
MLINESTYLE
5
3A9
102
{ACAD_REACTORS
330
3A8
102
}
100
AcDbMlineStyle
2
STANDARD
70
0
3

62
256
51
90.0
52
90.0
71
2
49
0.5
62
256
6
BYLAYER
49
-0.5
62
256
6
BYLAYER
0
ENDSEC
0
EOF
