0
SECTION
2
HEADER
9
$ACADVER
1
AC1014
9
$HANDSEED
5
       3AA
9
$EXTMAX
10
297.0000000000
20
210.0000000000
9
$EXTMIN
10
0.0000000000
20
0.0000000000
9
$LIMMIN
10
0.0000000000
20
0.0000000000
9
$LIMMAX
10
297.0000000000
20
210.0000000000
9
$VIEWCTR
10
148.5000000000
20
105.0000000000
9
$VIEWSIZE
40
210.0000000000
9
$CLAYER
8
0
9
$LTSCALE
40
16.3350000000
9
$CELTYPE
6
BYLAYER
9
$DIMSCALE
40
1
9
$DIMASZ
40
3.0000000000
9
$DIMEXO
40
1.8562500000
9
$DIMDLI
40
11.2860000000
9
$DIMEXE
40
5.3460000000
9
$DIMCEN
40
2.6730000000
9
$DIMLFAC
40
1.0000000000
9
$DIMTXT
40
3.0000000000
9
$DIMTOL
70
1
9
$DIMLIM
70
0
9
$DIMTFAC
40
1.0000000000
9
$DIMTP
40
0.0100000000
9
$DIMTM
40
0.0100000000
9
$MEASUREMENT
70
1
0
ENDSEC
0
SECTION
2
CLASSES
0
ENDSEC
0
SECTION
2
TABLES
0
TABLE
2
VPORT
5
8
100
AcDbSymbolTable
70
2
0
VPORT
5
1F4
100
AcDbSymbolTableRecord
100
AcDbViewportTableRecord
2
*ACTIVE
70
0
10
0.0
20
0.0
11
1.0
21
1.0
12
148.5000000000
22
105.0000000000
13
0.0
23
0.0
14
1.0
24
1.0
15
0.0
25
0.0
16
0.0
26
0.0
36
1.0
17
0.0
27
0.0
37
0.0
40
210.0000000000
41
1.4142857143
42
50.0
43
0.0
44
0.0
50
0.0
51
0.0
71
0
72
100
73
1
74
1
75
0
76
0
77
0
78
0
0
ENDTAB
0
TABLE
2
LTYPE
5
5
100
AcDbSymbolTable
70
6
0
LTYPE
5
14
100
AcDbSymbolTableRecord
100
AcDbLinetypeTableRecord
2
BYBLOCK
70
0
3

72
65
73
0
40
0.0
0
LTYPE
5
15
100
AcDbSymbolTableRecord
100
AcDbLinetypeTableRecord
2
BYLAYER
70
0
3

72
65
73
0
40
0.0
0
LTYPE
5
16
100
AcDbSymbolTableRecord
100
AcDbLinetypeTableRecord
2
CONTINUOUS
70
64
3
Solid line
72
65
73
0
40
0
0
LTYPE
5
1F5
100
AcDbSymbolTableRecord
100
AcDbLinetypeTableRecord
2
CENTER
70
64
3
____ _ ____ _ ____ _ ____ _ ____ _ ____ _ ____
72
65
73
4
40
0.6
49
0.375
74
0
49
-0.075
74
0
49
0.075
74
0
49
-0.075
74
0
0
LTYPE
5
1F6
100
AcDbSymbolTableRecord
100
AcDbLinetypeTableRecord
2
HIDDEN
70
64
3
- - - - - - - - - - - - - - - - - - - -
72
65
73
2
40
0.2
49
0.1
74
0
49
-0.1
74
0
0
LTYPE
5
1F7
100
AcDbSymbolTableRecord
100
AcDbLinetypeTableRecord
2
PHANTOM
70
64
3
_____ _ _ _____ _ _ _____ _ _ _____
72
65
73
6
40
0.8
49
0.45
74
0
49
-0.05
74
0
49
0.1
74
0
49
-0.05
74
0
49
0.1
74
0
49
-0.05
74
0
0
LTYPE
5
1F8
100
AcDbSymbolTableRecord
100
AcDbLinetypeTableRecord
2
DOT
70
64
3
. . . . . . . . . . . . . . . . . . . .
72
65
73
2
40
0.2
49
0.1
74
0
49
-0.1
74
0
0
LTYPE
5
1F9
100
AcDbSymbolTableRecord
100
AcDbLinetypeTableRecord
2
DASHED
70
64
3
- - - - - - - - - - - - - - - - - - - -
72
65
73
2
40
0.2
49
0.1
74
0
49
-0.1
74
0
0
ENDTAB
0
TABLE
2
LAYER
5
2
100
AcDbSymbolTable
70
36
0
LAYER
5
10
100
AcDbSymbolTableRecord
100
AcDbLayerTableRecord
2
0
70
0
62
7
6
CONTINUOUS
0
LAYER
5
1FA
100
AcDbSymbolTableRecord
100
AcDbLayerTableRecord
2
DEFAULT_1
70
0
62
7
6
CENTER
0
LAYER
5
1FB
100
AcDbSymbolTableRecord
100
AcDbLayerTableRecord
2
DEFAULT_2
70
0
62
8
6
HIDDEN
0
LAYER
5
1FC
100
AcDbSymbolTableRecord
100
AcDbLayerTableRecord
2
DEFAULT_3
70
0
62
7
6
PHANTOM
0
LAYER
5
1FD
100
AcDbSymbolTableRecord
100
AcDbLayerTableRecord
2
ASSI
70
0
62
7
6
CONTINUOUS
0
LAYER
5
1FE
100
AcDbSymbolTableRecord
100
AcDbLayerTableRecord
2
COORDINATE
70
0
62
7
6
CONTINUOUS
0
LAYER
5
1FF
100
AcDbSymbolTableRecord
100
AcDbLayerTableRecord
2
COORD_ORIGINE
70
0
62
7
6
CONTINUOUS
0
LAYER
5
200
100
AcDbSymbolTableRecord
100
AcDbLayerTableRecord
2
CURVE
70
0
62
7
6
CONTINUOUS
0
LAYER
5
201
100
AcDbSymbolTableRecord
100
AcDbLayerTableRecord
2
DRAFT
70
0
62
7
6
CONTINUOUS
0
LAYER
5
202
100
AcDbSymbolTableRecord
100
AcDbLayerTableRecord
2
IGES
70
0
62
7
6
CONTINUOUS
0
LAYER
5
203
100
AcDbSymbolTableRecord
100
AcDbLayerTableRecord
2
NOTE
70
0
62
7
6
CONTINUOUS
0
LAYER
5
204
100
AcDbSymbolTableRecord
100
AcDbLayerTableRecord
2
PIANI
70
0
62
7
6
CONTINUOUS
0
LAYER
5
205
100
AcDbSymbolTableRecord
100
AcDbLayerTableRecord
2
PIANI_ORIGINE
70
0
62
7
6
CONTINUOUS
0
LAYER
5
206
100
AcDbSymbolTableRecord
100
AcDbLayerTableRecord
2
PUNTI
70
0
62
7
6
CONTINUOUS
0
LAYER
5
207
100
AcDbSymbolTableRecord
100
AcDbLayerTableRecord
2
RACCORDO
70
0
62
7
6
CONTINUOUS
0
LAYER
5
208
100
AcDbSymbolTableRecord
100
AcDbLayerTableRecord
2
SMUSSO
70
0
62
7
6
CONTINUOUS
0
LAYER
5
209
100
AcDbSymbolTableRecord
100
AcDbLayerTableRecord
2
SNAPLINE
70
0
62
7
6
CONTINUOUS
0
LAYER
5
20A
100
AcDbSymbolTableRecord
100
AcDbLayerTableRecord
2
SUPERFICI
70
0
62
7
6
CONTINUOUS
0
LAYER
5
20B
100
AcDbSymbolTableRecord
100
AcDbLayerTableRecord
2
TRASH
70
0
62
7
6
CONTINUOUS
0
ENDTAB
0
TABLE
2
STYLE
5
3
100
AcDbSymbolTable
70
1
0
STYLE
5
11
100
AcDbSymbolTableRecord
100
AcDbTextStyleTableRecord
2
STANDARD
70
0
40
0.0
41
0.8000000000
50
0.0
71
0
42
0.2
3
txt
4

0
ENDTAB
0
TABLE
2
VIEW
5
6
100
AcDbSymbolTable
70
0
0
ENDTAB
0
TABLE
2
UCS
5
7
100
AcDbSymbolTable
70
0
0
ENDTAB
0
TABLE
2
APPID
5
9
100
AcDbSymbolTable
70
1
0
APPID
5
20C
100
AcDbSymbolTableRecord
100
AcDbRegAppTableRecord
2
ACAD
70
0
0
ENDTAB
0
TABLE
2
DIMSTYLE
5
A
100
AcDbSymbolTable
70
1
0
DIMSTYLE
105
20D
100
AcDbSymbolTableRecord
100
AcDbDimStyleTableRecord
2
STANDARD
70
0
3

4

5

6

7

40
1.0
41
3.0000000000
42
0.0625
43
0.38
44
0.18
45
0.0
46
0.0
47
0.0100000000
48
0.0100000000
140
3.0000000000
141
0.09
142
0.0
143
25.4
144
1.0000000000
145
0.0
146
1.0000000000
147
0.09
71
1
72
0
73
0
74
0
75
0
76
0
77
1
78
8
170
0
171
2
172
0
173
0
174
0
175
0
176
0
177
0
178
0
270
2
271
2
272
2
273
2
274
2
340
11
275
0
280
0
281
0
282
0
283
1
284
8
285
0
286
0
287
3
288
0
0
DIMSTYLE
105
20E
100
AcDbSymbolTableRecord
100
AcDbDimStyleTableRecord
2
DIMSTYLE_1
70
0
3

4

5

6

7

40
1.0
41
3.0000000000
42
0.0625
43
0.38
44
0.18
45
0.0
46
0.0
47
0.0000000000
48
0.0000000000
140
3.0000000000
141
0.09
142
0.0
143
25.4
144
1.0000000000
145
0.0
146
1.0000000000
147
0.09
71
0
72
0
73
0
74
0
75
0
76
0
77
1
78
8
170
0
171
2
172
0
173
0
174
0
175
0
176
0
177
0
178
0
270
2
271
0
272
0
273
2
274
2
340
11
275
0
280
0
281
0
282
0
283
1
284
8
285
0
286
0
287
3
288
0
0
DIMSTYLE
105
20F
100
AcDbSymbolTableRecord
100
AcDbDimStyleTableRecord
2
DIMSTYLE_2
70
0
3

4

5

6

7

40
1.0
41
3.0000000000
42
0.0625
43
0.38
44
0.18
45
0.0
46
0.0
47
0.0000000000
48
0.0000000000
140
3.0000000000
141
0.09
142
0.0
143
25.4
144
1.0000000000
145
0.0
146
1.0000000000
147
0.09
71
0
72
0
73
0
74
0
75
0
76
0
77
1
78
8
170
0
171
2
172
0
173
0
174
0
175
0
176
0
177
0
178
0
270
2
271
2
272
2
273
2
274
2
340
11
275
0
280
0
281
0
282
0
283
1
284
8
285
0
286
0
287
3
288
0
0
ENDTAB
0
TABLE
2
BLOCK_RECORD
5
1
100
AcDbSymbolTable
70
0
0
BLOCK_RECORD
5
1B
100
AcDbSymbolTableRecord
100
AcDbBlockTableRecord
2
*MODEL_SPACE
0
BLOCK_RECORD
5
1C
100
AcDbSymbolTableRecord
100
AcDbBlockTableRecord
2
*PAPER_SPACE
0
BLOCK_RECORD
5
210
100
AcDbSymbolTableRecord
100
AcDbBlockTableRecord
2
*D0
0
BLOCK_RECORD
5
211
100
AcDbSymbolTableRecord
100
AcDbBlockTableRecord
2
*D1
0
BLOCK_RECORD
5
212
100
AcDbSymbolTableRecord
100
AcDbBlockTableRecord
2
*D2
0
ENDTAB
0
ENDSEC
0
SECTION
2
BLOCKS
0
BLOCK
5
1E
100
AcDbEntity
8
0
100
AcDbBlockBegin
2
*MODEL_SPACE
70
0
10
0.0
20
0.0
30
0.0
3
*MODEL_SPACE
1

0
ENDBLK
5
1F
100
AcDbEntity
8
0
100
AcDbBlockEnd
0
BLOCK
5
20
100
AcDbEntity
8
0
100
AcDbBlockBegin
2
*PAPER_SPACE
70
0
10
0.0
20
0.0
30
0.0
3
*PAPER_SPACE
1

0
ENDBLK
5
21
100
AcDbEntity
8
0
100
AcDbBlockEnd
0
BLOCK
5
213
100
AcDbEntity
8
0
100
AcDbBlockBegin
62
7
6
CONTINUOUS
2
*D0
70
65
10
0.0000000000
20
0.0000000000
3
*D0
1

0
TEXT
5
214
100
AcDbEntity
8
0
100
AcDbText
62
7
6
CONTINUOUS
10
120.1975456855
20
-69.6533338826
7
STANDARD
40
3.0000000000
1
569
50
90.0000000000
41
0.7619047619
72
0
100
AcDbText
0
LINE
5
215
100
AcDbEntity
8
0
100
AcDbLine
62
7
6
CONTINUOUS
10
107.6475456855
20
218.0752375460
11
122.4475456855
21
218.0752375460
0
LINE
5
216
100
AcDbEntity
8
0
100
AcDbLine
62
7
6
CONTINUOUS
10
104.2475456855
20
-350.5247624540
11
122.4475456855
21
-350.5247624540
0
LINE
5
217
100
AcDbEntity
8
0
100
AcDbLine
62
7
6
CONTINUOUS
10
120.9475456855
20
218.0752375460
11
120.9475456855
21
-66.2247624540
0
LINE
5
218
100
AcDbEntity
8
0
100
AcDbLine
62
7
6
CONTINUOUS
10
120.9475456855
20
-350.5247624540
11
120.9475456855
21
-66.2247624540
0
SOLID
5
219
100
AcDbEntity
8
0
100
AcDbTrace
62
7
6
CONTINUOUS
10
121.8975456855
20
215.0752375460
11
120.9475456855
21
218.0752375460
12
119.9975456855
22
215.0752375460
13
119.9975456855
23
215.0752375460
0
SOLID
5
21A
100
AcDbEntity
8
0
100
AcDbTrace
62
7
6
CONTINUOUS
10
119.9975456855
20
-347.5247624540
11
120.9475456855
21
-350.5247624540
12
121.8975456855
22
-347.5247624540
13
121.8975456855
23
-347.5247624540
0
ENDBLK
5
21B
100
AcDbEntity
8
0
100
AcDbBlockEnd
0
BLOCK
5
21C
100
AcDbEntity
8
0
100
AcDbBlockBegin
62
7
6
CONTINUOUS
2
*D1
70
65
10
0.0000000000
20
0.0000000000
3
*D1
1

0
TEXT
5
21D
100
AcDbEntity
8
0
100
AcDbText
62
7
6
CONTINUOUS
10
-188.3738828860
20
226.8252375460
7
STANDARD
40
3.0000000000
1
595
41
0.7380952381
72
0
100
AcDbText
0
LINE
5
21E
100
AcDbEntity
8
0
100
AcDbLine
62
7
6
CONTINUOUS
10
112.4475456855
20
204.7752375460
11
112.4475456855
21
227.5752375460
0
LINE
5
21F
100
AcDbEntity
8
0
100
AcDbLine
62
7
6
CONTINUOUS
10
-482.5524543145
20
204.7752375460
11
-482.5524543145
21
227.5752375460
0
LINE
5
220
100
AcDbEntity
8
0
100
AcDbLine
62
7
6
CONTINUOUS
10
112.4475456855
20
226.0752375460
11
-185.0524543145
21
226.0752375460
0
LINE
5
221
100
AcDbEntity
8
0
100
AcDbLine
62
7
6
CONTINUOUS
10
-482.5524543145
20
226.0752375460
11
-185.0524543145
21
226.0752375460
0
SOLID
5
222
100
AcDbEntity
8
0
100
AcDbTrace
62
7
6
CONTINUOUS
10
109.4475456855
20
225.1252375460
11
112.4475456855
21
226.0752375460
12
109.4475456855
22
227.0252375460
13
109.4475456855
23
227.0252375460
0
SOLID
5
223
100
AcDbEntity
8
0
100
AcDbTrace
62
7
6
CONTINUOUS
10
-479.5524543145
20
227.0252375460
11
-482.5524543145
21
226.0752375460
12
-479.5524543145
22
225.1252375460
13
-479.5524543145
23
225.1252375460
0
ENDBLK
5
224
100
AcDbEntity
8
0
100
AcDbBlockEnd
0
BLOCK
5
225
100
AcDbEntity
8
0
100
AcDbBlockBegin
62
7
6
CONTINUOUS
2
*D2
70
65
10
0.0000000000
20
0.0000000000
3
*D2
1

0
TEXT
5
226
100
AcDbEntity
8
0
100
AcDbText
62
7
6
CONTINUOUS
10
-571.1128895496
20
226.8252375460
7
STANDARD
40
3.0000000000
1
62
41
0.7857142857
72
0
100
AcDbText
0
LINE
5
227
100
AcDbEntity
8
0
100
AcDbLine
62
7
6
CONTINUOUS
10
-599.6557466925
20
-69.2247624540
11
-599.6557466925
21
227.5752375460
0
LINE
5
228
100
AcDbEntity
8
0
100
AcDbLine
62
7
6
CONTINUOUS
10
-537.8557466925
20
-32.6313627921
11
-537.8557466925
21
227.5752375460
0
LINE
5
229
100
AcDbEntity
8
0
100
AcDbLine
62
7
6
CONTINUOUS
10
-599.6557466925
20
226.0752375460
11
-568.7557466925
21
226.0752375460
0
LINE
5
22A
100
AcDbEntity
8
0
100
AcDbLine
62
7
6
CONTINUOUS
10
-537.8557466925
20
226.0752375460
11
-568.7557466925
21
226.0752375460
0
SOLID
5
22B
100
AcDbEntity
8
0
100
AcDbTrace
62
7
6
CONTINUOUS
10
-596.6557466925
20
227.0252375460
11
-599.6557466925
21
226.0752375460
12
-596.6557466925
22
225.1252375460
13
-596.6557466925
23
225.1252375460
0
SOLID
5
22C
100
AcDbEntity
8
0
100
AcDbTrace
62
7
6
CONTINUOUS
10
-540.8557466925
20
225.1252375460
11
-537.8557466925
21
226.0752375460
12
-540.8557466925
22
227.0252375460
13
-540.8557466925
23
227.0252375460
0
ENDBLK
5
22D
100
AcDbEntity
8
0
100
AcDbBlockEnd
0
ENDSEC
0
SECTION
2
ENTITIES
0
DIMENSION
5
22E
100
AcDbEntity
8
0
100
AcDbDimension
62
7
6
CONTINUOUS
2
*D0
10
120.9475456855
20
-350.5247624540
11
118.6975456855
21
-66.2247624540
70
160
3
DIMSTYLE_1
100
AcDbAlignedDimension
13
107.6475456855
23
218.0752375460
14
104.2475456855
24
-350.5247624540
50
270.000000
100
AcDbRotatedDimension
0
DIMENSION
5
22F
100
AcDbEntity
8
0
100
AcDbDimension
62
7
6
CONTINUOUS
2
*D1
10
-482.5524543145
20
226.0752375460
11
-185.0524543145
21
228.3252375460
70
160
3
DIMSTYLE_2
100
AcDbAlignedDimension
13
112.4475456855
23
204.7752375460
14
-482.5524543145
24
204.7752375460
50
180.000000
100
AcDbRotatedDimension
0
DIMENSION
5
230
100
AcDbEntity
8
0
100
AcDbDimension
62
7
6
CONTINUOUS
2
*D2
10
-537.8557466925
20
226.0752375460
11
-568.7557466925
21
228.3252375460
70
160
3
DIMSTYLE_1
100
AcDbAlignedDimension
13
-599.6557466925
23
-69.2247624540
14
-537.8557466925
24
-32.6313627921
100
AcDbRotatedDimension
0
LINE
5
231
100
AcDbEntity
8
0
100
AcDbLine
62
7
6
CONTINUOUS
10
-444.7586543145
20
-251.4814884540
11
-453.5019283145
21
-242.7002504540
0
LINE
5
232
100
AcDbEntity
8
0
100
AcDbLine
62
7
6
CONTINUOUS
10
-448.8580543145
20
-242.6137664540
11
-440.1145763145
21
-251.3950044540
0
LINE
5
233
100
AcDbEntity
8
0
100
AcDbLine
62
7
6
CONTINUOUS
10
-482.5524543145
20
-336.7247624540
11
-482.5524543145
21
204.2752375460
0
LINE
5
234
100
AcDbEntity
8
0
100
AcDbLine
62
7
6
CONTINUOUS
10
-480.5524543145
20
-338.7247624540
11
-480.5524543145
21
-336.7247624540
0
LINE
5
235
100
AcDbEntity
8
0
100
AcDbLine
62
7
6
CONTINUOUS
10
-480.5524543145
20
206.2752375460
11
-480.5524543145
21
204.2752375460
0
LINE
5
236
100
AcDbEntity
8
0
100
AcDbLine
62
9
6
CONTINUOUS
10
-480.5524543145
20
-336.7247624540
11
-480.5524543145
21
204.2752375460
0
LINE
5
237
100
AcDbEntity
8
0
100
AcDbLine
62
7
6
CONTINUOUS
10
-460.1133863145
20
-242.7002504540
11
-460.1133863145
21
-260.2247624540
0
LINE
5
238
100
AcDbEntity
8
0
100
AcDbLine
62
7
6
CONTINUOUS
10
-460.1131823968
20
-162.2254987209
11
-460.1131823968
21
-172.2453061936
0
LINE
5
239
100
AcDbEntity
8
0
100
AcDbLine
62
7
6
CONTINUOUS
10
-460.1131823968
20
-179.3202371124
11
-460.1131823968
21
-183.7414091511
0
LINE
5
23A
100
AcDbEntity
8
0
100
AcDbLine
62
7
6
CONTINUOUS
10
-460.1131823145
20
-190.9515444540
11
-460.1131823145
21
-196.7410104540
0
LINE
5
23B
100
AcDbEntity
8
0
100
AcDbLine
62
7
6
CONTINUOUS
10
-460.1131823145
20
-205.2573204540
11
-460.1131823145
21
-211.0467844540
0
LINE
5
23C
100
AcDbEntity
8
0
100
AcDbLine
62
7
6
CONTINUOUS
10
-460.0924743145
20
-213.0736464540
11
-460.0924743145
21
-217.2173024540
0
LINE
5
23D
100
AcDbEntity
8
0
100
AcDbLine
62
7
6
CONTINUOUS
10
-460.0819183145
20
-217.6054584540
11
-460.0819183145
21
-221.8877724540
0
LINE
5
23E
100
AcDbEntity
8
0
100
AcDbLine
62
7
6
CONTINUOUS
10
-460.0819183145
20
-230.7437184540
11
-460.0819183145
21
-235.0260304540
0
LINE
5
23F
100
AcDbEntity
8
0
100
AcDbLine
62
7
6
CONTINUOUS
10
-460.0512013145
20
150.9982985460
11
-460.0512013145
21
134.4281955460
0
LINE
5
240
100
AcDbEntity
8
0
100
AcDbLine
62
7
6
CONTINUOUS
10
-460.0512013145
20
129.2188395460
11
-460.0512013145
21
113.4550995460
0
LINE
5
241
100
AcDbEntity
8
0
100
AcDbLine
62
7
6
CONTINUOUS
10
-460.0512013145
20
63.6103535460
11
-460.0512013145
21
44.4184775460
0
LINE
5
242
100
AcDbEntity
8
0
100
AcDbLine
62
7
6
CONTINUOUS
10
-460.0512013145
20
41.3263705460
11
-460.0512013145
21
24.7562685460
0
LINE
5
243
100
AcDbEntity
8
0
100
AcDbLine
62
7
6
CONTINUOUS
10
-460.0512013145
20
17.8999945460
11
-460.0512013145
21
14.8749025460
0
LINE
5
244
100
AcDbEntity
8
0
100
AcDbLine
62
7
6
CONTINUOUS
10
-460.0512013145
20
2.1700365460
11
-460.0512013145
21
-1.2247294540
0
LINE
5
245
100
AcDbEntity
8
0
100
AcDbLine
62
7
6
CONTINUOUS
10
-458.8761213145
20
100.4721242165
11
-458.8761213145
21
97.6022382211
0
LINE
5
246
100
AcDbEntity
8
0
100
AcDbLine
62
7
6
CONTINUOUS
10
-457.8104533145
20
27.9493445460
11
-457.8104533145
21
41.3263855452
0
LINE
5
247
100
AcDbEntity
8
0
100
AcDbLine
62
7
6
CONTINUOUS
10
-457.8104533145
20
44.4184845456
11
-457.8104533145
21
52.4178985460
0
LINE
5
248
100
AcDbEntity
8
0
100
AcDbLine
62
7
6
CONTINUOUS
10
-457.8104533145
20
55.6109655460
11
-457.8104533145
21
63.6103795447
0
LINE
5
249
100
AcDbEntity
8
0
100
AcDbLine
62
7
6
CONTINUOUS
10
-457.8104533145
20
116.6483675460
11
-457.8104533145
21
129.2188395460
0
LINE
5
24A
100
AcDbEntity
8
0
100
AcDbLine
62
7
6
CONTINUOUS
10
-457.8104533145
20
137.6213715460
11
-457.8104533145
21
150.9982695474
0
LINE
5
24B
100
AcDbEntity
8
0
100
AcDbLine
62
7
6
CONTINUOUS
10
-456.8909929121
20
-168.1225602224
11
-456.8909929121
21
-163.2230944321
0
LINE
5
24C
100
AcDbEntity
8
0
100
AcDbLine
62
7
6
CONTINUOUS
10
-452.9105673650
20
71.7512903353
11
-453.3450542310
21
71.2787852427
0
LINE
5
24D
100
AcDbEntity
8
0
100
AcDbLine
62
7
6
CONTINUOUS
10
103.7475456855
20
-350.5247624540
11
107.1475456855
21
-350.5247624540
0
LINE
5
24E
100
AcDbEntity
8
0
100
AcDbLine
62
7
6
CONTINUOUS
10
102.9475456855
20
-349.7247624540
11
107.9475456855
21
-349.7247624540
0
LINE
5
24F
100
AcDbEntity
8
0
100
AcDbLine
62
7
6
CONTINUOUS
10
97.9475456855
20
-341.5247624540
11
112.9475456855
21
-341.5247624540
0
LINE
5
250
100
AcDbEntity
8
0
100
AcDbLine
62
7
6
CONTINUOUS
10
47.4475456855
20
-338.7247624540
11
112.9475456855
21
-338.7247624540
0
LINE
5
251
100
AcDbEntity
8
0
100
AcDbLine
62
7
6
CONTINUOUS
10
-417.5524543145
20
-338.7247624540
11
-480.5524543145
21
-338.7247624540
0
LINE
5
252
100
AcDbEntity
8
0
100
AcDbLine
62
7
6
CONTINUOUS
10
-453.9153192857
20
81.6738979956
11
-453.9153192857
21
85.0791919371
0
LINE
5
253
100
AcDbEntity
8
0
100
AcDbLine
62
7
6
CONTINUOUS
10
-451.4522763145
20
150.0910025460
11
-451.4522763145
21
137.6213655460
0
LINE
5
254
100
AcDbEntity
8
0
100
AcDbLine
62
7
6
CONTINUOUS
10
-451.4522763145
20
127.6725805460
11
-451.4522763145
21
116.6483675460
0
LINE
5
255
100
AcDbEntity
8
0
100
AcDbLine
62
7
6
CONTINUOUS
10
-451.4522763145
20
40.4189385460
11
-451.4522763145
21
27.9493445460
0
LINE
5
256
100
AcDbEntity
8
0
100
AcDbLine
62
7
6
CONTINUOUS
10
-450.5818192222
20
-163.5349192209
11
-450.5818192222
21
-168.1225602224
0
LINE
5
257
100
AcDbEntity
8
0
100
AcDbLine
62
7
6
CONTINUOUS
10
-449.2115853145
20
27.9493445460
11
-449.2115853145
21
40.4189385460
0
LINE
5
258
100
AcDbEntity
8
0
100
AcDbLine
62
7
6
CONTINUOUS
10
-449.2115853145
20
116.6483675460
11
-449.2115853145
21
127.6725805460
0
LINE
5
259
100
AcDbEntity
8
0
100
AcDbLine
62
7
6
CONTINUOUS
10
-449.2115853145
20
137.6213655460
11
-449.2115853145
21
150.0910025460
0
LINE
5
25A
100
AcDbEntity
8
0
100
AcDbLine
62
7
6
CONTINUOUS
10
-447.4323076505
20
-178.9669980938
11
-447.4323076505
21
-184.0946481697
0
LINE
5
25B
100
AcDbEntity
8
0
100
AcDbLine
62
7
6
CONTINUOUS
10
-447.3906904098
20
-168.1396131405
11
-447.3906904098
21
-165.4058679540
0
LINE
5
25C
100
AcDbEntity
8
0
100
AcDbLine
62
7
6
CONTINUOUS
10
-446.8005876163
20
69.9753228566
11
-446.8005876163
21
66.5700276634
0
LINE
5
25D
100
AcDbEntity
8
0
100
AcDbLine
62
7
6
CONTINUOUS
10
-444.0643563179
20
-185.0508296511
11
-444.0643563179
21
-178.0108166123
0
LINE
5
25E
100
AcDbEntity
8
0
100
AcDbLine
62
7
6
CONTINUOUS
10
-442.2931633145
20
151.0992305460
11
-442.2931633145
21
137.6213655460
0
LINE
5
25F
100
AcDbEntity
8
0
100
AcDbLine
62
7
6
CONTINUOUS
10
-442.2931633145
20
41.4272155460
11
-442.2931633145
21
27.9493445460
0
LINE
5
260
100
AcDbEntity
8
0
100
AcDbLine
62
7
6
CONTINUOUS
10
-441.6372413145
20
90.8626825297
11
-441.6372413145
21
93.7035845460
0
LINE
5
261
100
AcDbEntity
8
0
100
AcDbLine
62
7
6
CONTINUOUS
10
-441.6372413145
20
104.2336036790
11
-441.6372413145
21
107.1089358364
0
LINE
5
262
100
AcDbEntity
8
0
100
AcDbLine
62
7
6
CONTINUOUS
10
-441.6024543145
20
-60.5747624540
11
-441.6024543145
21
-68.5747624540
0
LINE
5
263
100
AcDbEntity
8
0
100
AcDbLine
62
7
6
CONTINUOUS
10
-441.5524543145
20
-76.8747624540
11
-441.5524543145
21
-55.5747624540
0
LINE
5
264
100
AcDbEntity
8
0
100
AcDbLine
62
7
6
CONTINUOUS
10
-440.1145763145
20
-260.1382784540
11
-440.1145763145
21
-242.6137664540
0
LINE
5
265
100
AcDbEntity
8
0
100
AcDbLine
62
7
6
CONTINUOUS
10
-440.1044243145
20
-228.3737684540
11
-440.1044243145
21
-224.2577224540
0
LINE
5
266
100
AcDbEntity
8
0
100
AcDbLine
62
7
6
CONTINUOUS
10
-440.1007709159
20
-172.2453061936
11
-440.1007709159
21
-168.1396131405
0
LINE
5
267
100
AcDbEntity
8
0
100
AcDbLine
62
7
6
CONTINUOUS
10
-440.0938683145
20
-211.0467844540
11
-440.0938683145
21
-207.2632704540
0
LINE
5
268
100
AcDbEntity
8
0
100
AcDbLine
62
7
6
CONTINUOUS
10
-440.0938683145
20
-194.7348564540
11
-440.0938683145
21
-190.9515444540
0
LINE
5
269
100
AcDbEntity
8
0
100
AcDbLine
62
7
6
CONTINUOUS
10
-440.0938685443
20
-190.6429687354
11
-440.0938685443
21
-186.2360074618
0
LINE
5
26A
100
AcDbEntity
8
0
100
AcDbLine
62
7
6
CONTINUOUS
10
-440.0938685443
20
-176.8256388016
11
-440.0938685443
21
-172.4186775281
0
LINE
5
26B
100
AcDbEntity
8
0
100
AcDbLine
62
7
6
CONTINUOUS
10
-440.0938685443
20
-160.8949650841
11
-440.0938685443
21
-156.3422419626
0
LINE
5
26C
100
AcDbEntity
8
0
100
AcDbLine
62
7
6
CONTINUOUS
10
-440.0869663145
20
-203.0745464540
11
-440.0869663145
21
-198.9237844540
0
LINE
5
26D
100
AcDbEntity
8
0
100
AcDbLine
62
7
6
CONTINUOUS
10
-440.0524543145
20
-217.2173024540
11
-440.0524543145
21
-213.0736464540
0
LINE
5
26E
100
AcDbEntity
8
0
100
AcDbLine
62
7
6
CONTINUOUS
10
-440.0524543145
20
-1.2247294540
11
-440.0524543145
21
1.8003625460
0
LINE
5
26F
100
AcDbEntity
8
0
100
AcDbLine
62
7
6
CONTINUOUS
10
-440.0524543145
20
14.4044125460
11
-440.0524543145
21
17.8999945460
0
LINE
5
270
100
AcDbEntity
8
0
100
AcDbLine
62
7
6
CONTINUOUS
10
-440.0524543145
20
24.7562685460
11
-440.0524543145
21
41.4272155460
0
LINE
5
271
100
AcDbEntity
8
0
100
AcDbLine
62
7
6
CONTINUOUS
10
-440.0524543145
20
52.4178985460
11
-440.0524543145
21
55.6109655460
0
LINE
5
272
100
AcDbEntity
8
0
100
AcDbLine
62
7
6
CONTINUOUS
10
-440.0524543145
20
113.4550995460
11
-440.0524543145
21
116.6483675460
0
LINE
5
273
100
AcDbEntity
8
0
100
AcDbLine
62
7
6
CONTINUOUS
10
-440.0524543145
20
134.4281955460
11
-440.0524543145
21
151.0992305460
0
LINE
5
274
100
AcDbEntity
8
0
100
AcDbLine
62
7
6
CONTINUOUS
10
-439.5524543145
20
-76.8747624540
11
-439.5524543145
21
-55.5747624540
0
LINE
5
275
100
AcDbEntity
8
0
100
AcDbLine
62
7
6
CONTINUOUS
10
-439.5024543145
20
-68.5747624540
11
-439.5024543145
21
-60.5747624540
0
LINE
5
276
100
AcDbEntity
8
0
100
AcDbLine
62
7
6
CONTINUOUS
10
-455.0160614748
20
99.0371134408
11
-441.6372413145
21
104.2336036790
0
LINE
5
277
100
AcDbEntity
8
0
100
AcDbLine
62
7
6
CONTINUOUS
10
-441.6372413145
20
107.1089358364
11
-458.8761213145
21
100.4721242165
0
LINE
5
278
100
AcDbEntity
8
0
100
AcDbLine
62
7
6
CONTINUOUS
10
-482.5524543145
20
-336.7247624540
11
-480.5524543145
21
-336.7247624540
0
LINE
5
279
100
AcDbEntity
8
0
100
AcDbLine
62
7
6
CONTINUOUS
10
112.4475456855
20
-336.7247624540
11
110.4475456855
21
-336.7247624540
0
LINE
5
27A
100
AcDbEntity
8
0
100
AcDbLine
62
9
6
CONTINUOUS
10
110.4475456855
20
-336.7247624540
11
47.4475456855
21
-336.7247624540
0
LINE
5
27B
100
AcDbEntity
8
0
100
AcDbLine
62
9
6
CONTINUOUS
10
-417.5524543145
20
-336.7247624540
11
-480.5524543145
21
-336.7247624540
0
LINE
5
27C
100
AcDbEntity
8
0
100
AcDbLine
62
7
6
CONTINUOUS
10
-417.5524543145
20
-333.7247624540
11
47.4475456855
21
-333.7247624540
0
LINE
5
27D
100
AcDbEntity
8
0
100
AcDbLine
62
7
6
CONTINUOUS
10
-417.5524543145
20
-332.7247624540
11
47.4475456855
21
-332.7247624540
0
LINE
5
27E
100
AcDbEntity
8
0
100
AcDbLine
62
7
6
CONTINUOUS
10
-417.5524543145
20
-338.7247624540
11
-417.5524543145
21
206.2752375460
0
LINE
5
27F
100
AcDbEntity
8
0
100
AcDbLine
62
7
6
CONTINUOUS
10
-456.1017183145
20
1.8003625460
11
-440.0524543145
21
14.4044125460
0
LINE
5
280
100
AcDbEntity
8
0
100
AcDbLine
62
7
6
CONTINUOUS
10
-443.8336773145
20
14.8749025460
11
-460.0512013145
21
2.1700365460
0
LINE
5
281
100
AcDbEntity
8
0
100
AcDbLine
62
7
6
CONTINUOUS
10
-460.0819183145
20
-221.8877724540
11
-445.7067143145
21
-226.3156424540
0
LINE
5
282
100
AcDbEntity
8
0
100
AcDbLine
62
7
6
CONTINUOUS
10
-440.1044243145
20
-224.2577224540
11
-460.0819183145
21
-217.6054584540
0
LINE
5
283
100
AcDbEntity
8
0
100
AcDbLine
62
7
6
CONTINUOUS
10
-460.1133863145
20
-260.2247624540
11
-453.5019283145
21
-260.2247624540
0
LINE
5
284
100
AcDbEntity
8
0
100
AcDbLine
62
7
6
CONTINUOUS
10
-448.8580543145
20
-260.1382784540
11
-440.1145763145
21
-260.1382784540
0
LINE
5
285
100
AcDbEntity
8
0
100
AcDbLine
62
7
6
CONTINUOUS
10
-460.1131823145
20
-196.7410104540
11
-445.8315663145
21
-200.9989624540
0
LINE
5
286
100
AcDbEntity
8
0
100
AcDbLine
62
7
6
CONTINUOUS
10
-447.4323076505
20
-184.0946481697
11
-455.9547065018
21
-181.5310261426
0
LINE
5
287
100
AcDbEntity
8
0
100
AcDbLine
62
7
6
CONTINUOUS
10
-440.0869663145
20
-198.9237844540
11
-453.9111983145
21
-194.7454144540
0
LINE
5
288
100
AcDbEntity
8
0
100
AcDbLine
62
7
6
CONTINUOUS
10
-460.1131823968
20
-183.7414091511
11
-440.0938685443
21
-190.6429687354
0
LINE
5
289
100
AcDbEntity
8
0
100
AcDbLine
62
7
6
CONTINUOUS
10
-453.5019283145
20
-242.7002504540
11
-460.1133863145
21
-242.7002504540
0
LINE
5
28A
100
AcDbEntity
8
0
100
AcDbLine
62
7
6
CONTINUOUS
10
-440.1145763145
20
-242.6137664540
11
-448.8580543145
21
-242.6137664540
0
LINE
5
28B
100
AcDbEntity
8
0
100
AcDbLine
62
7
6
CONTINUOUS
10
-440.0938685443
20
-186.2360074618
11
-444.0643563179
21
-185.0508296511
0
LINE
5
28C
100
AcDbEntity
8
0
100
AcDbLine
62
7
6
CONTINUOUS
10
-460.0924743145
20
-217.2173024540
11
-440.0524543145
21
-217.2173024540
0
LINE
5
28D
100
AcDbEntity
8
0
100
AcDbLine
62
7
6
CONTINUOUS
10
-440.0524543145
20
-213.0736464540
11
-460.0924743145
21
-213.0736464540
0
LINE
5
28E
100
AcDbEntity
8
0
100
AcDbLine
62
7
6
CONTINUOUS
10
-460.1131823145
20
-211.0467844540
11
-440.0938683145
21
-211.0467844540
0
LINE
5
28F
100
AcDbEntity
8
0
100
AcDbLine
62
7
6
CONTINUOUS
10
-440.0938683145
20
-207.2632704540
11
-453.9111983145
21
-207.2529164540
0
LINE
5
290
100
AcDbEntity
8
0
100
AcDbLine
62
7
6
CONTINUOUS
10
-453.9111983145
20
-194.7454144540
11
-440.0938683145
21
-194.7348564540
0
LINE
5
291
100
AcDbEntity
8
0
100
AcDbLine
62
7
6
CONTINUOUS
10
-440.0938683145
20
-190.9515444540
11
-460.1131823145
21
-190.9515444540
0
LINE
5
292
100
AcDbEntity
8
0
100
AcDbLine
62
7
6
CONTINUOUS
10
-460.1131823968
20
-172.2453061936
11
-440.1007709159
21
-172.2453061936
0
LINE
5
293
100
AcDbEntity
8
0
100
AcDbLine
62
7
6
CONTINUOUS
10
-440.1007709159
20
-168.1396131405
11
-447.3906904098
21
-168.1396131405
0
LINE
5
294
100
AcDbEntity
8
0
100
AcDbLine
62
7
6
CONTINUOUS
10
-450.5818192222
20
-168.1225602224
11
-456.8909929121
21
-168.1225602224
0
LINE
5
295
100
AcDbEntity
8
0
100
AcDbLine
62
7
6
CONTINUOUS
10
-453.5019283145
20
-260.2247624540
11
-444.7586543145
21
-251.4814884540
0
LINE
5
296
100
AcDbEntity
8
0
100
AcDbLine
62
7
6
CONTINUOUS
10
-440.0938685443
20
-156.3422419626
11
-447.6194837282
21
-161.2482041027
0
LINE
5
297
100
AcDbEntity
8
0
100
AcDbLine
62
7
6
CONTINUOUS
10
-447.3906904098
20
-165.4058679540
11
-440.0938685443
21
-160.8949650841
0
LINE
5
298
100
AcDbEntity
8
0
100
AcDbLine
62
7
6
CONTINUOUS
10
-440.1145763145
20
-251.3950044540
11
-448.8580543145
21
-260.1382784540
0
LINE
5
299
100
AcDbEntity
8
0
100
AcDbLine
62
7
6
CONTINUOUS
10
103.7475456855
20
218.0752375460
11
102.9475456855
21
217.2752375460
0
LINE
5
29A
100
AcDbEntity
8
0
100
AcDbLine
62
7
6
CONTINUOUS
10
-439.5524543145
20
-76.8747624540
11
-441.5524543145
21
-76.8747624540
0
LINE
5
29B
100
AcDbEntity
8
0
100
AcDbLine
62
7
6
CONTINUOUS
10
-439.5524543145
20
-72.7247624540
11
-441.5524543145
21
-72.7247624540
0
LINE
5
29C
100
AcDbEntity
8
0
100
AcDbLine
62
7
6
CONTINUOUS
10
-439.5524543145
20
-69.7247624540
11
-441.5524543145
21
-69.7247624540
0
LINE
5
29D
100
AcDbEntity
8
0
100
AcDbLine
62
7
6
CONTINUOUS
10
-441.6024543145
20
-68.5747624540
11
-441.5524543145
21
-68.5747624540
0
LINE
5
29E
100
AcDbEntity
8
0
100
AcDbLine
62
7
6
CONTINUOUS
10
-439.5524543145
20
-68.5747624540
11
-439.5024543145
21
-68.5747624540
0
LINE
5
29F
100
AcDbEntity
8
0
100
AcDbLine
62
7
6
CONTINUOUS
10
-439.5524543145
20
-62.7247624540
11
-441.5524543145
21
-62.7247624540
0
LINE
5
2A0
100
AcDbEntity
8
0
100
AcDbLine
62
7
6
CONTINUOUS
10
103.7475456855
20
-350.5247624540
11
102.9475456855
21
-349.7247624540
0
LINE
5
2A1
100
AcDbEntity
8
0
100
AcDbLine
62
7
6
CONTINUOUS
10
-440.0938685443
20
-172.4186775281
11
-460.1131823968
21
-179.3202371124
0
LINE
5
2A2
100
AcDbEntity
8
0
100
AcDbLine
62
7
6
CONTINUOUS
10
-439.5024543145
20
-60.5747624540
11
-439.5524543145
21
-60.5747624540
0
LINE
5
2A3
100
AcDbEntity
8
0
100
AcDbLine
62
7
6
CONTINUOUS
10
-441.5524543145
20
-60.5747624540
11
-441.6024543145
21
-60.5747624540
0
LINE
5
2A4
100
AcDbEntity
8
0
100
AcDbLine
62
7
6
CONTINUOUS
10
-439.5524543145
20
-59.7247624540
11
-441.5524543145
21
-59.7247624540
0
LINE
5
2A5
100
AcDbEntity
8
0
100
AcDbLine
62
7
6
CONTINUOUS
10
-439.5524543145
20
-55.5747624540
11
-441.5524543145
21
-55.5747624540
0
LINE
5
2A6
100
AcDbEntity
8
0
100
AcDbLine
62
7
6
CONTINUOUS
10
-453.9111983145
20
-207.2529164540
11
-440.0869663145
21
-203.0745464540
0
LINE
5
2A7
100
AcDbEntity
8
0
100
AcDbLine
62
7
6
CONTINUOUS
10
-455.9547065018
20
-181.5310261426
11
-447.4323076505
21
-178.9669980938
0
LINE
5
2A8
100
AcDbEntity
8
0
100
AcDbLine
62
7
6
CONTINUOUS
10
-444.0643563179
20
-178.0108166123
11
-440.0938685443
21
-176.8256388016
0
LINE
5
2A9
100
AcDbEntity
8
0
100
AcDbLine
62
7
6
CONTINUOUS
10
-445.8315663145
20
-200.9989624540
11
-460.1131823145
21
-205.2573204540
0
LINE
5
2AA
100
AcDbEntity
8
0
100
AcDbLine
62
7
6
CONTINUOUS
10
-458.8761213145
20
97.6022382211
11
-441.6372413145
21
90.8626825297
0
LINE
5
2AB
100
AcDbEntity
8
0
100
AcDbLine
62
7
6
CONTINUOUS
10
-441.6372413145
20
93.7035845460
11
-455.0160614748
21
99.0371134408
0
LINE
5
2AC
100
AcDbEntity
8
0
100
AcDbLine
62
7
6
CONTINUOUS
10
-460.0819183145
20
-235.0260304540
11
-440.1044243145
21
-228.3737684540
0
LINE
5
2AD
100
AcDbEntity
8
0
100
AcDbLine
62
7
6
CONTINUOUS
10
-445.7067143145
20
-226.3156424540
11
-460.0819183145
21
-230.7437184540
0
LINE
5
2AE
100
AcDbEntity
8
0
100
AcDbLine
62
7
6
CONTINUOUS
10
-460.0512013145
20
-1.2247294540
11
-440.0524543145
21
-1.2247294540
0
LINE
5
2AF
100
AcDbEntity
8
0
100
AcDbLine
62
7
6
CONTINUOUS
10
-440.0524543145
20
1.8003625460
11
-456.1017183145
21
1.8003625460
0
LINE
5
2B0
100
AcDbEntity
8
0
100
AcDbLine
62
7
6
CONTINUOUS
10
-460.0512013145
20
14.8749025460
11
-443.8336773145
21
14.8749025460
0
LINE
5
2B1
100
AcDbEntity
8
0
100
AcDbLine
62
7
6
CONTINUOUS
10
-440.0524543145
20
17.8999945460
11
-460.0512013145
21
17.8999945460
0
LINE
5
2B2
100
AcDbEntity
8
0
100
AcDbLine
62
7
6
CONTINUOUS
10
-460.0512013145
20
24.7562685460
11
-440.0524543145
21
24.7562685460
0
LINE
5
2B3
100
AcDbEntity
8
0
100
AcDbLine
62
7
6
CONTINUOUS
10
-442.2931633145
20
27.9493445460
11
-449.2115853145
21
27.9493445460
0
LINE
5
2B4
100
AcDbEntity
8
0
100
AcDbLine
62
7
6
CONTINUOUS
10
-451.4522763145
20
27.9493445460
11
-457.8104533145
21
27.9493445460
0
LINE
5
2B5
100
AcDbEntity
8
0
100
AcDbLine
62
7
6
CONTINUOUS
10
-449.2115853145
20
40.4189385460
11
-451.4522763145
21
40.4189385460
0
LINE
5
2B6
100
AcDbEntity
8
0
100
AcDbLine
62
7
6
CONTINUOUS
10
-457.8104533145
20
41.3263855452
11
-460.0512013145
21
41.3263705460
0
LINE
5
2B7
100
AcDbEntity
8
0
100
AcDbLine
62
7
6
CONTINUOUS
10
-440.0524543145
20
41.4272155460
11
-442.2931633145
21
41.4272155460
0
LINE
5
2B8
100
AcDbEntity
8
0
100
AcDbLine
62
7
6
CONTINUOUS
10
-460.0512013145
20
44.4184775460
11
-457.8104533145
21
44.4184845456
0
LINE
5
2B9
100
AcDbEntity
8
0
100
AcDbLine
62
7
6
CONTINUOUS
10
-457.8104533145
20
52.4178985460
11
-440.0524543145
21
52.4178985460
0
LINE
5
2BA
100
AcDbEntity
8
0
100
AcDbLine
62
7
6
CONTINUOUS
10
-440.0524543145
20
55.6109655460
11
-457.8104533145
21
55.6109655460
0
LINE
5
2BB
100
AcDbEntity
8
0
100
AcDbLine
62
7
6
CONTINUOUS
10
-457.8104533145
20
63.6103795447
11
-460.0512013145
21
63.6103535460
0
LINE
5
2BC
100
AcDbEntity
8
0
100
AcDbLine
62
7
6
CONTINUOUS
10
-460.0512013145
20
113.4550995460
11
-440.0524543145
21
113.4550995460
0
LINE
5
2BD
100
AcDbEntity
8
0
100
AcDbLine
62
7
6
CONTINUOUS
10
-440.0524543145
20
116.6483675460
11
-449.2115853145
21
116.6483675460
0
LINE
5
2BE
100
AcDbEntity
8
0
100
AcDbLine
62
7
6
CONTINUOUS
10
-451.4522763145
20
116.6483675460
11
-457.8104533145
21
116.6483675460
0
LINE
5
2BF
100
AcDbEntity
8
0
100
AcDbLine
62
7
6
CONTINUOUS
10
-449.2115853145
20
127.6725805460
11
-451.4522763145
21
127.6725805460
0
LINE
5
2C0
100
AcDbEntity
8
0
100
AcDbLine
62
7
6
CONTINUOUS
10
-457.8104533145
20
129.2188395460
11
-460.0512013145
21
129.2188395460
0
LINE
5
2C1
100
AcDbEntity
8
0
100
AcDbLine
62
7
6
CONTINUOUS
10
-460.0512013145
20
134.4281955460
11
-440.0524543145
21
134.4281955460
0
LINE
5
2C2
100
AcDbEntity
8
0
100
AcDbLine
62
7
6
CONTINUOUS
10
-451.4522763145
20
137.6213655460
11
-457.8104533145
21
137.6213715460
0
LINE
5
2C3
100
AcDbEntity
8
0
100
AcDbLine
62
7
6
CONTINUOUS
10
-442.2931633145
20
137.6213655460
11
-449.2115853145
21
137.6213655460
0
LINE
5
2C4
100
AcDbEntity
8
0
100
AcDbLine
62
7
6
CONTINUOUS
10
-449.2115853145
20
150.0910025460
11
-451.4522763145
21
150.0910025460
0
LINE
5
2C5
100
AcDbEntity
8
0
100
AcDbLine
62
7
6
CONTINUOUS
10
-457.8104533145
20
150.9982695474
11
-460.0512013145
21
150.9982985460
0
LINE
5
2C6
100
AcDbEntity
8
0
100
AcDbLine
62
7
6
CONTINUOUS
10
-440.0524543145
20
151.0992305460
11
-442.2931633145
21
151.0992305460
0
LINE
5
2C7
100
AcDbEntity
8
0
100
AcDbLine
62
7
6
CONTINUOUS
10
47.4475456855
20
206.2752375460
11
47.4475456855
21
-338.7247624540
0
LINE
5
2C8
100
AcDbEntity
8
0
100
AcDbLine
62
7
6
CONTINUOUS
10
47.4475456855
20
200.2752375460
11
-417.5524543145
21
200.2752375460
0
LINE
5
2C9
100
AcDbEntity
8
0
100
AcDbLine
62
7
6
CONTINUOUS
10
47.4475456855
20
201.2752375460
11
-417.5524543145
21
201.2752375460
0
LINE
5
2CA
100
AcDbEntity
8
0
100
AcDbLine
62
7
6
CONTINUOUS
10
-482.5524543145
20
204.2752375460
11
-480.5524543145
21
204.2752375460
0
LINE
5
2CB
100
AcDbEntity
8
0
100
AcDbLine
62
9
6
CONTINUOUS
10
-480.5524543145
20
204.2752375460
11
-417.5524543145
21
204.2752375460
0
LINE
5
2CC
100
AcDbEntity
8
0
100
AcDbLine
62
7
6
CONTINUOUS
10
112.4475456855
20
204.2752375460
11
110.4475456855
21
204.2752375460
0
LINE
5
2CD
100
AcDbEntity
8
0
100
AcDbLine
62
9
6
CONTINUOUS
10
47.4475456855
20
204.2752375460
11
110.4475456855
21
204.2752375460
0
LINE
5
2CE
100
AcDbEntity
8
0
100
AcDbLine
62
7
6
CONTINUOUS
10
-480.5524543145
20
206.2752375460
11
-417.5524543145
21
206.2752375460
0
LINE
5
2CF
100
AcDbEntity
8
0
100
AcDbLine
62
7
6
CONTINUOUS
10
47.4475456855
20
206.2752375460
11
112.9475456855
21
206.2752375460
0
LINE
5
2D0
100
AcDbEntity
8
0
100
AcDbLine
62
7
6
CONTINUOUS
10
112.9475456855
20
209.0752375460
11
97.9475456855
21
209.0752375460
0
LINE
5
2D1
100
AcDbEntity
8
0
100
AcDbLine
62
7
6
CONTINUOUS
10
97.9475456855
20
206.2752375460
11
97.9475456855
21
209.0752375460
0
LINE
5
2D2
100
AcDbEntity
8
0
100
AcDbLine
62
7
6
CONTINUOUS
10
97.9475456855
20
-338.7247624540
11
97.9475456855
21
-341.5247624540
0
LINE
5
2D3
100
AcDbEntity
8
0
100
AcDbLine
62
7
6
CONTINUOUS
10
102.9475456855
20
-349.7247624540
11
102.9475456855
21
-341.5247624540
0
LINE
5
2D4
100
AcDbEntity
8
0
100
AcDbLine
62
7
6
CONTINUOUS
10
102.9475456855
20
217.2752375460
11
102.9475456855
21
209.0752375460
0
LINE
5
2D5
100
AcDbEntity
8
0
100
AcDbLine
62
7
6
CONTINUOUS
10
107.9475456855
20
-349.7247624540
11
107.9475456855
21
-341.5247624540
0
LINE
5
2D6
100
AcDbEntity
8
0
100
AcDbLine
62
7
6
CONTINUOUS
10
107.9475456855
20
217.2752375460
11
107.9475456855
21
209.0752375460
0
LINE
5
2D7
100
AcDbEntity
8
0
100
AcDbLine
62
7
6
CONTINUOUS
10
110.4475456855
20
-338.7247624540
11
110.4475456855
21
-336.7247624540
0
LINE
5
2D8
100
AcDbEntity
8
0
100
AcDbLine
62
7
6
CONTINUOUS
10
110.4475456855
20
206.2752375460
11
110.4475456855
21
204.2752375460
0
LINE
5
2D9
100
AcDbEntity
8
0
100
AcDbLine
62
9
6
CONTINUOUS
10
110.4475456855
20
204.2752375460
11
110.4475456855
21
-336.7247624540
0
LINE
5
2DA
100
AcDbEntity
8
0
100
AcDbLine
62
7
6
CONTINUOUS
10
112.4475456855
20
204.2752375460
11
112.4475456855
21
-336.7247624540
0
LINE
5
2DB
100
AcDbEntity
8
0
100
AcDbLine
62
7
6
CONTINUOUS
10
112.9475456855
20
206.2752375460
11
112.9475456855
21
209.0752375460
0
LINE
5
2DC
100
AcDbEntity
8
0
100
AcDbLine
62
7
6
CONTINUOUS
10
112.9475456855
20
-338.7247624540
11
112.9475456855
21
-341.5247624540
0
LINE
5
2DD
100
AcDbEntity
8
0
100
AcDbLine
62
7
6
CONTINUOUS
10
107.9475456855
20
217.2752375460
11
102.9475456855
21
217.2752375460
0
LINE
5
2DE
100
AcDbEntity
8
0
100
AcDbLine
62
7
6
CONTINUOUS
10
107.1475456855
20
218.0752375460
11
103.7475456855
21
218.0752375460
0
LINE
5
2DF
100
AcDbEntity
8
0
100
AcDbLine
62
7
6
CONTINUOUS
10
107.1475456855
20
-350.5247624540
11
107.9475456855
21
-349.7247624540
0
LINE
5
2E0
100
AcDbEntity
8
0
100
AcDbLine
62
7
6
CONTINUOUS
10
107.1475456855
20
218.0752375460
11
107.9475456855
21
217.2752375460
0
LINE
5
2E1
100
AcDbEntity
8
0
100
AcDbLine
62
7
6
CONTINUOUS
10
-563.5554834011
20
-350.5247624540
11
-560.1560099839
21
-350.5247624540
0
LINE
5
2E2
100
AcDbEntity
8
0
100
AcDbLine
62
7
6
CONTINUOUS
10
-564.3557466925
20
-349.7247624540
11
-559.3557466925
21
-349.7247624540
0
LINE
5
2E3
100
AcDbEntity
8
0
100
AcDbLine
62
7
6
CONTINUOUS
10
-554.3557788755
20
-341.5247624540
11
-569.3557145094
21
-341.5247624540
0
LINE
5
2E4
100
AcDbEntity
8
0
100
AcDbLine
62
7
6
CONTINUOUS
10
-550.3557466925
20
-338.7247624540
11
-569.3557145094
21
-338.7247624540
0
LINE
5
2E5
100
AcDbEntity
8
0
100
AcDbLine
62
7
6
CONTINUOUS
10
-566.3557466925
20
-337.2247624540
11
-550.3557466925
21
-337.2247624540
0
LINE
5
2E6
100
AcDbEntity
8
0
100
AcDbLine
62
7
6
CONTINUOUS
10
-550.3557466925
20
-336.7247624540
11
-568.3557466925
21
-336.7247624540
0
LINE
5
2E7
100
AcDbEntity
8
0
100
AcDbLine
62
7
6
CONTINUOUS
10
-550.1557466925
20
-284.4747624540
11
-550.3557466925
21
-284.4747624540
0
LINE
5
2E8
100
AcDbEntity
8
0
100
AcDbLine
62
7
6
CONTINUOUS
10
-550.1557466925
20
-276.9747624540
11
-550.3557466925
21
-276.9747624540
0
LINE
5
2E9
100
AcDbEntity
8
0
100
AcDbLine
62
7
6
CONTINUOUS
10
-563.5557466925
20
218.0752375460
11
-564.3557466925
21
217.2752375460
0
LINE
5
2EA
100
AcDbEntity
8
0
100
AcDbLine
62
7
6
CONTINUOUS
10
-550.1557466925
20
-269.4747624540
11
-550.3557466925
21
-269.4747624540
0
LINE
5
2EB
100
AcDbEntity
8
0
100
AcDbLine
62
7
6
CONTINUOUS
10
-550.1557466925
20
-261.9747624540
11
-550.3557466925
21
-261.9747624540
0
LINE
5
2EC
100
AcDbEntity
8
0
100
AcDbLine
62
7
6
CONTINUOUS
10
-563.5557466925
20
-350.5247624540
11
-564.3557466925
21
-349.7247624540
0
LINE
5
2ED
100
AcDbEntity
8
0
100
AcDbLine
62
7
6
CONTINUOUS
10
-599.6557466925
20
-69.7247624540
11
-599.6557466925
21
-62.7247624540
0
LINE
5
2EE
100
AcDbEntity
8
0
100
AcDbLine
62
7
6
CONTINUOUS
10
-597.9557466925
20
-72.7247624540
11
-597.9557466925
21
-69.7247624540
0
LINE
5
2EF
100
AcDbEntity
8
0
100
AcDbLine
62
7
6
CONTINUOUS
10
-597.9557466925
20
-62.7247624540
11
-597.9557466925
21
-59.7247624540
0
LINE
5
2F0
100
AcDbEntity
8
0
100
AcDbLine
62
7
6
CONTINUOUS
10
-593.1323448209
20
-62.9013605825
11
-596.4557466925
21
-66.2247624540
0
LINE
5
2F1
100
AcDbEntity
8
0
100
AcDbLine
62
7
6
CONTINUOUS
10
-597.9557466925
20
-59.7247624540
11
-593.4057466925
21
-55.5747624540
0
LINE
5
2F2
100
AcDbEntity
8
0
100
AcDbLine
62
7
6
CONTINUOUS
10
-593.4057466925
20
-76.8747624540
11
-597.9557466925
21
-72.7247624540
0
LINE
5
2F3
100
AcDbEntity
8
0
100
AcDbLine
62
7
6
CONTINUOUS
10
-596.4557466925
20
-66.2247624540
11
-593.1323448209
21
-69.5481643256
0
LINE
5
2F4
100
AcDbEntity
8
0
100
AcDbLine
62
7
6
CONTINUOUS
10
-580.8557466925
20
-60.6247624540
11
-580.8557466925
21
-62.7247624540
0
LINE
5
2F5
100
AcDbEntity
8
0
100
AcDbLine
62
7
6
CONTINUOUS
10
-580.8557466925
20
-69.7247624540
11
-580.8557466925
21
-71.8247624540
0
LINE
5
2F6
100
AcDbEntity
8
0
100
AcDbLine
62
7
6
CONTINUOUS
10
-572.8557466925
20
-59.0747624540
11
-572.8557466925
21
-73.3747624540
0
LINE
5
2F7
100
AcDbEntity
8
0
100
AcDbLine
62
7
6
CONTINUOUS
10
-571.8557466925
20
-56.7247624540
11
-571.8557466925
21
-75.7247624540
0
LINE
5
2F8
100
AcDbEntity
8
0
100
AcDbLine
62
7
6
CONTINUOUS
10
-570.2557466925
20
-55.2247624540
11
-570.2557466925
21
-77.2247624540
0
LINE
5
2F9
100
AcDbEntity
8
0
100
AcDbLine
62
7
6
CONTINUOUS
10
-569.3557466925
20
206.2752375460
11
-569.3557466925
21
209.0752375460
0
LINE
5
2FA
100
AcDbEntity
8
0
100
AcDbLine
62
7
6
CONTINUOUS
10
-569.3557466925
20
-338.7247624540
11
-569.3557466925
21
-341.5247624540
0
LINE
5
2FB
100
AcDbEntity
8
0
100
AcDbLine
62
7
6
CONTINUOUS
10
-568.4557466925
20
-260.2247624540
11
-568.4557466925
21
-242.6137664540
0
LINE
5
2FC
100
AcDbEntity
8
0
100
AcDbLine
62
7
6
CONTINUOUS
10
-568.4557466925
20
-235.0260304540
11
-568.4557466925
21
-217.6054584540
0
LINE
5
2FD
100
AcDbEntity
8
0
100
AcDbLine
62
7
6
CONTINUOUS
10
-568.4557466925
20
-217.2173024540
11
-568.4557466925
21
-213.0736464540
0
LINE
5
2FE
100
AcDbEntity
8
0
100
AcDbLine
62
7
6
CONTINUOUS
10
-568.4557466925
20
151.0992305460
11
-568.4557466925
21
134.4281955460
0
LINE
5
2FF
100
AcDbEntity
8
0
100
AcDbLine
62
7
6
CONTINUOUS
10
-568.4557466925
20
-211.0467844540
11
-568.4557466925
21
-190.9515444540
0
LINE
5
300
100
AcDbEntity
8
0
100
AcDbLine
62
7
6
CONTINUOUS
10
-568.4557466925
20
-190.6429687354
11
-568.4557466925
21
-172.4186775281
0
LINE
5
301
100
AcDbEntity
8
0
100
AcDbLine
62
7
6
CONTINUOUS
10
-568.4557466925
20
129.2188395460
11
-568.4557466925
21
113.4550995460
0
LINE
5
302
100
AcDbEntity
8
0
100
AcDbLine
62
7
6
CONTINUOUS
10
-568.4557466925
20
-172.2453061936
11
-568.4557466925
21
-156.3422419626
0
LINE
5
303
100
AcDbEntity
8
0
100
AcDbLine
62
7
6
CONTINUOUS
10
-568.4557466925
20
107.1089358364
11
-568.4557466925
21
90.8626825297
0
LINE
5
304
100
AcDbEntity
8
0
100
AcDbLine
62
7
6
CONTINUOUS
10
-568.4557466925
20
85.6005776068
11
-568.4557466925
21
66.5700276634
0
LINE
5
305
100
AcDbEntity
8
0
100
AcDbLine
62
7
6
CONTINUOUS
10
-568.4557466925
20
63.6103535460
11
-568.4557466925
21
44.4184775460
0
LINE
5
306
100
AcDbEntity
8
0
100
AcDbLine
62
7
6
CONTINUOUS
10
-568.4557466925
20
41.4272155460
11
-568.4557466925
21
24.7562685460
0
LINE
5
307
100
AcDbEntity
8
0
100
AcDbLine
62
7
6
CONTINUOUS
10
-568.4557466925
20
17.8999945460
11
-568.4557466925
21
-1.2247294540
0
LINE
5
308
100
AcDbEntity
8
0
100
AcDbLine
62
7
6
CONTINUOUS
10
-568.3557466925
20
204.2752375460
11
-568.3557466925
21
-336.7247624540
0
LINE
5
309
100
AcDbEntity
8
0
100
AcDbLine
62
9
6
CONTINUOUS
10
-566.3557466925
20
204.2752375460
11
-566.3557466925
21
-336.7247624540
0
LINE
5
30A
100
AcDbEntity
8
0
100
AcDbLine
62
7
6
CONTINUOUS
10
-593.1323448209
20
-69.5481643256
11
-589.8089429493
21
-66.2247624540
0
LINE
5
30B
100
AcDbEntity
8
0
100
AcDbLine
62
7
6
CONTINUOUS
10
-580.8557466925
20
-71.8247624540
11
-585.9057466925
21
-76.8747624540
0
LINE
5
30C
100
AcDbEntity
8
0
100
AcDbLine
62
7
6
CONTINUOUS
10
-571.8557466925
20
-56.7247624540
11
-570.2557466925
21
-55.2247624540
0
LINE
5
30D
100
AcDbEntity
8
0
100
AcDbLine
62
7
6
CONTINUOUS
10
-572.8557466925
20
-59.0747624540
11
-571.8557466925
21
-58.5080957874
0
LINE
5
30E
100
AcDbEntity
8
0
100
AcDbLine
62
7
6
CONTINUOUS
10
-542.1121102715
20
-65.7445275146
11
-541.8861945950
21
-65.7247624540
0
LINE
5
30F
100
AcDbEntity
8
0
100
AcDbLine
62
7
6
CONTINUOUS
10
-542.1121102715
20
-64.2445275146
11
-542.0979614328
21
-64.2432896516
0
LINE
5
310
100
AcDbEntity
8
0
100
AcDbLine
62
7
6
CONTINUOUS
10
-570.2557466925
20
-77.2247624540
11
-568.3557466925
21
-77.2247624540
0
LINE
5
311
100
AcDbEntity
8
0
100
AcDbLine
62
7
6
CONTINUOUS
10
-585.9057466925
20
-76.8747624540
11
-593.4057466925
21
-76.8747624540
0
LINE
5
312
100
AcDbEntity
8
0
100
AcDbLine
62
7
6
CONTINUOUS
10
-550.3557466925
20
-75.5747624540
11
-547.8557466925
21
-75.5747624540
0
LINE
5
313
100
AcDbEntity
8
0
100
AcDbLine
62
7
6
CONTINUOUS
10
-545.8557466925
20
-74.7247624540
11
-547.8557466925
21
-74.7247624540
0
LINE
5
314
100
AcDbEntity
8
0
100
AcDbLine
62
7
6
CONTINUOUS
10
-544.1957466925
20
-70.7247624540
11
-543.1957466925
21
-70.7247624540
0
LINE
5
315
100
AcDbEntity
8
0
100
AcDbLine
62
7
6
CONTINUOUS
10
-550.3557466925
20
-70.6247624540
11
-547.8557466925
21
-70.6247624540
0
LINE
5
316
100
AcDbEntity
8
0
100
AcDbLine
62
7
6
CONTINUOUS
10
-544.3557466925
20
-70.2247624540
11
-547.8557466925
21
-70.2247624540
0
LINE
5
317
100
AcDbEntity
8
0
100
AcDbLine
62
7
6
CONTINUOUS
10
-572.8557466925
20
-69.7247624540
11
-580.8557466925
21
-69.7247624540
0
LINE
5
318
100
AcDbEntity
8
0
100
AcDbLine
62
7
6
CONTINUOUS
10
-597.9557466925
20
-69.7247624540
11
-599.6557466925
21
-69.7247624540
0
LINE
5
319
100
AcDbEntity
8
0
100
AcDbLine
62
7
6
CONTINUOUS
10
-544.3557466925
20
-68.7247624540
11
-544.1957466925
21
-68.7247624540
0
LINE
5
31A
100
AcDbEntity
8
0
100
AcDbLine
62
7
6
CONTINUOUS
10
-576.8557466925
20
-64.4247624540
11
-572.8557466925
21
-64.4247624540
0
LINE
5
31B
100
AcDbEntity
8
0
100
AcDbLine
62
7
6
CONTINUOUS
10
-544.3557466925
20
-63.7247624540
11
-544.1957466925
21
-63.7247624540
0
LINE
5
31C
100
AcDbEntity
8
0
100
AcDbLine
62
7
6
CONTINUOUS
10
-542.0979614328
20
-68.2062352564
11
-542.1121102715
21
-68.2049973934
0
LINE
5
31D
100
AcDbEntity
8
0
100
AcDbLine
62
7
6
CONTINUOUS
10
-541.8861945950
20
-66.7247624540
11
-542.1121102715
21
-66.7049973934
0
LINE
5
31E
100
AcDbEntity
8
0
100
AcDbLine
62
7
6
CONTINUOUS
10
-572.8557466925
20
-73.3747624540
11
-571.8557466925
21
-73.9414291207
0
LINE
5
31F
100
AcDbEntity
8
0
100
AcDbLine
62
7
6
CONTINUOUS
10
-578.8557466925
20
-62.7247624540
11
-576.8557466925
21
-64.4247624540
0
LINE
5
320
100
AcDbEntity
8
0
100
AcDbLine
62
7
6
CONTINUOUS
10
-571.8557466925
20
-75.7247624540
11
-570.2557466925
21
-77.2247624540
0
LINE
5
321
100
AcDbEntity
8
0
100
AcDbLine
62
7
6
CONTINUOUS
10
-589.8089429493
20
-66.2247624540
11
-593.1323448209
21
-62.9013605825
0
LINE
5
322
100
AcDbEntity
8
0
100
AcDbLine
62
7
6
CONTINUOUS
10
-585.9057466925
20
-55.5747624540
11
-580.8557466925
21
-60.6247624540
0
LINE
5
323
100
AcDbEntity
8
0
100
AcDbLine
62
7
6
CONTINUOUS
10
-565.7557466925
20
204.2752375460
11
-565.7557466925
21
204.7752375460
0
LINE
5
324
100
AcDbEntity
8
0
100
AcDbLine
62
7
6
CONTINUOUS
10
-565.7557466925
20
-336.7247624540
11
-565.7557466925
21
-337.2247624540
0
LINE
5
325
100
AcDbEntity
8
0
100
AcDbLine
62
7
6
CONTINUOUS
10
-564.3557466925
20
-349.7247624540
11
-564.3557466925
21
-341.5247624540
0
LINE
5
326
100
AcDbEntity
8
0
100
AcDbLine
62
7
6
CONTINUOUS
10
-564.3557466925
20
217.2752375460
11
-564.3557466925
21
209.0752375460
0
LINE
5
327
100
AcDbEntity
8
0
100
AcDbLine
62
7
6
CONTINUOUS
10
-559.3557466925
20
-349.7247624540
11
-559.3557466925
21
-341.5247624540
0
LINE
5
328
100
AcDbEntity
8
0
100
AcDbLine
62
7
6
CONTINUOUS
10
-559.3557466925
20
217.2752375460
11
-559.3557466925
21
209.0752375460
0
LINE
5
329
100
AcDbEntity
8
0
100
AcDbLine
62
7
6
CONTINUOUS
10
-557.9557466925
20
204.2752375460
11
-557.9557466925
21
204.7752375460
0
LINE
5
32A
100
AcDbEntity
8
0
100
AcDbLine
62
7
6
CONTINUOUS
10
-557.9557466925
20
-336.7247624540
11
-557.9557466925
21
-337.2247624540
0
LINE
5
32B
100
AcDbEntity
8
0
100
AcDbLine
62
7
6
CONTINUOUS
10
-554.3557466925
20
206.2752375460
11
-554.3557466925
21
209.0752375460
0
LINE
5
32C
100
AcDbEntity
8
0
100
AcDbLine
62
7
6
CONTINUOUS
10
-554.3557466925
20
-338.7247624540
11
-554.3557466925
21
-341.5247624540
0
LINE
5
32D
100
AcDbEntity
8
0
100
AcDbLine
62
9
6
CONTINUOUS
10
-552.3557466925
20
-338.7247624540
11
-552.3557466925
21
-337.2247624540
0
LINE
5
32E
100
AcDbEntity
8
0
100
AcDbLine
62
9
6
CONTINUOUS
10
-552.3557466925
20
204.2752375460
11
-552.3557466925
21
-336.7247624540
0
LINE
5
32F
100
AcDbEntity
8
0
100
AcDbLine
62
9
6
CONTINUOUS
10
-552.3557466925
20
204.7752375460
11
-552.3557466925
21
206.2752375460
0
LINE
5
330
100
AcDbEntity
8
0
100
AcDbLine
62
7
6
CONTINUOUS
10
-550.3557466925
20
-338.7247624540
11
-550.3557466925
21
-337.2247624540
0
LINE
5
331
100
AcDbEntity
8
0
100
AcDbLine
62
7
6
CONTINUOUS
10
-550.3557466925
20
204.2752375460
11
-550.3557466925
21
-336.7247624540
0
LINE
5
332
100
AcDbEntity
8
0
100
AcDbLine
62
7
6
CONTINUOUS
10
-550.3557466925
20
204.7752375460
11
-550.3557466925
21
206.2752375460
0
LINE
5
333
100
AcDbEntity
8
0
100
AcDbLine
62
9
6
CONTINUOUS
10
-550.1557466925
20
129.5252375460
11
-550.1557466925
21
137.0252375460
0
LINE
5
334
100
AcDbEntity
8
0
100
AcDbLine
62
9
6
CONTINUOUS
10
-550.1557466925
20
144.5252375460
11
-550.1557466925
21
152.0252375460
0
LINE
5
335
100
AcDbEntity
8
0
100
AcDbLine
62
9
6
CONTINUOUS
10
-550.1557466925
20
-261.9747624540
11
-550.1557466925
21
-269.4747624540
0
LINE
5
336
100
AcDbEntity
8
0
100
AcDbLine
62
9
6
CONTINUOUS
10
-550.1557466925
20
-276.9747624540
11
-550.1557466925
21
-284.4747624540
0
LINE
5
337
100
AcDbEntity
8
0
100
AcDbLine
62
9
6
CONTINUOUS
10
-550.0340075620
20
129.5665567843
11
-550.0340075620
21
136.9839183076
0
LINE
5
338
100
AcDbEntity
8
0
100
AcDbLine
62
9
6
CONTINUOUS
10
-550.0340075620
20
144.5665567843
11
-550.0340075620
21
151.9839183076
0
LINE
5
339
100
AcDbEntity
8
0
100
AcDbLine
62
9
6
CONTINUOUS
10
-550.0340075620
20
-262.0160816924
11
-550.0340075620
21
-269.4334432157
0
LINE
5
33A
100
AcDbEntity
8
0
100
AcDbLine
62
9
6
CONTINUOUS
10
-550.0340075620
20
-277.0160816924
11
-550.0340075620
21
-284.4334432157
0
LINE
5
33B
100
AcDbEntity
8
0
100
AcDbLine
62
7
6
CONTINUOUS
10
-549.0557466925
20
-282.4499336949
11
-549.0557466925
21
-278.9995912131
0
LINE
5
33C
100
AcDbEntity
8
0
100
AcDbLine
62
7
6
CONTINUOUS
10
-549.0557466925
20
-267.4499336949
11
-549.0557466925
21
-263.9995912131
0
LINE
5
33D
100
AcDbEntity
8
0
100
AcDbLine
62
7
6
CONTINUOUS
10
-549.0557466925
20
131.5500663051
11
-549.0557466925
21
135.0003786333
0
LINE
5
33E
100
AcDbEntity
8
0
100
AcDbLine
62
7
6
CONTINUOUS
10
-549.0557466925
20
146.5500663051
11
-549.0557466925
21
150.0003786333
0
LINE
5
33F
100
AcDbEntity
8
0
100
AcDbLine
62
7
6
CONTINUOUS
10
-547.8557466925
20
-56.8747624540
11
-547.8557466925
21
-75.5745952540
0
LINE
5
340
100
AcDbEntity
8
0
100
AcDbLine
62
7
6
CONTINUOUS
10
-539.7781411566
20
-32.5796386542
11
-547.8557466925
21
-60.7247624540
0
LINE
5
341
100
AcDbEntity
8
0
100
AcDbLine
62
7
6
CONTINUOUS
10
-537.8557466925
20
-33.1313627921
11
-545.8557466925
21
-61.0060825216
0
LINE
5
342
100
AcDbEntity
8
0
100
AcDbLine
62
7
6
CONTINUOUS
10
-599.6557466925
20
-62.7247624540
11
-597.9557466925
21
-62.7247624540
0
LINE
5
343
100
AcDbEntity
8
0
100
AcDbLine
62
7
6
CONTINUOUS
10
-580.8557466925
20
-62.7247624540
11
-578.8557466925
21
-62.7247624540
0
LINE
5
344
100
AcDbEntity
8
0
100
AcDbLine
62
7
6
CONTINUOUS
10
-544.3557466925
20
-62.2247624540
11
-547.8557466925
21
-62.2247624540
0
LINE
5
345
100
AcDbEntity
8
0
100
AcDbLine
62
7
6
CONTINUOUS
10
-550.3557466925
20
-61.8247624540
11
-547.8557466925
21
-61.8247624540
0
LINE
5
346
100
AcDbEntity
8
0
100
AcDbLine
62
7
6
CONTINUOUS
10
-544.1957466925
20
-61.7247624540
11
-543.1957466925
21
-61.7247624540
0
LINE
5
347
100
AcDbEntity
8
0
100
AcDbLine
62
7
6
CONTINUOUS
10
-547.6781453613
20
-60.1059390377
11
-545.5974069516
21
-60.1059390377
0
LINE
5
348
100
AcDbEntity
8
0
100
AcDbLine
62
7
6
CONTINUOUS
10
-550.3557466925
20
-56.8747624540
11
-547.8557466925
21
-56.8747624540
0
LINE
5
349
100
AcDbEntity
8
0
100
AcDbLine
62
7
6
CONTINUOUS
10
-593.4057466925
20
-55.5747624540
11
-585.9057466925
21
-55.5747624540
0
LINE
5
34A
100
AcDbEntity
8
0
100
AcDbLine
62
7
6
CONTINUOUS
10
-570.2557466925
20
-55.2247624540
11
-568.3557466925
21
-55.2247624540
0
LINE
5
34B
100
AcDbEntity
8
0
100
AcDbLine
62
7
6
CONTINUOUS
10
-545.7319585226
20
-53.3247624540
11
-543.6512201129
21
-53.3247624540
0
LINE
5
34C
100
AcDbEntity
8
0
100
AcDbLine
62
7
6
CONTINUOUS
10
-545.2727610805
20
-51.7247624540
11
-543.1920226708
21
-51.7247624540
0
LINE
5
34D
100
AcDbEntity
8
0
100
AcDbLine
62
7
6
CONTINUOUS
10
-545.8557466925
20
-61.0060825216
11
-545.8557466925
21
-74.7246103658
0
LINE
5
34E
100
AcDbEntity
8
0
100
AcDbLine
62
7
6
CONTINUOUS
10
-544.3557466925
20
-70.2247624540
11
-544.3557466925
21
-62.2247624540
0
LINE
5
34F
100
AcDbEntity
8
0
100
AcDbLine
62
7
6
CONTINUOUS
10
-544.1957466925
20
-70.7247624540
11
-544.1957466925
21
-61.7247624540
0
LINE
5
350
100
AcDbEntity
8
0
100
AcDbLine
62
7
6
CONTINUOUS
10
-543.1957466925
20
-70.7247624540
11
-543.1957466925
21
-61.7247624540
0
LINE
5
351
100
AcDbEntity
8
0
100
AcDbLine
62
7
6
CONTINUOUS
10
-540.1807628896
20
-33.9825096499
11
-538.2583684255
21
-34.5342337878
0
LINE
5
352
100
AcDbEntity
8
0
100
AcDbLine
62
7
6
CONTINUOUS
10
-539.7781411566
20
-32.5796386542
11
-537.8557466925
21
-33.1313627921
0
LINE
5
353
100
AcDbEntity
8
0
100
AcDbLine
62
7
6
CONTINUOUS
10
-560.1557466925
20
-350.5247624540
11
-559.3557466925
21
-349.7247624540
0
LINE
5
354
100
AcDbEntity
8
0
100
AcDbLine
62
7
6
CONTINUOUS
10
-550.1557466925
20
129.5252375460
11
-550.3557466925
21
129.5252375460
0
LINE
5
355
100
AcDbEntity
8
0
100
AcDbLine
62
7
6
CONTINUOUS
10
-550.1557466925
20
137.0252375460
11
-550.3557466925
21
137.0252375460
0
LINE
5
356
100
AcDbEntity
8
0
100
AcDbLine
62
7
6
CONTINUOUS
10
-550.1557466925
20
144.5252375460
11
-550.3557466925
21
144.5252375460
0
LINE
5
357
100
AcDbEntity
8
0
100
AcDbLine
62
7
6
CONTINUOUS
10
-560.1557466925
20
218.0752375460
11
-559.3557466925
21
217.2752375460
0
LINE
5
358
100
AcDbEntity
8
0
100
AcDbLine
62
7
6
CONTINUOUS
10
-550.1557466925
20
152.0252375460
11
-550.3557466925
21
152.0252375460
0
LINE
5
359
100
AcDbEntity
8
0
100
AcDbLine
62
7
6
CONTINUOUS
10
-550.3557466925
20
204.2752375460
11
-568.3557466925
21
204.2752375460
0
LINE
5
35A
100
AcDbEntity
8
0
100
AcDbLine
62
7
6
CONTINUOUS
10
-550.3557466925
20
204.7752375460
11
-566.3557466925
21
204.7752375460
0
LINE
5
35B
100
AcDbEntity
8
0
100
AcDbLine
62
7
6
CONTINUOUS
10
-550.3557466925
20
206.2752375460
11
-569.3557145094
21
206.2752375460
0
LINE
5
35C
100
AcDbEntity
8
0
100
AcDbLine
62
7
6
CONTINUOUS
10
-554.3557788755
20
209.0752375460
11
-569.3557145094
21
209.0752375460
0
LINE
5
35D
100
AcDbEntity
8
0
100
AcDbLine
62
7
6
CONTINUOUS
10
-559.3557466925
20
217.2752375460
11
-564.3557466925
21
217.2752375460
0
LINE
5
35E
100
AcDbEntity
8
0
100
AcDbLine
62
7
6
CONTINUOUS
10
-560.1560099839
20
218.0752375460
11
-563.5554834011
21
218.0752375460
0
CIRCLE
5
35F
100
AcDbEntity
8
0
100
AcDbCircle
62
7
6
CONTINUOUS
10
-440.5524543145
20
-66.2247624540
40
11.0000000000
0
ARC
5
360
100
AcDbEntity
8
0
100
AcDbCircle
62
7
6
CONTINUOUS
10
-440.5524543145
20
-66.2247624540
40
8.5000000000
100
AcDbArc
50
96.7565375415
51
263.2434624585
0
ARC
5
361
100
AcDbEntity
8
0
100
AcDbCircle
62
7
6
CONTINUOUS
10
-440.5524543145
20
-66.2247624540
40
8.5000000000
100
AcDbArc
50
276.7565375415
51
83.2434624585
0
ARC
5
362
100
AcDbEntity
8
0
100
AcDbCircle
62
7
6
CONTINUOUS
10
-440.5524543145
20
-66.2247624540
40
3.2500000000
100
AcDbArc
50
108.8491065923
51
252.0797868606
0
ARC
5
363
100
AcDbEntity
8
0
100
AcDbCircle
62
7
6
CONTINUOUS
10
-440.5524543145
20
-66.2247624540
40
9.5000000000
100
AcDbArc
50
96.0445657952
51
263.9554342048
0
ARC
5
364
100
AcDbEntity
8
0
100
AcDbCircle
62
7
6
CONTINUOUS
10
-440.5524543145
20
-66.2247624540
40
9.5000000000
100
AcDbArc
50
276.0445657952
51
83.9554342048
0
ARC
5
365
100
AcDbEntity
8
0
100
AcDbCircle
62
7
6
CONTINUOUS
10
-440.5524543145
20
-66.2247624540
40
3.2500000000
100
AcDbArc
50
287.9202131394
51
71.1508934077
0
ARC
5
366
100
AcDbEntity
8
0
100
AcDbCircle
62
7
6
CONTINUOUS
10
-440.5524543145
20
-66.2247624540
40
8.0000000000
100
AcDbArc
50
97.1809481452
51
262.8190518548
0
ARC
5
367
100
AcDbEntity
8
0
100
AcDbCircle
62
7
6
CONTINUOUS
10
-440.5524543145
20
-66.2247624540
40
8.0000000000
100
AcDbArc
50
277.1809481452
51
82.8190518548
0
ARC
5
368
100
AcDbEntity
8
0
100
AcDbCircle
62
7
6
CONTINUOUS
10
-440.5524543145
20
-66.2247624540
40
7.1500000000
100
AcDbArc
50
98.0439709356
51
261.9560290644
0
ARC
5
369
100
AcDbEntity
8
0
100
AcDbCircle
62
7
6
CONTINUOUS
10
-440.5524543145
20
-66.2247624540
40
7.1500000000
100
AcDbArc
50
278.0439709356
51
81.9560290644
0
ARC
5
36A
100
AcDbEntity
8
0
100
AcDbCircle
62
7
6
CONTINUOUS
10
-550.1557466925
20
144.7252375460
40
0.2000000000
100
AcDbArc
50
270.0000000000
51
307.4952497646
0
ARC
5
36B
100
AcDbEntity
8
0
100
AcDbCircle
62
7
6
CONTINUOUS
10
-551.5557466925
20
146.5500663051
40
2.5000000000
100
AcDbArc
50
307.4952497646
51
360.0000000000
0
ARC
5
36C
100
AcDbEntity
8
0
100
AcDbCircle
62
7
6
CONTINUOUS
10
-551.5557466925
20
150.0004087869
40
2.5000000000
100
AcDbArc
50
0.0000000000
51
52.5047502354
0
ARC
5
36D
100
AcDbEntity
8
0
100
AcDbCircle
62
7
6
CONTINUOUS
10
-550.1557466925
20
151.8252375460
40
0.2000000000
100
AcDbArc
50
52.5047502354
51
90.0000000000
0
ARC
5
36E
100
AcDbEntity
8
0
100
AcDbCircle
62
7
6
CONTINUOUS
10
-550.1557466925
20
-269.2747624540
40
0.2000000000
100
AcDbArc
50
270.0000000000
51
307.4952497646
0
ARC
5
36F
100
AcDbEntity
8
0
100
AcDbCircle
62
7
6
CONTINUOUS
10
-551.5557466925
20
-267.4499336949
40
2.5000000000
100
AcDbArc
50
307.4952497646
51
360.0000000000
0
ARC
5
370
100
AcDbEntity
8
0
100
AcDbCircle
62
7
6
CONTINUOUS
10
-551.5557466925
20
-263.9995912131
40
2.5000000000
100
AcDbArc
50
0.0000000000
51
52.5047502354
0
ARC
5
371
100
AcDbEntity
8
0
100
AcDbCircle
62
7
6
CONTINUOUS
10
-550.1557466925
20
-262.1747624540
40
0.2000000000
100
AcDbArc
50
52.5047502354
51
90.0000000000
0
ARC
5
372
100
AcDbEntity
8
0
100
AcDbCircle
62
7
6
CONTINUOUS
10
-550.1557466925
20
-284.2747624540
40
0.2000000000
100
AcDbArc
50
270.0000000000
51
307.4952497646
0
ARC
5
373
100
AcDbEntity
8
0
100
AcDbCircle
62
7
6
CONTINUOUS
10
-551.5557466925
20
-282.4499336949
40
2.5000000000
100
AcDbArc
50
307.4952497646
51
360.0000000000
0
ARC
5
374
100
AcDbEntity
8
0
100
AcDbCircle
62
7
6
CONTINUOUS
10
-551.5557466925
20
-278.9995912131
40
2.5000000000
100
AcDbArc
50
0.0000000000
51
52.5047502354
0
ARC
5
375
100
AcDbEntity
8
0
100
AcDbCircle
62
7
6
CONTINUOUS
10
-550.1557466925
20
-277.1747624540
40
0.2000000000
100
AcDbArc
50
52.5047502354
51
90.0000000000
0
ARC
5
376
100
AcDbEntity
8
0
100
AcDbCircle
62
7
6
CONTINUOUS
10
-550.1557466925
20
129.7252375460
40
0.2000000000
100
AcDbArc
50
270.0000000000
51
307.4952497646
0
ARC
5
377
100
AcDbEntity
8
0
100
AcDbCircle
62
7
6
CONTINUOUS
10
-551.5557466925
20
131.5500663051
40
2.5000000000
100
AcDbArc
50
307.4952497646
51
360.0000000000
0
ARC
5
378
100
AcDbEntity
8
0
100
AcDbCircle
62
7
6
CONTINUOUS
10
-551.5557466925
20
135.0004087869
40
2.5000000000
100
AcDbArc
50
0.0000000000
51
52.5047502354
0
ARC
5
379
100
AcDbEntity
8
0
100
AcDbCircle
62
7
6
CONTINUOUS
10
-550.1557466925
20
136.8252375460
40
0.2000000000
100
AcDbArc
50
52.5047502354
51
90.0000000000
0
ARC
5
37A
100
AcDbEntity
8
0
100
AcDbCircle
62
7
6
CONTINUOUS
10
-550.0817168417
20
-66.2247624540
40
8.2259701493
100
AcDbArc
50
13.9384924695
51
33.1647238820
0
ARC
5
37B
100
AcDbEntity
8
0
100
AcDbCircle
62
7
6
CONTINUOUS
10
-550.0817168417
20
-66.2247624540
40
8.2259701493
100
AcDbArc
50
326.8352761180
51
346.0615075305
0
ARC
5
37C
100
AcDbEntity
8
0
100
AcDbCircle
62
7
6
CONTINUOUS
10
-566.3557466925
20
-336.7247624540
40
0.5000000000
100
AcDbArc
50
180.0000000000
51
270.0000000000
0
ARC
5
37D
100
AcDbEntity
8
0
100
AcDbCircle
62
7
6
CONTINUOUS
10
-566.3557466925
20
-336.7247624540
40
2.0000000000
100
AcDbArc
50
180.0000000000
51
270.0000000000
0
ARC
5
37E
100
AcDbEntity
8
0
100
AcDbCircle
62
7
6
CONTINUOUS
10
-566.3557466925
20
204.2752375460
40
2.0000000000
100
AcDbArc
50
90.0000000000
51
180.0000000000
0
ARC
5
37F
100
AcDbEntity
8
0
100
AcDbCircle
62
7
6
CONTINUOUS
10
-566.3557466925
20
204.2752375460
40
0.5000000000
100
AcDbArc
50
90.0000000000
51
180.0000000000
0
SPLINE
5
380
100
AcDbEntity
8
0
100
AcDbSpline
62
7
6
CONTINUOUS
70
0
71
3
72
15
73
11
74
9
42
0.0000001000
43
0.0000001000
44
0.0000000001
12
-9.2495333471
22
11.8058414842
32
0.0000000000
13
-1.7101380416
23
-14.8999056429
33
0.0000000000
40
0.0000000000
40
0.0000000000
40
0.0000000000
40
0.0000000000
40
0.1237842683
40
0.2518614093
40
0.3775163904
40
0.5021094675
40
0.6264536826
40
0.7529090833
40
0.8810056360
40
1.0000000000
40
1.0000000000
40
1.0000000000
40
1.0000000000
10
-448.7210210356
20
-159.0865437176
30
0.0000000000
10
-449.1026699416
20
-158.5994179009
30
0.0000000000
10
-450.0390333962
20
-157.7271515224
30
0.0000000000
10
-451.7442522911
20
-156.8594390826
30
0.0000000000
10
-453.6358596649
20
-156.5359122714
30
0.0000000000
10
-455.5230628667
20
-156.7621440896
30
0.0000000000
10
-457.2564969606
20
-157.5531203300
30
0.0000000000
10
-458.7008265072
20
-158.8203876506
30
0.0000000000
10
-459.7023322574
20
-160.4260131479
30
0.0000000000
10
-460.0453501339
20
-161.6344971225
30
0.0000000000
10
-460.1131823968
20
-162.2254987209
30
0.0000000000
11
-448.7210210356
21
-159.0865437176
31
0.0000000000
11
-450.0716925854
21
-157.8128823012
31
0.0000000000
11
-451.7864196343
21
-156.9471823428
31
0.0000000000
11
-453.6435710478
21
-156.6270645697
31
0.0000000000
11
-455.4981032264
21
-156.8560272964
31
0.0000000000
11
-457.1970768971
21
-157.6249663331
31
0.0000000000
11
-458.6235295245
21
-158.8748101481
31
0.0000000000
11
-459.6408807944
21
-160.5044850245
31
0.0000000000
11
-460.1131823968
21
-162.2254987209
31
0.0000000000
0
SPLINE
5
381
100
AcDbEntity
8
0
100
AcDbSpline
62
7
6
CONTINUOUS
70
0
71
3
72
10
73
6
74
4
42
0.0000001000
43
0.0000001000
44
0.0000000001
12
-0.8061525501
22
2.2960194434
32
0.0000000000
13
-1.4199895434
23
1.9761621682
33
0.0000000000
40
0.0000000000
40
0.0000000000
40
0.0000000000
40
0.0000000000
40
0.3491801005
40
0.6828616464
40
1.0000000000
40
1.0000000000
40
1.0000000000
40
1.0000000000
10
-447.6194837282
20
-161.2482041027
30
0.0000000000
10
-447.7133145377
20
-160.9809626694
30
0.0000000000
10
-447.9185137684
20
-160.4655657685
30
0.0000000000
10
-448.2861506458
20
-159.7413003112
30
0.0000000000
10
-448.5709099870
20
-159.2954493231
30
0.0000000000
10
-448.7210210356
20
-159.0865437176
30
0.0000000000
11
-447.6194837282
21
-161.2482041027
31
0.0000000000
11
-447.9351587158
21
-160.4593130187
31
0.0000000000
11
-448.3041915738
21
-159.7360259038
31
0.0000000000
11
-448.7210210356
21
-159.0865437176
31
0.0000000000
0
SPLINE
5
382
100
AcDbEntity
8
0
100
AcDbSpline
62
7
6
CONTINUOUS
70
0
71
3
72
10
73
6
74
4
42
0.0000001000
43
0.0000001000
44
0.0000000001
12
2.0215065102
22
-1.7762941821
32
0.0000000000
13
0.0595527585
23
-2.6903834413
33
0.0000000000
40
0.0000000000
40
0.0000000000
40
0.0000000000
40
0.0000000000
40
0.3135632289
40
0.6630945784
40
1.0000000000
40
1.0000000000
40
1.0000000000
40
1.0000000000
10
-451.6732059831
20
-161.1442625065
30
0.0000000000
10
-451.4619159469
20
-161.3299226862
30
0.0000000000
10
-451.0756418456
20
-161.7942763313
30
0.0000000000
10
-450.6967909704
20
-162.6171559110
30
0.0000000000
10
-450.5885071046
20
-163.2327842984
30
0.0000000000
10
-450.5818192222
20
-163.5349192209
30
0.0000000000
11
-451.6732059831
21
-161.1442625065
31
0.0000000000
11
-451.1267958024
21
-161.7872668222
31
0.0000000000
11
-450.7313596059
21
-162.6407101704
31
0.0000000000
11
-450.5818192222
21
-163.5349192209
31
0.0000000000
0
SPLINE
5
383
100
AcDbEntity
8
0
100
AcDbSpline
62
7
6
CONTINUOUS
70
0
71
3
72
14
73
10
74
8
42
0.0000001000
43
0.0000001000
44
0.0000000001
12
0.4815640083
22
6.8546525668
32
0.0000000000
13
5.0536175845
23
-4.6560836564
33
0.0000000000
40
0.0000000000
40
0.0000000000
40
0.0000000000
40
0.0000000000
40
0.1382002753
40
0.2921343463
40
0.4417329122
40
0.5821466202
40
0.7298812562
40
0.8733543948
40
1.0000000000
40
1.0000000000
40
1.0000000000
40
1.0000000000
10
-456.8909929121
20
-163.2230944321
30
0.0000000000
10
-456.8688088192
20
-162.9073228082
30
0.0000000000
10
-456.6954464170
20
-162.2453519892
30
0.0000000000
10
-456.1345137464
20
-161.3850749832
30
0.0000000000
10
-455.3327582774
20
-160.7271095365
30
0.0000000000
10
-454.3652964352
20
-160.3995166670
30
0.0000000000
10
-453.3635970668
20
-160.3761557433
30
0.0000000000
10
-452.4243112523
20
-160.6150672792
30
0.0000000000
10
-451.8865454689
20
-160.9477049957
30
0.0000000000
10
-451.6732059831
20
-161.1442625065
30
0.0000000000
11
-456.8909929121
21
-163.2230944321
31
0.0000000000
11
-456.6605605603
21
-162.3018259572
31
0.0000000000
11
-456.0871547419
21
-161.4129653538
31
0.0000000000
11
-455.2849854242
21
-160.7701168258
31
0.0000000000
11
-454.3739027595
21
-160.4524972788
31
0.0000000000
11
-453.3591706605
21
-160.4228339433
31
0.0000000000
11
-452.4060723381
21
-160.6749606559
31
0.0000000000
11
-451.6732059831
21
-161.1442625065
31
0.0000000000
0
SPLINE
5
384
100
AcDbEntity
8
0
100
AcDbSpline
62
7
6
CONTINUOUS
70
0
71
3
72
10
73
6
74
4
42
0.0000001000
43
0.0000001000
44
0.0000000001
12
-2.2083936090
22
-3.5763114805
32
0.0000000000
13
-4.1873614421
23
-0.3647057601
33
0.0000000000
40
0.0000000000
40
0.0000000000
40
0.0000000000
40
0.0000000000
40
0.2881201932
40
0.5989438110
40
1.0000000000
40
1.0000000000
40
1.0000000000
40
1.0000000000
10
-443.2219909168
20
71.8911821455
30
0.0000000000
10
-443.4340851812
20
71.5477129606
30
0.0000000000
10
-443.9958685692
20
70.8986027948
30
0.0000000000
10
-445.2455829325
20
70.2125092399
30
0.0000000000
10
-446.2407985423
20
70.0240786907
30
0.0000000000
10
-446.8005876163
20
69.9753228566
30
0.0000000000
11
-443.2219909168
21
71.8911821455
31
0.0000000000
11
-444.0177831539
21
70.9783238668
31
0.0000000000
11
-445.1529437326
21
70.3316065648
31
0.0000000000
11
-446.8005876163
21
69.9753228566
31
0.0000000000
0
SPLINE
5
385
100
AcDbEntity
8
0
100
AcDbSpline
62
7
6
CONTINUOUS
70
0
71
3
72
10
73
6
74
4
42
0.0000001000
43
0.0000001000
44
0.0000000001
12
0.0000000000
22
-4.7219678402
32
0.0000000000
13
-2.4809500846
23
-4.0176942344
33
0.0000000000
40
0.0000000000
40
0.0000000000
40
0.0000000000
40
0.0000000000
40
0.4082716565
40
0.7334825788
40
1.0000000000
40
1.0000000000
40
1.0000000000
40
1.0000000000
10
-442.1841582576
20
76.4437549254
30
0.0000000000
10
-442.1841582576
20
75.8011397148
30
0.0000000000
10
-442.2518320134
20
74.6434297508
30
0.0000000000
10
-442.6080772453
20
73.1017375980
30
0.0000000000
10
-443.0015854439
20
72.2481106477
30
0.0000000000
10
-443.2219909168
20
71.8911821455
30
0.0000000000
11
-442.1841582576
21
76.4437549254
31
0.0000000000
11
-442.3194859776
21
74.5206649148
31
0.0000000000
11
-442.6841742620
21
73.0289615615
31
0.0000000000
11
-443.2219909168
21
71.8911821455
31
0.0000000000
0
SPLINE
5
386
100
AcDbEntity
8
0
100
AcDbSpline
62
7
6
CONTINUOUS
70
0
71
3
72
10
73
6
74
4
42
0.0000001000
43
0.0000001000
44
0.0000000001
12
2.1281966905
22
-3.7436918889
32
0.0000000000
13
0.0000000000
23
-4.3063267540
33
0.0000000000
40
0.0000000000
40
0.0000000000
40
0.0000000000
40
0.0000000000
40
0.2694064718
40
0.5954428664
40
1.0000000000
40
1.0000000000
40
1.0000000000
40
1.0000000000
10
-443.0834530144
20
80.6122541414
30
0.0000000000
10
-442.8923363604
20
80.2760625336
30
0.0000000000
10
-442.5527456626
20
79.4843743363
30
0.0000000000
10
-442.2439599933
20
78.0757958114
30
0.0000000000
10
-442.1841582576
20
77.0244733281
30
0.0000000000
10
-442.1841582576
20
76.4437549254
30
0.0000000000
11
-443.0834530144
21
80.6122541414
31
0.0000000000
11
-442.6169211549
21
79.5500388256
31
0.0000000000
11
-442.3012241777
21
78.1819725008
31
0.0000000000
11
-442.1841582576
21
76.4437549254
31
0.0000000000
0
SPLINE
5
387
100
AcDbEntity
8
0
100
AcDbSpline
62
7
6
CONTINUOUS
70
0
71
3
72
10
73
6
74
4
42
0.0000001000
43
0.0000001000
44
0.0000000001
12
3.1078737702
22
0.0000000000
32
0.0000000000
13
1.5359184405
23
-2.7018204818
33
0.0000000000
40
0.0000000000
40
0.0000000000
40
0.0000000000
40
0.0000000000
40
0.3189710997
40
0.6260198980
40
1.0000000000
40
1.0000000000
40
1.0000000000
40
1.0000000000
10
-445.5921690086
20
82.1952822348
30
0.0000000000
10
-445.2617283705
20
82.1952822348
30
0.0000000000
10
-444.6033527669
20
82.0905046639
30
0.0000000000
10
-443.7048206679
20
81.5280122884
30
0.0000000000
10
-443.2749206594
20
80.9490631745
30
0.0000000000
10
-443.0834530144
20
80.6122541414
30
0.0000000000
11
-445.5921690086
21
82.1952822348
31
0.0000000000
11
-444.6157050814
21
82.0242929476
31
0.0000000000
11
-443.8019619714
21
81.5258440569
31
0.0000000000
11
-443.0834530144
21
80.6122541414
31
0.0000000000
0
SPLINE
5
388
100
AcDbEntity
8
0
100
AcDbSpline
62
7
6
CONTINUOUS
70
0
71
3
72
10
73
6
74
4
42
0.0000001000
43
0.0000001000
44
0.0000000001
12
1.1426340142
22
1.0353673591
32
0.0000000000
13
1.5419461919
23
-0.0000000000
33
0.0000000000
40
0.0000000000
40
0.0000000000
40
0.0000000000
40
0.0000000000
40
0.3412219247
40
0.6614181329
40
1.0000000000
40
1.0000000000
40
1.0000000000
40
1.0000000000
10
-447.0000283463
20
81.6507918107
30
0.0000000000
10
-446.8700644205
20
81.7685551584
30
0.0000000000
10
-446.5909955108
20
81.9698167024
30
0.0000000000
10
-446.1067517665
20
82.1568895031
30
0.0000000000
10
-445.7661940155
20
82.1952822348
30
0.0000000000
10
-445.5921690086
20
82.1952822348
30
0.0000000000
11
-447.0000283463
21
81.6507918107
31
0.0000000000
11
-446.5711540022
21
81.9555806714
31
0.0000000000
11
-446.1105642604
21
82.1334058249
31
0.0000000000
11
-445.5921690086
21
82.1952822348
31
0.0000000000
0
SPLINE
5
389
100
AcDbEntity
8
0
100
AcDbSpline
62
7
6
CONTINUOUS
70
0
71
3
72
10
73
6
74
4
42
0.0000001000
43
0.0000001000
44
0.0000000001
12
0.4758711817
22
0.8825242708
32
0.0000000000
13
0.7429957066
23
0.6732457576
33
0.0000000000
40
0.0000000000
40
0.0000000000
40
0.0000000000
40
0.0000000000
40
0.3218075216
40
0.6506140476
40
1.0000000000
40
1.0000000000
40
1.0000000000
40
1.0000000000
10
-447.6193836220
20
80.8678635380
30
0.0000000000
10
-447.5683373135
20
80.9625311874
30
0.0000000000
10
-447.4540242511
20
81.1481801007
30
0.0000000000
10
-447.2466631681
20
81.4111385413
30
0.0000000000
10
-447.0865591005
20
81.5723842740
30
0.0000000000
10
-447.0000283463
20
81.6507918107
30
0.0000000000
11
-447.6193836220
21
80.8678635380
31
0.0000000000
11
-447.4502144364
21
81.1426197787
31
0.0000000000
11
-447.2463531770
21
81.4017097019
31
0.0000000000
11
-447.0000283463
21
81.6507918107
31
0.0000000000
0
SPLINE
5
38A
100
AcDbEntity
8
0
100
AcDbSpline
62
7
6
CONTINUOUS
70
0
71
3
72
10
73
6
74
4
42
0.0000001000
43
0.0000001000
44
0.0000000001
12
0.9090471070
22
5.3928236753
32
0.0000000000
13
2.5956214298
23
4.8136953818
33
0.0000000000
40
0.0000000000
40
0.0000000000
40
0.0000000000
40
0.0000000000
40
0.4806180727
40
0.8013619440
40
1.0000000000
40
1.0000000000
40
1.0000000000
40
1.0000000000
10
-448.9539479872
20
75.5788677582
30
0.0000000000
10
-448.8083131644
20
76.4428305986
30
0.0000000000
10
-448.5455762215
20
77.8814324664
30
0.0000000000
10
-448.1107819032
20
79.6506114943
30
0.0000000000
10
-447.7912466870
20
80.5491358403
30
0.0000000000
10
-447.6193836220
20
80.8678635380
30
0.0000000000
11
-448.9539479872
21
75.5788677582
31
0.0000000000
11
-448.4623362819
21
78.1609385460
31
0.0000000000
11
-448.0219527453
21
79.8588757154
31
0.0000000000
11
-447.6193836220
21
80.8678635380
31
0.0000000000
0
SPLINE
5
38B
100
AcDbEntity
8
0
100
AcDbSpline
62
7
6
CONTINUOUS
70
0
71
3
72
10
73
6
74
4
42
0.0000001000
43
0.0000001000
44
0.0000000001
12
3.2411768182
22
5.4577220798
32
0.0000000000
13
1.0551039567
23
6.2592901441
33
0.0000000000
40
0.0000000000
40
0.0000000000
40
0.0000000000
40
0.0000000000
40
0.2111038572
40
0.5328272469
40
1.0000000000
40
1.0000000000
40
1.0000000000
40
1.0000000000
10
-450.6395716747
20
69.4835071725
30
0.0000000000
10
-450.4114966987
20
69.8675558999
30
0.0000000000
10
-449.9819105538
20
70.9192115769
30
0.0000000000
10
-449.4293497587
20
72.9621108646
30
0.0000000000
10
-449.1182532607
20
74.6041444884
30
0.0000000000
10
-448.9539479872
20
75.5788677582
30
0.0000000000
11
-450.6395716747
21
69.4835071725
31
0.0000000000
11
-450.0923135978
21
70.7066642249
31
0.0000000000
11
-449.5304779665
21
72.6700280820
31
0.0000000000
11
-448.9539479872
21
75.5788677582
31
0.0000000000
0
SPLINE
5
38C
100
AcDbEntity
8
0
100
AcDbSpline
62
7
6
CONTINUOUS
70
0
71
3
72
10
73
6
74
4
42
0.0000001000
43
0.0000001000
44
0.0000000001
12
0.9519852836
22
0.8710667539
32
0.0000000000
13
0.6588779877
23
1.1094652167
33
0.0000000000
40
0.0000000000
40
0.0000000000
40
0.0000000000
40
0.0000000000
40
0.3480161518
40
0.6778217631
40
1.0000000000
40
1.0000000000
40
1.0000000000
40
1.0000000000
10
-451.4557956431
20
68.4895342196
30
0.0000000000
10
-451.3453602248
20
68.5905826528
30
0.0000000000
10
-451.1388585488
20
68.7971351351
30
0.0000000000
10
-450.8657049540
20
69.1302295078
30
0.0000000000
10
-450.7103303909
20
69.3643586567
30
0.0000000000
10
-450.6395716747
20
69.4835071725
30
0.0000000000
11
-451.4557956431
21
68.4895342196
31
0.0000000000
11
-451.1389393561
21
68.8077526990
31
0.0000000000
11
-450.8694344596
21
69.1371091605
31
0.0000000000
11
-450.6395716747
21
69.4835071725
31
0.0000000000
0
SPLINE
5
38D
100
AcDbEntity
8
0
100
AcDbSpline
62
7
6
CONTINUOUS
70
0
71
3
72
10
73
6
74
4
42
0.0000001000
43
0.0000001000
44
0.0000000001
12
3.1682167826
22
0.0000000000
32
0.0000000000
13
2.3374033767
23
2.1387246284
33
0.0000000000
40
0.0000000000
40
0.0000000000
40
0.0000000000
40
0.0000000000
40
0.3749064123
40
0.6941755179
40
1.0000000000
40
1.0000000000
40
1.0000000000
40
1.0000000000
10
-454.3769620279
20
67.4498648187
30
0.0000000000
10
-453.9810337654
20
67.4498648187
30
0.0000000000
10
-453.2433631038
20
67.5212559111
30
0.0000000000
10
-452.2403226949
20
67.8852097965
30
0.0000000000
10
-451.6940740355
20
68.2715094356
30
0.0000000000
10
-451.4557956431
20
68.4895342196
30
0.0000000000
11
-454.3769620279
21
67.4498648187
31
0.0000000000
11
-453.1963107795
21
67.5798468584
31
0.0000000000
11
-452.2479012436
21
67.9315276729
31
0.0000000000
11
-451.4557956431
21
68.4895342196
31
0.0000000000
0
SPLINE
5
38E
100
AcDbEntity
8
0
100
AcDbSpline
62
7
6
CONTINUOUS
70
0
71
3
72
10
73
6
74
4
42
0.0000001000
43
0.0000001000
44
0.0000000001
12
3.0526880483
22
-4.1546330093
32
0.0000000000
13
5.1555678409
23
0.0000000000
33
0.0000000000
40
0.0000000000
40
0.0000000000
40
0.0000000000
40
0.0000000000
40
0.3499821421
40
0.6589597249
40
1.0000000000
40
1.0000000000
40
1.0000000000
40
1.0000000000
10
-458.8033030108
20
69.7146304576
30
0.0000000000
10
-458.4471742434
20
69.2299480042
30
0.0000000000
10
-457.6503132462
20
68.3942001141
30
0.0000000000
10
-456.0926939812
20
67.5997342964
30
0.0000000000
10
-454.9630474528
20
67.4498648187
30
0.0000000000
10
-454.3769620279
20
67.4498648187
30
0.0000000000
11
-458.8033030108
21
69.7146304576
31
0.0000000000
11
-457.5359766360
21
68.4302680181
31
0.0000000000
11
-456.1161622951
21
67.7080267027
31
0.0000000000
11
-454.3769620279
21
67.4498648187
31
0.0000000000
0
SPLINE
5
38F
100
AcDbEntity
8
0
100
AcDbSpline
62
7
6
CONTINUOUS
70
0
71
3
72
10
73
6
74
4
42
0.0000001000
43
0.0000001000
44
0.0000000001
12
0.0000000000
22
-6.6242035275
32
0.0000000000
13
3.9222889819
23
-5.3381383942
33
0.0000000000
40
0.0000000000
40
0.0000000000
40
0.0000000000
40
0.0000000000
40
0.4131061956
40
0.7355699870
40
1.0000000000
40
1.0000000000
40
1.0000000000
40
1.0000000000
10
-460.4869411805
20
76.0201296946
30
0.0000000000
10
-460.4869411805
20
75.1079631886
30
0.0000000000
10
-460.3725570229
20
73.4772276678
30
0.0000000000
10
-459.7803194539
20
71.3336198139
30
0.0000000000
10
-459.1490266530
20
70.1851517926
30
0.0000000000
10
-458.8033030108
20
69.7146304576
30
0.0000000000
11
-460.4869411805
21
76.0201296946
31
0.0000000000
11
-460.2571369273
21
73.2932964366
31
0.0000000000
11
-459.6603009384
21
71.2423054962
31
0.0000000000
11
-458.8033030108
21
69.7146304576
31
0.0000000000
0
SPLINE
5
390
100
AcDbEntity
8
0
100
AcDbSpline
62
7
6
CONTINUOUS
70
0
71
3
72
10
73
6
74
4
42
0.0000001000
43
0.0000001000
44
0.0000000001
12
-1.4835307078
22
-4.3821192557
32
0.0000000000
13
0.0000000000
23
-4.6264276210
33
0.0000000000
40
0.0000000000
40
0.0000000000
40
0.0000000000
40
0.0000000000
40
0.2890150252
40
0.6197662735
40
1.0000000000
40
1.0000000000
40
1.0000000000
40
1.0000000000
10
-459.8157998474
20
80.5794257701
30
0.0000000000
10
-459.9587207357
20
80.1572596676
30
0.0000000000
10
-460.2071812546
20
79.2316545303
30
0.0000000000
10
-460.4374205873
20
77.7040586176
30
0.0000000000
10
-460.4869411805
20
76.6065042995
30
0.0000000000
10
-460.4869411805
20
76.0201296946
30
0.0000000000
11
-459.8157998474
21
80.5794257701
31
0.0000000000
11
-460.1674492992
21
79.2893877674
31
0.0000000000
11
-460.4013186481
21
77.7771685038
31
0.0000000000
11
-460.4869411805
21
76.0201296946
31
0.0000000000
0
SPLINE
5
391
100
AcDbEntity
8
0
100
AcDbSpline
62
7
6
CONTINUOUS
70
0
71
3
72
10
73
6
74
4
42
0.0000001000
43
0.0000001000
44
0.0000000001
12
-2.8855175026
22
-2.4442051649
32
0.0000000000
13
-1.2126182603
23
-3.5818859698
33
0.0000000000
40
0.0000000000
40
0.0000000000
40
0.0000000000
40
0.0000000000
40
0.3049404808
40
0.6296112454
40
1.0000000000
40
1.0000000000
40
1.0000000000
40
1.0000000000
10
-457.7713952878
20
83.7105572363
30
0.0000000000
10
-458.0646989861
20
83.4621115369
30
0.0000000000
10
-458.6229918384
20
82.8901986343
30
0.0000000000
10
-459.3211575268
20
81.8327467033
30
0.0000000000
10
-459.6660864583
20
81.0216558645
30
0.0000000000
10
-459.8157998474
20
80.5794257701
30
0.0000000000
11
-457.7713952878
21
83.7105572363
31
0.0000000000
11
-458.5776475366
21
82.8861009089
31
0.0000000000
11
-459.2586179643
21
81.8644869930
31
0.0000000000
11
-459.8157998474
21
80.5794257701
31
0.0000000000
0
SPLINE
5
392
100
AcDbEntity
8
0
100
AcDbSpline
62
7
6
CONTINUOUS
70
0
71
3
72
10
73
6
74
4
42
0.0000001000
43
0.0000001000
44
0.0000000001
12
-4.1393482115
22
-0.3257169767
32
0.0000000000
13
-3.1682739443
23
-2.6837167099
33
0.0000000000
40
0.0000000000
40
0.0000000000
40
0.0000000000
40
0.0000000000
40
0.4036610989
40
0.7263981803
40
1.0000000000
40
1.0000000000
40
1.0000000000
40
1.0000000000
10
-453.9153192857
20
85.0791919371
30
0.0000000000
10
-454.4722839016
20
85.0353655129
30
0.0000000000
10
-455.4729480682
20
84.8855486886
30
0.0000000000
10
-456.7835269168
20
84.4109019135
30
0.0000000000
10
-457.4824467823
20
83.9553138282
30
0.0000000000
10
-457.7713952878
20
83.7105572363
30
0.0000000000
11
-453.9153192857
21
85.0791919371
31
0.0000000000
11
-455.5693994560
21
84.8086520330
31
0.0000000000
11
-456.8237208752
21
84.3370446348
31
0.0000000000
11
-457.7713952878
21
83.7105572363
31
0.0000000000
0
SPLINE
5
393
100
AcDbEntity
8
0
100
AcDbSpline
62
7
6
CONTINUOUS
70
0
71
3
72
10
73
6
74
4
42
0.0000001000
43
0.0000001000
44
0.0000000001
12
1.9477322809
22
3.0988613787
32
0.0000000000
13
3.6331010677
23
0.4440490005
33
0.0000000000
40
0.0000000000
40
0.0000000000
40
0.0000000000
40
0.0000000000
40
0.2852661648
40
0.5980059601
40
1.0000000000
40
1.0000000000
40
1.0000000000
40
1.0000000000
10
-457.0203010093
20
79.9591731007
30
0.0000000000
10
-456.8350936367
20
80.2538398676
30
0.0000000000
10
-456.3445831377
20
80.8146663989
30
0.0000000000
10
-455.2654183119
20
81.4239461876
30
0.0000000000
10
-454.4021476109
20
81.6143963118
30
0.0000000000
10
-453.9153192857
20
81.6738979956
30
0.0000000000
11
-457.0203010093
21
79.9591731007
31
0.0000000000
11
-456.3318841319
21
80.7441920002
31
0.0000000000
11
-455.3441326503
21
81.3226533713
31
0.0000000000
11
-453.9153192857
21
81.6738979956
31
0.0000000000
0
SPLINE
5
394
100
AcDbEntity
8
0
100
AcDbSpline
62
7
6
CONTINUOUS
70
0
71
3
72
10
73
6
74
4
42
0.0000001000
43
0.0000001000
44
0.0000000001
12
0.0000000000
22
4.1702231813
32
0.0000000000
13
2.2191732991
23
3.5307267312
33
0.0000000000
40
0.0000000000
40
0.0000000000
40
0.0000000000
40
0.0000000000
40
0.4149004138
40
0.7395760860
40
1.0000000000
40
1.0000000000
40
1.0000000000
40
1.0000000000
10
-457.9343281606
20
75.9386627814
30
0.0000000000
10
-457.9343281606
20
76.5154052225
30
0.0000000000
10
-457.8738331387
20
77.5463905728
30
0.0000000000
10
-457.5585657959
20
78.9077707920
30
0.0000000000
10
-457.2129429414
20
79.6526778758
30
0.0000000000
10
-457.0203010093
20
79.9591731007
30
0.0000000000
11
-457.9343281606
21
75.9386627814
31
0.0000000000
11
-457.8121108870
21
77.6645682043
31
0.0000000000
11
-457.4886846779
21
78.9793420586
31
0.0000000000
11
-457.0203010093
21
79.9591731007
31
0.0000000000
0
SPLINE
5
395
100
AcDbEntity
8
0
100
AcDbSpline
62
7
6
CONTINUOUS
70
0
71
3
72
10
73
6
74
4
42
0.0000001000
43
0.0000001000
44
0.0000000001
12
-2.0264814015
22
3.2614411911
32
0.0000000000
13
-0.0000000000
23
3.8397428968
33
0.0000000000
40
0.0000000000
40
0.0000000000
40
0.0000000000
40
0.0000000000
40
0.2699841857
40
0.5961550791
40
1.0000000000
40
1.0000000000
40
1.0000000000
40
1.0000000000
10
-457.0609809142
20
72.2439779736
30
0.0000000000
10
-457.2433535579
20
72.5374904883
30
0.0000000000
10
-457.5704864475
20
73.2341928564
30
0.0000000000
10
-457.8737546812
20
74.4846449253
30
0.0000000000
10
-457.9343281606
20
75.4217758926
30
0.0000000000
10
-457.9343281606
20
75.9386627814
30
0.0000000000
11
-457.0609809142
21
72.2439779736
31
0.0000000000
11
-457.5096412677
21
73.1785304249
31
0.0000000000
11
-457.8180946883
21
74.3923645299
31
0.0000000000
11
-457.9343281606
21
75.9386627814
31
0.0000000000
0
SPLINE
5
396
100
AcDbEntity
8
0
100
AcDbSpline
62
7
6
CONTINUOUS
70
0
71
3
72
10
73
6
74
4
42
0.0000001000
43
0.0000001000
44
0.0000000001
12
-2.8705924699
22
0.0000000000
32
0.0000000000
13
-1.5149978548
23
2.4382540123
33
0.0000000000
40
0.0000000000
40
0.0000000000
40
0.0000000000
40
0.0000000000
40
0.3296442810
40
0.6362495239
40
1.0000000000
40
1.0000000000
40
1.0000000000
40
1.0000000000
10
-454.6892498353
20
70.8551600119
30
0.0000000000
10
-455.0046746322
20
70.8551600119
30
0.0000000000
10
-455.6222442100
20
70.9450876228
30
0.0000000000
10
-456.4665981695
20
71.4379077942
30
0.0000000000
10
-456.8772871839
20
71.9483392876
30
0.0000000000
10
-457.0609809142
20
72.2439779736
30
0.0000000000
11
-454.6892498353
21
70.8551600119
31
0.0000000000
11
-455.6230382914
21
71.0083733984
31
0.0000000000
11
-456.3858536301
21
71.4474142768
31
0.0000000000
11
-457.0609809142
21
72.2439779736
31
0.0000000000
0
SPLINE
5
397
100
AcDbEntity
8
0
100
AcDbSpline
62
7
6
CONTINUOUS
70
0
71
3
72
10
73
6
74
4
42
0.0000001000
43
0.0000001000
44
0.0000000001
12
-1.1045735743
22
-0.9176447058
32
0.0000000000
13
-1.4360203993
23
0.0000000000
33
0.0000000000
40
0.0000000000
40
0.0000000000
40
0.0000000000
40
0.0000000000
40
0.2971032663
40
0.6193758396
40
1.0000000000
40
1.0000000000
40
1.0000000000
40
1.0000000000
10
-453.3450542310
20
71.2787852427
30
0.0000000000
10
-453.4544450366
20
71.1879068296
30
0.0000000000
10
-453.7081733579
20
71.0271258553
30
0.0000000000
10
-454.1689583570
20
70.8819616551
30
0.0000000000
10
-454.5070551491
20
70.8551600119
30
0.0000000000
10
-454.6892498353
20
70.8551600119
30
0.0000000000
11
-453.3450542310
21
71.2787852427
31
0.0000000000
11
-453.7051499829
21
71.0499661911
31
0.0000000000
11
-454.1450585058
21
70.9062474875
31
0.0000000000
11
-454.6892498353
21
70.8551600119
31
0.0000000000
0
SPLINE
5
398
100
AcDbEntity
8
0
100
AcDbSpline
62
7
6
CONTINUOUS
70
0
71
3
72
10
73
6
74
4
42
0.0000001000
43
0.0000001000
44
0.0000000001
12
-0.9151588094
22
-5.6321481571
32
0.0000000000
13
-3.0555076442
23
-4.8189710048
33
0.0000000000
40
0.0000000000
40
0.0000000000
40
0.0000000000
40
0.0000000000
40
0.4974442015
40
0.8152722316
40
1.0000000000
40
1.0000000000
40
1.0000000000
40
1.0000000000
10
-451.4866723175
20
77.2556905189
30
0.0000000000
10
-451.6384191318
20
76.3217973713
30
0.0000000000
10
-451.9119897210
20
74.7925730943
30
0.0000000000
10
-452.3787249333
20
72.9519536515
30
0.0000000000
10
-452.7224216622
20
72.0480229219
30
0.0000000000
10
-452.9105673650
20
71.7512903353
30
0.0000000000
11
-451.4866723175
21
77.2556905189
31
0.0000000000
11
-452.0120762406
21
74.4663174212
31
0.0000000000
11
-452.4844975686
21
72.7153991619
31
0.0000000000
11
-452.9105673650
21
71.7512903353
31
0.0000000000
0
SPLINE
5
399
100
AcDbEntity
8
0
100
AcDbSpline
62
7
6
CONTINUOUS
70
0
71
3
72
10
73
6
74
4
42
0.0000001000
43
0.0000001000
44
0.0000000001
12
-3.1168983312
22
-5.4454034888
32
0.0000000000
13
-1.0063112396
23
-6.1931261938
33
0.0000000000
40
0.0000000000
40
0.0000000000
40
0.0000000000
40
0.0000000000
40
0.2176997562
40
0.5400662737
40
1.0000000000
40
1.0000000000
40
1.0000000000
40
1.0000000000
10
-449.8418133729
20
83.2867781123
30
0.0000000000
10
-450.0679960418
20
82.8916237750
30
0.0000000000
10
-450.4947538271
20
81.8375974268
30
0.0000000000
10
-451.0350325667
20
79.8159812095
30
0.0000000000
10
-451.3323934914
20
78.2051663881
30
0.0000000000
10
-451.4866723175
20
77.2556905189
30
0.0000000000
11
-449.8418133729
21
83.2867781123
31
0.0000000000
11
-450.3901153865
21
82.0357326087
31
0.0000000000
11
-450.9394313668
21
80.0891133224
31
0.0000000000
11
-451.4866723175
21
77.2556905189
31
0.0000000000
0
SPLINE
5
39A
100
AcDbEntity
8
0
100
AcDbSpline
62
7
6
CONTINUOUS
70
0
71
3
72
10
73
6
74
4
42
0.0000001000
43
0.0000001000
44
0.0000000001
12
-1.2519791202
22
-1.1135261180
32
0.0000000000
13
-0.8323488792
23
-1.4541621217
33
0.0000000000
40
0.0000000000
40
0.0000000000
40
0.0000000000
40
0.0000000000
40
0.3279282500
40
0.6565174477
40
1.0000000000
40
1.0000000000
40
1.0000000000
40
1.0000000000
10
-448.7932031785
20
84.5850962866
30
0.0000000000
10
-448.9300562858
20
84.4633773962
30
0.0000000000
10
-449.1912491464
20
84.2047972838
30
0.0000000000
10
-449.5431747713
20
83.7698088015
30
0.0000000000
10
-449.7465142671
20
83.4532712179
30
0.0000000000
10
-449.8418133729
20
83.2867781123
30
0.0000000000
11
-448.7932031785
21
84.5850962866
31
0.0000000000
11
-449.1834644719
21
84.1983218378
31
0.0000000000
11
-449.5300020389
21
83.7705038158
31
0.0000000000
11
-449.8418133729
21
83.2867781123
31
0.0000000000
0
SPLINE
5
39B
100
AcDbEntity
8
0
100
AcDbSpline
62
7
6
CONTINUOUS
70
0
71
3
72
10
73
6
74
4
42
0.0000001000
43
0.0000001000
44
0.0000000001
12
-3.1518631106
22
0.0000000000
32
0.0000000000
13
-2.3551192053
23
-2.0946729092
33
0.0000000000
40
0.0000000000
40
0.0000000000
40
0.0000000000
40
0.0000000000
40
0.3759561610
40
0.6961665492
40
1.0000000000
40
1.0000000000
40
1.0000000000
40
1.0000000000
10
-445.8773015359
20
85.6005776068
30
0.0000000000
10
-446.2722889876
20
85.6005776068
30
0.0000000000
10
-447.0080367989
20
85.5294698618
30
0.0000000000
10
-448.0074722994
20
85.1735112172
30
0.0000000000
10
-448.5546818468
20
84.7972401860
30
0.0000000000
10
-448.7932031785
20
84.5850962866
30
0.0000000000
11
-445.8773015359
21
85.6005776068
31
0.0000000000
11
-447.0552939377
21
85.4722433387
31
0.0000000000
11
-448.0037027505
21
85.1270983270
31
0.0000000000
11
-448.7932031785
21
84.5850962866
31
0.0000000000
0
SPLINE
5
39C
100
AcDbEntity
8
0
100
AcDbSpline
62
7
6
CONTINUOUS
70
0
71
3
72
10
73
6
74
4
42
0.0000001000
43
0.0000001000
44
0.0000000001
12
-3.1145204176
22
4.2838311812
32
0.0000000000
13
-5.2963616776
23
0.0000000000
33
0.0000000000
40
0.0000000000
40
0.0000000000
40
0.0000000000
40
0.0000000000
40
0.3603005089
40
0.6700215048
40
1.0000000000
40
1.0000000000
40
1.0000000000
40
1.0000000000
10
-441.3656347218
20
83.2094940474
30
0.0000000000
10
-441.7396891522
20
83.7239828989
30
0.0000000000
10
-442.5623780740
20
84.6050571290
30
0.0000000000
10
-444.1526668222
20
85.4414614940
30
0.0000000000
10
-445.2947397172
20
85.6005776068
30
0.0000000000
10
-445.8773015359
20
85.6005776068
30
0.0000000000
11
-441.3656347218
21
83.2094940474
31
0.0000000000
11
-442.6947038781
21
84.5788422992
31
0.0000000000
11
-444.1496988308
21
85.3363933012
31
0.0000000000
11
-445.8773015359
21
85.6005776068
31
0.0000000000
0
SPLINE
5
39D
100
AcDbEntity
8
0
100
AcDbSpline
62
7
6
CONTINUOUS
70
0
71
3
72
10
73
6
74
4
42
0.0000001000
43
0.0000001000
44
0.0000000001
12
0.0000000000
22
7.0073407996
32
0.0000000000
13
-4.1206600534
23
5.6677143371
33
0.0000000000
40
0.0000000000
40
0.0000000000
40
0.0000000000
40
0.0000000000
40
0.4159517192
40
0.7381244490
40
1.0000000000
40
1.0000000000
40
1.0000000000
40
1.0000000000
10
-439.6315446043
20
76.5252211234
30
0.0000000000
10
-439.6315446043
20
77.4967929410
30
0.0000000000
10
-439.7443981433
20
79.2274548531
30
0.0000000000
10
-440.3498894485
20
81.5006710759
30
0.0000000000
10
-441.0059346811
20
82.7147487757
30
0.0000000000
10
-441.3656347218
20
83.2094940474
30
0.0000000000
11
-439.6315446043
21
76.5252211234
31
0.0000000000
11
-439.8648251067
21
79.4305862258
31
0.0000000000
11
-440.4784173080
21
81.6031758070
31
0.0000000000
11
-441.3656347218
21
83.2094940474
31
0.0000000000
0
SPLINE
5
39E
100
AcDbEntity
8
0
100
AcDbSpline
62
7
6
CONTINUOUS
70
0
71
3
72
13
73
9
74
7
42
0.0000001000
43
0.0000001000
44
0.0000000001
12
13.8210608409
22
0.5654067759
32
0.0000000000
13
0.0000000000
23
13.8326211395
33
0.0000000000
40
0.0000000000
40
0.0000000000
40
0.0000000000
40
0.0000000000
40
0.1600001133
40
0.2905975297
40
0.4157155490
40
0.5597584320
40
0.7465628310
40
1.0000000000
40
1.0000000000
40
1.0000000000
40
1.0000000000
10
-446.8005876163
20
66.5700276634
30
0.0000000000
10
-446.0634638496
20
66.6001827128
30
0.0000000000
10
-444.7192451305
20
66.7939197229
30
0.0000000000
10
-442.9520981611
20
67.6041010490
30
0.0000000000
10
-441.5675193724
20
68.8632074491
30
0.0000000000
10
-440.4864041837
20
70.6988276670
30
0.0000000000
10
-439.7620020700
20
73.3185563833
30
0.0000000000
10
-439.6315446043
20
75.3566543428
30
0.0000000000
10
-439.6315446043
20
76.5252211234
30
0.0000000000
11
-446.8005876163
21
66.5700276634
31
0.0000000000
11
-444.6162591020
21
66.9264766940
31
0.0000000000
11
-442.9813183925
21
67.6948696197
31
0.0000000000
11
-441.6966062473
21
68.8545559370
31
0.0000000000
11
-440.6587367255
21
70.5553927195
31
0.0000000000
11
-439.9193992567
21
73.0313587068
31
0.0000000000
11
-439.6315446043
21
76.5252211234
31
0.0000000000
0
SPLINE
5
39F
100
AcDbEntity
8
0
100
AcDbSpline
62
7
6
CONTINUOUS
70
0
71
3
72
8
73
4
74
2
42
0.0000001000
43
0.0000001000
44
0.0000000001
12
-0.0128023866
22
0.2109645520
32
0.0000000000
13
-0.0182002633
23
0.2105746352
33
0.0000000000
40
0.0000000000
40
0.0000000000
40
0.0000000000
40
0.0000000000
40
1.0000000000
40
1.0000000000
40
1.0000000000
40
1.0000000000
10
-541.8861945950
20
-65.7247624540
30
0.0000000000
10
-541.8904620572
20
-65.6544409367
30
0.0000000000
10
-541.8956301544
20
-65.5841704756
30
0.0000000000
10
-541.9016969089
20
-65.5139789305
30
0.0000000000
11
-541.8861945950
21
-65.7247624540
31
0.0000000000
11
-541.9016969089
21
-65.5139789305
31
0.0000000000
0
SPLINE
5
3A0
100
AcDbEntity
8
0
100
AcDbSpline
62
7
6
CONTINUOUS
70
0
71
3
72
16
73
12
74
10
42
0.0000001000
43
0.0000001000
44
0.0000000001
12
-0.1064893469
22
1.2320676361
32
0.0000000000
13
-0.2892382941
23
1.2023350880
33
0.0000000000
40
0.0000000000
40
0.0000000000
40
0.0000000000
40
0.0000000000
40
0.0027532180
40
0.1567758450
40
0.2960356987
40
0.4253449240
40
0.5495405956
40
0.6726560629
40
0.7955681964
40
0.9184833556
40
1.0000000000
40
1.0000000000
40
1.0000000000
40
1.0000000000
10
-541.9016969089
20
-65.5139789305
30
0.0000000000
10
-541.9017946383
20
-65.5128482136
30
0.0000000000
10
-541.9073729033
20
-65.4484632315
30
0.0000000000
10
-541.9193339661
20
-65.3270128637
30
0.0000000000
10
-541.9402130263
20
-65.1540606216
30
0.0000000000
10
-541.9628484569
20
-64.9937404162
30
0.0000000000
10
-541.9874692245
20
-64.8404507129
30
0.0000000000
10
-542.0144598370
20
-64.6902392420
30
0.0000000000
10
-542.0441121737
20
-64.5410684982
30
0.0000000000
10
-542.0728547407
20
-64.4092245493
30
0.0000000000
10
-542.0920641680
20
-64.3271715193
30
0.0000000000
10
-542.0999234130
20
-64.2945014120
30
0.0000000000
11
-541.9016969089
21
-65.5139789305
31
0.0000000000
11
-541.9019907968
21
-65.5105868413
31
0.0000000000
11
-541.9206586795
21
-65.3210364478
31
0.0000000000
11
-541.9412985004
21
-65.1500662878
31
0.0000000000
11
-541.9636538020
21
-64.9917303146
31
0.0000000000
11
-541.9880095235
21
-64.8400909953
31
0.0000000000
11
-542.0149347227
21
-64.6902437736
31
0.0000000000
11
-542.0445688079
21
-64.5411650143
31
0.0000000000
11
-542.0769449644
21
-64.3926538115
31
0.0000000000
11
-542.0999234130
21
-64.2945014120
31
0.0000000000
0
SPLINE
5
3A1
100
AcDbEntity
8
0
100
AcDbSpline
62
7
6
CONTINUOUS
70
0
71
3
72
8
73
4
74
2
42
0.0000001000
43
0.0000001000
44
0.0000000001
12
-0.0120310834
22
0.0500120281
32
0.0000000000
13
-0.0123425435
23
0.0499353826
33
0.0000000000
40
0.0000000000
40
0.0000000000
40
0.0000000000
40
0.0000000000
40
1.0000000000
40
1.0000000000
40
1.0000000000
40
1.0000000000
10
-542.0999234130
20
-64.2945014120
30
0.0000000000
10
-542.1039337742
20
-64.2778307360
30
0.0000000000
10
-542.1079960903
20
-64.2611726422
30
0.0000000000
10
-542.1121102715
20
-64.2445275146
30
0.0000000000
11
-542.0999234130
21
-64.2945014120
31
0.0000000000
11
-542.1121102715
21
-64.2445275146
31
0.0000000000
0
SPLINE
5
3A2
100
AcDbEntity
8
0
100
AcDbSpline
62
7
6
CONTINUOUS
70
0
71
3
72
10
73
6
74
4
42
0.0000001000
43
0.0000001000
44
0.0000000001
12
0.0565757271
22
0.9592969736
32
0.0000000000
13
-0.0565757271
23
0.9592969736
33
0.0000000000
40
0.0000000000
40
0.0000000000
40
0.0000000000
40
0.0000000000
40
0.3328923168
40
0.6671076348
40
1.0000000000
40
1.0000000000
40
1.0000000000
40
1.0000000000
10
-542.1121102715
20
-66.7049973934
30
0.0000000000
10
-542.1058323965
20
-66.5985498628
30
0.0000000000
10
-542.0974344266
20
-66.3849604574
30
0.0000000000
10
-542.0974344257
20
-66.0645644817
30
0.0000000000
10
-542.1058323956
20
-65.8509750608
30
0.0000000000
10
-542.1121102715
20
-65.7445275146
30
0.0000000000
11
-542.1121102715
21
-66.7049973934
31
0.0000000000
11
-542.0995422546
21
-66.3853468945
31
0.0000000000
11
-542.0995422537
21
-66.0641780601
31
0.0000000000
11
-542.1121102715
21
-65.7445275146
31
0.0000000000
0
SPLINE
5
3A3
100
AcDbEntity
8
0
100
AcDbSpline
62
7
6
CONTINUOUS
70
0
71
3
72
8
73
4
74
2
42
0.0000001000
43
0.0000001000
44
0.0000000001
12
0.0123425419
22
0.0499353758
32
0.0000000000
13
0.0120310847
23
0.0500120348
33
0.0000000000
40
0.0000000000
40
0.0000000000
40
0.0000000000
40
0.0000000000
40
1.0000000000
40
1.0000000000
40
1.0000000000
40
1.0000000000
10
-542.1121102715
20
-68.2049973934
30
0.0000000000
10
-542.1079960909
20
-68.1883522681
30
0.0000000000
10
-542.1039337748
20
-68.1716941742
30
0.0000000000
10
-542.0999234132
20
-68.1550234960
30
0.0000000000
11
-542.1121102715
21
-68.2049973934
31
0.0000000000
11
-542.0999234132
21
-68.1550234960
31
0.0000000000
0
SPLINE
5
3A4
100
AcDbEntity
8
0
100
AcDbSpline
62
7
6
CONTINUOUS
70
0
71
3
72
15
73
11
74
9
42
0.0000001000
43
0.0000001000
44
0.0000000001
12
0.2892383581
22
1.2023353861
32
0.0000000000
13
0.1064890751
23
1.2320630579
33
0.0000000000
40
0.0000000000
40
0.0000000000
40
0.0000000000
40
0.0000000000
40
0.0833884798
40
0.2078265170
40
0.3322481491
40
0.4571975835
40
0.5836174835
40
0.7145745119
40
0.8536957576
40
1.0000000000
40
1.0000000000
40
1.0000000000
40
1.0000000000
10
-542.0999234132
20
-68.1550234960
30
0.0000000000
10
-542.0918836976
20
-68.1216031893
30
0.0000000000
10
-542.0723669585
20
-68.0381847484
30
0.0000000000
10
-542.0432465616
20
-67.9043538590
30
0.0000000000
10
-542.0132970734
20
-67.7531966919
30
0.0000000000
10
-541.9860335405
20
-67.6007021313
30
0.0000000000
10
-541.9612227897
20
-67.4450603837
30
0.0000000000
10
-541.9386095282
20
-67.2831826504
30
0.0000000000
10
-541.9183064350
20
-67.1127393764
30
0.0000000000
10
-541.9068901748
20
-66.9956313285
30
0.0000000000
10
-541.9016969069
20
-66.9355459777
30
0.0000000000
11
-542.0999234132
21
-68.1550234960
31
0.0000000000
11
-542.0764314017
21
-68.0546139442
31
0.0000000000
11
-542.0437134640
21
-67.9042498140
31
0.0000000000
11
-542.0138093006
21
-67.7533215763
31
0.0000000000
11
-541.9866157037
21
-67.6012184035
31
0.0000000000
11
-541.9620054015
21
-67.4468343093
31
0.0000000000
11
-541.9396004040
21
-67.2864476159
31
0.0000000000
11
-541.9192509252
21
-67.1156152748
31
0.0000000000
11
-541.9016969069
21
-66.9355459777
31
0.0000000000
0
SPLINE
5
3A5
100
AcDbEntity
8
0
100
AcDbSpline
62
7
6
CONTINUOUS
70
0
71
3
72
9
73
5
74
3
42
0.0000001000
43
0.0000001000
44
0.0000000001
12
0.0182002562
22
0.2105743076
32
0.0000000000
13
0.0128024140
23
0.2109650035
33
0.0000000000
40
0.0000000000
40
0.0000000000
40
0.0000000000
40
0.0000000000
40
0.0268339080
40
1.0000000000
40
1.0000000000
40
1.0000000000
40
1.0000000000
10
-541.9016969069
20
-66.9355459777
30
0.0000000000
10
-541.9015341123
20
-66.9336624672
30
0.0000000000
10
-541.8954914748
20
-66.8634689161
30
0.0000000000
10
-541.8903475534
20
-66.7931971167
30
0.0000000000
10
-541.8861945950
20
-66.7247624540
30
0.0000000000
11
-541.9016969069
21
-66.9355459777
31
0.0000000000
11
-541.9012104642
21
-66.9298952762
31
0.0000000000
11
-541.8861945950
21
-66.7247624540
31
0.0000000000
0
ENDSEC
0
SECTION
2
OBJECTS
0
DICTIONARY
5
3A6
100
AcDbDictionary
3
ACAD_GROUP
350
3A7
3
ACAD_MLINESTYLE
350
3A8
0
DICTIONARY
5
3A7
102
{ACAD_REACTORS
330
3A6
102
}
100
AcDbDictionary
0
DICTIONARY
5
3A8
102
{ACAD_REACTORS
330
3A6
102
}
100
AcDbDictionary
3
STANDARD
350
3A9
0
MLINESTYLE
5
3A9
102
{ACAD_REACTORS
330
3A8
102
}
100
AcDbMlineStyle
2
STANDARD
70
0
3

62
256
51
90.0
52
90.0
71
2
49
0.5
62
256
6
BYLAYER
49
-0.5
62
256
6
BYLAYER
0
ENDSEC
0
EOF
