  0
SECTION
  2
HEADER
  9
$ACADVER
  1
AC1021
  9
$DWGCODEPAGE
  3
ANSI_1252
  9
$EXTMAX
 10
297.0
 20
210.0
 30
0.0
  9
$EXTMIN
 10
0.0
 20
0.0
 30
0.0
  9
$LIMMIN
 10
0.0
 20
0.0
  9
$LIMMAX
 10
297.0
 20
210.0
  9
$VIEWCTR
 10
148.5
 20
105.0
  9
$VIEWSIZE
 40
210.0
  9
$CLAYER
  8
0
  9
$LTSCALE
 40
16.335
  9
$CELTYPE
  6
BYLAYER
  9
$DIMSCALE
 40
1.0
  9
$DIMASZ
 40
3.0
  9
$DIMEXO
 40
0.5
  9
$DIMDLI
 40
11.286
  9
$DIMEXE
 40
1.5
  9
$DIMCEN
 40
2.673
  9
$DIMLFAC
 40
1.0
  9
$DIMBLK
  1
_FILLED
  9
$DIMALT
 70
0
  9
$DIMALTF
 40
25.4
  9
$DIMTXT
 40
3.0
  9
$DIMTOL
 70
1
  9
$DIMLIM
 70
0
  9
$DIMTFAC
 40
1.0
  9
$DIMTP
 40
0.01
  9
$DIMTM
 40
0.01
  9
$DIMGAP
 40
0.625
  9
$DIMDSEP
 70
44
  9
$AUNITS
 70
0
  9
$PDMODE
 70
3
  9
$PDSIZE
 40
3.0
  9
$HANDSEED
  5
922
  9
$TILEMODE
 70
1
  9
$MEASUREMENT
 70
1
  9
$INSUNITS
 70
4
  0
ENDSEC
  0
SECTION
  2
CLASSES
  0
CLASS
  1
ACDBDICTIONARYWDFLT
  2
AcDbDictionaryWithDefault
  3
AutoCAD 2000
 90
0
 91
1
280
0
281
0
  0
CLASS
  1
ACDBPLACEHOLDER
  2
AcDbPlaceHolder
  3
AutoCAD 2000
 90
0
 91
1
280
0
281
0
  0
CLASS
  1
LAYOUT
  2
AcDbLayout
  3
AutoCAD 2000
 90
0
 91
0
280
0
281
0
  0
ENDSEC
  0
SECTION
  2
TABLES
  0
TABLE
  2
VPORT
  5
8
100
AcDbSymbolTable
 70
2
  0
VPORT
  5
1F4
100
AcDbSymbolTableRecord
100
AcDbViewportTableRecord
  2
*ACTIVE
 70
0
 10
0.0
 20
0.0
 11
1.0
 21
1.0
 12
148.5
 22
105.0
 13
0.0
 23
0.0
 14
1.0
 24
1.0
 15
0.0
 25
0.0
 16
0.0
 26
0.0
 36
1.0
 17
0.0
 27
0.0
 37
0.0
 40
210.0
 41
1.4142857143
 42
50.0
 43
0.0
 44
0.0
 50
0.0
 51
0.0
 71
0
 72
100
 73
1
 74
1
 75
0
 76
0
 77
0
 78
0
  0
ENDTAB
  0
TABLE
  2
LTYPE
  5
5
100
AcDbSymbolTable
 70
6
  0
LTYPE
  5
14
100
AcDbSymbolTableRecord
100
AcDbLinetypeTableRecord
  2
BYBLOCK
 70
0
  3

 72
65
 73
0
 40
0.0
  0
LTYPE
  5
15
100
AcDbSymbolTableRecord
100
AcDbLinetypeTableRecord
  2
BYLAYER
 70
0
  3

 72
65
 73
0
 40
0.0
  0
LTYPE
  5
16
100
AcDbSymbolTableRecord
100
AcDbLinetypeTableRecord
  2
CONTINUOUS
 70
64
  3
Solid line
 72
65
 73
0
 40
0.0
  0
LTYPE
  5
1F5
100
AcDbSymbolTableRecord
100
AcDbLinetypeTableRecord
  2
CENTER
 70
64
  3
____ _ ____ _ ____ _ ____ _ ____ _ ____ _ ____
 72
65
 73
4
 40
0.6
 49
0.375
 74
0
 49
-0.075
 74
0
 49
0.075
 74
0
 49
-0.075
 74
0
  0
LTYPE
  5
1F6
100
AcDbSymbolTableRecord
100
AcDbLinetypeTableRecord
  2
HIDDEN
 70
64
  3
- - - - - - - - - - - - - - - - - - - -
 72
65
 73
2
 40
0.2
 49
0.1
 74
0
 49
-0.1
 74
0
  0
LTYPE
  5
1F7
100
AcDbSymbolTableRecord
100
AcDbLinetypeTableRecord
  2
PHANTOM
 70
64
  3
_____ _ _ _____ _ _ _____ _ _ _____
 72
65
 73
6
 40
0.8
 49
0.45
 74
0
 49
-0.05
 74
0
 49
0.1
 74
0
 49
-0.05
 74
0
 49
0.1
 74
0
 49
-0.05
 74
0
  0
LTYPE
  5
1F8
100
AcDbSymbolTableRecord
100
AcDbLinetypeTableRecord
  2
DOT
 70
64
  3
. . . . . . . . . . . . . . . . . . . .
 72
65
 73
2
 40
0.2
 49
0.1
 74
0
 49
-0.1
 74
0
  0
LTYPE
  5
1F9
100
AcDbSymbolTableRecord
100
AcDbLinetypeTableRecord
  2
DASHED
 70
64
  3
- - - - - - - - - - - - - - - - - - - -
 72
65
 73
2
 40
0.2
 49
0.1
 74
0
 49
-0.1
 74
0
  0
ENDTAB
  0
TABLE
  2
LAYER
  5
2
100
AcDbSymbolTable
 70
36
  0
LAYER
  5
10
100
AcDbSymbolTableRecord
100
AcDbLayerTableRecord
  2
0
 70
0
 62
7
  6
CONTINUOUS
370
-3
390
F
  0
LAYER
  5
1FA
100
AcDbSymbolTableRecord
100
AcDbLayerTableRecord
  2
DEFAULT_1
 70
0
 62
7
  6
CENTER
370
-3
390
F
  0
LAYER
  5
1FB
100
AcDbSymbolTableRecord
100
AcDbLayerTableRecord
  2
DEFAULT_2
 70
0
 62
7
  6
HIDDEN
370
-3
390
F
  0
LAYER
  5
1FC
100
AcDbSymbolTableRecord
100
AcDbLayerTableRecord
  2
DEFAULT_3
 70
0
 62
7
  6
PHANTOM
370
-3
390
F
  0
LAYER
  5
1FD
100
AcDbSymbolTableRecord
100
AcDbLayerTableRecord
  2
ASSI
 70
0
 62
7
  6
CONTINUOUS
370
-3
390
F
  0
LAYER
  5
1FE
100
AcDbSymbolTableRecord
100
AcDbLayerTableRecord
  2
COORDINATE
 70
0
 62
7
  6
CONTINUOUS
370
-3
390
F
  0
LAYER
  5
1FF
100
AcDbSymbolTableRecord
100
AcDbLayerTableRecord
  2
COORD_ORIGINE
 70
0
 62
7
  6
CONTINUOUS
370
-3
390
F
  0
LAYER
  5
200
100
AcDbSymbolTableRecord
100
AcDbLayerTableRecord
  2
COSMETICI
 70
0
 62
7
  6
CONTINUOUS
370
-3
390
F
  0
LAYER
  5
201
100
AcDbSymbolTableRecord
100
AcDbLayerTableRecord
  2
CURVE
 70
0
 62
7
  6
CONTINUOUS
370
-3
390
F
  0
LAYER
  5
202
100
AcDbSymbolTableRecord
100
AcDbLayerTableRecord
  2
NOTE
 70
0
 62
7
  6
CONTINUOUS
370
-3
390
F
  0
LAYER
  5
203
100
AcDbSymbolTableRecord
100
AcDbLayerTableRecord
  2
PIANI
 70
0
 62
7
  6
CONTINUOUS
370
-3
390
F
  0
LAYER
  5
204
100
AcDbSymbolTableRecord
100
AcDbLayerTableRecord
  2
PIANI_ORIGINE
 70
0
 62
7
  6
CONTINUOUS
370
-3
390
F
  0
LAYER
  5
205
100
AcDbSymbolTableRecord
100
AcDbLayerTableRecord
  2
PUNTI
 70
0
 62
7
  6
CONTINUOUS
370
-3
390
F
  0
LAYER
  5
206
100
AcDbSymbolTableRecord
100
AcDbLayerTableRecord
  2
RACCORDO
 70
0
 62
7
  6
CONTINUOUS
370
-3
390
F
  0
LAYER
  5
207
100
AcDbSymbolTableRecord
100
AcDbLayerTableRecord
  2
SIMBOLI
 70
0
 62
7
  6
CONTINUOUS
370
-3
390
F
  0
LAYER
  5
208
100
AcDbSymbolTableRecord
100
AcDbLayerTableRecord
  2
SNAPLINE
 70
0
 62
7
  6
CONTINUOUS
370
-3
390
F
  0
LAYER
  5
209
100
AcDbSymbolTableRecord
100
AcDbLayerTableRecord
  2
SUPERFICI
 70
0
 62
7
  6
CONTINUOUS
370
-3
390
F
  0
LAYER
  5
20A
100
AcDbSymbolTableRecord
100
AcDbLayerTableRecord
  2
TRASH
 70
0
 62
7
  6
CONTINUOUS
370
-3
390
F
  0
ENDTAB
  0
TABLE
  2
STYLE
  5
3
100
AcDbSymbolTable
 70
1
  0
STYLE
  5
11
100
AcDbSymbolTableRecord
100
AcDbTextStyleTableRecord
  2
STANDARD
 70
0
 40
0.0
 41
0.8
 50
0.0
 71
0
 42
0.2
  3
txt
  4

  0
STYLE
  5
20B
100
AcDbSymbolTableRecord
100
AcDbTextStyleTableRecord
  2
TEXTSTYLE_1
 70
0
 40
0.0
 41
0.8
 50
0.0
 71
0
 42
0.2
  3
gdt
  4

  0
ENDTAB
  0
TABLE
  2
VIEW
  5
6
100
AcDbSymbolTable
 70
0
  0
ENDTAB
  0
TABLE
  2
UCS
  5
7
100
AcDbSymbolTable
 70
0
  0
ENDTAB
  0
TABLE
  2
APPID
  5
9
100
AcDbSymbolTable
 70
1
  0
APPID
  5
20C
100
AcDbSymbolTableRecord
100
AcDbRegAppTableRecord
  2
ACAD
 70
0
  0
ENDTAB
  0
TABLE
  2
BLOCK_RECORD
  5
1
100
AcDbSymbolTable
 70
0
  0
BLOCK_RECORD
  5
20D
100
AcDbSymbolTableRecord
100
AcDbBlockTableRecord
  2
*Model_Space
  0
BLOCK_RECORD
  5
20E
100
AcDbSymbolTableRecord
100
AcDbBlockTableRecord
  2
*Paper_Space
  0
BLOCK_RECORD
  5
20F
100
AcDbSymbolTableRecord
100
AcDbBlockTableRecord
  2
_FILLED
  0
BLOCK_RECORD
  5
210
100
AcDbSymbolTableRecord
100
AcDbBlockTableRecord
  2
*D0
  0
BLOCK_RECORD
  5
211
100
AcDbSymbolTableRecord
100
AcDbBlockTableRecord
  2
*D1
  0
BLOCK_RECORD
  5
212
100
AcDbSymbolTableRecord
100
AcDbBlockTableRecord
  2
*D2
  0
ENDTAB
  0
TABLE
  2
DIMSTYLE
  5
A
100
AcDbSymbolTable
 70
1
100
AcDbDimStyleTable
 71
0
  0
DIMSTYLE
105
213
100
AcDbSymbolTableRecord
100
AcDbDimStyleTableRecord
  2
STANDARD
 70
0
  3

  4

 40
1.0
 41
3.0
 42
0.5
 43
0.38
 44
1.5
 45
0.0
 46
0.0
 47
0.01
 48
0.01
140
3.0
141
0.09
142
0.0
143
25.4
144
1.0
145
0.0
146
1.0
147
0.625
 71
1.0
 72
0.0
 73
0
 74
0
 75
0
 76
0
 77
1
 78
8
170
0
171
1
172
0
173
0
174
0
175
0
176
0
177
0
178
0
270
2
271
2
272
2
273
2
274
2
275
0
280
0
281
0
282
0
283
1
284
8
285
0
286
0
287
3
288
0
340
11
278
44
341
20F
342
20F
343
20F
344
20F
  0
DIMSTYLE
105
214
100
AcDbSymbolTableRecord
100
AcDbDimStyleTableRecord
  2
DIMSTYLE_1
 70
0
  3

  4

 40
1.0
 41
3.0
 42
0.5
 43
0.38
 44
1.5
 45
0.0
 46
0.0
 47
0.0
 48
0.0
140
3.0
141
0.09
142
0.0
143
25.4
144
1.0
145
0.0
146
1.0
147
0.75
 71
0.0
 72
0.0
 73
0
 74
0
 75
0
 76
0
 77
1
 78
8
170
0
171
1
172
0
173
0
174
0
175
0
176
0
177
0
178
0
270
2
271
2
272
2
273
2
274
2
275
0
280
0
281
0
282
0
283
1
284
8
285
0
286
0
287
3
288
0
340
11
278
44
341
20F
342
20F
343
20F
344
20F
  0
ENDTAB
  0
ENDSEC
  0
SECTION
  2
BLOCKS
  0
BLOCK
  5
20
100
AcDbEntity
  8
0
100
AcDbBlockBegin
  2
*Model_Space
 70
0
 10
0.0
 20
0.0
 30
0.0
  3
*Model_Space
  1

  0
ENDBLK
  5
21
100
AcDbEntity
  8
0
100
AcDbBlockEnd
  0
BLOCK
  5
1C
100
AcDbEntity
  8
0
100
AcDbBlockBegin
  2
*Paper_Space
 70
0
 10
0.0
 20
0.0
 30
0.0
  3
*Paper_Space
  1

  0
ENDBLK
  5
1D
100
AcDbEntity
  8
0
100
AcDbBlockEnd
  0
BLOCK
  5
215
100
AcDbEntity
  8
0
100
AcDbBlockBegin
  2
_FILLED
 70
64
 10
0.0
 20
0.0
  3
_FILLED
  1

  0
SOLID
  5
216
100
AcDbEntity
  8
0
  6
BYBLOCK
 62
0
100
AcDbTrace
 10
0.0
 20
0.0
 11
-1.0
 21
0.3166666667
 12
-1.0
 22
-0.3166666667
 13
-1.0
 23
-0.3166666667
  0
ENDBLK
  5
217
100
AcDbEntity
  8
0
  6
BYBLOCK
 62
0
100
AcDbBlockEnd
  0
BLOCK
  5
218
100
AcDbEntity
  8
0
100
AcDbBlockBegin
 62
7
  6
CONTINUOUS
  2
*D0
 70
65
 10
0.0
 20
0.0
  3
*D0
  1

  0
MTEXT
  5
219
100
AcDbEntity
  8
0
100
AcDbMText
 62
7
  6
CONTINUOUS
  7
STANDARD
 71
2
 72
1
 10
-56.1964183658
 20
938.5552496187
 30
0.0
 11
1.0
 21
0.0
 31
0.0
 44
0.9
  1
109
 40
3.0
 41
9.6428571429
  0
LINE
  5
21A
100
AcDbEntity
  8
0
100
AcDbLine
 62
7
  6
CONTINUOUS
 10
-110.6964183658
 20
890.3052496187
 11
-110.6964183658
 21
936.3052496187
  0
LINE
  5
21B
100
AcDbEntity
  8
0
100
AcDbLine
 62
7
  6
CONTINUOUS
 10
-1.6964183658
 20
904.3052496187
 11
-1.6964183658
 21
936.3052496187
  0
LINE
  5
21C
100
AcDbEntity
  8
0
100
AcDbLine
 62
7
  6
CONTINUOUS
 10
-110.6964183658
 20
934.8052496187
 11
-56.1964183658
 21
934.8052496187
  0
LINE
  5
21D
100
AcDbEntity
  8
0
100
AcDbLine
 62
7
  6
CONTINUOUS
 10
-1.6964183658
 20
934.8052496187
 11
-56.1964183658
 21
934.8052496187
  0
INSERT
  5
21E
100
AcDbEntity
  8
0
100
AcDbBlockReference
 62
7
  6
CONTINUOUS
  2
_FILLED
 10
-110.6964183658
 20
934.8052496187
 41
3.0
 42
3.0
 43
3.0
 50
180.0
  0
INSERT
  5
21F
100
AcDbEntity
  8
0
100
AcDbBlockReference
 62
7
  6
CONTINUOUS
  2
_FILLED
 10
-1.6964183658
 20
934.8052496187
 41
3.0
 42
3.0
 43
3.0
  0
ENDBLK
  5
220
100
AcDbEntity
  8
0
  6
BYBLOCK
 62
0
100
AcDbBlockEnd
  0
BLOCK
  5
221
100
AcDbEntity
  8
0
100
AcDbBlockBegin
 62
7
  6
CONTINUOUS
  2
*D1
 70
65
 10
0.0
 20
0.0
  3
*D1
  1

  0
MTEXT
  5
222
100
AcDbEntity
  8
0
100
AcDbMText
 62
7
  6
CONTINUOUS
  7
STANDARD
 71
2
 72
1
 10
-445.5352113602
 20
938.5552496187
 30
0.0
 11
1.0
 21
0.0
 31
0.0
 44
0.9
  1
41
 40
3.0
 41
6.1071428571
  0
LINE
  5
223
100
AcDbEntity
  8
0
100
AcDbLine
 62
7
  6
CONTINUOUS
 10
-466.0352113602
 20
896.8052496187
 11
-466.0352113602
 21
936.3052496187
  0
LINE
  5
224
100
AcDbEntity
  8
0
100
AcDbLine
 62
7
  6
CONTINUOUS
 10
-425.0352113602
 20
902.3052496187
 11
-425.0352113602
 21
936.3052496187
  0
LINE
  5
225
100
AcDbEntity
  8
0
100
AcDbLine
 62
7
  6
CONTINUOUS
 10
-466.0352113602
 20
934.8052496187
 11
-445.5352113602
 21
934.8052496187
  0
LINE
  5
226
100
AcDbEntity
  8
0
100
AcDbLine
 62
7
  6
CONTINUOUS
 10
-425.0352113602
 20
934.8052496187
 11
-445.5352113602
 21
934.8052496187
  0
INSERT
  5
227
100
AcDbEntity
  8
0
100
AcDbBlockReference
 62
7
  6
CONTINUOUS
  2
_FILLED
 10
-466.0352113602
 20
934.8052496187
 41
3.0
 42
3.0
 43
3.0
 50
180.0
  0
INSERT
  5
228
100
AcDbEntity
  8
0
100
AcDbBlockReference
 62
7
  6
CONTINUOUS
  2
_FILLED
 10
-425.0352113602
 20
934.8052496187
 41
3.0
 42
3.0
 43
3.0
  0
ENDBLK
  5
229
100
AcDbEntity
  8
0
  6
BYBLOCK
 62
0
100
AcDbBlockEnd
  0
BLOCK
  5
22A
100
AcDbEntity
  8
0
100
AcDbBlockBegin
 62
7
  6
CONTINUOUS
  2
*D2
 70
65
 10
0.0
 20
0.0
  3
*D2
  1

  0
MTEXT
  5
22B
100
AcDbEntity
  8
0
100
AcDbMText
 62
7
  6
CONTINUOUS
  7
STANDARD
 71
2
 72
1
 10
4.5535816342
 20
-28.6947503813
 30
0.0
 11
0.0
 21
1.0
 31
0.0
 44
0.9
  1
1907
 40
3.0
 41
13.1785714286
  0
LINE
  5
22C
100
AcDbEntity
  8
0
100
AcDbLine
 62
7
  6
CONTINUOUS
 10
-8.1964183658
 20
924.8052496187
 11
9.8035816342
 21
924.8052496187
  0
LINE
  5
22D
100
AcDbEntity
  8
0
100
AcDbLine
 62
7
  6
CONTINUOUS
 10
-8.1964183658
 20
-982.1947503813
 11
9.8035816342
 21
-982.1947503813
  0
LINE
  5
22E
100
AcDbEntity
  8
0
100
AcDbLine
 62
7
  6
CONTINUOUS
 10
8.3035816342
 20
924.8052496187
 11
8.3035816342
 21
-28.6947503813
  0
LINE
  5
22F
100
AcDbEntity
  8
0
100
AcDbLine
 62
7
  6
CONTINUOUS
 10
8.3035816342
 20
-982.1947503813
 11
8.3035816342
 21
-28.6947503813
  0
INSERT
  5
230
100
AcDbEntity
  8
0
100
AcDbBlockReference
 62
7
  6
CONTINUOUS
  2
_FILLED
 10
8.3035816342
 20
924.8052496187
 41
3.0
 42
3.0
 43
3.0
 50
90.0
  0
INSERT
  5
231
100
AcDbEntity
  8
0
100
AcDbBlockReference
 62
7
  6
CONTINUOUS
  2
_FILLED
 10
8.3035816342
 20
-982.1947503813
 41
3.0
 42
3.0
 43
3.0
 50
270.0
  0
ENDBLK
  5
232
100
AcDbEntity
  8
0
  6
BYBLOCK
 62
0
100
AcDbBlockEnd
  0
ENDSEC
  0
SECTION
  2
ENTITIES
  0
DIMENSION
  5
233
100
AcDbEntity
  8
0
100
AcDbDimension
 62
7
  6
CONTINUOUS
  2
*D0
 10
-1.6964183658
 20
934.8052496187
 11
-56.6249900894
 21
934.8052496187
 70
160
 71
2
 42
109.0
  3
DIMSTYLE_1
100
AcDbAlignedDimension
 13
-110.6964183658
 23
889.8052496187
 14
-1.6964183658
 24
903.8052496187
100
AcDbRotatedDimension
  0
DIMENSION
  5
234
100
AcDbEntity
  8
0
100
AcDbDimension
 62
7
  6
CONTINUOUS
  2
*D1
 10
-425.0352113602
 20
934.8052496187
 11
-445.9637724609
 21
934.8052496187
 70
160
 71
2
 42
41.0
  3
DIMSTYLE_1
100
AcDbAlignedDimension
 13
-466.0352113602
 23
896.3052496187
 14
-425.0352113602
 24
901.8052496187
100
AcDbRotatedDimension
  0
DIMENSION
  5
235
100
AcDbEntity
  8
0
100
AcDbDimension
 62
7
  6
CONTINUOUS
  2
*D2
 10
8.3035816342
 20
-982.1947503813
 11
8.3035816342
 21
-29.1233219051
 70
160
 71
2
 42
1907.0
  3
DIMSTYLE_1
100
AcDbAlignedDimension
 13
-8.6964183658
 23
924.8052496187
 14
-8.6964183658
 24
-982.1947503813
 50
270.0
100
AcDbRotatedDimension
  0
LINE
  5
236
100
AcDbEntity
  8
RACCORDO
100
AcDbLine
 62
7
  6
CONTINUOUS
 10
-8.6964183658
 20
-982.1947503813
 11
-47.6964183658
 21
-982.1947503813
  0
LINE
  5
237
100
AcDbEntity
  8
RACCORDO
100
AcDbLine
 62
7
  6
CONTINUOUS
 10
-56.6964183658
 20
-982.1947503813
 11
-78.6964183658
 21
-982.1947503813
  0
LINE
  5
238
100
AcDbEntity
  8
0
100
AcDbLine
 62
7
  6
CONTINUOUS
 10
-47.6964183658
 20
-979.4947503813
 11
-56.6964183658
 21
-979.4947503813
  0
LINE
  5
239
100
AcDbEntity
  8
0
100
AcDbLine
 62
7
  6
CONTINUOUS
 10
-6.6964183658
 20
-961.1947503813
 11
-1.6964183658
 21
-961.1947503813
  0
LINE
  5
23A
100
AcDbEntity
  8
RACCORDO
100
AcDbLine
 62
7
  6
CONTINUOUS
 10
-95.1964183658
 20
-953.6947503813
 11
-84.1964183658
 21
-953.6947503813
  0
LINE
  5
23B
100
AcDbEntity
  8
0
100
AcDbLine
 62
7
  6
CONTINUOUS
 10
-80.6964183658
 20
-953.6947503813
 11
-84.1964183658
 21
-953.6947503813
  0
LINE
  5
23C
100
AcDbEntity
  8
RACCORDO
100
AcDbLine
 62
7
  6
CONTINUOUS
 10
-108.6964183658
 20
-949.1947503813
 11
-97.1964183658
 21
-949.1947503813
  0
LINE
  5
23D
100
AcDbEntity
  8
0
100
AcDbLine
 62
7
  6
CONTINUOUS
 10
-98.8964183658
 20
-944.4647503813
 11
-107.8964183658
 21
-944.4647503813
  0
LINE
  5
23E
100
AcDbEntity
  8
0
100
AcDbLine
 62
7
  6
CONTINUOUS
 10
-107.8964183658
 20
-935.4647503813
 11
-98.8964183658
 21
-935.4647503813
  0
LINE
  5
23F
100
AcDbEntity
  8
0
100
AcDbLine
 62
7
  6
CONTINUOUS
 10
-98.8964183658
 20
-928.5897503813
 11
-107.8964183658
 21
-928.5897503813
  0
LINE
  5
240
100
AcDbEntity
  8
0
100
AcDbLine
 62
7
  6
CONTINUOUS
 10
-107.8964183658
 20
-919.5897503813
 11
-98.8964183658
 21
-919.5897503813
  0
LINE
  5
241
100
AcDbEntity
  8
0
100
AcDbLine
 62
7
  6
CONTINUOUS
 10
-98.8964183658
 20
-915.8897503813
 11
-107.8964183658
 21
-915.8897503813
  0
LINE
  5
242
100
AcDbEntity
  8
0
100
AcDbLine
 62
7
  6
CONTINUOUS
 10
-107.8964183658
 20
-906.8897503813
 11
-98.8964183658
 21
-906.8897503813
  0
LINE
  5
243
100
AcDbEntity
  8
0
100
AcDbLine
 62
7
  6
CONTINUOUS
 10
-98.8964183658
 20
-900.0147503813
 11
-107.8964183658
 21
-900.0147503813
  0
LINE
  5
244
100
AcDbEntity
  8
0
100
AcDbLine
 62
7
  6
CONTINUOUS
 10
-107.8964183658
 20
-891.0147503813
 11
-98.8964183658
 21
-891.0147503813
  0
LINE
  5
245
100
AcDbEntity
  8
0
100
AcDbLine
 62
7
  6
CONTINUOUS
 10
-47.6964183658
 20
-887.4447503813
 11
-56.6964183658
 21
-887.4447503813
  0
LINE
  5
246
100
AcDbEntity
  8
0
100
AcDbLine
 62
7
  6
CONTINUOUS
 10
-98.8964183658
 20
-884.1397503813
 11
-107.8964183658
 21
-884.1397503813
  0
LINE
  5
247
100
AcDbEntity
  8
0
100
AcDbLine
 62
7
  6
CONTINUOUS
 10
-47.6964183658
 20
-878.4447503813
 11
-56.6964183658
 21
-878.4447503813
  0
LINE
  5
248
100
AcDbEntity
  8
0
100
AcDbLine
 62
7
  6
CONTINUOUS
 10
-107.8964183658
 20
-875.1397503813
 11
-98.8964183658
 21
-875.1397503813
  0
LINE
  5
249
100
AcDbEntity
  8
0
100
AcDbLine
 62
7
  6
CONTINUOUS
 10
-98.8964183658
 20
-871.4397503813
 11
-107.8964183658
 21
-871.4397503813
  0
LINE
  5
24A
100
AcDbEntity
  8
0
100
AcDbLine
 62
7
  6
CONTINUOUS
 10
-107.8964183658
 20
-862.4397503813
 11
-98.8964183658
 21
-862.4397503813
  0
LINE
  5
24B
100
AcDbEntity
  8
0
100
AcDbLine
 62
7
  6
CONTINUOUS
 10
-98.8964183658
 20
-855.5647503813
 11
-107.8964183658
 21
-855.5647503813
  0
LINE
  5
24C
100
AcDbEntity
  8
0
100
AcDbLine
 62
7
  6
CONTINUOUS
 10
-107.8964183658
 20
-846.5647503813
 11
-98.8964183658
 21
-846.5647503813
  0
LINE
  5
24D
100
AcDbEntity
  8
0
100
AcDbLine
 62
7
  6
CONTINUOUS
 10
-47.6964183658
 20
-844.3947503813
 11
-56.6964183658
 21
-844.3947503813
  0
LINE
  5
24E
100
AcDbEntity
  8
0
100
AcDbLine
 62
7
  6
CONTINUOUS
 10
-98.8964183658
 20
-839.6897503813
 11
-107.8964183658
 21
-839.6897503813
  0
LINE
  5
24F
100
AcDbEntity
  8
0
100
AcDbLine
 62
7
  6
CONTINUOUS
 10
-47.6964183658
 20
-835.3947503813
 11
-56.6964183658
 21
-835.3947503813
  0
LINE
  5
250
100
AcDbEntity
  8
0
100
AcDbLine
 62
7
  6
CONTINUOUS
 10
-107.8964183658
 20
-830.6897503813
 11
-98.8964183658
 21
-830.6897503813
  0
LINE
  5
251
100
AcDbEntity
  8
0
100
AcDbLine
 62
7
  6
CONTINUOUS
 10
-98.8964183658
 20
-826.9897503813
 11
-107.8964183658
 21
-826.9897503813
  0
LINE
  5
252
100
AcDbEntity
  8
0
100
AcDbLine
 62
7
  6
CONTINUOUS
 10
-107.8964183658
 20
-817.9897503813
 11
-98.8964183658
 21
-817.9897503813
  0
LINE
  5
253
100
AcDbEntity
  8
0
100
AcDbLine
 62
7
  6
CONTINUOUS
 10
-98.8964183658
 20
-811.1147503813
 11
-107.8964183658
 21
-811.1147503813
  0
LINE
  5
254
100
AcDbEntity
  8
0
100
AcDbLine
 62
7
  6
CONTINUOUS
 10
-107.8964183658
 20
-802.1147503813
 11
-98.8964183658
 21
-802.1147503813
  0
LINE
  5
255
100
AcDbEntity
  8
0
100
AcDbLine
 62
7
  6
CONTINUOUS
 10
-47.6964183658
 20
-801.3447503813
 11
-56.6964183658
 21
-801.3447503813
  0
LINE
  5
256
100
AcDbEntity
  8
0
100
AcDbLine
 62
7
  6
CONTINUOUS
 10
-98.8964183658
 20
-795.2397503813
 11
-107.8964183658
 21
-795.2397503813
  0
LINE
  5
257
100
AcDbEntity
  8
0
100
AcDbLine
 62
7
  6
CONTINUOUS
 10
-47.6964183658
 20
-792.3447503813
 11
-56.6964183658
 21
-792.3447503813
  0
LINE
  5
258
100
AcDbEntity
  8
0
100
AcDbLine
 62
7
  6
CONTINUOUS
 10
-107.8964183658
 20
-786.2397503813
 11
-98.8964183658
 21
-786.2397503813
  0
LINE
  5
259
100
AcDbEntity
  8
0
100
AcDbLine
 62
7
  6
CONTINUOUS
 10
-98.8964183658
 20
-782.5397503813
 11
-107.8964183658
 21
-782.5397503813
  0
LINE
  5
25A
100
AcDbEntity
  8
0
100
AcDbLine
 62
7
  6
CONTINUOUS
 10
-107.8964183658
 20
-773.5397503813
 11
-98.8964183658
 21
-773.5397503813
  0
LINE
  5
25B
100
AcDbEntity
  8
0
100
AcDbLine
 62
7
  6
CONTINUOUS
 10
-98.8964183658
 20
-766.6647503813
 11
-107.8964183658
 21
-766.6647503813
  0
LINE
  5
25C
100
AcDbEntity
  8
0
100
AcDbLine
 62
7
  6
CONTINUOUS
 10
-47.6964183658
 20
-758.2947503813
 11
-56.6964183658
 21
-758.2947503813
  0
LINE
  5
25D
100
AcDbEntity
  8
0
100
AcDbLine
 62
7
  6
CONTINUOUS
 10
-107.8964183658
 20
-757.6647503813
 11
-98.8964183658
 21
-757.6647503813
  0
LINE
  5
25E
100
AcDbEntity
  8
0
100
AcDbLine
 62
7
  6
CONTINUOUS
 10
-98.8964183658
 20
-750.7897503813
 11
-107.8964183658
 21
-750.7897503813
  0
LINE
  5
25F
100
AcDbEntity
  8
0
100
AcDbLine
 62
7
  6
CONTINUOUS
 10
-47.6964183658
 20
-749.2947503813
 11
-56.6964183658
 21
-749.2947503813
  0
LINE
  5
260
100
AcDbEntity
  8
0
100
AcDbLine
 62
7
  6
CONTINUOUS
 10
-107.8964183658
 20
-741.7897503813
 11
-98.8964183658
 21
-741.7897503813
  0
LINE
  5
261
100
AcDbEntity
  8
0
100
AcDbLine
 62
7
  6
CONTINUOUS
 10
-98.8964183658
 20
-738.0897503813
 11
-107.8964183658
 21
-738.0897503813
  0
LINE
  5
262
100
AcDbEntity
  8
0
100
AcDbLine
 62
7
  6
CONTINUOUS
 10
-107.8964183658
 20
-729.0897503813
 11
-98.8964183658
 21
-729.0897503813
  0
LINE
  5
263
100
AcDbEntity
  8
0
100
AcDbLine
 62
7
  6
CONTINUOUS
 10
-98.8964183658
 20
-722.2147503813
 11
-107.8964183658
 21
-722.2147503813
  0
LINE
  5
264
100
AcDbEntity
  8
0
100
AcDbLine
 62
7
  6
CONTINUOUS
 10
-47.6964183658
 20
-715.2447503813
 11
-56.6964183658
 21
-715.2447503813
  0
LINE
  5
265
100
AcDbEntity
  8
0
100
AcDbLine
 62
7
  6
CONTINUOUS
 10
-107.8964183658
 20
-713.2147503813
 11
-98.8964183658
 21
-713.2147503813
  0
LINE
  5
266
100
AcDbEntity
  8
0
100
AcDbLine
 62
7
  6
CONTINUOUS
 10
-98.8964183658
 20
-706.3397503813
 11
-107.8964183658
 21
-706.3397503813
  0
LINE
  5
267
100
AcDbEntity
  8
0
100
AcDbLine
 62
7
  6
CONTINUOUS
 10
-47.6964183658
 20
-706.2447503813
 11
-56.6964183658
 21
-706.2447503813
  0
LINE
  5
268
100
AcDbEntity
  8
0
100
AcDbLine
 62
7
  6
CONTINUOUS
 10
-107.8964183658
 20
-697.3397503813
 11
-98.8964183658
 21
-697.3397503813
  0
LINE
  5
269
100
AcDbEntity
  8
0
100
AcDbLine
 62
7
  6
CONTINUOUS
 10
-98.8964183658
 20
-693.6397503813
 11
-107.8964183658
 21
-693.6397503813
  0
LINE
  5
26A
100
AcDbEntity
  8
0
100
AcDbLine
 62
7
  6
CONTINUOUS
 10
-107.8964183658
 20
-684.6397503813
 11
-98.8964183658
 21
-684.6397503813
  0
LINE
  5
26B
100
AcDbEntity
  8
0
100
AcDbLine
 62
7
  6
CONTINUOUS
 10
-98.8964183658
 20
-677.7647503813
 11
-107.8964183658
 21
-677.7647503813
  0
LINE
  5
26C
100
AcDbEntity
  8
0
100
AcDbLine
 62
7
  6
CONTINUOUS
 10
-47.6964183658
 20
-672.1947503813
 11
-56.6964183658
 21
-672.1947503813
  0
LINE
  5
26D
100
AcDbEntity
  8
0
100
AcDbLine
 62
7
  6
CONTINUOUS
 10
-107.8964183658
 20
-668.7647503813
 11
-98.8964183658
 21
-668.7647503813
  0
LINE
  5
26E
100
AcDbEntity
  8
0
100
AcDbLine
 62
7
  6
CONTINUOUS
 10
-47.6964183658
 20
-663.1947503813
 11
-56.6964183658
 21
-663.1947503813
  0
LINE
  5
26F
100
AcDbEntity
  8
0
100
AcDbLine
 62
7
  6
CONTINUOUS
 10
-98.8964183658
 20
-661.8897503813
 11
-107.8964183658
 21
-661.8897503813
  0
LINE
  5
270
100
AcDbEntity
  8
0
100
AcDbLine
 62
7
  6
CONTINUOUS
 10
-107.8964183658
 20
-652.8897503813
 11
-98.8964183658
 21
-652.8897503813
  0
LINE
  5
271
100
AcDbEntity
  8
0
100
AcDbLine
 62
7
  6
CONTINUOUS
 10
-98.8964183658
 20
-649.1897503813
 11
-107.8964183658
 21
-649.1897503813
  0
LINE
  5
272
100
AcDbEntity
  8
0
100
AcDbLine
 62
7
  6
CONTINUOUS
 10
-107.8964183658
 20
-640.1897503813
 11
-98.8964183658
 21
-640.1897503813
  0
LINE
  5
273
100
AcDbEntity
  8
0
100
AcDbLine
 62
7
  6
CONTINUOUS
 10
-98.8964183658
 20
-633.3147503813
 11
-107.8964183658
 21
-633.3147503813
  0
LINE
  5
274
100
AcDbEntity
  8
0
100
AcDbLine
 62
7
  6
CONTINUOUS
 10
-47.6964183658
 20
-629.1447503813
 11
-56.6964183658
 21
-629.1447503813
  0
LINE
  5
275
100
AcDbEntity
  8
0
100
AcDbLine
 62
7
  6
CONTINUOUS
 10
-107.8964183658
 20
-624.3147503813
 11
-98.8964183658
 21
-624.3147503813
  0
LINE
  5
276
100
AcDbEntity
  8
0
100
AcDbLine
 62
7
  6
CONTINUOUS
 10
-47.6964183658
 20
-620.1447503813
 11
-56.6964183658
 21
-620.1447503813
  0
LINE
  5
277
100
AcDbEntity
  8
0
100
AcDbLine
 62
7
  6
CONTINUOUS
 10
-98.8964183658
 20
-617.4397503813
 11
-107.8964183658
 21
-617.4397503813
  0
LINE
  5
278
100
AcDbEntity
  8
0
100
AcDbLine
 62
7
  6
CONTINUOUS
 10
-107.8964183658
 20
-608.4397503813
 11
-98.8964183658
 21
-608.4397503813
  0
LINE
  5
279
100
AcDbEntity
  8
0
100
AcDbLine
 62
7
  6
CONTINUOUS
 10
-98.8964183658
 20
-604.7397503813
 11
-107.8964183658
 21
-604.7397503813
  0
LINE
  5
27A
100
AcDbEntity
  8
0
100
AcDbLine
 62
7
  6
CONTINUOUS
 10
-107.8964183658
 20
-595.7397503813
 11
-98.8964183658
 21
-595.7397503813
  0
LINE
  5
27B
100
AcDbEntity
  8
0
100
AcDbLine
 62
7
  6
CONTINUOUS
 10
-98.8964183658
 20
-588.8647503813
 11
-107.8964183658
 21
-588.8647503813
  0
LINE
  5
27C
100
AcDbEntity
  8
0
100
AcDbLine
 62
7
  6
CONTINUOUS
 10
-47.6964183658
 20
-586.0947503813
 11
-56.6964183658
 21
-586.0947503813
  0
LINE
  5
27D
100
AcDbEntity
  8
0
100
AcDbLine
 62
7
  6
CONTINUOUS
 10
-107.8964183658
 20
-579.8647503813
 11
-98.8964183658
 21
-579.8647503813
  0
LINE
  5
27E
100
AcDbEntity
  8
0
100
AcDbLine
 62
7
  6
CONTINUOUS
 10
-47.6964183658
 20
-577.0947503813
 11
-56.6964183658
 21
-577.0947503813
  0
LINE
  5
27F
100
AcDbEntity
  8
0
100
AcDbLine
 62
7
  6
CONTINUOUS
 10
-98.8964183658
 20
-572.9897503813
 11
-107.8964183658
 21
-572.9897503813
  0
LINE
  5
280
100
AcDbEntity
  8
0
100
AcDbLine
 62
7
  6
CONTINUOUS
 10
-107.8964183658
 20
-563.9897503813
 11
-98.8964183658
 21
-563.9897503813
  0
LINE
  5
281
100
AcDbEntity
  8
0
100
AcDbLine
 62
7
  6
CONTINUOUS
 10
-98.8964183658
 20
-560.2897503813
 11
-107.8964183658
 21
-560.2897503813
  0
LINE
  5
282
100
AcDbEntity
  8
0
100
AcDbLine
 62
7
  6
CONTINUOUS
 10
-107.8964183658
 20
-551.2897503813
 11
-98.8964183658
 21
-551.2897503813
  0
LINE
  5
283
100
AcDbEntity
  8
0
100
AcDbLine
 62
7
  6
CONTINUOUS
 10
-98.8964183658
 20
-544.4147503813
 11
-107.8964183658
 21
-544.4147503813
  0
LINE
  5
284
100
AcDbEntity
  8
0
100
AcDbLine
 62
7
  6
CONTINUOUS
 10
-47.6964183658
 20
-543.0447503813
 11
-56.6964183658
 21
-543.0447503813
  0
LINE
  5
285
100
AcDbEntity
  8
0
100
AcDbLine
 62
7
  6
CONTINUOUS
 10
-107.8964183658
 20
-535.4147503813
 11
-98.8964183658
 21
-535.4147503813
  0
LINE
  5
286
100
AcDbEntity
  8
0
100
AcDbLine
 62
7
  6
CONTINUOUS
 10
-47.6964183658
 20
-534.0447503813
 11
-56.6964183658
 21
-534.0447503813
  0
LINE
  5
287
100
AcDbEntity
  8
0
100
AcDbLine
 62
7
  6
CONTINUOUS
 10
-98.8964183658
 20
-528.5397503813
 11
-107.8964183658
 21
-528.5397503813
  0
LINE
  5
288
100
AcDbEntity
  8
0
100
AcDbLine
 62
7
  6
CONTINUOUS
 10
-107.8964183658
 20
-519.5397503813
 11
-98.8964183658
 21
-519.5397503813
  0
LINE
  5
289
100
AcDbEntity
  8
0
100
AcDbLine
 62
7
  6
CONTINUOUS
 10
-98.8964183658
 20
-515.8397503813
 11
-107.8964183658
 21
-515.8397503813
  0
LINE
  5
28A
100
AcDbEntity
  8
0
100
AcDbLine
 62
7
  6
CONTINUOUS
 10
-107.8964183658
 20
-506.8397503813
 11
-98.8964183658
 21
-506.8397503813
  0
LINE
  5
28B
100
AcDbEntity
  8
0
100
AcDbLine
 62
7
  6
CONTINUOUS
 10
-47.6964183658
 20
-499.9947503813
 11
-56.6964183658
 21
-499.9947503813
  0
LINE
  5
28C
100
AcDbEntity
  8
0
100
AcDbLine
 62
7
  6
CONTINUOUS
 10
-98.8964183658
 20
-499.9647503813
 11
-107.8964183658
 21
-499.9647503813
  0
LINE
  5
28D
100
AcDbEntity
  8
0
100
AcDbLine
 62
7
  6
CONTINUOUS
 10
-47.6964183658
 20
-490.9947503813
 11
-56.6964183658
 21
-490.9947503813
  0
LINE
  5
28E
100
AcDbEntity
  8
0
100
AcDbLine
 62
7
  6
CONTINUOUS
 10
-107.8964183658
 20
-490.9647503813
 11
-98.8964183658
 21
-490.9647503813
  0
LINE
  5
28F
100
AcDbEntity
  8
0
100
AcDbLine
 62
7
  6
CONTINUOUS
 10
-98.8964183658
 20
-484.0897503813
 11
-107.8964183658
 21
-484.0897503813
  0
LINE
  5
290
100
AcDbEntity
  8
0
100
AcDbLine
 62
7
  6
CONTINUOUS
 10
-107.8964183658
 20
-475.0897503813
 11
-98.8964183658
 21
-475.0897503813
  0
LINE
  5
291
100
AcDbEntity
  8
0
100
AcDbLine
 62
7
  6
CONTINUOUS
 10
-98.8964183658
 20
-471.3897503813
 11
-107.8964183658
 21
-471.3897503813
  0
LINE
  5
292
100
AcDbEntity
  8
0
100
AcDbLine
 62
7
  6
CONTINUOUS
 10
-107.8964183658
 20
-462.3897503813
 11
-98.8964183658
 21
-462.3897503813
  0
LINE
  5
293
100
AcDbEntity
  8
0
100
AcDbLine
 62
7
  6
CONTINUOUS
 10
-47.6964183658
 20
-456.9447503813
 11
-56.6964183658
 21
-456.9447503813
  0
LINE
  5
294
100
AcDbEntity
  8
0
100
AcDbLine
 62
7
  6
CONTINUOUS
 10
-98.8964183658
 20
-455.5147503813
 11
-107.8964183658
 21
-455.5147503813
  0
LINE
  5
295
100
AcDbEntity
  8
0
100
AcDbLine
 62
7
  6
CONTINUOUS
 10
-47.6964183658
 20
-447.9447503813
 11
-56.6964183658
 21
-447.9447503813
  0
LINE
  5
296
100
AcDbEntity
  8
0
100
AcDbLine
 62
7
  6
CONTINUOUS
 10
-107.8964183658
 20
-446.5147503813
 11
-98.8964183658
 21
-446.5147503813
  0
LINE
  5
297
100
AcDbEntity
  8
0
100
AcDbLine
 62
7
  6
CONTINUOUS
 10
-98.8964183658
 20
-439.6397503813
 11
-107.8964183658
 21
-439.6397503813
  0
LINE
  5
298
100
AcDbEntity
  8
0
100
AcDbLine
 62
7
  6
CONTINUOUS
 10
-107.8964183658
 20
-430.6397503813
 11
-98.8964183658
 21
-430.6397503813
  0
LINE
  5
299
100
AcDbEntity
  8
0
100
AcDbLine
 62
7
  6
CONTINUOUS
 10
-98.8964183658
 20
-426.9397503813
 11
-107.8964183658
 21
-426.9397503813
  0
LINE
  5
29A
100
AcDbEntity
  8
0
100
AcDbLine
 62
7
  6
CONTINUOUS
 10
-107.8964183658
 20
-417.9397503813
 11
-98.8964183658
 21
-417.9397503813
  0
LINE
  5
29B
100
AcDbEntity
  8
0
100
AcDbLine
 62
7
  6
CONTINUOUS
 10
-47.6964183658
 20
-413.8947503813
 11
-56.6964183658
 21
-413.8947503813
  0
LINE
  5
29C
100
AcDbEntity
  8
0
100
AcDbLine
 62
7
  6
CONTINUOUS
 10
-98.8964183658
 20
-411.0647503813
 11
-107.8964183658
 21
-411.0647503813
  0
LINE
  5
29D
100
AcDbEntity
  8
0
100
AcDbLine
 62
7
  6
CONTINUOUS
 10
-47.6964183658
 20
-404.8947503813
 11
-56.6964183658
 21
-404.8947503813
  0
LINE
  5
29E
100
AcDbEntity
  8
0
100
AcDbLine
 62
7
  6
CONTINUOUS
 10
-107.8964183658
 20
-402.0647503813
 11
-98.8964183658
 21
-402.0647503813
  0
LINE
  5
29F
100
AcDbEntity
  8
0
100
AcDbLine
 62
7
  6
CONTINUOUS
 10
-98.8964183658
 20
-395.1897503813
 11
-107.8964183658
 21
-395.1897503813
  0
LINE
  5
2A0
100
AcDbEntity
  8
0
100
AcDbLine
 62
7
  6
CONTINUOUS
 10
-107.8964183658
 20
-386.1897503813
 11
-98.8964183658
 21
-386.1897503813
  0
LINE
  5
2A1
100
AcDbEntity
  8
0
100
AcDbLine
 62
7
  6
CONTINUOUS
 10
-98.8964183658
 20
-382.4897503813
 11
-107.8964183658
 21
-382.4897503813
  0
LINE
  5
2A2
100
AcDbEntity
  8
0
100
AcDbLine
 62
7
  6
CONTINUOUS
 10
-107.8964183658
 20
-373.4897503813
 11
-98.8964183658
 21
-373.4897503813
  0
LINE
  5
2A3
100
AcDbEntity
  8
0
100
AcDbLine
 62
7
  6
CONTINUOUS
 10
-47.6964183658
 20
-370.8447503813
 11
-56.6964183658
 21
-370.8447503813
  0
LINE
  5
2A4
100
AcDbEntity
  8
0
100
AcDbLine
 62
7
  6
CONTINUOUS
 10
-98.8964183658
 20
-366.6147503813
 11
-107.8964183658
 21
-366.6147503813
  0
LINE
  5
2A5
100
AcDbEntity
  8
0
100
AcDbLine
 62
7
  6
CONTINUOUS
 10
-47.6964183658
 20
-361.8447503813
 11
-56.6964183658
 21
-361.8447503813
  0
LINE
  5
2A6
100
AcDbEntity
  8
0
100
AcDbLine
 62
7
  6
CONTINUOUS
 10
-107.8964183658
 20
-357.6147503813
 11
-98.8964183658
 21
-357.6147503813
  0
LINE
  5
2A7
100
AcDbEntity
  8
0
100
AcDbLine
 62
7
  6
CONTINUOUS
 10
-98.8964183658
 20
-350.7397503813
 11
-107.8964183658
 21
-350.7397503813
  0
LINE
  5
2A8
100
AcDbEntity
  8
0
100
AcDbLine
 62
7
  6
CONTINUOUS
 10
-107.8964183658
 20
-341.7397503813
 11
-98.8964183658
 21
-341.7397503813
  0
LINE
  5
2A9
100
AcDbEntity
  8
0
100
AcDbLine
 62
7
  6
CONTINUOUS
 10
-98.8964183658
 20
-338.0397503813
 11
-107.8964183658
 21
-338.0397503813
  0
LINE
  5
2AA
100
AcDbEntity
  8
0
100
AcDbLine
 62
7
  6
CONTINUOUS
 10
-107.8964183658
 20
-329.0397503813
 11
-98.8964183658
 21
-329.0397503813
  0
LINE
  5
2AB
100
AcDbEntity
  8
0
100
AcDbLine
 62
7
  6
CONTINUOUS
 10
-47.6964183658
 20
-327.7947503813
 11
-56.6964183658
 21
-327.7947503813
  0
LINE
  5
2AC
100
AcDbEntity
  8
0
100
AcDbLine
 62
7
  6
CONTINUOUS
 10
-98.8964183658
 20
-322.1647503813
 11
-107.8964183658
 21
-322.1647503813
  0
LINE
  5
2AD
100
AcDbEntity
  8
0
100
AcDbLine
 62
7
  6
CONTINUOUS
 10
-47.6964183658
 20
-318.7947503813
 11
-56.6964183658
 21
-318.7947503813
  0
LINE
  5
2AE
100
AcDbEntity
  8
0
100
AcDbLine
 62
7
  6
CONTINUOUS
 10
-107.8964183658
 20
-313.1647503813
 11
-98.8964183658
 21
-313.1647503813
  0
LINE
  5
2AF
100
AcDbEntity
  8
0
100
AcDbLine
 62
7
  6
CONTINUOUS
 10
-98.8964183658
 20
-306.2897503813
 11
-107.8964183658
 21
-306.2897503813
  0
LINE
  5
2B0
100
AcDbEntity
  8
0
100
AcDbLine
 62
7
  6
CONTINUOUS
 10
-107.8964183658
 20
-297.2897503813
 11
-98.8964183658
 21
-297.2897503813
  0
LINE
  5
2B1
100
AcDbEntity
  8
0
100
AcDbLine
 62
7
  6
CONTINUOUS
 10
-98.8964183658
 20
-293.5897503813
 11
-107.8964183658
 21
-293.5897503813
  0
LINE
  5
2B2
100
AcDbEntity
  8
0
100
AcDbLine
 62
7
  6
CONTINUOUS
 10
-47.6964183658
 20
-284.7447503813
 11
-56.6964183658
 21
-284.7447503813
  0
LINE
  5
2B3
100
AcDbEntity
  8
0
100
AcDbLine
 62
7
  6
CONTINUOUS
 10
-107.8964183658
 20
-284.5897503813
 11
-98.8964183658
 21
-284.5897503813
  0
LINE
  5
2B4
100
AcDbEntity
  8
0
100
AcDbLine
 62
7
  6
CONTINUOUS
 10
-98.8964183658
 20
-277.7147503813
 11
-107.8964183658
 21
-277.7147503813
  0
LINE
  5
2B5
100
AcDbEntity
  8
0
100
AcDbLine
 62
7
  6
CONTINUOUS
 10
-47.6964183658
 20
-275.7447503813
 11
-56.6964183658
 21
-275.7447503813
  0
LINE
  5
2B6
100
AcDbEntity
  8
0
100
AcDbLine
 62
7
  6
CONTINUOUS
 10
-107.8964183658
 20
-268.7147503813
 11
-98.8964183658
 21
-268.7147503813
  0
LINE
  5
2B7
100
AcDbEntity
  8
0
100
AcDbLine
 62
7
  6
CONTINUOUS
 10
-98.8964183658
 20
-261.8397503813
 11
-107.8964183658
 21
-261.8397503813
  0
LINE
  5
2B8
100
AcDbEntity
  8
0
100
AcDbLine
 62
7
  6
CONTINUOUS
 10
-107.8964183658
 20
-252.8397503813
 11
-98.8964183658
 21
-252.8397503813
  0
LINE
  5
2B9
100
AcDbEntity
  8
0
100
AcDbLine
 62
7
  6
CONTINUOUS
 10
-98.8964183658
 20
-249.1397503813
 11
-107.8964183658
 21
-249.1397503813
  0
LINE
  5
2BA
100
AcDbEntity
  8
0
100
AcDbLine
 62
7
  6
CONTINUOUS
 10
-47.6964183658
 20
-241.6947503813
 11
-56.6964183658
 21
-241.6947503813
  0
LINE
  5
2BB
100
AcDbEntity
  8
0
100
AcDbLine
 62
7
  6
CONTINUOUS
 10
-107.8964183658
 20
-240.1397503813
 11
-98.8964183658
 21
-240.1397503813
  0
LINE
  5
2BC
100
AcDbEntity
  8
0
100
AcDbLine
 62
7
  6
CONTINUOUS
 10
-98.8964183658
 20
-233.2647503813
 11
-107.8964183658
 21
-233.2647503813
  0
LINE
  5
2BD
100
AcDbEntity
  8
0
100
AcDbLine
 62
7
  6
CONTINUOUS
 10
-47.6964183658
 20
-232.6947503813
 11
-56.6964183658
 21
-232.6947503813
  0
LINE
  5
2BE
100
AcDbEntity
  8
0
100
AcDbLine
 62
7
  6
CONTINUOUS
 10
-107.8964183658
 20
-224.2647503813
 11
-98.8964183658
 21
-224.2647503813
  0
LINE
  5
2BF
100
AcDbEntity
  8
0
100
AcDbLine
 62
7
  6
CONTINUOUS
 10
-98.8964183658
 20
-217.3897503813
 11
-107.8964183658
 21
-217.3897503813
  0
LINE
  5
2C0
100
AcDbEntity
  8
0
100
AcDbLine
 62
7
  6
CONTINUOUS
 10
-107.8964183658
 20
-208.3897503813
 11
-98.8964183658
 21
-208.3897503813
  0
LINE
  5
2C1
100
AcDbEntity
  8
0
100
AcDbLine
 62
7
  6
CONTINUOUS
 10
-98.8964183658
 20
-204.6897503813
 11
-107.8964183658
 21
-204.6897503813
  0
LINE
  5
2C2
100
AcDbEntity
  8
0
100
AcDbLine
 62
7
  6
CONTINUOUS
 10
-47.6964183658
 20
-198.6447503813
 11
-56.6964183658
 21
-198.6447503813
  0
LINE
  5
2C3
100
AcDbEntity
  8
0
100
AcDbLine
 62
7
  6
CONTINUOUS
 10
-107.8964183658
 20
-195.6897503813
 11
-98.8964183658
 21
-195.6897503813
  0
LINE
  5
2C4
100
AcDbEntity
  8
0
100
AcDbLine
 62
7
  6
CONTINUOUS
 10
-47.6964183658
 20
-189.6447503813
 11
-56.6964183658
 21
-189.6447503813
  0
LINE
  5
2C5
100
AcDbEntity
  8
0
100
AcDbLine
 62
7
  6
CONTINUOUS
 10
-98.8964183658
 20
-188.8147503813
 11
-107.8964183658
 21
-188.8147503813
  0
LINE
  5
2C6
100
AcDbEntity
  8
0
100
AcDbLine
 62
7
  6
CONTINUOUS
 10
-107.8964183658
 20
-179.8147503813
 11
-98.8964183658
 21
-179.8147503813
  0
LINE
  5
2C7
100
AcDbEntity
  8
0
100
AcDbLine
 62
7
  6
CONTINUOUS
 10
-98.8964183658
 20
-172.9397503813
 11
-107.8964183658
 21
-172.9397503813
  0
LINE
  5
2C8
100
AcDbEntity
  8
0
100
AcDbLine
 62
7
  6
CONTINUOUS
 10
-107.8964183658
 20
-163.9397503813
 11
-98.8964183658
 21
-163.9397503813
  0
LINE
  5
2C9
100
AcDbEntity
  8
0
100
AcDbLine
 62
7
  6
CONTINUOUS
 10
-98.8964183658
 20
-160.2397503813
 11
-107.8964183658
 21
-160.2397503813
  0
LINE
  5
2CA
100
AcDbEntity
  8
0
100
AcDbLine
 62
7
  6
CONTINUOUS
 10
-47.6964183658
 20
-155.5947503813
 11
-56.6964183658
 21
-155.5947503813
  0
LINE
  5
2CB
100
AcDbEntity
  8
0
100
AcDbLine
 62
7
  6
CONTINUOUS
 10
-107.8964183658
 20
-151.2397503813
 11
-98.8964183658
 21
-151.2397503813
  0
LINE
  5
2CC
100
AcDbEntity
  8
0
100
AcDbLine
 62
7
  6
CONTINUOUS
 10
-47.6964183658
 20
-146.5947503813
 11
-56.6964183658
 21
-146.5947503813
  0
LINE
  5
2CD
100
AcDbEntity
  8
0
100
AcDbLine
 62
7
  6
CONTINUOUS
 10
-98.8964183658
 20
-144.3647503813
 11
-107.8964183658
 21
-144.3647503813
  0
LINE
  5
2CE
100
AcDbEntity
  8
0
100
AcDbLine
 62
7
  6
CONTINUOUS
 10
-107.8964183658
 20
-135.3647503813
 11
-98.8964183658
 21
-135.3647503813
  0
LINE
  5
2CF
100
AcDbEntity
  8
0
100
AcDbLine
 62
7
  6
CONTINUOUS
 10
-98.8964183658
 20
-128.4897503813
 11
-107.8964183658
 21
-128.4897503813
  0
LINE
  5
2D0
100
AcDbEntity
  8
0
100
AcDbLine
 62
7
  6
CONTINUOUS
 10
-107.8964183658
 20
-119.4897503813
 11
-98.8964183658
 21
-119.4897503813
  0
LINE
  5
2D1
100
AcDbEntity
  8
0
100
AcDbLine
 62
7
  6
CONTINUOUS
 10
-98.8964183658
 20
-115.7897503813
 11
-107.8964183658
 21
-115.7897503813
  0
LINE
  5
2D2
100
AcDbEntity
  8
0
100
AcDbLine
 62
7
  6
CONTINUOUS
 10
-47.6964183658
 20
-112.5447503813
 11
-56.6964183658
 21
-112.5447503813
  0
LINE
  5
2D3
100
AcDbEntity
  8
0
100
AcDbLine
 62
7
  6
CONTINUOUS
 10
-107.8964183658
 20
-106.7897503813
 11
-98.8964183658
 21
-106.7897503813
  0
LINE
  5
2D4
100
AcDbEntity
  8
0
100
AcDbLine
 62
7
  6
CONTINUOUS
 10
-47.6964183658
 20
-103.5447503813
 11
-56.6964183658
 21
-103.5447503813
  0
LINE
  5
2D5
100
AcDbEntity
  8
0
100
AcDbLine
 62
7
  6
CONTINUOUS
 10
-98.8964183658
 20
-99.9147503813
 11
-107.8964183658
 21
-99.9147503813
  0
LINE
  5
2D6
100
AcDbEntity
  8
0
100
AcDbLine
 62
7
  6
CONTINUOUS
 10
-107.8964183658
 20
-90.9147503813
 11
-98.8964183658
 21
-90.9147503813
  0
LINE
  5
2D7
100
AcDbEntity
  8
0
100
AcDbLine
 62
7
  6
CONTINUOUS
 10
-98.8964183658
 20
-84.0397503813
 11
-107.8964183658
 21
-84.0397503813
  0
LINE
  5
2D8
100
AcDbEntity
  8
RACCORDO
100
AcDbLine
 62
7
  6
CONTINUOUS
 10
-110.6964183658
 20
889.8052496187
 11
-110.6964183658
 21
-947.1947503813
  0
LINE
  5
2D9
100
AcDbEntity
  8
0
100
AcDbLine
 62
7
  6
CONTINUOUS
 10
-107.8964183658
 20
-944.4647503813
 11
-107.8964183658
 21
-935.4647503813
  0
LINE
  5
2DA
100
AcDbEntity
  8
0
100
AcDbLine
 62
7
  6
CONTINUOUS
 10
-107.8964183658
 20
-928.5897503813
 11
-107.8964183658
 21
-919.5897503813
  0
LINE
  5
2DB
100
AcDbEntity
  8
0
100
AcDbLine
 62
7
  6
CONTINUOUS
 10
-107.8964183658
 20
-915.8897503813
 11
-107.8964183658
 21
-906.8897503813
  0
LINE
  5
2DC
100
AcDbEntity
  8
0
100
AcDbLine
 62
7
  6
CONTINUOUS
 10
-107.8964183658
 20
-900.0147503813
 11
-107.8964183658
 21
-891.0147503813
  0
LINE
  5
2DD
100
AcDbEntity
  8
0
100
AcDbLine
 62
7
  6
CONTINUOUS
 10
-107.8964183658
 20
-884.1397503813
 11
-107.8964183658
 21
-875.1397503813
  0
LINE
  5
2DE
100
AcDbEntity
  8
0
100
AcDbLine
 62
7
  6
CONTINUOUS
 10
-107.8964183658
 20
-871.4397503813
 11
-107.8964183658
 21
-862.4397503813
  0
LINE
  5
2DF
100
AcDbEntity
  8
0
100
AcDbLine
 62
7
  6
CONTINUOUS
 10
-107.8964183658
 20
-855.5647503813
 11
-107.8964183658
 21
-846.5647503813
  0
LINE
  5
2E0
100
AcDbEntity
  8
0
100
AcDbLine
 62
7
  6
CONTINUOUS
 10
-107.8964183658
 20
-839.6897503813
 11
-107.8964183658
 21
-830.6897503813
  0
LINE
  5
2E1
100
AcDbEntity
  8
0
100
AcDbLine
 62
7
  6
CONTINUOUS
 10
-107.8964183658
 20
-826.9897503813
 11
-107.8964183658
 21
-817.9897503813
  0
LINE
  5
2E2
100
AcDbEntity
  8
0
100
AcDbLine
 62
7
  6
CONTINUOUS
 10
-107.8964183658
 20
-811.1147503813
 11
-107.8964183658
 21
-802.1147503813
  0
LINE
  5
2E3
100
AcDbEntity
  8
0
100
AcDbLine
 62
7
  6
CONTINUOUS
 10
-107.8964183658
 20
-795.2397503813
 11
-107.8964183658
 21
-786.2397503813
  0
LINE
  5
2E4
100
AcDbEntity
  8
0
100
AcDbLine
 62
7
  6
CONTINUOUS
 10
-107.8964183658
 20
-782.5397503813
 11
-107.8964183658
 21
-773.5397503813
  0
LINE
  5
2E5
100
AcDbEntity
  8
0
100
AcDbLine
 62
7
  6
CONTINUOUS
 10
-107.8964183658
 20
-766.6647503813
 11
-107.8964183658
 21
-757.6647503813
  0
LINE
  5
2E6
100
AcDbEntity
  8
0
100
AcDbLine
 62
7
  6
CONTINUOUS
 10
-107.8964183658
 20
-750.7897503813
 11
-107.8964183658
 21
-741.7897503813
  0
LINE
  5
2E7
100
AcDbEntity
  8
0
100
AcDbLine
 62
7
  6
CONTINUOUS
 10
-107.8964183658
 20
-738.0897503813
 11
-107.8964183658
 21
-729.0897503813
  0
LINE
  5
2E8
100
AcDbEntity
  8
0
100
AcDbLine
 62
7
  6
CONTINUOUS
 10
-107.8964183658
 20
-722.2147503813
 11
-107.8964183658
 21
-713.2147503813
  0
LINE
  5
2E9
100
AcDbEntity
  8
0
100
AcDbLine
 62
7
  6
CONTINUOUS
 10
-107.8964183658
 20
-706.3397503813
 11
-107.8964183658
 21
-697.3397503813
  0
LINE
  5
2EA
100
AcDbEntity
  8
0
100
AcDbLine
 62
7
  6
CONTINUOUS
 10
-107.8964183658
 20
-693.6397503813
 11
-107.8964183658
 21
-684.6397503813
  0
LINE
  5
2EB
100
AcDbEntity
  8
0
100
AcDbLine
 62
7
  6
CONTINUOUS
 10
-107.8964183658
 20
-677.7647503813
 11
-107.8964183658
 21
-668.7647503813
  0
LINE
  5
2EC
100
AcDbEntity
  8
0
100
AcDbLine
 62
7
  6
CONTINUOUS
 10
-107.8964183658
 20
-661.8897503813
 11
-107.8964183658
 21
-652.8897503813
  0
LINE
  5
2ED
100
AcDbEntity
  8
0
100
AcDbLine
 62
7
  6
CONTINUOUS
 10
-107.8964183658
 20
-649.1897503813
 11
-107.8964183658
 21
-640.1897503813
  0
LINE
  5
2EE
100
AcDbEntity
  8
0
100
AcDbLine
 62
7
  6
CONTINUOUS
 10
-107.8964183658
 20
-633.3147503813
 11
-107.8964183658
 21
-624.3147503813
  0
LINE
  5
2EF
100
AcDbEntity
  8
0
100
AcDbLine
 62
7
  6
CONTINUOUS
 10
-107.8964183658
 20
-617.4397503813
 11
-107.8964183658
 21
-608.4397503813
  0
LINE
  5
2F0
100
AcDbEntity
  8
0
100
AcDbLine
 62
7
  6
CONTINUOUS
 10
-107.8964183658
 20
-604.7397503813
 11
-107.8964183658
 21
-595.7397503813
  0
LINE
  5
2F1
100
AcDbEntity
  8
0
100
AcDbLine
 62
7
  6
CONTINUOUS
 10
-107.8964183658
 20
-588.8647503813
 11
-107.8964183658
 21
-579.8647503813
  0
LINE
  5
2F2
100
AcDbEntity
  8
0
100
AcDbLine
 62
7
  6
CONTINUOUS
 10
-107.8964183658
 20
-572.9897503813
 11
-107.8964183658
 21
-563.9897503813
  0
LINE
  5
2F3
100
AcDbEntity
  8
0
100
AcDbLine
 62
7
  6
CONTINUOUS
 10
-107.8964183658
 20
-560.2897503813
 11
-107.8964183658
 21
-551.2897503813
  0
LINE
  5
2F4
100
AcDbEntity
  8
0
100
AcDbLine
 62
7
  6
CONTINUOUS
 10
-107.8964183658
 20
-544.4147503813
 11
-107.8964183658
 21
-535.4147503813
  0
LINE
  5
2F5
100
AcDbEntity
  8
0
100
AcDbLine
 62
7
  6
CONTINUOUS
 10
-107.8964183658
 20
-528.5397503813
 11
-107.8964183658
 21
-519.5397503813
  0
LINE
  5
2F6
100
AcDbEntity
  8
0
100
AcDbLine
 62
7
  6
CONTINUOUS
 10
-107.8964183658
 20
-515.8397503813
 11
-107.8964183658
 21
-506.8397503813
  0
LINE
  5
2F7
100
AcDbEntity
  8
0
100
AcDbLine
 62
7
  6
CONTINUOUS
 10
-107.8964183658
 20
-499.9647503813
 11
-107.8964183658
 21
-490.9647503813
  0
LINE
  5
2F8
100
AcDbEntity
  8
0
100
AcDbLine
 62
7
  6
CONTINUOUS
 10
-107.8964183658
 20
-484.0897503813
 11
-107.8964183658
 21
-475.0897503813
  0
LINE
  5
2F9
100
AcDbEntity
  8
0
100
AcDbLine
 62
7
  6
CONTINUOUS
 10
-107.8964183658
 20
-471.3897503813
 11
-107.8964183658
 21
-462.3897503813
  0
LINE
  5
2FA
100
AcDbEntity
  8
0
100
AcDbLine
 62
7
  6
CONTINUOUS
 10
-107.8964183658
 20
-455.5147503813
 11
-107.8964183658
 21
-446.5147503813
  0
LINE
  5
2FB
100
AcDbEntity
  8
0
100
AcDbLine
 62
7
  6
CONTINUOUS
 10
-107.8964183658
 20
-439.6397503813
 11
-107.8964183658
 21
-430.6397503813
  0
LINE
  5
2FC
100
AcDbEntity
  8
0
100
AcDbLine
 62
7
  6
CONTINUOUS
 10
-107.8964183658
 20
-426.9397503813
 11
-107.8964183658
 21
-417.9397503813
  0
LINE
  5
2FD
100
AcDbEntity
  8
0
100
AcDbLine
 62
7
  6
CONTINUOUS
 10
-107.8964183658
 20
-411.0647503813
 11
-107.8964183658
 21
-402.0647503813
  0
LINE
  5
2FE
100
AcDbEntity
  8
0
100
AcDbLine
 62
7
  6
CONTINUOUS
 10
-107.8964183658
 20
-395.1897503813
 11
-107.8964183658
 21
-386.1897503813
  0
LINE
  5
2FF
100
AcDbEntity
  8
0
100
AcDbLine
 62
7
  6
CONTINUOUS
 10
-107.8964183658
 20
-382.4897503813
 11
-107.8964183658
 21
-373.4897503813
  0
LINE
  5
300
100
AcDbEntity
  8
0
100
AcDbLine
 62
7
  6
CONTINUOUS
 10
-107.8964183658
 20
-366.6147503813
 11
-107.8964183658
 21
-357.6147503813
  0
LINE
  5
301
100
AcDbEntity
  8
0
100
AcDbLine
 62
7
  6
CONTINUOUS
 10
-107.8964183658
 20
-350.7397503813
 11
-107.8964183658
 21
-341.7397503813
  0
LINE
  5
302
100
AcDbEntity
  8
0
100
AcDbLine
 62
7
  6
CONTINUOUS
 10
-107.8964183658
 20
-338.0397503813
 11
-107.8964183658
 21
-329.0397503813
  0
LINE
  5
303
100
AcDbEntity
  8
0
100
AcDbLine
 62
7
  6
CONTINUOUS
 10
-107.8964183658
 20
-322.1647503813
 11
-107.8964183658
 21
-313.1647503813
  0
LINE
  5
304
100
AcDbEntity
  8
0
100
AcDbLine
 62
7
  6
CONTINUOUS
 10
-107.8964183658
 20
-306.2897503813
 11
-107.8964183658
 21
-297.2897503813
  0
LINE
  5
305
100
AcDbEntity
  8
0
100
AcDbLine
 62
7
  6
CONTINUOUS
 10
-107.8964183658
 20
-293.5897503813
 11
-107.8964183658
 21
-284.5897503813
  0
LINE
  5
306
100
AcDbEntity
  8
0
100
AcDbLine
 62
7
  6
CONTINUOUS
 10
-107.8964183658
 20
-277.7147503813
 11
-107.8964183658
 21
-268.7147503813
  0
LINE
  5
307
100
AcDbEntity
  8
0
100
AcDbLine
 62
7
  6
CONTINUOUS
 10
-107.8964183658
 20
-261.8397503813
 11
-107.8964183658
 21
-252.8397503813
  0
LINE
  5
308
100
AcDbEntity
  8
0
100
AcDbLine
 62
7
  6
CONTINUOUS
 10
-107.8964183658
 20
-249.1397503813
 11
-107.8964183658
 21
-240.1397503813
  0
LINE
  5
309
100
AcDbEntity
  8
0
100
AcDbLine
 62
7
  6
CONTINUOUS
 10
-107.8964183658
 20
-233.2647503813
 11
-107.8964183658
 21
-224.2647503813
  0
LINE
  5
30A
100
AcDbEntity
  8
0
100
AcDbLine
 62
7
  6
CONTINUOUS
 10
-107.8964183658
 20
-217.3897503813
 11
-107.8964183658
 21
-208.3897503813
  0
LINE
  5
30B
100
AcDbEntity
  8
0
100
AcDbLine
 62
7
  6
CONTINUOUS
 10
-107.8964183658
 20
-204.6897503813
 11
-107.8964183658
 21
-195.6897503813
  0
LINE
  5
30C
100
AcDbEntity
  8
0
100
AcDbLine
 62
7
  6
CONTINUOUS
 10
-107.8964183658
 20
-188.8147503813
 11
-107.8964183658
 21
-179.8147503813
  0
LINE
  5
30D
100
AcDbEntity
  8
0
100
AcDbLine
 62
7
  6
CONTINUOUS
 10
-107.8964183658
 20
-172.9397503813
 11
-107.8964183658
 21
-163.9397503813
  0
LINE
  5
30E
100
AcDbEntity
  8
0
100
AcDbLine
 62
7
  6
CONTINUOUS
 10
-107.8964183658
 20
-160.2397503813
 11
-107.8964183658
 21
-151.2397503813
  0
LINE
  5
30F
100
AcDbEntity
  8
0
100
AcDbLine
 62
7
  6
CONTINUOUS
 10
-107.8964183658
 20
-144.3647503813
 11
-107.8964183658
 21
-135.3647503813
  0
LINE
  5
310
100
AcDbEntity
  8
0
100
AcDbLine
 62
7
  6
CONTINUOUS
 10
-107.8964183658
 20
-128.4897503813
 11
-107.8964183658
 21
-119.4897503813
  0
LINE
  5
311
100
AcDbEntity
  8
0
100
AcDbLine
 62
7
  6
CONTINUOUS
 10
-107.8964183658
 20
-115.7897503813
 11
-107.8964183658
 21
-106.7897503813
  0
LINE
  5
312
100
AcDbEntity
  8
0
100
AcDbLine
 62
7
  6
CONTINUOUS
 10
-107.8964183658
 20
-99.9147503813
 11
-107.8964183658
 21
-90.9147503813
  0
LINE
  5
313
100
AcDbEntity
  8
0
100
AcDbLine
 62
7
  6
CONTINUOUS
 10
-107.8964183658
 20
-84.0397503813
 11
-107.8964183658
 21
-75.0397503813
  0
LINE
  5
314
100
AcDbEntity
  8
0
100
AcDbLine
 62
7
  6
CONTINUOUS
 10
-107.8964183658
 20
-71.3397503813
 11
-107.8964183658
 21
-62.3397503813
  0
LINE
  5
315
100
AcDbEntity
  8
0
100
AcDbLine
 62
7
  6
CONTINUOUS
 10
-107.8964183658
 20
-55.4647503813
 11
-107.8964183658
 21
-46.4647503813
  0
LINE
  5
316
100
AcDbEntity
  8
0
100
AcDbLine
 62
7
  6
CONTINUOUS
 10
-107.8964183658
 20
-39.5897503813
 11
-107.8964183658
 21
-30.5897503813
  0
LINE
  5
317
100
AcDbEntity
  8
0
100
AcDbLine
 62
7
  6
CONTINUOUS
 10
-107.8964183658
 20
-26.8897503813
 11
-107.8964183658
 21
-17.8897503813
  0
LINE
  5
318
100
AcDbEntity
  8
0
100
AcDbLine
 62
7
  6
CONTINUOUS
 10
-107.8964183658
 20
-11.0147503813
 11
-107.8964183658
 21
-2.0147503813
  0
LINE
  5
319
100
AcDbEntity
  8
0
100
AcDbLine
 62
7
  6
CONTINUOUS
 10
-107.8964183658
 20
4.8602496187
 11
-107.8964183658
 21
13.8602496187
  0
LINE
  5
31A
100
AcDbEntity
  8
0
100
AcDbLine
 62
7
  6
CONTINUOUS
 10
-107.8964183658
 20
17.5602496187
 11
-107.8964183658
 21
26.5602496187
  0
LINE
  5
31B
100
AcDbEntity
  8
0
100
AcDbLine
 62
7
  6
CONTINUOUS
 10
-107.8964183658
 20
33.4352496187
 11
-107.8964183658
 21
42.4352496187
  0
LINE
  5
31C
100
AcDbEntity
  8
0
100
AcDbLine
 62
7
  6
CONTINUOUS
 10
-107.8964183658
 20
49.3102496187
 11
-107.8964183658
 21
58.3102496187
  0
LINE
  5
31D
100
AcDbEntity
  8
0
100
AcDbLine
 62
7
  6
CONTINUOUS
 10
-107.8964183658
 20
62.0102496187
 11
-107.8964183658
 21
71.0102496187
  0
LINE
  5
31E
100
AcDbEntity
  8
0
100
AcDbLine
 62
7
  6
CONTINUOUS
 10
-107.8964183658
 20
77.8852496187
 11
-107.8964183658
 21
86.8852496187
  0
LINE
  5
31F
100
AcDbEntity
  8
0
100
AcDbLine
 62
7
  6
CONTINUOUS
 10
-107.8964183658
 20
93.7602496187
 11
-107.8964183658
 21
102.7602496187
  0
LINE
  5
320
100
AcDbEntity
  8
0
100
AcDbLine
 62
7
  6
CONTINUOUS
 10
-107.8964183658
 20
106.4602496187
 11
-107.8964183658
 21
115.4602496187
  0
LINE
  5
321
100
AcDbEntity
  8
0
100
AcDbLine
 62
7
  6
CONTINUOUS
 10
-107.8964183658
 20
122.3352496187
 11
-107.8964183658
 21
131.3352496187
  0
LINE
  5
322
100
AcDbEntity
  8
0
100
AcDbLine
 62
7
  6
CONTINUOUS
 10
-107.8964183658
 20
138.2102496187
 11
-107.8964183658
 21
147.2102496187
  0
LINE
  5
323
100
AcDbEntity
  8
0
100
AcDbLine
 62
7
  6
CONTINUOUS
 10
-107.8964183658
 20
150.9102496187
 11
-107.8964183658
 21
159.9102496187
  0
LINE
  5
324
100
AcDbEntity
  8
0
100
AcDbLine
 62
7
  6
CONTINUOUS
 10
-107.8964183658
 20
166.7852496187
 11
-107.8964183658
 21
175.7852496187
  0
LINE
  5
325
100
AcDbEntity
  8
0
100
AcDbLine
 62
7
  6
CONTINUOUS
 10
-107.8964183658
 20
182.6602496187
 11
-107.8964183658
 21
191.6602496187
  0
LINE
  5
326
100
AcDbEntity
  8
0
100
AcDbLine
 62
7
  6
CONTINUOUS
 10
-107.8964183658
 20
195.3602496187
 11
-107.8964183658
 21
204.3602496187
  0
LINE
  5
327
100
AcDbEntity
  8
0
100
AcDbLine
 62
7
  6
CONTINUOUS
 10
-107.8964183658
 20
211.2352496187
 11
-107.8964183658
 21
220.2352496187
  0
LINE
  5
328
100
AcDbEntity
  8
0
100
AcDbLine
 62
7
  6
CONTINUOUS
 10
-107.8964183658
 20
227.1102496187
 11
-107.8964183658
 21
236.1102496187
  0
LINE
  5
329
100
AcDbEntity
  8
0
100
AcDbLine
 62
7
  6
CONTINUOUS
 10
-107.8964183658
 20
239.8102496187
 11
-107.8964183658
 21
248.8102496187
  0
LINE
  5
32A
100
AcDbEntity
  8
0
100
AcDbLine
 62
7
  6
CONTINUOUS
 10
-107.8964183658
 20
255.6852496187
 11
-107.8964183658
 21
264.6852496187
  0
LINE
  5
32B
100
AcDbEntity
  8
0
100
AcDbLine
 62
7
  6
CONTINUOUS
 10
-107.8964183658
 20
271.5602496187
 11
-107.8964183658
 21
280.5602496187
  0
LINE
  5
32C
100
AcDbEntity
  8
0
100
AcDbLine
 62
7
  6
CONTINUOUS
 10
-107.8964183658
 20
284.2602496187
 11
-107.8964183658
 21
293.2602496187
  0
LINE
  5
32D
100
AcDbEntity
  8
0
100
AcDbLine
 62
7
  6
CONTINUOUS
 10
-107.8964183658
 20
300.1352496187
 11
-107.8964183658
 21
309.1352496187
  0
LINE
  5
32E
100
AcDbEntity
  8
0
100
AcDbLine
 62
7
  6
CONTINUOUS
 10
-107.8964183658
 20
316.0102496187
 11
-107.8964183658
 21
325.0102496187
  0
LINE
  5
32F
100
AcDbEntity
  8
0
100
AcDbLine
 62
7
  6
CONTINUOUS
 10
-107.8964183658
 20
328.7102496187
 11
-107.8964183658
 21
337.7102496187
  0
LINE
  5
330
100
AcDbEntity
  8
0
100
AcDbLine
 62
7
  6
CONTINUOUS
 10
-107.8964183658
 20
344.5852496187
 11
-107.8964183658
 21
353.5852496187
  0
LINE
  5
331
100
AcDbEntity
  8
0
100
AcDbLine
 62
7
  6
CONTINUOUS
 10
-107.8964183658
 20
360.4602496187
 11
-107.8964183658
 21
369.4602496187
  0
LINE
  5
332
100
AcDbEntity
  8
0
100
AcDbLine
 62
7
  6
CONTINUOUS
 10
-107.8964183658
 20
373.1602496187
 11
-107.8964183658
 21
382.1602496187
  0
LINE
  5
333
100
AcDbEntity
  8
0
100
AcDbLine
 62
7
  6
CONTINUOUS
 10
-107.8964183658
 20
389.0352496187
 11
-107.8964183658
 21
398.0352496187
  0
LINE
  5
334
100
AcDbEntity
  8
0
100
AcDbLine
 62
7
  6
CONTINUOUS
 10
-107.8964183658
 20
404.9102496187
 11
-107.8964183658
 21
413.9102496187
  0
LINE
  5
335
100
AcDbEntity
  8
0
100
AcDbLine
 62
7
  6
CONTINUOUS
 10
-107.8964183658
 20
417.6102496187
 11
-107.8964183658
 21
426.6102496187
  0
LINE
  5
336
100
AcDbEntity
  8
0
100
AcDbLine
 62
7
  6
CONTINUOUS
 10
-107.8964183658
 20
433.4852496187
 11
-107.8964183658
 21
442.4852496187
  0
LINE
  5
337
100
AcDbEntity
  8
0
100
AcDbLine
 62
7
  6
CONTINUOUS
 10
-107.8964183658
 20
449.3602496187
 11
-107.8964183658
 21
458.3602496187
  0
LINE
  5
338
100
AcDbEntity
  8
0
100
AcDbLine
 62
7
  6
CONTINUOUS
 10
-107.8964183658
 20
462.0602496187
 11
-107.8964183658
 21
471.0602496187
  0
LINE
  5
339
100
AcDbEntity
  8
0
100
AcDbLine
 62
7
  6
CONTINUOUS
 10
-107.8964183658
 20
477.9352496187
 11
-107.8964183658
 21
486.9352496187
  0
LINE
  5
33A
100
AcDbEntity
  8
0
100
AcDbLine
 62
7
  6
CONTINUOUS
 10
-107.8964183658
 20
493.8102496187
 11
-107.8964183658
 21
502.8102496187
  0
LINE
  5
33B
100
AcDbEntity
  8
0
100
AcDbLine
 62
7
  6
CONTINUOUS
 10
-107.8964183658
 20
506.5102496187
 11
-107.8964183658
 21
515.5102496187
  0
LINE
  5
33C
100
AcDbEntity
  8
0
100
AcDbLine
 62
7
  6
CONTINUOUS
 10
-107.8964183658
 20
522.3852496187
 11
-107.8964183658
 21
531.3852496187
  0
LINE
  5
33D
100
AcDbEntity
  8
0
100
AcDbLine
 62
7
  6
CONTINUOUS
 10
-107.8964183658
 20
538.2602496187
 11
-107.8964183658
 21
547.2602496187
  0
LINE
  5
33E
100
AcDbEntity
  8
0
100
AcDbLine
 62
7
  6
CONTINUOUS
 10
-107.8964183658
 20
550.9602496187
 11
-107.8964183658
 21
559.9602496187
  0
LINE
  5
33F
100
AcDbEntity
  8
0
100
AcDbLine
 62
7
  6
CONTINUOUS
 10
-107.8964183658
 20
566.8352496187
 11
-107.8964183658
 21
575.8352496187
  0
LINE
  5
340
100
AcDbEntity
  8
0
100
AcDbLine
 62
7
  6
CONTINUOUS
 10
-107.8964183658
 20
582.7102496187
 11
-107.8964183658
 21
591.7102496187
  0
LINE
  5
341
100
AcDbEntity
  8
0
100
AcDbLine
 62
7
  6
CONTINUOUS
 10
-107.8964183658
 20
595.4102496187
 11
-107.8964183658
 21
604.4102496187
  0
LINE
  5
342
100
AcDbEntity
  8
0
100
AcDbLine
 62
7
  6
CONTINUOUS
 10
-107.8964183658
 20
611.2852496187
 11
-107.8964183658
 21
620.2852496187
  0
LINE
  5
343
100
AcDbEntity
  8
0
100
AcDbLine
 62
7
  6
CONTINUOUS
 10
-107.8964183658
 20
627.1602496187
 11
-107.8964183658
 21
636.1602496187
  0
LINE
  5
344
100
AcDbEntity
  8
0
100
AcDbLine
 62
7
  6
CONTINUOUS
 10
-107.8964183658
 20
639.8602496187
 11
-107.8964183658
 21
648.8602496187
  0
LINE
  5
345
100
AcDbEntity
  8
0
100
AcDbLine
 62
7
  6
CONTINUOUS
 10
-107.8964183658
 20
655.7352496187
 11
-107.8964183658
 21
664.7352496187
  0
LINE
  5
346
100
AcDbEntity
  8
0
100
AcDbLine
 62
7
  6
CONTINUOUS
 10
-107.8964183658
 20
671.6102496187
 11
-107.8964183658
 21
680.6102496187
  0
LINE
  5
347
100
AcDbEntity
  8
0
100
AcDbLine
 62
7
  6
CONTINUOUS
 10
-107.8964183658
 20
684.3102496187
 11
-107.8964183658
 21
693.3102496187
  0
LINE
  5
348
100
AcDbEntity
  8
0
100
AcDbLine
 62
7
  6
CONTINUOUS
 10
-107.8964183658
 20
700.1852496187
 11
-107.8964183658
 21
709.1852496187
  0
LINE
  5
349
100
AcDbEntity
  8
0
100
AcDbLine
 62
7
  6
CONTINUOUS
 10
-107.8964183658
 20
716.0602496187
 11
-107.8964183658
 21
725.0602496187
  0
LINE
  5
34A
100
AcDbEntity
  8
0
100
AcDbLine
 62
7
  6
CONTINUOUS
 10
-107.8964183658
 20
728.7602496187
 11
-107.8964183658
 21
737.7602496187
  0
LINE
  5
34B
100
AcDbEntity
  8
0
100
AcDbLine
 62
7
  6
CONTINUOUS
 10
-107.8964183658
 20
744.6352496187
 11
-107.8964183658
 21
753.6352496187
  0
LINE
  5
34C
100
AcDbEntity
  8
0
100
AcDbLine
 62
7
  6
CONTINUOUS
 10
-107.8964183658
 20
760.5102496187
 11
-107.8964183658
 21
769.5102496187
  0
LINE
  5
34D
100
AcDbEntity
  8
0
100
AcDbLine
 62
7
  6
CONTINUOUS
 10
-107.8964183658
 20
773.2102496187
 11
-107.8964183658
 21
782.2102496187
  0
LINE
  5
34E
100
AcDbEntity
  8
0
100
AcDbLine
 62
7
  6
CONTINUOUS
 10
-107.8964183658
 20
789.0852496187
 11
-107.8964183658
 21
798.0852496187
  0
LINE
  5
34F
100
AcDbEntity
  8
0
100
AcDbLine
 62
7
  6
CONTINUOUS
 10
-107.8964183658
 20
804.9602496187
 11
-107.8964183658
 21
813.9602496187
  0
LINE
  5
350
100
AcDbEntity
  8
0
100
AcDbLine
 62
7
  6
CONTINUOUS
 10
-107.8964183658
 20
817.6602496187
 11
-107.8964183658
 21
826.6602496187
  0
LINE
  5
351
100
AcDbEntity
  8
0
100
AcDbLine
 62
7
  6
CONTINUOUS
 10
-107.8964183658
 20
833.5352496187
 11
-107.8964183658
 21
842.5352496187
  0
LINE
  5
352
100
AcDbEntity
  8
0
100
AcDbLine
 62
7
  6
CONTINUOUS
 10
-107.8964183658
 20
849.4102496187
 11
-107.8964183658
 21
858.4102496187
  0
LINE
  5
353
100
AcDbEntity
  8
0
100
AcDbLine
 62
7
  6
CONTINUOUS
 10
-107.8964183658
 20
862.1102496187
 11
-107.8964183658
 21
871.1102496187
  0
LINE
  5
354
100
AcDbEntity
  8
0
100
AcDbLine
 62
7
  6
CONTINUOUS
 10
-107.8964183658
 20
877.9852496187
 11
-107.8964183658
 21
886.9852496187
  0
LINE
  5
355
100
AcDbEntity
  8
0
100
AcDbLine
 62
7
  6
CONTINUOUS
 10
-98.8964183658
 20
886.9852496187
 11
-98.8964183658
 21
877.9852496187
  0
LINE
  5
356
100
AcDbEntity
  8
0
100
AcDbLine
 62
7
  6
CONTINUOUS
 10
-98.8964183658
 20
871.1102496187
 11
-98.8964183658
 21
862.1102496187
  0
LINE
  5
357
100
AcDbEntity
  8
0
100
AcDbLine
 62
7
  6
CONTINUOUS
 10
-98.8964183658
 20
858.4102496187
 11
-98.8964183658
 21
849.4102496187
  0
LINE
  5
358
100
AcDbEntity
  8
0
100
AcDbLine
 62
7
  6
CONTINUOUS
 10
-98.8964183658
 20
842.5352496187
 11
-98.8964183658
 21
833.5352496187
  0
LINE
  5
359
100
AcDbEntity
  8
0
100
AcDbLine
 62
7
  6
CONTINUOUS
 10
-98.8964183658
 20
826.6602496187
 11
-98.8964183658
 21
817.6602496187
  0
LINE
  5
35A
100
AcDbEntity
  8
0
100
AcDbLine
 62
7
  6
CONTINUOUS
 10
-98.8964183658
 20
813.9602496187
 11
-98.8964183658
 21
804.9602496187
  0
LINE
  5
35B
100
AcDbEntity
  8
0
100
AcDbLine
 62
7
  6
CONTINUOUS
 10
-98.8964183658
 20
798.0852496187
 11
-98.8964183658
 21
789.0852496187
  0
LINE
  5
35C
100
AcDbEntity
  8
0
100
AcDbLine
 62
7
  6
CONTINUOUS
 10
-98.8964183658
 20
782.2102496187
 11
-98.8964183658
 21
773.2102496187
  0
LINE
  5
35D
100
AcDbEntity
  8
0
100
AcDbLine
 62
7
  6
CONTINUOUS
 10
-98.8964183658
 20
769.5102496187
 11
-98.8964183658
 21
760.5102496187
  0
LINE
  5
35E
100
AcDbEntity
  8
0
100
AcDbLine
 62
7
  6
CONTINUOUS
 10
-98.8964183658
 20
753.6352496187
 11
-98.8964183658
 21
744.6352496187
  0
LINE
  5
35F
100
AcDbEntity
  8
0
100
AcDbLine
 62
7
  6
CONTINUOUS
 10
-98.8964183658
 20
737.7602496187
 11
-98.8964183658
 21
728.7602496187
  0
LINE
  5
360
100
AcDbEntity
  8
0
100
AcDbLine
 62
7
  6
CONTINUOUS
 10
-98.8964183658
 20
725.0602496187
 11
-98.8964183658
 21
716.0602496187
  0
LINE
  5
361
100
AcDbEntity
  8
0
100
AcDbLine
 62
7
  6
CONTINUOUS
 10
-98.8964183658
 20
709.1852496187
 11
-98.8964183658
 21
700.1852496187
  0
LINE
  5
362
100
AcDbEntity
  8
0
100
AcDbLine
 62
7
  6
CONTINUOUS
 10
-98.8964183658
 20
693.3102496187
 11
-98.8964183658
 21
684.3102496187
  0
LINE
  5
363
100
AcDbEntity
  8
0
100
AcDbLine
 62
7
  6
CONTINUOUS
 10
-98.8964183658
 20
680.6102496187
 11
-98.8964183658
 21
671.6102496187
  0
LINE
  5
364
100
AcDbEntity
  8
0
100
AcDbLine
 62
7
  6
CONTINUOUS
 10
-98.8964183658
 20
664.7352496187
 11
-98.8964183658
 21
655.7352496187
  0
LINE
  5
365
100
AcDbEntity
  8
0
100
AcDbLine
 62
7
  6
CONTINUOUS
 10
-98.8964183658
 20
648.8602496187
 11
-98.8964183658
 21
639.8602496187
  0
LINE
  5
366
100
AcDbEntity
  8
0
100
AcDbLine
 62
7
  6
CONTINUOUS
 10
-98.8964183658
 20
636.1602496187
 11
-98.8964183658
 21
627.1602496187
  0
LINE
  5
367
100
AcDbEntity
  8
0
100
AcDbLine
 62
7
  6
CONTINUOUS
 10
-98.8964183658
 20
620.2852496187
 11
-98.8964183658
 21
611.2852496187
  0
LINE
  5
368
100
AcDbEntity
  8
0
100
AcDbLine
 62
7
  6
CONTINUOUS
 10
-98.8964183658
 20
604.4102496187
 11
-98.8964183658
 21
595.4102496187
  0
LINE
  5
369
100
AcDbEntity
  8
0
100
AcDbLine
 62
7
  6
CONTINUOUS
 10
-98.8964183658
 20
591.7102496187
 11
-98.8964183658
 21
582.7102496187
  0
LINE
  5
36A
100
AcDbEntity
  8
0
100
AcDbLine
 62
7
  6
CONTINUOUS
 10
-98.8964183658
 20
575.8352496187
 11
-98.8964183658
 21
566.8352496187
  0
LINE
  5
36B
100
AcDbEntity
  8
0
100
AcDbLine
 62
7
  6
CONTINUOUS
 10
-98.8964183658
 20
559.9602496187
 11
-98.8964183658
 21
550.9602496187
  0
LINE
  5
36C
100
AcDbEntity
  8
0
100
AcDbLine
 62
7
  6
CONTINUOUS
 10
-98.8964183658
 20
547.2602496187
 11
-98.8964183658
 21
538.2602496187
  0
LINE
  5
36D
100
AcDbEntity
  8
0
100
AcDbLine
 62
7
  6
CONTINUOUS
 10
-98.8964183658
 20
531.3852496187
 11
-98.8964183658
 21
522.3852496187
  0
LINE
  5
36E
100
AcDbEntity
  8
0
100
AcDbLine
 62
7
  6
CONTINUOUS
 10
-98.8964183658
 20
515.5102496187
 11
-98.8964183658
 21
506.5102496187
  0
LINE
  5
36F
100
AcDbEntity
  8
0
100
AcDbLine
 62
7
  6
CONTINUOUS
 10
-98.8964183658
 20
502.8102496187
 11
-98.8964183658
 21
493.8102496187
  0
LINE
  5
370
100
AcDbEntity
  8
0
100
AcDbLine
 62
7
  6
CONTINUOUS
 10
-98.8964183658
 20
486.9352496187
 11
-98.8964183658
 21
477.9352496187
  0
LINE
  5
371
100
AcDbEntity
  8
0
100
AcDbLine
 62
7
  6
CONTINUOUS
 10
-98.8964183658
 20
471.0602496187
 11
-98.8964183658
 21
462.0602496187
  0
LINE
  5
372
100
AcDbEntity
  8
0
100
AcDbLine
 62
7
  6
CONTINUOUS
 10
-98.8964183658
 20
458.3602496187
 11
-98.8964183658
 21
449.3602496187
  0
LINE
  5
373
100
AcDbEntity
  8
0
100
AcDbLine
 62
7
  6
CONTINUOUS
 10
-98.8964183658
 20
442.4852496187
 11
-98.8964183658
 21
433.4852496187
  0
LINE
  5
374
100
AcDbEntity
  8
0
100
AcDbLine
 62
7
  6
CONTINUOUS
 10
-98.8964183658
 20
426.6102496187
 11
-98.8964183658
 21
417.6102496187
  0
LINE
  5
375
100
AcDbEntity
  8
0
100
AcDbLine
 62
7
  6
CONTINUOUS
 10
-98.8964183658
 20
413.9102496187
 11
-98.8964183658
 21
404.9102496187
  0
LINE
  5
376
100
AcDbEntity
  8
0
100
AcDbLine
 62
7
  6
CONTINUOUS
 10
-98.8964183658
 20
398.0352496187
 11
-98.8964183658
 21
389.0352496187
  0
LINE
  5
377
100
AcDbEntity
  8
0
100
AcDbLine
 62
7
  6
CONTINUOUS
 10
-98.8964183658
 20
382.1602496187
 11
-98.8964183658
 21
373.1602496187
  0
LINE
  5
378
100
AcDbEntity
  8
0
100
AcDbLine
 62
7
  6
CONTINUOUS
 10
-98.8964183658
 20
369.4602496187
 11
-98.8964183658
 21
360.4602496187
  0
LINE
  5
379
100
AcDbEntity
  8
0
100
AcDbLine
 62
7
  6
CONTINUOUS
 10
-98.8964183658
 20
353.5852496187
 11
-98.8964183658
 21
344.5852496187
  0
LINE
  5
37A
100
AcDbEntity
  8
0
100
AcDbLine
 62
7
  6
CONTINUOUS
 10
-98.8964183658
 20
337.7102496187
 11
-98.8964183658
 21
328.7102496187
  0
LINE
  5
37B
100
AcDbEntity
  8
0
100
AcDbLine
 62
7
  6
CONTINUOUS
 10
-98.8964183658
 20
325.0102496187
 11
-98.8964183658
 21
316.0102496187
  0
LINE
  5
37C
100
AcDbEntity
  8
0
100
AcDbLine
 62
7
  6
CONTINUOUS
 10
-98.8964183658
 20
309.1352496187
 11
-98.8964183658
 21
300.1352496187
  0
LINE
  5
37D
100
AcDbEntity
  8
0
100
AcDbLine
 62
7
  6
CONTINUOUS
 10
-98.8964183658
 20
293.2602496187
 11
-98.8964183658
 21
284.2602496187
  0
LINE
  5
37E
100
AcDbEntity
  8
0
100
AcDbLine
 62
7
  6
CONTINUOUS
 10
-98.8964183658
 20
280.5602496187
 11
-98.8964183658
 21
271.5602496187
  0
LINE
  5
37F
100
AcDbEntity
  8
0
100
AcDbLine
 62
7
  6
CONTINUOUS
 10
-98.8964183658
 20
264.6852496187
 11
-98.8964183658
 21
255.6852496187
  0
LINE
  5
380
100
AcDbEntity
  8
0
100
AcDbLine
 62
7
  6
CONTINUOUS
 10
-98.8964183658
 20
248.8102496187
 11
-98.8964183658
 21
239.8102496187
  0
LINE
  5
381
100
AcDbEntity
  8
0
100
AcDbLine
 62
7
  6
CONTINUOUS
 10
-98.8964183658
 20
236.1102496187
 11
-98.8964183658
 21
227.1102496187
  0
LINE
  5
382
100
AcDbEntity
  8
0
100
AcDbLine
 62
7
  6
CONTINUOUS
 10
-98.8964183658
 20
220.2352496187
 11
-98.8964183658
 21
211.2352496187
  0
LINE
  5
383
100
AcDbEntity
  8
0
100
AcDbLine
 62
7
  6
CONTINUOUS
 10
-98.8964183658
 20
204.3602496187
 11
-98.8964183658
 21
195.3602496187
  0
LINE
  5
384
100
AcDbEntity
  8
0
100
AcDbLine
 62
7
  6
CONTINUOUS
 10
-98.8964183658
 20
191.6602496187
 11
-98.8964183658
 21
182.6602496187
  0
LINE
  5
385
100
AcDbEntity
  8
0
100
AcDbLine
 62
7
  6
CONTINUOUS
 10
-98.8964183658
 20
175.7852496187
 11
-98.8964183658
 21
166.7852496187
  0
LINE
  5
386
100
AcDbEntity
  8
0
100
AcDbLine
 62
7
  6
CONTINUOUS
 10
-98.8964183658
 20
159.9102496187
 11
-98.8964183658
 21
150.9102496187
  0
LINE
  5
387
100
AcDbEntity
  8
0
100
AcDbLine
 62
7
  6
CONTINUOUS
 10
-98.8964183658
 20
147.2102496187
 11
-98.8964183658
 21
138.2102496187
  0
LINE
  5
388
100
AcDbEntity
  8
0
100
AcDbLine
 62
7
  6
CONTINUOUS
 10
-98.8964183658
 20
131.3352496187
 11
-98.8964183658
 21
122.3352496187
  0
LINE
  5
389
100
AcDbEntity
  8
0
100
AcDbLine
 62
7
  6
CONTINUOUS
 10
-98.8964183658
 20
115.4602496187
 11
-98.8964183658
 21
106.4602496187
  0
LINE
  5
38A
100
AcDbEntity
  8
0
100
AcDbLine
 62
7
  6
CONTINUOUS
 10
-98.8964183658
 20
102.7602496187
 11
-98.8964183658
 21
93.7602496187
  0
LINE
  5
38B
100
AcDbEntity
  8
0
100
AcDbLine
 62
7
  6
CONTINUOUS
 10
-98.8964183658
 20
86.8852496187
 11
-98.8964183658
 21
77.8852496187
  0
LINE
  5
38C
100
AcDbEntity
  8
0
100
AcDbLine
 62
7
  6
CONTINUOUS
 10
-98.8964183658
 20
71.0102496187
 11
-98.8964183658
 21
62.0102496187
  0
LINE
  5
38D
100
AcDbEntity
  8
0
100
AcDbLine
 62
7
  6
CONTINUOUS
 10
-98.8964183658
 20
58.3102496187
 11
-98.8964183658
 21
49.3102496187
  0
LINE
  5
38E
100
AcDbEntity
  8
0
100
AcDbLine
 62
7
  6
CONTINUOUS
 10
-98.8964183658
 20
42.4352496187
 11
-98.8964183658
 21
33.4352496187
  0
LINE
  5
38F
100
AcDbEntity
  8
0
100
AcDbLine
 62
7
  6
CONTINUOUS
 10
-98.8964183658
 20
26.5602496187
 11
-98.8964183658
 21
17.5602496187
  0
LINE
  5
390
100
AcDbEntity
  8
0
100
AcDbLine
 62
7
  6
CONTINUOUS
 10
-98.8964183658
 20
13.8602496187
 11
-98.8964183658
 21
4.8602496187
  0
LINE
  5
391
100
AcDbEntity
  8
0
100
AcDbLine
 62
7
  6
CONTINUOUS
 10
-98.8964183658
 20
-2.0147503813
 11
-98.8964183658
 21
-11.0147503813
  0
LINE
  5
392
100
AcDbEntity
  8
0
100
AcDbLine
 62
7
  6
CONTINUOUS
 10
-98.8964183658
 20
-17.8897503813
 11
-98.8964183658
 21
-26.8897503813
  0
LINE
  5
393
100
AcDbEntity
  8
0
100
AcDbLine
 62
7
  6
CONTINUOUS
 10
-98.8964183658
 20
-30.5897503813
 11
-98.8964183658
 21
-39.5897503813
  0
LINE
  5
394
100
AcDbEntity
  8
0
100
AcDbLine
 62
7
  6
CONTINUOUS
 10
-98.8964183658
 20
-46.4647503813
 11
-98.8964183658
 21
-55.4647503813
  0
LINE
  5
395
100
AcDbEntity
  8
0
100
AcDbLine
 62
7
  6
CONTINUOUS
 10
-98.8964183658
 20
-62.3397503813
 11
-98.8964183658
 21
-71.3397503813
  0
LINE
  5
396
100
AcDbEntity
  8
0
100
AcDbLine
 62
7
  6
CONTINUOUS
 10
-98.8964183658
 20
-75.0397503813
 11
-98.8964183658
 21
-84.0397503813
  0
LINE
  5
397
100
AcDbEntity
  8
0
100
AcDbLine
 62
7
  6
CONTINUOUS
 10
-98.8964183658
 20
-90.9147503813
 11
-98.8964183658
 21
-99.9147503813
  0
LINE
  5
398
100
AcDbEntity
  8
0
100
AcDbLine
 62
7
  6
CONTINUOUS
 10
-98.8964183658
 20
-106.7897503813
 11
-98.8964183658
 21
-115.7897503813
  0
LINE
  5
399
100
AcDbEntity
  8
0
100
AcDbLine
 62
7
  6
CONTINUOUS
 10
-98.8964183658
 20
-119.4897503813
 11
-98.8964183658
 21
-128.4897503813
  0
LINE
  5
39A
100
AcDbEntity
  8
0
100
AcDbLine
 62
7
  6
CONTINUOUS
 10
-98.8964183658
 20
-135.3647503813
 11
-98.8964183658
 21
-144.3647503813
  0
LINE
  5
39B
100
AcDbEntity
  8
0
100
AcDbLine
 62
7
  6
CONTINUOUS
 10
-98.8964183658
 20
-151.2397503813
 11
-98.8964183658
 21
-160.2397503813
  0
LINE
  5
39C
100
AcDbEntity
  8
0
100
AcDbLine
 62
7
  6
CONTINUOUS
 10
-98.8964183658
 20
-163.9397503813
 11
-98.8964183658
 21
-172.9397503813
  0
LINE
  5
39D
100
AcDbEntity
  8
0
100
AcDbLine
 62
7
  6
CONTINUOUS
 10
-98.8964183658
 20
-179.8147503813
 11
-98.8964183658
 21
-188.8147503813
  0
LINE
  5
39E
100
AcDbEntity
  8
0
100
AcDbLine
 62
7
  6
CONTINUOUS
 10
-98.8964183658
 20
-195.6897503813
 11
-98.8964183658
 21
-204.6897503813
  0
LINE
  5
39F
100
AcDbEntity
  8
0
100
AcDbLine
 62
7
  6
CONTINUOUS
 10
-98.8964183658
 20
-208.3897503813
 11
-98.8964183658
 21
-217.3897503813
  0
LINE
  5
3A0
100
AcDbEntity
  8
0
100
AcDbLine
 62
7
  6
CONTINUOUS
 10
-98.8964183658
 20
-224.2647503813
 11
-98.8964183658
 21
-233.2647503813
  0
LINE
  5
3A1
100
AcDbEntity
  8
0
100
AcDbLine
 62
7
  6
CONTINUOUS
 10
-98.8964183658
 20
-240.1397503813
 11
-98.8964183658
 21
-249.1397503813
  0
LINE
  5
3A2
100
AcDbEntity
  8
0
100
AcDbLine
 62
7
  6
CONTINUOUS
 10
-98.8964183658
 20
-252.8397503813
 11
-98.8964183658
 21
-261.8397503813
  0
LINE
  5
3A3
100
AcDbEntity
  8
0
100
AcDbLine
 62
7
  6
CONTINUOUS
 10
-98.8964183658
 20
-268.7147503813
 11
-98.8964183658
 21
-277.7147503813
  0
LINE
  5
3A4
100
AcDbEntity
  8
0
100
AcDbLine
 62
7
  6
CONTINUOUS
 10
-98.8964183658
 20
-284.5897503813
 11
-98.8964183658
 21
-293.5897503813
  0
LINE
  5
3A5
100
AcDbEntity
  8
0
100
AcDbLine
 62
7
  6
CONTINUOUS
 10
-98.8964183658
 20
-297.2897503813
 11
-98.8964183658
 21
-306.2897503813
  0
LINE
  5
3A6
100
AcDbEntity
  8
0
100
AcDbLine
 62
7
  6
CONTINUOUS
 10
-98.8964183658
 20
-313.1647503813
 11
-98.8964183658
 21
-322.1647503813
  0
LINE
  5
3A7
100
AcDbEntity
  8
0
100
AcDbLine
 62
7
  6
CONTINUOUS
 10
-98.8964183658
 20
-329.0397503813
 11
-98.8964183658
 21
-338.0397503813
  0
LINE
  5
3A8
100
AcDbEntity
  8
0
100
AcDbLine
 62
7
  6
CONTINUOUS
 10
-98.8964183658
 20
-341.7397503813
 11
-98.8964183658
 21
-350.7397503813
  0
LINE
  5
3A9
100
AcDbEntity
  8
0
100
AcDbLine
 62
7
  6
CONTINUOUS
 10
-98.8964183658
 20
-357.6147503813
 11
-98.8964183658
 21
-366.6147503813
  0
LINE
  5
3AA
100
AcDbEntity
  8
0
100
AcDbLine
 62
7
  6
CONTINUOUS
 10
-98.8964183658
 20
-373.4897503813
 11
-98.8964183658
 21
-382.4897503813
  0
LINE
  5
3AB
100
AcDbEntity
  8
0
100
AcDbLine
 62
7
  6
CONTINUOUS
 10
-98.8964183658
 20
-386.1897503813
 11
-98.8964183658
 21
-395.1897503813
  0
LINE
  5
3AC
100
AcDbEntity
  8
0
100
AcDbLine
 62
7
  6
CONTINUOUS
 10
-98.8964183658
 20
-402.0647503813
 11
-98.8964183658
 21
-411.0647503813
  0
LINE
  5
3AD
100
AcDbEntity
  8
0
100
AcDbLine
 62
7
  6
CONTINUOUS
 10
-98.8964183658
 20
-417.9397503813
 11
-98.8964183658
 21
-426.9397503813
  0
LINE
  5
3AE
100
AcDbEntity
  8
0
100
AcDbLine
 62
7
  6
CONTINUOUS
 10
-98.8964183658
 20
-430.6397503813
 11
-98.8964183658
 21
-439.6397503813
  0
LINE
  5
3AF
100
AcDbEntity
  8
0
100
AcDbLine
 62
7
  6
CONTINUOUS
 10
-98.8964183658
 20
-446.5147503813
 11
-98.8964183658
 21
-455.5147503813
  0
LINE
  5
3B0
100
AcDbEntity
  8
0
100
AcDbLine
 62
7
  6
CONTINUOUS
 10
-98.8964183658
 20
-462.3897503813
 11
-98.8964183658
 21
-471.3897503813
  0
LINE
  5
3B1
100
AcDbEntity
  8
0
100
AcDbLine
 62
7
  6
CONTINUOUS
 10
-98.8964183658
 20
-475.0897503813
 11
-98.8964183658
 21
-484.0897503813
  0
LINE
  5
3B2
100
AcDbEntity
  8
0
100
AcDbLine
 62
7
  6
CONTINUOUS
 10
-98.8964183658
 20
-490.9647503813
 11
-98.8964183658
 21
-499.9647503813
  0
LINE
  5
3B3
100
AcDbEntity
  8
0
100
AcDbLine
 62
7
  6
CONTINUOUS
 10
-98.8964183658
 20
-506.8397503813
 11
-98.8964183658
 21
-515.8397503813
  0
LINE
  5
3B4
100
AcDbEntity
  8
0
100
AcDbLine
 62
7
  6
CONTINUOUS
 10
-98.8964183658
 20
-519.5397503813
 11
-98.8964183658
 21
-528.5397503813
  0
LINE
  5
3B5
100
AcDbEntity
  8
0
100
AcDbLine
 62
7
  6
CONTINUOUS
 10
-98.8964183658
 20
-535.4147503813
 11
-98.8964183658
 21
-544.4147503813
  0
LINE
  5
3B6
100
AcDbEntity
  8
0
100
AcDbLine
 62
7
  6
CONTINUOUS
 10
-98.8964183658
 20
-551.2897503813
 11
-98.8964183658
 21
-560.2897503813
  0
LINE
  5
3B7
100
AcDbEntity
  8
0
100
AcDbLine
 62
7
  6
CONTINUOUS
 10
-98.8964183658
 20
-563.9897503813
 11
-98.8964183658
 21
-572.9897503813
  0
LINE
  5
3B8
100
AcDbEntity
  8
0
100
AcDbLine
 62
7
  6
CONTINUOUS
 10
-98.8964183658
 20
-579.8647503813
 11
-98.8964183658
 21
-588.8647503813
  0
LINE
  5
3B9
100
AcDbEntity
  8
0
100
AcDbLine
 62
7
  6
CONTINUOUS
 10
-98.8964183658
 20
-595.7397503813
 11
-98.8964183658
 21
-604.7397503813
  0
LINE
  5
3BA
100
AcDbEntity
  8
0
100
AcDbLine
 62
7
  6
CONTINUOUS
 10
-98.8964183658
 20
-608.4397503813
 11
-98.8964183658
 21
-617.4397503813
  0
LINE
  5
3BB
100
AcDbEntity
  8
0
100
AcDbLine
 62
7
  6
CONTINUOUS
 10
-98.8964183658
 20
-624.3147503813
 11
-98.8964183658
 21
-633.3147503813
  0
LINE
  5
3BC
100
AcDbEntity
  8
0
100
AcDbLine
 62
7
  6
CONTINUOUS
 10
-98.8964183658
 20
-640.1897503813
 11
-98.8964183658
 21
-649.1897503813
  0
LINE
  5
3BD
100
AcDbEntity
  8
0
100
AcDbLine
 62
7
  6
CONTINUOUS
 10
-98.8964183658
 20
-652.8897503813
 11
-98.8964183658
 21
-661.8897503813
  0
LINE
  5
3BE
100
AcDbEntity
  8
0
100
AcDbLine
 62
7
  6
CONTINUOUS
 10
-98.8964183658
 20
-668.7647503813
 11
-98.8964183658
 21
-677.7647503813
  0
LINE
  5
3BF
100
AcDbEntity
  8
0
100
AcDbLine
 62
7
  6
CONTINUOUS
 10
-98.8964183658
 20
-684.6397503813
 11
-98.8964183658
 21
-693.6397503813
  0
LINE
  5
3C0
100
AcDbEntity
  8
0
100
AcDbLine
 62
7
  6
CONTINUOUS
 10
-98.8964183658
 20
-697.3397503813
 11
-98.8964183658
 21
-706.3397503813
  0
LINE
  5
3C1
100
AcDbEntity
  8
0
100
AcDbLine
 62
7
  6
CONTINUOUS
 10
-98.8964183658
 20
-713.2147503813
 11
-98.8964183658
 21
-722.2147503813
  0
LINE
  5
3C2
100
AcDbEntity
  8
0
100
AcDbLine
 62
7
  6
CONTINUOUS
 10
-98.8964183658
 20
-729.0897503813
 11
-98.8964183658
 21
-738.0897503813
  0
LINE
  5
3C3
100
AcDbEntity
  8
0
100
AcDbLine
 62
7
  6
CONTINUOUS
 10
-98.8964183658
 20
-741.7897503813
 11
-98.8964183658
 21
-750.7897503813
  0
LINE
  5
3C4
100
AcDbEntity
  8
0
100
AcDbLine
 62
7
  6
CONTINUOUS
 10
-98.8964183658
 20
-757.6647503813
 11
-98.8964183658
 21
-766.6647503813
  0
LINE
  5
3C5
100
AcDbEntity
  8
0
100
AcDbLine
 62
7
  6
CONTINUOUS
 10
-98.8964183658
 20
-773.5397503813
 11
-98.8964183658
 21
-782.5397503813
  0
LINE
  5
3C6
100
AcDbEntity
  8
0
100
AcDbLine
 62
7
  6
CONTINUOUS
 10
-98.8964183658
 20
-786.2397503813
 11
-98.8964183658
 21
-795.2397503813
  0
LINE
  5
3C7
100
AcDbEntity
  8
0
100
AcDbLine
 62
7
  6
CONTINUOUS
 10
-98.8964183658
 20
-802.1147503813
 11
-98.8964183658
 21
-811.1147503813
  0
LINE
  5
3C8
100
AcDbEntity
  8
0
100
AcDbLine
 62
7
  6
CONTINUOUS
 10
-98.8964183658
 20
-817.9897503813
 11
-98.8964183658
 21
-826.9897503813
  0
LINE
  5
3C9
100
AcDbEntity
  8
0
100
AcDbLine
 62
7
  6
CONTINUOUS
 10
-98.8964183658
 20
-830.6897503813
 11
-98.8964183658
 21
-839.6897503813
  0
LINE
  5
3CA
100
AcDbEntity
  8
0
100
AcDbLine
 62
7
  6
CONTINUOUS
 10
-98.8964183658
 20
-846.5647503813
 11
-98.8964183658
 21
-855.5647503813
  0
LINE
  5
3CB
100
AcDbEntity
  8
0
100
AcDbLine
 62
7
  6
CONTINUOUS
 10
-98.8964183658
 20
-862.4397503813
 11
-98.8964183658
 21
-871.4397503813
  0
LINE
  5
3CC
100
AcDbEntity
  8
0
100
AcDbLine
 62
7
  6
CONTINUOUS
 10
-98.8964183658
 20
-875.1397503813
 11
-98.8964183658
 21
-884.1397503813
  0
LINE
  5
3CD
100
AcDbEntity
  8
0
100
AcDbLine
 62
7
  6
CONTINUOUS
 10
-98.8964183658
 20
-891.0147503813
 11
-98.8964183658
 21
-900.0147503813
  0
LINE
  5
3CE
100
AcDbEntity
  8
0
100
AcDbLine
 62
7
  6
CONTINUOUS
 10
-98.8964183658
 20
-906.8897503813
 11
-98.8964183658
 21
-915.8897503813
  0
LINE
  5
3CF
100
AcDbEntity
  8
0
100
AcDbLine
 62
7
  6
CONTINUOUS
 10
-98.8964183658
 20
-919.5897503813
 11
-98.8964183658
 21
-928.5897503813
  0
LINE
  5
3D0
100
AcDbEntity
  8
0
100
AcDbLine
 62
7
  6
CONTINUOUS
 10
-98.8964183658
 20
-935.4647503813
 11
-98.8964183658
 21
-944.4647503813
  0
LINE
  5
3D1
100
AcDbEntity
  8
RACCORDO
100
AcDbLine
 62
7
  6
CONTINUOUS
 10
-97.1964183658
 20
-951.6947503813
 11
-97.1964183658
 21
-949.1947503813
  0
LINE
  5
3D2
100
AcDbEntity
  8
RACCORDO
100
AcDbLine
 62
7
  6
CONTINUOUS
 10
-97.1964183658
 20
894.3052496187
 11
-97.1964183658
 21
891.8052496187
  0
LINE
  5
3D3
100
AcDbEntity
  8
0
100
AcDbLine
 62
253
  6
CONTINUOUS
 10
-84.1964183658
 20
896.3052496187
 11
-84.1964183658
 21
-953.6947503813
  0
LINE
  5
3D4
100
AcDbEntity
  8
0
100
AcDbLine
 62
7
  6
CONTINUOUS
 10
-81.6964183658
 20
896.3052496187
 11
-81.6964183658
 21
-953.6947503813
  0
LINE
  5
3D5
100
AcDbEntity
  8
RACCORDO
100
AcDbLine
 62
7
  6
CONTINUOUS
 10
-80.6964183658
 20
922.8052496187
 11
-80.6964183658
 21
896.3052496187
  0
LINE
  5
3D6
100
AcDbEntity
  8
RACCORDO
100
AcDbLine
 62
7
  6
CONTINUOUS
 10
-80.6964183658
 20
-980.1947503813
 11
-80.6964183658
 21
-953.6947503813
  0
LINE
  5
3D7
100
AcDbEntity
  8
0
100
AcDbLine
 62
253
  6
CONTINUOUS
 10
-80.6964183658
 20
896.3052496187
 11
-80.6964183658
 21
-953.6947503813
  0
LINE
  5
3D8
100
AcDbEntity
  8
ASSI
100
AcDbLine
 62
7
  6
CONTINUOUS
 10
-73.6964183658
 20
-973.8947503813
 11
-73.6964183658
 21
-970.4947503813
  0
LINE
  5
3D9
100
AcDbEntity
  8
ASSI
100
AcDbLine
 62
7
  6
CONTINUOUS
 10
-73.6964183658
 20
913.1052496187
 11
-73.6964183658
 21
916.5052496187
  0
LINE
  5
3DA
100
AcDbEntity
  8
ASSI
100
AcDbLine
 62
7
  6
CONTINUOUS
 10
-66.6964183658
 20
916.5052496187
 11
-66.6964183658
 21
913.1052496187
  0
LINE
  5
3DB
100
AcDbEntity
  8
ASSI
100
AcDbLine
 62
7
  6
CONTINUOUS
 10
-66.6964183658
 20
-970.4947503813
 11
-66.6964183658
 21
-973.8947503813
  0
LINE
  5
3DC
100
AcDbEntity
  8
0
100
AcDbLine
 62
7
  6
CONTINUOUS
 10
-56.6964183658
 20
-982.1947503813
 11
-56.6964183658
 21
-979.4947503813
  0
LINE
  5
3DD
100
AcDbEntity
  8
0
100
AcDbLine
 62
7
  6
CONTINUOUS
 10
-56.6964183658
 20
924.8052496187
 11
-56.6964183658
 21
922.1052496187
  0
LINE
  5
3DE
100
AcDbEntity
  8
0
100
AcDbLine
 62
7
  6
CONTINUOUS
 10
-56.6964183658
 20
-887.4447503813
 11
-56.6964183658
 21
-878.4447503813
  0
LINE
  5
3DF
100
AcDbEntity
  8
0
100
AcDbLine
 62
7
  6
CONTINUOUS
 10
-56.6964183658
 20
-844.3947503813
 11
-56.6964183658
 21
-835.3947503813
  0
LINE
  5
3E0
100
AcDbEntity
  8
0
100
AcDbLine
 62
7
  6
CONTINUOUS
 10
-56.6964183658
 20
-801.3447503813
 11
-56.6964183658
 21
-792.3447503813
  0
LINE
  5
3E1
100
AcDbEntity
  8
0
100
AcDbLine
 62
7
  6
CONTINUOUS
 10
-56.6964183658
 20
-758.2947503813
 11
-56.6964183658
 21
-749.2947503813
  0
LINE
  5
3E2
100
AcDbEntity
  8
0
100
AcDbLine
 62
7
  6
CONTINUOUS
 10
-56.6964183658
 20
-715.2447503813
 11
-56.6964183658
 21
-706.2447503813
  0
LINE
  5
3E3
100
AcDbEntity
  8
0
100
AcDbLine
 62
7
  6
CONTINUOUS
 10
-56.6964183658
 20
-672.1947503813
 11
-56.6964183658
 21
-663.1947503813
  0
LINE
  5
3E4
100
AcDbEntity
  8
0
100
AcDbLine
 62
7
  6
CONTINUOUS
 10
-56.6964183658
 20
-629.1447503813
 11
-56.6964183658
 21
-620.1447503813
  0
LINE
  5
3E5
100
AcDbEntity
  8
0
100
AcDbLine
 62
7
  6
CONTINUOUS
 10
-56.6964183658
 20
-586.0947503813
 11
-56.6964183658
 21
-577.0947503813
  0
LINE
  5
3E6
100
AcDbEntity
  8
0
100
AcDbLine
 62
7
  6
CONTINUOUS
 10
-56.6964183658
 20
-543.0447503813
 11
-56.6964183658
 21
-534.0447503813
  0
LINE
  5
3E7
100
AcDbEntity
  8
0
100
AcDbLine
 62
7
  6
CONTINUOUS
 10
-56.6964183658
 20
-499.9947503813
 11
-56.6964183658
 21
-490.9947503813
  0
LINE
  5
3E8
100
AcDbEntity
  8
0
100
AcDbLine
 62
7
  6
CONTINUOUS
 10
-56.6964183658
 20
-456.9447503813
 11
-56.6964183658
 21
-447.9447503813
  0
LINE
  5
3E9
100
AcDbEntity
  8
0
100
AcDbLine
 62
7
  6
CONTINUOUS
 10
-56.6964183658
 20
-413.8947503813
 11
-56.6964183658
 21
-404.8947503813
  0
LINE
  5
3EA
100
AcDbEntity
  8
0
100
AcDbLine
 62
7
  6
CONTINUOUS
 10
-56.6964183658
 20
-370.8447503813
 11
-56.6964183658
 21
-361.8447503813
  0
LINE
  5
3EB
100
AcDbEntity
  8
0
100
AcDbLine
 62
7
  6
CONTINUOUS
 10
-56.6964183658
 20
-327.7947503813
 11
-56.6964183658
 21
-318.7947503813
  0
LINE
  5
3EC
100
AcDbEntity
  8
0
100
AcDbLine
 62
7
  6
CONTINUOUS
 10
-56.6964183658
 20
-284.7447503813
 11
-56.6964183658
 21
-275.7447503813
  0
LINE
  5
3ED
100
AcDbEntity
  8
0
100
AcDbLine
 62
7
  6
CONTINUOUS
 10
-56.6964183658
 20
-241.6947503813
 11
-56.6964183658
 21
-232.6947503813
  0
LINE
  5
3EE
100
AcDbEntity
  8
0
100
AcDbLine
 62
7
  6
CONTINUOUS
 10
-56.6964183658
 20
-198.6447503813
 11
-56.6964183658
 21
-189.6447503813
  0
LINE
  5
3EF
100
AcDbEntity
  8
0
100
AcDbLine
 62
7
  6
CONTINUOUS
 10
-56.6964183658
 20
-155.5947503813
 11
-56.6964183658
 21
-146.5947503813
  0
LINE
  5
3F0
100
AcDbEntity
  8
0
100
AcDbLine
 62
7
  6
CONTINUOUS
 10
-56.6964183658
 20
-112.5447503813
 11
-56.6964183658
 21
-103.5447503813
  0
LINE
  5
3F1
100
AcDbEntity
  8
0
100
AcDbLine
 62
7
  6
CONTINUOUS
 10
-56.6964183658
 20
-69.4947503813
 11
-56.6964183658
 21
-60.4947503813
  0
LINE
  5
3F2
100
AcDbEntity
  8
0
100
AcDbLine
 62
7
  6
CONTINUOUS
 10
-56.6964183658
 20
-26.4447503813
 11
-56.6964183658
 21
-17.4447503813
  0
LINE
  5
3F3
100
AcDbEntity
  8
0
100
AcDbLine
 62
7
  6
CONTINUOUS
 10
-56.6964183658
 20
16.6052496187
 11
-56.6964183658
 21
25.6052496187
  0
LINE
  5
3F4
100
AcDbEntity
  8
0
100
AcDbLine
 62
7
  6
CONTINUOUS
 10
-56.6964183658
 20
59.6552496187
 11
-56.6964183658
 21
68.6552496187
  0
LINE
  5
3F5
100
AcDbEntity
  8
0
100
AcDbLine
 62
7
  6
CONTINUOUS
 10
-56.6964183658
 20
102.7052496187
 11
-56.6964183658
 21
111.7052496187
  0
LINE
  5
3F6
100
AcDbEntity
  8
0
100
AcDbLine
 62
7
  6
CONTINUOUS
 10
-56.6964183658
 20
145.7552496187
 11
-56.6964183658
 21
154.7552496187
  0
LINE
  5
3F7
100
AcDbEntity
  8
0
100
AcDbLine
 62
7
  6
CONTINUOUS
 10
-56.6964183658
 20
188.8052496187
 11
-56.6964183658
 21
197.8052496187
  0
LINE
  5
3F8
100
AcDbEntity
  8
0
100
AcDbLine
 62
7
  6
CONTINUOUS
 10
-56.6964183658
 20
231.8552496187
 11
-56.6964183658
 21
240.8552496187
  0
LINE
  5
3F9
100
AcDbEntity
  8
0
100
AcDbLine
 62
7
  6
CONTINUOUS
 10
-56.6964183658
 20
274.9052496187
 11
-56.6964183658
 21
283.9052496187
  0
LINE
  5
3FA
100
AcDbEntity
  8
0
100
AcDbLine
 62
7
  6
CONTINUOUS
 10
-56.6964183658
 20
317.9552496187
 11
-56.6964183658
 21
326.9552496187
  0
LINE
  5
3FB
100
AcDbEntity
  8
0
100
AcDbLine
 62
7
  6
CONTINUOUS
 10
-56.6964183658
 20
361.0052496187
 11
-56.6964183658
 21
370.0052496187
  0
LINE
  5
3FC
100
AcDbEntity
  8
0
100
AcDbLine
 62
7
  6
CONTINUOUS
 10
-56.6964183658
 20
404.0552496187
 11
-56.6964183658
 21
413.0552496187
  0
LINE
  5
3FD
100
AcDbEntity
  8
0
100
AcDbLine
 62
7
  6
CONTINUOUS
 10
-56.6964183658
 20
447.1052496187
 11
-56.6964183658
 21
456.1052496187
  0
LINE
  5
3FE
100
AcDbEntity
  8
0
100
AcDbLine
 62
7
  6
CONTINUOUS
 10
-56.6964183658
 20
490.1552496187
 11
-56.6964183658
 21
499.1552496187
  0
LINE
  5
3FF
100
AcDbEntity
  8
0
100
AcDbLine
 62
7
  6
CONTINUOUS
 10
-56.6964183658
 20
533.2052496187
 11
-56.6964183658
 21
542.2052496187
  0
LINE
  5
400
100
AcDbEntity
  8
0
100
AcDbLine
 62
7
  6
CONTINUOUS
 10
-56.6964183658
 20
576.2552496187
 11
-56.6964183658
 21
585.2552496187
  0
LINE
  5
401
100
AcDbEntity
  8
0
100
AcDbLine
 62
7
  6
CONTINUOUS
 10
-56.6964183658
 20
619.3052496187
 11
-56.6964183658
 21
628.3052496187
  0
LINE
  5
402
100
AcDbEntity
  8
0
100
AcDbLine
 62
7
  6
CONTINUOUS
 10
-56.6964183658
 20
662.3552496187
 11
-56.6964183658
 21
671.3552496187
  0
LINE
  5
403
100
AcDbEntity
  8
0
100
AcDbLine
 62
7
  6
CONTINUOUS
 10
-56.6964183658
 20
705.4052496187
 11
-56.6964183658
 21
714.4052496187
  0
LINE
  5
404
100
AcDbEntity
  8
0
100
AcDbLine
 62
7
  6
CONTINUOUS
 10
-56.6964183658
 20
748.4552496187
 11
-56.6964183658
 21
757.4552496187
  0
LINE
  5
405
100
AcDbEntity
  8
0
100
AcDbLine
 62
7
  6
CONTINUOUS
 10
-56.6964183658
 20
791.5052496187
 11
-56.6964183658
 21
800.5052496187
  0
LINE
  5
406
100
AcDbEntity
  8
0
100
AcDbLine
 62
7
  6
CONTINUOUS
 10
-56.6964183658
 20
834.5552496187
 11
-56.6964183658
 21
843.5552496187
  0
LINE
  5
407
100
AcDbEntity
  8
0
100
AcDbLine
 62
7
  6
CONTINUOUS
 10
-56.6964183658
 20
877.6052496187
 11
-56.6964183658
 21
886.6052496187
  0
LINE
  5
408
100
AcDbEntity
  8
0
100
AcDbLine
 62
7
  6
CONTINUOUS
 10
-47.6964183658
 20
-982.1947503813
 11
-47.6964183658
 21
-979.4947503813
  0
LINE
  5
409
100
AcDbEntity
  8
0
100
AcDbLine
 62
7
  6
CONTINUOUS
 10
-47.6964183658
 20
924.8052496187
 11
-47.6964183658
 21
922.1052496187
  0
LINE
  5
40A
100
AcDbEntity
  8
0
100
AcDbLine
 62
7
  6
CONTINUOUS
 10
-47.6964183658
 20
886.6052496187
 11
-47.6964183658
 21
877.6052496187
  0
LINE
  5
40B
100
AcDbEntity
  8
0
100
AcDbLine
 62
7
  6
CONTINUOUS
 10
-47.6964183658
 20
843.5552496187
 11
-47.6964183658
 21
834.5552496187
  0
LINE
  5
40C
100
AcDbEntity
  8
0
100
AcDbLine
 62
7
  6
CONTINUOUS
 10
-47.6964183658
 20
800.5052496187
 11
-47.6964183658
 21
791.5052496187
  0
LINE
  5
40D
100
AcDbEntity
  8
0
100
AcDbLine
 62
7
  6
CONTINUOUS
 10
-47.6964183658
 20
757.4552496187
 11
-47.6964183658
 21
748.4552496187
  0
LINE
  5
40E
100
AcDbEntity
  8
0
100
AcDbLine
 62
7
  6
CONTINUOUS
 10
-47.6964183658
 20
714.4052496187
 11
-47.6964183658
 21
705.4052496187
  0
LINE
  5
40F
100
AcDbEntity
  8
0
100
AcDbLine
 62
7
  6
CONTINUOUS
 10
-47.6964183658
 20
671.3552496187
 11
-47.6964183658
 21
662.3552496187
  0
LINE
  5
410
100
AcDbEntity
  8
0
100
AcDbLine
 62
7
  6
CONTINUOUS
 10
-47.6964183658
 20
628.3052496187
 11
-47.6964183658
 21
619.3052496187
  0
LINE
  5
411
100
AcDbEntity
  8
0
100
AcDbLine
 62
7
  6
CONTINUOUS
 10
-47.6964183658
 20
585.2552496187
 11
-47.6964183658
 21
576.2552496187
  0
LINE
  5
412
100
AcDbEntity
  8
0
100
AcDbLine
 62
7
  6
CONTINUOUS
 10
-47.6964183658
 20
542.2052496187
 11
-47.6964183658
 21
533.2052496187
  0
LINE
  5
413
100
AcDbEntity
  8
0
100
AcDbLine
 62
7
  6
CONTINUOUS
 10
-47.6964183658
 20
499.1552496187
 11
-47.6964183658
 21
490.1552496187
  0
LINE
  5
414
100
AcDbEntity
  8
0
100
AcDbLine
 62
7
  6
CONTINUOUS
 10
-47.6964183658
 20
456.1052496187
 11
-47.6964183658
 21
447.1052496187
  0
LINE
  5
415
100
AcDbEntity
  8
0
100
AcDbLine
 62
7
  6
CONTINUOUS
 10
-47.6964183658
 20
413.0552496187
 11
-47.6964183658
 21
404.0552496187
  0
LINE
  5
416
100
AcDbEntity
  8
0
100
AcDbLine
 62
7
  6
CONTINUOUS
 10
-47.6964183658
 20
370.0052496187
 11
-47.6964183658
 21
361.0052496187
  0
LINE
  5
417
100
AcDbEntity
  8
0
100
AcDbLine
 62
7
  6
CONTINUOUS
 10
-47.6964183658
 20
326.9552496187
 11
-47.6964183658
 21
317.9552496187
  0
LINE
  5
418
100
AcDbEntity
  8
0
100
AcDbLine
 62
7
  6
CONTINUOUS
 10
-47.6964183658
 20
283.9052496187
 11
-47.6964183658
 21
274.9052496187
  0
LINE
  5
419
100
AcDbEntity
  8
0
100
AcDbLine
 62
7
  6
CONTINUOUS
 10
-47.6964183658
 20
240.8552496187
 11
-47.6964183658
 21
231.8552496187
  0
LINE
  5
41A
100
AcDbEntity
  8
0
100
AcDbLine
 62
7
  6
CONTINUOUS
 10
-47.6964183658
 20
197.8052496187
 11
-47.6964183658
 21
188.8052496187
  0
LINE
  5
41B
100
AcDbEntity
  8
0
100
AcDbLine
 62
7
  6
CONTINUOUS
 10
-47.6964183658
 20
154.7552496187
 11
-47.6964183658
 21
145.7552496187
  0
LINE
  5
41C
100
AcDbEntity
  8
0
100
AcDbLine
 62
7
  6
CONTINUOUS
 10
-47.6964183658
 20
111.7052496187
 11
-47.6964183658
 21
102.7052496187
  0
LINE
  5
41D
100
AcDbEntity
  8
0
100
AcDbLine
 62
7
  6
CONTINUOUS
 10
-47.6964183658
 20
68.6552496187
 11
-47.6964183658
 21
59.6552496187
  0
LINE
  5
41E
100
AcDbEntity
  8
0
100
AcDbLine
 62
7
  6
CONTINUOUS
 10
-47.6964183658
 20
25.6052496187
 11
-47.6964183658
 21
16.6052496187
  0
LINE
  5
41F
100
AcDbEntity
  8
0
100
AcDbLine
 62
7
  6
CONTINUOUS
 10
-47.6964183658
 20
-17.4447503813
 11
-47.6964183658
 21
-26.4447503813
  0
LINE
  5
420
100
AcDbEntity
  8
0
100
AcDbLine
 62
7
  6
CONTINUOUS
 10
-47.6964183658
 20
-60.4947503813
 11
-47.6964183658
 21
-69.4947503813
  0
LINE
  5
421
100
AcDbEntity
  8
0
100
AcDbLine
 62
7
  6
CONTINUOUS
 10
-47.6964183658
 20
-103.5447503813
 11
-47.6964183658
 21
-112.5447503813
  0
LINE
  5
422
100
AcDbEntity
  8
0
100
AcDbLine
 62
7
  6
CONTINUOUS
 10
-47.6964183658
 20
-146.5947503813
 11
-47.6964183658
 21
-155.5947503813
  0
LINE
  5
423
100
AcDbEntity
  8
0
100
AcDbLine
 62
7
  6
CONTINUOUS
 10
-47.6964183658
 20
-189.6447503813
 11
-47.6964183658
 21
-198.6447503813
  0
LINE
  5
424
100
AcDbEntity
  8
0
100
AcDbLine
 62
7
  6
CONTINUOUS
 10
-47.6964183658
 20
-232.6947503813
 11
-47.6964183658
 21
-241.6947503813
  0
LINE
  5
425
100
AcDbEntity
  8
0
100
AcDbLine
 62
7
  6
CONTINUOUS
 10
-47.6964183658
 20
-275.7447503813
 11
-47.6964183658
 21
-284.7447503813
  0
LINE
  5
426
100
AcDbEntity
  8
0
100
AcDbLine
 62
7
  6
CONTINUOUS
 10
-47.6964183658
 20
-318.7947503813
 11
-47.6964183658
 21
-327.7947503813
  0
LINE
  5
427
100
AcDbEntity
  8
0
100
AcDbLine
 62
7
  6
CONTINUOUS
 10
-47.6964183658
 20
-361.8447503813
 11
-47.6964183658
 21
-370.8447503813
  0
LINE
  5
428
100
AcDbEntity
  8
0
100
AcDbLine
 62
7
  6
CONTINUOUS
 10
-47.6964183658
 20
-404.8947503813
 11
-47.6964183658
 21
-413.8947503813
  0
LINE
  5
429
100
AcDbEntity
  8
0
100
AcDbLine
 62
7
  6
CONTINUOUS
 10
-47.6964183658
 20
-447.9447503813
 11
-47.6964183658
 21
-456.9447503813
  0
LINE
  5
42A
100
AcDbEntity
  8
0
100
AcDbLine
 62
7
  6
CONTINUOUS
 10
-47.6964183658
 20
-490.9947503813
 11
-47.6964183658
 21
-499.9947503813
  0
LINE
  5
42B
100
AcDbEntity
  8
0
100
AcDbLine
 62
7
  6
CONTINUOUS
 10
-47.6964183658
 20
-534.0447503813
 11
-47.6964183658
 21
-543.0447503813
  0
LINE
  5
42C
100
AcDbEntity
  8
0
100
AcDbLine
 62
7
  6
CONTINUOUS
 10
-47.6964183658
 20
-577.0947503813
 11
-47.6964183658
 21
-586.0947503813
  0
LINE
  5
42D
100
AcDbEntity
  8
0
100
AcDbLine
 62
7
  6
CONTINUOUS
 10
-47.6964183658
 20
-620.1447503813
 11
-47.6964183658
 21
-629.1447503813
  0
LINE
  5
42E
100
AcDbEntity
  8
0
100
AcDbLine
 62
7
  6
CONTINUOUS
 10
-47.6964183658
 20
-663.1947503813
 11
-47.6964183658
 21
-672.1947503813
  0
LINE
  5
42F
100
AcDbEntity
  8
0
100
AcDbLine
 62
7
  6
CONTINUOUS
 10
-47.6964183658
 20
-706.2447503813
 11
-47.6964183658
 21
-715.2447503813
  0
LINE
  5
430
100
AcDbEntity
  8
0
100
AcDbLine
 62
7
  6
CONTINUOUS
 10
-47.6964183658
 20
-749.2947503813
 11
-47.6964183658
 21
-758.2947503813
  0
LINE
  5
431
100
AcDbEntity
  8
0
100
AcDbLine
 62
7
  6
CONTINUOUS
 10
-47.6964183658
 20
-792.3447503813
 11
-47.6964183658
 21
-801.3447503813
  0
LINE
  5
432
100
AcDbEntity
  8
0
100
AcDbLine
 62
7
  6
CONTINUOUS
 10
-47.6964183658
 20
-835.3947503813
 11
-47.6964183658
 21
-844.3947503813
  0
LINE
  5
433
100
AcDbEntity
  8
0
100
AcDbLine
 62
7
  6
CONTINUOUS
 10
-47.6964183658
 20
-878.4447503813
 11
-47.6964183658
 21
-887.4447503813
  0
LINE
  5
434
100
AcDbEntity
  8
0
100
AcDbLine
 62
7
  6
CONTINUOUS
 10
-107.8964183658
 20
-75.0397503813
 11
-98.8964183658
 21
-75.0397503813
  0
LINE
  5
435
100
AcDbEntity
  8
0
100
AcDbLine
 62
7
  6
CONTINUOUS
 10
-98.8964183658
 20
-71.3397503813
 11
-107.8964183658
 21
-71.3397503813
  0
LINE
  5
436
100
AcDbEntity
  8
0
100
AcDbLine
 62
7
  6
CONTINUOUS
 10
-47.6964183658
 20
-69.4947503813
 11
-56.6964183658
 21
-69.4947503813
  0
LINE
  5
437
100
AcDbEntity
  8
0
100
AcDbLine
 62
7
  6
CONTINUOUS
 10
-107.8964183658
 20
-62.3397503813
 11
-98.8964183658
 21
-62.3397503813
  0
LINE
  5
438
100
AcDbEntity
  8
0
100
AcDbLine
 62
7
  6
CONTINUOUS
 10
-47.6964183658
 20
-60.4947503813
 11
-56.6964183658
 21
-60.4947503813
  0
LINE
  5
439
100
AcDbEntity
  8
0
100
AcDbLine
 62
7
  6
CONTINUOUS
 10
-98.8964183658
 20
-55.4647503813
 11
-107.8964183658
 21
-55.4647503813
  0
LINE
  5
43A
100
AcDbEntity
  8
0
100
AcDbLine
 62
7
  6
CONTINUOUS
 10
-107.8964183658
 20
-46.4647503813
 11
-98.8964183658
 21
-46.4647503813
  0
LINE
  5
43B
100
AcDbEntity
  8
0
100
AcDbLine
 62
7
  6
CONTINUOUS
 10
-98.8964183658
 20
-39.5897503813
 11
-107.8964183658
 21
-39.5897503813
  0
LINE
  5
43C
100
AcDbEntity
  8
0
100
AcDbLine
 62
7
  6
CONTINUOUS
 10
-107.8964183658
 20
-30.5897503813
 11
-98.8964183658
 21
-30.5897503813
  0
LINE
  5
43D
100
AcDbEntity
  8
0
100
AcDbLine
 62
7
  6
CONTINUOUS
 10
-98.8964183658
 20
-26.8897503813
 11
-107.8964183658
 21
-26.8897503813
  0
LINE
  5
43E
100
AcDbEntity
  8
0
100
AcDbLine
 62
7
  6
CONTINUOUS
 10
-47.6964183658
 20
-26.4447503813
 11
-56.6964183658
 21
-26.4447503813
  0
LINE
  5
43F
100
AcDbEntity
  8
ASSI
100
AcDbLine
 62
7
  6
CONTINUOUS
 10
-20.6964183658
 20
-973.8947503813
 11
-20.6964183658
 21
-970.4947503813
  0
LINE
  5
440
100
AcDbEntity
  8
ASSI
100
AcDbLine
 62
7
  6
CONTINUOUS
 10
-20.6964183658
 20
913.1052496187
 11
-20.6964183658
 21
916.5052496187
  0
LINE
  5
441
100
AcDbEntity
  8
ASSI
100
AcDbLine
 62
7
  6
CONTINUOUS
 10
-13.6964183658
 20
916.5052496187
 11
-13.6964183658
 21
913.1052496187
  0
LINE
  5
442
100
AcDbEntity
  8
ASSI
100
AcDbLine
 62
7
  6
CONTINUOUS
 10
-13.6964183658
 20
-970.4947503813
 11
-13.6964183658
 21
-973.8947503813
  0
LINE
  5
443
100
AcDbEntity
  8
RACCORDO
100
AcDbLine
 62
7
  6
CONTINUOUS
 10
-6.6964183658
 20
-980.1947503813
 11
-6.6964183658
 21
-961.1947503813
  0
LINE
  5
444
100
AcDbEntity
  8
0
100
AcDbLine
 62
253
  6
CONTINUOUS
 10
-6.6964183658
 20
903.8052496187
 11
-6.6964183658
 21
-961.1947503813
  0
LINE
  5
445
100
AcDbEntity
  8
RACCORDO
100
AcDbLine
 62
7
  6
CONTINUOUS
 10
-6.6964183658
 20
903.8052496187
 11
-6.6964183658
 21
922.8052496187
  0
LINE
  5
446
100
AcDbEntity
  8
0
100
AcDbLine
 62
7
  6
CONTINUOUS
 10
-1.6964183658
 20
903.8052496187
 11
-1.6964183658
 21
-961.1947503813
  0
LINE
  5
447
100
AcDbEntity
  8
0
100
AcDbLine
 62
7
  6
CONTINUOUS
 10
-107.8964183658
 20
-17.8897503813
 11
-98.8964183658
 21
-17.8897503813
  0
LINE
  5
448
100
AcDbEntity
  8
0
100
AcDbLine
 62
7
  6
CONTINUOUS
 10
-47.6964183658
 20
-17.4447503813
 11
-56.6964183658
 21
-17.4447503813
  0
LINE
  5
449
100
AcDbEntity
  8
0
100
AcDbLine
 62
7
  6
CONTINUOUS
 10
-98.8964183658
 20
-11.0147503813
 11
-107.8964183658
 21
-11.0147503813
  0
LINE
  5
44A
100
AcDbEntity
  8
0
100
AcDbLine
 62
7
  6
CONTINUOUS
 10
-107.8964183658
 20
-2.0147503813
 11
-98.8964183658
 21
-2.0147503813
  0
LINE
  5
44B
100
AcDbEntity
  8
0
100
AcDbLine
 62
7
  6
CONTINUOUS
 10
-98.8964183658
 20
4.8602496187
 11
-107.8964183658
 21
4.8602496187
  0
LINE
  5
44C
100
AcDbEntity
  8
0
100
AcDbLine
 62
7
  6
CONTINUOUS
 10
-107.8964183658
 20
13.8602496187
 11
-98.8964183658
 21
13.8602496187
  0
LINE
  5
44D
100
AcDbEntity
  8
0
100
AcDbLine
 62
7
  6
CONTINUOUS
 10
-47.6964183658
 20
16.6052496187
 11
-56.6964183658
 21
16.6052496187
  0
LINE
  5
44E
100
AcDbEntity
  8
0
100
AcDbLine
 62
7
  6
CONTINUOUS
 10
-98.8964183658
 20
17.5602496187
 11
-107.8964183658
 21
17.5602496187
  0
LINE
  5
44F
100
AcDbEntity
  8
0
100
AcDbLine
 62
7
  6
CONTINUOUS
 10
-47.6964183658
 20
25.6052496187
 11
-56.6964183658
 21
25.6052496187
  0
LINE
  5
450
100
AcDbEntity
  8
0
100
AcDbLine
 62
7
  6
CONTINUOUS
 10
-107.8964183658
 20
26.5602496187
 11
-98.8964183658
 21
26.5602496187
  0
LINE
  5
451
100
AcDbEntity
  8
0
100
AcDbLine
 62
7
  6
CONTINUOUS
 10
-98.8964183658
 20
33.4352496187
 11
-107.8964183658
 21
33.4352496187
  0
LINE
  5
452
100
AcDbEntity
  8
0
100
AcDbLine
 62
7
  6
CONTINUOUS
 10
-107.8964183658
 20
42.4352496187
 11
-98.8964183658
 21
42.4352496187
  0
LINE
  5
453
100
AcDbEntity
  8
0
100
AcDbLine
 62
7
  6
CONTINUOUS
 10
-98.8964183658
 20
49.3102496187
 11
-107.8964183658
 21
49.3102496187
  0
LINE
  5
454
100
AcDbEntity
  8
0
100
AcDbLine
 62
7
  6
CONTINUOUS
 10
-107.8964183658
 20
58.3102496187
 11
-98.8964183658
 21
58.3102496187
  0
LINE
  5
455
100
AcDbEntity
  8
0
100
AcDbLine
 62
7
  6
CONTINUOUS
 10
-47.6964183658
 20
59.6552496187
 11
-56.6964183658
 21
59.6552496187
  0
LINE
  5
456
100
AcDbEntity
  8
0
100
AcDbLine
 62
7
  6
CONTINUOUS
 10
-98.8964183658
 20
62.0102496187
 11
-107.8964183658
 21
62.0102496187
  0
LINE
  5
457
100
AcDbEntity
  8
0
100
AcDbLine
 62
7
  6
CONTINUOUS
 10
-47.6964183658
 20
68.6552496187
 11
-56.6964183658
 21
68.6552496187
  0
LINE
  5
458
100
AcDbEntity
  8
0
100
AcDbLine
 62
7
  6
CONTINUOUS
 10
-107.8964183658
 20
71.0102496187
 11
-98.8964183658
 21
71.0102496187
  0
LINE
  5
459
100
AcDbEntity
  8
0
100
AcDbLine
 62
7
  6
CONTINUOUS
 10
-98.8964183658
 20
77.8852496187
 11
-107.8964183658
 21
77.8852496187
  0
LINE
  5
45A
100
AcDbEntity
  8
0
100
AcDbLine
 62
7
  6
CONTINUOUS
 10
-107.8964183658
 20
86.8852496187
 11
-98.8964183658
 21
86.8852496187
  0
LINE
  5
45B
100
AcDbEntity
  8
0
100
AcDbLine
 62
7
  6
CONTINUOUS
 10
-98.8964183658
 20
93.7602496187
 11
-107.8964183658
 21
93.7602496187
  0
LINE
  5
45C
100
AcDbEntity
  8
0
100
AcDbLine
 62
7
  6
CONTINUOUS
 10
-47.6964183658
 20
102.7052496187
 11
-56.6964183658
 21
102.7052496187
  0
LINE
  5
45D
100
AcDbEntity
  8
0
100
AcDbLine
 62
7
  6
CONTINUOUS
 10
-107.8964183658
 20
102.7602496187
 11
-98.8964183658
 21
102.7602496187
  0
LINE
  5
45E
100
AcDbEntity
  8
0
100
AcDbLine
 62
7
  6
CONTINUOUS
 10
-98.8964183658
 20
106.4602496187
 11
-107.8964183658
 21
106.4602496187
  0
LINE
  5
45F
100
AcDbEntity
  8
0
100
AcDbLine
 62
7
  6
CONTINUOUS
 10
-47.6964183658
 20
111.7052496187
 11
-56.6964183658
 21
111.7052496187
  0
LINE
  5
460
100
AcDbEntity
  8
0
100
AcDbLine
 62
7
  6
CONTINUOUS
 10
-107.8964183658
 20
115.4602496187
 11
-98.8964183658
 21
115.4602496187
  0
LINE
  5
461
100
AcDbEntity
  8
0
100
AcDbLine
 62
7
  6
CONTINUOUS
 10
-98.8964183658
 20
122.3352496187
 11
-107.8964183658
 21
122.3352496187
  0
LINE
  5
462
100
AcDbEntity
  8
0
100
AcDbLine
 62
7
  6
CONTINUOUS
 10
-107.8964183658
 20
131.3352496187
 11
-98.8964183658
 21
131.3352496187
  0
LINE
  5
463
100
AcDbEntity
  8
0
100
AcDbLine
 62
7
  6
CONTINUOUS
 10
-98.8964183658
 20
138.2102496187
 11
-107.8964183658
 21
138.2102496187
  0
LINE
  5
464
100
AcDbEntity
  8
0
100
AcDbLine
 62
7
  6
CONTINUOUS
 10
-47.6964183658
 20
145.7552496187
 11
-56.6964183658
 21
145.7552496187
  0
LINE
  5
465
100
AcDbEntity
  8
0
100
AcDbLine
 62
7
  6
CONTINUOUS
 10
-107.8964183658
 20
147.2102496187
 11
-98.8964183658
 21
147.2102496187
  0
LINE
  5
466
100
AcDbEntity
  8
0
100
AcDbLine
 62
7
  6
CONTINUOUS
 10
-98.8964183658
 20
150.9102496187
 11
-107.8964183658
 21
150.9102496187
  0
LINE
  5
467
100
AcDbEntity
  8
0
100
AcDbLine
 62
7
  6
CONTINUOUS
 10
-47.6964183658
 20
154.7552496187
 11
-56.6964183658
 21
154.7552496187
  0
LINE
  5
468
100
AcDbEntity
  8
0
100
AcDbLine
 62
7
  6
CONTINUOUS
 10
-107.8964183658
 20
159.9102496187
 11
-98.8964183658
 21
159.9102496187
  0
LINE
  5
469
100
AcDbEntity
  8
0
100
AcDbLine
 62
7
  6
CONTINUOUS
 10
-98.8964183658
 20
166.7852496187
 11
-107.8964183658
 21
166.7852496187
  0
LINE
  5
46A
100
AcDbEntity
  8
0
100
AcDbLine
 62
7
  6
CONTINUOUS
 10
-107.8964183658
 20
175.7852496187
 11
-98.8964183658
 21
175.7852496187
  0
LINE
  5
46B
100
AcDbEntity
  8
0
100
AcDbLine
 62
7
  6
CONTINUOUS
 10
-98.8964183658
 20
182.6602496187
 11
-107.8964183658
 21
182.6602496187
  0
LINE
  5
46C
100
AcDbEntity
  8
0
100
AcDbLine
 62
7
  6
CONTINUOUS
 10
-47.6964183658
 20
188.8052496187
 11
-56.6964183658
 21
188.8052496187
  0
LINE
  5
46D
100
AcDbEntity
  8
0
100
AcDbLine
 62
7
  6
CONTINUOUS
 10
-107.8964183658
 20
191.6602496187
 11
-98.8964183658
 21
191.6602496187
  0
LINE
  5
46E
100
AcDbEntity
  8
0
100
AcDbLine
 62
7
  6
CONTINUOUS
 10
-98.8964183658
 20
195.3602496187
 11
-107.8964183658
 21
195.3602496187
  0
LINE
  5
46F
100
AcDbEntity
  8
0
100
AcDbLine
 62
7
  6
CONTINUOUS
 10
-47.6964183658
 20
197.8052496187
 11
-56.6964183658
 21
197.8052496187
  0
LINE
  5
470
100
AcDbEntity
  8
0
100
AcDbLine
 62
7
  6
CONTINUOUS
 10
-107.8964183658
 20
204.3602496187
 11
-98.8964183658
 21
204.3602496187
  0
LINE
  5
471
100
AcDbEntity
  8
0
100
AcDbLine
 62
7
  6
CONTINUOUS
 10
-98.8964183658
 20
211.2352496187
 11
-107.8964183658
 21
211.2352496187
  0
LINE
  5
472
100
AcDbEntity
  8
0
100
AcDbLine
 62
7
  6
CONTINUOUS
 10
-107.8964183658
 20
220.2352496187
 11
-98.8964183658
 21
220.2352496187
  0
LINE
  5
473
100
AcDbEntity
  8
0
100
AcDbLine
 62
7
  6
CONTINUOUS
 10
-98.8964183658
 20
227.1102496187
 11
-107.8964183658
 21
227.1102496187
  0
LINE
  5
474
100
AcDbEntity
  8
0
100
AcDbLine
 62
7
  6
CONTINUOUS
 10
-47.6964183658
 20
231.8552496187
 11
-56.6964183658
 21
231.8552496187
  0
LINE
  5
475
100
AcDbEntity
  8
0
100
AcDbLine
 62
7
  6
CONTINUOUS
 10
-107.8964183658
 20
236.1102496187
 11
-98.8964183658
 21
236.1102496187
  0
LINE
  5
476
100
AcDbEntity
  8
0
100
AcDbLine
 62
7
  6
CONTINUOUS
 10
-98.8964183658
 20
239.8102496187
 11
-107.8964183658
 21
239.8102496187
  0
LINE
  5
477
100
AcDbEntity
  8
0
100
AcDbLine
 62
7
  6
CONTINUOUS
 10
-47.6964183658
 20
240.8552496187
 11
-56.6964183658
 21
240.8552496187
  0
LINE
  5
478
100
AcDbEntity
  8
0
100
AcDbLine
 62
7
  6
CONTINUOUS
 10
-107.8964183658
 20
248.8102496187
 11
-98.8964183658
 21
248.8102496187
  0
LINE
  5
479
100
AcDbEntity
  8
0
100
AcDbLine
 62
7
  6
CONTINUOUS
 10
-98.8964183658
 20
255.6852496187
 11
-107.8964183658
 21
255.6852496187
  0
LINE
  5
47A
100
AcDbEntity
  8
0
100
AcDbLine
 62
7
  6
CONTINUOUS
 10
-107.8964183658
 20
264.6852496187
 11
-98.8964183658
 21
264.6852496187
  0
LINE
  5
47B
100
AcDbEntity
  8
0
100
AcDbLine
 62
7
  6
CONTINUOUS
 10
-98.8964183658
 20
271.5602496187
 11
-107.8964183658
 21
271.5602496187
  0
LINE
  5
47C
100
AcDbEntity
  8
0
100
AcDbLine
 62
7
  6
CONTINUOUS
 10
-47.6964183658
 20
274.9052496187
 11
-56.6964183658
 21
274.9052496187
  0
LINE
  5
47D
100
AcDbEntity
  8
0
100
AcDbLine
 62
7
  6
CONTINUOUS
 10
-107.8964183658
 20
280.5602496187
 11
-98.8964183658
 21
280.5602496187
  0
LINE
  5
47E
100
AcDbEntity
  8
0
100
AcDbLine
 62
7
  6
CONTINUOUS
 10
-47.6964183658
 20
283.9052496187
 11
-56.6964183658
 21
283.9052496187
  0
LINE
  5
47F
100
AcDbEntity
  8
0
100
AcDbLine
 62
7
  6
CONTINUOUS
 10
-98.8964183658
 20
284.2602496187
 11
-107.8964183658
 21
284.2602496187
  0
LINE
  5
480
100
AcDbEntity
  8
0
100
AcDbLine
 62
7
  6
CONTINUOUS
 10
-107.8964183658
 20
293.2602496187
 11
-98.8964183658
 21
293.2602496187
  0
LINE
  5
481
100
AcDbEntity
  8
0
100
AcDbLine
 62
7
  6
CONTINUOUS
 10
-98.8964183658
 20
300.1352496187
 11
-107.8964183658
 21
300.1352496187
  0
LINE
  5
482
100
AcDbEntity
  8
0
100
AcDbLine
 62
7
  6
CONTINUOUS
 10
-107.8964183658
 20
309.1352496187
 11
-98.8964183658
 21
309.1352496187
  0
LINE
  5
483
100
AcDbEntity
  8
0
100
AcDbLine
 62
7
  6
CONTINUOUS
 10
-98.8964183658
 20
316.0102496187
 11
-107.8964183658
 21
316.0102496187
  0
LINE
  5
484
100
AcDbEntity
  8
0
100
AcDbLine
 62
7
  6
CONTINUOUS
 10
-47.6964183658
 20
317.9552496187
 11
-56.6964183658
 21
317.9552496187
  0
LINE
  5
485
100
AcDbEntity
  8
0
100
AcDbLine
 62
7
  6
CONTINUOUS
 10
-107.8964183658
 20
325.0102496187
 11
-98.8964183658
 21
325.0102496187
  0
LINE
  5
486
100
AcDbEntity
  8
0
100
AcDbLine
 62
7
  6
CONTINUOUS
 10
-47.6964183658
 20
326.9552496187
 11
-56.6964183658
 21
326.9552496187
  0
LINE
  5
487
100
AcDbEntity
  8
0
100
AcDbLine
 62
7
  6
CONTINUOUS
 10
-98.8964183658
 20
328.7102496187
 11
-107.8964183658
 21
328.7102496187
  0
LINE
  5
488
100
AcDbEntity
  8
0
100
AcDbLine
 62
7
  6
CONTINUOUS
 10
-107.8964183658
 20
337.7102496187
 11
-98.8964183658
 21
337.7102496187
  0
LINE
  5
489
100
AcDbEntity
  8
0
100
AcDbLine
 62
7
  6
CONTINUOUS
 10
-98.8964183658
 20
344.5852496187
 11
-107.8964183658
 21
344.5852496187
  0
LINE
  5
48A
100
AcDbEntity
  8
0
100
AcDbLine
 62
7
  6
CONTINUOUS
 10
-107.8964183658
 20
353.5852496187
 11
-98.8964183658
 21
353.5852496187
  0
LINE
  5
48B
100
AcDbEntity
  8
0
100
AcDbLine
 62
7
  6
CONTINUOUS
 10
-98.8964183658
 20
360.4602496187
 11
-107.8964183658
 21
360.4602496187
  0
LINE
  5
48C
100
AcDbEntity
  8
0
100
AcDbLine
 62
7
  6
CONTINUOUS
 10
-47.6964183658
 20
361.0052496187
 11
-56.6964183658
 21
361.0052496187
  0
LINE
  5
48D
100
AcDbEntity
  8
0
100
AcDbLine
 62
7
  6
CONTINUOUS
 10
-107.8964183658
 20
369.4602496187
 11
-98.8964183658
 21
369.4602496187
  0
LINE
  5
48E
100
AcDbEntity
  8
0
100
AcDbLine
 62
7
  6
CONTINUOUS
 10
-47.6964183658
 20
370.0052496187
 11
-56.6964183658
 21
370.0052496187
  0
LINE
  5
48F
100
AcDbEntity
  8
0
100
AcDbLine
 62
7
  6
CONTINUOUS
 10
-98.8964183658
 20
373.1602496187
 11
-107.8964183658
 21
373.1602496187
  0
LINE
  5
490
100
AcDbEntity
  8
0
100
AcDbLine
 62
7
  6
CONTINUOUS
 10
-107.8964183658
 20
382.1602496187
 11
-98.8964183658
 21
382.1602496187
  0
LINE
  5
491
100
AcDbEntity
  8
0
100
AcDbLine
 62
7
  6
CONTINUOUS
 10
-98.8964183658
 20
389.0352496187
 11
-107.8964183658
 21
389.0352496187
  0
LINE
  5
492
100
AcDbEntity
  8
0
100
AcDbLine
 62
7
  6
CONTINUOUS
 10
-107.8964183658
 20
398.0352496187
 11
-98.8964183658
 21
398.0352496187
  0
LINE
  5
493
100
AcDbEntity
  8
0
100
AcDbLine
 62
7
  6
CONTINUOUS
 10
-47.6964183658
 20
404.0552496187
 11
-56.6964183658
 21
404.0552496187
  0
LINE
  5
494
100
AcDbEntity
  8
0
100
AcDbLine
 62
7
  6
CONTINUOUS
 10
-98.8964183658
 20
404.9102496187
 11
-107.8964183658
 21
404.9102496187
  0
LINE
  5
495
100
AcDbEntity
  8
0
100
AcDbLine
 62
7
  6
CONTINUOUS
 10
-47.6964183658
 20
413.0552496187
 11
-56.6964183658
 21
413.0552496187
  0
LINE
  5
496
100
AcDbEntity
  8
0
100
AcDbLine
 62
7
  6
CONTINUOUS
 10
-107.8964183658
 20
413.9102496187
 11
-98.8964183658
 21
413.9102496187
  0
LINE
  5
497
100
AcDbEntity
  8
0
100
AcDbLine
 62
7
  6
CONTINUOUS
 10
-98.8964183658
 20
417.6102496187
 11
-107.8964183658
 21
417.6102496187
  0
LINE
  5
498
100
AcDbEntity
  8
0
100
AcDbLine
 62
7
  6
CONTINUOUS
 10
-107.8964183658
 20
426.6102496187
 11
-98.8964183658
 21
426.6102496187
  0
LINE
  5
499
100
AcDbEntity
  8
0
100
AcDbLine
 62
7
  6
CONTINUOUS
 10
-98.8964183658
 20
433.4852496187
 11
-107.8964183658
 21
433.4852496187
  0
LINE
  5
49A
100
AcDbEntity
  8
0
100
AcDbLine
 62
7
  6
CONTINUOUS
 10
-107.8964183658
 20
442.4852496187
 11
-98.8964183658
 21
442.4852496187
  0
LINE
  5
49B
100
AcDbEntity
  8
0
100
AcDbLine
 62
7
  6
CONTINUOUS
 10
-47.6964183658
 20
447.1052496187
 11
-56.6964183658
 21
447.1052496187
  0
LINE
  5
49C
100
AcDbEntity
  8
0
100
AcDbLine
 62
7
  6
CONTINUOUS
 10
-98.8964183658
 20
449.3602496187
 11
-107.8964183658
 21
449.3602496187
  0
LINE
  5
49D
100
AcDbEntity
  8
0
100
AcDbLine
 62
7
  6
CONTINUOUS
 10
-47.6964183658
 20
456.1052496187
 11
-56.6964183658
 21
456.1052496187
  0
LINE
  5
49E
100
AcDbEntity
  8
0
100
AcDbLine
 62
7
  6
CONTINUOUS
 10
-107.8964183658
 20
458.3602496187
 11
-98.8964183658
 21
458.3602496187
  0
LINE
  5
49F
100
AcDbEntity
  8
0
100
AcDbLine
 62
7
  6
CONTINUOUS
 10
-98.8964183658
 20
462.0602496187
 11
-107.8964183658
 21
462.0602496187
  0
LINE
  5
4A0
100
AcDbEntity
  8
0
100
AcDbLine
 62
7
  6
CONTINUOUS
 10
-107.8964183658
 20
471.0602496187
 11
-98.8964183658
 21
471.0602496187
  0
LINE
  5
4A1
100
AcDbEntity
  8
0
100
AcDbLine
 62
7
  6
CONTINUOUS
 10
-98.8964183658
 20
477.9352496187
 11
-107.8964183658
 21
477.9352496187
  0
LINE
  5
4A2
100
AcDbEntity
  8
0
100
AcDbLine
 62
7
  6
CONTINUOUS
 10
-107.8964183658
 20
486.9352496187
 11
-98.8964183658
 21
486.9352496187
  0
LINE
  5
4A3
100
AcDbEntity
  8
0
100
AcDbLine
 62
7
  6
CONTINUOUS
 10
-47.6964183658
 20
490.1552496187
 11
-56.6964183658
 21
490.1552496187
  0
LINE
  5
4A4
100
AcDbEntity
  8
0
100
AcDbLine
 62
7
  6
CONTINUOUS
 10
-98.8964183658
 20
493.8102496187
 11
-107.8964183658
 21
493.8102496187
  0
LINE
  5
4A5
100
AcDbEntity
  8
0
100
AcDbLine
 62
7
  6
CONTINUOUS
 10
-47.6964183658
 20
499.1552496187
 11
-56.6964183658
 21
499.1552496187
  0
LINE
  5
4A6
100
AcDbEntity
  8
0
100
AcDbLine
 62
7
  6
CONTINUOUS
 10
-107.8964183658
 20
502.8102496187
 11
-98.8964183658
 21
502.8102496187
  0
LINE
  5
4A7
100
AcDbEntity
  8
0
100
AcDbLine
 62
7
  6
CONTINUOUS
 10
-98.8964183658
 20
506.5102496187
 11
-107.8964183658
 21
506.5102496187
  0
LINE
  5
4A8
100
AcDbEntity
  8
0
100
AcDbLine
 62
7
  6
CONTINUOUS
 10
-107.8964183658
 20
515.5102496187
 11
-98.8964183658
 21
515.5102496187
  0
LINE
  5
4A9
100
AcDbEntity
  8
0
100
AcDbLine
 62
7
  6
CONTINUOUS
 10
-98.8964183658
 20
522.3852496187
 11
-107.8964183658
 21
522.3852496187
  0
LINE
  5
4AA
100
AcDbEntity
  8
0
100
AcDbLine
 62
7
  6
CONTINUOUS
 10
-107.8964183658
 20
531.3852496187
 11
-98.8964183658
 21
531.3852496187
  0
LINE
  5
4AB
100
AcDbEntity
  8
0
100
AcDbLine
 62
7
  6
CONTINUOUS
 10
-47.6964183658
 20
533.2052496187
 11
-56.6964183658
 21
533.2052496187
  0
LINE
  5
4AC
100
AcDbEntity
  8
0
100
AcDbLine
 62
7
  6
CONTINUOUS
 10
-98.8964183658
 20
538.2602496187
 11
-107.8964183658
 21
538.2602496187
  0
LINE
  5
4AD
100
AcDbEntity
  8
0
100
AcDbLine
 62
7
  6
CONTINUOUS
 10
-47.6964183658
 20
542.2052496187
 11
-56.6964183658
 21
542.2052496187
  0
LINE
  5
4AE
100
AcDbEntity
  8
0
100
AcDbLine
 62
7
  6
CONTINUOUS
 10
-107.8964183658
 20
547.2602496187
 11
-98.8964183658
 21
547.2602496187
  0
LINE
  5
4AF
100
AcDbEntity
  8
0
100
AcDbLine
 62
7
  6
CONTINUOUS
 10
-98.8964183658
 20
550.9602496187
 11
-107.8964183658
 21
550.9602496187
  0
LINE
  5
4B0
100
AcDbEntity
  8
0
100
AcDbLine
 62
7
  6
CONTINUOUS
 10
-107.8964183658
 20
559.9602496187
 11
-98.8964183658
 21
559.9602496187
  0
LINE
  5
4B1
100
AcDbEntity
  8
0
100
AcDbLine
 62
7
  6
CONTINUOUS
 10
-98.8964183658
 20
566.8352496187
 11
-107.8964183658
 21
566.8352496187
  0
LINE
  5
4B2
100
AcDbEntity
  8
0
100
AcDbLine
 62
7
  6
CONTINUOUS
 10
-107.8964183658
 20
575.8352496187
 11
-98.8964183658
 21
575.8352496187
  0
LINE
  5
4B3
100
AcDbEntity
  8
0
100
AcDbLine
 62
7
  6
CONTINUOUS
 10
-47.6964183658
 20
576.2552496187
 11
-56.6964183658
 21
576.2552496187
  0
LINE
  5
4B4
100
AcDbEntity
  8
0
100
AcDbLine
 62
7
  6
CONTINUOUS
 10
-98.8964183658
 20
582.7102496187
 11
-107.8964183658
 21
582.7102496187
  0
LINE
  5
4B5
100
AcDbEntity
  8
0
100
AcDbLine
 62
7
  6
CONTINUOUS
 10
-47.6964183658
 20
585.2552496187
 11
-56.6964183658
 21
585.2552496187
  0
LINE
  5
4B6
100
AcDbEntity
  8
0
100
AcDbLine
 62
7
  6
CONTINUOUS
 10
-107.8964183658
 20
591.7102496187
 11
-98.8964183658
 21
591.7102496187
  0
LINE
  5
4B7
100
AcDbEntity
  8
0
100
AcDbLine
 62
7
  6
CONTINUOUS
 10
-98.8964183658
 20
595.4102496187
 11
-107.8964183658
 21
595.4102496187
  0
LINE
  5
4B8
100
AcDbEntity
  8
0
100
AcDbLine
 62
7
  6
CONTINUOUS
 10
-107.8964183658
 20
604.4102496187
 11
-98.8964183658
 21
604.4102496187
  0
LINE
  5
4B9
100
AcDbEntity
  8
0
100
AcDbLine
 62
7
  6
CONTINUOUS
 10
-98.8964183658
 20
611.2852496187
 11
-107.8964183658
 21
611.2852496187
  0
LINE
  5
4BA
100
AcDbEntity
  8
0
100
AcDbLine
 62
7
  6
CONTINUOUS
 10
-47.6964183658
 20
619.3052496187
 11
-56.6964183658
 21
619.3052496187
  0
LINE
  5
4BB
100
AcDbEntity
  8
0
100
AcDbLine
 62
7
  6
CONTINUOUS
 10
-107.8964183658
 20
620.2852496187
 11
-98.8964183658
 21
620.2852496187
  0
LINE
  5
4BC
100
AcDbEntity
  8
0
100
AcDbLine
 62
7
  6
CONTINUOUS
 10
-98.8964183658
 20
627.1602496187
 11
-107.8964183658
 21
627.1602496187
  0
LINE
  5
4BD
100
AcDbEntity
  8
0
100
AcDbLine
 62
7
  6
CONTINUOUS
 10
-47.6964183658
 20
628.3052496187
 11
-56.6964183658
 21
628.3052496187
  0
LINE
  5
4BE
100
AcDbEntity
  8
0
100
AcDbLine
 62
7
  6
CONTINUOUS
 10
-107.8964183658
 20
636.1602496187
 11
-98.8964183658
 21
636.1602496187
  0
LINE
  5
4BF
100
AcDbEntity
  8
0
100
AcDbLine
 62
7
  6
CONTINUOUS
 10
-98.8964183658
 20
639.8602496187
 11
-107.8964183658
 21
639.8602496187
  0
LINE
  5
4C0
100
AcDbEntity
  8
0
100
AcDbLine
 62
7
  6
CONTINUOUS
 10
-107.8964183658
 20
648.8602496187
 11
-98.8964183658
 21
648.8602496187
  0
LINE
  5
4C1
100
AcDbEntity
  8
0
100
AcDbLine
 62
7
  6
CONTINUOUS
 10
-98.8964183658
 20
655.7352496187
 11
-107.8964183658
 21
655.7352496187
  0
LINE
  5
4C2
100
AcDbEntity
  8
0
100
AcDbLine
 62
7
  6
CONTINUOUS
 10
-47.6964183658
 20
662.3552496187
 11
-56.6964183658
 21
662.3552496187
  0
LINE
  5
4C3
100
AcDbEntity
  8
0
100
AcDbLine
 62
7
  6
CONTINUOUS
 10
-107.8964183658
 20
664.7352496187
 11
-98.8964183658
 21
664.7352496187
  0
LINE
  5
4C4
100
AcDbEntity
  8
0
100
AcDbLine
 62
7
  6
CONTINUOUS
 10
-47.6964183658
 20
671.3552496187
 11
-56.6964183658
 21
671.3552496187
  0
LINE
  5
4C5
100
AcDbEntity
  8
0
100
AcDbLine
 62
7
  6
CONTINUOUS
 10
-98.8964183658
 20
671.6102496187
 11
-107.8964183658
 21
671.6102496187
  0
LINE
  5
4C6
100
AcDbEntity
  8
0
100
AcDbLine
 62
7
  6
CONTINUOUS
 10
-107.8964183658
 20
680.6102496187
 11
-98.8964183658
 21
680.6102496187
  0
LINE
  5
4C7
100
AcDbEntity
  8
0
100
AcDbLine
 62
7
  6
CONTINUOUS
 10
-98.8964183658
 20
684.3102496187
 11
-107.8964183658
 21
684.3102496187
  0
LINE
  5
4C8
100
AcDbEntity
  8
0
100
AcDbLine
 62
7
  6
CONTINUOUS
 10
-107.8964183658
 20
693.3102496187
 11
-98.8964183658
 21
693.3102496187
  0
LINE
  5
4C9
100
AcDbEntity
  8
0
100
AcDbLine
 62
7
  6
CONTINUOUS
 10
-98.8964183658
 20
700.1852496187
 11
-107.8964183658
 21
700.1852496187
  0
LINE
  5
4CA
100
AcDbEntity
  8
0
100
AcDbLine
 62
7
  6
CONTINUOUS
 10
-47.6964183658
 20
705.4052496187
 11
-56.6964183658
 21
705.4052496187
  0
LINE
  5
4CB
100
AcDbEntity
  8
0
100
AcDbLine
 62
7
  6
CONTINUOUS
 10
-107.8964183658
 20
709.1852496187
 11
-98.8964183658
 21
709.1852496187
  0
LINE
  5
4CC
100
AcDbEntity
  8
0
100
AcDbLine
 62
7
  6
CONTINUOUS
 10
-47.6964183658
 20
714.4052496187
 11
-56.6964183658
 21
714.4052496187
  0
LINE
  5
4CD
100
AcDbEntity
  8
0
100
AcDbLine
 62
7
  6
CONTINUOUS
 10
-98.8964183658
 20
716.0602496187
 11
-107.8964183658
 21
716.0602496187
  0
LINE
  5
4CE
100
AcDbEntity
  8
0
100
AcDbLine
 62
7
  6
CONTINUOUS
 10
-107.8964183658
 20
725.0602496187
 11
-98.8964183658
 21
725.0602496187
  0
LINE
  5
4CF
100
AcDbEntity
  8
0
100
AcDbLine
 62
7
  6
CONTINUOUS
 10
-98.8964183658
 20
728.7602496187
 11
-107.8964183658
 21
728.7602496187
  0
LINE
  5
4D0
100
AcDbEntity
  8
0
100
AcDbLine
 62
7
  6
CONTINUOUS
 10
-107.8964183658
 20
737.7602496187
 11
-98.8964183658
 21
737.7602496187
  0
LINE
  5
4D1
100
AcDbEntity
  8
0
100
AcDbLine
 62
7
  6
CONTINUOUS
 10
-98.8964183658
 20
744.6352496187
 11
-107.8964183658
 21
744.6352496187
  0
LINE
  5
4D2
100
AcDbEntity
  8
0
100
AcDbLine
 62
7
  6
CONTINUOUS
 10
-47.6964183658
 20
748.4552496187
 11
-56.6964183658
 21
748.4552496187
  0
LINE
  5
4D3
100
AcDbEntity
  8
0
100
AcDbLine
 62
7
  6
CONTINUOUS
 10
-107.8964183658
 20
753.6352496187
 11
-98.8964183658
 21
753.6352496187
  0
LINE
  5
4D4
100
AcDbEntity
  8
0
100
AcDbLine
 62
7
  6
CONTINUOUS
 10
-47.6964183658
 20
757.4552496187
 11
-56.6964183658
 21
757.4552496187
  0
LINE
  5
4D5
100
AcDbEntity
  8
0
100
AcDbLine
 62
7
  6
CONTINUOUS
 10
-98.8964183658
 20
760.5102496187
 11
-107.8964183658
 21
760.5102496187
  0
LINE
  5
4D6
100
AcDbEntity
  8
0
100
AcDbLine
 62
7
  6
CONTINUOUS
 10
-107.8964183658
 20
769.5102496187
 11
-98.8964183658
 21
769.5102496187
  0
LINE
  5
4D7
100
AcDbEntity
  8
0
100
AcDbLine
 62
7
  6
CONTINUOUS
 10
-98.8964183658
 20
773.2102496187
 11
-107.8964183658
 21
773.2102496187
  0
LINE
  5
4D8
100
AcDbEntity
  8
0
100
AcDbLine
 62
7
  6
CONTINUOUS
 10
-107.8964183658
 20
782.2102496187
 11
-98.8964183658
 21
782.2102496187
  0
LINE
  5
4D9
100
AcDbEntity
  8
0
100
AcDbLine
 62
7
  6
CONTINUOUS
 10
-98.8964183658
 20
789.0852496187
 11
-107.8964183658
 21
789.0852496187
  0
LINE
  5
4DA
100
AcDbEntity
  8
0
100
AcDbLine
 62
7
  6
CONTINUOUS
 10
-47.6964183658
 20
791.5052496187
 11
-56.6964183658
 21
791.5052496187
  0
LINE
  5
4DB
100
AcDbEntity
  8
0
100
AcDbLine
 62
7
  6
CONTINUOUS
 10
-107.8964183658
 20
798.0852496187
 11
-98.8964183658
 21
798.0852496187
  0
LINE
  5
4DC
100
AcDbEntity
  8
0
100
AcDbLine
 62
7
  6
CONTINUOUS
 10
-47.6964183658
 20
800.5052496187
 11
-56.6964183658
 21
800.5052496187
  0
LINE
  5
4DD
100
AcDbEntity
  8
0
100
AcDbLine
 62
7
  6
CONTINUOUS
 10
-98.8964183658
 20
804.9602496187
 11
-107.8964183658
 21
804.9602496187
  0
LINE
  5
4DE
100
AcDbEntity
  8
0
100
AcDbLine
 62
7
  6
CONTINUOUS
 10
-107.8964183658
 20
813.9602496187
 11
-98.8964183658
 21
813.9602496187
  0
LINE
  5
4DF
100
AcDbEntity
  8
0
100
AcDbLine
 62
7
  6
CONTINUOUS
 10
-98.8964183658
 20
817.6602496187
 11
-107.8964183658
 21
817.6602496187
  0
LINE
  5
4E0
100
AcDbEntity
  8
0
100
AcDbLine
 62
7
  6
CONTINUOUS
 10
-107.8964183658
 20
826.6602496187
 11
-98.8964183658
 21
826.6602496187
  0
LINE
  5
4E1
100
AcDbEntity
  8
0
100
AcDbLine
 62
7
  6
CONTINUOUS
 10
-98.8964183658
 20
833.5352496187
 11
-107.8964183658
 21
833.5352496187
  0
LINE
  5
4E2
100
AcDbEntity
  8
0
100
AcDbLine
 62
7
  6
CONTINUOUS
 10
-47.6964183658
 20
834.5552496187
 11
-56.6964183658
 21
834.5552496187
  0
LINE
  5
4E3
100
AcDbEntity
  8
0
100
AcDbLine
 62
7
  6
CONTINUOUS
 10
-107.8964183658
 20
842.5352496187
 11
-98.8964183658
 21
842.5352496187
  0
LINE
  5
4E4
100
AcDbEntity
  8
0
100
AcDbLine
 62
7
  6
CONTINUOUS
 10
-47.6964183658
 20
843.5552496187
 11
-56.6964183658
 21
843.5552496187
  0
LINE
  5
4E5
100
AcDbEntity
  8
0
100
AcDbLine
 62
7
  6
CONTINUOUS
 10
-98.8964183658
 20
849.4102496187
 11
-107.8964183658
 21
849.4102496187
  0
LINE
  5
4E6
100
AcDbEntity
  8
0
100
AcDbLine
 62
7
  6
CONTINUOUS
 10
-107.8964183658
 20
858.4102496187
 11
-98.8964183658
 21
858.4102496187
  0
LINE
  5
4E7
100
AcDbEntity
  8
0
100
AcDbLine
 62
7
  6
CONTINUOUS
 10
-98.8964183658
 20
862.1102496187
 11
-107.8964183658
 21
862.1102496187
  0
LINE
  5
4E8
100
AcDbEntity
  8
0
100
AcDbLine
 62
7
  6
CONTINUOUS
 10
-107.8964183658
 20
871.1102496187
 11
-98.8964183658
 21
871.1102496187
  0
LINE
  5
4E9
100
AcDbEntity
  8
0
100
AcDbLine
 62
7
  6
CONTINUOUS
 10
-47.6964183658
 20
877.6052496187
 11
-56.6964183658
 21
877.6052496187
  0
LINE
  5
4EA
100
AcDbEntity
  8
0
100
AcDbLine
 62
7
  6
CONTINUOUS
 10
-98.8964183658
 20
877.9852496187
 11
-107.8964183658
 21
877.9852496187
  0
LINE
  5
4EB
100
AcDbEntity
  8
0
100
AcDbLine
 62
7
  6
CONTINUOUS
 10
-47.6964183658
 20
886.6052496187
 11
-56.6964183658
 21
886.6052496187
  0
LINE
  5
4EC
100
AcDbEntity
  8
0
100
AcDbLine
 62
7
  6
CONTINUOUS
 10
-107.8964183658
 20
886.9852496187
 11
-98.8964183658
 21
886.9852496187
  0
LINE
  5
4ED
100
AcDbEntity
  8
RACCORDO
100
AcDbLine
 62
7
  6
CONTINUOUS
 10
-108.6964183658
 20
891.8052496187
 11
-97.1964183658
 21
891.8052496187
  0
LINE
  5
4EE
100
AcDbEntity
  8
RACCORDO
100
AcDbLine
 62
7
  6
CONTINUOUS
 10
-95.1964183658
 20
896.3052496187
 11
-84.1964183658
 21
896.3052496187
  0
LINE
  5
4EF
100
AcDbEntity
  8
0
100
AcDbLine
 62
7
  6
CONTINUOUS
 10
-80.6964183658
 20
896.3052496187
 11
-84.1964183658
 21
896.3052496187
  0
LINE
  5
4F0
100
AcDbEntity
  8
0
100
AcDbLine
 62
7
  6
CONTINUOUS
 10
-6.6964183658
 20
903.8052496187
 11
-1.6964183658
 21
903.8052496187
  0
LINE
  5
4F1
100
AcDbEntity
  8
0
100
AcDbLine
 62
7
  6
CONTINUOUS
 10
-47.6964183658
 20
922.1052496187
 11
-56.6964183658
 21
922.1052496187
  0
LINE
  5
4F2
100
AcDbEntity
  8
RACCORDO
100
AcDbLine
 62
7
  6
CONTINUOUS
 10
-8.6964183658
 20
924.8052496187
 11
-47.6964183658
 21
924.8052496187
  0
LINE
  5
4F3
100
AcDbEntity
  8
RACCORDO
100
AcDbLine
 62
7
  6
CONTINUOUS
 10
-56.6964183658
 20
924.8052496187
 11
-78.6964183658
 21
924.8052496187
  0
LINE
  5
4F4
100
AcDbEntity
  8
RACCORDO
100
AcDbLine
 62
7
  6
CONTINUOUS
 10
-248.0352113602
 20
-982.1947503813
 11
-250.0352113602
 21
-982.1947503813
  0
LINE
  5
4F5
100
AcDbEntity
  8
RACCORDO
100
AcDbLine
 62
7
  6
CONTINUOUS
 10
-448.0352113602
 20
-982.1947503813
 11
-450.0352113602
 21
-982.1947503813
  0
LINE
  5
4F6
100
AcDbEntity
  8
RACCORDO
100
AcDbLine
 62
253
  6
CONTINUOUS
 10
-248.0352113602
 20
-980.1947503813
 11
-250.0352113602
 21
-980.1947503813
  0
LINE
  5
4F7
100
AcDbEntity
  8
RACCORDO
100
AcDbLine
 62
253
  6
CONTINUOUS
 10
-448.0352113602
 20
-980.1947503813
 11
-450.0352113602
 21
-980.1947503813
  0
LINE
  5
4F8
100
AcDbEntity
  8
0
100
AcDbLine
 62
7
  6
CONTINUOUS
 10
-450.0352113602
 20
-961.1947503813
 11
-445.0352113602
 21
-961.1947503813
  0
LINE
  5
4F9
100
AcDbEntity
  8
0
100
AcDbLine
 62
7
  6
CONTINUOUS
 10
-250.0352113602
 20
-961.1947503813
 11
-245.0352113602
 21
-961.1947503813
  0
LINE
  5
4FA
100
AcDbEntity
  8
RACCORDO
100
AcDbLine
 62
7
  6
CONTINUOUS
 10
-227.0352113602
 20
-961.1947503813
 11
-245.0352113602
 21
-961.1947503813
  0
LINE
  5
4FB
100
AcDbEntity
  8
RACCORDO
100
AcDbLine
 62
7
  6
CONTINUOUS
 10
-427.0352113602
 20
-961.1947503813
 11
-445.0352113602
 21
-961.1947503813
  0
LINE
  5
4FC
100
AcDbEntity
  8
0
100
AcDbLine
 62
7
  6
CONTINUOUS
 10
-228.4352113602
 20
-960.2947503813
 11
-237.4352113602
 21
-960.2947503813
  0
LINE
  5
4FD
100
AcDbEntity
  8
0
100
AcDbLine
 62
7
  6
CONTINUOUS
 10
-428.4352113602
 20
-960.2947503813
 11
-437.4352113602
 21
-960.2947503813
  0
LINE
  5
4FE
100
AcDbEntity
  8
0
100
AcDbLine
 62
7
  6
CONTINUOUS
 10
-251.0352113602
 20
-953.6947503813
 11
-266.0352113602
 21
-953.6947503813
  0
LINE
  5
4FF
100
AcDbEntity
  8
0
100
AcDbLine
 62
7
  6
CONTINUOUS
 10
-451.0352113602
 20
-953.6947503813
 11
-466.0352113602
 21
-953.6947503813
  0
LINE
  5
500
100
AcDbEntity
  8
0
100
AcDbLine
 62
7
  6
CONTINUOUS
 10
-437.4352113602
 20
-951.2947503813
 11
-428.4352113602
 21
-951.2947503813
  0
LINE
  5
501
100
AcDbEntity
  8
0
100
AcDbLine
 62
7
  6
CONTINUOUS
 10
-237.4352113602
 20
-951.2947503813
 11
-228.4352113602
 21
-951.2947503813
  0
LINE
  5
502
100
AcDbEntity
  8
0
100
AcDbLine
 62
7
  6
CONTINUOUS
 10
-228.4352113602
 20
-944.4197503813
 11
-237.4352113602
 21
-944.4197503813
  0
LINE
  5
503
100
AcDbEntity
  8
0
100
AcDbLine
 62
7
  6
CONTINUOUS
 10
-428.4352113602
 20
-944.4197503813
 11
-437.4352113602
 21
-944.4197503813
  0
LINE
  5
504
100
AcDbEntity
  8
0
100
AcDbLine
 62
7
  6
CONTINUOUS
 10
-437.4352113602
 20
-935.4197503813
 11
-428.4352113602
 21
-935.4197503813
  0
LINE
  5
505
100
AcDbEntity
  8
0
100
AcDbLine
 62
7
  6
CONTINUOUS
 10
-237.4352113602
 20
-935.4197503813
 11
-228.4352113602
 21
-935.4197503813
  0
LINE
  5
506
100
AcDbEntity
  8
0
100
AcDbLine
 62
7
  6
CONTINUOUS
 10
-228.4352113602
 20
-928.5447503813
 11
-237.4352113602
 21
-928.5447503813
  0
LINE
  5
507
100
AcDbEntity
  8
0
100
AcDbLine
 62
7
  6
CONTINUOUS
 10
-428.4352113602
 20
-928.5447503813
 11
-437.4352113602
 21
-928.5447503813
  0
LINE
  5
508
100
AcDbEntity
  8
0
100
AcDbLine
 62
7
  6
CONTINUOUS
 10
-437.4352113602
 20
-919.5447503813
 11
-428.4352113602
 21
-919.5447503813
  0
LINE
  5
509
100
AcDbEntity
  8
0
100
AcDbLine
 62
7
  6
CONTINUOUS
 10
-237.4352113602
 20
-919.5447503813
 11
-228.4352113602
 21
-919.5447503813
  0
LINE
  5
50A
100
AcDbEntity
  8
0
100
AcDbLine
 62
7
  6
CONTINUOUS
 10
-228.4352113602
 20
-915.8447503813
 11
-237.4352113602
 21
-915.8447503813
  0
LINE
  5
50B
100
AcDbEntity
  8
0
100
AcDbLine
 62
7
  6
CONTINUOUS
 10
-428.4352113602
 20
-915.8447503813
 11
-437.4352113602
 21
-915.8447503813
  0
LINE
  5
50C
100
AcDbEntity
  8
0
100
AcDbLine
 62
7
  6
CONTINUOUS
 10
-437.4352113602
 20
-906.8447503813
 11
-428.4352113602
 21
-906.8447503813
  0
LINE
  5
50D
100
AcDbEntity
  8
0
100
AcDbLine
 62
7
  6
CONTINUOUS
 10
-237.4352113602
 20
-906.8447503813
 11
-228.4352113602
 21
-906.8447503813
  0
LINE
  5
50E
100
AcDbEntity
  8
0
100
AcDbLine
 62
7
  6
CONTINUOUS
 10
-228.4352113602
 20
-899.9697503813
 11
-237.4352113602
 21
-899.9697503813
  0
LINE
  5
50F
100
AcDbEntity
  8
0
100
AcDbLine
 62
7
  6
CONTINUOUS
 10
-428.4352113602
 20
-899.9697503813
 11
-437.4352113602
 21
-899.9697503813
  0
LINE
  5
510
100
AcDbEntity
  8
0
100
AcDbLine
 62
7
  6
CONTINUOUS
 10
-437.4352113602
 20
-890.9697503813
 11
-428.4352113602
 21
-890.9697503813
  0
LINE
  5
511
100
AcDbEntity
  8
0
100
AcDbLine
 62
7
  6
CONTINUOUS
 10
-237.4352113602
 20
-890.9697503813
 11
-228.4352113602
 21
-890.9697503813
  0
LINE
  5
512
100
AcDbEntity
  8
0
100
AcDbLine
 62
7
  6
CONTINUOUS
 10
-228.4352113602
 20
-884.0947503813
 11
-237.4352113602
 21
-884.0947503813
  0
LINE
  5
513
100
AcDbEntity
  8
0
100
AcDbLine
 62
7
  6
CONTINUOUS
 10
-428.4352113602
 20
-884.0947503813
 11
-437.4352113602
 21
-884.0947503813
  0
LINE
  5
514
100
AcDbEntity
  8
0
100
AcDbLine
 62
7
  6
CONTINUOUS
 10
-437.4352113602
 20
-875.0947503813
 11
-428.4352113602
 21
-875.0947503813
  0
LINE
  5
515
100
AcDbEntity
  8
0
100
AcDbLine
 62
7
  6
CONTINUOUS
 10
-237.4352113602
 20
-875.0947503813
 11
-228.4352113602
 21
-875.0947503813
  0
LINE
  5
516
100
AcDbEntity
  8
0
100
AcDbLine
 62
7
  6
CONTINUOUS
 10
-228.4352113602
 20
-871.3947503813
 11
-237.4352113602
 21
-871.3947503813
  0
LINE
  5
517
100
AcDbEntity
  8
0
100
AcDbLine
 62
7
  6
CONTINUOUS
 10
-428.4352113602
 20
-871.3947503813
 11
-437.4352113602
 21
-871.3947503813
  0
LINE
  5
518
100
AcDbEntity
  8
0
100
AcDbLine
 62
7
  6
CONTINUOUS
 10
-437.4352113602
 20
-862.3947503813
 11
-428.4352113602
 21
-862.3947503813
  0
LINE
  5
519
100
AcDbEntity
  8
0
100
AcDbLine
 62
7
  6
CONTINUOUS
 10
-237.4352113602
 20
-862.3947503813
 11
-228.4352113602
 21
-862.3947503813
  0
LINE
  5
51A
100
AcDbEntity
  8
0
100
AcDbLine
 62
7
  6
CONTINUOUS
 10
-228.4352113602
 20
-855.5197503813
 11
-237.4352113602
 21
-855.5197503813
  0
LINE
  5
51B
100
AcDbEntity
  8
0
100
AcDbLine
 62
7
  6
CONTINUOUS
 10
-428.4352113602
 20
-855.5197503813
 11
-437.4352113602
 21
-855.5197503813
  0
LINE
  5
51C
100
AcDbEntity
  8
0
100
AcDbLine
 62
7
  6
CONTINUOUS
 10
-437.4352113602
 20
-846.5197503813
 11
-428.4352113602
 21
-846.5197503813
  0
LINE
  5
51D
100
AcDbEntity
  8
0
100
AcDbLine
 62
7
  6
CONTINUOUS
 10
-237.4352113602
 20
-846.5197503813
 11
-228.4352113602
 21
-846.5197503813
  0
LINE
  5
51E
100
AcDbEntity
  8
0
100
AcDbLine
 62
7
  6
CONTINUOUS
 10
-228.4352113602
 20
-839.6447503813
 11
-237.4352113602
 21
-839.6447503813
  0
LINE
  5
51F
100
AcDbEntity
  8
0
100
AcDbLine
 62
7
  6
CONTINUOUS
 10
-428.4352113602
 20
-839.6447503813
 11
-437.4352113602
 21
-839.6447503813
  0
LINE
  5
520
100
AcDbEntity
  8
0
100
AcDbLine
 62
7
  6
CONTINUOUS
 10
-437.4352113602
 20
-830.6447503813
 11
-428.4352113602
 21
-830.6447503813
  0
LINE
  5
521
100
AcDbEntity
  8
0
100
AcDbLine
 62
7
  6
CONTINUOUS
 10
-237.4352113602
 20
-830.6447503813
 11
-228.4352113602
 21
-830.6447503813
  0
LINE
  5
522
100
AcDbEntity
  8
0
100
AcDbLine
 62
7
  6
CONTINUOUS
 10
-228.4352113602
 20
-826.9447503813
 11
-237.4352113602
 21
-826.9447503813
  0
LINE
  5
523
100
AcDbEntity
  8
0
100
AcDbLine
 62
7
  6
CONTINUOUS
 10
-428.4352113602
 20
-826.9447503813
 11
-437.4352113602
 21
-826.9447503813
  0
LINE
  5
524
100
AcDbEntity
  8
0
100
AcDbLine
 62
7
  6
CONTINUOUS
 10
-437.4352113602
 20
-817.9447503813
 11
-428.4352113602
 21
-817.9447503813
  0
LINE
  5
525
100
AcDbEntity
  8
0
100
AcDbLine
 62
7
  6
CONTINUOUS
 10
-237.4352113602
 20
-817.9447503813
 11
-228.4352113602
 21
-817.9447503813
  0
LINE
  5
526
100
AcDbEntity
  8
0
100
AcDbLine
 62
7
  6
CONTINUOUS
 10
-228.4352113602
 20
-811.0697503813
 11
-237.4352113602
 21
-811.0697503813
  0
LINE
  5
527
100
AcDbEntity
  8
0
100
AcDbLine
 62
7
  6
CONTINUOUS
 10
-428.4352113602
 20
-811.0697503813
 11
-437.4352113602
 21
-811.0697503813
  0
LINE
  5
528
100
AcDbEntity
  8
0
100
AcDbLine
 62
7
  6
CONTINUOUS
 10
-437.4352113602
 20
-802.0697503813
 11
-428.4352113602
 21
-802.0697503813
  0
LINE
  5
529
100
AcDbEntity
  8
0
100
AcDbLine
 62
7
  6
CONTINUOUS
 10
-237.4352113602
 20
-802.0697503813
 11
-228.4352113602
 21
-802.0697503813
  0
LINE
  5
52A
100
AcDbEntity
  8
0
100
AcDbLine
 62
7
  6
CONTINUOUS
 10
-228.4352113602
 20
-795.1947503813
 11
-237.4352113602
 21
-795.1947503813
  0
LINE
  5
52B
100
AcDbEntity
  8
0
100
AcDbLine
 62
7
  6
CONTINUOUS
 10
-428.4352113602
 20
-795.1947503813
 11
-437.4352113602
 21
-795.1947503813
  0
LINE
  5
52C
100
AcDbEntity
  8
0
100
AcDbLine
 62
7
  6
CONTINUOUS
 10
-437.4352113602
 20
-786.1947503813
 11
-428.4352113602
 21
-786.1947503813
  0
LINE
  5
52D
100
AcDbEntity
  8
0
100
AcDbLine
 62
7
  6
CONTINUOUS
 10
-237.4352113602
 20
-786.1947503813
 11
-228.4352113602
 21
-786.1947503813
  0
LINE
  5
52E
100
AcDbEntity
  8
0
100
AcDbLine
 62
7
  6
CONTINUOUS
 10
-228.4352113602
 20
-782.4947503813
 11
-237.4352113602
 21
-782.4947503813
  0
LINE
  5
52F
100
AcDbEntity
  8
0
100
AcDbLine
 62
7
  6
CONTINUOUS
 10
-428.4352113602
 20
-782.4947503813
 11
-437.4352113602
 21
-782.4947503813
  0
LINE
  5
530
100
AcDbEntity
  8
0
100
AcDbLine
 62
7
  6
CONTINUOUS
 10
-437.4352113602
 20
-773.4947503813
 11
-428.4352113602
 21
-773.4947503813
  0
LINE
  5
531
100
AcDbEntity
  8
0
100
AcDbLine
 62
7
  6
CONTINUOUS
 10
-237.4352113602
 20
-773.4947503813
 11
-228.4352113602
 21
-773.4947503813
  0
LINE
  5
532
100
AcDbEntity
  8
0
100
AcDbLine
 62
7
  6
CONTINUOUS
 10
-228.4352113602
 20
-766.6197503813
 11
-237.4352113602
 21
-766.6197503813
  0
LINE
  5
533
100
AcDbEntity
  8
0
100
AcDbLine
 62
7
  6
CONTINUOUS
 10
-428.4352113602
 20
-766.6197503813
 11
-437.4352113602
 21
-766.6197503813
  0
LINE
  5
534
100
AcDbEntity
  8
0
100
AcDbLine
 62
7
  6
CONTINUOUS
 10
-437.4352113602
 20
-757.6197503813
 11
-428.4352113602
 21
-757.6197503813
  0
LINE
  5
535
100
AcDbEntity
  8
0
100
AcDbLine
 62
7
  6
CONTINUOUS
 10
-237.4352113602
 20
-757.6197503813
 11
-228.4352113602
 21
-757.6197503813
  0
LINE
  5
536
100
AcDbEntity
  8
0
100
AcDbLine
 62
7
  6
CONTINUOUS
 10
-228.4352113602
 20
-750.7447503813
 11
-237.4352113602
 21
-750.7447503813
  0
LINE
  5
537
100
AcDbEntity
  8
0
100
AcDbLine
 62
7
  6
CONTINUOUS
 10
-428.4352113602
 20
-750.7447503813
 11
-437.4352113602
 21
-750.7447503813
  0
LINE
  5
538
100
AcDbEntity
  8
0
100
AcDbLine
 62
7
  6
CONTINUOUS
 10
-437.4352113602
 20
-741.7447503813
 11
-428.4352113602
 21
-741.7447503813
  0
LINE
  5
539
100
AcDbEntity
  8
0
100
AcDbLine
 62
7
  6
CONTINUOUS
 10
-237.4352113602
 20
-741.7447503813
 11
-228.4352113602
 21
-741.7447503813
  0
LINE
  5
53A
100
AcDbEntity
  8
0
100
AcDbLine
 62
7
  6
CONTINUOUS
 10
-228.4352113602
 20
-738.0447503813
 11
-237.4352113602
 21
-738.0447503813
  0
LINE
  5
53B
100
AcDbEntity
  8
0
100
AcDbLine
 62
7
  6
CONTINUOUS
 10
-428.4352113602
 20
-738.0447503813
 11
-437.4352113602
 21
-738.0447503813
  0
LINE
  5
53C
100
AcDbEntity
  8
0
100
AcDbLine
 62
7
  6
CONTINUOUS
 10
-437.4352113602
 20
-729.0447503813
 11
-428.4352113602
 21
-729.0447503813
  0
LINE
  5
53D
100
AcDbEntity
  8
0
100
AcDbLine
 62
7
  6
CONTINUOUS
 10
-237.4352113602
 20
-729.0447503813
 11
-228.4352113602
 21
-729.0447503813
  0
LINE
  5
53E
100
AcDbEntity
  8
0
100
AcDbLine
 62
7
  6
CONTINUOUS
 10
-228.4352113602
 20
-722.1697503813
 11
-237.4352113602
 21
-722.1697503813
  0
LINE
  5
53F
100
AcDbEntity
  8
0
100
AcDbLine
 62
7
  6
CONTINUOUS
 10
-428.4352113602
 20
-722.1697503813
 11
-437.4352113602
 21
-722.1697503813
  0
LINE
  5
540
100
AcDbEntity
  8
0
100
AcDbLine
 62
7
  6
CONTINUOUS
 10
-437.4352113602
 20
-713.1697503813
 11
-428.4352113602
 21
-713.1697503813
  0
LINE
  5
541
100
AcDbEntity
  8
0
100
AcDbLine
 62
7
  6
CONTINUOUS
 10
-237.4352113602
 20
-713.1697503813
 11
-228.4352113602
 21
-713.1697503813
  0
LINE
  5
542
100
AcDbEntity
  8
0
100
AcDbLine
 62
7
  6
CONTINUOUS
 10
-228.4352113602
 20
-706.2947503813
 11
-237.4352113602
 21
-706.2947503813
  0
LINE
  5
543
100
AcDbEntity
  8
0
100
AcDbLine
 62
7
  6
CONTINUOUS
 10
-428.4352113602
 20
-706.2947503813
 11
-437.4352113602
 21
-706.2947503813
  0
LINE
  5
544
100
AcDbEntity
  8
0
100
AcDbLine
 62
7
  6
CONTINUOUS
 10
-437.4352113602
 20
-697.2947503813
 11
-428.4352113602
 21
-697.2947503813
  0
LINE
  5
545
100
AcDbEntity
  8
0
100
AcDbLine
 62
7
  6
CONTINUOUS
 10
-237.4352113602
 20
-697.2947503813
 11
-228.4352113602
 21
-697.2947503813
  0
LINE
  5
546
100
AcDbEntity
  8
0
100
AcDbLine
 62
7
  6
CONTINUOUS
 10
-228.4352113602
 20
-693.5947503813
 11
-237.4352113602
 21
-693.5947503813
  0
LINE
  5
547
100
AcDbEntity
  8
0
100
AcDbLine
 62
7
  6
CONTINUOUS
 10
-428.4352113602
 20
-693.5947503813
 11
-437.4352113602
 21
-693.5947503813
  0
LINE
  5
548
100
AcDbEntity
  8
0
100
AcDbLine
 62
7
  6
CONTINUOUS
 10
-437.4352113602
 20
-684.5947503813
 11
-428.4352113602
 21
-684.5947503813
  0
LINE
  5
549
100
AcDbEntity
  8
0
100
AcDbLine
 62
7
  6
CONTINUOUS
 10
-237.4352113602
 20
-684.5947503813
 11
-228.4352113602
 21
-684.5947503813
  0
LINE
  5
54A
100
AcDbEntity
  8
0
100
AcDbLine
 62
7
  6
CONTINUOUS
 10
-228.4352113602
 20
-677.7197503813
 11
-237.4352113602
 21
-677.7197503813
  0
LINE
  5
54B
100
AcDbEntity
  8
0
100
AcDbLine
 62
7
  6
CONTINUOUS
 10
-428.4352113602
 20
-677.7197503813
 11
-437.4352113602
 21
-677.7197503813
  0
LINE
  5
54C
100
AcDbEntity
  8
0
100
AcDbLine
 62
7
  6
CONTINUOUS
 10
-437.4352113602
 20
-668.7197503813
 11
-428.4352113602
 21
-668.7197503813
  0
LINE
  5
54D
100
AcDbEntity
  8
0
100
AcDbLine
 62
7
  6
CONTINUOUS
 10
-237.4352113602
 20
-668.7197503813
 11
-228.4352113602
 21
-668.7197503813
  0
LINE
  5
54E
100
AcDbEntity
  8
0
100
AcDbLine
 62
7
  6
CONTINUOUS
 10
-228.4352113602
 20
-661.8447503813
 11
-237.4352113602
 21
-661.8447503813
  0
LINE
  5
54F
100
AcDbEntity
  8
0
100
AcDbLine
 62
7
  6
CONTINUOUS
 10
-428.4352113602
 20
-661.8447503813
 11
-437.4352113602
 21
-661.8447503813
  0
LINE
  5
550
100
AcDbEntity
  8
0
100
AcDbLine
 62
7
  6
CONTINUOUS
 10
-437.4352113602
 20
-652.8447503813
 11
-428.4352113602
 21
-652.8447503813
  0
LINE
  5
551
100
AcDbEntity
  8
0
100
AcDbLine
 62
7
  6
CONTINUOUS
 10
-237.4352113602
 20
-652.8447503813
 11
-228.4352113602
 21
-652.8447503813
  0
LINE
  5
552
100
AcDbEntity
  8
0
100
AcDbLine
 62
7
  6
CONTINUOUS
 10
-228.4352113602
 20
-649.1447503813
 11
-237.4352113602
 21
-649.1447503813
  0
LINE
  5
553
100
AcDbEntity
  8
0
100
AcDbLine
 62
7
  6
CONTINUOUS
 10
-428.4352113602
 20
-649.1447503813
 11
-437.4352113602
 21
-649.1447503813
  0
LINE
  5
554
100
AcDbEntity
  8
0
100
AcDbLine
 62
7
  6
CONTINUOUS
 10
-437.4352113602
 20
-640.1447503813
 11
-428.4352113602
 21
-640.1447503813
  0
LINE
  5
555
100
AcDbEntity
  8
0
100
AcDbLine
 62
7
  6
CONTINUOUS
 10
-237.4352113602
 20
-640.1447503813
 11
-228.4352113602
 21
-640.1447503813
  0
LINE
  5
556
100
AcDbEntity
  8
0
100
AcDbLine
 62
7
  6
CONTINUOUS
 10
-228.4352113602
 20
-633.2697503813
 11
-237.4352113602
 21
-633.2697503813
  0
LINE
  5
557
100
AcDbEntity
  8
0
100
AcDbLine
 62
7
  6
CONTINUOUS
 10
-428.4352113602
 20
-633.2697503813
 11
-437.4352113602
 21
-633.2697503813
  0
LINE
  5
558
100
AcDbEntity
  8
0
100
AcDbLine
 62
7
  6
CONTINUOUS
 10
-437.4352113602
 20
-624.2697503813
 11
-428.4352113602
 21
-624.2697503813
  0
LINE
  5
559
100
AcDbEntity
  8
0
100
AcDbLine
 62
7
  6
CONTINUOUS
 10
-237.4352113602
 20
-624.2697503813
 11
-228.4352113602
 21
-624.2697503813
  0
LINE
  5
55A
100
AcDbEntity
  8
0
100
AcDbLine
 62
7
  6
CONTINUOUS
 10
-228.4352113602
 20
-617.3947503813
 11
-237.4352113602
 21
-617.3947503813
  0
LINE
  5
55B
100
AcDbEntity
  8
0
100
AcDbLine
 62
7
  6
CONTINUOUS
 10
-428.4352113602
 20
-617.3947503813
 11
-437.4352113602
 21
-617.3947503813
  0
LINE
  5
55C
100
AcDbEntity
  8
0
100
AcDbLine
 62
7
  6
CONTINUOUS
 10
-437.4352113602
 20
-608.3947503813
 11
-428.4352113602
 21
-608.3947503813
  0
LINE
  5
55D
100
AcDbEntity
  8
0
100
AcDbLine
 62
7
  6
CONTINUOUS
 10
-237.4352113602
 20
-608.3947503813
 11
-228.4352113602
 21
-608.3947503813
  0
LINE
  5
55E
100
AcDbEntity
  8
0
100
AcDbLine
 62
7
  6
CONTINUOUS
 10
-228.4352113602
 20
-604.6947503813
 11
-237.4352113602
 21
-604.6947503813
  0
LINE
  5
55F
100
AcDbEntity
  8
0
100
AcDbLine
 62
7
  6
CONTINUOUS
 10
-428.4352113602
 20
-604.6947503813
 11
-437.4352113602
 21
-604.6947503813
  0
LINE
  5
560
100
AcDbEntity
  8
0
100
AcDbLine
 62
7
  6
CONTINUOUS
 10
-437.4352113602
 20
-595.6947503813
 11
-428.4352113602
 21
-595.6947503813
  0
LINE
  5
561
100
AcDbEntity
  8
0
100
AcDbLine
 62
7
  6
CONTINUOUS
 10
-237.4352113602
 20
-595.6947503813
 11
-228.4352113602
 21
-595.6947503813
  0
LINE
  5
562
100
AcDbEntity
  8
0
100
AcDbLine
 62
7
  6
CONTINUOUS
 10
-228.4352113602
 20
-588.8197503813
 11
-237.4352113602
 21
-588.8197503813
  0
LINE
  5
563
100
AcDbEntity
  8
0
100
AcDbLine
 62
7
  6
CONTINUOUS
 10
-428.4352113602
 20
-588.8197503813
 11
-437.4352113602
 21
-588.8197503813
  0
LINE
  5
564
100
AcDbEntity
  8
0
100
AcDbLine
 62
7
  6
CONTINUOUS
 10
-437.4352113602
 20
-579.8197503813
 11
-428.4352113602
 21
-579.8197503813
  0
LINE
  5
565
100
AcDbEntity
  8
0
100
AcDbLine
 62
7
  6
CONTINUOUS
 10
-237.4352113602
 20
-579.8197503813
 11
-228.4352113602
 21
-579.8197503813
  0
LINE
  5
566
100
AcDbEntity
  8
0
100
AcDbLine
 62
7
  6
CONTINUOUS
 10
-228.4352113602
 20
-572.9447503813
 11
-237.4352113602
 21
-572.9447503813
  0
LINE
  5
567
100
AcDbEntity
  8
0
100
AcDbLine
 62
7
  6
CONTINUOUS
 10
-428.4352113602
 20
-572.9447503813
 11
-437.4352113602
 21
-572.9447503813
  0
LINE
  5
568
100
AcDbEntity
  8
0
100
AcDbLine
 62
7
  6
CONTINUOUS
 10
-437.4352113602
 20
-563.9447503813
 11
-428.4352113602
 21
-563.9447503813
  0
LINE
  5
569
100
AcDbEntity
  8
0
100
AcDbLine
 62
7
  6
CONTINUOUS
 10
-237.4352113602
 20
-563.9447503813
 11
-228.4352113602
 21
-563.9447503813
  0
LINE
  5
56A
100
AcDbEntity
  8
0
100
AcDbLine
 62
7
  6
CONTINUOUS
 10
-228.4352113602
 20
-560.2447503813
 11
-237.4352113602
 21
-560.2447503813
  0
LINE
  5
56B
100
AcDbEntity
  8
0
100
AcDbLine
 62
7
  6
CONTINUOUS
 10
-428.4352113602
 20
-560.2447503813
 11
-437.4352113602
 21
-560.2447503813
  0
LINE
  5
56C
100
AcDbEntity
  8
0
100
AcDbLine
 62
7
  6
CONTINUOUS
 10
-437.4352113602
 20
-551.2447503813
 11
-428.4352113602
 21
-551.2447503813
  0
LINE
  5
56D
100
AcDbEntity
  8
0
100
AcDbLine
 62
7
  6
CONTINUOUS
 10
-237.4352113602
 20
-551.2447503813
 11
-228.4352113602
 21
-551.2447503813
  0
LINE
  5
56E
100
AcDbEntity
  8
0
100
AcDbLine
 62
7
  6
CONTINUOUS
 10
-228.4352113602
 20
-544.3697503813
 11
-237.4352113602
 21
-544.3697503813
  0
LINE
  5
56F
100
AcDbEntity
  8
0
100
AcDbLine
 62
7
  6
CONTINUOUS
 10
-428.4352113602
 20
-544.3697503813
 11
-437.4352113602
 21
-544.3697503813
  0
LINE
  5
570
100
AcDbEntity
  8
0
100
AcDbLine
 62
7
  6
CONTINUOUS
 10
-437.4352113602
 20
-535.3697503813
 11
-428.4352113602
 21
-535.3697503813
  0
LINE
  5
571
100
AcDbEntity
  8
0
100
AcDbLine
 62
7
  6
CONTINUOUS
 10
-237.4352113602
 20
-535.3697503813
 11
-228.4352113602
 21
-535.3697503813
  0
LINE
  5
572
100
AcDbEntity
  8
0
100
AcDbLine
 62
7
  6
CONTINUOUS
 10
-228.4352113602
 20
-528.4947503813
 11
-237.4352113602
 21
-528.4947503813
  0
LINE
  5
573
100
AcDbEntity
  8
0
100
AcDbLine
 62
7
  6
CONTINUOUS
 10
-428.4352113602
 20
-528.4947503813
 11
-437.4352113602
 21
-528.4947503813
  0
LINE
  5
574
100
AcDbEntity
  8
0
100
AcDbLine
 62
7
  6
CONTINUOUS
 10
-437.4352113602
 20
-519.4947503813
 11
-428.4352113602
 21
-519.4947503813
  0
LINE
  5
575
100
AcDbEntity
  8
0
100
AcDbLine
 62
7
  6
CONTINUOUS
 10
-237.4352113602
 20
-519.4947503813
 11
-228.4352113602
 21
-519.4947503813
  0
LINE
  5
576
100
AcDbEntity
  8
0
100
AcDbLine
 62
7
  6
CONTINUOUS
 10
-228.4352113602
 20
-515.7947503813
 11
-237.4352113602
 21
-515.7947503813
  0
LINE
  5
577
100
AcDbEntity
  8
0
100
AcDbLine
 62
7
  6
CONTINUOUS
 10
-428.4352113602
 20
-515.7947503813
 11
-437.4352113602
 21
-515.7947503813
  0
LINE
  5
578
100
AcDbEntity
  8
0
100
AcDbLine
 62
7
  6
CONTINUOUS
 10
-437.4352113602
 20
-506.7947503813
 11
-428.4352113602
 21
-506.7947503813
  0
LINE
  5
579
100
AcDbEntity
  8
0
100
AcDbLine
 62
7
  6
CONTINUOUS
 10
-237.4352113602
 20
-506.7947503813
 11
-228.4352113602
 21
-506.7947503813
  0
LINE
  5
57A
100
AcDbEntity
  8
0
100
AcDbLine
 62
7
  6
CONTINUOUS
 10
-228.4352113602
 20
-499.9197503813
 11
-237.4352113602
 21
-499.9197503813
  0
LINE
  5
57B
100
AcDbEntity
  8
0
100
AcDbLine
 62
7
  6
CONTINUOUS
 10
-428.4352113602
 20
-499.9197503813
 11
-437.4352113602
 21
-499.9197503813
  0
LINE
  5
57C
100
AcDbEntity
  8
0
100
AcDbLine
 62
7
  6
CONTINUOUS
 10
-437.4352113602
 20
-490.9197503813
 11
-428.4352113602
 21
-490.9197503813
  0
LINE
  5
57D
100
AcDbEntity
  8
0
100
AcDbLine
 62
7
  6
CONTINUOUS
 10
-237.4352113602
 20
-490.9197503813
 11
-228.4352113602
 21
-490.9197503813
  0
LINE
  5
57E
100
AcDbEntity
  8
0
100
AcDbLine
 62
7
  6
CONTINUOUS
 10
-228.4352113602
 20
-484.0447503813
 11
-237.4352113602
 21
-484.0447503813
  0
LINE
  5
57F
100
AcDbEntity
  8
0
100
AcDbLine
 62
7
  6
CONTINUOUS
 10
-428.4352113602
 20
-484.0447503813
 11
-437.4352113602
 21
-484.0447503813
  0
LINE
  5
580
100
AcDbEntity
  8
0
100
AcDbLine
 62
7
  6
CONTINUOUS
 10
-437.4352113602
 20
-475.0447503813
 11
-428.4352113602
 21
-475.0447503813
  0
LINE
  5
581
100
AcDbEntity
  8
0
100
AcDbLine
 62
7
  6
CONTINUOUS
 10
-237.4352113602
 20
-475.0447503813
 11
-228.4352113602
 21
-475.0447503813
  0
LINE
  5
582
100
AcDbEntity
  8
0
100
AcDbLine
 62
7
  6
CONTINUOUS
 10
-228.4352113602
 20
-471.3447503813
 11
-237.4352113602
 21
-471.3447503813
  0
LINE
  5
583
100
AcDbEntity
  8
0
100
AcDbLine
 62
7
  6
CONTINUOUS
 10
-428.4352113602
 20
-471.3447503813
 11
-437.4352113602
 21
-471.3447503813
  0
LINE
  5
584
100
AcDbEntity
  8
0
100
AcDbLine
 62
7
  6
CONTINUOUS
 10
-437.4352113602
 20
-462.3447503813
 11
-428.4352113602
 21
-462.3447503813
  0
LINE
  5
585
100
AcDbEntity
  8
0
100
AcDbLine
 62
7
  6
CONTINUOUS
 10
-237.4352113602
 20
-462.3447503813
 11
-228.4352113602
 21
-462.3447503813
  0
LINE
  5
586
100
AcDbEntity
  8
0
100
AcDbLine
 62
7
  6
CONTINUOUS
 10
-228.4352113602
 20
-455.4697503813
 11
-237.4352113602
 21
-455.4697503813
  0
LINE
  5
587
100
AcDbEntity
  8
0
100
AcDbLine
 62
7
  6
CONTINUOUS
 10
-428.4352113602
 20
-455.4697503813
 11
-437.4352113602
 21
-455.4697503813
  0
LINE
  5
588
100
AcDbEntity
  8
0
100
AcDbLine
 62
7
  6
CONTINUOUS
 10
-437.4352113602
 20
-446.4697503813
 11
-428.4352113602
 21
-446.4697503813
  0
LINE
  5
589
100
AcDbEntity
  8
0
100
AcDbLine
 62
7
  6
CONTINUOUS
 10
-237.4352113602
 20
-446.4697503813
 11
-228.4352113602
 21
-446.4697503813
  0
LINE
  5
58A
100
AcDbEntity
  8
0
100
AcDbLine
 62
7
  6
CONTINUOUS
 10
-228.4352113602
 20
-439.5947503813
 11
-237.4352113602
 21
-439.5947503813
  0
LINE
  5
58B
100
AcDbEntity
  8
0
100
AcDbLine
 62
7
  6
CONTINUOUS
 10
-428.4352113602
 20
-439.5947503813
 11
-437.4352113602
 21
-439.5947503813
  0
LINE
  5
58C
100
AcDbEntity
  8
0
100
AcDbLine
 62
7
  6
CONTINUOUS
 10
-437.4352113602
 20
-430.5947503813
 11
-428.4352113602
 21
-430.5947503813
  0
LINE
  5
58D
100
AcDbEntity
  8
0
100
AcDbLine
 62
7
  6
CONTINUOUS
 10
-237.4352113602
 20
-430.5947503813
 11
-228.4352113602
 21
-430.5947503813
  0
LINE
  5
58E
100
AcDbEntity
  8
0
100
AcDbLine
 62
7
  6
CONTINUOUS
 10
-228.4352113602
 20
-426.8947503813
 11
-237.4352113602
 21
-426.8947503813
  0
LINE
  5
58F
100
AcDbEntity
  8
0
100
AcDbLine
 62
7
  6
CONTINUOUS
 10
-428.4352113602
 20
-426.8947503813
 11
-437.4352113602
 21
-426.8947503813
  0
LINE
  5
590
100
AcDbEntity
  8
0
100
AcDbLine
 62
7
  6
CONTINUOUS
 10
-437.4352113602
 20
-417.8947503813
 11
-428.4352113602
 21
-417.8947503813
  0
LINE
  5
591
100
AcDbEntity
  8
0
100
AcDbLine
 62
7
  6
CONTINUOUS
 10
-237.4352113602
 20
-417.8947503813
 11
-228.4352113602
 21
-417.8947503813
  0
LINE
  5
592
100
AcDbEntity
  8
0
100
AcDbLine
 62
7
  6
CONTINUOUS
 10
-228.4352113602
 20
-411.0197503813
 11
-237.4352113602
 21
-411.0197503813
  0
LINE
  5
593
100
AcDbEntity
  8
0
100
AcDbLine
 62
7
  6
CONTINUOUS
 10
-428.4352113602
 20
-411.0197503813
 11
-437.4352113602
 21
-411.0197503813
  0
LINE
  5
594
100
AcDbEntity
  8
0
100
AcDbLine
 62
7
  6
CONTINUOUS
 10
-437.4352113602
 20
-402.0197503813
 11
-428.4352113602
 21
-402.0197503813
  0
LINE
  5
595
100
AcDbEntity
  8
0
100
AcDbLine
 62
7
  6
CONTINUOUS
 10
-237.4352113602
 20
-402.0197503813
 11
-228.4352113602
 21
-402.0197503813
  0
LINE
  5
596
100
AcDbEntity
  8
0
100
AcDbLine
 62
7
  6
CONTINUOUS
 10
-228.4352113602
 20
-395.1447503813
 11
-237.4352113602
 21
-395.1447503813
  0
LINE
  5
597
100
AcDbEntity
  8
0
100
AcDbLine
 62
7
  6
CONTINUOUS
 10
-428.4352113602
 20
-395.1447503813
 11
-437.4352113602
 21
-395.1447503813
  0
LINE
  5
598
100
AcDbEntity
  8
0
100
AcDbLine
 62
7
  6
CONTINUOUS
 10
-437.4352113602
 20
-386.1447503813
 11
-428.4352113602
 21
-386.1447503813
  0
LINE
  5
599
100
AcDbEntity
  8
0
100
AcDbLine
 62
7
  6
CONTINUOUS
 10
-237.4352113602
 20
-386.1447503813
 11
-228.4352113602
 21
-386.1447503813
  0
LINE
  5
59A
100
AcDbEntity
  8
0
100
AcDbLine
 62
7
  6
CONTINUOUS
 10
-228.4352113602
 20
-382.4447503813
 11
-237.4352113602
 21
-382.4447503813
  0
LINE
  5
59B
100
AcDbEntity
  8
0
100
AcDbLine
 62
7
  6
CONTINUOUS
 10
-428.4352113602
 20
-382.4447503813
 11
-437.4352113602
 21
-382.4447503813
  0
LINE
  5
59C
100
AcDbEntity
  8
0
100
AcDbLine
 62
7
  6
CONTINUOUS
 10
-437.4352113602
 20
-373.4447503813
 11
-428.4352113602
 21
-373.4447503813
  0
LINE
  5
59D
100
AcDbEntity
  8
0
100
AcDbLine
 62
7
  6
CONTINUOUS
 10
-237.4352113602
 20
-373.4447503813
 11
-228.4352113602
 21
-373.4447503813
  0
LINE
  5
59E
100
AcDbEntity
  8
0
100
AcDbLine
 62
7
  6
CONTINUOUS
 10
-228.4352113602
 20
-366.5697503813
 11
-237.4352113602
 21
-366.5697503813
  0
LINE
  5
59F
100
AcDbEntity
  8
0
100
AcDbLine
 62
7
  6
CONTINUOUS
 10
-428.4352113602
 20
-366.5697503813
 11
-437.4352113602
 21
-366.5697503813
  0
LINE
  5
5A0
100
AcDbEntity
  8
0
100
AcDbLine
 62
7
  6
CONTINUOUS
 10
-437.4352113602
 20
-357.5697503813
 11
-428.4352113602
 21
-357.5697503813
  0
LINE
  5
5A1
100
AcDbEntity
  8
0
100
AcDbLine
 62
7
  6
CONTINUOUS
 10
-237.4352113602
 20
-357.5697503813
 11
-228.4352113602
 21
-357.5697503813
  0
LINE
  5
5A2
100
AcDbEntity
  8
0
100
AcDbLine
 62
7
  6
CONTINUOUS
 10
-228.4352113602
 20
-350.6947503813
 11
-237.4352113602
 21
-350.6947503813
  0
LINE
  5
5A3
100
AcDbEntity
  8
0
100
AcDbLine
 62
7
  6
CONTINUOUS
 10
-428.4352113602
 20
-350.6947503813
 11
-437.4352113602
 21
-350.6947503813
  0
LINE
  5
5A4
100
AcDbEntity
  8
0
100
AcDbLine
 62
7
  6
CONTINUOUS
 10
-437.4352113602
 20
-341.6947503813
 11
-428.4352113602
 21
-341.6947503813
  0
LINE
  5
5A5
100
AcDbEntity
  8
0
100
AcDbLine
 62
7
  6
CONTINUOUS
 10
-237.4352113602
 20
-341.6947503813
 11
-228.4352113602
 21
-341.6947503813
  0
LINE
  5
5A6
100
AcDbEntity
  8
0
100
AcDbLine
 62
7
  6
CONTINUOUS
 10
-228.4352113602
 20
-337.9947503813
 11
-237.4352113602
 21
-337.9947503813
  0
LINE
  5
5A7
100
AcDbEntity
  8
0
100
AcDbLine
 62
7
  6
CONTINUOUS
 10
-428.4352113602
 20
-337.9947503813
 11
-437.4352113602
 21
-337.9947503813
  0
LINE
  5
5A8
100
AcDbEntity
  8
0
100
AcDbLine
 62
7
  6
CONTINUOUS
 10
-437.4352113602
 20
-328.9947503813
 11
-428.4352113602
 21
-328.9947503813
  0
LINE
  5
5A9
100
AcDbEntity
  8
0
100
AcDbLine
 62
7
  6
CONTINUOUS
 10
-237.4352113602
 20
-328.9947503813
 11
-228.4352113602
 21
-328.9947503813
  0
LINE
  5
5AA
100
AcDbEntity
  8
0
100
AcDbLine
 62
7
  6
CONTINUOUS
 10
-228.4352113602
 20
-322.1197503813
 11
-237.4352113602
 21
-322.1197503813
  0
LINE
  5
5AB
100
AcDbEntity
  8
0
100
AcDbLine
 62
7
  6
CONTINUOUS
 10
-428.4352113602
 20
-322.1197503813
 11
-437.4352113602
 21
-322.1197503813
  0
LINE
  5
5AC
100
AcDbEntity
  8
0
100
AcDbLine
 62
7
  6
CONTINUOUS
 10
-437.4352113602
 20
-313.1197503813
 11
-428.4352113602
 21
-313.1197503813
  0
LINE
  5
5AD
100
AcDbEntity
  8
0
100
AcDbLine
 62
7
  6
CONTINUOUS
 10
-237.4352113602
 20
-313.1197503813
 11
-228.4352113602
 21
-313.1197503813
  0
LINE
  5
5AE
100
AcDbEntity
  8
0
100
AcDbLine
 62
7
  6
CONTINUOUS
 10
-228.4352113602
 20
-306.2447503813
 11
-237.4352113602
 21
-306.2447503813
  0
LINE
  5
5AF
100
AcDbEntity
  8
0
100
AcDbLine
 62
7
  6
CONTINUOUS
 10
-428.4352113602
 20
-306.2447503813
 11
-437.4352113602
 21
-306.2447503813
  0
LINE
  5
5B0
100
AcDbEntity
  8
0
100
AcDbLine
 62
7
  6
CONTINUOUS
 10
-437.4352113602
 20
-297.2447503813
 11
-428.4352113602
 21
-297.2447503813
  0
LINE
  5
5B1
100
AcDbEntity
  8
0
100
AcDbLine
 62
7
  6
CONTINUOUS
 10
-237.4352113602
 20
-297.2447503813
 11
-228.4352113602
 21
-297.2447503813
  0
LINE
  5
5B2
100
AcDbEntity
  8
0
100
AcDbLine
 62
7
  6
CONTINUOUS
 10
-228.4352113602
 20
-293.5447503813
 11
-237.4352113602
 21
-293.5447503813
  0
LINE
  5
5B3
100
AcDbEntity
  8
0
100
AcDbLine
 62
7
  6
CONTINUOUS
 10
-428.4352113602
 20
-293.5447503813
 11
-437.4352113602
 21
-293.5447503813
  0
LINE
  5
5B4
100
AcDbEntity
  8
0
100
AcDbLine
 62
7
  6
CONTINUOUS
 10
-437.4352113602
 20
-284.5447503813
 11
-428.4352113602
 21
-284.5447503813
  0
LINE
  5
5B5
100
AcDbEntity
  8
0
100
AcDbLine
 62
7
  6
CONTINUOUS
 10
-237.4352113602
 20
-284.5447503813
 11
-228.4352113602
 21
-284.5447503813
  0
LINE
  5
5B6
100
AcDbEntity
  8
0
100
AcDbLine
 62
7
  6
CONTINUOUS
 10
-228.4352113602
 20
-277.6697503813
 11
-237.4352113602
 21
-277.6697503813
  0
LINE
  5
5B7
100
AcDbEntity
  8
0
100
AcDbLine
 62
7
  6
CONTINUOUS
 10
-428.4352113602
 20
-277.6697503813
 11
-437.4352113602
 21
-277.6697503813
  0
LINE
  5
5B8
100
AcDbEntity
  8
0
100
AcDbLine
 62
7
  6
CONTINUOUS
 10
-437.4352113602
 20
-268.6697503813
 11
-428.4352113602
 21
-268.6697503813
  0
LINE
  5
5B9
100
AcDbEntity
  8
0
100
AcDbLine
 62
7
  6
CONTINUOUS
 10
-237.4352113602
 20
-268.6697503813
 11
-228.4352113602
 21
-268.6697503813
  0
LINE
  5
5BA
100
AcDbEntity
  8
0
100
AcDbLine
 62
7
  6
CONTINUOUS
 10
-228.4352113602
 20
-261.7947503813
 11
-237.4352113602
 21
-261.7947503813
  0
LINE
  5
5BB
100
AcDbEntity
  8
0
100
AcDbLine
 62
7
  6
CONTINUOUS
 10
-428.4352113602
 20
-261.7947503813
 11
-437.4352113602
 21
-261.7947503813
  0
LINE
  5
5BC
100
AcDbEntity
  8
0
100
AcDbLine
 62
7
  6
CONTINUOUS
 10
-437.4352113602
 20
-252.7947503813
 11
-428.4352113602
 21
-252.7947503813
  0
LINE
  5
5BD
100
AcDbEntity
  8
0
100
AcDbLine
 62
7
  6
CONTINUOUS
 10
-237.4352113602
 20
-252.7947503813
 11
-228.4352113602
 21
-252.7947503813
  0
LINE
  5
5BE
100
AcDbEntity
  8
0
100
AcDbLine
 62
7
  6
CONTINUOUS
 10
-228.4352113602
 20
-249.0947503813
 11
-237.4352113602
 21
-249.0947503813
  0
LINE
  5
5BF
100
AcDbEntity
  8
0
100
AcDbLine
 62
7
  6
CONTINUOUS
 10
-428.4352113602
 20
-249.0947503813
 11
-437.4352113602
 21
-249.0947503813
  0
LINE
  5
5C0
100
AcDbEntity
  8
0
100
AcDbLine
 62
7
  6
CONTINUOUS
 10
-437.4352113602
 20
-240.0947503813
 11
-428.4352113602
 21
-240.0947503813
  0
LINE
  5
5C1
100
AcDbEntity
  8
0
100
AcDbLine
 62
7
  6
CONTINUOUS
 10
-237.4352113602
 20
-240.0947503813
 11
-228.4352113602
 21
-240.0947503813
  0
LINE
  5
5C2
100
AcDbEntity
  8
0
100
AcDbLine
 62
7
  6
CONTINUOUS
 10
-228.4352113602
 20
-233.2197503813
 11
-237.4352113602
 21
-233.2197503813
  0
LINE
  5
5C3
100
AcDbEntity
  8
0
100
AcDbLine
 62
7
  6
CONTINUOUS
 10
-428.4352113602
 20
-233.2197503813
 11
-437.4352113602
 21
-233.2197503813
  0
LINE
  5
5C4
100
AcDbEntity
  8
0
100
AcDbLine
 62
7
  6
CONTINUOUS
 10
-437.4352113602
 20
-224.2197503813
 11
-428.4352113602
 21
-224.2197503813
  0
LINE
  5
5C5
100
AcDbEntity
  8
0
100
AcDbLine
 62
7
  6
CONTINUOUS
 10
-237.4352113602
 20
-224.2197503813
 11
-228.4352113602
 21
-224.2197503813
  0
LINE
  5
5C6
100
AcDbEntity
  8
0
100
AcDbLine
 62
7
  6
CONTINUOUS
 10
-228.4352113602
 20
-217.3447503813
 11
-237.4352113602
 21
-217.3447503813
  0
LINE
  5
5C7
100
AcDbEntity
  8
0
100
AcDbLine
 62
7
  6
CONTINUOUS
 10
-428.4352113602
 20
-217.3447503813
 11
-437.4352113602
 21
-217.3447503813
  0
LINE
  5
5C8
100
AcDbEntity
  8
0
100
AcDbLine
 62
7
  6
CONTINUOUS
 10
-466.0352113602
 20
896.3052496187
 11
-466.0352113602
 21
-953.6947503813
  0
LINE
  5
5C9
100
AcDbEntity
  8
0
100
AcDbLine
 62
7
  6
CONTINUOUS
 10
-437.4352113602
 20
-208.3447503813
 11
-428.4352113602
 21
-208.3447503813
  0
LINE
  5
5CA
100
AcDbEntity
  8
0
100
AcDbLine
 62
7
  6
CONTINUOUS
 10
-237.4352113602
 20
-208.3447503813
 11
-228.4352113602
 21
-208.3447503813
  0
LINE
  5
5CB
100
AcDbEntity
  8
0
100
AcDbLine
 62
7
  6
CONTINUOUS
 10
-228.4352113602
 20
-204.6447503813
 11
-237.4352113602
 21
-204.6447503813
  0
LINE
  5
5CC
100
AcDbEntity
  8
0
100
AcDbLine
 62
7
  6
CONTINUOUS
 10
-428.4352113602
 20
-204.6447503813
 11
-437.4352113602
 21
-204.6447503813
  0
LINE
  5
5CD
100
AcDbEntity
  8
0
100
AcDbLine
 62
7
  6
CONTINUOUS
 10
-437.4352113602
 20
-195.6447503813
 11
-428.4352113602
 21
-195.6447503813
  0
LINE
  5
5CE
100
AcDbEntity
  8
0
100
AcDbLine
 62
7
  6
CONTINUOUS
 10
-237.4352113602
 20
-195.6447503813
 11
-228.4352113602
 21
-195.6447503813
  0
LINE
  5
5CF
100
AcDbEntity
  8
0
100
AcDbLine
 62
7
  6
CONTINUOUS
 10
-228.4352113602
 20
-188.7697503813
 11
-237.4352113602
 21
-188.7697503813
  0
LINE
  5
5D0
100
AcDbEntity
  8
0
100
AcDbLine
 62
7
  6
CONTINUOUS
 10
-428.4352113602
 20
-188.7697503813
 11
-437.4352113602
 21
-188.7697503813
  0
LINE
  5
5D1
100
AcDbEntity
  8
0
100
AcDbLine
 62
7
  6
CONTINUOUS
 10
-437.4352113602
 20
-179.7697503813
 11
-428.4352113602
 21
-179.7697503813
  0
LINE
  5
5D2
100
AcDbEntity
  8
0
100
AcDbLine
 62
7
  6
CONTINUOUS
 10
-237.4352113602
 20
-179.7697503813
 11
-228.4352113602
 21
-179.7697503813
  0
LINE
  5
5D3
100
AcDbEntity
  8
0
100
AcDbLine
 62
7
  6
CONTINUOUS
 10
-228.4352113602
 20
-172.8947503813
 11
-237.4352113602
 21
-172.8947503813
  0
LINE
  5
5D4
100
AcDbEntity
  8
0
100
AcDbLine
 62
7
  6
CONTINUOUS
 10
-428.4352113602
 20
-172.8947503813
 11
-437.4352113602
 21
-172.8947503813
  0
LINE
  5
5D5
100
AcDbEntity
  8
0
100
AcDbLine
 62
7
  6
CONTINUOUS
 10
-437.4352113602
 20
-163.8947503813
 11
-428.4352113602
 21
-163.8947503813
  0
LINE
  5
5D6
100
AcDbEntity
  8
0
100
AcDbLine
 62
7
  6
CONTINUOUS
 10
-237.4352113602
 20
-163.8947503813
 11
-228.4352113602
 21
-163.8947503813
  0
LINE
  5
5D7
100
AcDbEntity
  8
0
100
AcDbLine
 62
7
  6
CONTINUOUS
 10
-228.4352113602
 20
-160.1947503813
 11
-237.4352113602
 21
-160.1947503813
  0
LINE
  5
5D8
100
AcDbEntity
  8
0
100
AcDbLine
 62
7
  6
CONTINUOUS
 10
-428.4352113602
 20
-160.1947503813
 11
-437.4352113602
 21
-160.1947503813
  0
LINE
  5
5D9
100
AcDbEntity
  8
0
100
AcDbLine
 62
7
  6
CONTINUOUS
 10
-437.4352113602
 20
-151.1947503813
 11
-428.4352113602
 21
-151.1947503813
  0
LINE
  5
5DA
100
AcDbEntity
  8
0
100
AcDbLine
 62
7
  6
CONTINUOUS
 10
-237.4352113602
 20
-151.1947503813
 11
-228.4352113602
 21
-151.1947503813
  0
LINE
  5
5DB
100
AcDbEntity
  8
0
100
AcDbLine
 62
253
  6
CONTINUOUS
 10
-463.5352113602
 20
896.3052496187
 11
-463.5352113602
 21
-953.6947503813
  0
LINE
  5
5DC
100
AcDbEntity
  8
0
100
AcDbLine
 62
253
  6
CONTINUOUS
 10
-451.0352113602
 20
896.3052496187
 11
-451.0352113602
 21
-953.6947503813
  0
LINE
  5
5DD
100
AcDbEntity
  8
RACCORDO
100
AcDbLine
 62
7
  6
CONTINUOUS
 10
-450.0352113602
 20
-982.1947503813
 11
-450.0352113602
 21
-961.1947503813
  0
LINE
  5
5DE
100
AcDbEntity
  8
0
100
AcDbLine
 62
7
  6
CONTINUOUS
 10
-450.0352113602
 20
903.8052496187
 11
-450.0352113602
 21
-961.1947503813
  0
LINE
  5
5DF
100
AcDbEntity
  8
RACCORDO
100
AcDbLine
 62
7
  6
CONTINUOUS
 10
-450.0352113602
 20
903.8052496187
 11
-450.0352113602
 21
924.8052496187
  0
LINE
  5
5E0
100
AcDbEntity
  8
RACCORDO
100
AcDbLine
 62
7
  6
CONTINUOUS
 10
-448.0352113602
 20
903.8052496187
 11
-448.0352113602
 21
924.8052496187
  0
LINE
  5
5E1
100
AcDbEntity
  8
RACCORDO
100
AcDbLine
 62
7
  6
CONTINUOUS
 10
-448.0352113602
 20
-961.1947503813
 11
-448.0352113602
 21
-982.1947503813
  0
LINE
  5
5E2
100
AcDbEntity
  8
0
100
AcDbLine
 62
253
  6
CONTINUOUS
 10
-445.0352113602
 20
903.8052496187
 11
-445.0352113602
 21
-961.1947503813
  0
LINE
  5
5E3
100
AcDbEntity
  8
0
100
AcDbLine
 62
7
  6
CONTINUOUS
 10
-437.4352113602
 20
-960.2947503813
 11
-437.4352113602
 21
-951.2947503813
  0
LINE
  5
5E4
100
AcDbEntity
  8
0
100
AcDbLine
 62
7
  6
CONTINUOUS
 10
-437.4352113602
 20
-944.4197503813
 11
-437.4352113602
 21
-935.4197503813
  0
LINE
  5
5E5
100
AcDbEntity
  8
0
100
AcDbLine
 62
7
  6
CONTINUOUS
 10
-437.4352113602
 20
-928.5447503813
 11
-437.4352113602
 21
-919.5447503813
  0
LINE
  5
5E6
100
AcDbEntity
  8
0
100
AcDbLine
 62
7
  6
CONTINUOUS
 10
-437.4352113602
 20
-915.8447503813
 11
-437.4352113602
 21
-906.8447503813
  0
LINE
  5
5E7
100
AcDbEntity
  8
0
100
AcDbLine
 62
7
  6
CONTINUOUS
 10
-437.4352113602
 20
-899.9697503813
 11
-437.4352113602
 21
-890.9697503813
  0
LINE
  5
5E8
100
AcDbEntity
  8
0
100
AcDbLine
 62
7
  6
CONTINUOUS
 10
-437.4352113602
 20
-884.0947503813
 11
-437.4352113602
 21
-875.0947503813
  0
LINE
  5
5E9
100
AcDbEntity
  8
0
100
AcDbLine
 62
7
  6
CONTINUOUS
 10
-437.4352113602
 20
-871.3947503813
 11
-437.4352113602
 21
-862.3947503813
  0
LINE
  5
5EA
100
AcDbEntity
  8
0
100
AcDbLine
 62
7
  6
CONTINUOUS
 10
-437.4352113602
 20
-855.5197503813
 11
-437.4352113602
 21
-846.5197503813
  0
LINE
  5
5EB
100
AcDbEntity
  8
0
100
AcDbLine
 62
7
  6
CONTINUOUS
 10
-437.4352113602
 20
-839.6447503813
 11
-437.4352113602
 21
-830.6447503813
  0
LINE
  5
5EC
100
AcDbEntity
  8
0
100
AcDbLine
 62
7
  6
CONTINUOUS
 10
-437.4352113602
 20
-826.9447503813
 11
-437.4352113602
 21
-817.9447503813
  0
LINE
  5
5ED
100
AcDbEntity
  8
0
100
AcDbLine
 62
7
  6
CONTINUOUS
 10
-437.4352113602
 20
-811.0697503813
 11
-437.4352113602
 21
-802.0697503813
  0
LINE
  5
5EE
100
AcDbEntity
  8
0
100
AcDbLine
 62
7
  6
CONTINUOUS
 10
-437.4352113602
 20
-795.1947503813
 11
-437.4352113602
 21
-786.1947503813
  0
LINE
  5
5EF
100
AcDbEntity
  8
0
100
AcDbLine
 62
7
  6
CONTINUOUS
 10
-437.4352113602
 20
-782.4947503813
 11
-437.4352113602
 21
-773.4947503813
  0
LINE
  5
5F0
100
AcDbEntity
  8
0
100
AcDbLine
 62
7
  6
CONTINUOUS
 10
-437.4352113602
 20
-766.6197503813
 11
-437.4352113602
 21
-757.6197503813
  0
LINE
  5
5F1
100
AcDbEntity
  8
0
100
AcDbLine
 62
7
  6
CONTINUOUS
 10
-437.4352113602
 20
-750.7447503813
 11
-437.4352113602
 21
-741.7447503813
  0
LINE
  5
5F2
100
AcDbEntity
  8
0
100
AcDbLine
 62
7
  6
CONTINUOUS
 10
-437.4352113602
 20
-738.0447503813
 11
-437.4352113602
 21
-729.0447503813
  0
LINE
  5
5F3
100
AcDbEntity
  8
0
100
AcDbLine
 62
7
  6
CONTINUOUS
 10
-437.4352113602
 20
-722.1697503813
 11
-437.4352113602
 21
-713.1697503813
  0
LINE
  5
5F4
100
AcDbEntity
  8
0
100
AcDbLine
 62
7
  6
CONTINUOUS
 10
-437.4352113602
 20
-706.2947503813
 11
-437.4352113602
 21
-697.2947503813
  0
LINE
  5
5F5
100
AcDbEntity
  8
0
100
AcDbLine
 62
7
  6
CONTINUOUS
 10
-437.4352113602
 20
-693.5947503813
 11
-437.4352113602
 21
-684.5947503813
  0
LINE
  5
5F6
100
AcDbEntity
  8
0
100
AcDbLine
 62
7
  6
CONTINUOUS
 10
-437.4352113602
 20
-677.7197503813
 11
-437.4352113602
 21
-668.7197503813
  0
LINE
  5
5F7
100
AcDbEntity
  8
0
100
AcDbLine
 62
7
  6
CONTINUOUS
 10
-437.4352113602
 20
-661.8447503813
 11
-437.4352113602
 21
-652.8447503813
  0
LINE
  5
5F8
100
AcDbEntity
  8
0
100
AcDbLine
 62
7
  6
CONTINUOUS
 10
-437.4352113602
 20
-649.1447503813
 11
-437.4352113602
 21
-640.1447503813
  0
LINE
  5
5F9
100
AcDbEntity
  8
0
100
AcDbLine
 62
7
  6
CONTINUOUS
 10
-437.4352113602
 20
-633.2697503813
 11
-437.4352113602
 21
-624.2697503813
  0
LINE
  5
5FA
100
AcDbEntity
  8
0
100
AcDbLine
 62
7
  6
CONTINUOUS
 10
-437.4352113602
 20
-617.3947503813
 11
-437.4352113602
 21
-608.3947503813
  0
LINE
  5
5FB
100
AcDbEntity
  8
0
100
AcDbLine
 62
7
  6
CONTINUOUS
 10
-437.4352113602
 20
-604.6947503813
 11
-437.4352113602
 21
-595.6947503813
  0
LINE
  5
5FC
100
AcDbEntity
  8
0
100
AcDbLine
 62
7
  6
CONTINUOUS
 10
-437.4352113602
 20
-588.8197503813
 11
-437.4352113602
 21
-579.8197503813
  0
LINE
  5
5FD
100
AcDbEntity
  8
0
100
AcDbLine
 62
7
  6
CONTINUOUS
 10
-437.4352113602
 20
-572.9447503813
 11
-437.4352113602
 21
-563.9447503813
  0
LINE
  5
5FE
100
AcDbEntity
  8
0
100
AcDbLine
 62
7
  6
CONTINUOUS
 10
-437.4352113602
 20
-560.2447503813
 11
-437.4352113602
 21
-551.2447503813
  0
LINE
  5
5FF
100
AcDbEntity
  8
0
100
AcDbLine
 62
7
  6
CONTINUOUS
 10
-437.4352113602
 20
-544.3697503813
 11
-437.4352113602
 21
-535.3697503813
  0
LINE
  5
600
100
AcDbEntity
  8
0
100
AcDbLine
 62
7
  6
CONTINUOUS
 10
-437.4352113602
 20
-528.4947503813
 11
-437.4352113602
 21
-519.4947503813
  0
LINE
  5
601
100
AcDbEntity
  8
0
100
AcDbLine
 62
7
  6
CONTINUOUS
 10
-437.4352113602
 20
-515.7947503813
 11
-437.4352113602
 21
-506.7947503813
  0
LINE
  5
602
100
AcDbEntity
  8
0
100
AcDbLine
 62
7
  6
CONTINUOUS
 10
-437.4352113602
 20
-499.9197503813
 11
-437.4352113602
 21
-490.9197503813
  0
LINE
  5
603
100
AcDbEntity
  8
0
100
AcDbLine
 62
7
  6
CONTINUOUS
 10
-437.4352113602
 20
-484.0447503813
 11
-437.4352113602
 21
-475.0447503813
  0
LINE
  5
604
100
AcDbEntity
  8
0
100
AcDbLine
 62
7
  6
CONTINUOUS
 10
-437.4352113602
 20
-471.3447503813
 11
-437.4352113602
 21
-462.3447503813
  0
LINE
  5
605
100
AcDbEntity
  8
0
100
AcDbLine
 62
7
  6
CONTINUOUS
 10
-437.4352113602
 20
-455.4697503813
 11
-437.4352113602
 21
-446.4697503813
  0
LINE
  5
606
100
AcDbEntity
  8
0
100
AcDbLine
 62
7
  6
CONTINUOUS
 10
-437.4352113602
 20
-439.5947503813
 11
-437.4352113602
 21
-430.5947503813
  0
LINE
  5
607
100
AcDbEntity
  8
0
100
AcDbLine
 62
7
  6
CONTINUOUS
 10
-437.4352113602
 20
-426.8947503813
 11
-437.4352113602
 21
-417.8947503813
  0
LINE
  5
608
100
AcDbEntity
  8
0
100
AcDbLine
 62
7
  6
CONTINUOUS
 10
-437.4352113602
 20
-411.0197503813
 11
-437.4352113602
 21
-402.0197503813
  0
LINE
  5
609
100
AcDbEntity
  8
0
100
AcDbLine
 62
7
  6
CONTINUOUS
 10
-437.4352113602
 20
-395.1447503813
 11
-437.4352113602
 21
-386.1447503813
  0
LINE
  5
60A
100
AcDbEntity
  8
0
100
AcDbLine
 62
7
  6
CONTINUOUS
 10
-437.4352113602
 20
-382.4447503813
 11
-437.4352113602
 21
-373.4447503813
  0
LINE
  5
60B
100
AcDbEntity
  8
0
100
AcDbLine
 62
7
  6
CONTINUOUS
 10
-437.4352113602
 20
-366.5697503813
 11
-437.4352113602
 21
-357.5697503813
  0
LINE
  5
60C
100
AcDbEntity
  8
0
100
AcDbLine
 62
7
  6
CONTINUOUS
 10
-437.4352113602
 20
-350.6947503813
 11
-437.4352113602
 21
-341.6947503813
  0
LINE
  5
60D
100
AcDbEntity
  8
0
100
AcDbLine
 62
7
  6
CONTINUOUS
 10
-437.4352113602
 20
-337.9947503813
 11
-437.4352113602
 21
-328.9947503813
  0
LINE
  5
60E
100
AcDbEntity
  8
0
100
AcDbLine
 62
7
  6
CONTINUOUS
 10
-437.4352113602
 20
-322.1197503813
 11
-437.4352113602
 21
-313.1197503813
  0
LINE
  5
60F
100
AcDbEntity
  8
0
100
AcDbLine
 62
7
  6
CONTINUOUS
 10
-437.4352113602
 20
-306.2447503813
 11
-437.4352113602
 21
-297.2447503813
  0
LINE
  5
610
100
AcDbEntity
  8
0
100
AcDbLine
 62
7
  6
CONTINUOUS
 10
-437.4352113602
 20
-293.5447503813
 11
-437.4352113602
 21
-284.5447503813
  0
LINE
  5
611
100
AcDbEntity
  8
0
100
AcDbLine
 62
7
  6
CONTINUOUS
 10
-437.4352113602
 20
-277.6697503813
 11
-437.4352113602
 21
-268.6697503813
  0
LINE
  5
612
100
AcDbEntity
  8
0
100
AcDbLine
 62
7
  6
CONTINUOUS
 10
-437.4352113602
 20
-261.7947503813
 11
-437.4352113602
 21
-252.7947503813
  0
LINE
  5
613
100
AcDbEntity
  8
0
100
AcDbLine
 62
7
  6
CONTINUOUS
 10
-437.4352113602
 20
-249.0947503813
 11
-437.4352113602
 21
-240.0947503813
  0
LINE
  5
614
100
AcDbEntity
  8
0
100
AcDbLine
 62
7
  6
CONTINUOUS
 10
-437.4352113602
 20
-233.2197503813
 11
-437.4352113602
 21
-224.2197503813
  0
LINE
  5
615
100
AcDbEntity
  8
0
100
AcDbLine
 62
7
  6
CONTINUOUS
 10
-437.4352113602
 20
-217.3447503813
 11
-437.4352113602
 21
-208.3447503813
  0
LINE
  5
616
100
AcDbEntity
  8
0
100
AcDbLine
 62
7
  6
CONTINUOUS
 10
-437.4352113602
 20
-204.6447503813
 11
-437.4352113602
 21
-195.6447503813
  0
LINE
  5
617
100
AcDbEntity
  8
0
100
AcDbLine
 62
7
  6
CONTINUOUS
 10
-437.4352113602
 20
-188.7697503813
 11
-437.4352113602
 21
-179.7697503813
  0
LINE
  5
618
100
AcDbEntity
  8
0
100
AcDbLine
 62
7
  6
CONTINUOUS
 10
-437.4352113602
 20
-172.8947503813
 11
-437.4352113602
 21
-163.8947503813
  0
LINE
  5
619
100
AcDbEntity
  8
0
100
AcDbLine
 62
7
  6
CONTINUOUS
 10
-437.4352113602
 20
-160.1947503813
 11
-437.4352113602
 21
-151.1947503813
  0
LINE
  5
61A
100
AcDbEntity
  8
0
100
AcDbLine
 62
7
  6
CONTINUOUS
 10
-437.4352113602
 20
-144.3197503813
 11
-437.4352113602
 21
-135.3197503813
  0
LINE
  5
61B
100
AcDbEntity
  8
0
100
AcDbLine
 62
7
  6
CONTINUOUS
 10
-437.4352113602
 20
-128.4447503813
 11
-437.4352113602
 21
-119.4447503813
  0
LINE
  5
61C
100
AcDbEntity
  8
0
100
AcDbLine
 62
7
  6
CONTINUOUS
 10
-437.4352113602
 20
-115.7447503813
 11
-437.4352113602
 21
-106.7447503813
  0
LINE
  5
61D
100
AcDbEntity
  8
0
100
AcDbLine
 62
7
  6
CONTINUOUS
 10
-437.4352113602
 20
-99.8697503813
 11
-437.4352113602
 21
-90.8697503813
  0
LINE
  5
61E
100
AcDbEntity
  8
0
100
AcDbLine
 62
7
  6
CONTINUOUS
 10
-437.4352113602
 20
-83.9947503813
 11
-437.4352113602
 21
-74.9947503813
  0
LINE
  5
61F
100
AcDbEntity
  8
0
100
AcDbLine
 62
7
  6
CONTINUOUS
 10
-437.4352113602
 20
-71.2947503813
 11
-437.4352113602
 21
-62.2947503813
  0
LINE
  5
620
100
AcDbEntity
  8
0
100
AcDbLine
 62
7
  6
CONTINUOUS
 10
-437.4352113602
 20
-55.4197503813
 11
-437.4352113602
 21
-46.4197503813
  0
LINE
  5
621
100
AcDbEntity
  8
0
100
AcDbLine
 62
7
  6
CONTINUOUS
 10
-437.4352113602
 20
-39.5447503813
 11
-437.4352113602
 21
-30.5447503813
  0
LINE
  5
622
100
AcDbEntity
  8
0
100
AcDbLine
 62
7
  6
CONTINUOUS
 10
-437.4352113602
 20
-26.8447503813
 11
-437.4352113602
 21
-17.8447503813
  0
LINE
  5
623
100
AcDbEntity
  8
0
100
AcDbLine
 62
7
  6
CONTINUOUS
 10
-437.4352113602
 20
-10.9697503813
 11
-437.4352113602
 21
-1.9697503813
  0
LINE
  5
624
100
AcDbEntity
  8
0
100
AcDbLine
 62
7
  6
CONTINUOUS
 10
-437.4352113602
 20
4.9052496187
 11
-437.4352113602
 21
13.9052496187
  0
LINE
  5
625
100
AcDbEntity
  8
0
100
AcDbLine
 62
7
  6
CONTINUOUS
 10
-437.4352113602
 20
17.6052496187
 11
-437.4352113602
 21
26.6052496187
  0
LINE
  5
626
100
AcDbEntity
  8
0
100
AcDbLine
 62
7
  6
CONTINUOUS
 10
-437.4352113602
 20
33.4802496187
 11
-437.4352113602
 21
42.4802496187
  0
LINE
  5
627
100
AcDbEntity
  8
0
100
AcDbLine
 62
7
  6
CONTINUOUS
 10
-437.4352113602
 20
49.3552496187
 11
-437.4352113602
 21
58.3552496187
  0
LINE
  5
628
100
AcDbEntity
  8
0
100
AcDbLine
 62
7
  6
CONTINUOUS
 10
-437.4352113602
 20
62.0552496187
 11
-437.4352113602
 21
71.0552496187
  0
LINE
  5
629
100
AcDbEntity
  8
0
100
AcDbLine
 62
7
  6
CONTINUOUS
 10
-437.4352113602
 20
77.9302496187
 11
-437.4352113602
 21
86.9302496187
  0
LINE
  5
62A
100
AcDbEntity
  8
0
100
AcDbLine
 62
7
  6
CONTINUOUS
 10
-437.4352113602
 20
93.8052496187
 11
-437.4352113602
 21
102.8052496187
  0
LINE
  5
62B
100
AcDbEntity
  8
0
100
AcDbLine
 62
7
  6
CONTINUOUS
 10
-437.4352113602
 20
106.5052496187
 11
-437.4352113602
 21
115.5052496187
  0
LINE
  5
62C
100
AcDbEntity
  8
0
100
AcDbLine
 62
7
  6
CONTINUOUS
 10
-437.4352113602
 20
122.3802496187
 11
-437.4352113602
 21
131.3802496187
  0
LINE
  5
62D
100
AcDbEntity
  8
0
100
AcDbLine
 62
7
  6
CONTINUOUS
 10
-437.4352113602
 20
138.2552496187
 11
-437.4352113602
 21
147.2552496187
  0
LINE
  5
62E
100
AcDbEntity
  8
0
100
AcDbLine
 62
7
  6
CONTINUOUS
 10
-437.4352113602
 20
150.9552496187
 11
-437.4352113602
 21
159.9552496187
  0
LINE
  5
62F
100
AcDbEntity
  8
0
100
AcDbLine
 62
7
  6
CONTINUOUS
 10
-437.4352113602
 20
166.8302496187
 11
-437.4352113602
 21
175.8302496187
  0
LINE
  5
630
100
AcDbEntity
  8
0
100
AcDbLine
 62
7
  6
CONTINUOUS
 10
-437.4352113602
 20
182.7052496187
 11
-437.4352113602
 21
191.7052496187
  0
LINE
  5
631
100
AcDbEntity
  8
0
100
AcDbLine
 62
7
  6
CONTINUOUS
 10
-437.4352113602
 20
195.4052496187
 11
-437.4352113602
 21
204.4052496187
  0
LINE
  5
632
100
AcDbEntity
  8
0
100
AcDbLine
 62
7
  6
CONTINUOUS
 10
-437.4352113602
 20
211.2802496187
 11
-437.4352113602
 21
220.2802496187
  0
LINE
  5
633
100
AcDbEntity
  8
0
100
AcDbLine
 62
7
  6
CONTINUOUS
 10
-437.4352113602
 20
227.1552496187
 11
-437.4352113602
 21
236.1552496187
  0
LINE
  5
634
100
AcDbEntity
  8
0
100
AcDbLine
 62
7
  6
CONTINUOUS
 10
-437.4352113602
 20
239.8552496187
 11
-437.4352113602
 21
248.8552496187
  0
LINE
  5
635
100
AcDbEntity
  8
0
100
AcDbLine
 62
7
  6
CONTINUOUS
 10
-437.4352113602
 20
255.7302496187
 11
-437.4352113602
 21
264.7302496187
  0
LINE
  5
636
100
AcDbEntity
  8
0
100
AcDbLine
 62
7
  6
CONTINUOUS
 10
-437.4352113602
 20
271.6052496187
 11
-437.4352113602
 21
280.6052496187
  0
LINE
  5
637
100
AcDbEntity
  8
0
100
AcDbLine
 62
7
  6
CONTINUOUS
 10
-437.4352113602
 20
284.3052496187
 11
-437.4352113602
 21
293.3052496187
  0
LINE
  5
638
100
AcDbEntity
  8
0
100
AcDbLine
 62
7
  6
CONTINUOUS
 10
-437.4352113602
 20
300.1802496187
 11
-437.4352113602
 21
309.1802496187
  0
LINE
  5
639
100
AcDbEntity
  8
0
100
AcDbLine
 62
7
  6
CONTINUOUS
 10
-437.4352113602
 20
316.0552496187
 11
-437.4352113602
 21
325.0552496187
  0
LINE
  5
63A
100
AcDbEntity
  8
0
100
AcDbLine
 62
7
  6
CONTINUOUS
 10
-437.4352113602
 20
328.7552496187
 11
-437.4352113602
 21
337.7552496187
  0
LINE
  5
63B
100
AcDbEntity
  8
0
100
AcDbLine
 62
7
  6
CONTINUOUS
 10
-437.4352113602
 20
344.6302496187
 11
-437.4352113602
 21
353.6302496187
  0
LINE
  5
63C
100
AcDbEntity
  8
0
100
AcDbLine
 62
7
  6
CONTINUOUS
 10
-437.4352113602
 20
360.5052496187
 11
-437.4352113602
 21
369.5052496187
  0
LINE
  5
63D
100
AcDbEntity
  8
0
100
AcDbLine
 62
7
  6
CONTINUOUS
 10
-437.4352113602
 20
373.2052496187
 11
-437.4352113602
 21
382.2052496187
  0
LINE
  5
63E
100
AcDbEntity
  8
0
100
AcDbLine
 62
7
  6
CONTINUOUS
 10
-437.4352113602
 20
389.0802496187
 11
-437.4352113602
 21
398.0802496187
  0
LINE
  5
63F
100
AcDbEntity
  8
0
100
AcDbLine
 62
7
  6
CONTINUOUS
 10
-437.4352113602
 20
404.9552496187
 11
-437.4352113602
 21
413.9552496187
  0
LINE
  5
640
100
AcDbEntity
  8
0
100
AcDbLine
 62
7
  6
CONTINUOUS
 10
-437.4352113602
 20
417.6552496187
 11
-437.4352113602
 21
426.6552496187
  0
LINE
  5
641
100
AcDbEntity
  8
0
100
AcDbLine
 62
7
  6
CONTINUOUS
 10
-437.4352113602
 20
433.5302496187
 11
-437.4352113602
 21
442.5302496187
  0
LINE
  5
642
100
AcDbEntity
  8
0
100
AcDbLine
 62
7
  6
CONTINUOUS
 10
-437.4352113602
 20
449.4052496187
 11
-437.4352113602
 21
458.4052496187
  0
LINE
  5
643
100
AcDbEntity
  8
0
100
AcDbLine
 62
7
  6
CONTINUOUS
 10
-437.4352113602
 20
462.1052496187
 11
-437.4352113602
 21
471.1052496187
  0
LINE
  5
644
100
AcDbEntity
  8
0
100
AcDbLine
 62
7
  6
CONTINUOUS
 10
-437.4352113602
 20
477.9802496187
 11
-437.4352113602
 21
486.9802496187
  0
LINE
  5
645
100
AcDbEntity
  8
0
100
AcDbLine
 62
7
  6
CONTINUOUS
 10
-437.4352113602
 20
493.8552496187
 11
-437.4352113602
 21
502.8552496187
  0
LINE
  5
646
100
AcDbEntity
  8
0
100
AcDbLine
 62
7
  6
CONTINUOUS
 10
-437.4352113602
 20
506.5552496187
 11
-437.4352113602
 21
515.5552496187
  0
LINE
  5
647
100
AcDbEntity
  8
0
100
AcDbLine
 62
7
  6
CONTINUOUS
 10
-437.4352113602
 20
522.4302496187
 11
-437.4352113602
 21
531.4302496187
  0
LINE
  5
648
100
AcDbEntity
  8
0
100
AcDbLine
 62
7
  6
CONTINUOUS
 10
-437.4352113602
 20
538.3052496187
 11
-437.4352113602
 21
547.3052496187
  0
LINE
  5
649
100
AcDbEntity
  8
0
100
AcDbLine
 62
7
  6
CONTINUOUS
 10
-437.4352113602
 20
551.0052496187
 11
-437.4352113602
 21
560.0052496187
  0
LINE
  5
64A
100
AcDbEntity
  8
0
100
AcDbLine
 62
7
  6
CONTINUOUS
 10
-437.4352113602
 20
566.8802496187
 11
-437.4352113602
 21
575.8802496187
  0
LINE
  5
64B
100
AcDbEntity
  8
0
100
AcDbLine
 62
7
  6
CONTINUOUS
 10
-437.4352113602
 20
582.7552496187
 11
-437.4352113602
 21
591.7552496187
  0
LINE
  5
64C
100
AcDbEntity
  8
0
100
AcDbLine
 62
7
  6
CONTINUOUS
 10
-437.4352113602
 20
595.4552496187
 11
-437.4352113602
 21
604.4552496187
  0
LINE
  5
64D
100
AcDbEntity
  8
0
100
AcDbLine
 62
7
  6
CONTINUOUS
 10
-437.4352113602
 20
611.3302496187
 11
-437.4352113602
 21
620.3302496187
  0
LINE
  5
64E
100
AcDbEntity
  8
0
100
AcDbLine
 62
7
  6
CONTINUOUS
 10
-437.4352113602
 20
627.2052496187
 11
-437.4352113602
 21
636.2052496187
  0
LINE
  5
64F
100
AcDbEntity
  8
0
100
AcDbLine
 62
7
  6
CONTINUOUS
 10
-437.4352113602
 20
639.9052496187
 11
-437.4352113602
 21
648.9052496187
  0
LINE
  5
650
100
AcDbEntity
  8
0
100
AcDbLine
 62
7
  6
CONTINUOUS
 10
-437.4352113602
 20
655.7802496187
 11
-437.4352113602
 21
664.7802496187
  0
LINE
  5
651
100
AcDbEntity
  8
0
100
AcDbLine
 62
7
  6
CONTINUOUS
 10
-437.4352113602
 20
671.6552496187
 11
-437.4352113602
 21
680.6552496187
  0
LINE
  5
652
100
AcDbEntity
  8
0
100
AcDbLine
 62
7
  6
CONTINUOUS
 10
-437.4352113602
 20
684.3552496187
 11
-437.4352113602
 21
693.3552496187
  0
LINE
  5
653
100
AcDbEntity
  8
0
100
AcDbLine
 62
7
  6
CONTINUOUS
 10
-437.4352113602
 20
700.2302496187
 11
-437.4352113602
 21
709.2302496187
  0
LINE
  5
654
100
AcDbEntity
  8
0
100
AcDbLine
 62
7
  6
CONTINUOUS
 10
-437.4352113602
 20
716.1052496187
 11
-437.4352113602
 21
725.1052496187
  0
LINE
  5
655
100
AcDbEntity
  8
0
100
AcDbLine
 62
7
  6
CONTINUOUS
 10
-437.4352113602
 20
728.8052496187
 11
-437.4352113602
 21
737.8052496187
  0
LINE
  5
656
100
AcDbEntity
  8
0
100
AcDbLine
 62
7
  6
CONTINUOUS
 10
-437.4352113602
 20
744.6802496187
 11
-437.4352113602
 21
753.6802496187
  0
LINE
  5
657
100
AcDbEntity
  8
0
100
AcDbLine
 62
7
  6
CONTINUOUS
 10
-437.4352113602
 20
760.5552496187
 11
-437.4352113602
 21
769.5552496187
  0
LINE
  5
658
100
AcDbEntity
  8
0
100
AcDbLine
 62
7
  6
CONTINUOUS
 10
-437.4352113602
 20
773.2552496187
 11
-437.4352113602
 21
782.2552496187
  0
LINE
  5
659
100
AcDbEntity
  8
0
100
AcDbLine
 62
7
  6
CONTINUOUS
 10
-437.4352113602
 20
789.1302496187
 11
-437.4352113602
 21
798.1302496187
  0
LINE
  5
65A
100
AcDbEntity
  8
0
100
AcDbLine
 62
7
  6
CONTINUOUS
 10
-437.4352113602
 20
805.0052496187
 11
-437.4352113602
 21
814.0052496187
  0
LINE
  5
65B
100
AcDbEntity
  8
0
100
AcDbLine
 62
7
  6
CONTINUOUS
 10
-437.4352113602
 20
817.7052496187
 11
-437.4352113602
 21
826.7052496187
  0
LINE
  5
65C
100
AcDbEntity
  8
0
100
AcDbLine
 62
7
  6
CONTINUOUS
 10
-437.4352113602
 20
833.5802496187
 11
-437.4352113602
 21
842.5802496187
  0
LINE
  5
65D
100
AcDbEntity
  8
0
100
AcDbLine
 62
7
  6
CONTINUOUS
 10
-437.4352113602
 20
849.4552496187
 11
-437.4352113602
 21
858.4552496187
  0
LINE
  5
65E
100
AcDbEntity
  8
0
100
AcDbLine
 62
7
  6
CONTINUOUS
 10
-437.4352113602
 20
862.1552496187
 11
-437.4352113602
 21
871.1552496187
  0
LINE
  5
65F
100
AcDbEntity
  8
0
100
AcDbLine
 62
7
  6
CONTINUOUS
 10
-437.4352113602
 20
878.0302496187
 11
-437.4352113602
 21
887.0302496187
  0
LINE
  5
660
100
AcDbEntity
  8
0
100
AcDbLine
 62
7
  6
CONTINUOUS
 10
-437.4352113602
 20
893.9052496187
 11
-437.4352113602
 21
902.9052496187
  0
LINE
  5
661
100
AcDbEntity
  8
0
100
AcDbLine
 62
7
  6
CONTINUOUS
 10
-428.4352113602
 20
902.9052496187
 11
-428.4352113602
 21
893.9052496187
  0
LINE
  5
662
100
AcDbEntity
  8
0
100
AcDbLine
 62
7
  6
CONTINUOUS
 10
-428.4352113602
 20
887.0302496187
 11
-428.4352113602
 21
878.0302496187
  0
LINE
  5
663
100
AcDbEntity
  8
0
100
AcDbLine
 62
7
  6
CONTINUOUS
 10
-428.4352113602
 20
871.1552496187
 11
-428.4352113602
 21
862.1552496187
  0
LINE
  5
664
100
AcDbEntity
  8
0
100
AcDbLine
 62
7
  6
CONTINUOUS
 10
-428.4352113602
 20
858.4552496187
 11
-428.4352113602
 21
849.4552496187
  0
LINE
  5
665
100
AcDbEntity
  8
0
100
AcDbLine
 62
7
  6
CONTINUOUS
 10
-428.4352113602
 20
842.5802496187
 11
-428.4352113602
 21
833.5802496187
  0
LINE
  5
666
100
AcDbEntity
  8
0
100
AcDbLine
 62
7
  6
CONTINUOUS
 10
-428.4352113602
 20
826.7052496187
 11
-428.4352113602
 21
817.7052496187
  0
LINE
  5
667
100
AcDbEntity
  8
0
100
AcDbLine
 62
7
  6
CONTINUOUS
 10
-428.4352113602
 20
814.0052496187
 11
-428.4352113602
 21
805.0052496187
  0
LINE
  5
668
100
AcDbEntity
  8
0
100
AcDbLine
 62
7
  6
CONTINUOUS
 10
-428.4352113602
 20
798.1302496187
 11
-428.4352113602
 21
789.1302496187
  0
LINE
  5
669
100
AcDbEntity
  8
0
100
AcDbLine
 62
7
  6
CONTINUOUS
 10
-428.4352113602
 20
782.2552496187
 11
-428.4352113602
 21
773.2552496187
  0
LINE
  5
66A
100
AcDbEntity
  8
0
100
AcDbLine
 62
7
  6
CONTINUOUS
 10
-428.4352113602
 20
769.5552496187
 11
-428.4352113602
 21
760.5552496187
  0
LINE
  5
66B
100
AcDbEntity
  8
0
100
AcDbLine
 62
7
  6
CONTINUOUS
 10
-428.4352113602
 20
753.6802496187
 11
-428.4352113602
 21
744.6802496187
  0
LINE
  5
66C
100
AcDbEntity
  8
0
100
AcDbLine
 62
7
  6
CONTINUOUS
 10
-428.4352113602
 20
737.8052496187
 11
-428.4352113602
 21
728.8052496187
  0
LINE
  5
66D
100
AcDbEntity
  8
0
100
AcDbLine
 62
7
  6
CONTINUOUS
 10
-428.4352113602
 20
725.1052496187
 11
-428.4352113602
 21
716.1052496187
  0
LINE
  5
66E
100
AcDbEntity
  8
0
100
AcDbLine
 62
7
  6
CONTINUOUS
 10
-428.4352113602
 20
709.2302496187
 11
-428.4352113602
 21
700.2302496187
  0
LINE
  5
66F
100
AcDbEntity
  8
0
100
AcDbLine
 62
7
  6
CONTINUOUS
 10
-428.4352113602
 20
693.3552496187
 11
-428.4352113602
 21
684.3552496187
  0
LINE
  5
670
100
AcDbEntity
  8
0
100
AcDbLine
 62
7
  6
CONTINUOUS
 10
-428.4352113602
 20
680.6552496187
 11
-428.4352113602
 21
671.6552496187
  0
LINE
  5
671
100
AcDbEntity
  8
0
100
AcDbLine
 62
7
  6
CONTINUOUS
 10
-428.4352113602
 20
664.7802496187
 11
-428.4352113602
 21
655.7802496187
  0
LINE
  5
672
100
AcDbEntity
  8
0
100
AcDbLine
 62
7
  6
CONTINUOUS
 10
-428.4352113602
 20
648.9052496187
 11
-428.4352113602
 21
639.9052496187
  0
LINE
  5
673
100
AcDbEntity
  8
0
100
AcDbLine
 62
7
  6
CONTINUOUS
 10
-428.4352113602
 20
636.2052496187
 11
-428.4352113602
 21
627.2052496187
  0
LINE
  5
674
100
AcDbEntity
  8
0
100
AcDbLine
 62
7
  6
CONTINUOUS
 10
-428.4352113602
 20
620.3302496187
 11
-428.4352113602
 21
611.3302496187
  0
LINE
  5
675
100
AcDbEntity
  8
0
100
AcDbLine
 62
7
  6
CONTINUOUS
 10
-428.4352113602
 20
604.4552496187
 11
-428.4352113602
 21
595.4552496187
  0
LINE
  5
676
100
AcDbEntity
  8
0
100
AcDbLine
 62
7
  6
CONTINUOUS
 10
-428.4352113602
 20
591.7552496187
 11
-428.4352113602
 21
582.7552496187
  0
LINE
  5
677
100
AcDbEntity
  8
0
100
AcDbLine
 62
7
  6
CONTINUOUS
 10
-428.4352113602
 20
575.8802496187
 11
-428.4352113602
 21
566.8802496187
  0
LINE
  5
678
100
AcDbEntity
  8
0
100
AcDbLine
 62
7
  6
CONTINUOUS
 10
-428.4352113602
 20
560.0052496187
 11
-428.4352113602
 21
551.0052496187
  0
LINE
  5
679
100
AcDbEntity
  8
0
100
AcDbLine
 62
7
  6
CONTINUOUS
 10
-428.4352113602
 20
547.3052496187
 11
-428.4352113602
 21
538.3052496187
  0
LINE
  5
67A
100
AcDbEntity
  8
0
100
AcDbLine
 62
7
  6
CONTINUOUS
 10
-428.4352113602
 20
531.4302496187
 11
-428.4352113602
 21
522.4302496187
  0
LINE
  5
67B
100
AcDbEntity
  8
0
100
AcDbLine
 62
7
  6
CONTINUOUS
 10
-428.4352113602
 20
515.5552496187
 11
-428.4352113602
 21
506.5552496187
  0
LINE
  5
67C
100
AcDbEntity
  8
0
100
AcDbLine
 62
7
  6
CONTINUOUS
 10
-428.4352113602
 20
502.8552496187
 11
-428.4352113602
 21
493.8552496187
  0
LINE
  5
67D
100
AcDbEntity
  8
0
100
AcDbLine
 62
7
  6
CONTINUOUS
 10
-428.4352113602
 20
486.9802496187
 11
-428.4352113602
 21
477.9802496187
  0
LINE
  5
67E
100
AcDbEntity
  8
0
100
AcDbLine
 62
7
  6
CONTINUOUS
 10
-428.4352113602
 20
471.1052496187
 11
-428.4352113602
 21
462.1052496187
  0
LINE
  5
67F
100
AcDbEntity
  8
0
100
AcDbLine
 62
7
  6
CONTINUOUS
 10
-428.4352113602
 20
458.4052496187
 11
-428.4352113602
 21
449.4052496187
  0
LINE
  5
680
100
AcDbEntity
  8
0
100
AcDbLine
 62
7
  6
CONTINUOUS
 10
-428.4352113602
 20
442.5302496187
 11
-428.4352113602
 21
433.5302496187
  0
LINE
  5
681
100
AcDbEntity
  8
0
100
AcDbLine
 62
7
  6
CONTINUOUS
 10
-428.4352113602
 20
426.6552496187
 11
-428.4352113602
 21
417.6552496187
  0
LINE
  5
682
100
AcDbEntity
  8
0
100
AcDbLine
 62
7
  6
CONTINUOUS
 10
-428.4352113602
 20
413.9552496187
 11
-428.4352113602
 21
404.9552496187
  0
LINE
  5
683
100
AcDbEntity
  8
0
100
AcDbLine
 62
7
  6
CONTINUOUS
 10
-428.4352113602
 20
398.0802496187
 11
-428.4352113602
 21
389.0802496187
  0
LINE
  5
684
100
AcDbEntity
  8
0
100
AcDbLine
 62
7
  6
CONTINUOUS
 10
-428.4352113602
 20
382.2052496187
 11
-428.4352113602
 21
373.2052496187
  0
LINE
  5
685
100
AcDbEntity
  8
0
100
AcDbLine
 62
7
  6
CONTINUOUS
 10
-428.4352113602
 20
369.5052496187
 11
-428.4352113602
 21
360.5052496187
  0
LINE
  5
686
100
AcDbEntity
  8
0
100
AcDbLine
 62
7
  6
CONTINUOUS
 10
-428.4352113602
 20
353.6302496187
 11
-428.4352113602
 21
344.6302496187
  0
LINE
  5
687
100
AcDbEntity
  8
0
100
AcDbLine
 62
7
  6
CONTINUOUS
 10
-428.4352113602
 20
337.7552496187
 11
-428.4352113602
 21
328.7552496187
  0
LINE
  5
688
100
AcDbEntity
  8
0
100
AcDbLine
 62
7
  6
CONTINUOUS
 10
-428.4352113602
 20
325.0552496187
 11
-428.4352113602
 21
316.0552496187
  0
LINE
  5
689
100
AcDbEntity
  8
0
100
AcDbLine
 62
7
  6
CONTINUOUS
 10
-428.4352113602
 20
309.1802496187
 11
-428.4352113602
 21
300.1802496187
  0
LINE
  5
68A
100
AcDbEntity
  8
0
100
AcDbLine
 62
7
  6
CONTINUOUS
 10
-428.4352113602
 20
293.3052496187
 11
-428.4352113602
 21
284.3052496187
  0
LINE
  5
68B
100
AcDbEntity
  8
0
100
AcDbLine
 62
7
  6
CONTINUOUS
 10
-428.4352113602
 20
280.6052496187
 11
-428.4352113602
 21
271.6052496187
  0
LINE
  5
68C
100
AcDbEntity
  8
0
100
AcDbLine
 62
7
  6
CONTINUOUS
 10
-428.4352113602
 20
264.7302496187
 11
-428.4352113602
 21
255.7302496187
  0
LINE
  5
68D
100
AcDbEntity
  8
0
100
AcDbLine
 62
7
  6
CONTINUOUS
 10
-428.4352113602
 20
248.8552496187
 11
-428.4352113602
 21
239.8552496187
  0
LINE
  5
68E
100
AcDbEntity
  8
0
100
AcDbLine
 62
7
  6
CONTINUOUS
 10
-428.4352113602
 20
236.1552496187
 11
-428.4352113602
 21
227.1552496187
  0
LINE
  5
68F
100
AcDbEntity
  8
0
100
AcDbLine
 62
7
  6
CONTINUOUS
 10
-428.4352113602
 20
220.2802496187
 11
-428.4352113602
 21
211.2802496187
  0
LINE
  5
690
100
AcDbEntity
  8
0
100
AcDbLine
 62
7
  6
CONTINUOUS
 10
-428.4352113602
 20
204.4052496187
 11
-428.4352113602
 21
195.4052496187
  0
LINE
  5
691
100
AcDbEntity
  8
0
100
AcDbLine
 62
7
  6
CONTINUOUS
 10
-428.4352113602
 20
191.7052496187
 11
-428.4352113602
 21
182.7052496187
  0
LINE
  5
692
100
AcDbEntity
  8
0
100
AcDbLine
 62
7
  6
CONTINUOUS
 10
-428.4352113602
 20
175.8302496187
 11
-428.4352113602
 21
166.8302496187
  0
LINE
  5
693
100
AcDbEntity
  8
0
100
AcDbLine
 62
7
  6
CONTINUOUS
 10
-428.4352113602
 20
159.9552496187
 11
-428.4352113602
 21
150.9552496187
  0
LINE
  5
694
100
AcDbEntity
  8
0
100
AcDbLine
 62
7
  6
CONTINUOUS
 10
-428.4352113602
 20
147.2552496187
 11
-428.4352113602
 21
138.2552496187
  0
LINE
  5
695
100
AcDbEntity
  8
0
100
AcDbLine
 62
7
  6
CONTINUOUS
 10
-428.4352113602
 20
131.3802496187
 11
-428.4352113602
 21
122.3802496187
  0
LINE
  5
696
100
AcDbEntity
  8
0
100
AcDbLine
 62
7
  6
CONTINUOUS
 10
-428.4352113602
 20
115.5052496187
 11
-428.4352113602
 21
106.5052496187
  0
LINE
  5
697
100
AcDbEntity
  8
0
100
AcDbLine
 62
7
  6
CONTINUOUS
 10
-428.4352113602
 20
102.8052496187
 11
-428.4352113602
 21
93.8052496187
  0
LINE
  5
698
100
AcDbEntity
  8
0
100
AcDbLine
 62
7
  6
CONTINUOUS
 10
-428.4352113602
 20
86.9302496187
 11
-428.4352113602
 21
77.9302496187
  0
LINE
  5
699
100
AcDbEntity
  8
0
100
AcDbLine
 62
7
  6
CONTINUOUS
 10
-428.4352113602
 20
71.0552496187
 11
-428.4352113602
 21
62.0552496187
  0
LINE
  5
69A
100
AcDbEntity
  8
0
100
AcDbLine
 62
7
  6
CONTINUOUS
 10
-428.4352113602
 20
58.3552496187
 11
-428.4352113602
 21
49.3552496187
  0
LINE
  5
69B
100
AcDbEntity
  8
0
100
AcDbLine
 62
7
  6
CONTINUOUS
 10
-428.4352113602
 20
42.4802496187
 11
-428.4352113602
 21
33.4802496187
  0
LINE
  5
69C
100
AcDbEntity
  8
0
100
AcDbLine
 62
7
  6
CONTINUOUS
 10
-428.4352113602
 20
26.6052496187
 11
-428.4352113602
 21
17.6052496187
  0
LINE
  5
69D
100
AcDbEntity
  8
0
100
AcDbLine
 62
7
  6
CONTINUOUS
 10
-428.4352113602
 20
13.9052496187
 11
-428.4352113602
 21
4.9052496187
  0
LINE
  5
69E
100
AcDbEntity
  8
0
100
AcDbLine
 62
7
  6
CONTINUOUS
 10
-428.4352113602
 20
-1.9697503813
 11
-428.4352113602
 21
-10.9697503813
  0
LINE
  5
69F
100
AcDbEntity
  8
0
100
AcDbLine
 62
7
  6
CONTINUOUS
 10
-428.4352113602
 20
-17.8447503813
 11
-428.4352113602
 21
-26.8447503813
  0
LINE
  5
6A0
100
AcDbEntity
  8
0
100
AcDbLine
 62
7
  6
CONTINUOUS
 10
-428.4352113602
 20
-30.5447503813
 11
-428.4352113602
 21
-39.5447503813
  0
LINE
  5
6A1
100
AcDbEntity
  8
0
100
AcDbLine
 62
7
  6
CONTINUOUS
 10
-428.4352113602
 20
-46.4197503813
 11
-428.4352113602
 21
-55.4197503813
  0
LINE
  5
6A2
100
AcDbEntity
  8
0
100
AcDbLine
 62
7
  6
CONTINUOUS
 10
-428.4352113602
 20
-62.2947503813
 11
-428.4352113602
 21
-71.2947503813
  0
LINE
  5
6A3
100
AcDbEntity
  8
0
100
AcDbLine
 62
7
  6
CONTINUOUS
 10
-428.4352113602
 20
-74.9947503813
 11
-428.4352113602
 21
-83.9947503813
  0
LINE
  5
6A4
100
AcDbEntity
  8
0
100
AcDbLine
 62
7
  6
CONTINUOUS
 10
-428.4352113602
 20
-90.8697503813
 11
-428.4352113602
 21
-99.8697503813
  0
LINE
  5
6A5
100
AcDbEntity
  8
0
100
AcDbLine
 62
7
  6
CONTINUOUS
 10
-428.4352113602
 20
-106.7447503813
 11
-428.4352113602
 21
-115.7447503813
  0
LINE
  5
6A6
100
AcDbEntity
  8
0
100
AcDbLine
 62
7
  6
CONTINUOUS
 10
-428.4352113602
 20
-119.4447503813
 11
-428.4352113602
 21
-128.4447503813
  0
LINE
  5
6A7
100
AcDbEntity
  8
0
100
AcDbLine
 62
7
  6
CONTINUOUS
 10
-428.4352113602
 20
-135.3197503813
 11
-428.4352113602
 21
-144.3197503813
  0
LINE
  5
6A8
100
AcDbEntity
  8
0
100
AcDbLine
 62
7
  6
CONTINUOUS
 10
-428.4352113602
 20
-151.1947503813
 11
-428.4352113602
 21
-160.1947503813
  0
LINE
  5
6A9
100
AcDbEntity
  8
0
100
AcDbLine
 62
7
  6
CONTINUOUS
 10
-428.4352113602
 20
-163.8947503813
 11
-428.4352113602
 21
-172.8947503813
  0
LINE
  5
6AA
100
AcDbEntity
  8
0
100
AcDbLine
 62
7
  6
CONTINUOUS
 10
-428.4352113602
 20
-179.7697503813
 11
-428.4352113602
 21
-188.7697503813
  0
LINE
  5
6AB
100
AcDbEntity
  8
0
100
AcDbLine
 62
7
  6
CONTINUOUS
 10
-428.4352113602
 20
-195.6447503813
 11
-428.4352113602
 21
-204.6447503813
  0
LINE
  5
6AC
100
AcDbEntity
  8
0
100
AcDbLine
 62
7
  6
CONTINUOUS
 10
-428.4352113602
 20
-208.3447503813
 11
-428.4352113602
 21
-217.3447503813
  0
LINE
  5
6AD
100
AcDbEntity
  8
0
100
AcDbLine
 62
7
  6
CONTINUOUS
 10
-428.4352113602
 20
-224.2197503813
 11
-428.4352113602
 21
-233.2197503813
  0
LINE
  5
6AE
100
AcDbEntity
  8
0
100
AcDbLine
 62
7
  6
CONTINUOUS
 10
-428.4352113602
 20
-240.0947503813
 11
-428.4352113602
 21
-249.0947503813
  0
LINE
  5
6AF
100
AcDbEntity
  8
0
100
AcDbLine
 62
7
  6
CONTINUOUS
 10
-428.4352113602
 20
-252.7947503813
 11
-428.4352113602
 21
-261.7947503813
  0
LINE
  5
6B0
100
AcDbEntity
  8
0
100
AcDbLine
 62
7
  6
CONTINUOUS
 10
-428.4352113602
 20
-268.6697503813
 11
-428.4352113602
 21
-277.6697503813
  0
LINE
  5
6B1
100
AcDbEntity
  8
0
100
AcDbLine
 62
7
  6
CONTINUOUS
 10
-428.4352113602
 20
-284.5447503813
 11
-428.4352113602
 21
-293.5447503813
  0
LINE
  5
6B2
100
AcDbEntity
  8
0
100
AcDbLine
 62
7
  6
CONTINUOUS
 10
-428.4352113602
 20
-297.2447503813
 11
-428.4352113602
 21
-306.2447503813
  0
LINE
  5
6B3
100
AcDbEntity
  8
0
100
AcDbLine
 62
7
  6
CONTINUOUS
 10
-428.4352113602
 20
-313.1197503813
 11
-428.4352113602
 21
-322.1197503813
  0
LINE
  5
6B4
100
AcDbEntity
  8
0
100
AcDbLine
 62
7
  6
CONTINUOUS
 10
-428.4352113602
 20
-328.9947503813
 11
-428.4352113602
 21
-337.9947503813
  0
LINE
  5
6B5
100
AcDbEntity
  8
0
100
AcDbLine
 62
7
  6
CONTINUOUS
 10
-428.4352113602
 20
-341.6947503813
 11
-428.4352113602
 21
-350.6947503813
  0
LINE
  5
6B6
100
AcDbEntity
  8
0
100
AcDbLine
 62
7
  6
CONTINUOUS
 10
-428.4352113602
 20
-357.5697503813
 11
-428.4352113602
 21
-366.5697503813
  0
LINE
  5
6B7
100
AcDbEntity
  8
0
100
AcDbLine
 62
7
  6
CONTINUOUS
 10
-428.4352113602
 20
-373.4447503813
 11
-428.4352113602
 21
-382.4447503813
  0
LINE
  5
6B8
100
AcDbEntity
  8
0
100
AcDbLine
 62
7
  6
CONTINUOUS
 10
-428.4352113602
 20
-386.1447503813
 11
-428.4352113602
 21
-395.1447503813
  0
LINE
  5
6B9
100
AcDbEntity
  8
0
100
AcDbLine
 62
7
  6
CONTINUOUS
 10
-428.4352113602
 20
-402.0197503813
 11
-428.4352113602
 21
-411.0197503813
  0
LINE
  5
6BA
100
AcDbEntity
  8
0
100
AcDbLine
 62
7
  6
CONTINUOUS
 10
-428.4352113602
 20
-417.8947503813
 11
-428.4352113602
 21
-426.8947503813
  0
LINE
  5
6BB
100
AcDbEntity
  8
0
100
AcDbLine
 62
7
  6
CONTINUOUS
 10
-428.4352113602
 20
-430.5947503813
 11
-428.4352113602
 21
-439.5947503813
  0
LINE
  5
6BC
100
AcDbEntity
  8
0
100
AcDbLine
 62
7
  6
CONTINUOUS
 10
-428.4352113602
 20
-446.4697503813
 11
-428.4352113602
 21
-455.4697503813
  0
LINE
  5
6BD
100
AcDbEntity
  8
0
100
AcDbLine
 62
7
  6
CONTINUOUS
 10
-428.4352113602
 20
-462.3447503813
 11
-428.4352113602
 21
-471.3447503813
  0
LINE
  5
6BE
100
AcDbEntity
  8
0
100
AcDbLine
 62
7
  6
CONTINUOUS
 10
-428.4352113602
 20
-475.0447503813
 11
-428.4352113602
 21
-484.0447503813
  0
LINE
  5
6BF
100
AcDbEntity
  8
0
100
AcDbLine
 62
7
  6
CONTINUOUS
 10
-428.4352113602
 20
-490.9197503813
 11
-428.4352113602
 21
-499.9197503813
  0
LINE
  5
6C0
100
AcDbEntity
  8
0
100
AcDbLine
 62
7
  6
CONTINUOUS
 10
-428.4352113602
 20
-506.7947503813
 11
-428.4352113602
 21
-515.7947503813
  0
LINE
  5
6C1
100
AcDbEntity
  8
0
100
AcDbLine
 62
7
  6
CONTINUOUS
 10
-428.4352113602
 20
-519.4947503813
 11
-428.4352113602
 21
-528.4947503813
  0
LINE
  5
6C2
100
AcDbEntity
  8
0
100
AcDbLine
 62
7
  6
CONTINUOUS
 10
-428.4352113602
 20
-535.3697503813
 11
-428.4352113602
 21
-544.3697503813
  0
LINE
  5
6C3
100
AcDbEntity
  8
0
100
AcDbLine
 62
7
  6
CONTINUOUS
 10
-428.4352113602
 20
-551.2447503813
 11
-428.4352113602
 21
-560.2447503813
  0
LINE
  5
6C4
100
AcDbEntity
  8
0
100
AcDbLine
 62
7
  6
CONTINUOUS
 10
-428.4352113602
 20
-563.9447503813
 11
-428.4352113602
 21
-572.9447503813
  0
LINE
  5
6C5
100
AcDbEntity
  8
0
100
AcDbLine
 62
7
  6
CONTINUOUS
 10
-428.4352113602
 20
-579.8197503813
 11
-428.4352113602
 21
-588.8197503813
  0
LINE
  5
6C6
100
AcDbEntity
  8
0
100
AcDbLine
 62
7
  6
CONTINUOUS
 10
-428.4352113602
 20
-595.6947503813
 11
-428.4352113602
 21
-604.6947503813
  0
LINE
  5
6C7
100
AcDbEntity
  8
0
100
AcDbLine
 62
7
  6
CONTINUOUS
 10
-428.4352113602
 20
-608.3947503813
 11
-428.4352113602
 21
-617.3947503813
  0
LINE
  5
6C8
100
AcDbEntity
  8
0
100
AcDbLine
 62
7
  6
CONTINUOUS
 10
-428.4352113602
 20
-624.2697503813
 11
-428.4352113602
 21
-633.2697503813
  0
LINE
  5
6C9
100
AcDbEntity
  8
0
100
AcDbLine
 62
7
  6
CONTINUOUS
 10
-428.4352113602
 20
-640.1447503813
 11
-428.4352113602
 21
-649.1447503813
  0
LINE
  5
6CA
100
AcDbEntity
  8
0
100
AcDbLine
 62
7
  6
CONTINUOUS
 10
-428.4352113602
 20
-652.8447503813
 11
-428.4352113602
 21
-661.8447503813
  0
LINE
  5
6CB
100
AcDbEntity
  8
0
100
AcDbLine
 62
7
  6
CONTINUOUS
 10
-428.4352113602
 20
-668.7197503813
 11
-428.4352113602
 21
-677.7197503813
  0
LINE
  5
6CC
100
AcDbEntity
  8
0
100
AcDbLine
 62
7
  6
CONTINUOUS
 10
-428.4352113602
 20
-684.5947503813
 11
-428.4352113602
 21
-693.5947503813
  0
LINE
  5
6CD
100
AcDbEntity
  8
0
100
AcDbLine
 62
7
  6
CONTINUOUS
 10
-428.4352113602
 20
-697.2947503813
 11
-428.4352113602
 21
-706.2947503813
  0
LINE
  5
6CE
100
AcDbEntity
  8
0
100
AcDbLine
 62
7
  6
CONTINUOUS
 10
-428.4352113602
 20
-713.1697503813
 11
-428.4352113602
 21
-722.1697503813
  0
LINE
  5
6CF
100
AcDbEntity
  8
0
100
AcDbLine
 62
7
  6
CONTINUOUS
 10
-428.4352113602
 20
-729.0447503813
 11
-428.4352113602
 21
-738.0447503813
  0
LINE
  5
6D0
100
AcDbEntity
  8
0
100
AcDbLine
 62
7
  6
CONTINUOUS
 10
-428.4352113602
 20
-741.7447503813
 11
-428.4352113602
 21
-750.7447503813
  0
LINE
  5
6D1
100
AcDbEntity
  8
0
100
AcDbLine
 62
7
  6
CONTINUOUS
 10
-428.4352113602
 20
-757.6197503813
 11
-428.4352113602
 21
-766.6197503813
  0
LINE
  5
6D2
100
AcDbEntity
  8
0
100
AcDbLine
 62
7
  6
CONTINUOUS
 10
-428.4352113602
 20
-773.4947503813
 11
-428.4352113602
 21
-782.4947503813
  0
LINE
  5
6D3
100
AcDbEntity
  8
0
100
AcDbLine
 62
7
  6
CONTINUOUS
 10
-428.4352113602
 20
-786.1947503813
 11
-428.4352113602
 21
-795.1947503813
  0
LINE
  5
6D4
100
AcDbEntity
  8
0
100
AcDbLine
 62
7
  6
CONTINUOUS
 10
-428.4352113602
 20
-802.0697503813
 11
-428.4352113602
 21
-811.0697503813
  0
LINE
  5
6D5
100
AcDbEntity
  8
0
100
AcDbLine
 62
7
  6
CONTINUOUS
 10
-428.4352113602
 20
-817.9447503813
 11
-428.4352113602
 21
-826.9447503813
  0
LINE
  5
6D6
100
AcDbEntity
  8
0
100
AcDbLine
 62
7
  6
CONTINUOUS
 10
-428.4352113602
 20
-830.6447503813
 11
-428.4352113602
 21
-839.6447503813
  0
LINE
  5
6D7
100
AcDbEntity
  8
0
100
AcDbLine
 62
7
  6
CONTINUOUS
 10
-428.4352113602
 20
-846.5197503813
 11
-428.4352113602
 21
-855.5197503813
  0
LINE
  5
6D8
100
AcDbEntity
  8
0
100
AcDbLine
 62
7
  6
CONTINUOUS
 10
-428.4352113602
 20
-862.3947503813
 11
-428.4352113602
 21
-871.3947503813
  0
LINE
  5
6D9
100
AcDbEntity
  8
0
100
AcDbLine
 62
7
  6
CONTINUOUS
 10
-428.4352113602
 20
-875.0947503813
 11
-428.4352113602
 21
-884.0947503813
  0
LINE
  5
6DA
100
AcDbEntity
  8
0
100
AcDbLine
 62
7
  6
CONTINUOUS
 10
-428.4352113602
 20
-890.9697503813
 11
-428.4352113602
 21
-899.9697503813
  0
LINE
  5
6DB
100
AcDbEntity
  8
0
100
AcDbLine
 62
7
  6
CONTINUOUS
 10
-428.4352113602
 20
-906.8447503813
 11
-428.4352113602
 21
-915.8447503813
  0
LINE
  5
6DC
100
AcDbEntity
  8
0
100
AcDbLine
 62
7
  6
CONTINUOUS
 10
-428.4352113602
 20
-919.5447503813
 11
-428.4352113602
 21
-928.5447503813
  0
LINE
  5
6DD
100
AcDbEntity
  8
0
100
AcDbLine
 62
7
  6
CONTINUOUS
 10
-428.4352113602
 20
-935.4197503813
 11
-428.4352113602
 21
-944.4197503813
  0
LINE
  5
6DE
100
AcDbEntity
  8
0
100
AcDbLine
 62
7
  6
CONTINUOUS
 10
-428.4352113602
 20
-951.2947503813
 11
-428.4352113602
 21
-960.2947503813
  0
LINE
  5
6DF
100
AcDbEntity
  8
RACCORDO
100
AcDbLine
 62
7
  6
CONTINUOUS
 10
-425.0352113602
 20
901.8052496187
 11
-425.0352113602
 21
-959.1947503813
  0
LINE
  5
6E0
100
AcDbEntity
  8
0
100
AcDbLine
 62
7
  6
CONTINUOUS
 10
-228.4352113602
 20
-144.3197503813
 11
-237.4352113602
 21
-144.3197503813
  0
LINE
  5
6E1
100
AcDbEntity
  8
0
100
AcDbLine
 62
7
  6
CONTINUOUS
 10
-428.4352113602
 20
-144.3197503813
 11
-437.4352113602
 21
-144.3197503813
  0
LINE
  5
6E2
100
AcDbEntity
  8
0
100
AcDbLine
 62
7
  6
CONTINUOUS
 10
-437.4352113602
 20
-135.3197503813
 11
-428.4352113602
 21
-135.3197503813
  0
LINE
  5
6E3
100
AcDbEntity
  8
0
100
AcDbLine
 62
7
  6
CONTINUOUS
 10
-237.4352113602
 20
-135.3197503813
 11
-228.4352113602
 21
-135.3197503813
  0
LINE
  5
6E4
100
AcDbEntity
  8
0
100
AcDbLine
 62
7
  6
CONTINUOUS
 10
-228.4352113602
 20
-128.4447503813
 11
-237.4352113602
 21
-128.4447503813
  0
LINE
  5
6E5
100
AcDbEntity
  8
0
100
AcDbLine
 62
7
  6
CONTINUOUS
 10
-428.4352113602
 20
-128.4447503813
 11
-437.4352113602
 21
-128.4447503813
  0
LINE
  5
6E6
100
AcDbEntity
  8
0
100
AcDbLine
 62
7
  6
CONTINUOUS
 10
-437.4352113602
 20
-119.4447503813
 11
-428.4352113602
 21
-119.4447503813
  0
LINE
  5
6E7
100
AcDbEntity
  8
0
100
AcDbLine
 62
7
  6
CONTINUOUS
 10
-237.4352113602
 20
-119.4447503813
 11
-228.4352113602
 21
-119.4447503813
  0
LINE
  5
6E8
100
AcDbEntity
  8
0
100
AcDbLine
 62
7
  6
CONTINUOUS
 10
-228.4352113602
 20
-115.7447503813
 11
-237.4352113602
 21
-115.7447503813
  0
LINE
  5
6E9
100
AcDbEntity
  8
0
100
AcDbLine
 62
7
  6
CONTINUOUS
 10
-428.4352113602
 20
-115.7447503813
 11
-437.4352113602
 21
-115.7447503813
  0
LINE
  5
6EA
100
AcDbEntity
  8
0
100
AcDbLine
 62
7
  6
CONTINUOUS
 10
-437.4352113602
 20
-106.7447503813
 11
-428.4352113602
 21
-106.7447503813
  0
LINE
  5
6EB
100
AcDbEntity
  8
0
100
AcDbLine
 62
7
  6
CONTINUOUS
 10
-237.4352113602
 20
-106.7447503813
 11
-228.4352113602
 21
-106.7447503813
  0
LINE
  5
6EC
100
AcDbEntity
  8
0
100
AcDbLine
 62
7
  6
CONTINUOUS
 10
-228.4352113602
 20
-99.8697503813
 11
-237.4352113602
 21
-99.8697503813
  0
LINE
  5
6ED
100
AcDbEntity
  8
0
100
AcDbLine
 62
7
  6
CONTINUOUS
 10
-428.4352113602
 20
-99.8697503813
 11
-437.4352113602
 21
-99.8697503813
  0
LINE
  5
6EE
100
AcDbEntity
  8
0
100
AcDbLine
 62
7
  6
CONTINUOUS
 10
-437.4352113602
 20
-90.8697503813
 11
-428.4352113602
 21
-90.8697503813
  0
LINE
  5
6EF
100
AcDbEntity
  8
0
100
AcDbLine
 62
7
  6
CONTINUOUS
 10
-237.4352113602
 20
-90.8697503813
 11
-228.4352113602
 21
-90.8697503813
  0
LINE
  5
6F0
100
AcDbEntity
  8
0
100
AcDbLine
 62
7
  6
CONTINUOUS
 10
-228.4352113602
 20
-83.9947503813
 11
-237.4352113602
 21
-83.9947503813
  0
LINE
  5
6F1
100
AcDbEntity
  8
0
100
AcDbLine
 62
7
  6
CONTINUOUS
 10
-428.4352113602
 20
-83.9947503813
 11
-437.4352113602
 21
-83.9947503813
  0
LINE
  5
6F2
100
AcDbEntity
  8
0
100
AcDbLine
 62
7
  6
CONTINUOUS
 10
-437.4352113602
 20
-74.9947503813
 11
-428.4352113602
 21
-74.9947503813
  0
LINE
  5
6F3
100
AcDbEntity
  8
0
100
AcDbLine
 62
7
  6
CONTINUOUS
 10
-237.4352113602
 20
-74.9947503813
 11
-228.4352113602
 21
-74.9947503813
  0
LINE
  5
6F4
100
AcDbEntity
  8
0
100
AcDbLine
 62
7
  6
CONTINUOUS
 10
-228.4352113602
 20
-71.2947503813
 11
-237.4352113602
 21
-71.2947503813
  0
LINE
  5
6F5
100
AcDbEntity
  8
0
100
AcDbLine
 62
7
  6
CONTINUOUS
 10
-428.4352113602
 20
-71.2947503813
 11
-437.4352113602
 21
-71.2947503813
  0
LINE
  5
6F6
100
AcDbEntity
  8
0
100
AcDbLine
 62
7
  6
CONTINUOUS
 10
-437.4352113602
 20
-62.2947503813
 11
-428.4352113602
 21
-62.2947503813
  0
LINE
  5
6F7
100
AcDbEntity
  8
0
100
AcDbLine
 62
7
  6
CONTINUOUS
 10
-237.4352113602
 20
-62.2947503813
 11
-228.4352113602
 21
-62.2947503813
  0
LINE
  5
6F8
100
AcDbEntity
  8
0
100
AcDbLine
 62
7
  6
CONTINUOUS
 10
-228.4352113602
 20
-55.4197503813
 11
-237.4352113602
 21
-55.4197503813
  0
LINE
  5
6F9
100
AcDbEntity
  8
0
100
AcDbLine
 62
7
  6
CONTINUOUS
 10
-428.4352113602
 20
-55.4197503813
 11
-437.4352113602
 21
-55.4197503813
  0
LINE
  5
6FA
100
AcDbEntity
  8
0
100
AcDbLine
 62
7
  6
CONTINUOUS
 10
-437.4352113602
 20
-46.4197503813
 11
-428.4352113602
 21
-46.4197503813
  0
LINE
  5
6FB
100
AcDbEntity
  8
0
100
AcDbLine
 62
7
  6
CONTINUOUS
 10
-237.4352113602
 20
-46.4197503813
 11
-228.4352113602
 21
-46.4197503813
  0
LINE
  5
6FC
100
AcDbEntity
  8
0
100
AcDbLine
 62
7
  6
CONTINUOUS
 10
-228.4352113602
 20
-39.5447503813
 11
-237.4352113602
 21
-39.5447503813
  0
LINE
  5
6FD
100
AcDbEntity
  8
0
100
AcDbLine
 62
7
  6
CONTINUOUS
 10
-428.4352113602
 20
-39.5447503813
 11
-437.4352113602
 21
-39.5447503813
  0
LINE
  5
6FE
100
AcDbEntity
  8
0
100
AcDbLine
 62
7
  6
CONTINUOUS
 10
-437.4352113602
 20
-30.5447503813
 11
-428.4352113602
 21
-30.5447503813
  0
LINE
  5
6FF
100
AcDbEntity
  8
0
100
AcDbLine
 62
7
  6
CONTINUOUS
 10
-237.4352113602
 20
-30.5447503813
 11
-228.4352113602
 21
-30.5447503813
  0
LINE
  5
700
100
AcDbEntity
  8
0
100
AcDbLine
 62
7
  6
CONTINUOUS
 10
-228.4352113602
 20
-26.8447503813
 11
-237.4352113602
 21
-26.8447503813
  0
LINE
  5
701
100
AcDbEntity
  8
0
100
AcDbLine
 62
7
  6
CONTINUOUS
 10
-428.4352113602
 20
-26.8447503813
 11
-437.4352113602
 21
-26.8447503813
  0
LINE
  5
702
100
AcDbEntity
  8
0
100
AcDbLine
 62
7
  6
CONTINUOUS
 10
-437.4352113602
 20
-17.8447503813
 11
-428.4352113602
 21
-17.8447503813
  0
LINE
  5
703
100
AcDbEntity
  8
0
100
AcDbLine
 62
7
  6
CONTINUOUS
 10
-237.4352113602
 20
-17.8447503813
 11
-228.4352113602
 21
-17.8447503813
  0
LINE
  5
704
100
AcDbEntity
  8
0
100
AcDbLine
 62
7
  6
CONTINUOUS
 10
-228.4352113602
 20
-10.9697503813
 11
-237.4352113602
 21
-10.9697503813
  0
LINE
  5
705
100
AcDbEntity
  8
0
100
AcDbLine
 62
7
  6
CONTINUOUS
 10
-428.4352113602
 20
-10.9697503813
 11
-437.4352113602
 21
-10.9697503813
  0
LINE
  5
706
100
AcDbEntity
  8
0
100
AcDbLine
 62
7
  6
CONTINUOUS
 10
-437.4352113602
 20
-1.9697503813
 11
-428.4352113602
 21
-1.9697503813
  0
LINE
  5
707
100
AcDbEntity
  8
0
100
AcDbLine
 62
7
  6
CONTINUOUS
 10
-237.4352113602
 20
-1.9697503813
 11
-228.4352113602
 21
-1.9697503813
  0
LINE
  5
708
100
AcDbEntity
  8
0
100
AcDbLine
 62
7
  6
CONTINUOUS
 10
-228.4352113602
 20
4.9052496187
 11
-237.4352113602
 21
4.9052496187
  0
LINE
  5
709
100
AcDbEntity
  8
0
100
AcDbLine
 62
7
  6
CONTINUOUS
 10
-428.4352113602
 20
4.9052496187
 11
-437.4352113602
 21
4.9052496187
  0
LINE
  5
70A
100
AcDbEntity
  8
0
100
AcDbLine
 62
7
  6
CONTINUOUS
 10
-437.4352113602
 20
13.9052496187
 11
-428.4352113602
 21
13.9052496187
  0
LINE
  5
70B
100
AcDbEntity
  8
0
100
AcDbLine
 62
7
  6
CONTINUOUS
 10
-237.4352113602
 20
13.9052496187
 11
-228.4352113602
 21
13.9052496187
  0
LINE
  5
70C
100
AcDbEntity
  8
0
100
AcDbLine
 62
7
  6
CONTINUOUS
 10
-228.4352113602
 20
17.6052496187
 11
-237.4352113602
 21
17.6052496187
  0
LINE
  5
70D
100
AcDbEntity
  8
0
100
AcDbLine
 62
7
  6
CONTINUOUS
 10
-428.4352113602
 20
17.6052496187
 11
-437.4352113602
 21
17.6052496187
  0
LINE
  5
70E
100
AcDbEntity
  8
0
100
AcDbLine
 62
7
  6
CONTINUOUS
 10
-437.4352113602
 20
26.6052496187
 11
-428.4352113602
 21
26.6052496187
  0
LINE
  5
70F
100
AcDbEntity
  8
0
100
AcDbLine
 62
7
  6
CONTINUOUS
 10
-237.4352113602
 20
26.6052496187
 11
-228.4352113602
 21
26.6052496187
  0
LINE
  5
710
100
AcDbEntity
  8
0
100
AcDbLine
 62
7
  6
CONTINUOUS
 10
-228.4352113602
 20
33.4802496187
 11
-237.4352113602
 21
33.4802496187
  0
LINE
  5
711
100
AcDbEntity
  8
0
100
AcDbLine
 62
7
  6
CONTINUOUS
 10
-428.4352113602
 20
33.4802496187
 11
-437.4352113602
 21
33.4802496187
  0
LINE
  5
712
100
AcDbEntity
  8
0
100
AcDbLine
 62
7
  6
CONTINUOUS
 10
-437.4352113602
 20
42.4802496187
 11
-428.4352113602
 21
42.4802496187
  0
LINE
  5
713
100
AcDbEntity
  8
0
100
AcDbLine
 62
7
  6
CONTINUOUS
 10
-237.4352113602
 20
42.4802496187
 11
-228.4352113602
 21
42.4802496187
  0
LINE
  5
714
100
AcDbEntity
  8
0
100
AcDbLine
 62
7
  6
CONTINUOUS
 10
-266.0352113602
 20
896.3052496187
 11
-266.0352113602
 21
-953.6947503813
  0
LINE
  5
715
100
AcDbEntity
  8
0
100
AcDbLine
 62
253
  6
CONTINUOUS
 10
-263.5352113602
 20
896.3052496187
 11
-263.5352113602
 21
-953.6947503813
  0
LINE
  5
716
100
AcDbEntity
  8
0
100
AcDbLine
 62
253
  6
CONTINUOUS
 10
-251.0352113602
 20
896.3052496187
 11
-251.0352113602
 21
-953.6947503813
  0
LINE
  5
717
100
AcDbEntity
  8
RACCORDO
100
AcDbLine
 62
7
  6
CONTINUOUS
 10
-250.0352113602
 20
-982.1947503813
 11
-250.0352113602
 21
-961.1947503813
  0
LINE
  5
718
100
AcDbEntity
  8
0
100
AcDbLine
 62
7
  6
CONTINUOUS
 10
-250.0352113602
 20
903.8052496187
 11
-250.0352113602
 21
-961.1947503813
  0
LINE
  5
719
100
AcDbEntity
  8
RACCORDO
100
AcDbLine
 62
7
  6
CONTINUOUS
 10
-250.0352113602
 20
903.8052496187
 11
-250.0352113602
 21
924.8052496187
  0
LINE
  5
71A
100
AcDbEntity
  8
RACCORDO
100
AcDbLine
 62
7
  6
CONTINUOUS
 10
-248.0352113602
 20
903.8052496187
 11
-248.0352113602
 21
924.8052496187
  0
LINE
  5
71B
100
AcDbEntity
  8
RACCORDO
100
AcDbLine
 62
7
  6
CONTINUOUS
 10
-248.0352113602
 20
-961.1947503813
 11
-248.0352113602
 21
-982.1947503813
  0
LINE
  5
71C
100
AcDbEntity
  8
0
100
AcDbLine
 62
253
  6
CONTINUOUS
 10
-245.0352113602
 20
903.8052496187
 11
-245.0352113602
 21
-961.1947503813
  0
LINE
  5
71D
100
AcDbEntity
  8
0
100
AcDbLine
 62
7
  6
CONTINUOUS
 10
-237.4352113602
 20
-960.2947503813
 11
-237.4352113602
 21
-951.2947503813
  0
LINE
  5
71E
100
AcDbEntity
  8
0
100
AcDbLine
 62
7
  6
CONTINUOUS
 10
-237.4352113602
 20
-944.4197503813
 11
-237.4352113602
 21
-935.4197503813
  0
LINE
  5
71F
100
AcDbEntity
  8
0
100
AcDbLine
 62
7
  6
CONTINUOUS
 10
-237.4352113602
 20
-928.5447503813
 11
-237.4352113602
 21
-919.5447503813
  0
LINE
  5
720
100
AcDbEntity
  8
0
100
AcDbLine
 62
7
  6
CONTINUOUS
 10
-237.4352113602
 20
-915.8447503813
 11
-237.4352113602
 21
-906.8447503813
  0
LINE
  5
721
100
AcDbEntity
  8
0
100
AcDbLine
 62
7
  6
CONTINUOUS
 10
-237.4352113602
 20
-899.9697503813
 11
-237.4352113602
 21
-890.9697503813
  0
LINE
  5
722
100
AcDbEntity
  8
0
100
AcDbLine
 62
7
  6
CONTINUOUS
 10
-237.4352113602
 20
-884.0947503813
 11
-237.4352113602
 21
-875.0947503813
  0
LINE
  5
723
100
AcDbEntity
  8
0
100
AcDbLine
 62
7
  6
CONTINUOUS
 10
-237.4352113602
 20
-871.3947503813
 11
-237.4352113602
 21
-862.3947503813
  0
LINE
  5
724
100
AcDbEntity
  8
0
100
AcDbLine
 62
7
  6
CONTINUOUS
 10
-237.4352113602
 20
-855.5197503813
 11
-237.4352113602
 21
-846.5197503813
  0
LINE
  5
725
100
AcDbEntity
  8
0
100
AcDbLine
 62
7
  6
CONTINUOUS
 10
-237.4352113602
 20
-839.6447503813
 11
-237.4352113602
 21
-830.6447503813
  0
LINE
  5
726
100
AcDbEntity
  8
0
100
AcDbLine
 62
7
  6
CONTINUOUS
 10
-237.4352113602
 20
-826.9447503813
 11
-237.4352113602
 21
-817.9447503813
  0
LINE
  5
727
100
AcDbEntity
  8
0
100
AcDbLine
 62
7
  6
CONTINUOUS
 10
-237.4352113602
 20
-811.0697503813
 11
-237.4352113602
 21
-802.0697503813
  0
LINE
  5
728
100
AcDbEntity
  8
0
100
AcDbLine
 62
7
  6
CONTINUOUS
 10
-237.4352113602
 20
-795.1947503813
 11
-237.4352113602
 21
-786.1947503813
  0
LINE
  5
729
100
AcDbEntity
  8
0
100
AcDbLine
 62
7
  6
CONTINUOUS
 10
-237.4352113602
 20
-782.4947503813
 11
-237.4352113602
 21
-773.4947503813
  0
LINE
  5
72A
100
AcDbEntity
  8
0
100
AcDbLine
 62
7
  6
CONTINUOUS
 10
-237.4352113602
 20
-766.6197503813
 11
-237.4352113602
 21
-757.6197503813
  0
LINE
  5
72B
100
AcDbEntity
  8
0
100
AcDbLine
 62
7
  6
CONTINUOUS
 10
-237.4352113602
 20
-750.7447503813
 11
-237.4352113602
 21
-741.7447503813
  0
LINE
  5
72C
100
AcDbEntity
  8
0
100
AcDbLine
 62
7
  6
CONTINUOUS
 10
-237.4352113602
 20
-738.0447503813
 11
-237.4352113602
 21
-729.0447503813
  0
LINE
  5
72D
100
AcDbEntity
  8
0
100
AcDbLine
 62
7
  6
CONTINUOUS
 10
-237.4352113602
 20
-722.1697503813
 11
-237.4352113602
 21
-713.1697503813
  0
LINE
  5
72E
100
AcDbEntity
  8
0
100
AcDbLine
 62
7
  6
CONTINUOUS
 10
-237.4352113602
 20
-706.2947503813
 11
-237.4352113602
 21
-697.2947503813
  0
LINE
  5
72F
100
AcDbEntity
  8
0
100
AcDbLine
 62
7
  6
CONTINUOUS
 10
-237.4352113602
 20
-693.5947503813
 11
-237.4352113602
 21
-684.5947503813
  0
LINE
  5
730
100
AcDbEntity
  8
0
100
AcDbLine
 62
7
  6
CONTINUOUS
 10
-237.4352113602
 20
-677.7197503813
 11
-237.4352113602
 21
-668.7197503813
  0
LINE
  5
731
100
AcDbEntity
  8
0
100
AcDbLine
 62
7
  6
CONTINUOUS
 10
-237.4352113602
 20
-661.8447503813
 11
-237.4352113602
 21
-652.8447503813
  0
LINE
  5
732
100
AcDbEntity
  8
0
100
AcDbLine
 62
7
  6
CONTINUOUS
 10
-237.4352113602
 20
-649.1447503813
 11
-237.4352113602
 21
-640.1447503813
  0
LINE
  5
733
100
AcDbEntity
  8
0
100
AcDbLine
 62
7
  6
CONTINUOUS
 10
-237.4352113602
 20
-633.2697503813
 11
-237.4352113602
 21
-624.2697503813
  0
LINE
  5
734
100
AcDbEntity
  8
0
100
AcDbLine
 62
7
  6
CONTINUOUS
 10
-237.4352113602
 20
-617.3947503813
 11
-237.4352113602
 21
-608.3947503813
  0
LINE
  5
735
100
AcDbEntity
  8
0
100
AcDbLine
 62
7
  6
CONTINUOUS
 10
-237.4352113602
 20
-604.6947503813
 11
-237.4352113602
 21
-595.6947503813
  0
LINE
  5
736
100
AcDbEntity
  8
0
100
AcDbLine
 62
7
  6
CONTINUOUS
 10
-237.4352113602
 20
-588.8197503813
 11
-237.4352113602
 21
-579.8197503813
  0
LINE
  5
737
100
AcDbEntity
  8
0
100
AcDbLine
 62
7
  6
CONTINUOUS
 10
-237.4352113602
 20
-572.9447503813
 11
-237.4352113602
 21
-563.9447503813
  0
LINE
  5
738
100
AcDbEntity
  8
0
100
AcDbLine
 62
7
  6
CONTINUOUS
 10
-237.4352113602
 20
-560.2447503813
 11
-237.4352113602
 21
-551.2447503813
  0
LINE
  5
739
100
AcDbEntity
  8
0
100
AcDbLine
 62
7
  6
CONTINUOUS
 10
-237.4352113602
 20
-544.3697503813
 11
-237.4352113602
 21
-535.3697503813
  0
LINE
  5
73A
100
AcDbEntity
  8
0
100
AcDbLine
 62
7
  6
CONTINUOUS
 10
-237.4352113602
 20
-528.4947503813
 11
-237.4352113602
 21
-519.4947503813
  0
LINE
  5
73B
100
AcDbEntity
  8
0
100
AcDbLine
 62
7
  6
CONTINUOUS
 10
-237.4352113602
 20
-515.7947503813
 11
-237.4352113602
 21
-506.7947503813
  0
LINE
  5
73C
100
AcDbEntity
  8
0
100
AcDbLine
 62
7
  6
CONTINUOUS
 10
-237.4352113602
 20
-499.9197503813
 11
-237.4352113602
 21
-490.9197503813
  0
LINE
  5
73D
100
AcDbEntity
  8
0
100
AcDbLine
 62
7
  6
CONTINUOUS
 10
-237.4352113602
 20
-484.0447503813
 11
-237.4352113602
 21
-475.0447503813
  0
LINE
  5
73E
100
AcDbEntity
  8
0
100
AcDbLine
 62
7
  6
CONTINUOUS
 10
-237.4352113602
 20
-471.3447503813
 11
-237.4352113602
 21
-462.3447503813
  0
LINE
  5
73F
100
AcDbEntity
  8
0
100
AcDbLine
 62
7
  6
CONTINUOUS
 10
-237.4352113602
 20
-455.4697503813
 11
-237.4352113602
 21
-446.4697503813
  0
LINE
  5
740
100
AcDbEntity
  8
0
100
AcDbLine
 62
7
  6
CONTINUOUS
 10
-237.4352113602
 20
-439.5947503813
 11
-237.4352113602
 21
-430.5947503813
  0
LINE
  5
741
100
AcDbEntity
  8
0
100
AcDbLine
 62
7
  6
CONTINUOUS
 10
-237.4352113602
 20
-426.8947503813
 11
-237.4352113602
 21
-417.8947503813
  0
LINE
  5
742
100
AcDbEntity
  8
0
100
AcDbLine
 62
7
  6
CONTINUOUS
 10
-237.4352113602
 20
-411.0197503813
 11
-237.4352113602
 21
-402.0197503813
  0
LINE
  5
743
100
AcDbEntity
  8
0
100
AcDbLine
 62
7
  6
CONTINUOUS
 10
-237.4352113602
 20
-395.1447503813
 11
-237.4352113602
 21
-386.1447503813
  0
LINE
  5
744
100
AcDbEntity
  8
0
100
AcDbLine
 62
7
  6
CONTINUOUS
 10
-237.4352113602
 20
-382.4447503813
 11
-237.4352113602
 21
-373.4447503813
  0
LINE
  5
745
100
AcDbEntity
  8
0
100
AcDbLine
 62
7
  6
CONTINUOUS
 10
-237.4352113602
 20
-366.5697503813
 11
-237.4352113602
 21
-357.5697503813
  0
LINE
  5
746
100
AcDbEntity
  8
0
100
AcDbLine
 62
7
  6
CONTINUOUS
 10
-237.4352113602
 20
-350.6947503813
 11
-237.4352113602
 21
-341.6947503813
  0
LINE
  5
747
100
AcDbEntity
  8
0
100
AcDbLine
 62
7
  6
CONTINUOUS
 10
-237.4352113602
 20
-337.9947503813
 11
-237.4352113602
 21
-328.9947503813
  0
LINE
  5
748
100
AcDbEntity
  8
0
100
AcDbLine
 62
7
  6
CONTINUOUS
 10
-237.4352113602
 20
-322.1197503813
 11
-237.4352113602
 21
-313.1197503813
  0
LINE
  5
749
100
AcDbEntity
  8
0
100
AcDbLine
 62
7
  6
CONTINUOUS
 10
-237.4352113602
 20
-306.2447503813
 11
-237.4352113602
 21
-297.2447503813
  0
LINE
  5
74A
100
AcDbEntity
  8
0
100
AcDbLine
 62
7
  6
CONTINUOUS
 10
-237.4352113602
 20
-293.5447503813
 11
-237.4352113602
 21
-284.5447503813
  0
LINE
  5
74B
100
AcDbEntity
  8
0
100
AcDbLine
 62
7
  6
CONTINUOUS
 10
-237.4352113602
 20
-277.6697503813
 11
-237.4352113602
 21
-268.6697503813
  0
LINE
  5
74C
100
AcDbEntity
  8
0
100
AcDbLine
 62
7
  6
CONTINUOUS
 10
-237.4352113602
 20
-261.7947503813
 11
-237.4352113602
 21
-252.7947503813
  0
LINE
  5
74D
100
AcDbEntity
  8
0
100
AcDbLine
 62
7
  6
CONTINUOUS
 10
-237.4352113602
 20
-249.0947503813
 11
-237.4352113602
 21
-240.0947503813
  0
LINE
  5
74E
100
AcDbEntity
  8
0
100
AcDbLine
 62
7
  6
CONTINUOUS
 10
-237.4352113602
 20
-233.2197503813
 11
-237.4352113602
 21
-224.2197503813
  0
LINE
  5
74F
100
AcDbEntity
  8
0
100
AcDbLine
 62
7
  6
CONTINUOUS
 10
-237.4352113602
 20
-217.3447503813
 11
-237.4352113602
 21
-208.3447503813
  0
LINE
  5
750
100
AcDbEntity
  8
0
100
AcDbLine
 62
7
  6
CONTINUOUS
 10
-237.4352113602
 20
-204.6447503813
 11
-237.4352113602
 21
-195.6447503813
  0
LINE
  5
751
100
AcDbEntity
  8
0
100
AcDbLine
 62
7
  6
CONTINUOUS
 10
-237.4352113602
 20
-188.7697503813
 11
-237.4352113602
 21
-179.7697503813
  0
LINE
  5
752
100
AcDbEntity
  8
0
100
AcDbLine
 62
7
  6
CONTINUOUS
 10
-237.4352113602
 20
-172.8947503813
 11
-237.4352113602
 21
-163.8947503813
  0
LINE
  5
753
100
AcDbEntity
  8
0
100
AcDbLine
 62
7
  6
CONTINUOUS
 10
-237.4352113602
 20
-160.1947503813
 11
-237.4352113602
 21
-151.1947503813
  0
LINE
  5
754
100
AcDbEntity
  8
0
100
AcDbLine
 62
7
  6
CONTINUOUS
 10
-237.4352113602
 20
-144.3197503813
 11
-237.4352113602
 21
-135.3197503813
  0
LINE
  5
755
100
AcDbEntity
  8
0
100
AcDbLine
 62
7
  6
CONTINUOUS
 10
-237.4352113602
 20
-128.4447503813
 11
-237.4352113602
 21
-119.4447503813
  0
LINE
  5
756
100
AcDbEntity
  8
0
100
AcDbLine
 62
7
  6
CONTINUOUS
 10
-237.4352113602
 20
-115.7447503813
 11
-237.4352113602
 21
-106.7447503813
  0
LINE
  5
757
100
AcDbEntity
  8
0
100
AcDbLine
 62
7
  6
CONTINUOUS
 10
-237.4352113602
 20
-99.8697503813
 11
-237.4352113602
 21
-90.8697503813
  0
LINE
  5
758
100
AcDbEntity
  8
0
100
AcDbLine
 62
7
  6
CONTINUOUS
 10
-237.4352113602
 20
-83.9947503813
 11
-237.4352113602
 21
-74.9947503813
  0
LINE
  5
759
100
AcDbEntity
  8
0
100
AcDbLine
 62
7
  6
CONTINUOUS
 10
-237.4352113602
 20
-71.2947503813
 11
-237.4352113602
 21
-62.2947503813
  0
LINE
  5
75A
100
AcDbEntity
  8
0
100
AcDbLine
 62
7
  6
CONTINUOUS
 10
-237.4352113602
 20
-55.4197503813
 11
-237.4352113602
 21
-46.4197503813
  0
LINE
  5
75B
100
AcDbEntity
  8
0
100
AcDbLine
 62
7
  6
CONTINUOUS
 10
-237.4352113602
 20
-39.5447503813
 11
-237.4352113602
 21
-30.5447503813
  0
LINE
  5
75C
100
AcDbEntity
  8
0
100
AcDbLine
 62
7
  6
CONTINUOUS
 10
-237.4352113602
 20
-26.8447503813
 11
-237.4352113602
 21
-17.8447503813
  0
LINE
  5
75D
100
AcDbEntity
  8
0
100
AcDbLine
 62
7
  6
CONTINUOUS
 10
-237.4352113602
 20
-10.9697503813
 11
-237.4352113602
 21
-1.9697503813
  0
LINE
  5
75E
100
AcDbEntity
  8
0
100
AcDbLine
 62
7
  6
CONTINUOUS
 10
-237.4352113602
 20
4.9052496187
 11
-237.4352113602
 21
13.9052496187
  0
LINE
  5
75F
100
AcDbEntity
  8
0
100
AcDbLine
 62
7
  6
CONTINUOUS
 10
-237.4352113602
 20
17.6052496187
 11
-237.4352113602
 21
26.6052496187
  0
LINE
  5
760
100
AcDbEntity
  8
0
100
AcDbLine
 62
7
  6
CONTINUOUS
 10
-237.4352113602
 20
33.4802496187
 11
-237.4352113602
 21
42.4802496187
  0
LINE
  5
761
100
AcDbEntity
  8
0
100
AcDbLine
 62
7
  6
CONTINUOUS
 10
-237.4352113602
 20
49.3552496187
 11
-237.4352113602
 21
58.3552496187
  0
LINE
  5
762
100
AcDbEntity
  8
0
100
AcDbLine
 62
7
  6
CONTINUOUS
 10
-237.4352113602
 20
62.0552496187
 11
-237.4352113602
 21
71.0552496187
  0
LINE
  5
763
100
AcDbEntity
  8
0
100
AcDbLine
 62
7
  6
CONTINUOUS
 10
-237.4352113602
 20
77.9302496187
 11
-237.4352113602
 21
86.9302496187
  0
LINE
  5
764
100
AcDbEntity
  8
0
100
AcDbLine
 62
7
  6
CONTINUOUS
 10
-237.4352113602
 20
93.8052496187
 11
-237.4352113602
 21
102.8052496187
  0
LINE
  5
765
100
AcDbEntity
  8
0
100
AcDbLine
 62
7
  6
CONTINUOUS
 10
-237.4352113602
 20
106.5052496187
 11
-237.4352113602
 21
115.5052496187
  0
LINE
  5
766
100
AcDbEntity
  8
0
100
AcDbLine
 62
7
  6
CONTINUOUS
 10
-237.4352113602
 20
122.3802496187
 11
-237.4352113602
 21
131.3802496187
  0
LINE
  5
767
100
AcDbEntity
  8
0
100
AcDbLine
 62
7
  6
CONTINUOUS
 10
-237.4352113602
 20
138.2552496187
 11
-237.4352113602
 21
147.2552496187
  0
LINE
  5
768
100
AcDbEntity
  8
0
100
AcDbLine
 62
7
  6
CONTINUOUS
 10
-237.4352113602
 20
150.9552496187
 11
-237.4352113602
 21
159.9552496187
  0
LINE
  5
769
100
AcDbEntity
  8
0
100
AcDbLine
 62
7
  6
CONTINUOUS
 10
-237.4352113602
 20
166.8302496187
 11
-237.4352113602
 21
175.8302496187
  0
LINE
  5
76A
100
AcDbEntity
  8
0
100
AcDbLine
 62
7
  6
CONTINUOUS
 10
-237.4352113602
 20
182.7052496187
 11
-237.4352113602
 21
191.7052496187
  0
LINE
  5
76B
100
AcDbEntity
  8
0
100
AcDbLine
 62
7
  6
CONTINUOUS
 10
-237.4352113602
 20
195.4052496187
 11
-237.4352113602
 21
204.4052496187
  0
LINE
  5
76C
100
AcDbEntity
  8
0
100
AcDbLine
 62
7
  6
CONTINUOUS
 10
-237.4352113602
 20
211.2802496187
 11
-237.4352113602
 21
220.2802496187
  0
LINE
  5
76D
100
AcDbEntity
  8
0
100
AcDbLine
 62
7
  6
CONTINUOUS
 10
-237.4352113602
 20
227.1552496187
 11
-237.4352113602
 21
236.1552496187
  0
LINE
  5
76E
100
AcDbEntity
  8
0
100
AcDbLine
 62
7
  6
CONTINUOUS
 10
-237.4352113602
 20
239.8552496187
 11
-237.4352113602
 21
248.8552496187
  0
LINE
  5
76F
100
AcDbEntity
  8
0
100
AcDbLine
 62
7
  6
CONTINUOUS
 10
-237.4352113602
 20
255.7302496187
 11
-237.4352113602
 21
264.7302496187
  0
LINE
  5
770
100
AcDbEntity
  8
0
100
AcDbLine
 62
7
  6
CONTINUOUS
 10
-237.4352113602
 20
271.6052496187
 11
-237.4352113602
 21
280.6052496187
  0
LINE
  5
771
100
AcDbEntity
  8
0
100
AcDbLine
 62
7
  6
CONTINUOUS
 10
-237.4352113602
 20
284.3052496187
 11
-237.4352113602
 21
293.3052496187
  0
LINE
  5
772
100
AcDbEntity
  8
0
100
AcDbLine
 62
7
  6
CONTINUOUS
 10
-237.4352113602
 20
300.1802496187
 11
-237.4352113602
 21
309.1802496187
  0
LINE
  5
773
100
AcDbEntity
  8
0
100
AcDbLine
 62
7
  6
CONTINUOUS
 10
-237.4352113602
 20
316.0552496187
 11
-237.4352113602
 21
325.0552496187
  0
LINE
  5
774
100
AcDbEntity
  8
0
100
AcDbLine
 62
7
  6
CONTINUOUS
 10
-237.4352113602
 20
328.7552496187
 11
-237.4352113602
 21
337.7552496187
  0
LINE
  5
775
100
AcDbEntity
  8
0
100
AcDbLine
 62
7
  6
CONTINUOUS
 10
-237.4352113602
 20
344.6302496187
 11
-237.4352113602
 21
353.6302496187
  0
LINE
  5
776
100
AcDbEntity
  8
0
100
AcDbLine
 62
7
  6
CONTINUOUS
 10
-237.4352113602
 20
360.5052496187
 11
-237.4352113602
 21
369.5052496187
  0
LINE
  5
777
100
AcDbEntity
  8
0
100
AcDbLine
 62
7
  6
CONTINUOUS
 10
-237.4352113602
 20
373.2052496187
 11
-237.4352113602
 21
382.2052496187
  0
LINE
  5
778
100
AcDbEntity
  8
0
100
AcDbLine
 62
7
  6
CONTINUOUS
 10
-237.4352113602
 20
389.0802496187
 11
-237.4352113602
 21
398.0802496187
  0
LINE
  5
779
100
AcDbEntity
  8
0
100
AcDbLine
 62
7
  6
CONTINUOUS
 10
-237.4352113602
 20
404.9552496187
 11
-237.4352113602
 21
413.9552496187
  0
LINE
  5
77A
100
AcDbEntity
  8
0
100
AcDbLine
 62
7
  6
CONTINUOUS
 10
-237.4352113602
 20
417.6552496187
 11
-237.4352113602
 21
426.6552496187
  0
LINE
  5
77B
100
AcDbEntity
  8
0
100
AcDbLine
 62
7
  6
CONTINUOUS
 10
-237.4352113602
 20
433.5302496187
 11
-237.4352113602
 21
442.5302496187
  0
LINE
  5
77C
100
AcDbEntity
  8
0
100
AcDbLine
 62
7
  6
CONTINUOUS
 10
-237.4352113602
 20
449.4052496187
 11
-237.4352113602
 21
458.4052496187
  0
LINE
  5
77D
100
AcDbEntity
  8
0
100
AcDbLine
 62
7
  6
CONTINUOUS
 10
-237.4352113602
 20
462.1052496187
 11
-237.4352113602
 21
471.1052496187
  0
LINE
  5
77E
100
AcDbEntity
  8
0
100
AcDbLine
 62
7
  6
CONTINUOUS
 10
-237.4352113602
 20
477.9802496187
 11
-237.4352113602
 21
486.9802496187
  0
LINE
  5
77F
100
AcDbEntity
  8
0
100
AcDbLine
 62
7
  6
CONTINUOUS
 10
-237.4352113602
 20
493.8552496187
 11
-237.4352113602
 21
502.8552496187
  0
LINE
  5
780
100
AcDbEntity
  8
0
100
AcDbLine
 62
7
  6
CONTINUOUS
 10
-237.4352113602
 20
506.5552496187
 11
-237.4352113602
 21
515.5552496187
  0
LINE
  5
781
100
AcDbEntity
  8
0
100
AcDbLine
 62
7
  6
CONTINUOUS
 10
-237.4352113602
 20
522.4302496187
 11
-237.4352113602
 21
531.4302496187
  0
LINE
  5
782
100
AcDbEntity
  8
0
100
AcDbLine
 62
7
  6
CONTINUOUS
 10
-237.4352113602
 20
538.3052496187
 11
-237.4352113602
 21
547.3052496187
  0
LINE
  5
783
100
AcDbEntity
  8
0
100
AcDbLine
 62
7
  6
CONTINUOUS
 10
-237.4352113602
 20
551.0052496187
 11
-237.4352113602
 21
560.0052496187
  0
LINE
  5
784
100
AcDbEntity
  8
0
100
AcDbLine
 62
7
  6
CONTINUOUS
 10
-237.4352113602
 20
566.8802496187
 11
-237.4352113602
 21
575.8802496187
  0
LINE
  5
785
100
AcDbEntity
  8
0
100
AcDbLine
 62
7
  6
CONTINUOUS
 10
-237.4352113602
 20
582.7552496187
 11
-237.4352113602
 21
591.7552496187
  0
LINE
  5
786
100
AcDbEntity
  8
0
100
AcDbLine
 62
7
  6
CONTINUOUS
 10
-237.4352113602
 20
595.4552496187
 11
-237.4352113602
 21
604.4552496187
  0
LINE
  5
787
100
AcDbEntity
  8
0
100
AcDbLine
 62
7
  6
CONTINUOUS
 10
-237.4352113602
 20
611.3302496187
 11
-237.4352113602
 21
620.3302496187
  0
LINE
  5
788
100
AcDbEntity
  8
0
100
AcDbLine
 62
7
  6
CONTINUOUS
 10
-237.4352113602
 20
627.2052496187
 11
-237.4352113602
 21
636.2052496187
  0
LINE
  5
789
100
AcDbEntity
  8
0
100
AcDbLine
 62
7
  6
CONTINUOUS
 10
-237.4352113602
 20
639.9052496187
 11
-237.4352113602
 21
648.9052496187
  0
LINE
  5
78A
100
AcDbEntity
  8
0
100
AcDbLine
 62
7
  6
CONTINUOUS
 10
-237.4352113602
 20
655.7802496187
 11
-237.4352113602
 21
664.7802496187
  0
LINE
  5
78B
100
AcDbEntity
  8
0
100
AcDbLine
 62
7
  6
CONTINUOUS
 10
-237.4352113602
 20
671.6552496187
 11
-237.4352113602
 21
680.6552496187
  0
LINE
  5
78C
100
AcDbEntity
  8
0
100
AcDbLine
 62
7
  6
CONTINUOUS
 10
-237.4352113602
 20
684.3552496187
 11
-237.4352113602
 21
693.3552496187
  0
LINE
  5
78D
100
AcDbEntity
  8
0
100
AcDbLine
 62
7
  6
CONTINUOUS
 10
-237.4352113602
 20
700.2302496187
 11
-237.4352113602
 21
709.2302496187
  0
LINE
  5
78E
100
AcDbEntity
  8
0
100
AcDbLine
 62
7
  6
CONTINUOUS
 10
-237.4352113602
 20
716.1052496187
 11
-237.4352113602
 21
725.1052496187
  0
LINE
  5
78F
100
AcDbEntity
  8
0
100
AcDbLine
 62
7
  6
CONTINUOUS
 10
-237.4352113602
 20
728.8052496187
 11
-237.4352113602
 21
737.8052496187
  0
LINE
  5
790
100
AcDbEntity
  8
0
100
AcDbLine
 62
7
  6
CONTINUOUS
 10
-237.4352113602
 20
744.6802496187
 11
-237.4352113602
 21
753.6802496187
  0
LINE
  5
791
100
AcDbEntity
  8
0
100
AcDbLine
 62
7
  6
CONTINUOUS
 10
-237.4352113602
 20
760.5552496187
 11
-237.4352113602
 21
769.5552496187
  0
LINE
  5
792
100
AcDbEntity
  8
0
100
AcDbLine
 62
7
  6
CONTINUOUS
 10
-237.4352113602
 20
773.2552496187
 11
-237.4352113602
 21
782.2552496187
  0
LINE
  5
793
100
AcDbEntity
  8
0
100
AcDbLine
 62
7
  6
CONTINUOUS
 10
-237.4352113602
 20
789.1302496187
 11
-237.4352113602
 21
798.1302496187
  0
LINE
  5
794
100
AcDbEntity
  8
0
100
AcDbLine
 62
7
  6
CONTINUOUS
 10
-237.4352113602
 20
805.0052496187
 11
-237.4352113602
 21
814.0052496187
  0
LINE
  5
795
100
AcDbEntity
  8
0
100
AcDbLine
 62
7
  6
CONTINUOUS
 10
-237.4352113602
 20
817.7052496187
 11
-237.4352113602
 21
826.7052496187
  0
LINE
  5
796
100
AcDbEntity
  8
0
100
AcDbLine
 62
7
  6
CONTINUOUS
 10
-237.4352113602
 20
833.5802496187
 11
-237.4352113602
 21
842.5802496187
  0
LINE
  5
797
100
AcDbEntity
  8
0
100
AcDbLine
 62
7
  6
CONTINUOUS
 10
-237.4352113602
 20
849.4552496187
 11
-237.4352113602
 21
858.4552496187
  0
LINE
  5
798
100
AcDbEntity
  8
0
100
AcDbLine
 62
7
  6
CONTINUOUS
 10
-237.4352113602
 20
862.1552496187
 11
-237.4352113602
 21
871.1552496187
  0
LINE
  5
799
100
AcDbEntity
  8
0
100
AcDbLine
 62
7
  6
CONTINUOUS
 10
-237.4352113602
 20
878.0302496187
 11
-237.4352113602
 21
887.0302496187
  0
LINE
  5
79A
100
AcDbEntity
  8
0
100
AcDbLine
 62
7
  6
CONTINUOUS
 10
-237.4352113602
 20
893.9052496187
 11
-237.4352113602
 21
902.9052496187
  0
LINE
  5
79B
100
AcDbEntity
  8
0
100
AcDbLine
 62
7
  6
CONTINUOUS
 10
-228.4352113602
 20
902.9052496187
 11
-228.4352113602
 21
893.9052496187
  0
LINE
  5
79C
100
AcDbEntity
  8
0
100
AcDbLine
 62
7
  6
CONTINUOUS
 10
-228.4352113602
 20
887.0302496187
 11
-228.4352113602
 21
878.0302496187
  0
LINE
  5
79D
100
AcDbEntity
  8
0
100
AcDbLine
 62
7
  6
CONTINUOUS
 10
-228.4352113602
 20
871.1552496187
 11
-228.4352113602
 21
862.1552496187
  0
LINE
  5
79E
100
AcDbEntity
  8
0
100
AcDbLine
 62
7
  6
CONTINUOUS
 10
-228.4352113602
 20
858.4552496187
 11
-228.4352113602
 21
849.4552496187
  0
LINE
  5
79F
100
AcDbEntity
  8
0
100
AcDbLine
 62
7
  6
CONTINUOUS
 10
-228.4352113602
 20
842.5802496187
 11
-228.4352113602
 21
833.5802496187
  0
LINE
  5
7A0
100
AcDbEntity
  8
0
100
AcDbLine
 62
7
  6
CONTINUOUS
 10
-228.4352113602
 20
826.7052496187
 11
-228.4352113602
 21
817.7052496187
  0
LINE
  5
7A1
100
AcDbEntity
  8
0
100
AcDbLine
 62
7
  6
CONTINUOUS
 10
-228.4352113602
 20
814.0052496187
 11
-228.4352113602
 21
805.0052496187
  0
LINE
  5
7A2
100
AcDbEntity
  8
0
100
AcDbLine
 62
7
  6
CONTINUOUS
 10
-228.4352113602
 20
798.1302496187
 11
-228.4352113602
 21
789.1302496187
  0
LINE
  5
7A3
100
AcDbEntity
  8
0
100
AcDbLine
 62
7
  6
CONTINUOUS
 10
-228.4352113602
 20
782.2552496187
 11
-228.4352113602
 21
773.2552496187
  0
LINE
  5
7A4
100
AcDbEntity
  8
0
100
AcDbLine
 62
7
  6
CONTINUOUS
 10
-228.4352113602
 20
769.5552496187
 11
-228.4352113602
 21
760.5552496187
  0
LINE
  5
7A5
100
AcDbEntity
  8
0
100
AcDbLine
 62
7
  6
CONTINUOUS
 10
-228.4352113602
 20
753.6802496187
 11
-228.4352113602
 21
744.6802496187
  0
LINE
  5
7A6
100
AcDbEntity
  8
0
100
AcDbLine
 62
7
  6
CONTINUOUS
 10
-228.4352113602
 20
737.8052496187
 11
-228.4352113602
 21
728.8052496187
  0
LINE
  5
7A7
100
AcDbEntity
  8
0
100
AcDbLine
 62
7
  6
CONTINUOUS
 10
-228.4352113602
 20
725.1052496187
 11
-228.4352113602
 21
716.1052496187
  0
LINE
  5
7A8
100
AcDbEntity
  8
0
100
AcDbLine
 62
7
  6
CONTINUOUS
 10
-228.4352113602
 20
709.2302496187
 11
-228.4352113602
 21
700.2302496187
  0
LINE
  5
7A9
100
AcDbEntity
  8
0
100
AcDbLine
 62
7
  6
CONTINUOUS
 10
-228.4352113602
 20
693.3552496187
 11
-228.4352113602
 21
684.3552496187
  0
LINE
  5
7AA
100
AcDbEntity
  8
0
100
AcDbLine
 62
7
  6
CONTINUOUS
 10
-228.4352113602
 20
680.6552496187
 11
-228.4352113602
 21
671.6552496187
  0
LINE
  5
7AB
100
AcDbEntity
  8
0
100
AcDbLine
 62
7
  6
CONTINUOUS
 10
-228.4352113602
 20
664.7802496187
 11
-228.4352113602
 21
655.7802496187
  0
LINE
  5
7AC
100
AcDbEntity
  8
0
100
AcDbLine
 62
7
  6
CONTINUOUS
 10
-228.4352113602
 20
648.9052496187
 11
-228.4352113602
 21
639.9052496187
  0
LINE
  5
7AD
100
AcDbEntity
  8
0
100
AcDbLine
 62
7
  6
CONTINUOUS
 10
-228.4352113602
 20
636.2052496187
 11
-228.4352113602
 21
627.2052496187
  0
LINE
  5
7AE
100
AcDbEntity
  8
0
100
AcDbLine
 62
7
  6
CONTINUOUS
 10
-228.4352113602
 20
620.3302496187
 11
-228.4352113602
 21
611.3302496187
  0
LINE
  5
7AF
100
AcDbEntity
  8
0
100
AcDbLine
 62
7
  6
CONTINUOUS
 10
-228.4352113602
 20
604.4552496187
 11
-228.4352113602
 21
595.4552496187
  0
LINE
  5
7B0
100
AcDbEntity
  8
0
100
AcDbLine
 62
7
  6
CONTINUOUS
 10
-228.4352113602
 20
591.7552496187
 11
-228.4352113602
 21
582.7552496187
  0
LINE
  5
7B1
100
AcDbEntity
  8
0
100
AcDbLine
 62
7
  6
CONTINUOUS
 10
-228.4352113602
 20
575.8802496187
 11
-228.4352113602
 21
566.8802496187
  0
LINE
  5
7B2
100
AcDbEntity
  8
0
100
AcDbLine
 62
7
  6
CONTINUOUS
 10
-228.4352113602
 20
560.0052496187
 11
-228.4352113602
 21
551.0052496187
  0
LINE
  5
7B3
100
AcDbEntity
  8
0
100
AcDbLine
 62
7
  6
CONTINUOUS
 10
-228.4352113602
 20
547.3052496187
 11
-228.4352113602
 21
538.3052496187
  0
LINE
  5
7B4
100
AcDbEntity
  8
0
100
AcDbLine
 62
7
  6
CONTINUOUS
 10
-228.4352113602
 20
531.4302496187
 11
-228.4352113602
 21
522.4302496187
  0
LINE
  5
7B5
100
AcDbEntity
  8
0
100
AcDbLine
 62
7
  6
CONTINUOUS
 10
-228.4352113602
 20
515.5552496187
 11
-228.4352113602
 21
506.5552496187
  0
LINE
  5
7B6
100
AcDbEntity
  8
0
100
AcDbLine
 62
7
  6
CONTINUOUS
 10
-228.4352113602
 20
502.8552496187
 11
-228.4352113602
 21
493.8552496187
  0
LINE
  5
7B7
100
AcDbEntity
  8
0
100
AcDbLine
 62
7
  6
CONTINUOUS
 10
-228.4352113602
 20
486.9802496187
 11
-228.4352113602
 21
477.9802496187
  0
LINE
  5
7B8
100
AcDbEntity
  8
0
100
AcDbLine
 62
7
  6
CONTINUOUS
 10
-228.4352113602
 20
471.1052496187
 11
-228.4352113602
 21
462.1052496187
  0
LINE
  5
7B9
100
AcDbEntity
  8
0
100
AcDbLine
 62
7
  6
CONTINUOUS
 10
-228.4352113602
 20
458.4052496187
 11
-228.4352113602
 21
449.4052496187
  0
LINE
  5
7BA
100
AcDbEntity
  8
0
100
AcDbLine
 62
7
  6
CONTINUOUS
 10
-228.4352113602
 20
442.5302496187
 11
-228.4352113602
 21
433.5302496187
  0
LINE
  5
7BB
100
AcDbEntity
  8
0
100
AcDbLine
 62
7
  6
CONTINUOUS
 10
-228.4352113602
 20
426.6552496187
 11
-228.4352113602
 21
417.6552496187
  0
LINE
  5
7BC
100
AcDbEntity
  8
0
100
AcDbLine
 62
7
  6
CONTINUOUS
 10
-228.4352113602
 20
413.9552496187
 11
-228.4352113602
 21
404.9552496187
  0
LINE
  5
7BD
100
AcDbEntity
  8
0
100
AcDbLine
 62
7
  6
CONTINUOUS
 10
-228.4352113602
 20
398.0802496187
 11
-228.4352113602
 21
389.0802496187
  0
LINE
  5
7BE
100
AcDbEntity
  8
0
100
AcDbLine
 62
7
  6
CONTINUOUS
 10
-228.4352113602
 20
382.2052496187
 11
-228.4352113602
 21
373.2052496187
  0
LINE
  5
7BF
100
AcDbEntity
  8
0
100
AcDbLine
 62
7
  6
CONTINUOUS
 10
-228.4352113602
 20
369.5052496187
 11
-228.4352113602
 21
360.5052496187
  0
LINE
  5
7C0
100
AcDbEntity
  8
0
100
AcDbLine
 62
7
  6
CONTINUOUS
 10
-228.4352113602
 20
353.6302496187
 11
-228.4352113602
 21
344.6302496187
  0
LINE
  5
7C1
100
AcDbEntity
  8
0
100
AcDbLine
 62
7
  6
CONTINUOUS
 10
-228.4352113602
 20
337.7552496187
 11
-228.4352113602
 21
328.7552496187
  0
LINE
  5
7C2
100
AcDbEntity
  8
0
100
AcDbLine
 62
7
  6
CONTINUOUS
 10
-228.4352113602
 20
325.0552496187
 11
-228.4352113602
 21
316.0552496187
  0
LINE
  5
7C3
100
AcDbEntity
  8
0
100
AcDbLine
 62
7
  6
CONTINUOUS
 10
-228.4352113602
 20
309.1802496187
 11
-228.4352113602
 21
300.1802496187
  0
LINE
  5
7C4
100
AcDbEntity
  8
0
100
AcDbLine
 62
7
  6
CONTINUOUS
 10
-228.4352113602
 20
293.3052496187
 11
-228.4352113602
 21
284.3052496187
  0
LINE
  5
7C5
100
AcDbEntity
  8
0
100
AcDbLine
 62
7
  6
CONTINUOUS
 10
-228.4352113602
 20
280.6052496187
 11
-228.4352113602
 21
271.6052496187
  0
LINE
  5
7C6
100
AcDbEntity
  8
0
100
AcDbLine
 62
7
  6
CONTINUOUS
 10
-228.4352113602
 20
264.7302496187
 11
-228.4352113602
 21
255.7302496187
  0
LINE
  5
7C7
100
AcDbEntity
  8
0
100
AcDbLine
 62
7
  6
CONTINUOUS
 10
-228.4352113602
 20
248.8552496187
 11
-228.4352113602
 21
239.8552496187
  0
LINE
  5
7C8
100
AcDbEntity
  8
0
100
AcDbLine
 62
7
  6
CONTINUOUS
 10
-228.4352113602
 20
236.1552496187
 11
-228.4352113602
 21
227.1552496187
  0
LINE
  5
7C9
100
AcDbEntity
  8
0
100
AcDbLine
 62
7
  6
CONTINUOUS
 10
-228.4352113602
 20
220.2802496187
 11
-228.4352113602
 21
211.2802496187
  0
LINE
  5
7CA
100
AcDbEntity
  8
0
100
AcDbLine
 62
7
  6
CONTINUOUS
 10
-228.4352113602
 20
204.4052496187
 11
-228.4352113602
 21
195.4052496187
  0
LINE
  5
7CB
100
AcDbEntity
  8
0
100
AcDbLine
 62
7
  6
CONTINUOUS
 10
-228.4352113602
 20
191.7052496187
 11
-228.4352113602
 21
182.7052496187
  0
LINE
  5
7CC
100
AcDbEntity
  8
0
100
AcDbLine
 62
7
  6
CONTINUOUS
 10
-228.4352113602
 20
175.8302496187
 11
-228.4352113602
 21
166.8302496187
  0
LINE
  5
7CD
100
AcDbEntity
  8
0
100
AcDbLine
 62
7
  6
CONTINUOUS
 10
-228.4352113602
 20
159.9552496187
 11
-228.4352113602
 21
150.9552496187
  0
LINE
  5
7CE
100
AcDbEntity
  8
0
100
AcDbLine
 62
7
  6
CONTINUOUS
 10
-228.4352113602
 20
147.2552496187
 11
-228.4352113602
 21
138.2552496187
  0
LINE
  5
7CF
100
AcDbEntity
  8
0
100
AcDbLine
 62
7
  6
CONTINUOUS
 10
-228.4352113602
 20
131.3802496187
 11
-228.4352113602
 21
122.3802496187
  0
LINE
  5
7D0
100
AcDbEntity
  8
0
100
AcDbLine
 62
7
  6
CONTINUOUS
 10
-228.4352113602
 20
115.5052496187
 11
-228.4352113602
 21
106.5052496187
  0
LINE
  5
7D1
100
AcDbEntity
  8
0
100
AcDbLine
 62
7
  6
CONTINUOUS
 10
-228.4352113602
 20
102.8052496187
 11
-228.4352113602
 21
93.8052496187
  0
LINE
  5
7D2
100
AcDbEntity
  8
0
100
AcDbLine
 62
7
  6
CONTINUOUS
 10
-228.4352113602
 20
86.9302496187
 11
-228.4352113602
 21
77.9302496187
  0
LINE
  5
7D3
100
AcDbEntity
  8
0
100
AcDbLine
 62
7
  6
CONTINUOUS
 10
-228.4352113602
 20
71.0552496187
 11
-228.4352113602
 21
62.0552496187
  0
LINE
  5
7D4
100
AcDbEntity
  8
0
100
AcDbLine
 62
7
  6
CONTINUOUS
 10
-228.4352113602
 20
58.3552496187
 11
-228.4352113602
 21
49.3552496187
  0
LINE
  5
7D5
100
AcDbEntity
  8
0
100
AcDbLine
 62
7
  6
CONTINUOUS
 10
-228.4352113602
 20
42.4802496187
 11
-228.4352113602
 21
33.4802496187
  0
LINE
  5
7D6
100
AcDbEntity
  8
0
100
AcDbLine
 62
7
  6
CONTINUOUS
 10
-228.4352113602
 20
26.6052496187
 11
-228.4352113602
 21
17.6052496187
  0
LINE
  5
7D7
100
AcDbEntity
  8
0
100
AcDbLine
 62
7
  6
CONTINUOUS
 10
-228.4352113602
 20
13.9052496187
 11
-228.4352113602
 21
4.9052496187
  0
LINE
  5
7D8
100
AcDbEntity
  8
0
100
AcDbLine
 62
7
  6
CONTINUOUS
 10
-228.4352113602
 20
-1.9697503813
 11
-228.4352113602
 21
-10.9697503813
  0
LINE
  5
7D9
100
AcDbEntity
  8
0
100
AcDbLine
 62
7
  6
CONTINUOUS
 10
-228.4352113602
 20
-17.8447503813
 11
-228.4352113602
 21
-26.8447503813
  0
LINE
  5
7DA
100
AcDbEntity
  8
0
100
AcDbLine
 62
7
  6
CONTINUOUS
 10
-228.4352113602
 20
-30.5447503813
 11
-228.4352113602
 21
-39.5447503813
  0
LINE
  5
7DB
100
AcDbEntity
  8
0
100
AcDbLine
 62
7
  6
CONTINUOUS
 10
-228.4352113602
 20
-46.4197503813
 11
-228.4352113602
 21
-55.4197503813
  0
LINE
  5
7DC
100
AcDbEntity
  8
0
100
AcDbLine
 62
7
  6
CONTINUOUS
 10
-228.4352113602
 20
-62.2947503813
 11
-228.4352113602
 21
-71.2947503813
  0
LINE
  5
7DD
100
AcDbEntity
  8
0
100
AcDbLine
 62
7
  6
CONTINUOUS
 10
-228.4352113602
 20
-74.9947503813
 11
-228.4352113602
 21
-83.9947503813
  0
LINE
  5
7DE
100
AcDbEntity
  8
0
100
AcDbLine
 62
7
  6
CONTINUOUS
 10
-228.4352113602
 20
-90.8697503813
 11
-228.4352113602
 21
-99.8697503813
  0
LINE
  5
7DF
100
AcDbEntity
  8
0
100
AcDbLine
 62
7
  6
CONTINUOUS
 10
-228.4352113602
 20
-106.7447503813
 11
-228.4352113602
 21
-115.7447503813
  0
LINE
  5
7E0
100
AcDbEntity
  8
0
100
AcDbLine
 62
7
  6
CONTINUOUS
 10
-228.4352113602
 20
-119.4447503813
 11
-228.4352113602
 21
-128.4447503813
  0
LINE
  5
7E1
100
AcDbEntity
  8
0
100
AcDbLine
 62
7
  6
CONTINUOUS
 10
-228.4352113602
 20
-135.3197503813
 11
-228.4352113602
 21
-144.3197503813
  0
LINE
  5
7E2
100
AcDbEntity
  8
0
100
AcDbLine
 62
7
  6
CONTINUOUS
 10
-228.4352113602
 20
-151.1947503813
 11
-228.4352113602
 21
-160.1947503813
  0
LINE
  5
7E3
100
AcDbEntity
  8
0
100
AcDbLine
 62
7
  6
CONTINUOUS
 10
-228.4352113602
 20
-163.8947503813
 11
-228.4352113602
 21
-172.8947503813
  0
LINE
  5
7E4
100
AcDbEntity
  8
0
100
AcDbLine
 62
7
  6
CONTINUOUS
 10
-228.4352113602
 20
-179.7697503813
 11
-228.4352113602
 21
-188.7697503813
  0
LINE
  5
7E5
100
AcDbEntity
  8
0
100
AcDbLine
 62
7
  6
CONTINUOUS
 10
-228.4352113602
 20
-195.6447503813
 11
-228.4352113602
 21
-204.6447503813
  0
LINE
  5
7E6
100
AcDbEntity
  8
0
100
AcDbLine
 62
7
  6
CONTINUOUS
 10
-228.4352113602
 20
-208.3447503813
 11
-228.4352113602
 21
-217.3447503813
  0
LINE
  5
7E7
100
AcDbEntity
  8
0
100
AcDbLine
 62
7
  6
CONTINUOUS
 10
-228.4352113602
 20
-224.2197503813
 11
-228.4352113602
 21
-233.2197503813
  0
LINE
  5
7E8
100
AcDbEntity
  8
0
100
AcDbLine
 62
7
  6
CONTINUOUS
 10
-228.4352113602
 20
-240.0947503813
 11
-228.4352113602
 21
-249.0947503813
  0
LINE
  5
7E9
100
AcDbEntity
  8
0
100
AcDbLine
 62
7
  6
CONTINUOUS
 10
-228.4352113602
 20
-252.7947503813
 11
-228.4352113602
 21
-261.7947503813
  0
LINE
  5
7EA
100
AcDbEntity
  8
0
100
AcDbLine
 62
7
  6
CONTINUOUS
 10
-228.4352113602
 20
-268.6697503813
 11
-228.4352113602
 21
-277.6697503813
  0
LINE
  5
7EB
100
AcDbEntity
  8
0
100
AcDbLine
 62
7
  6
CONTINUOUS
 10
-228.4352113602
 20
-284.5447503813
 11
-228.4352113602
 21
-293.5447503813
  0
LINE
  5
7EC
100
AcDbEntity
  8
0
100
AcDbLine
 62
7
  6
CONTINUOUS
 10
-228.4352113602
 20
-297.2447503813
 11
-228.4352113602
 21
-306.2447503813
  0
LINE
  5
7ED
100
AcDbEntity
  8
0
100
AcDbLine
 62
7
  6
CONTINUOUS
 10
-228.4352113602
 20
-313.1197503813
 11
-228.4352113602
 21
-322.1197503813
  0
LINE
  5
7EE
100
AcDbEntity
  8
0
100
AcDbLine
 62
7
  6
CONTINUOUS
 10
-228.4352113602
 20
-328.9947503813
 11
-228.4352113602
 21
-337.9947503813
  0
LINE
  5
7EF
100
AcDbEntity
  8
0
100
AcDbLine
 62
7
  6
CONTINUOUS
 10
-228.4352113602
 20
-341.6947503813
 11
-228.4352113602
 21
-350.6947503813
  0
LINE
  5
7F0
100
AcDbEntity
  8
0
100
AcDbLine
 62
7
  6
CONTINUOUS
 10
-228.4352113602
 20
-357.5697503813
 11
-228.4352113602
 21
-366.5697503813
  0
LINE
  5
7F1
100
AcDbEntity
  8
0
100
AcDbLine
 62
7
  6
CONTINUOUS
 10
-228.4352113602
 20
-373.4447503813
 11
-228.4352113602
 21
-382.4447503813
  0
LINE
  5
7F2
100
AcDbEntity
  8
0
100
AcDbLine
 62
7
  6
CONTINUOUS
 10
-228.4352113602
 20
-386.1447503813
 11
-228.4352113602
 21
-395.1447503813
  0
LINE
  5
7F3
100
AcDbEntity
  8
0
100
AcDbLine
 62
7
  6
CONTINUOUS
 10
-228.4352113602
 20
-402.0197503813
 11
-228.4352113602
 21
-411.0197503813
  0
LINE
  5
7F4
100
AcDbEntity
  8
0
100
AcDbLine
 62
7
  6
CONTINUOUS
 10
-228.4352113602
 20
-417.8947503813
 11
-228.4352113602
 21
-426.8947503813
  0
LINE
  5
7F5
100
AcDbEntity
  8
0
100
AcDbLine
 62
7
  6
CONTINUOUS
 10
-228.4352113602
 20
-430.5947503813
 11
-228.4352113602
 21
-439.5947503813
  0
LINE
  5
7F6
100
AcDbEntity
  8
0
100
AcDbLine
 62
7
  6
CONTINUOUS
 10
-228.4352113602
 20
-446.4697503813
 11
-228.4352113602
 21
-455.4697503813
  0
LINE
  5
7F7
100
AcDbEntity
  8
0
100
AcDbLine
 62
7
  6
CONTINUOUS
 10
-228.4352113602
 20
-462.3447503813
 11
-228.4352113602
 21
-471.3447503813
  0
LINE
  5
7F8
100
AcDbEntity
  8
0
100
AcDbLine
 62
7
  6
CONTINUOUS
 10
-228.4352113602
 20
-475.0447503813
 11
-228.4352113602
 21
-484.0447503813
  0
LINE
  5
7F9
100
AcDbEntity
  8
0
100
AcDbLine
 62
7
  6
CONTINUOUS
 10
-228.4352113602
 20
-490.9197503813
 11
-228.4352113602
 21
-499.9197503813
  0
LINE
  5
7FA
100
AcDbEntity
  8
0
100
AcDbLine
 62
7
  6
CONTINUOUS
 10
-228.4352113602
 20
-506.7947503813
 11
-228.4352113602
 21
-515.7947503813
  0
LINE
  5
7FB
100
AcDbEntity
  8
0
100
AcDbLine
 62
7
  6
CONTINUOUS
 10
-228.4352113602
 20
-519.4947503813
 11
-228.4352113602
 21
-528.4947503813
  0
LINE
  5
7FC
100
AcDbEntity
  8
0
100
AcDbLine
 62
7
  6
CONTINUOUS
 10
-228.4352113602
 20
-535.3697503813
 11
-228.4352113602
 21
-544.3697503813
  0
LINE
  5
7FD
100
AcDbEntity
  8
0
100
AcDbLine
 62
7
  6
CONTINUOUS
 10
-228.4352113602
 20
-551.2447503813
 11
-228.4352113602
 21
-560.2447503813
  0
LINE
  5
7FE
100
AcDbEntity
  8
0
100
AcDbLine
 62
7
  6
CONTINUOUS
 10
-228.4352113602
 20
-563.9447503813
 11
-228.4352113602
 21
-572.9447503813
  0
LINE
  5
7FF
100
AcDbEntity
  8
0
100
AcDbLine
 62
7
  6
CONTINUOUS
 10
-228.4352113602
 20
-579.8197503813
 11
-228.4352113602
 21
-588.8197503813
  0
LINE
  5
800
100
AcDbEntity
  8
0
100
AcDbLine
 62
7
  6
CONTINUOUS
 10
-228.4352113602
 20
-595.6947503813
 11
-228.4352113602
 21
-604.6947503813
  0
LINE
  5
801
100
AcDbEntity
  8
0
100
AcDbLine
 62
7
  6
CONTINUOUS
 10
-228.4352113602
 20
-608.3947503813
 11
-228.4352113602
 21
-617.3947503813
  0
LINE
  5
802
100
AcDbEntity
  8
0
100
AcDbLine
 62
7
  6
CONTINUOUS
 10
-228.4352113602
 20
-624.2697503813
 11
-228.4352113602
 21
-633.2697503813
  0
LINE
  5
803
100
AcDbEntity
  8
0
100
AcDbLine
 62
7
  6
CONTINUOUS
 10
-228.4352113602
 20
-640.1447503813
 11
-228.4352113602
 21
-649.1447503813
  0
LINE
  5
804
100
AcDbEntity
  8
0
100
AcDbLine
 62
7
  6
CONTINUOUS
 10
-228.4352113602
 20
-652.8447503813
 11
-228.4352113602
 21
-661.8447503813
  0
LINE
  5
805
100
AcDbEntity
  8
0
100
AcDbLine
 62
7
  6
CONTINUOUS
 10
-228.4352113602
 20
-668.7197503813
 11
-228.4352113602
 21
-677.7197503813
  0
LINE
  5
806
100
AcDbEntity
  8
0
100
AcDbLine
 62
7
  6
CONTINUOUS
 10
-228.4352113602
 20
-684.5947503813
 11
-228.4352113602
 21
-693.5947503813
  0
LINE
  5
807
100
AcDbEntity
  8
0
100
AcDbLine
 62
7
  6
CONTINUOUS
 10
-228.4352113602
 20
-697.2947503813
 11
-228.4352113602
 21
-706.2947503813
  0
LINE
  5
808
100
AcDbEntity
  8
0
100
AcDbLine
 62
7
  6
CONTINUOUS
 10
-228.4352113602
 20
-713.1697503813
 11
-228.4352113602
 21
-722.1697503813
  0
LINE
  5
809
100
AcDbEntity
  8
0
100
AcDbLine
 62
7
  6
CONTINUOUS
 10
-228.4352113602
 20
-729.0447503813
 11
-228.4352113602
 21
-738.0447503813
  0
LINE
  5
80A
100
AcDbEntity
  8
0
100
AcDbLine
 62
7
  6
CONTINUOUS
 10
-228.4352113602
 20
-741.7447503813
 11
-228.4352113602
 21
-750.7447503813
  0
LINE
  5
80B
100
AcDbEntity
  8
0
100
AcDbLine
 62
7
  6
CONTINUOUS
 10
-228.4352113602
 20
-757.6197503813
 11
-228.4352113602
 21
-766.6197503813
  0
LINE
  5
80C
100
AcDbEntity
  8
0
100
AcDbLine
 62
7
  6
CONTINUOUS
 10
-228.4352113602
 20
-773.4947503813
 11
-228.4352113602
 21
-782.4947503813
  0
LINE
  5
80D
100
AcDbEntity
  8
0
100
AcDbLine
 62
7
  6
CONTINUOUS
 10
-228.4352113602
 20
-786.1947503813
 11
-228.4352113602
 21
-795.1947503813
  0
LINE
  5
80E
100
AcDbEntity
  8
0
100
AcDbLine
 62
7
  6
CONTINUOUS
 10
-228.4352113602
 20
-802.0697503813
 11
-228.4352113602
 21
-811.0697503813
  0
LINE
  5
80F
100
AcDbEntity
  8
0
100
AcDbLine
 62
7
  6
CONTINUOUS
 10
-228.4352113602
 20
-817.9447503813
 11
-228.4352113602
 21
-826.9447503813
  0
LINE
  5
810
100
AcDbEntity
  8
0
100
AcDbLine
 62
7
  6
CONTINUOUS
 10
-228.4352113602
 20
-830.6447503813
 11
-228.4352113602
 21
-839.6447503813
  0
LINE
  5
811
100
AcDbEntity
  8
0
100
AcDbLine
 62
7
  6
CONTINUOUS
 10
-228.4352113602
 20
-846.5197503813
 11
-228.4352113602
 21
-855.5197503813
  0
LINE
  5
812
100
AcDbEntity
  8
0
100
AcDbLine
 62
7
  6
CONTINUOUS
 10
-228.4352113602
 20
-862.3947503813
 11
-228.4352113602
 21
-871.3947503813
  0
LINE
  5
813
100
AcDbEntity
  8
0
100
AcDbLine
 62
7
  6
CONTINUOUS
 10
-228.4352113602
 20
-875.0947503813
 11
-228.4352113602
 21
-884.0947503813
  0
LINE
  5
814
100
AcDbEntity
  8
0
100
AcDbLine
 62
7
  6
CONTINUOUS
 10
-228.4352113602
 20
-890.9697503813
 11
-228.4352113602
 21
-899.9697503813
  0
LINE
  5
815
100
AcDbEntity
  8
0
100
AcDbLine
 62
7
  6
CONTINUOUS
 10
-228.4352113602
 20
-906.8447503813
 11
-228.4352113602
 21
-915.8447503813
  0
LINE
  5
816
100
AcDbEntity
  8
0
100
AcDbLine
 62
7
  6
CONTINUOUS
 10
-228.4352113602
 20
-919.5447503813
 11
-228.4352113602
 21
-928.5447503813
  0
LINE
  5
817
100
AcDbEntity
  8
0
100
AcDbLine
 62
7
  6
CONTINUOUS
 10
-228.4352113602
 20
-935.4197503813
 11
-228.4352113602
 21
-944.4197503813
  0
LINE
  5
818
100
AcDbEntity
  8
0
100
AcDbLine
 62
7
  6
CONTINUOUS
 10
-228.4352113602
 20
-951.2947503813
 11
-228.4352113602
 21
-960.2947503813
  0
LINE
  5
819
100
AcDbEntity
  8
RACCORDO
100
AcDbLine
 62
7
  6
CONTINUOUS
 10
-225.0352113602
 20
901.8052496187
 11
-225.0352113602
 21
-959.1947503813
  0
LINE
  5
81A
100
AcDbEntity
  8
0
100
AcDbLine
 62
7
  6
CONTINUOUS
 10
-228.4352113602
 20
49.3552496187
 11
-237.4352113602
 21
49.3552496187
  0
LINE
  5
81B
100
AcDbEntity
  8
0
100
AcDbLine
 62
7
  6
CONTINUOUS
 10
-428.4352113602
 20
49.3552496187
 11
-437.4352113602
 21
49.3552496187
  0
LINE
  5
81C
100
AcDbEntity
  8
0
100
AcDbLine
 62
7
  6
CONTINUOUS
 10
-437.4352113602
 20
58.3552496187
 11
-428.4352113602
 21
58.3552496187
  0
LINE
  5
81D
100
AcDbEntity
  8
0
100
AcDbLine
 62
7
  6
CONTINUOUS
 10
-237.4352113602
 20
58.3552496187
 11
-228.4352113602
 21
58.3552496187
  0
LINE
  5
81E
100
AcDbEntity
  8
0
100
AcDbLine
 62
7
  6
CONTINUOUS
 10
-228.4352113602
 20
62.0552496187
 11
-237.4352113602
 21
62.0552496187
  0
LINE
  5
81F
100
AcDbEntity
  8
0
100
AcDbLine
 62
7
  6
CONTINUOUS
 10
-428.4352113602
 20
62.0552496187
 11
-437.4352113602
 21
62.0552496187
  0
LINE
  5
820
100
AcDbEntity
  8
0
100
AcDbLine
 62
7
  6
CONTINUOUS
 10
-437.4352113602
 20
71.0552496187
 11
-428.4352113602
 21
71.0552496187
  0
LINE
  5
821
100
AcDbEntity
  8
0
100
AcDbLine
 62
7
  6
CONTINUOUS
 10
-237.4352113602
 20
71.0552496187
 11
-228.4352113602
 21
71.0552496187
  0
LINE
  5
822
100
AcDbEntity
  8
0
100
AcDbLine
 62
7
  6
CONTINUOUS
 10
-228.4352113602
 20
77.9302496187
 11
-237.4352113602
 21
77.9302496187
  0
LINE
  5
823
100
AcDbEntity
  8
0
100
AcDbLine
 62
7
  6
CONTINUOUS
 10
-428.4352113602
 20
77.9302496187
 11
-437.4352113602
 21
77.9302496187
  0
LINE
  5
824
100
AcDbEntity
  8
0
100
AcDbLine
 62
7
  6
CONTINUOUS
 10
-437.4352113602
 20
86.9302496187
 11
-428.4352113602
 21
86.9302496187
  0
LINE
  5
825
100
AcDbEntity
  8
0
100
AcDbLine
 62
7
  6
CONTINUOUS
 10
-237.4352113602
 20
86.9302496187
 11
-228.4352113602
 21
86.9302496187
  0
LINE
  5
826
100
AcDbEntity
  8
0
100
AcDbLine
 62
7
  6
CONTINUOUS
 10
-228.4352113602
 20
93.8052496187
 11
-237.4352113602
 21
93.8052496187
  0
LINE
  5
827
100
AcDbEntity
  8
0
100
AcDbLine
 62
7
  6
CONTINUOUS
 10
-428.4352113602
 20
93.8052496187
 11
-437.4352113602
 21
93.8052496187
  0
LINE
  5
828
100
AcDbEntity
  8
0
100
AcDbLine
 62
7
  6
CONTINUOUS
 10
-437.4352113602
 20
102.8052496187
 11
-428.4352113602
 21
102.8052496187
  0
LINE
  5
829
100
AcDbEntity
  8
0
100
AcDbLine
 62
7
  6
CONTINUOUS
 10
-237.4352113602
 20
102.8052496187
 11
-228.4352113602
 21
102.8052496187
  0
LINE
  5
82A
100
AcDbEntity
  8
0
100
AcDbLine
 62
7
  6
CONTINUOUS
 10
-228.4352113602
 20
106.5052496187
 11
-237.4352113602
 21
106.5052496187
  0
LINE
  5
82B
100
AcDbEntity
  8
0
100
AcDbLine
 62
7
  6
CONTINUOUS
 10
-428.4352113602
 20
106.5052496187
 11
-437.4352113602
 21
106.5052496187
  0
LINE
  5
82C
100
AcDbEntity
  8
0
100
AcDbLine
 62
7
  6
CONTINUOUS
 10
-437.4352113602
 20
115.5052496187
 11
-428.4352113602
 21
115.5052496187
  0
LINE
  5
82D
100
AcDbEntity
  8
0
100
AcDbLine
 62
7
  6
CONTINUOUS
 10
-237.4352113602
 20
115.5052496187
 11
-228.4352113602
 21
115.5052496187
  0
LINE
  5
82E
100
AcDbEntity
  8
0
100
AcDbLine
 62
7
  6
CONTINUOUS
 10
-228.4352113602
 20
122.3802496187
 11
-237.4352113602
 21
122.3802496187
  0
LINE
  5
82F
100
AcDbEntity
  8
0
100
AcDbLine
 62
7
  6
CONTINUOUS
 10
-428.4352113602
 20
122.3802496187
 11
-437.4352113602
 21
122.3802496187
  0
LINE
  5
830
100
AcDbEntity
  8
0
100
AcDbLine
 62
7
  6
CONTINUOUS
 10
-437.4352113602
 20
131.3802496187
 11
-428.4352113602
 21
131.3802496187
  0
LINE
  5
831
100
AcDbEntity
  8
0
100
AcDbLine
 62
7
  6
CONTINUOUS
 10
-237.4352113602
 20
131.3802496187
 11
-228.4352113602
 21
131.3802496187
  0
LINE
  5
832
100
AcDbEntity
  8
0
100
AcDbLine
 62
7
  6
CONTINUOUS
 10
-228.4352113602
 20
138.2552496187
 11
-237.4352113602
 21
138.2552496187
  0
LINE
  5
833
100
AcDbEntity
  8
0
100
AcDbLine
 62
7
  6
CONTINUOUS
 10
-428.4352113602
 20
138.2552496187
 11
-437.4352113602
 21
138.2552496187
  0
LINE
  5
834
100
AcDbEntity
  8
0
100
AcDbLine
 62
7
  6
CONTINUOUS
 10
-437.4352113602
 20
147.2552496187
 11
-428.4352113602
 21
147.2552496187
  0
LINE
  5
835
100
AcDbEntity
  8
0
100
AcDbLine
 62
7
  6
CONTINUOUS
 10
-237.4352113602
 20
147.2552496187
 11
-228.4352113602
 21
147.2552496187
  0
LINE
  5
836
100
AcDbEntity
  8
0
100
AcDbLine
 62
7
  6
CONTINUOUS
 10
-228.4352113602
 20
150.9552496187
 11
-237.4352113602
 21
150.9552496187
  0
LINE
  5
837
100
AcDbEntity
  8
0
100
AcDbLine
 62
7
  6
CONTINUOUS
 10
-428.4352113602
 20
150.9552496187
 11
-437.4352113602
 21
150.9552496187
  0
LINE
  5
838
100
AcDbEntity
  8
0
100
AcDbLine
 62
7
  6
CONTINUOUS
 10
-437.4352113602
 20
159.9552496187
 11
-428.4352113602
 21
159.9552496187
  0
LINE
  5
839
100
AcDbEntity
  8
0
100
AcDbLine
 62
7
  6
CONTINUOUS
 10
-237.4352113602
 20
159.9552496187
 11
-228.4352113602
 21
159.9552496187
  0
LINE
  5
83A
100
AcDbEntity
  8
0
100
AcDbLine
 62
7
  6
CONTINUOUS
 10
-228.4352113602
 20
166.8302496187
 11
-237.4352113602
 21
166.8302496187
  0
LINE
  5
83B
100
AcDbEntity
  8
0
100
AcDbLine
 62
7
  6
CONTINUOUS
 10
-428.4352113602
 20
166.8302496187
 11
-437.4352113602
 21
166.8302496187
  0
LINE
  5
83C
100
AcDbEntity
  8
0
100
AcDbLine
 62
7
  6
CONTINUOUS
 10
-437.4352113602
 20
175.8302496187
 11
-428.4352113602
 21
175.8302496187
  0
LINE
  5
83D
100
AcDbEntity
  8
0
100
AcDbLine
 62
7
  6
CONTINUOUS
 10
-237.4352113602
 20
175.8302496187
 11
-228.4352113602
 21
175.8302496187
  0
LINE
  5
83E
100
AcDbEntity
  8
0
100
AcDbLine
 62
7
  6
CONTINUOUS
 10
-228.4352113602
 20
182.7052496187
 11
-237.4352113602
 21
182.7052496187
  0
LINE
  5
83F
100
AcDbEntity
  8
0
100
AcDbLine
 62
7
  6
CONTINUOUS
 10
-428.4352113602
 20
182.7052496187
 11
-437.4352113602
 21
182.7052496187
  0
LINE
  5
840
100
AcDbEntity
  8
0
100
AcDbLine
 62
7
  6
CONTINUOUS
 10
-437.4352113602
 20
191.7052496187
 11
-428.4352113602
 21
191.7052496187
  0
LINE
  5
841
100
AcDbEntity
  8
0
100
AcDbLine
 62
7
  6
CONTINUOUS
 10
-237.4352113602
 20
191.7052496187
 11
-228.4352113602
 21
191.7052496187
  0
LINE
  5
842
100
AcDbEntity
  8
0
100
AcDbLine
 62
7
  6
CONTINUOUS
 10
-228.4352113602
 20
195.4052496187
 11
-237.4352113602
 21
195.4052496187
  0
LINE
  5
843
100
AcDbEntity
  8
0
100
AcDbLine
 62
7
  6
CONTINUOUS
 10
-428.4352113602
 20
195.4052496187
 11
-437.4352113602
 21
195.4052496187
  0
LINE
  5
844
100
AcDbEntity
  8
0
100
AcDbLine
 62
7
  6
CONTINUOUS
 10
-437.4352113602
 20
204.4052496187
 11
-428.4352113602
 21
204.4052496187
  0
LINE
  5
845
100
AcDbEntity
  8
0
100
AcDbLine
 62
7
  6
CONTINUOUS
 10
-237.4352113602
 20
204.4052496187
 11
-228.4352113602
 21
204.4052496187
  0
LINE
  5
846
100
AcDbEntity
  8
0
100
AcDbLine
 62
7
  6
CONTINUOUS
 10
-228.4352113602
 20
211.2802496187
 11
-237.4352113602
 21
211.2802496187
  0
LINE
  5
847
100
AcDbEntity
  8
0
100
AcDbLine
 62
7
  6
CONTINUOUS
 10
-428.4352113602
 20
211.2802496187
 11
-437.4352113602
 21
211.2802496187
  0
LINE
  5
848
100
AcDbEntity
  8
0
100
AcDbLine
 62
7
  6
CONTINUOUS
 10
-437.4352113602
 20
220.2802496187
 11
-428.4352113602
 21
220.2802496187
  0
LINE
  5
849
100
AcDbEntity
  8
0
100
AcDbLine
 62
7
  6
CONTINUOUS
 10
-237.4352113602
 20
220.2802496187
 11
-228.4352113602
 21
220.2802496187
  0
LINE
  5
84A
100
AcDbEntity
  8
0
100
AcDbLine
 62
7
  6
CONTINUOUS
 10
-228.4352113602
 20
227.1552496187
 11
-237.4352113602
 21
227.1552496187
  0
LINE
  5
84B
100
AcDbEntity
  8
0
100
AcDbLine
 62
7
  6
CONTINUOUS
 10
-428.4352113602
 20
227.1552496187
 11
-437.4352113602
 21
227.1552496187
  0
LINE
  5
84C
100
AcDbEntity
  8
0
100
AcDbLine
 62
7
  6
CONTINUOUS
 10
-437.4352113602
 20
236.1552496187
 11
-428.4352113602
 21
236.1552496187
  0
LINE
  5
84D
100
AcDbEntity
  8
0
100
AcDbLine
 62
7
  6
CONTINUOUS
 10
-237.4352113602
 20
236.1552496187
 11
-228.4352113602
 21
236.1552496187
  0
LINE
  5
84E
100
AcDbEntity
  8
0
100
AcDbLine
 62
7
  6
CONTINUOUS
 10
-228.4352113602
 20
239.8552496187
 11
-237.4352113602
 21
239.8552496187
  0
LINE
  5
84F
100
AcDbEntity
  8
0
100
AcDbLine
 62
7
  6
CONTINUOUS
 10
-428.4352113602
 20
239.8552496187
 11
-437.4352113602
 21
239.8552496187
  0
LINE
  5
850
100
AcDbEntity
  8
0
100
AcDbLine
 62
7
  6
CONTINUOUS
 10
-437.4352113602
 20
248.8552496187
 11
-428.4352113602
 21
248.8552496187
  0
LINE
  5
851
100
AcDbEntity
  8
0
100
AcDbLine
 62
7
  6
CONTINUOUS
 10
-237.4352113602
 20
248.8552496187
 11
-228.4352113602
 21
248.8552496187
  0
LINE
  5
852
100
AcDbEntity
  8
0
100
AcDbLine
 62
7
  6
CONTINUOUS
 10
-228.4352113602
 20
255.7302496187
 11
-237.4352113602
 21
255.7302496187
  0
LINE
  5
853
100
AcDbEntity
  8
0
100
AcDbLine
 62
7
  6
CONTINUOUS
 10
-428.4352113602
 20
255.7302496187
 11
-437.4352113602
 21
255.7302496187
  0
LINE
  5
854
100
AcDbEntity
  8
0
100
AcDbLine
 62
7
  6
CONTINUOUS
 10
-437.4352113602
 20
264.7302496187
 11
-428.4352113602
 21
264.7302496187
  0
LINE
  5
855
100
AcDbEntity
  8
0
100
AcDbLine
 62
7
  6
CONTINUOUS
 10
-237.4352113602
 20
264.7302496187
 11
-228.4352113602
 21
264.7302496187
  0
LINE
  5
856
100
AcDbEntity
  8
0
100
AcDbLine
 62
7
  6
CONTINUOUS
 10
-228.4352113602
 20
271.6052496187
 11
-237.4352113602
 21
271.6052496187
  0
LINE
  5
857
100
AcDbEntity
  8
0
100
AcDbLine
 62
7
  6
CONTINUOUS
 10
-428.4352113602
 20
271.6052496187
 11
-437.4352113602
 21
271.6052496187
  0
LINE
  5
858
100
AcDbEntity
  8
0
100
AcDbLine
 62
7
  6
CONTINUOUS
 10
-437.4352113602
 20
280.6052496187
 11
-428.4352113602
 21
280.6052496187
  0
LINE
  5
859
100
AcDbEntity
  8
0
100
AcDbLine
 62
7
  6
CONTINUOUS
 10
-237.4352113602
 20
280.6052496187
 11
-228.4352113602
 21
280.6052496187
  0
LINE
  5
85A
100
AcDbEntity
  8
0
100
AcDbLine
 62
7
  6
CONTINUOUS
 10
-228.4352113602
 20
284.3052496187
 11
-237.4352113602
 21
284.3052496187
  0
LINE
  5
85B
100
AcDbEntity
  8
0
100
AcDbLine
 62
7
  6
CONTINUOUS
 10
-428.4352113602
 20
284.3052496187
 11
-437.4352113602
 21
284.3052496187
  0
LINE
  5
85C
100
AcDbEntity
  8
0
100
AcDbLine
 62
7
  6
CONTINUOUS
 10
-437.4352113602
 20
293.3052496187
 11
-428.4352113602
 21
293.3052496187
  0
LINE
  5
85D
100
AcDbEntity
  8
0
100
AcDbLine
 62
7
  6
CONTINUOUS
 10
-237.4352113602
 20
293.3052496187
 11
-228.4352113602
 21
293.3052496187
  0
LINE
  5
85E
100
AcDbEntity
  8
0
100
AcDbLine
 62
7
  6
CONTINUOUS
 10
-228.4352113602
 20
300.1802496187
 11
-237.4352113602
 21
300.1802496187
  0
LINE
  5
85F
100
AcDbEntity
  8
0
100
AcDbLine
 62
7
  6
CONTINUOUS
 10
-428.4352113602
 20
300.1802496187
 11
-437.4352113602
 21
300.1802496187
  0
LINE
  5
860
100
AcDbEntity
  8
0
100
AcDbLine
 62
7
  6
CONTINUOUS
 10
-437.4352113602
 20
309.1802496187
 11
-428.4352113602
 21
309.1802496187
  0
LINE
  5
861
100
AcDbEntity
  8
0
100
AcDbLine
 62
7
  6
CONTINUOUS
 10
-237.4352113602
 20
309.1802496187
 11
-228.4352113602
 21
309.1802496187
  0
LINE
  5
862
100
AcDbEntity
  8
0
100
AcDbLine
 62
7
  6
CONTINUOUS
 10
-228.4352113602
 20
316.0552496187
 11
-237.4352113602
 21
316.0552496187
  0
LINE
  5
863
100
AcDbEntity
  8
0
100
AcDbLine
 62
7
  6
CONTINUOUS
 10
-428.4352113602
 20
316.0552496187
 11
-437.4352113602
 21
316.0552496187
  0
LINE
  5
864
100
AcDbEntity
  8
0
100
AcDbLine
 62
7
  6
CONTINUOUS
 10
-437.4352113602
 20
325.0552496187
 11
-428.4352113602
 21
325.0552496187
  0
LINE
  5
865
100
AcDbEntity
  8
0
100
AcDbLine
 62
7
  6
CONTINUOUS
 10
-237.4352113602
 20
325.0552496187
 11
-228.4352113602
 21
325.0552496187
  0
LINE
  5
866
100
AcDbEntity
  8
0
100
AcDbLine
 62
7
  6
CONTINUOUS
 10
-228.4352113602
 20
328.7552496187
 11
-237.4352113602
 21
328.7552496187
  0
LINE
  5
867
100
AcDbEntity
  8
0
100
AcDbLine
 62
7
  6
CONTINUOUS
 10
-428.4352113602
 20
328.7552496187
 11
-437.4352113602
 21
328.7552496187
  0
LINE
  5
868
100
AcDbEntity
  8
0
100
AcDbLine
 62
7
  6
CONTINUOUS
 10
-437.4352113602
 20
337.7552496187
 11
-428.4352113602
 21
337.7552496187
  0
LINE
  5
869
100
AcDbEntity
  8
0
100
AcDbLine
 62
7
  6
CONTINUOUS
 10
-237.4352113602
 20
337.7552496187
 11
-228.4352113602
 21
337.7552496187
  0
LINE
  5
86A
100
AcDbEntity
  8
0
100
AcDbLine
 62
7
  6
CONTINUOUS
 10
-228.4352113602
 20
344.6302496187
 11
-237.4352113602
 21
344.6302496187
  0
LINE
  5
86B
100
AcDbEntity
  8
0
100
AcDbLine
 62
7
  6
CONTINUOUS
 10
-428.4352113602
 20
344.6302496187
 11
-437.4352113602
 21
344.6302496187
  0
LINE
  5
86C
100
AcDbEntity
  8
0
100
AcDbLine
 62
7
  6
CONTINUOUS
 10
-437.4352113602
 20
353.6302496187
 11
-428.4352113602
 21
353.6302496187
  0
LINE
  5
86D
100
AcDbEntity
  8
0
100
AcDbLine
 62
7
  6
CONTINUOUS
 10
-237.4352113602
 20
353.6302496187
 11
-228.4352113602
 21
353.6302496187
  0
LINE
  5
86E
100
AcDbEntity
  8
0
100
AcDbLine
 62
7
  6
CONTINUOUS
 10
-228.4352113602
 20
360.5052496187
 11
-237.4352113602
 21
360.5052496187
  0
LINE
  5
86F
100
AcDbEntity
  8
0
100
AcDbLine
 62
7
  6
CONTINUOUS
 10
-428.4352113602
 20
360.5052496187
 11
-437.4352113602
 21
360.5052496187
  0
LINE
  5
870
100
AcDbEntity
  8
0
100
AcDbLine
 62
7
  6
CONTINUOUS
 10
-437.4352113602
 20
369.5052496187
 11
-428.4352113602
 21
369.5052496187
  0
LINE
  5
871
100
AcDbEntity
  8
0
100
AcDbLine
 62
7
  6
CONTINUOUS
 10
-237.4352113602
 20
369.5052496187
 11
-228.4352113602
 21
369.5052496187
  0
LINE
  5
872
100
AcDbEntity
  8
0
100
AcDbLine
 62
7
  6
CONTINUOUS
 10
-228.4352113602
 20
373.2052496187
 11
-237.4352113602
 21
373.2052496187
  0
LINE
  5
873
100
AcDbEntity
  8
0
100
AcDbLine
 62
7
  6
CONTINUOUS
 10
-428.4352113602
 20
373.2052496187
 11
-437.4352113602
 21
373.2052496187
  0
LINE
  5
874
100
AcDbEntity
  8
0
100
AcDbLine
 62
7
  6
CONTINUOUS
 10
-437.4352113602
 20
382.2052496187
 11
-428.4352113602
 21
382.2052496187
  0
LINE
  5
875
100
AcDbEntity
  8
0
100
AcDbLine
 62
7
  6
CONTINUOUS
 10
-237.4352113602
 20
382.2052496187
 11
-228.4352113602
 21
382.2052496187
  0
LINE
  5
876
100
AcDbEntity
  8
0
100
AcDbLine
 62
7
  6
CONTINUOUS
 10
-228.4352113602
 20
389.0802496187
 11
-237.4352113602
 21
389.0802496187
  0
LINE
  5
877
100
AcDbEntity
  8
0
100
AcDbLine
 62
7
  6
CONTINUOUS
 10
-428.4352113602
 20
389.0802496187
 11
-437.4352113602
 21
389.0802496187
  0
LINE
  5
878
100
AcDbEntity
  8
0
100
AcDbLine
 62
7
  6
CONTINUOUS
 10
-437.4352113602
 20
398.0802496187
 11
-428.4352113602
 21
398.0802496187
  0
LINE
  5
879
100
AcDbEntity
  8
0
100
AcDbLine
 62
7
  6
CONTINUOUS
 10
-237.4352113602
 20
398.0802496187
 11
-228.4352113602
 21
398.0802496187
  0
LINE
  5
87A
100
AcDbEntity
  8
0
100
AcDbLine
 62
7
  6
CONTINUOUS
 10
-228.4352113602
 20
404.9552496187
 11
-237.4352113602
 21
404.9552496187
  0
LINE
  5
87B
100
AcDbEntity
  8
0
100
AcDbLine
 62
7
  6
CONTINUOUS
 10
-428.4352113602
 20
404.9552496187
 11
-437.4352113602
 21
404.9552496187
  0
LINE
  5
87C
100
AcDbEntity
  8
0
100
AcDbLine
 62
7
  6
CONTINUOUS
 10
-437.4352113602
 20
413.9552496187
 11
-428.4352113602
 21
413.9552496187
  0
LINE
  5
87D
100
AcDbEntity
  8
0
100
AcDbLine
 62
7
  6
CONTINUOUS
 10
-237.4352113602
 20
413.9552496187
 11
-228.4352113602
 21
413.9552496187
  0
LINE
  5
87E
100
AcDbEntity
  8
0
100
AcDbLine
 62
7
  6
CONTINUOUS
 10
-228.4352113602
 20
417.6552496187
 11
-237.4352113602
 21
417.6552496187
  0
LINE
  5
87F
100
AcDbEntity
  8
0
100
AcDbLine
 62
7
  6
CONTINUOUS
 10
-428.4352113602
 20
417.6552496187
 11
-437.4352113602
 21
417.6552496187
  0
LINE
  5
880
100
AcDbEntity
  8
0
100
AcDbLine
 62
7
  6
CONTINUOUS
 10
-437.4352113602
 20
426.6552496187
 11
-428.4352113602
 21
426.6552496187
  0
LINE
  5
881
100
AcDbEntity
  8
0
100
AcDbLine
 62
7
  6
CONTINUOUS
 10
-237.4352113602
 20
426.6552496187
 11
-228.4352113602
 21
426.6552496187
  0
LINE
  5
882
100
AcDbEntity
  8
0
100
AcDbLine
 62
7
  6
CONTINUOUS
 10
-228.4352113602
 20
433.5302496187
 11
-237.4352113602
 21
433.5302496187
  0
LINE
  5
883
100
AcDbEntity
  8
0
100
AcDbLine
 62
7
  6
CONTINUOUS
 10
-428.4352113602
 20
433.5302496187
 11
-437.4352113602
 21
433.5302496187
  0
LINE
  5
884
100
AcDbEntity
  8
0
100
AcDbLine
 62
7
  6
CONTINUOUS
 10
-437.4352113602
 20
442.5302496187
 11
-428.4352113602
 21
442.5302496187
  0
LINE
  5
885
100
AcDbEntity
  8
0
100
AcDbLine
 62
7
  6
CONTINUOUS
 10
-237.4352113602
 20
442.5302496187
 11
-228.4352113602
 21
442.5302496187
  0
LINE
  5
886
100
AcDbEntity
  8
0
100
AcDbLine
 62
7
  6
CONTINUOUS
 10
-228.4352113602
 20
449.4052496187
 11
-237.4352113602
 21
449.4052496187
  0
LINE
  5
887
100
AcDbEntity
  8
0
100
AcDbLine
 62
7
  6
CONTINUOUS
 10
-428.4352113602
 20
449.4052496187
 11
-437.4352113602
 21
449.4052496187
  0
LINE
  5
888
100
AcDbEntity
  8
0
100
AcDbLine
 62
7
  6
CONTINUOUS
 10
-437.4352113602
 20
458.4052496187
 11
-428.4352113602
 21
458.4052496187
  0
LINE
  5
889
100
AcDbEntity
  8
0
100
AcDbLine
 62
7
  6
CONTINUOUS
 10
-237.4352113602
 20
458.4052496187
 11
-228.4352113602
 21
458.4052496187
  0
LINE
  5
88A
100
AcDbEntity
  8
0
100
AcDbLine
 62
7
  6
CONTINUOUS
 10
-228.4352113602
 20
462.1052496187
 11
-237.4352113602
 21
462.1052496187
  0
LINE
  5
88B
100
AcDbEntity
  8
0
100
AcDbLine
 62
7
  6
CONTINUOUS
 10
-428.4352113602
 20
462.1052496187
 11
-437.4352113602
 21
462.1052496187
  0
LINE
  5
88C
100
AcDbEntity
  8
0
100
AcDbLine
 62
7
  6
CONTINUOUS
 10
-437.4352113602
 20
471.1052496187
 11
-428.4352113602
 21
471.1052496187
  0
LINE
  5
88D
100
AcDbEntity
  8
0
100
AcDbLine
 62
7
  6
CONTINUOUS
 10
-237.4352113602
 20
471.1052496187
 11
-228.4352113602
 21
471.1052496187
  0
LINE
  5
88E
100
AcDbEntity
  8
0
100
AcDbLine
 62
7
  6
CONTINUOUS
 10
-228.4352113602
 20
477.9802496187
 11
-237.4352113602
 21
477.9802496187
  0
LINE
  5
88F
100
AcDbEntity
  8
0
100
AcDbLine
 62
7
  6
CONTINUOUS
 10
-428.4352113602
 20
477.9802496187
 11
-437.4352113602
 21
477.9802496187
  0
LINE
  5
890
100
AcDbEntity
  8
0
100
AcDbLine
 62
7
  6
CONTINUOUS
 10
-437.4352113602
 20
486.9802496187
 11
-428.4352113602
 21
486.9802496187
  0
LINE
  5
891
100
AcDbEntity
  8
0
100
AcDbLine
 62
7
  6
CONTINUOUS
 10
-237.4352113602
 20
486.9802496187
 11
-228.4352113602
 21
486.9802496187
  0
LINE
  5
892
100
AcDbEntity
  8
0
100
AcDbLine
 62
7
  6
CONTINUOUS
 10
-228.4352113602
 20
493.8552496187
 11
-237.4352113602
 21
493.8552496187
  0
LINE
  5
893
100
AcDbEntity
  8
0
100
AcDbLine
 62
7
  6
CONTINUOUS
 10
-428.4352113602
 20
493.8552496187
 11
-437.4352113602
 21
493.8552496187
  0
LINE
  5
894
100
AcDbEntity
  8
0
100
AcDbLine
 62
7
  6
CONTINUOUS
 10
-437.4352113602
 20
502.8552496187
 11
-428.4352113602
 21
502.8552496187
  0
LINE
  5
895
100
AcDbEntity
  8
0
100
AcDbLine
 62
7
  6
CONTINUOUS
 10
-237.4352113602
 20
502.8552496187
 11
-228.4352113602
 21
502.8552496187
  0
LINE
  5
896
100
AcDbEntity
  8
0
100
AcDbLine
 62
7
  6
CONTINUOUS
 10
-228.4352113602
 20
506.5552496187
 11
-237.4352113602
 21
506.5552496187
  0
LINE
  5
897
100
AcDbEntity
  8
0
100
AcDbLine
 62
7
  6
CONTINUOUS
 10
-428.4352113602
 20
506.5552496187
 11
-437.4352113602
 21
506.5552496187
  0
LINE
  5
898
100
AcDbEntity
  8
0
100
AcDbLine
 62
7
  6
CONTINUOUS
 10
-437.4352113602
 20
515.5552496187
 11
-428.4352113602
 21
515.5552496187
  0
LINE
  5
899
100
AcDbEntity
  8
0
100
AcDbLine
 62
7
  6
CONTINUOUS
 10
-237.4352113602
 20
515.5552496187
 11
-228.4352113602
 21
515.5552496187
  0
LINE
  5
89A
100
AcDbEntity
  8
0
100
AcDbLine
 62
7
  6
CONTINUOUS
 10
-228.4352113602
 20
522.4302496187
 11
-237.4352113602
 21
522.4302496187
  0
LINE
  5
89B
100
AcDbEntity
  8
0
100
AcDbLine
 62
7
  6
CONTINUOUS
 10
-428.4352113602
 20
522.4302496187
 11
-437.4352113602
 21
522.4302496187
  0
LINE
  5
89C
100
AcDbEntity
  8
0
100
AcDbLine
 62
7
  6
CONTINUOUS
 10
-437.4352113602
 20
531.4302496187
 11
-428.4352113602
 21
531.4302496187
  0
LINE
  5
89D
100
AcDbEntity
  8
0
100
AcDbLine
 62
7
  6
CONTINUOUS
 10
-237.4352113602
 20
531.4302496187
 11
-228.4352113602
 21
531.4302496187
  0
LINE
  5
89E
100
AcDbEntity
  8
0
100
AcDbLine
 62
7
  6
CONTINUOUS
 10
-228.4352113602
 20
538.3052496187
 11
-237.4352113602
 21
538.3052496187
  0
LINE
  5
89F
100
AcDbEntity
  8
0
100
AcDbLine
 62
7
  6
CONTINUOUS
 10
-428.4352113602
 20
538.3052496187
 11
-437.4352113602
 21
538.3052496187
  0
LINE
  5
8A0
100
AcDbEntity
  8
0
100
AcDbLine
 62
7
  6
CONTINUOUS
 10
-437.4352113602
 20
547.3052496187
 11
-428.4352113602
 21
547.3052496187
  0
LINE
  5
8A1
100
AcDbEntity
  8
0
100
AcDbLine
 62
7
  6
CONTINUOUS
 10
-237.4352113602
 20
547.3052496187
 11
-228.4352113602
 21
547.3052496187
  0
LINE
  5
8A2
100
AcDbEntity
  8
0
100
AcDbLine
 62
7
  6
CONTINUOUS
 10
-228.4352113602
 20
551.0052496187
 11
-237.4352113602
 21
551.0052496187
  0
LINE
  5
8A3
100
AcDbEntity
  8
0
100
AcDbLine
 62
7
  6
CONTINUOUS
 10
-428.4352113602
 20
551.0052496187
 11
-437.4352113602
 21
551.0052496187
  0
LINE
  5
8A4
100
AcDbEntity
  8
0
100
AcDbLine
 62
7
  6
CONTINUOUS
 10
-437.4352113602
 20
560.0052496187
 11
-428.4352113602
 21
560.0052496187
  0
LINE
  5
8A5
100
AcDbEntity
  8
0
100
AcDbLine
 62
7
  6
CONTINUOUS
 10
-237.4352113602
 20
560.0052496187
 11
-228.4352113602
 21
560.0052496187
  0
LINE
  5
8A6
100
AcDbEntity
  8
0
100
AcDbLine
 62
7
  6
CONTINUOUS
 10
-228.4352113602
 20
566.8802496187
 11
-237.4352113602
 21
566.8802496187
  0
LINE
  5
8A7
100
AcDbEntity
  8
0
100
AcDbLine
 62
7
  6
CONTINUOUS
 10
-428.4352113602
 20
566.8802496187
 11
-437.4352113602
 21
566.8802496187
  0
LINE
  5
8A8
100
AcDbEntity
  8
0
100
AcDbLine
 62
7
  6
CONTINUOUS
 10
-437.4352113602
 20
575.8802496187
 11
-428.4352113602
 21
575.8802496187
  0
LINE
  5
8A9
100
AcDbEntity
  8
0
100
AcDbLine
 62
7
  6
CONTINUOUS
 10
-237.4352113602
 20
575.8802496187
 11
-228.4352113602
 21
575.8802496187
  0
LINE
  5
8AA
100
AcDbEntity
  8
0
100
AcDbLine
 62
7
  6
CONTINUOUS
 10
-228.4352113602
 20
582.7552496187
 11
-237.4352113602
 21
582.7552496187
  0
LINE
  5
8AB
100
AcDbEntity
  8
0
100
AcDbLine
 62
7
  6
CONTINUOUS
 10
-428.4352113602
 20
582.7552496187
 11
-437.4352113602
 21
582.7552496187
  0
LINE
  5
8AC
100
AcDbEntity
  8
0
100
AcDbLine
 62
7
  6
CONTINUOUS
 10
-437.4352113602
 20
591.7552496187
 11
-428.4352113602
 21
591.7552496187
  0
LINE
  5
8AD
100
AcDbEntity
  8
0
100
AcDbLine
 62
7
  6
CONTINUOUS
 10
-237.4352113602
 20
591.7552496187
 11
-228.4352113602
 21
591.7552496187
  0
LINE
  5
8AE
100
AcDbEntity
  8
0
100
AcDbLine
 62
7
  6
CONTINUOUS
 10
-228.4352113602
 20
595.4552496187
 11
-237.4352113602
 21
595.4552496187
  0
LINE
  5
8AF
100
AcDbEntity
  8
0
100
AcDbLine
 62
7
  6
CONTINUOUS
 10
-428.4352113602
 20
595.4552496187
 11
-437.4352113602
 21
595.4552496187
  0
LINE
  5
8B0
100
AcDbEntity
  8
0
100
AcDbLine
 62
7
  6
CONTINUOUS
 10
-437.4352113602
 20
604.4552496187
 11
-428.4352113602
 21
604.4552496187
  0
LINE
  5
8B1
100
AcDbEntity
  8
0
100
AcDbLine
 62
7
  6
CONTINUOUS
 10
-237.4352113602
 20
604.4552496187
 11
-228.4352113602
 21
604.4552496187
  0
LINE
  5
8B2
100
AcDbEntity
  8
0
100
AcDbLine
 62
7
  6
CONTINUOUS
 10
-228.4352113602
 20
611.3302496187
 11
-237.4352113602
 21
611.3302496187
  0
LINE
  5
8B3
100
AcDbEntity
  8
0
100
AcDbLine
 62
7
  6
CONTINUOUS
 10
-428.4352113602
 20
611.3302496187
 11
-437.4352113602
 21
611.3302496187
  0
LINE
  5
8B4
100
AcDbEntity
  8
0
100
AcDbLine
 62
7
  6
CONTINUOUS
 10
-437.4352113602
 20
620.3302496187
 11
-428.4352113602
 21
620.3302496187
  0
LINE
  5
8B5
100
AcDbEntity
  8
0
100
AcDbLine
 62
7
  6
CONTINUOUS
 10
-237.4352113602
 20
620.3302496187
 11
-228.4352113602
 21
620.3302496187
  0
LINE
  5
8B6
100
AcDbEntity
  8
0
100
AcDbLine
 62
7
  6
CONTINUOUS
 10
-228.4352113602
 20
627.2052496187
 11
-237.4352113602
 21
627.2052496187
  0
LINE
  5
8B7
100
AcDbEntity
  8
0
100
AcDbLine
 62
7
  6
CONTINUOUS
 10
-428.4352113602
 20
627.2052496187
 11
-437.4352113602
 21
627.2052496187
  0
LINE
  5
8B8
100
AcDbEntity
  8
0
100
AcDbLine
 62
7
  6
CONTINUOUS
 10
-437.4352113602
 20
636.2052496187
 11
-428.4352113602
 21
636.2052496187
  0
LINE
  5
8B9
100
AcDbEntity
  8
0
100
AcDbLine
 62
7
  6
CONTINUOUS
 10
-237.4352113602
 20
636.2052496187
 11
-228.4352113602
 21
636.2052496187
  0
LINE
  5
8BA
100
AcDbEntity
  8
0
100
AcDbLine
 62
7
  6
CONTINUOUS
 10
-228.4352113602
 20
639.9052496187
 11
-237.4352113602
 21
639.9052496187
  0
LINE
  5
8BB
100
AcDbEntity
  8
0
100
AcDbLine
 62
7
  6
CONTINUOUS
 10
-428.4352113602
 20
639.9052496187
 11
-437.4352113602
 21
639.9052496187
  0
LINE
  5
8BC
100
AcDbEntity
  8
0
100
AcDbLine
 62
7
  6
CONTINUOUS
 10
-437.4352113602
 20
648.9052496187
 11
-428.4352113602
 21
648.9052496187
  0
LINE
  5
8BD
100
AcDbEntity
  8
0
100
AcDbLine
 62
7
  6
CONTINUOUS
 10
-237.4352113602
 20
648.9052496187
 11
-228.4352113602
 21
648.9052496187
  0
LINE
  5
8BE
100
AcDbEntity
  8
0
100
AcDbLine
 62
7
  6
CONTINUOUS
 10
-228.4352113602
 20
655.7802496187
 11
-237.4352113602
 21
655.7802496187
  0
LINE
  5
8BF
100
AcDbEntity
  8
0
100
AcDbLine
 62
7
  6
CONTINUOUS
 10
-428.4352113602
 20
655.7802496187
 11
-437.4352113602
 21
655.7802496187
  0
LINE
  5
8C0
100
AcDbEntity
  8
0
100
AcDbLine
 62
7
  6
CONTINUOUS
 10
-437.4352113602
 20
664.7802496187
 11
-428.4352113602
 21
664.7802496187
  0
LINE
  5
8C1
100
AcDbEntity
  8
0
100
AcDbLine
 62
7
  6
CONTINUOUS
 10
-237.4352113602
 20
664.7802496187
 11
-228.4352113602
 21
664.7802496187
  0
LINE
  5
8C2
100
AcDbEntity
  8
0
100
AcDbLine
 62
7
  6
CONTINUOUS
 10
-228.4352113602
 20
671.6552496187
 11
-237.4352113602
 21
671.6552496187
  0
LINE
  5
8C3
100
AcDbEntity
  8
0
100
AcDbLine
 62
7
  6
CONTINUOUS
 10
-428.4352113602
 20
671.6552496187
 11
-437.4352113602
 21
671.6552496187
  0
LINE
  5
8C4
100
AcDbEntity
  8
0
100
AcDbLine
 62
7
  6
CONTINUOUS
 10
-437.4352113602
 20
680.6552496187
 11
-428.4352113602
 21
680.6552496187
  0
LINE
  5
8C5
100
AcDbEntity
  8
0
100
AcDbLine
 62
7
  6
CONTINUOUS
 10
-237.4352113602
 20
680.6552496187
 11
-228.4352113602
 21
680.6552496187
  0
LINE
  5
8C6
100
AcDbEntity
  8
0
100
AcDbLine
 62
7
  6
CONTINUOUS
 10
-228.4352113602
 20
684.3552496187
 11
-237.4352113602
 21
684.3552496187
  0
LINE
  5
8C7
100
AcDbEntity
  8
0
100
AcDbLine
 62
7
  6
CONTINUOUS
 10
-428.4352113602
 20
684.3552496187
 11
-437.4352113602
 21
684.3552496187
  0
LINE
  5
8C8
100
AcDbEntity
  8
0
100
AcDbLine
 62
7
  6
CONTINUOUS
 10
-437.4352113602
 20
693.3552496187
 11
-428.4352113602
 21
693.3552496187
  0
LINE
  5
8C9
100
AcDbEntity
  8
0
100
AcDbLine
 62
7
  6
CONTINUOUS
 10
-237.4352113602
 20
693.3552496187
 11
-228.4352113602
 21
693.3552496187
  0
LINE
  5
8CA
100
AcDbEntity
  8
0
100
AcDbLine
 62
7
  6
CONTINUOUS
 10
-228.4352113602
 20
700.2302496187
 11
-237.4352113602
 21
700.2302496187
  0
LINE
  5
8CB
100
AcDbEntity
  8
0
100
AcDbLine
 62
7
  6
CONTINUOUS
 10
-428.4352113602
 20
700.2302496187
 11
-437.4352113602
 21
700.2302496187
  0
LINE
  5
8CC
100
AcDbEntity
  8
0
100
AcDbLine
 62
7
  6
CONTINUOUS
 10
-437.4352113602
 20
709.2302496187
 11
-428.4352113602
 21
709.2302496187
  0
LINE
  5
8CD
100
AcDbEntity
  8
0
100
AcDbLine
 62
7
  6
CONTINUOUS
 10
-237.4352113602
 20
709.2302496187
 11
-228.4352113602
 21
709.2302496187
  0
LINE
  5
8CE
100
AcDbEntity
  8
0
100
AcDbLine
 62
7
  6
CONTINUOUS
 10
-228.4352113602
 20
716.1052496187
 11
-237.4352113602
 21
716.1052496187
  0
LINE
  5
8CF
100
AcDbEntity
  8
0
100
AcDbLine
 62
7
  6
CONTINUOUS
 10
-428.4352113602
 20
716.1052496187
 11
-437.4352113602
 21
716.1052496187
  0
LINE
  5
8D0
100
AcDbEntity
  8
0
100
AcDbLine
 62
7
  6
CONTINUOUS
 10
-437.4352113602
 20
725.1052496187
 11
-428.4352113602
 21
725.1052496187
  0
LINE
  5
8D1
100
AcDbEntity
  8
0
100
AcDbLine
 62
7
  6
CONTINUOUS
 10
-237.4352113602
 20
725.1052496187
 11
-228.4352113602
 21
725.1052496187
  0
LINE
  5
8D2
100
AcDbEntity
  8
0
100
AcDbLine
 62
7
  6
CONTINUOUS
 10
-228.4352113602
 20
728.8052496187
 11
-237.4352113602
 21
728.8052496187
  0
LINE
  5
8D3
100
AcDbEntity
  8
0
100
AcDbLine
 62
7
  6
CONTINUOUS
 10
-428.4352113602
 20
728.8052496187
 11
-437.4352113602
 21
728.8052496187
  0
LINE
  5
8D4
100
AcDbEntity
  8
0
100
AcDbLine
 62
7
  6
CONTINUOUS
 10
-437.4352113602
 20
737.8052496187
 11
-428.4352113602
 21
737.8052496187
  0
LINE
  5
8D5
100
AcDbEntity
  8
0
100
AcDbLine
 62
7
  6
CONTINUOUS
 10
-237.4352113602
 20
737.8052496187
 11
-228.4352113602
 21
737.8052496187
  0
LINE
  5
8D6
100
AcDbEntity
  8
0
100
AcDbLine
 62
7
  6
CONTINUOUS
 10
-228.4352113602
 20
744.6802496187
 11
-237.4352113602
 21
744.6802496187
  0
LINE
  5
8D7
100
AcDbEntity
  8
0
100
AcDbLine
 62
7
  6
CONTINUOUS
 10
-428.4352113602
 20
744.6802496187
 11
-437.4352113602
 21
744.6802496187
  0
LINE
  5
8D8
100
AcDbEntity
  8
0
100
AcDbLine
 62
7
  6
CONTINUOUS
 10
-437.4352113602
 20
753.6802496187
 11
-428.4352113602
 21
753.6802496187
  0
LINE
  5
8D9
100
AcDbEntity
  8
0
100
AcDbLine
 62
7
  6
CONTINUOUS
 10
-237.4352113602
 20
753.6802496187
 11
-228.4352113602
 21
753.6802496187
  0
LINE
  5
8DA
100
AcDbEntity
  8
0
100
AcDbLine
 62
7
  6
CONTINUOUS
 10
-228.4352113602
 20
760.5552496187
 11
-237.4352113602
 21
760.5552496187
  0
LINE
  5
8DB
100
AcDbEntity
  8
0
100
AcDbLine
 62
7
  6
CONTINUOUS
 10
-428.4352113602
 20
760.5552496187
 11
-437.4352113602
 21
760.5552496187
  0
LINE
  5
8DC
100
AcDbEntity
  8
0
100
AcDbLine
 62
7
  6
CONTINUOUS
 10
-437.4352113602
 20
769.5552496187
 11
-428.4352113602
 21
769.5552496187
  0
LINE
  5
8DD
100
AcDbEntity
  8
0
100
AcDbLine
 62
7
  6
CONTINUOUS
 10
-237.4352113602
 20
769.5552496187
 11
-228.4352113602
 21
769.5552496187
  0
LINE
  5
8DE
100
AcDbEntity
  8
0
100
AcDbLine
 62
7
  6
CONTINUOUS
 10
-228.4352113602
 20
773.2552496187
 11
-237.4352113602
 21
773.2552496187
  0
LINE
  5
8DF
100
AcDbEntity
  8
0
100
AcDbLine
 62
7
  6
CONTINUOUS
 10
-428.4352113602
 20
773.2552496187
 11
-437.4352113602
 21
773.2552496187
  0
LINE
  5
8E0
100
AcDbEntity
  8
0
100
AcDbLine
 62
7
  6
CONTINUOUS
 10
-437.4352113602
 20
782.2552496187
 11
-428.4352113602
 21
782.2552496187
  0
LINE
  5
8E1
100
AcDbEntity
  8
0
100
AcDbLine
 62
7
  6
CONTINUOUS
 10
-237.4352113602
 20
782.2552496187
 11
-228.4352113602
 21
782.2552496187
  0
LINE
  5
8E2
100
AcDbEntity
  8
0
100
AcDbLine
 62
7
  6
CONTINUOUS
 10
-228.4352113602
 20
789.1302496187
 11
-237.4352113602
 21
789.1302496187
  0
LINE
  5
8E3
100
AcDbEntity
  8
0
100
AcDbLine
 62
7
  6
CONTINUOUS
 10
-428.4352113602
 20
789.1302496187
 11
-437.4352113602
 21
789.1302496187
  0
LINE
  5
8E4
100
AcDbEntity
  8
0
100
AcDbLine
 62
7
  6
CONTINUOUS
 10
-437.4352113602
 20
798.1302496187
 11
-428.4352113602
 21
798.1302496187
  0
LINE
  5
8E5
100
AcDbEntity
  8
0
100
AcDbLine
 62
7
  6
CONTINUOUS
 10
-237.4352113602
 20
798.1302496187
 11
-228.4352113602
 21
798.1302496187
  0
LINE
  5
8E6
100
AcDbEntity
  8
0
100
AcDbLine
 62
7
  6
CONTINUOUS
 10
-228.4352113602
 20
805.0052496187
 11
-237.4352113602
 21
805.0052496187
  0
LINE
  5
8E7
100
AcDbEntity
  8
0
100
AcDbLine
 62
7
  6
CONTINUOUS
 10
-428.4352113602
 20
805.0052496187
 11
-437.4352113602
 21
805.0052496187
  0
LINE
  5
8E8
100
AcDbEntity
  8
0
100
AcDbLine
 62
7
  6
CONTINUOUS
 10
-437.4352113602
 20
814.0052496187
 11
-428.4352113602
 21
814.0052496187
  0
LINE
  5
8E9
100
AcDbEntity
  8
0
100
AcDbLine
 62
7
  6
CONTINUOUS
 10
-237.4352113602
 20
814.0052496187
 11
-228.4352113602
 21
814.0052496187
  0
LINE
  5
8EA
100
AcDbEntity
  8
0
100
AcDbLine
 62
7
  6
CONTINUOUS
 10
-228.4352113602
 20
817.7052496187
 11
-237.4352113602
 21
817.7052496187
  0
LINE
  5
8EB
100
AcDbEntity
  8
0
100
AcDbLine
 62
7
  6
CONTINUOUS
 10
-428.4352113602
 20
817.7052496187
 11
-437.4352113602
 21
817.7052496187
  0
LINE
  5
8EC
100
AcDbEntity
  8
0
100
AcDbLine
 62
7
  6
CONTINUOUS
 10
-437.4352113602
 20
826.7052496187
 11
-428.4352113602
 21
826.7052496187
  0
LINE
  5
8ED
100
AcDbEntity
  8
0
100
AcDbLine
 62
7
  6
CONTINUOUS
 10
-237.4352113602
 20
826.7052496187
 11
-228.4352113602
 21
826.7052496187
  0
LINE
  5
8EE
100
AcDbEntity
  8
0
100
AcDbLine
 62
7
  6
CONTINUOUS
 10
-228.4352113602
 20
833.5802496187
 11
-237.4352113602
 21
833.5802496187
  0
LINE
  5
8EF
100
AcDbEntity
  8
0
100
AcDbLine
 62
7
  6
CONTINUOUS
 10
-428.4352113602
 20
833.5802496187
 11
-437.4352113602
 21
833.5802496187
  0
LINE
  5
8F0
100
AcDbEntity
  8
0
100
AcDbLine
 62
7
  6
CONTINUOUS
 10
-437.4352113602
 20
842.5802496187
 11
-428.4352113602
 21
842.5802496187
  0
LINE
  5
8F1
100
AcDbEntity
  8
0
100
AcDbLine
 62
7
  6
CONTINUOUS
 10
-237.4352113602
 20
842.5802496187
 11
-228.4352113602
 21
842.5802496187
  0
LINE
  5
8F2
100
AcDbEntity
  8
0
100
AcDbLine
 62
7
  6
CONTINUOUS
 10
-228.4352113602
 20
849.4552496187
 11
-237.4352113602
 21
849.4552496187
  0
LINE
  5
8F3
100
AcDbEntity
  8
0
100
AcDbLine
 62
7
  6
CONTINUOUS
 10
-428.4352113602
 20
849.4552496187
 11
-437.4352113602
 21
849.4552496187
  0
LINE
  5
8F4
100
AcDbEntity
  8
0
100
AcDbLine
 62
7
  6
CONTINUOUS
 10
-437.4352113602
 20
858.4552496187
 11
-428.4352113602
 21
858.4552496187
  0
LINE
  5
8F5
100
AcDbEntity
  8
0
100
AcDbLine
 62
7
  6
CONTINUOUS
 10
-237.4352113602
 20
858.4552496187
 11
-228.4352113602
 21
858.4552496187
  0
LINE
  5
8F6
100
AcDbEntity
  8
0
100
AcDbLine
 62
7
  6
CONTINUOUS
 10
-228.4352113602
 20
862.1552496187
 11
-237.4352113602
 21
862.1552496187
  0
LINE
  5
8F7
100
AcDbEntity
  8
0
100
AcDbLine
 62
7
  6
CONTINUOUS
 10
-428.4352113602
 20
862.1552496187
 11
-437.4352113602
 21
862.1552496187
  0
LINE
  5
8F8
100
AcDbEntity
  8
0
100
AcDbLine
 62
7
  6
CONTINUOUS
 10
-437.4352113602
 20
871.1552496187
 11
-428.4352113602
 21
871.1552496187
  0
LINE
  5
8F9
100
AcDbEntity
  8
0
100
AcDbLine
 62
7
  6
CONTINUOUS
 10
-237.4352113602
 20
871.1552496187
 11
-228.4352113602
 21
871.1552496187
  0
LINE
  5
8FA
100
AcDbEntity
  8
0
100
AcDbLine
 62
7
  6
CONTINUOUS
 10
-228.4352113602
 20
878.0302496187
 11
-237.4352113602
 21
878.0302496187
  0
LINE
  5
8FB
100
AcDbEntity
  8
0
100
AcDbLine
 62
7
  6
CONTINUOUS
 10
-428.4352113602
 20
878.0302496187
 11
-437.4352113602
 21
878.0302496187
  0
LINE
  5
8FC
100
AcDbEntity
  8
0
100
AcDbLine
 62
7
  6
CONTINUOUS
 10
-437.4352113602
 20
887.0302496187
 11
-428.4352113602
 21
887.0302496187
  0
LINE
  5
8FD
100
AcDbEntity
  8
0
100
AcDbLine
 62
7
  6
CONTINUOUS
 10
-237.4352113602
 20
887.0302496187
 11
-228.4352113602
 21
887.0302496187
  0
LINE
  5
8FE
100
AcDbEntity
  8
0
100
AcDbLine
 62
7
  6
CONTINUOUS
 10
-228.4352113602
 20
893.9052496187
 11
-237.4352113602
 21
893.9052496187
  0
LINE
  5
8FF
100
AcDbEntity
  8
0
100
AcDbLine
 62
7
  6
CONTINUOUS
 10
-428.4352113602
 20
893.9052496187
 11
-437.4352113602
 21
893.9052496187
  0
LINE
  5
900
100
AcDbEntity
  8
0
100
AcDbLine
 62
7
  6
CONTINUOUS
 10
-251.0352113602
 20
896.3052496187
 11
-266.0352113602
 21
896.3052496187
  0
LINE
  5
901
100
AcDbEntity
  8
0
100
AcDbLine
 62
7
  6
CONTINUOUS
 10
-451.0352113602
 20
896.3052496187
 11
-466.0352113602
 21
896.3052496187
  0
LINE
  5
902
100
AcDbEntity
  8
0
100
AcDbLine
 62
7
  6
CONTINUOUS
 10
-437.4352113602
 20
902.9052496187
 11
-428.4352113602
 21
902.9052496187
  0
LINE
  5
903
100
AcDbEntity
  8
0
100
AcDbLine
 62
7
  6
CONTINUOUS
 10
-237.4352113602
 20
902.9052496187
 11
-228.4352113602
 21
902.9052496187
  0
LINE
  5
904
100
AcDbEntity
  8
0
100
AcDbLine
 62
7
  6
CONTINUOUS
 10
-450.0352113602
 20
903.8052496187
 11
-445.0352113602
 21
903.8052496187
  0
LINE
  5
905
100
AcDbEntity
  8
0
100
AcDbLine
 62
7
  6
CONTINUOUS
 10
-250.0352113602
 20
903.8052496187
 11
-245.0352113602
 21
903.8052496187
  0
LINE
  5
906
100
AcDbEntity
  8
RACCORDO
100
AcDbLine
 62
7
  6
CONTINUOUS
 10
-227.0352113602
 20
903.8052496187
 11
-245.0352113602
 21
903.8052496187
  0
LINE
  5
907
100
AcDbEntity
  8
RACCORDO
100
AcDbLine
 62
7
  6
CONTINUOUS
 10
-427.0352113602
 20
903.8052496187
 11
-445.0352113602
 21
903.8052496187
  0
LINE
  5
908
100
AcDbEntity
  8
RACCORDO
100
AcDbLine
 62
253
  6
CONTINUOUS
 10
-248.0352113602
 20
922.8052496187
 11
-250.0352113602
 21
922.8052496187
  0
LINE
  5
909
100
AcDbEntity
  8
RACCORDO
100
AcDbLine
 62
253
  6
CONTINUOUS
 10
-448.0352113602
 20
922.8052496187
 11
-450.0352113602
 21
922.8052496187
  0
LINE
  5
90A
100
AcDbEntity
  8
RACCORDO
100
AcDbLine
 62
7
  6
CONTINUOUS
 10
-248.0352113602
 20
924.8052496187
 11
-250.0352113602
 21
924.8052496187
  0
LINE
  5
90B
100
AcDbEntity
  8
RACCORDO
100
AcDbLine
 62
7
  6
CONTINUOUS
 10
-448.0352113602
 20
924.8052496187
 11
-450.0352113602
 21
924.8052496187
  0
ARC
  5
90C
100
AcDbEntity
  8
ASSI
100
AcDbCircle
 62
7
  6
CONTINUOUS
 10
-70.1964183658
 20
-970.4947503813
 40
3.5
100
AcDbArc
 50
0.0
 51
180.0
  0
ARC
  5
90D
100
AcDbEntity
  8
ASSI
100
AcDbCircle
 62
7
  6
CONTINUOUS
 10
-70.1964183658
 20
-973.8947503813
 40
3.5
100
AcDbArc
 50
180.0
 51
360.0
  0
ARC
  5
90E
100
AcDbEntity
  8
ASSI
100
AcDbCircle
 62
7
  6
CONTINUOUS
 10
-70.1964183658
 20
913.1052496187
 40
3.5
100
AcDbArc
 50
180.0
 51
360.0
  0
ARC
  5
90F
100
AcDbEntity
  8
ASSI
100
AcDbCircle
 62
7
  6
CONTINUOUS
 10
-70.1964183658
 20
916.5052496187
 40
3.5
100
AcDbArc
 50
0.0
 51
180.0
  0
ARC
  5
910
100
AcDbEntity
  8
ASSI
100
AcDbCircle
 62
7
  6
CONTINUOUS
 10
-17.1964183658
 20
913.1052496187
 40
3.5
100
AcDbArc
 50
180.0
 51
360.0
  0
ARC
  5
911
100
AcDbEntity
  8
ASSI
100
AcDbCircle
 62
7
  6
CONTINUOUS
 10
-17.1964183658
 20
916.5052496187
 40
3.5
100
AcDbArc
 50
0.0
 51
180.0
  0
ARC
  5
912
100
AcDbEntity
  8
ASSI
100
AcDbCircle
 62
7
  6
CONTINUOUS
 10
-17.1964183658
 20
-970.4947503813
 40
3.5
100
AcDbArc
 50
0.0
 51
180.0
  0
ARC
  5
913
100
AcDbEntity
  8
ASSI
100
AcDbCircle
 62
7
  6
CONTINUOUS
 10
-17.1964183658
 20
-973.8947503813
 40
3.5
100
AcDbArc
 50
180.0
 51
360.0
  0
ARC
  5
914
100
AcDbEntity
  8
RACCORDO
100
AcDbCircle
 62
7
  6
CONTINUOUS
 10
-95.1964183658
 20
-951.6947503813
 40
2.0
100
AcDbArc
 50
180.0
 51
270.0
  0
ARC
  5
915
100
AcDbEntity
  8
RACCORDO
100
AcDbCircle
 62
7
  6
CONTINUOUS
 10
-108.6964183658
 20
-947.1947503813
 40
2.0
100
AcDbArc
 50
180.0
 51
270.0
  0
ARC
  5
916
100
AcDbEntity
  8
RACCORDO
100
AcDbCircle
 62
7
  6
CONTINUOUS
 10
-108.6964183658
 20
889.8052496187
 40
2.0
100
AcDbArc
 50
90.0
 51
180.0
  0
ARC
  5
917
100
AcDbEntity
  8
RACCORDO
100
AcDbCircle
 62
7
  6
CONTINUOUS
 10
-95.1964183658
 20
894.3052496187
 40
2.0
100
AcDbArc
 50
90.0
 51
180.0
  0
ARC
  5
918
100
AcDbEntity
  8
RACCORDO
100
AcDbCircle
 62
7
  6
CONTINUOUS
 10
-78.6964183658
 20
-980.1947503813
 40
2.0
100
AcDbArc
 50
180.0
 51
270.0
  0
ARC
  5
919
100
AcDbEntity
  8
RACCORDO
100
AcDbCircle
 62
7
  6
CONTINUOUS
 10
-78.6964183658
 20
922.8052496187
 40
2.0
100
AcDbArc
 50
90.0
 51
180.0
  0
ARC
  5
91A
100
AcDbEntity
  8
RACCORDO
100
AcDbCircle
 62
7
  6
CONTINUOUS
 10
-8.6964183658
 20
922.8052496187
 40
2.0
100
AcDbArc
 50
0.0
 51
90.0
  0
ARC
  5
91B
100
AcDbEntity
  8
RACCORDO
100
AcDbCircle
 62
7
  6
CONTINUOUS
 10
-8.6964183658
 20
-980.1947503813
 40
2.0
100
AcDbArc
 50
270.0
 51
360.0
  0
ARC
  5
91C
100
AcDbEntity
  8
RACCORDO
100
AcDbCircle
 62
7
  6
CONTINUOUS
 10
-227.0352113602
 20
-959.1947503813
 40
2.0
100
AcDbArc
 50
270.0
 51
360.0
  0
ARC
  5
91D
100
AcDbEntity
  8
RACCORDO
100
AcDbCircle
 62
7
  6
CONTINUOUS
 10
-227.0352113602
 20
901.8052496187
 40
2.0
100
AcDbArc
 50
0.0
 51
90.0
  0
ARC
  5
91E
100
AcDbEntity
  8
RACCORDO
100
AcDbCircle
 62
7
  6
CONTINUOUS
 10
-427.0352113602
 20
-959.1947503813
 40
2.0
100
AcDbArc
 50
270.0
 51
360.0
  0
ARC
  5
91F
100
AcDbEntity
  8
RACCORDO
100
AcDbCircle
 62
7
  6
CONTINUOUS
 10
-427.0352113602
 20
901.8052496187
 40
2.0
100
AcDbArc
 50
0.0
 51
90.0
  0
ENDSEC
  0
SECTION
  2
OBJECTS
  0
DICTIONARY
  5
C
100
AcDbDictionary
280
0
281
1
  3
ACAD_GROUP
350
D
  3
ACAD_MLINESTYLE
350
17
  3
ACAD_LAYOUT
350
1A
  3
ACAD_PLOTSETTINGS
350
19
  3
ACAD_PLOTSTYLENAME
350
E
  0
DICTIONARY
  5
D
102
{ACAD_REACTORS
330
C
102
}
100
AcDbDictionary
280
0
281
1
  0
ACDBDICTIONARYWDFLT
  5
E
102
{ACAD_REACTORS
330
C
102
}
100
AcDbDictionary
281
1
  3
Normal
350
F
100
AcDbDictionaryWithDefault
340
F
  0
DICTIONARY
  5
17
102
{ACAD_REACTORS
330
C
102
}
100
AcDbDictionary
280
0
281
1
  3
Standard
350
18
  0
DICTIONARY
  5
19
102
{ACAD_REACTORS
330
C
102
}
100
AcDbDictionary
281
1
  0
DICTIONARY
  5
1A
102
{ACAD_REACTORS
330
C
102
}
100
AcDbDictionary
281
1
  3
Model
350
920
  3
Layout1
350
921
  0
ACDBPLACEHOLDER
  5
F
102
{ACAD_REACTORS
330
E
102
}
  0
MLINESTYLE
  5
18
102
{ACAD_REACTORS
330
17
102
}
100
AcDbMlineStyle
  2
STANDARD
 70
0
  3

 62
256
 51
90.0
 52
90.0
 71
2
 49
0.5
 62
256
  6
BYLAYER
 49
-0.5
 62
256
  6
BYLAYER
  0
LAYOUT
  5
920
102
{ACAD_REACTORS
330
1A
102
}
100
AcDbPlotSettings
  1

  2
none_device
  4
ISO_A4_(297.00_x_210.00_MM)
  6

 40
0.0
 41
0.0
 42
0.0
 43
0.0
 44
297.0
 45
210.0
 46
0.0
 47
0.0
 48
0.0
 49
0.0
140
0.0
141
0.0
142
1.0
143
1.0
 70
1024
 72
1
 73
0
 74
0
  7

 75
0
147
1.0
148
0.0
149
0.0
100
AcDbLayout
  1
Model
 70
0
 71
0
 10
0.0
 20
0.0
 11
297.0
 21
210.0
 12
0.0
 22
0.0
 32
0.0
 14
0.0
 24
0.0
 34
0.0
 15
0.0
 25
0.0
 35
0.0
146
0.0
 13
0.0
 23
0.0
 33
0.0
 16
1.0
 26
0.0
 36
0.0
 17
0.0
 27
1.0
 37
0.0
 76
0
330
20D
345
0
346
0
  0
LAYOUT
  5
921
102
{ACAD_REACTORS
330
1A
102
}
100
AcDbPlotSettings
  1

  2
none_device
  4
ISO_A4_(297.00_x_210.00_MM)
  6

 40
0.0
 41
0.0
 42
0.0
 43
0.0
 44
297.0
 45
210.0
 46
0.0
 47
0.0
 48
0.0
 49
0.0
140
0.0
141
0.0
142
1.0
143
1.0
 70
0
 72
1
 73
0
 74
0
  7

 75
0
147
1.0
148
0.0
149
0.0
100
AcDbLayout
  1
Layout1
 70
0
 71
1
 10
0.0
 20
0.0
 11
297.0
 21
210.0
 12
0.0
 22
0.0
 32
0.0
 14
0.0
 24
0.0
 34
0.0
 15
0.0
 25
0.0
 35
0.0
146
0.0
 13
0.0
 23
0.0
 33
0.0
 16
1.0
 26
0.0
 36
0.0
 17
0.0
 27
1.0
 37
0.0
 76
0
330
20E
345
0
346
0
  0
ENDSEC
  0
EOF
