  0
SECTION
  2
HEADER
  9
$ACADVER
  1
AC1021
  9
$DWGCODEPAGE
  3
ANSI_1252
  9
$EXTMAX
 10
297.0
 20
210.0
 30
0.0
  9
$EXTMIN
 10
0.0
 20
0.0
 30
0.0
  9
$LIMMIN
 10
0.0
 20
0.0
  9
$LIMMAX
 10
297.0
 20
210.0
  9
$VIEWCTR
 10
148.5
 20
105.0
  9
$VIEWSIZE
 40
210.0
  9
$CLAYER
  8
0
  9
$LTSCALE
 40
16.335
  9
$CELTYPE
  6
BYLAYER
  9
$DIMSCALE
 40
1.0
  9
$DIMASZ
 40
3.0
  9
$DIMEXO
 40
0.5
  9
$DIMDLI
 40
11.286
  9
$DIMEXE
 40
1.5
  9
$DIMCEN
 40
2.673
  9
$DIMLFAC
 40
1.0
  9
$DIMBLK
  1
_FILLED
  9
$DIMALT
 70
0
  9
$DIMALTF
 40
25.4
  9
$DIMTXT
 40
3.0
  9
$DIMTOL
 70
1
  9
$DIMLIM
 70
0
  9
$DIMTFAC
 40
1.0
  9
$DIMTP
 40
0.01
  9
$DIMTM
 40
0.01
  9
$DIMGAP
 40
0.625
  9
$DIMDSEP
 70
44
  9
$AUNITS
 70
0
  9
$PDMODE
 70
3
  9
$PDSIZE
 40
3.0
  9
$HANDSEED
  5
6C9
  9
$TILEMODE
 70
1
  9
$MEASUREMENT
 70
1
  9
$INSUNITS
 70
4
  0
ENDSEC
  0
SECTION
  2
CLASSES
  0
CLASS
  1
ACDBDICTIONARYWDFLT
  2
AcDbDictionaryWithDefault
  3
AutoCAD 2000
 90
0
 91
1
280
0
281
0
  0
CLASS
  1
ACDBPLACEHOLDER
  2
AcDbPlaceHolder
  3
AutoCAD 2000
 90
0
 91
1
280
0
281
0
  0
CLASS
  1
LAYOUT
  2
AcDbLayout
  3
AutoCAD 2000
 90
0
 91
0
280
0
281
0
  0
ENDSEC
  0
SECTION
  2
TABLES
  0
TABLE
  2
VPORT
  5
8
100
AcDbSymbolTable
 70
2
  0
VPORT
  5
1F4
100
AcDbSymbolTableRecord
100
AcDbViewportTableRecord
  2
*ACTIVE
 70
0
 10
0.0
 20
0.0
 11
1.0
 21
1.0
 12
148.5
 22
105.0
 13
0.0
 23
0.0
 14
1.0
 24
1.0
 15
0.0
 25
0.0
 16
0.0
 26
0.0
 36
1.0
 17
0.0
 27
0.0
 37
0.0
 40
210.0
 41
1.4142857143
 42
50.0
 43
0.0
 44
0.0
 50
0.0
 51
0.0
 71
0
 72
100
 73
1
 74
1
 75
0
 76
0
 77
0
 78
0
  0
ENDTAB
  0
TABLE
  2
LTYPE
  5
5
100
AcDbSymbolTable
 70
6
  0
LTYPE
  5
14
100
AcDbSymbolTableRecord
100
AcDbLinetypeTableRecord
  2
BYBLOCK
 70
0
  3

 72
65
 73
0
 40
0.0
  0
LTYPE
  5
15
100
AcDbSymbolTableRecord
100
AcDbLinetypeTableRecord
  2
BYLAYER
 70
0
  3

 72
65
 73
0
 40
0.0
  0
LTYPE
  5
16
100
AcDbSymbolTableRecord
100
AcDbLinetypeTableRecord
  2
CONTINUOUS
 70
64
  3
Solid line
 72
65
 73
0
 40
0.0
  0
LTYPE
  5
1F5
100
AcDbSymbolTableRecord
100
AcDbLinetypeTableRecord
  2
CENTER
 70
64
  3
____ _ ____ _ ____ _ ____ _ ____ _ ____ _ ____
 72
65
 73
4
 40
0.6
 49
0.375
 74
0
 49
-0.075
 74
0
 49
0.075
 74
0
 49
-0.075
 74
0
  0
LTYPE
  5
1F6
100
AcDbSymbolTableRecord
100
AcDbLinetypeTableRecord
  2
HIDDEN
 70
64
  3
- - - - - - - - - - - - - - - - - - - -
 72
65
 73
2
 40
0.2
 49
0.1
 74
0
 49
-0.1
 74
0
  0
LTYPE
  5
1F7
100
AcDbSymbolTableRecord
100
AcDbLinetypeTableRecord
  2
PHANTOM
 70
64
  3
_____ _ _ _____ _ _ _____ _ _ _____
 72
65
 73
6
 40
0.8
 49
0.45
 74
0
 49
-0.05
 74
0
 49
0.1
 74
0
 49
-0.05
 74
0
 49
0.1
 74
0
 49
-0.05
 74
0
  0
LTYPE
  5
1F8
100
AcDbSymbolTableRecord
100
AcDbLinetypeTableRecord
  2
DOT
 70
64
  3
. . . . . . . . . . . . . . . . . . . .
 72
65
 73
2
 40
0.2
 49
0.1
 74
0
 49
-0.1
 74
0
  0
LTYPE
  5
1F9
100
AcDbSymbolTableRecord
100
AcDbLinetypeTableRecord
  2
DASHED
 70
64
  3
- - - - - - - - - - - - - - - - - - - -
 72
65
 73
2
 40
0.2
 49
0.1
 74
0
 49
-0.1
 74
0
  0
ENDTAB
  0
TABLE
  2
LAYER
  5
2
100
AcDbSymbolTable
 70
36
  0
LAYER
  5
10
100
AcDbSymbolTableRecord
100
AcDbLayerTableRecord
  2
0
 70
0
 62
7
  6
CONTINUOUS
370
-3
390
F
  0
LAYER
  5
1FA
100
AcDbSymbolTableRecord
100
AcDbLayerTableRecord
  2
DEFAULT_1
 70
0
 62
7
  6
CENTER
370
-3
390
F
  0
LAYER
  5
1FB
100
AcDbSymbolTableRecord
100
AcDbLayerTableRecord
  2
DEFAULT_2
 70
0
 62
7
  6
HIDDEN
370
-3
390
F
  0
LAYER
  5
1FC
100
AcDbSymbolTableRecord
100
AcDbLayerTableRecord
  2
DEFAULT_3
 70
0
 62
7
  6
PHANTOM
370
-3
390
F
  0
LAYER
  5
1FD
100
AcDbSymbolTableRecord
100
AcDbLayerTableRecord
  2
ASSI
 70
0
 62
7
  6
CONTINUOUS
370
-3
390
F
  0
LAYER
  5
1FE
100
AcDbSymbolTableRecord
100
AcDbLayerTableRecord
  2
COORDINATE
 70
0
 62
7
  6
CONTINUOUS
370
-3
390
F
  0
LAYER
  5
1FF
100
AcDbSymbolTableRecord
100
AcDbLayerTableRecord
  2
COORD_ORIGINE
 70
0
 62
7
  6
CONTINUOUS
370
-3
390
F
  0
LAYER
  5
200
100
AcDbSymbolTableRecord
100
AcDbLayerTableRecord
  2
COSMETICI
 70
0
 62
7
  6
CONTINUOUS
370
-3
390
F
  0
LAYER
  5
201
100
AcDbSymbolTableRecord
100
AcDbLayerTableRecord
  2
CURVE
 70
0
 62
7
  6
CONTINUOUS
370
-3
390
F
  0
LAYER
  5
202
100
AcDbSymbolTableRecord
100
AcDbLayerTableRecord
  2
NOTE
 70
0
 62
7
  6
CONTINUOUS
370
-3
390
F
  0
LAYER
  5
203
100
AcDbSymbolTableRecord
100
AcDbLayerTableRecord
  2
PIANI
 70
0
 62
7
  6
CONTINUOUS
370
-3
390
F
  0
LAYER
  5
204
100
AcDbSymbolTableRecord
100
AcDbLayerTableRecord
  2
PIANI_ORIGINE
 70
0
 62
7
  6
CONTINUOUS
370
-3
390
F
  0
LAYER
  5
205
100
AcDbSymbolTableRecord
100
AcDbLayerTableRecord
  2
PUNTI
 70
0
 62
7
  6
CONTINUOUS
370
-3
390
F
  0
LAYER
  5
206
100
AcDbSymbolTableRecord
100
AcDbLayerTableRecord
  2
RACCORDO
 70
0
 62
7
  6
CONTINUOUS
370
-3
390
F
  0
LAYER
  5
207
100
AcDbSymbolTableRecord
100
AcDbLayerTableRecord
  2
SIMBOLI
 70
0
 62
7
  6
CONTINUOUS
370
-3
390
F
  0
LAYER
  5
208
100
AcDbSymbolTableRecord
100
AcDbLayerTableRecord
  2
SNAPLINE
 70
0
 62
7
  6
CONTINUOUS
370
-3
390
F
  0
LAYER
  5
209
100
AcDbSymbolTableRecord
100
AcDbLayerTableRecord
  2
SUPERFICI
 70
0
 62
7
  6
CONTINUOUS
370
-3
390
F
  0
LAYER
  5
20A
100
AcDbSymbolTableRecord
100
AcDbLayerTableRecord
  2
TRASH
 70
0
 62
7
  6
CONTINUOUS
370
-3
390
F
  0
ENDTAB
  0
TABLE
  2
STYLE
  5
3
100
AcDbSymbolTable
 70
1
  0
STYLE
  5
11
100
AcDbSymbolTableRecord
100
AcDbTextStyleTableRecord
  2
STANDARD
 70
0
 40
0.0
 41
0.8
 50
0.0
 71
0
 42
0.2
  3
txt
  4

  0
STYLE
  5
20B
100
AcDbSymbolTableRecord
100
AcDbTextStyleTableRecord
  2
TEXTSTYLE_1
 70
0
 40
0.0
 41
0.8
 50
0.0
 71
0
 42
0.2
  3
gdt
  4

  0
ENDTAB
  0
TABLE
  2
VIEW
  5
6
100
AcDbSymbolTable
 70
0
  0
ENDTAB
  0
TABLE
  2
UCS
  5
7
100
AcDbSymbolTable
 70
0
  0
ENDTAB
  0
TABLE
  2
APPID
  5
9
100
AcDbSymbolTable
 70
1
  0
APPID
  5
20C
100
AcDbSymbolTableRecord
100
AcDbRegAppTableRecord
  2
ACAD
 70
0
  0
ENDTAB
  0
TABLE
  2
BLOCK_RECORD
  5
1
100
AcDbSymbolTable
 70
0
  0
BLOCK_RECORD
  5
20D
100
AcDbSymbolTableRecord
100
AcDbBlockTableRecord
  2
*Model_Space
  0
BLOCK_RECORD
  5
20E
100
AcDbSymbolTableRecord
100
AcDbBlockTableRecord
  2
*Paper_Space
  0
BLOCK_RECORD
  5
20F
100
AcDbSymbolTableRecord
100
AcDbBlockTableRecord
  2
_FILLED
  0
BLOCK_RECORD
  5
210
100
AcDbSymbolTableRecord
100
AcDbBlockTableRecord
  2
*D0
  0
BLOCK_RECORD
  5
211
100
AcDbSymbolTableRecord
100
AcDbBlockTableRecord
  2
*D1
  0
BLOCK_RECORD
  5
212
100
AcDbSymbolTableRecord
100
AcDbBlockTableRecord
  2
*D2
  0
BLOCK_RECORD
  5
213
100
AcDbSymbolTableRecord
100
AcDbBlockTableRecord
  2
*D3
  0
ENDTAB
  0
TABLE
  2
DIMSTYLE
  5
A
100
AcDbSymbolTable
 70
1
100
AcDbDimStyleTable
 71
0
  0
DIMSTYLE
105
214
100
AcDbSymbolTableRecord
100
AcDbDimStyleTableRecord
  2
STANDARD
 70
0
  3

  4

 40
1.0
 41
3.0
 42
0.5
 43
0.38
 44
1.5
 45
0.0
 46
0.0
 47
0.01
 48
0.01
140
3.0
141
0.09
142
0.0
143
25.4
144
1.0
145
0.0
146
1.0
147
0.625
 71
1.0
 72
0.0
 73
0
 74
0
 75
0
 76
0
 77
1
 78
8
170
0
171
1
172
0
173
0
174
0
175
0
176
0
177
0
178
0
270
2
271
2
272
2
273
2
274
2
275
0
280
0
281
0
282
0
283
1
284
8
285
0
286
0
287
3
288
0
340
11
278
44
341
20F
342
20F
343
20F
344
20F
  0
DIMSTYLE
105
215
100
AcDbSymbolTableRecord
100
AcDbDimStyleTableRecord
  2
DIMSTYLE_1
 70
0
  3

  4

 40
1.0
 41
3.0
 42
0.5
 43
0.38
 44
1.5
 45
0.0
 46
0.0
 47
0.0
 48
0.0
140
3.0
141
0.09
142
0.0
143
25.4
144
1.0
145
0.0
146
1.0
147
0.75
 71
0.0
 72
0.0
 73
0
 74
0
 75
0
 76
0
 77
1
 78
8
170
0
171
1
172
0
173
0
174
0
175
0
176
0
177
0
178
0
270
2
271
2
272
2
273
2
274
2
275
0
280
0
281
0
282
0
283
1
284
8
285
0
286
0
287
3
288
0
340
11
278
44
341
20F
342
20F
343
20F
344
20F
  0
ENDTAB
  0
ENDSEC
  0
SECTION
  2
BLOCKS
  0
BLOCK
  5
20
100
AcDbEntity
  8
0
100
AcDbBlockBegin
  2
*Model_Space
 70
0
 10
0.0
 20
0.0
 30
0.0
  3
*Model_Space
  1

  0
ENDBLK
  5
21
100
AcDbEntity
  8
0
100
AcDbBlockEnd
  0
BLOCK
  5
1C
100
AcDbEntity
  8
0
100
AcDbBlockBegin
  2
*Paper_Space
 70
0
 10
0.0
 20
0.0
 30
0.0
  3
*Paper_Space
  1

  0
ENDBLK
  5
1D
100
AcDbEntity
  8
0
100
AcDbBlockEnd
  0
BLOCK
  5
216
100
AcDbEntity
  8
0
100
AcDbBlockBegin
  2
_FILLED
 70
64
 10
0.0
 20
0.0
  3
_FILLED
  1

  0
SOLID
  5
217
100
AcDbEntity
  8
0
  6
BYBLOCK
 62
0
100
AcDbTrace
 10
0.0
 20
0.0
 11
-1.0
 21
0.3166666667
 12
-1.0
 22
-0.3166666667
 13
-1.0
 23
-0.3166666667
  0
ENDBLK
  5
218
100
AcDbEntity
  8
0
  6
BYBLOCK
 62
0
100
AcDbBlockEnd
  0
BLOCK
  5
219
100
AcDbEntity
  8
0
100
AcDbBlockBegin
 62
7
  6
CONTINUOUS
  2
*D0
 70
65
 10
0.0
 20
0.0
  3
*D0
  1

  0
MTEXT
  5
21A
100
AcDbEntity
  8
0
100
AcDbMText
 62
7
  6
CONTINUOUS
  7
STANDARD
 71
2
 72
1
 10
-0.208614925
 20
70.560431553
 30
0.0
 11
1.0
 21
0.0
 31
0.0
 44
0.9
  1
623
 40
3.0
 41
10.2857142857
  0
LINE
  5
21B
100
AcDbEntity
  8
0
100
AcDbLine
 62
7
  6
CONTINUOUS
 10
-311.708614925
 20
44.110431553
 11
-311.708614925
 21
68.310431553
  0
LINE
  5
21C
100
AcDbEntity
  8
0
100
AcDbLine
 62
7
  6
CONTINUOUS
 10
311.291385075
 20
44.110431553
 11
311.291385075
 21
68.310431553
  0
LINE
  5
21D
100
AcDbEntity
  8
0
100
AcDbLine
 62
7
  6
CONTINUOUS
 10
-311.708614925
 20
66.810431553
 11
-0.208614925
 21
66.810431553
  0
LINE
  5
21E
100
AcDbEntity
  8
0
100
AcDbLine
 62
7
  6
CONTINUOUS
 10
311.291385075
 20
66.810431553
 11
-0.208614925
 21
66.810431553
  0
INSERT
  5
21F
100
AcDbEntity
  8
0
100
AcDbBlockReference
 62
7
  6
CONTINUOUS
  2
_FILLED
 10
-311.708614925
 20
66.810431553
 41
3.0
 42
3.0
 43
3.0
 50
180.0
  0
INSERT
  5
220
100
AcDbEntity
  8
0
100
AcDbBlockReference
 62
7
  6
CONTINUOUS
  2
_FILLED
 10
311.291385075
 20
66.810431553
 41
3.0
 42
3.0
 43
3.0
 50
360.0
  0
ENDBLK
  5
221
100
AcDbEntity
  8
0
  6
BYBLOCK
 62
0
100
AcDbBlockEnd
  0
BLOCK
  5
222
100
AcDbEntity
  8
0
100
AcDbBlockBegin
 62
7
  6
CONTINUOUS
  2
*D1
 70
65
 10
0.0
 20
0.0
  3
*D1
  1

  0
MTEXT
  5
223
100
AcDbEntity
  8
0
100
AcDbMText
 62
7
  6
CONTINUOUS
  7
STANDARD
 71
2
 72
1
 10
330.4730682652
 20
1.210431553
 30
0.0
 11
0.0
 21
1.0
 31
0.0
 44
0.9
  1
111,2
 40
3.0
 41
13.8214285714
  0
LINE
  5
224
100
AcDbEntity
  8
0
100
AcDbLine
 62
7
  6
CONTINUOUS
 10
242.1137155453
 20
56.810431553
 11
335.7230682652
 21
56.810431553
  0
LINE
  5
225
100
AcDbEntity
  8
0
100
AcDbLine
 62
7
  6
CONTINUOUS
 10
308.7411325433
 20
-54.389568447
 11
335.7230682652
 21
-54.389568447
  0
LINE
  5
226
100
AcDbEntity
  8
0
100
AcDbLine
 62
7
  6
CONTINUOUS
 10
334.2230682652
 20
56.810431553
 11
334.2230682652
 21
1.210431553
  0
LINE
  5
227
100
AcDbEntity
  8
0
100
AcDbLine
 62
7
  6
CONTINUOUS
 10
334.2230682652
 20
-54.389568447
 11
334.2230682652
 21
1.210431553
  0
INSERT
  5
228
100
AcDbEntity
  8
0
100
AcDbBlockReference
 62
7
  6
CONTINUOUS
  2
_FILLED
 10
334.2230682652
 20
56.810431553
 41
3.0
 42
3.0
 43
3.0
 50
90.0
  0
INSERT
  5
229
100
AcDbEntity
  8
0
100
AcDbBlockReference
 62
7
  6
CONTINUOUS
  2
_FILLED
 10
334.2230682652
 20
-54.389568447
 41
3.0
 42
3.0
 43
3.0
 50
270.0
  0
ENDBLK
  5
22A
100
AcDbEntity
  8
0
  6
BYBLOCK
 62
0
100
AcDbBlockEnd
  0
BLOCK
  5
22B
100
AcDbEntity
  8
0
100
AcDbBlockBegin
 62
7
  6
CONTINUOUS
  2
*D2
 70
65
 10
0.0
 20
0.0
  3
*D2
  1

  0
MTEXT
  5
22C
100
AcDbEntity
  8
0
100
AcDbMText
 62
7
  6
CONTINUOUS
  7
STANDARD
 71
2
 72
1
 10
-668.5766493766
 20
70.560431553
 30
0.0
 11
1.0
 21
0.0
 31
0.0
 44
0.9
  1
623
 40
3.0
 41
10.2857142857
  0
LINE
  5
22D
100
AcDbEntity
  8
0
100
AcDbLine
 62
7
  6
CONTINUOUS
 10
-357.0766493766
 20
44.110431553
 11
-357.0766493766
 21
68.310431553
  0
LINE
  5
22E
100
AcDbEntity
  8
0
100
AcDbLine
 62
7
  6
CONTINUOUS
 10
-980.0766493766
 20
44.110431553
 11
-980.0766493766
 21
68.310431553
  0
LINE
  5
22F
100
AcDbEntity
  8
0
100
AcDbLine
 62
7
  6
CONTINUOUS
 10
-357.0766493766
 20
66.810431553
 11
-668.5766493766
 21
66.810431553
  0
LINE
  5
230
100
AcDbEntity
  8
0
100
AcDbLine
 62
7
  6
CONTINUOUS
 10
-980.0766493766
 20
66.810431553
 11
-668.5766493766
 21
66.810431553
  0
INSERT
  5
231
100
AcDbEntity
  8
0
100
AcDbBlockReference
 62
7
  6
CONTINUOUS
  2
_FILLED
 10
-357.0766493766
 20
66.810431553
 41
3.0
 42
3.0
 43
3.0
  0
INSERT
  5
232
100
AcDbEntity
  8
0
100
AcDbBlockReference
 62
7
  6
CONTINUOUS
  2
_FILLED
 10
-980.0766493766
 20
66.810431553
 41
3.0
 42
3.0
 43
3.0
 50
180.0
  0
ENDBLK
  5
233
100
AcDbEntity
  8
0
  6
BYBLOCK
 62
0
100
AcDbBlockEnd
  0
BLOCK
  5
234
100
AcDbEntity
  8
0
100
AcDbBlockBegin
 62
7
  6
CONTINUOUS
  2
*D3
 70
65
 10
0.0
 20
0.0
  3
*D3
  1

  0
MTEXT
  5
235
100
AcDbEntity
  8
0
100
AcDbMText
 62
7
  6
CONTINUOUS
  7
STANDARD
 71
2
 72
1
 10
320.4730682652
 20
-3.889568447
 30
0.0
 11
0.0
 21
1.0
 31
0.0
 44
0.9
  1
101
 40
3.0
 41
8.6785714286
  0
LINE
  5
236
100
AcDbEntity
  8
0
100
AcDbLine
 62
7
  6
CONTINUOUS
 10
308.791385075
 20
46.610431553
 11
325.7230682652
 21
46.610431553
  0
LINE
  5
237
100
AcDbEntity
  8
0
100
AcDbLine
 62
7
  6
CONTINUOUS
 10
308.7411325433
 20
-54.389568447
 11
325.7230682652
 21
-54.389568447
  0
LINE
  5
238
100
AcDbEntity
  8
0
100
AcDbLine
 62
7
  6
CONTINUOUS
 10
324.2230682652
 20
46.610431553
 11
324.2230682652
 21
-3.889568447
  0
LINE
  5
239
100
AcDbEntity
  8
0
100
AcDbLine
 62
7
  6
CONTINUOUS
 10
324.2230682652
 20
-54.389568447
 11
324.2230682652
 21
-3.889568447
  0
INSERT
  5
23A
100
AcDbEntity
  8
0
100
AcDbBlockReference
 62
7
  6
CONTINUOUS
  2
_FILLED
 10
324.2230682652
 20
46.610431553
 41
3.0
 42
3.0
 43
3.0
 50
90.0
  0
INSERT
  5
23B
100
AcDbEntity
  8
0
100
AcDbBlockReference
 62
7
  6
CONTINUOUS
  2
_FILLED
 10
324.2230682652
 20
-54.389568447
 41
3.0
 42
3.0
 43
3.0
 50
270.0
  0
ENDBLK
  5
23C
100
AcDbEntity
  8
0
  6
BYBLOCK
 62
0
100
AcDbBlockEnd
  0
ENDSEC
  0
SECTION
  2
ENTITIES
  0
DIMENSION
  5
23D
100
AcDbEntity
  8
0
100
AcDbDimension
 62
7
  6
CONTINUOUS
  2
*D0
 10
311.291385075
 20
66.810431553
 11
-0.6371863632
 21
66.810431553
 70
160
 71
2
 42
623.0
  3
DIMSTYLE_1
100
AcDbAlignedDimension
 13
-311.708614925
 23
43.610431553
 14
311.291385075
 24
43.610431553
 50
360.0
100
AcDbRotatedDimension
  0
DIMENSION
  5
23E
100
AcDbEntity
  8
0
100
AcDbDimension
 62
7
  6
CONTINUOUS
  2
*D1
 10
334.2230682652
 20
-54.389568447
 11
334.2230682652
 21
0.7818597739
 70
160
 71
2
 42
111.2
  3
DIMSTYLE_1
100
AcDbAlignedDimension
 13
241.6137155453
 23
56.810431553
 14
308.2411325433
 24
-54.389568447
 50
270.0
100
AcDbRotatedDimension
  0
DIMENSION
  5
23F
100
AcDbEntity
  8
0
100
AcDbDimension
 62
7
  6
CONTINUOUS
  2
*D2
 10
-980.0766493766
 20
66.810431553
 11
-669.0052254639
 21
66.810431553
 70
160
 71
2
 42
623.0
  3
DIMSTYLE_1
100
AcDbAlignedDimension
 13
-357.0766493766
 23
43.610431553
 14
-980.0766493766
 24
43.610431553
 50
180.0
100
AcDbRotatedDimension
  0
DIMENSION
  5
240
100
AcDbEntity
  8
0
100
AcDbDimension
 62
7
  6
CONTINUOUS
  2
*D3
 10
324.2230682652
 20
-54.389568447
 11
324.2230682652
 21
-4.3181515699
 70
160
 71
2
 42
101.0
  3
DIMSTYLE_1
100
AcDbAlignedDimension
 13
308.291385075
 23
46.610431553
 14
308.2411325433
 24
-54.389568447
 50
270.0
100
AcDbRotatedDimension
  0
LINE
  5
241
100
AcDbEntity
  8
RACCORDO
100
AcDbLine
 62
7
  6
CONTINUOUS
 10
-314.6372092633
 20
-4.5768482939
 11
-314.6357201342
 21
-4.5914028246
  0
LINE
  5
242
100
AcDbEntity
  8
RACCORDO
100
AcDbLine
 62
7
  6
CONTINUOUS
 10
-314.6383128313
 20
-4.564076448
 11
-314.6371101205
 21
-4.5778973848
  0
LINE
  5
243
100
AcDbEntity
  8
RACCORDO
100
AcDbLine
 62
7
  6
CONTINUOUS
 10
-314.6391664874
 20
-4.5519834177
 11
-314.638241646
 21
-4.5649751114
  0
LINE
  5
244
100
AcDbEntity
  8
RACCORDO
100
AcDbLine
 62
7
  6
CONTINUOUS
 10
-314.3096190418
 20
-4.1815411408
 11
-314.3088876371
 21
-4.1950835381
  0
LINE
  5
245
100
AcDbEntity
  8
RACCORDO
100
AcDbLine
 62
7
  6
CONTINUOUS
 10
-314.6397758801
 20
-4.5406423032
 11
-314.6391191464
 21
-4.5527387244
  0
LINE
  5
246
100
AcDbEntity
  8
RACCORDO
100
AcDbLine
 62
7
  6
CONTINUOUS
 10
-314.3115892622
 20
-4.1414544194
 11
-314.3094922475
 21
-4.1839335501
  0
LINE
  5
247
100
AcDbEntity
  8
RACCORDO
100
AcDbLine
 62
7
  6
CONTINUOUS
 10
-314.3088829389
 20
-4.1950832786
 11
-314.3082738531
 21
-4.2084428353
  0
LINE
  5
248
100
AcDbEntity
  8
RACCORDO
100
AcDbLine
 62
7
  6
CONTINUOUS
 10
-314.3132689944
 20
-4.1013546054
 11
-314.3114798199
 21
-4.1438474007
  0
LINE
  5
249
100
AcDbEntity
  8
RACCORDO
100
AcDbLine
 62
253
  6
CONTINUOUS
 10
-314.3021869667
 20
-4.1947135657
 11
-314.3011241338
 21
-4.2208130238
  0
LINE
  5
24A
100
AcDbEntity
  8
RACCORDO
100
AcDbLine
 62
7
  6
CONTINUOUS
 10
-314.3146581334
 20
-4.0612440593
 11
-314.3131768988
 21
-4.1037481639
  0
LWPOLYLINE
  5
24B
100
AcDbEntity
  8
RACCORDO
100
AcDbPolyline
 62
253
  6
CONTINUOUS
 90
13
 70
0
 10
-314.634006378
 20
-4.4998586842
 10
-314.6344675578
 20
-4.48592875
 10
-314.6330016237
 20
-4.4720695227
 10
-314.629637053
 20
-4.4585502306
 10
-314.6244392054
 20
-4.4456334984
 10
-314.617509054
 20
-4.4335702457
 10
-314.6089812234
 20
-4.4225948121
 10
-314.5990213746
 20
-4.4129204057
 10
-314.5878229867
 20
-4.4047349607
 10
-314.5756035989
 20
-4.398197487
 10
-314.5626005841
 20
-4.3934349809
 10
-314.5490665377
 20
-4.3905399587
 10
-314.5352643713
 20
-4.3895686588
  0
LWPOLYLINE
  5
24C
100
AcDbEntity
  8
RACCORDO
100
AcDbPolyline
 62
253
  6
CONTINUOUS
 90
10
 70
0
 10
-314.38582941
 20
-4.4998586789
 10
-314.3862710623
 20
-4.4859287255
 10
-314.3848672674
 20
-4.4720694773
 10
-314.3816452955
 20
-4.458550163
 10
-314.3766677362
 20
-4.4456334082
 10
-314.3700312835
 20
-4.4335701331
 10
-314.3618648566
 20
-4.4225946781
 10
-314.3523270961
 20
-4.4129202518
 10
-314.341603282
 20
-4.4047347891
 10
-314.3309374149
 20
-4.3987759202
  0
LINE
  5
24D
100
AcDbEntity
  8
RACCORDO
100
AcDbLine
 62
7
  6
CONTINUOUS
 10
-314.315756622
 20
-4.0211247426
 11
-314.3145833839
 21
-4.0636381487
  0
LINE
  5
24E
100
AcDbEntity
  8
RACCORDO
100
AcDbLine
 62
7
  6
CONTINUOUS
 10
-314.3083059738
 20
-4.207197644
 11
-314.3077205929
 21
-4.2298905173
  0
LINE
  5
24F
100
AcDbEntity
  8
RACCORDO
100
AcDbLine
 62
7
  6
CONTINUOUS
 10
-314.3165644109
 20
-3.9809984768
 11
-314.3156992201
 21
-4.0235192974
  0
LINE
  5
250
100
AcDbEntity
  8
RACCORDO
100
AcDbLine
 62
7
  6
CONTINUOUS
 10
-314.3170814572
 20
-3.9408672934
 11
-314.3165243576
 21
-3.9833934465
  0
LWPOLYLINE
  5
251
100
AcDbEntity
  8
RACCORDO
100
AcDbPolyline
 62
253
  6
CONTINUOUS
 90
7
 70
0
 10
-314.3011241338
 20
-4.2208130238
 10
-314.3007969278
 20
-4.2464982082
 10
-314.3012062042
 20
-4.2716992195
 10
-314.3023544348
 20
-4.2964333732
 10
-314.3042350665
 20
-4.32054514
 10
-314.3068325975
 20
-4.3437112086
 10
-314.3101430266
 20
-4.3658902683
  0
LINE
  5
252
100
AcDbEntity
  8
RACCORDO
100
AcDbLine
 62
7
  6
CONTINUOUS
 10
-314.3173077421
 20
-3.9007336174
 11
-314.3170587549
 21
-3.9432626536
  0
LWPOLYLINE
  5
253
100
AcDbEntity
  8
RACCORDO
100
AcDbPolyline
 62
253
  6
CONTINUOUS
 90
10
 70
0
 10
-314.310608118
 20
-3.889568447
 10
-314.3105043289
 20
-3.9234788624
 10
-314.3101928373
 20
-3.9573720243
 10
-314.3096734081
 20
-3.9912649677
 10
-314.3089445572
 20
-4.0252059179
 10
-314.3080068256
 20
-4.0591806404
 10
-314.3068627925
 20
-4.0931119717
 10
-314.3055127082
 20
-4.1269848439
 10
-314.3039544823
 20
-4.1608467062
 10
-314.3021869667
 20
-4.1947135657
  0
LINE
  5
254
100
AcDbEntity
  8
0
100
AcDbLine
 62
253
  6
CONTINUOUS
 10
-312.01787667
 20
-8.8570852255
 11
-312.01787667
 21
1.0779483316
  0
LINE
  5
255
100
AcDbEntity
  8
0
100
AcDbLine
 62
7
  6
CONTINUOUS
 10
-311.708614925
 20
43.610431553
 11
-311.708614925
 21
-51.389568447
  0
LINE
  5
256
100
AcDbEntity
  8
0
100
AcDbLine
 62
253
  6
CONTINUOUS
 10
-309.3654691745
 20
43.610431553
 11
-309.3654691745
 21
-51.389568447
  0
LINE
  5
257
100
AcDbEntity
  8
0
100
AcDbLine
 62
7
  6
CONTINUOUS
 10
-308.708614925
 20
46.610431553
 11
-308.708614925
 21
44.110431553
  0
LINE
  5
258
100
AcDbEntity
  8
0
100
AcDbLine
 62
253
  6
CONTINUOUS
 10
-308.708614925
 20
-54.389568447
 11
-308.708614925
 21
-51.889568447
  0
LINE
  5
259
100
AcDbEntity
  8
0
100
AcDbLine
 62
7
  6
CONTINUOUS
 10
-308.6583623933
 20
-51.889568447
 11
-308.6583623933
 21
-54.389568447
  0
LINE
  5
25A
100
AcDbEntity
  8
0
100
AcDbLine
 62
253
  6
CONTINUOUS
 10
-307.708614925
 20
44.110431553
 11
-307.708614925
 21
43.610431553
  0
LINE
  5
25B
100
AcDbEntity
  8
0
100
AcDbLine
 62
253
  6
CONTINUOUS
 10
-307.708614925
 20
-51.889568447
 11
-307.708614925
 21
-51.389568447
  0
LINE
  5
25C
100
AcDbEntity
  8
0
100
AcDbLine
 62
7
  6
CONTINUOUS
 10
-299.708614925
 20
44.110431553
 11
-299.708614925
 21
43.610431553
  0
LINE
  5
25D
100
AcDbEntity
  8
0
100
AcDbLine
 62
7
  6
CONTINUOUS
 10
-299.708614925
 20
-51.889568447
 11
-299.708614925
 21
-51.389568447
  0
LINE
  5
25E
100
AcDbEntity
  8
0
100
AcDbLine
 62
7
  6
CONTINUOUS
 10
-297.9810499974
 20
-54.389568447
 11
-297.9810499974
 21
-51.889568447
  0
LINE
  5
25F
100
AcDbEntity
  8
0
100
AcDbLine
 62
7
  6
CONTINUOUS
 10
-297.2296718092
 20
-54.389568447
 11
-297.2296718092
 21
-51.889568447
  0
LINE
  5
260
100
AcDbEntity
  8
0
100
AcDbLine
 62
7
  6
CONTINUOUS
 10
-296.7082577913
 20
-54.389568447
 11
-296.7082577913
 21
-51.889568447
  0
LINE
  5
261
100
AcDbEntity
  8
RACCORDO
100
AcDbLine
 62
7
  6
CONTINUOUS
 10
-314.3173023948
 20
-3.8760075457
 11
-314.3173023948
 21
-3.9031293483
  0
LWPOLYLINE
  5
262
100
AcDbEntity
  8
RACCORDO
100
AcDbPolyline
 62
7
  6
CONTINUOUS
 90
10
 70
0
 10
-314.3077205929
 20
-4.2298905173
 10
-314.307779026
 20
-4.2520021654
 10
-314.3084591965
 20
-4.2732868734
 10
-314.3097137468
 20
-4.293466254
 10
-314.3114774471
 20
-4.3123807839
 10
-314.3136865157
 20
-4.3298769838
 10
-314.3162482353
 20
-4.3457286988
 10
-314.319065365
 20
-4.3598593507
 10
-314.3220363614
 20
-4.3722154795
 10
-314.3250232486
 20
-4.3826610387
  0
LINE
  5
263
100
AcDbEntity
  8
RACCORDO
100
AcDbLine
 62
7
  6
CONTINUOUS
 10
-314.3170587549
 20
-3.8358742404
 11
-314.3173077421
 21
-3.8784032765
  0
LINE
  5
264
100
AcDbEntity
  8
RACCORDO
100
AcDbLine
 62
7
  6
CONTINUOUS
 10
-314.3165243576
 20
-3.7957434474
 11
-314.3170814572
 21
-3.8382696005
  0
LWPOLYLINE
  5
265
100
AcDbEntity
  8
RACCORDO
100
AcDbPolyline
 62
7
  6
CONTINUOUS
 90
7
 70
0
 10
-314.6401504402
 20
-3.2490772182
 10
-314.640295704
 20
-3.2588951474
 10
-314.6402162379
 20
-3.2680305877
 10
-314.6399087076
 20
-3.2765536272
 10
-314.6393578742
 20
-3.284592931
 10
-314.6385076775
 20
-3.2924947958
 10
-314.6372629368
 20
-3.3004855283
  0
LINE
  5
266
100
AcDbEntity
  8
RACCORDO
100
AcDbLine
 62
7
  6
CONTINUOUS
 10
-314.3156992201
 20
-3.7556175966
 11
-314.3165644109
 21
-3.7981384172
  0
LWPOLYLINE
  5
267
100
AcDbEntity
  8
RACCORDO
100
AcDbPolyline
 62
7
  6
CONTINUOUS
 90
3
 70
0
 10
-314.3076907302
 20
-3.5463773925
 10
-314.3081973572
 20
-3.5690212289
 10
-314.3088847534
 20
-3.5840533653
  0
LINE
  5
268
100
AcDbEntity
  8
RACCORDO
100
AcDbLine
 62
7
  6
CONTINUOUS
 10
-314.3145833839
 20
-3.7154987452
 11
-314.315756622
 21
-3.7580121514
  0
LWPOLYLINE
  5
269
100
AcDbEntity
  8
RACCORDO
100
AcDbPolyline
 62
253
  6
CONTINUOUS
 90
10
 70
0
 10
-314.3858254247
 20
-3.2792786492
 10
-314.3862682751
 20
-3.2932089342
 10
-314.3848655246
 20
-3.3070686745
 10
-314.3816444263
 20
-3.3205886
 10
-314.3766675601
 20
-3.3335060428
 10
-314.3700316178
 20
-3.3455700402
 10
-314.3618655237
 20
-3.3565462103
 10
-314.3523279304
 20
-3.3662213059
 10
-314.3416041362
 20
-3.374407357
 10
-314.3309176424
 20
-3.3803781331
  0
LWPOLYLINE
  5
26A
100
AcDbEntity
  8
RACCORDO
100
AcDbPolyline
 62
253
  6
CONTINUOUS
 90
10
 70
0
 10
-314.6340063613
 20
-3.2792782115
 10
-314.634467559
 20
-3.293208168
 10
-314.6330016398
 20
-3.3070674194
 10
-314.6296370806
 20
-3.3205867366
 10
-314.6244392412
 20
-3.333503494
 10
-314.6175090945
 20
-3.3455667712
 10
-314.6089812653
 20
-3.3565422275
 10
-314.5990214148
 20
-3.3662166543
 10
-314.5878230225
 20
-3.3744021165
 10
-314.575603628
 20
-3.3809396039
  0
LINE
  5
26B
100
AcDbEntity
  8
RACCORDO
100
AcDbLine
 62
7
  6
CONTINUOUS
 10
-314.3131768988
 20
-3.67538873
 11
-314.3146581334
 21
-3.7178928347
  0
LINE
  5
26C
100
AcDbEntity
  8
RACCORDO
100
AcDbLine
 62
7
  6
CONTINUOUS
 10
-314.6397478755
 20
-3.2378735908
 11
-314.6401373425
 21
-3.2485825221
  0
LINE
  5
26D
100
AcDbEntity
  8
RACCORDO
100
AcDbLine
 62
253
  6
CONTINUOUS
 10
-314.3011242454
 20
-3.5584055044
 11
-314.3021869667
 21
-3.5844233282
  0
LINE
  5
26E
100
AcDbEntity
  8
RACCORDO
100
AcDbLine
 62
7
  6
CONTINUOUS
 10
-314.3114798199
 20
-3.6352894933
 11
-314.3132689944
 21
-3.6777822885
  0
LINE
  5
26F
100
AcDbEntity
  8
RACCORDO
100
AcDbLine
 62
7
  6
CONTINUOUS
 10
-314.3094922475
 20
-3.5952033439
 11
-314.3115892622
 21
-3.6376824746
  0
LWPOLYLINE
  5
270
100
AcDbEntity
  8
RACCORDO
100
AcDbPolyline
 62
253
  6
CONTINUOUS
 90
10
 70
0
 10
-314.3021869667
 20
-3.5844233282
 10
-314.3039545017
 20
-3.6182906711
 10
-314.3055127401
 20
-3.652152872
 10
-314.30686283
 20
-3.6860259386
 10
-314.3080068593
 20
-3.7199572911
 10
-314.3089445802
 20
-3.7539318924
 10
-314.3096734217
 20
-3.7878726697
 10
-314.3101928452
 20
-3.8217654177
 10
-314.3105043323
 20
-3.8556583319
 10
-314.310608118
 20
-3.889568447
  0
LINE
  5
271
100
AcDbEntity
  8
RACCORDO
100
AcDbLine
 62
7
  6
CONTINUOUS
 10
-314.3088876371
 20
-3.5840533559
 11
-314.3096190418
 21
-3.5975957532
  0
LINE
  5
272
100
AcDbEntity
  8
RACCORDO
100
AcDbLine
 62
7
  6
CONTINUOUS
 10
-314.6391191464
 20
-3.2263981695
 11
-314.6397758801
 21
-3.2384945907
  0
LINE
  5
273
100
AcDbEntity
  8
RACCORDO
100
AcDbLine
 62
7
  6
CONTINUOUS
 10
-314.638241646
 20
-3.2141617826
 11
-314.6391664874
 21
-3.2271534762
  0
LINE
  5
274
100
AcDbEntity
  8
RACCORDO
100
AcDbLine
 62
7
  6
CONTINUOUS
 10
-314.6371101205
 20
-3.2012395091
 11
-314.6383128313
 21
-3.2150604459
  0
LWPOLYLINE
  5
275
100
AcDbEntity
  8
RACCORDO
100
AcDbPolyline
 62
253
  6
CONTINUOUS
 90
20
 70
0
 10
-314.6360945307
 20
-3.1965596225
 10
-314.6369327385
 20
-3.2055703472
 10
-314.6376396672
 20
-3.2143929673
 10
-314.6382143638
 20
-3.2229290942
 10
-314.6386499399
 20
-3.2308443154
 10
-314.6389355574
 20
-3.2380631698
 10
-314.6390842189
 20
-3.2446940557
 10
-314.6391242101
 20
-3.2506653973
 10
-314.6390532865
 20
-3.2559306831
 10
-314.6388736201
 20
-3.2605503062
 10
-314.6386197811
 20
-3.2645969901
 10
-314.638293163
 20
-3.2680524125
 10
-314.6378914655
 20
-3.2709332074
 10
-314.637443922
 20
-3.2733541655
 10
-314.6369537258
 20
-3.2753082379
 10
-314.636416829
 20
-3.2767927284
 10
-314.6358520024
 20
-3.2779250203
 10
-314.6352653941
 20
-3.2787405611
 10
-314.6346502949
 20
-3.2791933617
 10
-314.6340063802
 20
-3.2792782095
  0
LINE
  5
276
100
AcDbEntity
  8
RACCORDO
100
AcDbLine
 62
7
  6
CONTINUOUS
 10
-314.6357201342
 20
-3.1877340693
 11
-314.6372092633
 21
-3.2022886
  0
LWPOLYLINE
  5
277
100
AcDbEntity
  8
RACCORDO
100
AcDbPolyline
 62
7
  6
CONTINUOUS
 90
7
 70
0
 10
-314.6385131119
 20
-4.4866848468
 10
-314.6393680779
 20
-4.4946600157
 10
-314.6399183513
 20
-4.502774256
 10
-314.6402221358
 20
-4.5113824508
 10
-314.6402943503
 20
-4.5206183874
 10
-314.6401373425
 20
-4.5305543718
 10
-314.6397478755
 20
-4.5412633031
  0
LINE
  5
278
100
AcDbEntity
  8
RACCORDO
100
AcDbLine
 62
7
  6
CONTINUOUS
 10
-314.6345327864
 20
-3.1774991732
 11
-314.6358528619
 21
-3.1889391572
  0
LINE
  5
279
100
AcDbEntity
  8
RACCORDO
100
AcDbLine
 62
253
  6
CONTINUOUS
 10
-314.6183876879
 20
-3.0591758662
 11
-314.6266461306
 21
-3.1194969997
  0
LINE
  5
27A
100
AcDbEntity
  8
RACCORDO
100
AcDbLine
 62
253
  6
CONTINUOUS
 10
-314.5988703629
 20
-2.931828383
 11
-314.6091540895
 21
-2.9965892233
  0
LINE
  5
27B
100
AcDbEntity
  8
RACCORDO
100
AcDbLine
 62
7
  6
CONTINUOUS
 10
-314.3073547313
 20
-1.7873117034
 11
-314.3078109369
 21
-1.790078965
  0
LINE
  5
27C
100
AcDbEntity
  8
RACCORDO
100
AcDbLine
 62
253
  6
CONTINUOUS
 10
-314.5747608458
 20
-2.7953361954
 11
-314.5874438481
 21
-2.864823401
  0
LWPOLYLINE
  5
27D
100
AcDbEntity
  8
RACCORDO
100
AcDbPolyline
 62
7
  6
CONTINUOUS
 90
8
 70
0
 10
-314.3078109369
 20
-1.790078965
 10
-314.3081346978
 20
-1.7918160214
 10
-314.3086073426
 20
-1.794204181
 10
-314.3092044281
 20
-1.7970716055
 10
-314.3099072037
 20
-1.8003010068
 10
-314.3107105174
 20
-1.8038551756
 10
-314.3116230376
 20
-1.8077617394
 10
-314.3126413686
 20
-1.8119973136
  0
LINE
  5
27E
100
AcDbEntity
  8
RACCORDO
100
AcDbLine
 62
253
  6
CONTINUOUS
 10
-314.3101430266
 20
-4.3658902683
 11
-314.3141549742
 21
-4.3870040609
  0
LINE
  5
27F
100
AcDbEntity
  8
RACCORDO
100
AcDbLine
 62
253
  6
CONTINUOUS
 10
-314.5452047387
 20
-2.6489687847
 11
-314.5607130992
 21
-2.7233577791
  0
LINE
  5
280
100
AcDbEntity
  8
RACCORDO
100
AcDbLine
 62
253
  6
CONTINUOUS
 10
-314.3141549742
 20
-4.3870040609
 11
-314.318839395
 21
-4.4066907324
  0
LINE
  5
281
100
AcDbEntity
  8
RACCORDO
100
AcDbLine
 62
7
  6
CONTINUOUS
 10
-314.3126413686
 20
-1.8119973136
 11
-314.3139630728
 21
-1.8173359184
  0
LWPOLYLINE
  5
282
100
AcDbEntity
  8
RACCORDO
100
AcDbPolyline
 62
253
  6
CONTINUOUS
 90
3
 70
0
 10
-314.4888563455
 20
-2.4110909913
 10
-314.5093908242
 20
-2.4927774439
 10
-314.5281308513
 20
-2.5720745735
  0
LINE
  5
283
100
AcDbEntity
  8
RACCORDO
100
AcDbLine
 62
7
  6
CONTINUOUS
 10
-314.3137659588
 20
-1.8165581675
 11
-314.3152161
 21
-1.8222965867
  0
LINE
  5
284
100
AcDbEntity
  8
RACCORDO
100
AcDbLine
 62
7
  6
CONTINUOUS
 10
-314.3149965484
 20
-1.821439892
 11
-314.3177586961
 21
-1.8320963269
  0
LINE
  5
285
100
AcDbEntity
  8
RACCORDO
100
AcDbLine
 62
7
  6
CONTINUOUS
 10
-314.3165685562
 20
-1.8275514673
 11
-314.3195686968
 21
-1.8389126772
  0
LWPOLYLINE
  5
286
100
AcDbEntity
  8
RACCORDO
100
AcDbPolyline
 62
253
  6
CONTINUOUS
 90
6
 70
0
 10
-314.3141707524
 20
-1.8218109297
 10
-314.3188502124
 20
-1.8392428314
 10
-314.3241957776
 20
-1.8584588056
 10
-314.3301787119
 20
-1.8793766064
 10
-314.3367130957
 20
-1.9016589364
 10
-314.3398448924
 20
-1.9100833203
  0
LINE
  5
287
100
AcDbEntity
  8
RACCORDO
100
AcDbLine
 62
7
  6
CONTINUOUS
 10
-314.319289369
 20
-1.8378629697
 11
-314.3229665621
 21
-1.8514014798
  0
LINE
  5
288
100
AcDbEntity
  8
RACCORDO
100
AcDbLine
 62
7
  6
CONTINUOUS
 10
-314.3226423127
 20
-1.8502233217
 11
-314.3267556681
 21
-1.8649805503
  0
LINE
  5
289
100
AcDbEntity
  8
RACCORDO
100
AcDbLine
 62
7
  6
CONTINUOUS
 10
-314.3263820782
 20
-1.8636600488
 11
-314.3309245825
 21
-1.8796102709
  0
LINE
  5
28A
100
AcDbEntity
  8
RACCORDO
100
AcDbLine
 62
7
  6
CONTINUOUS
 10
-314.3305046301
 20
-1.878148085
 11
-314.3354625321
 21
-1.8952391683
  0
LWPOLYLINE
  5
28B
100
AcDbEntity
  8
RACCORDO
100
AcDbPolyline
 62
253
  6
CONTINUOUS
 90
10
 70
0
 10
-314.318839395
 20
-4.4066907324
 10
-314.324203169
 20
-4.4249476158
 10
-314.3302132652
 20
-4.4416920555
 10
-314.3367800478
 20
-4.4564775386
 10
-314.3439005322
 20
-4.4692952888
 10
-314.3515451343
 20
-4.4801383092
 10
-314.3595872219
 20
-4.488617794
 10
-314.3679751559
 20
-4.4946390767
 10
-314.3767285316
 20
-4.4983719661
 10
-314.3858294611
 20
-4.4998586844
  0
LINE
  5
28C
100
AcDbEntity
  8
RACCORDO
100
AcDbLine
 62
7
  6
CONTINUOUS
 10
-314.334995581
 20
-1.8936383817
 11
-314.3403612135
 21
-1.9118196501
  0
LWPOLYLINE
  5
28D
100
AcDbEntity
  8
RACCORDO
100
AcDbPolyline
 62
253
  6
CONTINUOUS
 90
3
 70
0
 10
-314.3429434265
 20
-1.9204547393
 10
-314.3437835108
 20
-1.9252693743
 10
-314.3456112671
 20
-1.9293090755
  0
LWPOLYLINE
  5
28E
100
AcDbEntity
  8
RACCORDO
100
AcDbPolyline
 62
253
  6
CONTINUOUS
 90
3
 70
0
 10
-314.4149880892
 20
-2.1504715888
 10
-314.441788533
 20
-2.2398648332
 10
-314.4663700323
 20
-2.3267951577
  0
LINE
  5
28F
100
AcDbEntity
  8
RACCORDO
100
AcDbLine
 62
7
  6
CONTINUOUS
 10
-314.3398448924
 20
-1.9100833203
 11
-314.3477693381
 21
-1.9364324231
  0
LWPOLYLINE
  5
290
100
AcDbEntity
  8
RACCORDO
100
AcDbPolyline
 62
253
  6
CONTINUOUS
 90
3
 70
0
 10
-314.3483622341
 20
-1.9383747902
 10
-314.3513735377
 20
-1.9501730952
 10
-314.3534633627
 20
-1.9550335336
  0
LINE
  5
291
100
AcDbEntity
  8
RACCORDO
100
AcDbLine
 62
7
  6
CONTINUOUS
 10
-314.3456112671
 20
-1.9293090755
 11
-314.3541036841
 21
-1.9571073293
  0
LWPOLYLINE
  5
292
100
AcDbEntity
  8
RACCORDO
100
AcDbPolyline
 62
253
  6
CONTINUOUS
 90
3
 70
0
 10
-314.3570910479
 20
-1.9667619471
 10
-314.3593973349
 20
-1.976024938
 10
-314.3625756771
 20
-1.9843356989
  0
LWPOLYLINE
  5
293
100
AcDbEntity
  8
RACCORDO
100
AcDbPolyline
 62
253
  6
CONTINUOUS
 90
5
 70
0
 10
-314.3021795561
 20
-1.7535554819
 10
-314.3060395228
 20
-1.7658831553
 10
-314.3082803371
 20
-1.778606387
 10
-314.3088645933
 20
-1.7915127885
 10
-314.3086294583
 20
-1.794310389
  0
LINE
  5
294
100
AcDbEntity
  8
RACCORDO
100
AcDbLine
 62
7
  6
CONTINUOUS
 10
-314.3534633627
 20
-1.9550335336
 11
-314.363288261
 21
-1.9866074184
  0
LWPOLYLINE
  5
295
100
AcDbEntity
  8
RACCORDO
100
AcDbPolyline
 62
253
  6
CONTINUOUS
 90
3
 70
0
 10
-314.3664944741
 20
-1.9967844932
 10
-314.3678154807
 20
-2.0026903258
 10
-314.372321104
 20
-2.0151283984
  0
LWPOLYLINE
  5
296
100
AcDbEntity
  8
RACCORDO
100
AcDbPolyline
 62
7
  6
CONTINUOUS
 90
10
 70
0
 10
-314.3863340348
 20
-2.0585330035
 10
-314.4179490012
 20
-2.1583651835
 10
-314.4557381501
 20
-2.2866430324
 10
-314.4906096216
 20
-2.4157429036
 10
-314.522545557
 20
-2.545597954
 10
-314.5515304277
 20
-2.6761448727
 10
-314.5775496896
 20
-2.807317701
 10
-314.600589493
 20
-2.9390487485
 10
-314.6206380596
 20
-3.0712713201
 10
-314.6345333522
 20
-3.177499157
  0
LINE
  5
297
100
AcDbEntity
  8
RACCORDO
100
AcDbLine
 62
7
  6
CONTINUOUS
 10
-314.3625756771
 20
-1.9843356989
 11
-314.373109082
 21
-2.017601519
  0
LINE
  5
298
100
AcDbEntity
  8
RACCORDO
100
AcDbLine
 62
253
  6
CONTINUOUS
 10
-314.3756989384
 20
-2.0256831205
 11
-314.3766326323
 21
-2.0302526755
  0
LWPOLYLINE
  5
299
100
AcDbEntity
  8
RACCORDO
100
AcDbPolyline
 62
7
  6
CONTINUOUS
 90
3
 70
0
 10
-314.372321104
 20
-2.0151283984
 10
-314.3826305921
 20
-2.0471644965
 10
-314.3863306993
 20
-2.0585340921
  0
LWPOLYLINE
  5
29A
100
AcDbEntity
  8
RACCORDO
100
AcDbPolyline
 62
7
  6
CONTINUOUS
 90
6
 70
0
 10
-314.3250232486
 20
-4.3826610387
 10
-314.3279068596
 20
-4.3912255407
 10
-314.3305559252
 20
-4.3979464062
 10
-314.3327703821
 20
-4.4027615385
 10
-314.3343888241
 20
-4.4057856089
 10
-314.3346302154
 20
-4.4061942602
  0
LWPOLYLINE
  5
29B
100
AcDbEntity
  8
RACCORDO
100
AcDbPolyline
 62
7
  6
CONTINUOUS
 90
13
 70
0
 10
-314.6330653108
 20
-3.3171749565
 10
-314.6297611153
 20
-3.3260260537
 10
-314.6254347261
 20
-3.3350956282
 10
-314.6201916586
 20
-3.3438528252
 10
-314.6141358918
 20
-3.3520454344
 10
-314.6071556636
 20
-3.3597553591
 10
-314.5991818663
 20
-3.3669251499
 10
-314.5902472761
 20
-3.3733857693
 10
-314.580371709
 20
-3.3789913686
 10
-314.569467277
 20
-3.3836293432
 10
-314.5575613562
 20
-3.3870877905
 10
-314.5448290642
 20
-3.3891164395
 10
-314.535259588
 20
-3.3895683629
  0
LWPOLYLINE
  5
29C
100
AcDbEntity
  8
RACCORDO
100
AcDbPolyline
 62
7
  6
CONTINUOUS
 90
11
 70
0
 10
-314.3281444568
 20
-3.3872664033
 10
-314.3252916326
 20
-3.3956212568
 10
-314.3223243788
 20
-3.4058335224
 10
-314.3193621804
 20
-3.4179347055
 10
-314.3165432873
 20
-3.4317965247
 10
-314.3139627925
 20
-3.4473756047
 10
-314.3117156083
 20
-3.464607959
 10
-314.3099020489
 20
-3.483284242
 10
-314.3085880815
 20
-3.5032573813
 10
-314.3078312036
 20
-3.5243769057
 10
-314.3076907302
 20
-3.5463773925
  0
LINE
  5
29D
100
AcDbEntity
  8
RACCORDO
100
AcDbLine
 62
7
  6
CONTINUOUS
 10
-314.3863306813
 20
-5.7206027936
 11
-314.3765110867
 21
-5.7509179938
  0
LINE
  5
29E
100
AcDbEntity
  8
RACCORDO
100
AcDbLine
 62
253
  6
CONTINUOUS
 10
-314.3765721494
 20
-5.7490800944
 11
-314.3765110867
 21
-5.7509179938
  0
LINE
  5
29F
100
AcDbEntity
  8
RACCORDO
100
AcDbLine
 62
253
  6
CONTINUOUS
 10
-314.3731065784
 20
-5.7615432107
 11
-314.3677122779
 21
-5.776778266
  0
LINE
  5
2A0
100
AcDbEntity
  8
RACCORDO
100
AcDbLine
 62
7
  6
CONTINUOUS
 10
-314.3765110867
 20
-5.7509179938
 11
-314.3664897115
 21
-5.7823674749
  0
LWPOLYLINE
  5
2A1
100
AcDbEntity
  8
RACCORDO
100
AcDbPolyline
 62
253
  6
CONTINUOUS
 90
5
 70
0
 10
-314.3021869401
 20
-6.0255842678
 10
-314.3060457768
 20
-6.0132566467
 10
-314.3082855227
 20
-6.0005336547
 10
-314.3088687952
 20
-5.9876276465
 10
-314.3086314305
 20
-5.984805927
  0
LINE
  5
2A2
100
AcDbEntity
  8
RACCORDO
100
AcDbLine
 62
7
  6
CONTINUOUS
 10
-314.3664897115
 20
-5.7823674749
 11
-314.3570823565
 21
-5.8124029497
  0
LINE
  5
2A3
100
AcDbEntity
  8
RACCORDO
100
AcDbLine
 62
7
  6
CONTINUOUS
 10
-314.3570823565
 20
-5.8124029497
 11
-314.348349532
 21
-5.8408038224
  0
LWPOLYLINE
  5
2A4
100
AcDbEntity
  8
RACCORDO
100
AcDbPolyline
 62
253
  6
CONTINUOUS
 90
6
 70
0
 10
-314.3378500106
 20
-5.87578228
 10
-314.3366319103
 20
-5.8777520386
 10
-314.3301133218
 20
-5.8999857299
 10
-314.3241460374
 20
-5.920854057
 10
-314.318814232
 20
-5.9400256372
 10
-314.3141458579
 20
-5.9574211656
  0
LINE
  5
2A5
100
AcDbEntity
  8
RACCORDO
100
AcDbLine
 62
7
  6
CONTINUOUS
 10
-314.348349532
 20
-5.8408038224
 11
-314.3403450455
 21
-5.8673715254
  0
LINE
  5
2A6
100
AcDbEntity
  8
RACCORDO
100
AcDbLine
 62
7
  6
CONTINUOUS
 10
-314.3403450455
 20
-5.8673715254
 11
-314.335444616
 21
-5.8839588891
  0
LINE
  5
2A7
100
AcDbEntity
  8
RACCORDO
100
AcDbLine
 62
7
  6
CONTINUOUS
 10
-314.335444616
 20
-5.8839588891
 11
-314.3309055069
 21
-5.8995929344
  0
LINE
  5
2A8
100
AcDbEntity
  8
RACCORDO
100
AcDbLine
 62
7
  6
CONTINUOUS
 10
-314.3309055069
 20
-5.8995929344
 11
-314.3267360749
 21
-5.9142257974
  0
LWPOLYLINE
  5
2A9
100
AcDbEntity
  8
RACCORDO
100
AcDbPolyline
 62
253
  6
CONTINUOUS
 90
3
 70
0
 10
-314.4661300335
 20
-5.4532150733
 10
-314.4415861326
 20
-5.5399723777
 10
-314.4148638992
 20
-5.6290743501
  0
LINE
  5
2AA
100
AcDbEntity
  8
RACCORDO
100
AcDbLine
 62
7
  6
CONTINUOUS
 10
-314.3267360749
 20
-5.9142257974
 11
-314.3229472081
 21
-5.9278056217
  0
LINE
  5
2AB
100
AcDbEntity
  8
RACCORDO
100
AcDbLine
 62
7
  6
CONTINUOUS
 10
-314.3229472081
 20
-5.9278056217
 11
-314.319550321
 21
-5.9402927442
  0
LWPOLYLINE
  5
2AC
100
AcDbEntity
  8
RACCORDO
100
AcDbPolyline
 62
7
  6
CONTINUOUS
 90
4
 70
0
 10
-314.319550321
 20
-5.9402927442
 10
-314.3165518205
 20
-5.9516498873
 10
-314.3152004075
 20
-5.9569018526
 10
-314.3139485527
 20
-5.9618590434
  0
LWPOLYLINE
  5
2AD
100
AcDbEntity
  8
RACCORDO
100
AcDbPolyline
 62
253
  6
CONTINUOUS
 90
9
 70
0
 10
-314.3141458579
 20
-5.9574211656
 10
-314.3101385002
 20
-5.9730517758
 10
-314.3068301514
 20
-5.9867386213
 10
-314.3042342698
 20
-5.9984395911
 10
-314.3023527287
 20
-6.0081423951
 10
-314.3012038388
 20
-6.0157322618
 10
-314.3007950981
 20
-6.0211645122
 10
-314.3011230932
 20
-6.0244535522
 10
-314.3021869667
 20
-6.0255842781
  0
LWPOLYLINE
  5
2AE
100
AcDbEntity
  8
RACCORDO
100
AcDbPolyline
 62
7
  6
CONTINUOUS
 90
10
 70
0
 10
-314.3139485527
 20
-5.9618590434
 10
-314.3128020509
 20
-5.9664930099
 10
-314.3117610878
 20
-5.9708012938
 10
-314.3108263326
 20
-5.9747787872
 10
-314.3100044252
 20
-5.9783908446
 10
-314.3092901396
 20
-5.9816503426
 10
-314.3086852154
 20
-5.9845357261
 10
-314.3082016951
 20
-5.986964799
 10
-314.3078249901
 20
-5.9889768202
 10
-314.3077462953
 20
-5.9894169105
  0
LINE
  5
2AF
100
AcDbEntity
  8
RACCORDO
100
AcDbLine
 62
253
  6
CONTINUOUS
 10
-314.3187708102
 20
-3.3727064876
 11
-314.3140980806
 21
-3.3923946454
  0
LWPOLYLINE
  5
2B0
100
AcDbEntity
  8
RACCORDO
100
AcDbPolyline
 62
253
  6
CONTINUOUS
 90
3
 70
0
 10
-314.5279730117
 20
-5.2077510321
 10
-314.50920069
 20
-5.2871357459
 10
-314.4886264149
 20
-5.3689290665
  0
LWPOLYLINE
  5
2B1
100
AcDbEntity
  8
RACCORDO
100
AcDbPolyline
 62
7
  6
CONTINUOUS
 90
3
 70
0
 10
-314.6372549028
 20
-3.300528642
 10
-314.6354870025
 20
-3.3087384197
 10
-314.6330653108
 20
-3.3171749565
  0
LINE
  5
2B2
100
AcDbEntity
  8
RACCORDO
100
AcDbLine
 62
253
  6
CONTINUOUS
 10
-314.5605779164
 20
-5.0564497625
 11
-314.5450606522
 21
-5.1308386456
  0
LINE
  5
2B3
100
AcDbEntity
  8
RACCORDO
100
AcDbLine
 62
253
  6
CONTINUOUS
 10
-314.3140980806
 20
-3.3923946454
 11
-314.3100994655
 21
-3.4134986391
  0
LINE
  5
2B4
100
AcDbEntity
  8
RACCORDO
100
AcDbLine
 62
253
  6
CONTINUOUS
 10
-314.5873222471
 20
-4.9150074503
 11
-314.5746340376
 21
-4.9844722764
  0
LINE
  5
2B5
100
AcDbEntity
  8
RACCORDO
100
AcDbLine
 62
253
  6
CONTINUOUS
 10
-314.6090525767
 20
-4.7832103156
 11
-314.5987537208
 21
-4.8480252221
  0
LWPOLYLINE
  5
2B6
100
AcDbEntity
  8
RACCORDO
100
AcDbPolyline
 62
253
  6
CONTINUOUS
 90
7
 70
0
 10
-314.3100994655
 20
-3.4134986391
 10
-314.3068011136
 20
-3.4356650857
 10
-314.3042136355
 20
-3.4588237808
 10
-314.3023417079
 20
-3.4829257973
 10
-314.3012000661
 20
-3.5076331835
 10
-314.3007949926
 20
-3.5327855975
 10
-314.3011242454
 20
-3.5584055044
  0
LINE
  5
2B7
100
AcDbEntity
  8
RACCORDO
100
AcDbLine
 62
253
  6
CONTINUOUS
 10
-314.626605951
 20
-4.6599267706
 11
-314.6183133043
 21
-4.7204704152
  0
LWPOLYLINE
  5
2B8
100
AcDbEntity
  8
RACCORDO
100
AcDbPolyline
 62
7
  6
CONTINUOUS
 90
10
 70
0
 10
-314.6345333396
 20
-4.6016377929
 10
-314.6209695929
 20
-4.7054948862
 10
-314.6009741226
 20
-4.8377289586
 10
-314.5779872768
 20
-4.9694715338
 10
-314.5520209036
 20
-5.1006559111
 10
-314.5230889038
 20
-5.2312143327
 10
-314.4912057996
 20
-5.3610811911
 10
-314.4563870901
 20
-5.4901933205
 10
-314.4186509538
 20
-5.6184831879
 10
-314.3863340627
 20
-5.7206038974
  0
LINE
  5
2B9
100
AcDbEntity
  8
RACCORDO
100
AcDbLine
 62
7
  6
CONTINUOUS
 10
-314.6358528619
 20
-4.5901977368
 11
-314.6345327864
 21
-4.6016377208
  0
LINE
  5
2BA
100
AcDbEntity
  8
0
100
AcDbLine
 62
253
  6
CONTINUOUS
 10
-291.6877996448
 20
43.610431553
 11
-291.6877996448
 21
-51.389568447
  0
LINE
  5
2BB
100
AcDbEntity
  8
0
100
AcDbLine
 62
7
  6
CONTINUOUS
 10
-288.708614925
 20
46.610431553
 11
-288.708614925
 21
44.110431553
  0
LINE
  5
2BC
100
AcDbEntity
  8
0
100
AcDbLine
 62
7
  6
CONTINUOUS
 10
-288.208614925
 20
47.110431553
 11
-288.208614925
 21
56.810431553
  0
LINE
  5
2BD
100
AcDbEntity
  8
0
100
AcDbLine
 62
253
  6
CONTINUOUS
 10
-286.0309453954
 20
10.610431553
 11
-286.0309453954
 21
-51.389568447
  0
LINE
  5
2BE
100
AcDbEntity
  8
0
100
AcDbLine
 62
7
  6
CONTINUOUS
 10
-286.0309453954
 20
-51.389568447
 11
-286.0309453954
 21
-54.389568447
  0
LINE
  5
2BF
100
AcDbEntity
  8
0
100
AcDbLine
 62
7
  6
CONTINUOUS
 10
-286.0309453954
 20
10.610431553
 11
-286.0309453954
 21
43.610431553
  0
LINE
  5
2C0
100
AcDbEntity
  8
0
100
AcDbLine
 62
7
  6
CONTINUOUS
 10
-285.708614925
 20
47.110431553
 11
-285.708614925
 21
56.810431553
  0
LWPOLYLINE
  5
2C1
100
AcDbEntity
  8
RACCORDO
100
AcDbPolyline
 62
7
  6
CONTINUOUS
 90
11
 70
0
 10
-314.6256430501
 20
-3.3347050721
 10
-314.6204957044
 20
-3.343393971
 10
-314.614549717
 20
-3.3515358841
 10
-314.6076941963
 20
-3.3592134772
 10
-314.5998611142
 20
-3.366370923
 10
-314.5910813669
 20
-3.3728430445
 10
-314.5813710187
 20
-3.3784890194
 10
-314.5706396567
 20
-3.3832017295
 10
-314.5589093516
 20
-3.3867746675
 10
-314.5463470032
 20
-3.3889612371
 10
-314.5352639997
 20
-3.3895682318
  0
LINE
  5
2C2
100
AcDbEntity
  8
0
100
AcDbLine
 62
7
  6
CONTINUOUS
 10
-242.0309453954
 20
46.610431553
 11
-242.0309453954
 21
56.810431553
  0
LWPOLYLINE
  5
2C3
100
AcDbEntity
  8
RACCORDO
100
AcDbPolyline
 62
7
  6
CONTINUOUS
 90
7
 70
0
 10
-314.3339504948
 20
-3.3734151354
 10
-314.3351158114
 20
-3.372115604
 10
-314.3352885415
 20
-3.3719057468
 10
-314.3344817226
 20
-3.3731913677
 10
-314.3329215952
 20
-3.3760730898
 10
-314.3307544241
 20
-3.380728771
 10
-314.3281444568
 20
-3.3872664033
  0
LWPOLYLINE
  5
2C4
100
AcDbEntity
  8
RACCORDO
100
AcDbPolyline
 62
253
  6
CONTINUOUS
 90
9
 70
0
 10
-314.3021869667
 20
-1.7535526158
 10
-314.3011202154
 20
-1.7546646569
 10
-314.3007910626
 20
-1.7579432935
 10
-314.301200371
 20
-1.7633746454
 10
-314.3023515246
 20
-1.7709770233
 10
-314.3042370378
 20
-1.7807044963
 10
-314.3068386528
 20
-1.7924341854
 10
-314.3101543532
 20
-1.8061492514
 10
-314.3141707524
 20
-1.8218109297
  0
LINE
  5
2C5
100
AcDbEntity
  8
0
100
AcDbLine
 62
7
  6
CONTINUOUS
 10
-197.7436121734
 20
38.610431553
 11
-197.7436121734
 21
36.110431553
  0
LINE
  5
2C6
100
AcDbEntity
  8
0
100
AcDbLine
 62
7
  6
CONTINUOUS
 10
-197.7436121734
 20
-43.889568447
 11
-197.7436121734
 21
-46.389568447
  0
LINE
  5
2C7
100
AcDbEntity
  8
0
100
AcDbLine
 62
7
  6
CONTINUOUS
 10
-195.7436121734
 20
-46.389568447
 11
-195.7436121734
 21
-44.389568447
  0
LINE
  5
2C8
100
AcDbEntity
  8
0
100
AcDbLine
 62
7
  6
CONTINUOUS
 10
-195.7436121734
 20
-46.389568447
 11
-195.7436121734
 21
-54.389568447
  0
LINE
  5
2C9
100
AcDbEntity
  8
0
100
AcDbLine
 62
7
  6
CONTINUOUS
 10
-195.7436121734
 20
38.610431553
 11
-195.7436121734
 21
56.810431553
  0
LINE
  5
2CA
100
AcDbEntity
  8
0
100
AcDbLine
 62
253
  6
CONTINUOUS
 10
-194.708614925
 20
36.110431553
 11
-194.708614925
 21
-43.889568447
  0
LINE
  5
2CB
100
AcDbEntity
  8
0
100
AcDbLine
 62
253
  6
CONTINUOUS
 10
-192.2727076776
 20
36.110431553
 11
-192.2727076776
 21
-43.889568447
  0
LINE
  5
2CC
100
AcDbEntity
  8
0
100
AcDbLine
 62
253
  6
CONTINUOUS
 10
-191.3174499335
 20
36.110431553
 11
-191.3174499335
 21
-43.889568447
  0
LINE
  5
2CD
100
AcDbEntity
  8
0
100
AcDbLine
 62
7
  6
CONTINUOUS
 10
-190.208614925
 20
46.110431553
 11
-190.208614925
 21
-53.889568447
  0
LWPOLYLINE
  5
2CE
100
AcDbEntity
  8
RACCORDO
100
AcDbPolyline
 62
253
  6
CONTINUOUS
 90
22
 70
0
 10
-184.3189051625
 20
-4.601573724
 10
-184.3194179232
 20
-4.5919085979
 10
-184.3207284834
 20
-4.5825772714
 10
-184.322837422
 20
-4.5735665468
 10
-184.3258477292
 20
-4.5647439266
 10
-184.3296581594
 20
-4.5562077997
 10
-184.3339786438
 20
-4.5482925786
 10
-184.3388451675
 20
-4.5410737242
 10
-184.344259201
 20
-4.5344428382
 10
-184.3498954571
 20
-4.5284714967
 10
-184.3557411983
 20
-4.5232062108
 10
-184.3618465071
 20
-4.5185865878
 10
-184.3679793539
 20
-4.5145399038
 10
-184.3741199611
 20
-4.5110844814
 10
-184.3803125261
 20
-4.5082036866
 10
-184.3864144802
 20
-4.5057827284
 10
-184.3923993495
 20
-4.5038286561
 10
-184.3983060487
 20
-4.5023441655
 10
-184.4040846091
 20
-4.5012118736
 10
-184.4097193555
 20
-4.5003963328
 10
-184.4152306576
 20
-4.4999435322
 10
-184.4206202021
 20
-4.4998586844
  0
LWPOLYLINE
  5
2CF
100
AcDbEntity
  8
RACCORDO
100
AcDbPolyline
 62
253
  6
CONTINUOUS
 90
22
 70
0
 10
-183.0983246876
 20
-3.1775631699
 10
-183.0978119269
 20
-3.187228296
 10
-183.0965013667
 20
-3.1965596225
 10
-183.094392428
 20
-3.2055703472
 10
-183.0913821208
 20
-3.2143929673
 10
-183.0875716907
 20
-3.2229290942
 10
-183.0832512062
 20
-3.2308443154
 10
-183.0783846825
 20
-3.2380631698
 10
-183.072970649
 20
-3.2446940557
 10
-183.0673343929
 20
-3.2506653973
 10
-183.0614886518
 20
-3.2559306831
 10
-183.055383343
 20
-3.2605503062
 10
-183.0492504961
 20
-3.2645969901
 10
-183.043109889
 20
-3.2680524125
 10
-183.0369173239
 20
-3.2709332074
 10
-183.0308153698
 20
-3.2733541655
 10
-183.0248305005
 20
-3.2753082379
 10
-183.0189238013
 20
-3.2767927284
 10
-183.013145241
 20
-3.2779250203
 10
-183.0075104945
 20
-3.2787405611
 10
-183.0019991924
 20
-3.2791933617
 10
-182.996609648
 20
-3.2792782095
  0
LWPOLYLINE
  5
2D0
100
AcDbEntity
  8
RACCORDO
100
AcDbPolyline
 62
253
  6
CONTINUOUS
 90
16
 70
0
 10
-184.0137596346
 20
-6.0255814121
 10
-184.0139727874
 20
-6.0132537387
 10
-184.0140965122
 20
-6.000530507
 10
-184.0141287434
 20
-5.9876241054
 10
-184.0140689427
 20
-5.9747499802
 10
-184.0139181079
 20
-5.9621230385
 10
-184.0136787565
 20
-5.9499540616
 10
-184.0133548836
 20
-5.9384461856
 10
-184.0129518951
 20
-5.9277915112
 10
-184.0124765178
 20
-5.9181678965
 10
-184.0119366864
 20
-5.9097359882
 10
-184.011341412
 20
-5.9026365398
 10
-184.010700631
 20
-5.8969880622
 10
-184.0100250393
 20
-5.8928848453
 10
-184.0093259141
 20
-5.8903953839
 10
-184.0086149253
 20
-5.8895612345
  0
LWPOLYLINE
  5
2D1
100
AcDbEntity
  8
RACCORDO
100
AcDbPolyline
 62
253
  6
CONTINUOUS
 90
16
 70
0
 10
-183.4034702154
 20
-1.7535554819
 10
-183.4032570627
 20
-1.7658831553
 10
-183.4031333379
 20
-1.778606387
 10
-183.4031011066
 20
-1.7915127885
 10
-183.4031609074
 20
-1.8043869138
 10
-183.4033117422
 20
-1.8170138554
 10
-183.4035510936
 20
-1.8291828324
 10
-183.4038749664
 20
-1.8406907083
 10
-183.4042779549
 20
-1.8513453827
 10
-183.4047533323
 20
-1.8609689974
 10
-183.4052931636
 20
-1.8694009058
 10
-183.405888438
 20
-1.8765003542
 10
-183.4065292191
 20
-1.8821488318
 10
-183.4072048108
 20
-1.8862520487
 10
-183.407903936
 20
-1.8887415101
 10
-183.4086149247
 20
-1.8895756594
  0
LWPOLYLINE
  5
2D2
100
AcDbEntity
  8
RACCORDO
100
AcDbPolyline
 62
253
  6
CONTINUOUS
 90
13
 70
0
 10
-185.5394843195
 20
-4.4998582448
 10
-185.5396288974
 20
-4.4859279597
 10
-185.5391709314
 20
-4.4720682195
 10
-185.538119319
 20
-4.4585482939
 10
-185.5364944912
 20
-4.4456308511
 10
-185.5343280156
 20
-4.4335668537
 10
-185.531661983
 20
-4.4225906836
 10
-185.5285481897
 20
-4.4129155881
 10
-185.5250471312
 20
-4.4047295369
 10
-185.521226827
 20
-4.3981915705
 10
-185.5171614988
 20
-4.3934287097
 10
-185.5129301287
 20
-4.3905334884
 10
-185.5086149247
 20
-4.3895621556
  0
LWPOLYLINE
  5
2D3
100
AcDbEntity
  8
RACCORDO
100
AcDbPolyline
 62
253
  6
CONTINUOUS
 90
13
 70
0
 10
-181.8777455305
 20
-3.2792786492
 10
-181.8776009526
 20
-3.2932089342
 10
-181.8780589187
 20
-3.3070686745
 10
-181.8791105311
 20
-3.3205886
 10
-181.8807353589
 20
-3.3335060428
 10
-181.8829018345
 20
-3.3455700402
 10
-181.8855678671
 20
-3.3565462103
 10
-181.8886816604
 20
-3.3662213059
 10
-181.8921827188
 20
-3.374407357
 10
-181.896003023
 20
-3.3809453235
 10
-181.9000683513
 20
-3.3857081843
 10
-181.9042997214
 20
-3.3886034055
 10
-181.9086149253
 20
-3.3895747383
  0
LWPOLYLINE
  5
2D4
100
AcDbEntity
  8
RACCORDO
100
AcDbPolyline
 62
253
  6
CONTINUOUS
 90
13
 70
0
 10
-184.4206201998
 20
-4.4998586825
 10
-184.4206762732
 20
-4.485928726
 10
-184.4204980434
 20
-4.4720694745
 10
-184.4200889727
 20
-4.4585501573
 10
-184.4194570076
 20
-4.4456334
 10
-184.4186144247
 20
-4.4335701228
 10
-184.4175775919
 20
-4.4225946665
 10
-184.4163666507
 20
-4.4129202397
 10
-184.4150051249
 20
-4.4047347774
 10
-184.4135194632
 20
-4.39819729
 10
-184.4119385262
 20
-4.3934347745
 10
-184.410293025
 20
-4.3905397473
 10
-184.408614925
 20
-4.389568447
  0
LWPOLYLINE
  5
2D5
100
AcDbEntity
  8
RACCORDO
100
AcDbPolyline
 62
253
  6
CONTINUOUS
 90
13
 70
0
 10
-182.9966096503
 20
-3.2792782115
 10
-182.9965535768
 20
-3.293208168
 10
-182.9967318066
 20
-3.3070674194
 10
-182.9971408773
 20
-3.3205867366
 10
-182.9977728424
 20
-3.333503494
 10
-182.9986154253
 20
-3.3455667712
 10
-182.9996522581
 20
-3.3565422275
 10
-183.0008631993
 20
-3.3662166543
 10
-183.0022247252
 20
-3.3744021165
 10
-183.0037103868
 20
-3.3809396039
 10
-183.0052913239
 20
-3.3857021194
 10
-183.0069368251
 20
-3.3885971466
 10
-183.008614925
 20
-3.389568447
  0
LINE
  5
2D6
100
AcDbEntity
  8
RACCORDO
100
AcDbLine
 62
253
  6
CONTINUOUS
 10
-185.8446307562
 20
-4.1947135657
 11
-185.8446307562
 21
-3.5844233282
  0
LINE
  5
2D7
100
AcDbEntity
  8
RACCORDO
100
AcDbLine
 62
7
  6
CONTINUOUS
 10
-185.708614925
 20
-4.189568447
 11
-185.708614925
 21
-3.589568447
  0
LINE
  5
2D8
100
AcDbEntity
  8
RACCORDO
100
AcDbLine
 62
7
  6
CONTINUOUS
 10
-184.208614925
 20
-5.689568447
 11
-184.208614925
 21
-4.589568447
  0
LINE
  5
2D9
100
AcDbEntity
  8
RACCORDO
100
AcDbLine
 62
7
  6
CONTINUOUS
 10
-184.208614925
 20
-3.189568447
 11
-184.208614925
 21
-2.089568447
  0
LINE
  5
2DA
100
AcDbEntity
  8
RACCORDO
100
AcDbLine
 62
7
  6
CONTINUOUS
 10
-183.208614925
 20
-2.089568447
 11
-183.208614925
 21
-3.189568447
  0
LINE
  5
2DB
100
AcDbEntity
  8
RACCORDO
100
AcDbLine
 62
7
  6
CONTINUOUS
 10
-183.208614925
 20
-4.589568447
 11
-183.208614925
 21
-5.689568447
  0
LINE
  5
2DC
100
AcDbEntity
  8
RACCORDO
100
AcDbLine
 62
7
  6
CONTINUOUS
 10
-181.708614925
 20
-3.589568447
 11
-181.708614925
 21
-4.189568447
  0
LINE
  5
2DD
100
AcDbEntity
  8
RACCORDO
100
AcDbLine
 62
253
  6
CONTINUOUS
 10
-181.5725990939
 20
-3.5844233282
 11
-181.5725990939
 21
-4.1947135657
  0
LINE
  5
2DE
100
AcDbEntity
  8
RACCORDO
100
AcDbLine
 62
253
  6
CONTINUOUS
 10
-184.3189051625
 20
-3.1775631699
 11
-184.318905161
 21
-2.3259218206
  0
LINE
  5
2DF
100
AcDbEntity
  8
RACCORDO
100
AcDbLine
 62
253
  6
CONTINUOUS
 10
-184.3189812823
 20
-4.6596398942
 11
-184.3189051625
 21
-4.601573724
  0
LINE
  5
2E0
100
AcDbEntity
  8
RACCORDO
100
AcDbLine
 62
253
  6
CONTINUOUS
 10
-183.0982485677
 20
-3.1194969997
 11
-183.0983246876
 21
-3.1775631699
  0
LINE
  5
2E1
100
AcDbEntity
  8
RACCORDO
100
AcDbLine
 62
253
  6
CONTINUOUS
 10
-183.0983246876
 20
-4.601573724
 11
-183.098324689
 21
-5.4532150733
  0
LWPOLYLINE
  5
2E2
100
AcDbEntity
  8
RACCORDO
100
AcDbPolyline
 62
253
  6
CONTINUOUS
 90
3
 70
0
 10
-184.318905161
 20
-2.3259218206
 10
-184.3187253914
 20
-2.2391645162
 10
-184.3189051625
 20
-2.0586977346
  0
LWPOLYLINE
  5
2E3
100
AcDbEntity
  8
RACCORDO
100
AcDbPolyline
 62
253
  6
CONTINUOUS
 90
3
 70
0
 10
-183.098324689
 20
-5.4532150733
 10
-183.0985044586
 20
-5.5399723777
 10
-183.0983246876
 20
-5.7204391594
  0
LINE
  5
2E4
100
AcDbEntity
  8
RACCORDO
100
AcDbLine
 62
253
  6
CONTINUOUS
 10
-184.3189051625
 20
-5.7204391594
 11
-184.3189812823
 21
-4.6596398942
  0
LINE
  5
2E5
100
AcDbEntity
  8
RACCORDO
100
AcDbLine
 62
253
  6
CONTINUOUS
 10
-183.0983246876
 20
-2.0586977346
 11
-183.0982485677
 21
-3.1194969997
  0
LWPOLYLINE
  5
2E6
100
AcDbEntity
  8
RACCORDO
100
AcDbPolyline
 62
253
  6
CONTINUOUS
 90
13
 70
0
 10
-184.4206202018
 20
-3.2792782097
 10
-184.4206762722
 20
-3.2932081439
 10
-184.4204980399
 20
-3.3070673712
 10
-184.4200889672
 20
-3.3205866633
 10
-184.4194570007
 20
-3.3335033955
 10
-184.4186144169
 20
-3.3455666483
 10
-184.4175775839
 20
-3.3565420818
 10
-184.416366643
 20
-3.3662164883
 10
-184.415005118
 20
-3.3744019333
 10
-184.4135194576
 20
-3.380939407
 10
-184.4119385221
 20
-3.385701913
 10
-184.4102930228
 20
-3.3885969352
 10
-184.408614925
 20
-3.3895682352
  0
LWPOLYLINE
  5
2E7
100
AcDbEntity
  8
RACCORDO
100
AcDbPolyline
 62
253
  6
CONTINUOUS
 90
13
 70
0
 10
-182.9966096482
 20
-4.4998586842
 10
-182.9965535778
 20
-4.48592875
 10
-182.9967318102
 20
-4.4720695227
 10
-182.9971408829
 20
-4.4585502306
 10
-182.9977728494
 20
-4.4456334984
 10
-182.9986154331
 20
-4.4335702457
 10
-182.9996522661
 20
-4.4225948121
 10
-183.000863207
 20
-4.4129204057
 10
-183.0022247321
 20
-4.4047349607
 10
-183.0037103925
 20
-4.398197487
 10
-183.0052913279
 20
-4.3934349809
 10
-183.0069368272
 20
-4.3905399587
 10
-183.008614925
 20
-4.3895686588
  0
LWPOLYLINE
  5
2E8
100
AcDbEntity
  8
RACCORDO
100
AcDbPolyline
 62
253
  6
CONTINUOUS
 90
13
 70
0
 10
-185.5394856207
 20
-3.2792782151
 10
-185.5396298095
 20
-3.2932081684
 10
-185.5391715045
 20
-3.3070674167
 10
-185.5381196088
 20
-3.3205867309
 10
-185.5364945564
 20
-3.3335034857
 10
-185.5343279156
 20
-3.3455667608
 10
-185.5316617753
 20
-3.3565422158
 10
-185.5285479279
 20
-3.3662166421
 10
-185.5250468628
 20
-3.3744021048
 10
-185.5212265913
 20
-3.3809395936
 10
-185.517161326
 20
-3.3857021116
 10
-185.5129300383
 20
-3.3885971422
 10
-185.508614925
 20
-3.389568447
  0
LWPOLYLINE
  5
2E9
100
AcDbEntity
  8
RACCORDO
100
AcDbPolyline
 62
253
  6
CONTINUOUS
 90
13
 70
0
 10
-181.8777442293
 20
-4.4998586789
 10
-181.8776000405
 20
-4.4859287255
 10
-181.8780583455
 20
-4.4720694773
 10
-181.8791102412
 20
-4.458550163
 10
-181.8807352936
 20
-4.4456334082
 10
-181.8829019345
 20
-4.4335701331
 10
-181.8855680747
 20
-4.4225946781
 10
-181.8886819221
 20
-4.4129202518
 10
-181.8921829873
 20
-4.4047347891
 10
-181.8960032587
 20
-4.3981973003
 10
-181.9000685241
 20
-4.3934347824
 10
-181.9042998118
 20
-4.3905397517
 10
-181.908614925
 20
-4.389568447
  0
LWPOLYLINE
  5
2EA
100
AcDbEntity
  8
RACCORDO
100
AcDbPolyline
 62
253
  6
CONTINUOUS
 90
16
 70
0
 10
-184.0137600423
 20
-1.7535526261
 10
-184.0139731909
 20
-1.7658802472
 10
-184.0140969067
 20
-1.7786032392
 10
-184.0141291246
 20
-1.7915092475
 10
-184.014069307
 20
-1.8043828625
 10
-184.0139184522
 20
-1.8170092156
 10
-184.0136790783
 20
-1.829177565
 10
-184.0133551805
 20
-1.8406848133
 10
-184.0129521649
 20
-1.8513388973
 10
-184.0124767581
 20
-1.8609619936
 10
-184.0119368949
 20
-1.8693934867
 10
-184.0113415859
 20
-1.8764926497
 10
-184.010700767
 20
-1.882140993
 10
-184.0100251339
 20
-1.8862442422
 10
-184.0093259634
 20
-1.8887339116
 10
-184.008614925
 20
-1.889568447
  0
LWPOLYLINE
  5
2EB
100
AcDbEntity
  8
RACCORDO
100
AcDbPolyline
 62
253
  6
CONTINUOUS
 90
16
 70
0
 10
-183.4034698078
 20
-6.0255842678
 10
-183.4032566591
 20
-6.0132566467
 10
-183.4031329434
 20
-6.0005336547
 10
-183.4031007254
 20
-5.9876276465
 10
-183.4031605431
 20
-5.9747540314
 10
-183.4033113978
 20
-5.9621276783
 10
-183.4035507718
 20
-5.9499593289
 10
-183.4038746695
 20
-5.9384520806
 10
-183.4042776851
 20
-5.9277979966
 10
-183.404753092
 20
-5.9181749003
 10
-183.4052929552
 20
-5.9097434072
 10
-183.4058882642
 20
-5.9026442443
 10
-183.406529083
 20
-5.896995901
 10
-183.4072047161
 20
-5.8928926517
 10
-183.4079038866
 20
-5.8904029823
 10
-183.408614925
 20
-5.889568447
  0
LWPOLYLINE
  5
2EC
100
AcDbEntity
  8
RACCORDO
100
AcDbPolyline
 62
253
  6
CONTINUOUS
 90
19
 70
0
 10
-185.8446307562
 20
-3.5844233282
 10
-185.8434910288
 20
-3.5583238702
 10
-185.8401952039
 20
-3.5326386857
 10
-185.8347589509
 20
-3.5074376744
 10
-185.8271728722
 20
-3.4827035208
 10
-185.8174779516
 20
-3.4585917539
 10
-185.805775349
 20
-3.4354256853
 10
-185.7920801678
 20
-3.4132466256
 10
-185.7764304477
 20
-3.3921328331
 10
-185.7589800191
 20
-3.3724461615
 10
-185.7397012295
 20
-3.3541892781
 10
-185.7186889401
 20
-3.3374448384
 10
-185.6962986533
 20
-3.3226593553
 10
-185.6725329474
 20
-3.3098416051
 10
-185.6474613496
 20
-3.2989985847
 10
-185.6215511674
 20
-3.2905191
 10
-185.5949780405
 20
-3.2844978172
 10
-185.5676181303
 20
-3.2807649278
 10
-185.5394856374
 20
-3.2792782095
  0
LWPOLYLINE
  5
2ED
100
AcDbEntity
  8
RACCORDO
100
AcDbPolyline
 62
253
  6
CONTINUOUS
 90
19
 70
0
 10
-181.5725990939
 20
-4.1947135657
 10
-181.5737388212
 20
-4.2208130238
 10
-181.5770346461
 20
-4.2464982082
 10
-181.5824708991
 20
-4.2716992195
 10
-181.5900569778
 20
-4.2964333732
 10
-181.5997518985
 20
-4.32054514
 10
-181.611454501
 20
-4.3437112086
 10
-181.6251496822
 20
-4.3658902683
 10
-181.6407994023
 20
-4.3870040609
 10
-181.6582498309
 20
-4.4066907324
 10
-181.6775286206
 20
-4.4249476158
 10
-181.69854091
 20
-4.4416920555
 10
-181.7209311967
 20
-4.4564775386
 10
-181.7446969026
 20
-4.4692952888
 10
-181.7697685004
 20
-4.4801383092
 10
-181.7956786826
 20
-4.488617794
 10
-181.8222518095
 20
-4.4946390767
 10
-181.8496117197
 20
-4.4983719661
 10
-181.8777442126
 20
-4.4998586844
  0
LWPOLYLINE
  5
2EE
100
AcDbEntity
  8
RACCORDO
100
AcDbPolyline
 62
253
  6
CONTINUOUS
 90
19
 70
0
 10
-184.3189051625
 20
-2.0586977346
 10
-184.3173038291
 20
-2.0300567995
 10
-184.3134738714
 20
-2.002358628
 10
-184.3073789305
 20
-1.9756175567
 10
-184.2988604527
 20
-1.9497697392
 10
-184.2880165031
 20
-1.9249300663
 10
-184.2752236775
 20
-1.9013848554
 10
-184.2604937239
 20
-1.879151164
 10
-184.2438297818
 20
-1.858282837
 10
-184.2256416587
 20
-1.8391112568
 10
-184.205997374
 20
-1.8217157284
 10
-184.184910208
 20
-1.8060851181
 10
-184.162742441
 20
-1.7923982726
 10
-184.1395621126
 20
-1.7806973028
 10
-184.1154196958
 20
-1.7709944989
 10
-184.0906697738
 20
-1.7634046321
 10
-184.0654787173
 20
-1.7579723818
 10
-184.0398188353
 20
-1.7546833417
 10
-184.0137600438
 20
-1.7535526158
  0
LWPOLYLINE
  5
2EF
100
AcDbEntity
  8
RACCORDO
100
AcDbPolyline
 62
253
  6
CONTINUOUS
 90
19
 70
0
 10
-183.0983246876
 20
-5.7204391594
 10
-183.0999260209
 20
-5.7490800944
 10
-183.1037559786
 20
-5.776778266
 10
-183.1098509195
 20
-5.8035193373
 10
-183.1183693973
 20
-5.8293671548
 10
-183.1292133469
 20
-5.8542068277
 10
-183.1420061725
 20
-5.8777520386
 10
-183.1567361261
 20
-5.8999857299
 10
-183.1734000682
 20
-5.920854057
 10
-183.1915881913
 20
-5.9400256372
 10
-183.211232476
 20
-5.9574211656
 10
-183.232319642
 20
-5.9730517758
 10
-183.254487409
 20
-5.9867386213
 10
-183.2776677374
 20
-5.9984395911
 10
-183.3018101542
 20
-6.0081423951
 10
-183.3265600762
 20
-6.0157322618
 10
-183.3517511327
 20
-6.0211645122
 10
-183.3774110147
 20
-6.0244535522
 10
-183.4034698063
 20
-6.0255842781
  0
LINE
  5
2F0
100
AcDbEntity
  8
RACCORDO
100
AcDbLine
 62
253
  6
CONTINUOUS
 10
-314.575603628
 20
-3.3809396039
 11
-314.5626006045
 21
-3.3857021194
  0
LINE
  5
2F1
100
AcDbEntity
  8
RACCORDO
100
AcDbLine
 62
253
  6
CONTINUOUS
 10
-314.3858250677
 20
-5.7204377248
 11
-314.3863306808
 21
-5.7206027935
  0
LINE
  5
2F2
100
AcDbEntity
  8
RACCORDO
100
AcDbLine
 62
253
  6
CONTINUOUS
 10
-314.3858293946
 20
-2.0586977563
 11
-314.3863340348
 21
-2.0585330035
  0
LINE
  5
2F3
100
AcDbEntity
  8
RACCORDO
100
AcDbLine
 62
253
  6
CONTINUOUS
 10
-314.5626006045
 20
-3.3857021194
 11
-314.5490665483
 21
-3.3885971466
  0
LWPOLYLINE
  5
2F4
100
AcDbEntity
  8
RACCORDO
100
AcDbPolyline
 62
253
  6
CONTINUOUS
 90
20
 70
0
 10
314.2167765302
 20
-3.2792782095
 10
314.2174190507
 20
-3.2791991503
 10
314.2180339192
 20
-3.2787466661
 10
314.2186214458
 20
-3.2779262746
 10
314.2191891521
 20
-3.2767826708
 10
314.2197300455
 20
-3.2752825172
 10
314.2202228874
 20
-3.2733132808
 10
314.2206706246
 20
-3.2708771836
 10
314.2210712008
 20
-3.2679811097
 10
314.2213962886
 20
-3.2645150069
 10
314.2216481149
 20
-3.2604614782
 10
314.2218253597
 20
-3.2558391477
 10
314.2218945636
 20
-3.2505817717
 10
314.2218536857
 20
-3.2446328191
 10
314.221704833
 20
-3.2380346815
 10
314.2214204282
 20
-3.2308539203
 10
314.2209891494
 20
-3.2229938295
 10
314.2204202005
 20
-3.2145188029
 10
314.2197161673
 20
-3.2057242745
 10
314.2188765143
 20
-3.1966955179
  0
LINE
  5
2F5
100
AcDbEntity
  8
RACCORDO
100
AcDbLine
 62
253
  6
CONTINUOUS
 10
314.2167765164
 20
-3.1775631716
 11
314.2173034888
 21
-3.1774991011
  0
LINE
  5
2F6
100
AcDbEntity
  8
ASSI
100
AcDbLine
 62
7
  6
CONTINUOUS
 10
-297.2296718092
 20
-54.389568447
 11
-296.7082577913
 21
-54.389568447
  0
LINE
  5
2F7
100
AcDbEntity
  8
0
100
AcDbLine
 62
7
  6
CONTINUOUS
 10
195.3263823234
 20
-54.389568447
 11
308.291385075
 21
-54.389568447
  0
LINE
  5
2F8
100
AcDbEntity
  8
0
100
AcDbLine
 62
7
  6
CONTINUOUS
 10
-195.7436121734
 20
-54.389568447
 11
-296.7082577913
 21
-54.389568447
  0
LINE
  5
2F9
100
AcDbEntity
  8
0
100
AcDbLine
 62
7
  6
CONTINUOUS
 10
-297.2296718092
 20
-54.389568447
 11
-308.708614925
 21
-54.389568447
  0
LINE
  5
2FA
100
AcDbEntity
  8
0
100
AcDbLine
 62
7
  6
CONTINUOUS
 10
189.791385075
 20
-53.889568447
 11
-190.208614925
 21
-53.889568447
  0
LINE
  5
2FB
100
AcDbEntity
  8
0
100
AcDbLine
 62
7
  6
CONTINUOUS
 10
308.291385075
 20
-51.889568447
 11
296.8124419592
 21
-51.889568447
  0
LINE
  5
2FC
100
AcDbEntity
  8
0
100
AcDbLine
 62
7
  6
CONTINUOUS
 10
296.2910279412
 20
-51.889568447
 11
285.6137155453
 21
-51.889568447
  0
LINE
  5
2FD
100
AcDbEntity
  8
0
100
AcDbLine
 62
7
  6
CONTINUOUS
 10
-286.0309453954
 20
-51.889568447
 11
-296.7082577913
 21
-51.889568447
  0
LINE
  5
2FE
100
AcDbEntity
  8
0
100
AcDbLine
 62
7
  6
CONTINUOUS
 10
-297.2296718092
 20
-51.889568447
 11
-308.708614925
 21
-51.889568447
  0
LINE
  5
2FF
100
AcDbEntity
  8
0
100
AcDbLine
 62
7
  6
CONTINUOUS
 10
-311.708614925
 20
-51.389568447
 11
-286.0309453954
 21
-51.389568447
  0
LINE
  5
300
100
AcDbEntity
  8
0
100
AcDbLine
 62
253
  6
CONTINUOUS
 10
195.3263823234
 20
-51.389568447
 11
285.6137155453
 21
-51.389568447
  0
LINE
  5
301
100
AcDbEntity
  8
0
100
AcDbLine
 62
253
  6
CONTINUOUS
 10
-195.7436121734
 20
-51.389568447
 11
-286.0309453954
 21
-51.389568447
  0
LINE
  5
302
100
AcDbEntity
  8
0
100
AcDbLine
 62
7
  6
CONTINUOUS
 10
285.6137155453
 20
-51.389568447
 11
311.291385075
 21
-51.389568447
  0
LINE
  5
303
100
AcDbEntity
  8
0
100
AcDbLine
 62
253
  6
CONTINUOUS
 10
189.791385075
 20
-49.889568447
 11
-190.208614925
 21
-49.889568447
  0
LINE
  5
304
100
AcDbEntity
  8
0
100
AcDbLine
 62
7
  6
CONTINUOUS
 10
197.3263823234
 20
-46.389568447
 11
195.3263823234
 21
-46.389568447
  0
LINE
  5
305
100
AcDbEntity
  8
0
100
AcDbLine
 62
7
  6
CONTINUOUS
 10
-195.7436121734
 20
-46.389568447
 11
-197.7436121734
 21
-46.389568447
  0
LINE
  5
306
100
AcDbEntity
  8
0
100
AcDbLine
 62
7
  6
CONTINUOUS
 10
195.3263823234
 20
-44.389568447
 11
197.3263823234
 21
-44.389568447
  0
LINE
  5
307
100
AcDbEntity
  8
0
100
AcDbLine
 62
7
  6
CONTINUOUS
 10
-195.7436121734
 20
-44.389568447
 11
-197.7436121734
 21
-44.389568447
  0
LINE
  5
308
100
AcDbEntity
  8
0
100
AcDbLine
 62
7
  6
CONTINUOUS
 10
189.791385075
 20
-43.889568447
 11
197.3263823234
 21
-43.889568447
  0
LINE
  5
309
100
AcDbEntity
  8
0
100
AcDbLine
 62
7
  6
CONTINUOUS
 10
-190.208614925
 20
-43.889568447
 11
-197.7436121734
 21
-43.889568447
  0
LINE
  5
30A
100
AcDbEntity
  8
RACCORDO
100
AcDbLine
 62
253
  6
CONTINUOUS
 10
-314.6340062828
 20
-3.1775631818
 11
-314.6345326511
 21
-3.1774992405
  0
LWPOLYLINE
  5
30B
100
AcDbEntity
  8
RACCORDO
100
AcDbPolyline
 62
253
  6
CONTINUOUS
 90
10
 70
0
 10
-314.3858294611
 20
-3.2792782095
 10
-314.3766781359
 20
-3.280797263
 10
-314.3678876802
 20
-3.2845637472
 10
-314.3594766092
 20
-3.2906185847
 10
-314.3514308338
 20
-3.2991292096
 10
-314.3437976603
 20
-3.3099999235
 10
-314.3366890372
 20
-3.3228440522
 10
-314.3301289938
 20
-3.3376588754
 10
-314.3241259281
 20
-3.3544315649
 10
-314.3187708102
 20
-3.3727064876
  0
LINE
  5
30C
100
AcDbEntity
  8
RACCORDO
100
AcDbLine
 62
253
  6
CONTINUOUS
 10
313.884949176
 20
-3.5844237667
 11
313.8916530883
 21
-3.5840536154
  0
LWPOLYLINE
  5
30D
100
AcDbEntity
  8
RACCORDO
100
AcDbPolyline
 62
7
  6
CONTINUOUS
 90
15
 70
0
 10
314.1180341497
 20
-3.3895682318
 10
314.1291171532
 20
-3.3889612371
 10
314.1416795016
 20
-3.3867746675
 10
314.1534098066
 20
-3.3832017295
 10
314.1641411686
 20
-3.3784890194
 10
314.1738515168
 20
-3.3728430445
 10
314.1826312641
 20
-3.366370923
 10
314.1904643463
 20
-3.3592134772
 10
314.197319867
 20
-3.3515358841
 10
314.2032658544
 20
-3.343393971
 10
314.2084132001
 20
-3.3347050721
 10
314.2126618233
 20
-3.3257158978
 10
314.2159089396
 20
-3.316949394
 10
314.218290804
 20
-3.3086020592
 10
314.2200330867
 20
-3.3004855283
  0
LWPOLYLINE
  5
30E
100
AcDbEntity
  8
RACCORDO
100
AcDbPolyline
 62
7
  6
CONTINUOUS
 90
11
 70
0
 10
314.1180297379
 20
-3.3895683629
 10
314.1275992142
 20
-3.3891164395
 10
314.1403315062
 20
-3.3870877905
 10
314.152237427
 20
-3.3836293432
 10
314.163141859
 20
-3.3789913686
 10
314.1730174261
 20
-3.3733857693
 10
314.1819520162
 20
-3.3669251499
 10
314.1899258135
 20
-3.3597553591
 10
314.1969060417
 20
-3.3520454344
 10
314.2029618085
 20
-3.3438528252
 10
314.2082048761
 20
-3.3350956282
  0
LINE
  5
30F
100
AcDbEntity
  8
RACCORDO
100
AcDbLine
 62
253
  6
CONTINUOUS
 10
-314.3021869617
 20
-3.5844233285
 11
-314.3088876267
 21
-3.5840532072
  0
LINE
  5
310
100
AcDbEntity
  8
RACCORDO
100
AcDbLine
 62
253
  6
CONTINUOUS
 10
-314.5490665483
 20
-3.3885971466
 11
-314.5352643713
 21
-3.389568447
  0
LWPOLYLINE
  5
311
100
AcDbEntity
  8
RACCORDO
100
AcDbPolyline
 62
253
  6
CONTINUOUS
 90
11
 70
0
 10
314.2167765302
 20
-4.4998586844
 10
314.2086901512
 20
-4.5000535596
 10
314.1995859198
 20
-4.5000287224
 10
314.18937275
 20
-4.4998586845
 10
314.1778383788
 20
-4.4999444029
 10
314.1649836483
 20
-4.5001246469
 10
314.1510853294
 20
-4.4998586854
 10
314.1362248201
 20
-4.4996441328
 10
314.1202272141
 20
-4.4998724134
 10
314.1030400151
 20
-4.4998586843
 10
314.0847041174
 20
-4.4996645208
  0
LWPOLYLINE
  5
312
100
AcDbEntity
  8
RACCORDO
100
AcDbPolyline
 62
253
  6
CONTINUOUS
 90
16
 70
0
 10
185.427397835
 20
-4.1947131272
 10
185.4150701582
 20
-4.194926282
 10
185.4023469101
 20
-4.195050009
 10
185.3894404814
 20
-4.1950822423
 10
185.3765663208
 20
-4.1950224437
 10
185.3639393385
 20
-4.1948716109
 10
185.3517703181
 20
-4.1946322615
 10
185.3402623986
 20
-4.1943083904
 10
185.3296076833
 20
-4.1939054038
 10
185.3199840327
 20
-4.193430028
 10
185.3115520956
 20
-4.1928901984
 10
185.3044526274
 20
-4.1922949257
 10
185.2988041405
 20
-4.1916541464
 10
185.2947009259
 20
-4.1909785566
 10
185.2922114791
 20
-4.1902794335
 10
185.2913773566
 20
-4.1895684472
  0
LWPOLYLINE
  5
313
100
AcDbEntity
  8
RACCORDO
100
AcDbPolyline
 62
253
  6
CONTINUOUS
 90
16
 70
0
 10
181.155372315
 20
-3.5844237667
 10
181.1676999917
 20
-3.5842106119
 10
181.1804232399
 20
-3.584086885
 10
181.1933296686
 20
-3.5840546516
 10
181.2062038291
 20
-3.5841144502
 10
181.2188308115
 20
-3.584265283
 10
181.2309998319
 20
-3.5845046324
 10
181.2425077514
 20
-3.5848285035
 10
181.2531624667
 20
-3.5852314902
 10
181.2627861173
 20
-3.5857068659
 10
181.2712180544
 20
-3.5862466956
 10
181.2783175226
 20
-3.5868419683
 10
181.2839660094
 20
-3.5874827476
 10
181.288069224
 20
-3.5881583374
 10
181.2905586709
 20
-3.5888574605
 10
181.2913927934
 20
-3.5895684468
  0
LWPOLYLINE
  5
314
100
AcDbEntity
  8
RACCORDO
100
AcDbPolyline
 62
253
  6
CONTINUOUS
 90
16
 70
0
 10
-181.572602165
 20
-4.1947131272
 10
-181.5849298418
 20
-4.194926282
 10
-181.5976530899
 20
-4.195050009
 10
-181.6105595186
 20
-4.1950822423
 10
-181.6234336792
 20
-4.1950224437
 10
-181.6360606615
 20
-4.1948716109
 10
-181.6482296819
 20
-4.1946322615
 10
-181.6597376014
 20
-4.1943083904
 10
-181.6703923167
 20
-4.1939054038
 10
-181.6800159673
 20
-4.193430028
 10
-181.6884479044
 20
-4.1928901984
 10
-181.6955473726
 20
-4.1922949257
 10
-181.7011958595
 20
-4.1916541464
 10
-181.7052990741
 20
-4.1909785566
 10
-181.7077885209
 20
-4.1902794335
 10
-181.7086226434
 20
-4.1895684472
  0
LWPOLYLINE
  5
315
100
AcDbEntity
  8
RACCORDO
100
AcDbPolyline
 62
253
  6
CONTINUOUS
 90
16
 70
0
 10
-185.844627685
 20
-3.5844237667
 10
-185.8323000083
 20
-3.5842106119
 10
-185.8195767601
 20
-3.584086885
 10
-185.8066703314
 20
-3.5840546516
 10
-185.7937961709
 20
-3.5841144502
 10
-185.7811691885
 20
-3.584265283
 10
-185.7690001681
 20
-3.5845046324
 10
-185.7574922486
 20
-3.5848285035
 10
-185.7468375333
 20
-3.5852314902
 10
-185.7372138827
 20
-3.5857068659
 10
-185.7287819456
 20
-3.5862466956
 10
-185.7216824774
 20
-3.5868419683
 10
-185.7160339906
 20
-3.5874827476
 10
-185.711930776
 20
-3.5881583374
 10
-185.7094413291
 20
-3.5888574605
 10
-185.7086072066
 20
-3.5895684468
  0
LWPOLYLINE
  5
316
100
AcDbEntity
  8
RACCORDO
100
AcDbPolyline
 62
253
  6
CONTINUOUS
 90
22
 70
0
 10
184.003390352
 20
-4.4998586844
 10
183.9980173629
 20
-4.4999377437
 10
183.9925083987
 20
-4.5003902279
 10
183.9868618128
 20
-4.5012106194
 10
183.981048803
 20
-4.5023542232
 10
183.9750935227
 20
-4.5038543767
 10
183.9690712398
 20
-4.5058236131
 10
183.9629524657
 20
-4.5082597103
 10
183.9567540435
 20
-4.5111557842
 10
183.9506152687
 20
-4.5146218871
 10
183.94449212
 20
-4.5186754157
 10
183.9384042863
 20
-4.5232977463
 10
183.932580421
 20
-4.5285551222
 10
183.926973519
 20
-4.5345040748
 10
183.9215939983
 20
-4.5411022124
 10
183.9167557409
 20
-4.5482829737
 10
183.91245405
 20
-4.5561430645
 10
183.908656938
 20
-4.564618091
 10
183.9056522968
 20
-4.5734126195
 10
183.9035392176
 20
-4.5824413761
 10
183.9022141611
 20
-4.5918239332
 10
183.9016753124
 20
-4.601573724
  0
LWPOLYLINE
  5
317
100
AcDbEntity
  8
RACCORDO
100
AcDbPolyline
 62
253
  6
CONTINUOUS
 90
22
 70
0
 10
182.5793797979
 20
-3.2792782095
 10
182.584752787
 20
-3.2791991503
 10
182.5902617513
 20
-3.2787466661
 10
182.5959083371
 20
-3.2779262746
 10
182.601721347
 20
-3.2767826708
 10
182.6076766273
 20
-3.2752825172
 10
182.6136989102
 20
-3.2733132808
 10
182.6198176843
 20
-3.2708771836
 10
182.6260161065
 20
-3.2679811097
 10
182.6321548813
 20
-3.2645150069
 10
182.63827803
 20
-3.2604614782
 10
182.6443658636
 20
-3.2558391477
 10
182.650189729
 20
-3.2505817717
 10
182.655796631
 20
-3.2446328191
 10
182.6611761516
 20
-3.2380346815
 10
182.6660144091
 20
-3.2308539203
 10
182.6703160999
 20
-3.2229938295
 10
182.674113212
 20
-3.2145188029
 10
182.6771178531
 20
-3.2057242745
 10
182.6792309324
 20
-3.1966955179
 10
182.6805559889
 20
-3.1873129608
 10
182.6810948375
 20
-3.1775631699
  0
LWPOLYLINE
  5
318
100
AcDbEntity
  8
RACCORDO
100
AcDbPolyline
 62
253
  6
CONTINUOUS
 90
22
 70
0
 10
-182.996609648
 20
-4.4998586844
 10
-183.0019826371
 20
-4.4999377437
 10
-183.0074916013
 20
-4.5003902279
 10
-183.0131381872
 20
-4.5012106194
 10
-183.018951197
 20
-4.5023542232
 10
-183.0249064773
 20
-4.5038543767
 10
-183.0309287602
 20
-4.5058236131
 10
-183.0370475343
 20
-4.5082597103
 10
-183.0432459565
 20
-4.5111557842
 10
-183.0493847313
 20
-4.5146218871
 10
-183.05550788
 20
-4.5186754157
 10
-183.0615957137
 20
-4.5232977463
 10
-183.067419579
 20
-4.5285551222
 10
-183.073026481
 20
-4.5345040748
 10
-183.0784060017
 20
-4.5411022124
 10
-183.0832442591
 20
-4.5482829737
 10
-183.08754595
 20
-4.5561430645
 10
-183.091343062
 20
-4.564618091
 10
-183.0943477032
 20
-4.5734126195
 10
-183.0964607824
 20
-4.5824413761
 10
-183.0977858389
 20
-4.5918239332
 10
-183.0983246876
 20
-4.601573724
  0
LWPOLYLINE
  5
319
100
AcDbEntity
  8
RACCORDO
100
AcDbPolyline
 62
253
  6
CONTINUOUS
 90
22
 70
0
 10
-184.4206202021
 20
-3.2792782095
 10
-184.415247213
 20
-3.2791991503
 10
-184.4097382487
 20
-3.2787466661
 10
-184.4040916629
 20
-3.2779262746
 10
-184.398278653
 20
-3.2767826708
 10
-184.3923233727
 20
-3.2752825172
 10
-184.3863010898
 20
-3.2733132808
 10
-184.3801823157
 20
-3.2708771836
 10
-184.3739838935
 20
-3.2679811097
 10
-184.3678451187
 20
-3.2645150069
 10
-184.36172197
 20
-3.2604614782
 10
-184.3556341364
 20
-3.2558391477
 10
-184.349810271
 20
-3.2505817717
 10
-184.344203369
 20
-3.2446328191
 10
-184.3388238484
 20
-3.2380346815
 10
-184.3339855909
 20
-3.2308539203
 10
-184.3296839001
 20
-3.2229938295
 10
-184.325886788
 20
-3.2145188029
 10
-184.3228821469
 20
-3.2057242745
 10
-184.3207690676
 20
-3.1966955179
 10
-184.3194440111
 20
-3.1873129608
 10
-184.3189051625
 20
-3.1775631699
  0
LWPOLYLINE
  5
31A
100
AcDbEntity
  8
RACCORDO
100
AcDbPolyline
 62
253
  6
CONTINUOUS
 90
13
 70
0
 10
183.9016748339
 20
-5.7204377248
 10
183.887744522
 20
-5.7205823343
 10
183.8738847419
 20
-5.7201243961
 10
183.8603647666
 20
-5.7190728071
 10
183.8474472678
 20
-5.7174479981
 10
183.8353832115
 20
-5.7152815367
 10
183.824406983
 20
-5.7126155138
 10
183.8147318328
 20
-5.709501726
 10
183.8065457334
 20
-5.7060006693
 10
183.8000077277
 20
-5.7021803637
 10
183.7952448387
 20
-5.6981150318
 10
183.7923496015
 20
-5.6938836564
 10
183.7913782661
 20
-5.6895684466
  0
LWPOLYLINE
  5
31B
100
AcDbEntity
  8
RACCORDO
100
AcDbPolyline
 62
253
  6
CONTINUOUS
 90
13
 70
0
 10
182.6810953161
 20
-2.0586991691
 10
182.6950256279
 20
-2.0585545596
 10
182.7088854081
 20
-2.0590124979
 10
182.7224053833
 20
-2.0600640869
 10
182.7353228822
 20
-2.0616888958
 10
182.7473869385
 20
-2.0638553572
 10
182.758363167
 20
-2.0665213801
 10
182.7680383172
 20
-2.0696351679
 10
182.7762244165
 20
-2.0731362246
 10
182.7827624222
 20
-2.0769565302
 10
182.7875253113
 20
-2.0810218622
 10
182.7904205484
 20
-2.0852532375
 10
182.7913918839
 20
-2.0895684474
  0
LWPOLYLINE
  5
31C
100
AcDbEntity
  8
RACCORDO
100
AcDbPolyline
 62
253
  6
CONTINUOUS
 90
13
 70
0
 10
-183.0983251661
 20
-5.7204377248
 10
-183.112255478
 20
-5.7205823343
 10
-183.1261152581
 20
-5.7201243961
 10
-183.1396352334
 20
-5.7190728071
 10
-183.1525527322
 20
-5.7174479981
 10
-183.1646167885
 20
-5.7152815367
 10
-183.175593017
 20
-5.7126155138
 10
-183.1852681672
 20
-5.709501726
 10
-183.1934542666
 20
-5.7060006693
 10
-183.1999922723
 20
-5.7021803637
 10
-183.2047551613
 20
-5.6981150318
 10
-183.2076503985
 20
-5.6938836564
 10
-183.2086217339
 20
-5.6895684466
  0
LWPOLYLINE
  5
31D
100
AcDbEntity
  8
RACCORDO
100
AcDbPolyline
 62
253
  6
CONTINUOUS
 90
13
 70
0
 10
-184.3189046839
 20
-2.0586991691
 10
-184.3049743721
 20
-2.0585545596
 10
-184.2911145919
 20
-2.0590124979
 10
-184.2775946167
 20
-2.0600640869
 10
-184.2646771178
 20
-2.0616888958
 10
-184.2526130615
 20
-2.0638553572
 10
-184.241636833
 20
-2.0665213801
 10
-184.2319616828
 20
-2.0696351679
 10
-184.2237755835
 20
-2.0731362246
 10
-184.2172375778
 20
-2.0769565302
 10
-184.2124746887
 20
-2.0810218622
 10
-184.2095794516
 20
-2.0852532375
 10
-184.2086081161
 20
-2.0895684474
  0
LWPOLYLINE
  5
31E
100
AcDbEntity
  8
RACCORDO
100
AcDbPolyline
 62
253
  6
CONTINUOUS
 90
13
 70
0
 10
183.901675311
 20
-4.6015737223
 10
183.8877453541
 20
-4.6016297958
 10
183.8738861022
 20
-4.601451566
 10
183.8603667846
 20
-4.6010424951
 10
183.8474500268
 20
-4.6004105299
 10
183.8353867494
 20
-4.5995679468
 10
183.8244112929
 20
-4.5985311138
 10
183.814736866
 20
-4.5973201724
 10
183.8065514037
 20
-4.5959586463
 10
183.8000139166
 20
-4.5944729845
 10
183.7952514014
 20
-4.5928920475
 10
183.7923563747
 20
-4.5912465466
 10
183.791385075
 20
-4.589568447
  0
LWPOLYLINE
  5
31F
100
AcDbEntity
  8
RACCORDO
100
AcDbPolyline
 62
253
  6
CONTINUOUS
 90
13
 70
0
 10
182.681094839
 20
-3.1775631716
 10
182.6950247959
 20
-3.1775070982
 10
182.7088840478
 20
-3.177685328
 10
182.7224033654
 20
-3.1780943988
 10
182.7353201231
 20
-3.178726364
 10
182.7473834006
 20
-3.1795689471
 10
182.7583588571
 20
-3.1806057801
 10
182.768033284
 20
-3.1818167215
 10
182.7762187462
 20
-3.1831782477
 10
182.7827562334
 20
-3.1846639094
 10
182.7875187485
 20
-3.1862448464
 10
182.7904137753
 20
-3.1878903474
 10
182.791385075
 20
-3.189568447
  0
LWPOLYLINE
  5
320
100
AcDbEntity
  8
RACCORDO
100
AcDbPolyline
 62
253
  6
CONTINUOUS
 90
13
 70
0
 10
-183.098324689
 20
-4.6015737223
 10
-183.1122546459
 20
-4.6016297958
 10
-183.1261138978
 20
-4.601451566
 10
-183.1396332154
 20
-4.6010424951
 10
-183.1525499732
 20
-4.6004105299
 10
-183.1646132506
 20
-4.5995679468
 10
-183.1755887071
 20
-4.5985311138
 10
-183.185263134
 20
-4.5973201724
 10
-183.1934485963
 20
-4.5959586463
 10
-183.1999860834
 20
-4.5944729845
 10
-183.2047485986
 20
-4.5928920475
 10
-183.2076436253
 20
-4.5912465466
 10
-183.208614925
 20
-4.589568447
  0
LWPOLYLINE
  5
321
100
AcDbEntity
  8
RACCORDO
100
AcDbPolyline
 62
253
  6
CONTINUOUS
 90
13
 70
0
 10
-184.318905161
 20
-3.1775631716
 10
-184.3049752041
 20
-3.1775070982
 10
-184.2911159522
 20
-3.177685328
 10
-184.2775966346
 20
-3.1780943988
 10
-184.2646798769
 20
-3.178726364
 10
-184.2526165994
 20
-3.1795689471
 10
-184.2416411429
 20
-3.1806057801
 10
-184.231966716
 20
-3.1818167215
 10
-184.2237812538
 20
-3.1831782477
 10
-184.2172437666
 20
-3.1846639094
 10
-184.2124812515
 20
-3.1862448464
 10
-184.2095862247
 20
-3.1878903474
 10
-184.208614925
 20
-3.189568447
  0
LWPOLYLINE
  5
322
100
AcDbEntity
  8
RACCORDO
100
AcDbPolyline
 62
253
  6
CONTINUOUS
 90
5
 70
0
 10
314.0847041174
 20
-4.4996645208
 10
314.0437872129
 20
-4.4998586831
 10
314.0206298292
 20
-4.4997024216
 10
313.9956020437
 20
-4.4996566309
 10
313.9685996111
 20
-4.4998586844
  0
LINE
  5
323
100
AcDbEntity
  8
RACCORDO
100
AcDbLine
 62
253
  6
CONTINUOUS
 10
-314.3021869667
 20
-6.0255842781
 11
-314.3105981386
 21
-6.0256101269
  0
LINE
  5
324
100
AcDbEntity
  8
RACCORDO
100
AcDbLine
 62
253
  6
CONTINUOUS
 10
313.8849571166
 20
-1.7535526158
 11
313.8933682885
 21
-1.7535267671
  0
LWPOLYLINE
  5
325
100
AcDbEntity
  8
RACCORDO
100
AcDbPolyline
 62
253
  6
CONTINUOUS
 90
5
 70
0
 10
-314.5019339675
 20
-3.2794723732
 10
-314.4610170629
 20
-3.2792782109
 10
-314.4378596793
 20
-3.2794344724
 10
-314.4128318937
 20
-3.2794802631
 10
-314.3858294611
 20
-3.2792782095
  0
LWPOLYLINE
  5
326
100
AcDbEntity
  8
RACCORDO
100
AcDbPolyline
 62
253
  6
CONTINUOUS
 90
3
 70
0
 10
184.2054784339
 20
-4.4998586843
 10
184.0684036545
 20
-4.500102116
 10
184.003390352
 20
-4.4998586844
  0
LWPOLYLINE
  5
327
100
AcDbEntity
  8
RACCORDO
100
AcDbPolyline
 62
253
  6
CONTINUOUS
 90
3
 70
0
 10
-182.7945215661
 20
-4.4998586843
 10
-182.9315963455
 20
-4.500102116
 10
-182.996609648
 20
-4.4998586844
  0
LWPOLYLINE
  5
328
100
AcDbEntity
  8
RACCORDO
100
AcDbPolyline
 62
253
  6
CONTINUOUS
 90
3
 70
0
 10
182.3772917161
 20
-3.2792782096
 10
182.5143664955
 20
-3.279034778
 10
182.5793797979
 20
-3.2792782095
  0
LWPOLYLINE
  5
329
100
AcDbEntity
  8
RACCORDO
100
AcDbPolyline
 62
253
  6
CONTINUOUS
 90
3
 70
0
 10
-184.6227082839
 20
-3.2792782096
 10
-184.4856335045
 20
-3.279034778
 10
-184.4206202021
 20
-3.2792782095
  0
LINE
  5
32A
100
AcDbEntity
  8
RACCORDO
100
AcDbLine
 62
253
  6
CONTINUOUS
 10
183.5965301937
 20
-6.0255842781
 11
182.9862399562
 21
-6.0255842781
  0
LINE
  5
32B
100
AcDbEntity
  8
RACCORDO
100
AcDbLine
 62
253
  6
CONTINUOUS
 10
-183.4034698063
 20
-6.0255842781
 11
-184.0137600438
 21
-6.0255842781
  0
LINE
  5
32C
100
AcDbEntity
  8
RACCORDO
100
AcDbLine
 62
7
  6
CONTINUOUS
 10
183.591385075
 20
-5.889568447
 11
182.991385075
 21
-5.889568447
  0
LINE
  5
32D
100
AcDbEntity
  8
RACCORDO
100
AcDbLine
 62
7
  6
CONTINUOUS
 10
-183.408614925
 20
-5.889568447
 11
-184.008614925
 21
-5.889568447
  0
LINE
  5
32E
100
AcDbEntity
  8
RACCORDO
100
AcDbLine
 62
7
  6
CONTINUOUS
 10
314.1180345212
 20
-4.389568447
 11
313.9101285575
 21
-4.389568447
  0
LINE
  5
32F
100
AcDbEntity
  8
RACCORDO
100
AcDbLine
 62
7
  6
CONTINUOUS
 10
185.091385075
 20
-4.389568447
 11
183.991385075
 21
-4.389568447
  0
LINE
  5
330
100
AcDbEntity
  8
RACCORDO
100
AcDbLine
 62
7
  6
CONTINUOUS
 10
182.591385075
 20
-4.389568447
 11
181.491385075
 21
-4.389568447
  0
LINE
  5
331
100
AcDbEntity
  8
RACCORDO
100
AcDbLine
 62
7
  6
CONTINUOUS
 10
-181.908614925
 20
-4.389568447
 11
-183.008614925
 21
-4.389568447
  0
LINE
  5
332
100
AcDbEntity
  8
RACCORDO
100
AcDbLine
 62
7
  6
CONTINUOUS
 10
-184.408614925
 20
-4.389568447
 11
-185.508614925
 21
-4.389568447
  0
LINE
  5
333
100
AcDbEntity
  8
RACCORDO
100
AcDbLine
 62
7
  6
CONTINUOUS
 10
-314.3273489272
 20
-4.389568447
 11
-314.5352643713
 21
-4.389568447
  0
LINE
  5
334
100
AcDbEntity
  8
RACCORDO
100
AcDbLine
 62
7
  6
CONTINUOUS
 10
-314.5352643713
 20
-3.389568447
 11
-314.3273584076
 21
-3.389568447
  0
LINE
  5
335
100
AcDbEntity
  8
RACCORDO
100
AcDbLine
 62
7
  6
CONTINUOUS
 10
-185.508614925
 20
-3.389568447
 11
-184.408614925
 21
-3.389568447
  0
LINE
  5
336
100
AcDbEntity
  8
RACCORDO
100
AcDbLine
 62
7
  6
CONTINUOUS
 10
-183.008614925
 20
-3.389568447
 11
-181.908614925
 21
-3.389568447
  0
LINE
  5
337
100
AcDbEntity
  8
RACCORDO
100
AcDbLine
 62
7
  6
CONTINUOUS
 10
181.491385075
 20
-3.389568447
 11
182.591385075
 21
-3.389568447
  0
LINE
  5
338
100
AcDbEntity
  8
RACCORDO
100
AcDbLine
 62
7
  6
CONTINUOUS
 10
183.991385075
 20
-3.389568447
 11
185.091385075
 21
-3.389568447
  0
LINE
  5
339
100
AcDbEntity
  8
RACCORDO
100
AcDbLine
 62
7
  6
CONTINUOUS
 10
313.9101190771
 20
-3.389568447
 11
314.1180345212
 21
-3.389568447
  0
LINE
  5
33A
100
AcDbEntity
  8
RACCORDO
100
AcDbLine
 62
7
  6
CONTINUOUS
 10
-184.008614925
 20
-1.889568447
 11
-183.408614925
 21
-1.889568447
  0
LINE
  5
33B
100
AcDbEntity
  8
RACCORDO
100
AcDbLine
 62
7
  6
CONTINUOUS
 10
182.991385075
 20
-1.889568447
 11
183.591385075
 21
-1.889568447
  0
LINE
  5
33C
100
AcDbEntity
  8
RACCORDO
100
AcDbLine
 62
253
  6
CONTINUOUS
 10
-184.0137600438
 20
-1.7535526158
 11
-183.4034698063
 21
-1.7535526158
  0
LINE
  5
33D
100
AcDbEntity
  8
RACCORDO
100
AcDbLine
 62
253
  6
CONTINUOUS
 10
182.9862399562
 20
-1.7535526158
 11
183.5965301937
 21
-1.7535526158
  0
LWPOLYLINE
  5
33E
100
AcDbEntity
  8
RACCORDO
100
AcDbPolyline
 62
253
  6
CONTINUOUS
 90
3
 70
0
 10
-184.9103521194
 20
-4.4996441328
 10
-185.0599602313
 20
-4.4998586843
 10
-185.1357168449
 20
-4.4996645208
  0
LWPOLYLINE
  5
33F
100
AcDbEntity
  8
RACCORDO
100
AcDbPolyline
 62
253
  6
CONTINUOUS
 90
4
 70
0
 10
-182.2739779972
 20
-4.4996384733
 10
-182.4234249702
 20
-4.4998506758
 10
-182.4975454803
 20
-4.4995825684
 10
-182.6468830176
 20
-4.5001875947
  0
LWPOLYLINE
  5
340
100
AcDbEntity
  8
RACCORDO
100
AcDbPolyline
 62
253
  6
CONTINUOUS
 90
4
 70
0
 10
184.7260220028
 20
-4.4996384733
 10
184.5765750298
 20
-4.4998506758
 10
184.5024545197
 20
-4.4995825684
 10
184.3531169824
 20
-4.5001875947
  0
LWPOLYLINE
  5
341
100
AcDbEntity
  8
RACCORDO
100
AcDbPolyline
 62
253
  6
CONTINUOUS
 90
3
 70
0
 10
182.0896478806
 20
-4.4996441328
 10
181.9400397687
 20
-4.4998586843
 10
181.8642831551
 20
-4.4996645208
  0
LWPOLYLINE
  5
342
100
AcDbEntity
  8
RACCORDO
100
AcDbPolyline
 62
253
  6
CONTINUOUS
 90
3
 70
0
 10
-182.5068777306
 20
-3.2794927611
 10
-182.3572696187
 20
-3.2792782096
 10
-182.2815130052
 20
-3.2794723732
  0
LWPOLYLINE
  5
343
100
AcDbEntity
  8
RACCORDO
100
AcDbPolyline
 62
253
  6
CONTINUOUS
 90
4
 70
0
 10
-185.1432518529
 20
-3.2794984207
 10
-184.9938048798
 20
-3.2792862182
 10
-184.9196843697
 20
-3.2795543255
 10
-184.7703468324
 20
-3.2789492992
  0
LWPOLYLINE
  5
344
100
AcDbEntity
  8
RACCORDO
100
AcDbPolyline
 62
253
  6
CONTINUOUS
 90
4
 70
0
 10
181.8567481471
 20
-3.2794984207
 10
182.0061951202
 20
-3.2792862182
 10
182.0803156303
 20
-3.2795543255
 10
182.2296531676
 20
-3.2789492992
  0
LWPOLYLINE
  5
345
100
AcDbEntity
  8
RACCORDO
100
AcDbPolyline
 62
253
  6
CONTINUOUS
 90
3
 70
0
 10
184.4931222694
 20
-3.2794927611
 10
184.6427303813
 20
-3.2792782096
 10
184.7184869948
 20
-3.2794723732
  0
LWPOLYLINE
  5
346
100
AcDbEntity
  8
RACCORDO
100
AcDbPolyline
 62
253
  6
CONTINUOUS
 90
4
 70
0
 10
-184.4206202021
 20
-4.4998586844
 10
-184.5499177106
 20
-4.5000287224
 10
-184.6180996294
 20
-4.4998586845
 10
-184.762445647
 20
-4.5001246469
  0
LWPOLYLINE
  5
347
100
AcDbEntity
  8
RACCORDO
100
AcDbPolyline
 62
253
  6
CONTINUOUS
 90
4
 70
0
 10
182.5793797979
 20
-4.4998586844
 10
182.4500822894
 20
-4.5000287224
 10
182.3819003706
 20
-4.4998586845
 10
182.237554353
 20
-4.5001246469
  0
LWPOLYLINE
  5
348
100
AcDbEntity
  8
RACCORDO
100
AcDbPolyline
 62
253
  6
CONTINUOUS
 90
4
 70
0
 10
-182.996609648
 20
-3.2792782095
 10
-182.8673121395
 20
-3.2791081716
 10
-182.7991302206
 20
-3.2792782094
 10
-182.654784203
 20
-3.279012247
  0
LWPOLYLINE
  5
349
100
AcDbEntity
  8
RACCORDO
100
AcDbPolyline
 62
253
  6
CONTINUOUS
 90
4
 70
0
 10
184.003390352
 20
-3.2792782095
 10
184.1326878605
 20
-3.2791081716
 10
184.2008697794
 20
-3.2792782094
 10
184.345215797
 20
-3.279012247
  0
LINE
  5
34A
100
AcDbEntity
  8
RACCORDO
100
AcDbLine
 62
253
  6
CONTINUOUS
 10
-185.1357168449
 20
-4.4996645208
 11
-185.5394856374
 21
-4.4998586844
  0
LINE
  5
34B
100
AcDbEntity
  8
RACCORDO
100
AcDbLine
 62
253
  6
CONTINUOUS
 10
181.8642831551
 20
-4.4996645208
 11
181.4605143626
 21
-4.4998586844
  0
LINE
  5
34C
100
AcDbEntity
  8
RACCORDO
100
AcDbLine
 62
253
  6
CONTINUOUS
 10
-182.2815130052
 20
-3.2794723732
 11
-181.8777442126
 21
-3.2792782095
  0
LINE
  5
34D
100
AcDbEntity
  8
RACCORDO
100
AcDbLine
 62
253
  6
CONTINUOUS
 10
184.7184869948
 20
-3.2794723732
 11
185.1222557874
 21
-3.2792782095
  0
LINE
  5
34E
100
AcDbEntity
  8
RACCORDO
100
AcDbLine
 62
253
  6
CONTINUOUS
 10
-181.8777442126
 20
-4.4998586844
 11
-182.2739779972
 21
-4.4996384733
  0
LINE
  5
34F
100
AcDbEntity
  8
RACCORDO
100
AcDbLine
 62
253
  6
CONTINUOUS
 10
185.1222557874
 20
-4.4998586844
 11
184.7260220028
 21
-4.4996384733
  0
LINE
  5
350
100
AcDbEntity
  8
RACCORDO
100
AcDbLine
 62
253
  6
CONTINUOUS
 10
-185.5394856374
 20
-3.2792782095
 11
-185.1432518529
 21
-3.2794984207
  0
LINE
  5
351
100
AcDbEntity
  8
RACCORDO
100
AcDbLine
 62
253
  6
CONTINUOUS
 10
181.4605143626
 20
-3.2792782095
 11
181.8567481471
 21
-3.2794984207
  0
LINE
  5
352
100
AcDbEntity
  8
RACCORDO
100
AcDbLine
 62
253
  6
CONTINUOUS
 10
-182.6468830176
 20
-4.5001875947
 11
-182.7945215661
 21
-4.4998586843
  0
LINE
  5
353
100
AcDbEntity
  8
RACCORDO
100
AcDbLine
 62
253
  6
CONTINUOUS
 10
184.3531169824
 20
-4.5001875947
 11
184.2054784339
 21
-4.4998586843
  0
LINE
  5
354
100
AcDbEntity
  8
RACCORDO
100
AcDbLine
 62
253
  6
CONTINUOUS
 10
-184.7703468324
 20
-3.2789492992
 11
-184.6227082839
 21
-3.2792782096
  0
LINE
  5
355
100
AcDbEntity
  8
RACCORDO
100
AcDbLine
 62
253
  6
CONTINUOUS
 10
182.2296531676
 20
-3.2789492992
 11
182.3772917161
 21
-3.2792782096
  0
LINE
  5
356
100
AcDbEntity
  8
RACCORDO
100
AcDbLine
 62
253
  6
CONTINUOUS
 10
313.8933682885
 20
-6.0256101269
 11
313.8849571166
 21
-6.0255842781
  0
LINE
  5
357
100
AcDbEntity
  8
RACCORDO
100
AcDbLine
 62
253
  6
CONTINUOUS
 10
-314.3105981386
 20
-1.7535267671
 11
-314.3021869667
 21
-1.7535526158
  0
LINE
  5
358
100
AcDbEntity
  8
RACCORDO
100
AcDbLine
 62
253
  6
CONTINUOUS
 10
-184.762445647
 20
-4.5001246469
 11
-184.9103521194
 21
-4.4996441328
  0
LINE
  5
359
100
AcDbEntity
  8
RACCORDO
100
AcDbLine
 62
253
  6
CONTINUOUS
 10
-182.654784203
 20
-3.279012247
 11
-182.5068777306
 21
-3.2794927611
  0
LINE
  5
35A
100
AcDbEntity
  8
RACCORDO
100
AcDbLine
 62
253
  6
CONTINUOUS
 10
182.237554353
 20
-4.5001246469
 11
182.0896478806
 21
-4.4996441328
  0
LINE
  5
35B
100
AcDbEntity
  8
RACCORDO
100
AcDbLine
 62
253
  6
CONTINUOUS
 10
184.345215797
 20
-3.279012247
 11
184.4931222694
 21
-3.2794927611
  0
LWPOLYLINE
  5
35C
100
AcDbEntity
  8
RACCORDO
100
AcDbPolyline
 62
253
  6
CONTINUOUS
 90
13
 70
0
 10
-184.3189051523
 20
-4.6015737122
 10
-184.3049762828
 20
-4.6016296144
 10
-184.2911181992
 20
-4.6014512438
 10
-184.2776000867
 20
-4.6010420654
 10
-184.2646845269
 20
-4.6004100276
 10
-184.2526223967
 20
-4.5995674072
 10
-184.2416479962
 20
-4.5985305716
 10
-184.2319744966
 20
-4.5973196605
 10
-184.2237898
 20
-4.5959581946
 10
-184.2172528894
 20
-4.5944726192
 10
-184.2124907405
 20
-4.59289179
 10
-184.2095958551
 20
-4.5912464131
 10
-184.2086244649
 20
-4.5895684484
  0
LWPOLYLINE
  5
35D
100
AcDbEntity
  8
RACCORDO
100
AcDbPolyline
 62
253
  6
CONTINUOUS
 90
13
 70
0
 10
-183.0983246977
 20
-3.1775631818
 10
-183.1122535672
 20
-3.1775072795
 10
-183.1261116508
 20
-3.1776856502
 10
-183.1396297633
 20
-3.1780948285
 10
-183.1525453232
 20
-3.1787268664
 10
-183.1646074533
 20
-3.1795694867
 10
-183.1755818538
 20
-3.1806063223
 10
-183.1852553534
 20
-3.1818172335
 10
-183.19344005
 20
-3.1831786993
 10
-183.1999769606
 20
-3.1846642748
 10
-183.2047391096
 20
-3.186245104
 10
-183.2076339949
 20
-3.1878904808
 10
-183.2086053851
 20
-3.1895684455
  0
LWPOLYLINE
  5
35E
100
AcDbEntity
  8
RACCORDO
100
AcDbPolyline
 62
253
  6
CONTINUOUS
 90
13
 70
0
 10
182.6810948477
 20
-4.6015737122
 10
182.6950237172
 20
-4.6016296144
 10
182.7088818008
 20
-4.6014512438
 10
182.7223999133
 20
-4.6010420654
 10
182.7353154731
 20
-4.6004100276
 10
182.7473776033
 20
-4.5995674072
 10
182.7583520038
 20
-4.5985305716
 10
182.7680255034
 20
-4.5973196605
 10
182.7762102
 20
-4.5959581946
 10
182.7827471106
 20
-4.5944726192
 10
182.7875092595
 20
-4.59289179
 10
182.7904041449
 20
-4.5912464131
 10
182.7913755351
 20
-4.5895684484
  0
LWPOLYLINE
  5
35F
100
AcDbEntity
  8
RACCORDO
100
AcDbPolyline
 62
253
  6
CONTINUOUS
 90
13
 70
0
 10
183.9016753023
 20
-3.1775631818
 10
183.8877464328
 20
-3.1775072795
 10
183.8738883492
 20
-3.1776856502
 10
183.8603702367
 20
-3.1780948285
 10
183.8474546768
 20
-3.1787268664
 10
183.8353925467
 20
-3.1795694867
 10
183.8244181462
 20
-3.1806063223
 10
183.8147446466
 20
-3.1818172335
 10
183.80655995
 20
-3.1831786993
 10
183.8000230394
 20
-3.1846642748
 10
183.7952608904
 20
-3.186245104
 10
183.7923660051
 20
-3.1878904808
 10
183.7913946149
 20
-3.1895684455
  0
LWPOLYLINE
  5
360
100
AcDbEntity
  8
RACCORDO
100
AcDbPolyline
 62
253
  6
CONTINUOUS
 90
12
 70
0
 10
-314.4596850517
 20
-4.4998586823
 10
-314.5000528835
 20
-4.4996384733
 10
-314.5182642695
 20
-4.4998586851
 10
-314.53543773
 20
-4.4998506758
 10
-314.551511535
 20
-4.4995825684
 10
-314.5665531546
 20
-4.4998586845
 10
-314.5807667933
 20
-4.5001875947
 10
-314.5940058444
 20
-4.4999675232
 10
-314.6058816264
 20
-4.4998586843
 10
-314.6163662875
 20
-4.5000687272
 10
-314.6257097859
 20
-4.500102116
 10
-314.6340063802
 20
-4.4998586844
  0
LWPOLYLINE
  5
361
100
AcDbEntity
  8
RACCORDO
100
AcDbPolyline
 62
253
  6
CONTINUOUS
 90
12
 70
0
 10
314.0424552017
 20
-3.2792782117
 10
314.0828230335
 20
-3.2794984207
 10
314.1010344195
 20
-3.2792782088
 10
314.11820788
 20
-3.2792862182
 10
314.1342816849
 20
-3.2795543255
 10
314.1493233045
 20
-3.2792782095
 10
314.1635369433
 20
-3.2789492992
 10
314.1767759943
 20
-3.2791693707
 10
314.1886517763
 20
-3.2792782096
 10
314.1991364375
 20
-3.2790681668
 10
314.2084799359
 20
-3.279034778
 10
314.2167765302
 20
-3.2792782095
  0
LWPOLYLINE
  5
362
100
AcDbEntity
  8
RACCORDO
100
AcDbPolyline
 62
253
  6
CONTINUOUS
 90
4
 70
0
 10
-314.3858294611
 20
-4.4998586844
 10
-314.4123028375
 20
-4.4996617658
 10
-314.4368890949
 20
-4.4997060728
 10
-314.4596850517
 20
-4.4998586823
  0
LWPOLYLINE
  5
363
100
AcDbEntity
  8
RACCORDO
100
AcDbPolyline
 62
253
  6
CONTINUOUS
 90
4
 70
0
 10
313.9685996111
 20
-3.2792782095
 10
313.9950729875
 20
-3.2794751281
 10
314.0196592449
 20
-3.2794308211
 10
314.0424552017
 20
-3.2792782117
  0
LWPOLYLINE
  5
364
100
AcDbEntity
  8
RACCORDO
100
AcDbPolyline
 62
253
  6
CONTINUOUS
 90
13
 70
0
 10
-184.3189051553
 20
-5.7204391377
 10
-184.3049752034
 20
-5.7205833264
 10
-184.2911159566
 20
-5.7201250215
 10
-184.2775966437
 20
-5.719073126
 10
-184.2646798901
 20
-5.7174480739
 10
-184.2526166159
 20
-5.7152814335
 10
-184.2416411616
 20
-5.7126152937
 10
-184.2319667355
 20
-5.7095014469
 10
-184.2237812726
 20
-5.7060003824
 10
-184.2172437831
 20
-5.7021801116
 10
-184.2124812641
 20
-5.6981148468
 10
-184.2095862318
 20
-5.6938835597
 10
-184.208614925
 20
-5.689568447
  0
LWPOLYLINE
  5
365
100
AcDbEntity
  8
RACCORDO
100
AcDbPolyline
 62
253
  6
CONTINUOUS
 90
13
 70
0
 10
-183.0983246948
 20
-2.0586977563
 10
-183.1122546466
 20
-2.0585535676
 10
-183.1261138935
 20
-2.0590118725
 10
-183.1396332063
 20
-2.060063768
 10
-183.1525499599
 20
-2.06168882
 10
-183.1646132341
 20
-2.0638554605
 10
-183.1755886885
 20
-2.0665216002
 10
-183.1852631145
 20
-2.069635447
 10
-183.1934485775
 20
-2.0731365115
 10
-183.1999860669
 20
-2.0769567823
 10
-183.204748586
 20
-2.0810220471
 10
-183.2076436182
 20
-2.0852533342
 10
-183.208614925
 20
-2.089568447
  0
LWPOLYLINE
  5
366
100
AcDbEntity
  8
RACCORDO
100
AcDbPolyline
 62
253
  6
CONTINUOUS
 90
13
 70
0
 10
182.6810948447
 20
-5.7204391377
 10
182.6950247966
 20
-5.7205833264
 10
182.7088840434
 20
-5.7201250215
 10
182.7224033563
 20
-5.719073126
 10
182.7353201099
 20
-5.7174480739
 10
182.7473833841
 20
-5.7152814335
 10
182.7583588384
 20
-5.7126152937
 10
182.7680332645
 20
-5.7095014469
 10
182.7762187274
 20
-5.7060003824
 10
182.7827562169
 20
-5.7021801116
 10
182.7875187359
 20
-5.6981148468
 10
182.7904137682
 20
-5.6938835597
 10
182.791385075
 20
-5.689568447
  0
LWPOLYLINE
  5
367
100
AcDbEntity
  8
RACCORDO
100
AcDbPolyline
 62
253
  6
CONTINUOUS
 90
13
 70
0
 10
183.9016753052
 20
-2.0586977563
 10
183.8877453534
 20
-2.0585535676
 10
183.8738861065
 20
-2.0590118725
 10
183.8603667937
 20
-2.060063768
 10
183.8474500401
 20
-2.06168882
 10
183.8353867659
 20
-2.0638554605
 10
183.8244113115
 20
-2.0665216002
 10
183.8147368855
 20
-2.069635447
 10
183.8065514225
 20
-2.0731365115
 10
183.8000139331
 20
-2.0769567823
 10
183.795251414
 20
-2.0810220471
 10
183.7923563818
 20
-2.0852533342
 10
183.791385075
 20
-2.089568447
  0
LWPOLYLINE
  5
368
100
AcDbEntity
  8
RACCORDO
100
AcDbPolyline
 62
253
  6
CONTINUOUS
 90
16
 70
0
 10
-185.8446307542
 20
-4.1947135654
 10
-185.8323031313
 20
-4.1949267142
 10
-185.8195801372
 20
-4.19505043
 10
-185.8066741267
 20
-4.1950826479
 10
-185.7938005095
 20
-4.1950228303
 10
-185.7811741542
 20
-4.1948719755
 10
-185.7690058029
 20
-4.1946326015
 10
-185.7574985529
 20
-4.1943087036
 10
-185.7468444677
 20
-4.1939056879
 10
-185.7372213706
 20
-4.193430281
 10
-185.7287898772
 20
-4.1928904176
 10
-185.7216907146
 20
-4.1922951085
 10
-185.7160423723
 20
-4.1916542895
 10
-185.7119391246
 20
-4.1909786563
 10
-185.7094494575
 20
-4.1902794855
 10
-185.708614925
 20
-4.189568447
  0
LWPOLYLINE
  5
369
100
AcDbEntity
  8
RACCORDO
100
AcDbPolyline
 62
253
  6
CONTINUOUS
 90
16
 70
0
 10
-181.5725990958
 20
-3.5844233285
 10
-181.5849267187
 20
-3.5842101798
 10
-181.5976497129
 20
-3.584086464
 10
-181.6105557233
 20
-3.584054246
 10
-181.6234293406
 20
-3.5841140636
 10
-181.6360556958
 20
-3.5842649185
 10
-181.6482240472
 20
-3.5845042925
 10
-181.6597312971
 20
-3.5848281903
 10
-181.6703853824
 20
-3.585231206
 10
-181.6800084795
 20
-3.585706613
 10
-181.6884399728
 20
-3.5862464763
 10
-181.6955391354
 20
-3.5868417854
 10
-181.7011874778
 20
-3.5874826044
 10
-181.7052907254
 20
-3.5881582377
 10
-181.7077803925
 20
-3.5888574084
 10
-181.708614925
 20
-3.589568447
  0
LWPOLYLINE
  5
36A
100
AcDbEntity
  8
RACCORDO
100
AcDbPolyline
 62
253
  6
CONTINUOUS
 90
16
 70
0
 10
181.1553692458
 20
-4.1947135654
 10
181.1676968687
 20
-4.1949267142
 10
181.1804198628
 20
-4.19505043
 10
181.1933258733
 20
-4.1950826479
 10
181.2061994905
 20
-4.1950228303
 10
181.2188258458
 20
-4.1948719755
 10
181.2309941971
 20
-4.1946326015
 10
181.2425014471
 20
-4.1943087036
 10
181.2531555323
 20
-4.1939056879
 10
181.2627786294
 20
-4.193430281
 10
181.2712101228
 20
-4.1928904176
 10
181.2783092854
 20
-4.1922951085
 10
181.2839576277
 20
-4.1916542895
 10
181.2880608754
 20
-4.1909786563
 10
181.2905505425
 20
-4.1902794855
 10
181.291385075
 20
-4.189568447
  0
LWPOLYLINE
  5
36B
100
AcDbEntity
  8
RACCORDO
100
AcDbPolyline
 62
253
  6
CONTINUOUS
 90
16
 70
0
 10
185.4274009042
 20
-3.5844233285
 10
185.4150732813
 20
-3.5842101798
 10
185.4023502871
 20
-3.584086464
 10
185.3894442767
 20
-3.584054246
 10
185.3765706594
 20
-3.5841140636
 10
185.3639443042
 20
-3.5842649185
 10
185.3517759528
 20
-3.5845042925
 10
185.3402687029
 20
-3.5848281903
 10
185.3296146176
 20
-3.585231206
 10
185.3199915205
 20
-3.585706613
 10
185.3115600272
 20
-3.5862464763
 10
185.3044608646
 20
-3.5868417854
 10
185.2988125222
 20
-3.5874826044
 10
185.2947092746
 20
-3.5881582377
 10
185.2922196075
 20
-3.5888574084
 10
185.291385075
 20
-3.589568447
  0
LWPOLYLINE
  5
36C
100
AcDbEntity
  8
RACCORDO
100
AcDbPolyline
 62
253
  6
CONTINUOUS
 90
19
 70
0
 10
-184.0137600438
 20
-6.0255842781
 10
-184.039746379
 20
-6.0244722371
 10
-184.0653674046
 20
-6.0211936005
 10
-184.0905530111
 20
-6.0157622486
 10
-184.1153450302
 20
-6.0081598707
 10
-184.1395618175
 20
-5.9984323977
 10
-184.1628047775
 20
-5.9867027086
 10
-184.1850065982
 20
-5.9729876425
 10
-184.2061160496
 20
-5.9573259643
 10
-184.2257778286
 20
-5.9398940626
 10
-184.2439821325
 20
-5.9206780883
 10
-184.2606570379
 20
-5.8997602875
 10
-184.2753888303
 20
-5.8774779575
 10
-184.2881742784
 20
-5.8538675197
 10
-184.299001846
 20
-5.8289637988
 10
-184.307494037
 20
-5.8031119559
 10
-184.3135549311
 20
-5.7764465682
 10
-184.3173458617
 20
-5.7488842184
 10
-184.3189051625
 20
-5.7204391594
  0
LWPOLYLINE
  5
36D
100
AcDbEntity
  8
RACCORDO
100
AcDbPolyline
 62
253
  6
CONTINUOUS
 90
19
 70
0
 10
-183.4034698063
 20
-1.7535526158
 10
-183.377483471
 20
-1.7546646569
 10
-183.3518624454
 20
-1.7579432935
 10
-183.3266768389
 20
-1.7633746454
 10
-183.3018848199
 20
-1.7709770233
 10
-183.2776680325
 20
-1.7807044963
 10
-183.2544250725
 20
-1.7924341854
 10
-183.2322232518
 20
-1.8061492514
 10
-183.2111138004
 20
-1.8218109297
 10
-183.1914520215
 20
-1.8392428314
 10
-183.1732477176
 20
-1.8584588056
 10
-183.1565728121
 20
-1.8793766064
 10
-183.1418410197
 20
-1.9016589364
 10
-183.1290555716
 20
-1.9252693743
 10
-183.118228004
 20
-1.9501730952
 10
-183.1097358131
 20
-1.976024938
 10
-183.103674919
 20
-2.0026903258
 10
-183.0998839884
 20
-2.0302526755
 10
-183.0983246876
 20
-2.0586977346
  0
LWPOLYLINE
  5
36E
100
AcDbEntity
  8
RACCORDO
100
AcDbPolyline
 62
253
  6
CONTINUOUS
 90
19
 70
0
 10
182.9862399562
 20
-6.0255842781
 10
182.960253621
 20
-6.0244722371
 10
182.9346325954
 20
-6.0211936005
 10
182.9094469889
 20
-6.0157622486
 10
182.8846549698
 20
-6.0081598707
 10
182.8604381825
 20
-5.9984323977
 10
182.8371952225
 20
-5.9867027086
 10
182.8149934018
 20
-5.9729876425
 10
182.7938839504
 20
-5.9573259643
 10
182.7742221714
 20
-5.9398940626
 10
182.7560178675
 20
-5.9206780883
 10
182.7393429621
 20
-5.8997602875
 10
182.7246111697
 20
-5.8774779575
 10
182.7118257216
 20
-5.8538675197
 10
182.700998154
 20
-5.8289637988
 10
182.692505963
 20
-5.8031119559
 10
182.6864450689
 20
-5.7764465682
 10
182.6826541383
 20
-5.7488842184
 10
182.6810948375
 20
-5.7204391594
  0
LWPOLYLINE
  5
36F
100
AcDbEntity
  8
RACCORDO
100
AcDbPolyline
 62
253
  6
CONTINUOUS
 90
19
 70
0
 10
-185.5394856374
 20
-4.4998586844
 10
-185.5677804917
 20
-4.4983396309
 10
-185.5952583937
 20
-4.4945731467
 10
-185.6219050392
 20
-4.4885183092
 10
-185.6478296805
 20
-4.4800076843
 10
-185.6728711982
 20
-4.4691369704
 10
-185.6966058248
 20
-4.4562928417
 10
-185.7189804775
 20
-4.4414780186
 10
-185.7399759843
 20
-4.4247053291
 10
-185.7592309893
 20
-4.4064304064
 10
-185.7766457262
 20
-4.3867422486
 10
-185.7922534295
 20
-4.3656382549
 10
-185.8059101779
 20
-4.3434718083
 10
-185.8175815154
 20
-4.3203131132
 10
-185.8272487347
 20
-4.2962110967
 10
-185.8348100257
 20
-4.2715037104
 10
-185.8402248132
 20
-4.2463512964
 10
-185.8435034046
 20
-4.2207313895
 10
-185.8446307562
 20
-4.1947135657
  0
LWPOLYLINE
  5
370
100
AcDbEntity
  8
RACCORDO
100
AcDbPolyline
 62
253
  6
CONTINUOUS
 90
19
 70
0
 10
-181.8777442126
 20
-3.2792782095
 10
-181.8494493583
 20
-3.280797263
 10
-181.8219714564
 20
-3.2845637472
 10
-181.7953248109
 20
-3.2906185847
 10
-181.7694001696
 20
-3.2991292096
 10
-181.7443586518
 20
-3.3099999235
 10
-181.7206240252
 20
-3.3228440522
 10
-181.6982493725
 20
-3.3376588754
 10
-181.6772538657
 20
-3.3544315649
 10
-181.6579988607
 20
-3.3727064876
 10
-181.6405841239
 20
-3.3923946454
 10
-181.6249764205
 20
-3.4134986391
 10
-181.6113196722
 20
-3.4356650857
 10
-181.5996483346
 20
-3.4588237808
 10
-181.5899811153
 20
-3.4829257973
 10
-181.5824198243
 20
-3.5076331835
 10
-181.5770050369
 20
-3.5327855975
 10
-181.5737264455
 20
-3.5584055044
 10
-181.5725990939
 20
-3.5844233282
  0
LINE
  5
371
100
AcDbEntity
  8
RACCORDO
100
AcDbLine
 62
253
  6
CONTINUOUS
 10
-314.302179026
 20
-4.1947131272
 11
-314.3088829383
 21
-4.1950832786
  0
LWPOLYLINE
  5
372
100
AcDbEntity
  8
RACCORDO
100
AcDbPolyline
 62
7
  6
CONTINUOUS
 90
16
 70
0
 10
-314.5352639997
 20
-4.3895686621
 10
-314.5463470032
 20
-4.3901756568
 10
-314.5589093516
 20
-4.3923622264
 10
-314.5706396567
 20
-4.3959351644
 10
-314.5813710187
 20
-4.4006478745
 10
-314.5910813669
 20
-4.4062938494
 10
-314.5998611142
 20
-4.412765971
 10
-314.6076941963
 20
-4.4199234167
 10
-314.614549717
 20
-4.4276010098
 10
-314.6204957044
 20
-4.4357429229
 10
-314.6256430501
 20
-4.4444318218
 10
-314.6298916734
 20
-4.4534209961
 10
-314.6331387896
 20
-4.4621874999
 10
-314.635520654
 20
-4.4705348348
 10
-314.6372629368
 20
-4.4786513656
 10
-314.6385076775
 20
-4.4866420981
  0
LWPOLYLINE
  5
373
100
AcDbEntity
  8
RACCORDO
100
AcDbPolyline
 62
7
  6
CONTINUOUS
 90
11
 70
0
 10
-314.535259588
 20
-4.3895685311
 10
-314.5448290642
 20
-4.3900204545
 10
-314.5575613562
 20
-4.3920491035
 10
-314.569467277
 20
-4.3955075508
 10
-314.580371709
 20
-4.4001455254
 10
-314.5902472761
 20
-4.4057511247
 10
-314.5991818663
 20
-4.412211744
 10
-314.6071556636
 20
-4.4193815348
 10
-314.6141358918
 20
-4.4270914595
 10
-314.6201916586
 20
-4.4352840688
 10
-314.6254347261
 20
-4.4440412657
  0
LWPOLYLINE
  5
374
100
AcDbEntity
  8
RACCORDO
100
AcDbPolyline
 62
253
  6
CONTINUOUS
 90
11
 70
0
 10
-314.6340063802
 20
-3.2792782095
 10
-314.6259200012
 20
-3.2790833343
 10
-314.6168157699
 20
-3.2791081716
 10
-314.6066026001
 20
-3.2792782094
 10
-314.5950682289
 20
-3.279192491
 10
-314.5822134983
 20
-3.279012247
 10
-314.5683151794
 20
-3.2792782086
 10
-314.5534546701
 20
-3.2794927611
 10
-314.5374570642
 20
-3.2792644806
 10
-314.5202698651
 20
-3.2792782096
 10
-314.5019339675
 20
-3.2794723732
  0
LWPOLYLINE
  5
375
100
AcDbEntity
  8
RACCORDO
100
AcDbPolyline
 62
253
  6
CONTINUOUS
 90
19
 70
0
 10
183.5965301937
 20
-1.7535526158
 10
183.622516529
 20
-1.7546646569
 10
183.6481375546
 20
-1.7579432935
 10
183.6733231611
 20
-1.7633746454
 10
183.6981151801
 20
-1.7709770233
 10
183.7223319675
 20
-1.7807044963
 10
183.7455749275
 20
-1.7924341854
 10
183.7677767482
 20
-1.8061492514
 10
183.7888861996
 20
-1.8218109297
 10
183.8085479785
 20
-1.8392428314
 10
183.8267522824
 20
-1.8584588056
 10
183.8434271879
 20
-1.8793766064
 10
183.8581589803
 20
-1.9016589364
 10
183.8709444284
 20
-1.9252693743
 10
183.881771996
 20
-1.9501730952
 10
183.8902641869
 20
-1.976024938
 10
183.896325081
 20
-2.0026903258
 10
183.9001160116
 20
-2.0302526755
 10
183.9016753124
 20
-2.0586977346
  0
LWPOLYLINE
  5
376
100
AcDbEntity
  8
RACCORDO
100
AcDbPolyline
 62
253
  6
CONTINUOUS
 90
19
 70
0
 10
181.4605143626
 20
-4.4998586844
 10
181.4322195083
 20
-4.4983396309
 10
181.4047416063
 20
-4.4945731467
 10
181.3780949608
 20
-4.4885183092
 10
181.3521703195
 20
-4.4800076843
 10
181.3271288018
 20
-4.4691369704
 10
181.3033941752
 20
-4.4562928417
 10
181.2810195225
 20
-4.4414780186
 10
181.2600240157
 20
-4.4247053291
 10
181.2407690107
 20
-4.4064304064
 10
181.2233542738
 20
-4.3867422486
 10
181.2077465705
 20
-4.3656382549
 10
181.1940898221
 20
-4.3434718083
 10
181.1824184846
 20
-4.3203131132
 10
181.1727512653
 20
-4.2962110967
 10
181.1651899743
 20
-4.2715037104
 10
181.1597751868
 20
-4.2463512964
 10
181.1564965954
 20
-4.2207313895
 10
181.1553692438
 20
-4.1947135657
  0
LWPOLYLINE
  5
377
100
AcDbEntity
  8
RACCORDO
100
AcDbPolyline
 62
253
  6
CONTINUOUS
 90
19
 70
0
 10
185.1222557874
 20
-3.2792782095
 10
185.1505506417
 20
-3.280797263
 10
185.1780285436
 20
-3.2845637472
 10
185.2046751891
 20
-3.2906185847
 10
185.2305998304
 20
-3.2991292096
 10
185.2556413482
 20
-3.3099999235
 10
185.2793759748
 20
-3.3228440522
 10
185.3017506275
 20
-3.3376588754
 10
185.3227461343
 20
-3.3544315649
 10
185.3420011393
 20
-3.3727064876
 10
185.3594158761
 20
-3.3923946454
 10
185.3750235795
 20
-3.4134986391
 10
185.3886803278
 20
-3.4356650857
 10
185.4003516654
 20
-3.4588237808
 10
185.4100188847
 20
-3.4829257973
 10
185.4175801757
 20
-3.5076331835
 10
185.4229949631
 20
-3.5327855975
 10
185.4262735545
 20
-3.5584055044
 10
185.4274009061
 20
-3.5844233282
  0
LINE
  5
378
100
AcDbEntity
  8
RACCORDO
100
AcDbLine
 62
253
  6
CONTINUOUS
 10
313.8849571117
 20
-4.1947135654
 11
313.8916577766
 21
-4.1950836868
  0
LINE
  5
379
100
AcDbEntity
  8
RACCORDO
100
AcDbLine
 62
253
  6
CONTINUOUS
 10
314.1318366983
 20
-4.3905397473
 11
314.1180345212
 21
-4.389568447
  0
LWPOLYLINE
  5
37A
100
AcDbEntity
  8
RACCORDO
100
AcDbPolyline
 62
253
  6
CONTINUOUS
 90
20
 70
0
 10
-314.6340063802
 20
-4.4998586844
 10
-314.6346489008
 20
-4.4999377437
 10
-314.6352637693
 20
-4.5003902279
 10
-314.6358512959
 20
-4.5012106194
 10
-314.6364190021
 20
-4.5023542232
 10
-314.6369598955
 20
-4.5038543767
 10
-314.6374527375
 20
-4.5058236131
 10
-314.6379004746
 20
-4.5082597103
 10
-314.6383010508
 20
-4.5111557842
 10
-314.6386261386
 20
-4.5146218871
 10
-314.638877965
 20
-4.5186754157
 10
-314.6390552097
 20
-4.5232977463
 10
-314.6391244136
 20
-4.5285551222
 10
-314.6390835357
 20
-4.5345040748
 10
-314.638934683
 20
-4.5411022124
 10
-314.6386502782
 20
-4.5482829737
 10
-314.6382189994
 20
-4.5561430645
 10
-314.6376500505
 20
-4.564618091
 10
-314.6369460174
 20
-4.5734126195
 10
-314.6361063643
 20
-4.5824413761
  0
LINE
  5
37B
100
AcDbEntity
  8
RACCORDO
100
AcDbLine
 62
253
  6
CONTINUOUS
 10
-314.6340063665
 20
-4.6015737223
 11
-314.6345333389
 21
-4.6016377928
  0
LINE
  5
37C
100
AcDbEntity
  8
0
100
AcDbLine
 62
7
  6
CONTINUOUS
 10
189.791385075
 20
36.110431553
 11
197.3263823234
 21
36.110431553
  0
LINE
  5
37D
100
AcDbEntity
  8
0
100
AcDbLine
 62
7
  6
CONTINUOUS
 10
-190.208614925
 20
36.110431553
 11
-197.7436121734
 21
36.110431553
  0
LINE
  5
37E
100
AcDbEntity
  8
0
100
AcDbLine
 62
7
  6
CONTINUOUS
 10
197.3263823234
 20
38.610431553
 11
195.3263823234
 21
38.610431553
  0
LINE
  5
37F
100
AcDbEntity
  8
0
100
AcDbLine
 62
7
  6
CONTINUOUS
 10
-195.7436121734
 20
38.610431553
 11
-197.7436121734
 21
38.610431553
  0
LINE
  5
380
100
AcDbEntity
  8
0
100
AcDbLine
 62
253
  6
CONTINUOUS
 10
189.791385075
 20
42.110431553
 11
-190.208614925
 21
42.110431553
  0
LINE
  5
381
100
AcDbEntity
  8
0
100
AcDbLine
 62
7
  6
CONTINUOUS
 10
-311.708614925
 20
43.610431553
 11
-286.0309453954
 21
43.610431553
  0
LINE
  5
382
100
AcDbEntity
  8
0
100
AcDbLine
 62
253
  6
CONTINUOUS
 10
195.3263823234
 20
43.610431553
 11
285.6137155453
 21
43.610431553
  0
LINE
  5
383
100
AcDbEntity
  8
0
100
AcDbLine
 62
253
  6
CONTINUOUS
 10
-195.7436121734
 20
43.610431553
 11
-286.0309453954
 21
43.610431553
  0
LINE
  5
384
100
AcDbEntity
  8
0
100
AcDbLine
 62
7
  6
CONTINUOUS
 10
285.6137155453
 20
43.610431553
 11
311.291385075
 21
43.610431553
  0
LINE
  5
385
100
AcDbEntity
  8
0
100
AcDbLine
 62
7
  6
CONTINUOUS
 10
-308.708614925
 20
44.110431553
 11
-288.708614925
 21
44.110431553
  0
LINE
  5
386
100
AcDbEntity
  8
0
100
AcDbLine
 62
7
  6
CONTINUOUS
 10
308.291385075
 20
44.110431553
 11
288.291385075
 21
44.110431553
  0
LINE
  5
387
100
AcDbEntity
  8
0
100
AcDbLine
 62
7
  6
CONTINUOUS
 10
189.791385075
 20
46.110431553
 11
-190.208614925
 21
46.110431553
  0
LINE
  5
388
100
AcDbEntity
  8
0
100
AcDbLine
 62
7
  6
CONTINUOUS
 10
-308.708614925
 20
46.610431553
 11
-288.708614925
 21
46.610431553
  0
LINE
  5
389
100
AcDbEntity
  8
0
100
AcDbLine
 62
7
  6
CONTINUOUS
 10
308.291385075
 20
46.610431553
 11
288.291385075
 21
46.610431553
  0
LINE
  5
38A
100
AcDbEntity
  8
0
100
AcDbLine
 62
7
  6
CONTINUOUS
 10
195.3263823234
 20
46.610431553
 11
282.6137155453
 21
46.610431553
  0
LINE
  5
38B
100
AcDbEntity
  8
0
100
AcDbLine
 62
7
  6
CONTINUOUS
 10
-195.7436121734
 20
46.610431553
 11
-283.0309453954
 21
46.610431553
  0
LINE
  5
38C
100
AcDbEntity
  8
RACCORDO
100
AcDbLine
 62
253
  6
CONTINUOUS
 10
314.2167764327
 20
-4.6015737122
 11
314.2173028011
 21
-4.6016376535
  0
LWPOLYLINE
  5
38D
100
AcDbEntity
  8
0
100
AcDbPolyline
 62
7
  6
CONTINUOUS
 90
19
 70
0
 10
-283.0309453954
 20
46.610431553
 10
-283.3411746885
 20
46.5947186828
 10
-283.6362989122
 20
46.5492825929
 10
-283.9163180666
 20
46.4768210618
 10
-284.1817008813
 20
46.3806178337
 10
-284.4319786265
 20
46.2633128798
 10
-284.665745113
 20
46.1258612425
 10
-284.8832199283
 20
45.9698601298
 10
-285.0841834848
 20
45.7978027353
 10
-285.2665708303
 20
45.6109303734
 10
-285.4302131778
 20
45.4106413914
 10
-285.5752793142
 20
45.1993572699
 10
-285.7002106482
 20
44.9797463615
 10
-285.8042248797
 20
44.753553754
 10
-285.8881043088
 20
44.5229650554
 10
-285.952637244
 20
44.29145534
 10
-285.9980864549
 20
44.0613977736
 10
-286.0241891721
 20
43.8339021921
 10
-286.0309453954
 20
43.610431553
  0
LINE
  5
38E
100
AcDbEntity
  8
0
100
AcDbLine
 62
253
  6
CONTINUOUS
 10
195.3263823234
 20
47.110431553
 11
241.6137155453
 21
47.110431553
  0
LINE
  5
38F
100
AcDbEntity
  8
0
100
AcDbLine
 62
253
  6
CONTINUOUS
 10
-195.7436121734
 20
47.110431553
 11
-242.0309453954
 21
47.110431553
  0
LINE
  5
390
100
AcDbEntity
  8
0
100
AcDbLine
 62
253
  6
CONTINUOUS
 10
285.291385075
 20
47.110431553
 11
287.791385075
 21
47.110431553
  0
LINE
  5
391
100
AcDbEntity
  8
0
100
AcDbLine
 62
253
  6
CONTINUOUS
 10
-285.708614925
 20
47.110431553
 11
-288.208614925
 21
47.110431553
  0
LINE
  5
392
100
AcDbEntity
  8
0
100
AcDbLine
 62
7
  6
CONTINUOUS
 10
195.3263823234
 20
56.810431553
 11
241.6137155453
 21
56.810431553
  0
LINE
  5
393
100
AcDbEntity
  8
0
100
AcDbLine
 62
7
  6
CONTINUOUS
 10
-195.7436121734
 20
56.810431553
 11
-242.0309453954
 21
56.810431553
  0
LINE
  5
394
100
AcDbEntity
  8
0
100
AcDbLine
 62
7
  6
CONTINUOUS
 10
285.291385075
 20
56.810431553
 11
287.791385075
 21
56.810431553
  0
LINE
  5
395
100
AcDbEntity
  8
0
100
AcDbLine
 62
7
  6
CONTINUOUS
 10
-285.708614925
 20
56.810431553
 11
-288.208614925
 21
56.810431553
  0
LWPOLYLINE
  5
396
100
AcDbEntity
  8
RACCORDO
100
AcDbPolyline
 62
253
  6
CONTINUOUS
 90
10
 70
0
 10
313.9685996111
 20
-4.4998586844
 10
313.9594482859
 20
-4.4983396309
 10
313.9506578301
 20
-4.4945731467
 10
313.9422467591
 20
-4.4885183092
 10
313.9342009838
 20
-4.4800076843
 10
313.9265678103
 20
-4.4691369704
 10
313.9194591872
 20
-4.4562928417
 10
313.9128991438
 20
-4.4414780186
 10
313.9068960781
 20
-4.4247053291
 10
313.9015409601
 20
-4.4064304064
  0
LINE
  5
397
100
AcDbEntity
  8
RACCORDO
100
AcDbLine
 62
253
  6
CONTINUOUS
 10
314.1453707545
 20
-4.3934347745
 11
314.1318366983
 21
-4.3905397473
  0
LINE
  5
398
100
AcDbEntity
  8
RACCORDO
100
AcDbLine
 62
253
  6
CONTINUOUS
 10
313.9685952177
 20
-2.0586991691
 11
313.9691008308
 21
-2.0585341005
  0
LINE
  5
399
100
AcDbEntity
  8
RACCORDO
100
AcDbLine
 62
253
  6
CONTINUOUS
 10
313.9685995446
 20
-5.7204391377
 11
313.9691041847
 21
-5.7206038904
  0
LINE
  5
39A
100
AcDbEntity
  8
RACCORDO
100
AcDbLine
 62
253
  6
CONTINUOUS
 10
314.1583737779
 20
-4.39819729
 11
314.1453707545
 21
-4.3934347745
  0
LWPOLYLINE
  5
39B
100
AcDbEntity
  8
RACCORDO
100
AcDbPolyline
 62
253
  6
CONTINUOUS
 90
22
 70
0
 10
182.6810948375
 20
-4.601573724
 10
182.6805820768
 20
-4.5919085979
 10
182.6792715166
 20
-4.5825772714
 10
182.677162578
 20
-4.5735665468
 10
182.6741522708
 20
-4.5647439266
 10
182.6703418406
 20
-4.5562077997
 10
182.6660213562
 20
-4.5482925786
 10
182.6611548325
 20
-4.5410737242
 10
182.655740799
 20
-4.5344428382
 10
182.6501045429
 20
-4.5284714967
 10
182.6442588017
 20
-4.5232062108
 10
182.6381534929
 20
-4.5185865878
 10
182.6320206461
 20
-4.5145399038
 10
182.6258800389
 20
-4.5110844814
 10
182.6196874739
 20
-4.5082036866
 10
182.6135855198
 20
-4.5057827284
 10
182.6076006505
 20
-4.5038286561
 10
182.6016939513
 20
-4.5023441655
 10
182.5959153909
 20
-4.5012118736
 10
182.5902806445
 20
-4.5003963328
 10
182.5847693424
 20
-4.4999435322
 10
182.5793797979
 20
-4.4998586844
  0
LWPOLYLINE
  5
39C
100
AcDbEntity
  8
RACCORDO
100
AcDbPolyline
 62
253
  6
CONTINUOUS
 90
22
 70
0
 10
183.9016753124
 20
-3.1775631699
 10
183.9021880731
 20
-3.187228296
 10
183.9034986333
 20
-3.1965596225
 10
183.905607572
 20
-3.2055703472
 10
183.9086178792
 20
-3.2143929673
 10
183.9124283093
 20
-3.2229290942
 10
183.9167487938
 20
-3.2308443154
 10
183.9216153175
 20
-3.2380631698
 10
183.927029351
 20
-3.2446940557
 10
183.9326656071
 20
-3.2506653973
 10
183.9385113482
 20
-3.2559306831
 10
183.944616657
 20
-3.2605503062
 10
183.9507495039
 20
-3.2645969901
 10
183.956890111
 20
-3.2680524125
 10
183.9630826761
 20
-3.2709332074
 10
183.9691846302
 20
-3.2733541655
 10
183.9751694995
 20
-3.2753082379
 10
183.9810761987
 20
-3.2767927284
 10
183.986854759
 20
-3.2779250203
 10
183.9924895055
 20
-3.2787405611
 10
183.9980008076
 20
-3.2791933617
 10
184.003390352
 20
-3.2792782095
  0
LWPOLYLINE
  5
39D
100
AcDbEntity
  8
RACCORDO
100
AcDbPolyline
 62
253
  6
CONTINUOUS
 90
16
 70
0
 10
182.9862403654
 20
-6.0255814121
 10
182.9860272126
 20
-6.0132537387
 10
182.9859034878
 20
-6.000530507
 10
182.9858712566
 20
-5.9876241054
 10
182.9859310573
 20
-5.9747499802
 10
182.9860818921
 20
-5.9621230385
 10
182.9863212435
 20
-5.9499540616
 10
182.9866451164
 20
-5.9384461856
 10
182.9870481049
 20
-5.9277915112
 10
182.9875234822
 20
-5.9181678965
 10
182.9880633136
 20
-5.9097359882
 10
182.988658588
 20
-5.9026365398
 10
182.989299369
 20
-5.8969880622
 10
182.9899749607
 20
-5.8928848453
 10
182.9906740859
 20
-5.8903953839
 10
182.9913850747
 20
-5.8895612345
  0
LWPOLYLINE
  5
39E
100
AcDbEntity
  8
RACCORDO
100
AcDbPolyline
 62
253
  6
CONTINUOUS
 90
16
 70
0
 10
183.5965297846
 20
-1.7535554819
 10
183.5967429373
 20
-1.7658831553
 10
183.5968666621
 20
-1.778606387
 10
183.5968988934
 20
-1.7915127885
 10
183.5968390926
 20
-1.8043869138
 10
183.5966882578
 20
-1.8170138554
 10
183.5964489064
 20
-1.8291828324
 10
183.5961250336
 20
-1.8406907083
 10
183.5957220451
 20
-1.8513453827
 10
183.5952466677
 20
-1.8609689974
 10
183.5947068364
 20
-1.8694009058
 10
183.594111562
 20
-1.8765003542
 10
183.5934707809
 20
-1.8821488318
 10
183.5927951892
 20
-1.8862520487
 10
183.592096064
 20
-1.8887415101
 10
183.5913850753
 20
-1.8895756594
  0
LWPOLYLINE
  5
39F
100
AcDbEntity
  8
RACCORDO
100
AcDbPolyline
 62
253
  6
CONTINUOUS
 90
13
 70
0
 10
181.4605156805
 20
-4.4998582448
 10
181.4603711026
 20
-4.4859279597
 10
181.4608290686
 20
-4.4720682195
 10
181.461880681
 20
-4.4585482939
 10
181.4635055088
 20
-4.4456308511
 10
181.4656719844
 20
-4.4335668537
 10
181.468338017
 20
-4.4225906836
 10
181.4714518103
 20
-4.4129155881
 10
181.4749528688
 20
-4.4047295369
 10
181.478773173
 20
-4.3981915705
 10
181.4828385012
 20
-4.3934287097
 10
181.4870698713
 20
-4.3905334884
 10
181.4913850753
 20
-4.3895621556
  0
LWPOLYLINE
  5
3A0
100
AcDbEntity
  8
RACCORDO
100
AcDbPolyline
 62
253
  6
CONTINUOUS
 90
13
 70
0
 10
185.1222544695
 20
-3.2792786492
 10
185.1223990474
 20
-3.2932089342
 10
185.1219410813
 20
-3.3070686745
 10
185.1208894689
 20
-3.3205886
 10
185.1192646411
 20
-3.3335060428
 10
185.1170981655
 20
-3.3455700402
 10
185.1144321329
 20
-3.3565462103
 10
185.1113183396
 20
-3.3662213059
 10
185.1078172812
 20
-3.374407357
 10
185.103996977
 20
-3.3809453235
 10
185.0999316487
 20
-3.3857081843
 10
185.0957002786
 20
-3.3886034055
 10
185.0913850747
 20
-3.3895747383
  0
LWPOLYLINE
  5
3A1
100
AcDbEntity
  8
RACCORDO
100
AcDbPolyline
 62
253
  6
CONTINUOUS
 90
13
 70
0
 10
182.5793798002
 20
-4.4998586825
 10
182.5793237268
 20
-4.485928726
 10
182.5795019566
 20
-4.4720694745
 10
182.5799110273
 20
-4.4585501573
 10
182.5805429924
 20
-4.4456334
 10
182.5813855753
 20
-4.4335701228
 10
182.5824224081
 20
-4.4225946665
 10
182.5836333493
 20
-4.4129202397
 10
182.5849948751
 20
-4.4047347774
 10
182.5864805368
 20
-4.39819729
 10
182.5880614738
 20
-4.3934347745
 10
182.589706975
 20
-4.3905397473
 10
182.591385075
 20
-4.389568447
  0
LWPOLYLINE
  5
3A2
100
AcDbEntity
  8
RACCORDO
100
AcDbPolyline
 62
253
  6
CONTINUOUS
 90
13
 70
0
 10
184.0033903497
 20
-3.2792782115
 10
184.0034464232
 20
-3.293208168
 10
184.0032681934
 20
-3.3070674194
 10
184.0028591227
 20
-3.3205867366
 10
184.0022271576
 20
-3.333503494
 10
184.0013845747
 20
-3.3455667712
 10
184.0003477419
 20
-3.3565422275
 10
183.9991368007
 20
-3.3662166543
 10
183.9977752748
 20
-3.3744021165
 10
183.9962896132
 20
-3.3809396039
 10
183.9947086761
 20
-3.3857021194
 10
183.9930631749
 20
-3.3885971466
 10
183.991385075
 20
-3.389568447
  0
LINE
  5
3A3
100
AcDbEntity
  8
RACCORDO
100
AcDbLine
 62
253
  6
CONTINUOUS
 10
181.1553692438
 20
-4.1947135657
 11
181.1553692438
 21
-3.5844233282
  0
LINE
  5
3A4
100
AcDbEntity
  8
RACCORDO
100
AcDbLine
 62
7
  6
CONTINUOUS
 10
181.291385075
 20
-4.189568447
 11
181.291385075
 21
-3.589568447
  0
LINE
  5
3A5
100
AcDbEntity
  8
RACCORDO
100
AcDbLine
 62
7
  6
CONTINUOUS
 10
182.791385075
 20
-5.689568447
 11
182.791385075
 21
-4.589568447
  0
LINE
  5
3A6
100
AcDbEntity
  8
RACCORDO
100
AcDbLine
 62
7
  6
CONTINUOUS
 10
182.791385075
 20
-3.189568447
 11
182.791385075
 21
-2.089568447
  0
LINE
  5
3A7
100
AcDbEntity
  8
RACCORDO
100
AcDbLine
 62
7
  6
CONTINUOUS
 10
183.791385075
 20
-2.089568447
 11
183.791385075
 21
-3.189568447
  0
LINE
  5
3A8
100
AcDbEntity
  8
RACCORDO
100
AcDbLine
 62
7
  6
CONTINUOUS
 10
183.791385075
 20
-4.589568447
 11
183.791385075
 21
-5.689568447
  0
LINE
  5
3A9
100
AcDbEntity
  8
RACCORDO
100
AcDbLine
 62
7
  6
CONTINUOUS
 10
185.291385075
 20
-3.589568447
 11
185.291385075
 21
-4.189568447
  0
LINE
  5
3AA
100
AcDbEntity
  8
RACCORDO
100
AcDbLine
 62
253
  6
CONTINUOUS
 10
185.4274009061
 20
-3.5844233282
 11
185.4274009061
 21
-4.1947135657
  0
LINE
  5
3AB
100
AcDbEntity
  8
0
100
AcDbLine
 62
7
  6
CONTINUOUS
 10
189.791385075
 20
46.110431553
 11
189.791385075
 21
-53.889568447
  0
LINE
  5
3AC
100
AcDbEntity
  8
0
100
AcDbLine
 62
253
  6
CONTINUOUS
 10
190.9002200834
 20
36.110431553
 11
190.9002200834
 21
-43.889568447
  0
LINE
  5
3AD
100
AcDbEntity
  8
0
100
AcDbLine
 62
253
  6
CONTINUOUS
 10
191.8554778275
 20
36.110431553
 11
191.8554778275
 21
-43.889568447
  0
LINE
  5
3AE
100
AcDbEntity
  8
RACCORDO
100
AcDbLine
 62
253
  6
CONTINUOUS
 10
182.6810948375
 20
-3.1775631699
 11
182.681094839
 21
-2.3259218206
  0
LINE
  5
3AF
100
AcDbEntity
  8
RACCORDO
100
AcDbLine
 62
253
  6
CONTINUOUS
 10
182.6810187177
 20
-4.6596398942
 11
182.6810948375
 21
-4.601573724
  0
LINE
  5
3B0
100
AcDbEntity
  8
RACCORDO
100
AcDbLine
 62
253
  6
CONTINUOUS
 10
183.9017514323
 20
-3.1194969997
 11
183.9016753124
 21
-3.1775631699
  0
LINE
  5
3B1
100
AcDbEntity
  8
RACCORDO
100
AcDbLine
 62
253
  6
CONTINUOUS
 10
183.9016753124
 20
-4.601573724
 11
183.901675311
 21
-5.4532150733
  0
LWPOLYLINE
  5
3B2
100
AcDbEntity
  8
RACCORDO
100
AcDbPolyline
 62
253
  6
CONTINUOUS
 90
3
 70
0
 10
182.681094839
 20
-2.3259218206
 10
182.6812746086
 20
-2.2391645162
 10
182.6810948375
 20
-2.0586977346
  0
LWPOLYLINE
  5
3B3
100
AcDbEntity
  8
RACCORDO
100
AcDbPolyline
 62
253
  6
CONTINUOUS
 90
3
 70
0
 10
183.901675311
 20
-5.4532150733
 10
183.9014955414
 20
-5.5399723777
 10
183.9016753124
 20
-5.7204391594
  0
LINE
  5
3B4
100
AcDbEntity
  8
RACCORDO
100
AcDbLine
 62
253
  6
CONTINUOUS
 10
182.6810948375
 20
-5.7204391594
 11
182.6810187177
 21
-4.6596398942
  0
LINE
  5
3B5
100
AcDbEntity
  8
RACCORDO
100
AcDbLine
 62
253
  6
CONTINUOUS
 10
183.9016753124
 20
-2.0586977346
 11
183.9017514323
 21
-3.1194969997
  0
LWPOLYLINE
  5
3B6
100
AcDbEntity
  8
RACCORDO
100
AcDbPolyline
 62
253
  6
CONTINUOUS
 90
13
 70
0
 10
182.5793797982
 20
-3.2792782097
 10
182.5793237278
 20
-3.2932081439
 10
182.5795019601
 20
-3.3070673712
 10
182.5799110328
 20
-3.3205866633
 10
182.5805429993
 20
-3.3335033955
 10
182.5813855831
 20
-3.3455666483
 10
182.5824224161
 20
-3.3565420818
 10
182.583633357
 20
-3.3662164883
 10
182.584994882
 20
-3.3744019333
 10
182.5864805424
 20
-3.380939407
 10
182.5880614779
 20
-3.385701913
 10
182.5897069772
 20
-3.3885969352
 10
182.591385075
 20
-3.3895682352
  0
LWPOLYLINE
  5
3B7
100
AcDbEntity
  8
RACCORDO
100
AcDbPolyline
 62
253
  6
CONTINUOUS
 90
13
 70
0
 10
184.0033903518
 20
-4.4998586842
 10
184.0034464222
 20
-4.48592875
 10
184.0032681898
 20
-4.4720695227
 10
184.0028591171
 20
-4.4585502306
 10
184.0022271506
 20
-4.4456334984
 10
184.0013845669
 20
-4.4335702457
 10
184.0003477339
 20
-4.4225948121
 10
183.999136793
 20
-4.4129204057
 10
183.9977752679
 20
-4.4047349607
 10
183.9962896075
 20
-4.398197487
 10
183.9947086721
 20
-4.3934349809
 10
183.9930631728
 20
-4.3905399587
 10
183.991385075
 20
-4.3895686588
  0
LWPOLYLINE
  5
3B8
100
AcDbEntity
  8
RACCORDO
100
AcDbPolyline
 62
253
  6
CONTINUOUS
 90
13
 70
0
 10
181.4605143793
 20
-3.2792782151
 10
181.4603701905
 20
-3.2932081684
 10
181.4608284955
 20
-3.3070674167
 10
181.4618803912
 20
-3.3205867309
 10
181.4635054436
 20
-3.3335034857
 10
181.4656720844
 20
-3.3455667608
 10
181.4683382247
 20
-3.3565422158
 10
181.4714520721
 20
-3.3662166421
 10
181.4749531372
 20
-3.3744021048
 10
181.4787734087
 20
-3.3809395936
 10
181.482838674
 20
-3.3857021116
 10
181.4870699617
 20
-3.3885971422
 10
181.491385075
 20
-3.389568447
  0
LWPOLYLINE
  5
3B9
100
AcDbEntity
  8
RACCORDO
100
AcDbPolyline
 62
253
  6
CONTINUOUS
 90
13
 70
0
 10
185.1222557707
 20
-4.4998586789
 10
185.1223999595
 20
-4.4859287255
 10
185.1219416545
 20
-4.4720694773
 10
185.1208897588
 20
-4.458550163
 10
185.1192647064
 20
-4.4456334082
 10
185.1170980655
 20
-4.4335701331
 10
185.1144319253
 20
-4.4225946781
 10
185.1113180779
 20
-4.4129202518
 10
185.1078170127
 20
-4.4047347891
 10
185.1039967413
 20
-4.3981973003
 10
185.0999314759
 20
-4.3934347824
 10
185.0957001882
 20
-4.3905397517
 10
185.091385075
 20
-4.389568447
  0
LWPOLYLINE
  5
3BA
100
AcDbEntity
  8
RACCORDO
100
AcDbPolyline
 62
253
  6
CONTINUOUS
 90
16
 70
0
 10
182.9862399577
 20
-1.7535526261
 10
182.9860268091
 20
-1.7658802472
 10
182.9859030933
 20
-1.7786032392
 10
182.9858708754
 20
-1.7915092475
 10
182.985930693
 20
-1.8043828625
 10
182.9860815478
 20
-1.8170092156
 10
182.9863209217
 20
-1.829177565
 10
182.9866448195
 20
-1.8406848133
 10
182.9870478351
 20
-1.8513388973
 10
182.9875232419
 20
-1.8609619936
 10
182.9880631051
 20
-1.8693934867
 10
182.9886584141
 20
-1.8764926497
 10
182.989299233
 20
-1.882140993
 10
182.9899748661
 20
-1.8862442422
 10
182.9906740366
 20
-1.8887339116
 10
182.991385075
 20
-1.889568447
  0
LWPOLYLINE
  5
3BB
100
AcDbEntity
  8
RACCORDO
100
AcDbPolyline
 62
253
  6
CONTINUOUS
 90
16
 70
0
 10
183.5965301922
 20
-6.0255842678
 10
183.5967433409
 20
-6.0132566467
 10
183.5968670566
 20
-6.0005336547
 10
183.5968992746
 20
-5.9876276465
 10
183.5968394569
 20
-5.9747540314
 10
183.5966886022
 20
-5.9621276783
 10
183.5964492282
 20
-5.9499593289
 10
183.5961253305
 20
-5.9384520806
 10
183.5957223149
 20
-5.9277979966
 10
183.595246908
 20
-5.9181749003
 10
183.5947070448
 20
-5.9097434072
 10
183.5941117358
 20
-5.9026442443
 10
183.593470917
 20
-5.896995901
 10
183.5927952839
 20
-5.8928926517
 10
183.5920961134
 20
-5.8904029823
 10
183.591385075
 20
-5.889568447
  0
LWPOLYLINE
  5
3BC
100
AcDbEntity
  8
RACCORDO
100
AcDbPolyline
 62
253
  6
CONTINUOUS
 90
19
 70
0
 10
181.1553692438
 20
-3.5844233282
 10
181.1565089712
 20
-3.5583238702
 10
181.1598047961
 20
-3.5326386857
 10
181.1652410491
 20
-3.5074376744
 10
181.1728271278
 20
-3.4827035208
 10
181.1825220484
 20
-3.4585917539
 10
181.194224651
 20
-3.4354256853
 10
181.2079198322
 20
-3.4132466256
 10
181.2235695523
 20
-3.3921328331
 10
181.2410199809
 20
-3.3724461615
 10
181.2602987705
 20
-3.3541892781
 10
181.2813110599
 20
-3.3374448384
 10
181.3037013467
 20
-3.3226593553
 10
181.3274670526
 20
-3.3098416051
 10
181.3525386504
 20
-3.2989985847
 10
181.3784488326
 20
-3.2905191
 10
181.4050219595
 20
-3.2844978172
 10
181.4323818697
 20
-3.2807649278
 10
181.4605143626
 20
-3.2792782095
  0
LWPOLYLINE
  5
3BD
100
AcDbEntity
  8
RACCORDO
100
AcDbPolyline
 62
253
  6
CONTINUOUS
 90
19
 70
0
 10
185.4274009061
 20
-4.1947135657
 10
185.4262611788
 20
-4.2208130238
 10
185.4229653539
 20
-4.2464982082
 10
185.4175291009
 20
-4.2716992195
 10
185.4099430222
 20
-4.2964333732
 10
185.4002481015
 20
-4.32054514
 10
185.388545499
 20
-4.3437112086
 10
185.3748503178
 20
-4.3658902683
 10
185.3592005977
 20
-4.3870040609
 10
185.3417501691
 20
-4.4066907324
 10
185.3224713794
 20
-4.4249476158
 10
185.30145909
 20
-4.4416920555
 10
185.2790688033
 20
-4.4564775386
 10
185.2553030974
 20
-4.4692952888
 10
185.2302314996
 20
-4.4801383092
 10
185.2043213174
 20
-4.488617794
 10
185.1777481905
 20
-4.4946390767
 10
185.1503882803
 20
-4.4983719661
 10
185.1222557874
 20
-4.4998586844
  0
LWPOLYLINE
  5
3BE
100
AcDbEntity
  8
RACCORDO
100
AcDbPolyline
 62
253
  6
CONTINUOUS
 90
19
 70
0
 10
182.6810948375
 20
-2.0586977346
 10
182.6826961709
 20
-2.0300567995
 10
182.6865261286
 20
-2.002358628
 10
182.6926210695
 20
-1.9756175567
 10
182.7011395473
 20
-1.9497697392
 10
182.7119834969
 20
-1.9249300663
 10
182.7247763225
 20
-1.9013848554
 10
182.7395062761
 20
-1.879151164
 10
182.7561702182
 20
-1.858282837
 10
182.7743583413
 20
-1.8391112568
 10
182.794002626
 20
-1.8217157284
 10
182.815089792
 20
-1.8060851181
 10
182.837257559
 20
-1.7923982726
 10
182.8604378874
 20
-1.7806973028
 10
182.8845803042
 20
-1.7709944989
 10
182.9093302262
 20
-1.7634046321
 10
182.9345212827
 20
-1.7579723818
 10
182.9601811647
 20
-1.7546833417
 10
182.9862399562
 20
-1.7535526158
  0
LWPOLYLINE
  5
3BF
100
AcDbEntity
  8
RACCORDO
100
AcDbPolyline
 62
253
  6
CONTINUOUS
 90
19
 70
0
 10
183.9016753124
 20
-5.7204391594
 10
183.9000739791
 20
-5.7490800944
 10
183.8962440214
 20
-5.776778266
 10
183.8901490805
 20
-5.8035193373
 10
183.8816306027
 20
-5.8293671548
 10
183.8707866531
 20
-5.8542068277
 10
183.8579938275
 20
-5.8777520386
 10
183.8432638739
 20
-5.8999857299
 10
183.8265999318
 20
-5.920854057
 10
183.8084118087
 20
-5.9400256372
 10
183.788767524
 20
-5.9574211656
 10
183.767680358
 20
-5.9730517758
 10
183.745512591
 20
-5.9867386213
 10
183.7223322626
 20
-5.9984395911
 10
183.6981898458
 20
-6.0081423951
 10
183.6734399238
 20
-6.0157322618
 10
183.6482488673
 20
-6.0211645122
 10
183.6225889853
 20
-6.0244535522
 10
183.5965301937
 20
-6.0255842781
  0
LINE
  5
3C0
100
AcDbEntity
  8
0
100
AcDbLine
 62
253
  6
CONTINUOUS
 10
194.291385075
 20
36.110431553
 11
194.291385075
 21
-43.889568447
  0
LINE
  5
3C1
100
AcDbEntity
  8
0
100
AcDbLine
 62
7
  6
CONTINUOUS
 10
195.3263823234
 20
-54.389568447
 11
195.3263823234
 21
-46.389568447
  0
LINE
  5
3C2
100
AcDbEntity
  8
0
100
AcDbLine
 62
7
  6
CONTINUOUS
 10
195.3263823234
 20
-46.389568447
 11
195.3263823234
 21
-44.389568447
  0
LINE
  5
3C3
100
AcDbEntity
  8
0
100
AcDbLine
 62
7
  6
CONTINUOUS
 10
195.3263823234
 20
38.610431553
 11
195.3263823234
 21
56.810431553
  0
LINE
  5
3C4
100
AcDbEntity
  8
0
100
AcDbLine
 62
7
  6
CONTINUOUS
 10
197.3263823234
 20
-46.389568447
 11
197.3263823234
 21
-43.889568447
  0
LINE
  5
3C5
100
AcDbEntity
  8
0
100
AcDbLine
 62
7
  6
CONTINUOUS
 10
197.3263823234
 20
36.110431553
 11
197.3263823234
 21
38.610431553
  0
LWPOLYLINE
  5
3C6
100
AcDbEntity
  8
RACCORDO
100
AcDbPolyline
 62
253
  6
CONTINUOUS
 90
9
 70
0
 10
313.8849571166
 20
-6.0255842781
 10
313.8838903654
 20
-6.0244722371
 10
313.8835612126
 20
-6.0211936005
 10
313.8839705209
 20
-6.0157622486
 10
313.8851216746
 20
-6.0081598707
 10
313.8870071878
 20
-5.9984323977
 10
313.8896088027
 20
-5.9867027086
 10
313.8929245032
 20
-5.9729876425
 10
313.8969409023
 20
-5.9573259643
  0
LWPOLYLINE
  5
3C7
100
AcDbEntity
  8
RACCORDO
100
AcDbPolyline
 62
7
  6
CONTINUOUS
 90
7
 70
0
 10
313.9167206448
 20
-4.4057217585
 10
313.9178859613
 20
-4.4070212899
 10
313.9180586915
 20
-4.4072311472
 10
313.9172518725
 20
-4.4059455262
 10
313.9156917451
 20
-4.4030638042
 10
313.9135245741
 20
-4.398408123
 10
313.9109146067
 20
-4.3918704907
  0
LINE
  5
3C8
100
AcDbEntity
  8
0
100
AcDbLine
 62
7
  6
CONTINUOUS
 10
241.6137155453
 20
46.610431553
 11
241.6137155453
 21
56.810431553
  0
LWPOLYLINE
  5
3C9
100
AcDbEntity
  8
RACCORDO
100
AcDbPolyline
 62
7
  6
CONTINUOUS
 90
11
 70
0
 10
314.2084132001
 20
-4.4444318218
 10
314.2032658544
 20
-4.4357429229
 10
314.197319867
 20
-4.4276010098
 10
314.1904643463
 20
-4.4199234167
 10
314.1826312641
 20
-4.412765971
 10
314.1738515168
 20
-4.4062938494
 10
314.1641411686
 20
-4.4006478745
 10
314.1534098066
 20
-4.3959351644
 10
314.1416795016
 20
-4.3923622264
 10
314.1291171532
 20
-4.3901756568
 10
314.1180341497
 20
-4.3895686621
  0
LINE
  5
3CA
100
AcDbEntity
  8
RACCORDO
100
AcDbLine
 62
7
  6
CONTINUOUS
 10
314.2199794132
 20
-3.2022886
 11
314.2184902841
 21
-3.1877340693
  0
LINE
  5
3CB
100
AcDbEntity
  8
RACCORDO
100
AcDbLine
 62
7
  6
CONTINUOUS
 10
314.2210829813
 20
-3.2150604459
 11
314.2198802705
 21
-3.2012395091
  0
LINE
  5
3CC
100
AcDbEntity
  8
RACCORDO
100
AcDbLine
 62
7
  6
CONTINUOUS
 10
314.2219366374
 20
-3.2271534762
 11
314.221011796
 21
-3.2141617826
  0
LINE
  5
3CD
100
AcDbEntity
  8
RACCORDO
100
AcDbLine
 62
7
  6
CONTINUOUS
 10
313.8923891917
 20
-3.5975957532
 11
313.8916577871
 21
-3.5840533559
  0
LINE
  5
3CE
100
AcDbEntity
  8
RACCORDO
100
AcDbLine
 62
7
  6
CONTINUOUS
 10
314.22254603
 20
-3.2384945907
 11
314.2218892964
 21
-3.2263981695
  0
LINE
  5
3CF
100
AcDbEntity
  8
RACCORDO
100
AcDbLine
 62
7
  6
CONTINUOUS
 10
313.8943594122
 20
-3.6376824746
 11
313.8922894652
 21
-3.5957492563
  0
LINE
  5
3D0
100
AcDbEntity
  8
RACCORDO
100
AcDbLine
 62
7
  6
CONTINUOUS
 10
313.8916530888
 20
-3.5840536154
 11
313.8910440031
 21
-3.5706940587
  0
LINE
  5
3D1
100
AcDbEntity
  8
RACCORDO
100
AcDbLine
 62
7
  6
CONTINUOUS
 10
313.8960391443
 20
-3.6777822885
 11
313.8942499699
 21
-3.6352894933
  0
LINE
  5
3D2
100
AcDbEntity
  8
RACCORDO
100
AcDbLine
 62
253
  6
CONTINUOUS
 10
313.8849571166
 20
-3.5844233282
 11
313.8838942837
 21
-3.5583238702
  0
LINE
  5
3D3
100
AcDbEntity
  8
RACCORDO
100
AcDbLine
 62
7
  6
CONTINUOUS
 10
313.8974282834
 20
-3.7178928347
 11
313.8959470488
 21
-3.67538873
  0
LWPOLYLINE
  5
3D4
100
AcDbEntity
  8
RACCORDO
100
AcDbPolyline
 62
253
  6
CONTINUOUS
 90
13
 70
0
 10
314.216776528
 20
-3.2792782097
 10
314.2172377077
 20
-3.2932081439
 10
314.2157717737
 20
-3.3070673712
 10
314.212407203
 20
-3.3205866633
 10
314.2072093554
 20
-3.3335033955
 10
314.200279204
 20
-3.3455666483
 10
314.1917513734
 20
-3.3565420818
 10
314.1817915245
 20
-3.3662164883
 10
314.1705931367
 20
-3.3744019333
 10
314.1583737489
 20
-3.380939407
 10
314.145370734
 20
-3.385701913
 10
314.1318366877
 20
-3.3885969352
 10
314.1180345212
 20
-3.3895682352
  0
LWPOLYLINE
  5
3D5
100
AcDbEntity
  8
RACCORDO
100
AcDbPolyline
 62
253
  6
CONTINUOUS
 90
10
 70
0
 10
313.9685995599
 20
-3.2792782151
 10
313.9690412123
 20
-3.2932081684
 10
313.9676374174
 20
-3.3070674167
 10
313.9644154454
 20
-3.3205867309
 10
313.9594378862
 20
-3.3335034857
 10
313.9528014334
 20
-3.3455667608
 10
313.9446350065
 20
-3.3565422158
 10
313.935097246
 20
-3.3662166421
 10
313.924373432
 20
-3.3744021048
 10
313.9137075648
 20
-3.3803609737
  0
LWPOLYLINE
  5
3D6
100
AcDbEntity
  8
0
100
AcDbPolyline
 62
7
  6
CONTINUOUS
 90
19
 70
0
 10
285.6137155453
 20
43.610431553
 10
285.6069280285
 20
43.834068236
 10
285.5807984453
 20
44.0616786794
 10
285.5353267957
 20
44.2917990111
 10
285.4707765958
 20
44.5233034016
 10
285.3868843296
 20
44.7538390663
 10
285.2828594486
 20
44.9799829251
 10
285.1579183512
 20
45.1995660901
 10
285.012844639
 20
45.4108256685
 10
284.8491985689
 20
45.6110895856
 10
284.6668117289
 20
45.7979359653
 10
284.4658525309
 20
45.9699680942
 10
284.2483864679
 20
46.1259448485
 10
284.01463394
 20
46.2633735865
 10
283.7643745471
 20
46.3806581695
 10
283.4990125819
 20
46.476844531
 10
283.219016142
 20
46.5492933684
 10
282.9239171298
 20
46.5947214563
 10
282.6137155453
 20
46.610431553
  0
LINE
  5
3D7
100
AcDbEntity
  8
RACCORDO
100
AcDbLine
 62
7
  6
CONTINUOUS
 10
313.8985267719
 20
-3.7580121514
 11
313.8973535338
 21
-3.7154987452
  0
LINE
  5
3D8
100
AcDbEntity
  8
RACCORDO
100
AcDbLine
 62
7
  6
CONTINUOUS
 10
313.8910761238
 20
-3.5719392499
 11
313.8904907429
 21
-3.5492463767
  0
LINE
  5
3D9
100
AcDbEntity
  8
RACCORDO
100
AcDbLine
 62
7
  6
CONTINUOUS
 10
313.8993345608
 20
-3.7981384172
 11
313.8984693701
 21
-3.7556175966
  0
LINE
  5
3DA
100
AcDbEntity
  8
RACCORDO
100
AcDbLine
 62
7
  6
CONTINUOUS
 10
313.8998516071
 20
-3.8382696005
 11
313.8992945075
 21
-3.7957434474
  0
LWPOLYLINE
  5
3DB
100
AcDbEntity
  8
RACCORDO
100
AcDbPolyline
 62
253
  6
CONTINUOUS
 90
7
 70
0
 10
313.8838942837
 20
-3.5583238702
 10
313.8835670778
 20
-3.5326386857
 10
313.8839763541
 20
-3.5074376744
 10
313.8851245848
 20
-3.4827035208
 10
313.8870052165
 20
-3.4585917539
 10
313.8896027475
 20
-3.4354256853
 10
313.8929131765
 20
-3.4132466256
  0
LINE
  5
3DC
100
AcDbEntity
  8
RACCORDO
100
AcDbLine
 62
7
  6
CONTINUOUS
 10
313.900077892
 20
-3.8784032765
 11
313.8998289048
 21
-3.8358742404
  0
LWPOLYLINE
  5
3DD
100
AcDbEntity
  8
RACCORDO
100
AcDbPolyline
 62
253
  6
CONTINUOUS
 90
10
 70
0
 10
313.893378268
 20
-3.889568447
 10
313.8932744789
 20
-3.8556580315
 10
313.8929629873
 20
-3.8217648696
 10
313.8924435581
 20
-3.7878719262
 10
313.8917147071
 20
-3.753930976
 10
313.8907769756
 20
-3.7199562536
 10
313.8896329425
 20
-3.6860249222
 10
313.8882828582
 20
-3.6521520501
 10
313.8867246323
 20
-3.6182901877
 10
313.8849571166
 20
-3.5844233282
  0
LINE
  5
3DE
100
AcDbEntity
  8
0
100
AcDbLine
 62
7
  6
CONTINUOUS
 10
285.291385075
 20
47.110431553
 11
285.291385075
 21
56.810431553
  0
LINE
  5
3DF
100
AcDbEntity
  8
0
100
AcDbLine
 62
253
  6
CONTINUOUS
 10
285.6137155453
 20
43.610431553
 11
285.6137155453
 21
-51.389568447
  0
LINE
  5
3E0
100
AcDbEntity
  8
0
100
AcDbLine
 62
7
  6
CONTINUOUS
 10
285.6137155453
 20
-54.389568447
 11
285.6137155453
 21
-51.389568447
  0
LINE
  5
3E1
100
AcDbEntity
  8
0
100
AcDbLine
 62
7
  6
CONTINUOUS
 10
287.791385075
 20
47.110431553
 11
287.791385075
 21
56.810431553
  0
LINE
  5
3E2
100
AcDbEntity
  8
0
100
AcDbLine
 62
7
  6
CONTINUOUS
 10
288.291385075
 20
46.610431553
 11
288.291385075
 21
44.110431553
  0
LINE
  5
3E3
100
AcDbEntity
  8
0
100
AcDbLine
 62
253
  6
CONTINUOUS
 10
291.2705697948
 20
43.610431553
 11
291.2705697948
 21
-51.389568447
  0
LINE
  5
3E4
100
AcDbEntity
  8
0
100
AcDbLine
 62
7
  6
CONTINUOUS
 10
296.2910279412
 20
-54.389568447
 11
296.2910279412
 21
-51.889568447
  0
LINE
  5
3E5
100
AcDbEntity
  8
0
100
AcDbLine
 62
7
  6
CONTINUOUS
 10
296.8124419592
 20
-54.389568447
 11
296.8124419592
 21
-51.889568447
  0
LINE
  5
3E6
100
AcDbEntity
  8
0
100
AcDbLine
 62
7
  6
CONTINUOUS
 10
297.5638201474
 20
-54.389568447
 11
297.5638201474
 21
-51.889568447
  0
LINE
  5
3E7
100
AcDbEntity
  8
0
100
AcDbLine
 62
7
  6
CONTINUOUS
 10
299.291385075
 20
44.110431553
 11
299.291385075
 21
43.610431553
  0
LINE
  5
3E8
100
AcDbEntity
  8
0
100
AcDbLine
 62
7
  6
CONTINUOUS
 10
299.291385075
 20
-51.889568447
 11
299.291385075
 21
-51.389568447
  0
LINE
  5
3E9
100
AcDbEntity
  8
0
100
AcDbLine
 62
253
  6
CONTINUOUS
 10
307.291385075
 20
44.110431553
 11
307.291385075
 21
43.610431553
  0
LINE
  5
3EA
100
AcDbEntity
  8
0
100
AcDbLine
 62
253
  6
CONTINUOUS
 10
307.291385075
 20
-51.889568447
 11
307.291385075
 21
-51.389568447
  0
LINE
  5
3EB
100
AcDbEntity
  8
0
100
AcDbLine
 62
7
  6
CONTINUOUS
 10
308.2411325433
 20
-51.889568447
 11
308.2411325433
 21
-54.389568447
  0
LINE
  5
3EC
100
AcDbEntity
  8
0
100
AcDbLine
 62
7
  6
CONTINUOUS
 10
308.291385075
 20
46.610431553
 11
308.291385075
 21
44.110431553
  0
LINE
  5
3ED
100
AcDbEntity
  8
0
100
AcDbLine
 62
253
  6
CONTINUOUS
 10
308.291385075
 20
-54.389568447
 11
308.291385075
 21
-51.889568447
  0
LINE
  5
3EE
100
AcDbEntity
  8
0
100
AcDbLine
 62
253
  6
CONTINUOUS
 10
308.9482393245
 20
43.610431553
 11
308.9482393245
 21
-51.389568447
  0
LINE
  5
3EF
100
AcDbEntity
  8
0
100
AcDbLine
 62
7
  6
CONTINUOUS
 10
311.291385075
 20
-51.389568447
 11
311.291385075
 21
43.610431553
  0
LINE
  5
3F0
100
AcDbEntity
  8
0
100
AcDbLine
 62
253
  6
CONTINUOUS
 10
311.6006468199
 20
-8.8570852255
 11
311.6006468199
 21
1.0779483316
  0
LINE
  5
3F1
100
AcDbEntity
  8
RACCORDO
100
AcDbLine
 62
7
  6
CONTINUOUS
 10
313.9000725448
 20
-3.9031293483
 11
313.9000725448
 21
-3.8760075457
  0
LWPOLYLINE
  5
3F2
100
AcDbEntity
  8
RACCORDO
100
AcDbPolyline
 62
7
  6
CONTINUOUS
 90
10
 70
0
 10
313.8904907429
 20
-3.5492463767
 10
313.890549176
 20
-3.5271347286
 10
313.8912293465
 20
-3.5058500206
 10
313.8924838968
 20
-3.48567064
 10
313.8942475971
 20
-3.4667561101
 10
313.8964566656
 20
-3.4492599101
 10
313.8990183853
 20
-3.4334081951
 10
313.901835515
 20
-3.4192775433
 10
313.9048065114
 20
-3.4069214144
 10
313.9077933986
 20
-3.3964758552
  0
LINE
  5
3F3
100
AcDbEntity
  8
RACCORDO
100
AcDbLine
 62
7
  6
CONTINUOUS
 10
313.8998289048
 20
-3.9432626536
 11
313.900074808
 21
-3.9012805973
  0
LINE
  5
3F4
100
AcDbEntity
  8
RACCORDO
100
AcDbLine
 62
7
  6
CONTINUOUS
 10
313.8992945075
 20
-3.9833934465
 11
313.8998516071
 21
-3.9408672934
  0
LWPOLYLINE
  5
3F5
100
AcDbEntity
  8
RACCORDO
100
AcDbPolyline
 62
7
  6
CONTINUOUS
 90
6
 70
0
 10
314.2229205901
 20
-4.5300596757
 10
314.2230658539
 20
-4.5202417465
 10
314.2229863878
 20
-4.5111063062
 10
314.2226788576
 20
-4.5025832667
 10
314.2221280241
 20
-4.4945439629
 10
314.2212778274
 20
-4.4866420981
  0
LINE
  5
3F6
100
AcDbEntity
  8
RACCORDO
100
AcDbLine
 62
7
  6
CONTINUOUS
 10
313.8984693701
 20
-4.0235192974
 11
313.8993345608
 21
-3.9809984768
  0
LWPOLYLINE
  5
3F7
100
AcDbEntity
  8
RACCORDO
100
AcDbPolyline
 62
7
  6
CONTINUOUS
 90
3
 70
0
 10
313.8904608802
 20
-4.2327595014
 10
313.8909675072
 20
-4.210115665
 10
313.8916549034
 20
-4.1950835286
  0
LINE
  5
3F8
100
AcDbEntity
  8
RACCORDO
100
AcDbLine
 62
7
  6
CONTINUOUS
 10
313.8973535338
 20
-4.0636381487
 11
313.8985267719
 21
-4.0211247426
  0
LWPOLYLINE
  5
3F9
100
AcDbEntity
  8
RACCORDO
100
AcDbPolyline
 62
253
  6
CONTINUOUS
 90
10
 70
0
 10
313.9685955747
 20
-4.4998582448
 10
313.969038425
 20
-4.4859279597
 10
313.9676356746
 20
-4.4720682195
 10
313.9644145762
 20
-4.4585482939
 10
313.9594377101
 20
-4.4456308511
 10
313.9528017677
 20
-4.4335668537
 10
313.9446356737
 20
-4.4225906836
 10
313.9350980803
 20
-4.4129155881
 10
313.9243742861
 20
-4.4047295369
 10
313.9136877924
 20
-4.3987587609
  0
LWPOLYLINE
  5
3FA
100
AcDbEntity
  8
RACCORDO
100
AcDbPolyline
 62
253
  6
CONTINUOUS
 90
10
 70
0
 10
314.2167765113
 20
-4.4998586825
 10
314.217237709
 20
-4.485928726
 10
314.2157717898
 20
-4.4720694745
 10
314.2124072306
 20
-4.4585501573
 10
314.2072093912
 20
-4.4456334
 10
314.2002792445
 20
-4.4335701228
 10
314.1917514153
 20
-4.4225946665
 10
314.1817915648
 20
-4.4129202397
 10
314.1705931725
 20
-4.4047347774
 10
314.1583737779
 20
-4.39819729
  0
LINE
  5
3FB
100
AcDbEntity
  8
RACCORDO
100
AcDbLine
 62
7
  6
CONTINUOUS
 10
313.8959470488
 20
-4.1037481639
 11
313.8974282834
 21
-4.0612440593
  0
LINE
  5
3FC
100
AcDbEntity
  8
RACCORDO
100
AcDbLine
 62
7
  6
CONTINUOUS
 10
314.2225180254
 20
-4.5412633031
 11
314.2229074925
 21
-4.5305543718
  0
LINE
  5
3FD
100
AcDbEntity
  8
RACCORDO
100
AcDbLine
 62
253
  6
CONTINUOUS
 10
313.8838943954
 20
-4.2207313895
 11
313.8849571166
 21
-4.1947135657
  0
LINE
  5
3FE
100
AcDbEntity
  8
RACCORDO
100
AcDbLine
 62
7
  6
CONTINUOUS
 10
313.8942499699
 20
-4.1438474007
 11
313.8960391443
 21
-4.1013546054
  0
LINE
  5
3FF
100
AcDbEntity
  8
RACCORDO
100
AcDbLine
 62
7
  6
CONTINUOUS
 10
313.8922623975
 20
-4.1839335501
 11
313.8943594122
 21
-4.1414544194
  0
LWPOLYLINE
  5
400
100
AcDbEntity
  8
RACCORDO
100
AcDbPolyline
 62
253
  6
CONTINUOUS
 90
10
 70
0
 10
313.8849571166
 20
-4.1947135657
 10
313.8867246517
 20
-4.1608462228
 10
313.88828289
 20
-4.126984022
 10
313.88963298
 20
-4.0931109554
 10
313.8907770092
 20
-4.0591796029
 10
313.8917147302
 20
-4.0252050015
 10
313.8924435717
 20
-3.9912642243
 10
313.8929629952
 20
-3.9573714762
 10
313.8932744823
 20
-3.9234785621
 10
313.893378268
 20
-3.889568447
  0
LINE
  5
401
100
AcDbEntity
  8
RACCORDO
100
AcDbLine
 62
7
  6
CONTINUOUS
 10
313.8916577871
 20
-4.1950835381
 11
313.8923891917
 21
-4.1815411408
  0
LINE
  5
402
100
AcDbEntity
  8
RACCORDO
100
AcDbLine
 62
7
  6
CONTINUOUS
 10
314.2218892964
 20
-4.5527387244
 11
314.22254603
 21
-4.5406423032
  0
LINE
  5
403
100
AcDbEntity
  8
RACCORDO
100
AcDbLine
 62
7
  6
CONTINUOUS
 10
314.221011796
 20
-4.5649751114
 11
314.2219366374
 21
-4.5519834177
  0
LINE
  5
404
100
AcDbEntity
  8
RACCORDO
100
AcDbLine
 62
7
  6
CONTINUOUS
 10
314.2198802705
 20
-4.5778973848
 11
314.2210829813
 21
-4.564076448
  0
LWPOLYLINE
  5
405
100
AcDbEntity
  8
RACCORDO
100
AcDbPolyline
 62
253
  6
CONTINUOUS
 90
20
 70
0
 10
314.2188646806
 20
-4.5825772714
 10
314.2197028885
 20
-4.5735665468
 10
314.2204098172
 20
-4.5647439266
 10
314.2209845138
 20
-4.5562077997
 10
314.2214200899
 20
-4.5482925786
 10
314.2217057074
 20
-4.5410737242
 10
314.2218543688
 20
-4.5344428382
 10
314.2218943601
 20
-4.5284714967
 10
314.2218234365
 20
-4.5232062108
 10
314.22164377
 20
-4.5185865878
 10
314.221389931
 20
-4.5145399038
 10
314.221063313
 20
-4.5110844814
 10
314.2206616155
 20
-4.5082036866
 10
314.220214072
 20
-4.5057827284
 10
314.2197238757
 20
-4.5038286561
 10
314.219186979
 20
-4.5023441655
 10
314.2186221523
 20
-4.5012118736
 10
314.2180355441
 20
-4.5003963328
 10
314.2174204449
 20
-4.4999435322
 10
314.2167765302
 20
-4.4998586844
  0
LINE
  5
406
100
AcDbEntity
  8
RACCORDO
100
AcDbLine
 62
7
  6
CONTINUOUS
 10
314.2184902841
 20
-4.5914028246
 11
314.2199794132
 21
-4.5768482939
  0
LINE
  5
407
100
AcDbEntity
  8
RACCORDO
100
AcDbLine
 62
7
  6
CONTINUOUS
 10
314.2173029364
 20
-4.6016377208
 11
314.2186230119
 21
-4.5901977368
  0
LINE
  5
408
100
AcDbEntity
  8
RACCORDO
100
AcDbLine
 62
253
  6
CONTINUOUS
 10
314.2011578378
 20
-4.7199610278
 11
314.2094162806
 21
-4.6596398942
  0
LWPOLYLINE
  5
409
100
AcDbEntity
  8
RACCORDO
100
AcDbPolyline
 62
7
  6
CONTINUOUS
 90
8
 70
0
 10
314.2200250528
 20
-3.300528642
 10
314.2212832619
 20
-3.2924520472
 10
314.2221382279
 20
-3.2844768783
 10
314.2226885013
 20
-3.2763626379
 10
314.2229922858
 20
-3.2677544431
 10
314.2230645003
 20
-3.2585185065
 10
314.2229074925
 20
-3.2485825221
 10
314.2225180254
 20
-3.2378735908
  0
LINE
  5
40A
100
AcDbEntity
  8
RACCORDO
100
AcDbLine
 62
253
  6
CONTINUOUS
 10
314.1816405129
 20
-4.8473085109
 11
314.1919242395
 21
-4.7825476706
  0
LINE
  5
40B
100
AcDbEntity
  8
RACCORDO
100
AcDbLine
 62
7
  6
CONTINUOUS
 10
313.8901248813
 20
-5.9918251905
 11
313.8905810868
 21
-5.9890579289
  0
LINE
  5
40C
100
AcDbEntity
  8
RACCORDO
100
AcDbLine
 62
253
  6
CONTINUOUS
 10
314.1575309957
 20
-4.9838006985
 11
314.1702139981
 21
-4.9143134929
  0
LWPOLYLINE
  5
40D
100
AcDbEntity
  8
RACCORDO
100
AcDbPolyline
 62
7
  6
CONTINUOUS
 90
8
 70
0
 10
313.8905810868
 20
-5.9890579289
 10
313.8909048477
 20
-5.9873208726
 10
313.8913774925
 20
-5.9849327129
 10
313.8919745781
 20
-5.9820652885
 10
313.8926773536
 20
-5.9788358872
 10
313.8934806674
 20
-5.9752817184
 10
313.8943931876
 20
-5.9713751546
 10
313.8954115186
 20
-5.9671395803
  0
LINE
  5
40E
100
AcDbEntity
  8
RACCORDO
100
AcDbLine
 62
253
  6
CONTINUOUS
 10
313.8929131765
 20
-3.4132466256
 11
313.8969251241
 21
-3.3921328331
  0
LINE
  5
40F
100
AcDbEntity
  8
RACCORDO
100
AcDbLine
 62
253
  6
CONTINUOUS
 10
314.1279748886
 20
-5.1301681092
 11
314.1434832492
 21
-5.0557791148
  0
LINE
  5
410
100
AcDbEntity
  8
RACCORDO
100
AcDbLine
 62
253
  6
CONTINUOUS
 10
313.8969251241
 20
-3.3921328331
 11
313.9016095449
 21
-3.3724461615
  0
LINE
  5
411
100
AcDbEntity
  8
RACCORDO
100
AcDbLine
 62
7
  6
CONTINUOUS
 10
313.8954115186
 20
-5.9671395803
 11
313.8967332228
 21
-5.9618009755
  0
LWPOLYLINE
  5
412
100
AcDbEntity
  8
RACCORDO
100
AcDbPolyline
 62
253
  6
CONTINUOUS
 90
3
 70
0
 10
314.0716264954
 20
-5.3680459026
 10
314.0921609741
 20
-5.2863594501
 10
314.1109010013
 20
-5.2070623205
  0
LINE
  5
413
100
AcDbEntity
  8
RACCORDO
100
AcDbLine
 62
7
  6
CONTINUOUS
 10
313.8965361088
 20
-5.9625787265
 11
313.89798625
 21
-5.9568403072
  0
LINE
  5
414
100
AcDbEntity
  8
RACCORDO
100
AcDbLine
 62
7
  6
CONTINUOUS
 10
313.8977666984
 20
-5.957697002
 11
313.9005288461
 21
-5.9470405671
  0
LINE
  5
415
100
AcDbEntity
  8
RACCORDO
100
AcDbLine
 62
7
  6
CONTINUOUS
 10
313.8993387061
 20
-5.9515854267
 11
313.9023388468
 21
-5.9402242167
  0
LWPOLYLINE
  5
416
100
AcDbEntity
  8
RACCORDO
100
AcDbPolyline
 62
253
  6
CONTINUOUS
 90
6
 70
0
 10
313.8969409023
 20
-5.9573259643
 10
313.9016203623
 20
-5.9398940626
 10
313.9069659275
 20
-5.9206780883
 10
313.9129488618
 20
-5.8997602875
 10
313.9194832457
 20
-5.8774779575
 10
313.9226150423
 20
-5.8690535737
  0
LINE
  5
417
100
AcDbEntity
  8
RACCORDO
100
AcDbLine
 62
7
  6
CONTINUOUS
 10
313.902059519
 20
-5.9412739243
 11
313.9057367121
 21
-5.9277354141
  0
LINE
  5
418
100
AcDbEntity
  8
RACCORDO
100
AcDbLine
 62
7
  6
CONTINUOUS
 10
313.9054124627
 20
-5.9289135723
 11
313.9095258181
 21
-5.9141563437
  0
LINE
  5
419
100
AcDbEntity
  8
RACCORDO
100
AcDbLine
 62
7
  6
CONTINUOUS
 10
313.9091522281
 20
-5.9154768451
 11
313.9136947324
 21
-5.899526623
  0
LINE
  5
41A
100
AcDbEntity
  8
RACCORDO
100
AcDbLine
 62
7
  6
CONTINUOUS
 10
313.91327478
 20
-5.9009888089
 11
313.9182326821
 21
-5.8838977257
  0
LWPOLYLINE
  5
41B
100
AcDbEntity
  8
RACCORDO
100
AcDbPolyline
 62
253
  6
CONTINUOUS
 90
10
 70
0
 10
313.9016095449
 20
-3.3724461615
 10
313.906973319
 20
-3.3541892781
 10
313.9129834152
 20
-3.3374448384
 10
313.9195501977
 20
-3.3226593553
 10
313.9266706821
 20
-3.3098416051
 10
313.9343152843
 20
-3.2989985847
 10
313.9423573718
 20
-3.2905191
 10
313.9507453059
 20
-3.2844978172
 10
313.9594986816
 20
-3.2807649278
 10
313.9685996111
 20
-3.2792782095
  0
LINE
  5
41C
100
AcDbEntity
  8
RACCORDO
100
AcDbLine
 62
7
  6
CONTINUOUS
 10
313.9177657309
 20
-5.8854985123
 11
313.9231313634
 21
-5.8673172438
  0
LWPOLYLINE
  5
41D
100
AcDbEntity
  8
RACCORDO
100
AcDbPolyline
 62
253
  6
CONTINUOUS
 90
3
 70
0
 10
313.9257135765
 20
-5.8586821546
 10
313.9265536608
 20
-5.8538675197
 10
313.9283814171
 20
-5.8498278184
  0
LWPOLYLINE
  5
41E
100
AcDbEntity
  8
RACCORDO
100
AcDbPolyline
 62
253
  6
CONTINUOUS
 90
3
 70
0
 10
313.9977582392
 20
-5.6286653052
 10
314.024558683
 20
-5.5392720607
 10
314.0491401822
 20
-5.4523417363
  0
LINE
  5
41F
100
AcDbEntity
  8
RACCORDO
100
AcDbLine
 62
7
  6
CONTINUOUS
 10
313.9226150423
 20
-5.8690535737
 11
313.9305394881
 21
-5.8427044708
  0
LWPOLYLINE
  5
420
100
AcDbEntity
  8
RACCORDO
100
AcDbPolyline
 62
253
  6
CONTINUOUS
 90
3
 70
0
 10
313.9311323841
 20
-5.8407621037
 10
313.9341436877
 20
-5.8289637988
 10
313.9362335127
 20
-5.8241033604
  0
LINE
  5
421
100
AcDbEntity
  8
RACCORDO
100
AcDbLine
 62
7
  6
CONTINUOUS
 10
313.9283814171
 20
-5.8498278184
 11
313.936873834
 21
-5.8220295646
  0
LWPOLYLINE
  5
422
100
AcDbEntity
  8
RACCORDO
100
AcDbPolyline
 62
253
  6
CONTINUOUS
 90
3
 70
0
 10
313.9398611979
 20
-5.8123749468
 10
313.9421674849
 20
-5.8031119559
 10
313.945345827
 20
-5.794801195
  0
LINE
  5
423
100
AcDbEntity
  8
RACCORDO
100
AcDbLine
 62
7
  6
CONTINUOUS
 10
313.9362335127
 20
-5.8241033604
 11
313.9460584109
 21
-5.7925294755
  0
LWPOLYLINE
  5
424
100
AcDbEntity
  8
RACCORDO
100
AcDbPolyline
 62
253
  6
CONTINUOUS
 90
5
 70
0
 10
313.8849497061
 20
-6.0255814121
 10
313.8888096727
 20
-6.0132537387
 10
313.891050487
 20
-6.000530507
 10
313.8916347432
 20
-5.9876241054
 10
313.8913996083
 20
-5.984826505
  0
LWPOLYLINE
  5
425
100
AcDbEntity
  8
RACCORDO
100
AcDbPolyline
 62
253
  6
CONTINUOUS
 90
3
 70
0
 10
313.9492646241
 20
-5.7823524008
 10
313.9505856307
 20
-5.7764465682
 10
313.9550912539
 20
-5.7640084955
  0
LWPOLYLINE
  5
426
100
AcDbEntity
  8
RACCORDO
100
AcDbPolyline
 62
7
  6
CONTINUOUS
 90
10
 70
0
 10
313.9691041847
 20
-5.7206038904
 10
314.0007191512
 20
-5.6207717104
 10
314.0385083
 20
-5.4924938615
 10
314.0733797715
 20
-5.3633939903
 10
314.105315707
 20
-5.2335389399
 10
314.1343005777
 20
-5.1029920213
 10
314.1603198395
 20
-4.9718191929
 10
314.183359643
 20
-4.8400881454
 10
314.2034082096
 20
-4.7078655739
 10
314.2173035022
 20
-4.601637737
  0
LINE
  5
427
100
AcDbEntity
  8
RACCORDO
100
AcDbLine
 62
7
  6
CONTINUOUS
 10
313.945345827
 20
-5.794801195
 11
313.955879232
 21
-5.761535375
  0
LINE
  5
428
100
AcDbEntity
  8
RACCORDO
100
AcDbLine
 62
253
  6
CONTINUOUS
 10
313.9584690884
 20
-5.7534537735
 11
313.9594027822
 21
-5.7488842184
  0
LWPOLYLINE
  5
429
100
AcDbEntity
  8
RACCORDO
100
AcDbPolyline
 62
7
  6
CONTINUOUS
 90
3
 70
0
 10
313.9550912539
 20
-5.7640084955
 10
313.965400742
 20
-5.7319723974
 10
313.9691008493
 20
-5.7206028018
  0
LWPOLYLINE
  5
42A
100
AcDbEntity
  8
RACCORDO
100
AcDbPolyline
 62
7
  6
CONTINUOUS
 90
6
 70
0
 10
313.9077933986
 20
-3.3964758552
 10
313.9106770096
 20
-3.3879113532
 10
313.9133260752
 20
-3.3811904877
 10
313.9155405321
 20
-3.3763753554
 10
313.9171589741
 20
-3.373351285
 10
313.9174003653
 20
-3.3729426337
  0
LWPOLYLINE
  5
42B
100
AcDbEntity
  8
RACCORDO
100
AcDbPolyline
 62
7
  6
CONTINUOUS
 90
13
 70
0
 10
314.2158354608
 20
-4.4619619375
 10
314.2125312652
 20
-4.4531108402
 10
314.2082048761
 20
-4.4440412657
 10
314.2029618085
 20
-4.4352840688
 10
314.1969060417
 20
-4.4270914595
 10
314.1899258135
 20
-4.4193815348
 10
314.1819520162
 20
-4.412211744
 10
314.1730174261
 20
-4.4057511247
 10
314.163141859
 20
-4.4001455254
 10
314.152237427
 20
-4.3955075508
 10
314.1403315062
 20
-4.3920491035
 10
314.1275992142
 20
-4.3900204545
 10
314.1180297379
 20
-4.3895685311
  0
LWPOLYLINE
  5
42C
100
AcDbEntity
  8
RACCORDO
100
AcDbPolyline
 62
7
  6
CONTINUOUS
 90
11
 70
0
 10
313.9109146067
 20
-4.3918704907
 10
313.9080617825
 20
-4.3835156372
 10
313.9050945288
 20
-4.3733033716
 10
313.9021323304
 20
-4.3612021885
 10
313.8993134373
 20
-4.3473403692
 10
313.8967329425
 20
-4.3317612893
 10
313.8944857582
 20
-4.3145289349
 10
313.8926721989
 20
-4.295852652
 10
313.8913582315
 20
-4.2758795126
 10
313.8906013536
 20
-4.2547599882
 10
313.8904608802
 20
-4.2327595014
  0
LINE
  5
42D
100
AcDbEntity
  8
RACCORDO
100
AcDbLine
 62
7
  6
CONTINUOUS
 10
313.9691008313
 20
-2.0585341003
 11
313.9592812367
 21
-2.0282189002
  0
LINE
  5
42E
100
AcDbEntity
  8
RACCORDO
100
AcDbLine
 62
253
  6
CONTINUOUS
 10
313.9593422994
 20
-2.0300567995
 11
313.9592812367
 21
-2.0282189002
  0
LINE
  5
42F
100
AcDbEntity
  8
RACCORDO
100
AcDbLine
 62
253
  6
CONTINUOUS
 10
313.9558767283
 20
-2.0175936833
 11
313.9504824278
 21
-2.002358628
  0
LINE
  5
430
100
AcDbEntity
  8
RACCORDO
100
AcDbLine
 62
7
  6
CONTINUOUS
 10
313.9592812367
 20
-2.0282189002
 11
313.9492598614
 21
-1.9967694191
  0
LWPOLYLINE
  5
431
100
AcDbEntity
  8
RACCORDO
100
AcDbPolyline
 62
253
  6
CONTINUOUS
 90
5
 70
0
 10
313.8849570901
 20
-1.7535526261
 10
313.8888159267
 20
-1.7658802472
 10
313.8910556727
 20
-1.7786032392
 10
313.8916389452
 20
-1.7915092475
 10
313.8914015804
 20
-1.794330967
  0
LINE
  5
432
100
AcDbEntity
  8
RACCORDO
100
AcDbLine
 62
7
  6
CONTINUOUS
 10
313.9492598614
 20
-1.9967694191
 11
313.9398525064
 21
-1.9667339442
  0
LINE
  5
433
100
AcDbEntity
  8
RACCORDO
100
AcDbLine
 62
7
  6
CONTINUOUS
 10
313.9398525064
 20
-1.9667339442
 11
313.9311196819
 21
-1.9383330716
  0
LWPOLYLINE
  5
434
100
AcDbEntity
  8
RACCORDO
100
AcDbPolyline
 62
253
  6
CONTINUOUS
 90
6
 70
0
 10
313.9206201605
 20
-1.903354614
 10
313.9194020603
 20
-1.9013848554
 10
313.9128834718
 20
-1.879151164
 10
313.9069161873
 20
-1.858282837
 10
313.901584382
 20
-1.8391112568
 10
313.8969160079
 20
-1.8217157284
  0
LINE
  5
435
100
AcDbEntity
  8
RACCORDO
100
AcDbLine
 62
7
  6
CONTINUOUS
 10
313.9311196819
 20
-1.9383330716
 11
313.9231151954
 21
-1.9117653685
  0
LINE
  5
436
100
AcDbEntity
  8
RACCORDO
100
AcDbLine
 62
7
  6
CONTINUOUS
 10
313.9231151954
 20
-1.9117653685
 11
313.918214766
 21
-1.8951780048
  0
LINE
  5
437
100
AcDbEntity
  8
RACCORDO
100
AcDbLine
 62
7
  6
CONTINUOUS
 10
313.918214766
 20
-1.8951780048
 11
313.9136756569
 21
-1.8795439595
  0
LINE
  5
438
100
AcDbEntity
  8
RACCORDO
100
AcDbLine
 62
7
  6
CONTINUOUS
 10
313.9136756569
 20
-1.8795439595
 11
313.9095062249
 21
-1.8649110966
  0
LWPOLYLINE
  5
439
100
AcDbEntity
  8
RACCORDO
100
AcDbPolyline
 62
253
  6
CONTINUOUS
 90
3
 70
0
 10
314.0489001835
 20
-2.3259218206
 10
314.0243562825
 20
-2.2391645162
 10
313.9976340491
 20
-2.1500625438
  0
LINE
  5
43A
100
AcDbEntity
  8
RACCORDO
100
AcDbLine
 62
7
  6
CONTINUOUS
 10
313.9095062249
 20
-1.8649110966
 11
313.9057173581
 21
-1.8513312722
  0
LINE
  5
43B
100
AcDbEntity
  8
RACCORDO
100
AcDbLine
 62
7
  6
CONTINUOUS
 10
313.9057173581
 20
-1.8513312722
 11
313.902320471
 21
-1.8388441497
  0
LWPOLYLINE
  5
43C
100
AcDbEntity
  8
RACCORDO
100
AcDbPolyline
 62
7
  6
CONTINUOUS
 90
4
 70
0
 10
313.902320471
 20
-1.8388441497
 10
313.8993219705
 20
-1.8274870066
 10
313.8979705574
 20
-1.8222350413
 10
313.8967187027
 20
-1.8172778506
  0
LWPOLYLINE
  5
43D
100
AcDbEntity
  8
RACCORDO
100
AcDbPolyline
 62
253
  6
CONTINUOUS
 90
9
 70
0
 10
313.8969160079
 20
-1.8217157284
 10
313.8929086501
 20
-1.8060851181
 10
313.8896003014
 20
-1.7923982726
 10
313.8870044197
 20
-1.7806973028
 10
313.8851228786
 20
-1.7709944989
 10
313.8839739888
 20
-1.7634046321
 10
313.883565248
 20
-1.7579723818
 10
313.8838932432
 20
-1.7546833417
 10
313.8849571166
 20
-1.7535526158
  0
LWPOLYLINE
  5
43E
100
AcDbEntity
  8
RACCORDO
100
AcDbPolyline
 62
7
  6
CONTINUOUS
 90
10
 70
0
 10
313.8967187027
 20
-1.8172778506
 10
313.8955722009
 20
-1.812643884
 10
313.8945312377
 20
-1.8083356001
 10
313.8935964825
 20
-1.8043581067
 10
313.8927745752
 20
-1.8007460493
 10
313.8920602895
 20
-1.7974865513
 10
313.8914553654
 20
-1.7946011678
 10
313.8909718451
 20
-1.7921720949
 10
313.89059514
 20
-1.7901600738
 10
313.8905164453
 20
-1.7897199835
  0
LINE
  5
43F
100
AcDbEntity
  8
RACCORDO
100
AcDbLine
 62
253
  6
CONTINUOUS
 10
313.9015409601
 20
-4.4064304064
 11
313.8968682305
 21
-4.3867422486
  0
LWPOLYLINE
  5
440
100
AcDbEntity
  8
RACCORDO
100
AcDbPolyline
 62
253
  6
CONTINUOUS
 90
3
 70
0
 10
314.1107431617
 20
-2.5713858618
 10
314.09197084
 20
-2.492001148
 10
314.0713965649
 20
-2.4102078274
  0
LINE
  5
441
100
AcDbEntity
  8
RACCORDO
100
AcDbLine
 62
253
  6
CONTINUOUS
 10
314.1433480664
 20
-2.7226871314
 11
314.1278308022
 21
-2.6482982483
  0
LINE
  5
442
100
AcDbEntity
  8
RACCORDO
100
AcDbLine
 62
253
  6
CONTINUOUS
 10
313.8968682305
 20
-4.3867422486
 11
313.8928696154
 21
-4.3656382549
  0
LINE
  5
443
100
AcDbEntity
  8
RACCORDO
100
AcDbLine
 62
253
  6
CONTINUOUS
 10
314.170092397
 20
-2.8641294437
 11
314.1574041875
 21
-2.7946646175
  0
LINE
  5
444
100
AcDbEntity
  8
RACCORDO
100
AcDbLine
 62
253
  6
CONTINUOUS
 10
314.1918227266
 20
-2.9959265783
 11
314.1815238708
 21
-2.9311116719
  0
LWPOLYLINE
  5
445
100
AcDbEntity
  8
RACCORDO
100
AcDbPolyline
 62
7
  6
CONTINUOUS
 90
4
 70
0
 10
314.2212832619
 20
-4.4866848468
 10
314.2200250528
 20
-4.4786082519
 10
314.2182571525
 20
-4.4703984742
 10
314.2158354608
 20
-4.4619619375
  0
LWPOLYLINE
  5
446
100
AcDbEntity
  8
RACCORDO
100
AcDbPolyline
 62
253
  6
CONTINUOUS
 90
7
 70
0
 10
313.8928696154
 20
-4.3656382549
 10
313.8895712636
 20
-4.3434718083
 10
313.8869837854
 20
-4.3203131132
 10
313.8851118578
 20
-4.2962110967
 10
313.8839702161
 20
-4.2715037104
 10
313.8835651425
 20
-4.2463512964
 10
313.8838943954
 20
-4.2207313895
  0
LINE
  5
447
100
AcDbEntity
  8
RACCORDO
100
AcDbLine
 62
253
  6
CONTINUOUS
 10
314.209376101
 20
-3.1192101233
 11
314.2010834542
 21
-3.0586664787
  0
LWPOLYLINE
  5
448
100
AcDbEntity
  8
RACCORDO
100
AcDbPolyline
 62
7
  6
CONTINUOUS
 90
10
 70
0
 10
314.2173034896
 20
-3.177499101
 10
314.2037397429
 20
-3.0736420077
 10
314.1837442725
 20
-2.9414079353
 10
314.1607574268
 20
-2.8096653601
 10
314.1347910536
 20
-2.6784809828
 10
314.1058590538
 20
-2.5479225613
 10
314.0739759496
 20
-2.4180557029
 10
314.03915724
 20
-2.2889435734
 10
314.0014211038
 20
-2.160653706
 10
313.9691042127
 20
-2.0585329966
  0
LINE
  5
449
100
AcDbEntity
  8
RACCORDO
100
AcDbLine
 62
7
  6
CONTINUOUS
 10
314.2186230119
 20
-3.1889391572
 11
314.2173029364
 21
-3.1774991732
  0
LINE
  5
44A
100
AcDbEntity
  8
RACCORDO
100
AcDbLine
 62
7
  6
CONTINUOUS
 10
-983.0052437148
 20
-4.5768482939
 11
-983.0037545857
 21
-4.5914028246
  0
LINE
  5
44B
100
AcDbEntity
  8
RACCORDO
100
AcDbLine
 62
7
  6
CONTINUOUS
 10
-983.0063472829
 20
-4.564076448
 11
-983.005144572
 21
-4.5778973848
  0
LINE
  5
44C
100
AcDbEntity
  8
RACCORDO
100
AcDbLine
 62
7
  6
CONTINUOUS
 10
-983.007200939
 20
-4.5519834177
 11
-983.0062760975
 21
-4.5649751114
  0
LINE
  5
44D
100
AcDbEntity
  8
RACCORDO
100
AcDbLine
 62
7
  6
CONTINUOUS
 10
-982.6776534933
 20
-4.1815411408
 11
-982.6769220887
 21
-4.1950835381
  0
LINE
  5
44E
100
AcDbEntity
  8
RACCORDO
100
AcDbLine
 62
7
  6
CONTINUOUS
 10
-983.0078103316
 20
-4.5406423032
 11
-983.0071535979
 21
-4.5527387244
  0
LINE
  5
44F
100
AcDbEntity
  8
RACCORDO
100
AcDbLine
 62
7
  6
CONTINUOUS
 10
-982.6796237138
 20
-4.1414544194
 11
-982.6775266991
 21
-4.1839335501
  0
LINE
  5
450
100
AcDbEntity
  8
RACCORDO
100
AcDbLine
 62
7
  6
CONTINUOUS
 10
-982.6769173904
 20
-4.1950832786
 11
-982.6763083046
 21
-4.2084428352
  0
LINE
  5
451
100
AcDbEntity
  8
RACCORDO
100
AcDbLine
 62
7
  6
CONTINUOUS
 10
-982.6813034459
 20
-4.1013546054
 11
-982.6795142715
 21
-4.1438474007
  0
LINE
  5
452
100
AcDbEntity
  8
RACCORDO
100
AcDbLine
 62
253
  6
CONTINUOUS
 10
-982.6702214182
 20
-4.1947135657
 11
-982.6691585853
 21
-4.2208130238
  0
LINE
  5
453
100
AcDbEntity
  8
RACCORDO
100
AcDbLine
 62
7
  6
CONTINUOUS
 10
-982.682692585
 20
-4.0612440593
 11
-982.6812113503
 21
-4.1037481639
  0
LWPOLYLINE
  5
454
100
AcDbEntity
  8
RACCORDO
100
AcDbPolyline
 62
253
  6
CONTINUOUS
 90
13
 70
0
 10
-983.0020408295
 20
-4.4998586842
 10
-983.0025020093
 20
-4.48592875
 10
-983.0010360753
 20
-4.4720695227
 10
-982.9976715045
 20
-4.4585502306
 10
-982.992473657
 20
-4.4456334984
 10
-982.9855435056
 20
-4.4335702457
 10
-982.977015675
 20
-4.4225948121
 10
-982.9670558261
 20
-4.4129204057
 10
-982.9558574383
 20
-4.4047349607
 10
-982.9436380505
 20
-4.398197487
 10
-982.9306350356
 20
-4.3934349809
 10
-982.9171009893
 20
-4.3905399587
 10
-982.9032988228
 20
-4.3895686588
  0
LWPOLYLINE
  5
455
100
AcDbEntity
  8
RACCORDO
100
AcDbPolyline
 62
253
  6
CONTINUOUS
 90
10
 70
0
 10
-982.7538638615
 20
-4.4998586789
 10
-982.7543055138
 20
-4.4859287255
 10
-982.752901719
 20
-4.4720694773
 10
-982.749679747
 20
-4.458550163
 10
-982.7447021877
 20
-4.4456334082
 10
-982.738065735
 20
-4.4335701331
 10
-982.7298993081
 20
-4.4225946781
 10
-982.7203615476
 20
-4.4129202518
 10
-982.7096377335
 20
-4.4047347891
 10
-982.6989718664
 20
-4.3987759202
  0
LINE
  5
456
100
AcDbEntity
  8
RACCORDO
100
AcDbLine
 62
7
  6
CONTINUOUS
 10
-982.6837910735
 20
-4.0211247426
 11
-982.6826178354
 21
-4.0636381487
  0
LINE
  5
457
100
AcDbEntity
  8
RACCORDO
100
AcDbLine
 62
7
  6
CONTINUOUS
 10
-982.6763404253
 20
-4.207197644
 11
-982.6757550445
 21
-4.2298905173
  0
LINE
  5
458
100
AcDbEntity
  8
RACCORDO
100
AcDbLine
 62
7
  6
CONTINUOUS
 10
-982.6845988624
 20
-3.9809984768
 11
-982.6837336716
 21
-4.0235192974
  0
LINE
  5
459
100
AcDbEntity
  8
RACCORDO
100
AcDbLine
 62
7
  6
CONTINUOUS
 10
-982.6851159087
 20
-3.9408672934
 11
-982.6845588091
 21
-3.9833934465
  0
LWPOLYLINE
  5
45A
100
AcDbEntity
  8
RACCORDO
100
AcDbPolyline
 62
253
  6
CONTINUOUS
 90
7
 70
0
 10
-982.6691585853
 20
-4.2208130238
 10
-982.6688313794
 20
-4.2464982082
 10
-982.6692406557
 20
-4.2716992195
 10
-982.6703888864
 20
-4.2964333732
 10
-982.6722695181
 20
-4.32054514
 10
-982.6748670491
 20
-4.3437112086
 10
-982.6781774781
 20
-4.3658902683
  0
LINE
  5
45B
100
AcDbEntity
  8
RACCORDO
100
AcDbLine
 62
7
  6
CONTINUOUS
 10
-982.6853421936
 20
-3.9007336174
 11
-982.6850932064
 21
-3.9432626536
  0
LWPOLYLINE
  5
45C
100
AcDbEntity
  8
RACCORDO
100
AcDbPolyline
 62
253
  6
CONTINUOUS
 90
10
 70
0
 10
-982.6786425696
 20
-3.889568447
 10
-982.6785387804
 20
-3.9234788624
 10
-982.6782272889
 20
-3.9573720243
 10
-982.6777078597
 20
-3.9912649677
 10
-982.6769790087
 20
-4.0252059179
 10
-982.6760412772
 20
-4.0591806404
 10
-982.6748972441
 20
-4.0931119717
 10
-982.6735471598
 20
-4.1269848439
 10
-982.6719889339
 20
-4.1608467062
 10
-982.6702214182
 20
-4.1947135657
  0
LINE
  5
45D
100
AcDbEntity
  8
0
100
AcDbLine
 62
253
  6
CONTINUOUS
 10
-980.3859111215
 20
-8.8570852255
 11
-980.3859111215
 21
1.0779483316
  0
LINE
  5
45E
100
AcDbEntity
  8
0
100
AcDbLine
 62
7
  6
CONTINUOUS
 10
-980.0766493766
 20
43.610431553
 11
-980.0766493766
 21
-51.389568447
  0
LINE
  5
45F
100
AcDbEntity
  8
0
100
AcDbLine
 62
253
  6
CONTINUOUS
 10
-977.7335036261
 20
43.610431553
 11
-977.7335036261
 21
-51.389568447
  0
LINE
  5
460
100
AcDbEntity
  8
0
100
AcDbLine
 62
7
  6
CONTINUOUS
 10
-977.0766493766
 20
46.610431553
 11
-977.0766493766
 21
44.110431553
  0
LINE
  5
461
100
AcDbEntity
  8
0
100
AcDbLine
 62
253
  6
CONTINUOUS
 10
-977.0766493766
 20
-54.389568447
 11
-977.0766493766
 21
-51.889568447
  0
LINE
  5
462
100
AcDbEntity
  8
0
100
AcDbLine
 62
7
  6
CONTINUOUS
 10
-977.0263968449
 20
-51.889568447
 11
-977.0263968449
 21
-54.389568447
  0
LINE
  5
463
100
AcDbEntity
  8
0
100
AcDbLine
 62
253
  6
CONTINUOUS
 10
-976.0766493766
 20
44.110431553
 11
-976.0766493766
 21
43.610431553
  0
LINE
  5
464
100
AcDbEntity
  8
0
100
AcDbLine
 62
253
  6
CONTINUOUS
 10
-976.0766493766
 20
-51.889568447
 11
-976.0766493766
 21
-51.389568447
  0
LINE
  5
465
100
AcDbEntity
  8
0
100
AcDbLine
 62
7
  6
CONTINUOUS
 10
-968.0766493766
 20
44.110431553
 11
-968.0766493766
 21
43.610431553
  0
LINE
  5
466
100
AcDbEntity
  8
0
100
AcDbLine
 62
7
  6
CONTINUOUS
 10
-968.0766493766
 20
-51.889568447
 11
-968.0766493766
 21
-51.389568447
  0
LINE
  5
467
100
AcDbEntity
  8
0
100
AcDbLine
 62
7
  6
CONTINUOUS
 10
-966.3490844489
 20
-54.389568447
 11
-966.3490844489
 21
-51.889568447
  0
LINE
  5
468
100
AcDbEntity
  8
0
100
AcDbLine
 62
7
  6
CONTINUOUS
 10
-965.5977062607
 20
-54.389568447
 11
-965.5977062607
 21
-51.889568447
  0
LINE
  5
469
100
AcDbEntity
  8
0
100
AcDbLine
 62
7
  6
CONTINUOUS
 10
-965.0762922428
 20
-54.389568447
 11
-965.0762922428
 21
-51.889568447
  0
LINE
  5
46A
100
AcDbEntity
  8
RACCORDO
100
AcDbLine
 62
7
  6
CONTINUOUS
 10
-982.6853368463
 20
-3.8760075457
 11
-982.6853368463
 21
-3.9031293483
  0
LWPOLYLINE
  5
46B
100
AcDbEntity
  8
RACCORDO
100
AcDbPolyline
 62
7
  6
CONTINUOUS
 90
10
 70
0
 10
-982.6757550445
 20
-4.2298905173
 10
-982.6758134775
 20
-4.2520021654
 10
-982.6764936481
 20
-4.2732868734
 10
-982.6777481984
 20
-4.293466254
 10
-982.6795118987
 20
-4.3123807839
 10
-982.6817209672
 20
-4.3298769838
 10
-982.6842826869
 20
-4.3457286988
 10
-982.6870998166
 20
-4.3598593507
 10
-982.690070813
 20
-4.3722154795
 10
-982.6930577002
 20
-4.3826610387
  0
LINE
  5
46C
100
AcDbEntity
  8
RACCORDO
100
AcDbLine
 62
7
  6
CONTINUOUS
 10
-982.6850932064
 20
-3.8358742404
 11
-982.6853421936
 21
-3.8784032765
  0
LINE
  5
46D
100
AcDbEntity
  8
RACCORDO
100
AcDbLine
 62
7
  6
CONTINUOUS
 10
-982.6845588091
 20
-3.7957434474
 11
-982.6851159087
 21
-3.8382696005
  0
LWPOLYLINE
  5
46E
100
AcDbEntity
  8
RACCORDO
100
AcDbPolyline
 62
7
  6
CONTINUOUS
 90
7
 70
0
 10
-983.0081848917
 20
-3.2490772182
 10
-983.0083301555
 20
-3.2588951474
 10
-983.0082506894
 20
-3.2680305877
 10
-983.0079431592
 20
-3.2765536272
 10
-983.0073923257
 20
-3.284592931
 10
-983.006542129
 20
-3.2924947958
 10
-983.0052973883
 20
-3.3004855283
  0
LINE
  5
46F
100
AcDbEntity
  8
RACCORDO
100
AcDbLine
 62
7
  6
CONTINUOUS
 10
-982.6837336716
 20
-3.7556175966
 11
-982.6845988624
 21
-3.7981384172
  0
LWPOLYLINE
  5
470
100
AcDbEntity
  8
RACCORDO
100
AcDbPolyline
 62
7
  6
CONTINUOUS
 90
3
 70
0
 10
-982.6757251817
 20
-3.5463773925
 10
-982.6762318087
 20
-3.5690212289
 10
-982.676919205
 20
-3.5840533653
  0
LINE
  5
471
100
AcDbEntity
  8
RACCORDO
100
AcDbLine
 62
7
  6
CONTINUOUS
 10
-982.6826178354
 20
-3.7154987452
 11
-982.6837910735
 21
-3.7580121514
  0
LWPOLYLINE
  5
472
100
AcDbEntity
  8
RACCORDO
100
AcDbPolyline
 62
253
  6
CONTINUOUS
 90
10
 70
0
 10
-982.7538598762
 20
-3.2792786492
 10
-982.7543027266
 20
-3.2932089342
 10
-982.7528999762
 20
-3.3070686745
 10
-982.7496788778
 20
-3.3205886
 10
-982.7447020117
 20
-3.3335060428
 10
-982.7380660693
 20
-3.3455700402
 10
-982.7298999752
 20
-3.3565462103
 10
-982.7203623819
 20
-3.3662213059
 10
-982.7096385877
 20
-3.374407357
 10
-982.698952094
 20
-3.3803781331
  0
LWPOLYLINE
  5
473
100
AcDbEntity
  8
RACCORDO
100
AcDbPolyline
 62
253
  6
CONTINUOUS
 90
10
 70
0
 10
-983.0020408129
 20
-3.2792782115
 10
-983.0025020106
 20
-3.293208168
 10
-983.0010360914
 20
-3.3070674194
 10
-982.9976715322
 20
-3.3205867366
 10
-982.9924736928
 20
-3.333503494
 10
-982.9855435461
 20
-3.3455667712
 10
-982.9770157169
 20
-3.3565422275
 10
-982.9670558663
 20
-3.3662166543
 10
-982.9558574741
 20
-3.3744021165
 10
-982.9436380795
 20
-3.3809396039
  0
LINE
  5
474
100
AcDbEntity
  8
RACCORDO
100
AcDbLine
 62
7
  6
CONTINUOUS
 10
-982.6812113503
 20
-3.67538873
 11
-982.682692585
 21
-3.7178928347
  0
LINE
  5
475
100
AcDbEntity
  8
RACCORDO
100
AcDbLine
 62
7
  6
CONTINUOUS
 10
-983.007782327
 20
-3.2378735908
 11
-983.008171794
 21
-3.2485825221
  0
LINE
  5
476
100
AcDbEntity
  8
RACCORDO
100
AcDbLine
 62
253
  6
CONTINUOUS
 10
-982.669158697
 20
-3.5584055044
 11
-982.6702214182
 21
-3.5844233282
  0
LINE
  5
477
100
AcDbEntity
  8
RACCORDO
100
AcDbLine
 62
7
  6
CONTINUOUS
 10
-982.6795142715
 20
-3.6352894933
 11
-982.6813034459
 21
-3.6777822885
  0
LINE
  5
478
100
AcDbEntity
  8
RACCORDO
100
AcDbLine
 62
7
  6
CONTINUOUS
 10
-982.6775266991
 20
-3.5952033439
 11
-982.6796237138
 21
-3.6376824746
  0
LWPOLYLINE
  5
479
100
AcDbEntity
  8
RACCORDO
100
AcDbPolyline
 62
253
  6
CONTINUOUS
 90
10
 70
0
 10
-982.6702214182
 20
-3.5844233282
 10
-982.6719889532
 20
-3.6182906711
 10
-982.6735471916
 20
-3.652152872
 10
-982.6748972815
 20
-3.6860259386
 10
-982.6760413108
 20
-3.7199572911
 10
-982.6769790317
 20
-3.7539318924
 10
-982.6777078733
 20
-3.7878726697
 10
-982.6782272968
 20
-3.8217654177
 10
-982.6785387838
 20
-3.8556583319
 10
-982.6786425696
 20
-3.889568447
  0
LINE
  5
47A
100
AcDbEntity
  8
RACCORDO
100
AcDbLine
 62
7
  6
CONTINUOUS
 10
-982.6769220887
 20
-3.5840533559
 11
-982.6776534933
 21
-3.5975957532
  0
LINE
  5
47B
100
AcDbEntity
  8
RACCORDO
100
AcDbLine
 62
7
  6
CONTINUOUS
 10
-983.0071535979
 20
-3.2263981695
 11
-983.0078103316
 21
-3.2384945907
  0
LINE
  5
47C
100
AcDbEntity
  8
RACCORDO
100
AcDbLine
 62
7
  6
CONTINUOUS
 10
-983.0062760975
 20
-3.2141617826
 11
-983.007200939
 21
-3.2271534762
  0
LINE
  5
47D
100
AcDbEntity
  8
RACCORDO
100
AcDbLine
 62
7
  6
CONTINUOUS
 10
-983.005144572
 20
-3.2012395091
 11
-983.0063472829
 21
-3.2150604459
  0
LWPOLYLINE
  5
47E
100
AcDbEntity
  8
RACCORDO
100
AcDbPolyline
 62
253
  6
CONTINUOUS
 90
20
 70
0
 10
-983.0041289822
 20
-3.1965596225
 10
-983.0049671901
 20
-3.2055703472
 10
-983.0056741188
 20
-3.2143929673
 10
-983.0062488153
 20
-3.2229290942
 10
-983.0066843915
 20
-3.2308443154
 10
-983.0069700089
 20
-3.2380631698
 10
-983.0071186704
 20
-3.2446940557
 10
-983.0071586617
 20
-3.2506653973
 10
-983.007087738
 20
-3.2559306831
 10
-983.0069080716
 20
-3.2605503062
 10
-983.0066542326
 20
-3.2645969901
 10
-983.0063276146
 20
-3.2680524125
 10
-983.0059259171
 20
-3.2709332074
 10
-983.0054783736
 20
-3.2733541655
 10
-983.0049881773
 20
-3.2753082379
 10
-983.0044512806
 20
-3.2767927284
 10
-983.0038864539
 20
-3.2779250203
 10
-983.0032998456
 20
-3.2787405611
 10
-983.0026847465
 20
-3.2791933617
 10
-983.0020408318
 20
-3.2792782095
  0
LINE
  5
47F
100
AcDbEntity
  8
RACCORDO
100
AcDbLine
 62
7
  6
CONTINUOUS
 10
-983.0037545857
 20
-3.1877340693
 11
-983.0052437148
 21
-3.2022886
  0
LWPOLYLINE
  5
480
100
AcDbEntity
  8
RACCORDO
100
AcDbPolyline
 62
7
  6
CONTINUOUS
 90
7
 70
0
 10
-983.0065475635
 20
-4.4866848468
 10
-983.0074025295
 20
-4.4946600157
 10
-983.0079528029
 20
-4.502774256
 10
-983.0082565874
 20
-4.5113824508
 10
-983.0083288019
 20
-4.5206183874
 10
-983.008171794
 20
-4.5305543718
 10
-983.007782327
 20
-4.5412633031
  0
LINE
  5
481
100
AcDbEntity
  8
RACCORDO
100
AcDbLine
 62
7
  6
CONTINUOUS
 10
-983.0025672379
 20
-3.1774991732
 11
-983.0038873134
 21
-3.1889391572
  0
LINE
  5
482
100
AcDbEntity
  8
RACCORDO
100
AcDbLine
 62
253
  6
CONTINUOUS
 10
-982.9864221394
 20
-3.0591758662
 11
-982.9946805822
 21
-3.1194969997
  0
LINE
  5
483
100
AcDbEntity
  8
RACCORDO
100
AcDbLine
 62
253
  6
CONTINUOUS
 10
-982.9669048145
 20
-2.931828383
 11
-982.9771885411
 21
-2.9965892233
  0
LINE
  5
484
100
AcDbEntity
  8
RACCORDO
100
AcDbLine
 62
7
  6
CONTINUOUS
 10
-982.6753891828
 20
-1.7873117034
 11
-982.6758453884
 21
-1.790078965
  0
LINE
  5
485
100
AcDbEntity
  8
RACCORDO
100
AcDbLine
 62
253
  6
CONTINUOUS
 10
-982.9427952973
 20
-2.7953361954
 11
-982.9554782997
 21
-2.864823401
  0
LWPOLYLINE
  5
486
100
AcDbEntity
  8
RACCORDO
100
AcDbPolyline
 62
7
  6
CONTINUOUS
 90
8
 70
0
 10
-982.6758453884
 20
-1.790078965
 10
-982.6761691493
 20
-1.7918160214
 10
-982.6766417941
 20
-1.794204181
 10
-982.6772388797
 20
-1.7970716055
 10
-982.6779416552
 20
-1.8003010068
 10
-982.678744969
 20
-1.8038551756
 10
-982.6796574892
 20
-1.8077617394
 10
-982.6806758201
 20
-1.8119973136
  0
LINE
  5
487
100
AcDbEntity
  8
RACCORDO
100
AcDbLine
 62
253
  6
CONTINUOUS
 10
-982.6781774781
 20
-4.3658902683
 11
-982.6821894257
 21
-4.3870040609
  0
LINE
  5
488
100
AcDbEntity
  8
RACCORDO
100
AcDbLine
 62
253
  6
CONTINUOUS
 10
-982.9132391902
 20
-2.6489687847
 11
-982.9287475508
 21
-2.7233577791
  0
LINE
  5
489
100
AcDbEntity
  8
RACCORDO
100
AcDbLine
 62
253
  6
CONTINUOUS
 10
-982.6821894257
 20
-4.3870040609
 11
-982.6868738465
 21
-4.4066907324
  0
LINE
  5
48A
100
AcDbEntity
  8
RACCORDO
100
AcDbLine
 62
7
  6
CONTINUOUS
 10
-982.6806758201
 20
-1.8119973136
 11
-982.6819975244
 21
-1.8173359184
  0
LWPOLYLINE
  5
48B
100
AcDbEntity
  8
RACCORDO
100
AcDbPolyline
 62
253
  6
CONTINUOUS
 90
3
 70
0
 10
-982.856890797
 20
-2.4110909913
 10
-982.8774252757
 20
-2.4927774439
 10
-982.8961653029
 20
-2.5720745735
  0
LINE
  5
48C
100
AcDbEntity
  8
RACCORDO
100
AcDbLine
 62
7
  6
CONTINUOUS
 10
-982.6818004104
 20
-1.8165581675
 11
-982.6832505515
 21
-1.8222965867
  0
LINE
  5
48D
100
AcDbEntity
  8
RACCORDO
100
AcDbLine
 62
7
  6
CONTINUOUS
 10
-982.6830309999
 20
-1.821439892
 11
-982.6857931477
 21
-1.8320963269
  0
LINE
  5
48E
100
AcDbEntity
  8
RACCORDO
100
AcDbLine
 62
7
  6
CONTINUOUS
 10
-982.6846030077
 20
-1.8275514673
 11
-982.6876031484
 21
-1.8389126772
  0
LWPOLYLINE
  5
48F
100
AcDbEntity
  8
RACCORDO
100
AcDbPolyline
 62
253
  6
CONTINUOUS
 90
6
 70
0
 10
-982.6822052039
 20
-1.8218109297
 10
-982.6868846639
 20
-1.8392428314
 10
-982.6922302291
 20
-1.8584588056
 10
-982.6982131634
 20
-1.8793766064
 10
-982.7047475472
 20
-1.9016589364
 10
-982.7078793439
 20
-1.9100833203
  0
LINE
  5
490
100
AcDbEntity
  8
RACCORDO
100
AcDbLine
 62
7
  6
CONTINUOUS
 10
-982.6873238205
 20
-1.8378629697
 11
-982.6910010136
 21
-1.8514014798
  0
LINE
  5
491
100
AcDbEntity
  8
RACCORDO
100
AcDbLine
 62
7
  6
CONTINUOUS
 10
-982.6906767643
 20
-1.8502233217
 11
-982.6947901197
 21
-1.8649805503
  0
LINE
  5
492
100
AcDbEntity
  8
RACCORDO
100
AcDbLine
 62
7
  6
CONTINUOUS
 10
-982.6944165297
 20
-1.8636600488
 11
-982.698959034
 21
-1.8796102709
  0
LINE
  5
493
100
AcDbEntity
  8
RACCORDO
100
AcDbLine
 62
7
  6
CONTINUOUS
 10
-982.6985390816
 20
-1.878148085
 11
-982.7034969836
 21
-1.8952391683
  0
LWPOLYLINE
  5
494
100
AcDbEntity
  8
RACCORDO
100
AcDbPolyline
 62
253
  6
CONTINUOUS
 90
10
 70
0
 10
-982.6868738465
 20
-4.4066907324
 10
-982.6922376206
 20
-4.4249476158
 10
-982.6982477168
 20
-4.4416920555
 10
-982.7048144993
 20
-4.4564775386
 10
-982.7119349837
 20
-4.4692952888
 10
-982.7195795859
 20
-4.4801383092
 10
-982.7276216734
 20
-4.488617794
 10
-982.7360096074
 20
-4.4946390767
 10
-982.7447629832
 20
-4.4983719661
 10
-982.7538639126
 20
-4.4998586844
  0
LINE
  5
495
100
AcDbEntity
  8
RACCORDO
100
AcDbLine
 62
7
  6
CONTINUOUS
 10
-982.7030300325
 20
-1.8936383817
 11
-982.708395665
 21
-1.9118196501
  0
LWPOLYLINE
  5
496
100
AcDbEntity
  8
RACCORDO
100
AcDbPolyline
 62
253
  6
CONTINUOUS
 90
3
 70
0
 10
-982.7109778781
 20
-1.9204547393
 10
-982.7118179623
 20
-1.9252693743
 10
-982.7136457187
 20
-1.9293090755
  0
LWPOLYLINE
  5
497
100
AcDbEntity
  8
RACCORDO
100
AcDbPolyline
 62
253
  6
CONTINUOUS
 90
3
 70
0
 10
-982.7830225408
 20
-2.1504715888
 10
-982.8098229845
 20
-2.2398648332
 10
-982.8344044838
 20
-2.3267951577
  0
LINE
  5
498
100
AcDbEntity
  8
RACCORDO
100
AcDbLine
 62
7
  6
CONTINUOUS
 10
-982.7078793439
 20
-1.9100833203
 11
-982.7158037897
 21
-1.9364324231
  0
LWPOLYLINE
  5
499
100
AcDbEntity
  8
RACCORDO
100
AcDbPolyline
 62
253
  6
CONTINUOUS
 90
3
 70
0
 10
-982.7163966857
 20
-1.9383747902
 10
-982.7194079892
 20
-1.9501730952
 10
-982.7214978143
 20
-1.9550335336
  0
LINE
  5
49A
100
AcDbEntity
  8
RACCORDO
100
AcDbLine
 62
7
  6
CONTINUOUS
 10
-982.7136457187
 20
-1.9293090755
 11
-982.7221381356
 21
-1.9571073293
  0
LWPOLYLINE
  5
49B
100
AcDbEntity
  8
RACCORDO
100
AcDbPolyline
 62
253
  6
CONTINUOUS
 90
3
 70
0
 10
-982.7251254994
 20
-1.9667619471
 10
-982.7274317864
 20
-1.976024938
 10
-982.7306101286
 20
-1.9843356989
  0
LWPOLYLINE
  5
49C
100
AcDbEntity
  8
RACCORDO
100
AcDbPolyline
 62
253
  6
CONTINUOUS
 90
5
 70
0
 10
-982.6702140077
 20
-1.7535554819
 10
-982.6740739743
 20
-1.7658831553
 10
-982.6763147886
 20
-1.778606387
 10
-982.6768990448
 20
-1.7915127885
 10
-982.6766639098
 20
-1.794310389
  0
LINE
  5
49D
100
AcDbEntity
  8
RACCORDO
100
AcDbLine
 62
7
  6
CONTINUOUS
 10
-982.7214978143
 20
-1.9550335336
 11
-982.7313227125
 21
-1.9866074184
  0
LWPOLYLINE
  5
49E
100
AcDbEntity
  8
RACCORDO
100
AcDbPolyline
 62
253
  6
CONTINUOUS
 90
3
 70
0
 10
-982.7345289257
 20
-1.9967844932
 10
-982.7358499322
 20
-2.0026903258
 10
-982.7403555555
 20
-2.0151283984
  0
LWPOLYLINE
  5
49F
100
AcDbEntity
  8
RACCORDO
100
AcDbPolyline
 62
7
  6
CONTINUOUS
 90
10
 70
0
 10
-982.7543684863
 20
-2.0585330035
 10
-982.7859834527
 20
-2.1583651835
 10
-982.8237726016
 20
-2.2866430324
 10
-982.8586440731
 20
-2.4157429036
 10
-982.8905800085
 20
-2.545597954
 10
-982.9195648793
 20
-2.6761448727
 10
-982.9455841411
 20
-2.807317701
 10
-982.9686239446
 20
-2.9390487485
 10
-982.9886725112
 20
-3.0712713201
 10
-983.0025678038
 20
-3.177499157
  0
LINE
  5
4A0
100
AcDbEntity
  8
RACCORDO
100
AcDbLine
 62
7
  6
CONTINUOUS
 10
-982.7306101286
 20
-1.9843356989
 11
-982.7411435335
 21
-2.017601519
  0
LINE
  5
4A1
100
AcDbEntity
  8
RACCORDO
100
AcDbLine
 62
253
  6
CONTINUOUS
 10
-982.74373339
 20
-2.0256831205
 11
-982.7446670838
 21
-2.0302526755
  0
LWPOLYLINE
  5
4A2
100
AcDbEntity
  8
RACCORDO
100
AcDbPolyline
 62
7
  6
CONTINUOUS
 90
3
 70
0
 10
-982.7403555555
 20
-2.0151283984
 10
-982.7506650436
 20
-2.0471644965
 10
-982.7543651509
 20
-2.0585340921
  0
LWPOLYLINE
  5
4A3
100
AcDbEntity
  8
RACCORDO
100
AcDbPolyline
 62
7
  6
CONTINUOUS
 90
6
 70
0
 10
-982.6930577002
 20
-4.3826610387
 10
-982.6959413112
 20
-4.3912255407
 10
-982.6985903768
 20
-4.3979464062
 10
-982.7008048337
 20
-4.4027615385
 10
-982.7024232757
 20
-4.4057856089
 10
-982.7026646669
 20
-4.4061942602
  0
LWPOLYLINE
  5
4A4
100
AcDbEntity
  8
RACCORDO
100
AcDbPolyline
 62
7
  6
CONTINUOUS
 90
13
 70
0
 10
-983.0010997624
 20
-3.3171749565
 10
-982.9977955668
 20
-3.3260260537
 10
-982.9934691777
 20
-3.3350956282
 10
-982.9882261101
 20
-3.3438528252
 10
-982.9821703433
 20
-3.3520454344
 10
-982.9751901151
 20
-3.3597553591
 10
-982.9672163178
 20
-3.3669251499
 10
-982.9582817276
 20
-3.3733857693
 10
-982.9484061606
 20
-3.3789913686
 10
-982.9375017286
 20
-3.3836293432
 10
-982.9255958077
 20
-3.3870877905
 10
-982.9128635158
 20
-3.3891164395
 10
-982.9032940395
 20
-3.3895683629
  0
LWPOLYLINE
  5
4A5
100
AcDbEntity
  8
RACCORDO
100
AcDbPolyline
 62
7
  6
CONTINUOUS
 90
11
 70
0
 10
-982.6961789083
 20
-3.3872664033
 10
-982.6933260841
 20
-3.3956212568
 10
-982.6903588303
 20
-3.4058335224
 10
-982.6873966319
 20
-3.4179347055
 10
-982.6845777388
 20
-3.4317965247
 10
-982.6819972441
 20
-3.4473756047
 10
-982.6797500598
 20
-3.464607959
 10
-982.6779365005
 20
-3.483284242
 10
-982.6766225331
 20
-3.5032573813
 10
-982.6758656551
 20
-3.5243769057
 10
-982.6757251817
 20
-3.5463773925
  0
LINE
  5
4A6
100
AcDbEntity
  8
RACCORDO
100
AcDbLine
 62
7
  6
CONTINUOUS
 10
-982.7543651329
 20
-5.7206027936
 11
-982.7445455383
 21
-5.7509179938
  0
LINE
  5
4A7
100
AcDbEntity
  8
RACCORDO
100
AcDbLine
 62
253
  6
CONTINUOUS
 10
-982.744606601
 20
-5.7490800944
 11
-982.7445455383
 21
-5.7509179938
  0
LINE
  5
4A8
100
AcDbEntity
  8
RACCORDO
100
AcDbLine
 62
253
  6
CONTINUOUS
 10
-982.7411410299
 20
-5.7615432107
 11
-982.7357467294
 21
-5.776778266
  0
LINE
  5
4A9
100
AcDbEntity
  8
RACCORDO
100
AcDbLine
 62
7
  6
CONTINUOUS
 10
-982.7445455383
 20
-5.7509179938
 11
-982.734524163
 21
-5.7823674749
  0
LWPOLYLINE
  5
4AA
100
AcDbEntity
  8
RACCORDO
100
AcDbPolyline
 62
253
  6
CONTINUOUS
 90
5
 70
0
 10
-982.6702213917
 20
-6.0255842678
 10
-982.6740802283
 20
-6.0132566467
 10
-982.6763199743
 20
-6.0005336547
 10
-982.6769032467
 20
-5.9876276465
 10
-982.676665882
 20
-5.984805927
  0
LINE
  5
4AB
100
AcDbEntity
  8
RACCORDO
100
AcDbLine
 62
7
  6
CONTINUOUS
 10
-982.734524163
 20
-5.7823674749
 11
-982.725116808
 21
-5.8124029497
  0
LINE
  5
4AC
100
AcDbEntity
  8
RACCORDO
100
AcDbLine
 62
7
  6
CONTINUOUS
 10
-982.725116808
 20
-5.8124029497
 11
-982.7163839835
 21
-5.8408038224
  0
LWPOLYLINE
  5
4AD
100
AcDbEntity
  8
RACCORDO
100
AcDbPolyline
 62
253
  6
CONTINUOUS
 90
6
 70
0
 10
-982.7058844621
 20
-5.87578228
 10
-982.7046663619
 20
-5.8777520386
 10
-982.6981477734
 20
-5.8999857299
 10
-982.6921804889
 20
-5.920854057
 10
-982.6868486835
 20
-5.9400256372
 10
-982.6821803095
 20
-5.9574211656
  0
LINE
  5
4AE
100
AcDbEntity
  8
RACCORDO
100
AcDbLine
 62
7
  6
CONTINUOUS
 10
-982.7163839835
 20
-5.8408038224
 11
-982.708379497
 21
-5.8673715254
  0
LINE
  5
4AF
100
AcDbEntity
  8
RACCORDO
100
AcDbLine
 62
7
  6
CONTINUOUS
 10
-982.708379497
 20
-5.8673715254
 11
-982.7034790676
 21
-5.8839588891
  0
LINE
  5
4B0
100
AcDbEntity
  8
RACCORDO
100
AcDbLine
 62
7
  6
CONTINUOUS
 10
-982.7034790676
 20
-5.8839588891
 11
-982.6989399585
 21
-5.8995929344
  0
LINE
  5
4B1
100
AcDbEntity
  8
RACCORDO
100
AcDbLine
 62
7
  6
CONTINUOUS
 10
-982.6989399585
 20
-5.8995929344
 11
-982.6947705264
 21
-5.9142257974
  0
LWPOLYLINE
  5
4B2
100
AcDbEntity
  8
RACCORDO
100
AcDbPolyline
 62
253
  6
CONTINUOUS
 90
3
 70
0
 10
-982.8341644851
 20
-5.4532150733
 10
-982.8096205841
 20
-5.5399723777
 10
-982.7828983507
 20
-5.6290743501
  0
LINE
  5
4B3
100
AcDbEntity
  8
RACCORDO
100
AcDbLine
 62
7
  6
CONTINUOUS
 10
-982.6947705264
 20
-5.9142257974
 11
-982.6909816596
 21
-5.9278056217
  0
LINE
  5
4B4
100
AcDbEntity
  8
RACCORDO
100
AcDbLine
 62
7
  6
CONTINUOUS
 10
-982.6909816596
 20
-5.9278056217
 11
-982.6875847726
 21
-5.9402927442
  0
LWPOLYLINE
  5
4B5
100
AcDbEntity
  8
RACCORDO
100
AcDbPolyline
 62
7
  6
CONTINUOUS
 90
4
 70
0
 10
-982.6875847726
 20
-5.9402927442
 10
-982.6845862721
 20
-5.9516498873
 10
-982.683234859
 20
-5.9569018526
 10
-982.6819830043
 20
-5.9618590434
  0
LWPOLYLINE
  5
4B6
100
AcDbEntity
  8
RACCORDO
100
AcDbPolyline
 62
253
  6
CONTINUOUS
 90
9
 70
0
 10
-982.6821803095
 20
-5.9574211656
 10
-982.6781729517
 20
-5.9730517758
 10
-982.674864603
 20
-5.9867386213
 10
-982.6722687213
 20
-5.9984395911
 10
-982.6703871802
 20
-6.0081423951
 10
-982.6692382904
 20
-6.0157322618
 10
-982.6688295496
 20
-6.0211645122
 10
-982.6691575448
 20
-6.0244535522
 10
-982.6702214182
 20
-6.0255842781
  0
LWPOLYLINE
  5
4B7
100
AcDbEntity
  8
RACCORDO
100
AcDbPolyline
 62
7
  6
CONTINUOUS
 90
10
 70
0
 10
-982.6819830043
 20
-5.9618590434
 10
-982.6808365025
 20
-5.9664930099
 10
-982.6797955393
 20
-5.9708012938
 10
-982.6788607841
 20
-5.9747787872
 10
-982.6780388767
 20
-5.9783908446
 10
-982.6773245911
 20
-5.9816503426
 10
-982.676719667
 20
-5.9845357261
 10
-982.6762361466
 20
-5.986964799
 10
-982.6758594416
 20
-5.9889768202
 10
-982.6757807468
 20
-5.9894169105
  0
LINE
  5
4B8
100
AcDbEntity
  8
RACCORDO
100
AcDbLine
 62
253
  6
CONTINUOUS
 10
-982.6868052617
 20
-3.3727064876
 11
-982.6821325321
 21
-3.3923946454
  0
LWPOLYLINE
  5
4B9
100
AcDbEntity
  8
RACCORDO
100
AcDbPolyline
 62
253
  6
CONTINUOUS
 90
3
 70
0
 10
-982.8960074633
 20
-5.2077510321
 10
-982.8772351416
 20
-5.2871357459
 10
-982.8566608665
 20
-5.3689290665
  0
LWPOLYLINE
  5
4BA
100
AcDbEntity
  8
RACCORDO
100
AcDbPolyline
 62
7
  6
CONTINUOUS
 90
3
 70
0
 10
-983.0052893544
 20
-3.300528642
 10
-983.003521454
 20
-3.3087384197
 10
-983.0010997624
 20
-3.3171749565
  0
LINE
  5
4BB
100
AcDbEntity
  8
RACCORDO
100
AcDbLine
 62
253
  6
CONTINUOUS
 10
-982.9286123679
 20
-5.0564497625
 11
-982.9130951038
 21
-5.1308386456
  0
LINE
  5
4BC
100
AcDbEntity
  8
RACCORDO
100
AcDbLine
 62
253
  6
CONTINUOUS
 10
-982.6821325321
 20
-3.3923946454
 11
-982.678133917
 21
-3.4134986391
  0
LINE
  5
4BD
100
AcDbEntity
  8
RACCORDO
100
AcDbLine
 62
253
  6
CONTINUOUS
 10
-982.9553566986
 20
-4.9150074503
 11
-982.9426684891
 21
-4.9844722764
  0
LINE
  5
4BE
100
AcDbEntity
  8
RACCORDO
100
AcDbLine
 62
253
  6
CONTINUOUS
 10
-982.9770870282
 20
-4.7832103156
 11
-982.9667881723
 21
-4.8480252221
  0
LWPOLYLINE
  5
4BF
100
AcDbEntity
  8
RACCORDO
100
AcDbPolyline
 62
253
  6
CONTINUOUS
 90
7
 70
0
 10
-982.678133917
 20
-3.4134986391
 10
-982.6748355652
 20
-3.4356650857
 10
-982.672248087
 20
-3.4588237808
 10
-982.6703761594
 20
-3.4829257973
 10
-982.6692345176
 20
-3.5076331835
 10
-982.6688294441
 20
-3.5327855975
 10
-982.669158697
 20
-3.5584055044
  0
LINE
  5
4C0
100
AcDbEntity
  8
RACCORDO
100
AcDbLine
 62
253
  6
CONTINUOUS
 10
-982.9946404026
 20
-4.6599267706
 11
-982.9863477558
 21
-4.7204704152
  0
LWPOLYLINE
  5
4C1
100
AcDbEntity
  8
RACCORDO
100
AcDbPolyline
 62
7
  6
CONTINUOUS
 90
10
 70
0
 10
-983.0025677912
 20
-4.6016377929
 10
-982.9890040444
 20
-4.7054948862
 10
-982.9690085741
 20
-4.8377289586
 10
-982.9460217284
 20
-4.9694715338
 10
-982.9200553552
 20
-5.1006559111
 10
-982.8911233553
 20
-5.2312143327
 10
-982.8592402512
 20
-5.3610811911
 10
-982.8244215416
 20
-5.4901933205
 10
-982.7866854054
 20
-5.6184831879
 10
-982.7543685142
 20
-5.7206038974
  0
LINE
  5
4C2
100
AcDbEntity
  8
RACCORDO
100
AcDbLine
 62
7
  6
CONTINUOUS
 10
-983.0038873134
 20
-4.5901977368
 11
-983.0025672379
 21
-4.6016377208
  0
LINE
  5
4C3
100
AcDbEntity
  8
0
100
AcDbLine
 62
253
  6
CONTINUOUS
 10
-960.0558340964
 20
43.610431553
 11
-960.0558340964
 21
-51.389568447
  0
LINE
  5
4C4
100
AcDbEntity
  8
0
100
AcDbLine
 62
7
  6
CONTINUOUS
 10
-957.0766493766
 20
46.610431553
 11
-957.0766493766
 21
44.110431553
  0
LINE
  5
4C5
100
AcDbEntity
  8
0
100
AcDbLine
 62
7
  6
CONTINUOUS
 10
-956.5766493766
 20
47.110431553
 11
-956.5766493766
 21
56.810431553
  0
LINE
  5
4C6
100
AcDbEntity
  8
0
100
AcDbLine
 62
253
  6
CONTINUOUS
 10
-954.3989798469
 20
10.610431553
 11
-954.3989798469
 21
-51.389568447
  0
LINE
  5
4C7
100
AcDbEntity
  8
0
100
AcDbLine
 62
7
  6
CONTINUOUS
 10
-954.3989798469
 20
-51.389568447
 11
-954.3989798469
 21
-54.389568447
  0
LINE
  5
4C8
100
AcDbEntity
  8
0
100
AcDbLine
 62
7
  6
CONTINUOUS
 10
-954.3989798469
 20
10.610431553
 11
-954.3989798469
 21
43.610431553
  0
LINE
  5
4C9
100
AcDbEntity
  8
0
100
AcDbLine
 62
7
  6
CONTINUOUS
 10
-954.0766493766
 20
47.110431553
 11
-954.0766493766
 21
56.810431553
  0
LWPOLYLINE
  5
4CA
100
AcDbEntity
  8
RACCORDO
100
AcDbPolyline
 62
7
  6
CONTINUOUS
 90
11
 70
0
 10
-982.9936775017
 20
-3.3347050721
 10
-982.988530156
 20
-3.343393971
 10
-982.9825841686
 20
-3.3515358841
 10
-982.9757286479
 20
-3.3592134772
 10
-982.9678955657
 20
-3.366370923
 10
-982.9591158184
 20
-3.3728430445
 10
-982.9494054702
 20
-3.3784890194
 10
-982.9386741082
 20
-3.3832017295
 10
-982.9269438032
 20
-3.3867746675
 10
-982.9143814547
 20
-3.3889612371
 10
-982.9032984513
 20
-3.3895682318
  0
LINE
  5
4CB
100
AcDbEntity
  8
0
100
AcDbLine
 62
7
  6
CONTINUOUS
 10
-910.3989798469
 20
46.610431553
 11
-910.3989798469
 21
56.810431553
  0
LWPOLYLINE
  5
4CC
100
AcDbEntity
  8
RACCORDO
100
AcDbPolyline
 62
7
  6
CONTINUOUS
 90
7
 70
0
 10
-982.7019849464
 20
-3.3734151354
 10
-982.7031502629
 20
-3.372115604
 10
-982.7033229931
 20
-3.3719057468
 10
-982.7025161741
 20
-3.3731913677
 10
-982.7009560467
 20
-3.3760730898
 10
-982.6987888757
 20
-3.380728771
 10
-982.6961789083
 20
-3.3872664033
  0
LWPOLYLINE
  5
4CD
100
AcDbEntity
  8
RACCORDO
100
AcDbPolyline
 62
253
  6
CONTINUOUS
 90
9
 70
0
 10
-982.6702214182
 20
-1.7535526158
 10
-982.6691546669
 20
-1.7546646569
 10
-982.6688255142
 20
-1.7579432935
 10
-982.6692348225
 20
-1.7633746454
 10
-982.6703859761
 20
-1.7709770233
 10
-982.6722714893
 20
-1.7807044963
 10
-982.6748731043
 20
-1.7924341854
 10
-982.6781888048
 20
-1.8061492514
 10
-982.6822052039
 20
-1.8218109297
  0
LINE
  5
4CE
100
AcDbEntity
  8
0
100
AcDbLine
 62
7
  6
CONTINUOUS
 10
-866.111646625
 20
38.610431553
 11
-866.111646625
 21
36.110431553
  0
LINE
  5
4CF
100
AcDbEntity
  8
0
100
AcDbLine
 62
7
  6
CONTINUOUS
 10
-866.111646625
 20
-43.889568447
 11
-866.111646625
 21
-46.389568447
  0
LINE
  5
4D0
100
AcDbEntity
  8
0
100
AcDbLine
 62
7
  6
CONTINUOUS
 10
-864.111646625
 20
-46.389568447
 11
-864.111646625
 21
-44.389568447
  0
LINE
  5
4D1
100
AcDbEntity
  8
0
100
AcDbLine
 62
7
  6
CONTINUOUS
 10
-864.111646625
 20
-46.389568447
 11
-864.111646625
 21
-54.389568447
  0
LINE
  5
4D2
100
AcDbEntity
  8
0
100
AcDbLine
 62
7
  6
CONTINUOUS
 10
-864.111646625
 20
38.610431553
 11
-864.111646625
 21
56.810431553
  0
LINE
  5
4D3
100
AcDbEntity
  8
0
100
AcDbLine
 62
253
  6
CONTINUOUS
 10
-863.0766493766
 20
36.110431553
 11
-863.0766493766
 21
-43.889568447
  0
LINE
  5
4D4
100
AcDbEntity
  8
0
100
AcDbLine
 62
253
  6
CONTINUOUS
 10
-860.6407421291
 20
36.110431553
 11
-860.6407421291
 21
-43.889568447
  0
LINE
  5
4D5
100
AcDbEntity
  8
0
100
AcDbLine
 62
253
  6
CONTINUOUS
 10
-859.685484385
 20
36.110431553
 11
-859.685484385
 21
-43.889568447
  0
LINE
  5
4D6
100
AcDbEntity
  8
0
100
AcDbLine
 62
7
  6
CONTINUOUS
 10
-858.5766493766
 20
46.110431553
 11
-858.5766493766
 21
-53.889568447
  0
LWPOLYLINE
  5
4D7
100
AcDbEntity
  8
RACCORDO
100
AcDbPolyline
 62
253
  6
CONTINUOUS
 90
22
 70
0
 10
-852.686939614
 20
-4.601573724
 10
-852.6874523747
 20
-4.5919085979
 10
-852.6887629349
 20
-4.5825772714
 10
-852.6908718736
 20
-4.5735665468
 10
-852.6938821807
 20
-4.5647439266
 10
-852.6976926109
 20
-4.5562077997
 10
-852.7020130954
 20
-4.5482925786
 10
-852.706879619
 20
-4.5410737242
 10
-852.7122936526
 20
-4.5344428382
 10
-852.7179299087
 20
-4.5284714967
 10
-852.7237756498
 20
-4.5232062108
 10
-852.7298809586
 20
-4.5185865878
 10
-852.7360138055
 20
-4.5145399038
 10
-852.7421544126
 20
-4.5110844814
 10
-852.7483469777
 20
-4.5082036866
 10
-852.7544489318
 20
-4.5057827284
 10
-852.7604338011
 20
-4.5038286561
 10
-852.7663405002
 20
-4.5023441655
 10
-852.7721190606
 20
-4.5012118736
 10
-852.777753807
 20
-4.5003963328
 10
-852.7832651091
 20
-4.4999435322
 10
-852.7886546536
 20
-4.4998586844
  0
LWPOLYLINE
  5
4D8
100
AcDbEntity
  8
RACCORDO
100
AcDbPolyline
 62
253
  6
CONTINUOUS
 90
22
 70
0
 10
-851.4663591391
 20
-3.1775631699
 10
-851.4658463784
 20
-3.187228296
 10
-851.4645358182
 20
-3.1965596225
 10
-851.4624268796
 20
-3.2055703472
 10
-851.4594165724
 20
-3.2143929673
 10
-851.4556061422
 20
-3.2229290942
 10
-851.4512856578
 20
-3.2308443154
 10
-851.4464191341
 20
-3.2380631698
 10
-851.4410051006
 20
-3.2446940557
 10
-851.4353688444
 20
-3.2506653973
 10
-851.4295231033
 20
-3.2559306831
 10
-851.4234177945
 20
-3.2605503062
 10
-851.4172849476
 20
-3.2645969901
 10
-851.4111443405
 20
-3.2680524125
 10
-851.4049517754
 20
-3.2709332074
 10
-851.3988498213
 20
-3.2733541655
 10
-851.392864952
 20
-3.2753082379
 10
-851.3869582529
 20
-3.2767927284
 10
-851.3811796925
 20
-3.2779250203
 10
-851.3755449461
 20
-3.2787405611
 10
-851.370033644
 20
-3.2791933617
 10
-851.3646440995
 20
-3.2792782095
  0
LWPOLYLINE
  5
4D9
100
AcDbEntity
  8
RACCORDO
100
AcDbPolyline
 62
253
  6
CONTINUOUS
 90
16
 70
0
 10
-852.3817940862
 20
-6.0255814121
 10
-852.3820072389
 20
-6.0132537387
 10
-852.3821309637
 20
-6.000530507
 10
-852.3821631949
 20
-5.9876241054
 10
-852.3821033942
 20
-5.9747499802
 10
-852.3819525594
 20
-5.9621230385
 10
-852.381713208
 20
-5.9499540616
 10
-852.3813893351
 20
-5.9384461856
 10
-852.3809863467
 20
-5.9277915112
 10
-852.3805109693
 20
-5.9181678965
 10
-852.379971138
 20
-5.9097359882
 10
-852.3793758636
 20
-5.9026365398
 10
-852.3787350825
 20
-5.8969880622
 10
-852.3780594908
 20
-5.8928848453
 10
-852.3773603656
 20
-5.8903953839
 10
-852.3766493768
 20
-5.8895612345
  0
LWPOLYLINE
  5
4DA
100
AcDbEntity
  8
RACCORDO
100
AcDbPolyline
 62
253
  6
CONTINUOUS
 90
16
 70
0
 10
-851.7715046669
 20
-1.7535554819
 10
-851.7712915142
 20
-1.7658831553
 10
-851.7711677894
 20
-1.778606387
 10
-851.7711355582
 20
-1.7915127885
 10
-851.7711953589
 20
-1.8043869138
 10
-851.7713461937
 20
-1.8170138554
 10
-851.7715855451
 20
-1.8291828324
 10
-851.771909418
 20
-1.8406907083
 10
-851.7723124064
 20
-1.8513453827
 10
-851.7727877838
 20
-1.8609689974
 10
-851.7733276151
 20
-1.8694009058
 10
-851.7739228895
 20
-1.8765003542
 10
-851.7745636706
 20
-1.8821488318
 10
-851.7752392623
 20
-1.8862520487
 10
-851.7759383875
 20
-1.8887415101
 10
-851.7766493763
 20
-1.8895756594
  0
LWPOLYLINE
  5
4DB
100
AcDbEntity
  8
RACCORDO
100
AcDbPolyline
 62
253
  6
CONTINUOUS
 90
13
 70
0
 10
-853.907518771
 20
-4.4998582448
 10
-853.9076633489
 20
-4.4859279597
 10
-853.9072053829
 20
-4.4720682195
 10
-853.9061537705
 20
-4.4585482939
 10
-853.9045289427
 20
-4.4456308511
 10
-853.9023624671
 20
-4.4335668537
 10
-853.8996964345
 20
-4.4225906836
 10
-853.8965826412
 20
-4.4129155881
 10
-853.8930815828
 20
-4.4047295369
 10
-853.8892612785
 20
-4.3981915705
 10
-853.8851959503
 20
-4.3934287097
 10
-853.8809645802
 20
-4.3905334884
 10
-853.8766493763
 20
-4.3895621556
  0
LWPOLYLINE
  5
4DC
100
AcDbEntity
  8
RACCORDO
100
AcDbPolyline
 62
253
  6
CONTINUOUS
 90
13
 70
0
 10
-850.2457799821
 20
-3.2792786492
 10
-850.2456354042
 20
-3.2932089342
 10
-850.2460933702
 20
-3.3070686745
 10
-850.2471449826
 20
-3.3205886
 10
-850.2487698104
 20
-3.3335060428
 10
-850.250936286
 20
-3.3455700402
 10
-850.2536023186
 20
-3.3565462103
 10
-850.2567161119
 20
-3.3662213059
 10
-850.2602171704
 20
-3.374407357
 10
-850.2640374746
 20
-3.3809453235
 10
-850.2681028028
 20
-3.3857081843
 10
-850.2723341729
 20
-3.3886034055
 10
-850.2766493768
 20
-3.3895747383
  0
LWPOLYLINE
  5
4DD
100
AcDbEntity
  8
RACCORDO
100
AcDbPolyline
 62
253
  6
CONTINUOUS
 90
13
 70
0
 10
-852.7886546513
 20
-4.4998586825
 10
-852.7887107248
 20
-4.485928726
 10
-852.788532495
 20
-4.4720694745
 10
-852.7881234243
 20
-4.4585501573
 10
-852.7874914592
 20
-4.4456334
 10
-852.7866488763
 20
-4.4335701228
 10
-852.7856120435
 20
-4.4225946665
 10
-852.7844011023
 20
-4.4129202397
 10
-852.7830395764
 20
-4.4047347774
 10
-852.7815539147
 20
-4.39819729
 10
-852.7799729777
 20
-4.3934347745
 10
-852.7783274765
 20
-4.3905397473
 10
-852.7766493766
 20
-4.389568447
  0
LWPOLYLINE
  5
4DE
100
AcDbEntity
  8
RACCORDO
100
AcDbPolyline
 62
253
  6
CONTINUOUS
 90
13
 70
0
 10
-851.3646441018
 20
-3.2792782115
 10
-851.3645880284
 20
-3.293208168
 10
-851.3647662581
 20
-3.3070674194
 10
-851.3651753289
 20
-3.3205867366
 10
-851.3658072939
 20
-3.333503494
 10
-851.3666498769
 20
-3.3455667712
 10
-851.3676867097
 20
-3.3565422275
 10
-851.3688976508
 20
-3.3662166543
 10
-851.3702591767
 20
-3.3744021165
 10
-851.3717448384
 20
-3.3809396039
 10
-851.3733257754
 20
-3.3857021194
 10
-851.3749712766
 20
-3.3885971466
 10
-851.3766493766
 20
-3.389568447
  0
LINE
  5
4DF
100
AcDbEntity
  8
RACCORDO
100
AcDbLine
 62
253
  6
CONTINUOUS
 10
-854.2126652077
 20
-4.1947135657
 11
-854.2126652077
 21
-3.5844233282
  0
LINE
  5
4E0
100
AcDbEntity
  8
RACCORDO
100
AcDbLine
 62
7
  6
CONTINUOUS
 10
-854.0766493766
 20
-4.189568447
 11
-854.0766493766
 21
-3.589568447
  0
LINE
  5
4E1
100
AcDbEntity
  8
RACCORDO
100
AcDbLine
 62
7
  6
CONTINUOUS
 10
-852.5766493766
 20
-5.689568447
 11
-852.5766493766
 21
-4.589568447
  0
LINE
  5
4E2
100
AcDbEntity
  8
RACCORDO
100
AcDbLine
 62
7
  6
CONTINUOUS
 10
-852.5766493766
 20
-3.189568447
 11
-852.5766493766
 21
-2.089568447
  0
LINE
  5
4E3
100
AcDbEntity
  8
RACCORDO
100
AcDbLine
 62
7
  6
CONTINUOUS
 10
-851.5766493766
 20
-2.089568447
 11
-851.5766493766
 21
-3.189568447
  0
LINE
  5
4E4
100
AcDbEntity
  8
RACCORDO
100
AcDbLine
 62
7
  6
CONTINUOUS
 10
-851.5766493766
 20
-4.589568447
 11
-851.5766493766
 21
-5.689568447
  0
LINE
  5
4E5
100
AcDbEntity
  8
RACCORDO
100
AcDbLine
 62
7
  6
CONTINUOUS
 10
-850.0766493766
 20
-3.589568447
 11
-850.0766493766
 21
-4.189568447
  0
LINE
  5
4E6
100
AcDbEntity
  8
RACCORDO
100
AcDbLine
 62
253
  6
CONTINUOUS
 10
-849.9406335454
 20
-3.5844233282
 11
-849.9406335454
 21
-4.1947135657
  0
LINE
  5
4E7
100
AcDbEntity
  8
RACCORDO
100
AcDbLine
 62
253
  6
CONTINUOUS
 10
-852.686939614
 20
-3.1775631699
 11
-852.6869396125
 21
-2.3259218206
  0
LINE
  5
4E8
100
AcDbEntity
  8
RACCORDO
100
AcDbLine
 62
253
  6
CONTINUOUS
 10
-852.6870157338
 20
-4.6596398942
 11
-852.686939614
 21
-4.601573724
  0
LINE
  5
4E9
100
AcDbEntity
  8
RACCORDO
100
AcDbLine
 62
253
  6
CONTINUOUS
 10
-851.4662830193
 20
-3.1194969997
 11
-851.4663591391
 21
-3.1775631699
  0
LINE
  5
4EA
100
AcDbEntity
  8
RACCORDO
100
AcDbLine
 62
253
  6
CONTINUOUS
 10
-851.4663591391
 20
-4.601573724
 11
-851.4663591406
 21
-5.4532150733
  0
LWPOLYLINE
  5
4EB
100
AcDbEntity
  8
RACCORDO
100
AcDbPolyline
 62
253
  6
CONTINUOUS
 90
3
 70
0
 10
-852.6869396125
 20
-2.3259218206
 10
-852.686759843
 20
-2.2391645162
 10
-852.686939614
 20
-2.0586977346
  0
LWPOLYLINE
  5
4EC
100
AcDbEntity
  8
RACCORDO
100
AcDbPolyline
 62
253
  6
CONTINUOUS
 90
3
 70
0
 10
-851.4663591406
 20
-5.4532150733
 10
-851.4665389101
 20
-5.5399723777
 10
-851.4663591391
 20
-5.7204391594
  0
LINE
  5
4ED
100
AcDbEntity
  8
RACCORDO
100
AcDbLine
 62
253
  6
CONTINUOUS
 10
-852.686939614
 20
-5.7204391594
 11
-852.6870157338
 21
-4.6596398942
  0
LINE
  5
4EE
100
AcDbEntity
  8
RACCORDO
100
AcDbLine
 62
253
  6
CONTINUOUS
 10
-851.4663591391
 20
-2.0586977346
 11
-851.4662830193
 21
-3.1194969997
  0
LWPOLYLINE
  5
4EF
100
AcDbEntity
  8
RACCORDO
100
AcDbPolyline
 62
253
  6
CONTINUOUS
 90
13
 70
0
 10
-852.7886546533
 20
-3.2792782097
 10
-852.7887107237
 20
-3.2932081439
 10
-852.7885324914
 20
-3.3070673712
 10
-852.7881234187
 20
-3.3205866633
 10
-852.7874914522
 20
-3.3335033955
 10
-852.7866488685
 20
-3.3455666483
 10
-852.7856120354
 20
-3.3565420818
 10
-852.7844010946
 20
-3.3662164883
 10
-852.7830395695
 20
-3.3744019333
 10
-852.7815539091
 20
-3.380939407
 10
-852.7799729737
 20
-3.385701913
 10
-852.7783274744
 20
-3.3885969352
 10
-852.7766493765
 20
-3.3895682352
  0
LWPOLYLINE
  5
4F0
100
AcDbEntity
  8
RACCORDO
100
AcDbPolyline
 62
253
  6
CONTINUOUS
 90
13
 70
0
 10
-851.3646440998
 20
-4.4998586842
 10
-851.3645880294
 20
-4.48592875
 10
-851.3647662617
 20
-4.4720695227
 10
-851.3651753344
 20
-4.4585502306
 10
-851.3658073009
 20
-4.4456334984
 10
-851.3666498847
 20
-4.4335702457
 10
-851.3676867177
 20
-4.4225948121
 10
-851.3688976586
 20
-4.4129204057
 10
-851.3702591836
 20
-4.4047349607
 10
-851.371744844
 20
-4.398197487
 10
-851.3733257794
 20
-4.3934349809
 10
-851.3749712787
 20
-4.3905399587
 10
-851.3766493766
 20
-4.3895686588
  0
LWPOLYLINE
  5
4F1
100
AcDbEntity
  8
RACCORDO
100
AcDbPolyline
 62
253
  6
CONTINUOUS
 90
13
 70
0
 10
-853.9075200723
 20
-3.2792782151
 10
-853.907664261
 20
-3.2932081684
 10
-853.9072059561
 20
-3.3070674167
 10
-853.9061540603
 20
-3.3205867309
 10
-853.904529008
 20
-3.3335034857
 10
-853.9023623671
 20
-3.3455667608
 10
-853.8996962268
 20
-3.3565422158
 10
-853.8965823794
 20
-3.3662166421
 10
-853.8930813143
 20
-3.3744021048
 10
-853.8892610429
 20
-3.3809395936
 10
-853.8851957775
 20
-3.3857021116
 10
-853.8809644898
 20
-3.3885971422
 10
-853.8766493766
 20
-3.389568447
  0
LWPOLYLINE
  5
4F2
100
AcDbEntity
  8
RACCORDO
100
AcDbPolyline
 62
253
  6
CONTINUOUS
 90
13
 70
0
 10
-850.2457786809
 20
-4.4998586789
 10
-850.2456344921
 20
-4.4859287255
 10
-850.2460927971
 20
-4.4720694773
 10
-850.2471446928
 20
-4.458550163
 10
-850.2487697451
 20
-4.4456334082
 10
-850.250936386
 20
-4.4335701331
 10
-850.2536025263
 20
-4.4225946781
 10
-850.2567163737
 20
-4.4129202518
 10
-850.2602174388
 20
-4.4047347891
 10
-850.2640377102
 20
-4.3981973003
 10
-850.2681029756
 20
-4.3934347824
 10
-850.2723342633
 20
-4.3905397517
 10
-850.2766493766
 20
-4.389568447
  0
LWPOLYLINE
  5
4F3
100
AcDbEntity
  8
RACCORDO
100
AcDbPolyline
 62
253
  6
CONTINUOUS
 90
16
 70
0
 10
-852.3817944938
 20
-1.7535526261
 10
-852.3820076425
 20
-1.7658802472
 10
-852.3821313582
 20
-1.7786032392
 10
-852.3821635761
 20
-1.7915092475
 10
-852.3821037585
 20
-1.8043828625
 10
-852.3819529037
 20
-1.8170092156
 10
-852.3817135298
 20
-1.829177565
 10
-852.381389632
 20
-1.8406848133
 10
-852.3809866165
 20
-1.8513388973
 10
-852.3805112096
 20
-1.8609619936
 10
-852.3799713464
 20
-1.8693934867
 10
-852.3793760374
 20
-1.8764926497
 10
-852.3787352186
 20
-1.882140993
 10
-852.3780595855
 20
-1.8862442422
 10
-852.377360415
 20
-1.8887339116
 10
-852.3766493766
 20
-1.889568447
  0
LWPOLYLINE
  5
4F4
100
AcDbEntity
  8
RACCORDO
100
AcDbPolyline
 62
253
  6
CONTINUOUS
 90
16
 70
0
 10
-851.7715042593
 20
-6.0255842678
 10
-851.7712911107
 20
-6.0132566467
 10
-851.7711673949
 20
-6.0005336547
 10
-851.771135177
 20
-5.9876276465
 10
-851.7711949946
 20
-5.9747540314
 10
-851.7713458494
 20
-5.9621276783
 10
-851.7715852233
 20
-5.9499593289
 10
-851.7719091211
 20
-5.9384520806
 10
-851.7723121367
 20
-5.9277979966
 10
-851.7727875435
 20
-5.9181749003
 10
-851.7733274067
 20
-5.9097434072
 10
-851.7739227157
 20
-5.9026442443
 10
-851.7745635345
 20
-5.896995901
 10
-851.7752391676
 20
-5.8928926517
 10
-851.7759383382
 20
-5.8904029823
 10
-851.7766493766
 20
-5.889568447
  0
LWPOLYLINE
  5
4F5
100
AcDbEntity
  8
RACCORDO
100
AcDbPolyline
 62
253
  6
CONTINUOUS
 90
19
 70
0
 10
-854.2126652077
 20
-3.5844233282
 10
-854.2115254804
 20
-3.5583238702
 10
-854.2082296555
 20
-3.5326386857
 10
-854.2027934025
 20
-3.5074376744
 10
-854.1952073237
 20
-3.4827035208
 10
-854.1855124031
 20
-3.4585917539
 10
-854.1738098006
 20
-3.4354256853
 10
-854.1601146194
 20
-3.4132466256
 10
-854.1444648993
 20
-3.3921328331
 10
-854.1270144707
 20
-3.3724461615
 10
-854.107735681
 20
-3.3541892781
 10
-854.0867233916
 20
-3.3374448384
 10
-854.0643331049
 20
-3.3226593553
 10
-854.040567399
 20
-3.3098416051
 10
-854.0154958011
 20
-3.2989985847
 10
-853.989585619
 20
-3.2905191
 10
-853.9630124921
 20
-3.2844978172
 10
-853.9356525818
 20
-3.2807649278
 10
-853.907520089
 20
-3.2792782095
  0
LWPOLYLINE
  5
4F6
100
AcDbEntity
  8
RACCORDO
100
AcDbPolyline
 62
253
  6
CONTINUOUS
 90
19
 70
0
 10
-849.9406335454
 20
-4.1947135657
 10
-849.9417732728
 20
-4.2208130238
 10
-849.9450690976
 20
-4.2464982082
 10
-849.9505053507
 20
-4.2716992195
 10
-849.9580914294
 20
-4.2964333732
 10
-849.96778635
 20
-4.32054514
 10
-849.9794889525
 20
-4.3437112086
 10
-849.9931841338
 20
-4.3658902683
 10
-850.0088338539
 20
-4.3870040609
 10
-850.0262842824
 20
-4.4066907324
 10
-850.0455630721
 20
-4.4249476158
 10
-850.0665753615
 20
-4.4416920555
 10
-850.0889656483
 20
-4.4564775386
 10
-850.1127313541
 20
-4.4692952888
 10
-850.137802952
 20
-4.4801383092
 10
-850.1637131342
 20
-4.488617794
 10
-850.190286261
 20
-4.4946390767
 10
-850.2176461713
 20
-4.4983719661
 10
-850.2457786642
 20
-4.4998586844
  0
LWPOLYLINE
  5
4F7
100
AcDbEntity
  8
RACCORDO
100
AcDbPolyline
 62
253
  6
CONTINUOUS
 90
19
 70
0
 10
-852.686939614
 20
-2.0586977346
 10
-852.6853382807
 20
-2.0300567995
 10
-852.6815083229
 20
-2.002358628
 10
-852.6754133821
 20
-1.9756175567
 10
-852.6668949043
 20
-1.9497697392
 10
-852.6560509546
 20
-1.9249300663
 10
-852.6432581291
 20
-1.9013848554
 10
-852.6285281755
 20
-1.879151164
 10
-852.6118642334
 20
-1.858282837
 10
-852.5936761103
 20
-1.8391112568
 10
-852.5740318256
 20
-1.8217157284
 10
-852.5529446596
 20
-1.8060851181
 10
-852.5307768926
 20
-1.7923982726
 10
-852.5075965642
 20
-1.7806973028
 10
-852.4834541474
 20
-1.7709944989
 10
-852.4587042254
 20
-1.7634046321
 10
-852.4335131688
 20
-1.7579723818
 10
-852.4078532868
 20
-1.7546833417
 10
-852.3817944953
 20
-1.7535526158
  0
LWPOLYLINE
  5
4F8
100
AcDbEntity
  8
RACCORDO
100
AcDbPolyline
 62
253
  6
CONTINUOUS
 90
19
 70
0
 10
-851.4663591391
 20
-5.7204391594
 10
-851.4679604724
 20
-5.7490800944
 10
-851.4717904302
 20
-5.776778266
 10
-851.4778853711
 20
-5.8035193373
 10
-851.4864038488
 20
-5.8293671548
 10
-851.4972477985
 20
-5.8542068277
 10
-851.510040624
 20
-5.8777520386
 10
-851.5247705777
 20
-5.8999857299
 10
-851.5414345197
 20
-5.920854057
 10
-851.5596226428
 20
-5.9400256372
 10
-851.5792669275
 20
-5.9574211656
 10
-851.6003540935
 20
-5.9730517758
 10
-851.6225218606
 20
-5.9867386213
 10
-851.6457021889
 20
-5.9984395911
 10
-851.6698446058
 20
-6.0081423951
 10
-851.6945945277
 20
-6.0157322618
 10
-851.7197855843
 20
-6.0211645122
 10
-851.7454454663
 20
-6.0244535522
 10
-851.7715042578
 20
-6.0255842781
  0
LINE
  5
4F9
100
AcDbEntity
  8
RACCORDO
100
AcDbLine
 62
253
  6
CONTINUOUS
 10
-982.9436380795
 20
-3.3809396039
 11
-982.9306350561
 21
-3.3857021194
  0
LINE
  5
4FA
100
AcDbEntity
  8
RACCORDO
100
AcDbLine
 62
253
  6
CONTINUOUS
 10
-982.7538595192
 20
-5.7204377248
 11
-982.7543651324
 21
-5.7206027935
  0
LINE
  5
4FB
100
AcDbEntity
  8
RACCORDO
100
AcDbLine
 62
253
  6
CONTINUOUS
 10
-982.7538638462
 20
-2.0586977563
 11
-982.7543684863
 21
-2.0585330035
  0
LINE
  5
4FC
100
AcDbEntity
  8
RACCORDO
100
AcDbLine
 62
253
  6
CONTINUOUS
 10
-982.9306350561
 20
-3.3857021194
 11
-982.9171009998
 21
-3.3885971466
  0
LWPOLYLINE
  5
4FD
100
AcDbEntity
  8
RACCORDO
100
AcDbPolyline
 62
253
  6
CONTINUOUS
 90
20
 70
0
 10
-354.1512579213
 20
-3.2792782095
 10
-354.1506154008
 20
-3.2791991503
 10
-354.1500005323
 20
-3.2787466661
 10
-354.1494130057
 20
-3.2779262746
 10
-354.1488452995
 20
-3.2767826708
 10
-354.148304406
 20
-3.2752825172
 10
-354.1478115641
 20
-3.2733132808
 10
-354.1473638269
 20
-3.2708771836
 10
-354.1469632507
 20
-3.2679811097
 10
-354.1466381629
 20
-3.2645150069
 10
-354.1463863366
 20
-3.2604614782
 10
-354.1462090919
 20
-3.2558391477
 10
-354.146139888
 20
-3.2505817717
 10
-354.1461807658
 20
-3.2446328191
 10
-354.1463296186
 20
-3.2380346815
 10
-354.1466140234
 20
-3.2308539203
 10
-354.1470453021
 20
-3.2229938295
 10
-354.147614251
 20
-3.2145188029
 10
-354.1483182842
 20
-3.2057242745
 10
-354.1491579373
 20
-3.1966955179
  0
LINE
  5
4FE
100
AcDbEntity
  8
RACCORDO
100
AcDbLine
 62
253
  6
CONTINUOUS
 10
-354.1512579351
 20
-3.1775631716
 11
-354.1507309627
 21
-3.1774991011
  0
LINE
  5
4FF
100
AcDbEntity
  8
ASSI
100
AcDbLine
 62
7
  6
CONTINUOUS
 10
-965.5977062607
 20
-54.389568447
 11
-965.0762922428
 21
-54.389568447
  0
LINE
  5
500
100
AcDbEntity
  8
0
100
AcDbLine
 62
7
  6
CONTINUOUS
 10
-360.0766493766
 20
-54.389568447
 11
-473.0416521281
 21
-54.389568447
  0
LINE
  5
501
100
AcDbEntity
  8
0
100
AcDbLine
 62
7
  6
CONTINUOUS
 10
-864.111646625
 20
-54.389568447
 11
-965.0762922428
 21
-54.389568447
  0
LINE
  5
502
100
AcDbEntity
  8
0
100
AcDbLine
 62
7
  6
CONTINUOUS
 10
-965.5977062607
 20
-54.389568447
 11
-977.0766493766
 21
-54.389568447
  0
LINE
  5
503
100
AcDbEntity
  8
0
100
AcDbLine
 62
7
  6
CONTINUOUS
 10
-478.5766493766
 20
-53.889568447
 11
-858.5766493766
 21
-53.889568447
  0
LINE
  5
504
100
AcDbEntity
  8
0
100
AcDbLine
 62
7
  6
CONTINUOUS
 10
-360.0766493766
 20
-51.889568447
 11
-371.5555924924
 21
-51.889568447
  0
LINE
  5
505
100
AcDbEntity
  8
0
100
AcDbLine
 62
7
  6
CONTINUOUS
 10
-372.0770065103
 20
-51.889568447
 11
-382.7543189062
 21
-51.889568447
  0
LINE
  5
506
100
AcDbEntity
  8
0
100
AcDbLine
 62
7
  6
CONTINUOUS
 10
-954.3989798469
 20
-51.889568447
 11
-965.0762922428
 21
-51.889568447
  0
LINE
  5
507
100
AcDbEntity
  8
0
100
AcDbLine
 62
7
  6
CONTINUOUS
 10
-965.5977062607
 20
-51.889568447
 11
-977.0766493766
 21
-51.889568447
  0
LINE
  5
508
100
AcDbEntity
  8
0
100
AcDbLine
 62
7
  6
CONTINUOUS
 10
-980.0766493766
 20
-51.389568447
 11
-954.3989798469
 21
-51.389568447
  0
LINE
  5
509
100
AcDbEntity
  8
0
100
AcDbLine
 62
253
  6
CONTINUOUS
 10
-473.0416521281
 20
-51.389568447
 11
-382.7543189062
 21
-51.389568447
  0
LINE
  5
50A
100
AcDbEntity
  8
0
100
AcDbLine
 62
7
  6
CONTINUOUS
 10
-382.7543189062
 20
-51.389568447
 11
-357.0766493766
 21
-51.389568447
  0
LINE
  5
50B
100
AcDbEntity
  8
0
100
AcDbLine
 62
253
  6
CONTINUOUS
 10
-864.111646625
 20
-51.389568447
 11
-954.3989798469
 21
-51.389568447
  0
LINE
  5
50C
100
AcDbEntity
  8
0
100
AcDbLine
 62
253
  6
CONTINUOUS
 10
-478.5766493766
 20
-49.889568447
 11
-858.5766493766
 21
-49.889568447
  0
LINE
  5
50D
100
AcDbEntity
  8
0
100
AcDbLine
 62
7
  6
CONTINUOUS
 10
-471.0416521281
 20
-46.389568447
 11
-473.0416521281
 21
-46.389568447
  0
LINE
  5
50E
100
AcDbEntity
  8
0
100
AcDbLine
 62
7
  6
CONTINUOUS
 10
-864.111646625
 20
-46.389568447
 11
-866.111646625
 21
-46.389568447
  0
LINE
  5
50F
100
AcDbEntity
  8
0
100
AcDbLine
 62
7
  6
CONTINUOUS
 10
-473.0416521281
 20
-44.389568447
 11
-471.0416521281
 21
-44.389568447
  0
LINE
  5
510
100
AcDbEntity
  8
0
100
AcDbLine
 62
7
  6
CONTINUOUS
 10
-864.111646625
 20
-44.389568447
 11
-866.111646625
 21
-44.389568447
  0
LINE
  5
511
100
AcDbEntity
  8
0
100
AcDbLine
 62
7
  6
CONTINUOUS
 10
-471.0416521281
 20
-43.889568447
 11
-478.5766493766
 21
-43.889568447
  0
LINE
  5
512
100
AcDbEntity
  8
0
100
AcDbLine
 62
7
  6
CONTINUOUS
 10
-858.5766493766
 20
-43.889568447
 11
-866.111646625
 21
-43.889568447
  0
LINE
  5
513
100
AcDbEntity
  8
RACCORDO
100
AcDbLine
 62
253
  6
CONTINUOUS
 10
-983.0020407343
 20
-3.1775631818
 11
-983.0025671026
 21
-3.1774992405
  0
LWPOLYLINE
  5
514
100
AcDbEntity
  8
RACCORDO
100
AcDbPolyline
 62
253
  6
CONTINUOUS
 90
10
 70
0
 10
-982.7538639126
 20
-3.2792782095
 10
-982.7447125875
 20
-3.280797263
 10
-982.7359221317
 20
-3.2845637472
 10
-982.7275110607
 20
-3.2906185847
 10
-982.7194652853
 20
-3.2991292096
 10
-982.7118321119
 20
-3.3099999235
 10
-982.7047234887
 20
-3.3228440522
 10
-982.6981634454
 20
-3.3376588754
 10
-982.6921603797
 20
-3.3544315649
 10
-982.6868052617
 20
-3.3727064876
  0
LINE
  5
515
100
AcDbEntity
  8
RACCORDO
100
AcDbLine
 62
253
  6
CONTINUOUS
 10
-354.4830852755
 20
-3.5844237667
 11
-354.4763813632
 21
-3.5840536154
  0
LWPOLYLINE
  5
516
100
AcDbEntity
  8
RACCORDO
100
AcDbPolyline
 62
7
  6
CONTINUOUS
 90
15
 70
0
 10
-354.2500003019
 20
-3.3895682318
 10
-354.2389172984
 20
-3.3889612371
 10
-354.22635495
 20
-3.3867746675
 10
-354.2146246449
 20
-3.3832017295
 10
-354.2038932829
 20
-3.3784890194
 10
-354.1941829347
 20
-3.3728430445
 10
-354.1854031874
 20
-3.366370923
 10
-354.1775701052
 20
-3.3592134772
 10
-354.1707145846
 20
-3.3515358841
 10
-354.1647685971
 20
-3.343393971
 10
-354.1596212515
 20
-3.3347050721
 10
-354.1553726282
 20
-3.3257158978
 10
-354.152125512
 20
-3.316949394
 10
-354.1497436476
 20
-3.3086020592
 10
-354.1480013648
 20
-3.3004855283
  0
LWPOLYLINE
  5
517
100
AcDbEntity
  8
RACCORDO
100
AcDbPolyline
 62
7
  6
CONTINUOUS
 90
11
 70
0
 10
-354.2500047136
 20
-3.3895683629
 10
-354.2404352373
 20
-3.3891164395
 10
-354.2277029454
 20
-3.3870877905
 10
-354.2157970245
 20
-3.3836293432
 10
-354.2048925925
 20
-3.3789913686
 10
-354.1950170255
 20
-3.3733857693
 10
-354.1860824353
 20
-3.3669251499
 10
-354.178108638
 20
-3.3597553591
 10
-354.1711284098
 20
-3.3520454344
 10
-354.165072643
 20
-3.3438528252
 10
-354.1598295754
 20
-3.3350956282
  0
LINE
  5
518
100
AcDbEntity
  8
RACCORDO
100
AcDbLine
 62
253
  6
CONTINUOUS
 10
-982.6702214132
 20
-3.5844233285
 11
-982.6769220782
 21
-3.5840532072
  0
LINE
  5
519
100
AcDbEntity
  8
RACCORDO
100
AcDbLine
 62
253
  6
CONTINUOUS
 10
-982.9171009998
 20
-3.3885971466
 11
-982.9032988228
 21
-3.389568447
  0
LWPOLYLINE
  5
51A
100
AcDbEntity
  8
RACCORDO
100
AcDbPolyline
 62
253
  6
CONTINUOUS
 90
11
 70
0
 10
-354.1512579213
 20
-4.4998586844
 10
-354.1593443004
 20
-4.5000535596
 10
-354.1684485317
 20
-4.5000287224
 10
-354.1786617015
 20
-4.4998586845
 10
-354.1901960727
 20
-4.4999444029
 10
-354.2030508033
 20
-4.5001246469
 10
-354.2169491222
 20
-4.4998586854
 10
-354.2318096315
 20
-4.4996441328
 10
-354.2478072374
 20
-4.4998724134
 10
-354.2649944365
 20
-4.4998586843
 10
-354.2833303341
 20
-4.4996645208
  0
LWPOLYLINE
  5
51B
100
AcDbEntity
  8
RACCORDO
100
AcDbPolyline
 62
253
  6
CONTINUOUS
 90
16
 70
0
 10
-482.9406366165
 20
-4.1947131272
 10
-482.9529642933
 20
-4.194926282
 10
-482.9656875415
 20
-4.195050009
 10
-482.9785939702
 20
-4.1950822423
 10
-482.9914681307
 20
-4.1950224437
 10
-483.0040951131
 20
-4.1948716109
 10
-483.0162641335
 20
-4.1946322615
 10
-483.0277720529
 20
-4.1943083904
 10
-483.0384267682
 20
-4.1939054038
 10
-483.0480504189
 20
-4.193430028
 10
-483.056482356
 20
-4.1928901984
 10
-483.0635818242
 20
-4.1922949257
 10
-483.069230311
 20
-4.1916541464
 10
-483.0733335256
 20
-4.1909785566
 10
-483.0758229725
 20
-4.1902794335
 10
-483.076657095
 20
-4.1895684472
  0
LWPOLYLINE
  5
51C
100
AcDbEntity
  8
RACCORDO
100
AcDbPolyline
 62
253
  6
CONTINUOUS
 90
16
 70
0
 10
-487.2126621366
 20
-3.5844237667
 10
-487.2003344598
 20
-3.5842106119
 10
-487.1876112116
 20
-3.584086885
 10
-487.1747047829
 20
-3.5840546516
 10
-487.1618306224
 20
-3.5841144502
 10
-487.1492036401
 20
-3.584265283
 10
-487.1370346196
 20
-3.5845046324
 10
-487.1255267002
 20
-3.5848285035
 10
-487.1148719849
 20
-3.5852314902
 10
-487.1052483342
 20
-3.5857068659
 10
-487.0968163971
 20
-3.5862466956
 10
-487.089716929
 20
-3.5868419683
 10
-487.0840684421
 20
-3.5874827476
 10
-487.0799652275
 20
-3.5881583374
 10
-487.0774757806
 20
-3.5888574605
 10
-487.0766416582
 20
-3.5895684468
  0
LWPOLYLINE
  5
51D
100
AcDbEntity
  8
RACCORDO
100
AcDbPolyline
 62
253
  6
CONTINUOUS
 90
16
 70
0
 10
-849.9406366165
 20
-4.1947131272
 10
-849.9529642933
 20
-4.194926282
 10
-849.9656875415
 20
-4.195050009
 10
-849.9785939702
 20
-4.1950822423
 10
-849.9914681307
 20
-4.1950224437
 10
-850.0040951131
 20
-4.1948716109
 10
-850.0162641335
 20
-4.1946322615
 10
-850.0277720529
 20
-4.1943083904
 10
-850.0384267682
 20
-4.1939054038
 10
-850.0480504189
 20
-4.193430028
 10
-850.056482356
 20
-4.1928901984
 10
-850.0635818242
 20
-4.1922949257
 10
-850.069230311
 20
-4.1916541464
 10
-850.0733335256
 20
-4.1909785566
 10
-850.0758229725
 20
-4.1902794335
 10
-850.076657095
 20
-4.1895684472
  0
LWPOLYLINE
  5
51E
100
AcDbEntity
  8
RACCORDO
100
AcDbPolyline
 62
253
  6
CONTINUOUS
 90
16
 70
0
 10
-854.2126621366
 20
-3.5844237667
 10
-854.2003344598
 20
-3.5842106119
 10
-854.1876112116
 20
-3.584086885
 10
-854.1747047829
 20
-3.5840546516
 10
-854.1618306224
 20
-3.5841144502
 10
-854.1492036401
 20
-3.584265283
 10
-854.1370346196
 20
-3.5845046324
 10
-854.1255267002
 20
-3.5848285035
 10
-854.1148719849
 20
-3.5852314902
 10
-854.1052483342
 20
-3.5857068659
 10
-854.0968163971
 20
-3.5862466956
 10
-854.089716929
 20
-3.5868419683
 10
-854.0840684421
 20
-3.5874827476
 10
-854.0799652275
 20
-3.5881583374
 10
-854.0774757806
 20
-3.5888574605
 10
-854.0766416582
 20
-3.5895684468
  0
LWPOLYLINE
  5
51F
100
AcDbEntity
  8
RACCORDO
100
AcDbPolyline
 62
253
  6
CONTINUOUS
 90
22
 70
0
 10
-484.3646440995
 20
-4.4998586844
 10
-484.3700170886
 20
-4.4999377437
 10
-484.3755260529
 20
-4.5003902279
 10
-484.3811726387
 20
-4.5012106194
 10
-484.3869856486
 20
-4.5023542232
 10
-484.3929409289
 20
-4.5038543767
 10
-484.3989632118
 20
-4.5058236131
 10
-484.4050819858
 20
-4.5082597103
 10
-484.4112804081
 20
-4.5111557842
 10
-484.4174191829
 20
-4.5146218871
 10
-484.4235423315
 20
-4.5186754157
 10
-484.4296301652
 20
-4.5232977463
 10
-484.4354540306
 20
-4.5285551222
 10
-484.4410609325
 20
-4.5345040748
 10
-484.4464404532
 20
-4.5411022124
 10
-484.4512787106
 20
-4.5482829737
 10
-484.4555804015
 20
-4.5561430645
 10
-484.4593775136
 20
-4.564618091
 10
-484.4623821547
 20
-4.5734126195
 10
-484.464495234
 20
-4.5824413761
 10
-484.4658202904
 20
-4.5918239332
 10
-484.4663591391
 20
-4.601573724
  0
LWPOLYLINE
  5
520
100
AcDbEntity
  8
RACCORDO
100
AcDbPolyline
 62
253
  6
CONTINUOUS
 90
22
 70
0
 10
-485.7886546536
 20
-3.2792782095
 10
-485.7832816645
 20
-3.2791991503
 10
-485.7777727003
 20
-3.2787466661
 10
-485.7721261144
 20
-3.2779262746
 10
-485.7663131045
 20
-3.2767826708
 10
-485.7603578243
 20
-3.2752825172
 10
-485.7543355413
 20
-3.2733132808
 10
-485.7482167673
 20
-3.2708771836
 10
-485.7420183451
 20
-3.2679811097
 10
-485.7358795703
 20
-3.2645150069
 10
-485.7297564216
 20
-3.2604614782
 10
-485.7236685879
 20
-3.2558391477
 10
-485.7178447226
 20
-3.2505817717
 10
-485.7122378206
 20
-3.2446328191
 10
-485.7068582999
 20
-3.2380346815
 10
-485.7020200425
 20
-3.2308539203
 10
-485.6977183516
 20
-3.2229938295
 10
-485.6939212396
 20
-3.2145188029
 10
-485.6909165984
 20
-3.2057242745
 10
-485.6888035192
 20
-3.1966955179
 10
-485.6874784627
 20
-3.1873129608
 10
-485.686939614
 20
-3.1775631699
  0
LWPOLYLINE
  5
521
100
AcDbEntity
  8
RACCORDO
100
AcDbPolyline
 62
253
  6
CONTINUOUS
 90
22
 70
0
 10
-851.3646440995
 20
-4.4998586844
 10
-851.3700170886
 20
-4.4999377437
 10
-851.3755260529
 20
-4.5003902279
 10
-851.3811726387
 20
-4.5012106194
 10
-851.3869856486
 20
-4.5023542232
 10
-851.3929409289
 20
-4.5038543767
 10
-851.3989632118
 20
-4.5058236131
 10
-851.4050819858
 20
-4.5082597103
 10
-851.4112804081
 20
-4.5111557842
 10
-851.4174191829
 20
-4.5146218871
 10
-851.4235423315
 20
-4.5186754157
 10
-851.4296301652
 20
-4.5232977463
 10
-851.4354540306
 20
-4.5285551222
 10
-851.4410609325
 20
-4.5345040748
 10
-851.4464404532
 20
-4.5411022124
 10
-851.4512787106
 20
-4.5482829737
 10
-851.4555804015
 20
-4.5561430645
 10
-851.4593775136
 20
-4.564618091
 10
-851.4623821547
 20
-4.5734126195
 10
-851.464495234
 20
-4.5824413761
 10
-851.4658202904
 20
-4.5918239332
 10
-851.4663591391
 20
-4.601573724
  0
LWPOLYLINE
  5
522
100
AcDbEntity
  8
RACCORDO
100
AcDbPolyline
 62
253
  6
CONTINUOUS
 90
22
 70
0
 10
-852.7886546536
 20
-3.2792782095
 10
-852.7832816645
 20
-3.2791991503
 10
-852.7777727003
 20
-3.2787466661
 10
-852.7721261144
 20
-3.2779262746
 10
-852.7663131045
 20
-3.2767826708
 10
-852.7603578243
 20
-3.2752825172
 10
-852.7543355413
 20
-3.2733132808
 10
-852.7482167673
 20
-3.2708771836
 10
-852.7420183451
 20
-3.2679811097
 10
-852.7358795703
 20
-3.2645150069
 10
-852.7297564216
 20
-3.2604614782
 10
-852.7236685879
 20
-3.2558391477
 10
-852.7178447226
 20
-3.2505817717
 10
-852.7122378206
 20
-3.2446328191
 10
-852.7068582999
 20
-3.2380346815
 10
-852.7020200425
 20
-3.2308539203
 10
-852.6977183516
 20
-3.2229938295
 10
-852.6939212396
 20
-3.2145188029
 10
-852.6909165984
 20
-3.2057242745
 10
-852.6888035192
 20
-3.1966955179
 10
-852.6874784627
 20
-3.1873129608
 10
-852.686939614
 20
-3.1775631699
  0
LWPOLYLINE
  5
523
100
AcDbEntity
  8
RACCORDO
100
AcDbPolyline
 62
253
  6
CONTINUOUS
 90
13
 70
0
 10
-484.4663596177
 20
-5.7204377248
 10
-484.4802899295
 20
-5.7205823343
 10
-484.4941497097
 20
-5.7201243961
 10
-484.5076696849
 20
-5.7190728071
 10
-484.5205871838
 20
-5.7174479981
 10
-484.53265124
 20
-5.7152815367
 10
-484.5436274685
 20
-5.7126155138
 10
-484.5533026188
 20
-5.709501726
 10
-484.5614887181
 20
-5.7060006693
 10
-484.5680267238
 20
-5.7021803637
 10
-484.5727896129
 20
-5.6981150318
 10
-484.57568485
 20
-5.6938836564
 10
-484.5766561855
 20
-5.6895684466
  0
LWPOLYLINE
  5
524
100
AcDbEntity
  8
RACCORDO
100
AcDbPolyline
 62
253
  6
CONTINUOUS
 90
13
 70
0
 10
-485.6869391354
 20
-2.0586991691
 10
-485.6730088236
 20
-2.0585545596
 10
-485.6591490434
 20
-2.0590124979
 10
-485.6456290682
 20
-2.0600640869
 10
-485.6327115694
 20
-2.0616888958
 10
-485.6206475131
 20
-2.0638553572
 10
-485.6096712846
 20
-2.0665213801
 10
-485.5999961343
 20
-2.0696351679
 10
-485.591810035
 20
-2.0731362246
 10
-485.5852720293
 20
-2.0769565302
 10
-485.5805091403
 20
-2.0810218622
 10
-485.5776139031
 20
-2.0852532375
 10
-485.5766425677
 20
-2.0895684474
  0
LWPOLYLINE
  5
525
100
AcDbEntity
  8
RACCORDO
100
AcDbPolyline
 62
253
  6
CONTINUOUS
 90
13
 70
0
 10
-851.4663596177
 20
-5.7204377248
 10
-851.4802899295
 20
-5.7205823343
 10
-851.4941497097
 20
-5.7201243961
 10
-851.5076696849
 20
-5.7190728071
 10
-851.5205871838
 20
-5.7174479981
 10
-851.53265124
 20
-5.7152815367
 10
-851.5436274685
 20
-5.7126155138
 10
-851.5533026188
 20
-5.709501726
 10
-851.5614887181
 20
-5.7060006693
 10
-851.5680267238
 20
-5.7021803637
 10
-851.5727896129
 20
-5.6981150318
 10
-851.57568485
 20
-5.6938836564
 10
-851.5766561855
 20
-5.6895684466
  0
LWPOLYLINE
  5
526
100
AcDbEntity
  8
RACCORDO
100
AcDbPolyline
 62
253
  6
CONTINUOUS
 90
13
 70
0
 10
-852.6869391354
 20
-2.0586991691
 10
-852.6730088236
 20
-2.0585545596
 10
-852.6591490434
 20
-2.0590124979
 10
-852.6456290682
 20
-2.0600640869
 10
-852.6327115694
 20
-2.0616888958
 10
-852.6206475131
 20
-2.0638553572
 10
-852.6096712846
 20
-2.0665213801
 10
-852.5999961343
 20
-2.0696351679
 10
-852.591810035
 20
-2.0731362246
 10
-852.5852720293
 20
-2.0769565302
 10
-852.5805091403
 20
-2.0810218622
 10
-852.5776139031
 20
-2.0852532375
 10
-852.5766425677
 20
-2.0895684474
  0
LWPOLYLINE
  5
527
100
AcDbEntity
  8
RACCORDO
100
AcDbPolyline
 62
253
  6
CONTINUOUS
 90
13
 70
0
 10
-484.4663591405
 20
-4.6015737223
 10
-484.4802890975
 20
-4.6016297958
 10
-484.4941483494
 20
-4.601451566
 10
-484.507667667
 20
-4.6010424951
 10
-484.5205844247
 20
-4.6004105299
 10
-484.5326477022
 20
-4.5995679468
 10
-484.5436231587
 20
-4.5985311138
 10
-484.5532975856
 20
-4.5973201724
 10
-484.5614830478
 20
-4.5959586463
 10
-484.568020535
 20
-4.5944729845
 10
-484.5727830501
 20
-4.5928920475
 10
-484.5756780769
 20
-4.5912465466
 10
-484.5766493766
 20
-4.589568447
  0
LWPOLYLINE
  5
528
100
AcDbEntity
  8
RACCORDO
100
AcDbPolyline
 62
253
  6
CONTINUOUS
 90
13
 70
0
 10
-485.6869396126
 20
-3.1775631716
 10
-485.6730096557
 20
-3.1775070982
 10
-485.6591504038
 20
-3.177685328
 10
-485.6456310861
 20
-3.1780943988
 10
-485.6327143284
 20
-3.178726364
 10
-485.620651051
 20
-3.1795689471
 10
-485.6096755944
 20
-3.1806057801
 10
-485.6000011676
 20
-3.1818167215
 10
-485.5918157053
 20
-3.1831782477
 10
-485.5852782182
 20
-3.1846639094
 10
-485.580515703
 20
-3.1862448464
 10
-485.5776206762
 20
-3.1878903474
 10
-485.5766493766
 20
-3.189568447
  0
LWPOLYLINE
  5
529
100
AcDbEntity
  8
RACCORDO
100
AcDbPolyline
 62
253
  6
CONTINUOUS
 90
13
 70
0
 10
-851.4663591405
 20
-4.6015737223
 10
-851.4802890975
 20
-4.6016297958
 10
-851.4941483494
 20
-4.601451566
 10
-851.507667667
 20
-4.6010424951
 10
-851.5205844247
 20
-4.6004105299
 10
-851.5326477022
 20
-4.5995679468
 10
-851.5436231587
 20
-4.5985311138
 10
-851.5532975856
 20
-4.5973201724
 10
-851.5614830478
 20
-4.5959586463
 10
-851.568020535
 20
-4.5944729845
 10
-851.5727830501
 20
-4.5928920475
 10
-851.5756780769
 20
-4.5912465466
 10
-851.5766493766
 20
-4.589568447
  0
LWPOLYLINE
  5
52A
100
AcDbEntity
  8
RACCORDO
100
AcDbPolyline
 62
253
  6
CONTINUOUS
 90
13
 70
0
 10
-852.6869396126
 20
-3.1775631716
 10
-852.6730096557
 20
-3.1775070982
 10
-852.6591504038
 20
-3.177685328
 10
-852.6456310861
 20
-3.1780943988
 10
-852.6327143284
 20
-3.178726364
 10
-852.620651051
 20
-3.1795689471
 10
-852.6096755944
 20
-3.1806057801
 10
-852.6000011676
 20
-3.1818167215
 10
-852.5918157053
 20
-3.1831782477
 10
-852.5852782182
 20
-3.1846639094
 10
-852.580515703
 20
-3.1862448464
 10
-852.5776206762
 20
-3.1878903474
 10
-852.5766493766
 20
-3.189568447
  0
LWPOLYLINE
  5
52B
100
AcDbEntity
  8
RACCORDO
100
AcDbPolyline
 62
253
  6
CONTINUOUS
 90
5
 70
0
 10
-354.2833303341
 20
-4.4996645208
 10
-354.3242472387
 20
-4.4998586831
 10
-354.3474046223
 20
-4.4997024216
 10
-354.3724324078
 20
-4.4996566309
 10
-354.3994348405
 20
-4.4998586844
  0
LINE
  5
52C
100
AcDbEntity
  8
RACCORDO
100
AcDbLine
 62
253
  6
CONTINUOUS
 10
-982.6702214182
 20
-6.0255842781
 11
-982.6786325901
 21
-6.0256101269
  0
LINE
  5
52D
100
AcDbEntity
  8
RACCORDO
100
AcDbLine
 62
253
  6
CONTINUOUS
 10
-354.4830773349
 20
-1.7535526158
 11
-354.474666163
 21
-1.7535267671
  0
LWPOLYLINE
  5
52E
100
AcDbEntity
  8
RACCORDO
100
AcDbPolyline
 62
253
  6
CONTINUOUS
 90
5
 70
0
 10
-982.869968419
 20
-3.2794723732
 10
-982.8290515144
 20
-3.2792782109
 10
-982.8058941308
 20
-3.2794344724
 10
-982.7808663453
 20
-3.2794802631
 10
-982.7538639126
 20
-3.2792782095
  0
LWPOLYLINE
  5
52F
100
AcDbEntity
  8
RACCORDO
100
AcDbPolyline
 62
253
  6
CONTINUOUS
 90
3
 70
0
 10
-484.1625560177
 20
-4.4998586843
 10
-484.2996307971
 20
-4.500102116
 10
-484.3646440995
 20
-4.4998586844
  0
LWPOLYLINE
  5
530
100
AcDbEntity
  8
RACCORDO
100
AcDbPolyline
 62
253
  6
CONTINUOUS
 90
3
 70
0
 10
-851.1625560177
 20
-4.4998586843
 10
-851.2996307971
 20
-4.500102116
 10
-851.3646440995
 20
-4.4998586844
  0
LWPOLYLINE
  5
531
100
AcDbEntity
  8
RACCORDO
100
AcDbPolyline
 62
253
  6
CONTINUOUS
 90
3
 70
0
 10
-485.9907427354
 20
-3.2792782096
 10
-485.853667956
 20
-3.279034778
 10
-485.7886546536
 20
-3.2792782095
  0
LWPOLYLINE
  5
532
100
AcDbEntity
  8
RACCORDO
100
AcDbPolyline
 62
253
  6
CONTINUOUS
 90
3
 70
0
 10
-852.9907427354
 20
-3.2792782096
 10
-852.853667956
 20
-3.279034778
 10
-852.7886546536
 20
-3.2792782095
  0
LINE
  5
533
100
AcDbEntity
  8
RACCORDO
100
AcDbLine
 62
253
  6
CONTINUOUS
 10
-484.7715042578
 20
-6.0255842781
 11
-485.3817944953
 21
-6.0255842781
  0
LINE
  5
534
100
AcDbEntity
  8
RACCORDO
100
AcDbLine
 62
253
  6
CONTINUOUS
 10
-851.7715042578
 20
-6.0255842781
 11
-852.3817944953
 21
-6.0255842781
  0
LINE
  5
535
100
AcDbEntity
  8
RACCORDO
100
AcDbLine
 62
7
  6
CONTINUOUS
 10
-484.7766493766
 20
-5.889568447
 11
-485.3766493766
 21
-5.889568447
  0
LINE
  5
536
100
AcDbEntity
  8
RACCORDO
100
AcDbLine
 62
7
  6
CONTINUOUS
 10
-851.7766493766
 20
-5.889568447
 11
-852.3766493766
 21
-5.889568447
  0
LINE
  5
537
100
AcDbEntity
  8
RACCORDO
100
AcDbLine
 62
7
  6
CONTINUOUS
 10
-354.457905894
 20
-4.389568447
 11
-354.2499999303
 21
-4.389568447
  0
LINE
  5
538
100
AcDbEntity
  8
RACCORDO
100
AcDbLine
 62
7
  6
CONTINUOUS
 10
-483.2766493766
 20
-4.389568447
 11
-484.3766493766
 21
-4.389568447
  0
LINE
  5
539
100
AcDbEntity
  8
RACCORDO
100
AcDbLine
 62
7
  6
CONTINUOUS
 10
-485.7766493766
 20
-4.389568447
 11
-486.8766493766
 21
-4.389568447
  0
LINE
  5
53A
100
AcDbEntity
  8
RACCORDO
100
AcDbLine
 62
7
  6
CONTINUOUS
 10
-850.2766493766
 20
-4.389568447
 11
-851.3766493766
 21
-4.389568447
  0
LINE
  5
53B
100
AcDbEntity
  8
RACCORDO
100
AcDbLine
 62
7
  6
CONTINUOUS
 10
-852.7766493766
 20
-4.389568447
 11
-853.8766493766
 21
-4.389568447
  0
LINE
  5
53C
100
AcDbEntity
  8
RACCORDO
100
AcDbLine
 62
7
  6
CONTINUOUS
 10
-982.6953833787
 20
-4.389568447
 11
-982.9032988228
 21
-4.389568447
  0
LINE
  5
53D
100
AcDbEntity
  8
RACCORDO
100
AcDbLine
 62
7
  6
CONTINUOUS
 10
-982.9032988228
 20
-3.389568447
 11
-982.6953928591
 21
-3.389568447
  0
LINE
  5
53E
100
AcDbEntity
  8
RACCORDO
100
AcDbLine
 62
7
  6
CONTINUOUS
 10
-853.8766493766
 20
-3.389568447
 11
-852.7766493766
 21
-3.389568447
  0
LINE
  5
53F
100
AcDbEntity
  8
RACCORDO
100
AcDbLine
 62
7
  6
CONTINUOUS
 10
-851.3766493766
 20
-3.389568447
 11
-850.2766493766
 21
-3.389568447
  0
LINE
  5
540
100
AcDbEntity
  8
RACCORDO
100
AcDbLine
 62
7
  6
CONTINUOUS
 10
-486.8766493766
 20
-3.389568447
 11
-485.7766493766
 21
-3.389568447
  0
LINE
  5
541
100
AcDbEntity
  8
RACCORDO
100
AcDbLine
 62
7
  6
CONTINUOUS
 10
-484.3766493766
 20
-3.389568447
 11
-483.2766493766
 21
-3.389568447
  0
LINE
  5
542
100
AcDbEntity
  8
RACCORDO
100
AcDbLine
 62
7
  6
CONTINUOUS
 10
-354.4579153744
 20
-3.389568447
 11
-354.2499999303
 21
-3.389568447
  0
LINE
  5
543
100
AcDbEntity
  8
RACCORDO
100
AcDbLine
 62
7
  6
CONTINUOUS
 10
-852.3766493766
 20
-1.889568447
 11
-851.7766493766
 21
-1.889568447
  0
LINE
  5
544
100
AcDbEntity
  8
RACCORDO
100
AcDbLine
 62
7
  6
CONTINUOUS
 10
-485.3766493766
 20
-1.889568447
 11
-484.7766493766
 21
-1.889568447
  0
LINE
  5
545
100
AcDbEntity
  8
RACCORDO
100
AcDbLine
 62
253
  6
CONTINUOUS
 10
-852.3817944953
 20
-1.7535526158
 11
-851.7715042578
 21
-1.7535526158
  0
LINE
  5
546
100
AcDbEntity
  8
RACCORDO
100
AcDbLine
 62
253
  6
CONTINUOUS
 10
-485.3817944953
 20
-1.7535526158
 11
-484.7715042578
 21
-1.7535526158
  0
LWPOLYLINE
  5
547
100
AcDbEntity
  8
RACCORDO
100
AcDbPolyline
 62
253
  6
CONTINUOUS
 90
3
 70
0
 10
-853.278386571
 20
-4.4996441328
 10
-853.4279946828
 20
-4.4998586843
 10
-853.5037512964
 20
-4.4996645208
  0
LWPOLYLINE
  5
548
100
AcDbEntity
  8
RACCORDO
100
AcDbPolyline
 62
253
  6
CONTINUOUS
 90
4
 70
0
 10
-850.6420124487
 20
-4.4996384733
 10
-850.7914594218
 20
-4.4998506758
 10
-850.8655799318
 20
-4.4995825684
 10
-851.0149174692
 20
-4.5001875947
  0
LWPOLYLINE
  5
549
100
AcDbEntity
  8
RACCORDO
100
AcDbPolyline
 62
253
  6
CONTINUOUS
 90
4
 70
0
 10
-483.6420124487
 20
-4.4996384733
 10
-483.7914594218
 20
-4.4998506758
 10
-483.8655799318
 20
-4.4995825684
 10
-484.0149174692
 20
-4.5001875947
  0
LWPOLYLINE
  5
54A
100
AcDbEntity
  8
RACCORDO
100
AcDbPolyline
 62
253
  6
CONTINUOUS
 90
3
 70
0
 10
-486.278386571
 20
-4.4996441328
 10
-486.4279946828
 20
-4.4998586843
 10
-486.5037512964
 20
-4.4996645208
  0
LWPOLYLINE
  5
54B
100
AcDbEntity
  8
RACCORDO
100
AcDbPolyline
 62
253
  6
CONTINUOUS
 90
3
 70
0
 10
-850.8749121822
 20
-3.2794927611
 10
-850.7253040703
 20
-3.2792782096
 10
-850.6495474567
 20
-3.2794723732
  0
LWPOLYLINE
  5
54C
100
AcDbEntity
  8
RACCORDO
100
AcDbPolyline
 62
253
  6
CONTINUOUS
 90
4
 70
0
 10
-853.5112863044
 20
-3.2794984207
 10
-853.3618393313
 20
-3.2792862182
 10
-853.2877188213
 20
-3.2795543255
 10
-853.138381284
 20
-3.2789492992
  0
LWPOLYLINE
  5
54D
100
AcDbEntity
  8
RACCORDO
100
AcDbPolyline
 62
253
  6
CONTINUOUS
 90
4
 70
0
 10
-486.5112863044
 20
-3.2794984207
 10
-486.3618393313
 20
-3.2792862182
 10
-486.2877188213
 20
-3.2795543255
 10
-486.138381284
 20
-3.2789492992
  0
LWPOLYLINE
  5
54E
100
AcDbEntity
  8
RACCORDO
100
AcDbPolyline
 62
253
  6
CONTINUOUS
 90
3
 70
0
 10
-483.8749121822
 20
-3.2794927611
 10
-483.7253040703
 20
-3.2792782096
 10
-483.6495474567
 20
-3.2794723732
  0
LWPOLYLINE
  5
54F
100
AcDbEntity
  8
RACCORDO
100
AcDbPolyline
 62
253
  6
CONTINUOUS
 90
4
 70
0
 10
-852.7886546536
 20
-4.4998586844
 10
-852.9179521621
 20
-4.5000287224
 10
-852.986134081
 20
-4.4998586845
 10
-853.1304800985
 20
-4.5001246469
  0
LWPOLYLINE
  5
550
100
AcDbEntity
  8
RACCORDO
100
AcDbPolyline
 62
253
  6
CONTINUOUS
 90
4
 70
0
 10
-485.7886546536
 20
-4.4998586844
 10
-485.9179521621
 20
-4.5000287224
 10
-485.986134081
 20
-4.4998586845
 10
-486.1304800985
 20
-4.5001246469
  0
LWPOLYLINE
  5
551
100
AcDbEntity
  8
RACCORDO
100
AcDbPolyline
 62
253
  6
CONTINUOUS
 90
4
 70
0
 10
-851.3646440995
 20
-3.2792782095
 10
-851.235346591
 20
-3.2791081716
 10
-851.1671646721
 20
-3.2792782094
 10
-851.0228186546
 20
-3.279012247
  0
LWPOLYLINE
  5
552
100
AcDbEntity
  8
RACCORDO
100
AcDbPolyline
 62
253
  6
CONTINUOUS
 90
4
 70
0
 10
-484.3646440995
 20
-3.2792782095
 10
-484.235346591
 20
-3.2791081716
 10
-484.1671646721
 20
-3.2792782094
 10
-484.0228186546
 20
-3.279012247
  0
LINE
  5
553
100
AcDbEntity
  8
RACCORDO
100
AcDbLine
 62
253
  6
CONTINUOUS
 10
-853.5037512964
 20
-4.4996645208
 11
-853.907520089
 21
-4.4998586844
  0
LINE
  5
554
100
AcDbEntity
  8
RACCORDO
100
AcDbLine
 62
253
  6
CONTINUOUS
 10
-486.5037512964
 20
-4.4996645208
 11
-486.907520089
 21
-4.4998586844
  0
LINE
  5
555
100
AcDbEntity
  8
RACCORDO
100
AcDbLine
 62
253
  6
CONTINUOUS
 10
-850.6495474567
 20
-3.2794723732
 11
-850.2457786642
 21
-3.2792782095
  0
LINE
  5
556
100
AcDbEntity
  8
RACCORDO
100
AcDbLine
 62
253
  6
CONTINUOUS
 10
-483.6495474567
 20
-3.2794723732
 11
-483.2457786642
 21
-3.2792782095
  0
LINE
  5
557
100
AcDbEntity
  8
RACCORDO
100
AcDbLine
 62
253
  6
CONTINUOUS
 10
-850.2457786642
 20
-4.4998586844
 11
-850.6420124487
 21
-4.4996384733
  0
LINE
  5
558
100
AcDbEntity
  8
RACCORDO
100
AcDbLine
 62
253
  6
CONTINUOUS
 10
-483.2457786642
 20
-4.4998586844
 11
-483.6420124487
 21
-4.4996384733
  0
LINE
  5
559
100
AcDbEntity
  8
RACCORDO
100
AcDbLine
 62
253
  6
CONTINUOUS
 10
-853.907520089
 20
-3.2792782095
 11
-853.5112863044
 21
-3.2794984207
  0
LINE
  5
55A
100
AcDbEntity
  8
RACCORDO
100
AcDbLine
 62
253
  6
CONTINUOUS
 10
-486.907520089
 20
-3.2792782095
 11
-486.5112863044
 21
-3.2794984207
  0
LINE
  5
55B
100
AcDbEntity
  8
RACCORDO
100
AcDbLine
 62
253
  6
CONTINUOUS
 10
-851.0149174692
 20
-4.5001875947
 11
-851.1625560177
 21
-4.4998586843
  0
LINE
  5
55C
100
AcDbEntity
  8
RACCORDO
100
AcDbLine
 62
253
  6
CONTINUOUS
 10
-484.0149174692
 20
-4.5001875947
 11
-484.1625560177
 21
-4.4998586843
  0
LINE
  5
55D
100
AcDbEntity
  8
RACCORDO
100
AcDbLine
 62
253
  6
CONTINUOUS
 10
-853.138381284
 20
-3.2789492992
 11
-852.9907427354
 21
-3.2792782096
  0
LINE
  5
55E
100
AcDbEntity
  8
RACCORDO
100
AcDbLine
 62
253
  6
CONTINUOUS
 10
-486.138381284
 20
-3.2789492992
 11
-485.9907427354
 21
-3.2792782096
  0
LINE
  5
55F
100
AcDbEntity
  8
RACCORDO
100
AcDbLine
 62
253
  6
CONTINUOUS
 10
-354.474666163
 20
-6.0256101269
 11
-354.4830773349
 21
-6.0255842781
  0
LINE
  5
560
100
AcDbEntity
  8
RACCORDO
100
AcDbLine
 62
253
  6
CONTINUOUS
 10
-982.6786325901
 20
-1.7535267671
 11
-982.6702214182
 21
-1.7535526158
  0
LINE
  5
561
100
AcDbEntity
  8
RACCORDO
100
AcDbLine
 62
253
  6
CONTINUOUS
 10
-853.1304800985
 20
-4.5001246469
 11
-853.278386571
 21
-4.4996441328
  0
LINE
  5
562
100
AcDbEntity
  8
RACCORDO
100
AcDbLine
 62
253
  6
CONTINUOUS
 10
-851.0228186546
 20
-3.279012247
 11
-850.8749121822
 21
-3.2794927611
  0
LINE
  5
563
100
AcDbEntity
  8
RACCORDO
100
AcDbLine
 62
253
  6
CONTINUOUS
 10
-486.1304800985
 20
-4.5001246469
 11
-486.278386571
 21
-4.4996441328
  0
LINE
  5
564
100
AcDbEntity
  8
RACCORDO
100
AcDbLine
 62
253
  6
CONTINUOUS
 10
-484.0228186546
 20
-3.279012247
 11
-483.8749121822
 21
-3.2794927611
  0
LWPOLYLINE
  5
565
100
AcDbEntity
  8
RACCORDO
100
AcDbPolyline
 62
253
  6
CONTINUOUS
 90
13
 70
0
 10
-852.6869396039
 20
-4.6015737122
 10
-852.6730107343
 20
-4.6016296144
 10
-852.6591526508
 20
-4.6014512438
 10
-852.6456345383
 20
-4.6010420654
 10
-852.6327189784
 20
-4.6004100276
 10
-852.6206568483
 20
-4.5995674072
 10
-852.6096824478
 20
-4.5985305716
 10
-852.6000089482
 20
-4.5973196605
 10
-852.5918242516
 20
-4.5959581946
 10
-852.585287341
 20
-4.5944726192
 10
-852.580525192
 20
-4.59289179
 10
-852.5776303067
 20
-4.5912464131
 10
-852.5766589164
 20
-4.5895684484
  0
LWPOLYLINE
  5
566
100
AcDbEntity
  8
RACCORDO
100
AcDbPolyline
 62
253
  6
CONTINUOUS
 90
13
 70
0
 10
-851.4663591492
 20
-3.1775631818
 10
-851.4802880188
 20
-3.1775072795
 10
-851.4941461024
 20
-3.1776856502
 10
-851.5076642148
 20
-3.1780948285
 10
-851.5205797747
 20
-3.1787268664
 10
-851.5326419048
 20
-3.1795694867
 10
-851.5436163054
 20
-3.1806063223
 10
-851.553289805
 20
-3.1818172335
 10
-851.5614745015
 20
-3.1831786993
 10
-851.5680114122
 20
-3.1846642748
 10
-851.5727735611
 20
-3.186245104
 10
-851.5756684464
 20
-3.1878904808
 10
-851.5766398367
 20
-3.1895684455
  0
LWPOLYLINE
  5
567
100
AcDbEntity
  8
RACCORDO
100
AcDbPolyline
 62
253
  6
CONTINUOUS
 90
13
 70
0
 10
-485.6869396039
 20
-4.6015737122
 10
-485.6730107343
 20
-4.6016296144
 10
-485.6591526508
 20
-4.6014512438
 10
-485.6456345383
 20
-4.6010420654
 10
-485.6327189784
 20
-4.6004100276
 10
-485.6206568483
 20
-4.5995674072
 10
-485.6096824478
 20
-4.5985305716
 10
-485.6000089482
 20
-4.5973196605
 10
-485.5918242516
 20
-4.5959581946
 10
-485.585287341
 20
-4.5944726192
 10
-485.580525192
 20
-4.59289179
 10
-485.5776303067
 20
-4.5912464131
 10
-485.5766589164
 20
-4.5895684484
  0
LWPOLYLINE
  5
568
100
AcDbEntity
  8
RACCORDO
100
AcDbPolyline
 62
253
  6
CONTINUOUS
 90
13
 70
0
 10
-484.4663591492
 20
-3.1775631818
 10
-484.4802880188
 20
-3.1775072795
 10
-484.4941461024
 20
-3.1776856502
 10
-484.5076642148
 20
-3.1780948285
 10
-484.5205797747
 20
-3.1787268664
 10
-484.5326419048
 20
-3.1795694867
 10
-484.5436163054
 20
-3.1806063223
 10
-484.553289805
 20
-3.1818172335
 10
-484.5614745015
 20
-3.1831786993
 10
-484.5680114122
 20
-3.1846642748
 10
-484.5727735611
 20
-3.186245104
 10
-484.5756684464
 20
-3.1878904808
 10
-484.5766398367
 20
-3.1895684455
  0
LWPOLYLINE
  5
569
100
AcDbEntity
  8
RACCORDO
100
AcDbPolyline
 62
253
  6
CONTINUOUS
 90
12
 70
0
 10
-982.8277195032
 20
-4.4998586823
 10
-982.8680873351
 20
-4.4996384733
 10
-982.8862987211
 20
-4.4998586851
 10
-982.9034721815
 20
-4.4998506758
 10
-982.9195459865
 20
-4.4995825684
 10
-982.9345876061
 20
-4.4998586845
 10
-982.9488012448
 20
-4.5001875947
 10
-982.9620402959
 20
-4.4999675232
 10
-982.9739160779
 20
-4.4998586843
 10
-982.9844007391
 20
-4.5000687272
 10
-982.9937442375
 20
-4.500102116
 10
-983.0020408318
 20
-4.4998586844
  0
LWPOLYLINE
  5
56A
100
AcDbEntity
  8
RACCORDO
100
AcDbPolyline
 62
253
  6
CONTINUOUS
 90
12
 70
0
 10
-354.3255792499
 20
-3.2792782117
 10
-354.2852114181
 20
-3.2794984207
 10
-354.2670000321
 20
-3.2792782088
 10
-354.2498265716
 20
-3.2792862182
 10
-354.2337527666
 20
-3.2795543255
 10
-354.218711147
 20
-3.2792782095
 10
-354.2044975083
 20
-3.2789492992
 10
-354.1912584572
 20
-3.2791693707
 10
-354.1793826752
 20
-3.2792782096
 10
-354.168898014
 20
-3.2790681668
 10
-354.1595545156
 20
-3.279034778
 10
-354.1512579213
 20
-3.2792782095
  0
LWPOLYLINE
  5
56B
100
AcDbEntity
  8
RACCORDO
100
AcDbPolyline
 62
253
  6
CONTINUOUS
 90
4
 70
0
 10
-982.7538639126
 20
-4.4998586844
 10
-982.780337289
 20
-4.4996617658
 10
-982.8049235465
 20
-4.4997060728
 10
-982.8277195032
 20
-4.4998586823
  0
LWPOLYLINE
  5
56C
100
AcDbEntity
  8
RACCORDO
100
AcDbPolyline
 62
253
  6
CONTINUOUS
 90
4
 70
0
 10
-354.3994348405
 20
-3.2792782095
 10
-354.3729614641
 20
-3.2794751281
 10
-354.3483752066
 20
-3.2794308211
 10
-354.3255792499
 20
-3.2792782117
  0
LWPOLYLINE
  5
56D
100
AcDbEntity
  8
RACCORDO
100
AcDbPolyline
 62
253
  6
CONTINUOUS
 90
13
 70
0
 10
-852.6869396068
 20
-5.7204391377
 10
-852.6730096549
 20
-5.7205833264
 10
-852.6591504081
 20
-5.7201250215
 10
-852.6456310952
 20
-5.719073126
 10
-852.6327143417
 20
-5.7174480739
 10
-852.6206510675
 20
-5.7152814335
 10
-852.6096756131
 20
-5.7126152937
 10
-852.600001187
 20
-5.7095014469
 10
-852.5918157241
 20
-5.7060003824
 10
-852.5852782347
 20
-5.7021801116
 10
-852.5805157156
 20
-5.6981148468
 10
-852.5776206833
 20
-5.6938835597
 10
-852.5766493766
 20
-5.689568447
  0
LWPOLYLINE
  5
56E
100
AcDbEntity
  8
RACCORDO
100
AcDbPolyline
 62
253
  6
CONTINUOUS
 90
13
 70
0
 10
-851.4663591463
 20
-2.0586977563
 10
-851.4802890982
 20
-2.0585535676
 10
-851.494148345
 20
-2.0590118725
 10
-851.5076676579
 20
-2.060063768
 10
-851.5205844114
 20
-2.06168882
 10
-851.5326476856
 20
-2.0638554605
 10
-851.54362314
 20
-2.0665216002
 10
-851.5532975661
 20
-2.069635447
 10
-851.561483029
 20
-2.0731365115
 10
-851.5680205184
 20
-2.0769567823
 10
-851.5727830375
 20
-2.0810220471
 10
-851.5756780698
 20
-2.0852533342
 10
-851.5766493766
 20
-2.089568447
  0
LWPOLYLINE
  5
56F
100
AcDbEntity
  8
RACCORDO
100
AcDbPolyline
 62
253
  6
CONTINUOUS
 90
13
 70
0
 10
-485.6869396068
 20
-5.7204391377
 10
-485.6730096549
 20
-5.7205833264
 10
-485.6591504081
 20
-5.7201250215
 10
-485.6456310952
 20
-5.719073126
 10
-485.6327143417
 20
-5.7174480739
 10
-485.6206510675
 20
-5.7152814335
 10
-485.6096756131
 20
-5.7126152937
 10
-485.600001187
 20
-5.7095014469
 10
-485.5918157241
 20
-5.7060003824
 10
-485.5852782347
 20
-5.7021801116
 10
-485.5805157156
 20
-5.6981148468
 10
-485.5776206833
 20
-5.6938835597
 10
-485.5766493766
 20
-5.689568447
  0
LWPOLYLINE
  5
570
100
AcDbEntity
  8
RACCORDO
100
AcDbPolyline
 62
253
  6
CONTINUOUS
 90
13
 70
0
 10
-484.4663591463
 20
-2.0586977563
 10
-484.4802890982
 20
-2.0585535676
 10
-484.494148345
 20
-2.0590118725
 10
-484.5076676579
 20
-2.060063768
 10
-484.5205844114
 20
-2.06168882
 10
-484.5326476856
 20
-2.0638554605
 10
-484.54362314
 20
-2.0665216002
 10
-484.5532975661
 20
-2.069635447
 10
-484.561483029
 20
-2.0731365115
 10
-484.5680205184
 20
-2.0769567823
 10
-484.5727830375
 20
-2.0810220471
 10
-484.5756780698
 20
-2.0852533342
 10
-484.5766493766
 20
-2.089568447
  0
LWPOLYLINE
  5
571
100
AcDbEntity
  8
RACCORDO
100
AcDbPolyline
 62
253
  6
CONTINUOUS
 90
16
 70
0
 10
-854.2126652058
 20
-4.1947135654
 10
-854.2003375828
 20
-4.1949267142
 10
-854.1876145887
 20
-4.19505043
 10
-854.1747085783
 20
-4.1950826479
 10
-854.161834961
 20
-4.1950228303
 10
-854.1492086058
 20
-4.1948719755
 10
-854.1370402544
 20
-4.1946326015
 10
-854.1255330045
 20
-4.1943087036
 10
-854.1148789192
 20
-4.1939056879
 10
-854.1052558221
 20
-4.193430281
 10
-854.0968243288
 20
-4.1928904176
 10
-854.0897251661
 20
-4.1922951085
 10
-854.0840768238
 20
-4.1916542895
 10
-854.0799735762
 20
-4.1909786563
 10
-854.077483909
 20
-4.1902794855
 10
-854.0766493766
 20
-4.189568447
  0
LWPOLYLINE
  5
572
100
AcDbEntity
  8
RACCORDO
100
AcDbPolyline
 62
253
  6
CONTINUOUS
 90
16
 70
0
 10
-849.9406335474
 20
-3.5844233285
 10
-849.9529611703
 20
-3.5842101798
 10
-849.9656841644
 20
-3.584086464
 10
-849.9785901749
 20
-3.584054246
 10
-849.9914637921
 20
-3.5841140636
 10
-850.0040901473
 20
-3.5842649185
 10
-850.0162584987
 20
-3.5845042925
 10
-850.0277657487
 20
-3.5848281903
 10
-850.0384198339
 20
-3.585231206
 10
-850.048042931
 20
-3.585706613
 10
-850.0564744244
 20
-3.5862464763
 10
-850.063573587
 20
-3.5868417854
 10
-850.0692219293
 20
-3.5874826044
 10
-850.073325177
 20
-3.5881582377
 10
-850.0758148441
 20
-3.5888574084
 10
-850.0766493766
 20
-3.589568447
  0
LWPOLYLINE
  5
573
100
AcDbEntity
  8
RACCORDO
100
AcDbPolyline
 62
253
  6
CONTINUOUS
 90
16
 70
0
 10
-487.2126652058
 20
-4.1947135654
 10
-487.2003375828
 20
-4.1949267142
 10
-487.1876145887
 20
-4.19505043
 10
-487.1747085783
 20
-4.1950826479
 10
-487.161834961
 20
-4.1950228303
 10
-487.1492086058
 20
-4.1948719755
 10
-487.1370402544
 20
-4.1946326015
 10
-487.1255330045
 20
-4.1943087036
 10
-487.1148789192
 20
-4.1939056879
 10
-487.1052558221
 20
-4.193430281
 10
-487.0968243288
 20
-4.1928904176
 10
-487.0897251661
 20
-4.1922951085
 10
-487.0840768238
 20
-4.1916542895
 10
-487.0799735762
 20
-4.1909786563
 10
-487.077483909
 20
-4.1902794855
 10
-487.0766493766
 20
-4.189568447
  0
LWPOLYLINE
  5
574
100
AcDbEntity
  8
RACCORDO
100
AcDbPolyline
 62
253
  6
CONTINUOUS
 90
16
 70
0
 10
-482.9406335474
 20
-3.5844233285
 10
-482.9529611703
 20
-3.5842101798
 10
-482.9656841644
 20
-3.584086464
 10
-482.9785901749
 20
-3.584054246
 10
-482.9914637921
 20
-3.5841140636
 10
-483.0040901473
 20
-3.5842649185
 10
-483.0162584987
 20
-3.5845042925
 10
-483.0277657487
 20
-3.5848281903
 10
-483.0384198339
 20
-3.585231206
 10
-483.048042931
 20
-3.585706613
 10
-483.0564744244
 20
-3.5862464763
 10
-483.063573587
 20
-3.5868417854
 10
-483.0692219293
 20
-3.5874826044
 10
-483.073325177
 20
-3.5881582377
 10
-483.0758148441
 20
-3.5888574084
 10
-483.0766493766
 20
-3.589568447
  0
LWPOLYLINE
  5
575
100
AcDbEntity
  8
RACCORDO
100
AcDbPolyline
 62
253
  6
CONTINUOUS
 90
19
 70
0
 10
-852.3817944953
 20
-6.0255842781
 10
-852.4077808306
 20
-6.0244722371
 10
-852.4334018561
 20
-6.0211936005
 10
-852.4585874627
 20
-6.0157622486
 10
-852.4833794817
 20
-6.0081598707
 10
-852.5075962691
 20
-5.9984323977
 10
-852.5308392291
 20
-5.9867027086
 10
-852.5530410498
 20
-5.9729876425
 10
-852.5741505011
 20
-5.9573259643
 10
-852.5938122801
 20
-5.9398940626
 10
-852.612016584
 20
-5.9206780883
 10
-852.6286914895
 20
-5.8997602875
 10
-852.6434232819
 20
-5.8774779575
 10
-852.6562087299
 20
-5.8538675197
 10
-852.6670362975
 20
-5.8289637988
 10
-852.6755284885
 20
-5.8031119559
 10
-852.6815893826
 20
-5.7764465682
 10
-852.6853803132
 20
-5.7488842184
 10
-852.686939614
 20
-5.7204391594
  0
LWPOLYLINE
  5
576
100
AcDbEntity
  8
RACCORDO
100
AcDbPolyline
 62
253
  6
CONTINUOUS
 90
19
 70
0
 10
-851.7715042578
 20
-1.7535526158
 10
-851.7455179226
 20
-1.7546646569
 10
-851.719896897
 20
-1.7579432935
 10
-851.6947112904
 20
-1.7633746454
 10
-851.6699192714
 20
-1.7709770233
 10
-851.645702484
 20
-1.7807044963
 10
-851.622459524
 20
-1.7924341854
 10
-851.6002577034
 20
-1.8061492514
 10
-851.579148252
 20
-1.8218109297
 10
-851.559486473
 20
-1.8392428314
 10
-851.5412821691
 20
-1.8584588056
 10
-851.5246072637
 20
-1.8793766064
 10
-851.5098754713
 20
-1.9016589364
 10
-851.4970900232
 20
-1.9252693743
 10
-851.4862624556
 20
-1.9501730952
 10
-851.4777702646
 20
-1.976024938
 10
-851.4717093705
 20
-2.0026903258
 10
-851.4679184399
 20
-2.0302526755
 10
-851.4663591391
 20
-2.0586977346
  0
LWPOLYLINE
  5
577
100
AcDbEntity
  8
RACCORDO
100
AcDbPolyline
 62
253
  6
CONTINUOUS
 90
19
 70
0
 10
-485.3817944953
 20
-6.0255842781
 10
-485.4077808306
 20
-6.0244722371
 10
-485.4334018561
 20
-6.0211936005
 10
-485.4585874627
 20
-6.0157622486
 10
-485.4833794817
 20
-6.0081598707
 10
-485.5075962691
 20
-5.9984323977
 10
-485.5308392291
 20
-5.9867027086
 10
-485.5530410498
 20
-5.9729876425
 10
-485.5741505011
 20
-5.9573259643
 10
-485.5938122801
 20
-5.9398940626
 10
-485.612016584
 20
-5.9206780883
 10
-485.6286914895
 20
-5.8997602875
 10
-485.6434232819
 20
-5.8774779575
 10
-485.6562087299
 20
-5.8538675197
 10
-485.6670362975
 20
-5.8289637988
 10
-485.6755284885
 20
-5.8031119559
 10
-485.6815893826
 20
-5.7764465682
 10
-485.6853803132
 20
-5.7488842184
 10
-485.686939614
 20
-5.7204391594
  0
LWPOLYLINE
  5
578
100
AcDbEntity
  8
RACCORDO
100
AcDbPolyline
 62
253
  6
CONTINUOUS
 90
19
 70
0
 10
-853.907520089
 20
-4.4998586844
 10
-853.9358149432
 20
-4.4983396309
 10
-853.9632928452
 20
-4.4945731467
 10
-853.9899394907
 20
-4.4885183092
 10
-854.015864132
 20
-4.4800076843
 10
-854.0409056497
 20
-4.4691369704
 10
-854.0646402763
 20
-4.4562928417
 10
-854.0870149291
 20
-4.4414780186
 10
-854.1080104359
 20
-4.4247053291
 10
-854.1272654409
 20
-4.4064304064
 10
-854.1446801777
 20
-4.3867422486
 10
-854.160287881
 20
-4.3656382549
 10
-854.1739446294
 20
-4.3434718083
 10
-854.1856159669
 20
-4.3203131132
 10
-854.1952831862
 20
-4.2962110967
 10
-854.2028444772
 20
-4.2715037104
 10
-854.2082592647
 20
-4.2463512964
 10
-854.2115378561
 20
-4.2207313895
 10
-854.2126652077
 20
-4.1947135657
  0
LWPOLYLINE
  5
579
100
AcDbEntity
  8
RACCORDO
100
AcDbPolyline
 62
253
  6
CONTINUOUS
 90
19
 70
0
 10
-850.2457786642
 20
-3.2792782095
 10
-850.2174838099
 20
-3.280797263
 10
-850.1900059079
 20
-3.2845637472
 10
-850.1633592624
 20
-3.2906185847
 10
-850.1374346211
 20
-3.2991292096
 10
-850.1123931034
 20
-3.3099999235
 10
-850.0886584768
 20
-3.3228440522
 10
-850.0662838241
 20
-3.3376588754
 10
-850.0452883172
 20
-3.3544315649
 10
-850.0260333122
 20
-3.3727064876
 10
-850.0086185754
 20
-3.3923946454
 10
-849.9930108721
 20
-3.4134986391
 10
-849.9793541237
 20
-3.4356650857
 10
-849.9676827862
 20
-3.4588237808
 10
-849.9580155669
 20
-3.4829257973
 10
-849.9504542759
 20
-3.5076331835
 10
-849.9450394884
 20
-3.5327855975
 10
-849.941760897
 20
-3.5584055044
 10
-849.9406335454
 20
-3.5844233282
  0
LINE
  5
57A
100
AcDbEntity
  8
RACCORDO
100
AcDbLine
 62
253
  6
CONTINUOUS
 10
-982.6702134776
 20
-4.1947131272
 11
-982.6769173899
 21
-4.1950832786
  0
LWPOLYLINE
  5
57B
100
AcDbEntity
  8
RACCORDO
100
AcDbPolyline
 62
7
  6
CONTINUOUS
 90
16
 70
0
 10
-982.9032984513
 20
-4.3895686621
 10
-982.9143814547
 20
-4.3901756568
 10
-982.9269438032
 20
-4.3923622264
 10
-982.9386741082
 20
-4.3959351644
 10
-982.9494054702
 20
-4.4006478745
 10
-982.9591158184
 20
-4.4062938494
 10
-982.9678955657
 20
-4.412765971
 10
-982.9757286479
 20
-4.4199234167
 10
-982.9825841686
 20
-4.4276010098
 10
-982.988530156
 20
-4.4357429229
 10
-982.9936775017
 20
-4.4444318218
 10
-982.9979261249
 20
-4.4534209961
 10
-983.0011732412
 20
-4.4621874999
 10
-983.0035551056
 20
-4.4705348348
 10
-983.0052973883
 20
-4.4786513656
 10
-983.006542129
 20
-4.4866420981
  0
LWPOLYLINE
  5
57C
100
AcDbEntity
  8
RACCORDO
100
AcDbPolyline
 62
7
  6
CONTINUOUS
 90
11
 70
0
 10
-982.9032940395
 20
-4.3895685311
 10
-982.9128635158
 20
-4.3900204545
 10
-982.9255958077
 20
-4.3920491035
 10
-982.9375017286
 20
-4.3955075508
 10
-982.9484061606
 20
-4.4001455254
 10
-982.9582817276
 20
-4.4057511247
 10
-982.9672163178
 20
-4.412211744
 10
-982.9751901151
 20
-4.4193815348
 10
-982.9821703433
 20
-4.4270914595
 10
-982.9882261101
 20
-4.4352840688
 10
-982.9934691777
 20
-4.4440412657
  0
LWPOLYLINE
  5
57D
100
AcDbEntity
  8
RACCORDO
100
AcDbPolyline
 62
253
  6
CONTINUOUS
 90
11
 70
0
 10
-983.0020408318
 20
-3.2792782095
 10
-982.9939544527
 20
-3.2790833343
 10
-982.9848502214
 20
-3.2791081716
 10
-982.9746370516
 20
-3.2792782094
 10
-982.9631026804
 20
-3.279192491
 10
-982.9502479498
 20
-3.279012247
 10
-982.9363496309
 20
-3.2792782086
 10
-982.9214891216
 20
-3.2794927611
 10
-982.9054915157
 20
-3.2792644806
 10
-982.8883043167
 20
-3.2792782096
 10
-982.869968419
 20
-3.2794723732
  0
LWPOLYLINE
  5
57E
100
AcDbEntity
  8
RACCORDO
100
AcDbPolyline
 62
253
  6
CONTINUOUS
 90
19
 70
0
 10
-484.7715042578
 20
-1.7535526158
 10
-484.7455179226
 20
-1.7546646569
 10
-484.719896897
 20
-1.7579432935
 10
-484.6947112904
 20
-1.7633746454
 10
-484.6699192714
 20
-1.7709770233
 10
-484.645702484
 20
-1.7807044963
 10
-484.622459524
 20
-1.7924341854
 10
-484.6002577034
 20
-1.8061492514
 10
-484.579148252
 20
-1.8218109297
 10
-484.559486473
 20
-1.8392428314
 10
-484.5412821691
 20
-1.8584588056
 10
-484.5246072637
 20
-1.8793766064
 10
-484.5098754713
 20
-1.9016589364
 10
-484.4970900232
 20
-1.9252693743
 10
-484.4862624556
 20
-1.9501730952
 10
-484.4777702646
 20
-1.976024938
 10
-484.4717093705
 20
-2.0026903258
 10
-484.4679184399
 20
-2.0302526755
 10
-484.4663591391
 20
-2.0586977346
  0
LWPOLYLINE
  5
57F
100
AcDbEntity
  8
RACCORDO
100
AcDbPolyline
 62
253
  6
CONTINUOUS
 90
19
 70
0
 10
-486.907520089
 20
-4.4998586844
 10
-486.9358149432
 20
-4.4983396309
 10
-486.9632928452
 20
-4.4945731467
 10
-486.9899394907
 20
-4.4885183092
 10
-487.015864132
 20
-4.4800076843
 10
-487.0409056497
 20
-4.4691369704
 10
-487.0646402763
 20
-4.4562928417
 10
-487.0870149291
 20
-4.4414780186
 10
-487.1080104359
 20
-4.4247053291
 10
-487.1272654409
 20
-4.4064304064
 10
-487.1446801777
 20
-4.3867422486
 10
-487.160287881
 20
-4.3656382549
 10
-487.1739446294
 20
-4.3434718083
 10
-487.1856159669
 20
-4.3203131132
 10
-487.1952831862
 20
-4.2962110967
 10
-487.2028444772
 20
-4.2715037104
 10
-487.2082592647
 20
-4.2463512964
 10
-487.2115378561
 20
-4.2207313895
 10
-487.2126652077
 20
-4.1947135657
  0
LWPOLYLINE
  5
580
100
AcDbEntity
  8
RACCORDO
100
AcDbPolyline
 62
253
  6
CONTINUOUS
 90
19
 70
0
 10
-483.2457786642
 20
-3.2792782095
 10
-483.2174838099
 20
-3.280797263
 10
-483.1900059079
 20
-3.2845637472
 10
-483.1633592624
 20
-3.2906185847
 10
-483.1374346211
 20
-3.2991292096
 10
-483.1123931034
 20
-3.3099999235
 10
-483.0886584768
 20
-3.3228440522
 10
-483.0662838241
 20
-3.3376588754
 10
-483.0452883172
 20
-3.3544315649
 10
-483.0260333122
 20
-3.3727064876
 10
-483.0086185754
 20
-3.3923946454
 10
-482.9930108721
 20
-3.4134986391
 10
-482.9793541237
 20
-3.4356650857
 10
-482.9676827862
 20
-3.4588237808
 10
-482.9580155669
 20
-3.4829257973
 10
-482.9504542759
 20
-3.5076331835
 10
-482.9450394884
 20
-3.5327855975
 10
-482.941760897
 20
-3.5584055044
 10
-482.9406335454
 20
-3.5844233282
  0
LINE
  5
581
100
AcDbEntity
  8
RACCORDO
100
AcDbLine
 62
253
  6
CONTINUOUS
 10
-354.4830773399
 20
-4.1947135654
 11
-354.4763766749
 21
-4.1950836868
  0
LINE
  5
582
100
AcDbEntity
  8
RACCORDO
100
AcDbLine
 62
253
  6
CONTINUOUS
 10
-354.2361977533
 20
-4.3905397473
 11
-354.2499999303
 21
-4.389568447
  0
LWPOLYLINE
  5
583
100
AcDbEntity
  8
RACCORDO
100
AcDbPolyline
 62
253
  6
CONTINUOUS
 90
20
 70
0
 10
-983.0020408318
 20
-4.4998586844
 10
-983.0026833523
 20
-4.4999377437
 10
-983.0032982208
 20
-4.5003902279
 10
-983.0038857474
 20
-4.5012106194
 10
-983.0044534536
 20
-4.5023542232
 10
-983.0049943471
 20
-4.5038543767
 10
-983.005487189
 20
-4.5058236131
 10
-983.0059349262
 20
-4.5082597103
 10
-983.0063355024
 20
-4.5111557842
 10
-983.0066605902
 20
-4.5146218871
 10
-983.0069124165
 20
-4.5186754157
 10
-983.0070896612
 20
-4.5232977463
 10
-983.0071588651
 20
-4.5285551222
 10
-983.0071179873
 20
-4.5345040748
 10
-983.0069691345
 20
-4.5411022124
 10
-983.0066847297
 20
-4.5482829737
 10
-983.006253451
 20
-4.5561430645
 10
-983.0056845021
 20
-4.564618091
 10
-983.0049804689
 20
-4.5734126195
 10
-983.0041408159
 20
-4.5824413761
  0
LINE
  5
584
100
AcDbEntity
  8
RACCORDO
100
AcDbLine
 62
253
  6
CONTINUOUS
 10
-983.002040818
 20
-4.6015737223
 11
-983.0025677904
 21
-4.6016377928
  0
LINE
  5
585
100
AcDbEntity
  8
0
100
AcDbLine
 62
7
  6
CONTINUOUS
 10
-471.0416521281
 20
36.110431553
 11
-478.5766493766
 21
36.110431553
  0
LINE
  5
586
100
AcDbEntity
  8
0
100
AcDbLine
 62
7
  6
CONTINUOUS
 10
-858.5766493766
 20
36.110431553
 11
-866.111646625
 21
36.110431553
  0
LINE
  5
587
100
AcDbEntity
  8
0
100
AcDbLine
 62
7
  6
CONTINUOUS
 10
-471.0416521281
 20
38.610431553
 11
-473.0416521281
 21
38.610431553
  0
LINE
  5
588
100
AcDbEntity
  8
0
100
AcDbLine
 62
7
  6
CONTINUOUS
 10
-864.111646625
 20
38.610431553
 11
-866.111646625
 21
38.610431553
  0
LINE
  5
589
100
AcDbEntity
  8
0
100
AcDbLine
 62
253
  6
CONTINUOUS
 10
-478.5766493766
 20
42.110431553
 11
-858.5766493766
 21
42.110431553
  0
LINE
  5
58A
100
AcDbEntity
  8
0
100
AcDbLine
 62
7
  6
CONTINUOUS
 10
-980.0766493766
 20
43.610431553
 11
-954.3989798469
 21
43.610431553
  0
LINE
  5
58B
100
AcDbEntity
  8
0
100
AcDbLine
 62
253
  6
CONTINUOUS
 10
-473.0416521281
 20
43.610431553
 11
-382.7543189062
 21
43.610431553
  0
LINE
  5
58C
100
AcDbEntity
  8
0
100
AcDbLine
 62
7
  6
CONTINUOUS
 10
-382.7543189062
 20
43.610431553
 11
-357.0766493766
 21
43.610431553
  0
LINE
  5
58D
100
AcDbEntity
  8
0
100
AcDbLine
 62
253
  6
CONTINUOUS
 10
-864.111646625
 20
43.610431553
 11
-954.3989798469
 21
43.610431553
  0
LINE
  5
58E
100
AcDbEntity
  8
0
100
AcDbLine
 62
7
  6
CONTINUOUS
 10
-977.0766493766
 20
44.110431553
 11
-957.0766493766
 21
44.110431553
  0
LINE
  5
58F
100
AcDbEntity
  8
0
100
AcDbLine
 62
7
  6
CONTINUOUS
 10
-360.0766493766
 20
44.110431553
 11
-380.0766493766
 21
44.110431553
  0
LINE
  5
590
100
AcDbEntity
  8
0
100
AcDbLine
 62
7
  6
CONTINUOUS
 10
-478.5766493766
 20
46.110431553
 11
-858.5766493766
 21
46.110431553
  0
LINE
  5
591
100
AcDbEntity
  8
0
100
AcDbLine
 62
7
  6
CONTINUOUS
 10
-977.0766493766
 20
46.610431553
 11
-957.0766493766
 21
46.610431553
  0
LINE
  5
592
100
AcDbEntity
  8
0
100
AcDbLine
 62
7
  6
CONTINUOUS
 10
-473.0416521281
 20
46.610431553
 11
-385.7543189062
 21
46.610431553
  0
LINE
  5
593
100
AcDbEntity
  8
0
100
AcDbLine
 62
7
  6
CONTINUOUS
 10
-360.0766493766
 20
46.610431553
 11
-380.0766493766
 21
46.610431553
  0
LINE
  5
594
100
AcDbEntity
  8
0
100
AcDbLine
 62
7
  6
CONTINUOUS
 10
-864.111646625
 20
46.610431553
 11
-951.3989798469
 21
46.610431553
  0
LINE
  5
595
100
AcDbEntity
  8
RACCORDO
100
AcDbLine
 62
253
  6
CONTINUOUS
 10
-354.1512580188
 20
-4.6015737122
 11
-354.1507316505
 21
-4.6016376535
  0
LWPOLYLINE
  5
596
100
AcDbEntity
  8
0
100
AcDbPolyline
 62
7
  6
CONTINUOUS
 90
19
 70
0
 10
-951.3989798469
 20
46.610431553
 10
-951.70920914
 20
46.5947186828
 10
-952.0043333638
 20
46.5492825929
 10
-952.2843525181
 20
46.4768210618
 10
-952.5497353328
 20
46.3806178337
 10
-952.8000130781
 20
46.2633128798
 10
-953.0337795646
 20
46.1258612425
 10
-953.2512543799
 20
45.9698601298
 10
-953.4522179364
 20
45.7978027353
 10
-953.6346052818
 20
45.6109303734
 10
-953.7982476293
 20
45.4106413914
 10
-953.9433137657
 20
45.1993572699
 10
-954.0682450997
 20
44.9797463615
 10
-954.1722593312
 20
44.753553754
 10
-954.2561387603
 20
44.5229650554
 10
-954.3206716955
 20
44.29145534
 10
-954.3661209065
 20
44.0613977736
 10
-954.3922236236
 20
43.8339021921
 10
-954.3989798469
 20
43.610431553
  0
LINE
  5
597
100
AcDbEntity
  8
0
100
AcDbLine
 62
253
  6
CONTINUOUS
 10
-473.0416521281
 20
47.110431553
 11
-426.7543189062
 21
47.110431553
  0
LINE
  5
598
100
AcDbEntity
  8
0
100
AcDbLine
 62
253
  6
CONTINUOUS
 10
-383.0766493766
 20
47.110431553
 11
-380.5766493766
 21
47.110431553
  0
LINE
  5
599
100
AcDbEntity
  8
0
100
AcDbLine
 62
253
  6
CONTINUOUS
 10
-864.111646625
 20
47.110431553
 11
-910.3989798469
 21
47.110431553
  0
LINE
  5
59A
100
AcDbEntity
  8
0
100
AcDbLine
 62
253
  6
CONTINUOUS
 10
-954.0766493766
 20
47.110431553
 11
-956.5766493766
 21
47.110431553
  0
LINE
  5
59B
100
AcDbEntity
  8
0
100
AcDbLine
 62
7
  6
CONTINUOUS
 10
-473.0416521281
 20
56.810431553
 11
-426.7543189062
 21
56.810431553
  0
LINE
  5
59C
100
AcDbEntity
  8
0
100
AcDbLine
 62
7
  6
CONTINUOUS
 10
-383.0766493766
 20
56.810431553
 11
-380.5766493766
 21
56.810431553
  0
LINE
  5
59D
100
AcDbEntity
  8
0
100
AcDbLine
 62
7
  6
CONTINUOUS
 10
-864.111646625
 20
56.810431553
 11
-910.3989798469
 21
56.810431553
  0
LINE
  5
59E
100
AcDbEntity
  8
0
100
AcDbLine
 62
7
  6
CONTINUOUS
 10
-954.0766493766
 20
56.810431553
 11
-956.5766493766
 21
56.810431553
  0
LWPOLYLINE
  5
59F
100
AcDbEntity
  8
RACCORDO
100
AcDbPolyline
 62
253
  6
CONTINUOUS
 90
10
 70
0
 10
-354.3994348405
 20
-4.4998586844
 10
-354.4085861656
 20
-4.4983396309
 10
-354.4173766214
 20
-4.4945731467
 10
-354.4257876924
 20
-4.4885183092
 10
-354.4338334678
 20
-4.4800076843
 10
-354.4414666413
 20
-4.4691369704
 10
-354.4485752644
 20
-4.4562928417
 10
-354.4551353077
 20
-4.4414780186
 10
-354.4611383734
 20
-4.4247053291
 10
-354.4664934914
 20
-4.4064304064
  0
LINE
  5
5A0
100
AcDbEntity
  8
RACCORDO
100
AcDbLine
 62
253
  6
CONTINUOUS
 10
-354.2226636971
 20
-4.3934347745
 11
-354.2361977533
 21
-4.3905397473
  0
LINE
  5
5A1
100
AcDbEntity
  8
RACCORDO
100
AcDbLine
 62
253
  6
CONTINUOUS
 10
-354.3994392339
 20
-2.0586991691
 11
-354.3989336207
 21
-2.0585341005
  0
LINE
  5
5A2
100
AcDbEntity
  8
RACCORDO
100
AcDbLine
 62
253
  6
CONTINUOUS
 10
-354.3994349069
 20
-5.7204391377
 11
-354.3989302668
 21
-5.7206038904
  0
LINE
  5
5A3
100
AcDbEntity
  8
RACCORDO
100
AcDbLine
 62
253
  6
CONTINUOUS
 10
-354.2096606736
 20
-4.39819729
 11
-354.2226636971
 21
-4.3934347745
  0
LWPOLYLINE
  5
5A4
100
AcDbEntity
  8
RACCORDO
100
AcDbPolyline
 62
253
  6
CONTINUOUS
 90
22
 70
0
 10
-485.686939614
 20
-4.601573724
 10
-485.6874523747
 20
-4.5919085979
 10
-485.6887629349
 20
-4.5825772714
 10
-485.6908718736
 20
-4.5735665468
 10
-485.6938821807
 20
-4.5647439266
 10
-485.6976926109
 20
-4.5562077997
 10
-485.7020130954
 20
-4.5482925786
 10
-485.706879619
 20
-4.5410737242
 10
-485.7122936526
 20
-4.5344428382
 10
-485.7179299087
 20
-4.5284714967
 10
-485.7237756498
 20
-4.5232062108
 10
-485.7298809586
 20
-4.5185865878
 10
-485.7360138055
 20
-4.5145399038
 10
-485.7421544126
 20
-4.5110844814
 10
-485.7483469777
 20
-4.5082036866
 10
-485.7544489318
 20
-4.5057827284
 10
-485.7604338011
 20
-4.5038286561
 10
-485.7663405002
 20
-4.5023441655
 10
-485.7721190606
 20
-4.5012118736
 10
-485.777753807
 20
-4.5003963328
 10
-485.7832651091
 20
-4.4999435322
 10
-485.7886546536
 20
-4.4998586844
  0
LWPOLYLINE
  5
5A5
100
AcDbEntity
  8
RACCORDO
100
AcDbPolyline
 62
253
  6
CONTINUOUS
 90
22
 70
0
 10
-484.4663591391
 20
-3.1775631699
 10
-484.4658463784
 20
-3.187228296
 10
-484.4645358182
 20
-3.1965596225
 10
-484.4624268796
 20
-3.2055703472
 10
-484.4594165724
 20
-3.2143929673
 10
-484.4556061422
 20
-3.2229290942
 10
-484.4512856578
 20
-3.2308443154
 10
-484.4464191341
 20
-3.2380631698
 10
-484.4410051006
 20
-3.2446940557
 10
-484.4353688444
 20
-3.2506653973
 10
-484.4295231033
 20
-3.2559306831
 10
-484.4234177945
 20
-3.2605503062
 10
-484.4172849476
 20
-3.2645969901
 10
-484.4111443405
 20
-3.2680524125
 10
-484.4049517754
 20
-3.2709332074
 10
-484.3988498213
 20
-3.2733541655
 10
-484.392864952
 20
-3.2753082379
 10
-484.3869582529
 20
-3.2767927284
 10
-484.3811796925
 20
-3.2779250203
 10
-484.3755449461
 20
-3.2787405611
 10
-484.370033644
 20
-3.2791933617
 10
-484.3646440995
 20
-3.2792782095
  0
LWPOLYLINE
  5
5A6
100
AcDbEntity
  8
RACCORDO
100
AcDbPolyline
 62
253
  6
CONTINUOUS
 90
16
 70
0
 10
-485.3817940862
 20
-6.0255814121
 10
-485.3820072389
 20
-6.0132537387
 10
-485.3821309637
 20
-6.000530507
 10
-485.3821631949
 20
-5.9876241054
 10
-485.3821033942
 20
-5.9747499802
 10
-485.3819525594
 20
-5.9621230385
 10
-485.381713208
 20
-5.9499540616
 10
-485.3813893351
 20
-5.9384461856
 10
-485.3809863467
 20
-5.9277915112
 10
-485.3805109693
 20
-5.9181678965
 10
-485.379971138
 20
-5.9097359882
 10
-485.3793758636
 20
-5.9026365398
 10
-485.3787350825
 20
-5.8969880622
 10
-485.3780594908
 20
-5.8928848453
 10
-485.3773603656
 20
-5.8903953839
 10
-485.3766493768
 20
-5.8895612345
  0
LWPOLYLINE
  5
5A7
100
AcDbEntity
  8
RACCORDO
100
AcDbPolyline
 62
253
  6
CONTINUOUS
 90
16
 70
0
 10
-484.7715046669
 20
-1.7535554819
 10
-484.7712915142
 20
-1.7658831553
 10
-484.7711677894
 20
-1.778606387
 10
-484.7711355582
 20
-1.7915127885
 10
-484.7711953589
 20
-1.8043869138
 10
-484.7713461937
 20
-1.8170138554
 10
-484.7715855451
 20
-1.8291828324
 10
-484.771909418
 20
-1.8406907083
 10
-484.7723124064
 20
-1.8513453827
 10
-484.7727877838
 20
-1.8609689974
 10
-484.7733276151
 20
-1.8694009058
 10
-484.7739228895
 20
-1.8765003542
 10
-484.7745636706
 20
-1.8821488318
 10
-484.7752392623
 20
-1.8862520487
 10
-484.7759383875
 20
-1.8887415101
 10
-484.7766493763
 20
-1.8895756594
  0
LWPOLYLINE
  5
5A8
100
AcDbEntity
  8
RACCORDO
100
AcDbPolyline
 62
253
  6
CONTINUOUS
 90
13
 70
0
 10
-486.907518771
 20
-4.4998582448
 10
-486.9076633489
 20
-4.4859279597
 10
-486.9072053829
 20
-4.4720682195
 10
-486.9061537705
 20
-4.4585482939
 10
-486.9045289427
 20
-4.4456308511
 10
-486.9023624671
 20
-4.4335668537
 10
-486.8996964345
 20
-4.4225906836
 10
-486.8965826412
 20
-4.4129155881
 10
-486.8930815828
 20
-4.4047295369
 10
-486.8892612785
 20
-4.3981915705
 10
-486.8851959503
 20
-4.3934287097
 10
-486.8809645802
 20
-4.3905334884
 10
-486.8766493763
 20
-4.3895621556
  0
LWPOLYLINE
  5
5A9
100
AcDbEntity
  8
RACCORDO
100
AcDbPolyline
 62
253
  6
CONTINUOUS
 90
13
 70
0
 10
-483.2457799821
 20
-3.2792786492
 10
-483.2456354042
 20
-3.2932089342
 10
-483.2460933702
 20
-3.3070686745
 10
-483.2471449826
 20
-3.3205886
 10
-483.2487698104
 20
-3.3335060428
 10
-483.250936286
 20
-3.3455700402
 10
-483.2536023186
 20
-3.3565462103
 10
-483.2567161119
 20
-3.3662213059
 10
-483.2602171704
 20
-3.374407357
 10
-483.2640374746
 20
-3.3809453235
 10
-483.2681028028
 20
-3.3857081843
 10
-483.2723341729
 20
-3.3886034055
 10
-483.2766493768
 20
-3.3895747383
  0
LWPOLYLINE
  5
5AA
100
AcDbEntity
  8
RACCORDO
100
AcDbPolyline
 62
253
  6
CONTINUOUS
 90
13
 70
0
 10
-485.7886546513
 20
-4.4998586825
 10
-485.7887107248
 20
-4.485928726
 10
-485.788532495
 20
-4.4720694745
 10
-485.7881234243
 20
-4.4585501573
 10
-485.7874914592
 20
-4.4456334
 10
-485.7866488763
 20
-4.4335701228
 10
-485.7856120435
 20
-4.4225946665
 10
-485.7844011023
 20
-4.4129202397
 10
-485.7830395764
 20
-4.4047347774
 10
-485.7815539147
 20
-4.39819729
 10
-485.7799729777
 20
-4.3934347745
 10
-485.7783274765
 20
-4.3905397473
 10
-485.7766493766
 20
-4.389568447
  0
LWPOLYLINE
  5
5AB
100
AcDbEntity
  8
RACCORDO
100
AcDbPolyline
 62
253
  6
CONTINUOUS
 90
13
 70
0
 10
-484.3646441018
 20
-3.2792782115
 10
-484.3645880284
 20
-3.293208168
 10
-484.3647662581
 20
-3.3070674194
 10
-484.3651753289
 20
-3.3205867366
 10
-484.3658072939
 20
-3.333503494
 10
-484.3666498769
 20
-3.3455667712
 10
-484.3676867097
 20
-3.3565422275
 10
-484.3688976508
 20
-3.3662166543
 10
-484.3702591767
 20
-3.3744021165
 10
-484.3717448384
 20
-3.3809396039
 10
-484.3733257754
 20
-3.3857021194
 10
-484.3749712766
 20
-3.3885971466
 10
-484.3766493766
 20
-3.389568447
  0
LINE
  5
5AC
100
AcDbEntity
  8
RACCORDO
100
AcDbLine
 62
253
  6
CONTINUOUS
 10
-487.2126652077
 20
-4.1947135657
 11
-487.2126652077
 21
-3.5844233282
  0
LINE
  5
5AD
100
AcDbEntity
  8
RACCORDO
100
AcDbLine
 62
7
  6
CONTINUOUS
 10
-487.0766493766
 20
-4.189568447
 11
-487.0766493766
 21
-3.589568447
  0
LINE
  5
5AE
100
AcDbEntity
  8
RACCORDO
100
AcDbLine
 62
7
  6
CONTINUOUS
 10
-485.5766493766
 20
-5.689568447
 11
-485.5766493766
 21
-4.589568447
  0
LINE
  5
5AF
100
AcDbEntity
  8
RACCORDO
100
AcDbLine
 62
7
  6
CONTINUOUS
 10
-485.5766493766
 20
-3.189568447
 11
-485.5766493766
 21
-2.089568447
  0
LINE
  5
5B0
100
AcDbEntity
  8
RACCORDO
100
AcDbLine
 62
7
  6
CONTINUOUS
 10
-484.5766493766
 20
-2.089568447
 11
-484.5766493766
 21
-3.189568447
  0
LINE
  5
5B1
100
AcDbEntity
  8
RACCORDO
100
AcDbLine
 62
7
  6
CONTINUOUS
 10
-484.5766493766
 20
-4.589568447
 11
-484.5766493766
 21
-5.689568447
  0
LINE
  5
5B2
100
AcDbEntity
  8
RACCORDO
100
AcDbLine
 62
7
  6
CONTINUOUS
 10
-483.0766493766
 20
-3.589568447
 11
-483.0766493766
 21
-4.189568447
  0
LINE
  5
5B3
100
AcDbEntity
  8
RACCORDO
100
AcDbLine
 62
253
  6
CONTINUOUS
 10
-482.9406335454
 20
-3.5844233282
 11
-482.9406335454
 21
-4.1947135657
  0
LINE
  5
5B4
100
AcDbEntity
  8
0
100
AcDbLine
 62
7
  6
CONTINUOUS
 10
-478.5766493766
 20
46.110431553
 11
-478.5766493766
 21
-53.889568447
  0
LINE
  5
5B5
100
AcDbEntity
  8
0
100
AcDbLine
 62
253
  6
CONTINUOUS
 10
-477.4678143681
 20
36.110431553
 11
-477.4678143681
 21
-43.889568447
  0
LINE
  5
5B6
100
AcDbEntity
  8
0
100
AcDbLine
 62
253
  6
CONTINUOUS
 10
-476.512556624
 20
36.110431553
 11
-476.512556624
 21
-43.889568447
  0
LINE
  5
5B7
100
AcDbEntity
  8
RACCORDO
100
AcDbLine
 62
253
  6
CONTINUOUS
 10
-485.686939614
 20
-3.1775631699
 11
-485.6869396125
 21
-2.3259218206
  0
LINE
  5
5B8
100
AcDbEntity
  8
RACCORDO
100
AcDbLine
 62
253
  6
CONTINUOUS
 10
-485.6870157338
 20
-4.6596398942
 11
-485.686939614
 21
-4.601573724
  0
LINE
  5
5B9
100
AcDbEntity
  8
RACCORDO
100
AcDbLine
 62
253
  6
CONTINUOUS
 10
-484.4662830193
 20
-3.1194969997
 11
-484.4663591391
 21
-3.1775631699
  0
LINE
  5
5BA
100
AcDbEntity
  8
RACCORDO
100
AcDbLine
 62
253
  6
CONTINUOUS
 10
-484.4663591391
 20
-4.601573724
 11
-484.4663591406
 21
-5.4532150733
  0
LWPOLYLINE
  5
5BB
100
AcDbEntity
  8
RACCORDO
100
AcDbPolyline
 62
253
  6
CONTINUOUS
 90
3
 70
0
 10
-485.6869396125
 20
-2.3259218206
 10
-485.686759843
 20
-2.2391645162
 10
-485.686939614
 20
-2.0586977346
  0
LWPOLYLINE
  5
5BC
100
AcDbEntity
  8
RACCORDO
100
AcDbPolyline
 62
253
  6
CONTINUOUS
 90
3
 70
0
 10
-484.4663591406
 20
-5.4532150733
 10
-484.4665389101
 20
-5.5399723777
 10
-484.4663591391
 20
-5.7204391594
  0
LINE
  5
5BD
100
AcDbEntity
  8
RACCORDO
100
AcDbLine
 62
253
  6
CONTINUOUS
 10
-485.686939614
 20
-5.7204391594
 11
-485.6870157338
 21
-4.6596398942
  0
LINE
  5
5BE
100
AcDbEntity
  8
RACCORDO
100
AcDbLine
 62
253
  6
CONTINUOUS
 10
-484.4663591391
 20
-2.0586977346
 11
-484.4662830193
 21
-3.1194969997
  0
LWPOLYLINE
  5
5BF
100
AcDbEntity
  8
RACCORDO
100
AcDbPolyline
 62
253
  6
CONTINUOUS
 90
13
 70
0
 10
-485.7886546533
 20
-3.2792782097
 10
-485.7887107237
 20
-3.2932081439
 10
-485.7885324914
 20
-3.3070673712
 10
-485.7881234187
 20
-3.3205866633
 10
-485.7874914522
 20
-3.3335033955
 10
-485.7866488685
 20
-3.3455666483
 10
-485.7856120354
 20
-3.3565420818
 10
-485.7844010946
 20
-3.3662164883
 10
-485.7830395695
 20
-3.3744019333
 10
-485.7815539091
 20
-3.380939407
 10
-485.7799729737
 20
-3.385701913
 10
-485.7783274744
 20
-3.3885969352
 10
-485.7766493765
 20
-3.3895682352
  0
LWPOLYLINE
  5
5C0
100
AcDbEntity
  8
RACCORDO
100
AcDbPolyline
 62
253
  6
CONTINUOUS
 90
13
 70
0
 10
-484.3646440998
 20
-4.4998586842
 10
-484.3645880294
 20
-4.48592875
 10
-484.3647662617
 20
-4.4720695227
 10
-484.3651753344
 20
-4.4585502306
 10
-484.3658073009
 20
-4.4456334984
 10
-484.3666498847
 20
-4.4335702457
 10
-484.3676867177
 20
-4.4225948121
 10
-484.3688976586
 20
-4.4129204057
 10
-484.3702591836
 20
-4.4047349607
 10
-484.371744844
 20
-4.398197487
 10
-484.3733257794
 20
-4.3934349809
 10
-484.3749712787
 20
-4.3905399587
 10
-484.3766493766
 20
-4.3895686588
  0
LWPOLYLINE
  5
5C1
100
AcDbEntity
  8
RACCORDO
100
AcDbPolyline
 62
253
  6
CONTINUOUS
 90
13
 70
0
 10
-486.9075200723
 20
-3.2792782151
 10
-486.907664261
 20
-3.2932081684
 10
-486.9072059561
 20
-3.3070674167
 10
-486.9061540603
 20
-3.3205867309
 10
-486.904529008
 20
-3.3335034857
 10
-486.9023623671
 20
-3.3455667608
 10
-486.8996962268
 20
-3.3565422158
 10
-486.8965823794
 20
-3.3662166421
 10
-486.8930813143
 20
-3.3744021048
 10
-486.8892610429
 20
-3.3809395936
 10
-486.8851957775
 20
-3.3857021116
 10
-486.8809644898
 20
-3.3885971422
 10
-486.8766493766
 20
-3.389568447
  0
LWPOLYLINE
  5
5C2
100
AcDbEntity
  8
RACCORDO
100
AcDbPolyline
 62
253
  6
CONTINUOUS
 90
13
 70
0
 10
-483.2457786809
 20
-4.4998586789
 10
-483.2456344921
 20
-4.4859287255
 10
-483.2460927971
 20
-4.4720694773
 10
-483.2471446928
 20
-4.458550163
 10
-483.2487697451
 20
-4.4456334082
 10
-483.250936386
 20
-4.4335701331
 10
-483.2536025263
 20
-4.4225946781
 10
-483.2567163737
 20
-4.4129202518
 10
-483.2602174388
 20
-4.4047347891
 10
-483.2640377102
 20
-4.3981973003
 10
-483.2681029756
 20
-4.3934347824
 10
-483.2723342633
 20
-4.3905397517
 10
-483.2766493766
 20
-4.389568447
  0
LWPOLYLINE
  5
5C3
100
AcDbEntity
  8
RACCORDO
100
AcDbPolyline
 62
253
  6
CONTINUOUS
 90
16
 70
0
 10
-485.3817944938
 20
-1.7535526261
 10
-485.3820076425
 20
-1.7658802472
 10
-485.3821313582
 20
-1.7786032392
 10
-485.3821635761
 20
-1.7915092475
 10
-485.3821037585
 20
-1.8043828625
 10
-485.3819529037
 20
-1.8170092156
 10
-485.3817135298
 20
-1.829177565
 10
-485.381389632
 20
-1.8406848133
 10
-485.3809866165
 20
-1.8513388973
 10
-485.3805112096
 20
-1.8609619936
 10
-485.3799713464
 20
-1.8693934867
 10
-485.3793760374
 20
-1.8764926497
 10
-485.3787352186
 20
-1.882140993
 10
-485.3780595855
 20
-1.8862442422
 10
-485.377360415
 20
-1.8887339116
 10
-485.3766493766
 20
-1.889568447
  0
LWPOLYLINE
  5
5C4
100
AcDbEntity
  8
RACCORDO
100
AcDbPolyline
 62
253
  6
CONTINUOUS
 90
16
 70
0
 10
-484.7715042593
 20
-6.0255842678
 10
-484.7712911107
 20
-6.0132566467
 10
-484.7711673949
 20
-6.0005336547
 10
-484.771135177
 20
-5.9876276465
 10
-484.7711949946
 20
-5.9747540314
 10
-484.7713458494
 20
-5.9621276783
 10
-484.7715852233
 20
-5.9499593289
 10
-484.7719091211
 20
-5.9384520806
 10
-484.7723121367
 20
-5.9277979966
 10
-484.7727875435
 20
-5.9181749003
 10
-484.7733274067
 20
-5.9097434072
 10
-484.7739227157
 20
-5.9026442443
 10
-484.7745635345
 20
-5.896995901
 10
-484.7752391676
 20
-5.8928926517
 10
-484.7759383382
 20
-5.8904029823
 10
-484.7766493766
 20
-5.889568447
  0
LWPOLYLINE
  5
5C5
100
AcDbEntity
  8
RACCORDO
100
AcDbPolyline
 62
253
  6
CONTINUOUS
 90
19
 70
0
 10
-487.2126652077
 20
-3.5844233282
 10
-487.2115254804
 20
-3.5583238702
 10
-487.2082296555
 20
-3.5326386857
 10
-487.2027934025
 20
-3.5074376744
 10
-487.1952073237
 20
-3.4827035208
 10
-487.1855124031
 20
-3.4585917539
 10
-487.1738098006
 20
-3.4354256853
 10
-487.1601146194
 20
-3.4132466256
 10
-487.1444648993
 20
-3.3921328331
 10
-487.1270144707
 20
-3.3724461615
 10
-487.107735681
 20
-3.3541892781
 10
-487.0867233916
 20
-3.3374448384
 10
-487.0643331049
 20
-3.3226593553
 10
-487.040567399
 20
-3.3098416051
 10
-487.0154958011
 20
-3.2989985847
 10
-486.989585619
 20
-3.2905191
 10
-486.9630124921
 20
-3.2844978172
 10
-486.9356525818
 20
-3.2807649278
 10
-486.907520089
 20
-3.2792782095
  0
LWPOLYLINE
  5
5C6
100
AcDbEntity
  8
RACCORDO
100
AcDbPolyline
 62
253
  6
CONTINUOUS
 90
19
 70
0
 10
-482.9406335454
 20
-4.1947135657
 10
-482.9417732728
 20
-4.2208130238
 10
-482.9450690976
 20
-4.2464982082
 10
-482.9505053507
 20
-4.2716992195
 10
-482.9580914294
 20
-4.2964333732
 10
-482.96778635
 20
-4.32054514
 10
-482.9794889525
 20
-4.3437112086
 10
-482.9931841338
 20
-4.3658902683
 10
-483.0088338539
 20
-4.3870040609
 10
-483.0262842824
 20
-4.4066907324
 10
-483.0455630721
 20
-4.4249476158
 10
-483.0665753615
 20
-4.4416920555
 10
-483.0889656483
 20
-4.4564775386
 10
-483.1127313541
 20
-4.4692952888
 10
-483.137802952
 20
-4.4801383092
 10
-483.1637131342
 20
-4.488617794
 10
-483.190286261
 20
-4.4946390767
 10
-483.2176461713
 20
-4.4983719661
 10
-483.2457786642
 20
-4.4998586844
  0
LWPOLYLINE
  5
5C7
100
AcDbEntity
  8
RACCORDO
100
AcDbPolyline
 62
253
  6
CONTINUOUS
 90
19
 70
0
 10
-485.686939614
 20
-2.0586977346
 10
-485.6853382807
 20
-2.0300567995
 10
-485.6815083229
 20
-2.002358628
 10
-485.6754133821
 20
-1.9756175567
 10
-485.6668949043
 20
-1.9497697392
 10
-485.6560509546
 20
-1.9249300663
 10
-485.6432581291
 20
-1.9013848554
 10
-485.6285281755
 20
-1.879151164
 10
-485.6118642334
 20
-1.858282837
 10
-485.5936761103
 20
-1.8391112568
 10
-485.5740318256
 20
-1.8217157284
 10
-485.5529446596
 20
-1.8060851181
 10
-485.5307768926
 20
-1.7923982726
 10
-485.5075965642
 20
-1.7806973028
 10
-485.4834541474
 20
-1.7709944989
 10
-485.4587042254
 20
-1.7634046321
 10
-485.4335131688
 20
-1.7579723818
 10
-485.4078532868
 20
-1.7546833417
 10
-485.3817944953
 20
-1.7535526158
  0
LWPOLYLINE
  5
5C8
100
AcDbEntity
  8
RACCORDO
100
AcDbPolyline
 62
253
  6
CONTINUOUS
 90
19
 70
0
 10
-484.4663591391
 20
-5.7204391594
 10
-484.4679604724
 20
-5.7490800944
 10
-484.4717904302
 20
-5.776778266
 10
-484.4778853711
 20
-5.8035193373
 10
-484.4864038488
 20
-5.8293671548
 10
-484.4972477985
 20
-5.8542068277
 10
-484.510040624
 20
-5.8777520386
 10
-484.5247705777
 20
-5.8999857299
 10
-484.5414345197
 20
-5.920854057
 10
-484.5596226428
 20
-5.9400256372
 10
-484.5792669275
 20
-5.9574211656
 10
-484.6003540935
 20
-5.9730517758
 10
-484.6225218606
 20
-5.9867386213
 10
-484.6457021889
 20
-5.9984395911
 10
-484.6698446058
 20
-6.0081423951
 10
-484.6945945277
 20
-6.0157322618
 10
-484.7197855843
 20
-6.0211645122
 10
-484.7454454663
 20
-6.0244535522
 10
-484.7715042578
 20
-6.0255842781
  0
LINE
  5
5C9
100
AcDbEntity
  8
0
100
AcDbLine
 62
253
  6
CONTINUOUS
 10
-474.0766493766
 20
36.110431553
 11
-474.0766493766
 21
-43.889568447
  0
LINE
  5
5CA
100
AcDbEntity
  8
0
100
AcDbLine
 62
7
  6
CONTINUOUS
 10
-473.0416521281
 20
-54.389568447
 11
-473.0416521281
 21
-46.389568447
  0
LINE
  5
5CB
100
AcDbEntity
  8
0
100
AcDbLine
 62
7
  6
CONTINUOUS
 10
-473.0416521281
 20
-46.389568447
 11
-473.0416521281
 21
-44.389568447
  0
LINE
  5
5CC
100
AcDbEntity
  8
0
100
AcDbLine
 62
7
  6
CONTINUOUS
 10
-473.0416521281
 20
38.610431553
 11
-473.0416521281
 21
56.810431553
  0
LINE
  5
5CD
100
AcDbEntity
  8
0
100
AcDbLine
 62
7
  6
CONTINUOUS
 10
-471.0416521281
 20
-46.389568447
 11
-471.0416521281
 21
-43.889568447
  0
LINE
  5
5CE
100
AcDbEntity
  8
0
100
AcDbLine
 62
7
  6
CONTINUOUS
 10
-471.0416521281
 20
36.110431553
 11
-471.0416521281
 21
38.610431553
  0
LWPOLYLINE
  5
5CF
100
AcDbEntity
  8
RACCORDO
100
AcDbPolyline
 62
253
  6
CONTINUOUS
 90
9
 70
0
 10
-354.4830773349
 20
-6.0255842781
 10
-354.4841440862
 20
-6.0244722371
 10
-354.484473239
 20
-6.0211936005
 10
-354.4840639306
 20
-6.0157622486
 10
-354.482912777
 20
-6.0081598707
 10
-354.4810272638
 20
-5.9984323977
 10
-354.4784256488
 20
-5.9867027086
 10
-354.4751099484
 20
-5.9729876425
 10
-354.4710935492
 20
-5.9573259643
  0
LWPOLYLINE
  5
5D0
100
AcDbEntity
  8
RACCORDO
100
AcDbPolyline
 62
7
  6
CONTINUOUS
 90
7
 70
0
 10
-354.4513138068
 20
-4.4057217585
 10
-354.4501484902
 20
-4.4070212899
 10
-354.44997576
 20
-4.4072311472
 10
-354.450782579
 20
-4.4059455262
 10
-354.4523427064
 20
-4.4030638042
 10
-354.4545098774
 20
-4.398408123
 10
-354.4571198448
 20
-4.3918704907
  0
LINE
  5
5D1
100
AcDbEntity
  8
0
100
AcDbLine
 62
7
  6
CONTINUOUS
 10
-426.7543189062
 20
46.610431553
 11
-426.7543189062
 21
56.810431553
  0
LWPOLYLINE
  5
5D2
100
AcDbEntity
  8
RACCORDO
100
AcDbPolyline
 62
7
  6
CONTINUOUS
 90
11
 70
0
 10
-354.1596212515
 20
-4.4444318218
 10
-354.1647685971
 20
-4.4357429229
 10
-354.1707145846
 20
-4.4276010098
 10
-354.1775701052
 20
-4.4199234167
 10
-354.1854031874
 20
-4.412765971
 10
-354.1941829347
 20
-4.4062938494
 10
-354.2038932829
 20
-4.4006478745
 10
-354.2146246449
 20
-4.3959351644
 10
-354.22635495
 20
-4.3923622264
 10
-354.2389172984
 20
-4.3901756568
 10
-354.2500003019
 20
-4.3895686621
  0
LINE
  5
5D3
100
AcDbEntity
  8
RACCORDO
100
AcDbLine
 62
7
  6
CONTINUOUS
 10
-354.1480550383
 20
-3.2022886
 11
-354.1495441674
 21
-3.1877340693
  0
LINE
  5
5D4
100
AcDbEntity
  8
RACCORDO
100
AcDbLine
 62
7
  6
CONTINUOUS
 10
-354.1469514702
 20
-3.2150604459
 11
-354.1481541811
 21
-3.2012395091
  0
LINE
  5
5D5
100
AcDbEntity
  8
RACCORDO
100
AcDbLine
 62
7
  6
CONTINUOUS
 10
-354.1460978142
 20
-3.2271534762
 11
-354.1470226556
 21
-3.2141617826
  0
LINE
  5
5D6
100
AcDbEntity
  8
RACCORDO
100
AcDbLine
 62
7
  6
CONTINUOUS
 10
-354.4756452598
 20
-3.5975957532
 11
-354.4763766644
 21
-3.5840533559
  0
LINE
  5
5D7
100
AcDbEntity
  8
RACCORDO
100
AcDbLine
 62
7
  6
CONTINUOUS
 10
-354.1454884215
 20
-3.2384945907
 11
-354.1461451552
 21
-3.2263981695
  0
LINE
  5
5D8
100
AcDbEntity
  8
RACCORDO
100
AcDbLine
 62
7
  6
CONTINUOUS
 10
-354.4736750393
 20
-3.6376824746
 11
-354.4757449863
 21
-3.5957492563
  0
LINE
  5
5D9
100
AcDbEntity
  8
RACCORDO
100
AcDbLine
 62
7
  6
CONTINUOUS
 10
-354.4763813627
 20
-3.5840536154
 11
-354.4769904485
 21
-3.5706940587
  0
LINE
  5
5DA
100
AcDbEntity
  8
RACCORDO
100
AcDbLine
 62
7
  6
CONTINUOUS
 10
-354.4719953072
 20
-3.6777822885
 11
-354.4737844816
 21
-3.6352894933
  0
LINE
  5
5DB
100
AcDbEntity
  8
RACCORDO
100
AcDbLine
 62
253
  6
CONTINUOUS
 10
-354.4830773349
 20
-3.5844233282
 11
-354.4841401678
 21
-3.5583238702
  0
LINE
  5
5DC
100
AcDbEntity
  8
RACCORDO
100
AcDbLine
 62
7
  6
CONTINUOUS
 10
-354.4706061682
 20
-3.7178928347
 11
-354.4720874028
 21
-3.67538873
  0
LWPOLYLINE
  5
5DD
100
AcDbEntity
  8
RACCORDO
100
AcDbPolyline
 62
253
  6
CONTINUOUS
 90
13
 70
0
 10
-354.1512579236
 20
-3.2792782097
 10
-354.1507967438
 20
-3.2932081439
 10
-354.1522626778
 20
-3.3070673712
 10
-354.1556272486
 20
-3.3205866633
 10
-354.1608250961
 20
-3.3335033955
 10
-354.1677552475
 20
-3.3455666483
 10
-354.1762830781
 20
-3.3565420818
 10
-354.186242927
 20
-3.3662164883
 10
-354.1974413148
 20
-3.3744019333
 10
-354.2096607026
 20
-3.380939407
 10
-354.2226637175
 20
-3.385701913
 10
-354.2361977638
 20
-3.3885969352
 10
-354.2499999303
 20
-3.3895682352
  0
LWPOLYLINE
  5
5DE
100
AcDbEntity
  8
RACCORDO
100
AcDbPolyline
 62
253
  6
CONTINUOUS
 90
10
 70
0
 10
-354.3994348916
 20
-3.2792782151
 10
-354.3989932393
 20
-3.2932081684
 10
-354.4003970341
 20
-3.3070674167
 10
-354.4036190061
 20
-3.3205867309
 10
-354.4085965654
 20
-3.3335034857
 10
-354.4152330181
 20
-3.3455667608
 10
-354.423399445
 20
-3.3565422158
 10
-354.4329372055
 20
-3.3662166421
 10
-354.4436610196
 20
-3.3744021048
 10
-354.4543268867
 20
-3.3803609737
  0
LWPOLYLINE
  5
5DF
100
AcDbEntity
  8
0
100
AcDbPolyline
 62
7
  6
CONTINUOUS
 90
19
 70
0
 10
-382.7543189062
 20
43.610431553
 10
-382.7611064231
 20
43.834068236
 10
-382.7872360063
 20
44.0616786794
 10
-382.8327076559
 20
44.2917990111
 10
-382.8972578557
 20
44.5233034016
 10
-382.981150122
 20
44.7538390663
 10
-383.0851750029
 20
44.9799829251
 10
-383.2101161004
 20
45.1995660901
 10
-383.3551898125
 20
45.4108256685
 10
-383.5188358826
 20
45.6110895856
 10
-383.7012227227
 20
45.7979359653
 10
-383.9021819207
 20
45.9699680942
 10
-384.1196479836
 20
46.1259448485
 10
-384.3534005115
 20
46.2633735865
 10
-384.6036599044
 20
46.3806581695
 10
-384.8690218696
 20
46.476844531
 10
-385.1490183095
 20
46.5492933684
 10
-385.4441173217
 20
46.5947214563
 10
-385.7543189062
 20
46.610431553
  0
LINE
  5
5E0
100
AcDbEntity
  8
RACCORDO
100
AcDbLine
 62
7
  6
CONTINUOUS
 10
-354.4695076796
 20
-3.7580121514
 11
-354.4706809177
 21
-3.7154987452
  0
LINE
  5
5E1
100
AcDbEntity
  8
RACCORDO
100
AcDbLine
 62
7
  6
CONTINUOUS
 10
-354.4769583278
 20
-3.5719392499
 11
-354.4775437086
 21
-3.5492463767
  0
LINE
  5
5E2
100
AcDbEntity
  8
RACCORDO
100
AcDbLine
 62
7
  6
CONTINUOUS
 10
-354.4686998907
 20
-3.7981384172
 11
-354.4695650815
 21
-3.7556175966
  0
LINE
  5
5E3
100
AcDbEntity
  8
RACCORDO
100
AcDbLine
 62
7
  6
CONTINUOUS
 10
-354.4681828444
 20
-3.8382696005
 11
-354.468739944
 21
-3.7957434474
  0
LWPOLYLINE
  5
5E4
100
AcDbEntity
  8
RACCORDO
100
AcDbPolyline
 62
253
  6
CONTINUOUS
 90
7
 70
0
 10
-354.4841401678
 20
-3.5583238702
 10
-354.4844673737
 20
-3.5326386857
 10
-354.4840580974
 20
-3.5074376744
 10
-354.4829098667
 20
-3.4827035208
 10
-354.481029235
 20
-3.4585917539
 10
-354.478431704
 20
-3.4354256853
 10
-354.475121275
 20
-3.4132466256
  0
LINE
  5
5E5
100
AcDbEntity
  8
RACCORDO
100
AcDbLine
 62
7
  6
CONTINUOUS
 10
-354.4679565595
 20
-3.8784032765
 11
-354.4682055467
 21
-3.8358742404
  0
LWPOLYLINE
  5
5E6
100
AcDbEntity
  8
RACCORDO
100
AcDbPolyline
 62
253
  6
CONTINUOUS
 90
10
 70
0
 10
-354.4746561836
 20
-3.889568447
 10
-354.4747599727
 20
-3.8556580315
 10
-354.4750714642
 20
-3.8217648696
 10
-354.4755908934
 20
-3.7878719262
 10
-354.4763197444
 20
-3.753930976
 10
-354.4772574759
 20
-3.7199562536
 10
-354.478401509
 20
-3.6860249222
 10
-354.4797515933
 20
-3.6521520501
 10
-354.4813098193
 20
-3.6182901877
 10
-354.4830773349
 20
-3.5844233282
  0
LINE
  5
5E7
100
AcDbEntity
  8
0
100
AcDbLine
 62
7
  6
CONTINUOUS
 10
-383.0766493766
 20
47.110431553
 11
-383.0766493766
 21
56.810431553
  0
LINE
  5
5E8
100
AcDbEntity
  8
0
100
AcDbLine
 62
253
  6
CONTINUOUS
 10
-382.7543189062
 20
43.610431553
 11
-382.7543189062
 21
-51.389568447
  0
LINE
  5
5E9
100
AcDbEntity
  8
0
100
AcDbLine
 62
7
  6
CONTINUOUS
 10
-382.7543189062
 20
-54.389568447
 11
-382.7543189062
 21
-51.389568447
  0
LINE
  5
5EA
100
AcDbEntity
  8
0
100
AcDbLine
 62
7
  6
CONTINUOUS
 10
-380.5766493766
 20
47.110431553
 11
-380.5766493766
 21
56.810431553
  0
LINE
  5
5EB
100
AcDbEntity
  8
0
100
AcDbLine
 62
7
  6
CONTINUOUS
 10
-380.0766493766
 20
46.610431553
 11
-380.0766493766
 21
44.110431553
  0
LINE
  5
5EC
100
AcDbEntity
  8
0
100
AcDbLine
 62
253
  6
CONTINUOUS
 10
-377.0974646567
 20
43.610431553
 11
-377.0974646567
 21
-51.389568447
  0
LINE
  5
5ED
100
AcDbEntity
  8
0
100
AcDbLine
 62
7
  6
CONTINUOUS
 10
-372.0770065103
 20
-54.389568447
 11
-372.0770065103
 21
-51.889568447
  0
LINE
  5
5EE
100
AcDbEntity
  8
0
100
AcDbLine
 62
7
  6
CONTINUOUS
 10
-371.5555924924
 20
-54.389568447
 11
-371.5555924924
 21
-51.889568447
  0
LINE
  5
5EF
100
AcDbEntity
  8
0
100
AcDbLine
 62
7
  6
CONTINUOUS
 10
-370.8042143042
 20
-54.389568447
 11
-370.8042143042
 21
-51.889568447
  0
LINE
  5
5F0
100
AcDbEntity
  8
0
100
AcDbLine
 62
7
  6
CONTINUOUS
 10
-369.0766493765
 20
44.110431553
 11
-369.0766493765
 21
43.610431553
  0
LINE
  5
5F1
100
AcDbEntity
  8
0
100
AcDbLine
 62
7
  6
CONTINUOUS
 10
-369.0766493765
 20
-51.889568447
 11
-369.0766493765
 21
-51.389568447
  0
LINE
  5
5F2
100
AcDbEntity
  8
0
100
AcDbLine
 62
253
  6
CONTINUOUS
 10
-361.0766493765
 20
44.110431553
 11
-361.0766493765
 21
43.610431553
  0
LINE
  5
5F3
100
AcDbEntity
  8
0
100
AcDbLine
 62
253
  6
CONTINUOUS
 10
-361.0766493765
 20
-51.889568447
 11
-361.0766493765
 21
-51.389568447
  0
LINE
  5
5F4
100
AcDbEntity
  8
0
100
AcDbLine
 62
7
  6
CONTINUOUS
 10
-360.1269019083
 20
-51.889568447
 11
-360.1269019083
 21
-54.389568447
  0
LINE
  5
5F5
100
AcDbEntity
  8
0
100
AcDbLine
 62
7
  6
CONTINUOUS
 10
-360.0766493766
 20
46.610431553
 11
-360.0766493766
 21
44.110431553
  0
LINE
  5
5F6
100
AcDbEntity
  8
0
100
AcDbLine
 62
253
  6
CONTINUOUS
 10
-360.0766493766
 20
-54.389568447
 11
-360.0766493766
 21
-51.889568447
  0
LINE
  5
5F7
100
AcDbEntity
  8
0
100
AcDbLine
 62
253
  6
CONTINUOUS
 10
-359.4197951271
 20
43.610431553
 11
-359.4197951271
 21
-51.389568447
  0
LINE
  5
5F8
100
AcDbEntity
  8
0
100
AcDbLine
 62
7
  6
CONTINUOUS
 10
-357.0766493766
 20
-51.389568447
 11
-357.0766493766
 21
43.610431553
  0
LINE
  5
5F9
100
AcDbEntity
  8
0
100
AcDbLine
 62
253
  6
CONTINUOUS
 10
-356.7673876316
 20
-8.8570852255
 11
-356.7673876316
 21
1.0779483316
  0
LINE
  5
5FA
100
AcDbEntity
  8
RACCORDO
100
AcDbLine
 62
7
  6
CONTINUOUS
 10
-354.4679619068
 20
-3.9031293483
 11
-354.4679619068
 21
-3.8760075457
  0
LWPOLYLINE
  5
5FB
100
AcDbEntity
  8
RACCORDO
100
AcDbPolyline
 62
7
  6
CONTINUOUS
 90
10
 70
0
 10
-354.4775437086
 20
-3.5492463767
 10
-354.4774852756
 20
-3.5271347286
 10
-354.476805105
 20
-3.5058500206
 10
-354.4755505548
 20
-3.48567064
 10
-354.4737868544
 20
-3.4667561101
 10
-354.4715777859
 20
-3.4492599101
 10
-354.4690160662
 20
-3.4334081951
 10
-354.4661989366
 20
-3.4192775433
 10
-354.4632279401
 20
-3.4069214144
 10
-354.4602410529
 20
-3.3964758552
  0
LINE
  5
5FC
100
AcDbEntity
  8
RACCORDO
100
AcDbLine
 62
7
  6
CONTINUOUS
 10
-354.4682055467
 20
-3.9432626536
 11
-354.4679596435
 21
-3.9012805973
  0
LINE
  5
5FD
100
AcDbEntity
  8
RACCORDO
100
AcDbLine
 62
7
  6
CONTINUOUS
 10
-354.468739944
 20
-3.9833934465
 11
-354.4681828444
 21
-3.9408672934
  0
LWPOLYLINE
  5
5FE
100
AcDbEntity
  8
RACCORDO
100
AcDbPolyline
 62
7
  6
CONTINUOUS
 90
6
 70
0
 10
-354.1451138614
 20
-4.5300596757
 10
-354.1449685976
 20
-4.5202417465
 10
-354.1450480637
 20
-4.5111063062
 10
-354.1453555939
 20
-4.5025832667
 10
-354.1459064274
 20
-4.4945439629
 10
-354.1467566241
 20
-4.4866420981
  0
LINE
  5
5FF
100
AcDbEntity
  8
RACCORDO
100
AcDbLine
 62
7
  6
CONTINUOUS
 10
-354.4695650815
 20
-4.0235192974
 11
-354.4686998907
 21
-3.9809984768
  0
LWPOLYLINE
  5
600
100
AcDbEntity
  8
RACCORDO
100
AcDbPolyline
 62
7
  6
CONTINUOUS
 90
3
 70
0
 10
-354.4775735714
 20
-4.2327595014
 10
-354.4770669444
 20
-4.210115665
 10
-354.4763795481
 20
-4.1950835286
  0
LINE
  5
601
100
AcDbEntity
  8
RACCORDO
100
AcDbLine
 62
7
  6
CONTINUOUS
 10
-354.4706809177
 20
-4.0636381487
 11
-354.4695076796
 21
-4.0211247426
  0
LWPOLYLINE
  5
602
100
AcDbEntity
  8
RACCORDO
100
AcDbPolyline
 62
253
  6
CONTINUOUS
 90
10
 70
0
 10
-354.3994388769
 20
-4.4998582448
 10
-354.3989960265
 20
-4.4859279597
 10
-354.4003987769
 20
-4.4720682195
 10
-354.4036198753
 20
-4.4585482939
 10
-354.4085967415
 20
-4.4456308511
 10
-354.4152326838
 20
-4.4335668537
 10
-354.4233987779
 20
-4.4225906836
 10
-354.4329363712
 20
-4.4129155881
 10
-354.4436601654
 20
-4.4047295369
 10
-354.4543466591
 20
-4.3987587609
  0
LWPOLYLINE
  5
603
100
AcDbEntity
  8
RACCORDO
100
AcDbPolyline
 62
253
  6
CONTINUOUS
 90
10
 70
0
 10
-354.1512579402
 20
-4.4998586825
 10
-354.1507967426
 20
-4.485928726
 10
-354.1522626617
 20
-4.4720694745
 10
-354.1556272209
 20
-4.4585501573
 10
-354.1608250603
 20
-4.4456334
 10
-354.167755207
 20
-4.4335701228
 10
-354.1762830362
 20
-4.4225946665
 10
-354.1862428868
 20
-4.4129202397
 10
-354.197441279
 20
-4.4047347774
 10
-354.2096606736
 20
-4.39819729
  0
LINE
  5
604
100
AcDbEntity
  8
RACCORDO
100
AcDbLine
 62
7
  6
CONTINUOUS
 10
-354.4720874028
 20
-4.1037481639
 11
-354.4706061682
 21
-4.0612440593
  0
LINE
  5
605
100
AcDbEntity
  8
RACCORDO
100
AcDbLine
 62
7
  6
CONTINUOUS
 10
-354.1455164261
 20
-4.5412633031
 11
-354.1451269591
 21
-4.5305543718
  0
LINE
  5
606
100
AcDbEntity
  8
RACCORDO
100
AcDbLine
 62
253
  6
CONTINUOUS
 10
-354.4841400561
 20
-4.2207313895
 11
-354.4830773349
 21
-4.1947135657
  0
LINE
  5
607
100
AcDbEntity
  8
RACCORDO
100
AcDbLine
 62
7
  6
CONTINUOUS
 10
-354.4737844816
 20
-4.1438474007
 11
-354.4719953072
 21
-4.1013546054
  0
LINE
  5
608
100
AcDbEntity
  8
RACCORDO
100
AcDbLine
 62
7
  6
CONTINUOUS
 10
-354.475772054
 20
-4.1839335501
 11
-354.4736750393
 21
-4.1414544194
  0
LWPOLYLINE
  5
609
100
AcDbEntity
  8
RACCORDO
100
AcDbPolyline
 62
253
  6
CONTINUOUS
 90
10
 70
0
 10
-354.4830773349
 20
-4.1947135657
 10
-354.4813097999
 20
-4.1608462228
 10
-354.4797515615
 20
-4.126984022
 10
-354.4784014716
 20
-4.0931109554
 10
-354.4772574423
 20
-4.0591796029
 10
-354.4763197214
 20
-4.0252050015
 10
-354.4755908799
 20
-3.9912642243
 10
-354.4750714563
 20
-3.9573714762
 10
-354.4747599693
 20
-3.9234785621
 10
-354.4746561836
 20
-3.889568447
  0
LINE
  5
60A
100
AcDbEntity
  8
RACCORDO
100
AcDbLine
 62
7
  6
CONTINUOUS
 10
-354.4763766644
 20
-4.1950835381
 11
-354.4756452598
 21
-4.1815411408
  0
LINE
  5
60B
100
AcDbEntity
  8
RACCORDO
100
AcDbLine
 62
7
  6
CONTINUOUS
 10
-354.1461451552
 20
-4.5527387244
 11
-354.1454884215
 21
-4.5406423032
  0
LINE
  5
60C
100
AcDbEntity
  8
RACCORDO
100
AcDbLine
 62
7
  6
CONTINUOUS
 10
-354.1470226556
 20
-4.5649751114
 11
-354.1460978142
 21
-4.5519834177
  0
LINE
  5
60D
100
AcDbEntity
  8
RACCORDO
100
AcDbLine
 62
7
  6
CONTINUOUS
 10
-354.1481541811
 20
-4.5778973848
 11
-354.1469514702
 21
-4.564076448
  0
LWPOLYLINE
  5
60E
100
AcDbEntity
  8
RACCORDO
100
AcDbPolyline
 62
253
  6
CONTINUOUS
 90
20
 70
0
 10
-354.1491697709
 20
-4.5825772714
 10
-354.1483315631
 20
-4.5735665468
 10
-354.1476246343
 20
-4.5647439266
 10
-354.1470499378
 20
-4.5562077997
 10
-354.1466143616
 20
-4.5482925786
 10
-354.1463287442
 20
-4.5410737242
 10
-354.1461800827
 20
-4.5344428382
 10
-354.1461400914
 20
-4.5284714967
 10
-354.1462110151
 20
-4.5232062108
 10
-354.1463906815
 20
-4.5185865878
 10
-354.1466445205
 20
-4.5145399038
 10
-354.1469711385
 20
-4.5110844814
 10
-354.147372836
 20
-4.5082036866
 10
-354.1478203795
 20
-4.5057827284
 10
-354.1483105758
 20
-4.5038286561
 10
-354.1488474725
 20
-4.5023441655
 10
-354.1494122992
 20
-4.5012118736
 10
-354.1499989075
 20
-4.5003963328
 10
-354.1506140067
 20
-4.4999435322
 10
-354.1512579213
 20
-4.4998586844
  0
LINE
  5
60F
100
AcDbEntity
  8
RACCORDO
100
AcDbLine
 62
7
  6
CONTINUOUS
 10
-354.1495441674
 20
-4.5914028246
 11
-354.1480550383
 21
-4.5768482939
  0
LINE
  5
610
100
AcDbEntity
  8
RACCORDO
100
AcDbLine
 62
7
  6
CONTINUOUS
 10
-354.1507315152
 20
-4.6016377208
 11
-354.1494114397
 21
-4.5901977368
  0
LINE
  5
611
100
AcDbEntity
  8
RACCORDO
100
AcDbLine
 62
253
  6
CONTINUOUS
 10
-354.1668766137
 20
-4.7199610278
 11
-354.1586181709
 21
-4.6596398942
  0
LWPOLYLINE
  5
612
100
AcDbEntity
  8
RACCORDO
100
AcDbPolyline
 62
7
  6
CONTINUOUS
 90
8
 70
0
 10
-354.1480093987
 20
-3.300528642
 10
-354.1467511897
 20
-3.2924520472
 10
-354.1458962237
 20
-3.2844768783
 10
-354.1453459502
 20
-3.2763626379
 10
-354.1450421657
 20
-3.2677544431
 10
-354.1449699512
 20
-3.2585185065
 10
-354.1451269591
 20
-3.2485825221
 10
-354.1455164261
 20
-3.2378735908
  0
LINE
  5
613
100
AcDbEntity
  8
RACCORDO
100
AcDbLine
 62
253
  6
CONTINUOUS
 10
-354.1863939386
 20
-4.8473085109
 11
-354.176110212
 21
-4.7825476706
  0
LINE
  5
614
100
AcDbEntity
  8
RACCORDO
100
AcDbLine
 62
7
  6
CONTINUOUS
 10
-354.4779095703
 20
-5.9918251905
 11
-354.4774533647
 21
-5.9890579289
  0
LINE
  5
615
100
AcDbEntity
  8
RACCORDO
100
AcDbLine
 62
253
  6
CONTINUOUS
 10
-354.2105034558
 20
-4.9838006985
 11
-354.1978204534
 21
-4.9143134929
  0
LWPOLYLINE
  5
616
100
AcDbEntity
  8
RACCORDO
100
AcDbPolyline
 62
7
  6
CONTINUOUS
 90
8
 70
0
 10
-354.4774533647
 20
-5.9890579289
 10
-354.4771296038
 20
-5.9873208726
 10
-354.476656959
 20
-5.9849327129
 10
-354.4760598734
 20
-5.9820652885
 10
-354.4753570979
 20
-5.9788358872
 10
-354.4745537841
 20
-5.9752817184
 10
-354.4736412639
 20
-5.9713751546
 10
-354.472622933
 20
-5.9671395803
  0
LINE
  5
617
100
AcDbEntity
  8
RACCORDO
100
AcDbLine
 62
253
  6
CONTINUOUS
 10
-354.475121275
 20
-3.4132466256
 11
-354.4711093274
 21
-3.3921328331
  0
LINE
  5
618
100
AcDbEntity
  8
RACCORDO
100
AcDbLine
 62
253
  6
CONTINUOUS
 10
-354.2400595629
 20
-5.1301681092
 11
-354.2245512023
 21
-5.0557791148
  0
LINE
  5
619
100
AcDbEntity
  8
RACCORDO
100
AcDbLine
 62
253
  6
CONTINUOUS
 10
-354.4711093274
 20
-3.3921328331
 11
-354.4664249066
 21
-3.3724461615
  0
LINE
  5
61A
100
AcDbEntity
  8
RACCORDO
100
AcDbLine
 62
7
  6
CONTINUOUS
 10
-354.472622933
 20
-5.9671395803
 11
-354.4713012287
 21
-5.9618009755
  0
LWPOLYLINE
  5
61B
100
AcDbEntity
  8
RACCORDO
100
AcDbPolyline
 62
253
  6
CONTINUOUS
 90
3
 70
0
 10
-354.2964079561
 20
-5.3680459026
 10
-354.2758734774
 20
-5.2863594501
 10
-354.2571334503
 20
-5.2070623205
  0
LINE
  5
61C
100
AcDbEntity
  8
RACCORDO
100
AcDbLine
 62
7
  6
CONTINUOUS
 10
-354.4714983427
 20
-5.9625787265
 11
-354.4700482016
 21
-5.9568403072
  0
LINE
  5
61D
100
AcDbEntity
  8
RACCORDO
100
AcDbLine
 62
7
  6
CONTINUOUS
 10
-354.4702677532
 20
-5.957697002
 11
-354.4675056054
 21
-5.9470405671
  0
LINE
  5
61E
100
AcDbEntity
  8
RACCORDO
100
AcDbLine
 62
7
  6
CONTINUOUS
 10
-354.4686957454
 20
-5.9515854267
 11
-354.4656956047
 21
-5.9402242167
  0
LWPOLYLINE
  5
61F
100
AcDbEntity
  8
RACCORDO
100
AcDbPolyline
 62
253
  6
CONTINUOUS
 90
6
 70
0
 10
-354.4710935492
 20
-5.9573259643
 10
-354.4664140892
 20
-5.9398940626
 10
-354.461068524
 20
-5.9206780883
 10
-354.4550855897
 20
-5.8997602875
 10
-354.4485512059
 20
-5.8774779575
 10
-354.4454194092
 20
-5.8690535737
  0
LINE
  5
620
100
AcDbEntity
  8
RACCORDO
100
AcDbLine
 62
7
  6
CONTINUOUS
 10
-354.4659749326
 20
-5.9412739243
 11
-354.4622977395
 21
-5.9277354141
  0
LINE
  5
621
100
AcDbEntity
  8
RACCORDO
100
AcDbLine
 62
7
  6
CONTINUOUS
 10
-354.4626219888
 20
-5.9289135723
 11
-354.4585086335
 21
-5.9141563437
  0
LINE
  5
622
100
AcDbEntity
  8
RACCORDO
100
AcDbLine
 62
7
  6
CONTINUOUS
 10
-354.4588822234
 20
-5.9154768451
 11
-354.4543397191
 21
-5.899526623
  0
LINE
  5
623
100
AcDbEntity
  8
RACCORDO
100
AcDbLine
 62
7
  6
CONTINUOUS
 10
-354.4547596715
 20
-5.9009888089
 11
-354.4498017695
 21
-5.8838977257
  0
LWPOLYLINE
  5
624
100
AcDbEntity
  8
RACCORDO
100
AcDbPolyline
 62
253
  6
CONTINUOUS
 90
10
 70
0
 10
-354.4664249066
 20
-3.3724461615
 10
-354.4610611325
 20
-3.3541892781
 10
-354.4550510363
 20
-3.3374448384
 10
-354.4484842538
 20
-3.3226593553
 10
-354.4413637694
 20
-3.3098416051
 10
-354.4337191672
 20
-3.2989985847
 10
-354.4256770797
 20
-3.2905191
 10
-354.4172891457
 20
-3.2844978172
 10
-354.40853577
 20
-3.2807649278
 10
-354.3994348405
 20
-3.2792782095
  0
LINE
  5
625
100
AcDbEntity
  8
RACCORDO
100
AcDbLine
 62
7
  6
CONTINUOUS
 10
-354.4502687206
 20
-5.8854985123
 11
-354.4449030881
 21
-5.8673172438
  0
LWPOLYLINE
  5
626
100
AcDbEntity
  8
RACCORDO
100
AcDbPolyline
 62
253
  6
CONTINUOUS
 90
3
 70
0
 10
-354.442320875
 20
-5.8586821546
 10
-354.4414807908
 20
-5.8538675197
 10
-354.4396530344
 20
-5.8498278184
  0
LWPOLYLINE
  5
627
100
AcDbEntity
  8
RACCORDO
100
AcDbPolyline
 62
253
  6
CONTINUOUS
 90
3
 70
0
 10
-354.3702762124
 20
-5.6286653052
 10
-354.3434757686
 20
-5.5392720607
 10
-354.3188942693
 20
-5.4523417363
  0
LINE
  5
628
100
AcDbEntity
  8
RACCORDO
100
AcDbLine
 62
7
  6
CONTINUOUS
 10
-354.4454194092
 20
-5.8690535737
 11
-354.4374949635
 21
-5.8427044708
  0
LWPOLYLINE
  5
629
100
AcDbEntity
  8
RACCORDO
100
AcDbPolyline
 62
253
  6
CONTINUOUS
 90
3
 70
0
 10
-354.4369020674
 20
-5.8407621037
 10
-354.4338907639
 20
-5.8289637988
 10
-354.4318009388
 20
-5.8241033604
  0
LINE
  5
62A
100
AcDbEntity
  8
RACCORDO
100
AcDbLine
 62
7
  6
CONTINUOUS
 10
-354.4396530344
 20
-5.8498278184
 11
-354.4311606175
 21
-5.8220295646
  0
LWPOLYLINE
  5
62B
100
AcDbEntity
  8
RACCORDO
100
AcDbPolyline
 62
253
  6
CONTINUOUS
 90
3
 70
0
 10
-354.4281732537
 20
-5.8123749468
 10
-354.4258669667
 20
-5.8031119559
 10
-354.4226886245
 20
-5.794801195
  0
LINE
  5
62C
100
AcDbEntity
  8
RACCORDO
100
AcDbLine
 62
7
  6
CONTINUOUS
 10
-354.4318009388
 20
-5.8241033604
 11
-354.4219760406
 21
-5.7925294755
  0
LWPOLYLINE
  5
62D
100
AcDbEntity
  8
RACCORDO
100
AcDbPolyline
 62
253
  6
CONTINUOUS
 90
5
 70
0
 10
-354.4830847455
 20
-6.0255814121
 10
-354.4792247788
 20
-6.0132537387
 10
-354.4769839645
 20
-6.000530507
 10
-354.4763997083
 20
-5.9876241054
 10
-354.4766348433
 20
-5.984826505
  0
LWPOLYLINE
  5
62E
100
AcDbEntity
  8
RACCORDO
100
AcDbPolyline
 62
253
  6
CONTINUOUS
 90
3
 70
0
 10
-354.4187698274
 20
-5.7823524008
 10
-354.4174488209
 20
-5.7764465682
 10
-354.4129431976
 20
-5.7640084955
  0
LWPOLYLINE
  5
62F
100
AcDbEntity
  8
RACCORDO
100
AcDbPolyline
 62
7
  6
CONTINUOUS
 90
10
 70
0
 10
-354.3989302668
 20
-5.7206038904
 10
-354.3673153004
 20
-5.6207717104
 10
-354.3295261515
 20
-5.4924938615
 10
-354.29465468
 20
-5.3633939903
 10
-354.2627187446
 20
-5.2335389399
 10
-354.2337338738
 20
-5.1029920213
 10
-354.207714612
 20
-4.9718191929
 10
-354.1846748086
 20
-4.8400881454
 10
-354.1646262419
 20
-4.7078655739
 10
-354.1507309493
 20
-4.601637737
  0
LINE
  5
630
100
AcDbEntity
  8
RACCORDO
100
AcDbLine
 62
7
  6
CONTINUOUS
 10
-354.4226886245
 20
-5.794801195
 11
-354.4121552196
 21
-5.761535375
  0
LINE
  5
631
100
AcDbEntity
  8
RACCORDO
100
AcDbLine
 62
253
  6
CONTINUOUS
 10
-354.4095653631
 20
-5.7534537735
 11
-354.4086316693
 21
-5.7488842184
  0
LWPOLYLINE
  5
632
100
AcDbEntity
  8
RACCORDO
100
AcDbPolyline
 62
7
  6
CONTINUOUS
 90
3
 70
0
 10
-354.4129431976
 20
-5.7640084955
 10
-354.4026337095
 20
-5.7319723974
 10
-354.3989336022
 20
-5.7206028018
  0
LWPOLYLINE
  5
633
100
AcDbEntity
  8
RACCORDO
100
AcDbPolyline
 62
7
  6
CONTINUOUS
 90
6
 70
0
 10
-354.4602410529
 20
-3.3964758552
 10
-354.4573574419
 20
-3.3879113532
 10
-354.4547083763
 20
-3.3811904877
 10
-354.4524939194
 20
-3.3763753554
 10
-354.4508754774
 20
-3.373351285
 10
-354.4506340862
 20
-3.3729426337
  0
LWPOLYLINE
  5
634
100
AcDbEntity
  8
RACCORDO
100
AcDbPolyline
 62
7
  6
CONTINUOUS
 90
13
 70
0
 10
-354.1521989907
 20
-4.4619619375
 10
-354.1555031863
 20
-4.4531108402
 10
-354.1598295754
 20
-4.4440412657
 10
-354.165072643
 20
-4.4352840688
 10
-354.1711284098
 20
-4.4270914595
 10
-354.178108638
 20
-4.4193815348
 10
-354.1860824353
 20
-4.412211744
 10
-354.1950170255
 20
-4.4057511247
 10
-354.2048925925
 20
-4.4001455254
 10
-354.2157970245
 20
-4.3955075508
 10
-354.2277029454
 20
-4.3920491035
 10
-354.2404352373
 20
-4.3900204545
 10
-354.2500047136
 20
-4.3895685311
  0
LWPOLYLINE
  5
635
100
AcDbEntity
  8
RACCORDO
100
AcDbPolyline
 62
7
  6
CONTINUOUS
 90
11
 70
0
 10
-354.4571198448
 20
-4.3918704907
 10
-354.459972669
 20
-4.3835156372
 10
-354.4629399228
 20
-4.3733033716
 10
-354.4659021212
 20
-4.3612021885
 10
-354.4687210143
 20
-4.3473403692
 10
-354.4713015091
 20
-4.3317612893
 10
-354.4735486933
 20
-4.3145289349
 10
-354.4753622526
 20
-4.295852652
 10
-354.4766762201
 20
-4.2758795126
 10
-354.477433098
 20
-4.2547599882
 10
-354.4775735714
 20
-4.2327595014
  0
LINE
  5
636
100
AcDbEntity
  8
RACCORDO
100
AcDbLine
 62
7
  6
CONTINUOUS
 10
-354.3989336202
 20
-2.0585341003
 11
-354.4087532148
 21
-2.0282189002
  0
LINE
  5
637
100
AcDbEntity
  8
RACCORDO
100
AcDbLine
 62
253
  6
CONTINUOUS
 10
-354.4086921522
 20
-2.0300567995
 11
-354.4087532148
 21
-2.0282189002
  0
LINE
  5
638
100
AcDbEntity
  8
RACCORDO
100
AcDbLine
 62
253
  6
CONTINUOUS
 10
-354.4121577232
 20
-2.0175936833
 11
-354.4175520237
 21
-2.002358628
  0
LINE
  5
639
100
AcDbEntity
  8
RACCORDO
100
AcDbLine
 62
7
  6
CONTINUOUS
 10
-354.4087532148
 20
-2.0282189002
 11
-354.4187745901
 21
-1.9967694191
  0
LWPOLYLINE
  5
63A
100
AcDbEntity
  8
RACCORDO
100
AcDbPolyline
 62
253
  6
CONTINUOUS
 90
5
 70
0
 10
-354.4830773614
 20
-1.7535526261
 10
-354.4792185248
 20
-1.7658802472
 10
-354.4769787789
 20
-1.7786032392
 10
-354.4763955064
 20
-1.7915092475
 10
-354.4766328711
 20
-1.794330967
  0
LINE
  5
63B
100
AcDbEntity
  8
RACCORDO
100
AcDbLine
 62
7
  6
CONTINUOUS
 10
-354.4187745901
 20
-1.9967694191
 11
-354.4281819451
 21
-1.9667339442
  0
LINE
  5
63C
100
AcDbEntity
  8
RACCORDO
100
AcDbLine
 62
7
  6
CONTINUOUS
 10
-354.4281819451
 20
-1.9667339442
 11
-354.4369147696
 21
-1.9383330716
  0
LWPOLYLINE
  5
63D
100
AcDbEntity
  8
RACCORDO
100
AcDbPolyline
 62
253
  6
CONTINUOUS
 90
6
 70
0
 10
-354.447414291
 20
-1.903354614
 10
-354.4486323912
 20
-1.9013848554
 10
-354.4551509797
 20
-1.879151164
 10
-354.4611182642
 20
-1.858282837
 10
-354.4664500696
 20
-1.8391112568
 10
-354.4711184437
 20
-1.8217157284
  0
LINE
  5
63E
100
AcDbEntity
  8
RACCORDO
100
AcDbLine
 62
7
  6
CONTINUOUS
 10
-354.4369147696
 20
-1.9383330716
 11
-354.4449192561
 21
-1.9117653685
  0
LINE
  5
63F
100
AcDbEntity
  8
RACCORDO
100
AcDbLine
 62
7
  6
CONTINUOUS
 10
-354.4449192561
 20
-1.9117653685
 11
-354.4498196855
 21
-1.8951780048
  0
LINE
  5
640
100
AcDbEntity
  8
RACCORDO
100
AcDbLine
 62
7
  6
CONTINUOUS
 10
-354.4498196855
 20
-1.8951780048
 11
-354.4543587947
 21
-1.8795439595
  0
LINE
  5
641
100
AcDbEntity
  8
RACCORDO
100
AcDbLine
 62
7
  6
CONTINUOUS
 10
-354.4543587947
 20
-1.8795439595
 11
-354.4585282267
 21
-1.8649110966
  0
LWPOLYLINE
  5
642
100
AcDbEntity
  8
RACCORDO
100
AcDbPolyline
 62
253
  6
CONTINUOUS
 90
3
 70
0
 10
-354.319134268
 20
-2.3259218206
 10
-354.343678169
 20
-2.2391645162
 10
-354.3704004024
 20
-2.1500625438
  0
LINE
  5
643
100
AcDbEntity
  8
RACCORDO
100
AcDbLine
 62
7
  6
CONTINUOUS
 10
-354.4585282267
 20
-1.8649110966
 11
-354.4623170935
 21
-1.8513312722
  0
LINE
  5
644
100
AcDbEntity
  8
RACCORDO
100
AcDbLine
 62
7
  6
CONTINUOUS
 10
-354.4623170935
 20
-1.8513312722
 11
-354.4657139805
 21
-1.8388441497
  0
LWPOLYLINE
  5
645
100
AcDbEntity
  8
RACCORDO
100
AcDbPolyline
 62
7
  6
CONTINUOUS
 90
4
 70
0
 10
-354.4657139805
 20
-1.8388441497
 10
-354.468712481
 20
-1.8274870066
 10
-354.4700638941
 20
-1.8222350413
 10
-354.4713157489
 20
-1.8172778506
  0
LWPOLYLINE
  5
646
100
AcDbEntity
  8
RACCORDO
100
AcDbPolyline
 62
253
  6
CONTINUOUS
 90
9
 70
0
 10
-354.4711184437
 20
-1.8217157284
 10
-354.4751258014
 20
-1.8060851181
 10
-354.4784341501
 20
-1.7923982726
 10
-354.4810300318
 20
-1.7806973028
 10
-354.4829115729
 20
-1.7709944989
 10
-354.4840604627
 20
-1.7634046321
 10
-354.4844692035
 20
-1.7579723818
 10
-354.4841412084
 20
-1.7546833417
 10
-354.4830773349
 20
-1.7535526158
  0
LWPOLYLINE
  5
647
100
AcDbEntity
  8
RACCORDO
100
AcDbPolyline
 62
7
  6
CONTINUOUS
 90
10
 70
0
 10
-354.4713157489
 20
-1.8172778506
 10
-354.4724622506
 20
-1.812643884
 10
-354.4735032138
 20
-1.8083356001
 10
-354.474437969
 20
-1.8043581067
 10
-354.4752598764
 20
-1.8007460493
 10
-354.475974162
 20
-1.7974865513
 10
-354.4765790861
 20
-1.7946011678
 10
-354.4770626065
 20
-1.7921720949
 10
-354.4774393115
 20
-1.7901600738
 10
-354.4775180063
 20
-1.7897199835
  0
LINE
  5
648
100
AcDbEntity
  8
RACCORDO
100
AcDbLine
 62
253
  6
CONTINUOUS
 10
-354.4664934914
 20
-4.4064304064
 11
-354.471166221
 21
-4.3867422486
  0
LWPOLYLINE
  5
649
100
AcDbEntity
  8
RACCORDO
100
AcDbPolyline
 62
253
  6
CONTINUOUS
 90
3
 70
0
 10
-354.2572912898
 20
-2.5713858618
 10
-354.2760636115
 20
-2.492001148
 10
-354.2966378866
 20
-2.4102078274
  0
LINE
  5
64A
100
AcDbEntity
  8
RACCORDO
100
AcDbLine
 62
253
  6
CONTINUOUS
 10
-354.2246863852
 20
-2.7226871314
 11
-354.2402036493
 21
-2.6482982483
  0
LINE
  5
64B
100
AcDbEntity
  8
RACCORDO
100
AcDbLine
 62
253
  6
CONTINUOUS
 10
-354.471166221
 20
-4.3867422486
 11
-354.4751648361
 21
-4.3656382549
  0
LINE
  5
64C
100
AcDbEntity
  8
RACCORDO
100
AcDbLine
 62
253
  6
CONTINUOUS
 10
-354.1979420545
 20
-2.8641294437
 11
-354.210630264
 21
-2.7946646175
  0
LINE
  5
64D
100
AcDbEntity
  8
RACCORDO
100
AcDbLine
 62
253
  6
CONTINUOUS
 10
-354.1762117249
 20
-2.9959265783
 11
-354.1865105808
 21
-2.9311116719
  0
LWPOLYLINE
  5
64E
100
AcDbEntity
  8
RACCORDO
100
AcDbPolyline
 62
7
  6
CONTINUOUS
 90
4
 70
0
 10
-354.1467511897
 20
-4.4866848468
 10
-354.1480093987
 20
-4.4786082519
 10
-354.1497772991
 20
-4.4703984742
 10
-354.1521989907
 20
-4.4619619375
  0
LWPOLYLINE
  5
64F
100
AcDbEntity
  8
RACCORDO
100
AcDbPolyline
 62
253
  6
CONTINUOUS
 90
7
 70
0
 10
-354.4751648361
 20
-4.3656382549
 10
-354.4784631879
 20
-4.3434718083
 10
-354.4810506661
 20
-4.3203131132
 10
-354.4829225937
 20
-4.2962110967
 10
-354.4840642355
 20
-4.2715037104
 10
-354.484469309
 20
-4.2463512964
 10
-354.4841400561
 20
-4.2207313895
  0
LINE
  5
650
100
AcDbEntity
  8
RACCORDO
100
AcDbLine
 62
253
  6
CONTINUOUS
 10
-354.1586583505
 20
-3.1192101233
 11
-354.1669509973
 21
-3.0586664787
  0
LWPOLYLINE
  5
651
100
AcDbEntity
  8
RACCORDO
100
AcDbPolyline
 62
7
  6
CONTINUOUS
 90
10
 70
0
 10
-354.1507309619
 20
-3.177499101
 10
-354.1642947087
 20
-3.0736420077
 10
-354.184290179
 20
-2.9414079353
 10
-354.2072770247
 20
-2.8096653601
 10
-354.2332433979
 20
-2.6784809828
 10
-354.2621753978
 20
-2.5479225613
 10
-354.294058502
 20
-2.4180557029
 10
-354.3288772115
 20
-2.2889435734
 10
-354.3666133478
 20
-2.160653706
 10
-354.3989302389
 20
-2.0585329966
  0
LINE
  5
652
100
AcDbEntity
  8
RACCORDO
100
AcDbLine
 62
7
  6
CONTINUOUS
 10
-354.1494114397
 20
-3.1889391572
 11
-354.1507315152
 21
-3.1774991732
  0
ARC
  5
653
100
AcDbEntity
  8
0
100
AcDbCircle
 62
7
  6
CONTINUOUS
 10
-308.7778456942
 20
-3.889568447
 40
5.9307692308
100
AcDbArc
 50
201.109918699
 51
236.8858572487
  0
ARC
  5
654
100
AcDbEntity
  8
0
100
AcDbCircle
 62
7
  6
CONTINUOUS
 10
-308.7778456942
 20
-3.889568447
 40
5.9307692308
100
AcDbArc
 50
123.1141427513
 51
158.890081301
  0
CIRCLE
  5
655
100
AcDbEntity
  8
0
100
AcDbCircle
 62
7
  6
CONTINUOUS
 10
-183.708614925
 20
-3.889568447
 40
5.0
  0
CIRCLE
  5
656
100
AcDbEntity
  8
0
100
AcDbCircle
 62
253
  6
CONTINUOUS
 10
-183.708614925
 20
-3.889568447
 40
4.9675167785
  0
ARC
  5
657
100
AcDbEntity
  8
ASSI
100
AcDbCircle
 62
7
  6
CONTINUOUS
 10
-183.708614925
 20
-6.389568447
 40
3.5
100
AcDbArc
 50
201.9077027941
 51
338.0922972059
  0
ARC
  5
658
100
AcDbEntity
  8
0
100
AcDbCircle
 62
7
  6
CONTINUOUS
 10
-308.708614925
 20
-51.389568447
 40
3.0
100
AcDbArc
 50
180.0
 51
270.0
  0
ARC
  5
659
100
AcDbEntity
  8
0
100
AcDbCircle
 62
7
  6
CONTINUOUS
 10
-288.708614925
 20
-51.389568447
 40
0.5
100
AcDbArc
 50
270.0
 51
360.0
  0
ARC
  5
65A
100
AcDbEntity
  8
0
100
AcDbCircle
 62
7
  6
CONTINUOUS
 10
-308.708614925
 20
-51.389568447
 40
0.5
100
AcDbArc
 50
180.0
 51
270.0
  0
ARC
  5
65B
100
AcDbEntity
  8
0
100
AcDbCircle
 62
7
  6
CONTINUOUS
 10
-311.908614925
 20
-8.689568447
 40
0.2
100
AcDbArc
 50
236.8858572487
 51
360.0
  0
ARC
  5
65C
100
AcDbEntity
  8
RACCORDO
100
AcDbCircle
 62
7
  6
CONTINUOUS
 10
-181.908614925
 20
-4.189568447
 40
0.2
100
AcDbArc
 50
269.9999999996
 51
360.0
  0
ARC
  5
65D
100
AcDbEntity
  8
RACCORDO
100
AcDbCircle
 62
7
  6
CONTINUOUS
 10
-181.908614925
 20
-3.589568447
 40
0.2
100
AcDbArc
 50
0.0
 51
90.0000000004
  0
ARC
  5
65E
100
AcDbEntity
  8
RACCORDO
100
AcDbCircle
 62
7
  6
CONTINUOUS
 10
-185.508614925
 20
-3.589568447
 40
0.2
100
AcDbArc
 50
90.0000000004
 51
180.0
  0
ARC
  5
65F
100
AcDbEntity
  8
RACCORDO
100
AcDbCircle
 62
7
  6
CONTINUOUS
 10
-185.508614925
 20
-4.189568447
 40
0.2
100
AcDbArc
 50
180.0
 51
269.9999999996
  0
ARC
  5
660
100
AcDbEntity
  8
RACCORDO
100
AcDbCircle
 62
7
  6
CONTINUOUS
 10
-184.008614925
 20
-5.689568447
 40
0.2
100
AcDbArc
 50
180.0
 51
269.9999999996
  0
ARC
  5
661
100
AcDbEntity
  8
RACCORDO
100
AcDbCircle
 62
7
  6
CONTINUOUS
 10
-183.408614925
 20
-5.689568447
 40
0.2
100
AcDbArc
 50
269.9999999996
 51
360.0
  0
ARC
  5
662
100
AcDbEntity
  8
RACCORDO
100
AcDbCircle
 62
7
  6
CONTINUOUS
 10
-183.008614925
 20
-3.189568447
 40
0.2
100
AcDbArc
 50
180.0
 51
269.9999999996
  0
ARC
  5
663
100
AcDbEntity
  8
RACCORDO
100
AcDbCircle
 62
7
  6
CONTINUOUS
 10
-184.408614925
 20
-3.189568447
 40
0.2
100
AcDbArc
 50
269.9999999996
 51
360.0
  0
ARC
  5
664
100
AcDbEntity
  8
RACCORDO
100
AcDbCircle
 62
7
  6
CONTINUOUS
 10
-183.008614925
 20
-4.589568447
 40
0.2
100
AcDbArc
 50
90.0000000004
 51
180.0
  0
ARC
  5
665
100
AcDbEntity
  8
RACCORDO
100
AcDbCircle
 62
7
  6
CONTINUOUS
 10
-184.408614925
 20
-4.589568447
 40
0.2
100
AcDbArc
 50
0.0
 51
90.0000000004
  0
ARC
  5
666
100
AcDbEntity
  8
RACCORDO
100
AcDbCircle
 62
7
  6
CONTINUOUS
 10
-314.2173190208
 20
-5.989568447
 40
0.1
100
AcDbArc
 50
164.7158483146
 51
201.1099185894
  0
ARC
  5
667
100
AcDbEntity
  8
ASSI
100
AcDbCircle
 62
7
  6
CONTINUOUS
 10
-183.708614925
 20
-1.389568447
 40
3.5
100
AcDbArc
 50
21.9077027941
 51
158.0922972059
  0
ARC
  5
668
100
AcDbEntity
  8
0
100
AcDbCircle
 62
7
  6
CONTINUOUS
 10
-288.708614925
 20
47.110431553
 40
3.0
100
AcDbArc
 50
270.0
 51
360.0
  0
ARC
  5
669
100
AcDbEntity
  8
0
100
AcDbCircle
 62
7
  6
CONTINUOUS
 10
-308.708614925
 20
43.610431553
 40
3.0
100
AcDbArc
 50
90.0
 51
180.0
  0
ARC
  5
66A
100
AcDbEntity
  8
0
100
AcDbCircle
 62
7
  6
CONTINUOUS
 10
-308.708614925
 20
43.610431553
 40
0.5
100
AcDbArc
 50
90.0000000001
 51
180.0
  0
ARC
  5
66B
100
AcDbEntity
  8
0
100
AcDbCircle
 62
7
  6
CONTINUOUS
 10
-288.708614925
 20
47.110431553
 40
0.5
100
AcDbArc
 50
270.0
 51
360.0
  0
ARC
  5
66C
100
AcDbEntity
  8
0
100
AcDbCircle
 62
7
  6
CONTINUOUS
 10
-311.908614925
 20
0.910431553
 40
0.2
100
AcDbArc
 50
0.0
 51
123.1141427513
  0
ARC
  5
66D
100
AcDbEntity
  8
RACCORDO
100
AcDbCircle
 62
7
  6
CONTINUOUS
 10
-183.408614925
 20
-2.089568447
 40
0.2
100
AcDbArc
 50
0.0
 51
90.0000000004
  0
ARC
  5
66E
100
AcDbEntity
  8
RACCORDO
100
AcDbCircle
 62
7
  6
CONTINUOUS
 10
-184.008614925
 20
-2.089568447
 40
0.2
100
AcDbArc
 50
90.0000000004
 51
180.0
  0
ARC
  5
66F
100
AcDbEntity
  8
RACCORDO
100
AcDbCircle
 62
7
  6
CONTINUOUS
 10
-314.2173190208
 20
-1.789568447
 40
0.1
100
AcDbArc
 50
158.8900814106
 51
195.2842862243
  0
ARC
  5
670
100
AcDbEntity
  8
0
100
AcDbCircle
 62
7
  6
CONTINUOUS
 10
308.3606158442
 20
-3.889568447
 40
5.9307692308
100
AcDbArc
 50
303.1141427513
 51
338.890081301
  0
ARC
  5
671
100
AcDbEntity
  8
0
100
AcDbCircle
 62
7
  6
CONTINUOUS
 10
308.3606158442
 20
-3.889568447
 40
5.9307692308
100
AcDbArc
 50
21.109918699
 51
56.8858572487
  0
CIRCLE
  5
672
100
AcDbEntity
  8
0
100
AcDbCircle
 62
7
  6
CONTINUOUS
 10
183.291385075
 20
-3.889568447
 40
5.0
  0
CIRCLE
  5
673
100
AcDbEntity
  8
0
100
AcDbCircle
 62
253
  6
CONTINUOUS
 10
183.291385075
 20
-3.889568447
 40
4.9675167785
  0
ARC
  5
674
100
AcDbEntity
  8
ASSI
100
AcDbCircle
 62
7
  6
CONTINUOUS
 10
183.291385075
 20
-6.389568447
 40
3.5
100
AcDbArc
 50
201.9077027941
 51
338.0922972059
  0
ARC
  5
675
100
AcDbEntity
  8
0
100
AcDbCircle
 62
7
  6
CONTINUOUS
 10
308.291385075
 20
-51.389568447
 40
3.0
100
AcDbArc
 50
270.0
 51
360.0
  0
ARC
  5
676
100
AcDbEntity
  8
0
100
AcDbCircle
 62
7
  6
CONTINUOUS
 10
288.291385075
 20
-51.389568447
 40
0.5
100
AcDbArc
 50
180.0
 51
270.0
  0
ARC
  5
677
100
AcDbEntity
  8
0
100
AcDbCircle
 62
7
  6
CONTINUOUS
 10
308.291385075
 20
-51.389568447
 40
0.5
100
AcDbArc
 50
270.0
 51
360.0
  0
ARC
  5
678
100
AcDbEntity
  8
0
100
AcDbCircle
 62
7
  6
CONTINUOUS
 10
311.491385075
 20
-8.689568447
 40
0.2
100
AcDbArc
 50
180.0
 51
303.1141427513
  0
ARC
  5
679
100
AcDbEntity
  8
RACCORDO
100
AcDbCircle
 62
7
  6
CONTINUOUS
 10
185.091385075
 20
-4.189568447
 40
0.2
100
AcDbArc
 50
269.9999999997
 51
360.0
  0
ARC
  5
67A
100
AcDbEntity
  8
RACCORDO
100
AcDbCircle
 62
7
  6
CONTINUOUS
 10
185.091385075
 20
-3.589568447
 40
0.2
100
AcDbArc
 50
0.0
 51
90.0000000003
  0
ARC
  5
67B
100
AcDbEntity
  8
RACCORDO
100
AcDbCircle
 62
7
  6
CONTINUOUS
 10
181.491385075
 20
-3.589568447
 40
0.2
100
AcDbArc
 50
90.0000000003
 51
180.0
  0
ARC
  5
67C
100
AcDbEntity
  8
RACCORDO
100
AcDbCircle
 62
7
  6
CONTINUOUS
 10
181.491385075
 20
-4.189568447
 40
0.2
100
AcDbArc
 50
180.0
 51
269.9999999997
  0
ARC
  5
67D
100
AcDbEntity
  8
RACCORDO
100
AcDbCircle
 62
7
  6
CONTINUOUS
 10
182.991385075
 20
-5.689568447
 40
0.2
100
AcDbArc
 50
180.0
 51
269.9999999997
  0
ARC
  5
67E
100
AcDbEntity
  8
RACCORDO
100
AcDbCircle
 62
7
  6
CONTINUOUS
 10
183.591385075
 20
-5.689568447
 40
0.2
100
AcDbArc
 50
269.9999999997
 51
360.0
  0
ARC
  5
67F
100
AcDbEntity
  8
RACCORDO
100
AcDbCircle
 62
7
  6
CONTINUOUS
 10
183.991385075
 20
-3.189568447
 40
0.2
100
AcDbArc
 50
180.0
 51
269.9999999997
  0
ARC
  5
680
100
AcDbEntity
  8
RACCORDO
100
AcDbCircle
 62
7
  6
CONTINUOUS
 10
182.591385075
 20
-3.189568447
 40
0.2
100
AcDbArc
 50
269.9999999997
 51
360.0
  0
ARC
  5
681
100
AcDbEntity
  8
RACCORDO
100
AcDbCircle
 62
7
  6
CONTINUOUS
 10
183.991385075
 20
-4.589568447
 40
0.2
100
AcDbArc
 50
90.0000000003
 51
180.0
  0
ARC
  5
682
100
AcDbEntity
  8
RACCORDO
100
AcDbCircle
 62
7
  6
CONTINUOUS
 10
182.591385075
 20
-4.589568447
 40
0.2
100
AcDbArc
 50
0.0
 51
90.0000000003
  0
ARC
  5
683
100
AcDbEntity
  8
RACCORDO
100
AcDbCircle
 62
7
  6
CONTINUOUS
 10
313.8000891708
 20
-5.989568447
 40
0.1
100
AcDbArc
 50
338.8900814106
 51
15.2842862243
  0
ARC
  5
684
100
AcDbEntity
  8
ASSI
100
AcDbCircle
 62
7
  6
CONTINUOUS
 10
183.291385075
 20
-1.389568447
 40
3.5
100
AcDbArc
 50
21.9077027941
 51
158.0922972059
  0
ARC
  5
685
100
AcDbEntity
  8
0
100
AcDbCircle
 62
7
  6
CONTINUOUS
 10
288.291385075
 20
47.110431553
 40
3.0
100
AcDbArc
 50
180.0
 51
270.0
  0
ARC
  5
686
100
AcDbEntity
  8
0
100
AcDbCircle
 62
7
  6
CONTINUOUS
 10
308.291385075
 20
43.610431553
 40
3.0
100
AcDbArc
 50
0.0
 51
90.0
  0
ARC
  5
687
100
AcDbEntity
  8
0
100
AcDbCircle
 62
7
  6
CONTINUOUS
 10
308.291385075
 20
43.610431553
 40
0.5
100
AcDbArc
 50
0.0
 51
90.0000000001
  0
ARC
  5
688
100
AcDbEntity
  8
0
100
AcDbCircle
 62
7
  6
CONTINUOUS
 10
288.291385075
 20
47.110431553
 40
0.5
100
AcDbArc
 50
180.0
 51
270.0
  0
ARC
  5
689
100
AcDbEntity
  8
0
100
AcDbCircle
 62
7
  6
CONTINUOUS
 10
311.491385075
 20
0.910431553
 40
0.2
100
AcDbArc
 50
56.8858572487
 51
180.0
  0
ARC
  5
68A
100
AcDbEntity
  8
RACCORDO
100
AcDbCircle
 62
7
  6
CONTINUOUS
 10
183.591385075
 20
-2.089568447
 40
0.2
100
AcDbArc
 50
0.0
 51
90.0000000003
  0
ARC
  5
68B
100
AcDbEntity
  8
RACCORDO
100
AcDbCircle
 62
7
  6
CONTINUOUS
 10
182.991385075
 20
-2.089568447
 40
0.2
100
AcDbArc
 50
90.0000000003
 51
180.0
  0
ARC
  5
68C
100
AcDbEntity
  8
RACCORDO
100
AcDbCircle
 62
7
  6
CONTINUOUS
 10
313.8000891708
 20
-1.789568447
 40
0.1
100
AcDbArc
 50
344.7158483146
 51
21.1099185894
  0
ARC
  5
68D
100
AcDbEntity
  8
0
100
AcDbCircle
 62
7
  6
CONTINUOUS
 10
-977.1458801458
 20
-3.889568447
 40
5.9307692308
100
AcDbArc
 50
201.109918699
 51
236.8858572487
  0
ARC
  5
68E
100
AcDbEntity
  8
0
100
AcDbCircle
 62
7
  6
CONTINUOUS
 10
-977.1458801458
 20
-3.889568447
 40
5.9307692308
100
AcDbArc
 50
123.1141427513
 51
158.890081301
  0
CIRCLE
  5
68F
100
AcDbEntity
  8
0
100
AcDbCircle
 62
7
  6
CONTINUOUS
 10
-852.0766493766
 20
-3.889568447
 40
5.0
  0
CIRCLE
  5
690
100
AcDbEntity
  8
0
100
AcDbCircle
 62
253
  6
CONTINUOUS
 10
-852.0766493766
 20
-3.889568447
 40
4.9675167785
  0
ARC
  5
691
100
AcDbEntity
  8
ASSI
100
AcDbCircle
 62
7
  6
CONTINUOUS
 10
-852.0766493766
 20
-6.389568447
 40
3.5
100
AcDbArc
 50
201.9077027941
 51
338.0922972059
  0
ARC
  5
692
100
AcDbEntity
  8
0
100
AcDbCircle
 62
7
  6
CONTINUOUS
 10
-977.0766493766
 20
-51.389568447
 40
3.0
100
AcDbArc
 50
180.0
 51
270.0
  0
ARC
  5
693
100
AcDbEntity
  8
0
100
AcDbCircle
 62
7
  6
CONTINUOUS
 10
-957.0766493766
 20
-51.389568447
 40
0.5
100
AcDbArc
 50
270.0
 51
360.0
  0
ARC
  5
694
100
AcDbEntity
  8
0
100
AcDbCircle
 62
7
  6
CONTINUOUS
 10
-977.0766493766
 20
-51.389568447
 40
0.5
100
AcDbArc
 50
180.0
 51
270.0
  0
ARC
  5
695
100
AcDbEntity
  8
0
100
AcDbCircle
 62
7
  6
CONTINUOUS
 10
-980.2766493766
 20
-8.689568447
 40
0.2
100
AcDbArc
 50
236.8858572487
 51
360.0
  0
ARC
  5
696
100
AcDbEntity
  8
RACCORDO
100
AcDbCircle
 62
7
  6
CONTINUOUS
 10
-850.2766493766
 20
-4.189568447
 40
0.2
100
AcDbArc
 50
270.0000000003
 51
360.0
  0
ARC
  5
697
100
AcDbEntity
  8
RACCORDO
100
AcDbCircle
 62
7
  6
CONTINUOUS
 10
-850.2766493766
 20
-3.589568447
 40
0.2
100
AcDbArc
 50
0.0
 51
89.9999999997
  0
ARC
  5
698
100
AcDbEntity
  8
RACCORDO
100
AcDbCircle
 62
7
  6
CONTINUOUS
 10
-853.8766493766
 20
-3.589568447
 40
0.2
100
AcDbArc
 50
89.9999999997
 51
180.0
  0
ARC
  5
699
100
AcDbEntity
  8
RACCORDO
100
AcDbCircle
 62
7
  6
CONTINUOUS
 10
-853.8766493766
 20
-4.189568447
 40
0.2
100
AcDbArc
 50
180.0
 51
270.0000000003
  0
ARC
  5
69A
100
AcDbEntity
  8
RACCORDO
100
AcDbCircle
 62
7
  6
CONTINUOUS
 10
-852.3766493766
 20
-5.689568447
 40
0.2
100
AcDbArc
 50
180.0
 51
270.0000000003
  0
ARC
  5
69B
100
AcDbEntity
  8
RACCORDO
100
AcDbCircle
 62
7
  6
CONTINUOUS
 10
-851.7766493766
 20
-5.689568447
 40
0.2
100
AcDbArc
 50
270.0000000003
 51
360.0
  0
ARC
  5
69C
100
AcDbEntity
  8
RACCORDO
100
AcDbCircle
 62
7
  6
CONTINUOUS
 10
-851.3766493766
 20
-3.189568447
 40
0.2
100
AcDbArc
 50
180.0
 51
270.0000000003
  0
ARC
  5
69D
100
AcDbEntity
  8
RACCORDO
100
AcDbCircle
 62
7
  6
CONTINUOUS
 10
-852.7766493766
 20
-3.189568447
 40
0.2
100
AcDbArc
 50
270.0000000003
 51
360.0
  0
ARC
  5
69E
100
AcDbEntity
  8
RACCORDO
100
AcDbCircle
 62
7
  6
CONTINUOUS
 10
-851.3766493766
 20
-4.589568447
 40
0.2
100
AcDbArc
 50
89.9999999997
 51
180.0
  0
ARC
  5
69F
100
AcDbEntity
  8
RACCORDO
100
AcDbCircle
 62
7
  6
CONTINUOUS
 10
-852.7766493766
 20
-4.589568447
 40
0.2
100
AcDbArc
 50
0.0
 51
89.9999999997
  0
ARC
  5
6A0
100
AcDbEntity
  8
RACCORDO
100
AcDbCircle
 62
7
  6
CONTINUOUS
 10
-982.5853534724
 20
-5.989568447
 40
0.1
100
AcDbArc
 50
164.7158483145
 51
201.1099185894
  0
ARC
  5
6A1
100
AcDbEntity
  8
ASSI
100
AcDbCircle
 62
7
  6
CONTINUOUS
 10
-852.0766493766
 20
-1.389568447
 40
3.5
100
AcDbArc
 50
21.9077027941
 51
158.0922972059
  0
ARC
  5
6A2
100
AcDbEntity
  8
0
100
AcDbCircle
 62
7
  6
CONTINUOUS
 10
-957.0766493766
 20
47.110431553
 40
3.0
100
AcDbArc
 50
270.0
 51
360.0
  0
ARC
  5
6A3
100
AcDbEntity
  8
0
100
AcDbCircle
 62
7
  6
CONTINUOUS
 10
-977.0766493766
 20
43.610431553
 40
3.0
100
AcDbArc
 50
90.0
 51
180.0
  0
ARC
  5
6A4
100
AcDbEntity
  8
0
100
AcDbCircle
 62
7
  6
CONTINUOUS
 10
-977.0766493766
 20
43.610431553
 40
0.5
100
AcDbArc
 50
89.9999999999
 51
180.0
  0
ARC
  5
6A5
100
AcDbEntity
  8
0
100
AcDbCircle
 62
7
  6
CONTINUOUS
 10
-957.0766493766
 20
47.110431553
 40
0.5
100
AcDbArc
 50
270.0
 51
360.0
  0
ARC
  5
6A6
100
AcDbEntity
  8
0
100
AcDbCircle
 62
7
  6
CONTINUOUS
 10
-980.2766493766
 20
0.910431553
 40
0.2
100
AcDbArc
 50
0.0
 51
123.1141427513
  0
ARC
  5
6A7
100
AcDbEntity
  8
RACCORDO
100
AcDbCircle
 62
7
  6
CONTINUOUS
 10
-851.7766493766
 20
-2.089568447
 40
0.2
100
AcDbArc
 50
0.0
 51
89.9999999997
  0
ARC
  5
6A8
100
AcDbEntity
  8
RACCORDO
100
AcDbCircle
 62
7
  6
CONTINUOUS
 10
-852.3766493766
 20
-2.089568447
 40
0.2
100
AcDbArc
 50
89.9999999997
 51
180.0
  0
ARC
  5
6A9
100
AcDbEntity
  8
RACCORDO
100
AcDbCircle
 62
7
  6
CONTINUOUS
 10
-982.5853534724
 20
-1.789568447
 40
0.1
100
AcDbArc
 50
158.8900814106
 51
195.2842862244
  0
ARC
  5
6AA
100
AcDbEntity
  8
0
100
AcDbCircle
 62
7
  6
CONTINUOUS
 10
-360.0074186073
 20
-3.889568447
 40
5.9307692308
100
AcDbArc
 50
303.1141427513
 51
338.890081301
  0
ARC
  5
6AB
100
AcDbEntity
  8
0
100
AcDbCircle
 62
7
  6
CONTINUOUS
 10
-360.0074186073
 20
-3.889568447
 40
5.9307692308
100
AcDbArc
 50
21.109918699
 51
56.8858572487
  0
CIRCLE
  5
6AC
100
AcDbEntity
  8
0
100
AcDbCircle
 62
7
  6
CONTINUOUS
 10
-485.0766493766
 20
-3.889568447
 40
5.0
  0
CIRCLE
  5
6AD
100
AcDbEntity
  8
0
100
AcDbCircle
 62
253
  6
CONTINUOUS
 10
-485.0766493766
 20
-3.889568447
 40
4.9675167785
  0
ARC
  5
6AE
100
AcDbEntity
  8
ASSI
100
AcDbCircle
 62
7
  6
CONTINUOUS
 10
-485.0766493766
 20
-6.389568447
 40
3.5
100
AcDbArc
 50
201.9077027941
 51
338.0922972059
  0
ARC
  5
6AF
100
AcDbEntity
  8
0
100
AcDbCircle
 62
7
  6
CONTINUOUS
 10
-360.0766493766
 20
-51.389568447
 40
3.0
100
AcDbArc
 50
270.0
 51
360.0
  0
ARC
  5
6B0
100
AcDbEntity
  8
0
100
AcDbCircle
 62
7
  6
CONTINUOUS
 10
-380.0766493766
 20
-51.389568447
 40
0.5
100
AcDbArc
 50
180.0
 51
270.0
  0
ARC
  5
6B1
100
AcDbEntity
  8
0
100
AcDbCircle
 62
7
  6
CONTINUOUS
 10
-360.0766493766
 20
-51.389568447
 40
0.5
100
AcDbArc
 50
270.0
 51
360.0
  0
ARC
  5
6B2
100
AcDbEntity
  8
0
100
AcDbCircle
 62
7
  6
CONTINUOUS
 10
-356.8766493765
 20
-8.689568447
 40
0.2
100
AcDbArc
 50
180.0
 51
303.1141427513
  0
ARC
  5
6B3
100
AcDbEntity
  8
RACCORDO
100
AcDbCircle
 62
7
  6
CONTINUOUS
 10
-483.2766493766
 20
-4.189568447
 40
0.2
100
AcDbArc
 50
270.0000000003
 51
360.0
  0
ARC
  5
6B4
100
AcDbEntity
  8
RACCORDO
100
AcDbCircle
 62
7
  6
CONTINUOUS
 10
-483.2766493766
 20
-3.589568447
 40
0.2
100
AcDbArc
 50
0.0
 51
89.9999999997
  0
ARC
  5
6B5
100
AcDbEntity
  8
RACCORDO
100
AcDbCircle
 62
7
  6
CONTINUOUS
 10
-486.8766493766
 20
-3.589568447
 40
0.2
100
AcDbArc
 50
89.9999999997
 51
180.0
  0
ARC
  5
6B6
100
AcDbEntity
  8
RACCORDO
100
AcDbCircle
 62
7
  6
CONTINUOUS
 10
-486.8766493766
 20
-4.189568447
 40
0.2
100
AcDbArc
 50
180.0
 51
270.0000000003
  0
ARC
  5
6B7
100
AcDbEntity
  8
RACCORDO
100
AcDbCircle
 62
7
  6
CONTINUOUS
 10
-485.3766493766
 20
-5.689568447
 40
0.2
100
AcDbArc
 50
180.0
 51
270.0000000003
  0
ARC
  5
6B8
100
AcDbEntity
  8
RACCORDO
100
AcDbCircle
 62
7
  6
CONTINUOUS
 10
-484.7766493766
 20
-5.689568447
 40
0.2
100
AcDbArc
 50
270.0000000003
 51
360.0
  0
ARC
  5
6B9
100
AcDbEntity
  8
RACCORDO
100
AcDbCircle
 62
7
  6
CONTINUOUS
 10
-484.3766493766
 20
-3.189568447
 40
0.2
100
AcDbArc
 50
180.0
 51
270.0000000003
  0
ARC
  5
6BA
100
AcDbEntity
  8
RACCORDO
100
AcDbCircle
 62
7
  6
CONTINUOUS
 10
-485.7766493766
 20
-3.189568447
 40
0.2
100
AcDbArc
 50
270.0000000003
 51
360.0
  0
ARC
  5
6BB
100
AcDbEntity
  8
RACCORDO
100
AcDbCircle
 62
7
  6
CONTINUOUS
 10
-484.3766493766
 20
-4.589568447
 40
0.2
100
AcDbArc
 50
89.9999999997
 51
180.0
  0
ARC
  5
6BC
100
AcDbEntity
  8
RACCORDO
100
AcDbCircle
 62
7
  6
CONTINUOUS
 10
-485.7766493766
 20
-4.589568447
 40
0.2
100
AcDbArc
 50
0.0
 51
89.9999999997
  0
ARC
  5
6BD
100
AcDbEntity
  8
RACCORDO
100
AcDbCircle
 62
7
  6
CONTINUOUS
 10
-354.5679452807
 20
-5.989568447
 40
0.1
100
AcDbArc
 50
338.8900814106
 51
15.2842862243
  0
ARC
  5
6BE
100
AcDbEntity
  8
ASSI
100
AcDbCircle
 62
7
  6
CONTINUOUS
 10
-485.0766493766
 20
-1.389568447
 40
3.5
100
AcDbArc
 50
21.9077027941
 51
158.0922972059
  0
ARC
  5
6BF
100
AcDbEntity
  8
0
100
AcDbCircle
 62
7
  6
CONTINUOUS
 10
-380.0766493766
 20
47.110431553
 40
3.0
100
AcDbArc
 50
180.0
 51
270.0
  0
ARC
  5
6C0
100
AcDbEntity
  8
0
100
AcDbCircle
 62
7
  6
CONTINUOUS
 10
-360.0766493766
 20
43.610431553
 40
3.0
100
AcDbArc
 50
0.0
 51
90.0
  0
ARC
  5
6C1
100
AcDbEntity
  8
0
100
AcDbCircle
 62
7
  6
CONTINUOUS
 10
-360.0766493766
 20
43.610431553
 40
0.5
100
AcDbArc
 50
0.0
 51
89.9999999999
  0
ARC
  5
6C2
100
AcDbEntity
  8
0
100
AcDbCircle
 62
7
  6
CONTINUOUS
 10
-380.0766493766
 20
47.110431553
 40
0.5
100
AcDbArc
 50
180.0
 51
270.0
  0
ARC
  5
6C3
100
AcDbEntity
  8
0
100
AcDbCircle
 62
7
  6
CONTINUOUS
 10
-356.8766493765
 20
0.910431553
 40
0.2
100
AcDbArc
 50
56.8858572487
 51
180.0
  0
ARC
  5
6C4
100
AcDbEntity
  8
RACCORDO
100
AcDbCircle
 62
7
  6
CONTINUOUS
 10
-484.7766493766
 20
-2.089568447
 40
0.2
100
AcDbArc
 50
0.0
 51
89.9999999997
  0
ARC
  5
6C5
100
AcDbEntity
  8
RACCORDO
100
AcDbCircle
 62
7
  6
CONTINUOUS
 10
-485.3766493766
 20
-2.089568447
 40
0.2
100
AcDbArc
 50
89.9999999997
 51
180.0
  0
ARC
  5
6C6
100
AcDbEntity
  8
RACCORDO
100
AcDbCircle
 62
7
  6
CONTINUOUS
 10
-354.5679452807
 20
-1.789568447
 40
0.1
100
AcDbArc
 50
344.7158483146
 51
21.1099185894
  0
ENDSEC
  0
SECTION
  2
OBJECTS
  0
DICTIONARY
  5
C
100
AcDbDictionary
280
0
281
1
  3
ACAD_GROUP
350
D
  3
ACAD_MLINESTYLE
350
17
  3
ACAD_LAYOUT
350
1A
  3
ACAD_PLOTSETTINGS
350
19
  3
ACAD_PLOTSTYLENAME
350
E
  0
DICTIONARY
  5
D
102
{ACAD_REACTORS
330
C
102
}
100
AcDbDictionary
280
0
281
1
  0
ACDBDICTIONARYWDFLT
  5
E
102
{ACAD_REACTORS
330
C
102
}
100
AcDbDictionary
281
1
  3
Normal
350
F
100
AcDbDictionaryWithDefault
340
F
  0
DICTIONARY
  5
17
102
{ACAD_REACTORS
330
C
102
}
100
AcDbDictionary
280
0
281
1
  3
Standard
350
18
  0
DICTIONARY
  5
19
102
{ACAD_REACTORS
330
C
102
}
100
AcDbDictionary
281
1
  0
DICTIONARY
  5
1A
102
{ACAD_REACTORS
330
C
102
}
100
AcDbDictionary
281
1
  3
Model
350
6C7
  3
Layout1
350
6C8
  0
ACDBPLACEHOLDER
  5
F
102
{ACAD_REACTORS
330
E
102
}
  0
MLINESTYLE
  5
18
102
{ACAD_REACTORS
330
17
102
}
100
AcDbMlineStyle
  2
STANDARD
 70
0
  3

 62
256
 51
90.0
 52
90.0
 71
2
 49
0.5
 62
256
  6
BYLAYER
 49
-0.5
 62
256
  6
BYLAYER
  0
LAYOUT
  5
6C7
102
{ACAD_REACTORS
330
1A
102
}
100
AcDbPlotSettings
  1

  2
none_device
  4
ISO_A4_(297.00_x_210.00_MM)
  6

 40
0.0
 41
0.0
 42
0.0
 43
0.0
 44
297.0
 45
210.0
 46
0.0
 47
0.0
 48
0.0
 49
0.0
140
0.0
141
0.0
142
1.0
143
1.0
 70
1024
 72
1
 73
0
 74
0
  7

 75
0
147
1.0
148
0.0
149
0.0
100
AcDbLayout
  1
Model
 70
0
 71
0
 10
0.0
 20
0.0
 11
297.0
 21
210.0
 12
0.0
 22
0.0
 32
0.0
 14
0.0
 24
0.0
 34
0.0
 15
0.0
 25
0.0
 35
0.0
146
0.0
 13
0.0
 23
0.0
 33
0.0
 16
1.0
 26
0.0
 36
0.0
 17
0.0
 27
1.0
 37
0.0
 76
0
330
20D
345
0
346
0
  0
LAYOUT
  5
6C8
102
{ACAD_REACTORS
330
1A
102
}
100
AcDbPlotSettings
  1

  2
none_device
  4
ISO_A4_(297.00_x_210.00_MM)
  6

 40
0.0
 41
0.0
 42
0.0
 43
0.0
 44
297.0
 45
210.0
 46
0.0
 47
0.0
 48
0.0
 49
0.0
140
0.0
141
0.0
142
1.0
143
1.0
 70
0
 72
1
 73
0
 74
0
  7

 75
0
147
1.0
148
0.0
149
0.0
100
AcDbLayout
  1
Layout1
 70
0
 71
1
 10
0.0
 20
0.0
 11
297.0
 21
210.0
 12
0.0
 22
0.0
 32
0.0
 14
0.0
 24
0.0
 34
0.0
 15
0.0
 25
0.0
 35
0.0
146
0.0
 13
0.0
 23
0.0
 33
0.0
 16
1.0
 26
0.0
 36
0.0
 17
0.0
 27
1.0
 37
0.0
 76
0
330
20E
345
0
346
0
  0
ENDSEC
  0
EOF
