  0
SECTION
  2
HEADER
  9
$ACADVER
  1
AC1021
  9
$DWGCODEPAGE
  3
ANSI_1252
  9
$EXTMAX
 10
297.0
 20
210.0
 30
0.0
  9
$EXTMIN
 10
0.0
 20
0.0
 30
0.0
  9
$LIMMIN
 10
0.0
 20
0.0
  9
$LIMMAX
 10
297.0
 20
210.0
  9
$VIEWCTR
 10
148.5
 20
105.0
  9
$VIEWSIZE
 40
210.0
  9
$CLAYER
  8
0
  9
$LTSCALE
 40
16.335
  9
$CELTYPE
  6
BYLAYER
  9
$DIMSCALE
 40
1.0
  9
$DIMASZ
 40
3.0
  9
$DIMEXO
 40
0.5
  9
$DIMDLI
 40
11.286
  9
$DIMEXE
 40
1.5
  9
$DIMCEN
 40
2.673
  9
$DIMLFAC
 40
1.0
  9
$DIMBLK
  1
_FILLED
  9
$DIMALT
 70
0
  9
$DIMALTF
 40
25.4
  9
$DIMTXT
 40
3.0
  9
$DIMTOL
 70
1
  9
$DIMLIM
 70
0
  9
$DIMTFAC
 40
1.0
  9
$DIMTP
 40
0.01
  9
$DIMTM
 40
0.01
  9
$DIMGAP
 40
0.625
  9
$DIMDSEP
 70
44
  9
$AUNITS
 70
0
  9
$PDMODE
 70
3
  9
$PDSIZE
 40
3.0
  9
$HANDSEED
  5
6CB
  9
$TILEMODE
 70
1
  9
$MEASUREMENT
 70
1
  9
$INSUNITS
 70
4
  0
ENDSEC
  0
SECTION
  2
CLASSES
  0
CLASS
  1
ACDBDICTIONARYWDFLT
  2
AcDbDictionaryWithDefault
  3
AutoCAD 2000
 90
0
 91
1
280
0
281
0
  0
CLASS
  1
ACDBPLACEHOLDER
  2
AcDbPlaceHolder
  3
AutoCAD 2000
 90
0
 91
1
280
0
281
0
  0
CLASS
  1
LAYOUT
  2
AcDbLayout
  3
AutoCAD 2000
 90
0
 91
0
280
0
281
0
  0
ENDSEC
  0
SECTION
  2
TABLES
  0
TABLE
  2
VPORT
  5
8
100
AcDbSymbolTable
 70
2
  0
VPORT
  5
1F4
100
AcDbSymbolTableRecord
100
AcDbViewportTableRecord
  2
*ACTIVE
 70
0
 10
0.0
 20
0.0
 11
1.0
 21
1.0
 12
148.5
 22
105.0
 13
0.0
 23
0.0
 14
1.0
 24
1.0
 15
0.0
 25
0.0
 16
0.0
 26
0.0
 36
1.0
 17
0.0
 27
0.0
 37
0.0
 40
210.0
 41
1.4142857143
 42
50.0
 43
0.0
 44
0.0
 50
0.0
 51
0.0
 71
0
 72
100
 73
1
 74
1
 75
0
 76
0
 77
0
 78
0
  0
ENDTAB
  0
TABLE
  2
LTYPE
  5
5
100
AcDbSymbolTable
 70
6
  0
LTYPE
  5
14
100
AcDbSymbolTableRecord
100
AcDbLinetypeTableRecord
  2
BYBLOCK
 70
0
  3

 72
65
 73
0
 40
0.0
  0
LTYPE
  5
15
100
AcDbSymbolTableRecord
100
AcDbLinetypeTableRecord
  2
BYLAYER
 70
0
  3

 72
65
 73
0
 40
0.0
  0
LTYPE
  5
16
100
AcDbSymbolTableRecord
100
AcDbLinetypeTableRecord
  2
CONTINUOUS
 70
64
  3
Solid line
 72
65
 73
0
 40
0.0
  0
LTYPE
  5
1F5
100
AcDbSymbolTableRecord
100
AcDbLinetypeTableRecord
  2
CENTER
 70
64
  3
____ _ ____ _ ____ _ ____ _ ____ _ ____ _ ____
 72
65
 73
4
 40
0.6
 49
0.375
 74
0
 49
-0.075
 74
0
 49
0.075
 74
0
 49
-0.075
 74
0
  0
LTYPE
  5
1F6
100
AcDbSymbolTableRecord
100
AcDbLinetypeTableRecord
  2
HIDDEN
 70
64
  3
- - - - - - - - - - - - - - - - - - - -
 72
65
 73
2
 40
0.2
 49
0.1
 74
0
 49
-0.1
 74
0
  0
LTYPE
  5
1F7
100
AcDbSymbolTableRecord
100
AcDbLinetypeTableRecord
  2
PHANTOM
 70
64
  3
_____ _ _ _____ _ _ _____ _ _ _____
 72
65
 73
6
 40
0.8
 49
0.45
 74
0
 49
-0.05
 74
0
 49
0.1
 74
0
 49
-0.05
 74
0
 49
0.1
 74
0
 49
-0.05
 74
0
  0
LTYPE
  5
1F8
100
AcDbSymbolTableRecord
100
AcDbLinetypeTableRecord
  2
DOT
 70
64
  3
. . . . . . . . . . . . . . . . . . . .
 72
65
 73
2
 40
0.2
 49
0.1
 74
0
 49
-0.1
 74
0
  0
LTYPE
  5
1F9
100
AcDbSymbolTableRecord
100
AcDbLinetypeTableRecord
  2
DASHED
 70
64
  3
- - - - - - - - - - - - - - - - - - - -
 72
65
 73
2
 40
0.2
 49
0.1
 74
0
 49
-0.1
 74
0
  0
ENDTAB
  0
TABLE
  2
LAYER
  5
2
100
AcDbSymbolTable
 70
36
  0
LAYER
  5
10
100
AcDbSymbolTableRecord
100
AcDbLayerTableRecord
  2
0
 70
0
 62
7
  6
CONTINUOUS
370
-3
390
F
  0
LAYER
  5
1FA
100
AcDbSymbolTableRecord
100
AcDbLayerTableRecord
  2
DEFAULT_1
 70
0
 62
7
  6
CENTER
370
-3
390
F
  0
LAYER
  5
1FB
100
AcDbSymbolTableRecord
100
AcDbLayerTableRecord
  2
DEFAULT_2
 70
0
 62
7
  6
HIDDEN
370
-3
390
F
  0
LAYER
  5
1FC
100
AcDbSymbolTableRecord
100
AcDbLayerTableRecord
  2
DEFAULT_3
 70
0
 62
7
  6
PHANTOM
370
-3
390
F
  0
LAYER
  5
1FD
100
AcDbSymbolTableRecord
100
AcDbLayerTableRecord
  2
ASSI
 70
0
 62
7
  6
CONTINUOUS
370
-3
390
F
  0
LAYER
  5
1FE
100
AcDbSymbolTableRecord
100
AcDbLayerTableRecord
  2
COORDINATE
 70
0
 62
7
  6
CONTINUOUS
370
-3
390
F
  0
LAYER
  5
1FF
100
AcDbSymbolTableRecord
100
AcDbLayerTableRecord
  2
COORD_ORIGINE
 70
0
 62
7
  6
CONTINUOUS
370
-3
390
F
  0
LAYER
  5
200
100
AcDbSymbolTableRecord
100
AcDbLayerTableRecord
  2
COSMETICI
 70
0
 62
7
  6
CONTINUOUS
370
-3
390
F
  0
LAYER
  5
201
100
AcDbSymbolTableRecord
100
AcDbLayerTableRecord
  2
CURVE
 70
0
 62
7
  6
CONTINUOUS
370
-3
390
F
  0
LAYER
  5
202
100
AcDbSymbolTableRecord
100
AcDbLayerTableRecord
  2
NOTE
 70
0
 62
7
  6
CONTINUOUS
370
-3
390
F
  0
LAYER
  5
203
100
AcDbSymbolTableRecord
100
AcDbLayerTableRecord
  2
PIANI
 70
0
 62
7
  6
CONTINUOUS
370
-3
390
F
  0
LAYER
  5
204
100
AcDbSymbolTableRecord
100
AcDbLayerTableRecord
  2
PIANI_ORIGINE
 70
0
 62
7
  6
CONTINUOUS
370
-3
390
F
  0
LAYER
  5
205
100
AcDbSymbolTableRecord
100
AcDbLayerTableRecord
  2
PUNTI
 70
0
 62
7
  6
CONTINUOUS
370
-3
390
F
  0
LAYER
  5
206
100
AcDbSymbolTableRecord
100
AcDbLayerTableRecord
  2
RACCORDO
 70
0
 62
7
  6
CONTINUOUS
370
-3
390
F
  0
LAYER
  5
207
100
AcDbSymbolTableRecord
100
AcDbLayerTableRecord
  2
SIMBOLI
 70
0
 62
7
  6
CONTINUOUS
370
-3
390
F
  0
LAYER
  5
208
100
AcDbSymbolTableRecord
100
AcDbLayerTableRecord
  2
SNAPLINE
 70
0
 62
7
  6
CONTINUOUS
370
-3
390
F
  0
LAYER
  5
209
100
AcDbSymbolTableRecord
100
AcDbLayerTableRecord
  2
SUPERFICI
 70
0
 62
7
  6
CONTINUOUS
370
-3
390
F
  0
LAYER
  5
20A
100
AcDbSymbolTableRecord
100
AcDbLayerTableRecord
  2
TRASH
 70
0
 62
7
  6
CONTINUOUS
370
-3
390
F
  0
ENDTAB
  0
TABLE
  2
STYLE
  5
3
100
AcDbSymbolTable
 70
1
  0
STYLE
  5
11
100
AcDbSymbolTableRecord
100
AcDbTextStyleTableRecord
  2
STANDARD
 70
0
 40
0.0
 41
0.8
 50
0.0
 71
0
 42
0.2
  3
txt
  4

  0
STYLE
  5
20B
100
AcDbSymbolTableRecord
100
AcDbTextStyleTableRecord
  2
TEXTSTYLE_1
 70
0
 40
0.0
 41
0.8
 50
0.0
 71
0
 42
0.2
  3
gdt
  4

  0
ENDTAB
  0
TABLE
  2
VIEW
  5
6
100
AcDbSymbolTable
 70
0
  0
ENDTAB
  0
TABLE
  2
UCS
  5
7
100
AcDbSymbolTable
 70
0
  0
ENDTAB
  0
TABLE
  2
APPID
  5
9
100
AcDbSymbolTable
 70
1
  0
APPID
  5
20C
100
AcDbSymbolTableRecord
100
AcDbRegAppTableRecord
  2
ACAD
 70
0
  0
ENDTAB
  0
TABLE
  2
BLOCK_RECORD
  5
1
100
AcDbSymbolTable
 70
0
  0
BLOCK_RECORD
  5
20D
100
AcDbSymbolTableRecord
100
AcDbBlockTableRecord
  2
*Model_Space
  0
BLOCK_RECORD
  5
20E
100
AcDbSymbolTableRecord
100
AcDbBlockTableRecord
  2
*Paper_Space
  0
BLOCK_RECORD
  5
20F
100
AcDbSymbolTableRecord
100
AcDbBlockTableRecord
  2
_FILLED
  0
BLOCK_RECORD
  5
210
100
AcDbSymbolTableRecord
100
AcDbBlockTableRecord
  2
*D0
  0
BLOCK_RECORD
  5
211
100
AcDbSymbolTableRecord
100
AcDbBlockTableRecord
  2
*D1
  0
BLOCK_RECORD
  5
212
100
AcDbSymbolTableRecord
100
AcDbBlockTableRecord
  2
*D2
  0
BLOCK_RECORD
  5
213
100
AcDbSymbolTableRecord
100
AcDbBlockTableRecord
  2
*D3
  0
ENDTAB
  0
TABLE
  2
DIMSTYLE
  5
A
100
AcDbSymbolTable
 70
1
100
AcDbDimStyleTable
 71
0
  0
DIMSTYLE
105
214
100
AcDbSymbolTableRecord
100
AcDbDimStyleTableRecord
  2
STANDARD
 70
0
  3

  4

 40
1.0
 41
3.0
 42
0.5
 43
0.38
 44
1.5
 45
0.0
 46
0.0
 47
0.01
 48
0.01
140
3.0
141
0.09
142
0.0
143
25.4
144
1.0
145
0.0
146
1.0
147
0.625
 71
1.0
 72
0.0
 73
0
 74
0
 75
0
 76
0
 77
1
 78
8
170
0
171
1
172
0
173
0
174
0
175
0
176
0
177
0
178
0
270
2
271
2
272
2
273
2
274
2
275
0
280
0
281
0
282
0
283
1
284
8
285
0
286
0
287
3
288
0
340
11
278
44
341
20F
342
20F
343
20F
344
20F
  0
DIMSTYLE
105
215
100
AcDbSymbolTableRecord
100
AcDbDimStyleTableRecord
  2
DIMSTYLE_1
 70
0
  3

  4

 40
1.0
 41
3.0
 42
0.5
 43
0.38
 44
1.5
 45
0.0
 46
0.0
 47
0.0
 48
0.0
140
3.0
141
0.09
142
0.0
143
25.4
144
1.0
145
0.0
146
1.0
147
0.75
 71
0.0
 72
0.0
 73
0
 74
0
 75
0
 76
0
 77
1
 78
8
170
0
171
1
172
0
173
0
174
0
175
0
176
0
177
0
178
0
270
2
271
2
272
2
273
2
274
2
275
0
280
0
281
0
282
0
283
1
284
8
285
0
286
0
287
3
288
0
340
11
278
44
341
20F
342
20F
343
20F
344
20F
  0
ENDTAB
  0
ENDSEC
  0
SECTION
  2
BLOCKS
  0
BLOCK
  5
20
100
AcDbEntity
  8
0
100
AcDbBlockBegin
  2
*Model_Space
 70
0
 10
0.0
 20
0.0
 30
0.0
  3
*Model_Space
  1

  0
ENDBLK
  5
21
100
AcDbEntity
  8
0
100
AcDbBlockEnd
  0
BLOCK
  5
1C
100
AcDbEntity
  8
0
100
AcDbBlockBegin
  2
*Paper_Space
 70
0
 10
0.0
 20
0.0
 30
0.0
  3
*Paper_Space
  1

  0
ENDBLK
  5
1D
100
AcDbEntity
  8
0
100
AcDbBlockEnd
  0
BLOCK
  5
216
100
AcDbEntity
  8
0
100
AcDbBlockBegin
  2
_FILLED
 70
64
 10
0.0
 20
0.0
  3
_FILLED
  1

  0
SOLID
  5
217
100
AcDbEntity
  8
0
  6
BYBLOCK
 62
0
100
AcDbTrace
 10
0.0
 20
0.0
 11
-1.0
 21
0.3166666667
 12
-1.0
 22
-0.3166666667
 13
-1.0
 23
-0.3166666667
  0
ENDBLK
  5
218
100
AcDbEntity
  8
0
  6
BYBLOCK
 62
0
100
AcDbBlockEnd
  0
BLOCK
  5
219
100
AcDbEntity
  8
0
100
AcDbBlockBegin
 62
7
  6
CONTINUOUS
  2
*D0
 70
65
 10
0.0
 20
0.0
  3
*D0
  1

  0
MTEXT
  5
21A
100
AcDbEntity
  8
0
100
AcDbMText
 62
7
  6
CONTINUOUS
  7
STANDARD
 71
2
 72
1
 10
-885.333465904
 20
69.3540342684
 30
0.0
 11
1.0
 21
0.0
 31
0.0
 44
0.9
  1
800
 40
3.0
 41
10.6071428571
  0
LINE
  5
21B
100
AcDbEntity
  8
0
100
AcDbLine
 62
7
  6
CONTINUOUS
 10
-1285.333465904
 20
42.9040342684
 11
-1285.333465904
 21
67.1040342684
  0
LINE
  5
21C
100
AcDbEntity
  8
0
100
AcDbLine
 62
7
  6
CONTINUOUS
 10
-485.333465904
 20
9.9040342684
 11
-485.333465904
 21
67.1040342684
  0
LINE
  5
21D
100
AcDbEntity
  8
0
100
AcDbLine
 62
7
  6
CONTINUOUS
 10
-1285.333465904
 20
65.6040342684
 11
-885.333465904
 21
65.6040342684
  0
LINE
  5
21E
100
AcDbEntity
  8
0
100
AcDbLine
 62
7
  6
CONTINUOUS
 10
-485.333465904
 20
65.6040342684
 11
-885.333465904
 21
65.6040342684
  0
INSERT
  5
21F
100
AcDbEntity
  8
0
100
AcDbBlockReference
 62
7
  6
CONTINUOUS
  2
_FILLED
 10
-1285.333465904
 20
65.6040342684
 41
3.0
 42
3.0
 43
3.0
 50
180.0
  0
INSERT
  5
220
100
AcDbEntity
  8
0
100
AcDbBlockReference
 62
7
  6
CONTINUOUS
  2
_FILLED
 10
-485.333465904
 20
65.6040342684
 41
3.0
 42
3.0
 43
3.0
  0
ENDBLK
  5
221
100
AcDbEntity
  8
0
  6
BYBLOCK
 62
0
100
AcDbBlockEnd
  0
BLOCK
  5
222
100
AcDbEntity
  8
0
100
AcDbBlockBegin
 62
7
  6
CONTINUOUS
  2
*D1
 70
65
 10
0.0
 20
0.0
  3
*D1
  1

  0
MTEXT
  5
223
100
AcDbEntity
  8
0
100
AcDbMText
 62
7
  6
CONTINUOUS
  7
STANDARD
 71
2
 72
1
 10
-0.1952179947
 20
69.3540342684
 30
0.0
 11
1.0
 21
0.0
 31
0.0
 44
0.9
  1
800
 40
3.0
 41
10.6071428571
  0
LINE
  5
224
100
AcDbEntity
  8
0
100
AcDbLine
 62
7
  6
CONTINUOUS
 10
-400.1952179947
 20
42.9040342684
 11
-400.1952179947
 21
67.1040342684
  0
LINE
  5
225
100
AcDbEntity
  8
0
100
AcDbLine
 62
7
  6
CONTINUOUS
 10
399.8047820053
 20
42.9040342684
 11
399.8047820053
 21
67.1040342684
  0
LINE
  5
226
100
AcDbEntity
  8
0
100
AcDbLine
 62
7
  6
CONTINUOUS
 10
-400.1952179947
 20
65.6040342684
 11
-0.1952179947
 21
65.6040342684
  0
LINE
  5
227
100
AcDbEntity
  8
0
100
AcDbLine
 62
7
  6
CONTINUOUS
 10
399.8047820053
 20
65.6040342684
 11
-0.1952179947
 21
65.6040342684
  0
INSERT
  5
228
100
AcDbEntity
  8
0
100
AcDbBlockReference
 62
7
  6
CONTINUOUS
  2
_FILLED
 10
-400.1952179947
 20
65.6040342684
 41
3.0
 42
3.0
 43
3.0
 50
180.0
  0
INSERT
  5
229
100
AcDbEntity
  8
0
100
AcDbBlockReference
 62
7
  6
CONTINUOUS
  2
_FILLED
 10
399.8047820053
 20
65.6040342684
 41
3.0
 42
3.0
 43
3.0
  0
ENDBLK
  5
22A
100
AcDbEntity
  8
0
  6
BYBLOCK
 62
0
100
AcDbBlockEnd
  0
BLOCK
  5
22B
100
AcDbEntity
  8
0
100
AcDbBlockBegin
 62
7
  6
CONTINUOUS
  2
*D2
 70
65
 10
0.0
 20
0.0
  3
*D2
  1

  0
MTEXT
  5
22C
100
AcDbEntity
  8
0
100
AcDbMText
 62
7
  6
CONTINUOUS
  7
STANDARD
 71
2
 72
1
 10
408.9864651956
 20
-5.0959657316
 30
0.0
 11
0.0
 21
1.0
 31
0.0
 44
0.9
  1
101
 40
3.0
 41
8.6785714286
  0
LINE
  5
22D
100
AcDbEntity
  8
0
100
AcDbLine
 62
7
  6
CONTINUOUS
 10
397.3047820053
 20
45.4040342684
 11
414.2364651956
 21
45.4040342684
  0
LINE
  5
22E
100
AcDbEntity
  8
0
100
AcDbLine
 62
7
  6
CONTINUOUS
 10
397.2545294736
 20
-55.5959657316
 11
414.2364651956
 21
-55.5959657316
  0
LINE
  5
22F
100
AcDbEntity
  8
0
100
AcDbLine
 62
7
  6
CONTINUOUS
 10
412.7364651956
 20
45.4040342684
 11
412.7364651956
 21
-5.0959657316
  0
LINE
  5
230
100
AcDbEntity
  8
0
100
AcDbLine
 62
7
  6
CONTINUOUS
 10
412.7364651956
 20
-55.5959657316
 11
412.7364651956
 21
-5.0959657316
  0
INSERT
  5
231
100
AcDbEntity
  8
0
100
AcDbBlockReference
 62
7
  6
CONTINUOUS
  2
_FILLED
 10
412.7364651956
 20
45.4040342684
 41
3.0
 42
3.0
 43
3.0
 50
90.0
  0
INSERT
  5
232
100
AcDbEntity
  8
0
100
AcDbBlockReference
 62
7
  6
CONTINUOUS
  2
_FILLED
 10
412.7364651956
 20
-55.5959657316
 41
3.0
 42
3.0
 43
3.0
 50
270.0
  0
ENDBLK
  5
233
100
AcDbEntity
  8
0
  6
BYBLOCK
 62
0
100
AcDbBlockEnd
  0
BLOCK
  5
234
100
AcDbEntity
  8
0
100
AcDbBlockBegin
 62
7
  6
CONTINUOUS
  2
*D3
 70
65
 10
0.0
 20
0.0
  3
*D3
  1

  0
MTEXT
  5
235
100
AcDbEntity
  8
0
100
AcDbMText
 62
7
  6
CONTINUOUS
  7
STANDARD
 71
2
 72
1
 10
418.9864651956
 20
0.0040342684
 30
0.0
 11
0.0
 21
1.0
 31
0.0
 44
0.9
  1
111,2
 40
3.0
 41
13.8214285714
  0
LINE
  5
236
100
AcDbEntity
  8
0
100
AcDbLine
 62
7
  6
CONTINUOUS
 10
385.3044248716
 20
-55.5959657316
 11
424.2364651956
 21
-55.5959657316
  0
LINE
  5
237
100
AcDbEntity
  8
0
100
AcDbLine
 62
7
  6
CONTINUOUS
 10
376.8047820053
 20
55.6040342684
 11
424.2364651956
 21
55.6040342684
  0
LINE
  5
238
100
AcDbEntity
  8
0
100
AcDbLine
 62
7
  6
CONTINUOUS
 10
422.7364651956
 20
-55.5959657316
 11
422.7364651956
 21
0.0040342684
  0
LINE
  5
239
100
AcDbEntity
  8
0
100
AcDbLine
 62
7
  6
CONTINUOUS
 10
422.7364651956
 20
55.6040342684
 11
422.7364651956
 21
0.0040342684
  0
INSERT
  5
23A
100
AcDbEntity
  8
0
100
AcDbBlockReference
 62
7
  6
CONTINUOUS
  2
_FILLED
 10
422.7364651956
 20
-55.5959657316
 41
3.0
 42
3.0
 43
3.0
 50
270.0
  0
INSERT
  5
23B
100
AcDbEntity
  8
0
100
AcDbBlockReference
 62
7
  6
CONTINUOUS
  2
_FILLED
 10
422.7364651956
 20
55.6040342684
 41
3.0
 42
3.0
 43
3.0
 50
90.0
  0
ENDBLK
  5
23C
100
AcDbEntity
  8
0
  6
BYBLOCK
 62
0
100
AcDbBlockEnd
  0
ENDSEC
  0
SECTION
  2
ENTITIES
  0
DIMENSION
  5
23D
100
AcDbEntity
  8
0
100
AcDbDimension
 62
7
  6
CONTINUOUS
  2
*D0
 10
-485.333465904
 20
65.6040342684
 11
-885.7620395508
 21
65.6040342684
 70
160
 71
2
 42
800.0
  3
DIMSTYLE_1
100
AcDbAlignedDimension
 13
-1285.333465904
 23
42.4040342684
 14
-485.333465904
 24
9.4040342684
100
AcDbRotatedDimension
  0
DIMENSION
  5
23E
100
AcDbEntity
  8
0
100
AcDbDimension
 62
7
  6
CONTINUOUS
  2
*D1
 10
399.8047820053
 20
65.6040342684
 11
-0.6237893343
 21
65.6040342684
 70
160
 71
2
 42
800.0
  3
DIMSTYLE_1
100
AcDbAlignedDimension
 13
-400.1952179947
 23
42.4040342684
 14
399.8047820053
 24
42.4040342684
100
AcDbRotatedDimension
  0
DIMENSION
  5
23F
100
AcDbEntity
  8
0
100
AcDbDimension
 62
7
  6
CONTINUOUS
  2
*D2
 10
412.7364651956
 20
-55.5959657316
 11
412.7364651956
 21
-5.5245497887
 70
160
 71
2
 42
101.0
  3
DIMSTYLE_1
100
AcDbAlignedDimension
 13
396.8047820053
 23
45.4040342684
 14
396.7545294736
 24
-55.5959657316
 50
270.0
100
AcDbRotatedDimension
  0
DIMENSION
  5
240
100
AcDbEntity
  8
0
100
AcDbDimension
 62
7
  6
CONTINUOUS
  2
*D3
 10
422.7364651956
 20
55.6040342684
 11
422.7364651956
 21
-0.4245384449
 70
160
 71
2
 42
111.2
  3
DIMSTYLE_1
100
AcDbAlignedDimension
 13
384.8044248716
 23
-55.5959657316
 14
376.3047820053
 24
55.6040342684
 50
90.0
100
AcDbRotatedDimension
  0
LINE
  5
241
100
AcDbEntity
  8
RACCORDO
100
AcDbLine
 62
7
  6
CONTINUOUS
 10
-403.1238123329
 20
-5.7832455785
 11
-403.1223232038
 21
-5.7978001092
  0
LINE
  5
242
100
AcDbEntity
  8
RACCORDO
100
AcDbLine
 62
7
  6
CONTINUOUS
 10
-403.124915901
 20
-5.7704737326
 11
-403.1237131901
 21
-5.7842946694
  0
LINE
  5
243
100
AcDbEntity
  8
RACCORDO
100
AcDbLine
 62
7
  6
CONTINUOUS
 10
-403.1257695571
 20
-5.7583807023
 11
-403.1248447156
 21
-5.771372396
  0
LINE
  5
244
100
AcDbEntity
  8
RACCORDO
100
AcDbLine
 62
7
  6
CONTINUOUS
 10
-402.7962221114
 20
-5.3879384254
 11
-402.7954907068
 21
-5.4014808227
  0
LINE
  5
245
100
AcDbEntity
  8
RACCORDO
100
AcDbLine
 62
7
  6
CONTINUOUS
 10
-403.1263789497
 20
-5.7470395878
 11
-403.125722216
 21
-5.759136009
  0
LINE
  5
246
100
AcDbEntity
  8
RACCORDO
100
AcDbLine
 62
7
  6
CONTINUOUS
 10
-402.7981923319
 20
-5.347851704
 11
-402.7960953172
 21
-5.3903308347
  0
LINE
  5
247
100
AcDbEntity
  8
RACCORDO
100
AcDbLine
 62
7
  6
CONTINUOUS
 10
-402.7954860085
 20
-5.4014805632
 11
-402.7948769227
 21
-5.4148401199
  0
LINE
  5
248
100
AcDbEntity
  8
RACCORDO
100
AcDbLine
 62
7
  6
CONTINUOUS
 10
-402.799872064
 20
-5.30775189
 11
-402.7980828896
 21
-5.3502446853
  0
LINE
  5
249
100
AcDbEntity
  8
RACCORDO
100
AcDbLine
 62
253
  6
CONTINUOUS
 10
-402.7887900363
 20
-5.4011108503
 11
-402.7877272034
 21
-5.4272103084
  0
LINE
  5
24A
100
AcDbEntity
  8
RACCORDO
100
AcDbLine
 62
7
  6
CONTINUOUS
 10
-402.8012612031
 20
-5.2676413439
 11
-402.7997799685
 21
-5.3101454486
  0
LWPOLYLINE
  5
24B
100
AcDbEntity
  8
RACCORDO
100
AcDbPolyline
 62
253
  6
CONTINUOUS
 90
13
 70
0
 10
-403.1206094477
 20
-5.7062559688
 10
-403.1210706274
 20
-5.6923260346
 10
-403.1196046934
 20
-5.6784668073
 10
-403.1162401226
 20
-5.6649475152
 10
-403.1110422751
 20
-5.652030783
 10
-403.1041121237
 20
-5.6399675303
 10
-403.0955842931
 20
-5.6289920967
 10
-403.0856244442
 20
-5.6193176903
 10
-403.0744260564
 20
-5.6111322453
 10
-403.0622066686
 20
-5.6045947716
 10
-403.0492036537
 20
-5.5998322655
 10
-403.0356696074
 20
-5.5969372433
 10
-403.0218674409
 20
-5.5959659434
  0
LWPOLYLINE
  5
24C
100
AcDbEntity
  8
RACCORDO
100
AcDbPolyline
 62
253
  6
CONTINUOUS
 90
10
 70
0
 10
-402.8724324796
 20
-5.7062559635
 10
-402.8728741319
 20
-5.6923260102
 10
-402.8714703371
 20
-5.6784667619
 10
-402.8682483651
 20
-5.6649474476
 10
-402.8632708059
 20
-5.6520306928
 10
-402.8566343531
 20
-5.6399674177
 10
-402.8484679262
 20
-5.6289919627
 10
-402.8389301657
 20
-5.6193175364
 10
-402.8282063517
 20
-5.6111320737
 10
-402.8175404845
 20
-5.6051732048
  0
LINE
  5
24D
100
AcDbEntity
  8
RACCORDO
100
AcDbLine
 62
7
  6
CONTINUOUS
 10
-402.8023596916
 20
-5.2275220272
 11
-402.8011864535
 21
-5.2700354333
  0
LINE
  5
24E
100
AcDbEntity
  8
RACCORDO
100
AcDbLine
 62
7
  6
CONTINUOUS
 10
-402.7949090434
 20
-5.4135949287
 11
-402.7943236626
 21
-5.4362878019
  0
LINE
  5
24F
100
AcDbEntity
  8
RACCORDO
100
AcDbLine
 62
7
  6
CONTINUOUS
 10
-402.8031674805
 20
-5.1873957614
 11
-402.8023022897
 21
-5.229916582
  0
LINE
  5
250
100
AcDbEntity
  8
RACCORDO
100
AcDbLine
 62
7
  6
CONTINUOUS
 10
-402.8036845268
 20
-5.147264578
 11
-402.8031274272
 21
-5.1897907311
  0
LWPOLYLINE
  5
251
100
AcDbEntity
  8
RACCORDO
100
AcDbPolyline
 62
253
  6
CONTINUOUS
 90
7
 70
0
 10
-402.7877272034
 20
-5.4272103084
 10
-402.7873999975
 20
-5.4528954928
 10
-402.7878092738
 20
-5.4780965041
 10
-402.7889575045
 20
-5.5028306578
 10
-402.7908381362
 20
-5.5269424246
 10
-402.7934356672
 20
-5.5501084932
 10
-402.7967460962
 20
-5.5722875529
  0
LINE
  5
252
100
AcDbEntity
  8
RACCORDO
100
AcDbLine
 62
7
  6
CONTINUOUS
 10
-402.8039108117
 20
-5.107130902
 11
-402.8036618245
 21
-5.1496599382
  0
LWPOLYLINE
  5
253
100
AcDbEntity
  8
RACCORDO
100
AcDbPolyline
 62
253
  6
CONTINUOUS
 90
10
 70
0
 10
-402.7972111877
 20
-5.0959657316
 10
-402.7971073985
 20
-5.129876147
 10
-402.796795907
 20
-5.1637693089
 10
-402.7962764778
 20
-5.1976622523
 10
-402.7955476268
 20
-5.2316032025
 10
-402.7946098953
 20
-5.265577925
 10
-402.7934658622
 20
-5.2995092563
 10
-402.7921157779
 20
-5.3333821285
 10
-402.790557552
 20
-5.3672439908
 10
-402.7887900363
 20
-5.4011108503
  0
LINE
  5
254
100
AcDbEntity
  8
0
100
AcDbLine
 62
253
  6
CONTINUOUS
 10
-400.5044797396
 20
-10.0634825101
 11
-400.5044797396
 21
-0.1284489531
  0
LINE
  5
255
100
AcDbEntity
  8
0
100
AcDbLine
 62
7
  6
CONTINUOUS
 10
-400.1952179947
 20
42.4040342684
 11
-400.1952179947
 21
-52.5959657316
  0
LINE
  5
256
100
AcDbEntity
  8
0
100
AcDbLine
 62
253
  6
CONTINUOUS
 10
-397.8520722442
 20
42.4040342684
 11
-397.8520722442
 21
-52.5959657316
  0
LINE
  5
257
100
AcDbEntity
  8
0
100
AcDbLine
 62
7
  6
CONTINUOUS
 10
-397.1952179947
 20
45.4040342684
 11
-397.1952179947
 21
42.9040342684
  0
LINE
  5
258
100
AcDbEntity
  8
0
100
AcDbLine
 62
253
  6
CONTINUOUS
 10
-397.1952179947
 20
-55.5959657316
 11
-397.1952179947
 21
-53.0959657316
  0
LINE
  5
259
100
AcDbEntity
  8
0
100
AcDbLine
 62
7
  6
CONTINUOUS
 10
-397.144965463
 20
-53.0959657316
 11
-397.144965463
 21
-55.5959657316
  0
LINE
  5
25A
100
AcDbEntity
  8
0
100
AcDbLine
 62
253
  6
CONTINUOUS
 10
-396.1952179947
 20
42.9040342684
 11
-396.1952179947
 21
42.4040342684
  0
LINE
  5
25B
100
AcDbEntity
  8
0
100
AcDbLine
 62
253
  6
CONTINUOUS
 10
-396.1952179947
 20
-53.0959657316
 11
-396.1952179947
 21
-52.5959657316
  0
LINE
  5
25C
100
AcDbEntity
  8
0
100
AcDbLine
 62
7
  6
CONTINUOUS
 10
-388.1952179947
 20
42.9040342684
 11
-388.1952179947
 21
42.4040342684
  0
LINE
  5
25D
100
AcDbEntity
  8
0
100
AcDbLine
 62
7
  6
CONTINUOUS
 10
-388.1952179947
 20
-53.0959657316
 11
-388.1952179947
 21
-52.5959657316
  0
LINE
  5
25E
100
AcDbEntity
  8
0
100
AcDbLine
 62
7
  6
CONTINUOUS
 10
-386.4676530671
 20
-55.5959657316
 11
-386.4676530671
 21
-53.0959657316
  0
LINE
  5
25F
100
AcDbEntity
  8
0
100
AcDbLine
 62
7
  6
CONTINUOUS
 10
-385.7162748789
 20
-55.5959657316
 11
-385.7162748789
 21
-53.0959657316
  0
LINE
  5
260
100
AcDbEntity
  8
0
100
AcDbLine
 62
7
  6
CONTINUOUS
 10
-385.1948608609
 20
-55.5959657316
 11
-385.1948608609
 21
-53.0959657316
  0
LINE
  5
261
100
AcDbEntity
  8
0
100
AcDbLine
 62
253
  6
CONTINUOUS
 10
-380.1744027145
 20
42.4040342684
 11
-380.1744027145
 21
-52.5959657316
  0
LINE
  5
262
100
AcDbEntity
  8
0
100
AcDbLine
 62
7
  6
CONTINUOUS
 10
-377.1952179947
 20
45.4040342684
 11
-377.1952179947
 21
42.9040342684
  0
LINE
  5
263
100
AcDbEntity
  8
0
100
AcDbLine
 62
7
  6
CONTINUOUS
 10
-376.6952179947
 20
45.9040342684
 11
-376.6952179947
 21
55.6040342684
  0
LINE
  5
264
100
AcDbEntity
  8
RACCORDO
100
AcDbLine
 62
7
  6
CONTINUOUS
 10
-402.8039054645
 20
-5.0824048303
 11
-402.8039054645
 21
-5.1095266329
  0
LWPOLYLINE
  5
265
100
AcDbEntity
  8
RACCORDO
100
AcDbPolyline
 62
7
  6
CONTINUOUS
 90
10
 70
0
 10
-402.7943236626
 20
-5.4362878019
 10
-402.7943820956
 20
-5.45839945
 10
-402.7950622662
 20
-5.479684158
 10
-402.7963168165
 20
-5.4998635386
 10
-402.7980805168
 20
-5.5187780685
 10
-402.8002895853
 20
-5.5362742684
 10
-402.802851305
 20
-5.5521259834
 10
-402.8056684347
 20
-5.5662566353
 10
-402.8086394311
 20
-5.5786127641
 10
-402.8116263183
 20
-5.5890583233
  0
LINE
  5
266
100
AcDbEntity
  8
RACCORDO
100
AcDbLine
 62
7
  6
CONTINUOUS
 10
-402.8036618245
 20
-5.042271525
 11
-402.8039108117
 21
-5.0848005611
  0
LINE
  5
267
100
AcDbEntity
  8
RACCORDO
100
AcDbLine
 62
7
  6
CONTINUOUS
 10
-402.8031274272
 20
-5.002140732
 11
-402.8036845268
 21
-5.0446668851
  0
LWPOLYLINE
  5
268
100
AcDbEntity
  8
RACCORDO
100
AcDbPolyline
 62
7
  6
CONTINUOUS
 90
7
 70
0
 10
-403.1267535098
 20
-4.4554745028
 10
-403.1268987736
 20
-4.465292432
 10
-403.1268193075
 20
-4.4744278723
 10
-403.1265117773
 20
-4.4829509119
 10
-403.1259609438
 20
-4.4909902156
 10
-403.1251107471
 20
-4.4988920804
 10
-403.1238660064
 20
-4.5068828129
  0
LINE
  5
269
100
AcDbEntity
  8
RACCORDO
100
AcDbLine
 62
7
  6
CONTINUOUS
 10
-402.8023022897
 20
-4.9620148812
 11
-402.8031674805
 21
-5.0045357018
  0
LWPOLYLINE
  5
26A
100
AcDbEntity
  8
RACCORDO
100
AcDbPolyline
 62
7
  6
CONTINUOUS
 90
3
 70
0
 10
-402.7942937998
 20
-4.7527746771
 10
-402.7948004268
 20
-4.7754185135
 10
-402.7954878231
 20
-4.7904506499
  0
LINE
  5
26B
100
AcDbEntity
  8
RACCORDO
100
AcDbLine
 62
7
  6
CONTINUOUS
 10
-402.8011864535
 20
-4.9218960298
 11
-402.8023596916
 21
-4.964409436
  0
LWPOLYLINE
  5
26C
100
AcDbEntity
  8
RACCORDO
100
AcDbPolyline
 62
253
  6
CONTINUOUS
 90
10
 70
0
 10
-402.8724284943
 20
-4.4856759338
 10
-402.8728713447
 20
-4.4996062188
 10
-402.8714685943
 20
-4.5134659591
 10
-402.8682474959
 20
-4.5269858846
 10
-402.8632706298
 20
-4.5399033274
 10
-402.8566346874
 20
-4.5519673248
 10
-402.8484685933
 20
-4.5629434949
 10
-402.838931
 20
-4.5726185905
 10
-402.8282072058
 20
-4.5808046416
 10
-402.8175207121
 20
-4.5867754177
  0
LWPOLYLINE
  5
26D
100
AcDbEntity
  8
RACCORDO
100
AcDbPolyline
 62
253
  6
CONTINUOUS
 90
10
 70
0
 10
-403.120609431
 20
-4.4856754961
 10
-403.1210706287
 20
-4.4996054526
 10
-403.1196047095
 20
-4.513464704
 10
-403.1162401503
 20
-4.5269840212
 10
-403.1110423109
 20
-4.5399007786
 10
-403.1041121642
 20
-4.5519640558
 10
-403.095584335
 20
-4.5629395121
 10
-403.0856244844
 20
-4.5726139389
 10
-403.0744260922
 20
-4.5807994012
 10
-403.0622066976
 20
-4.5873368885
  0
LINE
  5
26E
100
AcDbEntity
  8
RACCORDO
100
AcDbLine
 62
7
  6
CONTINUOUS
 10
-402.7997799685
 20
-4.8817860146
 11
-402.8012612031
 21
-4.9242901193
  0
LINE
  5
26F
100
AcDbEntity
  8
RACCORDO
100
AcDbLine
 62
7
  6
CONTINUOUS
 10
-403.1263509451
 20
-4.4442708754
 11
-403.1267404121
 21
-4.4549798067
  0
LINE
  5
270
100
AcDbEntity
  8
RACCORDO
100
AcDbLine
 62
253
  6
CONTINUOUS
 10
-402.7877273151
 20
-4.764802789
 11
-402.7887900363
 21
-4.7908206128
  0
LINE
  5
271
100
AcDbEntity
  8
RACCORDO
100
AcDbLine
 62
7
  6
CONTINUOUS
 10
-402.7980828896
 20
-4.8416867779
 11
-402.799872064
 21
-4.8841795731
  0
LINE
  5
272
100
AcDbEntity
  8
RACCORDO
100
AcDbLine
 62
7
  6
CONTINUOUS
 10
-402.7960953172
 20
-4.8016006285
 11
-402.7981923319
 21
-4.8440797592
  0
LWPOLYLINE
  5
273
100
AcDbEntity
  8
RACCORDO
100
AcDbPolyline
 62
253
  6
CONTINUOUS
 90
10
 70
0
 10
-402.7887900363
 20
-4.7908206128
 10
-402.7905575713
 20
-4.8246879557
 10
-402.7921158097
 20
-4.8585501566
 10
-402.7934658997
 20
-4.8924232232
 10
-402.7946099289
 20
-4.9263545757
 10
-402.7955476499
 20
-4.960329177
 10
-402.7962764914
 20
-4.9942699543
 10
-402.7967959149
 20
-5.0281627023
 10
-402.7971074019
 20
-5.0620556165
 10
-402.7972111877
 20
-5.0959657316
  0
LINE
  5
274
100
AcDbEntity
  8
RACCORDO
100
AcDbLine
 62
7
  6
CONTINUOUS
 10
-402.7954907068
 20
-4.7904506405
 11
-402.7962221114
 21
-4.8039930378
  0
LINE
  5
275
100
AcDbEntity
  8
RACCORDO
100
AcDbLine
 62
7
  6
CONTINUOUS
 10
-403.125722216
 20
-4.4327954541
 11
-403.1263789497
 21
-4.4448918753
  0
LINE
  5
276
100
AcDbEntity
  8
RACCORDO
100
AcDbLine
 62
7
  6
CONTINUOUS
 10
-403.1248447156
 20
-4.4205590672
 11
-403.1257695571
 21
-4.4335507608
  0
LINE
  5
277
100
AcDbEntity
  8
RACCORDO
100
AcDbLine
 62
7
  6
CONTINUOUS
 10
-403.1237131901
 20
-4.4076367937
 11
-403.124915901
 21
-4.4214577305
  0
LWPOLYLINE
  5
278
100
AcDbEntity
  8
RACCORDO
100
AcDbPolyline
 62
253
  6
CONTINUOUS
 90
20
 70
0
 10
-403.1226976003
 20
-4.4029569071
 10
-403.1235358082
 20
-4.4119676318
 10
-403.1242427369
 20
-4.4207902519
 10
-403.1248174334
 20
-4.4293263788
 10
-403.1252530096
 20
-4.4372416
 10
-403.125538627
 20
-4.4444604544
 10
-403.1256872885
 20
-4.4510913403
 10
-403.1257272798
 20
-4.4570626819
 10
-403.1256563561
 20
-4.4623279677
 10
-403.1254766897
 20
-4.4669475908
 10
-403.1252228507
 20
-4.4709942747
 10
-403.1248962327
 20
-4.4744496971
 10
-403.1244945352
 20
-4.477330492
 10
-403.1240469917
 20
-4.4797514501
 10
-403.1235567954
 20
-4.4817055225
 10
-403.1230198987
 20
-4.483190013
 10
-403.122455072
 20
-4.4843223049
 10
-403.1218684637
 20
-4.4851378457
 10
-403.1212533646
 20
-4.4855906463
 10
-403.1206094499
 20
-4.4856754941
  0
LINE
  5
279
100
AcDbEntity
  8
RACCORDO
100
AcDbLine
 62
7
  6
CONTINUOUS
 10
-403.1223232038
 20
-4.3941313539
 11
-403.1238123329
 21
-4.4086858846
  0
LWPOLYLINE
  5
27A
100
AcDbEntity
  8
RACCORDO
100
AcDbPolyline
 62
7
  6
CONTINUOUS
 90
7
 70
0
 10
-403.1251161816
 20
-5.6930821314
 10
-403.1259711476
 20
-5.7010573003
 10
-403.126521421
 20
-5.7091715406
 10
-403.1268252055
 20
-5.7177797354
 10
-403.12689742
 20
-5.727015672
 10
-403.1267404121
 20
-5.7369516564
 10
-403.1263509451
 20
-5.7476605877
  0
LINE
  5
27B
100
AcDbEntity
  8
RACCORDO
100
AcDbLine
 62
7
  6
CONTINUOUS
 10
-403.1211358561
 20
-4.3838964578
 11
-403.1224559315
 21
-4.3953364418
  0
LINE
  5
27C
100
AcDbEntity
  8
RACCORDO
100
AcDbLine
 62
253
  6
CONTINUOUS
 10
-403.1049907575
 20
-4.2655731508
 11
-403.1132492003
 21
-4.3258942843
  0
LINE
  5
27D
100
AcDbEntity
  8
RACCORDO
100
AcDbLine
 62
253
  6
CONTINUOUS
 10
-403.0854734326
 20
-4.1382256676
 11
-403.0957571592
 21
-4.2029865079
  0
LINE
  5
27E
100
AcDbEntity
  8
RACCORDO
100
AcDbLine
 62
7
  6
CONTINUOUS
 10
-402.7939578009
 20
-2.993708988
 11
-402.7944140065
 21
-2.9964762496
  0
LINE
  5
27F
100
AcDbEntity
  8
RACCORDO
100
AcDbLine
 62
253
  6
CONTINUOUS
 10
-403.0613639154
 20
-4.00173348
 11
-403.0740469178
 21
-4.0712206856
  0
LWPOLYLINE
  5
280
100
AcDbEntity
  8
RACCORDO
100
AcDbPolyline
 62
7
  6
CONTINUOUS
 90
8
 70
0
 10
-402.7944140065
 20
-2.9964762496
 10
-402.7947377674
 20
-2.998213306
 10
-402.7952104122
 20
-3.0006014657
 10
-402.7958074978
 20
-3.0034688901
 10
-402.7965102733
 20
-3.0066982914
 10
-402.7973135871
 20
-3.0102524602
 10
-402.7982261073
 20
-3.014159024
 10
-402.7992444382
 20
-3.0183945982
  0
LINE
  5
281
100
AcDbEntity
  8
RACCORDO
100
AcDbLine
 62
253
  6
CONTINUOUS
 10
-402.7967460962
 20
-5.5722875529
 11
-402.8007580438
 21
-5.5934013455
  0
LINE
  5
282
100
AcDbEntity
  8
RACCORDO
100
AcDbLine
 62
253
  6
CONTINUOUS
 10
-402.8007580438
 20
-5.5934013455
 11
-402.8054424646
 21
-5.613088017
  0
LINE
  5
283
100
AcDbEntity
  8
RACCORDO
100
AcDbLine
 62
7
  6
CONTINUOUS
 10
-402.7992444382
 20
-3.0183945982
 11
-402.8005661425
 21
-3.023733203
  0
LWPOLYLINE
  5
284
100
AcDbEntity
  8
RACCORDO
100
AcDbPolyline
 62
253
  6
CONTINUOUS
 90
5
 70
0
 10
-402.9754594151
 20
-3.6174882759
 10
-402.9959938938
 20
-3.6991747285
 10
-403.014733921
 20
-3.7784718581
 10
-403.0318078083
 20
-3.8553660693
 10
-403.0473161689
 20
-3.9297550637
  0
LINE
  5
285
100
AcDbEntity
  8
RACCORDO
100
AcDbLine
 62
7
  6
CONTINUOUS
 10
-402.8003690285
 20
-3.0229554521
 11
-402.8018191696
 21
-3.0286938713
  0
LINE
  5
286
100
AcDbEntity
  8
RACCORDO
100
AcDbLine
 62
7
  6
CONTINUOUS
 10
-402.801599618
 20
-3.0278371766
 11
-402.8043617658
 21
-3.0384936115
  0
LINE
  5
287
100
AcDbEntity
  8
RACCORDO
100
AcDbLine
 62
7
  6
CONTINUOUS
 10
-402.8031716258
 20
-3.0339487519
 11
-402.8061717665
 21
-3.0453099618
  0
LWPOLYLINE
  5
288
100
AcDbEntity
  8
RACCORDO
100
AcDbPolyline
 62
253
  6
CONTINUOUS
 90
6
 70
0
 10
-402.800773822
 20
-3.0282082143
 10
-402.805453282
 20
-3.045640116
 10
-402.8107988472
 20
-3.0648560902
 10
-402.8167817815
 20
-3.085773891
 10
-402.8233161653
 20
-3.108056221
 10
-402.826447962
 20
-3.1164806049
  0
LINE
  5
289
100
AcDbEntity
  8
RACCORDO
100
AcDbLine
 62
7
  6
CONTINUOUS
 10
-402.8058924387
 20
-3.0442602543
 11
-402.8095696318
 21
-3.0577987644
  0
LINE
  5
28A
100
AcDbEntity
  8
RACCORDO
100
AcDbLine
 62
7
  6
CONTINUOUS
 10
-402.8092453824
 20
-3.0566206063
 11
-402.8133587378
 21
-3.0713778349
  0
LINE
  5
28B
100
AcDbEntity
  8
RACCORDO
100
AcDbLine
 62
7
  6
CONTINUOUS
 10
-402.8129851478
 20
-3.0700573334
 11
-402.8175276521
 21
-3.0860075555
  0
LINE
  5
28C
100
AcDbEntity
  8
RACCORDO
100
AcDbLine
 62
7
  6
CONTINUOUS
 10
-402.8171076997
 20
-3.0845453696
 11
-402.8220656017
 21
-3.1016364529
  0
LWPOLYLINE
  5
28D
100
AcDbEntity
  8
RACCORDO
100
AcDbPolyline
 62
253
  6
CONTINUOUS
 90
10
 70
0
 10
-402.8054424646
 20
-5.613088017
 10
-402.8108062387
 20
-5.6313449005
 10
-402.8168163349
 20
-5.6480893401
 10
-402.8233831174
 20
-5.6628748232
 10
-402.8305036018
 20
-5.6756925734
 10
-402.838148204
 20
-5.6865355938
 10
-402.8461902915
 20
-5.6950150786
 10
-402.8545782256
 20
-5.7010363613
 10
-402.8633316013
 20
-5.7047692507
 10
-402.8724325307
 20
-5.706255969
  0
LINE
  5
28E
100
AcDbEntity
  8
RACCORDO
100
AcDbLine
 62
7
  6
CONTINUOUS
 10
-402.8215986506
 20
-3.1000356663
 11
-402.8269642831
 21
-3.1182169347
  0
LWPOLYLINE
  5
28F
100
AcDbEntity
  8
RACCORDO
100
AcDbPolyline
 62
253
  6
CONTINUOUS
 90
3
 70
0
 10
-402.8295464962
 20
-3.1268520239
 10
-402.8303865804
 20
-3.1316666589
 10
-402.8322143368
 20
-3.1357063601
  0
LWPOLYLINE
  5
290
100
AcDbEntity
  8
RACCORDO
100
AcDbPolyline
 62
253
  6
CONTINUOUS
 90
3
 70
0
 10
-402.9015911589
 20
-3.3568688734
 10
-402.9283916026
 20
-3.4462621178
 10
-402.9529731019
 20
-3.5331924423
  0
LINE
  5
291
100
AcDbEntity
  8
RACCORDO
100
AcDbLine
 62
7
  6
CONTINUOUS
 10
-402.826447962
 20
-3.1164806049
 11
-402.8343724078
 21
-3.1428297077
  0
LWPOLYLINE
  5
292
100
AcDbEntity
  8
RACCORDO
100
AcDbPolyline
 62
253
  6
CONTINUOUS
 90
3
 70
0
 10
-402.8349653038
 20
-3.1447720748
 10
-402.8379766073
 20
-3.1565703798
 10
-402.8400664324
 20
-3.1614308182
  0
LINE
  5
293
100
AcDbEntity
  8
RACCORDO
100
AcDbLine
 62
7
  6
CONTINUOUS
 10
-402.8322143368
 20
-3.1357063601
 11
-402.8407067537
 21
-3.1635046139
  0
LWPOLYLINE
  5
294
100
AcDbEntity
  8
RACCORDO
100
AcDbPolyline
 62
253
  6
CONTINUOUS
 90
3
 70
0
 10
-402.8436941175
 20
-3.1731592317
 10
-402.8460004045
 20
-3.1824222226
 10
-402.8491787467
 20
-3.1907329835
  0
LWPOLYLINE
  5
295
100
AcDbEntity
  8
RACCORDO
100
AcDbPolyline
 62
253
  6
CONTINUOUS
 90
5
 70
0
 10
-402.7887826258
 20
-2.9599527665
 10
-402.7926425924
 20
-2.9722804399
 10
-402.7948834067
 20
-2.9850036716
 10
-402.7954676629
 20
-2.9979100731
 10
-402.7952325279
 20
-3.0007076736
  0
LINE
  5
296
100
AcDbEntity
  8
RACCORDO
100
AcDbLine
 62
7
  6
CONTINUOUS
 10
-402.8400664324
 20
-3.1614308182
 11
-402.8498913306
 21
-3.193004703
  0
LWPOLYLINE
  5
297
100
AcDbEntity
  8
RACCORDO
100
AcDbPolyline
 62
253
  6
CONTINUOUS
 90
3
 70
0
 10
-402.8530975438
 20
-3.2031817778
 10
-402.8544185504
 20
-3.2090876104
 10
-402.8589241736
 20
-3.221525683
  0
LWPOLYLINE
  5
298
100
AcDbEntity
  8
RACCORDO
100
AcDbPolyline
 62
7
  6
CONTINUOUS
 90
10
 70
0
 10
-402.8729371044
 20
-3.2649302881
 10
-402.9045520708
 20
-3.3647624681
 10
-402.9423412197
 20
-3.493040317
 10
-402.9772126912
 20
-3.6221401882
 10
-403.0091486266
 20
-3.7519952386
 10
-403.0381334974
 20
-3.8825421573
 10
-403.0641527592
 20
-4.0137149856
 10
-403.0871925627
 20
-4.1454460331
 10
-403.1072411293
 20
-4.2776686047
 10
-403.1211364219
 20
-4.3838964416
  0
LINE
  5
299
100
AcDbEntity
  8
RACCORDO
100
AcDbLine
 62
7
  6
CONTINUOUS
 10
-402.8491787467
 20
-3.1907329835
 11
-402.8597121516
 21
-3.2239988036
  0
LINE
  5
29A
100
AcDbEntity
  8
RACCORDO
100
AcDbLine
 62
253
  6
CONTINUOUS
 10
-402.8623020081
 20
-3.2320804051
 11
-402.8632357019
 21
-3.2366499601
  0
LINE
  5
29B
100
AcDbEntity
  8
RACCORDO
100
AcDbLine
 62
7
  6
CONTINUOUS
 10
-402.8589241736
 20
-3.221525683
 11
-402.8692336617
 21
-3.2535617811
  0
LINE
  5
29C
100
AcDbEntity
  8
RACCORDO
100
AcDbLine
 62
7
  6
CONTINUOUS
 10
-402.8692336617
 20
-3.2535617811
 11
-402.872933769
 21
-3.2649313767
  0
LWPOLYLINE
  5
29D
100
AcDbEntity
  8
RACCORDO
100
AcDbPolyline
 62
7
  6
CONTINUOUS
 90
6
 70
0
 10
-402.8116263183
 20
-5.5890583233
 10
-402.8145099293
 20
-5.5976228254
 10
-402.8171589949
 20
-5.6043436908
 10
-402.8193734518
 20
-5.6091588231
 10
-402.8209918938
 20
-5.6121828935
 10
-402.821233285
 20
-5.6125915448
  0
LWPOLYLINE
  5
29E
100
AcDbEntity
  8
RACCORDO
100
AcDbPolyline
 62
7
  6
CONTINUOUS
 90
13
 70
0
 10
-403.1196683805
 20
-4.5235722411
 10
-403.1163641849
 20
-4.5324233383
 10
-403.1120377958
 20
-4.5414929128
 10
-403.1067947282
 20
-4.5502501098
 10
-403.1007389614
 20
-4.558442719
 10
-403.0937587332
 20
-4.5661526437
 10
-403.0857849359
 20
-4.5733224345
 10
-403.0768503458
 20
-4.5797830539
 10
-403.0669747787
 20
-4.5853886532
 10
-403.0560703467
 20
-4.5900266278
 10
-403.0441644258
 20
-4.5934850751
 10
-403.0314321339
 20
-4.5955137241
 10
-403.0218626576
 20
-4.5959656475
  0
LWPOLYLINE
  5
29F
100
AcDbEntity
  8
RACCORDO
100
AcDbPolyline
 62
7
  6
CONTINUOUS
 90
11
 70
0
 10
-402.8147475264
 20
-4.5936636879
 10
-402.8118947022
 20
-4.6020185414
 10
-402.8089274484
 20
-4.612230807
 10
-402.80596525
 20
-4.6243319901
 10
-402.803146357
 20
-4.6381938093
 10
-402.8005658622
 20
-4.6537728893
 10
-402.7983186779
 20
-4.6710052436
 10
-402.7965051186
 20
-4.6896815266
 10
-402.7951911512
 20
-4.7096546659
 10
-402.7944342732
 20
-4.7307741903
 10
-402.7942937998
 20
-4.7527746771
  0
LINE
  5
2A0
100
AcDbEntity
  8
RACCORDO
100
AcDbLine
 62
7
  6
CONTINUOUS
 10
-402.872933751
 20
-6.9270000782
 11
-402.8631141564
 21
-6.9573152784
  0
LINE
  5
2A1
100
AcDbEntity
  8
RACCORDO
100
AcDbLine
 62
253
  6
CONTINUOUS
 10
-402.8631752191
 20
-6.955477379
 11
-402.8631141564
 21
-6.9573152784
  0
LINE
  5
2A2
100
AcDbEntity
  8
RACCORDO
100
AcDbLine
 62
253
  6
CONTINUOUS
 10
-402.859709648
 20
-6.9679404953
 11
-402.8543153475
 21
-6.9831755506
  0
LINE
  5
2A3
100
AcDbEntity
  8
RACCORDO
100
AcDbLine
 62
7
  6
CONTINUOUS
 10
-402.8631141564
 20
-6.9573152784
 11
-402.8530927811
 21
-6.9887647595
  0
LWPOLYLINE
  5
2A4
100
AcDbEntity
  8
RACCORDO
100
AcDbPolyline
 62
253
  6
CONTINUOUS
 90
5
 70
0
 10
-402.7887900098
 20
-7.2319815524
 10
-402.7926488464
 20
-7.2196539313
 10
-402.7948885924
 20
-7.2069309393
 10
-402.7954718648
 20
-7.1940249311
 10
-402.7952345001
 20
-7.1912032116
  0
LINE
  5
2A5
100
AcDbEntity
  8
RACCORDO
100
AcDbLine
 62
7
  6
CONTINUOUS
 10
-402.8530927811
 20
-6.9887647595
 11
-402.8436854261
 21
-7.0188002343
  0
LINE
  5
2A6
100
AcDbEntity
  8
RACCORDO
100
AcDbLine
 62
7
  6
CONTINUOUS
 10
-402.8436854261
 20
-7.0188002343
 11
-402.8349526016
 21
-7.047201107
  0
LWPOLYLINE
  5
2A7
100
AcDbEntity
  8
RACCORDO
100
AcDbPolyline
 62
253
  6
CONTINUOUS
 90
6
 70
0
 10
-402.8244530802
 20
-7.0821795646
 10
-402.82323498
 20
-7.0841493232
 10
-402.8167163915
 20
-7.1063830145
 10
-402.810749107
 20
-7.1272513416
 10
-402.8054173017
 20
-7.1464229218
 10
-402.8007489276
 20
-7.1638184502
  0
LINE
  5
2A8
100
AcDbEntity
  8
RACCORDO
100
AcDbLine
 62
7
  6
CONTINUOUS
 10
-402.8349526016
 20
-7.047201107
 11
-402.8269481151
 21
-7.07376881
  0
LINE
  5
2A9
100
AcDbEntity
  8
RACCORDO
100
AcDbLine
 62
7
  6
CONTINUOUS
 10
-402.8269481151
 20
-7.07376881
 11
-402.8220476857
 21
-7.0903561737
  0
LINE
  5
2AA
100
AcDbEntity
  8
RACCORDO
100
AcDbLine
 62
7
  6
CONTINUOUS
 10
-402.8220476857
 20
-7.0903561737
 11
-402.8175085766
 21
-7.105990219
  0
LINE
  5
2AB
100
AcDbEntity
  8
RACCORDO
100
AcDbLine
 62
7
  6
CONTINUOUS
 10
-402.8175085766
 20
-7.105990219
 11
-402.8133391445
 21
-7.120623082
  0
LWPOLYLINE
  5
2AC
100
AcDbEntity
  8
RACCORDO
100
AcDbPolyline
 62
253
  6
CONTINUOUS
 90
3
 70
0
 10
-402.9527331032
 20
-6.6596123579
 10
-402.9281892022
 20
-6.7463696623
 10
-402.9014669688
 20
-6.8354716347
  0
LINE
  5
2AD
100
AcDbEntity
  8
RACCORDO
100
AcDbLine
 62
7
  6
CONTINUOUS
 10
-402.8133391445
 20
-7.120623082
 11
-402.8095502777
 21
-7.1342029063
  0
LINE
  5
2AE
100
AcDbEntity
  8
RACCORDO
100
AcDbLine
 62
7
  6
CONTINUOUS
 10
-402.8095502777
 20
-7.1342029063
 11
-402.8061533907
 21
-7.1466900288
  0
LWPOLYLINE
  5
2AF
100
AcDbEntity
  8
RACCORDO
100
AcDbPolyline
 62
7
  6
CONTINUOUS
 90
4
 70
0
 10
-402.8061533907
 20
-7.1466900288
 10
-402.8031548902
 20
-7.1580471719
 10
-402.8018034771
 20
-7.1632991372
 10
-402.8005516224
 20
-7.168256328
  0
LWPOLYLINE
  5
2B0
100
AcDbEntity
  8
RACCORDO
100
AcDbPolyline
 62
253
  6
CONTINUOUS
 90
9
 70
0
 10
-402.8007489276
 20
-7.1638184502
 10
-402.7967415698
 20
-7.1794490604
 10
-402.7934332211
 20
-7.1931359059
 10
-402.7908373394
 20
-7.2048368757
 10
-402.7889557983
 20
-7.2145396797
 10
-402.7878069085
 20
-7.2221295464
 10
-402.7873981677
 20
-7.2275617968
 10
-402.7877261629
 20
-7.2308508368
 10
-402.7887900363
 20
-7.2319815627
  0
LWPOLYLINE
  5
2B1
100
AcDbEntity
  8
RACCORDO
100
AcDbPolyline
 62
7
  6
CONTINUOUS
 90
10
 70
0
 10
-402.8005516224
 20
-7.168256328
 10
-402.7994051206
 20
-7.1728902945
 10
-402.7983641574
 20
-7.1771985784
 10
-402.7974294022
 20
-7.1811760718
 10
-402.7966074948
 20
-7.1847881292
 10
-402.7958932092
 20
-7.1880476272
 10
-402.7952882851
 20
-7.1909330107
 10
-402.7948047648
 20
-7.1933620836
 10
-402.7944280597
 20
-7.1953741048
 10
-402.7943493649
 20
-7.1958141951
  0
LINE
  5
2B2
100
AcDbEntity
  8
RACCORDO
100
AcDbLine
 62
253
  6
CONTINUOUS
 10
-402.8053738798
 20
-4.5791037722
 11
-402.8007011502
 21
-4.59879193
  0
LWPOLYLINE
  5
2B3
100
AcDbEntity
  8
RACCORDO
100
AcDbPolyline
 62
253
  6
CONTINUOUS
 90
3
 70
0
 10
-403.0145760814
 20
-6.4141483167
 10
-402.9958037597
 20
-6.4935330305
 10
-402.9752294846
 20
-6.5753263512
  0
LWPOLYLINE
  5
2B4
100
AcDbEntity
  8
RACCORDO
100
AcDbPolyline
 62
7
  6
CONTINUOUS
 90
3
 70
0
 10
-403.1238579725
 20
-4.5069259266
 10
-403.1220900721
 20
-4.5151357043
 10
-403.1196683805
 20
-4.5235722411
  0
LINE
  5
2B5
100
AcDbEntity
  8
RACCORDO
100
AcDbLine
 62
253
  6
CONTINUOUS
 10
-403.0471809861
 20
-6.2628470471
 11
-403.0316637219
 21
-6.3372359302
  0
LINE
  5
2B6
100
AcDbEntity
  8
RACCORDO
100
AcDbLine
 62
253
  6
CONTINUOUS
 10
-402.8007011502
 20
-4.59879193
 11
-402.7967025351
 21
-4.6198959237
  0
LINE
  5
2B7
100
AcDbEntity
  8
RACCORDO
100
AcDbLine
 62
253
  6
CONTINUOUS
 10
-403.0739253167
 20
-6.1214047349
 11
-403.0612371072
 21
-6.1908695611
  0
LINE
  5
2B8
100
AcDbEntity
  8
RACCORDO
100
AcDbLine
 62
253
  6
CONTINUOUS
 10
-403.0956556463
 20
-5.9896076002
 11
-403.0853567905
 21
-6.0544225067
  0
LWPOLYLINE
  5
2B9
100
AcDbEntity
  8
RACCORDO
100
AcDbPolyline
 62
253
  6
CONTINUOUS
 90
7
 70
0
 10
-402.7967025351
 20
-4.6198959237
 10
-402.7934041833
 20
-4.6420623703
 10
-402.7908167051
 20
-4.6652210654
 10
-402.7889447775
 20
-4.6893230819
 10
-402.7878031357
 20
-4.7140304681
 10
-402.7873980622
 20
-4.7391828821
 10
-402.7877273151
 20
-4.764802789
  0
LINE
  5
2BA
100
AcDbEntity
  8
RACCORDO
100
AcDbLine
 62
253
  6
CONTINUOUS
 10
-403.1132090207
 20
-5.8663240552
 11
-403.1049163739
 21
-5.9268676998
  0
LWPOLYLINE
  5
2BB
100
AcDbEntity
  8
RACCORDO
100
AcDbPolyline
 62
7
  6
CONTINUOUS
 90
10
 70
0
 10
-403.1211364093
 20
-5.8080350775
 10
-403.1075726625
 20
-5.9118921708
 10
-403.0875771922
 20
-6.0441262433
 10
-403.0645903465
 20
-6.1758688184
 10
-403.0386239733
 20
-6.3070531957
 10
-403.0096919734
 20
-6.4376116173
 10
-402.9778088693
 20
-6.5674784757
 10
-402.9429901597
 20
-6.6965906051
 10
-402.9052540235
 20
-6.8248804725
 10
-402.8729371324
 20
-6.927001182
  0
LINE
  5
2BC
100
AcDbEntity
  8
RACCORDO
100
AcDbLine
 62
7
  6
CONTINUOUS
 10
-403.1224559315
 20
-5.7965950214
 11
-403.1211358561
 21
-5.8080350054
  0
LINE
  5
2BD
100
AcDbEntity
  8
0
100
AcDbLine
 62
253
  6
CONTINUOUS
 10
-374.517548465
 20
9.4040342684
 11
-374.517548465
 21
-52.5959657316
  0
LINE
  5
2BE
100
AcDbEntity
  8
0
100
AcDbLine
 62
7
  6
CONTINUOUS
 10
-374.517548465
 20
-52.5959657316
 11
-374.517548465
 21
-55.5959657316
  0
LINE
  5
2BF
100
AcDbEntity
  8
0
100
AcDbLine
 62
7
  6
CONTINUOUS
 10
-374.517548465
 20
9.4040342684
 11
-374.517548465
 21
42.4040342684
  0
LINE
  5
2C0
100
AcDbEntity
  8
0
100
AcDbLine
 62
7
  6
CONTINUOUS
 10
-374.1952179947
 20
45.9040342684
 11
-374.1952179947
 21
55.6040342684
  0
LWPOLYLINE
  5
2C1
100
AcDbEntity
  8
RACCORDO
100
AcDbPolyline
 62
7
  6
CONTINUOUS
 90
11
 70
0
 10
-403.1122461198
 20
-4.5411023567
 10
-403.1070987741
 20
-4.5497912556
 10
-403.1011527867
 20
-4.5579331687
 10
-403.094297266
 20
-4.5656107618
 10
-403.0864641838
 20
-4.5727682076
 10
-403.0776844365
 20
-4.5792403291
 10
-403.0679740883
 20
-4.584886304
 10
-403.0572427263
 20
-4.5895990141
 10
-403.0455124213
 20
-4.5931719521
 10
-403.0329500728
 20
-4.5953585217
 10
-403.0218670694
 20
-4.5959655165
  0
LINE
  5
2C2
100
AcDbEntity
  8
0
100
AcDbLine
 62
7
  6
CONTINUOUS
 10
-330.517548465
 20
45.4040342684
 11
-330.517548465
 21
55.6040342684
  0
LWPOLYLINE
  5
2C3
100
AcDbEntity
  8
RACCORDO
100
AcDbPolyline
 62
7
  6
CONTINUOUS
 90
7
 70
0
 10
-402.8205535645
 20
-4.57981242
 10
-402.821718881
 20
-4.5785128886
 10
-402.8218916112
 20
-4.5783030314
 10
-402.8210847922
 20
-4.5795886523
 10
-402.8195246648
 20
-4.5824703744
 10
-402.8173574938
 20
-4.5871260556
 10
-402.8147475264
 20
-4.5936636879
  0
LWPOLYLINE
  5
2C4
100
AcDbEntity
  8
RACCORDO
100
AcDbPolyline
 62
253
  6
CONTINUOUS
 90
22
 70
0
 10
-272.8055082321
 20
-5.8079710086
 10
-272.8060209928
 20
-5.7983058826
 10
-272.807331553
 20
-5.788974556
 10
-272.8094404917
 20
-5.7799638314
 10
-272.8124507988
 20
-5.7711412112
 10
-272.816261229
 20
-5.7626050843
 10
-272.8205817135
 20
-5.7546898632
 10
-272.8254482372
 20
-5.7474710088
 10
-272.8308622707
 20
-5.7408401228
 10
-272.8364985268
 20
-5.7348687813
 10
-272.8423442679
 20
-5.7296034954
 10
-272.8484495767
 20
-5.7249838724
 10
-272.8545824236
 20
-5.7209371884
 10
-272.8607230307
 20
-5.717481766
 10
-272.8669155958
 20
-5.7146009712
 10
-272.8730175499
 20
-5.712180013
 10
-272.8790024192
 20
-5.7102259407
 10
-272.8849091184
 20
-5.7087414501
 10
-272.8906876787
 20
-5.7076091582
 10
-272.8963224252
 20
-5.7067936174
 10
-272.9018337272
 20
-5.7063408168
 10
-272.9072232717
 20
-5.706255969
  0
LWPOLYLINE
  5
2C5
100
AcDbEntity
  8
RACCORDO
100
AcDbPolyline
 62
253
  6
CONTINUOUS
 90
22
 70
0
 10
-271.5849277572
 20
-4.3839604545
 10
-271.5844149965
 20
-4.3936255806
 10
-271.5831044363
 20
-4.4029569071
 10
-271.5809954977
 20
-4.4119676318
 10
-271.5779851905
 20
-4.4207902519
 10
-271.5741747603
 20
-4.4293263788
 10
-271.5698542759
 20
-4.4372416
 10
-271.5649877522
 20
-4.4444604544
 10
-271.5595737187
 20
-4.4510913403
 10
-271.5539374625
 20
-4.4570626819
 10
-271.5480917214
 20
-4.4623279677
 10
-271.5419864126
 20
-4.4669475908
 10
-271.5358535658
 20
-4.4709942747
 10
-271.5297129586
 20
-4.4744496971
 10
-271.5235203935
 20
-4.477330492
 10
-271.5174184394
 20
-4.4797514501
 10
-271.5114335701
 20
-4.4817055225
 10
-271.505526871
 20
-4.483190013
 10
-271.4997483106
 20
-4.4843223049
 10
-271.4941135642
 20
-4.4851378457
 10
-271.4886022621
 20
-4.4855906463
 10
-271.4832127176
 20
-4.4856754941
  0
LWPOLYLINE
  5
2C6
100
AcDbEntity
  8
RACCORDO
100
AcDbPolyline
 62
253
  6
CONTINUOUS
 90
16
 70
0
 10
-272.5003627043
 20
-7.2319786967
 10
-272.500575857
 20
-7.2196510233
 10
-272.5006995818
 20
-7.2069277916
 10
-272.5007318131
 20
-7.19402139
 10
-272.5006720123
 20
-7.1811472648
 10
-272.5005211775
 20
-7.1685203232
 10
-272.5002818261
 20
-7.1563513462
 10
-272.4999579532
 20
-7.1448434702
 10
-272.4995549648
 20
-7.1341887958
 10
-272.4990795874
 20
-7.1245651811
 10
-272.4985397561
 20
-7.1161332728
 10
-272.4979444817
 20
-7.1090338244
 10
-272.4973037006
 20
-7.1033853468
 10
-272.4966281089
 20
-7.0992821299
 10
-272.4959289837
 20
-7.0967926685
 10
-272.495217995
 20
-7.0959585191
  0
LWPOLYLINE
  5
2C7
100
AcDbEntity
  8
RACCORDO
100
AcDbPolyline
 62
253
  6
CONTINUOUS
 90
16
 70
0
 10
-271.890073285
 20
-2.9599527665
 10
-271.8898601323
 20
-2.9722804399
 10
-271.8897364075
 20
-2.9850036716
 10
-271.8897041763
 20
-2.9979100731
 10
-271.889763977
 20
-3.0107841984
 10
-271.8899148118
 20
-3.02341114
 10
-271.8901541632
 20
-3.035580117
 10
-271.8904780361
 20
-3.0470879929
 10
-271.8908810245
 20
-3.0577426673
 10
-271.8913564019
 20
-3.067366282
 10
-271.8918962333
 20
-3.0757981904
 10
-271.8924915076
 20
-3.0828976388
 10
-271.8931322887
 20
-3.0885461164
 10
-271.8938078804
 20
-3.0926493333
 10
-271.8945070056
 20
-3.0951387947
 10
-271.8952179944
 20
-3.095972944
  0
LWPOLYLINE
  5
2C8
100
AcDbEntity
  8
RACCORDO
100
AcDbPolyline
 62
253
  6
CONTINUOUS
 90
13
 70
0
 10
-274.0260873891
 20
-5.7062555294
 10
-274.0262319671
 20
-5.6923252443
 10
-274.025774001
 20
-5.6784655041
 10
-274.0247223886
 20
-5.6649455786
 10
-274.0230975608
 20
-5.6520281357
 10
-274.0209310852
 20
-5.6399641383
 10
-274.0182650526
 20
-5.6289879682
 10
-274.0151512593
 20
-5.6193128727
 10
-274.0116502009
 20
-5.6111268215
 10
-274.0078298966
 20
-5.6045888551
 10
-274.0037645684
 20
-5.5998259943
 10
-273.9995331983
 20
-5.596930773
 10
-273.9952179944
 20
-5.5959594402
  0
LWPOLYLINE
  5
2C9
100
AcDbEntity
  8
RACCORDO
100
AcDbPolyline
 62
253
  6
CONTINUOUS
 90
13
 70
0
 10
-270.3643486002
 20
-4.4856759338
 10
-270.3642040223
 20
-4.4996062188
 10
-270.3646619883
 20
-4.5134659591
 10
-270.3657136007
 20
-4.5269858846
 10
-270.3673384285
 20
-4.5399033274
 10
-270.3695049041
 20
-4.5519673248
 10
-270.3721709367
 20
-4.5629434949
 10
-270.37528473
 20
-4.5726185905
 10
-270.3787857885
 20
-4.5808046416
 10
-270.3826060927
 20
-4.5873426081
 10
-270.3866714209
 20
-4.5921054689
 10
-270.390902791
 20
-4.5950006901
 10
-270.3952179949
 20
-4.5959720229
  0
LWPOLYLINE
  5
2CA
100
AcDbEntity
  8
RACCORDO
100
AcDbPolyline
 62
253
  6
CONTINUOUS
 90
13
 70
0
 10
-272.9072232694
 20
-5.7062559671
 10
-272.9072793429
 20
-5.6923260106
 10
-272.9071011131
 20
-5.6784667591
 10
-272.9066920424
 20
-5.6649474419
 10
-272.9060600773
 20
-5.6520306846
 10
-272.9052174944
 20
-5.6399674074
 10
-272.9041806616
 20
-5.6289919511
 10
-272.9029697204
 20
-5.6193175243
 10
-272.9016081945
 20
-5.611132062
 10
-272.9001225328
 20
-5.6045945747
 10
-272.8985415958
 20
-5.5998320592
 10
-272.8968960946
 20
-5.5969370319
 10
-272.8952179947
 20
-5.5959657316
  0
LWPOLYLINE
  5
2CB
100
AcDbEntity
  8
RACCORDO
100
AcDbPolyline
 62
253
  6
CONTINUOUS
 90
13
 70
0
 10
-271.4832127199
 20
-4.4856754961
 10
-271.4831566465
 20
-4.4996054526
 10
-271.4833348762
 20
-4.513464704
 10
-271.483743947
 20
-4.5269840212
 10
-271.484375912
 20
-4.5399007786
 10
-271.485218495
 20
-4.5519640558
 10
-271.4862553278
 20
-4.5629395121
 10
-271.4874662689
 20
-4.5726139389
 10
-271.4888277948
 20
-4.5807994012
 10
-271.4903134565
 20
-4.5873368885
 10
-271.4918943935
 20
-4.592099404
 10
-271.4935398947
 20
-4.5949944312
 10
-271.4952179947
 20
-4.5959657316
  0
LINE
  5
2CC
100
AcDbEntity
  8
0
100
AcDbLine
 62
7
  6
CONTINUOUS
 10
-286.2302152431
 20
37.4040342684
 11
-286.2302152431
 21
34.9040342684
  0
LINE
  5
2CD
100
AcDbEntity
  8
0
100
AcDbLine
 62
7
  6
CONTINUOUS
 10
-286.2302152431
 20
-45.0959657316
 11
-286.2302152431
 21
-47.5959657316
  0
LINE
  5
2CE
100
AcDbEntity
  8
0
100
AcDbLine
 62
7
  6
CONTINUOUS
 10
-284.2302152431
 20
-47.5959657316
 11
-284.2302152431
 21
-45.5959657316
  0
LINE
  5
2CF
100
AcDbEntity
  8
0
100
AcDbLine
 62
7
  6
CONTINUOUS
 10
-284.2302152431
 20
-47.5959657316
 11
-284.2302152431
 21
-55.5959657316
  0
LINE
  5
2D0
100
AcDbEntity
  8
0
100
AcDbLine
 62
7
  6
CONTINUOUS
 10
-284.2302152431
 20
37.4040342684
 11
-284.2302152431
 21
55.6040342684
  0
LINE
  5
2D1
100
AcDbEntity
  8
0
100
AcDbLine
 62
253
  6
CONTINUOUS
 10
-283.1952179947
 20
34.9040342684
 11
-283.1952179947
 21
-45.0959657316
  0
LINE
  5
2D2
100
AcDbEntity
  8
0
100
AcDbLine
 62
253
  6
CONTINUOUS
 10
-280.7593107472
 20
34.9040342684
 11
-280.7593107472
 21
-45.0959657316
  0
LINE
  5
2D3
100
AcDbEntity
  8
0
100
AcDbLine
 62
253
  6
CONTINUOUS
 10
-279.8040530031
 20
34.9040342684
 11
-279.8040530031
 21
-45.0959657316
  0
LINE
  5
2D4
100
AcDbEntity
  8
0
100
AcDbLine
 62
7
  6
CONTINUOUS
 10
-278.6952179947
 20
-55.0959657316
 11
-278.6952179947
 21
44.9040342684
  0
LINE
  5
2D5
100
AcDbEntity
  8
RACCORDO
100
AcDbLine
 62
253
  6
CONTINUOUS
 10
-274.3312338258
 20
-5.4011108503
 11
-274.3312338258
 21
-4.7908206128
  0
LINE
  5
2D6
100
AcDbEntity
  8
RACCORDO
100
AcDbLine
 62
7
  6
CONTINUOUS
 10
-274.1952179947
 20
-5.3959657316
 11
-274.1952179947
 21
-4.7959657316
  0
LINE
  5
2D7
100
AcDbEntity
  8
RACCORDO
100
AcDbLine
 62
7
  6
CONTINUOUS
 10
-272.6952179947
 20
-6.8959657316
 11
-272.6952179947
 21
-5.7959657316
  0
LINE
  5
2D8
100
AcDbEntity
  8
RACCORDO
100
AcDbLine
 62
7
  6
CONTINUOUS
 10
-272.6952179947
 20
-4.3959657316
 11
-272.6952179947
 21
-3.2959657316
  0
LINE
  5
2D9
100
AcDbEntity
  8
RACCORDO
100
AcDbLine
 62
7
  6
CONTINUOUS
 10
-271.6952179947
 20
-3.2959657316
 11
-271.6952179947
 21
-4.3959657316
  0
LINE
  5
2DA
100
AcDbEntity
  8
RACCORDO
100
AcDbLine
 62
7
  6
CONTINUOUS
 10
-271.6952179947
 20
-5.7959657316
 11
-271.6952179947
 21
-6.8959657316
  0
LINE
  5
2DB
100
AcDbEntity
  8
RACCORDO
100
AcDbLine
 62
7
  6
CONTINUOUS
 10
-270.1952179947
 20
-4.7959657316
 11
-270.1952179947
 21
-5.3959657316
  0
LINE
  5
2DC
100
AcDbEntity
  8
RACCORDO
100
AcDbLine
 62
253
  6
CONTINUOUS
 10
-270.0592021635
 20
-4.7908206128
 11
-270.0592021635
 21
-5.4011108503
  0
LINE
  5
2DD
100
AcDbEntity
  8
RACCORDO
100
AcDbLine
 62
253
  6
CONTINUOUS
 10
-272.8055082321
 20
-4.3839604545
 11
-272.8055082306
 21
-3.5323191052
  0
LINE
  5
2DE
100
AcDbEntity
  8
RACCORDO
100
AcDbLine
 62
253
  6
CONTINUOUS
 10
-272.8055843519
 20
-5.8660371788
 11
-272.8055082321
 21
-5.8079710086
  0
LINE
  5
2DF
100
AcDbEntity
  8
RACCORDO
100
AcDbLine
 62
253
  6
CONTINUOUS
 10
-271.5848516374
 20
-4.3258942843
 11
-271.5849277572
 21
-4.3839604545
  0
LINE
  5
2E0
100
AcDbEntity
  8
RACCORDO
100
AcDbLine
 62
253
  6
CONTINUOUS
 10
-271.5849277572
 20
-5.8079710086
 11
-271.5849277587
 21
-6.6596123579
  0
LWPOLYLINE
  5
2E1
100
AcDbEntity
  8
RACCORDO
100
AcDbPolyline
 62
253
  6
CONTINUOUS
 90
3
 70
0
 10
-272.8055082306
 20
-3.5323191052
 10
-272.8053284611
 20
-3.4455618008
 10
-272.8055082321
 20
-3.2650950192
  0
LWPOLYLINE
  5
2E2
100
AcDbEntity
  8
RACCORDO
100
AcDbPolyline
 62
253
  6
CONTINUOUS
 90
3
 70
0
 10
-271.5849277587
 20
-6.6596123579
 10
-271.5851075283
 20
-6.7463696623
 10
-271.5849277572
 20
-6.926836444
  0
LINE
  5
2E3
100
AcDbEntity
  8
RACCORDO
100
AcDbLine
 62
253
  6
CONTINUOUS
 10
-272.8055082321
 20
-6.926836444
 11
-272.8055843519
 21
-5.8660371788
  0
LINE
  5
2E4
100
AcDbEntity
  8
RACCORDO
100
AcDbLine
 62
253
  6
CONTINUOUS
 10
-271.5849277572
 20
-3.2650950192
 11
-271.5848516374
 21
-4.3258942843
  0
LWPOLYLINE
  5
2E5
100
AcDbEntity
  8
RACCORDO
100
AcDbPolyline
 62
253
  6
CONTINUOUS
 90
13
 70
0
 10
-272.9072232714
 20
-4.4856754943
 10
-272.9072793418
 20
-4.4996054285
 10
-272.9071011095
 20
-4.5134646558
 10
-272.9066920368
 20
-4.5269839479
 10
-272.9060600703
 20
-4.5399006801
 10
-272.9052174866
 20
-4.5519639329
 10
-272.9041806535
 20
-4.5629393665
 10
-272.9029697127
 20
-4.5726137729
 10
-272.9016081876
 20
-4.5807992179
 10
-272.9001225272
 20
-4.5873366916
 10
-272.8985415918
 20
-4.5920991976
 10
-272.8968960925
 20
-4.5949942198
 10
-272.8952179947
 20
-4.5959655198
  0
LWPOLYLINE
  5
2E6
100
AcDbEntity
  8
RACCORDO
100
AcDbPolyline
 62
253
  6
CONTINUOUS
 90
13
 70
0
 10
-271.4832127179
 20
-5.7062559688
 10
-271.4831566475
 20
-5.6923260346
 10
-271.4833348798
 20
-5.6784668073
 10
-271.4837439525
 20
-5.6649475152
 10
-271.484375919
 20
-5.652030783
 10
-271.4852185028
 20
-5.6399675303
 10
-271.4862553358
 20
-5.6289920967
 10
-271.4874662767
 20
-5.6193176903
 10
-271.4888278017
 20
-5.6111322453
 10
-271.4903134621
 20
-5.6045947716
 10
-271.4918943975
 20
-5.5998322655
 10
-271.4935398968
 20
-5.5969372433
 10
-271.4952179947
 20
-5.5959659434
  0
LWPOLYLINE
  5
2E7
100
AcDbEntity
  8
RACCORDO
100
AcDbPolyline
 62
253
  6
CONTINUOUS
 90
13
 70
0
 10
-274.0260886904
 20
-4.4856754997
 10
-274.0262328791
 20
-4.499605453
 10
-274.0257745742
 20
-4.5134647013
 10
-274.0247226785
 20
-4.5269840155
 10
-274.0230976261
 20
-4.5399007703
 10
-274.0209309852
 20
-4.5519640454
 10
-274.0182648449
 20
-4.5629395004
 10
-274.0151509975
 20
-4.5726139267
 10
-274.0116499324
 20
-4.5807993894
 10
-274.007829661
 20
-4.5873368782
 10
-274.0037643956
 20
-4.5920993962
 10
-273.9995331079
 20
-4.5949944268
 10
-273.9952179947
 20
-4.5959657316
  0
LWPOLYLINE
  5
2E8
100
AcDbEntity
  8
RACCORDO
100
AcDbPolyline
 62
253
  6
CONTINUOUS
 90
13
 70
0
 10
-270.364347299
 20
-5.7062559635
 10
-270.3642031102
 20
-5.6923260102
 10
-270.3646614152
 20
-5.6784667619
 10
-270.3657133109
 20
-5.6649474476
 10
-270.3673383633
 20
-5.6520306928
 10
-270.3695050041
 20
-5.6399674177
 10
-270.3721711444
 20
-5.6289919627
 10
-270.3752849918
 20
-5.6193175364
 10
-270.3787860569
 20
-5.6111320737
 10
-270.3826063283
 20
-5.6045945849
 10
-270.3866715937
 20
-5.599832067
 10
-270.3909028814
 20
-5.5969370363
 10
-270.3952179947
 20
-5.5959657316
  0
LWPOLYLINE
  5
2E9
100
AcDbEntity
  8
RACCORDO
100
AcDbPolyline
 62
253
  6
CONTINUOUS
 90
16
 70
0
 10
-272.5003631119
 20
-2.9599499107
 10
-272.5005762606
 20
-2.9722775318
 10
-272.5006999763
 20
-2.9850005239
 10
-272.5007321942
 20
-2.9979065321
 10
-272.5006723766
 20
-3.0107801471
 10
-272.5005215218
 20
-3.0234065002
 10
-272.5002821479
 20
-3.0355748496
 10
-272.4999582501
 20
-3.0470820979
 10
-272.4995552346
 20
-3.0577361819
 10
-272.4990798277
 20
-3.0673592782
 10
-272.4985399645
 20
-3.0757907713
 10
-272.4979446555
 20
-3.0828899343
 10
-272.4973038367
 20
-3.0885382776
 10
-272.4966282036
 20
-3.0926415268
 10
-272.4959290331
 20
-3.0951311962
 10
-272.4952179947
 20
-3.0959657316
  0
LWPOLYLINE
  5
2EA
100
AcDbEntity
  8
RACCORDO
100
AcDbPolyline
 62
253
  6
CONTINUOUS
 90
16
 70
0
 10
-271.8900728774
 20
-7.2319815524
 10
-271.8898597288
 20
-7.2196539313
 10
-271.889736013
 20
-7.2069309393
 10
-271.8897037951
 20
-7.1940249311
 10
-271.8897636127
 20
-7.181151316
 10
-271.8899144675
 20
-7.1685249629
 10
-271.8901538414
 20
-7.1563566135
 10
-271.8904777392
 20
-7.1448493652
 10
-271.8908807548
 20
-7.1341952813
 10
-271.8913561616
 20
-7.1245721849
 10
-271.8918960248
 20
-7.1161406918
 10
-271.8924913338
 20
-7.1090415289
 10
-271.8931321526
 20
-7.1033931856
 10
-271.8938077857
 20
-7.0992899363
 10
-271.8945069563
 20
-7.0968002669
 10
-271.8952179947
 20
-7.0959657316
  0
LWPOLYLINE
  5
2EB
100
AcDbEntity
  8
RACCORDO
100
AcDbPolyline
 62
253
  6
CONTINUOUS
 90
19
 70
0
 10
-274.3312338258
 20
-4.7908206128
 10
-274.3300940985
 20
-4.7647211548
 10
-274.3267982736
 20
-4.7390359703
 10
-274.3213620206
 20
-4.7138349591
 10
-274.3137759419
 20
-4.6891008054
 10
-274.3040810212
 20
-4.6649890385
 10
-274.2923784187
 20
-4.6418229699
 10
-274.2786832375
 20
-4.6196439102
 10
-274.2630335174
 20
-4.5985301177
 10
-274.2455830888
 20
-4.5788434461
 10
-274.2263042991
 20
-4.5605865627
 10
-274.2052920097
 20
-4.543842123
 10
-274.182901723
 20
-4.5290566399
 10
-274.1591360171
 20
-4.5162388897
 10
-274.1340644192
 20
-4.5053958693
 10
-274.1081542371
 20
-4.4969163846
 10
-274.0815811102
 20
-4.4908951018
 10
-274.0542212
 20
-4.4871622125
 10
-274.0260887071
 20
-4.4856754941
  0
LWPOLYLINE
  5
2EC
100
AcDbEntity
  8
RACCORDO
100
AcDbPolyline
 62
253
  6
CONTINUOUS
 90
19
 70
0
 10
-270.0592021635
 20
-5.4011108503
 10
-270.0603418909
 20
-5.4272103084
 10
-270.0636377157
 20
-5.4528954928
 10
-270.0690739688
 20
-5.4780965041
 10
-270.0766600475
 20
-5.5028306578
 10
-270.0863549681
 20
-5.5269424246
 10
-270.0980575707
 20
-5.5501084932
 10
-270.1117527519
 20
-5.5722875529
 10
-270.127402472
 20
-5.5934013455
 10
-270.1448529006
 20
-5.613088017
 10
-270.1641316902
 20
-5.6313449005
 10
-270.1851439796
 20
-5.6480893401
 10
-270.2075342664
 20
-5.6628748232
 10
-270.2312999723
 20
-5.6756925734
 10
-270.2563715701
 20
-5.6865355938
 10
-270.2822817523
 20
-5.6950150786
 10
-270.3088548792
 20
-5.7010363613
 10
-270.3362147894
 20
-5.7047692507
 10
-270.3643472823
 20
-5.706255969
  0
LWPOLYLINE
  5
2ED
100
AcDbEntity
  8
RACCORDO
100
AcDbPolyline
 62
253
  6
CONTINUOUS
 90
19
 70
0
 10
-272.8055082321
 20
-3.2650950192
 10
-272.8039068988
 20
-3.2364540841
 10
-272.800076941
 20
-3.2087559126
 10
-272.7939820002
 20
-3.1820148413
 10
-272.7854635224
 20
-3.1561670238
 10
-272.7746195727
 20
-3.1313273509
 10
-272.7618267472
 20
-3.10778214
 10
-272.7470967936
 20
-3.0855484486
 10
-272.7304328515
 20
-3.0646801216
 10
-272.7122447284
 20
-3.0455085414
 10
-272.6926004437
 20
-3.028113013
 10
-272.6715132777
 20
-3.0124824027
 10
-272.6493455107
 20
-2.9987955572
 10
-272.6261651823
 20
-2.9870945874
 10
-272.6020227655
 20
-2.9773917835
 10
-272.5772728435
 20
-2.9698019167
 10
-272.5520817869
 20
-2.9643696664
 10
-272.5264219049
 20
-2.9610806263
 10
-272.5003631134
 20
-2.9599499004
  0
LWPOLYLINE
  5
2EE
100
AcDbEntity
  8
RACCORDO
100
AcDbPolyline
 62
253
  6
CONTINUOUS
 90
19
 70
0
 10
-271.5849277572
 20
-6.926836444
 10
-271.5865290905
 20
-6.955477379
 10
-271.5903590483
 20
-6.9831755506
 10
-271.5964539892
 20
-7.0099166219
 10
-271.604972467
 20
-7.0357644394
 10
-271.6158164166
 20
-7.0606041123
 10
-271.6286092421
 20
-7.0841493232
 10
-271.6433391958
 20
-7.1063830145
 10
-271.6600031378
 20
-7.1272513416
 10
-271.6781912609
 20
-7.1464229218
 10
-271.6978355456
 20
-7.1638184502
 10
-271.7189227116
 20
-7.1794490604
 10
-271.7410904787
 20
-7.1931359059
 10
-271.764270807
 20
-7.2048368757
 10
-271.7884132239
 20
-7.2145396797
 10
-271.8131631459
 20
-7.2221295464
 10
-271.8383542024
 20
-7.2275617968
 10
-271.8640140844
 20
-7.2308508368
 10
-271.8900728759
 20
-7.2319815627
  0
LWPOLYLINE
  5
2EF
100
AcDbEntity
  8
RACCORDO
100
AcDbPolyline
 62
253
  6
CONTINUOUS
 90
9
 70
0
 10
-402.7887900363
 20
-2.9599499004
 10
-402.787723285
 20
-2.9610619415
 10
-402.7873941323
 20
-2.9643405781
 10
-402.7878034406
 20
-2.96977193
 10
-402.7889545943
 20
-2.9773743079
 10
-402.7908401074
 20
-2.9871017809
 10
-402.7934417224
 20
-2.99883147
 10
-402.7967574229
 20
-3.012546536
 10
-402.800773822
 20
-3.0282082143
  0
LINE
  5
2F0
100
AcDbEntity
  8
RACCORDO
100
AcDbLine
 62
253
  6
CONTINUOUS
 10
-403.0622066976
 20
-4.5873368885
 11
-403.0492036742
 21
-4.592099404
  0
LINE
  5
2F1
100
AcDbEntity
  8
RACCORDO
100
AcDbLine
 62
253
  6
CONTINUOUS
 10
-402.8724281373
 20
-6.9268350095
 11
-402.8729337505
 21
-6.9270000781
  0
LINE
  5
2F2
100
AcDbEntity
  8
RACCORDO
100
AcDbLine
 62
253
  6
CONTINUOUS
 10
-402.8724324643
 20
-3.2650950409
 11
-402.8729371044
 21
-3.2649302881
  0
LINE
  5
2F3
100
AcDbEntity
  8
RACCORDO
100
AcDbLine
 62
253
  6
CONTINUOUS
 10
-403.0492036742
 20
-4.592099404
 11
-403.0356696179
 21
-4.5949944312
  0
LWPOLYLINE
  5
2F4
100
AcDbEntity
  8
RACCORDO
100
AcDbPolyline
 62
253
  6
CONTINUOUS
 90
20
 70
0
 10
402.7301734606
 20
-4.4856754941
 10
402.7308159811
 20
-4.4855964349
 10
402.7314308496
 20
-4.4851439507
 10
402.7320183762
 20
-4.4843235592
 10
402.7325860824
 20
-4.4831799554
 10
402.7331269758
 20
-4.4816798018
 10
402.7336198178
 20
-4.4797105654
 10
402.7340675549
 20
-4.4772744683
 10
402.7344681312
 20
-4.4743783943
 10
402.734793219
 20
-4.4709122915
 10
402.7350450453
 20
-4.4668587628
 10
402.73522229
 20
-4.4622364323
 10
402.7352914939
 20
-4.4569790563
 10
402.735250616
 20
-4.4510301037
 10
402.7351017633
 20
-4.4444319661
 10
402.7348173585
 20
-4.4372512049
 10
402.7343860798
 20
-4.4293911141
 10
402.7338171308
 20
-4.4209160875
 10
402.7331130977
 20
-4.4121215591
 10
402.7322734446
 20
-4.4030928025
  0
LINE
  5
2F5
100
AcDbEntity
  8
RACCORDO
100
AcDbLine
 62
253
  6
CONTINUOUS
 10
402.7301734468
 20
-4.3839604562
 11
402.7307004192
 21
-4.3838963857
  0
LINE
  5
2F6
100
AcDbEntity
  8
ASSI
100
AcDbLine
 62
7
  6
CONTINUOUS
 10
-385.7162748789
 20
-55.5959657316
 11
-385.1948608609
 21
-55.5959657316
  0
LINE
  5
2F7
100
AcDbEntity
  8
0
100
AcDbLine
 62
7
  6
CONTINUOUS
 10
283.8397792537
 20
-55.5959657316
 11
396.8047820053
 21
-55.5959657316
  0
LINE
  5
2F8
100
AcDbEntity
  8
0
100
AcDbLine
 62
7
  6
CONTINUOUS
 10
-284.2302152431
 20
-55.5959657316
 11
-385.1948608609
 21
-55.5959657316
  0
LINE
  5
2F9
100
AcDbEntity
  8
0
100
AcDbLine
 62
7
  6
CONTINUOUS
 10
-385.7162748789
 20
-55.5959657316
 11
-397.1952179947
 21
-55.5959657316
  0
LINE
  5
2FA
100
AcDbEntity
  8
0
100
AcDbLine
 62
7
  6
CONTINUOUS
 10
-278.6952179947
 20
-55.0959657316
 11
278.3047820053
 21
-55.0959657316
  0
LINE
  5
2FB
100
AcDbEntity
  8
0
100
AcDbLine
 62
7
  6
CONTINUOUS
 10
396.8047820053
 20
-53.0959657316
 11
385.3258388895
 21
-53.0959657316
  0
LINE
  5
2FC
100
AcDbEntity
  8
0
100
AcDbLine
 62
7
  6
CONTINUOUS
 10
384.8044248716
 20
-53.0959657316
 11
374.1271124757
 21
-53.0959657316
  0
LINE
  5
2FD
100
AcDbEntity
  8
0
100
AcDbLine
 62
7
  6
CONTINUOUS
 10
-374.517548465
 20
-53.0959657316
 11
-385.1948608609
 21
-53.0959657316
  0
LINE
  5
2FE
100
AcDbEntity
  8
0
100
AcDbLine
 62
7
  6
CONTINUOUS
 10
-385.7162748789
 20
-53.0959657316
 11
-397.1952179947
 21
-53.0959657316
  0
LINE
  5
2FF
100
AcDbEntity
  8
0
100
AcDbLine
 62
7
  6
CONTINUOUS
 10
-400.1952179947
 20
-52.5959657316
 11
-374.517548465
 21
-52.5959657316
  0
LINE
  5
300
100
AcDbEntity
  8
0
100
AcDbLine
 62
253
  6
CONTINUOUS
 10
283.8397792537
 20
-52.5959657316
 11
374.1271124757
 21
-52.5959657316
  0
LINE
  5
301
100
AcDbEntity
  8
0
100
AcDbLine
 62
253
  6
CONTINUOUS
 10
-284.2302152431
 20
-52.5959657316
 11
-374.517548465
 21
-52.5959657316
  0
LINE
  5
302
100
AcDbEntity
  8
0
100
AcDbLine
 62
7
  6
CONTINUOUS
 10
374.1271124757
 20
-52.5959657316
 11
399.8047820053
 21
-52.5959657316
  0
LINE
  5
303
100
AcDbEntity
  8
0
100
AcDbLine
 62
253
  6
CONTINUOUS
 10
-278.6952179947
 20
-51.0959657316
 11
278.3047820053
 21
-51.0959657316
  0
LINE
  5
304
100
AcDbEntity
  8
RACCORDO
100
AcDbLine
 62
253
  6
CONTINUOUS
 10
-403.1206093524
 20
-4.3839604664
 11
-403.1211357207
 21
-4.3838965251
  0
LWPOLYLINE
  5
305
100
AcDbEntity
  8
RACCORDO
100
AcDbPolyline
 62
253
  6
CONTINUOUS
 90
10
 70
0
 10
-402.8724325307
 20
-4.4856754941
 10
-402.8632812056
 20
-4.4871945476
 10
-402.8544907498
 20
-4.4909610318
 10
-402.8460796788
 20
-4.4970158694
 10
-402.8380339035
 20
-4.5055264942
 10
-402.83040073
 20
-4.5163972081
 10
-402.8232921068
 20
-4.5292413368
 10
-402.8167320635
 20
-4.54405616
 10
-402.8107289978
 20
-4.5608288495
 10
-402.8053738798
 20
-4.5791037722
  0
LINE
  5
306
100
AcDbEntity
  8
RACCORDO
100
AcDbLine
 62
253
  6
CONTINUOUS
 10
402.3983461063
 20
-4.7908210513
 11
402.4050500186
 21
-4.7904509
  0
LWPOLYLINE
  5
307
100
AcDbEntity
  8
RACCORDO
100
AcDbPolyline
 62
7
  6
CONTINUOUS
 90
15
 70
0
 10
402.63143108
 20
-4.5959655165
 10
402.6425140835
 20
-4.5953585217
 10
402.6550764319
 20
-4.5931719521
 10
402.666806737
 20
-4.5895990141
 10
402.677538099
 20
-4.584886304
 10
402.6872484472
 20
-4.5792403291
 10
402.6960281945
 20
-4.5727682076
 10
402.7038612766
 20
-4.5656107618
 10
402.7107167973
 20
-4.5579331687
 10
402.7166627847
 20
-4.5497912556
 10
402.7218101304
 20
-4.5411023567
 10
402.7260587537
 20
-4.5321131824
 10
402.7293058699
 20
-4.5233466786
 10
402.7316877343
 20
-4.5149993438
 10
402.7334300171
 20
-4.5068828129
  0
LWPOLYLINE
  5
308
100
AcDbEntity
  8
RACCORDO
100
AcDbPolyline
 62
7
  6
CONTINUOUS
 90
11
 70
0
 10
402.6314266683
 20
-4.5959656475
 10
402.6409961445
 20
-4.5955137241
 10
402.6537284365
 20
-4.5934850751
 10
402.6656343574
 20
-4.5900266278
 10
402.6765387894
 20
-4.5853886532
 10
402.6864143564
 20
-4.5797830539
 10
402.6953489466
 20
-4.5733224345
 10
402.7033227439
 20
-4.5661526437
 10
402.7103029721
 20
-4.558442719
 10
402.7163587389
 20
-4.5502501098
 10
402.7216018065
 20
-4.5414929128
  0
LINE
  5
309
100
AcDbEntity
  8
0
100
AcDbLine
 62
7
  6
CONTINUOUS
 10
285.8397792537
 20
-47.5959657316
 11
283.8397792537
 21
-47.5959657316
  0
LINE
  5
30A
100
AcDbEntity
  8
0
100
AcDbLine
 62
7
  6
CONTINUOUS
 10
-284.2302152431
 20
-47.5959657316
 11
-286.2302152431
 21
-47.5959657316
  0
LINE
  5
30B
100
AcDbEntity
  8
0
100
AcDbLine
 62
7
  6
CONTINUOUS
 10
283.8397792537
 20
-45.5959657316
 11
285.8397792537
 21
-45.5959657316
  0
LINE
  5
30C
100
AcDbEntity
  8
0
100
AcDbLine
 62
7
  6
CONTINUOUS
 10
-284.2302152431
 20
-45.5959657316
 11
-286.2302152431
 21
-45.5959657316
  0
LINE
  5
30D
100
AcDbEntity
  8
0
100
AcDbLine
 62
7
  6
CONTINUOUS
 10
278.3047820053
 20
-45.0959657316
 11
285.8397792537
 21
-45.0959657316
  0
LINE
  5
30E
100
AcDbEntity
  8
0
100
AcDbLine
 62
7
  6
CONTINUOUS
 10
-278.6952179947
 20
-45.0959657316
 11
-286.2302152431
 21
-45.0959657316
  0
LINE
  5
30F
100
AcDbEntity
  8
RACCORDO
100
AcDbLine
 62
253
  6
CONTINUOUS
 10
-402.7887900314
 20
-4.7908206131
 11
-402.7954906963
 21
-4.7904504918
  0
LINE
  5
310
100
AcDbEntity
  8
RACCORDO
100
AcDbLine
 62
253
  6
CONTINUOUS
 10
-403.0356696179
 20
-4.5949944312
 11
-403.0218674409
 21
-4.5959657316
  0
LWPOLYLINE
  5
311
100
AcDbEntity
  8
RACCORDO
100
AcDbPolyline
 62
253
  6
CONTINUOUS
 90
11
 70
0
 10
402.7301734606
 20
-5.706255969
 10
402.7220870815
 20
-5.7064508442
 10
402.7129828502
 20
-5.706426007
 10
402.7027696804
 20
-5.7062559691
 10
402.6912353092
 20
-5.7063416875
 10
402.6783805786
 20
-5.7065219315
 10
402.6644822597
 20
-5.70625597
 10
402.6496217504
 20
-5.7060414174
 10
402.6336241445
 20
-5.706269698
 10
402.6164369454
 20
-5.7062559689
 10
402.5981010478
 20
-5.7060618054
  0
LWPOLYLINE
  5
312
100
AcDbEntity
  8
RACCORDO
100
AcDbPolyline
 62
253
  6
CONTINUOUS
 90
16
 70
0
 10
273.9407947654
 20
-5.4011104118
 10
273.9284670886
 20
-5.4013235666
 10
273.9157438404
 20
-5.4014472936
 10
273.9028374117
 20
-5.4014795269
 10
273.8899632512
 20
-5.4014197283
 10
273.8773362688
 20
-5.4012688955
 10
273.8651672484
 20
-5.4010295461
 10
273.8536593289
 20
-5.4007056751
 10
273.8430046136
 20
-5.4003026884
 10
273.833380963
 20
-5.3998273127
 10
273.8249490259
 20
-5.399287483
 10
273.8178495577
 20
-5.3986922103
 10
273.8122010709
 20
-5.398051431
 10
273.8080978563
 20
-5.3973758412
 10
273.8056084094
 20
-5.3966767181
 10
273.8047742869
 20
-5.3959657318
  0
LWPOLYLINE
  5
313
100
AcDbEntity
  8
RACCORDO
100
AcDbPolyline
 62
253
  6
CONTINUOUS
 90
16
 70
0
 10
269.6687692453
 20
-4.7908210513
 10
269.6810969221
 20
-4.7906078965
 10
269.6938201703
 20
-4.7904841696
 10
269.7067265989
 20
-4.7904519362
 10
269.7196007595
 20
-4.7905117348
 10
269.7322277418
 20
-4.7906625676
 10
269.7443967623
 20
-4.790901917
 10
269.7559046817
 20
-4.7912257881
 10
269.766559397
 20
-4.7916287748
 10
269.7761830477
 20
-4.7921041505
 10
269.7846149848
 20
-4.7926439802
 10
269.7917144529
 20
-4.7932392529
 10
269.7973629398
 20
-4.7938800322
 10
269.8014661544
 20
-4.794555622
 10
269.8039556012
 20
-4.7952547451
 10
269.8047897237
 20
-4.7959657314
  0
LWPOLYLINE
  5
314
100
AcDbEntity
  8
RACCORDO
100
AcDbPolyline
 62
253
  6
CONTINUOUS
 90
16
 70
0
 10
-270.0592052346
 20
-5.4011104118
 10
-270.0715329114
 20
-5.4013235666
 10
-270.0842561596
 20
-5.4014472936
 10
-270.0971625883
 20
-5.4014795269
 10
-270.1100367488
 20
-5.4014197283
 10
-270.1226637312
 20
-5.4012688955
 10
-270.1348327516
 20
-5.4010295461
 10
-270.1463406711
 20
-5.4007056751
 10
-270.1569953864
 20
-5.4003026884
 10
-270.166619037
 20
-5.3998273127
 10
-270.1750509741
 20
-5.399287483
 10
-270.1821504423
 20
-5.3986922103
 10
-270.1877989291
 20
-5.398051431
 10
-270.1919021437
 20
-5.3973758412
 10
-270.1943915906
 20
-5.3966767181
 10
-270.1952257131
 20
-5.3959657318
  0
LWPOLYLINE
  5
315
100
AcDbEntity
  8
RACCORDO
100
AcDbPolyline
 62
253
  6
CONTINUOUS
 90
16
 70
0
 10
-274.3312307547
 20
-4.7908210513
 10
-274.3189030779
 20
-4.7906078965
 10
-274.3061798297
 20
-4.7904841696
 10
-274.2932734011
 20
-4.7904519362
 10
-274.2803992405
 20
-4.7905117348
 10
-274.2677722582
 20
-4.7906625676
 10
-274.2556032377
 20
-4.790901917
 10
-274.2440953183
 20
-4.7912257881
 10
-274.233440603
 20
-4.7916287748
 10
-274.2238169523
 20
-4.7921041505
 10
-274.2153850152
 20
-4.7926439802
 10
-274.2082855471
 20
-4.7932392529
 10
-274.2026370602
 20
-4.7938800322
 10
-274.1985338456
 20
-4.794555622
 10
-274.1960443988
 20
-4.7952547451
 10
-274.1952102763
 20
-4.7959657314
  0
LWPOLYLINE
  5
316
100
AcDbEntity
  8
RACCORDO
100
AcDbPolyline
 62
253
  6
CONTINUOUS
 90
22
 70
0
 10
272.5167872824
 20
-5.706255969
 10
272.5114142933
 20
-5.7063350283
 10
272.505905329
 20
-5.7067875125
 10
272.5002587432
 20
-5.707607904
 10
272.4944457333
 20
-5.7087515078
 10
272.488490453
 20
-5.7102516613
 10
272.4824681701
 20
-5.7122208977
 10
272.4763493961
 20
-5.7146569949
 10
272.4701509738
 20
-5.7175530688
 10
272.464012199
 20
-5.7210191717
 10
272.4578890504
 20
-5.7250727003
 10
272.4518012167
 20
-5.7296950309
 10
272.4459773513
 20
-5.7349524068
 10
272.4403704494
 20
-5.7409013594
 10
272.4349909287
 20
-5.747499497
 10
272.4301526713
 20
-5.7546802583
 10
272.4258509804
 20
-5.7625403491
 10
272.4220538683
 20
-5.7710153756
 10
272.4190492272
 20
-5.7798099041
 10
272.4169361479
 20
-5.7888386607
 10
272.4156110915
 20
-5.7982212178
 10
272.4150722428
 20
-5.8079710086
  0
LWPOLYLINE
  5
317
100
AcDbEntity
  8
RACCORDO
100
AcDbPolyline
 62
253
  6
CONTINUOUS
 90
22
 70
0
 10
271.0927767283
 20
-4.4856754941
 10
271.0981497174
 20
-4.4855964349
 10
271.1036586816
 20
-4.4851439507
 10
271.1093052675
 20
-4.4843235592
 10
271.1151182774
 20
-4.4831799554
 10
271.1210735576
 20
-4.4816798018
 10
271.1270958406
 20
-4.4797105654
 10
271.1332146146
 20
-4.4772744683
 10
271.1394130368
 20
-4.4743783943
 10
271.1455518116
 20
-4.4709122915
 10
271.1516749603
 20
-4.4668587628
 10
271.157762794
 20
-4.4622364323
 10
271.1635866593
 20
-4.4569790563
 10
271.1691935613
 20
-4.4510301037
 10
271.174573082
 20
-4.4444319661
 10
271.1794113394
 20
-4.4372512049
 10
271.1837130303
 20
-4.4293911141
 10
271.1875101423
 20
-4.4209160875
 10
271.1905147835
 20
-4.4121215591
 10
271.1926278627
 20
-4.4030928025
 10
271.1939529192
 20
-4.3937102454
 10
271.1944917679
 20
-4.3839604545
  0
LWPOLYLINE
  5
318
100
AcDbEntity
  8
RACCORDO
100
AcDbPolyline
 62
253
  6
CONTINUOUS
 90
22
 70
0
 10
-271.4832127176
 20
-5.706255969
 10
-271.4885857067
 20
-5.7063350283
 10
-271.494094671
 20
-5.7067875125
 10
-271.4997412568
 20
-5.707607904
 10
-271.5055542667
 20
-5.7087515078
 10
-271.511509547
 20
-5.7102516613
 10
-271.5175318299
 20
-5.7122208977
 10
-271.5236506039
 20
-5.7146569949
 10
-271.5298490262
 20
-5.7175530688
 10
-271.535987801
 20
-5.7210191717
 10
-271.5421109496
 20
-5.7250727003
 10
-271.5481987833
 20
-5.7296950309
 10
-271.5540226487
 20
-5.7349524068
 10
-271.5596295506
 20
-5.7409013594
 10
-271.5650090713
 20
-5.747499497
 10
-271.5698473287
 20
-5.7546802583
 10
-271.5741490196
 20
-5.7625403491
 10
-271.5779461317
 20
-5.7710153756
 10
-271.5809507728
 20
-5.7798099041
 10
-271.5830638521
 20
-5.7888386607
 10
-271.5843889085
 20
-5.7982212178
 10
-271.5849277572
 20
-5.8079710086
  0
LWPOLYLINE
  5
319
100
AcDbEntity
  8
RACCORDO
100
AcDbPolyline
 62
253
  6
CONTINUOUS
 90
22
 70
0
 10
-272.9072232717
 20
-4.4856754941
 10
-272.9018502826
 20
-4.4855964349
 10
-272.8963413184
 20
-4.4851439507
 10
-272.8906947325
 20
-4.4843235592
 10
-272.8848817226
 20
-4.4831799554
 10
-272.8789264424
 20
-4.4816798018
 10
-272.8729041594
 20
-4.4797105654
 10
-272.8667853854
 20
-4.4772744683
 10
-272.8605869632
 20
-4.4743783943
 10
-272.8544481884
 20
-4.4709122915
 10
-272.8483250397
 20
-4.4668587628
 10
-272.842237206
 20
-4.4622364323
 10
-272.8364133407
 20
-4.4569790563
 10
-272.8308064387
 20
-4.4510301037
 10
-272.825426918
 20
-4.4444319661
 10
-272.8205886606
 20
-4.4372512049
 10
-272.8162869697
 20
-4.4293911141
 10
-272.8124898577
 20
-4.4209160875
 10
-272.8094852165
 20
-4.4121215591
 10
-272.8073721373
 20
-4.4030928025
 10
-272.8060470808
 20
-4.3937102454
 10
-272.8055082321
 20
-4.3839604545
  0
LWPOLYLINE
  5
31A
100
AcDbEntity
  8
RACCORDO
100
AcDbPolyline
 62
253
  6
CONTINUOUS
 90
13
 70
0
 10
272.4150717642
 20
-6.9268350095
 10
272.4011414524
 20
-6.9269796189
 10
272.3872816722
 20
-6.9265216807
 10
272.373761697
 20
-6.9254700917
 10
272.3608441981
 20
-6.9238452827
 10
272.3487801419
 20
-6.9216788213
 10
272.3378039134
 20
-6.9190127984
 10
272.3281287631
 20
-6.9158990106
 10
272.3199426638
 20
-6.9123979539
 10
272.3134046581
 20
-6.9085776483
 10
272.308641769
 20
-6.9045123164
 10
272.3057465319
 20
-6.900280941
 10
272.3047751964
 20
-6.8959657312
  0
LWPOLYLINE
  5
31B
100
AcDbEntity
  8
RACCORDO
100
AcDbPolyline
 62
253
  6
CONTINUOUS
 90
13
 70
0
 10
271.1944922465
 20
-3.2650964537
 10
271.2084225583
 20
-3.2649518442
 10
271.2222823385
 20
-3.2654097825
 10
271.2358023137
 20
-3.2664613715
 10
271.2487198125
 20
-3.2680861804
 10
271.2607838688
 20
-3.2702526418
 10
271.2717600973
 20
-3.2729186647
 10
271.2814352476
 20
-3.2760324525
 10
271.2896213469
 20
-3.2795335093
 10
271.2961593526
 20
-3.2833538148
 10
271.3009222416
 20
-3.2874191468
 10
271.3038174788
 20
-3.2916505221
 10
271.3047888142
 20
-3.295965732
  0
LWPOLYLINE
  5
31C
100
AcDbEntity
  8
RACCORDO
100
AcDbPolyline
 62
253
  6
CONTINUOUS
 90
13
 70
0
 10
-271.5849282358
 20
-6.9268350095
 10
-271.5988585476
 20
-6.9269796189
 10
-271.6127183278
 20
-6.9265216807
 10
-271.626238303
 20
-6.9254700917
 10
-271.6391558019
 20
-6.9238452827
 10
-271.6512198581
 20
-6.9216788213
 10
-271.6621960866
 20
-6.9190127984
 10
-271.6718712369
 20
-6.9158990106
 10
-271.6800573362
 20
-6.9123979539
 10
-271.6865953419
 20
-6.9085776483
 10
-271.691358231
 20
-6.9045123164
 10
-271.6942534681
 20
-6.900280941
 10
-271.6952248036
 20
-6.8959657312
  0
LWPOLYLINE
  5
31D
100
AcDbEntity
  8
RACCORDO
100
AcDbPolyline
 62
253
  6
CONTINUOUS
 90
13
 70
0
 10
-272.8055077535
 20
-3.2650964537
 10
-272.7915774417
 20
-3.2649518442
 10
-272.7777176615
 20
-3.2654097825
 10
-272.7641976863
 20
-3.2664613715
 10
-272.7512801875
 20
-3.2680861804
 10
-272.7392161312
 20
-3.2702526418
 10
-272.7282399027
 20
-3.2729186647
 10
-272.7185647524
 20
-3.2760324525
 10
-272.7103786531
 20
-3.2795335093
 10
-272.7038406474
 20
-3.2833538148
 10
-272.6990777584
 20
-3.2874191468
 10
-272.6961825212
 20
-3.2916505221
 10
-272.6952111858
 20
-3.295965732
  0
LWPOLYLINE
  5
31E
100
AcDbEntity
  8
RACCORDO
100
AcDbPolyline
 62
253
  6
CONTINUOUS
 90
13
 70
0
 10
272.4150722414
 20
-5.8079710069
 10
272.4011422844
 20
-5.8080270804
 10
272.3872830325
 20
-5.8078488506
 10
272.3737637149
 20
-5.8074397797
 10
272.3608469572
 20
-5.8068078145
 10
272.3487836797
 20
-5.8059652314
 10
272.3378082232
 20
-5.8049283984
 10
272.3281337963
 20
-5.803717457
 10
272.3199483341
 20
-5.8023559309
 10
272.3134108469
 20
-5.8008702691
 10
272.3086483318
 20
-5.7992893321
 10
272.305753305
 20
-5.7976438312
 10
272.3047820053
 20
-5.7959657316
  0
LWPOLYLINE
  5
31F
100
AcDbEntity
  8
RACCORDO
100
AcDbPolyline
 62
253
  6
CONTINUOUS
 90
13
 70
0
 10
271.1944917693
 20
-4.3839604562
 10
271.2084217262
 20
-4.3839043828
 10
271.2222809781
 20
-4.3840826126
 10
271.2358002958
 20
-4.3844916834
 10
271.2487170535
 20
-4.3851236486
 10
271.2607803309
 20
-4.3859662317
 10
271.2717557875
 20
-4.3870030647
 10
271.2814302143
 20
-4.3882140061
 10
271.2896156766
 20
-4.3895755323
 10
271.2961531637
 20
-4.391061194
 10
271.3009156789
 20
-4.392642131
 10
271.3038107057
 20
-4.394287632
 10
271.3047820053
 20
-4.3959657316
  0
LWPOLYLINE
  5
320
100
AcDbEntity
  8
RACCORDO
100
AcDbPolyline
 62
253
  6
CONTINUOUS
 90
13
 70
0
 10
-271.5849277586
 20
-5.8079710069
 10
-271.5988577156
 20
-5.8080270804
 10
-271.6127169675
 20
-5.8078488506
 10
-271.6262362851
 20
-5.8074397797
 10
-271.6391530428
 20
-5.8068078145
 10
-271.6512163203
 20
-5.8059652314
 10
-271.6621917768
 20
-5.8049283984
 10
-271.6718662037
 20
-5.803717457
 10
-271.6800516659
 20
-5.8023559309
 10
-271.6865891531
 20
-5.8008702691
 10
-271.6913516682
 20
-5.7992893321
 10
-271.694246695
 20
-5.7976438312
 10
-271.6952179947
 20
-5.7959657316
  0
LWPOLYLINE
  5
321
100
AcDbEntity
  8
RACCORDO
100
AcDbPolyline
 62
253
  6
CONTINUOUS
 90
13
 70
0
 10
-272.8055082307
 20
-4.3839604562
 10
-272.7915782738
 20
-4.3839043828
 10
-272.7777190219
 20
-4.3840826126
 10
-272.7641997042
 20
-4.3844916834
 10
-272.7512829465
 20
-4.3851236486
 10
-272.7392196691
 20
-4.3859662317
 10
-272.7282442125
 20
-4.3870030647
 10
-272.7185697857
 20
-4.3882140061
 10
-272.7103843234
 20
-4.3895755323
 10
-272.7038468363
 20
-4.391061194
 10
-272.6990843211
 20
-4.392642131
 10
-272.6961892943
 20
-4.394287632
 10
-272.6952179947
 20
-4.3959657316
  0
LWPOLYLINE
  5
322
100
AcDbEntity
  8
RACCORDO
100
AcDbPolyline
 62
253
  6
CONTINUOUS
 90
5
 70
0
 10
402.5981010478
 20
-5.7060618054
 10
402.5571841432
 20
-5.7062559677
 10
402.5340267596
 20
-5.7060997062
 10
402.508998974
 20
-5.7060539155
 10
402.4819965414
 20
-5.706255969
  0
LINE
  5
323
100
AcDbEntity
  8
RACCORDO
100
AcDbLine
 62
253
  6
CONTINUOUS
 10
-402.7887900363
 20
-7.2319815627
 11
-402.7972012082
 21
-7.2320074115
  0
LINE
  5
324
100
AcDbEntity
  8
RACCORDO
100
AcDbLine
 62
253
  6
CONTINUOUS
 10
402.398354047
 20
-2.9599499004
 11
402.4067652189
 21
-2.9599240517
  0
LWPOLYLINE
  5
325
100
AcDbEntity
  8
RACCORDO
100
AcDbPolyline
 62
253
  6
CONTINUOUS
 90
5
 70
0
 10
-402.9885370371
 20
-4.4858696578
 10
-402.9476201326
 20
-4.4856754955
 10
-402.9244627489
 20
-4.485831757
 10
-402.8994349634
 20
-4.4858775477
 10
-402.8724325307
 20
-4.4856754941
  0
LWPOLYLINE
  5
326
100
AcDbEntity
  8
RACCORDO
100
AcDbPolyline
 62
253
  6
CONTINUOUS
 90
3
 70
0
 10
272.7188753642
 20
-5.7062559689
 10
272.5818005848
 20
-5.7064994006
 10
272.5167872824
 20
-5.706255969
  0
LWPOLYLINE
  5
327
100
AcDbEntity
  8
RACCORDO
100
AcDbPolyline
 62
253
  6
CONTINUOUS
 90
3
 70
0
 10
-271.2811246358
 20
-5.7062559689
 10
-271.4181994152
 20
-5.7064994006
 10
-271.4832127176
 20
-5.706255969
  0
LWPOLYLINE
  5
328
100
AcDbEntity
  8
RACCORDO
100
AcDbPolyline
 62
253
  6
CONTINUOUS
 90
3
 70
0
 10
270.8906886465
 20
-4.4856754942
 10
271.0277634259
 20
-4.4854320626
 10
271.0927767283
 20
-4.4856754941
  0
LWPOLYLINE
  5
329
100
AcDbEntity
  8
RACCORDO
100
AcDbPolyline
 62
253
  6
CONTINUOUS
 90
3
 70
0
 10
-273.1093113535
 20
-4.4856754942
 10
-272.9722365741
 20
-4.4854320626
 10
-272.9072232717
 20
-4.4856754941
  0
LINE
  5
32A
100
AcDbEntity
  8
RACCORDO
100
AcDbLine
 62
253
  6
CONTINUOUS
 10
272.1099271241
 20
-7.2319815627
 11
271.4996368866
 21
-7.2319815627
  0
LINE
  5
32B
100
AcDbEntity
  8
RACCORDO
100
AcDbLine
 62
253
  6
CONTINUOUS
 10
-271.8900728759
 20
-7.2319815627
 11
-272.5003631134
 21
-7.2319815627
  0
LINE
  5
32C
100
AcDbEntity
  8
RACCORDO
100
AcDbLine
 62
7
  6
CONTINUOUS
 10
272.1047820053
 20
-7.0959657316
 11
271.5047820053
 21
-7.0959657316
  0
LINE
  5
32D
100
AcDbEntity
  8
RACCORDO
100
AcDbLine
 62
7
  6
CONTINUOUS
 10
-271.8952179947
 20
-7.0959657316
 11
-272.4952179947
 21
-7.0959657316
  0
LINE
  5
32E
100
AcDbEntity
  8
RACCORDO
100
AcDbLine
 62
7
  6
CONTINUOUS
 10
402.6314314516
 20
-5.5959657316
 11
402.4235254879
 21
-5.5959657316
  0
LINE
  5
32F
100
AcDbEntity
  8
RACCORDO
100
AcDbLine
 62
7
  6
CONTINUOUS
 10
273.6047820053
 20
-5.5959657316
 11
272.5047820053
 21
-5.5959657316
  0
LINE
  5
330
100
AcDbEntity
  8
RACCORDO
100
AcDbLine
 62
7
  6
CONTINUOUS
 10
271.1047820053
 20
-5.5959657316
 11
270.0047820053
 21
-5.5959657316
  0
LINE
  5
331
100
AcDbEntity
  8
RACCORDO
100
AcDbLine
 62
7
  6
CONTINUOUS
 10
-270.3952179947
 20
-5.5959657316
 11
-271.4952179947
 21
-5.5959657316
  0
LINE
  5
332
100
AcDbEntity
  8
RACCORDO
100
AcDbLine
 62
7
  6
CONTINUOUS
 10
-272.8952179947
 20
-5.5959657316
 11
-273.9952179947
 21
-5.5959657316
  0
LINE
  5
333
100
AcDbEntity
  8
RACCORDO
100
AcDbLine
 62
7
  6
CONTINUOUS
 10
-402.8139519968
 20
-5.5959657316
 11
-403.0218674409
 21
-5.5959657316
  0
LINE
  5
334
100
AcDbEntity
  8
RACCORDO
100
AcDbLine
 62
7
  6
CONTINUOUS
 10
-403.0218674409
 20
-4.5959657316
 11
-402.8139614772
 21
-4.5959657316
  0
LINE
  5
335
100
AcDbEntity
  8
RACCORDO
100
AcDbLine
 62
7
  6
CONTINUOUS
 10
-273.9952179947
 20
-4.5959657316
 11
-272.8952179947
 21
-4.5959657316
  0
LINE
  5
336
100
AcDbEntity
  8
RACCORDO
100
AcDbLine
 62
7
  6
CONTINUOUS
 10
-271.4952179947
 20
-4.5959657316
 11
-270.3952179947
 21
-4.5959657316
  0
LINE
  5
337
100
AcDbEntity
  8
RACCORDO
100
AcDbLine
 62
7
  6
CONTINUOUS
 10
270.0047820053
 20
-4.5959657316
 11
271.1047820053
 21
-4.5959657316
  0
LINE
  5
338
100
AcDbEntity
  8
RACCORDO
100
AcDbLine
 62
7
  6
CONTINUOUS
 10
272.5047820053
 20
-4.5959657316
 11
273.6047820053
 21
-4.5959657316
  0
LINE
  5
339
100
AcDbEntity
  8
RACCORDO
100
AcDbLine
 62
7
  6
CONTINUOUS
 10
402.4235160075
 20
-4.5959657316
 11
402.6314314516
 21
-4.5959657316
  0
LINE
  5
33A
100
AcDbEntity
  8
RACCORDO
100
AcDbLine
 62
7
  6
CONTINUOUS
 10
-272.4952179947
 20
-3.0959657316
 11
-271.8952179947
 21
-3.0959657316
  0
LINE
  5
33B
100
AcDbEntity
  8
RACCORDO
100
AcDbLine
 62
7
  6
CONTINUOUS
 10
271.5047820053
 20
-3.0959657316
 11
272.1047820053
 21
-3.0959657316
  0
LINE
  5
33C
100
AcDbEntity
  8
RACCORDO
100
AcDbLine
 62
253
  6
CONTINUOUS
 10
-272.5003631134
 20
-2.9599499004
 11
-271.8900728759
 21
-2.9599499004
  0
LINE
  5
33D
100
AcDbEntity
  8
RACCORDO
100
AcDbLine
 62
253
  6
CONTINUOUS
 10
271.4996368866
 20
-2.9599499004
 11
272.1099271241
 21
-2.9599499004
  0
LWPOLYLINE
  5
33E
100
AcDbEntity
  8
RACCORDO
100
AcDbPolyline
 62
253
  6
CONTINUOUS
 90
3
 70
0
 10
-273.3969551891
 20
-5.7060414174
 10
-273.5465633009
 20
-5.7062559689
 10
-273.6223199145
 20
-5.7060618054
  0
LWPOLYLINE
  5
33F
100
AcDbEntity
  8
RACCORDO
100
AcDbPolyline
 62
253
  6
CONTINUOUS
 90
4
 70
0
 10
-270.7605810668
 20
-5.7060357579
 10
-270.9100280399
 20
-5.7062479604
 10
-270.9841485499
 20
-5.705979853
 10
-271.1334860873
 20
-5.7065848793
  0
LWPOLYLINE
  5
340
100
AcDbEntity
  8
RACCORDO
100
AcDbPolyline
 62
253
  6
CONTINUOUS
 90
4
 70
0
 10
273.2394189332
 20
-5.7060357579
 10
273.0899719601
 20
-5.7062479604
 10
273.0158514501
 20
-5.705979853
 10
272.8665139127
 20
-5.7065848793
  0
LWPOLYLINE
  5
341
100
AcDbEntity
  8
RACCORDO
100
AcDbPolyline
 62
253
  6
CONTINUOUS
 90
3
 70
0
 10
270.6030448109
 20
-5.7060414174
 10
270.4534366991
 20
-5.7062559689
 10
270.3776800855
 20
-5.7060618054
  0
LWPOLYLINE
  5
342
100
AcDbEntity
  8
RACCORDO
100
AcDbPolyline
 62
253
  6
CONTINUOUS
 90
3
 70
0
 10
-270.9934808003
 20
-4.4858900457
 10
-270.8438726884
 20
-4.4856754943
 10
-270.7681160748
 20
-4.4858696578
  0
LWPOLYLINE
  5
343
100
AcDbEntity
  8
RACCORDO
100
AcDbPolyline
 62
253
  6
CONTINUOUS
 90
4
 70
0
 10
-273.6298549225
 20
-4.4858957053
 10
-273.4804079494
 20
-4.4856835028
 10
-273.4062874394
 20
-4.4859516101
 10
-273.2569499021
 20
-4.4853465838
  0
LWPOLYLINE
  5
344
100
AcDbEntity
  8
RACCORDO
100
AcDbPolyline
 62
253
  6
CONTINUOUS
 90
4
 70
0
 10
270.3701450775
 20
-4.4858957053
 10
270.5195920506
 20
-4.4856835028
 10
270.5937125606
 20
-4.4859516101
 10
270.7430500979
 20
-4.4853465838
  0
LWPOLYLINE
  5
345
100
AcDbEntity
  8
RACCORDO
100
AcDbPolyline
 62
253
  6
CONTINUOUS
 90
3
 70
0
 10
273.0065191997
 20
-4.4858900457
 10
273.1561273116
 20
-4.4856754943
 10
273.2318839252
 20
-4.4858696578
  0
LWPOLYLINE
  5
346
100
AcDbEntity
  8
RACCORDO
100
AcDbPolyline
 62
253
  6
CONTINUOUS
 90
4
 70
0
 10
-272.9072232717
 20
-5.706255969
 10
-273.0365207802
 20
-5.706426007
 10
-273.1047026991
 20
-5.7062559691
 10
-273.2490487166
 20
-5.7065219315
  0
LWPOLYLINE
  5
347
100
AcDbEntity
  8
RACCORDO
100
AcDbPolyline
 62
253
  6
CONTINUOUS
 90
4
 70
0
 10
271.0927767283
 20
-5.706255969
 10
270.9634792198
 20
-5.706426007
 10
270.8952973009
 20
-5.7062559691
 10
270.7509512834
 20
-5.7065219315
  0
LWPOLYLINE
  5
348
100
AcDbEntity
  8
RACCORDO
100
AcDbPolyline
 62
253
  6
CONTINUOUS
 90
4
 70
0
 10
-271.4832127176
 20
-4.4856754941
 10
-271.3539152091
 20
-4.4855054562
 10
-271.2857332902
 20
-4.485675494
 10
-271.1413872727
 20
-4.4854095316
  0
LWPOLYLINE
  5
349
100
AcDbEntity
  8
RACCORDO
100
AcDbPolyline
 62
253
  6
CONTINUOUS
 90
4
 70
0
 10
272.5167872824
 20
-4.4856754941
 10
272.6460847909
 20
-4.4855054562
 10
272.7142667098
 20
-4.485675494
 10
272.8586127273
 20
-4.4854095316
  0
LINE
  5
34A
100
AcDbEntity
  8
RACCORDO
100
AcDbLine
 62
253
  6
CONTINUOUS
 10
-273.6223199145
 20
-5.7060618054
 11
-274.0260887071
 21
-5.706255969
  0
LINE
  5
34B
100
AcDbEntity
  8
RACCORDO
100
AcDbLine
 62
253
  6
CONTINUOUS
 10
270.3776800855
 20
-5.7060618054
 11
269.9739112929
 21
-5.706255969
  0
LINE
  5
34C
100
AcDbEntity
  8
RACCORDO
100
AcDbLine
 62
253
  6
CONTINUOUS
 10
-270.7681160748
 20
-4.4858696578
 11
-270.3643472823
 21
-4.4856754941
  0
LINE
  5
34D
100
AcDbEntity
  8
RACCORDO
100
AcDbLine
 62
253
  6
CONTINUOUS
 10
273.2318839252
 20
-4.4858696578
 11
273.6356527177
 21
-4.4856754941
  0
LINE
  5
34E
100
AcDbEntity
  8
RACCORDO
100
AcDbLine
 62
253
  6
CONTINUOUS
 10
-270.3643472823
 20
-5.706255969
 11
-270.7605810668
 21
-5.7060357579
  0
LINE
  5
34F
100
AcDbEntity
  8
RACCORDO
100
AcDbLine
 62
253
  6
CONTINUOUS
 10
-274.0260887071
 20
-4.4856754941
 11
-273.6298549225
 21
-4.4858957053
  0
LINE
  5
350
100
AcDbEntity
  8
RACCORDO
100
AcDbLine
 62
253
  6
CONTINUOUS
 10
273.6356527177
 20
-5.706255969
 11
273.2394189332
 21
-5.7060357579
  0
LINE
  5
351
100
AcDbEntity
  8
RACCORDO
100
AcDbLine
 62
253
  6
CONTINUOUS
 10
269.9739112929
 20
-4.4856754941
 11
270.3701450775
 21
-4.4858957053
  0
LINE
  5
352
100
AcDbEntity
  8
RACCORDO
100
AcDbLine
 62
253
  6
CONTINUOUS
 10
-271.1334860873
 20
-5.7065848793
 11
-271.2811246358
 21
-5.7062559689
  0
LINE
  5
353
100
AcDbEntity
  8
RACCORDO
100
AcDbLine
 62
253
  6
CONTINUOUS
 10
-273.2569499021
 20
-4.4853465838
 11
-273.1093113535
 21
-4.4856754942
  0
LINE
  5
354
100
AcDbEntity
  8
RACCORDO
100
AcDbLine
 62
253
  6
CONTINUOUS
 10
272.8665139127
 20
-5.7065848793
 11
272.7188753642
 21
-5.7062559689
  0
LINE
  5
355
100
AcDbEntity
  8
RACCORDO
100
AcDbLine
 62
253
  6
CONTINUOUS
 10
270.7430500979
 20
-4.4853465838
 11
270.8906886465
 21
-4.4856754942
  0
LINE
  5
356
100
AcDbEntity
  8
RACCORDO
100
AcDbLine
 62
253
  6
CONTINUOUS
 10
402.4067652189
 20
-7.2320074115
 11
402.398354047
 21
-7.2319815627
  0
LINE
  5
357
100
AcDbEntity
  8
RACCORDO
100
AcDbLine
 62
253
  6
CONTINUOUS
 10
-402.7972012082
 20
-2.9599240517
 11
-402.7887900363
 21
-2.9599499004
  0
LINE
  5
358
100
AcDbEntity
  8
RACCORDO
100
AcDbLine
 62
253
  6
CONTINUOUS
 10
-273.2490487166
 20
-5.7065219315
 11
-273.3969551891
 21
-5.7060414174
  0
LINE
  5
359
100
AcDbEntity
  8
RACCORDO
100
AcDbLine
 62
253
  6
CONTINUOUS
 10
-271.1413872727
 20
-4.4854095316
 11
-270.9934808003
 21
-4.4858900457
  0
LINE
  5
35A
100
AcDbEntity
  8
RACCORDO
100
AcDbLine
 62
253
  6
CONTINUOUS
 10
270.7509512834
 20
-5.7065219315
 11
270.6030448109
 21
-5.7060414174
  0
LINE
  5
35B
100
AcDbEntity
  8
RACCORDO
100
AcDbLine
 62
253
  6
CONTINUOUS
 10
272.8586127273
 20
-4.4854095316
 11
273.0065191997
 21
-4.4858900457
  0
LWPOLYLINE
  5
35C
100
AcDbEntity
  8
RACCORDO
100
AcDbPolyline
 62
253
  6
CONTINUOUS
 90
13
 70
0
 10
-272.805508222
 20
-5.8079709968
 10
-272.7915793524
 20
-5.808026899
 10
-272.7777212689
 20
-5.8078485284
 10
-272.7642031564
 20
-5.80743935
 10
-272.7512875965
 20
-5.8068073122
 10
-272.7392254664
 20
-5.8059646918
 10
-272.7282510659
 20
-5.8049278562
 10
-272.7185775663
 20
-5.8037169451
 10
-272.7103928697
 20
-5.8023554792
 10
-272.7038559591
 20
-5.8008699038
 10
-272.6990938101
 20
-5.7992890746
 10
-272.6961989248
 20
-5.7976436977
 10
-272.6952275345
 20
-5.795965733
  0
LWPOLYLINE
  5
35D
100
AcDbEntity
  8
RACCORDO
100
AcDbPolyline
 62
253
  6
CONTINUOUS
 90
13
 70
0
 10
-271.5849277674
 20
-4.3839604664
 10
-271.5988566369
 20
-4.3839045641
 10
-271.6127147205
 20
-4.3840829348
 10
-271.6262328329
 20
-4.3844921131
 10
-271.6391483928
 20
-4.385124151
 10
-271.6512105229
 20
-4.3859667713
 10
-271.6621849235
 20
-4.3870036069
 10
-271.6718584231
 20
-4.3882145181
 10
-271.6800431196
 20
-4.3895759839
 10
-271.6865800303
 20
-4.3910615594
 10
-271.6913421792
 20
-4.3926423886
 10
-271.6942370645
 20
-4.3942877654
 10
-271.6952084548
 20
-4.3959657301
  0
LWPOLYLINE
  5
35E
100
AcDbEntity
  8
RACCORDO
100
AcDbPolyline
 62
253
  6
CONTINUOUS
 90
13
 70
0
 10
271.194491778
 20
-5.8079709968
 10
271.2084206476
 20
-5.808026899
 10
271.2222787311
 20
-5.8078485284
 10
271.2357968436
 20
-5.80743935
 10
271.2487124035
 20
-5.8068073122
 10
271.2607745336
 20
-5.8059646918
 10
271.2717489341
 20
-5.8049278562
 10
271.2814224337
 20
-5.8037169451
 10
271.2896071303
 20
-5.8023554792
 10
271.2961440409
 20
-5.8008699038
 10
271.3009061899
 20
-5.7992890746
 10
271.3038010752
 20
-5.7976436977
 10
271.3047724655
 20
-5.795965733
  0
LWPOLYLINE
  5
35F
100
AcDbEntity
  8
RACCORDO
100
AcDbPolyline
 62
253
  6
CONTINUOUS
 90
13
 70
0
 10
272.4150722326
 20
-4.3839604664
 10
272.4011433631
 20
-4.3839045641
 10
272.3872852795
 20
-4.3840829348
 10
272.3737671671
 20
-4.3844921131
 10
272.3608516072
 20
-4.385124151
 10
272.3487894771
 20
-4.3859667713
 10
272.3378150765
 20
-4.3870036069
 10
272.3281415769
 20
-4.3882145181
 10
272.3199568804
 20
-4.3895759839
 10
272.3134199697
 20
-4.3910615594
 10
272.3086578208
 20
-4.3926423886
 10
272.3057629355
 20
-4.3942877654
 10
272.3047915452
 20
-4.3959657301
  0
LWPOLYLINE
  5
360
100
AcDbEntity
  8
RACCORDO
100
AcDbPolyline
 62
253
  6
CONTINUOUS
 90
12
 70
0
 10
-402.9462881213
 20
-5.7062559669
 10
-402.9866559532
 20
-5.7060357579
 10
-403.0048673392
 20
-5.7062559698
 10
-403.0220407996
 20
-5.7062479604
 10
-403.0381146046
 20
-5.705979853
 10
-403.0531562242
 20
-5.7062559691
 10
-403.067369863
 20
-5.7065848793
 10
-403.080608914
 20
-5.7063648078
 10
-403.092484696
 20
-5.7062559689
 10
-403.1029693572
 20
-5.7064660118
 10
-403.1123128556
 20
-5.7064994006
 10
-403.1206094499
 20
-5.706255969
  0
LWPOLYLINE
  5
361
100
AcDbEntity
  8
RACCORDO
100
AcDbPolyline
 62
253
  6
CONTINUOUS
 90
12
 70
0
 10
402.555852132
 20
-4.4856754963
 10
402.5962199638
 20
-4.4858957053
 10
402.6144313498
 20
-4.4856754934
 10
402.6316048103
 20
-4.4856835028
 10
402.6476786153
 20
-4.4859516101
 10
402.6627202349
 20
-4.4856754941
 10
402.6769338736
 20
-4.4853465838
 10
402.6901729247
 20
-4.4855666553
 10
402.7020487067
 20
-4.4856754942
 10
402.7125333679
 20
-4.4854654514
 10
402.7218768663
 20
-4.4854320626
 10
402.7301734606
 20
-4.4856754941
  0
LWPOLYLINE
  5
362
100
AcDbEntity
  8
RACCORDO
100
AcDbPolyline
 62
253
  6
CONTINUOUS
 90
4
 70
0
 10
-402.8724325307
 20
-5.706255969
 10
-402.8989059071
 20
-5.7060590504
 10
-402.9234921646
 20
-5.7061033574
 10
-402.9462881213
 20
-5.7062559669
  0
LWPOLYLINE
  5
363
100
AcDbEntity
  8
RACCORDO
100
AcDbPolyline
 62
253
  6
CONTINUOUS
 90
4
 70
0
 10
402.4819965414
 20
-4.4856754941
 10
402.5084699178
 20
-4.4858724127
 10
402.5330561752
 20
-4.4858281057
 10
402.555852132
 20
-4.4856754963
  0
LWPOLYLINE
  5
364
100
AcDbEntity
  8
RACCORDO
100
AcDbPolyline
 62
253
  6
CONTINUOUS
 90
13
 70
0
 10
-272.8055082249
 20
-6.9268364223
 10
-272.791578273
 20
-6.926980611
 10
-272.7777190262
 20
-6.9265223061
 10
-272.7641997133
 20
-6.9254704106
 10
-272.7512829598
 20
-6.9238453585
 10
-272.7392196856
 20
-6.9216787181
 10
-272.7282442312
 20
-6.9190125783
 10
-272.7185698051
 20
-6.9158987315
 10
-272.7103843422
 20
-6.912397667
 10
-272.7038468528
 20
-6.9085773962
 10
-272.6990843337
 20
-6.9045121315
 10
-272.6961893014
 20
-6.9002808443
 10
-272.6952179947
 20
-6.8959657316
  0
LWPOLYLINE
  5
365
100
AcDbEntity
  8
RACCORDO
100
AcDbPolyline
 62
253
  6
CONTINUOUS
 90
13
 70
0
 10
-271.5849277644
 20
-3.2650950409
 10
-271.5988577163
 20
-3.2649508522
 10
-271.6127169631
 20
-3.2654091571
 10
-271.626236276
 20
-3.2664610526
 10
-271.6391530296
 20
-3.2680861046
 10
-271.6512163037
 20
-3.2702527451
 10
-271.6621917581
 20
-3.2729188848
 10
-271.6718661842
 20
-3.2760327316
 10
-271.6800516471
 20
-3.2795337961
 10
-271.6865891365
 20
-3.2833540669
 10
-271.6913516556
 20
-3.2874193317
 10
-271.6942466879
 20
-3.2916506188
 10
-271.6952179947
 20
-3.2959657316
  0
LWPOLYLINE
  5
366
100
AcDbEntity
  8
RACCORDO
100
AcDbPolyline
 62
253
  6
CONTINUOUS
 90
13
 70
0
 10
271.1944917751
 20
-6.9268364223
 10
271.208421727
 20
-6.926980611
 10
271.2222809738
 20
-6.9265223061
 10
271.2358002867
 20
-6.9254704106
 10
271.2487170402
 20
-6.9238453585
 10
271.2607803144
 20
-6.9216787181
 10
271.2717557688
 20
-6.9190125783
 10
271.2814301949
 20
-6.9158987315
 10
271.2896156578
 20
-6.912397667
 10
271.2961531472
 20
-6.9085773962
 10
271.3009156663
 20
-6.9045121315
 10
271.3038106986
 20
-6.9002808443
 10
271.3047820053
 20
-6.8959657316
  0
LWPOLYLINE
  5
367
100
AcDbEntity
  8
RACCORDO
100
AcDbPolyline
 62
253
  6
CONTINUOUS
 90
13
 70
0
 10
272.4150722356
 20
-3.2650950409
 10
272.4011422837
 20
-3.2649508522
 10
272.3872830369
 20
-3.2654091571
 10
272.373763724
 20
-3.2664610526
 10
272.3608469704
 20
-3.2680861046
 10
272.3487836963
 20
-3.2702527451
 10
272.3378082419
 20
-3.2729188848
 10
272.3281338158
 20
-3.2760327316
 10
272.3199483529
 20
-3.2795337961
 10
272.3134108635
 20
-3.2833540669
 10
272.3086483444
 20
-3.2874193317
 10
272.3057533121
 20
-3.2916506188
 10
272.3047820053
 20
-3.2959657316
  0
LWPOLYLINE
  5
368
100
AcDbEntity
  8
RACCORDO
100
AcDbPolyline
 62
253
  6
CONTINUOUS
 90
16
 70
0
 10
-274.3312338239
 20
-5.40111085
 10
-274.3189062009
 20
-5.4013239988
 10
-274.3061832068
 20
-5.4014477146
 10
-274.2932771964
 20
-5.4014799325
 10
-274.2804035791
 20
-5.4014201149
 10
-274.2677772239
 20
-5.4012692601
 10
-274.2556088725
 20
-5.4010298861
 10
-274.2441016226
 20
-5.4007059882
 10
-274.2334475373
 20
-5.4003029725
 10
-274.2238244402
 20
-5.3998275656
 10
-274.2153929469
 20
-5.3992877022
 10
-274.2082937842
 20
-5.3986923931
 10
-274.2026454419
 20
-5.3980515741
 10
-274.1985421943
 20
-5.3973759409
 10
-274.1960525272
 20
-5.3966767701
 10
-274.1952179947
 20
-5.3959657316
  0
LWPOLYLINE
  5
369
100
AcDbEntity
  8
RACCORDO
100
AcDbPolyline
 62
253
  6
CONTINUOUS
 90
16
 70
0
 10
-270.0592021655
 20
-4.7908206131
 10
-270.0715297884
 20
-4.7906074644
 10
-270.0842527825
 20
-4.7904837486
 10
-270.097158793
 20
-4.7904515306
 10
-270.1100324102
 20
-4.7905113482
 10
-270.1226587655
 20
-4.7906622031
 10
-270.1348271168
 20
-4.7909015771
 10
-270.1463343668
 20
-4.7912254749
 10
-270.156988452
 20
-4.7916284906
 10
-270.1666115491
 20
-4.7921038976
 10
-270.1750430425
 20
-4.7926437609
 10
-270.1821422051
 20
-4.79323907
 10
-270.1877905474
 20
-4.793879889
 10
-270.1918937951
 20
-4.7945555223
 10
-270.1943834622
 20
-4.795254693
 10
-270.1952179947
 20
-4.7959657316
  0
LWPOLYLINE
  5
36A
100
AcDbEntity
  8
RACCORDO
100
AcDbPolyline
 62
253
  6
CONTINUOUS
 90
16
 70
0
 10
269.6687661761
 20
-5.40111085
 10
269.6810937991
 20
-5.4013239988
 10
269.6938167932
 20
-5.4014477146
 10
269.7067228036
 20
-5.4014799325
 10
269.7195964209
 20
-5.4014201149
 10
269.7322227761
 20
-5.4012692601
 10
269.7443911275
 20
-5.4010298861
 10
269.7558983774
 20
-5.4007059882
 10
269.7665524627
 20
-5.4003029725
 10
269.7761755598
 20
-5.3998275656
 10
269.7846070531
 20
-5.3992877022
 10
269.7917062158
 20
-5.3986923931
 10
269.7973545581
 20
-5.3980515741
 10
269.8014578057
 20
-5.3973759409
 10
269.8039474728
 20
-5.3966767701
 10
269.8047820053
 20
-5.3959657316
  0
LWPOLYLINE
  5
36B
100
AcDbEntity
  8
RACCORDO
100
AcDbPolyline
 62
253
  6
CONTINUOUS
 90
16
 70
0
 10
273.9407978345
 20
-4.7908206131
 10
273.9284702116
 20
-4.7906074644
 10
273.9157472175
 20
-4.7904837486
 10
273.902841207
 20
-4.7904515306
 10
273.8899675898
 20
-4.7905113482
 10
273.8773412345
 20
-4.7906622031
 10
273.8651728832
 20
-4.7909015771
 10
273.8536656332
 20
-4.7912254749
 10
273.843011548
 20
-4.7916284906
 10
273.8333884509
 20
-4.7921038976
 10
273.8249569575
 20
-4.7926437609
 10
273.8178577949
 20
-4.79323907
 10
273.8122094526
 20
-4.793879889
 10
273.8081062049
 20
-4.7945555223
 10
273.8056165378
 20
-4.795254693
 10
273.8047820053
 20
-4.7959657316
  0
LWPOLYLINE
  5
36C
100
AcDbEntity
  8
RACCORDO
100
AcDbPolyline
 62
253
  6
CONTINUOUS
 90
19
 70
0
 10
-272.5003631134
 20
-7.2319815627
 10
-272.5263494487
 20
-7.2308695217
 10
-272.5519704742
 20
-7.2275908851
 10
-272.5771560808
 20
-7.2221595332
 10
-272.6019480998
 20
-7.2145571553
 10
-272.6261648872
 20
-7.2048296823
 10
-272.6494078472
 20
-7.1930999932
 10
-272.6716096679
 20
-7.1793849271
 10
-272.6927191193
 20
-7.1637232489
 10
-272.7123808982
 20
-7.1462913472
 10
-272.7305852021
 20
-7.1270753729
 10
-272.7472601076
 20
-7.1061575721
 10
-272.7619919
 20
-7.0838752421
 10
-272.774777348
 20
-7.0602648043
 10
-272.7856049156
 20
-7.0353610834
 10
-272.7940971066
 20
-7.0095092405
 10
-272.8001580007
 20
-6.9828438528
 10
-272.8039489313
 20
-6.955281503
 10
-272.8055082321
 20
-6.926836444
  0
LWPOLYLINE
  5
36D
100
AcDbEntity
  8
RACCORDO
100
AcDbPolyline
 62
253
  6
CONTINUOUS
 90
19
 70
0
 10
-271.8900728759
 20
-2.9599499004
 10
-271.8640865407
 20
-2.9610619415
 10
-271.8384655151
 20
-2.9643405781
 10
-271.8132799085
 20
-2.96977193
 10
-271.7884878895
 20
-2.9773743079
 10
-271.7642711021
 20
-2.9871017809
 10
-271.7410281421
 20
-2.99883147
 10
-271.7188263215
 20
-3.012546536
 10
-271.6977168701
 20
-3.0282082143
 10
-271.6780550911
 20
-3.045640116
 10
-271.6598507872
 20
-3.0648560902
 10
-271.6431758818
 20
-3.085773891
 10
-271.6284440894
 20
-3.108056221
 10
-271.6156586413
 20
-3.1316666589
 10
-271.6048310737
 20
-3.1565703798
 10
-271.5963388827
 20
-3.1824222226
 10
-271.5902779886
 20
-3.2090876104
 10
-271.586487058
 20
-3.2366499601
 10
-271.5849277572
 20
-3.2650950192
  0
LWPOLYLINE
  5
36E
100
AcDbEntity
  8
RACCORDO
100
AcDbPolyline
 62
253
  6
CONTINUOUS
 90
19
 70
0
 10
-274.0260887071
 20
-5.706255969
 10
-274.0543835613
 20
-5.7047369155
 10
-274.0818614633
 20
-5.7009704313
 10
-274.1085081088
 20
-5.6949155938
 10
-274.1344327501
 20
-5.6864049689
 10
-274.1594742678
 20
-5.675534255
 10
-274.1832088944
 20
-5.6626901263
 10
-274.2055835472
 20
-5.6478753032
 10
-274.226579054
 20
-5.6311026137
 10
-274.245834059
 20
-5.612827691
 10
-274.2632487958
 20
-5.5931395332
 10
-274.2788564991
 20
-5.5720355395
 10
-274.2925132475
 20
-5.5498690929
 10
-274.304184585
 20
-5.5267103978
 10
-274.3138518043
 20
-5.5026083813
 10
-274.3214130953
 20
-5.477900995
 10
-274.3268278828
 20
-5.452748581
 10
-274.3301064742
 20
-5.4271286741
 10
-274.3312338258
 20
-5.4011108503
  0
LWPOLYLINE
  5
36F
100
AcDbEntity
  8
RACCORDO
100
AcDbPolyline
 62
253
  6
CONTINUOUS
 90
19
 70
0
 10
-270.3643472823
 20
-4.4856754941
 10
-270.336052428
 20
-4.4871945476
 10
-270.308574526
 20
-4.4909610318
 10
-270.2819278805
 20
-4.4970158694
 10
-270.2560032392
 20
-4.5055264942
 10
-270.2309617215
 20
-4.5163972081
 10
-270.2072270949
 20
-4.5292413368
 10
-270.1848524422
 20
-4.54405616
 10
-270.1638569354
 20
-4.5608288495
 10
-270.1446019303
 20
-4.5791037722
 10
-270.1271871935
 20
-4.59879193
 10
-270.1115794902
 20
-4.6198959237
 10
-270.0979227418
 20
-4.6420623703
 10
-270.0862514043
 20
-4.6652210654
 10
-270.076584185
 20
-4.6893230819
 10
-270.069022894
 20
-4.7140304681
 10
-270.0636081065
 20
-4.7391828821
 10
-270.0603295151
 20
-4.764802789
 10
-270.0592021635
 20
-4.7908206128
  0
LINE
  5
370
100
AcDbEntity
  8
RACCORDO
100
AcDbLine
 62
253
  6
CONTINUOUS
 10
-402.7887820957
 20
-5.4011104118
 11
-402.795486008
 21
-5.4014805632
  0
LWPOLYLINE
  5
371
100
AcDbEntity
  8
RACCORDO
100
AcDbPolyline
 62
7
  6
CONTINUOUS
 90
16
 70
0
 10
-403.0218670694
 20
-5.5959659467
 10
-403.0329500728
 20
-5.5965729414
 10
-403.0455124213
 20
-5.598759511
 10
-403.0572427263
 20
-5.602332449
 10
-403.0679740883
 20
-5.6070451591
 10
-403.0776844365
 20
-5.612691134
 10
-403.0864641838
 20
-5.6191632556
 10
-403.094297266
 20
-5.6263207013
 10
-403.1011527867
 20
-5.6339982944
 10
-403.1070987741
 20
-5.6421402075
 10
-403.1122461198
 20
-5.6508291064
 10
-403.116494743
 20
-5.6598182807
 10
-403.1197418593
 20
-5.6685847845
 10
-403.1221237237
 20
-5.6769321194
 10
-403.1238660064
 20
-5.6850486502
 10
-403.1251107471
 20
-5.6930393827
  0
LWPOLYLINE
  5
372
100
AcDbEntity
  8
RACCORDO
100
AcDbPolyline
 62
7
  6
CONTINUOUS
 90
11
 70
0
 10
-403.0218626576
 20
-5.5959658157
 10
-403.0314321339
 20
-5.5964177391
 10
-403.0441644258
 20
-5.5984463881
 10
-403.0560703467
 20
-5.6019048354
 10
-403.0669747787
 20
-5.60654281
 10
-403.0768503458
 20
-5.6121484093
 10
-403.0857849359
 20
-5.6186090286
 10
-403.0937587332
 20
-5.6257788194
 10
-403.1007389614
 20
-5.6334887441
 10
-403.1067947282
 20
-5.6416813534
 10
-403.1120377958
 20
-5.6504385503
  0
LWPOLYLINE
  5
373
100
AcDbEntity
  8
RACCORDO
100
AcDbPolyline
 62
253
  6
CONTINUOUS
 90
11
 70
0
 10
-403.1206094499
 20
-4.4856754941
 10
-403.1125230708
 20
-4.4854806189
 10
-403.1034188395
 20
-4.4855054562
 10
-403.0932056697
 20
-4.485675494
 10
-403.0816712985
 20
-4.4855897756
 10
-403.068816568
 20
-4.4854095316
 10
-403.054918249
 20
-4.4856754932
 10
-403.0400577397
 20
-4.4858900457
 10
-403.0240601338
 20
-4.4856617652
 10
-403.0068729348
 20
-4.4856754943
 10
-402.9885370371
 20
-4.4858696578
  0
LWPOLYLINE
  5
374
100
AcDbEntity
  8
RACCORDO
100
AcDbPolyline
 62
253
  6
CONTINUOUS
 90
19
 70
0
 10
271.4996368866
 20
-7.2319815627
 10
271.4736505513
 20
-7.2308695217
 10
271.4480295258
 20
-7.2275908851
 10
271.4228439192
 20
-7.2221595332
 10
271.3980519002
 20
-7.2145571553
 10
271.3738351128
 20
-7.2048296823
 10
271.3505921528
 20
-7.1930999932
 10
271.3283903321
 20
-7.1793849271
 10
271.3072808807
 20
-7.1637232489
 10
271.2876191018
 20
-7.1462913472
 10
271.2694147979
 20
-7.1270753729
 10
271.2527398924
 20
-7.1061575721
 10
271.2380081
 20
-7.0838752421
 10
271.225222652
 20
-7.0602648043
 10
271.2143950844
 20
-7.0353610834
 10
271.2059028934
 20
-7.0095092405
 10
271.1998419993
 20
-6.9828438528
 10
271.1960510687
 20
-6.955281503
 10
271.1944917679
 20
-6.926836444
  0
LWPOLYLINE
  5
375
100
AcDbEntity
  8
RACCORDO
100
AcDbPolyline
 62
253
  6
CONTINUOUS
 90
19
 70
0
 10
272.1099271241
 20
-2.9599499004
 10
272.1359134593
 20
-2.9610619415
 10
272.1615344849
 20
-2.9643405781
 10
272.1867200915
 20
-2.96977193
 10
272.2115121105
 20
-2.9773743079
 10
272.2357288979
 20
-2.9871017809
 10
272.2589718579
 20
-2.99883147
 10
272.2811736785
 20
-3.012546536
 10
272.3022831299
 20
-3.0282082143
 10
272.3219449089
 20
-3.045640116
 10
272.3401492128
 20
-3.0648560902
 10
272.3568241182
 20
-3.085773891
 10
272.3715559106
 20
-3.108056221
 10
272.3843413587
 20
-3.1316666589
 10
272.3951689263
 20
-3.1565703798
 10
272.4036611173
 20
-3.1824222226
 10
272.4097220114
 20
-3.2090876104
 10
272.413512942
 20
-3.2366499601
 10
272.4150722428
 20
-3.2650950192
  0
LWPOLYLINE
  5
376
100
AcDbEntity
  8
RACCORDO
100
AcDbPolyline
 62
253
  6
CONTINUOUS
 90
19
 70
0
 10
269.9739112929
 20
-5.706255969
 10
269.9456164387
 20
-5.7047369155
 10
269.9181385367
 20
-5.7009704313
 10
269.8914918912
 20
-5.6949155938
 10
269.8655672499
 20
-5.6864049689
 10
269.8405257322
 20
-5.675534255
 10
269.8167911056
 20
-5.6626901263
 10
269.7944164528
 20
-5.6478753032
 10
269.773420946
 20
-5.6311026137
 10
269.754165941
 20
-5.612827691
 10
269.7367512042
 20
-5.5931395332
 10
269.7211435009
 20
-5.5720355395
 10
269.7074867525
 20
-5.5498690929
 10
269.695815415
 20
-5.5267103978
 10
269.6861481957
 20
-5.5026083813
 10
269.6785869047
 20
-5.477900995
 10
269.6731721172
 20
-5.452748581
 10
269.6698935258
 20
-5.4271286741
 10
269.6687661742
 20
-5.4011108503
  0
LWPOLYLINE
  5
377
100
AcDbEntity
  8
RACCORDO
100
AcDbPolyline
 62
253
  6
CONTINUOUS
 90
19
 70
0
 10
273.6356527177
 20
-4.4856754941
 10
273.663947572
 20
-4.4871945476
 10
273.691425474
 20
-4.4909610318
 10
273.7180721195
 20
-4.4970158694
 10
273.7439967608
 20
-4.5055264942
 10
273.7690382785
 20
-4.5163972081
 10
273.7927729051
 20
-4.5292413368
 10
273.8151475578
 20
-4.54405616
 10
273.8361430646
 20
-4.5608288495
 10
273.8553980697
 20
-4.5791037722
 10
273.8728128065
 20
-4.59879193
 10
273.8884205098
 20
-4.6198959237
 10
273.9020772582
 20
-4.6420623703
 10
273.9137485957
 20
-4.6652210654
 10
273.923415815
 20
-4.6893230819
 10
273.930977106
 20
-4.7140304681
 10
273.9363918935
 20
-4.7391828821
 10
273.9396704849
 20
-4.764802789
 10
273.9407978365
 20
-4.7908206128
  0
LINE
  5
378
100
AcDbEntity
  8
RACCORDO
100
AcDbLine
 62
253
  6
CONTINUOUS
 10
402.398354042
 20
-5.40111085
 11
402.405054707
 21
-5.4014809714
  0
LINE
  5
379
100
AcDbEntity
  8
RACCORDO
100
AcDbLine
 62
253
  6
CONTINUOUS
 10
402.6452336286
 20
-5.5969370319
 11
402.6314314516
 21
-5.5959657316
  0
LWPOLYLINE
  5
37A
100
AcDbEntity
  8
RACCORDO
100
AcDbPolyline
 62
253
  6
CONTINUOUS
 90
20
 70
0
 10
-403.1206094499
 20
-5.706255969
 10
-403.1212519704
 20
-5.7063350283
 10
-403.1218668389
 20
-5.7067875125
 10
-403.1224543655
 20
-5.707607904
 10
-403.1230220717
 20
-5.7087515078
 10
-403.1235629652
 20
-5.7102516613
 10
-403.1240558071
 20
-5.7122208977
 10
-403.1245035443
 20
-5.7146569949
 10
-403.1249041205
 20
-5.7175530688
 10
-403.1252292083
 20
-5.7210191717
 10
-403.1254810346
 20
-5.7250727003
 10
-403.1256582793
 20
-5.7296950309
 10
-403.1257274832
 20
-5.7349524068
 10
-403.1256866054
 20
-5.7409013594
 10
-403.1255377526
 20
-5.747499497
 10
-403.1252533478
 20
-5.7546802583
 10
-403.1248220691
 20
-5.7625403491
 10
-403.1242531202
 20
-5.7710153756
 10
-403.123549087
 20
-5.7798099041
 10
-403.122709434
 20
-5.7888386607
  0
LINE
  5
37B
100
AcDbEntity
  8
RACCORDO
100
AcDbLine
 62
253
  6
CONTINUOUS
 10
-403.1206094361
 20
-5.8079710069
 11
-403.1211364085
 21
-5.8080350774
  0
LINE
  5
37C
100
AcDbEntity
  8
0
100
AcDbLine
 62
7
  6
CONTINUOUS
 10
278.3047820053
 20
34.9040342684
 11
285.8397792537
 21
34.9040342684
  0
LINE
  5
37D
100
AcDbEntity
  8
0
100
AcDbLine
 62
7
  6
CONTINUOUS
 10
-278.6952179947
 20
34.9040342684
 11
-286.2302152431
 21
34.9040342684
  0
LINE
  5
37E
100
AcDbEntity
  8
0
100
AcDbLine
 62
7
  6
CONTINUOUS
 10
285.8397792537
 20
37.4040342684
 11
283.8397792537
 21
37.4040342684
  0
LINE
  5
37F
100
AcDbEntity
  8
0
100
AcDbLine
 62
7
  6
CONTINUOUS
 10
-284.2302152431
 20
37.4040342684
 11
-286.2302152431
 21
37.4040342684
  0
LINE
  5
380
100
AcDbEntity
  8
0
100
AcDbLine
 62
253
  6
CONTINUOUS
 10
-278.6952179947
 20
40.9040342684
 11
278.3047820053
 21
40.9040342684
  0
LINE
  5
381
100
AcDbEntity
  8
0
100
AcDbLine
 62
7
  6
CONTINUOUS
 10
-400.1952179947
 20
42.4040342684
 11
-374.517548465
 21
42.4040342684
  0
LINE
  5
382
100
AcDbEntity
  8
0
100
AcDbLine
 62
253
  6
CONTINUOUS
 10
283.8397792537
 20
42.4040342684
 11
374.1271124757
 21
42.4040342684
  0
LINE
  5
383
100
AcDbEntity
  8
0
100
AcDbLine
 62
253
  6
CONTINUOUS
 10
-284.2302152431
 20
42.4040342684
 11
-374.517548465
 21
42.4040342684
  0
LINE
  5
384
100
AcDbEntity
  8
0
100
AcDbLine
 62
7
  6
CONTINUOUS
 10
374.1271124757
 20
42.4040342684
 11
399.8047820053
 21
42.4040342684
  0
LINE
  5
385
100
AcDbEntity
  8
0
100
AcDbLine
 62
7
  6
CONTINUOUS
 10
-397.1952179947
 20
42.9040342684
 11
-377.1952179947
 21
42.9040342684
  0
LINE
  5
386
100
AcDbEntity
  8
0
100
AcDbLine
 62
7
  6
CONTINUOUS
 10
396.8047820053
 20
42.9040342684
 11
376.8047820053
 21
42.9040342684
  0
LINE
  5
387
100
AcDbEntity
  8
0
100
AcDbLine
 62
7
  6
CONTINUOUS
 10
-278.6952179947
 20
44.9040342684
 11
278.3047820053
 21
44.9040342684
  0
LINE
  5
388
100
AcDbEntity
  8
0
100
AcDbLine
 62
7
  6
CONTINUOUS
 10
-397.1952179947
 20
45.4040342684
 11
-377.1952179947
 21
45.4040342684
  0
LINE
  5
389
100
AcDbEntity
  8
0
100
AcDbLine
 62
7
  6
CONTINUOUS
 10
396.8047820053
 20
45.4040342684
 11
376.8047820053
 21
45.4040342684
  0
LINE
  5
38A
100
AcDbEntity
  8
0
100
AcDbLine
 62
7
  6
CONTINUOUS
 10
283.8397792537
 20
45.4040342684
 11
371.1271124757
 21
45.4040342684
  0
LINE
  5
38B
100
AcDbEntity
  8
0
100
AcDbLine
 62
7
  6
CONTINUOUS
 10
-284.2302152431
 20
45.4040342684
 11
-371.517548465
 21
45.4040342684
  0
LINE
  5
38C
100
AcDbEntity
  8
0
100
AcDbLine
 62
253
  6
CONTINUOUS
 10
283.8397792537
 20
45.9040342684
 11
330.1271124757
 21
45.9040342684
  0
LINE
  5
38D
100
AcDbEntity
  8
0
100
AcDbLine
 62
253
  6
CONTINUOUS
 10
-284.2302152431
 20
45.9040342684
 11
-330.517548465
 21
45.9040342684
  0
LINE
  5
38E
100
AcDbEntity
  8
0
100
AcDbLine
 62
253
  6
CONTINUOUS
 10
373.8047820053
 20
45.9040342684
 11
376.3047820053
 21
45.9040342684
  0
LINE
  5
38F
100
AcDbEntity
  8
0
100
AcDbLine
 62
253
  6
CONTINUOUS
 10
-374.1952179947
 20
45.9040342684
 11
-376.6952179947
 21
45.9040342684
  0
LINE
  5
390
100
AcDbEntity
  8
0
100
AcDbLine
 62
7
  6
CONTINUOUS
 10
283.8397792537
 20
55.6040342684
 11
330.1271124757
 21
55.6040342684
  0
LINE
  5
391
100
AcDbEntity
  8
0
100
AcDbLine
 62
7
  6
CONTINUOUS
 10
-284.2302152431
 20
55.6040342684
 11
-330.517548465
 21
55.6040342684
  0
LINE
  5
392
100
AcDbEntity
  8
0
100
AcDbLine
 62
7
  6
CONTINUOUS
 10
373.8047820053
 20
55.6040342684
 11
376.3047820053
 21
55.6040342684
  0
LINE
  5
393
100
AcDbEntity
  8
0
100
AcDbLine
 62
7
  6
CONTINUOUS
 10
-374.1952179947
 20
55.6040342684
 11
-376.6952179947
 21
55.6040342684
  0
LINE
  5
394
100
AcDbEntity
  8
RACCORDO
100
AcDbLine
 62
253
  6
CONTINUOUS
 10
402.7301733631
 20
-5.8079709968
 11
402.7306997314
 21
-5.8080349381
  0
LWPOLYLINE
  5
395
100
AcDbEntity
  8
0
100
AcDbPolyline
 62
7
  6
CONTINUOUS
 90
19
 70
0
 10
-371.517548465
 20
45.4040342684
 10
-371.8277777582
 20
45.3883213982
 10
-372.1229019819
 20
45.3428853083
 10
-372.4029211362
 20
45.2704237772
 10
-372.6683039509
 20
45.1742205491
 10
-372.9185816962
 20
45.0569155952
 10
-373.1523481827
 20
44.9194639579
 10
-373.369822998
 20
44.7634628452
 10
-373.5707865545
 20
44.5914054507
 10
-373.7531738999
 20
44.4045330888
 10
-373.9168162474
 20
44.2042441068
 10
-374.0618823839
 20
43.9929599853
 10
-374.1868137178
 20
43.7733490769
 10
-374.2908279493
 20
43.5471564694
 10
-374.3747073784
 20
43.3165677708
 10
-374.4392403136
 20
43.0850580554
 10
-374.4846895246
 20
42.855000489
 10
-374.5107922417
 20
42.6275049075
 10
-374.517548465
 20
42.4040342684
  0
LWPOLYLINE
  5
396
100
AcDbEntity
  8
RACCORDO
100
AcDbPolyline
 62
253
  6
CONTINUOUS
 90
10
 70
0
 10
402.4819965414
 20
-5.706255969
 10
402.4728452162
 20
-5.7047369155
 10
402.4640547605
 20
-5.7009704313
 10
402.4556436895
 20
-5.6949155938
 10
402.4475979141
 20
-5.6864049689
 10
402.4399647406
 20
-5.675534255
 10
402.4328561175
 20
-5.6626901263
 10
402.4262960741
 20
-5.6478753032
 10
402.4202930084
 20
-5.6311026137
 10
402.4149378905
 20
-5.612827691
  0
LINE
  5
397
100
AcDbEntity
  8
RACCORDO
100
AcDbLine
 62
253
  6
CONTINUOUS
 10
402.6587676848
 20
-5.5998320592
 11
402.6452336286
 21
-5.5969370319
  0
LINE
  5
398
100
AcDbEntity
  8
RACCORDO
100
AcDbLine
 62
253
  6
CONTINUOUS
 10
402.481992148
 20
-3.2650964537
 11
402.4824977612
 21
-3.2649313851
  0
LINE
  5
399
100
AcDbEntity
  8
RACCORDO
100
AcDbLine
 62
253
  6
CONTINUOUS
 10
402.4819964749
 20
-6.9268364223
 11
402.4825011151
 21
-6.927001175
  0
LINE
  5
39A
100
AcDbEntity
  8
RACCORDO
100
AcDbLine
 62
253
  6
CONTINUOUS
 10
402.6717707083
 20
-5.6045945747
 11
402.6587676848
 21
-5.5998320592
  0
LWPOLYLINE
  5
39B
100
AcDbEntity
  8
RACCORDO
100
AcDbPolyline
 62
253
  6
CONTINUOUS
 90
22
 70
0
 10
271.1944917679
 20
-5.8079710086
 10
271.1939790072
 20
-5.7983058826
 10
271.192668447
 20
-5.788974556
 10
271.1905595083
 20
-5.7799638314
 10
271.1875492012
 20
-5.7711412112
 10
271.183738771
 20
-5.7626050843
 10
271.1794182865
 20
-5.7546898632
 10
271.1745517628
 20
-5.7474710088
 10
271.1691377293
 20
-5.7408401228
 10
271.1635014732
 20
-5.7348687813
 10
271.1576557321
 20
-5.7296034954
 10
271.1515504233
 20
-5.7249838724
 10
271.1454175764
 20
-5.7209371884
 10
271.1392769693
 20
-5.717481766
 10
271.1330844042
 20
-5.7146009712
 10
271.1269824501
 20
-5.712180013
 10
271.1209975808
 20
-5.7102259407
 10
271.1150908816
 20
-5.7087414501
 10
271.1093123213
 20
-5.7076091582
 10
271.1036775748
 20
-5.7067936174
 10
271.0981662728
 20
-5.7063408168
 10
271.0927767283
 20
-5.706255969
  0
LWPOLYLINE
  5
39C
100
AcDbEntity
  8
RACCORDO
100
AcDbPolyline
 62
253
  6
CONTINUOUS
 90
22
 70
0
 10
272.4150722428
 20
-4.3839604545
 10
272.4155850035
 20
-4.3936255806
 10
272.4168955637
 20
-4.4029569071
 10
272.4190045023
 20
-4.4119676318
 10
272.4220148095
 20
-4.4207902519
 10
272.4258252397
 20
-4.4293263788
 10
272.4301457241
 20
-4.4372416
 10
272.4350122478
 20
-4.4444604544
 10
272.4404262813
 20
-4.4510913403
 10
272.4460625375
 20
-4.4570626819
 10
272.4519082786
 20
-4.4623279677
 10
272.4580135874
 20
-4.4669475908
 10
272.4641464342
 20
-4.4709942747
 10
272.4702870414
 20
-4.4744496971
 10
272.4764796065
 20
-4.477330492
 10
272.4825815606
 20
-4.4797514501
 10
272.4885664299
 20
-4.4817055225
 10
272.494473129
 20
-4.483190013
 10
272.5002516894
 20
-4.4843223049
 10
272.5058864358
 20
-4.4851378457
 10
272.5113977379
 20
-4.4855906463
 10
272.5167872824
 20
-4.4856754941
  0
LWPOLYLINE
  5
39D
100
AcDbEntity
  8
RACCORDO
100
AcDbPolyline
 62
253
  6
CONTINUOUS
 90
16
 70
0
 10
271.4996372957
 20
-7.2319786967
 10
271.499424143
 20
-7.2196510233
 10
271.4993004182
 20
-7.2069277916
 10
271.4992681869
 20
-7.19402139
 10
271.4993279877
 20
-7.1811472648
 10
271.4994788225
 20
-7.1685203232
 10
271.4997181739
 20
-7.1563513462
 10
271.5000420468
 20
-7.1448434702
 10
271.5004450352
 20
-7.1341887958
 10
271.5009204126
 20
-7.1245651811
 10
271.5014602439
 20
-7.1161332728
 10
271.5020555183
 20
-7.1090338244
 10
271.5026962994
 20
-7.1033853468
 10
271.5033718911
 20
-7.0992821299
 10
271.5040710163
 20
-7.0967926685
 10
271.504782005
 20
-7.0959585191
  0
LWPOLYLINE
  5
39E
100
AcDbEntity
  8
RACCORDO
100
AcDbPolyline
 62
253
  6
CONTINUOUS
 90
16
 70
0
 10
272.109926715
 20
-2.9599527665
 10
272.1101398677
 20
-2.9722804399
 10
272.1102635925
 20
-2.9850036716
 10
272.1102958237
 20
-2.9979100731
 10
272.110236023
 20
-3.0107841984
 10
272.1100851882
 20
-3.02341114
 10
272.1098458368
 20
-3.035580117
 10
272.1095219639
 20
-3.0470879929
 10
272.1091189755
 20
-3.0577426673
 10
272.1086435981
 20
-3.067366282
 10
272.1081037667
 20
-3.0757981904
 10
272.1075084924
 20
-3.0828976388
 10
272.1068677113
 20
-3.0885461164
 10
272.1061921196
 20
-3.0926493333
 10
272.1054929944
 20
-3.0951387947
 10
272.1047820056
 20
-3.095972944
  0
LWPOLYLINE
  5
39F
100
AcDbEntity
  8
RACCORDO
100
AcDbPolyline
 62
253
  6
CONTINUOUS
 90
13
 70
0
 10
269.9739126109
 20
-5.7062555294
 10
269.9737680329
 20
-5.6923252443
 10
269.974225999
 20
-5.6784655041
 10
269.9752776114
 20
-5.6649455786
 10
269.9769024392
 20
-5.6520281357
 10
269.9790689148
 20
-5.6399641383
 10
269.9817349474
 20
-5.6289879682
 10
269.9848487407
 20
-5.6193128727
 10
269.9883497991
 20
-5.6111268215
 10
269.9921701034
 20
-5.6045888551
 10
269.9962354316
 20
-5.5998259943
 10
270.0004668017
 20
-5.596930773
 10
270.0047820056
 20
-5.5959594402
  0
LWPOLYLINE
  5
3A0
100
AcDbEntity
  8
RACCORDO
100
AcDbPolyline
 62
253
  6
CONTINUOUS
 90
13
 70
0
 10
273.6356513998
 20
-4.4856759338
 10
273.6357959777
 20
-4.4996062188
 10
273.6353380117
 20
-4.5134659591
 10
273.6342863993
 20
-4.5269858846
 10
273.6326615715
 20
-4.5399033274
 10
273.6304950959
 20
-4.5519673248
 10
273.6278290633
 20
-4.5629434949
 10
273.62471527
 20
-4.5726185905
 10
273.6212142115
 20
-4.5808046416
 10
273.6173939073
 20
-4.5873426081
 10
273.6133285791
 20
-4.5921054689
 10
273.609097209
 20
-4.5950006901
 10
273.6047820051
 20
-4.5959720229
  0
LWPOLYLINE
  5
3A1
100
AcDbEntity
  8
RACCORDO
100
AcDbPolyline
 62
253
  6
CONTINUOUS
 90
13
 70
0
 10
271.0927767306
 20
-5.7062559671
 10
271.0927206571
 20
-5.6923260106
 10
271.0928988869
 20
-5.6784667591
 10
271.0933079576
 20
-5.6649474419
 10
271.0939399227
 20
-5.6520306846
 10
271.0947825056
 20
-5.6399674074
 10
271.0958193384
 20
-5.6289919511
 10
271.0970302796
 20
-5.6193175243
 10
271.0983918055
 20
-5.611132062
 10
271.0998774672
 20
-5.6045945747
 10
271.1014584042
 20
-5.5998320592
 10
271.1031039054
 20
-5.5969370319
 10
271.1047820053
 20
-5.5959657316
  0
LWPOLYLINE
  5
3A2
100
AcDbEntity
  8
RACCORDO
100
AcDbPolyline
 62
253
  6
CONTINUOUS
 90
13
 70
0
 10
272.5167872801
 20
-4.4856754961
 10
272.5168433535
 20
-4.4996054526
 10
272.5166651238
 20
-4.513464704
 10
272.516256053
 20
-4.5269840212
 10
272.515624088
 20
-4.5399007786
 10
272.514781505
 20
-4.5519640558
 10
272.5137446722
 20
-4.5629395121
 10
272.5125337311
 20
-4.5726139389
 10
272.5111722052
 20
-4.5807994012
 10
272.5096865435
 20
-4.5873368885
 10
272.5081056065
 20
-4.592099404
 10
272.5064601053
 20
-4.5949944312
 10
272.5047820053
 20
-4.5959657316
  0
LINE
  5
3A3
100
AcDbEntity
  8
RACCORDO
100
AcDbLine
 62
253
  6
CONTINUOUS
 10
269.6687661742
 20
-5.4011108503
 11
269.6687661742
 21
-4.7908206128
  0
LINE
  5
3A4
100
AcDbEntity
  8
RACCORDO
100
AcDbLine
 62
7
  6
CONTINUOUS
 10
269.8047820053
 20
-5.3959657316
 11
269.8047820053
 21
-4.7959657316
  0
LINE
  5
3A5
100
AcDbEntity
  8
RACCORDO
100
AcDbLine
 62
7
  6
CONTINUOUS
 10
271.3047820053
 20
-6.8959657316
 11
271.3047820053
 21
-5.7959657316
  0
LINE
  5
3A6
100
AcDbEntity
  8
RACCORDO
100
AcDbLine
 62
7
  6
CONTINUOUS
 10
271.3047820053
 20
-4.3959657316
 11
271.3047820053
 21
-3.2959657316
  0
LINE
  5
3A7
100
AcDbEntity
  8
RACCORDO
100
AcDbLine
 62
7
  6
CONTINUOUS
 10
272.3047820053
 20
-3.2959657316
 11
272.3047820053
 21
-4.3959657316
  0
LINE
  5
3A8
100
AcDbEntity
  8
RACCORDO
100
AcDbLine
 62
7
  6
CONTINUOUS
 10
272.3047820053
 20
-5.7959657316
 11
272.3047820053
 21
-6.8959657316
  0
LINE
  5
3A9
100
AcDbEntity
  8
RACCORDO
100
AcDbLine
 62
7
  6
CONTINUOUS
 10
273.8047820053
 20
-4.7959657316
 11
273.8047820053
 21
-5.3959657316
  0
LINE
  5
3AA
100
AcDbEntity
  8
RACCORDO
100
AcDbLine
 62
253
  6
CONTINUOUS
 10
273.9407978365
 20
-4.7908206128
 11
273.9407978365
 21
-5.4011108503
  0
LINE
  5
3AB
100
AcDbEntity
  8
RACCORDO
100
AcDbLine
 62
253
  6
CONTINUOUS
 10
271.1944917679
 20
-4.3839604545
 11
271.1944917694
 21
-3.5323191052
  0
LINE
  5
3AC
100
AcDbEntity
  8
RACCORDO
100
AcDbLine
 62
253
  6
CONTINUOUS
 10
271.1944156481
 20
-5.8660371788
 11
271.1944917679
 21
-5.8079710086
  0
LINE
  5
3AD
100
AcDbEntity
  8
RACCORDO
100
AcDbLine
 62
253
  6
CONTINUOUS
 10
272.4151483626
 20
-4.3258942843
 11
272.4150722428
 21
-4.3839604545
  0
LINE
  5
3AE
100
AcDbEntity
  8
RACCORDO
100
AcDbLine
 62
253
  6
CONTINUOUS
 10
272.4150722428
 20
-5.8079710086
 11
272.4150722413
 21
-6.6596123579
  0
LWPOLYLINE
  5
3AF
100
AcDbEntity
  8
RACCORDO
100
AcDbPolyline
 62
253
  6
CONTINUOUS
 90
3
 70
0
 10
271.1944917694
 20
-3.5323191052
 10
271.1946715389
 20
-3.4455618008
 10
271.1944917679
 20
-3.2650950192
  0
LWPOLYLINE
  5
3B0
100
AcDbEntity
  8
RACCORDO
100
AcDbPolyline
 62
253
  6
CONTINUOUS
 90
3
 70
0
 10
272.4150722413
 20
-6.6596123579
 10
272.4148924717
 20
-6.7463696623
 10
272.4150722428
 20
-6.926836444
  0
LINE
  5
3B1
100
AcDbEntity
  8
RACCORDO
100
AcDbLine
 62
253
  6
CONTINUOUS
 10
271.1944917679
 20
-6.926836444
 11
271.1944156481
 21
-5.8660371788
  0
LINE
  5
3B2
100
AcDbEntity
  8
RACCORDO
100
AcDbLine
 62
253
  6
CONTINUOUS
 10
272.4150722428
 20
-3.2650950192
 11
272.4151483626
 21
-4.3258942843
  0
LWPOLYLINE
  5
3B3
100
AcDbEntity
  8
RACCORDO
100
AcDbPolyline
 62
253
  6
CONTINUOUS
 90
13
 70
0
 10
271.0927767286
 20
-4.4856754943
 10
271.0927206582
 20
-4.4996054285
 10
271.0928988905
 20
-4.5134646558
 10
271.0933079632
 20
-4.5269839479
 10
271.0939399297
 20
-4.5399006801
 10
271.0947825134
 20
-4.5519639329
 10
271.0958193465
 20
-4.5629393665
 10
271.0970302873
 20
-4.5726137729
 10
271.0983918124
 20
-4.5807992179
 10
271.0998774728
 20
-4.5873366916
 10
271.1014584082
 20
-4.5920991976
 10
271.1031039075
 20
-4.5949942198
 10
271.1047820053
 20
-4.5959655198
  0
LWPOLYLINE
  5
3B4
100
AcDbEntity
  8
RACCORDO
100
AcDbPolyline
 62
253
  6
CONTINUOUS
 90
13
 70
0
 10
272.5167872821
 20
-5.7062559688
 10
272.5168433525
 20
-5.6923260346
 10
272.5166651202
 20
-5.6784668073
 10
272.5162560475
 20
-5.6649475152
 10
272.515624081
 20
-5.652030783
 10
272.5147814972
 20
-5.6399675303
 10
272.5137446642
 20
-5.6289920967
 10
272.5125337233
 20
-5.6193176903
 10
272.5111721983
 20
-5.6111322453
 10
272.5096865379
 20
-5.6045947716
 10
272.5081056025
 20
-5.5998322655
 10
272.5064601032
 20
-5.5969372433
 10
272.5047820053
 20
-5.5959659434
  0
LWPOLYLINE
  5
3B5
100
AcDbEntity
  8
RACCORDO
100
AcDbPolyline
 62
253
  6
CONTINUOUS
 90
13
 70
0
 10
269.9739113096
 20
-4.4856754997
 10
269.9737671209
 20
-4.499605453
 10
269.9742254258
 20
-4.5134647013
 10
269.9752773215
 20
-4.5269840155
 10
269.9769023739
 20
-4.5399007703
 10
269.9790690148
 20
-4.5519640454
 10
269.9817351551
 20
-4.5629395004
 10
269.9848490025
 20
-4.5726139267
 10
269.9883500676
 20
-4.5807993894
 10
269.992170339
 20
-4.5873368782
 10
269.9962356044
 20
-4.5920993962
 10
270.0004668921
 20
-4.5949944268
 10
270.0047820053
 20
-4.5959657316
  0
LWPOLYLINE
  5
3B6
100
AcDbEntity
  8
RACCORDO
100
AcDbPolyline
 62
253
  6
CONTINUOUS
 90
13
 70
0
 10
273.635652701
 20
-5.7062559635
 10
273.6357968898
 20
-5.6923260102
 10
273.6353385848
 20
-5.6784667619
 10
273.6342866891
 20
-5.6649474476
 10
273.6326616367
 20
-5.6520306928
 10
273.6304949959
 20
-5.6399674177
 10
273.6278288556
 20
-5.6289919627
 10
273.6247150082
 20
-5.6193175364
 10
273.6212139431
 20
-5.6111320737
 10
273.6173936717
 20
-5.6045945849
 10
273.6133284063
 20
-5.599832067
 10
273.6090971186
 20
-5.5969370363
 10
273.6047820053
 20
-5.5959657316
  0
LWPOLYLINE
  5
3B7
100
AcDbEntity
  8
RACCORDO
100
AcDbPolyline
 62
253
  6
CONTINUOUS
 90
16
 70
0
 10
271.4996368881
 20
-2.9599499107
 10
271.4994237394
 20
-2.9722775318
 10
271.4993000237
 20
-2.9850005239
 10
271.4992678058
 20
-2.9979065321
 10
271.4993276234
 20
-3.0107801471
 10
271.4994784782
 20
-3.0234065002
 10
271.4997178521
 20
-3.0355748496
 10
271.5000417499
 20
-3.0470820979
 10
271.5004447654
 20
-3.0577361819
 10
271.5009201723
 20
-3.0673592782
 10
271.5014600355
 20
-3.0757907713
 10
271.5020553445
 20
-3.0828899343
 10
271.5026961633
 20
-3.0885382776
 10
271.5033717964
 20
-3.0926415268
 10
271.5040709669
 20
-3.0951311962
 10
271.5047820053
 20
-3.0959657316
  0
LWPOLYLINE
  5
3B8
100
AcDbEntity
  8
RACCORDO
100
AcDbPolyline
 62
253
  6
CONTINUOUS
 90
16
 70
0
 10
272.1099271226
 20
-7.2319815524
 10
272.1101402712
 20
-7.2196539313
 10
272.110263987
 20
-7.2069309393
 10
272.1102962049
 20
-7.1940249311
 10
272.1102363873
 20
-7.181151316
 10
272.1100855325
 20
-7.1685249629
 10
272.1098461586
 20
-7.1563566135
 10
272.1095222608
 20
-7.1448493652
 10
272.1091192452
 20
-7.1341952813
 10
272.1086438384
 20
-7.1245721849
 10
272.1081039752
 20
-7.1161406918
 10
272.1075086662
 20
-7.1090415289
 10
272.1068678474
 20
-7.1033931856
 10
272.1061922143
 20
-7.0992899363
 10
272.1054930437
 20
-7.0968002669
 10
272.1047820053
 20
-7.0959657316
  0
LWPOLYLINE
  5
3B9
100
AcDbEntity
  8
RACCORDO
100
AcDbPolyline
 62
253
  6
CONTINUOUS
 90
19
 70
0
 10
269.6687661742
 20
-4.7908206128
 10
269.6699059015
 20
-4.7647211548
 10
269.6732017264
 20
-4.7390359703
 10
269.6786379794
 20
-4.7138349591
 10
269.6862240581
 20
-4.6891008054
 10
269.6959189788
 20
-4.6649890385
 10
269.7076215813
 20
-4.6418229699
 10
269.7213167625
 20
-4.6196439102
 10
269.7369664826
 20
-4.5985301177
 10
269.7544169112
 20
-4.5788434461
 10
269.7736957009
 20
-4.5605865627
 10
269.7947079903
 20
-4.543842123
 10
269.817098277
 20
-4.5290566399
 10
269.8408639829
 20
-4.5162388897
 10
269.8659355808
 20
-4.5053958693
 10
269.8918457629
 20
-4.4969163846
 10
269.9184188898
 20
-4.4908951018
 10
269.9457788
 20
-4.4871622125
 10
269.9739112929
 20
-4.4856754941
  0
LWPOLYLINE
  5
3BA
100
AcDbEntity
  8
RACCORDO
100
AcDbPolyline
 62
253
  6
CONTINUOUS
 90
19
 70
0
 10
273.9407978365
 20
-5.4011108503
 10
273.9396581091
 20
-5.4272103084
 10
273.9363622843
 20
-5.4528954928
 10
273.9309260312
 20
-5.4780965041
 10
273.9233399525
 20
-5.5028306578
 10
273.9136450319
 20
-5.5269424246
 10
273.9019424293
 20
-5.5501084932
 10
273.8882472481
 20
-5.5722875529
 10
273.872597528
 20
-5.5934013455
 10
273.8551470994
 20
-5.613088017
 10
273.8358683098
 20
-5.6313449005
 10
273.8148560204
 20
-5.6480893401
 10
273.7924657336
 20
-5.6628748232
 10
273.7687000277
 20
-5.6756925734
 10
273.7436284299
 20
-5.6865355938
 10
273.7177182477
 20
-5.6950150786
 10
273.6911451208
 20
-5.7010363613
 10
273.6637852106
 20
-5.7047692507
 10
273.6356527177
 20
-5.706255969
  0
LWPOLYLINE
  5
3BB
100
AcDbEntity
  8
RACCORDO
100
AcDbPolyline
 62
253
  6
CONTINUOUS
 90
19
 70
0
 10
271.1944917679
 20
-3.2650950192
 10
271.1960931012
 20
-3.2364540841
 10
271.199923059
 20
-3.2087559126
 10
271.2060179998
 20
-3.1820148413
 10
271.2145364776
 20
-3.1561670238
 10
271.2253804273
 20
-3.1313273509
 10
271.2381732528
 20
-3.10778214
 10
271.2529032064
 20
-3.0855484486
 10
271.2695671485
 20
-3.0646801216
 10
271.2877552716
 20
-3.0455085414
 10
271.3073995563
 20
-3.028113013
 10
271.3284867223
 20
-3.0124824027
 10
271.3506544893
 20
-2.9987955572
 10
271.3738348177
 20
-2.9870945874
 10
271.3979772345
 20
-2.9773917835
 10
271.4227271565
 20
-2.9698019167
 10
271.4479182131
 20
-2.9643696664
 10
271.4735780951
 20
-2.9610806263
 10
271.4996368866
 20
-2.9599499004
  0
LWPOLYLINE
  5
3BC
100
AcDbEntity
  8
RACCORDO
100
AcDbPolyline
 62
253
  6
CONTINUOUS
 90
19
 70
0
 10
272.4150722428
 20
-6.926836444
 10
272.4134709095
 20
-6.955477379
 10
272.4096409517
 20
-6.9831755506
 10
272.4035460108
 20
-7.0099166219
 10
272.395027533
 20
-7.0357644394
 10
272.3841835834
 20
-7.0606041123
 10
272.3713907579
 20
-7.0841493232
 10
272.3566608042
 20
-7.1063830145
 10
272.3399968622
 20
-7.1272513416
 10
272.3218087391
 20
-7.1464229218
 10
272.3021644544
 20
-7.1638184502
 10
272.2810772884
 20
-7.1794490604
 10
272.2589095213
 20
-7.1931359059
 10
272.235729193
 20
-7.2048368757
 10
272.2115867761
 20
-7.2145396797
 10
272.1868368541
 20
-7.2221295464
 10
272.1616457976
 20
-7.2275617968
 10
272.1359859156
 20
-7.2308508368
 10
272.1099271241
 20
-7.2319815627
  0
LINE
  5
3BD
100
AcDbEntity
  8
0
100
AcDbLine
 62
7
  6
CONTINUOUS
 10
278.3047820053
 20
-55.0959657316
 11
278.3047820053
 21
44.9040342684
  0
LINE
  5
3BE
100
AcDbEntity
  8
0
100
AcDbLine
 62
253
  6
CONTINUOUS
 10
279.4136170138
 20
34.9040342684
 11
279.4136170138
 21
-45.0959657316
  0
LINE
  5
3BF
100
AcDbEntity
  8
0
100
AcDbLine
 62
253
  6
CONTINUOUS
 10
280.3688747579
 20
34.9040342684
 11
280.3688747579
 21
-45.0959657316
  0
LINE
  5
3C0
100
AcDbEntity
  8
0
100
AcDbLine
 62
253
  6
CONTINUOUS
 10
282.8047820053
 20
34.9040342684
 11
282.8047820053
 21
-45.0959657316
  0
LINE
  5
3C1
100
AcDbEntity
  8
0
100
AcDbLine
 62
7
  6
CONTINUOUS
 10
283.8397792537
 20
-55.5959657316
 11
283.8397792537
 21
-47.5959657316
  0
LINE
  5
3C2
100
AcDbEntity
  8
0
100
AcDbLine
 62
7
  6
CONTINUOUS
 10
283.8397792537
 20
-47.5959657316
 11
283.8397792537
 21
-45.5959657316
  0
LINE
  5
3C3
100
AcDbEntity
  8
0
100
AcDbLine
 62
7
  6
CONTINUOUS
 10
283.8397792537
 20
37.4040342684
 11
283.8397792537
 21
55.6040342684
  0
LINE
  5
3C4
100
AcDbEntity
  8
0
100
AcDbLine
 62
7
  6
CONTINUOUS
 10
285.8397792537
 20
-47.5959657316
 11
285.8397792537
 21
-45.0959657316
  0
LINE
  5
3C5
100
AcDbEntity
  8
0
100
AcDbLine
 62
7
  6
CONTINUOUS
 10
285.8397792537
 20
34.9040342684
 11
285.8397792537
 21
37.4040342684
  0
LWPOLYLINE
  5
3C6
100
AcDbEntity
  8
RACCORDO
100
AcDbPolyline
 62
253
  6
CONTINUOUS
 90
9
 70
0
 10
402.398354047
 20
-7.2319815627
 10
402.3972872957
 20
-7.2308695217
 10
402.3969581429
 20
-7.2275908851
 10
402.3973674513
 20
-7.2221595332
 10
402.3985186049
 20
-7.2145571553
 10
402.4004041181
 20
-7.2048296823
 10
402.4030057331
 20
-7.1930999932
 10
402.4063214335
 20
-7.1793849271
 10
402.4103378327
 20
-7.1637232489
  0
LWPOLYLINE
  5
3C7
100
AcDbEntity
  8
RACCORDO
100
AcDbPolyline
 62
7
  6
CONTINUOUS
 90
7
 70
0
 10
402.4301175751
 20
-5.6121190431
 10
402.4312828917
 20
-5.6134185745
 10
402.4314556218
 20
-5.6136284318
 10
402.4306488029
 20
-5.6123428108
 10
402.4290886755
 20
-5.6094610888
 10
402.4269215045
 20
-5.6048054076
 10
402.4243115371
 20
-5.5982677753
  0
LINE
  5
3C8
100
AcDbEntity
  8
0
100
AcDbLine
 62
7
  6
CONTINUOUS
 10
330.1271124757
 20
45.4040342684
 11
330.1271124757
 21
55.6040342684
  0
LWPOLYLINE
  5
3C9
100
AcDbEntity
  8
RACCORDO
100
AcDbPolyline
 62
7
  6
CONTINUOUS
 90
11
 70
0
 10
402.7218101304
 20
-5.6508291064
 10
402.7166627847
 20
-5.6421402075
 10
402.7107167973
 20
-5.6339982944
 10
402.7038612766
 20
-5.6263207013
 10
402.6960281945
 20
-5.6191632556
 10
402.6872484472
 20
-5.612691134
 10
402.677538099
 20
-5.6070451591
 10
402.666806737
 20
-5.602332449
 10
402.6550764319
 20
-5.598759511
 10
402.6425140835
 20
-5.5965729414
 10
402.63143108
 20
-5.5959659467
  0
LINE
  5
3CA
100
AcDbEntity
  8
RACCORDO
100
AcDbLine
 62
7
  6
CONTINUOUS
 10
402.7333763436
 20
-4.4086858846
 11
402.7318872145
 21
-4.3941313539
  0
LINE
  5
3CB
100
AcDbEntity
  8
RACCORDO
100
AcDbLine
 62
7
  6
CONTINUOUS
 10
402.7344799116
 20
-4.4214577305
 11
402.7332772008
 21
-4.4076367937
  0
LINE
  5
3CC
100
AcDbEntity
  8
RACCORDO
100
AcDbLine
 62
7
  6
CONTINUOUS
 10
402.7353335677
 20
-4.4335507608
 11
402.7344087263
 21
-4.4205590672
  0
LINE
  5
3CD
100
AcDbEntity
  8
RACCORDO
100
AcDbLine
 62
7
  6
CONTINUOUS
 10
402.4057861221
 20
-4.8039930378
 11
402.4050547175
 21
-4.7904506405
  0
LINE
  5
3CE
100
AcDbEntity
  8
RACCORDO
100
AcDbLine
 62
7
  6
CONTINUOUS
 10
402.7359429604
 20
-4.4448918753
 11
402.7352862267
 21
-4.4327954541
  0
LINE
  5
3CF
100
AcDbEntity
  8
RACCORDO
100
AcDbLine
 62
7
  6
CONTINUOUS
 10
402.4077563426
 20
-4.8440797592
 11
402.4056863956
 21
-4.8021465409
  0
LINE
  5
3D0
100
AcDbEntity
  8
RACCORDO
100
AcDbLine
 62
7
  6
CONTINUOUS
 10
402.4050500192
 20
-4.7904509
 11
402.4044409334
 21
-4.7770913433
  0
LINE
  5
3D1
100
AcDbEntity
  8
RACCORDO
100
AcDbLine
 62
7
  6
CONTINUOUS
 10
402.4094360747
 20
-4.8841795731
 11
402.4076469003
 21
-4.8416867779
  0
LINE
  5
3D2
100
AcDbEntity
  8
RACCORDO
100
AcDbLine
 62
253
  6
CONTINUOUS
 10
402.398354047
 20
-4.7908206128
 11
402.3972912141
 21
-4.7647211548
  0
LINE
  5
3D3
100
AcDbEntity
  8
RACCORDO
100
AcDbLine
 62
7
  6
CONTINUOUS
 10
402.4108252137
 20
-4.9242901193
 11
402.4093439791
 21
-4.8817860146
  0
LWPOLYLINE
  5
3D4
100
AcDbEntity
  8
RACCORDO
100
AcDbPolyline
 62
253
  6
CONTINUOUS
 90
13
 70
0
 10
402.7301734583
 20
-4.4856754943
 10
402.7306346381
 20
-4.4996054285
 10
402.7291687041
 20
-4.5134646558
 10
402.7258041333
 20
-4.5269839479
 10
402.7206062857
 20
-4.5399006801
 10
402.7136761344
 20
-4.5519639329
 10
402.7051483037
 20
-4.5629393665
 10
402.6951884549
 20
-4.5726137729
 10
402.683990067
 20
-4.5807992179
 10
402.6717706792
 20
-4.5873366916
 10
402.6587676644
 20
-4.5920991976
 10
402.6452336181
 20
-4.5949942198
 10
402.6314314516
 20
-4.5959655198
  0
LWPOLYLINE
  5
3D5
100
AcDbEntity
  8
RACCORDO
100
AcDbPolyline
 62
253
  6
CONTINUOUS
 90
10
 70
0
 10
402.4819964903
 20
-4.4856754997
 10
402.4824381426
 20
-4.499605453
 10
402.4810343478
 20
-4.5134647013
 10
402.4778123758
 20
-4.5269840155
 10
402.4728348165
 20
-4.5399007703
 10
402.4661983638
 20
-4.5519640454
 10
402.4580319369
 20
-4.5629395004
 10
402.4484941764
 20
-4.5726139267
 10
402.4377703623
 20
-4.5807993894
 10
402.4271044952
 20
-4.5867582583
  0
LWPOLYLINE
  5
3D6
100
AcDbEntity
  8
0
100
AcDbPolyline
 62
7
  6
CONTINUOUS
 90
19
 70
0
 10
374.1271124757
 20
42.4040342684
 10
374.1203249588
 20
42.6276709514
 10
374.0941953756
 20
42.8552813948
 10
374.048723726
 20
43.0854017265
 10
373.9841735262
 20
43.3169061169
 10
373.9002812599
 20
43.5474417817
 10
373.796256379
 20
43.7735856405
 10
373.6713152815
 20
43.9931688055
 10
373.5262415694
 20
44.2044283839
 10
373.3625954993
 20
44.404692301
 10
373.1802086592
 20
44.5915386807
 10
372.9792494612
 20
44.7635708096
 10
372.7617833983
 20
44.9195475639
 10
372.5280308704
 20
45.0569763019
 10
372.2777714775
 20
45.1742608849
 10
372.0124095123
 20
45.2704472464
 10
371.7324130724
 20
45.3428960838
 10
371.4373140602
 20
45.3883241717
 10
371.1271124757
 20
45.4040342684
  0
LINE
  5
3D7
100
AcDbEntity
  8
RACCORDO
100
AcDbLine
 62
7
  6
CONTINUOUS
 10
402.4119237023
 20
-4.964409436
 11
402.4107504642
 21
-4.9218960298
  0
LINE
  5
3D8
100
AcDbEntity
  8
RACCORDO
100
AcDbLine
 62
7
  6
CONTINUOUS
 10
402.4044730541
 20
-4.7783365345
 11
402.4038876732
 21
-4.7556436613
  0
LINE
  5
3D9
100
AcDbEntity
  8
RACCORDO
100
AcDbLine
 62
7
  6
CONTINUOUS
 10
402.4127314912
 20
-5.0045357018
 11
402.4118663004
 21
-4.9620148812
  0
LINE
  5
3DA
100
AcDbEntity
  8
RACCORDO
100
AcDbLine
 62
7
  6
CONTINUOUS
 10
402.4132485375
 20
-5.0446668851
 11
402.4126914379
 21
-5.002140732
  0
LWPOLYLINE
  5
3DB
100
AcDbEntity
  8
RACCORDO
100
AcDbPolyline
 62
253
  6
CONTINUOUS
 90
7
 70
0
 10
402.3972912141
 20
-4.7647211548
 10
402.3969640082
 20
-4.7390359703
 10
402.3973732845
 20
-4.7138349591
 10
402.3985215152
 20
-4.6891008054
 10
402.4004021468
 20
-4.6649890385
 10
402.4029996778
 20
-4.6418229699
 10
402.4063101069
 20
-4.6196439102
  0
LINE
  5
3DC
100
AcDbEntity
  8
RACCORDO
100
AcDbLine
 62
7
  6
CONTINUOUS
 10
402.4134748224
 20
-5.0848005611
 11
402.4132258352
 21
-5.042271525
  0
LWPOLYLINE
  5
3DD
100
AcDbEntity
  8
RACCORDO
100
AcDbPolyline
 62
253
  6
CONTINUOUS
 90
10
 70
0
 10
402.4067751983
 20
-5.0959657316
 10
402.4066714092
 20
-5.0620553162
 10
402.4063599176
 20
-5.0281621542
 10
402.4058404884
 20
-4.9942692108
 10
402.4051116375
 20
-4.9603282606
 10
402.4041739059
 20
-4.9263535382
 10
402.4030298728
 20
-4.8924222068
 10
402.4016797885
 20
-4.8585493347
 10
402.4001215626
 20
-4.8246874723
 10
402.398354047
 20
-4.7908206128
  0
LINE
  5
3DE
100
AcDbEntity
  8
0
100
AcDbLine
 62
7
  6
CONTINUOUS
 10
373.8047820053
 20
45.9040342684
 11
373.8047820053
 21
55.6040342684
  0
LINE
  5
3DF
100
AcDbEntity
  8
0
100
AcDbLine
 62
253
  6
CONTINUOUS
 10
374.1271124757
 20
42.4040342684
 11
374.1271124757
 21
-52.5959657316
  0
LINE
  5
3E0
100
AcDbEntity
  8
0
100
AcDbLine
 62
7
  6
CONTINUOUS
 10
374.1271124757
 20
-55.5959657316
 11
374.1271124757
 21
-52.5959657316
  0
LINE
  5
3E1
100
AcDbEntity
  8
0
100
AcDbLine
 62
7
  6
CONTINUOUS
 10
376.3047820053
 20
45.9040342684
 11
376.3047820053
 21
55.6040342684
  0
LINE
  5
3E2
100
AcDbEntity
  8
0
100
AcDbLine
 62
7
  6
CONTINUOUS
 10
376.8047820053
 20
45.4040342684
 11
376.8047820053
 21
42.9040342684
  0
LINE
  5
3E3
100
AcDbEntity
  8
0
100
AcDbLine
 62
253
  6
CONTINUOUS
 10
379.7839667252
 20
42.4040342684
 11
379.7839667252
 21
-52.5959657316
  0
LINE
  5
3E4
100
AcDbEntity
  8
0
100
AcDbLine
 62
7
  6
CONTINUOUS
 10
384.8044248716
 20
-55.5959657316
 11
384.8044248716
 21
-53.0959657316
  0
LINE
  5
3E5
100
AcDbEntity
  8
0
100
AcDbLine
 62
7
  6
CONTINUOUS
 10
385.3258388895
 20
-55.5959657316
 11
385.3258388895
 21
-53.0959657316
  0
LINE
  5
3E6
100
AcDbEntity
  8
0
100
AcDbLine
 62
7
  6
CONTINUOUS
 10
386.0772170777
 20
-55.5959657316
 11
386.0772170777
 21
-53.0959657316
  0
LINE
  5
3E7
100
AcDbEntity
  8
0
100
AcDbLine
 62
7
  6
CONTINUOUS
 10
387.8047820053
 20
42.9040342684
 11
387.8047820053
 21
42.4040342684
  0
LINE
  5
3E8
100
AcDbEntity
  8
0
100
AcDbLine
 62
7
  6
CONTINUOUS
 10
387.8047820053
 20
-53.0959657316
 11
387.8047820053
 21
-52.5959657316
  0
LINE
  5
3E9
100
AcDbEntity
  8
0
100
AcDbLine
 62
253
  6
CONTINUOUS
 10
395.8047820053
 20
42.9040342684
 11
395.8047820053
 21
42.4040342684
  0
LINE
  5
3EA
100
AcDbEntity
  8
0
100
AcDbLine
 62
253
  6
CONTINUOUS
 10
395.8047820053
 20
-53.0959657316
 11
395.8047820053
 21
-52.5959657316
  0
LINE
  5
3EB
100
AcDbEntity
  8
0
100
AcDbLine
 62
7
  6
CONTINUOUS
 10
396.7545294736
 20
-53.0959657316
 11
396.7545294736
 21
-55.5959657316
  0
LINE
  5
3EC
100
AcDbEntity
  8
0
100
AcDbLine
 62
7
  6
CONTINUOUS
 10
396.8047820053
 20
45.4040342684
 11
396.8047820053
 21
42.9040342684
  0
LINE
  5
3ED
100
AcDbEntity
  8
0
100
AcDbLine
 62
253
  6
CONTINUOUS
 10
396.8047820053
 20
-55.5959657316
 11
396.8047820053
 21
-53.0959657316
  0
LINE
  5
3EE
100
AcDbEntity
  8
0
100
AcDbLine
 62
253
  6
CONTINUOUS
 10
397.4616362548
 20
42.4040342684
 11
397.4616362548
 21
-52.5959657316
  0
LINE
  5
3EF
100
AcDbEntity
  8
0
100
AcDbLine
 62
7
  6
CONTINUOUS
 10
399.8047820053
 20
-52.5959657316
 11
399.8047820053
 21
42.4040342684
  0
LINE
  5
3F0
100
AcDbEntity
  8
0
100
AcDbLine
 62
253
  6
CONTINUOUS
 10
400.1140437503
 20
-10.0634825101
 11
400.1140437503
 21
-0.1284489531
  0
LINE
  5
3F1
100
AcDbEntity
  8
RACCORDO
100
AcDbLine
 62
7
  6
CONTINUOUS
 10
402.4134694751
 20
-5.1095266329
 11
402.4134694751
 21
-5.0824048303
  0
LWPOLYLINE
  5
3F2
100
AcDbEntity
  8
RACCORDO
100
AcDbPolyline
 62
7
  6
CONTINUOUS
 90
10
 70
0
 10
402.4038876732
 20
-4.7556436613
 10
402.4039461063
 20
-4.7335320132
 10
402.4046262769
 20
-4.7122473052
 10
402.4058808271
 20
-4.6920679246
 10
402.4076445274
 20
-4.6731533947
 10
402.409853596
 20
-4.6556571947
 10
402.4124153156
 20
-4.6398054797
 10
402.4152324453
 20
-4.6256748279
 10
402.4182034418
 20
-4.613318699
 10
402.421190329
 20
-4.6028731398
  0
LINE
  5
3F3
100
AcDbEntity
  8
RACCORDO
100
AcDbLine
 62
7
  6
CONTINUOUS
 10
402.4132258352
 20
-5.1496599382
 11
402.4134717384
 21
-5.1076778819
  0
LINE
  5
3F4
100
AcDbEntity
  8
RACCORDO
100
AcDbLine
 62
7
  6
CONTINUOUS
 10
402.4126914379
 20
-5.1897907311
 11
402.4132485375
 21
-5.147264578
  0
LWPOLYLINE
  5
3F5
100
AcDbEntity
  8
RACCORDO
100
AcDbPolyline
 62
7
  6
CONTINUOUS
 90
6
 70
0
 10
402.7363175205
 20
-5.7364569603
 10
402.7364627843
 20
-5.7266390312
 10
402.7363833182
 20
-5.7175035908
 10
402.736075788
 20
-5.7089805513
 10
402.7355249545
 20
-5.7009412475
 10
402.7346747578
 20
-5.6930393827
  0
LINE
  5
3F6
100
AcDbEntity
  8
RACCORDO
100
AcDbLine
 62
7
  6
CONTINUOUS
 10
402.4118663004
 20
-5.229916582
 11
402.4127314912
 21
-5.1873957614
  0
LWPOLYLINE
  5
3F7
100
AcDbEntity
  8
RACCORDO
100
AcDbPolyline
 62
7
  6
CONTINUOUS
 90
3
 70
0
 10
402.4038578105
 20
-5.439156786
 10
402.4043644375
 20
-5.4165129496
 10
402.4050518338
 20
-5.4014808132
  0
LINE
  5
3F8
100
AcDbEntity
  8
RACCORDO
100
AcDbLine
 62
7
  6
CONTINUOUS
 10
402.4107504642
 20
-5.2700354333
 11
402.4119237023
 21
-5.2275220272
  0
LWPOLYLINE
  5
3F9
100
AcDbEntity
  8
RACCORDO
100
AcDbPolyline
 62
253
  6
CONTINUOUS
 90
10
 70
0
 10
402.481992505
 20
-5.7062555294
 10
402.4824353554
 20
-5.6923252443
 10
402.4810326049
 20
-5.6784655041
 10
402.4778115066
 20
-5.6649455786
 10
402.4728346404
 20
-5.6520281357
 10
402.4661986981
 20
-5.6399641383
 10
402.458032604
 20
-5.6289879682
 10
402.4484950107
 20
-5.6193128727
 10
402.4377712165
 20
-5.6111268215
 10
402.4270847227
 20
-5.6051560455
  0
LWPOLYLINE
  5
3FA
100
AcDbEntity
  8
RACCORDO
100
AcDbPolyline
 62
253
  6
CONTINUOUS
 90
10
 70
0
 10
402.7301734416
 20
-5.7062559671
 10
402.7306346393
 20
-5.6923260106
 10
402.7291687201
 20
-5.6784667591
 10
402.725804161
 20
-5.6649474419
 10
402.7206063215
 20
-5.6520306846
 10
402.7136761749
 20
-5.6399674074
 10
402.7051483457
 20
-5.6289919511
 10
402.6951884951
 20
-5.6193175243
 10
402.6839901028
 20
-5.611132062
 10
402.6717707083
 20
-5.6045945747
  0
LINE
  5
3FB
100
AcDbEntity
  8
RACCORDO
100
AcDbLine
 62
7
  6
CONTINUOUS
 10
402.4093439791
 20
-5.3101454486
 11
402.4108252137
 21
-5.2676413439
  0
LINE
  5
3FC
100
AcDbEntity
  8
RACCORDO
100
AcDbLine
 62
7
  6
CONTINUOUS
 10
402.7359149558
 20
-5.7476605877
 11
402.7363044228
 21
-5.7369516564
  0
LINE
  5
3FD
100
AcDbEntity
  8
RACCORDO
100
AcDbLine
 62
253
  6
CONTINUOUS
 10
402.3972913258
 20
-5.4271286741
 11
402.398354047
 21
-5.4011108503
  0
LINE
  5
3FE
100
AcDbEntity
  8
RACCORDO
100
AcDbLine
 62
7
  6
CONTINUOUS
 10
402.4076469003
 20
-5.3502446853
 11
402.4094360747
 21
-5.30775189
  0
LINE
  5
3FF
100
AcDbEntity
  8
RACCORDO
100
AcDbLine
 62
7
  6
CONTINUOUS
 10
402.4056593278
 20
-5.3903308347
 11
402.4077563426
 21
-5.347851704
  0
LWPOLYLINE
  5
400
100
AcDbEntity
  8
RACCORDO
100
AcDbPolyline
 62
253
  6
CONTINUOUS
 90
10
 70
0
 10
402.398354047
 20
-5.4011108503
 10
402.400121582
 20
-5.3672435074
 10
402.4016798204
 20
-5.3333813066
 10
402.4030299103
 20
-5.29950824
 10
402.4041739396
 20
-5.2655768875
 10
402.4051116605
 20
-5.2316022861
 10
402.405840502
 20
-5.1976615089
 10
402.4063599256
 20
-5.1637687608
 10
402.4066714126
 20
-5.1298758467
 10
402.4067751983
 20
-5.0959657316
  0
LINE
  5
401
100
AcDbEntity
  8
RACCORDO
100
AcDbLine
 62
7
  6
CONTINUOUS
 10
402.4050547175
 20
-5.4014808227
 11
402.4057861221
 21
-5.3879384254
  0
LINE
  5
402
100
AcDbEntity
  8
RACCORDO
100
AcDbLine
 62
7
  6
CONTINUOUS
 10
402.7352862267
 20
-5.759136009
 11
402.7359429604
 21
-5.7470395878
  0
LINE
  5
403
100
AcDbEntity
  8
RACCORDO
100
AcDbLine
 62
7
  6
CONTINUOUS
 10
402.7344087263
 20
-5.771372396
 11
402.7353335677
 21
-5.7583807023
  0
LINE
  5
404
100
AcDbEntity
  8
RACCORDO
100
AcDbLine
 62
7
  6
CONTINUOUS
 10
402.7332772008
 20
-5.7842946694
 11
402.7344799116
 21
-5.7704737326
  0
LWPOLYLINE
  5
405
100
AcDbEntity
  8
RACCORDO
100
AcDbPolyline
 62
253
  6
CONTINUOUS
 90
20
 70
0
 10
402.732261611
 20
-5.788974556
 10
402.7330998188
 20
-5.7799638314
 10
402.7338067475
 20
-5.7711412112
 10
402.7343814441
 20
-5.7626050843
 10
402.7348170203
 20
-5.7546898632
 10
402.7351026377
 20
-5.7474710088
 10
402.7352512992
 20
-5.7408401228
 10
402.7352912905
 20
-5.7348687813
 10
402.7352203668
 20
-5.7296034954
 10
402.7350407004
 20
-5.7249838724
 10
402.7347868614
 20
-5.7209371884
 10
402.7344602434
 20
-5.717481766
 10
402.7340585459
 20
-5.7146009712
 10
402.7336110023
 20
-5.712180013
 10
402.7331208061
 20
-5.7102259407
 10
402.7325839093
 20
-5.7087414501
 10
402.7320190827
 20
-5.7076091582
 10
402.7314324744
 20
-5.7067936174
 10
402.7308173752
 20
-5.7063408168
 10
402.7301734606
 20
-5.706255969
  0
LINE
  5
406
100
AcDbEntity
  8
RACCORDO
100
AcDbLine
 62
7
  6
CONTINUOUS
 10
402.7318872145
 20
-5.7978001092
 11
402.7333763436
 21
-5.7832455785
  0
LINE
  5
407
100
AcDbEntity
  8
RACCORDO
100
AcDbLine
 62
7
  6
CONTINUOUS
 10
402.7306998667
 20
-5.8080350054
 11
402.7320199422
 21
-5.7965950214
  0
LINE
  5
408
100
AcDbEntity
  8
RACCORDO
100
AcDbLine
 62
253
  6
CONTINUOUS
 10
402.7145547682
 20
-5.9263583124
 11
402.7228132109
 21
-5.8660371788
  0
LWPOLYLINE
  5
409
100
AcDbEntity
  8
RACCORDO
100
AcDbPolyline
 62
7
  6
CONTINUOUS
 90
8
 70
0
 10
402.7334219831
 20
-4.5069259266
 10
402.7346801922
 20
-4.4988493318
 10
402.7355351582
 20
-4.4908741629
 10
402.7360854316
 20
-4.4827599225
 10
402.7363892162
 20
-4.4741517277
 10
402.7364614306
 20
-4.4649157912
 10
402.7363044228
 20
-4.4549798067
 10
402.7359149558
 20
-4.4442708754
  0
LINE
  5
40A
100
AcDbEntity
  8
RACCORDO
100
AcDbLine
 62
253
  6
CONTINUOUS
 10
402.6950374432
 20
-6.0537057955
 11
402.7053211699
 21
-5.9889449552
  0
LINE
  5
40B
100
AcDbEntity
  8
RACCORDO
100
AcDbLine
 62
7
  6
CONTINUOUS
 10
402.4035218116
 20
-7.1982224751
 11
402.4039780172
 21
-7.1954552135
  0
LINE
  5
40C
100
AcDbEntity
  8
RACCORDO
100
AcDbLine
 62
253
  6
CONTINUOUS
 10
402.6709279261
 20
-6.1901979831
 11
402.6836109284
 21
-6.1207107776
  0
LWPOLYLINE
  5
40D
100
AcDbEntity
  8
RACCORDO
100
AcDbPolyline
 62
7
  6
CONTINUOUS
 90
8
 70
0
 10
402.4039780172
 20
-7.1954552135
 10
402.4043017781
 20
-7.1937181572
 10
402.4047744229
 20
-7.1913299975
 10
402.4053715084
 20
-7.1884625731
 10
402.406074284
 20
-7.1852331718
 10
402.4068775977
 20
-7.181679003
 10
402.407790118
 20
-7.1777724392
 10
402.4088084489
 20
-7.1735368649
  0
LINE
  5
40E
100
AcDbEntity
  8
RACCORDO
100
AcDbLine
 62
253
  6
CONTINUOUS
 10
402.4063101069
 20
-4.6196439102
 11
402.4103220545
 21
-4.5985301177
  0
LINE
  5
40F
100
AcDbEntity
  8
RACCORDO
100
AcDbLine
 62
253
  6
CONTINUOUS
 10
402.641371819
 20
-6.3365653938
 11
402.6568801796
 21
-6.2621763994
  0
LINE
  5
410
100
AcDbEntity
  8
RACCORDO
100
AcDbLine
 62
253
  6
CONTINUOUS
 10
402.4103220545
 20
-4.5985301177
 11
402.4150064753
 21
-4.5788434461
  0
LINE
  5
411
100
AcDbEntity
  8
RACCORDO
100
AcDbLine
 62
7
  6
CONTINUOUS
 10
402.4088084489
 20
-7.1735368649
 11
402.4101301532
 21
-7.1681982601
  0
LWPOLYLINE
  5
412
100
AcDbEntity
  8
RACCORDO
100
AcDbPolyline
 62
253
  6
CONTINUOUS
 90
3
 70
0
 10
402.5850234258
 20
-6.5744431872
 10
402.6055579045
 20
-6.4927567347
 10
402.6242979316
 20
-6.4134596051
  0
LINE
  5
413
100
AcDbEntity
  8
RACCORDO
100
AcDbLine
 62
7
  6
CONTINUOUS
 10
402.4099330391
 20
-7.1689760111
 11
402.4113831803
 21
-7.1632375918
  0
LINE
  5
414
100
AcDbEntity
  8
RACCORDO
100
AcDbLine
 62
7
  6
CONTINUOUS
 10
402.4111636287
 20
-7.1640942866
 11
402.4139257764
 21
-7.1534378517
  0
LINE
  5
415
100
AcDbEntity
  8
RACCORDO
100
AcDbLine
 62
7
  6
CONTINUOUS
 10
402.4127356365
 20
-7.1579827113
 11
402.4157357772
 21
-7.1466215013
  0
LWPOLYLINE
  5
416
100
AcDbEntity
  8
RACCORDO
100
AcDbPolyline
 62
253
  6
CONTINUOUS
 90
6
 70
0
 10
402.4103378327
 20
-7.1637232489
 10
402.4150172927
 20
-7.1462913472
 10
402.4203628579
 20
-7.1270753729
 10
402.4263457922
 20
-7.1061575721
 10
402.432880176
 20
-7.0838752421
 10
402.4360119727
 20
-7.0754508583
  0
LINE
  5
417
100
AcDbEntity
  8
RACCORDO
100
AcDbLine
 62
7
  6
CONTINUOUS
 10
402.4154564493
 20
-7.1476712089
 11
402.4191336424
 21
-7.1341326988
  0
LINE
  5
418
100
AcDbEntity
  8
RACCORDO
100
AcDbLine
 62
7
  6
CONTINUOUS
 10
402.4188093931
 20
-7.1353108569
 11
402.4229227484
 21
-7.1205536283
  0
LINE
  5
419
100
AcDbEntity
  8
RACCORDO
100
AcDbLine
 62
7
  6
CONTINUOUS
 10
402.4225491585
 20
-7.1218741297
 11
402.4270916628
 21
-7.1059239076
  0
LINE
  5
41A
100
AcDbEntity
  8
RACCORDO
100
AcDbLine
 62
7
  6
CONTINUOUS
 10
402.4266717104
 20
-7.1073860935
 11
402.4316296124
 21
-7.0902950103
  0
LWPOLYLINE
  5
41B
100
AcDbEntity
  8
RACCORDO
100
AcDbPolyline
 62
253
  6
CONTINUOUS
 90
10
 70
0
 10
402.4150064753
 20
-4.5788434461
 10
402.4203702493
 20
-4.5605865627
 10
402.4263803456
 20
-4.543842123
 10
402.4329471281
 20
-4.5290566399
 10
402.4400676125
 20
-4.5162388897
 10
402.4477122146
 20
-4.5053958693
 10
402.4557543022
 20
-4.4969163846
 10
402.4641422362
 20
-4.4908951018
 10
402.4728956119
 20
-4.4871622125
 10
402.4819965414
 20
-4.4856754941
  0
LINE
  5
41C
100
AcDbEntity
  8
RACCORDO
100
AcDbLine
 62
7
  6
CONTINUOUS
 10
402.4311626613
 20
-7.0918957969
 11
402.4365282938
 21
-7.0737145284
  0
LWPOLYLINE
  5
41D
100
AcDbEntity
  8
RACCORDO
100
AcDbPolyline
 62
253
  6
CONTINUOUS
 90
3
 70
0
 10
402.4391105069
 20
-7.0650794392
 10
402.4399505911
 20
-7.0602648043
 10
402.4417783475
 20
-7.056225103
  0
LWPOLYLINE
  5
41E
100
AcDbEntity
  8
RACCORDO
100
AcDbPolyline
 62
253
  6
CONTINUOUS
 90
3
 70
0
 10
402.5111551695
 20
-6.8350625898
 10
402.5379556133
 20
-6.7456693453
 10
402.5625371126
 20
-6.6587390209
  0
LINE
  5
41F
100
AcDbEntity
  8
RACCORDO
100
AcDbLine
 62
7
  6
CONTINUOUS
 10
402.4360119727
 20
-7.0754508583
 11
402.4439364184
 21
-7.0491017555
  0
LWPOLYLINE
  5
420
100
AcDbEntity
  8
RACCORDO
100
AcDbPolyline
 62
253
  6
CONTINUOUS
 90
3
 70
0
 10
402.4445293145
 20
-7.0471593883
 10
402.447540618
 20
-7.0353610834
 10
402.4496304431
 20
-7.030500645
  0
LINE
  5
421
100
AcDbEntity
  8
RACCORDO
100
AcDbLine
 62
7
  6
CONTINUOUS
 10
402.4417783475
 20
-7.056225103
 11
402.4502707644
 21
-7.0284268492
  0
LWPOLYLINE
  5
422
100
AcDbEntity
  8
RACCORDO
100
AcDbPolyline
 62
253
  6
CONTINUOUS
 90
3
 70
0
 10
402.4532581282
 20
-7.0187722314
 10
402.4555644152
 20
-7.0095092405
 10
402.4587427574
 20
-7.0011984796
  0
LINE
  5
423
100
AcDbEntity
  8
RACCORDO
100
AcDbLine
 62
7
  6
CONTINUOUS
 10
402.4496304431
 20
-7.030500645
 11
402.4594553413
 21
-6.9989267601
  0
LWPOLYLINE
  5
424
100
AcDbEntity
  8
RACCORDO
100
AcDbPolyline
 62
253
  6
CONTINUOUS
 90
5
 70
0
 10
402.3983466364
 20
-7.2319786967
 10
402.4022066031
 20
-7.2196510233
 10
402.4044474174
 20
-7.2069277916
 10
402.4050316736
 20
-7.19402139
 10
402.4047965386
 20
-7.1912237896
  0
LWPOLYLINE
  5
425
100
AcDbEntity
  8
RACCORDO
100
AcDbPolyline
 62
253
  6
CONTINUOUS
 90
3
 70
0
 10
402.4626615545
 20
-6.9887496854
 10
402.463982561
 20
-6.9828438528
 10
402.4684881843
 20
-6.9704057801
  0
LWPOLYLINE
  5
426
100
AcDbEntity
  8
RACCORDO
100
AcDbPolyline
 62
7
  6
CONTINUOUS
 90
10
 70
0
 10
402.4825011151
 20
-6.927001175
 10
402.5141160815
 20
-6.827168995
 10
402.5519052304
 20
-6.6988911461
 10
402.5867767019
 20
-6.5697912749
 10
402.6187126373
 20
-6.4399362245
 10
402.647697508
 20
-6.3093893059
 10
402.6737167699
 20
-6.1782164775
 10
402.6967565733
 20
-6.04648543
 10
402.7168051399
 20
-5.9142628585
 10
402.7307004325
 20
-5.8080350216
  0
LINE
  5
427
100
AcDbEntity
  8
RACCORDO
100
AcDbLine
 62
7
  6
CONTINUOUS
 10
402.4587427574
 20
-7.0011984796
 11
402.4692761623
 21
-6.9679326596
  0
LINE
  5
428
100
AcDbEntity
  8
RACCORDO
100
AcDbLine
 62
253
  6
CONTINUOUS
 10
402.4718660187
 20
-6.9598510581
 11
402.4727997126
 21
-6.955281503
  0
LINE
  5
429
100
AcDbEntity
  8
RACCORDO
100
AcDbLine
 62
7
  6
CONTINUOUS
 10
402.4684881843
 20
-6.9704057801
 11
402.4787976724
 21
-6.938369682
  0
LINE
  5
42A
100
AcDbEntity
  8
RACCORDO
100
AcDbLine
 62
7
  6
CONTINUOUS
 10
402.4787976724
 20
-6.938369682
 11
402.4824977797
 21
-6.9270000864
  0
LWPOLYLINE
  5
42B
100
AcDbEntity
  8
RACCORDO
100
AcDbPolyline
 62
7
  6
CONTINUOUS
 90
6
 70
0
 10
402.421190329
 20
-4.6028731398
 10
402.42407394
 20
-4.5943086378
 10
402.4267230056
 20
-4.5875877723
 10
402.4289374624
 20
-4.58277264
 10
402.4305559045
 20
-4.5797485696
 10
402.4307972957
 20
-4.5793399183
  0
LWPOLYLINE
  5
42C
100
AcDbEntity
  8
RACCORDO
100
AcDbPolyline
 62
7
  6
CONTINUOUS
 90
13
 70
0
 10
402.7292323912
 20
-5.6683592221
 10
402.7259281956
 20
-5.6595081249
 10
402.7216018065
 20
-5.6504385503
 10
402.7163587389
 20
-5.6416813534
 10
402.7103029721
 20
-5.6334887441
 10
402.7033227439
 20
-5.6257788194
 10
402.6953489466
 20
-5.6186090286
 10
402.6864143564
 20
-5.6121484093
 10
402.6765387894
 20
-5.60654281
 10
402.6656343574
 20
-5.6019048354
 10
402.6537284365
 20
-5.5984463881
 10
402.6409961445
 20
-5.5964177391
 10
402.6314266683
 20
-5.5959658157
  0
LWPOLYLINE
  5
42D
100
AcDbEntity
  8
RACCORDO
100
AcDbPolyline
 62
7
  6
CONTINUOUS
 90
11
 70
0
 10
402.4243115371
 20
-5.5982677753
 10
402.4214587129
 20
-5.5899129218
 10
402.4184914591
 20
-5.5797006562
 10
402.4155292607
 20
-5.5675994731
 10
402.4127103676
 20
-5.5537376538
 10
402.4101298728
 20
-5.5381585739
 10
402.4078826886
 20
-5.5209262195
 10
402.4060691293
 20
-5.5022499366
 10
402.4047551618
 20
-5.4822767972
 10
402.4039982839
 20
-5.4611572728
 10
402.4038578105
 20
-5.439156786
  0
LINE
  5
42E
100
AcDbEntity
  8
RACCORDO
100
AcDbLine
 62
7
  6
CONTINUOUS
 10
402.4824977797
 20
-3.2649313767
 11
402.472678167
 21
-3.2346161848
  0
LINE
  5
42F
100
AcDbEntity
  8
RACCORDO
100
AcDbLine
 62
253
  6
CONTINUOUS
 10
402.4727392297
 20
-3.2364540841
 11
402.472678167
 21
-3.2346161848
  0
LINE
  5
430
100
AcDbEntity
  8
RACCORDO
100
AcDbLine
 62
253
  6
CONTINUOUS
 10
402.4692736587
 20
-3.2239909679
 11
402.4638793582
 21
-3.2087559126
  0
LINE
  5
431
100
AcDbEntity
  8
RACCORDO
100
AcDbLine
 62
7
  6
CONTINUOUS
 10
402.472678167
 20
-3.2346161848
 11
402.4626567918
 21
-3.2031667037
  0
LWPOLYLINE
  5
432
100
AcDbEntity
  8
RACCORDO
100
AcDbPolyline
 62
253
  6
CONTINUOUS
 90
5
 70
0
 10
402.3983540204
 20
-2.9599499107
 10
402.4022128571
 20
-2.9722775318
 10
402.404452603
 20
-2.9850005239
 10
402.4050358755
 20
-2.9979065321
 10
402.4047985108
 20
-3.0007282516
  0
LINE
  5
433
100
AcDbEntity
  8
RACCORDO
100
AcDbLine
 62
7
  6
CONTINUOUS
 10
402.4626567918
 20
-3.2031667037
 11
402.4532494368
 21
-3.1731312288
  0
LINE
  5
434
100
AcDbEntity
  8
RACCORDO
100
AcDbLine
 62
7
  6
CONTINUOUS
 10
402.4532494368
 20
-3.1731312288
 11
402.4445166123
 21
-3.1447303562
  0
LWPOLYLINE
  5
435
100
AcDbEntity
  8
RACCORDO
100
AcDbPolyline
 62
253
  6
CONTINUOUS
 90
6
 70
0
 10
402.4340170909
 20
-3.1097518986
 10
402.4327989907
 20
-3.10778214
 10
402.4262804021
 20
-3.0855484486
 10
402.4203131177
 20
-3.0646801216
 10
402.4149813123
 20
-3.0455085414
 10
402.4103129382
 20
-3.028113013
  0
LINE
  5
436
100
AcDbEntity
  8
RACCORDO
100
AcDbLine
 62
7
  6
CONTINUOUS
 10
402.4445166123
 20
-3.1447303562
 11
402.4365121258
 21
-3.1181626531
  0
LINE
  5
437
100
AcDbEntity
  8
RACCORDO
100
AcDbLine
 62
7
  6
CONTINUOUS
 10
402.4365121258
 20
-3.1181626531
 11
402.4316116964
 21
-3.1015752894
  0
LINE
  5
438
100
AcDbEntity
  8
RACCORDO
100
AcDbLine
 62
7
  6
CONTINUOUS
 10
402.4316116964
 20
-3.1015752894
 11
402.4270725872
 21
-3.0859412441
  0
LINE
  5
439
100
AcDbEntity
  8
RACCORDO
100
AcDbLine
 62
7
  6
CONTINUOUS
 10
402.4270725872
 20
-3.0859412441
 11
402.4229031552
 21
-3.0713083812
  0
LWPOLYLINE
  5
43A
100
AcDbEntity
  8
RACCORDO
100
AcDbPolyline
 62
253
  6
CONTINUOUS
 90
3
 70
0
 10
402.5622971138
 20
-3.5323191052
 10
402.5377532129
 20
-3.4455618008
 10
402.5110309795
 20
-3.3564598284
  0
LINE
  5
43B
100
AcDbEntity
  8
RACCORDO
100
AcDbLine
 62
7
  6
CONTINUOUS
 10
402.4229031552
 20
-3.0713083812
 11
402.4191142884
 21
-3.0577285568
  0
LINE
  5
43C
100
AcDbEntity
  8
RACCORDO
100
AcDbLine
 62
7
  6
CONTINUOUS
 10
402.4191142884
 20
-3.0577285568
 11
402.4157174014
 21
-3.0452414343
  0
LWPOLYLINE
  5
43D
100
AcDbEntity
  8
RACCORDO
100
AcDbPolyline
 62
7
  6
CONTINUOUS
 90
4
 70
0
 10
402.4157174014
 20
-3.0452414343
 10
402.4127189008
 20
-3.0338842912
 10
402.4113674878
 20
-3.0286323259
 10
402.410115633
 20
-3.0236751352
  0
LWPOLYLINE
  5
43E
100
AcDbEntity
  8
RACCORDO
100
AcDbPolyline
 62
253
  6
CONTINUOUS
 90
9
 70
0
 10
402.4103129382
 20
-3.028113013
 10
402.4063055805
 20
-3.0124824027
 10
402.4029972317
 20
-2.9987955572
 10
402.4004013501
 20
-2.9870945874
 10
402.398519809
 20
-2.9773917835
 10
402.3973709192
 20
-2.9698019167
 10
402.3969621784
 20
-2.9643696664
 10
402.3972901735
 20
-2.9610806263
 10
402.398354047
 20
-2.9599499004
  0
LWPOLYLINE
  5
43F
100
AcDbEntity
  8
RACCORDO
100
AcDbPolyline
 62
7
  6
CONTINUOUS
 90
10
 70
0
 10
402.410115633
 20
-3.0236751352
 10
402.4089691313
 20
-3.0190411686
 10
402.4079281681
 20
-3.0147328847
 10
402.4069934129
 20
-3.0107553913
 10
402.4061715055
 20
-3.0071433339
 10
402.4054572199
 20
-3.0038838359
 10
402.4048522958
 20
-3.0009984524
 10
402.4043687754
 20
-2.9985693795
 10
402.4039920704
 20
-2.9965573584
 10
402.4039133756
 20
-2.9961172681
  0
LINE
  5
440
100
AcDbEntity
  8
RACCORDO
100
AcDbLine
 62
253
  6
CONTINUOUS
 10
402.4149378905
 20
-5.612827691
 11
402.4102651609
 21
-5.5931395332
  0
LWPOLYLINE
  5
441
100
AcDbEntity
  8
RACCORDO
100
AcDbPolyline
 62
253
  6
CONTINUOUS
 90
3
 70
0
 10
402.6241400921
 20
-3.7777831465
 10
402.6053677704
 20
-3.6983984326
 10
402.5847934952
 20
-3.616605112
  0
LINE
  5
442
100
AcDbEntity
  8
RACCORDO
100
AcDbLine
 62
253
  6
CONTINUOUS
 10
402.6567449967
 20
-3.929084416
 11
402.6412277326
 21
-3.8546955329
  0
LINE
  5
443
100
AcDbEntity
  8
RACCORDO
100
AcDbLine
 62
253
  6
CONTINUOUS
 10
402.4102651609
 20
-5.5931395332
 11
402.4062665458
 21
-5.5720355395
  0
LINE
  5
444
100
AcDbEntity
  8
RACCORDO
100
AcDbLine
 62
253
  6
CONTINUOUS
 10
402.6834893274
 20
-4.0705267283
 11
402.6708011179
 21
-4.0010619021
  0
LINE
  5
445
100
AcDbEntity
  8
RACCORDO
100
AcDbLine
 62
253
  6
CONTINUOUS
 10
402.705219657
 20
-4.2023238629
 11
402.6949208011
 21
-4.1375089565
  0
LWPOLYLINE
  5
446
100
AcDbEntity
  8
RACCORDO
100
AcDbPolyline
 62
7
  6
CONTINUOUS
 90
4
 70
0
 10
402.7346801922
 20
-5.6930821314
 10
402.7334219831
 20
-5.6850055366
 10
402.7316540828
 20
-5.6767957588
 10
402.7292323912
 20
-5.6683592221
  0
LWPOLYLINE
  5
447
100
AcDbEntity
  8
RACCORDO
100
AcDbPolyline
 62
253
  6
CONTINUOUS
 90
7
 70
0
 10
402.4062665458
 20
-5.5720355395
 10
402.402968194
 20
-5.5498690929
 10
402.4003807158
 20
-5.5267103978
 10
402.3985087882
 20
-5.5026083813
 10
402.3973671464
 20
-5.477900995
 10
402.3969620729
 20
-5.452748581
 10
402.3972913258
 20
-5.4271286741
  0
LINE
  5
448
100
AcDbEntity
  8
RACCORDO
100
AcDbLine
 62
253
  6
CONTINUOUS
 10
402.7227730313
 20
-4.3256074079
 11
402.7144803846
 21
-4.2650637633
  0
LWPOLYLINE
  5
449
100
AcDbEntity
  8
RACCORDO
100
AcDbPolyline
 62
7
  6
CONTINUOUS
 90
10
 70
0
 10
402.73070042
 20
-4.3838963856
 10
402.7171366732
 20
-4.2800392923
 10
402.6971412029
 20
-4.1478052199
 10
402.6741543571
 20
-4.0160626447
 10
402.648187984
 20
-3.8848782674
 10
402.6192559841
 20
-3.7543198459
 10
402.5873728799
 20
-3.6244529875
 10
402.5525541704
 20
-3.495340858
 10
402.5148180341
 20
-3.3670509906
 10
402.482501143
 20
-3.2649302812
  0
LINE
  5
44A
100
AcDbEntity
  8
RACCORDO
100
AcDbLine
 62
7
  6
CONTINUOUS
 10
402.7320199422
 20
-4.3953364418
 11
402.7306998667
 21
-4.3838964578
  0
LINE
  5
44B
100
AcDbEntity
  8
RACCORDO
100
AcDbLine
 62
7
  6
CONTINUOUS
 10
-1288.2620602423
 20
-5.7832455785
 11
-1288.2605711132
 21
-5.7978001092
  0
LINE
  5
44C
100
AcDbEntity
  8
RACCORDO
100
AcDbLine
 62
7
  6
CONTINUOUS
 10
-1288.2631638103
 20
-5.7704737326
 11
-1288.2619610995
 21
-5.7842946694
  0
LINE
  5
44D
100
AcDbEntity
  8
RACCORDO
100
AcDbLine
 62
7
  6
CONTINUOUS
 10
-1288.2640174664
 20
-5.7583807023
 11
-1288.263092625
 21
-5.771372396
  0
LINE
  5
44E
100
AcDbEntity
  8
RACCORDO
100
AcDbLine
 62
7
  6
CONTINUOUS
 10
-1287.9344700208
 20
-5.3879384254
 11
-1287.9337386161
 21
-5.4014808227
  0
LINE
  5
44F
100
AcDbEntity
  8
RACCORDO
100
AcDbLine
 62
7
  6
CONTINUOUS
 10
-1288.2646268591
 20
-5.7470395878
 11
-1288.2639701254
 21
-5.759136009
  0
LINE
  5
450
100
AcDbEntity
  8
RACCORDO
100
AcDbLine
 62
7
  6
CONTINUOUS
 10
-1287.9364402412
 20
-5.347851704
 11
-1287.9343432265
 21
-5.3903308347
  0
LINE
  5
451
100
AcDbEntity
  8
RACCORDO
100
AcDbLine
 62
7
  6
CONTINUOUS
 10
-1287.9337339179
 20
-5.4014805632
 11
-1287.9331248321
 21
-5.4148401199
  0
LINE
  5
452
100
AcDbEntity
  8
RACCORDO
100
AcDbLine
 62
7
  6
CONTINUOUS
 10
-1287.9381199734
 20
-5.30775189
 11
-1287.9363307989
 21
-5.3502446853
  0
LINE
  5
453
100
AcDbEntity
  8
RACCORDO
100
AcDbLine
 62
253
  6
CONTINUOUS
 10
-1287.9270379457
 20
-5.4011108503
 11
-1287.9259751128
 21
-5.4272103084
  0
LINE
  5
454
100
AcDbEntity
  8
RACCORDO
100
AcDbLine
 62
7
  6
CONTINUOUS
 10
-1287.9395091124
 20
-5.2676413439
 11
-1287.9380278778
 21
-5.3101454486
  0
LWPOLYLINE
  5
455
100
AcDbEntity
  8
RACCORDO
100
AcDbPolyline
 62
253
  6
CONTINUOUS
 90
13
 70
0
 10
-1288.258857357
 20
-5.7062559688
 10
-1288.2593185368
 20
-5.6923260346
 10
-1288.2578526027
 20
-5.6784668073
 10
-1288.254488032
 20
-5.6649475152
 10
-1288.2492901844
 20
-5.652030783
 10
-1288.242360033
 20
-5.6399675303
 10
-1288.2338322024
 20
-5.6289920967
 10
-1288.2238723536
 20
-5.6193176903
 10
-1288.2126739657
 20
-5.6111322453
 10
-1288.2004545779
 20
-5.6045947716
 10
-1288.1874515631
 20
-5.5998322655
 10
-1288.1739175167
 20
-5.5969372433
 10
-1288.1601153503
 20
-5.5959659434
  0
LWPOLYLINE
  5
456
100
AcDbEntity
  8
RACCORDO
100
AcDbPolyline
 62
253
  6
CONTINUOUS
 90
10
 70
0
 10
-1288.010680389
 20
-5.7062559635
 10
-1288.0111220413
 20
-5.6923260102
 10
-1288.0097182465
 20
-5.6784667619
 10
-1288.0064962745
 20
-5.6649474476
 10
-1288.0015187152
 20
-5.6520306928
 10
-1287.9948822625
 20
-5.6399674177
 10
-1287.9867158356
 20
-5.6289919627
 10
-1287.9771780751
 20
-5.6193175364
 10
-1287.966454261
 20
-5.6111320737
 10
-1287.9557883939
 20
-5.6051732048
  0
LINE
  5
457
100
AcDbEntity
  8
RACCORDO
100
AcDbLine
 62
7
  6
CONTINUOUS
 10
-1287.940607601
 20
-5.2275220272
 11
-1287.9394343629
 21
-5.2700354333
  0
LINE
  5
458
100
AcDbEntity
  8
RACCORDO
100
AcDbLine
 62
7
  6
CONTINUOUS
 10
-1287.9331569528
 20
-5.4135949287
 11
-1287.9325715719
 21
-5.4362878019
  0
LINE
  5
459
100
AcDbEntity
  8
RACCORDO
100
AcDbLine
 62
7
  6
CONTINUOUS
 10
-1287.9414153899
 20
-5.1873957614
 11
-1287.9405501991
 21
-5.229916582
  0
LINE
  5
45A
100
AcDbEntity
  8
RACCORDO
100
AcDbLine
 62
7
  6
CONTINUOUS
 10
-1287.9419324362
 20
-5.147264578
 11
-1287.9413753366
 21
-5.1897907311
  0
LWPOLYLINE
  5
45B
100
AcDbEntity
  8
RACCORDO
100
AcDbPolyline
 62
253
  6
CONTINUOUS
 90
7
 70
0
 10
-1287.9259751128
 20
-5.4272103084
 10
-1287.9256479068
 20
-5.4528954928
 10
-1287.9260571832
 20
-5.4780965041
 10
-1287.9272054138
 20
-5.5028306578
 10
-1287.9290860455
 20
-5.5269424246
 10
-1287.9316835765
 20
-5.5501084932
 10
-1287.9349940056
 20
-5.5722875529
  0
LINE
  5
45C
100
AcDbEntity
  8
RACCORDO
100
AcDbLine
 62
7
  6
CONTINUOUS
 10
-1287.9421587211
 20
-5.107130902
 11
-1287.9419097339
 21
-5.1496599382
  0
LWPOLYLINE
  5
45D
100
AcDbEntity
  8
RACCORDO
100
AcDbPolyline
 62
253
  6
CONTINUOUS
 90
10
 70
0
 10
-1287.935459097
 20
-5.0959657316
 10
-1287.9353553079
 20
-5.129876147
 10
-1287.9350438163
 20
-5.1637693089
 10
-1287.9345243871
 20
-5.1976622523
 10
-1287.9337955362
 20
-5.2316032025
 10
-1287.9328578046
 20
-5.265577925
 10
-1287.9317137715
 20
-5.2995092563
 10
-1287.9303636872
 20
-5.3333821285
 10
-1287.9288054613
 20
-5.3672439908
 10
-1287.9270379457
 20
-5.4011108503
  0
LINE
  5
45E
100
AcDbEntity
  8
0
100
AcDbLine
 62
253
  6
CONTINUOUS
 10
-1285.642727649
 20
-10.0634825101
 11
-1285.642727649
 21
-0.1284489531
  0
LINE
  5
45F
100
AcDbEntity
  8
0
100
AcDbLine
 62
7
  6
CONTINUOUS
 10
-1285.333465904
 20
42.4040342684
 11
-1285.333465904
 21
-52.5959657316
  0
LINE
  5
460
100
AcDbEntity
  8
0
100
AcDbLine
 62
253
  6
CONTINUOUS
 10
-1282.9903201535
 20
42.4040342684
 11
-1282.9903201535
 21
-52.5959657316
  0
LINE
  5
461
100
AcDbEntity
  8
0
100
AcDbLine
 62
7
  6
CONTINUOUS
 10
-1282.333465904
 20
45.4040342684
 11
-1282.333465904
 21
42.9040342684
  0
LINE
  5
462
100
AcDbEntity
  8
0
100
AcDbLine
 62
253
  6
CONTINUOUS
 10
-1282.333465904
 20
-55.5959657316
 11
-1282.333465904
 21
-53.0959657316
  0
LINE
  5
463
100
AcDbEntity
  8
0
100
AcDbLine
 62
7
  6
CONTINUOUS
 10
-1282.2832133723
 20
-53.0959657316
 11
-1282.2832133723
 21
-55.5959657316
  0
LINE
  5
464
100
AcDbEntity
  8
0
100
AcDbLine
 62
253
  6
CONTINUOUS
 10
-1281.333465904
 20
42.9040342684
 11
-1281.333465904
 21
42.4040342684
  0
LINE
  5
465
100
AcDbEntity
  8
0
100
AcDbLine
 62
253
  6
CONTINUOUS
 10
-1281.333465904
 20
-53.0959657316
 11
-1281.333465904
 21
-52.5959657316
  0
LINE
  5
466
100
AcDbEntity
  8
0
100
AcDbLine
 62
7
  6
CONTINUOUS
 10
-1273.333465904
 20
42.9040342684
 11
-1273.333465904
 21
42.4040342684
  0
LINE
  5
467
100
AcDbEntity
  8
0
100
AcDbLine
 62
7
  6
CONTINUOUS
 10
-1273.333465904
 20
-53.0959657316
 11
-1273.333465904
 21
-52.5959657316
  0
LINE
  5
468
100
AcDbEntity
  8
0
100
AcDbLine
 62
7
  6
CONTINUOUS
 10
-1271.6059009764
 20
-55.5959657316
 11
-1271.6059009764
 21
-53.0959657316
  0
LINE
  5
469
100
AcDbEntity
  8
0
100
AcDbLine
 62
7
  6
CONTINUOUS
 10
-1270.8545227882
 20
-55.5959657316
 11
-1270.8545227882
 21
-53.0959657316
  0
LINE
  5
46A
100
AcDbEntity
  8
0
100
AcDbLine
 62
7
  6
CONTINUOUS
 10
-1270.3331087703
 20
-55.5959657316
 11
-1270.3331087703
 21
-53.0959657316
  0
LINE
  5
46B
100
AcDbEntity
  8
0
100
AcDbLine
 62
253
  6
CONTINUOUS
 10
-1265.3126506238
 20
42.4040342684
 11
-1265.3126506238
 21
-52.5959657316
  0
LINE
  5
46C
100
AcDbEntity
  8
0
100
AcDbLine
 62
7
  6
CONTINUOUS
 10
-1262.333465904
 20
45.4040342684
 11
-1262.333465904
 21
42.9040342684
  0
LINE
  5
46D
100
AcDbEntity
  8
0
100
AcDbLine
 62
7
  6
CONTINUOUS
 10
-1261.833465904
 20
45.9040342684
 11
-1261.833465904
 21
55.6040342684
  0
LINE
  5
46E
100
AcDbEntity
  8
RACCORDO
100
AcDbLine
 62
7
  6
CONTINUOUS
 10
-1287.9421533738
 20
-5.0824048303
 11
-1287.9421533738
 21
-5.1095266329
  0
LWPOLYLINE
  5
46F
100
AcDbEntity
  8
RACCORDO
100
AcDbPolyline
 62
7
  6
CONTINUOUS
 90
10
 70
0
 10
-1287.9325715719
 20
-5.4362878019
 10
-1287.932630005
 20
-5.45839945
 10
-1287.9333101755
 20
-5.479684158
 10
-1287.9345647258
 20
-5.4998635386
 10
-1287.9363284261
 20
-5.5187780685
 10
-1287.9385374947
 20
-5.5362742684
 10
-1287.9410992143
 20
-5.5521259834
 10
-1287.943916344
 20
-5.5662566353
 10
-1287.9468873404
 20
-5.5786127641
 10
-1287.9498742276
 20
-5.5890583233
  0
LINE
  5
470
100
AcDbEntity
  8
RACCORDO
100
AcDbLine
 62
7
  6
CONTINUOUS
 10
-1287.9419097339
 20
-5.042271525
 11
-1287.9421587211
 21
-5.0848005611
  0
LINE
  5
471
100
AcDbEntity
  8
RACCORDO
100
AcDbLine
 62
7
  6
CONTINUOUS
 10
-1287.9413753366
 20
-5.002140732
 11
-1287.9419324362
 21
-5.0446668851
  0
LWPOLYLINE
  5
472
100
AcDbEntity
  8
RACCORDO
100
AcDbPolyline
 62
7
  6
CONTINUOUS
 90
7
 70
0
 10
-1288.2650014192
 20
-4.4554745028
 10
-1288.265146683
 20
-4.465292432
 10
-1288.2650672169
 20
-4.4744278723
 10
-1288.2647596866
 20
-4.4829509119
 10
-1288.2642088532
 20
-4.4909902156
 10
-1288.2633586565
 20
-4.4988920804
 10
-1288.2621139158
 20
-4.5068828129
  0
LINE
  5
473
100
AcDbEntity
  8
RACCORDO
100
AcDbLine
 62
7
  6
CONTINUOUS
 10
-1287.9405501991
 20
-4.9620148812
 11
-1287.9414153899
 21
-5.0045357018
  0
LWPOLYLINE
  5
474
100
AcDbEntity
  8
RACCORDO
100
AcDbPolyline
 62
7
  6
CONTINUOUS
 90
3
 70
0
 10
-1287.9325417092
 20
-4.7527746771
 10
-1287.9330483362
 20
-4.7754185135
 10
-1287.9337357324
 20
-4.7904506499
  0
LINE
  5
475
100
AcDbEntity
  8
RACCORDO
100
AcDbLine
 62
7
  6
CONTINUOUS
 10
-1287.9394343629
 20
-4.9218960298
 11
-1287.940607601
 21
-4.964409436
  0
LWPOLYLINE
  5
476
100
AcDbEntity
  8
RACCORDO
100
AcDbPolyline
 62
253
  6
CONTINUOUS
 90
10
 70
0
 10
-1288.0106764037
 20
-4.4856759338
 10
-1288.0111192541
 20
-4.4996062188
 10
-1288.0097165036
 20
-4.5134659591
 10
-1288.0064954053
 20
-4.5269858846
 10
-1288.0015185391
 20
-4.5399033274
 10
-1287.9948825968
 20
-4.5519673248
 10
-1287.9867165027
 20
-4.5629434949
 10
-1287.9771789094
 20
-4.5726185905
 10
-1287.9664551152
 20
-4.5808046416
 10
-1287.9557686214
 20
-4.5867754177
  0
LWPOLYLINE
  5
477
100
AcDbEntity
  8
RACCORDO
100
AcDbPolyline
 62
253
  6
CONTINUOUS
 90
10
 70
0
 10
-1288.2588573403
 20
-4.4856754961
 10
-1288.259318538
 20
-4.4996054526
 10
-1288.2578526188
 20
-4.513464704
 10
-1288.2544880596
 20
-4.5269840212
 10
-1288.2492902202
 20
-4.5399007786
 10
-1288.2423600736
 20
-4.5519640558
 10
-1288.2338322443
 20
-4.5629395121
 10
-1288.2238723938
 20
-4.5726139389
 10
-1288.2126740015
 20
-4.5807994012
 10
-1288.200454607
 20
-4.5873368885
  0
LINE
  5
478
100
AcDbEntity
  8
RACCORDO
100
AcDbLine
 62
7
  6
CONTINUOUS
 10
-1287.9380278778
 20
-4.8817860146
 11
-1287.9395091124
 21
-4.9242901193
  0
LINE
  5
479
100
AcDbEntity
  8
RACCORDO
100
AcDbLine
 62
7
  6
CONTINUOUS
 10
-1288.2645988545
 20
-4.4442708754
 11
-1288.2649883215
 21
-4.4549798067
  0
LINE
  5
47A
100
AcDbEntity
  8
RACCORDO
100
AcDbLine
 62
253
  6
CONTINUOUS
 10
-1287.9259752244
 20
-4.764802789
 11
-1287.9270379457
 21
-4.7908206128
  0
LINE
  5
47B
100
AcDbEntity
  8
RACCORDO
100
AcDbLine
 62
7
  6
CONTINUOUS
 10
-1287.9363307989
 20
-4.8416867779
 11
-1287.9381199734
 21
-4.8841795731
  0
LINE
  5
47C
100
AcDbEntity
  8
RACCORDO
100
AcDbLine
 62
7
  6
CONTINUOUS
 10
-1287.9343432265
 20
-4.8016006285
 11
-1287.9364402412
 21
-4.8440797592
  0
LWPOLYLINE
  5
47D
100
AcDbEntity
  8
RACCORDO
100
AcDbPolyline
 62
253
  6
CONTINUOUS
 90
10
 70
0
 10
-1287.9270379457
 20
-4.7908206128
 10
-1287.9288054807
 20
-4.8246879557
 10
-1287.9303637191
 20
-4.8585501566
 10
-1287.931713809
 20
-4.8924232232
 10
-1287.9328578383
 20
-4.9263545757
 10
-1287.9337955592
 20
-4.960329177
 10
-1287.9345244007
 20
-4.9942699543
 10
-1287.9350438242
 20
-5.0281627023
 10
-1287.9353553113
 20
-5.0620556165
 10
-1287.935459097
 20
-5.0959657316
  0
LINE
  5
47E
100
AcDbEntity
  8
RACCORDO
100
AcDbLine
 62
7
  6
CONTINUOUS
 10
-1287.9337386161
 20
-4.7904506405
 11
-1287.9344700208
 21
-4.8039930378
  0
LINE
  5
47F
100
AcDbEntity
  8
RACCORDO
100
AcDbLine
 62
7
  6
CONTINUOUS
 10
-1288.2639701254
 20
-4.4327954541
 11
-1288.2646268591
 21
-4.4448918753
  0
LINE
  5
480
100
AcDbEntity
  8
RACCORDO
100
AcDbLine
 62
7
  6
CONTINUOUS
 10
-1288.263092625
 20
-4.4205590672
 11
-1288.2640174664
 21
-4.4335507608
  0
LINE
  5
481
100
AcDbEntity
  8
RACCORDO
100
AcDbLine
 62
7
  6
CONTINUOUS
 10
-1288.2619610995
 20
-4.4076367937
 11
-1288.2631638103
 21
-4.4214577305
  0
LWPOLYLINE
  5
482
100
AcDbEntity
  8
RACCORDO
100
AcDbPolyline
 62
253
  6
CONTINUOUS
 90
20
 70
0
 10
-1288.2609455097
 20
-4.4029569071
 10
-1288.2617837175
 20
-4.4119676318
 10
-1288.2624906462
 20
-4.4207902519
 10
-1288.2630653428
 20
-4.4293263788
 10
-1288.2635009189
 20
-4.4372416
 10
-1288.2637865364
 20
-4.4444604544
 10
-1288.2639351979
 20
-4.4510913403
 10
-1288.2639751891
 20
-4.4570626819
 10
-1288.2639042655
 20
-4.4623279677
 10
-1288.2637245991
 20
-4.4669475908
 10
-1288.2634707601
 20
-4.4709942747
 10
-1288.263144142
 20
-4.4744496971
 10
-1288.2627424445
 20
-4.477330492
 10
-1288.262294901
 20
-4.4797514501
 10
-1288.2618047048
 20
-4.4817055225
 10
-1288.261267808
 20
-4.483190013
 10
-1288.2607029814
 20
-4.4843223049
 10
-1288.2601163731
 20
-4.4851378457
 10
-1288.2595012739
 20
-4.4855906463
 10
-1288.2588573592
 20
-4.4856754941
  0
LINE
  5
483
100
AcDbEntity
  8
RACCORDO
100
AcDbLine
 62
7
  6
CONTINUOUS
 10
-1288.2605711132
 20
-4.3941313539
 11
-1288.2620602423
 21
-4.4086858846
  0
LWPOLYLINE
  5
484
100
AcDbEntity
  8
RACCORDO
100
AcDbPolyline
 62
7
  6
CONTINUOUS
 90
7
 70
0
 10
-1288.2633640909
 20
-5.6930821314
 10
-1288.2642190569
 20
-5.7010573003
 10
-1288.2647693303
 20
-5.7091715406
 10
-1288.2650731148
 20
-5.7177797354
 10
-1288.2651453293
 20
-5.727015672
 10
-1288.2649883215
 20
-5.7369516564
 10
-1288.2645988545
 20
-5.7476605877
  0
LINE
  5
485
100
AcDbEntity
  8
RACCORDO
100
AcDbLine
 62
7
  6
CONTINUOUS
 10
-1288.2593837654
 20
-4.3838964578
 11
-1288.2607038409
 21
-4.3953364418
  0
LINE
  5
486
100
AcDbEntity
  8
RACCORDO
100
AcDbLine
 62
253
  6
CONTINUOUS
 10
-1288.2432386669
 20
-4.2655731508
 11
-1288.2514971096
 21
-4.3258942843
  0
LINE
  5
487
100
AcDbEntity
  8
RACCORDO
100
AcDbLine
 62
253
  6
CONTINUOUS
 10
-1288.2237213419
 20
-4.1382256676
 11
-1288.2340050685
 21
-4.2029865079
  0
LINE
  5
488
100
AcDbEntity
  8
RACCORDO
100
AcDbLine
 62
7
  6
CONTINUOUS
 10
-1287.9322057103
 20
-2.993708988
 11
-1287.9326619159
 21
-2.9964762496
  0
LINE
  5
489
100
AcDbEntity
  8
RACCORDO
100
AcDbLine
 62
253
  6
CONTINUOUS
 10
-1288.1996118248
 20
-4.00173348
 11
-1288.2122948271
 21
-4.0712206856
  0
LWPOLYLINE
  5
48A
100
AcDbEntity
  8
RACCORDO
100
AcDbPolyline
 62
7
  6
CONTINUOUS
 90
8
 70
0
 10
-1287.9326619159
 20
-2.9964762496
 10
-1287.9329856768
 20
-2.998213306
 10
-1287.9334583216
 20
-3.0006014657
 10
-1287.9340554071
 20
-3.0034688901
 10
-1287.9347581827
 20
-3.0066982914
 10
-1287.9355614964
 20
-3.0102524602
 10
-1287.9364740166
 20
-3.014159024
 10
-1287.9374923476
 20
-3.0183945982
  0
LINE
  5
48B
100
AcDbEntity
  8
RACCORDO
100
AcDbLine
 62
253
  6
CONTINUOUS
 10
-1287.9349940056
 20
-5.5722875529
 11
-1287.9390059532
 21
-5.5934013455
  0
LINE
  5
48C
100
AcDbEntity
  8
RACCORDO
100
AcDbLine
 62
253
  6
CONTINUOUS
 10
-1287.9390059532
 20
-5.5934013455
 11
-1287.943690374
 21
-5.613088017
  0
LINE
  5
48D
100
AcDbEntity
  8
RACCORDO
100
AcDbLine
 62
7
  6
CONTINUOUS
 10
-1287.9374923476
 20
-3.0183945982
 11
-1287.9388140518
 21
-3.023733203
  0
LWPOLYLINE
  5
48E
100
AcDbEntity
  8
RACCORDO
100
AcDbPolyline
 62
253
  6
CONTINUOUS
 90
5
 70
0
 10
-1288.1137073245
 20
-3.6174882759
 10
-1288.1342418032
 20
-3.6991747285
 10
-1288.1529818303
 20
-3.7784718581
 10
-1288.1700557177
 20
-3.8553660693
 10
-1288.1855640782
 20
-3.9297550637
  0
LINE
  5
48F
100
AcDbEntity
  8
RACCORDO
100
AcDbLine
 62
7
  6
CONTINUOUS
 10
-1287.9386169378
 20
-3.0229554521
 11
-1287.940067079
 21
-3.0286938713
  0
LINE
  5
490
100
AcDbEntity
  8
RACCORDO
100
AcDbLine
 62
7
  6
CONTINUOUS
 10
-1287.9398475274
 20
-3.0278371766
 11
-1287.9426096751
 21
-3.0384936115
  0
LINE
  5
491
100
AcDbEntity
  8
RACCORDO
100
AcDbLine
 62
7
  6
CONTINUOUS
 10
-1287.9414195352
 20
-3.0339487519
 11
-1287.9444196758
 21
-3.0453099618
  0
LWPOLYLINE
  5
492
100
AcDbEntity
  8
RACCORDO
100
AcDbPolyline
 62
253
  6
CONTINUOUS
 90
6
 70
0
 10
-1287.9390217314
 20
-3.0282082143
 10
-1287.9437011914
 20
-3.045640116
 10
-1287.9490467566
 20
-3.0648560902
 10
-1287.9550296909
 20
-3.085773891
 10
-1287.9615640747
 20
-3.108056221
 10
-1287.9646958714
 20
-3.1164806049
  0
LINE
  5
493
100
AcDbEntity
  8
RACCORDO
100
AcDbLine
 62
7
  6
CONTINUOUS
 10
-1287.944140348
 20
-3.0442602543
 11
-1287.9478175411
 21
-3.0577987644
  0
LINE
  5
494
100
AcDbEntity
  8
RACCORDO
100
AcDbLine
 62
7
  6
CONTINUOUS
 10
-1287.9474932917
 20
-3.0566206063
 11
-1287.9516066471
 21
-3.0713778349
  0
LINE
  5
495
100
AcDbEntity
  8
RACCORDO
100
AcDbLine
 62
7
  6
CONTINUOUS
 10
-1287.9512330572
 20
-3.0700573334
 11
-1287.9557755615
 21
-3.0860075555
  0
LINE
  5
496
100
AcDbEntity
  8
RACCORDO
100
AcDbLine
 62
7
  6
CONTINUOUS
 10
-1287.9553556091
 20
-3.0845453696
 11
-1287.9603135111
 21
-3.1016364529
  0
LWPOLYLINE
  5
497
100
AcDbEntity
  8
RACCORDO
100
AcDbPolyline
 62
253
  6
CONTINUOUS
 90
10
 70
0
 10
-1287.943690374
 20
-5.613088017
 10
-1287.949054148
 20
-5.6313449005
 10
-1287.9550642443
 20
-5.6480893401
 10
-1287.9616310268
 20
-5.6628748232
 10
-1287.9687515112
 20
-5.6756925734
 10
-1287.9763961133
 20
-5.6865355938
 10
-1287.9844382009
 20
-5.6950150786
 10
-1287.9928261349
 20
-5.7010363613
 10
-1288.0015795106
 20
-5.7047692507
 10
-1288.0106804401
 20
-5.706255969
  0
LINE
  5
498
100
AcDbEntity
  8
RACCORDO
100
AcDbLine
 62
7
  6
CONTINUOUS
 10
-1287.95984656
 20
-3.1000356663
 11
-1287.9652121925
 21
-3.1182169347
  0
LWPOLYLINE
  5
499
100
AcDbEntity
  8
RACCORDO
100
AcDbPolyline
 62
253
  6
CONTINUOUS
 90
3
 70
0
 10
-1287.9677944055
 20
-3.1268520239
 10
-1287.9686344898
 20
-3.1316666589
 10
-1287.9704622461
 20
-3.1357063601
  0
LWPOLYLINE
  5
49A
100
AcDbEntity
  8
RACCORDO
100
AcDbPolyline
 62
253
  6
CONTINUOUS
 90
3
 70
0
 10
-1288.0398390682
 20
-3.3568688734
 10
-1288.066639512
 20
-3.4462621178
 10
-1288.0912210113
 20
-3.5331924423
  0
LINE
  5
49B
100
AcDbEntity
  8
RACCORDO
100
AcDbLine
 62
7
  6
CONTINUOUS
 10
-1287.9646958714
 20
-3.1164806049
 11
-1287.9726203171
 21
-3.1428297077
  0
LWPOLYLINE
  5
49C
100
AcDbEntity
  8
RACCORDO
100
AcDbPolyline
 62
253
  6
CONTINUOUS
 90
3
 70
0
 10
-1287.9732132131
 20
-3.1447720748
 10
-1287.9762245167
 20
-3.1565703798
 10
-1287.9783143417
 20
-3.1614308182
  0
LINE
  5
49D
100
AcDbEntity
  8
RACCORDO
100
AcDbLine
 62
7
  6
CONTINUOUS
 10
-1287.9704622461
 20
-3.1357063601
 11
-1287.9789546631
 21
-3.1635046139
  0
LWPOLYLINE
  5
49E
100
AcDbEntity
  8
RACCORDO
100
AcDbPolyline
 62
253
  6
CONTINUOUS
 90
3
 70
0
 10
-1287.9819420269
 20
-3.1731592317
 10
-1287.9842483139
 20
-3.1824222226
 10
-1287.9874266561
 20
-3.1907329835
  0
LWPOLYLINE
  5
49F
100
AcDbEntity
  8
RACCORDO
100
AcDbPolyline
 62
253
  6
CONTINUOUS
 90
5
 70
0
 10
-1287.9270305351
 20
-2.9599527665
 10
-1287.9308905018
 20
-2.9722804399
 10
-1287.9331313161
 20
-2.9850036716
 10
-1287.9337155723
 20
-2.9979100731
 10
-1287.9334804373
 20
-3.0007076736
  0
LINE
  5
4A0
100
AcDbEntity
  8
RACCORDO
100
AcDbLine
 62
7
  6
CONTINUOUS
 10
-1287.9783143417
 20
-3.1614308182
 11
-1287.98813924
 21
-3.193004703
  0
LWPOLYLINE
  5
4A1
100
AcDbEntity
  8
RACCORDO
100
AcDbPolyline
 62
253
  6
CONTINUOUS
 90
3
 70
0
 10
-1287.9913454531
 20
-3.2031817778
 10
-1287.9926664597
 20
-3.2090876104
 10
-1287.997172083
 20
-3.221525683
  0
LWPOLYLINE
  5
4A2
100
AcDbEntity
  8
RACCORDO
100
AcDbPolyline
 62
7
  6
CONTINUOUS
 90
10
 70
0
 10
-1288.0111850138
 20
-3.2649302881
 10
-1288.0427999802
 20
-3.3647624681
 10
-1288.0805891291
 20
-3.493040317
 10
-1288.1154606006
 20
-3.6221401882
 10
-1288.147396536
 20
-3.7519952386
 10
-1288.1763814067
 20
-3.8825421573
 10
-1288.2024006686
 20
-4.0137149856
 10
-1288.225440472
 20
-4.1454460331
 10
-1288.2454890386
 20
-4.2776686047
 10
-1288.2593843312
 20
-4.3838964416
  0
LINE
  5
4A3
100
AcDbEntity
  8
RACCORDO
100
AcDbLine
 62
7
  6
CONTINUOUS
 10
-1287.9874266561
 20
-3.1907329835
 11
-1287.997960061
 21
-3.2239988036
  0
LINE
  5
4A4
100
AcDbEntity
  8
RACCORDO
100
AcDbLine
 62
253
  6
CONTINUOUS
 10
-1288.0005499174
 20
-3.2320804051
 11
-1288.0014836113
 21
-3.2366499601
  0
LINE
  5
4A5
100
AcDbEntity
  8
RACCORDO
100
AcDbLine
 62
7
  6
CONTINUOUS
 10
-1287.997172083
 20
-3.221525683
 11
-1288.0074815711
 21
-3.2535617811
  0
LINE
  5
4A6
100
AcDbEntity
  8
RACCORDO
100
AcDbLine
 62
7
  6
CONTINUOUS
 10
-1288.0074815711
 20
-3.2535617811
 11
-1288.0111816784
 21
-3.2649313767
  0
LWPOLYLINE
  5
4A7
100
AcDbEntity
  8
RACCORDO
100
AcDbPolyline
 62
7
  6
CONTINUOUS
 90
6
 70
0
 10
-1287.9498742276
 20
-5.5890583233
 10
-1287.9527578386
 20
-5.5976228254
 10
-1287.9554069042
 20
-5.6043436908
 10
-1287.9576213611
 20
-5.6091588231
 10
-1287.9592398031
 20
-5.6121828935
 10
-1287.9594811944
 20
-5.6125915448
  0
LWPOLYLINE
  5
4A8
100
AcDbEntity
  8
RACCORDO
100
AcDbPolyline
 62
7
  6
CONTINUOUS
 90
13
 70
0
 10
-1288.2579162899
 20
-4.5235722411
 10
-1288.2546120943
 20
-4.5324233383
 10
-1288.2502857051
 20
-4.5414929128
 10
-1288.2450426376
 20
-4.5502501098
 10
-1288.2389868708
 20
-4.558442719
 10
-1288.2320066426
 20
-4.5661526437
 10
-1288.2240328453
 20
-4.5733224345
 10
-1288.2150982551
 20
-4.5797830539
 10
-1288.2052226881
 20
-4.5853886532
 10
-1288.194318256
 20
-4.5900266278
 10
-1288.1824123352
 20
-4.5934850751
 10
-1288.1696800432
 20
-4.5955137241
 10
-1288.160110567
 20
-4.5959656475
  0
LWPOLYLINE
  5
4A9
100
AcDbEntity
  8
RACCORDO
100
AcDbPolyline
 62
7
  6
CONTINUOUS
 90
11
 70
0
 10
-1287.9529954358
 20
-4.5936636879
 10
-1287.9501426116
 20
-4.6020185414
 10
-1287.9471753578
 20
-4.612230807
 10
-1287.9442131594
 20
-4.6243319901
 10
-1287.9413942663
 20
-4.6381938093
 10
-1287.9388137715
 20
-4.6537728893
 10
-1287.9365665873
 20
-4.6710052436
 10
-1287.9347530279
 20
-4.6896815266
 10
-1287.9334390605
 20
-4.7096546659
 10
-1287.9326821826
 20
-4.7307741903
 10
-1287.9325417092
 20
-4.7527746771
  0
LINE
  5
4AA
100
AcDbEntity
  8
RACCORDO
100
AcDbLine
 62
7
  6
CONTINUOUS
 10
-1288.0111816603
 20
-6.9270000782
 11
-1288.0013620657
 21
-6.9573152784
  0
LINE
  5
4AB
100
AcDbEntity
  8
RACCORDO
100
AcDbLine
 62
253
  6
CONTINUOUS
 10
-1288.0014231284
 20
-6.955477379
 11
-1288.0013620657
 21
-6.9573152784
  0
LINE
  5
4AC
100
AcDbEntity
  8
RACCORDO
100
AcDbLine
 62
253
  6
CONTINUOUS
 10
-1287.9979575574
 20
-6.9679404953
 11
-1287.9925632569
 21
-6.9831755506
  0
LINE
  5
4AD
100
AcDbEntity
  8
RACCORDO
100
AcDbLine
 62
7
  6
CONTINUOUS
 10
-1288.0013620657
 20
-6.9573152784
 11
-1287.9913406905
 21
-6.9887647595
  0
LWPOLYLINE
  5
4AE
100
AcDbEntity
  8
RACCORDO
100
AcDbPolyline
 62
253
  6
CONTINUOUS
 90
5
 70
0
 10
-1287.9270379191
 20
-7.2319815524
 10
-1287.9308967558
 20
-7.2196539313
 10
-1287.9331365017
 20
-7.2069309393
 10
-1287.9337197742
 20
-7.1940249311
 10
-1287.9334824095
 20
-7.1912032116
  0
LINE
  5
4AF
100
AcDbEntity
  8
RACCORDO
100
AcDbLine
 62
7
  6
CONTINUOUS
 10
-1287.9913406905
 20
-6.9887647595
 11
-1287.9819333355
 21
-7.0188002343
  0
LINE
  5
4B0
100
AcDbEntity
  8
RACCORDO
100
AcDbLine
 62
7
  6
CONTINUOUS
 10
-1287.9819333355
 20
-7.0188002343
 11
-1287.973200511
 21
-7.047201107
  0
LWPOLYLINE
  5
4B1
100
AcDbEntity
  8
RACCORDO
100
AcDbPolyline
 62
253
  6
CONTINUOUS
 90
6
 70
0
 10
-1287.9627009896
 20
-7.0821795646
 10
-1287.9614828893
 20
-7.0841493232
 10
-1287.9549643008
 20
-7.1063830145
 10
-1287.9489970164
 20
-7.1272513416
 10
-1287.943665211
 20
-7.1464229218
 10
-1287.9389968369
 20
-7.1638184502
  0
LINE
  5
4B2
100
AcDbEntity
  8
RACCORDO
100
AcDbLine
 62
7
  6
CONTINUOUS
 10
-1287.973200511
 20
-7.047201107
 11
-1287.9651960245
 21
-7.07376881
  0
LINE
  5
4B3
100
AcDbEntity
  8
RACCORDO
100
AcDbLine
 62
7
  6
CONTINUOUS
 10
-1287.9651960245
 20
-7.07376881
 11
-1287.960295595
 21
-7.0903561737
  0
LINE
  5
4B4
100
AcDbEntity
  8
RACCORDO
100
AcDbLine
 62
7
  6
CONTINUOUS
 10
-1287.960295595
 20
-7.0903561737
 11
-1287.9557564859
 21
-7.105990219
  0
LINE
  5
4B5
100
AcDbEntity
  8
RACCORDO
100
AcDbLine
 62
7
  6
CONTINUOUS
 10
-1287.9557564859
 20
-7.105990219
 11
-1287.9515870539
 21
-7.120623082
  0
LWPOLYLINE
  5
4B6
100
AcDbEntity
  8
RACCORDO
100
AcDbPolyline
 62
253
  6
CONTINUOUS
 90
3
 70
0
 10
-1288.0909810125
 20
-6.6596123579
 10
-1288.0664371116
 20
-6.7463696623
 10
-1288.0397148782
 20
-6.8354716347
  0
LINE
  5
4B7
100
AcDbEntity
  8
RACCORDO
100
AcDbLine
 62
7
  6
CONTINUOUS
 10
-1287.9515870539
 20
-7.120623082
 11
-1287.9477981871
 21
-7.1342029063
  0
LINE
  5
4B8
100
AcDbEntity
  8
RACCORDO
100
AcDbLine
 62
7
  6
CONTINUOUS
 10
-1287.9477981871
 20
-7.1342029063
 11
-1287.9444013
 21
-7.1466900288
  0
LWPOLYLINE
  5
4B9
100
AcDbEntity
  8
RACCORDO
100
AcDbPolyline
 62
7
  6
CONTINUOUS
 90
4
 70
0
 10
-1287.9444013
 20
-7.1466900288
 10
-1287.9414027995
 20
-7.1580471719
 10
-1287.9400513865
 20
-7.1632991372
 10
-1287.9387995317
 20
-7.168256328
  0
LWPOLYLINE
  5
4BA
100
AcDbEntity
  8
RACCORDO
100
AcDbPolyline
 62
253
  6
CONTINUOUS
 90
9
 70
0
 10
-1287.9389968369
 20
-7.1638184502
 10
-1287.9349894792
 20
-7.1794490604
 10
-1287.9316811304
 20
-7.1931359059
 10
-1287.9290852488
 20
-7.2048368757
 10
-1287.9272037077
 20
-7.2145396797
 10
-1287.9260548178
 20
-7.2221295464
 10
-1287.9256460771
 20
-7.2275617968
 10
-1287.9259740722
 20
-7.2308508368
 10
-1287.9270379457
 20
-7.2319815627
  0
LWPOLYLINE
  5
4BB
100
AcDbEntity
  8
RACCORDO
100
AcDbPolyline
 62
7
  6
CONTINUOUS
 90
10
 70
0
 10
-1287.9387995317
 20
-7.168256328
 10
-1287.9376530299
 20
-7.1728902945
 10
-1287.9366120668
 20
-7.1771985784
 10
-1287.9356773116
 20
-7.1811760718
 10
-1287.9348554042
 20
-7.1847881292
 10
-1287.9341411186
 20
-7.1880476272
 10
-1287.9335361945
 20
-7.1909330107
 10
-1287.9330526741
 20
-7.1933620836
 10
-1287.9326759691
 20
-7.1953741048
 10
-1287.9325972743
 20
-7.1958141951
  0
LINE
  5
4BC
100
AcDbEntity
  8
RACCORDO
100
AcDbLine
 62
253
  6
CONTINUOUS
 10
-1287.9436217892
 20
-4.5791037722
 11
-1287.9389490596
 21
-4.59879193
  0
LWPOLYLINE
  5
4BD
100
AcDbEntity
  8
RACCORDO
100
AcDbPolyline
 62
253
  6
CONTINUOUS
 90
3
 70
0
 10
-1288.1528239907
 20
-6.4141483167
 10
-1288.134051669
 20
-6.4935330305
 10
-1288.1134773939
 20
-6.5753263512
  0
LWPOLYLINE
  5
4BE
100
AcDbEntity
  8
RACCORDO
100
AcDbPolyline
 62
7
  6
CONTINUOUS
 90
3
 70
0
 10
-1288.2621058818
 20
-4.5069259266
 10
-1288.2603379815
 20
-4.5151357043
 10
-1288.2579162899
 20
-4.5235722411
  0
LINE
  5
4BF
100
AcDbEntity
  8
RACCORDO
100
AcDbLine
 62
253
  6
CONTINUOUS
 10
-1288.1854288954
 20
-6.2628470471
 11
-1288.1699116312
 21
-6.3372359302
  0
LINE
  5
4C0
100
AcDbEntity
  8
RACCORDO
100
AcDbLine
 62
253
  6
CONTINUOUS
 10
-1287.9389490596
 20
-4.59879193
 11
-1287.9349504445
 21
-4.6198959237
  0
LINE
  5
4C1
100
AcDbEntity
  8
RACCORDO
100
AcDbLine
 62
253
  6
CONTINUOUS
 10
-1288.2121732261
 20
-6.1214047349
 11
-1288.1994850166
 21
-6.1908695611
  0
LINE
  5
4C2
100
AcDbEntity
  8
RACCORDO
100
AcDbLine
 62
253
  6
CONTINUOUS
 10
-1288.2339035557
 20
-5.9896076002
 11
-1288.2236046998
 21
-6.0544225067
  0
LWPOLYLINE
  5
4C3
100
AcDbEntity
  8
RACCORDO
100
AcDbPolyline
 62
253
  6
CONTINUOUS
 90
7
 70
0
 10
-1287.9349504445
 20
-4.6198959237
 10
-1287.9316520926
 20
-4.6420623703
 10
-1287.9290646145
 20
-4.6652210654
 10
-1287.9271926869
 20
-4.6893230819
 10
-1287.9260510451
 20
-4.7140304681
 10
-1287.9256459716
 20
-4.7391828821
 10
-1287.9259752244
 20
-4.764802789
  0
LINE
  5
4C4
100
AcDbEntity
  8
RACCORDO
100
AcDbLine
 62
253
  6
CONTINUOUS
 10
-1288.25145693
 20
-5.8663240552
 11
-1288.2431642833
 21
-5.9268676998
  0
LWPOLYLINE
  5
4C5
100
AcDbEntity
  8
RACCORDO
100
AcDbPolyline
 62
7
  6
CONTINUOUS
 90
10
 70
0
 10
-1288.2593843186
 20
-5.8080350775
 10
-1288.2458205719
 20
-5.9118921708
 10
-1288.2258251016
 20
-6.0441262433
 10
-1288.2028382558
 20
-6.1758688184
 10
-1288.1768718827
 20
-6.3070531957
 10
-1288.1479398828
 20
-6.4376116173
 10
-1288.1160567786
 20
-6.5674784757
 10
-1288.0812380691
 20
-6.6965906051
 10
-1288.0435019328
 20
-6.8248804725
 10
-1288.0111850417
 20
-6.927001182
  0
LINE
  5
4C6
100
AcDbEntity
  8
RACCORDO
100
AcDbLine
 62
7
  6
CONTINUOUS
 10
-1288.2607038409
 20
-5.7965950214
 11
-1288.2593837654
 21
-5.8080350054
  0
LINE
  5
4C7
100
AcDbEntity
  8
0
100
AcDbLine
 62
253
  6
CONTINUOUS
 10
-1259.6557963744
 20
9.4040342684
 11
-1259.6557963744
 21
-52.5959657316
  0
LINE
  5
4C8
100
AcDbEntity
  8
0
100
AcDbLine
 62
7
  6
CONTINUOUS
 10
-1259.6557963744
 20
-52.5959657316
 11
-1259.6557963744
 21
-55.5959657316
  0
LINE
  5
4C9
100
AcDbEntity
  8
0
100
AcDbLine
 62
7
  6
CONTINUOUS
 10
-1259.6557963744
 20
9.4040342684
 11
-1259.6557963744
 21
42.4040342684
  0
LINE
  5
4CA
100
AcDbEntity
  8
0
100
AcDbLine
 62
7
  6
CONTINUOUS
 10
-1259.333465904
 20
45.9040342684
 11
-1259.333465904
 21
55.6040342684
  0
LWPOLYLINE
  5
4CB
100
AcDbEntity
  8
RACCORDO
100
AcDbPolyline
 62
7
  6
CONTINUOUS
 90
11
 70
0
 10
-1288.2504940291
 20
-4.5411023567
 10
-1288.2453466834
 20
-4.5497912556
 10
-1288.239400696
 20
-4.5579331687
 10
-1288.2325451753
 20
-4.5656107618
 10
-1288.2247120932
 20
-4.5727682076
 10
-1288.2159323459
 20
-4.5792403291
 10
-1288.2062219977
 20
-4.584886304
 10
-1288.1954906357
 20
-4.5895990141
 10
-1288.1837603306
 20
-4.5931719521
 10
-1288.1711979822
 20
-4.5953585217
 10
-1288.1601149787
 20
-4.5959655165
  0
LINE
  5
4CC
100
AcDbEntity
  8
0
100
AcDbLine
 62
7
  6
CONTINUOUS
 10
-1215.6557963744
 20
45.4040342684
 11
-1215.6557963744
 21
55.6040342684
  0
LWPOLYLINE
  5
4CD
100
AcDbEntity
  8
RACCORDO
100
AcDbPolyline
 62
7
  6
CONTINUOUS
 90
7
 70
0
 10
-1287.9588014738
 20
-4.57981242
 10
-1287.9599667904
 20
-4.5785128886
 10
-1287.9601395205
 20
-4.5783030314
 10
-1287.9593327016
 20
-4.5795886523
 10
-1287.9577725742
 20
-4.5824703744
 10
-1287.9556054031
 20
-4.5871260556
 10
-1287.9529954358
 20
-4.5936636879
  0
LWPOLYLINE
  5
4CE
100
AcDbEntity
  8
RACCORDO
100
AcDbPolyline
 62
253
  6
CONTINUOUS
 90
22
 70
0
 10
-1157.9437561415
 20
-5.8079710086
 10
-1157.9442689022
 20
-5.7983058826
 10
-1157.9455794624
 20
-5.788974556
 10
-1157.947688401
 20
-5.7799638314
 10
-1157.9506987082
 20
-5.7711412112
 10
-1157.9545091384
 20
-5.7626050843
 10
-1157.9588296228
 20
-5.7546898632
 10
-1157.9636961465
 20
-5.7474710088
 10
-1157.96911018
 20
-5.7408401228
 10
-1157.9747464361
 20
-5.7348687813
 10
-1157.9805921773
 20
-5.7296034954
 10
-1157.9866974861
 20
-5.7249838724
 10
-1157.9928303329
 20
-5.7209371884
 10
-1157.9989709401
 20
-5.717481766
 10
-1158.0051635051
 20
-5.7146009712
 10
-1158.0112654592
 20
-5.712180013
 10
-1158.0172503286
 20
-5.7102259407
 10
-1158.0231570277
 20
-5.7087414501
 10
-1158.0289355881
 20
-5.7076091582
 10
-1158.0345703345
 20
-5.7067936174
 10
-1158.0400816366
 20
-5.7063408168
 10
-1158.0454711811
 20
-5.706255969
  0
LWPOLYLINE
  5
4CF
100
AcDbEntity
  8
RACCORDO
100
AcDbPolyline
 62
253
  6
CONTINUOUS
 90
22
 70
0
 10
-1156.7231756666
 20
-4.3839604545
 10
-1156.7226629059
 20
-4.3936255806
 10
-1156.7213523457
 20
-4.4029569071
 10
-1156.719243407
 20
-4.4119676318
 10
-1156.7162330998
 20
-4.4207902519
 10
-1156.7124226697
 20
-4.4293263788
 10
-1156.7081021852
 20
-4.4372416
 10
-1156.7032356615
 20
-4.4444604544
 10
-1156.697821628
 20
-4.4510913403
 10
-1156.6921853719
 20
-4.4570626819
 10
-1156.6863396308
 20
-4.4623279677
 10
-1156.680234322
 20
-4.4669475908
 10
-1156.6741014751
 20
-4.4709942747
 10
-1156.667960868
 20
-4.4744496971
 10
-1156.6617683029
 20
-4.477330492
 10
-1156.6556663488
 20
-4.4797514501
 10
-1156.6496814795
 20
-4.4817055225
 10
-1156.6437747803
 20
-4.483190013
 10
-1156.63799622
 20
-4.4843223049
 10
-1156.6323614735
 20
-4.4851378457
 10
-1156.6268501714
 20
-4.4855906463
 10
-1156.621460627
 20
-4.4856754941
  0
LWPOLYLINE
  5
4D0
100
AcDbEntity
  8
RACCORDO
100
AcDbPolyline
 62
253
  6
CONTINUOUS
 90
16
 70
0
 10
-1157.6386106136
 20
-7.2319786967
 10
-1157.6388237664
 20
-7.2196510233
 10
-1157.6389474912
 20
-7.2069277916
 10
-1157.6389797224
 20
-7.19402139
 10
-1157.6389199217
 20
-7.1811472648
 10
-1157.6387690869
 20
-7.1685203232
 10
-1157.6385297355
 20
-7.1563513462
 10
-1157.6382058626
 20
-7.1448434702
 10
-1157.6378028742
 20
-7.1341887958
 10
-1157.6373274968
 20
-7.1245651811
 10
-1157.6367876654
 20
-7.1161332728
 10
-1157.636192391
 20
-7.1090338244
 10
-1157.63555161
 20
-7.1033853468
 10
-1157.6348760183
 20
-7.0992821299
 10
-1157.6341768931
 20
-7.0967926685
 10
-1157.6334659043
 20
-7.0959585191
  0
LWPOLYLINE
  5
4D1
100
AcDbEntity
  8
RACCORDO
100
AcDbPolyline
 62
253
  6
CONTINUOUS
 90
16
 70
0
 10
-1157.0283211944
 20
-2.9599527665
 10
-1157.0281080417
 20
-2.9722804399
 10
-1157.0279843169
 20
-2.9850036716
 10
-1157.0279520856
 20
-2.9979100731
 10
-1157.0280118864
 20
-3.0107841984
 10
-1157.0281627212
 20
-3.02341114
 10
-1157.0284020726
 20
-3.035580117
 10
-1157.0287259454
 20
-3.0470879929
 10
-1157.0291289339
 20
-3.0577426673
 10
-1157.0296043113
 20
-3.067366282
 10
-1157.0301441426
 20
-3.0757981904
 10
-1157.030739417
 20
-3.0828976388
 10
-1157.0313801981
 20
-3.0885461164
 10
-1157.0320557898
 20
-3.0926493333
 10
-1157.032754915
 20
-3.0951387947
 10
-1157.0334659037
 20
-3.095972944
  0
LWPOLYLINE
  5
4D2
100
AcDbEntity
  8
RACCORDO
100
AcDbPolyline
 62
253
  6
CONTINUOUS
 90
13
 70
0
 10
-1159.1643352985
 20
-5.7062555294
 10
-1159.1644798764
 20
-5.6923252443
 10
-1159.1640219104
 20
-5.6784655041
 10
-1159.162970298
 20
-5.6649455786
 10
-1159.1613454702
 20
-5.6520281357
 10
-1159.1591789946
 20
-5.6399641383
 10
-1159.156512962
 20
-5.6289879682
 10
-1159.1533991687
 20
-5.6193128727
 10
-1159.1498981102
 20
-5.6111268215
 10
-1159.146077806
 20
-5.6045888551
 10
-1159.1420124778
 20
-5.5998259943
 10
-1159.1377811077
 20
-5.596930773
 10
-1159.1334659037
 20
-5.5959594402
  0
LWPOLYLINE
  5
4D3
100
AcDbEntity
  8
RACCORDO
100
AcDbPolyline
 62
253
  6
CONTINUOUS
 90
13
 70
0
 10
-1155.5025965095
 20
-4.4856759338
 10
-1155.5024519316
 20
-4.4996062188
 10
-1155.5029098977
 20
-4.5134659591
 10
-1155.5039615101
 20
-4.5269858846
 10
-1155.5055863379
 20
-4.5399033274
 10
-1155.5077528135
 20
-4.5519673248
 10
-1155.5104188461
 20
-4.5629434949
 10
-1155.5135326394
 20
-4.5726185905
 10
-1155.5170336978
 20
-4.5808046416
 10
-1155.5208540021
 20
-4.5873426081
 10
-1155.5249193303
 20
-4.5921054689
 10
-1155.5291507004
 20
-4.5950006901
 10
-1155.5334659043
 20
-4.5959720229
  0
LWPOLYLINE
  5
4D4
100
AcDbEntity
  8
RACCORDO
100
AcDbPolyline
 62
253
  6
CONTINUOUS
 90
13
 70
0
 10
-1158.0454711788
 20
-5.7062559671
 10
-1158.0455272522
 20
-5.6923260106
 10
-1158.0453490225
 20
-5.6784667591
 10
-1158.0449399517
 20
-5.6649474419
 10
-1158.0443079866
 20
-5.6520306846
 10
-1158.0434654037
 20
-5.6399674074
 10
-1158.0424285709
 20
-5.6289919511
 10
-1158.0412176297
 20
-5.6193175243
 10
-1158.0398561039
 20
-5.611132062
 10
-1158.0383704422
 20
-5.6045945747
 10
-1158.0367895052
 20
-5.5998320592
 10
-1158.035144004
 20
-5.5969370319
 10
-1158.033465904
 20
-5.5959657316
  0
LWPOLYLINE
  5
4D5
100
AcDbEntity
  8
RACCORDO
100
AcDbPolyline
 62
253
  6
CONTINUOUS
 90
13
 70
0
 10
-1156.6214606293
 20
-4.4856754961
 10
-1156.6214045558
 20
-4.4996054526
 10
-1156.6215827856
 20
-4.513464704
 10
-1156.6219918563
 20
-4.5269840212
 10
-1156.6226238214
 20
-4.5399007786
 10
-1156.6234664043
 20
-4.5519640558
 10
-1156.6245032371
 20
-4.5629395121
 10
-1156.6257141783
 20
-4.5726139389
 10
-1156.6270757042
 20
-4.5807994012
 10
-1156.6285613658
 20
-4.5873368885
 10
-1156.6301423029
 20
-4.592099404
 10
-1156.6317878041
 20
-4.5949944312
 10
-1156.633465904
 20
-4.5959657316
  0
LINE
  5
4D6
100
AcDbEntity
  8
0
100
AcDbLine
 62
7
  6
CONTINUOUS
 10
-1171.3684631524
 20
37.4040342684
 11
-1171.3684631524
 21
34.9040342684
  0
LINE
  5
4D7
100
AcDbEntity
  8
0
100
AcDbLine
 62
7
  6
CONTINUOUS
 10
-1171.3684631524
 20
-45.0959657316
 11
-1171.3684631524
 21
-47.5959657316
  0
LINE
  5
4D8
100
AcDbEntity
  8
0
100
AcDbLine
 62
7
  6
CONTINUOUS
 10
-1169.3684631524
 20
-47.5959657316
 11
-1169.3684631524
 21
-45.5959657316
  0
LINE
  5
4D9
100
AcDbEntity
  8
0
100
AcDbLine
 62
7
  6
CONTINUOUS
 10
-1169.3684631524
 20
-47.5959657316
 11
-1169.3684631524
 21
-55.5959657316
  0
LINE
  5
4DA
100
AcDbEntity
  8
0
100
AcDbLine
 62
7
  6
CONTINUOUS
 10
-1169.3684631524
 20
37.4040342684
 11
-1169.3684631524
 21
55.6040342684
  0
LINE
  5
4DB
100
AcDbEntity
  8
0
100
AcDbLine
 62
253
  6
CONTINUOUS
 10
-1168.333465904
 20
34.9040342684
 11
-1168.333465904
 21
-45.0959657316
  0
LINE
  5
4DC
100
AcDbEntity
  8
0
100
AcDbLine
 62
253
  6
CONTINUOUS
 10
-1165.8975586566
 20
34.9040342684
 11
-1165.8975586566
 21
-45.0959657316
  0
LINE
  5
4DD
100
AcDbEntity
  8
0
100
AcDbLine
 62
253
  6
CONTINUOUS
 10
-1164.9423009125
 20
34.9040342684
 11
-1164.9423009125
 21
-45.0959657316
  0
LINE
  5
4DE
100
AcDbEntity
  8
0
100
AcDbLine
 62
7
  6
CONTINUOUS
 10
-1163.833465904
 20
-55.0959657316
 11
-1163.833465904
 21
44.9040342684
  0
LINE
  5
4DF
100
AcDbEntity
  8
RACCORDO
100
AcDbLine
 62
253
  6
CONTINUOUS
 10
-1159.4694817352
 20
-5.4011108503
 11
-1159.4694817352
 21
-4.7908206128
  0
LINE
  5
4E0
100
AcDbEntity
  8
RACCORDO
100
AcDbLine
 62
7
  6
CONTINUOUS
 10
-1159.333465904
 20
-5.3959657316
 11
-1159.333465904
 21
-4.7959657316
  0
LINE
  5
4E1
100
AcDbEntity
  8
RACCORDO
100
AcDbLine
 62
7
  6
CONTINUOUS
 10
-1157.833465904
 20
-6.8959657316
 11
-1157.833465904
 21
-5.7959657316
  0
LINE
  5
4E2
100
AcDbEntity
  8
RACCORDO
100
AcDbLine
 62
7
  6
CONTINUOUS
 10
-1157.833465904
 20
-4.3959657316
 11
-1157.833465904
 21
-3.2959657316
  0
LINE
  5
4E3
100
AcDbEntity
  8
RACCORDO
100
AcDbLine
 62
7
  6
CONTINUOUS
 10
-1156.833465904
 20
-3.2959657316
 11
-1156.833465904
 21
-4.3959657316
  0
LINE
  5
4E4
100
AcDbEntity
  8
RACCORDO
100
AcDbLine
 62
7
  6
CONTINUOUS
 10
-1156.833465904
 20
-5.7959657316
 11
-1156.833465904
 21
-6.8959657316
  0
LINE
  5
4E5
100
AcDbEntity
  8
RACCORDO
100
AcDbLine
 62
7
  6
CONTINUOUS
 10
-1155.333465904
 20
-4.7959657316
 11
-1155.333465904
 21
-5.3959657316
  0
LINE
  5
4E6
100
AcDbEntity
  8
RACCORDO
100
AcDbLine
 62
253
  6
CONTINUOUS
 10
-1155.1974500729
 20
-4.7908206128
 11
-1155.1974500729
 21
-5.4011108503
  0
LINE
  5
4E7
100
AcDbEntity
  8
RACCORDO
100
AcDbLine
 62
253
  6
CONTINUOUS
 10
-1157.9437561415
 20
-4.3839604545
 11
-1157.94375614
 21
-3.5323191052
  0
LINE
  5
4E8
100
AcDbEntity
  8
RACCORDO
100
AcDbLine
 62
253
  6
CONTINUOUS
 10
-1157.9438322613
 20
-5.8660371788
 11
-1157.9437561415
 21
-5.8079710086
  0
LINE
  5
4E9
100
AcDbEntity
  8
RACCORDO
100
AcDbLine
 62
253
  6
CONTINUOUS
 10
-1156.7230995467
 20
-4.3258942843
 11
-1156.7231756666
 21
-4.3839604545
  0
LINE
  5
4EA
100
AcDbEntity
  8
RACCORDO
100
AcDbLine
 62
253
  6
CONTINUOUS
 10
-1156.7231756666
 20
-5.8079710086
 11
-1156.723175668
 21
-6.6596123579
  0
LWPOLYLINE
  5
4EB
100
AcDbEntity
  8
RACCORDO
100
AcDbPolyline
 62
253
  6
CONTINUOUS
 90
3
 70
0
 10
-1157.94375614
 20
-3.5323191052
 10
-1157.9435763704
 20
-3.4455618008
 10
-1157.9437561415
 20
-3.2650950192
  0
LWPOLYLINE
  5
4EC
100
AcDbEntity
  8
RACCORDO
100
AcDbPolyline
 62
253
  6
CONTINUOUS
 90
3
 70
0
 10
-1156.723175668
 20
-6.6596123579
 10
-1156.7233554376
 20
-6.7463696623
 10
-1156.7231756666
 20
-6.926836444
  0
LINE
  5
4ED
100
AcDbEntity
  8
RACCORDO
100
AcDbLine
 62
253
  6
CONTINUOUS
 10
-1157.9437561415
 20
-6.926836444
 11
-1157.9438322613
 21
-5.8660371788
  0
LINE
  5
4EE
100
AcDbEntity
  8
RACCORDO
100
AcDbLine
 62
253
  6
CONTINUOUS
 10
-1156.7231756666
 20
-3.2650950192
 11
-1156.7230995467
 21
-4.3258942843
  0
LWPOLYLINE
  5
4EF
100
AcDbEntity
  8
RACCORDO
100
AcDbPolyline
 62
253
  6
CONTINUOUS
 90
13
 70
0
 10
-1158.0454711808
 20
-4.4856754943
 10
-1158.0455272512
 20
-4.4996054285
 10
-1158.0453490189
 20
-4.5134646558
 10
-1158.0449399462
 20
-4.5269839479
 10
-1158.0443079797
 20
-4.5399006801
 10
-1158.0434653959
 20
-4.5519639329
 10
-1158.0424285629
 20
-4.5629393665
 10
-1158.041217622
 20
-4.5726137729
 10
-1158.039856097
 20
-4.5807992179
 10
-1158.0383704366
 20
-4.5873366916
 10
-1158.0367895011
 20
-4.5920991976
 10
-1158.0351440019
 20
-4.5949942198
 10
-1158.033465904
 20
-4.5959655198
  0
LWPOLYLINE
  5
4F0
100
AcDbEntity
  8
RACCORDO
100
AcDbPolyline
 62
253
  6
CONTINUOUS
 90
13
 70
0
 10
-1156.6214606272
 20
-5.7062559688
 10
-1156.6214045568
 20
-5.6923260346
 10
-1156.6215827892
 20
-5.6784668073
 10
-1156.6219918619
 20
-5.6649475152
 10
-1156.6226238284
 20
-5.652030783
 10
-1156.6234664121
 20
-5.6399675303
 10
-1156.6245032451
 20
-5.6289920967
 10
-1156.625714186
 20
-5.6193176903
 10
-1156.6270757111
 20
-5.6111322453
 10
-1156.6285613715
 20
-5.6045947716
 10
-1156.6301423069
 20
-5.5998322655
 10
-1156.6317878062
 20
-5.5969372433
 10
-1156.633465904
 20
-5.5959659434
  0
LWPOLYLINE
  5
4F1
100
AcDbEntity
  8
RACCORDO
100
AcDbPolyline
 62
253
  6
CONTINUOUS
 90
13
 70
0
 10
-1159.1643365997
 20
-4.4856754997
 10
-1159.1644807885
 20
-4.499605453
 10
-1159.1640224835
 20
-4.5134647013
 10
-1159.1629705878
 20
-4.5269840155
 10
-1159.1613455354
 20
-4.5399007703
 10
-1159.1591788946
 20
-4.5519640454
 10
-1159.1565127543
 20
-4.5629395004
 10
-1159.1533989069
 20
-4.5726139267
 10
-1159.1498978418
 20
-4.5807993894
 10
-1159.1460775703
 20
-4.5873368782
 10
-1159.142012305
 20
-4.5920993962
 10
-1159.1377810173
 20
-4.5949944268
 10
-1159.133465904
 20
-4.5959657316
  0
LWPOLYLINE
  5
4F2
100
AcDbEntity
  8
RACCORDO
100
AcDbPolyline
 62
253
  6
CONTINUOUS
 90
13
 70
0
 10
-1155.5025952083
 20
-5.7062559635
 10
-1155.5024510195
 20
-5.6923260102
 10
-1155.5029093245
 20
-5.6784667619
 10
-1155.5039612202
 20
-5.6649474476
 10
-1155.5055862726
 20
-5.6520306928
 10
-1155.5077529135
 20
-5.6399674177
 10
-1155.5104190537
 20
-5.6289919627
 10
-1155.5135329012
 20
-5.6193175364
 10
-1155.5170339663
 20
-5.6111320737
 10
-1155.5208542377
 20
-5.6045945849
 10
-1155.5249195031
 20
-5.599832067
 10
-1155.5291507908
 20
-5.5969370363
 10
-1155.533465904
 20
-5.5959657316
  0
LWPOLYLINE
  5
4F3
100
AcDbEntity
  8
RACCORDO
100
AcDbPolyline
 62
253
  6
CONTINUOUS
 90
16
 70
0
 10
-1157.6386110213
 20
-2.9599499107
 10
-1157.6388241699
 20
-2.9722775318
 10
-1157.6389478857
 20
-2.9850005239
 10
-1157.6389801036
 20
-2.9979065321
 10
-1157.638920286
 20
-3.0107801471
 10
-1157.6387694312
 20
-3.0234065002
 10
-1157.6385300573
 20
-3.0355748496
 10
-1157.6382061595
 20
-3.0470820979
 10
-1157.6378031439
 20
-3.0577361819
 10
-1157.6373277371
 20
-3.0673592782
 10
-1157.6367878739
 20
-3.0757907713
 10
-1157.6361925649
 20
-3.0828899343
 10
-1157.635551746
 20
-3.0885382776
 10
-1157.634876113
 20
-3.0926415268
 10
-1157.6341769424
 20
-3.0951311962
 10
-1157.633465904
 20
-3.0959657316
  0
LWPOLYLINE
  5
4F4
100
AcDbEntity
  8
RACCORDO
100
AcDbPolyline
 62
253
  6
CONTINUOUS
 90
16
 70
0
 10
-1157.0283207868
 20
-7.2319815524
 10
-1157.0281076381
 20
-7.2196539313
 10
-1157.0279839224
 20
-7.2069309393
 10
-1157.0279517044
 20
-7.1940249311
 10
-1157.0280115221
 20
-7.181151316
 10
-1157.0281623768
 20
-7.1685249629
 10
-1157.0284017508
 20
-7.1563566135
 10
-1157.0287256485
 20
-7.1448493652
 10
-1157.0291286641
 20
-7.1341952813
 10
-1157.029604071
 20
-7.1245721849
 10
-1157.0301439342
 20
-7.1161406918
 10
-1157.0307392432
 20
-7.1090415289
 10
-1157.031380062
 20
-7.1033931856
 10
-1157.0320556951
 20
-7.0992899363
 10
-1157.0327548656
 20
-7.0968002669
 10
-1157.033465904
 20
-7.0959657316
  0
LWPOLYLINE
  5
4F5
100
AcDbEntity
  8
RACCORDO
100
AcDbPolyline
 62
253
  6
CONTINUOUS
 90
19
 70
0
 10
-1159.4694817352
 20
-4.7908206128
 10
-1159.4683420078
 20
-4.7647211548
 10
-1159.4650461829
 20
-4.7390359703
 10
-1159.4596099299
 20
-4.7138349591
 10
-1159.4520238512
 20
-4.6891008054
 10
-1159.4423289306
 20
-4.6649890385
 10
-1159.430626328
 20
-4.6418229699
 10
-1159.4169311468
 20
-4.6196439102
 10
-1159.4012814267
 20
-4.5985301177
 10
-1159.3838309981
 20
-4.5788434461
 10
-1159.3645522085
 20
-4.5605865627
 10
-1159.3435399191
 20
-4.543842123
 10
-1159.3211496323
 20
-4.5290566399
 10
-1159.2973839264
 20
-4.5162388897
 10
-1159.2723123286
 20
-4.5053958693
 10
-1159.2464021464
 20
-4.4969163846
 10
-1159.2198290195
 20
-4.4908951018
 10
-1159.1924691093
 20
-4.4871622125
 10
-1159.1643366164
 20
-4.4856754941
  0
LWPOLYLINE
  5
4F6
100
AcDbEntity
  8
RACCORDO
100
AcDbPolyline
 62
253
  6
CONTINUOUS
 90
19
 70
0
 10
-1155.1974500729
 20
-5.4011108503
 10
-1155.1985898002
 20
-5.4272103084
 10
-1155.2018856251
 20
-5.4528954928
 10
-1155.2073218781
 20
-5.4780965041
 10
-1155.2149079568
 20
-5.5028306578
 10
-1155.2246028775
 20
-5.5269424246
 10
-1155.23630548
 20
-5.5501084932
 10
-1155.2500006612
 20
-5.5722875529
 10
-1155.2656503813
 20
-5.5934013455
 10
-1155.2831008099
 20
-5.613088017
 10
-1155.3023795996
 20
-5.6313449005
 10
-1155.323391889
 20
-5.6480893401
 10
-1155.3457821757
 20
-5.6628748232
 10
-1155.3695478816
 20
-5.6756925734
 10
-1155.3946194794
 20
-5.6865355938
 10
-1155.4205296616
 20
-5.6950150786
 10
-1155.4471027885
 20
-5.7010363613
 10
-1155.4744626987
 20
-5.7047692507
 10
-1155.5025951916
 20
-5.706255969
  0
LWPOLYLINE
  5
4F7
100
AcDbEntity
  8
RACCORDO
100
AcDbPolyline
 62
253
  6
CONTINUOUS
 90
19
 70
0
 10
-1157.9437561415
 20
-3.2650950192
 10
-1157.9421548081
 20
-3.2364540841
 10
-1157.9383248504
 20
-3.2087559126
 10
-1157.9322299095
 20
-3.1820148413
 10
-1157.9237114317
 20
-3.1561670238
 10
-1157.9128674821
 20
-3.1313273509
 10
-1157.9000746565
 20
-3.10778214
 10
-1157.8853447029
 20
-3.0855484486
 10
-1157.8686807608
 20
-3.0646801216
 10
-1157.8504926378
 20
-3.0455085414
 10
-1157.830848353
 20
-3.028113013
 10
-1157.809761187
 20
-3.0124824027
 10
-1157.78759342
 20
-2.9987955572
 10
-1157.7644130917
 20
-2.9870945874
 10
-1157.7402706748
 20
-2.9773917835
 10
-1157.7155207528
 20
-2.9698019167
 10
-1157.6903296963
 20
-2.9643696664
 10
-1157.6646698143
 20
-2.9610806263
 10
-1157.6386110228
 20
-2.9599499004
  0
LWPOLYLINE
  5
4F8
100
AcDbEntity
  8
RACCORDO
100
AcDbPolyline
 62
253
  6
CONTINUOUS
 90
19
 70
0
 10
-1156.7231756666
 20
-6.926836444
 10
-1156.7247769999
 20
-6.955477379
 10
-1156.7286069576
 20
-6.9831755506
 10
-1156.7347018985
 20
-7.0099166219
 10
-1156.7432203763
 20
-7.0357644394
 10
-1156.7540643259
 20
-7.0606041123
 10
-1156.7668571515
 20
-7.0841493232
 10
-1156.7815871051
 20
-7.1063830145
 10
-1156.7982510472
 20
-7.1272513416
 10
-1156.8164391703
 20
-7.1464229218
 10
-1156.836083455
 20
-7.1638184502
 10
-1156.857170621
 20
-7.1794490604
 10
-1156.879338388
 20
-7.1931359059
 10
-1156.9025187164
 20
-7.2048368757
 10
-1156.9266611332
 20
-7.2145396797
 10
-1156.9514110552
 20
-7.2221295464
 10
-1156.9766021117
 20
-7.2275617968
 10
-1157.0022619937
 20
-7.2308508368
 10
-1157.0283207853
 20
-7.2319815627
  0
LWPOLYLINE
  5
4F9
100
AcDbEntity
  8
RACCORDO
100
AcDbPolyline
 62
253
  6
CONTINUOUS
 90
9
 70
0
 10
-1287.9270379457
 20
-2.9599499004
 10
-1287.9259711944
 20
-2.9610619415
 10
-1287.9256420416
 20
-2.9643405781
 10
-1287.92605135
 20
-2.96977193
 10
-1287.9272025036
 20
-2.9773743079
 10
-1287.9290880168
 20
-2.9871017809
 10
-1287.9316896318
 20
-2.99883147
 10
-1287.9350053322
 20
-3.012546536
 10
-1287.9390217314
 20
-3.0282082143
  0
LINE
  5
4FA
100
AcDbEntity
  8
RACCORDO
100
AcDbLine
 62
253
  6
CONTINUOUS
 10
-1288.200454607
 20
-4.5873368885
 11
-1288.1874515835
 21
-4.592099404
  0
LINE
  5
4FB
100
AcDbEntity
  8
RACCORDO
100
AcDbLine
 62
253
  6
CONTINUOUS
 10
-1288.0106760467
 20
-6.9268350095
 11
-1288.0111816598
 21
-6.9270000781
  0
LINE
  5
4FC
100
AcDbEntity
  8
RACCORDO
100
AcDbLine
 62
253
  6
CONTINUOUS
 10
-1288.0106803736
 20
-3.2650950409
 11
-1288.0111850138
 21
-3.2649302881
  0
LINE
  5
4FD
100
AcDbEntity
  8
RACCORDO
100
AcDbLine
 62
253
  6
CONTINUOUS
 10
-1288.1874515835
 20
-4.592099404
 11
-1288.1739175273
 21
-4.5949944312
  0
LWPOLYLINE
  5
4FE
100
AcDbEntity
  8
RACCORDO
100
AcDbPolyline
 62
253
  6
CONTINUOUS
 90
20
 70
0
 10
-482.4080744488
 20
-4.4856754941
 10
-482.4074319283
 20
-4.4855964349
 10
-482.4068170598
 20
-4.4851439507
 10
-482.4062295332
 20
-4.4843235592
 10
-482.4056618269
 20
-4.4831799554
 10
-482.4051209335
 20
-4.4816798018
 10
-482.4046280916
 20
-4.4797105654
 10
-482.4041803544
 20
-4.4772744683
 10
-482.4037797782
 20
-4.4743783943
 10
-482.4034546904
 20
-4.4709122915
 10
-482.4032028641
 20
-4.4668587628
 10
-482.4030256193
 20
-4.4622364323
 10
-482.4029564155
 20
-4.4569790563
 10
-482.4029972933
 20
-4.4510301037
 10
-482.403146146
 20
-4.4444319661
 10
-482.4034305508
 20
-4.4372512049
 10
-482.4038618296
 20
-4.4293911141
 10
-482.4044307785
 20
-4.4209160875
 10
-482.4051348117
 20
-4.4121215591
 10
-482.4059744647
 20
-4.4030928025
  0
LINE
  5
4FF
100
AcDbEntity
  8
RACCORDO
100
AcDbLine
 62
253
  6
CONTINUOUS
 10
-482.4080744626
 20
-4.3839604562
 11
-482.4075474902
 21
-4.3838963857
  0
LINE
  5
500
100
AcDbEntity
  8
ASSI
100
AcDbLine
 62
7
  6
CONTINUOUS
 10
-1270.8545227882
 20
-55.5959657316
 11
-1270.3331087703
 21
-55.5959657316
  0
LINE
  5
501
100
AcDbEntity
  8
0
100
AcDbLine
 62
7
  6
CONTINUOUS
 10
-488.333465904
 20
-55.5959657316
 11
-601.2984686556
 21
-55.5959657316
  0
LINE
  5
502
100
AcDbEntity
  8
0
100
AcDbLine
 62
7
  6
CONTINUOUS
 10
-1169.3684631524
 20
-55.5959657316
 11
-1270.3331087703
 21
-55.5959657316
  0
LINE
  5
503
100
AcDbEntity
  8
0
100
AcDbLine
 62
7
  6
CONTINUOUS
 10
-1270.8545227882
 20
-55.5959657316
 11
-1282.333465904
 21
-55.5959657316
  0
LINE
  5
504
100
AcDbEntity
  8
0
100
AcDbLine
 62
7
  6
CONTINUOUS
 10
-1163.833465904
 20
-55.0959657316
 11
-606.833465904
 21
-55.0959657316
  0
LINE
  5
505
100
AcDbEntity
  8
0
100
AcDbLine
 62
7
  6
CONTINUOUS
 10
-488.333465904
 20
-53.0959657316
 11
-499.8124090198
 21
-53.0959657316
  0
LINE
  5
506
100
AcDbEntity
  8
0
100
AcDbLine
 62
7
  6
CONTINUOUS
 10
-500.3338230378
 20
-53.0959657316
 11
-511.0111354337
 21
-53.0959657316
  0
LINE
  5
507
100
AcDbEntity
  8
0
100
AcDbLine
 62
7
  6
CONTINUOUS
 10
-1259.6557963744
 20
-53.0959657316
 11
-1270.3331087703
 21
-53.0959657316
  0
LINE
  5
508
100
AcDbEntity
  8
0
100
AcDbLine
 62
7
  6
CONTINUOUS
 10
-1270.8545227882
 20
-53.0959657316
 11
-1282.333465904
 21
-53.0959657316
  0
LINE
  5
509
100
AcDbEntity
  8
0
100
AcDbLine
 62
7
  6
CONTINUOUS
 10
-1285.333465904
 20
-52.5959657316
 11
-1259.6557963744
 21
-52.5959657316
  0
LINE
  5
50A
100
AcDbEntity
  8
0
100
AcDbLine
 62
253
  6
CONTINUOUS
 10
-601.2984686556
 20
-52.5959657316
 11
-511.0111354337
 21
-52.5959657316
  0
LINE
  5
50B
100
AcDbEntity
  8
0
100
AcDbLine
 62
7
  6
CONTINUOUS
 10
-511.0111354337
 20
-52.5959657316
 11
-485.333465904
 21
-52.5959657316
  0
LINE
  5
50C
100
AcDbEntity
  8
0
100
AcDbLine
 62
253
  6
CONTINUOUS
 10
-1169.3684631524
 20
-52.5959657316
 11
-1259.6557963744
 21
-52.5959657316
  0
LINE
  5
50D
100
AcDbEntity
  8
0
100
AcDbLine
 62
253
  6
CONTINUOUS
 10
-1163.833465904
 20
-51.0959657316
 11
-606.833465904
 21
-51.0959657316
  0
LINE
  5
50E
100
AcDbEntity
  8
RACCORDO
100
AcDbLine
 62
253
  6
CONTINUOUS
 10
-1288.2588572618
 20
-4.3839604664
 11
-1288.2593836301
 21
-4.3838965251
  0
LWPOLYLINE
  5
50F
100
AcDbEntity
  8
RACCORDO
100
AcDbPolyline
 62
253
  6
CONTINUOUS
 90
10
 70
0
 10
-1288.0106804401
 20
-4.4856754941
 10
-1288.0015291149
 20
-4.4871945476
 10
-1287.9927386592
 20
-4.4909610318
 10
-1287.9843275882
 20
-4.4970158694
 10
-1287.9762818128
 20
-4.5055264942
 10
-1287.9686486393
 20
-4.5163972081
 10
-1287.9615400162
 20
-4.5292413368
 10
-1287.9549799728
 20
-4.54405616
 10
-1287.9489769071
 20
-4.5608288495
 10
-1287.9436217892
 20
-4.5791037722
  0
LINE
  5
510
100
AcDbEntity
  8
RACCORDO
100
AcDbLine
 62
253
  6
CONTINUOUS
 10
-482.739901803
 20
-4.7908210513
 11
-482.7331978907
 21
-4.7904509
  0
LWPOLYLINE
  5
511
100
AcDbEntity
  8
RACCORDO
100
AcDbPolyline
 62
7
  6
CONTINUOUS
 90
15
 70
0
 10
-482.5068168293
 20
-4.5959655165
 10
-482.4957338258
 20
-4.5953585217
 10
-482.4831714774
 20
-4.5931719521
 10
-482.4714411724
 20
-4.5895990141
 10
-482.4607098104
 20
-4.584886304
 10
-482.4509994622
 20
-4.5792403291
 10
-482.4422197149
 20
-4.5727682076
 10
-482.4343866327
 20
-4.5656107618
 10
-482.427531112
 20
-4.5579331687
 10
-482.4215851246
 20
-4.5497912556
 10
-482.4164377789
 20
-4.5411023567
 10
-482.4121891557
 20
-4.5321131824
 10
-482.4089420394
 20
-4.5233466786
 10
-482.406560175
 20
-4.5149993438
 10
-482.4048178923
 20
-4.5068828129
  0
LWPOLYLINE
  5
512
100
AcDbEntity
  8
RACCORDO
100
AcDbPolyline
 62
7
  6
CONTINUOUS
 90
11
 70
0
 10
-482.5068212411
 20
-4.5959656475
 10
-482.4972517648
 20
-4.5955137241
 10
-482.4845194729
 20
-4.5934850751
 10
-482.472613552
 20
-4.5900266278
 10
-482.46170912
 20
-4.5853886532
 10
-482.4518335529
 20
-4.5797830539
 10
-482.4428989628
 20
-4.5733224345
 10
-482.4349251655
 20
-4.5661526437
 10
-482.4279449373
 20
-4.558442719
 10
-482.4218891705
 20
-4.5502501098
 10
-482.4166461029
 20
-4.5414929128
  0
LINE
  5
513
100
AcDbEntity
  8
0
100
AcDbLine
 62
7
  6
CONTINUOUS
 10
-599.2984686556
 20
-47.5959657316
 11
-601.2984686556
 21
-47.5959657316
  0
LINE
  5
514
100
AcDbEntity
  8
0
100
AcDbLine
 62
7
  6
CONTINUOUS
 10
-1169.3684631524
 20
-47.5959657316
 11
-1171.3684631524
 21
-47.5959657316
  0
LINE
  5
515
100
AcDbEntity
  8
0
100
AcDbLine
 62
7
  6
CONTINUOUS
 10
-601.2984686556
 20
-45.5959657316
 11
-599.2984686556
 21
-45.5959657316
  0
LINE
  5
516
100
AcDbEntity
  8
0
100
AcDbLine
 62
7
  6
CONTINUOUS
 10
-1169.3684631524
 20
-45.5959657316
 11
-1171.3684631524
 21
-45.5959657316
  0
LINE
  5
517
100
AcDbEntity
  8
0
100
AcDbLine
 62
7
  6
CONTINUOUS
 10
-599.2984686556
 20
-45.0959657316
 11
-606.833465904
 21
-45.0959657316
  0
LINE
  5
518
100
AcDbEntity
  8
0
100
AcDbLine
 62
7
  6
CONTINUOUS
 10
-1163.833465904
 20
-45.0959657316
 11
-1171.3684631524
 21
-45.0959657316
  0
LINE
  5
519
100
AcDbEntity
  8
RACCORDO
100
AcDbLine
 62
253
  6
CONTINUOUS
 10
-1287.9270379407
 20
-4.7908206131
 11
-1287.9337386057
 21
-4.7904504918
  0
LINE
  5
51A
100
AcDbEntity
  8
RACCORDO
100
AcDbLine
 62
253
  6
CONTINUOUS
 10
-1288.1739175273
 20
-4.5949944312
 11
-1288.1601153503
 21
-4.5959657316
  0
LWPOLYLINE
  5
51B
100
AcDbEntity
  8
RACCORDO
100
AcDbPolyline
 62
253
  6
CONTINUOUS
 90
11
 70
0
 10
-482.4080744488
 20
-5.706255969
 10
-482.4161608279
 20
-5.7064508442
 10
-482.4252650592
 20
-5.706426007
 10
-482.435478229
 20
-5.7062559691
 10
-482.4470126002
 20
-5.7063416875
 10
-482.4598673307
 20
-5.7065219315
 10
-482.4737656496
 20
-5.70625597
 10
-482.488626159
 20
-5.7060414174
 10
-482.5046237649
 20
-5.706269698
 10
-482.5218109639
 20
-5.7062559689
 10
-482.5401468616
 20
-5.7060618054
  0
LWPOLYLINE
  5
51C
100
AcDbEntity
  8
RACCORDO
100
AcDbPolyline
 62
253
  6
CONTINUOUS
 90
16
 70
0
 10
-611.197453144
 20
-5.4011104118
 10
-611.2097808208
 20
-5.4013235666
 10
-611.2225040689
 20
-5.4014472936
 10
-611.2354104976
 20
-5.4014795269
 10
-611.2482846582
 20
-5.4014197283
 10
-611.2609116405
 20
-5.4012688955
 10
-611.2730806609
 20
-5.4010295461
 10
-611.2845885804
 20
-5.4007056751
 10
-611.2952432957
 20
-5.4003026884
 10
-611.3048669463
 20
-5.3998273127
 10
-611.3132988835
 20
-5.399287483
 10
-611.3203983516
 20
-5.3986922103
 10
-611.3260468385
 20
-5.398051431
 10
-611.3301500531
 20
-5.3973758412
 10
-611.3326394999
 20
-5.3966767181
 10
-611.3334736224
 20
-5.3959657318
  0
LWPOLYLINE
  5
51D
100
AcDbEntity
  8
RACCORDO
100
AcDbPolyline
 62
253
  6
CONTINUOUS
 90
16
 70
0
 10
-615.469478664
 20
-4.7908210513
 10
-615.4571509873
 20
-4.7906078965
 10
-615.4444277391
 20
-4.7904841696
 10
-615.4315213104
 20
-4.7904519362
 10
-615.4186471499
 20
-4.7905117348
 10
-615.4060201675
 20
-4.7906625676
 10
-615.3938511471
 20
-4.790901917
 10
-615.3823432276
 20
-4.7912257881
 10
-615.3716885123
 20
-4.7916287748
 10
-615.3620648617
 20
-4.7921041505
 10
-615.3536329246
 20
-4.7926439802
 10
-615.3465334564
 20
-4.7932392529
 10
-615.3408849696
 20
-4.7938800322
 10
-615.336781755
 20
-4.794555622
 10
-615.3342923081
 20
-4.7952547451
 10
-615.3334581856
 20
-4.7959657314
  0
LWPOLYLINE
  5
51E
100
AcDbEntity
  8
RACCORDO
100
AcDbPolyline
 62
253
  6
CONTINUOUS
 90
16
 70
0
 10
-1155.197453144
 20
-5.4011104118
 10
-1155.2097808208
 20
-5.4013235666
 10
-1155.2225040689
 20
-5.4014472936
 10
-1155.2354104976
 20
-5.4014795269
 10
-1155.2482846582
 20
-5.4014197283
 10
-1155.2609116405
 20
-5.4012688955
 10
-1155.2730806609
 20
-5.4010295461
 10
-1155.2845885804
 20
-5.4007056751
 10
-1155.2952432957
 20
-5.4003026884
 10
-1155.3048669463
 20
-5.3998273127
 10
-1155.3132988835
 20
-5.399287483
 10
-1155.3203983516
 20
-5.3986922103
 10
-1155.3260468385
 20
-5.398051431
 10
-1155.3301500531
 20
-5.3973758412
 10
-1155.3326394999
 20
-5.3966767181
 10
-1155.3334736224
 20
-5.3959657318
  0
LWPOLYLINE
  5
51F
100
AcDbEntity
  8
RACCORDO
100
AcDbPolyline
 62
253
  6
CONTINUOUS
 90
16
 70
0
 10
-1159.469478664
 20
-4.7908210513
 10
-1159.4571509873
 20
-4.7906078965
 10
-1159.4444277391
 20
-4.7904841696
 10
-1159.4315213104
 20
-4.7904519362
 10
-1159.4186471499
 20
-4.7905117348
 10
-1159.4060201675
 20
-4.7906625676
 10
-1159.3938511471
 20
-4.790901917
 10
-1159.3823432276
 20
-4.7912257881
 10
-1159.3716885123
 20
-4.7916287748
 10
-1159.3620648617
 20
-4.7921041505
 10
-1159.3536329246
 20
-4.7926439802
 10
-1159.3465334564
 20
-4.7932392529
 10
-1159.3408849696
 20
-4.7938800322
 10
-1159.336781755
 20
-4.794555622
 10
-1159.3342923081
 20
-4.7952547451
 10
-1159.3334581856
 20
-4.7959657314
  0
LWPOLYLINE
  5
520
100
AcDbEntity
  8
RACCORDO
100
AcDbPolyline
 62
253
  6
CONTINUOUS
 90
22
 70
0
 10
-612.621460627
 20
-5.706255969
 10
-612.6268336161
 20
-5.7063350283
 10
-612.6323425803
 20
-5.7067875125
 10
-612.6379891662
 20
-5.707607904
 10
-612.643802176
 20
-5.7087515078
 10
-612.6497574563
 20
-5.7102516613
 10
-612.6557797393
 20
-5.7122208977
 10
-612.6618985133
 20
-5.7146569949
 10
-612.6680969355
 20
-5.7175530688
 10
-612.6742357103
 20
-5.7210191717
 10
-612.680358859
 20
-5.7250727003
 10
-612.6864466927
 20
-5.7296950309
 10
-612.692270558
 20
-5.7349524068
 10
-612.69787746
 20
-5.7409013594
 10
-612.7032569807
 20
-5.747499497
 10
-612.7080952381
 20
-5.7546802583
 10
-612.712396929
 20
-5.7625403491
 10
-612.716194041
 20
-5.7710153756
 10
-612.7191986822
 20
-5.7798099041
 10
-612.7213117614
 20
-5.7888386607
 10
-612.7226368179
 20
-5.7982212178
 10
-612.7231756666
 20
-5.8079710086
  0
LWPOLYLINE
  5
521
100
AcDbEntity
  8
RACCORDO
100
AcDbPolyline
 62
253
  6
CONTINUOUS
 90
22
 70
0
 10
-614.0454711811
 20
-4.4856754941
 10
-614.040098192
 20
-4.4855964349
 10
-614.0345892277
 20
-4.4851439507
 10
-614.0289426419
 20
-4.4843235592
 10
-614.023129632
 20
-4.4831799554
 10
-614.0171743517
 20
-4.4816798018
 10
-614.0111520688
 20
-4.4797105654
 10
-614.0050332947
 20
-4.4772744683
 10
-613.9988348725
 20
-4.4743783943
 10
-613.9926960977
 20
-4.4709122915
 10
-613.986572949
 20
-4.4668587628
 10
-613.9804851154
 20
-4.4622364323
 10
-613.97466125
 20
-4.4569790563
 10
-613.969054348
 20
-4.4510301037
 10
-613.9636748274
 20
-4.4444319661
 10
-613.95883657
 20
-4.4372512049
 10
-613.9545348791
 20
-4.4293911141
 10
-613.950737767
 20
-4.4209160875
 10
-613.9477331259
 20
-4.4121215591
 10
-613.9456200466
 20
-4.4030928025
 10
-613.9442949901
 20
-4.3937102454
 10
-613.9437561415
 20
-4.3839604545
  0
LWPOLYLINE
  5
522
100
AcDbEntity
  8
RACCORDO
100
AcDbPolyline
 62
253
  6
CONTINUOUS
 90
22
 70
0
 10
-1156.621460627
 20
-5.706255969
 10
-1156.6268336161
 20
-5.7063350283
 10
-1156.6323425803
 20
-5.7067875125
 10
-1156.6379891662
 20
-5.707607904
 10
-1156.643802176
 20
-5.7087515078
 10
-1156.6497574563
 20
-5.7102516613
 10
-1156.6557797393
 20
-5.7122208977
 10
-1156.6618985133
 20
-5.7146569949
 10
-1156.6680969355
 20
-5.7175530688
 10
-1156.6742357103
 20
-5.7210191717
 10
-1156.680358859
 20
-5.7250727003
 10
-1156.6864466927
 20
-5.7296950309
 10
-1156.692270558
 20
-5.7349524068
 10
-1156.69787746
 20
-5.7409013594
 10
-1156.7032569807
 20
-5.747499497
 10
-1156.7080952381
 20
-5.7546802583
 10
-1156.712396929
 20
-5.7625403491
 10
-1156.716194041
 20
-5.7710153756
 10
-1156.7191986822
 20
-5.7798099041
 10
-1156.7213117614
 20
-5.7888386607
 10
-1156.7226368179
 20
-5.7982212178
 10
-1156.7231756666
 20
-5.8079710086
  0
LWPOLYLINE
  5
523
100
AcDbEntity
  8
RACCORDO
100
AcDbPolyline
 62
253
  6
CONTINUOUS
 90
22
 70
0
 10
-1158.0454711811
 20
-4.4856754941
 10
-1158.040098192
 20
-4.4855964349
 10
-1158.0345892277
 20
-4.4851439507
 10
-1158.0289426419
 20
-4.4843235592
 10
-1158.023129632
 20
-4.4831799554
 10
-1158.0171743517
 20
-4.4816798018
 10
-1158.0111520688
 20
-4.4797105654
 10
-1158.0050332947
 20
-4.4772744683
 10
-1157.9988348725
 20
-4.4743783943
 10
-1157.9926960977
 20
-4.4709122915
 10
-1157.986572949
 20
-4.4668587628
 10
-1157.9804851154
 20
-4.4622364323
 10
-1157.97466125
 20
-4.4569790563
 10
-1157.969054348
 20
-4.4510301037
 10
-1157.9636748274
 20
-4.4444319661
 10
-1157.95883657
 20
-4.4372512049
 10
-1157.9545348791
 20
-4.4293911141
 10
-1157.950737767
 20
-4.4209160875
 10
-1157.9477331259
 20
-4.4121215591
 10
-1157.9456200466
 20
-4.4030928025
 10
-1157.9442949901
 20
-4.3937102454
 10
-1157.9437561415
 20
-4.3839604545
  0
LWPOLYLINE
  5
524
100
AcDbEntity
  8
RACCORDO
100
AcDbPolyline
 62
253
  6
CONTINUOUS
 90
13
 70
0
 10
-612.7231761451
 20
-6.9268350095
 10
-612.737106457
 20
-6.9269796189
 10
-612.7509662371
 20
-6.9265216807
 10
-612.7644862124
 20
-6.9254700917
 10
-612.7774037112
 20
-6.9238452827
 10
-612.7894677675
 20
-6.9216788213
 10
-612.800443996
 20
-6.9190127984
 10
-612.8101191462
 20
-6.9158990106
 10
-612.8183052456
 20
-6.9123979539
 10
-612.8248432513
 20
-6.9085776483
 10
-612.8296061403
 20
-6.9045123164
 10
-612.8325013775
 20
-6.900280941
 10
-612.8334727129
 20
-6.8959657312
  0
LWPOLYLINE
  5
525
100
AcDbEntity
  8
RACCORDO
100
AcDbPolyline
 62
253
  6
CONTINUOUS
 90
13
 70
0
 10
-613.9437556629
 20
-3.2650964537
 10
-613.9298253511
 20
-3.2649518442
 10
-613.9159655709
 20
-3.2654097825
 10
-613.9024455957
 20
-3.2664613715
 10
-613.8895280968
 20
-3.2680861804
 10
-613.8774640405
 20
-3.2702526418
 10
-613.866487812
 20
-3.2729186647
 10
-613.8568126618
 20
-3.2760324525
 10
-613.8486265625
 20
-3.2795335093
 10
-613.8420885568
 20
-3.2833538148
 10
-613.8373256677
 20
-3.2874191468
 10
-613.8344304306
 20
-3.2916505221
 10
-613.8334590951
 20
-3.295965732
  0
LWPOLYLINE
  5
526
100
AcDbEntity
  8
RACCORDO
100
AcDbPolyline
 62
253
  6
CONTINUOUS
 90
13
 70
0
 10
-1156.7231761451
 20
-6.9268350095
 10
-1156.737106457
 20
-6.9269796189
 10
-1156.7509662371
 20
-6.9265216807
 10
-1156.7644862124
 20
-6.9254700917
 10
-1156.7774037112
 20
-6.9238452827
 10
-1156.7894677675
 20
-6.9216788213
 10
-1156.800443996
 20
-6.9190127984
 10
-1156.8101191462
 20
-6.9158990106
 10
-1156.8183052456
 20
-6.9123979539
 10
-1156.8248432513
 20
-6.9085776483
 10
-1156.8296061403
 20
-6.9045123164
 10
-1156.8325013775
 20
-6.900280941
 10
-1156.8334727129
 20
-6.8959657312
  0
LWPOLYLINE
  5
527
100
AcDbEntity
  8
RACCORDO
100
AcDbPolyline
 62
253
  6
CONTINUOUS
 90
13
 70
0
 10
-1157.9437556629
 20
-3.2650964537
 10
-1157.9298253511
 20
-3.2649518442
 10
-1157.9159655709
 20
-3.2654097825
 10
-1157.9024455957
 20
-3.2664613715
 10
-1157.8895280968
 20
-3.2680861804
 10
-1157.8774640405
 20
-3.2702526418
 10
-1157.866487812
 20
-3.2729186647
 10
-1157.8568126618
 20
-3.2760324525
 10
-1157.8486265625
 20
-3.2795335093
 10
-1157.8420885568
 20
-3.2833538148
 10
-1157.8373256677
 20
-3.2874191468
 10
-1157.8344304306
 20
-3.2916505221
 10
-1157.8334590951
 20
-3.295965732
  0
LWPOLYLINE
  5
528
100
AcDbEntity
  8
RACCORDO
100
AcDbPolyline
 62
253
  6
CONTINUOUS
 90
13
 70
0
 10
-612.723175668
 20
-5.8079710069
 10
-612.7371056249
 20
-5.8080270804
 10
-612.7509648768
 20
-5.8078488506
 10
-612.7644841944
 20
-5.8074397797
 10
-612.7774009522
 20
-5.8068078145
 10
-612.7894642296
 20
-5.8059652314
 10
-612.8004396861
 20
-5.8049283984
 10
-612.810114113
 20
-5.803717457
 10
-612.8182995753
 20
-5.8023559309
 10
-612.8248370624
 20
-5.8008702691
 10
-612.8295995776
 20
-5.7992893321
 10
-612.8324946043
 20
-5.7976438312
 10
-612.833465904
 20
-5.7959657316
  0
LWPOLYLINE
  5
529
100
AcDbEntity
  8
RACCORDO
100
AcDbPolyline
 62
253
  6
CONTINUOUS
 90
13
 70
0
 10
-613.9437561401
 20
-4.3839604562
 10
-613.9298261831
 20
-4.3839043828
 10
-613.9159669312
 20
-4.3840826126
 10
-613.9024476136
 20
-4.3844916834
 10
-613.8895308559
 20
-4.3851236486
 10
-613.8774675784
 20
-4.3859662317
 10
-613.8664921219
 20
-4.3870030647
 10
-613.856817695
 20
-4.3882140061
 10
-613.8486322328
 20
-4.3895755323
 10
-613.8420947456
 20
-4.391061194
 10
-613.8373322305
 20
-4.392642131
 10
-613.8344372037
 20
-4.394287632
 10
-613.833465904
 20
-4.3959657316
  0
LWPOLYLINE
  5
52A
100
AcDbEntity
  8
RACCORDO
100
AcDbPolyline
 62
253
  6
CONTINUOUS
 90
13
 70
0
 10
-1156.723175668
 20
-5.8079710069
 10
-1156.7371056249
 20
-5.8080270804
 10
-1156.7509648768
 20
-5.8078488506
 10
-1156.7644841944
 20
-5.8074397797
 10
-1156.7774009522
 20
-5.8068078145
 10
-1156.7894642296
 20
-5.8059652314
 10
-1156.8004396861
 20
-5.8049283984
 10
-1156.810114113
 20
-5.803717457
 10
-1156.8182995753
 20
-5.8023559309
 10
-1156.8248370624
 20
-5.8008702691
 10
-1156.8295995776
 20
-5.7992893321
 10
-1156.8324946043
 20
-5.7976438312
 10
-1156.833465904
 20
-5.7959657316
  0
LWPOLYLINE
  5
52B
100
AcDbEntity
  8
RACCORDO
100
AcDbPolyline
 62
253
  6
CONTINUOUS
 90
13
 70
0
 10
-1157.9437561401
 20
-4.3839604562
 10
-1157.9298261831
 20
-4.3839043828
 10
-1157.9159669312
 20
-4.3840826126
 10
-1157.9024476136
 20
-4.3844916834
 10
-1157.8895308559
 20
-4.3851236486
 10
-1157.8774675784
 20
-4.3859662317
 10
-1157.8664921219
 20
-4.3870030647
 10
-1157.856817695
 20
-4.3882140061
 10
-1157.8486322328
 20
-4.3895755323
 10
-1157.8420947456
 20
-4.391061194
 10
-1157.8373322305
 20
-4.392642131
 10
-1157.8344372037
 20
-4.394287632
 10
-1157.833465904
 20
-4.3959657316
  0
LWPOLYLINE
  5
52C
100
AcDbEntity
  8
RACCORDO
100
AcDbPolyline
 62
253
  6
CONTINUOUS
 90
5
 70
0
 10
-482.5401468616
 20
-5.7060618054
 10
-482.5810637661
 20
-5.7062559677
 10
-482.6042211498
 20
-5.7060997062
 10
-482.6292489353
 20
-5.7060539155
 10
-482.6562513679
 20
-5.706255969
  0
LINE
  5
52D
100
AcDbEntity
  8
RACCORDO
100
AcDbLine
 62
253
  6
CONTINUOUS
 10
-1287.9270379457
 20
-7.2319815627
 11
-1287.9354491176
 21
-7.2320074115
  0
LINE
  5
52E
100
AcDbEntity
  8
RACCORDO
100
AcDbLine
 62
253
  6
CONTINUOUS
 10
-482.7398938624
 20
-2.9599499004
 11
-482.7314826905
 21
-2.9599240517
  0
LWPOLYLINE
  5
52F
100
AcDbEntity
  8
RACCORDO
100
AcDbPolyline
 62
253
  6
CONTINUOUS
 90
5
 70
0
 10
-1288.1267849465
 20
-4.4858696578
 10
-1288.0858680419
 20
-4.4856754955
 10
-1288.0627106583
 20
-4.485831757
 10
-1288.0376828727
 20
-4.4858775477
 10
-1288.0106804401
 20
-4.4856754941
  0
LWPOLYLINE
  5
530
100
AcDbEntity
  8
RACCORDO
100
AcDbPolyline
 62
253
  6
CONTINUOUS
 90
3
 70
0
 10
-612.4193725451
 20
-5.7062559689
 10
-612.5564473246
 20
-5.7064994006
 10
-612.621460627
 20
-5.706255969
  0
LWPOLYLINE
  5
531
100
AcDbEntity
  8
RACCORDO
100
AcDbPolyline
 62
253
  6
CONTINUOUS
 90
3
 70
0
 10
-1156.4193725451
 20
-5.7062559689
 10
-1156.5564473246
 20
-5.7064994006
 10
-1156.621460627
 20
-5.706255969
  0
LWPOLYLINE
  5
532
100
AcDbEntity
  8
RACCORDO
100
AcDbPolyline
 62
253
  6
CONTINUOUS
 90
3
 70
0
 10
-614.2475592629
 20
-4.4856754942
 10
-614.1104844835
 20
-4.4854320626
 10
-614.0454711811
 20
-4.4856754941
  0
LWPOLYLINE
  5
533
100
AcDbEntity
  8
RACCORDO
100
AcDbPolyline
 62
253
  6
CONTINUOUS
 90
3
 70
0
 10
-1158.2475592629
 20
-4.4856754942
 10
-1158.1104844835
 20
-4.4854320626
 10
-1158.0454711811
 20
-4.4856754941
  0
LINE
  5
534
100
AcDbEntity
  8
RACCORDO
100
AcDbLine
 62
253
  6
CONTINUOUS
 10
-613.0283207853
 20
-7.2319815627
 11
-613.6386110228
 21
-7.2319815627
  0
LINE
  5
535
100
AcDbEntity
  8
RACCORDO
100
AcDbLine
 62
253
  6
CONTINUOUS
 10
-1157.0283207853
 20
-7.2319815627
 11
-1157.6386110228
 21
-7.2319815627
  0
LINE
  5
536
100
AcDbEntity
  8
RACCORDO
100
AcDbLine
 62
7
  6
CONTINUOUS
 10
-613.033465904
 20
-7.0959657316
 11
-613.633465904
 21
-7.0959657316
  0
LINE
  5
537
100
AcDbEntity
  8
RACCORDO
100
AcDbLine
 62
7
  6
CONTINUOUS
 10
-1157.033465904
 20
-7.0959657316
 11
-1157.633465904
 21
-7.0959657316
  0
LINE
  5
538
100
AcDbEntity
  8
RACCORDO
100
AcDbLine
 62
7
  6
CONTINUOUS
 10
-482.7147224215
 20
-5.5959657316
 11
-482.5068164578
 21
-5.5959657316
  0
LINE
  5
539
100
AcDbEntity
  8
RACCORDO
100
AcDbLine
 62
7
  6
CONTINUOUS
 10
-611.533465904
 20
-5.5959657316
 11
-612.633465904
 21
-5.5959657316
  0
LINE
  5
53A
100
AcDbEntity
  8
RACCORDO
100
AcDbLine
 62
7
  6
CONTINUOUS
 10
-614.033465904
 20
-5.5959657316
 11
-615.133465904
 21
-5.5959657316
  0
LINE
  5
53B
100
AcDbEntity
  8
RACCORDO
100
AcDbLine
 62
7
  6
CONTINUOUS
 10
-1155.533465904
 20
-5.5959657316
 11
-1156.633465904
 21
-5.5959657316
  0
LINE
  5
53C
100
AcDbEntity
  8
RACCORDO
100
AcDbLine
 62
7
  6
CONTINUOUS
 10
-1158.033465904
 20
-5.5959657316
 11
-1159.133465904
 21
-5.5959657316
  0
LINE
  5
53D
100
AcDbEntity
  8
RACCORDO
100
AcDbLine
 62
7
  6
CONTINUOUS
 10
-1287.9521999062
 20
-5.5959657316
 11
-1288.1601153503
 21
-5.5959657316
  0
LINE
  5
53E
100
AcDbEntity
  8
RACCORDO
100
AcDbLine
 62
7
  6
CONTINUOUS
 10
-1288.1601153503
 20
-4.5959657316
 11
-1287.9522093866
 21
-4.5959657316
  0
LINE
  5
53F
100
AcDbEntity
  8
RACCORDO
100
AcDbLine
 62
7
  6
CONTINUOUS
 10
-1159.133465904
 20
-4.5959657316
 11
-1158.033465904
 21
-4.5959657316
  0
LINE
  5
540
100
AcDbEntity
  8
RACCORDO
100
AcDbLine
 62
7
  6
CONTINUOUS
 10
-1156.633465904
 20
-4.5959657316
 11
-1155.533465904
 21
-4.5959657316
  0
LINE
  5
541
100
AcDbEntity
  8
RACCORDO
100
AcDbLine
 62
7
  6
CONTINUOUS
 10
-615.133465904
 20
-4.5959657316
 11
-614.033465904
 21
-4.5959657316
  0
LINE
  5
542
100
AcDbEntity
  8
RACCORDO
100
AcDbLine
 62
7
  6
CONTINUOUS
 10
-612.633465904
 20
-4.5959657316
 11
-611.533465904
 21
-4.5959657316
  0
LINE
  5
543
100
AcDbEntity
  8
RACCORDO
100
AcDbLine
 62
7
  6
CONTINUOUS
 10
-482.7147319019
 20
-4.5959657316
 11
-482.5068164578
 21
-4.5959657316
  0
LINE
  5
544
100
AcDbEntity
  8
RACCORDO
100
AcDbLine
 62
7
  6
CONTINUOUS
 10
-1157.633465904
 20
-3.0959657316
 11
-1157.033465904
 21
-3.0959657316
  0
LINE
  5
545
100
AcDbEntity
  8
RACCORDO
100
AcDbLine
 62
7
  6
CONTINUOUS
 10
-613.633465904
 20
-3.0959657316
 11
-613.033465904
 21
-3.0959657316
  0
LINE
  5
546
100
AcDbEntity
  8
RACCORDO
100
AcDbLine
 62
253
  6
CONTINUOUS
 10
-1157.6386110228
 20
-2.9599499004
 11
-1157.0283207853
 21
-2.9599499004
  0
LINE
  5
547
100
AcDbEntity
  8
RACCORDO
100
AcDbLine
 62
253
  6
CONTINUOUS
 10
-613.6386110228
 20
-2.9599499004
 11
-613.0283207853
 21
-2.9599499004
  0
LWPOLYLINE
  5
548
100
AcDbEntity
  8
RACCORDO
100
AcDbPolyline
 62
253
  6
CONTINUOUS
 90
3
 70
0
 10
-1158.5352030984
 20
-5.7060414174
 10
-1158.6848112103
 20
-5.7062559689
 10
-1158.7605678239
 20
-5.7060618054
  0
LWPOLYLINE
  5
549
100
AcDbEntity
  8
RACCORDO
100
AcDbPolyline
 62
253
  6
CONTINUOUS
 90
4
 70
0
 10
-1155.8988289762
 20
-5.7060357579
 10
-1156.0482759493
 20
-5.7062479604
 10
-1156.1223964593
 20
-5.705979853
 10
-1156.2717339966
 20
-5.7065848793
  0
LWPOLYLINE
  5
54A
100
AcDbEntity
  8
RACCORDO
100
AcDbPolyline
 62
253
  6
CONTINUOUS
 90
4
 70
0
 10
-611.8988289762
 20
-5.7060357579
 10
-612.0482759493
 20
-5.7062479604
 10
-612.1223964593
 20
-5.705979853
 10
-612.2717339966
 20
-5.7065848793
  0
LWPOLYLINE
  5
54B
100
AcDbEntity
  8
RACCORDO
100
AcDbPolyline
 62
253
  6
CONTINUOUS
 90
3
 70
0
 10
-614.5352030984
 20
-5.7060414174
 10
-614.6848112103
 20
-5.7062559689
 10
-614.7605678239
 20
-5.7060618054
  0
LWPOLYLINE
  5
54C
100
AcDbEntity
  8
RACCORDO
100
AcDbPolyline
 62
253
  6
CONTINUOUS
 90
3
 70
0
 10
-1156.1317287096
 20
-4.4858900457
 10
-1155.9821205977
 20
-4.4856754943
 10
-1155.9063639842
 20
-4.4858696578
  0
LWPOLYLINE
  5
54D
100
AcDbEntity
  8
RACCORDO
100
AcDbPolyline
 62
253
  6
CONTINUOUS
 90
4
 70
0
 10
-1158.7681028319
 20
-4.4858957053
 10
-1158.6186558588
 20
-4.4856835028
 10
-1158.5445353487
 20
-4.4859516101
 10
-1158.3951978114
 20
-4.4853465838
  0
LWPOLYLINE
  5
54E
100
AcDbEntity
  8
RACCORDO
100
AcDbPolyline
 62
253
  6
CONTINUOUS
 90
4
 70
0
 10
-614.7681028319
 20
-4.4858957053
 10
-614.6186558588
 20
-4.4856835028
 10
-614.5445353487
 20
-4.4859516101
 10
-614.3951978114
 20
-4.4853465838
  0
LWPOLYLINE
  5
54F
100
AcDbEntity
  8
RACCORDO
100
AcDbPolyline
 62
253
  6
CONTINUOUS
 90
3
 70
0
 10
-612.1317287096
 20
-4.4858900457
 10
-611.9821205977
 20
-4.4856754943
 10
-611.9063639842
 20
-4.4858696578
  0
LWPOLYLINE
  5
550
100
AcDbEntity
  8
RACCORDO
100
AcDbPolyline
 62
253
  6
CONTINUOUS
 90
4
 70
0
 10
-1158.0454711811
 20
-5.706255969
 10
-1158.1747686896
 20
-5.706426007
 10
-1158.2429506084
 20
-5.7062559691
 10
-1158.387296626
 20
-5.7065219315
  0
LWPOLYLINE
  5
551
100
AcDbEntity
  8
RACCORDO
100
AcDbPolyline
 62
253
  6
CONTINUOUS
 90
4
 70
0
 10
-614.0454711811
 20
-5.706255969
 10
-614.1747686896
 20
-5.706426007
 10
-614.2429506084
 20
-5.7062559691
 10
-614.387296626
 20
-5.7065219315
  0
LWPOLYLINE
  5
552
100
AcDbEntity
  8
RACCORDO
100
AcDbPolyline
 62
253
  6
CONTINUOUS
 90
4
 70
0
 10
-1156.621460627
 20
-4.4856754941
 10
-1156.4921631185
 20
-4.4855054562
 10
-1156.4239811996
 20
-4.485675494
 10
-1156.279635182
 20
-4.4854095316
  0
LWPOLYLINE
  5
553
100
AcDbEntity
  8
RACCORDO
100
AcDbPolyline
 62
253
  6
CONTINUOUS
 90
4
 70
0
 10
-612.621460627
 20
-4.4856754941
 10
-612.4921631185
 20
-4.4855054562
 10
-612.4239811996
 20
-4.485675494
 10
-612.279635182
 20
-4.4854095316
  0
LINE
  5
554
100
AcDbEntity
  8
RACCORDO
100
AcDbLine
 62
253
  6
CONTINUOUS
 10
-1158.7605678239
 20
-5.7060618054
 11
-1159.1643366164
 21
-5.706255969
  0
LINE
  5
555
100
AcDbEntity
  8
RACCORDO
100
AcDbLine
 62
253
  6
CONTINUOUS
 10
-614.7605678239
 20
-5.7060618054
 11
-615.1643366164
 21
-5.706255969
  0
LINE
  5
556
100
AcDbEntity
  8
RACCORDO
100
AcDbLine
 62
253
  6
CONTINUOUS
 10
-1155.9063639842
 20
-4.4858696578
 11
-1155.5025951916
 21
-4.4856754941
  0
LINE
  5
557
100
AcDbEntity
  8
RACCORDO
100
AcDbLine
 62
253
  6
CONTINUOUS
 10
-611.9063639842
 20
-4.4858696578
 11
-611.5025951916
 21
-4.4856754941
  0
LINE
  5
558
100
AcDbEntity
  8
RACCORDO
100
AcDbLine
 62
253
  6
CONTINUOUS
 10
-1155.5025951916
 20
-5.706255969
 11
-1155.8988289762
 21
-5.7060357579
  0
LINE
  5
559
100
AcDbEntity
  8
RACCORDO
100
AcDbLine
 62
253
  6
CONTINUOUS
 10
-1159.1643366164
 20
-4.4856754941
 11
-1158.7681028319
 21
-4.4858957053
  0
LINE
  5
55A
100
AcDbEntity
  8
RACCORDO
100
AcDbLine
 62
253
  6
CONTINUOUS
 10
-611.5025951916
 20
-5.706255969
 11
-611.8988289762
 21
-5.7060357579
  0
LINE
  5
55B
100
AcDbEntity
  8
RACCORDO
100
AcDbLine
 62
253
  6
CONTINUOUS
 10
-615.1643366164
 20
-4.4856754941
 11
-614.7681028319
 21
-4.4858957053
  0
LINE
  5
55C
100
AcDbEntity
  8
RACCORDO
100
AcDbLine
 62
253
  6
CONTINUOUS
 10
-1156.2717339966
 20
-5.7065848793
 11
-1156.4193725451
 21
-5.7062559689
  0
LINE
  5
55D
100
AcDbEntity
  8
RACCORDO
100
AcDbLine
 62
253
  6
CONTINUOUS
 10
-1158.3951978114
 20
-4.4853465838
 11
-1158.2475592629
 21
-4.4856754942
  0
LINE
  5
55E
100
AcDbEntity
  8
RACCORDO
100
AcDbLine
 62
253
  6
CONTINUOUS
 10
-612.2717339966
 20
-5.7065848793
 11
-612.4193725451
 21
-5.7062559689
  0
LINE
  5
55F
100
AcDbEntity
  8
RACCORDO
100
AcDbLine
 62
253
  6
CONTINUOUS
 10
-614.3951978114
 20
-4.4853465838
 11
-614.2475592629
 21
-4.4856754942
  0
LINE
  5
560
100
AcDbEntity
  8
RACCORDO
100
AcDbLine
 62
253
  6
CONTINUOUS
 10
-482.7314826905
 20
-7.2320074115
 11
-482.7398938624
 21
-7.2319815627
  0
LINE
  5
561
100
AcDbEntity
  8
RACCORDO
100
AcDbLine
 62
253
  6
CONTINUOUS
 10
-1287.9354491176
 20
-2.9599240517
 11
-1287.9270379457
 21
-2.9599499004
  0
LINE
  5
562
100
AcDbEntity
  8
RACCORDO
100
AcDbLine
 62
253
  6
CONTINUOUS
 10
-1158.387296626
 20
-5.7065219315
 11
-1158.5352030984
 21
-5.7060414174
  0
LINE
  5
563
100
AcDbEntity
  8
RACCORDO
100
AcDbLine
 62
253
  6
CONTINUOUS
 10
-1156.279635182
 20
-4.4854095316
 11
-1156.1317287096
 21
-4.4858900457
  0
LINE
  5
564
100
AcDbEntity
  8
RACCORDO
100
AcDbLine
 62
253
  6
CONTINUOUS
 10
-614.387296626
 20
-5.7065219315
 11
-614.5352030984
 21
-5.7060414174
  0
LINE
  5
565
100
AcDbEntity
  8
RACCORDO
100
AcDbLine
 62
253
  6
CONTINUOUS
 10
-612.279635182
 20
-4.4854095316
 11
-612.1317287096
 21
-4.4858900457
  0
LWPOLYLINE
  5
566
100
AcDbEntity
  8
RACCORDO
100
AcDbPolyline
 62
253
  6
CONTINUOUS
 90
13
 70
0
 10
-1157.9437561313
 20
-5.8079709968
 10
-1157.9298272618
 20
-5.808026899
 10
-1157.9159691782
 20
-5.8078485284
 10
-1157.9024510658
 20
-5.80743935
 10
-1157.8895355059
 20
-5.8068073122
 10
-1157.8774733757
 20
-5.8059646918
 10
-1157.8664989752
 20
-5.8049278562
 10
-1157.8568254756
 20
-5.8037169451
 10
-1157.848640779
 20
-5.8023554792
 10
-1157.8421038684
 20
-5.8008699038
 10
-1157.8373417195
 20
-5.7992890746
 10
-1157.8344468341
 20
-5.7976436977
 10
-1157.8334754439
 20
-5.795965733
  0
LWPOLYLINE
  5
567
100
AcDbEntity
  8
RACCORDO
100
AcDbPolyline
 62
253
  6
CONTINUOUS
 90
13
 70
0
 10
-1156.7231756767
 20
-4.3839604664
 10
-1156.7371045462
 20
-4.3839045641
 10
-1156.7509626298
 20
-4.3840829348
 10
-1156.7644807423
 20
-4.3844921131
 10
-1156.7773963022
 20
-4.385124151
 10
-1156.7894584323
 20
-4.3859667713
 10
-1156.8004328328
 20
-4.3870036069
 10
-1156.8101063324
 20
-4.3882145181
 10
-1156.818291029
 20
-4.3895759839
 10
-1156.8248279396
 20
-4.3910615594
 10
-1156.8295900886
 20
-4.3926423886
 10
-1156.8324849739
 20
-4.3942877654
 10
-1156.8334563641
 20
-4.3959657301
  0
LWPOLYLINE
  5
568
100
AcDbEntity
  8
RACCORDO
100
AcDbPolyline
 62
253
  6
CONTINUOUS
 90
13
 70
0
 10
-613.9437561313
 20
-5.8079709968
 10
-613.9298272618
 20
-5.808026899
 10
-613.9159691782
 20
-5.8078485284
 10
-613.9024510658
 20
-5.80743935
 10
-613.8895355059
 20
-5.8068073122
 10
-613.8774733757
 20
-5.8059646918
 10
-613.8664989752
 20
-5.8049278562
 10
-613.8568254756
 20
-5.8037169451
 10
-613.848640779
 20
-5.8023554792
 10
-613.8421038684
 20
-5.8008699038
 10
-613.8373417195
 20
-5.7992890746
 10
-613.8344468341
 20
-5.7976436977
 10
-613.8334754439
 20
-5.795965733
  0
LWPOLYLINE
  5
569
100
AcDbEntity
  8
RACCORDO
100
AcDbPolyline
 62
253
  6
CONTINUOUS
 90
13
 70
0
 10
-612.7231756767
 20
-4.3839604664
 10
-612.7371045462
 20
-4.3839045641
 10
-612.7509626298
 20
-4.3840829348
 10
-612.7644807423
 20
-4.3844921131
 10
-612.7773963022
 20
-4.385124151
 10
-612.7894584323
 20
-4.3859667713
 10
-612.8004328328
 20
-4.3870036069
 10
-612.8101063324
 20
-4.3882145181
 10
-612.818291029
 20
-4.3895759839
 10
-612.8248279396
 20
-4.3910615594
 10
-612.8295900886
 20
-4.3926423886
 10
-612.8324849739
 20
-4.3942877654
 10
-612.8334563641
 20
-4.3959657301
  0
LWPOLYLINE
  5
56A
100
AcDbEntity
  8
RACCORDO
100
AcDbPolyline
 62
253
  6
CONTINUOUS
 90
12
 70
0
 10
-1288.0845360307
 20
-5.7062559669
 10
-1288.1249038625
 20
-5.7060357579
 10
-1288.1431152485
 20
-5.7062559698
 10
-1288.160288709
 20
-5.7062479604
 10
-1288.176362514
 20
-5.705979853
 10
-1288.1914041336
 20
-5.7062559691
 10
-1288.2056177723
 20
-5.7065848793
 10
-1288.2188568234
 20
-5.7063648078
 10
-1288.2307326054
 20
-5.7062559689
 10
-1288.2412172665
 20
-5.7064660118
 10
-1288.2505607649
 20
-5.7064994006
 10
-1288.2588573592
 20
-5.706255969
  0
LWPOLYLINE
  5
56B
100
AcDbEntity
  8
RACCORDO
100
AcDbPolyline
 62
253
  6
CONTINUOUS
 90
12
 70
0
 10
-482.5823957773
 20
-4.4856754963
 10
-482.5420279455
 20
-4.4858957053
 10
-482.5238165595
 20
-4.4856754934
 10
-482.5066430991
 20
-4.4856835028
 10
-482.4905692941
 20
-4.4859516101
 10
-482.4755276745
 20
-4.4856754941
 10
-482.4613140357
 20
-4.4853465838
 10
-482.4480749847
 20
-4.4855666553
 10
-482.4361992027
 20
-4.4856754942
 10
-482.4257145415
 20
-4.4854654514
 10
-482.4163710431
 20
-4.4854320626
 10
-482.4080744488
 20
-4.4856754941
  0
LWPOLYLINE
  5
56C
100
AcDbEntity
  8
RACCORDO
100
AcDbPolyline
 62
253
  6
CONTINUOUS
 90
4
 70
0
 10
-1288.0106804401
 20
-5.706255969
 10
-1288.0371538165
 20
-5.7060590504
 10
-1288.0617400739
 20
-5.7061033574
 10
-1288.0845360307
 20
-5.7062559669
  0
LWPOLYLINE
  5
56D
100
AcDbEntity
  8
RACCORDO
100
AcDbPolyline
 62
253
  6
CONTINUOUS
 90
4
 70
0
 10
-482.6562513679
 20
-4.4856754941
 10
-482.6297779916
 20
-4.4858724127
 10
-482.6051917341
 20
-4.4858281057
 10
-482.5823957773
 20
-4.4856754963
  0
LWPOLYLINE
  5
56E
100
AcDbEntity
  8
RACCORDO
100
AcDbPolyline
 62
253
  6
CONTINUOUS
 90
13
 70
0
 10
-1157.9437561343
 20
-6.9268364223
 10
-1157.9298261824
 20
-6.926980611
 10
-1157.9159669356
 20
-6.9265223061
 10
-1157.9024476227
 20
-6.9254704106
 10
-1157.8895308691
 20
-6.9238453585
 10
-1157.877467595
 20
-6.9216787181
 10
-1157.8664921406
 20
-6.9190125783
 10
-1157.8568177145
 20
-6.9158987315
 10
-1157.8486322516
 20
-6.912397667
 10
-1157.8420947621
 20
-6.9085773962
 10
-1157.8373322431
 20
-6.9045121315
 10
-1157.8344372108
 20
-6.9002808443
 10
-1157.833465904
 20
-6.8959657316
  0
LWPOLYLINE
  5
56F
100
AcDbEntity
  8
RACCORDO
100
AcDbPolyline
 62
253
  6
CONTINUOUS
 90
13
 70
0
 10
-1156.7231756738
 20
-3.2650950409
 10
-1156.7371056256
 20
-3.2649508522
 10
-1156.7509648725
 20
-3.2654091571
 10
-1156.7644841853
 20
-3.2664610526
 10
-1156.7774009389
 20
-3.2680861046
 10
-1156.7894642131
 20
-3.2702527451
 10
-1156.8004396675
 20
-3.2729188848
 10
-1156.8101140935
 20
-3.2760327316
 10
-1156.8182995565
 20
-3.2795337961
 10
-1156.8248370459
 20
-3.2833540669
 10
-1156.829599565
 20
-3.2874193317
 10
-1156.8324945972
 20
-3.2916506188
 10
-1156.833465904
 20
-3.2959657316
  0
LWPOLYLINE
  5
570
100
AcDbEntity
  8
RACCORDO
100
AcDbPolyline
 62
253
  6
CONTINUOUS
 90
13
 70
0
 10
-613.9437561343
 20
-6.9268364223
 10
-613.9298261824
 20
-6.926980611
 10
-613.9159669356
 20
-6.9265223061
 10
-613.9024476227
 20
-6.9254704106
 10
-613.8895308691
 20
-6.9238453585
 10
-613.877467595
 20
-6.9216787181
 10
-613.8664921406
 20
-6.9190125783
 10
-613.8568177145
 20
-6.9158987315
 10
-613.8486322516
 20
-6.912397667
 10
-613.8420947621
 20
-6.9085773962
 10
-613.8373322431
 20
-6.9045121315
 10
-613.8344372108
 20
-6.9002808443
 10
-613.833465904
 20
-6.8959657316
  0
LWPOLYLINE
  5
571
100
AcDbEntity
  8
RACCORDO
100
AcDbPolyline
 62
253
  6
CONTINUOUS
 90
13
 70
0
 10
-612.7231756738
 20
-3.2650950409
 10
-612.7371056256
 20
-3.2649508522
 10
-612.7509648725
 20
-3.2654091571
 10
-612.7644841853
 20
-3.2664610526
 10
-612.7774009389
 20
-3.2680861046
 10
-612.7894642131
 20
-3.2702527451
 10
-612.8004396675
 20
-3.2729188848
 10
-612.8101140935
 20
-3.2760327316
 10
-612.8182995565
 20
-3.2795337961
 10
-612.8248370459
 20
-3.2833540669
 10
-612.829599565
 20
-3.2874193317
 10
-612.8324945972
 20
-3.2916506188
 10
-612.833465904
 20
-3.2959657316
  0
LWPOLYLINE
  5
572
100
AcDbEntity
  8
RACCORDO
100
AcDbPolyline
 62
253
  6
CONTINUOUS
 90
16
 70
0
 10
-1159.4694817332
 20
-5.40111085
 10
-1159.4571541103
 20
-5.4013239988
 10
-1159.4444311162
 20
-5.4014477146
 10
-1159.4315251057
 20
-5.4014799325
 10
-1159.4186514885
 20
-5.4014201149
 10
-1159.4060251332
 20
-5.4012692601
 10
-1159.3938567819
 20
-5.4010298861
 10
-1159.3823495319
 20
-5.4007059882
 10
-1159.3716954467
 20
-5.4003029725
 10
-1159.3620723496
 20
-5.3998275656
 10
-1159.3536408562
 20
-5.3992877022
 10
-1159.3465416936
 20
-5.3986923931
 10
-1159.3408933513
 20
-5.3980515741
 10
-1159.3367901036
 20
-5.3973759409
 10
-1159.3343004365
 20
-5.3966767701
 10
-1159.333465904
 20
-5.3959657316
  0
LWPOLYLINE
  5
573
100
AcDbEntity
  8
RACCORDO
100
AcDbPolyline
 62
253
  6
CONTINUOUS
 90
16
 70
0
 10
-1155.1974500748
 20
-4.7908206131
 10
-1155.2097776977
 20
-4.7906074644
 10
-1155.2225006919
 20
-4.7904837486
 10
-1155.2354067023
 20
-4.7904515306
 10
-1155.2482803196
 20
-4.7905113482
 10
-1155.2609066748
 20
-4.7906622031
 10
-1155.2730750262
 20
-4.7909015771
 10
-1155.2845822761
 20
-4.7912254749
 10
-1155.2952363614
 20
-4.7916284906
 10
-1155.3048594585
 20
-4.7921038976
 10
-1155.3132909518
 20
-4.7926437609
 10
-1155.3203901144
 20
-4.79323907
 10
-1155.3260384568
 20
-4.793879889
 10
-1155.3301417044
 20
-4.7945555223
 10
-1155.3326313715
 20
-4.795254693
 10
-1155.333465904
 20
-4.7959657316
  0
LWPOLYLINE
  5
574
100
AcDbEntity
  8
RACCORDO
100
AcDbPolyline
 62
253
  6
CONTINUOUS
 90
16
 70
0
 10
-615.4694817332
 20
-5.40111085
 10
-615.4571541103
 20
-5.4013239988
 10
-615.4444311162
 20
-5.4014477146
 10
-615.4315251057
 20
-5.4014799325
 10
-615.4186514885
 20
-5.4014201149
 10
-615.4060251332
 20
-5.4012692601
 10
-615.3938567819
 20
-5.4010298861
 10
-615.3823495319
 20
-5.4007059882
 10
-615.3716954467
 20
-5.4003029725
 10
-615.3620723496
 20
-5.3998275656
 10
-615.3536408562
 20
-5.3992877022
 10
-615.3465416936
 20
-5.3986923931
 10
-615.3408933513
 20
-5.3980515741
 10
-615.3367901036
 20
-5.3973759409
 10
-615.3343004365
 20
-5.3966767701
 10
-615.333465904
 20
-5.3959657316
  0
LWPOLYLINE
  5
575
100
AcDbEntity
  8
RACCORDO
100
AcDbPolyline
 62
253
  6
CONTINUOUS
 90
16
 70
0
 10
-611.1974500748
 20
-4.7908206131
 10
-611.2097776977
 20
-4.7906074644
 10
-611.2225006919
 20
-4.7904837486
 10
-611.2354067023
 20
-4.7904515306
 10
-611.2482803196
 20
-4.7905113482
 10
-611.2609066748
 20
-4.7906622031
 10
-611.2730750262
 20
-4.7909015771
 10
-611.2845822761
 20
-4.7912254749
 10
-611.2952363614
 20
-4.7916284906
 10
-611.3048594585
 20
-4.7921038976
 10
-611.3132909518
 20
-4.7926437609
 10
-611.3203901144
 20
-4.79323907
 10
-611.3260384568
 20
-4.793879889
 10
-611.3301417044
 20
-4.7945555223
 10
-611.3326313715
 20
-4.795254693
 10
-611.333465904
 20
-4.7959657316
  0
LWPOLYLINE
  5
576
100
AcDbEntity
  8
RACCORDO
100
AcDbPolyline
 62
253
  6
CONTINUOUS
 90
19
 70
0
 10
-1157.6386110228
 20
-7.2319815627
 10
-1157.664597358
 20
-7.2308695217
 10
-1157.6902183836
 20
-7.2275908851
 10
-1157.7154039902
 20
-7.2221595332
 10
-1157.7401960092
 20
-7.2145571553
 10
-1157.7644127966
 20
-7.2048296823
 10
-1157.7876557565
 20
-7.1930999932
 10
-1157.8098575772
 20
-7.1793849271
 10
-1157.8309670286
 20
-7.1637232489
 10
-1157.8506288076
 20
-7.1462913472
 10
-1157.8688331115
 20
-7.1270753729
 10
-1157.8855080169
 20
-7.1061575721
 10
-1157.9002398093
 20
-7.0838752421
 10
-1157.9130252574
 20
-7.0602648043
 10
-1157.923852825
 20
-7.0353610834
 10
-1157.932345016
 20
-7.0095092405
 10
-1157.9384059101
 20
-6.9828438528
 10
-1157.9421968407
 20
-6.955281503
 10
-1157.9437561415
 20
-6.926836444
  0
LWPOLYLINE
  5
577
100
AcDbEntity
  8
RACCORDO
100
AcDbPolyline
 62
253
  6
CONTINUOUS
 90
19
 70
0
 10
-1157.0283207853
 20
-2.9599499004
 10
-1157.00233445
 20
-2.9610619415
 10
-1156.9767134245
 20
-2.9643405781
 10
-1156.9515278179
 20
-2.96977193
 10
-1156.9267357989
 20
-2.9773743079
 10
-1156.9025190115
 20
-2.9871017809
 10
-1156.8792760515
 20
-2.99883147
 10
-1156.8570742308
 20
-3.012546536
 10
-1156.8359647794
 20
-3.0282082143
 10
-1156.8163030005
 20
-3.045640116
 10
-1156.7980986966
 20
-3.0648560902
 10
-1156.7814237911
 20
-3.085773891
 10
-1156.7666919987
 20
-3.108056221
 10
-1156.7539065506
 20
-3.1316666589
 10
-1156.7430789831
 20
-3.1565703798
 10
-1156.7345867921
 20
-3.1824222226
 10
-1156.728525898
 20
-3.2090876104
 10
-1156.7247349674
 20
-3.2366499601
 10
-1156.7231756666
 20
-3.2650950192
  0
LWPOLYLINE
  5
578
100
AcDbEntity
  8
RACCORDO
100
AcDbPolyline
 62
253
  6
CONTINUOUS
 90
19
 70
0
 10
-1159.1643366164
 20
-5.706255969
 10
-1159.1926314707
 20
-5.7047369155
 10
-1159.2201093727
 20
-5.7009704313
 10
-1159.2467560182
 20
-5.6949155938
 10
-1159.2726806595
 20
-5.6864049689
 10
-1159.2977221772
 20
-5.675534255
 10
-1159.3214568038
 20
-5.6626901263
 10
-1159.3438314565
 20
-5.6478753032
 10
-1159.3648269633
 20
-5.6311026137
 10
-1159.3840819683
 20
-5.612827691
 10
-1159.4014967052
 20
-5.5931395332
 10
-1159.4171044085
 20
-5.5720355395
 10
-1159.4307611569
 20
-5.5498690929
 10
-1159.4424324944
 20
-5.5267103978
 10
-1159.4520997137
 20
-5.5026083813
 10
-1159.4596610047
 20
-5.477900995
 10
-1159.4650757922
 20
-5.452748581
 10
-1159.4683543836
 20
-5.4271286741
 10
-1159.4694817352
 20
-5.4011108503
  0
LWPOLYLINE
  5
579
100
AcDbEntity
  8
RACCORDO
100
AcDbPolyline
 62
253
  6
CONTINUOUS
 90
19
 70
0
 10
-1155.5025951916
 20
-4.4856754941
 10
-1155.4743003373
 20
-4.4871945476
 10
-1155.4468224354
 20
-4.4909610318
 10
-1155.4201757899
 20
-4.4970158694
 10
-1155.3942511486
 20
-4.5055264942
 10
-1155.3692096308
 20
-4.5163972081
 10
-1155.3454750042
 20
-4.5292413368
 10
-1155.3231003515
 20
-4.54405616
 10
-1155.3021048447
 20
-4.5608288495
 10
-1155.2828498397
 20
-4.5791037722
 10
-1155.2654351029
 20
-4.59879193
 10
-1155.2498273995
 20
-4.6198959237
 10
-1155.2361706512
 20
-4.6420623703
 10
-1155.2244993136
 20
-4.6652210654
 10
-1155.2148320943
 20
-4.6893230819
 10
-1155.2072708033
 20
-4.7140304681
 10
-1155.2018560159
 20
-4.7391828821
 10
-1155.1985774245
 20
-4.764802789
 10
-1155.1974500729
 20
-4.7908206128
  0
LINE
  5
57A
100
AcDbEntity
  8
RACCORDO
100
AcDbLine
 62
253
  6
CONTINUOUS
 10
-1287.927030005
 20
-5.4011104118
 11
-1287.9337339173
 21
-5.4014805632
  0
LWPOLYLINE
  5
57B
100
AcDbEntity
  8
RACCORDO
100
AcDbPolyline
 62
7
  6
CONTINUOUS
 90
16
 70
0
 10
-1288.1601149787
 20
-5.5959659467
 10
-1288.1711979822
 20
-5.5965729414
 10
-1288.1837603306
 20
-5.598759511
 10
-1288.1954906357
 20
-5.602332449
 10
-1288.2062219977
 20
-5.6070451591
 10
-1288.2159323459
 20
-5.612691134
 10
-1288.2247120932
 20
-5.6191632556
 10
-1288.2325451753
 20
-5.6263207013
 10
-1288.239400696
 20
-5.6339982944
 10
-1288.2453466834
 20
-5.6421402075
 10
-1288.2504940291
 20
-5.6508291064
 10
-1288.2547426524
 20
-5.6598182807
 10
-1288.2579897686
 20
-5.6685847845
 10
-1288.260371633
 20
-5.6769321194
 10
-1288.2621139158
 20
-5.6850486502
 10
-1288.2633586565
 20
-5.6930393827
  0
LWPOLYLINE
  5
57C
100
AcDbEntity
  8
RACCORDO
100
AcDbPolyline
 62
7
  6
CONTINUOUS
 90
11
 70
0
 10
-1288.160110567
 20
-5.5959658157
 10
-1288.1696800432
 20
-5.5964177391
 10
-1288.1824123352
 20
-5.5984463881
 10
-1288.194318256
 20
-5.6019048354
 10
-1288.2052226881
 20
-5.60654281
 10
-1288.2150982551
 20
-5.6121484093
 10
-1288.2240328453
 20
-5.6186090286
 10
-1288.2320066426
 20
-5.6257788194
 10
-1288.2389868708
 20
-5.6334887441
 10
-1288.2450426376
 20
-5.6416813534
 10
-1288.2502857051
 20
-5.6504385503
  0
LWPOLYLINE
  5
57D
100
AcDbEntity
  8
RACCORDO
100
AcDbPolyline
 62
253
  6
CONTINUOUS
 90
11
 70
0
 10
-1288.2588573592
 20
-4.4856754941
 10
-1288.2507709802
 20
-4.4854806189
 10
-1288.2416667489
 20
-4.4855054562
 10
-1288.2314535791
 20
-4.485675494
 10
-1288.2199192079
 20
-4.4855897756
 10
-1288.2070644773
 20
-4.4854095316
 10
-1288.1931661584
 20
-4.4856754932
 10
-1288.1783056491
 20
-4.4858900457
 10
-1288.1623080432
 20
-4.4856617652
 10
-1288.1451208441
 20
-4.4856754943
 10
-1288.1267849465
 20
-4.4858696578
  0
LWPOLYLINE
  5
57E
100
AcDbEntity
  8
RACCORDO
100
AcDbPolyline
 62
253
  6
CONTINUOUS
 90
19
 70
0
 10
-613.6386110228
 20
-7.2319815627
 10
-613.664597358
 20
-7.2308695217
 10
-613.6902183836
 20
-7.2275908851
 10
-613.7154039902
 20
-7.2221595332
 10
-613.7401960092
 20
-7.2145571553
 10
-613.7644127966
 20
-7.2048296823
 10
-613.7876557565
 20
-7.1930999932
 10
-613.8098575772
 20
-7.1793849271
 10
-613.8309670286
 20
-7.1637232489
 10
-613.8506288076
 20
-7.1462913472
 10
-613.8688331115
 20
-7.1270753729
 10
-613.8855080169
 20
-7.1061575721
 10
-613.9002398093
 20
-7.0838752421
 10
-613.9130252574
 20
-7.0602648043
 10
-613.923852825
 20
-7.0353610834
 10
-613.932345016
 20
-7.0095092405
 10
-613.9384059101
 20
-6.9828438528
 10
-613.9421968407
 20
-6.955281503
 10
-613.9437561415
 20
-6.926836444
  0
LWPOLYLINE
  5
57F
100
AcDbEntity
  8
RACCORDO
100
AcDbPolyline
 62
253
  6
CONTINUOUS
 90
19
 70
0
 10
-613.0283207853
 20
-2.9599499004
 10
-613.00233445
 20
-2.9610619415
 10
-612.9767134245
 20
-2.9643405781
 10
-612.9515278179
 20
-2.96977193
 10
-612.9267357989
 20
-2.9773743079
 10
-612.9025190115
 20
-2.9871017809
 10
-612.8792760515
 20
-2.99883147
 10
-612.8570742308
 20
-3.012546536
 10
-612.8359647794
 20
-3.0282082143
 10
-612.8163030005
 20
-3.045640116
 10
-612.7980986966
 20
-3.0648560902
 10
-612.7814237911
 20
-3.085773891
 10
-612.7666919987
 20
-3.108056221
 10
-612.7539065506
 20
-3.1316666589
 10
-612.7430789831
 20
-3.1565703798
 10
-612.7345867921
 20
-3.1824222226
 10
-612.728525898
 20
-3.2090876104
 10
-612.7247349674
 20
-3.2366499601
 10
-612.7231756666
 20
-3.2650950192
  0
LWPOLYLINE
  5
580
100
AcDbEntity
  8
RACCORDO
100
AcDbPolyline
 62
253
  6
CONTINUOUS
 90
19
 70
0
 10
-615.1643366164
 20
-5.706255969
 10
-615.1926314707
 20
-5.7047369155
 10
-615.2201093727
 20
-5.7009704313
 10
-615.2467560182
 20
-5.6949155938
 10
-615.2726806595
 20
-5.6864049689
 10
-615.2977221772
 20
-5.675534255
 10
-615.3214568038
 20
-5.6626901263
 10
-615.3438314565
 20
-5.6478753032
 10
-615.3648269633
 20
-5.6311026137
 10
-615.3840819683
 20
-5.612827691
 10
-615.4014967052
 20
-5.5931395332
 10
-615.4171044085
 20
-5.5720355395
 10
-615.4307611569
 20
-5.5498690929
 10
-615.4424324944
 20
-5.5267103978
 10
-615.4520997137
 20
-5.5026083813
 10
-615.4596610047
 20
-5.477900995
 10
-615.4650757922
 20
-5.452748581
 10
-615.4683543836
 20
-5.4271286741
 10
-615.4694817352
 20
-5.4011108503
  0
LWPOLYLINE
  5
581
100
AcDbEntity
  8
RACCORDO
100
AcDbPolyline
 62
253
  6
CONTINUOUS
 90
19
 70
0
 10
-611.5025951916
 20
-4.4856754941
 10
-611.4743003373
 20
-4.4871945476
 10
-611.4468224354
 20
-4.4909610318
 10
-611.4201757899
 20
-4.4970158694
 10
-611.3942511486
 20
-4.5055264942
 10
-611.3692096308
 20
-4.5163972081
 10
-611.3454750042
 20
-4.5292413368
 10
-611.3231003515
 20
-4.54405616
 10
-611.3021048447
 20
-4.5608288495
 10
-611.2828498397
 20
-4.5791037722
 10
-611.2654351029
 20
-4.59879193
 10
-611.2498273995
 20
-4.6198959237
 10
-611.2361706512
 20
-4.6420623703
 10
-611.2244993136
 20
-4.6652210654
 10
-611.2148320943
 20
-4.6893230819
 10
-611.2072708033
 20
-4.7140304681
 10
-611.2018560159
 20
-4.7391828821
 10
-611.1985774245
 20
-4.764802789
 10
-611.1974500729
 20
-4.7908206128
  0
LINE
  5
582
100
AcDbEntity
  8
RACCORDO
100
AcDbLine
 62
253
  6
CONTINUOUS
 10
-482.7398938673
 20
-5.40111085
 11
-482.7331932024
 21
-5.4014809714
  0
LINE
  5
583
100
AcDbEntity
  8
RACCORDO
100
AcDbLine
 62
253
  6
CONTINUOUS
 10
-482.4930142807
 20
-5.5969370319
 11
-482.5068164578
 21
-5.5959657316
  0
LWPOLYLINE
  5
584
100
AcDbEntity
  8
RACCORDO
100
AcDbPolyline
 62
253
  6
CONTINUOUS
 90
20
 70
0
 10
-1288.2588573592
 20
-5.706255969
 10
-1288.2594998798
 20
-5.7063350283
 10
-1288.2601147483
 20
-5.7067875125
 10
-1288.2607022749
 20
-5.707607904
 10
-1288.2612699811
 20
-5.7087515078
 10
-1288.2618108745
 20
-5.7102516613
 10
-1288.2623037165
 20
-5.7122208977
 10
-1288.2627514536
 20
-5.7146569949
 10
-1288.2631520298
 20
-5.7175530688
 10
-1288.2634771176
 20
-5.7210191717
 10
-1288.263728944
 20
-5.7250727003
 10
-1288.2639061887
 20
-5.7296950309
 10
-1288.2639753926
 20
-5.7349524068
 10
-1288.2639345147
 20
-5.7409013594
 10
-1288.263785662
 20
-5.747499497
 10
-1288.2635012572
 20
-5.7546802583
 10
-1288.2630699784
 20
-5.7625403491
 10
-1288.2625010295
 20
-5.7710153756
 10
-1288.2617969964
 20
-5.7798099041
 10
-1288.2609573433
 20
-5.7888386607
  0
LINE
  5
585
100
AcDbEntity
  8
RACCORDO
100
AcDbLine
 62
253
  6
CONTINUOUS
 10
-1288.2588573455
 20
-5.8079710069
 11
-1288.2593843179
 21
-5.8080350774
  0
LINE
  5
586
100
AcDbEntity
  8
0
100
AcDbLine
 62
7
  6
CONTINUOUS
 10
-599.2984686556
 20
34.9040342684
 11
-606.833465904
 21
34.9040342684
  0
LINE
  5
587
100
AcDbEntity
  8
0
100
AcDbLine
 62
7
  6
CONTINUOUS
 10
-1163.833465904
 20
34.9040342684
 11
-1171.3684631524
 21
34.9040342684
  0
LINE
  5
588
100
AcDbEntity
  8
0
100
AcDbLine
 62
7
  6
CONTINUOUS
 10
-599.2984686556
 20
37.4040342684
 11
-601.2984686556
 21
37.4040342684
  0
LINE
  5
589
100
AcDbEntity
  8
0
100
AcDbLine
 62
7
  6
CONTINUOUS
 10
-1169.3684631524
 20
37.4040342684
 11
-1171.3684631524
 21
37.4040342684
  0
LINE
  5
58A
100
AcDbEntity
  8
0
100
AcDbLine
 62
253
  6
CONTINUOUS
 10
-1163.833465904
 20
40.9040342684
 11
-606.833465904
 21
40.9040342684
  0
LINE
  5
58B
100
AcDbEntity
  8
0
100
AcDbLine
 62
7
  6
CONTINUOUS
 10
-1285.333465904
 20
42.4040342684
 11
-1259.6557963744
 21
42.4040342684
  0
LINE
  5
58C
100
AcDbEntity
  8
0
100
AcDbLine
 62
253
  6
CONTINUOUS
 10
-601.2984686556
 20
42.4040342684
 11
-511.0111354337
 21
42.4040342684
  0
LINE
  5
58D
100
AcDbEntity
  8
0
100
AcDbLine
 62
7
  6
CONTINUOUS
 10
-511.0111354337
 20
42.4040342684
 11
-485.333465904
 21
42.4040342684
  0
LINE
  5
58E
100
AcDbEntity
  8
0
100
AcDbLine
 62
253
  6
CONTINUOUS
 10
-1169.3684631524
 20
42.4040342684
 11
-1259.6557963744
 21
42.4040342684
  0
LINE
  5
58F
100
AcDbEntity
  8
0
100
AcDbLine
 62
7
  6
CONTINUOUS
 10
-1282.333465904
 20
42.9040342684
 11
-1262.333465904
 21
42.9040342684
  0
LINE
  5
590
100
AcDbEntity
  8
0
100
AcDbLine
 62
7
  6
CONTINUOUS
 10
-488.333465904
 20
42.9040342684
 11
-508.333465904
 21
42.9040342684
  0
LINE
  5
591
100
AcDbEntity
  8
0
100
AcDbLine
 62
7
  6
CONTINUOUS
 10
-1163.833465904
 20
44.9040342684
 11
-606.833465904
 21
44.9040342684
  0
LINE
  5
592
100
AcDbEntity
  8
0
100
AcDbLine
 62
7
  6
CONTINUOUS
 10
-1282.333465904
 20
45.4040342684
 11
-1262.333465904
 21
45.4040342684
  0
LINE
  5
593
100
AcDbEntity
  8
0
100
AcDbLine
 62
7
  6
CONTINUOUS
 10
-601.2984686556
 20
45.4040342684
 11
-514.0111354337
 21
45.4040342684
  0
LINE
  5
594
100
AcDbEntity
  8
0
100
AcDbLine
 62
7
  6
CONTINUOUS
 10
-488.333465904
 20
45.4040342684
 11
-508.333465904
 21
45.4040342684
  0
LINE
  5
595
100
AcDbEntity
  8
0
100
AcDbLine
 62
7
  6
CONTINUOUS
 10
-1169.3684631524
 20
45.4040342684
 11
-1256.6557963744
 21
45.4040342684
  0
LINE
  5
596
100
AcDbEntity
  8
0
100
AcDbLine
 62
253
  6
CONTINUOUS
 10
-601.2984686556
 20
45.9040342684
 11
-555.0111354337
 21
45.9040342684
  0
LINE
  5
597
100
AcDbEntity
  8
0
100
AcDbLine
 62
253
  6
CONTINUOUS
 10
-511.333465904
 20
45.9040342684
 11
-508.833465904
 21
45.9040342684
  0
LINE
  5
598
100
AcDbEntity
  8
0
100
AcDbLine
 62
253
  6
CONTINUOUS
 10
-1169.3684631524
 20
45.9040342684
 11
-1215.6557963744
 21
45.9040342684
  0
LINE
  5
599
100
AcDbEntity
  8
0
100
AcDbLine
 62
253
  6
CONTINUOUS
 10
-1259.333465904
 20
45.9040342684
 11
-1261.833465904
 21
45.9040342684
  0
LINE
  5
59A
100
AcDbEntity
  8
0
100
AcDbLine
 62
7
  6
CONTINUOUS
 10
-601.2984686556
 20
55.6040342684
 11
-555.0111354337
 21
55.6040342684
  0
LINE
  5
59B
100
AcDbEntity
  8
0
100
AcDbLine
 62
7
  6
CONTINUOUS
 10
-511.333465904
 20
55.6040342684
 11
-508.833465904
 21
55.6040342684
  0
LINE
  5
59C
100
AcDbEntity
  8
0
100
AcDbLine
 62
7
  6
CONTINUOUS
 10
-1169.3684631524
 20
55.6040342684
 11
-1215.6557963744
 21
55.6040342684
  0
LINE
  5
59D
100
AcDbEntity
  8
0
100
AcDbLine
 62
7
  6
CONTINUOUS
 10
-1259.333465904
 20
55.6040342684
 11
-1261.833465904
 21
55.6040342684
  0
LINE
  5
59E
100
AcDbEntity
  8
RACCORDO
100
AcDbLine
 62
253
  6
CONTINUOUS
 10
-482.4080745463
 20
-5.8079709968
 11
-482.4075481779
 21
-5.8080349381
  0
LWPOLYLINE
  5
59F
100
AcDbEntity
  8
0
100
AcDbPolyline
 62
7
  6
CONTINUOUS
 90
19
 70
0
 10
-1256.6557963744
 20
45.4040342684
 10
-1256.9660256675
 20
45.3883213982
 10
-1257.2611498912
 20
45.3428853083
 10
-1257.5411690456
 20
45.2704237772
 10
-1257.8065518603
 20
45.1742205491
 10
-1258.0568296055
 20
45.0569155952
 10
-1258.290596092
 20
44.9194639579
 10
-1258.5080709073
 20
44.7634628452
 10
-1258.7090344638
 20
44.5914054507
 10
-1258.8914218093
 20
44.4045330888
 10
-1259.0550641568
 20
44.2042441068
 10
-1259.2001302932
 20
43.9929599853
 10
-1259.3250616272
 20
43.7733490769
 10
-1259.4290758587
 20
43.5471564694
 10
-1259.5129552878
 20
43.3165677708
 10
-1259.577488223
 20
43.0850580554
 10
-1259.6229374339
 20
42.855000489
 10
-1259.6490401511
 20
42.6275049075
 10
-1259.6557963744
 20
42.4040342684
  0
LWPOLYLINE
  5
5A0
100
AcDbEntity
  8
RACCORDO
100
AcDbPolyline
 62
253
  6
CONTINUOUS
 90
10
 70
0
 10
-482.6562513679
 20
-5.706255969
 10
-482.6654026931
 20
-5.7047369155
 10
-482.6741931489
 20
-5.7009704313
 10
-482.6826042199
 20
-5.6949155938
 10
-482.6906499952
 20
-5.6864049689
 10
-482.6982831687
 20
-5.675534255
 10
-482.7053917918
 20
-5.6626901263
 10
-482.7119518352
 20
-5.6478753032
 10
-482.7179549009
 20
-5.6311026137
 10
-482.7233100189
 20
-5.612827691
  0
LINE
  5
5A1
100
AcDbEntity
  8
RACCORDO
100
AcDbLine
 62
253
  6
CONTINUOUS
 10
-482.4794802245
 20
-5.5998320592
 11
-482.4930142807
 21
-5.5969370319
  0
LINE
  5
5A2
100
AcDbEntity
  8
RACCORDO
100
AcDbLine
 62
253
  6
CONTINUOUS
 10
-482.6562557613
 20
-3.2650964537
 11
-482.6557501482
 21
-3.2649313851
  0
LINE
  5
5A3
100
AcDbEntity
  8
RACCORDO
100
AcDbLine
 62
253
  6
CONTINUOUS
 10
-482.6562514344
 20
-6.9268364223
 11
-482.6557467943
 21
-6.927001175
  0
LINE
  5
5A4
100
AcDbEntity
  8
RACCORDO
100
AcDbLine
 62
253
  6
CONTINUOUS
 10
-482.4664772011
 20
-5.6045945747
 11
-482.4794802245
 21
-5.5998320592
  0
LWPOLYLINE
  5
5A5
100
AcDbEntity
  8
RACCORDO
100
AcDbPolyline
 62
253
  6
CONTINUOUS
 90
22
 70
0
 10
-613.9437561415
 20
-5.8079710086
 10
-613.9442689022
 20
-5.7983058826
 10
-613.9455794624
 20
-5.788974556
 10
-613.947688401
 20
-5.7799638314
 10
-613.9506987082
 20
-5.7711412112
 10
-613.9545091384
 20
-5.7626050843
 10
-613.9588296228
 20
-5.7546898632
 10
-613.9636961465
 20
-5.7474710088
 10
-613.96911018
 20
-5.7408401228
 10
-613.9747464361
 20
-5.7348687813
 10
-613.9805921773
 20
-5.7296034954
 10
-613.9866974861
 20
-5.7249838724
 10
-613.9928303329
 20
-5.7209371884
 10
-613.9989709401
 20
-5.717481766
 10
-614.0051635051
 20
-5.7146009712
 10
-614.0112654592
 20
-5.712180013
 10
-614.0172503286
 20
-5.7102259407
 10
-614.0231570277
 20
-5.7087414501
 10
-614.0289355881
 20
-5.7076091582
 10
-614.0345703345
 20
-5.7067936174
 10
-614.0400816366
 20
-5.7063408168
 10
-614.0454711811
 20
-5.706255969
  0
LWPOLYLINE
  5
5A6
100
AcDbEntity
  8
RACCORDO
100
AcDbPolyline
 62
253
  6
CONTINUOUS
 90
22
 70
0
 10
-612.7231756666
 20
-4.3839604545
 10
-612.7226629059
 20
-4.3936255806
 10
-612.7213523457
 20
-4.4029569071
 10
-612.719243407
 20
-4.4119676318
 10
-612.7162330998
 20
-4.4207902519
 10
-612.7124226697
 20
-4.4293263788
 10
-612.7081021852
 20
-4.4372416
 10
-612.7032356615
 20
-4.4444604544
 10
-612.697821628
 20
-4.4510913403
 10
-612.6921853719
 20
-4.4570626819
 10
-612.6863396308
 20
-4.4623279677
 10
-612.680234322
 20
-4.4669475908
 10
-612.6741014751
 20
-4.4709942747
 10
-612.667960868
 20
-4.4744496971
 10
-612.6617683029
 20
-4.477330492
 10
-612.6556663488
 20
-4.4797514501
 10
-612.6496814795
 20
-4.4817055225
 10
-612.6437747803
 20
-4.483190013
 10
-612.63799622
 20
-4.4843223049
 10
-612.6323614735
 20
-4.4851378457
 10
-612.6268501714
 20
-4.4855906463
 10
-612.621460627
 20
-4.4856754941
  0
LWPOLYLINE
  5
5A7
100
AcDbEntity
  8
RACCORDO
100
AcDbPolyline
 62
253
  6
CONTINUOUS
 90
16
 70
0
 10
-613.6386106136
 20
-7.2319786967
 10
-613.6388237664
 20
-7.2196510233
 10
-613.6389474912
 20
-7.2069277916
 10
-613.6389797224
 20
-7.19402139
 10
-613.6389199217
 20
-7.1811472648
 10
-613.6387690869
 20
-7.1685203232
 10
-613.6385297355
 20
-7.1563513462
 10
-613.6382058626
 20
-7.1448434702
 10
-613.6378028742
 20
-7.1341887958
 10
-613.6373274968
 20
-7.1245651811
 10
-613.6367876654
 20
-7.1161332728
 10
-613.636192391
 20
-7.1090338244
 10
-613.63555161
 20
-7.1033853468
 10
-613.6348760183
 20
-7.0992821299
 10
-613.6341768931
 20
-7.0967926685
 10
-613.6334659043
 20
-7.0959585191
  0
LWPOLYLINE
  5
5A8
100
AcDbEntity
  8
RACCORDO
100
AcDbPolyline
 62
253
  6
CONTINUOUS
 90
16
 70
0
 10
-613.0283211944
 20
-2.9599527665
 10
-613.0281080417
 20
-2.9722804399
 10
-613.0279843169
 20
-2.9850036716
 10
-613.0279520856
 20
-2.9979100731
 10
-613.0280118864
 20
-3.0107841984
 10
-613.0281627212
 20
-3.02341114
 10
-613.0284020726
 20
-3.035580117
 10
-613.0287259454
 20
-3.0470879929
 10
-613.0291289339
 20
-3.0577426673
 10
-613.0296043113
 20
-3.067366282
 10
-613.0301441426
 20
-3.0757981904
 10
-613.030739417
 20
-3.0828976388
 10
-613.0313801981
 20
-3.0885461164
 10
-613.0320557898
 20
-3.0926493333
 10
-613.032754915
 20
-3.0951387947
 10
-613.0334659037
 20
-3.095972944
  0
LWPOLYLINE
  5
5A9
100
AcDbEntity
  8
RACCORDO
100
AcDbPolyline
 62
253
  6
CONTINUOUS
 90
13
 70
0
 10
-615.1643352985
 20
-5.7062555294
 10
-615.1644798764
 20
-5.6923252443
 10
-615.1640219104
 20
-5.6784655041
 10
-615.162970298
 20
-5.6649455786
 10
-615.1613454702
 20
-5.6520281357
 10
-615.1591789946
 20
-5.6399641383
 10
-615.156512962
 20
-5.6289879682
 10
-615.1533991687
 20
-5.6193128727
 10
-615.1498981102
 20
-5.6111268215
 10
-615.146077806
 20
-5.6045888551
 10
-615.1420124778
 20
-5.5998259943
 10
-615.1377811077
 20
-5.596930773
 10
-615.1334659037
 20
-5.5959594402
  0
LWPOLYLINE
  5
5AA
100
AcDbEntity
  8
RACCORDO
100
AcDbPolyline
 62
253
  6
CONTINUOUS
 90
13
 70
0
 10
-611.5025965095
 20
-4.4856759338
 10
-611.5024519316
 20
-4.4996062188
 10
-611.5029098977
 20
-4.5134659591
 10
-611.5039615101
 20
-4.5269858846
 10
-611.5055863379
 20
-4.5399033274
 10
-611.5077528135
 20
-4.5519673248
 10
-611.5104188461
 20
-4.5629434949
 10
-611.5135326394
 20
-4.5726185905
 10
-611.5170336978
 20
-4.5808046416
 10
-611.5208540021
 20
-4.5873426081
 10
-611.5249193303
 20
-4.5921054689
 10
-611.5291507004
 20
-4.5950006901
 10
-611.5334659043
 20
-4.5959720229
  0
LWPOLYLINE
  5
5AB
100
AcDbEntity
  8
RACCORDO
100
AcDbPolyline
 62
253
  6
CONTINUOUS
 90
13
 70
0
 10
-614.0454711788
 20
-5.7062559671
 10
-614.0455272522
 20
-5.6923260106
 10
-614.0453490225
 20
-5.6784667591
 10
-614.0449399517
 20
-5.6649474419
 10
-614.0443079866
 20
-5.6520306846
 10
-614.0434654037
 20
-5.6399674074
 10
-614.0424285709
 20
-5.6289919511
 10
-614.0412176297
 20
-5.6193175243
 10
-614.0398561039
 20
-5.611132062
 10
-614.0383704422
 20
-5.6045945747
 10
-614.0367895052
 20
-5.5998320592
 10
-614.035144004
 20
-5.5969370319
 10
-614.033465904
 20
-5.5959657316
  0
LWPOLYLINE
  5
5AC
100
AcDbEntity
  8
RACCORDO
100
AcDbPolyline
 62
253
  6
CONTINUOUS
 90
13
 70
0
 10
-612.6214606293
 20
-4.4856754961
 10
-612.6214045558
 20
-4.4996054526
 10
-612.6215827856
 20
-4.513464704
 10
-612.6219918563
 20
-4.5269840212
 10
-612.6226238214
 20
-4.5399007786
 10
-612.6234664043
 20
-4.5519640558
 10
-612.6245032371
 20
-4.5629395121
 10
-612.6257141783
 20
-4.5726139389
 10
-612.6270757042
 20
-4.5807994012
 10
-612.6285613658
 20
-4.5873368885
 10
-612.6301423029
 20
-4.592099404
 10
-612.6317878041
 20
-4.5949944312
 10
-612.633465904
 20
-4.5959657316
  0
LINE
  5
5AD
100
AcDbEntity
  8
RACCORDO
100
AcDbLine
 62
253
  6
CONTINUOUS
 10
-615.4694817352
 20
-5.4011108503
 11
-615.4694817352
 21
-4.7908206128
  0
LINE
  5
5AE
100
AcDbEntity
  8
RACCORDO
100
AcDbLine
 62
7
  6
CONTINUOUS
 10
-615.333465904
 20
-5.3959657316
 11
-615.333465904
 21
-4.7959657316
  0
LINE
  5
5AF
100
AcDbEntity
  8
RACCORDO
100
AcDbLine
 62
7
  6
CONTINUOUS
 10
-613.833465904
 20
-6.8959657316
 11
-613.833465904
 21
-5.7959657316
  0
LINE
  5
5B0
100
AcDbEntity
  8
RACCORDO
100
AcDbLine
 62
7
  6
CONTINUOUS
 10
-613.833465904
 20
-4.3959657316
 11
-613.833465904
 21
-3.2959657316
  0
LINE
  5
5B1
100
AcDbEntity
  8
RACCORDO
100
AcDbLine
 62
7
  6
CONTINUOUS
 10
-612.833465904
 20
-3.2959657316
 11
-612.833465904
 21
-4.3959657316
  0
LINE
  5
5B2
100
AcDbEntity
  8
RACCORDO
100
AcDbLine
 62
7
  6
CONTINUOUS
 10
-612.833465904
 20
-5.7959657316
 11
-612.833465904
 21
-6.8959657316
  0
LINE
  5
5B3
100
AcDbEntity
  8
RACCORDO
100
AcDbLine
 62
7
  6
CONTINUOUS
 10
-611.333465904
 20
-4.7959657316
 11
-611.333465904
 21
-5.3959657316
  0
LINE
  5
5B4
100
AcDbEntity
  8
RACCORDO
100
AcDbLine
 62
253
  6
CONTINUOUS
 10
-611.1974500729
 20
-4.7908206128
 11
-611.1974500729
 21
-5.4011108503
  0
LINE
  5
5B5
100
AcDbEntity
  8
RACCORDO
100
AcDbLine
 62
253
  6
CONTINUOUS
 10
-613.9437561415
 20
-4.3839604545
 11
-613.94375614
 21
-3.5323191052
  0
LINE
  5
5B6
100
AcDbEntity
  8
RACCORDO
100
AcDbLine
 62
253
  6
CONTINUOUS
 10
-613.9438322613
 20
-5.8660371788
 11
-613.9437561415
 21
-5.8079710086
  0
LINE
  5
5B7
100
AcDbEntity
  8
RACCORDO
100
AcDbLine
 62
253
  6
CONTINUOUS
 10
-612.7230995467
 20
-4.3258942843
 11
-612.7231756666
 21
-4.3839604545
  0
LINE
  5
5B8
100
AcDbEntity
  8
RACCORDO
100
AcDbLine
 62
253
  6
CONTINUOUS
 10
-612.7231756666
 20
-5.8079710086
 11
-612.723175668
 21
-6.6596123579
  0
LWPOLYLINE
  5
5B9
100
AcDbEntity
  8
RACCORDO
100
AcDbPolyline
 62
253
  6
CONTINUOUS
 90
3
 70
0
 10
-613.94375614
 20
-3.5323191052
 10
-613.9435763704
 20
-3.4455618008
 10
-613.9437561415
 20
-3.2650950192
  0
LWPOLYLINE
  5
5BA
100
AcDbEntity
  8
RACCORDO
100
AcDbPolyline
 62
253
  6
CONTINUOUS
 90
3
 70
0
 10
-612.723175668
 20
-6.6596123579
 10
-612.7233554376
 20
-6.7463696623
 10
-612.7231756666
 20
-6.926836444
  0
LINE
  5
5BB
100
AcDbEntity
  8
RACCORDO
100
AcDbLine
 62
253
  6
CONTINUOUS
 10
-613.9437561415
 20
-6.926836444
 11
-613.9438322613
 21
-5.8660371788
  0
LINE
  5
5BC
100
AcDbEntity
  8
RACCORDO
100
AcDbLine
 62
253
  6
CONTINUOUS
 10
-612.7231756666
 20
-3.2650950192
 11
-612.7230995467
 21
-4.3258942843
  0
LWPOLYLINE
  5
5BD
100
AcDbEntity
  8
RACCORDO
100
AcDbPolyline
 62
253
  6
CONTINUOUS
 90
13
 70
0
 10
-614.0454711808
 20
-4.4856754943
 10
-614.0455272512
 20
-4.4996054285
 10
-614.0453490189
 20
-4.5134646558
 10
-614.0449399462
 20
-4.5269839479
 10
-614.0443079797
 20
-4.5399006801
 10
-614.0434653959
 20
-4.5519639329
 10
-614.0424285629
 20
-4.5629393665
 10
-614.041217622
 20
-4.5726137729
 10
-614.039856097
 20
-4.5807992179
 10
-614.0383704366
 20
-4.5873366916
 10
-614.0367895011
 20
-4.5920991976
 10
-614.0351440019
 20
-4.5949942198
 10
-614.033465904
 20
-4.5959655198
  0
LWPOLYLINE
  5
5BE
100
AcDbEntity
  8
RACCORDO
100
AcDbPolyline
 62
253
  6
CONTINUOUS
 90
13
 70
0
 10
-612.6214606272
 20
-5.7062559688
 10
-612.6214045568
 20
-5.6923260346
 10
-612.6215827892
 20
-5.6784668073
 10
-612.6219918619
 20
-5.6649475152
 10
-612.6226238284
 20
-5.652030783
 10
-612.6234664121
 20
-5.6399675303
 10
-612.6245032451
 20
-5.6289920967
 10
-612.625714186
 20
-5.6193176903
 10
-612.6270757111
 20
-5.6111322453
 10
-612.6285613715
 20
-5.6045947716
 10
-612.6301423069
 20
-5.5998322655
 10
-612.6317878062
 20
-5.5969372433
 10
-612.633465904
 20
-5.5959659434
  0
LWPOLYLINE
  5
5BF
100
AcDbEntity
  8
RACCORDO
100
AcDbPolyline
 62
253
  6
CONTINUOUS
 90
13
 70
0
 10
-615.1643365997
 20
-4.4856754997
 10
-615.1644807885
 20
-4.499605453
 10
-615.1640224835
 20
-4.5134647013
 10
-615.1629705878
 20
-4.5269840155
 10
-615.1613455354
 20
-4.5399007703
 10
-615.1591788946
 20
-4.5519640454
 10
-615.1565127543
 20
-4.5629395004
 10
-615.1533989069
 20
-4.5726139267
 10
-615.1498978418
 20
-4.5807993894
 10
-615.1460775703
 20
-4.5873368782
 10
-615.142012305
 20
-4.5920993962
 10
-615.1377810173
 20
-4.5949944268
 10
-615.133465904
 20
-4.5959657316
  0
LWPOLYLINE
  5
5C0
100
AcDbEntity
  8
RACCORDO
100
AcDbPolyline
 62
253
  6
CONTINUOUS
 90
13
 70
0
 10
-611.5025952083
 20
-5.7062559635
 10
-611.5024510195
 20
-5.6923260102
 10
-611.5029093245
 20
-5.6784667619
 10
-611.5039612202
 20
-5.6649474476
 10
-611.5055862726
 20
-5.6520306928
 10
-611.5077529135
 20
-5.6399674177
 10
-611.5104190537
 20
-5.6289919627
 10
-611.5135329012
 20
-5.6193175364
 10
-611.5170339663
 20
-5.6111320737
 10
-611.5208542377
 20
-5.6045945849
 10
-611.5249195031
 20
-5.599832067
 10
-611.5291507908
 20
-5.5969370363
 10
-611.533465904
 20
-5.5959657316
  0
LWPOLYLINE
  5
5C1
100
AcDbEntity
  8
RACCORDO
100
AcDbPolyline
 62
253
  6
CONTINUOUS
 90
16
 70
0
 10
-613.6386110213
 20
-2.9599499107
 10
-613.6388241699
 20
-2.9722775318
 10
-613.6389478857
 20
-2.9850005239
 10
-613.6389801036
 20
-2.9979065321
 10
-613.638920286
 20
-3.0107801471
 10
-613.6387694312
 20
-3.0234065002
 10
-613.6385300573
 20
-3.0355748496
 10
-613.6382061595
 20
-3.0470820979
 10
-613.6378031439
 20
-3.0577361819
 10
-613.6373277371
 20
-3.0673592782
 10
-613.6367878739
 20
-3.0757907713
 10
-613.6361925649
 20
-3.0828899343
 10
-613.635551746
 20
-3.0885382776
 10
-613.634876113
 20
-3.0926415268
 10
-613.6341769424
 20
-3.0951311962
 10
-613.633465904
 20
-3.0959657316
  0
LWPOLYLINE
  5
5C2
100
AcDbEntity
  8
RACCORDO
100
AcDbPolyline
 62
253
  6
CONTINUOUS
 90
16
 70
0
 10
-613.0283207868
 20
-7.2319815524
 10
-613.0281076381
 20
-7.2196539313
 10
-613.0279839224
 20
-7.2069309393
 10
-613.0279517044
 20
-7.1940249311
 10
-613.0280115221
 20
-7.181151316
 10
-613.0281623768
 20
-7.1685249629
 10
-613.0284017508
 20
-7.1563566135
 10
-613.0287256485
 20
-7.1448493652
 10
-613.0291286641
 20
-7.1341952813
 10
-613.029604071
 20
-7.1245721849
 10
-613.0301439342
 20
-7.1161406918
 10
-613.0307392432
 20
-7.1090415289
 10
-613.031380062
 20
-7.1033931856
 10
-613.0320556951
 20
-7.0992899363
 10
-613.0327548656
 20
-7.0968002669
 10
-613.033465904
 20
-7.0959657316
  0
LWPOLYLINE
  5
5C3
100
AcDbEntity
  8
RACCORDO
100
AcDbPolyline
 62
253
  6
CONTINUOUS
 90
19
 70
0
 10
-615.4694817352
 20
-4.7908206128
 10
-615.4683420078
 20
-4.7647211548
 10
-615.4650461829
 20
-4.7390359703
 10
-615.4596099299
 20
-4.7138349591
 10
-615.4520238512
 20
-4.6891008054
 10
-615.4423289306
 20
-4.6649890385
 10
-615.430626328
 20
-4.6418229699
 10
-615.4169311468
 20
-4.6196439102
 10
-615.4012814267
 20
-4.5985301177
 10
-615.3838309981
 20
-4.5788434461
 10
-615.3645522085
 20
-4.5605865627
 10
-615.3435399191
 20
-4.543842123
 10
-615.3211496323
 20
-4.5290566399
 10
-615.2973839264
 20
-4.5162388897
 10
-615.2723123286
 20
-4.5053958693
 10
-615.2464021464
 20
-4.4969163846
 10
-615.2198290195
 20
-4.4908951018
 10
-615.1924691093
 20
-4.4871622125
 10
-615.1643366164
 20
-4.4856754941
  0
LWPOLYLINE
  5
5C4
100
AcDbEntity
  8
RACCORDO
100
AcDbPolyline
 62
253
  6
CONTINUOUS
 90
19
 70
0
 10
-611.1974500729
 20
-5.4011108503
 10
-611.1985898002
 20
-5.4272103084
 10
-611.2018856251
 20
-5.4528954928
 10
-611.2073218781
 20
-5.4780965041
 10
-611.2149079568
 20
-5.5028306578
 10
-611.2246028775
 20
-5.5269424246
 10
-611.23630548
 20
-5.5501084932
 10
-611.2500006612
 20
-5.5722875529
 10
-611.2656503813
 20
-5.5934013455
 10
-611.2831008099
 20
-5.613088017
 10
-611.3023795996
 20
-5.6313449005
 10
-611.323391889
 20
-5.6480893401
 10
-611.3457821757
 20
-5.6628748232
 10
-611.3695478816
 20
-5.6756925734
 10
-611.3946194794
 20
-5.6865355938
 10
-611.4205296616
 20
-5.6950150786
 10
-611.4471027885
 20
-5.7010363613
 10
-611.4744626987
 20
-5.7047692507
 10
-611.5025951916
 20
-5.706255969
  0
LWPOLYLINE
  5
5C5
100
AcDbEntity
  8
RACCORDO
100
AcDbPolyline
 62
253
  6
CONTINUOUS
 90
19
 70
0
 10
-613.9437561415
 20
-3.2650950192
 10
-613.9421548081
 20
-3.2364540841
 10
-613.9383248504
 20
-3.2087559126
 10
-613.9322299095
 20
-3.1820148413
 10
-613.9237114317
 20
-3.1561670238
 10
-613.9128674821
 20
-3.1313273509
 10
-613.9000746565
 20
-3.10778214
 10
-613.8853447029
 20
-3.0855484486
 10
-613.8686807608
 20
-3.0646801216
 10
-613.8504926378
 20
-3.0455085414
 10
-613.830848353
 20
-3.028113013
 10
-613.809761187
 20
-3.0124824027
 10
-613.78759342
 20
-2.9987955572
 10
-613.7644130917
 20
-2.9870945874
 10
-613.7402706748
 20
-2.9773917835
 10
-613.7155207528
 20
-2.9698019167
 10
-613.6903296963
 20
-2.9643696664
 10
-613.6646698143
 20
-2.9610806263
 10
-613.6386110228
 20
-2.9599499004
  0
LWPOLYLINE
  5
5C6
100
AcDbEntity
  8
RACCORDO
100
AcDbPolyline
 62
253
  6
CONTINUOUS
 90
19
 70
0
 10
-612.7231756666
 20
-6.926836444
 10
-612.7247769999
 20
-6.955477379
 10
-612.7286069576
 20
-6.9831755506
 10
-612.7347018985
 20
-7.0099166219
 10
-612.7432203763
 20
-7.0357644394
 10
-612.7540643259
 20
-7.0606041123
 10
-612.7668571515
 20
-7.0841493232
 10
-612.7815871051
 20
-7.1063830145
 10
-612.7982510472
 20
-7.1272513416
 10
-612.8164391703
 20
-7.1464229218
 10
-612.836083455
 20
-7.1638184502
 10
-612.857170621
 20
-7.1794490604
 10
-612.879338388
 20
-7.1931359059
 10
-612.9025187164
 20
-7.2048368757
 10
-612.9266611332
 20
-7.2145396797
 10
-612.9514110552
 20
-7.2221295464
 10
-612.9766021117
 20
-7.2275617968
 10
-613.0022619937
 20
-7.2308508368
 10
-613.0283207853
 20
-7.2319815627
  0
LINE
  5
5C7
100
AcDbEntity
  8
0
100
AcDbLine
 62
7
  6
CONTINUOUS
 10
-606.833465904
 20
-55.0959657316
 11
-606.833465904
 21
44.9040342684
  0
LINE
  5
5C8
100
AcDbEntity
  8
0
100
AcDbLine
 62
253
  6
CONTINUOUS
 10
-605.7246308956
 20
34.9040342684
 11
-605.7246308956
 21
-45.0959657316
  0
LINE
  5
5C9
100
AcDbEntity
  8
0
100
AcDbLine
 62
253
  6
CONTINUOUS
 10
-604.7693731515
 20
34.9040342684
 11
-604.7693731515
 21
-45.0959657316
  0
LINE
  5
5CA
100
AcDbEntity
  8
0
100
AcDbLine
 62
253
  6
CONTINUOUS
 10
-602.333465904
 20
34.9040342684
 11
-602.333465904
 21
-45.0959657316
  0
LINE
  5
5CB
100
AcDbEntity
  8
0
100
AcDbLine
 62
7
  6
CONTINUOUS
 10
-601.2984686556
 20
-55.5959657316
 11
-601.2984686556
 21
-47.5959657316
  0
LINE
  5
5CC
100
AcDbEntity
  8
0
100
AcDbLine
 62
7
  6
CONTINUOUS
 10
-601.2984686556
 20
-47.5959657316
 11
-601.2984686556
 21
-45.5959657316
  0
LINE
  5
5CD
100
AcDbEntity
  8
0
100
AcDbLine
 62
7
  6
CONTINUOUS
 10
-601.2984686556
 20
37.4040342684
 11
-601.2984686556
 21
55.6040342684
  0
LINE
  5
5CE
100
AcDbEntity
  8
0
100
AcDbLine
 62
7
  6
CONTINUOUS
 10
-599.2984686556
 20
-47.5959657316
 11
-599.2984686556
 21
-45.0959657316
  0
LINE
  5
5CF
100
AcDbEntity
  8
0
100
AcDbLine
 62
7
  6
CONTINUOUS
 10
-599.2984686556
 20
34.9040342684
 11
-599.2984686556
 21
37.4040342684
  0
LWPOLYLINE
  5
5D0
100
AcDbEntity
  8
RACCORDO
100
AcDbPolyline
 62
253
  6
CONTINUOUS
 90
9
 70
0
 10
-482.7398938624
 20
-7.2319815627
 10
-482.7409606136
 20
-7.2308695217
 10
-482.7412897664
 20
-7.2275908851
 10
-482.7408804581
 20
-7.2221595332
 10
-482.7397293044
 20
-7.2145571553
 10
-482.7378437913
 20
-7.2048296823
 10
-482.7352421763
 20
-7.1930999932
 10
-482.7319264758
 20
-7.1793849271
 10
-482.7279100767
 20
-7.1637232489
  0
LWPOLYLINE
  5
5D1
100
AcDbEntity
  8
RACCORDO
100
AcDbPolyline
 62
7
  6
CONTINUOUS
 90
7
 70
0
 10
-482.7081303342
 20
-5.6121190431
 10
-482.7069650177
 20
-5.6134185745
 10
-482.7067922875
 20
-5.6136284318
 10
-482.7075991065
 20
-5.6123428108
 10
-482.7091592339
 20
-5.6094610888
 10
-482.7113264049
 20
-5.6048054076
 10
-482.7139363723
 20
-5.5982677753
  0
LINE
  5
5D2
100
AcDbEntity
  8
0
100
AcDbLine
 62
7
  6
CONTINUOUS
 10
-555.0111354337
 20
45.4040342684
 11
-555.0111354337
 21
55.6040342684
  0
LWPOLYLINE
  5
5D3
100
AcDbEntity
  8
RACCORDO
100
AcDbPolyline
 62
7
  6
CONTINUOUS
 90
11
 70
0
 10
-482.4164377789
 20
-5.6508291064
 10
-482.4215851246
 20
-5.6421402075
 10
-482.427531112
 20
-5.6339982944
 10
-482.4343866327
 20
-5.6263207013
 10
-482.4422197149
 20
-5.6191632556
 10
-482.4509994622
 20
-5.612691134
 10
-482.4607098104
 20
-5.6070451591
 10
-482.4714411724
 20
-5.602332449
 10
-482.4831714774
 20
-5.598759511
 10
-482.4957338258
 20
-5.5965729414
 10
-482.5068168293
 20
-5.5959659467
  0
LINE
  5
5D4
100
AcDbEntity
  8
RACCORDO
100
AcDbLine
 62
7
  6
CONTINUOUS
 10
-482.4048715658
 20
-4.4086858846
 11
-482.4063606949
 21
-4.3941313539
  0
LINE
  5
5D5
100
AcDbEntity
  8
RACCORDO
100
AcDbLine
 62
7
  6
CONTINUOUS
 10
-482.4037679977
 20
-4.4214577305
 11
-482.4049707085
 21
-4.4076367937
  0
LINE
  5
5D6
100
AcDbEntity
  8
RACCORDO
100
AcDbLine
 62
7
  6
CONTINUOUS
 10
-482.4029143416
 20
-4.4335507608
 11
-482.403839183
 21
-4.4205590672
  0
LINE
  5
5D7
100
AcDbEntity
  8
RACCORDO
100
AcDbLine
 62
7
  6
CONTINUOUS
 10
-482.7324617873
 20
-4.8039930378
 11
-482.7331931919
 21
-4.7904506405
  0
LINE
  5
5D8
100
AcDbEntity
  8
RACCORDO
100
AcDbLine
 62
7
  6
CONTINUOUS
 10
-482.402304949
 20
-4.4448918753
 11
-482.4029616826
 21
-4.4327954541
  0
LINE
  5
5D9
100
AcDbEntity
  8
RACCORDO
100
AcDbLine
 62
7
  6
CONTINUOUS
 10
-482.7304915668
 20
-4.8440797592
 11
-482.7325615138
 21
-4.8021465409
  0
LINE
  5
5DA
100
AcDbEntity
  8
RACCORDO
100
AcDbLine
 62
7
  6
CONTINUOUS
 10
-482.7331978902
 20
-4.7904509
 11
-482.7338069759
 21
-4.7770913433
  0
LINE
  5
5DB
100
AcDbEntity
  8
RACCORDO
100
AcDbLine
 62
7
  6
CONTINUOUS
 10
-482.7288118347
 20
-4.8841795731
 11
-482.7306010091
 21
-4.8416867779
  0
LINE
  5
5DC
100
AcDbEntity
  8
RACCORDO
100
AcDbLine
 62
253
  6
CONTINUOUS
 10
-482.7398938624
 20
-4.7908206128
 11
-482.7409566953
 21
-4.7647211548
  0
LINE
  5
5DD
100
AcDbEntity
  8
RACCORDO
100
AcDbLine
 62
7
  6
CONTINUOUS
 10
-482.7274226956
 20
-4.9242901193
 11
-482.7289039302
 21
-4.8817860146
  0
LWPOLYLINE
  5
5DE
100
AcDbEntity
  8
RACCORDO
100
AcDbPolyline
 62
253
  6
CONTINUOUS
 90
13
 70
0
 10
-482.408074451
 20
-4.4856754943
 10
-482.4076132713
 20
-4.4996054285
 10
-482.4090792053
 20
-4.5134646558
 10
-482.4124437761
 20
-4.5269839479
 10
-482.4176416236
 20
-4.5399006801
 10
-482.424571775
 20
-4.5519639329
 10
-482.4330996056
 20
-4.5629393665
 10
-482.4430594545
 20
-4.5726137729
 10
-482.4542578423
 20
-4.5807992179
 10
-482.4664772301
 20
-4.5873366916
 10
-482.479480245
 20
-4.5920991976
 10
-482.4930142913
 20
-4.5949942198
 10
-482.5068164578
 20
-4.5959655198
  0
LWPOLYLINE
  5
5DF
100
AcDbEntity
  8
RACCORDO
100
AcDbPolyline
 62
253
  6
CONTINUOUS
 90
10
 70
0
 10
-482.6562514191
 20
-4.4856754997
 10
-482.6558097667
 20
-4.499605453
 10
-482.6572135616
 20
-4.5134647013
 10
-482.6604355336
 20
-4.5269840155
 10
-482.6654130928
 20
-4.5399007703
 10
-482.6720495456
 20
-4.5519640454
 10
-482.6802159725
 20
-4.5629395004
 10
-482.689753733
 20
-4.5726139267
 10
-482.700477547
 20
-4.5807993894
 10
-482.7111434142
 20
-4.5867582583
  0
LWPOLYLINE
  5
5E0
100
AcDbEntity
  8
0
100
AcDbPolyline
 62
7
  6
CONTINUOUS
 90
19
 70
0
 10
-511.0111354337
 20
42.4040342684
 10
-511.0179229505
 20
42.6276709514
 10
-511.0440525337
 20
42.8552813948
 10
-511.0895241833
 20
43.0854017265
 10
-511.1540743832
 20
43.3169061169
 10
-511.2379666494
 20
43.5474417817
 10
-511.3419915304
 20
43.7735856405
 10
-511.4669326278
 20
43.9931688055
 10
-511.61200634
 20
44.2044283839
 10
-511.7756524101
 20
44.404692301
 10
-511.9580392501
 20
44.5915386807
 10
-512.1589984481
 20
44.7635708096
 10
-512.3764645111
 20
44.9195475639
 10
-512.610217039
 20
45.0569763019
 10
-512.8604764319
 20
45.1742608849
 10
-513.1258383971
 20
45.2704472464
 10
-513.405834837
 20
45.3428960838
 10
-513.7009338492
 20
45.3883241717
 10
-514.0111354337
 20
45.4040342684
  0
LINE
  5
5E1
100
AcDbEntity
  8
RACCORDO
100
AcDbLine
 62
7
  6
CONTINUOUS
 10
-482.7263242071
 20
-4.964409436
 11
-482.7274974452
 21
-4.9218960298
  0
LINE
  5
5E2
100
AcDbEntity
  8
RACCORDO
100
AcDbLine
 62
7
  6
CONTINUOUS
 10
-482.7337748552
 20
-4.7783365345
 11
-482.7343602361
 21
-4.7556436613
  0
LINE
  5
5E3
100
AcDbEntity
  8
RACCORDO
100
AcDbLine
 62
7
  6
CONTINUOUS
 10
-482.7255164182
 20
-5.0045357018
 11
-482.7263816089
 21
-4.9620148812
  0
LINE
  5
5E4
100
AcDbEntity
  8
RACCORDO
100
AcDbLine
 62
7
  6
CONTINUOUS
 10
-482.7249993719
 20
-5.0446668851
 11
-482.7255564715
 21
-5.002140732
  0
LWPOLYLINE
  5
5E5
100
AcDbEntity
  8
RACCORDO
100
AcDbPolyline
 62
253
  6
CONTINUOUS
 90
7
 70
0
 10
-482.7409566953
 20
-4.7647211548
 10
-482.7412839012
 20
-4.7390359703
 10
-482.7408746249
 20
-4.7138349591
 10
-482.7397263942
 20
-4.6891008054
 10
-482.7378457625
 20
-4.6649890385
 10
-482.7352482315
 20
-4.6418229699
 10
-482.7319378025
 20
-4.6196439102
  0
LINE
  5
5E6
100
AcDbEntity
  8
RACCORDO
100
AcDbLine
 62
7
  6
CONTINUOUS
 10
-482.724773087
 20
-5.0848005611
 11
-482.7250220742
 21
-5.042271525
  0
LWPOLYLINE
  5
5E7
100
AcDbEntity
  8
RACCORDO
100
AcDbPolyline
 62
253
  6
CONTINUOUS
 90
10
 70
0
 10
-482.731472711
 20
-5.0959657316
 10
-482.7315765001
 20
-5.0620553162
 10
-482.7318879917
 20
-5.0281621542
 10
-482.7324074209
 20
-4.9942692108
 10
-482.7331362719
 20
-4.9603282606
 10
-482.7340740034
 20
-4.9263535382
 10
-482.7352180365
 20
-4.8924222068
 10
-482.7365681208
 20
-4.8585493347
 10
-482.7381263467
 20
-4.8246874723
 10
-482.7398938624
 20
-4.7908206128
  0
LINE
  5
5E8
100
AcDbEntity
  8
0
100
AcDbLine
 62
7
  6
CONTINUOUS
 10
-511.333465904
 20
45.9040342684
 11
-511.333465904
 21
55.6040342684
  0
LINE
  5
5E9
100
AcDbEntity
  8
0
100
AcDbLine
 62
253
  6
CONTINUOUS
 10
-511.0111354337
 20
42.4040342684
 11
-511.0111354337
 21
-52.5959657316
  0
LINE
  5
5EA
100
AcDbEntity
  8
0
100
AcDbLine
 62
7
  6
CONTINUOUS
 10
-511.0111354337
 20
-55.5959657316
 11
-511.0111354337
 21
-52.5959657316
  0
LINE
  5
5EB
100
AcDbEntity
  8
0
100
AcDbLine
 62
7
  6
CONTINUOUS
 10
-508.833465904
 20
45.9040342684
 11
-508.833465904
 21
55.6040342684
  0
LINE
  5
5EC
100
AcDbEntity
  8
0
100
AcDbLine
 62
7
  6
CONTINUOUS
 10
-508.333465904
 20
45.4040342684
 11
-508.333465904
 21
42.9040342684
  0
LINE
  5
5ED
100
AcDbEntity
  8
0
100
AcDbLine
 62
253
  6
CONTINUOUS
 10
-505.3542811842
 20
42.4040342684
 11
-505.3542811842
 21
-52.5959657316
  0
LINE
  5
5EE
100
AcDbEntity
  8
0
100
AcDbLine
 62
7
  6
CONTINUOUS
 10
-500.3338230378
 20
-55.5959657316
 11
-500.3338230378
 21
-53.0959657316
  0
LINE
  5
5EF
100
AcDbEntity
  8
0
100
AcDbLine
 62
7
  6
CONTINUOUS
 10
-499.8124090198
 20
-55.5959657316
 11
-499.8124090198
 21
-53.0959657316
  0
LINE
  5
5F0
100
AcDbEntity
  8
0
100
AcDbLine
 62
7
  6
CONTINUOUS
 10
-499.0610308316
 20
-55.5959657316
 11
-499.0610308316
 21
-53.0959657316
  0
LINE
  5
5F1
100
AcDbEntity
  8
0
100
AcDbLine
 62
7
  6
CONTINUOUS
 10
-497.333465904
 20
42.9040342684
 11
-497.333465904
 21
42.4040342684
  0
LINE
  5
5F2
100
AcDbEntity
  8
0
100
AcDbLine
 62
7
  6
CONTINUOUS
 10
-497.333465904
 20
-53.0959657316
 11
-497.333465904
 21
-52.5959657316
  0
LINE
  5
5F3
100
AcDbEntity
  8
0
100
AcDbLine
 62
253
  6
CONTINUOUS
 10
-489.333465904
 20
42.9040342684
 11
-489.333465904
 21
42.4040342684
  0
LINE
  5
5F4
100
AcDbEntity
  8
0
100
AcDbLine
 62
253
  6
CONTINUOUS
 10
-489.333465904
 20
-53.0959657316
 11
-489.333465904
 21
-52.5959657316
  0
LINE
  5
5F5
100
AcDbEntity
  8
0
100
AcDbLine
 62
7
  6
CONTINUOUS
 10
-488.3837184357
 20
-53.0959657316
 11
-488.3837184357
 21
-55.5959657316
  0
LINE
  5
5F6
100
AcDbEntity
  8
0
100
AcDbLine
 62
7
  6
CONTINUOUS
 10
-488.333465904
 20
45.4040342684
 11
-488.333465904
 21
42.9040342684
  0
LINE
  5
5F7
100
AcDbEntity
  8
0
100
AcDbLine
 62
253
  6
CONTINUOUS
 10
-488.333465904
 20
-55.5959657316
 11
-488.333465904
 21
-53.0959657316
  0
LINE
  5
5F8
100
AcDbEntity
  8
0
100
AcDbLine
 62
253
  6
CONTINUOUS
 10
-487.6766116545
 20
42.4040342684
 11
-487.6766116545
 21
-52.5959657316
  0
LINE
  5
5F9
100
AcDbEntity
  8
0
100
AcDbLine
 62
7
  6
CONTINUOUS
 10
-485.333465904
 20
-52.5959657316
 11
-485.333465904
 21
42.4040342684
  0
LINE
  5
5FA
100
AcDbEntity
  8
0
100
AcDbLine
 62
253
  6
CONTINUOUS
 10
-485.0242041591
 20
-10.0634825101
 11
-485.0242041591
 21
-0.1284489531
  0
LINE
  5
5FB
100
AcDbEntity
  8
RACCORDO
100
AcDbLine
 62
7
  6
CONTINUOUS
 10
-482.7247784342
 20
-5.1095266329
 11
-482.7247784342
 21
-5.0824048303
  0
LWPOLYLINE
  5
5FC
100
AcDbEntity
  8
RACCORDO
100
AcDbPolyline
 62
7
  6
CONTINUOUS
 90
10
 70
0
 10
-482.7343602361
 20
-4.7556436613
 10
-482.734301803
 20
-4.7335320132
 10
-482.7336216325
 20
-4.7122473052
 10
-482.7323670822
 20
-4.6920679246
 10
-482.7306033819
 20
-4.6731533947
 10
-482.7283943134
 20
-4.6556571947
 10
-482.7258325937
 20
-4.6398054797
 10
-482.723015464
 20
-4.6256748279
 10
-482.7200444676
 20
-4.613318699
 10
-482.7170575804
 20
-4.6028731398
  0
LINE
  5
5FD
100
AcDbEntity
  8
RACCORDO
100
AcDbLine
 62
7
  6
CONTINUOUS
 10
-482.7250220742
 20
-5.1496599382
 11
-482.724776171
 21
-5.1076778819
  0
LINE
  5
5FE
100
AcDbEntity
  8
RACCORDO
100
AcDbLine
 62
7
  6
CONTINUOUS
 10
-482.7255564715
 20
-5.1897907311
 11
-482.7249993719
 21
-5.147264578
  0
LWPOLYLINE
  5
5FF
100
AcDbEntity
  8
RACCORDO
100
AcDbPolyline
 62
7
  6
CONTINUOUS
 90
6
 70
0
 10
-482.4019303889
 20
-5.7364569603
 10
-482.4017851251
 20
-5.7266390312
 10
-482.4018645912
 20
-5.7175035908
 10
-482.4021721214
 20
-5.7089805513
 10
-482.4027229549
 20
-5.7009412475
 10
-482.4035731516
 20
-5.6930393827
  0
LINE
  5
600
100
AcDbEntity
  8
RACCORDO
100
AcDbLine
 62
7
  6
CONTINUOUS
 10
-482.7263816089
 20
-5.229916582
 11
-482.7255164182
 21
-5.1873957614
  0
LWPOLYLINE
  5
601
100
AcDbEntity
  8
RACCORDO
100
AcDbPolyline
 62
7
  6
CONTINUOUS
 90
3
 70
0
 10
-482.7343900988
 20
-5.439156786
 10
-482.7338834719
 20
-5.4165129496
 10
-482.7331960756
 20
-5.4014808132
  0
LINE
  5
602
100
AcDbEntity
  8
RACCORDO
100
AcDbLine
 62
7
  6
CONTINUOUS
 10
-482.7274974452
 20
-5.2700354333
 11
-482.7263242071
 21
-5.2275220272
  0
LWPOLYLINE
  5
603
100
AcDbEntity
  8
RACCORDO
100
AcDbPolyline
 62
253
  6
CONTINUOUS
 90
10
 70
0
 10
-482.6562554043
 20
-5.7062555294
 10
-482.655812554
 20
-5.6923252443
 10
-482.6572153044
 20
-5.6784655041
 10
-482.6604364028
 20
-5.6649455786
 10
-482.6654132689
 20
-5.6520281357
 10
-482.6720492113
 20
-5.6399641383
 10
-482.6802153053
 20
-5.6289879682
 10
-482.6897528987
 20
-5.6193128727
 10
-482.7004766929
 20
-5.6111268215
 10
-482.7111631866
 20
-5.6051560455
  0
LWPOLYLINE
  5
604
100
AcDbEntity
  8
RACCORDO
100
AcDbPolyline
 62
253
  6
CONTINUOUS
 90
10
 70
0
 10
-482.4080744677
 20
-5.7062559671
 10
-482.40761327
 20
-5.6923260106
 10
-482.4090791892
 20
-5.6784667591
 10
-482.4124437484
 20
-5.6649474419
 10
-482.4176415878
 20
-5.6520306846
 10
-482.4245717345
 20
-5.6399674074
 10
-482.4330995637
 20
-5.6289919511
 10
-482.4430594142
 20
-5.6193175243
 10
-482.4542578065
 20
-5.611132062
 10
-482.4664772011
 20
-5.6045945747
  0
LINE
  5
605
100
AcDbEntity
  8
RACCORDO
100
AcDbLine
 62
7
  6
CONTINUOUS
 10
-482.7289039302
 20
-5.3101454486
 11
-482.7274226956
 21
-5.2676413439
  0
LINE
  5
606
100
AcDbEntity
  8
RACCORDO
100
AcDbLine
 62
7
  6
CONTINUOUS
 10
-482.4023329536
 20
-5.7476605877
 11
-482.4019434865
 21
-5.7369516564
  0
LINE
  5
607
100
AcDbEntity
  8
RACCORDO
100
AcDbLine
 62
253
  6
CONTINUOUS
 10
-482.7409565836
 20
-5.4271286741
 11
-482.7398938624
 21
-5.4011108503
  0
LINE
  5
608
100
AcDbEntity
  8
RACCORDO
100
AcDbLine
 62
7
  6
CONTINUOUS
 10
-482.7306010091
 20
-5.3502446853
 11
-482.7288118347
 21
-5.30775189
  0
LINE
  5
609
100
AcDbEntity
  8
RACCORDO
100
AcDbLine
 62
7
  6
CONTINUOUS
 10
-482.7325885815
 20
-5.3903308347
 11
-482.7304915668
 21
-5.347851704
  0
LWPOLYLINE
  5
60A
100
AcDbEntity
  8
RACCORDO
100
AcDbPolyline
 62
253
  6
CONTINUOUS
 90
10
 70
0
 10
-482.7398938624
 20
-5.4011108503
 10
-482.7381263273
 20
-5.3672435074
 10
-482.736568089
 20
-5.3333813066
 10
-482.735217999
 20
-5.29950824
 10
-482.7340739698
 20
-5.2655768875
 10
-482.7331362488
 20
-5.2316022861
 10
-482.7324074073
 20
-5.1976615089
 10
-482.7318879838
 20
-5.1637687608
 10
-482.7315764967
 20
-5.1298758467
 10
-482.731472711
 20
-5.0959657316
  0
LINE
  5
60B
100
AcDbEntity
  8
RACCORDO
100
AcDbLine
 62
7
  6
CONTINUOUS
 10
-482.7331931919
 20
-5.4014808227
 11
-482.7324617873
 21
-5.3879384254
  0
LINE
  5
60C
100
AcDbEntity
  8
RACCORDO
100
AcDbLine
 62
7
  6
CONTINUOUS
 10
-482.4029616826
 20
-5.759136009
 11
-482.402304949
 21
-5.7470395878
  0
LINE
  5
60D
100
AcDbEntity
  8
RACCORDO
100
AcDbLine
 62
7
  6
CONTINUOUS
 10
-482.403839183
 20
-5.771372396
 11
-482.4029143416
 21
-5.7583807023
  0
LINE
  5
60E
100
AcDbEntity
  8
RACCORDO
100
AcDbLine
 62
7
  6
CONTINUOUS
 10
-482.4049707085
 20
-5.7842946694
 11
-482.4037679977
 21
-5.7704737326
  0
LWPOLYLINE
  5
60F
100
AcDbEntity
  8
RACCORDO
100
AcDbPolyline
 62
253
  6
CONTINUOUS
 90
20
 70
0
 10
-482.4059862984
 20
-5.788974556
 10
-482.4051480905
 20
-5.7799638314
 10
-482.4044411618
 20
-5.7711412112
 10
-482.4038664652
 20
-5.7626050843
 10
-482.4034308891
 20
-5.7546898632
 10
-482.4031452716
 20
-5.7474710088
 10
-482.4029966102
 20
-5.7408401228
 10
-482.4029566189
 20
-5.7348687813
 10
-482.4030275426
 20
-5.7296034954
 10
-482.403207209
 20
-5.7249838724
 10
-482.403461048
 20
-5.7209371884
 10
-482.403787666
 20
-5.717481766
 10
-482.4041893635
 20
-5.7146009712
 10
-482.404636907
 20
-5.712180013
 10
-482.4051271033
 20
-5.7102259407
 10
-482.405664
 20
-5.7087414501
 10
-482.4062288267
 20
-5.7076091582
 10
-482.406815435
 20
-5.7067936174
 10
-482.4074305341
 20
-5.7063408168
 10
-482.4080744488
 20
-5.706255969
  0
LINE
  5
610
100
AcDbEntity
  8
RACCORDO
100
AcDbLine
 62
7
  6
CONTINUOUS
 10
-482.4063606949
 20
-5.7978001092
 11
-482.4048715658
 21
-5.7832455785
  0
LINE
  5
611
100
AcDbEntity
  8
RACCORDO
100
AcDbLine
 62
7
  6
CONTINUOUS
 10
-482.4075480426
 20
-5.8080350054
 11
-482.4062279672
 21
-5.7965950214
  0
LINE
  5
612
100
AcDbEntity
  8
RACCORDO
100
AcDbLine
 62
253
  6
CONTINUOUS
 10
-482.4236931412
 20
-5.9263583124
 11
-482.4154346984
 21
-5.8660371788
  0
LWPOLYLINE
  5
613
100
AcDbEntity
  8
RACCORDO
100
AcDbPolyline
 62
7
  6
CONTINUOUS
 90
8
 70
0
 10
-482.4048259262
 20
-4.5069259266
 10
-482.4035677171
 20
-4.4988493318
 10
-482.4027127511
 20
-4.4908741629
 10
-482.4021624777
 20
-4.4827599225
 10
-482.4018586932
 20
-4.4741517277
 10
-482.4017864787
 20
-4.4649157912
 10
-482.4019434865
 20
-4.4549798067
 10
-482.4023329536
 20
-4.4442708754
  0
LINE
  5
614
100
AcDbEntity
  8
RACCORDO
100
AcDbLine
 62
253
  6
CONTINUOUS
 10
-482.4432104661
 20
-6.0537057955
 11
-482.4329267395
 21
-5.9889449552
  0
LINE
  5
615
100
AcDbEntity
  8
RACCORDO
100
AcDbLine
 62
7
  6
CONTINUOUS
 10
-482.7347260977
 20
-7.1982224751
 11
-482.7342698922
 21
-7.1954552135
  0
LINE
  5
616
100
AcDbEntity
  8
RACCORDO
100
AcDbLine
 62
253
  6
CONTINUOUS
 10
-482.4673199833
 20
-6.1901979831
 11
-482.4546369809
 21
-6.1207107776
  0
LWPOLYLINE
  5
617
100
AcDbEntity
  8
RACCORDO
100
AcDbPolyline
 62
7
  6
CONTINUOUS
 90
8
 70
0
 10
-482.7342698922
 20
-7.1954552135
 10
-482.7339461313
 20
-7.1937181572
 10
-482.7334734865
 20
-7.1913299975
 10
-482.7328764009
 20
-7.1884625731
 10
-482.7321736254
 20
-7.1852331718
 10
-482.7313703116
 20
-7.181679003
 10
-482.7304577914
 20
-7.1777724392
 10
-482.7294394604
 20
-7.1735368649
  0
LINE
  5
618
100
AcDbEntity
  8
RACCORDO
100
AcDbLine
 62
253
  6
CONTINUOUS
 10
-482.7319378025
 20
-4.6196439102
 11
-482.7279258549
 21
-4.5985301177
  0
LINE
  5
619
100
AcDbEntity
  8
RACCORDO
100
AcDbLine
 62
253
  6
CONTINUOUS
 10
-482.4968760904
 20
-6.3365653938
 11
-482.4813677298
 21
-6.2621763994
  0
LINE
  5
61A
100
AcDbEntity
  8
RACCORDO
100
AcDbLine
 62
253
  6
CONTINUOUS
 10
-482.7279258549
 20
-4.5985301177
 11
-482.7232414341
 21
-4.5788434461
  0
LINE
  5
61B
100
AcDbEntity
  8
RACCORDO
100
AcDbLine
 62
7
  6
CONTINUOUS
 10
-482.7294394604
 20
-7.1735368649
 11
-482.7281177562
 21
-7.1681982601
  0
LWPOLYLINE
  5
61C
100
AcDbEntity
  8
RACCORDO
100
AcDbPolyline
 62
253
  6
CONTINUOUS
 90
3
 70
0
 10
-482.5532244836
 20
-6.5744431872
 10
-482.5326900049
 20
-6.4927567347
 10
-482.5139499777
 20
-6.4134596051
  0
LINE
  5
61D
100
AcDbEntity
  8
RACCORDO
100
AcDbLine
 62
7
  6
CONTINUOUS
 10
-482.7283148702
 20
-7.1689760111
 11
-482.7268647291
 21
-7.1632375918
  0
LINE
  5
61E
100
AcDbEntity
  8
RACCORDO
100
AcDbLine
 62
7
  6
CONTINUOUS
 10
-482.7270842806
 20
-7.1640942866
 11
-482.7243221329
 21
-7.1534378517
  0
LINE
  5
61F
100
AcDbEntity
  8
RACCORDO
100
AcDbLine
 62
7
  6
CONTINUOUS
 10
-482.7255122729
 20
-7.1579827113
 11
-482.7225121322
 21
-7.1466215013
  0
LWPOLYLINE
  5
620
100
AcDbEntity
  8
RACCORDO
100
AcDbPolyline
 62
253
  6
CONTINUOUS
 90
6
 70
0
 10
-482.7279100767
 20
-7.1637232489
 10
-482.7232306167
 20
-7.1462913472
 10
-482.7178850515
 20
-7.1270753729
 10
-482.7119021172
 20
-7.1061575721
 10
-482.7053677334
 20
-7.0838752421
 10
-482.7022359367
 20
-7.0754508583
  0
LINE
  5
621
100
AcDbEntity
  8
RACCORDO
100
AcDbLine
 62
7
  6
CONTINUOUS
 10
-482.72279146
 20
-7.1476712089
 11
-482.7191142669
 21
-7.1341326988
  0
LINE
  5
622
100
AcDbEntity
  8
RACCORDO
100
AcDbLine
 62
7
  6
CONTINUOUS
 10
-482.7194385163
 20
-7.1353108569
 11
-482.7153251609
 21
-7.1205536283
  0
LINE
  5
623
100
AcDbEntity
  8
RACCORDO
100
AcDbLine
 62
7
  6
CONTINUOUS
 10
-482.7156987509
 20
-7.1218741297
 11
-482.7111562466
 21
-7.1059239076
  0
LINE
  5
624
100
AcDbEntity
  8
RACCORDO
100
AcDbLine
 62
7
  6
CONTINUOUS
 10
-482.711576199
 20
-7.1073860935
 11
-482.7066182969
 21
-7.0902950103
  0
LWPOLYLINE
  5
625
100
AcDbEntity
  8
RACCORDO
100
AcDbPolyline
 62
253
  6
CONTINUOUS
 90
10
 70
0
 10
-482.7232414341
 20
-4.5788434461
 10
-482.71787766
 20
-4.5605865627
 10
-482.7118675638
 20
-4.543842123
 10
-482.7053007813
 20
-4.5290566399
 10
-482.6981802969
 20
-4.5162388897
 10
-482.6905356947
 20
-4.5053958693
 10
-482.6824936072
 20
-4.4969163846
 10
-482.6741056731
 20
-4.4908951018
 10
-482.6653522974
 20
-4.4871622125
 10
-482.6562513679
 20
-4.4856754941
  0
LINE
  5
626
100
AcDbEntity
  8
RACCORDO
100
AcDbLine
 62
7
  6
CONTINUOUS
 10
-482.7070852481
 20
-7.0918957969
 11
-482.7017196156
 21
-7.0737145284
  0
LWPOLYLINE
  5
627
100
AcDbEntity
  8
RACCORDO
100
AcDbPolyline
 62
253
  6
CONTINUOUS
 90
3
 70
0
 10
-482.6991374025
 20
-7.0650794392
 10
-482.6982973183
 20
-7.0602648043
 10
-482.6964695619
 20
-7.056225103
  0
LWPOLYLINE
  5
628
100
AcDbEntity
  8
RACCORDO
100
AcDbPolyline
 62
253
  6
CONTINUOUS
 90
3
 70
0
 10
-482.6270927398
 20
-6.8350625898
 10
-482.600292296
 20
-6.7456693453
 10
-482.5757107968
 20
-6.6587390209
  0
LINE
  5
629
100
AcDbEntity
  8
RACCORDO
100
AcDbLine
 62
7
  6
CONTINUOUS
 10
-482.7022359367
 20
-7.0754508583
 11
-482.6943114909
 21
-7.0491017555
  0
LWPOLYLINE
  5
62A
100
AcDbEntity
  8
RACCORDO
100
AcDbPolyline
 62
253
  6
CONTINUOUS
 90
3
 70
0
 10
-482.6937185949
 20
-7.0471593883
 10
-482.6907072914
 20
-7.0353610834
 10
-482.6886174663
 20
-7.030500645
  0
LINE
  5
62B
100
AcDbEntity
  8
RACCORDO
100
AcDbLine
 62
7
  6
CONTINUOUS
 10
-482.6964695619
 20
-7.056225103
 11
-482.687977145
 21
-7.0284268492
  0
LWPOLYLINE
  5
62C
100
AcDbEntity
  8
RACCORDO
100
AcDbPolyline
 62
253
  6
CONTINUOUS
 90
3
 70
0
 10
-482.6849897811
 20
-7.0187722314
 10
-482.6826834941
 20
-7.0095092405
 10
-482.679505152
 20
-7.0011984796
  0
LINE
  5
62D
100
AcDbEntity
  8
RACCORDO
100
AcDbLine
 62
7
  6
CONTINUOUS
 10
-482.6886174663
 20
-7.030500645
 11
-482.6787925681
 21
-6.9989267601
  0
LWPOLYLINE
  5
62E
100
AcDbEntity
  8
RACCORDO
100
AcDbPolyline
 62
253
  6
CONTINUOUS
 90
5
 70
0
 10
-482.7399012729
 20
-7.2319786967
 10
-482.7360413063
 20
-7.2196510233
 10
-482.733800492
 20
-7.2069277916
 10
-482.7332162358
 20
-7.19402139
 10
-482.7334513707
 20
-7.1912237896
  0
LWPOLYLINE
  5
62F
100
AcDbEntity
  8
RACCORDO
100
AcDbPolyline
 62
253
  6
CONTINUOUS
 90
3
 70
0
 10
-482.6755863549
 20
-6.9887496854
 10
-482.6742653483
 20
-6.9828438528
 10
-482.6697597251
 20
-6.9704057801
  0
LWPOLYLINE
  5
630
100
AcDbEntity
  8
RACCORDO
100
AcDbPolyline
 62
7
  6
CONTINUOUS
 90
10
 70
0
 10
-482.6557467943
 20
-6.927001175
 10
-482.6241318278
 20
-6.827168995
 10
-482.586342679
 20
-6.6988911461
 10
-482.5514712075
 20
-6.5697912749
 10
-482.519535272
 20
-6.4399362245
 10
-482.4905504013
 20
-6.3093893059
 10
-482.4645311395
 20
-6.1782164775
 10
-482.441491336
 20
-6.04648543
 10
-482.4214427694
 20
-5.9142628585
 10
-482.4075474768
 20
-5.8080350216
  0
LINE
  5
631
100
AcDbEntity
  8
RACCORDO
100
AcDbLine
 62
7
  6
CONTINUOUS
 10
-482.679505152
 20
-7.0011984796
 11
-482.668971747
 21
-6.9679326596
  0
LINE
  5
632
100
AcDbEntity
  8
RACCORDO
100
AcDbLine
 62
253
  6
CONTINUOUS
 10
-482.6663818906
 20
-6.9598510581
 11
-482.6654481968
 21
-6.955281503
  0
LINE
  5
633
100
AcDbEntity
  8
RACCORDO
100
AcDbLine
 62
7
  6
CONTINUOUS
 10
-482.6697597251
 20
-6.9704057801
 11
-482.659450237
 21
-6.938369682
  0
LINE
  5
634
100
AcDbEntity
  8
RACCORDO
100
AcDbLine
 62
7
  6
CONTINUOUS
 10
-482.659450237
 20
-6.938369682
 11
-482.6557501297
 21
-6.9270000864
  0
LWPOLYLINE
  5
635
100
AcDbEntity
  8
RACCORDO
100
AcDbPolyline
 62
7
  6
CONTINUOUS
 90
6
 70
0
 10
-482.7170575804
 20
-4.6028731398
 10
-482.7141739694
 20
-4.5943086378
 10
-482.7115249038
 20
-4.5875877723
 10
-482.7093104469
 20
-4.58277264
 10
-482.7076920049
 20
-4.5797485696
 10
-482.7074506137
 20
-4.5793399183
  0
LWPOLYLINE
  5
636
100
AcDbEntity
  8
RACCORDO
100
AcDbPolyline
 62
7
  6
CONTINUOUS
 90
13
 70
0
 10
-482.4090155182
 20
-5.6683592221
 10
-482.4123197138
 20
-5.6595081249
 10
-482.4166461029
 20
-5.6504385503
 10
-482.4218891705
 20
-5.6416813534
 10
-482.4279449373
 20
-5.6334887441
 10
-482.4349251655
 20
-5.6257788194
 10
-482.4428989628
 20
-5.6186090286
 10
-482.4518335529
 20
-5.6121484093
 10
-482.46170912
 20
-5.60654281
 10
-482.472613552
 20
-5.6019048354
 10
-482.4845194729
 20
-5.5984463881
 10
-482.4972517648
 20
-5.5964177391
 10
-482.5068212411
 20
-5.5959658157
  0
LWPOLYLINE
  5
637
100
AcDbEntity
  8
RACCORDO
100
AcDbPolyline
 62
7
  6
CONTINUOUS
 90
11
 70
0
 10
-482.7139363723
 20
-5.5982677753
 10
-482.7167891965
 20
-5.5899129218
 10
-482.7197564502
 20
-5.5797006562
 10
-482.7227186486
 20
-5.5675994731
 10
-482.7255375417
 20
-5.5537376538
 10
-482.7281180365
 20
-5.5381585739
 10
-482.7303652208
 20
-5.5209262195
 10
-482.7321787801
 20
-5.5022499366
 10
-482.7334927475
 20
-5.4822767972
 10
-482.7342496254
 20
-5.4611572728
 10
-482.7343900988
 20
-5.439156786
  0
LINE
  5
638
100
AcDbEntity
  8
RACCORDO
100
AcDbLine
 62
7
  6
CONTINUOUS
 10
-482.6557501297
 20
-3.2649313767
 11
-482.6655697423
 21
-3.2346161848
  0
LINE
  5
639
100
AcDbEntity
  8
RACCORDO
100
AcDbLine
 62
253
  6
CONTINUOUS
 10
-482.6655086796
 20
-3.2364540841
 11
-482.6655697423
 21
-3.2346161848
  0
LINE
  5
63A
100
AcDbEntity
  8
RACCORDO
100
AcDbLine
 62
253
  6
CONTINUOUS
 10
-482.6689742507
 20
-3.2239909679
 11
-482.6743685512
 21
-3.2087559126
  0
LINE
  5
63B
100
AcDbEntity
  8
RACCORDO
100
AcDbLine
 62
7
  6
CONTINUOUS
 10
-482.6655697423
 20
-3.2346161848
 11
-482.6755911176
 21
-3.2031667037
  0
LWPOLYLINE
  5
63C
100
AcDbEntity
  8
RACCORDO
100
AcDbPolyline
 62
253
  6
CONTINUOUS
 90
5
 70
0
 10
-482.7398938889
 20
-2.9599499107
 10
-482.7360350523
 20
-2.9722775318
 10
-482.7337953063
 20
-2.9850005239
 10
-482.7332120338
 20
-2.9979065321
 10
-482.7334493986
 20
-3.0007282516
  0
LINE
  5
63D
100
AcDbEntity
  8
RACCORDO
100
AcDbLine
 62
7
  6
CONTINUOUS
 10
-482.6755911176
 20
-3.2031667037
 11
-482.6849984726
 21
-3.1731312288
  0
LINE
  5
63E
100
AcDbEntity
  8
RACCORDO
100
AcDbLine
 62
7
  6
CONTINUOUS
 10
-482.6849984726
 20
-3.1731312288
 11
-482.6937312971
 21
-3.1447303562
  0
LWPOLYLINE
  5
63F
100
AcDbEntity
  8
RACCORDO
100
AcDbPolyline
 62
253
  6
CONTINUOUS
 90
6
 70
0
 10
-482.7042308185
 20
-3.1097518986
 10
-482.7054489187
 20
-3.10778214
 10
-482.7119675072
 20
-3.0855484486
 10
-482.7179347917
 20
-3.0646801216
 10
-482.723266597
 20
-3.0455085414
 10
-482.7279349711
 20
-3.028113013
  0
LINE
  5
640
100
AcDbEntity
  8
RACCORDO
100
AcDbLine
 62
7
  6
CONTINUOUS
 10
-482.6937312971
 20
-3.1447303562
 11
-482.7017357836
 21
-3.1181626531
  0
LINE
  5
641
100
AcDbEntity
  8
RACCORDO
100
AcDbLine
 62
7
  6
CONTINUOUS
 10
-482.7017357836
 20
-3.1181626531
 11
-482.706636213
 21
-3.1015752894
  0
LINE
  5
642
100
AcDbEntity
  8
RACCORDO
100
AcDbLine
 62
7
  6
CONTINUOUS
 10
-482.706636213
 20
-3.1015752894
 11
-482.7111753221
 21
-3.0859412441
  0
LINE
  5
643
100
AcDbEntity
  8
RACCORDO
100
AcDbLine
 62
7
  6
CONTINUOUS
 10
-482.7111753221
 20
-3.0859412441
 11
-482.7153447541
 21
-3.0713083812
  0
LWPOLYLINE
  5
644
100
AcDbEntity
  8
RACCORDO
100
AcDbPolyline
 62
253
  6
CONTINUOUS
 90
3
 70
0
 10
-482.5759507955
 20
-3.5323191052
 10
-482.6004946965
 20
-3.4455618008
 10
-482.6272169299
 20
-3.3564598284
  0
LINE
  5
645
100
AcDbEntity
  8
RACCORDO
100
AcDbLine
 62
7
  6
CONTINUOUS
 10
-482.7153447541
 20
-3.0713083812
 11
-482.7191336209
 21
-3.0577285568
  0
LINE
  5
646
100
AcDbEntity
  8
RACCORDO
100
AcDbLine
 62
7
  6
CONTINUOUS
 10
-482.7191336209
 20
-3.0577285568
 11
-482.722530508
 21
-3.0452414343
  0
LWPOLYLINE
  5
647
100
AcDbEntity
  8
RACCORDO
100
AcDbPolyline
 62
7
  6
CONTINUOUS
 90
4
 70
0
 10
-482.722530508
 20
-3.0452414343
 10
-482.7255290085
 20
-3.0338842912
 10
-482.7268804216
 20
-3.0286323259
 10
-482.7281322763
 20
-3.0236751352
  0
LWPOLYLINE
  5
648
100
AcDbEntity
  8
RACCORDO
100
AcDbPolyline
 62
253
  6
CONTINUOUS
 90
9
 70
0
 10
-482.7279349711
 20
-3.028113013
 10
-482.7319423289
 20
-3.0124824027
 10
-482.7352506776
 20
-2.9987955572
 10
-482.7378465593
 20
-2.9870945874
 10
-482.7397281004
 20
-2.9773917835
 10
-482.7408769902
 20
-2.9698019167
 10
-482.741285731
 20
-2.9643696664
 10
-482.7409577358
 20
-2.9610806263
 10
-482.7398938624
 20
-2.9599499004
  0
LWPOLYLINE
  5
649
100
AcDbEntity
  8
RACCORDO
100
AcDbPolyline
 62
7
  6
CONTINUOUS
 90
10
 70
0
 10
-482.7281322763
 20
-3.0236751352
 10
-482.7292787781
 20
-3.0190411686
 10
-482.7303197413
 20
-3.0147328847
 10
-482.7312544965
 20
-3.0107553913
 10
-482.7320764038
 20
-3.0071433339
 10
-482.7327906895
 20
-3.0038838359
 10
-482.7333956136
 20
-3.0009984524
 10
-482.7338791339
 20
-2.9985693795
 10
-482.734255839
 20
-2.9965573584
 10
-482.7343345337
 20
-2.9961172681
  0
LINE
  5
64A
100
AcDbEntity
  8
RACCORDO
100
AcDbLine
 62
253
  6
CONTINUOUS
 10
-482.7233100189
 20
-5.612827691
 11
-482.7279827485
 21
-5.5931395332
  0
LWPOLYLINE
  5
64B
100
AcDbEntity
  8
RACCORDO
100
AcDbPolyline
 62
253
  6
CONTINUOUS
 90
3
 70
0
 10
-482.5141078173
 20
-3.7777831465
 10
-482.532880139
 20
-3.6983984326
 10
-482.5534544141
 20
-3.616605112
  0
LINE
  5
64C
100
AcDbEntity
  8
RACCORDO
100
AcDbLine
 62
253
  6
CONTINUOUS
 10
-482.4815029126
 20
-3.929084416
 11
-482.4970201768
 21
-3.8546955329
  0
LINE
  5
64D
100
AcDbEntity
  8
RACCORDO
100
AcDbLine
 62
253
  6
CONTINUOUS
 10
-482.7279827485
 20
-5.5931395332
 11
-482.7319813636
 21
-5.5720355395
  0
LINE
  5
64E
100
AcDbEntity
  8
RACCORDO
100
AcDbLine
 62
253
  6
CONTINUOUS
 10
-482.454758582
 20
-4.0705267283
 11
-482.4674467915
 21
-4.0010619021
  0
LINE
  5
64F
100
AcDbEntity
  8
RACCORDO
100
AcDbLine
 62
253
  6
CONTINUOUS
 10
-482.4330282524
 20
-4.2023238629
 11
-482.4433271082
 21
-4.1375089565
  0
LWPOLYLINE
  5
650
100
AcDbEntity
  8
RACCORDO
100
AcDbPolyline
 62
7
  6
CONTINUOUS
 90
4
 70
0
 10
-482.4035677171
 20
-5.6930821314
 10
-482.4048259262
 20
-5.6850055366
 10
-482.4065938265
 20
-5.6767957588
 10
-482.4090155182
 20
-5.6683592221
  0
LWPOLYLINE
  5
651
100
AcDbEntity
  8
RACCORDO
100
AcDbPolyline
 62
253
  6
CONTINUOUS
 90
7
 70
0
 10
-482.7319813636
 20
-5.5720355395
 10
-482.7352797154
 20
-5.5498690929
 10
-482.7378671936
 20
-5.5267103978
 10
-482.7397391212
 20
-5.5026083813
 10
-482.7408807629
 20
-5.477900995
 10
-482.7412858365
 20
-5.452748581
 10
-482.7409565836
 20
-5.4271286741
  0
LINE
  5
652
100
AcDbEntity
  8
RACCORDO
100
AcDbLine
 62
253
  6
CONTINUOUS
 10
-482.415474878
 20
-4.3256074079
 11
-482.4237675248
 21
-4.2650637633
  0
LWPOLYLINE
  5
653
100
AcDbEntity
  8
RACCORDO
100
AcDbPolyline
 62
7
  6
CONTINUOUS
 90
10
 70
0
 10
-482.4075474894
 20
-4.3838963856
 10
-482.4211112361
 20
-4.2800392923
 10
-482.4411067065
 20
-4.1478052199
 10
-482.4640935522
 20
-4.0160626447
 10
-482.4900599254
 20
-3.8848782674
 10
-482.5189919253
 20
-3.7543198459
 10
-482.5508750294
 20
-3.6244529875
 10
-482.585693739
 20
-3.495340858
 10
-482.6234298752
 20
-3.3670509906
 10
-482.6557467663
 20
-3.2649302812
  0
LINE
  5
654
100
AcDbEntity
  8
RACCORDO
100
AcDbLine
 62
7
  6
CONTINUOUS
 10
-482.4062279672
 20
-4.3953364418
 11
-482.4075480426
 21
-4.3838964578
  0
ARC
  5
655
100
AcDbEntity
  8
0
100
AcDbCircle
 62
7
  6
CONTINUOUS
 10
-397.1952179947
 20
-52.5959657316
 40
3.0
100
AcDbArc
 50
180.0
 51
270.0
  0
ARC
  5
656
100
AcDbEntity
  8
0
100
AcDbCircle
 62
7
  6
CONTINUOUS
 10
-377.1952179947
 20
-52.5959657316
 40
0.5
100
AcDbArc
 50
270.0
 51
360.0
  0
ARC
  5
657
100
AcDbEntity
  8
0
100
AcDbCircle
 62
7
  6
CONTINUOUS
 10
-397.1952179947
 20
-52.5959657316
 40
0.5
100
AcDbArc
 50
180.0
 51
270.0
  0
ARC
  5
658
100
AcDbEntity
  8
0
100
AcDbCircle
 62
7
  6
CONTINUOUS
 10
-397.2644487639
 20
-5.0959657316
 40
5.9307692308
100
AcDbArc
 50
201.109918699
 51
236.8858572487
  0
ARC
  5
659
100
AcDbEntity
  8
0
100
AcDbCircle
 62
7
  6
CONTINUOUS
 10
-397.2644487639
 20
-5.0959657316
 40
5.9307692308
100
AcDbArc
 50
123.1141427513
 51
158.890081301
  0
ARC
  5
65A
100
AcDbEntity
  8
0
100
AcDbCircle
 62
7
  6
CONTINUOUS
 10
-400.3952179947
 20
-9.8959657316
 40
0.2
100
AcDbArc
 50
236.8858572487
 51
360.0
  0
ARC
  5
65B
100
AcDbEntity
  8
RACCORDO
100
AcDbCircle
 62
7
  6
CONTINUOUS
 10
-402.7039220905
 20
-7.1959657316
 40
0.1
100
AcDbArc
 50
164.7158483146
 51
201.1099185894
  0
CIRCLE
  5
65C
100
AcDbEntity
  8
0
100
AcDbCircle
 62
7
  6
CONTINUOUS
 10
-272.1952179947
 20
-5.0959657316
 40
5.0
  0
CIRCLE
  5
65D
100
AcDbEntity
  8
0
100
AcDbCircle
 62
253
  6
CONTINUOUS
 10
-272.1952179947
 20
-5.0959657316
 40
4.9675167785
  0
ARC
  5
65E
100
AcDbEntity
  8
ASSI
100
AcDbCircle
 62
7
  6
CONTINUOUS
 10
-272.1952179947
 20
-7.5959657316
 40
3.5
100
AcDbArc
 50
201.9167530526
 51
338.0832469474
  0
ARC
  5
65F
100
AcDbEntity
  8
RACCORDO
100
AcDbCircle
 62
7
  6
CONTINUOUS
 10
-270.3952179947
 20
-5.3959657316
 40
0.2
100
AcDbArc
 50
270.0
 51
360.0
  0
ARC
  5
660
100
AcDbEntity
  8
RACCORDO
100
AcDbCircle
 62
7
  6
CONTINUOUS
 10
-270.3952179947
 20
-4.7959657316
 40
0.2
100
AcDbArc
 50
0.0
 51
90.0
  0
ARC
  5
661
100
AcDbEntity
  8
RACCORDO
100
AcDbCircle
 62
7
  6
CONTINUOUS
 10
-273.9952179947
 20
-4.7959657316
 40
0.2
100
AcDbArc
 50
90.0
 51
180.0
  0
ARC
  5
662
100
AcDbEntity
  8
RACCORDO
100
AcDbCircle
 62
7
  6
CONTINUOUS
 10
-273.9952179947
 20
-5.3959657316
 40
0.2
100
AcDbArc
 50
180.0
 51
270.0
  0
ARC
  5
663
100
AcDbEntity
  8
RACCORDO
100
AcDbCircle
 62
7
  6
CONTINUOUS
 10
-272.4952179947
 20
-6.8959657316
 40
0.2
100
AcDbArc
 50
180.0
 51
270.0
  0
ARC
  5
664
100
AcDbEntity
  8
RACCORDO
100
AcDbCircle
 62
7
  6
CONTINUOUS
 10
-271.8952179947
 20
-6.8959657316
 40
0.2
100
AcDbArc
 50
270.0
 51
360.0
  0
ARC
  5
665
100
AcDbEntity
  8
RACCORDO
100
AcDbCircle
 62
7
  6
CONTINUOUS
 10
-271.4952179947
 20
-4.3959657316
 40
0.2
100
AcDbArc
 50
180.0
 51
270.0
  0
ARC
  5
666
100
AcDbEntity
  8
RACCORDO
100
AcDbCircle
 62
7
  6
CONTINUOUS
 10
-272.8952179947
 20
-4.3959657316
 40
0.2
100
AcDbArc
 50
270.0
 51
360.0
  0
ARC
  5
667
100
AcDbEntity
  8
RACCORDO
100
AcDbCircle
 62
7
  6
CONTINUOUS
 10
-271.4952179947
 20
-5.7959657316
 40
0.2
100
AcDbArc
 50
90.0
 51
180.0
  0
ARC
  5
668
100
AcDbEntity
  8
RACCORDO
100
AcDbCircle
 62
7
  6
CONTINUOUS
 10
-272.8952179947
 20
-5.7959657316
 40
0.2
100
AcDbArc
 50
0.0
 51
90.0
  0
ARC
  5
669
100
AcDbEntity
  8
ASSI
100
AcDbCircle
 62
7
  6
CONTINUOUS
 10
-272.1952179947
 20
-2.5959657316
 40
3.5
100
AcDbArc
 50
21.9167530526
 51
158.0832469474
  0
ARC
  5
66A
100
AcDbEntity
  8
0
100
AcDbCircle
 62
7
  6
CONTINUOUS
 10
-377.1952179947
 20
45.9040342684
 40
3.0
100
AcDbArc
 50
270.0
 51
360.0
  0
ARC
  5
66B
100
AcDbEntity
  8
0
100
AcDbCircle
 62
7
  6
CONTINUOUS
 10
-397.1952179947
 20
42.4040342684
 40
3.0
100
AcDbArc
 50
90.0
 51
180.0
  0
ARC
  5
66C
100
AcDbEntity
  8
0
100
AcDbCircle
 62
7
  6
CONTINUOUS
 10
-397.1952179947
 20
42.4040342684
 40
0.5
100
AcDbArc
 50
90.0
 51
180.0
  0
ARC
  5
66D
100
AcDbEntity
  8
0
100
AcDbCircle
 62
7
  6
CONTINUOUS
 10
-377.1952179947
 20
45.9040342684
 40
0.5
100
AcDbArc
 50
270.0
 51
360.0
  0
ARC
  5
66E
100
AcDbEntity
  8
0
100
AcDbCircle
 62
7
  6
CONTINUOUS
 10
-400.3952179947
 20
-0.2959657316
 40
0.2
100
AcDbArc
 50
0.0
 51
123.1141427513
  0
ARC
  5
66F
100
AcDbEntity
  8
RACCORDO
100
AcDbCircle
 62
7
  6
CONTINUOUS
 10
-271.8952179947
 20
-3.2959657316
 40
0.2
100
AcDbArc
 50
0.0
 51
90.0
  0
ARC
  5
670
100
AcDbEntity
  8
RACCORDO
100
AcDbCircle
 62
7
  6
CONTINUOUS
 10
-272.4952179947
 20
-3.2959657316
 40
0.2
100
AcDbArc
 50
90.0
 51
180.0
  0
ARC
  5
671
100
AcDbEntity
  8
RACCORDO
100
AcDbCircle
 62
7
  6
CONTINUOUS
 10
-402.7039220905
 20
-2.9959657316
 40
0.1
100
AcDbArc
 50
158.8900814106
 51
195.2842862243
  0
CIRCLE
  5
672
100
AcDbEntity
  8
0
100
AcDbCircle
 62
7
  6
CONTINUOUS
 10
271.8047820053
 20
-5.0959657316
 40
5.0
  0
CIRCLE
  5
673
100
AcDbEntity
  8
0
100
AcDbCircle
 62
253
  6
CONTINUOUS
 10
271.8047820053
 20
-5.0959657316
 40
4.9675167785
  0
ARC
  5
674
100
AcDbEntity
  8
ASSI
100
AcDbCircle
 62
7
  6
CONTINUOUS
 10
271.8047820053
 20
-7.5959657316
 40
3.5
100
AcDbArc
 50
201.9167530526
 51
338.0832469474
  0
ARC
  5
675
100
AcDbEntity
  8
RACCORDO
100
AcDbCircle
 62
7
  6
CONTINUOUS
 10
273.6047820053
 20
-5.3959657316
 40
0.2
100
AcDbArc
 50
270.0
 51
360.0
  0
ARC
  5
676
100
AcDbEntity
  8
RACCORDO
100
AcDbCircle
 62
7
  6
CONTINUOUS
 10
273.6047820053
 20
-4.7959657316
 40
0.2
100
AcDbArc
 50
0.0
 51
90.0
  0
ARC
  5
677
100
AcDbEntity
  8
RACCORDO
100
AcDbCircle
 62
7
  6
CONTINUOUS
 10
270.0047820053
 20
-4.7959657316
 40
0.2
100
AcDbArc
 50
90.0
 51
180.0
  0
ARC
  5
678
100
AcDbEntity
  8
RACCORDO
100
AcDbCircle
 62
7
  6
CONTINUOUS
 10
270.0047820053
 20
-5.3959657316
 40
0.2
100
AcDbArc
 50
180.0
 51
270.0
  0
ARC
  5
679
100
AcDbEntity
  8
RACCORDO
100
AcDbCircle
 62
7
  6
CONTINUOUS
 10
271.5047820053
 20
-6.8959657316
 40
0.2
100
AcDbArc
 50
180.0
 51
270.0
  0
ARC
  5
67A
100
AcDbEntity
  8
RACCORDO
100
AcDbCircle
 62
7
  6
CONTINUOUS
 10
272.1047820053
 20
-6.8959657316
 40
0.2
100
AcDbArc
 50
270.0
 51
360.0
  0
ARC
  5
67B
100
AcDbEntity
  8
RACCORDO
100
AcDbCircle
 62
7
  6
CONTINUOUS
 10
272.5047820053
 20
-4.3959657316
 40
0.2
100
AcDbArc
 50
180.0
 51
270.0
  0
ARC
  5
67C
100
AcDbEntity
  8
RACCORDO
100
AcDbCircle
 62
7
  6
CONTINUOUS
 10
271.1047820053
 20
-4.3959657316
 40
0.2
100
AcDbArc
 50
270.0
 51
360.0
  0
ARC
  5
67D
100
AcDbEntity
  8
RACCORDO
100
AcDbCircle
 62
7
  6
CONTINUOUS
 10
272.5047820053
 20
-5.7959657316
 40
0.2
100
AcDbArc
 50
90.0
 51
180.0
  0
ARC
  5
67E
100
AcDbEntity
  8
RACCORDO
100
AcDbCircle
 62
7
  6
CONTINUOUS
 10
271.1047820053
 20
-5.7959657316
 40
0.2
100
AcDbArc
 50
0.0
 51
90.0
  0
ARC
  5
67F
100
AcDbEntity
  8
0
100
AcDbCircle
 62
7
  6
CONTINUOUS
 10
396.8047820053
 20
-52.5959657316
 40
3.0
100
AcDbArc
 50
270.0
 51
360.0
  0
ARC
  5
680
100
AcDbEntity
  8
0
100
AcDbCircle
 62
7
  6
CONTINUOUS
 10
376.8047820053
 20
-52.5959657316
 40
0.5
100
AcDbArc
 50
180.0
 51
270.0
  0
ARC
  5
681
100
AcDbEntity
  8
0
100
AcDbCircle
 62
7
  6
CONTINUOUS
 10
396.8047820053
 20
-52.5959657316
 40
0.5
100
AcDbArc
 50
270.0
 51
360.0
  0
ARC
  5
682
100
AcDbEntity
  8
0
100
AcDbCircle
 62
7
  6
CONTINUOUS
 10
396.8740127746
 20
-5.0959657316
 40
5.9307692308
100
AcDbArc
 50
303.1141427513
 51
338.890081301
  0
ARC
  5
683
100
AcDbEntity
  8
0
100
AcDbCircle
 62
7
  6
CONTINUOUS
 10
396.8740127746
 20
-5.0959657316
 40
5.9307692308
100
AcDbArc
 50
21.109918699
 51
56.8858572487
  0
ARC
  5
684
100
AcDbEntity
  8
0
100
AcDbCircle
 62
7
  6
CONTINUOUS
 10
400.0047820053
 20
-9.8959657316
 40
0.2
100
AcDbArc
 50
180.0
 51
303.1141427513
  0
ARC
  5
685
100
AcDbEntity
  8
RACCORDO
100
AcDbCircle
 62
7
  6
CONTINUOUS
 10
402.3134861011
 20
-7.1959657316
 40
0.1
100
AcDbArc
 50
338.8900814106
 51
15.2842862243
  0
ARC
  5
686
100
AcDbEntity
  8
ASSI
100
AcDbCircle
 62
7
  6
CONTINUOUS
 10
271.8047820053
 20
-2.5959657316
 40
3.5
100
AcDbArc
 50
21.9167530526
 51
158.0832469474
  0
ARC
  5
687
100
AcDbEntity
  8
0
100
AcDbCircle
 62
7
  6
CONTINUOUS
 10
376.8047820053
 20
45.9040342684
 40
3.0
100
AcDbArc
 50
180.0
 51
270.0
  0
ARC
  5
688
100
AcDbEntity
  8
0
100
AcDbCircle
 62
7
  6
CONTINUOUS
 10
396.8047820053
 20
42.4040342684
 40
3.0
100
AcDbArc
 50
0.0
 51
90.0
  0
ARC
  5
689
100
AcDbEntity
  8
0
100
AcDbCircle
 62
7
  6
CONTINUOUS
 10
396.8047820053
 20
42.4040342684
 40
0.5
100
AcDbArc
 50
0.0
 51
90.0
  0
ARC
  5
68A
100
AcDbEntity
  8
0
100
AcDbCircle
 62
7
  6
CONTINUOUS
 10
376.8047820053
 20
45.9040342684
 40
0.5
100
AcDbArc
 50
180.0
 51
270.0
  0
ARC
  5
68B
100
AcDbEntity
  8
0
100
AcDbCircle
 62
7
  6
CONTINUOUS
 10
400.0047820053
 20
-0.2959657316
 40
0.2
100
AcDbArc
 50
56.8858572487
 51
180.0
  0
ARC
  5
68C
100
AcDbEntity
  8
RACCORDO
100
AcDbCircle
 62
7
  6
CONTINUOUS
 10
272.1047820053
 20
-3.2959657316
 40
0.2
100
AcDbArc
 50
0.0
 51
90.0
  0
ARC
  5
68D
100
AcDbEntity
  8
RACCORDO
100
AcDbCircle
 62
7
  6
CONTINUOUS
 10
271.5047820053
 20
-3.2959657316
 40
0.2
100
AcDbArc
 50
90.0
 51
180.0
  0
ARC
  5
68E
100
AcDbEntity
  8
RACCORDO
100
AcDbCircle
 62
7
  6
CONTINUOUS
 10
402.3134861011
 20
-2.9959657316
 40
0.1
100
AcDbArc
 50
344.7158483146
 51
21.1099185894
  0
ARC
  5
68F
100
AcDbEntity
  8
0
100
AcDbCircle
 62
7
  6
CONTINUOUS
 10
-1282.333465904
 20
-52.5959657316
 40
3.0
100
AcDbArc
 50
180.0
 51
270.0
  0
ARC
  5
690
100
AcDbEntity
  8
0
100
AcDbCircle
 62
7
  6
CONTINUOUS
 10
-1262.333465904
 20
-52.5959657316
 40
0.5
100
AcDbArc
 50
270.0
 51
360.0
  0
ARC
  5
691
100
AcDbEntity
  8
0
100
AcDbCircle
 62
7
  6
CONTINUOUS
 10
-1282.333465904
 20
-52.5959657316
 40
0.5
100
AcDbArc
 50
180.0
 51
270.0
  0
ARC
  5
692
100
AcDbEntity
  8
0
100
AcDbCircle
 62
7
  6
CONTINUOUS
 10
-1282.4026966733
 20
-5.0959657316
 40
5.9307692308
100
AcDbArc
 50
201.109918699
 51
236.8858572487
  0
ARC
  5
693
100
AcDbEntity
  8
0
100
AcDbCircle
 62
7
  6
CONTINUOUS
 10
-1282.4026966733
 20
-5.0959657316
 40
5.9307692308
100
AcDbArc
 50
123.1141427513
 51
158.890081301
  0
ARC
  5
694
100
AcDbEntity
  8
0
100
AcDbCircle
 62
7
  6
CONTINUOUS
 10
-1285.533465904
 20
-9.8959657316
 40
0.2
100
AcDbArc
 50
236.8858572487
 51
360.0
  0
ARC
  5
695
100
AcDbEntity
  8
RACCORDO
100
AcDbCircle
 62
7
  6
CONTINUOUS
 10
-1287.8421699998
 20
-7.1959657316
 40
0.1
100
AcDbArc
 50
164.7158483145
 51
201.1099185894
  0
CIRCLE
  5
696
100
AcDbEntity
  8
0
100
AcDbCircle
 62
7
  6
CONTINUOUS
 10
-1157.333465904
 20
-5.0959657316
 40
5.0
  0
CIRCLE
  5
697
100
AcDbEntity
  8
0
100
AcDbCircle
 62
253
  6
CONTINUOUS
 10
-1157.333465904
 20
-5.0959657316
 40
4.9675167785
  0
ARC
  5
698
100
AcDbEntity
  8
ASSI
100
AcDbCircle
 62
7
  6
CONTINUOUS
 10
-1157.333465904
 20
-7.5959657316
 40
3.5
100
AcDbArc
 50
201.9167530526
 51
338.0832469474
  0
ARC
  5
699
100
AcDbEntity
  8
RACCORDO
100
AcDbCircle
 62
7
  6
CONTINUOUS
 10
-1155.533465904
 20
-5.3959657316
 40
0.2
100
AcDbArc
 50
269.9999999999
 51
360.0
  0
ARC
  5
69A
100
AcDbEntity
  8
RACCORDO
100
AcDbCircle
 62
7
  6
CONTINUOUS
 10
-1155.533465904
 20
-4.7959657316
 40
0.2
100
AcDbArc
 50
0.0
 51
90.0000000001
  0
ARC
  5
69B
100
AcDbEntity
  8
RACCORDO
100
AcDbCircle
 62
7
  6
CONTINUOUS
 10
-1159.133465904
 20
-4.7959657316
 40
0.2
100
AcDbArc
 50
90.0000000001
 51
180.0
  0
ARC
  5
69C
100
AcDbEntity
  8
RACCORDO
100
AcDbCircle
 62
7
  6
CONTINUOUS
 10
-1159.133465904
 20
-5.3959657316
 40
0.2
100
AcDbArc
 50
180.0
 51
269.9999999999
  0
ARC
  5
69D
100
AcDbEntity
  8
RACCORDO
100
AcDbCircle
 62
7
  6
CONTINUOUS
 10
-1157.633465904
 20
-6.8959657316
 40
0.2
100
AcDbArc
 50
180.0
 51
269.9999999998
  0
ARC
  5
69E
100
AcDbEntity
  8
RACCORDO
100
AcDbCircle
 62
7
  6
CONTINUOUS
 10
-1157.033465904
 20
-6.8959657316
 40
0.2
100
AcDbArc
 50
269.9999999999
 51
360.0
  0
ARC
  5
69F
100
AcDbEntity
  8
RACCORDO
100
AcDbCircle
 62
7
  6
CONTINUOUS
 10
-1156.633465904
 20
-4.3959657316
 40
0.2
100
AcDbArc
 50
180.0
 51
269.9999999999
  0
ARC
  5
6A0
100
AcDbEntity
  8
RACCORDO
100
AcDbCircle
 62
7
  6
CONTINUOUS
 10
-1158.033465904
 20
-4.3959657316
 40
0.2
100
AcDbArc
 50
269.9999999999
 51
360.0
  0
ARC
  5
6A1
100
AcDbEntity
  8
RACCORDO
100
AcDbCircle
 62
7
  6
CONTINUOUS
 10
-1156.633465904
 20
-5.7959657316
 40
0.2
100
AcDbArc
 50
90.0000000001
 51
180.0
  0
ARC
  5
6A2
100
AcDbEntity
  8
RACCORDO
100
AcDbCircle
 62
7
  6
CONTINUOUS
 10
-1158.033465904
 20
-5.7959657316
 40
0.2
100
AcDbArc
 50
0.0
 51
90.0000000001
  0
ARC
  5
6A3
100
AcDbEntity
  8
ASSI
100
AcDbCircle
 62
7
  6
CONTINUOUS
 10
-1157.333465904
 20
-2.5959657316
 40
3.5
100
AcDbArc
 50
21.9167530526
 51
158.0832469474
  0
ARC
  5
6A4
100
AcDbEntity
  8
0
100
AcDbCircle
 62
7
  6
CONTINUOUS
 10
-1262.333465904
 20
45.9040342684
 40
3.0
100
AcDbArc
 50
270.0
 51
360.0
  0
ARC
  5
6A5
100
AcDbEntity
  8
0
100
AcDbCircle
 62
7
  6
CONTINUOUS
 10
-1282.333465904
 20
42.4040342684
 40
3.0
100
AcDbArc
 50
90.0
 51
180.0
  0
ARC
  5
6A6
100
AcDbEntity
  8
0
100
AcDbCircle
 62
7
  6
CONTINUOUS
 10
-1282.333465904
 20
42.4040342684
 40
0.5
100
AcDbArc
 50
90.0000000001
 51
180.0
  0
ARC
  5
6A7
100
AcDbEntity
  8
0
100
AcDbCircle
 62
7
  6
CONTINUOUS
 10
-1262.333465904
 20
45.9040342684
 40
0.5
100
AcDbArc
 50
270.0
 51
360.0
  0
ARC
  5
6A8
100
AcDbEntity
  8
0
100
AcDbCircle
 62
7
  6
CONTINUOUS
 10
-1285.533465904
 20
-0.2959657316
 40
0.2
100
AcDbArc
 50
0.0
 51
123.1141427513
  0
ARC
  5
6A9
100
AcDbEntity
  8
RACCORDO
100
AcDbCircle
 62
7
  6
CONTINUOUS
 10
-1157.033465904
 20
-3.2959657316
 40
0.2
100
AcDbArc
 50
0.0
 51
90.0000000001
  0
ARC
  5
6AA
100
AcDbEntity
  8
RACCORDO
100
AcDbCircle
 62
7
  6
CONTINUOUS
 10
-1157.633465904
 20
-3.2959657316
 40
0.2
100
AcDbArc
 50
90.0000000002
 51
180.0
  0
ARC
  5
6AB
100
AcDbEntity
  8
RACCORDO
100
AcDbCircle
 62
7
  6
CONTINUOUS
 10
-1287.8421699998
 20
-2.9959657316
 40
0.1
100
AcDbArc
 50
158.8900814107
 51
195.2842862243
  0
CIRCLE
  5
6AC
100
AcDbEntity
  8
0
100
AcDbCircle
 62
7
  6
CONTINUOUS
 10
-613.333465904
 20
-5.0959657316
 40
5.0
  0
CIRCLE
  5
6AD
100
AcDbEntity
  8
0
100
AcDbCircle
 62
253
  6
CONTINUOUS
 10
-613.333465904
 20
-5.0959657316
 40
4.9675167785
  0
ARC
  5
6AE
100
AcDbEntity
  8
ASSI
100
AcDbCircle
 62
7
  6
CONTINUOUS
 10
-613.333465904
 20
-7.5959657316
 40
3.5
100
AcDbArc
 50
201.9167530526
 51
338.0832469474
  0
ARC
  5
6AF
100
AcDbEntity
  8
RACCORDO
100
AcDbCircle
 62
7
  6
CONTINUOUS
 10
-611.533465904
 20
-5.3959657316
 40
0.2
100
AcDbArc
 50
270.0
 51
360.0
  0
ARC
  5
6B0
100
AcDbEntity
  8
RACCORDO
100
AcDbCircle
 62
7
  6
CONTINUOUS
 10
-611.533465904
 20
-4.7959657316
 40
0.2
100
AcDbArc
 50
0.0
 51
90.0
  0
ARC
  5
6B1
100
AcDbEntity
  8
RACCORDO
100
AcDbCircle
 62
7
  6
CONTINUOUS
 10
-615.133465904
 20
-4.7959657316
 40
0.2
100
AcDbArc
 50
90.0000000001
 51
180.0
  0
ARC
  5
6B2
100
AcDbEntity
  8
RACCORDO
100
AcDbCircle
 62
7
  6
CONTINUOUS
 10
-615.133465904
 20
-5.3959657316
 40
0.2
100
AcDbArc
 50
180.0
 51
269.9999999999
  0
ARC
  5
6B3
100
AcDbEntity
  8
RACCORDO
100
AcDbCircle
 62
7
  6
CONTINUOUS
 10
-613.633465904
 20
-6.8959657316
 40
0.2
100
AcDbArc
 50
180.0
 51
269.9999999999
  0
ARC
  5
6B4
100
AcDbEntity
  8
RACCORDO
100
AcDbCircle
 62
7
  6
CONTINUOUS
 10
-613.033465904
 20
-6.8959657316
 40
0.2
100
AcDbArc
 50
270.0
 51
360.0
  0
ARC
  5
6B5
100
AcDbEntity
  8
RACCORDO
100
AcDbCircle
 62
7
  6
CONTINUOUS
 10
-612.633465904
 20
-4.3959657316
 40
0.2
100
AcDbArc
 50
180.0
 51
270.0
  0
ARC
  5
6B6
100
AcDbEntity
  8
RACCORDO
100
AcDbCircle
 62
7
  6
CONTINUOUS
 10
-614.033465904
 20
-4.3959657316
 40
0.2
100
AcDbArc
 50
269.9999999999
 51
360.0
  0
ARC
  5
6B7
100
AcDbEntity
  8
RACCORDO
100
AcDbCircle
 62
7
  6
CONTINUOUS
 10
-612.633465904
 20
-5.7959657316
 40
0.2
100
AcDbArc
 50
90.0
 51
180.0
  0
ARC
  5
6B8
100
AcDbEntity
  8
RACCORDO
100
AcDbCircle
 62
7
  6
CONTINUOUS
 10
-614.033465904
 20
-5.7959657316
 40
0.2
100
AcDbArc
 50
0.0
 51
90.0000000001
  0
ARC
  5
6B9
100
AcDbEntity
  8
0
100
AcDbCircle
 62
7
  6
CONTINUOUS
 10
-488.333465904
 20
-52.5959657316
 40
3.0
100
AcDbArc
 50
270.0
 51
360.0
  0
ARC
  5
6BA
100
AcDbEntity
  8
0
100
AcDbCircle
 62
7
  6
CONTINUOUS
 10
-508.333465904
 20
-52.5959657316
 40
0.5
100
AcDbArc
 50
180.0
 51
270.0
  0
ARC
  5
6BB
100
AcDbEntity
  8
0
100
AcDbCircle
 62
7
  6
CONTINUOUS
 10
-488.333465904
 20
-52.5959657316
 40
0.5
100
AcDbArc
 50
270.0
 51
360.0
  0
ARC
  5
6BC
100
AcDbEntity
  8
0
100
AcDbCircle
 62
7
  6
CONTINUOUS
 10
-488.2642351348
 20
-5.0959657316
 40
5.9307692308
100
AcDbArc
 50
303.1141427513
 51
338.890081301
  0
ARC
  5
6BD
100
AcDbEntity
  8
0
100
AcDbCircle
 62
7
  6
CONTINUOUS
 10
-488.2642351348
 20
-5.0959657316
 40
5.9307692308
100
AcDbArc
 50
21.109918699
 51
56.8858572487
  0
ARC
  5
6BE
100
AcDbEntity
  8
0
100
AcDbCircle
 62
7
  6
CONTINUOUS
 10
-485.133465904
 20
-9.8959657316
 40
0.2
100
AcDbArc
 50
180.0
 51
303.1141427513
  0
ARC
  5
6BF
100
AcDbEntity
  8
RACCORDO
100
AcDbCircle
 62
7
  6
CONTINUOUS
 10
-482.8247618082
 20
-7.1959657316
 40
0.1
100
AcDbArc
 50
338.8900814106
 51
15.2842862243
  0
ARC
  5
6C0
100
AcDbEntity
  8
ASSI
100
AcDbCircle
 62
7
  6
CONTINUOUS
 10
-613.333465904
 20
-2.5959657316
 40
3.5
100
AcDbArc
 50
21.9167530526
 51
158.0832469474
  0
ARC
  5
6C1
100
AcDbEntity
  8
0
100
AcDbCircle
 62
7
  6
CONTINUOUS
 10
-508.333465904
 20
45.9040342684
 40
3.0
100
AcDbArc
 50
180.0
 51
270.0
  0
ARC
  5
6C2
100
AcDbEntity
  8
0
100
AcDbCircle
 62
7
  6
CONTINUOUS
 10
-488.333465904
 20
42.4040342684
 40
3.0
100
AcDbArc
 50
0.0
 51
90.0
  0
ARC
  5
6C3
100
AcDbEntity
  8
0
100
AcDbCircle
 62
7
  6
CONTINUOUS
 10
-488.333465904
 20
42.4040342684
 40
0.5
100
AcDbArc
 50
0.0
 51
90.0
  0
ARC
  5
6C4
100
AcDbEntity
  8
0
100
AcDbCircle
 62
7
  6
CONTINUOUS
 10
-508.333465904
 20
45.9040342684
 40
0.5
100
AcDbArc
 50
180.0
 51
270.0
  0
ARC
  5
6C5
100
AcDbEntity
  8
0
100
AcDbCircle
 62
7
  6
CONTINUOUS
 10
-485.133465904
 20
-0.2959657316
 40
0.2
100
AcDbArc
 50
56.8858572487
 51
180.0
  0
ARC
  5
6C6
100
AcDbEntity
  8
RACCORDO
100
AcDbCircle
 62
7
  6
CONTINUOUS
 10
-613.033465904
 20
-3.2959657316
 40
0.2
100
AcDbArc
 50
0.0
 51
90.0
  0
ARC
  5
6C7
100
AcDbEntity
  8
RACCORDO
100
AcDbCircle
 62
7
  6
CONTINUOUS
 10
-613.633465904
 20
-3.2959657316
 40
0.2
100
AcDbArc
 50
90.0000000001
 51
180.0
  0
ARC
  5
6C8
100
AcDbEntity
  8
RACCORDO
100
AcDbCircle
 62
7
  6
CONTINUOUS
 10
-482.8247618082
 20
-2.9959657316
 40
0.1
100
AcDbArc
 50
344.7158483146
 51
21.1099185894
  0
ENDSEC
  0
SECTION
  2
OBJECTS
  0
DICTIONARY
  5
C
100
AcDbDictionary
280
0
281
1
  3
ACAD_GROUP
350
D
  3
ACAD_MLINESTYLE
350
17
  3
ACAD_LAYOUT
350
1A
  3
ACAD_PLOTSETTINGS
350
19
  3
ACAD_PLOTSTYLENAME
350
E
  0
DICTIONARY
  5
D
102
{ACAD_REACTORS
330
C
102
}
100
AcDbDictionary
280
0
281
1
  0
ACDBDICTIONARYWDFLT
  5
E
102
{ACAD_REACTORS
330
C
102
}
100
AcDbDictionary
281
1
  3
Normal
350
F
100
AcDbDictionaryWithDefault
340
F
  0
DICTIONARY
  5
17
102
{ACAD_REACTORS
330
C
102
}
100
AcDbDictionary
280
0
281
1
  3
Standard
350
18
  0
DICTIONARY
  5
19
102
{ACAD_REACTORS
330
C
102
}
100
AcDbDictionary
281
1
  0
DICTIONARY
  5
1A
102
{ACAD_REACTORS
330
C
102
}
100
AcDbDictionary
281
1
  3
Model
350
6C9
  3
Layout1
350
6CA
  0
ACDBPLACEHOLDER
  5
F
102
{ACAD_REACTORS
330
E
102
}
  0
MLINESTYLE
  5
18
102
{ACAD_REACTORS
330
17
102
}
100
AcDbMlineStyle
  2
STANDARD
 70
0
  3

 62
256
 51
90.0
 52
90.0
 71
2
 49
0.5
 62
256
  6
BYLAYER
 49
-0.5
 62
256
  6
BYLAYER
  0
LAYOUT
  5
6C9
102
{ACAD_REACTORS
330
1A
102
}
100
AcDbPlotSettings
  1

  2
none_device
  4
ISO_A4_(297.00_x_210.00_MM)
  6

 40
0.0
 41
0.0
 42
0.0
 43
0.0
 44
297.0
 45
210.0
 46
0.0
 47
0.0
 48
0.0
 49
0.0
140
0.0
141
0.0
142
1.0
143
1.0
 70
1024
 72
1
 73
0
 74
0
  7

 75
0
147
1.0
148
0.0
149
0.0
100
AcDbLayout
  1
Model
 70
0
 71
0
 10
0.0
 20
0.0
 11
297.0
 21
210.0
 12
0.0
 22
0.0
 32
0.0
 14
0.0
 24
0.0
 34
0.0
 15
0.0
 25
0.0
 35
0.0
146
0.0
 13
0.0
 23
0.0
 33
0.0
 16
1.0
 26
0.0
 36
0.0
 17
0.0
 27
1.0
 37
0.0
 76
0
330
20D
345
0
346
0
  0
LAYOUT
  5
6CA
102
{ACAD_REACTORS
330
1A
102
}
100
AcDbPlotSettings
  1

  2
none_device
  4
ISO_A4_(297.00_x_210.00_MM)
  6

 40
0.0
 41
0.0
 42
0.0
 43
0.0
 44
297.0
 45
210.0
 46
0.0
 47
0.0
 48
0.0
 49
0.0
140
0.0
141
0.0
142
1.0
143
1.0
 70
0
 72
1
 73
0
 74
0
  7

 75
0
147
1.0
148
0.0
149
0.0
100
AcDbLayout
  1
Layout1
 70
0
 71
1
 10
0.0
 20
0.0
 11
297.0
 21
210.0
 12
0.0
 22
0.0
 32
0.0
 14
0.0
 24
0.0
 34
0.0
 15
0.0
 25
0.0
 35
0.0
146
0.0
 13
0.0
 23
0.0
 33
0.0
 16
1.0
 26
0.0
 36
0.0
 17
0.0
 27
1.0
 37
0.0
 76
0
330
20E
345
0
346
0
  0
ENDSEC
  0
EOF
