  0
SECTION
  2
HEADER
  9
$ACADVER
  1
AC1021
  9
$DWGCODEPAGE
  3
ANSI_1252
  9
$EXTMAX
 10
297.0
 20
210.0
 30
0.0
  9
$EXTMIN
 10
0.0
 20
0.0
 30
0.0
  9
$LIMMIN
 10
0.0
 20
0.0
  9
$LIMMAX
 10
297.0
 20
210.0
  9
$VIEWCTR
 10
148.5
 20
105.0
  9
$VIEWSIZE
 40
210.0
  9
$CLAYER
  8
0
  9
$LTSCALE
 40
16.335
  9
$CELTYPE
  6
BYLAYER
  9
$DIMSCALE
 40
1.0
  9
$DIMASZ
 40
3.0
  9
$DIMEXO
 40
0.5
  9
$DIMDLI
 40
11.286
  9
$DIMEXE
 40
1.5
  9
$DIMCEN
 40
2.673
  9
$DIMLFAC
 40
1.0
  9
$DIMBLK
  1
_FILLED
  9
$DIMALT
 70
0
  9
$DIMALTF
 40
25.4
  9
$DIMTXT
 40
3.0
  9
$DIMTOL
 70
1
  9
$DIMLIM
 70
0
  9
$DIMTFAC
 40
1.0
  9
$DIMTP
 40
0.01
  9
$DIMTM
 40
0.01
  9
$DIMGAP
 40
0.625
  9
$DIMDSEP
 70
44
  9
$AUNITS
 70
0
  9
$PDMODE
 70
3
  9
$PDSIZE
 40
3.0
  9
$HANDSEED
  5
6CA
  9
$TILEMODE
 70
1
  9
$MEASUREMENT
 70
1
  9
$INSUNITS
 70
4
  0
ENDSEC
  0
SECTION
  2
CLASSES
  0
CLASS
  1
ACDBDICTIONARYWDFLT
  2
AcDbDictionaryWithDefault
  3
AutoCAD 2000
 90
0
 91
1
280
0
281
0
  0
CLASS
  1
ACDBPLACEHOLDER
  2
AcDbPlaceHolder
  3
AutoCAD 2000
 90
0
 91
1
280
0
281
0
  0
CLASS
  1
LAYOUT
  2
AcDbLayout
  3
AutoCAD 2000
 90
0
 91
0
280
0
281
0
  0
ENDSEC
  0
SECTION
  2
TABLES
  0
TABLE
  2
VPORT
  5
8
100
AcDbSymbolTable
 70
2
  0
VPORT
  5
1F4
100
AcDbSymbolTableRecord
100
AcDbViewportTableRecord
  2
*ACTIVE
 70
0
 10
0.0
 20
0.0
 11
1.0
 21
1.0
 12
148.5
 22
105.0
 13
0.0
 23
0.0
 14
1.0
 24
1.0
 15
0.0
 25
0.0
 16
0.0
 26
0.0
 36
1.0
 17
0.0
 27
0.0
 37
0.0
 40
210.0
 41
1.4142857143
 42
50.0
 43
0.0
 44
0.0
 50
0.0
 51
0.0
 71
0
 72
100
 73
1
 74
1
 75
0
 76
0
 77
0
 78
0
  0
ENDTAB
  0
TABLE
  2
LTYPE
  5
5
100
AcDbSymbolTable
 70
6
  0
LTYPE
  5
14
100
AcDbSymbolTableRecord
100
AcDbLinetypeTableRecord
  2
BYBLOCK
 70
0
  3

 72
65
 73
0
 40
0.0
  0
LTYPE
  5
15
100
AcDbSymbolTableRecord
100
AcDbLinetypeTableRecord
  2
BYLAYER
 70
0
  3

 72
65
 73
0
 40
0.0
  0
LTYPE
  5
16
100
AcDbSymbolTableRecord
100
AcDbLinetypeTableRecord
  2
CONTINUOUS
 70
64
  3
Solid line
 72
65
 73
0
 40
0.0
  0
LTYPE
  5
1F5
100
AcDbSymbolTableRecord
100
AcDbLinetypeTableRecord
  2
CENTER
 70
64
  3
____ _ ____ _ ____ _ ____ _ ____ _ ____ _ ____
 72
65
 73
4
 40
0.6
 49
0.375
 74
0
 49
-0.075
 74
0
 49
0.075
 74
0
 49
-0.075
 74
0
  0
LTYPE
  5
1F6
100
AcDbSymbolTableRecord
100
AcDbLinetypeTableRecord
  2
HIDDEN
 70
64
  3
- - - - - - - - - - - - - - - - - - - -
 72
65
 73
2
 40
0.2
 49
0.1
 74
0
 49
-0.1
 74
0
  0
LTYPE
  5
1F7
100
AcDbSymbolTableRecord
100
AcDbLinetypeTableRecord
  2
PHANTOM
 70
64
  3
_____ _ _ _____ _ _ _____ _ _ _____
 72
65
 73
6
 40
0.8
 49
0.45
 74
0
 49
-0.05
 74
0
 49
0.1
 74
0
 49
-0.05
 74
0
 49
0.1
 74
0
 49
-0.05
 74
0
  0
LTYPE
  5
1F8
100
AcDbSymbolTableRecord
100
AcDbLinetypeTableRecord
  2
DOT
 70
64
  3
. . . . . . . . . . . . . . . . . . . .
 72
65
 73
2
 40
0.2
 49
0.1
 74
0
 49
-0.1
 74
0
  0
LTYPE
  5
1F9
100
AcDbSymbolTableRecord
100
AcDbLinetypeTableRecord
  2
DASHED
 70
64
  3
- - - - - - - - - - - - - - - - - - - -
 72
65
 73
2
 40
0.2
 49
0.1
 74
0
 49
-0.1
 74
0
  0
ENDTAB
  0
TABLE
  2
LAYER
  5
2
100
AcDbSymbolTable
 70
36
  0
LAYER
  5
10
100
AcDbSymbolTableRecord
100
AcDbLayerTableRecord
  2
0
 70
0
 62
7
  6
CONTINUOUS
370
-3
390
F
  0
LAYER
  5
1FA
100
AcDbSymbolTableRecord
100
AcDbLayerTableRecord
  2
DEFAULT_1
 70
0
 62
7
  6
CENTER
370
-3
390
F
  0
LAYER
  5
1FB
100
AcDbSymbolTableRecord
100
AcDbLayerTableRecord
  2
DEFAULT_2
 70
0
 62
7
  6
HIDDEN
370
-3
390
F
  0
LAYER
  5
1FC
100
AcDbSymbolTableRecord
100
AcDbLayerTableRecord
  2
DEFAULT_3
 70
0
 62
7
  6
PHANTOM
370
-3
390
F
  0
LAYER
  5
1FD
100
AcDbSymbolTableRecord
100
AcDbLayerTableRecord
  2
ASSI
 70
0
 62
7
  6
CONTINUOUS
370
-3
390
F
  0
LAYER
  5
1FE
100
AcDbSymbolTableRecord
100
AcDbLayerTableRecord
  2
COORDINATE
 70
0
 62
7
  6
CONTINUOUS
370
-3
390
F
  0
LAYER
  5
1FF
100
AcDbSymbolTableRecord
100
AcDbLayerTableRecord
  2
COORD_ORIGINE
 70
0
 62
7
  6
CONTINUOUS
370
-3
390
F
  0
LAYER
  5
200
100
AcDbSymbolTableRecord
100
AcDbLayerTableRecord
  2
COSMETICI
 70
0
 62
7
  6
CONTINUOUS
370
-3
390
F
  0
LAYER
  5
201
100
AcDbSymbolTableRecord
100
AcDbLayerTableRecord
  2
CURVE
 70
0
 62
7
  6
CONTINUOUS
370
-3
390
F
  0
LAYER
  5
202
100
AcDbSymbolTableRecord
100
AcDbLayerTableRecord
  2
NOTE
 70
0
 62
7
  6
CONTINUOUS
370
-3
390
F
  0
LAYER
  5
203
100
AcDbSymbolTableRecord
100
AcDbLayerTableRecord
  2
PIANI
 70
0
 62
7
  6
CONTINUOUS
370
-3
390
F
  0
LAYER
  5
204
100
AcDbSymbolTableRecord
100
AcDbLayerTableRecord
  2
PIANI_ORIGINE
 70
0
 62
7
  6
CONTINUOUS
370
-3
390
F
  0
LAYER
  5
205
100
AcDbSymbolTableRecord
100
AcDbLayerTableRecord
  2
PUNTI
 70
0
 62
7
  6
CONTINUOUS
370
-3
390
F
  0
LAYER
  5
206
100
AcDbSymbolTableRecord
100
AcDbLayerTableRecord
  2
RACCORDO
 70
0
 62
7
  6
CONTINUOUS
370
-3
390
F
  0
LAYER
  5
207
100
AcDbSymbolTableRecord
100
AcDbLayerTableRecord
  2
SIMBOLI
 70
0
 62
7
  6
CONTINUOUS
370
-3
390
F
  0
LAYER
  5
208
100
AcDbSymbolTableRecord
100
AcDbLayerTableRecord
  2
SNAPLINE
 70
0
 62
7
  6
CONTINUOUS
370
-3
390
F
  0
LAYER
  5
209
100
AcDbSymbolTableRecord
100
AcDbLayerTableRecord
  2
SUPERFICI
 70
0
 62
7
  6
CONTINUOUS
370
-3
390
F
  0
LAYER
  5
20A
100
AcDbSymbolTableRecord
100
AcDbLayerTableRecord
  2
TRASH
 70
0
 62
7
  6
CONTINUOUS
370
-3
390
F
  0
ENDTAB
  0
TABLE
  2
STYLE
  5
3
100
AcDbSymbolTable
 70
1
  0
STYLE
  5
11
100
AcDbSymbolTableRecord
100
AcDbTextStyleTableRecord
  2
STANDARD
 70
0
 40
0.0
 41
0.8
 50
0.0
 71
0
 42
0.2
  3
txt
  4

  0
STYLE
  5
20B
100
AcDbSymbolTableRecord
100
AcDbTextStyleTableRecord
  2
TEXTSTYLE_1
 70
0
 40
0.0
 41
0.8
 50
0.0
 71
0
 42
0.2
  3
gdt
  4

  0
ENDTAB
  0
TABLE
  2
VIEW
  5
6
100
AcDbSymbolTable
 70
0
  0
ENDTAB
  0
TABLE
  2
UCS
  5
7
100
AcDbSymbolTable
 70
0
  0
ENDTAB
  0
TABLE
  2
APPID
  5
9
100
AcDbSymbolTable
 70
1
  0
APPID
  5
20C
100
AcDbSymbolTableRecord
100
AcDbRegAppTableRecord
  2
ACAD
 70
0
  0
ENDTAB
  0
TABLE
  2
BLOCK_RECORD
  5
1
100
AcDbSymbolTable
 70
0
  0
BLOCK_RECORD
  5
20D
100
AcDbSymbolTableRecord
100
AcDbBlockTableRecord
  2
*Model_Space
  0
BLOCK_RECORD
  5
20E
100
AcDbSymbolTableRecord
100
AcDbBlockTableRecord
  2
*Paper_Space
  0
BLOCK_RECORD
  5
20F
100
AcDbSymbolTableRecord
100
AcDbBlockTableRecord
  2
_FILLED
  0
BLOCK_RECORD
  5
210
100
AcDbSymbolTableRecord
100
AcDbBlockTableRecord
  2
*D0
  0
BLOCK_RECORD
  5
211
100
AcDbSymbolTableRecord
100
AcDbBlockTableRecord
  2
*D1
  0
BLOCK_RECORD
  5
212
100
AcDbSymbolTableRecord
100
AcDbBlockTableRecord
  2
*D2
  0
BLOCK_RECORD
  5
213
100
AcDbSymbolTableRecord
100
AcDbBlockTableRecord
  2
*D3
  0
ENDTAB
  0
TABLE
  2
DIMSTYLE
  5
A
100
AcDbSymbolTable
 70
1
100
AcDbDimStyleTable
 71
0
  0
DIMSTYLE
105
214
100
AcDbSymbolTableRecord
100
AcDbDimStyleTableRecord
  2
STANDARD
 70
0
  3

  4

 40
1.0
 41
3.0
 42
0.5
 43
0.38
 44
1.5
 45
0.0
 46
0.0
 47
0.01
 48
0.01
140
3.0
141
0.09
142
0.0
143
25.4
144
1.0
145
0.0
146
1.0
147
0.625
 71
1.0
 72
0.0
 73
0
 74
0
 75
0
 76
0
 77
1
 78
8
170
0
171
1
172
0
173
0
174
0
175
0
176
0
177
0
178
0
270
2
271
2
272
2
273
2
274
2
275
0
280
0
281
0
282
0
283
1
284
8
285
0
286
0
287
3
288
0
340
11
278
44
341
20F
342
20F
343
20F
344
20F
  0
DIMSTYLE
105
215
100
AcDbSymbolTableRecord
100
AcDbDimStyleTableRecord
  2
DIMSTYLE_1
 70
0
  3

  4

 40
1.0
 41
3.0
 42
0.5
 43
0.38
 44
1.5
 45
0.0
 46
0.0
 47
0.0
 48
0.0
140
3.0
141
0.09
142
0.0
143
25.4
144
1.0
145
0.0
146
1.0
147
0.75
 71
0.0
 72
0.0
 73
0
 74
0
 75
0
 76
0
 77
1
 78
8
170
0
171
1
172
0
173
0
174
0
175
0
176
0
177
0
178
0
270
2
271
2
272
2
273
2
274
2
275
0
280
0
281
0
282
0
283
1
284
8
285
0
286
0
287
3
288
0
340
11
278
44
341
20F
342
20F
343
20F
344
20F
  0
ENDTAB
  0
ENDSEC
  0
SECTION
  2
BLOCKS
  0
BLOCK
  5
20
100
AcDbEntity
  8
0
100
AcDbBlockBegin
  2
*Model_Space
 70
0
 10
0.0
 20
0.0
 30
0.0
  3
*Model_Space
  1

  0
ENDBLK
  5
21
100
AcDbEntity
  8
0
100
AcDbBlockEnd
  0
BLOCK
  5
1C
100
AcDbEntity
  8
0
100
AcDbBlockBegin
  2
*Paper_Space
 70
0
 10
0.0
 20
0.0
 30
0.0
  3
*Paper_Space
  1

  0
ENDBLK
  5
1D
100
AcDbEntity
  8
0
100
AcDbBlockEnd
  0
BLOCK
  5
216
100
AcDbEntity
  8
0
100
AcDbBlockBegin
  2
_FILLED
 70
64
 10
0.0
 20
0.0
  3
_FILLED
  1

  0
SOLID
  5
217
100
AcDbEntity
  8
0
  6
BYBLOCK
 62
0
100
AcDbTrace
 10
0.0
 20
0.0
 11
-1.0
 21
0.3166666667
 12
-1.0
 22
-0.3166666667
 13
-1.0
 23
-0.3166666667
  0
ENDBLK
  5
218
100
AcDbEntity
  8
0
  6
BYBLOCK
 62
0
100
AcDbBlockEnd
  0
BLOCK
  5
219
100
AcDbEntity
  8
0
100
AcDbBlockBegin
 62
7
  6
CONTINUOUS
  2
*D0
 70
65
 10
0.0
 20
0.0
  3
*D0
  1

  0
MTEXT
  5
21A
100
AcDbEntity
  8
0
100
AcDbMText
 62
7
  6
CONTINUOUS
  7
STANDARD
 71
2
 72
1
 10
0.054294131
 20
69.3649748205
 30
0.0
 11
1.0
 21
0.0
 31
0.0
 44
0.9
  1
800
 40
3.0
 41
10.6071428571
  0
LINE
  5
21B
100
AcDbEntity
  8
0
100
AcDbLine
 62
7
  6
CONTINUOUS
 10
400.054294131
 20
42.9149748205
 11
400.054294131
 21
67.1149748205
  0
LINE
  5
21C
100
AcDbEntity
  8
0
100
AcDbLine
 62
7
  6
CONTINUOUS
 10
-399.945705869
 20
42.9149748205
 11
-399.945705869
 21
67.1149748205
  0
LINE
  5
21D
100
AcDbEntity
  8
0
100
AcDbLine
 62
7
  6
CONTINUOUS
 10
400.054294131
 20
65.6149748205
 11
0.054294131
 21
65.6149748205
  0
LINE
  5
21E
100
AcDbEntity
  8
0
100
AcDbLine
 62
7
  6
CONTINUOUS
 10
-399.945705869
 20
65.6149748205
 11
0.054294131
 21
65.6149748205
  0
INSERT
  5
21F
100
AcDbEntity
  8
0
100
AcDbBlockReference
 62
7
  6
CONTINUOUS
  2
_FILLED
 10
400.054294131
 20
65.6149748205
 41
3.0
 42
3.0
 43
3.0
  0
INSERT
  5
220
100
AcDbEntity
  8
0
100
AcDbBlockReference
 62
7
  6
CONTINUOUS
  2
_FILLED
 10
-399.945705869
 20
65.6149748205
 41
3.0
 42
3.0
 43
3.0
 50
180.0
  0
ENDBLK
  5
221
100
AcDbEntity
  8
0
  6
BYBLOCK
 62
0
100
AcDbBlockEnd
  0
BLOCK
  5
222
100
AcDbEntity
  8
0
100
AcDbBlockBegin
 62
7
  6
CONTINUOUS
  2
*D1
 70
65
 10
0.0
 20
0.0
  3
*D1
  1

  0
MTEXT
  5
223
100
AcDbEntity
  8
0
100
AcDbMText
 62
7
  6
CONTINUOUS
  7
STANDARD
 71
2
 72
1
 10
-959.3322395905
 20
69.3649748205
 30
0.0
 11
1.0
 21
0.0
 31
0.0
 44
0.9
  1
1000
 40
3.0
 41
13.1785714286
  0
LINE
  5
224
100
AcDbEntity
  8
0
100
AcDbLine
 62
7
  6
CONTINUOUS
 10
-459.3322395905
 20
42.9149748205
 11
-459.3322395905
 21
67.1149748205
  0
LINE
  5
225
100
AcDbEntity
  8
0
100
AcDbLine
 62
7
  6
CONTINUOUS
 10
-1459.3322395905
 20
42.9149748205
 11
-1459.3322395905
 21
67.1149748205
  0
LINE
  5
226
100
AcDbEntity
  8
0
100
AcDbLine
 62
7
  6
CONTINUOUS
 10
-459.3322395905
 20
65.6149748205
 11
-959.3322395905
 21
65.6149748205
  0
LINE
  5
227
100
AcDbEntity
  8
0
100
AcDbLine
 62
7
  6
CONTINUOUS
 10
-1459.3322395905
 20
65.6149748205
 11
-959.3322395905
 21
65.6149748205
  0
INSERT
  5
228
100
AcDbEntity
  8
0
100
AcDbBlockReference
 62
7
  6
CONTINUOUS
  2
_FILLED
 10
-459.3322395905
 20
65.6149748205
 41
3.0
 42
3.0
 43
3.0
  0
INSERT
  5
229
100
AcDbEntity
  8
0
100
AcDbBlockReference
 62
7
  6
CONTINUOUS
  2
_FILLED
 10
-1459.3322395905
 20
65.6149748205
 41
3.0
 42
3.0
 43
3.0
 50
180.0
  0
ENDBLK
  5
22A
100
AcDbEntity
  8
0
  6
BYBLOCK
 62
0
100
AcDbBlockEnd
  0
BLOCK
  5
22B
100
AcDbEntity
  8
0
100
AcDbBlockBegin
 62
7
  6
CONTINUOUS
  2
*D2
 70
65
 10
0.0
 20
0.0
  3
*D2
  1

  0
MTEXT
  5
22C
100
AcDbEntity
  8
0
100
AcDbMText
 62
7
  6
CONTINUOUS
  7
STANDARD
 71
2
 72
1
 10
419.2359773213
 20
0.0149748205
 30
0.0
 11
0.0
 21
1.0
 31
0.0
 44
0.9
  1
111,2
 40
3.0
 41
13.8214285714
  0
LINE
  5
22D
100
AcDbEntity
  8
0
100
AcDbLine
 62
7
  6
CONTINUOUS
 10
377.054294131
 20
55.6149748205
 11
424.4859773213
 21
55.6149748205
  0
LINE
  5
22E
100
AcDbEntity
  8
0
100
AcDbLine
 62
7
  6
CONTINUOUS
 10
397.5040415993
 20
-55.5850251795
 11
424.4859773213
 21
-55.5850251795
  0
LINE
  5
22F
100
AcDbEntity
  8
0
100
AcDbLine
 62
7
  6
CONTINUOUS
 10
422.9859773213
 20
55.6149748205
 11
422.9859773213
 21
0.0149748205
  0
LINE
  5
230
100
AcDbEntity
  8
0
100
AcDbLine
 62
7
  6
CONTINUOUS
 10
422.9859773213
 20
-55.5850251795
 11
422.9859773213
 21
0.0149748205
  0
INSERT
  5
231
100
AcDbEntity
  8
0
100
AcDbBlockReference
 62
7
  6
CONTINUOUS
  2
_FILLED
 10
422.9859773213
 20
55.6149748205
 41
3.0
 42
3.0
 43
3.0
 50
90.0
  0
INSERT
  5
232
100
AcDbEntity
  8
0
100
AcDbBlockReference
 62
7
  6
CONTINUOUS
  2
_FILLED
 10
422.9859773213
 20
-55.5850251795
 41
3.0
 42
3.0
 43
3.0
 50
270.0
  0
ENDBLK
  5
233
100
AcDbEntity
  8
0
  6
BYBLOCK
 62
0
100
AcDbBlockEnd
  0
BLOCK
  5
234
100
AcDbEntity
  8
0
100
AcDbBlockBegin
 62
7
  6
CONTINUOUS
  2
*D3
 70
65
 10
0.0
 20
0.0
  3
*D3
  1

  0
MTEXT
  5
235
100
AcDbEntity
  8
0
100
AcDbMText
 62
7
  6
CONTINUOUS
  7
STANDARD
 71
2
 72
1
 10
409.2359773213
 20
-5.0850251795
 30
0.0
 11
0.0
 21
1.0
 31
0.0
 44
0.9
  1
101
 40
3.0
 41
8.6785714286
  0
LINE
  5
236
100
AcDbEntity
  8
0
100
AcDbLine
 62
7
  6
CONTINUOUS
 10
397.5040415993
 20
-55.5850251795
 11
414.4859773213
 21
-55.5850251795
  0
LINE
  5
237
100
AcDbEntity
  8
0
100
AcDbLine
 62
7
  6
CONTINUOUS
 10
397.554294131
 20
45.4149748205
 11
414.4859773213
 21
45.4149748205
  0
LINE
  5
238
100
AcDbEntity
  8
0
100
AcDbLine
 62
7
  6
CONTINUOUS
 10
412.9859773213
 20
-55.5850251795
 11
412.9859773213
 21
-5.0850251795
  0
LINE
  5
239
100
AcDbEntity
  8
0
100
AcDbLine
 62
7
  6
CONTINUOUS
 10
412.9859773213
 20
45.4149748205
 11
412.9859773213
 21
-5.0850251795
  0
INSERT
  5
23A
100
AcDbEntity
  8
0
100
AcDbBlockReference
 62
7
  6
CONTINUOUS
  2
_FILLED
 10
412.9859773213
 20
-55.5850251795
 41
3.0
 42
3.0
 43
3.0
 50
270.0
  0
INSERT
  5
23B
100
AcDbEntity
  8
0
100
AcDbBlockReference
 62
7
  6
CONTINUOUS
  2
_FILLED
 10
412.9859773213
 20
45.4149748205
 41
3.0
 42
3.0
 43
3.0
 50
90.0
  0
ENDBLK
  5
23C
100
AcDbEntity
  8
0
  6
BYBLOCK
 62
0
100
AcDbBlockEnd
  0
ENDSEC
  0
SECTION
  2
ENTITIES
  0
DIMENSION
  5
23D
100
AcDbEntity
  8
0
100
AcDbDimension
 62
7
  6
CONTINUOUS
  2
*D0
 10
-399.945705869
 20
65.6149748205
 11
-0.3742772827
 21
65.6149748205
 70
160
 71
2
 42
800.0
  3
DIMSTYLE_1
100
AcDbAlignedDimension
 13
400.054294131
 23
42.4149748205
 14
-399.945705869
 24
42.4149748205
 50
180.0
100
AcDbRotatedDimension
  0
DIMENSION
  5
23E
100
AcDbEntity
  8
0
100
AcDbDimension
 62
7
  6
CONTINUOUS
  2
*D1
 10
-1459.3322395905
 20
65.6149748205
 11
-959.7608294678
 21
65.6149748205
 70
160
 71
2
 42
1000.0
  3
DIMSTYLE_1
100
AcDbAlignedDimension
 13
-459.3322395905
 23
42.4149748205
 14
-1459.3322395905
 24
42.4149748205
 50
180.0
100
AcDbRotatedDimension
  0
DIMENSION
  5
23F
100
AcDbEntity
  8
0
100
AcDbDimension
 62
7
  6
CONTINUOUS
  2
*D2
 10
422.9859773213
 20
-55.5850251795
 11
422.9859773213
 21
-0.4136039151
 70
160
 71
2
 42
111.2
  3
DIMSTYLE_1
100
AcDbAlignedDimension
 13
376.554294131
 23
55.6149748205
 14
397.0040415993
 24
-55.5850251795
 50
270.0
100
AcDbRotatedDimension
  0
DIMENSION
  5
240
100
AcDbEntity
  8
0
100
AcDbDimension
 62
7
  6
CONTINUOUS
  2
*D3
 10
412.9859773213
 20
45.4149748205
 11
412.9859773213
 21
-5.5135971314
 70
160
 71
2
 42
101.0
  3
DIMSTYLE_1
100
AcDbAlignedDimension
 13
397.0040415993
 23
-55.5850251795
 14
397.054294131
 24
45.4149748205
 50
90.0
100
AcDbRotatedDimension
  0
LINE
  5
241
100
AcDbEntity
  8
RACCORDO
100
AcDbLine
 62
7
  6
CONTINUOUS
 10
-402.8743002072
 20
-5.7723050265
 11
-402.8728110781
 21
-5.7868595572
  0
LINE
  5
242
100
AcDbEntity
  8
RACCORDO
100
AcDbLine
 62
7
  6
CONTINUOUS
 10
-402.8754037753
 20
-5.7595331806
 11
-402.8742010644
 21
-5.7733541174
  0
LINE
  5
243
100
AcDbEntity
  8
RACCORDO
100
AcDbLine
 62
7
  6
CONTINUOUS
 10
-402.8762574314
 20
-5.7474401503
 11
-402.8753325899
 21
-5.7604318439
  0
LINE
  5
244
100
AcDbEntity
  8
RACCORDO
100
AcDbLine
 62
7
  6
CONTINUOUS
 10
-402.5467099857
 20
-5.3769978733
 11
-402.5459785811
 21
-5.3905402706
  0
LINE
  5
245
100
AcDbEntity
  8
RACCORDO
100
AcDbLine
 62
7
  6
CONTINUOUS
 10
-402.876866824
 20
-5.7360990358
 11
-402.8762100903
 21
-5.748195457
  0
LINE
  5
246
100
AcDbEntity
  8
RACCORDO
100
AcDbLine
 62
7
  6
CONTINUOUS
 10
-402.5486802062
 20
-5.3369111519
 11
-402.5465831915
 21
-5.3793902826
  0
LINE
  5
247
100
AcDbEntity
  8
RACCORDO
100
AcDbLine
 62
7
  6
CONTINUOUS
 10
-402.5459738828
 20
-5.3905400111
 11
-402.545364797
 21
-5.4038995678
  0
LINE
  5
248
100
AcDbEntity
  8
RACCORDO
100
AcDbLine
 62
7
  6
CONTINUOUS
 10
-402.5503599383
 20
-5.296811338
 11
-402.5485707639
 21
-5.3393041333
  0
LINE
  5
249
100
AcDbEntity
  8
RACCORDO
100
AcDbLine
 62
253
  6
CONTINUOUS
 10
-402.5392779106
 20
-5.3901702983
 11
-402.5382150777
 21
-5.4162697563
  0
LINE
  5
24A
100
AcDbEntity
  8
RACCORDO
100
AcDbLine
 62
7
  6
CONTINUOUS
 10
-402.5517490774
 20
-5.2567007918
 11
-402.5502678427
 21
-5.2992048965
  0
LWPOLYLINE
  5
24B
100
AcDbEntity
  8
RACCORDO
100
AcDbPolyline
 62
253
  6
CONTINUOUS
 90
13
 70
0
 10
-402.8710973219
 20
-5.6953154168
 10
-402.8715585017
 20
-5.6813854826
 10
-402.8700925677
 20
-5.6675262553
 10
-402.8667279969
 20
-5.6540069632
 10
-402.8615301494
 20
-5.641090231
 10
-402.854599998
 20
-5.6290269782
 10
-402.8460721674
 20
-5.6180515447
 10
-402.8361123185
 20
-5.6083771382
 10
-402.8249139307
 20
-5.6001916933
 10
-402.8126945429
 20
-5.5936542195
 10
-402.799691528
 20
-5.5888917135
 10
-402.7861574817
 20
-5.5859966913
 10
-402.7723553152
 20
-5.5850253913
  0
LWPOLYLINE
  5
24C
100
AcDbEntity
  8
RACCORDO
100
AcDbPolyline
 62
253
  6
CONTINUOUS
 90
10
 70
0
 10
-402.6229203539
 20
-5.6953154114
 10
-402.6233620062
 20
-5.6813854581
 10
-402.6219582114
 20
-5.6675262098
 10
-402.6187362394
 20
-5.6540068956
 10
-402.6137586802
 20
-5.6410901408
 10
-402.6071222274
 20
-5.6290268657
 10
-402.5989558005
 20
-5.6180514107
 10
-402.58941804
 20
-5.6083769844
 10
-402.5786942259
 20
-5.6001915217
 10
-402.5680283588
 20
-5.5942326528
  0
LINE
  5
24D
100
AcDbEntity
  8
RACCORDO
100
AcDbLine
 62
7
  6
CONTINUOUS
 10
-402.5528475659
 20
-5.2165814752
 11
-402.5516743278
 21
-5.2590948813
  0
LINE
  5
24E
100
AcDbEntity
  8
RACCORDO
100
AcDbLine
 62
7
  6
CONTINUOUS
 10
-402.5453969177
 20
-5.4026543766
 11
-402.5448115369
 21
-5.4253472499
  0
LINE
  5
24F
100
AcDbEntity
  8
RACCORDO
100
AcDbLine
 62
7
  6
CONTINUOUS
 10
-402.5536553548
 20
-5.1764552093
 11
-402.552790164
 21
-5.2189760299
  0
LINE
  5
250
100
AcDbEntity
  8
RACCORDO
100
AcDbLine
 62
7
  6
CONTINUOUS
 10
-402.5541724011
 20
-5.136324026
 11
-402.5536153015
 21
-5.1788501791
  0
LWPOLYLINE
  5
251
100
AcDbEntity
  8
RACCORDO
100
AcDbPolyline
 62
253
  6
CONTINUOUS
 90
7
 70
0
 10
-402.5382150777
 20
-5.4162697563
 10
-402.5378878718
 20
-5.4419549408
 10
-402.5382971481
 20
-5.4671559521
 10
-402.5394453788
 20
-5.4918901058
 10
-402.5413260105
 20
-5.5160018726
 10
-402.5439235415
 20
-5.5391679412
 10
-402.5472339705
 20
-5.5613470009
  0
LINE
  5
252
100
AcDbEntity
  8
RACCORDO
100
AcDbLine
 62
7
  6
CONTINUOUS
 10
-402.554398686
 20
-5.09619035
 11
-402.5541496988
 21
-5.1387193861
  0
LWPOLYLINE
  5
253
100
AcDbEntity
  8
RACCORDO
100
AcDbPolyline
 62
253
  6
CONTINUOUS
 90
10
 70
0
 10
-402.547699062
 20
-5.0850251795
 10
-402.5475952728
 20
-5.118935595
 10
-402.5472837813
 20
-5.1528287569
 10
-402.5467643521
 20
-5.1867217003
 10
-402.5460355011
 20
-5.2206626505
 10
-402.5450977696
 20
-5.2546373729
 10
-402.5439537365
 20
-5.2885687043
 10
-402.5426036522
 20
-5.3224415764
 10
-402.5410454263
 20
-5.3563034388
 10
-402.5392779106
 20
-5.3901702983
  0
LINE
  5
254
100
AcDbEntity
  8
0
100
AcDbLine
 62
253
  6
CONTINUOUS
 10
-400.2549676139
 20
-10.0525419581
 11
-400.2549676139
 21
-0.117508401
  0
LINE
  5
255
100
AcDbEntity
  8
0
100
AcDbLine
 62
7
  6
CONTINUOUS
 10
-399.945705869
 20
42.4149748205
 11
-399.945705869
 21
-52.5850251795
  0
LINE
  5
256
100
AcDbEntity
  8
0
100
AcDbLine
 62
253
  6
CONTINUOUS
 10
-397.6025601185
 20
42.4149748205
 11
-397.6025601185
 21
-52.5850251795
  0
LINE
  5
257
100
AcDbEntity
  8
0
100
AcDbLine
 62
7
  6
CONTINUOUS
 10
-396.945705869
 20
45.4149748205
 11
-396.945705869
 21
42.9149748205
  0
LINE
  5
258
100
AcDbEntity
  8
0
100
AcDbLine
 62
253
  6
CONTINUOUS
 10
-396.945705869
 20
-55.5850251795
 11
-396.945705869
 21
-53.0850251795
  0
LINE
  5
259
100
AcDbEntity
  8
0
100
AcDbLine
 62
7
  6
CONTINUOUS
 10
-396.8954533373
 20
-53.0850251795
 11
-396.8954533373
 21
-55.5850251795
  0
LINE
  5
25A
100
AcDbEntity
  8
0
100
AcDbLine
 62
253
  6
CONTINUOUS
 10
-395.945705869
 20
42.9149748205
 11
-395.945705869
 21
42.4149748205
  0
LINE
  5
25B
100
AcDbEntity
  8
0
100
AcDbLine
 62
253
  6
CONTINUOUS
 10
-395.945705869
 20
-53.0850251795
 11
-395.945705869
 21
-52.5850251795
  0
LINE
  5
25C
100
AcDbEntity
  8
0
100
AcDbLine
 62
7
  6
CONTINUOUS
 10
-387.945705869
 20
42.9149748205
 11
-387.945705869
 21
42.4149748205
  0
LINE
  5
25D
100
AcDbEntity
  8
0
100
AcDbLine
 62
7
  6
CONTINUOUS
 10
-387.945705869
 20
-53.0850251795
 11
-387.945705869
 21
-52.5850251795
  0
LINE
  5
25E
100
AcDbEntity
  8
0
100
AcDbLine
 62
7
  6
CONTINUOUS
 10
-386.2181409414
 20
-55.5850251795
 11
-386.2181409414
 21
-53.0850251795
  0
LINE
  5
25F
100
AcDbEntity
  8
0
100
AcDbLine
 62
7
  6
CONTINUOUS
 10
-385.4667627531
 20
-55.5850251795
 11
-385.4667627531
 21
-53.0850251795
  0
LINE
  5
260
100
AcDbEntity
  8
0
100
AcDbLine
 62
7
  6
CONTINUOUS
 10
-384.9453487352
 20
-55.5850251795
 11
-384.9453487352
 21
-53.0850251795
  0
LINE
  5
261
100
AcDbEntity
  8
0
100
AcDbLine
 62
253
  6
CONTINUOUS
 10
-379.9248905888
 20
42.4149748205
 11
-379.9248905888
 21
-52.5850251795
  0
LINE
  5
262
100
AcDbEntity
  8
0
100
AcDbLine
 62
7
  6
CONTINUOUS
 10
-376.945705869
 20
45.4149748205
 11
-376.945705869
 21
42.9149748205
  0
LINE
  5
263
100
AcDbEntity
  8
0
100
AcDbLine
 62
7
  6
CONTINUOUS
 10
-376.445705869
 20
45.9149748205
 11
-376.445705869
 21
55.6149748205
  0
LINE
  5
264
100
AcDbEntity
  8
RACCORDO
100
AcDbLine
 62
7
  6
CONTINUOUS
 10
-402.5543933387
 20
-5.0714642782
 11
-402.5543933387
 21
-5.0985860808
  0
LWPOLYLINE
  5
265
100
AcDbEntity
  8
RACCORDO
100
AcDbPolyline
 62
7
  6
CONTINUOUS
 90
10
 70
0
 10
-402.5448115369
 20
-5.4253472499
 10
-402.5448699699
 20
-5.4474588979
 10
-402.5455501405
 20
-5.468743606
 10
-402.5468046908
 20
-5.4889229865
 10
-402.5485683911
 20
-5.5078375164
 10
-402.5507774596
 20
-5.5253337164
 10
-402.5533391793
 20
-5.5411854314
 10
-402.556156309
 20
-5.5553160832
 10
-402.5591273054
 20
-5.5676722121
 10
-402.5621141926
 20
-5.5781177713
  0
LINE
  5
266
100
AcDbEntity
  8
RACCORDO
100
AcDbLine
 62
7
  6
CONTINUOUS
 10
-402.5541496988
 20
-5.0313309729
 11
-402.554398686
 21
-5.0738600091
  0
LINE
  5
267
100
AcDbEntity
  8
RACCORDO
100
AcDbLine
 62
7
  6
CONTINUOUS
 10
-402.5536153015
 20
-4.99120018
 11
-402.5541724011
 21
-5.0337263331
  0
LWPOLYLINE
  5
268
100
AcDbEntity
  8
RACCORDO
100
AcDbPolyline
 62
7
  6
CONTINUOUS
 90
7
 70
0
 10
-402.8772413841
 20
-4.4445339508
 10
-402.8773866479
 20
-4.45435188
 10
-402.8773071818
 20
-4.4634873203
 10
-402.8769996516
 20
-4.4720103598
 10
-402.8764488181
 20
-4.4800496636
 10
-402.8755986214
 20
-4.4879515284
 10
-402.8743538807
 20
-4.4959422609
  0
LINE
  5
269
100
AcDbEntity
  8
RACCORDO
100
AcDbLine
 62
7
  6
CONTINUOUS
 10
-402.552790164
 20
-4.9510743292
 11
-402.5536553548
 21
-4.9935951498
  0
LWPOLYLINE
  5
26A
100
AcDbEntity
  8
RACCORDO
100
AcDbPolyline
 62
7
  6
CONTINUOUS
 90
3
 70
0
 10
-402.5447816741
 20
-4.7418341251
 10
-402.5452883011
 20
-4.7644779615
 10
-402.5459756974
 20
-4.7795100979
  0
LINE
  5
26B
100
AcDbEntity
  8
RACCORDO
100
AcDbLine
 62
7
  6
CONTINUOUS
 10
-402.5516743278
 20
-4.9109554778
 11
-402.5528475659
 21
-4.9534688839
  0
LWPOLYLINE
  5
26C
100
AcDbEntity
  8
RACCORDO
100
AcDbPolyline
 62
253
  6
CONTINUOUS
 90
10
 70
0
 10
-402.6229163686
 20
-4.4747353817
 10
-402.623359219
 20
-4.4886656668
 10
-402.6219564686
 20
-4.5025254071
 10
-402.6187353702
 20
-4.5160453326
 10
-402.6137585041
 20
-4.5289627754
 10
-402.6071225617
 20
-4.5410267728
 10
-402.5989564676
 20
-4.5520029429
 10
-402.5894188743
 20
-4.5616780384
 10
-402.5786950801
 20
-4.5698640896
 10
-402.5680085864
 20
-4.5758348656
  0
LWPOLYLINE
  5
26D
100
AcDbEntity
  8
RACCORDO
100
AcDbPolyline
 62
253
  6
CONTINUOUS
 90
10
 70
0
 10
-402.8710973053
 20
-4.474734944
 10
-402.871558503
 20
-4.4886649005
 10
-402.8700925838
 20
-4.502524152
 10
-402.8667280246
 20
-4.5160434692
 10
-402.8615301852
 20
-4.5289602265
 10
-402.8546000385
 20
-4.5410235037
 10
-402.8460722093
 20
-4.5519989601
 10
-402.8361123587
 20
-4.5616733868
 10
-402.8249139665
 20
-4.5698588491
 10
-402.8126945719
 20
-4.5763963365
  0
LINE
  5
26E
100
AcDbEntity
  8
RACCORDO
100
AcDbLine
 62
7
  6
CONTINUOUS
 10
-402.5502678427
 20
-4.8708454626
 11
-402.5517490774
 21
-4.9133495672
  0
LINE
  5
26F
100
AcDbEntity
  8
RACCORDO
100
AcDbLine
 62
7
  6
CONTINUOUS
 10
-402.8768388194
 20
-4.4333303234
 11
-402.8772282864
 21
-4.4440392547
  0
LINE
  5
270
100
AcDbEntity
  8
RACCORDO
100
AcDbLine
 62
253
  6
CONTINUOUS
 10
-402.5382151894
 20
-4.753862237
 11
-402.5392779106
 21
-4.7798800608
  0
LINE
  5
271
100
AcDbEntity
  8
RACCORDO
100
AcDbLine
 62
7
  6
CONTINUOUS
 10
-402.5485707639
 20
-4.8307462258
 11
-402.5503599383
 21
-4.8732390211
  0
LINE
  5
272
100
AcDbEntity
  8
RACCORDO
100
AcDbLine
 62
7
  6
CONTINUOUS
 10
-402.5465831915
 20
-4.7906600764
 11
-402.5486802062
 21
-4.8331392071
  0
LWPOLYLINE
  5
273
100
AcDbEntity
  8
RACCORDO
100
AcDbPolyline
 62
253
  6
CONTINUOUS
 90
10
 70
0
 10
-402.5392779106
 20
-4.7798800608
 10
-402.5410454456
 20
-4.8137474037
 10
-402.542603684
 20
-4.8476096046
 10
-402.543953774
 20
-4.8814826712
 10
-402.5450978032
 20
-4.9154140236
 10
-402.5460355242
 20
-4.949388625
 10
-402.5467643657
 20
-4.9833294022
 10
-402.5472837892
 20
-5.0172221503
 10
-402.5475952762
 20
-5.0511150644
 10
-402.547699062
 20
-5.0850251795
  0
LINE
  5
274
100
AcDbEntity
  8
RACCORDO
100
AcDbLine
 62
7
  6
CONTINUOUS
 10
-402.5459785811
 20
-4.7795100885
 11
-402.5467099857
 21
-4.7930524858
  0
LINE
  5
275
100
AcDbEntity
  8
RACCORDO
100
AcDbLine
 62
7
  6
CONTINUOUS
 10
-402.8762100903
 20
-4.4218549021
 11
-402.876866824
 21
-4.4339513233
  0
LINE
  5
276
100
AcDbEntity
  8
RACCORDO
100
AcDbLine
 62
7
  6
CONTINUOUS
 10
-402.8753325899
 20
-4.4096185151
 11
-402.8762574314
 21
-4.4226102088
  0
LINE
  5
277
100
AcDbEntity
  8
RACCORDO
100
AcDbLine
 62
7
  6
CONTINUOUS
 10
-402.8742010644
 20
-4.3966962417
 11
-402.8754037753
 21
-4.4105171785
  0
LWPOLYLINE
  5
278
100
AcDbEntity
  8
RACCORDO
100
AcDbPolyline
 62
253
  6
CONTINUOUS
 90
20
 70
0
 10
-402.8731854746
 20
-4.3920163551
 10
-402.8740236825
 20
-4.4010270797
 10
-402.8747306112
 20
-4.4098496999
 10
-402.8753053077
 20
-4.4183858268
 10
-402.8757408839
 20
-4.4263010479
 10
-402.8760265013
 20
-4.4335199023
 10
-402.8761751628
 20
-4.4401507883
 10
-402.8762151541
 20
-4.4461221298
 10
-402.8761442304
 20
-4.4513874157
 10
-402.875964564
 20
-4.4560070387
 10
-402.875710725
 20
-4.4600537227
 10
-402.875384107
 20
-4.4635091451
 10
-402.8749824095
 20
-4.4663899399
 10
-402.874534866
 20
-4.4688108981
 10
-402.8740446697
 20
-4.4707649705
 10
-402.873507773
 20
-4.472249461
 10
-402.8729429463
 20
-4.4733817529
 10
-402.872356338
 20
-4.4741972937
 10
-402.8717412389
 20
-4.4746500943
 10
-402.8710973242
 20
-4.4747349421
  0
LINE
  5
279
100
AcDbEntity
  8
RACCORDO
100
AcDbLine
 62
7
  6
CONTINUOUS
 10
-402.8728110781
 20
-4.3831908019
 11
-402.8743002072
 21
-4.3977453326
  0
LWPOLYLINE
  5
27A
100
AcDbEntity
  8
RACCORDO
100
AcDbPolyline
 62
7
  6
CONTINUOUS
 90
7
 70
0
 10
-402.8756040559
 20
-5.6821415793
 10
-402.8764590219
 20
-5.6901167483
 10
-402.8770092953
 20
-5.6982309886
 10
-402.8773130798
 20
-5.7068391834
 10
-402.8773852943
 20
-5.71607512
 10
-402.8772282864
 20
-5.7260111044
 10
-402.8768388194
 20
-5.7367200357
  0
LINE
  5
27B
100
AcDbEntity
  8
RACCORDO
100
AcDbLine
 62
7
  6
CONTINUOUS
 10
-402.8716237304
 20
-4.3729559058
 11
-402.8729438058
 21
-4.3843958897
  0
LINE
  5
27C
100
AcDbEntity
  8
RACCORDO
100
AcDbLine
 62
253
  6
CONTINUOUS
 10
-402.8554786318
 20
-4.2546325987
 11
-402.8637370746
 21
-4.3149537323
  0
LINE
  5
27D
100
AcDbEntity
  8
RACCORDO
100
AcDbLine
 62
253
  6
CONTINUOUS
 10
-402.8359613069
 20
-4.1272851156
 11
-402.8462450335
 21
-4.1920459559
  0
LINE
  5
27E
100
AcDbEntity
  8
RACCORDO
100
AcDbLine
 62
7
  6
CONTINUOUS
 10
-402.5444456752
 20
-2.982768436
 11
-402.5449018808
 21
-2.9855356976
  0
LINE
  5
27F
100
AcDbEntity
  8
RACCORDO
100
AcDbLine
 62
253
  6
CONTINUOUS
 10
-402.8118517897
 20
-3.990792928
 11
-402.8245347921
 21
-4.0602801336
  0
LWPOLYLINE
  5
280
100
AcDbEntity
  8
RACCORDO
100
AcDbPolyline
 62
7
  6
CONTINUOUS
 90
8
 70
0
 10
-402.5449018808
 20
-2.9855356976
 10
-402.5452256417
 20
-2.987272754
 10
-402.5456982865
 20
-2.9896609136
 10
-402.5462953721
 20
-2.992528338
 10
-402.5469981476
 20
-2.9957577393
 10
-402.5478014614
 20
-2.9993119082
 10
-402.5487139816
 20
-3.003218472
 10
-402.5497323125
 20
-3.0074540462
  0
LINE
  5
281
100
AcDbEntity
  8
RACCORDO
100
AcDbLine
 62
253
  6
CONTINUOUS
 10
-402.5472339705
 20
-5.5613470009
 11
-402.5512459181
 21
-5.5824607934
  0
LINE
  5
282
100
AcDbEntity
  8
RACCORDO
100
AcDbLine
 62
253
  6
CONTINUOUS
 10
-402.5512459181
 20
-5.5824607934
 11
-402.5559303389
 21
-5.602147465
  0
LINE
  5
283
100
AcDbEntity
  8
RACCORDO
100
AcDbLine
 62
7
  6
CONTINUOUS
 10
-402.5497323125
 20
-3.0074540462
 11
-402.5510540168
 21
-3.012792651
  0
LWPOLYLINE
  5
284
100
AcDbEntity
  8
RACCORDO
100
AcDbPolyline
 62
253
  6
CONTINUOUS
 90
5
 70
0
 10
-402.7259472894
 20
-3.6065477239
 10
-402.7464817681
 20
-3.6882341764
 10
-402.7652217953
 20
-3.767531306
 10
-402.7822956826
 20
-3.8444255173
 10
-402.7978040432
 20
-3.9188145117
  0
LINE
  5
285
100
AcDbEntity
  8
RACCORDO
100
AcDbLine
 62
7
  6
CONTINUOUS
 10
-402.5508569028
 20
-3.0120149
 11
-402.5523070439
 21
-3.0177533193
  0
LINE
  5
286
100
AcDbEntity
  8
RACCORDO
100
AcDbLine
 62
7
  6
CONTINUOUS
 10
-402.5520874923
 20
-3.0168966246
 11
-402.5548496401
 21
-3.0275530594
  0
LINE
  5
287
100
AcDbEntity
  8
RACCORDO
100
AcDbLine
 62
7
  6
CONTINUOUS
 10
-402.5536595001
 20
-3.0230081998
 11
-402.5566596408
 21
-3.0343694098
  0
LWPOLYLINE
  5
288
100
AcDbEntity
  8
RACCORDO
100
AcDbPolyline
 62
253
  6
CONTINUOUS
 90
6
 70
0
 10
-402.5512616963
 20
-3.0172676622
 10
-402.5559411563
 20
-3.0346995639
 10
-402.5612867215
 20
-3.0539155382
 10
-402.5672696558
 20
-3.074833339
 10
-402.5738040396
 20
-3.097115669
 10
-402.5769358363
 20
-3.1055400528
  0
LINE
  5
289
100
AcDbEntity
  8
RACCORDO
100
AcDbLine
 62
7
  6
CONTINUOUS
 10
-402.5563803129
 20
-3.0333197023
 11
-402.5600575061
 21
-3.0468582124
  0
LINE
  5
28A
100
AcDbEntity
  8
RACCORDO
100
AcDbLine
 62
7
  6
CONTINUOUS
 10
-402.5597332567
 20
-3.0456800542
 11
-402.5638466121
 21
-3.0604372828
  0
LINE
  5
28B
100
AcDbEntity
  8
RACCORDO
100
AcDbLine
 62
7
  6
CONTINUOUS
 10
-402.5634730221
 20
-3.0591167814
 11
-402.5680155264
 21
-3.0750670035
  0
LINE
  5
28C
100
AcDbEntity
  8
RACCORDO
100
AcDbLine
 62
7
  6
CONTINUOUS
 10
-402.567595574
 20
-3.0736048176
 11
-402.572553476
 21
-3.0906959008
  0
LWPOLYLINE
  5
28D
100
AcDbEntity
  8
RACCORDO
100
AcDbPolyline
 62
253
  6
CONTINUOUS
 90
10
 70
0
 10
-402.5559303389
 20
-5.602147465
 10
-402.561294113
 20
-5.6204043484
 10
-402.5673042092
 20
-5.6371487881
 10
-402.5738709917
 20
-5.6519342712
 10
-402.5809914761
 20
-5.6647520214
 10
-402.5886360783
 20
-5.6755950418
 10
-402.5966781658
 20
-5.6840745265
 10
-402.6050660999
 20
-5.6900958093
 10
-402.6138194756
 20
-5.6938286987
 10
-402.622920405
 20
-5.695315417
  0
LINE
  5
28E
100
AcDbEntity
  8
RACCORDO
100
AcDbLine
 62
7
  6
CONTINUOUS
 10
-402.5720865249
 20
-3.0890951142
 11
-402.5774521574
 21
-3.1072763827
  0
LWPOLYLINE
  5
28F
100
AcDbEntity
  8
RACCORDO
100
AcDbPolyline
 62
253
  6
CONTINUOUS
 90
3
 70
0
 10
-402.5800343705
 20
-3.1159114719
 10
-402.5808744547
 20
-3.1207261068
 10
-402.5827022111
 20
-3.1247658081
  0
LWPOLYLINE
  5
290
100
AcDbEntity
  8
RACCORDO
100
AcDbPolyline
 62
253
  6
CONTINUOUS
 90
3
 70
0
 10
-402.6520790332
 20
-3.3459283213
 10
-402.6788794769
 20
-3.4353215658
 10
-402.7034609762
 20
-3.5222518902
  0
LINE
  5
291
100
AcDbEntity
  8
RACCORDO
100
AcDbLine
 62
7
  6
CONTINUOUS
 10
-402.5769358363
 20
-3.1055400528
 11
-402.5848602821
 21
-3.1318891557
  0
LWPOLYLINE
  5
292
100
AcDbEntity
  8
RACCORDO
100
AcDbPolyline
 62
253
  6
CONTINUOUS
 90
3
 70
0
 10
-402.5854531781
 20
-3.1338315228
 10
-402.5884644816
 20
-3.1456298277
 10
-402.5905543067
 20
-3.1504902661
  0
LINE
  5
293
100
AcDbEntity
  8
RACCORDO
100
AcDbLine
 62
7
  6
CONTINUOUS
 10
-402.5827022111
 20
-3.1247658081
 11
-402.591194628
 21
-3.1525640619
  0
LWPOLYLINE
  5
294
100
AcDbEntity
  8
RACCORDO
100
AcDbPolyline
 62
253
  6
CONTINUOUS
 90
3
 70
0
 10
-402.5941819918
 20
-3.1622186797
 10
-402.5964882788
 20
-3.1714816706
 10
-402.599666621
 20
-3.1797924315
  0
LWPOLYLINE
  5
295
100
AcDbEntity
  8
RACCORDO
100
AcDbPolyline
 62
253
  6
CONTINUOUS
 90
5
 70
0
 10
-402.5392705001
 20
-2.9490122145
 10
-402.5431304667
 20
-2.9613398878
 10
-402.545371281
 20
-2.9740631195
 10
-402.5459555372
 20
-2.9869695211
 10
-402.5457204022
 20
-2.9897671216
  0
LINE
  5
296
100
AcDbEntity
  8
RACCORDO
100
AcDbLine
 62
7
  6
CONTINUOUS
 10
-402.5905543067
 20
-3.1504902661
 11
-402.6003792049
 21
-3.182064151
  0
LWPOLYLINE
  5
297
100
AcDbEntity
  8
RACCORDO
100
AcDbPolyline
 62
253
  6
CONTINUOUS
 90
3
 70
0
 10
-402.6035854181
 20
-3.1922412257
 10
-402.6049064246
 20
-3.1981470583
 10
-402.6094120479
 20
-3.210585131
  0
LWPOLYLINE
  5
298
100
AcDbEntity
  8
RACCORDO
100
AcDbPolyline
 62
7
  6
CONTINUOUS
 90
10
 70
0
 10
-402.6234249787
 20
-3.2539897361
 10
-402.6550399451
 20
-3.3538219161
 10
-402.692829094
 20
-3.482099765
 10
-402.7277005655
 20
-3.6111996362
 10
-402.7596365009
 20
-3.7410546866
 10
-402.7886213717
 20
-3.8716016052
 10
-402.8146406335
 20
-4.0027744336
 10
-402.837680437
 20
-4.1345054811
 10
-402.8577290036
 20
-4.2667280526
 10
-402.8716242962
 20
-4.3729558896
  0
LINE
  5
299
100
AcDbEntity
  8
RACCORDO
100
AcDbLine
 62
7
  6
CONTINUOUS
 10
-402.599666621
 20
-3.1797924315
 11
-402.6102000259
 21
-3.2130582515
  0
LINE
  5
29A
100
AcDbEntity
  8
RACCORDO
100
AcDbLine
 62
253
  6
CONTINUOUS
 10
-402.6127898824
 20
-3.221139853
 11
-402.6137235762
 21
-3.2257094081
  0
LINE
  5
29B
100
AcDbEntity
  8
RACCORDO
100
AcDbLine
 62
7
  6
CONTINUOUS
 10
-402.6094120479
 20
-3.210585131
 11
-402.619721536
 21
-3.2426212291
  0
LINE
  5
29C
100
AcDbEntity
  8
RACCORDO
100
AcDbLine
 62
7
  6
CONTINUOUS
 10
-402.619721536
 20
-3.2426212291
 11
-402.6234216433
 21
-3.2539908247
  0
LWPOLYLINE
  5
29D
100
AcDbEntity
  8
RACCORDO
100
AcDbPolyline
 62
7
  6
CONTINUOUS
 90
6
 70
0
 10
-402.5621141926
 20
-5.5781177713
 10
-402.5649978036
 20
-5.5866822733
 10
-402.5676468692
 20
-5.5934031388
 10
-402.5698613261
 20
-5.5982182711
 10
-402.5714797681
 20
-5.6012423415
 10
-402.5717211593
 20
-5.6016509928
  0
LWPOLYLINE
  5
29E
100
AcDbEntity
  8
RACCORDO
100
AcDbPolyline
 62
7
  6
CONTINUOUS
 90
13
 70
0
 10
-402.8701562548
 20
-4.512631689
 10
-402.8668520592
 20
-4.5214827863
 10
-402.8625256701
 20
-4.5305523608
 10
-402.8572826025
 20
-4.5393095577
 10
-402.8512268357
 20
-4.547502167
 10
-402.8442466075
 20
-4.5552120917
 10
-402.8362728102
 20
-4.5623818825
 10
-402.82733822
 20
-4.5688425019
 10
-402.817462653
 20
-4.5744481011
 10
-402.806558221
 20
-4.5790860757
 10
-402.7946523001
 20
-4.582544523
 10
-402.7819200082
 20
-4.584573172
 10
-402.7723505319
 20
-4.5850250954
  0
LWPOLYLINE
  5
29F
100
AcDbEntity
  8
RACCORDO
100
AcDbPolyline
 62
7
  6
CONTINUOUS
 90
11
 70
0
 10
-402.5652354007
 20
-4.5827231358
 10
-402.5623825765
 20
-4.5910779893
 10
-402.5594153227
 20
-4.6012902549
 10
-402.5564531243
 20
-4.6133914381
 10
-402.5536342313
 20
-4.6272532573
 10
-402.5510537365
 20
-4.6428323372
 10
-402.5488065522
 20
-4.6600646916
 10
-402.5469929929
 20
-4.6787409745
 10
-402.5456790255
 20
-4.6987141139
 10
-402.5449221475
 20
-4.7198336383
 10
-402.5447816741
 20
-4.7418341251
  0
LINE
  5
2A0
100
AcDbEntity
  8
RACCORDO
100
AcDbLine
 62
7
  6
CONTINUOUS
 10
-402.6234216253
 20
-6.9160595262
 11
-402.6136020307
 21
-6.9463747263
  0
LINE
  5
2A1
100
AcDbEntity
  8
RACCORDO
100
AcDbLine
 62
253
  6
CONTINUOUS
 10
-402.6136630934
 20
-6.944536827
 11
-402.6136020307
 21
-6.9463747263
  0
LINE
  5
2A2
100
AcDbEntity
  8
RACCORDO
100
AcDbLine
 62
253
  6
CONTINUOUS
 10
-402.6101975223
 20
-6.9569999432
 11
-402.6048032218
 21
-6.9722349985
  0
LINE
  5
2A3
100
AcDbEntity
  8
RACCORDO
100
AcDbLine
 62
7
  6
CONTINUOUS
 10
-402.6136020307
 20
-6.9463747263
 11
-402.6035806554
 21
-6.9778242075
  0
LWPOLYLINE
  5
2A4
100
AcDbEntity
  8
RACCORDO
100
AcDbPolyline
 62
253
  6
CONTINUOUS
 90
5
 70
0
 10
-402.5392778841
 20
-7.2210410004
 10
-402.5431367207
 20
-7.2087133793
 10
-402.5453764667
 20
-7.1959903873
 10
-402.5459597391
 20
-7.183084379
 10
-402.5457223744
 20
-7.1802626595
  0
LINE
  5
2A5
100
AcDbEntity
  8
RACCORDO
100
AcDbLine
 62
7
  6
CONTINUOUS
 10
-402.6035806554
 20
-6.9778242075
 11
-402.5941733004
 21
-7.0078596823
  0
LINE
  5
2A6
100
AcDbEntity
  8
RACCORDO
100
AcDbLine
 62
7
  6
CONTINUOUS
 10
-402.5941733004
 20
-7.0078596823
 11
-402.5854404759
 21
-7.036260555
  0
LWPOLYLINE
  5
2A7
100
AcDbEntity
  8
RACCORDO
100
AcDbPolyline
 62
253
  6
CONTINUOUS
 90
6
 70
0
 10
-402.5749409545
 20
-7.0712390125
 10
-402.5737228543
 20
-7.0732087711
 10
-402.5672042658
 20
-7.0954424625
 10
-402.5612369813
 20
-7.1163107895
 10
-402.555905176
 20
-7.1354823697
 10
-402.5512368019
 20
-7.1528778982
  0
LINE
  5
2A8
100
AcDbEntity
  8
RACCORDO
100
AcDbLine
 62
7
  6
CONTINUOUS
 10
-402.5854404759
 20
-7.036260555
 11
-402.5774359894
 21
-7.062828258
  0
LINE
  5
2A9
100
AcDbEntity
  8
RACCORDO
100
AcDbLine
 62
7
  6
CONTINUOUS
 10
-402.5774359894
 20
-7.062828258
 11
-402.57253556
 21
-7.0794156217
  0
LINE
  5
2AA
100
AcDbEntity
  8
RACCORDO
100
AcDbLine
 62
7
  6
CONTINUOUS
 10
-402.57253556
 20
-7.0794156217
 11
-402.5679964509
 21
-7.095049667
  0
LINE
  5
2AB
100
AcDbEntity
  8
RACCORDO
100
AcDbLine
 62
7
  6
CONTINUOUS
 10
-402.5679964509
 20
-7.095049667
 11
-402.5638270188
 21
-7.1096825299
  0
LWPOLYLINE
  5
2AC
100
AcDbEntity
  8
RACCORDO
100
AcDbPolyline
 62
253
  6
CONTINUOUS
 90
3
 70
0
 10
-402.7032209775
 20
-6.6486718059
 10
-402.6786770765
 20
-6.7354291103
 10
-402.6519548431
 20
-6.8245310827
  0
LINE
  5
2AD
100
AcDbEntity
  8
RACCORDO
100
AcDbLine
 62
7
  6
CONTINUOUS
 10
-402.5638270188
 20
-7.1096825299
 11
-402.560038152
 21
-7.1232623543
  0
LINE
  5
2AE
100
AcDbEntity
  8
RACCORDO
100
AcDbLine
 62
7
  6
CONTINUOUS
 10
-402.560038152
 20
-7.1232623543
 11
-402.556641265
 21
-7.1357494768
  0
LWPOLYLINE
  5
2AF
100
AcDbEntity
  8
RACCORDO
100
AcDbPolyline
 62
7
  6
CONTINUOUS
 90
4
 70
0
 10
-402.556641265
 20
-7.1357494768
 10
-402.5536427645
 20
-7.1471066199
 10
-402.5522913514
 20
-7.1523585852
 10
-402.5510394967
 20
-7.1573157759
  0
LWPOLYLINE
  5
2B0
100
AcDbEntity
  8
RACCORDO
100
AcDbPolyline
 62
253
  6
CONTINUOUS
 90
9
 70
0
 10
-402.5512368019
 20
-7.1528778982
 10
-402.5472294441
 20
-7.1685085084
 10
-402.5439210954
 20
-7.1821953539
 10
-402.5413252137
 20
-7.1938963237
 10
-402.5394436726
 20
-7.2035991277
 10
-402.5382947828
 20
-7.2111889944
 10
-402.537886042
 20
-7.2166212448
 10
-402.5382140372
 20
-7.2199102848
 10
-402.5392779106
 20
-7.2210410107
  0
LWPOLYLINE
  5
2B1
100
AcDbEntity
  8
RACCORDO
100
AcDbPolyline
 62
7
  6
CONTINUOUS
 90
10
 70
0
 10
-402.5510394967
 20
-7.1573157759
 10
-402.5498929949
 20
-7.1619497425
 10
-402.5488520317
 20
-7.1662580264
 10
-402.5479172765
 20
-7.1702355198
 10
-402.5470953691
 20
-7.1738475772
 10
-402.5463810835
 20
-7.1771070752
 10
-402.5457761594
 20
-7.1799924587
 10
-402.5452926391
 20
-7.1824215316
 10
-402.544915934
 20
-7.1844335527
 10
-402.5448372392
 20
-7.184873643
  0
LINE
  5
2B2
100
AcDbEntity
  8
RACCORDO
100
AcDbLine
 62
253
  6
CONTINUOUS
 10
-402.5558617541
 20
-4.5681632201
 11
-402.5511890245
 21
-4.5878513779
  0
LWPOLYLINE
  5
2B3
100
AcDbEntity
  8
RACCORDO
100
AcDbPolyline
 62
253
  6
CONTINUOUS
 90
3
 70
0
 10
-402.7650639557
 20
-6.4032077647
 10
-402.746291634
 20
-6.4825924785
 10
-402.7257173589
 20
-6.5643857991
  0
LWPOLYLINE
  5
2B4
100
AcDbEntity
  8
RACCORDO
100
AcDbPolyline
 62
7
  6
CONTINUOUS
 90
3
 70
0
 10
-402.8743458468
 20
-4.4959853746
 10
-402.8725779464
 20
-4.5041951523
 10
-402.8701562548
 20
-4.512631689
  0
LINE
  5
2B5
100
AcDbEntity
  8
RACCORDO
100
AcDbLine
 62
253
  6
CONTINUOUS
 10
-402.7976688603
 20
-6.2519064951
 11
-402.7821515962
 21
-6.3262953782
  0
LINE
  5
2B6
100
AcDbEntity
  8
RACCORDO
100
AcDbLine
 62
253
  6
CONTINUOUS
 10
-402.5511890245
 20
-4.5878513779
 11
-402.5471904094
 21
-4.6089553716
  0
LINE
  5
2B7
100
AcDbEntity
  8
RACCORDO
100
AcDbLine
 62
253
  6
CONTINUOUS
 10
-402.824413191
 20
-6.1104641829
 11
-402.8117249815
 21
-6.179929009
  0
LINE
  5
2B8
100
AcDbEntity
  8
RACCORDO
100
AcDbLine
 62
253
  6
CONTINUOUS
 10
-402.8461435206
 20
-5.9786670482
 11
-402.8358446647
 21
-6.0434819546
  0
LWPOLYLINE
  5
2B9
100
AcDbEntity
  8
RACCORDO
100
AcDbPolyline
 62
253
  6
CONTINUOUS
 90
7
 70
0
 10
-402.5471904094
 20
-4.6089553716
 10
-402.5438920576
 20
-4.6311218183
 10
-402.5413045794
 20
-4.6542805133
 10
-402.5394326518
 20
-4.6783825298
 10
-402.53829101
 20
-4.7030899161
 10
-402.5378859365
 20
-4.7282423301
 10
-402.5382151894
 20
-4.753862237
  0
LINE
  5
2BA
100
AcDbEntity
  8
RACCORDO
100
AcDbLine
 62
253
  6
CONTINUOUS
 10
-402.863696895
 20
-5.8553835032
 11
-402.8554042482
 21
-5.9159271478
  0
LWPOLYLINE
  5
2BB
100
AcDbEntity
  8
RACCORDO
100
AcDbPolyline
 62
7
  6
CONTINUOUS
 90
10
 70
0
 10
-402.8716242836
 20
-5.7970945255
 10
-402.8580605368
 20
-5.9009516188
 10
-402.8380650665
 20
-6.0331856912
 10
-402.8150782208
 20
-6.1649282664
 10
-402.7891118476
 20
-6.2961126437
 10
-402.7601798477
 20
-6.4266710653
 10
-402.7282967436
 20
-6.5565379236
 10
-402.693478034
 20
-6.6856500531
 10
-402.6557418978
 20
-6.8139399205
 10
-402.6234250066
 20
-6.91606063
  0
LINE
  5
2BC
100
AcDbEntity
  8
RACCORDO
100
AcDbLine
 62
7
  6
CONTINUOUS
 10
-402.8729438058
 20
-5.7856544693
 11
-402.8716237304
 21
-5.7970944533
  0
LINE
  5
2BD
100
AcDbEntity
  8
0
100
AcDbLine
 62
253
  6
CONTINUOUS
 10
-374.2680363393
 20
9.4149748205
 11
-374.2680363393
 21
-52.5850251795
  0
LINE
  5
2BE
100
AcDbEntity
  8
0
100
AcDbLine
 62
7
  6
CONTINUOUS
 10
-374.2680363393
 20
-52.5850251795
 11
-374.2680363393
 21
-55.5850251795
  0
LINE
  5
2BF
100
AcDbEntity
  8
0
100
AcDbLine
 62
7
  6
CONTINUOUS
 10
-374.2680363393
 20
9.4149748205
 11
-374.2680363393
 21
42.4149748205
  0
LINE
  5
2C0
100
AcDbEntity
  8
0
100
AcDbLine
 62
7
  6
CONTINUOUS
 10
-373.945705869
 20
45.9149748205
 11
-373.945705869
 21
55.6149748205
  0
LWPOLYLINE
  5
2C1
100
AcDbEntity
  8
RACCORDO
100
AcDbPolyline
 62
7
  6
CONTINUOUS
 90
11
 70
0
 10
-402.8627339941
 20
-4.5301618047
 10
-402.8575866484
 20
-4.5388507036
 10
-402.851640661
 20
-4.5469926167
 10
-402.8447851403
 20
-4.5546702098
 10
-402.8369520581
 20
-4.5618276555
 10
-402.8281723108
 20
-4.5682997771
 10
-402.8184619626
 20
-4.573945752
 10
-402.8077306006
 20
-4.5786584621
 10
-402.7960002956
 20
-4.5822314001
 10
-402.7834379471
 20
-4.5844179697
 10
-402.7723549437
 20
-4.5850249644
  0
LINE
  5
2C2
100
AcDbEntity
  8
0
100
AcDbLine
 62
7
  6
CONTINUOUS
 10
-330.2680363393
 20
45.4149748205
 11
-330.2680363393
 21
55.6149748205
  0
LWPOLYLINE
  5
2C3
100
AcDbEntity
  8
RACCORDO
100
AcDbPolyline
 62
7
  6
CONTINUOUS
 90
7
 70
0
 10
-402.5710414388
 20
-4.568871868
 10
-402.5722067553
 20
-4.5675723366
 10
-402.5723794855
 20
-4.5673624793
 10
-402.5715726665
 20
-4.5686481003
 10
-402.5700125391
 20
-4.5715298223
 10
-402.5678453681
 20
-4.5761855035
 10
-402.5652354007
 20
-4.5827231358
  0
LWPOLYLINE
  5
2C4
100
AcDbEntity
  8
RACCORDO
100
AcDbPolyline
 62
253
  6
CONTINUOUS
 90
22
 70
0
 10
-272.5559961064
 20
-5.7970304566
 10
-272.5565088671
 20
-5.7873653305
 10
-272.5578194273
 20
-5.778034004
 10
-272.559928366
 20
-5.7690232794
 10
-272.5629386731
 20
-5.7602006592
 10
-272.5667491033
 20
-5.7516645323
 10
-272.5710695878
 20
-5.7437493112
 10
-272.5759361115
 20
-5.7365304568
 10
-272.581350145
 20
-5.7298995708
 10
-272.5869864011
 20
-5.7239282292
 10
-272.5928321422
 20
-5.7186629434
 10
-272.598937451
 20
-5.7140433203
 10
-272.6050702979
 20
-5.7099966364
 10
-272.611210905
 20
-5.706541214
 10
-272.6174034701
 20
-5.7036604191
 10
-272.6235054242
 20
-5.701239461
 10
-272.6294902935
 20
-5.6992853886
 10
-272.6353969927
 20
-5.6978008981
 10
-272.641175553
 20
-5.6966686062
 10
-272.6468102995
 20
-5.6958530654
 10
-272.6523216015
 20
-5.6954002648
 10
-272.657711146
 20
-5.695315417
  0
LWPOLYLINE
  5
2C5
100
AcDbEntity
  8
RACCORDO
100
AcDbPolyline
 62
253
  6
CONTINUOUS
 90
22
 70
0
 10
-271.3354156315
 20
-4.3730199025
 10
-271.3349028708
 20
-4.3826850286
 10
-271.3335923106
 20
-4.3920163551
 10
-271.331483372
 20
-4.4010270797
 10
-271.3284730648
 20
-4.4098496999
 10
-271.3246626346
 20
-4.4183858268
 10
-271.3203421502
 20
-4.4263010479
 10
-271.3154756265
 20
-4.4335199023
 10
-271.310061593
 20
-4.4401507883
 10
-271.3044253368
 20
-4.4461221298
 10
-271.2985795957
 20
-4.4513874157
 10
-271.2924742869
 20
-4.4560070387
 10
-271.2863414401
 20
-4.4600537227
 10
-271.2802008329
 20
-4.4635091451
 10
-271.2740082678
 20
-4.4663899399
 10
-271.2679063137
 20
-4.4688108981
 10
-271.2619214444
 20
-4.4707649705
 10
-271.2560147453
 20
-4.472249461
 10
-271.2502361849
 20
-4.4733817529
 10
-271.2446014385
 20
-4.4741972937
 10
-271.2390901364
 20
-4.4746500943
 10
-271.2337005919
 20
-4.4747349421
  0
LWPOLYLINE
  5
2C6
100
AcDbEntity
  8
RACCORDO
100
AcDbPolyline
 62
253
  6
CONTINUOUS
 90
16
 70
0
 10
-272.2508505786
 20
-7.2210381446
 10
-272.2510637313
 20
-7.2087104713
 10
-272.2511874561
 20
-7.1959872395
 10
-272.2512196873
 20
-7.183080838
 10
-272.2511598866
 20
-7.1702067127
 10
-272.2510090518
 20
-7.1575797711
 10
-272.2507697004
 20
-7.1454107942
 10
-272.2504458275
 20
-7.1339029182
 10
-272.2500428391
 20
-7.1232482438
 10
-272.2495674617
 20
-7.1136246291
 10
-272.2490276304
 20
-7.1051927207
 10
-272.248432356
 20
-7.0980932723
 10
-272.2477915749
 20
-7.0924447948
 10
-272.2471159832
 20
-7.0883415778
 10
-272.246416858
 20
-7.0858521165
 10
-272.2457058693
 20
-7.0850179671
  0
LWPOLYLINE
  5
2C7
100
AcDbEntity
  8
RACCORDO
100
AcDbPolyline
 62
253
  6
CONTINUOUS
 90
16
 70
0
 10
-271.6405611593
 20
-2.9490122145
 10
-271.6403480066
 20
-2.9613398878
 10
-271.6402242818
 20
-2.9740631195
 10
-271.6401920506
 20
-2.9869695211
 10
-271.6402518513
 20
-2.9998436463
 10
-271.6404026861
 20
-3.012470588
 10
-271.6406420375
 20
-3.0246395649
 10
-271.6409659104
 20
-3.0361474409
 10
-271.6413688988
 20
-3.0468021153
 10
-271.6418442762
 20
-3.05642573
 10
-271.6423841076
 20
-3.0648576383
 10
-271.6429793819
 20
-3.0719570867
 10
-271.643620163
 20
-3.0776055643
 10
-271.6442957547
 20
-3.0817087812
 10
-271.6449948799
 20
-3.0841982426
 10
-271.6457058687
 20
-3.085032392
  0
LWPOLYLINE
  5
2C8
100
AcDbEntity
  8
RACCORDO
100
AcDbPolyline
 62
253
  6
CONTINUOUS
 90
13
 70
0
 10
-273.7765752634
 20
-5.6953149773
 10
-273.7767198413
 20
-5.6813846923
 10
-273.7762618753
 20
-5.667524952
 10
-273.7752102629
 20
-5.6540050265
 10
-273.7735854351
 20
-5.6410875837
 10
-273.7714189595
 20
-5.6290235863
 10
-273.7687529269
 20
-5.6180474162
 10
-273.7656391336
 20
-5.6083723207
 10
-273.7621380752
 20
-5.6001862695
 10
-273.7583177709
 20
-5.593648303
 10
-273.7542524427
 20
-5.5888854422
 10
-273.7500210726
 20
-5.585990221
 10
-273.7457058687
 20
-5.5850188882
  0
LWPOLYLINE
  5
2C9
100
AcDbEntity
  8
RACCORDO
100
AcDbPolyline
 62
253
  6
CONTINUOUS
 90
13
 70
0
 10
-270.1148364745
 20
-4.4747353817
 10
-270.1146918966
 20
-4.4886656668
 10
-270.1151498626
 20
-4.5025254071
 10
-270.116201475
 20
-4.5160453326
 10
-270.1178263028
 20
-4.5289627754
 10
-270.1199927784
 20
-4.5410267728
 10
-270.122658811
 20
-4.5520029429
 10
-270.1257726043
 20
-4.5616780384
 10
-270.1292736628
 20
-4.5698640896
 10
-270.133093967
 20
-4.576402056
 10
-270.1371592952
 20
-4.5811649168
 10
-270.1413906653
 20
-4.5840601381
 10
-270.1457058692
 20
-4.5850314709
  0
LWPOLYLINE
  5
2CA
100
AcDbEntity
  8
RACCORDO
100
AcDbPolyline
 62
253
  6
CONTINUOUS
 90
13
 70
0
 10
-272.6577111437
 20
-5.695315415
 10
-272.6577672172
 20
-5.6813854585
 10
-272.6575889874
 20
-5.6675262071
 10
-272.6571799167
 20
-5.6540068899
 10
-272.6565479516
 20
-5.6410901325
 10
-272.6557053687
 20
-5.6290268554
 10
-272.6546685359
 20
-5.618051399
 10
-272.6534575947
 20
-5.6083769722
 10
-272.6520960688
 20
-5.60019151
 10
-272.6506104071
 20
-5.5936540226
 10
-272.6490294701
 20
-5.5888915071
 10
-272.6473839689
 20
-5.5859964799
 10
-272.645705869
 20
-5.5850251795
  0
LWPOLYLINE
  5
2CB
100
AcDbEntity
  8
RACCORDO
100
AcDbPolyline
 62
253
  6
CONTINUOUS
 90
13
 70
0
 10
-271.2337005942
 20
-4.474734944
 10
-271.2336445208
 20
-4.4886649005
 10
-271.2338227505
 20
-4.502524152
 10
-271.2342318213
 20
-4.5160434692
 10
-271.2348637863
 20
-4.5289602265
 10
-271.2357063693
 20
-4.5410235037
 10
-271.2367432021
 20
-4.5519989601
 10
-271.2379541432
 20
-4.5616733868
 10
-271.2393156691
 20
-4.5698588491
 10
-271.2408013308
 20
-4.5763963365
 10
-271.2423822678
 20
-4.581158852
 10
-271.244027769
 20
-4.5840538792
 10
-271.245705869
 20
-4.5850251795
  0
LINE
  5
2CC
100
AcDbEntity
  8
0
100
AcDbLine
 62
7
  6
CONTINUOUS
 10
-285.9807031174
 20
37.4149748205
 11
-285.9807031174
 21
34.9149748205
  0
LINE
  5
2CD
100
AcDbEntity
  8
0
100
AcDbLine
 62
7
  6
CONTINUOUS
 10
-285.9807031174
 20
-45.0850251795
 11
-285.9807031174
 21
-47.5850251795
  0
LINE
  5
2CE
100
AcDbEntity
  8
0
100
AcDbLine
 62
7
  6
CONTINUOUS
 10
-283.9807031174
 20
-47.5850251795
 11
-283.9807031174
 21
-45.5850251795
  0
LINE
  5
2CF
100
AcDbEntity
  8
0
100
AcDbLine
 62
7
  6
CONTINUOUS
 10
-283.9807031174
 20
-47.5850251795
 11
-283.9807031174
 21
-55.5850251795
  0
LINE
  5
2D0
100
AcDbEntity
  8
0
100
AcDbLine
 62
7
  6
CONTINUOUS
 10
-283.9807031174
 20
37.4149748205
 11
-283.9807031174
 21
55.6149748205
  0
LINE
  5
2D1
100
AcDbEntity
  8
0
100
AcDbLine
 62
253
  6
CONTINUOUS
 10
-282.945705869
 20
34.9149748205
 11
-282.945705869
 21
-45.0850251795
  0
LINE
  5
2D2
100
AcDbEntity
  8
0
100
AcDbLine
 62
253
  6
CONTINUOUS
 10
-280.5097986215
 20
34.9149748205
 11
-280.5097986215
 21
-45.0850251795
  0
LINE
  5
2D3
100
AcDbEntity
  8
0
100
AcDbLine
 62
253
  6
CONTINUOUS
 10
-279.5545408774
 20
34.9149748205
 11
-279.5545408774
 21
-45.0850251795
  0
LINE
  5
2D4
100
AcDbEntity
  8
0
100
AcDbLine
 62
7
  6
CONTINUOUS
 10
-278.445705869
 20
44.9149748205
 11
-278.445705869
 21
-55.0850251795
  0
LINE
  5
2D5
100
AcDbEntity
  8
RACCORDO
100
AcDbLine
 62
253
  6
CONTINUOUS
 10
-274.0817217001
 20
-5.3901702983
 11
-274.0817217001
 21
-4.7798800608
  0
LINE
  5
2D6
100
AcDbEntity
  8
RACCORDO
100
AcDbLine
 62
7
  6
CONTINUOUS
 10
-273.945705869
 20
-5.3850251795
 11
-273.945705869
 21
-4.7850251795
  0
LINE
  5
2D7
100
AcDbEntity
  8
RACCORDO
100
AcDbLine
 62
7
  6
CONTINUOUS
 10
-272.445705869
 20
-6.8850251795
 11
-272.445705869
 21
-5.7850251795
  0
LINE
  5
2D8
100
AcDbEntity
  8
RACCORDO
100
AcDbLine
 62
7
  6
CONTINUOUS
 10
-272.445705869
 20
-4.3850251795
 11
-272.445705869
 21
-3.2850251795
  0
LINE
  5
2D9
100
AcDbEntity
  8
RACCORDO
100
AcDbLine
 62
7
  6
CONTINUOUS
 10
-271.445705869
 20
-3.2850251795
 11
-271.445705869
 21
-4.3850251795
  0
LINE
  5
2DA
100
AcDbEntity
  8
RACCORDO
100
AcDbLine
 62
7
  6
CONTINUOUS
 10
-271.445705869
 20
-5.7850251795
 11
-271.445705869
 21
-6.8850251795
  0
LINE
  5
2DB
100
AcDbEntity
  8
RACCORDO
100
AcDbLine
 62
7
  6
CONTINUOUS
 10
-269.945705869
 20
-4.7850251795
 11
-269.945705869
 21
-5.3850251795
  0
LINE
  5
2DC
100
AcDbEntity
  8
RACCORDO
100
AcDbLine
 62
253
  6
CONTINUOUS
 10
-269.8096900378
 20
-4.7798800608
 11
-269.8096900378
 21
-5.3901702983
  0
LINE
  5
2DD
100
AcDbEntity
  8
RACCORDO
100
AcDbLine
 62
253
  6
CONTINUOUS
 10
-272.5559961064
 20
-4.3730199025
 11
-272.5559961049
 21
-3.5213785532
  0
LINE
  5
2DE
100
AcDbEntity
  8
RACCORDO
100
AcDbLine
 62
253
  6
CONTINUOUS
 10
-272.5560722262
 20
-5.8550966268
 11
-272.5559961064
 21
-5.7970304566
  0
LINE
  5
2DF
100
AcDbEntity
  8
RACCORDO
100
AcDbLine
 62
253
  6
CONTINUOUS
 10
-271.3353395117
 20
-4.3149537323
 11
-271.3354156315
 21
-4.3730199025
  0
LINE
  5
2E0
100
AcDbEntity
  8
RACCORDO
100
AcDbLine
 62
253
  6
CONTINUOUS
 10
-271.3354156315
 20
-5.7970304566
 11
-271.335415633
 21
-6.6486718059
  0
LWPOLYLINE
  5
2E1
100
AcDbEntity
  8
RACCORDO
100
AcDbPolyline
 62
253
  6
CONTINUOUS
 90
3
 70
0
 10
-272.5559961049
 20
-3.5213785532
 10
-272.5558163354
 20
-3.4346212488
 10
-272.5559961064
 20
-3.2541544671
  0
LWPOLYLINE
  5
2E2
100
AcDbEntity
  8
RACCORDO
100
AcDbPolyline
 62
253
  6
CONTINUOUS
 90
3
 70
0
 10
-271.335415633
 20
-6.6486718059
 10
-271.3355954025
 20
-6.7354291103
 10
-271.3354156315
 20
-6.9158958919
  0
LINE
  5
2E3
100
AcDbEntity
  8
RACCORDO
100
AcDbLine
 62
253
  6
CONTINUOUS
 10
-272.5559961064
 20
-6.9158958919
 11
-272.5560722262
 21
-5.8550966268
  0
LINE
  5
2E4
100
AcDbEntity
  8
RACCORDO
100
AcDbLine
 62
253
  6
CONTINUOUS
 10
-271.3354156315
 20
-3.2541544671
 11
-271.3353395117
 21
-4.3149537323
  0
LWPOLYLINE
  5
2E5
100
AcDbEntity
  8
RACCORDO
100
AcDbPolyline
 62
253
  6
CONTINUOUS
 90
13
 70
0
 10
-272.6577111457
 20
-4.4747349423
 10
-272.6577672161
 20
-4.4886648765
 10
-272.6575889838
 20
-4.5025241038
 10
-272.6571799111
 20
-4.5160433959
 10
-272.6565479446
 20
-4.5289601281
 10
-272.6557053609
 20
-4.5410233808
 10
-272.6546685278
 20
-4.5519988144
 10
-272.653457587
 20
-4.5616732208
 10
-272.6520960619
 20
-4.5698586658
 10
-272.6506104015
 20
-4.5763961396
 10
-272.6490294661
 20
-4.5811586456
 10
-272.6473839668
 20
-4.5840536678
 10
-272.645705869
 20
-4.5850249677
  0
LWPOLYLINE
  5
2E6
100
AcDbEntity
  8
RACCORDO
100
AcDbPolyline
 62
253
  6
CONTINUOUS
 90
13
 70
0
 10
-271.2337005922
 20
-5.6953154168
 10
-271.2336445218
 20
-5.6813854826
 10
-271.2338227541
 20
-5.6675262553
 10
-271.2342318268
 20
-5.6540069632
 10
-271.2348637933
 20
-5.641090231
 10
-271.2357063771
 20
-5.6290269782
 10
-271.2367432101
 20
-5.6180515447
 10
-271.237954151
 20
-5.6083771382
 10
-271.239315676
 20
-5.6001916933
 10
-271.2408013364
 20
-5.5936542195
 10
-271.2423822718
 20
-5.5888917135
 10
-271.2440277711
 20
-5.5859966913
 10
-271.245705869
 20
-5.5850253913
  0
LWPOLYLINE
  5
2E7
100
AcDbEntity
  8
RACCORDO
100
AcDbPolyline
 62
253
  6
CONTINUOUS
 90
13
 70
0
 10
-273.7765765647
 20
-4.4747349476
 10
-273.7767207534
 20
-4.488664901
 10
-273.7762624485
 20
-4.5025241493
 10
-273.7752105527
 20
-4.5160434635
 10
-273.7735855004
 20
-4.5289602183
 10
-273.7714188595
 20
-4.5410234934
 10
-273.7687527192
 20
-4.5519989484
 10
-273.7656388718
 20
-4.5616733747
 10
-273.7621378067
 20
-4.5698588374
 10
-273.7583175353
 20
-4.5763963262
 10
-273.7542522699
 20
-4.5811588441
 10
-273.7500209822
 20
-4.5840538748
 10
-273.745705869
 20
-4.5850251795
  0
LWPOLYLINE
  5
2E8
100
AcDbEntity
  8
RACCORDO
100
AcDbPolyline
 62
253
  6
CONTINUOUS
 90
13
 70
0
 10
-270.1148351733
 20
-5.6953154114
 10
-270.1146909845
 20
-5.6813854581
 10
-270.1151492895
 20
-5.6675262098
 10
-270.1162011852
 20
-5.6540068956
 10
-270.1178262375
 20
-5.6410901408
 10
-270.1199928784
 20
-5.6290268657
 10
-270.1226590187
 20
-5.6180514107
 10
-270.1257728661
 20
-5.6083769844
 10
-270.1292739312
 20
-5.6001915217
 10
-270.1330942026
 20
-5.5936540329
 10
-270.137159468
 20
-5.588891515
 10
-270.1413907557
 20
-5.5859964843
 10
-270.145705869
 20
-5.5850251795
  0
LWPOLYLINE
  5
2E9
100
AcDbEntity
  8
RACCORDO
100
AcDbPolyline
 62
253
  6
CONTINUOUS
 90
16
 70
0
 10
-272.2508509862
 20
-2.9490093587
 10
-272.2510641349
 20
-2.9613369798
 10
-272.2511878506
 20
-2.9740599718
 10
-272.2512200685
 20
-2.9869659801
 10
-272.2511602509
 20
-2.9998395951
 10
-272.2510093961
 20
-3.0124659482
 10
-272.2507700222
 20
-3.0246342976
 10
-272.2504461244
 20
-3.0361415459
 10
-272.2500431089
 20
-3.0467956299
 10
-272.249567702
 20
-3.0564187262
 10
-272.2490278388
 20
-3.0648502193
 10
-272.2484325298
 20
-3.0719493822
 10
-272.247791711
 20
-3.0775977255
 10
-272.2471160779
 20
-3.0817009748
 10
-272.2464169074
 20
-3.0841906442
 10
-272.245705869
 20
-3.0850251795
  0
LWPOLYLINE
  5
2EA
100
AcDbEntity
  8
RACCORDO
100
AcDbPolyline
 62
253
  6
CONTINUOUS
 90
16
 70
0
 10
-271.6405607517
 20
-7.2210410004
 10
-271.6403476031
 20
-7.2087133793
 10
-271.6402238873
 20
-7.1959903873
 10
-271.6401916694
 20
-7.183084379
 10
-271.640251487
 20
-7.170210764
 10
-271.6404023418
 20
-7.1575844109
 10
-271.6406417157
 20
-7.1454160615
 10
-271.6409656135
 20
-7.1339088132
 10
-271.6413686291
 20
-7.1232547292
 10
-271.6418440359
 20
-7.1136316329
 10
-271.6423838991
 20
-7.1052001398
 10
-271.6429792081
 20
-7.0981009769
 10
-271.6436200269
 20
-7.0924526335
 10
-271.64429566
 20
-7.0883493843
 10
-271.6449948306
 20
-7.0858597149
 10
-271.645705869
 20
-7.0850251795
  0
LWPOLYLINE
  5
2EB
100
AcDbEntity
  8
RACCORDO
100
AcDbPolyline
 62
253
  6
CONTINUOUS
 90
19
 70
0
 10
-274.0817217001
 20
-4.7798800608
 10
-274.0805819728
 20
-4.7537806027
 10
-274.0772861479
 20
-4.7280954183
 10
-274.0718498949
 20
-4.702894407
 10
-274.0642638162
 20
-4.6781602533
 10
-274.0545688955
 20
-4.6540484865
 10
-274.042866293
 20
-4.6308824179
 10
-274.0291711118
 20
-4.6087033582
 10
-274.0135213917
 20
-4.5875895657
 10
-273.9960709631
 20
-4.5679028941
 10
-273.9767921734
 20
-4.5496460107
 10
-273.955779884
 20
-4.532901571
 10
-273.9333895973
 20
-4.5181160879
 10
-273.9096238914
 20
-4.5052983377
 10
-273.8845522935
 20
-4.4944553173
 10
-273.8586421114
 20
-4.4859758325
 10
-273.8320689845
 20
-4.4799545498
 10
-273.8047090742
 20
-4.4762216604
 10
-273.7765765814
 20
-4.4747349421
  0
LWPOLYLINE
  5
2EC
100
AcDbEntity
  8
RACCORDO
100
AcDbPolyline
 62
253
  6
CONTINUOUS
 90
19
 70
0
 10
-269.8096900378
 20
-5.3901702983
 10
-269.8108297652
 20
-5.4162697563
 10
-269.81412559
 20
-5.4419549408
 10
-269.8195618431
 20
-5.4671559521
 10
-269.8271479218
 20
-5.4918901058
 10
-269.8368428424
 20
-5.5160018726
 10
-269.8485454449
 20
-5.5391679412
 10
-269.8622406262
 20
-5.5613470009
 10
-269.8778903463
 20
-5.5824607934
 10
-269.8953407749
 20
-5.602147465
 10
-269.9146195645
 20
-5.6204043484
 10
-269.9356318539
 20
-5.6371487881
 10
-269.9580221407
 20
-5.6519342712
 10
-269.9817878466
 20
-5.6647520214
 10
-270.0068594444
 20
-5.6755950418
 10
-270.0327696266
 20
-5.6840745265
 10
-270.0593427534
 20
-5.6900958093
 10
-270.0867026637
 20
-5.6938286987
 10
-270.1148351566
 20
-5.695315417
  0
LWPOLYLINE
  5
2ED
100
AcDbEntity
  8
RACCORDO
100
AcDbPolyline
 62
253
  6
CONTINUOUS
 90
19
 70
0
 10
-272.5559961064
 20
-3.2541544671
 10
-272.5543947731
 20
-3.2255135321
 10
-272.5505648153
 20
-3.1978153605
 10
-272.5444698745
 20
-3.1710742892
 10
-272.5359513967
 20
-3.1452264718
 10
-272.525107447
 20
-3.1203867989
 10
-272.5123146215
 20
-3.0968415879
 10
-272.4975846679
 20
-3.0746078966
 10
-272.4809207258
 20
-3.0537395695
 10
-272.4627326027
 20
-3.0345679893
 10
-272.443088318
 20
-3.0171724609
 10
-272.422001152
 20
-3.0015418507
 10
-272.399833385
 20
-2.9878550052
 10
-272.3766530566
 20
-2.9761540354
 10
-272.3525106398
 20
-2.9664512314
 10
-272.3277607178
 20
-2.9588613647
 10
-272.3025696612
 20
-2.9534291143
 10
-272.2769097792
 20
-2.9501400743
 10
-272.2508509877
 20
-2.9490093484
  0
LWPOLYLINE
  5
2EE
100
AcDbEntity
  8
RACCORDO
100
AcDbPolyline
 62
253
  6
CONTINUOUS
 90
19
 70
0
 10
-271.3354156315
 20
-6.9158958919
 10
-271.3370169648
 20
-6.944536827
 10
-271.3408469226
 20
-6.9722349985
 10
-271.3469418635
 20
-6.9989760699
 10
-271.3554603412
 20
-7.0248238873
 10
-271.3663042909
 20
-7.0496635602
 10
-271.3790971164
 20
-7.0732087711
 10
-271.3938270701
 20
-7.0954424625
 10
-271.4104910121
 20
-7.1163107895
 10
-271.4286791352
 20
-7.1354823697
 10
-271.4483234199
 20
-7.1528778982
 10
-271.4694105859
 20
-7.1685085084
 10
-271.491578353
 20
-7.1821953539
 10
-271.5147586813
 20
-7.1938963237
 10
-271.5389010982
 20
-7.2035991277
 10
-271.5636510201
 20
-7.2111889944
 10
-271.5888420767
 20
-7.2166212448
 10
-271.6145019587
 20
-7.2199102848
 10
-271.6405607502
 20
-7.2210410107
  0
LWPOLYLINE
  5
2EF
100
AcDbEntity
  8
RACCORDO
100
AcDbPolyline
 62
253
  6
CONTINUOUS
 90
9
 70
0
 10
-402.5392779106
 20
-2.9490093484
 10
-402.5382111593
 20
-2.9501213895
 10
-402.5378820066
 20
-2.953400026
 10
-402.5382913149
 20
-2.9588313779
 10
-402.5394424685
 20
-2.9664337558
 10
-402.5413279817
 20
-2.9761612288
 10
-402.5439295967
 20
-2.987890918
 10
-402.5472452972
 20
-3.001605984
 10
-402.5512616963
 20
-3.0172676622
  0
LINE
  5
2F0
100
AcDbEntity
  8
RACCORDO
100
AcDbLine
 62
253
  6
CONTINUOUS
 10
-402.8126945719
 20
-4.5763963365
 11
-402.7996915485
 21
-4.581158852
  0
LINE
  5
2F1
100
AcDbEntity
  8
RACCORDO
100
AcDbLine
 62
253
  6
CONTINUOUS
 10
-402.6229160116
 20
-6.9158944574
 11
-402.6234216248
 21
-6.916059526
  0
LINE
  5
2F2
100
AcDbEntity
  8
RACCORDO
100
AcDbLine
 62
253
  6
CONTINUOUS
 10
-402.6229203386
 20
-3.2541544888
 11
-402.6234249787
 21
-3.2539897361
  0
LINE
  5
2F3
100
AcDbEntity
  8
RACCORDO
100
AcDbLine
 62
253
  6
CONTINUOUS
 10
-402.7996915485
 20
-4.581158852
 11
-402.7861574922
 21
-4.5840538792
  0
LWPOLYLINE
  5
2F4
100
AcDbEntity
  8
RACCORDO
100
AcDbPolyline
 62
253
  6
CONTINUOUS
 90
20
 70
0
 10
402.9796855863
 20
-4.4747349421
 10
402.9803281068
 20
-4.4746558828
 10
402.9809429753
 20
-4.4742033987
 10
402.9815305019
 20
-4.4733830071
 10
402.9820982081
 20
-4.4722394033
 10
402.9826391016
 20
-4.4707392498
 10
402.9831319435
 20
-4.4687700134
 10
402.9835796806
 20
-4.4663339162
 10
402.9839802569
 20
-4.4634378423
 10
402.9843053447
 20
-4.4599717395
 10
402.984557171
 20
-4.4559182108
 10
402.9847344157
 20
-4.4512958802
 10
402.9848036196
 20
-4.4460385043
 10
402.9847627417
 20
-4.4400895517
 10
402.984613889
 20
-4.4334914141
 10
402.9843294842
 20
-4.4263106528
 10
402.9838982055
 20
-4.418450562
 10
402.9833292565
 20
-4.4099755355
 10
402.9826252234
 20
-4.401181007
 10
402.9817855703
 20
-4.3921522504
  0
LINE
  5
2F5
100
AcDbEntity
  8
RACCORDO
100
AcDbLine
 62
253
  6
CONTINUOUS
 10
402.9796855725
 20
-4.3730199042
 11
402.9802125449
 21
-4.3729558337
  0
LINE
  5
2F6
100
AcDbEntity
  8
ASSI
100
AcDbLine
 62
7
  6
CONTINUOUS
 10
-385.4667627531
 20
-55.5850251795
 11
-384.9453487352
 21
-55.5850251795
  0
LINE
  5
2F7
100
AcDbEntity
  8
0
100
AcDbLine
 62
7
  6
CONTINUOUS
 10
-283.9807031174
 20
-55.5850251795
 11
-384.9453487352
 21
-55.5850251795
  0
LINE
  5
2F8
100
AcDbEntity
  8
0
100
AcDbLine
 62
7
  6
CONTINUOUS
 10
284.0892913795
 20
-55.5850251795
 11
397.054294131
 21
-55.5850251795
  0
LINE
  5
2F9
100
AcDbEntity
  8
0
100
AcDbLine
 62
7
  6
CONTINUOUS
 10
-385.4667627531
 20
-55.5850251795
 11
-396.945705869
 21
-55.5850251795
  0
LINE
  5
2FA
100
AcDbEntity
  8
0
100
AcDbLine
 62
7
  6
CONTINUOUS
 10
278.554294131
 20
-55.0850251795
 11
-278.445705869
 21
-55.0850251795
  0
LINE
  5
2FB
100
AcDbEntity
  8
0
100
AcDbLine
 62
7
  6
CONTINUOUS
 10
397.054294131
 20
-53.0850251795
 11
385.5753510152
 21
-53.0850251795
  0
LINE
  5
2FC
100
AcDbEntity
  8
0
100
AcDbLine
 62
7
  6
CONTINUOUS
 10
385.0539369973
 20
-53.0850251795
 11
374.3766246014
 21
-53.0850251795
  0
LINE
  5
2FD
100
AcDbEntity
  8
0
100
AcDbLine
 62
7
  6
CONTINUOUS
 10
-374.2680363393
 20
-53.0850251795
 11
-384.9453487352
 21
-53.0850251795
  0
LINE
  5
2FE
100
AcDbEntity
  8
0
100
AcDbLine
 62
7
  6
CONTINUOUS
 10
-385.4667627531
 20
-53.0850251795
 11
-396.945705869
 21
-53.0850251795
  0
LINE
  5
2FF
100
AcDbEntity
  8
0
100
AcDbLine
 62
7
  6
CONTINUOUS
 10
-399.945705869
 20
-52.5850251795
 11
-374.2680363393
 21
-52.5850251795
  0
LINE
  5
300
100
AcDbEntity
  8
0
100
AcDbLine
 62
253
  6
CONTINUOUS
 10
284.0892913795
 20
-52.5850251795
 11
374.3766246014
 21
-52.5850251795
  0
LINE
  5
301
100
AcDbEntity
  8
0
100
AcDbLine
 62
253
  6
CONTINUOUS
 10
-283.9807031174
 20
-52.5850251795
 11
-374.2680363393
 21
-52.5850251795
  0
LINE
  5
302
100
AcDbEntity
  8
0
100
AcDbLine
 62
7
  6
CONTINUOUS
 10
374.3766246014
 20
-52.5850251795
 11
400.054294131
 21
-52.5850251795
  0
LINE
  5
303
100
AcDbEntity
  8
0
100
AcDbLine
 62
253
  6
CONTINUOUS
 10
278.554294131
 20
-51.0850251795
 11
-278.445705869
 21
-51.0850251795
  0
LINE
  5
304
100
AcDbEntity
  8
RACCORDO
100
AcDbLine
 62
253
  6
CONTINUOUS
 10
-402.8710972267
 20
-4.3730199143
 11
-402.871623595
 21
-4.372955973
  0
LWPOLYLINE
  5
305
100
AcDbEntity
  8
RACCORDO
100
AcDbPolyline
 62
253
  6
CONTINUOUS
 90
10
 70
0
 10
-402.622920405
 20
-4.4747349421
 10
-402.6137690799
 20
-4.4762539956
 10
-402.6049786241
 20
-4.4800204798
 10
-402.5965675531
 20
-4.4860753173
 10
-402.5885217777
 20
-4.4945859422
 10
-402.5808886043
 20
-4.5054566561
 10
-402.5737799811
 20
-4.5183007848
 10
-402.5672199378
 20
-4.5331156079
 10
-402.5612168721
 20
-4.5498882974
 10
-402.5558617541
 20
-4.5681632201
  0
LINE
  5
306
100
AcDbEntity
  8
RACCORDO
100
AcDbLine
 62
253
  6
CONTINUOUS
 10
402.647858232
 20
-4.7798804993
 11
402.6545621443
 21
-4.7795103479
  0
LWPOLYLINE
  5
307
100
AcDbEntity
  8
RACCORDO
100
AcDbPolyline
 62
7
  6
CONTINUOUS
 90
15
 70
0
 10
402.8809432057
 20
-4.5850249644
 10
402.8920262092
 20
-4.5844179697
 10
402.9045885576
 20
-4.5822314001
 10
402.9163188627
 20
-4.5786584621
 10
402.9270502247
 20
-4.573945752
 10
402.9367605729
 20
-4.5682997771
 10
402.9455403202
 20
-4.5618276555
 10
402.9533734023
 20
-4.5546702098
 10
402.960228923
 20
-4.5469926167
 10
402.9661749104
 20
-4.5388507036
 10
402.9713222561
 20
-4.5301618047
 10
402.9755708794
 20
-4.5211726304
 10
402.9788179956
 20
-4.5124061266
 10
402.98119986
 20
-4.5040587917
 10
402.9829421428
 20
-4.4959422609
  0
LWPOLYLINE
  5
308
100
AcDbEntity
  8
RACCORDO
100
AcDbPolyline
 62
7
  6
CONTINUOUS
 90
11
 70
0
 10
402.880938794
 20
-4.5850250954
 10
402.8905082702
 20
-4.584573172
 10
402.9032405622
 20
-4.582544523
 10
402.9151464831
 20
-4.5790860757
 10
402.9260509151
 20
-4.5744481011
 10
402.9359264821
 20
-4.5688425019
 10
402.9448610723
 20
-4.5623818825
 10
402.9528348696
 20
-4.5552120917
 10
402.9598150978
 20
-4.547502167
 10
402.9658708646
 20
-4.5393095577
 10
402.9711139322
 20
-4.5305523608
  0
LINE
  5
309
100
AcDbEntity
  8
0
100
AcDbLine
 62
7
  6
CONTINUOUS
 10
286.0892913795
 20
-47.5850251795
 11
284.0892913795
 21
-47.5850251795
  0
LINE
  5
30A
100
AcDbEntity
  8
0
100
AcDbLine
 62
7
  6
CONTINUOUS
 10
-283.9807031174
 20
-47.5850251795
 11
-285.9807031174
 21
-47.5850251795
  0
LINE
  5
30B
100
AcDbEntity
  8
0
100
AcDbLine
 62
7
  6
CONTINUOUS
 10
284.0892913795
 20
-45.5850251795
 11
286.0892913795
 21
-45.5850251795
  0
LINE
  5
30C
100
AcDbEntity
  8
0
100
AcDbLine
 62
7
  6
CONTINUOUS
 10
-283.9807031174
 20
-45.5850251795
 11
-285.9807031174
 21
-45.5850251795
  0
LINE
  5
30D
100
AcDbEntity
  8
0
100
AcDbLine
 62
7
  6
CONTINUOUS
 10
278.554294131
 20
-45.0850251795
 11
286.0892913795
 21
-45.0850251795
  0
LINE
  5
30E
100
AcDbEntity
  8
0
100
AcDbLine
 62
7
  6
CONTINUOUS
 10
-278.445705869
 20
-45.0850251795
 11
-285.9807031174
 21
-45.0850251795
  0
LINE
  5
30F
100
AcDbEntity
  8
RACCORDO
100
AcDbLine
 62
253
  6
CONTINUOUS
 10
-402.5392779056
 20
-4.7798800611
 11
-402.5459785706
 21
-4.7795099398
  0
LINE
  5
310
100
AcDbEntity
  8
RACCORDO
100
AcDbLine
 62
253
  6
CONTINUOUS
 10
-402.7861574922
 20
-4.5840538792
 11
-402.7723553152
 21
-4.5850251795
  0
LWPOLYLINE
  5
311
100
AcDbEntity
  8
RACCORDO
100
AcDbPolyline
 62
253
  6
CONTINUOUS
 90
11
 70
0
 10
402.9796855863
 20
-5.695315417
 10
402.9715992072
 20
-5.6955102922
 10
402.9624949759
 20
-5.695485455
 10
402.9522818061
 20
-5.6953154171
 10
402.9407474349
 20
-5.6954011355
 10
402.9278927043
 20
-5.6955813795
 10
402.9139943854
 20
-5.6953154179
 10
402.8991338761
 20
-5.6951008654
 10
402.8831362702
 20
-5.6953291459
 10
402.8659490711
 20
-5.6953154169
 10
402.8476131735
 20
-5.6951212533
  0
LWPOLYLINE
  5
312
100
AcDbEntity
  8
RACCORDO
100
AcDbPolyline
 62
253
  6
CONTINUOUS
 90
16
 70
0
 10
274.1903068911
 20
-5.3901698598
 10
274.1779792143
 20
-5.3903830146
 10
274.1652559661
 20
-5.3905067415
 10
274.1523495374
 20
-5.3905389749
 10
274.1394753769
 20
-5.3904791763
 10
274.1268483945
 20
-5.3903283435
 10
274.1146793741
 20
-5.3900889941
 10
274.1031714547
 20
-5.389765123
 10
274.0925167393
 20
-5.3893621363
 10
274.0828930887
 20
-5.3888867606
 10
274.0744611516
 20
-5.3883469309
 10
274.0673616834
 20
-5.3877516582
 10
274.0617131966
 20
-5.3871108789
 10
274.057609982
 20
-5.3864352891
 10
274.0551205351
 20
-5.3857361661
 10
274.0542864126
 20
-5.3850251797
  0
LWPOLYLINE
  5
313
100
AcDbEntity
  8
RACCORDO
100
AcDbPolyline
 62
253
  6
CONTINUOUS
 90
16
 70
0
 10
269.918281371
 20
-4.7798804993
 10
269.9306090478
 20
-4.7796673445
 10
269.943332296
 20
-4.7795436176
 10
269.9562387247
 20
-4.7795113842
 10
269.9691128852
 20
-4.7795711828
 10
269.9817398675
 20
-4.7797220156
 10
269.993908888
 20
-4.779961365
 10
270.0054168074
 20
-4.7802852361
 10
270.0160715227
 20
-4.7806882228
 10
270.0256951734
 20
-4.7811635985
 10
270.0341271105
 20
-4.7817034281
 10
270.0412265786
 20
-4.7822987009
 10
270.0468750655
 20
-4.7829394802
 10
270.0509782801
 20
-4.78361507
 10
270.0534677269
 20
-4.784314193
 10
270.0543018494
 20
-4.7850251794
  0
LWPOLYLINE
  5
314
100
AcDbEntity
  8
RACCORDO
100
AcDbPolyline
 62
253
  6
CONTINUOUS
 90
16
 70
0
 10
-269.8096931089
 20
-5.3901698598
 10
-269.8220207857
 20
-5.3903830146
 10
-269.8347440339
 20
-5.3905067415
 10
-269.8476504626
 20
-5.3905389749
 10
-269.8605246231
 20
-5.3904791763
 10
-269.8731516055
 20
-5.3903283435
 10
-269.8853206259
 20
-5.3900889941
 10
-269.8968285453
 20
-5.389765123
 10
-269.9074832607
 20
-5.3893621363
 10
-269.9171069113
 20
-5.3888867606
 10
-269.9255388484
 20
-5.3883469309
 10
-269.9326383166
 20
-5.3877516582
 10
-269.9382868034
 20
-5.3871108789
 10
-269.942390018
 20
-5.3864352891
 10
-269.9448794649
 20
-5.3857361661
 10
-269.9457135874
 20
-5.3850251797
  0
LWPOLYLINE
  5
315
100
AcDbEntity
  8
RACCORDO
100
AcDbPolyline
 62
253
  6
CONTINUOUS
 90
16
 70
0
 10
-274.081718629
 20
-4.7798804993
 10
-274.0693909522
 20
-4.7796673445
 10
-274.056667704
 20
-4.7795436176
 10
-274.0437612753
 20
-4.7795113842
 10
-274.0308871148
 20
-4.7795711828
 10
-274.0182601325
 20
-4.7797220156
 10
-274.006091112
 20
-4.779961365
 10
-273.9945831926
 20
-4.7802852361
 10
-273.9839284773
 20
-4.7806882228
 10
-273.9743048266
 20
-4.7811635985
 10
-273.9658728895
 20
-4.7817034281
 10
-273.9587734214
 20
-4.7822987009
 10
-273.9531249345
 20
-4.7829394802
 10
-273.9490217199
 20
-4.78361507
 10
-273.9465322731
 20
-4.784314193
 10
-273.9456981506
 20
-4.7850251794
  0
LWPOLYLINE
  5
316
100
AcDbEntity
  8
RACCORDO
100
AcDbPolyline
 62
253
  6
CONTINUOUS
 90
22
 70
0
 10
272.7662994081
 20
-5.695315417
 10
272.760926419
 20
-5.6953944763
 10
272.7554174547
 20
-5.6958469604
 10
272.7497708689
 20
-5.696667352
 10
272.743957859
 20
-5.6978109557
 10
272.7380025787
 20
-5.6993111093
 10
272.7319802958
 20
-5.7012803457
 10
272.7258615218
 20
-5.7037164429
 10
272.7196630995
 20
-5.7066125168
 10
272.7135243247
 20
-5.7100786196
 10
272.7074011761
 20
-5.7141321483
 10
272.7013133424
 20
-5.7187544788
 10
272.695489477
 20
-5.7240118548
 10
272.6898825751
 20
-5.7299608074
 10
272.6845030544
 20
-5.736558945
 10
272.679664797
 20
-5.7437397062
 10
272.6753631061
 20
-5.751599797
 10
272.671565994
 20
-5.7600748236
 10
272.6685613529
 20
-5.7688693521
 10
272.6664482736
 20
-5.7778981086
 10
272.6651232172
 20
-5.7872806657
 10
272.6645843685
 20
-5.7970304566
  0
LWPOLYLINE
  5
317
100
AcDbEntity
  8
RACCORDO
100
AcDbPolyline
 62
253
  6
CONTINUOUS
 90
22
 70
0
 10
271.342288854
 20
-4.4747349421
 10
271.3476618431
 20
-4.4746558828
 10
271.3531708073
 20
-4.4742033987
 10
271.3588173932
 20
-4.4733830071
 10
271.3646304031
 20
-4.4722394033
 10
271.3705856833
 20
-4.4707392498
 10
271.3766079663
 20
-4.4687700134
 10
271.3827267403
 20
-4.4663339162
 10
271.3889251625
 20
-4.4634378423
 10
271.3950639373
 20
-4.4599717395
 10
271.401187086
 20
-4.4559182108
 10
271.4072749197
 20
-4.4512958802
 10
271.413098785
 20
-4.4460385043
 10
271.418705687
 20
-4.4400895517
 10
271.4240852077
 20
-4.4334914141
 10
271.4289234651
 20
-4.4263106528
 10
271.433225156
 20
-4.418450562
 10
271.437022268
 20
-4.4099755355
 10
271.4400269092
 20
-4.401181007
 10
271.4421399884
 20
-4.3921522504
 10
271.4434650449
 20
-4.3827696933
 10
271.4440038936
 20
-4.3730199025
  0
LWPOLYLINE
  5
318
100
AcDbEntity
  8
RACCORDO
100
AcDbPolyline
 62
253
  6
CONTINUOUS
 90
22
 70
0
 10
-271.2337005919
 20
-5.695315417
 10
-271.239073581
 20
-5.6953944763
 10
-271.2445825453
 20
-5.6958469604
 10
-271.2502291311
 20
-5.696667352
 10
-271.256042141
 20
-5.6978109557
 10
-271.2619974213
 20
-5.6993111093
 10
-271.2680197042
 20
-5.7012803457
 10
-271.2741384782
 20
-5.7037164429
 10
-271.2803369005
 20
-5.7066125168
 10
-271.2864756753
 20
-5.7100786196
 10
-271.2925988239
 20
-5.7141321483
 10
-271.2986866576
 20
-5.7187544788
 10
-271.304510523
 20
-5.7240118548
 10
-271.3101174249
 20
-5.7299608074
 10
-271.3154969456
 20
-5.736558945
 10
-271.320335203
 20
-5.7437397062
 10
-271.3246368939
 20
-5.751599797
 10
-271.328434006
 20
-5.7600748236
 10
-271.3314386471
 20
-5.7688693521
 10
-271.3335517264
 20
-5.7778981086
 10
-271.3348767828
 20
-5.7872806657
 10
-271.3354156315
 20
-5.7970304566
  0
LWPOLYLINE
  5
319
100
AcDbEntity
  8
RACCORDO
100
AcDbPolyline
 62
253
  6
CONTINUOUS
 90
22
 70
0
 10
-272.657711146
 20
-4.4747349421
 10
-272.6523381569
 20
-4.4746558828
 10
-272.6468291927
 20
-4.4742033987
 10
-272.6411826068
 20
-4.4733830071
 10
-272.6353695969
 20
-4.4722394033
 10
-272.6294143167
 20
-4.4707392498
 10
-272.6233920337
 20
-4.4687700134
 10
-272.6172732597
 20
-4.4663339162
 10
-272.6110748375
 20
-4.4634378423
 10
-272.6049360627
 20
-4.4599717395
 10
-272.598812914
 20
-4.4559182108
 10
-272.5927250803
 20
-4.4512958802
 10
-272.586901215
 20
-4.4460385043
 10
-272.581294313
 20
-4.4400895517
 10
-272.5759147923
 20
-4.4334914141
 10
-272.5710765349
 20
-4.4263106528
 10
-272.566774844
 20
-4.418450562
 10
-272.562977732
 20
-4.4099755355
 10
-272.5599730908
 20
-4.401181007
 10
-272.5578600116
 20
-4.3921522504
 10
-272.5565349551
 20
-4.3827696933
 10
-272.5559961064
 20
-4.3730199025
  0
LWPOLYLINE
  5
31A
100
AcDbEntity
  8
RACCORDO
100
AcDbPolyline
 62
253
  6
CONTINUOUS
 90
13
 70
0
 10
272.6645838899
 20
-6.9158944574
 10
272.6506535781
 20
-6.9160390669
 10
272.6367937979
 20
-6.9155811286
 10
272.6232738227
 20
-6.9145295396
 10
272.6103563238
 20
-6.9129047307
 10
272.5982922676
 20
-6.9107382693
 10
272.5873160391
 20
-6.9080722464
 10
272.5776408888
 20
-6.9049584586
 10
272.5694547895
 20
-6.9014574019
 10
272.5629167838
 20
-6.8976370963
 10
272.5581538947
 20
-6.8935717643
 10
272.5552586576
 20
-6.889340389
 10
272.5542873221
 20
-6.8850251791
  0
LWPOLYLINE
  5
31B
100
AcDbEntity
  8
RACCORDO
100
AcDbPolyline
 62
253
  6
CONTINUOUS
 90
13
 70
0
 10
271.4440043722
 20
-3.2541559017
 10
271.457934684
 20
-3.2540112922
 10
271.4717944642
 20
-3.2544692305
 10
271.4853144394
 20
-3.2555208195
 10
271.4982319382
 20
-3.2571456284
 10
271.5102959945
 20
-3.2593120898
 10
271.521272223
 20
-3.2619781127
 10
271.5309473733
 20
-3.2650919005
 10
271.5391334726
 20
-3.2685929572
 10
271.5456714783
 20
-3.2724132628
 10
271.5504343673
 20
-3.2764785947
 10
271.5533296045
 20
-3.2807099701
 10
271.5543009399
 20
-3.2850251799
  0
LWPOLYLINE
  5
31C
100
AcDbEntity
  8
RACCORDO
100
AcDbPolyline
 62
253
  6
CONTINUOUS
 90
13
 70
0
 10
-271.3354161101
 20
-6.9158944574
 10
-271.3493464219
 20
-6.9160390669
 10
-271.3632062021
 20
-6.9155811286
 10
-271.3767261773
 20
-6.9145295396
 10
-271.3896436762
 20
-6.9129047307
 10
-271.4017077324
 20
-6.9107382693
 10
-271.4126839609
 20
-6.9080722464
 10
-271.4223591112
 20
-6.9049584586
 10
-271.4305452105
 20
-6.9014574019
 10
-271.4370832162
 20
-6.8976370963
 10
-271.4418461053
 20
-6.8935717643
 10
-271.4447413424
 20
-6.889340389
 10
-271.4457126779
 20
-6.8850251791
  0
LWPOLYLINE
  5
31D
100
AcDbEntity
  8
RACCORDO
100
AcDbPolyline
 62
253
  6
CONTINUOUS
 90
13
 70
0
 10
-272.5559956278
 20
-3.2541559017
 10
-272.542065316
 20
-3.2540112922
 10
-272.5282055358
 20
-3.2544692305
 10
-272.5146855606
 20
-3.2555208195
 10
-272.5017680618
 20
-3.2571456284
 10
-272.4897040055
 20
-3.2593120898
 10
-272.478727777
 20
-3.2619781127
 10
-272.4690526267
 20
-3.2650919005
 10
-272.4608665274
 20
-3.2685929572
 10
-272.4543285217
 20
-3.2724132628
 10
-272.4495656327
 20
-3.2764785947
 10
-272.4466703955
 20
-3.2807099701
 10
-272.4456990601
 20
-3.2850251799
  0
LWPOLYLINE
  5
31E
100
AcDbEntity
  8
RACCORDO
100
AcDbPolyline
 62
253
  6
CONTINUOUS
 90
13
 70
0
 10
272.6645843671
 20
-5.7970304549
 10
272.6506544101
 20
-5.7970865284
 10
272.6367951582
 20
-5.7969082985
 10
272.6232758406
 20
-5.7964992277
 10
272.6103590829
 20
-5.7958672625
 10
272.5982958054
 20
-5.7950246794
 10
272.5873203489
 20
-5.7939878464
 10
272.577645922
 20
-5.792776905
 10
272.5694604598
 20
-5.7914153788
 10
272.5629229726
 20
-5.7899297171
 10
272.5581604575
 20
-5.7883487801
 10
272.5552654307
 20
-5.7867032791
 10
272.554294131
 20
-5.7850251795
  0
LWPOLYLINE
  5
31F
100
AcDbEntity
  8
RACCORDO
100
AcDbPolyline
 62
253
  6
CONTINUOUS
 90
13
 70
0
 10
271.444003895
 20
-4.3730199042
 10
271.4579338519
 20
-4.3729638307
 10
271.4717931038
 20
-4.3731420605
 10
271.4853124215
 20
-4.3735511314
 10
271.4982291792
 20
-4.3741830966
 10
271.5102924566
 20
-4.3750256797
 10
271.5212679132
 20
-4.3760625127
 10
271.53094234
 20
-4.3772734541
 10
271.5391278023
 20
-4.3786349802
 10
271.5456652894
 20
-4.380120642
 10
271.5504278046
 20
-4.381701579
 10
271.5533228314
 20
-4.38334708
 10
271.554294131
 20
-4.3850251795
  0
LWPOLYLINE
  5
320
100
AcDbEntity
  8
RACCORDO
100
AcDbPolyline
 62
253
  6
CONTINUOUS
 90
13
 70
0
 10
-271.3354156329
 20
-5.7970304549
 10
-271.3493455899
 20
-5.7970865284
 10
-271.3632048418
 20
-5.7969082985
 10
-271.3767241594
 20
-5.7964992277
 10
-271.3896409171
 20
-5.7958672625
 10
-271.4017041946
 20
-5.7950246794
 10
-271.4126796511
 20
-5.7939878464
 10
-271.422354078
 20
-5.792776905
 10
-271.4305395402
 20
-5.7914153788
 10
-271.4370770274
 20
-5.7899297171
 10
-271.4418395425
 20
-5.7883487801
 10
-271.4447345693
 20
-5.7867032791
 10
-271.445705869
 20
-5.7850251795
  0
LWPOLYLINE
  5
321
100
AcDbEntity
  8
RACCORDO
100
AcDbPolyline
 62
253
  6
CONTINUOUS
 90
13
 70
0
 10
-272.555996105
 20
-4.3730199042
 10
-272.5420661481
 20
-4.3729638307
 10
-272.5282068962
 20
-4.3731420605
 10
-272.5146875785
 20
-4.3735511314
 10
-272.5017708208
 20
-4.3741830966
 10
-272.4897075434
 20
-4.3750256797
 10
-272.4787320868
 20
-4.3760625127
 10
-272.46905766
 20
-4.3772734541
 10
-272.4608721977
 20
-4.3786349802
 10
-272.4543347106
 20
-4.380120642
 10
-272.4495721954
 20
-4.381701579
 10
-272.4466771686
 20
-4.38334708
 10
-272.445705869
 20
-4.3850251795
  0
LWPOLYLINE
  5
322
100
AcDbEntity
  8
RACCORDO
100
AcDbPolyline
 62
253
  6
CONTINUOUS
 90
5
 70
0
 10
402.8476131735
 20
-5.6951212533
 10
402.8066962689
 20
-5.6953154156
 10
402.7835388853
 20
-5.6951591541
 10
402.7585110998
 20
-5.6951133634
 10
402.7315086671
 20
-5.695315417
  0
LINE
  5
323
100
AcDbEntity
  8
RACCORDO
100
AcDbLine
 62
253
  6
CONTINUOUS
 10
-402.5392779106
 20
-7.2210410107
 11
-402.5476890825
 21
-7.2210668595
  0
LINE
  5
324
100
AcDbEntity
  8
RACCORDO
100
AcDbLine
 62
253
  6
CONTINUOUS
 10
402.6478661727
 20
-2.9490093484
 11
402.6562773446
 21
-2.9489834996
  0
LWPOLYLINE
  5
325
100
AcDbEntity
  8
RACCORDO
100
AcDbPolyline
 62
253
  6
CONTINUOUS
 90
5
 70
0
 10
-402.7390249114
 20
-4.4749291057
 10
-402.6981080068
 20
-4.4747349434
 10
-402.6749506232
 20
-4.4748912049
 10
-402.6499228377
 20
-4.4749369956
 10
-402.622920405
 20
-4.4747349421
  0
LWPOLYLINE
  5
326
100
AcDbEntity
  8
RACCORDO
100
AcDbPolyline
 62
253
  6
CONTINUOUS
 90
3
 70
0
 10
272.9683874899
 20
-5.6953154169
 10
272.8313127105
 20
-5.6955588485
 10
272.7662994081
 20
-5.695315417
  0
LWPOLYLINE
  5
327
100
AcDbEntity
  8
RACCORDO
100
AcDbPolyline
 62
253
  6
CONTINUOUS
 90
3
 70
0
 10
-271.0316125101
 20
-5.6953154169
 10
-271.1686872895
 20
-5.6955588485
 10
-271.2337005919
 20
-5.695315417
  0
LWPOLYLINE
  5
328
100
AcDbEntity
  8
RACCORDO
100
AcDbPolyline
 62
253
  6
CONTINUOUS
 90
3
 70
0
 10
271.1402007722
 20
-4.4747349422
 10
271.2772755516
 20
-4.4744915105
 10
271.342288854
 20
-4.4747349421
  0
LWPOLYLINE
  5
329
100
AcDbEntity
  8
RACCORDO
100
AcDbPolyline
 62
253
  6
CONTINUOUS
 90
3
 70
0
 10
-272.8597992278
 20
-4.4747349422
 10
-272.7227244484
 20
-4.4744915105
 10
-272.657711146
 20
-4.4747349421
  0
LINE
  5
32A
100
AcDbEntity
  8
RACCORDO
100
AcDbLine
 62
253
  6
CONTINUOUS
 10
272.3594392498
 20
-7.2210410107
 11
271.7491490123
 21
-7.2210410107
  0
LINE
  5
32B
100
AcDbEntity
  8
RACCORDO
100
AcDbLine
 62
253
  6
CONTINUOUS
 10
-271.6405607502
 20
-7.2210410107
 11
-272.2508509877
 21
-7.2210410107
  0
LINE
  5
32C
100
AcDbEntity
  8
RACCORDO
100
AcDbLine
 62
7
  6
CONTINUOUS
 10
272.354294131
 20
-7.0850251795
 11
271.754294131
 21
-7.0850251795
  0
LINE
  5
32D
100
AcDbEntity
  8
RACCORDO
100
AcDbLine
 62
7
  6
CONTINUOUS
 10
-271.645705869
 20
-7.0850251795
 11
-272.245705869
 21
-7.0850251795
  0
LINE
  5
32E
100
AcDbEntity
  8
RACCORDO
100
AcDbLine
 62
7
  6
CONTINUOUS
 10
402.8809435773
 20
-5.5850251795
 11
402.6730376136
 21
-5.5850251795
  0
LINE
  5
32F
100
AcDbEntity
  8
RACCORDO
100
AcDbLine
 62
7
  6
CONTINUOUS
 10
273.854294131
 20
-5.5850251795
 11
272.754294131
 21
-5.5850251795
  0
LINE
  5
330
100
AcDbEntity
  8
RACCORDO
100
AcDbLine
 62
7
  6
CONTINUOUS
 10
271.354294131
 20
-5.5850251795
 11
270.254294131
 21
-5.5850251795
  0
LINE
  5
331
100
AcDbEntity
  8
RACCORDO
100
AcDbLine
 62
7
  6
CONTINUOUS
 10
-270.145705869
 20
-5.5850251795
 11
-271.245705869
 21
-5.5850251795
  0
LINE
  5
332
100
AcDbEntity
  8
RACCORDO
100
AcDbLine
 62
7
  6
CONTINUOUS
 10
-272.645705869
 20
-5.5850251795
 11
-273.745705869
 21
-5.5850251795
  0
LINE
  5
333
100
AcDbEntity
  8
RACCORDO
100
AcDbLine
 62
7
  6
CONTINUOUS
 10
-402.5644398711
 20
-5.5850251795
 11
-402.7723553152
 21
-5.5850251795
  0
LINE
  5
334
100
AcDbEntity
  8
RACCORDO
100
AcDbLine
 62
7
  6
CONTINUOUS
 10
-402.7723553152
 20
-4.5850251795
 11
-402.5644493515
 21
-4.5850251795
  0
LINE
  5
335
100
AcDbEntity
  8
RACCORDO
100
AcDbLine
 62
7
  6
CONTINUOUS
 10
-273.745705869
 20
-4.5850251795
 11
-272.645705869
 21
-4.5850251795
  0
LINE
  5
336
100
AcDbEntity
  8
RACCORDO
100
AcDbLine
 62
7
  6
CONTINUOUS
 10
-271.245705869
 20
-4.5850251795
 11
-270.145705869
 21
-4.5850251795
  0
LINE
  5
337
100
AcDbEntity
  8
RACCORDO
100
AcDbLine
 62
7
  6
CONTINUOUS
 10
270.254294131
 20
-4.5850251795
 11
271.354294131
 21
-4.5850251795
  0
LINE
  5
338
100
AcDbEntity
  8
RACCORDO
100
AcDbLine
 62
7
  6
CONTINUOUS
 10
272.754294131
 20
-4.5850251795
 11
273.854294131
 21
-4.5850251795
  0
LINE
  5
339
100
AcDbEntity
  8
RACCORDO
100
AcDbLine
 62
7
  6
CONTINUOUS
 10
402.6730281332
 20
-4.5850251795
 11
402.8809435773
 21
-4.5850251795
  0
LINE
  5
33A
100
AcDbEntity
  8
RACCORDO
100
AcDbLine
 62
7
  6
CONTINUOUS
 10
-272.245705869
 20
-3.0850251795
 11
-271.645705869
 21
-3.0850251795
  0
LINE
  5
33B
100
AcDbEntity
  8
RACCORDO
100
AcDbLine
 62
7
  6
CONTINUOUS
 10
271.754294131
 20
-3.0850251795
 11
272.354294131
 21
-3.0850251795
  0
LINE
  5
33C
100
AcDbEntity
  8
RACCORDO
100
AcDbLine
 62
253
  6
CONTINUOUS
 10
-272.2508509877
 20
-2.9490093484
 11
-271.6405607502
 21
-2.9490093484
  0
LINE
  5
33D
100
AcDbEntity
  8
RACCORDO
100
AcDbLine
 62
253
  6
CONTINUOUS
 10
271.7491490123
 20
-2.9490093484
 11
272.3594392498
 21
-2.9490093484
  0
LWPOLYLINE
  5
33E
100
AcDbEntity
  8
RACCORDO
100
AcDbPolyline
 62
253
  6
CONTINUOUS
 90
3
 70
0
 10
-273.1474430634
 20
-5.6951008654
 10
-273.2970511752
 20
-5.6953154169
 10
-273.3728077888
 20
-5.6951212533
  0
LWPOLYLINE
  5
33F
100
AcDbEntity
  8
RACCORDO
100
AcDbPolyline
 62
253
  6
CONTINUOUS
 90
4
 70
0
 10
-270.5110689411
 20
-5.6950952059
 10
-270.6605159142
 20
-5.6953074083
 10
-270.7346364242
 20
-5.695039301
 10
-270.8839739616
 20
-5.6956443273
  0
LWPOLYLINE
  5
340
100
AcDbEntity
  8
RACCORDO
100
AcDbPolyline
 62
253
  6
CONTINUOUS
 90
4
 70
0
 10
273.4889310589
 20
-5.6950952059
 10
273.3394840858
 20
-5.6953074083
 10
273.2653635758
 20
-5.695039301
 10
273.1160260384
 20
-5.6956443273
  0
LWPOLYLINE
  5
341
100
AcDbEntity
  8
RACCORDO
100
AcDbPolyline
 62
253
  6
CONTINUOUS
 90
3
 70
0
 10
270.8525569366
 20
-5.6951008654
 10
270.7029488248
 20
-5.6953154169
 10
270.6271922112
 20
-5.6951212533
  0
LWPOLYLINE
  5
342
100
AcDbEntity
  8
RACCORDO
100
AcDbPolyline
 62
253
  6
CONTINUOUS
 90
3
 70
0
 10
-270.7439686746
 20
-4.4749494937
 10
-270.5943605627
 20
-4.4747349422
 10
-270.5186039491
 20
-4.4749291057
  0
LWPOLYLINE
  5
343
100
AcDbEntity
  8
RACCORDO
100
AcDbPolyline
 62
253
  6
CONTINUOUS
 90
4
 70
0
 10
-273.3803427968
 20
-4.4749551532
 10
-273.2308958237
 20
-4.4747429507
 10
-273.1567753137
 20
-4.4750110581
 10
-273.0074377764
 20
-4.4744060318
  0
LWPOLYLINE
  5
344
100
AcDbEntity
  8
RACCORDO
100
AcDbPolyline
 62
253
  6
CONTINUOUS
 90
4
 70
0
 10
270.6196572032
 20
-4.4749551532
 10
270.7691041763
 20
-4.4747429507
 10
270.8432246863
 20
-4.4750110581
 10
270.9925622236
 20
-4.4744060318
  0
LWPOLYLINE
  5
345
100
AcDbEntity
  8
RACCORDO
100
AcDbPolyline
 62
253
  6
CONTINUOUS
 90
3
 70
0
 10
273.2560313254
 20
-4.4749494937
 10
273.4056394373
 20
-4.4747349422
 10
273.4813960509
 20
-4.4749291057
  0
LWPOLYLINE
  5
346
100
AcDbEntity
  8
RACCORDO
100
AcDbPolyline
 62
253
  6
CONTINUOUS
 90
4
 70
0
 10
-272.657711146
 20
-5.695315417
 10
-272.7870086545
 20
-5.695485455
 10
-272.8551905734
 20
-5.6953154171
 10
-272.9995365909
 20
-5.6955813795
  0
LWPOLYLINE
  5
347
100
AcDbEntity
  8
RACCORDO
100
AcDbPolyline
 62
253
  6
CONTINUOUS
 90
4
 70
0
 10
271.342288854
 20
-5.695315417
 10
271.2129913455
 20
-5.695485455
 10
271.1448094266
 20
-5.6953154171
 10
271.0004634091
 20
-5.6955813795
  0
LWPOLYLINE
  5
348
100
AcDbEntity
  8
RACCORDO
100
AcDbPolyline
 62
253
  6
CONTINUOUS
 90
4
 70
0
 10
-271.2337005919
 20
-4.4747349421
 10
-271.1044030834
 20
-4.4745649041
 10
-271.0362211645
 20
-4.474734942
 10
-270.891875147
 20
-4.4744689796
  0
LWPOLYLINE
  5
349
100
AcDbEntity
  8
RACCORDO
100
AcDbPolyline
 62
253
  6
CONTINUOUS
 90
4
 70
0
 10
272.7662994081
 20
-4.4747349421
 10
272.8955969166
 20
-4.4745649041
 10
272.9637788355
 20
-4.474734942
 10
273.108124853
 20
-4.4744689796
  0
LINE
  5
34A
100
AcDbEntity
  8
RACCORDO
100
AcDbLine
 62
253
  6
CONTINUOUS
 10
-273.3728077888
 20
-5.6951212533
 11
-273.7765765814
 21
-5.695315417
  0
LINE
  5
34B
100
AcDbEntity
  8
RACCORDO
100
AcDbLine
 62
253
  6
CONTINUOUS
 10
270.6271922112
 20
-5.6951212533
 11
270.2234234186
 21
-5.695315417
  0
LINE
  5
34C
100
AcDbEntity
  8
RACCORDO
100
AcDbLine
 62
253
  6
CONTINUOUS
 10
-270.5186039491
 20
-4.4749291057
 11
-270.1148351566
 21
-4.4747349421
  0
LINE
  5
34D
100
AcDbEntity
  8
RACCORDO
100
AcDbLine
 62
253
  6
CONTINUOUS
 10
273.4813960509
 20
-4.4749291057
 11
273.8851648434
 21
-4.4747349421
  0
LINE
  5
34E
100
AcDbEntity
  8
RACCORDO
100
AcDbLine
 62
253
  6
CONTINUOUS
 10
-270.1148351566
 20
-5.695315417
 11
-270.5110689411
 21
-5.6950952059
  0
LINE
  5
34F
100
AcDbEntity
  8
RACCORDO
100
AcDbLine
 62
253
  6
CONTINUOUS
 10
-273.7765765814
 20
-4.4747349421
 11
-273.3803427968
 21
-4.4749551532
  0
LINE
  5
350
100
AcDbEntity
  8
RACCORDO
100
AcDbLine
 62
253
  6
CONTINUOUS
 10
273.8851648434
 20
-5.695315417
 11
273.4889310589
 21
-5.6950952059
  0
LINE
  5
351
100
AcDbEntity
  8
RACCORDO
100
AcDbLine
 62
253
  6
CONTINUOUS
 10
270.2234234186
 20
-4.4747349421
 11
270.6196572032
 21
-4.4749551532
  0
LINE
  5
352
100
AcDbEntity
  8
RACCORDO
100
AcDbLine
 62
253
  6
CONTINUOUS
 10
-270.8839739616
 20
-5.6956443273
 11
-271.0316125101
 21
-5.6953154169
  0
LINE
  5
353
100
AcDbEntity
  8
RACCORDO
100
AcDbLine
 62
253
  6
CONTINUOUS
 10
-273.0074377764
 20
-4.4744060318
 11
-272.8597992278
 21
-4.4747349422
  0
LINE
  5
354
100
AcDbEntity
  8
RACCORDO
100
AcDbLine
 62
253
  6
CONTINUOUS
 10
273.1160260384
 20
-5.6956443273
 11
272.9683874899
 21
-5.6953154169
  0
LINE
  5
355
100
AcDbEntity
  8
RACCORDO
100
AcDbLine
 62
253
  6
CONTINUOUS
 10
270.9925622236
 20
-4.4744060318
 11
271.1402007722
 21
-4.4747349422
  0
LINE
  5
356
100
AcDbEntity
  8
RACCORDO
100
AcDbLine
 62
253
  6
CONTINUOUS
 10
402.6562773446
 20
-7.2210668595
 11
402.6478661727
 21
-7.2210410107
  0
LINE
  5
357
100
AcDbEntity
  8
RACCORDO
100
AcDbLine
 62
253
  6
CONTINUOUS
 10
-402.5476890825
 20
-2.9489834996
 11
-402.5392779106
 21
-2.9490093484
  0
LINE
  5
358
100
AcDbEntity
  8
RACCORDO
100
AcDbLine
 62
253
  6
CONTINUOUS
 10
-272.9995365909
 20
-5.6955813795
 11
-273.1474430634
 21
-5.6951008654
  0
LINE
  5
359
100
AcDbEntity
  8
RACCORDO
100
AcDbLine
 62
253
  6
CONTINUOUS
 10
-270.891875147
 20
-4.4744689796
 11
-270.7439686746
 21
-4.4749494937
  0
LINE
  5
35A
100
AcDbEntity
  8
RACCORDO
100
AcDbLine
 62
253
  6
CONTINUOUS
 10
271.0004634091
 20
-5.6955813795
 11
270.8525569366
 21
-5.6951008654
  0
LINE
  5
35B
100
AcDbEntity
  8
RACCORDO
100
AcDbLine
 62
253
  6
CONTINUOUS
 10
273.108124853
 20
-4.4744689796
 11
273.2560313254
 21
-4.4749494937
  0
LWPOLYLINE
  5
35C
100
AcDbEntity
  8
RACCORDO
100
AcDbPolyline
 62
253
  6
CONTINUOUS
 90
13
 70
0
 10
-272.5559960963
 20
-5.7970304447
 10
-272.5420672267
 20
-5.797086347
 10
-272.5282091432
 20
-5.7969079763
 10
-272.5146910307
 20
-5.796498798
 10
-272.5017754708
 20
-5.7958667601
 10
-272.4897133407
 20
-5.7950241398
 10
-272.4787389402
 20
-5.7939873042
 10
-272.4690654406
 20
-5.7927763931
 10
-272.460880744
 20
-5.7914149272
 10
-272.4543438334
 20
-5.7899293518
 10
-272.4495816844
 20
-5.7883485225
 10
-272.4466867991
 20
-5.7867031457
 10
-272.4457154088
 20
-5.785025181
  0
LWPOLYLINE
  5
35D
100
AcDbEntity
  8
RACCORDO
100
AcDbPolyline
 62
253
  6
CONTINUOUS
 90
13
 70
0
 10
-271.3354156416
 20
-4.3730199143
 10
-271.3493445112
 20
-4.3729640121
 10
-271.3632025948
 20
-4.3731423827
 10
-271.3767207072
 20
-4.3735515611
 10
-271.3896362671
 20
-4.374183599
 10
-271.4016983972
 20
-4.3750262193
 10
-271.4126727978
 20
-4.3760630549
 10
-271.4223462974
 20
-4.377273966
 10
-271.4305309939
 20
-4.3786354319
 10
-271.4370679046
 20
-4.3801210073
 10
-271.4418300535
 20
-4.3817018365
 10
-271.4447249388
 20
-4.3833472134
 10
-271.4456963291
 20
-4.3850251781
  0
LWPOLYLINE
  5
35E
100
AcDbEntity
  8
RACCORDO
100
AcDbPolyline
 62
253
  6
CONTINUOUS
 90
13
 70
0
 10
271.4440039037
 20
-5.7970304447
 10
271.4579327733
 20
-5.797086347
 10
271.4717908568
 20
-5.7969079763
 10
271.4853089693
 20
-5.796498798
 10
271.4982245292
 20
-5.7958667601
 10
271.5102866593
 20
-5.7950241398
 10
271.5212610598
 20
-5.7939873042
 10
271.5309345594
 20
-5.7927763931
 10
271.539119256
 20
-5.7914149272
 10
271.5456561666
 20
-5.7899293518
 10
271.5504183156
 20
-5.7883485225
 10
271.5533132009
 20
-5.7867031457
 10
271.5542845912
 20
-5.785025181
  0
LWPOLYLINE
  5
35F
100
AcDbEntity
  8
RACCORDO
100
AcDbPolyline
 62
253
  6
CONTINUOUS
 90
13
 70
0
 10
272.6645843584
 20
-4.3730199143
 10
272.6506554888
 20
-4.3729640121
 10
272.6367974052
 20
-4.3731423827
 10
272.6232792928
 20
-4.3735515611
 10
272.6103637329
 20
-4.374183599
 10
272.5983016028
 20
-4.3750262193
 10
272.5873272022
 20
-4.3760630549
 10
272.5776537026
 20
-4.377273966
 10
272.5694690061
 20
-4.3786354319
 10
272.5629320954
 20
-4.3801210073
 10
272.5581699465
 20
-4.3817018365
 10
272.5552750612
 20
-4.3833472134
 10
272.5543036709
 20
-4.3850251781
  0
LWPOLYLINE
  5
360
100
AcDbEntity
  8
RACCORDO
100
AcDbPolyline
 62
253
  6
CONTINUOUS
 90
12
 70
0
 10
-402.6967759956
 20
-5.6953154148
 10
-402.7371438275
 20
-5.6950952059
 10
-402.7553552135
 20
-5.6953154177
 10
-402.7725286739
 20
-5.6953074083
 10
-402.7886024789
 20
-5.695039301
 10
-402.8036440985
 20
-5.695315417
 10
-402.8178577372
 20
-5.6956443273
 10
-402.8310967883
 20
-5.6954242558
 10
-402.8429725703
 20
-5.6953154169
 10
-402.8534572315
 20
-5.6955254598
 10
-402.8628007299
 20
-5.6955588485
 10
-402.8710973242
 20
-5.695315417
  0
LWPOLYLINE
  5
361
100
AcDbEntity
  8
RACCORDO
100
AcDbPolyline
 62
253
  6
CONTINUOUS
 90
12
 70
0
 10
402.8053642577
 20
-4.4747349443
 10
402.8457320895
 20
-4.4749551532
 10
402.8639434755
 20
-4.4747349414
 10
402.881116936
 20
-4.4747429507
 10
402.897190741
 20
-4.4750110581
 10
402.9122323606
 20
-4.4747349421
 10
402.9264459993
 20
-4.4744060318
 10
402.9396850504
 20
-4.4746261033
 10
402.9515608324
 20
-4.4747349422
 10
402.9620454936
 20
-4.4745248993
 10
402.971388992
 20
-4.4744915105
 10
402.9796855863
 20
-4.4747349421
  0
LWPOLYLINE
  5
362
100
AcDbEntity
  8
RACCORDO
100
AcDbPolyline
 62
253
  6
CONTINUOUS
 90
4
 70
0
 10
-402.622920405
 20
-5.695315417
 10
-402.6493937814
 20
-5.6951184984
 10
-402.6739800389
 20
-5.6951628054
 10
-402.6967759956
 20
-5.6953154148
  0
LWPOLYLINE
  5
363
100
AcDbEntity
  8
RACCORDO
100
AcDbPolyline
 62
253
  6
CONTINUOUS
 90
4
 70
0
 10
402.7315086671
 20
-4.4747349421
 10
402.7579820435
 20
-4.4749318607
 10
402.7825683009
 20
-4.4748875537
 10
402.8053642577
 20
-4.4747349443
  0
LWPOLYLINE
  5
364
100
AcDbEntity
  8
RACCORDO
100
AcDbPolyline
 62
253
  6
CONTINUOUS
 90
13
 70
0
 10
-272.5559960992
 20
-6.9158958702
 10
-272.5420661473
 20
-6.916040059
 10
-272.5282069005
 20
-6.915581754
 10
-272.5146875876
 20
-6.9145298585
 10
-272.5017708341
 20
-6.9129048065
 10
-272.4897075599
 20
-6.9107381661
 10
-272.4787321055
 20
-6.9080720263
 10
-272.4690576794
 20
-6.9049581795
 10
-272.4608722165
 20
-6.901457115
 10
-272.4543347271
 20
-6.8976368442
 10
-272.449572208
 20
-6.8935715794
 10
-272.4466771757
 20
-6.8893402923
 10
-272.445705869
 20
-6.8850251795
  0
LWPOLYLINE
  5
365
100
AcDbEntity
  8
RACCORDO
100
AcDbPolyline
 62
253
  6
CONTINUOUS
 90
13
 70
0
 10
-271.3354156387
 20
-3.2541544888
 10
-271.3493455906
 20
-3.2540103001
 10
-271.3632048374
 20
-3.254468605
 10
-271.3767241503
 20
-3.2555205005
 10
-271.3896409038
 20
-3.2571455526
 10
-271.401704178
 20
-3.259312193
 10
-271.4126796324
 20
-3.2619783328
 10
-271.4223540585
 20
-3.2650921796
 10
-271.4305395214
 20
-3.2685932441
 10
-271.4370770108
 20
-3.2724135149
 10
-271.4418395299
 20
-3.2764787797
 10
-271.4447345622
 20
-3.2807100668
 10
-271.445705869
 20
-3.2850251795
  0
LWPOLYLINE
  5
366
100
AcDbEntity
  8
RACCORDO
100
AcDbPolyline
 62
253
  6
CONTINUOUS
 90
13
 70
0
 10
271.4440039008
 20
-6.9158958702
 10
271.4579338527
 20
-6.916040059
 10
271.4717930995
 20
-6.915581754
 10
271.4853124124
 20
-6.9145298585
 10
271.4982291659
 20
-6.9129048065
 10
271.5102924401
 20
-6.9107381661
 10
271.5212678945
 20
-6.9080720263
 10
271.5309423206
 20
-6.9049581795
 10
271.5391277835
 20
-6.901457115
 10
271.5456652729
 20
-6.8976368442
 10
271.550427792
 20
-6.8935715794
 10
271.5533228243
 20
-6.8893402923
 10
271.554294131
 20
-6.8850251795
  0
LWPOLYLINE
  5
367
100
AcDbEntity
  8
RACCORDO
100
AcDbPolyline
 62
253
  6
CONTINUOUS
 90
13
 70
0
 10
272.6645843613
 20
-3.2541544888
 10
272.6506544094
 20
-3.2540103001
 10
272.6367951626
 20
-3.254468605
 10
272.6232758497
 20
-3.2555205005
 10
272.6103590962
 20
-3.2571455526
 10
272.598295822
 20
-3.259312193
 10
272.5873203676
 20
-3.2619783328
 10
272.5776459415
 20
-3.2650921796
 10
272.5694604786
 20
-3.2685932441
 10
272.5629229892
 20
-3.2724135149
 10
272.5581604701
 20
-3.2764787797
 10
272.5552654378
 20
-3.2807100668
 10
272.554294131
 20
-3.2850251795
  0
LWPOLYLINE
  5
368
100
AcDbEntity
  8
RACCORDO
100
AcDbPolyline
 62
253
  6
CONTINUOUS
 90
16
 70
0
 10
-274.0817216982
 20
-5.390170298
 10
-274.0693940752
 20
-5.3903834467
 10
-274.0566710811
 20
-5.3905071625
 10
-274.0437650707
 20
-5.3905393805
 10
-274.0308914534
 20
-5.3904795629
 10
-274.0182650982
 20
-5.3903287081
 10
-274.0060967468
 20
-5.390089334
 10
-273.9945894969
 20
-5.3897654362
 10
-273.9839354116
 20
-5.3893624205
 10
-273.9743123145
 20
-5.3888870135
 10
-273.9658808212
 20
-5.3883471502
 10
-273.9587816585
 20
-5.3877518411
 10
-273.9531333162
 20
-5.3871110221
 10
-273.9490300686
 20
-5.3864353888
 10
-273.9465404014
 20
-5.3857362181
 10
-273.945705869
 20
-5.3850251795
  0
LWPOLYLINE
  5
369
100
AcDbEntity
  8
RACCORDO
100
AcDbPolyline
 62
253
  6
CONTINUOUS
 90
16
 70
0
 10
-269.8096900398
 20
-4.7798800611
 10
-269.8220176627
 20
-4.7796669123
 10
-269.8347406568
 20
-4.7795431965
 10
-269.8476466673
 20
-4.7795109786
 10
-269.8605202845
 20
-4.7795707962
 10
-269.8731466398
 20
-4.779721651
 10
-269.8853149911
 20
-4.779961025
 10
-269.8968222411
 20
-4.7802849229
 10
-269.9074763263
 20
-4.7806879386
 10
-269.9170994234
 20
-4.7811633455
 10
-269.9255309168
 20
-4.7817032089
 10
-269.9326300794
 20
-4.782298518
 10
-269.9382784217
 20
-4.782939337
 10
-269.9423816694
 20
-4.7836149703
 10
-269.9448713365
 20
-4.784314141
 10
-269.945705869
 20
-4.7850251795
  0
LWPOLYLINE
  5
36A
100
AcDbEntity
  8
RACCORDO
100
AcDbPolyline
 62
253
  6
CONTINUOUS
 90
16
 70
0
 10
269.9182783018
 20
-5.390170298
 10
269.9306059248
 20
-5.3903834467
 10
269.9433289189
 20
-5.3905071625
 10
269.9562349293
 20
-5.3905393805
 10
269.9691085466
 20
-5.3904795629
 10
269.9817349018
 20
-5.3903287081
 10
269.9939032532
 20
-5.390089334
 10
270.0054105031
 20
-5.3897654362
 10
270.0160645884
 20
-5.3893624205
 10
270.0256876855
 20
-5.3888870135
 10
270.0341191788
 20
-5.3883471502
 10
270.0412183415
 20
-5.3877518411
 10
270.0468666838
 20
-5.3871110221
 10
270.0509699314
 20
-5.3864353888
 10
270.0534595986
 20
-5.3857362181
 10
270.054294131
 20
-5.3850251795
  0
LWPOLYLINE
  5
36B
100
AcDbEntity
  8
RACCORDO
100
AcDbPolyline
 62
253
  6
CONTINUOUS
 90
16
 70
0
 10
274.1903099602
 20
-4.7798800611
 10
274.1779823373
 20
-4.7796669123
 10
274.1652593432
 20
-4.7795431965
 10
274.1523533327
 20
-4.7795109786
 10
274.1394797155
 20
-4.7795707962
 10
274.1268533602
 20
-4.779721651
 10
274.1146850089
 20
-4.779961025
 10
274.1031777589
 20
-4.7802849229
 10
274.0925236737
 20
-4.7806879386
 10
274.0829005766
 20
-4.7811633455
 10
274.0744690832
 20
-4.7817032089
 10
274.0673699206
 20
-4.782298518
 10
274.0617215783
 20
-4.782939337
 10
274.0576183306
 20
-4.7836149703
 10
274.0551286635
 20
-4.784314141
 10
274.054294131
 20
-4.7850251795
  0
LWPOLYLINE
  5
36C
100
AcDbEntity
  8
RACCORDO
100
AcDbPolyline
 62
253
  6
CONTINUOUS
 90
19
 70
0
 10
-272.2508509877
 20
-7.2210410107
 10
-272.276837323
 20
-7.2199289696
 10
-272.3024583485
 20
-7.216650333
 10
-272.3276439551
 20
-7.2112189812
 10
-272.3524359741
 20
-7.2036166032
 10
-272.3766527615
 20
-7.1938891302
 10
-272.3998957215
 20
-7.1821594411
 10
-272.4220975422
 20
-7.1684443751
 10
-272.4432069935
 20
-7.1527826969
 10
-272.4628687725
 20
-7.1353507951
 10
-272.4810730764
 20
-7.1161348209
 10
-272.4977479819
 20
-7.0952170201
 10
-272.5124797743
 20
-7.0729346901
 10
-272.5252652223
 20
-7.0493242522
 10
-272.5360927899
 20
-7.0244205313
 10
-272.5445849809
 20
-6.9985686885
 10
-272.550645875
 20
-6.9719033007
 10
-272.5544368056
 20
-6.944340951
 10
-272.5559961064
 20
-6.9158958919
  0
LWPOLYLINE
  5
36D
100
AcDbEntity
  8
RACCORDO
100
AcDbPolyline
 62
253
  6
CONTINUOUS
 90
19
 70
0
 10
-271.6405607502
 20
-2.9490093484
 10
-271.614574415
 20
-2.9501213895
 10
-271.5889533894
 20
-2.953400026
 10
-271.5637677828
 20
-2.9588313779
 10
-271.5389757638
 20
-2.9664337558
 10
-271.5147589764
 20
-2.9761612288
 10
-271.4915160164
 20
-2.987890918
 10
-271.4693141958
 20
-3.001605984
 10
-271.4482047444
 20
-3.0172676622
 10
-271.4285429654
 20
-3.0346995639
 10
-271.4103386615
 20
-3.0539155382
 10
-271.3936637561
 20
-3.074833339
 10
-271.3789319637
 20
-3.097115669
 10
-271.3661465156
 20
-3.1207261068
 10
-271.355318948
 20
-3.1456298277
 10
-271.346826757
 20
-3.1714816706
 10
-271.3407658629
 20
-3.1981470583
 10
-271.3369749323
 20
-3.2257094081
 10
-271.3354156315
 20
-3.2541544671
  0
LWPOLYLINE
  5
36E
100
AcDbEntity
  8
RACCORDO
100
AcDbPolyline
 62
253
  6
CONTINUOUS
 90
19
 70
0
 10
-273.7765765814
 20
-5.695315417
 10
-273.8048714356
 20
-5.6937963635
 10
-273.8323493376
 20
-5.6900298793
 10
-273.8589959831
 20
-5.6839750418
 10
-273.8849206244
 20
-5.6754644169
 10
-273.9099621421
 20
-5.664593703
 10
-273.9336967687
 20
-5.6517495743
 10
-273.9560714215
 20
-5.6369347511
 10
-273.9770669283
 20
-5.6201620616
 10
-273.9963219333
 20
-5.6018871389
 10
-274.0137366701
 20
-5.5821989811
 10
-274.0293443734
 20
-5.5610949874
 10
-274.0430011218
 20
-5.5389285408
 10
-274.0546724593
 20
-5.5157698457
 10
-274.0643396786
 20
-5.4916678292
 10
-274.0719009696
 20
-5.466960443
 10
-274.0773157571
 20
-5.441808029
 10
-274.0805943485
 20
-5.4161881221
 10
-274.0817217001
 20
-5.3901702983
  0
LWPOLYLINE
  5
36F
100
AcDbEntity
  8
RACCORDO
100
AcDbPolyline
 62
253
  6
CONTINUOUS
 90
19
 70
0
 10
-270.1148351566
 20
-4.4747349421
 10
-270.0865403023
 20
-4.4762539956
 10
-270.0590624003
 20
-4.4800204798
 10
-270.0324157548
 20
-4.4860753173
 10
-270.0064911135
 20
-4.4945859422
 10
-269.9814495958
 20
-4.5054566561
 10
-269.9577149692
 20
-4.5183007848
 10
-269.9353403165
 20
-4.5331156079
 10
-269.9143448096
 20
-4.5498882974
 10
-269.8950898046
 20
-4.5681632201
 10
-269.8776750678
 20
-4.5878513779
 10
-269.8620673645
 20
-4.6089553716
 10
-269.8484106161
 20
-4.6311218183
 10
-269.8367392786
 20
-4.6542805133
 10
-269.8270720593
 20
-4.6783825298
 10
-269.8195107683
 20
-4.7030899161
 10
-269.8140959808
 20
-4.7282423301
 10
-269.8108173894
 20
-4.753862237
 10
-269.8096900378
 20
-4.7798800608
  0
LINE
  5
370
100
AcDbEntity
  8
RACCORDO
100
AcDbLine
 62
253
  6
CONTINUOUS
 10
-402.53926997
 20
-5.3901698598
 11
-402.5459738823
 21
-5.3905400111
  0
LWPOLYLINE
  5
371
100
AcDbEntity
  8
RACCORDO
100
AcDbPolyline
 62
7
  6
CONTINUOUS
 90
16
 70
0
 10
-402.7723549437
 20
-5.5850253947
 10
-402.7834379471
 20
-5.5856323894
 10
-402.7960002956
 20
-5.587818959
 10
-402.8077306006
 20
-5.591391897
 10
-402.8184619626
 20
-5.5961046071
 10
-402.8281723108
 20
-5.601750582
 10
-402.8369520581
 20
-5.6082227036
 10
-402.8447851403
 20
-5.6153801493
 10
-402.851640661
 20
-5.6230577424
 10
-402.8575866484
 20
-5.6311996555
 10
-402.8627339941
 20
-5.6398885544
 10
-402.8669826173
 20
-5.6488777287
 10
-402.8702297336
 20
-5.6576442325
 10
-402.872611598
 20
-5.6659915674
 10
-402.8743538807
 20
-5.6741080982
 10
-402.8755986214
 20
-5.6820988307
  0
LWPOLYLINE
  5
372
100
AcDbEntity
  8
RACCORDO
100
AcDbPolyline
 62
7
  6
CONTINUOUS
 90
11
 70
0
 10
-402.7723505319
 20
-5.5850252636
 10
-402.7819200082
 20
-5.585477187
 10
-402.7946523001
 20
-5.587505836
 10
-402.806558221
 20
-5.5909642834
 10
-402.817462653
 20
-5.5956022579
 10
-402.82733822
 20
-5.6012078572
 10
-402.8362728102
 20
-5.6076684766
 10
-402.8442466075
 20
-5.6148382674
 10
-402.8512268357
 20
-5.6225481921
 10
-402.8572826025
 20
-5.6307408013
 10
-402.8625256701
 20
-5.6394979983
  0
LWPOLYLINE
  5
373
100
AcDbEntity
  8
RACCORDO
100
AcDbPolyline
 62
253
  6
CONTINUOUS
 90
11
 70
0
 10
-402.8710973242
 20
-4.4747349421
 10
-402.8630109451
 20
-4.4745400669
 10
-402.8539067138
 20
-4.4745649041
 10
-402.843693544
 20
-4.474734942
 10
-402.8321591728
 20
-4.4746492236
 10
-402.8193044422
 20
-4.4744689796
 10
-402.8054061233
 20
-4.4747349411
 10
-402.790545614
 20
-4.4749494937
 10
-402.7745480081
 20
-4.4747212131
 10
-402.7573608091
 20
-4.4747349422
 10
-402.7390249114
 20
-4.4749291057
  0
LWPOLYLINE
  5
374
100
AcDbEntity
  8
RACCORDO
100
AcDbPolyline
 62
253
  6
CONTINUOUS
 90
19
 70
0
 10
271.7491490123
 20
-7.2210410107
 10
271.723162677
 20
-7.2199289696
 10
271.6975416515
 20
-7.216650333
 10
271.6723560449
 20
-7.2112189812
 10
271.6475640259
 20
-7.2036166032
 10
271.6233472385
 20
-7.1938891302
 10
271.6001042785
 20
-7.1821594411
 10
271.5779024578
 20
-7.1684443751
 10
271.5567930065
 20
-7.1527826969
 10
271.5371312275
 20
-7.1353507951
 10
271.5189269236
 20
-7.1161348209
 10
271.5022520181
 20
-7.0952170201
 10
271.4875202257
 20
-7.0729346901
 10
271.4747347777
 20
-7.0493242522
 10
271.4639072101
 20
-7.0244205313
 10
271.4554150191
 20
-6.9985686885
 10
271.449354125
 20
-6.9719033007
 10
271.4455631944
 20
-6.944340951
 10
271.4440038936
 20
-6.9158958919
  0
LWPOLYLINE
  5
375
100
AcDbEntity
  8
RACCORDO
100
AcDbPolyline
 62
253
  6
CONTINUOUS
 90
19
 70
0
 10
272.3594392498
 20
-2.9490093484
 10
272.385425585
 20
-2.9501213895
 10
272.4110466106
 20
-2.953400026
 10
272.4362322172
 20
-2.9588313779
 10
272.4610242362
 20
-2.9664337558
 10
272.4852410236
 20
-2.9761612288
 10
272.5084839836
 20
-2.987890918
 10
272.5306858042
 20
-3.001605984
 10
272.5517952556
 20
-3.0172676622
 10
272.5714570346
 20
-3.0346995639
 10
272.5896613385
 20
-3.0539155382
 10
272.6063362439
 20
-3.074833339
 10
272.6210680363
 20
-3.097115669
 10
272.6338534844
 20
-3.1207261068
 10
272.644681052
 20
-3.1456298277
 10
272.653173243
 20
-3.1714816706
 10
272.6592341371
 20
-3.1981470583
 10
272.6630250677
 20
-3.2257094081
 10
272.6645843685
 20
-3.2541544671
  0
LWPOLYLINE
  5
376
100
AcDbEntity
  8
RACCORDO
100
AcDbPolyline
 62
253
  6
CONTINUOUS
 90
19
 70
0
 10
270.2234234186
 20
-5.695315417
 10
270.1951285644
 20
-5.6937963635
 10
270.1676506624
 20
-5.6900298793
 10
270.1410040169
 20
-5.6839750418
 10
270.1150793756
 20
-5.6754644169
 10
270.0900378579
 20
-5.664593703
 10
270.0663032313
 20
-5.6517495743
 10
270.0439285785
 20
-5.6369347511
 10
270.0229330717
 20
-5.6201620616
 10
270.0036780667
 20
-5.6018871389
 10
269.9862633299
 20
-5.5821989811
 10
269.9706556266
 20
-5.5610949874
 10
269.9569988782
 20
-5.5389285408
 10
269.9453275407
 20
-5.5157698457
 10
269.9356603214
 20
-5.4916678292
 10
269.9280990304
 20
-5.466960443
 10
269.9226842429
 20
-5.441808029
 10
269.9194056515
 20
-5.4161881221
 10
269.9182782999
 20
-5.3901702983
  0
LWPOLYLINE
  5
377
100
AcDbEntity
  8
RACCORDO
100
AcDbPolyline
 62
253
  6
CONTINUOUS
 90
19
 70
0
 10
273.8851648434
 20
-4.4747349421
 10
273.9134596977
 20
-4.4762539956
 10
273.9409375997
 20
-4.4800204798
 10
273.9675842452
 20
-4.4860753173
 10
273.9935088865
 20
-4.4945859422
 10
274.0185504042
 20
-4.5054566561
 10
274.0422850308
 20
-4.5183007848
 10
274.0646596835
 20
-4.5331156079
 10
274.0856551904
 20
-4.5498882974
 10
274.1049101954
 20
-4.5681632201
 10
274.1223249322
 20
-4.5878513779
 10
274.1379326355
 20
-4.6089553716
 10
274.1515893839
 20
-4.6311218183
 10
274.1632607214
 20
-4.6542805133
 10
274.1729279407
 20
-4.6783825298
 10
274.1804892317
 20
-4.7030899161
 10
274.1859040192
 20
-4.7282423301
 10
274.1891826106
 20
-4.753862237
 10
274.1903099622
 20
-4.7798800608
  0
LINE
  5
378
100
AcDbEntity
  8
RACCORDO
100
AcDbLine
 62
253
  6
CONTINUOUS
 10
402.6478661677
 20
-5.390170298
 11
402.6545668327
 21
-5.3905404193
  0
LINE
  5
379
100
AcDbEntity
  8
RACCORDO
100
AcDbLine
 62
253
  6
CONTINUOUS
 10
402.8947457543
 20
-5.5859964799
 11
402.8809435773
 21
-5.5850251795
  0
LWPOLYLINE
  5
37A
100
AcDbEntity
  8
RACCORDO
100
AcDbPolyline
 62
253
  6
CONTINUOUS
 90
20
 70
0
 10
-402.8710973242
 20
-5.695315417
 10
-402.8717398447
 20
-5.6953944763
 10
-402.8723547132
 20
-5.6958469604
 10
-402.8729422398
 20
-5.696667352
 10
-402.873509946
 20
-5.6978109557
 10
-402.8740508395
 20
-5.6993111093
 10
-402.8745436814
 20
-5.7012803457
 10
-402.8749914186
 20
-5.7037164429
 10
-402.8753919948
 20
-5.7066125168
 10
-402.8757170826
 20
-5.7100786196
 10
-402.8759689089
 20
-5.7141321483
 10
-402.8761461536
 20
-5.7187544788
 10
-402.8762153575
 20
-5.7240118548
 10
-402.8761744797
 20
-5.7299608074
 10
-402.8760256269
 20
-5.736558945
 10
-402.8757412221
 20
-5.7437397062
 10
-402.8753099434
 20
-5.751599797
 10
-402.8747409945
 20
-5.7600748236
 10
-402.8740369613
 20
-5.7688693521
 10
-402.8731973083
 20
-5.7778981086
  0
LINE
  5
37B
100
AcDbEntity
  8
RACCORDO
100
AcDbLine
 62
253
  6
CONTINUOUS
 10
-402.8710973104
 20
-5.7970304549
 11
-402.8716242828
 21
-5.7970945254
  0
LINE
  5
37C
100
AcDbEntity
  8
0
100
AcDbLine
 62
7
  6
CONTINUOUS
 10
278.554294131
 20
34.9149748205
 11
286.0892913795
 21
34.9149748205
  0
LINE
  5
37D
100
AcDbEntity
  8
0
100
AcDbLine
 62
7
  6
CONTINUOUS
 10
-278.445705869
 20
34.9149748205
 11
-285.9807031174
 21
34.9149748205
  0
LINE
  5
37E
100
AcDbEntity
  8
0
100
AcDbLine
 62
7
  6
CONTINUOUS
 10
286.0892913795
 20
37.4149748205
 11
284.0892913795
 21
37.4149748205
  0
LINE
  5
37F
100
AcDbEntity
  8
0
100
AcDbLine
 62
7
  6
CONTINUOUS
 10
-283.9807031174
 20
37.4149748205
 11
-285.9807031174
 21
37.4149748205
  0
LINE
  5
380
100
AcDbEntity
  8
0
100
AcDbLine
 62
253
  6
CONTINUOUS
 10
278.554294131
 20
40.9149748205
 11
-278.445705869
 21
40.9149748205
  0
LINE
  5
381
100
AcDbEntity
  8
0
100
AcDbLine
 62
7
  6
CONTINUOUS
 10
-399.945705869
 20
42.4149748205
 11
-374.2680363393
 21
42.4149748205
  0
LINE
  5
382
100
AcDbEntity
  8
0
100
AcDbLine
 62
253
  6
CONTINUOUS
 10
284.0892913795
 20
42.4149748205
 11
374.3766246014
 21
42.4149748205
  0
LINE
  5
383
100
AcDbEntity
  8
0
100
AcDbLine
 62
253
  6
CONTINUOUS
 10
-283.9807031174
 20
42.4149748205
 11
-374.2680363393
 21
42.4149748205
  0
LINE
  5
384
100
AcDbEntity
  8
0
100
AcDbLine
 62
7
  6
CONTINUOUS
 10
374.3766246014
 20
42.4149748205
 11
400.054294131
 21
42.4149748205
  0
LINE
  5
385
100
AcDbEntity
  8
0
100
AcDbLine
 62
7
  6
CONTINUOUS
 10
-396.945705869
 20
42.9149748205
 11
-376.945705869
 21
42.9149748205
  0
LINE
  5
386
100
AcDbEntity
  8
0
100
AcDbLine
 62
7
  6
CONTINUOUS
 10
397.054294131
 20
42.9149748205
 11
377.054294131
 21
42.9149748205
  0
LINE
  5
387
100
AcDbEntity
  8
0
100
AcDbLine
 62
7
  6
CONTINUOUS
 10
278.554294131
 20
44.9149748205
 11
-278.445705869
 21
44.9149748205
  0
LINE
  5
388
100
AcDbEntity
  8
0
100
AcDbLine
 62
7
  6
CONTINUOUS
 10
-396.945705869
 20
45.4149748205
 11
-376.945705869
 21
45.4149748205
  0
LINE
  5
389
100
AcDbEntity
  8
0
100
AcDbLine
 62
7
  6
CONTINUOUS
 10
397.054294131
 20
45.4149748205
 11
377.054294131
 21
45.4149748205
  0
LINE
  5
38A
100
AcDbEntity
  8
0
100
AcDbLine
 62
7
  6
CONTINUOUS
 10
284.0892913795
 20
45.4149748205
 11
371.3766246014
 21
45.4149748205
  0
LINE
  5
38B
100
AcDbEntity
  8
0
100
AcDbLine
 62
7
  6
CONTINUOUS
 10
-283.9807031174
 20
45.4149748205
 11
-371.2680363393
 21
45.4149748205
  0
LINE
  5
38C
100
AcDbEntity
  8
0
100
AcDbLine
 62
253
  6
CONTINUOUS
 10
284.0892913795
 20
45.9149748205
 11
330.3766246014
 21
45.9149748205
  0
LINE
  5
38D
100
AcDbEntity
  8
0
100
AcDbLine
 62
253
  6
CONTINUOUS
 10
-283.9807031174
 20
45.9149748205
 11
-330.2680363393
 21
45.9149748205
  0
LINE
  5
38E
100
AcDbEntity
  8
0
100
AcDbLine
 62
253
  6
CONTINUOUS
 10
374.054294131
 20
45.9149748205
 11
376.554294131
 21
45.9149748205
  0
LINE
  5
38F
100
AcDbEntity
  8
0
100
AcDbLine
 62
253
  6
CONTINUOUS
 10
-373.945705869
 20
45.9149748205
 11
-376.445705869
 21
45.9149748205
  0
LINE
  5
390
100
AcDbEntity
  8
0
100
AcDbLine
 62
7
  6
CONTINUOUS
 10
284.0892913795
 20
55.6149748205
 11
330.3766246014
 21
55.6149748205
  0
LINE
  5
391
100
AcDbEntity
  8
0
100
AcDbLine
 62
7
  6
CONTINUOUS
 10
-283.9807031174
 20
55.6149748205
 11
-330.2680363393
 21
55.6149748205
  0
LINE
  5
392
100
AcDbEntity
  8
0
100
AcDbLine
 62
7
  6
CONTINUOUS
 10
374.054294131
 20
55.6149748205
 11
376.554294131
 21
55.6149748205
  0
LINE
  5
393
100
AcDbEntity
  8
0
100
AcDbLine
 62
7
  6
CONTINUOUS
 10
-373.945705869
 20
55.6149748205
 11
-376.445705869
 21
55.6149748205
  0
LINE
  5
394
100
AcDbEntity
  8
RACCORDO
100
AcDbLine
 62
253
  6
CONTINUOUS
 10
402.9796854888
 20
-5.7970304447
 11
402.9802118571
 21
-5.797094386
  0
LWPOLYLINE
  5
395
100
AcDbEntity
  8
0
100
AcDbPolyline
 62
7
  6
CONTINUOUS
 90
19
 70
0
 10
-371.2680363393
 20
45.4149748205
 10
-371.5782656324
 20
45.3992619502
 10
-371.8733898562
 20
45.3538258603
 10
-372.1534090105
 20
45.2813643293
 10
-372.4187918252
 20
45.1851611011
 10
-372.6690695705
 20
45.0678561473
 10
-372.902836057
 20
44.9304045099
 10
-373.1203108723
 20
44.7744033972
 10
-373.3212744288
 20
44.6023460028
 10
-373.5036617742
 20
44.4154736409
 10
-373.6673041217
 20
44.2151846588
 10
-373.8123702582
 20
44.0039005373
 10
-373.9373015921
 20
43.7842896289
 10
-374.0413158236
 20
43.5580970215
 10
-374.1251952527
 20
43.3275083228
 10
-374.1897281879
 20
43.0959986075
 10
-374.2351773989
 20
42.8659410411
 10
-374.261280116
 20
42.6384454595
 10
-374.2680363393
 20
42.4149748205
  0
LWPOLYLINE
  5
396
100
AcDbEntity
  8
RACCORDO
100
AcDbPolyline
 62
253
  6
CONTINUOUS
 90
10
 70
0
 10
402.7315086671
 20
-5.695315417
 10
402.7223573419
 20
-5.6937963635
 10
402.7135668862
 20
-5.6900298793
 10
402.7051558152
 20
-5.6839750418
 10
402.6971100398
 20
-5.6754644169
 10
402.6894768663
 20
-5.664593703
 10
402.6823682432
 20
-5.6517495743
 10
402.6758081998
 20
-5.6369347511
 10
402.6698051342
 20
-5.6201620616
 10
402.6644500162
 20
-5.6018871389
  0
LINE
  5
397
100
AcDbEntity
  8
RACCORDO
100
AcDbLine
 62
253
  6
CONTINUOUS
 10
402.9082798105
 20
-5.5888915071
 11
402.8947457543
 21
-5.5859964799
  0
LINE
  5
398
100
AcDbEntity
  8
RACCORDO
100
AcDbLine
 62
253
  6
CONTINUOUS
 10
402.7315042737
 20
-3.2541559017
 11
402.7320098869
 21
-3.253990833
  0
LINE
  5
399
100
AcDbEntity
  8
RACCORDO
100
AcDbLine
 62
253
  6
CONTINUOUS
 10
402.7315086007
 20
-6.9158958702
 11
402.7320132408
 21
-6.916060623
  0
LINE
  5
39A
100
AcDbEntity
  8
RACCORDO
100
AcDbLine
 62
253
  6
CONTINUOUS
 10
402.921282834
 20
-5.5936540226
 11
402.9082798105
 21
-5.5888915071
  0
LWPOLYLINE
  5
39B
100
AcDbEntity
  8
RACCORDO
100
AcDbPolyline
 62
253
  6
CONTINUOUS
 90
22
 70
0
 10
271.4440038936
 20
-5.7970304566
 10
271.4434911329
 20
-5.7873653305
 10
271.4421805727
 20
-5.778034004
 10
271.440071634
 20
-5.7690232794
 10
271.4370613269
 20
-5.7602006592
 10
271.4332508967
 20
-5.7516645323
 10
271.4289304122
 20
-5.7437493112
 10
271.4240638885
 20
-5.7365304568
 10
271.418649855
 20
-5.7298995708
 10
271.4130135989
 20
-5.7239282292
 10
271.4071678578
 20
-5.7186629434
 10
271.401062549
 20
-5.7140433203
 10
271.3949297021
 20
-5.7099966364
 10
271.388789095
 20
-5.706541214
 10
271.3825965299
 20
-5.7036604191
 10
271.3764945758
 20
-5.701239461
 10
271.3705097065
 20
-5.6992853886
 10
271.3646030073
 20
-5.6978008981
 10
271.358824447
 20
-5.6966686062
 10
271.3531897005
 20
-5.6958530654
 10
271.3476783985
 20
-5.6954002648
 10
271.342288854
 20
-5.695315417
  0
LWPOLYLINE
  5
39C
100
AcDbEntity
  8
RACCORDO
100
AcDbPolyline
 62
253
  6
CONTINUOUS
 90
22
 70
0
 10
272.6645843685
 20
-4.3730199025
 10
272.6650971292
 20
-4.3826850286
 10
272.6664076894
 20
-4.3920163551
 10
272.668516628
 20
-4.4010270797
 10
272.6715269352
 20
-4.4098496999
 10
272.6753373654
 20
-4.4183858268
 10
272.6796578498
 20
-4.4263010479
 10
272.6845243735
 20
-4.4335199023
 10
272.689938407
 20
-4.4401507883
 10
272.6955746632
 20
-4.4461221298
 10
272.7014204043
 20
-4.4513874157
 10
272.7075257131
 20
-4.4560070387
 10
272.7136585599
 20
-4.4600537227
 10
272.7197991671
 20
-4.4635091451
 10
272.7259917322
 20
-4.4663899399
 10
272.7320936863
 20
-4.4688108981
 10
272.7380785556
 20
-4.4707649705
 10
272.7439852547
 20
-4.472249461
 10
272.7497638151
 20
-4.4733817529
 10
272.7553985615
 20
-4.4741972937
 10
272.7609098636
 20
-4.4746500943
 10
272.7662994081
 20
-4.4747349421
  0
LWPOLYLINE
  5
39D
100
AcDbEntity
  8
RACCORDO
100
AcDbPolyline
 62
253
  6
CONTINUOUS
 90
16
 70
0
 10
271.7491494214
 20
-7.2210381446
 10
271.7489362687
 20
-7.2087104713
 10
271.7488125439
 20
-7.1959872395
 10
271.7487803127
 20
-7.183080838
 10
271.7488401134
 20
-7.1702067127
 10
271.7489909482
 20
-7.1575797711
 10
271.7492302996
 20
-7.1454107942
 10
271.7495541725
 20
-7.1339029182
 10
271.7499571609
 20
-7.1232482438
 10
271.7504325383
 20
-7.1136246291
 10
271.7509723696
 20
-7.1051927207
 10
271.751567644
 20
-7.0980932723
 10
271.7522084251
 20
-7.0924447948
 10
271.7528840168
 20
-7.0883415778
 10
271.753583142
 20
-7.0858521165
 10
271.7542941307
 20
-7.0850179671
  0
LWPOLYLINE
  5
39E
100
AcDbEntity
  8
RACCORDO
100
AcDbPolyline
 62
253
  6
CONTINUOUS
 90
16
 70
0
 10
272.3594388407
 20
-2.9490122145
 10
272.3596519934
 20
-2.9613398878
 10
272.3597757182
 20
-2.9740631195
 10
272.3598079494
 20
-2.9869695211
 10
272.3597481487
 20
-2.9998436463
 10
272.3595973139
 20
-3.012470588
 10
272.3593579625
 20
-3.0246395649
 10
272.3590340896
 20
-3.0361474409
 10
272.3586311012
 20
-3.0468021153
 10
272.3581557238
 20
-3.05642573
 10
272.3576158924
 20
-3.0648576383
 10
272.3570206181
 20
-3.0719570867
 10
272.356379837
 20
-3.0776055643
 10
272.3557042453
 20
-3.0817087812
 10
272.3550051201
 20
-3.0841982426
 10
272.3542941313
 20
-3.085032392
  0
LWPOLYLINE
  5
39F
100
AcDbEntity
  8
RACCORDO
100
AcDbPolyline
 62
253
  6
CONTINUOUS
 90
13
 70
0
 10
270.2234247366
 20
-5.6953149773
 10
270.2232801587
 20
-5.6813846923
 10
270.2237381247
 20
-5.667524952
 10
270.2247897371
 20
-5.6540050265
 10
270.2264145649
 20
-5.6410875837
 10
270.2285810405
 20
-5.6290235863
 10
270.2312470731
 20
-5.6180474162
 10
270.2343608664
 20
-5.6083723207
 10
270.2378619248
 20
-5.6001862695
 10
270.2416822291
 20
-5.593648303
 10
270.2457475573
 20
-5.5888854422
 10
270.2499789274
 20
-5.585990221
 10
270.2542941313
 20
-5.5850188882
  0
LWPOLYLINE
  5
3A0
100
AcDbEntity
  8
RACCORDO
100
AcDbPolyline
 62
253
  6
CONTINUOUS
 90
13
 70
0
 10
273.8851635255
 20
-4.4747353817
 10
273.8853081034
 20
-4.4886656668
 10
273.8848501374
 20
-4.5025254071
 10
273.883798525
 20
-4.5160453326
 10
273.8821736972
 20
-4.5289627754
 10
273.8800072216
 20
-4.5410267728
 10
273.877341189
 20
-4.5520029429
 10
273.8742273957
 20
-4.5616780384
 10
273.8707263372
 20
-4.5698640896
 10
273.866906033
 20
-4.576402056
 10
273.8628407048
 20
-4.5811649168
 10
273.8586093347
 20
-4.5840601381
 10
273.8542941308
 20
-4.5850314709
  0
LWPOLYLINE
  5
3A1
100
AcDbEntity
  8
RACCORDO
100
AcDbPolyline
 62
253
  6
CONTINUOUS
 90
13
 70
0
 10
271.3422888563
 20
-5.695315415
 10
271.3422327828
 20
-5.6813854585
 10
271.3424110126
 20
-5.6675262071
 10
271.3428200833
 20
-5.6540068899
 10
271.3434520484
 20
-5.6410901325
 10
271.3442946313
 20
-5.6290268554
 10
271.3453314641
 20
-5.618051399
 10
271.3465424053
 20
-5.6083769722
 10
271.3479039312
 20
-5.60019151
 10
271.3493895929
 20
-5.5936540226
 10
271.3509705299
 20
-5.5888915071
 10
271.3526160311
 20
-5.5859964799
 10
271.354294131
 20
-5.5850251795
  0
LWPOLYLINE
  5
3A2
100
AcDbEntity
  8
RACCORDO
100
AcDbPolyline
 62
253
  6
CONTINUOUS
 90
13
 70
0
 10
272.7662994058
 20
-4.474734944
 10
272.7663554792
 20
-4.4886649005
 10
272.7661772495
 20
-4.502524152
 10
272.7657681787
 20
-4.5160434692
 10
272.7651362137
 20
-4.5289602265
 10
272.7642936307
 20
-4.5410235037
 10
272.7632567979
 20
-4.5519989601
 10
272.7620458568
 20
-4.5616733868
 10
272.7606843309
 20
-4.5698588491
 10
272.7591986692
 20
-4.5763963365
 10
272.7576177322
 20
-4.581158852
 10
272.755972231
 20
-4.5840538792
 10
272.754294131
 20
-4.5850251795
  0
LINE
  5
3A3
100
AcDbEntity
  8
RACCORDO
100
AcDbLine
 62
253
  6
CONTINUOUS
 10
269.9182782999
 20
-5.3901702983
 11
269.9182782999
 21
-4.7798800608
  0
LINE
  5
3A4
100
AcDbEntity
  8
RACCORDO
100
AcDbLine
 62
7
  6
CONTINUOUS
 10
270.054294131
 20
-5.3850251795
 11
270.054294131
 21
-4.7850251795
  0
LINE
  5
3A5
100
AcDbEntity
  8
RACCORDO
100
AcDbLine
 62
7
  6
CONTINUOUS
 10
271.554294131
 20
-6.8850251795
 11
271.554294131
 21
-5.7850251795
  0
LINE
  5
3A6
100
AcDbEntity
  8
RACCORDO
100
AcDbLine
 62
7
  6
CONTINUOUS
 10
271.554294131
 20
-4.3850251795
 11
271.554294131
 21
-3.2850251795
  0
LINE
  5
3A7
100
AcDbEntity
  8
RACCORDO
100
AcDbLine
 62
7
  6
CONTINUOUS
 10
272.554294131
 20
-3.2850251795
 11
272.554294131
 21
-4.3850251795
  0
LINE
  5
3A8
100
AcDbEntity
  8
RACCORDO
100
AcDbLine
 62
7
  6
CONTINUOUS
 10
272.554294131
 20
-5.7850251795
 11
272.554294131
 21
-6.8850251795
  0
LINE
  5
3A9
100
AcDbEntity
  8
RACCORDO
100
AcDbLine
 62
7
  6
CONTINUOUS
 10
274.054294131
 20
-4.7850251795
 11
274.054294131
 21
-5.3850251795
  0
LINE
  5
3AA
100
AcDbEntity
  8
RACCORDO
100
AcDbLine
 62
253
  6
CONTINUOUS
 10
274.1903099622
 20
-4.7798800608
 11
274.1903099622
 21
-5.3901702983
  0
LINE
  5
3AB
100
AcDbEntity
  8
RACCORDO
100
AcDbLine
 62
253
  6
CONTINUOUS
 10
271.4440038936
 20
-4.3730199025
 11
271.4440038951
 21
-3.5213785532
  0
LINE
  5
3AC
100
AcDbEntity
  8
RACCORDO
100
AcDbLine
 62
253
  6
CONTINUOUS
 10
271.4439277738
 20
-5.8550966268
 11
271.4440038936
 21
-5.7970304566
  0
LINE
  5
3AD
100
AcDbEntity
  8
RACCORDO
100
AcDbLine
 62
253
  6
CONTINUOUS
 10
272.6646604883
 20
-4.3149537323
 11
272.6645843685
 21
-4.3730199025
  0
LINE
  5
3AE
100
AcDbEntity
  8
RACCORDO
100
AcDbLine
 62
253
  6
CONTINUOUS
 10
272.6645843685
 20
-5.7970304566
 11
272.664584367
 21
-6.6486718059
  0
LWPOLYLINE
  5
3AF
100
AcDbEntity
  8
RACCORDO
100
AcDbPolyline
 62
253
  6
CONTINUOUS
 90
3
 70
0
 10
271.4440038951
 20
-3.5213785532
 10
271.4441836646
 20
-3.4346212488
 10
271.4440038936
 20
-3.2541544671
  0
LWPOLYLINE
  5
3B0
100
AcDbEntity
  8
RACCORDO
100
AcDbPolyline
 62
253
  6
CONTINUOUS
 90
3
 70
0
 10
272.664584367
 20
-6.6486718059
 10
272.6644045975
 20
-6.7354291103
 10
272.6645843685
 20
-6.9158958919
  0
LINE
  5
3B1
100
AcDbEntity
  8
RACCORDO
100
AcDbLine
 62
253
  6
CONTINUOUS
 10
271.4440038936
 20
-6.9158958919
 11
271.4439277738
 21
-5.8550966268
  0
LINE
  5
3B2
100
AcDbEntity
  8
RACCORDO
100
AcDbLine
 62
253
  6
CONTINUOUS
 10
272.6645843685
 20
-3.2541544671
 11
272.6646604883
 21
-4.3149537323
  0
LWPOLYLINE
  5
3B3
100
AcDbEntity
  8
RACCORDO
100
AcDbPolyline
 62
253
  6
CONTINUOUS
 90
13
 70
0
 10
271.3422888543
 20
-4.4747349423
 10
271.3422327839
 20
-4.4886648765
 10
271.3424110162
 20
-4.5025241038
 10
271.3428200889
 20
-4.5160433959
 10
271.3434520554
 20
-4.5289601281
 10
271.3442946391
 20
-4.5410233808
 10
271.3453314722
 20
-4.5519988144
 10
271.346542413
 20
-4.5616732208
 10
271.3479039381
 20
-4.5698586658
 10
271.3493895985
 20
-4.5763961396
 10
271.3509705339
 20
-4.5811586456
 10
271.3526160332
 20
-4.5840536678
 10
271.354294131
 20
-4.5850249677
  0
LWPOLYLINE
  5
3B4
100
AcDbEntity
  8
RACCORDO
100
AcDbPolyline
 62
253
  6
CONTINUOUS
 90
13
 70
0
 10
272.7662994078
 20
-5.6953154168
 10
272.7663554782
 20
-5.6813854826
 10
272.7661772459
 20
-5.6675262553
 10
272.7657681732
 20
-5.6540069632
 10
272.7651362067
 20
-5.641090231
 10
272.7642936229
 20
-5.6290269782
 10
272.7632567899
 20
-5.6180515447
 10
272.762045849
 20
-5.6083771382
 10
272.760684324
 20
-5.6001916933
 10
272.7591986636
 20
-5.5936542195
 10
272.7576177282
 20
-5.5888917135
 10
272.7559722289
 20
-5.5859966913
 10
272.754294131
 20
-5.5850253913
  0
LWPOLYLINE
  5
3B5
100
AcDbEntity
  8
RACCORDO
100
AcDbPolyline
 62
253
  6
CONTINUOUS
 90
13
 70
0
 10
270.2234234353
 20
-4.4747349476
 10
270.2232792466
 20
-4.488664901
 10
270.2237375515
 20
-4.5025241493
 10
270.2247894473
 20
-4.5160434635
 10
270.2264144996
 20
-4.5289602183
 10
270.2285811405
 20
-4.5410234934
 10
270.2312472808
 20
-4.5519989484
 10
270.2343611282
 20
-4.5616733747
 10
270.2378621933
 20
-4.5698588374
 10
270.2416824647
 20
-4.5763963262
 10
270.2457477301
 20
-4.5811588441
 10
270.2499790178
 20
-4.5840538748
 10
270.254294131
 20
-4.5850251795
  0
LWPOLYLINE
  5
3B6
100
AcDbEntity
  8
RACCORDO
100
AcDbPolyline
 62
253
  6
CONTINUOUS
 90
13
 70
0
 10
273.8851648267
 20
-5.6953154114
 10
273.8853090155
 20
-5.6813854581
 10
273.8848507105
 20
-5.6675262098
 10
273.8837988148
 20
-5.6540068956
 10
273.8821737625
 20
-5.6410901408
 10
273.8800071216
 20
-5.6290268657
 10
273.8773409813
 20
-5.6180514107
 10
273.8742271339
 20
-5.6083769844
 10
273.8707260688
 20
-5.6001915217
 10
273.8669057974
 20
-5.5936540329
 10
273.862840532
 20
-5.588891515
 10
273.8586092443
 20
-5.5859964843
 10
273.854294131
 20
-5.5850251795
  0
LWPOLYLINE
  5
3B7
100
AcDbEntity
  8
RACCORDO
100
AcDbPolyline
 62
253
  6
CONTINUOUS
 90
16
 70
0
 10
271.7491490138
 20
-2.9490093587
 10
271.7489358651
 20
-2.9613369798
 10
271.7488121494
 20
-2.9740599718
 10
271.7487799315
 20
-2.9869659801
 10
271.7488397491
 20
-2.9998395951
 10
271.7489906039
 20
-3.0124659482
 10
271.7492299778
 20
-3.0246342976
 10
271.7495538756
 20
-3.0361415459
 10
271.7499568911
 20
-3.0467956299
 10
271.750432298
 20
-3.0564187262
 10
271.7509721612
 20
-3.0648502193
 10
271.7515674702
 20
-3.0719493822
 10
271.752208289
 20
-3.0775977255
 10
271.7528839221
 20
-3.0817009748
 10
271.7535830926
 20
-3.0841906442
 10
271.754294131
 20
-3.0850251795
  0
LWPOLYLINE
  5
3B8
100
AcDbEntity
  8
RACCORDO
100
AcDbPolyline
 62
253
  6
CONTINUOUS
 90
16
 70
0
 10
272.3594392483
 20
-7.2210410004
 10
272.3596523969
 20
-7.2087133793
 10
272.3597761127
 20
-7.1959903873
 10
272.3598083306
 20
-7.183084379
 10
272.359748513
 20
-7.170210764
 10
272.3595976582
 20
-7.1575844109
 10
272.3593582843
 20
-7.1454160615
 10
272.3590343865
 20
-7.1339088132
 10
272.3586313709
 20
-7.1232547292
 10
272.3581559641
 20
-7.1136316329
 10
272.3576161009
 20
-7.1052001398
 10
272.3570207919
 20
-7.0981009769
 10
272.3563799731
 20
-7.0924526335
 10
272.35570434
 20
-7.0883493843
 10
272.3550051694
 20
-7.0858597149
 10
272.354294131
 20
-7.0850251795
  0
LWPOLYLINE
  5
3B9
100
AcDbEntity
  8
RACCORDO
100
AcDbPolyline
 62
253
  6
CONTINUOUS
 90
19
 70
0
 10
269.9182782999
 20
-4.7798800608
 10
269.9194180272
 20
-4.7537806027
 10
269.9227138521
 20
-4.7280954183
 10
269.9281501051
 20
-4.702894407
 10
269.9357361838
 20
-4.6781602533
 10
269.9454311045
 20
-4.6540484865
 10
269.957133707
 20
-4.6308824179
 10
269.9708288882
 20
-4.6087033582
 10
269.9864786083
 20
-4.5875895657
 10
270.0039290369
 20
-4.5679028941
 10
270.0232078266
 20
-4.5496460107
 10
270.044220116
 20
-4.532901571
 10
270.0666104027
 20
-4.5181160879
 10
270.0903761086
 20
-4.5052983377
 10
270.1154477065
 20
-4.4944553173
 10
270.1413578886
 20
-4.4859758325
 10
270.1679310155
 20
-4.4799545498
 10
270.1952909258
 20
-4.4762216604
 10
270.2234234186
 20
-4.4747349421
  0
LWPOLYLINE
  5
3BA
100
AcDbEntity
  8
RACCORDO
100
AcDbPolyline
 62
253
  6
CONTINUOUS
 90
19
 70
0
 10
274.1903099622
 20
-5.3901702983
 10
274.1891702348
 20
-5.4162697563
 10
274.18587441
 20
-5.4419549408
 10
274.1804381569
 20
-5.4671559521
 10
274.1728520782
 20
-5.4918901058
 10
274.1631571576
 20
-5.5160018726
 10
274.1514545551
 20
-5.5391679412
 10
274.1377593738
 20
-5.5613470009
 10
274.1221096537
 20
-5.5824607934
 10
274.1046592251
 20
-5.602147465
 10
274.0853804355
 20
-5.6204043484
 10
274.0643681461
 20
-5.6371487881
 10
274.0419778593
 20
-5.6519342712
 10
274.0182121534
 20
-5.6647520214
 10
273.9931405556
 20
-5.6755950418
 10
273.9672303734
 20
-5.6840745265
 10
273.9406572466
 20
-5.6900958093
 10
273.9132973363
 20
-5.6938286987
 10
273.8851648434
 20
-5.695315417
  0
LWPOLYLINE
  5
3BB
100
AcDbEntity
  8
RACCORDO
100
AcDbPolyline
 62
253
  6
CONTINUOUS
 90
19
 70
0
 10
271.4440038936
 20
-3.2541544671
 10
271.4456052269
 20
-3.2255135321
 10
271.4494351847
 20
-3.1978153605
 10
271.4555301255
 20
-3.1710742892
 10
271.4640486033
 20
-3.1452264718
 10
271.474892553
 20
-3.1203867989
 10
271.4876853785
 20
-3.0968415879
 10
271.5024153321
 20
-3.0746078966
 10
271.5190792742
 20
-3.0537395695
 10
271.5372673973
 20
-3.0345679893
 10
271.556911682
 20
-3.0171724609
 10
271.577998848
 20
-3.0015418507
 10
271.600166615
 20
-2.9878550052
 10
271.6233469434
 20
-2.9761540354
 10
271.6474893602
 20
-2.9664512314
 10
271.6722392822
 20
-2.9588613647
 10
271.6974303388
 20
-2.9534291143
 10
271.7230902208
 20
-2.9501400743
 10
271.7491490123
 20
-2.9490093484
  0
LWPOLYLINE
  5
3BC
100
AcDbEntity
  8
RACCORDO
100
AcDbPolyline
 62
253
  6
CONTINUOUS
 90
19
 70
0
 10
272.6645843685
 20
-6.9158958919
 10
272.6629830352
 20
-6.944536827
 10
272.6591530774
 20
-6.9722349985
 10
272.6530581365
 20
-6.9989760699
 10
272.6445396588
 20
-7.0248238873
 10
272.6336957091
 20
-7.0496635602
 10
272.6209028836
 20
-7.0732087711
 10
272.6061729299
 20
-7.0954424625
 10
272.5895089879
 20
-7.1163107895
 10
272.5713208648
 20
-7.1354823697
 10
272.5516765801
 20
-7.1528778982
 10
272.5305894141
 20
-7.1685085084
 10
272.508421647
 20
-7.1821953539
 10
272.4852413187
 20
-7.1938963237
 10
272.4610989018
 20
-7.2035991277
 10
272.4363489799
 20
-7.2111889944
 10
272.4111579233
 20
-7.2166212448
 10
272.3854980413
 20
-7.2199102848
 10
272.3594392498
 20
-7.2210410107
  0
LINE
  5
3BD
100
AcDbEntity
  8
0
100
AcDbLine
 62
7
  6
CONTINUOUS
 10
278.554294131
 20
44.9149748205
 11
278.554294131
 21
-55.0850251795
  0
LINE
  5
3BE
100
AcDbEntity
  8
0
100
AcDbLine
 62
253
  6
CONTINUOUS
 10
279.6631291395
 20
34.9149748205
 11
279.6631291395
 21
-45.0850251795
  0
LINE
  5
3BF
100
AcDbEntity
  8
0
100
AcDbLine
 62
253
  6
CONTINUOUS
 10
280.6183868836
 20
34.9149748205
 11
280.6183868836
 21
-45.0850251795
  0
LINE
  5
3C0
100
AcDbEntity
  8
0
100
AcDbLine
 62
253
  6
CONTINUOUS
 10
283.054294131
 20
34.9149748205
 11
283.054294131
 21
-45.0850251795
  0
LINE
  5
3C1
100
AcDbEntity
  8
0
100
AcDbLine
 62
7
  6
CONTINUOUS
 10
284.0892913795
 20
-55.5850251795
 11
284.0892913795
 21
-47.5850251795
  0
LINE
  5
3C2
100
AcDbEntity
  8
0
100
AcDbLine
 62
7
  6
CONTINUOUS
 10
284.0892913795
 20
-47.5850251795
 11
284.0892913795
 21
-45.5850251795
  0
LINE
  5
3C3
100
AcDbEntity
  8
0
100
AcDbLine
 62
7
  6
CONTINUOUS
 10
284.0892913795
 20
37.4149748205
 11
284.0892913795
 21
55.6149748205
  0
LINE
  5
3C4
100
AcDbEntity
  8
0
100
AcDbLine
 62
7
  6
CONTINUOUS
 10
286.0892913795
 20
-47.5850251795
 11
286.0892913795
 21
-45.0850251795
  0
LINE
  5
3C5
100
AcDbEntity
  8
0
100
AcDbLine
 62
7
  6
CONTINUOUS
 10
286.0892913795
 20
34.9149748205
 11
286.0892913795
 21
37.4149748205
  0
LWPOLYLINE
  5
3C6
100
AcDbEntity
  8
RACCORDO
100
AcDbPolyline
 62
253
  6
CONTINUOUS
 90
9
 70
0
 10
402.6478661727
 20
-7.2210410107
 10
402.6467994214
 20
-7.2199289696
 10
402.6464702686
 20
-7.216650333
 10
402.646879577
 20
-7.2112189812
 10
402.6480307306
 20
-7.2036166032
 10
402.6499162438
 20
-7.1938891302
 10
402.6525178588
 20
-7.1821594411
 10
402.6558335592
 20
-7.1684443751
 10
402.6598499584
 20
-7.1527826969
  0
LWPOLYLINE
  5
3C7
100
AcDbEntity
  8
RACCORDO
100
AcDbPolyline
 62
7
  6
CONTINUOUS
 90
7
 70
0
 10
402.6796297008
 20
-5.6011784911
 10
402.6807950174
 20
-5.6024780225
 10
402.6809677476
 20
-5.6026878798
 10
402.6801609286
 20
-5.6014022588
 10
402.6786008012
 20
-5.5985205367
 10
402.6764336302
 20
-5.5938648555
 10
402.6738236628
 20
-5.5873272232
  0
LINE
  5
3C8
100
AcDbEntity
  8
0
100
AcDbLine
 62
7
  6
CONTINUOUS
 10
330.3766246014
 20
45.4149748205
 11
330.3766246014
 21
55.6149748205
  0
LWPOLYLINE
  5
3C9
100
AcDbEntity
  8
RACCORDO
100
AcDbPolyline
 62
7
  6
CONTINUOUS
 90
11
 70
0
 10
402.9713222561
 20
-5.6398885544
 10
402.9661749104
 20
-5.6311996555
 10
402.960228923
 20
-5.6230577424
 10
402.9533734023
 20
-5.6153801493
 10
402.9455403202
 20
-5.6082227036
 10
402.9367605729
 20
-5.601750582
 10
402.9270502247
 20
-5.5961046071
 10
402.9163188627
 20
-5.591391897
 10
402.9045885576
 20
-5.587818959
 10
402.8920262092
 20
-5.5856323894
 10
402.8809432057
 20
-5.5850253947
  0
LINE
  5
3CA
100
AcDbEntity
  8
RACCORDO
100
AcDbLine
 62
7
  6
CONTINUOUS
 10
402.9828884693
 20
-4.3977453326
 11
402.9813993402
 21
-4.3831908019
  0
LINE
  5
3CB
100
AcDbEntity
  8
RACCORDO
100
AcDbLine
 62
7
  6
CONTINUOUS
 10
402.9839920373
 20
-4.4105171785
 11
402.9827893265
 21
-4.3966962417
  0
LINE
  5
3CC
100
AcDbEntity
  8
RACCORDO
100
AcDbLine
 62
7
  6
CONTINUOUS
 10
402.9848456934
 20
-4.4226102088
 11
402.983920852
 21
-4.4096185151
  0
LINE
  5
3CD
100
AcDbEntity
  8
RACCORDO
100
AcDbLine
 62
7
  6
CONTINUOUS
 10
402.6552982478
 20
-4.7930524858
 11
402.6545668432
 21
-4.7795100885
  0
LINE
  5
3CE
100
AcDbEntity
  8
RACCORDO
100
AcDbLine
 62
7
  6
CONTINUOUS
 10
402.9854550861
 20
-4.4339513233
 11
402.9847983524
 21
-4.4218549021
  0
LINE
  5
3CF
100
AcDbEntity
  8
RACCORDO
100
AcDbLine
 62
7
  6
CONTINUOUS
 10
402.6572684683
 20
-4.8331392071
 11
402.6551985213
 21
-4.7912059889
  0
LINE
  5
3D0
100
AcDbEntity
  8
RACCORDO
100
AcDbLine
 62
7
  6
CONTINUOUS
 10
402.6545621449
 20
-4.779510348
 11
402.6539530591
 21
-4.7661507913
  0
LINE
  5
3D1
100
AcDbEntity
  8
RACCORDO
100
AcDbLine
 62
7
  6
CONTINUOUS
 10
402.6589482004
 20
-4.8732390211
 11
402.657159026
 21
-4.8307462258
  0
LINE
  5
3D2
100
AcDbEntity
  8
RACCORDO
100
AcDbLine
 62
253
  6
CONTINUOUS
 10
402.6478661727
 20
-4.7798800608
 11
402.6468033398
 21
-4.7537806027
  0
LINE
  5
3D3
100
AcDbEntity
  8
RACCORDO
100
AcDbLine
 62
7
  6
CONTINUOUS
 10
402.6603373394
 20
-4.9133495672
 11
402.6588561048
 21
-4.8708454626
  0
LWPOLYLINE
  5
3D4
100
AcDbEntity
  8
RACCORDO
100
AcDbPolyline
 62
253
  6
CONTINUOUS
 90
13
 70
0
 10
402.979685584
 20
-4.4747349423
 10
402.9801467638
 20
-4.4886648765
 10
402.9786808298
 20
-4.5025241038
 10
402.975316259
 20
-4.5160433959
 10
402.9701184114
 20
-4.5289601281
 10
402.9631882601
 20
-4.5410233808
 10
402.9546604294
 20
-4.5519988144
 10
402.9447005806
 20
-4.5616732208
 10
402.9335021927
 20
-4.5698586658
 10
402.921282805
 20
-4.5763961396
 10
402.9082797901
 20
-4.5811586456
 10
402.8947457438
 20
-4.5840536678
 10
402.8809435773
 20
-4.5850249677
  0
LWPOLYLINE
  5
3D5
100
AcDbEntity
  8
RACCORDO
100
AcDbPolyline
 62
253
  6
CONTINUOUS
 90
10
 70
0
 10
402.731508616
 20
-4.4747349476
 10
402.7319502683
 20
-4.488664901
 10
402.7305464735
 20
-4.5025241493
 10
402.7273245015
 20
-4.5160434635
 10
402.7223469422
 20
-4.5289602183
 10
402.7157104895
 20
-4.5410234934
 10
402.7075440626
 20
-4.5519989484
 10
402.6980063021
 20
-4.5616733747
 10
402.687282488
 20
-4.5698588374
 10
402.6766166209
 20
-4.5758177063
  0
LWPOLYLINE
  5
3D6
100
AcDbEntity
  8
0
100
AcDbPolyline
 62
7
  6
CONTINUOUS
 90
19
 70
0
 10
374.3766246014
 20
42.4149748205
 10
374.3698370845
 20
42.6386115034
 10
374.3437075013
 20
42.8662219468
 10
374.2982358517
 20
43.0963422785
 10
374.2336856519
 20
43.327846669
 10
374.1497933856
 20
43.5583823338
 10
374.0457685047
 20
43.7845261926
 10
373.9208274072
 20
44.0041093575
 10
373.7757536951
 20
44.2153689359
 10
373.612107625
 20
44.415632853
 10
373.4297207849
 20
44.6024792327
 10
373.2287615869
 20
44.7745113616
 10
373.011295524
 20
44.9304881159
 10
372.7775429961
 20
45.0679168539
 10
372.5272836032
 20
45.1852014369
 10
372.261921638
 20
45.2813877984
 10
371.9819251981
 20
45.3538366359
 10
371.6868261859
 20
45.3992647237
 10
371.3766246014
 20
45.4149748205
  0
LINE
  5
3D7
100
AcDbEntity
  8
RACCORDO
100
AcDbLine
 62
7
  6
CONTINUOUS
 10
402.661435828
 20
-4.9534688839
 11
402.6602625899
 21
-4.9109554778
  0
LINE
  5
3D8
100
AcDbEntity
  8
RACCORDO
100
AcDbLine
 62
7
  6
CONTINUOUS
 10
402.6539851798
 20
-4.7673959825
 11
402.653399799
 21
-4.7447031092
  0
LINE
  5
3D9
100
AcDbEntity
  8
RACCORDO
100
AcDbLine
 62
7
  6
CONTINUOUS
 10
402.6622436169
 20
-4.9935951498
 11
402.6613784261
 21
-4.9510743292
  0
LINE
  5
3DA
100
AcDbEntity
  8
RACCORDO
100
AcDbLine
 62
7
  6
CONTINUOUS
 10
402.6627606632
 20
-5.0337263331
 11
402.6622035636
 21
-4.99120018
  0
LWPOLYLINE
  5
3DB
100
AcDbEntity
  8
RACCORDO
100
AcDbPolyline
 62
253
  6
CONTINUOUS
 90
7
 70
0
 10
402.6468033398
 20
-4.7537806027
 10
402.6464761339
 20
-4.7280954183
 10
402.6468854102
 20
-4.702894407
 10
402.6480336409
 20
-4.6781602533
 10
402.6499142725
 20
-4.6540484865
 10
402.6525118035
 20
-4.6308824179
 10
402.6558222326
 20
-4.6087033582
  0
LINE
  5
3DC
100
AcDbEntity
  8
RACCORDO
100
AcDbLine
 62
7
  6
CONTINUOUS
 10
402.6629869481
 20
-5.0738600091
 11
402.6627379609
 21
-5.0313309729
  0
LWPOLYLINE
  5
3DD
100
AcDbEntity
  8
RACCORDO
100
AcDbPolyline
 62
253
  6
CONTINUOUS
 90
10
 70
0
 10
402.656287324
 20
-5.0850251795
 10
402.6561835349
 20
-5.0511147641
 10
402.6558720433
 20
-5.0172216022
 10
402.6553526141
 20
-4.9833286588
 10
402.6546237632
 20
-4.9493877086
 10
402.6536860316
 20
-4.9154129861
 10
402.6525419985
 20
-4.8814816548
 10
402.6511919142
 20
-4.8476087826
 10
402.6496336883
 20
-4.8137469203
 10
402.6478661727
 20
-4.7798800608
  0
LINE
  5
3DE
100
AcDbEntity
  8
0
100
AcDbLine
 62
7
  6
CONTINUOUS
 10
374.054294131
 20
45.9149748205
 11
374.054294131
 21
55.6149748205
  0
LINE
  5
3DF
100
AcDbEntity
  8
0
100
AcDbLine
 62
253
  6
CONTINUOUS
 10
374.3766246014
 20
42.4149748205
 11
374.3766246014
 21
-52.5850251795
  0
LINE
  5
3E0
100
AcDbEntity
  8
0
100
AcDbLine
 62
7
  6
CONTINUOUS
 10
374.3766246014
 20
-55.5850251795
 11
374.3766246014
 21
-52.5850251795
  0
LINE
  5
3E1
100
AcDbEntity
  8
0
100
AcDbLine
 62
7
  6
CONTINUOUS
 10
376.554294131
 20
45.9149748205
 11
376.554294131
 21
55.6149748205
  0
LINE
  5
3E2
100
AcDbEntity
  8
0
100
AcDbLine
 62
7
  6
CONTINUOUS
 10
377.054294131
 20
45.4149748205
 11
377.054294131
 21
42.9149748205
  0
LINE
  5
3E3
100
AcDbEntity
  8
0
100
AcDbLine
 62
253
  6
CONTINUOUS
 10
380.0334788509
 20
42.4149748205
 11
380.0334788509
 21
-52.5850251795
  0
LINE
  5
3E4
100
AcDbEntity
  8
0
100
AcDbLine
 62
7
  6
CONTINUOUS
 10
385.0539369973
 20
-55.5850251795
 11
385.0539369973
 21
-53.0850251795
  0
LINE
  5
3E5
100
AcDbEntity
  8
0
100
AcDbLine
 62
7
  6
CONTINUOUS
 10
385.5753510152
 20
-55.5850251795
 11
385.5753510152
 21
-53.0850251795
  0
LINE
  5
3E6
100
AcDbEntity
  8
0
100
AcDbLine
 62
7
  6
CONTINUOUS
 10
386.3267292034
 20
-55.5850251795
 11
386.3267292034
 21
-53.0850251795
  0
LINE
  5
3E7
100
AcDbEntity
  8
0
100
AcDbLine
 62
7
  6
CONTINUOUS
 10
388.054294131
 20
42.9149748205
 11
388.054294131
 21
42.4149748205
  0
LINE
  5
3E8
100
AcDbEntity
  8
0
100
AcDbLine
 62
7
  6
CONTINUOUS
 10
388.054294131
 20
-53.0850251795
 11
388.054294131
 21
-52.5850251795
  0
LINE
  5
3E9
100
AcDbEntity
  8
0
100
AcDbLine
 62
253
  6
CONTINUOUS
 10
396.054294131
 20
42.9149748205
 11
396.054294131
 21
42.4149748205
  0
LINE
  5
3EA
100
AcDbEntity
  8
0
100
AcDbLine
 62
253
  6
CONTINUOUS
 10
396.054294131
 20
-53.0850251795
 11
396.054294131
 21
-52.5850251795
  0
LINE
  5
3EB
100
AcDbEntity
  8
0
100
AcDbLine
 62
7
  6
CONTINUOUS
 10
397.0040415993
 20
-53.0850251795
 11
397.0040415993
 21
-55.5850251795
  0
LINE
  5
3EC
100
AcDbEntity
  8
0
100
AcDbLine
 62
7
  6
CONTINUOUS
 10
397.054294131
 20
45.4149748205
 11
397.054294131
 21
42.9149748205
  0
LINE
  5
3ED
100
AcDbEntity
  8
0
100
AcDbLine
 62
253
  6
CONTINUOUS
 10
397.054294131
 20
-55.5850251795
 11
397.054294131
 21
-53.0850251795
  0
LINE
  5
3EE
100
AcDbEntity
  8
0
100
AcDbLine
 62
253
  6
CONTINUOUS
 10
397.7111483805
 20
42.4149748205
 11
397.7111483805
 21
-52.5850251795
  0
LINE
  5
3EF
100
AcDbEntity
  8
0
100
AcDbLine
 62
7
  6
CONTINUOUS
 10
400.054294131
 20
-52.5850251795
 11
400.054294131
 21
42.4149748205
  0
LINE
  5
3F0
100
AcDbEntity
  8
0
100
AcDbLine
 62
253
  6
CONTINUOUS
 10
400.363555876
 20
-10.0525419581
 11
400.363555876
 21
-0.117508401
  0
LINE
  5
3F1
100
AcDbEntity
  8
RACCORDO
100
AcDbLine
 62
7
  6
CONTINUOUS
 10
402.6629816008
 20
-5.0985860808
 11
402.6629816008
 21
-5.0714642782
  0
LWPOLYLINE
  5
3F2
100
AcDbEntity
  8
RACCORDO
100
AcDbPolyline
 62
7
  6
CONTINUOUS
 90
10
 70
0
 10
402.653399799
 20
-4.7447031092
 10
402.653458232
 20
-4.7225914611
 10
402.6541384026
 20
-4.7013067531
 10
402.6553929528
 20
-4.6811273726
 10
402.6571566532
 20
-4.6622128427
 10
402.6593657217
 20
-4.6447166427
 10
402.6619274413
 20
-4.6288649277
 10
402.664744571
 20
-4.6147342758
 10
402.6677155675
 20
-4.602378147
 10
402.6707024547
 20
-4.5919325878
  0
LINE
  5
3F3
100
AcDbEntity
  8
RACCORDO
100
AcDbLine
 62
7
  6
CONTINUOUS
 10
402.6627379609
 20
-5.1387193861
 11
402.6629838641
 21
-5.0967373299
  0
LINE
  5
3F4
100
AcDbEntity
  8
RACCORDO
100
AcDbLine
 62
7
  6
CONTINUOUS
 10
402.6622035636
 20
-5.1788501791
 11
402.6627606632
 21
-5.136324026
  0
LWPOLYLINE
  5
3F5
100
AcDbEntity
  8
RACCORDO
100
AcDbPolyline
 62
7
  6
CONTINUOUS
 90
6
 70
0
 10
402.9858296462
 20
-5.7255164083
 10
402.98597491
 20
-5.7156984791
 10
402.9858954439
 20
-5.7065630388
 10
402.9855879137
 20
-5.6980399993
 10
402.9850370802
 20
-5.6900006955
 10
402.9841868835
 20
-5.6820988307
  0
LINE
  5
3F6
100
AcDbEntity
  8
RACCORDO
100
AcDbLine
 62
7
  6
CONTINUOUS
 10
402.6613784261
 20
-5.2189760299
 11
402.6622436169
 21
-5.1764552093
  0
LWPOLYLINE
  5
3F7
100
AcDbEntity
  8
RACCORDO
100
AcDbPolyline
 62
7
  6
CONTINUOUS
 90
3
 70
0
 10
402.6533699362
 20
-5.428216234
 10
402.6538765632
 20
-5.4055723976
 10
402.6545639595
 20
-5.3905402612
  0
LINE
  5
3F8
100
AcDbEntity
  8
RACCORDO
100
AcDbLine
 62
7
  6
CONTINUOUS
 10
402.6602625899
 20
-5.2590948813
 11
402.661435828
 21
-5.2165814752
  0
LWPOLYLINE
  5
3F9
100
AcDbEntity
  8
RACCORDO
100
AcDbPolyline
 62
253
  6
CONTINUOUS
 90
10
 70
0
 10
402.7315046307
 20
-5.6953149773
 10
402.7319474811
 20
-5.6813846923
 10
402.7305447306
 20
-5.667524952
 10
402.7273236323
 20
-5.6540050265
 10
402.7223467661
 20
-5.6410875837
 10
402.7157108238
 20
-5.6290235863
 10
402.7075447297
 20
-5.6180474162
 10
402.6980071364
 20
-5.6083723207
 10
402.6872833422
 20
-5.6001862695
 10
402.6765968484
 20
-5.5942154934
  0
LWPOLYLINE
  5
3FA
100
AcDbEntity
  8
RACCORDO
100
AcDbPolyline
 62
253
  6
CONTINUOUS
 90
10
 70
0
 10
402.9796855673
 20
-5.695315415
 10
402.980146765
 20
-5.6813854585
 10
402.9786808459
 20
-5.6675262071
 10
402.9753162867
 20
-5.6540068899
 10
402.9701184472
 20
-5.6410901325
 10
402.9631883006
 20
-5.6290268554
 10
402.9546604714
 20
-5.618051399
 10
402.9447006208
 20
-5.6083769722
 10
402.9335022285
 20
-5.60019151
 10
402.921282834
 20
-5.5936540226
  0
LINE
  5
3FB
100
AcDbEntity
  8
RACCORDO
100
AcDbLine
 62
7
  6
CONTINUOUS
 10
402.6588561048
 20
-5.2992048965
 11
402.6603373394
 21
-5.2567007918
  0
LINE
  5
3FC
100
AcDbEntity
  8
RACCORDO
100
AcDbLine
 62
7
  6
CONTINUOUS
 10
402.9854270815
 20
-5.7367200357
 11
402.9858165485
 21
-5.7260111044
  0
LINE
  5
3FD
100
AcDbEntity
  8
RACCORDO
100
AcDbLine
 62
253
  6
CONTINUOUS
 10
402.6468034515
 20
-5.4161881221
 11
402.6478661727
 21
-5.3901702983
  0
LINE
  5
3FE
100
AcDbEntity
  8
RACCORDO
100
AcDbLine
 62
7
  6
CONTINUOUS
 10
402.657159026
 20
-5.3393041333
 11
402.6589482004
 21
-5.296811338
  0
LINE
  5
3FF
100
AcDbEntity
  8
RACCORDO
100
AcDbLine
 62
7
  6
CONTINUOUS
 10
402.6551714535
 20
-5.3793902826
 11
402.6572684683
 21
-5.3369111519
  0
LWPOLYLINE
  5
400
100
AcDbEntity
  8
RACCORDO
100
AcDbPolyline
 62
253
  6
CONTINUOUS
 90
10
 70
0
 10
402.6478661727
 20
-5.3901702983
 10
402.6496337077
 20
-5.3563029554
 10
402.6511919461
 20
-5.3224407545
 10
402.652542036
 20
-5.2885676879
 10
402.6536860653
 20
-5.2546363354
 10
402.6546237862
 20
-5.2206617341
 10
402.6553526277
 20
-5.1867209569
 10
402.6558720513
 20
-5.1528282088
 10
402.6561835383
 20
-5.1189352947
 10
402.656287324
 20
-5.0850251795
  0
LINE
  5
401
100
AcDbEntity
  8
RACCORDO
100
AcDbLine
 62
7
  6
CONTINUOUS
 10
402.6545668432
 20
-5.3905402706
 11
402.6552982478
 21
-5.3769978733
  0
LINE
  5
402
100
AcDbEntity
  8
RACCORDO
100
AcDbLine
 62
7
  6
CONTINUOUS
 10
402.9847983524
 20
-5.748195457
 11
402.9854550861
 21
-5.7360990358
  0
LINE
  5
403
100
AcDbEntity
  8
RACCORDO
100
AcDbLine
 62
7
  6
CONTINUOUS
 10
402.983920852
 20
-5.7604318439
 11
402.9848456934
 21
-5.7474401503
  0
LINE
  5
404
100
AcDbEntity
  8
RACCORDO
100
AcDbLine
 62
7
  6
CONTINUOUS
 10
402.9827893265
 20
-5.7733541174
 11
402.9839920373
 21
-5.7595331806
  0
LWPOLYLINE
  5
405
100
AcDbEntity
  8
RACCORDO
100
AcDbPolyline
 62
253
  6
CONTINUOUS
 90
20
 70
0
 10
402.9817737367
 20
-5.778034004
 10
402.9826119445
 20
-5.7690232794
 10
402.9833188732
 20
-5.7602006592
 10
402.9838935698
 20
-5.7516645323
 10
402.984329146
 20
-5.7437493112
 10
402.9846147634
 20
-5.7365304568
 10
402.9847634249
 20
-5.7298995708
 10
402.9848034162
 20
-5.7239282292
 10
402.9847324925
 20
-5.7186629434
 10
402.9845528261
 20
-5.7140433203
 10
402.9842989871
 20
-5.7099966364
 10
402.9839723691
 20
-5.706541214
 10
402.9835706716
 20
-5.7036604191
 10
402.983123128
 20
-5.701239461
 10
402.9826329318
 20
-5.6992853886
 10
402.982096035
 20
-5.6978008981
 10
402.9815312084
 20
-5.6966686062
 10
402.9809446001
 20
-5.6958530654
 10
402.9803295009
 20
-5.6954002648
 10
402.9796855863
 20
-5.695315417
  0
LINE
  5
406
100
AcDbEntity
  8
RACCORDO
100
AcDbLine
 62
7
  6
CONTINUOUS
 10
402.9813993402
 20
-5.7868595572
 11
402.9828884693
 21
-5.7723050265
  0
LINE
  5
407
100
AcDbEntity
  8
RACCORDO
100
AcDbLine
 62
7
  6
CONTINUOUS
 10
402.9802119924
 20
-5.7970944533
 11
402.9815320679
 21
-5.7856544693
  0
LINE
  5
408
100
AcDbEntity
  8
RACCORDO
100
AcDbLine
 62
253
  6
CONTINUOUS
 10
402.9640668939
 20
-5.9154177603
 11
402.9723253367
 21
-5.8550966268
  0
LWPOLYLINE
  5
409
100
AcDbEntity
  8
RACCORDO
100
AcDbPolyline
 62
7
  6
CONTINUOUS
 90
8
 70
0
 10
402.9829341088
 20
-4.4959853746
 10
402.9841923179
 20
-4.4879087798
 10
402.9850472839
 20
-4.4799336108
 10
402.9855975573
 20
-4.4718193705
 10
402.9859013419
 20
-4.4632111757
 10
402.9859735563
 20
-4.4539752391
 10
402.9858165485
 20
-4.4440392547
 10
402.9854270815
 20
-4.4333303234
  0
LINE
  5
40A
100
AcDbEntity
  8
RACCORDO
100
AcDbLine
 62
253
  6
CONTINUOUS
 10
402.944549569
 20
-6.0427652435
 11
402.9548332956
 21
-5.9780044032
  0
LINE
  5
40B
100
AcDbEntity
  8
RACCORDO
100
AcDbLine
 62
7
  6
CONTINUOUS
 10
402.6530339373
 20
-7.1872819231
 11
402.6534901429
 21
-7.1845146615
  0
LINE
  5
40C
100
AcDbEntity
  8
RACCORDO
100
AcDbLine
 62
253
  6
CONTINUOUS
 10
402.9204400518
 20
-6.1792574311
 11
402.9331230542
 21
-6.1097702255
  0
LWPOLYLINE
  5
40D
100
AcDbEntity
  8
RACCORDO
100
AcDbPolyline
 62
7
  6
CONTINUOUS
 90
8
 70
0
 10
402.6534901429
 20
-7.1845146615
 10
402.6538139038
 20
-7.1827776051
 10
402.6542865486
 20
-7.1803894455
 10
402.6548836341
 20
-7.1775220211
 10
402.6555864097
 20
-7.1742926198
 10
402.6563897234
 20
-7.1707384509
 10
402.6573022437
 20
-7.1668318871
 10
402.6583205746
 20
-7.1625963129
  0
LINE
  5
40E
100
AcDbEntity
  8
RACCORDO
100
AcDbLine
 62
253
  6
CONTINUOUS
 10
402.6558222326
 20
-4.6087033582
 11
402.6598341802
 21
-4.5875895657
  0
LINE
  5
40F
100
AcDbEntity
  8
RACCORDO
100
AcDbLine
 62
253
  6
CONTINUOUS
 10
402.8908839447
 20
-6.3256248418
 11
402.9063923053
 21
-6.2512358474
  0
LINE
  5
410
100
AcDbEntity
  8
RACCORDO
100
AcDbLine
 62
253
  6
CONTINUOUS
 10
402.6598341802
 20
-4.5875895657
 11
402.664518601
 21
-4.5679028941
  0
LINE
  5
411
100
AcDbEntity
  8
RACCORDO
100
AcDbLine
 62
7
  6
CONTINUOUS
 10
402.6583205746
 20
-7.1625963129
 11
402.6596422789
 21
-7.1572577081
  0
LWPOLYLINE
  5
412
100
AcDbEntity
  8
RACCORDO
100
AcDbPolyline
 62
253
  6
CONTINUOUS
 90
3
 70
0
 10
402.8345355515
 20
-6.5635026352
 10
402.8550700302
 20
-6.4818161827
 10
402.8738100573
 20
-6.4025190531
  0
LINE
  5
413
100
AcDbEntity
  8
RACCORDO
100
AcDbLine
 62
7
  6
CONTINUOUS
 10
402.6594451648
 20
-7.1580354591
 11
402.660895306
 21
-7.1522970398
  0
LINE
  5
414
100
AcDbEntity
  8
RACCORDO
100
AcDbLine
 62
7
  6
CONTINUOUS
 10
402.6606757544
 20
-7.1531537345
 11
402.6634379021
 21
-7.1424972996
  0
LINE
  5
415
100
AcDbEntity
  8
RACCORDO
100
AcDbLine
 62
7
  6
CONTINUOUS
 10
402.6622477622
 20
-7.1470421592
 11
402.6652479029
 21
-7.1356809493
  0
LWPOLYLINE
  5
416
100
AcDbEntity
  8
RACCORDO
100
AcDbPolyline
 62
253
  6
CONTINUOUS
 90
6
 70
0
 10
402.6598499584
 20
-7.1527826969
 10
402.6645294184
 20
-7.1353507951
 10
402.6698749836
 20
-7.1161348209
 10
402.6758579179
 20
-7.0952170201
 10
402.6823923017
 20
-7.0729346901
 10
402.6855240984
 20
-7.0645103062
  0
LINE
  5
417
100
AcDbEntity
  8
RACCORDO
100
AcDbLine
 62
7
  6
CONTINUOUS
 10
402.664968575
 20
-7.1367306568
 11
402.6686457681
 21
-7.1231921467
  0
LINE
  5
418
100
AcDbEntity
  8
RACCORDO
100
AcDbLine
 62
7
  6
CONTINUOUS
 10
402.6683215188
 20
-7.1243703048
 11
402.6724348741
 21
-7.1096130763
  0
LINE
  5
419
100
AcDbEntity
  8
RACCORDO
100
AcDbLine
 62
7
  6
CONTINUOUS
 10
402.6720612842
 20
-7.1109335777
 11
402.6766037885
 21
-7.0949833556
  0
LINE
  5
41A
100
AcDbEntity
  8
RACCORDO
100
AcDbLine
 62
7
  6
CONTINUOUS
 10
402.6761838361
 20
-7.0964455415
 11
402.6811417381
 21
-7.0793544582
  0
LWPOLYLINE
  5
41B
100
AcDbEntity
  8
RACCORDO
100
AcDbPolyline
 62
253
  6
CONTINUOUS
 90
10
 70
0
 10
402.664518601
 20
-4.5679028941
 10
402.669882375
 20
-4.5496460107
 10
402.6758924713
 20
-4.532901571
 10
402.6824592538
 20
-4.5181160879
 10
402.6895797382
 20
-4.5052983377
 10
402.6972243403
 20
-4.4944553173
 10
402.7052664279
 20
-4.4859758325
 10
402.7136543619
 20
-4.4799545498
 10
402.7224077376
 20
-4.4762216604
 10
402.7315086671
 20
-4.4747349421
  0
LINE
  5
41C
100
AcDbEntity
  8
RACCORDO
100
AcDbLine
 62
7
  6
CONTINUOUS
 10
402.680674787
 20
-7.0809552449
 11
402.6860404195
 21
-7.0627739764
  0
LWPOLYLINE
  5
41D
100
AcDbEntity
  8
RACCORDO
100
AcDbPolyline
 62
253
  6
CONTINUOUS
 90
3
 70
0
 10
402.6886226326
 20
-7.0541388872
 10
402.6894627168
 20
-7.0493242522
 10
402.6912904732
 20
-7.045284551
  0
LWPOLYLINE
  5
41E
100
AcDbEntity
  8
RACCORDO
100
AcDbPolyline
 62
253
  6
CONTINUOUS
 90
3
 70
0
 10
402.7606672952
 20
-6.8241220377
 10
402.787467739
 20
-6.7347287933
 10
402.8120492383
 20
-6.6477984689
  0
LINE
  5
41F
100
AcDbEntity
  8
RACCORDO
100
AcDbLine
 62
7
  6
CONTINUOUS
 10
402.6855240984
 20
-7.0645103062
 11
402.6934485441
 21
-7.0381612034
  0
LWPOLYLINE
  5
420
100
AcDbEntity
  8
RACCORDO
100
AcDbPolyline
 62
253
  6
CONTINUOUS
 90
3
 70
0
 10
402.6940414402
 20
-7.0362188363
 10
402.6970527437
 20
-7.0244205313
 10
402.6991425688
 20
-7.019560093
  0
LINE
  5
421
100
AcDbEntity
  8
RACCORDO
100
AcDbLine
 62
7
  6
CONTINUOUS
 10
402.6912904732
 20
-7.045284551
 11
402.6997828901
 21
-7.0174862972
  0
LWPOLYLINE
  5
422
100
AcDbEntity
  8
RACCORDO
100
AcDbPolyline
 62
253
  6
CONTINUOUS
 90
3
 70
0
 10
402.7027702539
 20
-7.0078316794
 10
402.7050765409
 20
-6.9985686885
 10
402.7082548831
 20
-6.9902579276
  0
LINE
  5
423
100
AcDbEntity
  8
RACCORDO
100
AcDbLine
 62
7
  6
CONTINUOUS
 10
402.6991425688
 20
-7.019560093
 11
402.708967467
 21
-6.9879862081
  0
LWPOLYLINE
  5
424
100
AcDbEntity
  8
RACCORDO
100
AcDbPolyline
 62
253
  6
CONTINUOUS
 90
5
 70
0
 10
402.6478587621
 20
-7.2210381446
 10
402.6517187288
 20
-7.2087104713
 10
402.6539595431
 20
-7.1959872395
 10
402.6545437993
 20
-7.183080838
 10
402.6543086643
 20
-7.1802832375
  0
LWPOLYLINE
  5
425
100
AcDbEntity
  8
RACCORDO
100
AcDbPolyline
 62
253
  6
CONTINUOUS
 90
3
 70
0
 10
402.7121736802
 20
-6.9778091333
 10
402.7134946867
 20
-6.9719033007
 10
402.71800031
 20
-6.9594652281
  0
LWPOLYLINE
  5
426
100
AcDbEntity
  8
RACCORDO
100
AcDbPolyline
 62
7
  6
CONTINUOUS
 90
10
 70
0
 10
402.7320132408
 20
-6.916060623
 10
402.7636282072
 20
-6.816228443
 10
402.8014173561
 20
-6.6879505941
 10
402.8362888276
 20
-6.5588507229
 10
402.868224763
 20
-6.4289956725
 10
402.8972096337
 20
-6.2984487538
 10
402.9232288956
 20
-6.1672759255
 10
402.946268699
 20
-6.035544878
 10
402.9663172656
 20
-5.9033223065
 10
402.9802125582
 20
-5.7970944695
  0
LINE
  5
427
100
AcDbEntity
  8
RACCORDO
100
AcDbLine
 62
7
  6
CONTINUOUS
 10
402.7082548831
 20
-6.9902579276
 11
402.718788288
 21
-6.9569921075
  0
LINE
  5
428
100
AcDbEntity
  8
RACCORDO
100
AcDbLine
 62
253
  6
CONTINUOUS
 10
402.7213781444
 20
-6.948910506
 11
402.7223118383
 21
-6.944340951
  0
LINE
  5
429
100
AcDbEntity
  8
RACCORDO
100
AcDbLine
 62
7
  6
CONTINUOUS
 10
402.71800031
 20
-6.9594652281
 11
402.7283097981
 21
-6.92742913
  0
LINE
  5
42A
100
AcDbEntity
  8
RACCORDO
100
AcDbLine
 62
7
  6
CONTINUOUS
 10
402.7283097981
 20
-6.92742913
 11
402.7320099054
 21
-6.9160595344
  0
LWPOLYLINE
  5
42B
100
AcDbEntity
  8
RACCORDO
100
AcDbPolyline
 62
7
  6
CONTINUOUS
 90
6
 70
0
 10
402.6707024547
 20
-4.5919325878
 10
402.6735860657
 20
-4.5833680858
 10
402.6762351313
 20
-4.5766472203
 10
402.6784495881
 20
-4.571832088
 10
402.6800680302
 20
-4.5688080176
 10
402.6803094214
 20
-4.5683993663
  0
LWPOLYLINE
  5
42C
100
AcDbEntity
  8
RACCORDO
100
AcDbPolyline
 62
7
  6
CONTINUOUS
 90
13
 70
0
 10
402.9787445169
 20
-5.65741867
 10
402.9754403213
 20
-5.6485675728
 10
402.9711139322
 20
-5.6394979983
 10
402.9658708646
 20
-5.6307408013
 10
402.9598150978
 20
-5.6225481921
 10
402.9528348696
 20
-5.6148382674
 10
402.9448610723
 20
-5.6076684766
 10
402.9359264821
 20
-5.6012078572
 10
402.9260509151
 20
-5.5956022579
 10
402.9151464831
 20
-5.5909642834
 10
402.9032405622
 20
-5.587505836
 10
402.8905082702
 20
-5.585477187
 10
402.880938794
 20
-5.5850252636
  0
LWPOLYLINE
  5
42D
100
AcDbEntity
  8
RACCORDO
100
AcDbPolyline
 62
7
  6
CONTINUOUS
 90
11
 70
0
 10
402.6738236628
 20
-5.5873272232
 10
402.6709708386
 20
-5.5789723697
 10
402.6680035848
 20
-5.5687601042
 10
402.6650413864
 20
-5.556658921
 10
402.6622224933
 20
-5.5427971018
 10
402.6596419985
 20
-5.5272180218
 10
402.6573948143
 20
-5.5099856675
 10
402.655581255
 20
-5.4913093845
 10
402.6542672875
 20
-5.4713362452
 10
402.6535104096
 20
-5.4502167208
 10
402.6533699362
 20
-5.428216234
  0
LINE
  5
42E
100
AcDbEntity
  8
RACCORDO
100
AcDbLine
 62
7
  6
CONTINUOUS
 10
402.7320099054
 20
-3.2539908247
 11
402.7221902927
 21
-3.2236756328
  0
LINE
  5
42F
100
AcDbEntity
  8
RACCORDO
100
AcDbLine
 62
253
  6
CONTINUOUS
 10
402.7222513554
 20
-3.2255135321
 11
402.7221902927
 21
-3.2236756328
  0
LINE
  5
430
100
AcDbEntity
  8
RACCORDO
100
AcDbLine
 62
253
  6
CONTINUOUS
 10
402.7187857844
 20
-3.2130504159
 11
402.7133914839
 21
-3.1978153605
  0
LINE
  5
431
100
AcDbEntity
  8
RACCORDO
100
AcDbLine
 62
7
  6
CONTINUOUS
 10
402.7221902927
 20
-3.2236756328
 11
402.7121689175
 21
-3.1922261516
  0
LWPOLYLINE
  5
432
100
AcDbEntity
  8
RACCORDO
100
AcDbPolyline
 62
253
  6
CONTINUOUS
 90
5
 70
0
 10
402.6478661461
 20
-2.9490093587
 10
402.6517249828
 20
-2.9613369798
 10
402.6539647287
 20
-2.9740599718
 10
402.6545480012
 20
-2.9869659801
 10
402.6543106365
 20
-2.9897876996
  0
LINE
  5
433
100
AcDbEntity
  8
RACCORDO
100
AcDbLine
 62
7
  6
CONTINUOUS
 10
402.7121689175
 20
-3.1922261516
 11
402.7027615625
 21
-3.1621906768
  0
LINE
  5
434
100
AcDbEntity
  8
RACCORDO
100
AcDbLine
 62
7
  6
CONTINUOUS
 10
402.7027615625
 20
-3.1621906768
 11
402.694028738
 21
-3.1337898041
  0
LWPOLYLINE
  5
435
100
AcDbEntity
  8
RACCORDO
100
AcDbPolyline
 62
253
  6
CONTINUOUS
 90
6
 70
0
 10
402.6835292166
 20
-3.0988113465
 10
402.6823111164
 20
-3.0968415879
 10
402.6757925278
 20
-3.0746078966
 10
402.6698252434
 20
-3.0537395695
 10
402.664493438
 20
-3.0345679893
 10
402.6598250639
 20
-3.0171724609
  0
LINE
  5
436
100
AcDbEntity
  8
RACCORDO
100
AcDbLine
 62
7
  6
CONTINUOUS
 10
402.694028738
 20
-3.1337898041
 11
402.6860242515
 21
-3.1072221011
  0
LINE
  5
437
100
AcDbEntity
  8
RACCORDO
100
AcDbLine
 62
7
  6
CONTINUOUS
 10
402.6860242515
 20
-3.1072221011
 11
402.6811238221
 21
-3.0906347374
  0
LINE
  5
438
100
AcDbEntity
  8
RACCORDO
100
AcDbLine
 62
7
  6
CONTINUOUS
 10
402.6811238221
 20
-3.0906347374
 11
402.6765847129
 21
-3.0750006921
  0
LINE
  5
439
100
AcDbEntity
  8
RACCORDO
100
AcDbLine
 62
7
  6
CONTINUOUS
 10
402.6765847129
 20
-3.0750006921
 11
402.6724152809
 21
-3.0603678292
  0
LWPOLYLINE
  5
43A
100
AcDbEntity
  8
RACCORDO
100
AcDbPolyline
 62
253
  6
CONTINUOUS
 90
3
 70
0
 10
402.8118092395
 20
-3.5213785532
 10
402.7872653386
 20
-3.4346212488
 10
402.7605431052
 20
-3.3455192764
  0
LINE
  5
43B
100
AcDbEntity
  8
RACCORDO
100
AcDbLine
 62
7
  6
CONTINUOUS
 10
402.6724152809
 20
-3.0603678292
 11
402.6686264141
 21
-3.0467880048
  0
LINE
  5
43C
100
AcDbEntity
  8
RACCORDO
100
AcDbLine
 62
7
  6
CONTINUOUS
 10
402.6686264141
 20
-3.0467880048
 11
402.6652295271
 21
-3.0343008823
  0
LWPOLYLINE
  5
43D
100
AcDbEntity
  8
RACCORDO
100
AcDbPolyline
 62
7
  6
CONTINUOUS
 90
4
 70
0
 10
402.6652295271
 20
-3.0343008823
 10
402.6622310266
 20
-3.0229437392
 10
402.6608796135
 20
-3.0176917739
 10
402.6596277587
 20
-3.0127345831
  0
LWPOLYLINE
  5
43E
100
AcDbEntity
  8
RACCORDO
100
AcDbPolyline
 62
253
  6
CONTINUOUS
 90
9
 70
0
 10
402.6598250639
 20
-3.0171724609
 10
402.6558177062
 20
-3.0015418507
 10
402.6525093574
 20
-2.9878550052
 10
402.6499134758
 20
-2.9761540354
 10
402.6480319347
 20
-2.9664512314
 10
402.6468830449
 20
-2.9588613647
 10
402.6464743041
 20
-2.9534291143
 10
402.6468022992
 20
-2.9501400743
 10
402.6478661727
 20
-2.9490093484
  0
LWPOLYLINE
  5
43F
100
AcDbEntity
  8
RACCORDO
100
AcDbPolyline
 62
7
  6
CONTINUOUS
 90
10
 70
0
 10
402.6596277587
 20
-3.0127345831
 10
402.658481257
 20
-3.0081006166
 10
402.6574402938
 20
-3.0037923327
 10
402.6565055386
 20
-2.9998148393
 10
402.6556836312
 20
-2.9962027819
 10
402.6549693456
 20
-2.9929432839
 10
402.6543644215
 20
-2.9900579004
 10
402.6538809011
 20
-2.9876288275
 10
402.6535041961
 20
-2.9856168064
 10
402.6534255013
 20
-2.9851767161
  0
LINE
  5
440
100
AcDbEntity
  8
RACCORDO
100
AcDbLine
 62
253
  6
CONTINUOUS
 10
402.6644500162
 20
-5.6018871389
 11
402.6597772866
 21
-5.5821989811
  0
LWPOLYLINE
  5
441
100
AcDbEntity
  8
RACCORDO
100
AcDbPolyline
 62
253
  6
CONTINUOUS
 90
3
 70
0
 10
402.8736522178
 20
-3.7668425944
 10
402.8548798961
 20
-3.6874578806
 10
402.8343056209
 20
-3.60566456
  0
LINE
  5
442
100
AcDbEntity
  8
RACCORDO
100
AcDbLine
 62
253
  6
CONTINUOUS
 10
402.9062571224
 20
-3.918143864
 11
402.8907398583
 21
-3.8437549809
  0
LINE
  5
443
100
AcDbEntity
  8
RACCORDO
100
AcDbLine
 62
253
  6
CONTINUOUS
 10
402.6597772866
 20
-5.5821989811
 11
402.6557786715
 21
-5.5610949874
  0
LINE
  5
444
100
AcDbEntity
  8
RACCORDO
100
AcDbLine
 62
253
  6
CONTINUOUS
 10
402.9330014531
 20
-4.0595861762
 11
402.9203132436
 21
-3.9901213501
  0
LINE
  5
445
100
AcDbEntity
  8
RACCORDO
100
AcDbLine
 62
253
  6
CONTINUOUS
 10
402.9547317827
 20
-4.1913833109
 11
402.9444329268
 21
-4.1265684044
  0
LWPOLYLINE
  5
446
100
AcDbEntity
  8
RACCORDO
100
AcDbPolyline
 62
7
  6
CONTINUOUS
 90
4
 70
0
 10
402.9841923179
 20
-5.6821415793
 10
402.9829341088
 20
-5.6740649845
 10
402.9811662085
 20
-5.6658552068
 10
402.9787445169
 20
-5.65741867
  0
LWPOLYLINE
  5
447
100
AcDbEntity
  8
RACCORDO
100
AcDbPolyline
 62
253
  6
CONTINUOUS
 90
7
 70
0
 10
402.6557786715
 20
-5.5610949874
 10
402.6524803197
 20
-5.5389285408
 10
402.6498928415
 20
-5.5157698457
 10
402.6480209139
 20
-5.4916678292
 10
402.6468792721
 20
-5.466960443
 10
402.6464741986
 20
-5.441808029
 10
402.6468034515
 20
-5.4161881221
  0
LINE
  5
448
100
AcDbEntity
  8
RACCORDO
100
AcDbLine
 62
253
  6
CONTINUOUS
 10
402.972285157
 20
-4.3146668559
 11
402.9639925103
 21
-4.2541232113
  0
LWPOLYLINE
  5
449
100
AcDbEntity
  8
RACCORDO
100
AcDbPolyline
 62
7
  6
CONTINUOUS
 90
10
 70
0
 10
402.9802125457
 20
-4.3729558336
 10
402.9666487989
 20
-4.2690987403
 10
402.9466533286
 20
-4.1368646679
 10
402.9236664828
 20
-4.0051220927
 10
402.8977001097
 20
-3.8739377154
 10
402.8687681098
 20
-3.7433792938
 10
402.8368850056
 20
-3.6135124354
 10
402.8020662961
 20
-3.484400306
 10
402.7643301598
 20
-3.3561104386
 10
402.7320132687
 20
-3.2539897291
  0
LINE
  5
44A
100
AcDbEntity
  8
RACCORDO
100
AcDbLine
 62
7
  6
CONTINUOUS
 10
402.9815320679
 20
-4.3843958897
 11
402.9802119924
 21
-4.3729559058
  0
LINE
  5
44B
100
AcDbEntity
  8
RACCORDO
100
AcDbLine
 62
7
  6
CONTINUOUS
 10
-1462.2619374968
 20
-5.7595331806
 11
-1462.260734786
 21
-5.7733541174
  0
LINE
  5
44C
100
AcDbEntity
  8
RACCORDO
100
AcDbLine
 62
7
  6
CONTINUOUS
 10
-1462.2627911529
 20
-5.7474401503
 11
-1462.2618663115
 21
-5.7604318439
  0
LINE
  5
44D
100
AcDbEntity
  8
RACCORDO
100
AcDbLine
 62
7
  6
CONTINUOUS
 10
-1461.9332437072
 20
-5.3769978733
 11
-1461.9325123026
 21
-5.3905402706
  0
LINE
  5
44E
100
AcDbEntity
  8
RACCORDO
100
AcDbLine
 62
7
  6
CONTINUOUS
 10
-1462.2634005455
 20
-5.7360990358
 11
-1462.2627438119
 21
-5.748195457
  0
LINE
  5
44F
100
AcDbEntity
  8
RACCORDO
100
AcDbLine
 62
7
  6
CONTINUOUS
 10
-1461.9352139277
 20
-5.3369111519
 11
-1461.933116913
 21
-5.3793902826
  0
LINE
  5
450
100
AcDbEntity
  8
RACCORDO
100
AcDbLine
 62
7
  6
CONTINUOUS
 10
-1461.9325076043
 20
-5.3905400111
 11
-1461.9318985186
 21
-5.4038995678
  0
LINE
  5
451
100
AcDbEntity
  8
RACCORDO
100
AcDbLine
 62
7
  6
CONTINUOUS
 10
-1461.9368936599
 20
-5.296811338
 11
-1461.9351044854
 21
-5.3393041333
  0
LINE
  5
452
100
AcDbEntity
  8
RACCORDO
100
AcDbLine
 62
253
  6
CONTINUOUS
 10
-1461.9258116322
 20
-5.3901702983
 11
-1461.9247487992
 21
-5.4162697563
  0
LINE
  5
453
100
AcDbEntity
  8
RACCORDO
100
AcDbLine
 62
7
  6
CONTINUOUS
 10
-1461.9382827989
 20
-5.2567007918
 11
-1461.9368015643
 21
-5.2992048965
  0
LWPOLYLINE
  5
454
100
AcDbEntity
  8
RACCORDO
100
AcDbPolyline
 62
253
  6
CONTINUOUS
 90
13
 70
0
 10
-1462.2576310435
 20
-5.6953154168
 10
-1462.2580922233
 20
-5.6813854826
 10
-1462.2566262892
 20
-5.6675262553
 10
-1462.2532617185
 20
-5.6540069632
 10
-1462.2480638709
 20
-5.641090231
 10
-1462.2411337195
 20
-5.6290269782
 10
-1462.2326058889
 20
-5.6180515447
 10
-1462.22264604
 20
-5.6083771382
 10
-1462.2114476522
 20
-5.6001916933
 10
-1462.1992282644
 20
-5.5936542195
 10
-1462.1862252496
 20
-5.5888917135
 10
-1462.1726912032
 20
-5.5859966913
 10
-1462.1588890367
 20
-5.5850253913
  0
LWPOLYLINE
  5
455
100
AcDbEntity
  8
RACCORDO
100
AcDbPolyline
 62
253
  6
CONTINUOUS
 90
10
 70
0
 10
-1462.0094540754
 20
-5.6953154114
 10
-1462.0098957278
 20
-5.6813854581
 10
-1462.0084919329
 20
-5.6675262098
 10
-1462.0052699609
 20
-5.6540068956
 10
-1462.0002924017
 20
-5.6410901408
 10
-1461.9936559489
 20
-5.6290268657
 10
-1461.985489522
 20
-5.6180514107
 10
-1461.9759517616
 20
-5.6083769844
 10
-1461.9652279475
 20
-5.6001915217
 10
-1461.9545620803
 20
-5.5942326528
  0
LINE
  5
456
100
AcDbEntity
  8
RACCORDO
100
AcDbLine
 62
7
  6
CONTINUOUS
 10
-1461.9393812874
 20
-5.2165814752
 11
-1461.9382080493
 21
-5.2590948813
  0
LINE
  5
457
100
AcDbEntity
  8
RACCORDO
100
AcDbLine
 62
7
  6
CONTINUOUS
 10
-1461.9319306393
 20
-5.4026543766
 11
-1461.9313452584
 21
-5.4253472499
  0
LINE
  5
458
100
AcDbEntity
  8
RACCORDO
100
AcDbLine
 62
7
  6
CONTINUOUS
 10
-1461.9401890763
 20
-5.1764552093
 11
-1461.9393238856
 21
-5.2189760299
  0
LINE
  5
459
100
AcDbEntity
  8
RACCORDO
100
AcDbLine
 62
7
  6
CONTINUOUS
 10
-1461.9407061226
 20
-5.136324026
 11
-1461.940149023
 21
-5.1788501791
  0
LWPOLYLINE
  5
45A
100
AcDbEntity
  8
RACCORDO
100
AcDbPolyline
 62
253
  6
CONTINUOUS
 90
7
 70
0
 10
-1461.9247487992
 20
-5.4162697563
 10
-1461.9244215933
 20
-5.4419549408
 10
-1461.9248308696
 20
-5.4671559521
 10
-1461.9259791003
 20
-5.4918901058
 10
-1461.927859732
 20
-5.5160018726
 10
-1461.930457263
 20
-5.5391679412
 10
-1461.933767692
 20
-5.5613470009
  0
LINE
  5
45B
100
AcDbEntity
  8
RACCORDO
100
AcDbLine
 62
7
  6
CONTINUOUS
 10
-1461.9409324076
 20
-5.09619035
 11
-1461.9406834204
 21
-5.1387193861
  0
LWPOLYLINE
  5
45C
100
AcDbEntity
  8
RACCORDO
100
AcDbPolyline
 62
253
  6
CONTINUOUS
 90
10
 70
0
 10
-1461.9342327835
 20
-5.0850251795
 10
-1461.9341289944
 20
-5.118935595
 10
-1461.9338175028
 20
-5.1528287569
 10
-1461.9332980736
 20
-5.1867217003
 10
-1461.9325692226
 20
-5.2206626505
 10
-1461.9316314911
 20
-5.2546373729
 10
-1461.930487458
 20
-5.2885687043
 10
-1461.9291373737
 20
-5.3224415764
 10
-1461.9275791478
 20
-5.3563034388
 10
-1461.9258116322
 20
-5.3901702983
  0
LINE
  5
45D
100
AcDbEntity
  8
RACCORDO
100
AcDbLine
 62
7
  6
CONTINUOUS
 10
-1461.9409270603
 20
-5.0714642782
 11
-1461.9409270603
 21
-5.0985860808
  0
LWPOLYLINE
  5
45E
100
AcDbEntity
  8
RACCORDO
100
AcDbPolyline
 62
7
  6
CONTINUOUS
 90
10
 70
0
 10
-1461.9313452584
 20
-5.4253472499
 10
-1461.9314036915
 20
-5.4474588979
 10
-1461.932083862
 20
-5.468743606
 10
-1461.9333384123
 20
-5.4889229865
 10
-1461.9351021126
 20
-5.5078375164
 10
-1461.9373111812
 20
-5.5253337164
 10
-1461.9398729008
 20
-5.5411854314
 10
-1461.9426900305
 20
-5.5553160832
 10
-1461.9456610269
 20
-5.5676722121
 10
-1461.9486479141
 20
-5.5781177713
  0
LINE
  5
45F
100
AcDbEntity
  8
RACCORDO
100
AcDbLine
 62
7
  6
CONTINUOUS
 10
-1461.9406834204
 20
-5.0313309729
 11
-1461.9409324076
 21
-5.0738600091
  0
LINE
  5
460
100
AcDbEntity
  8
RACCORDO
100
AcDbLine
 62
7
  6
CONTINUOUS
 10
-1461.940149023
 20
-4.99120018
 11
-1461.9407061226
 21
-5.0337263331
  0
LWPOLYLINE
  5
461
100
AcDbEntity
  8
RACCORDO
100
AcDbPolyline
 62
7
  6
CONTINUOUS
 90
7
 70
0
 10
-1462.2637751056
 20
-4.4445339508
 10
-1462.2639203694
 20
-4.45435188
 10
-1462.2638409033
 20
-4.4634873203
 10
-1462.2635333731
 20
-4.4720103598
 10
-1462.2629825396
 20
-4.4800496636
 10
-1462.2621323429
 20
-4.4879515284
 10
-1462.2608876023
 20
-4.4959422609
  0
LINE
  5
462
100
AcDbEntity
  8
RACCORDO
100
AcDbLine
 62
7
  6
CONTINUOUS
 10
-1461.9393238856
 20
-4.9510743292
 11
-1461.9401890763
 21
-4.9935951498
  0
LWPOLYLINE
  5
463
100
AcDbEntity
  8
RACCORDO
100
AcDbPolyline
 62
7
  6
CONTINUOUS
 90
3
 70
0
 10
-1461.9313153957
 20
-4.7418341251
 10
-1461.9318220227
 20
-4.7644779615
 10
-1461.9325094189
 20
-4.7795100979
  0
LINE
  5
464
100
AcDbEntity
  8
RACCORDO
100
AcDbLine
 62
7
  6
CONTINUOUS
 10
-1461.9382080493
 20
-4.9109554778
 11
-1461.9393812874
 21
-4.9534688839
  0
LWPOLYLINE
  5
465
100
AcDbEntity
  8
RACCORDO
100
AcDbPolyline
 62
253
  6
CONTINUOUS
 90
10
 70
0
 10
-1462.0094500902
 20
-4.4747353817
 10
-1462.0098929406
 20
-4.4886656668
 10
-1462.0084901901
 20
-4.5025254071
 10
-1462.0052690917
 20
-4.5160453326
 10
-1462.0002922256
 20
-4.5289627754
 10
-1461.9936562833
 20
-4.5410267728
 10
-1461.9854901892
 20
-4.5520029429
 10
-1461.9759525959
 20
-4.5616780384
 10
-1461.9652288017
 20
-4.5698640896
 10
-1461.9545423079
 20
-4.5758348656
  0
LWPOLYLINE
  5
466
100
AcDbEntity
  8
RACCORDO
100
AcDbPolyline
 62
253
  6
CONTINUOUS
 90
10
 70
0
 10
-1462.2576310268
 20
-4.474734944
 10
-1462.2580922245
 20
-4.4886649005
 10
-1462.2566263053
 20
-4.502524152
 10
-1462.2532617461
 20
-4.5160434692
 10
-1462.2480639067
 20
-4.5289602265
 10
-1462.24113376
 20
-4.5410235037
 10
-1462.2326059308
 20
-4.5519989601
 10
-1462.2226460803
 20
-4.5616733868
 10
-1462.211447688
 20
-4.5698588491
 10
-1462.1992282934
 20
-4.5763963365
  0
LINE
  5
467
100
AcDbEntity
  8
RACCORDO
100
AcDbLine
 62
7
  6
CONTINUOUS
 10
-1461.9368015643
 20
-4.8708454626
 11
-1461.9382827989
 21
-4.9133495672
  0
LINE
  5
468
100
AcDbEntity
  8
RACCORDO
100
AcDbLine
 62
7
  6
CONTINUOUS
 10
-1462.2633725409
 20
-4.4333303234
 11
-1462.263762008
 21
-4.4440392547
  0
LINE
  5
469
100
AcDbEntity
  8
RACCORDO
100
AcDbLine
 62
253
  6
CONTINUOUS
 10
-1461.9247489109
 20
-4.753862237
 11
-1461.9258116322
 21
-4.7798800608
  0
LINE
  5
46A
100
AcDbEntity
  8
RACCORDO
100
AcDbLine
 62
7
  6
CONTINUOUS
 10
-1461.9351044854
 20
-4.8307462258
 11
-1461.9368936599
 21
-4.8732390211
  0
LINE
  5
46B
100
AcDbEntity
  8
RACCORDO
100
AcDbLine
 62
7
  6
CONTINUOUS
 10
-1461.933116913
 20
-4.7906600764
 11
-1461.9352139277
 21
-4.8331392071
  0
LWPOLYLINE
  5
46C
100
AcDbEntity
  8
RACCORDO
100
AcDbPolyline
 62
253
  6
CONTINUOUS
 90
10
 70
0
 10
-1461.9258116322
 20
-4.7798800608
 10
-1461.9275791672
 20
-4.8137474037
 10
-1461.9291374056
 20
-4.8476096046
 10
-1461.9304874955
 20
-4.8814826712
 10
-1461.9316315248
 20
-4.9154140236
 10
-1461.9325692457
 20
-4.949388625
 10
-1461.9332980872
 20
-4.9833294022
 10
-1461.9338175107
 20
-5.0172221503
 10
-1461.9341289978
 20
-5.0511150644
 10
-1461.9342327835
 20
-5.0850251795
  0
LINE
  5
46D
100
AcDbEntity
  8
RACCORDO
100
AcDbLine
 62
7
  6
CONTINUOUS
 10
-1461.9325123026
 20
-4.7795100885
 11
-1461.9332437072
 21
-4.7930524858
  0
LINE
  5
46E
100
AcDbEntity
  8
RACCORDO
100
AcDbLine
 62
7
  6
CONTINUOUS
 10
-1462.2627438119
 20
-4.4218549021
 11
-1462.2634005455
 21
-4.4339513233
  0
LINE
  5
46F
100
AcDbEntity
  8
RACCORDO
100
AcDbLine
 62
7
  6
CONTINUOUS
 10
-1462.2608339287
 20
-5.7723050265
 11
-1462.2593447996
 21
-5.7868595572
  0
LINE
  5
470
100
AcDbEntity
  8
0
100
AcDbLine
 62
253
  6
CONTINUOUS
 10
-1459.6415013355
 20
-10.0525419581
 11
-1459.6415013355
 21
-0.117508401
  0
LINE
  5
471
100
AcDbEntity
  8
0
100
AcDbLine
 62
7
  6
CONTINUOUS
 10
-1459.3322395905
 20
42.4149748205
 11
-1459.3322395905
 21
-52.5850251795
  0
LINE
  5
472
100
AcDbEntity
  8
0
100
AcDbLine
 62
253
  6
CONTINUOUS
 10
-1456.98909384
 20
42.4149748205
 11
-1456.98909384
 21
-52.5850251795
  0
LINE
  5
473
100
AcDbEntity
  8
0
100
AcDbLine
 62
7
  6
CONTINUOUS
 10
-1456.3322395905
 20
45.4149748205
 11
-1456.3322395905
 21
42.9149748205
  0
LINE
  5
474
100
AcDbEntity
  8
0
100
AcDbLine
 62
253
  6
CONTINUOUS
 10
-1456.3322395905
 20
-55.5850251795
 11
-1456.3322395905
 21
-53.0850251795
  0
LINE
  5
475
100
AcDbEntity
  8
0
100
AcDbLine
 62
7
  6
CONTINUOUS
 10
-1456.2819870588
 20
-53.0850251795
 11
-1456.2819870588
 21
-55.5850251795
  0
LINE
  5
476
100
AcDbEntity
  8
0
100
AcDbLine
 62
253
  6
CONTINUOUS
 10
-1455.3322395905
 20
42.9149748205
 11
-1455.3322395905
 21
42.4149748205
  0
LINE
  5
477
100
AcDbEntity
  8
0
100
AcDbLine
 62
253
  6
CONTINUOUS
 10
-1455.3322395905
 20
-53.0850251795
 11
-1455.3322395905
 21
-52.5850251795
  0
LINE
  5
478
100
AcDbEntity
  8
0
100
AcDbLine
 62
7
  6
CONTINUOUS
 10
-1447.3322395905
 20
42.9149748205
 11
-1447.3322395905
 21
42.4149748205
  0
LINE
  5
479
100
AcDbEntity
  8
0
100
AcDbLine
 62
7
  6
CONTINUOUS
 10
-1447.3322395905
 20
-53.0850251795
 11
-1447.3322395905
 21
-52.5850251795
  0
LINE
  5
47A
100
AcDbEntity
  8
0
100
AcDbLine
 62
7
  6
CONTINUOUS
 10
-1445.6046746629
 20
-55.5850251795
 11
-1445.6046746629
 21
-53.0850251795
  0
LINE
  5
47B
100
AcDbEntity
  8
0
100
AcDbLine
 62
7
  6
CONTINUOUS
 10
-1444.8532964747
 20
-55.5850251795
 11
-1444.8532964747
 21
-53.0850251795
  0
LINE
  5
47C
100
AcDbEntity
  8
0
100
AcDbLine
 62
7
  6
CONTINUOUS
 10
-1444.3318824567
 20
-55.5850251795
 11
-1444.3318824567
 21
-53.0850251795
  0
LINE
  5
47D
100
AcDbEntity
  8
0
100
AcDbLine
 62
253
  6
CONTINUOUS
 10
-1439.3114243103
 20
42.4149748205
 11
-1439.3114243103
 21
-52.5850251795
  0
LINE
  5
47E
100
AcDbEntity
  8
0
100
AcDbLine
 62
7
  6
CONTINUOUS
 10
-1436.3322395905
 20
45.4149748205
 11
-1436.3322395905
 21
42.9149748205
  0
LINE
  5
47F
100
AcDbEntity
  8
0
100
AcDbLine
 62
7
  6
CONTINUOUS
 10
-1435.8322395905
 20
45.9149748205
 11
-1435.8322395905
 21
55.6149748205
  0
LINE
  5
480
100
AcDbEntity
  8
0
100
AcDbLine
 62
253
  6
CONTINUOUS
 10
-1433.6545700608
 20
9.4149748205
 11
-1433.6545700608
 21
-52.5850251795
  0
LINE
  5
481
100
AcDbEntity
  8
0
100
AcDbLine
 62
7
  6
CONTINUOUS
 10
-1433.6545700608
 20
-52.5850251795
 11
-1433.6545700608
 21
-55.5850251795
  0
LINE
  5
482
100
AcDbEntity
  8
0
100
AcDbLine
 62
7
  6
CONTINUOUS
 10
-1433.6545700608
 20
9.4149748205
 11
-1433.6545700608
 21
42.4149748205
  0
LINE
  5
483
100
AcDbEntity
  8
0
100
AcDbLine
 62
7
  6
CONTINUOUS
 10
-1433.3322395905
 20
45.9149748205
 11
-1433.3322395905
 21
55.6149748205
  0
LINE
  5
484
100
AcDbEntity
  8
RACCORDO
100
AcDbLine
 62
7
  6
CONTINUOUS
 10
-1462.2618663115
 20
-4.4096185151
 11
-1462.2627911529
 21
-4.4226102088
  0
LINE
  5
485
100
AcDbEntity
  8
RACCORDO
100
AcDbLine
 62
7
  6
CONTINUOUS
 10
-1462.260734786
 20
-4.3966962417
 11
-1462.2619374968
 21
-4.4105171785
  0
LWPOLYLINE
  5
486
100
AcDbEntity
  8
RACCORDO
100
AcDbPolyline
 62
253
  6
CONTINUOUS
 90
20
 70
0
 10
-1462.2597191962
 20
-4.3920163551
 10
-1462.260557404
 20
-4.4010270797
 10
-1462.2612643327
 20
-4.4098496999
 10
-1462.2618390293
 20
-4.4183858268
 10
-1462.2622746054
 20
-4.4263010479
 10
-1462.2625602229
 20
-4.4335199023
 10
-1462.2627088843
 20
-4.4401507883
 10
-1462.2627488756
 20
-4.4461221298
 10
-1462.262677952
 20
-4.4513874157
 10
-1462.2624982856
 20
-4.4560070387
 10
-1462.2622444465
 20
-4.4600537227
 10
-1462.2619178285
 20
-4.4635091451
 10
-1462.261516131
 20
-4.4663899399
 10
-1462.2610685875
 20
-4.4688108981
 10
-1462.2605783912
 20
-4.4707649705
 10
-1462.2600414945
 20
-4.472249461
 10
-1462.2594766678
 20
-4.4733817529
 10
-1462.2588900596
 20
-4.4741972937
 10
-1462.2582749604
 20
-4.4746500943
 10
-1462.2576310457
 20
-4.4747349421
  0
LINE
  5
487
100
AcDbEntity
  8
RACCORDO
100
AcDbLine
 62
7
  6
CONTINUOUS
 10
-1462.2593447996
 20
-4.3831908019
 11
-1462.2608339287
 21
-4.3977453326
  0
LWPOLYLINE
  5
488
100
AcDbEntity
  8
RACCORDO
100
AcDbPolyline
 62
7
  6
CONTINUOUS
 90
7
 70
0
 10
-1462.2621377774
 20
-5.6821415793
 10
-1462.2629927434
 20
-5.6901167483
 10
-1462.2635430168
 20
-5.6982309886
 10
-1462.2638468013
 20
-5.7068391834
 10
-1462.2639190158
 20
-5.71607512
 10
-1462.263762008
 20
-5.7260111044
 10
-1462.2633725409
 20
-5.7367200357
  0
LINE
  5
489
100
AcDbEntity
  8
RACCORDO
100
AcDbLine
 62
7
  6
CONTINUOUS
 10
-1462.2581574519
 20
-4.3729559058
 11
-1462.2594775274
 21
-4.3843958897
  0
LINE
  5
48A
100
AcDbEntity
  8
RACCORDO
100
AcDbLine
 62
253
  6
CONTINUOUS
 10
-1462.2420123533
 20
-4.2546325987
 11
-1462.2502707961
 21
-4.3149537323
  0
LINE
  5
48B
100
AcDbEntity
  8
RACCORDO
100
AcDbLine
 62
253
  6
CONTINUOUS
 10
-1462.2224950284
 20
-4.1272851156
 11
-1462.232778755
 21
-4.1920459559
  0
LINE
  5
48C
100
AcDbEntity
  8
RACCORDO
100
AcDbLine
 62
7
  6
CONTINUOUS
 10
-1461.9309793968
 20
-2.982768436
 11
-1461.9314356024
 21
-2.9855356976
  0
LINE
  5
48D
100
AcDbEntity
  8
RACCORDO
100
AcDbLine
 62
253
  6
CONTINUOUS
 10
-1462.1983855112
 20
-3.990792928
 11
-1462.2110685136
 21
-4.0602801336
  0
LWPOLYLINE
  5
48E
100
AcDbEntity
  8
RACCORDO
100
AcDbPolyline
 62
7
  6
CONTINUOUS
 90
8
 70
0
 10
-1461.9314356024
 20
-2.9855356976
 10
-1461.9317593632
 20
-2.987272754
 10
-1461.932232008
 20
-2.9896609136
 10
-1461.9328290936
 20
-2.992528338
 10
-1461.9335318691
 20
-2.9957577393
 10
-1461.9343351829
 20
-2.9993119082
 10
-1461.9352477031
 20
-3.003218472
 10
-1461.9362660341
 20
-3.0074540462
  0
LINE
  5
48F
100
AcDbEntity
  8
RACCORDO
100
AcDbLine
 62
253
  6
CONTINUOUS
 10
-1461.933767692
 20
-5.5613470009
 11
-1461.9377796396
 21
-5.5824607934
  0
LINE
  5
490
100
AcDbEntity
  8
RACCORDO
100
AcDbLine
 62
253
  6
CONTINUOUS
 10
-1461.9377796396
 20
-5.5824607934
 11
-1461.9424640604
 21
-5.602147465
  0
LINE
  5
491
100
AcDbEntity
  8
RACCORDO
100
AcDbLine
 62
7
  6
CONTINUOUS
 10
-1461.9362660341
 20
-3.0074540462
 11
-1461.9375877383
 21
-3.012792651
  0
LWPOLYLINE
  5
492
100
AcDbEntity
  8
RACCORDO
100
AcDbPolyline
 62
253
  6
CONTINUOUS
 90
5
 70
0
 10
-1462.112481011
 20
-3.6065477239
 10
-1462.1330154896
 20
-3.6882341764
 10
-1462.1517555168
 20
-3.767531306
 10
-1462.1688294042
 20
-3.8444255173
 10
-1462.1843377647
 20
-3.9188145117
  0
LINE
  5
493
100
AcDbEntity
  8
RACCORDO
100
AcDbLine
 62
7
  6
CONTINUOUS
 10
-1461.9373906243
 20
-3.0120149
 11
-1461.9388407655
 21
-3.0177533193
  0
LINE
  5
494
100
AcDbEntity
  8
RACCORDO
100
AcDbLine
 62
7
  6
CONTINUOUS
 10
-1461.9386212139
 20
-3.0168966246
 11
-1461.9413833616
 21
-3.0275530594
  0
LINE
  5
495
100
AcDbEntity
  8
RACCORDO
100
AcDbLine
 62
7
  6
CONTINUOUS
 10
-1461.9401932216
 20
-3.0230081998
 11
-1461.9431933623
 21
-3.0343694098
  0
LWPOLYLINE
  5
496
100
AcDbEntity
  8
RACCORDO
100
AcDbPolyline
 62
253
  6
CONTINUOUS
 90
6
 70
0
 10
-1461.9377954179
 20
-3.0172676622
 10
-1461.9424748778
 20
-3.0346995639
 10
-1461.947820443
 20
-3.0539155382
 10
-1461.9538033773
 20
-3.074833339
 10
-1461.9603377612
 20
-3.097115669
 10
-1461.9634695578
 20
-3.1055400528
  0
LINE
  5
497
100
AcDbEntity
  8
RACCORDO
100
AcDbLine
 62
7
  6
CONTINUOUS
 10
-1461.9429140345
 20
-3.0333197023
 11
-1461.9465912276
 21
-3.0468582124
  0
LINE
  5
498
100
AcDbEntity
  8
RACCORDO
100
AcDbLine
 62
7
  6
CONTINUOUS
 10
-1461.9462669782
 20
-3.0456800542
 11
-1461.9503803336
 21
-3.0604372828
  0
LINE
  5
499
100
AcDbEntity
  8
RACCORDO
100
AcDbLine
 62
7
  6
CONTINUOUS
 10
-1461.9500067436
 20
-3.0591167814
 11
-1461.9545492479
 21
-3.0750670035
  0
LINE
  5
49A
100
AcDbEntity
  8
RACCORDO
100
AcDbLine
 62
7
  6
CONTINUOUS
 10
-1461.9541292956
 20
-3.0736048176
 11
-1461.9590871976
 21
-3.0906959008
  0
LWPOLYLINE
  5
49B
100
AcDbEntity
  8
RACCORDO
100
AcDbPolyline
 62
253
  6
CONTINUOUS
 90
10
 70
0
 10
-1461.9424640604
 20
-5.602147465
 10
-1461.9478278345
 20
-5.6204043484
 10
-1461.9538379307
 20
-5.6371487881
 10
-1461.9604047132
 20
-5.6519342712
 10
-1461.9675251976
 20
-5.6647520214
 10
-1461.9751697998
 20
-5.6755950418
 10
-1461.9832118873
 20
-5.6840745265
 10
-1461.9915998214
 20
-5.6900958093
 10
-1462.0003531971
 20
-5.6938286987
 10
-1462.0094541266
 20
-5.695315417
  0
LINE
  5
49C
100
AcDbEntity
  8
RACCORDO
100
AcDbLine
 62
7
  6
CONTINUOUS
 10
-1461.9586202464
 20
-3.0890951142
 11
-1461.9639858789
 21
-3.1072763827
  0
LWPOLYLINE
  5
49D
100
AcDbEntity
  8
RACCORDO
100
AcDbPolyline
 62
253
  6
CONTINUOUS
 90
3
 70
0
 10
-1461.966568092
 20
-3.1159114719
 10
-1461.9674081763
 20
-3.1207261068
 10
-1461.9692359326
 20
-3.1247658081
  0
LWPOLYLINE
  5
49E
100
AcDbEntity
  8
RACCORDO
100
AcDbPolyline
 62
253
  6
CONTINUOUS
 90
3
 70
0
 10
-1462.0386127547
 20
-3.3459283213
 10
-1462.0654131985
 20
-3.4353215658
 10
-1462.0899946977
 20
-3.5222518902
  0
LINE
  5
49F
100
AcDbEntity
  8
RACCORDO
100
AcDbLine
 62
7
  6
CONTINUOUS
 10
-1461.9634695578
 20
-3.1055400528
 11
-1461.9713940036
 21
-3.1318891557
  0
LWPOLYLINE
  5
4A0
100
AcDbEntity
  8
RACCORDO
100
AcDbPolyline
 62
253
  6
CONTINUOUS
 90
3
 70
0
 10
-1461.9719868996
 20
-3.1338315228
 10
-1461.9749982032
 20
-3.1456298277
 10
-1461.9770880282
 20
-3.1504902661
  0
LINE
  5
4A1
100
AcDbEntity
  8
RACCORDO
100
AcDbLine
 62
7
  6
CONTINUOUS
 10
-1461.9692359326
 20
-3.1247658081
 11
-1461.9777283496
 21
-3.1525640619
  0
LWPOLYLINE
  5
4A2
100
AcDbEntity
  8
RACCORDO
100
AcDbPolyline
 62
253
  6
CONTINUOUS
 90
3
 70
0
 10
-1461.9807157134
 20
-3.1622186797
 10
-1461.9830220004
 20
-3.1714816706
 10
-1461.9862003425
 20
-3.1797924315
  0
LWPOLYLINE
  5
4A3
100
AcDbEntity
  8
RACCORDO
100
AcDbPolyline
 62
253
  6
CONTINUOUS
 90
5
 70
0
 10
-1461.9258042216
 20
-2.9490122145
 10
-1461.9296641882
 20
-2.9613398878
 10
-1461.9319050026
 20
-2.9740631195
 10
-1461.9324892588
 20
-2.9869695211
 10
-1461.9322541238
 20
-2.9897671216
  0
LINE
  5
4A4
100
AcDbEntity
  8
RACCORDO
100
AcDbLine
 62
7
  6
CONTINUOUS
 10
-1461.9770880282
 20
-3.1504902661
 11
-1461.9869129264
 21
-3.182064151
  0
LWPOLYLINE
  5
4A5
100
AcDbEntity
  8
RACCORDO
100
AcDbPolyline
 62
253
  6
CONTINUOUS
 90
3
 70
0
 10
-1461.9901191396
 20
-3.1922412257
 10
-1461.9914401462
 20
-3.1981470583
 10
-1461.9959457695
 20
-3.210585131
  0
LWPOLYLINE
  5
4A6
100
AcDbEntity
  8
RACCORDO
100
AcDbPolyline
 62
7
  6
CONTINUOUS
 90
10
 70
0
 10
-1462.0099587002
 20
-3.2539897361
 10
-1462.0415736667
 20
-3.3538219161
 10
-1462.0793628155
 20
-3.482099765
 10
-1462.114234287
 20
-3.6111996362
 10
-1462.1461702225
 20
-3.7410546866
 10
-1462.1751550932
 20
-3.8716016052
 10
-1462.201174355
 20
-4.0027744336
 10
-1462.2242141585
 20
-4.1345054811
 10
-1462.2442627251
 20
-4.2667280526
 10
-1462.2581580177
 20
-4.3729558896
  0
LINE
  5
4A7
100
AcDbEntity
  8
RACCORDO
100
AcDbLine
 62
7
  6
CONTINUOUS
 10
-1461.9862003425
 20
-3.1797924315
 11
-1461.9967337475
 21
-3.2130582515
  0
LINE
  5
4A8
100
AcDbEntity
  8
RACCORDO
100
AcDbLine
 62
253
  6
CONTINUOUS
 10
-1461.9993236039
 20
-3.221139853
 11
-1462.0002572977
 21
-3.2257094081
  0
LINE
  5
4A9
100
AcDbEntity
  8
RACCORDO
100
AcDbLine
 62
7
  6
CONTINUOUS
 10
-1461.9959457695
 20
-3.210585131
 11
-1462.0062552576
 21
-3.2426212291
  0
LINE
  5
4AA
100
AcDbEntity
  8
RACCORDO
100
AcDbLine
 62
7
  6
CONTINUOUS
 10
-1462.0062552576
 20
-3.2426212291
 11
-1462.0099553648
 21
-3.2539908247
  0
LWPOLYLINE
  5
4AB
100
AcDbEntity
  8
RACCORDO
100
AcDbPolyline
 62
7
  6
CONTINUOUS
 90
6
 70
0
 10
-1461.9486479141
 20
-5.5781177713
 10
-1461.9515315251
 20
-5.5866822733
 10
-1461.9541805907
 20
-5.5934031388
 10
-1461.9563950476
 20
-5.5982182711
 10
-1461.9580134896
 20
-5.6012423415
 10
-1461.9582548808
 20
-5.6016509928
  0
LWPOLYLINE
  5
4AC
100
AcDbEntity
  8
RACCORDO
100
AcDbPolyline
 62
7
  6
CONTINUOUS
 90
13
 70
0
 10
-1462.2566899763
 20
-4.512631689
 10
-1462.2533857807
 20
-4.5214827863
 10
-1462.2490593916
 20
-4.5305523608
 10
-1462.243816324
 20
-4.5393095577
 10
-1462.2377605573
 20
-4.547502167
 10
-1462.2307803291
 20
-4.5552120917
 10
-1462.2228065317
 20
-4.5623818825
 10
-1462.2138719416
 20
-4.5688425019
 10
-1462.2039963745
 20
-4.5744481011
 10
-1462.1930919425
 20
-4.5790860757
 10
-1462.1811860217
 20
-4.582544523
 10
-1462.1684537297
 20
-4.584573172
 10
-1462.1588842534
 20
-4.5850250954
  0
LWPOLYLINE
  5
4AD
100
AcDbEntity
  8
RACCORDO
100
AcDbPolyline
 62
7
  6
CONTINUOUS
 90
11
 70
0
 10
-1461.9517691223
 20
-4.5827231358
 10
-1461.9489162981
 20
-4.5910779893
 10
-1461.9459490443
 20
-4.6012902549
 10
-1461.9429868459
 20
-4.6133914381
 10
-1461.9401679528
 20
-4.6272532573
 10
-1461.937587458
 20
-4.6428323372
 10
-1461.9353402737
 20
-4.6600646916
 10
-1461.9335267144
 20
-4.6787409745
 10
-1461.932212747
 20
-4.6987141139
 10
-1461.9314558691
 20
-4.7198336383
 10
-1461.9313153957
 20
-4.7418341251
  0
LINE
  5
4AE
100
AcDbEntity
  8
RACCORDO
100
AcDbLine
 62
7
  6
CONTINUOUS
 10
-1462.0099553468
 20
-6.9160595262
 11
-1462.0001357522
 21
-6.9463747263
  0
LINE
  5
4AF
100
AcDbEntity
  8
RACCORDO
100
AcDbLine
 62
253
  6
CONTINUOUS
 10
-1462.0001968149
 20
-6.944536827
 11
-1462.0001357522
 21
-6.9463747263
  0
LINE
  5
4B0
100
AcDbEntity
  8
RACCORDO
100
AcDbLine
 62
253
  6
CONTINUOUS
 10
-1461.9967312438
 20
-6.9569999432
 11
-1461.9913369433
 21
-6.9722349985
  0
LINE
  5
4B1
100
AcDbEntity
  8
RACCORDO
100
AcDbLine
 62
7
  6
CONTINUOUS
 10
-1462.0001357522
 20
-6.9463747263
 11
-1461.990114377
 21
-6.9778242075
  0
LWPOLYLINE
  5
4B2
100
AcDbEntity
  8
RACCORDO
100
AcDbPolyline
 62
253
  6
CONTINUOUS
 90
5
 70
0
 10
-1461.9258116056
 20
-7.2210410004
 10
-1461.9296704422
 20
-7.2087133793
 10
-1461.9319101882
 20
-7.1959903873
 10
-1461.9324934607
 20
-7.183084379
 10
-1461.932256096
 20
-7.1802626595
  0
LINE
  5
4B3
100
AcDbEntity
  8
RACCORDO
100
AcDbLine
 62
7
  6
CONTINUOUS
 10
-1461.990114377
 20
-6.9778242075
 11
-1461.9807070219
 21
-7.0078596823
  0
LINE
  5
4B4
100
AcDbEntity
  8
RACCORDO
100
AcDbLine
 62
7
  6
CONTINUOUS
 10
-1461.9807070219
 20
-7.0078596823
 11
-1461.9719741975
 21
-7.036260555
  0
LWPOLYLINE
  5
4B5
100
AcDbEntity
  8
RACCORDO
100
AcDbPolyline
 62
253
  6
CONTINUOUS
 90
6
 70
0
 10
-1461.961474676
 20
-7.0712390125
 10
-1461.9602565758
 20
-7.0732087711
 10
-1461.9537379873
 20
-7.0954424625
 10
-1461.9477707029
 20
-7.1163107895
 10
-1461.9424388975
 20
-7.1354823697
 10
-1461.9377705234
 20
-7.1528778982
  0
LINE
  5
4B6
100
AcDbEntity
  8
RACCORDO
100
AcDbLine
 62
7
  6
CONTINUOUS
 10
-1461.9719741975
 20
-7.036260555
 11
-1461.9639697109
 21
-7.062828258
  0
LINE
  5
4B7
100
AcDbEntity
  8
RACCORDO
100
AcDbLine
 62
7
  6
CONTINUOUS
 10
-1461.9639697109
 20
-7.062828258
 11
-1461.9590692815
 21
-7.0794156217
  0
LINE
  5
4B8
100
AcDbEntity
  8
RACCORDO
100
AcDbLine
 62
7
  6
CONTINUOUS
 10
-1461.9590692815
 20
-7.0794156217
 11
-1461.9545301724
 21
-7.095049667
  0
LINE
  5
4B9
100
AcDbEntity
  8
RACCORDO
100
AcDbLine
 62
7
  6
CONTINUOUS
 10
-1461.9545301724
 20
-7.095049667
 11
-1461.9503607404
 21
-7.1096825299
  0
LWPOLYLINE
  5
4BA
100
AcDbEntity
  8
RACCORDO
100
AcDbPolyline
 62
253
  6
CONTINUOUS
 90
3
 70
0
 10
-1462.089754699
 20
-6.6486718059
 10
-1462.0652107981
 20
-6.7354291103
 10
-1462.0384885646
 20
-6.8245310827
  0
LINE
  5
4BB
100
AcDbEntity
  8
RACCORDO
100
AcDbLine
 62
7
  6
CONTINUOUS
 10
-1461.9503607404
 20
-7.1096825299
 11
-1461.9465718736
 21
-7.1232623543
  0
LINE
  5
4BC
100
AcDbEntity
  8
RACCORDO
100
AcDbLine
 62
7
  6
CONTINUOUS
 10
-1461.9465718736
 20
-7.1232623543
 11
-1461.9431749865
 21
-7.1357494768
  0
LWPOLYLINE
  5
4BD
100
AcDbEntity
  8
RACCORDO
100
AcDbPolyline
 62
7
  6
CONTINUOUS
 90
4
 70
0
 10
-1461.9431749865
 20
-7.1357494768
 10
-1461.940176486
 20
-7.1471066199
 10
-1461.9388250729
 20
-7.1523585852
 10
-1461.9375732182
 20
-7.1573157759
  0
LWPOLYLINE
  5
4BE
100
AcDbEntity
  8
RACCORDO
100
AcDbPolyline
 62
253
  6
CONTINUOUS
 90
9
 70
0
 10
-1461.9377705234
 20
-7.1528778982
 10
-1461.9337631656
 20
-7.1685085084
 10
-1461.9304548169
 20
-7.1821953539
 10
-1461.9278589352
 20
-7.1938963237
 10
-1461.9259773942
 20
-7.2035991277
 10
-1461.9248285043
 20
-7.2111889944
 10
-1461.9244197635
 20
-7.2166212448
 10
-1461.9247477587
 20
-7.2199102848
 10
-1461.9258116322
 20
-7.2210410107
  0
LWPOLYLINE
  5
4BF
100
AcDbEntity
  8
RACCORDO
100
AcDbPolyline
 62
7
  6
CONTINUOUS
 90
10
 70
0
 10
-1461.9375732182
 20
-7.1573157759
 10
-1461.9364267164
 20
-7.1619497425
 10
-1461.9353857532
 20
-7.1662580264
 10
-1461.934450998
 20
-7.1702355198
 10
-1461.9336290907
 20
-7.1738475772
 10
-1461.932914805
 20
-7.1771070752
 10
-1461.9323098809
 20
-7.1799924587
 10
-1461.9318263606
 20
-7.1824215316
 10
-1461.9314496556
 20
-7.1844335527
 10
-1461.9313709608
 20
-7.184873643
  0
LINE
  5
4C0
100
AcDbEntity
  8
RACCORDO
100
AcDbLine
 62
253
  6
CONTINUOUS
 10
-1461.9423954757
 20
-4.5681632201
 11
-1461.9377227461
 21
-4.5878513779
  0
LWPOLYLINE
  5
4C1
100
AcDbEntity
  8
RACCORDO
100
AcDbPolyline
 62
253
  6
CONTINUOUS
 90
3
 70
0
 10
-1462.1515976772
 20
-6.4032077647
 10
-1462.1328253555
 20
-6.4825924785
 10
-1462.1122510804
 20
-6.5643857991
  0
LWPOLYLINE
  5
4C2
100
AcDbEntity
  8
RACCORDO
100
AcDbPolyline
 62
7
  6
CONTINUOUS
 90
3
 70
0
 10
-1462.2608795683
 20
-4.4959853746
 10
-1462.259111668
 20
-4.5041951523
 10
-1462.2566899763
 20
-4.512631689
  0
LINE
  5
4C3
100
AcDbEntity
  8
RACCORDO
100
AcDbLine
 62
253
  6
CONTINUOUS
 10
-1462.1842025819
 20
-6.2519064951
 11
-1462.1686853177
 21
-6.3262953782
  0
LINE
  5
4C4
100
AcDbEntity
  8
RACCORDO
100
AcDbLine
 62
253
  6
CONTINUOUS
 10
-1461.9377227461
 20
-4.5878513779
 11
-1461.933724131
 21
-4.6089553716
  0
LINE
  5
4C5
100
AcDbEntity
  8
RACCORDO
100
AcDbLine
 62
253
  6
CONTINUOUS
 10
-1462.2109469125
 20
-6.1104641829
 11
-1462.198258703
 21
-6.179929009
  0
LINE
  5
4C6
100
AcDbEntity
  8
RACCORDO
100
AcDbLine
 62
253
  6
CONTINUOUS
 10
-1462.2326772421
 20
-5.9786670482
 11
-1462.2223783863
 21
-6.0434819546
  0
LWPOLYLINE
  5
4C7
100
AcDbEntity
  8
RACCORDO
100
AcDbPolyline
 62
253
  6
CONTINUOUS
 90
7
 70
0
 10
-1461.933724131
 20
-4.6089553716
 10
-1461.9304257791
 20
-4.6311218183
 10
-1461.927838301
 20
-4.6542805133
 10
-1461.9259663733
 20
-4.6783825298
 10
-1461.9248247316
 20
-4.7030899161
 10
-1461.924419658
 20
-4.7282423301
 10
-1461.9247489109
 20
-4.753862237
  0
LINE
  5
4C8
100
AcDbEntity
  8
RACCORDO
100
AcDbLine
 62
253
  6
CONTINUOUS
 10
-1462.2502306165
 20
-5.8553835032
 11
-1462.2419379697
 21
-5.9159271478
  0
LWPOLYLINE
  5
4C9
100
AcDbEntity
  8
RACCORDO
100
AcDbPolyline
 62
7
  6
CONTINUOUS
 90
10
 70
0
 10
-1462.2581580051
 20
-5.7970945255
 10
-1462.2445942584
 20
-5.9009516188
 10
-1462.2245987881
 20
-6.0331856912
 10
-1462.2016119423
 20
-6.1649282664
 10
-1462.1756455691
 20
-6.2961126437
 10
-1462.1467135693
 20
-6.4266710653
 10
-1462.1148304651
 20
-6.5565379236
 10
-1462.0800117555
 20
-6.6856500531
 10
-1462.0422756193
 20
-6.8139399205
 10
-1462.0099587282
 20
-6.91606063
  0
LINE
  5
4CA
100
AcDbEntity
  8
RACCORDO
100
AcDbLine
 62
7
  6
CONTINUOUS
 10
-1462.2594775274
 20
-5.7856544693
 11
-1462.2581574519
 21
-5.7970944533
  0
LWPOLYLINE
  5
4CB
100
AcDbEntity
  8
RACCORDO
100
AcDbPolyline
 62
7
  6
CONTINUOUS
 90
11
 70
0
 10
-1462.2492677156
 20
-4.5301618047
 10
-1462.2441203699
 20
-4.5388507036
 10
-1462.2381743825
 20
-4.5469926167
 10
-1462.2313188618
 20
-4.5546702098
 10
-1462.2234857797
 20
-4.5618276555
 10
-1462.2147060323
 20
-4.5682997771
 10
-1462.2049956841
 20
-4.573945752
 10
-1462.1942643221
 20
-4.5786584621
 10
-1462.1825340171
 20
-4.5822314001
 10
-1462.1699716687
 20
-4.5844179697
 10
-1462.1588886652
 20
-4.5850249644
  0
LINE
  5
4CC
100
AcDbEntity
  8
0
100
AcDbLine
 62
7
  6
CONTINUOUS
 10
-1389.6545700608
 20
45.4149748205
 11
-1389.6545700608
 21
55.6149748205
  0
LWPOLYLINE
  5
4CD
100
AcDbEntity
  8
RACCORDO
100
AcDbPolyline
 62
253
  6
CONTINUOUS
 90
22
 70
0
 10
-1331.942529828
 20
-5.7970304566
 10
-1331.9430425887
 20
-5.7873653305
 10
-1331.9443531488
 20
-5.778034004
 10
-1331.9464620875
 20
-5.7690232794
 10
-1331.9494723947
 20
-5.7602006592
 10
-1331.9532828249
 20
-5.7516645323
 10
-1331.9576033093
 20
-5.7437493112
 10
-1331.962469833
 20
-5.7365304568
 10
-1331.9678838665
 20
-5.7298995708
 10
-1331.9735201226
 20
-5.7239282292
 10
-1331.9793658637
 20
-5.7186629434
 10
-1331.9854711726
 20
-5.7140433203
 10
-1331.9916040194
 20
-5.7099966364
 10
-1331.9977446266
 20
-5.706541214
 10
-1332.0039371916
 20
-5.7036604191
 10
-1332.0100391457
 20
-5.701239461
 10
-1332.016024015
 20
-5.6992853886
 10
-1332.0219307142
 20
-5.6978008981
 10
-1332.0277092746
 20
-5.6966686062
 10
-1332.033344021
 20
-5.6958530654
 10
-1332.0388553231
 20
-5.6954002648
 10
-1332.0442448675
 20
-5.695315417
  0
LWPOLYLINE
  5
4CE
100
AcDbEntity
  8
RACCORDO
100
AcDbPolyline
 62
253
  6
CONTINUOUS
 90
22
 70
0
 10
-1330.721949353
 20
-4.3730199025
 10
-1330.7214365923
 20
-4.3826850286
 10
-1330.7201260322
 20
-4.3920163551
 10
-1330.7180170935
 20
-4.4010270797
 10
-1330.7150067863
 20
-4.4098496999
 10
-1330.7111963561
 20
-4.4183858268
 10
-1330.7068758717
 20
-4.4263010479
 10
-1330.702009348
 20
-4.4335199023
 10
-1330.6965953145
 20
-4.4401507883
 10
-1330.6909590584
 20
-4.4461221298
 10
-1330.6851133172
 20
-4.4513874157
 10
-1330.6790080084
 20
-4.4560070387
 10
-1330.6728751616
 20
-4.4600537227
 10
-1330.6667345544
 20
-4.4635091451
 10
-1330.6605419894
 20
-4.4663899399
 10
-1330.6544400353
 20
-4.4688108981
 10
-1330.648455166
 20
-4.4707649705
 10
-1330.6425484668
 20
-4.472249461
 10
-1330.6367699064
 20
-4.4733817529
 10
-1330.63113516
 20
-4.4741972937
 10
-1330.6256238579
 20
-4.4746500943
 10
-1330.6202343134
 20
-4.4747349421
  0
LWPOLYLINE
  5
4CF
100
AcDbEntity
  8
RACCORDO
100
AcDbPolyline
 62
253
  6
CONTINUOUS
 90
16
 70
0
 10
-1331.6373843001
 20
-7.2210381446
 10
-1331.6375974528
 20
-7.2087104713
 10
-1331.6377211777
 20
-7.1959872395
 10
-1331.6377534089
 20
-7.183080838
 10
-1331.6376936081
 20
-7.1702067127
 10
-1331.6375427733
 20
-7.1575797711
 10
-1331.637303422
 20
-7.1454107942
 10
-1331.6369795491
 20
-7.1339029182
 10
-1331.6365765606
 20
-7.1232482438
 10
-1331.6361011832
 20
-7.1136246291
 10
-1331.6355613519
 20
-7.1051927207
 10
-1331.6349660775
 20
-7.0980932723
 10
-1331.6343252965
 20
-7.0924447948
 10
-1331.6336497047
 20
-7.0883415778
 10
-1331.6329505795
 20
-7.0858521165
 10
-1331.6322395908
 20
-7.0850179671
  0
LWPOLYLINE
  5
4D0
100
AcDbEntity
  8
RACCORDO
100
AcDbPolyline
 62
253
  6
CONTINUOUS
 90
16
 70
0
 10
-1331.0270948809
 20
-2.9490122145
 10
-1331.0268817281
 20
-2.9613398878
 10
-1331.0267580033
 20
-2.9740631195
 10
-1331.0267257721
 20
-2.9869695211
 10
-1331.0267855728
 20
-2.9998436463
 10
-1331.0269364076
 20
-3.012470588
 10
-1331.027175759
 20
-3.0246395649
 10
-1331.0274996319
 20
-3.0361474409
 10
-1331.0279026204
 20
-3.0468021153
 10
-1331.0283779977
 20
-3.05642573
 10
-1331.0289178291
 20
-3.0648576383
 10
-1331.0295131035
 20
-3.0719570867
 10
-1331.0301538845
 20
-3.0776055643
 10
-1331.0308294762
 20
-3.0817087812
 10
-1331.0315286015
 20
-3.0841982426
 10
-1331.0322395902
 20
-3.085032392
  0
LWPOLYLINE
  5
4D1
100
AcDbEntity
  8
RACCORDO
100
AcDbPolyline
 62
253
  6
CONTINUOUS
 90
13
 70
0
 10
-1333.163108985
 20
-5.6953149773
 10
-1333.1632535629
 20
-5.6813846923
 10
-1333.1627955969
 20
-5.667524952
 10
-1333.1617439844
 20
-5.6540050265
 10
-1333.1601191567
 20
-5.6410875837
 10
-1333.1579526811
 20
-5.6290235863
 10
-1333.1552866485
 20
-5.6180474162
 10
-1333.1521728552
 20
-5.6083723207
 10
-1333.1486717967
 20
-5.6001862695
 10
-1333.1448514925
 20
-5.593648303
 10
-1333.1407861642
 20
-5.5888854422
 10
-1333.1365547941
 20
-5.585990221
 10
-1333.1322395902
 20
-5.5850188882
  0
LWPOLYLINE
  5
4D2
100
AcDbEntity
  8
RACCORDO
100
AcDbPolyline
 62
253
  6
CONTINUOUS
 90
13
 70
0
 10
-1329.501370196
 20
-4.4747353817
 10
-1329.5012256181
 20
-4.4886656668
 10
-1329.5016835841
 20
-4.5025254071
 10
-1329.5027351965
 20
-4.5160453326
 10
-1329.5043600243
 20
-4.5289627754
 10
-1329.5065264999
 20
-4.5410267728
 10
-1329.5091925325
 20
-4.5520029429
 10
-1329.5123063258
 20
-4.5616780384
 10
-1329.5158073843
 20
-4.5698640896
 10
-1329.5196276885
 20
-4.576402056
 10
-1329.5236930168
 20
-4.5811649168
 10
-1329.5279243868
 20
-4.5840601381
 10
-1329.5322395908
 20
-4.5850314709
  0
LWPOLYLINE
  5
4D3
100
AcDbEntity
  8
RACCORDO
100
AcDbPolyline
 62
253
  6
CONTINUOUS
 90
13
 70
0
 10
-1332.0442448652
 20
-5.695315415
 10
-1332.0443009387
 20
-5.6813854585
 10
-1332.0441227089
 20
-5.6675262071
 10
-1332.0437136382
 20
-5.6540068899
 10
-1332.0430816731
 20
-5.6410901325
 10
-1332.0422390902
 20
-5.6290268554
 10
-1332.0412022574
 20
-5.618051399
 10
-1332.0399913162
 20
-5.6083769722
 10
-1332.0386297903
 20
-5.60019151
 10
-1332.0371441287
 20
-5.5936540226
 10
-1332.0355631916
 20
-5.5888915071
 10
-1332.0339176904
 20
-5.5859964799
 10
-1332.0322395905
 20
-5.5850251795
  0
LWPOLYLINE
  5
4D4
100
AcDbEntity
  8
RACCORDO
100
AcDbPolyline
 62
253
  6
CONTINUOUS
 90
13
 70
0
 10
-1330.6202343157
 20
-4.474734944
 10
-1330.6201782423
 20
-4.4886649005
 10
-1330.6203564721
 20
-4.502524152
 10
-1330.6207655428
 20
-4.5160434692
 10
-1330.6213975079
 20
-4.5289602265
 10
-1330.6222400908
 20
-4.5410235037
 10
-1330.6232769236
 20
-4.5519989601
 10
-1330.6244878648
 20
-4.5616733868
 10
-1330.6258493907
 20
-4.5698588491
 10
-1330.6273350523
 20
-4.5763963365
 10
-1330.6289159894
 20
-4.581158852
 10
-1330.6305614906
 20
-4.5840538792
 10
-1330.6322395905
 20
-4.5850251795
  0
LINE
  5
4D5
100
AcDbEntity
  8
0
100
AcDbLine
 62
7
  6
CONTINUOUS
 10
-1345.3672368389
 20
37.4149748205
 11
-1345.3672368389
 21
34.9149748205
  0
LINE
  5
4D6
100
AcDbEntity
  8
0
100
AcDbLine
 62
7
  6
CONTINUOUS
 10
-1345.3672368389
 20
-45.0850251795
 11
-1345.3672368389
 21
-47.5850251795
  0
LINE
  5
4D7
100
AcDbEntity
  8
0
100
AcDbLine
 62
7
  6
CONTINUOUS
 10
-1343.3672368389
 20
-47.5850251795
 11
-1343.3672368389
 21
-45.5850251795
  0
LINE
  5
4D8
100
AcDbEntity
  8
0
100
AcDbLine
 62
7
  6
CONTINUOUS
 10
-1343.3672368389
 20
-47.5850251795
 11
-1343.3672368389
 21
-55.5850251795
  0
LINE
  5
4D9
100
AcDbEntity
  8
0
100
AcDbLine
 62
7
  6
CONTINUOUS
 10
-1343.3672368389
 20
37.4149748205
 11
-1343.3672368389
 21
55.6149748205
  0
LINE
  5
4DA
100
AcDbEntity
  8
0
100
AcDbLine
 62
253
  6
CONTINUOUS
 10
-1342.3322395905
 20
34.9149748205
 11
-1342.3322395905
 21
-45.0850251795
  0
LINE
  5
4DB
100
AcDbEntity
  8
0
100
AcDbLine
 62
253
  6
CONTINUOUS
 10
-1339.896332343
 20
34.9149748205
 11
-1339.896332343
 21
-45.0850251795
  0
LINE
  5
4DC
100
AcDbEntity
  8
0
100
AcDbLine
 62
253
  6
CONTINUOUS
 10
-1338.9410745989
 20
34.9149748205
 11
-1338.9410745989
 21
-45.0850251795
  0
LINE
  5
4DD
100
AcDbEntity
  8
0
100
AcDbLine
 62
7
  6
CONTINUOUS
 10
-1337.8322395905
 20
44.9149748205
 11
-1337.8322395905
 21
-55.0850251795
  0
LINE
  5
4DE
100
AcDbEntity
  8
RACCORDO
100
AcDbLine
 62
253
  6
CONTINUOUS
 10
-1333.4682554216
 20
-5.3901702983
 11
-1333.4682554216
 21
-4.7798800608
  0
LINE
  5
4DF
100
AcDbEntity
  8
RACCORDO
100
AcDbLine
 62
7
  6
CONTINUOUS
 10
-1333.3322395905
 20
-5.3850251795
 11
-1333.3322395905
 21
-4.7850251795
  0
LINE
  5
4E0
100
AcDbEntity
  8
RACCORDO
100
AcDbLine
 62
7
  6
CONTINUOUS
 10
-1331.8322395905
 20
-6.8850251795
 11
-1331.8322395905
 21
-5.7850251795
  0
LINE
  5
4E1
100
AcDbEntity
  8
RACCORDO
100
AcDbLine
 62
7
  6
CONTINUOUS
 10
-1331.8322395905
 20
-4.3850251795
 11
-1331.8322395905
 21
-3.2850251795
  0
LINE
  5
4E2
100
AcDbEntity
  8
RACCORDO
100
AcDbLine
 62
7
  6
CONTINUOUS
 10
-1330.8322395905
 20
-3.2850251795
 11
-1330.8322395905
 21
-4.3850251795
  0
LINE
  5
4E3
100
AcDbEntity
  8
RACCORDO
100
AcDbLine
 62
7
  6
CONTINUOUS
 10
-1330.8322395905
 20
-5.7850251795
 11
-1330.8322395905
 21
-6.8850251795
  0
LINE
  5
4E4
100
AcDbEntity
  8
RACCORDO
100
AcDbLine
 62
7
  6
CONTINUOUS
 10
-1329.3322395905
 20
-4.7850251795
 11
-1329.3322395905
 21
-5.3850251795
  0
LINE
  5
4E5
100
AcDbEntity
  8
RACCORDO
100
AcDbLine
 62
253
  6
CONTINUOUS
 10
-1329.1962237594
 20
-4.7798800608
 11
-1329.1962237594
 21
-5.3901702983
  0
LINE
  5
4E6
100
AcDbEntity
  8
RACCORDO
100
AcDbLine
 62
253
  6
CONTINUOUS
 10
-1331.942529828
 20
-4.3730199025
 11
-1331.9425298265
 21
-3.5213785532
  0
LINE
  5
4E7
100
AcDbEntity
  8
RACCORDO
100
AcDbLine
 62
253
  6
CONTINUOUS
 10
-1331.9426059478
 20
-5.8550966268
 11
-1331.942529828
 21
-5.7970304566
  0
LINE
  5
4E8
100
AcDbEntity
  8
RACCORDO
100
AcDbLine
 62
253
  6
CONTINUOUS
 10
-1330.7218732332
 20
-4.3149537323
 11
-1330.721949353
 21
-4.3730199025
  0
LINE
  5
4E9
100
AcDbEntity
  8
RACCORDO
100
AcDbLine
 62
253
  6
CONTINUOUS
 10
-1330.721949353
 20
-5.7970304566
 11
-1330.7219493545
 21
-6.6486718059
  0
LWPOLYLINE
  5
4EA
100
AcDbEntity
  8
RACCORDO
100
AcDbPolyline
 62
253
  6
CONTINUOUS
 90
3
 70
0
 10
-1331.9425298265
 20
-3.5213785532
 10
-1331.9423500569
 20
-3.4346212488
 10
-1331.942529828
 20
-3.2541544671
  0
LWPOLYLINE
  5
4EB
100
AcDbEntity
  8
RACCORDO
100
AcDbPolyline
 62
253
  6
CONTINUOUS
 90
3
 70
0
 10
-1330.7219493545
 20
-6.6486718059
 10
-1330.7221291241
 20
-6.7354291103
 10
-1330.721949353
 20
-6.9158958919
  0
LINE
  5
4EC
100
AcDbEntity
  8
RACCORDO
100
AcDbLine
 62
253
  6
CONTINUOUS
 10
-1331.942529828
 20
-6.9158958919
 11
-1331.9426059478
 21
-5.8550966268
  0
LINE
  5
4ED
100
AcDbEntity
  8
RACCORDO
100
AcDbLine
 62
253
  6
CONTINUOUS
 10
-1330.721949353
 20
-3.2541544671
 11
-1330.7218732332
 21
-4.3149537323
  0
LWPOLYLINE
  5
4EE
100
AcDbEntity
  8
RACCORDO
100
AcDbPolyline
 62
253
  6
CONTINUOUS
 90
13
 70
0
 10
-1332.0442448673
 20
-4.4747349423
 10
-1332.0443009377
 20
-4.4886648765
 10
-1332.0441227054
 20
-4.5025241038
 10
-1332.0437136326
 20
-4.5160433959
 10
-1332.0430816661
 20
-4.5289601281
 10
-1332.0422390824
 20
-4.5410233808
 10
-1332.0412022494
 20
-4.5519988144
 10
-1332.0399913085
 20
-4.5616732208
 10
-1332.0386297834
 20
-4.5698586658
 10
-1332.037144123
 20
-4.5763961396
 10
-1332.0355631876
 20
-4.5811586456
 10
-1332.0339176883
 20
-4.5840536678
 10
-1332.0322395905
 20
-4.5850249677
  0
LWPOLYLINE
  5
4EF
100
AcDbEntity
  8
RACCORDO
100
AcDbPolyline
 62
253
  6
CONTINUOUS
 90
13
 70
0
 10
-1330.6202343137
 20
-5.6953154168
 10
-1330.6201782433
 20
-5.6813854826
 10
-1330.6203564756
 20
-5.6675262553
 10
-1330.6207655483
 20
-5.6540069632
 10
-1330.6213975148
 20
-5.641090231
 10
-1330.6222400986
 20
-5.6290269782
 10
-1330.6232769316
 20
-5.6180515447
 10
-1330.6244878725
 20
-5.6083771382
 10
-1330.6258493976
 20
-5.6001916933
 10
-1330.627335058
 20
-5.5936542195
 10
-1330.6289159934
 20
-5.5888917135
 10
-1330.6305614927
 20
-5.5859966913
 10
-1330.6322395905
 20
-5.5850253913
  0
LWPOLYLINE
  5
4F0
100
AcDbEntity
  8
RACCORDO
100
AcDbPolyline
 62
253
  6
CONTINUOUS
 90
13
 70
0
 10
-1333.1631102862
 20
-4.4747349476
 10
-1333.163254475
 20
-4.488664901
 10
-1333.16279617
 20
-4.5025241493
 10
-1333.1617442743
 20
-4.5160434635
 10
-1333.1601192219
 20
-4.5289602183
 10
-1333.1579525811
 20
-4.5410234934
 10
-1333.1552864408
 20
-4.5519989484
 10
-1333.1521725934
 20
-4.5616733747
 10
-1333.1486715282
 20
-4.5698588374
 10
-1333.1448512568
 20
-4.5763963262
 10
-1333.1407859914
 20
-4.5811588441
 10
-1333.1365547037
 20
-4.5840538748
 10
-1333.1322395905
 20
-4.5850251795
  0
LWPOLYLINE
  5
4F1
100
AcDbEntity
  8
RACCORDO
100
AcDbPolyline
 62
253
  6
CONTINUOUS
 90
13
 70
0
 10
-1329.5013688948
 20
-5.6953154114
 10
-1329.501224706
 20
-5.6813854581
 10
-1329.501683011
 20
-5.6675262098
 10
-1329.5027349067
 20
-5.6540068956
 10
-1329.5043599591
 20
-5.6410901408
 10
-1329.5065265999
 20
-5.6290268657
 10
-1329.5091927402
 20
-5.6180514107
 10
-1329.5123065876
 20
-5.6083769844
 10
-1329.5158076527
 20
-5.6001915217
 10
-1329.5196279242
 20
-5.5936540329
 10
-1329.5236931896
 20
-5.588891515
 10
-1329.5279244773
 20
-5.5859964843
 10
-1329.5322395905
 20
-5.5850251795
  0
LWPOLYLINE
  5
4F2
100
AcDbEntity
  8
RACCORDO
100
AcDbPolyline
 62
253
  6
CONTINUOUS
 90
16
 70
0
 10
-1331.6373847078
 20
-2.9490093587
 10
-1331.6375978564
 20
-2.9613369798
 10
-1331.6377215721
 20
-2.9740599718
 10
-1331.6377537901
 20
-2.9869659801
 10
-1331.6376939724
 20
-2.9998395951
 10
-1331.6375431177
 20
-3.0124659482
 10
-1331.6373037437
 20
-3.0246342976
 10
-1331.636979846
 20
-3.0361415459
 10
-1331.6365768304
 20
-3.0467956299
 10
-1331.6361014235
 20
-3.0564187262
 10
-1331.6355615603
 20
-3.0648502193
 10
-1331.6349662514
 20
-3.0719493822
 10
-1331.6343254325
 20
-3.0775977255
 10
-1331.6336497994
 20
-3.0817009748
 10
-1331.6329506289
 20
-3.0841906442
 10
-1331.6322395905
 20
-3.0850251795
  0
LWPOLYLINE
  5
4F3
100
AcDbEntity
  8
RACCORDO
100
AcDbPolyline
 62
253
  6
CONTINUOUS
 90
16
 70
0
 10
-1331.0270944732
 20
-7.2210410004
 10
-1331.0268813246
 20
-7.2087133793
 10
-1331.0267576089
 20
-7.1959903873
 10
-1331.0267253909
 20
-7.183084379
 10
-1331.0267852086
 20
-7.170210764
 10
-1331.0269360633
 20
-7.1575844109
 10
-1331.0271754373
 20
-7.1454160615
 10
-1331.027499335
 20
-7.1339088132
 10
-1331.0279023506
 20
-7.1232547292
 10
-1331.0283777574
 20
-7.1136316329
 10
-1331.0289176207
 20
-7.1052001398
 10
-1331.0295129296
 20
-7.0981009769
 10
-1331.0301537485
 20
-7.0924526335
 10
-1331.0308293816
 20
-7.0883493843
 10
-1331.0315285521
 20
-7.0858597149
 10
-1331.0322395905
 20
-7.0850251795
  0
LWPOLYLINE
  5
4F4
100
AcDbEntity
  8
RACCORDO
100
AcDbPolyline
 62
253
  6
CONTINUOUS
 90
19
 70
0
 10
-1333.4682554216
 20
-4.7798800608
 10
-1333.4671156943
 20
-4.7537806027
 10
-1333.4638198694
 20
-4.7280954183
 10
-1333.4583836164
 20
-4.702894407
 10
-1333.4507975377
 20
-4.6781602533
 10
-1333.441102617
 20
-4.6540484865
 10
-1333.4294000145
 20
-4.6308824179
 10
-1333.4157048333
 20
-4.6087033582
 10
-1333.4000551132
 20
-4.5875895657
 10
-1333.3826046846
 20
-4.5679028941
 10
-1333.3633258949
 20
-4.5496460107
 10
-1333.3423136056
 20
-4.532901571
 10
-1333.3199233188
 20
-4.5181160879
 10
-1333.2961576129
 20
-4.5052983377
 10
-1333.2710860151
 20
-4.4944553173
 10
-1333.2451758329
 20
-4.4859758325
 10
-1333.218602706
 20
-4.4799545498
 10
-1333.1912427958
 20
-4.4762216604
 10
-1333.1631103029
 20
-4.4747349421
  0
LWPOLYLINE
  5
4F5
100
AcDbEntity
  8
RACCORDO
100
AcDbPolyline
 62
253
  6
CONTINUOUS
 90
19
 70
0
 10
-1329.1962237594
 20
-5.3901702983
 10
-1329.1973634867
 20
-5.4162697563
 10
-1329.2006593116
 20
-5.4419549408
 10
-1329.2060955646
 20
-5.4671559521
 10
-1329.2136816433
 20
-5.4918901058
 10
-1329.223376564
 20
-5.5160018726
 10
-1329.2350791665
 20
-5.5391679412
 10
-1329.2487743477
 20
-5.5613470009
 10
-1329.2644240678
 20
-5.5824607934
 10
-1329.2818744964
 20
-5.602147465
 10
-1329.3011532861
 20
-5.6204043484
 10
-1329.3221655754
 20
-5.6371487881
 10
-1329.3445558622
 20
-5.6519342712
 10
-1329.3683215681
 20
-5.6647520214
 10
-1329.3933931659
 20
-5.6755950418
 10
-1329.4193033481
 20
-5.6840745265
 10
-1329.445876475
 20
-5.6900958093
 10
-1329.4732363852
 20
-5.6938286987
 10
-1329.5013688781
 20
-5.695315417
  0
LWPOLYLINE
  5
4F6
100
AcDbEntity
  8
RACCORDO
100
AcDbPolyline
 62
253
  6
CONTINUOUS
 90
19
 70
0
 10
-1331.942529828
 20
-3.2541544671
 10
-1331.9409284946
 20
-3.2255135321
 10
-1331.9370985369
 20
-3.1978153605
 10
-1331.931003596
 20
-3.1710742892
 10
-1331.9224851182
 20
-3.1452264718
 10
-1331.9116411686
 20
-3.1203867989
 10
-1331.898848343
 20
-3.0968415879
 10
-1331.8841183894
 20
-3.0746078966
 10
-1331.8674544473
 20
-3.0537395695
 10
-1331.8492663242
 20
-3.0345679893
 10
-1331.8296220395
 20
-3.0171724609
 10
-1331.8085348735
 20
-3.0015418507
 10
-1331.7863671065
 20
-2.9878550052
 10
-1331.7631867781
 20
-2.9761540354
 10
-1331.7390443613
 20
-2.9664512314
 10
-1331.7142944393
 20
-2.9588613647
 10
-1331.6891033828
 20
-2.9534291143
 10
-1331.6634435008
 20
-2.9501400743
 10
-1331.6373847092
 20
-2.9490093484
  0
LWPOLYLINE
  5
4F7
100
AcDbEntity
  8
RACCORDO
100
AcDbPolyline
 62
253
  6
CONTINUOUS
 90
19
 70
0
 10
-1330.721949353
 20
-6.9158958919
 10
-1330.7235506864
 20
-6.944536827
 10
-1330.7273806441
 20
-6.9722349985
 10
-1330.733475585
 20
-6.9989760699
 10
-1330.7419940628
 20
-7.0248238873
 10
-1330.7528380124
 20
-7.0496635602
 10
-1330.765630838
 20
-7.0732087711
 10
-1330.7803607916
 20
-7.0954424625
 10
-1330.7970247337
 20
-7.1163107895
 10
-1330.8152128568
 20
-7.1354823697
 10
-1330.8348571415
 20
-7.1528778982
 10
-1330.8559443075
 20
-7.1685085084
 10
-1330.8781120745
 20
-7.1821953539
 10
-1330.9012924029
 20
-7.1938963237
 10
-1330.9254348197
 20
-7.2035991277
 10
-1330.9501847417
 20
-7.2111889944
 10
-1330.9753757982
 20
-7.2166212448
 10
-1331.0010356802
 20
-7.2199102848
 10
-1331.0270944718
 20
-7.2210410107
  0
LWPOLYLINE
  5
4F8
100
AcDbEntity
  8
RACCORDO
100
AcDbPolyline
 62
7
  6
CONTINUOUS
 90
7
 70
0
 10
-1461.9575751603
 20
-4.568871868
 10
-1461.9587404768
 20
-4.5675723366
 10
-1461.958913207
 20
-4.5673624793
 10
-1461.9581063881
 20
-4.5686481003
 10
-1461.9565462606
 20
-4.5715298223
 10
-1461.9543790896
 20
-4.5761855035
 10
-1461.9517691223
 20
-4.5827231358
  0
LWPOLYLINE
  5
4F9
100
AcDbEntity
  8
RACCORDO
100
AcDbPolyline
 62
253
  6
CONTINUOUS
 90
9
 70
0
 10
-1461.9258116322
 20
-2.9490093484
 10
-1461.9247448809
 20
-2.9501213895
 10
-1461.9244157281
 20
-2.953400026
 10
-1461.9248250365
 20
-2.9588313779
 10
-1461.9259761901
 20
-2.9664337558
 10
-1461.9278617033
 20
-2.9761612288
 10
-1461.9304633182
 20
-2.987890918
 10
-1461.9337790187
 20
-3.001605984
 10
-1461.9377954179
 20
-3.0172676622
  0
LINE
  5
4FA
100
AcDbEntity
  8
RACCORDO
100
AcDbLine
 62
253
  6
CONTINUOUS
 10
-1462.1992282934
 20
-4.5763963365
 11
-1462.18622527
 21
-4.581158852
  0
LINE
  5
4FB
100
AcDbEntity
  8
RACCORDO
100
AcDbLine
 62
253
  6
CONTINUOUS
 10
-1462.0094497332
 20
-6.9158944574
 11
-1462.0099553463
 21
-6.916059526
  0
LINE
  5
4FC
100
AcDbEntity
  8
RACCORDO
100
AcDbLine
 62
253
  6
CONTINUOUS
 10
-1462.0094540601
 20
-3.2541544888
 11
-1462.0099587002
 21
-3.2539897361
  0
LINE
  5
4FD
100
AcDbEntity
  8
RACCORDO
100
AcDbLine
 62
253
  6
CONTINUOUS
 10
-1462.18622527
 20
-4.581158852
 11
-1462.1726912138
 21
-4.5840538792
  0
LWPOLYLINE
  5
4FE
100
AcDbEntity
  8
RACCORDO
100
AcDbPolyline
 62
253
  6
CONTINUOUS
 90
20
 70
0
 10
-456.4068481353
 20
-4.4747349421
 10
-456.4062056147
 20
-4.4746558828
 10
-456.4055907462
 20
-4.4742033987
 10
-456.4050032196
 20
-4.4733830071
 10
-456.4044355134
 20
-4.4722394033
 10
-456.40389462
 20
-4.4707392498
 10
-456.403401778
 20
-4.4687700134
 10
-456.4029540409
 20
-4.4663339162
 10
-456.4025534647
 20
-4.4634378423
 10
-456.4022283769
 20
-4.4599717395
 10
-456.4019765506
 20
-4.4559182108
 10
-456.4017993058
 20
-4.4512958802
 10
-456.4017301019
 20
-4.4460385043
 10
-456.4017709798
 20
-4.4400895517
 10
-456.4019198325
 20
-4.4334914141
 10
-456.4022042373
 20
-4.4263106528
 10
-456.4026355161
 20
-4.418450562
 10
-456.403204465
 20
-4.4099755355
 10
-456.4039084981
 20
-4.401181007
 10
-456.4047481512
 20
-4.3921522504
  0
LINE
  5
4FF
100
AcDbEntity
  8
RACCORDO
100
AcDbLine
 62
253
  6
CONTINUOUS
 10
-456.4068481491
 20
-4.3730199042
 11
-456.4063211766
 21
-4.3729558337
  0
LINE
  5
500
100
AcDbEntity
  8
RACCORDO
100
AcDbLine
 62
253
  6
CONTINUOUS
 10
-1462.2576309482
 20
-4.3730199143
 11
-1462.2581573166
 21
-4.372955973
  0
LWPOLYLINE
  5
501
100
AcDbEntity
  8
RACCORDO
100
AcDbPolyline
 62
253
  6
CONTINUOUS
 90
10
 70
0
 10
-1462.0094541266
 20
-4.4747349421
 10
-1462.0003028014
 20
-4.4762539956
 10
-1461.9915123456
 20
-4.4800204798
 10
-1461.9831012746
 20
-4.4860753173
 10
-1461.9750554993
 20
-4.4945859422
 10
-1461.9674223258
 20
-4.5054566561
 10
-1461.9603137027
 20
-4.5183007848
 10
-1461.9537536593
 20
-4.5331156079
 10
-1461.9477505936
 20
-4.5498882974
 10
-1461.9423954757
 20
-4.5681632201
  0
LINE
  5
502
100
AcDbEntity
  8
RACCORDO
100
AcDbLine
 62
253
  6
CONTINUOUS
 10
-456.7386754895
 20
-4.7798804993
 11
-456.7319715772
 21
-4.7795103479
  0
LWPOLYLINE
  5
503
100
AcDbEntity
  8
RACCORDO
100
AcDbPolyline
 62
7
  6
CONTINUOUS
 90
15
 70
0
 10
-456.5055905158
 20
-4.5850249644
 10
-456.4945075123
 20
-4.5844179697
 10
-456.4819451639
 20
-4.5822314001
 10
-456.4702148589
 20
-4.5786584621
 10
-456.4594834969
 20
-4.573945752
 10
-456.4497731487
 20
-4.5682997771
 10
-456.4409934013
 20
-4.5618276555
 10
-456.4331603192
 20
-4.5546702098
 10
-456.4263047985
 20
-4.5469926167
 10
-456.4203588111
 20
-4.5388507036
 10
-456.4152114654
 20
-4.5301618047
 10
-456.4109628422
 20
-4.5211726304
 10
-456.4077157259
 20
-4.5124061266
 10
-456.4053338615
 20
-4.5040587917
 10
-456.4035915787
 20
-4.4959422609
  0
LINE
  5
504
100
AcDbEntity
  8
ASSI
100
AcDbLine
 62
7
  6
CONTINUOUS
 10
-1444.8532964747
 20
-55.5850251795
 11
-1444.3318824567
 21
-55.5850251795
  0
LINE
  5
505
100
AcDbEntity
  8
0
100
AcDbLine
 62
7
  6
CONTINUOUS
 10
-462.3322395905
 20
-55.5850251795
 11
-575.2972423421
 21
-55.5850251795
  0
LINE
  5
506
100
AcDbEntity
  8
0
100
AcDbLine
 62
7
  6
CONTINUOUS
 10
-1343.3672368389
 20
-55.5850251795
 11
-1444.3318824567
 21
-55.5850251795
  0
LINE
  5
507
100
AcDbEntity
  8
0
100
AcDbLine
 62
7
  6
CONTINUOUS
 10
-1444.8532964747
 20
-55.5850251795
 11
-1456.3322395905
 21
-55.5850251795
  0
LINE
  5
508
100
AcDbEntity
  8
0
100
AcDbLine
 62
7
  6
CONTINUOUS
 10
-580.8322395905
 20
-55.0850251795
 11
-1337.8322395905
 21
-55.0850251795
  0
LINE
  5
509
100
AcDbEntity
  8
0
100
AcDbLine
 62
7
  6
CONTINUOUS
 10
-462.3322395905
 20
-53.0850251795
 11
-473.8111827063
 21
-53.0850251795
  0
LINE
  5
50A
100
AcDbEntity
  8
0
100
AcDbLine
 62
7
  6
CONTINUOUS
 10
-474.3325967242
 20
-53.0850251795
 11
-485.0099091202
 21
-53.0850251795
  0
LINE
  5
50B
100
AcDbEntity
  8
0
100
AcDbLine
 62
7
  6
CONTINUOUS
 10
-1433.6545700608
 20
-53.0850251795
 11
-1444.3318824567
 21
-53.0850251795
  0
LINE
  5
50C
100
AcDbEntity
  8
0
100
AcDbLine
 62
7
  6
CONTINUOUS
 10
-1444.8532964747
 20
-53.0850251795
 11
-1456.3322395905
 21
-53.0850251795
  0
LINE
  5
50D
100
AcDbEntity
  8
0
100
AcDbLine
 62
7
  6
CONTINUOUS
 10
-1459.3322395905
 20
-52.5850251795
 11
-1433.6545700608
 21
-52.5850251795
  0
LINE
  5
50E
100
AcDbEntity
  8
0
100
AcDbLine
 62
253
  6
CONTINUOUS
 10
-575.2972423421
 20
-52.5850251795
 11
-485.0099091202
 21
-52.5850251795
  0
LINE
  5
50F
100
AcDbEntity
  8
0
100
AcDbLine
 62
7
  6
CONTINUOUS
 10
-485.0099091202
 20
-52.5850251795
 11
-459.3322395905
 21
-52.5850251795
  0
LINE
  5
510
100
AcDbEntity
  8
0
100
AcDbLine
 62
253
  6
CONTINUOUS
 10
-1343.3672368389
 20
-52.5850251795
 11
-1433.6545700608
 21
-52.5850251795
  0
LINE
  5
511
100
AcDbEntity
  8
0
100
AcDbLine
 62
253
  6
CONTINUOUS
 10
-580.8322395905
 20
-51.0850251795
 11
-1337.8322395905
 21
-51.0850251795
  0
LINE
  5
512
100
AcDbEntity
  8
0
100
AcDbLine
 62
7
  6
CONTINUOUS
 10
-573.2972423421
 20
-47.5850251795
 11
-575.2972423421
 21
-47.5850251795
  0
LINE
  5
513
100
AcDbEntity
  8
0
100
AcDbLine
 62
7
  6
CONTINUOUS
 10
-1343.3672368389
 20
-47.5850251795
 11
-1345.3672368389
 21
-47.5850251795
  0
LINE
  5
514
100
AcDbEntity
  8
0
100
AcDbLine
 62
7
  6
CONTINUOUS
 10
-575.2972423421
 20
-45.5850251795
 11
-573.2972423421
 21
-45.5850251795
  0
LINE
  5
515
100
AcDbEntity
  8
0
100
AcDbLine
 62
7
  6
CONTINUOUS
 10
-1343.3672368389
 20
-45.5850251795
 11
-1345.3672368389
 21
-45.5850251795
  0
LINE
  5
516
100
AcDbEntity
  8
0
100
AcDbLine
 62
7
  6
CONTINUOUS
 10
-573.2972423421
 20
-45.0850251795
 11
-580.8322395905
 21
-45.0850251795
  0
LINE
  5
517
100
AcDbEntity
  8
0
100
AcDbLine
 62
7
  6
CONTINUOUS
 10
-1337.8322395905
 20
-45.0850251795
 11
-1345.3672368389
 21
-45.0850251795
  0
LINE
  5
518
100
AcDbEntity
  8
RACCORDO
100
AcDbLine
 62
253
  6
CONTINUOUS
 10
-1461.9258116272
 20
-4.7798800611
 11
-1461.9325122921
 21
-4.7795099398
  0
LINE
  5
519
100
AcDbEntity
  8
RACCORDO
100
AcDbLine
 62
253
  6
CONTINUOUS
 10
-1462.1726912138
 20
-4.5840538792
 11
-1462.1588890367
 21
-4.5850251795
  0
LWPOLYLINE
  5
51A
100
AcDbEntity
  8
RACCORDO
100
AcDbPolyline
 62
7
  6
CONTINUOUS
 90
11
 70
0
 10
-456.5055949275
 20
-4.5850250954
 10
-456.4960254513
 20
-4.584573172
 10
-456.4832931593
 20
-4.582544523
 10
-456.4713872385
 20
-4.5790860757
 10
-456.4604828065
 20
-4.5744481011
 10
-456.4506072394
 20
-4.5688425019
 10
-456.4416726492
 20
-4.5623818825
 10
-456.4336988519
 20
-4.5552120917
 10
-456.4267186237
 20
-4.547502167
 10
-456.4206628569
 20
-4.5393095577
 10
-456.4154197894
 20
-4.5305523608
  0
LWPOLYLINE
  5
51B
100
AcDbEntity
  8
RACCORDO
100
AcDbPolyline
 62
253
  6
CONTINUOUS
 90
11
 70
0
 10
-456.4068481353
 20
-5.695315417
 10
-456.4149345143
 20
-5.6955102922
 10
-456.4240387457
 20
-5.695485455
 10
-456.4342519155
 20
-5.6953154171
 10
-456.4457862866
 20
-5.6954011355
 10
-456.4586410172
 20
-5.6955813795
 10
-456.4725393361
 20
-5.6953154179
 10
-456.4873998454
 20
-5.6951008654
 10
-456.5033974514
 20
-5.6953291459
 10
-456.5205846504
 20
-5.6953154169
 10
-456.538920548
 20
-5.6951212533
  0
LWPOLYLINE
  5
51C
100
AcDbEntity
  8
RACCORDO
100
AcDbPolyline
 62
253
  6
CONTINUOUS
 90
16
 70
0
 10
-585.1962268305
 20
-5.3901698598
 10
-585.2085545073
 20
-5.3903830146
 10
-585.2212777554
 20
-5.3905067415
 10
-585.2341841841
 20
-5.3905389749
 10
-585.2470583446
 20
-5.3904791763
 10
-585.259685327
 20
-5.3903283435
 10
-585.2718543474
 20
-5.3900889941
 10
-585.2833622669
 20
-5.389765123
 10
-585.2940169822
 20
-5.3893621363
 10
-585.3036406328
 20
-5.3888867606
 10
-585.3120725699
 20
-5.3883469309
 10
-585.3191720381
 20
-5.3877516582
 10
-585.3248205249
 20
-5.3871108789
 10
-585.3289237395
 20
-5.3864352891
 10
-585.3314131864
 20
-5.3857361661
 10
-585.3322473089
 20
-5.3850251797
  0
LWPOLYLINE
  5
51D
100
AcDbEntity
  8
RACCORDO
100
AcDbPolyline
 62
253
  6
CONTINUOUS
 90
16
 70
0
 10
-589.4682523505
 20
-4.7798804993
 10
-589.4559246737
 20
-4.7796673445
 10
-589.4432014256
 20
-4.7795436176
 10
-589.4302949969
 20
-4.7795113842
 10
-589.4174208364
 20
-4.7795711828
 10
-589.404793854
 20
-4.7797220156
 10
-589.3926248336
 20
-4.779961365
 10
-589.3811169141
 20
-4.7802852361
 10
-589.3704621988
 20
-4.7806882228
 10
-589.3608385482
 20
-4.7811635985
 10
-589.3524066111
 20
-4.7817034281
 10
-589.3453071429
 20
-4.7822987009
 10
-589.3396586561
 20
-4.7829394802
 10
-589.3355554415
 20
-4.78361507
 10
-589.3330659946
 20
-4.784314193
 10
-589.3322318721
 20
-4.7850251794
  0
LWPOLYLINE
  5
51E
100
AcDbEntity
  8
RACCORDO
100
AcDbPolyline
 62
253
  6
CONTINUOUS
 90
16
 70
0
 10
-1329.1962268305
 20
-5.3901698598
 10
-1329.2085545073
 20
-5.3903830146
 10
-1329.2212777554
 20
-5.3905067415
 10
-1329.2341841841
 20
-5.3905389749
 10
-1329.2470583446
 20
-5.3904791763
 10
-1329.259685327
 20
-5.3903283435
 10
-1329.2718543474
 20
-5.3900889941
 10
-1329.2833622669
 20
-5.389765123
 10
-1329.2940169822
 20
-5.3893621363
 10
-1329.3036406328
 20
-5.3888867606
 10
-1329.3120725699
 20
-5.3883469309
 10
-1329.3191720381
 20
-5.3877516582
 10
-1329.3248205249
 20
-5.3871108789
 10
-1329.3289237395
 20
-5.3864352891
 10
-1329.3314131864
 20
-5.3857361661
 10
-1329.3322473089
 20
-5.3850251797
  0
LWPOLYLINE
  5
51F
100
AcDbEntity
  8
RACCORDO
100
AcDbPolyline
 62
253
  6
CONTINUOUS
 90
16
 70
0
 10
-1333.4682523505
 20
-4.7798804993
 10
-1333.4559246737
 20
-4.7796673445
 10
-1333.4432014256
 20
-4.7795436176
 10
-1333.4302949969
 20
-4.7795113842
 10
-1333.4174208364
 20
-4.7795711828
 10
-1333.404793854
 20
-4.7797220156
 10
-1333.3926248336
 20
-4.779961365
 10
-1333.3811169141
 20
-4.7802852361
 10
-1333.3704621988
 20
-4.7806882228
 10
-1333.3608385482
 20
-4.7811635985
 10
-1333.3524066111
 20
-4.7817034281
 10
-1333.3453071429
 20
-4.7822987009
 10
-1333.3396586561
 20
-4.7829394802
 10
-1333.3355554415
 20
-4.78361507
 10
-1333.3330659946
 20
-4.784314193
 10
-1333.3322318721
 20
-4.7850251794
  0
LWPOLYLINE
  5
520
100
AcDbEntity
  8
RACCORDO
100
AcDbPolyline
 62
253
  6
CONTINUOUS
 90
22
 70
0
 10
-586.6202343134
 20
-5.695315417
 10
-586.6256073026
 20
-5.6953944763
 10
-586.6311162668
 20
-5.6958469604
 10
-586.6367628526
 20
-5.696667352
 10
-586.6425758625
 20
-5.6978109557
 10
-586.6485311428
 20
-5.6993111093
 10
-586.6545534257
 20
-5.7012803457
 10
-586.6606721998
 20
-5.7037164429
 10
-586.666870622
 20
-5.7066125168
 10
-586.6730093968
 20
-5.7100786196
 10
-586.6791325455
 20
-5.7141321483
 10
-586.6852203791
 20
-5.7187544788
 10
-586.6910442445
 20
-5.7240118548
 10
-586.6966511465
 20
-5.7299608074
 10
-586.7020306672
 20
-5.736558945
 10
-586.7068689246
 20
-5.7437397062
 10
-586.7111706154
 20
-5.751599797
 10
-586.7149677275
 20
-5.7600748236
 10
-586.7179723687
 20
-5.7688693521
 10
-586.7200854479
 20
-5.7778981086
 10
-586.7214105044
 20
-5.7872806657
 10
-586.721949353
 20
-5.7970304566
  0
LWPOLYLINE
  5
521
100
AcDbEntity
  8
RACCORDO
100
AcDbPolyline
 62
253
  6
CONTINUOUS
 90
22
 70
0
 10
-588.0442448675
 20
-4.4747349421
 10
-588.0388718784
 20
-4.4746558828
 10
-588.0333629142
 20
-4.4742033987
 10
-588.0277163284
 20
-4.4733830071
 10
-588.0219033185
 20
-4.4722394033
 10
-588.0159480382
 20
-4.4707392498
 10
-588.0099257553
 20
-4.4687700134
 10
-588.0038069812
 20
-4.4663339162
 10
-587.997608559
 20
-4.4634378423
 10
-587.9914697842
 20
-4.4599717395
 10
-587.9853466355
 20
-4.4559182108
 10
-587.9792588018
 20
-4.4512958802
 10
-587.9734349365
 20
-4.4460385043
 10
-587.9678280345
 20
-4.4400895517
 10
-587.9624485138
 20
-4.4334914141
 10
-587.9576102564
 20
-4.4263106528
 10
-587.9533085656
 20
-4.418450562
 10
-587.9495114535
 20
-4.4099755355
 10
-587.9465068123
 20
-4.401181007
 10
-587.9443937331
 20
-4.3921522504
 10
-587.9430686766
 20
-4.3827696933
 10
-587.942529828
 20
-4.3730199025
  0
LWPOLYLINE
  5
522
100
AcDbEntity
  8
RACCORDO
100
AcDbPolyline
 62
253
  6
CONTINUOUS
 90
22
 70
0
 10
-1330.6202343134
 20
-5.695315417
 10
-1330.6256073026
 20
-5.6953944763
 10
-1330.6311162668
 20
-5.6958469604
 10
-1330.6367628526
 20
-5.696667352
 10
-1330.6425758625
 20
-5.6978109557
 10
-1330.6485311428
 20
-5.6993111093
 10
-1330.6545534257
 20
-5.7012803457
 10
-1330.6606721998
 20
-5.7037164429
 10
-1330.666870622
 20
-5.7066125168
 10
-1330.6730093968
 20
-5.7100786196
 10
-1330.6791325455
 20
-5.7141321483
 10
-1330.6852203791
 20
-5.7187544788
 10
-1330.6910442445
 20
-5.7240118548
 10
-1330.6966511465
 20
-5.7299608074
 10
-1330.7020306672
 20
-5.736558945
 10
-1330.7068689246
 20
-5.7437397062
 10
-1330.7111706154
 20
-5.751599797
 10
-1330.7149677275
 20
-5.7600748236
 10
-1330.7179723687
 20
-5.7688693521
 10
-1330.7200854479
 20
-5.7778981086
 10
-1330.7214105044
 20
-5.7872806657
 10
-1330.721949353
 20
-5.7970304566
  0
LWPOLYLINE
  5
523
100
AcDbEntity
  8
RACCORDO
100
AcDbPolyline
 62
253
  6
CONTINUOUS
 90
22
 70
0
 10
-1332.0442448675
 20
-4.4747349421
 10
-1332.0388718784
 20
-4.4746558828
 10
-1332.0333629142
 20
-4.4742033987
 10
-1332.0277163284
 20
-4.4733830071
 10
-1332.0219033185
 20
-4.4722394033
 10
-1332.0159480382
 20
-4.4707392498
 10
-1332.0099257553
 20
-4.4687700134
 10
-1332.0038069812
 20
-4.4663339162
 10
-1331.997608559
 20
-4.4634378423
 10
-1331.9914697842
 20
-4.4599717395
 10
-1331.9853466355
 20
-4.4559182108
 10
-1331.9792588018
 20
-4.4512958802
 10
-1331.9734349365
 20
-4.4460385043
 10
-1331.9678280345
 20
-4.4400895517
 10
-1331.9624485138
 20
-4.4334914141
 10
-1331.9576102564
 20
-4.4263106528
 10
-1331.9533085656
 20
-4.418450562
 10
-1331.9495114535
 20
-4.4099755355
 10
-1331.9465068123
 20
-4.401181007
 10
-1331.9443937331
 20
-4.3921522504
 10
-1331.9430686766
 20
-4.3827696933
 10
-1331.942529828
 20
-4.3730199025
  0
LWPOLYLINE
  5
524
100
AcDbEntity
  8
RACCORDO
100
AcDbPolyline
 62
253
  6
CONTINUOUS
 90
13
 70
0
 10
-586.7219498316
 20
-6.9158944574
 10
-586.7358801435
 20
-6.9160390669
 10
-586.7497399236
 20
-6.9155811286
 10
-586.7632598988
 20
-6.9145295396
 10
-586.7761773977
 20
-6.9129047307
 10
-586.788241454
 20
-6.9107382693
 10
-586.7992176825
 20
-6.9080722464
 10
-586.8088928327
 20
-6.9049584586
 10
-586.8170789321
 20
-6.9014574019
 10
-586.8236169377
 20
-6.8976370963
 10
-586.8283798268
 20
-6.8935717643
 10
-586.8312750639
 20
-6.889340389
 10
-586.8322463994
 20
-6.8850251791
  0
LWPOLYLINE
  5
525
100
AcDbEntity
  8
RACCORDO
100
AcDbPolyline
 62
253
  6
CONTINUOUS
 90
13
 70
0
 10
-587.9425293494
 20
-3.2541559017
 10
-587.9285990375
 20
-3.2540112922
 10
-587.9147392574
 20
-3.2544692305
 10
-587.9012192822
 20
-3.2555208195
 10
-587.8883017833
 20
-3.2571456284
 10
-587.876237727
 20
-3.2593120898
 10
-587.8652614985
 20
-3.2619781127
 10
-587.8555863483
 20
-3.2650919005
 10
-587.8474002489
 20
-3.2685929572
 10
-587.8408622433
 20
-3.2724132628
 10
-587.8360993542
 20
-3.2764785947
 10
-587.833204117
 20
-3.2807099701
 10
-587.8322327816
 20
-3.2850251799
  0
LWPOLYLINE
  5
526
100
AcDbEntity
  8
RACCORDO
100
AcDbPolyline
 62
253
  6
CONTINUOUS
 90
13
 70
0
 10
-1330.7219498316
 20
-6.9158944574
 10
-1330.7358801435
 20
-6.9160390669
 10
-1330.7497399236
 20
-6.9155811286
 10
-1330.7632598988
 20
-6.9145295396
 10
-1330.7761773977
 20
-6.9129047307
 10
-1330.788241454
 20
-6.9107382693
 10
-1330.7992176825
 20
-6.9080722464
 10
-1330.8088928327
 20
-6.9049584586
 10
-1330.8170789321
 20
-6.9014574019
 10
-1330.8236169377
 20
-6.8976370963
 10
-1330.8283798268
 20
-6.8935717643
 10
-1330.8312750639
 20
-6.889340389
 10
-1330.8322463994
 20
-6.8850251791
  0
LWPOLYLINE
  5
527
100
AcDbEntity
  8
RACCORDO
100
AcDbPolyline
 62
253
  6
CONTINUOUS
 90
13
 70
0
 10
-1331.9425293494
 20
-3.2541559017
 10
-1331.9285990375
 20
-3.2540112922
 10
-1331.9147392574
 20
-3.2544692305
 10
-1331.9012192822
 20
-3.2555208195
 10
-1331.8883017833
 20
-3.2571456284
 10
-1331.876237727
 20
-3.2593120898
 10
-1331.8652614985
 20
-3.2619781127
 10
-1331.8555863483
 20
-3.2650919005
 10
-1331.8474002489
 20
-3.2685929572
 10
-1331.8408622433
 20
-3.2724132628
 10
-1331.8360993542
 20
-3.2764785947
 10
-1331.833204117
 20
-3.2807099701
 10
-1331.8322327816
 20
-3.2850251799
  0
LWPOLYLINE
  5
528
100
AcDbEntity
  8
RACCORDO
100
AcDbPolyline
 62
253
  6
CONTINUOUS
 90
13
 70
0
 10
-586.7219493545
 20
-5.7970304549
 10
-586.7358793114
 20
-5.7970865284
 10
-586.7497385633
 20
-5.7969082985
 10
-586.7632578809
 20
-5.7964992277
 10
-586.7761746386
 20
-5.7958672625
 10
-586.7882379161
 20
-5.7950246794
 10
-586.7992133726
 20
-5.7939878464
 10
-586.8088877995
 20
-5.792776905
 10
-586.8170732617
 20
-5.7914153788
 10
-586.8236107489
 20
-5.7899297171
 10
-586.8283732641
 20
-5.7883487801
 10
-586.8312682908
 20
-5.7867032791
 10
-586.8322395905
 20
-5.7850251795
  0
LWPOLYLINE
  5
529
100
AcDbEntity
  8
RACCORDO
100
AcDbPolyline
 62
253
  6
CONTINUOUS
 90
13
 70
0
 10
-587.9425298265
 20
-4.3730199042
 10
-587.9285998696
 20
-4.3729638307
 10
-587.9147406177
 20
-4.3731420605
 10
-587.9012213001
 20
-4.3735511314
 10
-587.8883045424
 20
-4.3741830966
 10
-587.8762412649
 20
-4.3750256797
 10
-587.8652658084
 20
-4.3760625127
 10
-587.8555913815
 20
-4.3772734541
 10
-587.8474059193
 20
-4.3786349802
 10
-587.8408684321
 20
-4.380120642
 10
-587.8361059169
 20
-4.381701579
 10
-587.8332108902
 20
-4.38334708
 10
-587.8322395905
 20
-4.3850251795
  0
LWPOLYLINE
  5
52A
100
AcDbEntity
  8
RACCORDO
100
AcDbPolyline
 62
253
  6
CONTINUOUS
 90
13
 70
0
 10
-1330.7219493545
 20
-5.7970304549
 10
-1330.7358793114
 20
-5.7970865284
 10
-1330.7497385633
 20
-5.7969082985
 10
-1330.7632578809
 20
-5.7964992277
 10
-1330.7761746386
 20
-5.7958672625
 10
-1330.7882379161
 20
-5.7950246794
 10
-1330.7992133726
 20
-5.7939878464
 10
-1330.8088877995
 20
-5.792776905
 10
-1330.8170732617
 20
-5.7914153788
 10
-1330.8236107489
 20
-5.7899297171
 10
-1330.8283732641
 20
-5.7883487801
 10
-1330.8312682908
 20
-5.7867032791
 10
-1330.8322395905
 20
-5.7850251795
  0
LWPOLYLINE
  5
52B
100
AcDbEntity
  8
RACCORDO
100
AcDbPolyline
 62
253
  6
CONTINUOUS
 90
13
 70
0
 10
-1331.9425298265
 20
-4.3730199042
 10
-1331.9285998696
 20
-4.3729638307
 10
-1331.9147406177
 20
-4.3731420605
 10
-1331.9012213001
 20
-4.3735511314
 10
-1331.8883045424
 20
-4.3741830966
 10
-1331.8762412649
 20
-4.3750256797
 10
-1331.8652658084
 20
-4.3760625127
 10
-1331.8555913815
 20
-4.3772734541
 10
-1331.8474059193
 20
-4.3786349802
 10
-1331.8408684321
 20
-4.380120642
 10
-1331.8361059169
 20
-4.381701579
 10
-1331.8332108902
 20
-4.38334708
 10
-1331.8322395905
 20
-4.3850251795
  0
LWPOLYLINE
  5
52C
100
AcDbEntity
  8
RACCORDO
100
AcDbPolyline
 62
253
  6
CONTINUOUS
 90
5
 70
0
 10
-456.538920548
 20
-5.6951212533
 10
-456.5798374526
 20
-5.6953154156
 10
-456.6029948362
 20
-5.6951591541
 10
-456.6280226218
 20
-5.6951133634
 10
-456.6550250544
 20
-5.695315417
  0
LINE
  5
52D
100
AcDbEntity
  8
RACCORDO
100
AcDbLine
 62
253
  6
CONTINUOUS
 10
-1461.9258116322
 20
-7.2210410107
 11
-1461.9342228041
 21
-7.2210668595
  0
LINE
  5
52E
100
AcDbEntity
  8
RACCORDO
100
AcDbLine
 62
253
  6
CONTINUOUS
 10
-456.7386675488
 20
-2.9490093484
 11
-456.7302563769
 21
-2.9489834996
  0
LWPOLYLINE
  5
52F
100
AcDbEntity
  8
RACCORDO
100
AcDbPolyline
 62
253
  6
CONTINUOUS
 90
5
 70
0
 10
-1462.125558633
 20
-4.4749291057
 10
-1462.0846417284
 20
-4.4747349434
 10
-1462.0614843447
 20
-4.4748912049
 10
-1462.0364565592
 20
-4.4749369956
 10
-1462.0094541266
 20
-4.4747349421
  0
LWPOLYLINE
  5
530
100
AcDbEntity
  8
RACCORDO
100
AcDbPolyline
 62
253
  6
CONTINUOUS
 90
3
 70
0
 10
-586.4181462316
 20
-5.6953154169
 10
-586.555221011
 20
-5.6955588485
 10
-586.6202343134
 20
-5.695315417
  0
LWPOLYLINE
  5
531
100
AcDbEntity
  8
RACCORDO
100
AcDbPolyline
 62
253
  6
CONTINUOUS
 90
3
 70
0
 10
-1330.4181462316
 20
-5.6953154169
 10
-1330.555221011
 20
-5.6955588485
 10
-1330.6202343134
 20
-5.695315417
  0
LWPOLYLINE
  5
532
100
AcDbEntity
  8
RACCORDO
100
AcDbPolyline
 62
253
  6
CONTINUOUS
 90
3
 70
0
 10
-588.2463329494
 20
-4.4747349422
 10
-588.10925817
 20
-4.4744915105
 10
-588.0442448675
 20
-4.4747349421
  0
LWPOLYLINE
  5
533
100
AcDbEntity
  8
RACCORDO
100
AcDbPolyline
 62
253
  6
CONTINUOUS
 90
3
 70
0
 10
-1332.2463329494
 20
-4.4747349422
 10
-1332.10925817
 20
-4.4744915105
 10
-1332.0442448675
 20
-4.4747349421
  0
LINE
  5
534
100
AcDbEntity
  8
RACCORDO
100
AcDbLine
 62
253
  6
CONTINUOUS
 10
-587.0270944718
 20
-7.2210410107
 11
-587.6373847092
 21
-7.2210410107
  0
LINE
  5
535
100
AcDbEntity
  8
RACCORDO
100
AcDbLine
 62
253
  6
CONTINUOUS
 10
-1331.0270944718
 20
-7.2210410107
 11
-1331.6373847092
 21
-7.2210410107
  0
LINE
  5
536
100
AcDbEntity
  8
RACCORDO
100
AcDbLine
 62
7
  6
CONTINUOUS
 10
-587.0322395905
 20
-7.0850251795
 11
-587.6322395905
 21
-7.0850251795
  0
LINE
  5
537
100
AcDbEntity
  8
RACCORDO
100
AcDbLine
 62
7
  6
CONTINUOUS
 10
-1331.0322395905
 20
-7.0850251795
 11
-1331.6322395905
 21
-7.0850251795
  0
LINE
  5
538
100
AcDbEntity
  8
RACCORDO
100
AcDbLine
 62
7
  6
CONTINUOUS
 10
-456.7134961079
 20
-5.5850251795
 11
-456.5055901442
 21
-5.5850251795
  0
LINE
  5
539
100
AcDbEntity
  8
RACCORDO
100
AcDbLine
 62
7
  6
CONTINUOUS
 10
-585.5322395905
 20
-5.5850251795
 11
-586.6322395905
 21
-5.5850251795
  0
LINE
  5
53A
100
AcDbEntity
  8
RACCORDO
100
AcDbLine
 62
7
  6
CONTINUOUS
 10
-588.0322395905
 20
-5.5850251795
 11
-589.1322395905
 21
-5.5850251795
  0
LINE
  5
53B
100
AcDbEntity
  8
RACCORDO
100
AcDbLine
 62
7
  6
CONTINUOUS
 10
-1329.5322395905
 20
-5.5850251795
 11
-1330.6322395905
 21
-5.5850251795
  0
LINE
  5
53C
100
AcDbEntity
  8
RACCORDO
100
AcDbLine
 62
7
  6
CONTINUOUS
 10
-1332.0322395905
 20
-5.5850251795
 11
-1333.1322395905
 21
-5.5850251795
  0
LINE
  5
53D
100
AcDbEntity
  8
RACCORDO
100
AcDbLine
 62
7
  6
CONTINUOUS
 10
-1461.9509735926
 20
-5.5850251795
 11
-1462.1588890367
 21
-5.5850251795
  0
LINE
  5
53E
100
AcDbEntity
  8
RACCORDO
100
AcDbLine
 62
7
  6
CONTINUOUS
 10
-1462.1588890367
 20
-4.5850251795
 11
-1461.950983073
 21
-4.5850251795
  0
LINE
  5
53F
100
AcDbEntity
  8
RACCORDO
100
AcDbLine
 62
7
  6
CONTINUOUS
 10
-1333.1322395905
 20
-4.5850251795
 11
-1332.0322395905
 21
-4.5850251795
  0
LINE
  5
540
100
AcDbEntity
  8
RACCORDO
100
AcDbLine
 62
7
  6
CONTINUOUS
 10
-1330.6322395905
 20
-4.5850251795
 11
-1329.5322395905
 21
-4.5850251795
  0
LINE
  5
541
100
AcDbEntity
  8
RACCORDO
100
AcDbLine
 62
7
  6
CONTINUOUS
 10
-589.1322395905
 20
-4.5850251795
 11
-588.0322395905
 21
-4.5850251795
  0
LINE
  5
542
100
AcDbEntity
  8
RACCORDO
100
AcDbLine
 62
7
  6
CONTINUOUS
 10
-586.6322395905
 20
-4.5850251795
 11
-585.5322395905
 21
-4.5850251795
  0
LINE
  5
543
100
AcDbEntity
  8
RACCORDO
100
AcDbLine
 62
7
  6
CONTINUOUS
 10
-456.7135055883
 20
-4.5850251795
 11
-456.5055901442
 21
-4.5850251795
  0
LINE
  5
544
100
AcDbEntity
  8
RACCORDO
100
AcDbLine
 62
7
  6
CONTINUOUS
 10
-1331.6322395905
 20
-3.0850251795
 11
-1331.0322395905
 21
-3.0850251795
  0
LINE
  5
545
100
AcDbEntity
  8
RACCORDO
100
AcDbLine
 62
7
  6
CONTINUOUS
 10
-587.6322395905
 20
-3.0850251795
 11
-587.0322395905
 21
-3.0850251795
  0
LINE
  5
546
100
AcDbEntity
  8
RACCORDO
100
AcDbLine
 62
253
  6
CONTINUOUS
 10
-1331.6373847092
 20
-2.9490093484
 11
-1331.0270944718
 21
-2.9490093484
  0
LINE
  5
547
100
AcDbEntity
  8
RACCORDO
100
AcDbLine
 62
253
  6
CONTINUOUS
 10
-587.6373847092
 20
-2.9490093484
 11
-587.0270944718
 21
-2.9490093484
  0
LWPOLYLINE
  5
548
100
AcDbEntity
  8
RACCORDO
100
AcDbPolyline
 62
253
  6
CONTINUOUS
 90
3
 70
0
 10
-1332.5339767849
 20
-5.6951008654
 10
-1332.6835848968
 20
-5.6953154169
 10
-1332.7593415104
 20
-5.6951212533
  0
LWPOLYLINE
  5
549
100
AcDbEntity
  8
RACCORDO
100
AcDbPolyline
 62
253
  6
CONTINUOUS
 90
4
 70
0
 10
-1329.8976026627
 20
-5.6950952059
 10
-1330.0470496357
 20
-5.6953074083
 10
-1330.1211701458
 20
-5.695039301
 10
-1330.2705076831
 20
-5.6956443273
  0
LWPOLYLINE
  5
54A
100
AcDbEntity
  8
RACCORDO
100
AcDbPolyline
 62
253
  6
CONTINUOUS
 90
4
 70
0
 10
-585.8976026627
 20
-5.6950952059
 10
-586.0470496357
 20
-5.6953074083
 10
-586.1211701458
 20
-5.695039301
 10
-586.2705076831
 20
-5.6956443273
  0
LWPOLYLINE
  5
54B
100
AcDbEntity
  8
RACCORDO
100
AcDbPolyline
 62
253
  6
CONTINUOUS
 90
3
 70
0
 10
-588.5339767849
 20
-5.6951008654
 10
-588.6835848968
 20
-5.6953154169
 10
-588.7593415104
 20
-5.6951212533
  0
LWPOLYLINE
  5
54C
100
AcDbEntity
  8
RACCORDO
100
AcDbPolyline
 62
253
  6
CONTINUOUS
 90
3
 70
0
 10
-1330.1305023961
 20
-4.4749494937
 10
-1329.9808942842
 20
-4.4747349422
 10
-1329.9051376706
 20
-4.4749291057
  0
LWPOLYLINE
  5
54D
100
AcDbEntity
  8
RACCORDO
100
AcDbPolyline
 62
253
  6
CONTINUOUS
 90
4
 70
0
 10
-1332.7668765183
 20
-4.4749551532
 10
-1332.6174295453
 20
-4.4747429507
 10
-1332.5433090352
 20
-4.4750110581
 10
-1332.3939714979
 20
-4.4744060318
  0
LWPOLYLINE
  5
54E
100
AcDbEntity
  8
RACCORDO
100
AcDbPolyline
 62
253
  6
CONTINUOUS
 90
4
 70
0
 10
-588.7668765183
 20
-4.4749551532
 10
-588.6174295453
 20
-4.4747429507
 10
-588.5433090352
 20
-4.4750110581
 10
-588.3939714979
 20
-4.4744060318
  0
LWPOLYLINE
  5
54F
100
AcDbEntity
  8
RACCORDO
100
AcDbPolyline
 62
253
  6
CONTINUOUS
 90
3
 70
0
 10
-586.1305023961
 20
-4.4749494937
 10
-585.9808942842
 20
-4.4747349422
 10
-585.9051376706
 20
-4.4749291057
  0
LWPOLYLINE
  5
550
100
AcDbEntity
  8
RACCORDO
100
AcDbPolyline
 62
253
  6
CONTINUOUS
 90
4
 70
0
 10
-1332.0442448675
 20
-5.695315417
 10
-1332.173542376
 20
-5.695485455
 10
-1332.2417242949
 20
-5.6953154171
 10
-1332.3860703125
 20
-5.6955813795
  0
LWPOLYLINE
  5
551
100
AcDbEntity
  8
RACCORDO
100
AcDbPolyline
 62
253
  6
CONTINUOUS
 90
4
 70
0
 10
-588.0442448675
 20
-5.695315417
 10
-588.173542376
 20
-5.695485455
 10
-588.2417242949
 20
-5.6953154171
 10
-588.3860703125
 20
-5.6955813795
  0
LWPOLYLINE
  5
552
100
AcDbEntity
  8
RACCORDO
100
AcDbPolyline
 62
253
  6
CONTINUOUS
 90
4
 70
0
 10
-1330.6202343134
 20
-4.4747349421
 10
-1330.4909368049
 20
-4.4745649041
 10
-1330.4227548861
 20
-4.474734942
 10
-1330.2784088685
 20
-4.4744689796
  0
LWPOLYLINE
  5
553
100
AcDbEntity
  8
RACCORDO
100
AcDbPolyline
 62
253
  6
CONTINUOUS
 90
4
 70
0
 10
-586.6202343134
 20
-4.4747349421
 10
-586.4909368049
 20
-4.4745649041
 10
-586.4227548861
 20
-4.474734942
 10
-586.2784088685
 20
-4.4744689796
  0
LINE
  5
554
100
AcDbEntity
  8
RACCORDO
100
AcDbLine
 62
253
  6
CONTINUOUS
 10
-1332.7593415104
 20
-5.6951212533
 11
-1333.1631103029
 21
-5.695315417
  0
LINE
  5
555
100
AcDbEntity
  8
RACCORDO
100
AcDbLine
 62
253
  6
CONTINUOUS
 10
-1329.9051376706
 20
-4.4749291057
 11
-1329.5013688781
 21
-4.4747349421
  0
LINE
  5
556
100
AcDbEntity
  8
RACCORDO
100
AcDbLine
 62
253
  6
CONTINUOUS
 10
-588.7593415104
 20
-5.6951212533
 11
-589.1631103029
 21
-5.695315417
  0
LINE
  5
557
100
AcDbEntity
  8
RACCORDO
100
AcDbLine
 62
253
  6
CONTINUOUS
 10
-585.9051376706
 20
-4.4749291057
 11
-585.5013688781
 21
-4.4747349421
  0
LINE
  5
558
100
AcDbEntity
  8
RACCORDO
100
AcDbLine
 62
253
  6
CONTINUOUS
 10
-1329.5013688781
 20
-5.695315417
 11
-1329.8976026627
 21
-5.6950952059
  0
LINE
  5
559
100
AcDbEntity
  8
RACCORDO
100
AcDbLine
 62
253
  6
CONTINUOUS
 10
-1333.1631103029
 20
-4.4747349421
 11
-1332.7668765183
 21
-4.4749551532
  0
LINE
  5
55A
100
AcDbEntity
  8
RACCORDO
100
AcDbLine
 62
253
  6
CONTINUOUS
 10
-585.5013688781
 20
-5.695315417
 11
-585.8976026627
 21
-5.6950952059
  0
LINE
  5
55B
100
AcDbEntity
  8
RACCORDO
100
AcDbLine
 62
253
  6
CONTINUOUS
 10
-589.1631103029
 20
-4.4747349421
 11
-588.7668765183
 21
-4.4749551532
  0
LINE
  5
55C
100
AcDbEntity
  8
RACCORDO
100
AcDbLine
 62
253
  6
CONTINUOUS
 10
-1330.2705076831
 20
-5.6956443273
 11
-1330.4181462316
 21
-5.6953154169
  0
LINE
  5
55D
100
AcDbEntity
  8
RACCORDO
100
AcDbLine
 62
253
  6
CONTINUOUS
 10
-1332.3939714979
 20
-4.4744060318
 11
-1332.2463329494
 21
-4.4747349422
  0
LINE
  5
55E
100
AcDbEntity
  8
RACCORDO
100
AcDbLine
 62
253
  6
CONTINUOUS
 10
-586.2705076831
 20
-5.6956443273
 11
-586.4181462316
 21
-5.6953154169
  0
LINE
  5
55F
100
AcDbEntity
  8
RACCORDO
100
AcDbLine
 62
253
  6
CONTINUOUS
 10
-588.3939714979
 20
-4.4744060318
 11
-588.2463329494
 21
-4.4747349422
  0
LINE
  5
560
100
AcDbEntity
  8
RACCORDO
100
AcDbLine
 62
253
  6
CONTINUOUS
 10
-456.7302563769
 20
-7.2210668595
 11
-456.7386675488
 21
-7.2210410107
  0
LINE
  5
561
100
AcDbEntity
  8
RACCORDO
100
AcDbLine
 62
253
  6
CONTINUOUS
 10
-1461.9342228041
 20
-2.9489834996
 11
-1461.9258116322
 21
-2.9490093484
  0
LINE
  5
562
100
AcDbEntity
  8
RACCORDO
100
AcDbLine
 62
253
  6
CONTINUOUS
 10
-1332.3860703125
 20
-5.6955813795
 11
-1332.5339767849
 21
-5.6951008654
  0
LINE
  5
563
100
AcDbEntity
  8
RACCORDO
100
AcDbLine
 62
253
  6
CONTINUOUS
 10
-1330.2784088685
 20
-4.4744689796
 11
-1330.1305023961
 21
-4.4749494937
  0
LINE
  5
564
100
AcDbEntity
  8
RACCORDO
100
AcDbLine
 62
253
  6
CONTINUOUS
 10
-588.3860703125
 20
-5.6955813795
 11
-588.5339767849
 21
-5.6951008654
  0
LINE
  5
565
100
AcDbEntity
  8
RACCORDO
100
AcDbLine
 62
253
  6
CONTINUOUS
 10
-586.2784088685
 20
-4.4744689796
 11
-586.1305023961
 21
-4.4749494937
  0
LWPOLYLINE
  5
566
100
AcDbEntity
  8
RACCORDO
100
AcDbPolyline
 62
253
  6
CONTINUOUS
 90
13
 70
0
 10
-1331.9425298178
 20
-5.7970304447
 10
-1331.9286009483
 20
-5.797086347
 10
-1331.9147428647
 20
-5.7969079763
 10
-1331.9012247522
 20
-5.796498798
 10
-1331.8883091923
 20
-5.7958667601
 10
-1331.8762470622
 20
-5.7950241398
 10
-1331.8652726617
 20
-5.7939873042
 10
-1331.8555991621
 20
-5.7927763931
 10
-1331.8474144655
 20
-5.7914149272
 10
-1331.8408775549
 20
-5.7899293518
 10
-1331.8361154059
 20
-5.7883485225
 10
-1331.8332205206
 20
-5.7867031457
 10
-1331.8322491304
 20
-5.785025181
  0
LWPOLYLINE
  5
567
100
AcDbEntity
  8
RACCORDO
100
AcDbPolyline
 62
253
  6
CONTINUOUS
 90
13
 70
0
 10
-1330.7219493632
 20
-4.3730199143
 10
-1330.7358782327
 20
-4.3729640121
 10
-1330.7497363163
 20
-4.3731423827
 10
-1330.7632544288
 20
-4.3735515611
 10
-1330.7761699887
 20
-4.374183599
 10
-1330.7882321188
 20
-4.3750262193
 10
-1330.7992065193
 20
-4.3760630549
 10
-1330.8088800189
 20
-4.377273966
 10
-1330.8170647155
 20
-4.3786354319
 10
-1330.8236016261
 20
-4.3801210073
 10
-1330.828363775
 20
-4.3817018365
 10
-1330.8312586604
 20
-4.3833472134
 10
-1330.8322300506
 20
-4.3850251781
  0
LWPOLYLINE
  5
568
100
AcDbEntity
  8
RACCORDO
100
AcDbPolyline
 62
253
  6
CONTINUOUS
 90
13
 70
0
 10
-587.9425298178
 20
-5.7970304447
 10
-587.9286009483
 20
-5.797086347
 10
-587.9147428647
 20
-5.7969079763
 10
-587.9012247522
 20
-5.796498798
 10
-587.8883091923
 20
-5.7958667601
 10
-587.8762470622
 20
-5.7950241398
 10
-587.8652726617
 20
-5.7939873042
 10
-587.8555991621
 20
-5.7927763931
 10
-587.8474144655
 20
-5.7914149272
 10
-587.8408775549
 20
-5.7899293518
 10
-587.8361154059
 20
-5.7883485225
 10
-587.8332205206
 20
-5.7867031457
 10
-587.8322491304
 20
-5.785025181
  0
LWPOLYLINE
  5
569
100
AcDbEntity
  8
RACCORDO
100
AcDbPolyline
 62
253
  6
CONTINUOUS
 90
13
 70
0
 10
-586.7219493632
 20
-4.3730199143
 10
-586.7358782327
 20
-4.3729640121
 10
-586.7497363163
 20
-4.3731423827
 10
-586.7632544288
 20
-4.3735515611
 10
-586.7761699887
 20
-4.374183599
 10
-586.7882321188
 20
-4.3750262193
 10
-586.7992065193
 20
-4.3760630549
 10
-586.8088800189
 20
-4.377273966
 10
-586.8170647155
 20
-4.3786354319
 10
-586.8236016261
 20
-4.3801210073
 10
-586.828363775
 20
-4.3817018365
 10
-586.8312586604
 20
-4.3833472134
 10
-586.8322300506
 20
-4.3850251781
  0
LWPOLYLINE
  5
56A
100
AcDbEntity
  8
RACCORDO
100
AcDbPolyline
 62
253
  6
CONTINUOUS
 90
12
 70
0
 10
-1462.0833097172
 20
-5.6953154148
 10
-1462.123677549
 20
-5.6950952059
 10
-1462.141888935
 20
-5.6953154177
 10
-1462.1590623955
 20
-5.6953074083
 10
-1462.1751362004
 20
-5.695039301
 10
-1462.19017782
 20
-5.695315417
 10
-1462.2043914588
 20
-5.6956443273
 10
-1462.2176305098
 20
-5.6954242558
 10
-1462.2295062918
 20
-5.6953154169
 10
-1462.239990953
 20
-5.6955254598
 10
-1462.2493344514
 20
-5.6955588485
 10
-1462.2576310457
 20
-5.695315417
  0
LWPOLYLINE
  5
56B
100
AcDbEntity
  8
RACCORDO
100
AcDbPolyline
 62
253
  6
CONTINUOUS
 90
12
 70
0
 10
-456.5811694638
 20
-4.4747349443
 10
-456.540801632
 20
-4.4749551532
 10
-456.522590246
 20
-4.4747349414
 10
-456.5054167855
 20
-4.4747429507
 10
-456.4893429805
 20
-4.4750110581
 10
-456.474301361
 20
-4.4747349421
 10
-456.4600877222
 20
-4.4744060318
 10
-456.4468486712
 20
-4.4746261033
 10
-456.4349728891
 20
-4.4747349422
 10
-456.424488228
 20
-4.4745248993
 10
-456.4151447296
 20
-4.4744915105
 10
-456.4068481353
 20
-4.4747349421
  0
LWPOLYLINE
  5
56C
100
AcDbEntity
  8
RACCORDO
100
AcDbPolyline
 62
253
  6
CONTINUOUS
 90
4
 70
0
 10
-1462.0094541266
 20
-5.695315417
 10
-1462.035927503
 20
-5.6951184984
 10
-1462.0605137604
 20
-5.6951628054
 10
-1462.0833097172
 20
-5.6953154148
  0
LWPOLYLINE
  5
56D
100
AcDbEntity
  8
RACCORDO
100
AcDbPolyline
 62
253
  6
CONTINUOUS
 90
4
 70
0
 10
-456.6550250544
 20
-4.4747349421
 10
-456.628551678
 20
-4.4749318607
 10
-456.6039654206
 20
-4.4748875537
 10
-456.5811694638
 20
-4.4747349443
  0
LWPOLYLINE
  5
56E
100
AcDbEntity
  8
RACCORDO
100
AcDbPolyline
 62
253
  6
CONTINUOUS
 90
13
 70
0
 10
-1331.9425298207
 20
-6.9158958702
 10
-1331.9285998689
 20
-6.916040059
 10
-1331.9147406221
 20
-6.915581754
 10
-1331.9012213092
 20
-6.9145298585
 10
-1331.8883045556
 20
-6.9129048065
 10
-1331.8762412814
 20
-6.9107381661
 10
-1331.865265827
 20
-6.9080720263
 10
-1331.855591401
 20
-6.9049581795
 10
-1331.8474059381
 20
-6.901457115
 10
-1331.8408684486
 20
-6.8976368442
 10
-1331.8361059296
 20
-6.8935715794
 10
-1331.8332108973
 20
-6.8893402923
 10
-1331.8322395905
 20
-6.8850251795
  0
LWPOLYLINE
  5
56F
100
AcDbEntity
  8
RACCORDO
100
AcDbPolyline
 62
253
  6
CONTINUOUS
 90
13
 70
0
 10
-1330.7219493603
 20
-3.2541544888
 10
-1330.7358793121
 20
-3.2540103001
 10
-1330.7497385589
 20
-3.254468605
 10
-1330.7632578718
 20
-3.2555205005
 10
-1330.7761746254
 20
-3.2571455526
 10
-1330.7882378996
 20
-3.259312193
 10
-1330.7992133539
 20
-3.2619783328
 10
-1330.80888778
 20
-3.2650921796
 10
-1330.8170732429
 20
-3.2685932441
 10
-1330.8236107324
 20
-3.2724135149
 10
-1330.8283732514
 20
-3.2764787797
 10
-1330.8312682837
 20
-3.2807100668
 10
-1330.8322395905
 20
-3.2850251795
  0
LWPOLYLINE
  5
570
100
AcDbEntity
  8
RACCORDO
100
AcDbPolyline
 62
253
  6
CONTINUOUS
 90
13
 70
0
 10
-587.9425298207
 20
-6.9158958702
 10
-587.9285998689
 20
-6.916040059
 10
-587.9147406221
 20
-6.915581754
 10
-587.9012213092
 20
-6.9145298585
 10
-587.8883045556
 20
-6.9129048065
 10
-587.8762412814
 20
-6.9107381661
 10
-587.865265827
 20
-6.9080720263
 10
-587.855591401
 20
-6.9049581795
 10
-587.8474059381
 20
-6.901457115
 10
-587.8408684486
 20
-6.8976368442
 10
-587.8361059296
 20
-6.8935715794
 10
-587.8332108973
 20
-6.8893402923
 10
-587.8322395905
 20
-6.8850251795
  0
LWPOLYLINE
  5
571
100
AcDbEntity
  8
RACCORDO
100
AcDbPolyline
 62
253
  6
CONTINUOUS
 90
13
 70
0
 10
-586.7219493603
 20
-3.2541544888
 10
-586.7358793121
 20
-3.2540103001
 10
-586.7497385589
 20
-3.254468605
 10
-586.7632578718
 20
-3.2555205005
 10
-586.7761746254
 20
-3.2571455526
 10
-586.7882378996
 20
-3.259312193
 10
-586.7992133539
 20
-3.2619783328
 10
-586.80888778
 20
-3.2650921796
 10
-586.8170732429
 20
-3.2685932441
 10
-586.8236107324
 20
-3.2724135149
 10
-586.8283732514
 20
-3.2764787797
 10
-586.8312682837
 20
-3.2807100668
 10
-586.8322395905
 20
-3.2850251795
  0
LWPOLYLINE
  5
572
100
AcDbEntity
  8
RACCORDO
100
AcDbPolyline
 62
253
  6
CONTINUOUS
 90
16
 70
0
 10
-1333.4682554197
 20
-5.390170298
 10
-1333.4559277968
 20
-5.3903834467
 10
-1333.4432048026
 20
-5.3905071625
 10
-1333.4302987922
 20
-5.3905393805
 10
-1333.4174251749
 20
-5.3904795629
 10
-1333.4047988197
 20
-5.3903287081
 10
-1333.3926304684
 20
-5.390089334
 10
-1333.3811232184
 20
-5.3897654362
 10
-1333.3704691331
 20
-5.3893624205
 10
-1333.360846036
 20
-5.3888870135
 10
-1333.3524145427
 20
-5.3883471502
 10
-1333.3453153801
 20
-5.3877518411
 10
-1333.3396670377
 20
-5.3871110221
 10
-1333.3355637901
 20
-5.3864353888
 10
-1333.333074123
 20
-5.3857362181
 10
-1333.3322395905
 20
-5.3850251795
  0
LWPOLYLINE
  5
573
100
AcDbEntity
  8
RACCORDO
100
AcDbPolyline
 62
253
  6
CONTINUOUS
 90
16
 70
0
 10
-1329.1962237613
 20
-4.7798800611
 10
-1329.2085513842
 20
-4.7796669123
 10
-1329.2212743783
 20
-4.7795431965
 10
-1329.2341803888
 20
-4.7795109786
 10
-1329.247054006
 20
-4.7795707962
 10
-1329.2596803613
 20
-4.779721651
 10
-1329.2718487126
 20
-4.779961025
 10
-1329.2833559626
 20
-4.7802849229
 10
-1329.2940100478
 20
-4.7806879386
 10
-1329.3036331449
 20
-4.7811633455
 10
-1329.3120646383
 20
-4.7817032089
 10
-1329.3191638009
 20
-4.782298518
 10
-1329.3248121432
 20
-4.782939337
 10
-1329.3289153909
 20
-4.7836149703
 10
-1329.331405058
 20
-4.784314141
 10
-1329.3322395905
 20
-4.7850251795
  0
LWPOLYLINE
  5
574
100
AcDbEntity
  8
RACCORDO
100
AcDbPolyline
 62
253
  6
CONTINUOUS
 90
16
 70
0
 10
-589.4682554197
 20
-5.390170298
 10
-589.4559277968
 20
-5.3903834467
 10
-589.4432048026
 20
-5.3905071625
 10
-589.4302987922
 20
-5.3905393805
 10
-589.4174251749
 20
-5.3904795629
 10
-589.4047988197
 20
-5.3903287081
 10
-589.3926304684
 20
-5.390089334
 10
-589.3811232184
 20
-5.3897654362
 10
-589.3704691331
 20
-5.3893624205
 10
-589.360846036
 20
-5.3888870135
 10
-589.3524145427
 20
-5.3883471502
 10
-589.3453153801
 20
-5.3877518411
 10
-589.3396670377
 20
-5.3871110221
 10
-589.3355637901
 20
-5.3864353888
 10
-589.333074123
 20
-5.3857362181
 10
-589.3322395905
 20
-5.3850251795
  0
LWPOLYLINE
  5
575
100
AcDbEntity
  8
RACCORDO
100
AcDbPolyline
 62
253
  6
CONTINUOUS
 90
16
 70
0
 10
-585.1962237613
 20
-4.7798800611
 10
-585.2085513842
 20
-4.7796669123
 10
-585.2212743783
 20
-4.7795431965
 10
-585.2341803888
 20
-4.7795109786
 10
-585.247054006
 20
-4.7795707962
 10
-585.2596803613
 20
-4.779721651
 10
-585.2718487126
 20
-4.779961025
 10
-585.2833559626
 20
-4.7802849229
 10
-585.2940100478
 20
-4.7806879386
 10
-585.3036331449
 20
-4.7811633455
 10
-585.3120646383
 20
-4.7817032089
 10
-585.3191638009
 20
-4.782298518
 10
-585.3248121432
 20
-4.782939337
 10
-585.3289153909
 20
-4.7836149703
 10
-585.331405058
 20
-4.784314141
 10
-585.3322395905
 20
-4.7850251795
  0
LWPOLYLINE
  5
576
100
AcDbEntity
  8
RACCORDO
100
AcDbPolyline
 62
253
  6
CONTINUOUS
 90
19
 70
0
 10
-1331.6373847092
 20
-7.2210410107
 10
-1331.6633710445
 20
-7.2199289696
 10
-1331.6889920701
 20
-7.216650333
 10
-1331.7141776766
 20
-7.2112189812
 10
-1331.7389696956
 20
-7.2036166032
 10
-1331.763186483
 20
-7.1938891302
 10
-1331.786429443
 20
-7.1821594411
 10
-1331.8086312637
 20
-7.1684443751
 10
-1331.8297407151
 20
-7.1527826969
 10
-1331.8494024941
 20
-7.1353507951
 10
-1331.867606798
 20
-7.1161348209
 10
-1331.8842817034
 20
-7.0952170201
 10
-1331.8990134958
 20
-7.0729346901
 10
-1331.9117989439
 20
-7.0493242522
 10
-1331.9226265115
 20
-7.0244205313
 10
-1331.9311187025
 20
-6.9985686885
 10
-1331.9371795965
 20
-6.9719033007
 10
-1331.9409705272
 20
-6.944340951
 10
-1331.942529828
 20
-6.9158958919
  0
LWPOLYLINE
  5
577
100
AcDbEntity
  8
RACCORDO
100
AcDbPolyline
 62
253
  6
CONTINUOUS
 90
19
 70
0
 10
-1331.0270944718
 20
-2.9490093484
 10
-1331.0011081365
 20
-2.9501213895
 10
-1330.9754871109
 20
-2.953400026
 10
-1330.9503015044
 20
-2.9588313779
 10
-1330.9255094853
 20
-2.9664337558
 10
-1330.901292698
 20
-2.9761612288
 10
-1330.878049738
 20
-2.987890918
 10
-1330.8558479173
 20
-3.001605984
 10
-1330.8347384659
 20
-3.0172676622
 10
-1330.8150766869
 20
-3.0346995639
 10
-1330.796872383
 20
-3.0539155382
 10
-1330.7801974776
 20
-3.074833339
 10
-1330.7654656852
 20
-3.097115669
 10
-1330.7526802371
 20
-3.1207261068
 10
-1330.7418526695
 20
-3.1456298277
 10
-1330.7333604785
 20
-3.1714816706
 10
-1330.7272995845
 20
-3.1981470583
 10
-1330.7235086538
 20
-3.2257094081
 10
-1330.721949353
 20
-3.2541544671
  0
LWPOLYLINE
  5
578
100
AcDbEntity
  8
RACCORDO
100
AcDbPolyline
 62
253
  6
CONTINUOUS
 90
19
 70
0
 10
-1333.1631103029
 20
-5.695315417
 10
-1333.1914051572
 20
-5.6937963635
 10
-1333.2188830591
 20
-5.6900298793
 10
-1333.2455297047
 20
-5.6839750418
 10
-1333.2714543459
 20
-5.6754644169
 10
-1333.2964958637
 20
-5.664593703
 10
-1333.3202304903
 20
-5.6517495743
 10
-1333.342605143
 20
-5.6369347511
 10
-1333.3636006498
 20
-5.6201620616
 10
-1333.3828556548
 20
-5.6018871389
 10
-1333.4002703916
 20
-5.5821989811
 10
-1333.415878095
 20
-5.5610949874
 10
-1333.4295348434
 20
-5.5389285408
 10
-1333.4412061809
 20
-5.5157698457
 10
-1333.4508734002
 20
-5.4916678292
 10
-1333.4584346912
 20
-5.466960443
 10
-1333.4638494787
 20
-5.441808029
 10
-1333.46712807
 20
-5.4161881221
 10
-1333.4682554216
 20
-5.3901702983
  0
LWPOLYLINE
  5
579
100
AcDbEntity
  8
RACCORDO
100
AcDbPolyline
 62
253
  6
CONTINUOUS
 90
19
 70
0
 10
-1329.5013688781
 20
-4.4747349421
 10
-1329.4730740238
 20
-4.4762539956
 10
-1329.4455961218
 20
-4.4800204798
 10
-1329.4189494763
 20
-4.4860753173
 10
-1329.393024835
 20
-4.4945859422
 10
-1329.3679833173
 20
-4.5054566561
 10
-1329.3442486907
 20
-4.5183007848
 10
-1329.321874038
 20
-4.5331156079
 10
-1329.3008785312
 20
-4.5498882974
 10
-1329.2816235262
 20
-4.5681632201
 10
-1329.2642087893
 20
-4.5878513779
 10
-1329.248601086
 20
-4.6089553716
 10
-1329.2349443376
 20
-4.6311218183
 10
-1329.2232730001
 20
-4.6542805133
 10
-1329.2136057808
 20
-4.6783825298
 10
-1329.2060444898
 20
-4.7030899161
 10
-1329.2006297023
 20
-4.7282423301
 10
-1329.1973511109
 20
-4.753862237
 10
-1329.1962237594
 20
-4.7798800608
  0
LINE
  5
57A
100
AcDbEntity
  8
RACCORDO
100
AcDbLine
 62
253
  6
CONTINUOUS
 10
-1461.9258036915
 20
-5.3901698598
 11
-1461.9325076038
 21
-5.3905400111
  0
LWPOLYLINE
  5
57B
100
AcDbEntity
  8
RACCORDO
100
AcDbPolyline
 62
7
  6
CONTINUOUS
 90
16
 70
0
 10
-1462.1588886652
 20
-5.5850253947
 10
-1462.1699716687
 20
-5.5856323894
 10
-1462.1825340171
 20
-5.587818959
 10
-1462.1942643221
 20
-5.591391897
 10
-1462.2049956841
 20
-5.5961046071
 10
-1462.2147060323
 20
-5.601750582
 10
-1462.2234857797
 20
-5.6082227036
 10
-1462.2313188618
 20
-5.6153801493
 10
-1462.2381743825
 20
-5.6230577424
 10
-1462.2441203699
 20
-5.6311996555
 10
-1462.2492677156
 20
-5.6398885544
 10
-1462.2535163388
 20
-5.6488777287
 10
-1462.2567634551
 20
-5.6576442325
 10
-1462.2591453195
 20
-5.6659915674
 10
-1462.2608876023
 20
-5.6741080982
 10
-1462.2621323429
 20
-5.6820988307
  0
LWPOLYLINE
  5
57C
100
AcDbEntity
  8
RACCORDO
100
AcDbPolyline
 62
7
  6
CONTINUOUS
 90
11
 70
0
 10
-1462.1588842534
 20
-5.5850252636
 10
-1462.1684537297
 20
-5.585477187
 10
-1462.1811860217
 20
-5.587505836
 10
-1462.1930919425
 20
-5.5909642834
 10
-1462.2039963745
 20
-5.5956022579
 10
-1462.2138719416
 20
-5.6012078572
 10
-1462.2228065317
 20
-5.6076684766
 10
-1462.2307803291
 20
-5.6148382674
 10
-1462.2377605573
 20
-5.6225481921
 10
-1462.243816324
 20
-5.6307408013
 10
-1462.2490593916
 20
-5.6394979983
  0
LWPOLYLINE
  5
57D
100
AcDbEntity
  8
RACCORDO
100
AcDbPolyline
 62
253
  6
CONTINUOUS
 90
11
 70
0
 10
-1462.2576310457
 20
-4.4747349421
 10
-1462.2495446667
 20
-4.4745400669
 10
-1462.2404404353
 20
-4.4745649041
 10
-1462.2302272655
 20
-4.474734942
 10
-1462.2186928943
 20
-4.4746492236
 10
-1462.2058381638
 20
-4.4744689796
 10
-1462.1919398449
 20
-4.4747349411
 10
-1462.1770793356
 20
-4.4749494937
 10
-1462.1610817296
 20
-4.4747212131
 10
-1462.1438945306
 20
-4.4747349422
 10
-1462.125558633
 20
-4.4749291057
  0
LINE
  5
57E
100
AcDbEntity
  8
0
100
AcDbLine
 62
7
  6
CONTINUOUS
 10
-573.2972423421
 20
34.9149748205
 11
-580.8322395905
 21
34.9149748205
  0
LINE
  5
57F
100
AcDbEntity
  8
0
100
AcDbLine
 62
7
  6
CONTINUOUS
 10
-1337.8322395905
 20
34.9149748205
 11
-1345.3672368389
 21
34.9149748205
  0
LINE
  5
580
100
AcDbEntity
  8
0
100
AcDbLine
 62
7
  6
CONTINUOUS
 10
-573.2972423421
 20
37.4149748205
 11
-575.2972423421
 21
37.4149748205
  0
LINE
  5
581
100
AcDbEntity
  8
0
100
AcDbLine
 62
7
  6
CONTINUOUS
 10
-1343.3672368389
 20
37.4149748205
 11
-1345.3672368389
 21
37.4149748205
  0
LWPOLYLINE
  5
582
100
AcDbEntity
  8
RACCORDO
100
AcDbPolyline
 62
253
  6
CONTINUOUS
 90
19
 70
0
 10
-587.6373847092
 20
-7.2210410107
 10
-587.6633710445
 20
-7.2199289696
 10
-587.6889920701
 20
-7.216650333
 10
-587.7141776766
 20
-7.2112189812
 10
-587.7389696956
 20
-7.2036166032
 10
-587.763186483
 20
-7.1938891302
 10
-587.786429443
 20
-7.1821594411
 10
-587.8086312637
 20
-7.1684443751
 10
-587.8297407151
 20
-7.1527826969
 10
-587.8494024941
 20
-7.1353507951
 10
-587.867606798
 20
-7.1161348209
 10
-587.8842817034
 20
-7.0952170201
 10
-587.8990134958
 20
-7.0729346901
 10
-587.9117989439
 20
-7.0493242522
 10
-587.9226265115
 20
-7.0244205313
 10
-587.9311187025
 20
-6.9985686885
 10
-587.9371795965
 20
-6.9719033007
 10
-587.9409705272
 20
-6.944340951
 10
-587.942529828
 20
-6.9158958919
  0
LWPOLYLINE
  5
583
100
AcDbEntity
  8
RACCORDO
100
AcDbPolyline
 62
253
  6
CONTINUOUS
 90
19
 70
0
 10
-587.0270944718
 20
-2.9490093484
 10
-587.0011081365
 20
-2.9501213895
 10
-586.9754871109
 20
-2.953400026
 10
-586.9503015044
 20
-2.9588313779
 10
-586.9255094853
 20
-2.9664337558
 10
-586.901292698
 20
-2.9761612288
 10
-586.878049738
 20
-2.987890918
 10
-586.8558479173
 20
-3.001605984
 10
-586.8347384659
 20
-3.0172676622
 10
-586.8150766869
 20
-3.0346995639
 10
-586.796872383
 20
-3.0539155382
 10
-586.7801974776
 20
-3.074833339
 10
-586.7654656852
 20
-3.097115669
 10
-586.7526802371
 20
-3.1207261068
 10
-586.7418526695
 20
-3.1456298277
 10
-586.7333604785
 20
-3.1714816706
 10
-586.7272995844
 20
-3.1981470583
 10
-586.7235086538
 20
-3.2257094081
 10
-586.721949353
 20
-3.2541544671
  0
LWPOLYLINE
  5
584
100
AcDbEntity
  8
RACCORDO
100
AcDbPolyline
 62
253
  6
CONTINUOUS
 90
19
 70
0
 10
-589.1631103029
 20
-5.695315417
 10
-589.1914051572
 20
-5.6937963635
 10
-589.2188830591
 20
-5.6900298793
 10
-589.2455297047
 20
-5.6839750418
 10
-589.2714543459
 20
-5.6754644169
 10
-589.2964958637
 20
-5.664593703
 10
-589.3202304903
 20
-5.6517495743
 10
-589.342605143
 20
-5.6369347511
 10
-589.3636006498
 20
-5.6201620616
 10
-589.3828556548
 20
-5.6018871389
 10
-589.4002703916
 20
-5.5821989811
 10
-589.415878095
 20
-5.5610949874
 10
-589.4295348434
 20
-5.5389285408
 10
-589.4412061809
 20
-5.5157698457
 10
-589.4508734002
 20
-5.4916678292
 10
-589.4584346912
 20
-5.466960443
 10
-589.4638494787
 20
-5.441808029
 10
-589.46712807
 20
-5.4161881221
 10
-589.4682554216
 20
-5.3901702983
  0
LWPOLYLINE
  5
585
100
AcDbEntity
  8
RACCORDO
100
AcDbPolyline
 62
253
  6
CONTINUOUS
 90
19
 70
0
 10
-585.5013688781
 20
-4.4747349421
 10
-585.4730740238
 20
-4.4762539956
 10
-585.4455961218
 20
-4.4800204798
 10
-585.4189494763
 20
-4.4860753173
 10
-585.393024835
 20
-4.4945859422
 10
-585.3679833173
 20
-4.5054566561
 10
-585.3442486907
 20
-4.5183007848
 10
-585.321874038
 20
-4.5331156079
 10
-585.3008785312
 20
-4.5498882974
 10
-585.2816235262
 20
-4.5681632201
 10
-585.2642087893
 20
-4.5878513779
 10
-585.248601086
 20
-4.6089553716
 10
-585.2349443376
 20
-4.6311218183
 10
-585.2232730001
 20
-4.6542805133
 10
-585.2136057808
 20
-4.6783825298
 10
-585.2060444898
 20
-4.7030899161
 10
-585.2006297023
 20
-4.7282423301
 10
-585.1973511109
 20
-4.753862237
 10
-585.1962237594
 20
-4.7798800608
  0
LINE
  5
586
100
AcDbEntity
  8
RACCORDO
100
AcDbLine
 62
253
  6
CONTINUOUS
 10
-456.7386675538
 20
-5.390170298
 11
-456.7319668889
 21
-5.3905404193
  0
LINE
  5
587
100
AcDbEntity
  8
RACCORDO
100
AcDbLine
 62
253
  6
CONTINUOUS
 10
-456.4917879672
 20
-5.5859964799
 11
-456.5055901442
 21
-5.5850251795
  0
LWPOLYLINE
  5
588
100
AcDbEntity
  8
RACCORDO
100
AcDbPolyline
 62
253
  6
CONTINUOUS
 90
20
 70
0
 10
-1462.2576310457
 20
-5.695315417
 10
-1462.2582735662
 20
-5.6953944763
 10
-1462.2588884347
 20
-5.6958469604
 10
-1462.2594759613
 20
-5.696667352
 10
-1462.2600436676
 20
-5.6978109557
 10
-1462.260584561
 20
-5.6993111093
 10
-1462.2610774029
 20
-5.7012803457
 10
-1462.2615251401
 20
-5.7037164429
 10
-1462.2619257163
 20
-5.7066125168
 10
-1462.2622508041
 20
-5.7100786196
 10
-1462.2625026304
 20
-5.7141321483
 10
-1462.2626798752
 20
-5.7187544788
 10
-1462.2627490791
 20
-5.7240118548
 10
-1462.2627082012
 20
-5.7299608074
 10
-1462.2625593485
 20
-5.736558945
 10
-1462.2622749437
 20
-5.7437397062
 10
-1462.2618436649
 20
-5.751599797
 10
-1462.261274716
 20
-5.7600748236
 10
-1462.2605706829
 20
-5.7688693521
 10
-1462.2597310298
 20
-5.7778981086
  0
LINE
  5
589
100
AcDbEntity
  8
RACCORDO
100
AcDbLine
 62
253
  6
CONTINUOUS
 10
-1462.2576310319
 20
-5.7970304549
 11
-1462.2581580044
 21
-5.7970945254
  0
LWPOLYLINE
  5
58A
100
AcDbEntity
  8
0
100
AcDbPolyline
 62
7
  6
CONTINUOUS
 90
19
 70
0
 10
-1430.6545700608
 20
45.4149748205
 10
-1430.964799354
 20
45.3992619502
 10
-1431.2599235777
 20
45.3538258603
 10
-1431.539942732
 20
45.2813643293
 10
-1431.8053255467
 20
45.1851611011
 10
-1432.055603292
 20
45.0678561473
 10
-1432.2893697785
 20
44.9304045099
 10
-1432.5068445938
 20
44.7744033972
 10
-1432.7078081503
 20
44.6023460028
 10
-1432.8901954958
 20
44.4154736409
 10
-1433.0538378432
 20
44.2151846588
 10
-1433.1989039797
 20
44.0039005373
 10
-1433.3238353137
 20
43.7842896289
 10
-1433.4278495452
 20
43.5580970215
 10
-1433.5117289742
 20
43.3275083228
 10
-1433.5762619095
 20
43.0959986075
 10
-1433.6217111204
 20
42.8659410411
 10
-1433.6478138375
 20
42.6384454595
 10
-1433.6545700608
 20
42.4149748205
  0
LINE
  5
58B
100
AcDbEntity
  8
0
100
AcDbLine
 62
253
  6
CONTINUOUS
 10
-580.8322395905
 20
40.9149748205
 11
-1337.8322395905
 21
40.9149748205
  0
LINE
  5
58C
100
AcDbEntity
  8
0
100
AcDbLine
 62
7
  6
CONTINUOUS
 10
-1459.3322395905
 20
42.4149748205
 11
-1433.6545700608
 21
42.4149748205
  0
LINE
  5
58D
100
AcDbEntity
  8
0
100
AcDbLine
 62
253
  6
CONTINUOUS
 10
-575.2972423421
 20
42.4149748205
 11
-485.0099091202
 21
42.4149748205
  0
LINE
  5
58E
100
AcDbEntity
  8
0
100
AcDbLine
 62
7
  6
CONTINUOUS
 10
-485.0099091202
 20
42.4149748205
 11
-459.3322395905
 21
42.4149748205
  0
LINE
  5
58F
100
AcDbEntity
  8
0
100
AcDbLine
 62
253
  6
CONTINUOUS
 10
-1343.3672368389
 20
42.4149748205
 11
-1433.6545700608
 21
42.4149748205
  0
LINE
  5
590
100
AcDbEntity
  8
0
100
AcDbLine
 62
7
  6
CONTINUOUS
 10
-1456.3322395905
 20
42.9149748205
 11
-1436.3322395905
 21
42.9149748205
  0
LINE
  5
591
100
AcDbEntity
  8
0
100
AcDbLine
 62
7
  6
CONTINUOUS
 10
-462.3322395905
 20
42.9149748205
 11
-482.3322395905
 21
42.9149748205
  0
LINE
  5
592
100
AcDbEntity
  8
0
100
AcDbLine
 62
7
  6
CONTINUOUS
 10
-580.8322395905
 20
44.9149748205
 11
-1337.8322395905
 21
44.9149748205
  0
LINE
  5
593
100
AcDbEntity
  8
0
100
AcDbLine
 62
7
  6
CONTINUOUS
 10
-1456.3322395905
 20
45.4149748205
 11
-1436.3322395905
 21
45.4149748205
  0
LINE
  5
594
100
AcDbEntity
  8
0
100
AcDbLine
 62
7
  6
CONTINUOUS
 10
-575.2972423421
 20
45.4149748205
 11
-488.0099091202
 21
45.4149748205
  0
LINE
  5
595
100
AcDbEntity
  8
0
100
AcDbLine
 62
7
  6
CONTINUOUS
 10
-462.3322395905
 20
45.4149748205
 11
-482.3322395905
 21
45.4149748205
  0
LINE
  5
596
100
AcDbEntity
  8
0
100
AcDbLine
 62
7
  6
CONTINUOUS
 10
-1343.3672368389
 20
45.4149748205
 11
-1430.6545700608
 21
45.4149748205
  0
LINE
  5
597
100
AcDbEntity
  8
0
100
AcDbLine
 62
253
  6
CONTINUOUS
 10
-575.2972423421
 20
45.9149748205
 11
-529.0099091202
 21
45.9149748205
  0
LINE
  5
598
100
AcDbEntity
  8
0
100
AcDbLine
 62
253
  6
CONTINUOUS
 10
-485.3322395905
 20
45.9149748205
 11
-482.8322395905
 21
45.9149748205
  0
LINE
  5
599
100
AcDbEntity
  8
0
100
AcDbLine
 62
253
  6
CONTINUOUS
 10
-1343.3672368389
 20
45.9149748205
 11
-1389.6545700608
 21
45.9149748205
  0
LINE
  5
59A
100
AcDbEntity
  8
0
100
AcDbLine
 62
253
  6
CONTINUOUS
 10
-1433.3322395905
 20
45.9149748205
 11
-1435.8322395905
 21
45.9149748205
  0
LINE
  5
59B
100
AcDbEntity
  8
0
100
AcDbLine
 62
7
  6
CONTINUOUS
 10
-575.2972423421
 20
55.6149748205
 11
-529.0099091202
 21
55.6149748205
  0
LINE
  5
59C
100
AcDbEntity
  8
0
100
AcDbLine
 62
7
  6
CONTINUOUS
 10
-485.3322395905
 20
55.6149748205
 11
-482.8322395905
 21
55.6149748205
  0
LINE
  5
59D
100
AcDbEntity
  8
0
100
AcDbLine
 62
7
  6
CONTINUOUS
 10
-1343.3672368389
 20
55.6149748205
 11
-1389.6545700608
 21
55.6149748205
  0
LINE
  5
59E
100
AcDbEntity
  8
0
100
AcDbLine
 62
7
  6
CONTINUOUS
 10
-1433.3322395905
 20
55.6149748205
 11
-1435.8322395905
 21
55.6149748205
  0
LINE
  5
59F
100
AcDbEntity
  8
RACCORDO
100
AcDbLine
 62
253
  6
CONTINUOUS
 10
-456.4068482327
 20
-5.7970304447
 11
-456.4063218644
 21
-5.797094386
  0
LWPOLYLINE
  5
5A0
100
AcDbEntity
  8
RACCORDO
100
AcDbPolyline
 62
253
  6
CONTINUOUS
 90
10
 70
0
 10
-456.6550250544
 20
-5.695315417
 10
-456.6641763796
 20
-5.6937963635
 10
-456.6729668354
 20
-5.6900298793
 10
-456.6813779064
 20
-5.6839750418
 10
-456.6894236817
 20
-5.6754644169
 10
-456.6970568552
 20
-5.664593703
 10
-456.7041654783
 20
-5.6517495743
 10
-456.7107255217
 20
-5.6369347511
 10
-456.7167285874
 20
-5.6201620616
 10
-456.7220837053
 20
-5.6018871389
  0
LINE
  5
5A1
100
AcDbEntity
  8
RACCORDO
100
AcDbLine
 62
253
  6
CONTINUOUS
 10
-456.478253911
 20
-5.5888915071
 11
-456.4917879672
 21
-5.5859964799
  0
LINE
  5
5A2
100
AcDbEntity
  8
RACCORDO
100
AcDbLine
 62
253
  6
CONTINUOUS
 10
-456.6550294478
 20
-3.2541559017
 11
-456.6545238347
 21
-3.253990833
  0
LINE
  5
5A3
100
AcDbEntity
  8
RACCORDO
100
AcDbLine
 62
253
  6
CONTINUOUS
 10
-456.6550251209
 20
-6.9158958702
 11
-456.6545204807
 21
-6.916060623
  0
LINE
  5
5A4
100
AcDbEntity
  8
RACCORDO
100
AcDbLine
 62
253
  6
CONTINUOUS
 10
-456.4652508875
 20
-5.5936540226
 11
-456.478253911
 21
-5.5888915071
  0
LWPOLYLINE
  5
5A5
100
AcDbEntity
  8
RACCORDO
100
AcDbPolyline
 62
253
  6
CONTINUOUS
 90
22
 70
0
 10
-587.942529828
 20
-5.7970304566
 10
-587.9430425887
 20
-5.7873653305
 10
-587.9443531488
 20
-5.778034004
 10
-587.9464620875
 20
-5.7690232794
 10
-587.9494723947
 20
-5.7602006592
 10
-587.9532828249
 20
-5.7516645323
 10
-587.9576033093
 20
-5.7437493112
 10
-587.962469833
 20
-5.7365304568
 10
-587.9678838665
 20
-5.7298995708
 10
-587.9735201226
 20
-5.7239282292
 10
-587.9793658637
 20
-5.7186629434
 10
-587.9854711726
 20
-5.7140433203
 10
-587.9916040194
 20
-5.7099966364
 10
-587.9977446266
 20
-5.706541214
 10
-588.0039371916
 20
-5.7036604191
 10
-588.0100391457
 20
-5.701239461
 10
-588.016024015
 20
-5.6992853886
 10
-588.0219307142
 20
-5.6978008981
 10
-588.0277092745
 20
-5.6966686062
 10
-588.033344021
 20
-5.6958530654
 10
-588.0388553231
 20
-5.6954002648
 10
-588.0442448675
 20
-5.695315417
  0
LWPOLYLINE
  5
5A6
100
AcDbEntity
  8
RACCORDO
100
AcDbPolyline
 62
253
  6
CONTINUOUS
 90
22
 70
0
 10
-586.721949353
 20
-4.3730199025
 10
-586.7214365923
 20
-4.3826850286
 10
-586.7201260322
 20
-4.3920163551
 10
-586.7180170935
 20
-4.4010270797
 10
-586.7150067863
 20
-4.4098496999
 10
-586.7111963561
 20
-4.4183858268
 10
-586.7068758717
 20
-4.4263010479
 10
-586.702009348
 20
-4.4335199023
 10
-586.6965953145
 20
-4.4401507883
 10
-586.6909590584
 20
-4.4461221298
 10
-586.6851133172
 20
-4.4513874157
 10
-586.6790080084
 20
-4.4560070387
 10
-586.6728751616
 20
-4.4600537227
 10
-586.6667345544
 20
-4.4635091451
 10
-586.6605419894
 20
-4.4663899399
 10
-586.6544400353
 20
-4.4688108981
 10
-586.648455166
 20
-4.4707649705
 10
-586.6425484668
 20
-4.472249461
 10
-586.6367699064
 20
-4.4733817529
 10
-586.63113516
 20
-4.4741972937
 10
-586.6256238579
 20
-4.4746500943
 10
-586.6202343134
 20
-4.4747349421
  0
LWPOLYLINE
  5
5A7
100
AcDbEntity
  8
RACCORDO
100
AcDbPolyline
 62
253
  6
CONTINUOUS
 90
16
 70
0
 10
-587.6373843001
 20
-7.2210381446
 10
-587.6375974528
 20
-7.2087104713
 10
-587.6377211776
 20
-7.1959872395
 10
-587.6377534089
 20
-7.183080838
 10
-587.6376936081
 20
-7.1702067127
 10
-587.6375427733
 20
-7.1575797711
 10
-587.637303422
 20
-7.1454107942
 10
-587.6369795491
 20
-7.1339029182
 10
-587.6365765606
 20
-7.1232482438
 10
-587.6361011832
 20
-7.1136246291
 10
-587.6355613519
 20
-7.1051927207
 10
-587.6349660775
 20
-7.0980932723
 10
-587.6343252965
 20
-7.0924447948
 10
-587.6336497047
 20
-7.0883415778
 10
-587.6329505795
 20
-7.0858521165
 10
-587.6322395908
 20
-7.0850179671
  0
LWPOLYLINE
  5
5A8
100
AcDbEntity
  8
RACCORDO
100
AcDbPolyline
 62
253
  6
CONTINUOUS
 90
16
 70
0
 10
-587.0270948809
 20
-2.9490122145
 10
-587.0268817281
 20
-2.9613398878
 10
-587.0267580033
 20
-2.9740631195
 10
-587.0267257721
 20
-2.9869695211
 10
-587.0267855728
 20
-2.9998436463
 10
-587.0269364076
 20
-3.012470588
 10
-587.027175759
 20
-3.0246395649
 10
-587.0274996319
 20
-3.0361474409
 10
-587.0279026204
 20
-3.0468021153
 10
-587.0283779977
 20
-3.05642573
 10
-587.0289178291
 20
-3.0648576383
 10
-587.0295131035
 20
-3.0719570867
 10
-587.0301538845
 20
-3.0776055643
 10
-587.0308294762
 20
-3.0817087812
 10
-587.0315286015
 20
-3.0841982426
 10
-587.0322395902
 20
-3.085032392
  0
LWPOLYLINE
  5
5A9
100
AcDbEntity
  8
RACCORDO
100
AcDbPolyline
 62
253
  6
CONTINUOUS
 90
13
 70
0
 10
-589.163108985
 20
-5.6953149773
 10
-589.1632535629
 20
-5.6813846923
 10
-589.1627955969
 20
-5.667524952
 10
-589.1617439844
 20
-5.6540050265
 10
-589.1601191567
 20
-5.6410875837
 10
-589.1579526811
 20
-5.6290235863
 10
-589.1552866485
 20
-5.6180474162
 10
-589.1521728552
 20
-5.6083723207
 10
-589.1486717967
 20
-5.6001862695
 10
-589.1448514925
 20
-5.593648303
 10
-589.1407861642
 20
-5.5888854422
 10
-589.1365547941
 20
-5.585990221
 10
-589.1322395902
 20
-5.5850188882
  0
LWPOLYLINE
  5
5AA
100
AcDbEntity
  8
RACCORDO
100
AcDbPolyline
 62
253
  6
CONTINUOUS
 90
13
 70
0
 10
-585.501370196
 20
-4.4747353817
 10
-585.5012256181
 20
-4.4886656668
 10
-585.5016835841
 20
-4.5025254071
 10
-585.5027351965
 20
-4.5160453326
 10
-585.5043600243
 20
-4.5289627754
 10
-585.5065264999
 20
-4.5410267728
 10
-585.5091925325
 20
-4.5520029429
 10
-585.5123063258
 20
-4.5616780384
 10
-585.5158073843
 20
-4.5698640896
 10
-585.5196276885
 20
-4.576402056
 10
-585.5236930168
 20
-4.5811649168
 10
-585.5279243868
 20
-4.5840601381
 10
-585.5322395908
 20
-4.5850314709
  0
LWPOLYLINE
  5
5AB
100
AcDbEntity
  8
RACCORDO
100
AcDbPolyline
 62
253
  6
CONTINUOUS
 90
13
 70
0
 10
-588.0442448652
 20
-5.695315415
 10
-588.0443009387
 20
-5.6813854585
 10
-588.0441227089
 20
-5.6675262071
 10
-588.0437136382
 20
-5.6540068899
 10
-588.0430816731
 20
-5.6410901325
 10
-588.0422390902
 20
-5.6290268554
 10
-588.0412022574
 20
-5.618051399
 10
-588.0399913162
 20
-5.6083769722
 10
-588.0386297903
 20
-5.60019151
 10
-588.0371441287
 20
-5.5936540226
 10
-588.0355631916
 20
-5.5888915071
 10
-588.0339176904
 20
-5.5859964799
 10
-588.0322395905
 20
-5.5850251795
  0
LWPOLYLINE
  5
5AC
100
AcDbEntity
  8
RACCORDO
100
AcDbPolyline
 62
253
  6
CONTINUOUS
 90
13
 70
0
 10
-586.6202343157
 20
-4.474734944
 10
-586.6201782423
 20
-4.4886649005
 10
-586.6203564721
 20
-4.502524152
 10
-586.6207655428
 20
-4.5160434692
 10
-586.6213975079
 20
-4.5289602265
 10
-586.6222400908
 20
-4.5410235037
 10
-586.6232769236
 20
-4.5519989601
 10
-586.6244878648
 20
-4.5616733868
 10
-586.6258493907
 20
-4.5698588491
 10
-586.6273350523
 20
-4.5763963365
 10
-586.6289159894
 20
-4.581158852
 10
-586.6305614906
 20
-4.5840538792
 10
-586.6322395905
 20
-4.5850251795
  0
LINE
  5
5AD
100
AcDbEntity
  8
RACCORDO
100
AcDbLine
 62
253
  6
CONTINUOUS
 10
-589.4682554216
 20
-5.3901702983
 11
-589.4682554216
 21
-4.7798800608
  0
LINE
  5
5AE
100
AcDbEntity
  8
RACCORDO
100
AcDbLine
 62
7
  6
CONTINUOUS
 10
-589.3322395905
 20
-5.3850251795
 11
-589.3322395905
 21
-4.7850251795
  0
LINE
  5
5AF
100
AcDbEntity
  8
RACCORDO
100
AcDbLine
 62
7
  6
CONTINUOUS
 10
-587.8322395905
 20
-6.8850251795
 11
-587.8322395905
 21
-5.7850251795
  0
LINE
  5
5B0
100
AcDbEntity
  8
RACCORDO
100
AcDbLine
 62
7
  6
CONTINUOUS
 10
-587.8322395905
 20
-4.3850251795
 11
-587.8322395905
 21
-3.2850251795
  0
LINE
  5
5B1
100
AcDbEntity
  8
RACCORDO
100
AcDbLine
 62
7
  6
CONTINUOUS
 10
-586.8322395905
 20
-3.2850251795
 11
-586.8322395905
 21
-4.3850251795
  0
LINE
  5
5B2
100
AcDbEntity
  8
RACCORDO
100
AcDbLine
 62
7
  6
CONTINUOUS
 10
-586.8322395905
 20
-5.7850251795
 11
-586.8322395905
 21
-6.8850251795
  0
LINE
  5
5B3
100
AcDbEntity
  8
RACCORDO
100
AcDbLine
 62
7
  6
CONTINUOUS
 10
-585.3322395905
 20
-4.7850251795
 11
-585.3322395905
 21
-5.3850251795
  0
LINE
  5
5B4
100
AcDbEntity
  8
RACCORDO
100
AcDbLine
 62
253
  6
CONTINUOUS
 10
-585.1962237594
 20
-4.7798800608
 11
-585.1962237594
 21
-5.3901702983
  0
LINE
  5
5B5
100
AcDbEntity
  8
RACCORDO
100
AcDbLine
 62
253
  6
CONTINUOUS
 10
-587.942529828
 20
-4.3730199025
 11
-587.9425298265
 21
-3.5213785532
  0
LINE
  5
5B6
100
AcDbEntity
  8
RACCORDO
100
AcDbLine
 62
253
  6
CONTINUOUS
 10
-587.9426059478
 20
-5.8550966268
 11
-587.942529828
 21
-5.7970304566
  0
LINE
  5
5B7
100
AcDbEntity
  8
RACCORDO
100
AcDbLine
 62
253
  6
CONTINUOUS
 10
-586.7218732332
 20
-4.3149537323
 11
-586.721949353
 21
-4.3730199025
  0
LINE
  5
5B8
100
AcDbEntity
  8
RACCORDO
100
AcDbLine
 62
253
  6
CONTINUOUS
 10
-586.721949353
 20
-5.7970304566
 11
-586.7219493545
 21
-6.6486718059
  0
LWPOLYLINE
  5
5B9
100
AcDbEntity
  8
RACCORDO
100
AcDbPolyline
 62
253
  6
CONTINUOUS
 90
3
 70
0
 10
-587.9425298265
 20
-3.5213785532
 10
-587.9423500569
 20
-3.4346212488
 10
-587.942529828
 20
-3.2541544671
  0
LWPOLYLINE
  5
5BA
100
AcDbEntity
  8
RACCORDO
100
AcDbPolyline
 62
253
  6
CONTINUOUS
 90
3
 70
0
 10
-586.7219493545
 20
-6.6486718059
 10
-586.7221291241
 20
-6.7354291103
 10
-586.721949353
 20
-6.9158958919
  0
LINE
  5
5BB
100
AcDbEntity
  8
RACCORDO
100
AcDbLine
 62
253
  6
CONTINUOUS
 10
-587.942529828
 20
-6.9158958919
 11
-587.9426059478
 21
-5.8550966268
  0
LINE
  5
5BC
100
AcDbEntity
  8
RACCORDO
100
AcDbLine
 62
253
  6
CONTINUOUS
 10
-586.721949353
 20
-3.2541544671
 11
-586.7218732332
 21
-4.3149537323
  0
LWPOLYLINE
  5
5BD
100
AcDbEntity
  8
RACCORDO
100
AcDbPolyline
 62
253
  6
CONTINUOUS
 90
13
 70
0
 10
-588.0442448673
 20
-4.4747349423
 10
-588.0443009377
 20
-4.4886648765
 10
-588.0441227054
 20
-4.5025241038
 10
-588.0437136326
 20
-4.5160433959
 10
-588.0430816661
 20
-4.5289601281
 10
-588.0422390824
 20
-4.5410233808
 10
-588.0412022494
 20
-4.5519988144
 10
-588.0399913085
 20
-4.5616732208
 10
-588.0386297834
 20
-4.5698586658
 10
-588.037144123
 20
-4.5763961396
 10
-588.0355631876
 20
-4.5811586456
 10
-588.0339176883
 20
-4.5840536678
 10
-588.0322395905
 20
-4.5850249677
  0
LWPOLYLINE
  5
5BE
100
AcDbEntity
  8
RACCORDO
100
AcDbPolyline
 62
253
  6
CONTINUOUS
 90
13
 70
0
 10
-586.6202343137
 20
-5.6953154168
 10
-586.6201782433
 20
-5.6813854826
 10
-586.6203564756
 20
-5.6675262553
 10
-586.6207655483
 20
-5.6540069632
 10
-586.6213975148
 20
-5.641090231
 10
-586.6222400986
 20
-5.6290269782
 10
-586.6232769316
 20
-5.6180515447
 10
-586.6244878725
 20
-5.6083771382
 10
-586.6258493976
 20
-5.6001916933
 10
-586.627335058
 20
-5.5936542195
 10
-586.6289159934
 20
-5.5888917135
 10
-586.6305614927
 20
-5.5859966913
 10
-586.6322395905
 20
-5.5850253913
  0
LWPOLYLINE
  5
5BF
100
AcDbEntity
  8
RACCORDO
100
AcDbPolyline
 62
253
  6
CONTINUOUS
 90
13
 70
0
 10
-589.1631102862
 20
-4.4747349476
 10
-589.163254475
 20
-4.488664901
 10
-589.16279617
 20
-4.5025241493
 10
-589.1617442743
 20
-4.5160434635
 10
-589.1601192219
 20
-4.5289602183
 10
-589.1579525811
 20
-4.5410234934
 10
-589.1552864408
 20
-4.5519989484
 10
-589.1521725934
 20
-4.5616733747
 10
-589.1486715282
 20
-4.5698588374
 10
-589.1448512568
 20
-4.5763963262
 10
-589.1407859914
 20
-4.5811588441
 10
-589.1365547037
 20
-4.5840538748
 10
-589.1322395905
 20
-4.5850251795
  0
LWPOLYLINE
  5
5C0
100
AcDbEntity
  8
RACCORDO
100
AcDbPolyline
 62
253
  6
CONTINUOUS
 90
13
 70
0
 10
-585.5013688948
 20
-5.6953154114
 10
-585.501224706
 20
-5.6813854581
 10
-585.501683011
 20
-5.6675262098
 10
-585.5027349067
 20
-5.6540068956
 10
-585.5043599591
 20
-5.6410901408
 10
-585.5065265999
 20
-5.6290268657
 10
-585.5091927402
 20
-5.6180514107
 10
-585.5123065876
 20
-5.6083769844
 10
-585.5158076527
 20
-5.6001915217
 10
-585.5196279242
 20
-5.5936540329
 10
-585.5236931896
 20
-5.588891515
 10
-585.5279244773
 20
-5.5859964843
 10
-585.5322395905
 20
-5.5850251795
  0
LWPOLYLINE
  5
5C1
100
AcDbEntity
  8
RACCORDO
100
AcDbPolyline
 62
253
  6
CONTINUOUS
 90
16
 70
0
 10
-587.6373847078
 20
-2.9490093587
 10
-587.6375978564
 20
-2.9613369798
 10
-587.6377215721
 20
-2.9740599718
 10
-587.6377537901
 20
-2.9869659801
 10
-587.6376939724
 20
-2.9998395951
 10
-587.6375431177
 20
-3.0124659482
 10
-587.6373037437
 20
-3.0246342976
 10
-587.636979846
 20
-3.0361415459
 10
-587.6365768304
 20
-3.0467956299
 10
-587.6361014235
 20
-3.0564187262
 10
-587.6355615603
 20
-3.0648502193
 10
-587.6349662514
 20
-3.0719493822
 10
-587.6343254325
 20
-3.0775977255
 10
-587.6336497994
 20
-3.0817009748
 10
-587.6329506289
 20
-3.0841906442
 10
-587.6322395905
 20
-3.0850251795
  0
LWPOLYLINE
  5
5C2
100
AcDbEntity
  8
RACCORDO
100
AcDbPolyline
 62
253
  6
CONTINUOUS
 90
16
 70
0
 10
-587.0270944732
 20
-7.2210410004
 10
-587.0268813246
 20
-7.2087133793
 10
-587.0267576089
 20
-7.1959903873
 10
-587.0267253909
 20
-7.183084379
 10
-587.0267852086
 20
-7.170210764
 10
-587.0269360633
 20
-7.1575844109
 10
-587.0271754373
 20
-7.1454160615
 10
-587.027499335
 20
-7.1339088132
 10
-587.0279023506
 20
-7.1232547292
 10
-587.0283777574
 20
-7.1136316329
 10
-587.0289176207
 20
-7.1052001398
 10
-587.0295129296
 20
-7.0981009769
 10
-587.0301537485
 20
-7.0924526335
 10
-587.0308293816
 20
-7.0883493843
 10
-587.0315285521
 20
-7.0858597149
 10
-587.0322395905
 20
-7.0850251795
  0
LWPOLYLINE
  5
5C3
100
AcDbEntity
  8
RACCORDO
100
AcDbPolyline
 62
253
  6
CONTINUOUS
 90
19
 70
0
 10
-589.4682554216
 20
-4.7798800608
 10
-589.4671156943
 20
-4.7537806027
 10
-589.4638198694
 20
-4.7280954183
 10
-589.4583836164
 20
-4.702894407
 10
-589.4507975377
 20
-4.6781602533
 10
-589.441102617
 20
-4.6540484865
 10
-589.4294000145
 20
-4.6308824179
 10
-589.4157048333
 20
-4.6087033582
 10
-589.4000551132
 20
-4.5875895657
 10
-589.3826046846
 20
-4.5679028941
 10
-589.3633258949
 20
-4.5496460107
 10
-589.3423136056
 20
-4.532901571
 10
-589.3199233188
 20
-4.5181160879
 10
-589.2961576129
 20
-4.5052983377
 10
-589.2710860151
 20
-4.4944553173
 10
-589.2451758329
 20
-4.4859758325
 10
-589.218602706
 20
-4.4799545498
 10
-589.1912427958
 20
-4.4762216604
 10
-589.1631103029
 20
-4.4747349421
  0
LWPOLYLINE
  5
5C4
100
AcDbEntity
  8
RACCORDO
100
AcDbPolyline
 62
253
  6
CONTINUOUS
 90
19
 70
0
 10
-585.1962237594
 20
-5.3901702983
 10
-585.1973634867
 20
-5.4162697563
 10
-585.2006593116
 20
-5.4419549408
 10
-585.2060955646
 20
-5.4671559521
 10
-585.2136816433
 20
-5.4918901058
 10
-585.223376564
 20
-5.5160018726
 10
-585.2350791665
 20
-5.5391679412
 10
-585.2487743477
 20
-5.5613470009
 10
-585.2644240678
 20
-5.5824607934
 10
-585.2818744964
 20
-5.602147465
 10
-585.301153286
 20
-5.6204043484
 10
-585.3221655754
 20
-5.6371487881
 10
-585.3445558622
 20
-5.6519342712
 10
-585.3683215681
 20
-5.6647520214
 10
-585.3933931659
 20
-5.6755950418
 10
-585.4193033481
 20
-5.6840745265
 10
-585.445876475
 20
-5.6900958093
 10
-585.4732363852
 20
-5.6938286987
 10
-585.5013688781
 20
-5.695315417
  0
LWPOLYLINE
  5
5C5
100
AcDbEntity
  8
RACCORDO
100
AcDbPolyline
 62
253
  6
CONTINUOUS
 90
19
 70
0
 10
-587.942529828
 20
-3.2541544671
 10
-587.9409284946
 20
-3.2255135321
 10
-587.9370985369
 20
-3.1978153605
 10
-587.931003596
 20
-3.1710742892
 10
-587.9224851182
 20
-3.1452264718
 10
-587.9116411686
 20
-3.1203867989
 10
-587.898848343
 20
-3.0968415879
 10
-587.8841183894
 20
-3.0746078966
 10
-587.8674544473
 20
-3.0537395695
 10
-587.8492663242
 20
-3.0345679893
 10
-587.8296220395
 20
-3.0171724609
 10
-587.8085348735
 20
-3.0015418507
 10
-587.7863671065
 20
-2.9878550052
 10
-587.7631867781
 20
-2.9761540354
 10
-587.7390443613
 20
-2.9664512314
 10
-587.7142944393
 20
-2.9588613647
 10
-587.6891033828
 20
-2.9534291143
 10
-587.6634435008
 20
-2.9501400743
 10
-587.6373847092
 20
-2.9490093484
  0
LWPOLYLINE
  5
5C6
100
AcDbEntity
  8
RACCORDO
100
AcDbPolyline
 62
253
  6
CONTINUOUS
 90
19
 70
0
 10
-586.721949353
 20
-6.9158958919
 10
-586.7235506864
 20
-6.944536827
 10
-586.7273806441
 20
-6.9722349985
 10
-586.733475585
 20
-6.9989760699
 10
-586.7419940628
 20
-7.0248238873
 10
-586.7528380124
 20
-7.0496635602
 10
-586.765630838
 20
-7.0732087711
 10
-586.7803607916
 20
-7.0954424625
 10
-586.7970247337
 20
-7.1163107895
 10
-586.8152128568
 20
-7.1354823697
 10
-586.8348571415
 20
-7.1528778982
 10
-586.8559443075
 20
-7.1685085084
 10
-586.8781120745
 20
-7.1821953539
 10
-586.9012924029
 20
-7.1938963237
 10
-586.9254348197
 20
-7.2035991277
 10
-586.9501847417
 20
-7.2111889944
 10
-586.9753757982
 20
-7.2166212448
 10
-587.0010356802
 20
-7.2199102848
 10
-587.0270944718
 20
-7.2210410107
  0
LWPOLYLINE
  5
5C7
100
AcDbEntity
  8
RACCORDO
100
AcDbPolyline
 62
253
  6
CONTINUOUS
 90
9
 70
0
 10
-456.7386675488
 20
-7.2210410107
 10
-456.7397343001
 20
-7.2199289696
 10
-456.7400634529
 20
-7.216650333
 10
-456.7396541445
 20
-7.2112189812
 10
-456.7385029909
 20
-7.2036166032
 10
-456.7366174777
 20
-7.1938891302
 10
-456.7340158627
 20
-7.1821594411
 10
-456.7307001623
 20
-7.1684443751
 10
-456.7266837631
 20
-7.1527826969
  0
LWPOLYLINE
  5
5C8
100
AcDbEntity
  8
RACCORDO
100
AcDbPolyline
 62
7
  6
CONTINUOUS
 90
7
 70
0
 10
-456.7069040207
 20
-5.6011784911
 10
-456.7057387041
 20
-5.6024780225
 10
-456.705565974
 20
-5.6026878798
 10
-456.7063727929
 20
-5.6014022588
 10
-456.7079329203
 20
-5.5985205367
 10
-456.7101000914
 20
-5.5938648555
 10
-456.7127100587
 20
-5.5873272232
  0
LINE
  5
5C9
100
AcDbEntity
  8
0
100
AcDbLine
 62
7
  6
CONTINUOUS
 10
-580.8322395905
 20
44.9149748205
 11
-580.8322395905
 21
-55.0850251795
  0
LINE
  5
5CA
100
AcDbEntity
  8
0
100
AcDbLine
 62
253
  6
CONTINUOUS
 10
-579.7234045821
 20
34.9149748205
 11
-579.7234045821
 21
-45.0850251795
  0
LINE
  5
5CB
100
AcDbEntity
  8
0
100
AcDbLine
 62
253
  6
CONTINUOUS
 10
-578.768146838
 20
34.9149748205
 11
-578.768146838
 21
-45.0850251795
  0
LINE
  5
5CC
100
AcDbEntity
  8
0
100
AcDbLine
 62
253
  6
CONTINUOUS
 10
-576.3322395905
 20
34.9149748205
 11
-576.3322395905
 21
-45.0850251795
  0
LINE
  5
5CD
100
AcDbEntity
  8
0
100
AcDbLine
 62
7
  6
CONTINUOUS
 10
-575.2972423421
 20
-55.5850251795
 11
-575.2972423421
 21
-47.5850251795
  0
LINE
  5
5CE
100
AcDbEntity
  8
0
100
AcDbLine
 62
7
  6
CONTINUOUS
 10
-575.2972423421
 20
-47.5850251795
 11
-575.2972423421
 21
-45.5850251795
  0
LINE
  5
5CF
100
AcDbEntity
  8
0
100
AcDbLine
 62
7
  6
CONTINUOUS
 10
-575.2972423421
 20
37.4149748205
 11
-575.2972423421
 21
55.6149748205
  0
LINE
  5
5D0
100
AcDbEntity
  8
0
100
AcDbLine
 62
7
  6
CONTINUOUS
 10
-573.2972423421
 20
-47.5850251795
 11
-573.2972423421
 21
-45.0850251795
  0
LINE
  5
5D1
100
AcDbEntity
  8
0
100
AcDbLine
 62
7
  6
CONTINUOUS
 10
-573.2972423421
 20
34.9149748205
 11
-573.2972423421
 21
37.4149748205
  0
LINE
  5
5D2
100
AcDbEntity
  8
0
100
AcDbLine
 62
7
  6
CONTINUOUS
 10
-529.0099091202
 20
45.4149748205
 11
-529.0099091202
 21
55.6149748205
  0
LWPOLYLINE
  5
5D3
100
AcDbEntity
  8
RACCORDO
100
AcDbPolyline
 62
7
  6
CONTINUOUS
 90
11
 70
0
 10
-456.4152114654
 20
-5.6398885544
 10
-456.4203588111
 20
-5.6311996555
 10
-456.4263047985
 20
-5.6230577424
 10
-456.4331603192
 20
-5.6153801493
 10
-456.4409934013
 20
-5.6082227036
 10
-456.4497731487
 20
-5.601750582
 10
-456.4594834969
 20
-5.5961046071
 10
-456.4702148589
 20
-5.591391897
 10
-456.4819451639
 20
-5.587818959
 10
-456.4945075123
 20
-5.5856323894
 10
-456.5055905158
 20
-5.5850253947
  0
LINE
  5
5D4
100
AcDbEntity
  8
RACCORDO
100
AcDbLine
 62
7
  6
CONTINUOUS
 10
-456.4036452522
 20
-4.3977453326
 11
-456.4051343814
 21
-4.3831908019
  0
LINE
  5
5D5
100
AcDbEntity
  8
RACCORDO
100
AcDbLine
 62
7
  6
CONTINUOUS
 10
-456.4025416842
 20
-4.4105171785
 11
-456.403744395
 21
-4.3966962417
  0
LINE
  5
5D6
100
AcDbEntity
  8
RACCORDO
100
AcDbLine
 62
7
  6
CONTINUOUS
 10
-456.4016880281
 20
-4.4226102088
 11
-456.4026128695
 21
-4.4096185151
  0
LINE
  5
5D7
100
AcDbEntity
  8
RACCORDO
100
AcDbLine
 62
7
  6
CONTINUOUS
 10
-456.7312354737
 20
-4.7930524858
 11
-456.7319668784
 21
-4.7795100885
  0
LINE
  5
5D8
100
AcDbEntity
  8
RACCORDO
100
AcDbLine
 62
7
  6
CONTINUOUS
 10
-456.4010786354
 20
-4.4339513233
 11
-456.4017353691
 21
-4.4218549021
  0
LINE
  5
5D9
100
AcDbEntity
  8
RACCORDO
100
AcDbLine
 62
7
  6
CONTINUOUS
 10
-456.7292652533
 20
-4.8331392071
 11
-456.7313352003
 21
-4.7912059889
  0
LINE
  5
5DA
100
AcDbEntity
  8
RACCORDO
100
AcDbLine
 62
7
  6
CONTINUOUS
 10
-456.7319715766
 20
-4.779510348
 11
-456.7325806624
 21
-4.7661507913
  0
LINE
  5
5DB
100
AcDbEntity
  8
RACCORDO
100
AcDbLine
 62
7
  6
CONTINUOUS
 10
-456.7275855211
 20
-4.8732390211
 11
-456.7293746956
 21
-4.8307462258
  0
LINE
  5
5DC
100
AcDbEntity
  8
RACCORDO
100
AcDbLine
 62
253
  6
CONTINUOUS
 10
-456.7386675488
 20
-4.7798800608
 11
-456.7397303817
 21
-4.7537806027
  0
LINE
  5
5DD
100
AcDbEntity
  8
RACCORDO
100
AcDbLine
 62
7
  6
CONTINUOUS
 10
-456.7261963821
 20
-4.9133495672
 11
-456.7276776167
 21
-4.8708454626
  0
LWPOLYLINE
  5
5DE
100
AcDbEntity
  8
RACCORDO
100
AcDbPolyline
 62
253
  6
CONTINUOUS
 90
13
 70
0
 10
-456.4068481375
 20
-4.4747349423
 10
-456.4063869577
 20
-4.4886648765
 10
-456.4078528918
 20
-4.5025241038
 10
-456.4112174625
 20
-4.5160433959
 10
-456.4164153101
 20
-4.5289601281
 10
-456.4233454615
 20
-4.5410233808
 10
-456.4318732921
 20
-4.5519988144
 10
-456.4418331409
 20
-4.5616732208
 10
-456.4530315288
 20
-4.5698586658
 10
-456.4652509166
 20
-4.5763961396
 10
-456.4782539314
 20
-4.5811586456
 10
-456.4917879778
 20
-4.5840536678
 10
-456.5055901442
 20
-4.5850249677
  0
LWPOLYLINE
  5
5DF
100
AcDbEntity
  8
RACCORDO
100
AcDbPolyline
 62
253
  6
CONTINUOUS
 90
10
 70
0
 10
-456.6550251056
 20
-4.4747349476
 10
-456.6545834532
 20
-4.488664901
 10
-456.6559872481
 20
-4.5025241493
 10
-456.65920922
 20
-4.5160434635
 10
-456.6641867793
 20
-4.5289602183
 10
-456.6708232321
 20
-4.5410234934
 10
-456.6789896589
 20
-4.5519989484
 10
-456.6885274194
 20
-4.5616733747
 10
-456.6992512335
 20
-4.5698588374
 10
-456.7099171006
 20
-4.5758177063
  0
LWPOLYLINE
  5
5E0
100
AcDbEntity
  8
0
100
AcDbPolyline
 62
7
  6
CONTINUOUS
 90
19
 70
0
 10
-485.0099091202
 20
42.4149748205
 10
-485.016696637
 20
42.6386115034
 10
-485.0428262202
 20
42.8662219468
 10
-485.0882978698
 20
43.0963422785
 10
-485.1528480697
 20
43.327846669
 10
-485.2367403359
 20
43.5583823338
 10
-485.3407652169
 20
43.7845261926
 10
-485.4657063143
 20
44.0041093575
 10
-485.6107800265
 20
44.2153689359
 10
-485.7744260965
 20
44.415632853
 10
-485.9568129366
 20
44.6024792327
 10
-486.1577721346
 20
44.7745113616
 10
-486.3752381976
 20
44.9304881159
 10
-486.6089907255
 20
45.0679168539
 10
-486.8592501184
 20
45.1852014369
 10
-487.1246120836
 20
45.2813877984
 10
-487.4046085235
 20
45.3538366359
 10
-487.6997075357
 20
45.3992647237
 10
-488.0099091202
 20
45.4149748205
  0
LINE
  5
5E1
100
AcDbEntity
  8
RACCORDO
100
AcDbLine
 62
7
  6
CONTINUOUS
 10
-456.7250978936
 20
-4.9534688839
 11
-456.7262711317
 21
-4.9109554778
  0
LINE
  5
5E2
100
AcDbEntity
  8
RACCORDO
100
AcDbLine
 62
7
  6
CONTINUOUS
 10
-456.7325485417
 20
-4.7673959825
 11
-456.7331339226
 21
-4.7447031092
  0
LINE
  5
5E3
100
AcDbEntity
  8
RACCORDO
100
AcDbLine
 62
7
  6
CONTINUOUS
 10
-456.7242901046
 20
-4.9935951498
 11
-456.7251552954
 21
-4.9510743292
  0
LINE
  5
5E4
100
AcDbEntity
  8
RACCORDO
100
AcDbLine
 62
7
  6
CONTINUOUS
 10
-456.7237730584
 20
-5.0337263331
 11
-456.724330158
 21
-4.99120018
  0
LWPOLYLINE
  5
5E5
100
AcDbEntity
  8
RACCORDO
100
AcDbPolyline
 62
253
  6
CONTINUOUS
 90
7
 70
0
 10
-456.7397303817
 20
-4.7537806027
 10
-456.7400575877
 20
-4.7280954183
 10
-456.7396483113
 20
-4.702894407
 10
-456.7385000807
 20
-4.6781602533
 10
-456.736619449
 20
-4.6540484865
 10
-456.734021918
 20
-4.6308824179
 10
-456.7307114889
 20
-4.6087033582
  0
LINE
  5
5E6
100
AcDbEntity
  8
RACCORDO
100
AcDbLine
 62
7
  6
CONTINUOUS
 10
-456.7235467734
 20
-5.0738600091
 11
-456.7237957606
 21
-5.0313309729
  0
LWPOLYLINE
  5
5E7
100
AcDbEntity
  8
RACCORDO
100
AcDbPolyline
 62
253
  6
CONTINUOUS
 90
10
 70
0
 10
-456.7302463975
 20
-5.0850251795
 10
-456.7303501866
 20
-5.0511147641
 10
-456.7306616782
 20
-5.0172216022
 10
-456.7311811074
 20
-4.9833286588
 10
-456.7319099583
 20
-4.9493877086
 10
-456.7328476899
 20
-4.9154129861
 10
-456.733991723
 20
-4.8814816548
 10
-456.7353418073
 20
-4.8476087826
 10
-456.7369000332
 20
-4.8137469203
 10
-456.7386675488
 20
-4.7798800608
  0
LINE
  5
5E8
100
AcDbEntity
  8
0
100
AcDbLine
 62
7
  6
CONTINUOUS
 10
-485.3322395905
 20
45.9149748205
 11
-485.3322395905
 21
55.6149748205
  0
LINE
  5
5E9
100
AcDbEntity
  8
0
100
AcDbLine
 62
253
  6
CONTINUOUS
 10
-485.0099091202
 20
42.4149748205
 11
-485.0099091202
 21
-52.5850251795
  0
LINE
  5
5EA
100
AcDbEntity
  8
0
100
AcDbLine
 62
7
  6
CONTINUOUS
 10
-485.0099091202
 20
-55.5850251795
 11
-485.0099091202
 21
-52.5850251795
  0
LINE
  5
5EB
100
AcDbEntity
  8
0
100
AcDbLine
 62
7
  6
CONTINUOUS
 10
-482.8322395905
 20
45.9149748205
 11
-482.8322395905
 21
55.6149748205
  0
LINE
  5
5EC
100
AcDbEntity
  8
0
100
AcDbLine
 62
7
  6
CONTINUOUS
 10
-482.3322395905
 20
45.4149748205
 11
-482.3322395905
 21
42.9149748205
  0
LINE
  5
5ED
100
AcDbEntity
  8
0
100
AcDbLine
 62
253
  6
CONTINUOUS
 10
-479.3530548707
 20
42.4149748205
 11
-479.3530548707
 21
-52.5850251795
  0
LINE
  5
5EE
100
AcDbEntity
  8
0
100
AcDbLine
 62
7
  6
CONTINUOUS
 10
-474.3325967242
 20
-55.5850251795
 11
-474.3325967242
 21
-53.0850251795
  0
LINE
  5
5EF
100
AcDbEntity
  8
0
100
AcDbLine
 62
7
  6
CONTINUOUS
 10
-473.8111827063
 20
-55.5850251795
 11
-473.8111827063
 21
-53.0850251795
  0
LINE
  5
5F0
100
AcDbEntity
  8
0
100
AcDbLine
 62
7
  6
CONTINUOUS
 10
-473.0598045181
 20
-55.5850251795
 11
-473.0598045181
 21
-53.0850251795
  0
LINE
  5
5F1
100
AcDbEntity
  8
0
100
AcDbLine
 62
7
  6
CONTINUOUS
 10
-471.3322395905
 20
42.9149748205
 11
-471.3322395905
 21
42.4149748205
  0
LINE
  5
5F2
100
AcDbEntity
  8
0
100
AcDbLine
 62
7
  6
CONTINUOUS
 10
-471.3322395905
 20
-53.0850251795
 11
-471.3322395905
 21
-52.5850251795
  0
LINE
  5
5F3
100
AcDbEntity
  8
0
100
AcDbLine
 62
253
  6
CONTINUOUS
 10
-463.3322395905
 20
42.9149748205
 11
-463.3322395905
 21
42.4149748205
  0
LINE
  5
5F4
100
AcDbEntity
  8
0
100
AcDbLine
 62
253
  6
CONTINUOUS
 10
-463.3322395905
 20
-53.0850251795
 11
-463.3322395905
 21
-52.5850251795
  0
LINE
  5
5F5
100
AcDbEntity
  8
0
100
AcDbLine
 62
7
  6
CONTINUOUS
 10
-462.3824921222
 20
-53.0850251795
 11
-462.3824921222
 21
-55.5850251795
  0
LINE
  5
5F6
100
AcDbEntity
  8
0
100
AcDbLine
 62
7
  6
CONTINUOUS
 10
-462.3322395905
 20
45.4149748205
 11
-462.3322395905
 21
42.9149748205
  0
LINE
  5
5F7
100
AcDbEntity
  8
0
100
AcDbLine
 62
253
  6
CONTINUOUS
 10
-462.3322395905
 20
-55.5850251795
 11
-462.3322395905
 21
-53.0850251795
  0
LINE
  5
5F8
100
AcDbEntity
  8
0
100
AcDbLine
 62
253
  6
CONTINUOUS
 10
-461.675385341
 20
42.4149748205
 11
-461.675385341
 21
-52.5850251795
  0
LINE
  5
5F9
100
AcDbEntity
  8
0
100
AcDbLine
 62
7
  6
CONTINUOUS
 10
-459.3322395905
 20
-52.5850251795
 11
-459.3322395905
 21
42.4149748205
  0
LINE
  5
5FA
100
AcDbEntity
  8
0
100
AcDbLine
 62
253
  6
CONTINUOUS
 10
-459.0229778455
 20
-10.0525419581
 11
-459.0229778455
 21
-0.117508401
  0
LINE
  5
5FB
100
AcDbEntity
  8
RACCORDO
100
AcDbLine
 62
7
  6
CONTINUOUS
 10
-456.7235521207
 20
-5.0985860808
 11
-456.7235521207
 21
-5.0714642782
  0
LWPOLYLINE
  5
5FC
100
AcDbEntity
  8
RACCORDO
100
AcDbPolyline
 62
7
  6
CONTINUOUS
 90
10
 70
0
 10
-456.7331339226
 20
-4.7447031092
 10
-456.7330754895
 20
-4.7225914611
 10
-456.732395319
 20
-4.7013067531
 10
-456.7311407687
 20
-4.6811273726
 10
-456.7293770684
 20
-4.6622128427
 10
-456.7271679998
 20
-4.6447166427
 10
-456.7246062802
 20
-4.6288649277
 10
-456.7217891505
 20
-4.6147342758
 10
-456.7188181541
 20
-4.602378147
 10
-456.7158312669
 20
-4.5919325878
  0
LINE
  5
5FD
100
AcDbEntity
  8
RACCORDO
100
AcDbLine
 62
7
  6
CONTINUOUS
 10
-456.7237957606
 20
-5.1387193861
 11
-456.7235498575
 21
-5.0967373299
  0
LINE
  5
5FE
100
AcDbEntity
  8
RACCORDO
100
AcDbLine
 62
7
  6
CONTINUOUS
 10
-456.724330158
 20
-5.1788501791
 11
-456.7237730584
 21
-5.136324026
  0
LWPOLYLINE
  5
5FF
100
AcDbEntity
  8
RACCORDO
100
AcDbPolyline
 62
7
  6
CONTINUOUS
 90
6
 70
0
 10
-456.4007040754
 20
-5.7255164083
 10
-456.4005588115
 20
-5.7156984791
 10
-456.4006382776
 20
-5.7065630388
 10
-456.4009458079
 20
-5.6980399993
 10
-456.4014966414
 20
-5.6900006955
 10
-456.4023468381
 20
-5.6820988307
  0
LINE
  5
600
100
AcDbEntity
  8
RACCORDO
100
AcDbLine
 62
7
  6
CONTINUOUS
 10
-456.7251552954
 20
-5.2189760299
 11
-456.7242901046
 21
-5.1764552093
  0
LWPOLYLINE
  5
601
100
AcDbEntity
  8
RACCORDO
100
AcDbPolyline
 62
7
  6
CONTINUOUS
 90
3
 70
0
 10
-456.7331637853
 20
-5.428216234
 10
-456.7326571583
 20
-5.4055723976
 10
-456.7319697621
 20
-5.3905402612
  0
LINE
  5
602
100
AcDbEntity
  8
RACCORDO
100
AcDbLine
 62
7
  6
CONTINUOUS
 10
-456.7262711317
 20
-5.2590948813
 11
-456.7250978936
 21
-5.2165814752
  0
LWPOLYLINE
  5
603
100
AcDbEntity
  8
RACCORDO
100
AcDbPolyline
 62
253
  6
CONTINUOUS
 90
10
 70
0
 10
-456.6550290908
 20
-5.6953149773
 10
-456.6545862404
 20
-5.6813846923
 10
-456.6559889909
 20
-5.667524952
 10
-456.6592100893
 20
-5.6540050265
 10
-456.6641869554
 20
-5.6410875837
 10
-456.6708228977
 20
-5.6290235863
 10
-456.6789889918
 20
-5.6180474162
 10
-456.6885265851
 20
-5.6083723207
 10
-456.6992503793
 20
-5.6001862695
 10
-456.7099368731
 20
-5.5942154934
  0
LWPOLYLINE
  5
604
100
AcDbEntity
  8
RACCORDO
100
AcDbPolyline
 62
253
  6
CONTINUOUS
 90
10
 70
0
 10
-456.4068481542
 20
-5.695315415
 10
-456.4063869565
 20
-5.6813854585
 10
-456.4078528757
 20
-5.6675262071
 10
-456.4112174349
 20
-5.6540068899
 10
-456.4164152743
 20
-5.6410901325
 10
-456.423345421
 20
-5.6290268554
 10
-456.4318732502
 20
-5.618051399
 10
-456.4418331007
 20
-5.6083769722
 10
-456.453031493
 20
-5.60019151
 10
-456.4652508875
 20
-5.5936540226
  0
LINE
  5
605
100
AcDbEntity
  8
RACCORDO
100
AcDbLine
 62
7
  6
CONTINUOUS
 10
-456.7276776167
 20
-5.2992048965
 11
-456.7261963821
 21
-5.2567007918
  0
LINE
  5
606
100
AcDbEntity
  8
RACCORDO
100
AcDbLine
 62
7
  6
CONTINUOUS
 10
-456.4011066401
 20
-5.7367200357
 11
-456.400717173
 21
-5.7260111044
  0
LINE
  5
607
100
AcDbEntity
  8
RACCORDO
100
AcDbLine
 62
253
  6
CONTINUOUS
 10
-456.7397302701
 20
-5.4161881221
 11
-456.7386675488
 21
-5.3901702983
  0
LINE
  5
608
100
AcDbEntity
  8
RACCORDO
100
AcDbLine
 62
7
  6
CONTINUOUS
 10
-456.7293746956
 20
-5.3393041333
 11
-456.7275855211
 21
-5.296811338
  0
LINE
  5
609
100
AcDbEntity
  8
RACCORDO
100
AcDbLine
 62
7
  6
CONTINUOUS
 10
-456.731362268
 20
-5.3793902826
 11
-456.7292652533
 21
-5.3369111519
  0
LWPOLYLINE
  5
60A
100
AcDbEntity
  8
RACCORDO
100
AcDbPolyline
 62
253
  6
CONTINUOUS
 90
10
 70
0
 10
-456.7386675488
 20
-5.3901702983
 10
-456.7369000138
 20
-5.3563029554
 10
-456.7353417754
 20
-5.3224407545
 10
-456.7339916855
 20
-5.2885676879
 10
-456.7328476562
 20
-5.2546363354
 10
-456.7319099353
 20
-5.2206617341
 10
-456.7311810938
 20
-5.1867209569
 10
-456.7306616703
 20
-5.1528282088
 10
-456.7303501832
 20
-5.1189352947
 10
-456.7302463975
 20
-5.0850251795
  0
LINE
  5
60B
100
AcDbEntity
  8
RACCORDO
100
AcDbLine
 62
7
  6
CONTINUOUS
 10
-456.7319668784
 20
-5.3905402706
 11
-456.7312354737
 21
-5.3769978733
  0
LINE
  5
60C
100
AcDbEntity
  8
RACCORDO
100
AcDbLine
 62
7
  6
CONTINUOUS
 10
-456.4017353691
 20
-5.748195457
 11
-456.4010786354
 21
-5.7360990358
  0
LINE
  5
60D
100
AcDbEntity
  8
RACCORDO
100
AcDbLine
 62
7
  6
CONTINUOUS
 10
-456.4026128695
 20
-5.7604318439
 11
-456.4016880281
 21
-5.7474401503
  0
LINE
  5
60E
100
AcDbEntity
  8
RACCORDO
100
AcDbLine
 62
7
  6
CONTINUOUS
 10
-456.403744395
 20
-5.7733541174
 11
-456.4025416842
 21
-5.7595331806
  0
LWPOLYLINE
  5
60F
100
AcDbEntity
  8
RACCORDO
100
AcDbPolyline
 62
253
  6
CONTINUOUS
 90
20
 70
0
 10
-456.4047599848
 20
-5.778034004
 10
-456.403921777
 20
-5.7690232794
 10
-456.4032148483
 20
-5.7602006592
 10
-456.4026401517
 20
-5.7516645323
 10
-456.4022045756
 20
-5.7437493112
 10
-456.4019189581
 20
-5.7365304568
 10
-456.4017702966
 20
-5.7298995708
 10
-456.4017303054
 20
-5.7239282292
 10
-456.401801229
 20
-5.7186629434
 10
-456.4019808954
 20
-5.7140433203
 10
-456.4022347344
 20
-5.7099966364
 10
-456.4025613525
 20
-5.706541214
 10
-456.40296305
 20
-5.7036604191
 10
-456.4034105935
 20
-5.701239461
 10
-456.4039007897
 20
-5.6992853886
 10
-456.4044376865
 20
-5.6978008981
 10
-456.4050025132
 20
-5.6966686062
 10
-456.4055891214
 20
-5.6958530654
 10
-456.4062042206
 20
-5.6954002648
 10
-456.4068481353
 20
-5.695315417
  0
LINE
  5
610
100
AcDbEntity
  8
RACCORDO
100
AcDbLine
 62
7
  6
CONTINUOUS
 10
-456.4051343814
 20
-5.7868595572
 11
-456.4036452522
 21
-5.7723050265
  0
LINE
  5
611
100
AcDbEntity
  8
RACCORDO
100
AcDbLine
 62
7
  6
CONTINUOUS
 10
-456.4063217291
 20
-5.7970944533
 11
-456.4050016536
 21
-5.7856544693
  0
LINE
  5
612
100
AcDbEntity
  8
RACCORDO
100
AcDbLine
 62
253
  6
CONTINUOUS
 10
-456.4224668277
 20
-5.9154177603
 11
-456.4142083849
 21
-5.8550966268
  0
LWPOLYLINE
  5
613
100
AcDbEntity
  8
RACCORDO
100
AcDbPolyline
 62
7
  6
CONTINUOUS
 90
8
 70
0
 10
-456.4035996127
 20
-4.4959853746
 10
-456.4023414036
 20
-4.4879087798
 10
-456.4014864376
 20
-4.4799336108
 10
-456.4009361642
 20
-4.4718193705
 10
-456.4006323797
 20
-4.4632111757
 10
-456.4005601652
 20
-4.4539752391
 10
-456.400717173
 20
-4.4440392547
 10
-456.4011066401
 20
-4.4333303234
  0
LINE
  5
614
100
AcDbEntity
  8
RACCORDO
100
AcDbLine
 62
253
  6
CONTINUOUS
 10
-456.4419841526
 20
-6.0427652435
 11
-456.431700426
 21
-5.9780044032
  0
LINE
  5
615
100
AcDbEntity
  8
RACCORDO
100
AcDbLine
 62
7
  6
CONTINUOUS
 10
-456.7334997842
 20
-7.1872819231
 11
-456.7330435786
 21
-7.1845146615
  0
LINE
  5
616
100
AcDbEntity
  8
RACCORDO
100
AcDbLine
 62
253
  6
CONTINUOUS
 10
-456.4660936698
 20
-6.1792574311
 11
-456.4534106674
 21
-6.1097702255
  0
LWPOLYLINE
  5
617
100
AcDbEntity
  8
RACCORDO
100
AcDbPolyline
 62
7
  6
CONTINUOUS
 90
8
 70
0
 10
-456.7330435786
 20
-7.1845146615
 10
-456.7327198177
 20
-7.1827776051
 10
-456.732247173
 20
-7.1803894455
 10
-456.7316500874
 20
-7.1775220211
 10
-456.7309473118
 20
-7.1742926198
 10
-456.7301439981
 20
-7.1707384509
 10
-456.7292314779
 20
-7.1668318871
 10
-456.7282131469
 20
-7.1625963129
  0
LINE
  5
618
100
AcDbEntity
  8
RACCORDO
100
AcDbLine
 62
253
  6
CONTINUOUS
 10
-456.7307114889
 20
-4.6087033582
 11
-456.7266995414
 21
-4.5875895657
  0
LINE
  5
619
100
AcDbEntity
  8
RACCORDO
100
AcDbLine
 62
253
  6
CONTINUOUS
 10
-456.7266995414
 20
-4.5875895657
 11
-456.7220151205
 21
-4.5679028941
  0
LINE
  5
61A
100
AcDbEntity
  8
RACCORDO
100
AcDbLine
 62
7
  6
CONTINUOUS
 10
-456.7282131469
 20
-7.1625963129
 11
-456.7268914427
 21
-7.1572577081
  0
LWPOLYLINE
  5
61B
100
AcDbEntity
  8
RACCORDO
100
AcDbPolyline
 62
253
  6
CONTINUOUS
 90
5
 70
0
 10
-456.55199817
 20
-6.5635026352
 10
-456.5314636913
 20
-6.4818161827
 10
-456.5127236642
 20
-6.4025190531
 10
-456.4956497768
 20
-6.3256248418
 10
-456.4801414163
 20
-6.2512358474
  0
LINE
  5
61C
100
AcDbEntity
  8
RACCORDO
100
AcDbLine
 62
7
  6
CONTINUOUS
 10
-456.7270885567
 20
-7.1580354591
 11
-456.7256384155
 21
-7.1522970398
  0
LINE
  5
61D
100
AcDbEntity
  8
RACCORDO
100
AcDbLine
 62
7
  6
CONTINUOUS
 10
-456.7258579671
 20
-7.1531537345
 11
-456.7230958194
 21
-7.1424972996
  0
LINE
  5
61E
100
AcDbEntity
  8
RACCORDO
100
AcDbLine
 62
7
  6
CONTINUOUS
 10
-456.7242859594
 20
-7.1470421592
 11
-456.7212858187
 21
-7.1356809493
  0
LWPOLYLINE
  5
61F
100
AcDbEntity
  8
RACCORDO
100
AcDbPolyline
 62
253
  6
CONTINUOUS
 90
6
 70
0
 10
-456.7266837631
 20
-7.1527826969
 10
-456.7220043031
 20
-7.1353507951
 10
-456.716658738
 20
-7.1161348209
 10
-456.7106758037
 20
-7.0952170201
 10
-456.7041414198
 20
-7.0729346901
 10
-456.7010096231
 20
-7.0645103062
  0
LINE
  5
620
100
AcDbEntity
  8
RACCORDO
100
AcDbLine
 62
7
  6
CONTINUOUS
 10
-456.7215651465
 20
-7.1367306568
 11
-456.7178879534
 21
-7.1231921467
  0
LINE
  5
621
100
AcDbEntity
  8
RACCORDO
100
AcDbLine
 62
7
  6
CONTINUOUS
 10
-456.7182122028
 20
-7.1243703048
 11
-456.7140988474
 21
-7.1096130763
  0
LINE
  5
622
100
AcDbEntity
  8
RACCORDO
100
AcDbLine
 62
7
  6
CONTINUOUS
 10
-456.7144724373
 20
-7.1109335777
 11
-456.709929933
 21
-7.0949833556
  0
LINE
  5
623
100
AcDbEntity
  8
RACCORDO
100
AcDbLine
 62
7
  6
CONTINUOUS
 10
-456.7103498854
 20
-7.0964455415
 11
-456.7053919834
 21
-7.0793544582
  0
LWPOLYLINE
  5
624
100
AcDbEntity
  8
RACCORDO
100
AcDbPolyline
 62
253
  6
CONTINUOUS
 90
10
 70
0
 10
-456.7220151205
 20
-4.5679028941
 10
-456.7166513465
 20
-4.5496460107
 10
-456.7106412503
 20
-4.532901571
 10
-456.7040744677
 20
-4.5181160879
 10
-456.6969539833
 20
-4.5052983377
 10
-456.6893093812
 20
-4.4944553173
 10
-456.6812672937
 20
-4.4859758325
 10
-456.6728793596
 20
-4.4799545498
 10
-456.6641259839
 20
-4.4762216604
 10
-456.6550250544
 20
-4.4747349421
  0
LINE
  5
625
100
AcDbEntity
  8
RACCORDO
100
AcDbLine
 62
7
  6
CONTINUOUS
 10
-456.7058589345
 20
-7.0809552449
 11
-456.700493302
 21
-7.0627739764
  0
LWPOLYLINE
  5
626
100
AcDbEntity
  8
RACCORDO
100
AcDbPolyline
 62
253
  6
CONTINUOUS
 90
3
 70
0
 10
-456.697911089
 20
-7.0541388872
 10
-456.6970710047
 20
-7.0493242522
 10
-456.6952432484
 20
-7.045284551
  0
LWPOLYLINE
  5
627
100
AcDbEntity
  8
RACCORDO
100
AcDbPolyline
 62
253
  6
CONTINUOUS
 90
3
 70
0
 10
-456.6258664263
 20
-6.8241220377
 10
-456.5990659825
 20
-6.7347287933
 10
-456.5744844832
 20
-6.6477984689
  0
LINE
  5
628
100
AcDbEntity
  8
RACCORDO
100
AcDbLine
 62
7
  6
CONTINUOUS
 10
-456.7010096231
 20
-7.0645103062
 11
-456.6930851774
 21
-7.0381612034
  0
LWPOLYLINE
  5
629
100
AcDbEntity
  8
RACCORDO
100
AcDbPolyline
 62
253
  6
CONTINUOUS
 90
3
 70
0
 10
-456.6924922814
 20
-7.0362188363
 10
-456.6894809778
 20
-7.0244205313
 10
-456.6873911528
 20
-7.019560093
  0
LINE
  5
62A
100
AcDbEntity
  8
RACCORDO
100
AcDbLine
 62
7
  6
CONTINUOUS
 10
-456.6952432484
 20
-7.045284551
 11
-456.6867508314
 21
-7.0174862972
  0
LWPOLYLINE
  5
62B
100
AcDbEntity
  8
RACCORDO
100
AcDbPolyline
 62
253
  6
CONTINUOUS
 90
3
 70
0
 10
-456.6837634676
 20
-7.0078316794
 10
-456.6814571806
 20
-6.9985686885
 10
-456.6782788384
 20
-6.9902579276
  0
LINE
  5
62C
100
AcDbEntity
  8
RACCORDO
100
AcDbLine
 62
7
  6
CONTINUOUS
 10
-456.6873911528
 20
-7.019560093
 11
-456.6775662546
 21
-6.9879862081
  0
LWPOLYLINE
  5
62D
100
AcDbEntity
  8
RACCORDO
100
AcDbPolyline
 62
253
  6
CONTINUOUS
 90
5
 70
0
 10
-456.7386749594
 20
-7.2210381446
 10
-456.7348149928
 20
-7.2087104713
 10
-456.7325741784
 20
-7.1959872395
 10
-456.7319899222
 20
-7.183080838
 10
-456.7322250572
 20
-7.1802832375
  0
LWPOLYLINE
  5
62E
100
AcDbEntity
  8
RACCORDO
100
AcDbPolyline
 62
253
  6
CONTINUOUS
 90
3
 70
0
 10
-456.6743600414
 20
-6.9778091333
 10
-456.6730390348
 20
-6.9719033007
 10
-456.6685334115
 20
-6.9594652281
  0
LWPOLYLINE
  5
62F
100
AcDbEntity
  8
RACCORDO
100
AcDbPolyline
 62
7
  6
CONTINUOUS
 90
10
 70
0
 10
-456.6545204807
 20
-6.916060623
 10
-456.6229055143
 20
-6.816228443
 10
-456.5851163655
 20
-6.6879505941
 10
-456.5502448939
 20
-6.5588507229
 10
-456.5183089585
 20
-6.4289956725
 10
-456.4893240878
 20
-6.2984487538
 10
-456.4633048259
 20
-6.1672759255
 10
-456.4402650225
 20
-6.035544878
 10
-456.4202164559
 20
-5.9033223065
 10
-456.4063211633
 20
-5.7970944695
  0
LINE
  5
630
100
AcDbEntity
  8
RACCORDO
100
AcDbLine
 62
7
  6
CONTINUOUS
 10
-456.6782788384
 20
-6.9902579276
 11
-456.6677454335
 21
-6.9569921075
  0
LINE
  5
631
100
AcDbEntity
  8
RACCORDO
100
AcDbLine
 62
253
  6
CONTINUOUS
 10
-456.6651555771
 20
-6.948910506
 11
-456.6642218832
 21
-6.944340951
  0
LINE
  5
632
100
AcDbEntity
  8
RACCORDO
100
AcDbLine
 62
7
  6
CONTINUOUS
 10
-456.6685334115
 20
-6.9594652281
 11
-456.6582239234
 21
-6.92742913
  0
LINE
  5
633
100
AcDbEntity
  8
RACCORDO
100
AcDbLine
 62
7
  6
CONTINUOUS
 10
-456.6582239234
 20
-6.92742913
 11
-456.6545238162
 21
-6.9160595344
  0
LWPOLYLINE
  5
634
100
AcDbEntity
  8
RACCORDO
100
AcDbPolyline
 62
7
  6
CONTINUOUS
 90
6
 70
0
 10
-456.7158312669
 20
-4.5919325878
 10
-456.7129476559
 20
-4.5833680858
 10
-456.7102985903
 20
-4.5766472203
 10
-456.7080841334
 20
-4.571832088
 10
-456.7064656914
 20
-4.5688080176
 10
-456.7062243002
 20
-4.5683993663
  0
LWPOLYLINE
  5
635
100
AcDbEntity
  8
RACCORDO
100
AcDbPolyline
 62
7
  6
CONTINUOUS
 90
13
 70
0
 10
-456.4077892047
 20
-5.65741867
 10
-456.4110934003
 20
-5.6485675728
 10
-456.4154197894
 20
-5.6394979983
 10
-456.4206628569
 20
-5.6307408013
 10
-456.4267186237
 20
-5.6225481921
 10
-456.4336988519
 20
-5.6148382674
 10
-456.4416726492
 20
-5.6076684766
 10
-456.4506072394
 20
-5.6012078572
 10
-456.4604828065
 20
-5.5956022579
 10
-456.4713872385
 20
-5.5909642834
 10
-456.4832931593
 20
-5.587505836
 10
-456.4960254513
 20
-5.585477187
 10
-456.5055949275
 20
-5.5850252636
  0
LWPOLYLINE
  5
636
100
AcDbEntity
  8
RACCORDO
100
AcDbPolyline
 62
7
  6
CONTINUOUS
 90
11
 70
0
 10
-456.7127100587
 20
-5.5873272232
 10
-456.7155628829
 20
-5.5789723697
 10
-456.7185301367
 20
-5.5687601042
 10
-456.7214923351
 20
-5.556658921
 10
-456.7243112282
 20
-5.5427971018
 10
-456.726891723
 20
-5.5272180218
 10
-456.7291389073
 20
-5.5099856675
 10
-456.7309524666
 20
-5.4913093845
 10
-456.732266434
 20
-5.4713362452
 10
-456.7330233119
 20
-5.4502167208
 10
-456.7331637853
 20
-5.428216234
  0
LINE
  5
637
100
AcDbEntity
  8
RACCORDO
100
AcDbLine
 62
7
  6
CONTINUOUS
 10
-456.6545238162
 20
-3.2539908247
 11
-456.6643434288
 21
-3.2236756328
  0
LINE
  5
638
100
AcDbEntity
  8
RACCORDO
100
AcDbLine
 62
253
  6
CONTINUOUS
 10
-456.6642823661
 20
-3.2255135321
 11
-456.6643434288
 21
-3.2236756328
  0
LINE
  5
639
100
AcDbEntity
  8
RACCORDO
100
AcDbLine
 62
253
  6
CONTINUOUS
 10
-456.6677479371
 20
-3.2130504159
 11
-456.6731422376
 21
-3.1978153605
  0
LINE
  5
63A
100
AcDbEntity
  8
RACCORDO
100
AcDbLine
 62
7
  6
CONTINUOUS
 10
-456.6643434288
 20
-3.2236756328
 11
-456.674364804
 21
-3.1922261516
  0
LWPOLYLINE
  5
63B
100
AcDbEntity
  8
RACCORDO
100
AcDbPolyline
 62
253
  6
CONTINUOUS
 90
5
 70
0
 10
-456.7386675754
 20
-2.9490093587
 10
-456.7348087387
 20
-2.9613369798
 10
-456.7325689928
 20
-2.9740599718
 10
-456.7319857203
 20
-2.9869659801
 10
-456.732223085
 20
-2.9897876996
  0
LINE
  5
63C
100
AcDbEntity
  8
RACCORDO
100
AcDbLine
 62
7
  6
CONTINUOUS
 10
-456.674364804
 20
-3.1922261516
 11
-456.6837721591
 21
-3.1621906768
  0
LINE
  5
63D
100
AcDbEntity
  8
RACCORDO
100
AcDbLine
 62
7
  6
CONTINUOUS
 10
-456.6837721591
 20
-3.1621906768
 11
-456.6925049835
 21
-3.1337898041
  0
LWPOLYLINE
  5
63E
100
AcDbEntity
  8
RACCORDO
100
AcDbPolyline
 62
253
  6
CONTINUOUS
 90
6
 70
0
 10
-456.703004505
 20
-3.0988113465
 10
-456.7042226052
 20
-3.0968415879
 10
-456.7107411937
 20
-3.0746078966
 10
-456.7167084781
 20
-3.0537395695
 10
-456.7220402835
 20
-3.0345679893
 10
-456.7267086576
 20
-3.0171724609
  0
LINE
  5
63F
100
AcDbEntity
  8
RACCORDO
100
AcDbLine
 62
7
  6
CONTINUOUS
 10
-456.6925049835
 20
-3.1337898041
 11
-456.7005094701
 21
-3.1072221011
  0
LINE
  5
640
100
AcDbEntity
  8
RACCORDO
100
AcDbLine
 62
7
  6
CONTINUOUS
 10
-456.7005094701
 20
-3.1072221011
 11
-456.7054098995
 21
-3.0906347374
  0
LINE
  5
641
100
AcDbEntity
  8
RACCORDO
100
AcDbLine
 62
7
  6
CONTINUOUS
 10
-456.7054098995
 20
-3.0906347374
 11
-456.7099490086
 21
-3.0750006921
  0
LINE
  5
642
100
AcDbEntity
  8
RACCORDO
100
AcDbLine
 62
7
  6
CONTINUOUS
 10
-456.7099490086
 20
-3.0750006921
 11
-456.7141184406
 21
-3.0603678292
  0
LWPOLYLINE
  5
643
100
AcDbEntity
  8
RACCORDO
100
AcDbPolyline
 62
253
  6
CONTINUOUS
 90
3
 70
0
 10
-456.574724482
 20
-3.5213785532
 10
-456.5992683829
 20
-3.4346212488
 10
-456.6259906164
 20
-3.3455192764
  0
LINE
  5
644
100
AcDbEntity
  8
RACCORDO
100
AcDbLine
 62
7
  6
CONTINUOUS
 10
-456.7141184406
 20
-3.0603678292
 11
-456.7179073074
 21
-3.0467880048
  0
LINE
  5
645
100
AcDbEntity
  8
RACCORDO
100
AcDbLine
 62
7
  6
CONTINUOUS
 10
-456.7179073074
 20
-3.0467880048
 11
-456.7213041945
 21
-3.0343008823
  0
LWPOLYLINE
  5
646
100
AcDbEntity
  8
RACCORDO
100
AcDbPolyline
 62
7
  6
CONTINUOUS
 90
4
 70
0
 10
-456.7213041945
 20
-3.0343008823
 10
-456.724302695
 20
-3.0229437392
 10
-456.7256541081
 20
-3.0176917739
 10
-456.7269059628
 20
-3.0127345831
  0
LWPOLYLINE
  5
647
100
AcDbEntity
  8
RACCORDO
100
AcDbPolyline
 62
253
  6
CONTINUOUS
 90
9
 70
0
 10
-456.7267086576
 20
-3.0171724609
 10
-456.7307160154
 20
-3.0015418507
 10
-456.7340243641
 20
-2.9878550052
 10
-456.7366202458
 20
-2.9761540354
 10
-456.7385017868
 20
-2.9664512314
 10
-456.7396506767
 20
-2.9588613647
 10
-456.7400594174
 20
-2.9534291143
 10
-456.7397314223
 20
-2.9501400743
 10
-456.7386675488
 20
-2.9490093484
  0
LWPOLYLINE
  5
648
100
AcDbEntity
  8
RACCORDO
100
AcDbPolyline
 62
7
  6
CONTINUOUS
 90
10
 70
0
 10
-456.7269059628
 20
-3.0127345831
 10
-456.7280524646
 20
-3.0081006166
 10
-456.7290934277
 20
-3.0037923327
 10
-456.7300281829
 20
-2.9998148393
 10
-456.7308500903
 20
-2.9962027819
 10
-456.7315643759
 20
-2.9929432839
 10
-456.7321693001
 20
-2.9900579004
 10
-456.7326528204
 20
-2.9876288275
 10
-456.7330295254
 20
-2.9856168064
 10
-456.7331082202
 20
-2.9851767161
  0
LINE
  5
649
100
AcDbEntity
  8
RACCORDO
100
AcDbLine
 62
253
  6
CONTINUOUS
 10
-456.7220837053
 20
-5.6018871389
 11
-456.7267564349
 21
-5.5821989811
  0
LWPOLYLINE
  5
64A
100
AcDbEntity
  8
RACCORDO
100
AcDbPolyline
 62
253
  6
CONTINUOUS
 90
3
 70
0
 10
-456.5128815038
 20
-3.7668425944
 10
-456.5316538255
 20
-3.6874578806
 10
-456.5522281006
 20
-3.60566456
  0
LINE
  5
64B
100
AcDbEntity
  8
RACCORDO
100
AcDbLine
 62
253
  6
CONTINUOUS
 10
-456.4802765991
 20
-3.918143864
 11
-456.4957938633
 21
-3.8437549809
  0
LINE
  5
64C
100
AcDbEntity
  8
RACCORDO
100
AcDbLine
 62
253
  6
CONTINUOUS
 10
-456.7267564349
 20
-5.5821989811
 11
-456.73075505
 21
-5.5610949874
  0
LINE
  5
64D
100
AcDbEntity
  8
RACCORDO
100
AcDbLine
 62
253
  6
CONTINUOUS
 10
-456.4535322684
 20
-4.0595861762
 11
-456.466220478
 21
-3.9901213501
  0
LINE
  5
64E
100
AcDbEntity
  8
RACCORDO
100
AcDbLine
 62
253
  6
CONTINUOUS
 10
-456.4318019388
 20
-4.1913833109
 11
-456.4421007947
 21
-4.1265684044
  0
LWPOLYLINE
  5
64F
100
AcDbEntity
  8
RACCORDO
100
AcDbPolyline
 62
7
  6
CONTINUOUS
 90
4
 70
0
 10
-456.4023414036
 20
-5.6821415793
 10
-456.4035996127
 20
-5.6740649845
 10
-456.405367513
 20
-5.6658552068
 10
-456.4077892047
 20
-5.65741867
  0
LWPOLYLINE
  5
650
100
AcDbEntity
  8
RACCORDO
100
AcDbPolyline
 62
253
  6
CONTINUOUS
 90
7
 70
0
 10
-456.73075505
 20
-5.5610949874
 10
-456.7340534019
 20
-5.5389285408
 10
-456.73664088
 20
-5.5157698457
 10
-456.7385128076
 20
-5.4916678292
 10
-456.7396544494
 20
-5.466960443
 10
-456.740059523
 20
-5.441808029
 10
-456.7397302701
 20
-5.4161881221
  0
LINE
  5
651
100
AcDbEntity
  8
RACCORDO
100
AcDbLine
 62
253
  6
CONTINUOUS
 10
-456.4142485645
 20
-4.3146668559
 11
-456.4225412113
 21
-4.2541232113
  0
LWPOLYLINE
  5
652
100
AcDbEntity
  8
RACCORDO
100
AcDbPolyline
 62
7
  6
CONTINUOUS
 90
10
 70
0
 10
-456.4063211759
 20
-4.3729558336
 10
-456.4198849226
 20
-4.2690987403
 10
-456.4398803929
 20
-4.1368646679
 10
-456.4628672387
 20
-4.0051220927
 10
-456.4888336119
 20
-3.8739377154
 10
-456.5177656117
 20
-3.7433792938
 10
-456.5496487159
 20
-3.6135124354
 10
-456.5844674254
 20
-3.484400306
 10
-456.6222035617
 20
-3.3561104386
 10
-456.6545204528
 20
-3.2539897291
  0
LINE
  5
653
100
AcDbEntity
  8
RACCORDO
100
AcDbLine
 62
7
  6
CONTINUOUS
 10
-456.4050016536
 20
-4.3843958897
 11
-456.4063217291
 21
-4.3729559058
  0
ARC
  5
654
100
AcDbEntity
  8
0
100
AcDbCircle
 62
7
  6
CONTINUOUS
 10
-396.945705869
 20
-52.5850251795
 40
3.0
100
AcDbArc
 50
180.0
 51
270.0
  0
ARC
  5
655
100
AcDbEntity
  8
0
100
AcDbCircle
 62
7
  6
CONTINUOUS
 10
-376.945705869
 20
-52.5850251795
 40
0.5
100
AcDbArc
 50
270.0
 51
360.0
  0
ARC
  5
656
100
AcDbEntity
  8
0
100
AcDbCircle
 62
7
  6
CONTINUOUS
 10
-396.945705869
 20
-52.5850251795
 40
0.5
100
AcDbArc
 50
180.0
 51
270.0
  0
ARC
  5
657
100
AcDbEntity
  8
0
100
AcDbCircle
 62
7
  6
CONTINUOUS
 10
-397.0149366382
 20
-5.0850251795
 40
5.9307692308
100
AcDbArc
 50
201.109918699
 51
236.8858572487
  0
ARC
  5
658
100
AcDbEntity
  8
0
100
AcDbCircle
 62
7
  6
CONTINUOUS
 10
-397.0149366382
 20
-5.0850251795
 40
5.9307692308
100
AcDbArc
 50
123.1141427513
 51
158.890081301
  0
ARC
  5
659
100
AcDbEntity
  8
0
100
AcDbCircle
 62
7
  6
CONTINUOUS
 10
-400.145705869
 20
-9.8850251795
 40
0.2
100
AcDbArc
 50
236.8858572487
 51
360.0
  0
ARC
  5
65A
100
AcDbEntity
  8
RACCORDO
100
AcDbCircle
 62
7
  6
CONTINUOUS
 10
-402.4544099648
 20
-7.1850251795
 40
0.1
100
AcDbArc
 50
164.7158483146
 51
201.1099185894
  0
CIRCLE
  5
65B
100
AcDbEntity
  8
0
100
AcDbCircle
 62
7
  6
CONTINUOUS
 10
-271.945705869
 20
-5.0850251795
 40
5.0
  0
CIRCLE
  5
65C
100
AcDbEntity
  8
0
100
AcDbCircle
 62
253
  6
CONTINUOUS
 10
-271.945705869
 20
-5.0850251795
 40
4.9675167785
  0
ARC
  5
65D
100
AcDbEntity
  8
ASSI
100
AcDbCircle
 62
7
  6
CONTINUOUS
 10
-271.945705869
 20
-7.5850251795
 40
3.5
100
AcDbArc
 50
201.9167530526
 51
338.0832469474
  0
ARC
  5
65E
100
AcDbEntity
  8
RACCORDO
100
AcDbCircle
 62
7
  6
CONTINUOUS
 10
-270.145705869
 20
-5.3850251795
 40
0.2
100
AcDbArc
 50
270.0
 51
360.0
  0
ARC
  5
65F
100
AcDbEntity
  8
RACCORDO
100
AcDbCircle
 62
7
  6
CONTINUOUS
 10
-270.145705869
 20
-4.7850251795
 40
0.2
100
AcDbArc
 50
0.0
 51
90.0
  0
ARC
  5
660
100
AcDbEntity
  8
RACCORDO
100
AcDbCircle
 62
7
  6
CONTINUOUS
 10
-273.745705869
 20
-4.7850251795
 40
0.2
100
AcDbArc
 50
90.0
 51
180.0
  0
ARC
  5
661
100
AcDbEntity
  8
RACCORDO
100
AcDbCircle
 62
7
  6
CONTINUOUS
 10
-273.745705869
 20
-5.3850251795
 40
0.2
100
AcDbArc
 50
180.0
 51
270.0
  0
ARC
  5
662
100
AcDbEntity
  8
RACCORDO
100
AcDbCircle
 62
7
  6
CONTINUOUS
 10
-272.245705869
 20
-6.8850251795
 40
0.2
100
AcDbArc
 50
180.0
 51
270.0
  0
ARC
  5
663
100
AcDbEntity
  8
RACCORDO
100
AcDbCircle
 62
7
  6
CONTINUOUS
 10
-271.645705869
 20
-6.8850251795
 40
0.2
100
AcDbArc
 50
270.0
 51
360.0
  0
ARC
  5
664
100
AcDbEntity
  8
RACCORDO
100
AcDbCircle
 62
7
  6
CONTINUOUS
 10
-271.245705869
 20
-4.3850251795
 40
0.2
100
AcDbArc
 50
180.0
 51
270.0
  0
ARC
  5
665
100
AcDbEntity
  8
RACCORDO
100
AcDbCircle
 62
7
  6
CONTINUOUS
 10
-272.645705869
 20
-4.3850251795
 40
0.2
100
AcDbArc
 50
270.0
 51
360.0
  0
ARC
  5
666
100
AcDbEntity
  8
RACCORDO
100
AcDbCircle
 62
7
  6
CONTINUOUS
 10
-271.245705869
 20
-5.7850251795
 40
0.2
100
AcDbArc
 50
90.0
 51
180.0
  0
ARC
  5
667
100
AcDbEntity
  8
RACCORDO
100
AcDbCircle
 62
7
  6
CONTINUOUS
 10
-272.645705869
 20
-5.7850251795
 40
0.2
100
AcDbArc
 50
0.0
 51
90.0
  0
ARC
  5
668
100
AcDbEntity
  8
ASSI
100
AcDbCircle
 62
7
  6
CONTINUOUS
 10
-271.945705869
 20
-2.5850251795
 40
3.5
100
AcDbArc
 50
21.9167530526
 51
158.0832469474
  0
ARC
  5
669
100
AcDbEntity
  8
0
100
AcDbCircle
 62
7
  6
CONTINUOUS
 10
-376.945705869
 20
45.9149748205
 40
3.0
100
AcDbArc
 50
270.0
 51
360.0
  0
ARC
  5
66A
100
AcDbEntity
  8
0
100
AcDbCircle
 62
7
  6
CONTINUOUS
 10
-396.945705869
 20
42.4149748205
 40
3.0
100
AcDbArc
 50
90.0
 51
180.0
  0
ARC
  5
66B
100
AcDbEntity
  8
0
100
AcDbCircle
 62
7
  6
CONTINUOUS
 10
-396.945705869
 20
42.4149748205
 40
0.5
100
AcDbArc
 50
90.0
 51
180.0
  0
ARC
  5
66C
100
AcDbEntity
  8
0
100
AcDbCircle
 62
7
  6
CONTINUOUS
 10
-376.945705869
 20
45.9149748205
 40
0.5
100
AcDbArc
 50
270.0
 51
360.0
  0
ARC
  5
66D
100
AcDbEntity
  8
RACCORDO
100
AcDbCircle
 62
7
  6
CONTINUOUS
 10
-271.645705869
 20
-3.2850251795
 40
0.2
100
AcDbArc
 50
0.0
 51
90.0
  0
ARC
  5
66E
100
AcDbEntity
  8
RACCORDO
100
AcDbCircle
 62
7
  6
CONTINUOUS
 10
-272.245705869
 20
-3.2850251795
 40
0.2
100
AcDbArc
 50
90.0
 51
180.0
  0
ARC
  5
66F
100
AcDbEntity
  8
0
100
AcDbCircle
 62
7
  6
CONTINUOUS
 10
-400.145705869
 20
-0.2850251795
 40
0.2
100
AcDbArc
 50
0.0
 51
123.1141427513
  0
ARC
  5
670
100
AcDbEntity
  8
RACCORDO
100
AcDbCircle
 62
7
  6
CONTINUOUS
 10
-402.4544099648
 20
-2.9850251795
 40
0.1
100
AcDbArc
 50
158.8900814106
 51
195.2842862243
  0
CIRCLE
  5
671
100
AcDbEntity
  8
0
100
AcDbCircle
 62
7
  6
CONTINUOUS
 10
272.054294131
 20
-5.0850251795
 40
5.0
  0
CIRCLE
  5
672
100
AcDbEntity
  8
0
100
AcDbCircle
 62
253
  6
CONTINUOUS
 10
272.054294131
 20
-5.0850251795
 40
4.9675167785
  0
ARC
  5
673
100
AcDbEntity
  8
ASSI
100
AcDbCircle
 62
7
  6
CONTINUOUS
 10
272.054294131
 20
-7.5850251795
 40
3.5
100
AcDbArc
 50
201.9167530526
 51
338.0832469474
  0
ARC
  5
674
100
AcDbEntity
  8
RACCORDO
100
AcDbCircle
 62
7
  6
CONTINUOUS
 10
273.854294131
 20
-5.3850251795
 40
0.2
100
AcDbArc
 50
270.0
 51
360.0
  0
ARC
  5
675
100
AcDbEntity
  8
RACCORDO
100
AcDbCircle
 62
7
  6
CONTINUOUS
 10
273.854294131
 20
-4.7850251795
 40
0.2
100
AcDbArc
 50
0.0
 51
90.0
  0
ARC
  5
676
100
AcDbEntity
  8
RACCORDO
100
AcDbCircle
 62
7
  6
CONTINUOUS
 10
270.254294131
 20
-4.7850251795
 40
0.2
100
AcDbArc
 50
90.0
 51
180.0
  0
ARC
  5
677
100
AcDbEntity
  8
RACCORDO
100
AcDbCircle
 62
7
  6
CONTINUOUS
 10
270.254294131
 20
-5.3850251795
 40
0.2
100
AcDbArc
 50
180.0
 51
270.0
  0
ARC
  5
678
100
AcDbEntity
  8
RACCORDO
100
AcDbCircle
 62
7
  6
CONTINUOUS
 10
271.754294131
 20
-6.8850251795
 40
0.2
100
AcDbArc
 50
180.0
 51
270.0
  0
ARC
  5
679
100
AcDbEntity
  8
RACCORDO
100
AcDbCircle
 62
7
  6
CONTINUOUS
 10
272.354294131
 20
-6.8850251795
 40
0.2
100
AcDbArc
 50
270.0
 51
360.0
  0
ARC
  5
67A
100
AcDbEntity
  8
RACCORDO
100
AcDbCircle
 62
7
  6
CONTINUOUS
 10
272.754294131
 20
-4.3850251795
 40
0.2
100
AcDbArc
 50
180.0
 51
270.0
  0
ARC
  5
67B
100
AcDbEntity
  8
RACCORDO
100
AcDbCircle
 62
7
  6
CONTINUOUS
 10
271.354294131
 20
-4.3850251795
 40
0.2
100
AcDbArc
 50
270.0
 51
360.0
  0
ARC
  5
67C
100
AcDbEntity
  8
RACCORDO
100
AcDbCircle
 62
7
  6
CONTINUOUS
 10
272.754294131
 20
-5.7850251795
 40
0.2
100
AcDbArc
 50
90.0
 51
180.0
  0
ARC
  5
67D
100
AcDbEntity
  8
RACCORDO
100
AcDbCircle
 62
7
  6
CONTINUOUS
 10
271.354294131
 20
-5.7850251795
 40
0.2
100
AcDbArc
 50
0.0
 51
90.0
  0
ARC
  5
67E
100
AcDbEntity
  8
0
100
AcDbCircle
 62
7
  6
CONTINUOUS
 10
397.054294131
 20
-52.5850251795
 40
3.0
100
AcDbArc
 50
270.0
 51
360.0
  0
ARC
  5
67F
100
AcDbEntity
  8
0
100
AcDbCircle
 62
7
  6
CONTINUOUS
 10
377.054294131
 20
-52.5850251795
 40
0.5
100
AcDbArc
 50
180.0
 51
270.0
  0
ARC
  5
680
100
AcDbEntity
  8
0
100
AcDbCircle
 62
7
  6
CONTINUOUS
 10
397.054294131
 20
-52.5850251795
 40
0.5
100
AcDbArc
 50
270.0
 51
360.0
  0
ARC
  5
681
100
AcDbEntity
  8
0
100
AcDbCircle
 62
7
  6
CONTINUOUS
 10
397.1235249003
 20
-5.0850251795
 40
5.9307692308
100
AcDbArc
 50
303.1141427513
 51
338.890081301
  0
ARC
  5
682
100
AcDbEntity
  8
0
100
AcDbCircle
 62
7
  6
CONTINUOUS
 10
397.1235249003
 20
-5.0850251795
 40
5.9307692308
100
AcDbArc
 50
21.109918699
 51
56.8858572487
  0
ARC
  5
683
100
AcDbEntity
  8
0
100
AcDbCircle
 62
7
  6
CONTINUOUS
 10
400.254294131
 20
-9.8850251795
 40
0.2
100
AcDbArc
 50
180.0
 51
303.1141427513
  0
ARC
  5
684
100
AcDbEntity
  8
RACCORDO
100
AcDbCircle
 62
7
  6
CONTINUOUS
 10
402.5629982268
 20
-7.1850251795
 40
0.1
100
AcDbArc
 50
338.8900814106
 51
15.2842862243
  0
ARC
  5
685
100
AcDbEntity
  8
ASSI
100
AcDbCircle
 62
7
  6
CONTINUOUS
 10
272.054294131
 20
-2.5850251795
 40
3.5
100
AcDbArc
 50
21.9167530526
 51
158.0832469474
  0
ARC
  5
686
100
AcDbEntity
  8
0
100
AcDbCircle
 62
7
  6
CONTINUOUS
 10
377.054294131
 20
45.9149748205
 40
3.0
100
AcDbArc
 50
180.0
 51
270.0
  0
ARC
  5
687
100
AcDbEntity
  8
0
100
AcDbCircle
 62
7
  6
CONTINUOUS
 10
397.054294131
 20
42.4149748205
 40
3.0
100
AcDbArc
 50
0.0
 51
90.0
  0
ARC
  5
688
100
AcDbEntity
  8
0
100
AcDbCircle
 62
7
  6
CONTINUOUS
 10
397.054294131
 20
42.4149748205
 40
0.5
100
AcDbArc
 50
0.0
 51
90.0
  0
ARC
  5
689
100
AcDbEntity
  8
0
100
AcDbCircle
 62
7
  6
CONTINUOUS
 10
377.054294131
 20
45.9149748205
 40
0.5
100
AcDbArc
 50
180.0
 51
270.0
  0
ARC
  5
68A
100
AcDbEntity
  8
RACCORDO
100
AcDbCircle
 62
7
  6
CONTINUOUS
 10
272.354294131
 20
-3.2850251795
 40
0.2
100
AcDbArc
 50
0.0
 51
90.0
  0
ARC
  5
68B
100
AcDbEntity
  8
RACCORDO
100
AcDbCircle
 62
7
  6
CONTINUOUS
 10
271.754294131
 20
-3.2850251795
 40
0.2
100
AcDbArc
 50
90.0
 51
180.0
  0
ARC
  5
68C
100
AcDbEntity
  8
0
100
AcDbCircle
 62
7
  6
CONTINUOUS
 10
400.254294131
 20
-0.2850251795
 40
0.2
100
AcDbArc
 50
56.8858572487
 51
180.0
  0
ARC
  5
68D
100
AcDbEntity
  8
RACCORDO
100
AcDbCircle
 62
7
  6
CONTINUOUS
 10
402.5629982268
 20
-2.9850251795
 40
0.1
100
AcDbArc
 50
344.7158483146
 51
21.1099185894
  0
ARC
  5
68E
100
AcDbEntity
  8
0
100
AcDbCircle
 62
7
  6
CONTINUOUS
 10
-1456.3322395905
 20
-52.5850251795
 40
3.0
100
AcDbArc
 50
180.0
 51
270.0
  0
ARC
  5
68F
100
AcDbEntity
  8
0
100
AcDbCircle
 62
7
  6
CONTINUOUS
 10
-1436.3322395905
 20
-52.5850251795
 40
0.5
100
AcDbArc
 50
270.0
 51
360.0
  0
ARC
  5
690
100
AcDbEntity
  8
0
100
AcDbCircle
 62
7
  6
CONTINUOUS
 10
-1456.3322395905
 20
-52.5850251795
 40
0.5
100
AcDbArc
 50
180.0
 51
270.0
  0
ARC
  5
691
100
AcDbEntity
  8
0
100
AcDbCircle
 62
7
  6
CONTINUOUS
 10
-1456.4014703597
 20
-5.0850251795
 40
5.9307692308
100
AcDbArc
 50
201.109918699
 51
236.8858572487
  0
ARC
  5
692
100
AcDbEntity
  8
0
100
AcDbCircle
 62
7
  6
CONTINUOUS
 10
-1456.4014703597
 20
-5.0850251795
 40
5.9307692308
100
AcDbArc
 50
123.1141427513
 51
158.890081301
  0
ARC
  5
693
100
AcDbEntity
  8
0
100
AcDbCircle
 62
7
  6
CONTINUOUS
 10
-1459.5322395905
 20
-9.8850251795
 40
0.2
100
AcDbArc
 50
236.8858572487
 51
360.0
  0
ARC
  5
694
100
AcDbEntity
  8
RACCORDO
100
AcDbCircle
 62
7
  6
CONTINUOUS
 10
-1461.8409436863
 20
-7.1850251795
 40
0.1
100
AcDbArc
 50
164.7158483145
 51
201.1099185894
  0
CIRCLE
  5
695
100
AcDbEntity
  8
0
100
AcDbCircle
 62
7
  6
CONTINUOUS
 10
-1331.3322395905
 20
-5.0850251795
 40
5.0
  0
CIRCLE
  5
696
100
AcDbEntity
  8
0
100
AcDbCircle
 62
253
  6
CONTINUOUS
 10
-1331.3322395905
 20
-5.0850251795
 40
4.9675167785
  0
ARC
  5
697
100
AcDbEntity
  8
ASSI
100
AcDbCircle
 62
7
  6
CONTINUOUS
 10
-1331.3322395905
 20
-7.5850251795
 40
3.5
100
AcDbArc
 50
201.8532176307
 51
338.1467823693
  0
ARC
  5
698
100
AcDbEntity
  8
RACCORDO
100
AcDbCircle
 62
7
  6
CONTINUOUS
 10
-1329.5322395905
 20
-5.3850251795
 40
0.2
100
AcDbArc
 50
269.9999999999
 51
360.0
  0
ARC
  5
699
100
AcDbEntity
  8
RACCORDO
100
AcDbCircle
 62
7
  6
CONTINUOUS
 10
-1329.5322395905
 20
-4.7850251795
 40
0.2
100
AcDbArc
 50
0.0
 51
90.0000000001
  0
ARC
  5
69A
100
AcDbEntity
  8
RACCORDO
100
AcDbCircle
 62
7
  6
CONTINUOUS
 10
-1333.1322395905
 20
-4.7850251795
 40
0.2
100
AcDbArc
 50
90.0000000002
 51
180.0
  0
ARC
  5
69B
100
AcDbEntity
  8
RACCORDO
100
AcDbCircle
 62
7
  6
CONTINUOUS
 10
-1333.1322395905
 20
-5.3850251795
 40
0.2
100
AcDbArc
 50
180.0
 51
269.9999999998
  0
ARC
  5
69C
100
AcDbEntity
  8
RACCORDO
100
AcDbCircle
 62
7
  6
CONTINUOUS
 10
-1331.6322395905
 20
-6.8850251795
 40
0.2
100
AcDbArc
 50
180.0
 51
269.9999999999
  0
ARC
  5
69D
100
AcDbEntity
  8
RACCORDO
100
AcDbCircle
 62
7
  6
CONTINUOUS
 10
-1331.0322395905
 20
-6.8850251795
 40
0.2
100
AcDbArc
 50
269.9999999998
 51
360.0
  0
ARC
  5
69E
100
AcDbEntity
  8
RACCORDO
100
AcDbCircle
 62
7
  6
CONTINUOUS
 10
-1330.6322395905
 20
-4.3850251795
 40
0.2
100
AcDbArc
 50
180.0
 51
269.9999999998
  0
ARC
  5
69F
100
AcDbEntity
  8
RACCORDO
100
AcDbCircle
 62
7
  6
CONTINUOUS
 10
-1332.0322395905
 20
-4.3850251795
 40
0.2
100
AcDbArc
 50
269.9999999998
 51
360.0
  0
ARC
  5
6A0
100
AcDbEntity
  8
RACCORDO
100
AcDbCircle
 62
7
  6
CONTINUOUS
 10
-1330.6322395905
 20
-5.7850251795
 40
0.2
100
AcDbArc
 50
90.0000000002
 51
180.0
  0
ARC
  5
6A1
100
AcDbEntity
  8
RACCORDO
100
AcDbCircle
 62
7
  6
CONTINUOUS
 10
-1332.0322395905
 20
-5.7850251795
 40
0.2
100
AcDbArc
 50
0.0
 51
90.0000000002
  0
ARC
  5
6A2
100
AcDbEntity
  8
ASSI
100
AcDbCircle
 62
7
  6
CONTINUOUS
 10
-1331.3322395905
 20
-2.5850251795
 40
3.5
100
AcDbArc
 50
21.8532176307
 51
158.1467823693
  0
ARC
  5
6A3
100
AcDbEntity
  8
0
100
AcDbCircle
 62
7
  6
CONTINUOUS
 10
-1436.3322395905
 20
45.9149748205
 40
3.0
100
AcDbArc
 50
270.0
 51
360.0
  0
ARC
  5
6A4
100
AcDbEntity
  8
0
100
AcDbCircle
 62
7
  6
CONTINUOUS
 10
-1456.3322395905
 20
42.4149748205
 40
3.0
100
AcDbArc
 50
90.0
 51
180.0
  0
ARC
  5
6A5
100
AcDbEntity
  8
0
100
AcDbCircle
 62
7
  6
CONTINUOUS
 10
-1456.3322395905
 20
42.4149748205
 40
0.5
100
AcDbArc
 50
90.0000000001
 51
180.0
  0
ARC
  5
6A6
100
AcDbEntity
  8
0
100
AcDbCircle
 62
7
  6
CONTINUOUS
 10
-1436.3322395905
 20
45.9149748205
 40
0.5
100
AcDbArc
 50
270.0
 51
360.0
  0
ARC
  5
6A7
100
AcDbEntity
  8
0
100
AcDbCircle
 62
7
  6
CONTINUOUS
 10
-1459.5322395905
 20
-0.2850251795
 40
0.2
100
AcDbArc
 50
0.0
 51
123.1141427513
  0
ARC
  5
6A8
100
AcDbEntity
  8
RACCORDO
100
AcDbCircle
 62
7
  6
CONTINUOUS
 10
-1331.0322395905
 20
-3.2850251795
 40
0.2
100
AcDbArc
 50
0.0
 51
90.0000000002
  0
ARC
  5
6A9
100
AcDbEntity
  8
RACCORDO
100
AcDbCircle
 62
7
  6
CONTINUOUS
 10
-1331.6322395905
 20
-3.2850251795
 40
0.2
100
AcDbArc
 50
90.0000000001
 51
180.0
  0
ARC
  5
6AA
100
AcDbEntity
  8
RACCORDO
100
AcDbCircle
 62
7
  6
CONTINUOUS
 10
-1461.8409436863
 20
-2.9850251795
 40
0.1
100
AcDbArc
 50
158.8900814107
 51
195.2842862243
  0
CIRCLE
  5
6AB
100
AcDbEntity
  8
0
100
AcDbCircle
 62
7
  6
CONTINUOUS
 10
-587.3322395905
 20
-5.0850251795
 40
5.0
  0
CIRCLE
  5
6AC
100
AcDbEntity
  8
0
100
AcDbCircle
 62
253
  6
CONTINUOUS
 10
-587.3322395905
 20
-5.0850251795
 40
4.9675167785
  0
ARC
  5
6AD
100
AcDbEntity
  8
ASSI
100
AcDbCircle
 62
7
  6
CONTINUOUS
 10
-587.3322395905
 20
-7.5850251795
 40
3.5
100
AcDbArc
 50
201.8532176307
 51
338.1467823693
  0
ARC
  5
6AE
100
AcDbEntity
  8
RACCORDO
100
AcDbCircle
 62
7
  6
CONTINUOUS
 10
-585.5322395905
 20
-5.3850251795
 40
0.2
100
AcDbArc
 50
269.9999999999
 51
360.0
  0
ARC
  5
6AF
100
AcDbEntity
  8
RACCORDO
100
AcDbCircle
 62
7
  6
CONTINUOUS
 10
-585.5322395905
 20
-4.7850251795
 40
0.2
100
AcDbArc
 50
0.0
 51
90.0000000001
  0
ARC
  5
6B0
100
AcDbEntity
  8
RACCORDO
100
AcDbCircle
 62
7
  6
CONTINUOUS
 10
-589.1322395905
 20
-4.7850251795
 40
0.2
100
AcDbArc
 50
90.0000000001
 51
180.0
  0
ARC
  5
6B1
100
AcDbEntity
  8
RACCORDO
100
AcDbCircle
 62
7
  6
CONTINUOUS
 10
-589.1322395905
 20
-5.3850251795
 40
0.2
100
AcDbArc
 50
180.0
 51
269.9999999999
  0
ARC
  5
6B2
100
AcDbEntity
  8
RACCORDO
100
AcDbCircle
 62
7
  6
CONTINUOUS
 10
-587.6322395905
 20
-6.8850251795
 40
0.2
100
AcDbArc
 50
180.0
 51
269.9999999999
  0
ARC
  5
6B3
100
AcDbEntity
  8
RACCORDO
100
AcDbCircle
 62
7
  6
CONTINUOUS
 10
-587.0322395905
 20
-6.8850251795
 40
0.2
100
AcDbArc
 50
269.9999999999
 51
360.0
  0
ARC
  5
6B4
100
AcDbEntity
  8
RACCORDO
100
AcDbCircle
 62
7
  6
CONTINUOUS
 10
-586.6322395905
 20
-4.3850251795
 40
0.2
100
AcDbArc
 50
180.0
 51
269.9999999999
  0
ARC
  5
6B5
100
AcDbEntity
  8
RACCORDO
100
AcDbCircle
 62
7
  6
CONTINUOUS
 10
-588.0322395905
 20
-4.3850251795
 40
0.2
100
AcDbArc
 50
270.0
 51
360.0
  0
ARC
  5
6B6
100
AcDbEntity
  8
RACCORDO
100
AcDbCircle
 62
7
  6
CONTINUOUS
 10
-586.6322395905
 20
-5.7850251795
 40
0.2
100
AcDbArc
 50
90.0000000001
 51
180.0
  0
ARC
  5
6B7
100
AcDbEntity
  8
RACCORDO
100
AcDbCircle
 62
7
  6
CONTINUOUS
 10
-588.0322395905
 20
-5.7850251795
 40
0.2
100
AcDbArc
 50
0.0
 51
90.0
  0
ARC
  5
6B8
100
AcDbEntity
  8
0
100
AcDbCircle
 62
7
  6
CONTINUOUS
 10
-462.3322395905
 20
-52.5850251795
 40
3.0
100
AcDbArc
 50
270.0
 51
360.0
  0
ARC
  5
6B9
100
AcDbEntity
  8
0
100
AcDbCircle
 62
7
  6
CONTINUOUS
 10
-482.3322395905
 20
-52.5850251795
 40
0.5
100
AcDbArc
 50
180.0
 51
270.0
  0
ARC
  5
6BA
100
AcDbEntity
  8
0
100
AcDbCircle
 62
7
  6
CONTINUOUS
 10
-462.3322395905
 20
-52.5850251795
 40
0.5
100
AcDbArc
 50
270.0
 51
360.0
  0
ARC
  5
6BB
100
AcDbEntity
  8
0
100
AcDbCircle
 62
7
  6
CONTINUOUS
 10
-462.2630088213
 20
-5.0850251795
 40
5.9307692308
100
AcDbArc
 50
303.1141427513
 51
338.890081301
  0
ARC
  5
6BC
100
AcDbEntity
  8
0
100
AcDbCircle
 62
7
  6
CONTINUOUS
 10
-462.2630088213
 20
-5.0850251795
 40
5.9307692308
100
AcDbArc
 50
21.109918699
 51
56.8858572487
  0
ARC
  5
6BD
100
AcDbEntity
  8
0
100
AcDbCircle
 62
7
  6
CONTINUOUS
 10
-459.1322395905
 20
-9.8850251795
 40
0.2
100
AcDbArc
 50
180.0
 51
303.1141427513
  0
ARC
  5
6BE
100
AcDbEntity
  8
RACCORDO
100
AcDbCircle
 62
7
  6
CONTINUOUS
 10
-456.8235354947
 20
-7.1850251795
 40
0.1
100
AcDbArc
 50
338.8900814106
 51
15.2842862243
  0
ARC
  5
6BF
100
AcDbEntity
  8
ASSI
100
AcDbCircle
 62
7
  6
CONTINUOUS
 10
-587.3322395905
 20
-2.5850251795
 40
3.5
100
AcDbArc
 50
21.8532176307
 51
158.1467823693
  0
ARC
  5
6C0
100
AcDbEntity
  8
0
100
AcDbCircle
 62
7
  6
CONTINUOUS
 10
-482.3322395905
 20
45.9149748205
 40
3.0
100
AcDbArc
 50
180.0
 51
270.0
  0
ARC
  5
6C1
100
AcDbEntity
  8
0
100
AcDbCircle
 62
7
  6
CONTINUOUS
 10
-462.3322395905
 20
42.4149748205
 40
3.0
100
AcDbArc
 50
0.0
 51
90.0
  0
ARC
  5
6C2
100
AcDbEntity
  8
0
100
AcDbCircle
 62
7
  6
CONTINUOUS
 10
-462.3322395905
 20
42.4149748205
 40
0.5
100
AcDbArc
 50
0.0
 51
90.0
  0
ARC
  5
6C3
100
AcDbEntity
  8
0
100
AcDbCircle
 62
7
  6
CONTINUOUS
 10
-482.3322395905
 20
45.9149748205
 40
0.5
100
AcDbArc
 50
180.0
 51
270.0
  0
ARC
  5
6C4
100
AcDbEntity
  8
0
100
AcDbCircle
 62
7
  6
CONTINUOUS
 10
-459.1322395905
 20
-0.2850251795
 40
0.2
100
AcDbArc
 50
56.8858572487
 51
180.0
  0
ARC
  5
6C5
100
AcDbEntity
  8
RACCORDO
100
AcDbCircle
 62
7
  6
CONTINUOUS
 10
-587.0322395905
 20
-3.2850251795
 40
0.2
100
AcDbArc
 50
0.0
 51
90.0000000001
  0
ARC
  5
6C6
100
AcDbEntity
  8
RACCORDO
100
AcDbCircle
 62
7
  6
CONTINUOUS
 10
-587.6322395905
 20
-3.2850251795
 40
0.2
100
AcDbArc
 50
90.0000000001
 51
180.0
  0
ARC
  5
6C7
100
AcDbEntity
  8
RACCORDO
100
AcDbCircle
 62
7
  6
CONTINUOUS
 10
-456.8235354947
 20
-2.9850251795
 40
0.1
100
AcDbArc
 50
344.7158483146
 51
21.1099185894
  0
ENDSEC
  0
SECTION
  2
OBJECTS
  0
DICTIONARY
  5
C
100
AcDbDictionary
280
0
281
1
  3
ACAD_GROUP
350
D
  3
ACAD_MLINESTYLE
350
17
  3
ACAD_LAYOUT
350
1A
  3
ACAD_PLOTSETTINGS
350
19
  3
ACAD_PLOTSTYLENAME
350
E
  0
DICTIONARY
  5
D
102
{ACAD_REACTORS
330
C
102
}
100
AcDbDictionary
280
0
281
1
  0
ACDBDICTIONARYWDFLT
  5
E
102
{ACAD_REACTORS
330
C
102
}
100
AcDbDictionary
281
1
  3
Normal
350
F
100
AcDbDictionaryWithDefault
340
F
  0
DICTIONARY
  5
17
102
{ACAD_REACTORS
330
C
102
}
100
AcDbDictionary
280
0
281
1
  3
Standard
350
18
  0
DICTIONARY
  5
19
102
{ACAD_REACTORS
330
C
102
}
100
AcDbDictionary
281
1
  0
DICTIONARY
  5
1A
102
{ACAD_REACTORS
330
C
102
}
100
AcDbDictionary
281
1
  3
Model
350
6C8
  3
Layout1
350
6C9
  0
ACDBPLACEHOLDER
  5
F
102
{ACAD_REACTORS
330
E
102
}
  0
MLINESTYLE
  5
18
102
{ACAD_REACTORS
330
17
102
}
100
AcDbMlineStyle
  2
STANDARD
 70
0
  3

 62
256
 51
90.0
 52
90.0
 71
2
 49
0.5
 62
256
  6
BYLAYER
 49
-0.5
 62
256
  6
BYLAYER
  0
LAYOUT
  5
6C8
102
{ACAD_REACTORS
330
1A
102
}
100
AcDbPlotSettings
  1

  2
none_device
  4
ISO_A4_(297.00_x_210.00_MM)
  6

 40
0.0
 41
0.0
 42
0.0
 43
0.0
 44
297.0
 45
210.0
 46
0.0
 47
0.0
 48
0.0
 49
0.0
140
0.0
141
0.0
142
1.0
143
1.0
 70
1024
 72
1
 73
0
 74
0
  7

 75
0
147
1.0
148
0.0
149
0.0
100
AcDbLayout
  1
Model
 70
0
 71
0
 10
0.0
 20
0.0
 11
297.0
 21
210.0
 12
0.0
 22
0.0
 32
0.0
 14
0.0
 24
0.0
 34
0.0
 15
0.0
 25
0.0
 35
0.0
146
0.0
 13
0.0
 23
0.0
 33
0.0
 16
1.0
 26
0.0
 36
0.0
 17
0.0
 27
1.0
 37
0.0
 76
0
330
20D
345
0
346
0
  0
LAYOUT
  5
6C9
102
{ACAD_REACTORS
330
1A
102
}
100
AcDbPlotSettings
  1

  2
none_device
  4
ISO_A4_(297.00_x_210.00_MM)
  6

 40
0.0
 41
0.0
 42
0.0
 43
0.0
 44
297.0
 45
210.0
 46
0.0
 47
0.0
 48
0.0
 49
0.0
140
0.0
141
0.0
142
1.0
143
1.0
 70
0
 72
1
 73
0
 74
0
  7

 75
0
147
1.0
148
0.0
149
0.0
100
AcDbLayout
  1
Layout1
 70
0
 71
1
 10
0.0
 20
0.0
 11
297.0
 21
210.0
 12
0.0
 22
0.0
 32
0.0
 14
0.0
 24
0.0
 34
0.0
 15
0.0
 25
0.0
 35
0.0
146
0.0
 13
0.0
 23
0.0
 33
0.0
 16
1.0
 26
0.0
 36
0.0
 17
0.0
 27
1.0
 37
0.0
 76
0
330
20E
345
0
346
0
  0
ENDSEC
  0
EOF
