0
SECTION
2
HEADER
9
$ACADVER
1
AC1014
9
$HANDSEED
5
       41F
9
$EXTMAX
10
297.0000000000
20
210.0000000000
9
$EXTMIN
10
0.0000000000
20
0.0000000000
9
$LIMMIN
10
0.0000000000
20
0.0000000000
9
$LIMMAX
10
297.0000000000
20
210.0000000000
9
$VIEWCTR
10
148.5000000000
20
105.0000000000
9
$VIEWSIZE
40
210.0000000000
9
$CLAYER
8
0
9
$LTSCALE
40
16.3350000000
9
$CELTYPE
6
BYLAYER
9
$DIMSCALE
40
1
9
$DIMASZ
40
3.0000000000
9
$DIMEXO
40
1.8562500000
9
$DIMDLI
40
11.2860000000
9
$DIMEXE
40
5.3460000000
9
$DIMCEN
40
2.6730000000
9
$DIMLFAC
40
1.0000000000
9
$DIMTXT
40
3.0000000000
9
$DIMTOL
70
1
9
$DIMLIM
70
0
9
$DIMTFAC
40
1.0000000000
9
$DIMTP
40
0.0100000000
9
$DIMTM
40
0.0100000000
9
$MEASUREMENT
70
1
0
ENDSEC
0
SECTION
2
CLASSES
0
ENDSEC
0
SECTION
2
TABLES
0
TABLE
2
VPORT
5
8
100
AcDbSymbolTable
70
2
0
VPORT
5
1F4
100
AcDbSymbolTableRecord
100
AcDbViewportTableRecord
2
*ACTIVE
70
0
10
0.0
20
0.0
11
1.0
21
1.0
12
148.5000000000
22
105.0000000000
13
0.0
23
0.0
14
1.0
24
1.0
15
0.0
25
0.0
16
0.0
26
0.0
36
1.0
17
0.0
27
0.0
37
0.0
40
210.0000000000
41
1.4142857143
42
50.0
43
0.0
44
0.0
50
0.0
51
0.0
71
0
72
100
73
1
74
1
75
0
76
0
77
0
78
0
0
ENDTAB
0
TABLE
2
LTYPE
5
5
100
AcDbSymbolTable
70
6
0
LTYPE
5
14
100
AcDbSymbolTableRecord
100
AcDbLinetypeTableRecord
2
BYBLOCK
70
0
3

72
65
73
0
40
0.0
0
LTYPE
5
15
100
AcDbSymbolTableRecord
100
AcDbLinetypeTableRecord
2
BYLAYER
70
0
3

72
65
73
0
40
0.0
0
LTYPE
5
16
100
AcDbSymbolTableRecord
100
AcDbLinetypeTableRecord
2
CONTINUOUS
70
64
3
Solid line
72
65
73
0
40
0
0
LTYPE
5
1F5
100
AcDbSymbolTableRecord
100
AcDbLinetypeTableRecord
2
CENTER
70
64
3
____ _ ____ _ ____ _ ____ _ ____ _ ____ _ ____
72
65
73
4
40
0.6
49
0.375
74
0
49
-0.075
74
0
49
0.075
74
0
49
-0.075
74
0
0
LTYPE
5
1F6
100
AcDbSymbolTableRecord
100
AcDbLinetypeTableRecord
2
HIDDEN
70
64
3
- - - - - - - - - - - - - - - - - - - -
72
65
73
2
40
0.2
49
0.1
74
0
49
-0.1
74
0
0
LTYPE
5
1F7
100
AcDbSymbolTableRecord
100
AcDbLinetypeTableRecord
2
PHANTOM
70
64
3
_____ _ _ _____ _ _ _____ _ _ _____
72
65
73
6
40
0.8
49
0.45
74
0
49
-0.05
74
0
49
0.1
74
0
49
-0.05
74
0
49
0.1
74
0
49
-0.05
74
0
0
LTYPE
5
1F8
100
AcDbSymbolTableRecord
100
AcDbLinetypeTableRecord
2
DOT
70
64
3
. . . . . . . . . . . . . . . . . . . .
72
65
73
2
40
0.2
49
0.1
74
0
49
-0.1
74
0
0
LTYPE
5
1F9
100
AcDbSymbolTableRecord
100
AcDbLinetypeTableRecord
2
DASHED
70
64
3
- - - - - - - - - - - - - - - - - - - -
72
65
73
2
40
0.2
49
0.1
74
0
49
-0.1
74
0
0
ENDTAB
0
TABLE
2
LAYER
5
2
100
AcDbSymbolTable
70
36
0
LAYER
5
10
100
AcDbSymbolTableRecord
100
AcDbLayerTableRecord
2
0
70
0
62
7
6
CONTINUOUS
0
LAYER
5
1FA
100
AcDbSymbolTableRecord
100
AcDbLayerTableRecord
2
DEFAULT_1
70
0
62
7
6
CENTER
0
LAYER
5
1FB
100
AcDbSymbolTableRecord
100
AcDbLayerTableRecord
2
DEFAULT_2
70
0
62
8
6
HIDDEN
0
LAYER
5
1FC
100
AcDbSymbolTableRecord
100
AcDbLayerTableRecord
2
DEFAULT_3
70
0
62
7
6
PHANTOM
0
LAYER
5
1FD
100
AcDbSymbolTableRecord
100
AcDbLayerTableRecord
2
ASSI
70
0
62
7
6
CONTINUOUS
0
LAYER
5
1FE
100
AcDbSymbolTableRecord
100
AcDbLayerTableRecord
2
COORDINATE
70
0
62
7
6
CONTINUOUS
0
LAYER
5
1FF
100
AcDbSymbolTableRecord
100
AcDbLayerTableRecord
2
COORD_ORIGINE
70
0
62
7
6
CONTINUOUS
0
LAYER
5
200
100
AcDbSymbolTableRecord
100
AcDbLayerTableRecord
2
DRAFT
70
0
62
7
6
CONTINUOUS
0
LAYER
5
201
100
AcDbSymbolTableRecord
100
AcDbLayerTableRecord
2
PIANI
70
0
62
7
6
CONTINUOUS
0
LAYER
5
202
100
AcDbSymbolTableRecord
100
AcDbLayerTableRecord
2
PIANI_ORIGINE
70
0
62
7
6
CONTINUOUS
0
LAYER
5
203
100
AcDbSymbolTableRecord
100
AcDbLayerTableRecord
2
RACCORDO
70
0
62
7
6
CONTINUOUS
0
LAYER
5
204
100
AcDbSymbolTableRecord
100
AcDbLayerTableRecord
2
SNAPLINE
70
0
62
7
6
CONTINUOUS
0
LAYER
5
205
100
AcDbSymbolTableRecord
100
AcDbLayerTableRecord
2
SOLIDO
70
0
62
7
6
CONTINUOUS
0
LAYER
5
206
100
AcDbSymbolTableRecord
100
AcDbLayerTableRecord
2
SUPERFICI
70
0
62
7
6
CONTINUOUS
0
LAYER
5
207
100
AcDbSymbolTableRecord
100
AcDbLayerTableRecord
2
TRASH
70
0
62
7
6
CONTINUOUS
0
ENDTAB
0
TABLE
2
STYLE
5
3
100
AcDbSymbolTable
70
1
0
STYLE
5
11
100
AcDbSymbolTableRecord
100
AcDbTextStyleTableRecord
2
STANDARD
70
0
40
0.0
41
0.8000000000
50
0.0
71
0
42
0.2
3
txt
4

0
ENDTAB
0
TABLE
2
VIEW
5
6
100
AcDbSymbolTable
70
0
0
ENDTAB
0
TABLE
2
UCS
5
7
100
AcDbSymbolTable
70
0
0
ENDTAB
0
TABLE
2
APPID
5
9
100
AcDbSymbolTable
70
1
0
APPID
5
208
100
AcDbSymbolTableRecord
100
AcDbRegAppTableRecord
2
ACAD
70
0
0
ENDTAB
0
TABLE
2
DIMSTYLE
5
A
100
AcDbSymbolTable
70
1
0
DIMSTYLE
105
209
100
AcDbSymbolTableRecord
100
AcDbDimStyleTableRecord
2
STANDARD
70
0
3

4

5

6

7

40
1.0
41
3.0000000000
42
0.0625
43
0.38
44
0.18
45
0.0
46
0.0
47
0.0100000000
48
0.0100000000
140
3.0000000000
141
0.09
142
0.0
143
25.4
144
1.0000000000
145
0.0
146
1.0000000000
147
0.09
71
1
72
0
73
0
74
0
75
0
76
0
77
1
78
8
170
0
171
2
172
0
173
0
174
0
175
0
176
0
177
0
178
0
270
2
271
2
272
2
273
2
274
2
340
11
275
0
280
0
281
0
282
0
283
1
284
8
285
0
286
0
287
3
288
0
0
DIMSTYLE
105
20A
100
AcDbSymbolTableRecord
100
AcDbDimStyleTableRecord
2
DIMSTYLE_1
70
0
3

4

5

6

7

40
1.0
41
3.0000000000
42
0.0625
43
0.38
44
0.18
45
0.0
46
0.0
47
0.0000000000
48
0.0000000000
140
3.0000000000
141
0.09
142
0.0
143
25.4
144
1.0000000000
145
0.0
146
1.0000000000
147
0.09
71
0
72
0
73
0
74
0
75
0
76
0
77
1
78
8
170
0
171
2
172
0
173
0
174
0
175
0
176
0
177
0
178
0
270
2
271
2
272
2
273
2
274
2
340
11
275
0
280
0
281
0
282
0
283
1
284
8
285
0
286
0
287
3
288
0
0
DIMSTYLE
105
20B
100
AcDbSymbolTableRecord
100
AcDbDimStyleTableRecord
2
DIMSTYLE_2
70
0
3

4

5

6

7

40
1.0
41
3.0000000000
42
0.0625
43
0.38
44
0.18
45
0.0
46
0.0
47
0.0000000000
48
0.0000000000
140
3.0000000000
141
0.09
142
0.0
143
25.4
144
1.0000000000
145
0.0
146
1.0000000000
147
0.09
71
0
72
0
73
0
74
0
75
0
76
0
77
1
78
8
170
0
171
2
172
0
173
0
174
0
175
0
176
0
177
0
178
0
270
2
271
0
272
0
273
2
274
2
340
11
275
0
280
0
281
0
282
0
283
1
284
8
285
0
286
0
287
3
288
0
0
ENDTAB
0
TABLE
2
BLOCK_RECORD
5
1
100
AcDbSymbolTable
70
0
0
BLOCK_RECORD
5
1B
100
AcDbSymbolTableRecord
100
AcDbBlockTableRecord
2
*MODEL_SPACE
0
BLOCK_RECORD
5
1C
100
AcDbSymbolTableRecord
100
AcDbBlockTableRecord
2
*PAPER_SPACE
0
BLOCK_RECORD
5
20C
100
AcDbSymbolTableRecord
100
AcDbBlockTableRecord
2
*D0
0
BLOCK_RECORD
5
20D
100
AcDbSymbolTableRecord
100
AcDbBlockTableRecord
2
*D1
0
BLOCK_RECORD
5
20E
100
AcDbSymbolTableRecord
100
AcDbBlockTableRecord
2
*D2
0
ENDTAB
0
ENDSEC
0
SECTION
2
BLOCKS
0
BLOCK
5
1E
100
AcDbEntity
8
0
100
AcDbBlockBegin
2
*MODEL_SPACE
70
0
10
0.0
20
0.0
30
0.0
3
*MODEL_SPACE
1

0
ENDBLK
5
1F
100
AcDbEntity
8
0
100
AcDbBlockEnd
0
BLOCK
5
20
100
AcDbEntity
8
0
100
AcDbBlockBegin
2
*PAPER_SPACE
70
0
10
0.0
20
0.0
30
0.0
3
*PAPER_SPACE
1

0
ENDBLK
5
21
100
AcDbEntity
8
0
100
AcDbBlockEnd
0
BLOCK
5
20F
100
AcDbEntity
8
0
100
AcDbBlockBegin
62
7
6
CONTINUOUS
2
*D0
70
65
10
0.0000000000
20
0.0000000000
3
*D0
1

0
TEXT
5
210
100
AcDbEntity
8
0
100
AcDbText
62
7
6
CONTINUOUS
10
20.4769873502
20
-14.0781660422
7
STANDARD
40
3.0000000000
1
183
50
90.0000000000
41
0.6904761905
72
0
100
AcDbText
0
LINE
5
211
100
AcDbEntity
8
0
100
AcDbLine
62
7
6
CONTINUOUS
10
7.2477429157
20
80.5289768150
11
22.7269873502
21
80.5289768150
0
LINE
5
212
100
AcDbEntity
8
0
100
AcDbLine
62
7
6
CONTINUOUS
10
-1.8022570843
20
-102.4710231850
11
22.7269873502
21
-102.4710231850
0
LINE
5
213
100
AcDbEntity
8
0
100
AcDbLine
62
7
6
CONTINUOUS
10
21.2269873502
20
80.5289768150
11
21.2269873502
21
-10.9710231850
0
LINE
5
214
100
AcDbEntity
8
0
100
AcDbLine
62
7
6
CONTINUOUS
10
21.2269873502
20
-102.4710231850
11
21.2269873502
21
-10.9710231850
0
SOLID
5
215
100
AcDbEntity
8
0
100
AcDbTrace
62
7
6
CONTINUOUS
10
21.6269873502
20
77.5289768150
11
21.2269873502
21
80.5289768150
12
20.8269873502
22
77.5289768150
13
20.8269873502
23
77.5289768150
0
SOLID
5
216
100
AcDbEntity
8
0
100
AcDbTrace
62
7
6
CONTINUOUS
10
20.8269873502
20
-99.4710231850
11
21.2269873502
21
-102.4710231850
12
21.6269873502
22
-99.4710231850
13
21.6269873502
23
-99.4710231850
0
ENDBLK
5
217
100
AcDbEntity
8
0
100
AcDbBlockEnd
0
BLOCK
5
218
100
AcDbEntity
8
0
100
AcDbBlockBegin
62
7
6
CONTINUOUS
2
*D1
70
65
10
0.0000000000
20
0.0000000000
3
*D1
1

0
TEXT
5
219
100
AcDbEntity
8
0
100
AcDbText
62
7
6
CONTINUOUS
10
-5.4951142272
20
89.2789768150
7
STANDARD
40
3.0000000000
1
33
41
0.7142857143
72
0
100
AcDbText
0
LINE
5
21A
100
AcDbEntity
8
0
100
AcDbLine
62
7
6
CONTINUOUS
10
13.2269873502
20
69.5807099271
11
13.2269873502
21
90.0289768150
0
LINE
5
21B
100
AcDbEntity
8
0
100
AcDbLine
62
7
6
CONTINUOUS
10
-19.9315015188
20
69.5807099271
11
-19.9315015188
21
90.0289768150
0
LINE
5
21C
100
AcDbEntity
8
0
100
AcDbLine
62
7
6
CONTINUOUS
10
13.2269873502
20
88.5289768150
11
-3.3522570843
21
88.5289768150
0
LINE
5
21D
100
AcDbEntity
8
0
100
AcDbLine
62
7
6
CONTINUOUS
10
-19.9315015188
20
88.5289768150
11
-3.3522570843
21
88.5289768150
0
SOLID
5
21E
100
AcDbEntity
8
0
100
AcDbTrace
62
7
6
CONTINUOUS
10
10.2269873502
20
88.1289768150
11
13.2269873502
21
88.5289768150
12
10.2269873502
22
88.9289768150
13
10.2269873502
23
88.9289768150
0
SOLID
5
21F
100
AcDbEntity
8
0
100
AcDbTrace
62
7
6
CONTINUOUS
10
-16.9315015188
20
88.9289768150
11
-19.9315015188
21
88.5289768150
12
-16.9315015188
22
88.1289768150
13
-16.9315015188
23
88.1289768150
0
ENDBLK
5
220
100
AcDbEntity
8
0
100
AcDbBlockEnd
0
BLOCK
5
221
100
AcDbEntity
8
0
100
AcDbBlockBegin
62
7
6
CONTINUOUS
2
*D2
70
65
10
0.0000000000
20
0.0000000000
3
*D2
1

0
TEXT
5
222
100
AcDbEntity
8
0
100
AcDbText
62
7
6
CONTINUOUS
10
-70.5494319614
20
89.2789768150
7
STANDARD
40
3.0000000000
1
33
41
0.7142857143
72
0
100
AcDbText
0
LINE
5
223
100
AcDbEntity
8
0
100
AcDbLine
62
7
6
CONTINUOUS
10
-51.8273303841
20
69.5807099271
11
-51.8273303841
21
90.0289768150
0
LINE
5
224
100
AcDbEntity
8
0
100
AcDbLine
62
7
6
CONTINUOUS
10
-84.9858192531
20
69.5807099271
11
-84.9858192531
21
90.0289768150
0
LINE
5
225
100
AcDbEntity
8
0
100
AcDbLine
62
7
6
CONTINUOUS
10
-51.8273303841
20
88.5289768150
11
-68.4065748186
21
88.5289768150
0
LINE
5
226
100
AcDbEntity
8
0
100
AcDbLine
62
7
6
CONTINUOUS
10
-84.9858192531
20
88.5289768150
11
-68.4065748186
21
88.5289768150
0
SOLID
5
227
100
AcDbEntity
8
0
100
AcDbTrace
62
7
6
CONTINUOUS
10
-54.8273303841
20
88.1289768150
11
-51.8273303841
21
88.5289768150
12
-54.8273303841
22
88.9289768150
13
-54.8273303841
23
88.9289768150
0
SOLID
5
228
100
AcDbEntity
8
0
100
AcDbTrace
62
7
6
CONTINUOUS
10
-81.9858192531
20
88.9289768150
11
-84.9858192531
21
88.5289768150
12
-81.9858192531
22
88.1289768150
13
-81.9858192531
23
88.1289768150
0
ENDBLK
5
229
100
AcDbEntity
8
0
100
AcDbBlockEnd
0
ENDSEC
0
SECTION
2
ENTITIES
0
DIMENSION
5
22A
100
AcDbEntity
8
0
100
AcDbDimension
62
7
6
CONTINUOUS
2
*D0
10
21.2269873502
20
-102.4710231850
11
18.9769873502
21
-10.9710231850
70
160
3
DIMSTYLE_1
100
AcDbAlignedDimension
13
7.2477429157
23
80.5289768150
14
-1.8022570843
24
-102.4710231850
50
270.000000
100
AcDbRotatedDimension
0
DIMENSION
5
22B
100
AcDbEntity
8
0
100
AcDbDimension
62
7
6
CONTINUOUS
2
*D1
10
-19.9315015188
20
88.5289768150
11
-3.3522570843
21
90.7789768150
70
160
3
DIMSTYLE_2
100
AcDbAlignedDimension
13
13.2269873502
23
69.5807099271
14
-19.9315015188
24
69.5807099271
50
180.000000
100
AcDbRotatedDimension
0
DIMENSION
5
22C
100
AcDbEntity
8
0
100
AcDbDimension
62
7
6
CONTINUOUS
2
*D2
10
-84.9858192531
20
88.5289768150
11
-68.4065748186
21
90.7789768150
70
160
3
DIMSTYLE_2
100
AcDbAlignedDimension
13
-51.8273303841
23
69.5807099271
14
-84.9858192531
24
69.5807099271
50
180.000000
100
AcDbRotatedDimension
0
LINE
5
22D
100
AcDbEntity
8
0
100
AcDbLine
62
7
6
CONTINUOUS
10
-2.3022570843
20
-102.4710231850
11
-4.4022570843
21
-102.4710231850
0
LINE
5
22E
100
AcDbEntity
8
0
100
AcDbLine
62
7
6
CONTINUOUS
10
-3.7022570843
20
-101.4489373995
11
-3.0022570843
21
-101.4489373995
0
LINE
5
22F
100
AcDbEntity
8
0
100
AcDbLine
62
7
6
CONTINUOUS
10
-4.4022570843
20
-101.2710231850
11
-3.7022570843
21
-101.2710231850
0
LINE
5
230
100
AcDbEntity
8
0
100
AcDbLine
62
7
6
CONTINUOUS
10
-3.0022570843
20
-101.2710231850
11
-2.3022570843
21
-101.2710231850
0
LINE
5
231
100
AcDbEntity
8
0
100
AcDbLine
62
7
6
CONTINUOUS
10
-1.1022570843
20
-80.6210231850
11
-5.6022570843
21
-80.6210231850
0
LINE
5
232
100
AcDbEntity
8
0
100
AcDbLine
62
7
6
CONTINUOUS
10
-1.1022570843
20
-79.9710231850
11
-5.6022570843
21
-79.9710231850
0
LINE
5
233
100
AcDbEntity
8
0
100
AcDbLine
62
7
6
CONTINUOUS
10
3.3977420601
20
-77.9710231850
11
-10.1022562287
21
-77.9710231850
0
LINE
5
234
100
AcDbEntity
8
0
100
AcDbLine
62
9
6
CONTINUOUS
10
4.3977429157
20
-76.9710231850
11
-11.1022570843
21
-76.9710231850
0
LINE
5
235
100
AcDbEntity
8
0
100
AcDbLine
62
7
6
CONTINUOUS
10
4.4213345276
20
-59.4710231850
11
-11.1258486963
21
-59.4710231850
0
LINE
5
236
100
AcDbEntity
8
0
100
AcDbLine
62
9
6
CONTINUOUS
10
3.8769234525
20
-56.1998207522
11
-10.5814376211
21
-56.1998207522
0
LINE
5
237
100
AcDbEntity
8
0
100
AcDbLine
62
7
6
CONTINUOUS
10
4.4977429157
20
80.5289768150
11
4.2977429157
21
80.1825666534
0
LINE
5
238
100
AcDbEntity
8
0
100
AcDbLine
62
7
6
CONTINUOUS
10
5.4977429157
20
80.5289768150
11
5.2977429157
21
80.1825666534
0
LINE
5
239
100
AcDbEntity
8
0
100
AcDbLine
62
7
6
CONTINUOUS
10
6.7477429157
20
80.5289768150
11
6.5477429157
21
80.1825666534
0
LINE
5
23A
100
AcDbEntity
8
0
100
AcDbLine
62
7
6
CONTINUOUS
10
8.0477429157
20
80.1825666534
11
8.2477429157
21
80.5289768150
0
LINE
5
23B
100
AcDbEntity
8
0
100
AcDbLine
62
7
6
CONTINUOUS
10
-15.8522570843
20
-35.9710231850
11
9.1477429157
21
-35.9710231850
0
LINE
5
23C
100
AcDbEntity
8
0
100
AcDbLine
62
7
6
CONTINUOUS
10
-15.8522570843
20
-32.9710231850
11
9.1477429157
21
-32.9710231850
0
LINE
5
23D
100
AcDbEntity
8
0
100
AcDbLine
62
7
6
CONTINUOUS
10
-18.8522570843
20
45.0289768150
11
-18.4484109305
21
36.0289768150
0
LINE
5
23E
100
AcDbEntity
8
0
100
AcDbLine
62
7
6
CONTINUOUS
10
-18.3586673407
20
34.0289768150
11
-18.2689237510
21
32.0289768150
0
LINE
5
23F
100
AcDbEntity
8
0
100
AcDbLine
62
7
6
CONTINUOUS
10
-18.1791801612
20
30.0289768150
11
-18.0894365715
21
28.0289768150
0
LINE
5
240
100
AcDbEntity
8
0
100
AcDbLine
62
7
6
CONTINUOUS
10
-17.9996929818
20
26.0289768150
11
-17.9099493920
21
24.0289768150
0
LINE
5
241
100
AcDbEntity
8
0
100
AcDbLine
62
7
6
CONTINUOUS
10
-17.8202058023
20
22.0289768150
11
-17.7304622125
21
20.0289768150
0
LINE
5
242
100
AcDbEntity
8
0
100
AcDbLine
62
7
6
CONTINUOUS
10
-17.6407186228
20
18.0289768150
11
-17.5509750330
21
16.0289768150
0
LINE
5
243
100
AcDbEntity
8
0
100
AcDbLine
62
7
6
CONTINUOUS
10
-17.4612314433
20
14.0289768150
11
-17.3714878535
21
12.0289768150
0
LINE
5
244
100
AcDbEntity
8
0
100
AcDbLine
62
7
6
CONTINUOUS
10
-17.2817442638
20
10.0289768150
11
-17.1920006741
21
8.0289768150
0
LINE
5
245
100
AcDbEntity
8
0
100
AcDbLine
62
7
6
CONTINUOUS
10
-17.1022570843
20
6.0289768150
11
-17.0125134946
21
4.0289768150
0
LINE
5
246
100
AcDbEntity
8
0
100
AcDbLine
62
7
6
CONTINUOUS
10
-16.9227699048
20
2.0289768150
11
-16.8330263151
21
0.0289768150
0
LINE
5
247
100
AcDbEntity
8
0
100
AcDbLine
62
7
6
CONTINUOUS
10
-16.7432827253
20
-1.9710231850
11
-16.6535391356
21
-3.9710231850
0
LINE
5
248
100
AcDbEntity
8
0
100
AcDbLine
62
7
6
CONTINUOUS
10
-16.5637955459
20
-5.9710231850
11
-16.4740519561
21
-7.9710231850
0
LINE
5
249
100
AcDbEntity
8
0
100
AcDbLine
62
7
6
CONTINUOUS
10
-16.3843083664
20
-9.9710231850
11
-16.2945647766
21
-11.9710231850
0
LINE
5
24A
100
AcDbEntity
8
0
100
AcDbLine
62
7
6
CONTINUOUS
10
-16.2048211869
20
-13.9710231850
11
-16.1150775971
21
-15.9710231850
0
LINE
5
24B
100
AcDbEntity
8
0
100
AcDbLine
62
7
6
CONTINUOUS
10
-15.3522570843
20
-32.9710231850
11
-15.6878242213
21
-25.4926698476
0
LINE
5
24C
100
AcDbEntity
8
0
100
AcDbLine
62
7
6
CONTINUOUS
10
-16.0253340074
20
-17.9710231850
11
-15.9342938233
21
-19.9999187156
0
LINE
5
24D
100
AcDbEntity
8
0
100
AcDbLine
62
7
6
CONTINUOUS
10
-15.7410394656
20
-24.3067301168
11
-15.8497238102
21
-21.8846218645
0
LINE
5
24E
100
AcDbEntity
8
0
100
AcDbLine
62
7
6
CONTINUOUS
10
-18.8567442638
20
45.1289768150
11
-19.9315015188
21
69.0807099271
0
LINE
5
24F
100
AcDbEntity
8
0
100
AcDbLine
62
7
6
CONTINUOUS
10
-17.9479078141
20
36.0289768150
11
-17.8581642244
21
34.0289768150
0
LINE
5
250
100
AcDbEntity
8
0
100
AcDbLine
62
7
6
CONTINUOUS
10
-17.7684206346
20
32.0289768150
11
-17.6786770449
21
30.0289768150
0
LINE
5
251
100
AcDbEntity
8
0
100
AcDbLine
62
7
6
CONTINUOUS
10
-17.5889334551
20
28.0289768150
11
-17.4991898654
21
26.0289768150
0
LINE
5
252
100
AcDbEntity
8
0
100
AcDbLine
62
7
6
CONTINUOUS
10
-17.4094462756
20
24.0289768150
11
-17.3197026859
21
22.0289768150
0
LINE
5
253
100
AcDbEntity
8
0
100
AcDbLine
62
7
6
CONTINUOUS
10
-17.2299590962
20
20.0289768150
11
-17.1402155064
21
18.0289768150
0
LINE
5
254
100
AcDbEntity
8
0
100
AcDbLine
62
7
6
CONTINUOUS
10
-17.0504719167
20
16.0289768150
11
-16.9607283269
21
14.0289768150
0
LINE
5
255
100
AcDbEntity
8
0
100
AcDbLine
62
7
6
CONTINUOUS
10
-16.8709847372
20
12.0289768150
11
-16.7812411474
21
10.0289768150
0
LINE
5
256
100
AcDbEntity
8
0
100
AcDbLine
62
7
6
CONTINUOUS
10
-16.6903578670
20
8.0035779948
11
-16.6048412275
21
6.0977785993
0
LINE
5
257
100
AcDbEntity
8
0
100
AcDbLine
62
7
6
CONTINUOUS
10
-16.5010154953
20
3.7839479948
11
-16.4379286138
21
2.3780117797
0
LINE
5
258
100
AcDbEntity
8
0
100
AcDbLine
62
9
6
CONTINUOUS
10
-15.8522570843
20
-32.9710231850
11
-15.8522570843
21
-35.9710231850
0
LINE
5
259
100
AcDbEntity
8
0
100
AcDbLine
62
7
6
CONTINUOUS
10
-15.8522570843
20
45.0289768150
11
-15.8522570843
21
45.1289768150
0
LINE
5
25A
100
AcDbEntity
8
0
100
AcDbLine
62
7
6
CONTINUOUS
10
-14.4257230424
20
-56.1998207522
11
-14.6022570843
21
-35.9710231850
0
LINE
5
25B
100
AcDbEntity
8
0
100
AcDbLine
62
7
6
CONTINUOUS
10
-11.1022570843
20
-59.4710231850
11
-11.1022570843
21
-76.9710231850
0
LINE
5
25C
100
AcDbEntity
8
0
100
AcDbLine
62
9
6
CONTINUOUS
10
-10.5814376211
20
-59.4710231850
11
-10.5814376137
21
-56.1998207522
0
LINE
5
25D
100
AcDbEntity
8
0
100
AcDbLine
62
7
6
CONTINUOUS
10
-16.0253340074
20
-17.9710231850
11
-16.0250740667
21
-17.9710231850
0
LINE
5
25E
100
AcDbEntity
8
0
100
AcDbLine
62
7
6
CONTINUOUS
10
9.3205598981
20
-17.9710231850
11
9.3208198388
21
-17.9710231850
0
LINE
5
25F
100
AcDbEntity
8
0
100
AcDbLine
62
7
6
CONTINUOUS
10
-5.6022570843
20
-77.9710231850
11
-5.6022570843
21
-91.9710231850
0
LINE
5
260
100
AcDbEntity
8
0
100
AcDbLine
62
7
6
CONTINUOUS
10
-4.4022570843
20
-95.2206385469
11
-4.4022570843
21
-102.4710231850
0
LINE
5
261
100
AcDbEntity
8
0
100
AcDbLine
62
7
6
CONTINUOUS
10
-3.7022570843
20
-101.2710231850
11
-3.7022570843
21
-101.4489373995
0
LINE
5
262
100
AcDbEntity
8
0
100
AcDbLine
62
7
6
CONTINUOUS
10
-3.0022570843
20
-101.2710231850
11
-3.0022570843
21
-101.4489373995
0
LINE
5
263
100
AcDbEntity
8
0
100
AcDbLine
62
9
6
CONTINUOUS
10
-3.4255195307
20
45.0289768150
11
-8.3853433504
21
-32.9710231850
0
LINE
5
264
100
AcDbEntity
8
0
100
AcDbLine
62
9
6
CONTINUOUS
10
-10.5814376211
20
-56.1998207522
11
-8.6080494501
21
-35.9710231850
0
LINE
5
265
100
AcDbEntity
8
0
100
AcDbLine
62
9
6
CONTINUOUS
10
3.8769234525
20
-56.1998207522
11
1.9035352815
21
-35.9710231850
0
LINE
5
266
100
AcDbEntity
8
0
100
AcDbLine
62
9
6
CONTINUOUS
10
1.6808291818
20
-32.9710231850
11
-3.2789946379
21
45.0289768150
0
LINE
5
267
100
AcDbEntity
8
0
100
AcDbLine
62
7
6
CONTINUOUS
10
-2.3022570843
20
-95.2206385469
11
-2.3022570843
21
-102.4710231850
0
LINE
5
268
100
AcDbEntity
8
0
100
AcDbLine
62
7
6
CONTINUOUS
10
-1.1022570843
20
-77.9710231850
11
-1.1022570843
21
-91.9710231850
0
LINE
5
269
100
AcDbEntity
8
0
100
AcDbLine
62
7
6
CONTINUOUS
10
3.5477429157
20
79.4695186483
11
3.5477429157
21
80.5289768150
0
LINE
5
26A
100
AcDbEntity
8
0
100
AcDbLine
62
7
6
CONTINUOUS
10
-16.3843083664
20
-9.9710231850
11
-16.3285656206
21
-9.9710231850
0
LINE
5
26B
100
AcDbEntity
8
0
100
AcDbLine
62
7
6
CONTINUOUS
10
9.6240514519
20
-9.9710231850
11
9.6797941977
21
-9.9710231850
0
LINE
5
26C
100
AcDbEntity
8
0
100
AcDbLine
62
7
6
CONTINUOUS
10
-16.4740519561
20
-7.9710231850
11
-16.3989927645
21
-7.9710231850
0
LINE
5
26D
100
AcDbEntity
8
0
100
AcDbLine
62
7
6
CONTINUOUS
10
9.6944785958
20
-7.9710231850
11
9.7695377875
21
-7.9710231850
0
LINE
5
26E
100
AcDbEntity
8
0
100
AcDbLine
62
7
6
CONTINUOUS
10
-16.5637955459
20
-5.9710231850
11
-16.4486703956
21
-5.9710231850
0
LINE
5
26F
100
AcDbEntity
8
0
100
AcDbLine
62
7
6
CONTINUOUS
10
9.7441562269
20
-5.9710231850
11
9.8592813772
21
-5.9710231850
0
LINE
5
270
100
AcDbEntity
8
0
100
AcDbLine
62
7
6
CONTINUOUS
10
-16.6535391356
20
-3.9710231850
11
-16.5125756508
21
-3.9710231850
0
LINE
5
271
100
AcDbEntity
8
0
100
AcDbLine
62
7
6
CONTINUOUS
10
9.8080614822
20
-3.9710231850
11
9.9490249670
21
-3.9710231850
0
LINE
5
272
100
AcDbEntity
8
0
100
AcDbLine
62
9
6
CONTINUOUS
10
3.8769234525
20
-59.4710231850
11
3.8769234525
21
-56.1998207522
0
LINE
5
273
100
AcDbEntity
8
0
100
AcDbLine
62
7
6
CONTINUOUS
10
4.3977429157
20
-59.4710231850
11
4.3977429157
21
-76.9710231850
0
LINE
5
274
100
AcDbEntity
8
0
100
AcDbLine
62
7
6
CONTINUOUS
10
8.0953409170
20
77.9835520014
11
8.0953409170
21
80.2650088101
0
LINE
5
275
100
AcDbEntity
8
0
100
AcDbLine
62
7
6
CONTINUOUS
10
8.5477429157
20
77.9387502498
11
8.5477429157
21
80.5289768150
0
LINE
5
276
100
AcDbEntity
8
0
100
AcDbLine
62
9
6
CONTINUOUS
10
9.1477429157
20
-32.9710231850
11
9.1477429157
21
-35.9710231850
0
LINE
5
277
100
AcDbEntity
8
0
100
AcDbLine
62
7
6
CONTINUOUS
10
9.1477429157
20
45.0289768150
11
9.1477429157
21
45.1289768150
0
LINE
5
278
100
AcDbEntity
8
0
100
AcDbLine
62
7
6
CONTINUOUS
10
7.7212088737
20
-56.1998207522
11
7.8977429157
21
-35.9710231850
0
LINE
5
279
100
AcDbEntity
8
0
100
AcDbLine
62
7
6
CONTINUOUS
10
9.7334144452
20
2.3780117797
11
9.7965013266
21
3.7839479948
0
LINE
5
27A
100
AcDbEntity
8
0
100
AcDbLine
62
7
6
CONTINUOUS
10
9.9003270589
20
6.0977785993
11
9.9858436984
21
8.0035779948
0
LINE
5
27B
100
AcDbEntity
8
0
100
AcDbLine
62
7
6
CONTINUOUS
10
10.0767269788
20
10.0289768150
11
10.1664705685
21
12.0289768150
0
LINE
5
27C
100
AcDbEntity
8
0
100
AcDbLine
62
7
6
CONTINUOUS
10
10.2562141583
20
14.0289768150
11
10.3459577480
21
16.0289768150
0
LINE
5
27D
100
AcDbEntity
8
0
100
AcDbLine
62
7
6
CONTINUOUS
10
10.4357013378
20
18.0289768150
11
10.5254449275
21
20.0289768150
0
LINE
5
27E
100
AcDbEntity
8
0
100
AcDbLine
62
7
6
CONTINUOUS
10
10.6151885173
20
22.0289768150
11
10.7049321070
21
24.0289768150
0
LINE
5
27F
100
AcDbEntity
8
0
100
AcDbLine
62
7
6
CONTINUOUS
10
10.7946756967
20
26.0289768150
11
10.8844192865
21
28.0289768150
0
LINE
5
280
100
AcDbEntity
8
0
100
AcDbLine
62
7
6
CONTINUOUS
10
10.9741628762
20
30.0289768150
11
11.0639064660
21
32.0289768150
0
LINE
5
281
100
AcDbEntity
8
0
100
AcDbLine
62
7
6
CONTINUOUS
10
11.1536500557
20
34.0289768150
11
11.2433936455
21
36.0289768150
0
LINE
5
282
100
AcDbEntity
8
0
100
AcDbLine
62
7
6
CONTINUOUS
10
8.6477429157
20
-32.9710231850
11
8.9833100526
21
-25.4926698476
0
LINE
5
283
100
AcDbEntity
8
0
100
AcDbLine
62
7
6
CONTINUOUS
10
9.0365252969
20
-24.3067301168
11
9.1452096416
21
-21.8846218645
0
LINE
5
284
100
AcDbEntity
8
0
100
AcDbLine
62
7
6
CONTINUOUS
10
9.2297796547
20
-19.9999187156
11
9.3208198388
21
-17.9710231850
0
LINE
5
285
100
AcDbEntity
8
0
100
AcDbLine
62
7
6
CONTINUOUS
10
9.4105634285
20
-15.9710231850
11
9.5003070182
21
-13.9710231850
0
LINE
5
286
100
AcDbEntity
8
0
100
AcDbLine
62
7
6
CONTINUOUS
10
9.5900506080
20
-11.9710231850
11
9.6797941977
21
-9.9710231850
0
LINE
5
287
100
AcDbEntity
8
0
100
AcDbLine
62
7
6
CONTINUOUS
10
9.7695377875
20
-7.9710231850
11
9.8592813772
21
-5.9710231850
0
LINE
5
288
100
AcDbEntity
8
0
100
AcDbLine
62
7
6
CONTINUOUS
10
9.9490249670
20
-3.9710231850
11
10.0387685567
21
-1.9710231850
0
LINE
5
289
100
AcDbEntity
8
0
100
AcDbLine
62
7
6
CONTINUOUS
10
10.1285121465
20
0.0289768150
11
10.2182557362
21
2.0289768150
0
LINE
5
28A
100
AcDbEntity
8
0
100
AcDbLine
62
7
6
CONTINUOUS
10
10.3079993259
20
4.0289768150
11
10.3977429157
21
6.0289768150
0
LINE
5
28B
100
AcDbEntity
8
0
100
AcDbLine
62
7
6
CONTINUOUS
10
10.4874865054
20
8.0289768150
11
10.5772300952
21
10.0289768150
0
LINE
5
28C
100
AcDbEntity
8
0
100
AcDbLine
62
7
6
CONTINUOUS
10
10.6669736849
20
12.0289768150
11
10.7567172747
21
14.0289768150
0
LINE
5
28D
100
AcDbEntity
8
0
100
AcDbLine
62
7
6
CONTINUOUS
10
10.8464608644
20
16.0289768150
11
10.9362044541
21
18.0289768150
0
LINE
5
28E
100
AcDbEntity
8
0
100
AcDbLine
62
7
6
CONTINUOUS
10
11.0259480439
20
20.0289768150
11
11.1156916336
21
22.0289768150
0
LINE
5
28F
100
AcDbEntity
8
0
100
AcDbLine
62
7
6
CONTINUOUS
10
11.2054352234
20
24.0289768150
11
11.2951788131
21
26.0289768150
0
LINE
5
290
100
AcDbEntity
8
0
100
AcDbLine
62
7
6
CONTINUOUS
10
11.3849224029
20
28.0289768150
11
11.4746659926
21
30.0289768150
0
LINE
5
291
100
AcDbEntity
8
0
100
AcDbLine
62
7
6
CONTINUOUS
10
11.5644095823
20
32.0289768150
11
11.6541531721
21
34.0289768150
0
LINE
5
292
100
AcDbEntity
8
0
100
AcDbLine
62
7
6
CONTINUOUS
10
11.7438967618
20
36.0289768150
11
12.1477429157
21
45.0289768150
0
LINE
5
293
100
AcDbEntity
8
0
100
AcDbLine
62
7
6
CONTINUOUS
10
12.1522300952
20
45.1289768150
11
13.2269873502
21
69.0807099271
0
LINE
5
294
100
AcDbEntity
8
0
100
AcDbLine
62
7
6
CONTINUOUS
10
-16.7432827253
20
-1.9710231850
11
-16.5508256022
21
-1.9710231850
0
LINE
5
295
100
AcDbEntity
8
0
100
AcDbLine
62
7
6
CONTINUOUS
10
9.8463114336
20
-1.9710231850
11
10.0387685567
21
-1.9710231850
0
LINE
5
296
100
AcDbEntity
8
0
100
AcDbLine
62
7
6
CONTINUOUS
10
-16.8330263151
20
0.0289768150
11
-16.6089954451
21
0.0289768150
0
LINE
5
297
100
AcDbEntity
8
0
100
AcDbLine
62
7
6
CONTINUOUS
10
9.9044812764
20
0.0289768150
11
10.1285121465
21
0.0289768150
0
LINE
5
298
100
AcDbEntity
8
0
100
AcDbLine
62
7
6
CONTINUOUS
10
-16.9227699048
20
2.0289768150
11
-16.6368541920
21
2.0289768150
0
LINE
5
299
100
AcDbEntity
8
0
100
AcDbLine
62
7
6
CONTINUOUS
10
9.9323400234
20
2.0289768150
11
10.2182557362
21
2.0289768150
0
LINE
5
29A
100
AcDbEntity
8
0
100
AcDbLine
62
7
6
CONTINUOUS
10
-17.0125134946
20
4.0289768150
11
-16.6899382324
21
4.0289768150
0
LINE
5
29B
100
AcDbEntity
8
0
100
AcDbLine
62
7
6
CONTINUOUS
10
9.9854240638
20
4.0289768150
11
10.3079993259
21
4.0289768150
0
LINE
5
29C
100
AcDbEntity
8
0
100
AcDbLine
62
7
6
CONTINUOUS
10
-17.1022570843
20
6.0289768150
11
-16.7082728981
21
6.0289768150
0
LINE
5
29D
100
AcDbEntity
8
0
100
AcDbLine
62
7
6
CONTINUOUS
10
10.0037587295
20
6.0289768150
11
10.3977429157
21
6.0289768150
0
LINE
5
29E
100
AcDbEntity
8
0
100
AcDbLine
62
7
6
CONTINUOUS
10
-17.1920006741
20
8.0289768150
11
-16.7568149937
21
8.0289768150
0
LINE
5
29F
100
AcDbEntity
8
0
100
AcDbLine
62
7
6
CONTINUOUS
10
10.0523008250
20
8.0289768150
11
10.4874865054
21
8.0289768150
0
LINE
5
2A0
100
AcDbEntity
8
0
100
AcDbLine
62
7
6
CONTINUOUS
10
-17.2817442638
20
10.0289768150
11
-16.7663599818
21
10.0289768150
0
LINE
5
2A1
100
AcDbEntity
8
0
100
AcDbLine
62
7
6
CONTINUOUS
10
10.0618458132
20
10.0289768150
11
10.5772300952
21
10.0289768150
0
LINE
5
2A2
100
AcDbEntity
8
0
100
AcDbLine
62
7
6
CONTINUOUS
10
-17.3714878535
20
12.0289768150
11
-16.8108208274
21
12.0289768150
0
LINE
5
2A3
100
AcDbEntity
8
0
100
AcDbLine
62
7
6
CONTINUOUS
10
10.1063066588
20
12.0289768150
11
10.6669736849
21
12.0289768150
0
LINE
5
2A4
100
AcDbEntity
8
0
100
AcDbLine
62
7
6
CONTINUOUS
10
-17.4612314433
20
14.0289768150
11
-16.8122048088
21
14.0289768150
0
LINE
5
2A5
100
AcDbEntity
8
0
100
AcDbLine
62
7
6
CONTINUOUS
10
10.1076906402
20
14.0289768150
11
10.7567172747
21
14.0289768150
0
LINE
5
2A6
100
AcDbEntity
8
0
100
AcDbLine
62
7
6
CONTINUOUS
10
-17.5509750330
20
16.0289768150
11
-16.8529786512
21
16.0289768150
0
LINE
5
2A7
100
AcDbEntity
8
0
100
AcDbLine
62
7
6
CONTINUOUS
10
10.1484644825
20
16.0289768150
11
10.8464608644
21
16.0289768150
0
LINE
5
2A8
100
AcDbEntity
8
0
100
AcDbLine
62
7
6
CONTINUOUS
10
-17.6407186228
20
18.0289768150
11
-16.8467448841
21
18.0289768150
0
LINE
5
2A9
100
AcDbEntity
8
0
100
AcDbLine
62
7
6
CONTINUOUS
10
10.1422307155
20
18.0289768150
11
10.9362044541
21
18.0289768150
0
LINE
5
2AA
100
AcDbEntity
8
0
100
AcDbLine
62
7
6
CONTINUOUS
10
-17.7304622125
20
20.0289768150
11
-16.8841723456
21
20.0289768150
0
LINE
5
2AB
100
AcDbEntity
8
0
100
AcDbLine
62
7
6
CONTINUOUS
10
10.1796581769
20
20.0289768150
11
11.0259480439
21
20.0289768150
0
LINE
5
2AC
100
AcDbEntity
8
0
100
AcDbLine
62
7
6
CONTINUOUS
10
-17.8202058023
20
22.0289768150
11
-16.8707940494
21
22.0289768150
0
LINE
5
2AD
100
AcDbEntity
8
0
100
AcDbLine
62
7
6
CONTINUOUS
10
10.1662798808
20
22.0289768150
11
11.1156916336
21
22.0289768150
0
LINE
5
2AE
100
AcDbEntity
8
0
100
AcDbLine
62
7
6
CONTINUOUS
10
-17.9099493920
20
24.0289768150
11
-16.9051715799
21
24.0289768150
0
LINE
5
2AF
100
AcDbEntity
8
0
100
AcDbLine
62
7
6
CONTINUOUS
10
10.2006574112
20
24.0289768150
11
11.2054352234
21
24.0289768150
0
LINE
5
2B0
100
AcDbEntity
8
0
100
AcDbLine
62
7
6
CONTINUOUS
10
-17.9996929818
20
26.0289768150
11
-16.8850641102
21
26.0289768150
0
LINE
5
2B1
100
AcDbEntity
8
0
100
AcDbLine
62
7
6
CONTINUOUS
10
10.1805499415
20
26.0289768150
11
11.2951788131
21
26.0289768150
0
LINE
5
2B2
100
AcDbEntity
8
0
100
AcDbLine
62
7
6
CONTINUOUS
10
-18.0894365715
20
28.0289768150
11
-16.9166518451
21
28.0289768150
0
LINE
5
2B3
100
AcDbEntity
8
0
100
AcDbLine
62
7
6
CONTINUOUS
10
10.2121376764
20
28.0289768150
11
11.3849224029
21
28.0289768150
0
LINE
5
2B4
100
AcDbEntity
8
0
100
AcDbLine
62
7
6
CONTINUOUS
10
-18.1791801612
20
30.0289768150
11
-16.8901821845
21
30.0289768150
0
LINE
5
2B5
100
AcDbEntity
8
0
100
AcDbLine
62
7
6
CONTINUOUS
10
10.1856680159
20
30.0289768150
11
11.4746659926
21
30.0289768150
0
LINE
5
2B6
100
AcDbEntity
8
0
100
AcDbLine
62
7
6
CONTINUOUS
10
-18.2689237510
20
32.0289768150
11
-16.9192097192
21
32.0289768150
0
LINE
5
2B7
100
AcDbEntity
8
0
100
AcDbLine
62
7
6
CONTINUOUS
10
10.2146955506
20
32.0289768150
11
11.5644095823
21
32.0289768150
0
LINE
5
2B8
100
AcDbEntity
8
0
100
AcDbLine
62
7
6
CONTINUOUS
10
-18.3586673407
20
34.0289768150
11
-16.8867039646
21
34.0289768150
0
LINE
5
2B9
100
AcDbEntity
8
0
100
AcDbLine
62
7
6
CONTINUOUS
10
10.1821897960
20
34.0289768150
11
11.6541531721
21
34.0289768150
0
LINE
5
2BA
100
AcDbEntity
8
0
100
AcDbLine
62
7
6
CONTINUOUS
10
-18.4484109305
20
36.0289768150
11
-16.9133752512
21
36.0289768150
0
LINE
5
2BB
100
AcDbEntity
8
0
100
AcDbLine
62
7
6
CONTINUOUS
10
10.2088610826
20
36.0289768150
11
11.7438967618
21
36.0289768150
0
LINE
5
2BC
100
AcDbEntity
8
0
100
AcDbLine
62
7
6
CONTINUOUS
10
-18.8522570843
20
45.0289768150
11
12.1477429157
21
45.0289768150
0
LINE
5
2BD
100
AcDbEntity
8
0
100
AcDbLine
62
7
6
CONTINUOUS
10
-18.8567442638
20
45.1289768150
11
12.1522300952
21
45.1289768150
0
LINE
5
2BE
100
AcDbEntity
8
0
100
AcDbLine
62
7
6
CONTINUOUS
10
4.2977429157
20
80.1825666534
11
4.0977429157
21
80.5289768150
0
LINE
5
2BF
100
AcDbEntity
8
0
100
AcDbLine
62
7
6
CONTINUOUS
10
5.2977429157
20
80.1825666534
11
5.0977429157
21
80.5289768150
0
LINE
5
2C0
100
AcDbEntity
8
0
100
AcDbLine
62
7
6
CONTINUOUS
10
6.5477429157
20
80.1825666534
11
6.3477429157
21
80.5289768150
0
LINE
5
2C1
100
AcDbEntity
8
0
100
AcDbLine
62
7
6
CONTINUOUS
10
8.0477429157
20
80.1825666534
11
7.8477429157
21
80.5289768150
0
LINE
5
2C2
100
AcDbEntity
8
0
100
AcDbLine
62
9
6
CONTINUOUS
10
-19.1600160558
20
52.6289768150
11
-18.9047373762
21
52.6289768150
0
LINE
5
2C3
100
AcDbEntity
8
0
100
AcDbLine
62
9
6
CONTINUOUS
10
-18.3851298418
20
52.6289768150
11
-17.9201130044
21
52.6289768150
0
LINE
5
2C4
100
AcDbEntity
8
0
100
AcDbLine
62
9
6
CONTINUOUS
10
11.2155820553
20
52.6289768150
11
11.6805982369
21
52.6289768150
0
LINE
5
2C5
100
AcDbEntity
8
0
100
AcDbLine
62
9
6
CONTINUOUS
10
12.2002127016
20
52.6289768150
11
12.4554983054
21
52.6289768150
0
LINE
5
2C6
100
AcDbEntity
8
0
100
AcDbLine
62
9
6
CONTINUOUS
10
13.0663862818
20
66.3289768150
11
12.8111006780
21
66.3289768150
0
LINE
5
2C7
100
AcDbEntity
8
0
100
AcDbLine
62
9
6
CONTINUOUS
10
12.2516749976
20
66.3289768150
11
11.7867303240
21
66.3289768150
0
LINE
5
2C8
100
AcDbEntity
8
0
100
AcDbLine
62
9
6
CONTINUOUS
10
-18.4912620785
20
66.3289768150
11
-18.9562074078
21
66.3289768150
0
LINE
5
2C9
100
AcDbEntity
8
0
100
AcDbLine
62
9
6
CONTINUOUS
10
-19.5156256271
20
66.3289768150
11
-19.7709043067
21
66.3289768150
0
LINE
5
2CA
100
AcDbEntity
8
0
100
AcDbLine
62
9
6
CONTINUOUS
10
-19.9315015188
20
69.0807099271
11
13.2269873502
21
69.0807099271
0
LINE
5
2CB
100
AcDbEntity
8
0
100
AcDbLine
62
7
6
CONTINUOUS
10
8.6477429157
20
77.9387502498
11
8.1706548740
21
77.9387502498
0
LINE
5
2CC
100
AcDbEntity
8
0
100
AcDbLine
62
7
6
CONTINUOUS
10
-9.9415537313
20
79.5289768150
11
2.3219239405
21
79.5289768150
0
LINE
5
2CD
100
AcDbEntity
8
0
100
AcDbLine
62
7
6
CONTINUOUS
10
3.5477429157
20
80.5289768150
11
4.0977429157
21
80.5289768150
0
LINE
5
2CE
100
AcDbEntity
8
0
100
AcDbLine
62
7
6
CONTINUOUS
10
4.4977429157
20
80.5289768150
11
5.0977429157
21
80.5289768150
0
LINE
5
2CF
100
AcDbEntity
8
0
100
AcDbLine
62
7
6
CONTINUOUS
10
5.4977429157
20
80.5289768150
11
6.3477429157
21
80.5289768150
0
LINE
5
2D0
100
AcDbEntity
8
0
100
AcDbLine
62
7
6
CONTINUOUS
10
6.7477429157
20
80.5289768150
11
7.8477429157
21
80.5289768150
0
LINE
5
2D1
100
AcDbEntity
8
0
100
AcDbLine
62
7
6
CONTINUOUS
10
8.2477429157
20
80.5289768150
11
8.5474099300
21
80.5289768150
0
LINE
5
2D2
100
AcDbEntity
8
0
100
AcDbLine
62
9
6
CONTINUOUS
10
-72.9364754797
20
-95.2206385469
11
-70.8065748186
21
-95.2206385469
0
LINE
5
2D3
100
AcDbEntity
8
0
100
AcDbLine
62
9
6
CONTINUOUS
10
-66.0065748186
20
-95.2206385469
11
-63.8766741574
21
-95.2206385469
0
LINE
5
2D4
100
AcDbEntity
8
0
100
AcDbLine
62
9
6
CONTINUOUS
10
-70.8065748186
20
-94.4791484252
11
-66.0065748186
21
-94.4791484252
0
LINE
5
2D5
100
AcDbEntity
8
0
100
AcDbLine
62
7
6
CONTINUOUS
10
-72.4759728085
20
-91.9710231850
11
-70.8065748186
21
-91.9710231850
0
LINE
5
2D6
100
AcDbEntity
8
0
100
AcDbLine
62
7
6
CONTINUOUS
10
-66.0065748186
20
-91.9710231850
11
-64.3371768287
21
-91.9710231850
0
LINE
5
2D7
100
AcDbEntity
8
0
100
AcDbLine
62
7
6
CONTINUOUS
10
-66.0065748186
20
-89.9710231850
11
-70.8065748186
21
-89.9710231850
0
LINE
5
2D8
100
AcDbEntity
8
0
100
AcDbLine
62
7
6
CONTINUOUS
10
-63.7565748186
20
-80.6210231850
11
-64.3371768287
21
-80.6210231850
0
LINE
5
2D9
100
AcDbEntity
8
0
100
AcDbLine
62
7
6
CONTINUOUS
10
-72.4759728085
20
-80.6210231850
11
-73.0565748186
21
-80.6210231850
0
LINE
5
2DA
100
AcDbEntity
8
0
100
AcDbLine
62
7
6
CONTINUOUS
10
-64.4065748186
20
-79.9710231850
11
-65.0993856798
21
-79.9710231850
0
LINE
5
2DB
100
AcDbEntity
8
0
100
AcDbLine
62
7
6
CONTINUOUS
10
-71.7137639574
20
-79.9710231850
11
-72.4065748186
21
-79.9710231850
0
LINE
5
2DC
100
AcDbEntity
8
0
100
AcDbLine
62
7
6
CONTINUOUS
10
-61.6565748186
20
-77.9710231850
11
-75.1565748186
21
-77.9710231850
0
LINE
5
2DD
100
AcDbEntity
8
0
100
AcDbLine
62
9
6
CONTINUOUS
10
-60.6565748186
20
-76.9710231850
11
-76.1565748186
21
-76.9710231850
0
LINE
5
2DE
100
AcDbEntity
8
0
100
AcDbLine
62
7
6
CONTINUOUS
10
-58.1329832066
20
-59.4710231850
11
-78.6801664305
21
-59.4710231850
0
LINE
5
2DF
100
AcDbEntity
8
0
100
AcDbLine
62
9
6
CONTINUOUS
10
-58.6773942818
20
-56.1998207522
11
-78.1357553554
21
-56.1998207522
0
LINE
5
2E0
100
AcDbEntity
8
0
100
AcDbLine
62
7
6
CONTINUOUS
10
-64.4065748186
20
-79.9710231850
11
-63.7565748186
21
-80.6210231850
0
LINE
5
2E1
100
AcDbEntity
8
0
100
AcDbLine
62
7
6
CONTINUOUS
10
-53.9065748186
20
-35.9710231850
11
-82.9065748186
21
-35.9710231850
0
LINE
5
2E2
100
AcDbEntity
8
0
100
AcDbLine
62
7
6
CONTINUOUS
10
-82.9065748186
20
-32.9710231850
11
-53.9065748186
21
-32.9710231850
0
LINE
5
2E3
100
AcDbEntity
8
0
100
AcDbLine
62
7
6
CONTINUOUS
10
-73.7815748186
20
-29.9710231850
11
-63.0315748186
21
-29.9710231850
0
LINE
5
2E4
100
AcDbEntity
8
0
100
AcDbLine
62
7
6
CONTINUOUS
10
-83.9110619981
20
45.1289768150
11
-84.9858192531
21
69.0807099271
0
LINE
5
2E5
100
AcDbEntity
8
0
100
AcDbLine
62
7
6
CONTINUOUS
10
-82.4065748186
20
-32.9710231850
11
-83.9314886874
21
45.0289768150
0
LINE
5
2E6
100
AcDbEntity
8
0
100
AcDbLine
62
7
6
CONTINUOUS
10
-81.9800407766
20
-56.1998207522
11
-82.1565748186
21
-35.9710231850
0
LINE
5
2E7
100
AcDbEntity
8
0
100
AcDbLine
62
9
6
CONTINUOUS
10
-82.9065748186
20
-32.9710231850
11
-82.9065748186
21
-35.9710231850
0
LINE
5
2E8
100
AcDbEntity
8
0
100
AcDbLine
62
7
6
CONTINUOUS
10
-80.9065748186
20
45.0289768150
11
-80.9065748186
21
45.1289768150
0
LINE
5
2E9
100
AcDbEntity
8
0
100
AcDbLine
62
7
6
CONTINUOUS
10
-63.0315748186
20
-27.9710231850
11
-73.7815748186
21
-27.9710231850
0
LINE
5
2EA
100
AcDbEntity
8
0
100
AcDbLine
62
7
6
CONTINUOUS
10
-73.9065748186
20
-25.9710231850
11
-62.9065748186
21
-25.9710231850
0
LINE
5
2EB
100
AcDbEntity
8
0
100
AcDbLine
62
7
6
CONTINUOUS
10
-62.9065748186
20
-23.9710231850
11
-73.9065748186
21
-23.9710231850
0
LINE
5
2EC
100
AcDbEntity
8
0
100
AcDbLine
62
9
6
CONTINUOUS
10
-78.1357553554
20
-59.4710231850
11
-78.1357553480
21
-56.1998207522
0
LINE
5
2ED
100
AcDbEntity
8
0
100
AcDbLine
62
7
6
CONTINUOUS
10
-76.1565748186
20
-59.4710231850
11
-76.1565748186
21
-76.9710231850
0
LINE
5
2EE
100
AcDbEntity
8
0
100
AcDbLine
62
7
6
CONTINUOUS
10
-74.0315748186
20
-21.9710231850
11
-62.7815748186
21
-21.9710231850
0
LINE
5
2EF
100
AcDbEntity
8
0
100
AcDbLine
62
7
6
CONTINUOUS
10
-62.7815748186
20
-19.9710231850
11
-74.0315748186
21
-19.9710231850
0
LINE
5
2F0
100
AcDbEntity
8
0
100
AcDbLine
62
7
6
CONTINUOUS
10
-74.1565748186
20
-17.9710231850
11
-62.6565748186
21
-17.9710231850
0
LINE
5
2F1
100
AcDbEntity
8
0
100
AcDbLine
62
7
6
CONTINUOUS
10
-73.0565748186
20
-80.6210231850
11
-73.0565748186
21
-100.7096991829
0
LINE
5
2F2
100
AcDbEntity
8
0
100
AcDbLine
62
7
6
CONTINUOUS
10
-72.9364754797
20
-95.2206385469
11
-72.9364754797
21
-100.7452745259
0
LINE
5
2F3
100
AcDbEntity
8
0
100
AcDbLine
62
7
6
CONTINUOUS
10
-72.4759728085
20
-80.6210231850
11
-72.4759728085
21
-91.9710231850
0
LINE
5
2F4
100
AcDbEntity
8
0
100
AcDbLine
62
7
6
CONTINUOUS
10
-72.4065748186
20
-77.9710231850
11
-72.4065748186
21
-79.9710231850
0
LINE
5
2F5
100
AcDbEntity
8
0
100
AcDbLine
62
7
6
CONTINUOUS
10
-71.7565748186
20
77.9387502498
11
-71.7565748186
21
79.5289768150
0
LINE
5
2F6
100
AcDbEntity
8
0
100
AcDbLine
62
7
6
CONTINUOUS
10
-71.7137639574
20
-77.9710231850
11
-71.7137639574
21
-79.9710231850
0
LINE
5
2F7
100
AcDbEntity
8
0
100
AcDbLine
62
7
6
CONTINUOUS
10
-71.6565748186
20
77.9387502498
11
-71.6565748186
21
80.5289768150
0
LINE
5
2F8
100
AcDbEntity
8
0
100
AcDbLine
62
7
6
CONTINUOUS
10
-70.8065748186
20
-89.9710231850
11
-70.8065748186
21
-101.2710231850
0
LINE
5
2F9
100
AcDbEntity
8
0
100
AcDbLine
62
7
6
CONTINUOUS
10
-69.2065748186
20
-97.7710231850
11
-69.2065748186
21
-101.4489373995
0
LINE
5
2FA
100
AcDbEntity
8
0
100
AcDbLine
62
7
6
CONTINUOUS
10
-67.6065748186
20
-101.4489373995
11
-67.6065748186
21
-97.7710231850
0
LINE
5
2FB
100
AcDbEntity
8
0
100
AcDbLine
62
9
6
CONTINUOUS
10
-75.4261975634
20
-32.9710231850
11
-68.4749390510
21
45.0289768150
0
LINE
5
2FC
100
AcDbEntity
8
0
100
AcDbLine
62
9
6
CONTINUOUS
10
-78.1357553554
20
-56.1998207522
11
-76.1623671844
21
-35.9710231850
0
LINE
5
2FD
100
AcDbEntity
8
0
100
AcDbLine
62
7
6
CONTINUOUS
10
-62.6565748186
20
-15.9710231850
11
-74.1565748186
21
-15.9710231850
0
LINE
5
2FE
100
AcDbEntity
8
0
100
AcDbLine
62
7
6
CONTINUOUS
10
-74.2815748186
20
-13.9710231850
11
-62.5315748186
21
-13.9710231850
0
LINE
5
2FF
100
AcDbEntity
8
0
100
AcDbLine
62
7
6
CONTINUOUS
10
-62.5315748186
20
-11.9710231850
11
-74.2815748186
21
-11.9710231850
0
LINE
5
300
100
AcDbEntity
8
0
100
AcDbLine
62
9
6
CONTINUOUS
10
-58.6773942818
20
-56.1998207522
11
-60.6507824528
21
-35.9710231850
0
LINE
5
301
100
AcDbEntity
8
0
100
AcDbLine
62
9
6
CONTINUOUS
10
-68.3382105862
20
45.0289768150
11
-61.3869520737
21
-32.9710231850
0
LINE
5
302
100
AcDbEntity
8
0
100
AcDbLine
62
7
6
CONTINUOUS
10
-66.0065748186
20
-89.9710231850
11
-66.0065748186
21
-102.4710231850
0
LINE
5
303
100
AcDbEntity
8
0
100
AcDbLine
62
7
6
CONTINUOUS
10
-65.1565748186
20
77.9387502498
11
-65.1565748186
21
80.5289768150
0
LINE
5
304
100
AcDbEntity
8
0
100
AcDbLine
62
7
6
CONTINUOUS
10
-65.0993856798
20
-77.9710231850
11
-65.0993856798
21
-79.9710231850
0
LINE
5
305
100
AcDbEntity
8
0
100
AcDbLine
62
7
6
CONTINUOUS
10
-65.0565748186
20
79.5289768150
11
-65.0565748186
21
77.9387502498
0
LINE
5
306
100
AcDbEntity
8
0
100
AcDbLine
62
7
6
CONTINUOUS
10
-64.4065748186
20
-77.9710231850
11
-64.4065748186
21
-79.9710231850
0
LINE
5
307
100
AcDbEntity
8
0
100
AcDbLine
62
7
6
CONTINUOUS
10
-64.3371768287
20
-80.6210231850
11
-64.3371768287
21
-91.9710231850
0
LINE
5
308
100
AcDbEntity
8
0
100
AcDbLine
62
7
6
CONTINUOUS
10
-63.8766741574
20
-95.2206385469
11
-63.8766741574
21
-100.5777781529
0
LINE
5
309
100
AcDbEntity
8
0
100
AcDbLine
62
7
6
CONTINUOUS
10
-63.7565748186
20
-80.6210231850
11
-63.7565748186
21
-100.4827623399
0
LINE
5
30A
100
AcDbEntity
8
0
100
AcDbLine
62
7
6
CONTINUOUS
10
-74.4065748186
20
-9.9710231850
11
-62.4065748186
21
-9.9710231850
0
LINE
5
30B
100
AcDbEntity
8
0
100
AcDbLine
62
7
6
CONTINUOUS
10
-62.4065748186
20
-7.9710231850
11
-74.4065748186
21
-7.9710231850
0
LINE
5
30C
100
AcDbEntity
8
0
100
AcDbLine
62
7
6
CONTINUOUS
10
-74.5315748186
20
-5.9710231850
11
-62.2815748186
21
-5.9710231850
0
LINE
5
30D
100
AcDbEntity
8
0
100
AcDbLine
62
7
6
CONTINUOUS
10
-74.5315748186
20
-3.9710231850
11
-62.2815748186
21
-3.9710231850
0
LINE
5
30E
100
AcDbEntity
8
0
100
AcDbLine
62
7
6
CONTINUOUS
10
-60.6565748186
20
-59.4710231850
11
-60.6565748186
21
-76.9710231850
0
LINE
5
30F
100
AcDbEntity
8
0
100
AcDbLine
62
9
6
CONTINUOUS
10
-58.6773942818
20
-59.4710231850
11
-58.6773942818
21
-56.1998207522
0
LINE
5
310
100
AcDbEntity
8
0
100
AcDbLine
62
7
6
CONTINUOUS
10
-55.9065748186
20
45.0289768150
11
-55.9065748186
21
45.1289768150
0
LINE
5
311
100
AcDbEntity
8
0
100
AcDbLine
62
7
6
CONTINUOUS
10
-52.9020876391
20
45.1289768150
11
-51.8273303841
21
69.0807099271
0
LINE
5
312
100
AcDbEntity
8
0
100
AcDbLine
62
7
6
CONTINUOUS
10
-74.6565748186
20
-1.9710231850
11
-62.1565748186
21
-1.9710231850
0
LINE
5
313
100
AcDbEntity
8
0
100
AcDbLine
62
7
6
CONTINUOUS
10
-74.6565748186
20
0.0289768150
11
-62.1565748186
21
0.0289768150
0
LINE
5
314
100
AcDbEntity
8
0
100
AcDbLine
62
7
6
CONTINUOUS
10
-74.7815748186
20
2.0289768150
11
-62.0315748186
21
2.0289768150
0
LINE
5
315
100
AcDbEntity
8
0
100
AcDbLine
62
9
6
CONTINUOUS
10
-53.9065748186
20
-32.9710231850
11
-53.9065748186
21
-35.9710231850
0
LINE
5
316
100
AcDbEntity
8
0
100
AcDbLine
62
7
6
CONTINUOUS
10
-54.8331088605
20
-56.1998207522
11
-54.6565748186
21
-35.9710231850
0
LINE
5
317
100
AcDbEntity
8
0
100
AcDbLine
62
7
6
CONTINUOUS
10
-52.8816609498
20
45.0289768150
11
-54.4065748186
21
-32.9710231850
0
LINE
5
318
100
AcDbEntity
8
0
100
AcDbLine
62
7
6
CONTINUOUS
10
-74.7815748186
20
4.0289768150
11
-62.0315748186
21
4.0289768150
0
LINE
5
319
100
AcDbEntity
8
0
100
AcDbLine
62
7
6
CONTINUOUS
10
-74.9065748186
20
6.0289768150
11
-61.9065748186
21
6.0289768150
0
LINE
5
31A
100
AcDbEntity
8
0
100
AcDbLine
62
7
6
CONTINUOUS
10
-74.9065748186
20
8.0289768150
11
-61.9065748186
21
8.0289768150
0
LINE
5
31B
100
AcDbEntity
8
0
100
AcDbLine
62
7
6
CONTINUOUS
10
-75.0315748186
20
10.0289768150
11
-61.7815748186
21
10.0289768150
0
LINE
5
31C
100
AcDbEntity
8
0
100
AcDbLine
62
7
6
CONTINUOUS
10
-75.0315748186
20
12.0289768150
11
-61.7815748186
21
12.0289768150
0
LINE
5
31D
100
AcDbEntity
8
0
100
AcDbLine
62
7
6
CONTINUOUS
10
-75.1565748186
20
14.0289768150
11
-61.6565748186
21
14.0289768150
0
LINE
5
31E
100
AcDbEntity
8
0
100
AcDbLine
62
7
6
CONTINUOUS
10
-75.1565749342
20
16.0289768150
11
-61.6565748186
21
16.0289768150
0
LINE
5
31F
100
AcDbEntity
8
0
100
AcDbLine
62
7
6
CONTINUOUS
10
-75.2815748186
20
18.0289768150
11
-61.5315748186
21
18.0289768150
0
LINE
5
320
100
AcDbEntity
8
0
100
AcDbLine
62
7
6
CONTINUOUS
10
-75.2815748186
20
20.0289768150
11
-61.5315748186
21
20.0289768150
0
LINE
5
321
100
AcDbEntity
8
0
100
AcDbLine
62
7
6
CONTINUOUS
10
-75.4065747588
20
22.0289768150
11
-61.4065748186
21
22.0289768150
0
LINE
5
322
100
AcDbEntity
8
0
100
AcDbLine
62
7
6
CONTINUOUS
10
-75.4065748186
20
24.0289768150
11
-61.4065748186
21
24.0289768150
0
LINE
5
323
100
AcDbEntity
8
0
100
AcDbLine
62
7
6
CONTINUOUS
10
-75.5315748186
20
26.0289768150
11
-61.2815748186
21
26.0289768150
0
LINE
5
324
100
AcDbEntity
8
0
100
AcDbLine
62
7
6
CONTINUOUS
10
-75.5315748186
20
28.0289768150
11
-61.2815748186
21
28.0289768150
0
LINE
5
325
100
AcDbEntity
8
0
100
AcDbLine
62
7
6
CONTINUOUS
10
-75.6565748186
20
30.0289768150
11
-61.1565748186
21
30.0289768150
0
LINE
5
326
100
AcDbEntity
8
0
100
AcDbLine
62
7
6
CONTINUOUS
10
-75.6565748186
20
32.0289768150
11
-61.1565748186
21
32.0289768150
0
LINE
5
327
100
AcDbEntity
8
0
100
AcDbLine
62
7
6
CONTINUOUS
10
-72.4065748186
20
-79.9710231850
11
-73.0565748186
21
-80.6210231850
0
LINE
5
328
100
AcDbEntity
8
0
100
AcDbLine
62
7
6
CONTINUOUS
10
-75.7815748186
20
34.0289768150
11
-61.0315748186
21
34.0289768150
0
LINE
5
329
100
AcDbEntity
8
0
100
AcDbLine
62
7
6
CONTINUOUS
10
-75.7815748186
20
36.0289768150
11
-61.0315748186
21
36.0289768150
0
LINE
5
32A
100
AcDbEntity
8
0
100
AcDbLine
62
7
6
CONTINUOUS
10
-83.9314886874
20
45.0289768150
11
-52.8816609498
21
45.0289768150
0
LINE
5
32B
100
AcDbEntity
8
0
100
AcDbLine
62
7
6
CONTINUOUS
10
-52.9025102459
20
45.1289768150
11
-83.9106393913
21
45.1289768150
0
LINE
5
32C
100
AcDbEntity
8
0
100
AcDbLine
62
9
6
CONTINUOUS
10
-65.4608646337
20
52.6289768150
11
-65.3968488960
21
52.6289768150
0
LINE
5
32D
100
AcDbEntity
8
0
100
AcDbLine
62
9
6
CONTINUOUS
10
-61.7450010221
20
52.6289768150
11
-61.5571239125
21
52.6289768150
0
LINE
5
32E
100
AcDbEntity
8
0
100
AcDbLine
62
9
6
CONTINUOUS
10
-71.3523375555
20
52.6289768150
11
-71.4163550295
21
52.6289768150
0
LINE
5
32F
100
AcDbEntity
8
0
100
AcDbLine
62
9
6
CONTINUOUS
10
-75.0681968512
20
52.6289768150
11
-75.2560755840
21
52.6289768150
0
LINE
5
330
100
AcDbEntity
8
0
100
AcDbLine
62
7
6
CONTINUOUS
10
-63.7564197691
20
-100.4708853633
11
-66.0065748186
21
-102.4710231850
0
LINE
5
331
100
AcDbEntity
8
0
100
AcDbLine
62
9
6
CONTINUOUS
10
-75.4868055723
20
66.3289768150
11
-75.2989557306
21
66.3289768150
0
LINE
5
332
100
AcDbEntity
8
0
100
AcDbLine
62
9
6
CONTINUOUS
10
-71.4949735662
20
66.3289768150
11
-71.4309659364
21
66.3289768150
0
LINE
5
333
100
AcDbEntity
8
0
100
AcDbLine
62
9
6
CONTINUOUS
10
-61.3263959177
20
66.3289768150
11
-61.5142441364
21
66.3289768150
0
LINE
5
334
100
AcDbEntity
8
0
100
AcDbLine
62
9
6
CONTINUOUS
10
-65.3182324918
20
66.3289768150
11
-65.3822383854
21
66.3289768150
0
LINE
5
335
100
AcDbEntity
8
0
100
AcDbLine
62
9
6
CONTINUOUS
10
-51.8273303841
20
69.0807099271
11
-84.9858192531
21
69.0807099271
0
LINE
5
336
100
AcDbEntity
8
0
100
AcDbLine
62
7
6
CONTINUOUS
10
-65.0565748186
20
77.9387502498
11
-71.7565748186
21
77.9387502498
0
LINE
5
337
100
AcDbEntity
8
0
100
AcDbLine
62
7
6
CONTINUOUS
10
-74.9957036511
20
79.5289768150
11
-71.6565748186
21
79.5289768150
0
LINE
5
338
100
AcDbEntity
8
0
100
AcDbLine
62
7
6
CONTINUOUS
10
-65.1565748186
20
79.5289768150
11
-61.8172781716
21
79.5289768150
0
LINE
5
339
100
AcDbEntity
8
0
100
AcDbLine
62
7
6
CONTINUOUS
10
-71.6565748186
20
80.5289768150
11
-65.1565748186
21
80.5289768150
0
ARC
5
33A
100
AcDbEntity
8
0
100
AcDbCircle
62
7
6
CONTINUOUS
10
-10.1022570843
20
-76.9710231850
40
1.0000000000
100
AcDbArc
50
180.0000000000
51
270.0000000000
0
ARC
5
33B
100
AcDbEntity
8
0
100
AcDbCircle
62
7
6
CONTINUOUS
10
3.3977429157
20
-76.9710231850
40
1.0000000000
100
AcDbArc
50
270.0000000000
51
360.0000000000
0
ARC
5
33C
100
AcDbEntity
8
0
100
AcDbCircle
62
7
6
CONTINUOUS
10
-9.9415537313
20
69.5289768150
40
10.0000000000
100
AcDbArc
50
90.0000000000
51
182.5692410201
0
ARC
5
33D
100
AcDbEntity
8
0
100
AcDbCircle
62
7
6
CONTINUOUS
10
3.2370395627
20
69.5289768150
40
10.0000000000
100
AcDbArc
50
357.4307589799
51
57.2434690306
0
ARC
5
33E
100
AcDbEntity
8
0
100
AcDbCircle
62
7
6
CONTINUOUS
10
2.6977429157
20
-95.2206385469
40
5.0000000000
100
AcDbArc
50
139.4641978887
51
180.0000000000
0
ARC
5
33F
100
AcDbEntity
8
0
100
AcDbCircle
62
7
6
CONTINUOUS
10
-9.4022570843
20
-95.2206385469
40
5.0000000000
100
AcDbArc
50
0.0000000000
51
40.5358021113
0
ARC
5
340
100
AcDbEntity
8
0
100
AcDbCircle
62
7
6
CONTINUOUS
10
-11.1258486963
20
-56.1710231850
40
3.3000000000
100
AcDbArc
50
180.5000000000
51
270.0000000000
0
ARC
5
341
100
AcDbEntity
8
0
100
AcDbCircle
62
7
6
CONTINUOUS
10
4.4213266523
20
-56.1710231850
40
3.3000000000
100
AcDbArc
50
270.0001367342
51
359.5000011931
0
ARC
5
342
100
AcDbEntity
8
0
100
AcDbCircle
62
7
6
CONTINUOUS
10
-15.8522570843
20
-34.4710231850
40
1.5000000000
100
AcDbArc
50
90.0000000000
51
270.0000000000
0
ARC
5
343
100
AcDbEntity
8
0
100
AcDbCircle
62
7
6
CONTINUOUS
10
9.1477429157
20
-34.4710231850
40
1.5000000000
100
AcDbArc
50
270.0000000000
51
90.0000000000
0
ARC
5
344
100
AcDbEntity
8
0
100
AcDbCircle
62
7
6
CONTINUOUS
10
-61.6565748186
20
-76.9710231850
40
1.0000000000
100
AcDbArc
50
270.0000000000
51
360.0000000000
0
ARC
5
345
100
AcDbEntity
8
0
100
AcDbCircle
62
7
6
CONTINUOUS
10
-75.1565748186
20
-76.9710231850
40
1.0000000000
100
AcDbArc
50
180.0000000000
51
270.0000000000
0
ARC
5
346
100
AcDbEntity
8
0
100
AcDbCircle
62
7
6
CONTINUOUS
10
-61.8172781716
20
69.5289768150
40
10.0000000000
100
AcDbArc
50
357.4307589799
51
90.0000000000
0
ARC
5
347
100
AcDbEntity
8
0
100
AcDbCircle
62
7
6
CONTINUOUS
10
-74.9958714656
20
69.5289768150
40
10.0000000000
100
AcDbArc
50
90.0000000000
51
182.5692410201
0
ARC
5
348
100
AcDbEntity
8
0
100
AcDbCircle
62
7
6
CONTINUOUS
10
-68.4065748186
20
-86.9710231850
40
14.5000000000
100
AcDbArc
50
273.1627524092
51
279.5272833815
0
ARC
5
349
100
AcDbEntity
8
0
100
AcDbCircle
62
7
6
CONTINUOUS
10
-68.4065748186
20
-97.7710231850
40
0.8000000000
100
AcDbArc
50
0.0000000000
51
180.0000000000
0
CIRCLE
5
34A
100
AcDbEntity
8
0
100
AcDbCircle
62
7
6
CONTINUOUS
10
-68.4065748186
20
-86.9710231850
40
2.1500000000
0
ARC
5
34B
100
AcDbEntity
8
0
100
AcDbCircle
62
7
6
CONTINUOUS
10
-73.7815748186
20
-28.9710231850
40
1.0000000000
100
AcDbArc
50
90.0000000000
51
270.0000000000
0
ARC
5
34C
100
AcDbEntity
8
0
100
AcDbCircle
62
7
6
CONTINUOUS
10
-63.0315748186
20
-28.9710231850
40
1.0000000000
100
AcDbArc
50
270.0000000000
51
90.0000000000
0
ARC
5
34D
100
AcDbEntity
8
0
100
AcDbCircle
62
7
6
CONTINUOUS
10
-68.4065748186
20
-86.9710231850
40
14.5000000000
100
AcDbArc
50
251.2954340063
51
266.8372475908
0
ARC
5
34E
100
AcDbEntity
8
0
100
AcDbCircle
62
7
6
CONTINUOUS
10
-58.1329832066
20
-56.1710231850
40
3.3000000000
100
AcDbArc
50
270.0000000000
51
359.5000000000
0
ARC
5
34F
100
AcDbEntity
8
0
100
AcDbCircle
62
7
6
CONTINUOUS
10
-78.6801664305
20
-56.1710231850
40
3.3000000000
100
AcDbArc
50
180.5000000000
51
270.0000000000
0
ARC
5
350
100
AcDbEntity
8
0
100
AcDbCircle
62
7
6
CONTINUOUS
10
-53.9065748186
20
-34.4710231850
40
1.5000000000
100
AcDbArc
50
270.0000000000
51
90.0000000000
0
ARC
5
351
100
AcDbEntity
8
0
100
AcDbCircle
62
7
6
CONTINUOUS
10
-82.9065748186
20
-34.4710231850
40
1.5000000000
100
AcDbArc
50
90.0000000000
51
270.0000000000
0
ARC
5
352
100
AcDbEntity
8
0
100
AcDbCircle
62
7
6
CONTINUOUS
10
-62.9065748186
20
-24.9710231850
40
1.0000000000
100
AcDbArc
50
270.0000000000
51
90.0000000000
0
ARC
5
353
100
AcDbEntity
8
0
100
AcDbCircle
62
7
6
CONTINUOUS
10
-62.7815748186
20
-20.9710231850
40
1.0000000000
100
AcDbArc
50
270.0000000000
51
90.0000000000
0
ARC
5
354
100
AcDbEntity
8
0
100
AcDbCircle
62
7
6
CONTINUOUS
10
-62.6565748186
20
-16.9710231850
40
1.0000000000
100
AcDbArc
50
270.0000000000
51
90.0000000000
0
ARC
5
355
100
AcDbEntity
8
0
100
AcDbCircle
62
7
6
CONTINUOUS
10
-62.5315748186
20
-12.9710231850
40
1.0000000000
100
AcDbArc
50
270.0000000000
51
90.0000000000
0
ARC
5
356
100
AcDbEntity
8
0
100
AcDbCircle
62
7
6
CONTINUOUS
10
-62.4065748186
20
-8.9710231850
40
1.0000000000
100
AcDbArc
50
270.0000000000
51
90.0000000000
0
ARC
5
357
100
AcDbEntity
8
0
100
AcDbCircle
62
7
6
CONTINUOUS
10
-62.2815748186
20
-4.9710231850
40
1.0000000000
100
AcDbArc
50
270.0000000000
51
90.0000000000
0
ARC
5
358
100
AcDbEntity
8
0
100
AcDbCircle
62
7
6
CONTINUOUS
10
-62.1565748186
20
-0.9710231850
40
1.0000000000
100
AcDbArc
50
270.0000000000
51
90.0000000000
0
ARC
5
359
100
AcDbEntity
8
0
100
AcDbCircle
62
7
6
CONTINUOUS
10
-62.0315748186
20
3.0289768150
40
1.0000000000
100
AcDbArc
50
270.0000000000
51
90.0000000000
0
ARC
5
35A
100
AcDbEntity
8
0
100
AcDbCircle
62
7
6
CONTINUOUS
10
-61.9065748186
20
7.0289768150
40
1.0000000000
100
AcDbArc
50
270.0000000000
51
90.0000000000
0
ARC
5
35B
100
AcDbEntity
8
0
100
AcDbCircle
62
7
6
CONTINUOUS
10
-61.7815748186
20
11.0289768150
40
1.0000000000
100
AcDbArc
50
270.0000000000
51
90.0000000000
0
ARC
5
35C
100
AcDbEntity
8
0
100
AcDbCircle
62
7
6
CONTINUOUS
10
-61.6565748186
20
15.0289768150
40
1.0000000000
100
AcDbArc
50
270.0000000000
51
90.0000000000
0
ARC
5
35D
100
AcDbEntity
8
0
100
AcDbCircle
62
7
6
CONTINUOUS
10
-61.5315748186
20
19.0289768150
40
1.0000000000
100
AcDbArc
50
270.0000000000
51
90.0000000000
0
ARC
5
35E
100
AcDbEntity
8
0
100
AcDbCircle
62
7
6
CONTINUOUS
10
-61.4065748186
20
23.0289768150
40
1.0000000000
100
AcDbArc
50
270.0000000000
51
90.0000000000
0
ARC
5
35F
100
AcDbEntity
8
0
100
AcDbCircle
62
7
6
CONTINUOUS
10
-61.2815748186
20
27.0289768150
40
1.0000000000
100
AcDbArc
50
270.0000000000
51
90.0000000000
0
ARC
5
360
100
AcDbEntity
8
0
100
AcDbCircle
62
7
6
CONTINUOUS
10
-61.1565748186
20
31.0289768150
40
1.0000000000
100
AcDbArc
50
270.0000000000
51
90.0000000000
0
ARC
5
361
100
AcDbEntity
8
0
100
AcDbCircle
62
7
6
CONTINUOUS
10
-61.0315748186
20
35.0289768150
40
1.0000000000
100
AcDbArc
50
270.0000000000
51
90.0000000000
0
ARC
5
362
100
AcDbEntity
8
0
100
AcDbCircle
62
7
6
CONTINUOUS
10
-75.7815748186
20
35.0289768150
40
1.0000000000
100
AcDbArc
50
90.0000000000
51
270.0000000000
0
ARC
5
363
100
AcDbEntity
8
0
100
AcDbCircle
62
7
6
CONTINUOUS
10
-75.6565748186
20
31.0289768150
40
1.0000000000
100
AcDbArc
50
90.0000000000
51
270.0000000000
0
ARC
5
364
100
AcDbEntity
8
0
100
AcDbCircle
62
7
6
CONTINUOUS
10
-75.5315748186
20
27.0289768150
40
1.0000000000
100
AcDbArc
50
90.0000000000
51
270.0000000000
0
ARC
5
365
100
AcDbEntity
8
0
100
AcDbCircle
62
7
6
CONTINUOUS
10
-75.4065748186
20
23.0289768150
40
1.0000000000
100
AcDbArc
50
90.0000000000
51
270.0000034245
0
ARC
5
366
100
AcDbEntity
8
0
100
AcDbCircle
62
7
6
CONTINUOUS
10
-75.2815748186
20
19.0289768150
40
1.0000000000
100
AcDbArc
50
90.0000000000
51
270.0000000000
0
ARC
5
367
100
AcDbEntity
8
0
100
AcDbCircle
62
7
6
CONTINUOUS
10
-75.1565748186
20
15.0289768150
40
1.0000000000
100
AcDbArc
50
90.0000066216
51
270.0000000000
0
ARC
5
368
100
AcDbEntity
8
0
100
AcDbCircle
62
7
6
CONTINUOUS
10
-75.0315748186
20
11.0289768150
40
1.0000000000
100
AcDbArc
50
90.0000000000
51
270.0000000000
0
ARC
5
369
100
AcDbEntity
8
0
100
AcDbCircle
62
7
6
CONTINUOUS
10
-74.9065748186
20
7.0289768150
40
1.0000000000
100
AcDbArc
50
90.0000000000
51
270.0000000000
0
ARC
5
36A
100
AcDbEntity
8
0
100
AcDbCircle
62
7
6
CONTINUOUS
10
-74.7815748186
20
3.0289768150
40
1.0000000000
100
AcDbArc
50
90.0000000000
51
270.0000000000
0
ARC
5
36B
100
AcDbEntity
8
0
100
AcDbCircle
62
7
6
CONTINUOUS
10
-74.6565748186
20
-0.9710231850
40
1.0000000000
100
AcDbArc
50
90.0000000000
51
270.0000000000
0
ARC
5
36C
100
AcDbEntity
8
0
100
AcDbCircle
62
7
6
CONTINUOUS
10
-74.5315748186
20
-4.9710231850
40
1.0000000000
100
AcDbArc
50
90.0000000000
51
270.0000000000
0
ARC
5
36D
100
AcDbEntity
8
0
100
AcDbCircle
62
7
6
CONTINUOUS
10
-74.4065748186
20
-8.9710231850
40
1.0000000000
100
AcDbArc
50
90.0000000000
51
270.0000000000
0
ARC
5
36E
100
AcDbEntity
8
0
100
AcDbCircle
62
7
6
CONTINUOUS
10
-74.2815748186
20
-12.9710231850
40
1.0000000000
100
AcDbArc
50
90.0000000000
51
270.0000000000
0
ARC
5
36F
100
AcDbEntity
8
0
100
AcDbCircle
62
7
6
CONTINUOUS
10
-74.1565748186
20
-16.9710231850
40
1.0000000000
100
AcDbArc
50
90.0000000000
51
270.0000000000
0
ARC
5
370
100
AcDbEntity
8
0
100
AcDbCircle
62
7
6
CONTINUOUS
10
-74.0315748186
20
-20.9710231850
40
1.0000000000
100
AcDbArc
50
90.0000000000
51
270.0000000000
0
ARC
5
371
100
AcDbEntity
8
0
100
AcDbCircle
62
7
6
CONTINUOUS
10
-73.9065748186
20
-24.9710231850
40
1.0000000000
100
AcDbArc
50
90.0000000000
51
270.0000000000
0
SPLINE
5
372
100
AcDbEntity
8
0
100
AcDbSpline
62
7
6
CONTINUOUS
70
0
71
3
72
8
73
4
74
2
42
0.0000001000
43
0.0000001000
44
0.0000000001
12
0.0262220034
22
-0.0003041612
32
0.0000000000
13
0.0261115467
23
-0.0039057068
33
0.0000000000
40
0.0000000000
40
0.0000000000
40
0.0000000000
40
0.0000000000
40
1.0000000000
40
1.0000000000
40
1.0000000000
40
1.0000000000
10
-18.6513681951
20
67.3259897334
30
0.0000000000
10
-18.6426275273
20
67.3258883463
30
0.0000000000
10
-18.6338402965
20
67.3251668757
30
0.0000000000
10
-18.6251364476
20
67.3238649734
30
0.0000000000
11
-18.6513681951
21
67.3259897334
31
0.0000000000
11
-18.6251364476
21
67.3238649734
31
0.0000000000
0
SPLINE
5
373
100
AcDbEntity
8
0
100
AcDbSpline
62
7
6
CONTINUOUS
70
0
71
3
72
10
73
6
74
4
42
0.0000001000
43
0.0000001000
44
0.0000000001
12
0.4893310756
22
-0.0731930480
32
0.0000000000
13
0.1729722874
23
-0.4421079482
33
0.0000000000
40
0.0000000000
40
0.0000000000
40
0.0000000000
40
0.0000000000
40
0.0943901057
40
0.4702105443
40
1.0000000000
40
1.0000000000
40
1.0000000000
40
1.0000000000
10
-18.6251364476
20
67.3238649734
30
0.0000000000
10
-18.6097404436
20
67.3215620736
30
0.0000000000
10
-18.5343438977
20
67.3010429066
30
0.0000000000
10
-18.4257233600
20
67.1731387397
30
0.0000000000
10
-18.3617787071
20
67.0451280676
30
0.0000000000
10
-18.3312324091
20
66.9670533579
30
0.0000000000
11
-18.6251364476
21
67.3238649734
31
0.0000000000
11
-18.5804503196
21
67.3117273746
31
0.0000000000
11
-18.4483758478
21
67.1907345082
31
0.0000000000
11
-18.3312324091
21
66.9670533579
31
0.0000000000
0
SPLINE
5
374
100
AcDbEntity
8
0
100
AcDbSpline
62
7
6
CONTINUOUS
70
0
71
3
72
8
73
4
74
2
42
0.0000001000
43
0.0000001000
44
0.0000000001
12
0.0738124517
22
-0.1886606927
32
0.0000000000
13
0.0496786067
23
-0.1979164248
33
0.0000000000
40
0.0000000000
40
0.0000000000
40
0.0000000000
40
0.0000000000
40
1.0000000000
40
1.0000000000
40
1.0000000000
40
1.0000000000
10
-18.3312324091
20
66.9670533579
30
0.0000000000
10
-18.3066282585
20
66.9041664603
30
0.0000000000
10
-18.2864759708
20
66.8392116424
30
0.0000000000
10
-18.2699164352
20
66.7732395008
30
0.0000000000
11
-18.3312324091
21
66.9670533579
31
0.0000000000
11
-18.2699164352
21
66.7732395008
31
0.0000000000
0
SPLINE
5
375
100
AcDbEntity
8
0
100
AcDbSpline
62
7
6
CONTINUOUS
70
0
71
3
72
9
73
5
74
3
42
0.0000001000
43
0.0000001000
44
0.0000000001
12
0.1096139453
22
-0.4366950200
32
0.0000000000
13
0.0186884184
23
-0.4483624719
33
0.0000000000
40
0.0000000000
40
0.0000000000
40
0.0000000000
40
0.0000000000
40
0.2418418641
40
1.0000000000
40
1.0000000000
40
1.0000000000
40
1.0000000000
10
-18.2699164352
20
66.7732395008
30
0.0000000000
10
-18.2610800216
20
66.7380357883
30
0.0000000000
10
-18.2287721487
20
66.5912729840
30
0.0000000000
10
-18.2117236194
20
66.4422867002
30
0.0000000000
10
-18.2070006939
20
66.3289768150
30
0.0000000000
11
-18.2699164352
21
66.7732395008
31
0.0000000000
11
-18.2463457098
21
66.6669189622
31
0.0000000000
11
-18.2070006939
21
66.3289768150
31
0.0000000000
0
SPLINE
5
376
100
AcDbEntity
8
0
100
AcDbSpline
62
7
6
CONTINUOUS
70
0
71
3
72
12
73
8
74
6
42
0.0000001000
43
0.0000001000
44
0.0000000001
12
1.0708542686
22
-0.0620713027
32
0.0000000000
13
0.0458779543
23
-1.0289495389
33
0.0000000000
40
0.0000000000
40
0.0000000000
40
0.0000000000
40
0.0000000000
40
0.0247368239
40
0.1530807443
40
0.3763975367
40
0.6709205933
40
1.0000000000
40
1.0000000000
40
1.0000000000
40
1.0000000000
10
-19.7184722808
20
67.3180874196
30
0.0000000000
10
-19.7096424363
20
67.3175756039
30
0.0000000000
10
-19.6525298967
20
67.3035503777
30
0.0000000000
10
-19.6390675777
20
67.1451971179
30
0.0000000000
10
-19.5721268290
20
66.9503421857
30
0.0000000000
10
-19.5389059719
20
66.6530880451
30
0.0000000000
10
-19.5206581237
20
66.4418455162
30
0.0000000000
10
-19.5156256271
20
66.3289768150
30
0.0000000000
11
-19.7184722808
21
67.3180874196
31
0.0000000000
11
-19.6925328046
21
67.3117273746
31
0.0000000000
11
-19.6392872746
21
67.1907345082
31
0.0000000000
11
-19.5857023509
21
66.9670533579
31
0.0000000000
11
-19.5416474034
21
66.6669189622
31
0.0000000000
11
-19.5156256271
21
66.3289768150
31
0.0000000000
0
SPLINE
5
377
100
AcDbEntity
8
0
100
AcDbSpline
62
7
6
CONTINUOUS
70
0
71
3
72
12
73
8
74
6
42
0.0000001000
43
0.0000001000
44
0.0000000001
12
-1.0620243118
22
0.0777694211
32
0.0000000000
13
0.0453377032
23
1.0166841476
33
0.0000000000
40
0.0000000000
40
0.0000000000
40
0.0000000000
40
0.0000000000
40
0.0243196905
40
0.1508080180
40
0.3731136881
40
0.6680269815
40
1.0000000000
40
1.0000000000
40
1.0000000000
40
1.0000000000
10
12.3154313312
20
51.6399609115
30
0.0000000000
10
12.3068219636
20
51.6405913542
30
0.0000000000
10
12.2522249861
20
51.6546822735
30
0.0000000000
10
12.2508041132
20
51.8149067251
30
0.0000000000
10
12.2018863616
20
52.0086803370
30
0.0000000000
10
12.1945907271
20
52.3062154790
30
0.0000000000
10
12.1951957369
20
52.5164729132
30
0.0000000000
10
12.2002127016
20
52.6289768150
30
0.0000000000
11
12.3154313312
21
51.6399609115
31
0.0000000000
11
12.2906179577
21
51.6464537314
31
0.0000000000
11
12.2478578210
21
51.7678706875
31
0.0000000000
11
12.2138443398
21
51.9915384952
31
0.0000000000
11
12.1962349623
21
52.2911531061
31
0.0000000000
11
12.2002127016
21
52.6289768150
31
0.0000000000
0
SPLINE
5
378
100
AcDbEntity
8
0
100
AcDbSpline
62
7
6
CONTINUOUS
70
0
71
3
72
8
73
4
74
2
42
0.0000001000
43
0.0000001000
44
0.0000000001
12
-0.0265322791
22
0.0002860953
32
0.0000000000
13
-0.0262483306
23
0.0039921572
33
0.0000000000
40
0.0000000000
40
0.0000000000
40
0.0000000000
40
0.0000000000
40
1.0000000000
40
1.0000000000
40
1.0000000000
40
1.0000000000
10
11.2936722830
20
51.6320882608
30
0.0000000000
10
11.2848281899
20
51.6321836259
30
0.0000000000
10
11.2759643410
20
51.6329058628
30
0.0000000000
10
11.2672148974
20
51.6342365818
30
0.0000000000
11
11.2936722830
21
51.6320882608
31
0.0000000000
11
11.2672148974
21
51.6342365818
31
0.0000000000
0
SPLINE
5
379
100
AcDbEntity
8
0
100
AcDbSpline
62
7
6
CONTINUOUS
70
0
71
3
72
10
73
6
74
4
42
0.0000001000
43
0.0000001000
44
0.0000000001
12
-0.4708426195
22
0.0716113256
32
0.0000000000
13
-0.1346607481
23
0.4386661847
33
0.0000000000
40
0.0000000000
40
0.0000000000
40
0.0000000000
40
0.0000000000
40
0.0961272625
40
0.4697944500
40
1.0000000000
40
1.0000000000
40
1.0000000000
40
1.0000000000
10
11.2672148974
20
51.6342365818
30
0.0000000000
10
11.2521279601
20
51.6365311821
30
0.0000000000
10
11.1800573292
20
51.6565873822
30
0.0000000000
10
11.0789134307
20
51.7864675709
30
0.0000000000
10
11.0265145248
20
51.9140107466
30
0.0000000000
10
11.0027152327
20
51.9915384952
30
0.0000000000
11
11.2672148974
21
51.6342365818
31
0.0000000000
11
11.2236624192
21
51.6464537314
31
0.0000000000
11
11.1014154472
21
51.7678706875
31
0.0000000000
11
11.0027152327
21
51.9915384952
31
0.0000000000
0
SPLINE
5
37A
100
AcDbEntity
8
0
100
AcDbSpline
62
7
6
CONTINUOUS
70
0
71
3
72
8
73
4
74
2
42
0.0000001000
43
0.0000001000
44
0.0000000001
12
-0.0580634148
22
0.1891453670
32
0.0000000000
13
-0.0332735054
23
0.1967660453
33
0.0000000000
40
0.0000000000
40
0.0000000000
40
0.0000000000
40
0.0000000000
40
1.0000000000
40
1.0000000000
40
1.0000000000
40
1.0000000000
10
11.0027152327
20
51.9915384952
30
0.0000000000
10
10.9833607612
20
52.0545869508
30
0.0000000000
10
10.9685944701
20
52.1194288662
30
0.0000000000
10
10.9575033016
20
52.1850175479
30
0.0000000000
11
11.0027152327
21
51.9915384952
31
0.0000000000
11
10.9575033016
21
52.1850175479
31
0.0000000000
0
SPLINE
5
37B
100
AcDbEntity
8
0
100
AcDbSpline
62
7
6
CONTINUOUS
70
0
71
3
72
9
73
5
74
3
42
0.0000001000
43
0.0000001000
44
0.0000000001
12
-0.0744345359
22
0.4401757222
32
0.0000000000
13
0.0185251021
23
0.4443797259
33
0.0000000000
40
0.0000000000
40
0.0000000000
40
0.0000000000
40
0.0000000000
40
0.2400216409
40
1.0000000000
40
1.0000000000
40
1.0000000000
40
1.0000000000
10
10.9575033016
20
52.1850175479
30
0.0000000000
10
10.9515480018
20
52.2202347810
30
0.0000000000
10
10.9311509143
20
52.3678570105
30
0.0000000000
10
10.9266921579
20
52.5164038233
30
0.0000000000
10
10.9313850501
20
52.6289768150
30
0.0000000000
11
10.9575033016
21
52.1850175479
31
0.0000000000
11
10.9426747304
21
52.2911531061
31
0.0000000000
11
10.9313850501
21
52.6289768150
31
0.0000000000
0
SPLINE
5
37C
100
AcDbEntity
8
0
100
AcDbSpline
62
7
6
CONTINUOUS
70
0
71
3
72
8
73
4
74
2
42
0.0000001000
43
0.0000001000
44
0.0000000001
12
-0.1261490909
22
0.0000000000
32
0.0000000000
13
-0.1163938224
23
0.0566097791
33
0.0000000000
40
0.0000000000
40
0.0000000000
40
0.0000000000
40
0.0000000000
40
1.0000000000
40
1.0000000000
40
1.0000000000
40
1.0000000000
10
10.1821897960
20
34.0289768150
30
0.0000000000
10
10.1401400990
20
34.0289768150
30
0.0000000000
10
10.0984353018
20
34.0408638276
30
0.0000000000
10
10.0596373610
20
34.0597337539
30
0.0000000000
11
10.1821897960
21
34.0289768150
31
0.0000000000
11
10.0596373610
21
34.0597337539
31
0.0000000000
0
SPLINE
5
37D
100
AcDbEntity
8
0
100
AcDbSpline
62
7
6
CONTINUOUS
70
0
71
3
72
16
73
12
74
10
42
0.0000001000
43
0.0000001000
44
0.0000000001
12
-2.1480226980
22
1.0447211701
32
0.0000000000
13
2.3280540571
23
0.0000000000
33
0.0000000000
40
0.0000000000
40
0.0000000000
40
0.0000000000
40
0.0000000000
40
0.0288770959
40
0.1354991101
40
0.2617354481
40
0.3983240673
40
0.5387020534
40
0.6770666022
40
0.8052575673
40
0.9146793158
40
1.0000000000
40
1.0000000000
40
1.0000000000
40
1.0000000000
10
10.0596373610
20
34.0597337539
30
0.0000000000
10
10.0389611418
20
34.0697899251
30
0.0000000000
10
9.9458165022
20
34.1262817907
30
0.0000000000
10
9.8174965589
20
34.2881802090
30
0.0000000000
10
9.7030919492
20
34.5538619457
30
0.0000000000
10
9.6445467186
20
34.8635124984
30
0.0000000000
10
9.6468551255
20
35.1877362744
30
0.0000000000
10
9.7107206464
20
35.4993408508
30
0.0000000000
10
9.8316854176
20
35.7678030091
30
0.0000000000
10
9.9934144759
20
35.9646102641
30
0.0000000000
10
10.1426506942
20
36.0289768150
30
0.0000000000
10
10.2088610826
20
36.0289768150
30
0.0000000000
11
10.0596373610
21
34.0597337539
31
0.0000000000
11
10.0004731391
21
34.0951095560
31
0.0000000000
11
9.8359298327
21
34.2809577966
31
0.0000000000
11
9.7162694762
21
34.5493787410
31
0.0000000000
11
9.6552520110
21
34.8614552821
31
0.0000000000
11
9.6575686562
21
35.1882546110
31
0.0000000000
11
9.7241530568
21
35.5034179148
31
0.0000000000
11
9.8501088827
21
35.7739708216
31
0.0000000000
11
10.0218088551
21
35.9621501444
31
0.0000000000
11
10.2088610826
21
36.0289768150
31
0.0000000000
0
SPLINE
5
37E
100
AcDbEntity
8
0
100
AcDbSpline
62
7
6
CONTINUOUS
70
0
71
3
72
8
73
4
74
2
42
0.0000001000
43
0.0000001000
44
0.0000000001
12
0.1291668425
22
0.0000000000
32
0.0000000000
13
0.1195597388
23
-0.0568781047
33
0.0000000000
40
0.0000000000
40
0.0000000000
40
0.0000000000
40
0.0000000000
40
1.0000000000
40
1.0000000000
40
1.0000000000
40
1.0000000000
10
-16.9133752512
20
36.0289768150
30
0.0000000000
10
-16.8703196370
20
36.0289768150
30
0.0000000000
10
-16.8276085078
20
36.0170519532
30
0.0000000000
10
-16.7877552615
20
35.9980925850
30
0.0000000000
11
-16.9133752512
21
36.0289768150
31
0.0000000000
11
-16.7877552615
21
35.9980925850
31
0.0000000000
0
SPLINE
5
37F
100
AcDbEntity
8
0
100
AcDbSpline
62
7
6
CONTINUOUS
70
0
71
3
72
16
73
12
74
10
42
0.0000001000
43
0.0000001000
44
0.0000000001
12
2.0340996137
22
-0.9676813606
32
0.0000000000
13
-2.0247172490
23
-0.9942480434
33
0.0000000000
40
0.0000000000
40
0.0000000000
40
0.0000000000
40
0.0000000000
40
0.0313524482
40
0.1466791438
40
0.2819032862
40
0.4280078893
40
0.5762432066
40
0.7205882416
40
0.8544920538
40
0.9690625634
40
1.0000000000
40
1.0000000000
40
1.0000000000
40
1.0000000000
10
-16.7877552615
20
35.9980925850
30
0.0000000000
10
-16.7664972606
20
35.9879795251
30
0.0000000000
10
-16.6708480908
20
35.9313029234
30
0.0000000000
10
-16.5372702281
20
35.7694034498
30
0.0000000000
10
-16.4162507559
20
35.5023061635
30
0.0000000000
10
-16.3518787466
20
35.1919706378
30
0.0000000000
10
-16.3486717546
20
34.8687355519
30
0.0000000000
10
-16.4060114083
20
34.5593720520
30
0.0000000000
10
-16.5195844057
20
34.2922411208
30
0.0000000000
10
-16.6478684439
20
34.1282916049
30
0.0000000000
10
-16.7420974967
20
34.0705817454
30
0.0000000000
10
-16.7629773506
20
34.0603285835
30
0.0000000000
11
-16.7877552615
21
35.9980925850
31
0.0000000000
11
-16.7268021092
21
35.9624911603
31
0.0000000000
11
-16.5556560559
21
35.7755719558
31
0.0000000000
11
-16.4296608959
21
35.5064434075
31
0.0000000000
11
-16.3625358158
21
35.1924667479
31
0.0000000000
11
-16.3592897729
21
34.8667287465
31
0.0000000000
11
-16.4189974157
21
34.5551937257
31
0.0000000000
11
-16.5374414607
21
34.2858241630
31
0.0000000000
11
-16.7032678236
21
34.0963727375
31
0.0000000000
11
-16.7629773506
21
34.0603285835
31
0.0000000000
0
SPLINE
5
380
100
AcDbEntity
8
0
100
AcDbSpline
62
7
6
CONTINUOUS
70
0
71
3
72
8
73
4
74
2
42
0.0000001000
43
0.0000001000
44
0.0000000001
12
-0.1174160890
22
-0.0576577874
32
0.0000000000
13
-0.1274387581
23
0.0000000000
33
0.0000000000
40
0.0000000000
40
0.0000000000
40
0.0000000000
40
0.0000000000
40
1.0000000000
40
1.0000000000
40
1.0000000000
40
1.0000000000
10
-16.7629773506
20
34.0603285835
30
0.0000000000
10
-16.8021160469
20
34.0411093210
30
0.0000000000
10
-16.8442243786
20
34.0289768150
30
0.0000000000
10
-16.8867039646
20
34.0289768150
30
0.0000000000
11
-16.7629773506
21
34.0603285835
31
0.0000000000
11
-16.8867039646
21
34.0289768150
31
0.0000000000
0
SPLINE
5
381
100
AcDbEntity
8
0
100
AcDbSpline
62
7
6
CONTINUOUS
70
0
71
3
72
8
73
4
74
2
42
0.0000001000
43
0.0000001000
44
0.0000000001
12
-0.1069865695
22
0.0000000000
32
0.0000000000
13
-0.0993555149
23
0.0461798530
33
0.0000000000
40
0.0000000000
40
0.0000000000
40
0.0000000000
40
0.0000000000
40
1.0000000000
40
1.0000000000
40
1.0000000000
40
1.0000000000
10
10.1856680159
20
30.0289768150
30
0.0000000000
10
10.1500058261
20
30.0289768150
30
0.0000000000
10
10.1145848724
20
30.0386089470
30
0.0000000000
10
10.0814663674
20
30.0540022313
30
0.0000000000
11
10.1856680159
21
30.0289768150
31
0.0000000000
11
10.0814663674
21
30.0540022313
31
0.0000000000
0
SPLINE
5
382
100
AcDbEntity
8
0
100
AcDbSpline
62
7
6
CONTINUOUS
70
0
71
3
72
17
73
13
74
11
42
0.0000001000
43
0.0000001000
44
0.0000000001
12
-2.0460844910
22
0.9510079147
32
0.0000000000
13
2.0530789412
23
0.9301371624
33
0.0000000000
40
0.0000000000
40
0.0000000000
40
0.0000000000
40
0.0000000000
40
0.0260265796
40
0.1223529542
40
0.2377664334
40
0.3648201723
40
0.4968623645
40
0.6287309303
40
0.7568488957
40
0.8751012018
40
0.9733140395
40
1.0000000000
40
1.0000000000
40
1.0000000000
40
1.0000000000
10
10.0814663674
20
30.0540022313
30
0.0000000000
10
10.0637155071
20
30.0622527257
30
0.0000000000
10
9.9833768044
20
30.1088193737
30
0.0000000000
10
9.8692926037
20
30.2447924257
30
0.0000000000
10
9.7612422260
20
30.4710498092
30
0.0000000000
10
9.6945186580
20
30.7395236857
30
0.0000000000
10
9.6734709365
20
31.0271853253
30
0.0000000000
10
9.7000349546
20
31.3151856115
30
0.0000000000
10
9.7726794829
20
31.5849532197
30
0.0000000000
10
9.8873748333
20
31.8128703825
30
0.0000000000
10
10.0070674220
20
31.9491164444
30
0.0000000000
10
10.0895144014
20
31.9956328638
30
0.0000000000
10
10.1077771959
20
32.0039067316
30
0.0000000000
11
10.0814663674
21
30.0540022313
31
0.0000000000
11
10.0305154644
21
30.0831227859
31
0.0000000000
11
9.8855013310
21
30.2380818978
31
0.0000000000
11
9.7726876968
21
30.4659699056
31
0.0000000000
11
9.7031534677
21
30.7371255469
31
0.0000000000
11
9.6814947565
21
31.0272381878
31
0.0000000000
11
9.7086029294
21
31.3165082354
31
0.0000000000
11
9.7839544675
21
31.5885390384
31
0.0000000000
11
9.9043424564
21
31.8195944241
31
0.0000000000
11
10.0552401096
21
31.9746840366
31
0.0000000000
11
10.1077771959
21
32.0039067316
31
0.0000000000
0
SPLINE
5
383
100
AcDbEntity
8
0
100
AcDbSpline
62
7
6
CONTINUOUS
70
0
71
3
72
8
73
4
74
2
42
0.0000001000
43
0.0000001000
44
0.0000000001
12
0.1021767232
22
0.0462906542
32
0.0000000000
13
0.1096496297
23
0.0000000000
33
0.0000000000
40
0.0000000000
40
0.0000000000
40
0.0000000000
40
0.0000000000
40
1.0000000000
40
1.0000000000
40
1.0000000000
40
1.0000000000
10
10.1077771959
20
32.0039067316
30
0.0000000000
10
10.1418361037
20
32.0193369497
30
0.0000000000
10
10.1781456740
20
32.0289768150
30
0.0000000000
10
10.2146955506
20
32.0289768150
30
0.0000000000
11
10.1077771959
21
32.0039067316
31
0.0000000000
11
10.2146955506
21
32.0289768150
31
0.0000000000
0
SPLINE
5
384
100
AcDbEntity
8
0
100
AcDbSpline
62
7
6
CONTINUOUS
70
0
71
3
72
8
73
4
74
2
42
0.0000001000
43
0.0000001000
44
0.0000000001
12
0.1223342481
22
0.0000000000
32
0.0000000000
13
0.1123548234
23
-0.0563358210
33
0.0000000000
40
0.0000000000
40
0.0000000000
40
0.0000000000
40
0.0000000000
40
1.0000000000
40
1.0000000000
40
1.0000000000
40
1.0000000000
10
-16.9192097192
20
32.0289768150
30
0.0000000000
10
-16.8784316365
20
32.0289768150
30
0.0000000000
10
-16.8381434269
20
32.0169877216
30
0.0000000000
10
-16.8006918191
20
31.9982091146
30
0.0000000000
11
-16.9192097192
21
32.0289768150
31
0.0000000000
11
-16.8006918191
21
31.9982091146
31
0.0000000000
0
SPLINE
5
385
100
AcDbEntity
8
0
100
AcDbSpline
62
7
6
CONTINUOUS
70
0
71
3
72
16
73
12
74
10
42
0.0000001000
43
0.0000001000
44
0.0000000001
12
1.9984936407
22
-1.0020644997
32
0.0000000000
13
-1.9903765861
23
-1.0240071045
33
0.0000000000
40
0.0000000000
40
0.0000000000
40
0.0000000000
40
0.0000000000
40
0.0303308845
40
0.1442554927
40
0.2805344672
40
0.4277517870
40
0.5801292634
40
0.7256837615
40
0.8587641082
40
0.9704456205
40
1.0000000000
40
1.0000000000
40
1.0000000000
40
1.0000000000
10
-16.8006918191
20
31.9982091146
30
0.0000000000
10
-16.7804864592
20
31.9880779471
30
0.0000000000
10
-16.6883153563
20
31.9304945858
30
0.0000000000
10
-16.5615997507
20
31.7674973768
30
0.0000000000
10
-16.4464100201
20
31.5005138654
30
0.0000000000
10
-16.3847673969
20
31.1883183934
30
0.0000000000
10
-16.3820258937
20
30.8636491500
30
0.0000000000
10
-16.4374417396
20
30.5538940259
30
0.0000000000
10
-16.5452935603
20
30.2896434514
30
0.0000000000
10
-16.6655468108
20
30.1273088250
30
0.0000000000
10
-16.7552324031
20
30.0697351416
30
0.0000000000
10
-16.7748405181
20
30.0596471768
30
0.0000000000
11
-16.8006918191
21
31.9982091146
31
0.0000000000
11
-16.7429211705
21
31.9627035126
31
0.0000000000
11
-16.5800927418
21
31.7757774641
31
0.0000000000
11
-16.4593034835
21
31.5049494344
31
0.0000000000
11
-16.3952823093
21
31.1910669118
31
0.0000000000
11
-16.3924838594
21
30.8595051686
31
0.0000000000
11
-16.4502796074
21
30.5480963019
31
0.0000000000
11
-16.5629324130
21
30.2813236527
31
0.0000000000
11
-16.7189140544
21
30.0949691356
31
0.0000000000
11
-16.7748405181
21
30.0596471768
31
0.0000000000
0
SPLINE
5
386
100
AcDbEntity
8
0
100
AcDbSpline
62
7
6
CONTINUOUS
70
0
71
3
72
8
73
4
74
2
42
0.0000001000
43
0.0000001000
44
0.0000000001
12
-0.1090607758
22
-0.0561094870
32
0.0000000000
13
-0.1192318917
23
0.0000000000
33
0.0000000000
40
0.0000000000
40
0.0000000000
40
0.0000000000
40
0.0000000000
40
1.0000000000
40
1.0000000000
40
1.0000000000
40
1.0000000000
10
-16.7748405181
20
30.0596471768
30
0.0000000000
10
-16.8111941100
20
30.0409440144
30
0.0000000000
10
-16.8504382207
20
30.0289768150
30
0.0000000000
10
-16.8901821845
20
30.0289768150
30
0.0000000000
11
-16.7748405181
21
30.0596471768
31
0.0000000000
11
-16.8901821845
21
30.0289768150
31
0.0000000000
0
SPLINE
5
387
100
AcDbEntity
8
0
100
AcDbSpline
62
7
6
CONTINUOUS
70
0
71
3
72
8
73
4
74
2
42
0.0000001000
43
0.0000001000
44
0.0000000001
12
-0.1110007271
22
0.0000000000
32
0.0000000000
13
-0.1006410915
23
0.0545432723
33
0.0000000000
40
0.0000000000
40
0.0000000000
40
0.0000000000
40
0.0000000000
40
1.0000000000
40
1.0000000000
40
1.0000000000
40
1.0000000000
10
10.1805499415
20
26.0289768150
30
0.0000000000
10
10.1435496991
20
26.0289768150
30
0.0000000000
10
10.1071982405
20
26.0407779428
30
0.0000000000
10
10.0736512100
20
26.0589590336
30
0.0000000000
11
10.1805499415
21
26.0289768150
31
0.0000000000
11
10.0736512100
21
26.0589590336
31
0.0000000000
0
SPLINE
5
388
100
AcDbEntity
8
0
100
AcDbSpline
62
7
6
CONTINUOUS
70
0
71
3
72
16
73
12
74
10
42
0.0000001000
43
0.0000001000
44
0.0000000001
12
-2.0580056639
22
1.1153531972
32
0.0000000000
13
2.2698494380
23
0.0000000000
33
0.0000000000
40
0.0000000000
40
0.0000000000
40
0.0000000000
40
0.0000000000
40
0.0267133460
40
0.1300245617
40
0.2554171970
40
0.3925087886
40
0.5405830049
40
0.6866135746
40
0.8172954642
40
0.9222628688
40
1.0000000000
40
1.0000000000
40
1.0000000000
40
1.0000000000
10
10.0736512100
20
26.0589590336
30
0.0000000000
10
10.0553258042
20
26.0688906389
30
0.0000000000
10
9.9702019537
20
26.1264982117
30
0.0000000000
10
9.8582855036
20
26.2871362696
30
0.0000000000
10
9.7569414576
20
26.5469337846
30
0.0000000000
10
9.7035915321
20
26.8547684355
30
0.0000000000
10
9.7049993229
20
27.1826843286
30
0.0000000000
10
9.7644145460
20
27.5006130003
30
0.0000000000
10
9.8759287607
20
27.7696622417
30
0.0000000000
10
10.0185964337
20
27.9626889374
30
0.0000000000
10
10.1533204819
20
28.0289768150
30
0.0000000000
10
10.2121376764
20
28.0289768150
30
0.0000000000
11
10.0736512100
21
26.0589590336
31
0.0000000000
11
10.0215368968
21
26.0935815229
31
0.0000000000
11
9.8754801333
21
26.2770429526
31
0.0000000000
11
9.7689946228
21
26.5409951229
31
0.0000000000
11
9.7137979649
21
26.8472378759
31
0.0000000000
11
9.7151901782
21
27.1833411691
31
0.0000000000
11
9.7782981247
21
27.5087455769
31
0.0000000000
11
9.8952601434
21
27.7813408507
31
0.0000000000
11
10.0480077236
21
27.9641962629
31
0.0000000000
11
10.2121376764
21
28.0289768150
31
0.0000000000
0
SPLINE
5
389
100
AcDbEntity
8
0
100
AcDbSpline
62
7
6
CONTINUOUS
70
0
71
3
72
8
73
4
74
2
42
0.0000001000
43
0.0000001000
44
0.0000000001
12
0.1137425244
22
0.0000000000
32
0.0000000000
13
0.1037165843
23
-0.0543707484
33
0.0000000000
40
0.0000000000
40
0.0000000000
40
0.0000000000
40
0.0000000000
40
1.0000000000
40
1.0000000000
40
1.0000000000
40
1.0000000000
10
-16.9166518451
20
28.0289768150
30
0.0000000000
10
-16.8787376703
20
28.0289768150
30
0.0000000000
10
-16.8414389079
20
28.0172550549
30
0.0000000000
10
-16.8068667131
20
27.9991314720
30
0.0000000000
11
-16.9166518451
21
28.0289768150
31
0.0000000000
11
-16.8068667131
21
27.9991314720
31
0.0000000000
0
SPLINE
5
38A
100
AcDbEntity
8
0
100
AcDbSpline
62
7
6
CONTINUOUS
70
0
71
3
72
16
73
12
74
10
42
0.0000001000
43
0.0000001000
44
0.0000000001
12
1.9670146129
22
-1.0311567567
32
0.0000000000
13
-1.9586522715
23
-1.0528486455
33
0.0000000000
40
0.0000000000
40
0.0000000000
40
0.0000000000
40
0.0000000000
40
0.0287849954
40
0.1391014349
40
0.2737464815
40
0.4195183051
40
0.5743576118
40
0.7298793882
40
0.8646811692
40
0.9721569431
40
1.0000000000
40
1.0000000000
40
1.0000000000
40
1.0000000000
10
-16.8068667131
20
27.9991314720
30
0.0000000000
10
-16.7879932109
20
27.9892375245
30
0.0000000000
10
-16.7007151052
20
27.9322059578
30
0.0000000000
10
-16.5820835359
20
27.7720664401
30
0.0000000000
10
-16.4727051272
20
27.5107830470
30
0.0000000000
10
-16.4119547637
20
27.2019206221
30
0.0000000000
10
-16.4061350923
20
26.8723516126
30
0.0000000000
10
-16.4583823844
20
26.5543841039
30
0.0000000000
10
-16.5632094795
20
26.2857899826
30
0.0000000000
10
-16.6764990494
20
26.1248632669
30
0.0000000000
10
-16.7608557467
20
26.0682467669
30
0.0000000000
10
-16.7790340356
20
26.0584752587
30
0.0000000000
11
-16.8068667131
21
27.9991314720
31
0.0000000000
11
-16.7530274298
21
27.9645914731
31
0.0000000000
11
-16.6002491619
21
27.7821398574
31
0.0000000000
11
-16.4848941267
21
27.5155786047
31
0.0000000000
11
-16.4221845783
21
27.2074418787
31
0.0000000000
11
-16.4161959109
21
26.8734824994
31
0.0000000000
11
-16.4729901319
21
26.5428395191
31
0.0000000000
11
-16.5821022731
21
26.2732977893
31
0.0000000000
11
-16.7273101018
21
26.0925615858
31
0.0000000000
11
-16.7790340356
21
26.0584752587
31
0.0000000000
0
SPLINE
5
38B
100
AcDbEntity
8
0
100
AcDbSpline
62
7
6
CONTINUOUS
70
0
71
3
72
8
73
4
74
2
42
0.0000001000
43
0.0000001000
44
0.0000000001
12
-0.0998996725
22
-0.0536997998
32
0.0000000000
13
-0.1100243896
23
0.0000000000
33
0.0000000000
40
0.0000000000
40
0.0000000000
40
0.0000000000
40
0.0000000000
40
1.0000000000
40
1.0000000000
40
1.0000000000
40
1.0000000000
10
-16.7790340356
20
26.0584752587
30
0.0000000000
10
-16.8123339264
20
26.0405753254
30
0.0000000000
10
-16.8483893136
20
26.0289768150
30
0.0000000000
10
-16.8850641102
20
26.0289768150
30
0.0000000000
11
-16.7790340356
21
26.0584752587
31
0.0000000000
11
-16.8850641102
21
26.0289768150
31
0.0000000000
0
SPLINE
5
38C
100
AcDbEntity
8
0
100
AcDbSpline
62
7
6
CONTINUOUS
70
0
71
3
72
8
73
4
74
2
42
0.0000001000
43
0.0000001000
44
0.0000000001
12
-0.1030782811
22
0.0000000021
32
0.0000000000
13
-0.0923906092
23
0.0532546388
33
0.0000000000
40
0.0000000000
40
0.0000000000
40
0.0000000000
40
0.0000000000
40
1.0000000000
40
1.0000000000
40
1.0000000000
40
1.0000000000
10
10.1662798513
20
22.0289768150
30
0.0000000000
10
10.1319204243
20
22.0289768157
30
0.0000000000
10
10.0983935044
20
22.0406823865
30
0.0000000000
10
10.0675966347
20
22.0584339327
30
0.0000000000
11
10.1662798513
21
22.0289768150
31
0.0000000000
11
10.0675966347
21
22.0584339327
31
0.0000000000
0
SPLINE
5
38D
100
AcDbEntity
8
0
100
AcDbSpline
62
7
6
CONTINUOUS
70
0
71
3
72
16
73
12
74
10
42
0.0000001000
43
0.0000001000
44
0.0000000001
12
-2.0085106737
22
1.1577205883
32
0.0000000000
13
2.2408536116
23
0.0000000000
33
0.0000000000
40
0.0000000000
40
0.0000000000
40
0.0000000000
40
0.0000000000
40
0.0254673330
40
0.1263559766
40
0.2512019760
40
0.3917841179
40
0.5451048791
40
0.6936581899
40
0.8239030275
40
0.9264553088
40
1.0000000000
40
1.0000000000
40
1.0000000000
40
1.0000000000
10
10.0675966347
20
22.0584339327
30
0.0000000000
10
10.0505461646
20
22.0682619513
30
0.0000000000
10
9.9701022468
20
22.1262183047
30
0.0000000000
10
9.8668875418
20
22.2851291664
30
0.0000000000
10
9.7711554005
20
22.5435633344
30
0.0000000000
10
9.7204644102
20
22.8538882550
30
0.0000000000
10
9.7226662459
20
23.1859442960
30
0.0000000000
10
9.7805159738
20
23.5053612408
30
0.0000000000
10
9.8867086898
20
23.7721666568
30
0.0000000000
10
10.0187374410
20
23.9616900298
30
0.0000000000
10
10.1457231156
20
24.0289768150
30
0.0000000000
10
10.2006574112
20
24.0289768150
30
0.0000000000
11
10.0675966347
21
22.0584339327
31
0.0000000000
11
10.0192776922
21
22.0925171855
31
0.0000000000
11
9.8834743577
21
22.2732604292
31
0.0000000000
11
9.7835055987
21
22.5345510814
31
0.0000000000
11
9.7304812696
21
22.8450805347
31
0.0000000000
11
9.7327274082
21
23.1886425738
31
0.0000000000
11
9.7944119685
21
23.5157637325
31
0.0000000000
11
9.9055341033
21
23.7856413081
31
0.0000000000
11
10.0485664273
21
23.9655077348
31
0.0000000000
11
10.2006574112
21
24.0289768150
31
0.0000000000
0
SPLINE
5
38E
100
AcDbEntity
8
0
100
AcDbSpline
62
7
6
CONTINUOUS
70
0
71
3
72
8
73
4
74
2
42
0.0000001000
43
0.0000001000
44
0.0000000001
12
0.1071788676
22
0.0000000000
32
0.0000000000
13
0.0965710146
23
-0.0541479088
33
0.0000000000
40
0.0000000000
40
0.0000000000
40
0.0000000000
40
0.0000000000
40
1.0000000000
40
1.0000000000
40
1.0000000000
40
1.0000000000
10
-16.9051715799
20
24.0289768150
30
0.0000000000
10
-16.8694452907
20
24.0289768150
30
0.0000000000
10
-16.8345447327
20
24.0171010428
30
0.0000000000
10
-16.8023543945
20
23.9990517398
30
0.0000000000
11
-16.9051715799
21
24.0289768150
31
0.0000000000
11
-16.8023543945
21
23.9990517398
31
0.0000000000
0
SPLINE
5
38F
100
AcDbEntity
8
0
100
AcDbSpline
62
7
6
CONTINUOUS
70
0
71
3
72
16
73
12
74
10
42
0.0000001000
43
0.0000001000
44
0.0000000001
12
1.9217244174
22
-1.0775216451
32
0.0000000000
13
-1.9092198020
23
-1.1076968500
33
0.0000000000
40
0.0000000000
40
0.0000000000
40
0.0000000000
40
0.0000000000
40
0.0278280431
40
0.1372141272
40
0.2745425286
40
0.4262509170
40
0.5821639475
40
0.7321622731
40
0.8660788368
40
0.9730376334
40
1.0000000000
40
1.0000000000
40
1.0000000000
40
1.0000000000
10
-16.8023543945
20
23.9990517398
30
0.0000000000
10
-16.7845284511
20
23.9890566336
30
0.0000000000
10
-16.7007305636
20
23.9304381303
30
0.0000000000
10
-16.5890622541
20
23.7681637283
30
0.0000000000
10
-16.4845503888
20
23.5024459794
30
0.0000000000
10
-16.4280819603
20
23.1894709761
30
0.0000000000
10
-16.4245252655
20
22.8627142657
30
0.0000000000
10
-16.4732028058
20
22.5521341375
30
0.0000000000
10
-16.5691690380
20
22.2891390657
30
0.0000000000
10
-16.6732975852
20
22.1275244052
30
0.0000000000
10
-16.7543082208
20
22.0687717255
30
0.0000000000
10
-16.7714672489
20
22.0588163494
30
0.0000000000
11
-16.8023543945
21
23.9990517398
31
0.0000000000
11
-16.7516899123
21
23.9643552746
31
0.0000000000
11
-16.6074322252
21
23.7810009349
31
0.0000000000
11
-16.4971573250
21
23.5096567401
31
0.0000000000
11
-16.4375291277
21
23.1916323267
31
0.0000000000
11
-16.4338914799
21
22.8591183500
31
0.0000000000
11
-16.4856686029
21
22.5434171811
31
0.0000000000
11
-16.5864534390
21
22.2761703182
31
0.0000000000
11
-16.7228617261
21
22.0933231116
31
0.0000000000
11
-16.7714672489
21
22.0588163494
31
0.0000000000
0
SPLINE
5
390
100
AcDbEntity
8
0
100
AcDbSpline
62
7
6
CONTINUOUS
70
0
71
3
72
8
73
4
74
2
42
0.0000001000
43
0.0000001000
44
0.0000000001
12
-0.0929314593
22
-0.0539172518
32
0.0000000000
13
-0.1038150458
23
-0.0000000021
33
0.0000000000
40
0.0000000000
40
0.0000000000
40
0.0000000000
40
0.0000000000
40
1.0000000000
40
1.0000000000
40
1.0000000000
40
1.0000000000
10
-16.7714672489
20
22.0588163494
30
0.0000000000
10
-16.8024444020
20
22.0408439321
30
0.0000000000
10
-16.8361890047
20
22.0289768157
30
0.0000000000
10
-16.8707940199
20
22.0289768150
30
0.0000000000
11
-16.7714672489
21
22.0588163494
31
0.0000000000
11
-16.8707940199
21
22.0289768150
31
0.0000000000
0
SPLINE
5
391
100
AcDbEntity
8
0
100
AcDbSpline
62
7
6
CONTINUOUS
70
0
71
3
72
8
73
4
74
2
42
0.0000001000
43
0.0000001000
44
0.0000000001
12
-0.0962121897
22
0.0000000000
32
0.0000000000
13
-0.0847938973
23
0.0529763475
33
0.0000000000
40
0.0000000000
40
0.0000000000
40
0.0000000000
40
0.0000000000
40
1.0000000000
40
1.0000000000
40
1.0000000000
40
1.0000000000
10
10.1422307155
20
18.0289768150
30
0.0000000000
10
10.1101599856
20
18.0289768150
30
0.0000000000
10
10.0791925565
20
18.0408390747
30
0.0000000000
10
10.0509279240
20
18.0584978572
30
0.0000000000
11
10.1422307155
21
18.0289768150
31
0.0000000000
11
10.0509279240
21
18.0584978572
31
0.0000000000
0
SPLINE
5
392
100
AcDbEntity
8
0
100
AcDbSpline
62
7
6
CONTINUOUS
70
0
71
3
72
16
73
12
74
10
42
0.0000001000
43
0.0000001000
44
0.0000000001
12
-1.9481149158
22
1.2171160437
32
0.0000000000
13
2.2104468340
23
0.0000000000
33
0.0000000000
40
0.0000000000
40
0.0000000000
40
0.0000000000
40
0.0000000000
40
0.0245152560
40
0.1246810767
40
0.2526684943
40
0.3976203625
40
0.5488465811
40
0.6954666973
40
0.8268396883
40
0.9294904880
40
1.0000000000
40
1.0000000000
40
1.0000000000
40
1.0000000000
10
10.0509279240
20
18.0584978572
30
0.0000000000
10
10.0350084121
20
18.0684438277
30
0.0000000000
10
9.9584046977
20
18.1283796067
30
0.0000000000
10
9.8630894835
20
18.2894181337
30
0.0000000000
10
9.7735370633
20
18.5514994655
30
0.0000000000
10
9.7284700940
20
18.8622249559
30
0.0000000000
10
9.7324573074
20
19.1897560851
30
0.0000000000
10
9.7861571017
20
19.5029023714
30
0.0000000000
10
9.8849018139
20
19.7678016322
30
0.0000000000
10
10.0064092081
20
19.9578068650
30
0.0000000000
10
10.1277056677
20
20.0289768150
30
0.0000000000
10
10.1796581769
20
20.0289768150
30
0.0000000000
11
10.0509279240
21
18.0584978572
31
0.0000000000
11
10.0060273911
21
18.0927684590
31
0.0000000000
11
9.8796188641
21
18.2745480321
31
0.0000000000
11
9.7856372699
21
18.5413910166
31
0.0000000000
11
9.7373128582
21
18.8581342767
31
0.0000000000
11
9.7414136703
21
19.1923866382
31
0.0000000000
11
9.7984505674
21
19.5114242396
31
0.0000000000
11
9.9026466069
21
19.7824801137
31
0.0000000000
11
10.0375798310
21
19.9649041022
31
0.0000000000
11
10.1796581769
21
20.0289768150
31
0.0000000000
0
SPLINE
5
393
100
AcDbEntity
8
0
100
AcDbSpline
62
7
6
CONTINUOUS
70
0
71
3
72
8
73
4
74
2
42
0.0000001000
43
0.0000001000
44
0.0000000001
12
0.0997210865
22
0.0000000000
32
0.0000000000
13
0.0886403828
23
-0.0532130657
33
0.0000000000
40
0.0000000000
40
0.0000000000
40
0.0000000000
40
0.0000000000
40
1.0000000000
40
1.0000000000
40
1.0000000000
40
1.0000000000
10
-16.8841723456
20
20.0289768150
30
0.0000000000
10
-16.8509319834
20
20.0289768150
30
0.0000000000
10
-16.8187402481
20
20.0171132709
30
0.0000000000
10
-16.7891934539
20
19.9993755823
30
0.0000000000
11
-16.8841723456
21
20.0289768150
31
0.0000000000
11
-16.7891934539
21
19.9993755823
31
0.0000000000
0
SPLINE
5
394
100
AcDbEntity
8
0
100
AcDbSpline
62
7
6
CONTINUOUS
70
0
71
3
72
16
73
12
74
10
42
0.0000001000
43
0.0000001000
44
0.0000000001
12
1.8761883252
22
-1.1263233461
32
0.0000000000
13
-1.8602285514
23
-1.1622076277
33
0.0000000000
40
0.0000000000
40
0.0000000000
40
0.0000000000
40
0.0000000000
40
0.0265958006
40
0.1340963299
40
0.2716760285
40
0.4252232015
40
0.5835940920
40
0.7353942008
40
0.8694283747
40
0.9743265225
40
1.0000000000
40
1.0000000000
40
1.0000000000
40
1.0000000000
10
-16.7891934539
20
19.9993755823
30
0.0000000000
10
-16.7725605437
20
19.9893904253
30
0.0000000000
10
-16.6929232798
20
19.9296595031
30
0.0000000000
10
-16.5894159825
20
19.7678016322
30
0.0000000000
10
-16.4906712703
20
19.5029023714
30
0.0000000000
10
-16.4369714760
20
19.1897560851
30
0.0000000000
10
-16.4329842626
20
18.8622249559
30
0.0000000000
10
-16.4780512319
20
18.5514994655
30
0.0000000000
10
-16.5676036522
20
18.2894181337
30
0.0000000000
10
-16.6629188663
20
18.1283796067
30
0.0000000000
10
-16.7395225807
20
18.0684438277
30
0.0000000000
10
-16.7554420927
20
18.0584978572
30
0.0000000000
11
-16.7891934539
21
19.9993755823
31
0.0000000000
11
-16.7420939997
21
19.9649041022
31
0.0000000000
11
-16.6071607755
21
19.7824801137
31
0.0000000000
11
-16.5029647360
21
19.5114242396
31
0.0000000000
11
-16.4459278390
21
19.1923866382
31
0.0000000000
11
-16.4418270268
21
18.8581342767
31
0.0000000000
11
-16.4901514385
21
18.5413910166
31
0.0000000000
11
-16.5841330328
21
18.2745480321
31
0.0000000000
11
-16.7105415597
21
18.0927684590
31
0.0000000000
11
-16.7554420927
21
18.0584978572
31
0.0000000000
0
SPLINE
5
395
100
AcDbEntity
8
0
100
AcDbSpline
62
7
6
CONTINUOUS
70
0
71
3
72
8
73
4
74
2
42
0.0000001000
43
0.0000001000
44
0.0000000001
12
-0.0847938973
22
-0.0529763475
32
0.0000000000
13
-0.0962121897
23
0.0000000000
33
0.0000000000
40
0.0000000000
40
0.0000000000
40
0.0000000000
40
0.0000000000
40
1.0000000000
40
1.0000000000
40
1.0000000000
40
1.0000000000
10
-16.7554420927
20
18.0584978572
30
0.0000000000
10
-16.7837067251
20
18.0408390747
30
0.0000000000
10
-16.8146741542
20
18.0289768150
30
0.0000000000
10
-16.8467448841
20
18.0289768150
30
0.0000000000
11
-16.7554420927
21
18.0584978572
31
0.0000000000
11
-16.8467448841
21
18.0289768150
31
0.0000000000
0
SPLINE
5
396
100
AcDbEntity
8
0
100
AcDbSpline
62
7
6
CONTINUOUS
70
0
71
3
72
8
73
4
74
2
42
0.0000001000
43
0.0000001000
44
0.0000000001
12
-0.0885095952
22
0.0000000000
32
0.0000000000
13
-0.0764416500
23
0.0519850407
33
0.0000000000
40
0.0000000000
40
0.0000000000
40
0.0000000000
40
0.0000000000
40
1.0000000000
40
1.0000000000
40
1.0000000000
40
1.0000000000
10
10.1076906402
20
14.0289768150
30
0.0000000000
10
10.0781874418
20
14.0289768150
30
0.0000000000
10
10.0500796365
20
14.0408236245
30
0.0000000000
10
10.0245990865
20
14.0581519714
30
0.0000000000
11
10.1076906402
21
14.0289768150
31
0.0000000000
11
10.0245990865
21
14.0581519714
31
0.0000000000
0
SPLINE
5
397
100
AcDbEntity
8
0
100
AcDbSpline
62
7
6
CONTINUOUS
70
0
71
3
72
16
73
12
74
10
42
0.0000001000
43
0.0000001000
44
0.0000000001
12
-1.8835445909
22
1.2809265907
32
0.0000000000
13
2.1809022859
23
0.0000007175
33
0.0000000000
40
0.0000000000
40
0.0000000000
40
0.0000000000
40
0.0000000000
40
0.0233091245
40
0.1217972797
40
0.2502972444
40
0.3974328993
40
0.5515009273
40
0.7003491528
40
0.8323607440
40
0.9334905970
40
1.0000000000
40
1.0000000000
40
1.0000000000
40
1.0000000000
10
10.0245990865
20
14.0581519714
30
0.0000000000
10
10.0099644947
20
14.0681043971
30
0.0000000000
10
9.9380228252
20
14.1295572414
30
0.0000000000
10
9.8519039820
20
14.2896365401
30
0.0000000000
10
9.7689198775
20
14.5509215854
30
0.0000000000
10
9.7276594736
20
14.8617353232
30
0.0000000000
10
9.7321210750
20
15.1900594474
30
0.0000000000
10
9.7829482607
20
15.5033267607
30
0.0000000000
10
9.8758278734
20
15.7674936412
30
0.0000000000
10
9.9864442365
20
15.9550531434
30
0.0000000000
10
10.1001143131
20
16.0289767990
30
0.0000000000
10
10.1484644827
20
16.0289768150
30
0.0000000000
11
10.0245990865
21
14.0581519714
31
0.0000000000
11
9.9835286615
21
14.0922278843
31
0.0000000000
11
9.8674544628
21
14.2729564975
31
0.0000000000
11
9.7805889448
21
14.5393999768
31
0.0000000000
11
9.7359390999
21
14.8571668913
31
0.0000000000
11
9.7405535760
21
15.1931425182
31
0.0000000000
11
9.7948777925
21
15.5131882246
31
0.0000000000
11
9.8927553242
21
15.7839444277
31
0.0000000000
11
10.0180703908
21
15.9654391810
31
0.0000000000
11
10.1484644827
21
16.0289768150
31
0.0000000000
0
SPLINE
5
398
100
AcDbEntity
8
0
100
AcDbSpline
62
7
6
CONTINUOUS
70
0
71
3
72
8
73
4
74
2
42
0.0000001000
43
0.0000001000
44
0.0000000001
12
-0.0807136472
22
0.0000000000
32
0.0000000000
13
-0.0678426548
23
0.0509286044
33
0.0000000000
40
0.0000000000
40
0.0000000000
40
0.0000000000
40
0.0000000000
40
1.0000000000
40
1.0000000000
40
1.0000000000
40
1.0000000000
10
10.0618458132
20
10.0289768150
30
0.0000000000
10
10.0349412641
20
10.0289768150
30
0.0000000000
10
10.0097849574
20
10.0407885558
30
0.0000000000
10
9.9871707391
20
10.0577647572
30
0.0000000000
11
10.0618458132
21
10.0289768150
31
0.0000000000
11
9.9871707391
21
10.0577647572
31
0.0000000000
0
SPLINE
5
399
100
AcDbEntity
8
0
100
AcDbSpline
62
7
6
CONTINUOUS
70
0
71
3
72
16
73
12
74
10
42
0.0000001000
43
0.0000001000
44
0.0000000001
12
-1.8083680735
22
1.3575185479
32
0.0000000000
13
2.1514485727
23
0.0000000000
33
0.0000000000
40
0.0000000000
40
0.0000000000
40
0.0000000000
40
0.0000000000
40
0.0220522704
40
0.1188757005
40
0.2479272950
40
0.3972966536
40
0.5542681376
40
0.7053956663
40
0.8380678095
40
0.9376645538
40
1.0000000000
40
1.0000000000
40
1.0000000000
40
1.0000000000
10
9.9871707391
20
10.0577647572
30
0.0000000000
10
9.9738778652
20
10.0677435460
30
0.0000000000
10
9.9069556952
20
10.1311547445
30
0.0000000000
10
9.8303865976
20
10.2897298308
30
0.0000000000
10
9.7541675903
20
10.5504296138
30
0.0000000000
10
9.7169253477
20
10.8612441295
30
0.0000000000
10
9.7219122483
20
11.1903925928
30
0.0000000000
10
9.7697571369
20
11.5037025233
30
0.0000000000
10
9.8566449113
20
11.7672941185
30
0.0000000000
10
9.9561251205
20
11.9517845226
30
0.0000000000
10
10.0616028232
20
12.0289768150
30
0.0000000000
10
10.1063066588
20
12.0289768150
30
0.0000000000
11
9.9871707391
21
10.0577647572
31
0.0000000000
11
9.9500883841
21
10.0917043454
31
0.0000000000
11
9.8447276161
21
10.2714052841
31
0.0000000000
11
9.7653278543
21
10.5374579421
31
0.0000000000
11
9.7245993375
21
10.8562270664
31
0.0000000000
11
9.7297852226
21
11.1939033227
31
0.0000000000
11
9.7812631006
21
11.5149454810
31
0.0000000000
11
9.8725561188
21
11.7853896213
31
0.0000000000
11
9.9879234039
21
11.9659585540
31
0.0000000000
11
10.1063066588
21
12.0289768150
31
0.0000000000
0
SPLINE
5
39A
100
AcDbEntity
8
0
100
AcDbSpline
62
7
6
CONTINUOUS
70
0
71
3
72
8
73
4
74
2
42
0.0000001000
43
0.0000001000
44
0.0000000001
12
0.0845238624
22
0.0000000000
32
0.0000000000
13
0.0721775544
23
-0.0511974785
33
0.0000000000
40
0.0000000000
40
0.0000000000
40
0.0000000000
40
0.0000000000
40
1.0000000000
40
1.0000000000
40
1.0000000000
40
1.0000000000
10
-16.8108208274
20
12.0289768150
30
0.0000000000
10
-16.7826462066
20
12.0289768150
30
0.0000000000
10
-16.7561003386
20
12.0171735432
30
0.0000000000
10
-16.7320411538
20
12.0001077171
30
0.0000000000
11
-16.8108208274
21
12.0289768150
31
0.0000000000
11
-16.7320411538
21
12.0001077171
31
0.0000000000
0
SPLINE
5
39B
100
AcDbEntity
8
0
100
AcDbSpline
62
7
6
CONTINUOUS
70
0
71
3
72
16
73
12
74
10
42
0.0000001000
43
0.0000001000
44
0.0000000001
12
1.7650112805
22
-1.2519699222
32
0.0000000000
13
-1.7373227991
23
-1.3041857783
33
0.0000000000
40
0.0000000000
40
0.0000000000
40
0.0000000000
40
0.0000000000
40
0.0239910260
40
0.1276606334
40
0.2657582098
40
0.4230658777
40
0.5864564809
40
0.7419340809
40
0.8762630516
40
0.9770459342
40
1.0000000000
40
1.0000000000
40
1.0000000000
40
1.0000000000
10
-16.7320411538
20
12.0001077171
30
0.0000000000
10
-16.7179263433
20
11.9900957028
30
0.0000000000
10
-16.6473731080
20
11.9271818087
30
0.0000000000
10
-16.5611590799
20
11.7672941185
30
0.0000000000
10
-16.4742713056
20
11.5037025233
30
0.0000000000
10
-16.4264264170
20
11.1903925928
30
0.0000000000
10
-16.4214395163
20
10.8612441295
30
0.0000000000
10
-16.4586817589
20
10.5504296138
30
0.0000000000
10
-16.5349007662
20
10.2897298308
30
0.0000000000
10
-16.6114698638
20
10.1311547445
30
0.0000000000
10
-16.6783920338
20
10.0677435460
30
0.0000000000
10
-16.6916849077
20
10.0577647572
30
0.0000000000
11
-16.7320411538
21
12.0001077171
31
0.0000000000
11
-16.6924375725
21
11.9659585540
31
0.0000000000
11
-16.5770702874
21
11.7853896213
31
0.0000000000
11
-16.4857772692
21
11.5149454810
31
0.0000000000
11
-16.4342993913
21
11.1939033227
31
0.0000000000
11
-16.4291135061
21
10.8562270664
31
0.0000000000
11
-16.4698420229
21
10.5374579421
31
0.0000000000
11
-16.5492417847
21
10.2714052841
31
0.0000000000
11
-16.6546025527
21
10.0917043454
31
0.0000000000
11
-16.6916849077
21
10.0577647572
31
0.0000000000
0
SPLINE
5
39C
100
AcDbEntity
8
0
100
AcDbSpline
62
7
6
CONTINUOUS
70
0
71
3
72
8
73
4
74
2
42
0.0000001000
43
0.0000001000
44
0.0000000001
12
-0.0678426548
22
-0.0509286044
32
0.0000000000
13
-0.0807136472
23
0.0000000000
33
0.0000000000
40
0.0000000000
40
0.0000000000
40
0.0000000000
40
0.0000000000
40
1.0000000000
40
1.0000000000
40
1.0000000000
40
1.0000000000
10
-16.6916849077
20
10.0577647572
30
0.0000000000
10
-16.7142991260
20
10.0407885558
30
0.0000000000
10
-16.7394554327
20
10.0289768150
30
0.0000000000
10
-16.7663599818
20
10.0289768150
30
0.0000000000
11
-16.6916849077
21
10.0577647572
31
0.0000000000
11
-16.7663599818
21
10.0289768150
31
0.0000000000
0
SPLINE
5
39D
100
AcDbEntity
8
0
100
AcDbSpline
62
7
6
CONTINUOUS
70
0
71
3
72
16
73
12
74
10
42
0.0000001000
43
0.0000001000
44
0.0000000001
12
-2.1950606427
22
0.0000000000
32
0.0000000000
13
2.1950606427
23
0.0000000000
33
0.0000000000
40
0.0000000000
40
0.0000000000
40
0.0000000000
40
0.0000000000
40
0.0532423411
40
0.1452760121
40
0.2706208978
40
0.4172346214
40
0.5718518702
40
0.7202066909
40
0.8491327636
40
0.9439401710
40
1.0000000000
40
1.0000000000
40
1.0000000000
40
1.0000000000
10
10.0037587295
20
6.0289768150
30
0.0000000000
10
9.9648020070
20
6.0289768150
30
0.0000000000
10
9.8737922988
20
6.1114603685
30
0.0000000000
10
9.7976985585
20
6.2896010698
30
0.0000000000
10
9.7285247240
20
6.5500666065
30
0.0000000000
10
9.6955194165
20
6.8607472994
30
0.0000000000
10
9.7010918719
20
7.1907716631
30
0.0000000000
10
9.7458452974
20
7.5040034481
30
0.0000000000
10
9.8265573215
20
7.7672825065
30
0.0000000000
10
9.9147588016
20
7.9478791071
30
0.0000000000
10
10.0112825836
20
8.0289768150
30
0.0000000000
10
10.0523008250
20
8.0289768150
30
0.0000000000
11
10.0037587295
21
6.0289768150
31
0.0000000000
11
9.9048309061
21
6.0912015835
31
0.0000000000
11
9.8106163624
21
6.2699066300
31
0.0000000000
11
9.7390757282
21
6.5355826566
31
0.0000000000
11
9.7025443881
21
6.8553285630
31
0.0000000000
11
9.7083678001
21
7.1946728372
31
0.0000000000
11
9.7568513727
21
7.5166912389
31
0.0000000000
11
9.8412628730
21
7.7868097477
31
0.0000000000
11
9.9463100050
21
7.9664595273
31
0.0000000000
11
10.0523008250
21
8.0289768150
31
0.0000000000
0
SPLINE
5
39E
100
AcDbEntity
8
0
100
AcDbSpline
62
7
6
CONTINUOUS
70
0
71
3
72
8
73
4
74
2
42
0.0000001000
43
0.0000001000
44
0.0000000001
12
0.0767973892
22
0.0000000000
32
0.0000000000
13
0.0635850038
23
-0.0500870162
33
0.0000000000
40
0.0000000000
40
0.0000000000
40
0.0000000000
40
0.0000000000
40
1.0000000000
40
1.0000000000
40
1.0000000000
40
1.0000000000
10
-16.7568149937
20
8.0289768150
30
0.0000000000
10
-16.7312158639
20
8.0289768150
30
0.0000000000
10
-16.7076232164
20
8.0172396896
30
0.0000000000
10
-16.6864282151
20
8.0005440176
30
0.0000000000
11
-16.7568149937
21
8.0289768150
31
0.0000000000
11
-16.6864282151
21
8.0005440176
31
0.0000000000
0
SPLINE
5
39F
100
AcDbEntity
8
0
100
AcDbSpline
62
7
6
CONTINUOUS
70
0
71
3
72
16
73
12
74
10
42
0.0000001000
43
0.0000001000
44
0.0000000001
12
1.7538327578
22
-1.3815246436
32
0.0000000000
13
-2.1182632534
23
-0.0000000000
33
0.0000000000
40
0.0000000000
40
0.0000000000
40
0.0000000000
40
0.0000000000
40
0.0218373873
40
0.1200820263
40
0.2536822989
40
0.4074157064
40
0.5676385857
40
0.7195677729
40
0.8494570229
40
0.9448273639
40
1.0000000000
40
1.0000000000
40
1.0000000000
40
1.0000000000
10
-16.6864282151
20
8.0005440176
30
0.0000000000
10
-16.6736618400
20
7.9904877213
30
0.0000000000
10
-16.6082439107
20
7.9252965988
30
0.0000000000
10
-16.5310714902
20
7.7672825065
30
0.0000000000
10
-16.4503594661
20
7.5040034481
30
0.0000000000
10
-16.4056060405
20
7.1907716631
30
0.0000000000
10
-16.4000335851
20
6.8607472994
30
0.0000000000
10
-16.4330388927
20
6.5500666065
30
0.0000000000
10
-16.5022127272
20
6.2896010698
30
0.0000000000
10
-16.5783064674
20
6.1114603685
30
0.0000000000
10
-16.6693161756
20
6.0289768150
30
0.0000000000
10
-16.7082728981
20
6.0289768150
30
0.0000000000
11
-16.6864282151
21
8.0005440176
31
0.0000000000
11
-16.6508241737
21
7.9664595273
31
0.0000000000
11
-16.5457770416
21
7.7868097477
31
0.0000000000
11
-16.4613655413
21
7.5166912389
31
0.0000000000
11
-16.4128819688
21
7.1946728372
31
0.0000000000
11
-16.4070585567
21
6.8553285630
31
0.0000000000
11
-16.4435898968
21
6.5355826566
31
0.0000000000
11
-16.5151305311
21
6.2699066300
31
0.0000000000
11
-16.6093450747
21
6.0912015835
31
0.0000000000
11
-16.7082728981
21
6.0289768150
31
0.0000000000
0
SPLINE
5
3A0
100
AcDbEntity
8
0
100
AcDbSpline
62
7
6
CONTINUOUS
70
0
71
3
72
16
73
12
74
10
42
0.0000001000
43
0.0000001000
44
0.0000000001
12
-2.1583515955
22
0.0000000000
32
0.0000000000
13
2.1583515955
23
0.0000000000
33
0.0000000000
40
0.0000000000
40
0.0000000000
40
0.0000000000
40
0.0000000000
40
0.0489004217
40
0.1397076179
40
0.2660783510
40
0.4153993251
40
0.5734038352
40
0.7245044548
40
0.8545135655
40
0.9481466642
40
1.0000000000
40
1.0000000000
40
1.0000000000
40
1.0000000000
10
9.9323400234
20
2.0289768150
30
0.0000000000
10
9.8971585890
20
2.0289768150
30
0.0000000000
10
9.8170123978
20
2.1166896102
30
0.0000000000
10
9.7528250135
20
2.2891081115
30
0.0000000000
10
9.6911402438
20
2.5498956630
30
0.0000000000
10
9.6625768403
20
2.8602369886
30
0.0000000000
10
9.6688086102
20
3.1912200689
30
0.0000000000
10
9.7103761297
20
3.5041902104
30
0.0000000000
10
9.7846170537
20
3.7675743475
30
0.0000000000
10
9.8616048549
20
3.9431834023
30
0.0000000000
10
9.9481181538
20
4.0289768150
30
0.0000000000
10
9.9854240638
20
4.0289768150
30
0.0000000000
11
9.9323400234
21
2.0289768150
31
0.0000000000
11
9.8467431051
21
2.0907244263
31
0.0000000000
11
9.7641731062
21
2.2684764648
31
0.0000000000
11
9.7009372912
21
2.5337972959
31
0.0000000000
11
9.6689132207
21
2.8544894758
31
0.0000000000
11
9.6754500909
21
3.1954561069
31
0.0000000000
11
9.7207747403
21
3.5184194490
31
0.0000000000
11
9.7979710890
21
3.7881973174
31
0.0000000000
11
9.8922743500
21
3.9669388498
31
0.0000000000
11
9.9854240638
21
4.0289768150
31
0.0000000000
0
SPLINE
5
3A1
100
AcDbEntity
8
0
100
AcDbSpline
62
7
6
CONTINUOUS
70
0
71
3
72
16
73
12
74
10
42
0.0000001000
43
0.0000001000
44
0.0000000001
12
2.1583515955
22
0.0000000000
32
0.0000000000
13
-2.1583515955
23
0.0000000000
33
0.0000000000
40
0.0000000000
40
0.0000000000
40
0.0000000000
40
0.0000000000
40
0.0518533358
40
0.1454864345
40
0.2754955452
40
0.4265961648
40
0.5846006749
40
0.7339216490
40
0.8602923821
40
0.9510995783
40
1.0000000000
40
1.0000000000
40
1.0000000000
40
1.0000000000
10
-16.6899382324
20
4.0289768150
30
0.0000000000
10
-16.6526323224
20
4.0289768150
30
0.0000000000
10
-16.5661190236
20
3.9431834023
30
0.0000000000
10
-16.4891312223
20
3.7675743475
30
0.0000000000
10
-16.4148902984
20
3.5041902104
30
0.0000000000
10
-16.3733227788
20
3.1912200689
30
0.0000000000
10
-16.3670910090
20
2.8602369886
30
0.0000000000
10
-16.3956544125
20
2.5498956630
30
0.0000000000
10
-16.4573391822
20
2.2891081115
30
0.0000000000
10
-16.5215265664
20
2.1166896102
30
0.0000000000
10
-16.6016727576
20
2.0289768150
30
0.0000000000
10
-16.6368541920
20
2.0289768150
30
0.0000000000
11
-16.6899382324
21
4.0289768150
31
0.0000000000
11
-16.5967885186
21
3.9669388498
31
0.0000000000
11
-16.5024852576
21
3.7881973174
31
0.0000000000
11
-16.4252889089
21
3.5184194490
31
0.0000000000
11
-16.3799642595
21
3.1954561069
31
0.0000000000
11
-16.3734273893
21
2.8544894758
31
0.0000000000
11
-16.4054514598
21
2.5337972959
31
0.0000000000
11
-16.4686872749
21
2.2684764648
31
0.0000000000
11
-16.5512572738
21
2.0907244263
31
0.0000000000
11
-16.6368541920
21
2.0289768150
31
0.0000000000
0
SPLINE
5
3A2
100
AcDbEntity
8
0
100
AcDbSpline
62
7
6
CONTINUOUS
70
0
71
3
72
9
73
5
74
3
42
0.0000001000
43
0.0000001000
44
0.0000000001
12
-0.2081628582
22
0.0000000000
32
0.0000000000
13
-0.0666288800
23
0.1912658320
33
0.0000000000
40
0.0000000000
40
0.0000000000
40
0.0000000000
40
0.0000000000
40
0.4530607964
40
1.0000000000
40
1.0000000000
40
1.0000000000
40
1.0000000000
10
9.8463114336
20
-1.9710231850
30
0.0000000000
10
9.8148746235
20
-1.9710231850
30
0.0000000000
10
9.7656042442
20
-1.9022203485
30
0.0000000000
10
9.7378305591
20
-1.8384910840
30
0.0000000000
10
9.7256832435
20
-1.8036208234
30
0.0000000000
11
9.8463114336
21
-1.9710231850
31
0.0000000000
11
9.7746421682
21
-1.9097208714
31
0.0000000000
11
9.7256832435
21
-1.8036208234
31
0.0000000000
0
SPLINE
5
3A3
100
AcDbEntity
8
0
100
AcDbSpline
62
7
6
CONTINUOUS
70
0
71
3
72
15
73
11
74
9
42
0.0000001000
43
0.0000001000
44
0.0000000001
12
-0.6127220578
22
1.7588888497
32
0.0000000000
13
1.9142746319
23
0.0000000000
33
0.0000000000
40
0.0000000000
40
0.0000000000
40
0.0000000000
40
0.0000000000
40
0.0399528926
40
0.1812738327
40
0.3498738051
40
0.5288474692
40
0.6994458512
40
0.8448096144
40
0.9473523633
40
1.0000000000
40
1.0000000000
40
1.0000000000
40
1.0000000000
10
9.7256832435
20
-1.8036208234
30
0.0000000000
10
9.7175232374
20
-1.7801965910
30
0.0000000000
10
9.6867304617
20
-1.6738872871
30
0.0000000000
10
9.6410627252
20
-1.4499950552
30
0.0000000000
10
9.6170857891
20
-1.1402995997
30
0.0000000000
10
9.6240716694
20
-0.8082294549
30
0.0000000000
10
9.6624033749
20
-0.4957944599
30
0.0000000000
10
9.7296622256
20
-0.2316676135
30
0.0000000000
10
9.7959025796
20
-0.0624867878
30
0.0000000000
10
9.8708872646
20
0.0289768150
30
0.0000000000
10
9.9044812764
20
0.0289768150
30
0.0000000000
11
9.7256832435
21
-1.8036208234
31
0.0000000000
11
9.7042961708
21
-1.7328644844
31
0.0000000000
11
9.6498742106
21
-1.4678679618
31
0.0000000000
11
9.6227080854
21
-1.1462666529
31
0.0000000000
11
9.6300458449
21
-0.8037404955
31
0.0000000000
11
9.6720273651
21
-0.4798779872
31
0.0000000000
11
9.7416311440
21
-0.2104575496
31
0.0000000000
11
9.8247042910
21
-0.0326076901
31
0.0000000000
11
9.9044812764
21
0.0289768150
31
0.0000000000
0
SPLINE
5
3A4
100
AcDbEntity
8
0
100
AcDbSpline
62
7
6
CONTINUOUS
70
0
71
3
72
16
73
12
74
10
42
0.0000001000
43
0.0000001000
44
0.0000000001
12
2.1224374901
22
0.0000000000
32
0.0000000000
13
-2.1224374901
23
0.0000000000
33
0.0000000000
40
0.0000000000
40
0.0000000000
40
0.0000000000
40
0.0000000000
40
0.0474841007
40
0.1399697375
40
0.2710766208
40
0.4249431805
40
0.5863635976
40
0.7384277464
40
0.8658883156
40
0.9555650375
40
1.0000000000
40
1.0000000000
40
1.0000000000
40
1.0000000000
10
-16.6089954451
20
0.0289768150
30
0.0000000000
10
-16.5754014332
20
0.0289768150
30
0.0000000000
10
-16.5004167482
20
-0.0624867878
30
0.0000000000
10
-16.4341763942
20
-0.2316676135
30
0.0000000000
10
-16.3669175435
20
-0.4957944599
30
0.0000000000
10
-16.3285858381
20
-0.8082294549
30
0.0000000000
10
-16.3215999577
20
-1.1402995997
30
0.0000000000
10
-16.3455768938
20
-1.4499950552
30
0.0000000000
10
-16.3990077470
20
-1.7119470124
30
0.0000000000
10
-16.4520160554
20
-1.8769415999
30
0.0000000000
10
-16.5193887921
20
-1.9710231850
30
0.0000000000
10
-16.5508256022
20
-1.9710231850
30
0.0000000000
11
-16.6089954451
21
0.0289768150
31
0.0000000000
11
-16.5292184596
21
-0.0326076901
31
0.0000000000
11
-16.4461453126
21
-0.2104575496
31
0.0000000000
11
-16.3765415337
21
-0.4798779872
31
0.0000000000
11
-16.3345600136
21
-0.8037404955
31
0.0000000000
11
-16.3272222540
21
-1.1462666529
31
0.0000000000
11
-16.3543883793
21
-1.4678679618
31
0.0000000000
11
-16.4088103395
21
-1.7328644844
31
0.0000000000
11
-16.4791563368
21
-1.9097208714
31
0.0000000000
11
-16.5508256022
21
-1.9710231850
31
0.0000000000
0
SPLINE
5
3A5
100
AcDbEntity
8
0
100
AcDbSpline
62
7
6
CONTINUOUS
70
0
71
3
72
9
73
5
74
3
42
0.0000001000
43
0.0000001000
44
0.0000000001
12
-0.1921597492
22
0.0000000000
32
0.0000000000
13
-0.0523487273
23
0.1770271146
33
0.0000000000
40
0.0000000000
40
0.0000000000
40
0.0000000000
40
0.0000000000
40
0.4341559568
40
1.0000000000
40
1.0000000000
40
1.0000000000
40
1.0000000000
10
9.7441562269
20
-5.9710231850
30
0.0000000000
10
9.7163471270
20
-5.9710231850
30
0.0000000000
10
9.6793874734
20
-5.8982217140
30
0.0000000000
10
9.6576979006
20
-5.8377141981
30
0.0000000000
10
9.6478241621
20
-5.8043242854
30
0.0000000000
11
9.7441562269
21
-5.9710231850
31
0.0000000000
11
9.6871328983
21
-5.9101261051
31
0.0000000000
11
9.6478241621
21
-5.8043242854
31
0.0000000000
0
SPLINE
5
3A6
100
AcDbEntity
8
0
100
AcDbSpline
62
7
6
CONTINUOUS
70
0
71
3
72
15
73
11
74
9
42
0.0000001000
43
0.0000001000
44
0.0000000001
12
-0.5164695859
22
1.7465395096
32
0.0000000000
13
1.8958372277
23
0.0000000000
33
0.0000000000
40
0.0000000000
40
0.0000000000
40
0.0000000000
40
0.0000000000
40
0.0403193864
40
0.1819542870
40
0.3524372768
40
0.5339396118
40
0.7064034498
40
0.8519863721
40
0.9526263601
40
1.0000000000
40
1.0000000000
40
1.0000000000
40
1.0000000000
10
9.6478241621
20
-5.8043242854
30
0.0000000000
10
9.6408829165
20
-5.7808511516
30
0.0000000000
10
9.6149091417
20
-5.6768121017
30
0.0000000000
10
9.5772458941
20
-5.4494966869
30
0.0000000000
10
9.5578443919
20
-5.1408774555
30
0.0000000000
10
9.5657137275
20
-4.8075340791
30
0.0000000000
10
9.6008644589
20
-4.4960266670
30
0.0000000000
10
9.6602164652
20
-4.2302308639
30
0.0000000000
10
9.7169323026
20
-4.0693190225
30
0.0000000000
10
9.7781239121
20
-3.9710231850
30
0.0000000000
10
9.8080614822
20
-3.9710231850
30
0.0000000000
11
9.6478241621
21
-5.8043242854
31
0.0000000000
11
9.6296924205
21
-5.7340890213
31
0.0000000000
11
9.5846710038
21
-5.4693735146
31
0.0000000000
11
9.5627619922
21
-5.1469089342
31
0.0000000000
11
9.5710016181
21
-4.8029087158
31
0.0000000000
11
9.6094325805
21
-4.4782117758
31
0.0000000000
11
9.6710134742
21
-4.2091678488
31
0.0000000000
11
9.7422930466
21
-4.0321855574
31
0.0000000000
11
9.8080614822
21
-3.9710231850
31
0.0000000000
0
SPLINE
5
3A7
100
AcDbEntity
8
0
100
AcDbSpline
62
7
6
CONTINUOUS
70
0
71
3
72
9
73
5
74
3
42
0.0000001000
43
0.0000001000
44
0.0000000001
12
0.2028776050
22
0.0000000000
32
0.0000000000
13
0.0676268473
23
-0.1841525985
33
0.0000000000
40
0.0000000000
40
0.0000000000
40
0.0000000000
40
0.0000000000
40
0.4426940579
40
1.0000000000
40
1.0000000000
40
1.0000000000
40
1.0000000000
10
-16.5125756508
20
-3.9710231850
30
0.0000000000
10
-16.4826380808
20
-3.9710231850
30
0.0000000000
10
-16.4383972539
20
-4.0420899401
30
0.0000000000
10
-16.4111962801
20
-4.1041797299
30
0.0000000000
10
-16.3986333322
20
-4.1383895091
30
0.0000000000
11
-16.5125756508
21
-3.9710231850
31
0.0000000000
11
-16.4468072153
21
-4.0321855574
31
0.0000000000
11
-16.3986333322
21
-4.1383895091
31
0.0000000000
0
SPLINE
5
3A8
100
AcDbEntity
8
0
100
AcDbSpline
62
7
6
CONTINUOUS
70
0
71
3
72
15
73
11
74
9
42
0.0000001000
43
0.0000001000
44
0.0000000001
12
0.6283822207
22
-1.7111283958
32
0.0000000000
13
-1.8851193719
23
0.0000000000
33
0.0000000000
40
0.0000000000
40
0.0000000000
40
0.0000000000
40
0.0000000000
40
0.0412345988
40
0.1876452336
40
0.3610896156
40
0.5436238830
40
0.7150761547
40
0.8575163212
40
0.9557442881
40
1.0000000000
40
1.0000000000
40
1.0000000000
40
1.0000000000
10
-16.3986333322
20
-4.1383895091
30
0.0000000000
10
-16.3899963026
20
-4.1619087401
30
0.0000000000
10
-16.3562764259
20
-4.2680913024
30
0.0000000000
10
-16.3053786276
20
-4.4960266670
30
0.0000000000
10
-16.2702278962
20
-4.8075340791
30
0.0000000000
10
-16.2623585606
20
-5.1408774555
30
0.0000000000
10
-16.2817600628
20
-5.4494966869
30
0.0000000000
10
-16.3255523729
20
-5.7138038771
30
0.0000000000
10
-16.3691995063
20
-5.8692621050
30
0.0000000000
10
-16.4208612956
20
-5.9710231850
30
0.0000000000
10
-16.4486703956
20
-5.9710231850
30
0.0000000000
11
-16.3986333322
21
-4.1383895091
31
0.0000000000
11
-16.3755276428
21
-4.2091678488
31
0.0000000000
11
-16.3139467491
21
-4.4782117758
31
0.0000000000
11
-16.2755157868
21
-4.8029087158
31
0.0000000000
11
-16.2672761608
21
-5.1469089342
31
0.0000000000
11
-16.2891851724
21
-5.4693735146
31
0.0000000000
11
-16.3342065891
21
-5.7340890213
31
0.0000000000
11
-16.3916470670
21
-5.9101261051
31
0.0000000000
11
-16.4486703956
21
-5.9710231850
31
0.0000000000
0
SPLINE
5
3A9
100
AcDbEntity
8
0
100
AcDbSpline
62
7
6
CONTINUOUS
70
0
71
3
72
9
73
5
74
3
42
0.0000001000
43
0.0000001000
44
0.0000000001
12
-0.1770591560
22
0.0000000000
32
0.0000000000
13
-0.0399980816
23
0.1626019154
33
0.0000000000
40
0.0000000000
40
0.0000000000
40
0.0000000000
40
0.0000000000
40
0.4145597098
40
1.0000000000
40
1.0000000000
40
1.0000000000
40
1.0000000000
10
9.6240514519
20
-9.9710231850
30
0.0000000000
10
9.5995842545
20
-9.9710231850
30
0.0000000000
10
9.5777551091
20
-9.8939244564
30
0.0000000000
10
9.5621219025
20
-9.8365001005
30
0.0000000000
10
9.5543164063
20
-9.8047688630
30
0.0000000000
11
9.6240514519
21
-9.9710231850
31
0.0000000000
11
9.5825501186
21
-9.9104803647
31
0.0000000000
11
9.5543164063
21
-9.8047688630
31
0.0000000000
0
SPLINE
5
3AA
100
AcDbEntity
8
0
100
AcDbSpline
62
7
6
CONTINUOUS
70
0
71
3
72
15
73
11
74
9
42
0.0000001000
43
0.0000001000
44
0.0000000001
12
-0.4245033654
22
1.7257092718
32
0.0000000000
13
1.8791453126
23
0.0000000000
33
0.0000000000
40
0.0000000000
40
0.0000000000
40
0.0000000000
40
0.0000000000
40
0.0409928065
40
0.1829678170
40
0.3552141007
40
0.5390651880
40
0.7132297560
40
0.8589532733
40
0.9577810724
40
1.0000000000
40
1.0000000000
40
1.0000000000
40
1.0000000000
10
9.5543164063
20
-9.8047688630
30
0.0000000000
10
9.5485158782
20
-9.7811883075
30
0.0000000000
10
9.5259454996
20
-9.6805905652
30
0.0000000000
10
9.4985644017
20
-9.4485245382
30
0.0000000000
10
9.4834015638
20
-9.1414962384
30
0.0000000000
10
9.4923386558
20
-8.8066487918
30
0.0000000000
10
9.5245827111
20
-8.4965835897
30
0.0000000000
10
9.5743281153
20
-8.2278960294
30
0.0000000000
10
9.6241262827
20
-8.0773893903
30
0.0000000000
10
9.6680334292
20
-7.9710231850
30
0.0000000000
10
9.6944785958
20
-7.9710231850
30
0.0000000000
11
9.5543164063
21
-9.8047688630
31
0.0000000000
11
9.5388273575
21
-9.7351611237
31
0.0000000000
11
9.5038897317
21
-9.4706669643
31
0.0000000000
11
9.4876954817
21
-9.1473965393
31
0.0000000000
11
9.4969539741
21
-8.8020377104
31
0.0000000000
11
9.5315991502
21
-8.4765960751
31
0.0000000000
11
9.5846621349
21
-8.2079507869
31
0.0000000000
11
9.6434877710
21
-8.0318019422
31
0.0000000000
11
9.6944785958
21
-7.9710231850
31
0.0000000000
0
SPLINE
5
3AB
100
AcDbEntity
8
0
100
AcDbSpline
62
7
6
CONTINUOUS
70
0
71
3
72
9
73
5
74
3
42
0.0000001000
43
0.0000001000
44
0.0000000001
12
0.1872380913
22
0.0000000000
32
0.0000000000
13
0.0547320166
23
-0.1700789905
33
0.0000000000
40
0.0000000000
40
0.0000000000
40
0.0000000000
40
0.0000000000
40
0.4237145304
40
1.0000000000
40
1.0000000000
40
1.0000000000
40
1.0000000000
10
-16.3989927645
20
-7.9710231850
30
0.0000000000
10
-16.3725475978
20
-7.9710231850
30
0.0000000000
10
-16.3415301513
20
-8.0461637566
30
0.0000000000
10
-16.3202012724
20
-8.1051650636
30
0.0000000000
10
-16.3096875171
20
-8.1378364139
30
0.0000000000
11
-16.3989927645
21
-7.9710231850
31
0.0000000000
11
-16.3480019396
21
-8.0318019422
31
0.0000000000
11
-16.3096875171
21
-8.1378364139
31
0.0000000000
0
SPLINE
5
3AC
100
AcDbEntity
8
0
100
AcDbSpline
62
7
6
CONTINUOUS
70
0
71
3
72
15
73
11
74
9
42
0.0000001000
43
0.0000001000
44
0.0000000001
12
0.5463220549
22
-1.6976882881
32
0.0000000000
13
-1.8689663773
23
0.0000000000
33
0.0000000000
40
0.0000000000
40
0.0000000000
40
0.0000000000
40
0.0000000000
40
0.0416322118
40
0.1881493818
40
0.3632625007
40
0.5481148946
40
0.7212992818
40
0.8640475295
40
0.9607261034
40
1.0000000000
40
1.0000000000
40
1.0000000000
40
1.0000000000
10
-16.3096875171
20
-8.1378364139
30
0.0000000000
10
-16.3021059853
20
-8.1613959200
30
0.0000000000
10
-16.2720203888
20
-8.2647428172
30
0.0000000000
10
-16.2290968797
20
-8.4965835897
30
0.0000000000
10
-16.1968528245
20
-8.8066487918
30
0.0000000000
10
-16.1879157325
20
-9.1414962384
30
0.0000000000
10
-16.2030785703
20
-9.4485245382
30
0.0000000000
10
-16.2347117469
20
-9.7166286748
30
0.0000000000
10
-16.2727722794
20
-9.8603818470
30
0.0000000000
10
-16.3040984231
20
-9.9710231850
30
0.0000000000
10
-16.3285656206
20
-9.9710231850
30
0.0000000000
11
-16.3096875171
21
-8.1378364139
31
0.0000000000
11
-16.2891763035
21
-8.2079507869
31
0.0000000000
11
-16.2361133189
21
-8.4765960751
31
0.0000000000
11
-16.2014681427
21
-8.8020377104
31
0.0000000000
11
-16.1922096503
21
-9.1473965393
31
0.0000000000
11
-16.2084039004
21
-9.4706669643
31
0.0000000000
11
-16.2433415261
21
-9.7351611237
31
0.0000000000
11
-16.2870642873
21
-9.9104803647
31
0.0000000000
11
-16.3285656206
21
-9.9710231850
31
0.0000000000
0
SPLINE
5
3AD
100
AcDbEntity
8
0
100
AcDbSpline
62
7
6
CONTINUOUS
70
0
71
3
72
16
73
12
74
10
42
0.0000001000
43
0.0000001000
44
0.0000000001
12
-2.0291130346
22
0.0000000000
32
0.0000000000
13
2.0291130346
23
0.0000000000
33
0.0000000000
40
0.0000000000
40
0.0000000000
40
0.0000000000
40
0.0000000000
40
0.0321294085
40
0.1194237792
40
0.2502424413
40
0.4099950102
40
0.5808669119
40
0.7422651049
40
0.8762154696
40
0.9655113893
40
1.0000000000
40
1.0000000000
40
1.0000000000
40
1.0000000000
10
9.4837731367
20
-13.9710231850
30
0.0000000000
10
9.4620417362
20
-13.9710231850
30
0.0000000000
10
9.4581569237
20
-13.8513731428
30
0.0000000000
10
9.4189780261
20
-13.7201116205
30
0.0000000000
10
9.4037805567
20
-13.4471802492
30
0.0000000000
10
9.3919936338
20
-13.1420797066
30
0.0000000000
10
9.4022474451
20
-12.8055630406
30
0.0000000000
10
9.4322658875
20
-12.4974614341
30
0.0000000000
10
9.4693683669
20
-12.2246347541
30
0.0000000000
10
9.5171768746
20
-12.0862955377
30
0.0000000000
10
9.5383623380
20
-11.9710231850
30
0.0000000000
10
9.5616894345
20
-11.9710231850
30
0.0000000000
11
9.4837731367
21
-13.9710231850
31
0.0000000000
11
9.4588792693
21
-13.9107688966
31
0.0000000000
11
9.4298571303
21
-13.7360325127
31
0.0000000000
11
9.4058085949
21
-13.4716782644
31
0.0000000000
11
9.3958580190
21
-13.1476750063
31
0.0000000000
11
9.4062714079
21
-12.8011130172
31
0.0000000000
11
9.4368619070
21
-12.4750496608
31
0.0000000000
11
9.4808316577
21
-12.2068293495
31
0.0000000000
11
9.5264191685
21
-12.0314664577
31
0.0000000000
11
9.5616894345
21
-11.9710231850
31
0.0000000000
0
SPLINE
5
3AE
100
AcDbEntity
8
0
100
AcDbSpline
62
7
6
CONTINUOUS
70
0
71
3
72
9
73
5
74
3
42
0.0000001000
43
0.0000001000
44
0.0000000001
12
0.1728538620
22
0.0000000000
32
0.0000000000
13
0.0439772449
23
-0.1564454495
33
0.0000000000
40
0.0000000000
40
0.0000000000
40
0.0000000000
40
0.0000000000
40
0.4048581189
40
1.0000000000
40
1.0000000000
40
1.0000000000
40
1.0000000000
10
-16.2662036031
20
-11.9710231850
30
0.0000000000
10
-16.2428765066
20
-11.9710231850
30
0.0000000000
10
-16.2282969458
20
-12.0503521212
30
0.0000000000
10
-16.2128762997
20
-12.1065546289
30
0.0000000000
10
-16.2041520663
20
-12.1375903753
30
0.0000000000
11
-16.2662036031
21
-11.9710231850
31
0.0000000000
11
-16.2309333371
21
-12.0314664577
31
0.0000000000
11
-16.2041520663
21
-12.1375903753
31
0.0000000000
0
SPLINE
5
3AF
100
AcDbEntity
8
0
100
AcDbSpline
62
7
6
CONTINUOUS
70
0
71
3
72
15
73
11
74
9
42
0.0000001000
43
0.0000001000
44
0.0000000001
12
0.4722669384
22
-1.6800509825
32
0.0000000000
13
-1.8562591726
23
0.0000000000
33
0.0000000000
40
0.0000000000
40
0.0000000000
40
0.0000000000
40
0.0000000000
40
0.0421918141
40
0.1886155653
40
0.3650430717
40
0.5518264736
40
0.7264551163
40
0.8694555424
40
0.9648787182
40
1.0000000000
40
1.0000000000
40
1.0000000000
40
1.0000000000
10
-16.2041520663
20
-12.1375903753
30
0.0000000000
10
-16.1975101333
20
-12.1612185082
30
0.0000000000
10
-16.1689922211
20
-12.2605948381
30
0.0000000000
10
-16.1367800561
20
-12.4974614341
30
0.0000000000
10
-16.1067616137
20
-12.8055630406
30
0.0000000000
10
-16.0965078025
20
-13.1420797066
30
0.0000000000
10
-16.1082947254
20
-13.4471802492
30
0.0000000000
10
-16.1234921947
20
-13.7201116205
30
0.0000000000
10
-16.1626710923
20
-13.8513731428
30
0.0000000000
10
-16.1665559048
20
-13.9710231850
30
0.0000000000
10
-16.1882873053
20
-13.9710231850
30
0.0000000000
11
-16.2041520663
21
-12.1375903753
31
0.0000000000
11
-16.1853458264
21
-12.2068293495
31
0.0000000000
11
-16.1413760756
21
-12.4750496608
31
0.0000000000
11
-16.1107855766
21
-12.8011130172
31
0.0000000000
11
-16.1003721876
21
-13.1476750063
31
0.0000000000
11
-16.1103227635
21
-13.4716782644
31
0.0000000000
11
-16.1343712989
21
-13.7360325127
31
0.0000000000
11
-16.1633934380
21
-13.9107688966
31
0.0000000000
11
-16.1882873053
21
-13.9710231850
31
0.0000000000
0
SPLINE
5
3B0
100
AcDbEntity
8
0
100
AcDbSpline
62
7
6
CONTINUOUS
70
0
71
3
72
16
73
12
74
10
42
0.0000001000
43
0.0000001000
44
0.0000000001
12
-2.0101534072
22
0.0000000000
32
0.0000000000
13
2.0101534072
23
0.0000000000
33
0.0000000000
40
0.0000000000
40
0.0000000000
40
0.0000000000
40
0.0000000000
40
0.0300727385
40
0.1165241962
40
0.2483487993
40
0.4095654063
40
0.5826405792
40
0.7460019611
40
0.8802181897
40
0.9686699987
40
1.0000000000
40
1.0000000000
40
1.0000000000
40
1.0000000000
10
9.3205598981
20
-17.9710231850
30
0.0000000000
10
9.3004096255
20
-17.9710231850
30
0.0000000000
10
9.3332533912
20
-17.8459683676
30
0.0000000000
10
9.2842706963
20
-17.7232646889
30
0.0000000000
10
9.2912083310
20
-17.4470594429
30
0.0000000000
10
9.2815376026
20
-17.1433538576
30
0.0000000000
10
9.2932918549
20
-16.8052654217
30
0.0000000000
10
9.3223294104
20
-16.4989537405
30
0.0000000000
10
9.3420242971
20
-16.2214260367
30
0.0000000000
10
9.3957215151
20
-16.0944840487
30
0.0000000000
10
9.3861845204
20
-15.9710231850
30
0.0000000000
10
9.4071772233
20
-15.9710231850
30
0.0000000000
11
9.3205598981
21
-17.9710231850
31
0.0000000000
11
9.3136439961
21
-17.9109692787
31
0.0000000000
11
9.3005991074
21
-17.7376788870
31
0.0000000000
11
9.2883565473
21
-17.4729741690
31
0.0000000000
11
9.2852331060
21
-17.1489191098
31
0.0000000000
11
9.2969115159
21
-16.8012075244
31
0.0000000000
11
9.3231700212
21
-16.4738776295
31
0.0000000000
11
9.3573347269
21
-16.2062543349
31
0.0000000000
11
9.3887886247
21
-16.0312569101
31
0.0000000000
11
9.4071772233
21
-15.9710231850
31
0.0000000000
0
SPLINE
5
3B1
100
AcDbEntity
8
0
100
AcDbSpline
62
7
6
CONTINUOUS
70
0
71
3
72
16
73
12
74
10
42
0.0000001000
43
0.0000001000
44
0.0000000001
12
2.0101535921
22
0.0000000000
32
0.0000000000
13
-2.0101535921
23
0.0000000000
33
0.0000000000
40
0.0000000000
40
0.0000000000
40
0.0000000000
40
0.0000000000
40
0.0313118346
40
0.1196987603
40
0.2538877302
40
0.4171184030
40
0.5901751069
40
0.7513938917
40
0.8833194609
40
0.9699880683
40
1.0000000000
40
1.0000000000
40
1.0000000000
40
1.0000000000
10
-16.1116913920
20
-15.9710231850
30
0.0000000000
10
-16.0907108597
20
-15.9710231850
30
0.0000000000
10
-16.1002356057
20
-16.0943973194
30
0.0000000000
10
-16.0465627744
20
-16.2212890689
30
0.0000000000
10
-16.0268723411
20
-16.4986599678
30
0.0000000000
10
-15.9978307739
20
-16.8048573803
30
0.0000000000
10
-15.9860582154
20
-17.1428458136
30
0.0000000000
10
-15.9957098299
20
-17.4466063279
30
0.0000000000
10
-15.9887471217
20
-17.7230557142
30
0.0000000000
10
-16.0378208022
20
-17.8458310959
30
0.0000000000
10
-16.0049645360
20
-17.9710231850
30
0.0000000000
10
-16.0250740667
20
-17.9710231850
30
0.0000000000
11
-16.1116913920
21
-15.9710231850
31
0.0000000000
11
-16.0933106546
21
-16.0312211343
31
0.0000000000
11
-16.0618742541
21
-16.2060892053
31
0.0000000000
11
-16.0277072822
21
-16.4736569964
31
0.0000000000
11
-16.0014532176
21
-16.8007236879
31
0.0000000000
11
-15.9897529446
21
-17.1483974239
31
0.0000000000
11
-15.9928552927
21
-17.4724570936
31
0.0000000000
11
-16.0050935666
21
-17.7373652081
31
0.0000000000
11
-16.0181692126
21
-17.9110910398
31
0.0000000000
11
-16.0250740667
21
-17.9710231850
31
0.0000000000
0
SPLINE
5
3B2
100
AcDbEntity
8
0
100
AcDbSpline
62
7
6
CONTINUOUS
70
0
71
3
72
16
73
12
74
10
42
0.0000001000
43
0.0000001000
44
0.0000000001
12
2.1809022859
22
-0.0000007177
32
0.0000000000
13
-1.8835445909
23
-1.2809265907
33
0.0000000000
40
0.0000000000
40
0.0000000000
40
0.0000000000
40
0.0000000000
40
0.0665094030
40
0.1676392560
40
0.2996508472
40
0.4484990727
40
0.6025671007
40
0.7497027556
40
0.8782027203
40
0.9766908755
40
1.0000000000
40
1.0000000000
40
1.0000000000
40
1.0000000000
10
-16.8529786514
20
16.0289768150
30
0.0000000000
10
-16.8046284817
20
16.0289767990
30
0.0000000000
10
-16.6909584051
20
15.9550531434
30
0.0000000000
10
-16.5803420421
20
15.7674936412
30
0.0000000000
10
-16.4874624294
20
15.5033267607
30
0.0000000000
10
-16.4366352436
20
15.1900594474
30
0.0000000000
10
-16.4321736423
20
14.8617353232
30
0.0000000000
10
-16.4734340461
20
14.5509215854
30
0.0000000000
10
-16.5564181507
20
14.2896365401
30
0.0000000000
10
-16.6425369938
20
14.1295572414
30
0.0000000000
10
-16.7144786633
20
14.0681043971
30
0.0000000000
10
-16.7291132551
20
14.0581519714
30
0.0000000000
11
-16.8529786514
21
16.0289768150
31
0.0000000000
11
-16.7225845594
21
15.9654391810
31
0.0000000000
11
-16.5972694928
21
15.7839444276
31
0.0000000000
11
-16.4993919611
21
15.5131882246
31
0.0000000000
11
-16.4450677446
21
15.1931425181
31
0.0000000000
11
-16.4404532685
21
14.8571668913
31
0.0000000000
11
-16.4851031134
21
14.5393999768
31
0.0000000000
11
-16.5719686314
21
14.2729564975
31
0.0000000000
11
-16.6880428302
21
14.0922278843
31
0.0000000000
11
-16.7291132551
21
14.0581519714
31
0.0000000000
0
SPLINE
5
3B3
100
AcDbEntity
8
0
100
AcDbSpline
62
7
6
CONTINUOUS
70
0
71
3
72
8
73
4
74
2
42
0.0000001000
43
0.0000001000
44
0.0000000001
12
-0.0764416500
22
-0.0519850407
32
0.0000000000
13
-0.0885095952
23
0.0000000000
33
0.0000000000
40
0.0000000000
40
0.0000000000
40
0.0000000000
40
0.0000000000
40
1.0000000000
40
1.0000000000
40
1.0000000000
40
1.0000000000
10
-16.7291132551
20
14.0581519714
30
0.0000000000
10
-16.7545938051
20
14.0408236245
30
0.0000000000
10
-16.7827016104
20
14.0289768150
30
0.0000000000
10
-16.8122048088
20
14.0289768150
30
0.0000000000
11
-16.7291132551
21
14.0581519714
31
0.0000000000
11
-16.8122048088
21
14.0289768150
31
0.0000000000
0
SPLINE
5
3B4
100
AcDbEntity
8
0
100
AcDbSpline
62
7
6
CONTINUOUS
70
0
71
3
72
8
73
4
74
2
42
0.0000001000
43
0.0000001000
44
0.0000000001
12
0.0066604189
22
-0.1484321932
32
0.0000000000
13
0.0150508504
23
-0.1478759132
33
0.0000000000
40
0.0000000000
40
0.0000000000
40
0.0000000000
40
0.0000000000
40
1.0000000000
40
1.0000000000
40
1.0000000000
40
1.0000000000
10
-15.9342938233
20
-19.9999187156
30
0.0000000000
10
-15.9320736837
20
-20.0493961134
30
0.0000000000
10
-15.9267426103
20
-20.0986757852
30
0.0000000000
10
-15.9217256601
20
-20.1479677563
30
0.0000000000
11
-15.9342938233
21
-19.9999187156
31
0.0000000000
11
-15.9217256601
21
-20.1479677563
31
0.0000000000
0
SPLINE
5
3B5
100
AcDbEntity
8
0
100
AcDbSpline
62
7
6
CONTINUOUS
70
0
71
3
72
13
73
9
74
7
42
0.0000001000
43
0.0000001000
44
0.0000000001
12
0.1761524201
22
-1.7307128377
32
0.0000000000
13
0.0779523337
23
-1.7372234374
33
0.0000000000
40
0.0000000000
40
0.0000000000
40
0.0000000000
40
0.0000000000
40
0.1460421048
40
0.3303698366
40
0.5314478587
40
0.7245208054
40
0.8873728707
40
1.0000000000
40
1.0000000000
40
1.0000000000
40
1.0000000000
10
-15.9217256601
20
-20.1479677563
30
0.0000000000
10
-15.9131504367
20
-20.2322200715
30
0.0000000000
10
-15.8958279854
20
-20.4228931293
30
0.0000000000
10
-15.8732538552
20
-20.7301781155
30
0.0000000000
10
-15.8586239752
20
-21.0652215619
30
0.0000000000
10
-15.8531957138
20
-21.3880875215
30
0.0000000000
10
-15.8528323980
20
-21.6596495722
30
0.0000000000
10
-15.8526503261
20
-21.8194023683
30
0.0000000000
10
-15.8497238102
20
-21.8846218645
30
0.0000000000
11
-15.9217256601
21
-20.1479677563
31
0.0000000000
11
-15.8984782383
21
-20.4008645562
31
0.0000000000
11
-15.8754804748
21
-20.7205791539
31
0.0000000000
11
-15.8600161233
21
-21.0699059731
31
0.0000000000
11
-15.8538406617
21
-21.4055975249
31
0.0000000000
11
-15.8528044740
21
-21.6887907277
31
0.0000000000
11
-15.8497238102
21
-21.8846218645
31
0.0000000000
0
SPLINE
5
3B6
100
AcDbEntity
8
0
100
AcDbSpline
62
7
6
CONTINUOUS
70
0
71
3
72
11
73
7
74
5
42
0.0000001000
43
0.0000001000
44
0.0000000001
12
0.0532157118
22
-1.1859501478
32
0.0000000000
13
0.0532157118
23
-1.1859501478
33
0.0000000000
40
0.0000000000
40
0.0000000000
40
0.0000000000
40
0.0000000000
40
0.2254884925
40
0.4853245763
40
0.7528912701
40
1.0000000000
40
1.0000000000
40
1.0000000000
40
1.0000000000
10
-15.7410394656
20
-24.3067301168
30
0.0000000000
10
-15.7370396220
20
-24.3958694872
30
0.0000000000
10
-15.7267852086
20
-24.5876479450
30
0.0000000000
10
-15.7121810783
20
-24.8852216656
30
0.0000000000
10
-15.6997497394
20
-25.1914567319
30
0.0000000000
10
-15.6922075769
20
-25.3949836360
30
0.0000000000
10
-15.6878242213
20
-25.4926698476
30
0.0000000000
11
-15.7410394656
21
-24.3067301168
31
0.0000000000
11
-15.7276923477
21
-24.5740843561
31
0.0000000000
11
-15.7127594737
21
-24.8821854045
31
0.0000000000
11
-15.6996156106
21
-25.1995534017
31
0.0000000000
11
-15.6878242213
21
-25.4926698476
31
0.0000000000
0
SPLINE
5
3B7
100
AcDbEntity
8
0
100
AcDbSpline
62
7
6
CONTINUOUS
70
0
71
3
72
8
73
4
74
2
42
0.0000001000
43
0.0000001000
44
0.0000000001
12
0.0045749594
22
0.1019562376
32
0.0000000000
13
0.0010658407
23
0.1020675341
33
0.0000000000
40
0.0000000000
40
0.0000000000
40
0.0000000000
40
0.0000000000
40
1.0000000000
40
1.0000000000
40
1.0000000000
40
1.0000000000
10
9.1452096416
20
-21.8846218645
30
0.0000000000
10
9.1467346281
20
-21.8506364519
30
0.0000000000
10
9.1474343504
20
-21.8166223964
30
0.0000000000
10
9.1477896307
20
-21.7825998850
30
0.0000000000
11
9.1452096416
21
-21.8846218645
31
0.0000000000
11
9.1477896307
21
-21.7825998850
31
0.0000000000
0
SPLINE
5
3B8
100
AcDbEntity
8
0
100
AcDbSpline
62
7
6
CONTINUOUS
70
0
71
3
72
15
73
11
74
9
42
0.0000001000
43
0.0000001000
44
0.0000000001
12
0.0186467367
22
1.7856574748
32
0.0000000000
13
0.0800382853
23
1.7837103590
33
0.0000000000
40
0.0000000000
40
0.0000000000
40
0.0000000000
40
0.0000000000
40
0.0358462289
40
0.1677255228
40
0.3269825228
40
0.4974334070
40
0.6662849143
40
0.8142755376
40
0.9312253408
40
1.0000000000
40
1.0000000000
40
1.0000000000
40
1.0000000000
10
9.1477896307
20
-21.7825998850
30
0.0000000000
10
9.1480124357
20
-21.7612635228
30
0.0000000000
10
9.1484211065
20
-21.6614145180
30
0.0000000000
10
9.1484975860
20
-21.4668284907
30
0.0000000000
10
9.1513161645
20
-21.1920991028
30
0.0000000000
10
9.1607236944
20
-20.8954943862
30
0.0000000000
10
9.1770806926
20
-20.6059054644
30
0.0000000000
10
9.1980062123
20
-20.3485408706
30
0.0000000000
10
9.2165741198
20
-20.1508400652
30
0.0000000000
10
9.2279447861
20
-20.0408100730
30
0.0000000000
10
9.2297796547
20
-19.9999187156
30
0.0000000000
11
9.1477896307
21
-21.7825998850
31
0.0000000000
11
9.1481702430
21
-21.7185858007
31
0.0000000000
11
9.1488419918
21
-21.4831155956
31
0.0000000000
11
9.1522296175
21
-21.1987815760
31
0.0000000000
11
9.1620123913
21
-20.8945979080
31
0.0000000000
11
9.1791011403
21
-20.5935973668
31
0.0000000000
11
9.2001154122
21
-20.3301962763
31
0.0000000000
11
9.2196657550
21
-20.1222990151
31
0.0000000000
11
9.2297796547
21
-19.9999187156
31
0.0000000000
0
SPLINE
5
3B9
100
AcDbEntity
8
0
100
AcDbSpline
62
7
6
CONTINUOUS
70
0
71
3
72
11
73
7
74
5
42
0.0000001000
43
0.0000001000
44
0.0000000001
12
0.0532157118
22
1.1859501476
32
0.0000000000
13
0.0532157118
23
1.1859501476
33
0.0000000000
40
0.0000000000
40
0.0000000000
40
0.0000000000
40
0.0000000000
40
0.2470450695
40
0.5146018555
40
0.7745213554
40
1.0000000000
40
1.0000000000
40
1.0000000000
40
1.0000000000
10
8.9833100526
20
-25.4926698476
30
0.0000000000
10
8.9876922790
20
-25.3950088020
30
0.0000000000
10
8.9952336665
20
-25.1915110023
30
0.0000000000
10
9.0076645111
20
-24.8852720168
30
0.0000000000
10
9.0222696958
20
-24.5876731242
30
0.0000000000
10
9.0325256281
20
-24.3958655941
30
0.0000000000
10
9.0365252969
20
-24.3067301168
30
0.0000000000
11
8.9833100526
21
-25.4926698476
31
0.0000000000
11
8.9950985065
21
-25.1996289188
31
0.0000000000
11
9.0082413870
21
-24.8822726530
31
0.0000000000
11
9.0231787771
21
-24.5740726805
31
0.0000000000
11
9.0365252969
21
-24.3067301168
31
0.0000000000
0
SPLINE
5
3BA
100
AcDbEntity
8
0
100
AcDbSpline
62
7
6
CONTINUOUS
70
0
71
3
72
11
73
7
74
5
42
0.0000001000
43
0.0000001000
44
0.0000000001
12
-4.1771347642
22
2.5806488425
32
0.0000000000
13
-4.8891357518
23
0.4782522112
33
0.0000000000
40
0.0000000000
40
0.0000000000
40
0.0000000000
40
0.0000000000
40
0.2441278620
40
0.4999009282
40
0.7575506134
40
1.0000000000
40
1.0000000000
40
1.0000000000
40
1.0000000000
10
8.1706548740
20
77.9387502498
30
0.0000000000
10
7.8307365476
20
78.1487530113
30
0.0000000000
10
7.1087025952
20
78.5381768977
30
0.0000000000
10
5.9529301803
20
78.9947911779
30
0.0000000000
10
4.7539913639
20
79.3111508113
30
0.0000000000
10
3.9429494395
20
79.4317253839
30
0.0000000000
10
3.5478267848
20
79.4703760357
30
0.0000000000
11
8.1706548740
21
77.9387502498
31
0.0000000000
11
7.1158278479
21
78.5080925032
31
0.0000000000
11
5.9480849431
21
78.9701875430
31
0.0000000000
11
4.7251560924
21
79.2939599472
31
0.0000000000
11
3.5478267848
21
79.4703760357
31
0.0000000000
0
SPLINE
5
3BB
100
AcDbEntity
8
0
100
AcDbSpline
62
7
6
CONTINUOUS
70
0
71
3
72
9
73
5
74
3
42
0.0000001000
43
0.0000001000
44
0.0000000001
12
-1.2221196174
22
0.1195469791
32
0.0000000000
13
-1.2273376073
23
0.0000000000
33
0.0000000000
40
0.0000000000
40
0.0000000000
40
0.0000000000
40
0.0000000000
40
0.0416814593
40
1.0000000000
40
1.0000000000
40
1.0000000000
40
1.0000000000
10
3.5478267848
20
79.4703760357
30
0.0000000000
10
3.5308468751
20
79.4720369998
30
0.0000000000
10
3.1233882767
20
79.5110085438
30
0.0000000000
10
2.7139840688
20
79.5289768150
30
0.0000000000
10
2.3219239405
20
79.5289768150
30
0.0000000000
11
3.5478267848
21
79.4703760357
31
0.0000000000
11
3.4968765569
21
79.4752492916
31
0.0000000000
11
2.3219239405
21
79.5289768150
31
0.0000000000
0
SPLINE
5
3BC
100
AcDbEntity
8
0
100
AcDbSpline
62
7
6
CONTINUOUS
70
0
71
3
72
10
73
6
74
4
42
0.0000001000
43
0.0000001000
44
0.0000000001
12
0.5711193618
22
13.6999982241
32
0.0000000000
13
0.5710357569
23
13.7000017092
33
0.0000000000
40
0.0000000000
40
0.0000000000
40
0.0000000000
40
0.0000000000
40
0.3324896867
40
0.6658255404
40
1.0000000000
40
1.0000000000
40
1.0000000000
40
1.0000000000
10
10.9313850501
20
52.6289768150
30
0.0000000000
10
10.9946821493
20
54.1473461874
30
0.0000000000
10
11.1214341696
20
57.1879492303
30
0.0000000000
10
11.3117929359
20
61.7546159034
30
0.0000000000
10
11.4388532889
20
64.8029132589
30
0.0000000000
10
11.5024618107
20
66.3289768150
30
0.0000000000
11
10.9313850501
21
52.6289768150
31
0.0000000000
11
11.1212715173
21
57.1840851335
31
0.0000000000
11
11.3116317820
21
61.7507863328
31
0.0000000000
11
11.5024618107
21
66.3289768150
31
0.0000000000
0
SPLINE
5
3BD
100
AcDbEntity
8
0
100
AcDbSpline
62
7
6
CONTINUOUS
70
0
71
3
72
10
73
6
74
4
42
0.0000001000
43
0.0000001000
44
0.0000000001
12
0.6109335361
22
13.6999979684
32
0.0000000000
13
0.6108441252
23
13.7000019553
33
0.0000000000
40
0.0000000000
40
0.0000000000
40
0.0000000000
40
0.0000000000
40
0.3324896908
40
0.6658255444
40
1.0000000000
40
1.0000000000
40
1.0000000000
40
1.0000000000
10
12.2002127016
20
52.6289768150
30
0.0000000000
10
12.2679224024
20
54.1473461777
30
0.0000000000
10
12.4035106281
20
57.1879492020
30
0.0000000000
10
12.6071397889
20
61.7546158760
30
0.0000000000
10
12.7430578437
20
64.8029132499
30
0.0000000000
10
12.8111006780
20
66.3289768150
30
0.0000000000
11
12.2002127016
21
52.6289768150
31
0.0000000000
11
12.4033366382
21
57.1840851335
31
0.0000000000
11
12.6069674018
21
61.7507863328
31
0.0000000000
11
12.8111006780
21
66.3289768150
31
0.0000000000
0
SPLINE
5
3BE
100
AcDbEntity
8
0
100
AcDbSpline
62
7
6
CONTINUOUS
70
0
71
3
72
10
73
6
74
4
42
0.0000001000
43
0.0000001000
44
0.0000000001
12
0.6108443996
22
-13.7000019553
32
0.0000000000
13
0.6109338105
23
-13.6999979684
33
0.0000000000
40
0.0000000000
40
0.0000000000
40
0.0000000000
40
0.0000000000
40
0.3341661714
40
0.6675020133
40
1.0000000000
40
1.0000000000
40
1.0000000000
40
1.0000000000
10
-19.5156256271
20
66.3289768150
30
0.0000000000
10
-19.4475844490
20
64.8029510811
30
0.0000000000
10
-19.3116680224
20
61.7546915918
30
0.0000000000
10
-19.1080387704
20
57.1880249178
30
0.0000000000
10
-18.9724487969
20
54.1473840623
30
0.0000000000
10
-18.9047373762
20
52.6289768150
30
0.0000000000
11
-19.5156256271
21
66.3289768150
31
0.0000000000
11
-19.3114973198
21
61.7508998262
31
0.0000000000
11
-19.1078664721
21
57.1841987874
31
0.0000000000
11
-18.9047373762
21
52.6289768150
31
0.0000000000
0
SPLINE
5
3BF
100
AcDbEntity
8
0
100
AcDbSpline
62
7
6
CONTINUOUS
70
0
71
3
72
10
73
6
74
4
42
0.0000001000
43
0.0000001000
44
0.0000000001
12
0.5710365622
22
-13.7000017092
32
0.0000000000
13
0.5711201673
23
-13.6999982241
33
0.0000000000
40
0.0000000000
40
0.0000000000
40
0.0000000000
40
0.0000000000
40
0.3341642224
40
0.6675000624
40
1.0000000000
40
1.0000000000
40
1.0000000000
40
1.0000000000
10
-18.2070006939
20
66.3289768150
30
0.0000000000
10
-18.1433940310
20
64.8029600088
30
0.0000000000
10
-18.0163354501
20
61.7547094657
30
0.0000000000
10
-17.8259764157
20
57.1880427926
30
0.0000000000
10
-17.6992222679
20
54.1473929996
30
0.0000000000
10
-17.6359231279
20
52.6289768150
30
0.0000000000
11
-18.2070006939
21
66.3289768150
31
0.0000000000
11
-18.0161762422
21
61.7509265826
31
0.0000000000
11
-17.8258157171
21
57.1842255703
31
0.0000000000
11
-17.6359231279
21
52.6289768150
31
0.0000000000
0
SPLINE
5
3C0
100
AcDbEntity
8
0
100
AcDbSpline
62
7
6
CONTINUOUS
70
0
71
3
72
8
73
4
74
2
42
0.0000001000
43
0.0000001000
44
0.0000000001
12
0.0144677504
22
-0.3470515770
32
0.0000000000
13
-0.0405837290
23
-0.3462978896
33
0.0000000000
40
0.0000000000
40
0.0000000000
40
0.0000000000
40
0.0000000000
40
1.0000000000
40
1.0000000000
40
1.0000000000
40
1.0000000000
10
-17.6359231279
20
52.6289768150
30
0.0000000000
10
-17.6311005445
20
52.5132929559
30
0.0000000000
10
-17.6347550402
20
52.3972764044
30
0.0000000000
10
-17.6482829499
20
52.2818437746
30
0.0000000000
11
-17.6359231279
21
52.6289768150
31
0.0000000000
11
-17.6482829499
21
52.2818437746
31
0.0000000000
0
SPLINE
5
3C1
100
AcDbEntity
8
0
100
AcDbSpline
62
7
6
CONTINUOUS
70
0
71
3
72
8
73
4
74
2
42
0.0000001000
43
0.0000001000
44
0.0000000001
12
-0.0252076892
22
-0.2150953046
32
0.0000000000
13
-0.0513877661
23
-0.2095904109
33
0.0000000000
40
0.0000000000
40
0.0000000000
40
0.0000000000
40
0.0000000000
40
1.0000000000
40
1.0000000000
40
1.0000000000
40
1.0000000000
10
-17.6482829499
20
52.2818437746
30
0.0000000000
10
-17.6566855130
20
52.2101453397
30
0.0000000000
10
-17.6688972386
20
52.1386721818
30
0.0000000000
10
-17.6860264940
20
52.0688087115
30
0.0000000000
11
-17.6482829499
21
52.2818437746
31
0.0000000000
11
-17.6860264940
21
52.0688087115
31
0.0000000000
0
SPLINE
5
3C2
100
AcDbEntity
8
0
100
AcDbSpline
62
7
6
CONTINUOUS
70
0
71
3
72
11
73
7
74
5
42
0.0000001000
43
0.0000001000
44
0.0000000001
12
-0.1313693254
22
-0.5358036159
32
0.0000000000
13
-0.5656141047
23
-0.0455304410
33
0.0000000000
40
0.0000000000
40
0.0000000000
40
0.0000000000
40
0.0000000000
40
0.1786003319
40
0.6175699673
40
0.9205436634
40
1.0000000000
40
1.0000000000
40
1.0000000000
40
1.0000000000
10
-17.6860264940
20
52.0688087115
30
0.0000000000
10
-17.6938473624
20
52.0369104770
30
0.0000000000
10
-17.7244353483
20
51.9277720583
30
0.0000000000
10
-17.7901799892
20
51.7734204032
30
0.0000000000
10
-17.8956720248
20
51.6485600933
30
0.0000000000
10
-17.9664804136
20
51.6339350896
30
0.0000000000
10
-17.9814609552
20
51.6327291956
30
0.0000000000
11
-17.6860264940
21
52.0688087115
31
0.0000000000
11
-17.7126699917
21
51.9742524674
31
0.0000000000
11
-17.8146991885
21
51.7546858697
31
0.0000000000
11
-17.9379935486
21
51.6418903856
31
0.0000000000
11
-17.9814609552
21
51.6327291956
31
0.0000000000
0
SPLINE
5
3C3
100
AcDbEntity
8
0
100
AcDbSpline
62
7
6
CONTINUOUS
70
0
71
3
72
8
73
4
74
2
42
0.0000001000
43
0.0000001000
44
0.0000000001
12
-0.0165761025
22
-0.0013343325
32
0.0000000000
13
-0.0166951031
23
0.0001547564
33
0.0000000000
40
0.0000000000
40
0.0000000000
40
0.0000000000
40
0.0000000000
40
1.0000000000
40
1.0000000000
40
1.0000000000
40
1.0000000000
10
-17.9814609552
20
51.6327291956
30
0.0000000000
10
-17.9869863227
20
51.6322844181
30
0.0000000000
10
-17.9925482708
20
51.6320889614
30
0.0000000000
10
-17.9981133052
20
51.6321405468
30
0.0000000000
11
-17.9814609552
21
51.6327291956
31
0.0000000000
11
-17.9981133052
21
51.6321405468
31
0.0000000000
0
SPLINE
5
3C4
100
AcDbEntity
8
0
100
AcDbSpline
62
7
6
CONTINUOUS
70
0
71
3
72
12
73
8
74
6
42
0.0000001000
43
0.0000001000
44
0.0000000001
12
0.0453711606
22
-1.0174339633
32
0.0000000000
13
-1.0650748783
23
0.0761408437
33
0.0000000000
40
0.0000000000
40
0.0000000000
40
0.0000000000
40
0.0000000000
40
0.3408660921
40
0.6434737712
40
0.8618296780
40
0.9803854523
40
1.0000000000
40
1.0000000000
40
1.0000000000
40
1.0000000000
10
-18.9047373762
20
52.6289768150
30
0.0000000000
10
-18.8995822128
20
52.5133739019
30
0.0000000000
10
-18.8989274674
20
52.2983768469
30
0.0000000000
10
-18.9080219406
20
51.9925234489
30
0.0000000000
10
-18.9557240723
20
51.8078754631
30
0.0000000000
10
-18.9628750875
20
51.6435298544
30
0.0000000000
10
-19.0113816303
20
51.6395596413
30
0.0000000000
10
-19.0183452843
20
51.6400574640
30
0.0000000000
11
-18.9047373762
21
52.6289768150
31
0.0000000000
11
-18.9009776975
21
52.2818437746
31
0.0000000000
11
-18.9201671837
21
51.9742524674
31
0.0000000000
11
-18.9554507671
21
51.7546858697
31
0.0000000000
11
-18.9985314053
21
51.6418903856
31
0.0000000000
11
-19.0183452843
21
51.6400574640
31
0.0000000000
0
SPLINE
5
3C5
100
AcDbEntity
8
0
100
AcDbSpline
62
7
6
CONTINUOUS
70
0
71
3
72
12
73
8
74
6
42
0.0000001000
43
0.0000001000
44
0.0000000001
12
0.0459035131
22
1.0295232342
32
0.0000000000
13
1.0810036865
23
-0.0811732372
33
0.0000000000
40
0.0000000000
40
0.0000000000
40
0.0000000000
40
0.0000000000
40
0.3373670132
40
0.6391109519
40
0.8587705180
40
0.9798738761
40
1.0000000000
40
1.0000000000
40
1.0000000000
40
1.0000000000
10
12.8111006780
20
66.3289768150
30
0.0000000000
10
12.8162627884
20
66.4447525412
30
0.0000000000
10
12.8349751664
20
66.6604315978
30
0.0000000000
10
12.8701216878
20
66.9654117294
30
0.0000000000
10
12.9360567863
20
67.1514690792
30
0.0000000000
10
12.9538956280
20
67.3142030057
30
0.0000000000
10
13.0052136795
20
67.3182905828
30
0.0000000000
10
13.0124658175
20
67.3177460153
30
0.0000000000
11
12.8111006780
21
66.3289768150
31
0.0000000000
11
12.8380924713
21
66.6755997203
31
0.0000000000
11
12.8842545390
21
66.9831152932
31
0.0000000000
11
12.9386391543
21
67.2028546291
31
0.0000000000
11
12.9914877659
21
67.3159152808
31
0.0000000000
11
13.0124658175
21
67.3177460153
31
0.0000000000
0
SPLINE
5
3C6
100
AcDbEntity
8
0
100
AcDbSpline
62
7
6
CONTINUOUS
70
0
71
3
72
8
73
4
74
2
42
0.0000001000
43
0.0000001000
44
0.0000000001
12
0.0145361278
22
0.3487434415
32
0.0000000000
13
0.0683387081
23
0.3435517413
33
0.0000000000
40
0.0000000000
40
0.0000000000
40
0.0000000000
40
0.0000000000
40
1.0000000000
40
1.0000000000
40
1.0000000000
40
1.0000000000
10
11.5024618107
20
66.3289768150
30
0.0000000000
10
11.5073071866
20
66.4452246288
30
0.0000000000
10
11.5207413265
20
66.5610824732
30
0.0000000000
10
11.5435208958
20
66.6755997203
30
0.0000000000
11
11.5024618107
21
66.3289768150
31
0.0000000000
11
11.5435208958
21
66.6755997203
31
0.0000000000
0
SPLINE
5
3C7
100
AcDbEntity
8
0
100
AcDbSpline
62
7
6
CONTINUOUS
70
0
71
3
72
8
73
4
74
2
42
0.0000001000
43
0.0000001000
44
0.0000000001
12
0.0429615370
22
0.2159758539
32
0.0000000000
13
0.0682169103
23
0.2086125769
33
0.0000000000
40
0.0000000000
40
0.0000000000
40
0.0000000000
40
0.0000000000
40
1.0000000000
40
1.0000000000
40
1.0000000000
40
1.0000000000
10
11.5435208958
20
66.6755997203
30
0.0000000000
10
11.5578414082
20
66.7475916716
30
0.0000000000
10
11.5758553121
20
66.8190538077
30
0.0000000000
10
11.5985942822
20
66.8885913333
30
0.0000000000
11
11.5435208958
21
66.6755997203
31
0.0000000000
11
11.5985942822
21
66.8885913333
31
0.0000000000
0
SPLINE
5
3C8
100
AcDbEntity
8
0
100
AcDbSpline
62
7
6
CONTINUOUS
70
0
71
3
72
11
73
7
74
5
42
0.0000001000
43
0.0000001000
44
0.0000000001
12
0.1770619533
22
0.5414691197
32
0.0000000000
13
0.5872491727
23
0.0490784271
33
0.0000000000
40
0.0000000000
40
0.0000000000
40
0.0000000000
40
0.0000000000
40
0.1770719788
40
0.6165210345
40
0.9221890824
40
1.0000000000
40
1.0000000000
40
1.0000000000
40
1.0000000000
10
11.5985942822
20
66.8885913333
30
0.0000000000
10
11.6090451857
20
66.9205510028
30
0.0000000000
10
11.6489077964
20
67.0304112128
30
0.0000000000
10
11.7284487585
20
67.1849122742
30
0.0000000000
10
11.8403210465
20
67.3085872947
30
0.0000000000
10
11.9144138718
20
67.3238555558
30
0.0000000000
10
11.9296453375
20
67.3251285016
30
0.0000000000
11
11.5985942822
21
66.8885913333
31
0.0000000000
11
11.6330414516
21
66.9831152932
31
0.0000000000
11
11.7528665539
21
67.2028546291
31
0.0000000000
11
11.8852500038
21
67.3159152808
31
0.0000000000
11
11.9296453375
21
67.3251285016
31
0.0000000000
0
SPLINE
5
3C9
100
AcDbEntity
8
0
100
AcDbSpline
62
7
6
CONTINUOUS
70
0
71
3
72
8
73
4
74
2
42
0.0000001000
43
0.0000001000
44
0.0000000001
12
0.0170558233
22
0.0014254136
32
0.0000000000
13
0.0171106175
23
-0.0001128756
33
0.0000000000
40
0.0000000000
40
0.0000000000
40
0.0000000000
40
0.0000000000
40
1.0000000000
40
1.0000000000
40
1.0000000000
40
1.0000000000
10
11.9296453375
20
67.3251285016
30
0.0000000000
10
11.9353306119
20
67.3256036395
30
0.0000000000
10
11.9410433948
20
67.3258245002
30
0.0000000000
10
11.9467469339
20
67.3257868750
30
0.0000000000
11
11.9296453375
21
67.3251285016
31
0.0000000000
11
11.9467469339
21
67.3257868750
31
0.0000000000
0
SPLINE
5
3CA
100
AcDbEntity
8
0
100
AcDbSpline
62
7
6
CONTINUOUS
70
0
71
3
72
12
73
8
74
6
42
0.0000001000
43
0.0000001000
44
0.0000000001
12
1.1484521794
22
-0.0075761284
32
0.0000000000
13
-0.0462373026
23
-1.1093020310
33
0.0000000000
40
0.0000000000
40
0.0000000000
40
0.0000000000
40
0.0000000000
40
0.0614393626
40
0.2083217251
40
0.4224749578
40
0.6952964709
40
1.0000000000
40
1.0000000000
40
1.0000000000
40
1.0000000000
10
11.9467469339
20
67.3257868750
30
0.0000000000
10
11.9702669905
20
67.3256317175
30
0.0000000000
10
12.0494831788
20
67.3102012918
30
0.0000000000
10
12.1463775310
20
67.1695405790
30
0.0000000000
10
12.2156976998
20
66.9486545620
30
0.0000000000
10
12.2542897514
20
66.6553939320
30
0.0000000000
10
12.2563712207
20
66.4416462295
30
0.0000000000
10
12.2516749976
20
66.3289768150
30
0.0000000000
11
11.9467469339
21
67.3257868750
31
0.0000000000
11
12.0142582332
21
67.3118392596
31
0.0000000000
11
12.1237789370
21
67.1910097370
31
0.0000000000
11
12.2035730509
21
66.9670320759
31
0.0000000000
11
12.2469175501
21
66.6672450962
31
0.0000000000
11
12.2516749976
21
66.3289768150
31
0.0000000000
0
SPLINE
5
3CB
100
AcDbEntity
8
0
100
AcDbSpline
62
9
6
CONTINUOUS
70
0
71
3
72
14
73
10
74
8
42
0.0000001000
43
0.0000001000
44
0.0000000001
12
0.0294784670
22
3.8710574159
32
0.0000000000
13
-3.8576957569
23
-0.3227041131
33
0.0000000000
40
0.0000000000
40
0.0000000000
40
0.0000000000
40
0.0000000000
40
0.0297295254
40
0.1041077743
40
0.2227054758
40
0.3801041050
40
0.5685838796
40
0.7787272524
40
1.0000000000
40
1.0000000000
40
1.0000000000
40
1.0000000000
10
7.7212088737
20
-56.1998207522
30
0.0000000000
10
7.7215010007
20
-56.1614591857
30
0.0000000000
10
7.5437066659
20
-56.1124920978
30
0.0000000000
10
7.2994784359
20
-56.0850532985
30
0.0000000000
10
6.8253821810
20
-56.0638223289
30
0.0000000000
10
6.2349993197
20
-56.0675300829
30
0.0000000000
10
5.5146134052
20
-56.0905234728
30
0.0000000000
10
4.7169058089
20
-56.1347518107
30
0.0000000000
10
4.1614577656
20
-56.1760188769
30
0.0000000000
10
3.8769234525
20
-56.1998207522
30
0.0000000000
11
7.7212088737
21
-56.1998207522
31
0.0000000000
11
7.6251458368
21
-56.1364397688
31
0.0000000000
11
7.3406190098
21
-56.0922963434
31
0.0000000000
11
6.8820651524
21
-56.0696683536
31
0.0000000000
11
6.2727483550
21
-56.0696722280
31
0.0000000000
11
5.5434621469
21
-56.0923006788
31
0.0000000000
11
4.7311601650
21
-56.1364458327
31
0.0000000000
11
3.8769234525
21
-56.1998207522
31
0.0000000000
0
SPLINE
5
3CC
100
AcDbEntity
8
0
100
AcDbSpline
62
9
6
CONTINUOUS
70
0
71
3
72
14
73
10
74
8
42
0.0000001000
43
0.0000001000
44
0.0000000001
12
-3.8577424852
22
0.3221081571
32
0.0000000000
13
0.0292002772
23
-3.8710564566
33
0.0000000000
40
0.0000000000
40
0.0000000000
40
0.0000000000
40
0.0000000000
40
0.2212706542
40
0.4314134617
40
0.6198927889
40
0.7772923315
40
0.8958915746
40
0.9702708733
40
1.0000000000
40
1.0000000000
40
1.0000000000
40
1.0000000000
10
-10.5814376211
20
-56.1998207522
30
0.0000000000
10
-10.8659726890
20
-56.1760630580
30
0.0000000000
10
-11.4214108301
20
-56.1347222074
30
0.0000000000
10
-12.2191161770
20
-56.0905261068
30
0.0000000000
10
-12.9395009721
20
-56.0675208476
30
0.0000000000
10
-13.5298856585
20
-56.0638302442
30
0.0000000000
10
-14.0039872256
20
-56.0850529201
30
0.0000000000
10
-14.2482158409
20
-56.1125039995
30
0.0000000000
10
-14.4260124086
20
-56.1614597096
30
0.0000000000
10
-14.4257230424
20
-56.1998207522
30
0.0000000000
11
-10.5814376211
21
-56.1998207522
31
0.0000000000
11
-11.4356650772
21
-56.1364397688
31
0.0000000000
11
-12.2479643155
21
-56.0922963434
31
0.0000000000
11
-12.9772482268
21
-56.0696683536
31
0.0000000000
11
-13.5865680772
21
-56.0696722280
31
0.0000000000
11
-14.0451275225
21
-56.0923006788
31
0.0000000000
11
-14.3296579630
21
-56.1364458327
31
0.0000000000
11
-14.4257230424
21
-56.1998207522
31
0.0000000000
0
SPLINE
5
3CD
100
AcDbEntity
8
0
100
AcDbSpline
62
7
6
CONTINUOUS
70
0
71
3
72
8
73
4
74
2
42
0.0000001000
43
0.0000001000
44
0.0000000001
12
0.0672094026
22
0.1428192084
32
0.0000000000
13
0.0467866483
23
0.1492311385
33
0.0000000000
40
0.0000000000
40
0.0000000000
40
0.0000000000
40
0.0000000000
40
1.0000000000
40
1.0000000000
40
1.0000000000
40
1.0000000000
10
11.0593775075
20
51.8454538338
30
0.0000000000
10
11.0817806417
20
51.8930602366
30
0.0000000000
10
11.0997548568
20
51.9417748551
30
0.0000000000
10
11.1153504062
20
51.9915185679
30
0.0000000000
11
11.0593775075
21
51.8454538338
31
0.0000000000
11
11.1153504062
21
51.9915185679
31
0.0000000000
0
SPLINE
5
3CE
100
AcDbEntity
8
0
100
AcDbSpline
62
7
6
CONTINUOUS
70
0
71
3
72
8
73
4
74
2
42
0.0000001000
43
0.0000001000
44
0.0000000001
12
0.0593294643
22
0.1892378237
32
0.0000000000
13
0.0392058887
23
0.1963004092
33
0.0000000000
40
0.0000000000
40
0.0000000000
40
0.0000000000
40
0.0000000000
40
1.0000000000
40
1.0000000000
40
1.0000000000
40
1.0000000000
10
11.1153504062
20
51.9915185679
30
0.0000000000
10
11.1351268943
20
52.0545978425
30
0.0000000000
10
11.1510783916
20
52.1193319423
30
0.0000000000
10
11.1641470211
20
52.1847654121
30
0.0000000000
11
11.1153504062
21
51.9915185679
31
0.0000000000
11
11.1641470211
21
52.1847654121
31
0.0000000000
0
SPLINE
5
3CF
100
AcDbEntity
8
0
100
AcDbSpline
62
7
6
CONTINUOUS
70
0
71
3
72
9
73
5
74
3
42
0.0000001000
43
0.0000001000
44
0.0000000001
12
0.0878532080
22
0.4398732249
32
0.0000000000
13
0.0186228977
23
0.4466663761
33
0.0000000000
40
0.0000000000
40
0.0000000000
40
0.0000000000
40
0.0000000000
40
0.2399951199
40
1.0000000000
40
1.0000000000
40
1.0000000000
40
1.0000000000
10
11.1641470211
20
52.1847654121
30
0.0000000000
10
11.1711751349
20
52.2199545545
30
0.0000000000
10
11.1969854579
20
52.3674217578
30
0.0000000000
10
11.2108642243
20
52.5158206064
30
0.0000000000
10
11.2155820553
20
52.6289768150
30
0.0000000000
11
11.1641470211
21
52.1847654121
31
0.0000000000
11
11.1828766083
21
52.2907910334
31
0.0000000000
11
11.2155820553
21
52.6289768150
31
0.0000000000
0
SPLINE
5
3D0
100
AcDbEntity
8
0
100
AcDbSpline
62
7
6
CONTINUOUS
70
0
71
3
72
8
73
4
74
2
42
0.0000001000
43
0.0000001000
44
0.0000000001
12
-0.0558199472
22
-0.1430315499
32
0.0000000000
13
-0.0340182632
23
-0.1480591240
33
0.0000000000
40
0.0000000000
40
0.0000000000
40
0.0000000000
40
0.0000000000
40
1.0000000000
40
1.0000000000
40
1.0000000000
40
1.0000000000
10
-18.3998787109
20
67.1125778001
30
0.0000000000
10
-18.4184853600
20
67.0649006168
30
0.0000000000
10
-18.4321812733
20
67.0164002790
30
0.0000000000
10
-18.4435206943
20
66.9670472376
30
0.0000000000
11
-18.3998787109
21
67.1125778001
31
0.0000000000
11
-18.4435206943
21
66.9670472376
31
0.0000000000
0
SPLINE
5
3D1
100
AcDbEntity
8
0
100
AcDbSpline
62
7
6
CONTINUOUS
70
0
71
3
72
8
73
4
74
2
42
0.0000001000
43
0.0000001000
44
0.0000000001
12
-0.0437264081
22
-0.1903122931
32
0.0000000000
13
-0.0231942174
23
-0.1959826895
33
0.0000000000
40
0.0000000000
40
0.0000000000
40
0.0000000000
40
0.0000000000
40
1.0000000000
40
1.0000000000
40
1.0000000000
40
1.0000000000
10
-18.4435206943
20
66.9670472376
30
0.0000000000
10
-18.4580961637
20
66.9036098066
30
0.0000000000
10
-18.4687782302
20
66.8387635365
30
0.0000000000
10
-18.4765096360
20
66.7734359734
30
0.0000000000
11
-18.4435206943
21
66.9670472376
31
0.0000000000
11
-18.4765096360
21
66.7734359734
31
0.0000000000
0
SPLINE
5
3D2
100
AcDbEntity
8
0
100
AcDbSpline
62
7
6
CONTINUOUS
70
0
71
3
72
9
73
5
74
3
42
0.0000001000
43
0.0000001000
44
0.0000000001
12
-0.0524420813
22
-0.4431164876
32
0.0000000000
13
0.0185160828
23
-0.4441754235
33
0.0000000000
40
0.0000000000
40
0.0000000000
40
0.0000000000
40
0.0000000000
40
0.2390211321
40
1.0000000000
40
1.0000000000
40
1.0000000000
40
1.0000000000
10
-18.4765096360
20
66.7734359734
30
0.0000000000
10
-18.4806878912
20
66.7381312385
30
0.0000000000
10
-18.4945631642
20
66.5898376492
30
0.0000000000
10
-18.4959588611
20
66.4416461853
30
0.0000000000
10
-18.4912620785
20
66.3289768150
30
0.0000000000
11
-18.4765096360
21
66.7734359734
31
0.0000000000
11
-18.4866078862
21
66.6672464699
31
0.0000000000
11
-18.4912620785
21
66.3289768150
31
0.0000000000
0
SPLINE
5
3D3
100
AcDbEntity
8
0
100
AcDbSpline
62
7
6
CONTINUOUS
70
0
71
3
72
12
73
8
74
6
42
0.0000001000
43
0.0000001000
44
0.0000000001
12
-0.0462553957
22
1.1097345464
32
0.0000000000
13
1.1451844055
23
-0.0132835261
33
0.0000000000
40
0.0000000000
40
0.0000000000
40
0.0000000000
40
0.0000000000
40
0.3120589500
40
0.5925609560
40
0.8041803873
40
0.9465448472
40
1.0000000000
40
1.0000000000
40
1.0000000000
40
1.0000000000
10
-18.9562074078
20
66.3289768150
30
0.0000000000
10
-18.9610188779
20
66.4444110141
30
0.0000000000
10
-18.9587334502
20
66.6638445770
30
0.0000000000
10
-18.9175214408
20
66.9616816257
30
0.0000000000
10
-18.8459415555
20
67.1823126822
30
0.0000000000
10
-18.7455937653
20
67.3147136414
30
0.0000000000
10
-18.6717735309
20
67.3262264243
30
0.0000000000
10
-18.6513681951
20
67.3259897334
30
0.0000000000
11
-18.9562074078
21
66.3289768150
31
0.0000000000
11
-18.9508236627
21
66.6755382907
31
0.0000000000
11
-18.9041477282
21
66.9835750765
31
0.0000000000
11
-18.8212426753
21
67.2035138132
31
0.0000000000
11
-18.7101695743
21
67.3160568992
31
0.0000000000
11
-18.6513681951
21
67.3259897334
31
0.0000000000
0
SPLINE
5
3D4
100
AcDbEntity
8
0
100
AcDbSpline
62
7
6
CONTINUOUS
70
0
71
3
72
12
73
8
74
6
42
0.0000001000
43
0.0000001000
44
0.0000000001
12
-0.0450307628
22
1.0099487504
32
0.0000000000
13
1.0510796590
23
-0.0609250816
33
0.0000000000
40
0.0000000000
40
0.0000000000
40
0.0000000000
40
0.0000000000
40
0.3429848356
40
0.6476845799
40
0.8657243730
40
0.9809710445
40
1.0000000000
40
1.0000000000
40
1.0000000000
40
1.0000000000
10
-19.7709043067
20
66.3289768150
30
0.0000000000
10
-19.7760525962
20
66.4444425170
30
0.0000000000
10
-19.7811014957
20
66.6587073222
30
0.0000000000
10
-19.7910374701
20
66.9649584753
30
0.0000000000
10
-19.7617945394
20
67.1473995575
30
0.0000000000
10
-19.7705782937
20
67.3141424088
30
0.0000000000
10
-19.7251392634
20
67.3184738665
30
0.0000000000
10
-19.7184722808
20
67.3180874196
30
0.0000000000
11
-19.7709043067
21
66.3289768150
31
0.0000000000
11
-19.7820686555
21
66.6755382907
31
0.0000000000
11
-19.7818528455
21
66.9835750765
31
0.0000000000
11
-19.7671774941
21
67.2035138132
31
0.0000000000
11
-19.7370383059
21
67.3160568992
31
0.0000000000
11
-19.7184722808
21
67.3180874196
31
0.0000000000
0
SPLINE
5
3D5
100
AcDbEntity
8
0
100
AcDbSpline
62
7
6
CONTINUOUS
70
0
71
3
72
12
73
8
74
6
42
0.0000001000
43
0.0000001000
44
0.0000000001
12
-1.0638673521
22
0.0760545192
32
0.0000000000
13
-0.0453197212
23
1.0162804499
33
0.0000000000
40
0.0000000000
40
0.0000000000
40
0.0000000000
40
0.0000000000
40
0.0238750955
40
0.1492266961
40
0.3717362469
40
0.6670301647
40
1.0000000000
40
1.0000000000
40
1.0000000000
40
1.0000000000
10
-19.0183452843
20
51.6400574640
30
0.0000000000
10
-19.0268119292
20
51.6406627337
30
0.0000000000
10
-19.0804490161
20
51.6542529753
30
0.0000000000
10
-19.0776235012
20
51.8159505909
30
0.0000000000
10
-19.1260564381
20
52.0084588654
30
0.0000000000
10
-19.1410252878
20
52.3061194915
30
0.0000000000
10
-19.1549860225
20
52.5161799036
30
0.0000000000
10
-19.1600160558
20
52.6289768150
30
0.0000000000
11
-19.0183452843
21
51.6400574640
31
0.0000000000
11
-19.0425729435
21
51.6463250671
31
0.0000000000
11
-19.0821068852
21
51.7675610305
31
0.0000000000
11
-19.1150572945
21
51.9915067573
31
0.0000000000
11
-19.1410045597
21
52.2907837296
31
0.0000000000
11
-19.1600160558
21
52.6289768150
31
0.0000000000
0
SPLINE
5
3D6
100
AcDbEntity
8
0
100
AcDbSpline
62
7
6
CONTINUOUS
70
0
71
3
72
10
73
6
74
4
42
0.0000001000
43
0.0000001000
44
0.0000000001
12
-2.0957311168
22
0.1597558821
32
0.0000000000
13
-2.0957311168
23
-0.1597558821
33
0.0000000000
40
0.0000000000
40
0.0000000000
40
0.0000000000
40
0.0000000000
40
0.3326518196
40
0.6673497439
40
1.0000000000
40
1.0000000000
40
1.0000000000
40
1.0000000000
10
-2.3022570843
20
-100.7452745259
30
0.0000000000
10
-2.5346400075
20
-100.7275601642
30
0.0000000000
10
-3.0018166144
20
-100.7036965956
30
0.0000000000
10
-3.7026997461
20
-100.7036966797
30
0.0000000000
10
-4.1698752534
20
-100.7275602475
30
0.0000000000
10
-4.4022570843
20
-100.7452745259
30
0.0000000000
11
-2.3022570843
21
-100.7452745259
31
0.0000000000
11
-3.0005227831
21
-100.7096991408
31
0.0000000000
11
-3.7039946716
21
-100.7096992250
31
0.0000000000
11
-4.4022570843
21
-100.7452745259
31
0.0000000000
0
SPLINE
5
3D7
100
AcDbEntity
8
0
100
AcDbSpline
62
7
6
CONTINUOUS
70
0
71
3
72
8
73
4
74
2
42
0.0000001000
43
0.0000001000
44
0.0000000001
12
-0.0052496751
22
-0.1177223614
32
0.0000000000
13
-0.0065240405
23
-0.1170096545
33
0.0000000000
40
0.0000000000
40
0.0000000000
40
0.0000000000
40
0.0000000000
40
1.0000000000
40
1.0000000000
40
1.0000000000
40
1.0000000000
10
12.4554983054
20
52.6289768150
30
0.0000000000
10
12.4537484137
20
52.5897360278
30
0.0000000000
10
12.4517305929
20
52.5507285867
30
0.0000000000
10
12.4495559128
20
52.5117253685
30
0.0000000000
11
12.4554983054
21
52.6289768150
31
0.0000000000
11
12.4495559128
21
52.5117253685
31
0.0000000000
0
SPLINE
5
3D8
100
AcDbEntity
8
0
100
AcDbSpline
62
7
6
CONTINUOUS
70
0
71
3
72
12
73
8
74
6
42
0.0000001000
43
0.0000001000
44
0.0000000001
12
-0.0498446892
22
-0.8939720566
32
0.0000000000
13
-0.9395277640
23
0.0687993010
33
0.0000000000
40
0.0000000000
40
0.0000000000
40
0.0000000000
40
0.0000000000
40
0.2552566123
40
0.5988681484
40
0.8458409734
40
0.9781589974
40
1.0000000000
40
1.0000000000
40
1.0000000000
40
1.0000000000
10
12.4495559128
20
52.5117253685
30
0.0000000000
10
12.4453148506
20
52.4356612756
30
0.0000000000
10
12.4339650558
20
52.2572418273
30
0.0000000000
10
12.4197012677
20
51.9921550667
30
0.0000000000
10
12.3730672998
20
51.8085002930
30
0.0000000000
10
12.3696811556
20
51.6432398012
30
0.0000000000
10
12.3222714073
20
51.6394600296
30
0.0000000000
10
12.3154313312
20
51.6399609115
30
0.0000000000
11
12.4495559128
21
52.5117253685
31
0.0000000000
11
12.4358668055
21
52.2818818309
31
0.0000000000
11
12.4085462944
21
51.9737333034
31
0.0000000000
11
12.3746875368
21
51.7539739740
31
0.0000000000
11
12.3347797574
21
51.6417300300
31
0.0000000000
11
12.3154313312
21
51.6399609115
31
0.0000000000
0
SPLINE
5
3D9
100
AcDbEntity
8
0
100
AcDbSpline
62
7
6
CONTINUOUS
70
0
71
3
72
12
73
8
74
6
42
0.0000001000
43
0.0000001000
44
0.0000000001
12
-0.0471105466
22
-1.1300867178
32
0.0000000000
13
-1.1674644101
23
0.0125886707
33
0.0000000000
40
0.0000000000
40
0.0000000000
40
0.0000000000
40
0.0000000000
40
0.3083616492
40
0.5881613550
40
0.8019594747
40
0.9473954288
40
1.0000000000
40
1.0000000000
40
1.0000000000
40
1.0000000000
10
11.6805982369
20
52.6289768150
30
0.0000000000
10
11.6757558750
20
52.5128183469
30
0.0000000000
10
11.6548442505
20
52.2920062468
30
0.0000000000
10
11.5893576738
20
51.9938974269
30
0.0000000000
10
11.4980953892
20
51.7739606108
30
0.0000000000
10
11.3908135405
20
51.6436807885
30
0.0000000000
10
11.3141436045
20
51.6318675202
30
0.0000000000
10
11.2936722830
20
51.6320882608
30
0.0000000000
11
11.6805982369
21
52.6289768150
31
0.0000000000
11
11.6463752112
21
52.2818818309
31
0.0000000000
11
11.5742685605
21
51.9737333034
31
0.0000000000
11
11.4733583127
21
51.7539739740
31
0.0000000000
11
11.3531048889
21
51.6417300300
31
0.0000000000
11
11.2936722830
21
51.6320882608
31
0.0000000000
0
SPLINE
5
3DA
100
AcDbEntity
8
0
100
AcDbSpline
62
7
6
CONTINUOUS
70
0
71
3
72
8
73
4
74
2
42
0.0000001000
43
0.0000001000
44
0.0000000001
12
0.0048950117
22
-0.1174056849
32
0.0000000000
13
0.0091898737
23
-0.1171169168
33
0.0000000000
40
0.0000000000
40
0.0000000000
40
0.0000000000
40
0.0000000000
40
1.0000000000
40
1.0000000000
40
1.0000000000
40
1.0000000000
10
-17.9201130044
20
52.6289768150
30
0.0000000000
10
-17.9184813338
20
52.5898415867
30
0.0000000000
10
-17.9161594884
20
52.5507507268
30
0.0000000000
10
-17.9130961972
20
52.5117117545
30
0.0000000000
11
-17.9201130044
21
52.6289768150
31
0.0000000000
11
-17.9130961972
21
52.5117117545
31
0.0000000000
0
SPLINE
5
3DB
100
AcDbEntity
8
0
100
AcDbSpline
62
7
6
CONTINUOUS
70
0
71
3
72
8
73
4
74
2
42
0.0000001000
43
0.0000001000
44
0.0000000001
12
0.0180854403
22
-0.2304831472
32
0.0000000000
13
0.0364871637
23
-0.2291054768
33
0.0000000000
40
0.0000000000
40
0.0000000000
40
0.0000000000
40
0.0000000000
40
1.0000000000
40
1.0000000000
40
1.0000000000
40
1.0000000000
10
-17.9130961972
20
52.5117117545
30
0.0000000000
10
-17.9070677171
20
52.4348840388
30
0.0000000000
10
-17.8981676727
20
52.3582572798
30
0.0000000000
10
-17.8860052848
20
52.2818887876
30
0.0000000000
11
-17.9130961972
21
52.5117117545
31
0.0000000000
11
-17.8860052848
21
52.2818887876
31
0.0000000000
0
SPLINE
5
3DC
100
AcDbEntity
8
0
100
AcDbSpline
62
7
6
CONTINUOUS
70
0
71
3
72
8
73
4
74
2
42
0.0000001000
43
0.0000001000
44
0.0000000001
12
0.0342880730
22
-0.2152972309
32
0.0000000000
13
0.0550386012
23
-0.2101684336
33
0.0000000000
40
0.0000000000
40
0.0000000000
40
0.0000000000
40
0.0000000000
40
1.0000000000
40
1.0000000000
40
1.0000000000
40
1.0000000000
10
-17.8860052848
20
52.2818887876
30
0.0000000000
10
-17.8745759271
20
52.2101230439
30
0.0000000000
10
-17.8602656201
20
52.1385853735
30
0.0000000000
10
-17.8419194197
20
52.0685292290
30
0.0000000000
11
-17.8860052848
21
52.2818887876
31
0.0000000000
11
-17.8419194197
21
52.0685292290
31
0.0000000000
0
SPLINE
5
3DD
100
AcDbEntity
8
0
100
AcDbSpline
62
7
6
CONTINUOUS
70
0
71
3
72
9
73
5
74
3
42
0.0000001000
43
0.0000001000
44
0.0000000001
12
0.0600487914
22
-0.2293001666
32
0.0000000000
13
0.1008335922
23
-0.2145473346
33
0.0000000000
40
0.0000000000
40
0.0000000000
40
0.0000000000
40
0.0000000000
40
0.4179297021
40
1.0000000000
40
1.0000000000
40
1.0000000000
40
1.0000000000
10
-17.8419194197
20
52.0685292290
30
0.0000000000
10
-17.8335540285
20
52.0365854456
30
0.0000000000
10
-17.8115299821
20
51.9608890885
30
0.0000000000
10
-17.7840749539
20
51.8876365956
30
0.0000000000
10
-17.7645108743
20
51.8460093853
30
0.0000000000
11
-17.8419194197
21
52.0685292290
31
0.0000000000
11
-17.8141964185
21
51.9737407918
31
0.0000000000
11
-17.7645108743
21
51.8460093853
31
0.0000000000
0
SPLINE
5
3DE
100
AcDbEntity
8
0
100
AcDbSpline
62
7
6
CONTINUOUS
70
0
71
3
72
8
73
4
74
2
42
0.0000001000
43
0.0000001000
44
0.0000000001
12
0.0144352666
22
0.3462827310
32
0.0000000000
13
-0.0267623617
23
0.3466968553
33
0.0000000000
40
0.0000000000
40
0.0000000000
40
0.0000000000
40
0.0000000000
40
1.0000000000
40
1.0000000000
40
1.0000000000
40
1.0000000000
10
11.7867303240
20
66.3289768150
30
0.0000000000
10
11.7915420795
20
66.4444043920
30
0.0000000000
10
11.7903767401
20
66.5599545383
30
0.0000000000
10
11.7814559529
20
66.6755201567
30
0.0000000000
11
11.7867303240
21
66.3289768150
31
0.0000000000
11
11.7814559529
21
66.6755201567
31
0.0000000000
0
SPLINE
5
3DF
100
AcDbEntity
8
0
100
AcDbSpline
62
7
6
CONTINUOUS
70
0
71
3
72
8
73
4
74
2
42
0.0000001000
43
0.0000001000
44
0.0000000001
12
-0.0165488690
22
0.2143846977
32
0.0000000000
13
-0.0378092166
23
0.2108892576
33
0.0000000000
40
0.0000000000
40
0.0000000000
40
0.0000000000
40
0.0000000000
40
1.0000000000
40
1.0000000000
40
1.0000000000
40
1.0000000000
10
11.7814559529
20
66.6755201567
30
0.0000000000
10
11.7759396632
20
66.7469817226
30
0.0000000000
10
11.7674578960
20
66.8184492046
30
0.0000000000
10
11.7548548238
20
66.8887456238
30
0.0000000000
11
11.7814559529
21
66.6755201567
31
0.0000000000
11
11.7548548238
21
66.8887456238
31
0.0000000000
0
SPLINE
5
3E0
100
AcDbEntity
8
0
100
AcDbSpline
62
7
6
CONTINUOUS
70
0
71
3
72
9
73
5
74
3
42
0.0000001000
43
0.0000001000
44
0.0000000001
12
-0.0410244036
22
0.2288226734
32
0.0000000000
13
-0.0842317316
23
0.2167702907
33
0.0000000000
40
0.0000000000
40
0.0000000000
40
0.0000000000
40
0.0000000000
40
0.4179678283
40
1.0000000000
40
1.0000000000
40
1.0000000000
40
1.0000000000
10
11.7548548238
20
66.8887456238
30
0.0000000000
10
11.7491391968
20
66.9206257958
30
0.0000000000
10
11.7334364010
20
66.9963237685
30
0.0000000000
10
11.7122644499
20
67.0700146293
30
0.0000000000
10
11.6959225907
20
67.1120703903
30
0.0000000000
11
11.7548548238
21
66.8887456238
31
0.0000000000
11
11.7350572243
21
66.9835537937
31
0.0000000000
11
11.6959225907
21
67.1120703903
31
0.0000000000
0
SPLINE
5
3E1
100
AcDbEntity
8
0
100
AcDbSpline
62
7
6
CONTINUOUS
70
0
71
3
72
10
73
6
74
4
42
0.0000001000
43
0.0000001000
44
0.0000000001
12
-0.5711959435
22
13.6999980460
32
0.0000000000
13
-0.5711040179
23
13.7000018783
33
0.0000000000
40
0.0000000000
40
0.0000000000
40
0.0000000000
40
0.0000000000
40
0.3324683135
40
0.6658041287
40
1.0000000000
40
1.0000000000
40
1.0000000000
40
1.0000000000
10
-17.9201130044
20
52.6289768150
30
0.0000000000
10
-17.9834145217
20
54.1472485633
30
0.0000000000
10
-18.1101791307
20
57.1877538006
30
0.0000000000
10
-18.3005619805
20
61.7544204746
30
0.0000000000
10
-18.4276418769
20
64.8028154600
30
0.0000000000
10
-18.4912620785
20
66.3289768150
30
0.0000000000
11
-17.9201130044
21
52.6289768150
31
0.0000000000
11
-18.1100122383
21
57.1837922818
31
0.0000000000
11
-18.3003965728
21
61.7504929545
31
0.0000000000
11
-18.4912620785
21
66.3289768150
31
0.0000000000
0
SPLINE
5
3E2
100
AcDbEntity
8
0
100
AcDbSpline
62
7
6
CONTINUOUS
70
0
71
3
72
10
73
6
74
4
42
0.0000001000
43
0.0000001000
44
0.0000000001
12
-0.5710357569
22
-13.7000017092
32
0.0000000000
13
-0.5711193618
23
-13.6999982241
33
0.0000000000
40
0.0000000000
40
0.0000000000
40
0.0000000000
40
0.0000000000
40
0.3341670034
40
0.6675028462
40
1.0000000000
40
1.0000000000
40
1.0000000000
40
1.0000000000
10
12.2516749976
20
66.3289768150
30
0.0000000000
10
12.1880678950
20
64.8029473092
30
0.0000000000
10
12.0610089634
20
61.7546840537
30
0.0000000000
10
11.8706501973
20
57.1880173806
30
0.0000000000
10
11.7438967577
20
54.1473802874
30
0.0000000000
10
11.6805982369
20
52.6289768150
30
0.0000000000
11
12.2516749976
21
66.3289768150
31
0.0000000000
11
12.0608492268
21
61.7508884836
31
0.0000000000
11
11.8704889686
21
57.1841874336
31
0.0000000000
11
11.6805982369
21
52.6289768150
31
0.0000000000
0
SPLINE
5
3E3
100
AcDbEntity
8
0
100
AcDbSpline
62
7
6
CONTINUOUS
70
0
71
3
72
10
73
6
74
4
42
0.0000001000
43
0.0000001000
44
0.0000000001
12
-0.6108441252
22
-13.7000019553
32
0.0000000000
13
-0.6109335361
23
-13.6999979684
33
0.0000000000
40
0.0000000000
40
0.0000000000
40
0.0000000000
40
0.0000000000
40
0.3341669993
40
0.6675028421
40
1.0000000000
40
1.0000000000
40
1.0000000000
40
1.0000000000
10
13.0663862818
20
66.3289768150
30
0.0000000000
10
12.9983449657
20
64.8029473002
30
0.0000000000
10
12.8624284314
20
61.7546840263
30
0.0000000000
10
12.6587992708
20
57.1880173523
30
0.0000000000
10
12.5232095269
20
54.1473802777
30
0.0000000000
10
12.4554983054
20
52.6289768150
30
0.0000000000
11
13.0663862818
21
66.3289768150
31
0.0000000000
11
12.8622575605
21
61.7508884836
31
0.0000000000
11
12.6586268037
21
57.1841874336
31
0.0000000000
11
12.4554983054
21
52.6289768150
31
0.0000000000
0
SPLINE
5
3E4
100
AcDbEntity
8
0
100
AcDbSpline
62
7
6
CONTINUOUS
70
0
71
3
72
10
73
6
74
4
42
0.0000001000
43
0.0000001000
44
0.0000000001
12
-0.6109338105
22
13.6999979684
32
0.0000000000
13
-0.6108443996
23
13.7000019553
33
0.0000000000
40
0.0000000000
40
0.0000000000
40
0.0000000000
40
0.0000000000
40
0.3324905269
40
0.6658263797
40
1.0000000000
40
1.0000000000
40
1.0000000000
40
1.0000000000
10
-19.1600160558
20
52.6289768150
30
0.0000000000
10
-19.2277259573
20
54.1473499959
30
0.0000000000
10
-19.3633144140
20
57.1879568349
30
0.0000000000
10
-19.5669436663
20
61.7546235089
30
0.0000000000
10
-19.7028616118
20
64.8029170646
30
0.0000000000
10
-19.7709043067
20
66.3289768150
30
0.0000000000
11
-19.1600160558
21
52.6289768150
31
0.0000000000
11
-19.3631405944
21
57.1840965883
31
0.0000000000
11
-19.5667714491
21
61.7507977766
31
0.0000000000
11
-19.7709043067
21
66.3289768150
31
0.0000000000
0
SPLINE
5
3E5
100
AcDbEntity
8
0
100
AcDbSpline
62
7
6
CONTINUOUS
70
0
71
3
72
12
73
8
74
6
42
0.0000001000
43
0.0000001000
44
0.0000000001
12
1.0594707318
22
-0.0795563142
32
0.0000000000
13
-0.0449891422
23
-1.0090157397
33
0.0000000000
40
0.0000000000
40
0.0000000000
40
0.0000000000
40
0.0000000000
40
0.0228895576
40
0.1459375196
40
0.3680959902
40
0.6649096285
40
1.0000000000
40
1.0000000000
40
1.0000000000
40
1.0000000000
10
13.0124658175
20
67.3177460153
30
0.0000000000
10
13.0205494230
20
67.3171390123
30
0.0000000000
10
13.0716048997
20
67.3043408074
30
0.0000000000
10
13.0560919786
20
67.1402995196
30
0.0000000000
10
13.0871981751
20
66.9499427366
30
0.0000000000
10
13.0761361008
20
66.6514027225
30
0.0000000000
10
13.0714114246
20
66.4416806346
30
0.0000000000
10
13.0663862818
20
66.3289768150
30
0.0000000000
11
13.0124658175
21
67.3177460153
31
0.0000000000
11
13.0351577247
21
67.3118392596
31
0.0000000000
11
13.0642423339
21
67.1910097370
31
0.0000000000
11
13.0777416713
21
66.9670320759
31
0.0000000000
11
13.0773952396
21
66.6672450962
31
0.0000000000
11
13.0663862818
21
66.3289768150
31
0.0000000000
0
SPLINE
5
3E6
100
AcDbEntity
8
0
100
AcDbSpline
62
7
6
CONTINUOUS
70
0
71
3
72
12
73
8
74
6
42
0.0000001000
43
0.0000001000
44
0.0000000001
12
-1.1677425109
22
0.0108244703
32
0.0000000000
13
-0.0470908469
23
1.1296125678
33
0.0000000000
40
0.0000000000
40
0.0000000000
40
0.0000000000
40
0.0000000000
40
0.0614695413
40
0.2118945833
40
0.4280492856
40
0.6994664447
40
1.0000000000
40
1.0000000000
40
1.0000000000
40
1.0000000000
10
-17.9981133052
20
51.6321405468
30
0.0000000000
10
-18.0220401707
20
51.6323623386
30
0.0000000000
10
-18.1047162723
20
51.6488691420
30
0.0000000000
10
-18.2091973705
20
51.7874901746
30
0.0000000000
10
-18.2979480142
20
52.0081270413
30
0.0000000000
10
-18.3602648619
20
52.3011619757
30
0.0000000000
10
-18.3804123819
20
52.5158146546
30
0.0000000000
10
-18.3851298418
20
52.6289768150
30
0.0000000000
11
-17.9981133052
21
51.6321405468
31
0.0000000000
11
-18.0674029446
21
51.6463250671
31
0.0000000000
11
-18.1866736926
21
51.7675610305
31
0.0000000000
11
-18.2845073893
21
51.9915067573
31
0.0000000000
11
-18.3523152450
21
52.2907837296
31
0.0000000000
11
-18.3851298418
21
52.6289768150
31
0.0000000000
0
SPLINE
5
3E7
100
AcDbEntity
8
0
100
AcDbSpline
62
7
6
CONTINUOUS
70
0
71
3
72
10
73
6
74
4
42
0.0000001000
43
0.0000001000
44
0.0000000001
12
-0.5711201673
22
13.6999982241
32
0.0000000000
13
-0.5710365622
23
13.7000017092
33
0.0000000000
40
0.0000000000
40
0.0000000000
40
0.0000000000
40
0.0000000000
40
0.3324924951
40
0.6658283461
40
1.0000000000
40
1.0000000000
40
1.0000000000
40
1.0000000000
10
-18.3851298418
20
52.6289768150
30
0.0000000000
10
-18.4484275649
20
54.1473590126
30
0.0000000000
10
-18.5751802981
20
57.1879748686
30
0.0000000000
10
-18.7655393327
20
61.7546415417
30
0.0000000000
10
-18.8925993303
20
64.8029260719
30
0.0000000000
10
-18.9562074078
20
66.3289768150
30
0.0000000000
11
-18.3851298418
21
52.6289768150
31
0.0000000000
11
-18.5750181807
21
57.1841236093
31
0.0000000000
11
-18.7653787122
21
61.7508247717
31
0.0000000000
11
-18.9562074078
21
66.3289768150
31
0.0000000000
0
SPLINE
5
3E8
100
AcDbEntity
8
0
100
AcDbSpline
62
7
6
CONTINUOUS
70
0
71
3
72
10
73
6
74
4
42
0.0000001000
43
0.0000001000
44
0.0000000001
12
-0.5711032124
22
-13.7000018783
32
0.0000000000
13
-0.5711951380
23
-13.6999980460
33
0.0000000000
40
0.0000000000
40
0.0000000000
40
0.0000000000
40
0.0000000000
40
0.3341882886
40
0.6675240930
40
1.0000000000
40
1.0000000000
40
1.0000000000
40
1.0000000000
10
11.7867303240
20
66.3289768150
30
0.0000000000
10
11.7231116556
20
64.8028500880
30
0.0000000000
10
11.5960333841
20
61.7544897796
30
0.0000000000
10
11.4056508030
20
57.1878231057
30
0.0000000000
10
11.2788849292
20
54.1472832405
30
0.0000000000
10
11.2155820553
20
52.6289768150
30
0.0000000000
11
11.7867303240
21
66.3289768150
31
0.0000000000
11
11.5958694182
21
61.7505968383
31
0.0000000000
11
11.4054853586
21
57.1838963132
31
0.0000000000
11
11.2155820553
21
52.6289768150
31
0.0000000000
0
SPLINE
5
3E9
100
AcDbEntity
8
0
100
AcDbSpline
62
7
6
CONTINUOUS
70
0
71
3
72
12
73
8
74
6
42
0.0000001000
43
0.0000001000
44
0.0000000001
12
-1.5150674364
22
0.0002252580
32
0.0000000000
13
0.0253625013
23
1.5058437300
33
0.0000000000
40
0.0000000000
40
0.0000000000
40
0.0000000000
40
0.0000000000
40
0.1147909402
40
0.3293317839
40
0.5487244631
40
0.7732296051
40
1.0000000000
40
1.0000000000
40
1.0000000000
40
1.0000000000
10
-62.4892588760
20
51.6290553356
30
0.0000000000
10
-62.5472308812
20
51.6290639548
30
0.0000000000
10
-62.7135695710
20
51.6457536259
30
0.0000000000
10
-62.9742432174
20
51.7524894921
30
0.0000000000
10
-63.2217249989
20
51.9819041571
30
0.0000000000
10
-63.3799050460
20
52.2861866649
30
0.0000000000
10
-63.4134113917
20
52.5151498892
30
0.0000000000
10
-63.4114942369
20
52.6289768150
30
0.0000000000
11
-62.4892588760
21
51.6290553356
31
0.0000000000
11
-62.6619865939
21
51.6464537314
31
0.0000000000
11
-62.9614169105
21
51.7678706875
31
0.0000000000
11
-63.2046220320
21
51.9915384952
31
0.0000000000
11
-63.3613211129
21
52.2911531061
31
0.0000000000
11
-63.4114942369
21
52.6289768150
31
0.0000000000
0
SPLINE
5
3EA
100
AcDbEntity
8
0
100
AcDbSpline
62
7
6
CONTINUOUS
70
0
71
3
72
12
73
8
74
6
42
0.0000001000
43
0.0000001000
44
0.0000000001
12
-1.5644417007
22
0.0000682528
32
0.0000000000
13
0.0089318146
23
1.5563764060
33
0.0000000000
40
0.0000000000
40
0.0000000000
40
0.0000000000
40
0.0000000000
40
0.1187690836
40
0.3385881082
40
0.5589501691
40
0.7798956948
40
1.0000000000
40
1.0000000000
40
1.0000000000
40
1.0000000000
10
-66.3903203451
20
51.6290227445
30
0.0000000000
10
-66.4522561142
20
51.6290254466
30
0.0000000000
10
-66.6288305532
20
51.6456129388
30
0.0000000000
10
-66.9054258370
20
51.7506940533
30
0.0000000000
10
-67.1706851427
20
51.9790472474
30
0.0000000000
10
-67.3424889127
20
52.2837940303
30
0.0000000000
10
-67.3811455034
20
52.5147884325
30
0.0000000000
10
-67.3804901932
20
52.6289768150
30
0.0000000000
11
-66.3903203451
21
51.6290227445
31
0.0000000000
11
-66.5750223273
21
51.6464537314
31
0.0000000000
11
-66.8948795681
21
51.7678706875
31
0.0000000000
11
-67.1548843317
21
51.9915384952
31
0.0000000000
11
-67.3236580993
21
52.2911531061
31
0.0000000000
11
-67.3804901932
21
52.6289768150
31
0.0000000000
0
SPLINE
5
3EB
100
AcDbEntity
8
0
100
AcDbSpline
62
7
6
CONTINUOUS
70
0
71
3
72
12
73
8
74
6
42
0.0000001000
43
0.0000001000
44
0.0000000001
12
1.5701141501
22
-0.0001263285
32
0.0000000000
13
0.0089631665
23
-1.5620261967
33
0.0000000000
40
0.0000000000
40
0.0000000000
40
0.0000000000
40
0.0000000000
40
0.1172814303
40
0.3371135265
40
0.5585427901
40
0.7799699621
40
1.0000000000
40
1.0000000000
40
1.0000000000
40
1.0000000000
10
-70.5127760586
20
67.3289313191
30
0.0000000000
10
-70.4513943142
20
67.3289263805
30
0.0000000000
10
-70.2749470941
20
67.3124920154
30
0.0000000000
10
-69.9973583742
20
67.2078905496
30
0.0000000000
10
-69.7292456448
20
66.9798303646
30
0.0000000000
10
-69.5535934993
20
66.6750789870
30
0.0000000000
10
-69.5119905487
20
66.4435410427
30
0.0000000000
10
-69.5113331601
20
66.3289768150
30
0.0000000000
11
-70.5127760586
21
67.3289313191
31
0.0000000000
11
-70.3297006530
21
67.3118392596
31
0.0000000000
11
-70.0082720726
21
67.1910097370
31
0.0000000000
11
-69.7447009208
21
66.9670320759
31
0.0000000000
11
-69.5721864247
21
66.6672450962
31
0.0000000000
11
-69.5113331601
21
66.3289768150
31
0.0000000000
0
SPLINE
5
3EC
100
AcDbEntity
8
0
100
AcDbSpline
62
7
6
CONTINUOUS
70
0
71
3
72
12
73
8
74
6
42
0.0000001000
43
0.0000001000
44
0.0000000001
12
1.5313300391
22
-0.0003657044
32
0.0000000000
13
0.0256319221
23
-1.5220500593
33
0.0000000000
40
0.0000000000
40
0.0000000000
40
0.0000000000
40
0.0000000000
40
0.1127875484
40
0.3274363604
40
0.5487017143
40
0.7741250688
40
1.0000000000
40
1.0000000000
40
1.0000000000
40
1.0000000000
10
-74.5878104591
20
67.3289023307
30
0.0000000000
10
-74.5302388055
20
67.3288885817
30
0.0000000000
10
-74.3630613899
20
67.3122098291
30
0.0000000000
10
-74.0993568313
20
67.2057464782
30
0.0000000000
10
-73.8447451789
20
66.9771879431
30
0.0000000000
10
-73.6762038372
20
66.6736114945
30
0.0000000000
10
-73.6343677327
20
66.4435744658
30
0.0000000000
10
-73.6324378631
20
66.3289768150
30
0.0000000000
11
-74.5878104591
21
67.3289023307
31
0.0000000000
11
-74.4162323873
21
67.3118392596
31
0.0000000000
11
-74.1126414418
21
67.1910097370
31
0.0000000000
11
-73.8610765723
21
66.9670320759
31
0.0000000000
11
-73.6940956579
21
66.6672450962
31
0.0000000000
11
-73.6324378631
21
66.3289768150
31
0.0000000000
0
SPLINE
5
3ED
100
AcDbEntity
8
0
100
AcDbSpline
62
7
6
CONTINUOUS
70
0
71
3
72
8
73
4
74
2
42
0.0000001000
43
0.0000001000
44
0.0000000001
12
0.1986438378
22
-0.0787539406
32
0.0000000000
13
0.1964777003
23
-0.0840317020
33
0.0000000000
40
0.0000000000
40
0.0000000000
40
0.0000000000
40
0.0000000000
40
1.0000000000
40
1.0000000000
40
1.0000000000
40
1.0000000000
10
-65.7513912091
20
80.5289768150
30
0.0000000000
10
-65.6851765965
20
80.5027255014
30
0.0000000000
10
-65.6193126911
20
80.4755796191
30
0.0000000000
10
-65.5538201243
20
80.4475690518
30
0.0000000000
11
-65.7513912091
21
80.5289768150
31
0.0000000000
11
-65.5538201243
21
80.4475690518
31
0.0000000000
0
SPLINE
5
3EE
100
AcDbEntity
8
0
100
AcDbSpline
62
7
6
CONTINUOUS
70
0
71
3
72
9
73
5
74
3
42
0.0000001000
43
0.0000001000
44
0.0000000001
12
0.3341618701
22
-0.1429179527
32
0.0000000000
13
0.3275319226
23
-0.1575129964
33
0.0000000000
40
0.0000000000
40
0.0000000000
40
0.0000000000
40
0.0000000000
40
0.5969954537
40
1.0000000000
40
1.0000000000
40
1.0000000000
40
1.0000000000
10
-65.5538201243
20
80.4475690518
30
0.0000000000
10
-65.4873224185
20
80.4191285958
30
0.0000000000
10
-65.3765763800
20
80.3699960844
30
0.0000000000
10
-65.2669391568
20
80.3184428770
30
0.0000000000
10
-65.2229402056
20
80.2972833924
30
0.0000000000
11
-65.5538201243
21
80.4475690518
31
0.0000000000
11
-65.3554878413
21
80.3596020792
31
0.0000000000
11
-65.2229402056
21
80.2972833924
31
0.0000000000
0
SPLINE
5
3EF
100
AcDbEntity
8
0
100
AcDbSpline
62
7
6
CONTINUOUS
70
0
71
3
72
8
73
4
74
2
42
0.0000001000
43
0.0000001000
44
0.0000000001
12
0.0665072228
22
-0.0319839112
32
0.0000000000
13
0.0662228780
23
-0.0325639942
33
0.0000000000
40
0.0000000000
40
0.0000000000
40
0.0000000000
40
0.0000000000
40
1.0000000000
40
1.0000000000
40
1.0000000000
40
1.0000000000
10
-65.2229402056
20
80.2972833924
30
0.0000000000
10
-65.2007711313
20
80.2866220887
30
0.0000000000
10
-65.1786491113
20
80.2758634748
30
0.0000000000
10
-65.1565748186
20
80.2650088101
30
0.0000000000
11
-65.2229402056
21
80.2972833924
31
0.0000000000
11
-65.1565748186
21
80.2650088101
31
0.0000000000
0
SPLINE
5
3F0
100
AcDbEntity
8
0
100
AcDbSpline
62
7
6
CONTINUOUS
70
0
71
3
72
8
73
4
74
2
42
0.0000001000
43
0.0000001000
44
0.0000000001
12
0.1321060252
22
0.0649609315
32
0.0000000000
13
0.1332295818
23
0.0626375321
33
0.0000000000
40
0.0000000000
40
0.0000000000
40
0.0000000000
40
0.0000000000
40
1.0000000000
40
1.0000000000
40
1.0000000000
40
1.0000000000
10
-71.6565748186
20
80.2650088101
30
0.0000000000
10
-71.6125394768
20
80.2866624539
30
0.0000000000
10
-71.5683142038
20
80.3079338626
30
0.0000000000
10
-71.5239043432
20
80.3288130400
30
0.0000000000
11
-71.6565748186
21
80.2650088101
31
0.0000000000
11
-71.5239043432
21
80.3288130400
31
0.0000000000
0
SPLINE
5
3F1
100
AcDbEntity
8
0
100
AcDbSpline
62
7
6
CONTINUOUS
70
0
71
3
72
9
73
5
74
3
42
0.0000001000
43
0.0000001000
44
0.0000000001
12
0.2624618467
22
0.1233957363
32
0.0000000000
13
0.2666564919
23
0.1140465245
33
0.0000000000
40
0.0000000000
40
0.0000000000
40
0.0000000000
40
0.0000000000
40
0.2518722449
40
1.0000000000
40
1.0000000000
40
1.0000000000
40
1.0000000000
10
-71.5239043432
20
80.3288130400
30
0.0000000000
10
-71.5018687250
20
80.3391730270
30
0.0000000000
10
-71.4142010107
20
80.3799215378
30
0.0000000000
10
-71.3258272232
20
80.4191285938
30
0.0000000000
10
-71.2593295156
20
80.4475690506
30
0.0000000000
11
-71.5239043432
21
80.3288130400
31
0.0000000000
11
-71.4576618040
21
80.3596020755
31
0.0000000000
11
-71.2593295156
21
80.4475690506
31
0.0000000000
0
SPLINE
5
3F2
100
AcDbEntity
8
0
100
AcDbSpline
62
7
6
CONTINUOUS
70
0
71
3
72
8
73
4
74
2
42
0.0000001000
43
0.0000001000
44
0.0000000001
12
0.1964777031
22
0.0840317032
32
0.0000000000
13
0.1986438406
23
0.0787539417
33
0.0000000000
40
0.0000000000
40
0.0000000000
40
0.0000000000
40
0.0000000000
40
1.0000000000
40
1.0000000000
40
1.0000000000
40
1.0000000000
10
-71.2593295156
20
80.4475690506
30
0.0000000000
10
-71.1938369479
20
80.4755796183
30
0.0000000000
10
-71.1279730416
20
80.5027255010
30
0.0000000000
10
-71.0617584281
20
80.5289768150
30
0.0000000000
11
-71.2593295156
21
80.4475690506
31
0.0000000000
11
-71.0617584281
21
80.5289768150
31
0.0000000000
0
SPLINE
5
3F3
100
AcDbEntity
8
0
100
AcDbSpline
62
7
6
CONTINUOUS
70
0
71
3
72
12
73
8
74
6
42
0.0000001000
43
0.0000001000
44
0.0000000001
12
0.0256272975
22
1.5217885902
32
0.0000000000
13
1.5311915441
23
0.0000714501
33
0.0000000000
40
0.0000000000
40
0.0000000000
40
0.0000000000
40
0.0000000000
40
0.2316729405
40
0.4648247732
40
0.6875207177
40
0.9016521538
40
1.0000000000
40
1.0000000000
40
1.0000000000
40
1.0000000000
10
-63.1807662421
20
66.3289768150
30
0.0000000000
10
-63.1787871916
20
66.4464958941
30
0.0000000000
10
-63.1346885753
20
66.6834457428
30
0.0000000000
10
-62.9578226965
20
66.9916893280
30
0.0000000000
10
-62.6948077798
20
67.2175596116
30
0.0000000000
10
-62.4351459986
20
67.3150547016
30
0.0000000000
10
-62.2756376619
20
67.3288954914
30
0.0000000000
10
-62.2254411984
20
67.3288978337
30
0.0000000000
11
-63.1807662421
21
66.3289768150
31
0.0000000000
11
-63.1160791728
21
66.6755997203
31
0.0000000000
11
-62.9389960064
21
66.9831152932
31
0.0000000000
11
-62.6809305227
21
67.2028546291
31
0.0000000000
11
-62.3752608451
21
67.3159152808
31
0.0000000000
11
-62.2254411984
21
67.3288978337
31
0.0000000000
0
SPLINE
5
3F4
100
AcDbEntity
8
0
100
AcDbSpline
62
7
6
CONTINUOUS
70
0
71
3
72
12
73
8
74
6
42
0.0000001000
43
0.0000001000
44
0.0000000001
12
0.0089612559
22
1.5617355993
32
0.0000000000
13
1.5698539391
23
-0.0000108996
33
0.0000000000
40
0.0000000000
40
0.0000000000
40
0.0000000000
40
0.0000000000
40
0.2256885161
40
0.4548524025
40
0.6780401648
40
0.8976763053
40
1.0000000000
40
1.0000000000
40
1.0000000000
40
1.0000000000
10
-67.3018737889
20
66.3289768150
30
0.0000000000
10
-67.3011996381
20
66.4464654116
30
0.0000000000
10
-67.2572531259
20
66.6850657111
30
0.0000000000
10
-67.0727112483
20
66.9944656497
30
0.0000000000
10
-66.7957243572
20
67.2196209562
30
0.0000000000
10
-66.5225074902
20
67.3152567874
30
0.0000000000
10
-66.3540271182
20
67.3289307010
30
0.0000000000
10
-66.3004826998
20
67.3289303292
30
0.0000000000
11
-67.3018737889
21
66.3289768150
31
0.0000000000
11
-67.2379301816
21
66.6755997203
31
0.0000000000
11
-67.0548289118
21
66.9831152932
31
0.0000000000
11
-66.7842501083
21
67.2028546291
31
0.0000000000
11
-66.4603990953
21
67.3159152808
31
0.0000000000
11
-66.3004826998
21
67.3289303292
31
0.0000000000
0
SPLINE
5
3F5
100
AcDbEntity
8
0
100
AcDbSpline
62
7
6
CONTINUOUS
70
0
71
3
72
12
73
8
74
6
42
0.0000001000
43
0.0000001000
44
0.0000000001
12
0.0089298499
22
-1.5559918563
32
0.0000000000
13
-1.5640647977
23
0.0000161950
33
0.0000000000
40
0.0000000000
40
0.0000000000
40
0.0000000000
40
0.0000000000
40
0.2263916490
40
0.4558693306
40
0.6791919497
40
0.8986244976
40
1.0000000000
40
1.0000000000
40
1.0000000000
40
1.0000000000
10
-69.4327146235
20
52.6289768150
30
0.0000000000
10
-69.4320407423
20
52.5115556275
30
0.0000000000
10
-69.4731906715
20
52.2727492151
30
0.0000000000
10
-69.6550711746
20
51.9623601224
30
0.0000000000
10
-69.9307630343
20
51.7371499144
30
0.0000000000
10
-70.2026740430
20
51.6424220860
30
0.0000000000
10
-70.3699264188
20
51.6290226756
30
0.0000000000
10
-70.4227790370
20
51.6290232229
30
0.0000000000
11
-69.4327146235
21
52.6289768150
31
0.0000000000
11
-69.4928708895
21
52.2818818309
31
0.0000000000
11
-69.6732715179
21
51.9737333034
31
0.0000000000
11
-69.9424514709
21
51.7539739740
31
0.0000000000
11
-70.2649156887
21
51.6417300300
31
0.0000000000
11
-70.4227790370
21
51.6290232229
31
0.0000000000
0
SPLINE
5
3F6
100
AcDbEntity
8
0
100
AcDbSpline
62
7
6
CONTINUOUS
70
0
71
3
72
12
73
8
74
6
42
0.0000001000
43
0.0000001000
44
0.0000000001
12
0.0253567361
22
-1.5054884275
32
0.0000000000
13
-1.5147461419
23
0.0000486775
33
0.0000000000
40
0.0000000000
40
0.0000000000
40
0.0000000000
40
0.0000000000
40
0.2332149624
40
0.4661830318
40
0.6881650498
40
0.9020493378
40
1.0000000000
40
1.0000000000
40
1.0000000000
40
1.0000000000
10
-73.4017078749
20
52.6289768150
30
0.0000000000
10
-73.3997366848
20
52.5119426726
30
0.0000000000
10
-73.4354495073
20
52.2753569251
30
0.0000000000
10
-73.6029804535
20
51.9653420635
30
0.0000000000
10
-73.8604617922
20
51.7388281326
30
0.0000000000
10
-74.1169386392
20
51.6425059517
30
0.0000000000
10
-74.2743869734
20
51.6290556979
30
0.0000000000
10
-74.3238437693
20
51.6290572872
30
0.0000000000
11
-73.4017078749
21
52.6289768150
31
0.0000000000
11
-73.4549334011
21
52.2818818309
31
0.0000000000
11
-73.6225383771
21
51.9737333034
31
0.0000000000
11
-73.8743744040
21
51.7539739740
31
0.0000000000
11
-74.1762268790
21
51.6417300300
31
0.0000000000
11
-74.3238437693
21
51.6290572872
31
0.0000000000
0
SPLINE
5
3F7
100
AcDbEntity
8
0
100
AcDbSpline
62
7
6
CONTINUOUS
70
0
71
3
72
10
73
6
74
4
42
0.0000001000
43
0.0000001000
44
0.0000000001
12
0.2307133976
22
-13.7000002794
32
0.0000000000
13
0.2307472253
23
-13.6999997097
33
0.0000000000
40
0.0000000000
40
0.0000000000
40
0.0000000000
40
0.0000000000
40
0.3341670269
40
0.6675028699
40
1.0000000000
40
1.0000000000
40
1.0000000000
40
1.0000000000
10
-73.6324378631
20
66.3289768150
30
0.0000000000
10
-73.6067389264
20
64.8029473610
30
0.0000000000
10
-73.5554037876
20
61.7546842129
30
0.0000000000
10
-73.4784938539
20
57.1880175452
30
0.0000000000
10
-73.4272821383
20
54.1473803435
30
0.0000000000
10
-73.4017078749
20
52.6289768150
30
0.0000000000
11
-73.6324378631
21
66.3289768150
31
0.0000000000
11
-73.5553392472
21
61.7508884836
31
0.0000000000
11
-73.4784287105
21
57.1841874336
31
0.0000000000
11
-73.4017078749
21
52.6289768150
31
0.0000000000
0
SPLINE
5
3F8
100
AcDbEntity
8
0
100
AcDbSpline
62
7
6
CONTINUOUS
70
0
71
3
72
10
73
6
74
4
42
0.0000001000
43
0.0000001000
44
0.0000000001
12
0.0786128821
22
-13.7000000324
32
0.0000000000
13
0.0786244114
23
-13.6999999663
33
0.0000000000
40
0.0000000000
40
0.0000000000
40
0.0000000000
40
0.0000000000
40
0.3341670310
40
0.6675028740
40
1.0000000000
40
1.0000000000
40
1.0000000000
40
1.0000000000
10
-69.5113331601
20
66.3289768150
30
0.0000000000
10
-69.5025765490
20
64.8029473700
30
0.0000000000
10
-69.4850847028
20
61.7546842404
30
0.0000000000
10
-69.4588785452
20
57.1880175736
30
0.0000000000
10
-69.4414287538
20
54.1473803532
30
0.0000000000
10
-69.4327146235
20
52.6289768150
30
0.0000000000
11
-69.5113331601
21
66.3289768150
31
0.0000000000
11
-69.4850627112
21
61.7508884836
31
0.0000000000
11
-69.4588563482
21
57.1841874336
31
0.0000000000
11
-69.4327146235
21
52.6289768150
31
0.0000000000
0
SPLINE
5
3F9
100
AcDbEntity
8
0
100
AcDbSpline
62
7
6
CONTINUOUS
70
0
71
3
72
10
73
6
74
4
42
0.0000001000
43
0.0000001000
44
0.0000000001
12
0.0786222788
22
13.6999999663
32
0.0000000000
13
0.0786107499
23
13.7000000324
33
0.0000000000
40
0.0000000000
40
0.0000000000
40
0.0000000000
40
0.0000000000
40
0.3324904949
40
0.6658263481
40
1.0000000000
40
1.0000000000
40
1.0000000000
40
1.0000000000
10
-67.3804901932
20
52.6289768150
30
0.0000000000
10
-67.3717764730
20
54.1473500715
30
0.0000000000
10
-67.3543273284
20
57.1879570562
30
0.0000000000
10
-67.3281218816
20
61.7546237230
30
0.0000000000
10
-67.3106303361
20
64.8029171343
30
0.0000000000
10
-67.3018737889
20
66.3289768150
30
0.0000000000
11
-67.3804901932
21
52.6289768150
31
0.0000000000
11
-67.3543496989
21
57.1840965883
31
0.0000000000
11
-67.3281440458
21
61.7507977766
31
0.0000000000
11
-67.3018737889
21
66.3289768150
31
0.0000000000
0
SPLINE
5
3FA
100
AcDbEntity
8
0
100
AcDbSpline
62
7
6
CONTINUOUS
70
0
71
3
72
10
73
6
74
4
42
0.0000001000
43
0.0000001000
44
0.0000000001
12
0.2307452317
22
13.6999997097
32
0.0000000000
13
0.2307114043
23
13.7000002794
33
0.0000000000
40
0.0000000000
40
0.0000000000
40
0.0000000000
40
0.0000000000
40
0.3324924714
40
0.6658283226
40
1.0000000000
40
1.0000000000
40
1.0000000000
40
1.0000000000
10
-63.4114942369
20
52.6289768150
30
0.0000000000
10
-63.3859205528
20
54.1473590688
30
0.0000000000
10
-63.3347096372
20
57.1879750332
30
0.0000000000
10
-63.2578003679
20
61.7546417009
30
0.0000000000
10
-63.2064653144
20
64.8029261237
30
0.0000000000
10
-63.1807662421
20
66.3289768150
30
0.0000000000
11
-63.4114942369
21
52.6289768150
31
0.0000000000
11
-63.3347751390
21
57.1841236093
31
0.0000000000
11
-63.2578652649
21
61.7508247717
31
0.0000000000
11
-63.1807662421
21
66.3289768150
31
0.0000000000
0
SPLINE
5
3FB
100
AcDbEntity
8
0
100
AcDbSpline
62
7
6
CONTINUOUS
70
0
71
3
72
10
73
6
74
4
42
0.0000001000
43
0.0000001000
44
0.0000000001
12
-0.0786348443
22
13.6999999629
32
0.0000000000
13
-0.0786221676
23
13.7000000357
33
0.0000000000
40
0.0000000000
40
0.0000000000
40
0.0000000000
40
0.0000000000
40
0.3324682828
40
0.6658040984
40
1.0000000000
40
1.0000000000
40
1.0000000000
40
1.0000000000
10
-71.3523375555
20
52.6289768150
30
0.0000000000
10
-71.3610520860
20
54.1472486358
30
0.0000000000
10
-71.3785033906
20
57.1877540130
30
0.0000000000
10
-71.4047128268
20
61.7544206798
30
0.0000000000
10
-71.4222075344
20
64.8028155268
30
0.0000000000
10
-71.4309659364
20
66.3289768150
30
0.0000000000
11
-71.3523375555
21
52.6289768150
31
0.0000000000
11
-71.3784804138
21
57.1837922818
31
0.0000000000
11
-71.4046900544
21
61.7504929545
31
0.0000000000
11
-71.4309659364
21
66.3289768150
31
0.0000000000
0
SPLINE
5
3FC
100
AcDbEntity
8
0
100
AcDbSpline
62
7
6
CONTINUOUS
70
0
71
3
72
10
73
6
74
4
42
0.0000001000
43
0.0000001000
44
0.0000000001
12
-0.2307778433
22
13.6999996806
32
0.0000000000
13
-0.2307406490
23
13.7000003071
33
0.0000000000
40
0.0000000000
40
0.0000000000
40
0.0000000000
40
0.0000000000
40
0.3324682874
40
0.6658041028
40
1.0000000000
40
1.0000000000
40
1.0000000000
40
1.0000000000
10
-75.0681968512
20
52.6289768150
30
0.0000000000
10
-75.0937722893
20
54.1472486252
30
0.0000000000
10
-75.1449884456
20
57.1877539817
30
0.0000000000
10
-75.2219080013
20
61.7544206496
30
0.0000000000
10
-75.2732515378
20
64.8028155170
30
0.0000000000
10
-75.2989557306
20
66.3289768150
30
0.0000000000
11
-75.0681968512
21
52.6289768150
31
0.0000000000
11
-75.1449210138
21
57.1837922818
31
0.0000000000
11
-75.2218411694
21
61.7504929545
31
0.0000000000
11
-75.2989557306
21
66.3289768150
31
0.0000000000
0
SPLINE
5
3FD
100
AcDbEntity
8
0
100
AcDbSpline
62
7
6
CONTINUOUS
70
0
71
3
72
9
73
5
74
3
42
0.0000001000
43
0.0000001000
44
0.0000000001
12
0.2925530538
22
0.0318899815
32
0.0000000000
13
0.2654097369
23
0.1271227533
33
0.0000000000
40
0.0000000000
40
0.0000000000
40
0.0000000000
40
0.0000000000
40
0.2687358344
40
1.0000000000
40
1.0000000000
40
1.0000000000
40
1.0000000000
10
-62.5830352419
20
51.6341503232
30
0.0000000000
10
-62.5568287456
20
51.6370069835
30
0.0000000000
10
-62.4598146316
20
51.6521100534
30
0.0000000000
10
-62.3662517316
20
51.6838674903
30
0.0000000000
10
-62.3015568550
20
51.7148542616
30
0.0000000000
11
-62.5830352419
21
51.6341503232
31
0.0000000000
11
-62.5049356509
21
51.6463272166
31
0.0000000000
11
-62.3015568550
21
51.7148542616
31
0.0000000000
0
SPLINE
5
3FE
100
AcDbEntity
8
0
100
AcDbSpline
62
7
6
CONTINUOUS
70
0
71
3
72
11
73
7
74
5
42
0.0000001000
43
0.0000001000
44
0.0000000001
12
1.0168869804
22
0.4870562560
32
0.0000000000
13
0.0188807117
23
1.1208527450
33
0.0000000000
40
0.0000000000
40
0.0000000000
40
0.0000000000
40
0.0000000000
40
0.0963498676
40
0.3912038630
40
0.6937755977
40
1.0000000000
40
1.0000000000
40
1.0000000000
40
1.0000000000
10
-62.3015568550
20
51.7148542616
30
0.0000000000
10
-62.2688978796
20
51.7304968636
30
0.0000000000
10
-62.1401480870
20
51.8020427761
30
0.0000000000
10
-61.9466327826
20
51.9824724830
30
0.0000000000
10
-61.7863399783
20
52.2861212924
30
0.0000000000
10
-61.7469282670
20
52.5145659943
30
0.0000000000
10
-61.7450010221
20
52.6289768150
30
0.0000000000
11
-62.3015568550
21
51.7148542616
31
0.0000000000
11
-62.2066689309
21
51.7675705996
31
0.0000000000
11
-61.9635628672
21
51.9915185679
31
0.0000000000
11
-61.8039274890
21
52.2907910334
31
0.0000000000
11
-61.7450010221
21
52.6289768150
31
0.0000000000
0
SPLINE
5
3FF
100
AcDbEntity
8
0
100
AcDbSpline
62
7
6
CONTINUOUS
70
0
71
3
72
12
73
8
74
6
42
0.0000001000
43
0.0000001000
44
0.0000000001
12
1.5003367261
22
0.0000700103
32
0.0000000000
13
-0.0251108855
23
-1.4911232497
33
0.0000000000
40
0.0000000000
40
0.0000000000
40
0.0000000000
40
0.0000000000
40
0.1143040421
40
0.3277312382
40
0.5460912712
40
0.7709374067
40
1.0000000000
40
1.0000000000
40
1.0000000000
40
1.0000000000
10
-62.2254411984
20
67.3288978337
30
0.0000000000
10
-62.1682763477
20
67.3289005012
30
0.0000000000
10
-62.0043971064
20
67.3127184394
30
0.0000000000
10
-61.7473905710
20
67.2066689214
30
0.0000000000
10
-61.5065676625
20
66.9757217759
30
0.0000000000
10
-61.3558259655
20
66.6707192359
30
0.0000000000
10
-61.3244785962
20
66.4428303345
30
0.0000000000
10
-61.3263959177
20
66.3289768150
30
0.0000000000
11
-62.2254411984
21
67.3288978337
31
0.0000000000
11
-62.0551353613
21
67.3118392596
31
0.0000000000
11
-61.7606703763
21
67.1910097370
31
0.0000000000
11
-61.5242796946
21
66.9670320759
31
0.0000000000
11
-61.3740537617
21
66.6672450962
31
0.0000000000
11
-61.3263959177
21
66.3289768150
31
0.0000000000
0
SPLINE
5
400
100
AcDbEntity
8
0
100
AcDbSpline
62
7
6
CONTINUOUS
70
0
71
3
72
12
73
8
74
6
42
0.0000001000
43
0.0000001000
44
0.0000000001
12
1.5592106568
22
-0.0000108257
32
0.0000000000
13
-0.0089005005
23
-1.5511473576
33
0.0000000000
40
0.0000000000
40
0.0000000000
40
0.0000000000
40
0.0000000000
40
0.1178317211
40
0.3373302909
40
0.5577831209
40
0.7789505676
40
1.0000000000
40
1.0000000000
40
1.0000000000
40
1.0000000000
10
-66.3004826998
20
67.3289303292
30
0.0000000000
10
-66.2392412081
20
67.3289299040
30
0.0000000000
10
-66.0639226570
20
67.3126521978
30
0.0000000000
10
-65.7886580927
20
67.2082364496
30
0.0000000000
10
-65.5251384260
20
66.9794004780
30
0.0000000000
10
-65.3555264682
20
66.6740601649
30
0.0000000000
10
-65.3175766749
20
66.4432702293
30
0.0000000000
10
-65.3182324918
20
66.3289768150
30
0.0000000000
11
-66.3004826998
21
67.3289303292
31
0.0000000000
11
-66.1178407852
21
67.3118392596
31
0.0000000000
11
-65.7995217401
21
67.1910097370
31
0.0000000000
11
-65.5411209670
21
66.9670320759
31
0.0000000000
11
-65.3743154815
21
66.6672450962
31
0.0000000000
11
-65.3182324918
21
66.3289768150
31
0.0000000000
0
SPLINE
5
401
100
AcDbEntity
8
0
100
AcDbSpline
62
7
6
CONTINUOUS
70
0
71
3
72
11
73
7
74
5
42
0.0000001000
43
0.0000001000
44
0.0000000001
12
1.3551928593
22
0.2579684752
32
0.0000000000
13
0.0078784311
23
1.3726412769
33
0.0000000000
40
0.0000000000
40
0.0000000000
40
0.0000000000
40
0.0000000000
40
0.2490018901
40
0.4991587095
40
0.7497930470
40
1.0000000000
40
1.0000000000
40
1.0000000000
40
1.0000000000
10
-66.2703375101
20
51.6463272166
30
0.0000000000
10
-66.1578556490
20
51.6677387625
30
0.0000000000
10
-65.9399689976
20
51.7504833694
30
0.0000000000
10
-65.6748237868
20
51.9790754130
30
0.0000000000
10
-65.5022385116
20
52.2836925214
30
0.0000000000
10
-65.4615217131
20
52.5144953512
30
0.0000000000
10
-65.4608646337
20
52.6289768150
30
0.0000000000
11
-66.2703375101
21
51.6463272166
31
0.0000000000
11
-65.9507682988
21
51.7675705996
31
0.0000000000
11
-65.6904646724
21
51.9915185679
31
0.0000000000
11
-65.5207671623
21
52.2907910334
31
0.0000000000
11
-65.4608646337
21
52.6289768150
31
0.0000000000
0
SPLINE
5
402
100
AcDbEntity
8
0
100
AcDbSpline
62
7
6
CONTINUOUS
70
0
71
3
72
12
73
8
74
6
42
0.0000001000
43
0.0000001000
44
0.0000000001
12
-1.5649263665
22
0.0000162040
32
0.0000000000
13
-0.0089347690
23
1.5568489782
33
0.0000000000
40
0.0000000000
40
0.0000000000
40
0.0000000000
40
0.0000000000
40
0.1186950326
40
0.3381964366
40
0.5584212050
40
0.7796396440
40
1.0000000000
40
1.0000000000
40
1.0000000000
40
1.0000000000
10
-70.4227790370
20
51.6290232229
30
0.0000000000
10
-70.4846953657
20
51.6290238640
30
0.0000000000
10
-70.6611159415
20
51.6455850466
30
0.0000000000
10
-70.9375144068
20
51.7507474223
30
0.0000000000
10
-71.2025359922
20
51.9793290827
30
0.0000000000
10
-71.3750175250
20
52.2838251393
30
0.0000000000
10
-71.4156987399
20
52.5146208833
30
0.0000000000
10
-71.4163550295
20
52.6289768150
30
0.0000000000
11
-70.4227790370
21
51.6290232229
31
0.0000000000
11
-70.6074184534
21
51.6464537314
31
0.0000000000
11
-70.9268578509
21
51.7678706875
31
0.0000000000
11
-71.1867180136
21
51.9915384952
31
0.0000000000
11
-71.3565676549
21
52.2911531061
31
0.0000000000
11
-71.4163550295
21
52.6289768150
31
0.0000000000
0
SPLINE
5
403
100
AcDbEntity
8
0
100
AcDbSpline
62
7
6
CONTINUOUS
70
0
71
3
72
11
73
7
74
5
42
0.0000001000
43
0.0000001000
44
0.0000000001
12
-1.3504268491
22
-0.2568306789
32
0.0000000000
13
0.0078492379
23
-1.3677384301
33
0.0000000000
40
0.0000000000
40
0.0000000000
40
0.0000000000
40
0.0000000000
40
0.2488685476
40
0.4984623212
40
0.7495565580
40
1.0000000000
40
1.0000000000
40
1.0000000000
40
1.0000000000
10
-70.6320330867
20
67.3117335053
30
0.0000000000
10
-70.7440593429
20
67.2904278126
30
0.0000000000
10
-70.9609172041
20
67.2080241607
30
0.0000000000
10
-71.2242692077
20
66.9791889440
30
0.0000000000
10
-71.3937238413
20
66.6739495891
30
0.0000000000
10
-71.4316211998
20
66.4431571883
30
0.0000000000
10
-71.4309659364
20
66.3289768150
30
0.0000000000
11
-70.6320330867
21
67.3117335053
31
0.0000000000
11
-70.9502004627
21
67.1907512809
31
0.0000000000
11
-71.2080965263
21
66.9670705319
31
0.0000000000
11
-71.3750095252
21
66.6669223185
31
0.0000000000
11
-71.4309659364
21
66.3289768150
31
0.0000000000
0
SPLINE
5
404
100
AcDbEntity
8
0
100
AcDbSpline
62
7
6
CONTINUOUS
70
0
71
3
72
9
73
5
74
3
42
0.0000001000
43
0.0000001000
44
0.0000000001
12
-0.2892242998
22
-0.0316771038
32
0.0000000000
13
-0.2618251517
23
-0.1271101370
33
0.0000000000
40
0.0000000000
40
0.0000000000
40
0.0000000000
40
0.0000000000
40
0.2682726987
40
1.0000000000
40
1.0000000000
40
1.0000000000
40
1.0000000000
10
-74.4940020327
20
67.3237990828
30
0.0000000000
10
-74.5198656938
20
67.3209663821
30
0.0000000000
10
-74.6157746575
20
67.3059897903
30
0.0000000000
10
-74.7082954719
20
67.2743777752
30
0.0000000000
10
-74.7721570091
20
67.2433744560
30
0.0000000000
11
-74.4940020327
21
67.3237990828
31
0.0000000000
11
-74.5710813609
21
67.3117335053
31
0.0000000000
11
-74.7721570091
21
67.2433744560
31
0.0000000000
0
SPLINE
5
405
100
AcDbEntity
8
0
100
AcDbSpline
62
7
6
CONTINUOUS
70
0
71
3
72
11
73
7
74
5
42
0.0000001000
43
0.0000001000
44
0.0000000001
12
-1.0031621390
22
-0.4870123291
32
0.0000000000
13
0.0186661879
23
-1.1082866464
33
0.0000000000
40
0.0000000000
40
0.0000000000
40
0.0000000000
40
0.0000000000
40
0.0960565019
40
0.3893028013
40
0.6921182162
40
1.0000000000
40
1.0000000000
40
1.0000000000
40
1.0000000000
10
-74.7721570091
20
67.2433744560
30
0.0000000000
10
-74.8042770911
20
67.2277808891
30
0.0000000000
10
-74.9305195946
20
67.1565116536
30
0.0000000000
10
-75.1190807894
20
66.9754993985
30
0.0000000000
10
-75.2695940007
20
66.6705944483
30
0.0000000000
10
-75.3008713903
20
66.4427172382
30
0.0000000000
10
-75.2989557306
20
66.3289768150
30
0.0000000000
11
-74.7721570091
21
67.2433744560
31
0.0000000000
11
-74.8653465920
21
67.1907512809
31
0.0000000000
11
-75.1011908359
21
66.9670705319
31
0.0000000000
11
-75.2514392149
21
66.6669223185
31
0.0000000000
11
-75.2989557306
21
66.3289768150
31
0.0000000000
0
SPLINE
5
406
100
AcDbEntity
8
0
100
AcDbSpline
62
7
6
CONTINUOUS
70
0
71
3
72
12
73
8
74
6
42
0.0000001000
43
0.0000001000
44
0.0000000001
12
-1.5163486736
22
0.0000487290
32
0.0000000000
13
-0.0253835624
23
1.5070811650
33
0.0000000000
40
0.0000000000
40
0.0000000000
40
0.0000000000
40
0.0000000000
40
0.1145836317
40
0.3281945882
40
0.5471999747
40
0.7724992602
40
1.0000000000
40
1.0000000000
40
1.0000000000
40
1.0000000000
10
-74.3238437693
20
51.6290572872
30
0.0000000000
10
-74.3817600153
20
51.6290591484
30
0.0000000000
10
-74.5476482040
20
51.6456654734
30
0.0000000000
10
-74.8077339346
20
51.7526729834
30
0.0000000000
10
-75.0544600872
20
51.9827107338
30
0.0000000000
10
-75.2147446772
20
52.2862370945
30
0.0000000000
10
-75.2541506576
20
52.5146894550
30
0.0000000000
10
-75.2560755840
20
52.6289768150
30
0.0000000000
11
-74.3238437693
21
51.6290572872
31
0.0000000000
11
-74.4963878627
21
51.6464537314
31
0.0000000000
11
-74.7945918797
21
51.7678706875
31
0.0000000000
11
-75.0373726217
21
51.9915384952
31
0.0000000000
11
-75.1972292104
21
52.2911531061
31
0.0000000000
11
-75.2560755840
21
52.6289768150
31
0.0000000000
0
SPLINE
5
407
100
AcDbEntity
8
0
100
AcDbSpline
62
7
6
CONTINUOUS
70
0
71
3
72
10
73
6
74
4
42
0.0000001000
43
0.0000001000
44
0.0000000001
12
-0.7720481995
22
-0.6383273550
32
0.0000000000
13
-0.7538480914
23
-0.6597221307
33
0.0000000000
40
0.0000000000
40
0.0000000000
40
0.0000000000
40
0.0000000000
40
0.3237590440
40
0.6571149147
40
1.0000000000
40
1.0000000000
40
1.0000000000
40
1.0000000000
10
-71.7137639574
20
-79.9710231850
30
0.0000000000
10
-71.7970831531
20
-80.0399112698
30
0.0000000000
10
-71.9653740945
20
-80.1807199125
30
0.0000000000
10
-72.2193368059
20
-80.3975331373
30
0.0000000000
10
-72.3898117194
20
-80.5456202254
30
0.0000000000
10
-72.4759728085
20
-80.6210231850
30
0.0000000000
11
-71.7137639574
21
-79.9710231850
31
0.0000000000
11
-71.9625744358
21
-80.1790670629
31
0.0000000000
11
-72.2166093229
21
-80.3958240760
31
0.0000000000
11
-72.4759728085
21
-80.6210231850
31
0.0000000000
0
SPLINE
5
408
100
AcDbEntity
8
0
100
AcDbSpline
62
7
6
CONTINUOUS
70
0
71
3
72
10
73
6
74
4
42
0.0000001000
43
0.0000001000
44
0.0000000001
12
-0.7538480907
22
0.6597221301
32
0.0000000000
13
-0.7720481988
23
0.6383273544
33
0.0000000000
40
0.0000000000
40
0.0000000000
40
0.0000000000
40
0.0000000000
40
0.3426431828
40
0.6760028202
40
1.0000000000
40
1.0000000000
40
1.0000000000
40
1.0000000000
10
-64.3371768287
20
-80.6210231850
30
0.0000000000
10
-64.4232771318
20
-80.5456734216
30
0.0000000000
10
-64.5936916291
20
-80.3976380470
30
0.0000000000
10
-64.8476529023
20
-80.1808231412
30
0.0000000000
10
-65.0160052001
20
-80.0399619392
30
0.0000000000
10
-65.0993856798
20
-79.9710231850
30
0.0000000000
11
-64.3371768287
21
-80.6210231850
31
0.0000000000
11
-64.5963566801
21
-80.3959821976
31
0.0000000000
11
-64.8503929911
21
-80.1792210405
31
0.0000000000
11
-65.0993856798
21
-79.9710231850
31
0.0000000000
0
SPLINE
5
409
100
AcDbEntity
8
0
100
AcDbSpline
62
7
6
CONTINUOUS
70
0
71
3
72
14
73
10
74
8
42
0.0000001000
43
0.0000001000
44
0.0000000001
12
1.4127048960
22
-2.9877945856
32
0.0000000000
13
0.0000000000
23
-3.3049435107
33
0.0000000000
40
0.0000000000
40
0.0000000000
40
0.0000000000
40
0.0000000000
40
0.1281014992
40
0.2625115493
40
0.4027501560
40
0.5477383498
40
0.6962135989
40
0.8472820258
40
1.0000000000
40
1.0000000000
40
1.0000000000
40
1.0000000000
10
-64.3371768287
20
-91.9710231850
30
0.0000000000
10
-64.2768536237
20
-92.0986035069
30
0.0000000000
10
-64.1730785100
20
-92.3696260853
30
0.0000000000
10
-64.0623581671
20
-92.7999043617
30
0.0000000000
10
-63.9844485978
20
-93.2559799822
30
0.0000000000
10
-63.9319398297
20
-93.7310604829
30
0.0000000000
10
-63.8987473359
20
-94.2197579661
30
0.0000000000
10
-63.8805304722
20
-94.7177169885
30
0.0000000000
10
-63.8766741574
20
-95.0523971210
30
0.0000000000
10
-63.8766741574
20
-95.2206385469
30
0.0000000000
11
-64.3371768287
21
-91.9710231850
31
0.0000000000
11
-64.1830991219
21
-92.3653589666
31
0.0000000000
11
-64.0698313398
21
-92.7948932564
31
0.0000000000
11
-63.9897838852
21
-93.2514091262
31
0.0000000000
11
-63.9356859572
21
-93.7275233655
31
0.0000000000
11
-63.9014718168
21
-94.2170314354
31
0.0000000000
11
-63.8826692361
21
-94.7159498750
31
0.0000000000
11
-63.8766741574
21
-95.2206385469
31
0.0000000000
0
SPLINE
5
40A
100
AcDbEntity
8
0
100
AcDbSpline
62
7
6
CONTINUOUS
70
0
71
3
72
14
73
10
74
8
42
0.0000001000
43
0.0000001000
44
0.0000000001
12
0.0000000000
22
3.3049497659
32
0.0000000000
13
1.4127075698
23
2.9878002406
33
0.0000000000
40
0.0000000000
40
0.0000000000
40
0.0000000000
40
0.0000000000
40
0.1537058338
40
0.3058964122
40
0.4550352551
40
0.5998359817
40
0.7392086074
40
0.8725919739
40
1.0000000000
40
1.0000000000
40
1.0000000000
40
1.0000000000
10
-72.9364754797
20
-95.2206385469
30
0.0000000000
10
-72.9364754797
20
-95.0513085271
30
0.0000000000
10
-72.9325679686
20
-94.7143029866
30
0.0000000000
10
-72.9141045383
20
-94.2132929263
30
0.0000000000
10
-72.8805094170
20
-93.7228545857
30
0.0000000000
10
-72.8276090564
20
-93.2482464173
30
0.0000000000
10
-72.7495816903
20
-92.7945169344
30
0.0000000000
10
-72.6391718516
20
-92.3671094499
30
0.0000000000
10
-72.5359695694
20
-92.0979130954
30
0.0000000000
10
-72.4759728085
20
-91.9710231850
30
0.0000000000
11
-72.9364754797
21
-95.2206385469
31
0.0000000000
11
-72.9304013752
21
-94.7126848031
31
0.0000000000
11
-72.9113113428
21
-94.2100649859
31
0.0000000000
11
-72.8766428788
21
-93.7183893379
31
0.0000000000
11
-72.8221664845
21
-93.2429409588
31
0.0000000000
11
-72.7421210280
21
-92.7893298113
31
0.0000000000
11
-72.6293493783
21
-92.3631731230
31
0.0000000000
11
-72.4759728085
21
-91.9710231850
31
0.0000000000
0
SPLINE
5
40B
100
AcDbEntity
8
0
100
AcDbSpline
62
9
6
CONTINUOUS
70
0
71
3
72
14
73
10
74
8
42
0.0000001000
43
0.0000001000
44
0.0000000001
12
0.0294784670
22
3.8710574159
32
0.0000000000
13
-3.8576957569
23
-0.3227041131
33
0.0000000000
40
0.0000000000
40
0.0000000000
40
0.0000000000
40
0.0000000000
40
0.0297295254
40
0.1041077743
40
0.2227054758
40
0.3801041050
40
0.5685838796
40
0.7787272524
40
1.0000000000
40
1.0000000000
40
1.0000000000
40
1.0000000000
10
-54.8331088605
20
-56.1998207522
30
0.0000000000
10
-54.8328167336
20
-56.1614591857
30
0.0000000000
10
-55.0106110683
20
-56.1124920978
30
0.0000000000
10
-55.2548392984
20
-56.0850532985
30
0.0000000000
10
-55.7289355533
20
-56.0638223289
30
0.0000000000
10
-56.3193184146
20
-56.0675300829
30
0.0000000000
10
-57.0397043291
20
-56.0905234728
30
0.0000000000
10
-57.8374119254
20
-56.1347518107
30
0.0000000000
10
-58.3928599687
20
-56.1760188769
30
0.0000000000
10
-58.6773942818
20
-56.1998207522
30
0.0000000000
11
-54.8331088605
21
-56.1998207522
31
0.0000000000
11
-54.9291718974
21
-56.1364397688
31
0.0000000000
11
-55.2136987245
21
-56.0922963434
31
0.0000000000
11
-55.6722525819
21
-56.0696683536
31
0.0000000000
11
-56.2815693792
21
-56.0696722280
31
0.0000000000
11
-57.0108555874
21
-56.0923006788
31
0.0000000000
11
-57.8231575692
21
-56.1364458327
31
0.0000000000
11
-58.6773942818
21
-56.1998207522
31
0.0000000000
0
SPLINE
5
40C
100
AcDbEntity
8
0
100
AcDbSpline
62
9
6
CONTINUOUS
70
0
71
3
72
14
73
10
74
8
42
0.0000001000
43
0.0000001000
44
0.0000000001
12
-3.8577424852
22
0.3221081571
32
0.0000000000
13
0.0292002772
23
-3.8710564566
33
0.0000000000
40
0.0000000000
40
0.0000000000
40
0.0000000000
40
0.0000000000
40
0.2212706542
40
0.4314134617
40
0.6198927889
40
0.7772923315
40
0.8958915746
40
0.9702708733
40
1.0000000000
40
1.0000000000
40
1.0000000000
40
1.0000000000
10
-78.1357553554
20
-56.1998207522
30
0.0000000000
10
-78.4202904232
20
-56.1760630580
30
0.0000000000
10
-78.9757285644
20
-56.1347222074
30
0.0000000000
10
-79.7734339113
20
-56.0905261068
30
0.0000000000
10
-80.4938187064
20
-56.0675208476
30
0.0000000000
10
-81.0842033928
20
-56.0638302442
30
0.0000000000
10
-81.5583049599
20
-56.0850529201
30
0.0000000000
10
-81.8025335752
20
-56.1125039995
30
0.0000000000
10
-81.9803301429
20
-56.1614597096
30
0.0000000000
10
-81.9800407766
20
-56.1998207522
30
0.0000000000
11
-78.1357553554
21
-56.1998207522
31
0.0000000000
11
-78.9899828115
21
-56.1364397688
31
0.0000000000
11
-79.8022820497
21
-56.0922963434
31
0.0000000000
11
-80.5315659610
21
-56.0696683536
31
0.0000000000
11
-81.1408858114
21
-56.0696722280
31
0.0000000000
11
-81.5994452568
21
-56.0923006788
31
0.0000000000
11
-81.8839756973
21
-56.1364458327
31
0.0000000000
11
-81.9800407766
21
-56.1998207522
31
0.0000000000
0
SPLINE
5
40D
100
AcDbEntity
8
0
100
AcDbSpline
62
7
6
CONTINUOUS
70
0
71
3
72
12
73
8
74
6
42
0.0000001000
43
0.0000001000
44
0.0000000001
12
-0.0253777408
22
-1.5067485402
32
0.0000000000
13
-1.5159777888
23
0.0002253933
33
0.0000000000
40
0.0000000000
40
0.0000000000
40
0.0000000000
40
0.0000000000
40
0.2339803509
40
0.4677272920
40
0.6892328952
40
0.9022029981
40
1.0000000000
40
1.0000000000
40
1.0000000000
40
1.0000000000
10
-61.5571239125
20
52.6289768150
30
0.0000000000
10
-61.5591032101
20
52.5114602976
30
0.0000000000
10
-61.6008439804
20
52.2754658820
30
0.0000000000
10
-61.7702266344
20
51.9661829508
30
0.0000000000
10
-62.0268940385
20
51.7389511608
30
0.0000000000
10
-62.2828159195
20
51.6424382259
30
0.0000000000
10
-62.4398395151
20
51.6290479880
30
0.0000000000
10
-62.4892588760
20
51.6290553356
30
0.0000000000
11
-61.5571239125
21
52.6289768150
31
0.0000000000
11
-61.6191845063
21
52.2818818309
31
0.0000000000
11
-61.7898391501
21
51.9737333034
31
0.0000000000
11
-62.0410933330
21
51.7539739740
31
0.0000000000
11
-62.3417633096
21
51.6417300300
31
0.0000000000
11
-62.4892588760
21
51.6290553356
31
0.0000000000
0
SPLINE
5
40E
100
AcDbEntity
8
0
100
AcDbSpline
62
7
6
CONTINUOUS
70
0
71
3
72
12
73
8
74
6
42
0.0000001000
43
0.0000001000
44
0.0000000001
12
-0.0089323663
22
-1.5564725327
32
0.0000000000
13
-1.5645383255
23
0.0000682570
33
0.0000000000
40
0.0000000000
40
0.0000000000
40
0.0000000000
40
0.0000000000
40
0.2266600268
40
0.4564048530
40
0.6795598528
40
0.8986801761
40
1.0000000000
40
1.0000000000
40
1.0000000000
40
1.0000000000
10
-65.3968488960
20
52.6289768150
30
0.0000000000
10
-65.3975237661
20
52.5113801130
30
0.0000000000
10
-65.4407418120
20
52.2728026744
30
0.0000000000
10
-65.6232119960
20
51.9626517499
30
0.0000000000
10
-65.8986501454
20
51.7371834029
30
0.0000000000
10
-66.1703730431
20
51.6424006301
30
0.0000000000
10
-66.3374807626
20
51.6290204392
30
0.0000000000
10
-66.3903203451
20
51.6290227445
30
0.0000000000
11
-65.3968488960
21
52.6289768150
31
0.0000000000
11
-65.4600155799
21
52.2818818309
31
0.0000000000
11
-65.6414553372
21
51.9737333034
31
0.0000000000
11
-65.9104370355
21
51.7539739740
31
0.0000000000
11
-66.2324983345
21
51.6417300300
31
0.0000000000
11
-66.3903203451
21
51.6290227445
31
0.0000000000
0
SPLINE
5
40F
100
AcDbEntity
8
0
100
AcDbSpline
62
7
6
CONTINUOUS
70
0
71
3
72
12
73
8
74
6
42
0.0000001000
43
0.0000001000
44
0.0000000001
12
-0.0088990738
22
1.5508566620
32
0.0000000000
13
1.5588867812
23
-0.0001254251
33
0.0000000000
40
0.0000000000
40
0.0000000000
40
0.0000000000
40
0.0000000000
40
0.2267186385
40
0.4555624929
40
0.6777628939
40
0.8971607754
40
1.0000000000
40
1.0000000000
40
1.0000000000
40
1.0000000000
10
-71.4949735662
20
66.3289768150
30
0.0000000000
10
-71.4956460948
20
66.4461795186
30
0.0000000000
10
-71.4555057081
20
66.6839863563
30
0.0000000000
10
-71.2771359017
20
66.9940695188
30
0.0000000000
10
-71.0046435625
20
67.2199992262
30
0.0000000000
10
-70.7336483930
20
67.3153824217
30
0.0000000000
10
-70.5662142946
20
67.3289356187
30
0.0000000000
10
-70.5127760586
20
67.3289313191
30
0.0000000000
11
-71.4949735662
21
66.3289768150
31
0.0000000000
11
-71.4359405599
21
66.6755997203
31
0.0000000000
11
-71.2587537082
21
66.9831152932
31
0.0000000000
11
-70.9932949274
21
67.2028546291
31
0.0000000000
11
-70.6723676165
21
67.3159152808
31
0.0000000000
11
-70.5127760586
21
67.3289313191
31
0.0000000000
0
SPLINE
5
410
100
AcDbEntity
8
0
100
AcDbSpline
62
7
6
CONTINUOUS
70
0
71
3
72
12
73
8
74
6
42
0.0000001000
43
0.0000001000
44
0.0000000001
12
-0.0251067102
22
1.4908624321
32
0.0000000000
13
1.4999522600
23
-0.0003582109
33
0.0000000000
40
0.0000000000
40
0.0000000000
40
0.0000000000
40
0.0000000000
40
0.2348978079
40
0.4672959245
40
0.6870357111
40
0.9002211373
40
1.0000000000
40
1.0000000000
40
1.0000000000
40
1.0000000000
10
-75.4868055723
20
66.3289768150
30
0.0000000000
10
-75.4887714093
20
66.4457102540
30
0.0000000000
10
-75.4555886381
20
66.6803736627
30
0.0000000000
10
-75.2969433031
20
66.9903032602
30
0.0000000000
10
-75.0474255849
20
67.2185974876
30
0.0000000000
10
-74.7941432563
20
67.3154531133
30
0.0000000000
10
-74.6376983027
20
67.3289142447
30
0.0000000000
10
-74.5878104591
20
67.3289023307
30
0.0000000000
11
-75.4868055723
21
66.3289768150
31
0.0000000000
11
-75.4365302875
21
66.6755997203
31
0.0000000000
11
-75.2768049388
21
66.9831152932
31
0.0000000000
11
-75.0337658564
21
67.2028546291
31
0.0000000000
11
-74.7366767506
21
67.3159152808
31
0.0000000000
11
-74.5878104591
21
67.3289023307
31
0.0000000000
0
SPLINE
5
411
100
AcDbEntity
8
0
100
AcDbSpline
62
7
6
CONTINUOUS
70
0
71
3
72
12
73
8
74
6
42
0.0000001000
43
0.0000001000
44
0.0000000001
12
0.0235343227
22
1.3973394618
32
0.0000000000
13
-1.3969736769
23
0.1530435538
33
0.0000000000
40
0.0000000000
40
0.0000000000
40
0.0000000000
40
0.0000000000
40
0.2505559379
40
0.4989206477
40
0.7337807759
40
0.9608694163
40
1.0000000000
40
1.0000000000
40
1.0000000000
40
1.0000000000
10
-61.5142441364
20
66.3289768150
30
0.0000000000
10
-61.5122785816
20
66.4456807147
30
0.0000000000
10
-61.5454404105
20
66.6805019855
30
0.0000000000
10
-61.7042231396
20
66.9907958498
30
0.0000000000
10
-61.9540994289
20
67.2190916840
30
0.0000000000
10
-62.1774870433
20
67.3042203846
30
0.0000000000
10
-62.3010027542
20
67.3218233110
30
0.0000000000
10
-62.3192242193
20
67.3238195389
30
0.0000000000
11
-61.5142441364
21
66.3289768150
31
0.0000000000
11
-61.5644505600
21
66.6755201567
31
0.0000000000
11
-61.7244287281
21
66.9835537937
31
0.0000000000
11
-61.9680609859
21
67.2034982029
31
0.0000000000
11
-62.2647969049
21
67.3160516898
31
0.0000000000
11
-62.3192242193
21
67.3238195389
31
0.0000000000
0
SPLINE
5
412
100
AcDbEntity
8
0
100
AcDbSpline
62
7
6
CONTINUOUS
70
0
71
3
72
10
73
6
74
4
42
0.0000001000
43
0.0000001000
44
0.0000000001
12
-0.2307472253
22
13.6999997097
32
0.0000000000
13
-0.2307133976
23
13.7000002794
33
0.0000000000
40
0.0000000000
40
0.0000000000
40
0.0000000000
40
0.0000000000
40
0.3324896629
40
0.6658255168
40
1.0000000000
40
1.0000000000
40
1.0000000000
40
1.0000000000
10
-75.2560755840
20
52.6289768150
30
0.0000000000
10
-75.2816492731
20
54.1473462435
30
0.0000000000
10
-75.3328604153
20
57.1879493949
30
0.0000000000
10
-75.4097703491
20
61.7546160626
30
0.0000000000
10
-75.4611060621
20
64.8029133108
30
0.0000000000
10
-75.4868055723
20
66.3289768150
30
0.0000000000
11
-75.2560755840
21
52.6289768150
31
0.0000000000
11
-75.3327946967
21
57.1840851335
31
0.0000000000
11
-75.4097052360
21
61.7507863328
31
0.0000000000
11
-75.4868055723
21
66.3289768150
31
0.0000000000
0
SPLINE
5
413
100
AcDbEntity
8
0
100
AcDbSpline
62
7
6
CONTINUOUS
70
0
71
3
72
12
73
8
74
6
42
0.0000001000
43
0.0000001000
44
0.0000000001
12
0.0086425717
22
1.5060185737
32
0.0000000000
13
-1.5121576528
23
0.0687947886
33
0.0000000000
40
0.0000000000
40
0.0000000000
40
0.0000000000
40
0.0000000000
40
0.2334117366
40
0.4694871035
40
0.6987626958
40
0.9243697389
40
1.0000000000
40
1.0000000000
40
1.0000000000
40
1.0000000000
10
-65.3822383854
20
66.3289768150
30
0.0000000000
10
-65.3815659595
20
66.4461509519
30
0.0000000000
10
-65.4217134367
20
66.6841369996
30
0.0000000000
10
-65.6003470983
20
66.9945879724
30
0.0000000000
10
-65.8732889118
20
67.2204811404
30
0.0000000000
10
-66.1298011998
20
67.3104508235
30
0.0000000000
10
-66.2812270353
20
67.3261773651
30
0.0000000000
10
-66.3193486613
20
67.3279116877
30
0.0000000000
11
-65.3822383854
21
66.3289768150
31
0.0000000000
11
-65.4412281041
21
66.6755201567
31
0.0000000000
11
-65.6187774953
21
66.9835537937
31
0.0000000000
11
-65.8849651110
21
67.2034982029
31
0.0000000000
11
-66.2055553138
21
67.3160516898
31
0.0000000000
11
-66.3193486613
21
67.3279116877
31
0.0000000000
0
SPLINE
5
414
100
AcDbEntity
8
0
100
AcDbSpline
62
7
6
CONTINUOUS
70
0
71
3
72
10
73
6
74
4
42
0.0000001000
43
0.0000001000
44
0.0000000001
12
-0.0786244114
22
13.6999999663
32
0.0000000000
13
-0.0786128821
23
13.7000000324
33
0.0000000000
40
0.0000000000
40
0.0000000000
40
0.0000000000
40
0.0000000000
40
0.3324896588
40
0.6658255128
40
1.0000000000
40
1.0000000000
40
1.0000000000
40
1.0000000000
10
-71.4163550295
20
52.6289768150
30
0.0000000000
10
-71.4250689641
20
54.1473462532
30
0.0000000000
10
-71.4425185601
20
57.1879494233
30
0.0000000000
10
-71.4687247178
20
61.7546160901
30
0.0000000000
10
-71.4862167596
20
64.8029133197
30
0.0000000000
10
-71.4949735662
20
66.3289768150
30
0.0000000000
11
-71.4163550295
21
52.6289768150
31
0.0000000000
11
-71.4424961671
21
57.1840851335
31
0.0000000000
11
-71.4687025311
21
61.7507863328
31
0.0000000000
11
-71.4949735662
21
66.3289768150
31
0.0000000000
0
SPLINE
5
415
100
AcDbEntity
8
0
100
AcDbSpline
62
7
6
CONTINUOUS
70
0
71
3
72
12
73
8
74
6
42
0.0000001000
43
0.0000001000
44
0.0000000001
12
0.0086780332
22
-1.5119131460
32
0.0000000000
13
1.5181542420
23
-0.0686528403
33
0.0000000000
40
0.0000000000
40
0.0000000000
40
0.0000000000
40
0.0000000000
40
0.2333601941
40
0.4693885335
40
0.6985941661
40
0.9244616761
40
1.0000000000
40
1.0000000000
40
1.0000000000
40
1.0000000000
10
-71.3523375555
20
52.6289768150
30
0.0000000000
10
-71.3516625196
20
52.5113700332
30
0.0000000000
10
-71.3084949734
20
52.2730280979
30
0.0000000000
10
-71.1264353453
20
51.9632673464
30
0.0000000000
10
-70.8515791061
20
51.7377315013
30
0.0000000000
10
-70.5940356064
20
51.6475252407
30
0.0000000000
10
-70.4419203222
20
51.6317603838
30
0.0000000000
10
-70.4036940466
20
51.6300317436
30
0.0000000000
11
-71.3523375555
21
52.6289768150
31
0.0000000000
11
-71.2891749111
21
52.2818503576
31
0.0000000000
11
-71.1082403980
21
51.9742598443
31
0.0000000000
11
-70.8401313129
21
51.7546903573
31
0.0000000000
11
-70.5178009249
21
51.6418905861
31
0.0000000000
11
-70.4036940466
21
51.6300317436
31
0.0000000000
0
SPLINE
5
416
100
AcDbEntity
8
0
100
AcDbSpline
62
7
6
CONTINUOUS
70
0
71
3
72
12
73
8
74
6
42
0.0000001000
43
0.0000001000
44
0.0000000001
12
0.0238030316
22
-1.4130538712
32
0.0000000000
13
1.4128970435
23
-0.1542196132
33
0.0000000000
40
0.0000000000
40
0.0000000000
40
0.0000000000
40
0.0000000000
40
0.2495123207
40
0.4982227782
40
0.7338468228
40
0.9612049647
40
1.0000000000
40
1.0000000000
40
1.0000000000
40
1.0000000000
10
-75.0681968512
20
52.6289768150
30
0.0000000000
10
-75.0662171347
20
52.5114520314
30
0.0000000000
10
-75.0245519175
20
52.2757015666
30
0.0000000000
10
-74.8556301921
20
51.9667967552
30
0.0000000000
10
-74.5996009834
20
51.7395020970
30
0.0000000000
10
-74.3734438954
20
51.6538491606
30
0.0000000000
10
-74.2485499527
20
51.6361385210
30
0.0000000000
10
-74.2302788225
20
51.6341442026
30
0.0000000000
11
-75.0681968512
21
52.6289768150
31
0.0000000000
11
-75.0061713011
21
52.2818503576
31
0.0000000000
11
-74.8360710575
21
51.9742598443
31
0.0000000000
11
-74.5857192154
21
51.7546903573
31
0.0000000000
11
-74.2848546874
21
51.6418905861
31
0.0000000000
11
-74.2302788225
21
51.6341442026
31
0.0000000000
0
SPLINE
5
417
100
AcDbEntity
8
0
100
AcDbSpline
62
7
6
CONTINUOUS
70
0
71
3
72
10
73
6
74
4
42
0.0000001000
43
0.0000001000
44
0.0000000001
12
-0.2307386555
22
-13.7000003071
32
0.0000000000
13
-0.2307758495
23
-13.6999996806
33
0.0000000000
40
0.0000000000
40
0.0000000000
40
0.0000000000
40
0.0000000000
40
0.3341883144
40
0.6675241191
40
1.0000000000
40
1.0000000000
40
1.0000000000
40
1.0000000000
10
-61.5142441364
20
66.3289768150
30
0.0000000000
10
-61.5399475239
20
64.8028501449
30
0.0000000000
10
-61.5912900327
20
61.7544899546
30
0.0000000000
10
-61.6682089237
20
57.1878232868
30
0.0000000000
10
-61.7194252208
20
54.1472833023
30
0.0000000000
10
-61.7450010221
20
52.6289768150
30
0.0000000000
11
-61.5142441364
21
66.3289768150
31
0.0000000000
11
-61.5913562816
21
61.7505968383
31
0.0000000000
11
-61.6682757701
21
57.1838963132
31
0.0000000000
11
-61.7450010221
21
52.6289768150
31
0.0000000000
0
SPLINE
5
418
100
AcDbEntity
8
0
100
AcDbSpline
62
7
6
CONTINUOUS
70
0
71
3
72
10
73
6
74
4
42
0.0000001000
43
0.0000001000
44
0.0000000001
12
-0.0786107499
22
-13.7000000324
32
0.0000000000
13
-0.0786222788
23
-13.6999999663
33
0.0000000000
40
0.0000000000
40
0.0000000000
40
0.0000000000
40
0.0000000000
40
0.3341662030
40
0.6675020453
40
1.0000000000
40
1.0000000000
40
1.0000000000
40
1.0000000000
10
-65.3182324918
20
66.3289768150
30
0.0000000000
10
-65.3269888437
20
64.8029511509
30
0.0000000000
10
-65.3444801938
20
61.7546918059
30
0.0000000000
10
-65.3706856406
20
57.1880251391
30
0.0000000000
10
-65.3881349804
20
54.1473841378
30
0.0000000000
10
-65.3968488960
20
52.6289768150
30
0.0000000000
11
-65.3182324918
21
66.3289768150
31
0.0000000000
11
-65.3445021630
21
61.7508998262
31
0.0000000000
11
-65.3707078152
21
57.1841987874
31
0.0000000000
11
-65.3968488960
21
52.6289768150
31
0.0000000000
0
SPLINE
5
419
100
AcDbEntity
8
0
100
AcDbSpline
62
7
6
CONTINUOUS
70
0
71
3
72
10
73
6
74
4
42
0.0000001000
43
0.0000001000
44
0.0000000001
12
-0.2307114043
22
-13.7000002794
32
0.0000000000
13
-0.2307452317
23
-13.6999997097
33
0.0000000000
40
0.0000000000
40
0.0000000000
40
0.0000000000
40
0.0000000000
40
0.3341642459
40
0.6675000862
40
1.0000000000
40
1.0000000000
40
1.0000000000
40
1.0000000000
10
-61.3263959177
20
66.3289768150
30
0.0000000000
10
-61.3520944185
20
64.8029600607
30
0.0000000000
10
-61.4034288997
20
61.7547096249
30
0.0000000000
10
-61.4803381689
20
57.1880429571
30
0.0000000000
10
-61.5315496560
20
54.1473930558
30
0.0000000000
10
-61.5571239125
20
52.6289768150
30
0.0000000000
11
-61.3263959177
21
66.3289768150
31
0.0000000000
11
-61.4034932259
21
61.7509265826
31
0.0000000000
11
-61.4804030974
21
57.1842255703
31
0.0000000000
11
-61.5571239125
21
52.6289768150
31
0.0000000000
0
SPLINE
5
41A
100
AcDbEntity
8
0
100
AcDbSpline
62
7
6
CONTINUOUS
70
0
71
3
72
10
73
6
74
4
42
0.0000001000
43
0.0000001000
44
0.0000000001
12
-0.0786200351
22
-13.7000000357
32
0.0000000000
13
-0.0786327115
23
-13.6999999629
33
0.0000000000
40
0.0000000000
40
0.0000000000
40
0.0000000000
40
0.0000000000
40
0.3341883189
40
0.6675241236
40
1.0000000000
40
1.0000000000
40
1.0000000000
40
1.0000000000
10
-65.3822383854
20
66.3289768150
30
0.0000000000
10
-65.3909963512
20
64.8028501548
30
0.0000000000
10
-65.4084903853
20
61.7544899848
30
0.0000000000
10
-65.4346991106
20
57.1878233180
30
0.0000000000
10
-65.4521501405
20
54.1472833130
30
0.0000000000
10
-65.4608646337
20
52.6289768150
30
0.0000000000
11
-65.3822383854
21
66.3289768150
31
0.0000000000
11
-65.4085129586
21
61.7505968383
31
0.0000000000
11
-65.4347218874
21
57.1838963132
31
0.0000000000
11
-65.4608646337
21
52.6289768150
31
0.0000000000
0
ENDSEC
0
SECTION
2
OBJECTS
0
DICTIONARY
5
41B
100
AcDbDictionary
3
ACAD_GROUP
350
41C
3
ACAD_MLINESTYLE
350
41D
0
DICTIONARY
5
41C
102
{ACAD_REACTORS
330
41B
102
}
100
AcDbDictionary
0
DICTIONARY
5
41D
102
{ACAD_REACTORS
330
41B
102
}
100
AcDbDictionary
3
STANDARD
350
41E
0
MLINESTYLE
5
41E
102
{ACAD_REACTORS
330
41D
102
}
100
AcDbMlineStyle
2
STANDARD
70
0
3

62
256
51
90.0
52
90.0
71
2
49
0.5
62
256
6
BYLAYER
49
-0.5
62
256
6
BYLAYER
0
ENDSEC
0
EOF
