0
SECTION
2
HEADER
9
$ACADVER
1
AC1014
9
$HANDSEED
5
       2B6
9
$EXTMAX
10
297.0000000000
20
210.0000000000
9
$EXTMIN
10
0.0000000000
20
0.0000000000
9
$LIMMIN
10
0.0000000000
20
0.0000000000
9
$LIMMAX
10
297.0000000000
20
210.0000000000
9
$VIEWCTR
10
148.5000000000
20
105.0000000000
9
$VIEWSIZE
40
210.0000000000
9
$CLAYER
8
0
9
$LTSCALE
40
16.3350000000
9
$CELTYPE
6
BYLAYER
9
$DIMSCALE
40
1
9
$DIMASZ
40
3.0000000000
9
$DIMEXO
40
1.8562500000
9
$DIMDLI
40
11.2860000000
9
$DIMEXE
40
5.3460000000
9
$DIMCEN
40
2.6730000000
9
$DIMLFAC
40
1.0000000000
9
$DIMTXT
40
3.0000000000
9
$DIMTOL
70
1
9
$DIMLIM
70
0
9
$DIMTFAC
40
1.0000000000
9
$DIMTP
40
0.0100000000
9
$DIMTM
40
0.0100000000
9
$MEASUREMENT
70
1
0
ENDSEC
0
SECTION
2
CLASSES
0
ENDSEC
0
SECTION
2
TABLES
0
TABLE
2
VPORT
5
8
100
AcDbSymbolTable
70
2
0
VPORT
5
1F4
100
AcDbSymbolTableRecord
100
AcDbViewportTableRecord
2
*ACTIVE
70
0
10
0.0
20
0.0
11
1.0
21
1.0
12
148.5000000000
22
105.0000000000
13
0.0
23
0.0
14
1.0
24
1.0
15
0.0
25
0.0
16
0.0
26
0.0
36
1.0
17
0.0
27
0.0
37
0.0
40
210.0000000000
41
1.4142857143
42
50.0
43
0.0
44
0.0
50
0.0
51
0.0
71
0
72
100
73
1
74
1
75
0
76
0
77
0
78
0
0
ENDTAB
0
TABLE
2
LTYPE
5
5
100
AcDbSymbolTable
70
6
0
LTYPE
5
14
100
AcDbSymbolTableRecord
100
AcDbLinetypeTableRecord
2
BYBLOCK
70
0
3

72
65
73
0
40
0.0
0
LTYPE
5
15
100
AcDbSymbolTableRecord
100
AcDbLinetypeTableRecord
2
BYLAYER
70
0
3

72
65
73
0
40
0.0
0
LTYPE
5
16
100
AcDbSymbolTableRecord
100
AcDbLinetypeTableRecord
2
CONTINUOUS
70
64
3
Solid line
72
65
73
0
40
0
0
LTYPE
5
1F5
100
AcDbSymbolTableRecord
100
AcDbLinetypeTableRecord
2
CENTER
70
64
3
____ _ ____ _ ____ _ ____ _ ____ _ ____ _ ____
72
65
73
4
40
0.6
49
0.375
74
0
49
-0.075
74
0
49
0.075
74
0
49
-0.075
74
0
0
LTYPE
5
1F6
100
AcDbSymbolTableRecord
100
AcDbLinetypeTableRecord
2
HIDDEN
70
64
3
- - - - - - - - - - - - - - - - - - - -
72
65
73
2
40
0.2
49
0.1
74
0
49
-0.1
74
0
0
LTYPE
5
1F7
100
AcDbSymbolTableRecord
100
AcDbLinetypeTableRecord
2
PHANTOM
70
64
3
_____ _ _ _____ _ _ _____ _ _ _____
72
65
73
6
40
0.8
49
0.45
74
0
49
-0.05
74
0
49
0.1
74
0
49
-0.05
74
0
49
0.1
74
0
49
-0.05
74
0
0
LTYPE
5
1F8
100
AcDbSymbolTableRecord
100
AcDbLinetypeTableRecord
2
DOT
70
64
3
. . . . . . . . . . . . . . . . . . . .
72
65
73
2
40
0.2
49
0.1
74
0
49
-0.1
74
0
0
LTYPE
5
1F9
100
AcDbSymbolTableRecord
100
AcDbLinetypeTableRecord
2
DASHED
70
64
3
- - - - - - - - - - - - - - - - - - - -
72
65
73
2
40
0.2
49
0.1
74
0
49
-0.1
74
0
0
ENDTAB
0
TABLE
2
LAYER
5
2
100
AcDbSymbolTable
70
36
0
LAYER
5
10
100
AcDbSymbolTableRecord
100
AcDbLayerTableRecord
2
0
70
0
62
7
6
CONTINUOUS
0
LAYER
5
1FA
100
AcDbSymbolTableRecord
100
AcDbLayerTableRecord
2
DEFAULT_1
70
0
62
7
6
CENTER
0
LAYER
5
1FB
100
AcDbSymbolTableRecord
100
AcDbLayerTableRecord
2
DEFAULT_2
70
0
62
8
6
HIDDEN
0
LAYER
5
1FC
100
AcDbSymbolTableRecord
100
AcDbLayerTableRecord
2
DEFAULT_3
70
0
62
7
6
PHANTOM
0
LAYER
5
1FD
100
AcDbSymbolTableRecord
100
AcDbLayerTableRecord
2
ASSI
70
0
62
7
6
CONTINUOUS
0
LAYER
5
1FE
100
AcDbSymbolTableRecord
100
AcDbLayerTableRecord
2
COORDINATE
70
0
62
7
6
CONTINUOUS
0
LAYER
5
1FF
100
AcDbSymbolTableRecord
100
AcDbLayerTableRecord
2
COORD_ORIGINE
70
0
62
7
6
CONTINUOUS
0
LAYER
5
200
100
AcDbSymbolTableRecord
100
AcDbLayerTableRecord
2
DRAFT
70
0
62
7
6
CONTINUOUS
0
LAYER
5
201
100
AcDbSymbolTableRecord
100
AcDbLayerTableRecord
2
PIANI
70
0
62
7
6
CONTINUOUS
0
LAYER
5
202
100
AcDbSymbolTableRecord
100
AcDbLayerTableRecord
2
PIANI_ORIGINE
70
0
62
7
6
CONTINUOUS
0
LAYER
5
203
100
AcDbSymbolTableRecord
100
AcDbLayerTableRecord
2
SNAPLINE
70
0
62
7
6
CONTINUOUS
0
LAYER
5
204
100
AcDbSymbolTableRecord
100
AcDbLayerTableRecord
2
TRASH
70
0
62
7
6
CONTINUOUS
0
ENDTAB
0
TABLE
2
STYLE
5
3
100
AcDbSymbolTable
70
1
0
STYLE
5
11
100
AcDbSymbolTableRecord
100
AcDbTextStyleTableRecord
2
STANDARD
70
0
40
0.0
41
0.8000000000
50
0.0
71
0
42
0.2
3
txt
4

0
ENDTAB
0
TABLE
2
VIEW
5
6
100
AcDbSymbolTable
70
0
0
ENDTAB
0
TABLE
2
UCS
5
7
100
AcDbSymbolTable
70
0
0
ENDTAB
0
TABLE
2
APPID
5
9
100
AcDbSymbolTable
70
1
0
APPID
5
205
100
AcDbSymbolTableRecord
100
AcDbRegAppTableRecord
2
ACAD
70
0
0
ENDTAB
0
TABLE
2
DIMSTYLE
5
A
100
AcDbSymbolTable
70
1
0
DIMSTYLE
105
206
100
AcDbSymbolTableRecord
100
AcDbDimStyleTableRecord
2
STANDARD
70
0
3

4

5

6

7

40
1.0
41
3.0000000000
42
0.0625
43
0.38
44
0.18
45
0.0
46
0.0
47
0.0100000000
48
0.0100000000
140
3.0000000000
141
0.09
142
0.0
143
25.4
144
1.0000000000
145
0.0
146
1.0000000000
147
0.09
71
1
72
0
73
0
74
0
75
0
76
0
77
1
78
8
170
0
171
2
172
0
173
0
174
0
175
0
176
0
177
0
178
0
270
2
271
2
272
2
273
2
274
2
340
11
275
0
280
0
281
0
282
0
283
1
284
8
285
0
286
0
287
3
288
0
0
DIMSTYLE
105
207
100
AcDbSymbolTableRecord
100
AcDbDimStyleTableRecord
2
DIMSTYLE_1
70
0
3

4

5

6

7

40
1.0
41
3.0000000000
42
0.0625
43
0.38
44
0.18
45
0.0
46
0.0
47
0.0000000000
48
0.0000000000
140
3.0000000000
141
0.09
142
0.0
143
25.4
144
1.0000000000
145
0.0
146
1.0000000000
147
0.09
71
0
72
0
73
0
74
0
75
0
76
0
77
1
78
8
170
0
171
2
172
0
173
0
174
0
175
0
176
0
177
0
178
0
270
2
271
2
272
2
273
2
274
2
340
11
275
0
280
0
281
0
282
0
283
1
284
8
285
0
286
0
287
3
288
0
0
ENDTAB
0
TABLE
2
BLOCK_RECORD
5
1
100
AcDbSymbolTable
70
0
0
BLOCK_RECORD
5
1B
100
AcDbSymbolTableRecord
100
AcDbBlockTableRecord
2
*MODEL_SPACE
0
BLOCK_RECORD
5
1C
100
AcDbSymbolTableRecord
100
AcDbBlockTableRecord
2
*PAPER_SPACE
0
BLOCK_RECORD
5
208
100
AcDbSymbolTableRecord
100
AcDbBlockTableRecord
2
*D0
0
BLOCK_RECORD
5
209
100
AcDbSymbolTableRecord
100
AcDbBlockTableRecord
2
*D1
0
BLOCK_RECORD
5
20A
100
AcDbSymbolTableRecord
100
AcDbBlockTableRecord
2
*D2
0
ENDTAB
0
ENDSEC
0
SECTION
2
BLOCKS
0
BLOCK
5
1E
100
AcDbEntity
8
0
100
AcDbBlockBegin
2
*MODEL_SPACE
70
0
10
0.0
20
0.0
30
0.0
3
*MODEL_SPACE
1

0
ENDBLK
5
1F
100
AcDbEntity
8
0
100
AcDbBlockEnd
0
BLOCK
5
20
100
AcDbEntity
8
0
100
AcDbBlockBegin
2
*PAPER_SPACE
70
0
10
0.0
20
0.0
30
0.0
3
*PAPER_SPACE
1

0
ENDBLK
5
21
100
AcDbEntity
8
0
100
AcDbBlockEnd
0
BLOCK
5
20B
100
AcDbEntity
8
0
100
AcDbBlockBegin
62
7
6
CONTINUOUS
2
*D0
70
65
10
0.0000000000
20
0.0000000000
3
*D0
1

0
TEXT
5
20C
100
AcDbEntity
8
0
100
AcDbText
62
7
6
CONTINUOUS
10
19.8794936300
20
-4.7569896283
7
STANDARD
40
3.0000000000
1
46,15
50
90.0000000000
41
0.6857142857
72
0
100
AcDbText
0
LINE
5
20D
100
AcDbEntity
8
0
100
AcDbLine
62
7
6
CONTINUOUS
10
0.4277877078
20
22.9014805322
11
22.1294936300
21
22.9014805322
0
LINE
5
20E
100
AcDbEntity
8
0
100
AcDbLine
62
7
6
CONTINUOUS
10
0.4277877078
20
-23.2436432676
11
22.1294936300
21
-23.2436432676
0
LINE
5
20F
100
AcDbEntity
8
0
100
AcDbLine
62
7
6
CONTINUOUS
10
20.6294936300
20
22.9014805322
11
20.6294936300
21
-0.1710813677
0
LINE
5
210
100
AcDbEntity
8
0
100
AcDbLine
62
7
6
CONTINUOUS
10
20.6294936300
20
-23.2436432676
11
20.6294936300
21
-0.1710813677
0
SOLID
5
211
100
AcDbEntity
8
0
100
AcDbTrace
62
7
6
CONTINUOUS
10
21.5794936300
20
19.9014805322
11
20.6294936300
21
22.9014805322
12
19.6794936300
22
19.9014805322
13
19.6794936300
23
19.9014805322
0
SOLID
5
212
100
AcDbEntity
8
0
100
AcDbTrace
62
7
6
CONTINUOUS
10
19.6794936300
20
-20.2436432676
11
20.6294936300
21
-23.2436432676
12
21.5794936300
22
-20.2436432676
13
21.5794936300
23
-20.2436432676
0
ENDBLK
5
213
100
AcDbEntity
8
0
100
AcDbBlockEnd
0
BLOCK
5
214
100
AcDbEntity
8
0
100
AcDbBlockBegin
62
7
6
CONTINUOUS
2
*D1
70
65
10
0.0000000000
20
0.0000000000
3
*D1
1

0
TEXT
5
215
100
AcDbEntity
8
0
100
AcDbText
62
7
6
CONTINUOUS
10
-1.6804959679
20
31.6514805322
7
STANDARD
40
3.0000000000
1
25
41
0.7500000000
72
0
100
AcDbText
0
LINE
5
216
100
AcDbEntity
8
0
100
AcDbLine
62
7
6
CONTINUOUS
10
12.4277877078
20
10.9014805322
11
12.4277877078
21
32.4014805322
0
LINE
5
217
100
AcDbEntity
8
0
100
AcDbLine
62
7
6
CONTINUOUS
10
-12.5722122922
20
10.9014805322
11
-12.5722122922
21
32.4014805322
0
LINE
5
218
100
AcDbEntity
8
0
100
AcDbLine
62
7
6
CONTINUOUS
10
12.4277877078
20
30.9014805322
11
-0.0722122922
21
30.9014805322
0
LINE
5
219
100
AcDbEntity
8
0
100
AcDbLine
62
7
6
CONTINUOUS
10
-12.5722122922
20
30.9014805322
11
-0.0722122922
21
30.9014805322
0
SOLID
5
21A
100
AcDbEntity
8
0
100
AcDbTrace
62
7
6
CONTINUOUS
10
9.4277877078
20
29.9514805322
11
12.4277877078
21
30.9014805322
12
9.4277877078
22
31.8514805322
13
9.4277877078
23
31.8514805322
0
SOLID
5
21B
100
AcDbEntity
8
0
100
AcDbTrace
62
7
6
CONTINUOUS
10
-9.5722122922
20
31.8514805322
11
-12.5722122922
21
30.9014805322
12
-9.5722122922
22
29.9514805322
13
-9.5722122922
23
29.9514805322
0
ENDBLK
5
21C
100
AcDbEntity
8
0
100
AcDbBlockEnd
0
BLOCK
5
21D
100
AcDbEntity
8
0
100
AcDbBlockBegin
62
7
6
CONTINUOUS
2
*D2
70
65
10
0.0000000000
20
0.0000000000
3
*D2
1

0
TEXT
5
21E
100
AcDbEntity
8
0
100
AcDbText
62
7
6
CONTINUOUS
10
-77.8853200524
20
31.6514805322
7
STANDARD
40
3.0000000000
1
61,8
41
0.6785714286
72
0
100
AcDbText
0
LINE
5
21F
100
AcDbEntity
8
0
100
AcDbLine
62
7
6
CONTINUOUS
10
-105.4601557816
20
14.4014805322
11
-105.4601557816
21
32.4014805322
0
LINE
5
220
100
AcDbEntity
8
0
100
AcDbLine
62
7
6
CONTINUOUS
10
-43.6601557816
20
-22.1919191297
11
-43.6601557816
21
32.4014805322
0
LINE
5
221
100
AcDbEntity
8
0
100
AcDbLine
62
7
6
CONTINUOUS
10
-105.4601557816
20
30.9014805322
11
-74.5601557816
21
30.9014805322
0
LINE
5
222
100
AcDbEntity
8
0
100
AcDbLine
62
7
6
CONTINUOUS
10
-43.6601557816
20
30.9014805322
11
-74.5601557816
21
30.9014805322
0
SOLID
5
223
100
AcDbEntity
8
0
100
AcDbTrace
62
7
6
CONTINUOUS
10
-102.4601557816
20
31.8514805322
11
-105.4601557816
21
30.9014805322
12
-102.4601557816
22
29.9514805322
13
-102.4601557816
23
29.9514805322
0
SOLID
5
224
100
AcDbEntity
8
0
100
AcDbTrace
62
7
6
CONTINUOUS
10
-46.6601557816
20
29.9514805322
11
-43.6601557816
21
30.9014805322
12
-46.6601557816
22
31.8514805322
13
-46.6601557816
23
31.8514805322
0
ENDBLK
5
225
100
AcDbEntity
8
0
100
AcDbBlockEnd
0
ENDSEC
0
SECTION
2
ENTITIES
0
DIMENSION
5
226
100
AcDbEntity
8
0
100
AcDbDimension
62
7
6
CONTINUOUS
2
*D0
10
20.6294936300
20
-23.2436432676
11
18.3794936300
21
0.3858675146
70
160
3
DIMSTYLE_1
100
AcDbAlignedDimension
13
0.4277877078
23
22.9014805322
14
0.4277877078
24
-23.2436432676
50
270.000000
100
AcDbRotatedDimension
0
DIMENSION
5
227
100
AcDbEntity
8
0
100
AcDbDimension
62
7
6
CONTINUOUS
2
*D1
10
-12.5722122922
20
30.9014805322
11
0.5695040321
21
33.1514805322
70
160
3
DIMSTYLE_1
100
AcDbAlignedDimension
13
12.4277877078
23
10.9014805322
14
-12.5722122922
24
10.9014805322
50
180.000000
100
AcDbRotatedDimension
0
DIMENSION
5
228
100
AcDbEntity
8
0
100
AcDbDimension
62
7
6
CONTINUOUS
2
*D2
10
-43.6601557816
20
30.9014805322
11
-73.8138914810
21
33.1514805322
70
160
3
DIMSTYLE_1
100
AcDbAlignedDimension
13
-105.4601557816
23
14.4014805322
14
-43.6601557816
24
-22.1919191297
100
AcDbRotatedDimension
0
LINE
5
229
100
AcDbEntity
8
0
100
AcDbLine
62
7
6
CONTINUOUS
10
-6.4230652533
20
21.4014805322
11
-6.6355777585
21
21.0333980760
0
LINE
5
22A
100
AcDbEntity
8
0
100
AcDbLine
62
7
6
CONTINUOUS
10
-12.5614057092
20
10.7695629884
11
-12.7739182144
21
10.4014805322
0
LINE
5
22B
100
AcDbEntity
8
0
100
AcDbLine
62
7
6
CONTINUOUS
10
-7.5722122922
20
-4.0985194678
11
-7.5722122922
21
-21.8407722719
0
LINE
5
22C
100
AcDbEntity
8
0
100
AcDbLine
62
7
6
CONTINUOUS
10
-5.9722122922
20
-2.4985194678
11
-5.9722122922
21
-0.6124370458
0
LINE
5
22D
100
AcDbEntity
8
0
100
AcDbLine
62
7
6
CONTINUOUS
10
-12.7739182144
20
10.4014805322
11
-12.5614057092
21
10.0333980760
0
LINE
5
22E
100
AcDbEntity
8
0
100
AcDbLine
62
7
6
CONTINUOUS
10
-6.6355777585
20
-0.2304370116
11
-6.4230652533
21
-0.5985194678
0
LINE
5
22F
100
AcDbEntity
8
0
100
AcDbLine
62
7
6
CONTINUOUS
10
-7.5722122922
20
-4.0985194678
11
-5.9722122922
21
-2.4985194678
0
LINE
5
230
100
AcDbEntity
8
0
100
AcDbLine
62
7
6
CONTINUOUS
10
-1.1222122922
20
12.7514805322
11
-1.1222122922
21
4.7514805322
0
LINE
5
231
100
AcDbEntity
8
0
100
AcDbLine
62
7
6
CONTINUOUS
10
-1.0722122922
20
21.0514805322
11
-1.0722122922
21
-0.2485194678
0
LINE
5
232
100
AcDbEntity
8
0
100
AcDbLine
62
7
6
CONTINUOUS
10
-6.4230652533
20
-0.5985194678
11
-5.9980402429
21
-0.5985194678
0
LINE
5
233
100
AcDbEntity
8
0
100
AcDbLine
62
7
6
CONTINUOUS
10
5.8536156585
20
-0.5985194678
11
6.2786406689
21
-0.5985194678
0
LINE
5
234
100
AcDbEntity
8
0
100
AcDbLine
62
7
6
CONTINUOUS
10
-1.0722122922
20
-0.2485194678
11
0.9277877078
21
-0.2485194678
0
LINE
5
235
100
AcDbEntity
8
0
100
AcDbLine
62
7
6
CONTINUOUS
10
0.9277877078
20
21.0514805322
11
0.9277877078
21
-0.2485194678
0
LINE
5
236
100
AcDbEntity
8
0
100
AcDbLine
62
7
6
CONTINUOUS
10
0.9777877078
20
4.7514805322
11
0.9777877078
21
12.7514805322
0
LINE
5
237
100
AcDbEntity
8
0
100
AcDbLine
62
7
6
CONTINUOUS
10
5.8277877078
20
-2.4985194678
11
7.4277877078
21
-4.0985194678
0
LINE
5
238
100
AcDbEntity
8
0
100
AcDbLine
62
7
6
CONTINUOUS
10
-1.0722122922
20
3.9014805322
11
0.9277877078
21
3.9014805322
0
LINE
5
239
100
AcDbEntity
8
0
100
AcDbLine
62
7
6
CONTINUOUS
10
-1.1222122922
20
4.7514805322
11
-1.0722122922
21
4.7514805322
0
LINE
5
23A
100
AcDbEntity
8
0
100
AcDbLine
62
7
6
CONTINUOUS
10
0.9277877078
20
4.7514805322
11
0.9777877078
21
4.7514805322
0
LINE
5
23B
100
AcDbEntity
8
0
100
AcDbLine
62
7
6
CONTINUOUS
10
5.8277877078
20
-0.6124370458
11
5.8277877078
21
-2.4985194678
0
LINE
5
23C
100
AcDbEntity
8
0
100
AcDbLine
62
7
6
CONTINUOUS
10
6.2786406689
20
-0.5985194678
11
6.4911531740
21
-0.2304370116
0
LINE
5
23D
100
AcDbEntity
8
0
100
AcDbLine
62
7
6
CONTINUOUS
10
12.4169811248
20
10.0333980760
11
12.6294936300
21
10.4014805322
0
LINE
5
23E
100
AcDbEntity
8
0
100
AcDbLine
62
7
6
CONTINUOUS
10
-1.0722122922
20
6.9014805322
11
0.9277877078
21
6.9014805322
0
LINE
5
23F
100
AcDbEntity
8
0
100
AcDbLine
62
7
6
CONTINUOUS
10
7.4277877078
20
-4.0985194678
11
7.4277877078
21
-21.8407722719
0
LINE
5
240
100
AcDbEntity
8
0
100
AcDbLine
62
7
6
CONTINUOUS
10
0.9777877078
20
12.7514805322
11
0.9277877078
21
12.7514805322
0
LINE
5
241
100
AcDbEntity
8
0
100
AcDbLine
62
7
6
CONTINUOUS
10
-1.0722122922
20
12.7514805322
11
-1.1222122922
21
12.7514805322
0
LINE
5
242
100
AcDbEntity
8
0
100
AcDbLine
62
7
6
CONTINUOUS
10
-1.0722122922
20
13.9014805322
11
0.9277877078
21
13.9014805322
0
LINE
5
243
100
AcDbEntity
8
0
100
AcDbLine
62
7
6
CONTINUOUS
10
-1.0722122922
20
16.9014805322
11
0.9277877078
21
16.9014805322
0
LINE
5
244
100
AcDbEntity
8
0
100
AcDbLine
62
7
6
CONTINUOUS
10
12.6294936300
20
10.4014805322
11
12.4169811248
21
10.7695629884
0
LINE
5
245
100
AcDbEntity
8
0
100
AcDbLine
62
7
6
CONTINUOUS
10
6.4911531740
20
21.0333980760
11
6.2786406689
21
21.4014805322
0
LINE
5
246
100
AcDbEntity
8
0
100
AcDbLine
62
7
6
CONTINUOUS
10
-1.0722122922
20
21.0514805322
11
0.9277877078
21
21.0514805322
0
LINE
5
247
100
AcDbEntity
8
0
100
AcDbLine
62
7
6
CONTINUOUS
10
6.2786406689
20
21.4014805322
11
5.8536156585
21
21.4014805322
0
LINE
5
248
100
AcDbEntity
8
0
100
AcDbLine
62
7
6
CONTINUOUS
10
-5.9980402429
20
21.4014805322
11
-6.4230652533
21
21.4014805322
0
LINE
5
249
100
AcDbEntity
8
0
100
AcDbLine
62
7
6
CONTINUOUS
10
-105.4601557816
20
13.9014805322
11
-105.4601557816
21
6.9014805322
0
LINE
5
24A
100
AcDbEntity
8
0
100
AcDbLine
62
7
6
CONTINUOUS
10
-99.2101557816
20
21.0514805322
11
-103.7601557816
21
16.9014805322
0
LINE
5
24B
100
AcDbEntity
8
0
100
AcDbLine
62
7
6
CONTINUOUS
10
-103.7601557816
20
16.9014805322
11
-103.7601557816
21
13.9014805322
0
LINE
5
24C
100
AcDbEntity
8
0
100
AcDbLine
62
7
6
CONTINUOUS
10
-103.7601557816
20
6.9014805322
11
-103.7601557816
21
3.9014805322
0
LINE
5
24D
100
AcDbEntity
8
0
100
AcDbLine
62
7
6
CONTINUOUS
10
-102.2601557816
20
10.4014805322
11
-98.9367539100
21
13.7248824038
0
LINE
5
24E
100
AcDbEntity
8
0
100
AcDbLine
62
7
6
CONTINUOUS
10
-95.6133520384
20
10.4014805322
11
-98.9367539100
21
7.0780786606
0
LINE
5
24F
100
AcDbEntity
8
0
100
AcDbLine
62
7
6
CONTINUOUS
10
-77.6601557816
20
19.9014805322
11
-76.0601557816
21
21.4014805322
0
LINE
5
250
100
AcDbEntity
8
0
100
AcDbLine
62
7
6
CONTINUOUS
10
-78.6601557816
20
17.5514805322
11
-77.6601557816
21
18.1181471989
0
LINE
5
251
100
AcDbEntity
8
0
100
AcDbLine
62
7
6
CONTINUOUS
10
-103.7601557816
20
3.9014805322
11
-99.2101557816
21
-0.2485194678
0
LINE
5
252
100
AcDbEntity
8
0
100
AcDbLine
62
7
6
CONTINUOUS
10
-86.6601557816
20
4.8014805322
11
-86.6601557816
21
6.9014805322
0
LINE
5
253
100
AcDbEntity
8
0
100
AcDbLine
62
7
6
CONTINUOUS
10
-86.6601557816
20
13.9014805322
11
-86.6601557816
21
16.0014805322
0
LINE
5
254
100
AcDbEntity
8
0
100
AcDbLine
62
7
6
CONTINUOUS
10
-91.7101557816
20
-0.2485194678
11
-86.6601557816
21
4.8014805322
0
LINE
5
255
100
AcDbEntity
8
0
100
AcDbLine
62
7
6
CONTINUOUS
10
-84.6601557816
20
6.9014805322
11
-82.6601557816
21
8.6014805322
0
LINE
5
256
100
AcDbEntity
8
0
100
AcDbLine
62
7
6
CONTINUOUS
10
-98.9367539100
20
7.0780786606
11
-102.2601557816
21
10.4014805322
0
LINE
5
257
100
AcDbEntity
8
0
100
AcDbLine
62
7
6
CONTINUOUS
10
-98.9367539100
20
13.7248824038
11
-95.6133520384
21
10.4014805322
0
LINE
5
258
100
AcDbEntity
8
0
100
AcDbLine
62
7
6
CONTINUOUS
10
-78.6601557816
20
3.2514805322
11
-78.6601557816
21
17.5514805322
0
LINE
5
259
100
AcDbEntity
8
0
100
AcDbLine
62
7
6
CONTINUOUS
10
-77.6601557816
20
0.9014805322
11
-77.6601557816
21
19.9014805322
0
LINE
5
25A
100
AcDbEntity
8
0
100
AcDbLine
62
7
6
CONTINUOUS
10
-51.0771701696
20
-4.0985194678
11
-48.9964317599
21
-4.0985194678
0
LINE
5
25B
100
AcDbEntity
8
0
100
AcDbLine
62
7
6
CONTINUOUS
10
-51.5363676117
20
-2.4985194678
11
-49.4556292020
21
-2.4985194678
0
LINE
5
25C
100
AcDbEntity
8
0
100
AcDbLine
62
7
6
CONTINUOUS
10
-76.0601557816
20
-0.5985194678
11
-76.0601557816
21
21.4014805322
0
LINE
5
25D
100
AcDbEntity
8
0
100
AcDbLine
62
7
6
CONTINUOUS
10
-63.6601557816
20
-2.0985194678
11
-64.1601557816
21
-2.0985194678
0
LINE
5
25E
100
AcDbEntity
8
0
100
AcDbLine
62
7
6
CONTINUOUS
10
-76.0601557816
20
-0.5985194678
11
-73.5601557816
21
-0.5985194678
0
LINE
5
25F
100
AcDbEntity
8
0
100
AcDbLine
62
7
6
CONTINUOUS
10
-55.2757076174
20
-0.5985194678
11
-58.5446039457
21
-0.5985194678
0
LINE
5
260
100
AcDbEntity
8
0
100
AcDbLine
62
7
6
CONTINUOUS
10
-99.2101557816
20
-0.2485194678
11
-91.7101557816
21
-0.2485194678
0
LINE
5
261
100
AcDbEntity
8
0
100
AcDbLine
62
7
6
CONTINUOUS
10
-77.6601557816
20
0.9014805322
11
-76.0601557816
21
-0.5985194678
0
LINE
5
262
100
AcDbEntity
8
0
100
AcDbLine
62
7
6
CONTINUOUS
10
-73.5601557816
20
-0.5984298659
11
-73.5601557816
21
21.4013909304
0
LINE
5
263
100
AcDbEntity
8
0
100
AcDbLine
62
7
6
CONTINUOUS
10
-71.8601557816
20
20.6014805322
11
-71.8601557816
21
0.2014805322
0
LINE
5
264
100
AcDbEntity
8
0
100
AcDbLine
62
7
6
CONTINUOUS
10
-71.8601557816
20
1.0514805322
11
-64.1601557816
21
1.0514805322
0
LINE
5
265
100
AcDbEntity
8
0
100
AcDbLine
62
7
6
CONTINUOUS
10
-63.6601557816
20
1.0514805322
11
-58.6601557816
21
1.0514805322
0
LINE
5
266
100
AcDbEntity
8
0
100
AcDbLine
62
7
6
CONTINUOUS
10
-55.1601557816
20
1.0514805322
11
-53.6601557816
21
1.0514805322
0
LINE
5
267
100
AcDbEntity
8
0
100
AcDbLine
62
7
6
CONTINUOUS
10
-78.6601557816
20
3.2514805322
11
-77.6601557816
21
2.6848138656
0
LINE
5
268
100
AcDbEntity
8
0
100
AcDbLine
62
7
6
CONTINUOUS
10
-86.6601557816
20
16.0014805322
11
-91.7101557816
21
21.0514805322
0
LINE
5
269
100
AcDbEntity
8
0
100
AcDbLine
62
7
6
CONTINUOUS
10
-53.4825544504
20
4.2826571159
11
-51.4018160407
21
4.2826571159
0
LINE
5
26A
100
AcDbEntity
8
0
100
AcDbLine
62
7
6
CONTINUOUS
10
-58.5280577936
20
21.4379432271
11
-58.6601557816
21
21.1514805322
0
LINE
5
26B
100
AcDbEntity
8
0
100
AcDbLine
62
7
6
CONTINUOUS
10
-50.0001557816
20
5.9014805322
11
-49.0001557816
21
5.9014805322
0
LINE
5
26C
100
AcDbEntity
8
0
100
AcDbLine
62
7
6
CONTINUOUS
10
-71.8601557816
20
6.0014805322
11
-64.1601557816
21
6.0014805322
0
LINE
5
26D
100
AcDbEntity
8
0
100
AcDbLine
62
7
6
CONTINUOUS
10
-63.6601557816
20
6.0014805322
11
-58.6601557816
21
6.0014805322
0
LINE
5
26E
100
AcDbEntity
8
0
100
AcDbLine
62
7
6
CONTINUOUS
10
-55.1601557816
20
6.0014805322
11
-53.6601557816
21
6.0014805322
0
LINE
5
26F
100
AcDbEntity
8
0
100
AcDbLine
62
7
6
CONTINUOUS
10
-50.1601557816
20
6.4014805322
11
-53.6601557816
21
6.4014805322
0
LINE
5
270
100
AcDbEntity
8
0
100
AcDbLine
62
7
6
CONTINUOUS
10
-105.4601557816
20
6.9014805322
11
-103.7601557816
21
6.9014805322
0
LINE
5
271
100
AcDbEntity
8
0
100
AcDbLine
62
7
6
CONTINUOUS
10
-86.6601557816
20
6.9014805322
11
-84.6601557816
21
6.9014805322
0
LINE
5
272
100
AcDbEntity
8
0
100
AcDbLine
62
7
6
CONTINUOUS
10
-64.1601557816
20
-2.0985194678
11
-64.1601557816
21
22.9014805322
0
LINE
5
273
100
AcDbEntity
8
0
100
AcDbLine
62
7
6
CONTINUOUS
10
-47.9165193606
20
10.8817154716
11
-47.6906036841
21
10.9014805322
0
LINE
5
274
100
AcDbEntity
8
0
100
AcDbLine
62
7
6
CONTINUOUS
10
-47.9165193606
20
12.3817154716
11
-47.9023705219
21
12.3829533346
0
LINE
5
275
100
AcDbEntity
8
0
100
AcDbLine
62
7
6
CONTINUOUS
10
-50.1601557816
20
7.9014805322
11
-50.0001557816
21
7.9014805322
0
LINE
5
276
100
AcDbEntity
8
0
100
AcDbLine
62
7
6
CONTINUOUS
10
-82.6601557816
20
8.6014805322
11
-78.6601557816
21
8.6014805322
0
LINE
5
277
100
AcDbEntity
8
0
100
AcDbLine
62
7
6
CONTINUOUS
10
-57.7601557816
20
10.4014805322
11
-56.0601557816
21
10.4014805322
0
LINE
5
278
100
AcDbEntity
8
0
100
AcDbLine
62
7
6
CONTINUOUS
10
-63.6601557816
20
-2.0985194678
11
-63.6601557816
21
22.9014805322
0
LINE
5
279
100
AcDbEntity
8
0
100
AcDbLine
62
7
6
CONTINUOUS
10
-50.1601557816
20
12.9014805322
11
-50.0001557816
21
12.9014805322
0
LINE
5
27A
100
AcDbEntity
8
0
100
AcDbLine
62
7
6
CONTINUOUS
10
-47.9023705219
20
8.4200077298
11
-47.9165193606
21
8.4212455928
0
LINE
5
27B
100
AcDbEntity
8
0
100
AcDbLine
62
7
6
CONTINUOUS
10
-47.6906036841
20
9.9014805322
11
-47.9165193606
21
9.9212455928
0
LINE
5
27C
100
AcDbEntity
8
0
100
AcDbLine
62
7
6
CONTINUOUS
10
-78.6601557816
20
13.9014805322
11
-86.6601557816
21
13.9014805322
0
LINE
5
27D
100
AcDbEntity
8
0
100
AcDbLine
62
7
6
CONTINUOUS
10
-103.7601557816
20
13.9014805322
11
-105.4601557816
21
13.9014805322
0
LINE
5
27E
100
AcDbEntity
8
0
100
AcDbLine
62
7
6
CONTINUOUS
10
-50.1601557816
20
14.4014805322
11
-53.6601557816
21
14.4014805322
0
LINE
5
27F
100
AcDbEntity
8
0
100
AcDbLine
62
7
6
CONTINUOUS
10
-71.8601557816
20
14.8014805322
11
-64.1601557816
21
14.8014805322
0
LINE
5
280
100
AcDbEntity
8
0
100
AcDbLine
62
7
6
CONTINUOUS
10
-63.6601557816
20
14.8014805322
11
-58.6601557816
21
14.8014805322
0
LINE
5
281
100
AcDbEntity
8
0
100
AcDbLine
62
7
6
CONTINUOUS
10
-55.1601557816
20
14.8014805322
11
-53.6601557816
21
14.8014805322
0
LINE
5
282
100
AcDbEntity
8
0
100
AcDbLine
62
7
6
CONTINUOUS
10
-50.0001557816
20
14.9014805322
11
-49.0001557816
21
14.9014805322
0
LINE
5
283
100
AcDbEntity
8
0
100
AcDbLine
62
7
6
CONTINUOUS
10
-58.5280577936
20
-0.6349821627
11
-58.6601557816
21
-0.3485194678
0
LINE
5
284
100
AcDbEntity
8
0
100
AcDbLine
62
7
6
CONTINUOUS
10
-58.6601557816
20
-0.3485194678
11
-58.6601557816
21
21.1514805322
0
LINE
5
285
100
AcDbEntity
8
0
100
AcDbLine
62
7
6
CONTINUOUS
10
-55.1601557816
20
-0.3485194678
11
-55.2922537695
21
-0.6349821627
0
LINE
5
286
100
AcDbEntity
8
0
100
AcDbLine
62
7
6
CONTINUOUS
10
-55.1601557816
20
-0.3485194678
11
-55.1601557816
21
21.1514805322
0
LINE
5
287
100
AcDbEntity
8
0
100
AcDbLine
62
7
6
CONTINUOUS
10
-53.6601557816
20
1.0514805322
11
-53.6601557816
21
19.7513133322
0
LINE
5
288
100
AcDbEntity
8
0
100
AcDbLine
62
7
6
CONTINUOUS
10
-51.6601557816
20
18.9014805322
11
-53.6601557816
21
18.9014805322
0
LINE
5
289
100
AcDbEntity
8
0
100
AcDbLine
62
7
6
CONTINUOUS
10
-71.8601557816
20
19.7514805322
11
-64.1601557816
21
19.7514805322
0
LINE
5
28A
100
AcDbEntity
8
0
100
AcDbLine
62
7
6
CONTINUOUS
10
-63.6601557816
20
19.7514805322
11
-58.6601557816
21
19.7514805322
0
LINE
5
28B
100
AcDbEntity
8
0
100
AcDbLine
62
7
6
CONTINUOUS
10
-55.1601557816
20
19.7514805322
11
-53.6601557816
21
19.7514805322
0
LINE
5
28C
100
AcDbEntity
8
0
100
AcDbLine
62
7
6
CONTINUOUS
10
-51.6601557816
20
5.1828005998
11
-51.6601557816
21
18.9013284440
0
LINE
5
28D
100
AcDbEntity
8
0
100
AcDbLine
62
7
6
CONTINUOUS
10
-91.7101557816
20
21.0514805322
11
-99.2101557816
21
21.0514805322
0
LINE
5
28E
100
AcDbEntity
8
0
100
AcDbLine
62
7
6
CONTINUOUS
10
-76.0601557816
20
21.4014805322
11
-73.5601557816
21
21.4014805322
0
LINE
5
28F
100
AcDbEntity
8
0
100
AcDbLine
62
7
6
CONTINUOUS
10
-55.2757076174
20
21.4014805322
11
-58.5446039457
21
21.4014805322
0
LINE
5
290
100
AcDbEntity
8
0
100
AcDbLine
62
7
6
CONTINUOUS
10
-63.6601557816
20
22.9014805322
11
-64.1601557816
21
22.9014805322
0
LINE
5
291
100
AcDbEntity
8
0
100
AcDbLine
62
7
6
CONTINUOUS
10
-45.5825502457
20
-23.2436432676
11
-53.6601557816
21
4.9014805322
0
LINE
5
292
100
AcDbEntity
8
0
100
AcDbLine
62
7
6
CONTINUOUS
10
-50.1601557816
20
14.4014805322
11
-50.1601557816
21
6.4014805322
0
LINE
5
293
100
AcDbEntity
8
0
100
AcDbLine
62
7
6
CONTINUOUS
10
-50.0001557816
20
14.9014805322
11
-50.0001557816
21
5.9014805322
0
LINE
5
294
100
AcDbEntity
8
0
100
AcDbLine
62
7
6
CONTINUOUS
10
-49.0001557816
20
14.9014805322
11
-49.0001557816
21
5.9014805322
0
LINE
5
295
100
AcDbEntity
8
0
100
AcDbLine
62
7
6
CONTINUOUS
10
-43.6601557816
20
-22.6919191297
11
-51.6601557816
21
5.1828005998
0
LINE
5
296
100
AcDbEntity
8
0
100
AcDbLine
62
7
6
CONTINUOUS
10
-55.1601557816
20
21.1514805322
11
-55.2922537695
21
21.4379432271
0
LINE
5
297
100
AcDbEntity
8
0
100
AcDbLine
62
7
6
CONTINUOUS
10
-45.9851719787
20
-21.8407722719
11
-44.0627775146
21
-21.2890481340
0
LINE
5
298
100
AcDbEntity
8
0
100
AcDbLine
62
7
6
CONTINUOUS
10
-45.5825502457
20
-23.2436432676
11
-43.6601557816
21
-22.6919191297
0
CIRCLE
5
299
100
AcDbEntity
8
0
100
AcDbCircle
62
7
6
CONTINUOUS
10
-0.0722122922
20
10.4014805322
40
11.0500000000
0
CIRCLE
5
29A
100
AcDbEntity
8
0
100
AcDbCircle
62
7
6
CONTINUOUS
10
-0.0722122922
20
10.4014805322
40
12.5000000000
0
CIRCLE
5
29B
100
AcDbEntity
8
0
100
AcDbCircle
62
7
6
CONTINUOUS
10
-0.0722122922
20
10.4014805322
40
11.0000000000
0
ARC
5
29C
100
AcDbEntity
8
0
100
AcDbCircle
62
7
6
CONTINUOUS
10
-0.0722122922
20
10.4014805322
40
8.5000000000
100
AcDbArc
50
276.7565375415
51
83.2434624585
0
ARC
5
29D
100
AcDbEntity
8
0
100
AcDbCircle
62
7
6
CONTINUOUS
10
-0.0722122922
20
10.4014805322
40
8.5000000000
100
AcDbArc
50
96.7565375415
51
263.2434624585
0
ARC
5
29E
100
AcDbEntity
8
0
100
AcDbCircle
62
7
6
CONTINUOUS
10
-0.0722122922
20
10.4014805322
40
7.1500000000
100
AcDbArc
50
278.0439709356
51
81.9560290644
0
ARC
5
29F
100
AcDbEntity
8
0
100
AcDbCircle
62
7
6
CONTINUOUS
10
-0.0722122922
20
10.4014805322
40
7.1500000000
100
AcDbArc
50
98.0439709356
51
261.9560290644
0
ARC
5
2A0
100
AcDbEntity
8
0
100
AcDbCircle
62
7
6
CONTINUOUS
10
-0.0722122922
20
10.4014805322
40
8.0000000000
100
AcDbArc
50
277.1809481452
51
82.8190518548
0
ARC
5
2A1
100
AcDbEntity
8
0
100
AcDbCircle
62
7
6
CONTINUOUS
10
-0.0722122922
20
10.4014805322
40
8.0000000000
100
AcDbArc
50
97.1809481452
51
262.8190518548
0
ARC
5
2A2
100
AcDbEntity
8
0
100
AcDbCircle
62
7
6
CONTINUOUS
10
-0.0722122922
20
10.4014805322
40
9.5000000000
100
AcDbArc
50
276.0445657952
51
83.9554342048
0
ARC
5
2A3
100
AcDbEntity
8
0
100
AcDbCircle
62
7
6
CONTINUOUS
10
-0.0722122922
20
10.4014805322
40
9.5000000000
100
AcDbArc
50
96.0445657952
51
263.9554342048
0
ARC
5
2A4
100
AcDbEntity
8
0
100
AcDbCircle
62
7
6
CONTINUOUS
10
-0.0722122922
20
10.4014805322
40
3.2500000000
100
AcDbArc
50
288.8491065923
51
72.0797868606
0
ARC
5
2A5
100
AcDbEntity
8
0
100
AcDbCircle
62
7
6
CONTINUOUS
10
-0.0722122922
20
10.4014805322
40
3.2500000000
100
AcDbArc
50
107.9202131394
51
251.1508934077
0
ARC
5
2A6
100
AcDbEntity
8
0
100
AcDbCircle
62
7
6
CONTINUOUS
10
-72.7101557816
20
20.6014805322
40
0.8500000000
100
AcDbArc
50
0.0000000000
51
180.0000000000
0
ARC
5
2A7
100
AcDbEntity
8
0
100
AcDbCircle
62
7
6
CONTINUOUS
10
-72.7101557816
20
0.2014805322
40
0.8500000000
100
AcDbArc
50
180.0000000000
51
360.0000000000
0
ARC
5
2A8
100
AcDbEntity
8
0
100
AcDbCircle
62
7
6
CONTINUOUS
10
-55.8861259308
20
10.4014805322
40
8.2259701493
100
AcDbArc
50
13.9384924695
51
33.1647238820
0
ARC
5
2A9
100
AcDbEntity
8
0
100
AcDbCircle
62
7
6
CONTINUOUS
10
-55.8861259308
20
10.4014805322
40
8.2259701493
100
AcDbArc
50
326.8352761180
51
346.0615075305
0
SPLINE
5
2AA
100
AcDbEntity
8
0
100
AcDbSpline
62
7
6
CONTINUOUS
70
0
71
3
72
13
73
9
74
7
42
0.0000001000
43
0.0000001000
44
0.0000000001
12
-14.2954792199
22
-5.5584171921
32
0.0000000000
13
-14.2954792199
23
5.5584171921
33
0.0000000000
40
0.0000000000
40
0.0000000000
40
0.0000000000
40
0.0000000000
40
0.1663319461
40
0.3330630118
40
0.5000000000
40
0.6669369882
40
0.8336680539
40
1.0000000000
40
1.0000000000
40
1.0000000000
40
1.0000000000
10
7.4277877078
20
-21.8407722719
30
0.0000000000
10
6.6351894147
20
-22.1489530549
30
0.0000000000
10
5.0078204439
20
-22.6676200178
30
0.0000000000
10
2.4889053838
20
-23.1384199443
30
0.0000000000
10
-0.0722122922
20
-23.2962873985
30
0.0000000000
10
-2.6333299682
20
-23.1384199443
30
0.0000000000
10
-5.1522450283
20
-22.6676200178
30
0.0000000000
10
-6.7796139991
20
-22.1489530549
30
0.0000000000
10
-7.5722122922
20
-21.8407722719
30
0.0000000000
11
7.4277877078
21
-21.8407722719
31
0.0000000000
11
4.9971643613
21
-22.6158575515
31
0.0000000000
11
2.4834264269
21
-23.0860508901
31
0.0000000000
11
-0.0722122922
21
-23.2436432676
31
0.0000000000
11
-2.6278510113
21
-23.0860508901
31
0.0000000000
11
-5.1415889458
21
-22.6158575515
31
0.0000000000
11
-7.5722122922
21
-21.8407722719
31
0.0000000000
0
SPLINE
5
2AB
100
AcDbEntity
8
0
100
AcDbSpline
62
7
6
CONTINUOUS
70
0
71
3
72
16
73
12
74
10
42
0.0000001000
43
0.0000001000
44
0.0000000001
12
-0.0908246651
22
1.4966572549
32
0.0000000000
13
-0.3597825510
23
1.4556059131
33
0.0000000000
40
0.0000000000
40
0.0000000000
40
0.0000000000
40
0.0000000000
40
0.1432278387
40
0.2702560409
40
0.3851088336
40
0.4917549721
40
0.5941837723
40
0.6957216877
40
0.7970919062
40
0.8984646200
40
1.0000000000
40
1.0000000000
40
1.0000000000
40
1.0000000000
10
-47.6906036841
20
10.9014805322
30
0.0000000000
10
-47.6949398909
20
10.9729348602
30
0.0000000000
10
-47.7048764595
20
11.1076622817
30
0.0000000000
10
-47.7237430552
20
11.2992301226
30
0.0000000000
10
-47.7446221154
20
11.4721823647
30
0.0000000000
10
-47.7672575460
20
11.6325025701
30
0.0000000000
10
-47.7918783136
20
11.7857922734
30
0.0000000000
10
-47.8188689261
20
11.9360037442
30
0.0000000000
10
-47.8485212628
20
12.0851744881
30
0.0000000000
10
-47.8809161614
20
12.2337719098
30
0.0000000000
10
-47.9043424746
20
12.3324503051
30
0.0000000000
10
-47.9165193606
20
12.3817154716
30
0.0000000000
11
-47.6906036841
21
10.9014805322
31
0.0000000000
11
-47.7063998859
21
11.1156561449
31
0.0000000000
11
-47.7250677686
21
11.3052065385
31
0.0000000000
11
-47.7457075895
21
11.4761766984
31
0.0000000000
11
-47.7680628911
21
11.6345126716
31
0.0000000000
11
-47.7924186126
21
11.7861519909
31
0.0000000000
11
-47.8193438118
21
11.9359992127
31
0.0000000000
11
-47.8489778970
21
12.0850779720
31
0.0000000000
11
-47.8813540535
21
12.2335891747
31
0.0000000000
11
-47.9165193606
21
12.3817154716
31
0.0000000000
0
SPLINE
5
2AC
100
AcDbEntity
8
0
100
AcDbSpline
62
7
6
CONTINUOUS
70
0
71
3
72
10
73
6
74
4
42
0.0000001000
43
0.0000001000
44
0.0000000001
12
0.0565757271
22
0.9592969736
32
0.0000000000
13
-0.0565757271
23
0.9592969736
33
0.0000000000
40
0.0000000000
40
0.0000000000
40
0.0000000000
40
0.0000000000
40
0.3328923168
40
0.6671076348
40
1.0000000000
40
1.0000000000
40
1.0000000000
40
1.0000000000
10
-47.9165193606
20
9.9212455928
30
0.0000000000
10
-47.9102414856
20
10.0276931235
30
0.0000000000
10
-47.9018435157
20
10.2412825289
30
0.0000000000
10
-47.9018435148
20
10.5616785045
30
0.0000000000
10
-47.9102414847
20
10.7752679255
30
0.0000000000
10
-47.9165193606
20
10.8817154716
30
0.0000000000
11
-47.9165193606
21
9.9212455928
31
0.0000000000
11
-47.9039513437
21
10.2408960917
31
0.0000000000
11
-47.9039513428
21
10.5620649261
31
0.0000000000
11
-47.9165193606
21
10.8817154716
31
0.0000000000
0
SPLINE
5
2AD
100
AcDbEntity
8
0
100
AcDbSpline
62
7
6
CONTINUOUS
70
0
71
3
72
16
73
12
74
10
42
0.0000001000
43
0.0000001000
44
0.0000000001
12
0.3597826521
22
1.4556063218
32
0.0000000000
13
0.0908246906
23
1.4966576751
33
0.0000000000
40
0.0000000000
40
0.0000000000
40
0.0000000000
40
0.0000000000
40
0.1030791175
40
0.2057077747
40
0.3083229021
40
0.4113733276
40
0.5156365005
40
0.6236416112
40
0.7383800542
40
0.8628250191
40
1.0000000000
40
1.0000000000
40
1.0000000000
40
1.0000000000
10
-47.9165193606
20
8.4212455928
30
0.0000000000
10
-47.9041573345
20
8.4712597979
30
0.0000000000
10
-47.8804217701
20
8.5713033051
30
0.0000000000
10
-47.8476556507
20
8.7218891273
30
0.0000000000
10
-47.8177061625
20
8.8730462943
30
0.0000000000
10
-47.7904426296
20
9.0255408549
30
0.0000000000
10
-47.7656318788
20
9.1811826025
30
0.0000000000
10
-47.7430186173
20
9.3430603358
30
0.0000000000
10
-47.7224918961
20
9.5153809534
30
0.0000000000
10
-47.7043038691
20
9.7026199265
30
0.0000000000
10
-47.6947566425
20
9.8330458695
30
0.0000000000
10
-47.6906036841
20
9.9014805322
30
0.0000000000
11
-47.9165193606
21
8.4212455928
31
0.0000000000
11
-47.8808404908
21
8.5716290420
31
0.0000000000
11
-47.8481225531
21
8.7219931722
31
0.0000000000
11
-47.8182183897
21
8.8729214100
31
0.0000000000
11
-47.7910247928
21
9.0250245827
31
0.0000000000
11
-47.7664144906
21
9.1794086769
31
0.0000000000
11
-47.7440094931
21
9.3397953704
31
0.0000000000
11
-47.7236600143
21
9.5106277115
31
0.0000000000
11
-47.7056195533
21
9.6963477100
31
0.0000000000
11
-47.6906036841
21
9.9014805322
31
0.0000000000
0
SPLINE
5
2AE
100
AcDbEntity
8
0
100
AcDbSpline
62
7
6
CONTINUOUS
70
0
71
3
72
14
73
10
74
8
42
0.0000001000
43
0.0000001000
44
0.0000000001
12
-2.8662966729
22
10.7659817035
32
0.0000000000
13
2.8662966729
23
10.7659817035
33
0.0000000000
40
0.0000000000
40
0.0000000000
40
0.0000000000
40
0.0000000000
40
0.1486653580
40
0.2906628742
40
0.4303911049
40
0.5697490568
40
0.7094706958
40
0.8513881719
40
1.0000000000
40
1.0000000000
40
1.0000000000
40
1.0000000000
10
-57.7601557816
20
-0.5985194678
30
0.0000000000
10
-57.9021954552
20
-0.0650099598
30
0.0000000000
10
-58.1517753451
20
0.9859760237
30
0.0000000000
10
-58.4152147066
20
2.5638490592
30
0.0000000000
10
-58.5504517349
20
4.1235939463
30
0.0000000000
10
-58.5503828248
20
5.6809057534
30
0.0000000000
10
-58.4150459602
20
7.2403181921
30
0.0000000000
10
-58.1516195110
20
8.8176630194
30
0.0000000000
10
-57.9021443111
20
9.8681631247
30
0.0000000000
10
-57.7601557816
20
10.4014805322
30
0.0000000000
11
-57.7601557816
21
-0.5985194678
31
0.0000000000
11
-58.1387524841
21
1.0139114650
31
0.0000000000
11
-58.3957817639
21
2.5748870504
31
0.0000000000
11
-58.5280915192
21
4.1259672380
31
0.0000000000
11
-58.5280240004
21
5.6785550393
31
0.0000000000
11
-58.3955950728
21
7.2295513512
31
0.0000000000
11
-58.1386347892
21
8.7896345600
31
0.0000000000
11
-57.7601557816
21
10.4014805322
31
0.0000000000
0
SPLINE
5
2AF
100
AcDbEntity
8
0
100
AcDbSpline
62
7
6
CONTINUOUS
70
0
71
3
72
14
73
10
74
8
42
0.0000001000
43
0.0000001000
44
0.0000000001
12
2.8662966729
22
10.7659817035
32
0.0000000000
13
-2.8662966729
23
10.7659817035
33
0.0000000000
40
0.0000000000
40
0.0000000000
40
0.0000000000
40
0.0000000000
40
0.1486653580
40
0.2906628742
40
0.4303911049
40
0.5697490568
40
0.7094706958
40
0.8513881719
40
1.0000000000
40
1.0000000000
40
1.0000000000
40
1.0000000000
10
-56.0601557816
20
-0.5985194678
30
0.0000000000
10
-55.9181161079
20
-0.0650099598
30
0.0000000000
10
-55.6685362180
20
0.9859760237
30
0.0000000000
10
-55.4050968565
20
2.5638490592
30
0.0000000000
10
-55.2698598282
20
4.1235939463
30
0.0000000000
10
-55.2699287383
20
5.6809057534
30
0.0000000000
10
-55.4052656030
20
7.2403181921
30
0.0000000000
10
-55.6686920521
20
8.8176630194
30
0.0000000000
10
-55.9181672521
20
9.8681631247
30
0.0000000000
10
-56.0601557816
20
10.4014805322
30
0.0000000000
11
-56.0601557816
21
-0.5985194678
31
0.0000000000
11
-55.6815590790
21
1.0139114650
31
0.0000000000
11
-55.4245297992
21
2.5748870504
31
0.0000000000
11
-55.2922200439
21
4.1259672380
31
0.0000000000
11
-55.2922875628
21
5.6785550393
31
0.0000000000
11
-55.4247164904
21
7.2295513512
31
0.0000000000
11
-55.6816767740
21
8.7896345600
31
0.0000000000
11
-56.0601557816
21
10.4014805322
31
0.0000000000
0
SPLINE
5
2B0
100
AcDbEntity
8
0
100
AcDbSpline
62
7
6
CONTINUOUS
70
0
71
3
72
14
73
10
74
8
42
0.0000001000
43
0.0000001000
44
0.0000000001
12
-2.8662966729
22
10.7659817035
32
0.0000000000
13
2.8662966729
23
10.7659817035
33
0.0000000000
40
0.0000000000
40
0.0000000000
40
0.0000000000
40
0.0000000000
40
0.1486653580
40
0.2906628742
40
0.4303911049
40
0.5697490568
40
0.7094706958
40
0.8513881719
40
1.0000000000
40
1.0000000000
40
1.0000000000
40
1.0000000000
10
-57.7601557816
20
10.4014805322
30
0.0000000000
10
-57.9021954552
20
10.9349900402
30
0.0000000000
10
-58.1517753451
20
11.9859760237
30
0.0000000000
10
-58.4152147066
20
13.5638490592
30
0.0000000000
10
-58.5504517349
20
15.1235939463
30
0.0000000000
10
-58.5503828248
20
16.6809057534
30
0.0000000000
10
-58.4150459602
20
18.2403181921
30
0.0000000000
10
-58.1516195110
20
19.8176630194
30
0.0000000000
10
-57.9021443111
20
20.8681631247
30
0.0000000000
10
-57.7601557816
20
21.4014805322
30
0.0000000000
11
-57.7601557816
21
10.4014805322
31
0.0000000000
11
-58.1387524841
21
12.0139114650
31
0.0000000000
11
-58.3957817639
21
13.5748870504
31
0.0000000000
11
-58.5280915192
21
15.1259672380
31
0.0000000000
11
-58.5280240004
21
16.6785550393
31
0.0000000000
11
-58.3955950728
21
18.2295513512
31
0.0000000000
11
-58.1386347892
21
19.7896345600
31
0.0000000000
11
-57.7601557816
21
21.4014805322
31
0.0000000000
0
SPLINE
5
2B1
100
AcDbEntity
8
0
100
AcDbSpline
62
7
6
CONTINUOUS
70
0
71
3
72
14
73
10
74
8
42
0.0000001000
43
0.0000001000
44
0.0000000001
12
2.8662966729
22
10.7659817035
32
0.0000000000
13
-2.8662966729
23
10.7659817035
33
0.0000000000
40
0.0000000000
40
0.0000000000
40
0.0000000000
40
0.0000000000
40
0.1486653580
40
0.2906628742
40
0.4303911049
40
0.5697490568
40
0.7094706958
40
0.8513881719
40
1.0000000000
40
1.0000000000
40
1.0000000000
40
1.0000000000
10
-56.0601557816
20
10.4014805322
30
0.0000000000
10
-55.9181161079
20
10.9349900402
30
0.0000000000
10
-55.6685362180
20
11.9859760237
30
0.0000000000
10
-55.4050968565
20
13.5638490592
30
0.0000000000
10
-55.2698598282
20
15.1235939463
30
0.0000000000
10
-55.2699287383
20
16.6809057534
30
0.0000000000
10
-55.4052656030
20
18.2403181921
30
0.0000000000
10
-55.6686920521
20
19.8176630194
30
0.0000000000
10
-55.9181672521
20
20.8681631247
30
0.0000000000
10
-56.0601557816
20
21.4014805322
30
0.0000000000
11
-56.0601557816
21
10.4014805322
31
0.0000000000
11
-55.6815590790
21
12.0139114650
31
0.0000000000
11
-55.4245297992
21
13.5748870504
31
0.0000000000
11
-55.2922200439
21
15.1259672380
31
0.0000000000
11
-55.2922875628
21
16.6785550393
31
0.0000000000
11
-55.4247164904
21
18.2295513512
31
0.0000000000
11
-55.6816767740
21
19.7896345600
31
0.0000000000
11
-56.0601557816
21
21.4014805322
31
0.0000000000
0
ENDSEC
0
SECTION
2
OBJECTS
0
DICTIONARY
5
2B2
100
AcDbDictionary
3
ACAD_GROUP
350
2B3
3
ACAD_MLINESTYLE
350
2B4
0
DICTIONARY
5
2B3
102
{ACAD_REACTORS
330
2B2
102
}
100
AcDbDictionary
0
DICTIONARY
5
2B4
102
{ACAD_REACTORS
330
2B2
102
}
100
AcDbDictionary
3
STANDARD
350
2B5
0
MLINESTYLE
5
2B5
102
{ACAD_REACTORS
330
2B4
102
}
100
AcDbMlineStyle
2
STANDARD
70
0
3

62
256
51
90.0
52
90.0
71
2
49
0.5
62
256
6
BYLAYER
49
-0.5
62
256
6
BYLAYER
0
ENDSEC
0
EOF
