0
SECTION
2
HEADER
9
$ACADVER
1
AC1014
9
$HANDSEED
5
       3AA
9
$EXTMAX
10
297.0000000000
20
210.0000000000
9
$EXTMIN
10
0.0000000000
20
0.0000000000
9
$LIMMIN
10
0.0000000000
20
0.0000000000
9
$LIMMAX
10
297.0000000000
20
210.0000000000
9
$VIEWCTR
10
148.5000000000
20
105.0000000000
9
$VIEWSIZE
40
210.0000000000
9
$CLAYER
8
0
9
$LTSCALE
40
16.3350000000
9
$CELTYPE
6
BYLAYER
9
$DIMSCALE
40
1
9
$DIMASZ
40
3.0000000000
9
$DIMEXO
40
1.8562500000
9
$DIMDLI
40
11.2860000000
9
$DIMEXE
40
5.3460000000
9
$DIMCEN
40
2.6730000000
9
$DIMLFAC
40
1.0000000000
9
$DIMTXT
40
3.0000000000
9
$DIMTOL
70
1
9
$DIMLIM
70
0
9
$DIMTFAC
40
1.0000000000
9
$DIMTP
40
0.0100000000
9
$DIMTM
40
0.0100000000
9
$MEASUREMENT
70
1
0
ENDSEC
0
SECTION
2
CLASSES
0
ENDSEC
0
SECTION
2
TABLES
0
TABLE
2
VPORT
5
8
100
AcDbSymbolTable
70
2
0
VPORT
5
1F4
100
AcDbSymbolTableRecord
100
AcDbViewportTableRecord
2
*ACTIVE
70
0
10
0.0
20
0.0
11
1.0
21
1.0
12
148.5000000000
22
105.0000000000
13
0.0
23
0.0
14
1.0
24
1.0
15
0.0
25
0.0
16
0.0
26
0.0
36
1.0
17
0.0
27
0.0
37
0.0
40
210.0000000000
41
1.4142857143
42
50.0
43
0.0
44
0.0
50
0.0
51
0.0
71
0
72
100
73
1
74
1
75
0
76
0
77
0
78
0
0
ENDTAB
0
TABLE
2
LTYPE
5
5
100
AcDbSymbolTable
70
6
0
LTYPE
5
14
100
AcDbSymbolTableRecord
100
AcDbLinetypeTableRecord
2
BYBLOCK
70
0
3

72
65
73
0
40
0.0
0
LTYPE
5
15
100
AcDbSymbolTableRecord
100
AcDbLinetypeTableRecord
2
BYLAYER
70
0
3

72
65
73
0
40
0.0
0
LTYPE
5
16
100
AcDbSymbolTableRecord
100
AcDbLinetypeTableRecord
2
CONTINUOUS
70
64
3
Solid line
72
65
73
0
40
0
0
LTYPE
5
1F5
100
AcDbSymbolTableRecord
100
AcDbLinetypeTableRecord
2
CENTER
70
64
3
____ _ ____ _ ____ _ ____ _ ____ _ ____ _ ____
72
65
73
4
40
0.6
49
0.375
74
0
49
-0.075
74
0
49
0.075
74
0
49
-0.075
74
0
0
LTYPE
5
1F6
100
AcDbSymbolTableRecord
100
AcDbLinetypeTableRecord
2
HIDDEN
70
64
3
- - - - - - - - - - - - - - - - - - - -
72
65
73
2
40
0.2
49
0.1
74
0
49
-0.1
74
0
0
LTYPE
5
1F7
100
AcDbSymbolTableRecord
100
AcDbLinetypeTableRecord
2
PHANTOM
70
64
3
_____ _ _ _____ _ _ _____ _ _ _____
72
65
73
6
40
0.8
49
0.45
74
0
49
-0.05
74
0
49
0.1
74
0
49
-0.05
74
0
49
0.1
74
0
49
-0.05
74
0
0
LTYPE
5
1F8
100
AcDbSymbolTableRecord
100
AcDbLinetypeTableRecord
2
DOT
70
64
3
. . . . . . . . . . . . . . . . . . . .
72
65
73
2
40
0.2
49
0.1
74
0
49
-0.1
74
0
0
LTYPE
5
1F9
100
AcDbSymbolTableRecord
100
AcDbLinetypeTableRecord
2
DASHED
70
64
3
- - - - - - - - - - - - - - - - - - - -
72
65
73
2
40
0.2
49
0.1
74
0
49
-0.1
74
0
0
ENDTAB
0
TABLE
2
LAYER
5
2
100
AcDbSymbolTable
70
36
0
LAYER
5
10
100
AcDbSymbolTableRecord
100
AcDbLayerTableRecord
2
0
70
0
62
7
6
CONTINUOUS
0
LAYER
5
1FA
100
AcDbSymbolTableRecord
100
AcDbLayerTableRecord
2
DEFAULT_1
70
0
62
7
6
CENTER
0
LAYER
5
1FB
100
AcDbSymbolTableRecord
100
AcDbLayerTableRecord
2
DEFAULT_2
70
0
62
8
6
HIDDEN
0
LAYER
5
1FC
100
AcDbSymbolTableRecord
100
AcDbLayerTableRecord
2
DEFAULT_3
70
0
62
7
6
PHANTOM
0
LAYER
5
1FD
100
AcDbSymbolTableRecord
100
AcDbLayerTableRecord
2
ASSI
70
0
62
7
6
CONTINUOUS
0
LAYER
5
1FE
100
AcDbSymbolTableRecord
100
AcDbLayerTableRecord
2
COORDINATE
70
0
62
7
6
CONTINUOUS
0
LAYER
5
1FF
100
AcDbSymbolTableRecord
100
AcDbLayerTableRecord
2
COORD_ORIGINE
70
0
62
7
6
CONTINUOUS
0
LAYER
5
200
100
AcDbSymbolTableRecord
100
AcDbLayerTableRecord
2
CURVE
70
0
62
7
6
CONTINUOUS
0
LAYER
5
201
100
AcDbSymbolTableRecord
100
AcDbLayerTableRecord
2
DRAFT
70
0
62
7
6
CONTINUOUS
0
LAYER
5
202
100
AcDbSymbolTableRecord
100
AcDbLayerTableRecord
2
PIANI
70
0
62
7
6
CONTINUOUS
0
LAYER
5
203
100
AcDbSymbolTableRecord
100
AcDbLayerTableRecord
2
PIANI_ORIGINE
70
0
62
7
6
CONTINUOUS
0
LAYER
5
204
100
AcDbSymbolTableRecord
100
AcDbLayerTableRecord
2
RACCORDO
70
0
62
7
6
CONTINUOUS
0
LAYER
5
205
100
AcDbSymbolTableRecord
100
AcDbLayerTableRecord
2
SMUSSO
70
0
62
7
6
CONTINUOUS
0
LAYER
5
206
100
AcDbSymbolTableRecord
100
AcDbLayerTableRecord
2
SNAPLINE
70
0
62
7
6
CONTINUOUS
0
LAYER
5
207
100
AcDbSymbolTableRecord
100
AcDbLayerTableRecord
2
SUPERFICI
70
0
62
7
6
CONTINUOUS
0
LAYER
5
208
100
AcDbSymbolTableRecord
100
AcDbLayerTableRecord
2
TRASH
70
0
62
7
6
CONTINUOUS
0
ENDTAB
0
TABLE
2
STYLE
5
3
100
AcDbSymbolTable
70
1
0
STYLE
5
11
100
AcDbSymbolTableRecord
100
AcDbTextStyleTableRecord
2
STANDARD
70
0
40
0.0
41
0.8000000000
50
0.0
71
0
42
0.2
3
txt
4

0
ENDTAB
0
TABLE
2
VIEW
5
6
100
AcDbSymbolTable
70
0
0
ENDTAB
0
TABLE
2
UCS
5
7
100
AcDbSymbolTable
70
0
0
ENDTAB
0
TABLE
2
APPID
5
9
100
AcDbSymbolTable
70
1
0
APPID
5
209
100
AcDbSymbolTableRecord
100
AcDbRegAppTableRecord
2
ACAD
70
0
0
ENDTAB
0
TABLE
2
DIMSTYLE
5
A
100
AcDbSymbolTable
70
1
0
DIMSTYLE
105
20A
100
AcDbSymbolTableRecord
100
AcDbDimStyleTableRecord
2
STANDARD
70
0
3

4

5

6

7

40
1.0
41
3.0000000000
42
0.0625
43
0.38
44
0.18
45
0.0
46
0.0
47
0.0100000000
48
0.0100000000
140
3.0000000000
141
0.09
142
0.0
143
25.4
144
1.0000000000
145
0.0
146
1.0000000000
147
0.09
71
1
72
0
73
0
74
0
75
0
76
0
77
1
78
8
170
0
171
2
172
0
173
0
174
0
175
0
176
0
177
0
178
0
270
2
271
2
272
2
273
2
274
2
340
11
275
0
280
0
281
0
282
0
283
1
284
8
285
0
286
0
287
3
288
0
0
DIMSTYLE
105
20B
100
AcDbSymbolTableRecord
100
AcDbDimStyleTableRecord
2
DIMSTYLE_1
70
0
3

4

5

6

7

40
1.0
41
3.0000000000
42
0.0625
43
0.38
44
0.18
45
0.0
46
0.0
47
0.0000000000
48
0.0000000000
140
3.0000000000
141
0.09
142
0.0
143
25.4
144
1.0000000000
145
0.0
146
1.0000000000
147
0.09
71
0
72
0
73
0
74
0
75
0
76
0
77
1
78
8
170
0
171
2
172
0
173
0
174
0
175
0
176
0
177
0
178
0
270
2
271
2
272
2
273
2
274
2
340
11
275
0
280
0
281
0
282
0
283
1
284
8
285
0
286
0
287
3
288
0
0
ENDTAB
0
TABLE
2
BLOCK_RECORD
5
1
100
AcDbSymbolTable
70
0
0
BLOCK_RECORD
5
1B
100
AcDbSymbolTableRecord
100
AcDbBlockTableRecord
2
*MODEL_SPACE
0
BLOCK_RECORD
5
1C
100
AcDbSymbolTableRecord
100
AcDbBlockTableRecord
2
*PAPER_SPACE
0
BLOCK_RECORD
5
20C
100
AcDbSymbolTableRecord
100
AcDbBlockTableRecord
2
*D0
0
BLOCK_RECORD
5
20D
100
AcDbSymbolTableRecord
100
AcDbBlockTableRecord
2
*D1
0
BLOCK_RECORD
5
20E
100
AcDbSymbolTableRecord
100
AcDbBlockTableRecord
2
*D2
0
ENDTAB
0
ENDSEC
0
SECTION
2
BLOCKS
0
BLOCK
5
1E
100
AcDbEntity
8
0
100
AcDbBlockBegin
2
*MODEL_SPACE
70
0
10
0.0
20
0.0
30
0.0
3
*MODEL_SPACE
1

0
ENDBLK
5
1F
100
AcDbEntity
8
0
100
AcDbBlockEnd
0
BLOCK
5
20
100
AcDbEntity
8
0
100
AcDbBlockBegin
2
*PAPER_SPACE
70
0
10
0.0
20
0.0
30
0.0
3
*PAPER_SPACE
1

0
ENDBLK
5
21
100
AcDbEntity
8
0
100
AcDbBlockEnd
0
BLOCK
5
20F
100
AcDbEntity
8
0
100
AcDbBlockBegin
62
7
6
CONTINUOUS
2
*D0
70
65
10
0.0000000000
20
0.0000000000
3
*D0
1

0
TEXT
5
210
100
AcDbEntity
8
0
100
AcDbText
62
7
6
CONTINUOUS
10
39.3538229687
20
3.5076527618
7
STANDARD
40
3.0000000000
1
160
50
90.0000000000
41
0.7142857143
72
0
100
AcDbText
0
LINE
5
211
100
AcDbEntity
8
0
100
AcDbLine
62
7
6
CONTINUOUS
10
2.3763052893
20
79.9025038639
11
41.6038229687
21
79.9025038639
0
LINE
5
212
100
AcDbEntity
8
0
100
AcDbLine
62
7
6
CONTINUOUS
10
2.3763052492
20
-80.0974961361
11
41.6038229687
21
-80.0974961361
0
LINE
5
213
100
AcDbEntity
8
0
100
AcDbLine
62
7
6
CONTINUOUS
10
40.1038229687
20
79.9025038639
11
40.1038229687
21
-0.0974961361
0
LINE
5
214
100
AcDbEntity
8
0
100
AcDbLine
62
7
6
CONTINUOUS
10
40.1038229687
20
-80.0974961361
11
40.1038229687
21
-0.0974961361
0
SOLID
5
215
100
AcDbEntity
8
0
100
AcDbTrace
62
7
6
CONTINUOUS
10
41.0538229687
20
76.9025038639
11
40.1038229687
21
79.9025038639
12
39.1538229687
22
76.9025038639
13
39.1538229687
23
76.9025038639
0
SOLID
5
216
100
AcDbEntity
8
0
100
AcDbTrace
62
7
6
CONTINUOUS
10
39.1538229687
20
-77.0974961361
11
40.1038229687
21
-80.0974961361
12
41.0538229687
22
-77.0974961361
13
41.0538229687
23
-77.0974961361
0
ENDBLK
5
217
100
AcDbEntity
8
0
100
AcDbBlockEnd
0
BLOCK
5
218
100
AcDbEntity
8
0
100
AcDbBlockBegin
62
7
6
CONTINUOUS
2
*D1
70
65
10
0.0000000000
20
0.0000000000
3
*D1
1

0
TEXT
5
219
100
AcDbEntity
8
0
100
AcDbText
62
7
6
CONTINUOUS
10
-3.9636593790
20
88.6525047592
7
STANDARD
40
3.0000000000
1
62,75
41
0.7285714286
72
0
100
AcDbText
0
LINE
5
21A
100
AcDbEntity
8
0
100
AcDbLine
62
7
6
CONTINUOUS
10
-30.6461770313
20
67.8182704380
11
-30.6461770313
21
89.4025047592
0
LINE
5
21B
100
AcDbEntity
8
0
100
AcDbLine
62
7
6
CONTINUOUS
10
32.1038229687
20
58.0025038639
11
32.1038229687
21
89.4025047592
0
LINE
5
21C
100
AcDbEntity
8
0
100
AcDbLine
62
7
6
CONTINUOUS
10
-30.6461770313
20
87.9025047592
11
0.7288229687
21
87.9025047592
0
LINE
5
21D
100
AcDbEntity
8
0
100
AcDbLine
62
7
6
CONTINUOUS
10
32.1038229687
20
87.9025047592
11
0.7288229687
21
87.9025047592
0
SOLID
5
21E
100
AcDbEntity
8
0
100
AcDbTrace
62
7
6
CONTINUOUS
10
-27.6461770313
20
88.8525047592
11
-30.6461770313
21
87.9025047592
12
-27.6461770313
22
86.9525047592
13
-27.6461770313
23
86.9525047592
0
SOLID
5
21F
100
AcDbEntity
8
0
100
AcDbTrace
62
7
6
CONTINUOUS
10
29.1038229687
20
86.9525047592
11
32.1038229687
21
87.9025047592
12
29.1038229687
22
88.8525047592
13
29.1038229687
23
88.8525047592
0
ENDBLK
5
220
100
AcDbEntity
8
0
100
AcDbBlockEnd
0
BLOCK
5
221
100
AcDbEntity
8
0
100
AcDbBlockBegin
62
7
6
CONTINUOUS
2
*D2
70
65
10
0.0000000000
20
0.0000000000
3
*D2
1

0
TEXT
5
222
100
AcDbEntity
8
0
100
AcDbText
62
7
6
CONTINUOUS
10
-92.9123590877
20
88.6525047592
7
STANDARD
40
3.0000000000
1
67,9
41
0.7321428571
72
0
100
AcDbText
0
LINE
5
223
100
AcDbEntity
8
0
100
AcDbLine
62
7
6
CONTINUOUS
10
-124.2894481958
20
-44.2892546611
11
-124.2894481958
21
89.4025047592
0
LINE
5
224
100
AcDbEntity
8
0
100
AcDbLine
62
7
6
CONTINUOUS
10
-56.3894481958
20
51.2525038639
11
-56.3894481958
21
89.4025047592
0
LINE
5
225
100
AcDbEntity
8
0
100
AcDbLine
62
7
6
CONTINUOUS
10
-124.2894481958
20
87.9025047592
11
-90.3394481958
21
87.9025047592
0
LINE
5
226
100
AcDbEntity
8
0
100
AcDbLine
62
7
6
CONTINUOUS
10
-56.3894481958
20
87.9025047592
11
-90.3394481958
21
87.9025047592
0
SOLID
5
227
100
AcDbEntity
8
0
100
AcDbTrace
62
7
6
CONTINUOUS
10
-121.2894481958
20
88.8525047592
11
-124.2894481958
21
87.9025047592
12
-121.2894481958
22
86.9525047592
13
-121.2894481958
23
86.9525047592
0
SOLID
5
228
100
AcDbEntity
8
0
100
AcDbTrace
62
7
6
CONTINUOUS
10
-59.3894481958
20
86.9525047592
11
-56.3894481958
21
87.9025047592
12
-59.3894481958
22
88.8525047592
13
-59.3894481958
23
88.8525047592
0
ENDBLK
5
229
100
AcDbEntity
8
0
100
AcDbBlockEnd
0
ENDSEC
0
SECTION
2
ENTITIES
0
DIMENSION
5
22A
100
AcDbEntity
8
0
100
AcDbDimension
62
7
6
CONTINUOUS
2
*D0
10
40.1038229687
20
-80.0974961361
11
37.8538229687
21
6.7219384761
70
160
3
DIMSTYLE_1
100
AcDbAlignedDimension
13
2.3763052893
23
79.9025038639
14
2.3763052492
24
-80.0974961361
50
270.000000
100
AcDbRotatedDimension
0
DIMENSION
5
22B
100
AcDbEntity
8
0
100
AcDbDimension
62
7
6
CONTINUOUS
2
*D1
10
32.1038229687
20
87.9025047592
11
1.5006263353
21
90.1525047592
70
160
3
DIMSTYLE_1
100
AcDbAlignedDimension
13
-30.6461770313
23
67.8182704380
14
32.1038229687
24
58.0025038639
50
360.000000
100
AcDbRotatedDimension
0
DIMENSION
5
22C
100
AcDbEntity
8
0
100
AcDbDimension
62
7
6
CONTINUOUS
2
*D2
10
-56.3894481958
20
87.9025047592
11
-88.5195019448
21
90.1525047592
70
160
3
DIMSTYLE_1
100
AcDbAlignedDimension
13
-124.2894481958
23
-44.2892546611
14
-56.3894481958
24
51.2525038639
100
AcDbRotatedDimension
0
LINE
5
22D
100
AcDbEntity
8
0
100
AcDbLine
62
7
6
CONTINUOUS
10
3.3538229687
20
-80.0974961361
11
-10.8570008446
21
-80.0974961361
0
LINE
5
22E
100
AcDbEntity
8
0
100
AcDbLine
62
7
6
CONTINUOUS
10
-14.4353532180
20
-80.0974961361
11
-28.6461770313
21
-80.0974961361
0
LINE
5
22F
100
AcDbEntity
8
0
100
AcDbLine
62
9
6
CONTINUOUS
10
5.3538229687
20
-67.5132665813
11
5.2038582853
21
-67.5132654358
0
LINE
5
230
100
AcDbEntity
8
0
100
AcDbLine
62
9
6
CONTINUOUS
10
-30.6461770313
20
-67.5132693111
11
-30.4962126650
21
-67.5132690892
0
LINE
5
231
100
AcDbEntity
8
0
100
AcDbLine
62
7
6
CONTINUOUS
10
-15.2961770313
20
-61.8474961361
11
-9.9961770313
21
-61.8474961361
0
LINE
5
232
100
AcDbEntity
8
0
100
AcDbLine
62
7
6
CONTINUOUS
10
-15.2961770313
20
-55.7057376112
11
-9.9961770313
21
-55.7057376112
0
LINE
5
233
100
AcDbEntity
8
0
100
AcDbLine
62
7
6
CONTINUOUS
10
-15.2961770313
20
-44.7892546611
11
-9.9961770313
21
-44.7892546611
0
LINE
5
234
100
AcDbEntity
8
0
100
AcDbLine
62
7
6
CONTINUOUS
10
-24.0461770313
20
-40.1474961361
11
-23.8461770313
21
-40.1474961361
0
LINE
5
235
100
AcDbEntity
8
0
100
AcDbLine
62
7
6
CONTINUOUS
10
-1.4461770313
20
-40.1474961361
11
-1.2461770313
21
-40.1474961361
0
LINE
5
236
100
AcDbEntity
8
0
100
AcDbLine
62
7
6
CONTINUOUS
10
-15.2961770313
20
-38.6474961361
11
-9.9961770313
21
-38.6474961361
0
LINE
5
237
100
AcDbEntity
8
0
100
AcDbLine
62
7
6
CONTINUOUS
10
-30.6461770313
20
-78.0974961361
11
-30.6461770313
21
77.9025038639
0
LINE
5
238
100
AcDbEntity
8
0
100
AcDbLine
62
9
6
CONTINUOUS
10
-30.4962126650
20
-67.5132838520
11
-30.4962123799
21
67.3182668111
0
LINE
5
239
100
AcDbEntity
8
0
100
AcDbLine
62
7
6
CONTINUOUS
10
15.1038229687
20
41.0025038639
11
32.1038229687
21
50.7525038639
0
LINE
5
23A
100
AcDbEntity
8
0
100
AcDbLine
62
7
6
CONTINUOUS
10
-24.0461770313
20
50.7525038639
11
-24.0461770313
21
-50.9474961361
0
LINE
5
23B
100
AcDbEntity
8
0
100
AcDbLine
62
7
6
CONTINUOUS
10
-23.8461770313
20
50.7525038639
11
-23.8461770313
21
-69.0474961361
0
LINE
5
23C
100
AcDbEntity
8
0
100
AcDbLine
62
7
6
CONTINUOUS
10
-20.8961770313
20
55.8640104911
11
-20.8961770313
21
-76.6222898627
0
LINE
5
23D
100
AcDbEntity
8
0
100
AcDbLine
62
7
6
CONTINUOUS
10
-15.2961770313
20
-38.6474961361
11
-15.2961770313
21
-61.8474961361
0
LINE
5
23E
100
AcDbEntity
8
0
100
AcDbLine
62
7
6
CONTINUOUS
10
-9.9961770313
20
-38.6474961361
11
-9.9961770313
21
-61.8474961361
0
LINE
5
23F
100
AcDbEntity
8
0
100
AcDbLine
62
7
6
CONTINUOUS
10
-4.3961770313
20
55.8640104911
11
-4.3961770313
21
-76.6222898627
0
LINE
5
240
100
AcDbEntity
8
0
100
AcDbLine
62
7
6
CONTINUOUS
10
-1.4461770313
20
-69.0474961361
11
-1.4461770313
21
50.7525038639
0
LINE
5
241
100
AcDbEntity
8
0
100
AcDbLine
62
7
6
CONTINUOUS
10
-1.2461770313
20
-50.9474961361
11
-1.2461770313
21
50.7525038639
0
LINE
5
242
100
AcDbEntity
8
0
100
AcDbLine
62
9
6
CONTINUOUS
10
5.2038586128
20
67.3182922605
11
5.2038583359
21
-67.5132780208
0
LINE
5
243
100
AcDbEntity
8
0
100
AcDbLine
62
7
6
CONTINUOUS
10
5.3538229687
20
77.9025038639
11
5.3538229687
21
-78.0974961361
0
LINE
5
244
100
AcDbEntity
8
0
100
AcDbLine
62
9
6
CONTINUOUS
10
7.4737470449
20
41.3697583335
11
7.4737470449
21
60.1352493943
0
LINE
5
245
100
AcDbEntity
8
0
100
AcDbLine
62
7
6
CONTINUOUS
10
32.1038229687
20
44.0025038639
11
32.1038229687
21
57.5025038639
0
LINE
5
246
100
AcDbEntity
8
0
100
AcDbLine
62
7
6
CONTINUOUS
10
29.1038229687
20
41.0025038639
11
9.6038229687
21
41.0025038639
0
LINE
5
247
100
AcDbEntity
8
0
100
AcDbLine
62
7
6
CONTINUOUS
10
5.3538229687
20
41.7352624846
11
9.6038229687
21
41.0025038639
0
LINE
5
248
100
AcDbEntity
8
0
100
AcDbLine
62
7
6
CONTINUOUS
10
-23.8461770313
20
50.7525038639
11
-23.1318589717
21
50.7525038639
0
LINE
5
249
100
AcDbEntity
8
0
100
AcDbLine
62
7
6
CONTINUOUS
10
-1.4461770313
20
50.7525038639
11
-2.1604950909
21
50.7525038639
0
LINE
5
24A
100
AcDbEntity
8
0
100
AcDbLine
62
7
6
CONTINUOUS
10
5.3538229687
20
59.7697452432
11
9.6038229687
21
60.5025038639
0
LINE
5
24B
100
AcDbEntity
8
0
100
AcDbLine
62
7
6
CONTINUOUS
10
29.1038229687
20
60.5025038639
11
9.6038229687
21
60.5025038639
0
LINE
5
24C
100
AcDbEntity
8
0
100
AcDbLine
62
7
6
CONTINUOUS
10
15.1038229687
20
60.5025038639
11
32.1038229687
21
50.7525038639
0
LINE
5
24D
100
AcDbEntity
8
0
100
AcDbLine
62
9
6
CONTINUOUS
10
5.3538229687
20
67.3182771071
11
5.2038586128
21
67.3182769088
0
LINE
5
24E
100
AcDbEntity
8
0
100
AcDbLine
62
9
6
CONTINUOUS
10
-30.6461770313
20
67.3182704380
11
-30.4962125177
21
67.3182711523
0
LINE
5
24F
100
AcDbEntity
8
0
100
AcDbLine
62
7
6
CONTINUOUS
10
-28.6461770313
20
79.9025038639
11
3.3538229687
21
79.9025038639
0
LINE
5
250
100
AcDbEntity
8
0
100
AcDbLine
62
9
6
CONTINUOUS
10
-87.7370776676
20
-78.0974961361
11
-88.1882292435
21
-78.1445282744
0
LINE
5
251
100
AcDbEntity
8
0
100
AcDbLine
62
7
6
CONTINUOUS
10
-93.5894481958
20
-80.2474961361
11
-96.0894481958
21
-80.2474961361
0
LINE
5
252
100
AcDbEntity
8
0
100
AcDbLine
62
7
6
CONTINUOUS
10
-86.2894481958
20
-80.0974961361
11
-88.2201305806
21
-80.0974961361
0
LINE
5
253
100
AcDbEntity
8
0
100
AcDbLine
62
9
6
CONTINUOUS
10
-86.2894481958
20
-78.0974961361
11
-87.7370776676
21
-78.0974961361
0
LINE
5
254
100
AcDbEntity
8
0
100
AcDbLine
62
7
6
CONTINUOUS
10
-82.4894481958
20
-74.9974961361
11
-86.2894481958
21
-74.9974961361
0
LINE
5
255
100
AcDbEntity
8
0
100
AcDbLine
62
7
6
CONTINUOUS
10
-83.4894481958
20
-72.9974961361
11
-82.4894481958
21
-72.9974961361
0
LINE
5
256
100
AcDbEntity
8
0
100
AcDbLine
62
9
6
CONTINUOUS
10
-93.5894481958
20
-69.0474961361
11
-94.5894481958
21
-69.0474961361
0
LINE
5
257
100
AcDbEntity
8
0
100
AcDbLine
62
9
6
CONTINUOUS
10
-88.3794360202
20
-67.5132665813
11
-88.7364723952
21
-67.5132654358
0
LINE
5
258
100
AcDbEntity
8
0
100
AcDbLine
62
7
6
CONTINUOUS
10
-84.4894481958
20
-63.2474961361
11
-64.9894481958
21
-63.2474961361
0
LINE
5
259
100
AcDbEntity
8
0
100
AcDbLine
62
7
6
CONTINUOUS
10
-118.1476896709
20
-61.8474961361
11
-107.2312067208
21
-61.8474961361
0
LINE
5
25A
100
AcDbEntity
8
0
100
AcDbLine
62
7
6
CONTINUOUS
10
-97.2305243122
20
-52.2474961361
11
-96.0894481958
21
-52.2474961361
0
LINE
5
25B
100
AcDbEntity
8
0
100
AcDbLine
62
7
6
CONTINUOUS
10
-99.9429730981
20
-53.2692182314
11
-97.2305243122
21
-53.7474961361
0
LINE
5
25C
100
AcDbEntity
8
0
100
AcDbLine
62
9
6
CONTINUOUS
10
-63.9894481958
20
-50.9474961361
11
-84.4894481958
21
-50.9474961361
0
LINE
5
25D
100
AcDbEntity
8
0
100
AcDbLine
62
7
6
CONTINUOUS
10
-96.0894481958
20
-47.7474961361
11
-99.6974829965
21
-47.7474961361
0
LINE
5
25E
100
AcDbEntity
8
0
100
AcDbLine
62
9
6
CONTINUOUS
10
-63.9894481958
20
-40.2474961361
11
-84.4894481958
21
-40.2474961361
0
LINE
5
25F
100
AcDbEntity
8
0
100
AcDbLine
62
7
6
CONTINUOUS
10
-84.4894481958
20
-39.2474961361
11
-64.9894481958
21
-39.2474961361
0
LINE
5
260
100
AcDbEntity
8
0
100
AcDbLine
62
7
6
CONTINUOUS
10
-107.2312067208
20
-38.6474961361
11
-118.1476896709
21
-38.6474961361
0
LINE
5
261
100
AcDbEntity
8
0
100
AcDbLine
62
7
6
CONTINUOUS
10
-82.5941354549
20
-35.5974961361
11
-73.5944151168
21
-35.5974961361
0
LINE
5
262
100
AcDbEntity
8
0
100
AcDbLine
62
7
6
CONTINUOUS
10
-124.2894481958
20
-44.7892546611
11
-124.2894481958
21
-55.7057376112
0
LINE
5
263
100
AcDbEntity
8
0
100
AcDbLine
62
7
6
CONTINUOUS
10
-121.2894481958
20
-48.0974961361
11
-121.2894481958
21
-52.3974961361
0
LINE
5
264
100
AcDbEntity
8
0
100
AcDbLine
62
7
6
CONTINUOUS
10
-71.1949614498
20
-27.2612636518
11
-70.8333178974
21
-27.1974961361
0
LINE
5
265
100
AcDbEntity
8
0
100
AcDbLine
62
7
6
CONTINUOUS
10
-71.1949614498
20
-25.5112636518
11
-71.1800840735
21
-25.5086403689
0
LINE
5
266
100
AcDbEntity
8
0
100
AcDbLine
62
7
6
CONTINUOUS
10
-72.6941354549
20
-33.7974961361
11
-73.5941354549
21
-33.7974961361
0
LINE
5
267
100
AcDbEntity
8
0
100
AcDbLine
62
7
6
CONTINUOUS
10
-84.4894481958
20
-31.7286250103
11
-82.5941354549
21
-31.7286250103
0
LINE
5
268
100
AcDbEntity
8
0
100
AcDbLine
62
7
6
CONTINUOUS
10
-73.5941354549
20
-30.0974961361
11
-73.7066303837
21
-30.0974961361
0
LINE
5
269
100
AcDbEntity
8
0
100
AcDbLine
62
7
6
CONTINUOUS
10
-99.6974829965
20
-47.7474961361
11
-101.0894481958
21
-44.7892546611
0
LINE
5
26A
100
AcDbEntity
8
0
100
AcDbLine
62
7
6
CONTINUOUS
10
-116.2894481958
20
-52.3974961361
11
-116.2894481958
21
-48.0974961361
0
LINE
5
26B
100
AcDbEntity
8
0
100
AcDbLine
62
7
6
CONTINUOUS
10
-73.5941354549
20
-25.2974961361
11
-73.6522968464
21
-25.2974961361
0
LINE
5
26C
100
AcDbEntity
8
0
100
AcDbLine
62
7
6
CONTINUOUS
10
-84.4894481958
20
-23.6663672620
11
-81.5941354549
21
-23.6663672620
0
LINE
5
26D
100
AcDbEntity
8
0
100
AcDbLine
62
7
6
CONTINUOUS
10
-71.1800840735
20
-29.8863519033
11
-71.1949614498
21
-29.8837286204
0
LINE
5
26E
100
AcDbEntity
8
0
100
AcDbLine
62
7
6
CONTINUOUS
10
-70.8333178974
20
-28.1974961361
11
-71.1949614498
21
-28.1337286204
0
LINE
5
26F
100
AcDbEntity
8
0
100
AcDbLine
62
7
6
CONTINUOUS
10
-83.7894481958
20
-39.2474961361
11
-84.4894481958
21
-38.5474961361
0
LINE
5
270
100
AcDbEntity
8
0
100
AcDbLine
62
7
6
CONTINUOUS
10
-88.6980496763
20
79.5495490524
11
-93.5319558688
21
63.8393539266
0
LINE
5
271
100
AcDbEntity
8
0
100
AcDbLine
62
7
6
CONTINUOUS
10
-72.6941354549
20
-21.5974961361
11
-73.5941354549
21
-21.5974961361
0
LINE
5
272
100
AcDbEntity
8
0
100
AcDbLine
62
7
6
CONTINUOUS
10
-93.5319560733
20
-64.0343455343
11
-88.6980501578
21
-79.7445397597
0
LINE
5
273
100
AcDbEntity
8
0
100
AcDbLine
62
7
6
CONTINUOUS
10
-82.5941354549
20
29.4025038639
11
-83.5941354549
21
28.4025038639
0
LINE
5
274
100
AcDbEntity
8
0
100
AcDbLine
62
7
6
CONTINUOUS
10
-83.5941354549
20
-28.5974961361
11
-82.5941354549
21
-29.5974961361
0
LINE
5
275
100
AcDbEntity
8
0
100
AcDbLine
62
7
6
CONTINUOUS
10
-101.0894481958
20
-55.7057376112
11
-101.0894481958
21
-44.7892546611
0
LINE
5
276
100
AcDbEntity
8
0
100
AcDbLine
62
7
6
CONTINUOUS
10
-97.2305243122
20
-53.7474961361
11
-97.2305243122
21
-52.2474961361
0
LINE
5
277
100
AcDbEntity
8
0
100
AcDbLine
62
7
6
CONTINUOUS
10
-96.0894481958
20
-80.2474961361
11
-96.0894481958
21
60.4576571342
0
LINE
5
278
100
AcDbEntity
8
0
100
AcDbLine
62
7
6
CONTINUOUS
10
-56.6251535663
20
45.7432958015
11
-56.3894481958
21
45.9790011720
0
LINE
5
279
100
AcDbEntity
8
0
100
AcDbLine
62
7
6
CONTINUOUS
10
-93.5895419339
20
55.6670493639
11
-93.5895412155
21
55.6666395661
0
LINE
5
27A
100
AcDbEntity
8
0
100
AcDbLine
62
7
6
CONTINUOUS
10
-94.5894481958
20
-69.0474961361
11
-94.5894481958
21
50.7525038639
0
LINE
5
27B
100
AcDbEntity
8
0
100
AcDbLine
62
7
6
CONTINUOUS
10
-93.5894481958
20
50.7535774756
11
-93.5894481958
21
-50.9487017442
0
LINE
5
27C
100
AcDbEntity
8
0
100
AcDbLine
62
7
6
CONTINUOUS
10
-93.5894481958
20
-80.2469928949
11
-93.5894481958
21
-57.1395718762
0
LINE
5
27D
100
AcDbEntity
8
0
100
AcDbLine
62
7
6
CONTINUOUS
10
-93.5894481958
20
-55.8616193614
11
-93.5894481958
21
-54.9583016558
0
LINE
5
27E
100
AcDbEntity
8
0
100
AcDbLine
62
7
6
CONTINUOUS
10
-93.5894481958
20
-52.1726695654
11
-93.5894481958
21
-52.0461017628
0
LINE
5
27F
100
AcDbEntity
8
0
100
AcDbLine
62
9
6
CONTINUOUS
10
-88.7364720742
20
67.3182922605
11
-88.7364723456
21
-67.5132780208
0
LINE
5
280
100
AcDbEntity
8
0
100
AcDbLine
62
9
6
CONTINUOUS
10
-88.3794356283
20
67.3182771071
11
-88.3794360202
21
-67.5132665813
0
LINE
5
281
100
AcDbEntity
8
0
100
AcDbLine
62
7
6
CONTINUOUS
10
-86.2894481958
20
79.9025038639
11
-86.2894481958
21
-80.0974961361
0
LINE
5
282
100
AcDbEntity
8
0
100
AcDbLine
62
7
6
CONTINUOUS
10
-84.4894481958
20
-71.9974961361
11
-84.4894481958
21
45.5527442541
0
LINE
5
283
100
AcDbEntity
8
0
100
AcDbLine
62
7
6
CONTINUOUS
10
-84.4894481958
20
55.9522634737
11
-84.4894481958
21
71.8025038639
0
LINE
5
284
100
AcDbEntity
8
0
100
AcDbLine
62
9
6
CONTINUOUS
10
-83.4894481958
20
63.1525038639
11
-83.4894481958
21
51.8649336369
0
LINE
5
285
100
AcDbEntity
8
0
100
AcDbLine
62
9
6
CONTINUOUS
10
-83.4894481958
20
49.6400740908
11
-83.4894481958
21
38.5148570313
0
LINE
5
286
100
AcDbEntity
8
0
100
AcDbLine
62
7
6
CONTINUOUS
10
-82.5941354549
20
35.4025038639
11
-82.5941354549
21
29.4025038639
0
LINE
5
287
100
AcDbEntity
8
0
100
AcDbLine
62
7
6
CONTINUOUS
10
-82.5941354549
20
-35.5974961361
11
-82.5941354549
21
-29.5974961361
0
LINE
5
288
100
AcDbEntity
8
0
100
AcDbLine
62
7
6
CONTINUOUS
10
-82.4894481958
20
74.8025038639
11
-82.4894481958
21
72.8025038639
0
LINE
5
289
100
AcDbEntity
8
0
100
AcDbLine
62
7
6
CONTINUOUS
10
-82.4894481958
20
-72.9974961361
11
-82.4894481958
21
-74.9974961361
0
LINE
5
28A
100
AcDbEntity
8
0
100
AcDbLine
62
7
6
CONTINUOUS
10
-81.5941354549
20
26.4025038639
11
-81.5941354549
21
-26.5974961361
0
LINE
5
28B
100
AcDbEntity
8
0
100
AcDbLine
62
9
6
CONTINUOUS
10
-80.9894481958
20
-39.2474961361
11
-80.9894481958
21
-35.5974961361
0
LINE
5
28C
100
AcDbEntity
8
0
100
AcDbLine
62
9
6
CONTINUOUS
10
-80.9894481958
20
35.4025038639
11
-80.9894481958
21
38.5148570313
0
LINE
5
28D
100
AcDbEntity
8
0
100
AcDbLine
62
7
6
CONTINUOUS
10
-80.4894481958
20
-39.2474961361
11
-80.4894481958
21
-35.5974961361
0
LINE
5
28E
100
AcDbEntity
8
0
100
AcDbLine
62
7
6
CONTINUOUS
10
-80.4894481958
20
35.4025038639
11
-80.4894481958
21
38.4435640233
0
LINE
5
28F
100
AcDbEntity
8
0
100
AcDbLine
62
9
6
CONTINUOUS
10
-77.9894481958
20
35.4025038639
11
-77.9894481958
21
-35.5974961361
0
LINE
5
290
100
AcDbEntity
8
0
100
AcDbLine
62
7
6
CONTINUOUS
10
-72.1894481958
20
50.7525038639
11
-73.5240028832
21
44.0025038639
0
LINE
5
291
100
AcDbEntity
8
0
100
AcDbLine
62
7
6
CONTINUOUS
10
-69.5240028832
20
44.0025038639
11
-68.5705737400
21
48.8248215833
0
LINE
5
292
100
AcDbEntity
8
0
100
AcDbLine
62
7
6
CONTINUOUS
10
-60.5017706600
20
45.7424718582
11
-61.1894481958
21
44.2525038639
0
LINE
5
293
100
AcDbEntity
8
0
100
AcDbLine
62
9
6
CONTINUOUS
10
-75.9900777732
20
35.4025038639
11
-75.9900777732
21
-35.5974961361
0
LINE
5
294
100
AcDbEntity
8
0
100
AcDbLine
62
7
6
CONTINUOUS
10
-73.7104778352
20
-29.4885809885
11
-73.7104778352
21
-27.7064112837
0
LINE
5
295
100
AcDbEntity
8
0
100
AcDbLine
62
7
6
CONTINUOUS
10
-73.7104778352
20
27.5114190115
11
-73.7104778352
21
29.2935887163
0
LINE
5
296
100
AcDbEntity
8
0
100
AcDbLine
62
7
6
CONTINUOUS
10
-73.5941354549
20
-35.5974961361
11
-73.5941354549
21
-33.7974464478
0
LINE
5
297
100
AcDbEntity
8
0
100
AcDbLine
62
7
6
CONTINUOUS
10
-73.5941354549
20
-21.5975458244
11
-73.5941354549
21
-33.7974464478
0
LINE
5
298
100
AcDbEntity
8
0
100
AcDbLine
62
7
6
CONTINUOUS
10
-73.5941354549
20
-21.5975458244
11
-73.5941354549
21
-3.5085809004
0
LINE
5
299
100
AcDbEntity
8
0
100
AcDbLine
62
7
6
CONTINUOUS
10
-73.5941354549
20
3.3135925216
11
-73.5941354549
21
21.4025535522
0
LINE
5
29A
100
AcDbEntity
8
0
100
AcDbLine
62
7
6
CONTINUOUS
10
-73.5941354549
20
21.4025535522
11
-73.5941354549
21
33.6024541756
0
LINE
5
29B
100
AcDbEntity
8
0
100
AcDbLine
62
7
6
CONTINUOUS
10
-73.5941354549
20
33.6024541756
11
-73.5941354549
21
35.4025038639
0
LINE
5
29C
100
AcDbEntity
8
0
100
AcDbLine
62
7
6
CONTINUOUS
10
-72.6941354549
20
-21.5975458244
11
-72.6941354549
21
-33.7974464478
0
LINE
5
29D
100
AcDbEntity
8
0
100
AcDbLine
62
7
6
CONTINUOUS
10
-72.6941354549
20
21.4025535522
11
-72.6941354549
21
33.6024541756
0
LINE
5
29E
100
AcDbEntity
8
0
100
AcDbLine
62
7
6
CONTINUOUS
10
-101.0894481958
20
-55.7057376112
11
-99.9429730981
21
-53.2692182314
0
LINE
5
29F
100
AcDbEntity
8
0
100
AcDbLine
62
7
6
CONTINUOUS
10
-69.7894481958
20
62.2677112003
11
-69.7894481958
21
60.5025038639
0
LINE
5
2A0
100
AcDbEntity
8
0
100
AcDbLine
62
7
6
CONTINUOUS
10
-69.7894481958
20
41.0025038639
11
-69.7894481958
21
39.2372965275
0
LINE
5
2A1
100
AcDbEntity
8
0
100
AcDbLine
62
9
6
CONTINUOUS
10
-68.4394877654
20
60.5025038639
11
-68.4394877654
21
52.6801861445
0
LINE
5
2A2
100
AcDbEntity
8
0
100
AcDbLine
62
9
6
CONTINUOUS
10
-68.4394877654
20
48.8248215833
11
-68.4394877654
21
41.0025038639
0
LINE
5
2A3
100
AcDbEntity
8
0
100
AcDbLine
62
7
6
CONTINUOUS
10
-68.1894481958
20
38.3525038639
11
-68.1894481958
21
60.5025038639
0
LINE
5
2A4
100
AcDbEntity
8
0
100
AcDbLine
62
7
6
CONTINUOUS
10
-68.1894481958
20
62.1115827034
11
-68.1894481958
21
63.1525038639
0
LINE
5
2A5
100
AcDbEntity
8
0
100
AcDbLine
62
7
6
CONTINUOUS
10
-72.6941354549
20
21.4025038639
11
-73.5941354549
21
21.4025038639
0
LINE
5
2A6
100
AcDbEntity
8
0
100
AcDbLine
62
7
6
CONTINUOUS
10
-84.4894481958
20
23.4713749897
11
-81.5941354549
21
23.4713749897
0
LINE
5
2A7
100
AcDbEntity
8
0
100
AcDbLine
62
7
6
CONTINUOUS
10
-66.1894481958
20
63.0775038639
11
-66.1894481958
21
59.6727635985
0
LINE
5
2A8
100
AcDbEntity
8
0
100
AcDbLine
62
7
6
CONTINUOUS
10
-66.1894481958
20
41.8322441292
11
-66.1894481958
21
38.4275038639
0
LINE
5
2A9
100
AcDbEntity
8
0
100
AcDbLine
62
9
6
CONTINUOUS
10
-64.9894481958
20
-39.2474961361
11
-64.9894481958
21
-63.2474961361
0
LINE
5
2AA
100
AcDbEntity
8
0
100
AcDbLine
62
7
6
CONTINUOUS
10
-63.9894481958
20
-40.2474961361
11
-63.9894481958
21
-62.2474957885
0
LINE
5
2AB
100
AcDbEntity
8
0
100
AcDbLine
62
9
6
CONTINUOUS
10
-63.3931651840
20
42.3983079180
11
-63.3931651840
21
59.1066998098
0
LINE
5
2AC
100
AcDbEntity
8
0
100
AcDbLine
62
7
6
CONTINUOUS
10
-62.1894481958
20
41.0026748716
11
-62.1894481958
21
60.5023336489
0
LINE
5
2AD
100
AcDbEntity
8
0
100
AcDbLine
62
7
6
CONTINUOUS
10
-61.1894481958
20
44.2525038639
11
-61.1894481958
21
57.2525038639
0
LINE
5
2AE
100
AcDbEntity
8
0
100
AcDbLine
62
7
6
CONTINUOUS
10
-81.5941354549
20
-26.5974961361
11
-83.5941354549
21
-28.5974961361
0
LINE
5
2AF
100
AcDbEntity
8
0
100
AcDbLine
62
7
6
CONTINUOUS
10
-71.1949614498
20
27.9387363482
11
-70.8333178974
21
28.0025038639
0
LINE
5
2B0
100
AcDbEntity
8
0
100
AcDbLine
62
7
6
CONTINUOUS
10
-71.1949614498
20
29.6887363482
11
-71.1800840735
21
29.6913596311
0
LINE
5
2B1
100
AcDbEntity
8
0
100
AcDbLine
62
7
6
CONTINUOUS
10
-73.5941354549
20
25.1025038639
11
-73.6523070305
21
25.1025038639
0
LINE
5
2B2
100
AcDbEntity
8
0
100
AcDbLine
62
7
6
CONTINUOUS
10
-71.1800840735
20
25.3136480967
11
-71.1949614498
21
25.3162713796
0
LINE
5
2B3
100
AcDbEntity
8
0
100
AcDbLine
62
7
6
CONTINUOUS
10
-83.5941354549
20
28.4025038639
11
-81.5941354549
21
26.4025038639
0
LINE
5
2B4
100
AcDbEntity
8
0
100
AcDbLine
62
7
6
CONTINUOUS
10
-72.1894481958
20
50.7525038639
11
-73.5240028832
21
57.5025038639
0
LINE
5
2B5
100
AcDbEntity
8
0
100
AcDbLine
62
7
6
CONTINUOUS
10
-56.3894481958
20
55.5260065558
11
-56.3894481958
21
45.9790011720
0
LINE
5
2B6
100
AcDbEntity
8
0
100
AcDbLine
62
7
6
CONTINUOUS
10
-73.5941354549
20
29.9025038639
11
-73.7066267089
21
29.9025038639
0
LINE
5
2B7
100
AcDbEntity
8
0
100
AcDbLine
62
7
6
CONTINUOUS
10
-84.4894481958
20
31.5336327380
11
-82.5941354549
21
31.5336327380
0
LINE
5
2B8
100
AcDbEntity
8
0
100
AcDbLine
62
7
6
CONTINUOUS
10
-72.6941354549
20
33.6025038639
11
-73.5941354549
21
33.6025038639
0
LINE
5
2B9
100
AcDbEntity
8
0
100
AcDbLine
62
7
6
CONTINUOUS
10
-70.8333178974
20
27.0025038639
11
-71.1949614498
21
27.0662713796
0
LINE
5
2BA
100
AcDbEntity
8
0
100
AcDbLine
62
7
6
CONTINUOUS
10
-69.5240028832
20
57.5025038639
11
-68.5705737400
21
52.6801861445
0
LINE
5
2BB
100
AcDbEntity
8
0
100
AcDbLine
62
7
6
CONTINUOUS
10
-63.3931651840
20
42.3983079180
11
-68.1894481958
21
41.4335383466
0
LINE
5
2BC
100
AcDbEntity
8
0
100
AcDbLine
62
7
6
CONTINUOUS
10
-82.5941354549
20
35.4025038639
11
-73.5944151168
21
35.4025038639
0
LINE
5
2BD
100
AcDbEntity
8
0
100
AcDbLine
62
7
6
CONTINUOUS
10
-80.4894481958
20
38.3525038639
11
-68.1894481958
21
38.3525038639
0
LINE
5
2BE
100
AcDbEntity
8
0
100
AcDbLine
62
7
6
CONTINUOUS
10
-68.1894481958
20
38.4275038639
11
-66.1894481958
21
38.4275038639
0
LINE
5
2BF
100
AcDbEntity
8
0
100
AcDbLine
62
7
6
CONTINUOUS
10
-80.9894481958
20
38.5148570313
11
-83.4894481958
21
38.5148570313
0
LINE
5
2C0
100
AcDbEntity
8
0
100
AcDbLine
62
7
6
CONTINUOUS
10
-69.7894481958
20
39.2372965275
11
-68.1894481958
21
39.2372965275
0
LINE
5
2C1
100
AcDbEntity
8
0
100
AcDbLine
62
7
6
CONTINUOUS
10
-62.1894481958
20
41.0025038639
11
-66.1894481958
21
41.0025038639
0
LINE
5
2C2
100
AcDbEntity
8
0
100
AcDbLine
62
7
6
CONTINUOUS
10
-68.1894481958
20
41.0025038639
11
-73.7769576932
21
41.0025038639
0
LINE
5
2C3
100
AcDbEntity
8
0
100
AcDbLine
62
9
6
CONTINUOUS
10
-62.1894481958
20
41.8213810797
11
-66.1894481958
21
41.8213810797
0
LINE
5
2C4
100
AcDbEntity
8
0
100
AcDbLine
62
9
6
CONTINUOUS
10
-69.5240028832
20
44.0025038639
11
-73.5240028832
21
44.0025038639
0
LINE
5
2C5
100
AcDbEntity
8
0
100
AcDbLine
62
7
6
CONTINUOUS
10
-61.1894481958
20
44.2525038639
11
-62.1894481958
21
44.2525038639
0
LINE
5
2C6
100
AcDbEntity
8
0
100
AcDbLine
62
7
6
CONTINUOUS
10
-60.8541417459
20
45.7525038639
11
-56.6159407283
21
45.7525038639
0
LINE
5
2C7
100
AcDbEntity
8
0
100
AcDbLine
62
9
6
CONTINUOUS
10
-68.5705737400
20
48.8248215833
11
-68.4394877654
21
48.8248215833
0
LINE
5
2C8
100
AcDbEntity
8
0
100
AcDbLine
62
7
6
CONTINUOUS
10
-83.4894481958
20
49.6400740908
11
-72.4093886948
21
49.6400740908
0
LINE
5
2C9
100
AcDbEntity
8
0
100
AcDbLine
62
7
6
CONTINUOUS
10
-60.8541417459
20
50.7525038639
11
-57.3894481958
21
50.7525038639
0
LINE
5
2CA
100
AcDbEntity
8
0
100
AcDbLine
62
7
6
CONTINUOUS
10
-93.5894481958
20
50.7525038639
11
-94.9526607685
21
50.7525038639
0
LINE
5
2CB
100
AcDbEntity
8
0
100
AcDbLine
62
7
6
CONTINUOUS
10
-83.4894481958
20
51.8649336369
11
-72.4093886948
21
51.8649336369
0
LINE
5
2CC
100
AcDbEntity
8
0
100
AcDbLine
62
9
6
CONTINUOUS
10
-68.5705737400
20
52.6801861445
11
-68.4394877654
21
52.6801861445
0
LINE
5
2CD
100
AcDbEntity
8
0
100
AcDbLine
62
7
6
CONTINUOUS
10
-60.5017706600
20
55.7625358696
11
-61.1894481958
21
57.2525038639
0
LINE
5
2CE
100
AcDbEntity
8
0
100
AcDbLine
62
7
6
CONTINUOUS
10
-56.6159407283
20
55.7525038639
11
-60.8541417459
21
55.7525038639
0
LINE
5
2CF
100
AcDbEntity
8
0
100
AcDbLine
62
7
6
CONTINUOUS
10
-61.1894481958
20
57.2525038639
11
-62.1894481958
21
57.2525038639
0
LINE
5
2D0
100
AcDbEntity
8
0
100
AcDbLine
62
9
6
CONTINUOUS
10
-69.5240028832
20
57.5025038639
11
-73.5240028832
21
57.5025038639
0
LINE
5
2D1
100
AcDbEntity
8
0
100
AcDbLine
62
9
6
CONTINUOUS
10
-62.1894481958
20
59.6836266481
11
-66.1894481958
21
59.6836266481
0
LINE
5
2D2
100
AcDbEntity
8
0
100
AcDbLine
62
7
6
CONTINUOUS
10
-62.1894481958
20
60.5025038639
11
-66.1894481958
21
60.5025038639
0
LINE
5
2D3
100
AcDbEntity
8
0
100
AcDbLine
62
7
6
CONTINUOUS
10
-68.1894481958
20
60.5025038639
11
-73.7769576932
21
60.5025038639
0
LINE
5
2D4
100
AcDbEntity
8
0
100
AcDbLine
62
7
6
CONTINUOUS
10
-68.1894481958
20
62.1115827034
11
-69.7894481958
21
62.1115827034
0
LINE
5
2D5
100
AcDbEntity
8
0
100
AcDbLine
62
7
6
CONTINUOUS
10
-69.7894481958
20
62.2677112003
11
-68.1894481958
21
62.2677112003
0
LINE
5
2D6
100
AcDbEntity
8
0
100
AcDbLine
62
7
6
CONTINUOUS
10
-68.1894481958
20
63.0775038639
11
-66.1894481958
21
63.0775038639
0
LINE
5
2D7
100
AcDbEntity
8
0
100
AcDbLine
62
7
6
CONTINUOUS
10
-83.4894481958
20
63.1525038639
11
-68.1894481958
21
63.1525038639
0
LINE
5
2D8
100
AcDbEntity
8
0
100
AcDbLine
62
7
6
CONTINUOUS
10
-63.3931651840
20
59.1066998098
11
-68.1894481958
21
60.0714693811
0
LINE
5
2D9
100
AcDbEntity
8
0
100
AcDbLine
62
7
6
CONTINUOUS
10
-56.6251535663
20
55.7617119263
11
-56.3894481958
21
55.5260065558
0
LINE
5
2DA
100
AcDbEntity
8
0
100
AcDbLine
62
9
6
CONTINUOUS
10
-88.3794356283
20
67.3182771071
11
-88.7364720742
21
67.3182769088
0
LINE
5
2DB
100
AcDbEntity
8
0
100
AcDbLine
62
7
6
CONTINUOUS
10
-83.4894481958
20
72.8025038639
11
-82.4894481958
21
72.8025038639
0
LINE
5
2DC
100
AcDbEntity
8
0
100
AcDbLine
62
7
6
CONTINUOUS
10
-82.4894481958
20
74.8025038639
11
-86.2894481958
21
74.8025038639
0
LINE
5
2DD
100
AcDbEntity
8
0
100
AcDbLine
62
9
6
CONTINUOUS
10
-87.7370775288
20
77.9025038639
11
-86.2894481958
21
77.9025038639
0
LINE
5
2DE
100
AcDbEntity
8
0
100
AcDbLine
62
7
6
CONTINUOUS
10
-86.2894481958
20
79.9025038639
11
-88.2201195104
21
79.9025038639
0
LINE
5
2DF
100
AcDbEntity
8
0
100
AcDbLine
62
9
6
CONTINUOUS
10
-87.7370775288
20
77.9025038639
11
-88.1882319302
21
77.9495361949
0
ARC
5
2E0
100
AcDbEntity
8
0
100
AcDbCircle
62
7
6
CONTINUOUS
10
29.1038229687
20
57.5025038639
40
3.0000000000
100
AcDbArc
50
0.0000000000
51
90.0000000000
0
ARC
5
2E1
100
AcDbEntity
8
0
100
AcDbCircle
62
7
6
CONTINUOUS
10
29.1038229687
20
44.0025038639
40
3.0000000000
100
AcDbArc
50
270.0000000000
51
360.0000000000
0
ARC
5
2E2
100
AcDbEntity
8
0
100
AcDbCircle
62
7
6
CONTINUOUS
10
-12.6461770313
20
50.7525038639
40
12.2653984852
100
AcDbArc
50
336.0084793003
51
338.4052450266
0
ARC
5
2E3
100
AcDbEntity
8
0
100
AcDbCircle
62
7
6
CONTINUOUS
10
-12.6461770313
20
50.7525038639
40
12.2653984852
100
AcDbArc
50
201.5947549734
51
203.9915206997
0
ARC
5
2E4
100
AcDbEntity
8
0
100
AcDbCircle
62
7
6
CONTINUOUS
10
-12.6461770313
20
-50.2474961361
40
7.5500000000
100
AcDbArc
50
110.5545622249
51
249.4454319426
0
ARC
5
2E5
100
AcDbEntity
8
0
100
AcDbCircle
62
7
6
CONTINUOUS
10
-12.6461770313
20
-50.2474961361
40
7.5500000000
100
AcDbArc
50
290.5545622249
51
69.4454319426
0
ARC
5
2E6
100
AcDbEntity
8
0
100
AcDbCircle
62
7
6
CONTINUOUS
10
-12.6461770313
20
-69.0474961361
40
11.2000000000
100
AcDbArc
50
180.0000000000
51
360.0000000000
0
ARC
5
2E7
100
AcDbEntity
8
0
100
AcDbCircle
62
7
6
CONTINUOUS
10
-12.6461770313
20
-50.2474961361
40
7.7500000000
100
AcDbArc
50
109.9957154304
51
250.0042845696
0
ARC
5
2E8
100
AcDbEntity
8
0
100
AcDbCircle
62
7
6
CONTINUOUS
10
-12.6461770313
20
-50.2474961361
40
7.7500000000
100
AcDbArc
50
289.9957154304
51
70.0042845696
0
ARC
5
2E9
100
AcDbEntity
8
0
100
AcDbCircle
62
9
6
CONTINUOUS
10
-12.6461770313
20
-50.2474961361
40
7.0500000000
100
AcDbArc
50
112.0853477395
51
247.9122569424
0
ARC
5
2EA
100
AcDbEntity
8
0
100
AcDbCircle
62
9
6
CONTINUOUS
10
-12.6461770313
20
-50.2474961361
40
7.0500000000
100
AcDbArc
50
292.0877715552
51
67.9146585936
0
ARC
5
2EB
100
AcDbEntity
8
0
100
AcDbCircle
62
7
6
CONTINUOUS
10
-12.6461770313
20
50.7525038639
40
9.7051532703
100
AcDbArc
50
31.7813847430
51
148.2186152570
0
ARC
5
2EC
100
AcDbEntity
8
0
100
AcDbCircle
62
7
6
CONTINUOUS
10
-12.6461770313
20
-50.2474961361
40
4.7500000000
100
AcDbArc
50
123.9343130959
51
236.0656869041
0
ARC
5
2ED
100
AcDbEntity
8
0
100
AcDbCircle
62
7
6
CONTINUOUS
10
-12.6461770313
20
-50.9474961361
40
11.4000000000
100
AcDbArc
50
349.2821916306
51
360.0000000000
0
ARC
5
2EE
100
AcDbEntity
8
0
100
AcDbCircle
62
7
6
CONTINUOUS
10
-12.6461770313
20
-50.9474961361
40
11.4000000000
100
AcDbArc
50
180.0000000000
51
190.7256086164
0
ARC
5
2EF
100
AcDbEntity
8
0
100
AcDbCircle
62
7
6
CONTINUOUS
10
3.3538229687
20
77.9025038639
40
2.0000000000
100
AcDbArc
50
0.0000000000
51
90.0000000000
0
ARC
5
2F0
100
AcDbEntity
8
0
100
AcDbCircle
62
7
6
CONTINUOUS
10
-28.6461770313
20
77.9025038639
40
2.0000000000
100
AcDbArc
50
90.0000000000
51
180.0000000000
0
ARC
5
2F1
100
AcDbEntity
8
0
100
AcDbCircle
62
7
6
CONTINUOUS
10
-28.6461770313
20
-78.0974961361
40
2.0000000000
100
AcDbArc
50
180.0000000000
51
270.0000000000
0
ARC
5
2F2
100
AcDbEntity
8
0
100
AcDbCircle
62
7
6
CONTINUOUS
10
3.3538229687
20
-78.0974961361
40
2.0000000000
100
AcDbArc
50
270.0000000000
51
360.0000000000
0
ARC
5
2F3
100
AcDbEntity
8
0
100
AcDbCircle
62
7
6
CONTINUOUS
10
-77.1941354549
20
27.5025038639
40
6.4000000000
100
AcDbArc
50
20.0427379261
51
45.3217359940
0
ARC
5
2F4
100
AcDbEntity
8
0
100
AcDbCircle
62
7
6
CONTINUOUS
10
-77.1941354549
20
27.5025038639
40
6.4000000000
100
AcDbArc
50
314.6782640060
51
339.9572620739
0
ARC
5
2F5
100
AcDbEntity
8
0
100
AcDbCircle
62
7
6
CONTINUOUS
10
-77.1941354549
20
-27.6974961361
40
6.4000000000
100
AcDbArc
50
20.0427379261
51
45.3217359940
0
ARC
5
2F6
100
AcDbEntity
8
0
100
AcDbCircle
62
7
6
CONTINUOUS
10
-77.1941354549
20
-27.6974961361
40
6.4000000000
100
AcDbArc
50
314.6782640060
51
339.9572620739
0
ARC
5
2F7
100
AcDbEntity
8
0
100
AcDbCircle
62
7
6
CONTINUOUS
10
-118.7894481958
20
-48.0974961361
40
2.5000000000
100
AcDbArc
50
0.0000000000
51
180.0000000000
0
ARC
5
2F8
100
AcDbEntity
8
0
100
AcDbCircle
62
7
6
CONTINUOUS
10
-118.7894481958
20
-52.3974961361
40
2.5000000000
100
AcDbArc
50
180.0000000000
51
360.0000000000
0
ARC
5
2F9
100
AcDbEntity
8
0
100
AcDbCircle
62
7
6
CONTINUOUS
10
-112.6894481958
20
-50.2474961361
40
12.8200000000
100
AcDbArc
50
295.1987698988
51
334.8012301012
0
ARC
5
2FA
100
AcDbEntity
8
0
100
AcDbCircle
62
7
6
CONTINUOUS
10
-112.6894481958
20
-50.2474961361
40
12.8200000000
100
AcDbArc
50
205.1987698988
51
244.8012301012
0
ARC
5
2FB
100
AcDbEntity
8
0
100
AcDbCircle
62
7
6
CONTINUOUS
10
-112.6894481958
20
-50.2474961361
40
12.8200000000
100
AcDbArc
50
115.1987698988
51
154.8012301012
0
ARC
5
2FC
100
AcDbEntity
8
0
100
AcDbCircle
62
7
6
CONTINUOUS
10
-112.6894481958
20
-50.2474961361
40
12.8200000000
100
AcDbArc
50
25.1987698988
51
64.8012301012
0
ARC
5
2FD
100
AcDbEntity
8
0
100
AcDbCircle
62
7
6
CONTINUOUS
10
-88.5894481958
20
50.7525038639
40
12.2653984852
100
AcDbArc
50
114.0573494500
51
127.6963229278
0
ARC
5
2FE
100
AcDbEntity
8
0
100
AcDbCircle
62
7
6
CONTINUOUS
10
-83.4894481958
20
64.1525038639
40
1.0000000000
100
AcDbArc
50
180.0000000000
51
270.0000000000
0
ARC
5
2FF
100
AcDbEntity
8
0
100
AcDbCircle
62
7
6
CONTINUOUS
10
-64.9894481958
20
-62.2474961361
40
1.0000000000
100
AcDbArc
50
270.0000000000
51
360.0000000000
0
ARC
5
300
100
AcDbEntity
8
0
100
AcDbCircle
62
7
6
CONTINUOUS
10
-92.2859263166
20
-63.6509517629
40
1.3035163260
100
AcDbArc
50
180.0202462219
51
197.1027289903
0
ARC
5
301
100
AcDbEntity
8
0
100
AcDbCircle
62
7
6
CONTINUOUS
10
-92.2859257344
20
63.4559600400
40
1.3035169405
100
AcDbArc
50
162.8972710123
51
179.9797736146
0
ARC
5
302
100
AcDbEntity
8
0
100
AcDbCircle
62
7
6
CONTINUOUS
10
-83.4894481958
20
71.8025038639
40
1.0000000000
100
AcDbArc
50
90.0000000000
51
180.0000000000
0
ARC
5
303
100
AcDbEntity
8
0
100
AcDbCircle
62
7
6
CONTINUOUS
10
-83.4894481958
20
-71.9974961361
40
1.0000000000
100
AcDbArc
50
180.0000000000
51
270.0000000000
0
ARC
5
304
100
AcDbEntity
8
0
100
AcDbCircle
62
7
6
CONTINUOUS
10
-64.9894481958
20
-40.2474961361
40
1.0000000000
100
AcDbArc
50
0.0000000000
51
90.0000000000
0
SPLINE
5
305
100
AcDbEntity
8
0
100
AcDbSpline
62
7
6
CONTINUOUS
70
0
71
3
72
11
73
7
74
5
42
0.0000001000
43
0.0000001000
44
0.0000000001
12
0.0000000000
22
5.7398726326
32
0.0000000000
13
4.3348430727
23
3.7623494486
33
0.0000000000
40
0.0000000000
40
0.0000000000
40
0.0000000000
40
0.0000000000
40
0.2559048594
40
0.5091710360
40
0.7576291379
40
1.0000000000
40
1.0000000000
40
1.0000000000
40
1.0000000000
10
-23.1318589717
20
50.7525038639
30
0.0000000000
10
-23.1318589717
20
51.2421242970
30
0.0000000000
10
-23.0327946461
20
52.2192348941
30
0.0000000000
10
-22.5931381945
20
53.6111158045
30
0.0000000000
10
-21.8847358294
20
54.8582237013
30
0.0000000000
10
-21.2463902488
20
55.5600491980
30
0.0000000000
10
-20.8961770313
20
55.8640104911
30
0.0000000000
11
-23.1318589717
21
50.7525038639
31
0.0000000000
11
-22.9826683921
21
52.2137689621
31
0.0000000000
11
-22.5428240825
21
53.5993468255
31
0.0000000000
11
-21.8351080826
21
54.8374704920
31
0.0000000000
11
-20.8961770313
21
55.8640104911
31
0.0000000000
0
SPLINE
5
306
100
AcDbEntity
8
0
100
AcDbSpline
62
7
6
CONTINUOUS
70
0
71
3
72
11
73
7
74
5
42
0.0000001000
43
0.0000001000
44
0.0000000001
12
4.3348430727
22
-3.7623494486
32
0.0000000000
13
0.0000000000
23
-5.7398726326
33
0.0000000000
40
0.0000000000
40
0.0000000000
40
0.0000000000
40
0.0000000000
40
0.2423708621
40
0.4908289640
40
0.7440951406
40
1.0000000000
40
1.0000000000
40
1.0000000000
40
1.0000000000
10
-4.3961770313
20
55.8640104911
30
0.0000000000
10
-4.0459638138
20
55.5600491980
30
0.0000000000
10
-3.4076182332
20
54.8582237013
30
0.0000000000
10
-2.6992158682
20
53.6111158045
30
0.0000000000
10
-2.2595594166
20
52.2192348941
30
0.0000000000
10
-2.1604950909
20
51.2421242970
30
0.0000000000
10
-2.1604950909
20
50.7525038639
30
0.0000000000
11
-4.3961770313
21
55.8640104911
31
0.0000000000
11
-3.4572459800
21
54.8374704920
31
0.0000000000
11
-2.7495299801
21
53.5993468255
31
0.0000000000
11
-2.3096856705
21
52.2137689621
31
0.0000000000
11
-2.1604950909
21
50.7525038639
31
0.0000000000
0
SPLINE
5
307
100
AcDbEntity
8
0
100
AcDbSpline
62
9
6
CONTINUOUS
70
0
71
3
72
10
73
6
74
4
42
0.0000001000
43
0.0000001000
44
0.0000000001
12
-11.2144776620
22
-0.0450725338
32
0.0000000000
13
-11.2145417445
23
-0.0278300234
33
0.0000000000
40
0.0000000000
40
0.0000000000
40
0.0000000000
40
0.0000000000
40
0.3875991476
40
0.8102832215
40
1.0000000000
40
1.0000000000
40
1.0000000000
40
1.0000000000
10
1.8779764277
20
-79.6941600443
30
0.0000000000
10
0.4290691002
20
-79.6999834029
30
0.0000000000
10
-2.5998924719
20
-79.7136695698
30
0.0000000000
10
-6.3380399785
20
-79.7312684021
30
0.0000000000
10
-8.6273016497
20
-79.7384731185
30
0.0000000000
10
-9.3364972269
20
-79.7402330593
30
0.0000000000
11
1.8779764277
21
-79.6941600443
31
0.0000000000
11
-2.4687389253
21
-79.7132082771
31
0.0000000000
11
-7.2089141689
21
-79.7336663066
31
0.0000000000
11
-9.3364972269
21
-79.7402330593
31
0.0000000000
0
SPLINE
5
308
100
AcDbEntity
8
0
100
AcDbSpline
62
9
6
CONTINUOUS
70
0
71
3
72
10
73
6
74
4
42
0.0000001000
43
0.0000001000
44
0.0000000001
12
-11.2163189688
22
0.0275975218
32
0.0000000000
13
-11.2162523837
23
0.0450770790
33
0.0000000000
40
0.0000000000
40
0.0000000000
40
0.0000000000
40
0.0000000000
40
0.1651522397
40
0.6083900459
40
1.0000000000
40
1.0000000000
40
1.0000000000
40
1.0000000000
10
-15.9540820824
20
-79.7402142486
30
0.0000000000
10
-16.5715488155
20
-79.7386949844
30
0.0000000000
10
-18.8461780885
20
-79.7317893303
30
0.0000000000
10
-22.5849171915
20
-79.7141578775
30
0.0000000000
10
-25.7061985141
20
-79.7000442462
30
0.0000000000
10
-27.1703305412
20
-79.6941600353
30
0.0000000000
11
-15.9540820824
21
-79.7402142486
31
0.0000000000
11
-17.8064793560
21
-79.7346642189
31
0.0000000000
11
-22.7779412067
21
-79.7134184059
31
0.0000000000
11
-27.1703305412
21
-79.6941600353
31
0.0000000000
0
SPLINE
5
309
100
AcDbEntity
8
0
100
AcDbSpline
62
9
6
CONTINUOUS
70
0
71
3
72
19
73
15
74
13
42
0.0000001000
43
0.0000001000
44
0.0000000001
12
3.1602133026
22
23.5571210313
32
0.0000000000
13
1.7614972454
23
23.7027852131
33
0.0000000000
40
0.0000000000
40
0.0000000000
40
0.0000000000
40
0.0000000000
40
0.1215962359
40
0.2341279328
40
0.3384582854
40
0.4355420051
40
0.5259501012
40
0.6099664180
40
0.6879646742
40
0.7604814127
40
0.8279788179
40
0.8904681277
40
0.9477026721
40
1.0000000000
40
1.0000000000
40
1.0000000000
40
1.0000000000
10
-27.1703305412
20
-79.6941600353
30
0.0000000000
10
-27.0422405271
20
-78.7393409531
30
0.0000000000
10
-26.8009201873
20
-76.9001621576
30
0.0000000000
10
-26.4689833209
20
-74.2392591213
30
0.0000000000
10
-26.1773329973
20
-71.7690952351
30
0.0000000000
10
-25.9216080230
20
-69.4712395128
30
0.0000000000
10
-25.6980068810
20
-67.3317946490
30
0.0000000000
10
-25.5032115980
20
-65.3414169334
30
0.0000000000
10
-25.3339320956
20
-63.4910070540
30
0.0000000000
10
-25.1868123070
20
-61.7700241520
30
0.0000000000
10
-25.0587988734
20
-60.1707552850
30
0.0000000000
10
-24.9471467892
20
-58.6916585157
30
0.0000000000
10
-24.8488093434
20
-57.3323356977
30
0.0000000000
10
-24.7863846456
20
-56.4667930949
30
0.0000000000
10
-24.7556774459
20
-56.0535956516
30
0.0000000000
11
-27.1703305412
21
-79.6941600353
31
0.0000000000
11
-26.7947340274
21
-76.8285525880
31
0.0000000000
11
-26.4639618086
21
-74.1744143102
31
0.0000000000
11
-26.1734478764
21
-71.7117513413
31
0.0000000000
11
-25.9184099923
21
-69.4183884601
31
0.0000000000
11
-25.6951726112
21
-67.2811826432
31
0.0000000000
11
-25.5007426029
21
-65.2937582314
31
0.0000000000
11
-25.3318735433
21
-63.4475912141
31
0.0000000000
11
-25.1850277046
21
-61.7302694393
31
0.0000000000
11
-25.0568873858
21
-60.1311067694
31
0.0000000000
11
-24.9448188263
21
-58.6500856036
31
0.0000000000
11
-24.8460388661
21
-57.2933175347
31
0.0000000000
11
-24.7556774459
21
-56.0535956516
31
0.0000000000
0
SPLINE
5
30A
100
AcDbEntity
8
0
100
AcDbSpline
62
9
6
CONTINUOUS
70
0
71
3
72
8
73
4
74
2
42
0.0000001000
43
0.0000001000
44
0.0000000001
12
0.7806147520
22
-1.7832304837
32
0.0000000000
13
1.0270346110
23
-1.6574148622
33
0.0000000000
40
0.0000000000
40
0.0000000000
40
0.0000000000
40
0.0000000000
40
1.0000000000
40
1.0000000000
40
1.0000000000
40
1.0000000000
10
-24.7556774459
20
-56.0535956516
30
0.0000000000
10
-24.4954725286
20
-56.6480058128
30
0.0000000000
10
-24.1927908192
20
-57.2250717294
30
0.0000000000
10
-23.8504459489
20
-57.7775433502
30
0.0000000000
11
-24.7556774459
21
-56.0535956516
31
0.0000000000
11
-23.8504459489
21
-57.7775433502
31
0.0000000000
0
SPLINE
5
30B
100
AcDbEntity
8
0
100
AcDbSpline
62
9
6
CONTINUOUS
70
0
71
3
72
8
73
4
74
2
42
0.0000001000
43
0.0000001000
44
0.0000000001
12
1.0269858469
22
1.6573352117
32
0.0000000000
13
0.7805960773
23
1.7831348842
33
0.0000000000
40
0.0000000000
40
0.0000000000
40
0.0000000000
40
0.0000000000
40
1.0000000000
40
1.0000000000
40
1.0000000000
40
1.0000000000
10
-1.4419098152
20
-57.7775550468
30
0.0000000000
10
-1.0995811995
20
-57.2251099762
30
0.0000000000
10
-0.7969141095
20
-56.6480693328
30
0.0000000000
10
-0.5367154171
20
-56.0536910381
30
0.0000000000
11
-1.4419098152
21
-57.7775550468
31
0.0000000000
11
-0.5367154171
21
-56.0536910381
31
0.0000000000
0
SPLINE
5
30C
100
AcDbEntity
8
0
100
AcDbSpline
62
9
6
CONTINUOUS
70
0
71
3
72
19
73
15
74
13
42
0.0000001000
43
0.0000001000
44
0.0000000001
12
1.7666100477
22
-23.7023121249
32
0.0000000000
13
3.1602007466
23
-23.5570295744
33
0.0000000000
40
0.0000000000
40
0.0000000000
40
0.0000000000
40
0.0000000000
40
0.0531443253
40
0.1105565422
40
0.1725318818
40
0.2393744787
40
0.3114377532
40
0.3891149783
40
0.4728371372
40
0.5630725531
40
0.6603297487
40
0.7651629522
40
0.8781651179
40
1.0000000000
40
1.0000000000
40
1.0000000000
40
1.0000000000
10
-0.5367154171
20
-56.0536910381
30
0.0000000000
10
-0.5054203174
20
-56.4735721671
30
0.0000000000
10
-0.4425281352
20
-57.3472171918
30
0.0000000000
10
-0.3438045988
20
-58.7105633839
30
0.0000000000
10
-0.2326772021
20
-60.1818193549
30
0.0000000000
10
-0.1056643135
20
-61.7682682609
30
0.0000000000
10
0.0404413839
20
-63.4779657094
30
0.0000000000
10
0.2088394768
20
-65.3199468722
30
0.0000000000
10
0.4028636142
20
-67.3041202522
30
0.0000000000
10
0.6260182152
20
-69.4412664434
30
0.0000000000
10
0.8819778047
20
-71.7431020080
30
0.0000000000
10
1.1745425958
20
-74.2222972904
30
0.0000000000
10
1.5075955165
20
-76.8927272934
30
0.0000000000
10
1.7496355326
20
-78.7374707377
30
0.0000000000
10
1.8779764277
20
-79.6941600443
30
0.0000000000
11
-0.5367154171
21
-56.0536910381
31
0.0000000000
11
-0.4448707919
21
-57.3134848612
31
0.0000000000
11
-0.3457387740
21
-58.6744561055
31
0.0000000000
11
-0.2345213734
21
-60.1432848950
31
0.0000000000
11
-0.1076041473
21
-61.7269259148
31
0.0000000000
11
0.0382742585
21
-63.4335064061
31
0.0000000000
11
0.2063390113
21
-65.2720776186
31
0.0000000000
11
0.3999264233
21
-67.2525517251
31
0.0000000000
11
0.6225337304
21
-69.3856883497
31
0.0000000000
11
0.8778206345
21
-71.6831631155
31
0.0000000000
11
1.1695818400
21
-74.1577039061
31
0.0000000000
11
1.5016620384
21
-76.8229373409
31
0.0000000000
11
1.8779764277
21
-79.6941600443
31
0.0000000000
0
SPLINE
5
30D
100
AcDbEntity
8
0
100
AcDbSpline
62
9
6
CONTINUOUS
70
0
71
3
72
10
73
6
74
4
42
0.0000001000
43
0.0000001000
44
0.0000000001
12
0.0000211181
22
0.2962458424
32
0.0000000000
13
-0.2959039433
23
0.0142286989
33
0.0000000000
40
0.0000000000
40
0.0000000000
40
0.0000000000
40
0.0000000000
40
0.1360605062
40
0.4826136857
40
1.0000000000
40
1.0000000000
40
1.0000000000
40
1.0000000000
10
5.3538229687
20
77.9025038639
30
0.0000000000
10
5.3538239264
20
77.9159396503
30
0.0000000000
10
5.2869523296
20
77.9265488600
30
0.0000000000
10
5.2070508870
20
77.9421958977
30
0.0000000000
10
5.1152143627
20
77.9470822835
30
0.0000000000
10
5.0641821458
20
77.9495361949
30
0.0000000000
11
5.3538229687
21
77.9025038639
31
0.0000000000
11
5.3183685961
21
77.9216786048
31
0.0000000000
11
5.2170309888
21
77.9381339688
31
0.0000000000
11
5.0641821458
21
77.9495361949
31
0.0000000000
0
SPLINE
5
30E
100
AcDbEntity
8
0
100
AcDbSpline
62
9
6
CONTINUOUS
70
0
71
3
72
10
73
6
74
4
42
0.0000001000
43
0.0000001000
44
0.0000000001
12
0.4438289376
22
-0.0000365993
32
0.0000000000
13
0.0133279246
23
-0.4436287791
33
0.0000000000
40
0.0000000000
40
0.0000000000
40
0.0000000000
40
0.0000000000
40
0.1586570302
40
0.5106138409
40
1.0000000000
40
1.0000000000
40
1.0000000000
40
1.0000000000
10
3.3538229681
20
79.9024496205
30
0.0000000000
10
3.3772951618
20
79.9024476849
30
0.0000000000
10
3.4147613438
20
79.8101615285
30
0.0000000000
10
3.4371185100
20
79.6815101912
30
0.0000000000
10
3.4477163871
20
79.5511780095
30
0.0000000000
10
3.4498905544
20
79.4788094147
30
0.0000000000
11
3.3538229681
21
79.9024496205
31
0.0000000000
11
3.3980629656
21
79.8476653385
31
0.0000000000
11
3.4326088679
21
79.6953245595
31
0.0000000000
11
3.4498905544
21
79.4788094147
31
0.0000000000
0
SPLINE
5
30F
100
AcDbEntity
8
0
100
AcDbSpline
62
9
6
CONTINUOUS
70
0
71
3
72
10
73
6
74
4
42
0.0000001000
43
0.0000001000
44
0.0000000001
12
0.4033428743
22
-0.0006864712
32
0.0000000000
13
0.0002707785
23
-0.4033433676
33
0.0000000000
40
0.0000000000
40
0.0000000000
40
0.0000000000
40
0.0000000000
40
0.1281849706
40
0.4861919960
40
1.0000000000
40
1.0000000000
40
1.0000000000
40
1.0000000000
10
1.8763052893
20
79.9025038639
30
0.0000000000
10
1.8935394541
20
79.9024745321
30
0.0000000000
10
1.8549050292
20
79.7968602877
30
0.0000000000
10
1.8906063639
20
79.6986659052
30
0.0000000000
10
1.8779301165
20
79.5682477423
30
0.0000000000
10
1.8779764925
20
79.4991673921
30
0.0000000000
11
1.8763052893
21
79.9025038639
31
0.0000000000
11
1.8770595645
21
79.8508067968
31
0.0000000000
11
1.8776578709
21
79.7064082445
31
0.0000000000
11
1.8779764925
21
79.4991673921
31
0.0000000000
0
SPLINE
5
310
100
AcDbEntity
8
0
100
AcDbSpline
62
9
6
CONTINUOUS
70
0
71
3
72
10
73
6
74
4
42
0.0000001000
43
0.0000001000
44
0.0000000001
12
-0.4033423561
22
0.0002758594
32
0.0000000000
13
-0.0002706951
23
-0.4033423596
33
0.0000000000
40
0.0000000000
40
0.0000000000
40
0.0000000000
40
0.0000000000
40
0.1281819625
40
0.4861892473
40
1.0000000000
40
1.0000000000
40
1.0000000000
40
1.0000000000
10
-27.1686592776
20
79.9025033849
30
0.0000000000
10
-27.1858930158
20
79.9025151717
30
0.0000000000
10
-27.1472590764
20
79.7968057156
30
0.0000000000
10
-27.1829604739
20
79.6986984234
30
0.0000000000
10
-27.1702841064
20
79.5682484686
30
0.0000000000
10
-27.1703304684
20
79.4991679215
30
0.0000000000
11
-27.1686592776
21
79.9025033849
31
0.0000000000
11
-27.1694135679
21
79.8508076607
31
0.0000000000
11
-27.1700118750
21
79.7064093647
31
0.0000000000
11
-27.1703304684
21
79.4991679215
31
0.0000000000
0
SPLINE
5
311
100
AcDbEntity
8
0
100
AcDbSpline
62
9
6
CONTINUOUS
70
0
71
3
72
10
73
6
74
4
42
0.0000001000
43
0.0000001000
44
0.0000000001
12
-0.4438813450
22
-0.0000124023
32
0.0000000000
13
-0.0133208016
23
-0.4436814227
33
0.0000000000
40
0.0000000000
40
0.0000000000
40
0.0000000000
40
0.0000000000
40
0.1586542637
40
0.5106146265
40
1.0000000000
40
1.0000000000
40
1.0000000000
40
1.0000000000
10
-28.6461770313
20
79.9025038639
30
0.0000000000
10
-28.6696515873
20
79.9025032080
30
0.0000000000
10
-28.7071210974
20
79.8102023667
30
0.0000000000
10
-28.7294775936
20
79.6815378777
30
0.0000000000
10
-28.7400747075
20
79.5511888772
30
0.0000000000
10
-28.7422477093
20
79.4788118110
30
0.0000000000
11
-28.6461770313
21
79.9025038639
31
0.0000000000
11
-28.6904207603
21
79.8477134864
31
0.0000000000
11
-28.7249680753
21
79.6953524981
31
0.0000000000
11
-28.7422477093
21
79.4788118110
31
0.0000000000
0
SPLINE
5
312
100
AcDbEntity
8
0
100
AcDbSpline
62
9
6
CONTINUOUS
70
0
71
3
72
10
73
6
74
4
42
0.0000001000
43
0.0000001000
44
0.0000000001
12
-0.0000042204
22
0.2962462316
32
0.0000000000
13
0.2959043333
23
0.0142286795
33
0.0000000000
40
0.0000000000
40
0.0000000000
40
0.0000000000
40
0.0000000000
40
0.1360625330
40
0.4826157358
40
1.0000000000
40
1.0000000000
40
1.0000000000
40
1.0000000000
10
-30.6461763108
20
77.9025038639
30
0.0000000000
10
-30.6461765022
20
77.9159398681
30
0.0000000000
10
-30.5793056687
20
77.9265481958
30
0.0000000000
10
-30.4994030001
20
77.9421958457
30
0.0000000000
10
-30.4075669958
20
77.9470819533
30
0.0000000000
10
-30.3565349139
20
77.9495358516
30
0.0000000000
11
-30.6461763108
21
77.9025038639
31
0.0000000000
11
-30.6107211280
21
77.9216784799
31
0.0000000000
11
-30.5093833560
21
77.9381337131
31
0.0000000000
11
-30.3565349139
21
77.9495358516
31
0.0000000000
0
SPLINE
5
313
100
AcDbEntity
8
0
100
AcDbSpline
62
9
6
CONTINUOUS
70
0
71
3
72
10
73
6
74
4
42
0.0000001000
43
0.0000001000
44
0.0000000001
12
0.4033425358
22
-0.0001659420
32
0.0000000000
13
0.0002707181
23
0.4033424791
33
0.0000000000
40
0.0000000000
40
0.0000000000
40
0.0000000000
40
0.0000000000
40
0.1281823057
40
0.4861895603
40
1.0000000000
40
1.0000000000
40
1.0000000000
40
1.0000000000
10
1.8763052492
20
-80.0974957254
30
0.0000000000
10
1.8935390413
20
-80.0975028157
30
0.0000000000
10
1.8549050268
20
-79.9918042335
30
0.0000000000
10
1.8906064330
20
-79.8936869929
30
0.0000000000
10
1.8779300759
20
-79.7632406679
30
0.0000000000
10
1.8779764418
20
-79.6941601423
30
0.0000000000
11
1.8763052492
21
-80.0974957254
31
0.0000000000
11
1.8770595345
21
-80.0457998473
31
0.0000000000
11
1.8776578408
21
-79.9014015207
31
0.0000000000
11
1.8779764418
21
-79.6941601423
31
0.0000000000
0
SPLINE
5
314
100
AcDbEntity
8
0
100
AcDbSpline
62
9
6
CONTINUOUS
70
0
71
3
72
10
73
6
74
4
42
0.0000001000
43
0.0000001000
44
0.0000000001
12
-0.0000225457
22
-0.2962457644
32
0.0000000000
13
0.2959038655
23
-0.0142286964
33
0.0000000000
40
0.0000000000
40
0.0000000000
40
0.0000000000
40
0.0000000000
40
0.1360603361
40
0.4826135113
40
1.0000000000
40
1.0000000000
40
1.0000000000
40
1.0000000000
10
-30.6461770313
20
-78.0974961361
30
0.0000000000
10
-30.6461780538
20
-78.1109319022
30
0.0000000000
10
-30.5793064044
20
-78.1215411878
30
0.0000000000
10
-30.4994050762
20
-78.1371881697
30
0.0000000000
10
-30.4075685225
20
-78.1420745785
30
0.0000000000
10
-30.3565363018
20
-78.1445284902
30
0.0000000000
11
-30.6461770313
21
-78.0974961361
31
0.0000000000
11
-30.6107227331
21
-78.1166708862
31
0.0000000000
11
-30.5093851558
21
-78.1331262591
31
0.0000000000
11
-30.3565363018
21
-78.1445284902
31
0.0000000000
0
SPLINE
5
315
100
AcDbEntity
8
0
100
AcDbSpline
62
9
6
CONTINUOUS
70
0
71
3
72
10
73
6
74
4
42
0.0000001000
43
0.0000001000
44
0.0000000001
12
-0.4438289301
22
0.0000365993
32
0.0000000000
13
-0.0133279259
23
0.4436287715
33
0.0000000000
40
0.0000000000
40
0.0000000000
40
0.0000000000
40
0.0000000000
40
0.1586570307
40
0.5106138407
40
1.0000000000
40
1.0000000000
40
1.0000000000
40
1.0000000000
10
-28.6461770307
20
-80.0974418927
30
0.0000000000
10
-28.6696492241
20
-80.0974399571
30
0.0000000000
10
-28.7071154066
20
-80.0051538033
30
0.0000000000
10
-28.7294725729
20
-79.8765024676
30
0.0000000000
10
-28.7400704503
20
-79.7461702885
30
0.0000000000
10
-28.7422446178
20
-79.6738016949
30
0.0000000000
11
-28.6461770307
21
-80.0974418927
31
0.0000000000
11
-28.6904170283
21
-80.0426576119
31
0.0000000000
11
-28.7249629308
21
-79.8903168360
31
0.0000000000
11
-28.7422446178
21
-79.6738016949
31
0.0000000000
0
SPLINE
5
316
100
AcDbEntity
8
0
100
AcDbSpline
62
9
6
CONTINUOUS
70
0
71
3
72
10
73
6
74
4
42
0.0000001000
43
0.0000001000
44
0.0000000001
12
-0.4033428446
22
0.0007165497
32
0.0000000000
13
-0.0002707800
23
0.4033433902
33
0.0000000000
40
0.0000000000
40
0.0000000000
40
0.0000000000
40
0.0000000000
40
0.1281850648
40
0.4861920824
40
1.0000000000
40
1.0000000000
40
1.0000000000
40
1.0000000000
10
-27.1686593632
20
-80.0974961361
30
0.0000000000
10
-27.1858935394
20
-80.0974655191
30
0.0000000000
10
-27.1472591039
20
-79.9918542529
30
0.0000000000
10
-27.1829604323
20
-79.8936571505
30
0.0000000000
10
-27.1702841900
20
-79.7632399842
30
0.0000000000
10
-27.1703305663
20
-79.6941596417
30
0.0000000000
11
-27.1686593632
21
-80.0974961361
31
0.0000000000
11
-27.1694136379
21
-80.0457990281
31
0.0000000000
11
-27.1700119442
21
-79.9014004709
31
0.0000000000
11
-27.1703305663
21
-79.6941596417
31
0.0000000000
0
SPLINE
5
317
100
AcDbEntity
8
0
100
AcDbSpline
62
9
6
CONTINUOUS
70
0
71
3
72
10
73
6
74
4
42
0.0000001000
43
0.0000001000
44
0.0000000001
12
0.4438812790
22
0.0000111301
32
0.0000000000
13
0.0133208185
23
0.4436813561
33
0.0000000000
40
0.0000000000
40
0.0000000000
40
0.0000000000
40
0.0000000000
40
0.1586541420
40
0.5106144943
40
1.0000000000
40
1.0000000000
40
1.0000000000
40
1.0000000000
10
3.3538229687
20
-80.0974961361
30
0.0000000000
10
3.3772975032
20
-80.0974955475
30
0.0000000000
10
3.4147671219
20
-80.0051947123
30
0.0000000000
10
3.4371235597
20
-79.8765302824
30
0.0000000000
10
3.4477207070
20
-79.7461812690
30
0.0000000000
10
3.4498937122
20
-79.6738041940
30
0.0000000000
11
3.3538229687
21
-80.0974961361
31
0.0000000000
11
3.3980667207
21
-80.0427058602
31
0.0000000000
11
3.4326140607
21
-79.8903449062
31
0.0000000000
11
3.4498937122
21
-79.6738041940
31
0.0000000000
0
SPLINE
5
318
100
AcDbEntity
8
0
100
AcDbSpline
62
9
6
CONTINUOUS
70
0
71
3
72
10
73
6
74
4
42
0.0000001000
43
0.0000001000
44
0.0000000001
12
-0.9109463782
22
0.3625544292
32
0.0000000000
13
-0.9554313635
23
0.3571157144
33
0.0000000000
40
0.0000000000
40
0.0000000000
40
0.0000000000
40
0.0000000000
40
0.4849499446
40
0.9761839840
40
1.0000000000
40
1.0000000000
40
1.0000000000
40
1.0000000000
10
-0.5366792859
20
-56.0537082340
30
0.0000000000
10
-0.6839337511
20
-55.9951013172
30
0.0000000000
10
-0.9834001169
20
-55.8772738058
30
0.0000000000
10
-1.2752713332
20
-55.7501541064
30
0.0000000000
10
-1.4388670840
20
-55.6887178027
30
0.0000000000
10
-1.4464519402
20
-55.6858827782
30
0.0000000000
11
-0.5366792859
21
-56.0537082340
31
0.0000000000
11
-0.9778824096
21
-55.8764862331
31
0.0000000000
11
-1.4237660525
21
-55.6944080874
31
0.0000000000
11
-1.4464519402
21
-55.6858827782
31
0.0000000000
0
SPLINE
5
319
100
AcDbEntity
8
0
100
AcDbSpline
62
9
6
CONTINUOUS
70
0
71
3
72
10
73
6
74
4
42
0.0000001000
43
0.0000001000
44
0.0000000001
12
0.9111906942
22
0.3612507966
32
0.0000000000
13
0.9553083603
23
0.3572967633
33
0.0000000000
40
0.0000000000
40
0.0000000000
40
0.0000000000
40
0.0000000000
40
0.4850946572
40
0.9765285343
40
1.0000000000
40
1.0000000000
40
1.0000000000
40
1.0000000000
10
-24.7557125931
20
-56.0536136051
30
0.0000000000
10
-24.6083746806
20
-55.9951999946
30
0.0000000000
10
-24.3087529174
20
-55.8776254115
30
0.0000000000
10
-24.0169153468
20
-55.7508034852
30
0.0000000000
10
-23.8533828374
20
-55.6893607099
30
0.0000000000
10
-23.8459086750
20
-55.6865652837
30
0.0000000000
11
-24.7557125931
21
-56.0536136051
31
0.0000000000
11
-24.3143091052
21
-55.8768412826
31
0.0000000000
11
-23.8682642214
21
-55.6949703474
31
0.0000000000
11
-23.8459086750
21
-55.6865652837
31
0.0000000000
0
SPLINE
5
31A
100
AcDbEntity
8
0
100
AcDbSpline
62
9
6
CONTINUOUS
70
0
71
3
72
10
73
6
74
4
42
0.0000001000
43
0.0000001000
44
0.0000000001
12
0.0000042204
22
-0.2962462817
32
0.0000000000
13
-0.2959043812
23
-0.0142287264
33
0.0000000000
40
0.0000000000
40
0.0000000000
40
0.0000000000
40
0.0000000000
40
0.1360626128
40
0.4826157977
40
1.0000000000
40
1.0000000000
40
1.0000000000
40
1.0000000000
10
5.3538222481
20
-78.0974961361
30
0.0000000000
10
5.3538224395
20
-78.1109321505
30
0.0000000000
10
5.2869516395
20
-78.1215405793
30
0.0000000000
10
5.2070489199
20
-78.1371882237
30
0.0000000000
10
5.1152129254
20
-78.1420743683
30
0.0000000000
10
5.0641808413
20
-78.1445282744
30
0.0000000000
11
5.3538222481
21
-78.0974961361
31
0.0000000000
11
5.3183670640
21
-78.1166708137
31
0.0000000000
11
5.2170292883
21
-78.1331260996
31
0.0000000000
11
5.0641808413
21
-78.1445282744
31
0.0000000000
0
SPLINE
5
31B
100
AcDbEntity
8
0
100
AcDbSpline
62
9
6
CONTINUOUS
70
0
71
3
72
20
73
16
74
14
42
0.0000001000
43
0.0000001000
44
0.0000000001
12
6.8043829885
22
-15.8190137888
32
0.0000000000
13
3.7645810807
23
-16.8038315390
33
0.0000000000
40
0.0000000000
40
0.0000000000
40
0.0000000000
40
0.0000000000
40
0.0460473345
40
0.0968078245
40
0.1523491935
40
0.2126730883
40
0.2777480805
40
0.3476475201
40
0.4226293448
40
0.5030425589
40
0.5892407086
40
0.6816046132
40
0.7805442449
40
0.8865004433
40
1.0000000000
40
1.0000000000
40
1.0000000000
40
1.0000000000
10
0.5645039645
20
-50.9492777215
30
0.0000000000
10
0.6689451976
20
-51.1920855279
30
0.0000000000
10
0.8805717105
20
-51.7060008043
30
0.0000000000
10
1.1904045214
20
-52.5238858995
30
0.0000000000
10
1.5066865939
20
-53.4266178188
30
0.0000000000
10
1.8302596071
20
-54.4136072246
30
0.0000000000
10
2.1613781180
20
-55.4846739579
30
0.0000000000
10
2.5008305440
20
-56.6410910183
30
0.0000000000
10
2.8497940074
20
-57.8863657063
30
0.0000000000
10
3.2095812005
20
-59.2256792330
30
0.0000000000
10
3.5815144806
20
-60.6649686654
30
0.0000000000
10
3.9668209483
20
-62.2105762968
30
0.0000000000
10
4.3667369437
20
-63.8693717429
30
0.0000000000
10
4.7826186920
20
-65.6490665611
30
0.0000000000
10
5.0614322413
20
-66.8775355441
30
0.0000000000
10
5.2038583359
20
-67.5132780208
30
0.0000000000
11
0.5645039645
21
-50.9492777215
31
0.0000000000
11
0.8669317343
21
-51.6822919521
31
0.0000000000
11
1.1773962359
21
-52.4994131141
31
0.0000000000
11
1.4946833280
21
-53.4016941049
31
0.0000000000
11
1.8190692403
21
-54.3885464871
31
0.0000000000
11
2.1507301868
21
-55.4589569893
31
0.0000000000
11
2.4903251266
21
-56.6137528515
31
0.0000000000
11
2.8392214468
21
-57.8569363203
31
0.0000000000
11
3.1989070428
21
-59.1941512480
31
0.0000000000
11
3.5706749835
21
-60.6312047659
31
0.0000000000
11
3.9557667916
21
-62.1744225172
31
0.0000000000
11
4.3554262794
21
-63.8306608666
31
0.0000000000
11
4.7709392496
21
-65.6073230721
31
0.0000000000
11
5.2038583359
21
-67.5132780208
31
0.0000000000
0
SPLINE
5
31C
100
AcDbEntity
8
0
100
AcDbSpline
62
9
6
CONTINUOUS
70
0
71
3
72
10
73
6
74
4
42
0.0000001000
43
0.0000001000
44
0.0000000001
12
-0.0000000000
22
101.7034277999
32
0.0000000000
13
0.0000000000
23
101.7034277999
33
0.0000000000
40
0.0000000000
40
0.0000000000
40
0.0000000000
40
0.0000000000
40
0.3333086920
40
0.6666420823
40
1.0000000000
40
1.0000000000
40
1.0000000000
40
1.0000000000
10
0.5645039645
20
-50.9492777215
30
0.0000000000
10
0.5645039645
20
-39.6497322254
30
0.0000000000
10
0.5643997700
20
-17.0498039311
30
0.0000000000
10
0.5644317878
20
16.8513386689
30
0.0000000000
10
0.5644506106
20
39.4529357727
30
0.0000000000
10
0.5644506106
20
50.7541500782
30
0.0000000000
11
0.5645039645
21
-50.9492777215
31
0.0000000000
11
0.5644311562
21
-17.0506412332
31
0.0000000000
11
0.5644311562
21
16.8505071615
31
0.0000000000
11
0.5644506106
21
50.7541500782
31
0.0000000000
0
SPLINE
5
31D
100
AcDbEntity
8
0
100
AcDbSpline
62
9
6
CONTINUOUS
70
0
71
3
72
20
73
16
74
14
42
0.0000001000
43
0.0000001000
44
0.0000000001
12
-3.7645685245
22
-16.8039904957
32
0.0000000000
13
-6.7943195798
23
-15.8235044855
33
0.0000000000
40
0.0000000000
40
0.0000000000
40
0.0000000000
40
0.0000000000
40
0.1131244849
40
0.2189344721
40
0.3178763222
40
0.4104899587
40
0.4973008339
40
0.5784974678
40
0.6538634397
40
0.7232822736
40
0.7872688331
40
0.8467484965
40
0.9022733347
40
0.9536953487
40
1.0000000000
40
1.0000000000
40
1.0000000000
40
1.0000000000
10
5.2038586128
20
67.3182922605
30
0.0000000000
10
5.0619036544
20
66.6846446708
30
0.0000000000
10
4.7837589152
20
65.4590809029
30
0.0000000000
10
4.3686018831
20
63.6822600010
30
0.0000000000
10
3.9686047965
20
62.0228442531
30
0.0000000000
10
3.5821507818
20
60.4723927630
30
0.0000000000
10
3.2078466158
20
59.0239440191
30
0.0000000000
10
2.8452806410
20
57.6747820008
30
0.0000000000
10
2.4950041683
20
56.4257676804
30
0.0000000000
10
2.1571842015
20
55.2759487521
30
0.0000000000
10
1.8300109104
20
54.2181544813
30
0.0000000000
10
1.5101025214
20
53.2417286928
30
0.0000000000
10
1.1943420861
20
52.3400228632
30
0.0000000000
10
0.8832554346
20
51.5170567775
30
0.0000000000
10
0.6693201436
20
50.9983840309
30
0.0000000000
10
0.5644506106
20
50.7541500782
30
0.0000000000
11
5.2038586128
21
67.3182922605
31
0.0000000000
11
4.7723861725
21
65.4186144362
31
0.0000000000
11
4.3574937266
21
63.6443763009
31
0.0000000000
11
3.9578869626
21
61.9880704246
31
0.0000000000
11
3.5718046597
21
60.4406529517
31
0.0000000000
11
3.1973813594
21
58.9933739974
31
0.0000000000
11
2.8340563413
21
57.6431549173
31
0.0000000000
11
2.4831139370
21
56.3936630476
31
0.0000000000
11
2.1455737703
21
55.2468785862
31
0.0000000000
11
1.8193460127
21
54.1943967355
31
0.0000000000
11
1.4996499431
21
53.2212964731
31
0.0000000000
11
1.1827349186
21
52.3191774788
31
0.0000000000
11
0.8685598641
21
51.4912716050
31
0.0000000000
11
0.5644506106
21
50.7541500782
31
0.0000000000
0
SPLINE
5
31E
100
AcDbEntity
8
0
100
AcDbSpline
62
9
6
CONTINUOUS
70
0
71
3
72
13
73
9
74
7
42
0.0000001000
43
0.0000001000
44
0.0000000001
12
1.8106411259
22
0.0016323781
32
0.0000000000
13
1.8106281472
23
0.0076583368
33
0.0000000000
40
0.0000000000
40
0.0000000000
40
0.0000000000
40
0.0000000000
40
0.1911875259
40
0.4156792967
40
0.6395823015
40
0.8290924206
40
0.9555980728
40
1.0000000000
40
1.0000000000
40
1.0000000000
40
1.0000000000
10
-25.8568176372
20
-50.9490926475
30
0.0000000000
10
-25.7414269715
20
-50.9489886174
30
0.0000000000
10
-25.4905449223
20
-50.9488047697
30
0.0000000000
10
-25.1045268587
20
-50.9485479326
30
0.0000000000
10
-24.7195211054
20
-50.9483250175
30
0.0000000000
10
-24.3936548583
20
-50.9480205090
30
0.0000000000
10
-24.1761254736
20
-50.9479401918
30
0.0000000000
10
-24.0729752064
20
-50.9476094844
30
0.0000000000
10
-24.0461767466
20
-50.9474961361
30
0.0000000000
11
-25.8568176372
21
-50.9490926475
31
0.0000000000
11
-25.5106456044
21
-50.9488230796
31
0.0000000000
11
-25.1041714959
21
-50.9485535543
31
0.0000000000
11
-24.6987634301
21
-50.9482869827
31
0.0000000000
11
-24.3556285761
21
-50.9480237451
31
0.0000000000
11
-24.1265722966
21
-50.9477615696
31
0.0000000000
11
-24.0461767466
21
-50.9474961361
31
0.0000000000
0
SPLINE
5
31F
100
AcDbEntity
8
0
100
AcDbSpline
62
9
6
CONTINUOUS
70
0
71
3
72
13
73
9
74
7
42
0.0000001000
43
0.0000001000
44
0.0000000001
12
1.8106079193
22
-0.0015800947
32
0.0000000000
13
1.8105955139
23
-0.0074747576
33
0.0000000000
40
0.0000000000
40
0.0000000000
40
0.0000000000
40
0.0000000000
40
0.1911822580
40
0.4156718218
40
0.6395751767
40
0.8290873137
40
0.9555956365
40
1.0000000000
40
1.0000000000
40
1.0000000000
40
1.0000000000
10
-25.8567847128
20
50.7540610505
30
0.0000000000
10
-25.7413993427
20
50.7539603552
30
0.0000000000
10
-25.4905264071
20
50.7537840620
30
0.0000000000
10
-25.1045197259
20
50.7535370367
30
0.0000000000
10
-24.7195209451
20
50.7533200451
30
0.0000000000
10
-24.3936576300
20
50.7530211126
30
0.0000000000
10
-24.1761279571
20
50.7529379398
30
0.0000000000
10
-24.0729764784
20
50.7526145012
30
0.0000000000
10
-24.0461770313
20
50.7525038639
30
0.0000000000
11
-25.8567847128
21
50.7540610505
31
0.0000000000
11
-25.5106285680
21
50.7538015193
31
0.0000000000
11
-25.1041659139
21
50.7535419882
31
0.0000000000
11
-24.6987646551
21
50.7532824572
31
0.0000000000
11
-24.3556324465
21
50.7530229260
31
0.0000000000
11
-24.1265755353
21
50.7527633948
31
0.0000000000
11
-24.0461770313
21
50.7525038639
31
0.0000000000
0
SPLINE
5
320
100
AcDbEntity
8
0
100
AcDbSpline
62
9
6
CONTINUOUS
70
0
71
3
72
12
73
8
74
6
42
0.0000001000
43
0.0000001000
44
0.0000000001
12
1.6188236231
22
-0.6442817825
32
0.0000000000
13
-0.6577538388
23
-1.6133966734
33
0.0000000000
40
0.0000000000
40
0.0000000000
40
0.0000000000
40
0.0000000000
40
0.2728904874
40
0.5493153058
40
0.7855076247
40
0.9440791349
40
1.0000000000
40
1.0000000000
40
1.0000000000
40
1.0000000000
10
-24.7557472383
20
55.8585097792
30
0.0000000000
10
-24.6084933824
20
55.7999036560
30
0.0000000000
10
-24.3090303164
20
55.6820814518
30
0.0000000000
10
-23.9015940632
20
55.5046359311
30
0.0000000000
10
-23.4991385265
20
55.3695754479
30
0.0000000000
10
-23.3440949528
20
55.2380057055
30
0.0000000000
10
-23.1350835897
20
55.2193440118
30
0.0000000000
10
-23.1473443109
20
55.1892698326
30
0.0000000000
11
-24.7557472383
21
55.8585097792
31
0.0000000000
11
-24.3145449131
21
55.6812927092
31
0.0000000000
11
-23.8686632050
21
55.4992252516
31
0.0000000000
11
-23.4887162028
21
55.3411376744
31
0.0000000000
11
-23.2348761884
21
55.2320624056
31
0.0000000000
11
-23.1473443109
21
55.1892698326
31
0.0000000000
0
SPLINE
5
321
100
AcDbEntity
8
0
100
AcDbSpline
62
9
6
CONTINUOUS
70
0
71
3
72
12
73
8
74
6
42
0.0000001000
43
0.0000001000
44
0.0000000001
12
-1.6199035026
22
-0.6422212271
32
0.0000000000
13
0.6719744538
23
-1.6077891017
33
0.0000000000
40
0.0000000000
40
0.0000000000
40
0.0000000000
40
0.0000000000
40
0.2728656958
40
0.5492971134
40
0.7855055204
40
0.9440834218
40
1.0000000000
40
1.0000000000
40
1.0000000000
40
1.0000000000
10
-0.5366451273
20
55.8586343116
30
0.0000000000
10
-0.6839838261
20
55.8002209309
30
0.0000000000
10
-0.9836068949
20
55.6826464284
30
0.0000000000
10
-1.3911470059
20
55.5055451031
30
0.0000000000
10
-1.7937954866
20
55.3700365831
30
0.0000000000
10
-1.9485570132
20
55.2391298049
30
0.0000000000
10
-2.1577477552
20
55.2192550634
30
0.0000000000
10
-2.1452229178
20
55.1892877083
30
0.0000000000
11
-0.5366451273
21
55.8586343116
31
0.0000000000
11
-0.9780507950
21
55.6818622173
31
0.0000000000
11
-1.4240974189
21
55.4999907568
31
0.0000000000
11
-1.8041137006
21
55.3418473576
31
0.0000000000
11
-2.0578909320
21
55.2325005482
31
0.0000000000
11
-2.1452229178
21
55.1892877083
31
0.0000000000
0
SPLINE
5
322
100
AcDbEntity
8
0
100
AcDbSpline
62
9
6
CONTINUOUS
70
0
71
3
72
13
73
9
74
7
42
0.0000001000
43
0.0000001000
44
0.0000000001
12
-1.8106509668
22
-0.0017131861
32
0.0000000000
13
-1.8106383295
23
-0.0075767892
33
0.0000000000
40
0.0000000000
40
0.0000000000
40
0.0000000000
40
0.0000000000
40
0.1911871524
40
0.4156788867
40
0.6395820621
40
0.8290923972
40
0.9555981619
40
1.0000000000
40
1.0000000000
40
1.0000000000
40
1.0000000000
10
0.5644737736
20
50.7541360347
30
0.0000000000
10
0.4490827062
20
50.7540268550
30
0.0000000000
10
0.1981995371
20
50.7538340672
30
0.0000000000
10
-0.1878204894
20
50.7535668080
30
0.0000000000
10
-0.5728285558
20
50.7533356125
30
0.0000000000
10
-0.8986968892
20
50.7530274134
30
0.0000000000
10
-1.1162275997
20
50.7529437074
30
0.0000000000
10
-1.2193784558
20
50.7526160050
30
0.0000000000
10
-1.2461770125
20
50.7525038639
30
0.0000000000
11
0.5644737736
21
50.7541360347
31
0.0000000000
11
0.2183005317
21
50.7538535519
31
0.0000000000
11
-0.1881757292
21
50.7535727927
31
0.0000000000
11
-0.5935863184
21
50.7532978765
31
0.0000000000
11
-0.9367234389
21
50.7530299270
31
0.0000000000
11
-1.1657811755
21
50.7527668398
31
0.0000000000
11
-1.2461770125
21
50.7525038639
31
0.0000000000
0
SPLINE
5
323
100
AcDbEntity
8
0
100
AcDbSpline
62
9
6
CONTINUOUS
70
0
71
3
72
13
73
9
74
7
42
0.0000001000
43
0.0000001000
44
0.0000000001
12
-1.8106813103
22
0.0018275389
32
0.0000000000
13
-1.8106647204
23
0.0086442225
33
0.0000000000
40
0.0000000000
40
0.0000000000
40
0.0000000000
40
0.0000000000
40
0.1911711891
40
0.4156576409
40
0.6395635684
40
0.8290808368
40
0.9555937619
40
1.0000000000
40
1.0000000000
40
1.0000000000
40
1.0000000000
10
0.5645039611
20
-50.9492970229
30
0.0000000000
10
0.4491205947
20
-50.9491805653
30
0.0000000000
10
0.1982460364
20
-50.9489766816
30
0.0000000000
10
-0.1877693033
20
-50.9486909970
30
0.0000000000
10
-0.5727865057
20
-50.9484400477
30
0.0000000000
10
-0.8986704133
20
-50.9480943355
30
0.0000000000
10
-1.1162160199
20
-50.9479981448
30
0.0000000000
10
-1.2193754284
20
-50.9476240886
30
0.0000000000
10
-1.2461770313
20
-50.9474961361
30
0.0000000000
11
0.5645039611
21
-50.9492970229
31
0.0000000000
11
0.2183538158
21
-50.9489968760
31
0.0000000000
11
-0.1881197032
21
-50.9486967273
31
0.0000000000
11
-0.5935420768
21
-50.9483965802
31
0.0000000000
11
-0.9366974961
21
-50.9480964329
31
0.0000000000
11
-1.1657720051
21
-50.9477962845
31
0.0000000000
11
-1.2461770313
21
-50.9474961361
31
0.0000000000
0
SPLINE
5
324
100
AcDbEntity
8
0
100
AcDbSpline
62
9
6
CONTINUOUS
70
0
71
3
72
12
73
8
74
6
42
0.0000001000
43
0.0000001000
44
0.0000000001
12
-0.2432923472
22
5.2482547419
32
0.0000000000
13
-2.3267636573
23
4.7105774471
33
0.0000000000
40
0.0000000000
40
0.0000000000
40
0.0000000000
40
0.0000000000
40
0.1771071860
40
0.3771576298
40
0.5878594472
40
0.7986515271
40
1.0000000000
40
1.0000000000
40
1.0000000000
40
1.0000000000
10
0.5644790774
20
50.7541399301
30
0.0000000000
10
0.5501161364
20
51.0639744731
30
0.0000000000
10
0.5036175774
20
51.7231486560
30
0.0000000000
10
0.3777801438
20
52.7454716498
30
0.0000000000
10
0.1765467868
20
53.8162387769
30
0.0000000000
10
-0.1128209579
20
54.8693423951
30
0.0000000000
10
-0.3805187152
20
55.5424585698
30
0.0000000000
10
-0.5366821516
20
55.8586144284
30
0.0000000000
11
0.5644790774
21
50.7541399301
31
0.0000000000
11
0.4988968372
21
51.6823277411
31
0.0000000000
11
0.3693716544
21
52.7253593920
31
0.0000000000
11
0.1617427474
21
53.8127180568
31
0.0000000000
11
-0.1371467415
21
54.8791016066
31
0.0000000000
11
-0.5366821516
21
55.8586144284
31
0.0000000000
0
SPLINE
5
325
100
AcDbEntity
8
0
100
AcDbSpline
62
9
6
CONTINUOUS
70
0
71
3
72
8
73
4
74
2
42
0.0000001000
43
0.0000001000
44
0.0000000001
12
0.0006457065
22
-0.0505276228
32
0.0000000000
13
0.0006458692
23
-0.0505276208
33
0.0000000000
40
0.0000000000
40
0.0000000000
40
0.0000000000
40
0.0000000000
40
1.0000000000
40
1.0000000000
40
1.0000000000
40
1.0000000000
10
5.0641807501
20
77.9495358827
30
0.0000000000
10
5.0643959856
20
77.9326933418
30
0.0000000000
10
5.0646112482
20
77.9158508012
30
0.0000000000
10
5.0648265380
20
77.8990082610
30
0.0000000000
11
5.0641807501
21
77.9495358827
31
0.0000000000
11
5.0648265380
21
77.8990082610
31
0.0000000000
0
SPLINE
5
326
100
AcDbEntity
8
0
100
AcDbSpline
62
9
6
CONTINUOUS
70
0
71
3
72
10
73
6
74
4
42
0.0000001000
43
0.0000001000
44
0.0000000001
12
0.1352486481
22
-10.5807676502
32
0.0000000000
13
0.1434017714
23
-10.5806602895
33
0.0000000000
40
0.0000000000
40
0.0000000000
40
0.0000000000
40
0.0000000000
40
0.3602913555
40
0.6945643163
40
1.0000000000
40
1.0000000000
40
1.0000000000
40
1.0000000000
10
5.0648265380
20
77.8990082610
30
0.0000000000
10
5.0810695109
20
76.6282885546
30
0.0000000000
10
5.1126801464
20
74.1786177967
30
0.0000000000
10
5.1590558796
20
70.6517119836
30
0.0000000000
10
5.1892585617
20
68.3955269370
30
0.0000000000
10
5.2038585678
20
67.3182898671
30
0.0000000000
11
5.0648265380
21
77.8990082610
31
0.0000000000
11
5.1140258091
21
74.0868551834
31
0.0000000000
11
5.1605395077
21
70.5500075594
31
0.0000000000
11
5.2038585678
21
67.3182898671
31
0.0000000000
0
SPLINE
5
327
100
AcDbEntity
8
0
100
AcDbSpline
62
9
6
CONTINUOUS
70
0
71
3
72
18
73
14
74
12
42
0.0000001000
43
0.0000001000
44
0.0000000001
12
2.4547858299
22
-0.0344795785
32
0.0000000000
13
0.0313996281
23
-2.4548271580
33
0.0000000000
40
0.0000000000
40
0.0000000000
40
0.0000000000
40
0.0000000000
40
0.1453493281
40
0.2748483952
40
0.3910120489
40
0.4955208073
40
0.5901776580
40
0.6760430551
40
0.7537912276
40
0.8242032718
40
0.8881380171
40
0.9462521253
40
1.0000000000
40
1.0000000000
40
1.0000000000
40
1.0000000000
10
3.4498941904
20
79.4788123044
30
0.0000000000
10
3.5688280141
20
79.4771417765
30
0.0000000000
10
3.7941358116
20
79.4500824139
30
0.0000000000
10
4.0997178757
20
79.3494376878
30
0.0000000000
10
4.3529503112
20
79.2123288500
30
0.0000000000
10
4.5577147760
20
79.0535806769
30
0.0000000000
10
4.7190954855
20
78.8840331587
30
0.0000000000
10
4.8423818580
20
78.7115713223
30
0.0000000000
10
4.9328198856
20
78.5421879981
30
0.0000000000
10
4.9956805279
20
78.3799882492
30
0.0000000000
10
5.0359538340
20
78.2274098364
30
0.0000000000
10
5.0581915781
20
78.0850496614
30
0.0000000000
10
5.0636181957
20
77.9935164635
30
0.0000000000
10
5.0641807501
20
77.9495358827
30
0.0000000000
11
3.4498941904
21
79.4788123044
31
0.0000000000
11
3.8041899736
21
79.4363046137
31
0.0000000000
11
4.1061565683
21
79.3368473961
31
0.0000000000
11
4.3568659306
21
79.2009234821
31
0.0000000000
11
4.5595507221
21
79.0436084233
31
0.0000000000
11
4.7196640265
21
78.8751844993
31
0.0000000000
11
4.8421600506
21
78.7036263846
31
0.0000000000
11
4.9319803282
21
78.5352067365
31
0.0000000000
11
4.9943850493
21
78.3740004917
31
0.0000000000
11
5.0344001177
21
78.2222252160
31
0.0000000000
11
5.0563894252
21
78.0812581924
31
0.0000000000
11
5.0641807501
21
77.9495358827
31
0.0000000000
0
SPLINE
5
328
100
AcDbEntity
8
0
100
AcDbSpline
62
9
6
CONTINUOUS
70
0
71
3
72
10
73
6
74
4
42
0.0000001000
43
0.0000001000
44
0.0000000001
12
1.5719394049
22
-0.0186280361
32
0.0000000000
13
1.5718944423
23
-0.0220988379
33
0.0000000000
40
0.0000000000
40
0.0000000000
40
0.0000000000
40
0.0000000000
40
0.3335948522
40
0.6674088936
40
1.0000000000
40
1.0000000000
40
1.0000000000
40
1.0000000000
10
1.8779764910
20
79.4991680183
30
0.0000000000
10
2.0527734555
20
79.4970966126
30
0.0000000000
10
2.4024807258
20
79.4928239073
30
0.0000000000
10
2.9264534435
20
79.4860398540
30
0.0000000000
10
3.2756281532
20
79.4812622634
30
0.0000000000
10
3.4498941904
20
79.4788123044
30
0.0000000000
11
1.8779764910
21
79.4991680183
31
0.0000000000
11
2.4023650715
21
79.4927615944
31
0.0000000000
11
2.9270933733
21
79.4859671562
31
0.0000000000
11
3.4498941904
21
79.4788123044
31
0.0000000000
0
SPLINE
5
329
100
AcDbEntity
8
0
100
AcDbSpline
62
9
6
CONTINUOUS
70
0
71
3
72
11
73
7
74
5
42
0.0000001000
43
0.0000001000
44
0.0000000001
12
-2.3289161864
22
-4.7082797104
32
0.0000000000
13
-0.2434467337
23
-5.2471403757
33
0.0000000000
40
0.0000000000
40
0.0000000000
40
0.0000000000
40
0.0000000000
40
0.2305480461
40
0.4735970442
40
0.7303620696
40
1.0000000000
40
1.0000000000
40
1.0000000000
40
1.0000000000
10
-24.7558562055
20
55.8581445125
30
0.0000000000
10
-24.9348318976
20
55.4963162834
30
0.0000000000
10
-25.2337052215
20
54.7187724997
30
0.0000000000
10
-25.5473964131
20
53.4772367154
30
0.0000000000
10
-25.7587140237
20
52.1451300942
30
0.0000000000
10
-25.8349083210
20
51.2256504243
30
0.0000000000
10
-25.8567891455
20
50.7540410671
30
0.0000000000
11
-24.7558562055
21
55.8581445125
31
0.0000000000
11
-25.2031937767
21
54.7327748890
31
0.0000000000
11
-25.5232016980
21
53.4968472233
31
0.0000000000
11
-25.7389110345
21
52.1654772708
31
0.0000000000
11
-25.8567891455
21
50.7540410671
31
0.0000000000
0
SPLINE
5
32A
100
AcDbEntity
8
0
100
AcDbSpline
62
9
6
CONTINUOUS
70
0
71
3
72
10
73
6
74
4
42
0.0000001000
43
0.0000001000
44
0.0000000001
12
1.5718945146
22
0.0220986582
32
0.0000000000
13
1.5719394753
23
0.0186279831
33
0.0000000000
40
0.0000000000
40
0.0000000000
40
0.0000000000
40
0.0000000000
40
0.3325911927
40
0.6664048142
40
1.0000000000
40
1.0000000000
40
1.0000000000
40
1.0000000000
10
-28.7422482451
20
79.4788122366
30
0.0000000000
10
-28.5679821546
20
79.4812621763
30
0.0000000000
10
-28.2188076045
20
79.4860397794
30
0.0000000000
10
-27.6948348638
20
79.4928238494
30
0.0000000000
10
-27.3451276235
20
79.4970965809
30
0.0000000000
10
-27.1703304763
20
79.4991679827
30
0.0000000000
11
-28.7422482451
21
79.4788122366
31
0.0000000000
11
-28.2194472690
21
79.4859670842
31
0.0000000000
11
-27.6947196043
21
79.4927615354
31
0.0000000000
11
-27.1703304763
21
79.4991679827
31
0.0000000000
0
SPLINE
5
32B
100
AcDbEntity
8
0
100
AcDbSpline
62
9
6
CONTINUOUS
70
0
71
3
72
18
73
14
74
12
42
0.0000001000
43
0.0000001000
44
0.0000000001
12
0.0313996315
22
2.4548271576
32
0.0000000000
13
2.4547857370
23
0.0344861749
33
0.0000000000
40
0.0000000000
40
0.0000000000
40
0.0000000000
40
0.0000000000
40
0.0537478017
40
0.1118618585
40
0.1757965279
40
0.2462084796
40
0.3239565365
40
0.4098217932
40
0.5044784776
40
0.6089870114
40
0.7251505213
40
0.8546487625
40
1.0000000000
40
1.0000000000
40
1.0000000000
40
1.0000000000
10
-30.3565348293
20
77.9495358327
30
0.0000000000
10
-30.3559722756
20
77.9935163538
30
0.0000000000
10
-30.3505456601
20
78.0850494491
30
0.0000000000
10
-30.3283079682
20
78.2274094655
30
0.0000000000
10
-30.2880347374
20
78.3799877113
30
0.0000000000
10
-30.2251742402
20
78.5421872656
30
0.0000000000
10
-30.1347364346
20
78.7115703815
30
0.0000000000
10
-30.0114503958
20
78.8840320322
30
0.0000000000
10
-29.8500701262
20
79.0535793492
30
0.0000000000
10
-29.6453062756
20
79.2123276280
30
0.0000000000
10
-29.3920747570
20
79.3494360055
30
0.0000000000
10
-29.0864924272
20
79.4500824620
30
0.0000000000
10
-28.8611836267
20
79.4771413672
30
0.0000000000
10
-28.7422482451
20
79.4788122366
30
0.0000000000
11
-30.3565348293
21
77.9495358327
31
0.0000000000
11
-30.3487435165
21
78.0812579636
31
0.0000000000
11
-30.3267542496
21
78.2222248656
31
0.0000000000
11
-30.2867392614
21
78.3739999697
31
0.0000000000
11
-30.2243346804
21
78.5352060253
31
0.0000000000
11
-30.1345146244
21
78.7036254701
31
0.0000000000
11
-30.0120189247
21
78.8751833926
31
0.0000000000
11
-29.8519060564
21
79.0436071681
31
0.0000000000
11
-29.6492219128
21
79.2009221623
31
0.0000000000
11
-29.3985130072
21
79.3368461776
31
0.0000000000
11
-29.0965486481
21
79.4363037018
31
0.0000000000
11
-28.7422482451
21
79.4788122366
31
0.0000000000
0
SPLINE
5
32C
100
AcDbEntity
8
0
100
AcDbSpline
62
9
6
CONTINUOUS
70
0
71
3
72
10
73
6
74
4
42
0.0000001000
43
0.0000001000
44
0.0000000001
12
0.1433860028
22
10.5806802938
32
0.0000000000
13
0.1352488011
23
10.5807874385
33
0.0000000000
40
0.0000000000
40
0.0000000000
40
0.0000000000
40
0.0000000000
40
0.3042841641
40
0.6384392236
40
1.0000000000
40
1.0000000000
40
1.0000000000
40
1.0000000000
10
-30.4962133548
20
67.3182653897
30
0.0000000000
10
-30.4816699915
20
68.3914432093
30
0.0000000000
10
-30.4515189248
20
70.6431552420
30
0.0000000000
10
-30.4051466863
20
74.1700676988
30
0.0000000000
10
-30.3734808962
20
76.6238043246
30
0.0000000000
10
-30.3571806756
20
77.8990035649
30
0.0000000000
11
-30.4962133548
21
67.3182653897
31
0.0000000000
11
-30.4530534606
21
70.5378051859
31
0.0000000000
11
-30.4065550686
21
74.0734119291
31
0.0000000000
11
-30.3571806756
21
77.8990035649
31
0.0000000000
0
SPLINE
5
32D
100
AcDbEntity
8
0
100
AcDbSpline
62
9
6
CONTINUOUS
70
0
71
3
72
8
73
4
74
2
42
0.0000001000
43
0.0000001000
44
0.0000000001
12
0.0006459282
22
0.0505322668
32
0.0000000000
13
0.0006457645
23
0.0505322688
33
0.0000000000
40
0.0000000000
40
0.0000000000
40
0.0000000000
40
0.0000000000
40
1.0000000000
40
1.0000000000
40
1.0000000000
40
1.0000000000
10
-30.3571806756
20
77.8990035649
30
0.0000000000
10
-30.3569653663
20
77.9158476538
30
0.0000000000
10
-30.3567500842
20
77.9326917431
30
0.0000000000
10
-30.3565348293
20
77.9495358327
30
0.0000000000
11
-30.3571806756
21
77.8990035649
31
0.0000000000
11
-30.3565348293
21
77.9495358327
31
0.0000000000
0
SPLINE
5
32E
100
AcDbEntity
8
0
100
AcDbSpline
62
9
6
CONTINUOUS
70
0
71
3
72
12
73
8
74
6
42
0.0000001000
43
0.0000001000
44
0.0000000001
12
0.2432387865
22
-5.2482748462
32
0.0000000000
13
2.3267352691
23
-4.7106111022
33
0.0000000000
40
0.0000000000
40
0.0000000000
40
0.0000000000
40
0.0000000000
40
0.1771156973
40
0.3771587779
40
0.5878640859
40
0.7986541936
40
1.0000000000
40
1.0000000000
40
1.0000000000
40
1.0000000000
10
-25.8568222529
20
-50.9490989397
30
0.0000000000
10
-25.8424617838
20
-51.2589495594
30
0.0000000000
10
-25.7960248757
20
-51.9181335687
30
0.0000000000
10
-25.6700790707
20
-52.9404548355
30
0.0000000000
10
-25.4689268987
20
-54.0112287562
30
0.0000000000
10
-25.1795296201
20
-55.0643286329
30
0.0000000000
10
-24.9118363631
20
-55.7374387727
30
0.0000000000
10
-24.7556769001
20
-56.0535927030
30
0.0000000000
11
-25.8568222529
21
-50.9490989397
31
0.0000000000
11
-25.7912688999
21
-51.8773367456
31
0.0000000000
11
-25.6617057628
21
-52.9203282480
31
0.0000000000
11
-25.4541021193
21
-54.0077141835
31
0.0000000000
11
-25.1552088002
21
-55.0740897521
31
0.0000000000
11
-24.7556769001
21
-56.0535927030
31
0.0000000000
0
SPLINE
5
32F
100
AcDbEntity
8
0
100
AcDbSpline
62
9
6
CONTINUOUS
70
0
71
3
72
8
73
4
74
2
42
0.0000001000
43
0.0000001000
44
0.0000000001
12
-0.0006456982
22
0.0505276139
32
0.0000000000
13
-0.0006458613
23
0.0505276118
33
0.0000000000
40
0.0000000000
40
0.0000000000
40
0.0000000000
40
0.0000000000
40
1.0000000000
40
1.0000000000
40
1.0000000000
40
1.0000000000
10
-30.3565348105
20
-78.1445281567
30
0.0000000000
10
-30.3567500432
20
-78.1276856187
30
0.0000000000
10
-30.3569653031
20
-78.1108430811
30
0.0000000000
10
-30.3571805902
20
-78.0940005438
30
0.0000000000
11
-30.3565348105
21
-78.1445281567
31
0.0000000000
11
-30.3571805902
21
-78.0940005438
31
0.0000000000
0
SPLINE
5
330
100
AcDbEntity
8
0
100
AcDbSpline
62
9
6
CONTINUOUS
70
0
71
3
72
10
73
6
74
4
42
0.0000001000
43
0.0000001000
44
0.0000000001
12
-0.1352470214
22
10.5807683926
32
0.0000000000
13
-0.1434024615
23
10.5806610018
33
0.0000000000
40
0.0000000000
40
0.0000000000
40
0.0000000000
40
0.0000000000
40
0.3602877119
40
0.6945609825
40
1.0000000000
40
1.0000000000
40
1.0000000000
40
1.0000000000
10
-30.3571805902
20
-78.0940005438
30
0.0000000000
10
-30.3734232035
20
-76.8232935989
30
0.0000000000
10
-30.4050339970
20
-74.3736344357
30
0.0000000000
10
-30.4514099695
20
-70.8467283854
30
0.0000000000
10
-30.4816123909
20
-68.5905303285
30
0.0000000000
10
-30.4962126266
20
-67.5132814283
30
0.0000000000
11
-30.3571805902
21
-78.0940005438
31
0.0000000000
11
-30.4063794503
21
-74.2818857592
31
0.0000000000
11
-30.4528933038
21
-70.7450346173
31
0.0000000000
11
-30.4962126266
21
-67.5132814283
31
0.0000000000
0
SPLINE
5
331
100
AcDbEntity
8
0
100
AcDbSpline
62
9
6
CONTINUOUS
70
0
71
3
72
18
73
14
74
12
42
0.0000001000
43
0.0000001000
44
0.0000000001
12
-2.4547858353
22
0.0344795710
32
0.0000000000
13
-0.0313996230
23
2.4548271633
33
0.0000000000
40
0.0000000000
40
0.0000000000
40
0.0000000000
40
0.0000000000
40
0.1453493232
40
0.2748483869
40
0.3910120387
40
0.4955207960
40
0.5901776465
40
0.6760430443
40
0.7537912183
40
0.8242032644
40
0.8881380120
40
0.9462521227
40
1.0000000000
40
1.0000000000
40
1.0000000000
40
1.0000000000
10
-28.7422482538
20
-79.6738045846
30
0.0000000000
10
-28.8611820737
20
-79.6721340571
30
0.0000000000
10
-29.0864898650
20
-79.6450746967
30
0.0000000000
10
-29.3920719226
20
-79.5444299762
30
0.0000000000
10
-29.6453043558
20
-79.4073211436
30
0.0000000000
10
-29.8500688209
20
-79.2485729743
30
0.0000000000
10
-30.0114495326
20
-79.0790254580
30
0.0000000000
10
-30.1347359082
20
-78.9065636213
30
0.0000000000
10
-30.2251739393
20
-78.7371802946
30
0.0000000000
10
-30.2880345846
20
-78.5749805414
30
0.0000000000
10
-30.3283078930
20
-78.4224021231
30
0.0000000000
10
-30.3505456384
20
-78.2800419419
30
0.0000000000
10
-30.3559722561
20
-78.1885087397
30
0.0000000000
10
-30.3565348105
20
-78.1445281567
30
0.0000000000
11
-28.7422482538
21
-79.6738045846
31
0.0000000000
11
-29.0965440259
21
-79.6312968974
31
0.0000000000
11
-29.3985106144
21
-79.5318396852
31
0.0000000000
11
-29.6492199747
21
-79.3959157762
31
0.0000000000
11
-29.8519047667
21
-79.2386007212
31
0.0000000000
11
-30.0120180732
21
-79.0701767990
31
0.0000000000
11
-30.1345141005
21
-78.8986186840
31
0.0000000000
11
-30.2243343816
21
-78.7301990333
31
0.0000000000
11
-30.2867391057
21
-78.5689927842
31
0.0000000000
11
-30.3267541765
21
-78.4172175028
31
0.0000000000
11
-30.3487434852
21
-78.2762504730
31
0.0000000000
11
-30.3565348105
21
-78.1445281567
31
0.0000000000
0
SPLINE
5
332
100
AcDbEntity
8
0
100
AcDbSpline
62
9
6
CONTINUOUS
70
0
71
3
72
10
73
6
74
4
42
0.0000001000
43
0.0000001000
44
0.0000000001
12
-1.5719393951
22
0.0186279559
32
0.0000000000
13
-1.5718944344
23
0.0220986297
33
0.0000000000
40
0.0000000000
40
0.0000000000
40
0.0000000000
40
0.0000000000
40
0.3335952110
40
0.6674087963
40
1.0000000000
40
1.0000000000
40
1.0000000000
40
1.0000000000
10
-27.1703305651
20
-79.6941602939
30
0.0000000000
10
-27.3451277165
20
-79.6920888950
30
0.0000000000
10
-27.6948349333
20
-79.6878161819
30
0.0000000000
10
-28.2188076473
20
-79.6810321159
30
0.0000000000
10
-28.5679821665
20
-79.6762545212
30
0.0000000000
10
-28.7422482538
20
-79.6738045846
30
0.0000000000
11
-27.1703305651
21
-79.6941602939
31
0.0000000000
11
-27.6947197060
21
-79.6877538636
31
0.0000000000
11
-28.2194472871
21
-79.6809594224
31
0.0000000000
11
-28.7422482538
21
-79.6738045846
31
0.0000000000
0
SPLINE
5
333
100
AcDbEntity
8
0
100
AcDbSpline
62
9
6
CONTINUOUS
70
0
71
3
72
11
73
7
74
5
42
0.0000001000
43
0.0000001000
44
0.0000000001
12
2.3288365496
22
4.7086495679
32
0.0000000000
13
0.2445795417
23
5.2473842317
33
0.0000000000
40
0.0000000000
40
0.0000000000
40
0.0000000000
40
0.0000000000
40
0.2285287769
40
0.4757711122
40
0.7362568833
40
1.0000000000
40
1.0000000000
40
1.0000000000
40
1.0000000000
10
-0.5367157562
20
-56.0536967949
30
0.0000000000
10
-0.3593137002
20
-55.6950094861
30
0.0000000000
10
-0.0584081505
20
-54.9141694241
30
0.0000000000
10
0.2575022694
20
-53.6623410464
30
0.0000000000
10
0.4675907999
20
-52.3263649941
30
0.0000000000
10
0.5430884819
20
-51.4106527536
30
0.0000000000
10
0.5645905387
20
-50.9493322630
30
0.0000000000
11
-0.5367157562
21
-56.0536967949
31
0.0000000000
11
-0.0925689783
21
-54.9384002807
31
0.0000000000
11
0.2329471134
21
-53.6810700870
31
0.0000000000
11
0.4500967365
21
-52.3300572795
31
0.0000000000
11
0.5645905387
21
-50.9493322630
31
0.0000000000
0
SPLINE
5
334
100
AcDbEntity
8
0
100
AcDbSpline
62
9
6
CONTINUOUS
70
0
71
3
72
10
73
6
74
4
42
0.0000001000
43
0.0000001000
44
0.0000000001
12
-1.5718944827
22
-0.0220988858
32
0.0000000000
13
-1.5719394458
23
-0.0186280493
33
0.0000000000
40
0.0000000000
40
0.0000000000
40
0.0000000000
40
0.0000000000
40
0.3325911015
40
0.6664051751
40
1.0000000000
40
1.0000000000
40
1.0000000000
40
1.0000000000
10
3.4498941927
20
-79.6738045758
30
0.0000000000
10
3.2756281535
20
-79.6762545400
30
0.0000000000
10
2.9264534205
20
-79.6810321389
30
0.0000000000
10
2.4024806893
20
-79.6878162067
30
0.0000000000
10
2.0527734072
20
-79.6920889008
30
0.0000000000
10
1.8779764525
20
-79.6941603078
30
0.0000000000
11
3.4498941927
21
-79.6738045758
31
0.0000000000
11
2.9270933698
21
-79.6809594412
31
0.0000000000
11
2.4023650037
21
-79.6877538890
31
0.0000000000
11
1.8779764525
21
-79.6941603078
31
0.0000000000
0
SPLINE
5
335
100
AcDbEntity
8
0
100
AcDbSpline
62
9
6
CONTINUOUS
70
0
71
3
72
18
73
14
74
12
42
0.0000001000
43
0.0000001000
44
0.0000000001
12
-0.0313995048
22
-2.4548271016
32
0.0000000000
13
-2.4547856788
23
-0.0344862141
33
0.0000000000
40
0.0000000000
40
0.0000000000
40
0.0000000000
40
0.0000000000
40
0.0537477512
40
0.1118617595
40
0.1757963827
40
0.2462082954
40
0.3239563241
40
0.4098215665
40
0.5044782538
40
0.6089868068
40
0.7251503553
40
0.8546486634
40
1.0000000000
40
1.0000000000
40
1.0000000000
40
1.0000000000
10
5.0641807568
20
-78.1445282555
30
0.0000000000
10
5.0636182059
20
-78.1885087342
30
0.0000000000
10
5.0581916045
20
-78.2800417466
30
0.0000000000
10
5.0359539577
20
-78.4224016459
30
0.0000000000
10
4.9956807938
20
-78.5749797918
30
0.0000000000
10
4.9328203790
20
-78.7371792737
30
0.0000000000
10
4.8423826595
20
-78.9065623546
30
0.0000000000
10
4.7190966948
20
-79.0790240124
30
0.0000000000
10
4.5577164721
20
-79.2485713757
30
0.0000000000
10
4.3529526260
20
-79.4073197326
30
0.0000000000
10
4.0997210515
20
-79.5444282095
30
0.0000000000
10
3.7941385839
20
-79.6450747655
30
0.0000000000
10
3.5688296525
20
-79.6721337033
30
0.0000000000
10
3.4498941927
20
-79.6738045758
30
0.0000000000
11
5.0641807568
21
-78.1445282555
31
0.0000000000
11
5.0563894644
21
-78.2762502603
31
0.0000000000
11
5.0344002419
21
-78.4172170453
31
0.0000000000
11
4.9943853210
21
-78.5689920462
31
0.0000000000
11
4.9319808228
21
-78.7301980267
31
0.0000000000
11
4.8421608536
21
-78.8986174341
31
0.0000000000
11
4.7196652296
21
-79.0701753617
31
0.0000000000
11
4.5595524081
21
-79.2385991839
31
0.0000000000
11
4.3568682719
21
-79.3959142544
31
0.0000000000
11
4.1061593177
21
-79.5318383656
31
0.0000000000
11
3.8041948258
21
-79.6312959873
31
0.0000000000
11
3.4498941927
21
-79.6738045758
31
0.0000000000
0
SPLINE
5
336
100
AcDbEntity
8
0
100
AcDbSpline
62
9
6
CONTINUOUS
70
0
71
3
72
10
73
6
74
4
42
0.0000001000
43
0.0000001000
44
0.0000000001
12
-0.1435014453
22
-10.5807042753
32
0.0000000000
13
-0.1352566384
23
-10.5808128852
33
0.0000000000
40
0.0000000000
40
0.0000000000
40
0.0000000000
40
0.0000000000
40
0.3160227592
40
0.6508231508
40
1.0000000000
40
1.0000000000
40
1.0000000000
40
1.0000000000
10
5.2038586140
20
-67.5132750544
30
0.0000000000
10
5.1887420397
20
-68.6278561741
30
0.0000000000
10
5.1580636514
20
-70.9232514104
30
0.0000000000
10
5.1116802697
20
-74.4501722303
30
0.0000000000
10
5.0805689244
20
-76.8625138134
30
0.0000000000
10
5.0648260955
20
-78.0940387819
30
0.0000000000
11
5.2038586140
21
-67.5132750544
31
0.0000000000
11
5.1590645594
21
-70.8570259036
31
0.0000000000
11
5.1124941732
21
-74.3994695223
31
0.0000000000
11
5.0648260955
21
-78.0940387819
31
0.0000000000
0
SPLINE
5
337
100
AcDbEntity
8
0
100
AcDbSpline
62
9
6
CONTINUOUS
70
0
71
3
72
8
73
4
74
2
42
0.0000001000
43
0.0000001000
44
0.0000000001
12
-0.0006454170
22
-0.0504894726
32
0.0000000000
13
-0.0006452605
23
-0.0504894746
33
0.0000000000
40
0.0000000000
40
0.0000000000
40
0.0000000000
40
0.0000000000
40
1.0000000000
40
1.0000000000
40
1.0000000000
40
1.0000000000
10
5.0648260955
20
-78.0940387819
30
0.0000000000
10
5.0646109565
20
-78.1108686061
30
0.0000000000
10
5.0643958436
20
-78.1276984306
30
0.0000000000
10
5.0641807568
20
-78.1445282555
30
0.0000000000
11
5.0648260955
21
-78.0940387819
31
0.0000000000
11
5.0641807568
21
-78.1445282555
31
0.0000000000
0
SPLINE
5
338
100
AcDbEntity
8
0
100
AcDbSpline
62
9
6
CONTINUOUS
70
0
71
3
72
21
73
17
74
15
42
0.0000001000
43
0.0000001000
44
0.0000000001
12
-6.7881531356
22
15.8262080235
32
0.0000000000
13
-3.7645136255
23
16.8040566697
33
0.0000000000
40
0.0000000000
40
0.0000000000
40
0.0000000000
40
0.0000000000
40
0.0547152276
40
0.1127170248
40
0.1739338482
40
0.2358433899
40
0.2973119579
40
0.3591861162
40
0.4225697547
40
0.4885380872
40
0.5581743837
40
0.6325710200
40
0.7128276145
40
0.8000521364
40
0.8953654951
40
1.0000000000
40
1.0000000000
40
1.0000000000
40
1.0000000000
10
-25.8567847128
20
50.7540631256
30
0.0000000000
10
-25.9805898274
20
51.0427079837
30
0.0000000000
10
-26.2257952541
20
51.6416188917
30
0.0000000000
10
-26.5729210984
20
52.5778965137
30
0.0000000000
10
-26.9097626845
20
53.5616177303
30
0.0000000000
10
-27.2332216542
20
54.5707059676
30
0.0000000000
10
-27.5423984846
20
55.5881832974
30
0.0000000000
10
-27.8414416301
20
56.6174895529
30
0.0000000000
10
-28.1368042979
20
57.6746960762
30
0.0000000000
10
-28.4342568905
20
58.7775300471
30
0.0000000000
10
-28.7387887841
20
59.9438879984
30
0.0000000000
10
-29.0548547126
20
61.1919641106
30
0.0000000000
10
-29.3864875528
20
62.5402106064
30
0.0000000000
10
-29.7373865957
20
64.0073306241
30
0.0000000000
10
-30.1111118030
20
65.6128399042
30
0.0000000000
10
-30.3649130401
20
66.7321720943
30
0.0000000000
10
-30.4962123799
20
67.3182668111
30
0.0000000000
11
-25.8567847128
21
50.7540631256
31
0.0000000000
11
-26.2138735427
21
51.6260032681
31
0.0000000000
11
-26.5626656328
21
52.5619482348
31
0.0000000000
11
-26.9052049001
21
53.5589336337
31
0.0000000000
11
-27.2314061971
21
54.5739207651
31
0.0000000000
11
-27.5396554973
21
55.5865679883
31
0.0000000000
11
-27.8372841087
21
56.6096635499
31
0.0000000000
11
-28.1312669499
21
57.6608300205
31
0.0000000000
11
-28.4273400046
21
58.7575815964
31
0.0000000000
11
-28.7305067300
21
59.9178031377
31
0.0000000000
11
-29.0452329880
21
61.1596961481
31
0.0000000000
11
-29.3755565574
21
62.5017047651
31
0.0000000000
11
-29.7251744689
21
63.9625053578
31
0.0000000000
11
-30.0975246620
21
65.5610625241
31
0.0000000000
11
-30.4962123799
21
67.3182668111
31
0.0000000000
0
SPLINE
5
339
100
AcDbEntity
8
0
100
AcDbSpline
62
9
6
CONTINUOUS
70
0
71
3
72
10
73
6
74
4
42
0.0000001000
43
0.0000001000
44
0.0000000001
12
0.0000000000
22
-101.7031758311
32
0.0000000000
13
0.0000000000
23
-101.7031758311
33
0.0000000000
40
0.0000000000
40
0.0000000000
40
0.0000000000
40
0.0000000000
40
0.3333033532
40
0.6666366717
40
1.0000000000
40
1.0000000000
40
1.0000000000
40
1.0000000000
10
-25.8567847128
20
50.7540631256
30
0.0000000000
10
-25.8567847128
20
39.4547266151
30
0.0000000000
10
-25.8567873883
20
16.8550377346
30
0.0000000000
10
-25.8567783841
20
-17.0460208757
30
0.0000000000
10
-25.8567997215
20
-39.6477429756
30
0.0000000000
10
-25.8567997215
20
-50.9491127055
30
0.0000000000
11
-25.8567847128
21
50.7540631256
31
0.0000000000
11
-25.8567852189
21
16.8560535942
31
0.0000000000
11
-25.8567852189
21
-17.0450035158
31
0.0000000000
11
-25.8567997215
21
-50.9491127055
31
0.0000000000
0
SPLINE
5
33A
100
AcDbEntity
8
0
100
AcDbSpline
62
9
6
CONTINUOUS
70
0
71
3
72
20
73
16
74
14
42
0.0000001000
43
0.0000001000
44
0.0000000001
12
3.7645779335
22
16.8040185125
32
0.0000000000
13
6.7933008431
23
15.8239738638
33
0.0000000000
40
0.0000000000
40
0.0000000000
40
0.0000000000
40
0.0000000000
40
0.1137263578
40
0.2200423103
40
0.3193670927
40
0.4122572975
40
0.4992122659
40
0.5803536994
40
0.6554700393
40
0.7245666684
40
0.7882807208
40
0.8475325103
40
0.9027985566
40
0.9539446334
40
1.0000000000
40
1.0000000000
40
1.0000000000
40
1.0000000000
10
-30.4962126650
20
-67.5132838520
30
0.0000000000
10
-30.3535020860
20
-66.8762639112
30
0.0000000000
10
-30.0739311933
20
-65.6445005526
30
0.0000000000
10
-29.6567327859
20
-63.8593654238
30
0.0000000000
10
-29.2550086914
20
-62.1934811231
30
0.0000000000
10
-28.8672176204
20
-60.6386059272
30
0.0000000000
10
-28.4921096624
20
-59.1881952890
30
0.0000000000
10
-28.1294612719
20
-57.8400082138
30
0.0000000000
10
-27.7798229520
20
-56.5945508408
30
0.0000000000
10
-27.4430501512
20
-55.4494738392
30
0.0000000000
10
-27.1169810460
20
-54.3962788904
30
0.0000000000
10
-26.7981631171
20
-53.4240797312
30
0.0000000000
10
-26.4835896061
20
-52.5265955899
30
0.0000000000
10
-26.1739416577
20
-51.7078962150
30
0.0000000000
10
-25.9610890417
20
-51.1920390112
30
0.0000000000
10
-25.8567997215
20
-50.9491127055
30
0.0000000000
11
-30.4962126650
21
-67.5132838520
31
0.0000000000
11
-30.0624119925
21
-65.6035028684
31
0.0000000000
11
-29.6454376257
21
-63.8208003354
31
0.0000000000
11
-29.2441215480
21
-62.1581203608
31
0.0000000000
11
-28.8566613476
21
-60.6061352273
31
0.0000000000
11
-28.4813338029
21
-59.1565245455
31
0.0000000000
11
-28.1179312065
21
-57.8073083051
31
0.0000000000
11
-27.7678163659
21
-56.5620468841
31
0.0000000000
11
-27.4315261694
21
-55.4206763281
31
0.0000000000
11
-27.1063992684
21
-54.3727643095
31
0.0000000000
11
-26.7876586463
21
-53.4034788102
31
0.0000000000
11
-26.4719762450
21
-52.5056486371
31
0.0000000000
11
-26.1593265575
21
-51.6822447428
31
0.0000000000
11
-25.8567997215
21
-50.9491127055
31
0.0000000000
0
SPLINE
5
33B
100
AcDbEntity
8
0
100
AcDbSpline
62
9
6
CONTINUOUS
70
0
71
3
72
13
73
9
74
7
42
0.0000001000
43
0.0000001000
44
0.0000000001
12
29.0482661351
22
0.1167489154
32
0.0000000000
13
29.0482661656
23
-0.1167413127
33
0.0000000000
40
0.0000000000
40
0.0000000000
40
0.0000000000
40
0.0000000000
40
0.1490961835
40
0.3116697325
40
0.4887488927
40
0.6754631278
40
0.8478176230
40
1.0000000000
40
1.0000000000
40
1.0000000000
40
1.0000000000
10
-27.1703304549
20
79.4991677544
30
0.0000000000
10
-25.7266685825
20
79.5049700269
30
0.0000000000
10
-22.7088528733
20
79.5185991842
30
0.0000000000
10
-17.9764317852
20
79.5408870291
30
0.0000000000
10
-12.8797115947
20
79.5535708569
30
0.0000000000
10
-7.6882770166
20
79.5426355691
30
0.0000000000
10
-2.7379728848
20
79.5193123884
30
0.0000000000
10
0.4044317363
20
79.5050897527
30
0.0000000000
10
1.8779764673
20
79.4991677625
30
0.0000000000
11
-27.1703304549
21
79.4991677544
31
0.0000000000
11
-22.8393514271
21
79.5181433699
31
0.0000000000
11
-18.1168776668
21
79.5385521375
31
0.0000000000
11
-12.9730052070
21
79.5495036279
31
0.0000000000
11
-7.5492451221
21
79.5398936944
31
0.0000000000
11
-2.5426509064
21
79.5185564805
31
0.0000000000
11
1.8779764673
21
79.4991677625
31
0.0000000000
0
SPLINE
5
33C
100
AcDbEntity
8
0
100
AcDbSpline
62
9
6
CONTINUOUS
70
0
71
3
72
19
73
15
74
13
42
0.0000001000
43
0.0000001000
44
0.0000000001
12
-3.1602121973
22
-23.5571086021
32
0.0000000000
13
-1.7619416896
23
-23.7027396793
33
0.0000000000
40
0.0000000000
40
0.0000000000
40
0.0000000000
40
0.0000000000
40
0.1211904195
40
0.2334601409
40
0.3376367773
40
0.4346052568
40
0.5248931952
40
0.6088265630
40
0.6868071389
40
0.7593571178
40
0.8269766254
40
0.8897429142
40
0.9473564031
40
1.0000000000
40
1.0000000000
40
1.0000000000
40
1.0000000000
10
1.8779764673
20
79.4991677625
30
0.0000000000
10
1.7503139867
20
78.5475358045
30
0.0000000000
10
1.5096644342
20
76.7136061902
30
0.0000000000
10
1.1784526479
20
74.0591732881
30
0.0000000000
10
0.8871794701
20
71.5932019381
30
0.0000000000
10
0.6316566949
20
69.2984268953
30
0.0000000000
10
0.4081613738
20
67.1615081019
30
0.0000000000
10
0.2133684686
20
65.1728888575
30
0.0000000000
10
0.0439699372
20
63.3230269996
30
0.0000000000
10
-0.1033976443
20
61.6009715363
30
0.0000000000
10
-0.2318112718
20
59.9982993782
30
0.0000000000
10
-0.3440079158
20
58.5130627929
30
0.0000000000
10
-0.4429393448
20
57.1458228112
30
0.0000000000
10
-0.5057634014
20
56.2745488598
30
0.0000000000
10
-0.5366817174
20
55.8586163690
30
0.0000000000
11
1.8779764673
21
79.4991677625
31
0.0000000000
11
1.5036035013
21
76.6431294725
31
0.0000000000
11
1.1735194332
21
73.9951816859
31
0.0000000000
11
0.8833171254
21
71.5361621499
31
0.0000000000
11
0.6284431690
21
69.2455381901
31
0.0000000000
11
0.4053462621
21
67.1111903020
31
0.0000000000
11
0.2109408019
21
65.1257455024
31
0.0000000000
11
0.0419434034
21
63.2800131905
31
0.0000000000
11
-0.1051229082
21
61.5619182382
31
0.0000000000
11
-0.2336202999
21
59.9598735794
31
0.0000000000
11
-0.3462645086
21
58.4722946606
31
0.0000000000
11
-0.4457212857
21
57.1065459392
31
0.0000000000
11
-0.5366817174
21
55.8586163690
31
0.0000000000
0
SPLINE
5
33D
100
AcDbEntity
8
0
100
AcDbSpline
62
9
6
CONTINUOUS
70
0
71
3
72
20
73
16
74
14
42
0.0000001000
43
0.0000001000
44
0.0000000001
12
-12.2972486191
22
28.0913417500
32
0.0000000000
13
-12.2968001211
23
-28.0915380799
33
0.0000000000
40
0.0000000000
40
0.0000000000
40
0.0000000000
40
0.0000000000
40
0.0759885513
40
0.1527608262
40
0.2294570057
40
0.3064866561
40
0.3839016181
40
0.4612987871
40
0.5384557052
40
0.6158518794
40
0.6932701120
40
0.7702992173
40
0.8469930689
40
0.9237897856
40
1.0000000000
40
1.0000000000
40
1.0000000000
40
1.0000000000
10
-0.5366817174
20
55.8586163690
30
0.0000000000
10
-0.8481650865
20
56.5701564902
30
0.0000000000
10
-1.5966833217
20
57.9506252374
30
0.0000000000
10
-3.0612506491
20
59.7977762887
30
0.0000000000
10
-4.8411932556
20
61.3609803559
30
0.0000000000
10
-6.8767179542
20
62.5852725739
30
0.0000000000
10
-9.1056922775
20
63.4272991423
30
0.0000000000
10
-11.4506905123
20
63.8568347452
30
0.0000000000
10
-13.8345866308
20
63.8575291705
30
0.0000000000
10
-16.1798219215
20
63.4291541165
30
0.0000000000
10
-18.4092933188
20
62.5883947866
30
0.0000000000
10
-20.4454322244
20
61.3651133977
30
0.0000000000
10
-22.2264219622
20
59.8027723295
30
0.0000000000
10
-23.6934610565
20
57.9543726893
30
0.0000000000
10
-24.4434789928
20
56.5717782163
30
0.0000000000
10
-24.7558595842
20
55.8581575026
30
0.0000000000
11
-0.5366817174
21
55.8586163690
31
0.0000000000
11
-1.6488926435
21
57.9062462075
31
0.0000000000
11
-3.1131764064
21
59.7496817213
31
0.0000000000
11
-4.8801076489
21
61.3018910569
31
0.0000000000
11
-6.9043585004
21
62.5192707714
31
0.0000000000
11
-9.1250216860
21
63.3584484725
31
0.0000000000
11
-11.4596507796
21
63.7856263424
31
0.0000000000
11
-13.8256720887
21
63.7862816431
31
0.0000000000
11
-16.1604946241
21
63.3603322758
31
0.0000000000
11
-18.3817102846
21
62.5223338416
31
0.0000000000
11
-20.4065796887
21
61.3060157085
31
0.0000000000
11
-22.1743060031
21
59.7548201240
31
0.0000000000
11
-23.6399712413
21
57.9115251313
31
0.0000000000
11
-24.7558595842
21
55.8581575026
31
0.0000000000
0
SPLINE
5
33E
100
AcDbEntity
8
0
100
AcDbSpline
62
9
6
CONTINUOUS
70
0
71
3
72
21
73
17
74
15
42
0.0000001000
43
0.0000001000
44
0.0000000001
12
-1.7676992402
22
23.7027628544
32
0.0000000000
13
-3.1602771643
23
23.5575545374
33
0.0000000000
40
0.0000000000
40
0.0000000000
40
0.0000000000
40
0.0000000000
40
0.0460285593
40
0.0923797698
40
0.1399903200
40
0.1897088517
40
0.2424073299
40
0.2989677887
40
0.3602808876
40
0.4272474406
40
0.5007809504
40
0.5818098310
40
0.6712782418
40
0.7701444505
40
0.8793766790
40
1.0000000000
40
1.0000000000
40
1.0000000000
40
1.0000000000
10
-24.7558595842
20
55.8581575026
30
0.0000000000
10
-24.7829811339
20
56.2218255108
30
0.0000000000
10
-24.8353536294
20
56.9518628131
30
0.0000000000
10
-24.9153167287
20
58.0581002255
30
0.0000000000
10
-24.9993739498
20
59.1933530178
30
0.0000000000
10
-25.0907880739
20
60.3784826632
30
0.0000000000
10
-25.1922820460
20
61.6339467383
30
0.0000000000
10
-25.3068595699
20
62.9805040644
30
0.0000000000
10
-25.4378024373
20
64.4391067757
30
0.0000000000
10
-25.5888045159
20
66.0309057797
30
0.0000000000
10
-25.7640150937
20
67.7772909867
30
0.0000000000
10
-25.9680686250
20
69.6999266021
30
0.0000000000
10
-26.2060698041
20
71.8207572824
30
0.0000000000
10
-26.4835309916
20
74.1619701787
30
0.0000000000
10
-26.8063006605
20
76.7463258639
30
0.0000000000
10
-27.0432627459
20
78.5519709332
30
0.0000000000
10
-27.1703304549
20
79.4991677544
30
0.0000000000
11
-24.7558595842
21
55.8581575026
31
0.0000000000
11
-24.8352688319
21
56.9493055947
31
0.0000000000
11
-24.9149134989
21
58.0481257548
31
0.0000000000
11
-24.9987063309
21
59.1766547416
31
0.0000000000
11
-25.0896747457
21
60.3548874815
31
0.0000000000
11
-25.1906631041
21
61.6033781151
31
0.0000000000
11
-25.3046627702
21
62.9428980888
31
0.0000000000
11
-25.4349642793
21
64.3943869042
31
0.0000000000
11
-25.5852534665
21
65.9789761684
31
0.0000000000
11
-25.7596704103
21
67.7180392247
31
0.0000000000
11
-25.9628365807
21
69.6332353201
31
0.0000000000
11
-26.1998430354
21
71.7465243550
31
0.0000000000
11
-26.4761885463
21
74.0801289815
31
0.0000000000
11
-26.7976606425
21
76.6564455735
31
0.0000000000
11
-27.1703304549
21
79.4991677544
31
0.0000000000
0
SPLINE
5
33F
100
AcDbEntity
8
0
100
AcDbSpline
62
7
6
CONTINUOUS
70
0
71
3
72
10
73
6
74
4
42
0.0000001000
43
0.0000001000
44
0.0000000001
12
0.0297587042
22
0.4355461528
32
0.0000000000
13
0.0000000000
23
0.4365616012
33
0.0000000000
40
0.0000000000
40
0.0000000000
40
0.0000000000
40
0.0000000000
40
0.3325248320
40
0.6659779420
40
1.0000000000
40
1.0000000000
40
1.0000000000
40
1.0000000000
10
-71.1949614498
20
27.0662713796
30
0.0000000000
10
-71.1916629471
20
27.1145480167
30
0.0000000000
10
-71.1861533733
20
27.2113147322
30
0.0000000000
10
-71.1811831874
20
27.3567616701
30
0.0000000000
10
-71.1800765413
20
27.4538967957
30
0.0000000000
10
-71.1800765413
20
27.5025038639
30
0.0000000000
11
-71.1949614498
21
27.0662713796
31
0.0000000000
11
-71.1867094059
21
27.2112042194
31
0.0000000000
11
-71.1817377807
21
27.3566921224
31
0.0000000000
11
-71.1800765413
21
27.5025038639
31
0.0000000000
0
SPLINE
5
340
100
AcDbEntity
8
0
100
AcDbSpline
62
7
6
CONTINUOUS
70
0
71
3
72
17
73
13
74
11
42
0.0000001000
43
0.0000001000
44
0.0000000001
12
0.5856061843
22
1.6275478438
32
0.0000000000
13
0.1337048515
23
1.7245201071
33
0.0000000000
40
0.0000000000
40
0.0000000000
40
0.0000000000
40
0.0000000000
40
0.0933135567
40
0.1869625310
40
0.2806278973
40
0.3739955120
40
0.4676632985
40
0.5657577764
40
0.6730315763
40
0.7880039178
40
0.9005684882
40
1.0000000000
40
1.0000000000
40
1.0000000000
40
1.0000000000
10
-71.1949614498
20
25.3162713796
30
0.0000000000
10
-71.1767464511
20
25.3668954722
30
0.0000000000
10
-71.1415216003
20
25.4687879901
30
0.0000000000
10
-71.0925076864
20
25.6230028314
30
0.0000000000
10
-71.0473770951
20
25.7784320256
30
0.0000000000
10
-71.0061571403
20
25.9349545431
30
0.0000000000
10
-70.9682861328
20
26.0949466618
30
0.0000000000
10
-70.9328918198
20
26.2637085279
30
0.0000000000
10
-70.8999611880
20
26.4454721410
30
0.0000000000
10
-70.8712087093
20
26.6363904070
30
0.0000000000
10
-70.8488187144
20
26.8236026940
30
0.0000000000
10
-70.8377493892
20
26.9453466501
30
0.0000000000
10
-70.8333178974
20
27.0025038639
30
0.0000000000
11
-71.1949614498
21
25.3162713796
31
0.0000000000
11
-71.1422250776
21
25.4688169119
31
0.0000000000
11
-71.0931598991
21
25.6231914335
31
0.0000000000
11
-71.0479832225
21
25.7787778691
31
0.0000000000
11
-71.0068549747
21
25.9349506073
31
0.0000000000
11
-70.9695356191
21
26.0926106631
31
0.0000000000
11
-70.9347074798
21
26.2586712666
31
0.0000000000
11
-70.9016287911
21
26.4412499565
31
0.0000000000
11
-70.8720127394
21
26.6378994680
31
0.0000000000
11
-70.8488914041
21
26.8312241723
31
0.0000000000
11
-70.8333178974
21
27.0025038639
31
0.0000000000
0
SPLINE
5
341
100
AcDbEntity
8
0
100
AcDbSpline
62
7
6
CONTINUOUS
70
0
71
3
72
17
73
13
74
11
42
0.0000001000
43
0.0000001000
44
0.0000000001
12
-0.1337048561
22
1.7245201662
32
0.0000000000
13
-0.5856062043
23
1.6275478996
33
0.0000000000
40
0.0000000000
40
0.0000000000
40
0.0000000000
40
0.0000000000
40
0.0977983849
40
0.2091757470
40
0.3238150930
40
0.4318829827
40
0.5312833647
40
0.6259902922
40
0.7196091194
40
0.8130413084
40
0.9064514539
40
1.0000000000
40
1.0000000000
40
1.0000000000
40
1.0000000000
10
-70.8333178974
20
28.0025038639
30
0.0000000000
10
-70.8376766037
20
28.0587222929
30
0.0000000000
10
-70.8485723812
20
28.1788484397
30
0.0000000000
10
-70.8706359037
20
28.3642678443
30
0.0000000000
10
-70.8991736747
20
28.5547947488
30
0.0000000000
10
-70.9321511006
20
28.7375857615
30
0.0000000000
10
-70.9678391058
20
28.9081360849
30
0.0000000000
10
-71.0060319357
20
29.0695908781
30
0.0000000000
10
-71.0474118499
20
29.2267017407
30
0.0000000000
10
-71.0925119378
20
29.3820071305
30
0.0000000000
10
-71.1414796433
20
29.5360931493
30
0.0000000000
10
-71.1767005801
20
29.6379847683
30
0.0000000000
10
-71.1949614498
20
29.6887363482
30
0.0000000000
11
-70.8333178974
21
28.0025038639
31
0.0000000000
11
-70.8485988140
21
28.1709736959
31
0.0000000000
11
-70.8713623099
21
28.3622730261
31
0.0000000000
11
-70.9007358025
21
28.5583765344
31
0.0000000000
11
-70.9339235805
21
28.7423313091
31
0.0000000000
11
-70.9691384476
21
28.9106187529
31
0.0000000000
11
-71.0068490134
21
29.0700332760
31
0.0000000000
11
-71.0480926007
21
29.2266249816
31
0.0000000000
11
-71.0931618279
21
29.3818226380
31
0.0000000000
11
-71.1420970992
21
29.5358049895
31
0.0000000000
11
-71.1949614498
21
29.6887363482
31
0.0000000000
0
SPLINE
5
342
100
AcDbEntity
8
0
100
AcDbSpline
62
7
6
CONTINUOUS
70
0
71
3
72
10
73
6
74
4
42
0.0000001000
43
0.0000001000
44
0.0000000001
12
0.0000000000
22
0.4365616012
32
0.0000000000
13
-0.0297587042
23
0.4355461528
33
0.0000000000
40
0.0000000000
40
0.0000000000
40
0.0000000000
40
0.0000000000
40
0.3340520698
40
0.6675125366
40
1.0000000000
40
1.0000000000
40
1.0000000000
40
1.0000000000
10
-71.1800765413
20
27.5025038639
30
0.0000000000
10
-71.1800765413
20
27.5511152994
30
0.0000000000
10
-71.1811833488
20
27.6482558638
30
0.0000000000
10
-71.1861538691
20
27.7937027910
30
0.0000000000
10
-71.1916633177
20
27.8904651364
30
0.0000000000
10
-71.1949614498
20
27.9387363482
30
0.0000000000
11
-71.1800765413
21
27.5025038639
31
0.0000000000
11
-71.1817380793
21
27.6483287048
31
0.0000000000
11
-71.1867101485
21
27.7938198062
31
0.0000000000
11
-71.1949614498
21
27.9387363482
31
0.0000000000
0
SPLINE
5
343
100
AcDbEntity
8
0
100
AcDbSpline
62
7
6
CONTINUOUS
70
0
71
3
72
10
73
6
74
4
42
0.0000001000
43
0.0000001000
44
0.0000000001
12
0.0297587042
22
0.4355461528
32
0.0000000000
13
-0.0000000000
23
0.4365616012
33
0.0000000000
40
0.0000000000
40
0.0000000000
40
0.0000000000
40
0.0000000000
40
0.3325248320
40
0.6659779420
40
1.0000000000
40
1.0000000000
40
1.0000000000
40
1.0000000000
10
-71.1949614498
20
-28.1337286204
30
0.0000000000
10
-71.1916629471
20
-28.0854519833
30
0.0000000000
10
-71.1861533733
20
-27.9886852678
30
0.0000000000
10
-71.1811831874
20
-27.8432383299
30
0.0000000000
10
-71.1800765413
20
-27.7461032043
30
0.0000000000
10
-71.1800765413
20
-27.6974961361
30
0.0000000000
11
-71.1949614498
21
-28.1337286204
31
0.0000000000
11
-71.1867094059
21
-27.9887957806
31
0.0000000000
11
-71.1817377807
21
-27.8433078776
31
0.0000000000
11
-71.1800765413
21
-27.6974961361
31
0.0000000000
0
SPLINE
5
344
100
AcDbEntity
8
0
100
AcDbSpline
62
7
6
CONTINUOUS
70
0
71
3
72
17
73
13
74
11
42
0.0000001000
43
0.0000001000
44
0.0000000001
12
0.5856061843
22
1.6275478438
32
0.0000000000
13
0.1337048515
23
1.7245201071
33
0.0000000000
40
0.0000000000
40
0.0000000000
40
0.0000000000
40
0.0000000000
40
0.0933135567
40
0.1869625310
40
0.2806278973
40
0.3739955120
40
0.4676632985
40
0.5657577764
40
0.6730315763
40
0.7880039178
40
0.9005684882
40
1.0000000000
40
1.0000000000
40
1.0000000000
40
1.0000000000
10
-71.1949614498
20
-29.8837286204
30
0.0000000000
10
-71.1767464511
20
-29.8331045278
30
0.0000000000
10
-71.1415216003
20
-29.7312120099
30
0.0000000000
10
-71.0925076864
20
-29.5769971686
30
0.0000000000
10
-71.0473770951
20
-29.4215679744
30
0.0000000000
10
-71.0061571403
20
-29.2650454569
30
0.0000000000
10
-70.9682861328
20
-29.1050533382
30
0.0000000000
10
-70.9328918198
20
-28.9362914721
30
0.0000000000
10
-70.8999611880
20
-28.7545278590
30
0.0000000000
10
-70.8712087093
20
-28.5636095930
30
0.0000000000
10
-70.8488187144
20
-28.3763973060
30
0.0000000000
10
-70.8377493892
20
-28.2546533499
30
0.0000000000
10
-70.8333178974
20
-28.1974961361
30
0.0000000000
11
-71.1949614498
21
-29.8837286204
31
0.0000000000
11
-71.1422250776
21
-29.7311830881
31
0.0000000000
11
-71.0931598991
21
-29.5768085665
31
0.0000000000
11
-71.0479832225
21
-29.4212221309
31
0.0000000000
11
-71.0068549747
21
-29.2650493927
31
0.0000000000
11
-70.9695356191
21
-29.1073893369
31
0.0000000000
11
-70.9347074798
21
-28.9413287334
31
0.0000000000
11
-70.9016287911
21
-28.7587500435
31
0.0000000000
11
-70.8720127394
21
-28.5621005320
31
0.0000000000
11
-70.8488914041
21
-28.3687758277
31
0.0000000000
11
-70.8333178974
21
-28.1974961361
31
0.0000000000
0
SPLINE
5
345
100
AcDbEntity
8
0
100
AcDbSpline
62
7
6
CONTINUOUS
70
0
71
3
72
17
73
13
74
11
42
0.0000001000
43
0.0000001000
44
0.0000000001
12
-0.1337048561
22
1.7245201662
32
0.0000000000
13
-0.5856062043
23
1.6275478996
33
0.0000000000
40
0.0000000000
40
0.0000000000
40
0.0000000000
40
0.0000000000
40
0.0977983849
40
0.2091757470
40
0.3238150930
40
0.4318829827
40
0.5312833647
40
0.6259902922
40
0.7196091194
40
0.8130413084
40
0.9064514539
40
1.0000000000
40
1.0000000000
40
1.0000000000
40
1.0000000000
10
-70.8333178974
20
-27.1974961361
30
0.0000000000
10
-70.8376766037
20
-27.1412777071
30
0.0000000000
10
-70.8485723812
20
-27.0211515603
30
0.0000000000
10
-70.8706359037
20
-26.8357321557
30
0.0000000000
10
-70.8991736747
20
-26.6452052512
30
0.0000000000
10
-70.9321511006
20
-26.4624142385
30
0.0000000000
10
-70.9678391058
20
-26.2918639151
30
0.0000000000
10
-71.0060319357
20
-26.1304091219
30
0.0000000000
10
-71.0474118499
20
-25.9732982593
30
0.0000000000
10
-71.0925119378
20
-25.8179928695
30
0.0000000000
10
-71.1414796433
20
-25.6639068507
30
0.0000000000
10
-71.1767005801
20
-25.5620152317
30
0.0000000000
10
-71.1949614498
20
-25.5112636518
30
0.0000000000
11
-70.8333178974
21
-27.1974961361
31
0.0000000000
11
-70.8485988140
21
-27.0290263041
31
0.0000000000
11
-70.8713623099
21
-26.8377269739
31
0.0000000000
11
-70.9007358025
21
-26.6416234656
31
0.0000000000
11
-70.9339235805
21
-26.4576686909
31
0.0000000000
11
-70.9691384476
21
-26.2893812471
31
0.0000000000
11
-71.0068490134
21
-26.1299667240
31
0.0000000000
11
-71.0480926007
21
-25.9733750184
31
0.0000000000
11
-71.0931618279
21
-25.8181773620
31
0.0000000000
11
-71.1420970992
21
-25.6641950105
31
0.0000000000
11
-71.1949614498
21
-25.5112636518
31
0.0000000000
0
SPLINE
5
346
100
AcDbEntity
8
0
100
AcDbSpline
62
7
6
CONTINUOUS
70
0
71
3
72
10
73
6
74
4
42
0.0000001000
43
0.0000001000
44
0.0000000001
12
0.0000000000
22
0.4365616012
32
0.0000000000
13
-0.0297587042
23
0.4355461528
33
0.0000000000
40
0.0000000000
40
0.0000000000
40
0.0000000000
40
0.0000000000
40
0.3340520698
40
0.6675125366
40
1.0000000000
40
1.0000000000
40
1.0000000000
40
1.0000000000
10
-71.1800765413
20
-27.6974961361
30
0.0000000000
10
-71.1800765413
20
-27.6488847006
30
0.0000000000
10
-71.1811833488
20
-27.5517441362
30
0.0000000000
10
-71.1861538691
20
-27.4062972090
30
0.0000000000
10
-71.1916633177
20
-27.3095348636
30
0.0000000000
10
-71.1949614498
20
-27.2612636518
30
0.0000000000
11
-71.1800765413
21
-27.6974961361
31
0.0000000000
11
-71.1817380793
21
-27.5516712952
31
0.0000000000
11
-71.1867101485
21
-27.4061801938
31
0.0000000000
11
-71.1949614498
21
-27.2612636518
31
0.0000000000
0
SPLINE
5
347
100
AcDbEntity
8
0
100
AcDbSpline
62
7
6
CONTINUOUS
70
0
71
3
72
16
73
12
74
10
42
0.0000001000
43
0.0000001000
44
0.0000000001
12
2.6463977097
22
-4.5836952902
32
0.0000000000
13
-2.6463977097
23
-4.5836952902
33
0.0000000000
40
0.0000000000
40
0.0000000000
40
0.0000000000
40
0.0000000000
40
0.1290225300
40
0.2437120992
40
0.3494905390
40
0.4503991969
40
0.5497473914
40
0.6506304650
40
0.7563683177
40
0.8709887500
40
1.0000000000
40
1.0000000000
40
1.0000000000
40
1.0000000000
10
-57.3894481958
20
55.7525038639
30
0.0000000000
10
-57.2756332198
20
55.5553705428
30
0.0000000000
10
-57.0746559644
20
55.1745016952
30
0.0000000000
10
-56.8414203181
20
54.6025089105
30
0.0000000000
10
-56.6888357990
20
54.0549345936
30
0.0000000000
10
-56.6128851430
20
53.5186769748
30
0.0000000000
10
-56.6129411899
20
52.9855979384
30
0.0000000000
10
-56.6889721815
20
52.4494714008
30
0.0000000000
10
-56.8415549258
20
51.9021467470
30
0.0000000000
10
-57.0747309730
20
51.3303625088
30
0.0000000000
10
-57.2756431703
20
50.9496199503
30
0.0000000000
10
-57.3894481958
20
50.7525038639
30
0.0000000000
11
-57.3894481958
21
55.7525038639
31
0.0000000000
11
-57.0735801058
21
55.1470569999
31
0.0000000000
11
-56.8469629181
21
54.5839156674
31
0.0000000000
11
-56.6987912035
21
54.0440152689
31
0.0000000000
11
-56.6251264690
21
53.5150309202
31
0.0000000000
11
-56.6251807435
21
52.9892012543
31
0.0000000000
11
-56.6989216891
21
52.4603642461
31
0.0000000000
11
-56.8470999235
21
51.9206884033
31
0.0000000000
11
-57.0736052117
21
51.3578964865
31
0.0000000000
11
-57.3894481958
21
50.7525038639
31
0.0000000000
0
SPLINE
5
348
100
AcDbEntity
8
0
100
AcDbSpline
62
7
6
CONTINUOUS
70
0
71
3
72
16
73
12
74
10
42
0.0000001000
43
0.0000001000
44
0.0000000001
12
1.3040752823
22
4.8939033992
32
0.0000000000
13
-1.3040752823
23
4.8939033992
33
0.0000000000
40
0.0000000000
40
0.0000000000
40
0.0000000000
40
0.0000000000
40
0.1162865333
40
0.2278197449
40
0.3371339381
40
0.4457159302
40
0.5541540622
40
0.6626939261
40
0.7719489830
40
0.8834004358
40
1.0000000000
40
1.0000000000
40
1.0000000000
40
1.0000000000
10
-60.8541417459
20
50.7525038639
30
0.0000000000
10
-60.8035929480
20
50.9422022175
30
0.0000000000
10
-60.7124225123
20
51.3160196359
30
0.0000000000
10
-60.6056123713
20
51.8753356906
30
0.0000000000
10
-60.5328077533
20
52.4270471857
30
0.0000000000
10
-60.4956159084
20
52.9771169958
30
0.0000000000
10
-60.4955934547
20
53.5271608290
30
0.0000000000
10
-60.5327229578
20
54.0770631078
30
0.0000000000
10
-60.6054247368
20
54.6284761271
30
0.0000000000
10
-60.7122149133
20
55.1880916377
30
0.0000000000
10
-60.8034568761
20
55.5622948628
30
0.0000000000
10
-60.8541417459
20
55.7525038639
30
0.0000000000
11
-60.8541417459
21
50.7525038639
31
0.0000000000
11
-60.7154687550
21
51.3248984992
31
0.0000000000
11
-60.6103063639
21
51.8799023832
31
0.0000000000
11
-60.5385157423
21
52.4288686406
31
0.0000000000
11
-60.5017873330
21
52.9775729556
31
0.0000000000
11
-60.5017651309
21
53.5267765297
31
0.0000000000
11
-60.5384293671
21
54.0752712950
31
0.0000000000
11
-60.6101201466
21
54.6239485488
31
0.0000000000
11
-60.7151329440
21
55.1785593246
31
0.0000000000
11
-60.8541417459
21
55.7525038639
31
0.0000000000
0
SPLINE
5
349
100
AcDbEntity
8
0
100
AcDbSpline
62
7
6
CONTINUOUS
70
0
71
3
72
16
73
12
74
10
42
0.0000001000
43
0.0000001000
44
0.0000000001
12
2.6463977097
22
-4.5836952902
32
0.0000000000
13
-2.6463977097
23
-4.5836952902
33
0.0000000000
40
0.0000000000
40
0.0000000000
40
0.0000000000
40
0.0000000000
40
0.1290225300
40
0.2437120992
40
0.3494905390
40
0.4503991969
40
0.5497473914
40
0.6506304650
40
0.7563683177
40
0.8709887500
40
1.0000000000
40
1.0000000000
40
1.0000000000
40
1.0000000000
10
-57.3894481958
20
50.7525038639
30
0.0000000000
10
-57.2756332198
20
50.5553705428
30
0.0000000000
10
-57.0746559644
20
50.1745016952
30
0.0000000000
10
-56.8414203181
20
49.6025089105
30
0.0000000000
10
-56.6888357990
20
49.0549345936
30
0.0000000000
10
-56.6128851430
20
48.5186769748
30
0.0000000000
10
-56.6129411899
20
47.9855979384
30
0.0000000000
10
-56.6889721815
20
47.4494714008
30
0.0000000000
10
-56.8415549258
20
46.9021467470
30
0.0000000000
10
-57.0747309730
20
46.3303625088
30
0.0000000000
10
-57.2756431703
20
45.9496199503
30
0.0000000000
10
-57.3894481958
20
45.7525038639
30
0.0000000000
11
-57.3894481958
21
50.7525038639
31
0.0000000000
11
-57.0735801058
21
50.1470569999
31
0.0000000000
11
-56.8469629181
21
49.5839156674
31
0.0000000000
11
-56.6987912035
21
49.0440152689
31
0.0000000000
11
-56.6251264690
21
48.5150309202
31
0.0000000000
11
-56.6251807435
21
47.9892012543
31
0.0000000000
11
-56.6989216891
21
47.4603642461
31
0.0000000000
11
-56.8470999235
21
46.9206884033
31
0.0000000000
11
-57.0736052117
21
46.3578964865
31
0.0000000000
11
-57.3894481958
21
45.7525038639
31
0.0000000000
0
SPLINE
5
34A
100
AcDbEntity
8
0
100
AcDbSpline
62
7
6
CONTINUOUS
70
0
71
3
72
16
73
12
74
10
42
0.0000001000
43
0.0000001000
44
0.0000000001
12
1.3040753254
22
4.8939035611
32
0.0000000000
13
-1.3040753254
23
4.8939035611
33
0.0000000000
40
0.0000000000
40
0.0000000000
40
0.0000000000
40
0.0000000000
40
0.1167274546
40
0.2282489089
40
0.3374930562
40
0.4459832430
40
0.5543554446
40
0.6628762269
40
0.7721463011
40
0.8836492316
40
1.0000000000
40
1.0000000000
40
1.0000000000
40
1.0000000000
10
-60.8541417459
20
45.7525038639
30
0.0000000000
10
-60.8034012815
20
45.9429214991
30
0.0000000000
10
-60.7120887417
20
46.3174519721
30
0.0000000000
10
-60.6052825908
20
46.8773864650
30
0.0000000000
10
-60.5326378527
20
47.4288231422
30
0.0000000000
10
-60.4955773232
20
47.9785155647
30
0.0000000000
10
-60.4956358220
20
48.5282601433
30
0.0000000000
10
-60.5328214364
20
49.0780399163
30
0.0000000000
10
-60.6055919998
20
49.6295246003
30
0.0000000000
10
-60.7123853072
20
50.1888262718
30
0.0000000000
10
-60.8035650239
20
50.5627007173
30
0.0000000000
10
-60.8541417459
20
50.7525038639
30
0.0000000000
11
-60.8541417459
21
45.7525038639
31
0.0000000000
11
-60.7149958043
21
46.3270816583
31
0.0000000000
11
-60.6099609055
21
46.8820491000
31
0.0000000000
11
-60.5383356285
21
47.4306792049
31
0.0000000000
11
-60.5017417354
21
47.9789265283
31
0.0000000000
11
-60.5017995463
21
48.5277962019
31
0.0000000000
11
-60.5385208435
21
49.0761903100
31
0.0000000000
11
-60.6102790105
21
49.6249354788
31
0.0000000000
11
-60.7153998237
21
50.1797911676
31
0.0000000000
11
-60.8541417459
21
50.7525038639
31
0.0000000000
0
SPLINE
5
34B
100
AcDbEntity
8
0
100
AcDbSpline
62
7
6
CONTINUOUS
70
0
71
3
72
15
73
11
74
9
42
0.0000001000
43
0.0000001000
44
0.0000000001
12
-3.0504635908
22
0.0000000000
32
0.0000000000
13
0.5916595435
23
2.9925352301
33
0.0000000000
40
0.0000000000
40
0.0000000000
40
0.0000000000
40
0.0000000000
40
0.0249629734
40
0.0821964157
40
0.1734290459
40
0.2952009072
40
0.4444834767
40
0.6182342574
40
0.8103698823
40
1.0000000000
40
1.0000000000
40
1.0000000000
40
1.0000000000
10
-73.7769576932
20
41.0025038639
30
0.0000000000
10
-73.8023405737
20
41.0025038639
30
0.0000000000
10
-73.8565493783
20
41.0934353311
30
0.0000000000
10
-73.8633986522
20
41.2589653076
30
0.0000000000
10
-73.8708946860
20
41.5394619354
30
0.0000000000
10
-73.8437093835
20
41.9049637481
30
0.0000000000
10
-73.7966530626
20
42.3555854304
30
0.0000000000
10
-73.7243801016
20
42.8742560018
30
0.0000000000
10
-73.6328263569
20
43.4317667573
30
0.0000000000
10
-73.5614017062
20
43.8133455946
30
0.0000000000
10
-73.5240028832
20
44.0025038639
30
0.0000000000
11
-73.7769576932
21
41.0025038639
31
0.0000000000
11
-73.8305664591
21
41.0565845054
31
0.0000000000
11
-73.8617965681
21
41.2283571338
31
0.0000000000
11
-73.8660314542
21
41.5066267277
31
0.0000000000
11
-73.8440913587
21
41.8774388518
31
0.0000000000
11
-73.7968615755
21
42.3303640574
31
0.0000000000
11
-73.7249362832
21
42.8554815765
31
0.0000000000
11
-73.6302588030
21
43.4338867829
31
0.0000000000
11
-73.5240028832
21
44.0025038639
31
0.0000000000
0
SPLINE
5
34C
100
AcDbEntity
8
0
100
AcDbSpline
62
7
6
CONTINUOUS
70
0
71
3
72
15
73
11
74
9
42
0.0000001000
43
0.0000001000
44
0.0000000001
12
-0.5916570731
22
2.9925227352
32
0.0000000000
13
3.0504508541
23
0.0000000000
33
0.0000000000
40
0.0000000000
40
0.0000000000
40
0.0000000000
40
0.0000000000
40
0.1889264864
40
0.3805945991
40
0.5544898539
40
0.7041687934
40
0.8262050725
40
0.9176249451
40
0.9749891735
40
1.0000000000
40
1.0000000000
40
1.0000000000
40
1.0000000000
10
-73.5240028832
20
57.5025038639
30
0.0000000000
10
-73.5612627805
20
57.6909594658
30
0.0000000000
10
-73.6324820968
20
58.0713631933
30
0.0000000000
10
-73.7239292167
20
58.6278308918
30
0.0000000000
10
-73.7963021487
20
59.1465589632
30
0.0000000000
10
-73.8435345554
20
59.5979896436
30
0.0000000000
10
-73.8708608453
20
59.9643280861
30
0.0000000000
10
-73.8634300522
20
60.2454561186
30
0.0000000000
10
-73.8566318186
20
60.4112854746
30
0.0000000000
10
-73.8023891256
20
60.5025038639
30
0.0000000000
10
-73.7769576932
20
60.5025038639
30
0.0000000000
11
-73.5240028832
21
57.5025038639
31
0.0000000000
11
-73.6298865939
21
58.0690044944
31
0.0000000000
11
-73.7244025427
21
58.6459885555
31
0.0000000000
11
-73.7964823686
21
59.1715274916
31
0.0000000000
11
-73.8439296103
21
59.6256437633
31
0.0000000000
11
-73.8660001332
21
59.9972546116
31
0.0000000000
11
-73.8618396284
21
60.2760954029
31
0.0000000000
11
-73.8306242362
21
60.4482754403
31
0.0000000000
11
-73.7769576932
21
60.5025038639
31
0.0000000000
0
SPLINE
5
34D
100
AcDbEntity
8
0
100
AcDbSpline
62
7
6
CONTINUOUS
70
0
71
3
72
11
73
7
74
5
42
0.0000001000
43
0.0000001000
44
0.0000000001
12
1.3510047007
22
-0.2717538191
32
0.0000000000
13
0.0000000000
23
-1.3780652522
33
0.0000000000
40
0.0000000000
40
0.0000000000
40
0.0000000000
40
0.0000000000
40
0.3826037117
40
0.6754799162
40
0.8756160294
40
1.0000000000
40
1.0000000000
40
1.0000000000
40
1.0000000000
10
-63.3931651840
20
59.1066998098
30
0.0000000000
10
-63.2208653797
20
59.0720418032
30
0.0000000000
10
-62.9180489815
20
59.0032488524
30
0.0000000000
10
-62.5368339389
20
58.8692133511
30
0.0000000000
10
-62.2849854152
20
58.7403218256
30
0.0000000000
10
-62.1894481958
20
58.6028091730
30
0.0000000000
10
-62.1894481958
20
58.5456727637
30
0.0000000000
11
-63.3931651840
21
59.1066998098
31
0.0000000000
11
-62.8806264829
21
58.9830079355
31
0.0000000000
11
-62.5012333163
21
58.8453277994
31
0.0000000000
11
-62.2680965931
21
58.6979736271
31
0.0000000000
11
-62.1894481958
21
58.5456727637
31
0.0000000000
0
SPLINE
5
34E
100
AcDbEntity
8
0
100
AcDbSpline
62
7
6
CONTINUOUS
70
0
71
3
72
11
73
7
74
5
42
0.0000001000
43
0.0000001000
44
0.0000000001
12
1.3510047007
22
0.2717538191
32
0.0000000000
13
0.0000000000
23
1.3780652522
33
0.0000000000
40
0.0000000000
40
0.0000000000
40
0.0000000000
40
0.0000000000
40
0.3826037117
40
0.6754799162
40
0.8756160294
40
1.0000000000
40
1.0000000000
40
1.0000000000
40
1.0000000000
10
-63.3931651840
20
42.3983079180
30
0.0000000000
10
-63.2208653797
20
42.4329659246
30
0.0000000000
10
-62.9180489815
20
42.5017588754
30
0.0000000000
10
-62.5368339389
20
42.6357943767
30
0.0000000000
10
-62.2849854152
20
42.7646859021
30
0.0000000000
10
-62.1894481958
20
42.9021985548
30
0.0000000000
10
-62.1894481958
20
42.9593349641
30
0.0000000000
11
-63.3931651840
21
42.3983079180
31
0.0000000000
11
-62.8806264829
21
42.5219997923
31
0.0000000000
11
-62.5012333163
21
42.6596799284
31
0.0000000000
11
-62.2680965931
21
42.8070341007
31
0.0000000000
11
-62.1894481958
21
42.9593349641
31
0.0000000000
0
SPLINE
5
34F
100
AcDbEntity
8
0
100
AcDbSpline
62
7
6
CONTINUOUS
70
0
71
3
72
15
73
11
74
9
42
0.0000001000
43
0.0000001000
44
0.0000000001
12
-0.5917151364
22
-2.9928164117
32
0.0000000000
13
3.0507502154
23
0.0000000000
33
0.0000000000
40
0.0000000000
40
0.0000000000
40
0.0000000000
40
0.0000000000
40
0.2131213947
40
0.4131938155
40
0.5815227807
40
0.7201175859
40
0.8353209974
40
0.9220080157
40
0.9760914374
40
1.0000000000
40
1.0000000000
40
1.0000000000
40
1.0000000000
10
-69.5240028832
20
44.0025038639
30
0.0000000000
10
-69.5660386016
20
43.7898927947
30
0.0000000000
10
-69.6428440491
20
43.3767560966
30
0.0000000000
10
-69.7367209720
20
42.7927712765
30
0.0000000000
10
-69.8054559108
20
42.2819166713
30
0.0000000000
10
-69.8478852218
20
41.8541009363
30
0.0000000000
10
-69.8715850215
20
41.5101895308
30
0.0000000000
10
-69.8626308399
20
41.2450697212
30
0.0000000000
10
-69.8544993511
20
41.0868608075
30
0.0000000000
10
-69.8012707108
20
41.0025038639
30
0.0000000000
10
-69.7769576932
20
41.0025038639
30
0.0000000000
11
-69.5240028832
21
44.0025038639
31
0.0000000000
11
-69.6425819939
21
43.3632283287
31
0.0000000000
11
-69.7390355663
21
42.7605265428
31
0.0000000000
11
-69.8062504011
21
42.2514147245
31
0.0000000000
11
-69.8478971801
21
41.8306526559
31
0.0000000000
11
-69.8666946296
21
41.4796988682
31
0.0000000000
11
-69.8607217964
21
41.2153058851
31
0.0000000000
11
-69.8292651540
21
41.0533372677
31
0.0000000000
11
-69.7769576932
21
41.0025038639
31
0.0000000000
0
SPLINE
5
350
100
AcDbEntity
8
0
100
AcDbSpline
62
7
6
CONTINUOUS
70
0
71
3
72
15
73
11
74
9
42
0.0000001000
43
0.0000001000
44
0.0000000001
12
-3.0507458260
22
0.0000000000
32
0.0000000000
13
0.5917142850
23
-2.9928121057
33
0.0000000000
40
0.0000000000
40
0.0000000000
40
0.0000000000
40
0.0000000000
40
0.0239251730
40
0.0780495991
40
0.1647882924
40
0.2800960451
40
0.4188633859
40
0.5873418532
40
0.7872633513
40
1.0000000000
40
1.0000000000
40
1.0000000000
40
1.0000000000
10
-69.7769576932
20
60.5025038639
30
0.0000000000
10
-69.8012875671
20
60.5025038639
30
0.0000000000
10
-69.8545274199
20
60.4180529682
30
0.0000000000
10
-69.8626421105
20
60.2597561183
30
0.0000000000
10
-69.8715775177
20
59.9944231669
30
0.0000000000
10
-69.8478285503
20
59.6501861786
30
0.0000000000
10
-69.8053226258
20
59.2219406742
30
0.0000000000
10
-69.7365244022
20
58.7109203734
30
0.0000000000
10
-69.6426766889
20
58.1273295712
30
0.0000000000
10
-69.5659626545
20
57.7147308030
30
0.0000000000
10
-69.5240028832
20
57.5025038639
30
0.0000000000
11
-69.7769576932
21
60.5025038639
31
0.0000000000
11
-69.8292860840
21
60.4516194418
31
0.0000000000
11
-69.8607373935
21
60.2895226016
31
0.0000000000
11
-69.8666873705
21
60.0249717968
31
0.0000000000
11
-69.8478457585
21
59.6737021073
31
0.0000000000
11
-69.8061140667
21
59.2524201216
31
0.0000000000
11
-69.7387989074
21
58.7428622446
31
0.0000000000
11
-69.6423817265
21
58.1406218110
31
0.0000000000
11
-69.5240028832
21
57.5025038639
31
0.0000000000
0
SPLINE
5
351
100
AcDbEntity
8
0
100
AcDbSpline
62
9
6
CONTINUOUS
70
0
71
3
72
10
73
6
74
4
42
0.0000001000
43
0.0000001000
44
0.0000000001
12
0.7427162764
22
-3.8048622842
32
0.0000000000
13
-0.7427162764
23
-3.8048622842
33
0.0000000000
40
0.0000000000
40
0.0000000000
40
0.0000000000
40
0.0000000000
40
0.3333216025
40
0.6666783975
40
1.0000000000
40
1.0000000000
40
1.0000000000
40
1.0000000000
10
-68.4394877654
20
52.6801861445
30
0.0000000000
10
-68.3569666389
20
52.2574385466
30
0.0000000000
10
-68.2461939018
20
51.4002220712
30
0.0000000000
10
-68.2461939018
20
50.1047856566
30
0.0000000000
10
-68.3569666389
20
49.2475691812
30
0.0000000000
10
-68.4394877654
20
48.8248215833
30
0.0000000000
11
-68.4394877654
21
52.6801861445
31
0.0000000000
11
-68.2738900099
21
51.3986617419
31
0.0000000000
11
-68.2738900099
21
50.1063459858
31
0.0000000000
11
-68.4394877654
21
48.8248215833
31
0.0000000000
0
SPLINE
5
352
100
AcDbEntity
8
0
100
AcDbSpline
62
7
6
CONTINUOUS
70
0
71
3
72
11
73
7
74
5
42
0.0000001000
43
0.0000001000
44
0.0000000001
12
0.7522469708
22
3.8047650656
32
0.0000000000
13
-0.7522469708
23
3.8047650656
33
0.0000000000
40
0.0000000000
40
0.0000000000
40
0.0000000000
40
0.0000000000
40
0.2407419991
40
0.4981736545
40
0.7564593071
40
1.0000000000
40
1.0000000000
40
1.0000000000
40
1.0000000000
10
-68.5705737400
20
48.8248215833
30
0.0000000000
10
-68.5102079268
20
49.1301438326
30
0.0000000000
10
-68.4149195875
20
49.7682111400
30
0.0000000000
10
-68.3650160707
20
50.7465048426
30
0.0000000000
10
-68.4138661857
20
51.7284886350
30
0.0000000000
10
-68.5095061572
20
52.3713144377
30
0.0000000000
10
-68.5705737400
20
52.6801861445
30
0.0000000000
11
-68.5705737400
21
48.8248215833
31
0.0000000000
11
-68.4326897431
21
49.7482821234
31
0.0000000000
11
-68.3818174834
21
50.7454123683
31
0.0000000000
11
-68.4315974808
21
51.7459140065
31
0.0000000000
11
-68.5705737400
21
52.6801861445
31
0.0000000000
0
SPLINE
5
353
100
AcDbEntity
8
0
100
AcDbSpline
62
9
6
CONTINUOUS
70
0
71
3
72
9
73
5
74
3
42
0.0000001000
43
0.0000001000
44
0.0000000001
12
0.4949911232
22
1.8839125823
32
0.0000000000
13
0.0000000000
23
1.9478559572
33
0.0000000000
40
0.0000000000
40
0.0000000000
40
0.0000000000
40
0.0000000000
40
0.5010164431
40
1.0000000000
40
1.0000000000
40
1.0000000000
40
1.0000000000
10
-68.4394877654
20
48.8248215833
30
0.0000000000
10
-68.3568215348
20
49.1394453103
30
0.0000000000
10
-68.2315146006
20
49.7785575450
30
0.0000000000
10
-68.1894481958
20
50.4285211659
30
0.0000000000
10
-68.1894481958
20
50.7525038639
30
0.0000000000
11
-68.4394877654
21
48.8248215833
31
0.0000000000
11
-68.2521546935
21
49.7825806750
31
0.0000000000
11
-68.1894481958
21
50.7525038639
31
0.0000000000
0
SPLINE
5
354
100
AcDbEntity
8
0
100
AcDbSpline
62
9
6
CONTINUOUS
70
0
71
3
72
9
73
5
74
3
42
0.0000001000
43
0.0000001000
44
0.0000000001
12
0.4949911232
22
-1.8839125823
32
0.0000000000
13
0.0000000000
23
-1.9478559572
33
0.0000000000
40
0.0000000000
40
0.0000000000
40
0.0000000000
40
0.0000000000
40
0.5010164431
40
1.0000000000
40
1.0000000000
40
1.0000000000
40
1.0000000000
10
-68.4394877654
20
52.6801861445
30
0.0000000000
10
-68.3568215348
20
52.3655624175
30
0.0000000000
10
-68.2315146006
20
51.7264501828
30
0.0000000000
10
-68.1894481958
20
51.0764865619
30
0.0000000000
10
-68.1894481958
20
50.7525038639
30
0.0000000000
11
-68.4394877654
21
52.6801861445
31
0.0000000000
11
-68.2521546935
21
51.7224270528
31
0.0000000000
11
-68.1894481958
21
50.7525038639
31
0.0000000000
0
SPLINE
5
355
100
AcDbEntity
8
0
100
AcDbSpline
62
7
6
CONTINUOUS
70
0
71
3
72
11
73
7
74
5
42
0.0000001000
43
0.0000001000
44
0.0000000001
12
3.2896819927
22
7.0464084248
32
0.0000000000
13
0.0000000000
23
7.7764953097
33
0.0000000000
40
0.0000000000
40
0.0000000000
40
0.0000000000
40
0.0000000000
40
0.2351339323
40
0.4833982013
40
0.7397893244
40
1.0000000000
40
1.0000000000
40
1.0000000000
40
1.0000000000
10
-96.0894481958
20
-76.6222898627
30
0.0000000000
10
-95.8316095748
20
-76.0700066221
30
0.0000000000
10
-95.3877719107
20
-74.8934328626
30
0.0000000000
10
-94.9271556683
20
-73.0283640992
30
0.0000000000
10
-94.6506644669
20
-71.0619462914
30
0.0000000000
10
-94.5894481958
20
-69.7220051688
30
0.0000000000
10
-94.5894481958
20
-69.0474961361
30
0.0000000000
11
-96.0894481958
21
-76.6222898627
31
0.0000000000
11
-95.4336284901
21
-74.9154277405
31
0.0000000000
11
-94.9641097908
21
-73.0427642239
31
0.0000000000
11
-94.6829653404
21
-71.0688611354
31
0.0000000000
11
-94.5894481958
21
-69.0474961361
31
0.0000000000
0
SPLINE
5
356
100
AcDbEntity
8
0
100
AcDbSpline
62
7
6
CONTINUOUS
70
0
71
3
72
11
73
7
74
5
42
0.0000001000
43
0.0000001000
44
0.0000000001
12
2.6731368395
22
-4.5628658291
32
0.0000000000
13
0.0000000000
23
-5.2882327045
33
0.0000000000
40
0.0000000000
40
0.0000000000
40
0.0000000000
40
0.0000000000
40
0.2140846160
40
0.4579012044
40
0.7233039977
40
1.0000000000
40
1.0000000000
40
1.0000000000
40
1.0000000000
10
-96.0894481958
20
55.8640104911
30
0.0000000000
10
-95.8986890379
20
55.5383973649
30
0.0000000000
10
-95.5658105112
20
54.7976247120
30
0.0000000000
10
-95.2177696966
20
53.5678532665
30
0.0000000000
10
-95.0012636940
20
52.1965706663
30
0.0000000000
10
-94.9526607685
20
51.2402481467
30
0.0000000000
10
-94.9526607685
20
50.7525038639
30
0.0000000000
11
-96.0894481958
21
55.8640104911
31
0.0000000000
11
-95.6120256274
21
54.8374704920
31
0.0000000000
11
-95.2521700342
21
53.5993468255
31
0.0000000000
11
-95.0285203852
21
52.2137689621
31
0.0000000000
11
-94.9526607685
21
50.7525038639
31
0.0000000000
0
SPLINE
5
357
100
AcDbEntity
8
0
100
AcDbSpline
62
7
6
CONTINUOUS
70
0
71
3
72
10
73
6
74
4
42
0.0000001000
43
0.0000001000
44
0.0000000001
12
0.1866562787
22
-0.6064232433
32
0.0000000000
13
0.6284480218
23
-0.0033129380
33
0.0000000000
40
0.0000000000
40
0.0000000000
40
0.0000000000
40
0.0000000000
40
0.3152760072
40
0.6652970001
40
1.0000000000
40
1.0000000000
40
1.0000000000
40
1.0000000000
10
-88.6980557527
20
-79.7445412428
30
0.0000000000
10
-88.6784396706
20
-79.8082714757
30
0.0000000000
10
-88.6099149473
20
-79.9340983868
30
0.0000000000
10
-88.4379753921
20
-80.0653195401
30
0.0000000000
10
-88.2929089226
20
-80.0971199318
30
0.0000000000
10
-88.2227944432
20
-80.0974895485
30
0.0000000000
11
-88.6980557527
21
-79.7445412428
31
0.0000000000
11
-88.6031934993
21
-79.9188753703
31
0.0000000000
11
-88.4281986105
21
-80.0521605335
31
0.0000000000
11
-88.2227944432
21
-80.0974895485
31
0.0000000000
0
SPLINE
5
358
100
AcDbEntity
8
0
100
AcDbSpline
62
7
6
CONTINUOUS
70
0
71
3
72
9
73
5
74
3
42
0.0000001000
43
0.0000001000
44
0.0000000001
12
-0.0045591557
22
-0.0000490297
32
0.0000000000
13
-0.0045591008
23
-0.0000605794
33
0.0000000000
40
0.0000000000
40
0.0000000000
40
0.0000000000
40
0.0000000000
40
0.5763782347
40
1.0000000000
40
1.0000000000
40
1.0000000000
40
1.0000000000
10
-88.2070222380
20
79.9024250449
30
0.0000000000
10
-88.2078981707
20
79.9024156250
30
0.0000000000
10
-88.2094178840
20
79.9023981723
30
0.0000000000
10
-88.2109375882
20
79.9023787946
30
0.0000000000
10
-88.2115813663
20
79.9023702404
30
0.0000000000
11
-88.2070222380
21
79.9024250449
31
0.0000000000
11
-88.2096500270
21
79.9023948668
31
0.0000000000
11
-88.2115813663
21
79.9023702404
31
0.0000000000
0
SPLINE
5
359
100
AcDbEntity
8
0
100
AcDbSpline
62
7
6
CONTINUOUS
70
0
71
3
72
8
73
4
74
2
42
0.0000001000
43
0.0000001000
44
0.0000000001
12
-0.0014864050
22
-0.0000197507
32
0.0000000000
13
-0.0014863992
23
-0.0000209784
33
0.0000000000
40
0.0000000000
40
0.0000000000
40
0.0000000000
40
0.0000000000
40
1.0000000000
40
1.0000000000
40
1.0000000000
40
1.0000000000
10
-88.2115813663
20
79.9023702404
30
0.0000000000
10
-88.2120768346
20
79.9023636568
30
0.0000000000
10
-88.2125723020
20
79.9023568686
30
0.0000000000
10
-88.2130677684
20
79.9023498758
30
0.0000000000
11
-88.2115813663
21
79.9023702404
31
0.0000000000
11
-88.2130677684
21
79.9023498758
31
0.0000000000
0
SPLINE
5
35A
100
AcDbEntity
8
0
100
AcDbSpline
62
7
6
CONTINUOUS
70
0
71
3
72
8
73
4
74
2
42
0.0000001000
43
0.0000001000
44
0.0000000001
12
-0.0034177568
22
-0.0000417456
32
0.0000000000
13
-0.0034177259
23
-0.0000482363
33
0.0000000000
40
0.0000000000
40
0.0000000000
40
0.0000000000
40
0.0000000000
40
1.0000000000
40
1.0000000000
40
1.0000000000
40
1.0000000000
10
-88.2096500270
20
79.9023948668
30
0.0000000000
10
-88.2107892793
20
79.9023809516
30
0.0000000000
10
-88.2119285264
20
79.9023659546
30
0.0000000000
10
-88.2130677684
20
79.9023498758
30
0.0000000000
11
-88.2096500270
21
79.9023948668
31
0.0000000000
11
-88.2130677684
21
79.9023498758
31
0.0000000000
0
SPLINE
5
35B
100
AcDbEntity
8
0
100
AcDbSpline
62
7
6
CONTINUOUS
70
0
71
3
72
8
73
4
74
2
42
0.0000001000
43
0.0000001000
44
0.0000000001
12
-0.0194043497
22
0.0000916206
32
0.0000000000
13
-0.0194033556
23
-0.0001175677
33
0.0000000000
40
0.0000000000
40
0.0000000000
40
0.0000000000
40
0.0000000000
40
1.0000000000
40
1.0000000000
40
1.0000000000
40
1.0000000000
10
-88.1791690652
20
79.9025090485
30
0.0000000000
10
-88.1856371818
20
79.9025395887
30
0.0000000000
10
-88.1921051326
20
79.9025352642
30
0.0000000000
10
-88.1985729178
20
79.9024960749
30
0.0000000000
11
-88.1791690652
21
79.9025090485
31
0.0000000000
11
-88.1985729178
21
79.9024960749
31
0.0000000000
0
SPLINE
5
35C
100
AcDbEntity
8
0
100
AcDbSpline
62
7
6
CONTINUOUS
70
0
71
3
72
8
73
4
74
2
42
0.0000001000
43
0.0000001000
44
0.0000000001
12
-0.0057301568
22
-0.0000347198
32
0.0000000000
13
-0.0057300701
23
-0.0000529637
33
0.0000000000
40
0.0000000000
40
0.0000000000
40
0.0000000000
40
0.0000000000
40
1.0000000000
40
1.0000000000
40
1.0000000000
40
1.0000000000
10
-88.1985729178
20
79.9024960749
30
0.0000000000
10
-88.2004829701
20
79.9024845016
30
0.0000000000
10
-88.2023930079
20
79.9024698877
30
0.0000000000
10
-88.2043030313
20
79.9024522332
30
0.0000000000
11
-88.1985729178
21
79.9024960749
31
0.0000000000
11
-88.2043030313
21
79.9024522332
31
0.0000000000
0
SPLINE
5
35D
100
AcDbEntity
8
0
100
AcDbSpline
62
7
6
CONTINUOUS
70
0
71
3
72
8
73
4
74
2
42
0.0000001000
43
0.0000001000
44
0.0000000001
12
-0.0027192165
22
-0.0000251340
32
0.0000000000
13
-0.0027191970
23
-0.0000292425
33
0.0000000000
40
0.0000000000
40
0.0000000000
40
0.0000000000
40
0.0000000000
40
1.0000000000
40
1.0000000000
40
1.0000000000
40
1.0000000000
10
-88.2043030313
20
79.9024522332
30
0.0000000000
10
-88.2052094368
20
79.9024438552
30
0.0000000000
10
-88.2061158390
20
79.9024347924
30
0.0000000000
10
-88.2070222380
20
79.9024250449
30
0.0000000000
11
-88.2043030313
21
79.9024522332
31
0.0000000000
11
-88.2070222380
21
79.9024250449
31
0.0000000000
0
SPLINE
5
35E
100
AcDbEntity
8
0
100
AcDbSpline
62
7
6
CONTINUOUS
70
0
71
3
72
8
73
4
74
2
42
0.0000001000
43
0.0000001000
44
0.0000000001
12
-0.0934724684
22
-0.0000256667
32
0.0000000000
13
-0.0922689809
23
-0.0174748862
33
0.0000000000
40
0.0000000000
40
0.0000000000
40
0.0000000000
40
0.0000000000
40
1.0000000000
40
1.0000000000
40
1.0000000000
40
1.0000000000
10
-88.2201539393
20
79.9025036662
30
0.0000000000
10
-88.2513114287
20
79.9024951106
30
0.0000000000
10
-88.2825861577
20
79.8995440453
30
0.0000000000
10
-88.3133424847
20
79.8937190832
30
0.0000000000
11
-88.2201539393
21
79.9025036662
31
0.0000000000
11
-88.3133424847
21
79.8937190832
31
0.0000000000
0
SPLINE
5
35F
100
AcDbEntity
8
0
100
AcDbSpline
62
7
6
CONTINUOUS
70
0
71
3
72
8
73
4
74
2
42
0.0000001000
43
0.0000001000
44
0.0000000001
12
-0.0537585551
22
-0.0101813700
32
0.0000000000
13
-0.0523255610
23
-0.0159940318
33
0.0000000000
40
0.0000000000
40
0.0000000000
40
0.0000000000
40
0.0000000000
40
1.0000000000
40
1.0000000000
40
1.0000000000
40
1.0000000000
10
-88.3133424847
20
79.8937190832
30
0.0000000000
10
-88.3312620030
20
79.8903252932
30
0.0000000000
10
-88.3490055467
20
79.8859559412
30
0.0000000000
10
-88.3664474003
20
79.8806245973
30
0.0000000000
11
-88.3133424847
21
79.8937190832
31
0.0000000000
11
-88.3664474003
21
79.8806245973
31
0.0000000000
0
SPLINE
5
360
100
AcDbEntity
8
0
100
AcDbSpline
62
7
6
CONTINUOUS
70
0
71
3
72
10
73
6
74
4
42
0.0000001000
43
0.0000001000
44
0.0000000001
12
-0.4663930218
22
-0.1425594815
32
0.0000000000
13
-0.1435979812
23
-0.4663747173
33
0.0000000000
40
0.0000000000
40
0.0000000000
40
0.0000000000
40
0.0000000000
40
0.3581366700
40
0.7416119464
40
1.0000000000
40
1.0000000000
40
1.0000000000
40
1.0000000000
10
-88.3664474003
20
79.8806245973
30
0.0000000000
10
-88.4221248816
20
79.8636060046
30
0.0000000000
10
-88.5310531519
20
79.8080657986
30
0.0000000000
10
-88.6424033914
20
79.6855608924
30
0.0000000000
10
-88.6856762076
20
79.5897152750
30
0.0000000000
10
-88.6980442085
20
79.5495467232
30
0.0000000000
11
-88.3664474003
21
79.8806245973
31
0.0000000000
11
-88.5211864588
21
79.8017286404
31
0.0000000000
11
-88.6462667271
21
79.6640927330
31
0.0000000000
11
-88.6980442085
21
79.5495467232
31
0.0000000000
0
SPLINE
5
361
100
AcDbEntity
8
0
100
AcDbSpline
62
7
6
CONTINUOUS
70
0
71
3
72
9
73
5
74
3
42
0.0000001000
43
0.0000001000
44
0.0000000001
12
-0.0041697784
22
-0.0000447199
32
0.0000000000
13
-0.0041697355
23
-0.0000540625
33
0.0000000000
40
0.0000000000
40
0.0000000000
40
0.0000000000
40
0.0000000000
40
0.5589533016
40
1.0000000000
40
1.0000000000
40
1.0000000000
40
1.0000000000
10
-88.2073193223
20
79.9024213226
30
0.0000000000
10
-88.2080962261
20
79.9024129905
30
0.0000000000
10
-88.2094861483
20
79.9023972135
30
0.0000000000
10
-88.2108760632
20
79.9023798794
30
0.0000000000
10
-88.2114890793
20
79.9023719313
30
0.0000000000
11
-88.2073193223
21
79.9024213226
31
0.0000000000
11
-88.2096500270
21
79.9023948668
31
0.0000000000
11
-88.2114890793
21
79.9023719313
31
0.0000000000
0
SPLINE
5
362
100
AcDbEntity
8
0
100
AcDbSpline
62
7
6
CONTINUOUS
70
0
71
3
72
8
73
4
74
2
42
0.0000001000
43
0.0000001000
44
0.0000000001
12
-0.0061855978
22
-0.0000356745
32
0.0000000000
13
-0.0061855035
23
-0.0000562326
33
0.0000000000
40
0.0000000000
40
0.0000000000
40
0.0000000000
40
0.0000000000
40
1.0000000000
40
1.0000000000
40
1.0000000000
40
1.0000000000
10
-88.1980934009
20
79.9024973998
30
0.0000000000
10
-88.2001552668
20
79.9024855083
30
0.0000000000
10
-88.2022171170
20
79.9024701905
30
0.0000000000
10
-88.2042789515
20
79.9024514463
30
0.0000000000
11
-88.1980934009
21
79.9024973998
31
0.0000000000
11
-88.2042789515
21
79.9024514463
31
0.0000000000
0
SPLINE
5
363
100
AcDbEntity
8
0
100
AcDbSpline
62
7
6
CONTINUOUS
70
0
71
3
72
8
73
4
74
2
42
0.0000001000
43
0.0000001000
44
0.0000000001
12
-0.0030403822
22
-0.0000276402
32
0.0000000000
13
-0.0030403594
23
-0.0000326072
33
0.0000000000
40
0.0000000000
40
0.0000000000
40
0.0000000000
40
0.0000000000
40
1.0000000000
40
1.0000000000
40
1.0000000000
40
1.0000000000
10
-88.2042789515
20
79.9024514463
30
0.0000000000
10
-88.2052924123
20
79.9024422329
30
0.0000000000
10
-88.2063058692
20
79.9024321916
30
0.0000000000
10
-88.2073193223
20
79.9024213226
30
0.0000000000
11
-88.2042789515
21
79.9024514463
31
0.0000000000
11
-88.2073193223
21
79.9024213226
31
0.0000000000
0
SPLINE
5
364
100
AcDbEntity
8
0
100
AcDbSpline
62
7
6
CONTINUOUS
70
0
71
3
72
10
73
6
74
4
42
0.0000001000
43
0.0000001000
44
0.0000000001
12
-0.0000350663
22
-4.9129175382
32
0.0000000000
13
-0.0001719829
23
-4.9129175275
33
0.0000000000
40
0.0000000000
40
0.0000000000
40
0.0000000000
40
0.0000000000
40
0.3783785684
40
0.7342588200
40
1.0000000000
40
1.0000000000
40
1.0000000000
40
1.0000000000
10
-93.5894498698
20
-50.9487018216
30
0.0000000000
10
-93.5894542925
20
-51.5683493899
30
0.0000000000
10
-93.5894713930
20
-52.7708004015
30
0.0000000000
10
-93.5895095190
20
-54.4084395796
30
0.0000000000
10
-93.5894170589
20
-55.4264311932
30
0.0000000000
10
-93.5894322932
20
-55.8616193601
30
0.0000000000
11
-93.5894498698
21
-50.9487018216
31
0.0000000000
11
-93.5894748099
21
-52.8076445264
31
0.0000000000
11
-93.5894748831
21
-54.5560548558
31
0.0000000000
11
-93.5894322932
21
-55.8616193601
31
0.0000000000
0
SPLINE
5
365
100
AcDbEntity
8
0
100
AcDbSpline
62
7
6
CONTINUOUS
70
0
71
3
72
8
73
4
74
2
42
0.0000001000
43
0.0000001000
44
0.0000000001
12
-0.0000124724
22
-0.1924407546
32
0.0000000000
13
-0.0000038463
23
-0.1924407549
33
0.0000000000
40
0.0000000000
40
0.0000000000
40
0.0000000000
40
0.0000000000
40
1.0000000000
40
1.0000000000
40
1.0000000000
40
1.0000000000
10
-93.5895388104
20
-55.8612669338
30
0.0000000000
10
-93.5895429679
20
-55.9254138520
30
0.0000000000
10
-93.5895455742
20
-55.9895607702
30
0.0000000000
10
-93.5895468563
20
-56.0537076885
30
0.0000000000
11
-93.5895388104
21
-55.8612669338
31
0.0000000000
11
-93.5895468563
21
-56.0537076885
31
0.0000000000
0
SPLINE
5
366
100
AcDbEntity
8
0
100
AcDbSpline
62
7
6
CONTINUOUS
70
0
71
3
72
8
73
4
74
2
42
0.0000001000
43
0.0000001000
44
0.0000000001
12
-0.0000067069
22
-0.3355614567
32
0.0000000000
13
0.0000138419
23
-0.3355614576
33
0.0000000000
40
0.0000000000
40
0.0000000000
40
0.0000000000
40
0.0000000000
40
1.0000000000
40
1.0000000000
40
1.0000000000
40
1.0000000000
10
-93.5895468563
20
-56.0537076885
30
0.0000000000
10
-93.5895490919
20
-56.1655615074
30
0.0000000000
10
-93.5895473012
20
-56.2774153265
30
0.0000000000
10
-93.5895426873
20
-56.3892691457
30
0.0000000000
11
-93.5895468563
21
-56.0537076885
31
0.0000000000
11
-93.5895426873
21
-56.3892691457
31
0.0000000000
0
SPLINE
5
367
100
AcDbEntity
8
0
100
AcDbSpline
62
7
6
CONTINUOUS
70
0
71
3
72
8
73
4
74
2
42
0.0000001000
43
0.0000001000
44
0.0000000001
12
0.0000309499
22
-0.7503027324
32
0.0000000000
13
0.0000752909
23
-0.7503027349
33
0.0000000000
40
0.0000000000
40
0.0000000000
40
0.0000000000
40
0.0000000000
40
1.0000000000
40
1.0000000000
40
1.0000000000
40
1.0000000000
10
-93.5895426873
20
-56.3892691457
30
0.0000000000
10
-93.5895323706
20
-56.6393700565
30
0.0000000000
10
-93.5895079392
20
-56.8894709680
30
0.0000000000
10
-93.5894828422
20
-57.1395718796
30
0.0000000000
11
-93.5895426873
21
-56.3892691457
31
0.0000000000
11
-93.5894828422
21
-57.1395718796
31
0.0000000000
0
SPLINE
5
368
100
AcDbEntity
8
0
100
AcDbSpline
62
7
6
CONTINUOUS
70
0
71
3
72
10
73
6
74
4
42
0.0000001000
43
0.0000001000
44
0.0000000001
12
-0.0001309003
22
-1.3499614708
32
0.0000000000
13
-0.0000086784
23
-1.3499614737
33
0.0000000000
40
0.0000000000
40
0.0000000000
40
0.0000000000
40
0.0000000000
40
0.1874176518
40
0.7389262122
40
1.0000000000
40
1.0000000000
40
1.0000000000
40
1.0000000000
10
-93.5894411544
20
63.4564202031
30
0.0000000000
10
-93.5894493320
20
63.3720846668
30
0.0000000000
10
-93.5894669462
20
63.0395773612
30
0.0000000000
10
-93.5894385261
20
62.5895902031
30
0.0000000000
10
-93.5894365549
20
62.2239385816
30
0.0000000000
10
-93.5894373101
20
62.1064587298
30
0.0000000000
11
-93.5894411544
21
63.4564202031
31
0.0000000000
11
-93.5894557831
21
63.2034135941
31
0.0000000000
11
-93.5894400020
21
62.4588982853
31
0.0000000000
11
-93.5894373101
21
62.1064587298
31
0.0000000000
0
SPLINE
5
369
100
AcDbEntity
8
0
100
AcDbSpline
62
7
6
CONTINUOUS
70
0
71
3
72
8
73
4
74
2
42
0.0000001000
43
0.0000001000
44
0.0000000001
12
-0.0000025855
22
-0.4021889981
32
0.0000000000
13
-0.0000099050
23
-0.4021889980
33
0.0000000000
40
0.0000000000
40
0.0000000000
40
0.0000000000
40
0.0000000000
40
1.0000000000
40
1.0000000000
40
1.0000000000
40
1.0000000000
10
-93.5894373101
20
62.1064587298
30
0.0000000000
10
-93.5894381720
20
61.9723957305
30
0.0000000000
10
-93.5894408421
20
61.8383327311
30
0.0000000000
10
-93.5894441437
20
61.7042697318
30
0.0000000000
11
-93.5894373101
21
62.1064587298
31
0.0000000000
11
-93.5894441437
21
61.7042697318
31
0.0000000000
0
SPLINE
5
36A
100
AcDbEntity
8
0
100
AcDbSpline
62
7
6
CONTINUOUS
70
0
71
3
72
11
73
7
74
5
42
0.0000001000
43
0.0000001000
44
0.0000000001
12
-0.0001361954
22
-5.5301643127
32
0.0000000000
13
-0.0002177690
23
-5.5301643057
33
0.0000000000
40
0.0000000000
40
0.0000000000
40
0.0000000000
40
0.0000000000
40
0.0814974739
40
0.3747613763
40
0.7322374634
40
1.0000000000
40
1.0000000000
40
1.0000000000
40
1.0000000000
10
-93.5894441437
20
61.7042697318
30
0.0000000000
10
-93.5894478436
20
61.5540382579
30
0.0000000000
10
-93.5894685042
20
60.8632075948
30
0.0000000000
10
-93.5894732270
20
59.5134097646
30
0.0000000000
10
-93.5893480273
20
57.8202531366
30
0.0000000000
10
-93.5895215807
20
56.6676956908
30
0.0000000000
10
-93.5895410175
20
56.1741054166
30
0.0000000000
11
-93.5894441437
21
61.7042697318
31
0.0000000000
11
-93.5894559668
21
61.2535753100
31
0.0000000000
11
-93.5894539455
21
59.6317777424
31
0.0000000000
11
-93.5894203909
21
57.6548762432
31
0.0000000000
11
-93.5895410175
21
56.1741054166
31
0.0000000000
0
SPLINE
5
36B
100
AcDbEntity
8
0
100
AcDbSpline
62
7
6
CONTINUOUS
70
0
71
3
72
8
73
4
74
2
42
0.0000001000
43
0.0000001000
44
0.0000000001
12
-0.0000124228
22
-0.3154718922
32
0.0000000000
13
0.0000054942
23
-0.3154718914
33
0.0000000000
40
0.0000000000
40
0.0000000000
40
0.0000000000
40
0.0000000000
40
1.0000000000
40
1.0000000000
40
1.0000000000
40
1.0000000000
10
-93.5895410175
20
56.1741054166
30
0.0000000000
10
-93.5895451584
20
56.0689481192
30
0.0000000000
10
-93.5895468081
20
55.9637908219
30
0.0000000000
10
-93.5895449767
20
55.8586335248
30
0.0000000000
11
-93.5895410175
21
56.1741054166
31
0.0000000000
11
-93.5895449767
21
55.8586335248
31
0.0000000000
0
SPLINE
5
36C
100
AcDbEntity
8
0
100
AcDbSpline
62
7
6
CONTINUOUS
70
0
71
3
72
8
73
4
74
2
42
0.0000001000
43
0.0000001000
44
0.0000000001
12
0.0000033437
22
-0.1919939586
32
0.0000000000
13
0.0000117489
23
-0.1919939583
33
0.0000000000
40
0.0000000000
40
0.0000000000
40
0.0000000000
40
0.0000000000
40
1.0000000000
40
1.0000000000
40
1.0000000000
40
1.0000000000
10
-93.5895449767
20
55.8586335248
30
0.0000000000
10
-93.5895438621
20
55.7946355386
30
0.0000000000
10
-93.5895414582
20
55.7306375524
30
0.0000000000
10
-93.5895375419
20
55.6666395664
30
0.0000000000
11
-93.5895449767
21
55.8586335248
31
0.0000000000
11
-93.5895375419
21
55.6666395664
31
0.0000000000
0
SPLINE
5
36D
100
AcDbEntity
8
0
100
AcDbSpline
62
7
6
CONTINUOUS
70
0
71
3
72
8
73
4
74
2
42
0.0000001000
43
0.0000001000
44
0.0000000001
12
-0.0000239899
22
-0.2473991524
32
0.0000000000
13
-0.0000061257
23
-0.2473991527
33
0.0000000000
40
0.0000000000
40
0.0000000000
40
0.0000000000
40
0.0000000000
40
1.0000000000
40
1.0000000000
40
1.0000000000
40
1.0000000000
10
-93.5894411544
20
63.4564202031
30
0.0000000000
10
-93.5894491510
20
63.3739538190
30
0.0000000000
10
-93.5894535953
20
63.2914874348
30
0.0000000000
10
-93.5894556373
20
63.2090210505
30
0.0000000000
11
-93.5894411544
21
63.4564202031
31
0.0000000000
11
-93.5894556373
21
63.2090210505
31
0.0000000000
0
SPLINE
5
36E
100
AcDbEntity
8
0
100
AcDbSpline
62
7
6
CONTINUOUS
70
0
71
3
72
9
73
5
74
3
42
0.0000001000
43
0.0000001000
44
0.0000000001
12
-0.0000174024
22
-0.7028284858
32
0.0000000000
13
0.0000198435
23
-0.7028284866
33
0.0000000000
40
0.0000000000
40
0.0000000000
40
0.0000000000
40
0.0000000000
40
0.0069084891
40
1.0000000000
40
1.0000000000
40
1.0000000000
40
1.0000000000
10
-93.5894556373
20
63.2090210505
30
0.0000000000
10
-93.5894556773
20
63.2074025562
30
0.0000000000
10
-93.5894613442
20
62.9731263943
30
0.0000000000
10
-93.5894478042
20
62.7388502320
30
0.0000000000
10
-93.5894412354
20
62.5061925641
30
0.0000000000
11
-93.5894556373
21
63.2090210505
31
0.0000000000
11
-93.5894557547
21
63.2041655676
31
0.0000000000
11
-93.5894412354
21
62.5061925641
31
0.0000000000
0
SPLINE
5
36F
100
AcDbEntity
8
0
100
AcDbSpline
62
7
6
CONTINUOUS
70
0
71
3
72
9
73
5
74
3
42
0.0000001000
43
0.0000001000
44
0.0000000001
12
0.0000111724
22
-0.3957093832
32
0.0000000000
13
-0.0000024387
23
-0.3957093831
33
0.0000000000
40
0.0000000000
40
0.0000000000
40
0.0000000000
40
0.0000000000
40
0.1119794893
40
1.0000000000
40
1.0000000000
40
1.0000000000
40
1.0000000000
10
-93.5894412354
20
62.5061925641
30
0.0000000000
10
-93.5894408183
20
62.4914221192
30
0.0000000000
10
-93.5894373417
20
62.3595189915
30
0.0000000000
10
-93.5894366027
20
62.2276158638
30
0.0000000000
10
-93.5894373245
20
62.1104831810
30
0.0000000000
11
-93.5894412354
21
62.5061925641
31
0.0000000000
11
-93.5894400740
21
62.4618812295
31
0.0000000000
11
-93.5894373245
21
62.1104831810
31
0.0000000000
0
SPLINE
5
370
100
AcDbEntity
8
0
100
AcDbSpline
62
7
6
CONTINUOUS
70
0
71
3
72
8
73
4
74
2
42
0.0000001000
43
0.0000001000
44
0.0000000001
12
-0.0000009736
22
-0.1579797759
32
0.0000000000
13
-0.0000024321
23
-0.1579797759
33
0.0000000000
40
0.0000000000
40
0.0000000000
40
0.0000000000
40
0.0000000000
40
1.0000000000
40
1.0000000000
40
1.0000000000
40
1.0000000000
10
-93.5894373245
20
62.1104831810
30
0.0000000000
10
-93.5894376491
20
62.0578232557
30
0.0000000000
10
-93.5894382521
20
62.0051633303
30
0.0000000000
10
-93.5894390628
20
61.9525034050
30
0.0000000000
11
-93.5894373245
21
62.1104831810
31
0.0000000000
11
-93.5894390628
21
61.9525034050
31
0.0000000000
0
SPLINE
5
371
100
AcDbEntity
8
0
100
AcDbSpline
62
7
6
CONTINUOUS
70
0
71
3
72
10
73
6
74
4
42
0.0000001000
43
0.0000001000
44
0.0000000001
12
0.0002710904
22
-4.9134710992
32
0.0000000000
13
-0.0000108988
23
-4.9134711147
33
0.0000000000
40
0.0000000000
40
0.0000000000
40
0.0000000000
40
0.0000000000
40
0.2700012747
40
0.6260378674
40
1.0000000000
40
1.0000000000
40
1.0000000000
40
1.0000000000
10
-93.5894266036
20
55.6670485786
30
0.0000000000
10
-93.5894022053
20
55.2248340920
30
0.0000000000
10
-93.5894798859
20
54.1994944289
30
0.0000000000
10
-93.5894376488
20
52.5616707261
30
0.0000000000
10
-93.5894464345
20
51.3660615089
30
0.0000000000
10
-93.5894477930
20
50.7535774633
30
0.0000000000
11
-93.5894266036
21
55.6670485786
31
0.0000000000
11
-93.5894498428
21
54.3404051137
31
0.0000000000
11
-93.5894478302
21
52.5910295998
31
0.0000000000
11
-93.5894477930
21
50.7535774633
31
0.0000000000
0
SPLINE
5
372
100
AcDbEntity
8
0
100
AcDbSpline
62
9
6
CONTINUOUS
70
0
71
3
72
19
73
15
74
13
42
0.0000001000
43
0.0000001000
44
0.0000000001
12
-4.6743689009
22
-23.6672551394
32
0.0000000000
13
-4.8164916978
23
-23.6387414678
33
0.0000000000
40
0.0000000000
40
0.0000000000
40
0.0000000000
40
0.0000000000
40
0.1207001325
40
0.2326513031
40
0.3366518725
40
0.4335587425
40
0.5238737362
40
0.6078987702
40
0.6860139937
40
0.7587233495
40
0.8265121940
40
0.8894455034
40
0.9472145231
40
1.0000000000
40
1.0000000000
40
1.0000000000
40
1.0000000000
10
-88.6690453347
20
79.4991677625
30
0.0000000000
10
-88.8571109832
20
78.5469541521
30
0.0000000000
10
-89.2215713125
20
76.7119348861
30
0.0000000000
10
-89.7543705388
20
74.0577016157
30
0.0000000000
10
-90.2539028753
20
71.5919448539
30
0.0000000000
10
-90.7222235858
20
69.2973894062
30
0.0000000000
10
-91.1607050387
20
67.1606898727
30
0.0000000000
10
-91.5700806449
20
65.1722797881
30
0.0000000000
10
-91.9512495421
20
63.3226073042
30
0.0000000000
10
-92.3056059128
20
61.6007158976
30
0.0000000000
10
-92.6342583260
20
59.9981785214
30
0.0000000000
10
-92.9373245336
20
58.5130373846
30
0.0000000000
10
-93.2148956988
20
57.1458303552
30
0.0000000000
10
-93.3915869526
20
56.2745437830
30
0.0000000000
10
-93.4763338898
20
55.8586163690
30
0.0000000000
11
-88.6690453347
21
79.4991677625
31
0.0000000000
11
-89.2362845420
21
76.6431294725
31
0.0000000000
11
-89.7677677242
21
73.9951816859
31
0.0000000000
11
-90.2658455586
21
71.5361621499
31
0.0000000000
11
-90.7332464412
21
69.2455381901
31
0.0000000000
11
-91.1711086718
21
67.1111903020
31
0.0000000000
11
-91.5797273023
21
65.1257455024
31
0.0000000000
11
-91.9599382011
21
63.2800131905
31
0.0000000000
11
-92.3133791299
21
61.5619182382
31
0.0000000000
11
-92.6418323332
21
59.9598735794
31
0.0000000000
11
-92.9453684925
21
58.4722946606
31
0.0000000000
11
-93.2228172209
21
57.1065459392
31
0.0000000000
11
-93.4763338898
21
55.8586163690
31
0.0000000000
0
SPLINE
5
373
100
AcDbEntity
8
0
100
AcDbSpline
62
9
6
CONTINUOUS
70
0
71
3
72
11
73
7
74
5
42
0.0000001000
43
0.0000001000
44
0.0000000001
12
-0.0928434651
22
5.8712074913
32
0.0000000000
13
-0.0260343561
23
6.0805485199
33
0.0000000000
40
0.0000000000
40
0.0000000000
40
0.0000000000
40
0.0000000000
40
0.3487385116
40
0.6626870452
40
0.9270341804
40
1.0000000000
40
1.0000000000
40
1.0000000000
40
1.0000000000
10
-93.4763338898
20
55.8586163690
30
0.0000000000
10
-93.4871265870
20
56.5411217564
30
0.0000000000
10
-93.5008877906
20
57.8348876055
30
0.0000000000
10
-93.5144066975
20
59.6621056893
30
0.0000000000
10
-93.5207741832
20
60.9068282681
30
0.0000000000
10
-93.5238304968
20
61.5992008555
30
0.0000000000
10
-93.5244637029
20
61.7470915911
30
0.0000000000
11
-93.4763338898
21
55.8586163690
31
0.0000000000
11
-93.5004755429
21
57.9062462075
31
0.0000000000
11
-93.5143109396
21
59.7496817213
31
0.0000000000
11
-93.5224969372
21
61.3018910569
31
0.0000000000
11
-93.5244637029
21
61.7470915911
31
0.0000000000
0
SPLINE
5
374
100
AcDbEntity
8
0
100
AcDbSpline
62
9
6
CONTINUOUS
70
0
71
3
72
12
73
8
74
6
42
0.0000001000
43
0.0000001000
44
0.0000000001
12
-0.0118542855
22
2.7686706644
32
0.0000000000
13
0.0094333417
23
-2.9845735753
33
0.0000000000
40
0.0000000000
40
0.0000000000
40
0.0000000000
40
0.0000000000
40
0.2950756097
40
0.6089429120
40
0.7687148440
40
0.9277821964
40
1.0000000000
40
1.0000000000
40
1.0000000000
40
1.0000000000
10
-93.5244637029
20
61.7470915911
30
0.0000000000
10
-93.5256296730
20
62.0194139858
30
0.0000000000
10
-93.5278405029
20
62.5682481717
30
0.0000000000
10
-93.5295648155
20
63.0888264267
30
0.0000000000
10
-93.5323678227
20
64.0200420239
30
0.0000000000
10
-93.5306431555
20
63.4455541201
30
0.0000000000
10
-93.5298660798
20
63.1953483782
30
0.0000000000
10
-93.5296389947
20
63.1235019288
30
0.0000000000
11
-93.5244637029
21
61.7470915911
31
0.0000000000
11
-93.5275738874
21
62.5192707714
31
0.0000000000
11
-93.5303653602
21
63.3584484725
31
0.0000000000
11
-93.5316631552
21
63.7856263424
31
0.0000000000
11
-93.5303750443
21
63.3603322758
31
0.0000000000
11
-93.5296389947
21
63.1235019288
31
0.0000000000
0
SPLINE
5
375
100
AcDbEntity
8
0
100
AcDbSpline
62
9
6
CONTINUOUS
70
0
71
3
72
9
73
5
74
3
42
0.0000001000
43
0.0000001000
44
0.0000000001
12
-0.0000040608
22
-0.0000000121
32
0.0000000000
13
0.0021827551
23
-0.6905923200
33
0.0000000000
40
0.0000000000
40
0.0000000000
40
0.0000000000
40
0.0000000000
40
0.6878920574
40
1.0000000000
40
1.0000000000
40
1.0000000000
40
1.0000000000
10
-93.5316631543
20
63.7856266307
30
0.0000000000
10
-93.5316640854
20
63.7856266280
30
0.0000000000
10
-93.5306434987
20
63.4456646350
30
0.0000000000
10
-93.5298660798
20
63.1953483782
30
0.0000000000
10
-93.5296389947
20
63.1235019288
30
0.0000000000
11
-93.5316631543
21
63.7856266307
31
0.0000000000
11
-93.5303750443
21
63.3603322758
31
0.0000000000
11
-93.5296389947
21
63.1235019288
31
0.0000000000
0
SPLINE
5
376
100
AcDbEntity
8
0
100
AcDbSpline
62
9
6
CONTINUOUS
70
0
71
3
72
10
73
6
74
4
42
0.0000001000
43
0.0000001000
44
0.0000000001
12
-0.0316246093
22
-0.0485790427
32
0.0000000000
13
-0.0000159599
23
-0.0000009354
33
0.0000000000
40
0.0000000000
40
0.0000000000
40
0.0000000000
40
0.0000000000
40
0.3868356459
40
0.7918937997
40
1.0000000000
40
1.0000000000
40
1.0000000000
40
1.0000000000
10
-88.6690453329
20
-79.6941600443
30
0.0000000000
10
-88.6731231750
20
-79.7004240794
30
0.0000000000
10
-88.6817995330
20
-79.7146239318
30
0.0000000000
10
-88.6889258509
20
-79.7267930747
30
0.0000000000
10
-88.6980360306
20
-79.7445126293
30
0.0000000000
10
-88.6980371377
20
-79.7445126942
30
0.0000000000
11
-88.6690453329
21
-79.6941600443
31
0.0000000000
11
-88.6808761069
21
-79.7132082771
31
0.0000000000
11
-88.6923981623
21
-79.7336663066
31
0.0000000000
11
-88.6980371377
21
-79.7445126942
31
0.0000000000
0
SPLINE
5
377
100
AcDbEntity
8
0
100
AcDbSpline
62
9
6
CONTINUOUS
70
0
71
3
72
10
73
6
74
4
42
0.0000001000
43
0.0000001000
44
0.0000000001
12
-0.0016439455
22
-10.6077095296
32
0.0000000000
13
1.1001174664
23
-10.5505092639
33
0.0000000000
40
0.0000000000
40
0.0000000000
40
0.0000000000
40
0.0000000000
40
0.3135495549
40
0.6467368246
40
1.0000000000
40
1.0000000000
40
1.0000000000
40
1.0000000000
10
-88.3794360202
20
-67.5132665813
30
0.0000000000
10
-88.3796078396
20
-68.6219474484
30
0.0000000000
10
-88.3172688804
20
-70.9088402399
30
0.0000000000
10
-88.0908997426
20
-74.4379542759
30
0.0000000000
10
-87.8666213308
20
-76.8551273347
30
0.0000000000
10
-87.7370776676
20
-78.0974961361
30
0.0000000000
11
-88.3794360202
21
-67.5132665813
31
0.0000000000
11
-88.2994030556
21
-70.8383461856
31
0.0000000000
11
-88.0792151102
21
-74.3658345537
31
0.0000000000
11
-87.7370776676
21
-78.0974961361
31
0.0000000000
0
SPLINE
5
378
100
AcDbEntity
8
0
100
AcDbSpline
62
9
6
CONTINUOUS
70
0
71
3
72
19
73
15
74
13
42
0.0000001000
43
0.0000001000
44
0.0000000001
12
4.8186656257
22
-23.6382160627
32
0.0000000000
13
4.6743539201
23
-23.6671758448
33
0.0000000000
40
0.0000000000
40
0.0000000000
40
0.0000000000
40
0.0000000000
40
0.0532875716
40
0.1108547784
40
0.1729950470
40
0.2400052392
40
0.3122274022
40
0.3900397953
40
0.4738549267
40
0.5641193646
40
0.6613169443
40
0.7659748671
40
0.8786576112
40
1.0000000000
40
1.0000000000
40
1.0000000000
40
1.0000000000
10
-93.4763341732
20
-56.0536910381
30
0.0000000000
10
-93.3907425100
20
-56.4735654154
30
0.0000000000
10
-93.2136198341
20
-57.3472253736
30
0.0000000000
10
-92.9368058584
20
-58.7105380114
30
0.0000000000
10
-92.6366001262
20
-60.1817022023
30
0.0000000000
10
-92.3112929906
20
-61.7680190263
30
0.0000000000
10
-91.9594991412
20
-63.4775530023
30
0.0000000000
10
-91.5799568785
20
-65.3193444290
30
0.0000000000
10
-91.1714752406
20
-67.3033069641
30
0.0000000000
10
-90.7328996109
20
-69.4402280505
30
0.0000000000
10
-90.2630709862
20
-71.7418337890
30
0.0000000000
10
-89.7607916791
20
-74.2208065802
30
0.0000000000
10
-89.2247329122
20
-76.8910358340
30
0.0000000000
10
-88.8581110899
20
-78.7368828265
30
0.0000000000
10
-88.6690453329
20
-79.6941600443
30
0.0000000000
11
-93.4763341732
21
-56.0536910381
31
0.0000000000
11
-93.2203979453
21
-57.3134848612
31
0.0000000000
11
-92.9439107474
21
-58.6744561055
31
0.0000000000
11
-92.6442015042
21
-60.1432848950
31
0.0000000000
11
-92.3195389290
21
-61.7269259148
31
0.0000000000
11
-91.9684841103
21
-63.4335064061
31
0.0000000000
11
-91.5897505255
21
-65.2720776186
31
0.0000000000
11
-91.1821334311
21
-67.2525517251
31
0.0000000000
11
-90.7444720529
21
-69.3856883497
31
0.0000000000
11
-90.2756062729
21
-71.6831631155
31
0.0000000000
11
-89.7743171505
21
-74.1577039061
31
0.0000000000
11
-89.2393171768
21
-76.8229373409
31
0.0000000000
11
-88.6690453329
21
-79.6941600443
31
0.0000000000
0
SPLINE
5
379
100
AcDbEntity
8
0
100
AcDbSpline
62
7
6
CONTINUOUS
70
0
71
3
72
12
73
8
74
6
42
0.0000001000
43
0.0000001000
44
0.0000000001
12
-1.5738330097
22
0.0000000000
32
0.0000000000
13
0.0000000000
23
-1.5738330097
33
0.0000000000
40
0.0000000000
40
0.0000000000
40
0.0000000000
40
0.0000000000
40
0.1977164743
40
0.3973130236
40
0.5969303217
40
0.7983654090
40
1.0000000000
40
1.0000000000
40
1.0000000000
40
1.0000000000
10
-83.4894481958
20
38.5148570313
30
0.0000000000
10
-83.5931724337
20
38.5148570313
30
0.0000000000
10
-83.8030841077
20
38.4814198334
30
0.0000000000
10
-84.0859665485
20
38.3356683446
30
0.0000000000
10
-84.3113358796
20
38.1079496592
30
0.0000000000
10
-84.4561274604
20
37.8212977869
30
0.0000000000
10
-84.4894481958
20
37.6083779289
30
0.0000000000
10
-84.4894481958
20
37.5025982038
30
0.0000000000
11
-83.4894481958
21
38.5148570313
31
0.0000000000
11
-83.7967351286
21
38.4658346005
31
0.0000000000
11
-84.0761085846
21
38.3222060586
31
0.0000000000
11
-84.2972440785
21
38.0990507395
31
0.0000000000
11
-84.4402167199
21
37.8160952755
31
0.0000000000
11
-84.4894481958
21
37.5025982038
31
0.0000000000
0
SPLINE
5
37A
100
AcDbEntity
8
0
100
AcDbSpline
62
9
6
CONTINUOUS
70
0
71
3
72
8
73
4
74
2
42
0.0000001000
43
0.0000001000
44
0.0000000001
12
0.0000019091
22
-0.0000000058
32
0.0000000000
13
0.0017618107
23
0.5757976119
33
0.0000000000
40
0.0000000000
40
0.0000000000
40
0.0000000000
40
0.0000000000
40
1.0000000000
40
1.0000000000
40
1.0000000000
40
1.0000000000
10
-93.5316598026
20
-63.9808371936
30
0.0000000000
10
-93.5316591662
20
-63.9808371955
30
0.0000000000
10
-93.5309559973
20
-63.7462893455
30
0.0000000000
10
-93.5303687271
20
-63.5543568082
30
0.0000000000
11
-93.5316598026
21
-63.9808371936
31
0.0000000000
11
-93.5303687271
21
-63.5543568082
31
0.0000000000
0
SPLINE
5
37B
100
AcDbEntity
8
0
100
AcDbSpline
62
9
6
CONTINUOUS
70
0
71
3
72
10
73
6
74
4
42
0.0000001000
43
0.0000001000
44
0.0000000001
12
-0.0036878277
22
-1.1685684305
32
0.0000000000
13
0.0043129977
23
1.4095803711
33
0.0000000000
40
0.0000000000
40
0.0000000000
40
0.0000000000
40
0.0000000000
40
0.1827006332
40
0.5915761874
40
1.0000000000
40
1.0000000000
40
1.0000000000
40
1.0000000000
10
-93.5296428359
20
-63.3195268814
30
0.0000000000
10
-93.5298674254
20
-63.3906929455
30
0.0000000000
10
-93.5306437191
20
-63.6410877163
30
0.0000000000
10
-93.5323627594
20
-64.2155259634
30
0.0000000000
10
-93.5309559041
20
-63.7462588713
30
0.0000000000
10
-93.5303687271
20
-63.5543568082
30
0.0000000000
11
-93.5296428359
21
-63.3195268814
31
0.0000000000
11
-93.5303698751
21
-63.5538850872
31
0.0000000000
11
-93.5316598022
21
-63.9808371759
31
0.0000000000
11
-93.5303687271
21
-63.5543568082
31
0.0000000000
0
SPLINE
5
37C
100
AcDbEntity
8
0
100
AcDbSpline
62
9
6
CONTINUOUS
70
0
71
3
72
15
73
11
74
9
42
0.0000001000
43
0.0000001000
44
0.0000000001
12
-0.0301785520
22
-9.5627307289
32
0.0000000000
13
0.1351084620
23
8.5440437593
33
0.0000000000
40
0.0000000000
40
0.0000000000
40
0.0000000000
40
0.0000000000
40
0.0223260696
40
0.0722907793
40
0.1222002860
40
0.2203773329
40
0.3628566564
40
0.5445783807
40
0.7601608619
40
1.0000000000
40
1.0000000000
40
1.0000000000
40
1.0000000000
10
-93.5296428359
20
-63.3195268814
30
0.0000000000
10
-93.5298674254
20
-63.3906929455
30
0.0000000000
10
-93.5306437191
20
-63.6410877163
30
0.0000000000
10
-93.5323627594
20
-64.2155259634
30
0.0000000000
10
-93.5295729555
20
-63.2849660678
30
0.0000000000
10
-93.5274813675
20
-62.6556234772
30
0.0000000000
10
-93.5220940073
20
-61.3595445512
30
0.0000000000
10
-93.5144120359
20
-59.8581604736
30
0.0000000000
10
-93.5008949677
20
-58.0306504964
30
0.0000000000
10
-93.4871356056
20
-56.7367564018
30
0.0000000000
10
-93.4763341732
20
-56.0536910381
30
0.0000000000
11
-93.5296428359
21
-63.3195268814
31
0.0000000000
11
-93.5303698751
21
-63.5538850872
31
0.0000000000
11
-93.5316598022
21
-63.9808371759
31
0.0000000000
11
-93.5303687271
21
-63.5543568082
31
0.0000000000
11
-93.5275777215
21
-62.7154275955
31
0.0000000000
11
-93.5225020684
21
-61.4979364073
31
0.0000000000
11
-93.5143134765
21
-59.9451255222
31
0.0000000000
11
-93.5004914057
21
-58.1030009430
31
0.0000000000
11
-93.4763341732
21
-56.0536910381
31
0.0000000000
0
SPLINE
5
37D
100
AcDbEntity
8
0
100
AcDbSpline
62
9
6
CONTINUOUS
70
0
71
3
72
10
73
6
74
4
42
0.0000001000
43
0.0000001000
44
0.0000000001
12
-0.0315887988
22
0.0485166860
32
0.0000000000
13
-0.0000298494
23
0.0000044304
33
0.0000000000
40
0.0000000000
40
0.0000000000
40
0.0000000000
40
0.0000000000
40
0.3858585167
40
0.7904837275
40
1.0000000000
40
1.0000000000
40
1.0000000000
40
1.0000000000
10
-88.6690453397
20
79.4991677592
30
0.0000000000
10
-88.6731082754
20
79.5054079514
30
0.0000000000
10
-88.6817654659
20
79.5195769862
30
0.0000000000
10
-88.6888586546
20
79.5316759686
30
0.0000000000
10
-88.6980291138
20
79.5495090478
30
0.0000000000
10
-88.6980311985
20
79.5495093572
30
0.0000000000
11
-88.6690453397
21
79.4991677592
31
0.0000000000
11
-88.6808331790
21
79.5181433699
31
0.0000000000
11
-88.6923323598
21
79.5385521375
31
0.0000000000
11
-88.6980311985
21
79.5495093572
31
0.0000000000
0
SPLINE
5
37E
100
AcDbEntity
8
0
100
AcDbSpline
62
7
6
CONTINUOUS
70
0
71
3
72
31
73
27
74
25
42
0.0000001000
43
0.0000001000
44
0.0000000001
12
-4.2836172802
22
0.0000000000
32
0.0000000000
13
0.0000000000
23
4.2836172802
33
0.0000000000
40
0.0000000000
40
0.0000000000
40
0.0000000000
40
0.0000000000
40
0.0149672311
40
0.0316979015
40
0.0499879596
40
0.0697446788
40
0.0909565839
40
0.1136265461
40
0.1380216345
40
0.1643500341
40
0.1928059849
40
0.2235604075
40
0.2567693063
40
0.2924905227
40
0.3307594833
40
0.3716094608
40
0.4150710035
40
0.4611556892
40
0.5100384292
40
0.5624423068
40
0.6192509725
40
0.6813490516
40
0.7496110935
40
0.8249015824
40
0.9080750250
40
1.0000000000
40
1.0000000000
40
1.0000000000
40
1.0000000000
10
-83.4894481958
20
51.8649336369
30
0.0000000000
10
-83.5108194924
20
51.8649336369
30
0.0000000000
10
-83.5556618840
20
51.8831068607
30
0.0000000000
10
-83.6055581193
20
51.9348040668
30
0.0000000000
10
-83.6503217394
20
51.9991829107
30
0.0000000000
10
-83.6914646678
20
52.0732119867
30
0.0000000000
10
-83.7308487329
20
52.1551374016
30
0.0000000000
10
-83.7693921250
20
52.2447080939
30
0.0000000000
10
-83.8078636159
20
52.3422004385
30
0.0000000000
10
-83.8468348096
20
52.4483388813
30
0.0000000000
10
-83.8866784105
20
52.5638026464
30
0.0000000000
10
-83.9276305495
20
52.6892560735
30
0.0000000000
10
-83.9697860833
20
52.8252120562
30
0.0000000000
10
-84.0131174286
20
52.9720219725
30
0.0000000000
10
-84.0574898643
20
53.1298859788
30
0.0000000000
10
-84.1026985709
20
53.2989809027
30
0.0000000000
10
-84.1484623383
20
53.4794637657
30
0.0000000000
10
-84.1944692316
20
53.6717002997
30
0.0000000000
10
-84.2405189521
20
53.8770350725
30
0.0000000000
10
-84.2864701322
20
54.0980590470
30
0.0000000000
10
-84.3320338170
20
54.3384023628
30
0.0000000000
10
-84.3764420138
20
54.6019622852
30
0.0000000000
10
-84.4181960871
20
54.8926554976
30
0.0000000000
10
-84.4547585784
20
55.2143802257
30
0.0000000000
10
-84.4820675165
20
55.5709479498
30
0.0000000000
10
-84.4894481958
20
55.8210063365
30
0.0000000000
10
-84.4894481958
20
55.9522634737
30
0.0000000000
11
-83.4894481958
21
51.8649336369
31
0.0000000000
11
-83.5502235521
21
51.8853529154
31
0.0000000000
11
-83.6025550922
21
51.9343190449
31
0.0000000000
11
-83.6480426259
21
51.9981095783
31
0.0000000000
11
-83.6897357514
21
52.0717571039
31
0.0000000000
11
-83.7293890477
21
52.1535117677
31
0.0000000000
11
-83.7679778388
21
52.2426248916
31
0.0000000000
11
-83.8064748449
21
52.3397746108
31
0.0000000000
11
-83.8454537103
21
52.4456053913
31
0.0000000000
11
-83.8852975834
21
52.5608039639
31
0.0000000000
11
-83.9262438977
21
52.6860192722
31
0.0000000000
11
-83.9684248550
21
52.8218759169
31
0.0000000000
11
-84.0117801152
21
52.9686213551
31
0.0000000000
11
-84.0561672639
21
53.1264272124
31
0.0000000000
11
-84.1013821304
21
53.2954704032
31
0.0000000000
11
-84.1471491765
21
53.4759298731
31
0.0000000000
11
-84.1930948009
21
53.6679178270
31
0.0000000000
11
-84.2389039368
21
53.8722405325
31
0.0000000000
11
-84.2845691804
21
54.0920248085
31
0.0000000000
11
-84.3298478187
21
54.3311218681
31
0.0000000000
11
-84.3739670154
21
54.5934419773
31
0.0000000000
11
-84.4154131851
21
54.8828982327
31
0.0000000000
11
-84.4516201371
21
55.2033750560
31
0.0000000000
11
-84.4784693510
21
55.5586451439
31
0.0000000000
11
-84.4894481958
21
55.9522634737
31
0.0000000000
0
SPLINE
5
37F
100
AcDbEntity
8
0
100
AcDbSpline
62
7
6
CONTINUOUS
70
0
71
3
72
32
73
28
74
26
42
0.0000001000
43
0.0000001000
44
0.0000000001
12
0.0000000000
22
4.2836554419
32
0.0000000000
13
4.2836554419
23
0.0000000000
33
0.0000000000
40
0.0000000000
40
0.0000000000
40
0.0000000000
40
0.0000000000
40
0.0891322782
40
0.1703151281
40
0.2445620629
40
0.3128902520
40
0.3762245501
40
0.4350936684
40
0.4896794546
40
0.5401841817
40
0.5868383824
40
0.6298994657
40
0.6696178984
40
0.7062478738
40
0.7400480696
40
0.7713436265
40
0.8007340605
40
0.8281277998
40
0.8533896524
40
0.8765459210
40
0.8977616679
40
0.9172982372
40
0.9354647565
40
0.9525676661
40
0.9688369964
40
0.9850121763
40
1.0000000000
40
1.0000000000
40
1.0000000000
40
1.0000000000
10
-84.4894481958
20
45.5527442541
30
0.0000000000
10
-84.4894481958
20
45.6800149102
30
0.0000000000
10
-84.4824854244
20
45.9232426197
30
0.0000000000
10
-84.4564819846
20
46.2715638886
30
0.0000000000
10
-84.4211386561
20
46.5891624652
30
0.0000000000
10
-84.3799923152
20
46.8803189766
30
0.0000000000
10
-84.3352771648
20
47.1487001745
30
0.0000000000
10
-84.2885413067
20
47.3967871746
30
0.0000000000
10
-84.2409821438
20
47.6260328861
30
0.0000000000
10
-84.1935304537
20
47.8374557871
30
0.0000000000
10
-84.1468329914
20
48.0321586996
30
0.0000000000
10
-84.1013139225
20
48.2112873471
30
0.0000000000
10
-84.0572248299
20
48.3759959987
30
0.0000000000
10
-84.0146852912
20
48.5274175485
30
0.0000000000
10
-83.9736772144
20
48.6667651844
30
0.0000000000
10
-83.9339404293
20
48.7957000428
30
0.0000000000
10
-83.8952514529
20
48.9153737062
30
0.0000000000
10
-83.8575047572
20
49.0262839305
30
0.0000000000
10
-83.8208235522
20
49.1281372056
30
0.0000000000
10
-83.7851955340
20
49.2209731628
30
0.0000000000
10
-83.7503572040
20
49.3053277693
30
0.0000000000
10
-83.7157906209
20
49.3820484622
30
0.0000000000
10
-83.6806419889
20
49.4519993300
30
0.0000000000
10
-83.6437882117
20
49.5157736092
30
0.0000000000
10
-83.6025448977
20
49.5734583961
30
0.0000000000
10
-83.5549471705
20
49.6221924179
30
0.0000000000
10
-83.5108490867
20
49.6400740908
30
0.0000000000
10
-83.4894481958
20
49.6400740908
30
0.0000000000
11
-84.4894481958
21
45.5527442541
31
0.0000000000
11
-84.4791076810
21
45.9344161722
31
0.0000000000
11
-84.4535553914
21
46.2812355065
31
0.0000000000
11
-84.4185847295
21
46.5973553656
31
0.0000000000
11
-84.3777583059
21
46.8871884661
31
0.0000000000
11
-84.3332552560
21
47.1548158603
31
0.0000000000
11
-84.2866237250
21
47.4026418894
31
0.0000000000
11
-84.2391564288
21
47.6315999237
31
0.0000000000
11
-84.1917928342
21
47.8426965453
31
0.0000000000
11
-84.1451839339
21
48.0370360445
31
0.0000000000
11
-84.0997453224
21
48.2158107564
31
0.0000000000
11
-84.0557337376
21
48.3801598587
31
0.0000000000
11
-84.0132700364
21
48.5312149577
31
0.0000000000
11
-83.9723615861
21
48.6701040405
31
0.0000000000
11
-83.9328375319
21
48.7982046540
31
0.0000000000
11
-83.8940577260
21
48.9179817681
31
0.0000000000
11
-83.8561850773
21
49.0290474757
31
0.0000000000
11
-83.8194383308
21
49.1308303115
31
0.0000000000
11
-83.7837980854
21
49.2233998453
31
0.0000000000
11
-83.7489828775
21
49.3073477359
31
0.0000000000
11
-83.7144336350
21
49.3835712209
31
0.0000000000
11
-83.6792698585
21
49.4529925619
31
0.0000000000
11
-83.6421637261
21
49.5161637420
31
0.0000000000
11
-83.6010707602
21
49.5724520321
31
0.0000000000
11
-83.5503000620
21
49.6196037821
31
0.0000000000
11
-83.4894481958
21
49.6400740908
31
0.0000000000
0
SPLINE
5
380
100
AcDbEntity
8
0
100
AcDbSpline
62
7
6
CONTINUOUS
70
0
71
3
72
11
73
7
74
5
42
0.0000001000
43
0.0000001000
44
0.0000000001
12
0.5108548387
22
0.0000000000
32
0.0000000000
13
0.0000000000
23
-0.5108548387
33
0.0000000000
40
0.0000000000
40
0.0000000000
40
0.0000000000
40
0.0000000000
40
0.3718859851
40
0.6920956962
40
0.9107060295
40
1.0000000000
40
1.0000000000
40
1.0000000000
40
1.0000000000
10
-80.9894481958
20
38.5148570313
30
0.0000000000
10
-80.9261216108
20
38.5148570313
30
0.0000000000
10
-80.8104857407
20
38.5112322542
30
0.0000000000
10
-80.6479039981
20
38.4965836341
30
0.0000000000
10
-80.5591613264
20
38.4766316424
30
0.0000000000
10
-80.4894481958
20
38.4587694422
30
0.0000000000
10
-80.4894481958
20
38.4435640233
30
0.0000000000
11
-80.9894481958
21
38.5148570313
31
0.0000000000
11
-80.7995652141
21
38.5087939829
31
0.0000000000
11
-80.6368524469
21
38.4919656038
31
0.0000000000
11
-80.5276781550
21
38.4684500257
31
0.0000000000
11
-80.4894481958
21
38.4435640233
31
0.0000000000
0
SPLINE
5
381
100
AcDbEntity
8
0
100
AcDbSpline
62
9
6
CONTINUOUS
70
0
71
3
72
10
73
6
74
4
42
0.0000001000
43
0.0000001000
44
0.0000000001
12
-0.6821013319
22
-0.0000009560
32
0.0000000000
13
-0.1318686671
23
0.6692330548
33
0.0000000000
40
0.0000000000
40
0.0000000000
40
0.0000000000
40
0.0000000000
40
0.3333326039
40
0.6666658883
40
1.0000000000
40
1.0000000000
40
1.0000000000
40
1.0000000000
10
-88.1784813060
20
-80.0974957254
30
0.0000000000
10
-88.2542701770
20
-80.0974958316
30
0.0000000000
10
-88.4081160829
20
-80.0617167005
30
0.0000000000
10
-88.5895471547
20
-79.9125462965
30
0.0000000000
10
-88.6543937224
20
-79.7685195443
30
0.0000000000
10
-88.6690458308
20
-79.6941601423
30
0.0000000000
11
-88.1784813060
21
-80.0974957254
31
0.0000000000
11
-88.3998929428
21
-80.0457998473
31
0.0000000000
11
-88.5755201363
21
-79.9014015207
31
0.0000000000
11
-88.6690458308
21
-79.6941601423
31
0.0000000000
0
SPLINE
5
382
100
AcDbEntity
8
0
100
AcDbSpline
62
9
6
CONTINUOUS
70
0
71
3
72
10
73
6
74
4
42
0.0000001000
43
0.0000001000
44
0.0000000001
12
-1.1001520835
22
-10.5505137316
32
0.0000000000
13
0.0012573954
23
-10.6077176163
33
0.0000000000
40
0.0000000000
40
0.0000000000
40
0.0000000000
40
0.0000000000
40
0.3643413743
40
0.6969644277
40
1.0000000000
40
1.0000000000
40
1.0000000000
40
1.0000000000
10
-87.7370775288
20
77.9025038639
30
0.0000000000
10
-87.8706878362
20
76.6211743064
30
0.0000000000
10
-88.0975335540
20
74.1668745908
30
0.0000000000
10
-88.3203493606
20
70.6375047233
30
0.0000000000
10
-88.3795626401
20
68.3897823665
30
0.0000000000
10
-88.3794356283
20
67.3182771071
30
0.0000000000
11
-87.7370775288
21
77.9025038639
31
0.0000000000
11
-88.0883042098
21
74.0536658367
31
0.0000000000
11
-88.3043736959
21
70.5319164055
31
0.0000000000
11
-88.3794356283
21
67.3182771071
31
0.0000000000
0
SPLINE
5
383
100
AcDbEntity
8
0
100
AcDbSpline
62
9
6
CONTINUOUS
70
0
71
3
72
10
73
6
74
4
42
0.0000001000
43
0.0000001000
44
0.0000000001
12
-0.6947908154
22
0.0000034530
32
0.0000000000
13
-0.1040587208
23
0.6869541905
33
0.0000000000
40
0.0000000000
40
0.0000000000
40
0.0000000000
40
0.0000000000
40
0.3308209212
40
0.6640252567
40
1.0000000000
40
1.0000000000
40
1.0000000000
40
1.0000000000
10
-88.0304113274
20
-80.0974961361
30
0.0000000000
10
-88.1070284399
20
-80.0974957553
30
0.0000000000
10
-88.2632898650
20
-80.0591276077
30
0.0000000000
10
-88.4434496390
20
-79.9008744759
30
0.0000000000
10
-88.5034688722
20
-79.7507372800
30
0.0000000000
10
-88.5151225728
20
-79.6738041940
30
0.0000000000
11
-88.0304113274
21
-80.0974961361
31
0.0000000000
11
-88.2536369152
21
-80.0427058602
31
0.0000000000
11
-88.4279406019
21
-79.8903449062
31
0.0000000000
11
-88.5151225728
21
-79.6738041940
31
0.0000000000
0
SPLINE
5
384
100
AcDbEntity
8
0
100
AcDbSpline
62
9
6
CONTINUOUS
70
0
71
3
72
10
73
6
74
4
42
0.0000001000
43
0.0000001000
44
0.0000000001
12
-0.6947345092
22
-0.0000113546
32
0.0000000000
13
-0.1041036617
23
-0.6868904323
33
0.0000000000
40
0.0000000000
40
0.0000000000
40
0.0000000000
40
0.0000000000
40
0.3308244413
40
0.6640285075
40
1.0000000000
40
1.0000000000
40
1.0000000000
40
1.0000000000
10
-88.0304113478
20
79.9024496205
30
0.0000000000
10
-88.1070230664
20
79.9024483683
30
0.0000000000
10
-88.2632718733
20
79.8640852534
30
0.0000000000
10
-88.4434238127
20
79.7058541903
30
0.0000000000
10
-88.5034480526
20
79.5557346160
30
0.0000000000
10
-88.5151066735
20
79.4788094147
30
0.0000000000
11
-88.0304113478
21
79.9024496205
31
0.0000000000
11
-88.2536217448
21
79.8476653385
31
0.0000000000
11
-88.4279178992
21
79.6953245595
31
0.0000000000
11
-88.5151066735
21
79.4788094147
31
0.0000000000
0
SPLINE
5
385
100
AcDbEntity
8
0
100
AcDbSpline
62
9
6
CONTINUOUS
70
0
71
3
72
8
73
4
74
2
42
0.0000001000
43
0.0000001000
44
0.0000000001
12
-0.1517696549
22
-0.0000008800
32
0.0000000000
13
-0.1464520326
23
-0.0460672089
33
0.0000000000
40
0.0000000000
40
0.0000000000
40
0.0000000000
40
0.0000000000
40
1.0000000000
40
1.0000000000
40
1.0000000000
40
1.0000000000
10
-88.1784813086
20
79.9025038639
30
0.0000000000
10
-88.2290711936
20
79.9025035706
30
0.0000000000
10
-88.2801662976
20
79.8945321737
30
0.0000000000
10
-88.3289836418
20
79.8791764374
30
0.0000000000
11
-88.1784813086
21
79.9025038639
31
0.0000000000
11
-88.3289836418
21
79.8791764374
31
0.0000000000
0
SPLINE
5
386
100
AcDbEntity
8
0
100
AcDbSpline
62
9
6
CONTINUOUS
70
0
71
3
72
10
73
6
74
4
42
0.0000001000
43
0.0000001000
44
0.0000000001
12
-0.5117477731
22
-0.1609727851
32
0.0000000000
13
-0.1025263692
23
-0.5203242813
33
0.0000000000
40
0.0000000000
40
0.0000000000
40
0.0000000000
40
0.0000000000
40
0.1425456038
40
0.5712722397
40
1.0000000000
40
1.0000000000
40
1.0000000000
40
1.0000000000
10
-88.3289836418
20
79.8791764374
30
0.0000000000
10
-88.3532994402
20
79.8715277831
30
0.0000000000
10
-88.4484837592
20
79.8335324294
30
0.0000000000
10
-88.5895446389
20
79.7175528699
30
0.0000000000
10
-88.6543906174
20
79.5735265467
30
0.0000000000
10
-88.6690425843
20
79.4991673921
30
0.0000000000
11
-88.3289836418
21
79.8791764374
31
0.0000000000
11
-88.3998917761
21
79.8508067968
31
0.0000000000
11
-88.5755176938
21
79.7064082445
31
0.0000000000
11
-88.6690425843
21
79.4991673921
31
0.0000000000
0
SPLINE
5
387
100
AcDbEntity
8
0
100
AcDbSpline
62
9
6
CONTINUOUS
70
0
71
3
72
9
73
5
74
3
42
0.0000001000
43
0.0000001000
44
0.0000000001
12
0.1708929470
22
-0.0000049181
32
0.0000000000
13
0.0660618154
23
-0.1538837482
33
0.0000000000
40
0.0000000000
40
0.0000000000
40
0.0000000000
40
0.0000000000
40
0.4929107253
40
1.0000000000
40
1.0000000000
40
1.0000000000
40
1.0000000000
10
-88.0304113486
20
79.9025038639
30
0.0000000000
10
-88.0023330264
20
79.9025030558
30
0.0000000000
10
-87.9572462806
20
79.8520052236
30
0.0000000000
10
-87.9309909512
20
79.8015096265
30
0.0000000000
10
-87.9198245385
20
79.7754986938
30
0.0000000000
11
-88.0304113486
21
79.9025038639
31
0.0000000000
11
-87.9624608447
21
79.8527217526
31
0.0000000000
11
-87.9198245385
21
79.7754986938
31
0.0000000000
0
SPLINE
5
388
100
AcDbEntity
8
0
100
AcDbSpline
62
9
6
CONTINUOUS
70
0
71
3
72
17
73
13
74
11
42
0.0000001000
43
0.0000001000
44
0.0000000001
12
0.7329066719
22
-1.7072256509
32
0.0000000000
13
-0.1477854343
23
-1.8901614293
33
0.0000000000
40
0.0000000000
40
0.0000000000
40
0.0000000000
40
0.0000000000
40
0.0284171889
40
0.1253147211
40
0.2359468219
40
0.3537037257
40
0.4733313807
40
0.5906661448
40
0.7030182383
40
0.8089491396
40
0.9075648520
40
1.0000000000
40
1.0000000000
40
1.0000000000
40
1.0000000000
10
-87.9198245385
20
79.7754986938
30
0.0000000000
10
-87.9128821561
20
79.7593271758
30
0.0000000000
10
-87.8859278212
20
79.6873230617
30
0.0000000000
10
-87.8418559876
20
79.5424470629
30
0.0000000000
10
-87.7997562643
20
79.3419013404
30
0.0000000000
10
-87.7654701502
20
79.1243355224
30
0.0000000000
10
-87.7409297927
20
78.9015001898
30
0.0000000000
10
-87.7255109227
20
78.6812115721
30
0.0000000000
10
-87.7184993989
20
78.4691843427
30
0.0000000000
10
-87.7187097399
20
78.2688741742
30
0.0000000000
10
-87.7249036271
20
78.0812624992
30
0.0000000000
10
-87.7325240060
20
77.9607429810
30
0.0000000000
10
-87.7370775288
20
77.9025038639
30
0.0000000000
11
-87.9198245385
21
79.7754986938
31
0.0000000000
11
-87.9008398778
21
79.7264168125
31
0.0000000000
11
-87.8470166954
21
79.5507672304
31
0.0000000000
11
-87.8023345879
21
79.3458309578
31
0.0000000000
11
-87.7673681081
21
79.1253273056
31
0.0000000000
11
-87.7422835223
21
78.8999130786
31
0.0000000000
11
-87.7266845306
21
78.6780021547
31
0.0000000000
11
-87.7196117544
21
78.4651078979
31
0.0000000000
11
-87.7198223418
21
78.2642704289
31
0.0000000000
11
-87.7260012405
21
78.0774040635
31
0.0000000000
11
-87.7370775288
21
77.9025038639
31
0.0000000000
0
SPLINE
5
389
100
AcDbEntity
8
0
100
AcDbSpline
62
9
6
CONTINUOUS
70
0
71
3
72
18
73
14
74
12
42
0.0000001000
43
0.0000001000
44
0.0000000001
12
0.1611066609
22
-2.0605343985
32
0.0000000000
13
-2.0668230108
23
-0.0000743619
33
0.0000000000
40
0.0000000000
40
0.0000000000
40
0.0000000000
40
0.0000000000
40
0.0847921924
40
0.1752539221
40
0.2724260005
40
0.3754883559
40
0.4831214136
40
0.5928577968
40
0.7008781291
40
0.8023627767
40
0.8912484968
40
0.9592441821
40
1.0000000000
40
1.0000000000
40
1.0000000000
40
1.0000000000
10
-87.7370776676
20
-78.0974961361
30
0.0000000000
10
-87.7325241386
20
-78.1557352125
30
0.0000000000
10
-87.7249037465
20
-78.2762546534
30
0.0000000000
10
-87.7187098201
20
-78.4638662203
30
0.0000000000
10
-87.7184994443
20
-78.6641763014
30
0.0000000000
10
-87.7255109244
20
-78.8762034727
30
0.0000000000
10
-87.7409297593
20
-79.0964920679
30
0.0000000000
10
-87.7654700763
20
-79.3193274247
30
0.0000000000
10
-87.7997562023
20
-79.5368932794
30
0.0000000000
10
-87.8418558530
20
-79.7374391399
30
0.0000000000
10
-87.8944653703
20
-79.9103803083
30
0.0000000000
10
-87.9430317578
20
-80.0310773103
30
0.0000000000
10
-88.0023329733
20
-80.0974951259
30
0.0000000000
10
-88.0304113274
20
-80.0974961361
30
0.0000000000
11
-87.7370776676
21
-78.0974961361
31
0.0000000000
11
-87.7260013579
21
-78.2723962137
31
0.0000000000
11
-87.7198224242
21
-78.4592624698
31
0.0000000000
11
-87.7196117992
21
-78.6600998471
31
0.0000000000
11
-87.7266845336
21
-78.8729940429
31
0.0000000000
11
-87.7422834866
21
-79.0949049443
31
0.0000000000
11
-87.7673680403
21
-79.3203191909
31
0.0000000000
11
-87.8023345076
21
-79.5408229016
31
0.0000000000
11
-87.8470165952
21
-79.7457592608
31
0.0000000000
11
-87.9008398284
21
-79.9214089408
31
0.0000000000
11
-87.9624607371
21
-80.0477139805
31
0.0000000000
11
-88.0304113274
21
-80.0974961361
31
0.0000000000
0
SPLINE
5
38A
100
AcDbEntity
8
0
100
AcDbSpline
62
9
6
CONTINUOUS
70
0
71
3
72
9
73
5
74
3
42
0.0000001000
43
0.0000001000
44
0.0000000001
12
-0.1756960248
22
0.1407958447
32
0.0000000000
13
0.0062887507
23
0.2187544154
33
0.0000000000
40
0.0000000000
40
0.0000000000
40
0.0000000000
40
0.0000000000
40
0.9319995899
40
1.0000000000
40
1.0000000000
40
1.0000000000
40
1.0000000000
10
-93.4764158304
20
-56.0537082340
30
0.0000000000
10
-93.5309987048
20
-56.0099676775
30
0.0000000000
10
-93.5877916686
20
-55.9394567078
30
0.0000000000
10
-93.5892287107
20
-55.8665867697
30
0.0000000000
10
-93.5890861649
20
-55.8616283064
30
0.0000000000
11
-93.4764158304
21
-56.0537082340
31
0.0000000000
11
-93.5887773030
21
-55.8764862331
31
0.0000000000
11
-93.5890861649
21
-55.8616283064
31
0.0000000000
0
SPLINE
5
38B
100
AcDbEntity
8
0
100
AcDbSpline
62
9
6
CONTINUOUS
70
0
71
3
72
9
73
5
74
3
42
0.0000001000
43
0.0000001000
44
0.0000000001
12
-0.1757010673
22
-0.1402136166
32
0.0000000000
13
0.0061141828
23
-0.2183362353
33
0.0000000000
40
0.0000000000
40
0.0000000000
40
0.0000000000
40
0.0000000000
40
0.9321136410
40
1.0000000000
40
1.0000000000
40
1.0000000000
40
1.0000000000
10
-93.4764220662
20
55.8586343116
30
0.0000000000
10
-93.5310131867
20
55.8150693033
30
0.0000000000
10
-93.5878812486
20
55.7447270919
30
0.0000000000
10
-93.5893720402
20
55.6719986800
30
0.0000000000
10
-93.5892336836
20
55.6670579960
30
0.0000000000
11
-93.4764220662
21
55.8586343116
31
0.0000000000
11
-93.5889144220
21
55.6818622173
31
0.0000000000
11
-93.5892336836
21
55.6670579960
31
0.0000000000
0
SPLINE
5
38C
100
AcDbEntity
8
0
100
AcDbSpline
62
9
6
CONTINUOUS
70
0
71
3
72
9
73
5
74
3
42
0.0000001000
43
0.0000001000
44
0.0000000001
12
-0.3052925943
22
-0.0002946567
32
0.0000000000
13
-0.0013624457
23
-0.0011554983
33
0.0000000000
40
0.0000000000
40
0.0000000000
40
0.0000000000
40
0.0000000000
40
0.7428039411
40
1.0000000000
40
1.0000000000
40
1.0000000000
40
1.0000000000
10
-93.2849453694
20
50.7541360347
30
0.0000000000
10
-93.3605362168
20
50.7540630774
30
0.0000000000
10
-93.4258214762
20
50.7540840919
30
0.0000000000
10
-93.5893261696
20
50.7536687831
30
0.0000000000
10
-93.5894429748
20
50.7535697199
30
0.0000000000
11
-93.2849453694
21
50.7541360347
31
0.0000000000
11
-93.5117178413
21
50.7538535519
31
0.0000000000
11
-93.5894429748
21
50.7535697199
31
0.0000000000
0
SPLINE
5
38D
100
AcDbEntity
8
0
100
AcDbSpline
62
9
6
CONTINUOUS
70
0
71
3
72
9
73
5
74
3
42
0.0000001000
43
0.0000001000
44
0.0000000001
12
-0.3053482557
22
0.0003142947
32
0.0000000000
13
-0.0015968803
23
0.0012474600
33
0.0000000000
40
0.0000000000
40
0.0000000000
40
0.0000000000
40
0.0000000000
40
0.7428134725
40
1.0000000000
40
1.0000000000
40
1.0000000000
40
1.0000000000
10
-93.2848589807
20
-50.9492970229
30
0.0000000000
10
-93.3604645801
20
-50.9492192022
30
0.0000000000
10
-93.4257474775
20
-50.9492420099
30
0.0000000000
10
-93.5893048491
20
-50.9488004773
30
0.0000000000
10
-93.5894417478
20
-50.9486935340
30
0.0000000000
11
-93.2848589807
21
-50.9492970229
31
0.0000000000
11
-93.5116757005
21
-50.9489968760
31
0.0000000000
11
-93.5894417478
21
-50.9486935340
31
0.0000000000
0
SPLINE
5
38E
100
AcDbEntity
8
0
100
AcDbSpline
62
9
6
CONTINUOUS
70
0
71
3
72
12
73
8
74
6
42
0.0000001000
43
0.0000001000
44
0.0000000001
12
-0.2175310841
22
4.7862494163
32
0.0000000000
13
-0.1832257336
23
4.7876871531
33
0.0000000000
40
0.0000000000
40
0.0000000000
40
0.0000000000
40
0.0000000000
40
0.1939037755
40
0.4117579803
40
0.6388460616
40
0.8615546488
40
1.0000000000
40
1.0000000000
40
1.0000000000
40
1.0000000000
10
-93.2849508596
20
50.7541399301
30
0.0000000000
10
-93.2990108924
20
51.0634972075
30
0.0000000000
10
-93.3267876631
20
51.7205176587
30
0.0000000000
10
-93.3651590771
20
52.7400760811
30
0.0000000000
10
-93.4017213346
20
53.8057303772
30
0.0000000000
10
-93.4342941841
20
54.7446251750
30
0.0000000000
10
-93.4555314247
20
55.3210209923
30
0.0000000000
10
-93.4639870083
20
55.5419653354
30
0.0000000000
11
-93.2849508596
21
50.7541399301
31
0.0000000000
11
-93.3244967041
21
51.6823277411
31
0.0000000000
11
-93.3640390079
21
52.7253593920
31
0.0000000000
11
-93.4020311800
21
53.8127180568
31
0.0000000000
11
-93.4394312566
21
54.8791016066
31
0.0000000000
11
-93.4639870083
21
55.5419653354
31
0.0000000000
0
SPLINE
5
38F
100
AcDbEntity
8
0
100
AcDbSpline
62
9
6
CONTINUOUS
70
0
71
3
72
8
73
4
74
2
42
0.0000001000
43
0.0000001000
44
0.0000000001
12
-0.0121185672
22
0.3166580772
32
0.0000000000
13
-0.0125924950
23
0.3166394694
33
0.0000000000
40
0.0000000000
40
0.0000000000
40
0.0000000000
40
0.0000000000
40
1.0000000000
40
1.0000000000
40
1.0000000000
40
1.0000000000
10
-93.4639870083
20
55.5419653354
30
0.0000000000
10
-93.4680265307
20
55.6475180278
30
0.0000000000
10
-93.4721378234
20
55.7530679386
30
0.0000000000
10
-93.4763353217
20
55.8586144284
30
0.0000000000
11
-93.4639870083
21
55.5419653354
31
0.0000000000
11
-93.4763353217
21
55.8586144284
31
0.0000000000
0
SPLINE
5
390
100
AcDbEntity
8
0
100
AcDbSpline
62
9
6
CONTINUOUS
70
0
71
3
72
10
73
6
74
4
42
0.0000001000
43
0.0000001000
44
0.0000000001
12
-1.0419072719
22
-10.5989142449
32
0.0000000000
13
0.1422183117
23
-10.6490529103
33
0.0000000000
40
0.0000000000
40
0.0000000000
40
0.0000000000
40
0.0000000000
40
0.3639803157
40
0.6965317904
40
1.0000000000
40
1.0000000000
40
1.0000000000
40
1.0000000000
10
-88.1882289369
20
77.9495358827
30
0.0000000000
10
-88.3146401828
20
76.6636038319
30
0.0000000000
10
-88.5255390317
20
74.1995070255
30
0.0000000000
10
-88.7174660453
20
70.6541276745
30
0.0000000000
10
-88.7508584315
20
68.3955062074
30
0.0000000000
10
-88.7364721860
20
67.3182898671
30
0.0000000000
11
-88.1882289369
21
77.9495358827
31
0.0000000000
11
-88.5139699343
21
74.0868551834
31
0.0000000000
11
-88.6988048460
21
70.5500075594
31
0.0000000000
11
-88.7364721860
21
67.3182898671
31
0.0000000000
0
SPLINE
5
391
100
AcDbEntity
8
0
100
AcDbSpline
62
9
6
CONTINUOUS
70
0
71
3
72
18
73
14
74
12
42
0.0000001000
43
0.0000001000
44
0.0000000001
12
1.6141053335
22
-0.1156784208
32
0.0000000000
13
-0.1582847214
23
-1.6104854770
33
0.0000000000
40
0.0000000000
40
0.0000000000
40
0.0000000000
40
0.0000000000
40
0.0516478856
40
0.1254216291
40
0.2168217789
40
0.3186365859
40
0.4254509293
40
0.5329175793
40
0.6376149431
40
0.7374002377
40
0.8311951001
40
0.9183587077
40
1.0000000000
40
1.0000000000
40
1.0000000000
40
1.0000000000
10
-88.5151250190
20
79.4788123044
30
0.0000000000
10
-88.4873366431
20
79.4768207891
30
0.0000000000
10
-88.4284805827
20
79.4298314695
30
0.0000000000
10
-88.3705651229
20
79.3300822750
30
0.0000000000
10
-88.3142660607
20
79.1963641911
30
0.0000000000
10
-88.2672564420
20
79.0415406835
30
0.0000000000
10
-88.2291359823
20
78.8751682101
30
0.0000000000
10
-88.2011214816
20
78.7053192906
30
0.0000000000
10
-88.1828523797
20
78.5379620424
30
0.0000000000
10
-88.1735493276
20
78.3772716397
30
0.0000000000
10
-88.1720049772
20
78.2257873576
30
0.0000000000
10
-88.1769102874
20
78.0841794827
30
0.0000000000
10
-88.1839214138
20
77.9933632546
30
0.0000000000
10
-88.1882289369
20
77.9495358827
30
0.0000000000
11
-88.5151250190
21
79.4788123044
31
0.0000000000
11
-88.4431629738
21
79.4363046137
31
0.0000000000
11
-88.3771265991
21
79.3368473961
31
0.0000000000
11
-88.3188048812
21
79.2009234821
31
0.0000000000
11
-88.2698327898
21
79.0436084233
31
0.0000000000
11
-88.2309595859
21
78.8751844993
31
0.0000000000
11
-88.2024711011
21
78.7036263846
31
0.0000000000
11
-88.1840321816
21
78.5352067365
31
0.0000000000
11
-88.1746838106
21
78.3740004917
31
0.0000000000
11
-88.1731440690
21
78.2222252160
31
0.0000000000
11
-88.1780420504
21
78.0812581924
31
0.0000000000
11
-88.1882289369
21
77.9495358827
31
0.0000000000
0
SPLINE
5
392
100
AcDbEntity
8
0
100
AcDbSpline
62
9
6
CONTINUOUS
70
0
71
3
72
10
73
6
74
4
42
0.0000001000
43
0.0000001000
44
0.0000000001
12
0.0140468150
22
-0.1551740641
32
0.0000000000
13
0.1554092101
23
-0.0111481206
33
0.0000000000
40
0.0000000000
40
0.0000000000
40
0.0000000000
40
0.0000000000
40
0.1192080743
40
0.4512749574
40
1.0000000000
40
1.0000000000
40
1.0000000000
40
1.0000000000
10
-88.6690457616
20
79.4991680183
30
0.0000000000
10
-88.6684875970
20
79.4930020178
30
0.0000000000
10
-88.6345143210
20
79.4932075572
30
0.0000000000
10
-88.5933062096
20
79.4825796481
30
0.0000000000
10
-88.5435506608
20
79.4808513887
30
0.0000000000
10
-88.5151250190
20
79.4788123044
30
0.0000000000
11
-88.6690457616
21
79.4991680183
31
0.0000000000
11
-88.6516119520
21
79.4927615944
31
0.0000000000
11
-88.6003211626
21
79.4859671562
31
0.0000000000
11
-88.5151250190
21
79.4788123044
31
0.0000000000
0
SPLINE
5
393
100
AcDbEntity
8
0
100
AcDbSpline
62
9
6
CONTINUOUS
70
0
71
3
72
8
73
4
74
2
42
0.0000001000
43
0.0000001000
44
0.0000000001
12
0.0142201248
22
0.3557807737
32
0.0000000000
13
0.0135672301
23
0.3558063983
33
0.0000000000
40
0.0000000000
40
0.0000000000
40
0.0000000000
40
0.0000000000
40
1.0000000000
40
1.0000000000
40
1.0000000000
40
1.0000000000
10
-93.4763333944
20
-56.0536967949
30
0.0000000000
10
-93.4715933529
20
-55.9351032036
30
0.0000000000
10
-93.4669745190
20
-55.8165048080
30
0.0000000000
10
-93.4624521090
20
-55.6979026752
30
0.0000000000
11
-93.4763333944
21
-56.0536967949
31
0.0000000000
11
-93.4624521090
21
-55.6979026752
31
0.0000000000
0
SPLINE
5
394
100
AcDbEntity
8
0
100
AcDbSpline
62
9
6
CONTINUOUS
70
0
71
3
72
11
73
7
74
5
42
0.0000001000
43
0.0000001000
44
0.0000000001
12
0.1810631245
22
4.7484576835
32
0.0000000000
13
0.2158273628
23
4.7470028863
33
0.0000000000
40
0.0000000000
40
0.0000000000
40
0.0000000000
40
0.0000000000
40
0.1599386042
40
0.4246940463
40
0.7091864584
40
1.0000000000
40
1.0000000000
40
1.0000000000
40
1.0000000000
10
-93.4624521090
20
-55.6979026752
30
0.0000000000
10
-93.4527991145
20
-55.4447487773
30
0.0000000000
10
-93.4283334887
20
-54.7724896635
30
0.0000000000
10
-93.3898136352
20
-53.6498219317
30
0.0000000000
10
-93.3433654151
20
-52.3199996021
30
0.0000000000
10
-93.3058002649
20
-51.4094965035
30
0.0000000000
10
-93.2848784250
20
-50.9493322630
30
0.0000000000
11
-93.4624521090
21
-55.6979026752
31
0.0000000000
11
-93.4345700315
21
-54.9384002807
31
0.0000000000
11
-93.3907611135
21
-53.6810700870
31
0.0000000000
11
-93.3423074545
21
-52.3300572795
31
0.0000000000
11
-93.2848784250
21
-50.9493322630
31
0.0000000000
0
SPLINE
5
395
100
AcDbEntity
8
0
100
AcDbSpline
62
9
6
CONTINUOUS
70
0
71
3
72
10
73
6
74
4
42
0.0000001000
43
0.0000001000
44
0.0000000001
12
-0.1554092215
22
-0.0111481450
32
0.0000000000
13
-0.0140467940
23
-0.1551740791
33
0.0000000000
40
0.0000000000
40
0.0000000000
40
0.0000000000
40
0.0000000000
40
0.5487250195
40
0.8807919326
40
1.0000000000
40
1.0000000000
40
1.0000000000
40
1.0000000000
10
-88.5151249974
20
-79.6738045758
30
0.0000000000
10
-88.5435506401
20
-79.6758436645
30
0.0000000000
10
-88.5933061957
20
-79.6775719248
30
0.0000000000
10
-88.6345143020
20
-79.6881998597
30
0.0000000000
10
-88.6684875890
20
-79.6879943071
30
0.0000000000
10
-88.6690457527
20
-79.6941603078
30
0.0000000000
11
-88.5151249974
21
-79.6738045758
31
0.0000000000
11
-88.6003211435
21
-79.6809594412
31
0.0000000000
11
-88.6516119408
21
-79.6877538890
31
0.0000000000
11
-88.6690457527
21
-79.6941603078
31
0.0000000000
0
SPLINE
5
396
100
AcDbEntity
8
0
100
AcDbSpline
62
9
6
CONTINUOUS
70
0
71
3
72
18
73
14
74
12
42
0.0000001000
43
0.0000001000
44
0.0000000001
12
0.1582851104
22
-1.6104853572
32
0.0000000000
13
-1.6141036590
23
-0.1157006486
33
0.0000000000
40
0.0000000000
40
0.0000000000
40
0.0000000000
40
0.0000000000
40
0.0816411092
40
0.1688045747
40
0.2625992716
40
0.3623844051
40
0.4670816190
40
0.5745481479
40
0.6813624175
40
0.7831772087
40
0.8745774644
40
0.9483512676
40
1.0000000000
40
1.0000000000
40
1.0000000000
40
1.0000000000
10
-88.1882290621
20
-78.1445282555
30
0.0000000000
10
-88.1839215381
20
-78.1883555258
30
0.0000000000
10
-88.1769104030
20
-78.2791715725
30
0.0000000000
10
-88.1720050482
20
-78.4207791737
30
0.0000000000
10
-88.1735493379
20
-78.5722631957
30
0.0000000000
10
-88.1828523022
20
-78.7329533381
30
0.0000000000
10
-88.2011213017
20
-78.9003103527
30
0.0000000000
10
-88.2291356722
20
-79.0701591021
30
0.0000000000
10
-88.2672560470
20
-79.2365314501
30
0.0000000000
10
-88.3142654334
20
-79.3913550843
30
0.0000000000
10
-88.3705646541
20
-79.5250730356
30
0.0000000000
10
-88.4284796893
20
-79.6248233941
30
0.0000000000
10
-88.4873361948
20
-79.6718126451
30
0.0000000000
10
-88.5151249974
20
-79.6738045758
30
0.0000000000
11
-88.1882290621
21
-78.1445282555
31
0.0000000000
11
-88.1780421633
21
-78.2762502603
31
0.0000000000
11
-88.1731441393
21
-78.4172170453
31
0.0000000000
11
-88.1746838183
21
-78.5689920462
31
0.0000000000
11
-88.1840321025
21
-78.7301980267
31
0.0000000000
11
-88.2024709144
21
-78.8986174341
31
0.0000000000
11
-88.2309592758
21
-79.0701753617
31
0.0000000000
11
-88.2698323524
21
-79.2385991839
31
0.0000000000
11
-88.3188042919
21
-79.3959142544
31
0.0000000000
11
-88.3771259659
21
-79.5318383656
31
0.0000000000
11
-88.4431618960
21
-79.6312959873
31
0.0000000000
11
-88.5151249974
21
-79.6738045758
31
0.0000000000
0
SPLINE
5
397
100
AcDbEntity
8
0
100
AcDbSpline
62
9
6
CONTINUOUS
70
0
71
3
72
10
73
6
74
4
42
0.0000001000
43
0.0000001000
44
0.0000000001
12
-0.1425393750
22
-10.6490441087
32
0.0000000000
13
1.0418865108
23
-10.5989117555
33
0.0000000000
40
0.0000000000
40
0.0000000000
40
0.0000000000
40
0.0000000000
40
0.3139914552
40
0.6470893743
40
1.0000000000
40
1.0000000000
40
1.0000000000
40
1.0000000000
10
-88.7364729245
20
-67.5132750544
30
0.0000000000
10
-88.7513916397
20
-68.6278446732
30
0.0000000000
10
-88.7152199580
20
-70.9258050685
30
0.0000000000
10
-88.5194186563
20
-74.4709412160
30
0.0000000000
10
-88.3107933356
20
-76.8977053955
30
0.0000000000
10
-88.1882290621
20
-78.1445282555
30
0.0000000000
11
-88.7364729245
21
-67.5132750544
31
0.0000000000
11
-88.6949724633
21
-70.8570259036
31
0.0000000000
11
-88.5057795181
21
-74.3994695223
31
0.0000000000
11
-88.1882290621
21
-78.1445282555
31
0.0000000000
0
SPLINE
5
398
100
AcDbEntity
8
0
100
AcDbSpline
62
9
6
CONTINUOUS
70
0
71
3
72
20
73
16
74
14
42
0.0000001000
43
0.0000001000
44
0.0000000001
12
6.6845321012
22
-15.8429442952
32
0.0000000000
13
3.6887995452
23
-16.7950769950
33
0.0000000000
40
0.0000000000
40
0.0000000000
40
0.0000000000
40
0.0000000000
40
0.0459837493
40
0.0966932568
40
0.1521962693
40
0.2124932392
40
0.2775517581
40
0.3474443917
40
0.4224285280
40
0.5028528996
40
0.5890709658
40
0.6814635998
40
0.7804409294
40
0.8864440252
40
1.0000000000
40
1.0000000000
40
1.0000000000
40
1.0000000000
10
-93.2848589842
20
-50.9492777215
30
0.0000000000
10
-93.1823990349
20
-51.1921170476
30
0.0000000000
10
-92.9749553568
20
-51.7061567873
30
0.0000000000
10
-92.6711759626
20
-52.5240177674
30
0.0000000000
10
-92.3611149250
20
-53.4267330483
30
0.0000000000
10
-92.0438907000
20
-54.4137057753
30
0.0000000000
10
-91.7192709282
20
-55.4847601959
30
0.0000000000
10
-91.3864780903
20
-56.6411674569
30
0.0000000000
10
-91.0443599561
20
-57.8864350482
30
0.0000000000
10
-90.6916295625
20
-59.2257429995
30
0.0000000000
10
-90.3269907712
20
-60.6650280610
30
0.0000000000
10
-89.9492407449
20
-62.2106321007
30
0.0000000000
10
-89.5571671814
20
-63.8694244019
30
0.0000000000
10
-89.1494417833
20
-65.6491167430
30
0.0000000000
10
-88.8761007550
20
-66.8775509076
30
0.0000000000
10
-88.7364723456
20
-67.5132780208
30
0.0000000000
11
-93.2848589842
21
-50.9492777215
31
0.0000000000
11
-92.9883611707
21
-51.6822919521
31
0.0000000000
11
-92.6839842083
21
-52.4994131141
31
0.0000000000
11
-92.3729184318
21
-53.4016941049
31
0.0000000000
11
-92.0548930276
21
-54.3885464871
31
0.0000000000
11
-91.7297352369
21
-55.4589569893
31
0.0000000000
11
-91.3967990214
21
-56.6137528515
31
0.0000000000
11
-91.0547438055
21
-57.8569363203
31
0.0000000000
11
-90.7021108683
21
-59.1941512480
31
0.0000000000
11
-90.3376324950
21
-60.6312047659
31
0.0000000000
11
-89.9600915066
21
-62.1744225172
31
0.0000000000
11
-89.5682684795
21
-63.8306608666
31
0.0000000000
11
-89.1609028224
21
-65.6073230721
31
0.0000000000
11
-88.7364723456
21
-67.5132780208
31
0.0000000000
0
SPLINE
5
399
100
AcDbEntity
8
0
100
AcDbSpline
62
9
6
CONTINUOUS
70
0
71
3
72
10
73
6
74
4
42
0.0000001000
43
0.0000001000
44
0.0000000001
12
0.0000000000
22
101.7034277999
32
0.0000000000
13
0.0000000000
23
101.7034277999
33
0.0000000000
40
0.0000000000
40
0.0000000000
40
0.0000000000
40
0.0000000000
40
0.3333086920
40
0.6666420823
40
1.0000000000
40
1.0000000000
40
1.0000000000
40
1.0000000000
10
-93.2848589842
20
-50.9492777215
30
0.0000000000
10
-93.2848589842
20
-39.6497322254
30
0.0000000000
10
-93.2849611357
20
-17.0498039311
30
0.0000000000
10
-93.2849297457
20
16.8513386689
30
0.0000000000
10
-93.2849112920
20
39.4529357727
30
0.0000000000
10
-93.2849112920
20
50.7541500782
30
0.0000000000
11
-93.2848589842
21
-50.9492777215
31
0.0000000000
11
-93.2849303649
21
-17.0506412332
31
0.0000000000
11
-93.2849303649
21
16.8505071615
31
0.0000000000
11
-93.2849112920
21
50.7541500782
31
0.0000000000
0
SPLINE
5
39A
100
AcDbEntity
8
0
100
AcDbSpline
62
9
6
CONTINUOUS
70
0
71
3
72
20
73
16
74
14
42
0.0000001000
43
0.0000001000
44
0.0000000001
12
-3.6888138443
22
-16.7952294526
32
0.0000000000
13
-6.6711936872
23
-15.8487303823
33
0.0000000000
40
0.0000000000
40
0.0000000000
40
0.0000000000
40
0.0000000000
40
0.1131807276
40
0.2190375748
40
0.3180171591
40
0.4106596333
40
0.4974905620
40
0.5786983855
40
0.6540665253
40
0.7234784237
40
0.7874487117
40
0.8469019356
40
0.9023886397
40
0.9537592791
40
1.0000000000
40
1.0000000000
40
1.0000000000
40
1.0000000000
10
-88.7364720742
20
67.3182922605
30
0.0000000000
10
-88.8756396191
20
66.6846601639
30
0.0000000000
10
-89.1483235408
20
65.4591307182
30
0.0000000000
10
-89.5553389457
20
63.6823125604
30
0.0000000000
10
-89.9474918291
20
62.0229001465
30
0.0000000000
10
-90.3263668121
20
60.4724527275
30
0.0000000000
10
-90.6933298410
20
59.0240089417
30
0.0000000000
10
-91.0487844627
20
57.6748525681
30
0.0000000000
10
-91.3921902042
20
56.4258443827
30
0.0000000000
10
-91.7233828581
20
55.2760331856
30
0.0000000000
10
-92.0441362670
20
54.2182502001
30
0.0000000000
10
-92.3577639221
20
53.2418415190
30
0.0000000000
10
-92.6673241954
20
52.3401575293
30
0.0000000000
10
-92.9722955520
20
51.5172065280
30
0.0000000000
10
-93.1820843568
20
50.9984356511
30
0.0000000000
10
-93.2849112920
20
50.7541500782
30
0.0000000000
11
-88.7364720742
21
67.3182922605
31
0.0000000000
11
-89.1594842705
21
65.4186144362
31
0.0000000000
11
-89.5662415704
21
63.6443763009
31
0.0000000000
11
-89.9580129077
21
61.9880704246
31
0.0000000000
11
-90.3365249693
21
60.4406529517
31
0.0000000000
11
-90.7036066363
21
58.9933739974
31
0.0000000000
11
-91.0598076344
21
57.6431549173
31
0.0000000000
11
-91.4038688151
21
56.3936630476
31
0.0000000000
11
-91.7347905472
21
55.2468785862
31
0.0000000000
11
-92.0546216821
21
54.1943967355
31
0.0000000000
11
-92.3680492013
21
53.2212964731
31
0.0000000000
11
-92.6787502057
21
52.3191774788
31
0.0000000000
11
-92.9867649650
21
51.4912716050
31
0.0000000000
11
-93.2849112920
21
50.7541500782
31
0.0000000000
0
SPLINE
5
39B
100
AcDbEntity
8
0
100
AcDbSpline
62
7
6
CONTINUOUS
70
0
71
3
72
16
73
12
74
10
42
0.0000001000
43
0.0000001000
44
0.0000000001
12
0.0004483996
22
3.4184463457
32
0.0000000000
13
-0.1972799324
23
-2.9005120826
33
0.0000000000
40
0.0000000000
40
0.0000000000
40
0.0000000000
40
0.0000000000
40
0.2074981151
40
0.4062990974
40
0.5867037121
40
0.7398268497
40
0.8617369874
40
0.9483565791
40
0.9925326785
40
0.9985207892
40
1.0000000000
40
1.0000000000
40
1.0000000000
40
1.0000000000
10
-73.7104778352
20
-0.0974961361
30
0.0000000000
10
-73.7104468212
20
0.1389442549
30
0.0000000000
10
-73.7072102706
20
0.6017649085
30
0.0000000000
10
-73.6930927501
20
1.2708353274
30
0.0000000000
10
-73.6726243681
20
1.8750017667
30
0.0000000000
10
-73.6486765352
20
2.3995086889
30
0.0000000000
10
-73.6272290244
20
2.7949852249
30
0.0000000000
10
-73.6070547519
20
3.1175726249
30
0.0000000000
10
-73.6002451281
20
3.2216144611
30
0.0000000000
10
-73.5937641176
20
3.3168902402
30
0.0000000000
10
-73.5940905281
20
3.3120927236
30
0.0000000000
10
-73.5941878010
20
3.3106625674
30
0.0000000000
11
-73.7104778352
21
-0.0974961361
31
0.0000000000
11
-73.7054352451
21
0.6118071189
31
0.0000000000
11
-73.6911505109
21
1.2912474700
31
0.0000000000
11
-73.6701964325
21
1.9075948842
31
0.0000000000
11
-73.6464622282
21
2.4304997583
31
0.0000000000
11
-73.6236730381
21
2.8466194581
31
0.0000000000
11
-73.6053900983
21
3.1421589093
31
0.0000000000
11
-73.5953985934
21
3.2928416397
31
0.0000000000
11
-73.5940107909
21
3.3132645767
31
0.0000000000
11
-73.5941878010
21
3.3106625674
31
0.0000000000
0
SPLINE
5
39C
100
AcDbEntity
8
0
100
AcDbSpline
62
7
6
CONTINUOUS
70
0
71
3
72
9
73
5
74
3
42
0.0000001000
43
0.0000001000
44
0.0000000001
12
-0.0000000364
22
-0.0000000169
32
0.0000000000
13
-0.0003370857
23
-0.0049560085
33
0.0000000000
40
0.0000000000
40
0.0000000000
40
0.0000000000
40
0.0000000000
40
0.1342894742
40
1.0000000000
40
1.0000000000
40
1.0000000000
40
1.0000000000
10
-73.5940073044
20
3.3133157605
30
0.0000000000
10
-73.5940073060
20
3.3133157598
30
0.0000000000
10
-73.5940158391
20
3.3131904877
30
0.0000000000
10
-73.5940905281
20
3.3120927236
30
0.0000000000
10
-73.5941878010
20
3.3106625674
30
0.0000000000
11
-73.5940073044
21
3.3133157605
31
0.0000000000
11
-73.5940107909
21
3.3132645767
31
0.0000000000
11
-73.5941878010
21
3.3106625674
31
0.0000000000
0
SPLINE
5
39D
100
AcDbEntity
8
0
100
AcDbSpline
62
7
6
CONTINUOUS
70
0
71
3
72
9
73
5
74
3
42
0.0000001000
43
0.0000001000
44
0.0000000001
12
-0.0000000202
22
0.0000000107
32
0.0000000000
13
-0.0002994582
23
0.0044030368
33
0.0000000000
40
0.0000000000
40
0.0000000000
40
0.0000000000
40
0.0000000000
40
0.0907997352
40
1.0000000000
40
1.0000000000
40
1.0000000000
40
1.0000000000
10
-73.5940054400
20
-3.5083361407
30
0.0000000000
10
-73.5940054406
20
-3.5083361404
30
0.0000000000
10
-73.5940106143
20
-3.5082601775
30
0.0000000000
10
-73.5940742746
20
-3.5073244413
30
0.0000000000
10
-73.5941650304
20
-3.5059900273
30
0.0000000000
11
-73.5940054400
21
-3.5083361407
31
0.0000000000
11
-73.5940068623
21
-3.5083152571
31
0.0000000000
11
-73.5941650304
21
-3.5059900273
31
0.0000000000
0
SPLINE
5
39E
100
AcDbEntity
8
0
100
AcDbSpline
62
7
6
CONTINUOUS
70
0
71
3
72
16
73
12
74
10
42
0.0000001000
43
0.0000001000
44
0.0000000001
12
0.0004483996
22
3.4184463457
32
0.0000000000
13
-0.1972799324
23
-2.9005120826
33
0.0000000000
40
0.0000000000
40
0.0000000000
40
0.0000000000
40
0.0000000000
40
0.2074981151
40
0.4062990974
40
0.5867037121
40
0.7398268497
40
0.8617369874
40
0.9483565791
40
0.9925326785
40
0.9985207892
40
1.0000000000
40
1.0000000000
40
1.0000000000
40
1.0000000000
10
-73.7104778352
20
-27.7064112837
30
0.0000000000
10
-73.7104468212
20
-27.4699708927
30
0.0000000000
10
-73.7072102706
20
-27.0071502391
30
0.0000000000
10
-73.6930927501
20
-26.3380798202
30
0.0000000000
10
-73.6726243681
20
-25.7339133809
30
0.0000000000
10
-73.6486765352
20
-25.2094064587
30
0.0000000000
10
-73.6272290244
20
-24.8139299227
30
0.0000000000
10
-73.6070547519
20
-24.4913425227
30
0.0000000000
10
-73.6002451281
20
-24.3873006865
30
0.0000000000
10
-73.5937641176
20
-24.2920249074
30
0.0000000000
10
-73.5940905281
20
-24.2968224240
30
0.0000000000
10
-73.5941878010
20
-24.2982525802
30
0.0000000000
11
-73.7104778352
21
-27.7064112837
31
0.0000000000
11
-73.7054352451
21
-26.9971080287
31
0.0000000000
11
-73.6911505109
21
-26.3176676776
31
0.0000000000
11
-73.6701964325
21
-25.7013202634
31
0.0000000000
11
-73.6464622282
21
-25.1784153893
31
0.0000000000
11
-73.6236730381
21
-24.7622956895
31
0.0000000000
11
-73.6053900983
21
-24.4667562383
31
0.0000000000
11
-73.5953985934
21
-24.3160735079
31
0.0000000000
11
-73.5940107909
21
-24.2956505709
31
0.0000000000
11
-73.5941878010
21
-24.2982525802
31
0.0000000000
0
SPLINE
5
39F
100
AcDbEntity
8
0
100
AcDbSpline
62
7
6
CONTINUOUS
70
0
71
3
72
18
73
14
74
12
42
0.0000001000
43
0.0000001000
44
0.0000000001
12
0.0004813242
22
3.6694523131
32
0.0000000000
13
-0.2405868421
23
-3.8014606318
33
0.0000000000
40
0.0000000000
40
0.0000000000
40
0.0000000000
40
0.0000000000
40
0.1933043715
40
0.3785065307
40
0.5465707113
40
0.6892195824
40
0.8027905541
40
0.8834850015
40
0.9246392699
40
0.9302177687
40
0.9344798102
40
0.9731195142
40
1.0000000000
40
1.0000000000
40
1.0000000000
40
1.0000000000
10
-73.7104778352
20
29.2935887163
30
0.0000000000
10
-73.7104468212
20
29.5300291073
30
0.0000000000
10
-73.7072102706
20
29.9928497609
30
0.0000000000
10
-73.6930927501
20
30.6619201798
30
0.0000000000
10
-73.6726243681
20
31.2660866191
30
0.0000000000
10
-73.6486765352
20
31.7905935413
30
0.0000000000
10
-73.6272290244
20
32.1860700773
30
0.0000000000
10
-73.6070547519
20
32.5086574773
30
0.0000000000
10
-73.6002451281
20
32.6126993135
30
0.0000000000
10
-73.5933756116
20
32.7136864258
30
0.0000000000
10
-73.5993009523
20
32.6265889374
30
0.0000000000
10
-73.6032644314
20
32.5664437198
30
0.0000000000
10
-73.6085576837
20
32.4839893372
30
0.0000000000
10
-73.6107133807
20
32.4499276344
30
0.0000000000
11
-73.7104778352
21
29.2935887163
31
0.0000000000
11
-73.7054352451
21
30.0028919713
31
0.0000000000
11
-73.6911505109
21
30.6823323224
31
0.0000000000
11
-73.6701964325
21
31.2986797366
31
0.0000000000
11
-73.6464622282
21
31.8215846107
31
0.0000000000
11
-73.6236730381
21
32.2377043105
31
0.0000000000
11
-73.6053900983
21
32.5332437617
31
0.0000000000
11
-73.5953985934
21
32.6839264921
31
0.0000000000
11
-73.5940107909
21
32.7043494291
31
0.0000000000
11
-73.5950715528
21
32.6887460864
31
0.0000000000
11
-73.6044790027
21
32.5472719672
31
0.0000000000
11
-73.6107133807
21
32.4499276344
31
0.0000000000
0
SPLINE
5
3A0
100
AcDbEntity
8
0
100
AcDbSpline
62
7
6
CONTINUOUS
70
0
71
3
72
10
73
6
74
4
42
0.0000001000
43
0.0000001000
44
0.0000000001
12
-0.0144856567
22
-0.2129756526
32
0.0000000000
13
-0.0164571516
23
-0.2600358915
33
0.0000000000
40
0.0000000000
40
0.0000000000
40
0.0000000000
40
0.0000000000
40
0.0421613693
40
0.6070345987
40
1.0000000000
40
1.0000000000
40
1.0000000000
40
1.0000000000
10
-73.5941878010
20
32.7017474198
30
0.0000000000
10
-73.5943913793
20
32.6987543047
30
0.0000000000
10
-73.5993792212
20
32.6254012181
30
0.0000000000
10
-73.6032644314
20
32.5664437198
30
0.0000000000
10
-73.6085576837
20
32.4839893372
30
0.0000000000
10
-73.6107133807
20
32.4499276344
30
0.0000000000
11
-73.5941878010
21
32.7017474198
31
0.0000000000
11
-73.5950715528
21
32.6887460864
31
0.0000000000
11
-73.6044790027
21
32.5472719672
31
0.0000000000
11
-73.6107133807
21
32.4499276344
31
0.0000000000
0
SPLINE
5
3A1
100
AcDbEntity
8
0
100
AcDbSpline
62
7
6
CONTINUOUS
70
0
71
3
72
15
73
11
74
9
42
0.0000001000
43
0.0000001000
44
0.0000000001
12
0.0003528955
22
-3.4129485165
32
0.0000000000
13
-0.0000125429
23
0.0000066780
33
0.0000000000
40
0.0000000000
40
0.0000000000
40
0.0000000000
40
0.0000000000
40
0.2075756360
40
0.4068539677
40
0.5878688615
40
0.7415013404
40
0.8637284241
40
0.9504369951
40
0.9943814709
40
1.0000000000
40
1.0000000000
40
1.0000000000
40
1.0000000000
10
-73.7104778352
20
27.5114190115
30
0.0000000000
10
-73.7104534177
20
27.2752706919
30
0.0000000000
10
-73.7072118197
20
26.8125574740
30
0.0000000000
10
-73.6931024065
20
26.1432603039
30
0.0000000000
10
-73.6725971676
20
25.5381811169
30
0.0000000000
10
-73.6486152372
20
25.0130862706
30
0.0000000000
10
-73.6270927309
20
24.6166614600
30
0.0000000000
10
-73.6070155036
20
24.2956824640
30
0.0000000000
10
-73.6000984416
20
24.1901555032
30
0.0000000000
10
-73.5940054165
20
24.1005789944
30
0.0000000000
10
-73.5940054400
20
24.1005790069
30
0.0000000000
11
-73.7104778352
21
27.5114190115
31
0.0000000000
11
-73.7054476943
21
26.8029919068
31
0.0000000000
11
-73.6911599689
21
26.1230153073
31
0.0000000000
11
-73.6701662887
21
25.5055775939
31
0.0000000000
11
-73.6463789219
21
24.9817777006
31
0.0000000000
11
-73.6235518955
21
24.5652479787
31
0.0000000000
11
-73.6052680616
21
24.2698814520
31
0.0000000000
11
-73.5953408732
21
24.1202301186
31
0.0000000000
11
-73.5940054400
21
24.1005790069
31
0.0000000000
0
SPLINE
5
3A2
100
AcDbEntity
8
0
100
AcDbSpline
62
7
6
CONTINUOUS
70
0
71
3
72
9
73
5
74
3
42
0.0000001000
43
0.0000001000
44
0.0000000001
12
0.0036982168
22
0.0547955157
32
0.0000000000
13
-0.0000002689
23
-0.0000001250
33
0.0000000000
40
0.0000000000
40
0.0000000000
40
0.0000000000
40
0.0000000000
40
0.5442501796
40
1.0000000000
40
1.0000000000
40
1.0000000000
40
1.0000000000
10
-73.5975998725
20
3.2603289948
30
0.0000000000
10
-73.5969289541
20
3.2702698178
30
0.0000000000
10
-73.5955885922
20
3.2900673837
30
0.0000000000
10
-73.5940072635
20
3.3133157795
30
0.0000000000
10
-73.5940073044
20
3.3133157605
30
0.0000000000
11
-73.5975998725
21
3.2603289948
31
0.0000000000
11
-73.5953985934
21
3.2928416397
31
0.0000000000
11
-73.5940073044
21
3.3133157605
31
0.0000000000
0
SPLINE
5
3A3
100
AcDbEntity
8
0
100
AcDbSpline
62
7
6
CONTINUOUS
70
0
71
3
72
15
73
11
74
9
42
0.0000001000
43
0.0000001000
44
0.0000000001
12
0.0003528955
22
-3.4129485165
32
0.0000000000
13
-0.0000125429
23
0.0000066780
33
0.0000000000
40
0.0000000000
40
0.0000000000
40
0.0000000000
40
0.0000000000
40
0.2075756360
40
0.4068539677
40
0.5878688615
40
0.7415013404
40
0.8637284241
40
0.9504369951
40
0.9943814709
40
1.0000000000
40
1.0000000000
40
1.0000000000
40
1.0000000000
10
-73.7104778352
20
-0.0974961361
30
0.0000000000
10
-73.7104534177
20
-0.3336444557
30
0.0000000000
10
-73.7072118197
20
-0.7963576736
30
0.0000000000
10
-73.6931024065
20
-1.4656548437
30
0.0000000000
10
-73.6725971676
20
-2.0707340307
30
0.0000000000
10
-73.6486152372
20
-2.5958288770
30
0.0000000000
10
-73.6270927309
20
-2.9922536876
30
0.0000000000
10
-73.6070155036
20
-3.3132326836
30
0.0000000000
10
-73.6000984416
20
-3.4187596444
30
0.0000000000
10
-73.5940054165
20
-3.5083361532
30
0.0000000000
10
-73.5940054400
20
-3.5083361407
30
0.0000000000
11
-73.7104778352
21
-0.0974961361
31
0.0000000000
11
-73.7054476943
21
-0.8059232408
31
0.0000000000
11
-73.6911599689
21
-1.4858998403
31
0.0000000000
11
-73.6701662887
21
-2.1033375537
31
0.0000000000
11
-73.6463789219
21
-2.6271374470
31
0.0000000000
11
-73.6235518955
21
-3.0436671689
31
0.0000000000
11
-73.6052680616
21
-3.3390336956
31
0.0000000000
11
-73.5953408732
21
-3.4886850290
31
0.0000000000
11
-73.5940054400
21
-3.5083361407
31
0.0000000000
0
SPLINE
5
3A4
100
AcDbEntity
8
0
100
AcDbSpline
62
7
6
CONTINUOUS
70
0
71
3
72
11
73
7
74
5
42
0.0000001000
43
0.0000001000
44
0.0000000001
12
-0.0000009000
22
0.0000004792
32
0.0000000000
13
-0.0160518436
23
0.2528069265
33
0.0000000000
40
0.0000000000
40
0.0000000000
40
0.0000000000
40
0.0000000000
40
0.0020407402
40
0.0697743223
40
0.6571031714
40
1.0000000000
40
1.0000000000
40
1.0000000000
40
1.0000000000
10
-73.5940054400
20
-32.8994209931
30
0.0000000000
10
-73.5940054406
20
-32.8994209928
30
0.0000000000
10
-73.5940215023
20
-32.8991851656
30
0.0000000000
10
-73.5994813563
20
-32.8189261255
30
0.0000000000
10
-73.6031763214
20
-32.7627659707
30
0.0000000000
10
-73.6080956166
20
-32.6861537209
30
0.0000000000
10
-73.6099303253
20
-32.6572581565
30
0.0000000000
11
-73.5940054400
21
-32.8994209931
31
0.0000000000
11
-73.5940068623
21
-32.8994001095
31
0.0000000000
11
-73.5951317900
21
-32.8828511554
31
0.0000000000
11
-73.6046693829
21
-32.7393379227
31
0.0000000000
11
-73.6099303253
21
-32.6572581565
31
0.0000000000
0
SPLINE
5
3A5
100
AcDbEntity
8
0
100
AcDbSpline
62
7
6
CONTINUOUS
70
0
71
3
72
18
73
14
74
12
42
0.0000001000
43
0.0000001000
44
0.0000000001
12
0.0003782167
22
-3.6578365505
32
0.0000000000
13
-0.2397627160
23
3.7761192366
33
0.0000000000
40
0.0000000000
40
0.0000000000
40
0.0000000000
40
0.0000000000
40
0.1936786811
40
0.3796155532
40
0.5485117038
40
0.6918586615
40
0.8059027797
40
0.8868063096
40
0.9278087523
40
0.9331877524
40
0.9377224394
40
0.9770434438
40
1.0000000000
40
1.0000000000
40
1.0000000000
40
1.0000000000
10
-73.7104778352
20
-29.4885809885
30
0.0000000000
10
-73.7104534177
20
-29.7247293081
30
0.0000000000
10
-73.7072118197
20
-30.1874425260
30
0.0000000000
10
-73.6931024065
20
-30.8567396961
30
0.0000000000
10
-73.6725971676
20
-31.4618188831
30
0.0000000000
10
-73.6486152372
20
-31.9869137294
30
0.0000000000
10
-73.6270927309
20
-32.3833385400
30
0.0000000000
10
-73.6070155036
20
-32.7043175360
30
0.0000000000
10
-73.6000910090
20
-32.8099578892
30
0.0000000000
10
-73.5933708750
20
-32.9087492897
30
0.0000000000
10
-73.5994813563
20
-32.8189261255
30
0.0000000000
10
-73.6031763214
20
-32.7627659707
30
0.0000000000
10
-73.6080956166
20
-32.6861537209
30
0.0000000000
10
-73.6099303253
20
-32.6572581565
30
0.0000000000
11
-73.7104778352
21
-29.4885809885
31
0.0000000000
11
-73.7054476943
21
-30.1970080932
31
0.0000000000
11
-73.6911599689
21
-30.8769846927
31
0.0000000000
11
-73.6701662887
21
-31.4944224061
31
0.0000000000
11
-73.6463789219
21
-32.0182222994
31
0.0000000000
11
-73.6235518955
21
-32.4347520213
31
0.0000000000
11
-73.6052680616
21
-32.7301185480
31
0.0000000000
11
-73.5953408732
21
-32.8797698814
31
0.0000000000
11
-73.5940068623
21
-32.8994001095
31
0.0000000000
11
-73.5951317900
21
-32.8828511554
31
0.0000000000
11
-73.6046693829
21
-32.7393379227
31
0.0000000000
11
-73.6099303253
21
-32.6572581565
31
0.0000000000
0
ENDSEC
0
SECTION
2
OBJECTS
0
DICTIONARY
5
3A6
100
AcDbDictionary
3
ACAD_GROUP
350
3A7
3
ACAD_MLINESTYLE
350
3A8
0
DICTIONARY
5
3A7
102
{ACAD_REACTORS
330
3A6
102
}
100
AcDbDictionary
0
DICTIONARY
5
3A8
102
{ACAD_REACTORS
330
3A6
102
}
100
AcDbDictionary
3
STANDARD
350
3A9
0
MLINESTYLE
5
3A9
102
{ACAD_REACTORS
330
3A8
102
}
100
AcDbMlineStyle
2
STANDARD
70
0
3

62
256
51
90.0
52
90.0
71
2
49
0.5
62
256
6
BYLAYER
49
-0.5
62
256
6
BYLAYER
0
ENDSEC
0
EOF
