0
SECTION
2
HEADER
9
$ACADVER
1
AC1014
9
$HANDSEED
5
       271
9
$EXTMAX
10
297.0000000000
20
210.0000000000
9
$EXTMIN
10
0.0000000000
20
0.0000000000
9
$LIMMIN
10
0.0000000000
20
0.0000000000
9
$LIMMAX
10
297.0000000000
20
210.0000000000
9
$VIEWCTR
10
148.5000000000
20
105.0000000000
9
$VIEWSIZE
40
210.0000000000
9
$CLAYER
8
0
9
$LTSCALE
40
16.3350000000
9
$CELTYPE
6
BYLAYER
9
$DIMSCALE
40
1
9
$DIMASZ
40
3.0000000000
9
$DIMEXO
40
1.8562500000
9
$DIMDLI
40
11.2860000000
9
$DIMEXE
40
5.3460000000
9
$DIMCEN
40
2.6730000000
9
$DIMLFAC
40
1.0000000000
9
$DIMTXT
40
3.0000000000
9
$DIMTOL
70
1
9
$DIMLIM
70
0
9
$DIMTFAC
40
1.0000000000
9
$DIMTP
40
0.0100000000
9
$DIMTM
40
0.0100000000
9
$MEASUREMENT
70
1
0
ENDSEC
0
SECTION
2
CLASSES
0
ENDSEC
0
SECTION
2
TABLES
0
TABLE
2
VPORT
5
8
100
AcDbSymbolTable
70
2
0
VPORT
5
1F4
100
AcDbSymbolTableRecord
100
AcDbViewportTableRecord
2
*ACTIVE
70
0
10
0.0
20
0.0
11
1.0
21
1.0
12
148.5000000000
22
105.0000000000
13
0.0
23
0.0
14
1.0
24
1.0
15
0.0
25
0.0
16
0.0
26
0.0
36
1.0
17
0.0
27
0.0
37
0.0
40
210.0000000000
41
1.4142857143
42
50.0
43
0.0
44
0.0
50
0.0
51
0.0
71
0
72
100
73
1
74
1
75
0
76
0
77
0
78
0
0
ENDTAB
0
TABLE
2
LTYPE
5
5
100
AcDbSymbolTable
70
6
0
LTYPE
5
14
100
AcDbSymbolTableRecord
100
AcDbLinetypeTableRecord
2
BYBLOCK
70
0
3

72
65
73
0
40
0.0
0
LTYPE
5
15
100
AcDbSymbolTableRecord
100
AcDbLinetypeTableRecord
2
BYLAYER
70
0
3

72
65
73
0
40
0.0
0
LTYPE
5
16
100
AcDbSymbolTableRecord
100
AcDbLinetypeTableRecord
2
CONTINUOUS
70
64
3
Solid line
72
65
73
0
40
0
0
LTYPE
5
1F5
100
AcDbSymbolTableRecord
100
AcDbLinetypeTableRecord
2
CENTER
70
64
3
____ _ ____ _ ____ _ ____ _ ____ _ ____ _ ____
72
65
73
4
40
0.6
49
0.375
74
0
49
-0.075
74
0
49
0.075
74
0
49
-0.075
74
0
0
LTYPE
5
1F6
100
AcDbSymbolTableRecord
100
AcDbLinetypeTableRecord
2
HIDDEN
70
64
3
- - - - - - - - - - - - - - - - - - - -
72
65
73
2
40
0.2
49
0.1
74
0
49
-0.1
74
0
0
LTYPE
5
1F7
100
AcDbSymbolTableRecord
100
AcDbLinetypeTableRecord
2
PHANTOM
70
64
3
_____ _ _ _____ _ _ _____ _ _ _____
72
65
73
6
40
0.8
49
0.45
74
0
49
-0.05
74
0
49
0.1
74
0
49
-0.05
74
0
49
0.1
74
0
49
-0.05
74
0
0
LTYPE
5
1F8
100
AcDbSymbolTableRecord
100
AcDbLinetypeTableRecord
2
DOT
70
64
3
. . . . . . . . . . . . . . . . . . . .
72
65
73
2
40
0.2
49
0.1
74
0
49
-0.1
74
0
0
LTYPE
5
1F9
100
AcDbSymbolTableRecord
100
AcDbLinetypeTableRecord
2
DASHED
70
64
3
- - - - - - - - - - - - - - - - - - - -
72
65
73
2
40
0.2
49
0.1
74
0
49
-0.1
74
0
0
ENDTAB
0
TABLE
2
LAYER
5
2
100
AcDbSymbolTable
70
36
0
LAYER
5
10
100
AcDbSymbolTableRecord
100
AcDbLayerTableRecord
2
0
70
0
62
7
6
CONTINUOUS
0
LAYER
5
1FA
100
AcDbSymbolTableRecord
100
AcDbLayerTableRecord
2
DEFAULT_1
70
0
62
7
6
CENTER
0
LAYER
5
1FB
100
AcDbSymbolTableRecord
100
AcDbLayerTableRecord
2
DEFAULT_2
70
0
62
8
6
HIDDEN
0
LAYER
5
1FC
100
AcDbSymbolTableRecord
100
AcDbLayerTableRecord
2
DEFAULT_3
70
0
62
7
6
PHANTOM
0
LAYER
5
1FD
100
AcDbSymbolTableRecord
100
AcDbLayerTableRecord
2
ASSI
70
0
62
7
6
CONTINUOUS
0
LAYER
5
1FE
100
AcDbSymbolTableRecord
100
AcDbLayerTableRecord
2
COORDINATE
70
0
62
7
6
CONTINUOUS
0
LAYER
5
1FF
100
AcDbSymbolTableRecord
100
AcDbLayerTableRecord
2
COORD_ORIGINE
70
0
62
7
6
CONTINUOUS
0
LAYER
5
200
100
AcDbSymbolTableRecord
100
AcDbLayerTableRecord
2
PIANI
70
0
62
7
6
CONTINUOUS
0
LAYER
5
201
100
AcDbSymbolTableRecord
100
AcDbLayerTableRecord
2
PIANI_ORIGINE
70
0
62
7
6
CONTINUOUS
0
LAYER
5
202
100
AcDbSymbolTableRecord
100
AcDbLayerTableRecord
2
RACCORDO
70
0
62
7
6
CONTINUOUS
0
LAYER
5
203
100
AcDbSymbolTableRecord
100
AcDbLayerTableRecord
2
SNAPLINE
70
0
62
7
6
CONTINUOUS
0
LAYER
5
204
100
AcDbSymbolTableRecord
100
AcDbLayerTableRecord
2
TRASH
70
0
62
7
6
CONTINUOUS
0
ENDTAB
0
TABLE
2
STYLE
5
3
100
AcDbSymbolTable
70
1
0
STYLE
5
11
100
AcDbSymbolTableRecord
100
AcDbTextStyleTableRecord
2
STANDARD
70
0
40
0.0
41
0.8000000000
50
0.0
71
0
42
0.2
3
txt
4

0
ENDTAB
0
TABLE
2
VIEW
5
6
100
AcDbSymbolTable
70
0
0
ENDTAB
0
TABLE
2
UCS
5
7
100
AcDbSymbolTable
70
0
0
ENDTAB
0
TABLE
2
APPID
5
9
100
AcDbSymbolTable
70
1
0
APPID
5
205
100
AcDbSymbolTableRecord
100
AcDbRegAppTableRecord
2
ACAD
70
0
0
ENDTAB
0
TABLE
2
DIMSTYLE
5
A
100
AcDbSymbolTable
70
1
0
DIMSTYLE
105
206
100
AcDbSymbolTableRecord
100
AcDbDimStyleTableRecord
2
STANDARD
70
0
3

4

5

6

7

40
1.0
41
3.0000000000
42
0.0625
43
0.38
44
0.18
45
0.0
46
0.0
47
0.0100000000
48
0.0100000000
140
3.0000000000
141
0.09
142
0.0
143
25.4
144
1.0000000000
145
0.0
146
1.0000000000
147
0.09
71
1
72
0
73
0
74
0
75
0
76
0
77
1
78
8
170
0
171
2
172
0
173
0
174
0
175
0
176
0
177
0
178
0
270
2
271
2
272
2
273
2
274
2
340
11
275
0
280
0
281
0
282
0
283
1
284
8
285
0
286
0
287
3
288
0
0
DIMSTYLE
105
207
100
AcDbSymbolTableRecord
100
AcDbDimStyleTableRecord
2
DIMSTYLE_1
70
0
3

4

5

6

7

40
1.0
41
3.0000000000
42
0.0625
43
0.38
44
0.18
45
0.0
46
0.0
47
0.0000000000
48
0.0000000000
140
3.0000000000
141
0.09
142
0.0
143
25.4
144
1.0000000000
145
0.0
146
1.0000000000
147
0.09
71
0
72
0
73
0
74
0
75
0
76
0
77
1
78
8
170
0
171
2
172
0
173
0
174
0
175
0
176
0
177
0
178
0
270
2
271
2
272
2
273
2
274
2
340
11
275
0
280
0
281
0
282
0
283
1
284
8
285
0
286
0
287
3
288
0
0
ENDTAB
0
TABLE
2
BLOCK_RECORD
5
1
100
AcDbSymbolTable
70
0
0
BLOCK_RECORD
5
1B
100
AcDbSymbolTableRecord
100
AcDbBlockTableRecord
2
*MODEL_SPACE
0
BLOCK_RECORD
5
1C
100
AcDbSymbolTableRecord
100
AcDbBlockTableRecord
2
*PAPER_SPACE
0
BLOCK_RECORD
5
208
100
AcDbSymbolTableRecord
100
AcDbBlockTableRecord
2
*D0
0
BLOCK_RECORD
5
209
100
AcDbSymbolTableRecord
100
AcDbBlockTableRecord
2
*D1
0
BLOCK_RECORD
5
20A
100
AcDbSymbolTableRecord
100
AcDbBlockTableRecord
2
*D2
0
ENDTAB
0
ENDSEC
0
SECTION
2
BLOCKS
0
BLOCK
5
1E
100
AcDbEntity
8
0
100
AcDbBlockBegin
2
*MODEL_SPACE
70
0
10
0.0
20
0.0
30
0.0
3
*MODEL_SPACE
1

0
ENDBLK
5
1F
100
AcDbEntity
8
0
100
AcDbBlockEnd
0
BLOCK
5
20
100
AcDbEntity
8
0
100
AcDbBlockBegin
2
*PAPER_SPACE
70
0
10
0.0
20
0.0
30
0.0
3
*PAPER_SPACE
1

0
ENDBLK
5
21
100
AcDbEntity
8
0
100
AcDbBlockEnd
0
BLOCK
5
20B
100
AcDbEntity
8
0
100
AcDbBlockBegin
62
7
6
CONTINUOUS
2
*D0
70
65
10
0.0000000000
20
0.0000000000
3
*D0
1

0
TEXT
5
20C
100
AcDbEntity
8
0
100
AcDbText
62
7
6
CONTINUOUS
10
136.2910285291
20
-4.2354835144
7
STANDARD
40
3.0000000000
1
44
50
90.0000000000
41
0.7857142857
72
0
100
AcDbText
0
LINE
5
20D
100
AcDbEntity
8
0
100
AcDbLine
62
7
6
CONTINUOUS
10
123.5410285291
20
21.7735861552
11
138.5410285291
21
21.7735861552
0
LINE
5
20E
100
AcDbEntity
8
0
100
AcDbLine
62
7
6
CONTINUOUS
10
123.5410285291
20
-22.2264138448
11
138.5410285291
21
-22.2264138448
0
LINE
5
20F
100
AcDbEntity
8
0
100
AcDbLine
62
7
6
CONTINUOUS
10
137.0410285291
20
21.7735861552
11
137.0410285291
21
-0.2264138448
0
LINE
5
210
100
AcDbEntity
8
0
100
AcDbLine
62
7
6
CONTINUOUS
10
137.0410285291
20
-22.2264138448
11
137.0410285291
21
-0.2264138448
0
SOLID
5
211
100
AcDbEntity
8
0
100
AcDbTrace
62
7
6
CONTINUOUS
10
137.4410285291
20
18.7735861552
11
137.0410285291
21
21.7735861552
12
136.6410285291
22
18.7735861552
13
136.6410285291
23
18.7735861552
0
SOLID
5
212
100
AcDbEntity
8
0
100
AcDbTrace
62
7
6
CONTINUOUS
10
136.6410285291
20
-19.2264138448
11
137.0410285291
21
-22.2264138448
12
137.4410285291
22
-19.2264138448
13
137.4410285291
23
-19.2264138448
0
ENDBLK
5
213
100
AcDbEntity
8
0
100
AcDbBlockEnd
0
BLOCK
5
214
100
AcDbEntity
8
0
100
AcDbBlockBegin
62
7
6
CONTINUOUS
2
*D1
70
65
10
0.0000000000
20
0.0000000000
3
*D1
1

0
TEXT
5
215
100
AcDbEntity
8
0
100
AcDbText
62
7
6
CONTINUOUS
10
-5.5277133096
20
32.5235861552
7
STANDARD
40
3.0000000000
1
254
41
0.7619047619
72
0
100
AcDbText
0
LINE
5
216
100
AcDbEntity
8
0
100
AcDbLine
62
7
6
CONTINUOUS
10
127.0410285291
20
18.2735861552
11
127.0410285291
21
33.2735861552
0
LINE
5
217
100
AcDbEntity
8
0
100
AcDbLine
62
7
6
CONTINUOUS
10
-126.9589714709
20
18.2735861552
11
-126.9589714709
21
33.2735861552
0
LINE
5
218
100
AcDbEntity
8
0
100
AcDbLine
62
7
6
CONTINUOUS
10
127.0410285291
20
31.7735861552
11
0.0410285291
21
31.7735861552
0
LINE
5
219
100
AcDbEntity
8
0
100
AcDbLine
62
7
6
CONTINUOUS
10
-126.9589714709
20
31.7735861552
11
0.0410285291
21
31.7735861552
0
SOLID
5
21A
100
AcDbEntity
8
0
100
AcDbTrace
62
7
6
CONTINUOUS
10
124.0410285291
20
31.3735861552
11
127.0410285291
21
31.7735861552
12
124.0410285291
22
32.1735861552
13
124.0410285291
23
32.1735861552
0
SOLID
5
21B
100
AcDbEntity
8
0
100
AcDbTrace
62
7
6
CONTINUOUS
10
-123.9589714709
20
32.1735861552
11
-126.9589714709
21
31.7735861552
12
-123.9589714709
22
31.3735861552
13
-123.9589714709
23
31.3735861552
0
ENDBLK
5
21C
100
AcDbEntity
8
0
100
AcDbBlockEnd
0
BLOCK
5
21D
100
AcDbEntity
8
0
100
AcDbBlockBegin
62
7
6
CONTINUOUS
2
*D2
70
65
10
0.0000000000
20
0.0000000000
3
*D2
1

0
TEXT
5
21E
100
AcDbEntity
8
0
100
AcDbText
62
7
6
CONTINUOUS
10
-162.5917407606
20
32.5235861552
7
STANDARD
40
3.0000000000
1
10,5
41
0.6607142857
72
0
100
AcDbText
0
LINE
5
21F
100
AcDbEntity
8
0
100
AcDbLine
62
7
6
CONTINUOUS
10
-164.4663428104
20
18.2735861552
11
-164.4663428104
21
33.2735861552
0
LINE
5
220
100
AcDbEntity
8
0
100
AcDbLine
62
7
6
CONTINUOUS
10
-153.9663428104
20
22.2735861552
11
-153.9663428104
21
33.2735861552
0
LINE
5
221
100
AcDbEntity
8
0
100
AcDbLine
62
7
6
CONTINUOUS
10
-164.4663428104
20
31.7735861552
11
-159.2163428104
21
31.7735861552
0
LINE
5
222
100
AcDbEntity
8
0
100
AcDbLine
62
7
6
CONTINUOUS
10
-153.9663428104
20
31.7735861552
11
-159.2163428104
21
31.7735861552
0
SOLID
5
223
100
AcDbEntity
8
0
100
AcDbTrace
62
7
6
CONTINUOUS
10
-161.4663428104
20
32.1735861552
11
-164.4663428104
21
31.7735861552
12
-161.4663428104
22
31.3735861552
13
-161.4663428104
23
31.3735861552
0
SOLID
5
224
100
AcDbEntity
8
0
100
AcDbTrace
62
7
6
CONTINUOUS
10
-156.9663428104
20
31.3735861552
11
-153.9663428104
21
31.7735861552
12
-156.9663428104
22
32.1735861552
13
-156.9663428104
23
32.1735861552
0
ENDBLK
5
225
100
AcDbEntity
8
0
100
AcDbBlockEnd
0
ENDSEC
0
SECTION
2
ENTITIES
0
DIMENSION
5
226
100
AcDbEntity
8
0
100
AcDbDimension
62
7
6
CONTINUOUS
2
*D0
10
137.0410285291
20
-22.2264138448
11
134.7910285291
21
-1.8783406573
70
160
3
DIMSTYLE_1
100
AcDbAlignedDimension
13
123.5410285291
23
21.7735861552
14
123.5410285291
24
-22.2264138448
50
270.000000
100
AcDbRotatedDimension
0
DIMENSION
5
227
100
AcDbEntity
8
0
100
AcDbDimension
62
7
6
CONTINUOUS
2
*D1
10
-126.9589714709
20
31.7735861552
11
-2.0991418811
21
34.0235861552
70
160
3
DIMSTYLE_1
100
AcDbAlignedDimension
13
127.0410285291
23
18.2735861552
14
-126.9589714709
24
18.2735861552
50
180.000000
100
AcDbRotatedDimension
0
DIMENSION
5
228
100
AcDbEntity
8
0
100
AcDbDimension
62
7
6
CONTINUOUS
2
*D2
10
-153.9663428104
20
31.7735861552
11
-158.6274550463
21
34.0235861552
70
160
3
DIMSTYLE_1
100
AcDbAlignedDimension
13
-164.4663428104
23
18.2735861552
14
-153.9663428104
24
22.2735861552
100
AcDbRotatedDimension
0
LINE
5
229
100
AcDbEntity
8
0
100
AcDbLine
62
7
6
CONTINUOUS
10
-126.9589714709
20
-18.2264138448
11
-126.9589714709
21
17.7735861552
0
LINE
5
22A
100
AcDbEntity
8
0
100
AcDbLine
62
7
6
CONTINUOUS
10
-111.9589714709
20
21.7735861552
11
-111.9589714709
21
20.2735861552
0
LINE
5
22B
100
AcDbEntity
8
0
100
AcDbLine
62
7
6
CONTINUOUS
10
-111.9589714709
20
-22.2264138448
11
-111.9589714709
21
-20.7264138448
0
LINE
5
22C
100
AcDbEntity
8
0
100
AcDbLine
62
7
6
CONTINUOUS
10
-109.9589714709
20
21.7735861552
11
-109.9589714709
21
20.1735861552
0
LINE
5
22D
100
AcDbEntity
8
0
100
AcDbLine
62
7
6
CONTINUOUS
10
-109.9589714709
20
-20.6264138448
11
-109.9589714709
21
-22.2264138448
0
LINE
5
22E
100
AcDbEntity
8
0
100
AcDbLine
62
7
6
CONTINUOUS
10
123.0410285291
20
-22.2264138448
11
112.0410285291
21
-22.2264138448
0
LINE
5
22F
100
AcDbEntity
8
0
100
AcDbLine
62
7
6
CONTINUOUS
10
-109.9589714709
20
-22.2264138448
11
110.0410285291
21
-22.2264138448
0
LINE
5
230
100
AcDbEntity
8
0
100
AcDbLine
62
7
6
CONTINUOUS
10
-111.9589714709
20
-22.2264138448
11
-122.9589714709
21
-22.2264138448
0
LINE
5
231
100
AcDbEntity
8
0
100
AcDbLine
62
7
6
CONTINUOUS
10
-111.4589714709
20
-20.2264138448
11
-110.3589713958
21
-20.2264138448
0
LINE
5
232
100
AcDbEntity
8
0
100
AcDbLine
62
7
6
CONTINUOUS
10
110.4410284518
20
-20.2264138448
11
111.5410285291
21
-20.2264138448
0
LINE
5
233
100
AcDbEntity
8
0
100
AcDbLine
62
9
6
CONTINUOUS
10
110.4410284518
20
-20.2264138448
11
-110.3589713958
21
-20.2264138448
0
LINE
5
234
100
AcDbEntity
8
0
100
AcDbLine
62
7
6
CONTINUOUS
10
-94.4589714709
20
-13.7264138448
11
94.5410285291
21
-13.7264138448
0
LINE
5
235
100
AcDbEntity
8
0
100
AcDbLine
62
7
6
CONTINUOUS
10
119.2910285291
20
-3.7264138448
11
115.7910285291
21
-3.7264138448
0
LINE
5
236
100
AcDbEntity
8
0
100
AcDbLine
62
7
6
CONTINUOUS
10
-115.7089714709
20
-3.7264138448
11
-119.2089714709
21
-3.7264138448
0
LINE
5
237
100
AcDbEntity
8
0
100
AcDbLine
62
7
6
CONTINUOUS
10
-119.2089714709
20
3.2735861552
11
-115.7089714709
21
3.2735861552
0
LINE
5
238
100
AcDbEntity
8
0
100
AcDbLine
62
7
6
CONTINUOUS
10
115.7910285291
20
3.2735861552
11
119.2910285291
21
3.2735861552
0
LINE
5
239
100
AcDbEntity
8
0
100
AcDbLine
62
7
6
CONTINUOUS
10
94.5410285291
20
13.2735861552
11
-94.4589714709
21
13.2735861552
0
LINE
5
23A
100
AcDbEntity
8
0
100
AcDbLine
62
7
6
CONTINUOUS
10
111.5410285291
20
19.7735861552
11
110.4410284540
21
19.7735861552
0
LINE
5
23B
100
AcDbEntity
8
0
100
AcDbLine
62
9
6
CONTINUOUS
10
110.4410284540
20
19.7735861552
11
-110.3589713942
21
19.7735861552
0
LINE
5
23C
100
AcDbEntity
8
0
100
AcDbLine
62
7
6
CONTINUOUS
10
-110.3589713942
20
19.7735861552
11
-111.4589714709
21
19.7735861552
0
LINE
5
23D
100
AcDbEntity
8
0
100
AcDbLine
62
7
6
CONTINUOUS
10
123.0410285291
20
21.7735861552
11
112.0410285291
21
21.7735861552
0
LINE
5
23E
100
AcDbEntity
8
0
100
AcDbLine
62
7
6
CONTINUOUS
10
-109.9589714709
20
21.7735861552
11
110.0410285291
21
21.7735861552
0
LINE
5
23F
100
AcDbEntity
8
0
100
AcDbLine
62
7
6
CONTINUOUS
10
-111.9589714709
20
21.7735861552
11
-122.9589714709
21
21.7735861552
0
LINE
5
240
100
AcDbEntity
8
0
100
AcDbLine
62
7
6
CONTINUOUS
10
110.0410285291
20
21.7735861552
11
110.0410285291
21
20.1735861552
0
LINE
5
241
100
AcDbEntity
8
0
100
AcDbLine
62
7
6
CONTINUOUS
10
110.0410285291
20
-20.6264138448
11
110.0410285291
21
-22.2264138448
0
LINE
5
242
100
AcDbEntity
8
0
100
AcDbLine
62
7
6
CONTINUOUS
10
112.0410285291
20
21.7735861552
11
112.0410285291
21
20.2735861552
0
LINE
5
243
100
AcDbEntity
8
0
100
AcDbLine
62
7
6
CONTINUOUS
10
112.0410285291
20
-22.2264138448
11
112.0410285291
21
-20.7264138448
0
LINE
5
244
100
AcDbEntity
8
0
100
AcDbLine
62
7
6
CONTINUOUS
10
127.0410285291
20
-18.2264138448
11
127.0410285291
21
17.7735861552
0
LINE
5
245
100
AcDbEntity
8
0
100
AcDbLine
62
7
6
CONTINUOUS
10
-164.4663428104
20
-22.2264138448
11
-162.9663428104
21
-22.2264138448
0
LINE
5
246
100
AcDbEntity
8
0
100
AcDbLine
62
7
6
CONTINUOUS
10
-153.9663428104
20
-22.2264138448
11
-162.4663428104
21
-22.2264138448
0
LINE
5
247
100
AcDbEntity
8
0
100
AcDbLine
62
7
6
CONTINUOUS
10
-162.4663428104
20
-20.7264138448
11
-153.9663428104
21
-20.7264138448
0
LINE
5
248
100
AcDbEntity
8
0
100
AcDbLine
62
9
6
CONTINUOUS
10
-162.9663428104
20
-20.6264138448
11
-162.7663428104
21
-20.6264138448
0
LINE
5
249
100
AcDbEntity
8
0
100
AcDbLine
62
9
6
CONTINUOUS
10
-164.4663428104
20
-18.2264138448
11
-162.9663428104
21
-18.2264138448
0
LINE
5
24A
100
AcDbEntity
8
0
100
AcDbLine
62
7
6
CONTINUOUS
10
-164.4663428104
20
-22.2264138448
11
-164.4663428104
21
21.7735861552
0
LINE
5
24B
100
AcDbEntity
8
0
100
AcDbLine
62
7
6
CONTINUOUS
10
-162.9663428104
20
-22.2264138448
11
-162.9663428104
21
21.7735861552
0
LINE
5
24C
100
AcDbEntity
8
0
100
AcDbLine
62
9
6
CONTINUOUS
10
-162.4663428104
20
21.7735861552
11
-162.4663428104
21
20.2735861552
0
LINE
5
24D
100
AcDbEntity
8
0
100
AcDbLine
62
9
6
CONTINUOUS
10
-162.4663428104
20
-22.2264138448
11
-162.4663428104
21
-20.7264138448
0
LINE
5
24E
100
AcDbEntity
8
0
100
AcDbLine
62
9
6
CONTINUOUS
10
-156.9663428104
20
-20.7264138448
11
-156.9663428104
21
-22.2264138448
0
LINE
5
24F
100
AcDbEntity
8
0
100
AcDbLine
62
9
6
CONTINUOUS
10
-156.9663428104
20
20.2735861552
11
-156.9663428104
21
21.7735861552
0
LINE
5
250
100
AcDbEntity
8
0
100
AcDbLine
62
7
6
CONTINUOUS
10
-153.9663428104
20
-20.7264138448
11
-153.9663428104
21
-22.2264138448
0
LINE
5
251
100
AcDbEntity
8
0
100
AcDbLine
62
7
6
CONTINUOUS
10
-153.9663428104
20
20.2735861552
11
-153.9663428104
21
21.7735861552
0
LINE
5
252
100
AcDbEntity
8
0
100
AcDbLine
62
9
6
CONTINUOUS
10
-164.4663428104
20
17.7735861552
11
-162.9663428104
21
17.7735861552
0
LINE
5
253
100
AcDbEntity
8
0
100
AcDbLine
62
9
6
CONTINUOUS
10
-162.9663428104
20
20.1735861552
11
-162.7663428104
21
20.1735861552
0
LINE
5
254
100
AcDbEntity
8
0
100
AcDbLine
62
7
6
CONTINUOUS
10
-153.9663428104
20
20.2735861552
11
-162.4663428104
21
20.2735861552
0
LINE
5
255
100
AcDbEntity
8
0
100
AcDbLine
62
7
6
CONTINUOUS
10
-164.4663428104
20
21.7735861552
11
-162.9663428104
21
21.7735861552
0
LINE
5
256
100
AcDbEntity
8
0
100
AcDbLine
62
7
6
CONTINUOUS
10
-153.9663428104
20
21.7735861552
11
-162.4663428104
21
21.7735861552
0
ARC
5
257
100
AcDbEntity
8
0
100
AcDbCircle
62
7
6
CONTINUOUS
10
-94.4589714709
20
-0.2264138448
40
13.5000000000
100
AcDbArc
50
90.0000000000
51
270.0000000000
0
ARC
5
258
100
AcDbEntity
8
0
100
AcDbCircle
62
7
6
CONTINUOUS
10
94.5410285291
20
-0.2264138448
40
13.5000000000
100
AcDbArc
50
270.0000000000
51
90.0000000000
0
ARC
5
259
100
AcDbEntity
8
0
100
AcDbCircle
62
7
6
CONTINUOUS
10
123.0410285291
20
-18.2264138448
40
4.0000000000
100
AcDbArc
50
270.0000000000
51
360.0000000000
0
ARC
5
25A
100
AcDbEntity
8
0
100
AcDbCircle
62
7
6
CONTINUOUS
10
123.0410285291
20
17.7735861552
40
4.0000000000
100
AcDbArc
50
0.0000000000
51
90.0000000000
0
ARC
5
25B
100
AcDbEntity
8
0
100
AcDbCircle
62
7
6
CONTINUOUS
10
-122.9589714709
20
17.7735861552
40
4.0000000000
100
AcDbArc
50
90.0000000000
51
180.0000000000
0
ARC
5
25C
100
AcDbEntity
8
0
100
AcDbCircle
62
7
6
CONTINUOUS
10
-122.9589714709
20
-18.2264138448
40
4.0000000000
100
AcDbArc
50
180.0000000000
51
270.0000000000
0
ARC
5
25D
100
AcDbEntity
8
0
100
AcDbCircle
62
7
6
CONTINUOUS
10
-115.7089714709
20
-0.2264138448
40
3.5000000000
100
AcDbArc
50
270.0000000000
51
90.0000000000
0
ARC
5
25E
100
AcDbEntity
8
0
100
AcDbCircle
62
7
6
CONTINUOUS
10
-119.2089714709
20
-0.2264138448
40
3.5000000000
100
AcDbArc
50
90.0000000000
51
270.0000000000
0
ARC
5
25F
100
AcDbEntity
8
0
100
AcDbCircle
62
7
6
CONTINUOUS
10
119.2910285291
20
-0.2264138448
40
3.5000000000
100
AcDbArc
50
270.0000000000
51
90.0000000000
0
ARC
5
260
100
AcDbEntity
8
0
100
AcDbCircle
62
7
6
CONTINUOUS
10
115.7910285291
20
-0.2264138448
40
3.5000000000
100
AcDbArc
50
90.0000000000
51
270.0000000000
0
ARC
5
261
100
AcDbEntity
8
0
100
AcDbCircle
62
7
6
CONTINUOUS
10
-111.4589714709
20
-20.7264138448
40
0.5000000000
100
AcDbArc
50
90.0000000000
51
180.0000000000
0
ARC
5
262
100
AcDbEntity
8
0
100
AcDbCircle
62
7
6
CONTINUOUS
10
-111.4589714709
20
20.2735861552
40
0.5000000000
100
AcDbArc
50
180.0000000000
51
270.0000000000
0
ARC
5
263
100
AcDbEntity
8
0
100
AcDbCircle
62
7
6
CONTINUOUS
10
111.5410285291
20
20.2735861552
40
0.5000000000
100
AcDbArc
50
270.0000000000
51
360.0000000000
0
ARC
5
264
100
AcDbEntity
8
0
100
AcDbCircle
62
7
6
CONTINUOUS
10
111.5410285291
20
-20.7264138448
40
0.5000000000
100
AcDbArc
50
0.0000000000
51
90.0000000000
0
ARC
5
265
100
AcDbEntity
8
0
100
AcDbCircle
62
7
6
CONTINUOUS
10
-110.3589714709
20
20.1735861552
40
0.4000000000
100
AcDbArc
50
270.0000000000
51
360.0000000000
0
ARC
5
266
100
AcDbEntity
8
0
100
AcDbCircle
62
7
6
CONTINUOUS
10
-110.3589714709
20
-20.6264138448
40
0.4000000000
100
AcDbArc
50
0.0000000000
51
90.0000000000
0
ARC
5
267
100
AcDbEntity
8
0
100
AcDbCircle
62
7
6
CONTINUOUS
10
110.4410285291
20
-20.6264138448
40
0.4000000000
100
AcDbArc
50
90.0000000000
51
180.0000000000
0
ARC
5
268
100
AcDbEntity
8
0
100
AcDbCircle
62
7
6
CONTINUOUS
10
110.4410285291
20
20.1735861552
40
0.4000000000
100
AcDbArc
50
180.0000000000
51
270.0000000000
0
ARC
5
269
100
AcDbEntity
8
0
100
AcDbCircle
62
7
6
CONTINUOUS
10
-162.4663428104
20
-20.2264138448
40
2.0000000000
100
AcDbArc
50
255.5085954143
51
270.0000000000
0
ARC
5
26A
100
AcDbEntity
8
0
100
AcDbCircle
62
7
6
CONTINUOUS
10
-162.4663428104
20
19.7735861552
40
2.0000000000
100
AcDbArc
50
90.0000000000
51
104.4914045857
0
ARC
5
26B
100
AcDbEntity
8
0
100
AcDbCircle
62
7
6
CONTINUOUS
10
-162.4663428104
20
-20.2264138448
40
0.5000000000
100
AcDbArc
50
182.6923032540
51
270.0000000000
0
ARC
5
26C
100
AcDbEntity
8
0
100
AcDbCircle
62
7
6
CONTINUOUS
10
-162.4663428104
20
19.7735861552
40
0.5000000000
100
AcDbArc
50
90.0000000000
51
177.3375453346
0
ENDSEC
0
SECTION
2
OBJECTS
0
DICTIONARY
5
26D
100
AcDbDictionary
3
ACAD_GROUP
350
26E
3
ACAD_MLINESTYLE
350
26F
0
DICTIONARY
5
26E
102
{ACAD_REACTORS
330
26D
102
}
100
AcDbDictionary
0
DICTIONARY
5
26F
102
{ACAD_REACTORS
330
26D
102
}
100
AcDbDictionary
3
STANDARD
350
270
0
MLINESTYLE
5
270
102
{ACAD_REACTORS
330
26F
102
}
100
AcDbMlineStyle
2
STANDARD
70
0
3

62
256
51
90.0
52
90.0
71
2
49
0.5
62
256
6
BYLAYER
49
-0.5
62
256
6
BYLAYER
0
ENDSEC
0
EOF
