0
SECTION
2
HEADER
9
$ACADVER
1
AC1015
9
$DWGCODEPAGE
3
ANSI_1252
9
$EXTMAX
10
431.8000000000
20
558.8000000000
30
0.0000000000
9
$EXTMIN
10
0.0000000000
20
0.0000000000
30
0.0000000000
9
$LIMMIN
10
0.0000000000
20
0.0000000000
9
$LIMMAX
10
431.8000000000
20
558.8000000000
9
$VIEWCTR
10
215.9000000000
20
279.4000000000
9
$VIEWSIZE
40
558.8000000000
9
$CLAYER
8
0
9
$LTSCALE
40
36.4254814815
9
$CELTYPE
6
BYLAYER
9
$DIMSCALE
40
1
9
$DIMASZ
40
3.0000000000
9
$DIMEXO
40
4.1392592593
9
$DIMDLI
40
25.1666962963
9
$DIMEXE
40
11.9210666667
9
$DIMCEN
40
5.9605333333
9
$DIMLFAC
40
1.0000000000
9
$DIMBLK
1
_FILLED
9
$DIMTXT
40
3.0000000000
9
$DIMTOL
70
1
9
$DIMLIM
70
0
9
$DIMTFAC
40
1.0000000000
9
$DIMTP
40
0.0100000000
9
$DIMTM
40
0.0100000000
9
$PDMODE
70
3
9
$PDSIZE
40
3.0000000000
9
$HANDSEED
5
3FC
9
$MEASUREMENT
70
1
9
$INSUNITS
70
4
0
ENDSEC
0
SECTION
2
CLASSES
0
CLASS
1
ACDBDICTIONARYWDFLT
2
AcDbDictionaryWithDefault
3
AutoCAD 2000
90
0
280
0
281
0
0
CLASS
1
ACDBPLACEHOLDER
2
AcDbPlaceHolder
3
AutoCAD 2000
90
0
280
0
281
0
0
CLASS
1
LAYOUT
2
AcDbLayout
3
AutoCAD 2000
90
0
280
0
281
0
0
ENDSEC
0
SECTION
2
TABLES
0
TABLE
2
VPORT
5
8
100
AcDbSymbolTable
70
2
0
VPORT
5
1F4
100
AcDbSymbolTableRecord
100
AcDbViewportTableRecord
2
*ACTIVE
70
0
10
0.0
20
0.0
11
1.0
21
1.0
12
215.9000000000
22
279.4000000000
13
0.0
23
0.0
14
1.0
24
1.0
15
0.0
25
0.0
16
0.0
26
0.0
36
1.0
17
0.0
27
0.0
37
0.0
40
558.8000000000
41
0.7727272727
42
50.0
43
0.0
44
0.0
50
0.0
51
0.0
71
0
72
100
73
1
74
1
75
0
76
0
77
0
78
0
0
ENDTAB
0
TABLE
2
LTYPE
5
5
100
AcDbSymbolTable
70
6
0
LTYPE
5
14
100
AcDbSymbolTableRecord
100
AcDbLinetypeTableRecord
2
BYBLOCK
70
0
3

72
65
73
0
40
0.0
0
LTYPE
5
15
100
AcDbSymbolTableRecord
100
AcDbLinetypeTableRecord
2
BYLAYER
70
0
3

72
65
73
0
40
0.0
0
LTYPE
5
16
100
AcDbSymbolTableRecord
100
AcDbLinetypeTableRecord
2
CONTINUOUS
70
64
3
Solid line
72
65
73
0
40
0
0
LTYPE
5
1F5
100
AcDbSymbolTableRecord
100
AcDbLinetypeTableRecord
2
CENTER
70
64
3
____ _ ____ _ ____ _ ____ _ ____ _ ____ _ ____
72
65
73
4
40
0.6
49
0.375
74
0
49
-0.075
74
0
49
0.075
74
0
49
-0.075
74
0
0
LTYPE
5
1F6
100
AcDbSymbolTableRecord
100
AcDbLinetypeTableRecord
2
HIDDEN
70
64
3
- - - - - - - - - - - - - - - - - - - -
72
65
73
2
40
0.2
49
0.1
74
0
49
-0.1
74
0
0
LTYPE
5
1F7
100
AcDbSymbolTableRecord
100
AcDbLinetypeTableRecord
2
PHANTOM
70
64
3
_____ _ _ _____ _ _ _____ _ _ _____
72
65
73
6
40
0.8
49
0.45
74
0
49
-0.05
74
0
49
0.1
74
0
49
-0.05
74
0
49
0.1
74
0
49
-0.05
74
0
0
LTYPE
5
1F8
100
AcDbSymbolTableRecord
100
AcDbLinetypeTableRecord
2
DOT
70
64
3
. . . . . . . . . . . . . . . . . . . .
72
65
73
2
40
0.2
49
0.1
74
0
49
-0.1
74
0
0
LTYPE
5
1F9
100
AcDbSymbolTableRecord
100
AcDbLinetypeTableRecord
2
DASHED
70
64
3
- - - - - - - - - - - - - - - - - - - -
72
65
73
2
40
0.2
49
0.1
74
0
49
-0.1
74
0
0
ENDTAB
0
TABLE
2
LAYER
5
2
100
AcDbSymbolTable
70
36
0
LAYER
5
10
100
AcDbSymbolTableRecord
100
AcDbLayerTableRecord
2
0
70
0
62
7
6
CONTINUOUS
370
-3
390
F
0
LAYER
5
1FA
100
AcDbSymbolTableRecord
100
AcDbLayerTableRecord
2
DEFAULT_1
70
0
62
7
6
CENTER
370
-3
390
F
0
LAYER
5
1FB
100
AcDbSymbolTableRecord
100
AcDbLayerTableRecord
2
DEFAULT_2
70
0
62
8
6
HIDDEN
370
-3
390
F
0
LAYER
5
1FC
100
AcDbSymbolTableRecord
100
AcDbLayerTableRecord
2
DEFAULT_3
70
0
62
7
6
PHANTOM
370
-3
390
F
0
LAYER
5
1FD
100
AcDbSymbolTableRecord
100
AcDbLayerTableRecord
2
_BLACK_HOLE
70
0
62
7
6
CONTINUOUS
370
-3
390
F
0
LAYER
5
1FE
100
AcDbSymbolTableRecord
100
AcDbLayerTableRecord
2
ALTRI_PIANI
70
0
62
7
6
CONTINUOUS
370
-3
390
F
0
LAYER
5
1FF
100
AcDbSymbolTableRecord
100
AcDbLayerTableRecord
2
ASSI
70
0
62
7
6
CONTINUOUS
370
-3
390
F
0
LAYER
5
200
100
AcDbSymbolTableRecord
100
AcDbLayerTableRecord
2
COORDINATE
70
0
62
7
6
CONTINUOUS
370
-3
390
F
0
LAYER
5
201
100
AcDbSymbolTableRecord
100
AcDbLayerTableRecord
2
COORD_ORIGINE
70
0
62
7
6
CONTINUOUS
370
-3
390
F
0
LAYER
5
202
100
AcDbSymbolTableRecord
100
AcDbLayerTableRecord
2
CURVE
70
0
62
7
6
CONTINUOUS
370
-3
390
F
0
LAYER
5
203
100
AcDbSymbolTableRecord
100
AcDbLayerTableRecord
2
PIANI
70
0
62
7
6
CONTINUOUS
370
-3
390
F
0
LAYER
5
204
100
AcDbSymbolTableRecord
100
AcDbLayerTableRecord
2
PIANI_ORIGINE
70
0
62
7
6
CONTINUOUS
370
-3
390
F
0
LAYER
5
205
100
AcDbSymbolTableRecord
100
AcDbLayerTableRecord
2
RACCORDO
70
0
62
7
6
CONTINUOUS
370
-3
390
F
0
LAYER
5
206
100
AcDbSymbolTableRecord
100
AcDbLayerTableRecord
2
SMUSSO
70
0
62
7
6
CONTINUOUS
370
-3
390
F
0
LAYER
5
207
100
AcDbSymbolTableRecord
100
AcDbLayerTableRecord
2
SNAPLINE
70
0
62
7
6
CONTINUOUS
370
-3
390
F
0
LAYER
5
208
100
AcDbSymbolTableRecord
100
AcDbLayerTableRecord
2
SUPERFICI
70
0
62
7
6
CONTINUOUS
370
-3
390
F
0
LAYER
5
209
100
AcDbSymbolTableRecord
100
AcDbLayerTableRecord
2
TRASH
70
0
62
7
6
CONTINUOUS
370
-3
390
F
0
ENDTAB
0
TABLE
2
STYLE
5
3
100
AcDbSymbolTable
70
1
0
STYLE
5
11
100
AcDbSymbolTableRecord
100
AcDbTextStyleTableRecord
2
STANDARD
70
0
40
0.0
41
0.8000000000
50
0.0
71
0
42
0.2
3
txt
4

0
ENDTAB
0
TABLE
2
VIEW
5
6
100
AcDbSymbolTable
70
0
0
ENDTAB
0
TABLE
2
UCS
5
7
100
AcDbSymbolTable
70
0
0
ENDTAB
0
TABLE
2
APPID
5
9
100
AcDbSymbolTable
70
1
0
APPID
5
20A
100
AcDbSymbolTableRecord
100
AcDbRegAppTableRecord
2
ACAD
70
0
0
ENDTAB
0
TABLE
2
BLOCK_RECORD
5
1
100
AcDbSymbolTable
70
0
0
BLOCK_RECORD
5
1F
100
AcDbSymbolTableRecord
100
AcDbBlockTableRecord
2
*MODEL_SPACE
0
BLOCK_RECORD
5
1B
100
AcDbSymbolTableRecord
100
AcDbBlockTableRecord
2
*PAPER_SPACE
0
BLOCK_RECORD
5
20B
100
AcDbSymbolTableRecord
100
AcDbBlockTableRecord
2
_FILLED
0
BLOCK_RECORD
5
20C
100
AcDbSymbolTableRecord
100
AcDbBlockTableRecord
2
*D0
0
BLOCK_RECORD
5
20D
100
AcDbSymbolTableRecord
100
AcDbBlockTableRecord
2
*D1
0
BLOCK_RECORD
5
20E
100
AcDbSymbolTableRecord
100
AcDbBlockTableRecord
2
*D2
0
BLOCK_RECORD
5
20F
100
AcDbSymbolTableRecord
100
AcDbBlockTableRecord
2
*D3
0
ENDTAB
0
TABLE
2
DIMSTYLE
5
A
100
AcDbSymbolTable
70
1
100
AcDbDimStyleTable
71
0
0
DIMSTYLE
105
210
100
AcDbSymbolTableRecord
100
AcDbDimStyleTableRecord
2
STANDARD
70
0
3

4

40
1.0
41
3.0000000000
42
0.0625
43
0.38
44
0.18
45
0.0
46
0.0
47
0.0100000000
48
0.0100000000
140
3.0000000000
141
0.09
142
0.0
143
25.4
144
1.0000000000
145
0.0
146
1.0000000000
147
0.09
71
1
72
0
73
0
74
0
75
0
76
0
77
1
78
8
170
0
171
2
172
0
173
0
174
0
175
0
176
0
177
0
178
0
270
2
271
2
272
2
273
2
274
2
275
0
280
0
281
0
282
0
283
1
284
8
285
0
286
0
287
3
288
0
340
11
341
20B
342
20B
343
20B
344
20B
0
DIMSTYLE
105
211
100
AcDbSymbolTableRecord
100
AcDbDimStyleTableRecord
2
DIMSTYLE_1
70
0
3

4

40
1.0
41
3.0000000000
42
0.0625
43
0.38
44
0.18
45
0.0
46
0.0
47
0.0000000000
48
0.0000000000
140
3.0000000000
141
0.09
142
0.0
143
25.4
144
1.0000000000
145
0.0
146
1.0000000000
147
0.09
71
0
72
0
73
0
74
0
75
0
76
0
77
1
78
8
170
0
171
2
172
0
173
0
174
0
175
0
176
0
177
0
178
0
270
2
271
2
272
2
273
2
274
2
275
0
280
0
281
0
282
0
283
1
284
8
285
0
286
0
287
3
288
0
340
11
341
20B
342
20B
343
20B
344
20B
0
ENDTAB
0
ENDSEC
0
SECTION
2
BLOCKS
0
BLOCK
5
20
100
AcDbEntity
8
0
100
AcDbBlockBegin
2
*MODEL_SPACE
70
0
10
0.0
20
0.0
30
0.0
3
*MODEL_SPACE
1

0
ENDBLK
5
21
100
AcDbEntity
8
0
100
AcDbBlockEnd
0
BLOCK
5
1C
100
AcDbEntity
8
0
100
AcDbBlockBegin
2
*PAPER_SPACE
70
0
10
0.0
20
0.0
30
0.0
3
*PAPER_SPACE
1

0
ENDBLK
5
1D
100
AcDbEntity
8
0
100
AcDbBlockEnd
0
BLOCK
5
212
100
AcDbEntity
8
0
100
AcDbBlockBegin
62
2
6
CONTINUOUS
2
*D0
70
65
10
0.0000000000
20
0.0000000000
3
*D0
1

0
TEXT
5
213
100
AcDbEntity
8
0
100
AcDbText
62
2
6
CONTINUOUS
10
44.5805065063
20
33.4218741345
7
STANDARD
40
3.0000000000
1
254
41
0.7619047619
72
0
100
AcDbText
0
LINE
5
214
100
AcDbEntity
8
0
100
AcDbLine
62
2
6
CONTINUOUS
10
178.0574863756
20
-31.8281258655
11
178.0574863756
21
34.1718741345
0
LINE
5
215
100
AcDbEntity
8
0
100
AcDbLine
62
2
6
CONTINUOUS
10
-75.9425136244
20
-31.8281258655
11
-75.9425136244
21
34.1718741345
0
LINE
5
216
100
AcDbEntity
8
0
100
AcDbLine
62
2
6
CONTINUOUS
10
178.0574863756
20
32.6718741345
11
51.0574863756
21
32.6718741345
0
LINE
5
217
100
AcDbEntity
8
0
100
AcDbLine
62
2
6
CONTINUOUS
10
-75.9425136244
20
32.6718741345
11
51.0574863756
21
32.6718741345
0
INSERT
5
218
100
AcDbEntity
8
0
100
AcDbBlockReference
62
2
6
CONTINUOUS
2
_FILLED
10
178.0574863756
20
32.6718741345
41
  3.000000
42
  3.000000
43
  3.000000
0
INSERT
5
219
100
AcDbEntity
8
0
100
AcDbBlockReference
62
2
6
CONTINUOUS
2
_FILLED
10
-75.9425136244
20
32.6718741345
41
  3.000000
42
  3.000000
43
  3.000000
50
180.000000
0
ENDBLK
5
21A
100
AcDbEntity
8
0
6
BYBLOCK
62
0
100
AcDbBlockEnd
0
BLOCK
5
21B
100
AcDbEntity
8
0
100
AcDbBlockBegin
62
2
6
CONTINUOUS
2
*D1
70
65
10
0.0000000000
20
0.0000000000
3
*D1
1

0
TEXT
5
21C
100
AcDbEntity
8
0
100
AcDbText
62
2
6
CONTINUOUS
10
45.8797117653
20
23.4218741345
7
STANDARD
40
3.0000000000
1
213
41
0.6904761905
72
0
100
AcDbText
0
LINE
5
21D
100
AcDbEntity
8
0
100
AcDbLine
62
2
6
CONTINUOUS
10
-56.9425136244
20
-10.3281258655
11
-56.9425136244
21
24.1718741345
0
LINE
5
21E
100
AcDbEntity
8
0
100
AcDbLine
62
2
6
CONTINUOUS
10
156.0574863756
20
-16.8281258655
11
156.0574863756
21
24.1718741345
0
LINE
5
21F
100
AcDbEntity
8
0
100
AcDbLine
62
2
6
CONTINUOUS
10
-56.9425136244
20
22.6718741345
11
49.5574863756
21
22.6718741345
0
LINE
5
220
100
AcDbEntity
8
0
100
AcDbLine
62
2
6
CONTINUOUS
10
156.0574863756
20
22.6718741345
11
49.5574863756
21
22.6718741345
0
INSERT
5
221
100
AcDbEntity
8
0
100
AcDbBlockReference
62
2
6
CONTINUOUS
2
_FILLED
10
-56.9425136244
20
22.6718741345
41
  3.000000
42
  3.000000
43
  3.000000
50
180.000000
0
INSERT
5
222
100
AcDbEntity
8
0
100
AcDbBlockReference
62
2
6
CONTINUOUS
2
_FILLED
10
156.0574863756
20
22.6718741345
41
  3.000000
42
  3.000000
43
  3.000000
0
ENDBLK
5
223
100
AcDbEntity
8
0
6
BYBLOCK
62
0
100
AcDbBlockEnd
0
BLOCK
5
224
100
AcDbEntity
8
0
100
AcDbBlockBegin
62
2
6
CONTINUOUS
2
*D2
70
65
10
0.0000000000
20
0.0000000000
3
*D2
1

0
TEXT
5
225
100
AcDbEntity
8
0
100
AcDbText
62
2
6
CONTINUOUS
10
185.3074863756
20
-10.5314573151
7
STANDARD
40
3.0000000000
1
47
50
90.0000000000
41
0.7857142857
72
0
100
AcDbText
0
LINE
5
226
100
AcDbEntity
8
0
100
AcDbLine
62
2
6
CONTINUOUS
10
175.5574863756
20
-32.3281258655
11
187.5574863756
21
-32.3281258655
0
LINE
5
227
100
AcDbEntity
8
0
100
AcDbLine
62
2
6
CONTINUOUS
10
156.7574863756
20
14.6718741345
11
187.5574863756
21
14.6718741345
0
LINE
5
228
100
AcDbEntity
8
0
100
AcDbLine
62
2
6
CONTINUOUS
10
186.0574863756
20
-32.3281258655
11
186.0574863756
21
-8.8281258655
0
LINE
5
229
100
AcDbEntity
8
0
100
AcDbLine
62
2
6
CONTINUOUS
10
186.0574863756
20
14.6718741345
11
186.0574863756
21
-8.8281258655
0
INSERT
5
22A
100
AcDbEntity
8
0
100
AcDbBlockReference
62
2
6
CONTINUOUS
2
_FILLED
10
186.0574863756
20
-32.3281258655
41
  3.000000
42
  3.000000
43
  3.000000
50
270.000000
0
INSERT
5
22B
100
AcDbEntity
8
0
100
AcDbBlockReference
62
2
6
CONTINUOUS
2
_FILLED
10
186.0574863756
20
14.6718741345
41
  3.000000
42
  3.000000
43
  3.000000
50
 90.000000
0
ENDBLK
5
22C
100
AcDbEntity
8
0
6
BYBLOCK
62
0
100
AcDbBlockEnd
0
BLOCK
5
22D
100
AcDbEntity
8
0
100
AcDbBlockBegin
62
2
6
CONTINUOUS
2
*D3
70
65
10
0.0000000000
20
0.0000000000
3
*D3
1

0
TEXT
5
22E
100
AcDbEntity
8
0
100
AcDbText
62
2
6
CONTINUOUS
10
-142.2803656016
20
33.4218741345
7
STANDARD
40
3.0000000000
1
44,5
41
0.7142857143
72
0
100
AcDbText
0
LINE
5
22F
100
AcDbEntity
8
0
100
AcDbLine
62
2
6
CONTINUOUS
10
-160.3448411368
20
-21.8281258655
11
-160.3448411368
21
34.1718741345
0
LINE
5
230
100
AcDbEntity
8
0
100
AcDbLine
62
2
6
CONTINUOUS
10
-115.8448411368
20
-21.8281258655
11
-115.8448411368
21
34.1718741345
0
LINE
5
231
100
AcDbEntity
8
0
100
AcDbLine
62
2
6
CONTINUOUS
10
-160.3448411368
20
32.6718741345
11
-138.0948411368
21
32.6718741345
0
LINE
5
232
100
AcDbEntity
8
0
100
AcDbLine
62
2
6
CONTINUOUS
10
-115.8448411368
20
32.6718741345
11
-138.0948411368
21
32.6718741345
0
INSERT
5
233
100
AcDbEntity
8
0
100
AcDbBlockReference
62
2
6
CONTINUOUS
2
_FILLED
10
-160.3448411368
20
32.6718741345
41
  3.000000
42
  3.000000
43
  3.000000
50
180.000000
0
INSERT
5
234
100
AcDbEntity
8
0
100
AcDbBlockReference
62
2
6
CONTINUOUS
2
_FILLED
10
-115.8448411368
20
32.6718741345
41
  3.000000
42
  3.000000
43
  3.000000
0
ENDBLK
5
235
100
AcDbEntity
8
0
6
BYBLOCK
62
0
100
AcDbBlockEnd
0
BLOCK
5
236
100
AcDbEntity
8
0
100
AcDbBlockBegin
2
_FILLED
70
64
10
0.0000000000
20
0.0000000000
3
_FILLED
1

0
SOLID
5
237
100
AcDbEntity
8
0
6
BYBLOCK
62
0
100
AcDbTrace
10
0.0000000000
20
0.0000000000
11
-1.0000000000
21
0.3166666667
12
-1.0000000000
22
-0.3166666667
13
-1.0000000000
23
-0.3166666667
0
ENDBLK
5
238
100
AcDbEntity
8
0
6
BYBLOCK
62
0
100
AcDbBlockEnd
0
ENDSEC
0
SECTION
2
ENTITIES
0
DIMENSION
5
239
100
AcDbEntity
8
0
100
AcDbDimension
62
2
6
CONTINUOUS
2
*D0
10
-75.9425136244
20
32.6718741345
11
48.0090779348
21
34.9218741345
70
160
3
DIMSTYLE_1
100
AcDbAlignedDimension
13
178.0574863756
23
-31.8281258655
14
-75.9425136244
24
-31.8281258655
50
180.000000
100
AcDbRotatedDimension
0
DIMENSION
5
23A
100
AcDbEntity
8
0
100
AcDbDimension
62
2
6
CONTINUOUS
2
*D1
10
156.0574863756
20
22.6718741345
11
48.9868546224
21
24.9218741345
70
160
3
DIMSTYLE_1
100
AcDbAlignedDimension
13
-56.9425136244
23
-10.3281258655
14
156.0574863756
24
-16.8281258655
100
AcDbRotatedDimension
0
DIMENSION
5
23B
100
AcDbEntity
8
0
100
AcDbDimension
62
2
6
CONTINUOUS
2
*D2
10
186.0574863756
20
14.6718741345
11
183.8074863756
21
-8.1743144579
70
160
3
DIMSTYLE_1
100
AcDbAlignedDimension
13
175.5574863756
23
-32.3281258655
14
156.7574863756
24
14.6718741345
50
90.000000
100
AcDbRotatedDimension
0
DIMENSION
5
23C
100
AcDbEntity
8
0
100
AcDbDimension
62
2
6
CONTINUOUS
2
*D3
10
-115.8448411368
20
32.6718741345
11
-137.9946513158
21
34.9218741345
70
160
3
DIMSTYLE_1
100
AcDbAlignedDimension
13
-160.3448411368
23
-21.8281258655
14
-115.8448411368
24
-21.8281258655
100
AcDbRotatedDimension
0
LINE
5
23D
100
AcDbEntity
8
0
100
AcDbLine
62
7
6
CONTINUOUS
10
-75.9425136244
20
-32.3281258655
11
-75.9425136244
21
-30.8281258655
0
LINE
5
23E
100
AcDbEntity
8
0
100
AcDbLine
62
9
6
CONTINUOUS
10
-72.9425136244
20
-32.3281258655
11
-72.9425136244
21
-30.8281258655
0
LINE
5
23F
100
AcDbEntity
8
0
100
AcDbLine
62
7
6
CONTINUOUS
10
-57.4425136244
20
-32.6734253272
11
-57.4425136244
21
-32.3281258655
0
LINE
5
240
100
AcDbEntity
8
0
100
AcDbLine
62
7
6
CONTINUOUS
10
-56.9425136244
20
-6.8281258655
11
-56.9425136244
21
-30.8281258655
0
LINE
5
241
100
AcDbEntity
8
0
100
AcDbLine
62
7
6
CONTINUOUS
10
-54.1425136244
20
-12.8281258655
11
-54.1425136244
21
14.6718741345
0
LINE
5
242
100
AcDbEntity
8
0
100
AcDbLine
62
7
6
CONTINUOUS
10
-53.9425136244
20
-15.6281258655
11
-53.9425136244
21
-30.8281258655
0
LINE
5
243
100
AcDbEntity
8
0
100
AcDbLine
62
7
6
CONTINUOUS
10
-53.3425136244
20
-18.9816574783
11
-53.3425136244
21
-17.3281258655
0
LINE
5
244
100
AcDbEntity
8
0
100
AcDbLine
62
7
6
CONTINUOUS
10
-53.2425136244
20
-19.2564052202
11
-53.2425136244
21
-17.3281258655
0
LINE
5
245
100
AcDbEntity
8
0
100
AcDbLine
62
7
6
CONTINUOUS
10
-53.2425136244
20
-15.6281258655
11
-53.2425136244
21
-12.8281258655
0
LINE
5
246
100
AcDbEntity
8
0
100
AcDbLine
62
7
6
CONTINUOUS
10
-49.6425136244
20
-19.2564052202
11
-49.6425136244
21
-17.3281258655
0
LINE
5
247
100
AcDbEntity
8
0
100
AcDbLine
62
7
6
CONTINUOUS
10
-49.6425136244
20
-15.6281258655
11
-49.6425136244
21
-12.8281258655
0
LINE
5
248
100
AcDbEntity
8
0
100
AcDbLine
62
7
6
CONTINUOUS
10
-49.5425136244
20
-18.9816574783
11
-49.5425136244
21
-17.3281258655
0
LINE
5
249
100
AcDbEntity
8
0
100
AcDbLine
62
7
6
CONTINUOUS
10
-49.2925136244
20
-30.8281258655
11
-49.2925136244
21
-20.8281258655
0
LINE
5
24A
100
AcDbEntity
8
0
100
AcDbLine
62
7
6
CONTINUOUS
10
-49.1425136244
20
-12.8281258655
11
-49.1425136244
21
14.6718741345
0
LINE
5
24B
100
AcDbEntity
8
0
100
AcDbLine
62
7
6
CONTINUOUS
10
-49.0425136244
20
-1.1281258655
11
-49.0425136244
21
-15.6281258655
0
LINE
5
24C
100
AcDbEntity
8
0
100
AcDbLine
62
7
6
CONTINUOUS
10
-48.9425136244
20
-22.3281258655
11
-48.9425136244
21
-32.3281258655
0
LINE
5
24D
100
AcDbEntity
8
0
100
AcDbLine
62
7
6
CONTINUOUS
10
-47.8925136244
20
-1.1281258655
11
-47.8925136244
21
-6.6281258655
0
LINE
5
24E
100
AcDbEntity
8
0
100
AcDbLine
62
7
6
CONTINUOUS
10
-46.1925136244
20
-1.1281258655
11
-46.1925136244
21
-6.6281258655
0
LINE
5
24F
100
AcDbEntity
8
0
100
AcDbLine
62
7
6
CONTINUOUS
10
-44.1925136244
20
-1.1281258655
11
-44.1925136244
21
-6.6281258655
0
LINE
5
250
100
AcDbEntity
8
0
100
AcDbLine
62
7
6
CONTINUOUS
10
-51.9425136244
20
-22.8281258655
11
-53.3425136244
21
-18.9816574783
0
LINE
5
251
100
AcDbEntity
8
0
100
AcDbLine
62
7
6
CONTINUOUS
10
-42.4925136244
20
-1.1281258655
11
-42.4925136244
21
-6.6281258655
0
LINE
5
252
100
AcDbEntity
8
0
100
AcDbLine
62
7
6
CONTINUOUS
10
-40.4925136244
20
-1.1281258655
11
-40.4925136244
21
-6.6281258655
0
LINE
5
253
100
AcDbEntity
8
0
100
AcDbLine
62
7
6
CONTINUOUS
10
-38.7925136244
20
-1.1281258655
11
-38.7925136244
21
-6.6281258655
0
LINE
5
254
100
AcDbEntity
8
0
100
AcDbLine
62
7
6
CONTINUOUS
10
-36.7925136244
20
-1.1281258655
11
-36.7925136244
21
-6.6281258655
0
LINE
5
255
100
AcDbEntity
8
0
100
AcDbLine
62
7
6
CONTINUOUS
10
-35.0925136244
20
-1.1281258655
11
-35.0925136244
21
-6.6281258655
0
LINE
5
256
100
AcDbEntity
8
0
100
AcDbLine
62
7
6
CONTINUOUS
10
-34.4925136244
20
-22.3281258655
11
-34.4925136244
21
-20.8281258655
0
LINE
5
257
100
AcDbEntity
8
0
100
AcDbLine
62
7
6
CONTINUOUS
10
-50.9425136244
20
-22.8281258655
11
-49.5425136244
21
-18.9816574783
0
LINE
5
258
100
AcDbEntity
8
0
100
AcDbLine
62
7
6
CONTINUOUS
10
-33.7925136244
20
-22.3281258655
11
-33.7925136244
21
-20.8281258655
0
LINE
5
259
100
AcDbEntity
8
0
100
AcDbLine
62
7
6
CONTINUOUS
10
-33.0925136244
20
-1.1281258655
11
-33.0925136244
21
-6.6281258655
0
LINE
5
25A
100
AcDbEntity
8
0
100
AcDbLine
62
7
6
CONTINUOUS
10
-31.3925136244
20
-1.1281258655
11
-31.3925136244
21
-6.6281258655
0
LINE
5
25B
100
AcDbEntity
8
0
100
AcDbLine
62
7
6
CONTINUOUS
10
-29.3925136244
20
-1.1281258655
11
-29.3925136244
21
-6.6281258655
0
LINE
5
25C
100
AcDbEntity
8
0
100
AcDbLine
62
7
6
CONTINUOUS
10
-27.6925136244
20
-1.1281258655
11
-27.6925136244
21
-6.6281258655
0
LINE
5
25D
100
AcDbEntity
8
0
100
AcDbLine
62
7
6
CONTINUOUS
10
-25.6925136244
20
-1.1281258655
11
-25.6925136244
21
-6.6281258655
0
LINE
5
25E
100
AcDbEntity
8
0
100
AcDbLine
62
7
6
CONTINUOUS
10
-23.9925136244
20
-1.1281258655
11
-23.9925136244
21
-6.6281258655
0
LINE
5
25F
100
AcDbEntity
8
0
100
AcDbLine
62
7
6
CONTINUOUS
10
-21.9925136244
20
-1.1281258655
11
-21.9925136244
21
-6.6281258655
0
LINE
5
260
100
AcDbEntity
8
0
100
AcDbLine
62
7
6
CONTINUOUS
10
-20.2925136244
20
-1.1281258655
11
-20.2925136244
21
-6.6281258655
0
LINE
5
261
100
AcDbEntity
8
0
100
AcDbLine
62
7
6
CONTINUOUS
10
-18.9925136244
20
-22.3281258655
11
-18.9925136244
21
-20.8281258655
0
LINE
5
262
100
AcDbEntity
8
0
100
AcDbLine
62
7
6
CONTINUOUS
10
-18.8425136244
20
-1.1281258655
11
-18.8425136244
21
-15.6281258655
0
LINE
5
263
100
AcDbEntity
8
0
100
AcDbLine
62
7
6
CONTINUOUS
10
-18.3425136244
20
-1.1281258655
11
-18.3425136244
21
-15.6281258655
0
LINE
5
264
100
AcDbEntity
8
0
100
AcDbLine
62
7
6
CONTINUOUS
10
-18.2925136244
20
-22.3281258655
11
-18.2925136244
21
-20.8281258655
0
LINE
5
265
100
AcDbEntity
8
0
100
AcDbLine
62
7
6
CONTINUOUS
10
-16.8925136244
20
-1.1281258655
11
-16.8925136244
21
-6.6281258655
0
LINE
5
266
100
AcDbEntity
8
0
100
AcDbLine
62
7
6
CONTINUOUS
10
-57.4425136244
20
-32.6734253272
11
-55.4425136244
21
-33.8281258655
0
LINE
5
267
100
AcDbEntity
8
0
100
AcDbLine
62
7
6
CONTINUOUS
10
-15.1925136244
20
-1.1281258655
11
-15.1925136244
21
-6.6281258655
0
LINE
5
268
100
AcDbEntity
8
0
100
AcDbLine
62
7
6
CONTINUOUS
10
-13.1925136244
20
-1.1281258655
11
-13.1925136244
21
-6.6281258655
0
LINE
5
269
100
AcDbEntity
8
0
100
AcDbLine
62
7
6
CONTINUOUS
10
-11.4925136244
20
-1.1281258655
11
-11.4925136244
21
-6.6281258655
0
LINE
5
26A
100
AcDbEntity
8
0
100
AcDbLine
62
7
6
CONTINUOUS
10
-9.4925136244
20
-1.1281258655
11
-9.4925136244
21
-6.6281258655
0
LINE
5
26B
100
AcDbEntity
8
0
100
AcDbLine
62
7
6
CONTINUOUS
10
-7.7925136244
20
-1.1281258655
11
-7.7925136244
21
-6.6281258655
0
LINE
5
26C
100
AcDbEntity
8
0
100
AcDbLine
62
7
6
CONTINUOUS
10
-5.7925136244
20
-1.1281258655
11
-5.7925136244
21
-6.6281258655
0
LINE
5
26D
100
AcDbEntity
8
0
100
AcDbLine
62
7
6
CONTINUOUS
10
-4.0925136244
20
-1.1281258655
11
-4.0925136244
21
-6.6281258655
0
LINE
5
26E
100
AcDbEntity
8
0
100
AcDbLine
62
7
6
CONTINUOUS
10
-3.4925136244
20
-22.3281258655
11
-3.4925136244
21
-20.8281258655
0
LINE
5
26F
100
AcDbEntity
8
0
100
AcDbLine
62
7
6
CONTINUOUS
10
-2.7925136244
20
-22.3281258655
11
-2.7925136244
21
-20.8281258655
0
LINE
5
270
100
AcDbEntity
8
0
100
AcDbLine
62
7
6
CONTINUOUS
10
-2.0925136244
20
-1.1281258655
11
-2.0925136244
21
-6.6281258655
0
LINE
5
271
100
AcDbEntity
8
0
100
AcDbLine
62
7
6
CONTINUOUS
10
-0.3925136244
20
-1.1281258655
11
-0.3925136244
21
-6.6281258655
0
LINE
5
272
100
AcDbEntity
8
0
100
AcDbLine
62
7
6
CONTINUOUS
10
1.6074863756
20
-1.1281258655
11
1.6074863756
21
-6.6281258655
0
LINE
5
273
100
AcDbEntity
8
0
100
AcDbLine
62
7
6
CONTINUOUS
10
3.3074863756
20
-1.1281258655
11
3.3074863756
21
-6.6281258655
0
LINE
5
274
100
AcDbEntity
8
0
100
AcDbLine
62
7
6
CONTINUOUS
10
5.3074863756
20
-1.1281258655
11
5.3074863756
21
-6.6281258655
0
LINE
5
275
100
AcDbEntity
8
0
100
AcDbLine
62
7
6
CONTINUOUS
10
7.0074863756
20
-1.1281258655
11
7.0074863756
21
-6.6281258655
0
LINE
5
276
100
AcDbEntity
8
0
100
AcDbLine
62
7
6
CONTINUOUS
10
9.0074863756
20
-1.1281258655
11
9.0074863756
21
-6.6281258655
0
LINE
5
277
100
AcDbEntity
8
0
100
AcDbLine
62
7
6
CONTINUOUS
10
10.7074863756
20
-1.1281258655
11
10.7074863756
21
-6.6281258655
0
LINE
5
278
100
AcDbEntity
8
0
100
AcDbLine
62
7
6
CONTINUOUS
10
11.8574863756
20
-1.1281258655
11
11.8574863756
21
-15.6281258655
0
LINE
5
279
100
AcDbEntity
8
0
100
AcDbLine
62
7
6
CONTINUOUS
10
12.0074863756
20
-22.3281258655
11
12.0074863756
21
-20.8281258655
0
LINE
5
27A
100
AcDbEntity
8
0
100
AcDbLine
62
7
6
CONTINUOUS
10
12.3574863756
20
-1.1281258655
11
12.3574863756
21
-15.6281258655
0
LINE
5
27B
100
AcDbEntity
8
0
100
AcDbLine
62
7
6
CONTINUOUS
10
12.7074863756
20
-22.3281258655
11
12.7074863756
21
-20.8281258655
0
LINE
5
27C
100
AcDbEntity
8
0
100
AcDbLine
62
7
6
CONTINUOUS
10
13.8074863756
20
-1.1281258655
11
13.8074863756
21
-6.6281258655
0
LINE
5
27D
100
AcDbEntity
8
0
100
AcDbLine
62
7
6
CONTINUOUS
10
15.5074863756
20
-1.1281258655
11
15.5074863756
21
-6.6281258655
0
LINE
5
27E
100
AcDbEntity
8
0
100
AcDbLine
62
7
6
CONTINUOUS
10
17.5074863756
20
-1.1281258655
11
17.5074863756
21
-6.6281258655
0
LINE
5
27F
100
AcDbEntity
8
0
100
AcDbLine
62
7
6
CONTINUOUS
10
19.2074863756
20
-1.1281258655
11
19.2074863756
21
-6.6281258655
0
LINE
5
280
100
AcDbEntity
8
0
100
AcDbLine
62
7
6
CONTINUOUS
10
21.2074863756
20
-1.1281258655
11
21.2074863756
21
-6.6281258655
0
LINE
5
281
100
AcDbEntity
8
0
100
AcDbLine
62
7
6
CONTINUOUS
10
22.9074863756
20
-1.1281258655
11
22.9074863756
21
-6.6281258655
0
LINE
5
282
100
AcDbEntity
8
0
100
AcDbLine
62
7
6
CONTINUOUS
10
24.9074863756
20
-1.1281258655
11
24.9074863756
21
-6.6281258655
0
LINE
5
283
100
AcDbEntity
8
0
100
AcDbLine
62
7
6
CONTINUOUS
10
26.6074863756
20
-1.1281258655
11
26.6074863756
21
-6.6281258655
0
LINE
5
284
100
AcDbEntity
8
0
100
AcDbLine
62
7
6
CONTINUOUS
10
27.5074863756
20
-22.3281258655
11
27.5074863756
21
-20.8281258655
0
LINE
5
285
100
AcDbEntity
8
0
100
AcDbLine
62
7
6
CONTINUOUS
10
28.2074863756
20
-22.3281258655
11
28.2074863756
21
-20.8281258655
0
LINE
5
286
100
AcDbEntity
8
0
100
AcDbLine
62
7
6
CONTINUOUS
10
28.6074863756
20
-1.1281258655
11
28.6074863756
21
-6.6281258655
0
LINE
5
287
100
AcDbEntity
8
0
100
AcDbLine
62
7
6
CONTINUOUS
10
30.3074863756
20
-1.1281258655
11
30.3074863756
21
-6.6281258655
0
LINE
5
288
100
AcDbEntity
8
0
100
AcDbLine
62
7
6
CONTINUOUS
10
32.3074863756
20
-1.1281258655
11
32.3074863756
21
-6.6281258655
0
LINE
5
289
100
AcDbEntity
8
0
100
AcDbLine
62
7
6
CONTINUOUS
10
34.0074863756
20
-1.1281258655
11
34.0074863756
21
-6.6281258655
0
LINE
5
28A
100
AcDbEntity
8
0
100
AcDbLine
62
7
6
CONTINUOUS
10
157.5574863756
20
-33.8281258655
11
53.5574863756
21
-33.8281258655
0
LINE
5
28B
100
AcDbEntity
8
0
100
AcDbLine
62
7
6
CONTINUOUS
10
48.5574863756
20
-33.8281258655
11
-55.4425136244
21
-33.8281258655
0
LINE
5
28C
100
AcDbEntity
8
0
100
AcDbLine
62
7
6
CONTINUOUS
10
159.5574863756
20
-32.6734253272
11
51.5574863756
21
-32.6734253272
0
LINE
5
28D
100
AcDbEntity
8
0
100
AcDbLine
62
7
6
CONTINUOUS
10
50.5574863756
20
-32.6734253272
11
-57.4425136244
21
-32.6734253272
0
LINE
5
28E
100
AcDbEntity
8
0
100
AcDbLine
62
7
6
CONTINUOUS
10
-75.9425136244
20
-32.3281258655
11
178.0574863756
21
-32.3281258655
0
LINE
5
28F
100
AcDbEntity
8
0
100
AcDbLine
62
7
6
CONTINUOUS
10
-75.9425136244
20
-30.8281258655
11
-48.9425136244
21
-30.8281258655
0
LINE
5
290
100
AcDbEntity
8
0
100
AcDbLine
62
7
6
CONTINUOUS
10
151.0574863756
20
-30.8281258655
11
178.0574863756
21
-30.8281258655
0
LINE
5
291
100
AcDbEntity
8
0
100
AcDbLine
62
9
6
CONTINUOUS
10
-48.9425136244
20
-29.8281258655
11
151.0574863756
21
-29.8281258655
0
LINE
5
292
100
AcDbEntity
8
0
100
AcDbLine
62
7
6
CONTINUOUS
10
51.5574863756
20
-32.6734253272
11
53.5574863756
21
-33.8281258655
0
LINE
5
293
100
AcDbEntity
8
0
100
AcDbLine
62
7
6
CONTINUOUS
10
36.0074863756
20
-1.1281258655
11
36.0074863756
21
-6.6281258655
0
LINE
5
294
100
AcDbEntity
8
0
100
AcDbLine
62
7
6
CONTINUOUS
10
37.7074863756
20
-1.1281258655
11
37.7074863756
21
-6.6281258655
0
LINE
5
295
100
AcDbEntity
8
0
100
AcDbLine
62
7
6
CONTINUOUS
10
39.7074863756
20
-1.1281258655
11
39.7074863756
21
-6.6281258655
0
LINE
5
296
100
AcDbEntity
8
0
100
AcDbLine
62
7
6
CONTINUOUS
10
41.4074863756
20
-1.1281258655
11
41.4074863756
21
-6.6281258655
0
LINE
5
297
100
AcDbEntity
8
0
100
AcDbLine
62
7
6
CONTINUOUS
10
42.5574863756
20
-1.1281258655
11
42.5574863756
21
-15.6281258655
0
LINE
5
298
100
AcDbEntity
8
0
100
AcDbLine
62
7
6
CONTINUOUS
10
43.0074863756
20
-22.3281258655
11
43.0074863756
21
-20.8281258655
0
LINE
5
299
100
AcDbEntity
8
0
100
AcDbLine
62
7
6
CONTINUOUS
10
-51.9420461074
20
-22.8281258655
11
-50.9429811415
21
-22.8281258655
0
LINE
5
29A
100
AcDbEntity
8
0
100
AcDbLine
62
7
6
CONTINUOUS
10
153.0579538926
20
-22.8281258655
11
154.0570188585
21
-22.8281258655
0
LINE
5
29B
100
AcDbEntity
8
0
100
AcDbLine
62
7
6
CONTINUOUS
10
-48.9425136244
20
-22.3281258655
11
151.0574863756
21
-22.3281258655
0
LINE
5
29C
100
AcDbEntity
8
0
100
AcDbLine
62
7
6
CONTINUOUS
10
151.4074863756
20
-20.8281258655
11
136.6074863756
21
-20.8281258655
0
LINE
5
29D
100
AcDbEntity
8
0
100
AcDbLine
62
7
6
CONTINUOUS
10
135.9074863756
20
-20.8281258655
11
121.1074863756
21
-20.8281258655
0
LINE
5
29E
100
AcDbEntity
8
0
100
AcDbLine
62
7
6
CONTINUOUS
10
120.4074863756
20
-20.8281258655
11
105.6074863756
21
-20.8281258655
0
LINE
5
29F
100
AcDbEntity
8
0
100
AcDbLine
62
7
6
CONTINUOUS
10
104.9074863756
20
-20.8281258655
11
90.1074863756
21
-20.8281258655
0
LINE
5
2A0
100
AcDbEntity
8
0
100
AcDbLine
62
7
6
CONTINUOUS
10
89.4074863756
20
-20.8281258655
11
74.6074863756
21
-20.8281258655
0
LINE
5
2A1
100
AcDbEntity
8
0
100
AcDbLine
62
7
6
CONTINUOUS
10
73.9074863756
20
-20.8281258655
11
59.1074863756
21
-20.8281258655
0
LINE
5
2A2
100
AcDbEntity
8
0
100
AcDbLine
62
7
6
CONTINUOUS
10
-49.2925136244
20
-20.8281258655
11
-34.4925136244
21
-20.8281258655
0
LINE
5
2A3
100
AcDbEntity
8
0
100
AcDbLine
62
7
6
CONTINUOUS
10
-33.7925136244
20
-20.8281258655
11
-18.9925136244
21
-20.8281258655
0
LINE
5
2A4
100
AcDbEntity
8
0
100
AcDbLine
62
7
6
CONTINUOUS
10
-18.2925136244
20
-20.8281258655
11
-3.4925136244
21
-20.8281258655
0
LINE
5
2A5
100
AcDbEntity
8
0
100
AcDbLine
62
7
6
CONTINUOUS
10
-2.7925136244
20
-20.8281258655
11
12.0074863756
21
-20.8281258655
0
LINE
5
2A6
100
AcDbEntity
8
0
100
AcDbLine
62
7
6
CONTINUOUS
10
12.7074863756
20
-20.8281258655
11
27.5074863756
21
-20.8281258655
0
LINE
5
2A7
100
AcDbEntity
8
0
100
AcDbLine
62
7
6
CONTINUOUS
10
28.2074863756
20
-20.8281258655
11
43.0074863756
21
-20.8281258655
0
LINE
5
2A8
100
AcDbEntity
8
0
100
AcDbLine
62
7
6
CONTINUOUS
10
155.3574863756
20
-19.2564052202
11
151.7574863756
21
-19.2564052202
0
LINE
5
2A9
100
AcDbEntity
8
0
100
AcDbLine
62
7
6
CONTINUOUS
10
-53.2425136244
20
-19.2564052202
11
-49.6425136244
21
-19.2564052202
0
LINE
5
2AA
100
AcDbEntity
8
0
100
AcDbLine
62
7
6
CONTINUOUS
10
155.4574863756
20
-18.9816574783
11
155.3574863756
21
-18.9816574783
0
LINE
5
2AB
100
AcDbEntity
8
0
100
AcDbLine
62
7
6
CONTINUOUS
10
151.7574863756
20
-18.9816574783
11
151.6574863756
21
-18.9816574783
0
LINE
5
2AC
100
AcDbEntity
8
0
100
AcDbLine
62
7
6
CONTINUOUS
10
-53.3425136244
20
-18.9816574783
11
-53.2425136244
21
-18.9816574783
0
LINE
5
2AD
100
AcDbEntity
8
0
100
AcDbLine
62
7
6
CONTINUOUS
10
-49.6425136244
20
-18.9816574783
11
-49.5425136244
21
-18.9816574783
0
LINE
5
2AE
100
AcDbEntity
8
0
100
AcDbLine
62
7
6
CONTINUOUS
10
-53.9425136244
20
-17.3281258655
11
48.2574863756
21
-17.3281258655
0
LINE
5
2AF
100
AcDbEntity
8
0
100
AcDbLine
62
7
6
CONTINUOUS
10
53.8574863756
20
-17.3281258655
11
156.0574863756
21
-17.3281258655
0
LINE
5
2B0
100
AcDbEntity
8
0
100
AcDbLine
62
7
6
CONTINUOUS
10
48.2574863756
20
-15.6281258655
11
48.2574863756
21
-17.3281258655
0
LINE
5
2B1
100
AcDbEntity
8
0
100
AcDbLine
62
7
6
CONTINUOUS
10
49.0574863756
20
-15.6281258655
11
49.0574863756
21
-22.3281258655
0
LINE
5
2B2
100
AcDbEntity
8
0
100
AcDbLine
62
7
6
CONTINUOUS
10
50.5574863756
20
-32.6734253272
11
50.5574863756
21
-32.3281258655
0
LINE
5
2B3
100
AcDbEntity
8
0
100
AcDbLine
62
7
6
CONTINUOUS
10
50.8074863756
20
-6.8281258655
11
50.8074863756
21
-22.3281258655
0
LINE
5
2B4
100
AcDbEntity
8
0
100
AcDbLine
62
7
6
CONTINUOUS
10
51.3074863756
20
-6.8281258655
11
51.3074863756
21
-22.3281258655
0
LINE
5
2B5
100
AcDbEntity
8
0
100
AcDbLine
62
7
6
CONTINUOUS
10
51.5574863756
20
-32.6734253272
11
51.5574863756
21
-32.3281258655
0
LINE
5
2B6
100
AcDbEntity
8
0
100
AcDbLine
62
7
6
CONTINUOUS
10
-53.9425136244
20
-15.6281258655
11
49.0574863756
21
-15.6281258655
0
LINE
5
2B7
100
AcDbEntity
8
0
100
AcDbLine
62
7
6
CONTINUOUS
10
53.0574863756
20
-15.6281258655
11
156.0574863756
21
-15.6281258655
0
LINE
5
2B8
100
AcDbEntity
8
0
100
AcDbLine
62
7
6
CONTINUOUS
10
156.2574863756
20
-12.8281258655
11
151.2574863756
21
-12.8281258655
0
LINE
5
2B9
100
AcDbEntity
8
0
100
AcDbLine
62
7
6
CONTINUOUS
10
-54.1425136244
20
-12.8281258655
11
-49.1425136244
21
-12.8281258655
0
LINE
5
2BA
100
AcDbEntity
8
0
100
AcDbLine
62
7
6
CONTINUOUS
10
-49.0425136244
20
-11.1281258655
11
-18.8425136244
21
-11.1281258655
0
LINE
5
2BB
100
AcDbEntity
8
0
100
AcDbLine
62
7
6
CONTINUOUS
10
-18.3425136244
20
-11.1281258655
11
11.8574863756
21
-11.1281258655
0
LINE
5
2BC
100
AcDbEntity
8
0
100
AcDbLine
62
7
6
CONTINUOUS
10
12.3574863756
20
-11.1281258655
11
42.5574863756
21
-11.1281258655
0
LINE
5
2BD
100
AcDbEntity
8
0
100
AcDbLine
62
7
6
CONTINUOUS
10
59.5574863756
20
-11.1281258655
11
89.7574863756
21
-11.1281258655
0
LINE
5
2BE
100
AcDbEntity
8
0
100
AcDbLine
62
7
6
CONTINUOUS
10
90.2574863756
20
-11.1281258655
11
120.4574863756
21
-11.1281258655
0
LINE
5
2BF
100
AcDbEntity
8
0
100
AcDbLine
62
7
6
CONTINUOUS
10
120.9574863756
20
-11.1281258655
11
151.1574863756
21
-11.1281258655
0
LINE
5
2C0
100
AcDbEntity
8
0
100
AcDbLine
62
7
6
CONTINUOUS
10
-56.9425136244
20
-10.8281258655
11
-49.0425136244
21
-10.8281258655
0
LINE
5
2C1
100
AcDbEntity
8
0
100
AcDbLine
62
7
6
CONTINUOUS
10
42.5574863756
20
-10.8281258655
11
50.8074863756
21
-10.8281258655
0
LINE
5
2C2
100
AcDbEntity
8
0
100
AcDbLine
62
7
6
CONTINUOUS
10
51.3074863756
20
-10.8281258655
11
59.5574863756
21
-10.8281258655
0
LINE
5
2C3
100
AcDbEntity
8
0
100
AcDbLine
62
7
6
CONTINUOUS
10
151.1574863756
20
-10.8281258655
11
159.0574863756
21
-10.8281258655
0
LINE
5
2C4
100
AcDbEntity
8
0
100
AcDbLine
62
7
6
CONTINUOUS
10
-49.0425136244
20
-10.1281258655
11
-18.8425136244
21
-10.1281258655
0
LINE
5
2C5
100
AcDbEntity
8
0
100
AcDbLine
62
7
6
CONTINUOUS
10
-18.3425136244
20
-10.1281258655
11
11.8574863756
21
-10.1281258655
0
LINE
5
2C6
100
AcDbEntity
8
0
100
AcDbLine
62
7
6
CONTINUOUS
10
12.3574863756
20
-10.1281258655
11
42.5574863756
21
-10.1281258655
0
LINE
5
2C7
100
AcDbEntity
8
0
100
AcDbLine
62
7
6
CONTINUOUS
10
59.5574863756
20
-10.1281258655
11
89.7574863756
21
-10.1281258655
0
LINE
5
2C8
100
AcDbEntity
8
0
100
AcDbLine
62
7
6
CONTINUOUS
10
90.2574863756
20
-10.1281258655
11
120.4574863756
21
-10.1281258655
0
LINE
5
2C9
100
AcDbEntity
8
0
100
AcDbLine
62
7
6
CONTINUOUS
10
120.9574863756
20
-10.1281258655
11
151.1574863756
21
-10.1281258655
0
LINE
5
2CA
100
AcDbEntity
8
0
100
AcDbLine
62
7
6
CONTINUOUS
10
-18.8425136244
20
-9.8281258655
11
-18.3425136244
21
-9.8281258655
0
LINE
5
2CB
100
AcDbEntity
8
0
100
AcDbLine
62
7
6
CONTINUOUS
10
11.8574863756
20
-9.8281258655
11
12.3574863756
21
-9.8281258655
0
LINE
5
2CC
100
AcDbEntity
8
0
100
AcDbLine
62
7
6
CONTINUOUS
10
89.7574863756
20
-9.8281258655
11
90.2574863756
21
-9.8281258655
0
LINE
5
2CD
100
AcDbEntity
8
0
100
AcDbLine
62
7
6
CONTINUOUS
10
120.4574863756
20
-9.8281258655
11
120.9574863756
21
-9.8281258655
0
LINE
5
2CE
100
AcDbEntity
8
0
100
AcDbLine
62
7
6
CONTINUOUS
10
-49.0425136244
20
-9.1281258655
11
-18.8425136244
21
-9.1281258655
0
LINE
5
2CF
100
AcDbEntity
8
0
100
AcDbLine
62
7
6
CONTINUOUS
10
-18.3425136244
20
-9.1281258655
11
11.8574863756
21
-9.1281258655
0
LINE
5
2D0
100
AcDbEntity
8
0
100
AcDbLine
62
7
6
CONTINUOUS
10
12.3574863756
20
-9.1281258655
11
42.5574863756
21
-9.1281258655
0
LINE
5
2D1
100
AcDbEntity
8
0
100
AcDbLine
62
7
6
CONTINUOUS
10
59.5574863756
20
-9.1281258655
11
89.7574863756
21
-9.1281258655
0
LINE
5
2D2
100
AcDbEntity
8
0
100
AcDbLine
62
7
6
CONTINUOUS
10
90.2574863756
20
-9.1281258655
11
120.4574863756
21
-9.1281258655
0
LINE
5
2D3
100
AcDbEntity
8
0
100
AcDbLine
62
7
6
CONTINUOUS
10
120.9574863756
20
-9.1281258655
11
151.1574863756
21
-9.1281258655
0
LINE
5
2D4
100
AcDbEntity
8
0
100
AcDbLine
62
7
6
CONTINUOUS
10
53.0574863756
20
-22.3281258655
11
53.0574863756
21
-15.6281258655
0
LINE
5
2D5
100
AcDbEntity
8
0
100
AcDbLine
62
7
6
CONTINUOUS
10
53.8574863756
20
-15.6281258655
11
53.8574863756
21
-17.3281258655
0
LINE
5
2D6
100
AcDbEntity
8
0
100
AcDbLine
62
7
6
CONTINUOUS
10
59.1074863756
20
-22.3281258655
11
59.1074863756
21
-20.8281258655
0
LINE
5
2D7
100
AcDbEntity
8
0
100
AcDbLine
62
7
6
CONTINUOUS
10
59.5574863756
20
-1.1281258655
11
59.5574863756
21
-15.6281258655
0
LINE
5
2D8
100
AcDbEntity
8
0
100
AcDbLine
62
7
6
CONTINUOUS
10
60.7074863756
20
-1.1281258655
11
60.7074863756
21
-6.6281258655
0
LINE
5
2D9
100
AcDbEntity
8
0
100
AcDbLine
62
7
6
CONTINUOUS
10
-49.0425136244
20
-7.3281258655
11
-18.8425136244
21
-7.3281258655
0
LINE
5
2DA
100
AcDbEntity
8
0
100
AcDbLine
62
7
6
CONTINUOUS
10
-18.3425136244
20
-7.3281258655
11
11.8574863756
21
-7.3281258655
0
LINE
5
2DB
100
AcDbEntity
8
0
100
AcDbLine
62
7
6
CONTINUOUS
10
12.3574863756
20
-7.3281258655
11
42.5574863756
21
-7.3281258655
0
LINE
5
2DC
100
AcDbEntity
8
0
100
AcDbLine
62
7
6
CONTINUOUS
10
59.5574863756
20
-7.3281258655
11
89.7574863756
21
-7.3281258655
0
LINE
5
2DD
100
AcDbEntity
8
0
100
AcDbLine
62
7
6
CONTINUOUS
10
90.2574863756
20
-7.3281258655
11
120.4574863756
21
-7.3281258655
0
LINE
5
2DE
100
AcDbEntity
8
0
100
AcDbLine
62
7
6
CONTINUOUS
10
120.9574863756
20
-7.3281258655
11
151.1574863756
21
-7.3281258655
0
LINE
5
2DF
100
AcDbEntity
8
0
100
AcDbLine
62
7
6
CONTINUOUS
10
59.5574863756
20
-6.8281258655
11
51.3074863756
21
-6.8281258655
0
LINE
5
2E0
100
AcDbEntity
8
0
100
AcDbLine
62
7
6
CONTINUOUS
10
50.8074863756
20
-6.8281258655
11
42.5574863756
21
-6.8281258655
0
LINE
5
2E1
100
AcDbEntity
8
0
100
AcDbLine
62
7
6
CONTINUOUS
10
-49.0425136244
20
-6.8281258655
11
-49.1425136244
21
-6.8281258655
0
LINE
5
2E2
100
AcDbEntity
8
0
100
AcDbLine
62
7
6
CONTINUOUS
10
-54.1425136244
20
-6.8281258655
11
-56.9425136244
21
-6.8281258655
0
LINE
5
2E3
100
AcDbEntity
8
0
100
AcDbLine
62
7
6
CONTINUOUS
10
151.1574863756
20
-6.8281258655
11
151.2574863756
21
-6.8281258655
0
LINE
5
2E4
100
AcDbEntity
8
0
100
AcDbLine
62
7
6
CONTINUOUS
10
156.2574863756
20
-6.8281258655
11
159.0574863756
21
-6.8281258655
0
LINE
5
2E5
100
AcDbEntity
8
0
100
AcDbLine
62
7
6
CONTINUOUS
10
150.0074863756
20
-6.6281258655
11
148.3074863756
21
-6.6281258655
0
LINE
5
2E6
100
AcDbEntity
8
0
100
AcDbLine
62
7
6
CONTINUOUS
10
146.3074863756
20
-6.6281258655
11
144.6074863756
21
-6.6281258655
0
LINE
5
2E7
100
AcDbEntity
8
0
100
AcDbLine
62
7
6
CONTINUOUS
10
142.6074863756
20
-6.6281258655
11
140.9074863756
21
-6.6281258655
0
LINE
5
2E8
100
AcDbEntity
8
0
100
AcDbLine
62
7
6
CONTINUOUS
10
138.9074863756
20
-6.6281258655
11
137.2074863756
21
-6.6281258655
0
LINE
5
2E9
100
AcDbEntity
8
0
100
AcDbLine
62
7
6
CONTINUOUS
10
135.2074863756
20
-6.6281258655
11
133.5074863756
21
-6.6281258655
0
LINE
5
2EA
100
AcDbEntity
8
0
100
AcDbLine
62
7
6
CONTINUOUS
10
131.5074863756
20
-6.6281258655
11
129.8074863756
21
-6.6281258655
0
LINE
5
2EB
100
AcDbEntity
8
0
100
AcDbLine
62
7
6
CONTINUOUS
10
127.8074863756
20
-6.6281258655
11
126.1074863756
21
-6.6281258655
0
LINE
5
2EC
100
AcDbEntity
8
0
100
AcDbLine
62
7
6
CONTINUOUS
10
124.1074863756
20
-6.6281258655
11
122.4074863756
21
-6.6281258655
0
LINE
5
2ED
100
AcDbEntity
8
0
100
AcDbLine
62
7
6
CONTINUOUS
10
41.4074863756
20
-6.6281258655
11
39.7074863756
21
-6.6281258655
0
LINE
5
2EE
100
AcDbEntity
8
0
100
AcDbLine
62
7
6
CONTINUOUS
10
37.7074863756
20
-6.6281258655
11
36.0074863756
21
-6.6281258655
0
LINE
5
2EF
100
AcDbEntity
8
0
100
AcDbLine
62
7
6
CONTINUOUS
10
34.0074863756
20
-6.6281258655
11
32.3074863756
21
-6.6281258655
0
LINE
5
2F0
100
AcDbEntity
8
0
100
AcDbLine
62
7
6
CONTINUOUS
10
30.3074863756
20
-6.6281258655
11
28.6074863756
21
-6.6281258655
0
LINE
5
2F1
100
AcDbEntity
8
0
100
AcDbLine
62
7
6
CONTINUOUS
10
26.6074863756
20
-6.6281258655
11
24.9074863756
21
-6.6281258655
0
LINE
5
2F2
100
AcDbEntity
8
0
100
AcDbLine
62
7
6
CONTINUOUS
10
22.9074863756
20
-6.6281258655
11
21.2074863756
21
-6.6281258655
0
LINE
5
2F3
100
AcDbEntity
8
0
100
AcDbLine
62
7
6
CONTINUOUS
10
19.2074863756
20
-6.6281258655
11
17.5074863756
21
-6.6281258655
0
LINE
5
2F4
100
AcDbEntity
8
0
100
AcDbLine
62
7
6
CONTINUOUS
10
15.5074863756
20
-6.6281258655
11
13.8074863756
21
-6.6281258655
0
LINE
5
2F5
100
AcDbEntity
8
0
100
AcDbLine
62
7
6
CONTINUOUS
10
10.7074863756
20
-6.6281258655
11
9.0074863756
21
-6.6281258655
0
LINE
5
2F6
100
AcDbEntity
8
0
100
AcDbLine
62
7
6
CONTINUOUS
10
7.0074863756
20
-6.6281258655
11
5.3074863756
21
-6.6281258655
0
LINE
5
2F7
100
AcDbEntity
8
0
100
AcDbLine
62
7
6
CONTINUOUS
10
3.3074863756
20
-6.6281258655
11
1.6074863756
21
-6.6281258655
0
LINE
5
2F8
100
AcDbEntity
8
0
100
AcDbLine
62
7
6
CONTINUOUS
10
-0.3925136244
20
-6.6281258655
11
-2.0925136244
21
-6.6281258655
0
LINE
5
2F9
100
AcDbEntity
8
0
100
AcDbLine
62
7
6
CONTINUOUS
10
-4.0925136244
20
-6.6281258655
11
-5.7925136244
21
-6.6281258655
0
LINE
5
2FA
100
AcDbEntity
8
0
100
AcDbLine
62
7
6
CONTINUOUS
10
-7.7925136244
20
-6.6281258655
11
-9.4925136244
21
-6.6281258655
0
LINE
5
2FB
100
AcDbEntity
8
0
100
AcDbLine
62
7
6
CONTINUOUS
10
-11.4925136244
20
-6.6281258655
11
-13.1925136244
21
-6.6281258655
0
LINE
5
2FC
100
AcDbEntity
8
0
100
AcDbLine
62
7
6
CONTINUOUS
10
-15.1925136244
20
-6.6281258655
11
-16.8925136244
21
-6.6281258655
0
LINE
5
2FD
100
AcDbEntity
8
0
100
AcDbLine
62
7
6
CONTINUOUS
10
-47.8925136244
20
-6.6281258655
11
-46.1925136244
21
-6.6281258655
0
LINE
5
2FE
100
AcDbEntity
8
0
100
AcDbLine
62
7
6
CONTINUOUS
10
-44.1925136244
20
-6.6281258655
11
-42.4925136244
21
-6.6281258655
0
LINE
5
2FF
100
AcDbEntity
8
0
100
AcDbLine
62
7
6
CONTINUOUS
10
-40.4925136244
20
-6.6281258655
11
-38.7925136244
21
-6.6281258655
0
LINE
5
300
100
AcDbEntity
8
0
100
AcDbLine
62
7
6
CONTINUOUS
10
-36.7925136244
20
-6.6281258655
11
-35.0925136244
21
-6.6281258655
0
LINE
5
301
100
AcDbEntity
8
0
100
AcDbLine
62
7
6
CONTINUOUS
10
-33.0925136244
20
-6.6281258655
11
-31.3925136244
21
-6.6281258655
0
LINE
5
302
100
AcDbEntity
8
0
100
AcDbLine
62
7
6
CONTINUOUS
10
-29.3925136244
20
-6.6281258655
11
-27.6925136244
21
-6.6281258655
0
LINE
5
303
100
AcDbEntity
8
0
100
AcDbLine
62
7
6
CONTINUOUS
10
-25.6925136244
20
-6.6281258655
11
-23.9925136244
21
-6.6281258655
0
LINE
5
304
100
AcDbEntity
8
0
100
AcDbLine
62
7
6
CONTINUOUS
10
-21.9925136244
20
-6.6281258655
11
-20.2925136244
21
-6.6281258655
0
LINE
5
305
100
AcDbEntity
8
0
100
AcDbLine
62
7
6
CONTINUOUS
10
60.7074863756
20
-6.6281258655
11
62.4074863756
21
-6.6281258655
0
LINE
5
306
100
AcDbEntity
8
0
100
AcDbLine
62
7
6
CONTINUOUS
10
64.4074863756
20
-6.6281258655
11
66.1074863756
21
-6.6281258655
0
LINE
5
307
100
AcDbEntity
8
0
100
AcDbLine
62
7
6
CONTINUOUS
10
68.1074863756
20
-6.6281258655
11
69.8074863756
21
-6.6281258655
0
LINE
5
308
100
AcDbEntity
8
0
100
AcDbLine
62
7
6
CONTINUOUS
10
71.8074863756
20
-6.6281258655
11
73.5074863756
21
-6.6281258655
0
LINE
5
309
100
AcDbEntity
8
0
100
AcDbLine
62
7
6
CONTINUOUS
10
75.5074863756
20
-6.6281258655
11
77.2074863756
21
-6.6281258655
0
LINE
5
30A
100
AcDbEntity
8
0
100
AcDbLine
62
7
6
CONTINUOUS
10
79.2074863756
20
-6.6281258655
11
80.9074863756
21
-6.6281258655
0
LINE
5
30B
100
AcDbEntity
8
0
100
AcDbLine
62
7
6
CONTINUOUS
10
82.9074863756
20
-6.6281258655
11
84.6074863756
21
-6.6281258655
0
LINE
5
30C
100
AcDbEntity
8
0
100
AcDbLine
62
7
6
CONTINUOUS
10
86.6074863756
20
-6.6281258655
11
88.3074863756
21
-6.6281258655
0
LINE
5
30D
100
AcDbEntity
8
0
100
AcDbLine
62
7
6
CONTINUOUS
10
91.4074863756
20
-6.6281258655
11
93.1074863756
21
-6.6281258655
0
LINE
5
30E
100
AcDbEntity
8
0
100
AcDbLine
62
7
6
CONTINUOUS
10
95.1074863756
20
-6.6281258655
11
96.8074863756
21
-6.6281258655
0
LINE
5
30F
100
AcDbEntity
8
0
100
AcDbLine
62
7
6
CONTINUOUS
10
98.8074863756
20
-6.6281258655
11
100.5074863756
21
-6.6281258655
0
LINE
5
310
100
AcDbEntity
8
0
100
AcDbLine
62
7
6
CONTINUOUS
10
102.5074863756
20
-6.6281258655
11
104.2074863756
21
-6.6281258655
0
LINE
5
311
100
AcDbEntity
8
0
100
AcDbLine
62
7
6
CONTINUOUS
10
106.2074863756
20
-6.6281258655
11
107.9074863756
21
-6.6281258655
0
LINE
5
312
100
AcDbEntity
8
0
100
AcDbLine
62
7
6
CONTINUOUS
10
109.9074863756
20
-6.6281258655
11
111.6074863756
21
-6.6281258655
0
LINE
5
313
100
AcDbEntity
8
0
100
AcDbLine
62
7
6
CONTINUOUS
10
113.6074863756
20
-6.6281258655
11
115.3074863756
21
-6.6281258655
0
LINE
5
314
100
AcDbEntity
8
0
100
AcDbLine
62
7
6
CONTINUOUS
10
117.3074863756
20
-6.6281258655
11
119.0074863756
21
-6.6281258655
0
LINE
5
315
100
AcDbEntity
8
0
100
AcDbLine
62
7
6
CONTINUOUS
10
151.1574863756
20
-1.1281258655
11
150.0074863756
21
-1.1281258655
0
LINE
5
316
100
AcDbEntity
8
0
100
AcDbLine
62
7
6
CONTINUOUS
10
148.3074863756
20
-1.1281258655
11
146.3074863756
21
-1.1281258655
0
LINE
5
317
100
AcDbEntity
8
0
100
AcDbLine
62
7
6
CONTINUOUS
10
144.6074863756
20
-1.1281258655
11
142.6074863756
21
-1.1281258655
0
LINE
5
318
100
AcDbEntity
8
0
100
AcDbLine
62
7
6
CONTINUOUS
10
140.9074863756
20
-1.1281258655
11
138.9074863756
21
-1.1281258655
0
LINE
5
319
100
AcDbEntity
8
0
100
AcDbLine
62
7
6
CONTINUOUS
10
137.2074863756
20
-1.1281258655
11
135.2074863756
21
-1.1281258655
0
LINE
5
31A
100
AcDbEntity
8
0
100
AcDbLine
62
7
6
CONTINUOUS
10
133.5074863756
20
-1.1281258655
11
131.5074863756
21
-1.1281258655
0
LINE
5
31B
100
AcDbEntity
8
0
100
AcDbLine
62
7
6
CONTINUOUS
10
129.8074863756
20
-1.1281258655
11
127.8074863756
21
-1.1281258655
0
LINE
5
31C
100
AcDbEntity
8
0
100
AcDbLine
62
7
6
CONTINUOUS
10
126.1074863756
20
-1.1281258655
11
124.1074863756
21
-1.1281258655
0
LINE
5
31D
100
AcDbEntity
8
0
100
AcDbLine
62
7
6
CONTINUOUS
10
122.4074863756
20
-1.1281258655
11
120.9574863756
21
-1.1281258655
0
LINE
5
31E
100
AcDbEntity
8
0
100
AcDbLine
62
7
6
CONTINUOUS
10
120.4574863756
20
-1.1281258655
11
119.0074863756
21
-1.1281258655
0
LINE
5
31F
100
AcDbEntity
8
0
100
AcDbLine
62
7
6
CONTINUOUS
10
117.3074863756
20
-1.1281258655
11
115.3074863756
21
-1.1281258655
0
LINE
5
320
100
AcDbEntity
8
0
100
AcDbLine
62
7
6
CONTINUOUS
10
113.6074863756
20
-1.1281258655
11
111.6074863756
21
-1.1281258655
0
LINE
5
321
100
AcDbEntity
8
0
100
AcDbLine
62
7
6
CONTINUOUS
10
109.9074863756
20
-1.1281258655
11
107.9074863756
21
-1.1281258655
0
LINE
5
322
100
AcDbEntity
8
0
100
AcDbLine
62
7
6
CONTINUOUS
10
106.2074863756
20
-1.1281258655
11
104.2074863756
21
-1.1281258655
0
LINE
5
323
100
AcDbEntity
8
0
100
AcDbLine
62
7
6
CONTINUOUS
10
102.5074863756
20
-1.1281258655
11
100.5074863756
21
-1.1281258655
0
LINE
5
324
100
AcDbEntity
8
0
100
AcDbLine
62
7
6
CONTINUOUS
10
98.8074863756
20
-1.1281258655
11
96.8074863756
21
-1.1281258655
0
LINE
5
325
100
AcDbEntity
8
0
100
AcDbLine
62
7
6
CONTINUOUS
10
95.1074863756
20
-1.1281258655
11
93.1074863756
21
-1.1281258655
0
LINE
5
326
100
AcDbEntity
8
0
100
AcDbLine
62
7
6
CONTINUOUS
10
91.4074863756
20
-1.1281258655
11
90.2574863756
21
-1.1281258655
0
LINE
5
327
100
AcDbEntity
8
0
100
AcDbLine
62
7
6
CONTINUOUS
10
89.7574863756
20
-1.1281258655
11
88.3074863756
21
-1.1281258655
0
LINE
5
328
100
AcDbEntity
8
0
100
AcDbLine
62
7
6
CONTINUOUS
10
86.6074863756
20
-1.1281258655
11
84.6074863756
21
-1.1281258655
0
LINE
5
329
100
AcDbEntity
8
0
100
AcDbLine
62
7
6
CONTINUOUS
10
82.9074863756
20
-1.1281258655
11
80.9074863756
21
-1.1281258655
0
LINE
5
32A
100
AcDbEntity
8
0
100
AcDbLine
62
7
6
CONTINUOUS
10
79.2074863756
20
-1.1281258655
11
77.2074863756
21
-1.1281258655
0
LINE
5
32B
100
AcDbEntity
8
0
100
AcDbLine
62
7
6
CONTINUOUS
10
75.5074863756
20
-1.1281258655
11
73.5074863756
21
-1.1281258655
0
LINE
5
32C
100
AcDbEntity
8
0
100
AcDbLine
62
7
6
CONTINUOUS
10
71.8074863756
20
-1.1281258655
11
69.8074863756
21
-1.1281258655
0
LINE
5
32D
100
AcDbEntity
8
0
100
AcDbLine
62
7
6
CONTINUOUS
10
68.1074863756
20
-1.1281258655
11
66.1074863756
21
-1.1281258655
0
LINE
5
32E
100
AcDbEntity
8
0
100
AcDbLine
62
7
6
CONTINUOUS
10
64.4074863756
20
-1.1281258655
11
62.4074863756
21
-1.1281258655
0
LINE
5
32F
100
AcDbEntity
8
0
100
AcDbLine
62
7
6
CONTINUOUS
10
60.7074863756
20
-1.1281258655
11
59.5574863756
21
-1.1281258655
0
LINE
5
330
100
AcDbEntity
8
0
100
AcDbLine
62
7
6
CONTINUOUS
10
42.5574863756
20
-1.1281258655
11
41.4074863756
21
-1.1281258655
0
LINE
5
331
100
AcDbEntity
8
0
100
AcDbLine
62
7
6
CONTINUOUS
10
39.7074863756
20
-1.1281258655
11
37.7074863756
21
-1.1281258655
0
LINE
5
332
100
AcDbEntity
8
0
100
AcDbLine
62
7
6
CONTINUOUS
10
36.0074863756
20
-1.1281258655
11
34.0074863756
21
-1.1281258655
0
LINE
5
333
100
AcDbEntity
8
0
100
AcDbLine
62
7
6
CONTINUOUS
10
32.3074863756
20
-1.1281258655
11
30.3074863756
21
-1.1281258655
0
LINE
5
334
100
AcDbEntity
8
0
100
AcDbLine
62
7
6
CONTINUOUS
10
28.6074863756
20
-1.1281258655
11
26.6074863756
21
-1.1281258655
0
LINE
5
335
100
AcDbEntity
8
0
100
AcDbLine
62
7
6
CONTINUOUS
10
24.9074863756
20
-1.1281258655
11
22.9074863756
21
-1.1281258655
0
LINE
5
336
100
AcDbEntity
8
0
100
AcDbLine
62
7
6
CONTINUOUS
10
21.2074863756
20
-1.1281258655
11
19.2074863756
21
-1.1281258655
0
LINE
5
337
100
AcDbEntity
8
0
100
AcDbLine
62
7
6
CONTINUOUS
10
17.5074863756
20
-1.1281258655
11
15.5074863756
21
-1.1281258655
0
LINE
5
338
100
AcDbEntity
8
0
100
AcDbLine
62
7
6
CONTINUOUS
10
13.8074863756
20
-1.1281258655
11
12.3574863756
21
-1.1281258655
0
LINE
5
339
100
AcDbEntity
8
0
100
AcDbLine
62
7
6
CONTINUOUS
10
11.8574863756
20
-1.1281258655
11
10.7074863756
21
-1.1281258655
0
LINE
5
33A
100
AcDbEntity
8
0
100
AcDbLine
62
7
6
CONTINUOUS
10
9.0074863756
20
-1.1281258655
11
7.0074863756
21
-1.1281258655
0
LINE
5
33B
100
AcDbEntity
8
0
100
AcDbLine
62
7
6
CONTINUOUS
10
5.3074863756
20
-1.1281258655
11
3.3074863756
21
-1.1281258655
0
LINE
5
33C
100
AcDbEntity
8
0
100
AcDbLine
62
7
6
CONTINUOUS
10
1.6074863756
20
-1.1281258655
11
-0.3925136244
21
-1.1281258655
0
LINE
5
33D
100
AcDbEntity
8
0
100
AcDbLine
62
7
6
CONTINUOUS
10
-2.0925136244
20
-1.1281258655
11
-4.0925136244
21
-1.1281258655
0
LINE
5
33E
100
AcDbEntity
8
0
100
AcDbLine
62
7
6
CONTINUOUS
10
-5.7925136244
20
-1.1281258655
11
-7.7925136244
21
-1.1281258655
0
LINE
5
33F
100
AcDbEntity
8
0
100
AcDbLine
62
7
6
CONTINUOUS
10
-9.4925136244
20
-1.1281258655
11
-11.4925136244
21
-1.1281258655
0
LINE
5
340
100
AcDbEntity
8
0
100
AcDbLine
62
7
6
CONTINUOUS
10
-13.1925136244
20
-1.1281258655
11
-15.1925136244
21
-1.1281258655
0
LINE
5
341
100
AcDbEntity
8
0
100
AcDbLine
62
7
6
CONTINUOUS
10
-16.8925136244
20
-1.1281258655
11
-18.3425136244
21
-1.1281258655
0
LINE
5
342
100
AcDbEntity
8
0
100
AcDbLine
62
7
6
CONTINUOUS
10
-18.8425136244
20
-1.1281258655
11
-20.2925136244
21
-1.1281258655
0
LINE
5
343
100
AcDbEntity
8
0
100
AcDbLine
62
7
6
CONTINUOUS
10
-21.9925136244
20
-1.1281258655
11
-23.9925136244
21
-1.1281258655
0
LINE
5
344
100
AcDbEntity
8
0
100
AcDbLine
62
7
6
CONTINUOUS
10
-25.6925136244
20
-1.1281258655
11
-27.6925136244
21
-1.1281258655
0
LINE
5
345
100
AcDbEntity
8
0
100
AcDbLine
62
7
6
CONTINUOUS
10
-29.3925136244
20
-1.1281258655
11
-31.3925136244
21
-1.1281258655
0
LINE
5
346
100
AcDbEntity
8
0
100
AcDbLine
62
7
6
CONTINUOUS
10
-33.0925136244
20
-1.1281258655
11
-35.0925136244
21
-1.1281258655
0
LINE
5
347
100
AcDbEntity
8
0
100
AcDbLine
62
7
6
CONTINUOUS
10
-36.7925136244
20
-1.1281258655
11
-38.7925136244
21
-1.1281258655
0
LINE
5
348
100
AcDbEntity
8
0
100
AcDbLine
62
7
6
CONTINUOUS
10
-40.4925136244
20
-1.1281258655
11
-42.4925136244
21
-1.1281258655
0
LINE
5
349
100
AcDbEntity
8
0
100
AcDbLine
62
7
6
CONTINUOUS
10
-44.1925136244
20
-1.1281258655
11
-46.1925136244
21
-1.1281258655
0
LINE
5
34A
100
AcDbEntity
8
0
100
AcDbLine
62
7
6
CONTINUOUS
10
-47.8925136244
20
-1.1281258655
11
-49.0425136244
21
-1.1281258655
0
LINE
5
34B
100
AcDbEntity
8
0
100
AcDbLine
62
7
6
CONTINUOUS
10
62.4074863756
20
-1.1281258655
11
62.4074863756
21
-6.6281258655
0
LINE
5
34C
100
AcDbEntity
8
0
100
AcDbLine
62
7
6
CONTINUOUS
10
64.4074863756
20
-1.1281258655
11
64.4074863756
21
-6.6281258655
0
LINE
5
34D
100
AcDbEntity
8
0
100
AcDbLine
62
7
6
CONTINUOUS
10
66.1074863756
20
-1.1281258655
11
66.1074863756
21
-6.6281258655
0
LINE
5
34E
100
AcDbEntity
8
0
100
AcDbLine
62
7
6
CONTINUOUS
10
68.1074863756
20
-1.1281258655
11
68.1074863756
21
-6.6281258655
0
LINE
5
34F
100
AcDbEntity
8
0
100
AcDbLine
62
7
6
CONTINUOUS
10
69.8074863756
20
-1.1281258655
11
69.8074863756
21
-6.6281258655
0
LINE
5
350
100
AcDbEntity
8
0
100
AcDbLine
62
7
6
CONTINUOUS
10
71.8074863756
20
-1.1281258655
11
71.8074863756
21
-6.6281258655
0
LINE
5
351
100
AcDbEntity
8
0
100
AcDbLine
62
7
6
CONTINUOUS
10
73.5074863756
20
-1.1281258655
11
73.5074863756
21
-6.6281258655
0
LINE
5
352
100
AcDbEntity
8
0
100
AcDbLine
62
7
6
CONTINUOUS
10
73.9074863756
20
-22.3281258655
11
73.9074863756
21
-20.8281258655
0
LINE
5
353
100
AcDbEntity
8
0
100
AcDbLine
62
7
6
CONTINUOUS
10
74.6074863756
20
-22.3281258655
11
74.6074863756
21
-20.8281258655
0
LINE
5
354
100
AcDbEntity
8
0
100
AcDbLine
62
7
6
CONTINUOUS
10
75.5074863756
20
-1.1281258655
11
75.5074863756
21
-6.6281258655
0
LINE
5
355
100
AcDbEntity
8
0
100
AcDbLine
62
7
6
CONTINUOUS
10
77.2074863756
20
-1.1281258655
11
77.2074863756
21
-6.6281258655
0
LINE
5
356
100
AcDbEntity
8
0
100
AcDbLine
62
7
6
CONTINUOUS
10
50.5574863756
20
-32.6734253272
11
48.5574863756
21
-33.8281258655
0
LINE
5
357
100
AcDbEntity
8
0
100
AcDbLine
62
9
6
CONTINUOUS
10
-54.1425136244
20
10.6718741345
11
-49.1425136244
21
10.6718741345
0
LINE
5
358
100
AcDbEntity
8
0
100
AcDbLine
62
9
6
CONTINUOUS
10
151.2574863756
20
10.6718741345
11
156.2574863756
21
10.6718741345
0
LINE
5
359
100
AcDbEntity
8
0
100
AcDbLine
62
7
6
CONTINUOUS
10
-54.1425136244
20
14.6718741345
11
-49.1425136244
21
14.6718741345
0
LINE
5
35A
100
AcDbEntity
8
0
100
AcDbLine
62
7
6
CONTINUOUS
10
151.2574863756
20
14.6718741345
11
156.2574863756
21
14.6718741345
0
LINE
5
35B
100
AcDbEntity
8
0
100
AcDbLine
62
7
6
CONTINUOUS
10
79.2074863756
20
-1.1281258655
11
79.2074863756
21
-6.6281258655
0
LINE
5
35C
100
AcDbEntity
8
0
100
AcDbLine
62
7
6
CONTINUOUS
10
80.9074863756
20
-1.1281258655
11
80.9074863756
21
-6.6281258655
0
LINE
5
35D
100
AcDbEntity
8
0
100
AcDbLine
62
7
6
CONTINUOUS
10
82.9074863756
20
-1.1281258655
11
82.9074863756
21
-6.6281258655
0
LINE
5
35E
100
AcDbEntity
8
0
100
AcDbLine
62
7
6
CONTINUOUS
10
84.6074863756
20
-1.1281258655
11
84.6074863756
21
-6.6281258655
0
LINE
5
35F
100
AcDbEntity
8
0
100
AcDbLine
62
7
6
CONTINUOUS
10
86.6074863756
20
-1.1281258655
11
86.6074863756
21
-6.6281258655
0
LINE
5
360
100
AcDbEntity
8
0
100
AcDbLine
62
7
6
CONTINUOUS
10
88.3074863756
20
-1.1281258655
11
88.3074863756
21
-6.6281258655
0
LINE
5
361
100
AcDbEntity
8
0
100
AcDbLine
62
7
6
CONTINUOUS
10
89.4074863756
20
-22.3281258655
11
89.4074863756
21
-20.8281258655
0
LINE
5
362
100
AcDbEntity
8
0
100
AcDbLine
62
7
6
CONTINUOUS
10
89.7574863756
20
-1.1281258655
11
89.7574863756
21
-15.6281258655
0
LINE
5
363
100
AcDbEntity
8
0
100
AcDbLine
62
7
6
CONTINUOUS
10
90.1074863756
20
-22.3281258655
11
90.1074863756
21
-20.8281258655
0
LINE
5
364
100
AcDbEntity
8
0
100
AcDbLine
62
7
6
CONTINUOUS
10
90.2574863756
20
-1.1281258655
11
90.2574863756
21
-15.6281258655
0
LINE
5
365
100
AcDbEntity
8
0
100
AcDbLine
62
7
6
CONTINUOUS
10
91.4074863756
20
-1.1281258655
11
91.4074863756
21
-6.6281258655
0
LINE
5
366
100
AcDbEntity
8
0
100
AcDbLine
62
7
6
CONTINUOUS
10
93.1074863756
20
-1.1281258655
11
93.1074863756
21
-6.6281258655
0
LINE
5
367
100
AcDbEntity
8
0
100
AcDbLine
62
7
6
CONTINUOUS
10
95.1074863756
20
-1.1281258655
11
95.1074863756
21
-6.6281258655
0
LINE
5
368
100
AcDbEntity
8
0
100
AcDbLine
62
7
6
CONTINUOUS
10
96.8074863756
20
-1.1281258655
11
96.8074863756
21
-6.6281258655
0
LINE
5
369
100
AcDbEntity
8
0
100
AcDbLine
62
7
6
CONTINUOUS
10
98.8074863756
20
-1.1281258655
11
98.8074863756
21
-6.6281258655
0
LINE
5
36A
100
AcDbEntity
8
0
100
AcDbLine
62
7
6
CONTINUOUS
10
100.5074863756
20
-1.1281258655
11
100.5074863756
21
-6.6281258655
0
LINE
5
36B
100
AcDbEntity
8
0
100
AcDbLine
62
7
6
CONTINUOUS
10
102.5074863756
20
-1.1281258655
11
102.5074863756
21
-6.6281258655
0
LINE
5
36C
100
AcDbEntity
8
0
100
AcDbLine
62
7
6
CONTINUOUS
10
104.2074863756
20
-1.1281258655
11
104.2074863756
21
-6.6281258655
0
LINE
5
36D
100
AcDbEntity
8
0
100
AcDbLine
62
7
6
CONTINUOUS
10
104.9074863756
20
-22.3281258655
11
104.9074863756
21
-20.8281258655
0
LINE
5
36E
100
AcDbEntity
8
0
100
AcDbLine
62
7
6
CONTINUOUS
10
105.6074863756
20
-22.3281258655
11
105.6074863756
21
-20.8281258655
0
LINE
5
36F
100
AcDbEntity
8
0
100
AcDbLine
62
7
6
CONTINUOUS
10
106.2074863756
20
-1.1281258655
11
106.2074863756
21
-6.6281258655
0
LINE
5
370
100
AcDbEntity
8
0
100
AcDbLine
62
7
6
CONTINUOUS
10
107.9074863756
20
-1.1281258655
11
107.9074863756
21
-6.6281258655
0
LINE
5
371
100
AcDbEntity
8
0
100
AcDbLine
62
7
6
CONTINUOUS
10
109.9074863756
20
-1.1281258655
11
109.9074863756
21
-6.6281258655
0
LINE
5
372
100
AcDbEntity
8
0
100
AcDbLine
62
7
6
CONTINUOUS
10
111.6074863756
20
-1.1281258655
11
111.6074863756
21
-6.6281258655
0
LINE
5
373
100
AcDbEntity
8
0
100
AcDbLine
62
7
6
CONTINUOUS
10
113.6074863756
20
-1.1281258655
11
113.6074863756
21
-6.6281258655
0
LINE
5
374
100
AcDbEntity
8
0
100
AcDbLine
62
7
6
CONTINUOUS
10
115.3074863756
20
-1.1281258655
11
115.3074863756
21
-6.6281258655
0
LINE
5
375
100
AcDbEntity
8
0
100
AcDbLine
62
7
6
CONTINUOUS
10
117.3074863756
20
-1.1281258655
11
117.3074863756
21
-6.6281258655
0
LINE
5
376
100
AcDbEntity
8
0
100
AcDbLine
62
7
6
CONTINUOUS
10
119.0074863756
20
-1.1281258655
11
119.0074863756
21
-6.6281258655
0
LINE
5
377
100
AcDbEntity
8
0
100
AcDbLine
62
7
6
CONTINUOUS
10
120.4074863756
20
-22.3281258655
11
120.4074863756
21
-20.8281258655
0
LINE
5
378
100
AcDbEntity
8
0
100
AcDbLine
62
7
6
CONTINUOUS
10
120.4574863756
20
-1.1281258655
11
120.4574863756
21
-15.6281258655
0
LINE
5
379
100
AcDbEntity
8
0
100
AcDbLine
62
7
6
CONTINUOUS
10
120.9574863756
20
-1.1281258655
11
120.9574863756
21
-15.6281258655
0
LINE
5
37A
100
AcDbEntity
8
0
100
AcDbLine
62
7
6
CONTINUOUS
10
121.1074863756
20
-22.3281258655
11
121.1074863756
21
-20.8281258655
0
LINE
5
37B
100
AcDbEntity
8
0
100
AcDbLine
62
7
6
CONTINUOUS
10
122.4074863756
20
-1.1281258655
11
122.4074863756
21
-6.6281258655
0
LINE
5
37C
100
AcDbEntity
8
0
100
AcDbLine
62
7
6
CONTINUOUS
10
124.1074863756
20
-1.1281258655
11
124.1074863756
21
-6.6281258655
0
LINE
5
37D
100
AcDbEntity
8
0
100
AcDbLine
62
7
6
CONTINUOUS
10
126.1074863756
20
-1.1281258655
11
126.1074863756
21
-6.6281258655
0
LINE
5
37E
100
AcDbEntity
8
0
100
AcDbLine
62
7
6
CONTINUOUS
10
127.8074863756
20
-1.1281258655
11
127.8074863756
21
-6.6281258655
0
LINE
5
37F
100
AcDbEntity
8
0
100
AcDbLine
62
7
6
CONTINUOUS
10
159.5574863756
20
-32.6734253272
11
157.5574863756
21
-33.8281258655
0
LINE
5
380
100
AcDbEntity
8
0
100
AcDbLine
62
7
6
CONTINUOUS
10
129.8074863756
20
-1.1281258655
11
129.8074863756
21
-6.6281258655
0
LINE
5
381
100
AcDbEntity
8
0
100
AcDbLine
62
7
6
CONTINUOUS
10
131.5074863756
20
-1.1281258655
11
131.5074863756
21
-6.6281258655
0
LINE
5
382
100
AcDbEntity
8
0
100
AcDbLine
62
7
6
CONTINUOUS
10
133.5074863756
20
-1.1281258655
11
133.5074863756
21
-6.6281258655
0
LINE
5
383
100
AcDbEntity
8
0
100
AcDbLine
62
7
6
CONTINUOUS
10
135.2074863756
20
-1.1281258655
11
135.2074863756
21
-6.6281258655
0
LINE
5
384
100
AcDbEntity
8
0
100
AcDbLine
62
7
6
CONTINUOUS
10
135.9074863756
20
-22.3281258655
11
135.9074863756
21
-20.8281258655
0
LINE
5
385
100
AcDbEntity
8
0
100
AcDbLine
62
7
6
CONTINUOUS
10
136.6074863756
20
-22.3281258655
11
136.6074863756
21
-20.8281258655
0
LINE
5
386
100
AcDbEntity
8
0
100
AcDbLine
62
7
6
CONTINUOUS
10
137.2074863756
20
-1.1281258655
11
137.2074863756
21
-6.6281258655
0
LINE
5
387
100
AcDbEntity
8
0
100
AcDbLine
62
7
6
CONTINUOUS
10
138.9074863756
20
-1.1281258655
11
138.9074863756
21
-6.6281258655
0
LINE
5
388
100
AcDbEntity
8
0
100
AcDbLine
62
7
6
CONTINUOUS
10
140.9074863756
20
-1.1281258655
11
140.9074863756
21
-6.6281258655
0
LINE
5
389
100
AcDbEntity
8
0
100
AcDbLine
62
7
6
CONTINUOUS
10
142.6074863756
20
-1.1281258655
11
142.6074863756
21
-6.6281258655
0
LINE
5
38A
100
AcDbEntity
8
0
100
AcDbLine
62
7
6
CONTINUOUS
10
144.6074863756
20
-1.1281258655
11
144.6074863756
21
-6.6281258655
0
LINE
5
38B
100
AcDbEntity
8
0
100
AcDbLine
62
7
6
CONTINUOUS
10
146.3074863756
20
-1.1281258655
11
146.3074863756
21
-6.6281258655
0
LINE
5
38C
100
AcDbEntity
8
0
100
AcDbLine
62
7
6
CONTINUOUS
10
153.0574863756
20
-22.8281258655
11
151.6574863756
21
-18.9816574783
0
LINE
5
38D
100
AcDbEntity
8
0
100
AcDbLine
62
7
6
CONTINUOUS
10
148.3074863756
20
-1.1281258655
11
148.3074863756
21
-6.6281258655
0
LINE
5
38E
100
AcDbEntity
8
0
100
AcDbLine
62
7
6
CONTINUOUS
10
150.0074863756
20
-1.1281258655
11
150.0074863756
21
-6.6281258655
0
LINE
5
38F
100
AcDbEntity
8
0
100
AcDbLine
62
7
6
CONTINUOUS
10
151.0574863756
20
-22.3281258655
11
151.0574863756
21
-32.3281258655
0
LINE
5
390
100
AcDbEntity
8
0
100
AcDbLine
62
7
6
CONTINUOUS
10
151.1574863756
20
-1.1281258655
11
151.1574863756
21
-15.6281258655
0
LINE
5
391
100
AcDbEntity
8
0
100
AcDbLine
62
7
6
CONTINUOUS
10
151.2574863756
20
-12.8281258655
11
151.2574863756
21
14.6718741345
0
LINE
5
392
100
AcDbEntity
8
0
100
AcDbLine
62
7
6
CONTINUOUS
10
151.4074863756
20
-30.8281258655
11
151.4074863756
21
-20.8281258655
0
LINE
5
393
100
AcDbEntity
8
0
100
AcDbLine
62
7
6
CONTINUOUS
10
151.6574863756
20
-17.3281258655
11
151.6574863756
21
-18.9816574783
0
LINE
5
394
100
AcDbEntity
8
0
100
AcDbLine
62
7
6
CONTINUOUS
10
151.7574863756
20
-12.8281258655
11
151.7574863756
21
-15.6281258655
0
LINE
5
395
100
AcDbEntity
8
0
100
AcDbLine
62
7
6
CONTINUOUS
10
151.7574863756
20
-17.3281258655
11
151.7574863756
21
-19.2564052202
0
LINE
5
396
100
AcDbEntity
8
0
100
AcDbLine
62
7
6
CONTINUOUS
10
155.3574863756
20
-12.8281258655
11
155.3574863756
21
-15.6281258655
0
LINE
5
397
100
AcDbEntity
8
0
100
AcDbLine
62
7
6
CONTINUOUS
10
155.3574863756
20
-17.3281258655
11
155.3574863756
21
-19.2564052202
0
LINE
5
398
100
AcDbEntity
8
0
100
AcDbLine
62
7
6
CONTINUOUS
10
155.4574863756
20
-17.3281258655
11
155.4574863756
21
-18.9816574783
0
LINE
5
399
100
AcDbEntity
8
0
100
AcDbLine
62
7
6
CONTINUOUS
10
154.0574863756
20
-22.8281258655
11
155.4574863756
21
-18.9816574783
0
LINE
5
39A
100
AcDbEntity
8
0
100
AcDbLine
62
7
6
CONTINUOUS
10
156.0574863756
20
-15.6281258655
11
156.0574863756
21
-30.8281258655
0
LINE
5
39B
100
AcDbEntity
8
0
100
AcDbLine
62
7
6
CONTINUOUS
10
156.2574863756
20
-12.8281258655
11
156.2574863756
21
14.6718741345
0
LINE
5
39C
100
AcDbEntity
8
0
100
AcDbLine
62
7
6
CONTINUOUS
10
159.0574863756
20
-6.8281258655
11
159.0574863756
21
-30.8281258655
0
LINE
5
39D
100
AcDbEntity
8
0
100
AcDbLine
62
7
6
CONTINUOUS
10
159.5574863756
20
-32.6734253272
11
159.5574863756
21
-32.3281258655
0
LINE
5
39E
100
AcDbEntity
8
0
100
AcDbLine
62
9
6
CONTINUOUS
10
175.0574863756
20
-32.3281258655
11
175.0574863756
21
-30.8281258655
0
LINE
5
39F
100
AcDbEntity
8
0
100
AcDbLine
62
7
6
CONTINUOUS
10
178.0574863756
20
-32.3281258655
11
178.0574863756
21
-30.8281258655
0
LINE
5
3A0
100
AcDbEntity
8
0
100
AcDbLine
62
7
6
CONTINUOUS
10
-151.3948411368
20
-32.6734253272
11
-149.3948411368
21
-33.8281258655
0
LINE
5
3A1
100
AcDbEntity
8
0
100
AcDbLine
62
7
6
CONTINUOUS
10
-126.7948411368
20
-33.8281258655
11
-149.3948411368
21
-33.8281258655
0
LINE
5
3A2
100
AcDbEntity
8
0
100
AcDbLine
62
7
6
CONTINUOUS
10
-160.3448411368
20
-32.3281258655
11
-160.3448411368
21
-30.8281258655
0
LINE
5
3A3
100
AcDbEntity
8
0
100
AcDbLine
62
7
6
CONTINUOUS
10
-160.3448411368
20
-22.3281258655
11
-160.3448411368
21
-29.8281258655
0
LINE
5
3A4
100
AcDbEntity
8
0
100
AcDbLine
62
7
6
CONTINUOUS
10
-124.7948411368
20
-32.6734253272
11
-151.3948411368
21
-32.6734253272
0
LINE
5
3A5
100
AcDbEntity
8
0
100
AcDbLine
62
7
6
CONTINUOUS
10
-115.8448411368
20
-32.3281258655
11
-160.3448411368
21
-32.3281258655
0
LINE
5
3A6
100
AcDbEntity
8
0
100
AcDbLine
62
7
6
CONTINUOUS
10
-158.5948411368
20
-30.8281258655
11
-158.5948411368
21
-22.3281258655
0
LINE
5
3A7
100
AcDbEntity
8
0
100
AcDbLine
62
7
6
CONTINUOUS
10
-158.0948411368
20
-15.6281258655
11
-158.0948411368
21
-17.3281258655
0
LINE
5
3A8
100
AcDbEntity
8
0
100
AcDbLine
62
7
6
CONTINUOUS
10
-130.3629217101
20
14.4306446176
11
-140.4650189443
21
10.7537819207
0
LINE
5
3A9
100
AcDbEntity
8
0
100
AcDbLine
62
7
6
CONTINUOUS
10
-115.8448411368
20
-30.8281258655
11
-160.3448411368
21
-30.8281258655
0
LINE
5
3AA
100
AcDbEntity
8
0
100
AcDbLine
62
9
6
CONTINUOUS
10
-157.3448411368
20
-32.3281258655
11
-157.3448411368
21
-30.8281258655
0
LINE
5
3AB
100
AcDbEntity
8
0
100
AcDbLine
62
7
6
CONTINUOUS
10
-155.6448411368
20
-15.6281258655
11
-155.6448411368
21
-11.1281258655
0
LINE
5
3AC
100
AcDbEntity
8
0
100
AcDbLine
62
7
6
CONTINUOUS
10
-155.6448411368
20
-9.1281258655
11
-155.6448411368
21
-7.3281258655
0
LINE
5
3AD
100
AcDbEntity
8
0
100
AcDbLine
62
7
6
CONTINUOUS
10
-136.0211592207
20
10.7749479266
11
-129.7788814234
21
13.0469512389
0
LINE
5
3AE
100
AcDbEntity
8
0
100
AcDbLine
62
7
6
CONTINUOUS
10
-152.3448411368
20
-22.8281258655
11
-153.6448411368
21
-19.2564052202
0
LINE
5
3AF
100
AcDbEntity
8
0
100
AcDbLine
62
7
6
CONTINUOUS
10
-155.0948411368
20
-12.8281258655
11
-155.0948411368
21
-10.8281258655
0
LINE
5
3B0
100
AcDbEntity
8
0
100
AcDbLine
62
7
6
CONTINUOUS
10
-154.5448411368
20
-1.1281258655
11
-154.5448411368
21
-7.3281258655
0
LINE
5
3B1
100
AcDbEntity
8
0
100
AcDbLine
62
7
6
CONTINUOUS
10
-153.6448411368
20
-12.8281258655
11
-153.6448411368
21
-15.6281258655
0
LINE
5
3B2
100
AcDbEntity
8
0
100
AcDbLine
62
7
6
CONTINUOUS
10
-153.6448411368
20
-17.3281258655
11
-153.6448411368
21
-19.2564052202
0
LINE
5
3B3
100
AcDbEntity
8
0
100
AcDbLine
62
7
6
CONTINUOUS
10
-151.3948411368
20
-32.6734253272
11
-151.3948411368
21
-32.3281258655
0
LINE
5
3B4
100
AcDbEntity
8
0
100
AcDbLine
62
7
6
CONTINUOUS
10
-151.1948411368
20
-10.8281258655
11
-151.1948411368
21
10.6718741345
0
LINE
5
3B5
100
AcDbEntity
8
0
100
AcDbLine
62
7
6
CONTINUOUS
10
-155.6448411368
20
-11.1281258655
11
-154.9448411368
21
-10.1281258655
0
LINE
5
3B6
100
AcDbEntity
8
0
100
AcDbLine
62
7
6
CONTINUOUS
10
-152.3448411368
20
-22.8281258655
11
-151.3448411368
21
-22.8281258655
0
LINE
5
3B7
100
AcDbEntity
8
0
100
AcDbLine
62
7
6
CONTINUOUS
10
-124.8448411368
20
-22.8281258655
11
-123.8448411368
21
-22.8281258655
0
LINE
5
3B8
100
AcDbEntity
8
0
100
AcDbLine
62
7
6
CONTINUOUS
10
-154.9448411368
20
-10.1281258655
11
-155.6448411368
21
-9.1281258655
0
LINE
5
3B9
100
AcDbEntity
8
0
100
AcDbLine
62
7
6
CONTINUOUS
10
-150.0448411368
20
-12.8281258655
11
-150.0448411368
21
-15.6281258655
0
LINE
5
3BA
100
AcDbEntity
8
0
100
AcDbLine
62
7
6
CONTINUOUS
10
-150.0448411368
20
-17.3281258655
11
-150.0448411368
21
-19.2564052202
0
LINE
5
3BB
100
AcDbEntity
8
0
100
AcDbLine
62
7
6
CONTINUOUS
10
-149.0948411368
20
-1.8281258655
11
-149.0948411368
21
11.3718741345
0
LINE
5
3BC
100
AcDbEntity
8
0
100
AcDbLine
62
7
6
CONTINUOUS
10
-148.8448411368
20
-30.8281258655
11
-148.8448411368
21
-10.8281258655
0
LINE
5
3BD
100
AcDbEntity
8
0
100
AcDbLine
62
7
6
CONTINUOUS
10
-115.8448411368
20
-22.3281258655
11
-117.5948411368
21
-22.3281258655
0
LINE
5
3BE
100
AcDbEntity
8
0
100
AcDbLine
62
7
6
CONTINUOUS
10
-158.5948411368
20
-22.3281258655
11
-160.3448411368
21
-22.3281258655
0
LINE
5
3BF
100
AcDbEntity
8
0
100
AcDbLine
62
7
6
CONTINUOUS
10
-146.5948411368
20
-6.8281258655
11
-146.5948411368
21
-10.8281258655
0
LINE
5
3C0
100
AcDbEntity
8
0
100
AcDbLine
62
7
6
CONTINUOUS
10
-150.0448411368
20
-19.2564052202
11
-153.6448411368
21
-19.2564052202
0
LINE
5
3C1
100
AcDbEntity
8
0
100
AcDbLine
62
7
6
CONTINUOUS
10
-122.4448411368
20
-18.9816574783
11
-126.2448411368
21
-18.9816574783
0
LINE
5
3C2
100
AcDbEntity
8
0
100
AcDbLine
62
7
6
CONTINUOUS
10
-151.3448411368
20
-22.8281258655
11
-150.0448411368
21
-19.2564052202
0
LINE
5
3C3
100
AcDbEntity
8
0
100
AcDbLine
62
7
6
CONTINUOUS
10
-158.0948411368
20
-17.3281258655
11
-148.8448411368
21
-17.3281258655
0
LINE
5
3C4
100
AcDbEntity
8
0
100
AcDbLine
62
7
6
CONTINUOUS
10
-127.3448411368
20
-17.3281258655
11
-118.0948411368
21
-17.3281258655
0
LINE
5
3C5
100
AcDbEntity
8
0
100
AcDbLine
62
7
6
CONTINUOUS
10
-158.0948411368
20
-15.6281258655
11
-148.8448411368
21
-15.6281258655
0
LINE
5
3C6
100
AcDbEntity
8
0
100
AcDbLine
62
7
6
CONTINUOUS
10
-127.3448411368
20
-15.6281258655
11
-118.0948411368
21
-15.6281258655
0
LINE
5
3C7
100
AcDbEntity
8
0
100
AcDbLine
62
7
6
CONTINUOUS
10
-141.0948411368
20
-6.8281258655
11
-141.0948411368
21
-10.8281258655
0
LINE
5
3C8
100
AcDbEntity
8
0
100
AcDbLine
62
7
6
CONTINUOUS
10
-121.0948411368
20
-12.8281258655
11
-127.3448411368
21
-12.8281258655
0
LINE
5
3C9
100
AcDbEntity
8
0
100
AcDbLine
62
7
6
CONTINUOUS
10
-148.8448411368
20
-12.8281258655
11
-155.0948411368
21
-12.8281258655
0
LINE
5
3CA
100
AcDbEntity
8
0
100
AcDbLine
62
7
6
CONTINUOUS
10
-155.0948411368
20
-10.8281258655
11
-151.1948411368
21
-10.8281258655
0
LINE
5
3CB
100
AcDbEntity
8
0
100
AcDbLine
62
7
6
CONTINUOUS
10
-148.8448411368
20
-10.8281258655
11
-146.5948411368
21
-10.8281258655
0
LINE
5
3CC
100
AcDbEntity
8
0
100
AcDbLine
62
7
6
CONTINUOUS
10
-141.0948411368
20
-10.8281258655
11
-135.0948411368
21
-10.8281258655
0
LINE
5
3CD
100
AcDbEntity
8
0
100
AcDbLine
62
7
6
CONTINUOUS
10
-129.5948411368
20
-10.8281258655
11
-127.3448411368
21
-10.8281258655
0
LINE
5
3CE
100
AcDbEntity
8
0
100
AcDbLine
62
7
6
CONTINUOUS
10
-124.9948411368
20
-10.8281258655
11
-121.0948411368
21
-10.8281258655
0
LINE
5
3CF
100
AcDbEntity
8
0
100
AcDbLine
62
7
6
CONTINUOUS
10
-141.0948411368
20
-9.8281258655
11
-135.0948411368
21
-9.8281258655
0
LINE
5
3D0
100
AcDbEntity
8
0
100
AcDbLine
62
7
6
CONTINUOUS
10
-155.6448411368
20
-7.3281258655
11
-154.5448411368
21
-7.3281258655
0
LINE
5
3D1
100
AcDbEntity
8
0
100
AcDbLine
62
7
6
CONTINUOUS
10
-120.5448411368
20
-7.3281258655
11
-121.6448411368
21
-7.3281258655
0
LINE
5
3D2
100
AcDbEntity
8
0
100
AcDbLine
62
7
6
CONTINUOUS
10
-135.0948411368
20
-6.8281258655
11
-135.0948411368
21
-10.8281258655
0
LINE
5
3D3
100
AcDbEntity
8
0
100
AcDbLine
62
7
6
CONTINUOUS
10
-129.5948411368
20
-6.8281258655
11
-146.5948411368
21
-6.8281258655
0
LINE
5
3D4
100
AcDbEntity
8
0
100
AcDbLine
62
7
6
CONTINUOUS
10
-130.0948411368
20
-4.8281258655
11
-146.0948411368
21
-4.8281258655
0
LINE
5
3D5
100
AcDbEntity
8
0
100
AcDbLine
62
7
6
CONTINUOUS
10
-129.5948411368
20
-6.8281258655
11
-129.5948411368
21
-10.8281258655
0
LINE
5
3D6
100
AcDbEntity
8
0
100
AcDbLine
62
7
6
CONTINUOUS
10
-154.5448411368
20
-1.1281258655
11
-151.1948411368
21
-1.1281258655
0
LINE
5
3D7
100
AcDbEntity
8
0
100
AcDbLine
62
7
6
CONTINUOUS
10
-124.9948411368
20
-1.1281258655
11
-121.6448411368
21
-1.1281258655
0
LINE
5
3D8
100
AcDbEntity
8
0
100
AcDbLine
62
7
6
CONTINUOUS
10
-124.8448411368
20
-22.8281258655
11
-126.2448411368
21
-18.9816574783
0
LINE
5
3D9
100
AcDbEntity
8
0
100
AcDbLine
62
7
6
CONTINUOUS
10
-127.3448411368
20
-30.8281258655
11
-127.3448411368
21
-10.8281258655
0
LINE
5
3DA
100
AcDbEntity
8
0
100
AcDbLine
62
7
6
CONTINUOUS
10
-127.0948411368
20
11.1675659973
11
-127.0948411368
21
-1.8281258655
0
LINE
5
3DB
100
AcDbEntity
8
0
100
AcDbLine
62
7
6
CONTINUOUS
10
-126.2448411368
20
-12.8281258655
11
-126.2448411368
21
-15.6281258655
0
LINE
5
3DC
100
AcDbEntity
8
0
100
AcDbLine
62
7
6
CONTINUOUS
10
-126.2448411368
20
-17.3281258655
11
-126.2448411368
21
-18.9816574783
0
LINE
5
3DD
100
AcDbEntity
8
0
100
AcDbLine
62
7
6
CONTINUOUS
10
-124.9948411368
20
10.6718741345
11
-124.9948411368
21
-10.8281258655
0
LINE
5
3DE
100
AcDbEntity
8
0
100
AcDbLine
62
7
6
CONTINUOUS
10
-124.7948411368
20
-32.6734253272
11
-124.7948411368
21
-32.3281258655
0
LINE
5
3DF
100
AcDbEntity
8
0
100
AcDbLine
62
7
6
CONTINUOUS
10
-122.4448411368
20
-12.8281258655
11
-122.4448411368
21
-15.6281258655
0
LINE
5
3E0
100
AcDbEntity
8
0
100
AcDbLine
62
7
6
CONTINUOUS
10
-122.4448411368
20
-17.3281258655
11
-122.4448411368
21
-18.9816574783
0
LINE
5
3E1
100
AcDbEntity
8
0
100
AcDbLine
62
7
6
CONTINUOUS
10
-120.5448411368
20
-9.1281258655
11
-121.2448411368
21
-10.1281258655
0
LINE
5
3E2
100
AcDbEntity
8
0
100
AcDbLine
62
7
6
CONTINUOUS
10
-121.2448411368
20
-10.1281258655
11
-120.5448411368
21
-11.1281258655
0
LINE
5
3E3
100
AcDbEntity
8
0
100
AcDbLine
62
7
6
CONTINUOUS
10
-121.6448411368
20
-1.1281258655
11
-121.6448411368
21
-7.3281258655
0
LINE
5
3E4
100
AcDbEntity
8
0
100
AcDbLine
62
7
6
CONTINUOUS
10
-121.0948411368
20
-10.8281258655
11
-121.0948411368
21
-12.8281258655
0
LINE
5
3E5
100
AcDbEntity
8
0
100
AcDbLine
62
7
6
CONTINUOUS
10
-120.5448411368
20
-15.6281258655
11
-120.5448411368
21
-11.1281258655
0
LINE
5
3E6
100
AcDbEntity
8
0
100
AcDbLine
62
7
6
CONTINUOUS
10
-120.5448411368
20
-9.1281258655
11
-120.5448411368
21
-7.3281258655
0
LINE
5
3E7
100
AcDbEntity
8
0
100
AcDbLine
62
9
6
CONTINUOUS
10
-118.8448411368
20
-32.3281258655
11
-118.8448411368
21
-30.8281258655
0
LINE
5
3E8
100
AcDbEntity
8
0
100
AcDbLine
62
7
6
CONTINUOUS
10
-118.0948411368
20
-15.6281258655
11
-118.0948411368
21
-17.3281258655
0
LINE
5
3E9
100
AcDbEntity
8
0
100
AcDbLine
62
7
6
CONTINUOUS
10
-123.8448411368
20
-22.8281258655
11
-122.4448411368
21
-18.9816574783
0
LINE
5
3EA
100
AcDbEntity
8
0
100
AcDbLine
62
7
6
CONTINUOUS
10
-140.3624129013
20
10.1718741345
11
-139.4413606540
21
10.1718741345
0
LINE
5
3EB
100
AcDbEntity
8
0
100
AcDbLine
62
7
6
CONTINUOUS
10
-117.5948411368
20
-22.3281258655
11
-117.5948411368
21
-30.8281258655
0
LINE
5
3EC
100
AcDbEntity
8
0
100
AcDbLine
62
7
6
CONTINUOUS
10
-115.8448411368
20
-32.3281258655
11
-115.8448411368
21
-30.8281258655
0
LINE
5
3ED
100
AcDbEntity
8
0
100
AcDbLine
62
7
6
CONTINUOUS
10
-115.8448411368
20
-29.8281258655
11
-115.8448411368
21
-22.3281258655
0
LINE
5
3EE
100
AcDbEntity
8
0
100
AcDbLine
62
7
6
CONTINUOUS
10
-147.0948411368
20
13.3718741345
11
-136.7448411368
21
13.3718741345
0
LINE
5
3EF
100
AcDbEntity
8
0
100
AcDbLine
62
7
6
CONTINUOUS
10
-147.1948411368
20
14.6718741345
11
-136.7448411368
21
14.6718741345
0
LINE
5
3F0
100
AcDbEntity
8
0
100
AcDbLine
62
7
6
CONTINUOUS
10
-124.7948411368
20
-32.6734253272
11
-126.7948411368
21
-33.8281258655
0
ARC
5
3F1
100
AcDbEntity
8
0
100
AcDbCircle
62
7
6
CONTINUOUS
10
-157.8448411368
20
-29.8281258655
40
2.5000000000
100
AcDbArc
50
180.0000000000
51
201.8068767698
0
ARC
5
3F2
100
AcDbEntity
8
0
100
AcDbCircle
62
7
6
CONTINUOUS
10
-118.3448411368
20
-29.8281258655
40
2.5000000000
100
AcDbArc
50
336.4218215218
51
360.0000000000
0
ARC
5
3F3
100
AcDbEntity
8
0
100
AcDbCircle
62
7
6
CONTINUOUS
10
-147.0948411368
20
11.3718741345
40
2.0000000000
100
AcDbArc
50
90.0000000000
51
180.0000000000
0
ARC
5
3F4
100
AcDbEntity
8
0
100
AcDbCircle
62
7
6
CONTINUOUS
10
-128.9948411368
20
10.6718741345
40
4.0000000000
100
AcDbArc
50
0.0000000000
51
110.0000000000
0
ARC
5
3F5
100
AcDbEntity
8
0
100
AcDbCircle
62
7
6
CONTINUOUS
10
-146.0948411368
20
-1.8281258655
40
3.0000000000
100
AcDbArc
50
180.0000000000
51
270.0000000000
0
ARC
5
3F6
100
AcDbEntity
8
0
100
AcDbCircle
62
7
6
CONTINUOUS
10
-130.0948411368
20
-1.8281258655
40
3.0000000000
100
AcDbArc
50
270.0000000000
51
360.0000000000
0
ARC
5
3F7
100
AcDbEntity
8
0
100
AcDbCircle
62
7
6
CONTINUOUS
10
-136.7448411368
20
14.0218741345
40
0.6500000000
100
AcDbArc
50
270.0000000000
51
90.0000000000
0
ARC
5
3F8
100
AcDbEntity
8
0
100
AcDbCircle
62
7
6
CONTINUOUS
10
-147.1948411368
20
10.6718741345
40
4.0000000000
100
AcDbArc
50
90.0000000000
51
180.0000000000
0
ARC
5
3F9
100
AcDbEntity
8
0
100
AcDbCircle
62
7
6
CONTINUOUS
10
-140.3624129013
20
10.4718741345
40
0.3000000000
100
AcDbArc
50
110.0000000000
51
270.0000000000
0
ARC
5
3FA
100
AcDbEntity
8
0
100
AcDbCircle
62
7
6
CONTINUOUS
10
-139.4413606540
20
20.1718741345
40
10.0000000000
100
AcDbArc
50
270.0000000000
51
290.0000000000
0
ARC
5
3FB
100
AcDbEntity
8
0
100
AcDbCircle
62
7
6
CONTINUOUS
10
-129.0948411368
20
11.1675659973
40
2.0000000000
100
AcDbArc
50
0.0000000000
51
110.0000000000
0
ENDSEC
0
SECTION
2
OBJECTS
0
DICTIONARY
5
C
100
AcDbDictionary
280
0
281
1
3
ACAD_GROUP
350
D
3
ACAD_MLINESTYLE
350
17
3
ACAD_LAYOUT
350
1A
3
ACAD_PLOTSETTINGS
350
19
3
ACAD_PLOTSTYLENAME
350
E
0
DICTIONARY
5
D
102
{ACAD_REACTORS
330
C
102
}
100
AcDbDictionary
280
0
281
1
0
ACDBDICTIONARYWDFLT
5
E
102
{ACAD_REACTORS
330
C
102
}
100
AcDbDictionary
281
1
3
Normal
350
F
100
AcDbDictionaryWithDefault
340
F
0
DICTIONARY
5
17
102
{ACAD_REACTORS
330
C
102
}
100
AcDbDictionary
280
0
281
1
3
Standard
350
18
0
DICTIONARY
5
19
102
{ACAD_REACTORS
330
C
102
}
100
AcDbDictionary
281
1
0
DICTIONARY
5
1A
102
{ACAD_REACTORS
330
C
102
}
100
AcDbDictionary
281
1
3
Layout1
350
1E
3
Model
350
22
0
ACDBPLACEHOLDER
5
F
102
{ACAD_REACTORS
330
E
102
}
0
MLINESTYLE
5
18
102
{ACAD_REACTORS
330
17
102
}
100
AcDbMlineStyle
2
STANDARD
70
0
3

62
256
51
90.0
52
90.0
71
2
49
0.5
62
256
6
BYLAYER
49
-0.5
62
256
6
BYLAYER
0
LAYOUT
5
1E
102
{ACAD_REACTORS
330
1A
102
}
100
AcDbPlotSettings
1

2

4

6

40
0.0
41
0.0
42
0.0
43
0.0
44
0.0
45
0.0
46
0.0
47
0.0
48
0.0
49
0.0
140
0.0
141
0.0
142
1.0
143
1.0
70
0
72
0
73
0
74
0
7

75
0
147
1.0
148
0.0
149
0.0
100
AcDbLayout
1
Layout1
70
0
71
0
10
0.0
20
0.0
11
0.0
21
0.0
12
0.0
22
0.0
32
0.0
14
0.0
24
0.0
34
0.0
15
0.0
25
0.0
35
0.0
146
0.0
13
0.0
23
0.0
33
0.0
16
0.0
26
0.0
36
0.0
17
0.0
27
0.0
37
0.0
76
0
330
1B
331
0
345
0
346
0
0
LAYOUT
5
22
102
{ACAD_REACTORS
330
1A
102
}
100
AcDbPlotSettings
1

2

4

6

40
0.0
41
0.0
42
0.0
43
0.0
44
0.0
45
0.0
46
0.0
47
0.0
48
0.0
49
0.0
140
0.0
141
0.0
142
1.0
143
1.0
70
0
72
0
73
0
74
0
7

75
0
147
1.0
148
0.0
149
0.0
100
AcDbLayout
1
Model
70
0
71
0
10
0.0
20
0.0
11
0.0
21
0.0
12
0.0
22
0.0
32
0.0
14
0.0
24
0.0
34
0.0
15
0.0
25
0.0
35
0.0
146
0.0
13
0.0
23
0.0
33
0.0
16
0.0
26
0.0
36
0.0
17
0.0
27
0.0
37
0.0
76
0
330
1F
331
0
345
0
346
0
0
ENDSEC
0
EOF
