0
SECTION
2
HEADER
9
$ACADVER
1
AC1015
9
$DWGCODEPAGE
3
ANSI_1252
9
$EXTMAX
10
297.0000000000
20
210.0000000000
30
0.0000000000
9
$EXTMIN
10
0.0000000000
20
0.0000000000
30
0.0000000000
9
$LIMMIN
10
0.0000000000
20
0.0000000000
9
$LIMMAX
10
297.0000000000
20
210.0000000000
9
$VIEWCTR
10
148.5000000000
20
105.0000000000
9
$VIEWSIZE
40
210.0000000000
9
$CLAYER
8
0
9
$LTSCALE
40
16.3350000000
9
$CELTYPE
6
BYLAYER
9
$DIMSCALE
40
1
9
$DIMASZ
40
3.0000000000
9
$DIMEXO
40
1.8562500000
9
$DIMDLI
40
11.2860000000
9
$DIMEXE
40
5.3460000000
9
$DIMCEN
40
2.6730000000
9
$DIMLFAC
40
1.0000000000
9
$DIMBLK
1
_FILLED
9
$DIMTXT
40
3.0000000000
9
$DIMTOL
70
1
9
$DIMLIM
70
0
9
$DIMTFAC
40
1.0000000000
9
$DIMTP
40
0.0100000000
9
$DIMTM
40
0.0100000000
9
$PDMODE
70
3
9
$PDSIZE
40
3.0000000000
9
$HANDSEED
5
298
9
$MEASUREMENT
70
1
9
$INSUNITS
70
4
0
ENDSEC
0
SECTION
2
CLASSES
0
CLASS
1
ACDBDICTIONARYWDFLT
2
AcDbDictionaryWithDefault
3
AutoCAD 2000
90
0
280
0
281
0
0
CLASS
1
ACDBPLACEHOLDER
2
AcDbPlaceHolder
3
AutoCAD 2000
90
0
280
0
281
0
0
CLASS
1
LAYOUT
2
AcDbLayout
3
AutoCAD 2000
90
0
280
0
281
0
0
ENDSEC
0
SECTION
2
TABLES
0
TABLE
2
VPORT
5
8
100
AcDbSymbolTable
70
2
0
VPORT
5
1F4
100
AcDbSymbolTableRecord
100
AcDbViewportTableRecord
2
*ACTIVE
70
0
10
0.0
20
0.0
11
1.0
21
1.0
12
148.5000000000
22
105.0000000000
13
0.0
23
0.0
14
1.0
24
1.0
15
0.0
25
0.0
16
0.0
26
0.0
36
1.0
17
0.0
27
0.0
37
0.0
40
210.0000000000
41
1.4142857143
42
50.0
43
0.0
44
0.0
50
0.0
51
0.0
71
0
72
100
73
1
74
1
75
0
76
0
77
0
78
0
0
ENDTAB
0
TABLE
2
LTYPE
5
5
100
AcDbSymbolTable
70
6
0
LTYPE
5
14
100
AcDbSymbolTableRecord
100
AcDbLinetypeTableRecord
2
BYBLOCK
70
0
3

72
65
73
0
40
0.0
0
LTYPE
5
15
100
AcDbSymbolTableRecord
100
AcDbLinetypeTableRecord
2
BYLAYER
70
0
3

72
65
73
0
40
0.0
0
LTYPE
5
16
100
AcDbSymbolTableRecord
100
AcDbLinetypeTableRecord
2
CONTINUOUS
70
64
3
Solid line
72
65
73
0
40
0
0
LTYPE
5
1F5
100
AcDbSymbolTableRecord
100
AcDbLinetypeTableRecord
2
CENTER
70
64
3
____ _ ____ _ ____ _ ____ _ ____ _ ____ _ ____
72
65
73
4
40
0.6
49
0.375
74
0
49
-0.075
74
0
49
0.075
74
0
49
-0.075
74
0
0
LTYPE
5
1F6
100
AcDbSymbolTableRecord
100
AcDbLinetypeTableRecord
2
HIDDEN
70
64
3
- - - - - - - - - - - - - - - - - - - -
72
65
73
2
40
0.2
49
0.1
74
0
49
-0.1
74
0
0
LTYPE
5
1F7
100
AcDbSymbolTableRecord
100
AcDbLinetypeTableRecord
2
PHANTOM
70
64
3
_____ _ _ _____ _ _ _____ _ _ _____
72
65
73
6
40
0.8
49
0.45
74
0
49
-0.05
74
0
49
0.1
74
0
49
-0.05
74
0
49
0.1
74
0
49
-0.05
74
0
0
LTYPE
5
1F8
100
AcDbSymbolTableRecord
100
AcDbLinetypeTableRecord
2
DOT
70
64
3
. . . . . . . . . . . . . . . . . . . .
72
65
73
2
40
0.2
49
0.1
74
0
49
-0.1
74
0
0
LTYPE
5
1F9
100
AcDbSymbolTableRecord
100
AcDbLinetypeTableRecord
2
DASHED
70
64
3
- - - - - - - - - - - - - - - - - - - -
72
65
73
2
40
0.2
49
0.1
74
0
49
-0.1
74
0
0
ENDTAB
0
TABLE
2
LAYER
5
2
100
AcDbSymbolTable
70
36
0
LAYER
5
10
100
AcDbSymbolTableRecord
100
AcDbLayerTableRecord
2
0
70
0
62
7
6
CONTINUOUS
370
-3
390
F
0
LAYER
5
1FA
100
AcDbSymbolTableRecord
100
AcDbLayerTableRecord
2
DEFAULT_1
70
0
62
7
6
CENTER
370
-3
390
F
0
LAYER
5
1FB
100
AcDbSymbolTableRecord
100
AcDbLayerTableRecord
2
DEFAULT_2
70
0
62
8
6
HIDDEN
370
-3
390
F
0
LAYER
5
1FC
100
AcDbSymbolTableRecord
100
AcDbLayerTableRecord
2
DEFAULT_3
70
0
62
7
6
PHANTOM
370
-3
390
F
0
LAYER
5
1FD
100
AcDbSymbolTableRecord
100
AcDbLayerTableRecord
2
ASSI
70
0
62
7
6
CONTINUOUS
370
-3
390
F
0
LAYER
5
1FE
100
AcDbSymbolTableRecord
100
AcDbLayerTableRecord
2
COORDINATE
70
0
62
7
6
CONTINUOUS
370
-3
390
F
0
LAYER
5
1FF
100
AcDbSymbolTableRecord
100
AcDbLayerTableRecord
2
COORD_ORIGINE
70
0
62
7
6
CONTINUOUS
370
-3
390
F
0
LAYER
5
200
100
AcDbSymbolTableRecord
100
AcDbLayerTableRecord
2
CURVE
70
0
62
7
6
CONTINUOUS
370
-3
390
F
0
LAYER
5
201
100
AcDbSymbolTableRecord
100
AcDbLayerTableRecord
2
NOTE
70
0
62
7
6
CONTINUOUS
370
-3
390
F
0
LAYER
5
202
100
AcDbSymbolTableRecord
100
AcDbLayerTableRecord
2
PIANI
70
0
62
7
6
CONTINUOUS
370
-3
390
F
0
LAYER
5
203
100
AcDbSymbolTableRecord
100
AcDbLayerTableRecord
2
PIANI_ORIGINE
70
0
62
7
6
CONTINUOUS
370
-3
390
F
0
LAYER
5
204
100
AcDbSymbolTableRecord
100
AcDbLayerTableRecord
2
RACCORDO
70
0
62
7
6
CONTINUOUS
370
-3
390
F
0
LAYER
5
205
100
AcDbSymbolTableRecord
100
AcDbLayerTableRecord
2
SNAPLINE
70
0
62
7
6
CONTINUOUS
370
-3
390
F
0
LAYER
5
206
100
AcDbSymbolTableRecord
100
AcDbLayerTableRecord
2
TRASH
70
0
62
7
6
CONTINUOUS
370
-3
390
F
0
ENDTAB
0
TABLE
2
STYLE
5
3
100
AcDbSymbolTable
70
1
0
STYLE
5
11
100
AcDbSymbolTableRecord
100
AcDbTextStyleTableRecord
2
STANDARD
70
0
40
0.0
41
0.8000000000
50
0.0
71
0
42
0.2
3
txt
4

0
ENDTAB
0
TABLE
2
VIEW
5
6
100
AcDbSymbolTable
70
0
0
ENDTAB
0
TABLE
2
UCS
5
7
100
AcDbSymbolTable
70
0
0
ENDTAB
0
TABLE
2
APPID
5
9
100
AcDbSymbolTable
70
1
0
APPID
5
207
100
AcDbSymbolTableRecord
100
AcDbRegAppTableRecord
2
ACAD
70
0
0
ENDTAB
0
TABLE
2
BLOCK_RECORD
5
1
100
AcDbSymbolTable
70
0
0
BLOCK_RECORD
5
1F
100
AcDbSymbolTableRecord
100
AcDbBlockTableRecord
2
*MODEL_SPACE
0
BLOCK_RECORD
5
1B
100
AcDbSymbolTableRecord
100
AcDbBlockTableRecord
2
*PAPER_SPACE
0
BLOCK_RECORD
5
208
100
AcDbSymbolTableRecord
100
AcDbBlockTableRecord
2
_FILLED
0
BLOCK_RECORD
5
209
100
AcDbSymbolTableRecord
100
AcDbBlockTableRecord
2
*D0
0
BLOCK_RECORD
5
20A
100
AcDbSymbolTableRecord
100
AcDbBlockTableRecord
2
*D1
0
BLOCK_RECORD
5
20B
100
AcDbSymbolTableRecord
100
AcDbBlockTableRecord
2
*D2
0
ENDTAB
0
TABLE
2
DIMSTYLE
5
A
100
AcDbSymbolTable
70
1
100
AcDbDimStyleTable
71
0
0
DIMSTYLE
105
20C
100
AcDbSymbolTableRecord
100
AcDbDimStyleTableRecord
2
STANDARD
70
0
3

4

40
1.0
41
3.0000000000
42
0.0625
43
0.38
44
0.18
45
0.0
46
0.0
47
0.0100000000
48
0.0100000000
140
3.0000000000
141
0.09
142
0.0
143
25.4
144
1.0000000000
145
0.0
146
1.0000000000
147
0.09
71
1
72
0
73
0
74
0
75
0
76
0
77
1
78
8
170
0
171
2
172
0
173
0
174
0
175
0
176
0
177
0
178
0
270
2
271
2
272
2
273
2
274
2
275
0
280
0
281
0
282
0
283
1
284
8
285
0
286
0
287
3
288
0
340
11
341
208
342
208
343
208
344
208
0
DIMSTYLE
105
20D
100
AcDbSymbolTableRecord
100
AcDbDimStyleTableRecord
2
DIMSTYLE_1
70
0
3

4

40
1.0
41
3.0000000000
42
0.0625
43
0.38
44
0.18
45
0.0
46
0.0
47
0.0000000000
48
0.0000000000
140
3.0000000000
141
0.09
142
0.0
143
25.4
144
1.0000000000
145
0.0
146
1.0000000000
147
0.09
71
0
72
0
73
0
74
0
75
0
76
0
77
1
78
8
170
0
171
2
172
0
173
0
174
0
175
0
176
0
177
0
178
0
270
2
271
2
272
2
273
2
274
2
275
0
280
0
281
0
282
0
283
1
284
8
285
0
286
0
287
3
288
0
340
11
341
208
342
208
343
208
344
208
0
ENDTAB
0
ENDSEC
0
SECTION
2
BLOCKS
0
BLOCK
5
20
100
AcDbEntity
8
0
100
AcDbBlockBegin
2
*MODEL_SPACE
70
0
10
0.0
20
0.0
30
0.0
3
*MODEL_SPACE
1

0
ENDBLK
5
21
100
AcDbEntity
8
0
100
AcDbBlockEnd
0
BLOCK
5
1C
100
AcDbEntity
8
0
100
AcDbBlockBegin
2
*PAPER_SPACE
70
0
10
0.0
20
0.0
30
0.0
3
*PAPER_SPACE
1

0
ENDBLK
5
1D
100
AcDbEntity
8
0
100
AcDbBlockEnd
0
BLOCK
5
20E
100
AcDbEntity
8
0
100
AcDbBlockBegin
62
2
6
CONTINUOUS
2
*D0
70
65
10
0.0000000000
20
0.0000000000
3
*D0
1

0
TEXT
5
20F
100
AcDbEntity
8
0
100
AcDbText
62
2
6
CONTINUOUS
10
144.3657744283
20
-1.6891984704
7
STANDARD
40
3.0000000000
1
60
50
90.0000000000
41
0.7857142857
72
0
100
AcDbText
0
LINE
5
210
100
AcDbEntity
8
0
100
AcDbLine
62
2
6
CONTINUOUS
10
115.6157744283
20
-30.7792359666
11
146.6157744283
21
-30.7792359666
0
LINE
5
211
100
AcDbEntity
8
0
100
AcDbLine
62
2
6
CONTINUOUS
10
99.8595217132
20
29.2207640334
11
146.6157744283
21
29.2207640334
0
LINE
5
212
100
AcDbEntity
8
0
100
AcDbLine
62
2
6
CONTINUOUS
10
145.1157744283
20
-30.7792359666
11
145.1157744283
21
-0.7792359666
0
LINE
5
213
100
AcDbEntity
8
0
100
AcDbLine
62
2
6
CONTINUOUS
10
145.1157744283
20
29.2207640334
11
145.1157744283
21
-0.7792359666
0
INSERT
5
214
100
AcDbEntity
8
0
100
AcDbBlockReference
62
2
6
CONTINUOUS
2
_FILLED
10
145.1157744283
20
-30.7792359666
41
  3.000000
42
  3.000000
43
  3.000000
50
270.000000
0
INSERT
5
215
100
AcDbEntity
8
0
100
AcDbBlockReference
62
2
6
CONTINUOUS
2
_FILLED
10
145.1157744283
20
29.2207640334
41
  3.000000
42
  3.000000
43
  3.000000
50
 90.000000
0
ENDBLK
5
216
100
AcDbEntity
8
0
6
BYBLOCK
62
0
100
AcDbBlockEnd
0
BLOCK
5
217
100
AcDbEntity
8
0
100
AcDbBlockBegin
62
2
6
CONTINUOUS
2
*D1
70
65
10
0.0000000000
20
0.0000000000
3
*D1
1

0
TEXT
5
218
100
AcDbEntity
8
0
100
AcDbText
62
2
6
CONTINUOUS
10
-2.4009623465
20
-47.1645492076
7
STANDARD
40
3.0000000000
1
270
41
0.7857142857
72
0
100
AcDbText
0
LINE
5
219
100
AcDbEntity
8
0
100
AcDbLine
62
2
6
CONTINUOUS
10
135.1157744283
20
-31.2792359666
11
135.1157744283
21
-49.4145492076
0
LINE
5
21A
100
AcDbEntity
8
0
100
AcDbLine
62
2
6
CONTINUOUS
10
-134.8842255717
20
-31.2792359666
11
-134.8842255717
21
-49.4145492076
0
LINE
5
21B
100
AcDbEntity
8
0
100
AcDbLine
62
2
6
CONTINUOUS
10
135.1157744283
20
-47.9145492076
11
0.1157744283
21
-47.9145492076
0
LINE
5
21C
100
AcDbEntity
8
0
100
AcDbLine
62
2
6
CONTINUOUS
10
-134.8842255717
20
-47.9145492076
11
0.1157744283
21
-47.9145492076
0
INSERT
5
21D
100
AcDbEntity
8
0
100
AcDbBlockReference
62
2
6
CONTINUOUS
2
_FILLED
10
135.1157744283
20
-47.9145492076
41
  3.000000
42
  3.000000
43
  3.000000
0
INSERT
5
21E
100
AcDbEntity
8
0
100
AcDbBlockReference
62
2
6
CONTINUOUS
2
_FILLED
10
-134.8842255717
20
-47.9145492076
41
  3.000000
42
  3.000000
43
  3.000000
50
180.000000
0
ENDBLK
5
21F
100
AcDbEntity
8
0
6
BYBLOCK
62
0
100
AcDbBlockEnd
0
BLOCK
5
220
100
AcDbEntity
8
0
100
AcDbBlockBegin
62
2
6
CONTINUOUS
2
*D2
70
65
10
0.0000000000
20
0.0000000000
3
*D2
1

0
TEXT
5
221
100
AcDbEntity
8
0
100
AcDbText
62
2
6
CONTINUOUS
10
-206.5062284439
20
39.9707640334
7
STANDARD
40
3.0000000000
1
44
41
0.7857142857
72
0
100
AcDbText
0
LINE
5
222
100
AcDbEntity
8
0
100
AcDbLine
62
2
6
CONTINUOUS
10
-183.3838357588
20
19.2207640334
11
-183.3838357588
21
40.7207640334
0
LINE
5
223
100
AcDbEntity
8
0
100
AcDbLine
62
2
6
CONTINUOUS
10
-227.3838357588
20
-23.2792359666
11
-227.3838357588
21
40.7207640334
0
LINE
5
224
100
AcDbEntity
8
0
100
AcDbLine
62
2
6
CONTINUOUS
10
-183.3838357588
20
39.2207640334
11
-205.3838357588
21
39.2207640334
0
LINE
5
225
100
AcDbEntity
8
0
100
AcDbLine
62
2
6
CONTINUOUS
10
-227.3838357588
20
39.2207640334
11
-205.3838357588
21
39.2207640334
0
INSERT
5
226
100
AcDbEntity
8
0
100
AcDbBlockReference
62
2
6
CONTINUOUS
2
_FILLED
10
-183.3838357588
20
39.2207640334
41
  3.000000
42
  3.000000
43
  3.000000
50
  0.000000
0
INSERT
5
227
100
AcDbEntity
8
0
100
AcDbBlockReference
62
2
6
CONTINUOUS
2
_FILLED
10
-227.3838357588
20
39.2207640334
41
  3.000000
42
  3.000000
43
  3.000000
50
180.000000
0
ENDBLK
5
228
100
AcDbEntity
8
0
6
BYBLOCK
62
0
100
AcDbBlockEnd
0
BLOCK
5
229
100
AcDbEntity
8
0
100
AcDbBlockBegin
2
_FILLED
70
64
10
0.0000000000
20
0.0000000000
3
_FILLED
1

0
SOLID
5
22A
100
AcDbEntity
8
0
6
BYBLOCK
62
0
100
AcDbTrace
10
0.0000000000
20
0.0000000000
11
-1.0000000000
21
0.3166666667
12
-1.0000000000
22
-0.3166666667
13
-1.0000000000
23
-0.3166666667
0
ENDBLK
5
22B
100
AcDbEntity
8
0
6
BYBLOCK
62
0
100
AcDbBlockEnd
0
ENDSEC
0
SECTION
2
ENTITIES
0
DIMENSION
5
22C
100
AcDbEntity
8
0
100
AcDbDimension
62
2
6
CONTINUOUS
2
*D0
10
145.1157744283
20
29.2207640334
11
142.8657744283
21
0.6679443867
70
160
3
DIMSTYLE_1
100
AcDbAlignedDimension
13
115.6157744283
23
-30.7792359666
14
99.8595217132
24
29.2207640334
50
90.000000
100
AcDbRotatedDimension
0
DIMENSION
5
22D
100
AcDbEntity
8
0
100
AcDbDimension
62
2
6
CONTINUOUS
2
*D1
10
-134.8842255717
20
-47.9145492076
11
1.1347519392
21
-45.6645492076
70
160
3
DIMSTYLE_1
100
AcDbAlignedDimension
13
135.1157744283
23
-31.2792359666
14
-134.8842255717
24
-31.2792359666
50
180.000000
100
AcDbRotatedDimension
0
DIMENSION
5
22E
100
AcDbEntity
8
0
100
AcDbDimension
62
2
6
CONTINUOUS
2
*D2
10
-227.3838357588
20
39.2207640334
11
-204.1490855868
21
41.4707640334
70
160
3
DIMSTYLE_1
100
AcDbAlignedDimension
13
-183.3838357588
23
19.2207640334
14
-227.3838357588
24
-23.2792359666
50
180.000000
100
AcDbRotatedDimension
0
LINE
5
22F
100
AcDbEntity
8
0
100
AcDbLine
62
7
6
CONTINUOUS
10
-134.8842255717
20
-30.7792359666
11
-134.8842255717
21
-29.2792359666
0
LINE
5
230
100
AcDbEntity
8
0
100
AcDbLine
62
9
6
CONTINUOUS
10
-130.8842255717
20
-30.7792359666
11
-130.8842255717
21
-29.2792359666
0
LINE
5
231
100
AcDbEntity
8
0
100
AcDbLine
62
9
6
CONTINUOUS
10
-117.3842255717
20
-30.7792359666
11
-117.3842255717
21
-29.2792359666
0
LINE
5
232
100
AcDbEntity
8
0
100
AcDbLine
62
7
6
CONTINUOUS
10
-116.8842255717
20
-30.7792359666
11
-116.8842255717
21
-29.2792359666
0
LINE
5
233
100
AcDbEntity
8
0
100
AcDbLine
62
9
6
CONTINUOUS
10
-116.3842255717
20
-29.2792359666
11
-116.3842255717
21
-30.7792359666
0
LINE
5
234
100
AcDbEntity
8
0
100
AcDbLine
62
9
6
CONTINUOUS
10
-115.3842255717
20
-29.2792359666
11
-115.3842255717
21
-30.7792359666
0
LINE
5
235
100
AcDbEntity
8
0
100
AcDbLine
62
7
6
CONTINUOUS
10
-114.8842255717
20
18.7207640334
11
-114.8842255717
21
-30.7157276397
0
LINE
5
236
100
AcDbEntity
8
0
100
AcDbLine
62
7
6
CONTINUOUS
10
135.1157744283
20
-30.7792359666
11
-134.8842255717
21
-30.7792359666
0
LINE
5
237
100
AcDbEntity
8
0
100
AcDbLine
62
7
6
CONTINUOUS
10
-134.8842255717
20
-29.2792359666
11
-114.8842255717
21
-29.2792359666
0
LINE
5
238
100
AcDbEntity
8
0
100
AcDbLine
62
7
6
CONTINUOUS
10
115.4438237548
20
-29.2792359666
11
135.1157744283
21
-29.2792359666
0
LINE
5
239
100
AcDbEntity
8
0
100
AcDbLine
62
9
6
CONTINUOUS
10
115.1157744283
20
-28.7792359666
11
-114.8842255717
21
-28.7792359666
0
LINE
5
23A
100
AcDbEntity
8
0
100
AcDbLine
62
7
6
CONTINUOUS
10
112.1157744283
20
-20.7792359666
11
-111.8842255717
21
-20.7792359666
0
LINE
5
23B
100
AcDbEntity
8
0
100
AcDbLine
62
7
6
CONTINUOUS
10
-111.8842255717
20
21.7207640334
11
-99.4342255717
21
21.7207640334
0
LINE
5
23C
100
AcDbEntity
8
0
100
AcDbLine
62
7
6
CONTINUOUS
10
112.1157744283
20
21.7207640334
11
99.6657744283
21
21.7207640334
0
LINE
5
23D
100
AcDbEntity
8
0
100
AcDbLine
62
7
6
CONTINUOUS
10
86.0657744283
20
21.7207640334
11
73.1657744283
21
21.7207640334
0
LINE
5
23E
100
AcDbEntity
8
0
100
AcDbLine
62
7
6
CONTINUOUS
10
59.5657744283
20
21.7207640334
11
46.6657744283
21
21.7207640334
0
LINE
5
23F
100
AcDbEntity
8
0
100
AcDbLine
62
7
6
CONTINUOUS
10
33.0657744283
20
21.7207640334
11
20.1657744283
21
21.7207640334
0
LINE
5
240
100
AcDbEntity
8
0
100
AcDbLine
62
7
6
CONTINUOUS
10
6.5657744283
20
21.7207640334
11
-6.3342255717
21
21.7207640334
0
LINE
5
241
100
AcDbEntity
8
0
100
AcDbLine
62
7
6
CONTINUOUS
10
-19.9342255717
20
21.7207640334
11
-32.8342255717
21
21.7207640334
0
LINE
5
242
100
AcDbEntity
8
0
100
AcDbLine
62
7
6
CONTINUOUS
10
-46.4342255717
20
21.7207640334
11
-59.3342255717
21
21.7207640334
0
LINE
5
243
100
AcDbEntity
8
0
100
AcDbLine
62
7
6
CONTINUOUS
10
-72.9342255717
20
21.7207640334
11
-85.8342255717
21
21.7207640334
0
LINE
5
244
100
AcDbEntity
8
0
100
AcDbLine
62
7
6
CONTINUOUS
10
99.3595217132
20
29.2207640334
11
86.3720271433
21
29.2207640334
0
LINE
5
245
100
AcDbEntity
8
0
100
AcDbLine
62
7
6
CONTINUOUS
10
72.8595217132
20
29.2207640334
11
59.8720271433
21
29.2207640334
0
LINE
5
246
100
AcDbEntity
8
0
100
AcDbLine
62
7
6
CONTINUOUS
10
46.3595217132
20
29.2207640334
11
33.3720271433
21
29.2207640334
0
LINE
5
247
100
AcDbEntity
8
0
100
AcDbLine
62
7
6
CONTINUOUS
10
19.8595217132
20
29.2207640334
11
6.8720271433
21
29.2207640334
0
LINE
5
248
100
AcDbEntity
8
0
100
AcDbLine
62
7
6
CONTINUOUS
10
-6.6404782868
20
29.2207640334
11
-19.6279728567
21
29.2207640334
0
LINE
5
249
100
AcDbEntity
8
0
100
AcDbLine
62
7
6
CONTINUOUS
10
-33.1404782868
20
29.2207640334
11
-46.1279728567
21
29.2207640334
0
LINE
5
24A
100
AcDbEntity
8
0
100
AcDbLine
62
7
6
CONTINUOUS
10
-59.6404782868
20
29.2207640334
11
-72.6279728567
21
29.2207640334
0
LINE
5
24B
100
AcDbEntity
8
0
100
AcDbLine
62
7
6
CONTINUOUS
10
-86.1404782868
20
29.2207640334
11
-99.1279728567
21
29.2207640334
0
LINE
5
24C
100
AcDbEntity
8
0
100
AcDbLine
62
7
6
CONTINUOUS
10
115.1157744283
20
18.7207640334
11
115.1157744283
21
-30.7157276397
0
LINE
5
24D
100
AcDbEntity
8
0
100
AcDbLine
62
9
6
CONTINUOUS
10
115.6157744283
20
-29.2792359666
11
115.6157744283
21
-30.7792359666
0
LINE
5
24E
100
AcDbEntity
8
0
100
AcDbLine
62
9
6
CONTINUOUS
10
116.6157744283
20
-29.2792359666
11
116.6157744283
21
-30.7792359666
0
LINE
5
24F
100
AcDbEntity
8
0
100
AcDbLine
62
7
6
CONTINUOUS
10
117.1157744283
20
-30.7792359666
11
117.1157744283
21
-29.2792359666
0
LINE
5
250
100
AcDbEntity
8
0
100
AcDbLine
62
9
6
CONTINUOUS
10
117.6157744283
20
-30.7792359666
11
117.6157744283
21
-29.2792359666
0
LINE
5
251
100
AcDbEntity
8
0
100
AcDbLine
62
9
6
CONTINUOUS
10
131.1157744283
20
-30.7792359666
11
131.1157744283
21
-29.2792359666
0
LINE
5
252
100
AcDbEntity
8
0
100
AcDbLine
62
7
6
CONTINUOUS
10
135.1157744283
20
-30.7792359666
11
135.1157744283
21
-29.2792359666
0
LINE
5
253
100
AcDbEntity
8
0
100
AcDbLine
62
7
6
CONTINUOUS
10
-183.3838357588
20
-30.7792359666
11
-227.3838357588
21
-30.7792359666
0
LINE
5
254
100
AcDbEntity
8
0
100
AcDbLine
62
7
6
CONTINUOUS
10
-227.3838357588
20
-29.2792359666
11
-183.3838357588
21
-29.2792359666
0
LINE
5
255
100
AcDbEntity
8
0
100
AcDbLine
62
9
6
CONTINUOUS
10
-184.8838357588
20
-28.7792359666
11
-183.3838357588
21
-28.7792359666
0
LINE
5
256
100
AcDbEntity
8
0
100
AcDbLine
62
9
6
CONTINUOUS
10
-225.8838357588
20
-28.7792359666
11
-227.3838357588
21
-28.7792359666
0
LINE
5
257
100
AcDbEntity
8
0
100
AcDbLine
62
7
6
CONTINUOUS
10
-227.3838357588
20
-30.7792359666
11
-227.3838357588
21
-29.2792359666
0
LINE
5
258
100
AcDbEntity
8
0
100
AcDbLine
62
7
6
CONTINUOUS
10
-227.3838357588
20
-20.7792359666
11
-227.3838357588
21
-28.7792359666
0
LINE
5
259
100
AcDbEntity
8
0
100
AcDbLine
62
9
6
CONTINUOUS
10
-227.3838357588
20
-23.7792359666
11
-225.8838357588
21
-23.7792359666
0
LINE
5
25A
100
AcDbEntity
8
0
100
AcDbLine
62
7
6
CONTINUOUS
10
-225.8838357588
20
-20.7792359666
11
-225.8838357588
21
-28.7792359666
0
LINE
5
25B
100
AcDbEntity
8
0
100
AcDbLine
62
9
6
CONTINUOUS
10
-225.8838357588
20
-28.7792359666
11
-225.8838357588
21
-29.2792359666
0
LINE
5
25C
100
AcDbEntity
8
0
100
AcDbLine
62
7
6
CONTINUOUS
10
-227.3838357588
20
-20.7792359666
11
-225.8838357588
21
-20.7792359666
0
LINE
5
25D
100
AcDbEntity
8
0
100
AcDbLine
62
9
6
CONTINUOUS
10
-223.3838357588
20
-30.7792359666
11
-223.3838357588
21
-29.2792359666
0
LINE
5
25E
100
AcDbEntity
8
0
100
AcDbLine
62
9
6
CONTINUOUS
10
-187.3838357588
20
-30.7792359666
11
-187.3838357588
21
-29.2792359666
0
LINE
5
25F
100
AcDbEntity
8
0
100
AcDbLine
62
9
6
CONTINUOUS
10
-183.3838357588
20
18.7207640334
11
-184.8838357588
21
18.7207640334
0
LINE
5
260
100
AcDbEntity
8
0
100
AcDbLine
62
7
6
CONTINUOUS
10
-184.8838357588
20
-28.7792359666
11
-184.8838357588
21
29.2207640334
0
LINE
5
261
100
AcDbEntity
8
0
100
AcDbLine
62
7
6
CONTINUOUS
10
-183.3838357588
20
-30.7792359666
11
-183.3838357588
21
-29.2792359666
0
LINE
5
262
100
AcDbEntity
8
0
100
AcDbLine
62
7
6
CONTINUOUS
10
-183.3838357588
20
-28.7792359666
11
-183.3838357588
21
29.2207640334
0
LINE
5
263
100
AcDbEntity
8
0
100
AcDbLine
62
7
6
CONTINUOUS
10
-183.3838357588
20
21.7207640334
11
-184.8838357588
21
21.7207640334
0
LINE
5
264
100
AcDbEntity
8
0
100
AcDbLine
62
9
6
CONTINUOUS
10
-184.8838357588
20
26.7124409579
11
-183.3838357588
21
26.7124409579
0
LINE
5
265
100
AcDbEntity
8
0
100
AcDbLine
62
7
6
CONTINUOUS
10
-184.8838357588
20
29.2207640334
11
-183.3838357588
21
29.2207640334
0
ARC
5
266
100
AcDbEntity
8
0
100
AcDbCircle
62
7
6
CONTINUOUS
10
112.1157744283
20
-23.7792359666
40
3.0000000000
100
AcDbArc
50
0.0000000000
51
90.0000000000
0
ARC
5
267
100
AcDbEntity
8
0
100
AcDbCircle
62
7
6
CONTINUOUS
10
-111.8842255717
20
-23.7792359666
40
3.0000000000
100
AcDbArc
50
90.0000000000
51
180.0000000000
0
ARC
5
268
100
AcDbEntity
8
0
100
AcDbCircle
62
7
6
CONTINUOUS
10
-111.8842255717
20
18.7207640334
40
3.0000000000
100
AcDbArc
50
90.0000000000
51
180.0000000000
0
ARC
5
269
100
AcDbEntity
8
0
100
AcDbCircle
62
7
6
CONTINUOUS
10
-99.4342255717
20
24.2207640334
40
2.5000000000
100
AcDbArc
50
270.0000000000
51
85.3234012748
0
ARC
5
26A
100
AcDbEntity
8
0
100
AcDbCircle
62
7
6
CONTINUOUS
10
-99.1279728567
20
27.9645113184
40
1.2562527150
100
AcDbArc
50
90.0000000000
51
265.3234012748
0
ARC
5
26B
100
AcDbEntity
8
0
100
AcDbCircle
62
7
6
CONTINUOUS
10
-86.1404782868
20
27.9645113184
40
1.2562527150
100
AcDbArc
50
274.6765987252
51
90.0000000000
0
ARC
5
26C
100
AcDbEntity
8
0
100
AcDbCircle
62
7
6
CONTINUOUS
10
-85.8342255717
20
24.2207640334
40
2.5000000000
100
AcDbArc
50
94.6765987252
51
270.0000000000
0
ARC
5
26D
100
AcDbEntity
8
0
100
AcDbCircle
62
7
6
CONTINUOUS
10
-72.9342255717
20
24.2207640334
40
2.5000000000
100
AcDbArc
50
270.0000000000
51
85.3234012748
0
ARC
5
26E
100
AcDbEntity
8
0
100
AcDbCircle
62
7
6
CONTINUOUS
10
-72.6279728567
20
27.9645113184
40
1.2562527150
100
AcDbArc
50
90.0000000000
51
265.3234012748
0
ARC
5
26F
100
AcDbEntity
8
0
100
AcDbCircle
62
7
6
CONTINUOUS
10
-59.6404782868
20
27.9645113184
40
1.2562527150
100
AcDbArc
50
274.6765987252
51
90.0000000000
0
ARC
5
270
100
AcDbEntity
8
0
100
AcDbCircle
62
7
6
CONTINUOUS
10
-59.3342255717
20
24.2207640334
40
2.5000000000
100
AcDbArc
50
94.6765987252
51
270.0000000000
0
ARC
5
271
100
AcDbEntity
8
0
100
AcDbCircle
62
7
6
CONTINUOUS
10
-46.4342255717
20
24.2207640334
40
2.5000000000
100
AcDbArc
50
270.0000000000
51
85.3234012748
0
ARC
5
272
100
AcDbEntity
8
0
100
AcDbCircle
62
7
6
CONTINUOUS
10
-46.1279728567
20
27.9645113184
40
1.2562527150
100
AcDbArc
50
90.0000000000
51
265.3234012748
0
ARC
5
273
100
AcDbEntity
8
0
100
AcDbCircle
62
7
6
CONTINUOUS
10
-33.1404782868
20
27.9645113184
40
1.2562527150
100
AcDbArc
50
274.6765987252
51
90.0000000000
0
ARC
5
274
100
AcDbEntity
8
0
100
AcDbCircle
62
7
6
CONTINUOUS
10
-32.8342255717
20
24.2207640334
40
2.5000000000
100
AcDbArc
50
94.6765987252
51
270.0000000000
0
ARC
5
275
100
AcDbEntity
8
0
100
AcDbCircle
62
7
6
CONTINUOUS
10
-19.9342255717
20
24.2207640334
40
2.5000000000
100
AcDbArc
50
270.0000000000
51
85.3234012748
0
ARC
5
276
100
AcDbEntity
8
0
100
AcDbCircle
62
7
6
CONTINUOUS
10
-19.6279728567
20
27.9645113184
40
1.2562527150
100
AcDbArc
50
90.0000000000
51
265.3234012748
0
ARC
5
277
100
AcDbEntity
8
0
100
AcDbCircle
62
7
6
CONTINUOUS
10
-6.6404782868
20
27.9645113184
40
1.2562527150
100
AcDbArc
50
274.6765987252
51
90.0000000000
0
ARC
5
278
100
AcDbEntity
8
0
100
AcDbCircle
62
7
6
CONTINUOUS
10
-6.3342255717
20
24.2207640334
40
2.5000000000
100
AcDbArc
50
94.6765987252
51
270.0000000000
0
ARC
5
279
100
AcDbEntity
8
0
100
AcDbCircle
62
7
6
CONTINUOUS
10
6.5657744283
20
24.2207640334
40
2.5000000000
100
AcDbArc
50
270.0000000000
51
85.3234012748
0
ARC
5
27A
100
AcDbEntity
8
0
100
AcDbCircle
62
7
6
CONTINUOUS
10
6.8720271433
20
27.9645113184
40
1.2562527150
100
AcDbArc
50
90.0000000000
51
265.3234012748
0
ARC
5
27B
100
AcDbEntity
8
0
100
AcDbCircle
62
7
6
CONTINUOUS
10
19.8595217132
20
27.9645113184
40
1.2562527150
100
AcDbArc
50
274.6765987252
51
90.0000000000
0
ARC
5
27C
100
AcDbEntity
8
0
100
AcDbCircle
62
7
6
CONTINUOUS
10
20.1657744283
20
24.2207640334
40
2.5000000000
100
AcDbArc
50
94.6765987252
51
270.0000000000
0
ARC
5
27D
100
AcDbEntity
8
0
100
AcDbCircle
62
7
6
CONTINUOUS
10
33.0657744283
20
24.2207640334
40
2.5000000000
100
AcDbArc
50
270.0000000000
51
85.3234012748
0
ARC
5
27E
100
AcDbEntity
8
0
100
AcDbCircle
62
7
6
CONTINUOUS
10
33.3720271433
20
27.9645113184
40
1.2562527150
100
AcDbArc
50
90.0000000000
51
265.3234012748
0
ARC
5
27F
100
AcDbEntity
8
0
100
AcDbCircle
62
7
6
CONTINUOUS
10
46.3595217132
20
27.9645113184
40
1.2562527150
100
AcDbArc
50
274.6765987252
51
90.0000000000
0
ARC
5
280
100
AcDbEntity
8
0
100
AcDbCircle
62
7
6
CONTINUOUS
10
46.6657744283
20
24.2207640334
40
2.5000000000
100
AcDbArc
50
94.6765987252
51
270.0000000000
0
ARC
5
281
100
AcDbEntity
8
0
100
AcDbCircle
62
7
6
CONTINUOUS
10
59.5657744283
20
24.2207640334
40
2.5000000000
100
AcDbArc
50
270.0000000000
51
85.3234012748
0
ARC
5
282
100
AcDbEntity
8
0
100
AcDbCircle
62
7
6
CONTINUOUS
10
59.8720271433
20
27.9645113184
40
1.2562527150
100
AcDbArc
50
90.0000000000
51
265.3234012748
0
ARC
5
283
100
AcDbEntity
8
0
100
AcDbCircle
62
7
6
CONTINUOUS
10
72.8595217132
20
27.9645113184
40
1.2562527150
100
AcDbArc
50
274.6765987252
51
90.0000000000
0
ARC
5
284
100
AcDbEntity
8
0
100
AcDbCircle
62
7
6
CONTINUOUS
10
73.1657744283
20
24.2207640334
40
2.5000000000
100
AcDbArc
50
94.6765987252
51
270.0000000000
0
ARC
5
285
100
AcDbEntity
8
0
100
AcDbCircle
62
7
6
CONTINUOUS
10
86.0657744283
20
24.2207640334
40
2.5000000000
100
AcDbArc
50
270.0000000000
51
85.3234012748
0
ARC
5
286
100
AcDbEntity
8
0
100
AcDbCircle
62
7
6
CONTINUOUS
10
86.3720271433
20
27.9645113184
40
1.2562527150
100
AcDbArc
50
90.0000000000
51
265.3234012748
0
ARC
5
287
100
AcDbEntity
8
0
100
AcDbCircle
62
7
6
CONTINUOUS
10
99.3595217132
20
27.9645113184
40
1.2562527150
100
AcDbArc
50
274.6765987252
51
90.0000000000
0
ARC
5
288
100
AcDbEntity
8
0
100
AcDbCircle
62
7
6
CONTINUOUS
10
99.6657744283
20
24.2207640334
40
2.5000000000
100
AcDbArc
50
94.6765987252
51
270.0000000000
0
ARC
5
289
100
AcDbEntity
8
0
100
AcDbCircle
62
7
6
CONTINUOUS
10
112.1157744283
20
18.7207640334
40
3.0000000000
100
AcDbArc
50
0.0000000000
51
90.0000000000
0
ARC
5
28A
100
AcDbEntity
8
0
100
AcDbCircle
62
7
6
CONTINUOUS
10
-225.3838357588
20
-28.7792359666
40
2.0000000000
100
AcDbArc
50
180.0000000000
51
194.4857470998
0
ARC
5
28B
100
AcDbEntity
8
0
100
AcDbCircle
62
7
6
CONTINUOUS
10
-185.3838357588
20
-28.7792359666
40
2.0000000000
100
AcDbArc
50
345.5142529002
51
360.0000000000
0
ARC
5
28C
100
AcDbEntity
8
0
100
AcDbCircle
62
7
6
CONTINUOUS
10
-185.3838357588
20
-28.7792359666
40
0.5000000000
100
AcDbArc
50
280.4837345884
51
360.0000000000
0
ARC
5
28D
100
AcDbEntity
8
0
100
AcDbCircle
62
7
6
CONTINUOUS
10
-225.3838357588
20
-28.7792359666
40
0.5000000000
100
AcDbArc
50
180.0000260309
51
266.4874487497
0
SPLINE
5
28E
100
AcDbEntity
8
0
100
AcDbSpline
62
7
6
CONTINUOUS
70
0
71
3
72
10
73
6
74
4
42
0.0000001000
43
0.0000001000
44
0.0000000001
12
0.0000000000
22
-0.2658559653
32
0.0000000000
13
-0.2673558647
23
-0.0089553034
33
0.0000000000
40
0.0000000000
40
0.0000000000
40
0.0000000000
40
0.0000000000
40
0.2026796147
40
0.6065740308
40
1.0000000000
40
1.0000000000
40
1.0000000000
40
1.0000000000
10
-114.8842255717
20
-30.7157276397
30
0.0000000000
10
-114.8842255717
20
-30.7336888345
30
0.0000000000
10
-114.9404072335
20
-30.7715634583
30
0.0000000000
10
-115.0253080990
20
-30.7731556702
30
0.0000000000
10
-115.0960629809
20
-30.7760522210
30
0.0000000000
10
-115.1311245610
20
-30.7772266373
30
0.0000000000
11
-114.8842255717
21
-30.7157276397
31
0.0000000000
11
-114.9212476118
21
-30.7548787474
31
0.0000000000
11
-115.0269825332
21
-30.7735898515
31
0.0000000000
11
-115.1311245610
21
-30.7772266373
31
0.0000000000
0
SPLINE
5
28F
100
AcDbEntity
8
0
100
AcDbSpline
62
7
6
CONTINUOUS
70
0
71
3
72
9
73
5
74
3
42
0.0000001000
43
0.0000001000
44
0.0000000001
12
-0.0951146484
22
-0.0031859429
32
0.0000000000
13
-0.0947544926
23
-0.0008437328
33
0.0000000000
40
0.0000000000
40
0.0000000000
40
0.0000000000
40
0.0000000000
40
0.6243813452
40
1.0000000000
40
1.0000000000
40
1.0000000000
40
1.0000000000
10
-115.1311245610
20
-30.7772266373
30
0.0000000000
10
-115.1509204984
20
-30.7778897184
30
0.0000000000
10
-115.1827012636
20
-30.7788215886
30
0.0000000000
10
-115.2143280226
20
-30.7792445287
30
0.0000000000
10
-115.2261918743
20
-30.7793501693
30
0.0000000000
11
-115.1311245610
21
-30.7772266373
31
0.0000000000
11
-115.1905470926
21
-30.7788549957
31
0.0000000000
11
-115.2261918743
21
-30.7793501693
31
0.0000000000
0
SPLINE
5
290
100
AcDbEntity
8
0
100
AcDbSpline
62
7
6
CONTINUOUS
70
0
71
3
72
8
73
4
74
2
42
0.0000001000
43
0.0000001000
44
0.0000000001
12
-0.0921660450
22
-0.0008206842
32
0.0000000000
13
-0.0918439004
23
0.0003527739
33
0.0000000000
40
0.0000000000
40
0.0000000000
40
0.0000000000
40
0.0000000000
40
1.0000000000
40
1.0000000000
40
1.0000000000
40
1.0000000000
10
-115.2261918743
20
-30.7793501693
30
0.0000000000
10
-115.2569138893
20
-30.7796237307
30
0.0000000000
10
-115.2875302954
20
-30.7795403873
30
0.0000000000
10
-115.3181449289
20
-30.7794227960
30
0.0000000000
11
-115.2261918743
21
-30.7793501693
31
0.0000000000
11
-115.3181449289
21
-30.7794227960
31
0.0000000000
0
SPLINE
5
291
100
AcDbEntity
8
0
100
AcDbSpline
62
7
6
CONTINUOUS
70
0
71
3
72
8
73
4
74
2
42
0.0000001000
43
0.0000001000
44
0.0000000001
12
-0.0660447815
22
0.0002536791
32
0.0000000000
13
-0.0661551154
23
0.0000000000
33
0.0000000000
40
0.0000000000
40
0.0000000000
40
0.0000000000
40
0.0000000000
40
1.0000000000
40
1.0000000000
40
1.0000000000
40
1.0000000000
10
-115.3181449289
20
-30.7794227960
30
0.0000000000
10
-115.3401598561
20
-30.7793382363
30
0.0000000000
10
-115.3621738666
20
-30.7792359669
30
0.0000000000
10
-115.3842255717
20
-30.7792359669
30
0.0000000000
11
-115.3181449289
21
-30.7794227960
31
0.0000000000
11
-115.3842255717
21
-30.7792359669
31
0.0000000000
0
SPLINE
5
292
100
AcDbEntity
8
0
100
AcDbSpline
62
7
6
CONTINUOUS
70
0
71
3
72
8
73
4
74
2
42
0.0000001000
43
0.0000001000
44
0.0000000001
12
-0.1583781247
22
0.0000000000
32
0.0000000000
13
-0.1586679489
23
0.0014165948
33
0.0000000000
40
0.0000000000
40
0.0000000000
40
0.0000000000
40
0.0000000000
40
1.0000000000
40
1.0000000000
40
1.0000000000
40
1.0000000000
10
115.6157744283
20
-30.7792359669
30
0.0000000000
10
115.5629817200
20
-30.7792359669
30
0.0000000000
10
115.5104039277
20
-30.7798211428
30
0.0000000000
10
115.4575146115
20
-30.7793489445
30
0.0000000000
11
115.6157744283
21
-30.7792359669
31
0.0000000000
11
115.4575146115
21
-30.7793489445
31
0.0000000000
0
SPLINE
5
293
100
AcDbEntity
8
0
100
AcDbSpline
62
7
6
CONTINUOUS
70
0
71
3
72
11
73
7
74
5
42
0.0000001000
43
0.0000001000
44
0.0000000001
12
-0.3444449535
22
0.0030752205
32
0.0000000000
13
-0.1846351238
23
0.2841425347
33
0.0000000000
40
0.0000000000
40
0.0000000000
40
0.0000000000
40
0.0000000000
40
0.1033018200
40
0.5800317352
40
0.8912302633
40
1.0000000000
40
1.0000000000
40
1.0000000000
40
1.0000000000
10
115.4575146115
20
-30.7793489445
30
0.0000000000
10
115.4456540146
20
-30.7792430526
30
0.0000000000
10
115.3789697144
20
-30.7783499050
30
0.0000000000
10
115.2754614465
20
-30.7735043041
30
0.0000000000
10
115.1769817902
20
-30.7715793571
30
0.0000000000
10
115.1271461727
20
-30.7409942263
30
0.0000000000
10
115.1204519348
20
-30.7306921900
30
0.0000000000
11
115.4575146115
21
-30.7793489445
31
0.0000000000
11
115.4218798848
21
-30.7788532203
31
0.0000000000
11
115.2580583200
21
-30.7735533656
31
0.0000000000
11
115.1527114948
21
-30.7548458968
31
0.0000000000
11
115.1204519348
21
-30.7306921900
31
0.0000000000
0
SPLINE
5
294
100
AcDbEntity
8
0
100
AcDbSpline
62
7
6
CONTINUOUS
70
0
71
3
72
8
73
4
74
2
42
0.0000001000
43
0.0000001000
44
0.0000000001
12
-0.0088095555
22
0.0135573849
32
0.0000000000
13
0.0000000000
23
0.0164045942
33
0.0000000000
40
0.0000000000
40
0.0000000000
40
0.0000000000
40
0.0000000000
40
1.0000000000
40
1.0000000000
40
1.0000000000
40
1.0000000000
10
115.1204519348
20
-30.7306921900
30
0.0000000000
10
115.1175154163
20
-30.7261730617
30
0.0000000000
10
115.1157744283
20
-30.7211958377
30
0.0000000000
10
115.1157744283
20
-30.7157276397
30
0.0000000000
11
115.1204519348
21
-30.7306921900
31
0.0000000000
11
115.1157744283
21
-30.7157276397
31
0.0000000000
0
SPLINE
5
295
100
AcDbEntity
8
0
100
AcDbSpline
62
7
6
CONTINUOUS
70
0
71
3
72
8
73
4
74
2
42
0.0000001000
43
0.0000001000
44
0.0000000001
12
0.0422830917
22
-0.0010093342
32
0.0000000000
13
0.0417916901
23
-0.0007620500
33
0.0000000000
40
0.0000000000
40
0.0000000000
40
0.0000000000
40
0.0000000000
40
1.0000000000
40
1.0000000000
40
1.0000000000
40
1.0000000000
10
115.4018264994
20
-29.2769183339
30
0.0000000000
10
115.4159208633
20
-29.2772547786
30
0.0000000000
10
115.4299193396
20
-29.2775479492
30
0.0000000000
10
115.4438499030
20
-29.2778019659
30
0.0000000000
11
115.4018264994
21
-29.2769183339
31
0.0000000000
11
115.4438499030
21
-29.2778019659
31
0.0000000000
0
SPLINE
5
296
100
AcDbEntity
8
0
100
AcDbSpline
62
7
6
CONTINUOUS
70
0
71
3
72
8
73
4
74
2
42
0.0000001000
43
0.0000001000
44
0.0000000001
12
0.0979272430
22
-0.0017856529
32
0.0000000000
13
0.0967696622
23
-0.0006547879
33
0.0000000000
40
0.0000000000
40
0.0000000000
40
0.0000000000
40
0.0000000000
40
1.0000000000
40
1.0000000000
40
1.0000000000
40
1.0000000000
10
115.4438499030
20
-29.2778019659
30
0.0000000000
10
115.4764923174
20
-29.2783971835
30
0.0000000000
10
115.5087618424
20
-29.2787774189
30
0.0000000000
10
115.5410183964
20
-29.2789956815
30
0.0000000000
11
115.4438499030
21
-29.2778019659
31
0.0000000000
11
115.5410183964
21
-29.2789956815
31
0.0000000000
0
SPLINE
5
297
100
AcDbEntity
8
0
100
AcDbSpline
62
7
6
CONTINUOUS
70
0
71
3
72
8
73
4
74
2
42
0.0000001000
43
0.0000001000
44
0.0000000001
12
0.0746141789
22
-0.0005048738
32
0.0000000000
13
0.0750628721
23
0.0000000000
33
0.0000000000
40
0.0000000000
40
0.0000000000
40
0.0000000000
40
0.0000000000
40
1.0000000000
40
1.0000000000
40
1.0000000000
40
1.0000000000
10
115.5410183964
20
-29.2789956815
30
0.0000000000
10
115.5658897894
20
-29.2791639728
30
0.0000000000
10
115.5907534709
20
-29.2792359685
30
0.0000000000
10
115.6157744283
20
-29.2792359685
30
0.0000000000
11
115.5410183964
21
-29.2789956815
31
0.0000000000
11
115.6157744283
21
-29.2792359685
31
0.0000000000
0
ENDSEC
0
SECTION
2
OBJECTS
0
DICTIONARY
5
C
100
AcDbDictionary
280
0
281
1
3
ACAD_GROUP
350
D
3
ACAD_MLINESTYLE
350
17
3
ACAD_LAYOUT
350
1A
3
ACAD_PLOTSETTINGS
350
19
3
ACAD_PLOTSTYLENAME
350
E
0
DICTIONARY
5
D
102
{ACAD_REACTORS
330
C
102
}
100
AcDbDictionary
280
0
281
1
0
ACDBDICTIONARYWDFLT
5
E
102
{ACAD_REACTORS
330
C
102
}
100
AcDbDictionary
281
1
3
Normal
350
F
100
AcDbDictionaryWithDefault
340
F
0
DICTIONARY
5
17
102
{ACAD_REACTORS
330
C
102
}
100
AcDbDictionary
280
0
281
1
3
Standard
350
18
0
DICTIONARY
5
19
102
{ACAD_REACTORS
330
C
102
}
100
AcDbDictionary
281
1
0
DICTIONARY
5
1A
102
{ACAD_REACTORS
330
C
102
}
100
AcDbDictionary
281
1
3
Layout1
350
1E
3
Model
350
22
0
ACDBPLACEHOLDER
5
F
102
{ACAD_REACTORS
330
E
102
}
0
MLINESTYLE
5
18
102
{ACAD_REACTORS
330
17
102
}
100
AcDbMlineStyle
2
STANDARD
70
0
3

62
256
51
90.0
52
90.0
71
2
49
0.5
62
256
6
BYLAYER
49
-0.5
62
256
6
BYLAYER
0
LAYOUT
5
1E
102
{ACAD_REACTORS
330
1A
102
}
100
AcDbPlotSettings
1

2

4

6

40
0.0
41
0.0
42
0.0
43
0.0
44
0.0
45
0.0
46
0.0
47
0.0
48
0.0
49
0.0
140
0.0
141
0.0
142
1.0
143
1.0
70
0
72
0
73
0
74
0
7

75
0
147
1.0
148
0.0
149
0.0
100
AcDbLayout
1
Layout1
70
0
71
0
10
0.0
20
0.0
11
0.0
21
0.0
12
0.0
22
0.0
32
0.0
14
0.0
24
0.0
34
0.0
15
0.0
25
0.0
35
0.0
146
0.0
13
0.0
23
0.0
33
0.0
16
0.0
26
0.0
36
0.0
17
0.0
27
0.0
37
0.0
76
0
330
1B
331
0
345
0
346
0
0
LAYOUT
5
22
102
{ACAD_REACTORS
330
1A
102
}
100
AcDbPlotSettings
1

2

4

6

40
0.0
41
0.0
42
0.0
43
0.0
44
0.0
45
0.0
46
0.0
47
0.0
48
0.0
49
0.0
140
0.0
141
0.0
142
1.0
143
1.0
70
0
72
0
73
0
74
0
7

75
0
147
1.0
148
0.0
149
0.0
100
AcDbLayout
1
Model
70
0
71
0
10
0.0
20
0.0
11
0.0
21
0.0
12
0.0
22
0.0
32
0.0
14
0.0
24
0.0
34
0.0
15
0.0
25
0.0
35
0.0
146
0.0
13
0.0
23
0.0
33
0.0
16
0.0
26
0.0
36
0.0
17
0.0
27
0.0
37
0.0
76
0
330
1F
331
0
345
0
346
0
0
ENDSEC
0
EOF
