  0
SECTION
  2
HEADER
  9
$ACADVER
  1
AC1021
  9
$DWGCODEPAGE
  3
ANSI_1252
  9
$EXTMAX
 10
297.0
 20
210.0
 30
0.0
  9
$EXTMIN
 10
0.0
 20
0.0
 30
0.0
  9
$LIMMIN
 10
0.0
 20
0.0
  9
$LIMMAX
 10
297.0
 20
210.0
  9
$VIEWCTR
 10
148.5
 20
105.0
  9
$VIEWSIZE
 40
210.0
  9
$CLAYER
  8
0
  9
$LTSCALE
 40
16.335
  9
$CELTYPE
  6
BYLAYER
  9
$DIMSCALE
 40
1.0
  9
$DIMASZ
 40
3.0
  9
$DIMEXO
 40
0.5
  9
$DIMDLI
 40
11.286
  9
$DIMEXE
 40
1.5
  9
$DIMCEN
 40
2.673
  9
$DIMLFAC
 40
1.0
  9
$DIMBLK
  1
_FILLED
  9
$DIMALT
 70
0
  9
$DIMALTF
 40
25.4
  9
$DIMTXT
 40
3.0
  9
$DIMTOL
 70
1
  9
$DIMLIM
 70
0
  9
$DIMTFAC
 40
1.0
  9
$DIMTP
 40
0.01
  9
$DIMTM
 40
0.01
  9
$DIMGAP
 40
0.625
  9
$DIMDSEP
 70
44
  9
$AUNITS
 70
0
  9
$PDMODE
 70
3
  9
$PDSIZE
 40
3.0
  9
$HANDSEED
  5
693
  9
$TILEMODE
 70
1
  9
$MEASUREMENT
 70
1
  9
$INSUNITS
 70
4
  0
ENDSEC
  0
SECTION
  2
CLASSES
  0
CLASS
  1
ACDBDICTIONARYWDFLT
  2
AcDbDictionaryWithDefault
  3
AutoCAD 2000
 90
0
 91
1
280
0
281
0
  0
CLASS
  1
ACDBPLACEHOLDER
  2
AcDbPlaceHolder
  3
AutoCAD 2000
 90
0
 91
1
280
0
281
0
  0
CLASS
  1
LAYOUT
  2
AcDbLayout
  3
AutoCAD 2000
 90
0
 91
0
280
0
281
0
  0
ENDSEC
  0
SECTION
  2
TABLES
  0
TABLE
  2
VPORT
  5
8
100
AcDbSymbolTable
 70
2
  0
VPORT
  5
1F4
100
AcDbSymbolTableRecord
100
AcDbViewportTableRecord
  2
*ACTIVE
 70
0
 10
0.0
 20
0.0
 11
1.0
 21
1.0
 12
148.5
 22
105.0
 13
0.0
 23
0.0
 14
1.0
 24
1.0
 15
0.0
 25
0.0
 16
0.0
 26
0.0
 36
1.0
 17
0.0
 27
0.0
 37
0.0
 40
210.0
 41
1.4142857143
 42
50.0
 43
0.0
 44
0.0
 50
0.0
 51
0.0
 71
0
 72
100
 73
1
 74
1
 75
0
 76
0
 77
0
 78
0
  0
ENDTAB
  0
TABLE
  2
LTYPE
  5
5
100
AcDbSymbolTable
 70
6
  0
LTYPE
  5
14
100
AcDbSymbolTableRecord
100
AcDbLinetypeTableRecord
  2
BYBLOCK
 70
0
  3

 72
65
 73
0
 40
0.0
  0
LTYPE
  5
15
100
AcDbSymbolTableRecord
100
AcDbLinetypeTableRecord
  2
BYLAYER
 70
0
  3

 72
65
 73
0
 40
0.0
  0
LTYPE
  5
16
100
AcDbSymbolTableRecord
100
AcDbLinetypeTableRecord
  2
CONTINUOUS
 70
64
  3
Solid line
 72
65
 73
0
 40
0.0
  0
LTYPE
  5
1F5
100
AcDbSymbolTableRecord
100
AcDbLinetypeTableRecord
  2
CENTER
 70
64
  3
____ _ ____ _ ____ _ ____ _ ____ _ ____ _ ____
 72
65
 73
4
 40
0.6
 49
0.375
 74
0
 49
-0.075
 74
0
 49
0.075
 74
0
 49
-0.075
 74
0
  0
LTYPE
  5
1F6
100
AcDbSymbolTableRecord
100
AcDbLinetypeTableRecord
  2
HIDDEN
 70
64
  3
- - - - - - - - - - - - - - - - - - - -
 72
65
 73
2
 40
0.2
 49
0.1
 74
0
 49
-0.1
 74
0
  0
LTYPE
  5
1F7
100
AcDbSymbolTableRecord
100
AcDbLinetypeTableRecord
  2
PHANTOM
 70
64
  3
_____ _ _ _____ _ _ _____ _ _ _____
 72
65
 73
6
 40
0.8
 49
0.45
 74
0
 49
-0.05
 74
0
 49
0.1
 74
0
 49
-0.05
 74
0
 49
0.1
 74
0
 49
-0.05
 74
0
  0
LTYPE
  5
1F8
100
AcDbSymbolTableRecord
100
AcDbLinetypeTableRecord
  2
DOT
 70
64
  3
. . . . . . . . . . . . . . . . . . . .
 72
65
 73
2
 40
0.2
 49
0.1
 74
0
 49
-0.1
 74
0
  0
LTYPE
  5
1F9
100
AcDbSymbolTableRecord
100
AcDbLinetypeTableRecord
  2
DASHED
 70
64
  3
- - - - - - - - - - - - - - - - - - - -
 72
65
 73
2
 40
0.2
 49
0.1
 74
0
 49
-0.1
 74
0
  0
ENDTAB
  0
TABLE
  2
LAYER
  5
2
100
AcDbSymbolTable
 70
36
  0
LAYER
  5
10
100
AcDbSymbolTableRecord
100
AcDbLayerTableRecord
  2
0
 70
0
 62
7
  6
CONTINUOUS
370
-3
390
F
  0
LAYER
  5
1FA
100
AcDbSymbolTableRecord
100
AcDbLayerTableRecord
  2
DEFAULT_1
 70
0
 62
7
  6
CENTER
370
-3
390
F
  0
LAYER
  5
1FB
100
AcDbSymbolTableRecord
100
AcDbLayerTableRecord
  2
DEFAULT_2
 70
0
 62
7
  6
HIDDEN
370
-3
390
F
  0
LAYER
  5
1FC
100
AcDbSymbolTableRecord
100
AcDbLayerTableRecord
  2
DEFAULT_3
 70
0
 62
7
  6
PHANTOM
370
-3
390
F
  0
LAYER
  5
1FD
100
AcDbSymbolTableRecord
100
AcDbLayerTableRecord
  2
ASSI
 70
0
 62
7
  6
CONTINUOUS
370
-3
390
F
  0
LAYER
  5
1FE
100
AcDbSymbolTableRecord
100
AcDbLayerTableRecord
  2
COORDINATE
 70
0
 62
7
  6
CONTINUOUS
370
-3
390
F
  0
LAYER
  5
1FF
100
AcDbSymbolTableRecord
100
AcDbLayerTableRecord
  2
COORD_ORIGINE
 70
0
 62
7
  6
CONTINUOUS
370
-3
390
F
  0
LAYER
  5
200
100
AcDbSymbolTableRecord
100
AcDbLayerTableRecord
  2
COPY_PUBLISH
 70
0
 62
7
  6
CONTINUOUS
370
-3
390
F
  0
LAYER
  5
201
100
AcDbSymbolTableRecord
100
AcDbLayerTableRecord
  2
COSMETICI
 70
0
 62
7
  6
CONTINUOUS
370
-3
390
F
  0
LAYER
  5
202
100
AcDbSymbolTableRecord
100
AcDbLayerTableRecord
  2
CURVE
 70
0
 62
7
  6
CONTINUOUS
370
-3
390
F
  0
LAYER
  5
203
100
AcDbSymbolTableRecord
100
AcDbLayerTableRecord
  2
DRAFT
 70
0
 62
7
  6
CONTINUOUS
370
-3
390
F
  0
LAYER
  5
204
100
AcDbSymbolTableRecord
100
AcDbLayerTableRecord
  2
IGES
 70
0
 62
7
  6
CONTINUOUS
370
-3
390
F
  0
LAYER
  5
205
100
AcDbSymbolTableRecord
100
AcDbLayerTableRecord
  2
IMPORT_IGES
 70
0
 62
7
  6
CONTINUOUS
370
-3
390
F
  0
LAYER
  5
206
100
AcDbSymbolTableRecord
100
AcDbLayerTableRecord
  2
NOTE
 70
0
 62
7
  6
CONTINUOUS
370
-3
390
F
  0
LAYER
  5
207
100
AcDbSymbolTableRecord
100
AcDbLayerTableRecord
  2
PIANI
 70
0
 62
7
  6
CONTINUOUS
370
-3
390
F
  0
LAYER
  5
208
100
AcDbSymbolTableRecord
100
AcDbLayerTableRecord
  2
PIANI_ORIGINE
 70
0
 62
7
  6
CONTINUOUS
370
-3
390
F
  0
LAYER
  5
209
100
AcDbSymbolTableRecord
100
AcDbLayerTableRecord
  2
PUNTI
 70
0
 62
7
  6
CONTINUOUS
370
-3
390
F
  0
LAYER
  5
20A
100
AcDbSymbolTableRecord
100
AcDbLayerTableRecord
  2
RACCORDO
 70
0
 62
7
  6
CONTINUOUS
370
-3
390
F
  0
LAYER
  5
20B
100
AcDbSymbolTableRecord
100
AcDbLayerTableRecord
  2
SIMBOLI
 70
0
 62
7
  6
CONTINUOUS
370
-3
390
F
  0
LAYER
  5
20C
100
AcDbSymbolTableRecord
100
AcDbLayerTableRecord
  2
SMUSSO
 70
0
 62
7
  6
CONTINUOUS
370
-3
390
F
  0
LAYER
  5
20D
100
AcDbSymbolTableRecord
100
AcDbLayerTableRecord
  2
SUPERFICI
 70
0
 62
7
  6
CONTINUOUS
370
-3
390
F
  0
LAYER
  5
20E
100
AcDbSymbolTableRecord
100
AcDbLayerTableRecord
  2
TRASH
 70
0
 62
7
  6
CONTINUOUS
370
-3
390
F
  0
ENDTAB
  0
TABLE
  2
STYLE
  5
3
100
AcDbSymbolTable
 70
1
  0
STYLE
  5
11
100
AcDbSymbolTableRecord
100
AcDbTextStyleTableRecord
  2
STANDARD
 70
0
 40
0.0
 41
0.8
 50
0.0
 71
0
 42
0.2
  3
txt
  4

  0
STYLE
  5
20F
100
AcDbSymbolTableRecord
100
AcDbTextStyleTableRecord
  2
TEXTSTYLE_1
 70
0
 40
0.0
 41
0.8
 50
0.0
 71
0
 42
0.2
  3
gdt
  4

  0
ENDTAB
  0
TABLE
  2
VIEW
  5
6
100
AcDbSymbolTable
 70
0
  0
ENDTAB
  0
TABLE
  2
UCS
  5
7
100
AcDbSymbolTable
 70
0
  0
ENDTAB
  0
TABLE
  2
APPID
  5
9
100
AcDbSymbolTable
 70
1
  0
APPID
  5
210
100
AcDbSymbolTableRecord
100
AcDbRegAppTableRecord
  2
ACAD
 70
0
  0
ENDTAB
  0
TABLE
  2
BLOCK_RECORD
  5
1
100
AcDbSymbolTable
 70
0
  0
BLOCK_RECORD
  5
211
100
AcDbSymbolTableRecord
100
AcDbBlockTableRecord
  2
*Model_Space
  0
BLOCK_RECORD
  5
212
100
AcDbSymbolTableRecord
100
AcDbBlockTableRecord
  2
*Paper_Space
  0
BLOCK_RECORD
  5
213
100
AcDbSymbolTableRecord
100
AcDbBlockTableRecord
  2
_FILLED
  0
BLOCK_RECORD
  5
214
100
AcDbSymbolTableRecord
100
AcDbBlockTableRecord
  2
*D0
  0
BLOCK_RECORD
  5
215
100
AcDbSymbolTableRecord
100
AcDbBlockTableRecord
  2
*D1
  0
BLOCK_RECORD
  5
216
100
AcDbSymbolTableRecord
100
AcDbBlockTableRecord
  2
*D2
  0
ENDTAB
  0
TABLE
  2
DIMSTYLE
  5
A
100
AcDbSymbolTable
 70
1
100
AcDbDimStyleTable
 71
0
  0
DIMSTYLE
105
217
100
AcDbSymbolTableRecord
100
AcDbDimStyleTableRecord
  2
STANDARD
 70
0
  3

  4

 40
1.0
 41
3.0
 42
0.5
 43
0.38
 44
1.5
 45
0.0
 46
0.0
 47
0.01
 48
0.01
140
3.0
141
0.09
142
0.0
143
25.4
144
1.0
145
0.0
146
1.0
147
0.625
 71
1.0
 72
0.0
 73
0
 74
0
 75
0
 76
0
 77
1
 78
8
170
0
171
1
172
0
173
0
174
0
175
0
176
0
177
0
178
0
270
2
271
2
272
2
273
2
274
2
275
0
280
0
281
0
282
0
283
1
284
8
285
0
286
0
287
3
288
0
340
11
278
44
341
213
342
213
343
213
344
213
  0
DIMSTYLE
105
218
100
AcDbSymbolTableRecord
100
AcDbDimStyleTableRecord
  2
DIMSTYLE_1
 70
0
  3

  4

 40
1.0
 41
3.0
 42
0.5
 43
0.38
 44
1.5
 45
0.0
 46
0.0
 47
0.0
 48
0.0
140
3.0
141
0.09
142
0.0
143
25.4
144
1.0
145
0.0
146
1.0
147
0.75
 71
0.0
 72
0.0
 73
0
 74
0
 75
0
 76
0
 77
1
 78
8
170
0
171
1
172
0
173
0
174
0
175
0
176
0
177
0
178
0
270
2
271
2
272
2
273
2
274
2
275
0
280
0
281
0
282
0
283
1
284
8
285
0
286
0
287
3
288
0
340
11
278
44
341
213
342
213
343
213
344
213
  0
ENDTAB
  0
ENDSEC
  0
SECTION
  2
BLOCKS
  0
BLOCK
  5
20
100
AcDbEntity
  8
0
100
AcDbBlockBegin
  2
*Model_Space
 70
0
 10
0.0
 20
0.0
 30
0.0
  3
*Model_Space
  1

  0
ENDBLK
  5
21
100
AcDbEntity
  8
0
100
AcDbBlockEnd
  0
BLOCK
  5
1C
100
AcDbEntity
  8
0
100
AcDbBlockBegin
  2
*Paper_Space
 70
0
 10
0.0
 20
0.0
 30
0.0
  3
*Paper_Space
  1

  0
ENDBLK
  5
1D
100
AcDbEntity
  8
0
100
AcDbBlockEnd
  0
BLOCK
  5
219
100
AcDbEntity
  8
0
100
AcDbBlockBegin
  2
_FILLED
 70
64
 10
0.0
 20
0.0
  3
_FILLED
  1

  0
SOLID
  5
21A
100
AcDbEntity
  8
0
  6
BYBLOCK
 62
0
100
AcDbTrace
 10
0.0
 20
0.0
 11
-1.0
 21
0.3166666667
 12
-1.0
 22
-0.3166666667
 13
-1.0
 23
-0.3166666667
  0
ENDBLK
  5
21B
100
AcDbEntity
  8
0
  6
BYBLOCK
 62
0
100
AcDbBlockEnd
  0
BLOCK
  5
21C
100
AcDbEntity
  8
0
100
AcDbBlockBegin
 62
7
  6
CONTINUOUS
  2
*D0
 70
65
 10
0.0
 20
0.0
  3
*D0
  1

  0
MTEXT
  5
21D
100
AcDbEntity
  8
0
100
AcDbMText
 62
7
  6
CONTINUOUS
  7
STANDARD
 71
2
 72
1
 10
190.9301131523
 20
0.0884049797
 30
0.0
 11
0.0
 21
1.0
 31
0.0
 44
0.9
  1
460
 40
3.0
 41
10.6071428571
  0
LINE
  5
21E
100
AcDbEntity
  8
0
100
AcDbLine
 62
7
  6
CONTINUOUS
 10
183.9381365316
 20
230.0884049797
 11
196.1801131523
 21
230.0884049797
  0
LINE
  5
21F
100
AcDbEntity
  8
0
100
AcDbLine
 62
7
  6
CONTINUOUS
 10
183.9463898912
 20
-229.9115950203
 11
196.1801131523
 21
-229.9115950203
  0
LINE
  5
220
100
AcDbEntity
  8
0
100
AcDbLine
 62
7
  6
CONTINUOUS
 10
194.6801131523
 20
230.0884049797
 11
194.6801131523
 21
0.0884049797
  0
LINE
  5
221
100
AcDbEntity
  8
0
100
AcDbLine
 62
7
  6
CONTINUOUS
 10
194.6801131523
 20
-229.9115950203
 11
194.6801131523
 21
0.0884049797
  0
INSERT
  5
222
100
AcDbEntity
  8
0
100
AcDbBlockReference
 62
7
  6
CONTINUOUS
  2
_FILLED
 10
194.6801131523
 20
230.0884049797
 41
3.0
 42
3.0
 43
3.0
 50
90.0
  0
INSERT
  5
223
100
AcDbEntity
  8
0
100
AcDbBlockReference
 62
7
  6
CONTINUOUS
  2
_FILLED
 10
194.6801131523
 20
-229.9115950203
 41
3.0
 42
3.0
 43
3.0
 50
270.0
  0
ENDBLK
  5
224
100
AcDbEntity
  8
0
  6
BYBLOCK
 62
0
100
AcDbBlockEnd
  0
BLOCK
  5
225
100
AcDbEntity
  8
0
100
AcDbBlockBegin
 62
7
  6
CONTINUOUS
  2
*D1
 70
65
 10
0.0
 20
0.0
  3
*D1
  1

  0
MTEXT
  5
226
100
AcDbEntity
  8
0
100
AcDbMText
 62
7
  6
CONTINUOUS
  7
STANDARD
 71
2
 72
1
 10
0.2801131523
 20
243.8384049797
 30
0.0
 11
1.0
 21
0.0
 31
0.0
 44
0.9
  1
368,8
 40
3.0
 41
16.3928571429
  0
LINE
  5
227
100
AcDbEntity
  8
0
100
AcDbLine
 62
7
  6
CONTINUOUS
 10
-184.1198868477
 20
228.8884049797
 11
-184.1198868477
 21
241.5884049797
  0
LINE
  5
228
100
AcDbEntity
  8
0
100
AcDbLine
 62
7
  6
CONTINUOUS
 10
184.6801131523
 20
228.8884049797
 11
184.6801131523
 21
241.5884049797
  0
LINE
  5
229
100
AcDbEntity
  8
0
100
AcDbLine
 62
7
  6
CONTINUOUS
 10
-184.1198868477
 20
240.0884049797
 11
0.2801131523
 21
240.0884049797
  0
LINE
  5
22A
100
AcDbEntity
  8
0
100
AcDbLine
 62
7
  6
CONTINUOUS
 10
184.6801131523
 20
240.0884049797
 11
0.2801131523
 21
240.0884049797
  0
INSERT
  5
22B
100
AcDbEntity
  8
0
100
AcDbBlockReference
 62
7
  6
CONTINUOUS
  2
_FILLED
 10
-184.1198868477
 20
240.0884049797
 41
3.0
 42
3.0
 43
3.0
 50
180.0
  0
INSERT
  5
22C
100
AcDbEntity
  8
0
100
AcDbBlockReference
 62
7
  6
CONTINUOUS
  2
_FILLED
 10
184.6801131523
 20
240.0884049797
 41
3.0
 42
3.0
 43
3.0
 50
360.0
  0
ENDBLK
  5
22D
100
AcDbEntity
  8
0
  6
BYBLOCK
 62
0
100
AcDbBlockEnd
  0
BLOCK
  5
22E
100
AcDbEntity
  8
0
100
AcDbBlockBegin
 62
7
  6
CONTINUOUS
  2
*D2
 70
65
 10
0.0
 20
0.0
  3
*D2
  1

  0
MTEXT
  5
22F
100
AcDbEntity
  8
0
100
AcDbMText
 62
7
  6
CONTINUOUS
  7
STANDARD
 71
2
 72
1
 10
-424.2960711499
 20
243.8384049797
 30
0.0
 11
1.0
 21
0.0
 31
0.0
 44
0.9
  1
317,6
 40
3.0
 41
15.4285714286
  0
LINE
  5
230
100
AcDbEntity
  8
0
100
AcDbLine
 62
7
  6
CONTINUOUS
 10
-583.0960711499
 20
7.6384049797
 11
-583.0960711499
 21
241.5884049797
  0
LINE
  5
231
100
AcDbEntity
  8
0
100
AcDbLine
 62
7
  6
CONTINUOUS
 10
-265.4960711499
 20
228.6027002178
 11
-265.4960711499
 21
241.5884049797
  0
LINE
  5
232
100
AcDbEntity
  8
0
100
AcDbLine
 62
7
  6
CONTINUOUS
 10
-583.0960711499
 20
240.0884049797
 11
-424.2960711499
 21
240.0884049797
  0
LINE
  5
233
100
AcDbEntity
  8
0
100
AcDbLine
 62
7
  6
CONTINUOUS
 10
-265.4960711499
 20
240.0884049797
 11
-424.2960711499
 21
240.0884049797
  0
INSERT
  5
234
100
AcDbEntity
  8
0
100
AcDbBlockReference
 62
7
  6
CONTINUOUS
  2
_FILLED
 10
-583.0960711499
 20
240.0884049797
 41
3.0
 42
3.0
 43
3.0
 50
180.0
  0
INSERT
  5
235
100
AcDbEntity
  8
0
100
AcDbBlockReference
 62
7
  6
CONTINUOUS
  2
_FILLED
 10
-265.4960711499
 20
240.0884049797
 41
3.0
 42
3.0
 43
3.0
  0
ENDBLK
  5
236
100
AcDbEntity
  8
0
  6
BYBLOCK
 62
0
100
AcDbBlockEnd
  0
ENDSEC
  0
SECTION
  2
ENTITIES
  0
DIMENSION
  5
237
100
AcDbEntity
  8
0
100
AcDbDimension
 62
7
  6
CONTINUOUS
  2
*D0
 10
194.6801131523
 20
-229.9115950203
 11
194.6801131523
 21
-0.3401738927
 70
160
 71
2
 42
460.0
  3
DIMSTYLE_1
100
AcDbAlignedDimension
 13
183.4381365316
 23
230.0884049797
 14
183.4463898912
 24
-229.9115950203
 50
270.0
100
AcDbRotatedDimension
  0
DIMENSION
  5
238
100
AcDbEntity
  8
0
100
AcDbDimension
 62
7
  6
CONTINUOUS
  2
*D1
 10
184.6801131523
 20
240.0884049797
 11
-0.1484580803
 21
240.0884049797
 70
160
 71
2
 42
368.8
  3
DIMSTYLE_1
100
AcDbAlignedDimension
 13
-184.1198868477
 23
228.3884049797
 14
184.6801131523
 24
228.3884049797
 50
360.0
100
AcDbRotatedDimension
  0
DIMENSION
  5
239
100
AcDbEntity
  8
0
100
AcDbDimension
 62
7
  6
CONTINUOUS
  2
*D2
 10
-265.4960711499
 20
240.0884049797
 11
-424.7246469727
 21
240.0884049797
 70
160
 71
2
 42
317.6
  3
DIMSTYLE_1
100
AcDbAlignedDimension
 13
-583.0960711499
 23
7.1384049797
 14
-265.4960711499
 24
228.1027002178
100
AcDbRotatedDimension
  0
LWPOLYLINE
  5
23A
100
AcDbEntity
  8
0
100
AcDbPolyline
 62
7
  6
CONTINUOUS
 90
6
 70
0
 10
-183.165157168
 20
229.9144322394
 10
-183.2603606627
 20
229.7827860567
 10
-183.3550364329
 20
229.6186849716
 10
-183.4476545895
 20
229.4297494636
 10
-183.5377051694
 20
229.2228999721
 10
-183.6256981356
 20
229.0021511729
  0
LWPOLYLINE
  5
23B
100
AcDbEntity
  8
0
100
AcDbPolyline
 62
7
  6
CONTINUOUS
 90
6
 70
0
 10
-183.1642699094
 20
-229.7483718076
 10
-183.2567955111
 20
-229.6241286694
 10
-183.3492549231
 20
-229.4680819497
 10
-183.4417805248
 20
-229.2834450608
 10
-183.5344164427
 20
-229.0738709379
 10
-183.6271185503
 20
-228.8431686233
  0
LINE
  5
23C
100
AcDbEntity
  8
0
100
AcDbLine
 62
7
  6
CONTINUOUS
 10
183.5391581885
 20
-229.8932742718
 11
183.4463898912
 21
-229.9115950203
  0
LWPOLYLINE
  5
23D
100
AcDbEntity
  8
0
100
AcDbPolyline
 62
7
  6
CONTINUOUS
 90
4
 70
0
 10
-182.8861635865
 20
-229.9115950203
 10
-182.9789318838
 20
-229.8932742718
 10
-183.0716339915
 20
-229.8385700123
 10
-183.1642699094
 20
-229.7483718076
  0
LINE
  5
23E
100
AcDbEntity
  8
0
100
AcDbLine
 62
7
  6
CONTINUOUS
 10
-183.6256981356
 20
229.0021511729
 11
-183.7116334881
 21
228.7724452663
  0
LINE
  5
23F
100
AcDbEntity
  8
0
100
AcDbLine
 62
7
  6
CONTINUOUS
 10
-183.6271185503
 20
-228.8431686233
 11
-183.7198868477
 21
-228.595635307
  0
LWPOLYLINE
  5
240
100
AcDbEntity
  8
0
100
AcDbPolyline
 62
7
  6
CONTINUOUS
 90
24
 70
0
 10
-174.3457107007
 20
166.6605079984
 10
-174.3456814053
 20
166.6605239834
 10
-174.347491514
 20
166.6596587832
 10
-174.3521027007
 20
166.657623626
 10
-174.3590819524
 20
166.6547759598
 10
-174.3684545172
 20
166.6512212424
 10
-174.3803515356
 20
166.6470115199
 10
-174.3944518364
 20
166.6423389322
 10
-174.4107595836
 20
166.6372579881
 10
-174.4293660573
 20
166.6317901927
 10
-174.4500635596
 20
166.6260363457
 10
-174.4728551214
 20
166.6200249764
 10
-174.4978022237
 20
166.6137663411
 10
-174.5247773883
 20
166.6073140462
 10
-174.5537844136
 20
166.6006837458
 10
-174.5848655682
 20
166.5938807299
 10
-174.6179486383
 20
166.5869333053
 10
-174.6530415229
 20
166.5798497545
 10
-174.6901703274
 20
166.5726337284
 10
-174.7292894943
 20
166.5653015267
 10
-174.7704051629
 20
166.5578579529
 10
-174.8135331455
 20
166.5503053748
 10
-174.8586413301
 20
166.5426536762
 10
-174.9057316187
 20
166.5349058243
  0
LWPOLYLINE
  5
241
100
AcDbEntity
  8
0
100
AcDbPolyline
 62
7
  6
CONTINUOUS
 90
25
 70
0
 10
-179.894059617
 20
167.1760920702
 10
-179.8941028942
 20
167.1760689874
 10
-179.8924339628
 20
167.1768692056
 10
-179.8881071283
 20
167.1787888168
 10
-179.8816227241
 20
167.1814542678
 10
-179.8730010646
 20
167.1847570717
 10
-179.862127554
 20
167.1886538996
 10
-179.8493468601
 20
167.1929552489
 10
-179.8346878632
 20
167.1976067026
 10
-179.8180784549
 20
167.2025915205
 10
-179.7997207156
 20
167.2078178073
 10
-179.779630129
 20
167.2132587597
 10
-179.7577657798
 20
167.2189053941
 10
-179.73424424
 20
167.2247113326
 10
-179.7090716997
 20
167.2306627708
 10
-179.6822247759
 20
167.2367541962
 10
-179.6537731658
 20
167.2429606968
 10
-179.6237193214
 20
167.2492746482
 10
-179.5920496213
 20
167.2556925671
 10
-179.5588075882
 20
167.2622003855
 10
-179.5239951006
 20
167.268793606
 10
-179.487604836
 20
167.275469987
 10
-179.449665104
 20
167.2822213804
 10
-179.4101783071
 20
167.2890450822
 10
-179.3691425244
 20
167.2959395197
  0
LINE
  5
242
100
AcDbEntity
  8
0
100
AcDbLine
 62
7
  6
CONTINUOUS
 10
183.4463898912
 20
-229.9115950203
 11
-182.8861635865
 21
-229.9115950203
  0
LINE
  5
243
100
AcDbEntity
  8
0
100
AcDbLine
 62
253
  6
CONTINUOUS
 10
184.2801131523
 20
-228.595635307
 11
-183.7198868477
 21
-228.595635307
  0
LINE
  5
244
100
AcDbEntity
  8
0
100
AcDbLine
 62
7
  6
CONTINUOUS
 10
184.6801131523
 20
-228.2115950203
 11
184.2801131523
 21
-228.2115950203
  0
LINE
  5
245
100
AcDbEntity
  8
0
100
AcDbLine
 62
7
  6
CONTINUOUS
 10
-184.1198868477
 20
-228.2115950203
 11
-183.7198868477
 21
-228.2115950203
  0
LINE
  5
246
100
AcDbEntity
  8
0
100
AcDbLine
 62
253
  6
CONTINUOUS
 10
184.2801131523
 20
-215.7796755936
 11
-183.7198868477
 21
-215.7796755936
  0
LINE
  5
247
100
AcDbEntity
  8
0
100
AcDbLine
 62
253
  6
CONTINUOUS
 10
184.6801131523
 20
-214.795635307
 11
184.2801131523
 21
-214.795635307
  0
LINE
  5
248
100
AcDbEntity
  8
0
100
AcDbLine
 62
253
  6
CONTINUOUS
 10
-184.1198868477
 20
-214.795635307
 11
-183.7198868477
 21
-214.795635307
  0
LINE
  5
249
100
AcDbEntity
  8
0
100
AcDbLine
 62
7
  6
CONTINUOUS
 10
184.6801131523
 20
-212.1115950203
 11
184.2801131523
 21
-212.1115950203
  0
LINE
  5
24A
100
AcDbEntity
  8
0
100
AcDbLine
 62
7
  6
CONTINUOUS
 10
-184.1198868477
 20
-212.1115950203
 11
-183.7198868477
 21
-212.1115950203
  0
LINE
  5
24B
100
AcDbEntity
  8
0
100
AcDbLine
 62
7
  6
CONTINUOUS
 10
184.2801131523
 20
-210.4115950203
 11
-172.6206552305
 21
-210.4115950203
  0
LINE
  5
24C
100
AcDbEntity
  8
0
100
AcDbLine
 62
7
  6
CONTINUOUS
 10
-172.6206552305
 20
-210.4115950203
 11
-181.6191184648
 21
-210.4115950203
  0
LINE
  5
24D
100
AcDbEntity
  8
0
100
AcDbLine
 62
7
  6
CONTINUOUS
 10
-181.6191184648
 20
-210.4115950203
 11
-183.7198868477
 21
-210.4115950203
  0
LINE
  5
24E
100
AcDbEntity
  8
0
100
AcDbLine
 62
7
  6
CONTINUOUS
 10
-184.5298081607
 20
-210.4115950203
 11
-184.6198868477
 21
-210.4115950203
  0
LINE
  5
24F
100
AcDbEntity
  8
0
100
AcDbLine
 62
253
  6
CONTINUOUS
 10
163.2801131523
 20
-210.1115950203
 11
164.4801131523
 21
-210.1115950203
  0
LINE
  5
250
100
AcDbEntity
  8
0
100
AcDbLine
 62
7
  6
CONTINUOUS
 10
-169.6198868477
 20
-209.6615950203
 11
-162.6198868477
 21
-209.6615950203
  0
LINE
  5
251
100
AcDbEntity
  8
0
100
AcDbLine
 62
7
  6
CONTINUOUS
 10
183.1801131523
 20
-209.6615950203
 11
163.1801131523
 21
-209.6615950203
  0
LINE
  5
252
100
AcDbEntity
  8
0
100
AcDbLine
 62
7
  6
CONTINUOUS
 10
-169.6198868477
 20
-208.6615950203
 11
-162.6198868477
 21
-208.6615950203
  0
LINE
  5
253
100
AcDbEntity
  8
0
100
AcDbLine
 62
7
  6
CONTINUOUS
 10
183.1801131523
 20
-208.6615950203
 11
163.1801131523
 21
-208.6615950203
  0
LINE
  5
254
100
AcDbEntity
  8
0
100
AcDbLine
 62
7
  6
CONTINUOUS
 10
-162.2198868477
 20
-208.1615950203
 11
-169.6198868477
 21
-208.1615950203
  0
LINE
  5
255
100
AcDbEntity
  8
0
100
AcDbLine
 62
7
  6
CONTINUOUS
 10
162.7801131523
 20
-208.1615950203
 11
184.6801131523
 21
-208.1615950203
  0
LINE
  5
256
100
AcDbEntity
  8
0
100
AcDbLine
 62
7
  6
CONTINUOUS
 10
162.7801131523
 20
-208.1599289705
 11
162.6801131523
 21
-208.1599289705
  0
LINE
  5
257
100
AcDbEntity
  8
0
100
AcDbLine
 62
7
  6
CONTINUOUS
 10
-162.2198868477
 20
-208.1599289705
 11
-162.1198868477
 21
-208.1599289705
  0
LINE
  5
258
100
AcDbEntity
  8
ASSI
100
AcDbLine
 62
7
  6
CONTINUOUS
 10
-171.6223970528
 20
-207.9115950203
 11
-104.1198868477
 21
-207.9115950203
  0
LINE
  5
259
100
AcDbEntity
  8
ASSI
100
AcDbLine
 62
7
  6
CONTINUOUS
 10
182.6801131523
 20
-207.9115950203
 11
104.6801131523
 21
-207.9115950203
  0
LINE
  5
25A
100
AcDbEntity
  8
0
100
AcDbLine
 62
7
  6
CONTINUOUS
 10
-171.6223970528
 20
-207.9115950203
 11
-184.6198868477
 21
-207.9115950203
  0
LINE
  5
25B
100
AcDbEntity
  8
ASSI
100
AcDbLine
 62
7
  6
CONTINUOUS
 10
184.6801131523
 20
-206.5115950203
 11
182.6801131523
 21
-206.5115950203
  0
LINE
  5
25C
100
AcDbEntity
  8
ASSI
100
AcDbLine
 62
7
  6
CONTINUOUS
 10
-184.1198868477
 20
-206.5115950203
 11
-182.1198868477
 21
-206.5115950203
  0
LINE
  5
25D
100
AcDbEntity
  8
0
100
AcDbLine
 62
253
  6
CONTINUOUS
 10
-182.1198868477
 20
-206.5115950203
 11
-104.1198868477
 21
-206.5115950203
  0
LINE
  5
25E
100
AcDbEntity
  8
0
100
AcDbLine
 62
253
  6
CONTINUOUS
 10
182.6801131523
 20
-206.5115950203
 11
104.6801131523
 21
-206.5115950203
  0
LINE
  5
25F
100
AcDbEntity
  8
0
100
AcDbLine
 62
7
  6
CONTINUOUS
 10
104.6801131523
 20
-206.5115950203
 11
-104.1198868477
 21
-206.5115950203
  0
LINE
  5
260
100
AcDbEntity
  8
0
100
AcDbLine
 62
7
  6
CONTINUOUS
 10
104.7551882274
 20
-205.5115950203
 11
-104.4323868477
 21
-205.5115950203
  0
LINE
  5
261
100
AcDbEntity
  8
0
100
AcDbLine
 62
7
  6
CONTINUOUS
 10
-184.6198868477
 20
210.3884049797
 11
-184.6198868477
 21
207.8884049797
  0
LINE
  5
262
100
AcDbEntity
  8
0
100
AcDbLine
 62
7
  6
CONTINUOUS
 10
-184.6198868477
 20
-210.4115950203
 11
-184.6198868477
 21
-207.9115950203
  0
LINE
  5
263
100
AcDbEntity
  8
0
100
AcDbLine
 62
7
  6
CONTINUOUS
 10
-184.1198868477
 20
-207.9115950203
 11
-184.1198868477
 21
-206.5115950203
  0
LINE
  5
264
100
AcDbEntity
  8
ASSI
100
AcDbLine
 62
7
  6
CONTINUOUS
 10
-184.1198868477
 20
151.4884049797
 11
-184.1198868477
 21
153.4884049797
  0
LINE
  5
265
100
AcDbEntity
  8
ASSI
100
AcDbLine
 62
7
  6
CONTINUOUS
 10
-184.1198868477
 20
166.4884049797
 11
-184.1198868477
 21
168.4884049797
  0
LINE
  5
266
100
AcDbEntity
  8
0
100
AcDbLine
 62
7
  6
CONTINUOUS
 10
-184.1198868477
 20
-212.1115950203
 11
-184.1198868477
 21
-228.2115950203
  0
LINE
  5
267
100
AcDbEntity
  8
ASSI
100
AcDbLine
 62
7
  6
CONTINUOUS
 10
-184.1198868477
 20
181.4884049797
 11
-184.1198868477
 21
183.4884049797
  0
LINE
  5
268
100
AcDbEntity
  8
0
100
AcDbLine
 62
7
  6
CONTINUOUS
 10
-184.1198868477
 20
-206.5115950203
 11
-184.1198868477
 21
206.4884049797
  0
LINE
  5
269
100
AcDbEntity
  8
0
100
AcDbLine
 62
7
  6
CONTINUOUS
 10
-184.1198868477
 20
206.4884049797
 11
-184.1198868477
 21
207.8884049797
  0
LINE
  5
26A
100
AcDbEntity
  8
0
100
AcDbLine
 62
7
  6
CONTINUOUS
 10
-184.1198868477
 20
211.2884049797
 11
-184.1198868477
 21
228.3884049797
  0
LINE
  5
26B
100
AcDbEntity
  8
0
100
AcDbLine
 62
7
  6
CONTINUOUS
 10
-183.7198868477
 20
228.7590121366
 11
-183.7198868477
 21
210.5884049797
  0
LINE
  5
26C
100
AcDbEntity
  8
0
100
AcDbLine
 62
7
  6
CONTINUOUS
 10
-183.7198868477
 20
-210.4115950203
 11
-183.7198868477
 21
-228.595635307
  0
LINE
  5
26D
100
AcDbEntity
  8
ASSI
100
AcDbLine
 62
7
  6
CONTINUOUS
 10
-182.9198868477
 20
151.4884049797
 11
-182.9198868477
 21
153.4884049797
  0
LINE
  5
26E
100
AcDbEntity
  8
0
100
AcDbLine
 62
7
  6
CONTINUOUS
 10
-182.9198868477
 20
151.4884049797
 11
-182.9198868477
 21
153.4884049797
  0
LINE
  5
26F
100
AcDbEntity
  8
ASSI
100
AcDbLine
 62
7
  6
CONTINUOUS
 10
-182.9198868477
 20
166.4884049797
 11
-182.9198868477
 21
168.4884049797
  0
LINE
  5
270
100
AcDbEntity
  8
0
100
AcDbLine
 62
7
  6
CONTINUOUS
 10
-182.9198868477
 20
166.4884049797
 11
-182.9198868477
 21
168.4884049797
  0
LINE
  5
271
100
AcDbEntity
  8
ASSI
100
AcDbLine
 62
7
  6
CONTINUOUS
 10
-182.9198868477
 20
181.4884049797
 11
-182.9198868477
 21
183.4884049797
  0
LINE
  5
272
100
AcDbEntity
  8
0
100
AcDbLine
 62
7
  6
CONTINUOUS
 10
-182.9198868477
 20
181.4884049797
 11
-182.9198868477
 21
183.4884049797
  0
LINE
  5
273
100
AcDbEntity
  8
ASSI
100
AcDbLine
 62
253
  6
CONTINUOUS
 10
-182.7198868477
 20
151.4884049797
 11
-182.7198868477
 21
153.4884049797
  0
LINE
  5
274
100
AcDbEntity
  8
ASSI
100
AcDbLine
 62
253
  6
CONTINUOUS
 10
-182.7198868477
 20
166.4884049797
 11
-182.7198868477
 21
168.4884049797
  0
LINE
  5
275
100
AcDbEntity
  8
ASSI
100
AcDbLine
 62
253
  6
CONTINUOUS
 10
-182.7198868477
 20
181.4884049797
 11
-182.7198868477
 21
183.4884049797
  0
LINE
  5
276
100
AcDbEntity
  8
0
100
AcDbLine
 62
253
  6
CONTINUOUS
 10
-182.4198868477
 20
210.5884049797
 11
-182.4198868477
 21
210.3884049797
  0
LINE
  5
277
100
AcDbEntity
  8
ASSI
100
AcDbLine
 62
7
  6
CONTINUOUS
 10
-182.1198868477
 20
207.8884049797
 11
-182.1198868477
 21
206.4884049797
  0
LINE
  5
278
100
AcDbEntity
  8
0
100
AcDbLine
 62
253
  6
CONTINUOUS
 10
-182.1198868477
 20
-206.5115950203
 11
-182.1198868477
 21
151.4884049797
  0
LINE
  5
279
100
AcDbEntity
  8
ASSI
100
AcDbLine
 62
7
  6
CONTINUOUS
 10
-182.1198868477
 20
-206.5115950203
 11
-182.1198868477
 21
-207.9115950203
  0
LINE
  5
27A
100
AcDbEntity
  8
0
100
AcDbLine
 62
253
  6
CONTINUOUS
 10
-182.1198868477
 20
153.4884049797
 11
-182.1198868477
 21
166.4884049797
  0
LINE
  5
27B
100
AcDbEntity
  8
0
100
AcDbLine
 62
253
  6
CONTINUOUS
 10
-182.1198868477
 20
168.4884049797
 11
-182.1198868477
 21
181.4884049797
  0
LINE
  5
27C
100
AcDbEntity
  8
0
100
AcDbLine
 62
253
  6
CONTINUOUS
 10
-182.1198868477
 20
183.4884049797
 11
-182.1198868477
 21
206.4884049797
  0
LINE
  5
27D
100
AcDbEntity
  8
RACCORDO
100
AcDbLine
 62
7
  6
CONTINUOUS
 10
-181.1198868477
 20
151.4884049797
 11
-181.1198868477
 21
153.4884049797
  0
LINE
  5
27E
100
AcDbEntity
  8
SMUSSO
100
AcDbLine
 62
7
  6
CONTINUOUS
 10
-179.6198868477
 20
210.5884049797
 11
-179.6198868477
 21
210.3884049797
  0
LINE
  5
27F
100
AcDbEntity
  8
SMUSSO
100
AcDbLine
 62
7
  6
CONTINUOUS
 10
-179.6198868477
 20
183.4884049797
 11
-179.6198868477
 21
181.4884049797
  0
LINE
  5
280
100
AcDbEntity
  8
SMUSSO
100
AcDbLine
 62
7
  6
CONTINUOUS
 10
-179.6198868477
 20
168.4884049797
 11
-179.6198868477
 21
167.9587068114
  0
LINE
  5
281
100
AcDbEntity
  8
SMUSSO
100
AcDbLine
 62
7
  6
CONTINUOUS
 10
-179.6198868477
 20
167.2500513056
 11
-179.6198868477
 21
166.4884049797
  0
LINE
  5
282
100
AcDbEntity
  8
SMUSSO
100
AcDbLine
 62
7
  6
CONTINUOUS
 10
-174.6198868477
 20
210.5884049797
 11
-174.6198868477
 21
210.3884049797
  0
LINE
  5
283
100
AcDbEntity
  8
SMUSSO
100
AcDbLine
 62
7
  6
CONTINUOUS
 10
-174.6198868477
 20
183.4884049797
 11
-174.6198868477
 21
181.4884049797
  0
LINE
  5
284
100
AcDbEntity
  8
0
100
AcDbLine
 62
7
  6
CONTINUOUS
 10
-174.6198868477
 20
167.8779027117
 11
-174.6198868477
 21
166.5865420748
  0
LINE
  5
285
100
AcDbEntity
  8
0
100
AcDbLine
 62
7
  6
CONTINUOUS
 10
184.6801131523
 20
-183.5115950203
 11
128.6801131523
 21
-183.5115950203
  0
LINE
  5
286
100
AcDbEntity
  8
0
100
AcDbLine
 62
7
  6
CONTINUOUS
 10
184.6801131523
 20
-181.5115950203
 11
128.6801131523
 21
-181.5115950203
  0
LWPOLYLINE
  5
287
100
AcDbEntity
  8
0
100
AcDbPolyline
 62
7
  6
CONTINUOUS
 90
33
 70
0
 10
-180.4698866444
 20
167.418410037
 10
-180.4677956926
 20
167.3792573699
 10
-180.4617828332
 20
167.3413278638
 10
-180.4518154205
 20
167.3035306897
 10
-180.4380819092
 20
167.2667316933
 10
-180.4214623212
 20
167.232630788
 10
-180.4025991857
 20
167.2015301201
 10
-180.3818072633
 20
167.1731783029
 10
-180.359953586
 20
167.1480429122
 10
-180.3377547033
 20
167.1261432591
 10
-180.3153302805
 20
167.1068581544
 10
-180.2926294361
 20
167.0896097656
 10
-180.2698342216
 20
167.074148919
 10
-180.2470864571
 20
167.0602516461
 10
-180.2241360725
 20
167.0475267077
 10
-180.2010158635
 20
167.0358180895
 10
-180.1777387515
 20
167.0249852353
 10
-180.1539762534
 20
167.0147683899
 10
-180.1296812921
 20
167.0050734292
 10
-180.1048516689
 20
166.9958361841
 10
-180.0792320209
 20
166.9869147257
 10
-180.0528018192
 20
166.9782687222
 10
-180.0255232576
 20
166.969856951
 10
-179.9971248029
 20
166.9615769995
 10
-179.9675319319
 20
166.9533974417
 10
-179.9367398906
 20
166.9453086504
 10
-179.9045840145
 20
166.9372619614
 10
-179.8710090184
 20
166.9292414755
 10
-179.8359939024
 20
166.9212405053
 10
-179.7994334292
 20
166.9132344117
 10
-179.7612722284
 20
166.9052118599
 10
-179.7215000303
 20
166.8971714336
 10
-179.6999655188
 20
166.8929413231
  0
LINE
  5
288
100
AcDbEntity
  8
0
100
AcDbLine
 62
253
  6
CONTINUOUS
 10
-173.1198868477
 20
153.4884049797
 11
-173.1198868477
 21
151.4884049797
  0
LINE
  5
289
100
AcDbEntity
  8
ASSI
100
AcDbLine
 62
7
  6
CONTINUOUS
 10
-173.1198868477
 20
166.4884049797
 11
-173.1198868477
 21
168.4884049797
  0
LINE
  5
28A
100
AcDbEntity
  8
ASSI
100
AcDbLine
 62
7
  6
CONTINUOUS
 10
-173.1198868477
 20
181.4884049797
 11
-173.1198868477
 21
183.4884049797
  0
LINE
  5
28B
100
AcDbEntity
  8
0
100
AcDbLine
 62
7
  6
CONTINUOUS
 10
-169.6198868477
 20
210.3884049797
 11
-169.6198868477
 21
207.8884049797
  0
LINE
  5
28C
100
AcDbEntity
  8
0
100
AcDbLine
 62
7
  6
CONTINUOUS
 10
-169.6198868477
 20
-210.4115950203
 11
-169.6198868477
 21
-207.9115950203
  0
LINE
  5
28D
100
AcDbEntity
  8
0
100
AcDbLine
 62
7
  6
CONTINUOUS
 10
-163.9198868477
 20
-208.6615950203
 11
-163.9198868477
 21
-208.1615950203
  0
LINE
  5
28E
100
AcDbEntity
  8
0
100
AcDbLine
 62
7
  6
CONTINUOUS
 10
-162.7198868477
 20
-208.6615950203
 11
-162.7198868477
 21
-208.1615950203
  0
LINE
  5
28F
100
AcDbEntity
  8
0
100
AcDbLine
 62
253
  6
CONTINUOUS
 10
-162.6198868477
 20
210.5884049797
 11
-162.6198868477
 21
209.8384049797
  0
LINE
  5
290
100
AcDbEntity
  8
0
100
AcDbLine
 62
7
  6
CONTINUOUS
 10
-162.6198868477
 20
-208.6615950203
 11
-162.6198868477
 21
-209.6615950203
  0
LINE
  5
291
100
AcDbEntity
  8
0
100
AcDbLine
 62
7
  6
CONTINUOUS
 10
-162.6198868477
 20
208.8384049797
 11
-162.6198868477
 21
209.8384049797
  0
LINE
  5
292
100
AcDbEntity
  8
0
100
AcDbLine
 62
7
  6
CONTINUOUS
 10
-162.2198868477
 20
208.3384049797
 11
-162.2198868477
 21
207.8884049797
  0
LINE
  5
293
100
AcDbEntity
  8
0
100
AcDbLine
 62
7
  6
CONTINUOUS
 10
-162.2198868477
 20
-208.1615950203
 11
-162.2198868477
 21
-207.9115950203
  0
LINE
  5
294
100
AcDbEntity
  8
0
100
AcDbLine
 62
7
  6
CONTINUOUS
 10
-162.1198868477
 20
208.3510341679
 11
-162.1198868477
 21
207.8884049797
  0
LINE
  5
295
100
AcDbEntity
  8
0
100
AcDbLine
 62
7
  6
CONTINUOUS
 10
-162.1198868477
 20
-208.1599289705
 11
-162.1198868477
 21
-207.9115950203
  0
LINE
  5
296
100
AcDbEntity
  8
0
100
AcDbLine
 62
7
  6
CONTINUOUS
 10
-161.8198868477
 20
208.7884049797
 11
-161.8198868477
 21
207.8884049797
  0
LINE
  5
297
100
AcDbEntity
  8
0
100
AcDbLine
 62
253
  6
CONTINUOUS
 10
-160.9198868477
 20
183.4884049797
 11
-160.9198868477
 21
181.4884049797
  0
LINE
  5
298
100
AcDbEntity
  8
0
100
AcDbLine
 62
253
  6
CONTINUOUS
 10
-160.9198868477
 20
168.4884049797
 11
-160.9198868477
 21
166.4884049797
  0
LINE
  5
299
100
AcDbEntity
  8
0
100
AcDbLine
 62
7
  6
CONTINUOUS
 10
-160.6198868477
 20
208.7884049797
 11
-160.6198868477
 21
207.8884049797
  0
LINE
  5
29A
100
AcDbEntity
  8
0
100
AcDbLine
 62
7
  6
CONTINUOUS
 10
-159.1878360401
 20
183.4884049797
 11
-159.1878360401
 21
181.4884049797
  0
LINE
  5
29B
100
AcDbEntity
  8
0
100
AcDbLine
 62
7
  6
CONTINUOUS
 10
-159.1878360401
 20
168.4884049797
 11
-159.1878360401
 21
166.4884049797
  0
LINE
  5
29C
100
AcDbEntity
  8
0
100
AcDbLine
 62
7
  6
CONTINUOUS
 10
-158.9198868477
 20
183.4884049797
 11
-158.9198868477
 21
181.4884049797
  0
LINE
  5
29D
100
AcDbEntity
  8
0
100
AcDbLine
 62
7
  6
CONTINUOUS
 10
-158.9198868477
 20
168.4884049797
 11
-158.9198868477
 21
166.4884049797
  0
LINE
  5
29E
100
AcDbEntity
  8
SMUSSO
100
AcDbLine
 62
7
  6
CONTINUOUS
 10
-157.9198868477
 20
153.4884049797
 11
-157.9198868477
 21
151.4884049797
  0
LINE
  5
29F
100
AcDbEntity
  8
SMUSSO
100
AcDbLine
 62
7
  6
CONTINUOUS
 10
-157.1198868477
 20
153.4884049797
 11
-157.1198868477
 21
151.4884049797
  0
LINE
  5
2A0
100
AcDbEntity
  8
0
100
AcDbLine
 62
7
  6
CONTINUOUS
 10
-154.7198868477
 20
183.4884049797
 11
-154.7198868477
 21
181.4884049797
  0
LINE
  5
2A1
100
AcDbEntity
  8
0
100
AcDbLine
 62
7
  6
CONTINUOUS
 10
-154.7198868477
 20
168.4884049797
 11
-154.7198868477
 21
166.4884049797
  0
LINE
  5
2A2
100
AcDbEntity
  8
0
100
AcDbLine
 62
7
  6
CONTINUOUS
 10
-154.7198868477
 20
153.4884049797
 11
-154.7198868477
 21
151.4884049797
  0
LINE
  5
2A3
100
AcDbEntity
  8
0
100
AcDbLine
 62
7
  6
CONTINUOUS
 10
184.6801131523
 20
-168.5115950203
 11
129.6801131523
 21
-168.5115950203
  0
LINE
  5
2A4
100
AcDbEntity
  8
0
100
AcDbLine
 62
7
  6
CONTINUOUS
 10
184.6801131523
 20
-166.5115950203
 11
129.6801131523
 21
-166.5115950203
  0
LINE
  5
2A5
100
AcDbEntity
  8
0
100
AcDbLine
 62
7
  6
CONTINUOUS
 10
-117.7144815343
 20
-163.0088920233
 11
-104.1198868477
 21
-206.5115950203
  0
LINE
  5
2A6
100
AcDbEntity
  8
0
100
AcDbLine
 62
7
  6
CONTINUOUS
 10
-153.7198868477
 20
183.4884049797
 11
-153.7198868477
 21
181.4884049797
  0
LINE
  5
2A7
100
AcDbEntity
  8
0
100
AcDbLine
 62
7
  6
CONTINUOUS
 10
-153.7198868477
 20
168.4884049797
 11
-153.7198868477
 21
166.4884049797
  0
LINE
  5
2A8
100
AcDbEntity
  8
0
100
AcDbLine
 62
7
  6
CONTINUOUS
 10
-153.7198868477
 20
153.4884049797
 11
-153.7198868477
 21
151.4884049797
  0
LINE
  5
2A9
100
AcDbEntity
  8
0
100
AcDbLine
 62
7
  6
CONTINUOUS
 10
184.6801131523
 20
-153.5115950203
 11
130.6801131523
 21
-153.5115950203
  0
LINE
  5
2AA
100
AcDbEntity
  8
0
100
AcDbLine
 62
7
  6
CONTINUOUS
 10
184.6801131523
 20
-151.5115950203
 11
130.6801131523
 21
-151.5115950203
  0
LINE
  5
2AB
100
AcDbEntity
  8
0
100
AcDbLine
 62
7
  6
CONTINUOUS
 10
151.4165937567
 20
-139.3108741898
 11
153.0988560001
 21
-139.3108741898
  0
LINE
  5
2AC
100
AcDbEntity
  8
0
100
AcDbLine
 62
7
  6
CONTINUOUS
 10
164.7390281567
 20
-139.230024197
 11
166.4206052307
 21
-139.230024197
  0
LINE
  5
2AD
100
AcDbEntity
  8
0
100
AcDbLine
 62
7
  6
CONTINUOUS
 10
158.2898708953
 20
-138.5523916306
 11
159.9714479693
 21
-138.5523916306
  0
LWPOLYLINE
  5
2AE
100
AcDbEntity
  8
0
100
AcDbPolyline
 62
7
  6
CONTINUOUS
 90
30
 70
0
 10
-173.7771502914
 20
166.4884049797
 10
-173.7805909655
 20
166.5067484812
 10
-173.7919556524
 20
166.5449854875
 10
-173.8068042405
 20
166.5812560051
 10
-173.8244980068
 20
166.6148765169
 10
-173.8445749194
 20
166.645753211
 10
-173.8666744702
 20
166.673927354
 10
-173.8902066952
 20
166.6991991241
 10
-173.9147814033
 20
166.7217354053
 10
-173.9401890378
 20
166.7419178804
 10
-173.9661379608
 20
166.7599854817
 10
-173.9924023467
 20
166.7761810023
 10
-174.0189931572
 20
166.7908356971
 10
-174.0459947564
 20
166.8042437313
 10
-174.073261745
 20
166.8165380575
 10
-174.1009344361
 20
166.8279521963
 10
-174.1295119566
 20
166.8388021464
 10
-174.1590682559
 20
166.8491856992
 10
-174.1896263631
 20
166.8591697746
 10
-174.2215990332
 20
166.8689278662
 10
-174.2551018297
 20
166.8785154953
 10
-174.2901441133
 20
166.8879523424
 10
-174.3269612864
 20
166.8973132569
 10
-174.3656254558
 20
166.9066221047
 10
-174.4061738913
 20
166.9158924725
 10
-174.4487688318
 20
166.9251637263
 10
-174.493473966
 20
166.9344496564
 10
-174.5403183903
 20
166.943756232
 10
-174.5893951704
 20
166.9531014771
 10
-174.6198868477
 20
166.9586777051
  0
LINE
  5
2AF
100
AcDbEntity
  8
0
100
AcDbLine
 62
7
  6
CONTINUOUS
 10
-130.1198868477
 20
151.4884049797
 11
-130.1198868477
 21
153.4884049797
  0
LINE
  5
2B0
100
AcDbEntity
  8
0
100
AcDbLine
 62
7
  6
CONTINUOUS
 10
-129.1198868477
 20
166.4884049797
 11
-129.1198868477
 21
168.4884049797
  0
LINE
  5
2B1
100
AcDbEntity
  8
0
100
AcDbLine
 62
7
  6
CONTINUOUS
 10
-128.1198868477
 20
181.4884049797
 11
-128.1198868477
 21
183.4884049797
  0
LINE
  5
2B2
100
AcDbEntity
  8
0
100
AcDbLine
 62
7
  6
CONTINUOUS
 10
-104.1198868477
 20
206.4884049797
 11
-126.2572306646
 21
-88.381014662
  0
LINE
  5
2B3
100
AcDbEntity
  8
0
100
AcDbLine
 62
7
  6
CONTINUOUS
 10
153.0988560001
 20
-129.1957178924
 11
158.2898708953
 21
-129.1957178924
  0
LINE
  5
2B4
100
AcDbEntity
  8
0
100
AcDbLine
 62
7
  6
CONTINUOUS
 10
159.9714479693
 20
-129.1957178924
 11
164.7390281567
 21
-129.1957178924
  0
LINE
  5
2B5
100
AcDbEntity
  8
0
100
AcDbLine
 62
7
  6
CONTINUOUS
 10
166.4206052307
 20
-126.801050734
 11
151.4165937567
 21
-126.801050734
  0
LINE
  5
2B6
100
AcDbEntity
  8
0
100
AcDbLine
 62
7
  6
CONTINUOUS
 10
164.7390281567
 20
-122.8914739655
 11
166.4206052307
 21
-122.8914739655
  0
LINE
  5
2B7
100
AcDbEntity
  8
0
100
AcDbLine
 62
7
  6
CONTINUOUS
 10
158.2898708953
 20
-121.7287414425
 11
159.9714479693
 21
-121.7287414425
  0
LINE
  5
2B8
100
AcDbEntity
  8
0
100
AcDbLine
 62
7
  6
CONTINUOUS
 10
-104.1198868477
 20
207.8884049797
 11
-104.1198868477
 21
206.4884049797
  0
LINE
  5
2B9
100
AcDbEntity
  8
0
100
AcDbLine
 62
7
  6
CONTINUOUS
 10
-104.1198868477
 20
-206.5115950203
 11
-104.1198868477
 21
-207.9115950203
  0
LWPOLYLINE
  5
2BA
100
AcDbEntity
  8
0
100
AcDbPolyline
 62
7
  6
CONTINUOUS
 90
19
 70
0
 10
162.0290117681
 20
-89.5987487694
 10
162.5270859578
 20
-89.5508371629
 10
162.9957177457
 20
-89.4652386142
 10
163.4349071316
 20
-89.3419531234
 10
163.8426547932
 20
-89.1813550427
 10
164.2209600528
 20
-88.9830700198
 10
164.5758208778
 20
-88.7459749983
 10
164.909640875
 20
-88.4707683833
 10
165.2200164375
 20
-88.1567517696
 10
165.5057347121
 20
-87.800706885
 10
165.7686837358
 20
-87.399070251
 10
166.0069754715
 20
-86.955405346
 10
166.2137329557
 20
-86.4771843334
 10
166.3866590406
 20
-85.9643165181
 10
166.5280508739
 20
-85.4168925952
 10
166.6379229351
 20
-84.8426568133
 10
166.7162800507
 20
-84.2441905887
 10
166.7631173942
 20
-83.6189125051
 10
166.7784349656
 20
-82.9668225626
  0
LINE
  5
2BB
100
AcDbEntity
  8
0
100
AcDbLine
 62
7
  6
CONTINUOUS
 10
151.4165937567
 20
-113.4566909122
 11
158.2898708953
 21
-113.4566909122
  0
LINE
  5
2BC
100
AcDbEntity
  8
0
100
AcDbLine
 62
7
  6
CONTINUOUS
 10
159.9714479693
 20
-113.4566909122
 11
164.7390281567
 21
-113.4566909122
  0
LINE
  5
2BD
100
AcDbEntity
  8
0
100
AcDbLine
 62
7
  6
CONTINUOUS
 10
166.4206052307
 20
-111.0620237538
 11
151.4165937567
 21
-111.0620237538
  0
LWPOLYLINE
  5
2BE
100
AcDbEntity
  8
0
100
AcDbPolyline
 62
7
  6
CONTINUOUS
 90
19
 70
0
 10
156.3558088864
 20
-75.8799438541
 10
155.8161208005
 20
-75.9104366021
 10
155.3051539062
 20
-75.9874488234
 10
154.8229082036
 20
-76.1109805181
 10
154.3702258297
 20
-76.2810186109
 10
153.9462646475
 20
-76.497576177
 10
153.5484982453
 20
-76.7606924426
 10
153.1758213306
 20
-77.0701017487
 10
152.8293391959
 20
-77.4260697542
 10
152.5098413082
 20
-77.8294326625
 10
152.2151674466
 20
-78.2830741085
 10
151.9474778319
 20
-78.7841104573
 10
151.7140425935
 20
-79.324727007
 10
151.5168736964
 20
-79.9047382668
 10
151.3539591757
 20
-80.5243297275
 10
151.2265332659
 20
-81.1762431606
 10
151.1350073787
 20
-81.8580591564
 10
151.0789701024
 20
-82.5721971245
 10
151.0584214371
 20
-83.318657065
  0
LWPOLYLINE
  5
2BF
100
AcDbEntity
  8
0
100
AcDbPolyline
 62
7
  6
CONTINUOUS
 90
19
 70
0
 10
155.473139368
 20
-87.9608512466
 10
155.1685543844
 20
-87.9407955259
 10
154.8806187207
 20
-87.8883883287
 10
154.6093323767
 20
-87.803629655
 10
154.3532713503
 20
-87.6856500529
 10
154.1138596436
 20
-87.5353189742
 10
153.8953692634
 20
-87.3552447748
 10
153.7000846959
 20
-87.1442996483
 10
153.525721455
 20
-86.9036114011
 10
153.3696980889
 20
-86.6391718089
 10
153.231369329
 20
-86.3509217226
 10
153.1113804439
 20
-86.0389202914
 10
153.009085788
 20
-85.7093367378
 10
152.9251804836
 20
-85.3633940528
 10
152.8589694086
 20
-84.9998692454
 10
152.8077215504
 20
-84.6212625664
 10
152.7705265717
 20
-84.2284074325
 10
152.74829481
 20
-83.8204704268
 10
152.7410262652
 20
-83.3974515494
  0
LINE
  5
2C0
100
AcDbEntity
  8
0
100
AcDbLine
 62
7
  6
CONTINUOUS
 10
164.7390281567
 20
-73.6608513622
 11
166.4206052307
 21
-73.6608513622
  0
LINE
  5
2C1
100
AcDbEntity
  8
0
100
AcDbLine
 62
7
  6
CONTINUOUS
 10
151.4165937567
 20
-67.6582532769
 11
164.7390281567
 21
-67.6582532769
  0
LINE
  5
2C2
100
AcDbEntity
  8
0
100
AcDbLine
 62
7
  6
CONTINUOUS
 10
164.7390281567
 20
-65.2637574109
 11
151.4165937567
 21
-65.2637574109
  0
LINE
  5
2C3
100
AcDbEntity
  8
0
100
AcDbLine
 62
7
  6
CONTINUOUS
 10
166.4206052307
 20
-59.2592751097
 11
164.7390281567
 21
-59.2592751097
  0
LINE
  5
2C4
100
AcDbEntity
  8
0
100
AcDbLine
 62
7
  6
CONTINUOUS
 10
151.4165937567
 20
-57.0156878106
 11
153.0988560001
 21
-57.0156878106
  0
LINE
  5
2C5
100
AcDbEntity
  8
0
100
AcDbLine
 62
7
  6
CONTINUOUS
 10
164.7390281567
 20
-56.938263665
 11
166.4206052307
 21
-56.938263665
  0
LWPOLYLINE
  5
2C6
100
AcDbEntity
  8
0
100
AcDbPolyline
 62
7
  6
CONTINUOUS
 90
34
 70
0
 10
162.5348380999
 20
-78.8318250516
 10
162.8175039877
 20
-78.8481715845
 10
163.0857456609
 20
-78.8945536138
 10
163.3395631197
 20
-78.9709711397
 10
163.580023011
 20
-79.0773939367
 10
163.8060586877
 20
-79.2138522302
 10
164.0144702089
 20
-79.3804366962
 10
164.2047142793
 20
-79.5795589826
 10
164.3773341942
 20
-79.8088074416
 10
164.5307598987
 20
-80.0610378057
 10
164.6640963919
 20
-80.3357941244
 10
164.7782386747
 20
-80.6335323483
 10
164.8743016953
 20
-80.9484760616
 10
164.9519619846
 20
-81.2796422459
 10
165.0115430117
 20
-81.6280139196
 10
165.0551301324
 20
-81.9907637225
 10
165.0847118995
 20
-82.368331651
 10
165.0982997602
 20
-82.7602777086
 10
165.0920134115
 20
-83.1624545453
 10
165.0668688961
 20
-83.5812691761
 10
165.0218501714
 20
-84.010314586
 10
164.9500288063
 20
-84.426222379
 10
164.8489232602
 20
-84.8271358949
 10
164.7210150738
 20
-85.214911794
 10
164.5668204384
 20
-85.5717516616
 10
164.3856828521
 20
-85.8918425924
 10
164.1782588169
 20
-86.1809974917
 10
163.9470340302
 20
-86.4388566609
 10
163.6941640639
 20
-86.6652171587
 10
163.4174933461
 20
-86.8602819265
 10
163.1130408594
 20
-87.0243000899
 10
162.7794795979
 20
-87.1573546906
 10
162.4181365675
 20
-87.2593626868
 10
162.0290117681
 20
-87.3303240785
  0
LINE
  5
2C7
100
AcDbEntity
  8
0
100
AcDbLine
 62
7
  6
CONTINUOUS
 10
164.3096361523
 20
95.7380176713
 11
149.3050101523
 21
90.9799156713
  0
LINE
  5
2C8
100
AcDbEntity
  8
0
100
AcDbLine
 62
7
  6
CONTINUOUS
 10
158.2898708953
 20
-56.2587468827
 11
159.9714479693
 21
-56.2587468827
  0
LINE
  5
2C9
100
AcDbEntity
  8
0
100
AcDbLine
 62
7
  6
CONTINUOUS
 10
153.0988560001
 20
-46.9034434833
 11
158.2898708953
 21
-46.9034434833
  0
LINE
  5
2CA
100
AcDbEntity
  8
0
100
AcDbLine
 62
7
  6
CONTINUOUS
 10
159.9714479693
 20
-46.9034434833
 11
164.7390281567
 21
-46.9034434833
  0
LINE
  5
2CB
100
AcDbEntity
  8
0
100
AcDbLine
 62
7
  6
CONTINUOUS
 10
166.4206052307
 20
-44.5058643548
 11
151.4165937567
 21
-44.5058643548
  0
LINE
  5
2CC
100
AcDbEntity
  8
0
100
AcDbLine
 62
7
  6
CONTINUOUS
 10
151.4165937567
 20
-39.3626400274
 11
166.4206052307
 21
-39.3626400274
  0
LINE
  5
2CD
100
AcDbEntity
  8
0
100
AcDbLine
 62
7
  6
CONTINUOUS
 10
166.4206052307
 20
-37.0895904428
 11
154.2549081211
 21
-37.0895904428
  0
LINE
  5
2CE
100
AcDbEntity
  8
0
100
AcDbLine
 62
7
  6
CONTINUOUS
 10
151.4165937567
 20
-27.280876173
 11
163.4582751994
 21
-27.280876173
  0
LINE
  5
2CF
100
AcDbEntity
  8
0
100
AcDbLine
 62
7
  6
CONTINUOUS
 10
166.4206052307
 20
-25.0115950203
 11
151.4165937567
 21
-25.0115950203
  0
LINE
  5
2D0
100
AcDbEntity
  8
0
100
AcDbLine
 62
7
  6
CONTINUOUS
 10
166.6801131523
 20
-98.3903290201
 11
151.4671250022
 21
-92.4437435358
  0
LINE
  5
2D1
100
AcDbEntity
  8
0
100
AcDbLine
 62
7
  6
CONTINUOUS
 10
156.8490542425
 20
-99.1591325073
 11
159.5370505506
 21
-100.2303515248
  0
LINE
  5
2D2
100
AcDbEntity
  8
0
100
AcDbLine
 62
7
  6
CONTINUOUS
 10
151.4671250022
 20
-97.0141662197
 11
156.8490542425
 21
-99.1591325073
  0
LINE
  5
2D3
100
AcDbEntity
  8
0
100
AcDbLine
 62
7
  6
CONTINUOUS
 10
159.1037891523
 20
73.5817166713
 11
149.3050101523
 21
69.9071966713
  0
LINE
  5
2D4
100
AcDbEntity
  8
0
100
AcDbLine
 62
7
  6
CONTINUOUS
 10
155.9781461523
 20
69.6720386713
 11
164.3096361523
 21
72.7696866713
  0
LINE
  5
2D5
100
AcDbEntity
  8
0
100
AcDbLine
 62
7
  6
CONTINUOUS
 10
149.3050102725
 20
48.9464582188
 11
164.3096357184
 21
53.5491877885
  0
LWPOLYLINE
  5
2D6
100
AcDbEntity
  8
0
100
AcDbPolyline
 62
7
  6
CONTINUOUS
 90
3
 70
0
 10
149.3050102725
 20
37.112442616
 10
150.1924008006
 20
37.3466177192
 10
150.6393585982
 20
37.4639535375
  0
LWPOLYLINE
  5
2D7
100
AcDbEntity
  8
0
100
AcDbPolyline
 62
7
  6
CONTINUOUS
 90
6
 70
0
 10
150.6393585982
 20
37.4639535375
 10
151.5397636801
 20
37.698260034
 10
151.9932821245
 20
37.8169540595
 10
152.4490467513
 20
37.9375369436
 10
152.9070397704
 20
38.0595778494
 10
153.3672611818
 20
38.183076777
  0
LWPOLYLINE
  5
2D8
100
AcDbEntity
  8
0
100
AcDbPolyline
 62
7
  6
CONTINUOUS
 90
13
 70
0
 10
153.3672611818
 20
38.183076777
 10
153.7052501754
 20
38.2668654167
 10
154.033048005
 20
38.3630848783
 10
154.3506546707
 20
38.4717351617
 10
154.6627569737
 20
38.5926990095
 10
154.9646681127
 20
38.7260936791
 10
155.2423276836
 20
38.8722709428
 10
155.4933338696
 20
39.0324616713
 10
155.7200884875
 20
39.2054349939
 10
155.9157365836
 20
39.38785007
 10
156.0779931734
 20
39.5785932863
 10
156.2091432414
 20
39.7787782562
 10
156.3091867876
 20
39.9884049797
  0
LINE
  5
2D9
100
AcDbEntity
  8
0
100
AcDbLine
 62
7
  6
CONTINUOUS
 10
146.6801131523
 20
-10.6615950203
 11
148.6801131523
 21
-10.6615950203
  0
LINE
  5
2DA
100
AcDbEntity
  8
0
100
AcDbLine
 62
7
  6
CONTINUOUS
 10
146.6801131523
 20
-6.5115950203
 11
148.6801131523
 21
-6.5115950203
  0
LINE
  5
2DB
100
AcDbEntity
  8
0
100
AcDbLine
 62
7
  6
CONTINUOUS
 10
146.6301131523
 20
-5.6615950203
 11
146.6801131523
 21
-5.6615950203
  0
LINE
  5
2DC
100
AcDbEntity
  8
0
100
AcDbLine
 62
7
  6
CONTINUOUS
 10
148.6801131523
 20
-5.6615950203
 11
148.7301131523
 21
-5.6615950203
  0
LINE
  5
2DD
100
AcDbEntity
  8
0
100
AcDbLine
 62
7
  6
CONTINUOUS
 10
146.6801131523
 20
-3.5115950203
 11
148.6801131523
 21
-3.5115950203
  0
LINE
  5
2DE
100
AcDbEntity
  8
0
100
AcDbLine
 62
7
  6
CONTINUOUS
 10
148.7301131523
 20
2.3384049797
 11
148.6801131523
 21
2.3384049797
  0
LINE
  5
2DF
100
AcDbEntity
  8
0
100
AcDbLine
 62
7
  6
CONTINUOUS
 10
146.6801131523
 20
2.3384049797
 11
146.6301131523
 21
2.3384049797
  0
LWPOLYLINE
  5
2E0
100
AcDbEntity
  8
0
100
AcDbPolyline
 62
7
  6
CONTINUOUS
 90
10
 70
0
 10
153.8540244169
 20
41.4943615449
 10
153.3824738524
 20
41.3334629628
 10
152.9018210787
 20
41.1764769395
 10
152.4120660957
 20
41.0234034753
 10
151.9123711084
 20
40.876528528
 10
151.4035739118
 20
40.7335661397
 10
150.8881878914
 20
40.5876584361
 10
150.3670508422
 20
40.4365194591
 10
149.8393249693
 20
40.2824351669
 10
149.3050102725
 20
40.1254055595
  0
LINE
  5
2E1
100
AcDbEntity
  8
0
100
AcDbLine
 62
7
  6
CONTINUOUS
 10
152.300301366
 20
53.0585752396
 11
149.3050102725
 21
52.2470698893
  0
LINE
  5
2E2
100
AcDbEntity
  8
0
100
AcDbLine
 62
7
  6
CONTINUOUS
 10
160.1875454754
 20
55.1228572841
 11
154.6188130944
 21
53.6839137738
  0
LINE
  5
2E3
100
AcDbEntity
  8
0
100
AcDbLine
 62
7
  6
CONTINUOUS
 10
146.6801131523
 20
3.4884049797
 11
148.6801131523
 21
3.4884049797
  0
LINE
  5
2E4
100
AcDbEntity
  8
0
100
AcDbLine
 62
7
  6
CONTINUOUS
 10
146.6801131523
 20
6.4884049797
 11
148.6801131523
 21
6.4884049797
  0
LINE
  5
2E5
100
AcDbEntity
  8
0
100
AcDbLine
 62
7
  6
CONTINUOUS
 10
146.6801131523
 20
10.6384049797
 11
148.6801131523
 21
10.6384049797
  0
LINE
  5
2E6
100
AcDbEntity
  8
0
100
AcDbLine
 62
7
  6
CONTINUOUS
 10
158.9520906936
 20
117.5900475923
 11
152.5179625681
 21
110.5174582717
  0
LINE
  5
2E7
100
AcDbEntity
  8
0
100
AcDbLine
 62
7
  6
CONTINUOUS
 10
153.1553739504
 20
110.5150087084
 11
159.1708017086
 21
117.1027594508
  0
LINE
  5
2E8
100
AcDbEntity
  8
0
100
AcDbLine
 62
7
  6
CONTINUOUS
 10
149.6418252357
 20
110.5379296227
 11
156.0932752735
 21
117.5860233096
  0
LINE
  5
2E9
100
AcDbEntity
  8
0
100
AcDbLine
 62
7
  6
CONTINUOUS
 10
156.3091867876
 20
39.9884049797
 11
156.3984208817
 21
39.9884049797
  0
LINE
  5
2EA
100
AcDbEntity
  8
0
100
AcDbLine
 62
7
  6
CONTINUOUS
 10
183.0928337086
 20
208.5462718985
 11
183.2801131523
 21
208.8706494102
  0
LINE
  5
2EB
100
AcDbEntity
  8
0
100
AcDbLine
 62
7
  6
CONTINUOUS
 10
183.7687651437
 20
209.7170194865
 11
183.8245178993
 21
209.8135860918
  0
LINE
  5
2EC
100
AcDbEntity
  8
0
100
AcDbLine
 62
7
  6
CONTINUOUS
 10
153.9819261523
 20
89.4750086713
 11
164.3096361523
 21
92.3348746713
  0
LINE
  5
2ED
100
AcDbEntity
  8
0
100
AcDbLine
 62
7
  6
CONTINUOUS
 10
149.3050101523
 20
62.0372746713
 11
164.3096361523
 21
63.4408746713
  0
LINE
  5
2EE
100
AcDbEntity
  8
0
100
AcDbLine
 62
7
  6
CONTINUOUS
 10
159.0610961523
 20
65.7448636713
 11
149.3050101523
 21
65.1006286713
  0
LINE
  5
2EF
100
AcDbEntity
  8
0
100
AcDbLine
 62
7
  6
CONTINUOUS
 10
149.3050102725
 20
44.9209507601
 11
155.1783633553
 21
44.9209507601
  0
LINE
  5
2F0
100
AcDbEntity
  8
0
100
AcDbLine
 62
7
  6
CONTINUOUS
 10
157.6345755388
 20
45.0247072656
 11
161.752816468
 21
45.0247072656
  0
LINE
  5
2F1
100
AcDbEntity
  8
0
100
AcDbLine
 62
7
  6
CONTINUOUS
 10
164.1346669064
 20
48.0399448036
 11
149.3050102725
 21
48.0399448036
  0
LWPOLYLINE
  5
2F2
100
AcDbEntity
  8
0
100
AcDbPolyline
 62
7
  6
CONTINUOUS
 90
16
 70
0
 10
159.9651601153
 20
40.8020099557
 10
159.6702973085
 20
40.8179940621
 10
159.3923112704
 20
40.857746148
 10
159.1312020009
 20
40.9212662136
 10
158.8843804307
 20
41.0102060385
 10
158.6544356292
 20
41.1229138429
 10
158.4491348043
 20
41.2544342879
 10
158.271862499
 20
41.4030845205
 10
158.1192341703
 20
41.5705473936
 10
157.9888633973
 20
41.7569161272
 10
157.8812398561
 20
41.9635935282
 10
157.7958738707
 20
42.1891767896
 10
157.7289099912
 20
42.42955071
 10
157.6790630678
 20
42.6833435559
 10
157.6476182503
 20
42.9519270608
 10
157.6345755388
 20
43.2353012248
  0
LINE
  5
2F3
100
AcDbEntity
  8
0
100
AcDbLine
 62
7
  6
CONTINUOUS
 10
184.2801131523
 20
-210.4115950203
 11
183.775178183
 21
-209.537021999
  0
LINE
  5
2F4
100
AcDbEntity
  8
0
100
AcDbLine
 62
7
  6
CONTINUOUS
 10
183.2801131523
 20
-208.6795442128
 11
182.9801131523
 21
-208.1599289705
  0
LINE
  5
2F5
100
AcDbEntity
  8
0
100
AcDbLine
 62
7
  6
CONTINUOUS
 10
149.3050101523
 20
79.1042576713
 11
164.3096361523
 21
79.1042576713
  0
LWPOLYLINE
  5
2F6
100
AcDbEntity
  8
0
100
AcDbPolyline
 62
7
  6
CONTINUOUS
 90
16
 70
0
 10
162.9637756162
 20
103.366832861
 10
163.1334927951
 20
103.3749275602
 10
163.2931860046
 20
103.3947585642
 10
163.4428552447
 20
103.4263258731
 10
163.5835407755
 20
103.4695248565
 10
163.7142023369
 20
103.5244601448
 10
163.8317191484
 20
103.5914456286
 10
163.9351487468
 20
103.6703687456
 10
164.0254335953
 20
103.7613420582
 10
164.1022803035
 20
103.8650171446
 10
164.1649034903
 20
103.9825924181
 10
164.2140885367
 20
104.1128694654
 10
164.2518981946
 20
104.2529046259
 10
164.2790200481
 20
104.4017166792
 10
164.2947665131
 20
104.5602868456
 10
164.2991375897
 20
104.7286151252
  0
LINE
  5
2F7
100
AcDbEntity
  8
0
100
AcDbLine
 62
7
  6
CONTINUOUS
 10
164.3096361523
 20
82.2358496713
 11
149.3050101523
 21
82.2358496713
  0
LINE
  5
2F8
100
AcDbEntity
  8
0
100
AcDbLine
 62
7
  6
CONTINUOUS
 10
146.5774211523
 20
100.3508956713
 11
167.1689761523
 21
100.3508956713
  0
LINE
  5
2F9
100
AcDbEntity
  8
0
100
AcDbLine
 62
7
  6
CONTINUOUS
 10
166.6801131523
 20
100.8388836713
 11
147.0645341523
 21
100.8388836713
  0
LINE
  5
2FA
100
AcDbEntity
  8
0
100
AcDbLine
 62
7
  6
CONTINUOUS
 10
149.3050101523
 20
74.2574466713
 11
159.1037891523
 21
73.5817166713
  0
LINE
  5
2FB
100
AcDbEntity
  8
0
100
AcDbLine
 62
7
  6
CONTINUOUS
 10
164.3096361523
 20
75.8986536713
 11
149.3050101523
 21
77.2539626713
  0
LINE
  5
2FC
100
AcDbEntity
  8
0
100
AcDbLine
 62
7
  6
CONTINUOUS
 10
154.6188130944
 20
56.6820043682
 11
160.1875454754
 21
55.1228572841
  0
LINE
  5
2FD
100
AcDbEntity
  8
0
100
AcDbLine
 62
7
  6
CONTINUOUS
 10
149.3050102725
 20
58.1883108712
 11
152.300301366
 21
57.3234400332
  0
LINE
  5
2FE
100
AcDbEntity
  8
0
100
AcDbLine
 62
7
  6
CONTINUOUS
 10
104.6801131523
 20
-207.9115950203
 11
104.6801131523
 21
-206.5115950203
  0
LINE
  5
2FF
100
AcDbEntity
  8
0
100
AcDbLine
 62
7
  6
CONTINUOUS
 10
104.6801131523
 20
206.4884049797
 11
104.6801131523
 21
207.8884049797
  0
LINE
  5
300
100
AcDbEntity
  8
0
100
AcDbLine
 62
7
  6
CONTINUOUS
 10
104.6801131523
 20
-206.5115950203
 11
126.8174569693
 21
88.3578246214
  0
LWPOLYLINE
  5
301
100
AcDbEntity
  8
0
100
AcDbPolyline
 62
7
  6
CONTINUOUS
 90
13
 70
0
 10
150.6477209362
 20
117.5872480913
 10
150.442462002
 20
117.5746102525
 10
150.2536824554
 20
117.5424952926
 10
150.0813822965
 20
117.4909032117
 10
149.9252091475
 20
117.4194570758
 10
149.7855153862
 20
117.3285338188
 10
149.6633581454
 20
117.2192642428
 10
149.5590374003
 20
117.0908898127
 10
149.4722531757
 20
116.9441690634
 10
149.4031626797
 20
116.7825084022
 10
149.351818315
 20
116.6070432979
 10
149.318167679
 20
116.4166382817
 10
149.3022107715
 20
116.2112933534
  0
LINE
  5
302
100
AcDbEntity
  8
0
100
AcDbLine
 62
7
  6
CONTINUOUS
 10
162.9637756162
 20
103.8548208778
 11
159.1708017086
 21
103.8507965951
  0
LINE
  5
303
100
AcDbEntity
  8
0
100
AcDbLine
 62
7
  6
CONTINUOUS
 10
150.6541947822
 20
103.3654331105
 11
156.0701793903
 21
103.3654331105
  0
LINE
  5
304
100
AcDbEntity
  8
0
100
AcDbLine
 62
7
  6
CONTINUOUS
 10
158.9468416292
 20
103.366832861
 11
162.9637756162
 21
103.366832861
  0
LINE
  5
305
100
AcDbEntity
  8
0
100
AcDbLine
 62
7
  6
CONTINUOUS
 10
159.1708017086
 20
117.1027594508
 11
162.9637756162
 21
117.1027594508
  0
LINE
  5
306
100
AcDbEntity
  8
0
100
AcDbLine
 62
7
  6
CONTINUOUS
 10
163.114773701
 20
117.5900475923
 11
158.9520906936
 21
117.5900475923
  0
LINE
  5
307
100
AcDbEntity
  8
0
100
AcDbLine
 62
7
  6
CONTINUOUS
 10
147.0645341523
 20
120.1283196713
 11
166.6801131523
 21
120.1283196713
  0
LINE
  5
308
100
AcDbEntity
  8
0
100
AcDbLine
 62
7
  6
CONTINUOUS
 10
167.1654771523
 20
120.6159586713
 11
146.5733971523
 21
120.6159586713
  0
LINE
  5
309
100
AcDbEntity
  8
0
100
AcDbLine
 62
7
  6
CONTINUOUS
 10
156.0932752735
 20
117.5860233096
 11
150.6477209362
 21
117.5872480913
  0
LINE
  5
30A
100
AcDbEntity
  8
0
100
AcDbLine
 62
7
  6
CONTINUOUS
 10
164.3096357184
 20
56.5791227068
 11
149.3050102725
 21
61.2854338132
  0
LINE
  5
30B
100
AcDbEntity
  8
0
100
AcDbLine
 62
7
  6
CONTINUOUS
 10
164.3096361523
 20
66.5400966713
 11
155.9781461523
 21
69.6720386713
  0
LINE
  5
30C
100
AcDbEntity
  8
0
100
AcDbLine
 62
7
  6
CONTINUOUS
 10
149.3050101523
 20
69.4690746713
 11
159.0610961523
 21
65.7448636713
  0
LINE
  5
30D
100
AcDbEntity
  8
0
100
AcDbLine
 62
7
  6
CONTINUOUS
 10
128.6801131523
 20
-181.5115950203
 11
128.6801131523
 21
-183.5115950203
  0
LINE
  5
30E
100
AcDbEntity
  8
0
100
AcDbLine
 62
7
  6
CONTINUOUS
 10
129.6801131523
 20
-166.5115950203
 11
129.6801131523
 21
-168.5115950203
  0
LINE
  5
30F
100
AcDbEntity
  8
0
100
AcDbLine
 62
7
  6
CONTINUOUS
 10
130.6801131523
 20
-151.5115950203
 11
130.6801131523
 21
-153.5115950203
  0
LINE
  5
310
100
AcDbEntity
  8
0
100
AcDbLine
 62
7
  6
CONTINUOUS
 10
163.4582751994
 20
-27.3312361261
 11
151.4165937567
 21
-36.7399827411
  0
LINE
  5
311
100
AcDbEntity
  8
0
100
AcDbLine
 62
7
  6
CONTINUOUS
 10
154.2549081211
 20
-37.0419711674
 11
166.4206052307
 21
-27.5581984999
  0
LWPOLYLINE
  5
312
100
AcDbEntity
  8
0
100
AcDbPolyline
 62
7
  6
CONTINUOUS
 90
13
 70
0
 10
162.9637756162
 20
117.1027594508
 10
163.0943631696
 20
117.0922451051
 10
163.2152238149
 20
117.070014261
 10
163.3263575518
 20
117.0360669184
 10
163.4287636882
 20
116.9902430987
 10
163.5214429163
 20
116.9327027805
 10
163.6013973132
 20
116.8639258993
 10
163.6674361697
 20
116.7835110223
 10
163.7207501951
 20
116.6918595824
 10
163.7619135933
 20
116.5906558134
 10
163.7911177659
 20
116.4804611269
 10
163.8081713114
 20
116.3607141113
 10
163.8130742298
 20
116.2314147668
  0
LWPOLYLINE
  5
313
100
AcDbEntity
  8
0
100
AcDbPolyline
 62
7
  6
CONTINUOUS
 90
3
 70
0
 10
-179.7000302338
 20
166.8929539158
 10
-179.6520764408
 20
166.883813851
 10
-179.6198868477
 20
166.8779570465
  0
LINE
  5
314
100
AcDbEntity
  8
0
100
AcDbLine
 62
7
  6
CONTINUOUS
 10
164.3096361523
 20
86.5271346713
 11
153.9819261523
 21
89.4750086713
  0
LINE
  5
315
100
AcDbEntity
  8
0
100
AcDbLine
 62
7
  6
CONTINUOUS
 10
149.3050101523
 20
88.2211826713
 11
164.3096361523
 21
83.3979926713
  0
LWPOLYLINE
  5
316
100
AcDbEntity
  8
0
100
AcDbPolyline
 62
7
  6
CONTINUOUS
 90
13
 70
0
 10
149.3022107715
 20
104.7405130044
 10
149.3191797541
 20
104.5382140382
 10
149.3544757989
 20
104.3508336576
 10
149.408098906
 20
104.1783718626
 10
149.4804852744
 20
104.0202454889
 10
149.5711987051
 20
103.8770377008
 10
149.6789306008
 20
103.7504979911
 10
149.804203939
 20
103.6404449037
 10
149.9464957423
 20
103.5470598947
 10
150.1029284813
 20
103.4726368248
 10
150.2725429793
 20
103.4179403142
 10
150.456298413
 20
103.3822057428
 10
150.6541947822
 20
103.3654331105
  0
LWPOLYLINE
  5
317
100
AcDbEntity
  8
0
100
AcDbPolyline
 62
7
  6
CONTINUOUS
 90
37
 70
0
 10
151.0584214371
 20
-83.318657065
 10
151.0804123093
 20
-84.001941149
 10
151.1319239705
 20
-84.6567827433
 10
151.2129564205
 20
-85.2831818478
 10
151.3245279173
 20
-85.8826778871
 10
151.4656202029
 20
-86.4537314365
 10
151.6331785042
 20
-86.9917242226
 10
151.8270615833
 20
-87.4971423047
 10
152.0474106781
 20
-87.9694996233
 10
152.2915947282
 20
-88.4027197271
 10
152.5607283347
 20
-88.7970177199
 10
152.8536968966
 20
-89.1521784978
 10
153.1645255496
 20
-89.461480298
 10
153.4915514918
 20
-89.7221557324
 10
153.8364375251
 20
-89.9369721891
 10
154.1981971913
 20
-90.1075100696
 10
154.5820581667
 20
-90.2336606738
 10
154.982792775
 20
-90.3155327019
 10
155.3837315287
 20
-90.3550326556
 10
155.7860623667
 20
-90.352063145
 10
156.1885973501
 20
-90.30672156
 10
156.5711031755
 20
-90.2212065734
 10
156.9269344907
 20
-90.0964694687
 10
157.2627366478
 20
-89.9315589624
 10
157.5782124002
 20
-89.7258198763
 10
157.8734038825
 20
-89.4776292401
 10
158.1482689601
 20
-89.1886100241
 10
158.4023839819
 20
-88.8629759619
 10
158.6349975084
 20
-88.4990837099
 10
158.8468609791
 20
-88.0985766116
 10
159.0398050614
 20
-87.6705984315
 10
159.2122348388
 20
-87.2158639792
 10
159.3657452279
 20
-86.7336584449
 10
159.506951646
 20
-86.2309811642
 10
159.6380592322
 20
-85.7101652487
 10
159.7568628474
 20
-85.1688775868
 10
159.8633624917
 20
-84.6071181784
  0
LINE
  5
318
100
AcDbEntity
  8
0
100
AcDbLine
 62
7
  6
CONTINUOUS
 10
146.5733971523
 20
120.6159586713
 11
146.5774211523
 21
100.3508956713
  0
LINE
  5
319
100
AcDbEntity
  8
0
100
AcDbLine
 62
7
  6
CONTINUOUS
 10
146.6301131523
 20
2.3384049797
 11
146.6301131523
 21
-5.6615950203
  0
LINE
  5
31A
100
AcDbEntity
  8
0
100
AcDbLine
 62
7
  6
CONTINUOUS
 10
146.6801131523
 20
10.6384049797
 11
146.6801131523
 21
-10.6615950203
  0
LINE
  5
31B
100
AcDbEntity
  8
0
100
AcDbLine
 62
7
  6
CONTINUOUS
 10
147.0645341523
 20
100.8388836713
 11
147.0645341523
 21
120.1283196713
  0
LINE
  5
31C
100
AcDbEntity
  8
0
100
AcDbLine
 62
7
  6
CONTINUOUS
 10
148.6801131523
 20
10.6384049797
 11
148.6801131523
 21
-10.6615950203
  0
LINE
  5
31D
100
AcDbEntity
  8
0
100
AcDbLine
 62
7
  6
CONTINUOUS
 10
148.7301131523
 20
-5.6615950203
 11
148.7301131523
 21
2.3384049797
  0
LINE
  5
31E
100
AcDbEntity
  8
0
100
AcDbLine
 62
7
  6
CONTINUOUS
 10
149.3022107715
 20
116.2112933534
 11
149.3022107715
 21
104.7405130044
  0
LINE
  5
31F
100
AcDbEntity
  8
0
100
AcDbLine
 62
7
  6
CONTINUOUS
 10
149.3050101523
 20
90.9799156713
 11
149.3050101523
 21
88.2211826713
  0
LINE
  5
320
100
AcDbEntity
  8
0
100
AcDbLine
 62
7
  6
CONTINUOUS
 10
149.3050101523
 20
82.2358496713
 11
149.3050101523
 21
79.1042576713
  0
LINE
  5
321
100
AcDbEntity
  8
0
100
AcDbLine
 62
7
  6
CONTINUOUS
 10
149.3050101523
 20
77.2539626713
 11
149.3050101523
 21
74.2574466713
  0
LINE
  5
322
100
AcDbEntity
  8
0
100
AcDbLine
 62
7
  6
CONTINUOUS
 10
149.3050101523
 20
69.9071966713
 11
149.3050101523
 21
69.4690746713
  0
LINE
  5
323
100
AcDbEntity
  8
0
100
AcDbLine
 62
7
  6
CONTINUOUS
 10
149.3050101523
 20
65.1006286713
 11
149.3050101523
 21
62.0372746713
  0
LINE
  5
324
100
AcDbEntity
  8
0
100
AcDbLine
 62
7
  6
CONTINUOUS
 10
149.3050102725
 20
61.2854338132
 11
149.3050102725
 21
58.1883108712
  0
LINE
  5
325
100
AcDbEntity
  8
0
100
AcDbLine
 62
7
  6
CONTINUOUS
 10
149.3050102725
 20
52.2470698893
 11
149.3050102725
 21
48.9464582188
  0
LINE
  5
326
100
AcDbEntity
  8
0
100
AcDbLine
 62
7
  6
CONTINUOUS
 10
149.3050102725
 20
48.0399448036
 11
149.3050102725
 21
44.9209507601
  0
LINE
  5
327
100
AcDbEntity
  8
0
100
AcDbLine
 62
7
  6
CONTINUOUS
 10
149.3050102725
 20
40.1254055595
 11
149.3050102725
 21
37.112442616
  0
LINE
  5
328
100
AcDbEntity
  8
0
100
AcDbLine
 62
7
  6
CONTINUOUS
 10
151.4165937567
 20
-25.0115950203
 11
151.4165937567
 21
-27.280876173
  0
LINE
  5
329
100
AcDbEntity
  8
0
100
AcDbLine
 62
7
  6
CONTINUOUS
 10
151.4165937567
 20
-36.7399827411
 11
151.4165937567
 21
-39.3626400274
  0
LINE
  5
32A
100
AcDbEntity
  8
0
100
AcDbLine
 62
7
  6
CONTINUOUS
 10
151.4165937567
 20
-44.5058643548
 11
151.4165937567
 21
-57.0156878106
  0
LINE
  5
32B
100
AcDbEntity
  8
0
100
AcDbLine
 62
7
  6
CONTINUOUS
 10
151.4165937567
 20
-65.2637574109
 11
151.4165937567
 21
-67.6582532769
  0
LINE
  5
32C
100
AcDbEntity
  8
0
100
AcDbLine
 62
7
  6
CONTINUOUS
 10
151.4165937567
 20
-111.0620237538
 11
151.4165937567
 21
-113.4566909122
  0
LINE
  5
32D
100
AcDbEntity
  8
0
100
AcDbLine
 62
7
  6
CONTINUOUS
 10
151.4165937567
 20
-126.801050734
 11
151.4165937567
 21
-139.3108741898
  0
LINE
  5
32E
100
AcDbEntity
  8
0
100
AcDbLine
 62
7
  6
CONTINUOUS
 10
151.4671250022
 20
-92.4437435358
 11
151.4671250022
 21
-97.0141662197
  0
LINE
  5
32F
100
AcDbEntity
  8
0
100
AcDbLine
 62
7
  6
CONTINUOUS
 10
151.4671250022
 20
-103.3656868372
 11
151.4671250022
 21
-107.9583775276
  0
LINE
  5
330
100
AcDbEntity
  8
0
100
AcDbLine
 62
7
  6
CONTINUOUS
 10
152.300301366
 20
57.3234400332
 11
152.300301366
 21
53.0585752396
  0
LINE
  5
331
100
AcDbEntity
  8
0
100
AcDbLine
 62
7
  6
CONTINUOUS
 10
153.0988560001
 20
-139.3108741898
 11
153.0988560001
 21
-129.1957178924
  0
LINE
  5
332
100
AcDbEntity
  8
0
100
AcDbLine
 62
7
  6
CONTINUOUS
 10
153.0988560001
 20
-57.0156878106
 11
153.0988560001
 21
-46.9034434833
  0
LINE
  5
333
100
AcDbEntity
  8
0
100
AcDbLine
 62
7
  6
CONTINUOUS
 10
154.2549081211
 20
-37.0895904428
 11
154.2549081211
 21
-37.0419711674
  0
LINE
  5
334
100
AcDbEntity
  8
0
100
AcDbLine
 62
7
  6
CONTINUOUS
 10
154.6188130944
 20
53.6839137738
 11
154.6188130944
 21
56.6820043682
  0
LINE
  5
335
100
AcDbEntity
  8
0
100
AcDbLine
 62
7
  6
CONTINUOUS
 10
155.1783633553
 20
44.9209507601
 11
155.1783633553
 21
43.2422999773
  0
LINE
  5
336
100
AcDbEntity
  8
0
100
AcDbLine
 62
7
  6
CONTINUOUS
 10
156.3558088864
 20
-78.1505953456
 11
156.3558088864
 21
-75.8799438541
  0
LINE
  5
337
100
AcDbEntity
  8
0
100
AcDbLine
 62
7
  6
CONTINUOUS
 10
157.6345755388
 20
43.2353012248
 11
157.6345755388
 21
45.0247072656
  0
LINE
  5
338
100
AcDbEntity
  8
0
100
AcDbLine
 62
7
  6
CONTINUOUS
 10
158.2898708953
 20
-46.9034434833
 11
158.2898708953
 21
-56.2587468827
  0
LINE
  5
339
100
AcDbEntity
  8
0
100
AcDbLine
 62
7
  6
CONTINUOUS
 10
158.2898708953
 20
-113.4566909122
 11
158.2898708953
 21
-121.7287414425
  0
LINE
  5
33A
100
AcDbEntity
  8
0
100
AcDbLine
 62
7
  6
CONTINUOUS
 10
158.2898708953
 20
-129.1957178924
 11
158.2898708953
 21
-138.5523916306
  0
LINE
  5
33B
100
AcDbEntity
  8
0
100
AcDbLine
 62
7
  6
CONTINUOUS
 10
159.9714479693
 20
-138.5523916306
 11
159.9714479693
 21
-129.1957178924
  0
LINE
  5
33C
100
AcDbEntity
  8
0
100
AcDbLine
 62
7
  6
CONTINUOUS
 10
159.9714479693
 20
-121.7287414425
 11
159.9714479693
 21
-113.4566909122
  0
LINE
  5
33D
100
AcDbEntity
  8
0
100
AcDbLine
 62
7
  6
CONTINUOUS
 10
159.9714479693
 20
-56.2587468827
 11
159.9714479693
 21
-46.9034434833
  0
LWPOLYLINE
  5
33E
100
AcDbEntity
  8
0
100
AcDbPolyline
 62
7
  6
CONTINUOUS
 90
19
 70
0
 10
152.7410262652
 20
-83.3974515494
 10
152.7554060545
 20
-82.8853231162
 10
152.7934285438
 20
-82.39395756
 10
152.855093733
 20
-81.9233548808
 10
152.940577255
 20
-81.4720441898
 10
153.0497034769
 20
-81.0414963758
 10
153.1819455004
 20
-80.6361241056
 10
153.3382783202
 20
-80.2553945988
 10
153.5177269416
 20
-79.8998406358
 10
153.716839482
 20
-79.5754732242
 10
153.9345360971
 20
-79.2835058088
 10
154.1718966312
 20
-79.0227249449
 10
154.428708735
 20
-78.7955013058
 10
154.7057101714
 20
-78.602292049
 10
155.0021631775
 20
-78.442640017
 10
155.3156421159
 20
-78.3175444106
 10
155.6453384405
 20
-78.2273382967
 10
155.9920606973
 20
-78.1716886084
 10
156.3558088864
 20
-78.1505953456
  0
LWPOLYLINE
  5
33F
100
AcDbEntity
  8
0
100
AcDbPolyline
 62
7
  6
CONTINUOUS
 90
16
 70
0
 10
163.8130742298
 20
104.7226661856
 10
163.8091469441
 20
104.6153947828
 10
163.7980794909
 20
104.5137463025
 10
163.7798718702
 20
104.4177207448
 10
163.7547877675
 20
104.3264547315
 10
163.7225634973
 20
104.2408116408
 10
163.6824080034
 20
104.1633816069
 10
163.6343076512
 20
104.0947198769
 10
163.5782760753
 20
104.0342712037
 10
163.5135631231
 20
103.9829599809
 10
163.4390928398
 20
103.9416131178
 10
163.3559411802
 20
103.909403705
 10
163.2665858569
 20
103.8847754081
 10
163.1718527738
 20
103.8672094489
 10
163.0709160269
 20
103.8572246054
 10
162.9637756162
 20
103.8548208778
  0
LWPOLYLINE
  5
340
100
AcDbEntity
  8
0
100
AcDbPolyline
 62
7
  6
CONTINUOUS
 90
13
 70
0
 10
155.1783633553
 20
43.2422999773
 10
155.1687404676
 20
43.0509450345
 10
155.1408003302
 20
42.8673674855
 10
155.0945429431
 20
42.6915673303
 10
155.0302270043
 20
42.5234841944
 10
154.9475938158
 20
42.3631784523
 10
154.8458672835
 20
42.2108312271
 10
154.7240098672
 20
42.0653872429
 10
154.583059107
 20
41.9279017756
 10
154.4253515293
 20
41.801721777
 10
154.2516659761
 20
41.6879628977
 10
154.0612236053
 20
41.585509487
 10
153.8540244169
 20
41.4943615449
  0
LWPOLYLINE
  5
341
100
AcDbEntity
  8
0
100
AcDbPolyline
 62
7
  6
CONTINUOUS
 90
13
 70
0
 10
161.8424004998
 20
42.5725193648
 10
161.7930056953
 20
42.3131849295
 10
161.722079691
 20
42.0728589049
 10
161.6296224868
 20
41.8515412909
 10
161.5148427975
 20
41.6485804627
 10
161.3785319083
 20
41.4646280452
 10
161.2230636749
 20
41.3016389127
 10
161.0465455916
 20
41.1589992418
 10
160.8508701641
 20
41.0373228559
 10
160.6440887654
 20
40.9404060999
 10
160.4288851865
 20
40.869514422
 10
160.2025756365
 20
40.8233823739
 10
159.9651601153
 20
40.8020099557
  0
LWPOLYLINE
  5
342
100
AcDbEntity
  8
0
100
AcDbPolyline
 62
7
  6
CONTINUOUS
 90
13
 70
0
 10
163.9759701939
 20
40.3108725003
 10
164.1326266852
 20
40.829874822
 10
164.2605313772
 20
41.3737786517
 10
164.3596842697
 20
41.9425839894
 10
164.428273411
 20
42.5379004787
 10
164.468110753
 20
43.158118476
 10
164.4846321511
 20
43.7984090506
 10
164.478550688
 20
44.4576097421
 10
164.4491532812
 20
45.1368830108
 10
164.3997365387
 20
45.8348873063
 10
164.3313993302
 20
46.5511754452
 10
164.243042786
 20
47.286194611
 10
164.1346669064
 20
48.0399448036
  0
LWPOLYLINE
  5
343
100
AcDbEntity
  8
0
100
AcDbPolyline
 62
7
  6
CONTINUOUS
 90
5
 70
0
 10
159.5370505506
 20
-100.2303515248
 10
158.6416453588
 20
-100.5781872388
 10
157.7459258897
 20
-100.9261582199
 10
156.8498921433
 20
-101.2742644683
 10
155.9535428174
 20
-101.6225080479
  0
LINE
  5
344
100
AcDbEntity
  8
0
100
AcDbLine
 62
7
  6
CONTINUOUS
 10
155.9535428174
 20
-101.6225080479
 11
151.4671250022
 21
-103.3656868372
  0
LINE
  5
345
100
AcDbEntity
  8
0
100
AcDbLine
 62
7
  6
CONTINUOUS
 10
151.4671250022
 20
-107.9583775276
 11
166.6801131523
 21
-102.1008640692
  0
LINE
  5
346
100
AcDbEntity
  8
0
100
AcDbLine
 62
7
  6
CONTINUOUS
 10
-184.1198868477
 20
151.4884049797
 11
-130.1198868477
 21
151.4884049797
  0
LINE
  5
347
100
AcDbEntity
  8
0
100
AcDbLine
 62
7
  6
CONTINUOUS
 10
-184.1198868477
 20
153.4884049797
 11
-130.1198868477
 21
153.4884049797
  0
LWPOLYLINE
  5
348
100
AcDbEntity
  8
0
100
AcDbPolyline
 62
7
  6
CONTINUOUS
 90
40
 70
0
 10
156.6354027692
 20
39.5471628693
 10
156.7829727529
 20
39.3712730611
 10
156.8603048484
 20
39.2823597374
 10
156.9415260933
 20
39.1931579398
 10
157.0260730313
 20
39.1034761052
 10
157.1145091185
 20
39.0135057968
 10
157.2091547307
 20
38.9240393073
 10
157.3102458949
 20
38.8349633593
 10
157.417546584
 20
38.7463912302
 10
157.5326690925
 20
38.6594550459
 10
157.6561732797
 20
38.5740772892
 10
157.7874992863
 20
38.4903354771
 10
157.9265798283
 20
38.4095942867
 10
158.0731365571
 20
38.3316682258
 10
158.2274478214
 20
38.2567427866
 10
158.3902813836
 20
38.1867391221
 10
158.5617163091
 20
38.1215273845
 10
158.7416735326
 20
38.0612374217
 10
158.9306836208
 20
38.0081799306
 10
159.1290137884
 20
37.9623519223
 10
159.3363968208
 20
37.9237563858
 10
159.5525616407
 20
37.8947129847
 10
159.7775109827
 20
37.8750334935
 10
160.0112421122
 20
37.8649061379
 10
160.2534757489
 20
37.8672152578
 10
160.5046311834
 20
37.8808224854
 10
160.7642891252
 20
37.9068661887
 10
161.0309124217
 20
37.9516458112
 10
161.3054853554
 20
38.0144380928
 10
161.5870236439
 20
38.0959662937
 10
161.871037288
 20
38.2046996382
 10
162.1604346841
 20
38.3426436207
 10
162.4523074359
 20
38.5077927469
 10
162.733440355
 20
38.7025997583
 10
163.0065506311
 20
38.9348559539
 10
163.2689210746
 20
39.1967700348
 10
163.4991849284
 20
39.4674208455
 10
163.69021994
 20
39.7398346673
 10
163.8491483618
 20
40.0209852189
 10
163.9759701939
 20
40.3108725003
  0
LWPOLYLINE
  5
349
100
AcDbEntity
  8
0
100
AcDbPolyline
 62
7
  6
CONTINUOUS
 90
13
 70
0
 10
164.2991375897
 20
116.2436625836
 10
164.2872957718
 20
116.4392898201
 10
164.2574177892
 20
116.6215431908
 10
164.2095036419
 20
116.7904226956
 10
164.1429013392
 20
116.9469991298
 10
164.0582628717
 20
117.0902016982
 10
163.9575442119
 20
117.2168180153
 10
163.8378672194
 20
117.3269525556
 10
163.7021100345
 20
117.4205008446
 10
163.5608630509
 20
117.4939370737
 10
163.4176563997
 20
117.5460859732
 10
163.2689599497
 20
117.5781228127
 10
163.114773701
 20
117.5900475923
  0
LWPOLYLINE
  5
34A
100
AcDbEntity
  8
0
100
AcDbPolyline
 62
7
  6
CONTINUOUS
 90
58
 70
0
 10
166.7784349656
 20
-82.9668225626
 10
166.7563123482
 20
-82.2891221759
 10
166.7014172495
 20
-81.6419140276
 10
166.6137496696
 20
-81.0251981179
 10
166.4920964924
 20
-80.4367712476
 10
166.337670834
 20
-79.8788366158
 10
166.1541120424
 20
-79.3580038198
 10
165.9407895958
 20
-78.8741184956
 10
165.6983340161
 20
-78.4273350072
 10
165.432276217
 20
-78.0247260447
 10
165.1428356418
 20
-77.6680896719
 10
164.8297928471
 20
-77.3556278251
 10
164.4980204168
 20
-77.0890190023
 10
164.1471770879
 20
-76.8693333746
 10
163.7776041233
 20
-76.695500771
 10
163.3951978949
 20
-76.5659891766
 10
162.9918667007
 20
-76.4812636023
 10
162.5757022428
 20
-76.4408590372
 10
162.1768759993
 20
-76.4418484335
 10
161.8035372962
 20
-76.4842404216
 10
161.4475368075
 20
-76.5680263712
 10
161.1145980334
 20
-76.6902533434
 10
160.8079844501
 20
-76.8499325065
 10
160.5244325815
 20
-77.0480526922
 10
160.2598754994
 20
-77.2846274568
 10
160.0129173336
 20
-77.5624254767
 10
159.7849539544
 20
-77.8786780754
 10
159.5761060441
 20
-78.2250927806
 10
159.3878689219
 20
-78.6013305057
 10
159.2187472685
 20
-79.0077303371
 10
159.0643758088
 20
-79.4370170619
 10
158.9249519271
 20
-79.8921527747
 10
158.800278239
 20
-80.3701753807
 10
158.6853973169
 20
-80.8549233831
 10
158.579955064
 20
-81.3494300451
 10
158.484305577
 20
-81.8506621034
 10
158.3945537177
 20
-82.3333582713
 10
158.3113391946
 20
-82.7889946423
 10
158.2340222992
 20
-83.2260951229
 10
158.156788768
 20
-83.6449701453
 10
158.0791334477
 20
-84.0448474498
 10
158.0015614917
 20
-84.4264992961
 10
157.9197740966
 20
-84.7925528959
 10
157.8335716812
 20
-85.1432393093
 10
157.7431538267
 20
-85.4783274763
 10
157.6448204734
 20
-85.799751428
 10
157.539331858
 20
-86.1108629325
 10
157.4259277438
 20
-86.4083102218
 10
157.2986273614
 20
-86.6839720237
 10
157.1573114242
 20
-86.9371268007
 10
157.0020992188
 20
-87.1684960903
 10
156.8273678355
 20
-87.3721232325
 10
156.6269722902
 20
-87.5474499489
 10
156.407057567
 20
-87.695034518
 10
156.1804357089
 20
-87.8105951147
 10
155.9513773968
 20
-87.8927044643
 10
155.7156119498
 20
-87.9427898416
 10
155.473139368
 20
-87.9608512466
  0
LINE
  5
34B
100
AcDbEntity
  8
0
100
AcDbLine
 62
7
  6
CONTINUOUS
 10
167.1689761523
 20
100.3508956713
 11
167.1654771523
 21
120.6159586713
  0
LINE
  5
34C
100
AcDbEntity
  8
0
100
AcDbLine
 62
7
  6
CONTINUOUS
 10
161.1801131523
 20
209.2884049797
 11
161.1801131523
 21
207.8884049797
  0
LINE
  5
34D
100
AcDbEntity
  8
0
100
AcDbLine
 62
7
  6
CONTINUOUS
 10
162.0290117681
 20
-87.3303240785
 11
162.0290117681
 21
-89.5987487694
  0
LINE
  5
34E
100
AcDbEntity
  8
0
100
AcDbLine
 62
7
  6
CONTINUOUS
 10
162.3801131523
 20
209.2884049797
 11
162.3801131523
 21
207.8884049797
  0
LINE
  5
34F
100
AcDbEntity
  8
0
100
AcDbLine
 62
253
  6
CONTINUOUS
 10
162.6801131523
 20
210.5884049797
 11
162.6801131523
 21
209.5884049797
  0
LINE
  5
350
100
AcDbEntity
  8
0
100
AcDbLine
 62
7
  6
CONTINUOUS
 10
162.6801131523
 20
208.3510341679
 11
162.6801131523
 21
207.8884049797
  0
LINE
  5
351
100
AcDbEntity
  8
0
100
AcDbLine
 62
7
  6
CONTINUOUS
 10
162.6801131523
 20
-208.1599289705
 11
162.6801131523
 21
-207.9115950203
  0
LINE
  5
352
100
AcDbEntity
  8
0
100
AcDbLine
 62
7
  6
CONTINUOUS
 10
162.7801131523
 20
208.3384049797
 11
162.7801131523
 21
207.8884049797
  0
LINE
  5
353
100
AcDbEntity
  8
0
100
AcDbLine
 62
7
  6
CONTINUOUS
 10
162.7801131523
 20
-208.1615950203
 11
162.7801131523
 21
-207.9115950203
  0
LINE
  5
354
100
AcDbEntity
  8
0
100
AcDbLine
 62
7
  6
CONTINUOUS
 10
163.1801131523
 20
-208.6615950203
 11
163.1801131523
 21
-209.6615950203
  0
LINE
  5
355
100
AcDbEntity
  8
0
100
AcDbLine
 62
7
  6
CONTINUOUS
 10
163.1801131523
 20
208.8384049797
 11
163.1801131523
 21
209.8384049797
  0
LINE
  5
356
100
AcDbEntity
  8
0
100
AcDbLine
 62
7
  6
CONTINUOUS
 10
163.2801131523
 20
-210.1115950203
 11
163.2801131523
 21
-209.6615950203
  0
LINE
  5
357
100
AcDbEntity
  8
0
100
AcDbLine
 62
7
  6
CONTINUOUS
 10
163.2801131523
 20
-208.6615950203
 11
163.2801131523
 21
-208.1615950203
  0
LINE
  5
358
100
AcDbEntity
  8
0
100
AcDbLine
 62
7
  6
CONTINUOUS
 10
163.4582751994
 20
-27.280876173
 11
163.4582751994
 21
-27.3312361261
  0
LINE
  5
359
100
AcDbEntity
  8
0
100
AcDbLine
 62
7
  6
CONTINUOUS
 10
163.8130742298
 20
116.2314147668
 11
163.8130742298
 21
104.7226661856
  0
LINE
  5
35A
100
AcDbEntity
  8
0
100
AcDbLine
 62
7
  6
CONTINUOUS
 10
164.2801131523
 20
-151.5115950203
 11
164.2801131523
 21
-153.5115950203
  0
LINE
  5
35B
100
AcDbEntity
  8
0
100
AcDbLine
 62
7
  6
CONTINUOUS
 10
164.2801131523
 20
-166.5115950203
 11
164.2801131523
 21
-168.5115950203
  0
LINE
  5
35C
100
AcDbEntity
  8
0
100
AcDbLine
 62
7
  6
CONTINUOUS
 10
164.2801131523
 20
-181.5115950203
 11
164.2801131523
 21
-183.5115950203
  0
LINE
  5
35D
100
AcDbEntity
  8
0
100
AcDbLine
 62
7
  6
CONTINUOUS
 10
164.2991375897
 20
104.7286151252
 11
164.2991375897
 21
116.2436625836
  0
LINE
  5
35E
100
AcDbEntity
  8
0
100
AcDbLine
 62
7
  6
CONTINUOUS
 10
164.3096357184
 20
53.5491877885
 11
164.3096357184
 21
56.5791227068
  0
LINE
  5
35F
100
AcDbEntity
  8
0
100
AcDbLine
 62
7
  6
CONTINUOUS
 10
164.3096361523
 20
63.4408746713
 11
164.3096361523
 21
66.5400966713
  0
LINE
  5
360
100
AcDbEntity
  8
0
100
AcDbLine
 62
7
  6
CONTINUOUS
 10
164.3096361523
 20
72.7696866713
 11
164.3096361523
 21
75.8986536713
  0
LINE
  5
361
100
AcDbEntity
  8
0
100
AcDbLine
 62
7
  6
CONTINUOUS
 10
164.3096361523
 20
79.1042576713
 11
164.3096361523
 21
82.2358496713
  0
LINE
  5
362
100
AcDbEntity
  8
0
100
AcDbLine
 62
7
  6
CONTINUOUS
 10
164.3096361523
 20
83.3979926713
 11
164.3096361523
 21
86.5271346713
  0
LINE
  5
363
100
AcDbEntity
  8
0
100
AcDbLine
 62
7
  6
CONTINUOUS
 10
164.3096361523
 20
92.3348746713
 11
164.3096361523
 21
95.7380176713
  0
LINE
  5
364
100
AcDbEntity
  8
0
100
AcDbLine
 62
7
  6
CONTINUOUS
 10
164.4801131523
 20
-210.1115950203
 11
164.4801131523
 21
-209.6615950203
  0
LINE
  5
365
100
AcDbEntity
  8
0
100
AcDbLine
 62
7
  6
CONTINUOUS
 10
164.4801131523
 20
-208.6615950203
 11
164.4801131523
 21
-208.1615950203
  0
LINE
  5
366
100
AcDbEntity
  8
0
100
AcDbLine
 62
7
  6
CONTINUOUS
 10
164.7390281567
 20
-46.9034434833
 11
164.7390281567
 21
-56.938263665
  0
LINE
  5
367
100
AcDbEntity
  8
0
100
AcDbLine
 62
7
  6
CONTINUOUS
 10
164.7390281567
 20
-59.2592751097
 11
164.7390281567
 21
-65.2637574109
  0
LINE
  5
368
100
AcDbEntity
  8
0
100
AcDbLine
 62
7
  6
CONTINUOUS
 10
164.7390281567
 20
-67.6582532769
 11
164.7390281567
 21
-73.6608513622
  0
LINE
  5
369
100
AcDbEntity
  8
0
100
AcDbLine
 62
7
  6
CONTINUOUS
 10
164.7390281567
 20
-113.4566909122
 11
164.7390281567
 21
-122.8914739655
  0
LINE
  5
36A
100
AcDbEntity
  8
0
100
AcDbLine
 62
7
  6
CONTINUOUS
 10
164.7390281567
 20
-129.1957178924
 11
164.7390281567
 21
-139.230024197
  0
LINE
  5
36B
100
AcDbEntity
  8
0
100
AcDbLine
 62
7
  6
CONTINUOUS
 10
165.2801131523
 20
-151.5115950203
 11
165.2801131523
 21
-153.5115950203
  0
LINE
  5
36C
100
AcDbEntity
  8
0
100
AcDbLine
 62
7
  6
CONTINUOUS
 10
165.2801131523
 20
-166.5115950203
 11
165.2801131523
 21
-168.5115950203
  0
LINE
  5
36D
100
AcDbEntity
  8
0
100
AcDbLine
 62
7
  6
CONTINUOUS
 10
165.2801131523
 20
-181.5115950203
 11
165.2801131523
 21
-183.5115950203
  0
LINE
  5
36E
100
AcDbEntity
  8
0
100
AcDbLine
 62
7
  6
CONTINUOUS
 10
166.4206052307
 20
-139.230024197
 11
166.4206052307
 21
-126.801050734
  0
LINE
  5
36F
100
AcDbEntity
  8
0
100
AcDbLine
 62
7
  6
CONTINUOUS
 10
166.4206052307
 20
-122.8914739655
 11
166.4206052307
 21
-111.0620237538
  0
LINE
  5
370
100
AcDbEntity
  8
0
100
AcDbLine
 62
7
  6
CONTINUOUS
 10
166.4206052307
 20
-73.6608513622
 11
166.4206052307
 21
-59.2592751097
  0
LINE
  5
371
100
AcDbEntity
  8
0
100
AcDbLine
 62
7
  6
CONTINUOUS
 10
166.4206052307
 20
-56.938263665
 11
166.4206052307
 21
-44.5058643548
  0
LINE
  5
372
100
AcDbEntity
  8
0
100
AcDbLine
 62
7
  6
CONTINUOUS
 10
166.4206052307
 20
-39.3626400274
 11
166.4206052307
 21
-37.0895904428
  0
LINE
  5
373
100
AcDbEntity
  8
0
100
AcDbLine
 62
7
  6
CONTINUOUS
 10
166.4206052307
 20
-27.5581984999
 11
166.4206052307
 21
-25.0115950203
  0
LINE
  5
374
100
AcDbEntity
  8
0
100
AcDbLine
 62
7
  6
CONTINUOUS
 10
166.6801131523
 20
120.1283196713
 11
166.6801131523
 21
100.8388836713
  0
LINE
  5
375
100
AcDbEntity
  8
0
100
AcDbLine
 62
7
  6
CONTINUOUS
 10
166.6801131523
 20
-102.1008640692
 11
166.6801131523
 21
-98.3903290201
  0
LINE
  5
376
100
AcDbEntity
  8
ASSI
100
AcDbLine
 62
7
  6
CONTINUOUS
 10
173.6801131523
 20
-151.5115950203
 11
173.6801131523
 21
-153.5115950203
  0
LINE
  5
377
100
AcDbEntity
  8
ASSI
100
AcDbLine
 62
7
  6
CONTINUOUS
 10
173.6801131523
 20
-166.5115950203
 11
173.6801131523
 21
-168.5115950203
  0
LINE
  5
378
100
AcDbEntity
  8
ASSI
100
AcDbLine
 62
7
  6
CONTINUOUS
 10
173.6801131523
 20
-181.5115950203
 11
173.6801131523
 21
-183.5115950203
  0
LWPOLYLINE
  5
379
100
AcDbEntity
  8
0
100
AcDbPolyline
 62
7
  6
CONTINUOUS
 90
4
 70
0
 10
159.8633624917
 20
-84.6071181784
 10
159.9320788705
 20
-84.2240519103
 10
159.9995286467
 20
-83.8508636938
 10
160.1296565381
 20
-83.1341210535
  0
LWPOLYLINE
  5
37A
100
AcDbEntity
  8
0
100
AcDbPolyline
 62
7
  6
CONTINUOUS
 90
21
 70
0
 10
160.1296565381
 20
-83.1341210535
 10
160.1923346534
 20
-82.7905666296
 10
160.2566617242
 20
-82.4568913447
 10
160.3228708116
 20
-82.1333187999
 10
160.3907288547
 20
-81.8196253942
 10
160.4624522285
 20
-81.5151414123
 10
160.5378111226
 20
-81.2191670179
 10
160.6170353476
 20
-80.9324020472
 10
160.7030307105
 20
-80.6562762934
 10
160.7943108937
 20
-80.3882346319
 10
160.892362215
 20
-80.1308321873
 10
161.0045494342
 20
-79.893164126
 10
161.1335981151
 20
-79.6764448338
 10
161.2767826941
 20
-79.479459925
 10
161.4332912397
 20
-79.3076614093
 10
161.6071376952
 20
-79.1623060134
 10
161.7943081173
 20
-79.0421370106
 10
161.9819487449
 20
-78.9488362301
 10
162.1657749911
 20
-78.8829642816
 10
162.3500714427
 20
-78.8439605554
 10
162.5348380999
 20
-78.8318250516
  0
LINE
  5
37B
100
AcDbEntity
  8
0
100
AcDbLine
 62
7
  6
CONTINUOUS
 10
-184.1198868477
 20
166.4884049797
 11
-129.1198868477
 21
166.4884049797
  0
LINE
  5
37C
100
AcDbEntity
  8
0
100
AcDbLine
 62
7
  6
CONTINUOUS
 10
-184.1198868477
 20
168.4884049797
 11
-129.1198868477
 21
168.4884049797
  0
LINE
  5
37D
100
AcDbEntity
  8
0
100
AcDbLine
 62
7
  6
CONTINUOUS
 10
118.2747078389
 20
162.9857019826
 11
104.6801131523
 21
206.4884049797
  0
LWPOLYLINE
  5
37E
100
AcDbEntity
  8
0
100
AcDbPolyline
 62
7
  6
CONTINUOUS
 90
6
 70
0
 10
156.3984208817
 20
39.9884049797
 10
156.4234703919
 20
39.8989538348
 10
156.4591986925
 20
39.8100348364
 10
156.5056057835
 20
39.7216479846
 10
156.5651648811
 20
39.6341393537
 10
156.6354027692
 20
39.5471628693
  0
LWPOLYLINE
  5
37F
100
AcDbEntity
  8
0
100
AcDbPolyline
 62
7
  6
CONTINUOUS
 90
10
 70
0
 10
161.752816468
 20
45.0247072656
 10
161.7988019261
 20
44.748626823
 10
161.8358271207
 20
44.4734439202
 10
161.863892052
 20
44.1991585572
 10
161.8830602609
 20
43.9257624136
 10
161.8932682064
 20
43.6532638098
 10
161.8943252653
 20
43.3816877069
 10
161.8861678967
 20
43.1110424253
 10
161.8688596415
 20
42.8413196446
 10
161.8424004998
 20
42.5725193648
  0
LINE
  5
380
100
AcDbEntity
  8
0
100
AcDbLine
 62
253
  6
CONTINUOUS
 10
182.1801131523
 20
208.3384049797
 11
182.1801131523
 21
207.8884049797
  0
LINE
  5
381
100
AcDbEntity
  8
0
100
AcDbLine
 62
253
  6
CONTINUOUS
 10
182.1801131523
 20
-207.9115950203
 11
182.1801131523
 21
-208.1615950203
  0
LINE
  5
382
100
AcDbEntity
  8
0
100
AcDbLine
 62
253
  6
CONTINUOUS
 10
182.6801131523
 20
206.4884049797
 11
182.6801131523
 21
-151.5115950203
  0
LINE
  5
383
100
AcDbEntity
  8
ASSI
100
AcDbLine
 62
7
  6
CONTINUOUS
 10
182.6801131523
 20
-207.9115950203
 11
182.6801131523
 21
-206.5115950203
  0
LINE
  5
384
100
AcDbEntity
  8
0
100
AcDbLine
 62
253
  6
CONTINUOUS
 10
182.6801131523
 20
-153.5115950203
 11
182.6801131523
 21
-166.5115950203
  0
LINE
  5
385
100
AcDbEntity
  8
0
100
AcDbLine
 62
253
  6
CONTINUOUS
 10
182.6801131523
 20
-168.5115950203
 11
182.6801131523
 21
-181.5115950203
  0
LINE
  5
386
100
AcDbEntity
  8
0
100
AcDbLine
 62
253
  6
CONTINUOUS
 10
182.6801131523
 20
-183.5115950203
 11
182.6801131523
 21
-206.5115950203
  0
LINE
  5
387
100
AcDbEntity
  8
ASSI
100
AcDbLine
 62
7
  6
CONTINUOUS
 10
182.6801131523
 20
206.4884049797
 11
182.6801131523
 21
207.8884049797
  0
LINE
  5
388
100
AcDbEntity
  8
0
100
AcDbLine
 62
253
  6
CONTINUOUS
 10
182.9801131523
 20
210.5884049797
 11
182.9801131523
 21
209.8384049797
  0
LINE
  5
389
100
AcDbEntity
  8
0
100
AcDbLine
 62
253
  6
CONTINUOUS
 10
183.1801131523
 20
-208.6615950203
 11
183.1801131523
 21
-209.6615950203
  0
LINE
  5
38A
100
AcDbEntity
  8
0
100
AcDbLine
 62
253
  6
CONTINUOUS
 10
183.1801131523
 20
208.8384049797
 11
183.1801131523
 21
209.8384049797
  0
LINE
  5
38B
100
AcDbEntity
  8
ASSI
100
AcDbLine
 62
253
  6
CONTINUOUS
 10
183.2801131523
 20
-151.5115950203
 11
183.2801131523
 21
-153.5115950203
  0
LINE
  5
38C
100
AcDbEntity
  8
ASSI
100
AcDbLine
 62
253
  6
CONTINUOUS
 10
183.2801131523
 20
-166.5115950203
 11
183.2801131523
 21
-168.5115950203
  0
LINE
  5
38D
100
AcDbEntity
  8
ASSI
100
AcDbLine
 62
253
  6
CONTINUOUS
 10
183.2801131523
 20
-181.5115950203
 11
183.2801131523
 21
-183.5115950203
  0
LINE
  5
38E
100
AcDbEntity
  8
ASSI
100
AcDbLine
 62
7
  6
CONTINUOUS
 10
183.4801131523
 20
-151.5115950203
 11
183.4801131523
 21
-153.5115950203
  0
LINE
  5
38F
100
AcDbEntity
  8
0
100
AcDbLine
 62
7
  6
CONTINUOUS
 10
183.4801131523
 20
-151.5115950203
 11
183.4801131523
 21
-153.5115950203
  0
LINE
  5
390
100
AcDbEntity
  8
ASSI
100
AcDbLine
 62
7
  6
CONTINUOUS
 10
183.4801131523
 20
-166.5115950203
 11
183.4801131523
 21
-168.5115950203
  0
LINE
  5
391
100
AcDbEntity
  8
0
100
AcDbLine
 62
7
  6
CONTINUOUS
 10
183.4801131523
 20
-166.5115950203
 11
183.4801131523
 21
-168.5115950203
  0
LINE
  5
392
100
AcDbEntity
  8
ASSI
100
AcDbLine
 62
7
  6
CONTINUOUS
 10
183.4801131523
 20
-181.5115950203
 11
183.4801131523
 21
-183.5115950203
  0
LINE
  5
393
100
AcDbEntity
  8
0
100
AcDbLine
 62
7
  6
CONTINUOUS
 10
183.4801131523
 20
-181.5115950203
 11
183.4801131523
 21
-183.5115950203
  0
LINE
  5
394
100
AcDbEntity
  8
0
100
AcDbLine
 62
7
  6
CONTINUOUS
 10
184.2801131523
 20
228.7590121366
 11
184.2801131523
 21
210.5884049797
  0
LINE
  5
395
100
AcDbEntity
  8
0
100
AcDbLine
 62
7
  6
CONTINUOUS
 10
184.2801131523
 20
-210.4115950203
 11
184.2801131523
 21
-228.595635307
  0
LINE
  5
396
100
AcDbEntity
  8
0
100
AcDbLine
 62
7
  6
CONTINUOUS
 10
184.6801131523
 20
208.3384049797
 11
184.6801131523
 21
206.4884049797
  0
LINE
  5
397
100
AcDbEntity
  8
0
100
AcDbLine
 62
7
  6
CONTINUOUS
 10
184.6801131523
 20
-228.2115950203
 11
184.6801131523
 21
-212.1115950203
  0
LINE
  5
398
100
AcDbEntity
  8
ASSI
100
AcDbLine
 62
7
  6
CONTINUOUS
 10
184.6801131523
 20
-151.5115950203
 11
184.6801131523
 21
-153.5115950203
  0
LINE
  5
399
100
AcDbEntity
  8
ASSI
100
AcDbLine
 62
7
  6
CONTINUOUS
 10
184.6801131523
 20
-166.5115950203
 11
184.6801131523
 21
-168.5115950203
  0
LINE
  5
39A
100
AcDbEntity
  8
ASSI
100
AcDbLine
 62
7
  6
CONTINUOUS
 10
184.6801131523
 20
-181.5115950203
 11
184.6801131523
 21
-183.5115950203
  0
LINE
  5
39B
100
AcDbEntity
  8
0
100
AcDbLine
 62
7
  6
CONTINUOUS
 10
184.6801131523
 20
206.4884049797
 11
184.6801131523
 21
-206.5115950203
  0
LINE
  5
39C
100
AcDbEntity
  8
0
100
AcDbLine
 62
7
  6
CONTINUOUS
 10
184.6801131523
 20
-206.5115950203
 11
184.6801131523
 21
-208.1615950203
  0
LINE
  5
39D
100
AcDbEntity
  8
0
100
AcDbLine
 62
7
  6
CONTINUOUS
 10
184.6801131523
 20
211.2884049797
 11
184.6801131523
 21
228.3884049797
  0
LWPOLYLINE
  5
39E
100
AcDbEntity
  8
0
100
AcDbPolyline
 62
7
  6
CONTINUOUS
 90
37
 70
0
 10
-174.8017450777
 20
167.8467394798
 10
-174.7506408103
 20
167.8551258863
 10
-174.7013971861
 20
167.8634589318
 10
-174.6540175443
 20
167.8717371968
 10
-174.6084339112
 20
167.879971619
 10
-174.5646253741
 20
167.8881651707
 10
-174.5225652232
 20
167.8963218092
 10
-174.4821725945
 20
167.9044565784
 10
-174.4434285701
 20
167.9125730343
 10
-174.4062941908
 20
167.9206790213
 10
-174.3706537408
 20
167.9288007773
 10
-174.3364996922
 20
167.9369420502
 10
-174.303774785
 20
167.9451188341
 10
-174.2722873359
 20
167.9533851655
 10
-174.2420209962
 20
167.961755287
 10
-174.2129340595
 20
167.9702520338
 10
-174.1847936849
 20
167.9789618112
 10
-174.1575612869
 20
167.9879236662
 10
-174.1312239997
 20
167.9971728902
 10
-174.1055640061
 20
168.0068281815
 10
-174.0805955191
 20
168.0169388725
 10
-174.0562387205
 20
168.0276012685
 10
-174.0321175065
 20
168.039077283
 10
-174.0082526934
 20
168.0514925085
 10
-173.9846420837
 20
168.0650087937
 10
-173.9609214978
 20
168.0800655557
 10
-173.9372134201
 20
168.0969052583
 10
-173.913696945
 20
168.1157889885
 10
-173.8902416348
 20
168.137364627
 10
-173.8669976476
 20
168.1622944203
 10
-173.8447182186
 20
168.1906452667
 10
-173.8242539975
 20
168.2221375588
 10
-173.8059403187
 20
168.2572019729
 10
-173.7906130752
 20
168.295477975
 10
-173.7793696242
 20
168.3350406964
 10
-173.7724696462
 20
168.3748970112
 10
-173.7698871516
 20
168.4184347506
  0
LWPOLYLINE
  5
39F
100
AcDbEntity
  8
0
100
AcDbPolyline
 62
7
  6
CONTINUOUS
 90
38
 70
0
 10
-179.431392237
 20
167.9909298038
 10
-179.482625664
 20
167.9825544953
 10
-179.5320596363
 20
167.9742231389
 10
-179.5796947695
 20
167.9659354667
 10
-179.625573438
 20
167.9576840625
 10
-179.6697132821
 20
167.9494656935
 10
-179.712134989
 20
167.9412766367
 10
-179.7528939951
 20
167.933106128
 10
-179.7920070863
 20
167.9249505703
 10
-179.8295108566
 20
167.916802143
 10
-179.8655000175
 20
167.9086390436
 10
-179.899983306
 20
167.900457279
 10
-179.9330171196
 20
167.8922411517
 10
-179.964773888
 20
167.8839420786
 10
-179.9952672735
 20
167.8755475504
 10
-180.0245477361
 20
167.8670334699
 10
-180.0528483575
 20
167.8583148265
 10
-180.0802088713
 20
167.8493537021
 10
-180.1066466606
 20
167.8401149345
 10
-180.1323837464
 20
167.8304804446
 10
-180.1574082579
 20
167.8204019134
 10
-180.1818018071
 20
167.8097847025
 10
-180.2059426382
 20
167.7983697336
 10
-180.2298110974
 20
167.7860344668
 10
-180.2534136671
 20
167.7726192526
 10
-180.2771217679
 20
167.7576874959
 10
-180.3008210859
 20
167.7409975605
 10
-180.3243351237
 20
167.722293739
 10
-180.3477969463
 20
167.7009404397
 10
-180.3710494264
 20
167.6763010924
 10
-180.3933687326
 20
167.6482873583
 10
-180.4139533885
 20
167.6171101133
 10
-180.4324777781
 20
167.5823035001
 10
-180.4480840522
 20
167.5442297389
 10
-180.4596521084
 20
167.5047911677
 10
-180.4669014435
 20
167.4649714712
 10
-180.4698319588
 20
167.424581517
 10
-180.4698865391
 20
167.418162528
  0
LINE
  5
3A0
100
AcDbEntity
  8
0
100
AcDbLine
 62
7
  6
CONTINUOUS
 10
-179.3691425244
 20
167.2959395197
 11
-179.2824884217
 21
167.3099244656
  0
LINE
  5
3A1
100
AcDbEntity
  8
0
100
AcDbLine
 62
7
  6
CONTINUOUS
 10
-174.9057316187
 20
166.5349058243
 11
-175.0058544379
 21
166.519132426
  0
LINE
  5
3A2
100
AcDbEntity
  8
0
100
AcDbLine
 62
7
  6
CONTINUOUS
 10
-174.9097856088
 20
167.8297689574
 11
-174.8017450777
 21
167.8467394798
  0
LINE
  5
3A3
100
AcDbEntity
  8
0
100
AcDbLine
 62
7
  6
CONTINUOUS
 10
-179.3233867749
 20
168.0078363294
 11
-179.431392237
 21
167.9909298038
  0
LINE
  5
3A4
100
AcDbEntity
  8
0
100
AcDbLine
 62
7
  6
CONTINUOUS
 10
-179.2824884217
 20
167.3099244656
 11
-179.1897735835
 21
167.3241580364
  0
LINE
  5
3A5
100
AcDbEntity
  8
0
100
AcDbLine
 62
7
  6
CONTINUOUS
 10
-175.0058544379
 20
166.519132426
 11
-175.1137893513
 21
166.5030163217
  0
LINE
  5
3A6
100
AcDbEntity
  8
0
100
AcDbLine
 62
7
  6
CONTINUOUS
 10
-175.0260180206
 20
167.812477517
 11
-174.9097856088
 21
167.8297689574
  0
LINE
  5
3A7
100
AcDbEntity
  8
0
100
AcDbLine
 62
7
  6
CONTINUOUS
 10
-179.2077716955
 20
168.0249874904
 11
-179.3233867749
 21
168.0078363294
  0
LINE
  5
3A8
100
AcDbEntity
  8
0
100
AcDbLine
 62
7
  6
CONTINUOUS
 10
-179.1897735835
 20
167.3241580364
 11
-179.0911375102
 21
167.3386180611
  0
LINE
  5
3A9
100
AcDbEntity
  8
0
100
AcDbLine
 62
7
  6
CONTINUOUS
 10
-175.1137893513
 20
166.5030163217
 11
-175.2164235418
 21
166.4884049797
  0
LINE
  5
3AA
100
AcDbEntity
  8
0
100
AcDbLine
 62
7
  6
CONTINUOUS
 10
-175.1510303
 20
167.7947892005
 11
-175.0260180206
 21
167.812477517
  0
LINE
  5
3AB
100
AcDbEntity
  8
0
100
AcDbLine
 62
7
  6
CONTINUOUS
 10
-179.0843051334
 20
168.0424220047
 11
-179.2077716955
 21
168.0249874904
  0
LINE
  5
3AC
100
AcDbEntity
  8
0
100
AcDbLine
 62
7
  6
CONTINUOUS
 10
-179.0911375102
 20
167.3386180611
 11
-178.9866342217
 21
167.3533006029
  0
LINE
  5
3AD
100
AcDbEntity
  8
0
100
AcDbLine
 62
7
  6
CONTINUOUS
 10
-175.2164057617
 20
168.4884049797
 11
-175.2875194101
 21
168.478592108
  0
LINE
  5
3AE
100
AcDbEntity
  8
0
100
AcDbLine
 62
7
  6
CONTINUOUS
 10
-178.9866342217
 20
167.3533006029
 11
-178.8763405455
 21
167.3682022523
  0
LINE
  5
3AF
100
AcDbEntity
  8
0
100
AcDbLine
 62
7
  6
CONTINUOUS
 10
-175.2852474458
 20
167.776655113
 11
-175.1510303
 21
167.7947892005
  0
LINE
  5
3B0
100
AcDbEntity
  8
0
100
AcDbLine
 62
7
  6
CONTINUOUS
 10
-178.952844057
 20
168.0601655682
 11
-179.0843051334
 21
168.0424220047
  0
LINE
  5
3B1
100
AcDbEntity
  8
0
100
AcDbLine
 62
7
  6
CONTINUOUS
 10
-175.2875194101
 20
168.478592108
 11
-175.4146042679
 21
168.4616619589
  0
LINE
  5
3B2
100
AcDbEntity
  8
0
100
AcDbLine
 62
7
  6
CONTINUOUS
 10
-178.8132216141
 20
168.0782499474
 11
-178.952844057
 21
168.0601655682
  0
LINE
  5
3B3
100
AcDbEntity
  8
0
100
AcDbLine
 62
7
  6
CONTINUOUS
 10
-175.4292649068
 20
167.7580037996
 11
-175.2852474458
 21
167.776655113
  0
LINE
  5
3B4
100
AcDbEntity
  8
0
100
AcDbLine
 62
7
  6
CONTINUOUS
 10
-178.8763405455
 20
167.3682022523
 11
-178.7001995678
 21
167.3909683175
  0
LINE
  5
3B5
100
AcDbEntity
  8
0
100
AcDbLine
 62
7
  6
CONTINUOUS
 10
-175.4146042679
 20
168.4616619589
 11
-175.5498965841
 21
168.4443297523
  0
LINE
  5
3B6
100
AcDbEntity
  8
0
100
AcDbLine
 62
7
  6
CONTINUOUS
 10
-175.5835314328
 20
167.7387823666
 11
-175.4292649068
 21
167.7580037996
  0
LINE
  5
3B7
100
AcDbEntity
  8
0
100
AcDbLine
 62
7
  6
CONTINUOUS
 10
-178.7001995678
 20
167.3909683175
 11
-178.5115049221
 21
167.414237391
  0
LINE
  5
3B8
100
AcDbEntity
  8
0
100
AcDbLine
 62
7
  6
CONTINUOUS
 10
-178.5882776279
 20
168.1060735799
 11
-178.8132216141
 21
168.0782499474
  0
LINE
  5
3B9
100
AcDbEntity
  8
0
100
AcDbLine
 62
7
  6
CONTINUOUS
 10
-175.5498965841
 20
168.4443297523
 11
-175.7689805771
 21
168.4174660371
  0
LINE
  5
3BA
100
AcDbEntity
  8
0
100
AcDbLine
 62
7
  6
CONTINUOUS
 10
-175.8333554737
 20
167.7089610916
 11
-175.5835314328
 21
167.7387823666
  0
LINE
  5
3BB
100
AcDbEntity
  8
0
100
AcDbLine
 62
7
  6
CONTINUOUS
 10
-178.5115049221
 20
167.414237391
 11
-178.3106639824
 21
167.4380220281
  0
LINE
  5
3BC
100
AcDbEntity
  8
0
100
AcDbLine
 62
7
  6
CONTINUOUS
 10
-178.3446221336
 20
168.1348103273
 11
-178.5882776279
 21
168.1060735799
  0
LINE
  5
3BD
100
AcDbEntity
  8
0
100
AcDbLine
 62
7
  6
CONTINUOUS
 10
-175.7689805771
 20
168.4174660371
 11
-176.0082518113
 21
168.3894292517
  0
LINE
  5
3BE
100
AcDbEntity
  8
0
100
AcDbLine
 62
7
  6
CONTINUOUS
 10
-178.3106639824
 20
167.4380220281
 11
-178.0981606345
 21
167.4623429163
  0
LINE
  5
3BF
100
AcDbEntity
  8
0
100
AcDbLine
 62
7
  6
CONTINUOUS
 10
-176.193461285
 20
167.6680337736
 11
-175.8333554737
 21
167.7089610916
  0
LINE
  5
3C0
100
AcDbEntity
  8
0
100
AcDbLine
 62
7
  6
CONTINUOUS
 10
-176.0082518113
 20
168.3894292517
 11
-176.2679689022
 21
168.3601168839
  0
LINE
  5
3C1
100
AcDbEntity
  8
0
100
AcDbLine
 62
7
  6
CONTINUOUS
 10
-177.9925786432
 20
168.1745169739
 11
-178.3446221336
 21
168.1348103273
  0
LINE
  5
3C2
100
AcDbEntity
  8
0
100
AcDbLine
 62
7
  6
CONTINUOUS
 10
-178.0981606345
 20
167.4623429163
 11
-177.7964802945
 21
167.4957867104
  0
LINE
  5
3C3
100
AcDbEntity
  8
0
100
AcDbLine
 62
7
  6
CONTINUOUS
 10
-176.2679689022
 20
168.3601168839
 11
-176.6398957631
 21
168.3194968692
  0
LINE
  5
3C4
100
AcDbEntity
  8
0
100
AcDbLine
 62
7
  6
CONTINUOUS
 10
-177.7964802945
 20
167.4957867104
 11
-177.3883495409
 21
167.5397611352
  0
LWPOLYLINE
  5
3C5
100
AcDbEntity
  8
0
100
AcDbPolyline
 62
7
  6
CONTINUOUS
 90
3
 70
0
 10
-177.3883495409
 20
167.5397611352
 10
-177.0362305147
 20
167.5771750731
 10
-176.193461285
 20
167.6680337736
  0
LWPOLYLINE
  5
3C6
100
AcDbEntity
  8
0
100
AcDbPolyline
 62
7
  6
CONTINUOUS
 90
3
 70
0
 10
-176.6398957631
 20
168.3194968692
 10
-177.2261321971
 20
168.2570261594
 10
-177.9925786432
 20
168.1745169739
  0
LINE
  5
3C7
100
AcDbEntity
  8
0
100
AcDbLine
 62
7
  6
CONTINUOUS
 10
-184.1198868477
 20
181.4884049797
 11
-128.1198868477
 21
181.4884049797
  0
LINE
  5
3C8
100
AcDbEntity
  8
0
100
AcDbLine
 62
7
  6
CONTINUOUS
 10
-184.1198868477
 20
183.4884049797
 11
-128.1198868477
 21
183.4884049797
  0
LINE
  5
3C9
100
AcDbEntity
  8
0
100
AcDbLine
 62
7
  6
CONTINUOUS
 10
159.1708017086
 20
103.8507965951
 11
153.1553739504
 21
110.5150087084
  0
LINE
  5
3CA
100
AcDbEntity
  8
0
100
AcDbLine
 62
7
  6
CONTINUOUS
 10
152.5179625681
 20
110.5174582717
 11
158.9468416292
 21
103.366832861
  0
LINE
  5
3CB
100
AcDbEntity
  8
0
100
AcDbLine
 62
7
  6
CONTINUOUS
 10
156.0701793903
 20
103.3654331105
 11
149.6418252357
 21
110.5379296227
  0
LINE
  5
3CC
100
AcDbEntity
  8
0
100
AcDbLine
 62
7
  6
CONTINUOUS
 10
-104.1949619227
 20
205.4884049797
 11
104.9926131523
 21
205.4884049797
  0
LINE
  5
3CD
100
AcDbEntity
  8
ASSI
100
AcDbLine
 62
7
  6
CONTINUOUS
 10
184.6801131523
 20
206.4884049797
 11
182.6801131523
 21
206.4884049797
  0
LINE
  5
3CE
100
AcDbEntity
  8
ASSI
100
AcDbLine
 62
7
  6
CONTINUOUS
 10
-184.1198868477
 20
206.4884049797
 11
-182.1198868477
 21
206.4884049797
  0
LINE
  5
3CF
100
AcDbEntity
  8
0
100
AcDbLine
 62
253
  6
CONTINUOUS
 10
-182.1198868477
 20
206.4884049797
 11
-104.1198868477
 21
206.4884049797
  0
LINE
  5
3D0
100
AcDbEntity
  8
0
100
AcDbLine
 62
253
  6
CONTINUOUS
 10
182.6801131523
 20
206.4884049797
 11
104.6801131523
 21
206.4884049797
  0
LINE
  5
3D1
100
AcDbEntity
  8
0
100
AcDbLine
 62
7
  6
CONTINUOUS
 10
-104.1198868477
 20
206.4884049797
 11
104.6801131523
 21
206.4884049797
  0
LINE
  5
3D2
100
AcDbEntity
  8
0
100
AcDbLine
 62
7
  6
CONTINUOUS
 10
-184.6198868477
 20
207.8884049797
 11
-171.6223970528
 21
207.8884049797
  0
LINE
  5
3D3
100
AcDbEntity
  8
ASSI
100
AcDbLine
 62
7
  6
CONTINUOUS
 10
-171.6223970528
 20
207.8884049797
 11
-104.1198868477
 21
207.8884049797
  0
LINE
  5
3D4
100
AcDbEntity
  8
ASSI
100
AcDbLine
 62
7
  6
CONTINUOUS
 10
182.6801131523
 20
207.8884049797
 11
104.6801131523
 21
207.8884049797
  0
LINE
  5
3D5
100
AcDbEntity
  8
0
100
AcDbLine
 62
7
  6
CONTINUOUS
 10
-162.2198868477
 20
208.3384049797
 11
-169.6198868477
 21
208.3384049797
  0
LINE
  5
3D6
100
AcDbEntity
  8
0
100
AcDbLine
 62
7
  6
CONTINUOUS
 10
162.7801131523
 20
208.3384049797
 11
184.6801131523
 21
208.3384049797
  0
LINE
  5
3D7
100
AcDbEntity
  8
0
100
AcDbLine
 62
7
  6
CONTINUOUS
 10
162.7801131523
 20
208.3510341679
 11
162.6801131523
 21
208.3510341679
  0
LINE
  5
3D8
100
AcDbEntity
  8
0
100
AcDbLine
 62
7
  6
CONTINUOUS
 10
-162.2198868477
 20
208.3510341679
 11
-162.1198868477
 21
208.3510341679
  0
LINE
  5
3D9
100
AcDbEntity
  8
0
100
AcDbLine
 62
253
  6
CONTINUOUS
 10
-160.6198868477
 20
208.7884049797
 11
-161.8198868477
 21
208.7884049797
  0
LINE
  5
3DA
100
AcDbEntity
  8
0
100
AcDbLine
 62
7
  6
CONTINUOUS
 10
-169.6198868477
 20
208.8384049797
 11
-162.6198868477
 21
208.8384049797
  0
LINE
  5
3DB
100
AcDbEntity
  8
0
100
AcDbLine
 62
7
  6
CONTINUOUS
 10
183.1801131523
 20
208.8384049797
 11
163.1801131523
 21
208.8384049797
  0
LINE
  5
3DC
100
AcDbEntity
  8
0
100
AcDbLine
 62
253
  6
CONTINUOUS
 10
161.1801131523
 20
209.2884049797
 11
162.3801131523
 21
209.2884049797
  0
LINE
  5
3DD
100
AcDbEntity
  8
0
100
AcDbLine
 62
7
  6
CONTINUOUS
 10
163.1801131523
 20
209.5884049797
 11
162.6801131523
 21
209.5884049797
  0
LINE
  5
3DE
100
AcDbEntity
  8
0
100
AcDbLine
 62
7
  6
CONTINUOUS
 10
-169.6198868477
 20
209.8384049797
 11
-162.6198868477
 21
209.8384049797
  0
LINE
  5
3DF
100
AcDbEntity
  8
0
100
AcDbLine
 62
7
  6
CONTINUOUS
 10
183.1801131523
 20
209.8384049797
 11
163.1801131523
 21
209.8384049797
  0
LINE
  5
3E0
100
AcDbEntity
  8
0
100
AcDbLine
 62
7
  6
CONTINUOUS
 10
-184.6198868477
 20
210.3884049797
 11
-169.6198868477
 21
210.3884049797
  0
LINE
  5
3E1
100
AcDbEntity
  8
0
100
AcDbLine
 62
7
  6
CONTINUOUS
 10
184.2801131523
 20
210.5884049797
 11
-183.7198868477
 21
210.5884049797
  0
LINE
  5
3E2
100
AcDbEntity
  8
0
100
AcDbLine
 62
253
  6
CONTINUOUS
 10
-183.7198868477
 20
211.2884049797
 11
-184.1198868477
 21
211.2884049797
  0
LINE
  5
3E3
100
AcDbEntity
  8
0
100
AcDbLine
 62
253
  6
CONTINUOUS
 10
184.2801131523
 20
211.2884049797
 11
184.6801131523
 21
211.2884049797
  0
LINE
  5
3E4
100
AcDbEntity
  8
0
100
AcDbLine
 62
7
  6
CONTINUOUS
 10
184.6801131523
 20
212.2884049797
 11
184.2801131523
 21
212.2884049797
  0
LINE
  5
3E5
100
AcDbEntity
  8
0
100
AcDbLine
 62
7
  6
CONTINUOUS
 10
-184.1198868477
 20
212.2884049797
 11
-183.7198868477
 21
212.2884049797
  0
LINE
  5
3E6
100
AcDbEntity
  8
0
100
AcDbLine
 62
253
  6
CONTINUOUS
 10
184.6801131523
 20
214.9724452663
 11
184.2801131523
 21
214.9724452663
  0
LINE
  5
3E7
100
AcDbEntity
  8
0
100
AcDbLine
 62
253
  6
CONTINUOUS
 10
-184.1198868477
 20
214.9724452663
 11
-183.7198868477
 21
214.9724452663
  0
LINE
  5
3E8
100
AcDbEntity
  8
0
100
AcDbLine
 62
253
  6
CONTINUOUS
 10
184.2801131523
 20
215.956485553
 11
-183.7198868477
 21
215.956485553
  0
LINE
  5
3E9
100
AcDbEntity
  8
0
100
AcDbLine
 62
7
  6
CONTINUOUS
 10
184.6801131523
 20
228.3884049797
 11
184.2718597928
 21
228.3884049797
  0
LINE
  5
3EA
100
AcDbEntity
  8
0
100
AcDbLine
 62
7
  6
CONTINUOUS
 10
-184.1198868477
 20
228.3884049797
 11
-183.7116334881
 21
228.3884049797
  0
LINE
  5
3EB
100
AcDbEntity
  8
0
100
AcDbLine
 62
253
  6
CONTINUOUS
 10
184.2801131523
 20
228.7724452663
 11
-183.7198868477
 21
228.7724452663
  0
LINE
  5
3EC
100
AcDbEntity
  8
0
100
AcDbLine
 62
7
  6
CONTINUOUS
 10
183.4381365316
 20
230.0884049797
 11
-182.8779102269
 21
230.0884049797
  0
LWPOLYLINE
  5
3ED
100
AcDbEntity
  8
0
100
AcDbPolyline
 62
7
  6
CONTINUOUS
 90
5
 70
0
 10
184.2801131523
 20
-228.595635307
 10
184.187344855
 20
-228.8431686233
 10
184.0946427474
 20
-229.0738709379
 10
184.0020068295
 20
-229.2834450608
 10
183.9094812278
 20
-229.4680819497
  0
LINE
  5
3EE
100
AcDbEntity
  8
0
100
AcDbLine
 62
7
  6
CONTINUOUS
 10
184.1859244402
 20
229.0021511729
 11
184.2718597928
 21
228.7724452663
  0
LWPOLYLINE
  5
3EF
100
AcDbEntity
  8
0
100
AcDbPolyline
 62
7
  6
CONTINUOUS
 90
3
 70
0
 10
183.9094812278
 20
-229.4680819497
 10
183.8170218158
 20
-229.6241286694
 10
183.724496214
 20
-229.7483718076
  0
LWPOLYLINE
  5
3F0
100
AcDbEntity
  8
0
100
AcDbPolyline
 62
7
  6
CONTINUOUS
 90
3
 70
0
 10
183.724496214
 20
-229.7483718076
 10
183.6318602961
 20
-229.8385700123
 10
183.5391581885
 20
-229.8932742718
  0
LWPOLYLINE
  5
3F1
100
AcDbEntity
  8
0
100
AcDbPolyline
 62
7
  6
CONTINUOUS
 90
4
 70
0
 10
-182.8779102269
 20
230.0884049797
 10
-182.9741869317
 20
230.0686740948
 10
-183.0699359121
 20
230.0101595354
 10
-183.165157168
 20
229.9144322394
  0
LWPOLYLINE
  5
3F2
100
AcDbEntity
  8
0
100
AcDbPolyline
 62
7
  6
CONTINUOUS
 90
4
 70
0
 10
183.4381365316
 20
230.0884049797
 10
183.5344132364
 20
230.0686740948
 10
183.6301622167
 20
230.0101595354
 10
183.7253834727
 20
229.9144322394
  0
LWPOLYLINE
  5
3F3
100
AcDbEntity
  8
0
100
AcDbPolyline
 62
7
  6
CONTINUOUS
 90
6
 70
0
 10
183.7253834727
 20
229.9144322394
 10
183.8205869674
 20
229.7827860567
 10
183.9152627376
 20
229.6186849716
 10
184.0078808942
 20
229.4297494636
 10
184.097931474
 20
229.2228999721
 10
184.1859244402
 20
229.0021511729
  0
LINE
  5
3F4
100
AcDbEntity
  8
0
100
AcDbLine
 62
7
  6
CONTINUOUS
 10
-574.7108285323
 20
-229.9115950203
 11
-267.4960711499
 21
-229.9115950203
  0
LINE
  5
3F5
100
AcDbEntity
  8
0
100
AcDbLine
 62
7
  6
CONTINUOUS
 10
-574.7108285323
 20
-228.7115950203
 11
-573.9032135302
 21
-228.7115950203
  0
LINE
  5
3F6
100
AcDbEntity
  8
0
100
AcDbLine
 62
7
  6
CONTINUOUS
 10
-267.8911001383
 20
-228.7115950203
 11
-267.4960711499
 21
-228.7115950203
  0
LINE
  5
3F7
100
AcDbEntity
  8
0
100
AcDbLine
 62
253
  6
CONTINUOUS
 10
-573.9032135302
 20
-228.2115950203
 11
-267.8911001383
 21
-228.2115950203
  0
LINE
  5
3F8
100
AcDbEntity
  8
0
100
AcDbLine
 62
7
  6
CONTINUOUS
 10
-266.6960711499
 20
-227.9115950203
 11
-265.4960711499
 21
-227.9115950203
  0
LINE
  5
3F9
100
AcDbEntity
  8
0
100
AcDbLine
 62
7
  6
CONTINUOUS
 10
-576.5951030332
 20
228.7590121366
 11
-581.2548416331
 21
215.956485553
  0
LINE
  5
3FA
100
AcDbEntity
  8
0
100
AcDbLine
 62
7
  6
CONTINUOUS
 10
-576.9068382884
 20
-212.1115950203
 11
-554.4032135302
 21
-212.1115950203
  0
LINE
  5
3FB
100
AcDbEntity
  8
0
100
AcDbLine
 62
253
  6
CONTINUOUS
 10
-554.4032135302
 20
-212.1115950203
 11
-267.8911001383
 21
-212.1115950203
  0
LINE
  5
3FC
100
AcDbEntity
  8
0
100
AcDbLine
 62
7
  6
CONTINUOUS
 10
-554.4195289789
 20
-211.6115950203
 11
-554.6338653142
 21
-211.6115950203
  0
LINE
  5
3FD
100
AcDbEntity
  8
0
100
AcDbLine
 62
7
  6
CONTINUOUS
 10
-555.4960711499
 20
-211.6115950203
 11
-577.4960711499
 21
-211.6115950203
  0
LINE
  5
3FE
100
AcDbEntity
  8
0
100
AcDbLine
 62
7
  6
CONTINUOUS
 10
-265.4960711499
 20
-210.4115950203
 11
-266.6960711499
 21
-210.4115950203
  0
LINE
  5
3FF
100
AcDbEntity
  8
0
100
AcDbLine
 62
7
  6
CONTINUOUS
 10
-267.8911001383
 20
-210.4115950203
 11
-554.6338653142
 21
-210.4115950203
  0
LINE
  5
400
100
AcDbEntity
  8
0
100
AcDbLine
 62
7
  6
CONTINUOUS
 10
-555.4960711499
 20
-210.4115950203
 11
-577.4960711499
 21
-210.4115950203
  0
LINE
  5
401
100
AcDbEntity
  8
0
100
AcDbLine
 62
7
  6
CONTINUOUS
 10
-578.2623668891
 20
-210.4115950203
 11
-578.9960389669
 21
-210.4115950203
  0
LINE
  5
402
100
AcDbEntity
  8
0
100
AcDbLine
 62
253
  6
CONTINUOUS
 10
-554.6464809966
 20
-210.1115950203
 11
-267.8911001383
 21
-210.1115950203
  0
LINE
  5
403
100
AcDbEntity
  8
0
100
AcDbLine
 62
7
  6
CONTINUOUS
 10
-288.4960711499
 20
-209.6615950203
 11
-558.4960711499
 21
-209.6615950203
  0
LINE
  5
404
100
AcDbEntity
  8
0
100
AcDbLine
 62
7
  6
CONTINUOUS
 10
-560.4960711499
 20
-208.1615950203
 11
-557.9960711499
 21
-208.1615950203
  0
LINE
  5
405
100
AcDbEntity
  8
0
100
AcDbLine
 62
7
  6
CONTINUOUS
 10
-288.9960711499
 20
-208.1615950203
 11
-286.4960711499
 21
-208.1615950203
  0
LINE
  5
406
100
AcDbEntity
  8
0
100
AcDbLine
 62
253
  6
CONTINUOUS
 10
-288.9960711499
 20
-208.1615950203
 11
-557.9960711499
 21
-208.1615950203
  0
LINE
  5
407
100
AcDbEntity
  8
0
100
AcDbLine
 62
7
  6
CONTINUOUS
 10
-265.4960711499
 20
-208.1599289705
 11
-266.1540642962
 21
-208.1599289705
  0
LINE
  5
408
100
AcDbEntity
  8
0
100
AcDbLine
 62
7
  6
CONTINUOUS
 10
-266.1540642962
 20
-208.1599289705
 11
-285.9960711499
 21
-208.1599289705
  0
LINE
  5
409
100
AcDbEntity
  8
0
100
AcDbLine
 62
7
  6
CONTINUOUS
 10
-581.2548416331
 20
-215.7796755936
 11
-576.5902137738
 21
-228.595635307
  0
LINE
  5
40A
100
AcDbEntity
  8
0
100
AcDbLine
 62
7
  6
CONTINUOUS
 10
-575.4674718883
 20
228.3485879646
 11
-580.1272104881
 21
215.546061381
  0
LINE
  5
40B
100
AcDbEntity
  8
0
100
AcDbLine
 62
7
  6
CONTINUOUS
 10
-578.8005187681
 20
214.9724452663
 11
-573.9175087683
 21
228.3884049797
  0
LINE
  5
40C
100
AcDbEntity
  8
ASSI
100
AcDbLine
 62
7
  6
CONTINUOUS
 10
-541.4024403339
 20
214.7639613348
 11
-536.0705133699
 21
224.7925731456
  0
LINE
  5
40D
100
AcDbEntity
  8
ASSI
100
AcDbLine
 62
7
  6
CONTINUOUS
 10
-534.9226634459
 20
223.5432421746
 11
-539.9897019659
 21
214.0128486245
  0
LINE
  5
40E
100
AcDbEntity
  8
ASSI
100
AcDbLine
 62
7
  6
CONTINUOUS
 10
-560.9960711499
 20
-207.9115950203
 11
-576.5960711499
 21
-207.9115950203
  0
LINE
  5
40F
100
AcDbEntity
  8
0
100
AcDbLine
 62
7
  6
CONTINUOUS
 10
-576.9513734617
 20
-207.9115950203
 11
-578.9960389669
 21
-207.9115950203
  0
LINE
  5
410
100
AcDbEntity
  8
ASSI
100
AcDbLine
 62
7
  6
CONTINUOUS
 10
-576.5960711499
 20
-206.7115950203
 11
-560.9960711499
 21
-206.7115950203
  0
LINE
  5
411
100
AcDbEntity
  8
ASSI
100
AcDbLine
 62
7
  6
CONTINUOUS
 10
-560.9960711499
 20
-206.5115950203
 11
-577.9960711499
 21
-206.5115950203
  0
LINE
  5
412
100
AcDbEntity
  8
0
100
AcDbLine
 62
7
  6
CONTINUOUS
 10
-286.4960711499
 20
-191.4115950203
 11
-285.9960711499
 21
-191.4115950203
  0
LWPOLYLINE
  5
413
100
AcDbEntity
  8
0
100
AcDbPolyline
 62
7
  6
CONTINUOUS
 90
13
 70
0
 10
-568.5324754577
 20
-168.5115950203
 10
-568.5367768602
 20
-168.5100876071
 10
-568.5690816765
 20
-168.4995899335
 10
-568.603388603
 20
-168.4892138566
 10
-568.6399267448
 20
-168.4788935123
 10
-568.6787642004
 20
-168.4686150763
 10
-568.7199003798
 20
-168.4583803025
 10
-568.763423861
 20
-168.4481667291
 10
-568.8094270338
 20
-168.4379529357
 10
-568.8577980367
 20
-168.4277614175
 10
-568.9084755823
 20
-168.4175986073
 10
-568.9615793458
 20
-168.4074343785
 10
-568.9960711499
 20
-168.4011173072
  0
LINE
  5
414
100
AcDbEntity
  8
0
100
AcDbLine
 62
7
  6
CONTINUOUS
 10
-541.4024403339
 20
-214.5871513755
 11
-536.0705133699
 21
-224.6157631862
  0
LINE
  5
415
100
AcDbEntity
  8
0
100
AcDbLine
 62
7
  6
CONTINUOUS
 10
-534.9226634459
 20
-223.3664322153
 11
-539.9897019659
 21
-213.8360386652
  0
LINE
  5
416
100
AcDbEntity
  8
0
100
AcDbLine
 62
7
  6
CONTINUOUS
 10
-580.1272104881
 20
-215.3692514217
 11
-575.4625826289
 21
-228.185211135
  0
LINE
  5
417
100
AcDbEntity
  8
0
100
AcDbLine
 62
7
  6
CONTINUOUS
 10
-573.9032135302
 20
-228.2115950203
 11
-578.78622353
 21
-214.795635307
  0
LINE
  5
418
100
AcDbEntity
  8
0
100
AcDbLine
 62
7
  6
CONTINUOUS
 10
-609.8960711499
 20
3.4884049797
 11
-609.8960711499
 21
-3.5115950203
  0
LINE
  5
419
100
AcDbEntity
  8
0
100
AcDbLine
 62
7
  6
CONTINUOUS
 10
-608.1960711499
 20
6.4884049797
 11
-608.1960711499
 21
3.4884049797
  0
LINE
  5
41A
100
AcDbEntity
  8
0
100
AcDbLine
 62
7
  6
CONTINUOUS
 10
-608.1960711499
 20
-3.5115950203
 11
-608.1960711499
 21
-6.5115950203
  0
LINE
  5
41B
100
AcDbEntity
  8
0
100
AcDbLine
 62
7
  6
CONTINUOUS
 10
-531.5607628875
 20
221.2925433633
 11
-532.4668046777
 21
219.5884049797
  0
LINE
  5
41C
100
AcDbEntity
  8
0
100
AcDbLine
 62
7
  6
CONTINUOUS
 10
-531.5607628875
 20
217.8842665961
 11
-530.6547210973
 21
219.5884049797
  0
LINE
  5
41D
100
AcDbEntity
  8
0
100
AcDbLine
 62
7
  6
CONTINUOUS
 10
-524.4313794123
 20
221.2925433633
 11
-525.3374212025
 21
219.5884049797
  0
LINE
  5
41E
100
AcDbEntity
  8
0
100
AcDbLine
 62
7
  6
CONTINUOUS
 10
-524.4313794123
 20
217.8842665961
 11
-523.5253376221
 21
219.5884049797
  0
LINE
  5
41F
100
AcDbEntity
  8
ASSI
100
AcDbLine
 62
7
  6
CONTINUOUS
 10
-521.0694788539
 20
215.6335677847
 11
-516.0024403339
 21
225.1639613348
  0
LINE
  5
420
100
AcDbEntity
  8
ASSI
100
AcDbLine
 62
7
  6
CONTINUOUS
 10
-514.5897019659
 20
224.4128486245
 11
-519.9216289299
 21
214.3842368138
  0
LINE
  5
421
100
AcDbEntity
  8
0
100
AcDbLine
 62
7
  6
CONTINUOUS
 10
-286.0187208807
 20
-188.6599289705
 11
-286.4960711499
 21
-188.6599289705
  0
LINE
  5
422
100
AcDbEntity
  8
0
100
AcDbLine
 62
7
  6
CONTINUOUS
 10
-562.4960711499
 20
-183.5115950203
 11
-577.9960711499
 21
-183.5115950203
  0
LINE
  5
423
100
AcDbEntity
  8
0
100
AcDbLine
 62
7
  6
CONTINUOUS
 10
-562.4960711499
 20
-181.5115950203
 11
-577.9960711499
 21
-181.5115950203
  0
LINE
  5
424
100
AcDbEntity
  8
0
100
AcDbLine
 62
7
  6
CONTINUOUS
 10
-531.5607628875
 20
-221.115733404
 11
-532.4668046777
 21
-219.4115950204
  0
LINE
  5
425
100
AcDbEntity
  8
0
100
AcDbLine
 62
7
  6
CONTINUOUS
 10
-531.5607628875
 20
-217.7074566367
 11
-530.6547210973
 21
-219.4115950204
  0
LINE
  5
426
100
AcDbEntity
  8
0
100
AcDbLine
 62
7
  6
CONTINUOUS
 10
-524.4313794123
 20
-221.115733404
 11
-525.3374212025
 21
-219.4115950204
  0
LINE
  5
427
100
AcDbEntity
  8
0
100
AcDbLine
 62
7
  6
CONTINUOUS
 10
-524.4313794123
 20
-217.7074566367
 11
-523.5253376221
 21
-219.4115950204
  0
LINE
  5
428
100
AcDbEntity
  8
0
100
AcDbLine
 62
7
  6
CONTINUOUS
 10
-521.0694788539
 20
-215.4567578254
 11
-516.0024403339
 21
-224.9871513755
  0
LINE
  5
429
100
AcDbEntity
  8
0
100
AcDbLine
 62
7
  6
CONTINUOUS
 10
-514.5897019659
 20
-224.2360386652
 11
-519.9216289299
 21
-214.2074268545
  0
LWPOLYLINE
  5
42A
100
AcDbEntity
  8
0
100
AcDbPolyline
 62
7
  6
CONTINUOUS
 90
4
 70
0
 10
-554.6338653142
 20
-210.4115950203
 10
-554.6352736091
 20
-210.4070805391
 10
-554.6366786278
 20
-210.393630499
 10
-554.6380803703
 20
-210.3715894336
  0
LINE
  5
42B
100
AcDbEntity
  8
0
100
AcDbLine
 62
7
  6
CONTINUOUS
 10
-591.0960711499
 20
-5.6115950203
 11
-591.0960711499
 21
-3.5115950203
  0
LINE
  5
42C
100
AcDbEntity
  8
0
100
AcDbLine
 62
7
  6
CONTINUOUS
 10
-591.0960711499
 20
3.4884049797
 11
-591.0960711499
 21
5.5884049797
  0
LINE
  5
42D
100
AcDbEntity
  8
ASSI
100
AcDbLine
 62
7
  6
CONTINUOUS
 10
-502.4024403339
 20
214.7639613348
 11
-497.0705133699
 21
224.7925731456
  0
LINE
  5
42E
100
AcDbEntity
  8
ASSI
100
AcDbLine
 62
7
  6
CONTINUOUS
 10
-495.9226634459
 20
223.5432421746
 11
-500.9897019659
 21
214.0128486245
  0
LINE
  5
42F
100
AcDbEntity
  8
0
100
AcDbLine
 62
7
  6
CONTINUOUS
 10
-492.5607628875
 20
221.2925433633
 11
-493.4668046777
 21
219.5884049797
  0
LINE
  5
430
100
AcDbEntity
  8
0
100
AcDbLine
 62
7
  6
CONTINUOUS
 10
-492.5607628875
 20
217.8842665961
 11
-491.6547210973
 21
219.5884049797
  0
LINE
  5
431
100
AcDbEntity
  8
0
100
AcDbLine
 62
7
  6
CONTINUOUS
 10
-572.7960711499
 20
-167.9346074393
 11
-572.5831262972
 21
-167.9098010207
  0
LINE
  5
432
100
AcDbEntity
  8
0
100
AcDbLine
 62
7
  6
CONTINUOUS
 10
-570.3694174005
 20
-167.6692468619
 11
-570.0532915741
 21
-167.6323453946
  0
LINE
  5
433
100
AcDbEntity
  8
0
100
AcDbLine
 62
7
  6
CONTINUOUS
 10
-570.2811626488
 20
-166.9583996414
 11
-570.4929636399
 21
-166.9827283098
  0
LINE
  5
434
100
AcDbEntity
  8
0
100
AcDbLine
 62
7
  6
CONTINUOUS
 10
-572.5831262972
 20
-167.9098010207
 11
-572.3196728287
 21
-167.8801662391
  0
LINE
  5
435
100
AcDbEntity
  8
0
100
AcDbLine
 62
7
  6
CONTINUOUS
 10
-572.3796457302
 20
-167.1864742736
 11
-572.747079435
 21
-167.2280190292
  0
LINE
  5
436
100
AcDbEntity
  8
0
100
AcDbLine
 62
7
  6
CONTINUOUS
 10
-570.4929636399
 20
-166.9827283098
 11
-570.81600138
 21
-167.0185969967
  0
LINE
  5
437
100
AcDbEntity
  8
0
100
AcDbLine
 62
7
  6
CONTINUOUS
 10
-570.7987485
 20
-167.7169241052
 11
-570.3694174005
 21
-167.6692468619
  0
LINE
  5
438
100
AcDbEntity
  8
0
100
AcDbLine
 62
7
  6
CONTINUOUS
 10
-572.3196728287
 20
-167.8801662391
 11
-571.9424270344
 21
-167.8390679452
  0
LINE
  5
439
100
AcDbEntity
  8
0
100
AcDbLine
 62
7
  6
CONTINUOUS
 10
-570.81600138
 20
-167.0185969967
 11
-571.2490500452
 21
-167.0652369808
  0
LWPOLYLINE
  5
43A
100
AcDbEntity
  8
0
100
AcDbPolyline
 62
7
  6
CONTINUOUS
 90
3
 70
0
 10
-571.9424270344
 20
-167.8390679452
 10
-571.5403369279
 20
-167.7961865216
 10
-570.7987485
 20
-167.7169241052
  0
LWPOLYLINE
  5
43B
100
AcDbEntity
  8
0
100
AcDbPolyline
 62
7
  6
CONTINUOUS
 90
3
 70
0
 10
-571.2490500452
 20
-167.0652369808
 10
-571.4636190254
 20
-167.0880456376
 10
-572.3796457302
 20
-167.1864742736
  0
LINE
  5
43C
100
AcDbEntity
  8
0
100
AcDbLine
 62
7
  6
CONTINUOUS
 10
-562.4960711499
 20
-168.5115950203
 11
-577.9960711499
 21
-168.5115950203
  0
LINE
  5
43D
100
AcDbEntity
  8
0
100
AcDbLine
 62
7
  6
CONTINUOUS
 10
-562.4960711499
 20
-166.5115950203
 11
-577.9960711499
 21
-166.5115950203
  0
LINE
  5
43E
100
AcDbEntity
  8
0
100
AcDbLine
 62
7
  6
CONTINUOUS
 10
-560.7960711499
 20
-154.2615950203
 11
-560.9960711499
 21
-154.2615950203
  0
LINE
  5
43F
100
AcDbEntity
  8
0
100
AcDbLine
 62
7
  6
CONTINUOUS
 10
-562.4960711499
 20
-153.5115950203
 11
-577.9960711499
 21
-153.5115950203
  0
LINE
  5
440
100
AcDbEntity
  8
0
100
AcDbLine
 62
7
  6
CONTINUOUS
 10
-563.6960711499
 20
-153.0115950203
 11
-563.9960711499
 21
-153.0115950203
  0
LINE
  5
441
100
AcDbEntity
  8
0
100
AcDbLine
 62
7
  6
CONTINUOUS
 10
-565.9960711499
 20
-153.0115950203
 11
-566.4960711499
 21
-153.0115950203
  0
LINE
  5
442
100
AcDbEntity
  8
0
100
AcDbLine
 62
7
  6
CONTINUOUS
 10
-562.4960711499
 20
-151.5115950203
 11
-577.9960711499
 21
-151.5115950203
  0
LINE
  5
443
100
AcDbEntity
  8
0
100
AcDbLine
 62
7
  6
CONTINUOUS
 10
-502.4024403339
 20
-214.5871513755
 11
-497.0705133699
 21
-224.6157631862
  0
LINE
  5
444
100
AcDbEntity
  8
0
100
AcDbLine
 62
7
  6
CONTINUOUS
 10
-495.9226634459
 20
-223.3664322153
 11
-500.9897019659
 21
-213.8360386652
  0
LINE
  5
445
100
AcDbEntity
  8
0
100
AcDbLine
 62
7
  6
CONTINUOUS
 10
-492.5607628875
 20
-221.115733404
 11
-493.4668046777
 21
-219.4115950204
  0
LINE
  5
446
100
AcDbEntity
  8
0
100
AcDbLine
 62
7
  6
CONTINUOUS
 10
-492.5607628875
 20
-217.7074566367
 11
-491.6547210973
 21
-219.4115950204
  0
LINE
  5
447
100
AcDbEntity
  8
0
100
AcDbLine
 62
7
  6
CONTINUOUS
 10
-583.0960711499
 20
-7.1615950203
 11
-583.0960711499
 21
7.1384049797
  0
LINE
  5
448
100
AcDbEntity
  8
0
100
AcDbLine
 62
7
  6
CONTINUOUS
 10
-582.0960711499
 20
-9.5115950203
 11
-582.0960711499
 21
9.4884049797
  0
LINE
  5
449
100
AcDbEntity
  8
0
100
AcDbLine
 62
7
  6
CONTINUOUS
 10
-580.4960711499
 20
-11.0115950203
 11
-580.4960711499
 21
10.9884049797
  0
LINE
  5
44A
100
AcDbEntity
  8
0
100
AcDbLine
 62
7
  6
CONTINUOUS
 10
-578.9960711499
 20
-207.9115950203
 11
-578.9960711499
 21
-210.4115950203
  0
LINE
  5
44B
100
AcDbEntity
  8
0
100
AcDbLine
 62
7
  6
CONTINUOUS
 10
-578.9960711499
 20
207.8884049797
 11
-578.9960711499
 21
210.3884049797
  0
LINE
  5
44C
100
AcDbEntity
  8
0
100
AcDbLine
 62
7
  6
CONTINUOUS
 10
-578.0460711499
 20
120.6159586713
 11
-578.0460711499
 21
100.3508956713
  0
LINE
  5
44D
100
AcDbEntity
  8
0
100
AcDbLine
 62
7
  6
CONTINUOUS
 10
-578.0460711499
 20
95.7380176713
 11
-578.0460711499
 21
83.3979926713
  0
LINE
  5
44E
100
AcDbEntity
  8
0
100
AcDbLine
 62
7
  6
CONTINUOUS
 10
-578.0460711499
 20
-139.3108741898
 11
-578.0460711499
 21
-126.801050734
  0
LINE
  5
44F
100
AcDbEntity
  8
0
100
AcDbLine
 62
7
  6
CONTINUOUS
 10
-578.0460711499
 20
82.2358496713
 11
-578.0460711499
 21
79.1042576713
  0
LINE
  5
450
100
AcDbEntity
  8
0
100
AcDbLine
 62
7
  6
CONTINUOUS
 10
-578.0460711499
 20
-122.8914739655
 11
-578.0460711499
 21
-111.0620237538
  0
LINE
  5
451
100
AcDbEntity
  8
0
100
AcDbLine
 62
7
  6
CONTINUOUS
 10
-578.0460711499
 20
77.2539626713
 11
-578.0460711499
 21
62.0372746713
  0
LINE
  5
452
100
AcDbEntity
  8
0
100
AcDbLine
 62
7
  6
CONTINUOUS
 10
-578.0460711499
 20
61.2854338132
 11
-578.0460711499
 21
48.9464582188
  0
LINE
  5
453
100
AcDbEntity
  8
0
100
AcDbLine
 62
7
  6
CONTINUOUS
 10
-578.0460711499
 20
-107.9583775276
 11
-578.0460711499
 21
-92.4437435358
  0
LINE
  5
454
100
AcDbEntity
  8
0
100
AcDbLine
 62
7
  6
CONTINUOUS
 10
-578.0460711499
 20
48.0399448036
 11
-578.0460711499
 21
37.112442616
  0
LINE
  5
455
100
AcDbEntity
  8
0
100
AcDbLine
 62
7
  6
CONTINUOUS
 10
-578.0460711499
 20
-73.6608513622
 11
-578.0460711499
 21
-59.2592751097
  0
LINE
  5
456
100
AcDbEntity
  8
0
100
AcDbLine
 62
7
  6
CONTINUOUS
 10
-578.0460711499
 20
-57.0156878106
 11
-578.0460711499
 21
-44.5058643548
  0
LINE
  5
457
100
AcDbEntity
  8
0
100
AcDbLine
 62
7
  6
CONTINUOUS
 10
-578.0460711499
 20
-39.3626400274
 11
-578.0460711499
 21
-25.0115950203
  0
LINE
  5
458
100
AcDbEntity
  8
0
100
AcDbLine
 62
7
  6
CONTINUOUS
 10
-578.0460711499
 20
-75.8799438541
 11
-578.0460711499
 21
-90.3587406127
  0
LINE
  5
459
100
AcDbEntity
  8
0
100
AcDbLine
 62
7
  6
CONTINUOUS
 10
-577.9960711499
 20
206.4884049797
 11
-577.9960711499
 21
-206.5115950203
  0
LINE
  5
45A
100
AcDbEntity
  8
0
100
AcDbLine
 62
253
  6
CONTINUOUS
 10
-577.4960711499
 20
-210.4115950203
 11
-577.4960711499
 21
-211.6115950203
  0
LINE
  5
45B
100
AcDbEntity
  8
0
100
AcDbLine
 62
253
  6
CONTINUOUS
 10
-577.4960711499
 20
210.5884049797
 11
-577.4960711499
 21
211.7884049797
  0
LINE
  5
45C
100
AcDbEntity
  8
0
100
AcDbLine
 62
7
  6
CONTINUOUS
 10
-576.7960711499
 20
-151.5115950203
 11
-576.7960711499
 21
-153.5115950203
  0
LINE
  5
45D
100
AcDbEntity
  8
0
100
AcDbLine
 62
7
  6
CONTINUOUS
 10
-576.7960711499
 20
-166.5115950203
 11
-576.7960711499
 21
-168.5115950203
  0
LINE
  5
45E
100
AcDbEntity
  8
0
100
AcDbLine
 62
7
  6
CONTINUOUS
 10
-576.7960711499
 20
-181.5115950203
 11
-576.7960711499
 21
-183.5115950203
  0
LINE
  5
45F
100
AcDbEntity
  8
0
100
AcDbLine
 62
7
  6
CONTINUOUS
 10
-576.2960711499
 20
206.6884049797
 11
-576.2960711499
 21
206.4884049797
  0
LINE
  5
460
100
AcDbEntity
  8
0
100
AcDbLine
 62
7
  6
CONTINUOUS
 10
-576.2960711499
 20
-206.7115950203
 11
-576.2960711499
 21
-206.5115950203
  0
LINE
  5
461
100
AcDbEntity
  8
0
100
AcDbLine
 62
253
  6
CONTINUOUS
 10
-575.9960711499
 20
206.4884049797
 11
-575.9960711499
 21
-151.5115950203
  0
LINE
  5
462
100
AcDbEntity
  8
0
100
AcDbLine
 62
253
  6
CONTINUOUS
 10
-575.9960711499
 20
-153.5115950203
 11
-575.9960711499
 21
-166.5115950203
  0
LINE
  5
463
100
AcDbEntity
  8
0
100
AcDbLine
 62
253
  6
CONTINUOUS
 10
-575.9960711499
 20
-168.5115950203
 11
-575.9960711499
 21
-181.5115950203
  0
LINE
  5
464
100
AcDbEntity
  8
0
100
AcDbLine
 62
253
  6
CONTINUOUS
 10
-575.9960711499
 20
-183.5115950203
 11
-575.9960711499
 21
-206.5115950203
  0
LINE
  5
465
100
AcDbEntity
  8
0
100
AcDbLine
 62
7
  6
CONTINUOUS
 10
-575.7960711499
 20
-151.5115950203
 11
-575.7960711499
 21
-153.5115950203
  0
LINE
  5
466
100
AcDbEntity
  8
0
100
AcDbLine
 62
7
  6
CONTINUOUS
 10
-575.7960711499
 20
-166.5115950203
 11
-575.7960711499
 21
-168.5115950203
  0
LINE
  5
467
100
AcDbEntity
  8
0
100
AcDbLine
 62
7
  6
CONTINUOUS
 10
-575.7960711499
 20
-181.5115950203
 11
-575.7960711499
 21
-183.5115950203
  0
LINE
  5
468
100
AcDbEntity
  8
0
100
AcDbLine
 62
7
  6
CONTINUOUS
 10
-575.3960711499
 20
-206.5115950203
 11
-575.3960711499
 21
-206.7115950203
  0
LINE
  5
469
100
AcDbEntity
  8
0
100
AcDbLine
 62
7
  6
CONTINUOUS
 10
-575.3960711499
 20
206.4884049797
 11
-575.3960711499
 21
206.6884049797
  0
LINE
  5
46A
100
AcDbEntity
  8
0
100
AcDbLine
 62
7
  6
CONTINUOUS
 10
-574.7108285323
 20
-228.7115950203
 11
-574.7108285323
 21
-229.9115950203
  0
LINE
  5
46B
100
AcDbEntity
  8
0
100
AcDbLine
 62
7
  6
CONTINUOUS
 10
-574.7108285323
 20
228.8884049797
 11
-574.7108285323
 21
230.0884049797
  0
LINE
  5
46C
100
AcDbEntity
  8
0
100
AcDbLine
 62
7
  6
CONTINUOUS
 10
-573.9960711499
 20
212.2884049797
 11
-573.9960711499
 21
211.7884049797
  0
LINE
  5
46D
100
AcDbEntity
  8
0
100
AcDbLine
 62
7
  6
CONTINUOUS
 10
-573.9960711499
 20
210.5884049797
 11
-573.9960711499
 21
210.3884049797
  0
LINE
  5
46E
100
AcDbEntity
  8
0
100
AcDbLine
 62
7
  6
CONTINUOUS
 10
-573.9960711499
 20
-212.1115950203
 11
-573.9960711499
 21
-211.6115950203
  0
LINE
  5
46F
100
AcDbEntity
  8
0
100
AcDbLine
 62
7
  6
CONTINUOUS
 10
-573.9175087683
 20
230.0884049797
 11
-573.9175087683
 21
228.3884049797
  0
LINE
  5
470
100
AcDbEntity
  8
0
100
AcDbLine
 62
253
  6
CONTINUOUS
 10
-573.9175087683
 20
228.3884049797
 11
-573.9175087683
 21
212.2884049797
  0
LINE
  5
471
100
AcDbEntity
  8
0
100
AcDbLine
 62
7
  6
CONTINUOUS
 10
-573.9032135302
 20
-229.9115950203
 11
-573.9032135302
 21
-228.2115950203
  0
LINE
  5
472
100
AcDbEntity
  8
0
100
AcDbLine
 62
253
  6
CONTINUOUS
 10
-573.9032135302
 20
-228.2115950203
 11
-573.9032135302
 21
-212.1115950203
  0
LINE
  5
473
100
AcDbEntity
  8
0
100
AcDbLine
 62
7
  6
CONTINUOUS
 10
-573.7960711499
 20
-151.5115950203
 11
-573.7960711499
 21
-153.5115950203
  0
LINE
  5
474
100
AcDbEntity
  8
0
100
AcDbLine
 62
7
  6
CONTINUOUS
 10
-573.7960711499
 20
-166.5115950203
 11
-573.7960711499
 21
-168.5115950203
  0
LINE
  5
475
100
AcDbEntity
  8
0
100
AcDbLine
 62
7
  6
CONTINUOUS
 10
-573.7960711499
 20
-181.5115950203
 11
-573.7960711499
 21
-183.5115950203
  0
LINE
  5
476
100
AcDbEntity
  8
0
100
AcDbLine
 62
7
  6
CONTINUOUS
 10
-572.7960711499
 20
-151.5115950203
 11
-572.7960711499
 21
-153.5115950203
  0
LINE
  5
477
100
AcDbEntity
  8
0
100
AcDbLine
 62
7
  6
CONTINUOUS
 10
-572.7960711499
 20
-166.5115950203
 11
-572.7960711499
 21
-168.5115950203
  0
LINE
  5
478
100
AcDbEntity
  8
0
100
AcDbLine
 62
7
  6
CONTINUOUS
 10
-572.7960711499
 20
-181.5115950203
 11
-572.7960711499
 21
-183.5115950203
  0
LINE
  5
479
100
AcDbEntity
  8
0
100
AcDbLine
 62
7
  6
CONTINUOUS
 10
-485.4313794123
 20
221.2925433633
 11
-486.3374212025
 21
219.5884049797
  0
LINE
  5
47A
100
AcDbEntity
  8
0
100
AcDbLine
 62
7
  6
CONTINUOUS
 10
-485.4313794123
 20
217.8842665961
 11
-484.5253376221
 21
219.5884049797
  0
LINE
  5
47B
100
AcDbEntity
  8
ASSI
100
AcDbLine
 62
7
  6
CONTINUOUS
 10
-482.0694788539
 20
215.6335677847
 11
-477.0024403339
 21
225.1639613348
  0
LINE
  5
47C
100
AcDbEntity
  8
ASSI
100
AcDbLine
 62
7
  6
CONTINUOUS
 10
-475.5897019659
 20
224.4128486245
 11
-480.9216289299
 21
214.3842368138
  0
LWPOLYLINE
  5
47D
100
AcDbEntity
  8
0
100
AcDbPolyline
 62
7
  6
CONTINUOUS
 90
35
 70
0
 10
-569.039687846
 20
-167.4897304576
 10
-568.9934085146
 20
-167.4814267241
 10
-568.9489811965
 20
-167.4731738356
 10
-568.9063730813
 20
-167.4649676308
 10
-568.8654854162
 20
-167.4567905215
 10
-568.8262963111
 20
-167.4486390797
 10
-568.7887638625
 20
-167.4405056543
 10
-568.7527577464
 20
-167.4323616743
 10
-568.718267393
 20
-167.4242032278
 10
-568.68523575
 20
-167.4160150343
 10
-568.6534641285
 20
-167.4077422782
 10
-568.6229371316
 20
-167.3993716038
 10
-568.5936108746
 20
-167.3908803569
 10
-568.5652434661
 20
-167.3821807001
 10
-568.5377939163
 20
-167.3732334021
 10
-568.5112536911
 20
-167.3640051681
 10
-568.4854072204
 20
-167.3543797772
 10
-568.460268742
 20
-167.3443091222
 10
-568.435758346
 20
-167.3336987226
 10
-568.4115001933
 20
-167.3222908512
 10
-568.3875155538
 20
-167.3099632582
 10
-568.3637966782
 20
-167.2965551269
 10
-568.3399675086
 20
-167.2816273831
 10
-568.3161402281
 20
-167.2649348536
 10
-568.2924933421
 20
-167.2462201666
 10
-568.2688942033
 20
-167.2248458686
 10
-568.24549983
 20
-167.2001691822
 10
-568.2230410299
 20
-167.1720967689
 10
-568.2023278697
 20
-167.1408412896
 10
-568.1836842911
 20
-167.1059260065
 10
-568.167979481
 20
-167.0677201665
 10
-568.1563491731
 20
-167.0281635925
 10
-568.1490688895
 20
-166.9882580591
 10
-568.1461266555
 20
-166.9478065388
 10
-568.1460714655
 20
-166.9413510452
  0
LWPOLYLINE
  5
47E
100
AcDbEntity
  8
0
100
AcDbPolyline
 62
7
  6
CONTINUOUS
 90
4
 70
0
 10
-569.1900513177
 20
-167.515002088
 10
-569.1379563005
 20
-167.5065108479
 10
-569.0878427081
 20
-167.4980876148
 10
-569.039687846
 20
-167.4897304576
  0
LINE
  5
47F
100
AcDbEntity
  8
0
100
AcDbLine
 62
7
  6
CONTINUOUS
 10
-569.2831332743
 20
-166.8250798209
 11
-569.3829901916
 21
-166.8408017417
  0
LINE
  5
480
100
AcDbEntity
  8
0
100
AcDbLine
 62
7
  6
CONTINUOUS
 10
-569.300340307
 20
-167.5322073882
 11
-569.1900513177
 21
-167.515002088
  0
LINE
  5
481
100
AcDbEntity
  8
0
100
AcDbLine
 62
7
  6
CONTINUOUS
 10
-569.3829901916
 20
-166.8408017417
 11
-569.490676174
 21
-166.8568743172
  0
LINE
  5
482
100
AcDbEntity
  8
0
100
AcDbLine
 62
7
  6
CONTINUOUS
 10
-569.4190654304
 20
-167.5497477467
 11
-569.300340307
 21
-167.5322073882
  0
LINE
  5
483
100
AcDbEntity
  8
0
100
AcDbLine
 62
7
  6
CONTINUOUS
 10
-569.490676174
 20
-166.8568743172
 11
-569.606097318
 21
-166.8732782643
  0
LINE
  5
484
100
AcDbEntity
  8
0
100
AcDbLine
 62
7
  6
CONTINUOUS
 10
-569.5465106046
 20
-167.5676567993
 11
-569.4190654304
 21
-167.5497477467
  0
LINE
  5
485
100
AcDbEntity
  8
0
100
AcDbLine
 62
7
  6
CONTINUOUS
 10
-569.606097318
 20
-166.8732782643
 11
-569.7291406531
 21
-166.8900002349
  0
LINE
  5
486
100
AcDbEntity
  8
0
100
AcDbLine
 62
7
  6
CONTINUOUS
 10
-569.6828617061
 20
-167.585957555
 11
-569.5465106046
 21
-167.5676567993
  0
LINE
  5
487
100
AcDbEntity
  8
0
100
AcDbLine
 62
7
  6
CONTINUOUS
 10
-569.7291406531
 20
-166.8900002349
 11
-569.8596281721
 21
-166.9070260814
  0
LINE
  5
488
100
AcDbEntity
  8
0
100
AcDbLine
 62
7
  6
CONTINUOUS
 10
-569.8283378798
 20
-167.6046822278
 11
-569.6828617061
 21
-167.585957555
  0
LINE
  5
489
100
AcDbEntity
  8
0
100
AcDbLine
 62
7
  6
CONTINUOUS
 10
-569.8596281721
 20
-166.9070260814
 11
-570.0740730961
 21
-166.9337477932
  0
LINE
  5
48A
100
AcDbEntity
  8
0
100
AcDbLine
 62
7
  6
CONTINUOUS
 10
-570.0532915741
 20
-167.6323453946
 11
-569.8283378798
 21
-167.6046822278
  0
LINE
  5
48B
100
AcDbEntity
  8
0
100
AcDbLine
 62
7
  6
CONTINUOUS
 10
-570.0740730961
 20
-166.9337477932
 11
-570.2811626488
 21
-166.9583996414
  0
LINE
  5
48C
100
AcDbEntity
  8
0
100
AcDbLine
 62
7
  6
CONTINUOUS
 10
-572.747079435
 20
-167.2280190292
 11
-572.7960711499
 21
-167.2337425422
  0
LINE
  5
48D
100
AcDbEntity
  8
0
100
AcDbLine
 62
7
  6
CONTINUOUS
 10
-560.7960711499
 20
-146.7615950203
 11
-560.9960711499
 21
-146.7615950203
  0
LINE
  5
48E
100
AcDbEntity
  8
0
100
AcDbLine
 62
7
  6
CONTINUOUS
 10
-485.4313794123
 20
-221.115733404
 11
-486.3374212025
 21
-219.4115950204
  0
LINE
  5
48F
100
AcDbEntity
  8
0
100
AcDbLine
 62
7
  6
CONTINUOUS
 10
-485.4313794123
 20
-217.7074566367
 11
-484.5253376221
 21
-219.4115950204
  0
LINE
  5
490
100
AcDbEntity
  8
0
100
AcDbLine
 62
7
  6
CONTINUOUS
 10
-482.0694788539
 20
-215.4567578254
 11
-477.0024403339
 21
-224.9871513755
  0
LINE
  5
491
100
AcDbEntity
  8
0
100
AcDbLine
 62
7
  6
CONTINUOUS
 10
-475.5897019659
 20
-224.2360386652
 11
-480.9216289299
 21
-214.2074268545
  0
LINE
  5
492
100
AcDbEntity
  8
0
100
AcDbLine
 62
7
  6
CONTINUOUS
 10
-554.4177176386
 20
-210.437463872
 11
-554.4195289789
 21
-210.4115950203
  0
LWPOLYLINE
  5
493
100
AcDbEntity
  8
0
100
AcDbPolyline
 62
7
  6
CONTINUOUS
 90
3
 70
0
 10
-554.6338653142
 20
-211.6115950203
 10
-554.6352659088
 20
-211.5887695633
 10
-554.6366670774
 20
-211.5210243941
  0
LWPOLYLINE
  5
494
100
AcDbEntity
  8
0
100
AcDbPolyline
 62
7
  6
CONTINUOUS
 90
3
 70
0
 10
-554.6380803703
 20
-210.3715894336
 10
-554.6394766525
 20
-210.3415151602
 10
-554.6408696584
 20
-210.3043039441
  0
LINE
  5
495
100
AcDbEntity
  8
0
100
AcDbLine
 62
7
  6
CONTINUOUS
 10
-554.6408696584
 20
-210.3043039441
 11
-554.643667683
 21
-210.2138495498
  0
LINE
  5
496
100
AcDbEntity
  8
0
100
AcDbLine
 62
7
  6
CONTINUOUS
 10
-554.643667683
 20
-210.2138495498
 11
-554.6464809966
 21
-210.1115950203
  0
LWPOLYLINE
  5
497
100
AcDbEntity
  8
0
100
AcDbPolyline
 62
7
  6
CONTINUOUS
 90
3
 70
0
 10
-554.4140927271
 20
-210.6395333326
 10
-554.4159055547
 20
-210.5142417309
 10
-554.4177176386
 20
-210.437463872
  0
LINE
  5
498
100
AcDbEntity
  8
0
100
AcDbLine
 62
7
  6
CONTINUOUS
 10
-554.6464809966
 20
-210.1115950203
 11
-554.6517805214
 21
-209.6615950203
  0
LINE
  5
499
100
AcDbEntity
  8
0
100
AcDbLine
 62
7
  6
CONTINUOUS
 10
-554.6366670774
 20
-211.5210243941
 11
-554.6394715189
 21
-211.2605701953
  0
LINE
  5
49A
100
AcDbEntity
  8
0
100
AcDbLine
 62
7
  6
CONTINUOUS
 10
-554.4104638491
 20
-211.018732524
 11
-554.4140927271
 21
-210.6395333326
  0
LWPOLYLINE
  5
49B
100
AcDbEntity
  8
0
100
AcDbPolyline
 62
7
  6
CONTINUOUS
 90
20
 70
0
 10
-568.1460715122
 20
-166.9416372381
 10
-568.14610036
 20
-166.9369234675
 10
-568.1489955049
 20
-166.8952982715
 10
-568.156446292
 20
-166.8544069997
 10
-568.1683837875
 20
-166.8141145049
 10
-568.1844748598
 20
-166.7753894465
 10
-568.2035850721
 20
-166.740050468
 10
-568.2248107892
 20
-166.7084783967
 10
-568.2478250896
 20
-166.6801709318
 10
-568.2719530045
 20
-166.6551840203
 10
-568.2965505235
 20
-166.6333734239
 10
-568.3214429562
 20
-166.6141569895
 10
-568.3467907316
 20
-166.5969111022
 10
-568.372489449
 20
-166.5813549901
 10
-568.3984629694
 20
-166.5672475057
 10
-568.4250655083
 20
-166.5541879845
 10
-568.4522636631
 20
-166.5420423944
 10
-568.4801862434
 20
-166.5306288692
 10
-568.5095073693
 20
-166.5196025909
 10
-568.5325612238
 20
-166.5115950203
  0
LINE
  5
49C
100
AcDbEntity
  8
0
100
AcDbLine
 62
7
  6
CONTINUOUS
 10
-554.4032135302
 20
-212.1115950203
 11
-554.4104638491
 21
-211.018732524
  0
LINE
  5
49D
100
AcDbEntity
  8
0
100
AcDbLine
 62
7
  6
CONTINUOUS
 10
-554.6394715189
 20
-211.2605701953
 11
-554.6436792335
 21
-210.6249261419
  0
LINE
  5
49E
100
AcDbEntity
  8
0
100
AcDbLine
 62
7
  6
CONTINUOUS
 10
-554.6436792335
 20
-210.6249261419
 11
-554.645080402
 21
-210.3722775279
  0
LINE
  5
49F
100
AcDbEntity
  8
0
100
AcDbLine
 62
7
  6
CONTINUOUS
 10
-568.9960711499
 20
212.2884049797
 11
-568.9960711499
 21
211.7884049797
  0
LINE
  5
4A0
100
AcDbEntity
  8
0
100
AcDbLine
 62
7
  6
CONTINUOUS
 10
-568.9960711499
 20
210.5884049797
 11
-568.9960711499
 21
210.3884049797
  0
LINE
  5
4A1
100
AcDbEntity
  8
0
100
AcDbLine
 62
7
  6
CONTINUOUS
 10
-568.9960711499
 20
-212.1115950203
 11
-568.9960711499
 21
-211.6115950203
  0
LINE
  5
4A2
100
AcDbEntity
  8
0
100
AcDbLine
 62
7
  6
CONTINUOUS
 10
-568.9960711499
 20
-183.5115950203
 11
-568.9960711499
 21
-181.5115950203
  0
LINE
  5
4A3
100
AcDbEntity
  8
0
100
AcDbLine
 62
7
  6
CONTINUOUS
 10
-568.9960711499
 20
-168.5115950203
 11
-568.9960711499
 21
-167.4819044712
  0
LINE
  5
4A4
100
AcDbEntity
  8
0
100
AcDbLine
 62
7
  6
CONTINUOUS
 10
-568.9960711499
 20
-166.7732531801
 11
-568.9960711499
 21
-166.5115950203
  0
LINE
  5
4A5
100
AcDbEntity
  8
0
100
AcDbLine
 62
7
  6
CONTINUOUS
 10
-568.9960711499
 20
-153.5115950203
 11
-568.9960711499
 21
-152.4115950203
  0
LINE
  5
4A6
100
AcDbEntity
  8
0
100
AcDbLine
 62
7
  6
CONTINUOUS
 10
-567.5960711499
 20
-206.5115950203
 11
-567.5960711499
 21
-206.7115950203
  0
LINE
  5
4A7
100
AcDbEntity
  8
0
100
AcDbLine
 62
7
  6
CONTINUOUS
 10
-567.5960711499
 20
206.4884049797
 11
-567.5960711499
 21
206.6884049797
  0
LINE
  5
4A8
100
AcDbEntity
  8
0
100
AcDbLine
 62
7
  6
CONTINUOUS
 10
-566.9960711499
 20
-152.5115950203
 11
-566.9960711499
 21
-151.5115950203
  0
LINE
  5
4A9
100
AcDbEntity
  8
0
100
AcDbLine
 62
253
  6
CONTINUOUS
 10
-566.4960711499
 20
-151.5115950203
 11
-566.4960711499
 21
-153.0115950203
  0
LINE
  5
4AA
100
AcDbEntity
  8
0
100
AcDbLine
 62
7
  6
CONTINUOUS
 10
-565.9960711499
 20
-153.0115950203
 11
-565.9960711499
 21
-151.5115950203
  0
LINE
  5
4AB
100
AcDbEntity
  8
0
100
AcDbLine
 62
7
  6
CONTINUOUS
 10
-563.9960711499
 20
-151.5115950203
 11
-563.9960711499
 21
-153.0115950203
  0
LINE
  5
4AC
100
AcDbEntity
  8
0
100
AcDbLine
 62
7
  6
CONTINUOUS
 10
-563.9960711499
 20
-207.9115950203
 11
-563.9960711499
 21
-210.4115950203
  0
LINE
  5
4AD
100
AcDbEntity
  8
0
100
AcDbLine
 62
7
  6
CONTINUOUS
 10
-563.9960711499
 20
207.8884049797
 11
-563.9960711499
 21
210.3884049797
  0
LINE
  5
4AE
100
AcDbEntity
  8
RACCORDO
100
AcDbLine
 62
7
  6
CONTINUOUS
 10
-563.6960711499
 20
-151.5115950203
 11
-563.6960711499
 21
-153.5115950203
  0
LINE
  5
4AF
100
AcDbEntity
  8
0
100
AcDbLine
 62
7
  6
CONTINUOUS
 10
-562.4960711499
 20
-151.5115950203
 11
-562.4960711499
 21
-153.5115950203
  0
LINE
  5
4B0
100
AcDbEntity
  8
0
100
AcDbLine
 62
7
  6
CONTINUOUS
 10
-562.4960711499
 20
-166.5115950203
 11
-562.4960711499
 21
-168.5115950203
  0
LINE
  5
4B1
100
AcDbEntity
  8
0
100
AcDbLine
 62
7
  6
CONTINUOUS
 10
-562.4960711499
 20
-181.5115950203
 11
-562.4960711499
 21
-183.5115950203
  0
LINE
  5
4B2
100
AcDbEntity
  8
ASSI
100
AcDbLine
 62
253
  6
CONTINUOUS
 10
-562.3960711499
 20
206.4884049797
 11
-562.3960711499
 21
-206.5115950203
  0
LINE
  5
4B3
100
AcDbEntity
  8
ASSI
100
AcDbLine
 62
7
  6
CONTINUOUS
 10
-560.9960711499
 20
207.8884049797
 11
-560.9960711499
 21
206.6884049797
  0
LINE
  5
4B4
100
AcDbEntity
  8
ASSI
100
AcDbLine
 62
7
  6
CONTINUOUS
 10
-560.9960711499
 20
206.4884049797
 11
-560.9960711499
 21
-206.5115950203
  0
LINE
  5
4B5
100
AcDbEntity
  8
ASSI
100
AcDbLine
 62
7
  6
CONTINUOUS
 10
-560.9960711499
 20
-206.7115950203
 11
-560.9960711499
 21
-207.9115950203
  0
LINE
  5
4B6
100
AcDbEntity
  8
0
100
AcDbLine
 62
253
  6
CONTINUOUS
 10
-560.7960711499
 20
-146.7615950203
 11
-560.7960711499
 21
-154.2615950203
  0
LINE
  5
4B7
100
AcDbEntity
  8
0
100
AcDbLine
 62
253
  6
CONTINUOUS
 10
-560.7960711499
 20
146.7384049797
 11
-560.7960711499
 21
154.2384049797
  0
LINE
  5
4B8
100
AcDbEntity
  8
0
100
AcDbLine
 62
253
  6
CONTINUOUS
 10
-560.6743320195
 20
-146.8029142587
 11
-560.6743320195
 21
-154.220275782
  0
LINE
  5
4B9
100
AcDbEntity
  8
0
100
AcDbLine
 62
253
  6
CONTINUOUS
 10
-560.6743320195
 20
146.779724218
 11
-560.6743320195
 21
154.1970857413
  0
LINE
  5
4BA
100
AcDbEntity
  8
0
100
AcDbLine
 62
7
  6
CONTINUOUS
 10
-560.4960711499
 20
208.3384049797
 11
-560.4960711499
 21
-208.1615950203
  0
LINE
  5
4BB
100
AcDbEntity
  8
0
100
AcDbLine
 62
7
  6
CONTINUOUS
 10
-558.4960711499
 20
-208.1615950203
 11
-558.4960711499
 21
-209.6615950203
  0
LINE
  5
4BC
100
AcDbEntity
  8
0
100
AcDbLine
 62
7
  6
CONTINUOUS
 10
-558.4960711499
 20
208.3384049797
 11
-558.4960711499
 21
209.8384049797
  0
LINE
  5
4BD
100
AcDbEntity
  8
0
100
AcDbLine
 62
253
  6
CONTINUOUS
 10
-557.9960711499
 20
208.3384049797
 11
-557.9960711499
 21
-208.1615950203
  0
LINE
  5
4BE
100
AcDbEntity
  8
0
100
AcDbLine
 62
7
  6
CONTINUOUS
 10
-555.4960711499
 20
-210.4115950203
 11
-555.4960711499
 21
-211.6115950203
  0
LINE
  5
4BF
100
AcDbEntity
  8
0
100
AcDbLine
 62
7
  6
CONTINUOUS
 10
-555.4960711499
 20
210.5884049797
 11
-555.4960711499
 21
211.7884049797
  0
LINE
  5
4C0
100
AcDbEntity
  8
0
100
AcDbLine
 62
253
  6
CONTINUOUS
 10
-554.6846683897
 20
210.7884049797
 11
-554.6846683897
 21
209.8384049797
  0
LINE
  5
4C1
100
AcDbEntity
  8
0
100
AcDbLine
 62
253
  6
CONTINUOUS
 10
-554.6338653142
 20
-211.6115950203
 11
-554.6338653142
 21
-210.4115950203
  0
LINE
  5
4C2
100
AcDbEntity
  8
0
100
AcDbLine
 62
7
  6
CONTINUOUS
 10
-554.436535809
 20
210.1955424833
 11
-554.42928549
 21
211.2884049797
  0
LINE
  5
4C3
100
AcDbEntity
  8
0
100
AcDbLine
 62
7
  6
CONTINUOUS
 10
-554.6902745944
 20
210.4373801546
 11
-554.694482309
 21
209.8017361013
  0
LINE
  5
4C4
100
AcDbEntity
  8
0
100
AcDbLine
 62
7
  6
CONTINUOUS
 10
-554.4399291144
 20
209.8384049797
 11
-554.436535809
 21
210.1955424833
  0
LINE
  5
4C5
100
AcDbEntity
  8
0
100
AcDbLine
 62
7
  6
CONTINUOUS
 10
-554.42928549
 20
211.2884049797
 11
-554.4175087683
 21
212.2884049797
  0
LWPOLYLINE
  5
4C6
100
AcDbEntity
  8
0
100
AcDbPolyline
 62
7
  6
CONTINUOUS
 90
4
 70
0
 10
-554.6846683897
 20
210.7884049797
 10
-554.6860689843
 20
210.7655795226
 10
-554.6874701528
 20
210.6978343534
 10
-554.6902745944
 20
210.4373801546
  0
LINE
  5
4C7
100
AcDbEntity
  8
ASSI
100
AcDbLine
 62
7
  6
CONTINUOUS
 10
-463.4024403339
 20
214.7639613348
 11
-458.0705133699
 21
224.7925731456
  0
LINE
  5
4C8
100
AcDbEntity
  8
ASSI
100
AcDbLine
 62
7
  6
CONTINUOUS
 10
-456.9226634459
 20
223.5432421746
 11
-461.9897019659
 21
214.0128486245
  0
LINE
  5
4C9
100
AcDbEntity
  8
0
100
AcDbLine
 62
7
  6
CONTINUOUS
 10
-453.5607628875
 20
221.2925433633
 11
-454.4668046777
 21
219.5884049797
  0
LINE
  5
4CA
100
AcDbEntity
  8
0
100
AcDbLine
 62
7
  6
CONTINUOUS
 10
-453.5607628875
 20
217.8842665961
 11
-452.6547210973
 21
219.5884049797
  0
LINE
  5
4CB
100
AcDbEntity
  8
0
100
AcDbLine
 62
7
  6
CONTINUOUS
 10
-606.6960711499
 20
-0.0115950203
 11
-603.3726692783
 21
3.3118068512
  0
LINE
  5
4CC
100
AcDbEntity
  8
0
100
AcDbLine
 62
7
  6
CONTINUOUS
 10
-600.0492674068
 20
-0.0115950203
 11
-603.3726692783
 21
-3.3349968919
  0
LINE
  5
4CD
100
AcDbEntity
  8
0
100
AcDbLine
 62
7
  6
CONTINUOUS
 10
-603.6460711499
 20
10.6384049797
 11
-608.1960711499
 21
6.4884049797
  0
LINE
  5
4CE
100
AcDbEntity
  8
0
100
AcDbLine
 62
7
  6
CONTINUOUS
 10
-608.1960711499
 20
-6.5115950203
 11
-603.6460711499
 21
-10.6615950203
  0
LINE
  5
4CF
100
AcDbEntity
  8
0
100
AcDbLine
 62
7
  6
CONTINUOUS
 10
-603.3726692783
 20
-3.3349968919
 11
-606.6960711499
 21
-0.0115950203
  0
LINE
  5
4D0
100
AcDbEntity
  8
0
100
AcDbLine
 62
7
  6
CONTINUOUS
 10
-603.3726692783
 20
3.3118068512
 11
-600.0492674068
 21
-0.0115950203
  0
LINE
  5
4D1
100
AcDbEntity
  8
0
100
AcDbLine
 62
7
  6
CONTINUOUS
 10
-463.4024403339
 20
-214.5871513755
 11
-458.0705133699
 21
-224.6157631862
  0
LINE
  5
4D2
100
AcDbEntity
  8
0
100
AcDbLine
 62
7
  6
CONTINUOUS
 10
-456.9226634459
 20
-223.3664322153
 11
-461.9897019659
 21
-213.8360386652
  0
LINE
  5
4D3
100
AcDbEntity
  8
0
100
AcDbLine
 62
7
  6
CONTINUOUS
 10
-453.5607628875
 20
-221.115733404
 11
-454.4668046777
 21
-219.4115950204
  0
LINE
  5
4D4
100
AcDbEntity
  8
0
100
AcDbLine
 62
7
  6
CONTINUOUS
 10
-453.5607628875
 20
-217.7074566367
 11
-452.6547210973
 21
-219.4115950204
  0
LINE
  5
4D5
100
AcDbEntity
  8
0
100
AcDbLine
 62
7
  6
CONTINUOUS
 10
-446.4313794123
 20
221.2925433633
 11
-447.3374212025
 21
219.5884049797
  0
LINE
  5
4D6
100
AcDbEntity
  8
0
100
AcDbLine
 62
7
  6
CONTINUOUS
 10
-446.4313794123
 20
217.8842665961
 11
-445.5253376221
 21
219.5884049797
  0
LINE
  5
4D7
100
AcDbEntity
  8
ASSI
100
AcDbLine
 62
7
  6
CONTINUOUS
 10
-443.0694788539
 20
215.6335677847
 11
-438.0024403339
 21
225.1639613348
  0
LINE
  5
4D8
100
AcDbEntity
  8
ASSI
100
AcDbLine
 62
7
  6
CONTINUOUS
 10
-436.5897019659
 20
224.4128486245
 11
-441.9216289299
 21
214.3842368138
  0
LINE
  5
4D9
100
AcDbEntity
  8
0
100
AcDbLine
 62
7
  6
CONTINUOUS
 10
-596.1460711499
 20
-10.6615950203
 11
-591.0960711499
 21
-5.6115950203
  0
LINE
  5
4DA
100
AcDbEntity
  8
0
100
AcDbLine
 62
7
  6
CONTINUOUS
 10
-582.0960711499
 20
9.4884049797
 11
-580.4960711499
 21
10.9884049797
  0
LINE
  5
4DB
100
AcDbEntity
  8
0
100
AcDbLine
 62
7
  6
CONTINUOUS
 10
-589.0960711499
 20
-3.5115950203
 11
-587.0960711499
 21
-1.8115950203
  0
LINE
  5
4DC
100
AcDbEntity
  8
0
100
AcDbLine
 62
7
  6
CONTINUOUS
 10
-582.0960711499
 20
-9.5115950203
 11
-580.4960711499
 21
-11.0115950203
  0
LINE
  5
4DD
100
AcDbEntity
  8
0
100
AcDbLine
 62
7
  6
CONTINUOUS
 10
-591.0960711499
 20
5.5884049797
 11
-596.1460711499
 21
10.6384049797
  0
LINE
  5
4DE
100
AcDbEntity
  8
0
100
AcDbLine
 62
7
  6
CONTINUOUS
 10
-446.4313794123
 20
-221.115733404
 11
-447.3374212025
 21
-219.4115950204
  0
LINE
  5
4DF
100
AcDbEntity
  8
0
100
AcDbLine
 62
7
  6
CONTINUOUS
 10
-446.4313794123
 20
-217.7074566367
 11
-445.5253376221
 21
-219.4115950204
  0
LINE
  5
4E0
100
AcDbEntity
  8
0
100
AcDbLine
 62
7
  6
CONTINUOUS
 10
-443.0694788539
 20
-215.4567578254
 11
-438.0024403339
 21
-224.9871513755
  0
LINE
  5
4E1
100
AcDbEntity
  8
0
100
AcDbLine
 62
7
  6
CONTINUOUS
 10
-436.5897019659
 20
-224.2360386652
 11
-441.9216289299
 21
-214.2074268545
  0
LINE
  5
4E2
100
AcDbEntity
  8
ASSI
100
AcDbLine
 62
7
  6
CONTINUOUS
 10
-424.4024403339
 20
214.7639613348
 11
-419.0705133699
 21
224.7925731456
  0
LINE
  5
4E3
100
AcDbEntity
  8
ASSI
100
AcDbLine
 62
7
  6
CONTINUOUS
 10
-417.9226634459
 20
223.5432421746
 11
-422.9897019659
 21
214.0128486245
  0
LINE
  5
4E4
100
AcDbEntity
  8
0
100
AcDbLine
 62
7
  6
CONTINUOUS
 10
-414.5607628875
 20
221.2925433633
 11
-415.4668046777
 21
219.5884049797
  0
LINE
  5
4E5
100
AcDbEntity
  8
0
100
AcDbLine
 62
7
  6
CONTINUOUS
 10
-414.5607628875
 20
217.8842665961
 11
-413.6547210973
 21
219.5884049797
  0
LINE
  5
4E6
100
AcDbEntity
  8
0
100
AcDbLine
 62
7
  6
CONTINUOUS
 10
-407.4313794123
 20
221.2925433633
 11
-408.3374212025
 21
219.5884049797
  0
LINE
  5
4E7
100
AcDbEntity
  8
0
100
AcDbLine
 62
7
  6
CONTINUOUS
 10
-407.4313794123
 20
217.8842665961
 11
-406.5253376221
 21
219.5884049797
  0
LINE
  5
4E8
100
AcDbEntity
  8
0
100
AcDbLine
 62
7
  6
CONTINUOUS
 10
-583.0960711499
 20
7.1384049797
 11
-582.0960711499
 21
7.7050716463
  0
LINE
  5
4E9
100
AcDbEntity
  8
0
100
AcDbLine
 62
7
  6
CONTINUOUS
 10
-583.0960711499
 20
-7.1615950203
 11
-582.0960711499
 21
-7.728261687
  0
LINE
  5
4EA
100
AcDbEntity
  8
0
100
AcDbLine
 62
7
  6
CONTINUOUS
 10
-424.4024403339
 20
-214.5871513755
 11
-419.0705133699
 21
-224.6157631862
  0
LINE
  5
4EB
100
AcDbEntity
  8
0
100
AcDbLine
 62
7
  6
CONTINUOUS
 10
-417.9226634459
 20
-223.3664322153
 11
-422.9897019659
 21
-213.8360386652
  0
LINE
  5
4EC
100
AcDbEntity
  8
0
100
AcDbLine
 62
7
  6
CONTINUOUS
 10
-414.5607628875
 20
-221.115733404
 11
-415.4668046777
 21
-219.4115950204
  0
LINE
  5
4ED
100
AcDbEntity
  8
0
100
AcDbLine
 62
7
  6
CONTINUOUS
 10
-414.5607628875
 20
-217.7074566367
 11
-413.6547210973
 21
-219.4115950204
  0
LINE
  5
4EE
100
AcDbEntity
  8
0
100
AcDbLine
 62
7
  6
CONTINUOUS
 10
-407.4313794123
 20
-221.115733404
 11
-408.3374212025
 21
-219.4115950204
  0
LINE
  5
4EF
100
AcDbEntity
  8
0
100
AcDbLine
 62
7
  6
CONTINUOUS
 10
-407.4313794123
 20
-217.7074566367
 11
-406.5253376221
 21
-219.4115950204
  0
LINE
  5
4F0
100
AcDbEntity
  8
ASSI
100
AcDbLine
 62
7
  6
CONTINUOUS
 10
-404.0694788539
 20
215.6335677847
 11
-399.0024403339
 21
225.1639613348
  0
LINE
  5
4F1
100
AcDbEntity
  8
ASSI
100
AcDbLine
 62
7
  6
CONTINUOUS
 10
-397.5897019659
 20
224.4128486245
 11
-402.9216289299
 21
214.3842368138
  0
LINE
  5
4F2
100
AcDbEntity
  8
0
100
AcDbLine
 62
7
  6
CONTINUOUS
 10
-404.0694788539
 20
-215.4567578254
 11
-399.0024403339
 21
-224.9871513755
  0
LINE
  5
4F3
100
AcDbEntity
  8
0
100
AcDbLine
 62
7
  6
CONTINUOUS
 10
-397.5897019659
 20
-224.2360386652
 11
-402.9216289299
 21
-214.2074268545
  0
LINE
  5
4F4
100
AcDbEntity
  8
ASSI
100
AcDbLine
 62
7
  6
CONTINUOUS
 10
-385.4024403339
 20
214.7639613348
 11
-380.0705133699
 21
224.7925731456
  0
LINE
  5
4F5
100
AcDbEntity
  8
ASSI
100
AcDbLine
 62
7
  6
CONTINUOUS
 10
-378.9226634459
 20
223.5432421746
 11
-383.9897019659
 21
214.0128486245
  0
LINE
  5
4F6
100
AcDbEntity
  8
0
100
AcDbLine
 62
7
  6
CONTINUOUS
 10
-375.5607628875
 20
221.2925433633
 11
-376.4668046777
 21
219.5884049797
  0
LINE
  5
4F7
100
AcDbEntity
  8
0
100
AcDbLine
 62
7
  6
CONTINUOUS
 10
-375.5607628875
 20
217.8842665961
 11
-374.6547210973
 21
219.5884049797
  0
LINE
  5
4F8
100
AcDbEntity
  8
0
100
AcDbLine
 62
7
  6
CONTINUOUS
 10
-368.4313794123
 20
221.2925433633
 11
-369.3374212025
 21
219.5884049797
  0
LINE
  5
4F9
100
AcDbEntity
  8
0
100
AcDbLine
 62
7
  6
CONTINUOUS
 10
-368.4313794123
 20
217.8842665961
 11
-367.5253376221
 21
219.5884049797
  0
LINE
  5
4FA
100
AcDbEntity
  8
ASSI
100
AcDbLine
 62
7
  6
CONTINUOUS
 10
-365.0694788539
 20
215.6335677847
 11
-360.0024403339
 21
225.1639613348
  0
LINE
  5
4FB
100
AcDbEntity
  8
0
100
AcDbLine
 62
7
  6
CONTINUOUS
 10
-385.4024403339
 20
-214.5871513755
 11
-380.0705133699
 21
-224.6157631862
  0
LINE
  5
4FC
100
AcDbEntity
  8
0
100
AcDbLine
 62
7
  6
CONTINUOUS
 10
-378.9226634459
 20
-223.3664322153
 11
-383.9897019659
 21
-213.8360386652
  0
LINE
  5
4FD
100
AcDbEntity
  8
0
100
AcDbLine
 62
7
  6
CONTINUOUS
 10
-375.5607628875
 20
-221.115733404
 11
-376.4668046777
 21
-219.4115950204
  0
LINE
  5
4FE
100
AcDbEntity
  8
0
100
AcDbLine
 62
7
  6
CONTINUOUS
 10
-375.5607628875
 20
-217.7074566367
 11
-374.6547210973
 21
-219.4115950204
  0
LINE
  5
4FF
100
AcDbEntity
  8
0
100
AcDbLine
 62
7
  6
CONTINUOUS
 10
-368.4313794123
 20
-221.115733404
 11
-369.3374212025
 21
-219.4115950204
  0
LINE
  5
500
100
AcDbEntity
  8
0
100
AcDbLine
 62
7
  6
CONTINUOUS
 10
-368.4313794123
 20
-217.7074566367
 11
-367.5253376221
 21
-219.4115950204
  0
LINE
  5
501
100
AcDbEntity
  8
0
100
AcDbLine
 62
7
  6
CONTINUOUS
 10
-365.0694788539
 20
-215.4567578254
 11
-360.0024403339
 21
-224.9871513755
  0
LINE
  5
502
100
AcDbEntity
  8
ASSI
100
AcDbLine
 62
7
  6
CONTINUOUS
 10
-358.5897019659
 20
224.4128486245
 11
-363.9216289299
 21
214.3842368138
  0
LINE
  5
503
100
AcDbEntity
  8
ASSI
100
AcDbLine
 62
7
  6
CONTINUOUS
 10
-346.4024403339
 20
214.7639613348
 11
-341.0705133699
 21
224.7925731456
  0
LINE
  5
504
100
AcDbEntity
  8
ASSI
100
AcDbLine
 62
7
  6
CONTINUOUS
 10
-339.9226634459
 20
223.5432421746
 11
-344.9897019659
 21
214.0128486245
  0
LINE
  5
505
100
AcDbEntity
  8
0
100
AcDbLine
 62
7
  6
CONTINUOUS
 10
-267.1053953764
 20
213.0884049797
 11
-267.9053953764
 21
212.2884049797
  0
LINE
  5
506
100
AcDbEntity
  8
0
100
AcDbLine
 62
7
  6
CONTINUOUS
 10
-267.8911001383
 20
-212.1115950203
 11
-267.0911001383
 21
-212.9115950203
  0
LINE
  5
507
100
AcDbEntity
  8
0
100
AcDbLine
 62
7
  6
CONTINUOUS
 10
-358.5897019659
 20
-224.2360386652
 11
-363.9216289299
 21
-214.2074268545
  0
LINE
  5
508
100
AcDbEntity
  8
0
100
AcDbLine
 62
7
  6
CONTINUOUS
 10
-346.4024403339
 20
-214.5871513755
 11
-341.0705133699
 21
-224.6157631862
  0
LINE
  5
509
100
AcDbEntity
  8
0
100
AcDbLine
 62
7
  6
CONTINUOUS
 10
-339.9226634459
 20
-223.3664322153
 11
-344.9897019659
 21
-213.8360386652
  0
LINE
  5
50A
100
AcDbEntity
  8
0
100
AcDbLine
 62
7
  6
CONTINUOUS
 10
-336.5607628875
 20
221.2925433633
 11
-337.4668046777
 21
219.5884049797
  0
LINE
  5
50B
100
AcDbEntity
  8
0
100
AcDbLine
 62
7
  6
CONTINUOUS
 10
-336.5607628875
 20
217.8842665961
 11
-335.6547210973
 21
219.5884049797
  0
LINE
  5
50C
100
AcDbEntity
  8
0
100
AcDbLine
 62
7
  6
CONTINUOUS
 10
-329.4313794123
 20
221.2925433633
 11
-330.3374212025
 21
219.5884049797
  0
LINE
  5
50D
100
AcDbEntity
  8
0
100
AcDbLine
 62
7
  6
CONTINUOUS
 10
-329.4313794123
 20
217.8842665961
 11
-328.5253376221
 21
219.5884049797
  0
LINE
  5
50E
100
AcDbEntity
  8
ASSI
100
AcDbLine
 62
7
  6
CONTINUOUS
 10
-326.0694788539
 20
215.6335677847
 11
-321.0024403339
 21
225.1639613348
  0
LINE
  5
50F
100
AcDbEntity
  8
ASSI
100
AcDbLine
 62
7
  6
CONTINUOUS
 10
-319.5897019659
 20
224.4128486245
 11
-324.9216289299
 21
214.3842368138
  0
LINE
  5
510
100
AcDbEntity
  8
0
100
AcDbLine
 62
7
  6
CONTINUOUS
 10
-580.4960711499
 20
-11.0115950203
 11
-577.9960711499
 21
-11.0115950203
  0
LINE
  5
511
100
AcDbEntity
  8
0
100
AcDbLine
 62
7
  6
CONTINUOUS
 10
-603.6460711499
 20
-10.6615950203
 11
-596.1460711499
 21
-10.6615950203
  0
LINE
  5
512
100
AcDbEntity
  8
0
100
AcDbLine
 62
7
  6
CONTINUOUS
 10
-560.9960711499
 20
-9.3615950203
 11
-560.4960711499
 21
-9.3615950203
  0
LINE
  5
513
100
AcDbEntity
  8
0
100
AcDbLine
 62
7
  6
CONTINUOUS
 10
-560.9960711499
 20
-4.4115950203
 11
-560.4960711499
 21
-4.4115950203
  0
LINE
  5
514
100
AcDbEntity
  8
0
100
AcDbLine
 62
7
  6
CONTINUOUS
 10
-609.8960711499
 20
-3.5115950203
 11
-608.1960711499
 21
-3.5115950203
  0
LINE
  5
515
100
AcDbEntity
  8
0
100
AcDbLine
 62
7
  6
CONTINUOUS
 10
-591.0960711499
 20
-3.5115950203
 11
-589.0960711499
 21
-3.5115950203
  0
LINE
  5
516
100
AcDbEntity
  8
0
100
AcDbLine
 62
7
  6
CONTINUOUS
 10
-587.0960711499
 20
-1.8115950203
 11
-583.0960711499
 21
-1.8115950203
  0
LINE
  5
517
100
AcDbEntity
  8
0
100
AcDbLine
 62
7
  6
CONTINUOUS
 10
-336.5607628875
 20
-221.115733404
 11
-337.4668046777
 21
-219.4115950204
  0
LINE
  5
518
100
AcDbEntity
  8
0
100
AcDbLine
 62
7
  6
CONTINUOUS
 10
-336.5607628875
 20
-217.7074566367
 11
-335.6547210973
 21
-219.4115950204
  0
LINE
  5
519
100
AcDbEntity
  8
0
100
AcDbLine
 62
7
  6
CONTINUOUS
 10
-329.4313794123
 20
-221.115733404
 11
-330.3374212025
 21
-219.4115950204
  0
LINE
  5
51A
100
AcDbEntity
  8
0
100
AcDbLine
 62
7
  6
CONTINUOUS
 10
-329.4313794123
 20
-217.7074566367
 11
-328.5253376221
 21
-219.4115950204
  0
LINE
  5
51B
100
AcDbEntity
  8
0
100
AcDbLine
 62
7
  6
CONTINUOUS
 10
-326.0694788539
 20
-215.4567578254
 11
-321.0024403339
 21
-224.9871513755
  0
LINE
  5
51C
100
AcDbEntity
  8
0
100
AcDbLine
 62
7
  6
CONTINUOUS
 10
-319.5897019659
 20
-224.2360386652
 11
-324.9216289299
 21
-214.2074268545
  0
LINE
  5
51D
100
AcDbEntity
  8
0
100
AcDbLine
 62
7
  6
CONTINUOUS
 10
-538.8374212025
 20
-219.4115950204
 11
-537.9313794123
 21
-217.7074566367
  0
LINE
  5
51E
100
AcDbEntity
  8
ASSI
100
AcDbLine
 62
7
  6
CONTINUOUS
 10
-307.4024403339
 20
214.7639613348
 11
-302.0705133699
 21
224.7925731456
  0
LINE
  5
51F
100
AcDbEntity
  8
0
100
AcDbLine
 62
7
  6
CONTINUOUS
 10
-537.0253376221
 20
-219.4115950204
 11
-537.9313794123
 21
-221.115733404
  0
LINE
  5
520
100
AcDbEntity
  8
ASSI
100
AcDbLine
 62
7
  6
CONTINUOUS
 10
-300.9226634459
 20
223.5432421746
 11
-305.9897019659
 21
214.0128486245
  0
LINE
  5
521
100
AcDbEntity
  8
0
100
AcDbLine
 62
7
  6
CONTINUOUS
 10
-529.5024403339
 20
-213.8360386652
 11
-534.5694788539
 21
-223.3664322153
  0
LINE
  5
522
100
AcDbEntity
  8
ASSI
100
AcDbLine
 62
7
  6
CONTINUOUS
 10
-297.5607628875
 20
221.2925433633
 11
-298.4668046777
 21
219.5884049797
  0
LINE
  5
523
100
AcDbEntity
  8
0
100
AcDbLine
 62
7
  6
CONTINUOUS
 10
-533.4216289299
 20
-224.6157631862
 11
-528.0897019659
 21
-214.5871513755
  0
LINE
  5
524
100
AcDbEntity
  8
ASSI
100
AcDbLine
 62
7
  6
CONTINUOUS
 10
-297.5607628875
 20
217.8842665961
 11
-296.6547210973
 21
219.5884049797
  0
LINE
  5
525
100
AcDbEntity
  8
0
100
AcDbLine
 62
7
  6
CONTINUOUS
 10
-583.0960711499
 20
3.4884049797
 11
-591.0960711499
 21
3.4884049797
  0
LINE
  5
526
100
AcDbEntity
  8
0
100
AcDbLine
 62
7
  6
CONTINUOUS
 10
-608.1960711499
 20
3.4884049797
 11
-609.8960711499
 21
3.4884049797
  0
LINE
  5
527
100
AcDbEntity
  8
0
100
AcDbLine
 62
7
  6
CONTINUOUS
 10
-560.9960711499
 20
4.3884049797
 11
-560.4960711499
 21
4.3884049797
  0
LINE
  5
528
100
AcDbEntity
  8
0
100
AcDbLine
 62
7
  6
CONTINUOUS
 10
-560.9960711499
 20
9.3384049797
 11
-560.4960711499
 21
9.3384049797
  0
LINE
  5
529
100
AcDbEntity
  8
0
100
AcDbLine
 62
7
  6
CONTINUOUS
 10
-596.1460711499
 20
10.6384049797
 11
-603.6460711499
 21
10.6384049797
  0
LINE
  5
52A
100
AcDbEntity
  8
0
100
AcDbLine
 62
7
  6
CONTINUOUS
 10
-580.4960711499
 20
10.9884049797
 11
-577.9960711499
 21
10.9884049797
  0
LINE
  5
52B
100
AcDbEntity
  8
0
100
AcDbLine
 62
7
  6
CONTINUOUS
 10
-538.8374212025
 20
219.5884049797
 11
-537.9313794123
 21
217.8842665961
  0
LINE
  5
52C
100
AcDbEntity
  8
0
100
AcDbLine
 62
7
  6
CONTINUOUS
 10
-307.4024403339
 20
-214.5871513755
 11
-302.0705133699
 21
-224.6157631862
  0
LINE
  5
52D
100
AcDbEntity
  8
0
100
AcDbLine
 62
7
  6
CONTINUOUS
 10
-537.0253376221
 20
219.5884049797
 11
-537.9313794123
 21
221.2925433633
  0
LINE
  5
52E
100
AcDbEntity
  8
0
100
AcDbLine
 62
7
  6
CONTINUOUS
 10
-300.9226634459
 20
-223.3664322153
 11
-305.9897019659
 21
-213.8360386652
  0
LINE
  5
52F
100
AcDbEntity
  8
ASSI
100
AcDbLine
 62
7
  6
CONTINUOUS
 10
-529.5024403339
 20
214.0128486245
 11
-534.5694788539
 21
223.5432421746
  0
LINE
  5
530
100
AcDbEntity
  8
0
100
AcDbLine
 62
7
  6
CONTINUOUS
 10
-297.5607628875
 20
-221.115733404
 11
-298.4668046777
 21
-219.4115950204
  0
LINE
  5
531
100
AcDbEntity
  8
ASSI
100
AcDbLine
 62
7
  6
CONTINUOUS
 10
-533.4216289299
 20
224.7925731456
 11
-528.0897019659
 21
214.7639613348
  0
LINE
  5
532
100
AcDbEntity
  8
0
100
AcDbLine
 62
7
  6
CONTINUOUS
 10
-297.5607628875
 20
-217.7074566367
 11
-296.6547210973
 21
-219.4115950204
  0
LINE
  5
533
100
AcDbEntity
  8
0
100
AcDbLine
 62
7
  6
CONTINUOUS
 10
-522.5705133699
 20
-214.2074268545
 11
-527.9024403339
 21
-224.2360386652
  0
LINE
  5
534
100
AcDbEntity
  8
ASSI
100
AcDbLine
 62
7
  6
CONTINUOUS
 10
-290.4313794123
 20
221.2925433633
 11
-291.3374212025
 21
219.5884049797
  0
LINE
  5
535
100
AcDbEntity
  8
0
100
AcDbLine
 62
7
  6
CONTINUOUS
 10
-526.4897019659
 20
-224.9871513755
 11
-521.4226634459
 21
-215.4567578254
  0
LINE
  5
536
100
AcDbEntity
  8
ASSI
100
AcDbLine
 62
7
  6
CONTINUOUS
 10
-290.4313794123
 20
217.8842665961
 11
-289.5253376221
 21
219.5884049797
  0
LINE
  5
537
100
AcDbEntity
  8
0
100
AcDbLine
 62
7
  6
CONTINUOUS
 10
-518.9668046777
 20
-219.4115950204
 11
-518.0607628875
 21
-217.7074566367
  0
LINE
  5
538
100
AcDbEntity
  8
ASSI
100
AcDbLine
 62
7
  6
CONTINUOUS
 10
-287.0694788539
 20
215.6335677847
 11
-282.0024403339
 21
225.1639613348
  0
LINE
  5
539
100
AcDbEntity
  8
0
100
AcDbLine
 62
7
  6
CONTINUOUS
 10
-517.1547210973
 20
-219.4115950204
 11
-518.0607628875
 21
-221.115733404
  0
LINE
  5
53A
100
AcDbEntity
  8
ASSI
100
AcDbLine
 62
7
  6
CONTINUOUS
 10
-280.5897019659
 20
224.4128486245
 11
-285.9216289299
 21
214.3842368138
  0
LINE
  5
53B
100
AcDbEntity
  8
ASSI
100
AcDbLine
 62
7
  6
CONTINUOUS
 10
-522.5705133699
 20
214.3842368138
 11
-527.9024403339
 21
224.4128486245
  0
LINE
  5
53C
100
AcDbEntity
  8
0
100
AcDbLine
 62
7
  6
CONTINUOUS
 10
-290.4313794123
 20
-221.115733404
 11
-291.3374212025
 21
-219.4115950204
  0
LINE
  5
53D
100
AcDbEntity
  8
ASSI
100
AcDbLine
 62
7
  6
CONTINUOUS
 10
-526.4897019659
 20
225.1639613348
 11
-521.4226634459
 21
215.6335677847
  0
LINE
  5
53E
100
AcDbEntity
  8
0
100
AcDbLine
 62
7
  6
CONTINUOUS
 10
-290.4313794123
 20
-217.7074566367
 11
-289.5253376221
 21
-219.4115950204
  0
LINE
  5
53F
100
AcDbEntity
  8
0
100
AcDbLine
 62
7
  6
CONTINUOUS
 10
-518.9668046777
 20
219.5884049797
 11
-518.0607628875
 21
217.8842665961
  0
LINE
  5
540
100
AcDbEntity
  8
0
100
AcDbLine
 62
7
  6
CONTINUOUS
 10
-287.0694788539
 20
-215.4567578254
 11
-282.0024403339
 21
-224.9871513755
  0
LINE
  5
541
100
AcDbEntity
  8
0
100
AcDbLine
 62
7
  6
CONTINUOUS
 10
-517.1547210973
 20
219.5884049797
 11
-518.0607628875
 21
221.2925433633
  0
LINE
  5
542
100
AcDbEntity
  8
0
100
AcDbLine
 62
7
  6
CONTINUOUS
 10
-280.5897019659
 20
-224.2360386652
 11
-285.9216289299
 21
-214.2074268545
  0
LINE
  5
543
100
AcDbEntity
  8
0
100
AcDbLine
 62
7
  6
CONTINUOUS
 10
-499.8374212025
 20
-219.4115950204
 11
-498.9313794123
 21
-217.7074566367
  0
LINE
  5
544
100
AcDbEntity
  8
0
100
AcDbLine
 62
7
  6
CONTINUOUS
 10
-498.0253376221
 20
-219.4115950204
 11
-498.9313794123
 21
-221.115733404
  0
LINE
  5
545
100
AcDbEntity
  8
0
100
AcDbLine
 62
7
  6
CONTINUOUS
 10
-490.5024403339
 20
-213.8360386652
 11
-495.5694788539
 21
-223.3664322153
  0
LINE
  5
546
100
AcDbEntity
  8
0
100
AcDbLine
 62
7
  6
CONTINUOUS
 10
-494.4216289299
 20
-224.6157631862
 11
-489.0897019659
 21
-214.5871513755
  0
LINE
  5
547
100
AcDbEntity
  8
0
100
AcDbLine
 62
7
  6
CONTINUOUS
 10
-499.8374212025
 20
219.5884049797
 11
-498.9313794123
 21
217.8842665961
  0
LINE
  5
548
100
AcDbEntity
  8
0
100
AcDbLine
 62
7
  6
CONTINUOUS
 10
-498.0253376221
 20
219.5884049797
 11
-498.9313794123
 21
221.2925433633
  0
LINE
  5
549
100
AcDbEntity
  8
ASSI
100
AcDbLine
 62
7
  6
CONTINUOUS
 10
-490.5024403339
 20
214.0128486245
 11
-495.5694788539
 21
223.5432421746
  0
LINE
  5
54A
100
AcDbEntity
  8
ASSI
100
AcDbLine
 62
7
  6
CONTINUOUS
 10
-494.4216289299
 20
224.7925731456
 11
-489.0897019659
 21
214.7639613348
  0
LINE
  5
54B
100
AcDbEntity
  8
0
100
AcDbLine
 62
7
  6
CONTINUOUS
 10
-483.5705133699
 20
-214.2074268545
 11
-488.9024403339
 21
-224.2360386652
  0
LINE
  5
54C
100
AcDbEntity
  8
0
100
AcDbLine
 62
7
  6
CONTINUOUS
 10
-487.4897019659
 20
-224.9871513755
 11
-482.4226634459
 21
-215.4567578254
  0
LINE
  5
54D
100
AcDbEntity
  8
0
100
AcDbLine
 62
7
  6
CONTINUOUS
 10
-479.9668046777
 20
-219.4115950204
 11
-479.0607628875
 21
-217.7074566367
  0
LINE
  5
54E
100
AcDbEntity
  8
0
100
AcDbLine
 62
7
  6
CONTINUOUS
 10
-478.1547210973
 20
-219.4115950204
 11
-479.0607628875
 21
-221.115733404
  0
LINE
  5
54F
100
AcDbEntity
  8
ASSI
100
AcDbLine
 62
7
  6
CONTINUOUS
 10
-483.5705133699
 20
214.3842368138
 11
-488.9024403339
 21
224.4128486245
  0
LINE
  5
550
100
AcDbEntity
  8
ASSI
100
AcDbLine
 62
7
  6
CONTINUOUS
 10
-487.4897019659
 20
225.1639613348
 11
-482.4226634459
 21
215.6335677847
  0
LINE
  5
551
100
AcDbEntity
  8
0
100
AcDbLine
 62
7
  6
CONTINUOUS
 10
-479.9668046777
 20
219.5884049797
 11
-479.0607628875
 21
217.8842665961
  0
LINE
  5
552
100
AcDbEntity
  8
0
100
AcDbLine
 62
7
  6
CONTINUOUS
 10
-478.1547210973
 20
219.5884049797
 11
-479.0607628875
 21
221.2925433633
  0
LINE
  5
553
100
AcDbEntity
  8
0
100
AcDbLine
 62
7
  6
CONTINUOUS
 10
-460.8374212025
 20
-219.4115950204
 11
-459.9313794123
 21
-217.7074566367
  0
LINE
  5
554
100
AcDbEntity
  8
0
100
AcDbLine
 62
7
  6
CONTINUOUS
 10
-459.0253376221
 20
-219.4115950204
 11
-459.9313794123
 21
-221.115733404
  0
LINE
  5
555
100
AcDbEntity
  8
0
100
AcDbLine
 62
7
  6
CONTINUOUS
 10
-451.5024403339
 20
-213.8360386652
 11
-456.5694788539
 21
-223.3664322153
  0
LINE
  5
556
100
AcDbEntity
  8
0
100
AcDbLine
 62
7
  6
CONTINUOUS
 10
-455.4216289299
 20
-224.6157631862
 11
-450.0897019659
 21
-214.5871513755
  0
LINE
  5
557
100
AcDbEntity
  8
0
100
AcDbLine
 62
7
  6
CONTINUOUS
 10
-444.5705133699
 20
-214.2074268545
 11
-449.9024403339
 21
-224.2360386652
  0
LINE
  5
558
100
AcDbEntity
  8
0
100
AcDbLine
 62
7
  6
CONTINUOUS
 10
-448.4897019659
 20
-224.9871513755
 11
-443.4226634459
 21
-215.4567578254
  0
LWPOLYLINE
  5
559
100
AcDbEntity
  8
0
100
AcDbPolyline
 62
7
  6
CONTINUOUS
 90
24
 70
0
 10
-568.7223330044
 20
-166.699516007
 10
-568.7219267103
 20
-166.6992949879
 10
-568.7239931925
 20
-166.7002757235
 10
-568.7288474062
 20
-166.7024019562
 10
-568.7360803214
 20
-166.7053317423
 10
-568.7457250917
 20
-166.7089639178
 10
-568.7578995208
 20
-166.7132422233
 10
-568.7722511597
 20
-166.7179666794
 10
-568.7887604581
 20
-166.723078396
 10
-568.8075230922
 20
-166.728560368
 10
-568.8283391972
 20
-166.7343168021
 10
-568.851206557
 20
-166.7403195182
 10
-568.8761830588
 20
-166.746558915
 10
-568.9031586878
 20
-166.7529870247
 10
-568.9321396404
 20
-166.7595893627
 10
-568.9631638577
 20
-166.766360159
 10
-568.9961710688
 20
-166.7732741099
 10
-569.0311705671
 20
-166.7803233405
 10
-569.0681878795
 20
-166.7875041651
 10
-569.1071888211
 20
-166.7948024717
 10
-569.1481853426
 20
-166.8022143404
 10
-569.1911906811
 20
-166.8097367281
 10
-569.2361721728
 20
-166.8173595054
 10
-569.2831332743
 20
-166.8250798209
  0
LINE
  5
55A
100
AcDbEntity
  8
0
100
AcDbLine
 62
7
  6
CONTINUOUS
 10
-460.8374212025
 20
219.5884049797
 11
-459.9313794123
 21
217.8842665961
  0
LINE
  5
55B
100
AcDbEntity
  8
0
100
AcDbLine
 62
7
  6
CONTINUOUS
 10
-459.0253376221
 20
219.5884049797
 11
-459.9313794123
 21
221.2925433633
  0
LINE
  5
55C
100
AcDbEntity
  8
ASSI
100
AcDbLine
 62
7
  6
CONTINUOUS
 10
-451.5024403339
 20
214.0128486245
 11
-456.5694788539
 21
223.5432421746
  0
LINE
  5
55D
100
AcDbEntity
  8
ASSI
100
AcDbLine
 62
7
  6
CONTINUOUS
 10
-455.4216289299
 20
224.7925731456
 11
-450.0897019659
 21
214.7639613348
  0
LINE
  5
55E
100
AcDbEntity
  8
ASSI
100
AcDbLine
 62
7
  6
CONTINUOUS
 10
-444.5705133699
 20
214.3842368138
 11
-449.9024403339
 21
224.4128486245
  0
LINE
  5
55F
100
AcDbEntity
  8
ASSI
100
AcDbLine
 62
7
  6
CONTINUOUS
 10
-448.4897019659
 20
225.1639613348
 11
-443.4226634459
 21
215.6335677847
  0
LINE
  5
560
100
AcDbEntity
  8
0
100
AcDbLine
 62
7
  6
CONTINUOUS
 10
-440.9668046777
 20
-219.4115950204
 11
-440.0607628875
 21
-217.7074566367
  0
LINE
  5
561
100
AcDbEntity
  8
0
100
AcDbLine
 62
7
  6
CONTINUOUS
 10
-439.1547210973
 20
-219.4115950204
 11
-440.0607628875
 21
-221.115733404
  0
LINE
  5
562
100
AcDbEntity
  8
0
100
AcDbLine
 62
7
  6
CONTINUOUS
 10
-421.8374212025
 20
-219.4115950204
 11
-420.9313794123
 21
-217.7074566367
  0
LINE
  5
563
100
AcDbEntity
  8
0
100
AcDbLine
 62
7
  6
CONTINUOUS
 10
-440.9668046777
 20
219.5884049797
 11
-440.0607628875
 21
217.8842665961
  0
LINE
  5
564
100
AcDbEntity
  8
0
100
AcDbLine
 62
7
  6
CONTINUOUS
 10
-439.1547210973
 20
219.5884049797
 11
-440.0607628875
 21
221.2925433633
  0
LINE
  5
565
100
AcDbEntity
  8
0
100
AcDbLine
 62
7
  6
CONTINUOUS
 10
-421.8374212025
 20
219.5884049797
 11
-420.9313794123
 21
217.8842665961
  0
LINE
  5
566
100
AcDbEntity
  8
0
100
AcDbLine
 62
7
  6
CONTINUOUS
 10
-420.0253376221
 20
-219.4115950204
 11
-420.9313794123
 21
-221.115733404
  0
LINE
  5
567
100
AcDbEntity
  8
0
100
AcDbLine
 62
7
  6
CONTINUOUS
 10
-412.5024403339
 20
-213.8360386652
 11
-417.5694788539
 21
-223.3664322153
  0
LINE
  5
568
100
AcDbEntity
  8
0
100
AcDbLine
 62
7
  6
CONTINUOUS
 10
-416.4216289299
 20
-224.6157631862
 11
-411.0897019659
 21
-214.5871513755
  0
LINE
  5
569
100
AcDbEntity
  8
0
100
AcDbLine
 62
7
  6
CONTINUOUS
 10
-405.5705133699
 20
-214.2074268545
 11
-410.9024403339
 21
-224.2360386652
  0
LINE
  5
56A
100
AcDbEntity
  8
0
100
AcDbLine
 62
7
  6
CONTINUOUS
 10
-409.4897019659
 20
-224.9871513755
 11
-404.4226634459
 21
-215.4567578254
  0
LINE
  5
56B
100
AcDbEntity
  8
0
100
AcDbLine
 62
7
  6
CONTINUOUS
 10
-401.9668046777
 20
-219.4115950204
 11
-401.0607628875
 21
-217.7074566367
  0
LINE
  5
56C
100
AcDbEntity
  8
0
100
AcDbLine
 62
7
  6
CONTINUOUS
 10
-400.1547210973
 20
-219.4115950204
 11
-401.0607628875
 21
-221.115733404
  0
LINE
  5
56D
100
AcDbEntity
  8
0
100
AcDbLine
 62
7
  6
CONTINUOUS
 10
-420.0253376221
 20
219.5884049797
 11
-420.9313794123
 21
221.2925433633
  0
LINE
  5
56E
100
AcDbEntity
  8
ASSI
100
AcDbLine
 62
7
  6
CONTINUOUS
 10
-412.5024403339
 20
214.0128486245
 11
-417.5694788539
 21
223.5432421746
  0
LINE
  5
56F
100
AcDbEntity
  8
ASSI
100
AcDbLine
 62
7
  6
CONTINUOUS
 10
-416.4216289299
 20
224.7925731456
 11
-411.0897019659
 21
214.7639613348
  0
LINE
  5
570
100
AcDbEntity
  8
ASSI
100
AcDbLine
 62
7
  6
CONTINUOUS
 10
-405.5705133699
 20
214.3842368138
 11
-410.9024403339
 21
224.4128486245
  0
LINE
  5
571
100
AcDbEntity
  8
ASSI
100
AcDbLine
 62
7
  6
CONTINUOUS
 10
-409.4897019659
 20
225.1639613348
 11
-404.4226634459
 21
215.6335677847
  0
LINE
  5
572
100
AcDbEntity
  8
0
100
AcDbLine
 62
7
  6
CONTINUOUS
 10
-401.9668046777
 20
219.5884049797
 11
-401.0607628875
 21
217.8842665961
  0
LINE
  5
573
100
AcDbEntity
  8
0
100
AcDbLine
 62
7
  6
CONTINUOUS
 10
-400.1547210973
 20
219.5884049797
 11
-401.0607628875
 21
221.2925433633
  0
LINE
  5
574
100
AcDbEntity
  8
0
100
AcDbLine
 62
253
  6
CONTINUOUS
 10
-288.9960711499
 20
208.3384049797
 11
-288.9960711499
 21
-208.1615950203
  0
LINE
  5
575
100
AcDbEntity
  8
0
100
AcDbLine
 62
7
  6
CONTINUOUS
 10
-288.4960711499
 20
-208.1615950203
 11
-288.4960711499
 21
-209.6615950203
  0
LINE
  5
576
100
AcDbEntity
  8
0
100
AcDbLine
 62
7
  6
CONTINUOUS
 10
-288.4960711499
 20
208.3384049797
 11
-288.4960711499
 21
209.8384049797
  0
LINE
  5
577
100
AcDbEntity
  8
0
100
AcDbLine
 62
7
  6
CONTINUOUS
 10
-286.4960711499
 20
208.3384049797
 11
-286.4960711499
 21
-208.1615950203
  0
LINE
  5
578
100
AcDbEntity
  8
0
100
AcDbLine
 62
7
  6
CONTINUOUS
 10
-285.9960711499
 20
-208.1599289705
 11
-285.9960711499
 21
208.3510341679
  0
LINE
  5
579
100
AcDbEntity
  8
0
100
AcDbLine
 62
253
  6
CONTINUOUS
 10
-283.5960711499
 20
-208.1599289705
 11
-283.5960711499
 21
208.3510341679
  0
LINE
  5
57A
100
AcDbEntity
  8
0
100
AcDbLine
 62
7
  6
CONTINUOUS
 10
-382.8374212025
 20
-219.4115950204
 11
-381.9313794123
 21
-217.7074566367
  0
LINE
  5
57B
100
AcDbEntity
  8
0
100
AcDbLine
 62
7
  6
CONTINUOUS
 10
-381.0253376221
 20
-219.4115950204
 11
-381.9313794123
 21
-221.115733404
  0
LINE
  5
57C
100
AcDbEntity
  8
0
100
AcDbLine
 62
253
  6
CONTINUOUS
 10
-581.2548416331
 20
-215.7796755936
 11
-580.1272104881
 21
-215.3692514217
  0
LINE
  5
57D
100
AcDbEntity
  8
0
100
AcDbLine
 62
7
  6
CONTINUOUS
 10
-560.7960711499
 20
146.7384049797
 11
-560.9960711499
 21
146.7384049797
  0
LINE
  5
57E
100
AcDbEntity
  8
0
100
AcDbLine
 62
7
  6
CONTINUOUS
 10
-560.7960711499
 20
154.2384049797
 11
-560.9960711499
 21
154.2384049797
  0
LINE
  5
57F
100
AcDbEntity
  8
0
100
AcDbLine
 62
253
  6
CONTINUOUS
 10
-581.2548416331
 20
215.956485553
 11
-580.1272104881
 21
215.546061381
  0
LINE
  5
580
100
AcDbEntity
  8
0
100
AcDbLine
 62
7
  6
CONTINUOUS
 10
-382.8374212025
 20
219.5884049797
 11
-381.9313794123
 21
217.8842665961
  0
LINE
  5
581
100
AcDbEntity
  8
0
100
AcDbLine
 62
7
  6
CONTINUOUS
 10
-381.0253376221
 20
219.5884049797
 11
-381.9313794123
 21
221.2925433633
  0
LINE
  5
582
100
AcDbEntity
  8
0
100
AcDbLine
 62
7
  6
CONTINUOUS
 10
-267.9053953764
 20
230.0884049797
 11
-267.9053953764
 21
228.3884049797
  0
LINE
  5
583
100
AcDbEntity
  8
0
100
AcDbLine
 62
253
  6
CONTINUOUS
 10
-267.9053953764
 20
228.3884049797
 11
-267.9053953764
 21
212.2884049797
  0
LINE
  5
584
100
AcDbEntity
  8
0
100
AcDbLine
 62
7
  6
CONTINUOUS
 10
-267.9053953764
 20
212.2884049797
 11
-267.9053953764
 21
209.5884049797
  0
LINE
  5
585
100
AcDbEntity
  8
0
100
AcDbLine
 62
7
  6
CONTINUOUS
 10
-267.9053953764
 20
209.3928707995
 11
-267.9053953764
 21
208.3510341679
  0
LINE
  5
586
100
AcDbEntity
  8
0
100
AcDbLine
 62
253
  6
CONTINUOUS
 10
-267.8960711499
 20
-208.1599289705
 11
-267.8960711499
 21
208.3510341679
  0
LINE
  5
587
100
AcDbEntity
  8
0
100
AcDbLine
 62
7
  6
CONTINUOUS
 10
-267.8911001383
 20
-229.9115950203
 11
-267.8911001383
 21
-228.2115950203
  0
LINE
  5
588
100
AcDbEntity
  8
0
100
AcDbLine
 62
253
  6
CONTINUOUS
 10
-267.8911001383
 20
-228.2115950203
 11
-267.8911001383
 21
-212.1115950203
  0
LINE
  5
589
100
AcDbEntity
  8
0
100
AcDbLine
 62
7
  6
CONTINUOUS
 10
-267.8911001383
 20
-212.1115950203
 11
-267.8911001383
 21
-210.4115950203
  0
LINE
  5
58A
100
AcDbEntity
  8
0
100
AcDbLine
 62
7
  6
CONTINUOUS
 10
-267.8911001383
 20
-210.1115950203
 11
-267.8911001383
 21
-208.1599289705
  0
LINE
  5
58B
100
AcDbEntity
  8
0
100
AcDbLine
 62
7
  6
CONTINUOUS
 10
-267.4960711499
 20
-228.7115950203
 11
-267.4960711499
 21
-229.9115950203
  0
LINE
  5
58C
100
AcDbEntity
  8
0
100
AcDbLine
 62
7
  6
CONTINUOUS
 10
-267.4960711499
 20
228.8884049797
 11
-267.4960711499
 21
230.0884049797
  0
LINE
  5
58D
100
AcDbEntity
  8
0
100
AcDbLine
 62
7
  6
CONTINUOUS
 10
-267.1053953764
 20
227.5884049797
 11
-267.1053953764
 21
213.0884049797
  0
LINE
  5
58E
100
AcDbEntity
  8
0
100
AcDbLine
 62
7
  6
CONTINUOUS
 10
-267.0911001383
 20
-212.9115950203
 11
-267.0911001383
 21
-227.4115950203
  0
LINE
  5
58F
100
AcDbEntity
  8
0
100
AcDbLine
 62
7
  6
CONTINUOUS
 10
-266.6960711499
 20
-227.9115950203
 11
-266.6960711499
 21
-208.1599289705
  0
LINE
  5
590
100
AcDbEntity
  8
0
100
AcDbLine
 62
7
  6
CONTINUOUS
 10
-266.6960711499
 20
208.3510341679
 11
-266.6960711499
 21
228.1027002178
  0
LINE
  5
591
100
AcDbEntity
  8
0
100
AcDbLine
 62
7
  6
CONTINUOUS
 10
-265.4960711499
 20
-227.9115950203
 11
-265.4960711499
 21
228.1027002178
  0
LINE
  5
592
100
AcDbEntity
  8
0
100
AcDbLine
 62
7
  6
CONTINUOUS
 10
-373.5024403339
 20
-213.8360386652
 11
-378.5694788539
 21
-223.3664322153
  0
LINE
  5
593
100
AcDbEntity
  8
0
100
AcDbLine
 62
7
  6
CONTINUOUS
 10
-377.4216289299
 20
-224.6157631862
 11
-372.0897019659
 21
-214.5871513755
  0
LINE
  5
594
100
AcDbEntity
  8
0
100
AcDbLine
 62
7
  6
CONTINUOUS
 10
-366.5705133699
 20
-214.2074268545
 11
-371.9024403339
 21
-224.2360386652
  0
LINE
  5
595
100
AcDbEntity
  8
0
100
AcDbLine
 62
7
  6
CONTINUOUS
 10
-370.4897019659
 20
-224.9871513755
 11
-365.4226634459
 21
-215.4567578254
  0
LINE
  5
596
100
AcDbEntity
  8
0
100
AcDbLine
 62
7
  6
CONTINUOUS
 10
-362.9668046777
 20
-219.4115950204
 11
-362.0607628875
 21
-217.7074566367
  0
LINE
  5
597
100
AcDbEntity
  8
0
100
AcDbLine
 62
7
  6
CONTINUOUS
 10
-361.1547210973
 20
-219.4115950204
 11
-362.0607628875
 21
-221.115733404
  0
LINE
  5
598
100
AcDbEntity
  8
0
100
AcDbLine
 62
7
  6
CONTINUOUS
 10
-575.4625826289
 20
-228.185211135
 11
-576.5902137738
 21
-228.595635307
  0
LINE
  5
599
100
AcDbEntity
  8
0
100
AcDbLine
 62
7
  6
CONTINUOUS
 10
-575.4674718883
 20
228.3485879646
 11
-576.5951030332
 21
228.7590121366
  0
LINE
  5
59A
100
AcDbEntity
  8
ASSI
100
AcDbLine
 62
7
  6
CONTINUOUS
 10
-373.5024403339
 20
214.0128486245
 11
-378.5694788539
 21
223.5432421746
  0
LINE
  5
59B
100
AcDbEntity
  8
ASSI
100
AcDbLine
 62
7
  6
CONTINUOUS
 10
-377.4216289299
 20
224.7925731456
 11
-372.0897019659
 21
214.7639613348
  0
LINE
  5
59C
100
AcDbEntity
  8
ASSI
100
AcDbLine
 62
7
  6
CONTINUOUS
 10
-366.5705133699
 20
214.3842368138
 11
-371.9024403339
 21
224.4128486245
  0
LINE
  5
59D
100
AcDbEntity
  8
ASSI
100
AcDbLine
 62
7
  6
CONTINUOUS
 10
-370.4897019659
 20
225.1639613348
 11
-365.4226634459
 21
215.6335677847
  0
LINE
  5
59E
100
AcDbEntity
  8
0
100
AcDbLine
 62
7
  6
CONTINUOUS
 10
-362.9668046777
 20
219.5884049797
 11
-362.0607628875
 21
217.8842665961
  0
LINE
  5
59F
100
AcDbEntity
  8
0
100
AcDbLine
 62
7
  6
CONTINUOUS
 10
-361.1547210973
 20
219.5884049797
 11
-362.0607628875
 21
221.2925433633
  0
LINE
  5
5A0
100
AcDbEntity
  8
0
100
AcDbLine
 62
7
  6
CONTINUOUS
 10
-343.8374212025
 20
-219.4115950204
 11
-342.9313794123
 21
-217.7074566367
  0
LINE
  5
5A1
100
AcDbEntity
  8
0
100
AcDbLine
 62
7
  6
CONTINUOUS
 10
-342.0253376221
 20
-219.4115950204
 11
-342.9313794123
 21
-221.115733404
  0
LINE
  5
5A2
100
AcDbEntity
  8
0
100
AcDbLine
 62
7
  6
CONTINUOUS
 10
-334.5024403339
 20
-213.8360386652
 11
-339.5694788539
 21
-223.3664322153
  0
LINE
  5
5A3
100
AcDbEntity
  8
0
100
AcDbLine
 62
7
  6
CONTINUOUS
 10
-338.4216289299
 20
-224.6157631862
 11
-333.0897019659
 21
-214.5871513755
  0
LINE
  5
5A4
100
AcDbEntity
  8
0
100
AcDbLine
 62
7
  6
CONTINUOUS
 10
-286.0187208807
 20
188.8510341679
 11
-286.4960711499
 21
188.8510341679
  0
LINE
  5
5A5
100
AcDbEntity
  8
0
100
AcDbLine
 62
7
  6
CONTINUOUS
 10
-286.4960711499
 20
190.5884049797
 11
-285.9960711499
 21
190.5884049797
  0
LINE
  5
5A6
100
AcDbEntity
  8
0
100
AcDbLine
 62
7
  6
CONTINUOUS
 10
-343.8374212025
 20
219.5884049797
 11
-342.9313794123
 21
217.8842665961
  0
LINE
  5
5A7
100
AcDbEntity
  8
0
100
AcDbLine
 62
7
  6
CONTINUOUS
 10
-342.0253376221
 20
219.5884049797
 11
-342.9313794123
 21
221.2925433633
  0
LINE
  5
5A8
100
AcDbEntity
  8
ASSI
100
AcDbLine
 62
7
  6
CONTINUOUS
 10
-334.5024403339
 20
214.0128486245
 11
-339.5694788539
 21
223.5432421746
  0
LINE
  5
5A9
100
AcDbEntity
  8
ASSI
100
AcDbLine
 62
7
  6
CONTINUOUS
 10
-338.4216289299
 20
224.7925731456
 11
-333.0897019659
 21
214.7639613348
  0
LINE
  5
5AA
100
AcDbEntity
  8
0
100
AcDbLine
 62
7
  6
CONTINUOUS
 10
-327.5705133699
 20
-214.2074268545
 11
-332.9024403339
 21
-224.2360386652
  0
LINE
  5
5AB
100
AcDbEntity
  8
0
100
AcDbLine
 62
7
  6
CONTINUOUS
 10
-331.4897019659
 20
-224.9871513755
 11
-326.4226634459
 21
-215.4567578254
  0
LINE
  5
5AC
100
AcDbEntity
  8
0
100
AcDbLine
 62
7
  6
CONTINUOUS
 10
-323.9668046777
 20
-219.4115950204
 11
-323.0607628875
 21
-217.7074566367
  0
LINE
  5
5AD
100
AcDbEntity
  8
0
100
AcDbLine
 62
7
  6
CONTINUOUS
 10
-322.1547210973
 20
-219.4115950204
 11
-323.0607628875
 21
-221.115733404
  0
LINE
  5
5AE
100
AcDbEntity
  8
ASSI
100
AcDbLine
 62
7
  6
CONTINUOUS
 10
-560.9960711499
 20
206.4884049797
 11
-577.9960711499
 21
206.4884049797
  0
LINE
  5
5AF
100
AcDbEntity
  8
ASSI
100
AcDbLine
 62
7
  6
CONTINUOUS
 10
-560.9960711499
 20
206.6884049797
 11
-576.5960711499
 21
206.6884049797
  0
LINE
  5
5B0
100
AcDbEntity
  8
0
100
AcDbLine
 62
7
  6
CONTINUOUS
 10
-578.9960389669
 20
207.8884049797
 11
-576.9513734617
 21
207.8884049797
  0
LINE
  5
5B1
100
AcDbEntity
  8
ASSI
100
AcDbLine
 62
7
  6
CONTINUOUS
 10
-576.5960711499
 20
207.8884049797
 11
-560.9960711499
 21
207.8884049797
  0
LINE
  5
5B2
100
AcDbEntity
  8
0
100
AcDbLine
 62
7
  6
CONTINUOUS
 10
-560.4960711499
 20
208.3384049797
 11
-557.9960711499
 21
208.3384049797
  0
LINE
  5
5B3
100
AcDbEntity
  8
0
100
AcDbLine
 62
253
  6
CONTINUOUS
 10
-557.9960711499
 20
208.3384049797
 11
-288.9960711499
 21
208.3384049797
  0
LINE
  5
5B4
100
AcDbEntity
  8
0
100
AcDbLine
 62
7
  6
CONTINUOUS
 10
-288.9960711499
 20
208.3384049797
 11
-286.4960711499
 21
208.3384049797
  0
LINE
  5
5B5
100
AcDbEntity
  8
0
100
AcDbLine
 62
7
  6
CONTINUOUS
 10
-265.4960711499
 20
208.3510341679
 11
-266.1540642962
 21
208.3510341679
  0
LINE
  5
5B6
100
AcDbEntity
  8
0
100
AcDbLine
 62
7
  6
CONTINUOUS
 10
-266.1540642962
 20
208.3510341679
 11
-285.9960711499
 21
208.3510341679
  0
LINE
  5
5B7
100
AcDbEntity
  8
0
100
AcDbLine
 62
253
  6
CONTINUOUS
 10
-288.4960711499
 20
209.2884049797
 11
-267.9053953764
 21
209.2884049797
  0
LINE
  5
5B8
100
AcDbEntity
  8
0
100
AcDbLine
 62
7
  6
CONTINUOUS
 10
-288.4960711499
 20
209.5884049797
 11
-267.9053953764
 21
209.5884049797
  0
LINE
  5
5B9
100
AcDbEntity
  8
0
100
AcDbLine
 62
7
  6
CONTINUOUS
 10
-558.4960711499
 20
209.8384049797
 11
-554.4456009387
 21
209.8384049797
  0
LINE
  5
5BA
100
AcDbEntity
  8
0
100
AcDbLine
 62
7
  6
CONTINUOUS
 10
-563.996103333
 20
210.3884049797
 11
-578.9960389669
 21
210.3884049797
  0
LINE
  5
5BB
100
AcDbEntity
  8
0
100
AcDbLine
 62
7
  6
CONTINUOUS
 10
-577.4960711499
 20
210.5884049797
 11
-555.4960711499
 21
210.5884049797
  0
LINE
  5
5BC
100
AcDbEntity
  8
0
100
AcDbLine
 62
7
  6
CONTINUOUS
 10
-265.4960711499
 20
210.6027002178
 11
-266.6960711499
 21
210.6027002178
  0
LINE
  5
5BD
100
AcDbEntity
  8
0
100
AcDbLine
 62
7
  6
CONTINUOUS
 10
-554.4456009387
 20
210.7884049797
 11
-554.6846683897
 21
210.7884049797
  0
LINE
  5
5BE
100
AcDbEntity
  8
0
100
AcDbLine
 62
253
  6
CONTINUOUS
 10
-554.42928549
 20
211.2884049797
 11
-267.9053953764
 21
211.2884049797
  0
LINE
  5
5BF
100
AcDbEntity
  8
0
100
AcDbLine
 62
7
  6
CONTINUOUS
 10
-577.4960711499
 20
211.7884049797
 11
-555.4960711499
 21
211.7884049797
  0
LINE
  5
5C0
100
AcDbEntity
  8
0
100
AcDbLine
 62
7
  6
CONTINUOUS
 10
-554.4175087683
 20
212.2884049797
 11
-576.9211335265
 21
212.2884049797
  0
LINE
  5
5C1
100
AcDbEntity
  8
ASSI
100
AcDbLine
 62
7
  6
CONTINUOUS
 10
-327.5705133699
 20
214.3842368138
 11
-332.9024403339
 21
224.4128486245
  0
LINE
  5
5C2
100
AcDbEntity
  8
ASSI
100
AcDbLine
 62
7
  6
CONTINUOUS
 10
-331.4897019659
 20
225.1639613348
 11
-326.4226634459
 21
215.6335677847
  0
LINE
  5
5C3
100
AcDbEntity
  8
0
100
AcDbLine
 62
7
  6
CONTINUOUS
 10
-323.9668046777
 20
219.5884049797
 11
-323.0607628875
 21
217.8842665961
  0
LINE
  5
5C4
100
AcDbEntity
  8
0
100
AcDbLine
 62
7
  6
CONTINUOUS
 10
-322.1547210973
 20
219.5884049797
 11
-323.0607628875
 21
221.2925433633
  0
LINE
  5
5C5
100
AcDbEntity
  8
0
100
AcDbLine
 62
7
  6
CONTINUOUS
 10
-304.8374212025
 20
-219.4115950204
 11
-303.9313794123
 21
-217.7074566367
  0
LINE
  5
5C6
100
AcDbEntity
  8
0
100
AcDbLine
 62
7
  6
CONTINUOUS
 10
-303.0253376222
 20
-219.4115950204
 11
-303.9313794123
 21
-221.115733404
  0
LINE
  5
5C7
100
AcDbEntity
  8
0
100
AcDbLine
 62
7
  6
CONTINUOUS
 10
-295.5024403339
 20
-213.8360386652
 11
-300.5694788539
 21
-223.3664322153
  0
LINE
  5
5C8
100
AcDbEntity
  8
0
100
AcDbLine
 62
7
  6
CONTINUOUS
 10
-299.4216289299
 20
-224.6157631862
 11
-294.0897019659
 21
-214.5871513755
  0
LINE
  5
5C9
100
AcDbEntity
  8
0
100
AcDbLine
 62
7
  6
CONTINUOUS
 10
-288.5705133699
 20
-214.2074268545
 11
-293.9024403339
 21
-224.2360386652
  0
LINE
  5
5CA
100
AcDbEntity
  8
0
100
AcDbLine
 62
7
  6
CONTINUOUS
 10
-266.6960711499
 20
228.1027002178
 11
-265.4960711499
 21
228.1027002178
  0
LINE
  5
5CB
100
AcDbEntity
  8
0
100
AcDbLine
 62
253
  6
CONTINUOUS
 10
-573.9175087683
 20
228.3884049797
 11
-267.9053953764
 21
228.3884049797
  0
LINE
  5
5CC
100
AcDbEntity
  8
0
100
AcDbLine
 62
7
  6
CONTINUOUS
 10
-574.7108285323
 20
228.8884049797
 11
-573.9175087683
 21
228.8884049797
  0
LINE
  5
5CD
100
AcDbEntity
  8
0
100
AcDbLine
 62
7
  6
CONTINUOUS
 10
-267.9053953764
 20
228.8884049797
 11
-267.4960711499
 21
228.8884049797
  0
LINE
  5
5CE
100
AcDbEntity
  8
0
100
AcDbLine
 62
7
  6
CONTINUOUS
 10
-574.7108285323
 20
230.0884049797
 11
-267.4960711499
 21
230.0884049797
  0
LINE
  5
5CF
100
AcDbEntity
  8
ASSI
100
AcDbLine
 62
7
  6
CONTINUOUS
 10
-304.8374212025
 20
219.5884049797
 11
-303.9313794123
 21
217.8842665961
  0
LINE
  5
5D0
100
AcDbEntity
  8
ASSI
100
AcDbLine
 62
7
  6
CONTINUOUS
 10
-303.0253376221
 20
219.5884049797
 11
-303.9313794123
 21
221.2925433633
  0
LINE
  5
5D1
100
AcDbEntity
  8
ASSI
100
AcDbLine
 62
7
  6
CONTINUOUS
 10
-295.5024403339
 20
214.0128486245
 11
-300.5694788539
 21
223.5432421746
  0
LINE
  5
5D2
100
AcDbEntity
  8
ASSI
100
AcDbLine
 62
7
  6
CONTINUOUS
 10
-299.4216289299
 20
224.7925731456
 11
-294.0897019659
 21
214.7639613348
  0
LINE
  5
5D3
100
AcDbEntity
  8
ASSI
100
AcDbLine
 62
7
  6
CONTINUOUS
 10
-288.5705133699
 20
214.3842368138
 11
-293.9024403339
 21
224.4128486245
  0
LINE
  5
5D4
100
AcDbEntity
  8
0
100
AcDbLine
 62
7
  6
CONTINUOUS
 10
-292.4897019659
 20
-224.9871513755
 11
-287.4226634459
 21
-215.4567578254
  0
LINE
  5
5D5
100
AcDbEntity
  8
0
100
AcDbLine
 62
7
  6
CONTINUOUS
 10
-284.9668046777
 20
-219.4115950204
 11
-284.0607628875
 21
-217.7074566367
  0
LINE
  5
5D6
100
AcDbEntity
  8
0
100
AcDbLine
 62
7
  6
CONTINUOUS
 10
-283.1547210973
 20
-219.4115950204
 11
-284.0607628875
 21
-221.115733404
  0
LINE
  5
5D7
100
AcDbEntity
  8
ASSI
100
AcDbLine
 62
7
  6
CONTINUOUS
 10
-292.4897019659
 20
225.1639613348
 11
-287.4226634459
 21
215.6335677847
  0
LINE
  5
5D8
100
AcDbEntity
  8
ASSI
100
AcDbLine
 62
7
  6
CONTINUOUS
 10
-284.9668046777
 20
219.5884049797
 11
-284.0607628875
 21
217.8842665961
  0
LINE
  5
5D9
100
AcDbEntity
  8
ASSI
100
AcDbLine
 62
7
  6
CONTINUOUS
 10
-283.1547210973
 20
219.5884049797
 11
-284.0607628875
 21
221.2925433633
  0
LINE
  5
5DA
100
AcDbEntity
  8
0
100
AcDbLine
 62
7
  6
CONTINUOUS
 10
-267.0911001383
 20
-227.4115950203
 11
-267.8911001383
 21
-228.2115950203
  0
LINE
  5
5DB
100
AcDbEntity
  8
0
100
AcDbLine
 62
7
  6
CONTINUOUS
 10
-267.9053953764
 20
228.3884049797
 11
-267.1053953764
 21
227.5884049797
  0
ARC
  5
5DC
100
AcDbEntity
  8
0
100
AcDbCircle
 62
7
  6
CONTINUOUS
 10
-164.7198868477
 20
-209.6115950203
 40
2.0
100
AcDbArc
 50
336.3295499623
 51
356.9971254598
  0
ARC
  5
5DD
100
AcDbEntity
  8
0
100
AcDbCircle
 62
7
  6
CONTINUOUS
 10
-182.4198868477
 20
-228.2115950203
 40
1.7
100
AcDbArc
 50
180.0
 51
243.2573652725
  0
ARC
  5
5DE
100
AcDbEntity
  8
0
100
AcDbCircle
 62
7
  6
CONTINUOUS
 10
-182.4198868477
 20
-212.1115950203
 40
1.7
100
AcDbArc
 50
139.8909061917
 51
176.4672445439
  0
ARC
  5
5DF
100
AcDbEntity
  8
0
100
AcDbCircle
 62
7
  6
CONTINUOUS
 10
-164.7198868477
 20
-209.6115950203
 40
0.8
100
AcDbArc
 50
299.9286335256
 51
360.0
  0
ARC
  5
5E0
100
AcDbEntity
  8
0
100
AcDbCircle
 62
7
  6
CONTINUOUS
 10
-72.6212877681
 20
103.3307033554
 40
200.0
100
AcDbArc
 50
355.7065692707
 51
17.3540246363
  0
ARC
  5
5E1
100
AcDbEntity
  8
0
100
AcDbCircle
 62
7
  6
CONTINUOUS
 10
-173.1198868477
 20
156.3884049797
 40
6.5
100
AcDbArc
 50
206.5011524138
 51
228.9312372585
  0
ARC
  5
5E2
100
AcDbEntity
  8
0
100
AcDbCircle
 62
7
  6
CONTINUOUS
 10
-177.1198868477
 20
150.4884049797
 40
3.5
100
AcDbArc
 50
121.1983172166
 51
163.396832078
  0
ARC
  5
5E3
100
AcDbEntity
  8
0
100
AcDbCircle
 62
7
  6
CONTINUOUS
 10
-177.1198868477
 20
150.4884049797
 40
2.5
100
AcDbArc
 50
121.2307764938
 51
156.4178307858
  0
ARC
  5
5E4
100
AcDbEntity
  8
0
100
AcDbCircle
 62
7
  6
CONTINUOUS
 10
-177.1198868477
 20
150.4884049797
 40
2.0
100
AcDbArc
 50
119.630790594
 51
149.9874382676
  0
ARC
  5
5E5
100
AcDbEntity
  8
0
100
AcDbCircle
 62
7
  6
CONTINUOUS
 10
-162.6198868477
 20
208.7884049797
 40
2.0
100
AcDbArc
 50
0.0
 51
59.9877679139
  0
ARC
  5
5E6
100
AcDbEntity
  8
0
100
AcDbCircle
 62
7
  6
CONTINUOUS
 10
-182.4198868477
 20
228.3884049797
 40
1.7
100
AcDbArc
 50
116.3296575997
 51
180.0
  0
ARC
  5
5E7
100
AcDbEntity
  8
0
100
AcDbCircle
 62
7
  6
CONTINUOUS
 10
-182.4198868477
 20
211.2884049797
 40
1.7
100
AcDbArc
 50
180.0
 51
210.012231985
  0
ARC
  5
5E8
100
AcDbEntity
  8
0
100
AcDbCircle
 62
7
  6
CONTINUOUS
 10
-162.6198868477
 20
208.7884049797
 40
0.8
100
AcDbArc
 50
0.0
 51
90.0
  0
ARC
  5
5E9
100
AcDbEntity
  8
0
100
AcDbCircle
 62
7
  6
CONTINUOUS
 10
73.1815140728
 20
-103.3538933961
 40
200.0
100
AcDbArc
 50
175.7065692707
 51
197.3540246363
  0
CIRCLE
  5
5EA
100
AcDbEntity
  8
0
100
AcDbCircle
 62
7
  6
CONTINUOUS
 10
147.6801131523
 20
-0.0115950203
 40
11.0
  0
ARC
  5
5EB
100
AcDbEntity
  8
0
100
AcDbCircle
 62
7
  6
CONTINUOUS
 10
147.6801131523
 20
-0.0115950203
 40
9.5
100
AcDbArc
 50
276.0445657952
 51
83.9554342048
  0
ARC
  5
5EC
100
AcDbEntity
  8
0
100
AcDbCircle
 62
7
  6
CONTINUOUS
 10
147.6801131523
 20
-0.0115950203
 40
9.5
100
AcDbArc
 50
96.0445657952
 51
263.9554342048
  0
ARC
  5
5ED
100
AcDbEntity
  8
0
100
AcDbCircle
 62
7
  6
CONTINUOUS
 10
147.6801131523
 20
-0.0115950203
 40
8.5
100
AcDbArc
 50
276.7565375415
 51
83.2434624585
  0
ARC
  5
5EE
100
AcDbEntity
  8
0
100
AcDbCircle
 62
7
  6
CONTINUOUS
 10
147.6801131523
 20
-0.0115950203
 40
8.5
100
AcDbArc
 50
96.7565375415
 51
263.2434624585
  0
ARC
  5
5EF
100
AcDbEntity
  8
0
100
AcDbCircle
 62
7
  6
CONTINUOUS
 10
147.6801131523
 20
-0.0115950203
 40
8.0
100
AcDbArc
 50
277.1809481452
 51
82.8190518548
  0
ARC
  5
5F0
100
AcDbEntity
  8
0
100
AcDbCircle
 62
7
  6
CONTINUOUS
 10
147.6801131523
 20
-0.0115950203
 40
8.0
100
AcDbArc
 50
97.1809481452
 51
262.8190518548
  0
ARC
  5
5F1
100
AcDbEntity
  8
0
100
AcDbCircle
 62
7
  6
CONTINUOUS
 10
147.6801131523
 20
-0.0115950203
 40
7.15
100
AcDbArc
 50
278.0439709356
 51
81.9560290644
  0
ARC
  5
5F2
100
AcDbEntity
  8
0
100
AcDbCircle
 62
7
  6
CONTINUOUS
 10
147.6801131523
 20
-0.0115950203
 40
7.15
100
AcDbArc
 50
98.0439709356
 51
261.9560290644
  0
ARC
  5
5F3
100
AcDbEntity
  8
0
100
AcDbCircle
 62
7
  6
CONTINUOUS
 10
147.6801131523
 20
-0.0115950203
 40
3.25
100
AcDbArc
 50
288.8491065923
 51
72.0797868606
  0
ARC
  5
5F4
100
AcDbEntity
  8
0
100
AcDbCircle
 62
7
  6
CONTINUOUS
 10
147.6801131523
 20
-0.0115950203
 40
3.25
100
AcDbArc
 50
107.9202131394
 51
251.1508934077
  0
ARC
  5
5F5
100
AcDbEntity
  8
0
100
AcDbCircle
 62
7
  6
CONTINUOUS
 10
177.6801131523
 20
-150.5115950203
 40
2.0
100
AcDbArc
 50
210.0166503607
 51
329.9833496393
  0
ARC
  5
5F6
100
AcDbEntity
  8
0
100
AcDbCircle
 62
7
  6
CONTINUOUS
 10
182.9801131523
 20
-228.2115950203
 40
1.7
100
AcDbArc
 50
296.7426347275
 51
360.0
  0
ARC
  5
5F7
100
AcDbEntity
  8
0
100
AcDbCircle
 62
7
  6
CONTINUOUS
 10
182.9801131523
 20
-212.1115950203
 40
1.7
100
AcDbArc
 50
0.0
 51
40.1090938083
  0
ARC
  5
5F8
100
AcDbEntity
  8
0
100
AcDbCircle
 62
7
  6
CONTINUOUS
 10
164.7801131523
 20
-210.1115950203
 40
1.5
100
AcDbArc
 50
180.0
 51
184.003751118
  0
ARC
  5
5F9
100
AcDbEntity
  8
0
100
AcDbCircle
 62
7
  6
CONTINUOUS
 10
183.1801131523
 20
-208.1615950203
 40
1.5
100
AcDbArc
 50
270.0
 51
360.0
  0
ARC
  5
5FA
100
AcDbEntity
  8
0
100
AcDbCircle
 62
7
  6
CONTINUOUS
 10
183.1801131523
 20
-208.1615950203
 40
0.5
100
AcDbArc
 50
270.0
 51
360.0
  0
ARC
  5
5FB
100
AcDbEntity
  8
0
100
AcDbCircle
 62
7
  6
CONTINUOUS
 10
182.9801131523
 20
228.3884049797
 40
1.7
100
AcDbArc
 50
0.0
 51
63.6703424003
  0
ARC
  5
5FC
100
AcDbEntity
  8
0
100
AcDbCircle
 62
7
  6
CONTINUOUS
 10
182.9801131523
 20
211.2884049797
 40
1.7
100
AcDbArc
 50
294.5549660205
 51
360.0
  0
ARC
  5
5FD
100
AcDbEntity
  8
0
100
AcDbCircle
 62
7
  6
CONTINUOUS
 10
162.6801131523
 20
209.2884049797
 40
1.5
100
AcDbArc
 50
119.9107576012
 51
180.0
  0
ARC
  5
5FE
100
AcDbEntity
  8
0
100
AcDbCircle
 62
7
  6
CONTINUOUS
 10
183.1801131523
 20
208.3384049797
 40
1.5
100
AcDbArc
 50
0.0
 51
90.0
  0
ARC
  5
5FF
100
AcDbEntity
  8
0
100
AcDbCircle
 62
7
  6
CONTINUOUS
 10
183.1801131523
 20
208.3384049797
 40
0.5
100
AcDbArc
 50
0.0
 51
90.0
  0
ARC
  5
600
100
AcDbEntity
  8
0
100
AcDbCircle
 62
7
  6
CONTINUOUS
 10
162.6801131523
 20
209.2884049797
 40
0.3
100
AcDbArc
 50
90.0
 51
180.0
  0
ARC
  5
601
100
AcDbEntity
  8
0
100
AcDbCircle
 62
7
  6
CONTINUOUS
 10
-577.4960711499
 20
-214.4115950203
 40
4.0
100
AcDbArc
 50
90.0
 51
200.0
  0
ARC
  5
602
100
AcDbEntity
  8
0
100
AcDbCircle
 62
7
  6
CONTINUOUS
 10
-577.4960711499
 20
-214.4115950203
 40
2.8
100
AcDbArc
 50
90.0
 51
200.0
  0
ARC
  5
603
100
AcDbEntity
  8
0
100
AcDbCircle
 62
7
  6
CONTINUOUS
 10
-574.7108285323
 20
-227.9115950203
 40
2.0
100
AcDbArc
 50
200.0
 51
270.0
  0
ARC
  5
604
100
AcDbEntity
  8
0
100
AcDbCircle
 62
7
  6
CONTINUOUS
 10
-576.9068382884
 20
-214.1115950203
 40
2.0
100
AcDbArc
 50
90.0
 51
200.0
  0
ARC
  5
605
100
AcDbEntity
  8
0
100
AcDbCircle
 62
7
  6
CONTINUOUS
 10
-521.2460711499
 20
-214.9115950204
 40
1.5
100
AcDbArc
 50
27.9983051216
 51
152.0016948784
  0
ARC
  5
606
100
AcDbEntity
  8
0
100
AcDbCircle
 62
7
  6
CONTINUOUS
 10
-534.7460711499
 20
-223.9115950204
 40
1.5
100
AcDbArc
 50
207.9983051216
 51
332.0016948784
  0
ARC
  5
607
100
AcDbEntity
  8
ASSI
100
AcDbCircle
 62
7
  6
CONTINUOUS
 10
-576.5960711499
 20
-206.5115950203
 40
1.4
100
AcDbArc
 50
180.0
 51
270.0
  0
ARC
  5
608
100
AcDbEntity
  8
0
100
AcDbCircle
 62
7
  6
CONTINUOUS
 10
-574.7108285323
 20
-227.9115950203
 40
0.8
100
AcDbArc
 50
200.0
 51
270.0
  0
ARC
  5
609
100
AcDbEntity
  8
0
100
AcDbCircle
 62
7
  6
CONTINUOUS
 10
-501.6960711499
 20
-214.2115950204
 40
0.8
100
AcDbArc
 50
27.9983051216
 51
207.9983051216
  0
ARC
  5
60A
100
AcDbEntity
  8
0
100
AcDbCircle
 62
7
  6
CONTINUOUS
 10
-527.1960711499
 20
-224.6115950204
 40
0.8
100
AcDbArc
 50
152.0016948785
 51
332.0016948784
  0
ARC
  5
60B
100
AcDbEntity
  8
0
100
AcDbCircle
 62
7
  6
CONTINUOUS
 10
-515.2960711499
 20
-224.6115950204
 40
0.8
100
AcDbArc
 50
207.9983051216
 51
27.9983051216
  0
ARC
  5
60C
100
AcDbEntity
  8
0
100
AcDbCircle
 62
7
  6
CONTINUOUS
 10
-528.7960711499
 20
-214.2115950204
 40
0.8
100
AcDbArc
 50
332.0016948785
 51
152.0016948785
  0
ARC
  5
60D
100
AcDbEntity
  8
0
100
AcDbCircle
 62
7
  6
CONTINUOUS
 10
-540.6960711499
 20
-214.2115950204
 40
0.8
100
AcDbArc
 50
27.9983051216
 51
207.9983051216
  0
ARC
  5
60E
100
AcDbEntity
  8
ASSI
100
AcDbCircle
 62
7
  6
CONTINUOUS
 10
-576.5960711499
 20
-206.5115950203
 40
0.2
100
AcDbArc
 50
180.0
 51
270.0
  0
ARC
  5
60F
100
AcDbEntity
  8
0
100
AcDbCircle
 62
7
  6
CONTINUOUS
 10
-521.2460711499
 20
-215.5506469142
 40
0.2
100
AcDbArc
 50
27.9983051216
 51
152.0016948784
  0
ARC
  5
610
100
AcDbEntity
  8
0
100
AcDbCircle
 62
7
  6
CONTINUOUS
 10
-534.7460711499
 20
-223.2725431265
 40
0.2
100
AcDbArc
 50
207.9983051216
 51
332.0016948784
  0
ARC
  5
611
100
AcDbEntity
  8
0
100
AcDbCircle
 62
7
  6
CONTINUOUS
 10
-562.1960711499
 20
-148.7864237794
 40
2.5
100
AcDbArc
 50
47.1470654126
 51
52.5047502354
  0
ARC
  5
612
100
AcDbEntity
  8
0
100
AcDbCircle
 62
7
  6
CONTINUOUS
 10
-562.1960711499
 20
-152.2367662613
 40
2.5
100
AcDbArc
 50
307.4952497646
 51
312.8529345874
  0
ARC
  5
613
100
AcDbEntity
  8
SMUSSO
100
AcDbCircle
 62
7
  6
CONTINUOUS
 10
-571.4960711499
 20
-152.4115950203
 40
2.5
100
AcDbArc
 50
333.8768837034
 51
21.115401763
  0
ARC
  5
614
100
AcDbEntity
  8
SMUSSO
100
AcDbCircle
 62
7
  6
CONTINUOUS
 10
-571.4960711499
 20
-152.4115950203
 40
1.7
100
AcDbArc
 50
319.6541229737
 51
32.00832705
  0
ARC
  5
615
100
AcDbEntity
  8
0
100
AcDbCircle
 62
7
  6
CONTINUOUS
 10
-564.9960711499
 20
-153.0115950203
 40
1.0
100
AcDbArc
 50
330.0
 51
360.0
  0
ARC
  5
616
100
AcDbEntity
  8
0
100
AcDbCircle
 62
7
  6
CONTINUOUS
 10
-564.9960711499
 20
-153.0115950203
 40
1.0
100
AcDbArc
 50
180.0
 51
210.0
  0
ARC
  5
617
100
AcDbEntity
  8
0
100
AcDbCircle
 62
7
  6
CONTINUOUS
 10
-566.9960711499
 20
-151.5115950203
 40
1.0
100
AcDbArc
 50
180.0
 51
270.0
  0
ARC
  5
618
100
AcDbEntity
  8
0
100
AcDbCircle
 62
7
  6
CONTINUOUS
 10
-566.4960711499
 20
-152.5115950203
 40
0.5
100
AcDbArc
 50
180.0
 51
270.0
  0
ARC
  5
619
100
AcDbEntity
  8
0
100
AcDbCircle
 62
7
  6
CONTINUOUS
 10
-560.7960711499
 20
-146.9615950203
 40
0.2
100
AcDbArc
 50
52.5047502354
 51
90.0
  0
ARC
  5
61A
100
AcDbEntity
  8
0
100
AcDbCircle
 62
7
  6
CONTINUOUS
 10
-560.7960711499
 20
-154.0615950203
 40
0.2
100
AcDbArc
 50
270.0
 51
307.4952497646
  0
ARC
  5
61B
100
AcDbEntity
  8
0
100
AcDbCircle
 62
7
  6
CONTINUOUS
 10
-443.2460711499
 20
-214.9115950204
 40
1.5
100
AcDbArc
 50
27.9983051216
 51
152.0016948784
  0
ARC
  5
61C
100
AcDbEntity
  8
0
100
AcDbCircle
 62
7
  6
CONTINUOUS
 10
-456.7460711499
 20
-223.9115950204
 40
1.5
100
AcDbArc
 50
207.9983051216
 51
332.0016948784
  0
ARC
  5
61D
100
AcDbEntity
  8
0
100
AcDbCircle
 62
7
  6
CONTINUOUS
 10
-482.2460711499
 20
-214.9115950204
 40
1.5
100
AcDbArc
 50
27.9983051216
 51
152.0016948784
  0
ARC
  5
61E
100
AcDbEntity
  8
0
100
AcDbCircle
 62
7
  6
CONTINUOUS
 10
-495.7460711499
 20
-223.9115950204
 40
1.5
100
AcDbArc
 50
207.9983051216
 51
332.0016948784
  0
ARC
  5
61F
100
AcDbEntity
  8
0
100
AcDbCircle
 62
7
  6
CONTINUOUS
 10
-423.6960711499
 20
-214.2115950204
 40
0.8
100
AcDbArc
 50
27.9983051216
 51
207.9983051215
  0
ARC
  5
620
100
AcDbEntity
  8
0
100
AcDbCircle
 62
7
  6
CONTINUOUS
 10
-449.1960711499
 20
-224.6115950204
 40
0.8
100
AcDbArc
 50
152.0016948784
 51
332.0016948784
  0
ARC
  5
621
100
AcDbEntity
  8
0
100
AcDbCircle
 62
7
  6
CONTINUOUS
 10
-437.2960711499
 20
-224.6115950204
 40
0.8
100
AcDbArc
 50
207.9983051216
 51
27.9983051216
  0
ARC
  5
622
100
AcDbEntity
  8
0
100
AcDbCircle
 62
7
  6
CONTINUOUS
 10
-450.7960711499
 20
-214.2115950204
 40
0.8
100
AcDbArc
 50
332.0016948784
 51
152.0016948784
  0
ARC
  5
623
100
AcDbEntity
  8
0
100
AcDbCircle
 62
7
  6
CONTINUOUS
 10
-462.6960711499
 20
-214.2115950204
 40
0.8
100
AcDbArc
 50
27.9983051215
 51
207.9983051216
  0
ARC
  5
624
100
AcDbEntity
  8
0
100
AcDbCircle
 62
7
  6
CONTINUOUS
 10
-488.1960711499
 20
-224.6115950204
 40
0.8
100
AcDbArc
 50
152.0016948785
 51
332.0016948785
  0
ARC
  5
625
100
AcDbEntity
  8
0
100
AcDbCircle
 62
7
  6
CONTINUOUS
 10
-476.2960711499
 20
-224.6115950204
 40
0.8
100
AcDbArc
 50
207.9983051216
 51
27.9983051216
  0
ARC
  5
626
100
AcDbEntity
  8
0
100
AcDbCircle
 62
7
  6
CONTINUOUS
 10
-489.7960711499
 20
-214.2115950204
 40
0.8
100
AcDbArc
 50
332.0016948784
 51
152.0016948784
  0
ARC
  5
627
100
AcDbEntity
  8
0
100
AcDbCircle
 62
7
  6
CONTINUOUS
 10
-443.2460711499
 20
-215.5506469142
 40
0.2
100
AcDbArc
 50
27.9983051216
 51
152.0016948784
  0
ARC
  5
628
100
AcDbEntity
  8
0
100
AcDbCircle
 62
7
  6
CONTINUOUS
 10
-456.7460711499
 20
-223.2725431265
 40
0.2
100
AcDbArc
 50
207.9983051216
 51
332.0016948784
  0
ARC
  5
629
100
AcDbEntity
  8
0
100
AcDbCircle
 62
7
  6
CONTINUOUS
 10
-482.2460711499
 20
-215.5506469142
 40
0.2
100
AcDbArc
 50
27.9983051215
 51
152.0016948784
  0
ARC
  5
62A
100
AcDbEntity
  8
0
100
AcDbCircle
 62
7
  6
CONTINUOUS
 10
-495.7460711499
 20
-223.2725431265
 40
0.2
100
AcDbArc
 50
207.9983051216
 51
332.0016948784
  0
ARC
  5
62B
100
AcDbEntity
  8
0
100
AcDbCircle
 62
7
  6
CONTINUOUS
 10
-562.1960711499
 20
152.2135762206
 40
2.5
100
AcDbArc
 50
47.1470654127
 51
52.5047502354
  0
ARC
  5
62C
100
AcDbEntity
  8
0
100
AcDbCircle
 62
7
  6
CONTINUOUS
 10
-562.1960711499
 20
148.7632337387
 40
2.5
100
AcDbArc
 50
307.4952497646
 51
312.8529345873
  0
ARC
  5
62D
100
AcDbEntity
  8
0
100
AcDbCircle
 62
7
  6
CONTINUOUS
 10
-560.7960711499
 20
154.0384049797
 40
0.2
100
AcDbArc
 50
52.5047502354
 51
90.0
  0
ARC
  5
62E
100
AcDbEntity
  8
0
100
AcDbCircle
 62
7
  6
CONTINUOUS
 10
-560.7960711499
 20
146.9384049797
 40
0.2
100
AcDbArc
 50
270.0
 51
307.4952497646
  0
ARC
  5
62F
100
AcDbEntity
  8
0
100
AcDbCircle
 62
7
  6
CONTINUOUS
 10
-577.4960711499
 20
214.5884049797
 40
4.0
100
AcDbArc
 50
160.0
 51
270.0
  0
ARC
  5
630
100
AcDbEntity
  8
0
100
AcDbCircle
 62
7
  6
CONTINUOUS
 10
-577.4960711499
 20
214.5884049797
 40
2.8
100
AcDbArc
 50
160.0
 51
270.0
  0
ARC
  5
631
100
AcDbEntity
  8
0
100
AcDbCircle
 62
7
  6
CONTINUOUS
 10
-576.9211335265
 20
214.2884049797
 40
2.0
100
AcDbArc
 50
160.0
 51
270.0
  0
ARC
  5
632
100
AcDbEntity
  8
0
100
AcDbCircle
 62
7
  6
CONTINUOUS
 10
-574.7108285323
 20
228.0884049797
 40
2.0
100
AcDbArc
 50
90.0
 51
160.0
  0
ARC
  5
633
100
AcDbEntity
  8
ASSI
100
AcDbCircle
 62
7
  6
CONTINUOUS
 10
-521.2460711499
 20
215.0884049797
 40
1.5
100
AcDbArc
 50
207.9983051216
 51
332.0016948784
  0
ARC
  5
634
100
AcDbEntity
  8
ASSI
100
AcDbCircle
 62
7
  6
CONTINUOUS
 10
-534.7460711499
 20
224.0884049797
 40
1.5
100
AcDbArc
 50
27.9983051216
 51
152.0016948784
  0
ARC
  5
635
100
AcDbEntity
  8
ASSI
100
AcDbCircle
 62
7
  6
CONTINUOUS
 10
-576.5960711499
 20
206.4884049797
 40
1.4
100
AcDbArc
 50
90.0
 51
180.0
  0
ARC
  5
636
100
AcDbEntity
  8
0
100
AcDbCircle
 62
7
  6
CONTINUOUS
 10
-574.7108285323
 20
228.0884049797
 40
0.8
100
AcDbArc
 50
90.0
 51
160.0
  0
ARC
  5
637
100
AcDbEntity
  8
ASSI
100
AcDbCircle
 62
7
  6
CONTINUOUS
 10
-501.6960711499
 20
214.3884049797
 40
0.8
100
AcDbArc
 50
152.0016948784
 51
332.0016948784
  0
ARC
  5
638
100
AcDbEntity
  8
ASSI
100
AcDbCircle
 62
7
  6
CONTINUOUS
 10
-515.2960711499
 20
224.7884049797
 40
0.8
100
AcDbArc
 50
332.0016948784
 51
152.0016948784
  0
ARC
  5
639
100
AcDbEntity
  8
ASSI
100
AcDbCircle
 62
7
  6
CONTINUOUS
 10
-527.1960711499
 20
224.7884049797
 40
0.8
100
AcDbArc
 50
27.9983051215
 51
207.9983051215
  0
ARC
  5
63A
100
AcDbEntity
  8
ASSI
100
AcDbCircle
 62
7
  6
CONTINUOUS
 10
-540.6960711499
 20
214.3884049797
 40
0.8
100
AcDbArc
 50
152.0016948784
 51
332.0016948784
  0
ARC
  5
63B
100
AcDbEntity
  8
ASSI
100
AcDbCircle
 62
7
  6
CONTINUOUS
 10
-528.7960711499
 20
214.3884049797
 40
0.8
100
AcDbArc
 50
207.9983051215
 51
27.9983051215
  0
ARC
  5
63C
100
AcDbEntity
  8
ASSI
100
AcDbCircle
 62
7
  6
CONTINUOUS
 10
-576.5960711499
 20
206.4884049797
 40
0.2
100
AcDbArc
 50
90.0
 51
180.0
  0
ARC
  5
63D
100
AcDbEntity
  8
ASSI
100
AcDbCircle
 62
7
  6
CONTINUOUS
 10
-521.2460711499
 20
215.7274568735
 40
0.2
100
AcDbArc
 50
207.9983051216
 51
332.0016948784
  0
ARC
  5
63E
100
AcDbEntity
  8
ASSI
100
AcDbCircle
 62
7
  6
CONTINUOUS
 10
-534.7460711499
 20
223.4493530858
 40
0.2
100
AcDbArc
 50
27.9983051216
 51
152.0016948784
  0
ARC
  5
63F
100
AcDbEntity
  8
ASSI
100
AcDbCircle
 62
7
  6
CONTINUOUS
 10
-443.2460711499
 20
215.0884049797
 40
1.5
100
AcDbArc
 50
207.9983051216
 51
332.0016948784
  0
ARC
  5
640
100
AcDbEntity
  8
ASSI
100
AcDbCircle
 62
7
  6
CONTINUOUS
 10
-456.7460711499
 20
224.0884049797
 40
1.5
100
AcDbArc
 50
27.9983051216
 51
152.0016948784
  0
ARC
  5
641
100
AcDbEntity
  8
ASSI
100
AcDbCircle
 62
7
  6
CONTINUOUS
 10
-482.2460711499
 20
215.0884049797
 40
1.5
100
AcDbArc
 50
207.9983051216
 51
332.0016948784
  0
ARC
  5
642
100
AcDbEntity
  8
ASSI
100
AcDbCircle
 62
7
  6
CONTINUOUS
 10
-495.7460711499
 20
224.0884049797
 40
1.5
100
AcDbArc
 50
27.9983051216
 51
152.0016948784
  0
ARC
  5
643
100
AcDbEntity
  8
ASSI
100
AcDbCircle
 62
7
  6
CONTINUOUS
 10
-423.6960711499
 20
214.3884049797
 40
0.8
100
AcDbArc
 50
152.0016948784
 51
332.0016948784
  0
ARC
  5
644
100
AcDbEntity
  8
ASSI
100
AcDbCircle
 62
7
  6
CONTINUOUS
 10
-437.2960711499
 20
224.7884049797
 40
0.8
100
AcDbArc
 50
332.0016948784
 51
152.0016948784
  0
ARC
  5
645
100
AcDbEntity
  8
ASSI
100
AcDbCircle
 62
7
  6
CONTINUOUS
 10
-449.1960711499
 20
224.7884049797
 40
0.8
100
AcDbArc
 50
27.9983051216
 51
207.9983051216
  0
ARC
  5
646
100
AcDbEntity
  8
ASSI
100
AcDbCircle
 62
7
  6
CONTINUOUS
 10
-462.6960711499
 20
214.3884049797
 40
0.8
100
AcDbArc
 50
152.0016948784
 51
332.0016948785
  0
ARC
  5
647
100
AcDbEntity
  8
ASSI
100
AcDbCircle
 62
7
  6
CONTINUOUS
 10
-450.7960711499
 20
214.3884049797
 40
0.8
100
AcDbArc
 50
207.9983051216
 51
27.9983051216
  0
ARC
  5
648
100
AcDbEntity
  8
ASSI
100
AcDbCircle
 62
7
  6
CONTINUOUS
 10
-476.2960711499
 20
224.7884049797
 40
0.8
100
AcDbArc
 50
332.0016948784
 51
152.0016948784
  0
ARC
  5
649
100
AcDbEntity
  8
ASSI
100
AcDbCircle
 62
7
  6
CONTINUOUS
 10
-488.1960711499
 20
224.7884049797
 40
0.8
100
AcDbArc
 50
27.9983051215
 51
207.9983051216
  0
ARC
  5
64A
100
AcDbEntity
  8
ASSI
100
AcDbCircle
 62
7
  6
CONTINUOUS
 10
-489.7960711499
 20
214.3884049797
 40
0.8
100
AcDbArc
 50
207.9983051216
 51
27.9983051216
  0
ARC
  5
64B
100
AcDbEntity
  8
ASSI
100
AcDbCircle
 62
7
  6
CONTINUOUS
 10
-443.2460711499
 20
215.7274568735
 40
0.2
100
AcDbArc
 50
207.9983051216
 51
332.0016948784
  0
ARC
  5
64C
100
AcDbEntity
  8
ASSI
100
AcDbCircle
 62
7
  6
CONTINUOUS
 10
-456.7460711499
 20
223.4493530858
 40
0.2
100
AcDbArc
 50
27.9983051216
 51
152.0016948784
  0
ARC
  5
64D
100
AcDbEntity
  8
ASSI
100
AcDbCircle
 62
7
  6
CONTINUOUS
 10
-482.2460711499
 20
215.7274568735
 40
0.2
100
AcDbArc
 50
207.9983051216
 51
332.0016948785
  0
ARC
  5
64E
100
AcDbEntity
  8
ASSI
100
AcDbCircle
 62
7
  6
CONTINUOUS
 10
-495.7460711499
 20
223.4493530858
 40
0.2
100
AcDbArc
 50
27.9983051216
 51
152.0016948784
  0
ARC
  5
64F
100
AcDbEntity
  8
0
100
AcDbCircle
 62
7
  6
CONTINUOUS
 10
-378.7460711499
 20
-223.9115950204
 40
1.5
100
AcDbArc
 50
207.9983051216
 51
332.0016948784
  0
ARC
  5
650
100
AcDbEntity
  8
0
100
AcDbCircle
 62
7
  6
CONTINUOUS
 10
-417.7460711499
 20
-223.9115950204
 40
1.5
100
AcDbArc
 50
207.9983051216
 51
332.0016948784
  0
ARC
  5
651
100
AcDbEntity
  8
0
100
AcDbCircle
 62
7
  6
CONTINUOUS
 10
-371.1960711499
 20
-224.6115950204
 40
0.8
100
AcDbArc
 50
152.0016948784
 51
332.0016948784
  0
ARC
  5
652
100
AcDbEntity
  8
0
100
AcDbCircle
 62
7
  6
CONTINUOUS
 10
-359.2960711499
 20
-224.6115950204
 40
0.8
100
AcDbArc
 50
207.9983051216
 51
27.9983051216
  0
ARC
  5
653
100
AcDbEntity
  8
0
100
AcDbCircle
 62
7
  6
CONTINUOUS
 10
-410.1960711499
 20
-224.6115950204
 40
0.8
100
AcDbArc
 50
152.0016948784
 51
332.0016948785
  0
ARC
  5
654
100
AcDbEntity
  8
0
100
AcDbCircle
 62
7
  6
CONTINUOUS
 10
-398.2960711499
 20
-224.6115950204
 40
0.8
100
AcDbArc
 50
207.9983051215
 51
27.9983051216
  0
ARC
  5
655
100
AcDbEntity
  8
0
100
AcDbCircle
 62
7
  6
CONTINUOUS
 10
-378.7460711499
 20
-223.2725431265
 40
0.2
100
AcDbArc
 50
207.9983051216
 51
332.0016948785
  0
ARC
  5
656
100
AcDbEntity
  8
0
100
AcDbCircle
 62
7
  6
CONTINUOUS
 10
-417.7460711499
 20
-223.2725431265
 40
0.2
100
AcDbArc
 50
207.9983051216
 51
332.0016948784
  0
ARC
  5
657
100
AcDbEntity
  8
0
100
AcDbCircle
 62
7
  6
CONTINUOUS
 10
-365.2460711499
 20
-214.9115950204
 40
1.5
100
AcDbArc
 50
27.9983051216
 51
152.0016948784
  0
ARC
  5
658
100
AcDbEntity
  8
0
100
AcDbCircle
 62
7
  6
CONTINUOUS
 10
-404.2460711499
 20
-214.9115950204
 40
1.5
100
AcDbArc
 50
27.9983051216
 51
152.0016948784
  0
ARC
  5
659
100
AcDbEntity
  8
0
100
AcDbCircle
 62
7
  6
CONTINUOUS
 10
-345.6960711499
 20
-214.2115950204
 40
0.8
100
AcDbArc
 50
27.9983051215
 51
207.9983051216
  0
ARC
  5
65A
100
AcDbEntity
  8
0
100
AcDbCircle
 62
7
  6
CONTINUOUS
 10
-372.7960711499
 20
-214.2115950204
 40
0.8
100
AcDbArc
 50
332.0016948784
 51
152.0016948784
  0
ARC
  5
65B
100
AcDbEntity
  8
0
100
AcDbCircle
 62
7
  6
CONTINUOUS
 10
-384.6960711499
 20
-214.2115950204
 40
0.8
100
AcDbArc
 50
27.9983051216
 51
207.9983051216
  0
ARC
  5
65C
100
AcDbEntity
  8
0
100
AcDbCircle
 62
7
  6
CONTINUOUS
 10
-411.7960711499
 20
-214.2115950204
 40
0.8
100
AcDbArc
 50
332.0016948784
 51
152.0016948784
  0
ARC
  5
65D
100
AcDbEntity
  8
0
100
AcDbCircle
 62
7
  6
CONTINUOUS
 10
-365.2460711499
 20
-215.5506469142
 40
0.2
100
AcDbArc
 50
27.9983051216
 51
152.0016948785
  0
ARC
  5
65E
100
AcDbEntity
  8
0
100
AcDbCircle
 62
7
  6
CONTINUOUS
 10
-404.2460711499
 20
-215.5506469142
 40
0.2
100
AcDbArc
 50
27.9983051216
 51
152.0016948784
  0
ARC
  5
65F
100
AcDbEntity
  8
0
100
AcDbCircle
 62
7
  6
CONTINUOUS
 10
-267.4960711499
 20
-227.9115950203
 40
2.0
100
AcDbArc
 50
270.0
 51
360.0
  0
ARC
  5
660
100
AcDbEntity
  8
0
100
AcDbCircle
 62
7
  6
CONTINUOUS
 10
-300.7460711499
 20
-223.9115950204
 40
1.5
100
AcDbArc
 50
207.9983051216
 51
332.0016948784
  0
ARC
  5
661
100
AcDbEntity
  8
0
100
AcDbCircle
 62
7
  6
CONTINUOUS
 10
-339.7460711499
 20
-223.9115950204
 40
1.5
100
AcDbArc
 50
207.9983051215
 51
332.0016948784
  0
ARC
  5
662
100
AcDbEntity
  8
0
100
AcDbCircle
 62
7
  6
CONTINUOUS
 10
-267.4960711499
 20
-227.9115950203
 40
0.8
100
AcDbArc
 50
270.0
 51
360.0
  0
ARC
  5
663
100
AcDbEntity
  8
0
100
AcDbCircle
 62
7
  6
CONTINUOUS
 10
-293.1960711499
 20
-224.6115950204
 40
0.8
100
AcDbArc
 50
152.0016948784
 51
332.0016948785
  0
ARC
  5
664
100
AcDbEntity
  8
0
100
AcDbCircle
 62
7
  6
CONTINUOUS
 10
-281.2960711499
 20
-224.6115950204
 40
0.8
100
AcDbArc
 50
207.9983051215
 51
27.9983051215
  0
ARC
  5
665
100
AcDbEntity
  8
0
100
AcDbCircle
 62
7
  6
CONTINUOUS
 10
-332.1960711499
 20
-224.6115950204
 40
0.8
100
AcDbArc
 50
152.0016948784
 51
332.0016948784
  0
ARC
  5
666
100
AcDbEntity
  8
0
100
AcDbCircle
 62
7
  6
CONTINUOUS
 10
-320.2960711499
 20
-224.6115950204
 40
0.8
100
AcDbArc
 50
207.9983051216
 51
27.9983051216
  0
ARC
  5
667
100
AcDbEntity
  8
0
100
AcDbCircle
 62
7
  6
CONTINUOUS
 10
-300.7460711499
 20
-223.2725431265
 40
0.2
100
AcDbArc
 50
207.9983051217
 51
332.0016948786
  0
ARC
  5
668
100
AcDbEntity
  8
0
100
AcDbCircle
 62
7
  6
CONTINUOUS
 10
-339.7460711499
 20
-223.2725431265
 40
0.2
100
AcDbArc
 50
207.9983051216
 51
332.0016948784
  0
ARC
  5
669
100
AcDbEntity
  8
0
100
AcDbCircle
 62
7
  6
CONTINUOUS
 10
-287.2460711499
 20
-214.9115950204
 40
1.5
100
AcDbArc
 50
27.9983051215
 51
152.0016948784
  0
ARC
  5
66A
100
AcDbEntity
  8
0
100
AcDbCircle
 62
7
  6
CONTINUOUS
 10
-326.2460711499
 20
-214.9115950204
 40
1.5
100
AcDbArc
 50
27.9983051216
 51
152.0016948784
  0
ARC
  5
66B
100
AcDbEntity
  8
0
100
AcDbCircle
 62
7
  6
CONTINUOUS
 10
-294.7960711499
 20
-214.2115950204
 40
0.8
100
AcDbArc
 50
332.0016948785
 51
152.0016948784
  0
ARC
  5
66C
100
AcDbEntity
  8
0
100
AcDbCircle
 62
7
  6
CONTINUOUS
 10
-306.6960711499
 20
-214.2115950204
 40
0.8
100
AcDbArc
 50
27.9983051215
 51
207.9983051215
  0
ARC
  5
66D
100
AcDbEntity
  8
0
100
AcDbCircle
 62
7
  6
CONTINUOUS
 10
-333.7960711499
 20
-214.2115950204
 40
0.8
100
AcDbArc
 50
332.0016948785
 51
152.0016948784
  0
ARC
  5
66E
100
AcDbEntity
  8
0
100
AcDbCircle
 62
7
  6
CONTINUOUS
 10
-287.2460711499
 20
-215.5506469142
 40
0.2
100
AcDbArc
 50
27.9983051216
 51
152.0016948785
  0
ARC
  5
66F
100
AcDbEntity
  8
0
100
AcDbCircle
 62
7
  6
CONTINUOUS
 10
-326.2460711499
 20
-215.5506469142
 40
0.2
100
AcDbArc
 50
27.9983051215
 51
152.0016948784
  0
ARC
  5
670
100
AcDbEntity
  8
ASSI
100
AcDbCircle
 62
7
  6
CONTINUOUS
 10
-365.2460711499
 20
215.0884049797
 40
1.5
100
AcDbArc
 50
207.9983051216
 51
332.0016948784
  0
ARC
  5
671
100
AcDbEntity
  8
ASSI
100
AcDbCircle
 62
7
  6
CONTINUOUS
 10
-404.2460711499
 20
215.0884049797
 40
1.5
100
AcDbArc
 50
207.9983051216
 51
332.0016948784
  0
ARC
  5
672
100
AcDbEntity
  8
ASSI
100
AcDbCircle
 62
7
  6
CONTINUOUS
 10
-345.6960711499
 20
214.3884049797
 40
0.8
100
AcDbArc
 50
152.0016948784
 51
332.0016948784
  0
ARC
  5
673
100
AcDbEntity
  8
ASSI
100
AcDbCircle
 62
7
  6
CONTINUOUS
 10
-384.6960711499
 20
214.3884049797
 40
0.8
100
AcDbArc
 50
152.0016948784
 51
332.0016948784
  0
ARC
  5
674
100
AcDbEntity
  8
ASSI
100
AcDbCircle
 62
7
  6
CONTINUOUS
 10
-372.7960711499
 20
214.3884049797
 40
0.8
100
AcDbArc
 50
207.9983051215
 51
27.9983051215
  0
ARC
  5
675
100
AcDbEntity
  8
ASSI
100
AcDbCircle
 62
7
  6
CONTINUOUS
 10
-411.7960711499
 20
214.3884049797
 40
0.8
100
AcDbArc
 50
207.9983051216
 51
27.9983051216
  0
ARC
  5
676
100
AcDbEntity
  8
ASSI
100
AcDbCircle
 62
7
  6
CONTINUOUS
 10
-365.2460711499
 20
215.7274568735
 40
0.2
100
AcDbArc
 50
207.9983051215
 51
332.0016948784
  0
ARC
  5
677
100
AcDbEntity
  8
ASSI
100
AcDbCircle
 62
7
  6
CONTINUOUS
 10
-404.2460711499
 20
215.7274568735
 40
0.2
100
AcDbArc
 50
207.9983051216
 51
332.0016948784
  0
ARC
  5
678
100
AcDbEntity
  8
ASSI
100
AcDbCircle
 62
7
  6
CONTINUOUS
 10
-378.7460711499
 20
224.0884049797
 40
1.5
100
AcDbArc
 50
27.9983051216
 51
152.0016948784
  0
ARC
  5
679
100
AcDbEntity
  8
ASSI
100
AcDbCircle
 62
7
  6
CONTINUOUS
 10
-417.7460711499
 20
224.0884049797
 40
1.5
100
AcDbArc
 50
27.9983051216
 51
152.0016948784
  0
ARC
  5
67A
100
AcDbEntity
  8
ASSI
100
AcDbCircle
 62
7
  6
CONTINUOUS
 10
-359.2960711499
 20
224.7884049797
 40
0.8
100
AcDbArc
 50
332.0016948784
 51
152.0016948784
  0
ARC
  5
67B
100
AcDbEntity
  8
ASSI
100
AcDbCircle
 62
7
  6
CONTINUOUS
 10
-371.1960711499
 20
224.7884049797
 40
0.8
100
AcDbArc
 50
27.9983051216
 51
207.9983051216
  0
ARC
  5
67C
100
AcDbEntity
  8
ASSI
100
AcDbCircle
 62
7
  6
CONTINUOUS
 10
-398.2960711499
 20
224.7884049797
 40
0.8
100
AcDbArc
 50
332.0016948784
 51
152.0016948784
  0
ARC
  5
67D
100
AcDbEntity
  8
ASSI
100
AcDbCircle
 62
7
  6
CONTINUOUS
 10
-410.1960711499
 20
224.7884049797
 40
0.8
100
AcDbArc
 50
27.9983051216
 51
207.9983051216
  0
ARC
  5
67E
100
AcDbEntity
  8
ASSI
100
AcDbCircle
 62
7
  6
CONTINUOUS
 10
-378.7460711499
 20
223.4493530858
 40
0.2
100
AcDbArc
 50
27.9983051215
 51
152.0016948785
  0
ARC
  5
67F
100
AcDbEntity
  8
ASSI
100
AcDbCircle
 62
7
  6
CONTINUOUS
 10
-417.7460711499
 20
223.4493530858
 40
0.2
100
AcDbArc
 50
27.9983051216
 51
152.0016948784
  0
ARC
  5
680
100
AcDbEntity
  8
ASSI
100
AcDbCircle
 62
7
  6
CONTINUOUS
 10
-287.2460711499
 20
215.0884049797
 40
1.5
100
AcDbArc
 50
207.9983051216
 51
332.0016948785
  0
ARC
  5
681
100
AcDbEntity
  8
ASSI
100
AcDbCircle
 62
7
  6
CONTINUOUS
 10
-326.2460711499
 20
215.0884049797
 40
1.5
100
AcDbArc
 50
207.9983051216
 51
332.0016948784
  0
ARC
  5
682
100
AcDbEntity
  8
ASSI
100
AcDbCircle
 62
7
  6
CONTINUOUS
 10
-306.6960711499
 20
214.3884049797
 40
0.8
100
AcDbArc
 50
152.0016948785
 51
332.0016948785
  0
ARC
  5
683
100
AcDbEntity
  8
ASSI
100
AcDbCircle
 62
7
  6
CONTINUOUS
 10
-294.7960711499
 20
214.3884049797
 40
0.8
100
AcDbArc
 50
207.9983051216
 51
27.9983051216
  0
ARC
  5
684
100
AcDbEntity
  8
ASSI
100
AcDbCircle
 62
7
  6
CONTINUOUS
 10
-333.7960711499
 20
214.3884049797
 40
0.8
100
AcDbArc
 50
207.9983051216
 51
27.9983051215
  0
ARC
  5
685
100
AcDbEntity
  8
ASSI
100
AcDbCircle
 62
7
  6
CONTINUOUS
 10
-287.2460711499
 20
215.7274568735
 40
0.2
100
AcDbArc
 50
207.9983051215
 51
332.0016948785
  0
ARC
  5
686
100
AcDbEntity
  8
ASSI
100
AcDbCircle
 62
7
  6
CONTINUOUS
 10
-326.2460711499
 20
215.7274568735
 40
0.2
100
AcDbArc
 50
207.9983051216
 51
332.0016948784
  0
ARC
  5
687
100
AcDbEntity
  8
0
100
AcDbCircle
 62
7
  6
CONTINUOUS
 10
-267.4960711499
 20
228.0884049797
 40
2.0
100
AcDbArc
 50
0.0
 51
90.0
  0
ARC
  5
688
100
AcDbEntity
  8
ASSI
100
AcDbCircle
 62
7
  6
CONTINUOUS
 10
-300.7460711499
 20
224.0884049797
 40
1.5
100
AcDbArc
 50
27.9983051216
 51
152.0016948785
  0
ARC
  5
689
100
AcDbEntity
  8
ASSI
100
AcDbCircle
 62
7
  6
CONTINUOUS
 10
-339.7460711499
 20
224.0884049797
 40
1.5
100
AcDbArc
 50
27.9983051216
 51
152.0016948785
  0
ARC
  5
68A
100
AcDbEntity
  8
0
100
AcDbCircle
 62
7
  6
CONTINUOUS
 10
-267.4960711499
 20
228.0884049797
 40
0.8
100
AcDbArc
 50
0.0
 51
90.0
  0
ARC
  5
68B
100
AcDbEntity
  8
ASSI
100
AcDbCircle
 62
7
  6
CONTINUOUS
 10
-281.2960711499
 20
224.7884049797
 40
0.8
100
AcDbArc
 50
332.0016948784
 51
152.0016948785
  0
ARC
  5
68C
100
AcDbEntity
  8
ASSI
100
AcDbCircle
 62
7
  6
CONTINUOUS
 10
-293.1960711499
 20
224.7884049797
 40
0.8
100
AcDbArc
 50
27.9983051215
 51
207.9983051216
  0
ARC
  5
68D
100
AcDbEntity
  8
ASSI
100
AcDbCircle
 62
7
  6
CONTINUOUS
 10
-320.2960711499
 20
224.7884049797
 40
0.8
100
AcDbArc
 50
332.0016948784
 51
152.0016948784
  0
ARC
  5
68E
100
AcDbEntity
  8
ASSI
100
AcDbCircle
 62
7
  6
CONTINUOUS
 10
-332.1960711499
 20
224.7884049797
 40
0.8
100
AcDbArc
 50
27.9983051216
 51
207.9983051216
  0
ARC
  5
68F
100
AcDbEntity
  8
ASSI
100
AcDbCircle
 62
7
  6
CONTINUOUS
 10
-300.7460711499
 20
223.4493530858
 40
0.2
100
AcDbArc
 50
27.9983051215
 51
152.0016948783
  0
ARC
  5
690
100
AcDbEntity
  8
ASSI
100
AcDbCircle
 62
7
  6
CONTINUOUS
 10
-339.7460711499
 20
223.4493530858
 40
0.2
100
AcDbArc
 50
27.9983051216
 51
152.0016948784
  0
ENDSEC
  0
SECTION
  2
OBJECTS
  0
DICTIONARY
  5
C
100
AcDbDictionary
280
0
281
1
  3
ACAD_GROUP
350
D
  3
ACAD_MLINESTYLE
350
17
  3
ACAD_LAYOUT
350
1A
  3
ACAD_PLOTSETTINGS
350
19
  3
ACAD_PLOTSTYLENAME
350
E
  0
DICTIONARY
  5
D
102
{ACAD_REACTORS
330
C
102
}
100
AcDbDictionary
280
0
281
1
  0
ACDBDICTIONARYWDFLT
  5
E
102
{ACAD_REACTORS
330
C
102
}
100
AcDbDictionary
281
1
  3
Normal
350
F
100
AcDbDictionaryWithDefault
340
F
  0
DICTIONARY
  5
17
102
{ACAD_REACTORS
330
C
102
}
100
AcDbDictionary
280
0
281
1
  3
Standard
350
18
  0
DICTIONARY
  5
19
102
{ACAD_REACTORS
330
C
102
}
100
AcDbDictionary
281
1
  0
DICTIONARY
  5
1A
102
{ACAD_REACTORS
330
C
102
}
100
AcDbDictionary
281
1
  3
Model
350
691
  3
Layout1
350
692
  0
ACDBPLACEHOLDER
  5
F
102
{ACAD_REACTORS
330
E
102
}
  0
MLINESTYLE
  5
18
102
{ACAD_REACTORS
330
17
102
}
100
AcDbMlineStyle
  2
STANDARD
 70
0
  3

 62
256
 51
90.0
 52
90.0
 71
2
 49
0.5
 62
256
  6
BYLAYER
 49
-0.5
 62
256
  6
BYLAYER
  0
LAYOUT
  5
691
102
{ACAD_REACTORS
330
1A
102
}
100
AcDbPlotSettings
  1

  2
none_device
  4
ISO_A4_(297.00_x_210.00_MM)
  6

 40
0.0
 41
0.0
 42
0.0
 43
0.0
 44
297.0
 45
210.0
 46
0.0
 47
0.0
 48
0.0
 49
0.0
140
0.0
141
0.0
142
1.0
143
1.0
 70
1024
 72
1
 73
0
 74
0
  7

 75
0
147
1.0
148
0.0
149
0.0
100
AcDbLayout
  1
Model
 70
0
 71
0
 10
0.0
 20
0.0
 11
297.0
 21
210.0
 12
0.0
 22
0.0
 32
0.0
 14
0.0
 24
0.0
 34
0.0
 15
0.0
 25
0.0
 35
0.0
146
0.0
 13
0.0
 23
0.0
 33
0.0
 16
1.0
 26
0.0
 36
0.0
 17
0.0
 27
1.0
 37
0.0
 76
0
330
211
345
0
346
0
  0
LAYOUT
  5
692
102
{ACAD_REACTORS
330
1A
102
}
100
AcDbPlotSettings
  1

  2
none_device
  4
ISO_A4_(297.00_x_210.00_MM)
  6

 40
0.0
 41
0.0
 42
0.0
 43
0.0
 44
297.0
 45
210.0
 46
0.0
 47
0.0
 48
0.0
 49
0.0
140
0.0
141
0.0
142
1.0
143
1.0
 70
0
 72
1
 73
0
 74
0
  7

 75
0
147
1.0
148
0.0
149
0.0
100
AcDbLayout
  1
Layout1
 70
0
 71
1
 10
0.0
 20
0.0
 11
297.0
 21
210.0
 12
0.0
 22
0.0
 32
0.0
 14
0.0
 24
0.0
 34
0.0
 15
0.0
 25
0.0
 35
0.0
146
0.0
 13
0.0
 23
0.0
 33
0.0
 16
1.0
 26
0.0
 36
0.0
 17
0.0
 27
1.0
 37
0.0
 76
0
330
212
345
0
346
0
  0
ENDSEC
  0
EOF
