  0
SECTION
  2
HEADER
  9
$ACADVER
  1
AC1021
  9
$DWGCODEPAGE
  3
ANSI_1252
  9
$EXTMAX
 10
297.0
 20
210.0
 30
0.0
  9
$EXTMIN
 10
0.0
 20
0.0
 30
0.0
  9
$LIMMIN
 10
0.0
 20
0.0
  9
$LIMMAX
 10
297.0
 20
210.0
  9
$VIEWCTR
 10
148.5
 20
105.0
  9
$VIEWSIZE
 40
210.0
  9
$CLAYER
  8
0
  9
$LTSCALE
 40
16.335
  9
$CELTYPE
  6
BYLAYER
  9
$DIMSCALE
 40
1.0
  9
$DIMASZ
 40
3.0
  9
$DIMEXO
 40
0.5
  9
$DIMDLI
 40
11.286
  9
$DIMEXE
 40
1.5
  9
$DIMCEN
 40
2.673
  9
$DIMLFAC
 40
1.0
  9
$DIMBLK
  1
_FILLED
  9
$DIMALT
 70
0
  9
$DIMALTF
 40
25.4
  9
$DIMTXT
 40
3.0
  9
$DIMTOL
 70
1
  9
$DIMLIM
 70
0
  9
$DIMTFAC
 40
1.0
  9
$DIMTP
 40
0.01
  9
$DIMTM
 40
0.01
  9
$DIMGAP
 40
0.625
  9
$DIMDSEP
 70
44
  9
$AUNITS
 70
0
  9
$PDMODE
 70
3
  9
$PDSIZE
 40
3.0
  9
$HANDSEED
  5
429
  9
$TILEMODE
 70
1
  9
$MEASUREMENT
 70
1
  9
$INSUNITS
 70
4
  0
ENDSEC
  0
SECTION
  2
CLASSES
  0
CLASS
  1
ACDBDICTIONARYWDFLT
  2
AcDbDictionaryWithDefault
  3
AutoCAD 2000
 90
0
 91
1
280
0
281
0
  0
CLASS
  1
ACDBPLACEHOLDER
  2
AcDbPlaceHolder
  3
AutoCAD 2000
 90
0
 91
1
280
0
281
0
  0
CLASS
  1
LAYOUT
  2
AcDbLayout
  3
AutoCAD 2000
 90
0
 91
0
280
0
281
0
  0
ENDSEC
  0
SECTION
  2
TABLES
  0
TABLE
  2
VPORT
  5
8
100
AcDbSymbolTable
 70
2
  0
VPORT
  5
1F4
100
AcDbSymbolTableRecord
100
AcDbViewportTableRecord
  2
*ACTIVE
 70
0
 10
0.0
 20
0.0
 11
1.0
 21
1.0
 12
148.5
 22
105.0
 13
0.0
 23
0.0
 14
1.0
 24
1.0
 15
0.0
 25
0.0
 16
0.0
 26
0.0
 36
1.0
 17
0.0
 27
0.0
 37
0.0
 40
210.0
 41
1.4142857143
 42
50.0
 43
0.0
 44
0.0
 50
0.0
 51
0.0
 71
0
 72
100
 73
1
 74
1
 75
0
 76
0
 77
0
 78
0
  0
ENDTAB
  0
TABLE
  2
LTYPE
  5
5
100
AcDbSymbolTable
 70
6
  0
LTYPE
  5
14
100
AcDbSymbolTableRecord
100
AcDbLinetypeTableRecord
  2
BYBLOCK
 70
0
  3

 72
65
 73
0
 40
0.0
  0
LTYPE
  5
15
100
AcDbSymbolTableRecord
100
AcDbLinetypeTableRecord
  2
BYLAYER
 70
0
  3

 72
65
 73
0
 40
0.0
  0
LTYPE
  5
16
100
AcDbSymbolTableRecord
100
AcDbLinetypeTableRecord
  2
CONTINUOUS
 70
64
  3
Solid line
 72
65
 73
0
 40
0.0
  0
LTYPE
  5
1F5
100
AcDbSymbolTableRecord
100
AcDbLinetypeTableRecord
  2
CENTER
 70
64
  3
____ _ ____ _ ____ _ ____ _ ____ _ ____ _ ____
 72
65
 73
4
 40
0.6
 49
0.375
 74
0
 49
-0.075
 74
0
 49
0.075
 74
0
 49
-0.075
 74
0
  0
LTYPE
  5
1F6
100
AcDbSymbolTableRecord
100
AcDbLinetypeTableRecord
  2
HIDDEN
 70
64
  3
- - - - - - - - - - - - - - - - - - - -
 72
65
 73
2
 40
0.2
 49
0.1
 74
0
 49
-0.1
 74
0
  0
LTYPE
  5
1F7
100
AcDbSymbolTableRecord
100
AcDbLinetypeTableRecord
  2
PHANTOM
 70
64
  3
_____ _ _ _____ _ _ _____ _ _ _____
 72
65
 73
6
 40
0.8
 49
0.45
 74
0
 49
-0.05
 74
0
 49
0.1
 74
0
 49
-0.05
 74
0
 49
0.1
 74
0
 49
-0.05
 74
0
  0
LTYPE
  5
1F8
100
AcDbSymbolTableRecord
100
AcDbLinetypeTableRecord
  2
DOT
 70
64
  3
. . . . . . . . . . . . . . . . . . . .
 72
65
 73
2
 40
0.2
 49
0.1
 74
0
 49
-0.1
 74
0
  0
LTYPE
  5
1F9
100
AcDbSymbolTableRecord
100
AcDbLinetypeTableRecord
  2
DASHED
 70
64
  3
- - - - - - - - - - - - - - - - - - - -
 72
65
 73
2
 40
0.2
 49
0.1
 74
0
 49
-0.1
 74
0
  0
ENDTAB
  0
TABLE
  2
LAYER
  5
2
100
AcDbSymbolTable
 70
36
  0
LAYER
  5
10
100
AcDbSymbolTableRecord
100
AcDbLayerTableRecord
  2
0
 70
0
 62
7
  6
CONTINUOUS
370
-3
390
F
  0
LAYER
  5
1FA
100
AcDbSymbolTableRecord
100
AcDbLayerTableRecord
  2
DEFAULT_1
 70
0
 62
7
  6
CENTER
370
-3
390
F
  0
LAYER
  5
1FB
100
AcDbSymbolTableRecord
100
AcDbLayerTableRecord
  2
DEFAULT_2
 70
0
 62
7
  6
HIDDEN
370
-3
390
F
  0
LAYER
  5
1FC
100
AcDbSymbolTableRecord
100
AcDbLayerTableRecord
  2
DEFAULT_3
 70
0
 62
7
  6
PHANTOM
370
-3
390
F
  0
LAYER
  5
1FD
100
AcDbSymbolTableRecord
100
AcDbLayerTableRecord
  2
ASSI
 70
0
 62
7
  6
CONTINUOUS
370
-3
390
F
  0
LAYER
  5
1FE
100
AcDbSymbolTableRecord
100
AcDbLayerTableRecord
  2
COORDINATE
 70
0
 62
7
  6
CONTINUOUS
370
-3
390
F
  0
LAYER
  5
1FF
100
AcDbSymbolTableRecord
100
AcDbLayerTableRecord
  2
COORD_ORIGINE
 70
0
 62
7
  6
CONTINUOUS
370
-3
390
F
  0
LAYER
  5
200
100
AcDbSymbolTableRecord
100
AcDbLayerTableRecord
  2
COPY_PUBLISH
 70
0
 62
7
  6
CONTINUOUS
370
-3
390
F
  0
LAYER
  5
201
100
AcDbSymbolTableRecord
100
AcDbLayerTableRecord
  2
COSMETICI
 70
0
 62
7
  6
CONTINUOUS
370
-3
390
F
  0
LAYER
  5
202
100
AcDbSymbolTableRecord
100
AcDbLayerTableRecord
  2
CURVE
 70
0
 62
7
  6
CONTINUOUS
370
-3
390
F
  0
LAYER
  5
203
100
AcDbSymbolTableRecord
100
AcDbLayerTableRecord
  2
DRAFT
 70
0
 62
7
  6
CONTINUOUS
370
-3
390
F
  0
LAYER
  5
204
100
AcDbSymbolTableRecord
100
AcDbLayerTableRecord
  2
IMPORT
 70
0
 62
7
  6
CONTINUOUS
370
-3
390
F
  0
LAYER
  5
205
100
AcDbSymbolTableRecord
100
AcDbLayerTableRecord
  2
IMPORT_IGES
 70
0
 62
7
  6
CONTINUOUS
370
-3
390
F
  0
LAYER
  5
206
100
AcDbSymbolTableRecord
100
AcDbLayerTableRecord
  2
NOTE
 70
0
 62
7
  6
CONTINUOUS
370
-3
390
F
  0
LAYER
  5
207
100
AcDbSymbolTableRecord
100
AcDbLayerTableRecord
  2
PIANI
 70
0
 62
7
  6
CONTINUOUS
370
-3
390
F
  0
LAYER
  5
208
100
AcDbSymbolTableRecord
100
AcDbLayerTableRecord
  2
PIANI_ORIGINE
 70
0
 62
7
  6
CONTINUOUS
370
-3
390
F
  0
LAYER
  5
209
100
AcDbSymbolTableRecord
100
AcDbLayerTableRecord
  2
PUNTI
 70
0
 62
7
  6
CONTINUOUS
370
-3
390
F
  0
LAYER
  5
20A
100
AcDbSymbolTableRecord
100
AcDbLayerTableRecord
  2
RACCORDO
 70
0
 62
7
  6
CONTINUOUS
370
-3
390
F
  0
LAYER
  5
20B
100
AcDbSymbolTableRecord
100
AcDbLayerTableRecord
  2
SIMBOLI
 70
0
 62
7
  6
CONTINUOUS
370
-3
390
F
  0
LAYER
  5
20C
100
AcDbSymbolTableRecord
100
AcDbLayerTableRecord
  2
SMUSSO
 70
0
 62
7
  6
CONTINUOUS
370
-3
390
F
  0
LAYER
  5
20D
100
AcDbSymbolTableRecord
100
AcDbLayerTableRecord
  2
SNAPLINE
 70
0
 62
7
  6
CONTINUOUS
370
-3
390
F
  0
LAYER
  5
20E
100
AcDbSymbolTableRecord
100
AcDbLayerTableRecord
  2
SUPERFICI
 70
0
 62
7
  6
CONTINUOUS
370
-3
390
F
  0
LAYER
  5
20F
100
AcDbSymbolTableRecord
100
AcDbLayerTableRecord
  2
TRASH
 70
0
 62
7
  6
CONTINUOUS
370
-3
390
F
  0
LAYER
  5
210
100
AcDbSymbolTableRecord
100
AcDbLayerTableRecord
  2
XSEC_DATUMS
 70
0
 62
7
  6
CONTINUOUS
370
-3
390
F
  0
ENDTAB
  0
TABLE
  2
STYLE
  5
3
100
AcDbSymbolTable
 70
1
  0
STYLE
  5
11
100
AcDbSymbolTableRecord
100
AcDbTextStyleTableRecord
  2
STANDARD
 70
0
 40
0.0
 41
0.8
 50
0.0
 71
0
 42
0.2
  3
txt
  4

  0
STYLE
  5
211
100
AcDbSymbolTableRecord
100
AcDbTextStyleTableRecord
  2
TEXTSTYLE_1
 70
0
 40
0.0
 41
0.8
 50
0.0
 71
0
 42
0.2
  3
gdt
  4

  0
ENDTAB
  0
TABLE
  2
VIEW
  5
6
100
AcDbSymbolTable
 70
0
  0
ENDTAB
  0
TABLE
  2
UCS
  5
7
100
AcDbSymbolTable
 70
0
  0
ENDTAB
  0
TABLE
  2
APPID
  5
9
100
AcDbSymbolTable
 70
1
  0
APPID
  5
212
100
AcDbSymbolTableRecord
100
AcDbRegAppTableRecord
  2
ACAD
 70
0
  0
ENDTAB
  0
TABLE
  2
BLOCK_RECORD
  5
1
100
AcDbSymbolTable
 70
0
  0
BLOCK_RECORD
  5
213
100
AcDbSymbolTableRecord
100
AcDbBlockTableRecord
  2
*Model_Space
  0
BLOCK_RECORD
  5
214
100
AcDbSymbolTableRecord
100
AcDbBlockTableRecord
  2
*Paper_Space
  0
BLOCK_RECORD
  5
215
100
AcDbSymbolTableRecord
100
AcDbBlockTableRecord
  2
_FILLED
  0
BLOCK_RECORD
  5
216
100
AcDbSymbolTableRecord
100
AcDbBlockTableRecord
  2
*D0
  0
BLOCK_RECORD
  5
217
100
AcDbSymbolTableRecord
100
AcDbBlockTableRecord
  2
*D1
  0
BLOCK_RECORD
  5
218
100
AcDbSymbolTableRecord
100
AcDbBlockTableRecord
  2
*D2
  0
BLOCK_RECORD
  5
219
100
AcDbSymbolTableRecord
100
AcDbBlockTableRecord
  2
*D3
  0
BLOCK_RECORD
  5
21A
100
AcDbSymbolTableRecord
100
AcDbBlockTableRecord
  2
*D4
  0
ENDTAB
  0
TABLE
  2
DIMSTYLE
  5
A
100
AcDbSymbolTable
 70
1
100
AcDbDimStyleTable
 71
0
  0
DIMSTYLE
105
21B
100
AcDbSymbolTableRecord
100
AcDbDimStyleTableRecord
  2
STANDARD
 70
0
  3

  4

 40
1.0
 41
3.0
 42
0.5
 43
0.38
 44
1.5
 45
0.0
 46
0.0
 47
0.01
 48
0.01
140
3.0
141
0.09
142
0.0
143
25.4
144
1.0
145
0.0
146
1.0
147
0.625
 71
1.0
 72
0.0
 73
0
 74
0
 75
0
 76
0
 77
1
 78
8
170
0
171
1
172
0
173
0
174
0
175
0
176
0
177
0
178
0
270
2
271
2
272
2
273
2
274
2
275
0
280
0
281
0
282
0
283
1
284
8
285
0
286
0
287
3
288
0
340
11
278
44
341
215
342
215
343
215
344
215
  0
DIMSTYLE
105
21C
100
AcDbSymbolTableRecord
100
AcDbDimStyleTableRecord
  2
DIMSTYLE_1
 70
0
  3

  4

 40
1.0
 41
3.0
 42
0.5
 43
0.38
 44
1.5
 45
0.0
 46
0.0
 47
0.0
 48
0.0
140
3.0
141
0.09
142
0.0
143
25.4
144
1.0
145
0.0
146
1.0
147
0.75
 71
0.0
 72
0.0
 73
0
 74
0
 75
0
 76
0
 77
1
 78
8
170
0
171
1
172
0
173
0
174
0
175
0
176
0
177
0
178
0
270
2
271
2
272
2
273
2
274
2
275
0
280
0
281
0
282
0
283
1
284
8
285
0
286
0
287
3
288
0
340
11
278
44
341
215
342
215
343
215
344
215
  0
ENDTAB
  0
ENDSEC
  0
SECTION
  2
BLOCKS
  0
BLOCK
  5
20
100
AcDbEntity
  8
0
100
AcDbBlockBegin
  2
*Model_Space
 70
0
 10
0.0
 20
0.0
 30
0.0
  3
*Model_Space
  1

  0
ENDBLK
  5
21
100
AcDbEntity
  8
0
100
AcDbBlockEnd
  0
BLOCK
  5
1C
100
AcDbEntity
  8
0
100
AcDbBlockBegin
  2
*Paper_Space
 70
0
 10
0.0
 20
0.0
 30
0.0
  3
*Paper_Space
  1

  0
ENDBLK
  5
1D
100
AcDbEntity
  8
0
100
AcDbBlockEnd
  0
BLOCK
  5
21D
100
AcDbEntity
  8
0
100
AcDbBlockBegin
  2
_FILLED
 70
64
 10
0.0
 20
0.0
  3
_FILLED
  1

  0
SOLID
  5
21E
100
AcDbEntity
  8
0
  6
BYBLOCK
 62
0
100
AcDbTrace
 10
0.0
 20
0.0
 11
-1.0
 21
0.3166666667
 12
-1.0
 22
-0.3166666667
 13
-1.0
 23
-0.3166666667
  0
ENDBLK
  5
21F
100
AcDbEntity
  8
0
  6
BYBLOCK
 62
0
100
AcDbBlockEnd
  0
BLOCK
  5
220
100
AcDbEntity
  8
0
100
AcDbBlockBegin
 62
7
  6
CONTINUOUS
  2
*D0
 70
65
 10
0.0
 20
0.0
  3
*D0
  1

  0
MTEXT
  5
221
100
AcDbEntity
  8
0
100
AcDbMText
 62
7
  6
CONTINUOUS
  7
STANDARD
 71
2
 72
1
 10
0.1664450321
 20
63.8885471681
 30
0.0
 11
1.0
 21
0.0
 31
0.0
 44
0.9
  1
100
 40
3.0
 41
9.6428571429
  0
LINE
  5
222
100
AcDbEntity
  8
0
100
AcDbLine
 62
7
  6
CONTINUOUS
 10
-49.8335549679
 20
47.6385471681
 11
-49.8335549679
 21
61.6385471681
  0
LINE
  5
223
100
AcDbEntity
  8
0
100
AcDbLine
 62
7
  6
CONTINUOUS
 10
50.1664450321
 20
47.6385471681
 11
50.1664450321
 21
61.6385471681
  0
LINE
  5
224
100
AcDbEntity
  8
0
100
AcDbLine
 62
7
  6
CONTINUOUS
 10
-49.8335549679
 20
60.1385471681
 11
0.1664450321
 21
60.1385471681
  0
LINE
  5
225
100
AcDbEntity
  8
0
100
AcDbLine
 62
7
  6
CONTINUOUS
 10
50.1664450321
 20
60.1385471681
 11
0.1664450321
 21
60.1385471681
  0
INSERT
  5
226
100
AcDbEntity
  8
0
100
AcDbBlockReference
 62
7
  6
CONTINUOUS
  2
_FILLED
 10
-49.8335549679
 20
60.1385471681
 41
3.0
 42
3.0
 43
3.0
 50
180.0
  0
INSERT
  5
227
100
AcDbEntity
  8
0
100
AcDbBlockReference
 62
7
  6
CONTINUOUS
  2
_FILLED
 10
50.1664450321
 20
60.1385471681
 41
3.0
 42
3.0
 43
3.0
  0
ENDBLK
  5
228
100
AcDbEntity
  8
0
  6
BYBLOCK
 62
0
100
AcDbBlockEnd
  0
BLOCK
  5
229
100
AcDbEntity
  8
0
100
AcDbBlockBegin
 62
7
  6
CONTINUOUS
  2
*D1
 70
65
 10
0.0
 20
0.0
  3
*D1
  1

  0
MTEXT
  5
22A
100
AcDbEntity
  8
0
100
AcDbMText
 62
7
  6
CONTINUOUS
  7
STANDARD
 71
2
 72
1
 10
56.4164450321
 20
0.1385471681
 30
0.0
 11
0.0
 21
1.0
 31
0.0
 44
0.9
  1
100
 40
3.0
 41
9.6428571429
  0
LINE
  5
22B
100
AcDbEntity
  8
0
100
AcDbLine
 62
7
  6
CONTINUOUS
 10
47.6664450321
 20
50.1385471681
 11
61.6664450321
 21
50.1385471681
  0
LINE
  5
22C
100
AcDbEntity
  8
0
100
AcDbLine
 62
7
  6
CONTINUOUS
 10
50.6664450321
 20
-49.8614528319
 11
61.6664450321
 21
-49.8614528319
  0
LINE
  5
22D
100
AcDbEntity
  8
0
100
AcDbLine
 62
7
  6
CONTINUOUS
 10
60.1664450321
 20
50.1385471681
 11
60.1664450321
 21
0.1385471681
  0
LINE
  5
22E
100
AcDbEntity
  8
0
100
AcDbLine
 62
7
  6
CONTINUOUS
 10
60.1664450321
 20
-49.8614528319
 11
60.1664450321
 21
0.1385471681
  0
INSERT
  5
22F
100
AcDbEntity
  8
0
100
AcDbBlockReference
 62
7
  6
CONTINUOUS
  2
_FILLED
 10
60.1664450321
 20
50.1385471681
 41
3.0
 42
3.0
 43
3.0
 50
90.0
  0
INSERT
  5
230
100
AcDbEntity
  8
0
100
AcDbBlockReference
 62
7
  6
CONTINUOUS
  2
_FILLED
 10
60.1664450321
 20
-49.8614528319
 41
3.0
 42
3.0
 43
3.0
 50
270.0
  0
ENDBLK
  5
231
100
AcDbEntity
  8
0
  6
BYBLOCK
 62
0
100
AcDbBlockEnd
  0
BLOCK
  5
232
100
AcDbEntity
  8
0
100
AcDbBlockBegin
 62
7
  6
CONTINUOUS
  2
*D2
 70
65
 10
0.0
 20
0.0
  3
*D2
  1

  0
MTEXT
  5
233
100
AcDbEntity
  8
0
100
AcDbMText
 62
7
  6
CONTINUOUS
  7
STANDARD
 71
2
 72
1
 10
-97.6178796554
 20
73.8885471681
 30
0.0
 11
1.0
 21
0.0
 31
0.0
 44
0.9
  1
57
 40
3.0
 41
6.75
  0
LINE
  5
234
100
AcDbEntity
  8
0
100
AcDbLine
 62
7
  6
CONTINUOUS
 10
-126.1178796554
 20
-32.3614528319
 11
-126.1178796554
 21
71.6385471681
  0
LINE
  5
235
100
AcDbEntity
  8
0
100
AcDbLine
 62
7
  6
CONTINUOUS
 10
-69.1178796554
 20
32.6211315094
 11
-69.1178796554
 21
71.6385471681
  0
LINE
  5
236
100
AcDbEntity
  8
0
100
AcDbLine
 62
7
  6
CONTINUOUS
 10
-126.1178796554
 20
70.1385471681
 11
-97.6178796554
 21
70.1385471681
  0
LINE
  5
237
100
AcDbEntity
  8
0
100
AcDbLine
 62
7
  6
CONTINUOUS
 10
-69.1178796554
 20
70.1385471681
 11
-97.6178796554
 21
70.1385471681
  0
INSERT
  5
238
100
AcDbEntity
  8
0
100
AcDbBlockReference
 62
7
  6
CONTINUOUS
  2
_FILLED
 10
-126.1178796554
 20
70.1385471681
 41
3.0
 42
3.0
 43
3.0
 50
180.0
  0
INSERT
  5
239
100
AcDbEntity
  8
0
100
AcDbBlockReference
 62
7
  6
CONTINUOUS
  2
_FILLED
 10
-69.1178796554
 20
70.1385471681
 41
3.0
 42
3.0
 43
3.0
 50
360.0
  0
ENDBLK
  5
23A
100
AcDbEntity
  8
0
  6
BYBLOCK
 62
0
100
AcDbBlockEnd
  0
BLOCK
  5
23B
100
AcDbEntity
  8
0
100
AcDbBlockBegin
 62
7
  6
CONTINUOUS
  2
*D3
 70
65
 10
0.0
 20
0.0
  3
*D3
  1

  0
MTEXT
  5
23C
100
AcDbEntity
  8
0
100
AcDbMText
 62
7
  6
CONTINUOUS
  7
STANDARD
 71
2
 72
1
 10
-95.1178796554
 20
83.8885471681
 30
0.0
 11
1.0
 21
0.0
 31
0.0
 44
0.9
  1
62
 40
3.0
 41
7.0714285714
  0
LINE
  5
23D
100
AcDbEntity
  8
0
100
AcDbLine
 62
7
  6
CONTINUOUS
 10
-126.1178796554
 20
-32.3614528319
 11
-126.1178796554
 21
81.6385471681
  0
LINE
  5
23E
100
AcDbEntity
  8
0
100
AcDbLine
 62
7
  6
CONTINUOUS
 10
-64.1178796554
 20
-18.9994920706
 11
-64.1178796554
 21
81.6385471681
  0
LINE
  5
23F
100
AcDbEntity
  8
0
100
AcDbLine
 62
7
  6
CONTINUOUS
 10
-126.1178796554
 20
80.1385471681
 11
-95.1178796554
 21
80.1385471681
  0
LINE
  5
240
100
AcDbEntity
  8
0
100
AcDbLine
 62
7
  6
CONTINUOUS
 10
-64.1178796554
 20
80.1385471681
 11
-95.1178796554
 21
80.1385471681
  0
INSERT
  5
241
100
AcDbEntity
  8
0
100
AcDbBlockReference
 62
7
  6
CONTINUOUS
  2
_FILLED
 10
-126.1178796554
 20
80.1385471681
 41
3.0
 42
3.0
 43
3.0
 50
180.0
  0
INSERT
  5
242
100
AcDbEntity
  8
0
100
AcDbBlockReference
 62
7
  6
CONTINUOUS
  2
_FILLED
 10
-64.1178796554
 20
80.1385471681
 41
3.0
 42
3.0
 43
3.0
 50
360.0
  0
ENDBLK
  5
243
100
AcDbEntity
  8
0
  6
BYBLOCK
 62
0
100
AcDbBlockEnd
  0
BLOCK
  5
244
100
AcDbEntity
  8
0
100
AcDbBlockBegin
 62
7
  6
CONTINUOUS
  2
*D4
 70
65
 10
0.0
 20
0.0
  3
*D4
  1

  0
MTEXT
  5
245
100
AcDbEntity
  8
0
100
AcDbMText
 62
7
  6
CONTINUOUS
  7
STANDARD
 71
2
 72
1
 10
-100.6178796554
 20
63.8885471681
 30
0.0
 11
1.0
 21
0.0
 31
0.0
 44
0.9
  1
45
 40
3.0
 41
6.75
  0
LINE
  5
246
100
AcDbEntity
  8
0
100
AcDbLine
 62
7
  6
CONTINUOUS
 10
-123.1178796554
 20
-32.3614528319
 11
-123.1178796554
 21
61.6385471681
  0
LINE
  5
247
100
AcDbEntity
  8
0
100
AcDbLine
 62
7
  6
CONTINUOUS
 10
-78.1178796554
 20
47.6385471681
 11
-78.1178796554
 21
61.6385471681
  0
LINE
  5
248
100
AcDbEntity
  8
0
100
AcDbLine
 62
7
  6
CONTINUOUS
 10
-123.1178796554
 20
60.1385471681
 11
-100.6178796554
 21
60.1385471681
  0
LINE
  5
249
100
AcDbEntity
  8
0
100
AcDbLine
 62
7
  6
CONTINUOUS
 10
-78.1178796554
 20
60.1385471681
 11
-100.6178796554
 21
60.1385471681
  0
INSERT
  5
24A
100
AcDbEntity
  8
0
100
AcDbBlockReference
 62
7
  6
CONTINUOUS
  2
_FILLED
 10
-123.1178796554
 20
60.1385471681
 41
3.0
 42
3.0
 43
3.0
 50
180.0
  0
INSERT
  5
24B
100
AcDbEntity
  8
0
100
AcDbBlockReference
 62
7
  6
CONTINUOUS
  2
_FILLED
 10
-78.1178796554
 20
60.1385471681
 41
3.0
 42
3.0
 43
3.0
  0
ENDBLK
  5
24C
100
AcDbEntity
  8
0
  6
BYBLOCK
 62
0
100
AcDbBlockEnd
  0
ENDSEC
  0
SECTION
  2
ENTITIES
  0
DIMENSION
  5
24D
100
AcDbEntity
  8
0
100
AcDbDimension
 62
7
  6
CONTINUOUS
  2
*D0
 10
50.1664450321
 20
60.1385471681
 11
-0.2621263433
 21
60.1385471681
 70
160
 71
2
 42
100.0
  3
DIMSTYLE_1
100
AcDbAlignedDimension
 13
-49.8335549679
 23
47.1385471681
 14
50.1664450321
 24
47.1385471681
100
AcDbRotatedDimension
  0
DIMENSION
  5
24E
100
AcDbEntity
  8
0
100
AcDbDimension
 62
7
  6
CONTINUOUS
  2
*D1
 10
60.1664450321
 20
-49.8614528319
 11
60.1664450321
 21
-0.2900232923
 70
160
 71
2
 42
100.0
  3
DIMSTYLE_1
100
AcDbAlignedDimension
 13
47.1664450321
 23
50.1385471681
 14
50.1664450321
 24
-49.8614528319
 50
270.0
100
AcDbRotatedDimension
  0
DIMENSION
  5
24F
100
AcDbEntity
  8
0
100
AcDbDimension
 62
7
  6
CONTINUOUS
  2
*D2
 10
-69.1178796554
 20
70.1385471681
 11
-98.0464497528
 21
70.1385471681
 70
160
 71
2
 42
57.0
  3
DIMSTYLE_1
100
AcDbAlignedDimension
 13
-126.1178796554
 23
-32.8614528319
 14
-69.1178796554
 24
32.1211315094
 50
360.0
100
AcDbRotatedDimension
  0
DIMENSION
  5
250
100
AcDbEntity
  8
0
100
AcDbDimension
 62
7
  6
CONTINUOUS
  2
*D3
 10
-64.1178796554
 20
80.1385471681
 11
-95.5464535217
 21
80.1385471681
 70
160
 71
2
 42
62.0
  3
DIMSTYLE_1
100
AcDbAlignedDimension
 13
-126.1178796554
 23
-32.8614528319
 14
-64.1178796554
 24
-19.4994920706
 50
360.0
100
AcDbRotatedDimension
  0
DIMENSION
  5
251
100
AcDbEntity
  8
0
100
AcDbDimension
 62
7
  6
CONTINUOUS
  2
*D4
 10
-78.1178796554
 20
60.1385471681
 11
-101.0464506683
 21
60.1385471681
 70
160
 71
2
 42
45.0
  3
DIMSTYLE_1
100
AcDbAlignedDimension
 13
-123.1178796554
 23
-32.8614528319
 14
-78.1178796554
 24
47.1385471681
100
AcDbRotatedDimension
  0
LINE
  5
252
100
AcDbEntity
  8
0
100
AcDbLine
 62
7
  6
CONTINUOUS
 10
-49.8335549679
 20
-32.8614528319
 11
-49.8335549679
 21
-49.8614528319
  0
LINE
  5
253
100
AcDbEntity
  8
0
100
AcDbLine
 62
7
  6
CONTINUOUS
 10
-49.8335549679
 20
-32.8614528319
 11
-49.8335549679
 21
47.1385471681
  0
LINE
  5
254
100
AcDbEntity
  8
0
100
AcDbLine
 62
7
  6
CONTINUOUS
 10
-46.8335549679
 20
-13.3614528319
 11
-46.8335549679
 21
13.6385471681
  0
LWPOLYLINE
  5
255
100
AcDbEntity
  8
0
100
AcDbPolyline
 62
7
  6
CONTINUOUS
 90
25
 70
0
 10
14.1664450321
 20
-46.7661903416
 10
14.245107688
 20
-46.7655277548
 10
14.3217534013
 20
-46.7638170672
 10
14.3963821722
 20
-46.7610310632
 10
14.4694843326
 20
-46.7570456981
 10
14.5405695505
 20
-46.7518771839
 10
14.6081668301
 20
-46.7457012279
 10
14.6719884549
 20
-46.7384323885
 10
14.7323221414
 20
-46.730005072
 10
14.7885600432
 20
-46.720657679
 10
14.8405026164
 20
-46.7103447672
 10
14.888349405
 20
-46.6989829436
 10
14.9320911947
 20
-46.6868086919
 10
14.971623609
 20
-46.6738093053
 10
15.0070510244
 20
-46.6599168137
 10
15.0386773565
 20
-46.6453385663
 10
15.0664726879
 20
-46.6301017901
 10
15.0904669359
 20
-46.6141461343
 10
15.1110537681
 20
-46.5975840468
 10
15.1282666782
 20
-46.580430518
 10
15.1420721723
 20
-46.5626602036
 10
15.1527634363
 20
-46.5443435463
 10
15.1604381985
 20
-46.5255075066
 10
15.1649987304
 20
-46.5061285041
 10
15.1664450321
 20
-46.4862077182
  0
LINE
  5
256
100
AcDbEntity
  8
0
100
AcDbLine
 62
7
  6
CONTINUOUS
 10
-49.8335549679
 20
-49.8614528319
 11
50.1664450321
 21
-49.8614528319
  0
LINE
  5
257
100
AcDbEntity
  8
0
100
AcDbLine
 62
7
  6
CONTINUOUS
 10
-13.8335549679
 20
-49.6709278512
 11
14.1664450321
 21
-49.6709278512
  0
LINE
  5
258
100
AcDbEntity
  8
0
100
AcDbLine
 62
7
  6
CONTINUOUS
 10
-13.8335549679
 20
-46.7661903416
 11
14.1664450321
 21
-46.7661903416
  0
LWPOLYLINE
  5
259
100
AcDbEntity
  8
0
100
AcDbPolyline
 62
7
  6
CONTINUOUS
 90
28
 70
0
 10
-13.8335549679
 20
-49.6709278512
 10
-13.8801722213
 20
-49.6705456671
 10
-13.9269600378
 20
-49.6692840566
 10
-13.9739184174
 20
-49.6671344812
 10
-14.0210956982
 20
-49.6641152117
 10
-14.068443542
 20
-49.660173736
 10
-14.1158169345
 20
-49.6551835626
 10
-14.1632805187
 20
-49.6491137404
 10
-14.2107696516
 20
-49.6419156703
 10
-14.2579453893
 20
-49.6334168147
 10
-14.3048694537
 20
-49.6235422312
 10
-14.351480123
 20
-49.6122268917
 10
-14.3972532875
 20
-49.5992874559
 10
-14.4422645014
 20
-49.5846104901
 10
-14.4864382106
 20
-49.5680993548
 10
-14.5290236424
 20
-49.5495690741
 10
-14.5700227056
 20
-49.5288768568
 10
-14.6094334914
 20
-49.5058841069
 10
-14.6464995015
 20
-49.4803869921
 10
-14.6812925408
 20
-49.4522377652
 10
-14.7137408044
 20
-49.4212350314
 10
-14.7428723796
 20
-49.387062481
 10
-14.768826724
 20
-49.3492044793
 10
-14.7914643799
 20
-49.3077180777
 10
-14.8093950609
 20
-49.2632064223
 10
-14.8221553382
 20
-49.2158107408
 10
-14.8302086405
 20
-49.1651130577
 10
-14.8335549679
 20
-49.1109626044
  0
LINE
  5
25A
100
AcDbEntity
  8
0
100
AcDbLine
 62
7
  6
CONTINUOUS
 10
-43.8335549679
 20
13.6385471681
 11
-43.8335549679
 21
-13.3614528319
  0
LINE
  5
25B
100
AcDbEntity
  8
0
100
AcDbLine
 62
253
  6
CONTINUOUS
 10
-4.8335549679
 20
-43.8614528319
 11
-49.8335549679
 21
-43.8614528319
  0
LINE
  5
25C
100
AcDbEntity
  8
0
100
AcDbLine
 62
253
  6
CONTINUOUS
 10
5.1664450321
 20
-43.8614528319
 11
50.1664450321
 21
-43.8614528319
  0
LINE
  5
25D
100
AcDbEntity
  8
0
100
AcDbLine
 62
7
  6
CONTINUOUS
 10
-13.8335549679
 20
-41.8614528319
 11
14.1664450321
 21
-41.8614528319
  0
LWPOLYLINE
  5
25E
100
AcDbEntity
  8
0
100
AcDbPolyline
 62
7
  6
CONTINUOUS
 90
11
 70
0
 10
-4.6985980734
 20
-46.7661903416
 10
-4.7057872923
 20
-46.7639621266
 10
-4.7335826237
 20
-46.7535329374
 10
-4.7575768718
 20
-46.742428801
 10
-4.7781637039
 20
-46.7307227674
 10
-4.795376614
 20
-46.7184226923
 10
-4.8091821082
 20
-46.7055077311
 10
-4.8198733721
 20
-46.6920272074
 10
-4.8275481343
 20
-46.6780004793
 10
-4.8321086662
 20
-46.6634095161
 10
-4.8335549679
 20
-46.6482544284
  0
LINE
  5
25F
100
AcDbEntity
  8
DRAFT
100
AcDbLine
 62
7
  6
CONTINUOUS
 10
-18.0501360167
 20
25.6219661193
 11
-18.0335549679
 21
25.6385471681
  0
LINE
  5
260
100
AcDbEntity
  8
RACCORDO
100
AcDbLine
 62
253
  6
CONTINUOUS
 10
-18.8335930448
 20
23.6385471681
 11
-18.8161393093
 21
23.6560009037
  0
LINE
  5
261
100
AcDbEntity
  8
DRAFT
100
AcDbLine
 62
7
  6
CONTINUOUS
 10
-17.8161012323
 20
23.6560009037
 11
-17.8335549679
 21
23.6385471681
  0
LINE
  5
262
100
AcDbEntity
  8
0
100
AcDbLine
 62
7
  6
CONTINUOUS
 10
47.1664450321
 20
-29.8614528319
 11
-46.8335549679
 21
-29.8614528319
  0
LINE
  5
263
100
AcDbEntity
  8
DRAFT
100
AcDbLine
 62
7
  6
CONTINUOUS
 10
-3.8335549679
 20
-27.8614528319
 11
-1.8335549679
 21
-27.8614528319
  0
LINE
  5
264
100
AcDbEntity
  8
DRAFT
100
AcDbLine
 62
7
  6
CONTINUOUS
 10
4.1664450321
 20
-27.8614528319
 11
2.1664450321
 21
-27.8614528319
  0
LINE
  5
265
100
AcDbEntity
  8
DRAFT
100
AcDbLine
 62
7
  6
CONTINUOUS
 10
4.1488376391
 20
-27.8438454389
 11
2.1840524251
 21
-27.8438454389
  0
LINE
  5
266
100
AcDbEntity
  8
DRAFT
100
AcDbLine
 62
7
  6
CONTINUOUS
 10
-1.8511623609
 20
-27.8438454389
 11
-3.8159475749
 21
-27.8438454389
  0
LINE
  5
267
100
AcDbEntity
  8
DRAFT
100
AcDbLine
 62
7
  6
CONTINUOUS
 10
-18.0501360167
 20
-25.3448717831
 11
-18.0335549679
 21
-25.3614528319
  0
LINE
  5
268
100
AcDbEntity
  8
RACCORDO
100
AcDbLine
 62
253
  6
CONTINUOUS
 10
-18.8335930448
 20
-23.3614528319
 11
-18.8161393093
 21
-23.3789065675
  0
LINE
  5
269
100
AcDbEntity
  8
DRAFT
100
AcDbLine
 62
7
  6
CONTINUOUS
 10
-17.8161012323
 20
-23.3789065675
 11
-17.8335549679
 21
-23.3614528319
  0
LINE
  5
26A
100
AcDbEntity
  8
DRAFT
100
AcDbLine
 62
7
  6
CONTINUOUS
 10
-18.3335549679
 20
17.8721699878
 11
-18.33879836
 21
17.8669265957
  0
LINE
  5
26B
100
AcDbEntity
  8
DRAFT
100
AcDbLine
 62
7
  6
CONTINUOUS
 10
5.1664450321
 20
-25.8614528319
 11
4.1664450321
 21
-25.8614528319
  0
LINE
  5
26C
100
AcDbEntity
  8
DRAFT
100
AcDbLine
 62
7
  6
CONTINUOUS
 10
4.1315375609
 20
-25.8614528319
 11
2.2013525032
 21
-25.8614528319
  0
LINE
  5
26D
100
AcDbEntity
  8
DRAFT
100
AcDbLine
 62
7
  6
CONTINUOUS
 10
2.1664450321
 20
-25.8614528319
 11
-1.8335549679
 21
-25.8614528319
  0
LINE
  5
26E
100
AcDbEntity
  8
DRAFT
100
AcDbLine
 62
7
  6
CONTINUOUS
 10
-1.8684624391
 20
-25.8614528319
 11
-3.7986474968
 21
-25.8614528319
  0
LINE
  5
26F
100
AcDbEntity
  8
DRAFT
100
AcDbLine
 62
7
  6
CONTINUOUS
 10
-3.8335549679
 20
-25.8614528319
 11
-4.8335549679
 21
-25.8614528319
  0
LINE
  5
270
100
AcDbEntity
  8
DRAFT
100
AcDbLine
 62
7
  6
CONTINUOUS
 10
5.1664450321
 20
-25.8439990963
 11
4.1489912965
 21
-25.8439990963
  0
LINE
  5
271
100
AcDbEntity
  8
DRAFT
100
AcDbLine
 62
7
  6
CONTINUOUS
 10
2.1838987677
 20
-25.8439990963
 11
-1.8510087035
 21
-25.8439990963
  0
LINE
  5
272
100
AcDbEntity
  8
DRAFT
100
AcDbLine
 62
7
  6
CONTINUOUS
 10
-3.8161012323
 20
-25.8439990963
 11
-4.8335549679
 21
-25.8439990963
  0
LINE
  5
273
100
AcDbEntity
  8
DRAFT
100
AcDbLine
 62
7
  6
CONTINUOUS
 10
18.3664450321
 20
-25.3614528319
 11
15.5164450321
 21
-25.3614528319
  0
LINE
  5
274
100
AcDbEntity
  8
DRAFT
100
AcDbLine
 62
7
  6
CONTINUOUS
 10
-15.1835549679
 20
-25.3614528319
 11
-18.0335549679
 21
-25.3614528319
  0
LINE
  5
275
100
AcDbEntity
  8
DRAFT
100
AcDbLine
 62
7
  6
CONTINUOUS
 10
18.3830260809
 20
-25.3448717831
 11
15.5164450321
 21
-25.3448717831
  0
LINE
  5
276
100
AcDbEntity
  8
DRAFT
100
AcDbLine
 62
7
  6
CONTINUOUS
 10
-15.1835549679
 20
-25.3448717831
 11
-18.0501360167
 21
-25.3448717831
  0
LINE
  5
277
100
AcDbEntity
  8
DRAFT
100
AcDbLine
 62
7
  6
CONTINUOUS
 10
2.2013525032
 20
-24.0963603031
 11
4.1315375609
 21
-24.0963603031
  0
LINE
  5
278
100
AcDbEntity
  8
DRAFT
100
AcDbLine
 62
7
  6
CONTINUOUS
 10
-1.8684624391
 20
-24.0963603031
 11
-3.7986474968
 21
-24.0963603031
  0
LINE
  5
279
100
AcDbEntity
  8
DRAFT
100
AcDbLine
 62
7
  6
CONTINUOUS
 10
-1.8510087035
 20
-24.0789065675
 11
2.1838987677
 21
-24.0789065675
  0
LINE
  5
27A
100
AcDbEntity
  8
DRAFT
100
AcDbLine
 62
7
  6
CONTINUOUS
 10
-3.8161012323
 20
-24.0789065675
 11
-3.8510087035
 21
-24.0789065675
  0
LINE
  5
27B
100
AcDbEntity
  8
DRAFT
100
AcDbLine
 62
7
  6
CONTINUOUS
 10
4.1489912965
 20
-24.0789065675
 11
4.1838987677
 21
-24.0789065675
  0
LINE
  5
27C
100
AcDbEntity
  8
DRAFT
100
AcDbLine
 62
7
  6
CONTINUOUS
 10
-3.8335549679
 20
-24.0614528319
 11
-2.6901263393
 21
-24.0614528319
  0
LINE
  5
27D
100
AcDbEntity
  8
DRAFT
100
AcDbLine
 62
7
  6
CONTINUOUS
 10
3.0230164035
 20
-24.0614528319
 11
4.1664450321
 21
-24.0614528319
  0
LINE
  5
27E
100
AcDbEntity
  8
RACCORDO
100
AcDbLine
 62
7
  6
CONTINUOUS
 10
-18.8161393093
 20
-23.3789065675
 11
-17.8161012323
 21
-23.3789065675
  0
LINE
  5
27F
100
AcDbEntity
  8
RACCORDO
100
AcDbLine
 62
7
  6
CONTINUOUS
 10
-16.3510087035
 20
-23.3789065675
 11
-15.1835549679
 21
-23.3789065675
  0
LINE
  5
280
100
AcDbEntity
  8
RACCORDO
100
AcDbLine
 62
7
  6
CONTINUOUS
 10
15.5164450321
 20
-23.3789065675
 11
16.6838987677
 21
-23.3789065675
  0
LINE
  5
281
100
AcDbEntity
  8
RACCORDO
100
AcDbLine
 62
7
  6
CONTINUOUS
 10
18.1489912965
 20
-23.3789065675
 11
19.1490293734
 21
-23.3789065675
  0
LINE
  5
282
100
AcDbEntity
  8
RACCORDO
100
AcDbLine
 62
7
  6
CONTINUOUS
 10
-18.8335930448
 20
-23.3614528319
 11
-17.8335549679
 21
-23.3614528319
  0
LINE
  5
283
100
AcDbEntity
  8
RACCORDO
100
AcDbLine
 62
7
  6
CONTINUOUS
 10
-16.3335549679
 20
-23.3614528319
 11
-15.1835549679
 21
-23.3614528319
  0
LINE
  5
284
100
AcDbEntity
  8
RACCORDO
100
AcDbLine
 62
7
  6
CONTINUOUS
 10
15.5164450321
 20
-23.3614528319
 11
16.6664450321
 21
-23.3614528319
  0
LINE
  5
285
100
AcDbEntity
  8
RACCORDO
100
AcDbLine
 62
7
  6
CONTINUOUS
 10
18.1664450321
 20
-23.3614528319
 11
19.166483109
 21
-23.3614528319
  0
LWPOLYLINE
  5
286
100
AcDbEntity
  8
0
100
AcDbPolyline
 62
7
  6
CONTINUOUS
 90
25
 70
0
 10
-14.8335549679
 20
-46.4862077182
 10
-14.8321086662
 20
-46.5061285041
 10
-14.8275481343
 20
-46.5255075066
 10
-14.8198733721
 20
-46.5443435463
 10
-14.8091821082
 20
-46.5626602036
 10
-14.795376614
 20
-46.580430518
 10
-14.7781637039
 20
-46.5975840468
 10
-14.7575768718
 20
-46.6141461343
 10
-14.7335826237
 20
-46.6301017901
 10
-14.7057872923
 20
-46.6453385663
 10
-14.6741609603
 20
-46.6599168137
 10
-14.6387335448
 20
-46.6738093053
 10
-14.5992011305
 20
-46.6868086919
 10
-14.5554593408
 20
-46.6989829436
 10
-14.5076125522
 20
-46.7103447672
 10
-14.4556699791
 20
-46.720657679
 10
-14.3994320772
 20
-46.730005072
 10
-14.3390983907
 20
-46.7384323885
 10
-14.2752767659
 20
-46.7457012279
 10
-14.2076794863
 20
-46.7518771839
 10
-14.1365942684
 20
-46.7570456981
 10
-14.0634921081
 20
-46.7610310632
 10
-13.9888633372
 20
-46.7638170672
 10
-13.9122176238
 20
-46.7655277548
 10
-13.8335549679
 20
-46.7661903416
  0
LINE
  5
287
100
AcDbEntity
  8
0
100
AcDbLine
 62
7
  6
CONTINUOUS
 10
-20.6835549679
 20
-29.8614528319
 11
-20.6835549679
 21
36.1385471681
  0
LINE
  5
288
100
AcDbEntity
  8
0
100
AcDbLine
 62
7
  6
CONTINUOUS
 10
-18.9835549679
 20
-29.8614528319
 11
-18.9835549679
 21
36.1385471681
  0
LINE
  5
289
100
AcDbEntity
  8
DRAFT
100
AcDbLine
 62
7
  6
CONTINUOUS
 10
-18.3335549679
 20
17.8721699878
 11
-18.3335549679
 21
14.8385471681
  0
LINE
  5
28A
100
AcDbEntity
  8
RACCORDO
100
AcDbLine
 62
7
  6
CONTINUOUS
 10
-18.3230828967
 20
18.3800308951
 11
-18.3230828967
 21
14.3306862607
  0
LINE
  5
28B
100
AcDbEntity
  8
DRAFT
100
AcDbLine
 62
7
  6
CONTINUOUS
 10
-18.33879836
 20
17.8669265957
 11
-18.3423456548
 21
15.3385471681
  0
LINE
  5
28C
100
AcDbEntity
  8
DRAFT
100
AcDbLine
 62
7
  6
CONTINUOUS
 10
-1.8511623609
 20
-27.8438454389
 11
-1.8335549679
 21
-27.8614528319
  0
LINE
  5
28D
100
AcDbEntity
  8
DRAFT
100
AcDbLine
 62
7
  6
CONTINUOUS
 10
-3.8161012323
 20
-24.0789065675
 11
-3.7986474968
 21
-24.0963603031
  0
LINE
  5
28E
100
AcDbEntity
  8
DRAFT
100
AcDbLine
 62
7
  6
CONTINUOUS
 10
-1.8335549679
 20
-25.8614528319
 11
-1.8510087035
 21
-25.8439990963
  0
LINE
  5
28F
100
AcDbEntity
  8
DRAFT
100
AcDbLine
 62
7
  6
CONTINUOUS
 10
-18.0501360167
 20
30.3051282169
 11
-18.0501360167
 21
25.6219661193
  0
LINE
  5
290
100
AcDbEntity
  8
DRAFT
100
AcDbLine
 62
7
  6
CONTINUOUS
 10
-18.0501360167
 20
-25.3448717831
 11
-18.0501360167
 21
-29.8614528319
  0
LINE
  5
291
100
AcDbEntity
  8
DRAFT
100
AcDbLine
 62
7
  6
CONTINUOUS
 10
-18.0335549679
 20
30.2885471681
 11
-18.0335549679
 21
25.6385471681
  0
LINE
  5
292
100
AcDbEntity
  8
DRAFT
100
AcDbLine
 62
7
  6
CONTINUOUS
 10
-18.0335549679
 20
-25.3614528319
 11
-18.0335549679
 21
-29.8614528319
  0
LINE
  5
293
100
AcDbEntity
  8
DRAFT
100
AcDbLine
 62
7
  6
CONTINUOUS
 10
-17.8335549679
 20
-23.3614528319
 11
-17.8335549679
 21
-2.7661903416
  0
LINE
  5
294
100
AcDbEntity
  8
DRAFT
100
AcDbLine
 62
7
  6
CONTINUOUS
 10
-17.8335549679
 20
3.0432846777
 11
-17.8335549679
 21
23.6385471681
  0
LINE
  5
295
100
AcDbEntity
  8
DRAFT
100
AcDbLine
 62
7
  6
CONTINUOUS
 10
-17.8161012323
 20
-23.3789065675
 11
-17.8161012323
 21
-2.7526391265
  0
LINE
  5
296
100
AcDbEntity
  8
DRAFT
100
AcDbLine
 62
7
  6
CONTINUOUS
 10
-17.8161012323
 20
3.0297334627
 11
-17.8161012323
 21
23.6560009037
  0
LINE
  5
297
100
AcDbEntity
  8
DRAFT
100
AcDbLine
 62
7
  6
CONTINUOUS
 10
-16.3510087035
 20
23.6560009037
 11
-16.3510087035
 21
3.0297334627
  0
LINE
  5
298
100
AcDbEntity
  8
DRAFT
100
AcDbLine
 62
7
  6
CONTINUOUS
 10
-16.3510087035
 20
-2.7526391265
 11
-16.3510087035
 21
-23.3789065675
  0
LINE
  5
299
100
AcDbEntity
  8
DRAFT
100
AcDbLine
 62
7
  6
CONTINUOUS
 10
-16.3501360167
 20
31.4051282169
 11
-16.3501360167
 21
30.3051282169
  0
LINE
  5
29A
100
AcDbEntity
  8
DRAFT
100
AcDbLine
 62
7
  6
CONTINUOUS
 10
-16.3335549679
 20
31.3885471681
 11
-16.3335549679
 21
30.2885471681
  0
LINE
  5
29B
100
AcDbEntity
  8
DRAFT
100
AcDbLine
 62
7
  6
CONTINUOUS
 10
-16.3335549679
 20
23.6385471681
 11
-16.3335549679
 21
3.0432846777
  0
LINE
  5
29C
100
AcDbEntity
  8
DRAFT
100
AcDbLine
 62
7
  6
CONTINUOUS
 10
-16.3335549679
 20
-2.7661903416
 11
-16.3335549679
 21
-23.3614528319
  0
LINE
  5
29D
100
AcDbEntity
  8
0
100
AcDbLine
 62
7
  6
CONTINUOUS
 10
-15.1835549679
 20
36.1385471681
 11
-15.1835549679
 21
-29.8614528319
  0
LINE
  5
29E
100
AcDbEntity
  8
0
100
AcDbLine
 62
7
  6
CONTINUOUS
 10
-14.8335549679
 20
-42.8614528319
 11
-14.8335549679
 21
-49.1109626044
  0
LINE
  5
29F
100
AcDbEntity
  8
0
100
AcDbLine
 62
253
  6
CONTINUOUS
 10
-13.8335549679
 20
-49.6709278512
 11
-13.8335549679
 21
-46.7661903416
  0
LINE
  5
2A0
100
AcDbEntity
  8
0
100
AcDbLine
 62
7
  6
CONTINUOUS
 10
-13.4835549679
 20
36.1385471681
 11
-13.4835549679
 21
-29.8614528319
  0
LINE
  5
2A1
100
AcDbEntity
  8
DRAFT
100
AcDbLine
 62
7
  6
CONTINUOUS
 10
4.1488376391
 20
-27.8438454389
 11
4.1664450321
 21
-27.8614528319
  0
LINE
  5
2A2
100
AcDbEntity
  8
DRAFT
100
AcDbLine
 62
7
  6
CONTINUOUS
 10
2.1838987677
 20
-24.0789065675
 11
2.2013525032
 21
-24.0963603031
  0
LINE
  5
2A3
100
AcDbEntity
  8
DRAFT
100
AcDbLine
 62
7
  6
CONTINUOUS
 10
4.1664450321
 20
-25.8614528319
 11
4.1489912965
 21
-25.8439990963
  0
LINE
  5
2A4
100
AcDbEntity
  8
DRAFT
100
AcDbLine
 62
7
  6
CONTINUOUS
 10
4.1838987677
 20
-24.0789065675
 11
4.1664450321
 21
-24.0614528319
  0
LINE
  5
2A5
100
AcDbEntity
  8
DRAFT
100
AcDbLine
 62
7
  6
CONTINUOUS
 10
16.6830260809
 20
31.4051282169
 11
16.6664450321
 21
31.3885471681
  0
LINE
  5
2A6
100
AcDbEntity
  8
DRAFT
100
AcDbLine
 62
7
  6
CONTINUOUS
 10
16.6830260809
 20
30.3051282169
 11
16.6664450321
 21
30.2885471681
  0
LINE
  5
2A7
100
AcDbEntity
  8
DRAFT
100
AcDbLine
 62
7
  6
CONTINUOUS
 10
-16.3335549679
 20
3.0432846777
 11
-16.3510087035
 21
3.0297334627
  0
LINE
  5
2A8
100
AcDbEntity
  8
RACCORDO
100
AcDbLine
 62
253
  6
CONTINUOUS
 10
2.2105769455
 20
-10.3632927848
 11
3.0230164035
 21
-10.3584259888
  0
LINE
  5
2A9
100
AcDbEntity
  8
RACCORDO
100
AcDbLine
 62
253
  6
CONTINUOUS
 10
1.4849014718
 20
-9.8653496773
 11
2.271882103
 21
-9.8614528319
  0
LINE
  5
2AA
100
AcDbEntity
  8
RACCORDO
100
AcDbLine
 62
253
  6
CONTINUOUS
 10
1.0627904387
 20
-10.3668039181
 11
2.2105769455
 21
-10.3632927848
  0
LINE
  5
2AB
100
AcDbEntity
  8
RACCORDO
100
AcDbLine
 62
253
  6
CONTINUOUS
 10
0.4522817552
 20
-9.8674976865
 11
1.4849014718
 21
-9.8653496773
  0
LINE
  5
2AC
100
AcDbEntity
  8
RACCORDO
100
AcDbLine
 62
7
  6
CONTINUOUS
 10
2.2722501658
 20
-9.8614528319
 11
-1.9393601017
 21
-9.8614528319
  0
LINE
  5
2AD
100
AcDbEntity
  8
RACCORDO
100
AcDbLine
 62
253
  6
CONTINUOUS
 10
-0.2928814818
 20
-10.3673778015
 11
1.0627904387
 21
-10.3668039181
  0
LINE
  5
2AE
100
AcDbEntity
  8
RACCORDO
100
AcDbLine
 62
253
  6
CONTINUOUS
 10
-0.639834748
 20
-9.8667782022
 11
0.4522817552
 21
-9.8674976865
  0
LINE
  5
2AF
100
AcDbEntity
  8
RACCORDO
100
AcDbLine
 62
253
  6
CONTINUOUS
 10
-1.8443484944
 20
-10.3634423763
 11
-0.2928814818
 21
-10.3673778015
  0
LINE
  5
2B0
100
AcDbEntity
  8
RACCORDO
100
AcDbLine
 62
253
  6
CONTINUOUS
 10
-1.9386315136
 20
-9.8614528319
 11
-0.639834748
 21
-9.8667782022
  0
LINE
  5
2B1
100
AcDbEntity
  8
RACCORDO
100
AcDbLine
 62
253
  6
CONTINUOUS
 10
-2.6901263393
 20
-10.3584255836
 11
-1.8443484944
 21
-10.3634423763
  0
LWPOLYLINE
  5
2B2
100
AcDbEntity
  8
RACCORDO
100
AcDbPolyline
 62
7
  6
CONTINUOUS
 90
19
 70
0
 10
2.2722501658
 20
-9.8614528319
 10
2.3439139203
 20
-9.8634600995
 10
2.4128933666
 20
-9.8690486359
 10
2.4791885048
 20
-9.8782184411
 10
2.5430184706
 20
-9.8910567544
 10
2.6041641282
 20
-9.9074763365
 10
2.6619680703
 20
-9.9272154694
 10
2.7164883173
 20
-9.9503489533
 10
2.7676668488
 20
-9.9768019881
 10
2.8146721962
 20
-10.0060884559
 10
2.857495511
 20
-10.0383582665
 10
2.8961456417
 20
-10.07346151
 10
2.9298176653
 20
-10.1104623392
 10
2.9583426557
 20
-10.1494942659
 10
2.981889539
 20
-10.1904237781
 10
3.0001601699
 20
-10.2319144927
 10
3.0130551668
 20
-10.2735209486
 10
3.0206739113
 20
-10.3156886068
 10
3.0230164035
 20
-10.3584174674
  0
LINE
  5
2B3
100
AcDbEntity
  8
DRAFT
100
AcDbLine
 62
7
  6
CONTINUOUS
 10
-16.3335549679
 20
-2.7661903416
 11
-16.3510087035
 21
-2.7526391265
  0
LINE
  5
2B4
100
AcDbEntity
  8
0
100
AcDbLine
 62
7
  6
CONTINUOUS
 10
-4.8335549679
 20
-41.8614528319
 11
-4.8335549679
 21
-46.6482544284
  0
LINE
  5
2B5
100
AcDbEntity
  8
0
100
AcDbLine
 62
7
  6
CONTINUOUS
 10
-4.8335549679
 20
-29.8614528319
 11
-4.8335549679
 21
9.4261581877
  0
LINE
  5
2B6
100
AcDbEntity
  8
DRAFT
100
AcDbLine
 62
7
  6
CONTINUOUS
 10
18.3830260809
 20
30.3051282169
 11
18.3664450321
 21
30.2885471681
  0
LINE
  5
2B7
100
AcDbEntity
  8
DRAFT
100
AcDbLine
 62
7
  6
CONTINUOUS
 10
16.6838987677
 20
23.6560009037
 11
16.6664450321
 21
23.6385471681
  0
LINE
  5
2B8
100
AcDbEntity
  8
DRAFT
100
AcDbLine
 62
7
  6
CONTINUOUS
 10
-17.8335549679
 20
-2.7661903416
 11
-17.8161012323
 21
-2.7526391265
  0
LINE
  5
2B9
100
AcDbEntity
  8
DRAFT
100
AcDbLine
 62
7
  6
CONTINUOUS
 10
-17.8335549679
 20
3.0432846777
 11
-17.8161012323
 21
3.0297334627
  0
LINE
  5
2BA
100
AcDbEntity
  8
DRAFT
100
AcDbLine
 62
7
  6
CONTINUOUS
 10
16.6838987677
 20
-23.3789065675
 11
16.6664450321
 21
-23.3614528319
  0
LINE
  5
2BB
100
AcDbEntity
  8
DRAFT
100
AcDbLine
 62
7
  6
CONTINUOUS
 10
-1.8684624391
 20
-25.8614528319
 11
-1.8511623609
 21
-27.8438454389
  0
LINE
  5
2BC
100
AcDbEntity
  8
DRAFT
100
AcDbLine
 62
7
  6
CONTINUOUS
 10
-3.8510087035
 20
10.4261581877
 11
-3.8510087035
 21
-24.0789065675
  0
LINE
  5
2BD
100
AcDbEntity
  8
DRAFT
100
AcDbLine
 62
7
  6
CONTINUOUS
 10
-3.8335549679
 20
10.4261581877
 11
-3.8335549679
 21
-24.0614528319
  0
LINE
  5
2BE
100
AcDbEntity
  8
DRAFT
100
AcDbLine
 62
7
  6
CONTINUOUS
 10
-3.8335549679
 20
-25.8614528319
 11
-3.8335549679
 21
-27.8614528319
  0
LINE
  5
2BF
100
AcDbEntity
  8
DRAFT
100
AcDbLine
 62
7
  6
CONTINUOUS
 10
-3.8161012323
 20
-24.0789065675
 11
-3.8161012323
 21
-25.8439990963
  0
LINE
  5
2C0
100
AcDbEntity
  8
DRAFT
100
AcDbLine
 62
7
  6
CONTINUOUS
 10
-3.7986474968
 20
-24.0963603031
 11
-3.7986474968
 21
-25.8614528319
  0
LINE
  5
2C1
100
AcDbEntity
  8
RACCORDO
100
AcDbLine
 62
7
  6
CONTINUOUS
 10
-2.6901263393
 20
-10.3584174674
 11
-2.6901263393
 21
-24.0614528319
  0
LINE
  5
2C2
100
AcDbEntity
  8
DRAFT
100
AcDbLine
 62
7
  6
CONTINUOUS
 10
-1.8684624391
 20
-24.0963603031
 11
-1.8684624391
 21
-25.8614528319
  0
LINE
  5
2C3
100
AcDbEntity
  8
DRAFT
100
AcDbLine
 62
7
  6
CONTINUOUS
 10
-1.8510087035
 20
-24.0789065675
 11
-1.8510087035
 21
-25.8439990963
  0
LINE
  5
2C4
100
AcDbEntity
  8
DRAFT
100
AcDbLine
 62
7
  6
CONTINUOUS
 10
-1.8335549679
 20
-25.8614528319
 11
-1.8335549679
 21
-27.8614528319
  0
LINE
  5
2C5
100
AcDbEntity
  8
DRAFT
100
AcDbLine
 62
7
  6
CONTINUOUS
 10
-3.8159475749
 20
-27.8438454389
 11
-3.7986474968
 21
-25.8614528319
  0
LWPOLYLINE
  5
2C6
100
AcDbEntity
  8
RACCORDO
100
AcDbPolyline
 62
7
  6
CONTINUOUS
 90
19
 70
0
 10
-2.6901263393
 20
-10.3584174674
 10
-2.687649105
 20
-10.3151791495
 10
-2.6798906928
 20
-10.2726340113
 10
-2.6668511029
 20
-10.2307820527
 10
-2.6484021635
 20
-10.1891994802
 10
-2.6246720463
 20
-10.1483100874
 10
-2.5960452667
 20
-10.1093852549
 10
-2.56239242
 20
-10.0725665874
 10
-2.5238429108
 20
-10.0377124804
 10
-2.4811694689
 20
-10.0056695005
 10
-2.4343868663
 20
-9.9765666598
 10
-2.3834803309
 20
-9.9502749464
 10
-2.3291782762
 20
-9.9272538913
 10
-2.2715070907
 20
-9.9075558426
 10
-2.2104403859
 20
-9.8911284523
 10
-2.1466274099
 20
-9.8782742073
 10
-2.0802845785
 20
-9.8690939368
 10
-2.0111954757
 20
-9.8634868116
 10
-1.9393601017
 20
-9.8614528319
  0
LINE
  5
2C7
100
AcDbEntity
  8
RACCORDO
100
AcDbLine
 62
7
  6
CONTINUOUS
 10
-18.3335549679
 20
14.8385471681
 11
-18.3256872067
 21
14.8306794068
  0
LINE
  5
2C8
100
AcDbEntity
  8
DRAFT
100
AcDbLine
 62
7
  6
CONTINUOUS
 10
4.1315375609
 20
-25.8614528319
 11
4.1488376391
 21
-27.8438454389
  0
LINE
  5
2C9
100
AcDbEntity
  8
DRAFT
100
AcDbLine
 62
7
  6
CONTINUOUS
 10
2.1664450321
 20
-25.8614528319
 11
2.1664450321
 21
-27.8614528319
  0
LINE
  5
2CA
100
AcDbEntity
  8
DRAFT
100
AcDbLine
 62
7
  6
CONTINUOUS
 10
2.1838987677
 20
-24.0789065675
 11
2.1838987677
 21
-25.8439990963
  0
LINE
  5
2CB
100
AcDbEntity
  8
DRAFT
100
AcDbLine
 62
7
  6
CONTINUOUS
 10
2.2013525032
 20
-24.0963603031
 11
2.2013525032
 21
-25.8614528319
  0
LINE
  5
2CC
100
AcDbEntity
  8
RACCORDO
100
AcDbLine
 62
7
  6
CONTINUOUS
 10
3.0230164035
 20
-10.3584174674
 11
3.0230164035
 21
-24.0614528319
  0
LINE
  5
2CD
100
AcDbEntity
  8
DRAFT
100
AcDbLine
 62
7
  6
CONTINUOUS
 10
4.1315375609
 20
-24.0963603031
 11
4.1315375609
 21
-25.8614528319
  0
LINE
  5
2CE
100
AcDbEntity
  8
DRAFT
100
AcDbLine
 62
7
  6
CONTINUOUS
 10
4.1489912965
 20
-24.0789065675
 11
4.1489912965
 21
-25.8439990963
  0
LINE
  5
2CF
100
AcDbEntity
  8
DRAFT
100
AcDbLine
 62
7
  6
CONTINUOUS
 10
4.1664450321
 20
-25.8614528319
 11
4.1664450321
 21
-27.8614528319
  0
LINE
  5
2D0
100
AcDbEntity
  8
DRAFT
100
AcDbLine
 62
7
  6
CONTINUOUS
 10
4.1664450321
 20
-24.0614528319
 11
4.1664450321
 21
10.4261581877
  0
LINE
  5
2D1
100
AcDbEntity
  8
DRAFT
100
AcDbLine
 62
7
  6
CONTINUOUS
 10
4.1838987677
 20
-24.0789065675
 11
4.1838987677
 21
10.4261581877
  0
LINE
  5
2D2
100
AcDbEntity
  8
0
100
AcDbLine
 62
7
  6
CONTINUOUS
 10
5.1664450321
 20
9.4261581877
 11
5.1664450321
 21
-29.8614528319
  0
LINE
  5
2D3
100
AcDbEntity
  8
0
100
AcDbLine
 62
7
  6
CONTINUOUS
 10
5.1664450321
 20
-41.8614528319
 11
5.1664450321
 21
-46.6482544284
  0
LINE
  5
2D4
100
AcDbEntity
  8
DRAFT
100
AcDbLine
 62
7
  6
CONTINUOUS
 10
2.1840524251
 20
-27.8438454389
 11
2.2013525032
 21
-25.8614528319
  0
LINE
  5
2D5
100
AcDbEntity
  8
RACCORDO
100
AcDbLine
 62
7
  6
CONTINUOUS
 10
18.6664450321
 20
14.8385471681
 11
18.6585772708
 21
14.8306794068
  0
LINE
  5
2D6
100
AcDbEntity
  8
DRAFT
100
AcDbLine
 62
7
  6
CONTINUOUS
 10
-16.3510087035
 20
-23.3789065675
 11
-16.3335549679
 21
-23.3614528319
  0
LINE
  5
2D7
100
AcDbEntity
  8
DRAFT
100
AcDbLine
 62
7
  6
CONTINUOUS
 10
-16.3510087035
 20
23.6560009037
 11
-16.3335549679
 21
23.6385471681
  0
LWPOLYLINE
  5
2D8
100
AcDbEntity
  8
0
100
AcDbPolyline
 62
7
  6
CONTINUOUS
 90
11
 70
0
 10
5.1664450321
 20
-46.6482544284
 10
5.1649987304
 20
-46.6634095161
 10
5.1604381985
 20
-46.6780004793
 10
5.1527634363
 20
-46.6920272074
 10
5.1420721723
 20
-46.7055077311
 10
5.1282666782
 20
-46.7184226923
 10
5.1110537681
 20
-46.7307227674
 10
5.0904669359
 20
-46.742428801
 10
5.0664726879
 20
-46.7535329374
 10
5.0386773565
 20
-46.7639621266
 10
5.0314881376
 20
-46.7661903416
  0
LINE
  5
2D9
100
AcDbEntity
  8
DRAFT
100
AcDbLine
 62
7
  6
CONTINUOUS
 10
18.1664450321
 20
3.0432846777
 11
18.1489912965
 21
3.0297334627
  0
LINE
  5
2DA
100
AcDbEntity
  8
DRAFT
100
AcDbLine
 62
7
  6
CONTINUOUS
 10
18.1664450321
 20
-2.7661903416
 11
18.1489912965
 21
-2.7526391265
  0
LINE
  5
2DB
100
AcDbEntity
  8
DRAFT
100
AcDbLine
 62
7
  6
CONTINUOUS
 10
-18.0501360167
 20
30.3051282169
 11
-18.0335549679
 21
30.2885471681
  0
LINE
  5
2DC
100
AcDbEntity
  8
DRAFT
100
AcDbLine
 62
7
  6
CONTINUOUS
 10
-16.3501360167
 20
30.3051282169
 11
-16.3335549679
 21
30.2885471681
  0
LINE
  5
2DD
100
AcDbEntity
  8
0
100
AcDbLine
 62
7
  6
CONTINUOUS
 10
13.8164450321
 20
-29.8614528319
 11
13.8164450321
 21
36.1385471681
  0
LINE
  5
2DE
100
AcDbEntity
  8
0
100
AcDbLine
 62
253
  6
CONTINUOUS
 10
14.1664450321
 20
-49.6709278512
 11
14.1664450321
 21
-46.7661903416
  0
LINE
  5
2DF
100
AcDbEntity
  8
DRAFT
100
AcDbLine
 62
7
  6
CONTINUOUS
 10
-3.8510087035
 20
-24.0789065675
 11
-3.8335549679
 21
-24.0614528319
  0
LINE
  5
2E0
100
AcDbEntity
  8
DRAFT
100
AcDbLine
 62
7
  6
CONTINUOUS
 10
16.6664450321
 20
-2.7661903416
 11
16.6838987677
 21
-2.7526391265
  0
LINE
  5
2E1
100
AcDbEntity
  8
0
100
AcDbLine
 62
7
  6
CONTINUOUS
 10
-3.8335549679
 20
10.4261581877
 11
4.1664450321
 21
10.4261581877
  0
LINE
  5
2E2
100
AcDbEntity
  8
RACCORDO
100
AcDbLine
 62
253
  6
CONTINUOUS
 10
19.3164450321
 20
14.3306862607
 11
18.6559729609
 21
14.3306862607
  0
LINE
  5
2E3
100
AcDbEntity
  8
RACCORDO
100
AcDbLine
 62
253
  6
CONTINUOUS
 10
-18.3230828967
 20
14.3306862607
 11
-18.9835549679
 21
14.3306862607
  0
LINE
  5
2E4
100
AcDbEntity
  8
RACCORDO
100
AcDbLine
 62
7
  6
CONTINUOUS
 10
19.3164450321
 20
14.8306794068
 11
18.6585772708
 21
14.8306794068
  0
LINE
  5
2E5
100
AcDbEntity
  8
RACCORDO
100
AcDbLine
 62
7
  6
CONTINUOUS
 10
-18.3256872067
 20
14.8306794068
 11
-18.9835549679
 21
14.8306794068
  0
LINE
  5
2E6
100
AcDbEntity
  8
DRAFT
100
AcDbLine
 62
7
  6
CONTINUOUS
 10
-18.3335549679
 20
14.8385471681
 11
-18.9835549679
 21
14.8385471681
  0
LINE
  5
2E7
100
AcDbEntity
  8
DRAFT
100
AcDbLine
 62
7
  6
CONTINUOUS
 10
16.6664450321
 20
3.0432846777
 11
16.6838987677
 21
3.0297334627
  0
LINE
  5
2E8
100
AcDbEntity
  8
DRAFT
100
AcDbLine
 62
7
  6
CONTINUOUS
 10
-16.3501360167
 20
31.4051282169
 11
-16.3335549679
 21
31.3885471681
  0
LINE
  5
2E9
100
AcDbEntity
  8
DRAFT
100
AcDbLine
 62
7
  6
CONTINUOUS
 10
18.6716884241
 20
17.8669265957
 11
18.675235719
 21
15.3385471681
  0
LINE
  5
2EA
100
AcDbEntity
  8
0
100
AcDbLine
 62
7
  6
CONTINUOUS
 10
15.1664450321
 20
-42.8614528319
 11
15.1664450321
 21
-49.1109626044
  0
LINE
  5
2EB
100
AcDbEntity
  8
0
100
AcDbLine
 62
7
  6
CONTINUOUS
 10
15.5164450321
 20
-29.8614528319
 11
15.5164450321
 21
36.1385471681
  0
LINE
  5
2EC
100
AcDbEntity
  8
DRAFT
100
AcDbLine
 62
7
  6
CONTINUOUS
 10
16.6664450321
 20
-23.3614528319
 11
16.6664450321
 21
-2.7661903416
  0
LINE
  5
2ED
100
AcDbEntity
  8
DRAFT
100
AcDbLine
 62
7
  6
CONTINUOUS
 10
16.6664450321
 20
3.0432846777
 11
16.6664450321
 21
23.6385471681
  0
LINE
  5
2EE
100
AcDbEntity
  8
DRAFT
100
AcDbLine
 62
7
  6
CONTINUOUS
 10
16.6664450321
 20
30.2885471681
 11
16.6664450321
 21
31.3885471681
  0
LINE
  5
2EF
100
AcDbEntity
  8
DRAFT
100
AcDbLine
 62
7
  6
CONTINUOUS
 10
16.6830260809
 20
30.3051282169
 11
16.6830260809
 21
31.4051282169
  0
LINE
  5
2F0
100
AcDbEntity
  8
DRAFT
100
AcDbLine
 62
7
  6
CONTINUOUS
 10
16.6838987677
 20
-23.3789065675
 11
16.6838987677
 21
-2.7526391265
  0
LINE
  5
2F1
100
AcDbEntity
  8
DRAFT
100
AcDbLine
 62
7
  6
CONTINUOUS
 10
16.6838987677
 20
3.0297334627
 11
16.6838987677
 21
23.6560009037
  0
LINE
  5
2F2
100
AcDbEntity
  8
DRAFT
100
AcDbLine
 62
7
  6
CONTINUOUS
 10
18.1489912965
 20
23.6560009037
 11
18.1489912965
 21
3.0297334627
  0
LINE
  5
2F3
100
AcDbEntity
  8
DRAFT
100
AcDbLine
 62
7
  6
CONTINUOUS
 10
18.1489912965
 20
-2.7526391265
 11
18.1489912965
 21
-23.3789065675
  0
LINE
  5
2F4
100
AcDbEntity
  8
DRAFT
100
AcDbLine
 62
7
  6
CONTINUOUS
 10
18.1664450321
 20
23.6385471681
 11
18.1664450321
 21
3.0432846777
  0
LINE
  5
2F5
100
AcDbEntity
  8
DRAFT
100
AcDbLine
 62
7
  6
CONTINUOUS
 10
18.1664450321
 20
-2.7661903416
 11
18.1664450321
 21
-23.3614528319
  0
LINE
  5
2F6
100
AcDbEntity
  8
DRAFT
100
AcDbLine
 62
7
  6
CONTINUOUS
 10
18.3664450321
 20
-29.8614528319
 11
18.3664450321
 21
-25.3614528319
  0
LINE
  5
2F7
100
AcDbEntity
  8
DRAFT
100
AcDbLine
 62
7
  6
CONTINUOUS
 10
18.3664450321
 20
25.6385471681
 11
18.3664450321
 21
30.2885471681
  0
LINE
  5
2F8
100
AcDbEntity
  8
DRAFT
100
AcDbLine
 62
7
  6
CONTINUOUS
 10
18.3830260809
 20
-29.8614528319
 11
18.3830260809
 21
-25.3448717831
  0
LINE
  5
2F9
100
AcDbEntity
  8
DRAFT
100
AcDbLine
 62
7
  6
CONTINUOUS
 10
18.3830260809
 20
25.6219661193
 11
18.3830260809
 21
30.3051282169
  0
LINE
  5
2FA
100
AcDbEntity
  8
RACCORDO
100
AcDbLine
 62
7
  6
CONTINUOUS
 10
18.6559729609
 20
14.3306862607
 11
18.6559729609
 21
18.3800308951
  0
LINE
  5
2FB
100
AcDbEntity
  8
DRAFT
100
AcDbLine
 62
7
  6
CONTINUOUS
 10
18.6664450321
 20
14.8385471681
 11
18.6664450321
 21
17.8721699878
  0
LINE
  5
2FC
100
AcDbEntity
  8
0
100
AcDbLine
 62
7
  6
CONTINUOUS
 10
19.3164450321
 20
36.1385471681
 11
19.3164450321
 21
-29.8614528319
  0
LWPOLYLINE
  5
2FD
100
AcDbEntity
  8
0
100
AcDbPolyline
 62
7
  6
CONTINUOUS
 90
28
 70
0
 10
15.1664450321
 20
-49.1109626044
 10
15.1630987047
 20
-49.1651130577
 10
15.1550454024
 20
-49.2158107408
 10
15.1422851251
 20
-49.2632064223
 10
15.1243544441
 20
-49.3077180777
 10
15.1017167882
 20
-49.3492044793
 10
15.0757624437
 20
-49.387062481
 10
15.0466308686
 20
-49.4212350314
 10
15.014182605
 20
-49.4522377652
 10
14.9793895657
 20
-49.4803869921
 10
14.9423235555
 20
-49.5058841069
 10
14.9029127697
 20
-49.5288768568
 10
14.8619137066
 20
-49.5495690741
 10
14.8193282748
 20
-49.5680993548
 10
14.7751545656
 20
-49.5846104901
 10
14.7301433516
 20
-49.5992874559
 10
14.6843701872
 20
-49.6122268917
 10
14.6377595179
 20
-49.6235422312
 10
14.5908354535
 20
-49.6334168147
 10
14.5436597158
 20
-49.6419156703
 10
14.4961705829
 20
-49.6491137404
 10
14.4487069987
 20
-49.6551835626
 10
14.4013336062
 20
-49.660173736
 10
14.3539857623
 20
-49.6641152117
 10
14.3068084815
 20
-49.6671344812
 10
14.259850102
 20
-49.6692840566
 10
14.2130622855
 20
-49.6705456671
 10
14.1664450321
 20
-49.6709278512
  0
LINE
  5
2FE
100
AcDbEntity
  8
DRAFT
100
AcDbLine
 62
7
  6
CONTINUOUS
 10
-3.8335549679
 20
-25.8614528319
 11
-3.8161012323
 21
-25.8439990963
  0
LINE
  5
2FF
100
AcDbEntity
  8
DRAFT
100
AcDbLine
 62
7
  6
CONTINUOUS
 10
-1.8510087035
 20
-24.0789065675
 11
-1.8684624391
 21
-24.0963603031
  0
LINE
  5
300
100
AcDbEntity
  8
DRAFT
100
AcDbLine
 62
7
  6
CONTINUOUS
 10
-3.8159475749
 20
-27.8438454389
 11
-3.8335549679
 21
-27.8614528319
  0
LINE
  5
301
100
AcDbEntity
  8
DRAFT
100
AcDbLine
 62
7
  6
CONTINUOUS
 10
-18.9835549679
 20
15.3385471681
 11
-18.3423456548
 21
15.3385471681
  0
LINE
  5
302
100
AcDbEntity
  8
DRAFT
100
AcDbLine
 62
7
  6
CONTINUOUS
 10
18.675235719
 20
15.3385471681
 11
19.3164450321
 21
15.3385471681
  0
LINE
  5
303
100
AcDbEntity
  8
DRAFT
100
AcDbLine
 62
7
  6
CONTINUOUS
 10
-18.9835549679
 20
17.8669265957
 11
-18.33879836
 21
17.8669265957
  0
LINE
  5
304
100
AcDbEntity
  8
DRAFT
100
AcDbLine
 62
7
  6
CONTINUOUS
 10
18.6716884241
 20
17.8669265957
 11
19.3164450321
 21
17.8669265957
  0
LINE
  5
305
100
AcDbEntity
  8
RACCORDO
100
AcDbLine
 62
7
  6
CONTINUOUS
 10
-18.9835549679
 20
17.880037749
 11
-18.3256872067
 21
17.880037749
  0
LINE
  5
306
100
AcDbEntity
  8
RACCORDO
100
AcDbLine
 62
7
  6
CONTINUOUS
 10
18.6585772708
 20
17.880037749
 11
19.3164450321
 21
17.880037749
  0
LINE
  5
307
100
AcDbEntity
  8
RACCORDO
100
AcDbLine
 62
253
  6
CONTINUOUS
 10
-18.9835549679
 20
18.3800308951
 11
-18.3230828967
 21
18.3800308951
  0
LINE
  5
308
100
AcDbEntity
  8
RACCORDO
100
AcDbLine
 62
253
  6
CONTINUOUS
 10
18.6559729609
 20
18.3800308951
 11
19.3164450321
 21
18.3800308951
  0
LINE
  5
309
100
AcDbEntity
  8
0
100
AcDbLine
 62
7
  6
CONTINUOUS
 10
21.0164450321
 20
36.1385471681
 11
21.0164450321
 21
-29.8614528319
  0
LINE
  5
30A
100
AcDbEntity
  8
DRAFT
100
AcDbLine
 62
7
  6
CONTINUOUS
 10
2.1664450321
 20
-25.8614528319
 11
2.1838987677
 21
-25.8439990963
  0
LINE
  5
30B
100
AcDbEntity
  8
DRAFT
100
AcDbLine
 62
7
  6
CONTINUOUS
 10
4.1489912965
 20
-24.0789065675
 11
4.1315375609
 21
-24.0963603031
  0
LINE
  5
30C
100
AcDbEntity
  8
DRAFT
100
AcDbLine
 62
7
  6
CONTINUOUS
 10
2.1840524251
 20
-27.8438454389
 11
2.1664450321
 21
-27.8614528319
  0
LINE
  5
30D
100
AcDbEntity
  8
RACCORDO
100
AcDbLine
 62
7
  6
CONTINUOUS
 10
19.166483109
 20
23.6385471681
 11
18.1664450321
 21
23.6385471681
  0
LINE
  5
30E
100
AcDbEntity
  8
RACCORDO
100
AcDbLine
 62
7
  6
CONTINUOUS
 10
16.6664450321
 20
23.6385471681
 11
15.5164450321
 21
23.6385471681
  0
LINE
  5
30F
100
AcDbEntity
  8
RACCORDO
100
AcDbLine
 62
7
  6
CONTINUOUS
 10
-15.1835549679
 20
23.6385471681
 11
-16.3335549679
 21
23.6385471681
  0
LINE
  5
310
100
AcDbEntity
  8
RACCORDO
100
AcDbLine
 62
7
  6
CONTINUOUS
 10
-17.8335549679
 20
23.6385471681
 11
-18.8335930448
 21
23.6385471681
  0
LINE
  5
311
100
AcDbEntity
  8
RACCORDO
100
AcDbLine
 62
7
  6
CONTINUOUS
 10
19.1490293734
 20
23.6560009037
 11
18.1489912965
 21
23.6560009037
  0
LINE
  5
312
100
AcDbEntity
  8
RACCORDO
100
AcDbLine
 62
7
  6
CONTINUOUS
 10
16.6838987677
 20
23.6560009037
 11
15.5164450321
 21
23.6560009037
  0
LINE
  5
313
100
AcDbEntity
  8
RACCORDO
100
AcDbLine
 62
7
  6
CONTINUOUS
 10
-15.1835549679
 20
23.6560009037
 11
-16.3510087035
 21
23.6560009037
  0
LINE
  5
314
100
AcDbEntity
  8
RACCORDO
100
AcDbLine
 62
7
  6
CONTINUOUS
 10
-17.8161012323
 20
23.6560009037
 11
-18.8161393093
 21
23.6560009037
  0
LINE
  5
315
100
AcDbEntity
  8
DRAFT
100
AcDbLine
 62
7
  6
CONTINUOUS
 10
-18.0501360167
 20
25.6219661193
 11
-15.1835549679
 21
25.6219661193
  0
LINE
  5
316
100
AcDbEntity
  8
DRAFT
100
AcDbLine
 62
7
  6
CONTINUOUS
 10
15.5164450321
 20
25.6219661193
 11
18.3830260809
 21
25.6219661193
  0
LINE
  5
317
100
AcDbEntity
  8
DRAFT
100
AcDbLine
 62
7
  6
CONTINUOUS
 10
-18.0335549679
 20
25.6385471681
 11
-15.1835549679
 21
25.6385471681
  0
LINE
  5
318
100
AcDbEntity
  8
DRAFT
100
AcDbLine
 62
7
  6
CONTINUOUS
 10
15.5164450321
 20
25.6385471681
 11
18.3664450321
 21
25.6385471681
  0
LINE
  5
319
100
AcDbEntity
  8
DRAFT
100
AcDbLine
 62
7
  6
CONTINUOUS
 10
18.6664450321
 20
17.8721699878
 11
18.6716884241
 21
17.8669265957
  0
LINE
  5
31A
100
AcDbEntity
  8
DRAFT
100
AcDbLine
 62
7
  6
CONTINUOUS
 10
18.1489912965
 20
-23.3789065675
 11
18.1664450321
 21
-23.3614528319
  0
LINE
  5
31B
100
AcDbEntity
  8
RACCORDO
100
AcDbLine
 62
253
  6
CONTINUOUS
 10
19.166483109
 20
-23.3614528319
 11
19.1490293734
 21
-23.3789065675
  0
LINE
  5
31C
100
AcDbEntity
  8
DRAFT
100
AcDbLine
 62
7
  6
CONTINUOUS
 10
18.3830260809
 20
-25.3448717831
 11
18.3664450321
 21
-25.3614528319
  0
LINE
  5
31D
100
AcDbEntity
  8
DRAFT
100
AcDbLine
 62
7
  6
CONTINUOUS
 10
18.3664450321
 20
30.2885471681
 11
16.6664450321
 21
30.2885471681
  0
LINE
  5
31E
100
AcDbEntity
  8
DRAFT
100
AcDbLine
 62
7
  6
CONTINUOUS
 10
-16.3335549679
 20
30.2885471681
 11
-18.0335549679
 21
30.2885471681
  0
LINE
  5
31F
100
AcDbEntity
  8
DRAFT
100
AcDbLine
 62
7
  6
CONTINUOUS
 10
18.3830260809
 20
30.3051282169
 11
16.6830260809
 21
30.3051282169
  0
LINE
  5
320
100
AcDbEntity
  8
DRAFT
100
AcDbLine
 62
7
  6
CONTINUOUS
 10
-16.3501360167
 20
30.3051282169
 11
-18.0501360167
 21
30.3051282169
  0
LINE
  5
321
100
AcDbEntity
  8
DRAFT
100
AcDbLine
 62
7
  6
CONTINUOUS
 10
16.6664450321
 20
31.3885471681
 11
15.5164450321
 21
31.3885471681
  0
LINE
  5
322
100
AcDbEntity
  8
DRAFT
100
AcDbLine
 62
7
  6
CONTINUOUS
 10
-15.1835549679
 20
31.3885471681
 11
-16.3335549679
 21
31.3885471681
  0
LINE
  5
323
100
AcDbEntity
  8
DRAFT
100
AcDbLine
 62
7
  6
CONTINUOUS
 10
16.6830260809
 20
31.4051282169
 11
15.5164450321
 21
31.4051282169
  0
LINE
  5
324
100
AcDbEntity
  8
DRAFT
100
AcDbLine
 62
7
  6
CONTINUOUS
 10
-15.1835549679
 20
31.4051282169
 11
-16.3501360167
 21
31.4051282169
  0
LINE
  5
325
100
AcDbEntity
  8
RACCORDO
100
AcDbLine
 62
7
  6
CONTINUOUS
 10
-18.9835549679
 20
33.1210934325
 11
-15.1835549679
 21
33.1210934325
  0
LINE
  5
326
100
AcDbEntity
  8
RACCORDO
100
AcDbLine
 62
7
  6
CONTINUOUS
 10
15.5164450321
 20
33.1210934325
 11
19.3164450321
 21
33.1210934325
  0
LINE
  5
327
100
AcDbEntity
  8
RACCORDO
100
AcDbLine
 62
7
  6
CONTINUOUS
 10
-18.9835549679
 20
33.1385471681
 11
-15.1835549679
 21
33.1385471681
  0
LINE
  5
328
100
AcDbEntity
  8
RACCORDO
100
AcDbLine
 62
7
  6
CONTINUOUS
 10
15.5164450321
 20
33.1385471681
 11
19.3164450321
 21
33.1385471681
  0
LINE
  5
329
100
AcDbEntity
  8
DRAFT
100
AcDbLine
 62
7
  6
CONTINUOUS
 10
18.1489912965
 20
23.6560009037
 11
18.1664450321
 21
23.6385471681
  0
LINE
  5
32A
100
AcDbEntity
  8
RACCORDO
100
AcDbLine
 62
253
  6
CONTINUOUS
 10
19.166483109
 20
23.6385471681
 11
19.1490293734
 21
23.6560009037
  0
LINE
  5
32B
100
AcDbEntity
  8
DRAFT
100
AcDbLine
 62
7
  6
CONTINUOUS
 10
18.3830260809
 20
25.6219661193
 11
18.3664450321
 21
25.6385471681
  0
LINE
  5
32C
100
AcDbEntity
  8
0
100
AcDbLine
 62
253
  6
CONTINUOUS
 10
-20.6835549679
 20
36.1385471681
 11
-18.9835549679
 21
36.1385471681
  0
LINE
  5
32D
100
AcDbEntity
  8
0
100
AcDbLine
 62
253
  6
CONTINUOUS
 10
21.0164450321
 20
36.1385471681
 11
19.3164450321
 21
36.1385471681
  0
LINE
  5
32E
100
AcDbEntity
  8
0
100
AcDbLine
 62
253
  6
CONTINUOUS
 10
13.8164450321
 20
36.1385471681
 11
15.5164450321
 21
36.1385471681
  0
LINE
  5
32F
100
AcDbEntity
  8
0
100
AcDbLine
 62
253
  6
CONTINUOUS
 10
-13.4835549679
 20
36.1385471681
 11
-15.1835549679
 21
36.1385471681
  0
LINE
  5
330
100
AcDbEntity
  8
0
100
AcDbLine
 62
7
  6
CONTINUOUS
 10
44.1664450321
 20
-13.3614528319
 11
44.1664450321
 21
13.6385471681
  0
LINE
  5
331
100
AcDbEntity
  8
0
100
AcDbLine
 62
7
  6
CONTINUOUS
 10
47.1664450321
 20
13.6385471681
 11
47.1664450321
 21
-13.3614528319
  0
LINE
  5
332
100
AcDbEntity
  8
0
100
AcDbLine
 62
7
  6
CONTINUOUS
 10
13.6664450321
 20
44.1385471681
 11
-13.3335549679
 21
44.1385471681
  0
LINE
  5
333
100
AcDbEntity
  8
0
100
AcDbLine
 62
7
  6
CONTINUOUS
 10
-13.3335549679
 20
47.1385471681
 11
13.6664450321
 21
47.1385471681
  0
LINE
  5
334
100
AcDbEntity
  8
0
100
AcDbLine
 62
7
  6
CONTINUOUS
 10
50.1664450321
 20
47.1385471681
 11
50.1664450321
 21
-32.8614528319
  0
LINE
  5
335
100
AcDbEntity
  8
0
100
AcDbLine
 62
7
  6
CONTINUOUS
 10
50.1664450321
 20
-32.8614528319
 11
50.1664450321
 21
-49.8614528319
  0
LINE
  5
336
100
AcDbEntity
  8
0
100
AcDbLine
 62
7
  6
CONTINUOUS
 10
-46.8335549679
 20
50.1385471681
 11
47.1664450321
 21
50.1385471681
  0
LINE
  5
337
100
AcDbEntity
  8
0
100
AcDbLine
 62
7
  6
CONTINUOUS
 10
-120.1178796554
 20
-49.8614528319
 11
-81.1178796554
 21
-49.8614528319
  0
LINE
  5
338
100
AcDbEntity
  8
0
100
AcDbLine
 62
7
  6
CONTINUOUS
 10
-120.1178796554
 20
-46.8614528319
 11
-81.1178796554
 21
-46.8614528319
  0
LINE
  5
339
100
AcDbEntity
  8
0
100
AcDbLine
 62
253
  6
CONTINUOUS
 10
-126.1178796554
 20
-43.8614528319
 11
-123.1178796554
 21
-43.8614528319
  0
LINE
  5
33A
100
AcDbEntity
  8
0
100
AcDbLine
 62
253
  6
CONTINUOUS
 10
-75.1178796554
 20
-43.8614528319
 11
-78.1178796554
 21
-43.8614528319
  0
LINE
  5
33B
100
AcDbEntity
  8
RACCORDO
100
AcDbLine
 62
7
  6
CONTINUOUS
 10
-65.0307239127
 20
-32.5038730384
 11
-68.8962781109
 21
-32.8420652089
  0
LINE
  5
33C
100
AcDbEntity
  8
RACCORDO
100
AcDbLine
 62
7
  6
CONTINUOUS
 10
-64.1178796554
 20
-36.867818493
 11
-69.1178796554
 21
-36.9114528319
  0
LINE
  5
33D
100
AcDbEntity
  8
RACCORDO
100
AcDbLine
 62
253
  6
CONTINUOUS
 10
-64.1178796554
 20
-35.8678565699
 11
-69.1178796554
 21
-35.9114909088
  0
LINE
  5
33E
100
AcDbEntity
  8
0
100
AcDbLine
 62
7
  6
CONTINUOUS
 10
-126.1178796554
 20
-43.8614528319
 11
-126.1178796554
 21
-29.8614528319
  0
LINE
  5
33F
100
AcDbEntity
  8
RACCORDO
100
AcDbLine
 62
7
  6
CONTINUOUS
 10
-71.1178796554
 20
-32.8614528319
 11
-69.1178796554
 21
-32.8439990963
  0
LINE
  5
340
100
AcDbEntity
  8
DRAFT
100
AcDbLine
 62
7
  6
CONTINUOUS
 10
-68.8962781109
 20
-32.8420652089
 11
-69.1178796554
 21
-32.8439990963
  0
LINE
  5
341
100
AcDbEntity
  8
RACCORDO
100
AcDbLine
 62
253
  6
CONTINUOUS
 10
-71.1178796554
 20
-31.8614909088
 11
-69.1178796554
 21
-31.8440371733
  0
LINE
  5
342
100
AcDbEntity
  8
0
100
AcDbLine
 62
253
  6
CONTINUOUS
 10
-123.1178796554
 20
-32.8614528319
 11
-126.1178796554
 21
-32.8614528319
  0
LINE
  5
343
100
AcDbEntity
  8
DRAFT
100
AcDbLine
 62
7
  6
CONTINUOUS
 10
-73.1178796554
 20
-32.8439990963
 11
-71.1178796554
 21
-32.8614528319
  0
LINE
  5
344
100
AcDbEntity
  8
RACCORDO
100
AcDbLine
 62
7
  6
CONTINUOUS
 10
-64.2080347468
 20
-31.9226268217
 11
-69.1178796554
 21
-31.8797792543
  0
LINE
  5
345
100
AcDbEntity
  8
ASSI
100
AcDbLine
 62
7
  6
CONTINUOUS
 10
-72.1376340555
 20
-32.151404776
 11
-71.1178796554
 21
-32.1614528319
  0
LINE
  5
346
100
AcDbEntity
  8
0
100
AcDbLine
 62
7
  6
CONTINUOUS
 10
-123.1178796554
 20
-29.8614528319
 11
-123.1178796554
 21
-43.8614528319
  0
LINE
  5
347
100
AcDbEntity
  8
ASSI
100
AcDbLine
 62
7
  6
CONTINUOUS
 10
-72.1376340555
 20
-30.1715008878
 11
-71.1178796554
 21
-30.1614528319
  0
LINE
  5
348
100
AcDbEntity
  8
0
100
AcDbLine
 62
7
  6
CONTINUOUS
 10
-123.1178796554
 20
-29.8614528319
 11
-126.1178796554
 21
-29.8614528319
  0
LINE
  5
349
100
AcDbEntity
  8
DRAFT
100
AcDbLine
 62
7
  6
CONTINUOUS
 10
-73.1354870484
 20
-27.8438454389
 11
-73.1178796554
 21
-27.8439990963
  0
LINE
  5
34A
100
AcDbEntity
  8
ASSI
100
AcDbLine
 62
7
  6
CONTINUOUS
 10
-72.1376340555
 20
-27.851404776
 11
-71.1178796554
 21
-27.8614528319
  0
LINE
  5
34B
100
AcDbEntity
  8
0
100
AcDbLine
 62
253
  6
CONTINUOUS
 10
-120.1178796554
 20
-49.8614528319
 11
-120.1178796554
 21
-46.8614528319
  0
LINE
  5
34C
100
AcDbEntity
  8
ASSI
100
AcDbLine
 62
7
  6
CONTINUOUS
 10
-72.1376340555
 20
-25.8715008878
 11
-71.1178796554
 21
-25.8614528319
  0
LINE
  5
34D
100
AcDbEntity
  8
RACCORDO
100
AcDbLine
 62
253
  6
CONTINUOUS
 10
-71.1178796554
 20
-24.361414755
 11
-73.1178796554
 21
-24.3788684906
  0
LINE
  5
34E
100
AcDbEntity
  8
DRAFT
100
AcDbLine
 62
7
  6
CONTINUOUS
 10
-73.1178796554
 20
-24.0789065675
 11
-75.1178796554
 21
-24.0963603031
  0
LINE
  5
34F
100
AcDbEntity
  8
RACCORDO
100
AcDbLine
 62
7
  6
CONTINUOUS
 10
-71.1178796554
 20
-23.3614528319
 11
-73.1178796554
 21
-23.3789065675
  0
LWPOLYLINE
  5
350
100
AcDbEntity
  8
0
100
AcDbPolyline
 62
7
  6
CONTINUOUS
 90
31
 70
0
 10
-67.5269882823
 20
-14.6114528319
 10
-67.4445040106
 20
-14.5933577918
 10
-67.3272145367
 20
-14.5670735647
 10
-67.2141662417
 20
-14.5411091635
 10
-67.1056492369
 20
-14.5154825402
 10
-67.001728373
 20
-14.4901665843
 10
-66.9031083632
 20
-14.4653032252
 10
-66.8100743146
 20
-14.4409535229
 10
-66.7223462485
 20
-14.4170418206
 10
-66.6396726993
 20
-14.393497176
 10
-66.562066095
 20
-14.3703248297
 10
-66.4893887045
 20
-14.3474918418
 10
-66.4211692566
 20
-14.3248530298
 10
-66.3573261658
 20
-14.3023776174
 10
-66.2977871638
 20
-14.2800395541
 10
-66.2421158935
 20
-14.2576639801
 10
-66.1901784169
 20
-14.2351680828
 10
-66.1419539356
 20
-14.2125099142
 10
-66.0971432546
 20
-14.1894999892
 10
-66.0556868551
 20
-14.1660343406
 10
-66.017464951
 20
-14.1419512815
 10
-65.9820748138
 20
-14.1168306438
 10
-65.9496203391
 20
-14.0904933564
 10
-65.9201090469
 20
-14.0626100033
 10
-65.8931865171
 20
-14.0322535753
 10
-65.8688438521
 20
-13.9983839624
 10
-65.8482172485
 20
-13.9612468203
 10
-65.8325702696
 20
-13.9221146716
 10
-65.8224192466
 20
-13.8817461784
 10
-65.818025428
 20
-13.8400754511
 10
-65.8178965115
 20
-13.8311718397
  0
LINE
  5
351
100
AcDbEntity
  8
0
100
AcDbLine
 62
7
  6
CONTINUOUS
 10
-67.450479127
 20
-14.193330131
 11
-67.6738318618
 21
-14.2425698728
  0
LINE
  5
352
100
AcDbEntity
  8
0
100
AcDbLine
 62
7
  6
CONTINUOUS
 10
-69.1178796554
 20
-14.9472960742
 11
-68.9173808144
 21
-14.9034752327
  0
LINE
  5
353
100
AcDbEntity
  8
0
100
AcDbLine
 62
7
  6
CONTINUOUS
 10
-68.9140971203
 20
-14.5021833804
 11
-69.1178796554
 21
-14.5461931448
  0
LINE
  5
354
100
AcDbEntity
  8
0
100
AcDbLine
 62
7
  6
CONTINUOUS
 10
-67.6738318618
 20
-14.2425698728
 11
-67.9099633028
 21
-14.2929438692
  0
LINE
  5
355
100
AcDbEntity
  8
0
100
AcDbLine
 62
7
  6
CONTINUOUS
 10
-68.9173808144
 20
-14.9034752327
 11
-68.6854626577
 21
-14.8542318519
  0
LINE
  5
356
100
AcDbEntity
  8
0
100
AcDbLine
 62
7
  6
CONTINUOUS
 10
-67.939426077
 20
-14.6993687636
 11
-67.6877970134
 21
-14.6462496133
  0
LINE
  5
357
100
AcDbEntity
  8
0
100
AcDbLine
 62
7
  6
CONTINUOUS
 10
-68.536527536
 20
-14.4230487938
 11
-68.9140971203
 21
-14.5021833804
  0
LWPOLYLINE
  5
358
100
AcDbEntity
  8
0
100
AcDbPolyline
 62
7
  6
CONTINUOUS
 90
3
 70
0
 10
-67.9099633028
 20
-14.2929438692
 10
-68.2822277722
 20
-14.3704596778
 10
-68.536527536
 20
-14.4230487938
  0
LINE
  5
359
100
AcDbEntity
  8
0
100
AcDbLine
 62
7
  6
CONTINUOUS
 10
-68.6854626577
 20
-14.8542318519
 11
-67.939426077
 21
-14.6993687636
  0
LINE
  5
35A
100
AcDbEntity
  8
DRAFT
100
AcDbLine
 62
7
  6
CONTINUOUS
 10
-66.1178796554
 20
-19.5352722285
 11
-69.1178796554
 21
-19.5614528319
  0
LINE
  5
35B
100
AcDbEntity
  8
RACCORDO
100
AcDbLine
 62
7
  6
CONTINUOUS
 10
-64.1178796554
 20
-19.4994920706
 11
-66.1180395755
 21
-19.5169472018
  0
LINE
  5
35C
100
AcDbEntity
  8
RACCORDO
100
AcDbLine
 62
253
  6
CONTINUOUS
 10
-64.1178796554
 20
-19.3907506185
 11
-65.3074078128
 21
-19.3907506185
  0
LWPOLYLINE
  5
35D
100
AcDbEntity
  8
0
100
AcDbPolyline
 62
7
  6
CONTINUOUS
 90
13
 70
0
 10
-66.0784490275
 20
-12.2411094255
 10
-66.0786300315
 20
-12.2411447365
 10
-66.0796233226
 20
-12.2413300932
 10
-66.0812078889
 20
-12.2416074797
 10
-66.0832555371
 20
-12.2419445497
 10
-66.0857513751
 20
-12.2423323348
 10
-66.0887229384
 20
-12.2427692225
 10
-66.0921051087
 20
-12.2432408777
 10
-66.0958937526
 20
-12.2437432696
 10
-66.1001047576
 20
-12.2442753301
 10
-66.1047031554
 20
-12.2448299875
 10
-66.1096895571
 20
-12.2454052408
 10
-66.1150747364
 20
-12.2460004022
  0
LWPOLYLINE
  5
35E
100
AcDbEntity
  8
0
100
AcDbPolyline
 62
7
  6
CONTINUOUS
 90
34
 70
0
 10
-66.0838842648
 20
-12.6446845557
 10
-66.0753241517
 20
-12.6437878785
 10
-66.0671000753
 20
-12.6428851427
 10
-66.0591980822
 20
-12.641974452
 10
-66.0515743615
 20
-12.6410499667
 10
-66.044225958
 20
-12.6401101401
 10
-66.0371365712
 20
-12.6391515165
 10
-66.0302388459
 20
-12.6381626512
 10
-66.0235371446
 20
-12.6371409466
 10
-66.01700451
 20
-12.6360785915
 10
-66.0105213451
 20
-12.6349498284
 10
-66.0041145801
 20
-12.6337508362
 10
-65.9977315288
 20
-12.6324619316
 10
-65.9911295627
 20
-12.6310161074
 10
-65.9843284701
 20
-12.6293910056
 10
-65.9772921559
 20
-12.6275467672
 10
-65.9696906271
 20
-12.625346522
 10
-65.9615225649
 20
-12.6227154666
 10
-65.9527960317
 20
-12.6195677764
 10
-65.9432077368
 20
-12.6156680964
 10
-65.9326362953
 20
-12.6107780782
 10
-65.9213411237
 20
-12.6047912963
 10
-65.9096198178
 20
-12.5976363823
 10
-65.8975687903
 20
-12.5891193351
 10
-65.8854139906
 20
-12.5790979841
 10
-65.8736393429
 20
-12.5676715262
 10
-65.8624912999
 20
-12.5548378399
 10
-65.8520819972
 20
-12.5405150991
 10
-65.8426576445
 20
-12.5247991212
 10
-65.8344452206
 20
-12.5078104478
 10
-65.827617617
 20
-12.4895642728
 10
-65.8223823958
 20
-12.4700486665
 10
-65.8190264647
 20
-12.4493592929
 10
-65.8178796649
 20
-12.4283342271
  0
LINE
  5
35F
100
AcDbEntity
  8
0
100
AcDbLine
 62
7
  6
CONTINUOUS
 10
-66.1150747364
 20
-12.2460004022
 11
-66.1269853307
 21
-12.2472378815
  0
LINE
  5
360
100
AcDbEntity
  8
0
100
AcDbLine
 62
7
  6
CONTINUOUS
 10
-66.1020498406
 20
-12.6464645668
 11
-66.0838842648
 21
-12.6446845557
  0
LWPOLYLINE
  5
361
100
AcDbEntity
  8
0
100
AcDbPolyline
 62
7
  6
CONTINUOUS
 90
3
 70
0
 10
-66.1321360182
 20
-12.6491237025
 10
-66.1217159307
 20
-12.6482376601
 10
-66.1020498406
 20
-12.6464645668
  0
LINE
  5
362
100
AcDbEntity
  8
RACCORDO
100
AcDbLine
 62
7
  6
CONTINUOUS
 10
-64.622793914
 20
-17.1114528319
 11
-69.1178796554
 21
-17.1114528319
  0
LINE
  5
363
100
AcDbEntity
  8
RACCORDO
100
AcDbLine
 62
253
  6
CONTINUOUS
 10
-66.1179928872
 20
-19.0875753317
 11
-65.6047898522
 21
-19.0920539868
  0
LINE
  5
364
100
AcDbEntity
  8
RACCORDO
100
AcDbLine
 62
7
  6
CONTINUOUS
 10
-65.6047898522
 20
-17.5921111022
 11
-69.1178796554
 21
-17.5614528319
  0
LWPOLYLINE
  5
365
100
AcDbEntity
  8
RACCORDO
100
AcDbPolyline
 62
253
  6
CONTINUOUS
 90
16
 70
0
 10
-65.6047898522
 20
-19.0920539868
 10
-65.5752539057
 20
-19.0956517204
 10
-65.5463757726
 20
-19.1022274983
 10
-65.5181554528
 20
-19.1117813205
 10
-65.4903092917
 20
-19.1245649055
 10
-65.463120944
 20
-19.1403265349
 10
-65.4374413736
 20
-19.1583110527
 10
-65.4132705805
 20
-19.1785184589
 10
-65.3906085648
 20
-19.2009487537
 10
-65.3703062902
 20
-19.2248467811
 10
-65.3523637569
 20
-19.2502125413
 10
-65.3367809649
 20
-19.2770460341
 10
-65.3244088781
 20
-19.3045921038
 10
-65.3155311511
 20
-19.3325990318
 10
-65.3098641294
 20
-19.3613185367
 10
-65.3074078128
 20
-19.3907506185
  0
LINE
  5
366
100
AcDbEntity
  8
0
100
AcDbLine
 62
7
  6
CONTINUOUS
 10
-66.1269853307
 20
-12.2472378815
 11
-66.1404373507
 21
-12.2485318003
  0
LINE
  5
367
100
AcDbEntity
  8
0
100
AcDbLine
 62
7
  6
CONTINUOUS
 10
-66.1404373507
 20
-12.2485318003
 11
-66.1554228348
 21
-12.2498727835
  0
LINE
  5
368
100
AcDbEntity
  8
0
100
AcDbLine
 62
7
  6
CONTINUOUS
 10
-66.1554228348
 20
-12.2498727835
 11
-66.1719569623
 21
-12.2512552544
  0
LINE
  5
369
100
AcDbEntity
  8
0
100
AcDbLine
 62
7
  6
CONTINUOUS
 10
-66.1541952613
 20
-12.6508980391
 11
-66.1321360182
 21
-12.6491237025
  0
LINE
  5
36A
100
AcDbEntity
  8
0
100
AcDbLine
 62
7
  6
CONTINUOUS
 10
-66.1719569623
 20
-12.2512552544
 11
-66.190065599
 21
-12.2526755004
  0
LINE
  5
36B
100
AcDbEntity
  8
0
100
AcDbLine
 62
7
  6
CONTINUOUS
 10
-66.1779208012
 20
-12.652677722
 11
-66.1541952613
 21
-12.6508980391
  0
LINE
  5
36C
100
AcDbEntity
  8
0
100
AcDbLine
 62
7
  6
CONTINUOUS
 10
-66.190065599
 20
-12.2526755004
 11
-66.2202334654
 21
-12.2548699146
  0
LINE
  5
36D
100
AcDbEntity
  8
0
100
AcDbLine
 62
7
  6
CONTINUOUS
 10
-66.2167175535
 20
-12.6553612436
 11
-66.1779208012
 21
-12.652677722
  0
LINE
  5
36E
100
AcDbEntity
  8
0
100
AcDbLine
 62
7
  6
CONTINUOUS
 10
-66.2202334654
 20
-12.2548699146
 11
-66.2541024545
 21
-12.2571354206
  0
LINE
  5
36F
100
AcDbEntity
  8
0
100
AcDbLine
 62
7
  6
CONTINUOUS
 10
-66.2594243817
 20
-12.6580632065
 11
-66.2167175535
 21
-12.6553612436
  0
LINE
  5
370
100
AcDbEntity
  8
0
100
AcDbLine
 62
7
  6
CONTINUOUS
 10
-66.2541024545
 20
-12.2571354206
 11
-66.2917874081
 21
-12.259467562
  0
LINE
  5
371
100
AcDbEntity
  8
0
100
AcDbLine
 62
7
  6
CONTINUOUS
 10
-66.3060487213
 20
-12.6607825732
 11
-66.2594243817
 21
-12.6580632065
  0
LINE
  5
372
100
AcDbEntity
  8
0
100
AcDbLine
 62
7
  6
CONTINUOUS
 10
-66.2917874081
 20
-12.259467562
 11
-66.3481793862
 21
-12.2626759345
  0
LINE
  5
373
100
AcDbEntity
  8
0
100
AcDbLine
 62
7
  6
CONTINUOUS
 10
-66.3742817873
 20
-12.6644337477
 11
-66.3060487213
 21
-12.6607825732
  0
LINE
  5
374
100
AcDbEntity
  8
0
100
AcDbLine
 62
7
  6
CONTINUOUS
 10
-66.3481793862
 20
-12.2626759345
 11
-66.4289299603
 21
-12.2668386896
  0
LINE
  5
375
100
AcDbEntity
  8
0
100
AcDbLine
 62
7
  6
CONTINUOUS
 10
-66.4694749266
 20
-12.6690481785
 11
-66.3742817873
 21
-12.6644337477
  0
LINE
  5
376
100
AcDbEntity
  8
0
100
AcDbLine
 62
7
  6
CONTINUOUS
 10
-66.4289299603
 20
-12.2668386896
 11
-66.5414814888
 21
-12.2720477233
  0
LINE
  5
377
100
AcDbEntity
  8
0
100
AcDbLine
 62
7
  6
CONTINUOUS
 10
-66.5985379912
 20
-12.6746781022
 11
-66.4694749266
 21
-12.6690481785
  0
LINE
  5
378
100
AcDbEntity
  8
0
100
AcDbLine
 62
7
  6
CONTINUOUS
 10
-66.5414814888
 20
-12.2720477233
 11
-66.695172069
 21
-12.2784094929
  0
LINE
  5
379
100
AcDbEntity
  8
0
100
AcDbLine
 62
7
  6
CONTINUOUS
 10
-66.7962289529
 20
-12.6823726573
 11
-66.5985379912
 21
-12.6746781022
  0
LINE
  5
37A
100
AcDbEntity
  8
0
100
AcDbLine
 62
7
  6
CONTINUOUS
 10
-66.695172069
 20
-12.2784094929
 11
-66.9292123084
 21
-12.2870309617
  0
LINE
  5
37B
100
AcDbEntity
  8
0
100
AcDbLine
 62
7
  6
CONTINUOUS
 10
-67.1478960725
 20
-12.6943911494
 11
-66.7962289529
 21
-12.6823726573
  0
LINE
  5
37C
100
AcDbEntity
  8
0
100
AcDbLine
 62
7
  6
CONTINUOUS
 10
-66.9292123084
 20
-12.2870309617
 11
-67.2393707102
 21
-12.2972481407
  0
LWPOLYLINE
  5
37D
100
AcDbEntity
  8
0
100
AcDbPolyline
 62
7
  6
CONTINUOUS
 90
3
 70
0
 10
-67.2393707102
 20
-12.2972481407
 10
-67.6859415491
 20
-12.3106144602
 10
-67.727459276
 20
-12.3118073201
  0
LINE
  5
37E
100
AcDbEntity
  8
0
100
AcDbLine
 62
7
  6
CONTINUOUS
 10
-67.7182005742
 20
-12.7115524211
 11
-67.1478960725
 21
-12.6943911494
  0
LINE
  5
37F
100
AcDbEntity
  8
0
100
AcDbLine
 62
7
  6
CONTINUOUS
 10
-69.1178796554
 20
-12.750966054
 11
-68.8020600373
 21
-12.7418458534
  0
LINE
  5
380
100
AcDbEntity
  8
0
100
AcDbLine
 62
7
  6
CONTINUOUS
 10
-68.8184194846
 20
-12.3423024479
 11
-69.1178796554
 21
-12.3509461986
  0
LINE
  5
381
100
AcDbEntity
  8
0
100
AcDbLine
 62
7
  6
CONTINUOUS
 10
-67.8816639828
 20
-12.7161948415
 11
-67.7182005742
 21
-12.7115524211
  0
LINE
  5
382
100
AcDbEntity
  8
0
100
AcDbLine
 62
7
  6
CONTINUOUS
 10
-67.727459276
 20
-12.3118073201
 11
-67.9014826307
 21
-12.3167479165
  0
LINE
  5
383
100
AcDbEntity
  8
0
100
AcDbLine
 62
7
  6
CONTINUOUS
 10
-68.725085328
 20
-12.3396682673
 11
-68.8184194846
 21
-12.3423024479
  0
LINE
  5
384
100
AcDbEntity
  8
0
100
AcDbLine
 62
7
  6
CONTINUOUS
 10
-68.8020600373
 20
-12.7418458534
 11
-68.6609293352
 21
-12.7378723152
  0
LWPOLYLINE
  5
385
100
AcDbEntity
  8
0
100
AcDbPolyline
 62
7
  6
CONTINUOUS
 90
3
 70
0
 10
-68.0109033125
 20
-12.7198188349
 10
-67.967191707
 20
-12.7185967681
 10
-67.8816639828
 20
-12.7161948415
  0
LINE
  5
386
100
AcDbEntity
  8
0
100
AcDbLine
 62
7
  6
CONTINUOUS
 10
-67.9014826307
 20
-12.3167479165
 11
-67.9934034879
 21
-12.3193270372
  0
LINE
  5
387
100
AcDbEntity
  8
0
100
AcDbLine
 62
7
  6
CONTINUOUS
 10
-68.6291503276
 20
-12.3369806539
 11
-68.725085328
 21
-12.3396682673
  0
LINE
  5
388
100
AcDbEntity
  8
0
100
AcDbLine
 62
7
  6
CONTINUOUS
 10
-68.6609293352
 20
-12.7378723152
 11
-68.5662191282
 21
-12.7352278882
  0
LINE
  5
389
100
AcDbEntity
  8
0
100
AcDbLine
 62
7
  6
CONTINUOUS
 10
-67.9934034879
 20
-12.3193270372
 11
-68.0882582469
 21
-12.3219727327
  0
LINE
  5
38A
100
AcDbEntity
  8
0
100
AcDbLine
 62
7
  6
CONTINUOUS
 10
-68.5314413265
 20
-12.334258884
 11
-68.6291503276
 21
-12.3369806539
  0
LINE
  5
38B
100
AcDbEntity
  8
0
100
AcDbLine
 62
7
  6
CONTINUOUS
 10
-68.5662191282
 20
-12.7352278882
 11
-68.0109033125
 21
-12.7198188349
  0
LINE
  5
38C
100
AcDbEntity
  8
0
100
AcDbLine
 62
7
  6
CONTINUOUS
 10
-68.0882582469
 20
-12.3219727327
 11
-68.5314413265
 21
-12.334258884
  0
LINE
  5
38D
100
AcDbEntity
  8
RACCORDO
100
AcDbLine
 62
7
  6
CONTINUOUS
 10
-67.6770622036
 20
-14.6114528319
 11
-67.2421437241
 21
-14.6114528319
  0
LINE
  5
38E
100
AcDbEntity
  8
0
100
AcDbLine
 62
7
  6
CONTINUOUS
 10
-68.0479256626
 20
-12.1358281187
 11
-68.5907458933
 21
-12.1207682155
  0
LINE
  5
38F
100
AcDbEntity
  8
0
100
AcDbLine
 62
7
  6
CONTINUOUS
 10
-68.001476698
 20
-12.1371239972
 11
-68.0479256626
 21
-12.1358281187
  0
LINE
  5
390
100
AcDbEntity
  8
0
100
AcDbLine
 62
7
  6
CONTINUOUS
 10
-68.5907458933
 20
-12.1207682155
 11
-68.6951591644
 21
-12.1178476
  0
LINE
  5
391
100
AcDbEntity
  8
0
100
AcDbLine
 62
7
  6
CONTINUOUS
 10
-67.8650912016
 20
-12.1409520417
 11
-68.001476698
 21
-12.1371239972
  0
LINE
  5
392
100
AcDbEntity
  8
0
100
AcDbLine
 62
7
  6
CONTINUOUS
 10
-67.7332646966
 20
-12.1446959155
 11
-67.8650912016
 21
-12.1409520417
  0
LINE
  5
393
100
AcDbEntity
  8
0
100
AcDbLine
 62
7
  6
CONTINUOUS
 10
-68.6951591644
 20
-12.1178476
 11
-69.1178796554
 21
-12.105713004
  0
LINE
  5
394
100
AcDbEntity
  8
0
100
AcDbLine
 62
7
  6
CONTINUOUS
 10
-67.0496631461
 20
-12.1654892899
 11
-67.7332646966
 21
-12.1446959155
  0
LINE
  5
395
100
AcDbEntity
  8
0
100
AcDbLine
 62
7
  6
CONTINUOUS
 10
-66.7543554448
 20
-12.175863804
 11
-67.0496631461
 21
-12.1654892899
  0
LINE
  5
396
100
AcDbEntity
  8
0
100
AcDbLine
 62
7
  6
CONTINUOUS
 10
-66.5826089239
 20
-12.1826652849
 11
-66.7543554448
 21
-12.175863804
  0
LINE
  5
397
100
AcDbEntity
  8
0
100
AcDbLine
 62
7
  6
CONTINUOUS
 10
-66.4570306036
 20
-12.1882087217
 11
-66.5826089239
 21
-12.1826652849
  0
LINE
  5
398
100
AcDbEntity
  8
0
100
AcDbLine
 62
7
  6
CONTINUOUS
 10
-66.3668344414
 20
-12.192628372
 11
-66.4570306036
 21
-12.1882087217
  0
LINE
  5
399
100
AcDbEntity
  8
0
100
AcDbLine
 62
7
  6
CONTINUOUS
 10
-66.3035922114
 20
-12.1960351813
 11
-66.3668344414
 21
-12.192628372
  0
LINE
  5
39A
100
AcDbEntity
  8
0
100
AcDbLine
 62
7
  6
CONTINUOUS
 10
-66.247703247
 20
-12.1993354915
 11
-66.3035922114
 21
-12.1960351813
  0
LINE
  5
39B
100
AcDbEntity
  8
0
100
AcDbLine
 62
7
  6
CONTINUOUS
 10
-66.2102084497
 20
-12.2017515902
 11
-66.247703247
 21
-12.1993354915
  0
LINE
  5
39C
100
AcDbEntity
  8
0
100
AcDbLine
 62
7
  6
CONTINUOUS
 10
-66.1761990222
 20
-12.2041270653
 11
-66.2102084497
 21
-12.2017515902
  0
LINE
  5
39D
100
AcDbEntity
  8
0
100
AcDbLine
 62
7
  6
CONTINUOUS
 10
-66.1553269368
 20
-12.2056938202
 11
-66.1761990222
 21
-12.2041270653
  0
LINE
  5
39E
100
AcDbEntity
  8
0
100
AcDbLine
 62
7
  6
CONTINUOUS
 10
-66.1358097024
 20
-12.2072512634
 11
-66.1553269368
 21
-12.2056938202
  0
LINE
  5
39F
100
AcDbEntity
  8
0
100
AcDbLine
 62
7
  6
CONTINUOUS
 10
-66.1175642034
 20
-12.2088046409
 11
-66.1358097024
 21
-12.2072512634
  0
LINE
  5
3A0
100
AcDbEntity
  8
0
100
AcDbLine
 62
7
  6
CONTINUOUS
 10
-66.1004973535
 20
-12.2103613076
 11
-66.1175642034
 21
-12.2088046409
  0
LINE
  5
3A1
100
AcDbEntity
  8
0
100
AcDbLine
 62
7
  6
CONTINUOUS
 10
-66.0845497045
 20
-12.2119269832
 11
-66.1004973535
 21
-12.2103613076
  0
LINE
  5
3A2
100
AcDbEntity
  8
0
100
AcDbLine
 62
7
  6
CONTINUOUS
 10
-68.186497741
 20
-12.9116512979
 11
-68.4384105581
 21
-12.8595642083
  0
LINE
  5
3A3
100
AcDbEntity
  8
0
100
AcDbLine
 62
7
  6
CONTINUOUS
 10
-68.0963596105
 20
-16.3170535591
 11
-67.9820138082
 21
-16.3409193229
  0
LINE
  5
3A4
100
AcDbEntity
  8
0
100
AcDbLine
 62
7
  6
CONTINUOUS
 10
-67.9139609359
 20
-15.9549723055
 11
-68.6294810967
 21
-15.8064889752
  0
LINE
  5
3A5
100
AcDbEntity
  8
0
100
AcDbLine
 62
7
  6
CONTINUOUS
 10
-68.8496926945
 20
-16.1604762099
 11
-68.0963596105
 21
-16.3170535591
  0
LINE
  5
3A6
100
AcDbEntity
  8
0
100
AcDbLine
 62
7
  6
CONTINUOUS
 10
-68.8439443817
 20
-13.175026256
 11
-68.0863046718
 21
-13.3324795315
  0
LINE
  5
3A7
100
AcDbEntity
  8
0
100
AcDbLine
 62
7
  6
CONTINUOUS
 10
-68.0863046718
 20
-13.3324795315
 11
-67.8463909599
 21
-13.3828148454
  0
LINE
  5
3A8
100
AcDbEntity
  8
0
100
AcDbLine
 62
7
  6
CONTINUOUS
 10
-68.6294810967
 20
-15.8064889752
 11
-68.8689892567
 21
-15.7558957462
  0
LWPOLYLINE
  5
3A9
100
AcDbEntity
  8
0
100
AcDbPolyline
 62
7
  6
CONTINUOUS
 90
22
 70
0
 10
-67.8463909599
 20
-13.3828148454
 10
-67.6180824551
 20
-13.4318740713
 10
-67.5092171229
 20
-13.4558562072
 10
-67.404128808
 20
-13.4794763795
 10
-67.303113417
 20
-13.5027039599
 10
-67.2064070505
 20
-13.5255129985
 10
-67.1140226002
 20
-13.5479228809
 10
-67.0259018265
 20
-13.569966996
 10
-66.9421382256
 20
-13.5916373647
 10
-66.8627873374
 20
-13.6129295822
 10
-66.7877572262
 20
-13.6338751514
 10
-66.7170781576
 20
-13.6544697535
 10
-66.6508117232
 20
-13.6746939592
 10
-66.5889524084
 20
-13.6945422594
 10
-66.5314766346
 20
-13.7140105341
 10
-66.4784585284
 20
-13.7330546006
 10
-66.4300698141
 20
-13.751577832
 10
-66.3862522892
 20
-13.7695520524
 10
-66.3470359857
 20
-13.7869005117
 10
-66.3127322008
 20
-13.8033820918
 10
-66.2832123382
 20
-13.8189111115
 10
-66.2621945466
 20
-13.8311385802
  0
LWPOLYLINE
  5
3AA
100
AcDbEntity
  8
0
100
AcDbPolyline
 62
7
  6
CONTINUOUS
 90
3
 70
0
 10
-68.8689892567
 20
-15.7558957462
 10
-69.0965182494
 20
-15.7064627984
 10
-69.1178796554
 20
-15.7016885023
  0
LWPOLYLINE
  5
3AB
100
AcDbEntity
  8
0
100
AcDbPolyline
 62
7
  6
CONTINUOUS
 90
3
 70
0
 10
-69.1178796554
 20
-16.1028109844
 10
-69.096490792
 20
-16.1075226722
 10
-68.8496926945
 20
-16.1604762099
  0
LWPOLYLINE
  5
3AC
100
AcDbEntity
  8
0
100
AcDbPolyline
 62
7
  6
CONTINUOUS
 90
3
 70
0
 10
-69.1178796554
 20
-13.1161437328
 10
-69.0966704639
 20
-13.1208180502
 10
-68.8439443817
 20
-13.175026256
  0
LINE
  5
3AD
100
AcDbEntity
  8
DRAFT
100
AcDbLine
 62
7
  6
CONTINUOUS
 10
-73.1354870484
 20
28.1209397751
 11
-75.1178796554
 21
26.1385471681
  0
LINE
  5
3AE
100
AcDbEntity
  8
0
100
AcDbLine
 62
7
  6
CONTINUOUS
 10
-68.4384105581
 20
-12.8595642083
 11
-68.688610996
 21
-12.8074332354
  0
LINE
  5
3AF
100
AcDbEntity
  8
0
100
AcDbLine
 62
7
  6
CONTINUOUS
 10
-67.8161744012
 20
-12.9888237785
 11
-68.186497741
 21
-12.9116512979
  0
LWPOLYLINE
  5
3B0
100
AcDbEntity
  8
0
100
AcDbPolyline
 62
7
  6
CONTINUOUS
 90
3
 70
0
 10
-68.688610996
 20
-12.8074332354
 10
-68.932066717
 20
-12.7556882785
 10
-68.9732158076
 20
-12.7467410273
  0
LINE
  5
3B1
100
AcDbEntity
  8
0
100
AcDbLine
 62
7
  6
CONTINUOUS
 10
-67.5810042322
 20
-13.0390611689
 11
-67.8161744012
 21
-12.9888237785
  0
LINE
  5
3B2
100
AcDbEntity
  8
DRAFT
100
AcDbLine
 62
7
  6
CONTINUOUS
 10
-75.1178796554
 20
-25.8614528319
 11
-73.1354870484
 21
-27.8438454389
  0
LINE
  5
3B3
100
AcDbEntity
  8
DRAFT
100
AcDbLine
 62
7
  6
CONTINUOUS
 10
-71.1178796554
 20
-2.7661903416
 11
-73.1178796554
 21
-2.7526391265
  0
LINE
  5
3B4
100
AcDbEntity
  8
DRAFT
100
AcDbLine
 62
7
  6
CONTINUOUS
 10
-75.1178796554
 20
-2.8265453607
 11
-73.1178796554
 21
-2.8439990963
  0
LINE
  5
3B5
100
AcDbEntity
  8
DRAFT
100
AcDbLine
 62
7
  6
CONTINUOUS
 10
-75.1178796554
 20
3.1036396969
 11
-73.1178796554
 21
3.1210934325
  0
LINE
  5
3B6
100
AcDbEntity
  8
DRAFT
100
AcDbLine
 62
7
  6
CONTINUOUS
 10
-71.1178796554
 20
3.0432846777
 11
-73.1178796554
 21
3.0297334627
  0
LINE
  5
3B7
100
AcDbEntity
  8
ASSI
100
AcDbLine
 62
7
  6
CONTINUOUS
 10
-69.1178796554
 20
2.8884781681
 11
-68.9178796554
 21
2.8884781681
  0
LINE
  5
3B8
100
AcDbEntity
  8
ASSI
100
AcDbLine
 62
7
  6
CONTINUOUS
 10
-69.1178796554
 20
5.3885971681
 11
-68.9178796554
 21
5.3885971681
  0
LINE
  5
3B9
100
AcDbEntity
  8
RACCORDO
100
AcDbLine
 62
7
  6
CONTINUOUS
 10
-66.9300116898
 20
15.4264151337
 11
-64.2936155867
 21
18.0628112368
  0
LINE
  5
3BA
100
AcDbEntity
  8
RACCORDO
100
AcDbLine
 62
7
  6
CONTINUOUS
 10
-64.703666093
 20
-17.0256663943
 11
-67.0300116898
 21
-14.6993207976
  0
LINE
  5
3BB
100
AcDbEntity
  8
0
100
AcDbLine
 62
253
  6
CONTINUOUS
 10
-81.1178796554
 20
-49.8614528319
 11
-81.1178796554
 21
-46.8614528319
  0
LINE
  5
3BC
100
AcDbEntity
  8
RACCORDO
100
AcDbLine
 62
7
  6
CONTINUOUS
 10
-67.438997467
 20
15.3385471681
 11
-67.1421437241
 21
15.3385471681
  0
LINE
  5
3BD
100
AcDbEntity
  8
0
100
AcDbLine
 62
7
  6
CONTINUOUS
 10
-78.1178796554
 20
-43.8614528319
 11
-78.1178796554
 21
50.1385471681
  0
LINE
  5
3BE
100
AcDbEntity
  8
0
100
AcDbLine
 62
7
  6
CONTINUOUS
 10
-75.1178796554
 20
50.1385471681
 11
-75.1178796554
 21
-43.8614528319
  0
LINE
  5
3BF
100
AcDbEntity
  8
DRAFT
100
AcDbLine
 62
7
  6
CONTINUOUS
 10
-69.1178796554
 20
17.8721699878
 11
-68.1164746928
 21
17.8669265957
  0
LINE
  5
3C0
100
AcDbEntity
  8
DRAFT
100
AcDbLine
 62
7
  6
CONTINUOUS
 10
-73.1178796554
 20
23.6560009037
 11
-73.1178796554
 21
3.0297334627
  0
LINE
  5
3C1
100
AcDbEntity
  8
DRAFT
100
AcDbLine
 62
7
  6
CONTINUOUS
 10
-73.1178796554
 20
-2.7526391265
 11
-73.1178796554
 21
-23.3789065675
  0
LINE
  5
3C2
100
AcDbEntity
  8
RACCORDO
100
AcDbLine
 62
7
  6
CONTINUOUS
 10
-73.1178796554
 20
-32.8439990963
 11
-73.1178796554
 21
-23.3789065675
  0
LINE
  5
3C3
100
AcDbEntity
  8
RACCORDO
100
AcDbLine
 62
7
  6
CONTINUOUS
 10
-73.1178796554
 20
23.6560009037
 11
-73.1178796554
 21
33.1210934325
  0
LINE
  5
3C4
100
AcDbEntity
  8
ASSI
100
AcDbLine
 62
253
  6
CONTINUOUS
 10
-72.1376340555
 20
-32.151404776
 11
-72.1376340555
 21
-30.1715008878
  0
LINE
  5
3C5
100
AcDbEntity
  8
ASSI
100
AcDbLine
 62
253
  6
CONTINUOUS
 10
-72.1376340555
 20
-27.851404776
 11
-72.1376340555
 21
-25.8715008878
  0
LINE
  5
3C6
100
AcDbEntity
  8
ASSI
100
AcDbLine
 62
253
  6
CONTINUOUS
 10
-72.1376340555
 20
26.148595224
 11
-72.1376340555
 21
28.1284991122
  0
LINE
  5
3C7
100
AcDbEntity
  8
ASSI
100
AcDbLine
 62
253
  6
CONTINUOUS
 10
-72.1376340555
 20
30.448595224
 11
-72.1376340555
 21
32.4284991122
  0
LINE
  5
3C8
100
AcDbEntity
  8
RACCORDO
100
AcDbLine
 62
7
  6
CONTINUOUS
 10
-71.1178796554
 20
-32.8614528319
 11
-71.1178796554
 21
33.1385471681
  0
LINE
  5
3C9
100
AcDbEntity
  8
RACCORDO
100
AcDbLine
 62
7
  6
CONTINUOUS
 10
-71.1178796554
 20
23.6385471681
 11
-73.1178796554
 21
23.6560009037
  0
LINE
  5
3CA
100
AcDbEntity
  8
DRAFT
100
AcDbLine
 62
7
  6
CONTINUOUS
 10
-64.6136907488
 20
19.0779599573
 11
-69.1178796554
 21
19.8721699878
  0
LINE
  5
3CB
100
AcDbEntity
  8
RACCORDO
100
AcDbLine
 62
7
  6
CONTINUOUS
 10
-69.1178796554
 20
-36.9114528319
 11
-69.1178796554
 21
33.1210934325
  0
LINE
  5
3CC
100
AcDbEntity
  8
ASSI
100
AcDbLine
 62
7
  6
CONTINUOUS
 10
-68.9178796554
 20
5.3885971681
 11
-68.9178796554
 21
2.8884781681
  0
LINE
  5
3CD
100
AcDbEntity
  8
ASSI
100
AcDbLine
 62
7
  6
CONTINUOUS
 10
-72.1376340555
 20
28.1284991122
 11
-71.1178796554
 21
28.1385471681
  0
LINE
  5
3CE
100
AcDbEntity
  8
DRAFT
100
AcDbLine
 62
7
  6
CONTINUOUS
 10
-73.1178796554
 20
28.1210934325
 11
-73.1354870484
 21
28.1209397751
  0
LINE
  5
3CF
100
AcDbEntity
  8
DRAFT
100
AcDbLine
 62
7
  6
CONTINUOUS
 10
-75.1178796554
 20
24.3734546393
 11
-73.1178796554
 21
24.3560009037
  0
LINE
  5
3D0
100
AcDbEntity
  8
RACCORDO
100
AcDbLine
 62
253
  6
CONTINUOUS
 10
-71.1178796554
 20
24.6385090912
 11
-73.1178796554
 21
24.6559628267
  0
LINE
  5
3D1
100
AcDbEntity
  8
ASSI
100
AcDbLine
 62
7
  6
CONTINUOUS
 10
-72.1376340555
 20
26.148595224
 11
-71.1178796554
 21
26.1385471681
  0
LWPOLYLINE
  5
3D2
100
AcDbEntity
  8
RACCORDO
100
AcDbPolyline
 62
253
  6
CONTINUOUS
 90
5
 70
0
 10
-65.6047898522
 20
-17.5921111022
 10
-65.6036989485
 20
-17.5978282394
 10
-65.6027159581
 20
-17.614916235
 10
-65.6018483615
 20
-17.6432450515
 10
-65.6011027608
 20
-17.6825991103
  0
LWPOLYLINE
  5
3D3
100
AcDbEntity
  8
0
100
AcDbPolyline
 62
7
  6
CONTINUOUS
 90
35
 70
0
 10
-65.8178796645
 20
-12.4283452126
 10
-65.8189077931
 20
-12.4084409082
 10
-65.8219989783
 20
-12.3884457638
 10
-65.8270309155
 20
-12.368969595
 10
-65.8338574954
 20
-12.3502542121
 10
-65.8422475456
 20
-12.3326425867
 10
-65.8520783878
 20
-12.3161699224
 10
-65.8631476097
 20
-12.3010218297
 10
-65.8749601318
 20
-12.2876274425
 10
-65.8872507027
 20
-12.275962461
 10
-65.899804922
 20
-12.2658814925
 10
-65.9120960467
 20
-12.2574449178
 10
-65.9238357496
 20
-12.2504935362
 10
-65.934947186
 20
-12.2447764205
 10
-65.9452299682
 20
-12.2401483856
 10
-65.9544292273
 20
-12.2364947104
 10
-65.9626539782
 20
-12.2335821401
 10
-65.970283337
 20
-12.231153197
 10
-65.9773083903
 20
-12.229128339
 10
-65.9837097404
 20
-12.2274438139
 10
-65.9898670391
 20
-12.2259542315
 10
-65.995838717
 20
-12.2246198027
 10
-66.001570416
 20
-12.2234304759
 10
-66.0072772701
 20
-12.2223257512
 10
-66.0130006798
 20
-12.2212886427
 10
-66.0187123864
 20
-12.2203163759
 10
-66.0245237623
 20
-12.2193840957
 10
-66.0304578658
 20
-12.218484581
 10
-66.0365061011
 20
-12.2176160135
 10
-66.0427312224
 20
-12.2167670591
 10
-66.0491485693
 20
-12.2159342312
 10
-66.0557568112
 20
-12.2151164697
 10
-66.0625919933
 20
-12.2143084037
 10
-66.0696650286
 20
-12.2135082115
 10
-66.0845497045
 20
-12.2119269832
  0
LWPOLYLINE
  5
3D4
100
AcDbEntity
  8
RACCORDO
100
AcDbPolyline
 62
253
  6
CONTINUOUS
 90
31
 70
0
 10
-64.1178796554
 20
-19.0920539868
 10
-64.1219244284
 20
-18.9822168978
 10
-64.1338471144
 20
-18.8749603584
 10
-64.1533920653
 20
-18.7708387389
 10
-64.1806178756
 20
-18.669542723
 10
-64.2153446702
 20
-18.5722526717
 10
-64.2566818724
 20
-18.4814785338
 10
-64.3046028986
 20
-18.3971736989
 10
-64.3590161753
 20
-18.319644169
 10
-64.4182032866
 20
-18.2514717713
 10
-64.4818824513
 20
-18.1930541013
 10
-64.5502798105
 20
-18.1440566784
 10
-64.6215559744
 20
-18.1055733431
 10
-64.6950722827
 20
-18.0780530294
 10
-64.7709791302
 20
-18.06142389
 10
-64.847766785
 20
-18.0556593924
 10
-64.9245915243
 20
-18.061092846
 10
-65.0011731472
 20
-18.0778856267
 10
-65.0762984721
 20
-18.1053631682
 10
-65.149105698
 20
-18.1436178796
 10
-65.218937301
 20
-18.1927045807
 10
-65.2846656496
 20
-18.2514383623
 10
-65.3453964451
 20
-18.3196482468
 10
-65.4006548808
 20
-18.3969671958
 10
-65.4499999661
 20
-18.4814785338
 10
-65.4933895781
 20
-18.5724450109
 10
-65.5302083806
 20
-18.6694634934
 10
-65.5594866949
 20
-18.7707775151
 10
-65.5811859234
 20
-18.8752639226
 10
-65.5960697171
 20
-18.9825830178
 10
-65.6047898522
 20
-19.0920539868
  0
LWPOLYLINE
  5
3D5
100
AcDbEntity
  8
0
100
AcDbPolyline
 62
7
  6
CONTINUOUS
 90
32
 70
0
 10
-65.8178830003
 20
-13.8319389493
 10
-65.8180831921
 20
-13.8205728919
 10
-65.8225175633
 20
-13.780030937
 10
-65.8323814807
 20
-13.7407936643
 10
-65.847409566
 20
-13.7027845573
 10
-65.8670953395
 20
-13.666712631
 10
-65.8902332471
 20
-13.633791124
 10
-65.9157378855
 20
-13.604269174
 10
-65.9435865438
 20
-13.5771786722
 10
-65.9740655208
 20
-13.5516572176
 10
-66.007111905
 20
-13.5274028801
 10
-66.0425987983
 20
-13.5042376177
 10
-66.0809013317
 20
-13.4817368356
 10
-66.1221095109
 20
-13.4597433647
 10
-66.1662460279
 20
-13.4381620878
 10
-66.2135967314
 20
-13.416796467
 10
-66.2642701655
 20
-13.3955638772
 10
-66.3182912843
 20
-13.3744249185
 10
-66.3757527755
 20
-13.353317711
 10
-66.4366102966
 20
-13.3322338394
 10
-66.5009424986
 20
-13.3111218568
 10
-66.5689780474
 20
-13.2898898138
 10
-66.6406839202
 20
-13.2685339489
 10
-66.7160918734
 20
-13.2470285903
 10
-66.7955370214
 20
-13.2252663132
 10
-66.8790246982
 20
-13.2032362534
 10
-66.9665200115
 20
-13.1809341585
 10
-67.058316776
 20
-13.1582713812
 10
-67.1544429775
 20
-13.1352269334
 10
-67.2547626373
 20
-13.1118137575
 10
-67.3593100934
 20
-13.0879988979
 10
-67.5810042322
 20
-13.0390611689
  0
LINE
  5
3D6
100
AcDbEntity
  8
RACCORDO
100
AcDbLine
 62
253
  6
CONTINUOUS
 10
-65.6011027608
 20
-17.6825991103
 11
-65.5999992716
 21
-17.7931034171
  0
LINE
  5
3D7
100
AcDbEntity
  8
RACCORDO
100
AcDbLine
 62
253
  6
CONTINUOUS
 10
-65.5999992716
 20
-17.7931034171
 11
-65.599368583
 21
-18.0314745837
  0
LINE
  5
3D8
100
AcDbEntity
  8
RACCORDO
100
AcDbLine
 62
7
  6
CONTINUOUS
 10
-66.8178796554
 20
-17.1114528319
 11
-66.8178796554
 21
-17.5815246278
  0
LINE
  5
3D9
100
AcDbEntity
  8
RACCORDO
100
AcDbLine
 62
7
  6
CONTINUOUS
 10
-66.8178796554
 20
-32.6602289058
 11
-66.8178796554
 21
-36.891381036
  0
LINE
  5
3DA
100
AcDbEntity
  8
RACCORDO
100
AcDbLine
 62
7
  6
CONTINUOUS
 10
-66.1178796554
 20
-19.0746002512
 11
-66.1178796554
 21
-19.5352722285
  0
LINE
  5
3DB
100
AcDbEntity
  8
RACCORDO
100
AcDbLine
 62
253
  6
CONTINUOUS
 10
-65.3074078128
 20
-32.528079743
 11
-65.3074078128
 21
-31.9130327383
  0
LINE
  5
3DC
100
AcDbEntity
  8
RACCORDO
100
AcDbLine
 62
253
  6
CONTINUOUS
 10
-65.3074078128
 20
-19.5098729256
 11
-65.3074078128
 21
-19.3907506185
  0
LINE
  5
3DD
100
AcDbEntity
  8
RACCORDO
100
AcDbLine
 62
7
  6
CONTINUOUS
 10
-64.1178796554
 20
-18.4398799567
 11
-64.1178796554
 21
-36.867818493
  0
LINE
  5
3DE
100
AcDbEntity
  8
RACCORDO
100
AcDbLine
 62
253
  6
CONTINUOUS
 10
-65.599368583
 20
-18.0314745837
 11
-65.5999992716
 21
-18.3421155162
  0
LINE
  5
3DF
100
AcDbEntity
  8
RACCORDO
100
AcDbLine
 62
253
  6
CONTINUOUS
 10
-65.5999992716
 20
-18.3421155162
 11
-65.6018483615
 21
-18.7038585893
  0
LINE
  5
3E0
100
AcDbEntity
  8
RACCORDO
100
AcDbLine
 62
253
  6
CONTINUOUS
 10
-65.6018483615
 20
-18.7038585893
 11
-65.6047898522
 21
-19.0920539868
  0
LINE
  5
3E1
100
AcDbEntity
  8
0
100
AcDbLine
 62
7
  6
CONTINUOUS
 10
-68.1178796554
 20
-17.1114528319
 11
-67.6770622036
 21
-14.6114528319
  0
LWPOLYLINE
  5
3E2
100
AcDbEntity
  8
0
100
AcDbPolyline
 62
7
  6
CONTINUOUS
 90
24
 70
0
 10
-66.2070128006
 20
-13.7897364344
 10
-66.2074733697
 20
-13.7902670065
 10
-66.2124493042
 20
-13.7953770181
 10
-66.2223686275
 20
-13.8040054723
 10
-66.2368293801
 20
-13.8148486305
 10
-66.2560076589
 20
-13.8274976744
 10
-66.2803860395
 20
-13.8418440453
 10
-66.3096821004
 20
-13.8574045841
 10
-66.3439970018
 20
-13.8740201548
 10
-66.3834956409
 20
-13.8915972193
 10
-66.427946146
 20
-13.9099055456
 10
-66.4773811058
 20
-13.928871575
 10
-66.5318900554
 20
-13.9484593233
 10
-66.5913374196
 20
-13.9685685306
 10
-66.6557124323
 20
-13.9891617678
 10
-66.7250488045
 20
-14.0102255571
 10
-66.7992910792
 20
-14.0317277461
 10
-66.8784279889
 20
-14.0536582633
 10
-66.9624030098
 20
-14.0760018196
 10
-67.0510904162
 20
-14.0987332913
 10
-67.1444381619
 20
-14.1218544291
 10
-67.24229874
 20
-14.1453499264
 10
-67.3443700573
 20
-14.1691765154
 10
-67.450479127
 20
-14.193330131
  0
LINE
  5
3E3
100
AcDbEntity
  8
ASSI
100
AcDbLine
 62
7
  6
CONTINUOUS
 10
-72.1376340555
 20
30.448595224
 11
-71.1178796554
 21
30.4385471681
  0
LINE
  5
3E4
100
AcDbEntity
  8
DRAFT
100
AcDbLine
 62
7
  6
CONTINUOUS
 10
-68.1164746928
 20
17.8669265957
 11
-67.438997467
 21
15.3385471681
  0
LINE
  5
3E5
100
AcDbEntity
  8
ASSI
100
AcDbLine
 62
7
  6
CONTINUOUS
 10
-72.1376340555
 20
32.4284991122
 11
-71.1178796554
 21
32.4385471681
  0
LINE
  5
3E6
100
AcDbEntity
  8
DRAFT
100
AcDbLine
 62
7
  6
CONTINUOUS
 10
-73.1178796554
 20
33.1210934325
 11
-71.1178796554
 21
33.1385471681
  0
LINE
  5
3E7
100
AcDbEntity
  8
RACCORDO
100
AcDbLine
 62
253
  6
CONTINUOUS
 10
-69.1178796554
 20
32.1211315094
 11
-71.1178796554
 21
32.138585245
  0
LINE
  5
3E8
100
AcDbEntity
  8
RACCORDO
100
AcDbLine
 62
7
  6
CONTINUOUS
 10
-69.1178796554
 20
33.1210934325
 11
-71.1178796554
 21
33.1385471681
  0
LINE
  5
3E9
100
AcDbEntity
  8
0
100
AcDbLine
 62
253
  6
CONTINUOUS
 10
-78.1178796554
 20
47.1385471681
 11
-75.1178796554
 21
47.1385471681
  0
LINE
  5
3EA
100
AcDbEntity
  8
0
100
AcDbLine
 62
7
  6
CONTINUOUS
 10
-78.1178796554
 20
50.1385471681
 11
-75.1178796554
 21
50.1385471681
  0
ARC
  5
3EB
100
AcDbEntity
  8
DRAFT
100
AcDbCircle
 62
7
  6
CONTINUOUS
 10
-17.0835549679
 20
0.1385471681
 40
3.0
100
AcDbArc
 50
284.4775121859
 51
309.3446726718
  0
ARC
  5
3EC
100
AcDbEntity
  8
DRAFT
100
AcDbCircle
 62
7
  6
CONTINUOUS
 10
-17.0835549679
 20
0.1385471681
 40
3.0
100
AcDbArc
 50
50.6553273282
 51
75.5224878141
  0
ARC
  5
3ED
100
AcDbEntity
  8
DRAFT
100
AcDbCircle
 62
7
  6
CONTINUOUS
 10
-17.0835549679
 20
0.1385471681
 40
3.0
100
AcDbArc
 50
104.4775121859
 51
129.3446726718
  0
ARC
  5
3EE
100
AcDbEntity
  8
DRAFT
100
AcDbCircle
 62
7
  6
CONTINUOUS
 10
-17.0835549679
 20
0.1385471681
 40
3.0
100
AcDbArc
 50
230.6553273282
 51
255.5224878141
  0
ARC
  5
3EF
100
AcDbEntity
  8
0
100
AcDbCircle
 62
7
  6
CONTINUOUS
 10
-46.8335549679
 20
-32.8614528319
 40
3.0
100
AcDbArc
 50
90.0
 51
180.0
  0
ARC
  5
3F0
100
AcDbEntity
  8
DRAFT
100
AcDbCircle
 62
7
  6
CONTINUOUS
 10
-17.0835549679
 20
0.1385471681
 40
2.9825462644
100
AcDbArc
 50
255.7820533455
 51
284.2179466545
  0
ARC
  5
3F1
100
AcDbEntity
  8
DRAFT
100
AcDbCircle
 62
7
  6
CONTINUOUS
 10
-17.0835549679
 20
0.1385471681
 40
2.9825462644
100
AcDbArc
 50
75.7820533455
 51
104.2179466545
  0
ARC
  5
3F2
100
AcDbEntity
  8
DRAFT
100
AcDbCircle
 62
7
  6
CONTINUOUS
 10
-17.0835549679
 20
0.1385471681
 40
2.9650925288
100
AcDbArc
 50
230.109272559
 51
309.890727441
  0
ARC
  5
3F3
100
AcDbEntity
  8
DRAFT
100
AcDbCircle
 62
7
  6
CONTINUOUS
 10
-17.0835549679
 20
0.1385471681
 40
2.9650925288
100
AcDbArc
 50
50.109272559
 51
129.890727441
  0
ARC
  5
3F4
100
AcDbEntity
  8
0
100
AcDbCircle
 62
7
  6
CONTINUOUS
 10
-45.3335549679
 20
-13.3614528319
 40
1.5
100
AcDbArc
 50
180.0
 51
360.0
  0
CIRCLE
  5
3F5
100
AcDbEntity
  8
0
100
AcDbCircle
 62
7
  6
CONTINUOUS
 10
-17.0835549679
 20
0.1385471681
 40
1.49
  0
ARC
  5
3F6
100
AcDbEntity
  8
0
100
AcDbCircle
 62
7
  6
CONTINUOUS
 10
-13.8335549679
 20
-42.8614528319
 40
1.0
100
AcDbArc
 50
90.0
 51
180.0
  0
ARC
  5
3F7
100
AcDbEntity
  8
0
100
AcDbCircle
 62
7
  6
CONTINUOUS
 10
-17.0835549679
 20
36.1385471681
 40
3.6
100
AcDbArc
 50
0.0
 51
180.0
  0
ARC
  5
3F8
100
AcDbEntity
  8
0
100
AcDbCircle
 62
7
  6
CONTINUOUS
 10
-46.8335549679
 20
47.1385471681
 40
3.0
100
AcDbArc
 50
90.0
 51
180.0
  0
ARC
  5
3F9
100
AcDbEntity
  8
0
100
AcDbCircle
 62
7
  6
CONTINUOUS
 10
-17.0835549679
 20
36.1385471681
 40
1.9
100
AcDbArc
 50
0.0
 51
180.0
  0
ARC
  5
3FA
100
AcDbEntity
  8
0
100
AcDbCircle
 62
7
  6
CONTINUOUS
 10
-13.3335549679
 20
45.6385471681
 40
1.5
100
AcDbArc
 50
90.0
 51
270.0
  0
ARC
  5
3FB
100
AcDbEntity
  8
0
100
AcDbCircle
 62
7
  6
CONTINUOUS
 10
-45.3335549679
 20
13.6385471681
 40
1.5
100
AcDbArc
 50
0.0
 51
180.0
  0
ARC
  5
3FC
100
AcDbEntity
  8
0
100
AcDbCircle
 62
7
  6
CONTINUOUS
 10
-3.8335549679
 20
9.4261581877
 40
1.0
100
AcDbArc
 50
90.0
 51
180.0
  0
ARC
  5
3FD
100
AcDbEntity
  8
DRAFT
100
AcDbCircle
 62
7
  6
CONTINUOUS
 10
17.4164450321
 20
0.1385471681
 40
3.0
100
AcDbArc
 50
104.4775121859
 51
129.3446726718
  0
ARC
  5
3FE
100
AcDbEntity
  8
DRAFT
100
AcDbCircle
 62
7
  6
CONTINUOUS
 10
17.4164450321
 20
0.1385471681
 40
3.0
100
AcDbArc
 50
230.6553273282
 51
255.5224878141
  0
ARC
  5
3FF
100
AcDbEntity
  8
DRAFT
100
AcDbCircle
 62
7
  6
CONTINUOUS
 10
17.4164450321
 20
0.1385471681
 40
3.0
100
AcDbArc
 50
284.4775121859
 51
309.3446726718
  0
ARC
  5
400
100
AcDbEntity
  8
DRAFT
100
AcDbCircle
 62
7
  6
CONTINUOUS
 10
17.4164450321
 20
0.1385471681
 40
3.0
100
AcDbArc
 50
50.6553273282
 51
75.5224878141
  0
ARC
  5
401
100
AcDbEntity
  8
0
100
AcDbCircle
 62
7
  6
CONTINUOUS
 10
47.1664450321
 20
-32.8614528319
 40
3.0
100
AcDbArc
 50
0.0
 51
90.0
  0
ARC
  5
402
100
AcDbEntity
  8
DRAFT
100
AcDbCircle
 62
7
  6
CONTINUOUS
 10
17.4164450321
 20
0.1385471681
 40
2.9825462644
100
AcDbArc
 50
75.7820533455
 51
104.2179466545
  0
ARC
  5
403
100
AcDbEntity
  8
DRAFT
100
AcDbCircle
 62
7
  6
CONTINUOUS
 10
17.4164450321
 20
0.1385471681
 40
2.9825462644
100
AcDbArc
 50
255.7820533455
 51
284.2179466545
  0
ARC
  5
404
100
AcDbEntity
  8
DRAFT
100
AcDbCircle
 62
7
  6
CONTINUOUS
 10
17.4164450321
 20
0.1385471681
 40
2.9650925288
100
AcDbArc
 50
230.109272559
 51
309.890727441
  0
ARC
  5
405
100
AcDbEntity
  8
DRAFT
100
AcDbCircle
 62
7
  6
CONTINUOUS
 10
17.4164450321
 20
0.1385471681
 40
2.9650925288
100
AcDbArc
 50
50.109272559
 51
129.890727441
  0
ARC
  5
406
100
AcDbEntity
  8
0
100
AcDbCircle
 62
7
  6
CONTINUOUS
 10
45.6664450321
 20
-13.3614528319
 40
1.5
100
AcDbArc
 50
180.0
 51
360.0
  0
CIRCLE
  5
407
100
AcDbEntity
  8
0
100
AcDbCircle
 62
7
  6
CONTINUOUS
 10
17.4164450321
 20
0.1385471681
 40
1.49
  0
ARC
  5
408
100
AcDbEntity
  8
0
100
AcDbCircle
 62
7
  6
CONTINUOUS
 10
14.1664450321
 20
-42.8614528319
 40
1.0
100
AcDbArc
 50
0.0
 51
90.0
  0
ARC
  5
409
100
AcDbEntity
  8
0
100
AcDbCircle
 62
7
  6
CONTINUOUS
 10
17.4164450321
 20
36.1385471681
 40
3.6
100
AcDbArc
 50
0.0
 51
180.0
  0
ARC
  5
40A
100
AcDbEntity
  8
0
100
AcDbCircle
 62
7
  6
CONTINUOUS
 10
47.1664450321
 20
47.1385471681
 40
3.0
100
AcDbArc
 50
0.0
 51
90.0
  0
ARC
  5
40B
100
AcDbEntity
  8
0
100
AcDbCircle
 62
7
  6
CONTINUOUS
 10
17.4164450321
 20
36.1385471681
 40
1.9
100
AcDbArc
 50
0.0
 51
180.0
  0
ARC
  5
40C
100
AcDbEntity
  8
0
100
AcDbCircle
 62
7
  6
CONTINUOUS
 10
13.6664450321
 20
45.6385471681
 40
1.5
100
AcDbArc
 50
270.0
 51
90.0
  0
ARC
  5
40D
100
AcDbEntity
  8
0
100
AcDbCircle
 62
7
  6
CONTINUOUS
 10
45.6664450321
 20
13.6385471681
 40
1.5
100
AcDbArc
 50
0.0
 51
180.0
  0
ARC
  5
40E
100
AcDbEntity
  8
0
100
AcDbCircle
 62
7
  6
CONTINUOUS
 10
4.1664450321
 20
9.4261581877
 40
1.0
100
AcDbArc
 50
0.0
 51
90.0
  0
ARC
  5
40F
100
AcDbEntity
  8
0
100
AcDbCircle
 62
7
  6
CONTINUOUS
 10
-81.1178796554
 20
-43.8614528319
 40
6.0
100
AcDbArc
 50
270.0
 51
360.0
  0
ARC
  5
410
100
AcDbEntity
  8
0
100
AcDbCircle
 62
7
  6
CONTINUOUS
 10
-120.1178796554
 20
-43.8614528319
 40
6.0
100
AcDbArc
 50
180.0
 51
270.0
  0
ARC
  5
411
100
AcDbEntity
  8
0
100
AcDbCircle
 62
7
  6
CONTINUOUS
 10
-120.1178796554
 20
-43.8614528319
 40
3.0
100
AcDbArc
 50
180.0
 51
270.0
  0
ARC
  5
412
100
AcDbEntity
  8
0
100
AcDbCircle
 62
7
  6
CONTINUOUS
 10
-81.1178796554
 20
-43.8614528319
 40
3.0
100
AcDbArc
 50
270.0
 51
360.0
  0
ARC
  5
413
100
AcDbEntity
  8
RACCORDO
100
AcDbCircle
 62
7
  6
CONTINUOUS
 10
-66.1178796554
 20
-18.4398799567
 40
2.0
100
AcDbArc
 50
0.0
 51
45.0
  0
ARC
  5
414
100
AcDbEntity
  8
RACCORDO
100
AcDbCircle
 62
7
  6
CONTINUOUS
 10
-65.6178796554
 20
-19.0920539868
 40
1.5
100
AcDbArc
 50
0.0
 51
89.5
  0
ARC
  5
415
100
AcDbEntity
  8
RACCORDO
100
AcDbCircle
 62
7
  6
CONTINUOUS
 10
-67.6178796554
 20
-19.0746002512
 40
1.5
100
AcDbArc
 50
0.0
 51
89.5
  0
ARC
  5
416
100
AcDbEntity
  8
RACCORDO
100
AcDbCircle
 62
7
  6
CONTINUOUS
 10
-65.1178796554
 20
-31.5076783403
 40
1.0
100
AcDbArc
 50
275.0
 51
360.0
  0
ARC
  5
417
100
AcDbEntity
  8
ASSI
100
AcDbCircle
 62
7
  6
CONTINUOUS
 10
-72.1278796554
 20
-26.8614528319
 40
0.99
100
AcDbArc
 50
90.5645404061
 51
269.4354595939
  0
ARC
  5
418
100
AcDbEntity
  8
ASSI
100
AcDbCircle
 62
7
  6
CONTINUOUS
 10
-72.1278796554
 20
27.1385471681
 40
0.99
100
AcDbArc
 50
90.5645404061
 51
269.4354595939
  0
ARC
  5
419
100
AcDbEntity
  8
ASSI
100
AcDbCircle
 62
7
  6
CONTINUOUS
 10
-72.1278796554
 20
-31.1614528319
 40
0.99
100
AcDbArc
 50
90.5645404061
 51
269.4354595939
  0
ARC
  5
41A
100
AcDbEntity
  8
ASSI
100
AcDbCircle
 62
7
  6
CONTINUOUS
 10
-72.1278796554
 20
31.4385471681
 40
0.99
100
AcDbArc
 50
90.5645404061
 51
269.4354595939
  0
ARC
  5
41B
100
AcDbEntity
  8
DRAFT
100
AcDbCircle
 62
7
  6
CONTINUOUS
 10
-64.7178796554
 20
18.4870753055
 40
0.6
100
AcDbArc
 50
315.0
 51
80.0
  0
ARC
  5
41C
100
AcDbEntity
  8
RACCORDO
100
AcDbCircle
 62
7
  6
CONTINUOUS
 10
-67.2421437241
 20
-14.9114528319
 40
0.3
100
AcDbArc
 50
45.0
 51
90.0
  0
ARC
  5
41D
100
AcDbEntity
  8
RACCORDO
100
AcDbCircle
 62
7
  6
CONTINUOUS
 10
-67.1421437241
 20
15.6385471681
 40
0.3
100
AcDbArc
 50
270.0
 51
315.0
  0
ELLIPSE
  5
41E
100
AcDbEntity
  8
RACCORDO
100
AcDbEllipse
 62
7
  6
CONTINUOUS
 10
19.1664069537
 20
24.6385852465
 30
0.0
 11
0.7071606311
 21
-0.7071606311
 31
0.0
 40
0.9999238505
 41
-0.7853600872
 42
-0.6347548994
  0
ELLIPSE
  5
41F
100
AcDbEntity
  8
RACCORDO
100
AcDbEllipse
 62
7
  6
CONTINUOUS
 10
19.1664069537
 20
-24.3614909103
 30
0.0
 11
0.7071606311
 21
0.7071606311
 31
0.0
 40
0.9999238505
 41
0.6347594693
 42
0.7853600872
  0
ELLIPSE
  5
420
100
AcDbEntity
  8
DRAFT
100
AcDbEllipse
 62
7
  6
CONTINUOUS
 10
0.1664450321
 20
-24.0370176021
 30
0.0
 11
4.0
 21
-0.0
 31
0.0
 40
0.0087268678
 41
-2.366195157
 42
-0.7753974966
  0
ELLIPSE
  5
421
100
AcDbEntity
  8
RACCORDO
100
AcDbEllipse
 62
7
  6
CONTINUOUS
 10
-18.8335168895
 20
24.6385852465
 30
0.0
 11
0.7071606311
 21
0.7071606311
 31
0.0
 40
0.9999238505
 41
-2.5068331842
 42
-2.3562325664
  0
ELLIPSE
  5
422
100
AcDbEntity
  8
RACCORDO
100
AcDbEllipse
 62
7
  6
CONTINUOUS
 10
-18.8335168895
 20
-24.3614909103
 30
0.0
 11
0.7071606311
 21
-0.7071606311
 31
0.0
 40
0.9999238505
 41
2.3562325664
 42
2.5068377542
  0
ELLIPSE
  5
423
100
AcDbEntity
  8
RACCORDO
100
AcDbEllipse
 62
7
  6
CONTINUOUS
 10
-18.8160631539
 20
-24.3789446459
 30
0.0
 11
0.7071606311
 21
-0.7071606311
 31
0.0
 40
0.9999238505
 41
2.3562325664
 42
2.5244348891
  0
ELLIPSE
  5
424
100
AcDbEntity
  8
RACCORDO
100
AcDbEllipse
 62
7
  6
CONTINUOUS
 10
-18.8160631539
 20
24.6560389821
 30
0.0
 11
0.7071606311
 21
0.7071606311
 31
0.0
 40
0.9999238505
 41
3.7587556651
 42
3.9269527408
  0
ELLIPSE
  5
425
100
AcDbEntity
  8
RACCORDO
100
AcDbEllipse
 62
7
  6
CONTINUOUS
 10
19.1489532181
 20
-24.3789446459
 30
0.0
 11
-0.7071606311
 21
-0.7071606311
 31
0.0
 40
0.9999238505
 41
3.7587556651
 42
3.9269527408
  0
ELLIPSE
  5
426
100
AcDbEntity
  8
RACCORDO
100
AcDbEllipse
 62
7
  6
CONTINUOUS
 10
19.1489532181
 20
24.6560389821
 30
0.0
 11
-0.7071606311
 21
0.7071606311
 31
0.0
 40
0.9999238505
 41
2.3562325664
 42
2.5244348891
  0
ENDSEC
  0
SECTION
  2
OBJECTS
  0
DICTIONARY
  5
C
100
AcDbDictionary
280
0
281
1
  3
ACAD_GROUP
350
D
  3
ACAD_MLINESTYLE
350
17
  3
ACAD_LAYOUT
350
1A
  3
ACAD_PLOTSETTINGS
350
19
  3
ACAD_PLOTSTYLENAME
350
E
  0
DICTIONARY
  5
D
102
{ACAD_REACTORS
330
C
102
}
100
AcDbDictionary
280
0
281
1
  0
ACDBDICTIONARYWDFLT
  5
E
102
{ACAD_REACTORS
330
C
102
}
100
AcDbDictionary
281
1
  3
Normal
350
F
100
AcDbDictionaryWithDefault
340
F
  0
DICTIONARY
  5
17
102
{ACAD_REACTORS
330
C
102
}
100
AcDbDictionary
280
0
281
1
  3
Standard
350
18
  0
DICTIONARY
  5
19
102
{ACAD_REACTORS
330
C
102
}
100
AcDbDictionary
281
1
  0
DICTIONARY
  5
1A
102
{ACAD_REACTORS
330
C
102
}
100
AcDbDictionary
281
1
  3
Model
350
427
  3
Layout1
350
428
  0
ACDBPLACEHOLDER
  5
F
102
{ACAD_REACTORS
330
E
102
}
  0
MLINESTYLE
  5
18
102
{ACAD_REACTORS
330
17
102
}
100
AcDbMlineStyle
  2
STANDARD
 70
0
  3

 62
256
 51
90.0
 52
90.0
 71
2
 49
0.5
 62
256
  6
BYLAYER
 49
-0.5
 62
256
  6
BYLAYER
  0
LAYOUT
  5
427
102
{ACAD_REACTORS
330
1A
102
}
100
AcDbPlotSettings
  1

  2
none_device
  4
ISO_A4_(297.00_x_210.00_MM)
  6

 40
0.0
 41
0.0
 42
0.0
 43
0.0
 44
297.0
 45
210.0
 46
0.0
 47
0.0
 48
0.0
 49
0.0
140
0.0
141
0.0
142
1.0
143
1.0
 70
1024
 72
1
 73
0
 74
0
  7

 75
0
147
1.0
148
0.0
149
0.0
100
AcDbLayout
  1
Model
 70
0
 71
0
 10
0.0
 20
0.0
 11
297.0
 21
210.0
 12
0.0
 22
0.0
 32
0.0
 14
0.0
 24
0.0
 34
0.0
 15
0.0
 25
0.0
 35
0.0
146
0.0
 13
0.0
 23
0.0
 33
0.0
 16
1.0
 26
0.0
 36
0.0
 17
0.0
 27
1.0
 37
0.0
 76
0
330
213
345
0
346
0
  0
LAYOUT
  5
428
102
{ACAD_REACTORS
330
1A
102
}
100
AcDbPlotSettings
  1

  2
none_device
  4
ISO_A4_(297.00_x_210.00_MM)
  6

 40
0.0
 41
0.0
 42
0.0
 43
0.0
 44
297.0
 45
210.0
 46
0.0
 47
0.0
 48
0.0
 49
0.0
140
0.0
141
0.0
142
1.0
143
1.0
 70
0
 72
1
 73
0
 74
0
  7

 75
0
147
1.0
148
0.0
149
0.0
100
AcDbLayout
  1
Layout1
 70
0
 71
1
 10
0.0
 20
0.0
 11
297.0
 21
210.0
 12
0.0
 22
0.0
 32
0.0
 14
0.0
 24
0.0
 34
0.0
 15
0.0
 25
0.0
 35
0.0
146
0.0
 13
0.0
 23
0.0
 33
0.0
 16
1.0
 26
0.0
 36
0.0
 17
0.0
 27
1.0
 37
0.0
 76
0
330
214
345
0
346
0
  0
ENDSEC
  0
EOF
