  0
SECTION
  2
HEADER
  9
$ACADVER
  1
AC1024
  9
$DWGCODEPAGE
  3
ANSI_1252
  9
$EXTMAX
 10
297.0
 20
210.0
 30
0.0
  9
$EXTMIN
 10
0.0
 20
0.0
 30
0.0
  9
$LIMMIN
 10
0.0
 20
0.0
  9
$LIMMAX
 10
297.0
 20
210.0
  9
$VIEWCTR
 10
148.5
 20
105.0
  9
$VIEWSIZE
 40
210.0
  9
$CLAYER
  8
0
  9
$LTSCALE
 40
16.335
  9
$CELTYPE
  6
BYLAYER
  9
$DIMSCALE
 40
1.0
  9
$DIMASZ
 40
3.0
  9
$DIMEXO
 40
0.5
  9
$DIMDLI
 40
11.286
  9
$DIMEXE
 40
1.5
  9
$DIMCEN
 40
2.673
  9
$DIMLFAC
 40
1.0
  9
$DIMBLK
  1
_FILLED
  9
$DIMALT
 70
0
  9
$DIMALTF
 40
0.0393700787
  9
$DIMTXT
 40
3.0
  9
$DIMTOL
 70
1
  9
$DIMLIM
 70
0
  9
$DIMTFAC
 40
1.0
  9
$DIMTP
 40
0.01
  9
$DIMTM
 40
0.01
  9
$DIMGAP
 40
0.625
  9
$DIMDSEP
 70
44
  9
$AUNITS
 70
0
  9
$PDMODE
 70
3
  9
$PDSIZE
 40
3.0
  9
$HANDSEED
  5
316
  9
$TILEMODE
 70
1
  9
$MEASUREMENT
 70
1
  9
$INSUNITS
 70
4
  0
ENDSEC
  0
SECTION
  2
CLASSES
  0
CLASS
  1
ACDBDICTIONARYWDFLT
  2
AcDbDictionaryWithDefault
  3
AutoCAD 2000
 90
0
 91
1
280
0
281
0
  0
CLASS
  1
ACDBPLACEHOLDER
  2
AcDbPlaceHolder
  3
AutoCAD 2000
 90
0
 91
1
280
0
281
0
  0
CLASS
  1
LAYOUT
  2
AcDbLayout
  3
AutoCAD 2000
 90
0
 91
0
280
0
281
0
  0
ENDSEC
  0
SECTION
  2
TABLES
  0
TABLE
  2
VPORT
  5
8
100
AcDbSymbolTable
 70
2
  0
VPORT
  5
1F4
100
AcDbSymbolTableRecord
100
AcDbViewportTableRecord
  2
*ACTIVE
 70
0
 10
0.0
 20
0.0
 11
1.0
 21
1.0
 12
148.5
 22
105.0
 13
0.0
 23
0.0
 14
1.0
 24
1.0
 15
0.0
 25
0.0
 16
0.0
 26
0.0
 36
1.0
 17
0.0
 27
0.0
 37
0.0
 40
210.0
 41
1.4142857143
 42
50.0
 43
0.0
 44
0.0
 50
0.0
 51
0.0
 71
0
 72
100
 73
1
 74
1
 75
0
 76
0
 77
0
 78
0
  0
ENDTAB
  0
TABLE
  2
LTYPE
  5
5
100
AcDbSymbolTable
 70
6
  0
LTYPE
  5
14
100
AcDbSymbolTableRecord
100
AcDbLinetypeTableRecord
  2
BYBLOCK
 70
0
  3

 72
65
 73
0
 40
0.0
  0
LTYPE
  5
15
100
AcDbSymbolTableRecord
100
AcDbLinetypeTableRecord
  2
BYLAYER
 70
0
  3

 72
65
 73
0
 40
0.0
  0
LTYPE
  5
16
100
AcDbSymbolTableRecord
100
AcDbLinetypeTableRecord
  2
CONTINUOUS
 70
64
  3
Solid line
 72
65
 73
0
 40
0.0
  0
LTYPE
  5
1F5
100
AcDbSymbolTableRecord
100
AcDbLinetypeTableRecord
  2
CENTER
 70
64
  3
____ _ ____ _ ____ _ ____ _ ____ _ ____ _ ____
 72
65
 73
4
 40
0.6
 49
0.375
 74
0
 49
-0.075
 74
0
 49
0.075
 74
0
 49
-0.075
 74
0
  0
LTYPE
  5
1F6
100
AcDbSymbolTableRecord
100
AcDbLinetypeTableRecord
  2
HIDDEN
 70
64
  3
- - - - - - - - - - - - - - - - - - - -
 72
65
 73
2
 40
0.2
 49
0.1
 74
0
 49
-0.1
 74
0
  0
LTYPE
  5
1F7
100
AcDbSymbolTableRecord
100
AcDbLinetypeTableRecord
  2
PHANTOM
 70
64
  3
_____ _ _ _____ _ _ _____ _ _ _____
 72
65
 73
6
 40
0.8
 49
0.45
 74
0
 49
-0.05
 74
0
 49
0.1
 74
0
 49
-0.05
 74
0
 49
0.1
 74
0
 49
-0.05
 74
0
  0
LTYPE
  5
1F8
100
AcDbSymbolTableRecord
100
AcDbLinetypeTableRecord
  2
DOT
 70
64
  3
. . . . . . . . . . . . . . . . . . . .
 72
65
 73
2
 40
0.2
 49
0.1
 74
0
 49
-0.1
 74
0
  0
LTYPE
  5
1F9
100
AcDbSymbolTableRecord
100
AcDbLinetypeTableRecord
  2
DASHED
 70
64
  3
- - - - - - - - - - - - - - - - - - - -
 72
65
 73
2
 40
0.2
 49
0.1
 74
0
 49
-0.1
 74
0
  0
ENDTAB
  0
TABLE
  2
LAYER
  5
2
100
AcDbSymbolTable
 70
36
  0
LAYER
  5
10
100
AcDbSymbolTableRecord
100
AcDbLayerTableRecord
  2
0
 70
0
 62
7
  6
CONTINUOUS
370
-3
390
F
  0
LAYER
  5
1FA
100
AcDbSymbolTableRecord
100
AcDbLayerTableRecord
  2
DEFAULT_1
 70
0
 62
7
  6
CENTER
370
-3
390
F
  0
LAYER
  5
1FB
100
AcDbSymbolTableRecord
100
AcDbLayerTableRecord
  2
DEFAULT_2
 70
0
 62
7
  6
HIDDEN
370
-3
390
F
  0
LAYER
  5
1FC
100
AcDbSymbolTableRecord
100
AcDbLayerTableRecord
  2
DEFAULT_3
 70
0
 62
7
  6
PHANTOM
370
-3
390
F
  0
LAYER
  5
1FD
100
AcDbSymbolTableRecord
100
AcDbLayerTableRecord
  2
ASSI
 70
0
 62
7
  6
CONTINUOUS
370
-3
390
F
  0
LAYER
  5
1FE
100
AcDbSymbolTableRecord
100
AcDbLayerTableRecord
  2
COORDINATE
 70
0
 62
7
  6
CONTINUOUS
370
-3
390
F
  0
LAYER
  5
1FF
100
AcDbSymbolTableRecord
100
AcDbLayerTableRecord
  2
COSMETICI
 70
0
 62
7
  6
CONTINUOUS
370
-3
390
F
  0
LAYER
  5
200
100
AcDbSymbolTableRecord
100
AcDbLayerTableRecord
  2
CURVE
 70
0
 62
7
  6
CONTINUOUS
370
-3
390
F
  0
LAYER
  5
201
100
AcDbSymbolTableRecord
100
AcDbLayerTableRecord
  2
NONE_2
 70
0
 62
7
  6
CONTINUOUS
370
-3
390
F
  0
LAYER
  5
202
100
AcDbSymbolTableRecord
100
AcDbLayerTableRecord
  2
NONE_3
 70
0
 62
7
  6
CONTINUOUS
370
-3
390
F
  0
LAYER
  5
203
100
AcDbSymbolTableRecord
100
AcDbLayerTableRecord
  2
NOTE
 70
0
 62
7
  6
CONTINUOUS
370
-3
390
F
  0
LAYER
  5
204
100
AcDbSymbolTableRecord
100
AcDbLayerTableRecord
  2
PIANI
 70
0
 62
7
  6
CONTINUOUS
370
-3
390
F
  0
LAYER
  5
205
100
AcDbSymbolTableRecord
100
AcDbLayerTableRecord
  2
PUNTI
 70
0
 62
7
  6
CONTINUOUS
370
-3
390
F
  0
LAYER
  5
206
100
AcDbSymbolTableRecord
100
AcDbLayerTableRecord
  2
SIMBOLI
 70
0
 62
7
  6
CONTINUOUS
370
-3
390
F
  0
LAYER
  5
207
100
AcDbSymbolTableRecord
100
AcDbLayerTableRecord
  2
SUPERFICI
 70
0
 62
7
  6
CONTINUOUS
370
-3
390
F
  0
ENDTAB
  0
TABLE
  2
STYLE
  5
3
100
AcDbSymbolTable
 70
1
  0
STYLE
  5
11
100
AcDbSymbolTableRecord
100
AcDbTextStyleTableRecord
  2
STANDARD
 70
0
 40
0.0
 41
0.8
 50
0.0
 71
0
 42
0.2
  3
txt
  4

  0
STYLE
  5
208
100
AcDbSymbolTableRecord
100
AcDbTextStyleTableRecord
  2
TEXTSTYLE_1
 70
0
 40
0.0
 41
0.8
 50
0.0
 71
0
 42
0.2
  3
gdt
  4

  0
ENDTAB
  0
TABLE
  2
VIEW
  5
6
100
AcDbSymbolTable
 70
0
  0
ENDTAB
  0
TABLE
  2
UCS
  5
7
100
AcDbSymbolTable
 70
0
  0
ENDTAB
  0
TABLE
  2
APPID
  5
9
100
AcDbSymbolTable
 70
1
  0
APPID
  5
209
100
AcDbSymbolTableRecord
100
AcDbRegAppTableRecord
  2
ACAD
 70
0
  0
ENDTAB
  0
TABLE
  2
BLOCK_RECORD
  5
1
100
AcDbSymbolTable
 70
0
  0
BLOCK_RECORD
  5
20A
100
AcDbSymbolTableRecord
100
AcDbBlockTableRecord
  2
*Model_Space
  0
BLOCK_RECORD
  5
20B
100
AcDbSymbolTableRecord
100
AcDbBlockTableRecord
  2
*Paper_Space
  0
BLOCK_RECORD
  5
20C
100
AcDbSymbolTableRecord
100
AcDbBlockTableRecord
  2
_FILLED
  0
BLOCK_RECORD
  5
20D
100
AcDbSymbolTableRecord
100
AcDbBlockTableRecord
  2
*D0
  0
BLOCK_RECORD
  5
20E
100
AcDbSymbolTableRecord
100
AcDbBlockTableRecord
  2
*D1
  0
BLOCK_RECORD
  5
20F
100
AcDbSymbolTableRecord
100
AcDbBlockTableRecord
  2
*D2
  0
ENDTAB
  0
TABLE
  2
DIMSTYLE
  5
A
100
AcDbSymbolTable
 70
1
100
AcDbDimStyleTable
 71
0
  0
DIMSTYLE
105
210
100
AcDbSymbolTableRecord
100
AcDbDimStyleTableRecord
  2
STANDARD
 70
0
  3

  4

 40
1.0
 41
3.0
 42
0.5
 43
0.38
 44
1.5
 45
0.0
 46
0.0
 47
0.01
 48
0.01
140
3.0
141
0.09
142
0.0
143
25.4
144
1.0
145
0.0
146
1.0
147
0.625
 71
1
 72
0
 73
0
 74
0
 75
0
 76
0
 77
1
 78
8
 79
2
170
0
171
1
172
0
173
0
174
0
175
0
176
0
177
0
178
0
270
2
179
2
271
2
272
2
273
2
274
2
275
0
280
0
281
0
282
0
283
1
284
8
285
0
286
0
287
3
288
0
340
11
278
44
341
20C
342
20C
343
20C
344
20C
  0
DIMSTYLE
105
211
100
AcDbSymbolTableRecord
100
AcDbDimStyleTableRecord
  2
DIMSTYLE_1
 70
0
  3

  4

 40
1.0
 41
3.0
 42
0.5
 43
0.38
 44
1.5
 45
0.0
 46
0.0
 47
0.0
 48
0.0
140
3.0
141
0.09
142
0.0
143
25.4
144
1.0
145
0.0
146
1.0
147
0.75
 71
0
 72
0
 73
0
 74
0
 75
0
 76
0
 77
1
 78
8
 79
2
170
0
171
1
172
0
173
0
174
0
175
0
176
0
177
0
178
0
270
2
179
2
271
2
272
2
273
2
274
2
275
0
280
0
281
0
282
0
283
1
284
8
285
0
286
0
287
3
288
0
340
11
278
44
341
20C
342
20C
343
20C
344
20C
  0
ENDTAB
  0
ENDSEC
  0
SECTION
  2
BLOCKS
  0
BLOCK
  5
20
100
AcDbEntity
  8
0
100
AcDbBlockBegin
  2
*Model_Space
 70
0
 10
0.0
 20
0.0
 30
0.0
  3
*Model_Space
  1

  0
ENDBLK
  5
21
100
AcDbEntity
  8
0
100
AcDbBlockEnd
  0
BLOCK
  5
1C
100
AcDbEntity
  8
0
100
AcDbBlockBegin
  2
*Paper_Space
 70
0
 10
0.0
 20
0.0
 30
0.0
  3
*Paper_Space
  1

  0
ENDBLK
  5
1D
100
AcDbEntity
  8
0
100
AcDbBlockEnd
  0
BLOCK
  5
212
100
AcDbEntity
  8
0
100
AcDbBlockBegin
  2
_FILLED
 70
64
 10
0.0
 20
0.0
  3
_FILLED
  1

  0
SOLID
  5
213
100
AcDbEntity
  8
0
  6
BYBLOCK
 62
0
100
AcDbTrace
 10
0.0
 20
0.0
 11
-1.0
 21
0.3166666667
 12
-1.0
 22
-0.3166666667
 13
-1.0
 23
-0.3166666667
  0
ENDBLK
  5
214
100
AcDbEntity
  8
0
  6
BYBLOCK
 62
0
100
AcDbBlockEnd
  0
BLOCK
  5
215
100
AcDbEntity
  8
0
100
AcDbBlockBegin
 62
7
  6
CONTINUOUS
  2
*D0
 70
65
 10
0.0
 20
0.0
  3
*D0
  1

  0
LINE
  5
216
100
AcDbEntity
  8
0
100
AcDbLine
 62
7
  6
CONTINUOUS
 10
175.0
 20
130.499999985
 11
175.0
 21
174.2952368581
  0
LINE
  5
217
100
AcDbEntity
  8
0
100
AcDbLine
 62
7
  6
CONTINUOUS
 10
-175.0
 20
130.4999999855
 11
-175.0
 21
174.2952368581
  0
LINE
  5
218
100
AcDbEntity
  8
0
100
AcDbLine
 62
7
  6
CONTINUOUS
 10
175.0
 20
172.7952368581
 11
0.0
 21
172.7952368581
  0
LINE
  5
219
100
AcDbEntity
  8
0
100
AcDbLine
 62
7
  6
CONTINUOUS
 10
-175.0
 20
172.7952368581
 11
0.0
 21
172.7952368581
  0
INSERT
  5
21A
100
AcDbEntity
  8
0
100
AcDbBlockReference
 62
7
  6
CONTINUOUS
  2
_FILLED
 10
175.0
 20
172.7952368581
 41
3.0
 42
3.0
 43
3.0
  0
INSERT
  5
21B
100
AcDbEntity
  8
0
100
AcDbBlockReference
 62
7
  6
CONTINUOUS
  2
_FILLED
 10
-175.0
 20
172.7952368581
 41
3.0
 42
3.0
 43
3.0
 50
180.0
  0
ENDBLK
  5
21C
100
AcDbEntity
  8
0
  6
BYBLOCK
 62
0
100
AcDbBlockEnd
  0
BLOCK
  5
21D
100
AcDbEntity
  8
0
100
AcDbBlockBegin
 62
7
  6
CONTINUOUS
  2
*D1
 70
65
 10
0.0
 20
0.0
  3
*D1
  1

  0
LINE
  5
21E
100
AcDbEntity
  8
0
100
AcDbLine
 62
7
  6
CONTINUOUS
 10
150.499999985
 20
-155.0
 11
203.6704264492
 21
-155.0
  0
LINE
  5
21F
100
AcDbEntity
  8
0
100
AcDbLine
 62
7
  6
CONTINUOUS
 10
150.4999999855
 20
155.0
 11
203.6704264492
 21
155.0
  0
LINE
  5
220
100
AcDbEntity
  8
0
100
AcDbLine
 62
7
  6
CONTINUOUS
 10
202.1704264492
 20
-155.0
 11
202.1704264492
 21
-0.0
  0
LINE
  5
221
100
AcDbEntity
  8
0
100
AcDbLine
 62
7
  6
CONTINUOUS
 10
202.1704264492
 20
155.0
 11
202.1704264492
 21
-0.0
  0
INSERT
  5
222
100
AcDbEntity
  8
0
100
AcDbBlockReference
 62
7
  6
CONTINUOUS
  2
_FILLED
 10
202.1704264492
 20
-155.0
 41
3.0
 42
3.0
 43
3.0
 50
270.0
  0
INSERT
  5
223
100
AcDbEntity
  8
0
100
AcDbBlockReference
 62
7
  6
CONTINUOUS
  2
_FILLED
 10
202.1704264492
 20
155.0
 41
3.0
 42
3.0
 43
3.0
 50
90.0
  0
ENDBLK
  5
224
100
AcDbEntity
  8
0
  6
BYBLOCK
 62
0
100
AcDbBlockEnd
  0
BLOCK
  5
225
100
AcDbEntity
  8
0
100
AcDbBlockBegin
 62
7
  6
CONTINUOUS
  2
*D2
 70
65
 10
0.0
 20
0.0
  3
*D2
  1

  0
LINE
  5
226
100
AcDbEntity
  8
0
100
AcDbLine
 62
7
  6
CONTINUOUS
 10
-239.3189783309
 20
138.2661653624
 11
-239.3189783309
 21
174.2820325149
  0
LINE
  5
227
100
AcDbEntity
  8
0
100
AcDbLine
 62
7
  6
CONTINUOUS
 10
-324.3189783309
 20
153.1453262148
 11
-324.3189783309
 21
174.2820325149
  0
LINE
  5
228
100
AcDbEntity
  8
0
100
AcDbLine
 62
7
  6
CONTINUOUS
 10
-239.3189783309
 20
172.7820325149
 11
-281.8189783309
 21
172.7820325149
  0
LINE
  5
229
100
AcDbEntity
  8
0
100
AcDbLine
 62
7
  6
CONTINUOUS
 10
-324.3189783309
 20
172.7820325149
 11
-281.8189783309
 21
172.7820325149
  0
INSERT
  5
22A
100
AcDbEntity
  8
0
100
AcDbBlockReference
 62
7
  6
CONTINUOUS
  2
_FILLED
 10
-239.3189783309
 20
172.7820325149
 41
3.0
 42
3.0
 43
3.0
  0
INSERT
  5
22B
100
AcDbEntity
  8
0
100
AcDbBlockReference
 62
7
  6
CONTINUOUS
  2
_FILLED
 10
-324.3189783309
 20
172.7820325149
 41
3.0
 42
3.0
 43
3.0
 50
180.0
  0
ENDBLK
  5
22C
100
AcDbEntity
  8
0
  6
BYBLOCK
 62
0
100
AcDbBlockEnd
  0
ENDSEC
  0
SECTION
  2
ENTITIES
  0
DIMENSION
  5
22D
100
AcDbEntity
  8
0
100
AcDbDimension
 62
7
  6
CONTINUOUS
  2
*D0
 10
-175.0
 20
172.7952368581
 11
-3.3214285714
 21
172.7952368581
 70
160
 71
2
 72
2
 41
0.9
 42
350.0
  3
DIMSTYLE_1
100
AcDbAlignedDimension
 13
175.0
 23
129.999999985
 14
-175.0
 24
129.9999999855
 50
180.0
100
AcDbRotatedDimension
  0
DIMENSION
  5
22E
100
AcDbEntity
  8
0
100
AcDbDimension
 62
7
  6
CONTINUOUS
  2
*D1
 10
202.1704264492
 20
155.0
 11
202.1704264492
 21
-3.1071428571
 70
160
 71
2
 72
2
 41
0.9
 42
310.0
  3
DIMSTYLE_1
100
AcDbAlignedDimension
 13
149.999999985
 23
-155.0
 14
149.9999999855
 24
155.0
 50
90.0
100
AcDbRotatedDimension
  0
DIMENSION
  5
22F
100
AcDbEntity
  8
0
100
AcDbDimension
 62
7
  6
CONTINUOUS
  2
*D2
 10
-324.3189783309
 20
172.7820325149
 11
-284.0689783309
 21
172.7820325149
 70
160
 71
2
 72
2
 41
0.9
 42
85.0
  3
DIMSTYLE_1
100
AcDbAlignedDimension
 13
-239.3189783309
 23
137.7661653624
 14
-324.3189783309
 24
152.6453262148
 50
180.0
100
AcDbRotatedDimension
  0
LWPOLYLINE
  5
230
100
AcDbEntity
  8
0
100
AcDbPolyline
 62
250
  6
CONTINUOUS
 90
13
 70
0
 10
-149.9999982871
 20
154.6969830002
 10
-150.0129066239
 20
154.6749510477
 10
-150.0254578913
 20
154.6192016711
 10
-150.0374481981
 20
154.531749475
 10
-150.0486127393
 20
154.4160481466
 10
-150.0588848726
 20
154.2743724883
 10
-150.0683325518
 20
154.1057491896
 10
-150.0768094461
 20
153.9109722711
 10
-150.0840790286
 20
153.6933890033
 10
-150.0900022729
 20
153.4545754175
 10
-150.0944024922
 20
153.197432667
 10
-150.0970999521
 20
152.9265690418
 10
-150.0979533316
 20
152.646783278
  0
LWPOLYLINE
  5
231
100
AcDbEntity
  8
0
100
AcDbPolyline
 62
250
  6
CONTINUOUS
 90
22
 70
0
 10
-172.8309841583
 20
-130.0
 10
-172.7650408213
 20
-131.7070993122
 10
-172.5761210463
 20
-133.3866435333
 10
-172.2642235492
 20
-135.0386326634
 10
-171.8263028116
 20
-136.6720078712
 10
-171.2653992371
 20
-138.2778279881
 10
-170.5906394743
 20
-139.8292695073
 10
-169.8001630011
 20
-141.325341849
 10
-168.8958212657
 20
-142.7670355932
 10
-167.8923088707
 20
-144.1304989734
 10
-166.7880209204
 20
-145.4145073399
 10
-165.5845512691
 20
-146.6202853423
 10
-164.301393923
 20
-147.7276551635
 10
-162.9371822332
 20
-148.7349983234
 10
-161.4932721902
 20
-149.643933302
 10
-159.9932444025
 20
-150.4391377223
 10
-158.4346527587
 20
-151.1201661582
 10
-156.8199352222
 20
-151.6874640357
 10
-155.1800026733
 20
-152.1270452569
 10
-153.5251588005
 20
-152.4342477888
 10
-151.8450973119
 20
-152.6137336643
 10
-150.1398166465
 20
-152.6655028834
  0
LINE
  5
232
100
AcDbEntity
  8
0
100
AcDbLine
 62
7
  6
CONTINUOUS
 10
-175.0
 20
129.9999999855
 11
-175.0
 21
-129.999999985
  0
LINE
  5
233
100
AcDbEntity
  8
0
100
AcDbLine
 62
7
  6
CONTINUOUS
 10
-174.9860359481
 20
-129.9999999994
 11
-174.9860359481
 21
129.9999999995
  0
LINE
  5
234
100
AcDbEntity
  8
0
100
AcDbLine
 62
250
  6
CONTINUOUS
 10
-174.7179023975
 20
-129.9999999997
 11
-174.7179023975
 21
130.0000000078
  0
LINE
  5
235
100
AcDbEntity
  8
0
100
AcDbLine
 62
250
  6
CONTINUOUS
 10
-172.8309841583
 20
-130.0
 11
-172.8309841583
 21
130.0000000103
  0
LWPOLYLINE
  5
236
100
AcDbEntity
  8
0
100
AcDbPolyline
 62
7
  6
CONTINUOUS
 90
20
 70
0
 10
-174.7179023975
 20
130.0
 10
-174.645135998
 20
131.8941748512
 10
-174.4336679903
 20
133.7359353305
 10
-174.0940043772
 20
135.5159590915
 10
-173.6421543626
 20
137.2094113385
 10
-173.0862800445
 20
138.8275569595
 10
-172.4148915935
 20
140.4136808999
 10
-171.6218630531
 20
141.9721420667
 10
-170.7143247004
 20
143.4801315472
 10
-169.6896321007
 20
144.9355579371
 10
-168.5478381079
 20
146.3303582038
 10
-167.2931039401
 20
147.6521135056
 10
-165.9286063013
 20
148.8909966938
 10
-164.4655078838
 20
150.0319072722
 10
-162.9033699945
 20
151.0704837598
 10
-161.2261787176
 20
152.0083007535
 10
-159.4005974998
 20
152.8461301292
 10
-157.4694043405
 20
153.54666711
 10
-155.5386916594
 20
154.0724451081
 10
-153.6324057392
 20
154.4313304384
  0
LWPOLYLINE
  5
237
100
AcDbEntity
  8
0
100
AcDbPolyline
 62
250
  6
CONTINUOUS
 90
3
 70
0
 10
153.6324057302
 20
-154.4313304398
 10
151.8070128919
 20
-154.6322358839
 10
149.9999999246
 20
-154.6969830327
  0
LWPOLYLINE
  5
238
100
AcDbEntity
  8
0
100
AcDbPolyline
 62
7
  6
CONTINUOUS
 90
23
 70
0
 10
-153.6355445518
 20
-154.4308599811
 10
-154.8113189265
 20
-154.227708938
 10
-156.3852451049
 20
-153.8625749869
 10
-157.9328409495
 20
-153.3950178346
 10
-159.4470582143
 20
-152.8269970973
 10
-160.9214373977
 20
-152.1608143313
 10
-162.3495324311
 20
-151.3992572709
 10
-163.7246292936
 20
-150.5458353021
 10
-165.0406794143
 20
-149.6043446035
 10
-166.2922072963
 20
-148.5787478217
 10
-167.4737990931
 20
-147.4734900726
 10
-168.5803251123
 20
-146.2934252319
 10
-169.6071448529
 20
-145.0435644148
 10
-170.5500231523
 20
-143.729043437
 10
-171.4049749317
 20
-142.3553454037
 10
-172.1682058368
 20
-140.928492161
 10
-172.8363221989
 20
-139.4547989943
 10
-173.4065076805
 20
-137.9404955913
 10
-173.87628236
 20
-136.3921994771
 10
-174.2435315167
 20
-134.8171208493
 10
-174.506781368
 20
-133.2222379432
 10
-174.6650863886
 20
-131.6142301368
 10
-174.7179023975
 20
-130.0
  0
LWPOLYLINE
  5
239
100
AcDbEntity
  8
0
100
AcDbPolyline
 62
250
  6
CONTINUOUS
 90
22
 70
0
 10
150.1430630559
 20
-152.6569949276
 10
151.8453491538
 20
-152.6106958939
 10
153.5230050633
 20
-152.4352497005
 10
155.1760322963
 20
-152.1306563472
 10
156.8149536635
 20
-151.6916106333
 10
158.4292488487
 20
-151.1234177595
 10
159.9873572554
 20
-150.4419933282
 10
161.4865320087
 20
-149.6476711141
 10
162.9295281539
 20
-148.7401173424
 10
164.2930421631
 20
-147.734246291
 10
165.5757775066
 20
-146.6284187327
 10
166.7790413351
 20
-145.4242738947
 10
167.8834382574
 20
-144.1416437367
 10
168.8874498609
 20
-142.779260923
 10
169.7926055638
 20
-141.3383927894
 10
170.5840830044
 20
-139.8426733022
 10
171.2601037431
 20
-138.2912302978
 10
171.8224552899
 20
-136.68493594
 10
172.2616642285
 20
-135.0500406865
 10
172.5745745777
 20
-133.3952946901
 10
172.7643474572
 20
-131.711947798
 10
172.8309841583
 20
-130.0000000103
  0
LWPOLYLINE
  5
23A
100
AcDbEntity
  8
0
100
AcDbPolyline
 62
250
  6
CONTINUOUS
 90
10
 70
0
 10
-149.9999997777
 20
-154.6969830317
 10
-116.6785949732
 20
-154.6716409436
 10
-83.3512259289
 20
-154.6526343776
 10
-50.0178926451
 20
-154.6399633336
 10
-16.6746189645
 20
-154.6336278116
 10
16.6746189557
 20
-154.6336278116
 10
50.0178926444
 20
-154.6399633337
 10
83.3512259443
 20
-154.6526343777
 10
116.6785950127
 20
-154.6716409438
 10
149.9999998495
 20
-154.6969830319
  0
LINE
  5
23B
100
AcDbEntity
  8
0
100
AcDbLine
 62
7
  6
CONTINUOUS
 10
-149.9999999855
 20
-155.0
 11
149.999999985
 21
-155.0
  0
LINE
  5
23C
100
AcDbEntity
  8
0
100
AcDbLine
 62
7
  6
CONTINUOUS
 10
149.9999999989
 20
-154.9860359481
 11
-149.9999999991
 21
-154.9860359481
  0
LWPOLYLINE
  5
23D
100
AcDbEntity
  8
0
100
AcDbPolyline
 62
250
  6
CONTINUOUS
 90
4
 70
0
 10
-149.999999889
 20
-154.6969830327
 10
-151.6119032637
 20
-154.6456113077
 10
-153.2179675992
 20
-154.4890242046
 10
-153.6355445518
 20
-154.4308599811
  0
LWPOLYLINE
  5
23E
100
AcDbEntity
  8
0
100
AcDbPolyline
 62
250
  6
CONTINUOUS
 90
13
 70
0
 10
-150.0979550583
 20
-152.646783278
 10
-150.0971093042
 20
-152.9253941691
 10
-150.0944625104
 20
-153.1930966579
 10
-150.0901939702
 20
-153.4454189505
 10
-150.0845807173
 20
-153.6759414362
 10
-150.0777845611
 20
-153.8850981367
 10
-150.0696819966
 20
-154.0779592711
 10
-150.0602224747
 20
-154.2530143236
 10
-150.0496339856
 20
-154.4036214534
 10
-150.0381181742
 20
-154.5258084994
 10
-150.0258773147
 20
-154.6167377692
 10
-150.0130980438
 20
-154.674364896
 10
-150.0000000129
 20
-154.6969829791
  0
LINE
  5
23F
100
AcDbEntity
  8
0
100
AcDbLine
 62
250
  6
CONTINUOUS
 10
-149.9999998495
 20
154.6969830319
 11
-149.9999999989
 21
154.9860359481
  0
LINE
  5
240
100
AcDbEntity
  8
0
100
AcDbLine
 62
250
  6
CONTINUOUS
 10
-149.9999999991
 20
-154.9860359481
 11
-149.9999997777
 21
-154.6969830317
  0
LWPOLYLINE
  5
241
100
AcDbEntity
  8
0
100
AcDbPolyline
 62
7
  6
CONTINUOUS
 90
5
 70
0
 43
0.3500000006
 10
-2.464285738
 20
175.259515686
 10
-2.1071428528
 20
175.4738001709
 10
-2.1071428528
 20
176.1166717529
 10
-2.464285738
 20
176.5452407227
 10
-3.3214284925
 20
176.5452407227
  0
LWPOLYLINE
  5
242
100
AcDbEntity
  8
0
100
AcDbPolyline
 62
7
  6
CONTINUOUS
 90
10
 70
0
 10
-150.1398166465
 20
-152.6655028834
 10
-116.7845719468
 20
-152.6571758836
 10
-83.4201264489
 20
-152.6509306337
 10
-50.0504429279
 20
-152.6467671338
 10
-16.6827078026
 20
-152.6450004933
 10
16.6823466875
 20
-152.6453156028
 10
50.0504429506
 20
-152.6467671338
 10
83.4208484904
 20
-152.6490399769
 10
116.7863763741
 20
-152.6524492414
 10
150.1430630559
 20
-152.6569949276
  0
LINE
  5
243
100
AcDbEntity
  8
0
100
AcDbLine
 62
250
  6
CONTINUOUS
 10
-174.9860359481
 20
-129.9999999994
 11
-172.8309841583
 21
-130.0
  0
LINE
  5
244
100
AcDbEntity
  8
0
100
AcDbLine
 62
250
  6
CONTINUOUS
 10
172.8309841583
 20
-130.0000000158
 11
174.9860359481
 21
-129.9999999991
  0
LINE
  5
245
100
AcDbEntity
  8
0
100
AcDbLine
 62
7
  6
CONTINUOUS
 10
-15.2296485913
 20
118.1028176112
 11
-13.2653756818
 21
124.9860359481
  0
LINE
  5
246
100
AcDbEntity
  8
0
100
AcDbLine
 62
7
  6
CONTINUOUS
 10
-11.1793138973
 20
124.9860359481
 11
-14.3935772605
 21
114.986035948
  0
LINE
  5
247
100
AcDbEntity
  8
0
100
AcDbLine
 62
7
  6
CONTINUOUS
 10
3.2944747231
 20
114.986035948
 11
6.4315592247
 21
124.9860359481
  0
LINE
  5
248
100
AcDbEntity
  8
0
100
AcDbLine
 62
7
  6
CONTINUOUS
 10
-2.1545160171
 20
119.4338850326
 11
-0.0668437077
 21
124.9860359481
  0
LINE
  5
249
100
AcDbEntity
  8
0
100
AcDbLine
 62
7
  6
CONTINUOUS
 10
0.4622720229
 20
121.4887171601
 11
-2.0195882525
 21
114.9860359479
  0
LINE
  5
24A
100
AcDbEntity
  8
0
100
AcDbLine
 62
7
  6
CONTINUOUS
 10
-7.2080432157
 20
114.986035948
 11
-6.3053132649
 21
124.9860359481
  0
LINE
  5
24B
100
AcDbEntity
  8
0
100
AcDbLine
 62
7
  6
CONTINUOUS
 10
7.4017455947
 20
122.237917048
 11
6.3624773547
 21
118.5274677295
  0
LINE
  5
24C
100
AcDbEntity
  8
0
100
AcDbLine
 62
7
  6
CONTINUOUS
 10
5.935358759
 20
116.9824421087
 11
5.3593603601
 21
114.9860359479
  0
LINE
  5
24D
100
AcDbEntity
  8
0
100
AcDbLine
 62
7
  6
CONTINUOUS
 10
-10.4048895789
 20
114.986035948
 11
-10.4048895789
 21
124.9860359481
  0
LINE
  5
24E
100
AcDbEntity
  8
0
100
AcDbLine
 62
7
  6
CONTINUOUS
 10
-8.3180598619
 20
124.9860359481
 11
-8.3180598619
 21
114.986035948
  0
LWPOLYLINE
  5
24F
100
AcDbEntity
  8
0
100
AcDbPolyline
 62
7
  6
CONTINUOUS
 90
13
 70
0
 43
0.3500000006
 10
0.9642857051
 20
174.4023777466
 10
0.9642857051
 20
175.6881027832
 10
1.1785713937
 20
176.1166717529
 10
1.6071428418
 20
176.5452407227
 10
1.8214286013
 20
176.5452407227
 10
2.2499999785
 20
176.1166717529
 10
2.464285738
 20
175.6881027832
 10
2.464285738
 20
174.4023777466
 10
2.2499999785
 20
173.9738087769
 10
1.8214286013
 20
173.5452398071
 10
1.6071428418
 20
173.5452398071
 10
1.1785713937
 20
173.9738087769
 10
0.9642857051
 20
174.4023777466
  0
LINE
  5
250
100
AcDbEntity
  8
0
100
AcDbLine
 62
7
  6
CONTINUOUS
 10
-4.7607236633
 20
121.5158230234
 11
-5.2112159695
 21
114.9860359479
  0
LWPOLYLINE
  5
251
100
AcDbEntity
  8
0
100
AcDbPolyline
 62
7
  6
CONTINUOUS
 90
13
 70
0
 43
0.3500000006
 10
200.5632806396
 20
0.7499999084
 10
199.2775737305
 20
0.7499999084
 10
198.8490047607
 20
0.9642866592
 10
198.4204176636
 20
1.3928578949
 10
198.4204176636
 20
1.6071423798
 10
198.8490047607
 20
2.0357136154
 10
199.2775737305
 20
2.2500003662
 10
200.5632806396
 20
2.2500003662
 10
200.9918496094
 20
2.0357136154
 10
201.4204185791
 20
1.6071423798
 10
201.4204185791
 20
1.3928578949
 10
200.9918496094
 20
0.9642866592
 10
200.5632806396
 20
0.7499999084
  0
LINE
  5
252
100
AcDbEntity
  8
0
100
AcDbLine
 62
7
  6
CONTINUOUS
 10
1.9981925276
 20
124.9860359481
 11
2.9334162368
 21
114.986035948
  0
LINE
  5
253
100
AcDbEntity
  8
0
100
AcDbLine
 62
7
  6
CONTINUOUS
 10
0.8917387814
 20
114.9860359482
 11
0.4622720229
 21
121.4887171601
  0
LINE
  5
254
100
AcDbEntity
  8
0
100
AcDbLine
 62
7
  6
CONTINUOUS
 10
12.119805551
 20
114.9860359479
 11
12.119805551
 21
124.8687472224
  0
LINE
  5
255
100
AcDbEntity
  8
0
100
AcDbLine
 62
7
  6
CONTINUOUS
 10
14.1294257603
 20
123.2826333446
 11
14.1294257603
 21
120.5369977772
  0
LINE
  5
256
100
AcDbEntity
  8
0
100
AcDbLine
 62
7
  6
CONTINUOUS
 10
14.1294257603
 20
118.899280571
 11
14.1294257603
 21
114.9860359479
  0
LINE
  5
257
100
AcDbEntity
  8
0
100
AcDbLine
 62
7
  6
CONTINUOUS
 10
-17.1355108929
 20
124.9860359479
 11
-15.2296485913
 21
118.1028176112
  0
LINE
  5
258
100
AcDbEntity
  8
0
100
AcDbLine
 62
7
  6
CONTINUOUS
 10
-16.233187093
 20
114.986035948
 11
-19.4034279067
 21
124.9860359481
  0
LINE
  5
259
100
AcDbEntity
  8
0
100
AcDbLine
 62
7
  6
CONTINUOUS
 10
-2.3122155219
 20
114.986035948
 11
-4.7607236633
 21
121.5158230234
  0
LINE
  5
25A
100
AcDbEntity
  8
0
100
AcDbLine
 62
7
  6
CONTINUOUS
 10
-4.2192664125
 20
124.9860359479
 11
-2.1545160171
 21
119.4338850326
  0
LINE
  5
25B
100
AcDbEntity
  8
0
100
AcDbLine
 62
7
  6
CONTINUOUS
 10
8.4501496617
 20
124.9860359481
 11
11.5180166233
 21
114.9860359479
  0
LWPOLYLINE
  5
25C
100
AcDbEntity
  8
0
100
AcDbPolyline
 62
7
  6
CONTINUOUS
 90
6
 70
0
 10
17.395570868
 20
114.9860359482
 10
17.2972870887
 20
115.3298642671
 10
17.1988101657
 20
115.6708514356
 10
17.1001400989
 20
116.0089974538
 10
17.0010073658
 20
116.3441483863
 10
16.8029710363
 20
117.006388606
  0
LINE
  5
25D
100
AcDbEntity
  8
0
100
AcDbLine
 62
7
  6
CONTINUOUS
 10
9.3183538217
 20
114.9860359479
 11
8.7777690263
 21
116.9824421119
  0
LINE
  5
25E
100
AcDbEntity
  8
0
100
AcDbLine
 62
7
  6
CONTINUOUS
 10
18.6900034061
 20
117.6930069238
 11
19.4034279069
 21
114.9860359494
  0
LINE
  5
25F
100
AcDbEntity
  8
0
100
AcDbLine
 62
7
  6
CONTINUOUS
 10
8.3604936167
 20
118.5274677295
 11
7.4017455947
 21
122.237917048
  0
LINE
  5
260
100
AcDbEntity
  8
0
100
AcDbLine
 62
7
  6
CONTINUOUS
 10
16.8029710363
 20
117.006388606
 11
16.5113407985
 21
117.9823656583
  0
LINE
  5
261
100
AcDbEntity
  8
0
100
AcDbLine
 62
7
  6
CONTINUOUS
 10
19.4034279069
 20
114.98603595
 11
17.3955708683
 21
114.9860359465
  0
LINE
  5
262
100
AcDbEntity
  8
0
100
AcDbLine
 62
7
  6
CONTINUOUS
 10
14.1294257603
 20
114.9860359479
 11
12.119805551
 21
114.9860359479
  0
LINE
  5
263
100
AcDbEntity
  8
0
100
AcDbLine
 62
7
  6
CONTINUOUS
 10
11.5180166233
 20
114.9860359479
 11
9.3183538217
 21
114.9860359479
  0
LINE
  5
264
100
AcDbEntity
  8
0
100
AcDbLine
 62
7
  6
CONTINUOUS
 10
5.3593603601
 20
114.9860359478
 11
3.2944747231
 21
114.986035948
  0
LINE
  5
265
100
AcDbEntity
  8
0
100
AcDbLine
 62
7
  6
CONTINUOUS
 10
2.9334162368
 20
114.986035948
 11
0.8917387814
 21
114.9860359482
  0
LINE
  5
266
100
AcDbEntity
  8
0
100
AcDbLine
 62
7
  6
CONTINUOUS
 10
-2.0195882525
 20
114.9860359478
 11
-2.3122155219
 21
114.986035948
  0
LINE
  5
267
100
AcDbEntity
  8
0
100
AcDbLine
 62
7
  6
CONTINUOUS
 10
-5.2112159695
 20
114.9860359478
 11
-7.2080432157
 21
114.986035948
  0
LINE
  5
268
100
AcDbEntity
  8
0
100
AcDbLine
 62
7
  6
CONTINUOUS
 10
-8.3180598619
 20
114.986035948
 11
-10.4048895789
 21
114.986035948
  0
LINE
  5
269
100
AcDbEntity
  8
0
100
AcDbLine
 62
7
  6
CONTINUOUS
 10
-14.3935772605
 20
114.986035948
 11
-16.233187093
 21
114.986035948
  0
LINE
  5
26A
100
AcDbEntity
  8
0
100
AcDbLine
 62
7
  6
CONTINUOUS
 10
8.7777690263
 20
116.9824421127
 11
5.935358759
 21
116.9824421079
  0
LINE
  5
26B
100
AcDbEntity
  8
0
100
AcDbLine
 62
7
  6
CONTINUOUS
 10
8.3604936167
 20
118.5274677295
 11
6.3624773547
 21
118.5274677295
  0
LINE
  5
26C
100
AcDbEntity
  8
0
100
AcDbLine
 62
7
  6
CONTINUOUS
 10
15.3226005173
 20
120.5369977772
 11
14.1294257603
 21
120.5369977772
  0
LINE
  5
26D
100
AcDbEntity
  8
0
100
AcDbLine
 62
7
  6
CONTINUOUS
 10
15.3226007515
 20
123.2826333446
 11
14.1294257603
 21
123.2826333446
  0
LINE
  5
26E
100
AcDbEntity
  8
0
100
AcDbLine
 62
7
  6
CONTINUOUS
 10
8.4501496617
 20
124.9860359481
 11
6.4315592247
 21
124.9860359481
  0
LINE
  5
26F
100
AcDbEntity
  8
0
100
AcDbLine
 62
7
  6
CONTINUOUS
 10
1.9981925276
 20
124.9860359481
 11
-0.0668437076
 21
124.9860359481
  0
LINE
  5
270
100
AcDbEntity
  8
0
100
AcDbLine
 62
7
  6
CONTINUOUS
 10
-4.2192664126
 20
124.9860359479
 11
-6.3053132649
 21
124.9860359481
  0
LINE
  5
271
100
AcDbEntity
  8
0
100
AcDbLine
 62
7
  6
CONTINUOUS
 10
-8.3180598619
 20
124.9860359481
 11
-10.4048895789
 21
124.9860359481
  0
LINE
  5
272
100
AcDbEntity
  8
0
100
AcDbLine
 62
7
  6
CONTINUOUS
 10
-11.1793138973
 20
124.9860359481
 11
-13.2653756818
 21
124.9860359481
  0
LINE
  5
273
100
AcDbEntity
  8
0
100
AcDbLine
 62
7
  6
CONTINUOUS
 10
-17.1355108929
 20
124.9860359479
 11
-19.4034279067
 21
124.9860359481
  0
LINE
  5
274
100
AcDbEntity
  8
0
100
AcDbLine
 62
7
  6
CONTINUOUS
 10
15.321716295
 20
118.8985219322
 11
14.1294258762
 21
118.8994324028
  0
LINE
  5
275
100
AcDbEntity
  8
0
100
AcDbLine
 62
250
  6
CONTINUOUS
 10
174.9860359481
 20
129.9999999989
 11
172.8309841583
 21
130.0
  0
LINE
  5
276
100
AcDbEntity
  8
0
100
AcDbLine
 62
250
  6
CONTINUOUS
 10
-172.8309841583
 20
130.0000000158
 11
-174.9860359481
 21
129.9999999995
  0
LWPOLYLINE
  5
277
100
AcDbEntity
  8
0
100
AcDbPolyline
 62
7
  6
CONTINUOUS
 90
3
 70
0
 43
0.3500000006
 10
199.2775737305
 20
-0.9642850342
 10
198.4204176636
 20
-0.1071425629
 10
201.4204185791
 20
-0.1071425629
  0
LWPOLYLINE
  5
278
100
AcDbEntity
  8
0
100
AcDbPolyline
 62
250
  6
CONTINUOUS
 90
13
 70
0
 10
150.0979550581
 20
152.6467832781
 10
150.0971885491
 20
152.9128541645
 10
150.0947348165
 20
153.1723198233
 10
150.0906905832
 20
153.4208725425
 10
150.0852237331
 20
153.6529018013
 10
150.0784473526
 20
153.8669801812
 10
150.0703135124
 20
154.0645661153
 10
150.060821841
 20
154.2431870094
 10
150.0501647664
 20
154.3970185396
 10
150.0385485937
 20
154.5219189655
 10
150.0261814206
 20
154.6149184439
 10
150.0132561336
 20
154.6738705288
 10
150.0000000129
 20
154.696982975
  0
LINE
  5
279
100
AcDbEntity
  8
0
100
AcDbLine
 62
250
  6
CONTINUOUS
 10
149.9999999991
 20
154.9860359481
 11
149.9999997777
 21
154.6969830317
  0
LINE
  5
27A
100
AcDbEntity
  8
0
100
AcDbLine
 62
250
  6
CONTINUOUS
 10
149.9999998495
 20
-154.6969830319
 11
149.9999999989
 21
-154.9860359481
  0
LWPOLYLINE
  5
27B
100
AcDbEntity
  8
0
100
AcDbPolyline
 62
250
  6
CONTINUOUS
 90
22
 70
0
 10
-150.1430630559
 20
152.6569949277
 10
-151.8453491537
 20
152.610695894
 10
-153.5230050632
 20
152.4352497005
 10
-155.1760322961
 20
152.1306563472
 10
-156.8149536633
 20
151.6916106333
 10
-158.4292488485
 20
151.1234177597
 10
-159.9873572552
 20
150.4419933284
 10
-161.4865320084
 20
149.6476711143
 10
-162.9295281536
 20
148.7401173426
 10
-164.2930421628
 20
147.7342462912
 10
-165.5757775063
 20
146.6284187329
 10
-166.7790413348
 20
145.4242738949
 10
-167.8834382572
 20
144.1416437369
 10
-168.8874498607
 20
142.7792609232
 10
-169.7926055636
 20
141.3383927896
 10
-170.5840830043
 20
139.8426733024
 10
-171.260103743
 20
138.291230298
 10
-171.8224552899
 20
136.6849359402
 10
-172.2616642284
 20
135.0500406867
 10
-172.5745745777
 20
133.3952946902
 10
-172.7643474571
 20
131.711947798
 10
-172.8309841583
 20
130.0000000103
  0
LWPOLYLINE
  5
27C
100
AcDbEntity
  8
0
100
AcDbPolyline
 62
250
  6
CONTINUOUS
 90
10
 70
0
 10
149.9999997777
 20
154.6969830317
 10
116.6785949732
 20
154.6716409436
 10
83.351225929
 20
154.6526343776
 10
50.0178926451
 20
154.6399633336
 10
16.6746189646
 20
154.6336278116
 10
-16.6746189557
 20
154.6336278116
 10
-50.0178926443
 20
154.6399633337
 10
-83.3512259443
 20
154.6526343777
 10
-116.6785950127
 20
154.6716409438
 10
-149.9999998495
 20
154.6969830319
  0
LWPOLYLINE
  5
27D
100
AcDbEntity
  8
0
100
AcDbPolyline
 62
7
  6
CONTINUOUS
 90
10
 70
0
 10
150.1422570528
 20
152.6595940497
 10
116.7859283731
 20
152.6538931983
 10
83.4206692142
 20
152.6496175597
 10
50.0504429305
 20
152.646767134
 10
16.6825268201
 20
152.6454381849
 10
-16.6824371773
 20
152.6455344487
 10
-50.050442948
 20
152.646767134
 10
-83.4208484884
 20
152.649039977
 10
-116.786376373
 20
152.6524492416
 10
-150.1430630559
 20
152.6569949277
  0
LINE
  5
27E
100
AcDbEntity
  8
0
100
AcDbLine
 62
7
  6
CONTINUOUS
 10
-149.9999999989
 20
154.9860359481
 11
149.9999999991
 21
154.9860359481
  0
LINE
  5
27F
100
AcDbEntity
  8
0
100
AcDbLine
 62
7
  6
CONTINUOUS
 10
149.9999999855
 20
155.0
 11
-149.999999985
 21
155.0
  0
LINE
  5
280
100
AcDbEntity
  8
0
100
AcDbLine
 62
250
  6
CONTINUOUS
 10
172.8309841583
 20
130.0
 11
172.8309841583
 21
-130.0000000103
  0
LWPOLYLINE
  5
281
100
AcDbEntity
  8
0
100
AcDbPolyline
 62
250
  6
CONTINUOUS
 90
3
 70
0
 10
-153.6324057392
 20
154.4313304384
 10
-151.8070128913
 20
154.6322358839
 10
-149.9999999246
 20
154.6969830327
  0
LWPOLYLINE
  5
282
100
AcDbEntity
  8
0
100
AcDbPolyline
 62
250
  6
CONTINUOUS
 90
4
 70
0
 10
149.999999889
 20
154.6969830327
 10
151.6119032636
 20
154.6456113077
 10
153.2179675991
 20
154.4890242046
 10
153.6355100017
 20
154.4308650945
  0
LWPOLYLINE
  5
283
100
AcDbEntity
  8
0
100
AcDbPolyline
 62
7
  6
CONTINUOUS
 90
5
 70
0
 43
0.3500000006
 10
199.7061427002
 20
-2.2499998741
 10
199.4918582153
 20
-1.8928575554
 10
198.8490047607
 20
-1.8928575554
 10
198.4204176636
 20
-2.2499998741
 10
198.4204176636
 20
-3.1071423454
  0
LWPOLYLINE
  5
284
100
AcDbEntity
  8
0
100
AcDbPolyline
 62
250
  6
CONTINUOUS
 90
22
 70
0
 10
172.8309841583
 20
130.0
 10
172.7650384345
 20
131.7042442194
 10
172.5768613395
 20
133.380525344
 10
172.2664516022
 20
135.0288433739
 10
171.8307924494
 20
136.6578571438
 10
171.272895596
 20
138.258907819
 10
170.6018015619
 20
139.8060188953
 10
169.8158264373
 20
141.2982840974
 10
168.9166451643
 20
142.7366097006
 10
167.9183365127
 20
144.0977380266
 10
166.8194240014
 20
145.380631228
 10
165.6213731308
 20
146.5863271522
 10
164.342676819
 20
147.6946816639
 10
162.9819962914
 20
148.7041858005
 10
161.5406595588
 20
149.6163485245
 10
160.0411621961
 20
150.4155525881
 10
158.4808288365
 20
151.1020669295
 10
156.8623263613
 20
151.6756226104
 10
155.2161677541
 20
152.1197955691
 10
153.5525239239
 20
152.4291111183
 10
151.8612209456
 20
152.6090439451
 10
150.1422570528
 20
152.6595940497
  0
LINE
  5
285
100
AcDbEntity
  8
0
100
AcDbLine
 62
250
  6
CONTINUOUS
 10
174.7179023975
 20
129.9999999993
 11
174.7179023975
 21
-130.0000000075
  0
LINE
  5
286
100
AcDbEntity
  8
0
100
AcDbLine
 62
7
  6
CONTINUOUS
 10
174.9860359481
 20
129.9999999989
 11
174.9860359481
 21
-129.9999999991
  0
LINE
  5
287
100
AcDbEntity
  8
0
100
AcDbLine
 62
7
  6
CONTINUOUS
 10
175.0
 20
-129.9999999855
 11
175.0
 21
129.999999985
  0
LWPOLYLINE
  5
288
100
AcDbEntity
  8
0
100
AcDbPolyline
 62
7
  6
CONTINUOUS
 90
20
 70
0
 10
174.7179023975
 20
-130.0000000033
 10
174.6451359979
 20
-131.8941748526
 10
174.4336679903
 20
-133.7359353305
 10
174.0940043774
 20
-135.5159590905
 10
173.642154363
 20
-137.2094113372
 10
173.086280045
 20
-138.8275569584
 10
172.414891594
 20
-140.4136808988
 10
171.6218630538
 20
-141.9721420655
 10
170.7143247012
 20
-143.4801315459
 10
169.6896321017
 20
-144.9355579357
 10
168.5478381092
 20
-146.3303582022
 10
167.2931039418
 20
-147.652113504
 10
165.9286063033
 20
-148.8909966922
 10
164.4655078859
 20
-150.0319072707
 10
162.9033699967
 20
-151.0704837584
 10
161.2261787199
 20
-152.0083007523
 10
159.400597502
 20
-152.8461301283
 10
157.4694043425
 20
-153.5466671094
 10
155.538691661
 20
-154.0724451077
 10
153.6324057302
 20
-154.4313304398
  0
LWPOLYLINE
  5
289
100
AcDbEntity
  8
0
100
AcDbPolyline
 62
7
  6
CONTINUOUS
 90
6
 70
0
 43
0.3500000006
 10
-3.3214284925
 20
173.5452398071
 10
-2.2499999785
 20
173.5452398071
 10
-2.0357142191
 20
173.759524292
 10
-2.0357142191
 20
174.8309467163
 10
-2.464285738
 20
175.259515686
 10
-2.8928572569
 20
175.259515686
  0
LWPOLYLINE
  5
28A
100
AcDbEntity
  8
0
100
AcDbPolyline
 62
7
  6
CONTINUOUS
 90
8
 70
0
 43
0.3500000006
 10
-1.1785713937
 20
173.5452398071
 10
-0.3214285684
 20
173.5452398071
 10
0.1071428532
 20
173.9738087769
 10
0.1071428532
 20
174.8309467163
 10
-0.3214285684
 20
175.259515686
 10
-1.1785713937
 20
175.259515686
 10
-1.1785713937
 20
176.5452407227
 10
0.1071428532
 20
176.5452407227
  0
LWPOLYLINE
  5
28B
100
AcDbEntity
  8
0
100
AcDbPolyline
 62
7
  6
CONTINUOUS
 90
23
 70
0
 10
153.6355100017
 20
154.4308650945
 10
154.8113189264
 20
154.227708938
 10
156.3852451048
 20
153.8625749869
 10
157.9328409495
 20
153.3950178346
 10
159.4470582144
 20
152.8269970972
 10
160.9214373978
 20
152.1608143313
 10
162.3495324312
 20
151.3992572709
 10
163.7246292937
 20
150.545835302
 10
165.0406794144
 20
149.6043446034
 10
166.2922072964
 20
148.5787478217
 10
167.4737990932
 20
147.4734900726
 10
168.5803251124
 20
146.2934252318
 10
169.6071448531
 20
145.0435644145
 10
170.5500231526
 20
143.7290434366
 10
171.404974932
 20
142.3553454033
 10
172.1682058371
 20
140.9284921605
 10
172.8363221991
 20
139.4547989938
 10
173.4065076807
 20
137.9404955907
 10
173.8762823602
 20
136.3921994766
 10
174.2435315168
 20
134.8171208489
 10
174.506781368
 20
133.2222379427
 10
174.6650863886
 20
131.6142301361
 10
174.7179023975
 20
129.9999999991
  0
LWPOLYLINE
  5
28C
100
AcDbEntity
  8
0
100
AcDbPolyline
 62
7
  6
CONTINUOUS
 90
6
 70
0
 43
0.3500000006
 10
201.4204185791
 20
-3.1071423454
 10
201.4204185791
 20
-2.0357142563
 10
201.2061340942
 20
-1.8214286385
 10
200.1347116699
 20
-1.8214286385
 10
199.7061427002
 20
-2.2499998741
 10
199.7061427002
 20
-2.6785711098
  0
LWPOLYLINE
  5
28D
100
AcDbEntity
  8
0
100
AcDbPolyline
 62
250
  6
CONTINUOUS
 90
13
 70
0
 10
149.9999982869
 20
-154.6969830104
 10
150.012906624
 20
-154.674951057
 10
150.0254578916
 20
-154.6192016787
 10
150.0374481985
 20
-154.5317494804
 10
150.0486127397
 20
-154.4160481501
 10
150.058884873
 20
-154.2743724905
 10
150.0683325522
 20
-154.1057491907
 10
150.0768094465
 20
-153.9109722711
 10
150.0840790289
 20
-153.6933890025
 10
150.0900022732
 20
-153.4545754162
 10
150.0944024925
 20
-153.1974326657
 10
150.0970999524
 20
-152.9265690408
 10
150.0979533318
 20
-152.6467832778
  0
LINE
  5
28E
100
AcDbEntity
  8
0
100
AcDbLine
 62
7
  6
CONTINUOUS
 10
-301.3189783309
 20
-155.0
 11
-251.3185214158
 21
-154.1272387781
  0
LINE
  5
28F
100
AcDbEntity
  8
0
100
AcDbLine
 62
7
  6
CONTINUOUS
 10
-248.3189783305
 20
-149.0748815588
 11
-245.284073518
 21
-149.0219070982
  0
LINE
  5
290
100
AcDbEntity
  8
0
100
AcDbLine
 62
7
  6
CONTINUOUS
 10
-323.9102974402
 20
-152.6467671338
 11
-320.6392916297
 21
-152.6569949276
  0
LINE
  5
291
100
AcDbEntity
  8
0
100
AcDbLine
 62
7
  6
CONTINUOUS
 10
-324.3189783309
 20
-152.6449569145
 11
-323.9102974402
 21
-152.6467671338
  0
LINE
  5
292
100
AcDbEntity
  8
0
100
AcDbLine
 62
7
  6
CONTINUOUS
 10
-322.3538832375
 20
-154.6328344249
 11
-302.1189783309
 21
-154.9860359481
  0
LINE
  5
293
100
AcDbEntity
  8
0
100
AcDbLine
 62
7
  6
CONTINUOUS
 10
-301.3189783309
 20
-152.7993906878
 11
-302.1189783309
 21
-152.7854266359
  0
LWPOLYLINE
  5
294
100
AcDbEntity
  8
0
100
AcDbPolyline
 62
250
  6
CONTINUOUS
 90
13
 70
0
 10
-318.678808885
 20
-154.6969830104
 10
-318.9416962563
 20
-154.674951057
 10
-319.1967124786
 20
-154.6192016787
 10
-319.4397342544
 20
-154.5317494804
 10
-319.665421041
 20
-154.4160481501
 10
-319.8724533426
 20
-154.2743724905
 10
-320.0622001203
 20
-154.1057491907
 10
-320.2316907455
 20
-153.9109722711
 10
-320.3761595609
 20
-153.6933890025
 10
-320.4927985665
 20
-153.4545754162
 10
-320.5780547842
 20
-153.1974326657
 10
-320.6283428809
 20
-152.9265690408
 10
-320.6408643059
 20
-152.6467832778
  0
LWPOLYLINE
  5
295
100
AcDbEntity
  8
0
100
AcDbPolyline
 62
250
  6
CONTINUOUS
 90
13
 70
0
 10
-240.3015259241
 20
-138.4731644478
 10
-240.1726075404
 20
-138.4656564602
 10
-240.0461383338
 20
-138.4464441053
 10
-239.924234474
 20
-138.4158488574
 10
-239.8089357407
 20
-138.3743826575
 10
-239.7021713916
 20
-138.3227393466
 10
-239.6057278815
 20
-138.261783056
 10
-239.5212189695
 20
-138.1925337485
 10
-239.4500587172
 20
-138.1161501513
 10
-239.3934378268
 20
-138.0339103673
 10
-239.3523037182
 20
-137.9471904893
 10
-239.3273446756
 20
-137.8574415741
 10
-239.3189783309
 20
-137.7661653624
  0
LINE
  5
296
100
AcDbEntity
  8
0
100
AcDbLine
 62
7
  6
CONTINUOUS
 10
-240.3015259244
 20
-140.0686505159
 11
-242.3191306357
 21
-140.1038679372
  0
LINE
  5
297
100
AcDbEntity
  8
0
100
AcDbLine
 62
250
  6
CONTINUOUS
 10
-240.3015259241
 20
-138.4731645069
 11
-242.3191306335
 21
-138.4980670919
  0
LINE
  5
298
100
AcDbEntity
  8
0
100
AcDbLine
 62
250
  6
CONTINUOUS
 10
-242.3191306335
 20
-134.2554262739
 11
-240.3015259241
 21
-134.230523771
  0
LINE
  5
299
100
AcDbEntity
  8
0
100
AcDbLine
 62
250
  6
CONTINUOUS
 10
-243.3189783309
 20
-130.0
 11
-319.4422521411
 21
-130.0000000158
  0
LINE
  5
29A
100
AcDbEntity
  8
0
100
AcDbLine
 62
7
  6
CONTINUOUS
 10
-240.3015259244
 20
-124.9313494841
 11
-242.3191306357
 21
-124.8961320628
  0
LWPOLYLINE
  5
29B
100
AcDbEntity
  8
0
100
AcDbPolyline
 62
7
  6
CONTINUOUS
 90
4
 70
0
 10
-324.4862515796
 20
125.0789544174
 10
-324.4849355398
 20
125.0912152662
 10
-324.4835942456
 20
125.09630081
 10
-324.4833123751
 20
125.0964571539
  0
LINE
  5
29C
100
AcDbEntity
  8
0
100
AcDbLine
 62
7
  6
CONTINUOUS
 10
-242.3191306357
 20
124.8961320628
 11
-243.3189783309
 21
123.8786796564
  0
LINE
  5
29D
100
AcDbEntity
  8
0
100
AcDbLine
 62
7
  6
CONTINUOUS
 10
-242.3191306357
 20
-124.8961320628
 11
-243.3189783309
 21
-123.8786796564
  0
LINE
  5
29E
100
AcDbEntity
  8
0
100
AcDbLine
 62
7
  6
CONTINUOUS
 10
-324.467912098
 20
119.5347523181
 11
-324.4665223003
 21
119.3429714309
  0
LINE
  5
29F
100
AcDbEntity
  8
0
100
AcDbLine
 62
7
  6
CONTINUOUS
 10
-324.4671770457
 20
124.4466652096
 11
-324.4645428781
 21
124.0276095277
  0
LINE
  5
2A0
100
AcDbEntity
  8
0
100
AcDbLine
 62
7
  6
CONTINUOUS
 10
-324.2645393276
 20
124.0276094741
 11
-324.267173667
 21
124.4466651476
  0
LINE
  5
2A1
100
AcDbEntity
  8
0
100
AcDbLine
 62
7
  6
CONTINUOUS
 10
-324.2653178384
 20
119.1110975208
 11
-324.2671942238
 21
119.444506062
  0
LINE
  5
2A2
100
AcDbEntity
  8
0
100
AcDbLine
 62
7
  6
CONTINUOUS
 10
-324.4665223003
 20
119.3429714309
 11
-324.4648167519
 21
118.9841287917
  0
LINE
  5
2A3
100
AcDbEntity
  8
0
100
AcDbLine
 62
7
  6
CONTINUOUS
 10
-324.4645428781
 20
124.0276095277
 11
-324.462501772
 21
123.5176137325
  0
LINE
  5
2A4
100
AcDbEntity
  8
0
100
AcDbLine
 62
7
  6
CONTINUOUS
 10
-324.2624981194
 20
123.5176415081
 11
-324.2645393276
 21
124.0276094741
  0
LINE
  5
2A5
100
AcDbEntity
  8
0
100
AcDbLine
 62
7
  6
CONTINUOUS
 10
-324.2634894227
 20
118.4846085407
 11
-324.2653178384
 21
119.1110975208
  0
LINE
  5
2A6
100
AcDbEntity
  8
0
100
AcDbLine
 62
7
  6
CONTINUOUS
 10
-324.4648167519
 20
118.9841287917
 11
-324.4628017426
 21
118.1480856661
  0
LINE
  5
2A7
100
AcDbEntity
  8
0
100
AcDbLine
 62
7
  6
CONTINUOUS
 10
-324.462501772
 20
123.5176137325
 11
-324.4612026592
 21
122.9448139687
  0
LINE
  5
2A8
100
AcDbEntity
  8
0
100
AcDbLine
 62
7
  6
CONTINUOUS
 10
-324.261198796
 20
122.9447305298
 11
-324.2624981194
 21
123.5176415081
  0
LINE
  5
2A9
100
AcDbEntity
  8
0
100
AcDbLine
 62
7
  6
CONTINUOUS
 10
-324.4619968168
 20
117.6930069238
 11
-324.457563613
 21
114.9860359494
  0
LINE
  5
2AA
100
AcDbEntity
  8
0
100
AcDbLine
 62
7
  6
CONTINUOUS
 10
-324.4628017426
 20
118.1480856661
 11
-324.4619968168
 21
117.6930069377
  0
LINE
  5
2AB
100
AcDbEntity
  8
0
100
AcDbLine
 62
7
  6
CONTINUOUS
 10
-324.2575596055
 20
114.9860359494
 11
-324.2619930985
 21
117.6930069241
  0
LINE
  5
2AC
100
AcDbEntity
  8
0
100
AcDbLine
 62
7
  6
CONTINUOUS
 10
-324.2619930985
 20
117.6930069337
 11
-324.2634894227
 21
118.4846085407
  0
LINE
  5
2AD
100
AcDbEntity
  8
0
100
AcDbLine
 62
7
  6
CONTINUOUS
 10
-324.4612026592
 20
122.9448139687
 11
-324.460708421
 21
122.3174912361
  0
LINE
  5
2AE
100
AcDbEntity
  8
0
100
AcDbLine
 62
7
  6
CONTINUOUS
 10
-324.3189783309
 20
152.6453262148
 11
-324.3189783309
 21
125.0964602881
  0
LINE
  5
2AF
100
AcDbEntity
  8
0
100
AcDbLine
 62
7
  6
CONTINUOUS
 10
-324.3189783309
 20
114.9860359479
 11
-324.3189783309
 21
-152.6449569145
  0
LINE
  5
2B0
100
AcDbEntity
  8
0
100
AcDbLine
 62
7
  6
CONTINUOUS
 10
-324.460708421
 20
122.3174912361
 11
-324.4609717788
 21
121.732895245
  0
LINE
  5
2B1
100
AcDbEntity
  8
0
100
AcDbLine
 62
7
  6
CONTINUOUS
 10
-324.2609728344
 20
121.7262722507
 11
-324.261198796
 21
122.9447305298
  0
LINE
  5
2B2
100
AcDbEntity
  8
0
100
AcDbLine
 62
7
  6
CONTINUOUS
 10
-324.4609717788
 20
121.732895245
 11
-324.4617231082
 21
121.1845077165
  0
LINE
  5
2B3
100
AcDbEntity
  8
0
100
AcDbLine
 62
7
  6
CONTINUOUS
 10
-324.2624691102
 20
120.848801852
 11
-324.2609728344
 21
121.7262722507
  0
LINE
  5
2B4
100
AcDbEntity
  8
0
100
AcDbLine
 62
7
  6
CONTINUOUS
 10
-324.4617231082
 20
121.1845077165
 11
-324.4630551757
 21
120.6590092096
  0
LINE
  5
2B5
100
AcDbEntity
  8
0
100
AcDbLine
 62
7
  6
CONTINUOUS
 10
-324.4630551757
 20
120.6590092096
 11
-324.4645094246
 21
120.3120093178
  0
LINE
  5
2B6
100
AcDbEntity
  8
0
100
AcDbLine
 62
7
  6
CONTINUOUS
 10
-324.2645058771
 20
120.3120100625
 11
-324.2624691102
 21
120.848801852
  0
LINE
  5
2B7
100
AcDbEntity
  8
0
100
AcDbLine
 62
7
  6
CONTINUOUS
 10
-324.4645094246
 20
120.3120093178
 11
-324.4663114281
 21
120.0129832227
  0
LINE
  5
2B8
100
AcDbEntity
  8
0
100
AcDbLine
 62
7
  6
CONTINUOUS
 10
-324.2663079942
 20
120.0129838011
 11
-324.2645058771
 21
120.3120100625
  0
LWPOLYLINE
  5
2B9
100
AcDbEntity
  8
0
100
AcDbPolyline
 62
7
  6
CONTINUOUS
 90
3
 70
0
 10
-324.4663114281
 20
120.0129832227
 10
-324.468355535
 20
119.7782157765
 10
-324.4694687452
 20
119.6839112436
  0
LWPOLYLINE
  5
2BA
100
AcDbEntity
  8
0
100
AcDbPolyline
 62
7
  6
CONTINUOUS
 90
3
 70
0
 10
-324.2694655144
 20
119.6839112432
 10
-324.2683522328
 20
119.7782160444
 10
-324.2663079942
 20
120.0129838011
  0
LWPOLYLINE
  5
2BB
100
AcDbEntity
  8
0
100
AcDbPolyline
 62
250
  6
CONTINUOUS
 90
13
 70
0
 10
-320.6408642335
 20
152.6467832781
 10
-320.6298751778
 20
152.9128541645
 10
-320.5843590675
 20
153.1723198233
 10
-320.5062134191
 20
153.4208725425
 10
-320.3987643791
 20
153.6529018013
 10
-320.2642934844
 20
153.8669801812
 10
-320.1018486479
 20
154.0645661153
 10
-319.9113791364
 20
154.2431870094
 10
-319.6967079492
 20
154.3970185396
 10
-319.4619704866
 20
154.5219189655
 10
-319.2113591664
 20
154.6149184439
 10
-318.9487705376
 20
154.6738705288
 10
-318.6788088107
 20
154.696982975
  0
LWPOLYLINE
  5
2BC
100
AcDbEntity
  8
0
100
AcDbPolyline
 62
7
  6
CONTINUOUS
 90
7
 70
0
 10
-324.273524368
 20
124.9312550623
 10
-324.2750296585
 20
124.9762792914
 10
-324.2765131432
 20
125.0141575557
 10
-324.2779746382
 20
125.0448898553
 10
-324.2794148559
 20
125.0684859672
 10
-324.2808326823
 20
125.0849361143
 10
-324.2822253385
 20
125.094210966
  0
LWPOLYLINE
  5
2BD
100
AcDbEntity
  8
0
100
AcDbPolyline
 62
7
  6
CONTINUOUS
 90
5
 70
0
 10
-324.4735273339
 20
124.9312550664
 10
-324.4718264025
 20
124.8558564952
 10
-324.4702001081
 20
124.7503743166
 10
-324.4686537877
 20
124.6148085305
 10
-324.4671770457
 20
124.4466652096
  0
LINE
  5
2BE
100
AcDbEntity
  8
0
100
AcDbLine
 62
7
  6
CONTINUOUS
 10
-324.4694687452
 20
119.6839112436
 11
-324.467912098
 21
119.5347523181
  0
LWPOLYLINE
  5
2BF
100
AcDbEntity
  8
0
100
AcDbPolyline
 62
7
  6
CONTINUOUS
 90
5
 70
0
 10
-324.267173667
 20
124.4466651476
 10
-324.2686505052
 20
124.6148084722
 10
-324.270196926
 20
124.7503742698
 10
-324.2718233262
 20
124.8558564665
 10
-324.273524368
 20
124.9312550623
  0
LWPOLYLINE
  5
2C0
100
AcDbEntity
  8
0
100
AcDbPolyline
 62
7
  6
CONTINUOUS
 90
3
 70
0
 10
-324.2671942238
 20
119.444506062
 10
-324.2679087643
 20
119.5347526068
 10
-324.2694655144
 20
119.6839112432
  0
LWPOLYLINE
  5
2C1
100
AcDbEntity
  8
0
100
AcDbPolyline
 62
250
  6
CONTINUOUS
 90
22
 70
0
 10
-319.4422521411
 20
130.0
 10
-319.4459759398
 20
131.7042442194
 10
-319.4565940159
 20
133.380525344
 10
-319.4740838202
 20
135.0288433739
 10
-319.4985774339
 20
136.6578571438
 10
-319.5298526391
 20
138.258907819
 10
-319.5673383997
 20
139.8060188953
 10
-319.6110534589
 20
141.2982840974
 10
-319.6608165879
 20
142.7366097006
 10
-319.715755264
 20
144.0977380266
 10
-319.7758526841
 20
145.380631228
 10
-319.8409208698
 20
146.5863271522
 10
-319.9098501359
 20
147.6946816639
 10
-319.982610435
 20
148.7041858005
 10
-320.0590220637
 20
149.6163485245
 10
-320.1377946614
 20
150.4155525881
 10
-320.2189810901
 20
151.1020669295
 10
-320.3023514593
 20
151.6756226104
 10
-320.3862662662
 20
152.1197955691
 10
-320.4701706761
 20
152.4291111183
 10
-320.5545409057
 20
152.6090439451
 10
-320.6393311602
 20
152.6595940497
  0
LINE
  5
2C2
100
AcDbEntity
  8
0
100
AcDbLine
 62
250
  6
CONTINUOUS
 10
-319.4422521411
 20
130.0
 11
-319.4422521411
 21
-130.0000000103
  0
LINE
  5
2C3
100
AcDbEntity
  8
0
100
AcDbLine
 62
250
  6
CONTINUOUS
 10
-317.480339157
 20
129.9999999993
 11
-317.480339157
 21
-130.0000000075
  0
LWPOLYLINE
  5
2C4
100
AcDbEntity
  8
0
100
AcDbPolyline
 62
250
  6
CONTINUOUS
 90
22
 70
0
 10
-317.480339157
 20
-130.0000000033
 10
-317.4850583431
 20
-131.8941748526
 10
-317.4958156543
 20
-133.7359353305
 10
-317.5126110906
 20
-135.5159590905
 10
-317.535530742
 20
-137.2094113372
 10
-317.5644885185
 20
-138.8275569584
 10
-317.5992261497
 20
-140.4136808988
 10
-317.6397531023
 20
-141.9721420655
 10
-317.6860599095
 20
-143.4801315459
 10
-317.7378599007
 20
-144.9355579357
 10
-317.7953582718
 20
-146.3303582022
 10
-317.8583498269
 20
-147.652113504
 10
-317.9259323066
 20
-148.8909966922
 10
-317.9978389182
 20
-150.0319072707
 10
-318.0743364545
 20
-151.0704837584
 10
-318.1553230347
 20
-152.0083007523
 10
-318.2428572885
 20
-152.8461301283
 10
-318.3348805863
 20
-153.5466671094
 10
-318.4251151591
 20
-154.0724451077
 10
-318.5114684174
 20
-154.4276528876
 10
-318.5960329508
 20
-154.6322358839
 10
-318.6788087592
 20
-154.6969830327
  0
LINE
  5
2C5
100
AcDbEntity
  8
0
100
AcDbLine
 62
7
  6
CONTINUOUS
 10
-302.1189783309
 20
-154.9860359481
 11
-302.1189783309
 21
154.9860359481
  0
LINE
  5
2C6
100
AcDbEntity
  8
0
100
AcDbLine
 62
7
  6
CONTINUOUS
 10
-301.3189783309
 20
-155.0
 11
-301.3189783309
 21
155.0
  0
LWPOLYLINE
  5
2C7
100
AcDbEntity
  8
0
100
AcDbPolyline
 62
7
  6
CONTINUOUS
 90
4
 70
0
 43
0.3500000006
 10
-284.0689709473
 20
173.9606119995
 10
-284.0689709473
 20
174.817749939
 10
-283.6404019775
 20
175.2463189087
 10
-282.9975485229
 20
175.2463189087
  0
LINE
  5
2C8
100
AcDbEntity
  8
0
100
AcDbLine
 62
7
  6
CONTINUOUS
 10
-239.3189783309
 20
-4.270284776
 11
-243.3189783309
 21
-4.3401050358
  0
LWPOLYLINE
  5
2C9
100
AcDbEntity
  8
0
100
AcDbPolyline
 62
7
  6
CONTINUOUS
 90
10
 70
0
 10
-243.3189783309
 20
4.5473771579
 10
-242.8748651877
 20
4.5349204053
 10
-242.4306692182
 20
4.5255778408
 10
-241.9863904224
 20
4.5193494645
 10
-241.5420287991
 20
4.5183114017
 10
-241.0975843494
 20
4.5203875272
 10
-240.6530570774
 20
4.5193494645
 10
-240.2084469843
 20
4.5131210881
 10
-239.7637540688
 20
4.5037785236
 10
-239.3189783309
 20
4.491321771
  0
LINE
  5
2CA
100
AcDbEntity
  8
0
100
AcDbLine
 62
7
  6
CONTINUOUS
 10
-239.3189783309
 20
19.8780244907
 11
-243.3189783309
 21
19.9478447504
  0
LWPOLYLINE
  5
2CB
100
AcDbEntity
  8
0
100
AcDbPolyline
 62
7
  6
CONTINUOUS
 90
8
 70
0
 10
-324.4833123751
 20
125.0964571539
 10
-324.4822277365
 20
125.0942110489
 10
-324.4808351711
 20
125.0849362055
 10
-324.4794174371
 20
125.0684860572
 10
-324.4779773133
 20
125.044889936
 10
-324.4765159138
 20
125.0141576191
 10
-324.475032526
 20
124.9762793292
 10
-324.4735273339
 20
124.9312550664
  0
LINE
  5
2CC
100
AcDbEntity
  8
0
100
AcDbLine
 62
7
  6
CONTINUOUS
 10
-324.2822253385
 20
125.094210966
 11
-324.2833100478
 21
125.0964570846
  0
LINE
  5
2CD
100
AcDbEntity
  8
0
100
AcDbLine
 62
7
  6
CONTINUOUS
 10
-251.3185214163
 20
-154.1272387781
 11
-251.3185214163
 21
154.1272387781
  0
LINE
  5
2CE
100
AcDbEntity
  8
0
100
AcDbLine
 62
7
  6
CONTINUOUS
 10
-248.3189783309
 20
-149.0748815588
 11
-248.3189783309
 21
149.0748815588
  0
LINE
  5
2CF
100
AcDbEntity
  8
0
100
AcDbLine
 62
250
  6
CONTINUOUS
 10
-245.284073518
 20
-149.0219070982
 11
-245.284073518
 21
149.0219070982
  0
LINE
  5
2D0
100
AcDbEntity
  8
0
100
AcDbLine
 62
7
  6
CONTINUOUS
 10
-243.3189783309
 20
-147.0222117079
 11
-243.3189783309
 21
147.0222117079
  0
LINE
  5
2D1
100
AcDbEntity
  8
0
100
AcDbLine
 62
7
  6
CONTINUOUS
 10
-242.3191306357
 20
140.1038679372
 11
-242.3191306357
 21
124.8961320628
  0
LINE
  5
2D2
100
AcDbEntity
  8
0
100
AcDbLine
 62
7
  6
CONTINUOUS
 10
-242.3191306357
 20
-124.8961320628
 11
-242.3191306357
 21
-140.1038679372
  0
LINE
  5
2D3
100
AcDbEntity
  8
0
100
AcDbLine
 62
250
  6
CONTINUOUS
 10
-240.3015259244
 20
-140.0686505159
 11
-240.3015259244
 21
-124.9313494841
  0
LINE
  5
2D4
100
AcDbEntity
  8
0
100
AcDbLine
 62
250
  6
CONTINUOUS
 10
-240.3015259244
 20
124.9313494841
 11
-240.3015259244
 21
140.0686505159
  0
LINE
  5
2D5
100
AcDbEntity
  8
0
100
AcDbLine
 62
7
  6
CONTINUOUS
 10
-239.3189783309
 20
-139.0688027741
 11
-239.3189783309
 21
-125.9311972259
  0
LINE
  5
2D6
100
AcDbEntity
  8
0
100
AcDbLine
 62
7
  6
CONTINUOUS
 10
-239.3189783309
 20
-4.2702847673
 11
-239.3189783309
 21
19.8780244907
  0
LINE
  5
2D7
100
AcDbEntity
  8
0
100
AcDbLine
 62
7
  6
CONTINUOUS
 10
-239.3189783309
 20
125.9311973857
 11
-239.3189783309
 21
139.0688026143
  0
LWPOLYLINE
  5
2D8
100
AcDbEntity
  8
0
100
AcDbPolyline
 62
250
  6
CONTINUOUS
 90
8
 70
0
 10
-239.3189783309
 20
137.7661653624
 10
-239.3273446756
 20
137.8574415741
 10
-239.3523037182
 20
137.9471904894
 10
-239.3934378268
 20
138.0339103674
 10
-239.4500587172
 20
138.1161501514
 10
-239.5212189696
 20
138.1925337486
 10
-239.6057278816
 20
138.2617830561
 10
-239.7021713918
 20
138.3227393467
  0
LWPOLYLINE
  5
2D9
100
AcDbEntity
  8
0
100
AcDbPolyline
 62
250
  6
CONTINUOUS
 90
13
 70
0
 10
-239.3189783309
 20
-133.5235246753
 10
-239.3273446756
 20
-133.614800887
 10
-239.3523037182
 20
-133.7045498023
 10
-239.3934378268
 20
-133.7912696803
 10
-239.4500587172
 20
-133.8735094643
 10
-239.5212189696
 20
-133.9498930615
 10
-239.6057278816
 20
-134.019142369
 10
-239.7021713918
 20
-134.0800986596
 10
-239.8089357409
 20
-134.1317419705
 10
-239.9242344743
 20
-134.1732081704
 10
-240.046138334
 20
-134.2038034182
 10
-240.1726075406
 20
-134.2230157731
 10
-240.3015259241
 20
-134.2305237607
  0
LINE
  5
2DA
100
AcDbEntity
  8
0
100
AcDbLine
 62
7
  6
CONTINUOUS
 10
-251.318521416
 20
-154.1272387776
 11
-248.3189783306
 21
-149.0748815584
  0
LWPOLYLINE
  5
2DB
100
AcDbEntity
  8
0
100
AcDbPolyline
 62
250
  6
CONTINUOUS
 90
25
 70
0
 10
-318.6788087611
 20
154.6969830327
 10
-318.6052548956
 20
154.6456113077
 10
-318.5319192204
 20
154.4890242046
 10
-318.4588017353
 20
154.227708938
 10
-318.3855469918
 20
153.8625749869
 10
-318.3125104385
 20
153.3950178346
 10
-318.2407584211
 20
152.8269970972
 10
-318.1702843765
 20
152.1608143313
 10
-318.1010948679
 20
151.3992572709
 10
-318.0342759304
 20
150.545835302
 10
-317.9698568617
 20
149.6043446034
 10
-317.9078083642
 20
148.5787478217
 10
-317.8491285804
 20
147.4734900726
 10
-317.7938635379
 20
146.2934252318
 10
-317.7419672091
 20
145.0435644145
 10
-317.6942996537
 20
143.7290434366
 10
-317.6509209615
 20
142.3553454033
 10
-317.6117710428
 20
140.9284921605
 10
-317.5775296887
 20
139.4547989938
 10
-317.5482820831
 20
137.9404955907
 10
-317.523943042
 20
136.3921994766
 10
-317.504936805
 20
134.8171208489
 10
-317.491404785
 20
133.2222379427
 10
-317.483205569
 20
131.6142301361
 10
-317.480339157
 20
129.9999999991
  0
LINE
  5
2DC
100
AcDbEntity
  8
0
100
AcDbLine
 62
7
  6
CONTINUOUS
 10
-250.1696134878
 20
152.1922045323
 11
-249.244342876
 21
150.6335430306
  0
LINE
  5
2DD
100
AcDbEntity
  8
0
100
AcDbLine
 62
7
  6
CONTINUOUS
 10
-251.318521416
 20
154.1272387776
 11
-248.3189783307
 21
149.0748815586
  0
LWPOLYLINE
  5
2DE
100
AcDbEntity
  8
0
100
AcDbPolyline
 62
250
  6
CONTINUOUS
 90
22
 70
0
 10
-320.6392916297
 20
-152.6569949276
 10
-320.5553282295
 20
-152.6106958939
 10
-320.4716512494
 20
-152.4352497005
 10
-320.3883011331
 20
-152.1306563472
 10
-320.3047787402
 20
-151.6916106333
 10
-320.2216512542
 20
-151.1234177595
 10
-320.1406074884
 20
-150.4419933282
 10
-320.0618783438
 20
-149.6476711141
 10
-319.9854039408
 20
-148.7401173424
 10
-319.912514934
 20
-147.734246291
 10
-319.8433879547
 20
-146.6284187327
 10
-319.7780535958
 20
-145.4242738947
 10
-319.7176698675
 20
-144.1416437367
 10
-319.6624278933
 20
-142.779260923
 10
-319.6123418985
 20
-141.3383927894
 10
-319.568326117
 20
-139.8426733022
 10
-319.5305685426
 20
-138.2912302978
 10
-319.4990455586
 20
-136.68493594
 10
-319.4743533139
 20
-135.0500406865
 10
-319.4567229772
 20
-133.3952946901
 10
-319.4460149501
 20
-131.711947798
 10
-319.4422521411
 20
-130.0000000103
  0
LINE
  5
2DF
100
AcDbEntity
  8
0
100
AcDbLine
 62
7
  6
CONTINUOUS
 10
-324.457563613
 20
114.98603595
 11
-324.2575596055
 21
114.98603595
  0
LINE
  5
2E0
100
AcDbEntity
  8
0
100
AcDbLine
 62
250
  6
CONTINUOUS
 10
-324.2619930985
 20
117.6930069241
 11
-324.4619968168
 21
117.6930069238
  0
LINE
  5
2E1
100
AcDbEntity
  8
0
100
AcDbLine
 62
250
  6
CONTINUOUS
 10
-324.4639930719
 20
118.7064435358
 11
-324.2639909265
 21
118.7064435358
  0
LINE
  5
2E2
100
AcDbEntity
  8
0
100
AcDbLine
 62
7
  6
CONTINUOUS
 10
-242.3191306357
 20
-140.1038679372
 11
-243.3189783309
 21
-141.1213203436
  0
LINE
  5
2E3
100
AcDbEntity
  8
0
100
AcDbLine
 62
7
  6
CONTINUOUS
 10
-240.3015259244
 20
124.9313494841
 11
-242.3191306357
 21
124.8961320628
  0
LINE
  5
2E4
100
AcDbEntity
  8
0
100
AcDbLine
 62
7
  6
CONTINUOUS
 10
-324.4694720473
 20
119.6839112434
 11
-324.2694668178
 21
119.6839112434
  0
LINE
  5
2E5
100
AcDbEntity
  8
0
100
AcDbLine
 62
250
  6
CONTINUOUS
 10
-324.461985877
 20
121.0499092639
 11
-324.2619795334
 21
121.0499092639
  0
LINE
  5
2E6
100
AcDbEntity
  8
0
100
AcDbLine
 62
250
  6
CONTINUOUS
 10
-324.4606854665
 20
122.3243801091
 11
-324.2606982286
 21
122.3243801091
  0
LINE
  5
2E7
100
AcDbEntity
  8
0
100
AcDbLine
 62
250
  6
CONTINUOUS
 10
-324.4735318195
 20
124.9312804461
 11
-324.2735363737
 21
124.9312804461
  0
LINE
  5
2E8
100
AcDbEntity
  8
0
100
AcDbLine
 62
7
  6
CONTINUOUS
 10
-324.2833100478
 20
125.0964602881
 11
-324.4833123751
 21
125.0964602881
  0
LINE
  5
2E9
100
AcDbEntity
  8
0
100
AcDbLine
 62
250
  6
CONTINUOUS
 10
-243.3189783309
 20
130.0
 11
-319.4422521411
 21
130.0
  0
LINE
  5
2EA
100
AcDbEntity
  8
0
100
AcDbLine
 62
7
  6
CONTINUOUS
 10
-242.3191306357
 20
140.1038679372
 11
-243.3189783309
 21
141.1213203436
  0
LINE
  5
2EB
100
AcDbEntity
  8
0
100
AcDbLine
 62
250
  6
CONTINUOUS
 10
-243.3189783281
 20
-134.9748737637
 11
-242.3191306341
 21
-134.2554262728
  0
LINE
  5
2EC
100
AcDbEntity
  8
0
100
AcDbLine
 62
250
  6
CONTINUOUS
 10
-242.3191306341
 20
-138.4980670908
 11
-243.3189783269
 21
-139.2175145928
  0
LINE
  5
2ED
100
AcDbEntity
  8
0
100
AcDbLine
 62
250
  6
CONTINUOUS
 10
-240.3015259241
 20
134.2305237015
 11
-242.3191306335
 21
134.2554260711
  0
LINE
  5
2EE
100
AcDbEntity
  8
0
100
AcDbLine
 62
250
  6
CONTINUOUS
 10
-242.3191306335
 20
138.4980668891
 11
-240.3015259241
 21
138.4731644374
  0
LWPOLYLINE
  5
2EF
100
AcDbEntity
  8
0
100
AcDbPolyline
 62
250
  6
CONTINUOUS
 90
13
 70
0
 10
-240.3015259241
 20
134.2305237607
 10
-240.1726075404
 20
134.2230157731
 10
-240.0461383338
 20
134.2038034182
 10
-239.924234474
 20
134.1732081704
 10
-239.8089357407
 20
134.1317419705
 10
-239.7021713916
 20
134.0800986595
 10
-239.6057278815
 20
134.0191423689
 10
-239.5212189695
 20
133.9498930614
 10
-239.4500587172
 20
133.8735094642
 10
-239.3934378268
 20
133.7912696802
 10
-239.3523037182
 20
133.7045498022
 10
-239.3273446756
 20
133.614800887
 10
-239.3189783309
 20
133.5235246753
  0
LINE
  5
2F0
100
AcDbEntity
  8
0
100
AcDbLine
 62
250
  6
CONTINUOUS
 10
-242.3191306341
 20
134.25542607
 11
-243.3189783269
 21
134.974873559
  0
LINE
  5
2F1
100
AcDbEntity
  8
0
100
AcDbLine
 62
250
  6
CONTINUOUS
 10
-243.3189783281
 20
139.2175143883
 11
-242.3191306341
 21
138.498066888
  0
LWPOLYLINE
  5
2F2
100
AcDbEntity
  8
0
100
AcDbPolyline
 62
7
  6
CONTINUOUS
 90
13
 70
0
 43
0.3500000006
 10
-283.6404019775
 20
175.2463189087
 10
-283.926126709
 20
175.4606033936
 10
-283.926126709
 20
176.1034568481
 10
-283.6404019775
 20
176.5320258179
 10
-282.9975485229
 20
176.5320258179
 10
-282.7118419189
 20
176.1034568481
 10
-282.7118419189
 20
175.4606033936
 10
-282.9975485229
 20
175.2463189087
 10
-282.5689795532
 20
174.817749939
 10
-282.5689795532
 20
173.9606119995
 10
-282.9975485229
 20
173.5320249023
 10
-283.6404019775
 20
173.5320249023
 10
-284.0689709473
 20
173.9606119995
  0
LINE
  5
2F3
100
AcDbEntity
  8
0
100
AcDbLine
 62
7
  6
CONTINUOUS
 10
-302.1189783309
 20
152.7854266359
 11
-301.3189783309
 21
152.7993906878
  0
LINE
  5
2F4
100
AcDbEntity
  8
0
100
AcDbLine
 62
7
  6
CONTINUOUS
 10
-302.1189783309
 20
154.9860359481
 11
-322.3538832369
 21
154.63283443
  0
LINE
  5
2F5
100
AcDbEntity
  8
0
100
AcDbLine
 62
7
  6
CONTINUOUS
 10
-320.6393311602
 20
152.6595940497
 11
-324.3189783309
 21
152.6453262147
  0
LWPOLYLINE
  5
2F6
100
AcDbEntity
  8
0
100
AcDbPolyline
 62
7
  6
CONTINUOUS
 90
8
 70
0
 43
0.3500000006
 10
-281.7118416138
 20
173.5320249023
 10
-280.8546855469
 20
173.5320249023
 10
-280.4261165771
 20
173.9606119995
 10
-280.4261165771
 20
174.817749939
 10
-280.8546855469
 20
175.2463189087
 10
-281.7118416138
 20
175.2463189087
 10
-281.7118416138
 20
176.5320258179
 10
-280.4261165771
 20
176.5320258179
  0
LINE
  5
2F7
100
AcDbEntity
  8
0
100
AcDbLine
 62
7
  6
CONTINUOUS
 10
-240.3015259244
 20
140.0686505159
 11
-242.3191306357
 21
140.1038679372
  0
LINE
  5
2F8
100
AcDbEntity
  8
0
100
AcDbLine
 62
7
  6
CONTINUOUS
 10
-245.284073518
 20
149.0219070982
 11
-248.3189783307
 21
149.0748815588
  0
LINE
  5
2F9
100
AcDbEntity
  8
0
100
AcDbLine
 62
7
  6
CONTINUOUS
 10
-251.3185214158
 20
154.1272387781
 11
-301.3189783309
 21
155.0
  0
LWPOLYLINE
  5
2FA
100
AcDbEntity
  8
0
100
AcDbPolyline
 62
250
  6
CONTINUOUS
 90
6
 70
0
 10
-239.7021713918
 20
138.3227393467
 10
-239.8089357409
 20
138.3743826576
 10
-239.9242344743
 20
138.4158488575
 10
-240.046138334
 20
138.4464441053
 10
-240.1726075406
 20
138.4656564602
 10
-240.3015259241
 20
138.4731644478
  0
ARC
  5
2FB
100
AcDbEntity
  8
0
100
AcDbCircle
 62
7
  6
CONTINUOUS
 10
150.0
 20
-130.0
 40
25.0
100
AcDbArc
 50
270.0
 51
360.0
  0
ARC
  5
2FC
100
AcDbEntity
  8
0
100
AcDbCircle
 62
7
  6
CONTINUOUS
 10
-150.0
 20
-130.0
 40
25.0
100
AcDbArc
 50
179.9999999656
 51
270.0
  0
ARC
  5
2FD
100
AcDbEntity
  8
0
100
AcDbCircle
 62
7
  6
CONTINUOUS
 10
-150.0
 20
130.0
 40
25.0
100
AcDbArc
 50
89.9999999656
 51
180.0
  0
ARC
  5
2FE
100
AcDbEntity
  8
0
100
AcDbCircle
 62
7
  6
CONTINUOUS
 10
150.0
 20
130.0
 40
25.0
100
AcDbArc
 50
0.0
 51
90.0
  0
ARC
  5
2FF
100
AcDbEntity
  8
0
100
AcDbCircle
 62
7
  6
CONTINUOUS
 10
150.0
 20
-130.0
 40
24.9860359481
100
AcDbArc
 50
269.9999999981
 51
360.0
  0
ARC
  5
300
100
AcDbEntity
  8
0
100
AcDbCircle
 62
7
  6
CONTINUOUS
 10
150.0
 20
130.0
 40
24.9860359481
100
AcDbArc
 50
0.0
 51
90.0000000028
  0
ARC
  5
301
100
AcDbEntity
  8
0
100
AcDbCircle
 62
7
  6
CONTINUOUS
 10
-150.0
 20
130.0
 40
24.9860359481
100
AcDbArc
 50
89.9999999981
 51
180.0000000021
  0
ARC
  5
302
100
AcDbEntity
  8
0
100
AcDbCircle
 62
7
  6
CONTINUOUS
 10
-150.0
 20
-130.0
 40
24.9860359481
100
AcDbArc
 50
179.9999999981
 51
270.0000000028
  0
ARC
  5
303
100
AcDbEntity
  8
0
100
AcDbCircle
 62
7
  6
CONTINUOUS
 10
15.4145831738
 20
102.8710935786
 40
22.2430286925
100
AcDbArc
 50
93.2223361134
 51
98.5183586949
  0
ARC
  5
304
100
AcDbEntity
  8
0
100
AcDbCircle
 62
7
  6
CONTINUOUS
 10
14.786659634
 20
114.0243151815
 40
11.0721451066
100
AcDbArc
 50
80.0907297699
 51
93.2223361099
  0
ARC
  5
305
100
AcDbEntity
  8
0
100
AcDbCircle
 62
7
  6
CONTINUOUS
 10
9.7326512398
 20
115.3322891384
 40
9.2632146852
100
AcDbArc
 50
14.7646173229
 51
21.3616226566
  0
ARC
  5
306
100
AcDbEntity
  8
0
100
AcDbCircle
 62
7
  6
CONTINUOUS
 10
15.0390598405
 20
122.2965375309
 40
3.8595035476
100
AcDbArc
 50
341.1554152249
 51
0.4133371149
  0
ARC
  5
307
100
AcDbEntity
  8
0
100
AcDbCircle
 62
7
  6
CONTINUOUS
 10
16.2334129849
 20
122.3059264495
 40
2.6651135001
100
AcDbArc
 50
0.3967307248
 51
80.090730203
  0
ARC
  5
308
100
AcDbEntity
  8
0
100
AcDbCircle
 62
7
  6
CONTINUOUS
 10
16.5277870311
 20
121.7884403878
 40
2.2864582985
100
AcDbArc
 50
293.0106960727
 51
341.1554155931
  0
ARC
  5
309
100
AcDbEntity
  8
0
100
AcDbCircle
 62
7
  6
CONTINUOUS
 10
16.7080113526
 20
118.060514551
 40
1.7732972877
100
AcDbArc
 50
21.3616227046
 51
66.27225852
  0
ARC
  5
30A
100
AcDbEntity
  8
0
100
AcDbCircle
 62
7
  6
CONTINUOUS
 10
15.3226006803
 20
121.9098155609
 40
1.3728177837
100
AcDbArc
 50
269.9999898928
 51
89.9999956456
  0
ARC
  5
30B
100
AcDbEntity
  8
0
100
AcDbCircle
 62
7
  6
CONTINUOUS
 10
15.3214575311
 20
117.6677525402
 40
1.2307692308
100
AcDbArc
 50
14.8104580938
 51
89.9879484042
  0
ARC
  5
30C
100
AcDbEntity
  8
0
100
AcDbCircle
 62
7
  6
CONTINUOUS
 10
-322.318977439
 20
152.6331390571
 40
1.9999999998
100
AcDbArc
 50
91.0000282216
 51
179.6096688732
  0
ARC
  5
30D
100
AcDbEntity
  8
0
100
AcDbCircle
 62
7
  6
CONTINUOUS
 10
-322.3189774387
 20
-152.633139052
 40
1.9999999998
100
AcDbArc
 50
180.3903312646
 51
268.9999717497
  0
ARC
  5
30E
100
AcDbEntity
  8
0
100
AcDbCircle
 62
7
  6
CONTINUOUS
 10
-245.3189783309
 20
147.0222117079
 40
2.0
100
AcDbArc
 50
0.0
 51
88.9999999996
  0
ARC
  5
30F
100
AcDbEntity
  8
0
100
AcDbCircle
 62
7
  6
CONTINUOUS
 10
-245.3189783309
 20
-147.0222117079
 40
2.0
100
AcDbArc
 50
271.0000000005
 51
360.0
  0
ARC
  5
310
100
AcDbEntity
  8
0
100
AcDbCircle
 62
7
  6
CONTINUOUS
 10
-240.3189783309
 20
-125.9311971792
 40
1.0
100
AcDbArc
 50
0.0
 51
89.0
  0
ARC
  5
311
100
AcDbEntity
  8
0
100
AcDbCircle
 62
7
  6
CONTINUOUS
 10
-240.3189783309
 20
-139.0688028208
 40
1.0
100
AcDbArc
 50
271.0
 51
360.0
  0
ARC
  5
312
100
AcDbEntity
  8
0
100
AcDbCircle
 62
7
  6
CONTINUOUS
 10
-240.3189783309
 20
139.0688028208
 40
1.0
100
AcDbArc
 50
0.0
 51
89.0
  0
ARC
  5
313
100
AcDbEntity
  8
0
100
AcDbCircle
 62
7
  6
CONTINUOUS
 10
-240.3189783309
 20
125.9311971792
 40
1.0
100
AcDbArc
 50
271.0
 51
360.0
  0
ENDSEC
  0
SECTION
  2
OBJECTS
  0
DICTIONARY
  5
C
100
AcDbDictionary
280
0
281
1
  3
ACAD_GROUP
350
D
  3
ACAD_MLINESTYLE
350
17
  3
ACAD_LAYOUT
350
1A
  3
ACAD_PLOTSETTINGS
350
19
  3
ACAD_PLOTSTYLENAME
350
E
  0
DICTIONARY
  5
D
102
{ACAD_REACTORS
330
C
102
}
100
AcDbDictionary
280
0
281
1
  0
ACDBDICTIONARYWDFLT
  5
E
102
{ACAD_REACTORS
330
C
102
}
100
AcDbDictionary
281
1
  3
Normal
350
F
100
AcDbDictionaryWithDefault
340
F
  0
DICTIONARY
  5
17
102
{ACAD_REACTORS
330
C
102
}
100
AcDbDictionary
280
0
281
1
  3
Standard
350
18
  0
DICTIONARY
  5
19
102
{ACAD_REACTORS
330
C
102
}
100
AcDbDictionary
281
1
  0
DICTIONARY
  5
1A
102
{ACAD_REACTORS
330
C
102
}
100
AcDbDictionary
281
1
  3
Model
350
314
  3
Layout1
350
315
  0
ACDBPLACEHOLDER
  5
F
102
{ACAD_REACTORS
330
E
102
}
  0
MLINESTYLE
  5
18
102
{ACAD_REACTORS
330
17
102
}
100
AcDbMlineStyle
  2
STANDARD
 70
0
  3

 62
256
 51
90.0
 52
90.0
 71
2
 49
0.5
 62
256
  6
BYLAYER
 49
-0.5
 62
256
  6
BYLAYER
  0
LAYOUT
  5
314
102
{ACAD_REACTORS
330
1A
102
}
100
AcDbPlotSettings
  1

  2
none_device
  4
ISO_A4_(297.00_x_210.00_MM)
  6

 40
0.0
 41
0.0
 42
0.0
 43
0.0
 44
297.0
 45
210.0
 46
0.0
 47
0.0
 48
0.0
 49
0.0
140
0.0
141
0.0
142
1.0
143
1.0
 70
1024
 72
1
 73
0
 74
0
  7

 75
0
147
1.0
148
0.0
149
0.0
100
AcDbLayout
  1
Model
 70
0
 71
0
 10
0.0
 20
0.0
 11
297.0
 21
210.0
 12
0.0
 22
0.0
 32
0.0
 14
0.0
 24
0.0
 34
0.0
 15
0.0
 25
0.0
 35
0.0
146
0.0
 13
0.0
 23
0.0
 33
0.0
 16
1.0
 26
0.0
 36
0.0
 17
0.0
 27
1.0
 37
0.0
 76
0
330
20A
345
0
346
0
  0
LAYOUT
  5
315
102
{ACAD_REACTORS
330
1A
102
}
100
AcDbPlotSettings
  1

  2
none_device
  4
ISO_A4_(297.00_x_210.00_MM)
  6

 40
0.0
 41
0.0
 42
0.0
 43
0.0
 44
297.0
 45
210.0
 46
0.0
 47
0.0
 48
0.0
 49
0.0
140
0.0
141
0.0
142
1.0
143
1.0
 70
0
 72
1
 73
0
 74
0
  7

 75
0
147
1.0
148
0.0
149
0.0
100
AcDbLayout
  1
Layout1
 70
0
 71
1
 10
0.0
 20
0.0
 11
297.0
 21
210.0
 12
0.0
 22
0.0
 32
0.0
 14
0.0
 24
0.0
 34
0.0
 15
0.0
 25
0.0
 35
0.0
146
0.0
 13
0.0
 23
0.0
 33
0.0
 16
1.0
 26
0.0
 36
0.0
 17
0.0
 27
1.0
 37
0.0
 76
0
330
20B
345
0
346
0
  0
ENDSEC
  0
EOF
