  0
SECTION
  2
HEADER
  9
$ACADVER
  1
AC1024
  9
$DWGCODEPAGE
  3
ANSI_1252
  9
$EXTMAX
 10
297.0
 20
210.0
 30
0.0
  9
$EXTMIN
 10
0.0
 20
0.0
 30
0.0
  9
$LIMMIN
 10
0.0
 20
0.0
  9
$LIMMAX
 10
297.0
 20
210.0
  9
$VIEWCTR
 10
148.5
 20
105.0
  9
$VIEWSIZE
 40
210.0
  9
$CLAYER
  8
0
  9
$LTSCALE
 40
16.335
  9
$CELTYPE
  6
BYLAYER
  9
$DIMSCALE
 40
1.0
  9
$DIMASZ
 40
3.0
  9
$DIMEXO
 40
0.5
  9
$DIMDLI
 40
11.286
  9
$DIMEXE
 40
1.5
  9
$DIMCEN
 40
2.673
  9
$DIMLFAC
 40
1.0
  9
$DIMBLK
  1
_FILLED
  9
$DIMALT
 70
0
  9
$DIMALTF
 40
0.0393700787
  9
$DIMTXT
 40
3.0
  9
$DIMTOL
 70
1
  9
$DIMLIM
 70
0
  9
$DIMTFAC
 40
1.0
  9
$DIMTP
 40
0.01
  9
$DIMTM
 40
0.01
  9
$DIMGAP
 40
0.625
  9
$DIMDSEP
 70
44
  9
$AUNITS
 70
0
  9
$PDMODE
 70
3
  9
$PDSIZE
 40
3.0
  9
$HANDSEED
  5
3A3
  9
$TILEMODE
 70
1
  9
$MEASUREMENT
 70
1
  9
$INSUNITS
 70
4
  0
ENDSEC
  0
SECTION
  2
CLASSES
  0
CLASS
  1
ACDBDICTIONARYWDFLT
  2
AcDbDictionaryWithDefault
  3
AutoCAD 2000
 90
0
 91
1
280
0
281
0
  0
CLASS
  1
ACDBPLACEHOLDER
  2
AcDbPlaceHolder
  3
AutoCAD 2000
 90
0
 91
1
280
0
281
0
  0
CLASS
  1
LAYOUT
  2
AcDbLayout
  3
AutoCAD 2000
 90
0
 91
0
280
0
281
0
  0
ENDSEC
  0
SECTION
  2
TABLES
  0
TABLE
  2
VPORT
  5
8
100
AcDbSymbolTable
 70
2
  0
VPORT
  5
1F4
100
AcDbSymbolTableRecord
100
AcDbViewportTableRecord
  2
*ACTIVE
 70
0
 10
0.0
 20
0.0
 11
1.0
 21
1.0
 12
148.5
 22
105.0
 13
0.0
 23
0.0
 14
1.0
 24
1.0
 15
0.0
 25
0.0
 16
0.0
 26
0.0
 36
1.0
 17
0.0
 27
0.0
 37
0.0
 40
210.0
 41
1.4142857143
 42
50.0
 43
0.0
 44
0.0
 50
0.0
 51
0.0
 71
0
 72
100
 73
1
 74
1
 75
0
 76
0
 77
0
 78
0
  0
ENDTAB
  0
TABLE
  2
LTYPE
  5
5
100
AcDbSymbolTable
 70
6
  0
LTYPE
  5
14
100
AcDbSymbolTableRecord
100
AcDbLinetypeTableRecord
  2
BYBLOCK
 70
0
  3

 72
65
 73
0
 40
0.0
  0
LTYPE
  5
15
100
AcDbSymbolTableRecord
100
AcDbLinetypeTableRecord
  2
BYLAYER
 70
0
  3

 72
65
 73
0
 40
0.0
  0
LTYPE
  5
16
100
AcDbSymbolTableRecord
100
AcDbLinetypeTableRecord
  2
CONTINUOUS
 70
64
  3
Solid line
 72
65
 73
0
 40
0.0
  0
LTYPE
  5
1F5
100
AcDbSymbolTableRecord
100
AcDbLinetypeTableRecord
  2
CENTER
 70
64
  3
____ _ ____ _ ____ _ ____ _ ____ _ ____ _ ____
 72
65
 73
4
 40
0.6
 49
0.375
 74
0
 49
-0.075
 74
0
 49
0.075
 74
0
 49
-0.075
 74
0
  0
LTYPE
  5
1F6
100
AcDbSymbolTableRecord
100
AcDbLinetypeTableRecord
  2
HIDDEN
 70
64
  3
- - - - - - - - - - - - - - - - - - - -
 72
65
 73
2
 40
0.2
 49
0.1
 74
0
 49
-0.1
 74
0
  0
LTYPE
  5
1F7
100
AcDbSymbolTableRecord
100
AcDbLinetypeTableRecord
  2
PHANTOM
 70
64
  3
_____ _ _ _____ _ _ _____ _ _ _____
 72
65
 73
6
 40
0.8
 49
0.45
 74
0
 49
-0.05
 74
0
 49
0.1
 74
0
 49
-0.05
 74
0
 49
0.1
 74
0
 49
-0.05
 74
0
  0
LTYPE
  5
1F8
100
AcDbSymbolTableRecord
100
AcDbLinetypeTableRecord
  2
DOT
 70
64
  3
. . . . . . . . . . . . . . . . . . . .
 72
65
 73
2
 40
0.2
 49
0.1
 74
0
 49
-0.1
 74
0
  0
LTYPE
  5
1F9
100
AcDbSymbolTableRecord
100
AcDbLinetypeTableRecord
  2
DASHED
 70
64
  3
- - - - - - - - - - - - - - - - - - - -
 72
65
 73
2
 40
0.2
 49
0.1
 74
0
 49
-0.1
 74
0
  0
ENDTAB
  0
TABLE
  2
LAYER
  5
2
100
AcDbSymbolTable
 70
36
  0
LAYER
  5
10
100
AcDbSymbolTableRecord
100
AcDbLayerTableRecord
  2
0
 70
0
 62
7
  6
CONTINUOUS
370
-3
390
F
  0
LAYER
  5
1FA
100
AcDbSymbolTableRecord
100
AcDbLayerTableRecord
  2
DEFAULT_1
 70
0
 62
7
  6
CENTER
370
-3
390
F
  0
LAYER
  5
1FB
100
AcDbSymbolTableRecord
100
AcDbLayerTableRecord
  2
DEFAULT_2
 70
0
 62
7
  6
HIDDEN
370
-3
390
F
  0
LAYER
  5
1FC
100
AcDbSymbolTableRecord
100
AcDbLayerTableRecord
  2
DEFAULT_3
 70
0
 62
7
  6
PHANTOM
370
-3
390
F
  0
LAYER
  5
1FD
100
AcDbSymbolTableRecord
100
AcDbLayerTableRecord
  2
ANGOLARE
 70
0
 62
7
  6
CONTINUOUS
370
-3
390
F
  0
LAYER
  5
1FE
100
AcDbSymbolTableRecord
100
AcDbLayerTableRecord
  2
ANGOLARE_1
 70
0
 62
7
  6
CONTINUOUS
370
-3
390
F
  0
LAYER
  5
1FF
100
AcDbSymbolTableRecord
100
AcDbLayerTableRecord
  2
ANGOLARE_2
 70
0
 62
7
  6
CONTINUOUS
370
-3
390
F
  0
LAYER
  5
200
100
AcDbSymbolTableRecord
100
AcDbLayerTableRecord
  2
ANGOLARE_3
 70
0
 62
7
  6
CONTINUOUS
370
-3
390
F
  0
LAYER
  5
201
100
AcDbSymbolTableRecord
100
AcDbLayerTableRecord
  2
ANGOLARE_DI_FISSAGGIO
 70
0
 62
7
  6
CONTINUOUS
370
-3
390
F
  0
LAYER
  5
202
100
AcDbSymbolTableRecord
100
AcDbLayerTableRecord
  2
ANGOLARE_DI_FISSAGGIO_1
 70
0
 62
7
  6
CONTINUOUS
370
-3
390
F
  0
LAYER
  5
203
100
AcDbSymbolTableRecord
100
AcDbLayerTableRecord
  2
ANGOLARE_DI_FISSAGGIO_2
 70
0
 62
7
  6
CONTINUOUS
370
-3
390
F
  0
LAYER
  5
204
100
AcDbSymbolTableRecord
100
AcDbLayerTableRecord
  2
ANGOLARE_DI_FISSAGGIO_3
 70
0
 62
7
  6
CONTINUOUS
370
-3
390
F
  0
LAYER
  5
205
100
AcDbSymbolTableRecord
100
AcDbLayerTableRecord
  2
ANTIAPERTURA
 70
0
 62
7
  6
CONTINUOUS
370
-3
390
F
  0
LAYER
  5
206
100
AcDbSymbolTableRecord
100
AcDbLayerTableRecord
  2
ASSI
 70
0
 62
7
  6
CONTINUOUS
370
-3
390
F
  0
LAYER
  5
207
100
AcDbSymbolTableRecord
100
AcDbLayerTableRecord
  2
BASE-PRIME-GRANDE-112993
 70
0
 62
7
  6
CONTINUOUS
370
-3
390
F
  0
LAYER
  5
208
100
AcDbSymbolTableRecord
100
AcDbLayerTableRecord
  2
BASE-PRIME-GRANDE-112994
 70
0
 62
7
  6
CONTINUOUS
370
-3
390
F
  0
LAYER
  5
209
100
AcDbSymbolTableRecord
100
AcDbLayerTableRecord
  2
CENTRALE-VIMAR
 70
0
 62
7
  6
CONTINUOUS
370
-3
390
F
  0
LAYER
  5
20A
100
AcDbSymbolTableRecord
100
AcDbLayerTableRecord
  2
COLONNINAM3X20
 70
0
 62
7
  6
CONTINUOUS
370
-3
390
F
  0
LAYER
  5
20B
100
AcDbSymbolTableRecord
100
AcDbLayerTableRecord
  2
COLONNINAM3X20_1
 70
0
 62
7
  6
CONTINUOUS
370
-3
390
F
  0
LAYER
  5
20C
100
AcDbSymbolTableRecord
100
AcDbLayerTableRecord
  2
COLONNINAM3X20_2
 70
0
 62
7
  6
CONTINUOUS
370
-3
390
F
  0
LAYER
  5
20D
100
AcDbSymbolTableRecord
100
AcDbLayerTableRecord
  2
COLONNINAM3X20_3
 70
0
 62
7
  6
CONTINUOUS
370
-3
390
F
  0
LAYER
  5
20E
100
AcDbSymbolTableRecord
100
AcDbLayerTableRecord
  2
COLONNINAM3X20_4
 70
0
 62
7
  6
CONTINUOUS
370
-3
390
F
  0
LAYER
  5
20F
100
AcDbSymbolTableRecord
100
AcDbLayerTableRecord
  2
COLONNINAM3X20_5
 70
0
 62
7
  6
CONTINUOUS
370
-3
390
F
  0
LAYER
  5
210
100
AcDbSymbolTableRecord
100
AcDbLayerTableRecord
  2
COLONNINAM3X20_6
 70
0
 62
7
  6
CONTINUOUS
370
-3
390
F
  0
LAYER
  5
211
100
AcDbSymbolTableRecord
100
AcDbLayerTableRecord
  2
COLONNINAM3X20_7
 70
0
 62
7
  6
CONTINUOUS
370
-3
390
F
  0
LAYER
  5
212
100
AcDbSymbolTableRecord
100
AcDbLayerTableRecord
  2
COLOR22
 70
0
 62
7
  6
CONTINUOUS
370
-3
390
F
  0
LAYER
  5
213
100
AcDbSymbolTableRecord
100
AcDbLayerTableRecord
  2
COLOR63
 70
0
 62
7
  6
CONTINUOUS
370
-3
390
F
  0
LAYER
  5
214
100
AcDbSymbolTableRecord
100
AcDbLayerTableRecord
  2
COLOR64
 70
0
 62
7
  6
CONTINUOUS
370
-3
390
F
  0
LAYER
  5
215
100
AcDbSymbolTableRecord
100
AcDbLayerTableRecord
  2
COLOR65
 70
0
 62
7
  6
CONTINUOUS
370
-3
390
F
  0
LAYER
  5
216
100
AcDbSymbolTableRecord
100
AcDbLayerTableRecord
  2
COLOR66
 70
0
 62
7
  6
CONTINUOUS
370
-3
390
F
  0
LAYER
  5
217
100
AcDbSymbolTableRecord
100
AcDbLayerTableRecord
  2
COLOR67
 70
0
 62
7
  6
CONTINUOUS
370
-3
390
F
  0
LAYER
  5
218
100
AcDbSymbolTableRecord
100
AcDbLayerTableRecord
  2
COLOR68
 70
0
 62
7
  6
CONTINUOUS
370
-3
390
F
  0
LAYER
  5
219
100
AcDbSymbolTableRecord
100
AcDbLayerTableRecord
  2
COLOR69
 70
0
 62
7
  6
CONTINUOUS
370
-3
390
F
  0
LAYER
  5
21A
100
AcDbSymbolTableRecord
100
AcDbLayerTableRecord
  2
COLOR70
 70
0
 62
7
  6
CONTINUOUS
370
-3
390
F
  0
LAYER
  5
21B
100
AcDbSymbolTableRecord
100
AcDbLayerTableRecord
  2
COLOR71
 70
0
 62
7
  6
CONTINUOUS
370
-3
390
F
  0
LAYER
  5
21C
100
AcDbSymbolTableRecord
100
AcDbLayerTableRecord
  2
COLOR72
 70
0
 62
7
  6
CONTINUOUS
370
-3
390
F
  0
LAYER
  5
21D
100
AcDbSymbolTableRecord
100
AcDbLayerTableRecord
  2
COLOR73
 70
0
 62
7
  6
CONTINUOUS
370
-3
390
F
  0
LAYER
  5
21E
100
AcDbSymbolTableRecord
100
AcDbLayerTableRecord
  2
COLOR74
 70
0
 62
7
  6
CONTINUOUS
370
-3
390
F
  0
LAYER
  5
21F
100
AcDbSymbolTableRecord
100
AcDbLayerTableRecord
  2
COLOR75
 70
0
 62
7
  6
CONTINUOUS
370
-3
390
F
  0
LAYER
  5
220
100
AcDbSymbolTableRecord
100
AcDbLayerTableRecord
  2
COLOR76
 70
0
 62
7
  6
CONTINUOUS
370
-3
390
F
  0
LAYER
  5
221
100
AcDbSymbolTableRecord
100
AcDbLayerTableRecord
  2
COLOR77
 70
0
 62
7
  6
CONTINUOUS
370
-3
390
F
  0
LAYER
  5
222
100
AcDbSymbolTableRecord
100
AcDbLayerTableRecord
  2
COLOR78
 70
0
 62
7
  6
CONTINUOUS
370
-3
390
F
  0
LAYER
  5
223
100
AcDbSymbolTableRecord
100
AcDbLayerTableRecord
  2
COLOR79
 70
0
 62
7
  6
CONTINUOUS
370
-3
390
F
  0
LAYER
  5
224
100
AcDbSymbolTableRecord
100
AcDbLayerTableRecord
  2
COLOR80
 70
0
 62
7
  6
CONTINUOUS
370
-3
390
F
  0
LAYER
  5
225
100
AcDbSymbolTableRecord
100
AcDbLayerTableRecord
  2
COLOR81
 70
0
 62
7
  6
CONTINUOUS
370
-3
390
F
  0
LAYER
  5
226
100
AcDbSymbolTableRecord
100
AcDbLayerTableRecord
  2
COLOR82
 70
0
 62
7
  6
CONTINUOUS
370
-3
390
F
  0
LAYER
  5
227
100
AcDbSymbolTableRecord
100
AcDbLayerTableRecord
  2
COORDINATE
 70
0
 62
7
  6
CONTINUOUS
370
-3
390
F
  0
LAYER
  5
228
100
AcDbSymbolTableRecord
100
AcDbLayerTableRecord
  2
COPY_PUBLISH
 70
0
 62
7
  6
CONTINUOUS
370
-3
390
F
  0
LAYER
  5
229
100
AcDbSymbolTableRecord
100
AcDbLayerTableRecord
  2
COSMETICI
 70
0
 62
7
  6
CONTINUOUS
370
-3
390
F
  0
LAYER
  5
22A
100
AcDbSymbolTableRecord
100
AcDbLayerTableRecord
  2
COVER-PRIME-GRANDE
 70
0
 62
7
  6
CONTINUOUS
370
-3
390
F
  0
LAYER
  5
22B
100
AcDbSymbolTableRecord
100
AcDbLayerTableRecord
  2
COVER-SPRING-GRANDE-NEW
 70
0
 62
7
  6
CONTINUOUS
370
-3
390
F
  0
LAYER
  5
22C
100
AcDbSymbolTableRecord
100
AcDbLayerTableRecord
  2
CURVE
 70
0
 62
7
  6
CONTINUOUS
370
-3
390
F
  0
LAYER
  5
22D
100
AcDbSymbolTableRecord
100
AcDbLayerTableRecord
  2
DRAFT
 70
0
 62
7
  6
CONTINUOUS
370
-3
390
F
  0
LAYER
  5
22E
100
AcDbSymbolTableRecord
100
AcDbLayerTableRecord
  2
FASTON_MASCHIO
 70
0
 62
7
  6
CONTINUOUS
370
-3
390
F
  0
LAYER
  5
22F
100
AcDbSymbolTableRecord
100
AcDbLayerTableRecord
  2
IMPORT_IGES
 70
0
 62
7
  6
CONTINUOUS
370
-3
390
F
  0
LAYER
  5
230
100
AcDbSymbolTableRecord
100
AcDbLayerTableRecord
  2
INSERTOM3
 70
0
 62
7
  6
CONTINUOUS
370
-3
390
F
  0
LAYER
  5
231
100
AcDbSymbolTableRecord
100
AcDbLayerTableRecord
  2
INSERTOM3_1
 70
0
 62
7
  6
CONTINUOUS
370
-3
390
F
  0
LAYER
  5
232
100
AcDbSymbolTableRecord
100
AcDbLayerTableRecord
  2
INSERTOM3_10
 70
0
 62
7
  6
CONTINUOUS
370
-3
390
F
  0
LAYER
  5
233
100
AcDbSymbolTableRecord
100
AcDbLayerTableRecord
  2
INSERTOM3_2
 70
0
 62
7
  6
CONTINUOUS
370
-3
390
F
  0
LAYER
  5
234
100
AcDbSymbolTableRecord
100
AcDbLayerTableRecord
  2
INSERTOM3_3
 70
0
 62
7
  6
CONTINUOUS
370
-3
390
F
  0
LAYER
  5
235
100
AcDbSymbolTableRecord
100
AcDbLayerTableRecord
  2
INSERTOM3_4
 70
0
 62
7
  6
CONTINUOUS
370
-3
390
F
  0
LAYER
  5
236
100
AcDbSymbolTableRecord
100
AcDbLayerTableRecord
  2
INSERTOM3_5
 70
0
 62
7
  6
CONTINUOUS
370
-3
390
F
  0
LAYER
  5
237
100
AcDbSymbolTableRecord
100
AcDbLayerTableRecord
  2
INSERTOM3_6
 70
0
 62
7
  6
CONTINUOUS
370
-3
390
F
  0
LAYER
  5
238
100
AcDbSymbolTableRecord
100
AcDbLayerTableRecord
  2
INSERTOM3_7
 70
0
 62
7
  6
CONTINUOUS
370
-3
390
F
  0
LAYER
  5
239
100
AcDbSymbolTableRecord
100
AcDbLayerTableRecord
  2
INSERTOM3_8
 70
0
 62
7
  6
CONTINUOUS
370
-3
390
F
  0
LAYER
  5
23A
100
AcDbSymbolTableRecord
100
AcDbLayerTableRecord
  2
INSERTOM3_9
 70
0
 62
7
  6
CONTINUOUS
370
-3
390
F
  0
LAYER
  5
23B
100
AcDbSymbolTableRecord
100
AcDbLayerTableRecord
  2
INSERTOM4
 70
0
 62
7
  6
CONTINUOUS
370
-3
390
F
  0
LAYER
  5
23C
100
AcDbSymbolTableRecord
100
AcDbLayerTableRecord
  2
INSERTOM4_1
 70
0
 62
7
  6
CONTINUOUS
370
-3
390
F
  0
LAYER
  5
23D
100
AcDbSymbolTableRecord
100
AcDbLayerTableRecord
  2
INSERTOM4_2
 70
0
 62
7
  6
CONTINUOUS
370
-3
390
F
  0
LAYER
  5
23E
100
AcDbSymbolTableRecord
100
AcDbLayerTableRecord
  2
INSERTOM4_3
 70
0
 62
7
  6
CONTINUOUS
370
-3
390
F
  0
LAYER
  5
23F
100
AcDbSymbolTableRecord
100
AcDbLayerTableRecord
  2
INTFCLR_3
 70
0
 62
7
  6
CONTINUOUS
370
-3
390
F
  0
LAYER
  5
240
100
AcDbSymbolTableRecord
100
AcDbLayerTableRecord
  2
LIVELLO_1
 70
0
 62
7
  6
CONTINUOUS
370
-3
390
F
  0
LAYER
  5
241
100
AcDbSymbolTableRecord
100
AcDbLayerTableRecord
  2
LIVELLO_2
 70
0
 62
7
  6
CONTINUOUS
370
-3
390
F
  0
LAYER
  5
242
100
AcDbSymbolTableRecord
100
AcDbLayerTableRecord
  2
NOTE
 70
0
 62
7
  6
CONTINUOUS
370
-3
390
F
  0
LAYER
  5
243
100
AcDbSymbolTableRecord
100
AcDbLayerTableRecord
  2
PERM3X10
 70
0
 62
7
  6
CONTINUOUS
370
-3
390
F
  0
LAYER
  5
244
100
AcDbSymbolTableRecord
100
AcDbLayerTableRecord
  2
PERM3X10_1
 70
0
 62
7
  6
CONTINUOUS
370
-3
390
F
  0
LAYER
  5
245
100
AcDbSymbolTableRecord
100
AcDbLayerTableRecord
  2
PERM3X15
 70
0
 62
7
  6
CONTINUOUS
370
-3
390
F
  0
LAYER
  5
246
100
AcDbSymbolTableRecord
100
AcDbLayerTableRecord
  2
PIANI
 70
0
 62
7
  6
CONTINUOUS
370
-3
390
F
  0
LAYER
  5
247
100
AcDbSymbolTableRecord
100
AcDbLayerTableRecord
  2
PUNTI
 70
0
 62
7
  6
CONTINUOUS
370
-3
390
F
  0
LAYER
  5
248
100
AcDbSymbolTableRecord
100
AcDbLayerTableRecord
  2
RACCORDO
 70
0
 62
7
  6
CONTINUOUS
370
-3
390
F
  0
LAYER
  5
249
100
AcDbSymbolTableRecord
100
AcDbLayerTableRecord
  2
RINFORZO_BATTERIA
 70
0
 62
7
  6
CONTINUOUS
370
-3
390
F
  0
LAYER
  5
24A
100
AcDbSymbolTableRecord
100
AcDbLayerTableRecord
  2
SIMBOLI
 70
0
 62
7
  6
CONTINUOUS
370
-3
390
F
  0
LAYER
  5
24B
100
AcDbSymbolTableRecord
100
AcDbLayerTableRecord
  2
SMUSSO
 70
0
 62
7
  6
CONTINUOUS
370
-3
390
F
  0
LAYER
  5
24C
100
AcDbSymbolTableRecord
100
AcDbLayerTableRecord
  2
SUPERFICI
 70
0
 62
7
  6
CONTINUOUS
370
-3
390
F
  0
LAYER
  5
24D
100
AcDbSymbolTableRecord
100
AcDbLayerTableRecord
  2
TRASH
 70
0
 62
7
  6
CONTINUOUS
370
-3
390
F
  0
LAYER
  5
24E
100
AcDbSymbolTableRecord
100
AcDbLayerTableRecord
  2
VITEM3X6-113004
 70
0
 62
7
  6
CONTINUOUS
370
-3
390
F
  0
LAYER
  5
24F
100
AcDbSymbolTableRecord
100
AcDbLayerTableRecord
  2
VITEM3X6-TESTA-LARGA
 70
0
 62
7
  6
CONTINUOUS
370
-3
390
F
  0
LAYER
  5
250
100
AcDbSymbolTableRecord
100
AcDbLayerTableRecord
  2
VITEM3X6-TESTA-LARGA_1
 70
0
 62
7
  6
CONTINUOUS
370
-3
390
F
  0
LAYER
  5
251
100
AcDbSymbolTableRecord
100
AcDbLayerTableRecord
  2
WHITE
 70
0
 62
7
  6
CONTINUOUS
370
-3
390
F
  0
LAYER
  5
252
100
AcDbSymbolTableRecord
100
AcDbLayerTableRecord
  2
___SHELL
 70
0
 62
7
  6
CONTINUOUS
370
-3
390
F
  0
ENDTAB
  0
TABLE
  2
STYLE
  5
3
100
AcDbSymbolTable
 70
1
  0
STYLE
  5
11
100
AcDbSymbolTableRecord
100
AcDbTextStyleTableRecord
  2
STANDARD
 70
0
 40
0.0
 41
0.8
 50
0.0
 71
0
 42
0.2
  3
txt
  4

  0
STYLE
  5
253
100
AcDbSymbolTableRecord
100
AcDbTextStyleTableRecord
  2
TEXTSTYLE_1
 70
0
 40
0.0
 41
0.8
 50
0.0
 71
0
 42
0.2
  3
gdt
  4

  0
ENDTAB
  0
TABLE
  2
VIEW
  5
6
100
AcDbSymbolTable
 70
0
  0
ENDTAB
  0
TABLE
  2
UCS
  5
7
100
AcDbSymbolTable
 70
0
  0
ENDTAB
  0
TABLE
  2
APPID
  5
9
100
AcDbSymbolTable
 70
1
  0
APPID
  5
254
100
AcDbSymbolTableRecord
100
AcDbRegAppTableRecord
  2
ACAD
 70
0
  0
ENDTAB
  0
TABLE
  2
BLOCK_RECORD
  5
1
100
AcDbSymbolTable
 70
0
  0
BLOCK_RECORD
  5
255
100
AcDbSymbolTableRecord
100
AcDbBlockTableRecord
  2
*Model_Space
  0
BLOCK_RECORD
  5
256
100
AcDbSymbolTableRecord
100
AcDbBlockTableRecord
  2
*Paper_Space
  0
BLOCK_RECORD
  5
257
100
AcDbSymbolTableRecord
100
AcDbBlockTableRecord
  2
_FILLED
  0
BLOCK_RECORD
  5
258
100
AcDbSymbolTableRecord
100
AcDbBlockTableRecord
  2
*D0
  0
BLOCK_RECORD
  5
259
100
AcDbSymbolTableRecord
100
AcDbBlockTableRecord
  2
*D1
  0
BLOCK_RECORD
  5
25A
100
AcDbSymbolTableRecord
100
AcDbBlockTableRecord
  2
*D2
  0
ENDTAB
  0
TABLE
  2
DIMSTYLE
  5
A
100
AcDbSymbolTable
 70
1
100
AcDbDimStyleTable
 71
0
  0
DIMSTYLE
105
25B
100
AcDbSymbolTableRecord
100
AcDbDimStyleTableRecord
  2
STANDARD
 70
0
  3

  4

 40
1.0
 41
3.0
 42
0.5
 43
0.38
 44
1.5
 45
0.0
 46
0.0
 47
0.01
 48
0.01
140
3.0
141
0.09
142
0.0
143
25.4
144
1.0
145
0.0
146
1.0
147
0.625
 71
1
 72
0
 73
0
 74
0
 75
0
 76
0
 77
1
 78
8
 79
2
170
0
171
1
172
0
173
0
174
0
175
0
176
0
177
0
178
0
270
2
179
2
271
2
272
2
273
2
274
2
275
0
280
0
281
0
282
0
283
1
284
8
285
0
286
0
287
3
288
0
340
11
278
44
341
257
342
257
343
257
344
257
  0
DIMSTYLE
105
25C
100
AcDbSymbolTableRecord
100
AcDbDimStyleTableRecord
  2
DIMSTYLE_1
 70
0
  3

  4

 40
1.0
 41
3.0
 42
0.5
 43
0.38
 44
1.5
 45
0.0
 46
0.0
 47
0.0
 48
0.0
140
3.0
141
0.09
142
0.0
143
25.4
144
1.0
145
0.0
146
1.0
147
0.75
 71
0
 72
0
 73
0
 74
0
 75
0
 76
0
 77
1
 78
8
 79
2
170
0
171
1
172
0
173
0
174
0
175
0
176
0
177
0
178
0
270
2
179
2
271
2
272
2
273
2
274
2
275
0
280
0
281
0
282
0
283
1
284
8
285
0
286
0
287
3
288
0
340
11
278
44
341
257
342
257
343
257
344
257
  0
DIMSTYLE
105
25D
100
AcDbSymbolTableRecord
100
AcDbDimStyleTableRecord
  2
DIMSTYLE_2
 70
0
  3

  4

 40
1.0
 41
3.0
 42
0.5
 43
0.38
 44
1.5
 45
0.0
 46
0.0
 47
0.0
 48
0.0
140
3.0
141
0.09
142
0.0
143
25.4
144
1.0
145
0.0
146
1.0
147
0.75
 71
0
 72
0
 73
0
 74
0
 75
0
 76
0
 77
1
 78
8
 79
2
170
0
171
1
172
0
173
0
174
0
175
0
176
0
177
0
178
0
270
2
179
2
271
1
272
1
273
2
274
2
275
0
280
0
281
0
282
0
283
1
284
8
285
0
286
0
287
3
288
0
340
11
278
44
341
257
342
257
343
257
344
257
  0
ENDTAB
  0
ENDSEC
  0
SECTION
  2
BLOCKS
  0
BLOCK
  5
20
100
AcDbEntity
  8
0
100
AcDbBlockBegin
  2
*Model_Space
 70
0
 10
0.0
 20
0.0
 30
0.0
  3
*Model_Space
  1

  0
ENDBLK
  5
21
100
AcDbEntity
  8
0
100
AcDbBlockEnd
  0
BLOCK
  5
1C
100
AcDbEntity
  8
0
100
AcDbBlockBegin
  2
*Paper_Space
 70
0
 10
0.0
 20
0.0
 30
0.0
  3
*Paper_Space
  1

  0
ENDBLK
  5
1D
100
AcDbEntity
  8
0
100
AcDbBlockEnd
  0
BLOCK
  5
25E
100
AcDbEntity
  8
0
100
AcDbBlockBegin
  2
_FILLED
 70
64
 10
0.0
 20
0.0
  3
_FILLED
  1

  0
SOLID
  5
25F
100
AcDbEntity
  8
0
  6
BYBLOCK
 62
0
100
AcDbTrace
 10
0.0
 20
0.0
 11
-1.0
 21
0.3166666667
 12
-1.0
 22
-0.3166666667
 13
-1.0
 23
-0.3166666667
  0
ENDBLK
  5
260
100
AcDbEntity
  8
0
  6
BYBLOCK
 62
0
100
AcDbBlockEnd
  0
BLOCK
  5
261
100
AcDbEntity
  8
0
100
AcDbBlockBegin
 62
7
  6
CONTINUOUS
  2
*D0
 70
65
 10
0.0
 20
0.0
  3
*D0
  1

  0
LINE
  5
262
100
AcDbEntity
  8
0
100
AcDbLine
 62
7
  6
CONTINUOUS
 10
186.798
 20
232.8
 11
222.8738694783
 21
232.8
  0
LINE
  5
263
100
AcDbEntity
  8
0
100
AcDbLine
 62
7
  6
CONTINUOUS
 10
186.798
 20
-232.8
 11
222.8738694783
 21
-232.8
  0
LINE
  5
264
100
AcDbEntity
  8
0
100
AcDbLine
 62
7
  6
CONTINUOUS
 10
221.3738694783
 20
232.8
 11
221.3738694783
 21
0.0
  0
LINE
  5
265
100
AcDbEntity
  8
0
100
AcDbLine
 62
7
  6
CONTINUOUS
 10
221.3738694783
 20
-232.8
 11
221.3738694783
 21
0.0
  0
INSERT
  5
266
100
AcDbEntity
  8
0
100
AcDbBlockReference
 62
7
  6
CONTINUOUS
  2
_FILLED
 10
221.3738694783
 20
232.8
 41
3.0
 42
3.0
 43
3.0
 50
90.0
  0
INSERT
  5
267
100
AcDbEntity
  8
0
100
AcDbBlockReference
 62
7
  6
CONTINUOUS
  2
_FILLED
 10
221.3738694783
 20
-232.8
 41
3.0
 42
3.0
 43
3.0
 50
270.0
  0
ENDBLK
  5
268
100
AcDbEntity
  8
0
  6
BYBLOCK
 62
0
100
AcDbBlockEnd
  0
BLOCK
  5
269
100
AcDbEntity
  8
0
100
AcDbBlockBegin
 62
7
  6
CONTINUOUS
  2
*D1
 70
65
 10
0.0
 20
0.0
  3
*D1
  1

  0
LINE
  5
26A
100
AcDbEntity
  8
0
100
AcDbLine
 62
7
  6
CONTINUOUS
 10
-187.5
 20
232.098
 11
-187.5
 21
253.8253556652
  0
LINE
  5
26B
100
AcDbEntity
  8
0
100
AcDbLine
 62
7
  6
CONTINUOUS
 10
187.5
 20
232.098
 11
187.5
 21
253.8253556652
  0
LINE
  5
26C
100
AcDbEntity
  8
0
100
AcDbLine
 62
7
  6
CONTINUOUS
 10
-187.5
 20
252.3253556652
 11
-0.0
 21
252.3253556652
  0
LINE
  5
26D
100
AcDbEntity
  8
0
100
AcDbLine
 62
7
  6
CONTINUOUS
 10
187.5
 20
252.3253556652
 11
-0.0
 21
252.3253556652
  0
INSERT
  5
26E
100
AcDbEntity
  8
0
100
AcDbBlockReference
 62
7
  6
CONTINUOUS
  2
_FILLED
 10
-187.5
 20
252.3253556652
 41
3.0
 42
3.0
 43
3.0
 50
180.0
  0
INSERT
  5
26F
100
AcDbEntity
  8
0
100
AcDbBlockReference
 62
7
  6
CONTINUOUS
  2
_FILLED
 10
187.5
 20
252.3253556652
 41
3.0
 42
3.0
 43
3.0
 50
0.0
  0
ENDBLK
  5
270
100
AcDbEntity
  8
0
  6
BYBLOCK
 62
0
100
AcDbBlockEnd
  0
BLOCK
  5
271
100
AcDbEntity
  8
0
100
AcDbBlockBegin
 62
7
  6
CONTINUOUS
  2
*D2
 70
65
 10
0.0
 20
0.0
  3
*D2
  1

  0
LINE
  5
272
100
AcDbEntity
  8
0
100
AcDbLine
 62
7
  6
CONTINUOUS
 10
-242.1324553638
 20
213.5853312516
 11
-242.1324553638
 21
253.6051534763
  0
LINE
  5
273
100
AcDbEntity
  8
0
100
AcDbLine
 62
7
  6
CONTINUOUS
 10
-334.309289866
 20
231.1
 11
-334.309289866
 21
253.6051534763
  0
LINE
  5
274
100
AcDbEntity
  8
0
100
AcDbLine
 62
7
  6
CONTINUOUS
 10
-242.1324553638
 20
252.1051534763
 11
-288.2208726149
 21
252.1051534763
  0
LINE
  5
275
100
AcDbEntity
  8
0
100
AcDbLine
 62
7
  6
CONTINUOUS
 10
-334.309289866
 20
252.1051534763
 11
-288.2208726149
 21
252.1051534763
  0
INSERT
  5
276
100
AcDbEntity
  8
0
100
AcDbBlockReference
 62
7
  6
CONTINUOUS
  2
_FILLED
 10
-242.1324553638
 20
252.1051534763
 41
3.0
 42
3.0
 43
3.0
  0
INSERT
  5
277
100
AcDbEntity
  8
0
100
AcDbBlockReference
 62
7
  6
CONTINUOUS
  2
_FILLED
 10
-334.309289866
 20
252.1051534763
 41
3.0
 42
3.0
 43
3.0
 50
180.0
  0
ENDBLK
  5
278
100
AcDbEntity
  8
0
  6
BYBLOCK
 62
0
100
AcDbBlockEnd
  0
ENDSEC
  0
SECTION
  2
ENTITIES
  0
DIMENSION
  5
279
100
AcDbEntity
  8
0
100
AcDbDimension
 62
7
  6
CONTINUOUS
  2
*D0
 10
221.3738694783
 20
-232.8
 11
221.3738694783
 21
-5.4642857143
 70
160
 71
2
 72
2
 41
0.9
 42
465.6000000001
  3
DIMSTYLE_1
100
AcDbAlignedDimension
 13
186.298
 23
232.8
 14
186.298
 24
-232.8
 50
270.0
100
AcDbRotatedDimension
  0
DIMENSION
  5
27A
100
AcDbEntity
  8
0
100
AcDbDimension
 62
7
  6
CONTINUOUS
  2
*D1
 10
187.5
 20
252.3253556652
 11
-3.3214285714
 21
252.3253556652
 70
160
 71
2
 72
2
 41
0.9
 42
375.0000000001
  3
DIMSTYLE_1
100
AcDbAlignedDimension
 13
-187.5
 23
231.598
 14
187.5
 24
231.598
100
AcDbRotatedDimension
  0
DIMENSION
  5
27B
100
AcDbEntity
  8
0
100
AcDbDimension
 62
7
  6
CONTINUOUS
  2
*D2
 10
-334.309289866
 20
252.1051534763
 11
-292.6137297578
 21
252.1051534763
 70
160
 71
2
 72
2
 41
0.9
 42
92.1768345022
  3
DIMSTYLE_2
100
AcDbAlignedDimension
 13
-242.1324553638
 23
213.0853312516
 14
-334.309289866
 24
230.6
 50
180.0
100
AcDbRotatedDimension
  0
LWPOLYLINE
  5
27C
100
AcDbEntity
  8
IMPORT_IGES
100
AcDbPolyline
 62
7
  6
CONTINUOUS
 90
4
 70
0
 10
-186.1504092439
 20
-231.4521102208
 10
-186.1374909697
 20
-231.4615314164
 10
-186.1244840809
 20
-231.4716260043
 10
-186.1113885776
 20
-231.4823892855
  0
LWPOLYLINE
  5
27D
100
AcDbEntity
  8
IMPORT_IGES
100
AcDbPolyline
 62
7
  6
CONTINUOUS
 90
3
 70
0
 10
-186.1490540277
 20
-231.4332614579
 10
-186.1534818655
 20
-231.4299941782
 10
-186.1597766512
 20
-231.4240513562
  0
LWPOLYLINE
  5
27E
100
AcDbEntity
  8
IMPORT_IGES
100
AcDbPolyline
 62
7
  6
CONTINUOUS
 90
47
 70
0
 10
-186.2619785255
 20
-231.3353716691
 10
-186.2673964617
 20
-231.3310796287
 10
-186.2729927409
 20
-231.3266878207
 10
-186.2787680413
 20
-231.3221962714
 10
-186.2847477704
 20
-231.3176002251
 10
-186.2909294306
 20
-231.3128992648
 10
-186.2973134318
 20
-231.3080938076
 10
-186.3039292076
 20
-231.3031803489
 10
-186.3107733289
 20
-231.2981584582
 10
-186.317846509
 20
-231.2930285659
 10
-186.3251839399
 20
-231.287788459
 10
-186.3327813927
 20
-231.2824373281
 10
-186.34063952
 20
-231.2769759825
 10
-186.3488002131
 20
-231.2714046365
 10
-186.3572583643
 20
-231.2657218535
 10
-186.366014317
 20
-231.2599290701
 10
-186.3751172801
 20
-231.2540308101
 10
-186.3845595124
 20
-231.2480256377
 10
-186.3943423535
 20
-231.2419149887
 10
-186.4045274146
 20
-231.2357076942
 10
-186.4151062425
 20
-231.2294004465
 10
-186.4260785052
 20
-231.2229965533
 10
-186.4375162571
 20
-231.2165147697
 10
-186.4494087852
 20
-231.2099502387
 10
-186.4617546368
 20
-231.2033078172
 10
-186.474637314
 20
-231.1966208308
 10
-186.4880332616
 20
-231.1898861516
 10
-186.5019491323
 20
-231.1831069075
 10
-186.516509861
 20
-231.1763258082
 10
-186.5317047996
 20
-231.1695278807
 10
-186.5475195578
 20
-231.1627280981
 10
-186.5640679326
 20
-231.1560140894
 10
-186.5813997952
 20
-231.1493537841
 10
-186.5994285382
 20
-231.1427792528
 10
-186.61806073
 20
-231.1364743364
 10
-186.6373870414
 20
-231.1304272064
 10
-186.6572749486
 20
-231.1246496913
 10
-186.6773067173
 20
-231.1193611178
 10
-186.6974103026
 20
-231.1146105901
 10
-186.7176352915
 20
-231.1103490039
 10
-186.7377627137
 20
-231.1066483729
 10
-186.7577223927
 20
-231.103523739
 10
-186.7775734768
 20
-231.1009600603
 10
-186.7972975246
 20
-231.0989842245
 10
-186.8168845862
 20
-231.0976051944
 10
-186.8363327575
 20
-231.0968140073
 10
-186.8556344601
 20
-231.096610656
  0
LWPOLYLINE
  5
27F
100
AcDbEntity
  8
IMPORT_IGES
100
AcDbPolyline
 62
7
  6
CONTINUOUS
 90
3
 70
0
 10
-186.246744687
 20
-231.3476636135
 10
-186.2516633633
 20
-231.3436613598
 10
-186.2619785255
 20
-231.3353716691
  0
LINE
  5
280
100
AcDbEntity
  8
IMPORT_IGES
100
AcDbLine
 62
7
  6
CONTINUOUS
 10
-186.237370701
 20
-231.3553889252
 11
-186.246744687
 21
-231.3476636135
  0
LINE
  5
281
100
AcDbEntity
  8
IMPORT_IGES
100
AcDbLine
 62
7
  6
CONTINUOUS
 10
-186.2285644016
 20
-231.3627569923
 11
-186.237370701
 21
-231.3553889252
  0
LINE
  5
282
100
AcDbEntity
  8
IMPORT_IGES
100
AcDbLine
 62
7
  6
CONTINUOUS
 10
-186.2202827253
 20
-231.3697827745
 11
-186.2285644016
 21
-231.3627569923
  0
LINE
  5
283
100
AcDbEntity
  8
IMPORT_IGES
100
AcDbLine
 62
7
  6
CONTINUOUS
 10
-186.2124984634
 20
-231.3764767108
 11
-186.2202827253
 21
-231.3697827745
  0
LINE
  5
284
100
AcDbEntity
  8
IMPORT_IGES
100
AcDbLine
 62
7
  6
CONTINUOUS
 10
-186.1113885776
 20
-231.4823892855
 11
-186.0981760675
 21
-231.4938102474
  0
LINE
  5
285
100
AcDbEntity
  8
IMPORT_IGES
100
AcDbLine
 62
7
  6
CONTINUOUS
 10
-186.2051708377
 20
-231.3828550165
 11
-186.2124984634
 21
-231.3764767108
  0
LINE
  5
286
100
AcDbEntity
  8
IMPORT_IGES
100
AcDbLine
 62
7
  6
CONTINUOUS
 10
-186.1982658361
 20
-231.388933012
 11
-186.2051708377
 21
-231.3828550165
  0
LINE
  5
287
100
AcDbEntity
  8
IMPORT_IGES
100
AcDbLine
 62
7
  6
CONTINUOUS
 10
-186.1917623131
 20
-231.3947207305
 11
-186.1982658361
 21
-231.388933012
  0
LINE
  5
288
100
AcDbEntity
  8
IMPORT_IGES
100
AcDbLine
 62
7
  6
CONTINUOUS
 10
-186.1856293857
 20
-231.4002328487
 11
-186.1917623131
 21
-231.3947207305
  0
LWPOLYLINE
  5
289
100
AcDbEntity
  8
IMPORT_IGES
100
AcDbPolyline
 62
7
  6
CONTINUOUS
 90
36
 70
0
 10
-186.0981760675
 20
-231.4938102474
 10
-186.0848749428
 20
-231.5058892664
 10
-186.0715703806
 20
-231.5186379286
 10
-186.0582624306
 20
-231.5320545053
 10
-186.0449510431
 20
-231.5461268873
 10
-186.0317212453
 20
-231.5608501397
 10
-186.0185708004
 20
-231.5762238473
 10
-186.0055019452
 20
-231.5922311473
 10
-185.9926064172
 20
-231.6088417621
 10
-185.9798766667
 20
-231.6260660001
 10
-185.9673202434
 20
-231.6438728999
 10
-185.9550515341
 20
-231.6621707484
 10
-185.9430791912
 20
-231.6809492095
 10
-185.9313945623
 20
-231.700196749
 10
-185.9200860766
 20
-231.7198215375
 10
-185.9091577839
 20
-231.7398183595
 10
-185.8986056343
 20
-231.7601698654
 10
-185.8885059072
 20
-231.780768543
 10
-185.8788673347
 20
-231.8015976375
 10
-185.8696811846
 20
-231.822652483
 10
-185.8609975402
 20
-231.8438467177
 10
-185.8528205859
 20
-231.8651751698
 10
-185.8451461372
 20
-231.8866226258
 10
-185.8380117232
 20
-231.9080911538
 10
-185.8314220291
 20
-231.9295746972
 10
-185.8253723697
 20
-231.9510618719
 10
-185.8198862196
 20
-231.9724513624
 10
-185.8149657162
 20
-231.9937428907
 10
-185.810608722
 20
-232.0149236594
 10
-185.8068322997
 20
-232.0358795058
 10
-185.8036367944
 20
-232.0566063862
 10
-185.801021861
 20
-232.0771020775
 10
-185.7990035264
 20
-232.0972620613
 10
-185.7975871327
 20
-232.1170534089
 10
-185.7967673377
 20
-232.1365109354
 10
-185.7965441415
 20
-232.1556353656
  0
LINE
  5
28A
100
AcDbEntity
  8
IMPORT_IGES
100
AcDbLine
 62
7
  6
CONTINUOUS
 10
-186.179839561
 20
-231.4054842874
 11
-186.1856293857
 21
-231.4002328487
  0
LINE
  5
28B
100
AcDbEntity
  8
IMPORT_IGES
100
AcDbLine
 62
7
  6
CONTINUOUS
 10
-186.1717594494
 20
-231.4128933581
 11
-186.179839561
 21
-231.4054842874
  0
LINE
  5
28C
100
AcDbEntity
  8
IMPORT_IGES
100
AcDbLine
 62
7
  6
CONTINUOUS
 10
-186.1667503898
 20
-231.4175331257
 11
-186.1717594494
 21
-231.4128933581
  0
LWPOLYLINE
  5
28D
100
AcDbEntity
  8
IMPORT_IGES
100
AcDbPolyline
 62
7
  6
CONTINUOUS
 90
4
 70
0
 10
-186.1521115715
 20
231.4504073483
 10
-186.1615686372
 20
231.4374428375
 10
-186.1716892006
 20
231.4244019923
 10
-186.1824686117
 20
231.4112848125
  0
LWPOLYLINE
  5
28E
100
AcDbEntity
  8
IMPORT_IGES
100
AcDbPolyline
 62
7
  6
CONTINUOUS
 90
3
 70
0
 10
-186.1332614579
 20
231.4490540277
 10
-186.1299941782
 20
231.4534818655
 10
-186.1260892681
 20
231.4576108726
  0
LWPOLYLINE
  5
28F
100
AcDbEntity
  8
IMPORT_IGES
100
AcDbPolyline
 62
7
  6
CONTINUOUS
 90
47
 70
0
 10
-186.0353716692
 20
231.5619785253
 10
-186.0310796288
 20
231.5673964615
 10
-186.0266878209
 20
231.5729927407
 10
-186.0221962715
 20
231.578768041
 10
-186.0176002252
 20
231.5847477702
 10
-186.012899265
 20
231.5909294303
 10
-186.0080938078
 20
231.5973134315
 10
-186.0031803491
 20
231.6039292073
 10
-185.9981584584
 20
231.6107733287
 10
-185.9930285661
 20
231.6178465087
 10
-185.9877884591
 20
231.6251839397
 10
-185.9824373283
 20
231.6327813924
 10
-185.9769759827
 20
231.6406395198
 10
-185.9714046367
 20
231.6488002128
 10
-185.9657218537
 20
231.657258364
 10
-185.9599290703
 20
231.6660143167
 10
-185.9540308103
 20
231.6751172798
 10
-185.9480256379
 20
231.6845595121
 10
-185.9419149889
 20
231.6943423532
 10
-185.9357076944
 20
231.7045274143
 10
-185.9294004467
 20
231.7151062422
 10
-185.9229965535
 20
231.7260785049
 10
-185.9165147699
 20
231.7375162568
 10
-185.9099502389
 20
231.7494087849
 10
-185.9033078174
 20
231.7617546365
 10
-185.896620831
 20
231.7746373136
 10
-185.8898861517
 20
231.7880332612
 10
-185.8831069076
 20
231.801949132
 10
-185.8763258084
 20
231.8165098606
 10
-185.8695278809
 20
231.8317047993
 10
-185.8627280982
 20
231.8475195575
 10
-185.8560140896
 20
231.8640679322
 10
-185.8493537843
 20
231.8813997948
 10
-185.8427792529
 20
231.8994285379
 10
-185.8364743365
 20
231.9180607297
 10
-185.8304272065
 20
231.9373870411
 10
-185.8246496914
 20
231.9572749482
 10
-185.8193611179
 20
231.977306717
 10
-185.8146105902
 20
231.9974103023
 10
-185.810349004
 20
232.0176352913
 10
-185.806648373
 20
232.0377627135
 10
-185.8035237391
 20
232.0577223926
 10
-185.8009600603
 20
232.0775734767
 10
-185.7989842246
 20
232.0972975245
 10
-185.7976051944
 20
232.1168845861
 10
-185.7968140073
 20
232.1363327575
 10
-185.796610656
 20
232.1556344601
  0
LWPOLYLINE
  5
290
100
AcDbEntity
  8
IMPORT_IGES
100
AcDbPolyline
 62
7
  6
CONTINUOUS
 90
3
 70
0
 10
-186.0476636137
 20
231.5467446868
 10
-186.0436613599
 20
231.5516633631
 10
-186.0353716692
 20
231.5619785253
  0
LINE
  5
291
100
AcDbEntity
  8
IMPORT_IGES
100
AcDbLine
 62
7
  6
CONTINUOUS
 10
-186.0553889253
 20
231.5373707008
 11
-186.0476636137
 21
231.5467446868
  0
LINE
  5
292
100
AcDbEntity
  8
IMPORT_IGES
100
AcDbLine
 62
7
  6
CONTINUOUS
 10
-186.0627569925
 20
231.5285644015
 11
-186.0553889253
 21
231.5373707008
  0
LINE
  5
293
100
AcDbEntity
  8
IMPORT_IGES
100
AcDbLine
 62
7
  6
CONTINUOUS
 10
-186.0697827746
 20
231.5202827251
 11
-186.0627569925
 21
231.5285644015
  0
LINE
  5
294
100
AcDbEntity
  8
IMPORT_IGES
100
AcDbLine
 62
7
  6
CONTINUOUS
 10
-186.0764767109
 20
231.5124984633
 11
-186.0697827746
 21
231.5202827251
  0
LINE
  5
295
100
AcDbEntity
  8
IMPORT_IGES
100
AcDbLine
 62
7
  6
CONTINUOUS
 10
-186.1824686117
 20
231.4112848125
 11
-186.1938949991
 21
231.3980648194
  0
LINE
  5
296
100
AcDbEntity
  8
IMPORT_IGES
100
AcDbLine
 62
7
  6
CONTINUOUS
 10
-186.0828550166
 20
231.5051708375
 11
-186.0764767109
 21
231.5124984633
  0
LINE
  5
297
100
AcDbEntity
  8
IMPORT_IGES
100
AcDbLine
 62
7
  6
CONTINUOUS
 10
-186.0889330121
 20
231.498265836
 11
-186.0828550166
 21
231.5051708375
  0
LINE
  5
298
100
AcDbEntity
  8
IMPORT_IGES
100
AcDbLine
 62
7
  6
CONTINUOUS
 10
-186.0947207306
 20
231.491762313
 11
-186.0889330121
 21
231.498265836
  0
LINE
  5
299
100
AcDbEntity
  8
IMPORT_IGES
100
AcDbLine
 62
7
  6
CONTINUOUS
 10
-186.1002328488
 20
231.4856293856
 11
-186.0947207306
 21
231.491762313
  0
LWPOLYLINE
  5
29A
100
AcDbEntity
  8
IMPORT_IGES
100
AcDbPolyline
 62
7
  6
CONTINUOUS
 90
36
 70
0
 10
-186.1938949991
 20
231.3980648194
 10
-186.2059697308
 20
231.3847684918
 10
-186.2187072114
 20
231.3714752664
 10
-186.2321053388
 20
231.3581846923
 10
-186.2461525216
 20
231.3448972205
 10
-186.2608479302
 20
231.3316936407
 10
-186.276189906
 20
231.3185719923
 10
-186.2921629426
 20
231.3055342359
 10
-186.3087446384
 20
231.2926670434
 10
-186.3259434891
 20
231.2799638815
 10
-186.3437302705
 20
231.2674312835
 10
-186.3620261713
 20
231.2551755206
 10
-186.3808251472
 20
231.2432019201
 10
-186.4001107408
 20
231.2315051547
 10
-186.4197899834
 20
231.2201755143
 10
-186.4398631437
 20
231.2092144818
 10
-186.4603065851
 20
231.1986205742
 10
-186.4809943468
 20
231.1884796327
 10
-186.5019102806
 20
231.1788015894
 10
-186.5230490313
 20
231.1695765123
 10
-186.5443046773
 20
231.160860446
 10
-186.5656705528
 20
231.1526585198
 10
-186.5871339041
 20
231.1449656045
 10
-186.6085840212
 20
231.1378223567
 10
-186.6300052183
 20
231.1312361772
 10
-186.6513978008
 20
231.1251996652
 10
-186.672679541
 20
231.1197312757
 10
-186.6938452401
 20
231.1148334444
 10
-186.7148881465
 20
231.1105037355
 10
-186.7357280626
 20
231.1067532967
 10
-186.756357418
 20
231.103581899
 10
-186.7767764548
 20
231.1009897715
 10
-186.7969211013
 20
231.0989887485
 10
-186.81676991
 20
231.0975827749
 10
-186.8363417774
 20
231.0967679059
 10
-186.8556353102
 20
231.0965441415
  0
LINE
  5
29B
100
AcDbEntity
  8
IMPORT_IGES
100
AcDbLine
 62
7
  6
CONTINUOUS
 10
-186.1054842875
 20
231.4798395609
 11
-186.1002328488
 21
231.4856293856
  0
LINE
  5
29C
100
AcDbEntity
  8
IMPORT_IGES
100
AcDbLine
 62
7
  6
CONTINUOUS
 10
-186.1128933582
 20
231.4717594493
 11
-186.1054842875
 21
231.4798395609
  0
LINE
  5
29D
100
AcDbEntity
  8
IMPORT_IGES
100
AcDbLine
 62
7
  6
CONTINUOUS
 10
-186.1197665391
 20
231.4643522654
 11
-186.1128933582
 21
231.4717594493
  0
LINE
  5
29E
100
AcDbEntity
  8
IMPORT_IGES
100
AcDbLine
 62
7
  6
CONTINUOUS
 10
-186.1260892681
 20
231.4576108726
 11
-186.1197665391
 21
231.4643522654
  0
LINE
  5
29F
100
AcDbEntity
  8
IMPORT_IGES
100
AcDbLine
 62
7
  6
CONTINUOUS
 10
-186.1597766512
 20
-231.4240513562
 11
-186.1667503898
 21
-231.4175331257
  0
LWPOLYLINE
  5
2A0
100
AcDbEntity
  8
0
100
AcDbPolyline
 62
7
  6
CONTINUOUS
 90
5
 70
0
 43
0.3500000006
 10
-2.464285738
 20
254.789640564
 10
-2.1071428528
 20
255.0039250488
 10
-2.1071428528
 20
255.6467785034
 10
-2.464285738
 20
256.0753474731
 10
-3.3214284925
 20
256.0753474731
  0
LWPOLYLINE
  5
2A1
100
AcDbEntity
  8
LIVELLO_1
100
AcDbPolyline
 62
7
  6
CONTINUOUS
 90
75
 70
0
 10
134.8224024089
 20
-199.7683921665
 10
134.8791209966
 20
-199.7587214511
 10
134.9343726322
 20
-199.7448577081
 10
134.9881967547
 20
-199.7270294542
 10
135.040632803
 20
-199.7054652062
 10
135.0917202162
 20
-199.6803934809
 10
135.1414984332
 20
-199.6520427951
 10
135.1900068931
 20
-199.6206416656
 10
135.2372850348
 20
-199.5864186091
 10
135.2833722974
 20
-199.5496021424
 10
135.3283081198
 20
-199.5104207823
 10
135.372131941
 20
-199.4691030456
 10
135.4148832
 20
-199.425877449
 10
135.4566013359
 20
-199.3809725094
 10
135.4973257876
 20
-199.3346167434
 10
135.5370959941
 20
-199.287038668
 10
135.5759513945
 20
-199.2384667998
 10
135.6139314276
 20
-199.1891296556
 10
135.6510755326
 20
-199.1392557523
 10
135.6874231483
 20
-199.0890736066
 10
135.7230137139
 20
-199.0388117352
 10
135.7858769482
 20
-198.9476652103
 10
135.8462442934
 20
-198.8567823321
 10
135.9039939657
 20
-198.7659344947
 10
135.9590041813
 20
-198.6748930923
 10
136.0111531564
 20
-198.5834295192
 10
136.0603191071
 20
-198.4913151695
 10
136.1063802497
 20
-198.3983214375
 10
136.1492148002
 20
-198.3042197174
 10
136.188700975
 20
-198.2087814033
 10
136.2247169901
 20
-198.1117778894
 10
136.2591937401
 20
-198.0064496866
 10
136.289650275
 20
-197.8992908134
 10
136.3161498362
 20
-197.7905098651
 10
136.3387556652
 20
-197.6803154372
 10
136.3575310034
 20
-197.568916125
 10
136.3725390923
 20
-197.4565205237
 10
136.3838431733
 20
-197.3433372288
 10
136.3915064881
 20
-197.2295748356
 10
136.3955922779
 20
-197.1154419394
 10
136.3961637843
 20
-197.0011471357
 10
136.3932842488
 20
-196.8868990197
 10
136.3870169129
 20
-196.7729061867
 10
136.3775372609
 20
-196.6607196452
 10
136.3647411476
 20
-196.5491080719
 10
136.3485575452
 20
-196.4381935974
 10
136.3289154257
 20
-196.3280983519
 10
136.305743761
 20
-196.2189444658
 10
136.2789715234
 20
-196.1108540695
 10
136.2485276848
 20
-196.0039492935
 10
136.2143412172
 20
-195.8983522679
 10
136.1763410927
 20
-195.7941851232
 10
136.1344562835
 20
-195.6915699899
 10
136.0869776751
 20
-195.5871415009
 10
136.0353579236
 20
-195.4845980612
 10
135.9796916437
 20
-195.3840320574
 10
135.9200734502
 20
-195.2855358762
 10
135.8565979577
 20
-195.1892019042
 10
135.7893597809
 20
-195.095122528
 10
135.7184535347
 20
-195.0033901344
 10
135.6439738336
 20
-194.9140971098
 10
135.5809929944
 20
-194.8435327459
 10
135.5157855991
 20
-194.7748036389
 10
135.4484146824
 20
-194.7080787766
 10
135.3789432788
 20
-194.6435271465
 10
135.307434423
 20
-194.5813177363
 10
135.2339511495
 20
-194.5216195336
 10
135.1585564931
 20
-194.464601526
 10
135.0813134883
 20
-194.4104327012
 10
135.0022851699
 20
-194.3592820469
 10
134.9215345723
 20
-194.3113185507
 10
134.8391247302
 20
-194.2667112001
 10
134.7551186783
 20
-194.2256289829
 10
134.6695794511
 20
-194.1882408868
 10
134.5825700834
 20
-194.1547158992
  0
LINE
  5
2A2
100
AcDbEntity
  8
IMPORT_IGES
100
AcDbLine
 62
7
  6
CONTINUOUS
 10
-186.298
 20
-232.8
 11
186.298
 21
-232.8
  0
LINE
  5
2A3
100
AcDbEntity
  8
IMPORT_IGES
100
AcDbLine
 62
7
  6
CONTINUOUS
 10
-187.5
 20
-231.598
 11
-186.299991882
 21
-231.598
  0
LINE
  5
2A4
100
AcDbEntity
  8
IMPORT_IGES
100
AcDbLine
 62
7
  6
CONTINUOUS
 10
186.3000001922
 20
-231.598
 11
187.5
 21
-231.598
  0
LINE
  5
2A5
100
AcDbEntity
  8
IMPORT_IGES
100
AcDbLine
 62
250
  6
CONTINUOUS
 10
-185.3
 20
-230.6
 11
185.3
 21
-230.6
  0
LWPOLYLINE
  5
2A6
100
AcDbEntity
  8
IMPORT_IGES
100
AcDbPolyline
 62
7
  6
CONTINUOUS
 90
52
 70
0
 10
186.8556353656
 20
-231.0965441415
 10
186.8745574672
 20
-231.0967676064
 10
186.8933468418
 20
-231.0975905661
 10
186.9119966685
 20
-231.0990130204
 10
186.9305321539
 20
-231.1010402123
 10
186.9489133202
 20
-231.1036668989
 10
186.9670394704
 20
-231.1068773517
 10
186.9849083814
 20
-231.1106723236
 10
187.0025162493
 20
-231.1150510618
 10
187.019768338
 20
-231.119995579
 10
187.0366606066
 20
-231.1255081358
 10
187.0532002172
 20
-231.1315864716
 10
187.0693171864
 20
-231.1382058176
 10
187.0850135292
 20
-231.1453701453
 10
187.1002979856
 20
-231.1530754832
 10
187.1151173872
 20
-231.1612851477
 10
187.1294789844
 20
-231.1700044747
 10
187.1433927766
 20
-231.1792281282
 10
187.1568156174
 20
-231.1889034168
 10
187.1697590765
 20
-231.199035594
 10
187.1822344192
 20
-231.2096194061
 10
187.1942034754
 20
-231.2205864008
 10
187.2056826737
 20
-231.2319465081
 10
187.2166831881
 20
-231.243689798
 10
187.2271643892
 20
-231.2557180272
 10
187.2371368364
 20
-231.268033455
 10
187.2466222856
 20
-231.2806338222
 10
187.2556012023
 20
-231.2934141078
 10
187.2640852738
 20
-231.3063749157
 10
187.272096241
 20
-231.3195156419
 10
187.2796316548
 20
-231.3327294541
 10
187.2867003433
 20
-231.3460089339
 10
187.2933253085
 20
-231.3593614996
 10
187.2995251459
 20
-231.3727025736
 10
187.3053091425
 20
-231.3860237077
 10
187.3106954386
 20
-231.39933335
 10
187.3157140214
 20
-231.4125722674
 10
187.3203740422
 20
-231.4257337154
 10
187.3246883704
 20
-231.4388244384
 10
187.3286901024
 20
-231.451805437
 10
187.3323862735
 20
-231.4646679091
 10
187.3357866878
 20
-231.4774206569
 10
187.3389261413
 20
-231.4900510869
 10
187.3418119769
 20
-231.5025583111
 10
187.3444490289
 20
-231.5149432176
 10
187.346866267
 20
-231.5271958776
 10
187.3490684628
 20
-231.5393098258
 10
187.3510594577
 20
-231.5512915275
 10
187.3528652713
 20
-231.5631504491
 10
187.3544963277
 20
-231.5748897461
 10
187.3559479348
 20
-231.5865062631
 10
187.3572225736
 20
-231.598
  0
LWPOLYLINE
  5
2A7
100
AcDbEntity
  8
LIVELLO_1
100
AcDbPolyline
 62
7
  6
CONTINUOUS
 90
57
 70
0
 10
131.091237974
 20
-195.8029121343
 10
131.2238580799
 20
-195.7813480514
 10
131.3568701004
 20
-195.7619846743
 10
131.4902136398
 20
-195.7448218066
 10
131.623828302
 20
-195.7298592518
 10
131.757653691
 20
-195.7170968138
 10
131.891629411
 20
-195.7065342959
 10
132.0256950659
 20
-195.6981715019
 10
132.1057041756
 20
-195.6942575535
 10
132.1857245296
 20
-195.6912943056
 10
132.2657568569
 20
-195.6894494728
 10
132.3458018865
 20
-195.6888907698
 10
132.4258603474
 20
-195.6897859114
 10
132.5059329686
 20
-195.692302612
 10
132.5860204791
 20
-195.6966085864
 10
132.666123608
 20
-195.7028715493
 10
132.7462430842
 20
-195.7112592153
 10
132.8263796368
 20
-195.721939299
 10
132.9065339948
 20
-195.7350795152
 10
132.9607177641
 20
-195.7454390153
 10
133.0148202584
 20
-195.7570365438
 10
133.0687517316
 20
-195.7699090907
 10
133.1224224376
 20
-195.7840936458
 10
133.1757426305
 20
-195.7996271988
 10
133.2286225641
 20
-195.8165467396
 10
133.2809724925
 20
-195.834889258
 10
133.3327026695
 20
-195.8546917438
 10
133.3837233492
 20
-195.8759911869
 10
133.4339447855
 20
-195.898824577
 10
133.4832772323
 20
-195.9232289039
 10
133.5316309436
 20
-195.9492411576
 10
133.5789161733
 20
-195.9768983278
 10
133.6250431754
 20
-196.0062374043
 10
133.6699222039
 20
-196.0372953769
 10
133.7134635127
 20
-196.0701092355
 10
133.7555773557
 20
-196.1047159699
 10
133.796173987
 20
-196.1411525699
 10
133.8351636603
 20
-196.1794560253
 10
133.8722036927
 20
-196.2193411989
 10
133.9075418707
 20
-196.2609874409
 10
133.9411486607
 20
-196.3042793346
 10
133.9729945289
 20
-196.3491014633
 10
134.0030499415
 20
-196.3953384105
 10
134.0312853648
 20
-196.4428747594
 10
134.057671265
 20
-196.4915950934
 10
134.0821781084
 20
-196.5413839958
 10
134.1047763612
 20
-196.5921260499
 10
134.1254364896
 20
-196.6437058391
 10
134.14412896
 20
-196.6960079467
 10
134.1608242385
 20
-196.748916956
 10
134.1754927914
 20
-196.8023174505
 10
134.188105085
 20
-196.8560940133
 10
134.1986315854
 20
-196.9101312279
 10
134.207042759
 20
-196.9643136775
 10
134.2133090719
 20
-197.0185259456
 10
134.2174009905
 20
-197.0726526154
 10
134.2192889809
 20
-197.1265782703
  0
LINE
  5
2A8
100
AcDbEntity
  8
LIVELLO_1
100
AcDbLine
 62
7
  6
CONTINUOUS
 10
129.2080420735
 20
-193.9866576188
 11
128.8569158263
 21
-194.0372178981
  0
LWPOLYLINE
  5
2A9
100
AcDbEntity
  8
IMPORT_IGES
100
AcDbPolyline
 62
7
  6
CONTINUOUS
 90
9
 70
0
 10
-186.2279320612
 20
-231.5304335177
 10
-186.2086329027
 20
-231.5286812013
 10
-186.189543283
 20
-231.5267231139
 10
-186.1706632021
 20
-231.5245521267
 10
-186.1519471679
 20
-231.5221512252
 10
-186.1334406726
 20
-231.519520962
 10
-186.1152801918
 20
-231.5166809478
 10
-186.0974684323
 20
-231.5136200828
 10
-186.0801992211
 20
-231.510369624
  0
LWPOLYLINE
  5
2AA
100
AcDbEntity
  8
IMPORT_IGES
100
AcDbPolyline
 62
250
  6
CONTINUOUS
 90
46
 70
0
 10
158.3
 20
-210.6859726445
 10
158.4055431212
 20
-210.6837563306
 10
158.5116204755
 20
-210.6775956199
 10
158.6182320629
 20
-210.6674905123
 10
158.7255799711
 20
-210.6533770737
 10
158.8334621125
 20
-210.6353192383
 10
158.9412722231
 20
-210.613508809
 10
159.0489933417
 20
-210.5879680404
 10
159.1566424296
 20
-210.5586746779
 10
159.263664107
 20
-210.5257537609
 10
159.3706247256
 20
-210.4889055736
 10
159.4769579337
 20
-210.4484298318
 10
159.5804092954
 20
-210.4053507216
 10
159.6798239375
 20
-210.3601703969
 10
159.7763567333
 20
-210.3123867039
 10
159.8712178668
 20
-210.2615173667
 10
159.9649016661
 20
-210.207448058
 10
160.0569138031
 20
-210.1502931051
 10
160.1469814772
 20
-210.0899132145
 10
160.2351850957
 20
-210.0262935576
 10
160.3214442514
 20
-209.959448963
 10
160.4052449218
 20
-209.8892846236
 10
160.4865554848
 20
-209.815714884
 10
160.5654075625
 20
-209.7388253995
 10
160.6413819987
 20
-209.6587783294
 10
160.714410693
 20
-209.5754346425
 10
160.7845617457
 20
-209.4889333701
 10
160.8516203024
 20
-209.3998537652
 10
160.9155734143
 20
-209.3081704224
 10
160.9764340301
 20
-209.2139087471
 10
161.0340261413
 20
-209.1177242095
 10
161.0881071158
 20
-209.020298594
 10
161.1389195857
 20
-208.9209501161
 10
161.1870154389
 20
-208.8182888924
 10
161.2329959418
 20
-208.7109340578
 10
161.2762598281
 20
-208.6002664774
 10
161.3155551868
 20
-208.4890388627
 10
161.3505028374
 20
-208.3778720115
 10
161.3814819605
 20
-208.2661451259
 10
161.4083781863
 20
-208.1547485239
 10
161.4311745026
 20
-208.0436948599
 10
161.4498879215
 20
-207.9329714794
 10
161.4644551098
 20
-207.8234307366
 10
161.4748549561
 20
-207.7153567494
 10
161.4811085717
 20
-207.6084653998
 10
161.4832159566
 20
-207.5027566879
  0
LINE
  5
2AB
100
AcDbEntity
  8
IMPORT_IGES
100
AcDbLine
 62
250
  6
CONTINUOUS
 10
158.3
 20
-210.6859726445
 11
72.1700925538
 21
-210.6859726445
  0
LINE
  5
2AC
100
AcDbEntity
  8
IMPORT_IGES
100
AcDbLine
 62
7
  6
CONTINUOUS
 10
72.1700925538
 20
-209.5027566879
 11
158.3
 21
-209.5027566879
  0
LINE
  5
2AD
100
AcDbEntity
  8
IMPORT_IGES
100
AcDbLine
 62
250
  6
CONTINUOUS
 10
161.4832159566
 20
-207.5027566879
 11
160.3
 21
-207.5027566879
  0
LINE
  5
2AE
100
AcDbEntity
  8
IMPORT_IGES
100
AcDbLine
 62
250
  6
CONTINUOUS
 10
70.1700925538
 20
-207.5027566879
 11
68.9868765971
 21
-207.5027566879
  0
LINE
  5
2AF
100
AcDbEntity
  8
LIVELLO_1
100
AcDbLine
 62
7
  6
CONTINUOUS
 10
128.1847900574
 20
-205.0248001054
 11
125.7403356005
 21
-205.0248001054
  0
LINE
  5
2B0
100
AcDbEntity
  8
LIVELLO_1
100
AcDbLine
 62
7
  6
CONTINUOUS
 10
121.3382838396
 20
-205.0248001054
 11
119.0430735456
 21
-205.0248001054
  0
LINE
  5
2B1
100
AcDbEntity
  8
0
100
AcDbLine
 62
7
  6
CONTINUOUS
 10
118.4860276132
 20
-205.0248001054
 11
116.2165490714
 21
-205.0248001054
  0
LINE
  5
2B2
100
AcDbEntity
  8
0
100
AcDbLine
 62
7
  6
CONTINUOUS
 10
112.9801146841
 20
-205.0248001054
 11
112.6552745638
 21
-205.0248001054
  0
LINE
  5
2B3
100
AcDbEntity
  8
0
100
AcDbLine
 62
7
  6
CONTINUOUS
 10
109.4318610632
 20
-205.0248001054
 11
107.2120479034
 21
-205.0248001054
  0
LINE
  5
2B4
100
AcDbEntity
  8
0
100
AcDbLine
 62
7
  6
CONTINUOUS
 10
99.085774539
 20
-205.0248001054
 11
97.0424873998
 21
-205.0248001054
  0
LINE
  5
2B5
100
AcDbEntity
  8
0
100
AcDbLine
 62
7
  6
CONTINUOUS
 10
103.5205645292
 20
-205.0248001054
 11
105.8414445712
 21
-205.0248001054
  0
LINE
  5
2B6
100
AcDbEntity
  8
LIVELLO_1
100
AcDbLine
 62
7
  6
CONTINUOUS
 10
128.8569158263
 20
-205.0248001054
 11
131.1675031674
 21
-205.0248001054
  0
LINE
  5
2B7
100
AcDbEntity
  8
LIVELLO_1
100
AcDbLine
 62
7
  6
CONTINUOUS
 10
134.721273525
 20
-205.0248001054
 11
136.9525574095
 21
-205.0248001054
  0
LINE
  5
2B8
100
AcDbEntity
  8
LIVELLO_1
100
AcDbLine
 62
7
  6
CONTINUOUS
 10
125.1378405732
 20
-202.8062270301
 11
121.9782914214
 21
-202.8062270301
  0
LINE
  5
2B9
100
AcDbEntity
  8
LIVELLO_1
100
AcDbLine
 62
7
  6
CONTINUOUS
 10
122.4542358312
 20
-201.0877800112
 11
124.6752270712
 21
-201.0877800112
  0
LINE
  5
2BA
100
AcDbEntity
  8
LIVELLO_1
100
AcDbLine
 62
7
  6
CONTINUOUS
 10
131.1675031674
 20
-200.673653811
 11
132.4112458609
 21
-200.673653811
  0
LINE
  5
2BB
100
AcDbEntity
  8
LIVELLO_1
100
AcDbLine
 62
7
  6
CONTINUOUS
 10
132.4173206938
 20
-198.8534578634
 11
131.091237974
 21
-198.8534578634
  0
LWPOLYLINE
  5
2BC
100
AcDbEntity
  8
LIVELLO_1
100
AcDbPolyline
 62
7
  6
CONTINUOUS
 90
48
 70
0
 10
132.4112458609
 20
-200.673653811
 10
132.4453782466
 20
-200.674013757
 10
132.4795106219
 20
-200.6751361695
 10
132.513615308
 20
-200.6770849099
 10
132.5476646259
 20
-200.6799238398
 10
132.5816308969
 20
-200.6837168207
 10
132.6154864421
 20
-200.688527714
 10
132.6492035825
 20
-200.6944203813
 10
132.6842850863
 20
-200.7017915824
 10
132.7191657557
 20
-200.7103861784
 10
132.7538263617
 20
-200.7201748602
 10
132.7882476753
 20
-200.7311283184
 10
132.8224104675
 20
-200.7432172437
 10
132.8562955094
 20
-200.7564123268
 10
132.8898835718
 20
-200.7706842584
 10
132.9231554259
 20
-200.7860037291
 10
132.9560918425
 20
-200.8023414297
 10
132.9886735928
 20
-200.8196680508
 10
133.0208814477
 20
-200.8379542832
 10
133.0526961782
 20
-200.8571708175
 10
133.0840985554
 20
-200.8772883445
 10
133.1150693502
 20
-200.8982775547
 10
133.1455893336
 20
-200.9201091389
 10
133.1756392766
 20
-200.9427537879
 10
133.2051999503
 20
-200.9661821922
 10
133.2342521256
 20
-200.9903650426
 10
133.2627765735
 20
-201.0152730297
 10
133.2907540651
 20
-201.0408768443
 10
133.3181653713
 20
-201.0671471771
 10
133.3449912631
 20
-201.0940547187
 10
133.3712125116
 20
-201.1215701598
 10
133.3968098878
 20
-201.1496641911
 10
133.4217641626
 20
-201.1783075033
 10
133.446056107
 20
-201.2074707871
 10
133.4696664921
 20
-201.2371247332
 10
133.4925760888
 20
-201.2672400323
 10
133.5147656682
 20
-201.297787375
 10
133.5362160013
 20
-201.3287374521
 10
133.556907859
 20
-201.3600609542
 10
133.5768220123
 20
-201.3917285721
 10
133.5959392324
 20
-201.4237109964
 10
133.6142402901
 20
-201.4559789178
 10
133.6317059564
 20
-201.488503027
 10
133.6483170025
 20
-201.5212540147
 10
133.6640541992
 20
-201.5542025716
 10
133.6788983175
 20
-201.5873193884
 10
133.6928301286
 20
-201.6205751557
 10
133.7058304033
 20
-201.6539405643
  0
LWPOLYLINE
  5
2BD
100
AcDbEntity
  8
IMPORT_IGES
100
AcDbPolyline
 62
7
  6
CONTINUOUS
 90
9
 70
0
 10
186.2279355709
 20
-231.5304339267
 10
186.2084660644
 20
-231.5286648363
 10
186.1892135109
 20
-231.5266869567
 10
186.1701779104
 20
-231.5244929883
 10
186.1513134342
 20
-231.5220655242
 10
186.1326659109
 20
-231.5194051061
 10
186.1143728269
 20
-231.5165317654
 10
186.096437183
 20
-231.5134342386
 10
186.0793485006
 20
-231.510199785
  0
LWPOLYLINE
  5
2BE
100
AcDbEntity
  8
IMPORT_IGES
100
AcDbPolyline
 62
7
  6
CONTINUOUS
 90
52
 70
0
 10
186.2980117811
 20
-232.6572238143
 10
186.2865139033
 20
-232.6559487575
 10
186.2748945187
 20
-232.65449689
 10
186.2631536275
 20
-232.6528657326
 10
186.2512948287
 20
-232.6510600289
 10
186.2393145231
 20
-232.6490693094
 10
186.2272019135
 20
-232.6468674088
 10
186.2149500555
 20
-232.6444504282
 10
186.2025658933
 20
-232.6418136544
 10
186.1900594624
 20
-232.638928145
 10
186.1774299679
 20
-232.6357890922
 10
186.1646782047
 20
-232.6323891308
 10
186.151816593
 20
-232.6286934191
 10
186.1388361869
 20
-232.6246921064
 10
186.1257459324
 20
-232.6203782044
 10
186.1125850874
 20
-232.6157187129
 10
186.0993471475
 20
-232.6107008646
 10
186.0860386172
 20
-232.6053154178
 10
186.0727182683
 20
-232.5995321879
 10
186.05937725
 20
-232.5933328313
 10
186.046024413
 20
-232.5867082515
 10
186.0327450819
 20
-232.5796402558
 10
186.0195324023
 20
-232.5721061865
 10
186.0063932286
 20
-232.5640969125
 10
185.993433448
 20
-232.5556143063
 10
185.9806532999
 20
-232.5466364283
 10
185.9680525449
 20
-232.5371517584
 10
185.9557363526
 20
-232.5271797707
 10
185.9437068292
 20
-232.5166985011
 10
185.9319618684
 20
-232.5056975551
 10
185.9206003216
 20
-232.4942180864
 10
185.9096323858
 20
-232.4822491663
 10
185.8990478639
 20
-232.4697741474
 10
185.8889150152
 20
-232.4568310483
 10
185.8792390153
 20
-232.4434085098
 10
185.8700146885
 20
-232.4294950557
 10
185.8612947675
 20
-232.4151339609
 10
185.853084676
 20
-232.4003154431
 10
185.8453789903
 20
-232.3850320581
 10
185.8382141709
 20
-232.3693364674
 10
185.8315940988
 20
-232.3532198357
 10
185.8255148931
 20
-232.3366802064
 10
185.8200013707
 20
-232.3197872471
 10
185.8150557166
 20
-232.3025333981
 10
185.8106757459
 20
-232.2849230252
 10
185.8068797209
 20
-232.2670516564
 10
185.8036660364
 20
-232.2489233806
 10
185.8010362976
 20
-232.2305401577
 10
185.7990135831
 20
-232.2120026921
 10
185.7976055856
 20
-232.1933509687
 10
185.7968046122
 20
-232.1745597878
 10
185.7966106631
 20
-232.155635977
  0
LINE
  5
2BF
100
AcDbEntity
  8
IMPORT_IGES
100
AcDbLine
 62
7
  6
CONTINUOUS
 10
-187.5
 20
-231.598
 11
-187.5
 21
231.598
  0
LINE
  5
2C0
100
AcDbEntity
  8
IMPORT_IGES
100
AcDbLine
 62
7
  6
CONTINUOUS
 10
-186.298
 20
232.8
 11
-186.298
 21
231.599991882
  0
LINE
  5
2C1
100
AcDbEntity
  8
IMPORT_IGES
100
AcDbLine
 62
7
  6
CONTINUOUS
 10
-186.298
 20
-231.6000001922
 11
-186.298
 21
-232.8
  0
LINE
  5
2C2
100
AcDbEntity
  8
IMPORT_IGES
100
AcDbLine
 62
250
  6
CONTINUOUS
 10
-185.3
 20
-230.6
 11
-185.3
 21
230.6
  0
LWPOLYLINE
  5
2C3
100
AcDbEntity
  8
IMPORT_IGES
100
AcDbPolyline
 62
7
  6
CONTINUOUS
 90
52
 70
0
 10
-185.7965441415
 20
-232.1556353656
 10
-185.7967676064
 20
-232.1745574672
 10
-185.7975905661
 20
-232.1933468418
 10
-185.7990130204
 20
-232.2119966686
 10
-185.8010402123
 20
-232.2305321539
 10
-185.8036668989
 20
-232.2489133202
 10
-185.8068773517
 20
-232.2670394704
 10
-185.8106723236
 20
-232.2849083814
 10
-185.8150510618
 20
-232.3025162493
 10
-185.819995579
 20
-232.319768338
 10
-185.8255081358
 20
-232.3366606066
 10
-185.8315864716
 20
-232.3532002172
 10
-185.8382058176
 20
-232.3693171864
 10
-185.8453701453
 20
-232.3850135292
 10
-185.8530754832
 20
-232.4002979856
 10
-185.8612851477
 20
-232.4151173873
 10
-185.8700044747
 20
-232.4294789844
 10
-185.8792281282
 20
-232.4433927766
 10
-185.8889034168
 20
-232.4568156174
 10
-185.899035594
 20
-232.4697590765
 10
-185.9096194061
 20
-232.4822344192
 10
-185.9205864008
 20
-232.4942034754
 10
-185.9319465081
 20
-232.5056826737
 10
-185.943689798
 20
-232.5166831882
 10
-185.9557180272
 20
-232.5271643892
 10
-185.9680334551
 20
-232.5371368364
 10
-185.9806338222
 20
-232.5466222856
 10
-185.9934141078
 20
-232.5556012023
 10
-186.0063749157
 20
-232.5640852738
 10
-186.0195156419
 20
-232.5720962411
 10
-186.0327294541
 20
-232.5796316548
 10
-186.0460089339
 20
-232.5867003433
 10
-186.0593614997
 20
-232.5933253086
 10
-186.0727025736
 20
-232.5995251459
 10
-186.0860237077
 20
-232.6053091425
 10
-186.09933335
 20
-232.6106954386
 10
-186.1125722674
 20
-232.6157140215
 10
-186.1257337154
 20
-232.6203740422
 10
-186.1388244384
 20
-232.6246883704
 10
-186.151805437
 20
-232.6286901024
 10
-186.1646679091
 20
-232.6323862735
 10
-186.1774206569
 20
-232.6357866878
 10
-186.1900510869
 20
-232.6389261413
 10
-186.2025583111
 20
-232.641811977
 10
-186.2149432177
 20
-232.6444490289
 10
-186.2271958776
 20
-232.646866267
 10
-186.2393098258
 20
-232.6490684628
 10
-186.2512915275
 20
-232.6510594577
 10
-186.2631504491
 20
-232.6528652713
 10
-186.2748897461
 20
-232.6544963277
 10
-186.2865062631
 20
-232.6559479348
 10
-186.298
 20
-232.6572225736
  0
LWPOLYLINE
  5
2C4
100
AcDbEntity
  8
IMPORT_IGES
100
AcDbPolyline
 62
250
  6
CONTINUOUS
 90
46
 70
0
 10
72.1700925538
 20
-188.3195407312
 10
72.0645494325
 20
-188.3217570451
 10
71.9584720782
 20
-188.3279177558
 10
71.8518604909
 20
-188.3380228634
 10
71.7445125826
 20
-188.352136302
 10
71.6366304413
 20
-188.3701941374
 10
71.5288203307
 20
-188.3920045667
 10
71.421099212
 20
-188.4175453353
 10
71.3134501241
 20
-188.4468386978
 10
71.2064284468
 20
-188.4797596148
 10
71.0994678281
 20
-188.5166078021
 10
70.9931346201
 20
-188.5570835439
 10
70.8896832583
 20
-188.6001626541
 10
70.7902686162
 20
-188.6453429788
 10
70.6937358204
 20
-188.6931266718
 10
70.598874687
 20
-188.743996009
 10
70.5051908877
 20
-188.7980653177
 10
70.4131787507
 20
-188.8552202706
 10
70.3231110766
 20
-188.9156001612
 10
70.234907458
 20
-188.9792198181
 10
70.1486483024
 20
-189.0460644127
 10
70.064847632
 20
-189.1162287521
 10
69.983537069
 20
-189.1897984918
 10
69.9046849913
 20
-189.2666879763
 10
69.828710555
 20
-189.3467350463
 10
69.7556818608
 20
-189.4300787332
 10
69.685530808
 20
-189.5165800057
 10
69.6184722513
 20
-189.6056596105
 10
69.5545191395
 20
-189.6973429534
 10
69.4936585236
 20
-189.7916046287
 10
69.4360664124
 20
-189.8877891663
 10
69.3819854379
 20
-189.9852147818
 10
69.3311729681
 20
-190.0845632597
 10
69.2830771148
 20
-190.1872244834
 10
69.2370966119
 20
-190.294579318
 10
69.1938327256
 20
-190.4052468984
 10
69.154537367
 20
-190.5164745131
 10
69.1195897163
 20
-190.6276413643
 10
69.0886105932
 20
-190.7393682499
 10
69.0617143674
 20
-190.8507648519
 10
69.0389180511
 20
-190.9618185159
 10
69.0202046322
 20
-191.0725418964
 10
69.005637444
 20
-191.1820826392
 10
68.9952375976
 20
-191.2901566264
 10
68.988983982
 20
-191.397047976
 10
68.9868765971
 20
-191.5027566879
  0
LWPOLYLINE
  5
2C5
100
AcDbEntity
  8
IMPORT_IGES
100
AcDbPolyline
 62
7
  6
CONTINUOUS
 90
40
 70
0
 10
72.1700925538
 20
-189.5027566879
 10
72.0907313374
 20
-189.504288296
 10
72.0113951698
 20
-189.5090452411
 10
71.9320840511
 20
-189.517027523
 10
71.8526039563
 20
-189.5282404441
 10
71.7731489103
 20
-189.542678702
 10
71.694300988
 20
-189.5603263906
 10
71.6160829958
 20
-189.5812181728
 10
71.5384721273
 20
-189.6053193856
 10
71.461982038
 20
-189.6325101336
 10
71.3863416548
 20
-189.6630184797
 10
71.3118220508
 20
-189.696616361
 10
71.2397501007
 20
-189.7324996928
 10
71.1707340019
 20
-189.7703961847
 10
71.104165557
 20
-189.8105781271
 10
71.0395470482
 20
-189.8530583072
 10
70.976771045
 20
-189.8977966174
 10
70.9159449779
 20
-189.9448331652
 10
70.8568934213
 20
-189.994301061
 10
70.7994835332
 20
-190.0462613524
 10
70.7438481555
 20
-190.1006529918
 10
70.6902103892
 20
-190.1574259456
 10
70.638553864
 20
-190.2165866659
 10
70.5888949501
 20
-190.2781287007
 10
70.541505859
 20
-190.3419826599
 10
70.4964645894
 20
-190.4079109779
 10
70.4536931425
 20
-190.4761512204
 10
70.413229734
 20
-190.5473466942
 10
70.3747131152
 20
-190.622330115
 10
70.3385045348
 20
-190.7002687672
 10
70.3057259538
 20
-190.7793078109
 10
70.276713973
 20
-190.8591245073
 10
70.2511319917
 20
-190.9400415952
 10
70.2290921689
 20
-191.0211724505
 10
70.2106826439
 20
-191.1025147452
 10
70.1958152774
 20
-191.1840708073
 10
70.184337811
 20
-191.2649609967
 10
70.1761994919
 20
-191.3448920998
 10
70.1714510728
 20
-191.4241573303
 10
70.1700925538
 20
-191.5027566879
  0
LINE
  5
2C6
100
AcDbEntity
  8
0
100
AcDbLine
 62
7
  6
CONTINUOUS
 10
105.8414445712
 20
-193.9064509934
 11
103.5205645292
 21
-193.9064509934
  0
LINE
  5
2C7
100
AcDbEntity
  8
0
100
AcDbLine
 62
7
  6
CONTINUOUS
 10
93.5172373454
 20
-193.9064509934
 11
96.0385770378
 21
-193.9064509934
  0
LINE
  5
2C8
100
AcDbEntity
  8
0
100
AcDbLine
 62
7
  6
CONTINUOUS
 10
100.3412980347
 20
-193.9064509934
 11
102.6595118952
 21
-193.9064509934
  0
LINE
  5
2C9
100
AcDbEntity
  8
0
100
AcDbLine
 62
7
  6
CONTINUOUS
 10
108.2153382232
 20
-193.9064509934
 11
110.534482147
 21
-193.9064509934
  0
LINE
  5
2CA
100
AcDbEntity
  8
0
100
AcDbLine
 62
7
  6
CONTINUOUS
 10
115.1502624618
 20
-193.9064509934
 11
117.4463408149
 21
-193.9064509934
  0
LINE
  5
2CB
100
AcDbEntity
  8
LIVELLO_1
100
AcDbLine
 62
7
  6
CONTINUOUS
 10
122.5305010245
 20
-193.9064509934
 11
124.7751778774
 21
-193.9064509934
  0
LINE
  5
2CC
100
AcDbEntity
  8
IMPORT_IGES
100
AcDbLine
 62
250
  6
CONTINUOUS
 10
161.4832159566
 20
-191.5027566879
 11
160.3
 21
-191.5027566879
  0
LINE
  5
2CD
100
AcDbEntity
  8
IMPORT_IGES
100
AcDbLine
 62
250
  6
CONTINUOUS
 10
70.1700925538
 20
-191.5027566879
 11
68.9868765971
 21
-191.5027566879
  0
LINE
  5
2CE
100
AcDbEntity
  8
IMPORT_IGES
100
AcDbLine
 62
7
  6
CONTINUOUS
 10
72.1700925538
 20
-189.5027566879
 11
158.3
 21
-189.5027566879
  0
LINE
  5
2CF
100
AcDbEntity
  8
IMPORT_IGES
100
AcDbLine
 62
250
  6
CONTINUOUS
 10
72.1700925538
 20
-188.3195407312
 11
158.3
 21
-188.3195407312
  0
LWPOLYLINE
  5
2D0
100
AcDbEntity
  8
IMPORT_IGES
100
AcDbPolyline
 62
7
  6
CONTINUOUS
 90
9
 70
0
 10
-186.2304337949
 20
231.5279437302
 10
-186.2286789929
 20
231.5086333703
 10
-186.226720111
 20
231.489539124
 10
-186.224550086
 20
231.4706609911
 10
-186.2221522746
 20
231.4519541305
 10
-186.2195270363
 20
231.4334633834
 10
-186.2166931743
 20
231.4153232736
 10
-186.2136394213
 20
231.3975364788
 10
-186.2103738545
 20
231.3801722132
  0
LWPOLYLINE
  5
2D1
100
AcDbEntity
  8
IMPORT_IGES
100
AcDbPolyline
 62
7
  6
CONTINUOUS
 90
52
 70
0
 10
-187.3572069175
 20
-231.5980131776
 10
-187.355903671
 20
-231.5864406047
 10
-187.3544261383
 20
-231.5747417704
 10
-187.3527718386
 20
-231.5629166746
 10
-187.3509458252
 20
-231.5509635147
 10
-187.3489373489
 20
-231.5388840932
 10
-187.3467193525
 20
-231.5266838186
 10
-187.3442866032
 20
-231.5143576259
 10
-187.3416357344
 20
-231.5019105799
 10
-187.3387409958
 20
-231.4893632838
 10
-187.3355984759
 20
-231.4767190534
 10
-187.3322001904
 20
-231.4639745729
 10
-187.3285123477
 20
-231.4511404977
 10
-187.3245262045
 20
-231.438210689
 10
-187.3202341462
 20
-231.4251912857
 10
-187.3156016321
 20
-231.4121113598
 10
-187.3106168248
 20
-231.3989646978
 10
-187.3052700599
 20
-231.3857575133
 10
-187.2995274047
 20
-231.3725375191
 10
-187.2933710738
 20
-231.359295331
 10
-187.2867916807
 20
-231.3460403333
 10
-187.2797656231
 20
-231.3328483912
 10
-187.2722700657
 20
-231.3197115577
 10
-187.2642957727
 20
-231.3066377798
 10
-187.2558387711
 20
-231.2937267642
 10
-187.2468753239
 20
-231.2809765093
 10
-187.2373946553
 20
-231.2683890166
 10
-187.2274137815
 20
-231.2560699966
 10
-187.2169079021
 20
-231.2440192435
 10
-187.2058679547
 20
-231.2322369632
 10
-187.1943389939
 20
-231.2208294839
 10
-187.1823065315
 20
-231.2098054947
 10
-187.169756294
 20
-231.1991563066
 10
-187.1567400958
 20
-231.1889621814
 10
-187.1432463391
 20
-231.179229874
 10
-187.1292641973
 20
-231.1699526294
 10
-187.114853704
 20
-231.1611904449
 10
-187.1000100299
 20
-231.1529510846
 10
-187.084723116
 20
-231.1452267843
 10
-187.0690521709
 20
-231.1380542482
 10
-187.0529976295
 20
-231.1314397238
 10
-187.0365512949
 20
-231.1253769636
 10
-187.0197654826
 20
-231.1198839295
 10
-187.0026396678
 20
-231.1149633171
 10
-186.9851723321
 20
-231.1106124308
 10
-186.9674195768
 20
-231.1068411455
 10
-186.9493848776
 20
-231.1036451283
 10
-186.931068244
 20
-231.1010287122
 10
-186.9125253931
 20
-231.0990147702
 10
-186.8937785686
 20
-231.0976109269
 10
-186.874814081
 20
-231.0968095579
 10
-186.8556359767
 20
-231.0966106631
  0
LWPOLYLINE
  5
2D2
100
AcDbEntity
  8
LIVELLO_1
100
AcDbPolyline
 62
7
  6
CONTINUOUS
 90
32
 70
0
 10
134.5825700834
 20
-194.1547158992
 10
134.4650591699
 20
-194.1139076012
 10
134.3464835381
 20
-194.076154018
 10
134.2270114299
 20
-194.0412241585
 10
134.106811087
 20
-194.0088870316
 10
133.9860507513
 20
-193.9789116464
 10
133.8136096048
 20
-193.9399847012
 10
133.6404237983
 20
-193.9052284691
 10
133.4665409482
 20
-193.8745044385
 10
133.292008671
 20
-193.8476740974
 10
133.116874583
 20
-193.8245989344
 10
132.9411863006
 20
-193.8051404375
 10
132.7649914401
 20
-193.7891600951
 10
132.588337618
 20
-193.7765193954
 10
132.4112724507
 20
-193.7670798267
 10
132.2338435544
 20
-193.7607028773
 10
132.0560985457
 20
-193.7572500355
 10
131.8780850408
 20
-193.7565827894
 10
131.6998506562
 20
-193.7585626275
 10
131.5214430083
 20
-193.7630510378
 10
131.3429097134
 20
-193.7699095088
 10
131.1642983878
 20
-193.7789995287
 10
130.9856566481
 20
-193.7901825858
 10
130.8070321106
 20
-193.8033201682
 10
130.6284723916
 20
-193.8182737644
 10
130.4500251075
 20
-193.8349048625
 10
130.2717378748
 20
-193.8530749509
 10
130.0936583098
 20
-193.8726455177
 10
129.9158340288
 20
-193.8934780513
 10
129.7383126483
 20
-193.91543404
 10
129.5611417847
 20
-193.9383749719
 10
129.2080420735
 20
-193.9866576188
  0
LWPOLYLINE
  5
2D3
100
AcDbEntity
  8
IMPORT_IGES
100
AcDbPolyline
 62
7
  6
CONTINUOUS
 90
10
 70
0
 10
-186.2100744091
 20
-231.3785798865
 10
-186.2103958749
 20
-231.380149862
 10
-186.2136551441
 20
-231.3974922056
 10
-186.2166923064
 20
-231.4151996001
 10
-186.2195129963
 20
-231.4332739566
 10
-186.2221279396
 20
-231.4517133641
 10
-186.2245213333
 20
-231.4704114796
 10
-186.2266935841
 20
-231.4893328552
 10
-186.228660042
 20
-231.5085129388
 10
-186.2304275815
 20
-231.5279517303
  0
LWPOLYLINE
  5
2D4
100
AcDbEntity
  8
IMPORT_IGES
100
AcDbPolyline
 62
7
  6
CONTINUOUS
 90
5
 70
0
 10
-186.1488869043
 20
-231.4471891737
 10
-186.147689195
 20
-231.4426332953
 10
-186.1472770152
 20
-231.4387534352
 10
-186.1476505646
 20
-231.4355495935
 10
-186.1490540277
 20
-231.4332614579
  0
LINE
  5
2D5
100
AcDbEntity
  8
IMPORT_IGES
100
AcDbLine
 62
7
  6
CONTINUOUS
 10
186.298
 20
231.6
 11
186.2281050164
 21
231.5299649463
  0
LINE
  5
2D6
100
AcDbEntity
  8
IMPORT_IGES
100
AcDbLine
 62
7
  6
CONTINUOUS
 10
186.1504073483
 20
231.4521115715
 11
185.3
 21
230.6
  0
LINE
  5
2D7
100
AcDbEntity
  8
IMPORT_IGES
100
AcDbLine
 62
7
  6
CONTINUOUS
 10
186.3000064887
 20
231.5980064757
 11
186.2299586032
 21
231.528098686
  0
LINE
  5
2D8
100
AcDbEntity
  8
IMPORT_IGES
100
AcDbLine
 62
7
  6
CONTINUOUS
 10
186.1521112757
 20
231.4504070532
 11
185.3
 21
230.6
  0
LINE
  5
2D9
100
AcDbEntity
  8
IMPORT_IGES
100
AcDbLine
 62
7
  6
CONTINUOUS
 10
185.3
 20
-230.6
 11
186.1521115714
 21
-231.4504073483
  0
LINE
  5
2DA
100
AcDbEntity
  8
IMPORT_IGES
100
AcDbLine
 62
7
  6
CONTINUOUS
 10
186.2299558551
 20
-231.5280959434
 11
186.3000064887
 21
-231.5980064757
  0
LINE
  5
2DB
100
AcDbEntity
  8
IMPORT_IGES
100
AcDbLine
 62
7
  6
CONTINUOUS
 10
186.2980064757
 20
-231.6000064887
 11
186.2280986859
 21
-231.5299586032
  0
LINE
  5
2DC
100
AcDbEntity
  8
IMPORT_IGES
100
AcDbLine
 62
7
  6
CONTINUOUS
 10
185.3
 20
-230.6
 11
186.1504070531
 21
-231.4521112757
  0
LWPOLYLINE
  5
2DD
100
AcDbEntity
  8
0
100
AcDbPolyline
 62
7
  6
CONTINUOUS
 90
4
 70
0
 43
0.3500000006
 10
-1.1785713937
 20
255.4324940186
 10
-1.1785713937
 20
256.0753474731
 10
0.3214285684
 20
256.0753474731
 10
-0.5357142924
 20
253.0753646851
  0
LWPOLYLINE
  5
2DE
100
AcDbEntity
  8
0
100
AcDbPolyline
 62
7
  6
CONTINUOUS
 90
2
 70
0
 43
0.3500000006
 10
220.6238686523
 20
-4.4642861023
 10
219.1238772583
 20
-4.4642861023
  0
LINE
  5
2DF
100
AcDbEntity
  8
IMPORT_IGES
100
AcDbLine
 62
7
  6
CONTINUOUS
 10
-186.2980064757
 20
-231.6000064887
 11
-186.2280959434
 21
-231.5299558551
  0
LINE
  5
2E0
100
AcDbEntity
  8
IMPORT_IGES
100
AcDbLine
 62
7
  6
CONTINUOUS
 10
-186.1504073484
 20
-231.4521115715
 11
-185.3
 21
-230.6
  0
LINE
  5
2E1
100
AcDbEntity
  8
IMPORT_IGES
100
AcDbLine
 62
7
  6
CONTINUOUS
 10
-186.2999975939
 20
-231.5979975986
 11
-186.2299635326
 21
-231.5281036055
  0
LINE
  5
2E2
100
AcDbEntity
  8
IMPORT_IGES
100
AcDbLine
 62
7
  6
CONTINUOUS
 10
-185.3
 20
-230.6
 11
-186.1423527199
 21
-231.4406680145
  0
LINE
  5
2E3
100
AcDbEntity
  8
IMPORT_IGES
100
AcDbLine
 62
7
  6
CONTINUOUS
 10
-186.3
 20
231.598
 11
-186.2299649463
 21
231.5281050164
  0
LINE
  5
2E4
100
AcDbEntity
  8
IMPORT_IGES
100
AcDbLine
 62
7
  6
CONTINUOUS
 10
-185.3
 20
230.6
 11
-186.1521115715
 21
231.4504073483
  0
LINE
  5
2E5
100
AcDbEntity
  8
IMPORT_IGES
100
AcDbLine
 62
7
  6
CONTINUOUS
 10
-186.2979975986
 20
231.5999975938
 11
-186.2281036055
 21
231.5299635326
  0
LINE
  5
2E6
100
AcDbEntity
  8
IMPORT_IGES
100
AcDbLine
 62
7
  6
CONTINUOUS
 10
-185.3
 20
230.6
 11
-186.1406680145
 21
231.4423527199
  0
LINE
  5
2E7
100
AcDbEntity
  8
0
100
AcDbLine
 62
7
  6
CONTINUOUS
 10
112.6552745638
 20
-205.0248001054
 11
109.932917183
 21
-197.7653457676
  0
LINE
  5
2E8
100
AcDbEntity
  8
0
100
AcDbLine
 62
7
  6
CONTINUOUS
 10
110.534482147
 20
-193.9064509934
 11
112.8296304367
 21
-200.0802114001
  0
LINE
  5
2E9
100
AcDbEntity
  8
0
100
AcDbLine
 62
7
  6
CONTINUOUS
 10
97.0424873998
 20
-205.0248001054
 11
93.5172373454
 21
-193.9064509934
  0
LINE
  5
2EA
100
AcDbEntity
  8
0
100
AcDbLine
 62
7
  6
CONTINUOUS
 10
96.0385770378
 20
-193.9064509934
 11
98.1578193492
 21
-201.5600661719
  0
LWPOLYLINE
  5
2EB
100
AcDbEntity
  8
LIVELLO_1
100
AcDbPolyline
 62
7
  6
CONTINUOUS
 90
9
 70
0
 10
133.7058304033
 20
-201.6539405643
 10
133.7717679151
 20
-201.8326060882
 10
133.8352700487
 20
-202.0121074545
 10
133.8965535193
 20
-202.1923690911
 10
133.9558350419
 20
-202.3733154264
 10
134.0133313317
 20
-202.5548708883
 10
134.0692591038
 20
-202.736959905
 10
134.1238350734
 20
-202.9195069046
 10
134.1772759555
 20
-203.1024363151
  0
LINE
  5
2EC
100
AcDbEntity
  8
LIVELLO_1
100
AcDbLine
 62
7
  6
CONTINUOUS
 10
124.7751778774
 20
-193.9064509934
 11
128.1847900574
 21
-205.0248001054
  0
LWPOLYLINE
  5
2ED
100
AcDbEntity
  8
IMPORT_IGES
100
AcDbPolyline
 62
250
  6
CONTINUOUS
 90
46
 70
0
 10
68.9868765971
 20
-207.5027566879
 10
68.9890929111
 20
-207.6082998092
 10
68.9952536218
 20
-207.7143771635
 10
69.0053587293
 20
-207.8209887508
 10
69.0194721679
 20
-207.9283366591
 10
69.0375300034
 20
-208.0362188004
 10
69.0593404327
 20
-208.144028911
 10
69.0848812013
 20
-208.2517500296
 10
69.1141745637
 20
-208.3593991176
 10
69.1470954808
 20
-208.4664207949
 10
69.183943668
 20
-208.5733814136
 10
69.2244194099
 20
-208.6797146216
 10
69.2674985201
 20
-208.7831659833
 10
69.3126788447
 20
-208.8825806255
 10
69.3604625377
 20
-208.9791134212
 10
69.4113318749
 20
-209.0739745547
 10
69.4654011837
 20
-209.167658354
 10
69.5225561366
 20
-209.259670491
 10
69.5829360271
 20
-209.3497381651
 10
69.6465556841
 20
-209.4379417837
 10
69.7134002786
 20
-209.5242009393
 10
69.783564618
 20
-209.6080016097
 10
69.8571343577
 20
-209.6893121727
 10
69.9340238422
 20
-209.7681642504
 10
70.0140709123
 20
-209.8441386867
 10
70.0974145992
 20
-209.9171673809
 10
70.1839158716
 20
-209.9873184336
 10
70.2729954765
 20
-210.0543769903
 10
70.3646788193
 20
-210.1183301022
 10
70.4589404946
 20
-210.179190718
 10
70.5551250322
 20
-210.2367828292
 10
70.6525506477
 20
-210.2908638037
 10
70.7518991256
 20
-210.3416762736
 10
70.8545603493
 20
-210.3897721268
 10
70.9619151839
 20
-210.4357526297
 10
71.0725827643
 20
-210.479016516
 10
71.183810379
 20
-210.5183118747
 10
71.2949772303
 20
-210.5532595254
 10
71.4067041158
 20
-210.5842386484
 10
71.5181007178
 20
-210.6111348742
 10
71.6291543818
 20
-210.6339311905
 10
71.7398777623
 20
-210.6526446095
 10
71.8494185051
 20
-210.6672117977
 10
71.9574924923
 20
-210.677611644
 10
72.0643838418
 20
-210.6838652596
 10
72.1700925538
 20
-210.6859726445
  0
LWPOLYLINE
  5
2EE
100
AcDbEntity
  8
IMPORT_IGES
100
AcDbPolyline
 62
7
  6
CONTINUOUS
 90
40
 70
0
 10
70.1700925538
 20
-207.5027566879
 10
70.1716241619
 20
-207.5821179043
 10
70.1763811069
 20
-207.6614540718
 10
70.1843633889
 20
-207.7407651905
 10
70.19557631
 20
-207.8202452854
 10
70.2100145679
 20
-207.8997003314
 10
70.2276622565
 20
-207.9785482537
 10
70.2485540387
 20
-208.0567662458
 10
70.2726552515
 20
-208.1343771143
 10
70.2998459995
 20
-208.2108672036
 10
70.3303543456
 20
-208.2865075868
 10
70.3639522269
 20
-208.3610271908
 10
70.3998355587
 20
-208.4330991409
 10
70.4377320506
 20
-208.5021152397
 10
70.477913993
 20
-208.5686836846
 10
70.5203941731
 20
-208.6333021933
 10
70.5651324833
 20
-208.6960781966
 10
70.6121690311
 20
-208.7569042637
 10
70.6616369268
 20
-208.8159558202
 10
70.7135972183
 20
-208.8733657084
 10
70.7679888577
 20
-208.9290010861
 10
70.8247618114
 20
-208.9826388524
 10
70.8839225318
 20
-209.0342953776
 10
70.9454645665
 20
-209.0839542915
 10
71.0093185258
 20
-209.1313433826
 10
71.0752468438
 20
-209.1763846522
 10
71.1434870862
 20
-209.219156099
 10
71.21468256
 20
-209.2596195076
 10
71.2896659809
 20
-209.2981361263
 10
71.3676046331
 20
-209.3343447068
 10
71.4466436767
 20
-209.3671232878
 10
71.5264603732
 20
-209.3961352686
 10
71.607377461
 20
-209.4217172499
 10
71.6885083163
 20
-209.4437570727
 10
71.769850611
 20
-209.4621665977
 10
71.8514066732
 20
-209.4770339642
 10
71.9322968625
 20
-209.4885114306
 10
72.0122279657
 20
-209.4966497497
 10
72.0914931961
 20
-209.5013981689
 10
72.1700925538
 20
-209.5027566879
  0
LINE
  5
2EF
100
AcDbEntity
  8
IMPORT_IGES
100
AcDbLine
 62
250
  6
CONTINUOUS
 10
68.9868765971
 20
-207.5027566879
 11
68.9868765971
 21
-191.5027566879
  0
LINE
  5
2F0
100
AcDbEntity
  8
IMPORT_IGES
100
AcDbLine
 62
7
  6
CONTINUOUS
 10
70.1700925538
 20
-191.5027566879
 11
70.1700925538
 21
-207.5027566879
  0
LINE
  5
2F1
100
AcDbEntity
  8
IMPORT_IGES
100
AcDbLine
 62
250
  6
CONTINUOUS
 10
72.1700925538
 20
-188.3195407312
 11
72.1700925538
 21
-189.5027566878
  0
LINE
  5
2F2
100
AcDbEntity
  8
IMPORT_IGES
100
AcDbLine
 62
250
  6
CONTINUOUS
 10
72.1700925538
 20
-209.5027566879
 11
72.1700925538
 21
-210.6859726445
  0
LWPOLYLINE
  5
2F3
100
AcDbEntity
  8
0
100
AcDbPolyline
 62
7
  6
CONTINUOUS
 90
3
 70
0
 43
0.3500000006
 10
220.3381620483
 20
2.1071425323
 10
220.5524465332
 20
2.0357136154
 10
220.8381531372
 20
1.8928580475
  0
LWPOLYLINE
  5
2F4
100
AcDbEntity
  8
LIVELLO_1
100
AcDbPolyline
 62
7
  6
CONTINUOUS
 90
46
 70
0
 10
136.0765777616
 20
-201.7173862536
 10
136.0616219965
 20
-201.6665938146
 10
136.0463190021
 20
-201.6155956392
 10
136.0306520477
 20
-201.5644344996
 10
136.0146044026
 20
-201.5131531678
 10
135.998159336
 20
-201.4617944162
 10
135.9813001172
 20
-201.4104010168
 10
135.9640100155
 20
-201.359015742
 10
135.9462723001
 20
-201.3076813638
 10
135.9280702405
 20
-201.2564406544
 10
135.9093871057
 20
-201.205336386
 10
135.8902061652
 20
-201.1544113309
 10
135.8705106882
 20
-201.1037082611
 10
135.8502839439
 20
-201.0532699489
 10
135.8295092017
 20
-201.0031391665
 10
135.8081697309
 20
-200.953358686
 10
135.7862488007
 20
-200.9039712797
 10
135.7637296803
 20
-200.8550197196
 10
135.7405956392
 20
-200.806546778
 10
135.7168299465
 20
-200.7585952271
 10
135.6924158716
 20
-200.7112078391
 10
135.6673366836
 20
-200.6644273861
 10
135.641575652
 20
-200.6182966403
 10
135.615116046
 20
-200.5728583739
 10
135.5879411348
 20
-200.5281553591
 10
135.5600341878
 20
-200.4842303681
 10
135.5313784741
 20
-200.441126173
 10
135.5019572632
 20
-200.398885546
 10
135.4717538243
 20
-200.3575512594
 10
135.4407514266
 20
-200.3171660853
 10
135.4089333395
 20
-200.2777727959
 10
135.3762828322
 20
-200.2394141633
 10
135.342783174
 20
-200.2021329598
 10
135.3084176342
 20
-200.1659719575
 10
135.2731694821
 20
-200.1309739287
 10
135.2370219869
 20
-200.0971816454
 10
135.199958418
 20
-200.0646378799
 10
135.1619620445
 20
-200.0333854044
 10
135.1230161359
 20
-200.0034669911
 10
135.0831039613
 20
-199.974925412
 10
135.04220879
 20
-199.9478034395
 10
135.0003138914
 20
-199.9221438457
 10
134.9574025347
 20
-199.8979894028
 10
134.9134579892
 20
-199.875382883
 10
134.8684635242
 20
-199.8543670584
 10
134.8224024089
 20
-199.8349847012
  0
LINE
  5
2F5
100
AcDbEntity
  8
LIVELLO_1
100
AcDbLine
 62
7
  6
CONTINUOUS
 10
134.5377837522
 20
-204.3873016577
 11
134.721273525
 21
-205.0248001054
  0
LINE
  5
2F6
100
AcDbEntity
  8
LIVELLO_1
100
AcDbLine
 62
7
  6
CONTINUOUS
 10
136.1055145267
 20
-201.8181828335
 11
136.0765777616
 21
-201.7173862536
  0
LINE
  5
2F7
100
AcDbEntity
  8
LIVELLO_1
100
AcDbLine
 62
7
  6
CONTINUOUS
 10
134.1772759555
 20
-203.1024363151
 11
134.2816193179
 21
-203.4691400816
  0
LINE
  5
2F8
100
AcDbEntity
  8
LIVELLO_1
100
AcDbLine
 62
7
  6
CONTINUOUS
 10
134.2816193179
 20
-203.4691400816
 11
134.5377837522
 21
-204.3873016577
  0
LINE
  5
2F9
100
AcDbEntity
  8
LIVELLO_1
100
AcDbLine
 62
7
  6
CONTINUOUS
 10
136.1332631432
 20
-201.9176432014
 11
136.1055145267
 21
-201.8181828335
  0
LINE
  5
2FA
100
AcDbEntity
  8
LIVELLO_1
100
AcDbLine
 62
7
  6
CONTINUOUS
 10
125.7403356005
 20
-205.0248001054
 11
125.1378405732
 21
-202.8062270301
  0
LINE
  5
2FB
100
AcDbEntity
  8
LIVELLO_1
100
AcDbLine
 62
7
  6
CONTINUOUS
 10
136.268302378
 20
-202.4170976962
 11
136.1332631432
 21
-201.9176432014
  0
LINE
  5
2FC
100
AcDbEntity
  8
LIVELLO_1
100
AcDbLine
 62
7
  6
CONTINUOUS
 10
136.9525574095
 20
-205.0248001054
 11
136.8468921958
 21
-204.6280906755
  0
LINE
  5
2FD
100
AcDbEntity
  8
LIVELLO_1
100
AcDbLine
 62
7
  6
CONTINUOUS
 10
136.4806092978
 20
-203.2216150579
 11
136.268302378
 21
-202.4170976962
  0
LINE
  5
2FE
100
AcDbEntity
  8
LIVELLO_1
100
AcDbLine
 62
7
  6
CONTINUOUS
 10
136.8468921958
 20
-204.6280906755
 11
136.4806092978
 21
-203.2216150579
  0
LINE
  5
2FF
100
AcDbEntity
  8
LIVELLO_1
100
AcDbLine
 62
7
  6
CONTINUOUS
 10
124.6752270712
 20
-201.0877800112
 11
123.6089404616
 21
-196.9612750139
  0
LINE
  5
300
100
AcDbEntity
  8
0
100
AcDbLine
 62
7
  6
CONTINUOUS
 10
117.4463408149
 20
-193.9064509934
 11
118.4860276132
 21
-205.0248001054
  0
LWPOLYLINE
  5
301
100
AcDbEntity
  8
0
100
AcDbPolyline
 62
7
  6
CONTINUOUS
 90
10
 70
0
 43
0.3500000006
 10
220.1238775635
 20
2.0357136154
 10
220.2667218018
 20
2.1071425323
 10
220.3381620483
 20
2.1071425323
 10
220.4810062866
 20
1.9642846985
 10
220.4810062866
 20
1.8928580475
 10
220.4095841675
 20
1.8214291306
 10
220.3381620483
 20
1.8214291306
 10
220.1952996826
 20
1.8928580475
 10
220.1238775635
 20
1.9642846985
 10
220.1238775635
 20
2.0357136154
  0
LINE
  5
302
100
AcDbEntity
  8
0
100
AcDbLine
 62
7
  6
CONTINUOUS
 10
116.2165490714
 20
-205.0248001054
 11
115.7391165603
 21
-197.7968439125
  0
LINE
  5
303
100
AcDbEntity
  8
0
100
AcDbLine
 62
7
  6
CONTINUOUS
 10
103.5205645292
 20
-193.9064509934
 11
103.5205645292
 21
-205.0248001054
  0
LINE
  5
304
100
AcDbEntity
  8
0
100
AcDbLine
 62
7
  6
CONTINUOUS
 10
105.8414445712
 20
-205.0248001054
 11
105.8414445712
 21
-193.9064509934
  0
LWPOLYLINE
  5
305
100
AcDbEntity
  8
LIVELLO_1
100
AcDbPolyline
 62
7
  6
CONTINUOUS
 90
59
 70
0
 10
134.2192889809
 20
-197.1265782703
 10
134.2194405806
 20
-197.1748295413
 10
134.2183629802
 20
-197.223454722
 10
134.2160556665
 20
-197.2723871613
 10
134.2125181262
 20
-197.3215602081
 10
134.207749846
 20
-197.3709072116
 10
134.2017503126
 20
-197.4203615207
 10
134.1945190128
 20
-197.4698564844
 10
134.1860554334
 20
-197.5193254516
 10
134.176359061
 20
-197.5687017714
 10
134.1654293825
 20
-197.6179187928
 10
134.1532658844
 20
-197.6669098646
 10
134.1398680536
 20
-197.7156083361
 10
134.1252353768
 20
-197.763947556
 10
134.1093673408
 20
-197.8118608735
 10
134.0922634322
 20
-197.8592816374
 10
134.0739231378
 20
-197.9061431969
 10
134.0543459443
 20
-197.9523789008
 10
134.0335313385
 20
-197.9979220982
 10
134.0114788071
 20
-198.0427061381
 10
133.9881878369
 20
-198.0866643694
 10
133.9636579145
 20
-198.1297301412
 10
133.9378885267
 20
-198.1718368024
 10
133.9108791602
 20
-198.212917702
 10
133.8826293019
 20
-198.252906189
 10
133.8531384383
 20
-198.2917356125
 10
133.8224060563
 20
-198.3293393213
 10
133.7904316425
 20
-198.3656506645
 10
133.7572146838
 20
-198.4006029911
 10
133.7227546668
 20
-198.43412965
 10
133.6870510783
 20
-198.4661639904
 10
133.6506118196
 20
-198.4962612138
 10
133.6130183406
 20
-198.5248729789
 10
133.5743276814
 20
-198.5520316651
 10
133.5345968824
 20
-198.5777696516
 10
133.4938829841
 20
-198.602119318
 10
133.4522430266
 20
-198.6251130435
 10
133.4097340505
 20
-198.6467832077
 10
133.366413096
 20
-198.6671621898
 10
133.3223372036
 20
-198.6862823692
 10
133.2775634134
 20
-198.7041761254
 10
133.232148766
 20
-198.7208758378
 10
133.1861503016
 20
-198.7364138856
 10
133.1396250607
 20
-198.7508226484
 10
133.0926300835
 20
-198.7641345055
 10
133.0452224104
 20
-198.7763818362
 10
132.9974590817
 20
-198.7875970201
 10
132.9493971379
 20
-198.7978124364
 10
132.9010936192
 20
-198.8070604645
 10
132.8526055661
 20
-198.8153734839
 10
132.8039900188
 20
-198.8227838739
 10
132.7553040177
 20
-198.829324014
 10
132.7066046032
 20
-198.8350262834
 10
132.6579488156
 20
-198.8399230617
 10
132.6093936953
 20
-198.8440467281
 10
132.5609962826
 20
-198.8474296621
 10
132.5128136179
 20
-198.8501042431
 10
132.4649027415
 20
-198.8521028504
 10
132.4173206938
 20
-198.8534578634
  0
LINE
  5
306
100
AcDbEntity
  8
LIVELLO_1
100
AcDbLine
 62
7
  6
CONTINUOUS
 10
128.8569158263
 20
-194.0372178981
 11
128.8569158263
 21
-205.0248001054
  0
LINE
  5
307
100
AcDbEntity
  8
LIVELLO_1
100
AcDbLine
 62
7
  6
CONTINUOUS
 10
131.091237974
 20
-198.8534578634
 11
131.091237974
 21
-195.8029121343
  0
LINE
  5
308
100
AcDbEntity
  8
LIVELLO_1
100
AcDbLine
 62
7
  6
CONTINUOUS
 10
131.1675031674
 20
-205.0248001054
 11
131.1675031674
 21
-200.673653811
  0
LINE
  5
309
100
AcDbEntity
  8
0
100
AcDbLine
 62
7
  6
CONTINUOUS
 10
109.932917183
 20
-197.7653457676
 11
109.4318610632
 21
-205.0248001054
  0
LINE
  5
30A
100
AcDbEntity
  8
0
100
AcDbLine
 62
7
  6
CONTINUOUS
 10
107.2120479034
 20
-205.0248001054
 11
108.2153382232
 21
-193.9064509934
  0
LWPOLYLINE
  5
30B
100
AcDbEntity
  8
IMPORT_IGES
100
AcDbPolyline
 62
7
  6
CONTINUOUS
 90
9
 70
0
 10
186.2103698451
 20
231.3801985524
 10
186.2136261917
 20
231.3975022772
 10
186.21668592
 20
231.4153105074
 10
186.2195249805
 20
231.4334676744
 10
186.2221543708
 20
231.4519706045
 10
186.2245544793
 20
231.4706825354
 10
186.2267247497
 20
231.4895578797
 10
186.2286821907
 20
231.5086422249
 10
186.2304339267
 20
231.5279355709
  0
LWPOLYLINE
  5
30C
100
AcDbEntity
  8
IMPORT_IGES
100
AcDbPolyline
 62
7
  6
CONTINUOUS
 90
9
 70
0
 10
186.2103630053
 20
-231.3802061284
 10
186.2134524525
 20
-231.3965377486
 10
186.2165462689
 20
-231.4144608536
 10
186.2194163902
 20
-231.4327412298
 10
186.222073881
 20
-231.4513751404
 10
186.2244987269
 20
-231.4702249431
 10
186.2266903783
 20
-231.4892447571
 10
186.2286662139
 20
-231.5084804631
 10
186.2304335177
 20
-231.5279320612
  0
LWPOLYLINE
  5
30D
100
AcDbEntity
  8
IMPORT_IGES
100
AcDbPolyline
 62
250
  6
CONTINUOUS
 90
46
 70
0
 10
161.4832159566
 20
-191.5027566879
 10
161.4809996427
 20
-191.3972135666
 10
161.4748389319
 20
-191.2911362123
 10
161.4647338244
 20
-191.184524625
 10
161.4506203858
 20
-191.0771767167
 10
161.4325625504
 20
-190.9692945754
 10
161.4107521211
 20
-190.8614844647
 10
161.3852113525
 20
-190.7537633461
 10
161.35591799
 20
-190.6461142581
 10
161.3229970729
 20
-190.5390925808
 10
161.2861488857
 20
-190.4321319622
 10
161.2456731439
 20
-190.3257987541
 10
161.2025940336
 20
-190.2223473924
 10
161.157413709
 20
-190.1229327502
 10
161.109630016
 20
-190.0263999545
 10
161.0587606788
 20
-189.931538821
 10
161.00469137
 20
-189.8378550217
 10
160.9475364171
 20
-189.7458428847
 10
160.8871565266
 20
-189.6557752106
 10
160.8235368696
 20
-189.567571592
 10
160.7566922751
 20
-189.4813124364
 10
160.6865279357
 20
-189.397511766
 10
160.612958196
 20
-189.316201203
 10
160.5360687115
 20
-189.2373491253
 10
160.4560216415
 20
-189.161374689
 10
160.3726779546
 20
-189.0883459948
 10
160.2861766821
 20
-189.0181949421
 10
160.1970970773
 20
-188.9511363854
 10
160.1054137344
 20
-188.8871832735
 10
160.0111520591
 20
-188.8263226577
 10
159.9149675215
 20
-188.7687305465
 10
159.817541906
 20
-188.714649572
 10
159.7181934281
 20
-188.6638371021
 10
159.6155322044
 20
-188.6157412489
 10
159.5081773698
 20
-188.569760746
 10
159.3975097894
 20
-188.5264968597
 10
159.2862821747
 20
-188.487201501
 10
159.1751153235
 20
-188.4522538503
 10
159.063388438
 20
-188.4212747273
 10
158.9519918359
 20
-188.3943785015
 10
158.840938172
 20
-188.3715821852
 10
158.7302147915
 20
-188.3528687662
 10
158.6206740487
 20
-188.338301578
 10
158.5126000615
 20
-188.3279017317
 10
158.4057087119
 20
-188.3216481161
 10
158.3
 20
-188.3195407312
  0
LINE
  5
30E
100
AcDbEntity
  8
IMPORT_IGES
100
AcDbLine
 62
250
  6
CONTINUOUS
 10
158.3
 20
-188.3195407312
 11
158.3
 21
-189.5027566878
  0
LINE
  5
30F
100
AcDbEntity
  8
IMPORT_IGES
100
AcDbLine
 62
250
  6
CONTINUOUS
 10
158.3
 20
-209.5027566879
 11
158.3
 21
-210.6859726445
  0
LINE
  5
310
100
AcDbEntity
  8
IMPORT_IGES
100
AcDbLine
 62
7
  6
CONTINUOUS
 10
160.3
 20
-191.5027566879
 11
160.3
 21
-207.5027566879
  0
LINE
  5
311
100
AcDbEntity
  8
IMPORT_IGES
100
AcDbLine
 62
250
  6
CONTINUOUS
 10
161.4832159566
 20
-191.5027566879
 11
161.4832159566
 21
-207.5027566879
  0
LWPOLYLINE
  5
312
100
AcDbEntity
  8
IMPORT_IGES
100
AcDbPolyline
 62
7
  6
CONTINUOUS
 90
52
 70
0
 10
187.3572238143
 20
231.5980117811
 10
187.3559487575
 20
231.5865139033
 10
187.35449689
 20
231.5748945187
 10
187.3528657325
 20
231.5631536275
 10
187.3510600289
 20
231.5512948287
 10
187.3490693093
 20
231.5393145232
 10
187.3468674088
 20
231.5272019135
 10
187.3444504282
 20
231.5149500555
 10
187.3418136543
 20
231.5025658933
 10
187.338928145
 20
231.4900594625
 10
187.3357890922
 20
231.4774299679
 10
187.3323891308
 20
231.4646782047
 10
187.3286934191
 20
231.451816593
 10
187.3246921064
 20
231.438836187
 10
187.3203782044
 20
231.4257459324
 10
187.3157187129
 20
231.4125850875
 10
187.3107008646
 20
231.3993471476
 10
187.3053154178
 20
231.3860386173
 10
187.2995321879
 20
231.3727182685
 10
187.2933328313
 20
231.3593772501
 10
187.2867082515
 20
231.3460244132
 10
187.2796402559
 20
231.332745082
 10
187.2721061865
 20
231.3195324025
 10
187.2640969125
 20
231.3063932287
 10
187.2556143063
 20
231.2934334481
 10
187.2466364283
 20
231.2806533
 10
187.2371517583
 20
231.268052545
 10
187.2271797706
 20
231.2557363527
 10
187.2166985011
 20
231.2437068292
 10
187.2056975551
 20
231.2319618685
 10
187.1942180863
 20
231.2206003216
 10
187.1822491662
 20
231.2096323859
 10
187.1697741474
 20
231.199047864
 10
187.1568310483
 20
231.1889150152
 10
187.1434085097
 20
231.1792390153
 10
187.1294950556
 20
231.1700146885
 10
187.1151339609
 20
231.1612947675
 10
187.100315443
 20
231.1530846761
 10
187.085032058
 20
231.1453789903
 10
187.0693364673
 20
231.1382141709
 10
187.0532198356
 20
231.1315940988
 10
187.0366802064
 20
231.1255148931
 10
187.019787247
 20
231.1200013707
 10
187.002533398
 20
231.1150557166
 10
186.9849230252
 20
231.1106757459
 10
186.9670516564
 20
231.1068797209
 10
186.9489233806
 20
231.1036660364
 10
186.9305401577
 20
231.1010362977
 10
186.912002692
 20
231.0990135831
 10
186.8933509687
 20
231.0976055856
 10
186.8745597878
 20
231.0968046122
 10
186.855635977
 20
231.0966106631
  0
LINE
  5
313
100
AcDbEntity
  8
0
100
AcDbLine
 62
7
  6
CONTINUOUS
 10
98.1578193492
 20
-201.5600661719
 11
100.3412980347
 21
-193.9064509934
  0
LINE
  5
314
100
AcDbEntity
  8
0
100
AcDbLine
 62
7
  6
CONTINUOUS
 10
102.6595118952
 20
-193.9064509934
 11
99.085774539
 21
-205.0248001054
  0
LWPOLYLINE
  5
315
100
AcDbEntity
  8
0
100
AcDbPolyline
 62
7
  6
CONTINUOUS
 90
10
 70
0
 43
0.3500000006
 10
217.6238677368
 20
-2.0357142563
 10
218.2667211914
 20
-2.6785711098
 10
219.1238772583
 20
-3.1071423454
 10
220.1952996826
 20
-3.1071423454
 10
220.6238686523
 20
-2.6785711098
 10
220.6238686523
 20
-2.0357142563
 10
220.1952996826
 20
-1.6071430206
 10
219.3381617432
 20
-1.6071430206
 10
218.9095927734
 20
-2.0357142563
 10
218.9095927734
 20
-2.9642856445
  0
LWPOLYLINE
  5
316
100
AcDbEntity
  8
0
100
AcDbPolyline
 62
7
  6
CONTINUOUS
 90
10
 70
0
 43
0.3500000006
 10
217.6238677368
 20
4.1785720596
 10
218.2667211914
 20
3.5357140732
 10
219.1238772583
 20
3.1071428375
 10
220.1952996826
 20
3.1071428375
 10
220.6238686523
 20
3.5357140732
 10
220.6238686523
 20
4.1785720596
 10
220.1952996826
 20
4.6071432953
 10
219.3381617432
 20
4.6071432953
 10
218.9095927734
 20
4.1785720596
 10
218.9095927734
 20
3.2500006714
  0
LINE
  5
317
100
AcDbEntity
  8
LIVELLO_1
100
AcDbLine
 62
7
  6
CONTINUOUS
 10
123.6089404616
 20
-196.9612750139
 11
122.4542358312
 21
-201.0877800112
  0
LINE
  5
318
100
AcDbEntity
  8
LIVELLO_1
100
AcDbLine
 62
7
  6
CONTINUOUS
 10
121.9782914214
 20
-202.8062270301
 11
121.3382838396
 21
-205.0248001054
  0
LINE
  5
319
100
AcDbEntity
  8
LIVELLO_1
100
AcDbLine
 62
7
  6
CONTINUOUS
 10
119.0430735456
 20
-205.0248001054
 11
122.5305010245
 21
-193.9064509934
  0
LINE
  5
31A
100
AcDbEntity
  8
0
100
AcDbLine
 62
7
  6
CONTINUOUS
 10
112.8296304367
 20
-200.0802114001
 11
115.1502624618
 21
-193.9064509934
  0
LINE
  5
31B
100
AcDbEntity
  8
0
100
AcDbLine
 62
7
  6
CONTINUOUS
 10
115.7391165603
 20
-197.7968439125
 11
112.9801146841
 21
-205.0248001054
  0
LWPOLYLINE
  5
31C
100
AcDbEntity
  8
IMPORT_IGES
100
AcDbPolyline
 62
7
  6
CONTINUOUS
 90
5
 70
0
 10
-186.1471891737
 20
231.4488869043
 10
-186.1426332953
 20
231.447689195
 10
-186.1387534352
 20
231.4472770151
 10
-186.1355495935
 20
231.4476505646
 10
-186.1332614579
 20
231.4490540277
  0
LINE
  5
31D
100
AcDbEntity
  8
IMPORT_IGES
100
AcDbLine
 62
250
  6
CONTINUOUS
 10
185.3
 20
-230.6
 11
185.3
 21
230.6
  0
LINE
  5
31E
100
AcDbEntity
  8
IMPORT_IGES
100
AcDbLine
 62
7
  6
CONTINUOUS
 10
186.298
 20
-232.8
 11
186.298
 21
-231.6000003844
  0
LINE
  5
31F
100
AcDbEntity
  8
IMPORT_IGES
100
AcDbLine
 62
7
  6
CONTINUOUS
 10
186.298
 20
231.6
 11
186.298
 21
232.8
  0
LINE
  5
320
100
AcDbEntity
  8
IMPORT_IGES
100
AcDbLine
 62
7
  6
CONTINUOUS
 10
187.5
 20
-231.598
 11
187.5
 21
231.598
  0
LWPOLYLINE
  5
321
100
AcDbEntity
  8
IMPORT_IGES
100
AcDbPolyline
 62
7
  6
CONTINUOUS
 90
52
 70
0
 10
185.7965441415
 20
232.1556353102
 10
185.7967728361
 20
232.1747420173
 10
185.7975943303
 20
232.1936509075
 10
185.7990086242
 20
232.2123574217
 10
185.8010196925
 20
232.2308765098
 10
185.8036235604
 20
232.2491835472
 10
185.8068083032
 20
232.2672170401
 10
185.8105726501
 20
232.2849762568
 10
185.8149178718
 20
232.3024577576
 10
185.8198358553
 20
232.3196011932
 10
185.8253307765
 20
232.3364078138
 10
185.8313984596
 20
232.352878054
 10
185.8380182635
 20
232.3689559682
 10
185.8451966475
 20
232.3846501452
 10
185.8529271523
 20
232.3999597255
 10
185.8611697605
 20
232.4148210534
 10
185.8699316497
 20
232.4292437696
 10
185.8792056421
 20
232.4432335917
 10
185.8889301865
 20
232.456728358
 10
185.899111128
 20
232.4697380369
 10
185.9097426214
 20
232.4822758031
 10
185.9207455797
 20
232.4942914114
 10
185.932125021
 20
232.5057961687
 10
185.9438759272
 20
232.5168081175
 10
185.9559041565
 20
232.5272928855
 10
185.9682123543
 20
232.5372618168
 10
185.9807978752
 20
232.5467366601
 10
185.9935586407
 20
232.5557024018
 10
186.0064958206
 20
232.5641716798
 10
186.0196082452
 20
232.5721655095
 10
186.0327903266
 20
232.5796831303
 10
186.0460325311
 20
232.5867327403
 10
186.0593443925
 20
232.5933380338
 10
186.0726489245
 20
232.5995210336
 10
186.0859381563
 20
232.6052915327
 10
186.0992200587
 20
232.6106668876
 10
186.1124415573
 20
232.6156783809
 10
186.1255993674
 20
232.6203360244
 10
186.1386967737
 20
232.6246515089
 10
186.1516905567
 20
232.6286561919
 10
186.164572449
 20
232.6323571047
 10
186.177350718
 20
232.63576395
 10
186.1900069466
 20
232.638909759
 10
186.202540009
 20
232.6418017216
 10
186.214951031
 20
232.6444448491
 10
186.2272249726
 20
232.6468669205
 10
186.2393553335
 20
232.6490724551
 10
186.251348614
 20
232.651065616
 10
186.2632092749
 20
232.652872121
 10
186.2749388029
 20
232.6545023129
 10
186.2865357113
 20
232.655951631
 10
186.298
 20
232.6572225736
  0
LWPOLYLINE
  5
322
100
AcDbEntity
  8
0
100
AcDbPolyline
 62
7
  6
CONTINUOUS
 90
3
 70
0
 43
0.3500000006
 10
219.9810151978
 20
-3.9642859497
 10
219.9810151978
 20
-5.4642852745
 10
217.6238677368
 20
-4.821428421
  0
LWPOLYLINE
  5
323
100
AcDbEntity
  8
0
100
AcDbPolyline
 62
7
  6
CONTINUOUS
 90
8
 70
0
 43
0.3500000006
 10
220.6238686523
 20
-0.7500005493
 10
220.6238686523
 20
0.107141922
 10
220.1952996826
 20
0.5357131577
 10
219.3381617432
 20
0.5357131577
 10
218.9095927734
 20
0.107141922
 10
218.9095927734
 20
-0.7500005493
 10
217.6238677368
 20
-0.7500005493
 10
217.6238677368
 20
0.5357131577
  0
LWPOLYLINE
  5
324
100
AcDbEntity
  8
IMPORT_IGES
100
AcDbPolyline
 62
7
  6
CONTINUOUS
 90
9
 70
0
 10
186.2279437302
 20
231.5304337948
 10
186.2086333703
 20
231.5286789928
 10
186.189539124
 20
231.526720111
 10
186.1706609911
 20
231.5245500859
 10
186.1519541305
 20
231.5221522746
 10
186.1334633834
 20
231.5195270362
 10
186.1153232736
 20
231.5166931743
 10
186.0975364788
 20
231.5136394213
 10
186.0801722132
 20
231.5103738545
  0
LWPOLYLINE
  5
325
100
AcDbEntity
  8
IMPORT_IGES
100
AcDbPolyline
 62
7
  6
CONTINUOUS
 90
10
 70
0
 10
-186.2279517303
 20
231.5304275815
 10
-186.208503882
 20
231.5286590632
 10
-186.1893167497
 20
231.5266917487
 10
-186.1703903334
 20
231.5245187665
 10
-186.1516897253
 20
231.5221248064
 10
-186.1332498333
 20
231.5195094318
 10
-186.11517538
 20
231.5166883405
 10
-186.0974679396
 20
231.513650806
 10
-186.080125938
 20
231.5103911974
 10
-186.0785797533
 20
231.5100745626
  0
LWPOLYLINE
  5
326
100
AcDbEntity
  8
IMPORT_IGES
100
AcDbPolyline
 62
7
  6
CONTINUOUS
 90
52
 70
0
 10
-186.2980131776
 20
232.6572069175
 10
-186.2864406047
 20
232.655903671
 10
-186.2747417704
 20
232.6544261383
 10
-186.2629166746
 20
232.6527718386
 10
-186.2509635147
 20
232.6509458252
 10
-186.2388840933
 20
232.6489373489
 10
-186.2266838186
 20
232.6467193525
 10
-186.2143576259
 20
232.6442866032
 10
-186.2019105799
 20
232.6416357344
 10
-186.1893632838
 20
232.6387409957
 10
-186.1767190534
 20
232.6355984759
 10
-186.1639745729
 20
232.6322001903
 10
-186.1511404977
 20
232.6285123477
 10
-186.138210689
 20
232.6245262045
 10
-186.1251912857
 20
232.6202341462
 10
-186.1121113598
 20
232.6156016321
 10
-186.0989646978
 20
232.6106168248
 10
-186.0857575133
 20
232.6052700599
 10
-186.0725375191
 20
232.5995274047
 10
-186.059295331
 20
232.5933710738
 10
-186.0460403333
 20
232.5867916807
 10
-186.0328483912
 20
232.5797656231
 10
-186.0197115577
 20
232.5722700657
 10
-186.0066377799
 20
232.5642957727
 10
-185.9937267642
 20
232.5558387711
 10
-185.9809765093
 20
232.5468753239
 10
-185.9683890166
 20
232.5373946553
 10
-185.9560699966
 20
232.5274137815
 10
-185.9440192435
 20
232.5169079021
 10
-185.9322369632
 20
232.5058679546
 10
-185.920829484
 20
232.4943389939
 10
-185.9098054947
 20
232.4823065315
 10
-185.8991563066
 20
232.469756294
 10
-185.8889621814
 20
232.4567400958
 10
-185.879229874
 20
232.4432463391
 10
-185.8699526294
 20
232.4292641973
 10
-185.8611904449
 20
232.414853704
 10
-185.8529510846
 20
232.4000100299
 10
-185.8452267843
 20
232.384723116
 10
-185.8380542482
 20
232.3690521709
 10
-185.8314397238
 20
232.3529976294
 10
-185.8253769636
 20
232.3365512949
 10
-185.8198839295
 20
232.3197654825
 10
-185.8149633171
 20
232.3026396678
 10
-185.8106124308
 20
232.2851723321
 10
-185.8068411455
 20
232.2674195768
 10
-185.8036451283
 20
232.2493848776
 10
-185.8010287122
 20
232.231068244
 10
-185.7990147702
 20
232.2125253931
 10
-185.797610927
 20
232.1937785686
 10
-185.7968095579
 20
232.174814081
 10
-185.7966106631
 20
232.1556359767
  0
LINE
  5
327
100
AcDbEntity
  8
IMPORT_IGES
100
AcDbLine
 62
250
  6
CONTINUOUS
 10
185.3
 20
230.6
 11
-185.3
 21
230.6
  0
LINE
  5
328
100
AcDbEntity
  8
IMPORT_IGES
100
AcDbLine
 62
7
  6
CONTINUOUS
 10
187.5
 20
231.598
 11
186.3000003844
 21
231.598
  0
LINE
  5
329
100
AcDbEntity
  8
IMPORT_IGES
100
AcDbLine
 62
7
  6
CONTINUOUS
 10
-186.3
 20
231.598
 11
-187.5
 21
231.598
  0
LINE
  5
32A
100
AcDbEntity
  8
IMPORT_IGES
100
AcDbLine
 62
7
  6
CONTINUOUS
 10
186.298
 20
232.8
 11
-186.298
 21
232.8
  0
LWPOLYLINE
  5
32B
100
AcDbEntity
  8
IMPORT_IGES
100
AcDbPolyline
 62
7
  6
CONTINUOUS
 90
40
 70
0
 10
186.8556343636
 20
231.0966106539
 10
186.836510915
 20
231.0968044652
 10
186.8170539137
 20
231.097602022
 10
186.7972642895
 20
231.0990033334
 10
186.7771074461
 20
231.1010162634
 10
186.7566161782
 20
231.103632948
 10
186.7358944961
 20
231.1068297951
 10
186.7149450968
 20
231.1106044784
 10
186.6937715983
 20
231.1149593243
 10
186.6724862264
 20
231.1198777201
 10
186.6511006828
 20
231.1253620174
 10
186.6296162403
 20
231.1314098647
 10
186.6081353867
 20
231.1379975953
 10
186.58667012
 20
231.1451297249
 10
186.5652258866
 20
231.1528017378
 10
186.5438999709
 20
231.1609764201
 10
186.5227073752
 20
231.169657987
 10
186.501653443
 20
231.1788422234
 10
186.4808244465
 20
231.1884792693
 10
186.4602244475
 20
231.1985782322
 10
186.4398707645
 20
231.2091300046
 10
186.4198726071
 20
231.2200574049
 10
186.4002484083
 20
231.2313639034
 10
186.3810023483
 20
231.2430460296
 10
186.3622247828
 20
231.2550161909
 10
186.3439269086
 20
231.2672831002
 10
186.3261193779
 20
231.2798380445
 10
186.3088933782
 20
231.2925672919
 10
186.2922791544
 20
231.3054638954
 10
186.2762670838
 20
231.3185348021
 10
186.2608890371
 20
231.3316871208
 10
186.24616245
 20
231.3449182555
 10
186.2320871855
 20
231.3582308023
 10
186.2186681027
 20
231.3715396588
 10
186.2059180862
 20
231.3848437815
 10
186.193838104
 20
231.3981442139
 10
186.1824141678
 20
231.411358984
 10
186.1716450845
 20
231.4244607677
 10
186.1615426556
 20
231.4374768892
 10
186.1521115715
 20
231.4504073483
  0
LWPOLYLINE
  5
32C
100
AcDbEntity
  8
IMPORT_IGES
100
AcDbPolyline
 62
7
  6
CONTINUOUS
 90
52
 70
0
 10
-186.8556353102
 20
231.0965441415
 10
-186.8747420173
 20
231.0967728361
 10
-186.8936509075
 20
231.0975943304
 10
-186.9123574217
 20
231.0990086242
 10
-186.9308765099
 20
231.1010196925
 10
-186.9491835472
 20
231.1036235604
 10
-186.9672170402
 20
231.1068083032
 10
-186.9849762568
 20
231.1105726501
 10
-187.0024577576
 20
231.1149178718
 10
-187.0196011932
 20
231.1198358553
 10
-187.0364078138
 20
231.1253307765
 10
-187.052878054
 20
231.1313984596
 10
-187.0689559683
 20
231.1380182636
 10
-187.0846501452
 20
231.1451966475
 10
-187.0999597255
 20
231.1529271524
 10
-187.1148210534
 20
231.1611697605
 10
-187.1292437696
 20
231.1699316497
 10
-187.1432335917
 20
231.1792056421
 10
-187.156728358
 20
231.1889301865
 10
-187.1697380369
 20
231.199111128
 10
-187.1822758031
 20
231.2097426214
 10
-187.1942914114
 20
231.2207455797
 10
-187.2057961687
 20
231.2321250211
 10
-187.2168081175
 20
231.2438759273
 10
-187.2272928855
 20
231.2559041565
 10
-187.2372618168
 20
231.2682123543
 10
-187.2467366601
 20
231.2807978752
 10
-187.2557024018
 20
231.2935586407
 10
-187.2641716799
 20
231.3064958206
 10
-187.2721655096
 20
231.3196082452
 10
-187.2796831304
 20
231.3327903266
 10
-187.2867327403
 20
231.3460325311
 10
-187.2933380338
 20
231.3593443925
 10
-187.2995210336
 20
231.3726489245
 10
-187.3052915327
 20
231.3859381563
 10
-187.3106668876
 20
231.3992200587
 10
-187.3156783809
 20
231.4124415573
 10
-187.3203360245
 20
231.4255993674
 10
-187.3246515089
 20
231.4386967737
 10
-187.328656192
 20
231.4516905567
 10
-187.3323571047
 20
231.464572449
 10
-187.33576395
 20
231.477350718
 10
-187.338909759
 20
231.4900069466
 10
-187.3418017216
 20
231.502540009
 10
-187.3444448491
 20
231.514951031
 10
-187.3468669205
 20
231.5272249726
 10
-187.3490724551
 20
231.5393553336
 10
-187.351065616
 20
231.5513486141
 10
-187.352872121
 20
231.5632092749
 10
-187.3545023129
 20
231.5749388029
 10
-187.355951631
 20
231.5865357113
 10
-187.3572225736
 20
231.598
  0
LWPOLYLINE
  5
32D
100
AcDbEntity
  8
0
100
AcDbPolyline
 62
7
  6
CONTINUOUS
 90
6
 70
0
 43
0.3500000006
 10
-3.3214284925
 20
253.0753646851
 10
-2.2499999785
 20
253.0753646851
 10
-2.0357142191
 20
253.2896491699
 10
-2.0357142191
 20
254.3610715942
 10
-2.464285738
 20
254.789640564
 10
-2.8928572569
 20
254.789640564
  0
LWPOLYLINE
  5
32E
100
AcDbEntity
  8
0
100
AcDbPolyline
 62
7
  6
CONTINUOUS
 90
8
 70
0
 43
0.3500000006
 10
1.1785713937
 20
253.0753646851
 10
2.0357142191
 20
253.0753646851
 10
2.464285738
 20
253.5039336548
 10
2.464285738
 20
254.3610715942
 10
2.0357142191
 20
254.789640564
 10
1.1785713937
 20
254.789640564
 10
1.1785713937
 20
256.0753474731
 10
2.464285738
 20
256.0753474731
  0
LWPOLYLINE
  5
32F
100
AcDbEntity
  8
IMPORT_IGES
100
AcDbPolyline
 62
7
  6
CONTINUOUS
 90
40
 70
0
 10
186.1521102208
 20
-231.4504092439
 10
186.1615314164
 20
-231.4374909696
 10
186.1716260043
 20
-231.4244840809
 10
186.1823892854
 20
-231.4113885776
 10
186.1938102474
 20
-231.3981760674
 10
186.2058892664
 20
-231.3848749428
 10
186.2186379286
 20
-231.3715703805
 10
186.2320545053
 20
-231.3582624306
 10
186.2461268873
 20
-231.3449510431
 10
186.2608501396
 20
-231.3317212453
 10
186.2762238473
 20
-231.3185708004
 10
186.2922311473
 20
-231.3055019452
 10
186.308841762
 20
-231.2926064172
 10
186.326066
 20
-231.2798766667
 10
186.3438728998
 20
-231.2673202434
 10
186.3621707484
 20
-231.2550515341
 10
186.3809492094
 20
-231.2430791912
 10
186.4001967489
 20
-231.2313945623
 10
186.4198215374
 20
-231.2200860766
 10
186.4398183595
 20
-231.2091577839
 10
186.4601698653
 20
-231.1986056343
 10
186.4807685429
 20
-231.1885059072
 10
186.5015976374
 20
-231.1788673347
 10
186.522652483
 20
-231.1696811846
 10
186.5438467177
 20
-231.1609975402
 10
186.5651751698
 20
-231.1528205859
 10
186.5866226257
 20
-231.1451461371
 10
186.6080911538
 20
-231.1380117232
 10
186.6295746972
 20
-231.1314220291
 10
186.6510618719
 20
-231.1253723697
 10
186.6724513624
 20
-231.1198862196
 10
186.6937428906
 20
-231.1149657161
 10
186.7149236594
 20
-231.110608722
 10
186.7358795058
 20
-231.1068322996
 10
186.7566063862
 20
-231.1036367944
 10
186.7771020774
 20
-231.101021861
 10
186.7972620613
 20
-231.0990035264
 10
186.8170534089
 20
-231.0975871327
 10
186.8365109353
 20
-231.0967673377
 10
186.8556353656
 20
-231.0965441415
  0
LWPOLYLINE
  5
330
100
AcDbEntity
  8
IMPORT_IGES
100
AcDbPolyline
 62
7
  6
CONTINUOUS
 90
22
 70
0
 10
186.1504073483
 20
-231.4521115715
 10
186.1234807038
 20
-231.4719579244
 10
186.097008935
 20
-231.4939024664
 10
186.0709920418
 20
-231.5179112528
 10
186.0452135768
 20
-231.5440629085
 10
186.0198899875
 20
-231.5721943302
 10
185.9956706163
 20
-231.601908276
 10
185.9727264814
 20
-231.6331196353
 10
185.9508865647
 20
-231.6658142954
 10
185.9302871543
 20
-231.699707576
 10
185.9109518863
 20
-231.734696115
 10
185.8928571248
 20
-231.7707675189
 10
185.8760682497
 20
-231.8077754887
 10
185.8604697253
 20
-231.8459136487
 10
185.8461770873
 20
-231.8848393345
 10
185.8336023233
 20
-231.923635894
 10
185.8228250737
 20
-231.9617473275
 10
185.8137656979
 20
-231.9996633793
 10
185.8065972624
 20
-232.0380346696
 10
185.8013774558
 20
-232.0770010865
 10
185.7980485893
 20
-232.1162342243
 10
185.7966106631
 20
-232.155635977
  0
LWPOLYLINE
  5
331
100
AcDbEntity
  8
IMPORT_IGES
100
AcDbPolyline
 62
7
  6
CONTINUOUS
 90
40
 70
0
 10
186.1504073483
 20
231.4521115715
 10
186.1374428375
 20
231.4615686372
 10
186.1244019923
 20
231.4716892006
 10
186.1112848125
 20
231.4824686117
 10
186.0980648194
 20
231.4938949991
 10
186.0847684918
 20
231.5059697308
 10
186.0714752664
 20
231.5187072114
 10
186.0581846923
 20
231.5321053388
 10
186.0448972204
 20
231.5461525216
 10
186.0316936407
 20
231.5608479302
 10
186.0185719923
 20
231.576189906
 10
186.0055342359
 20
231.5921629426
 10
185.9926670434
 20
231.6087446384
 10
185.9799638815
 20
231.6259434891
 10
185.9674312834
 20
231.6437302705
 10
185.9551755206
 20
231.6620261713
 10
185.94320192
 20
231.6808251472
 10
185.9315051547
 20
231.7001107408
 10
185.9201755143
 20
231.7197899834
 10
185.9092144818
 20
231.7398631436
 10
185.8986205741
 20
231.760306585
 10
185.8884796326
 20
231.7809943468
 10
185.8788015894
 20
231.8019102806
 10
185.8695765123
 20
231.8230490313
 10
185.860860446
 20
231.8443046773
 10
185.8526585198
 20
231.8656705528
 10
185.8449656044
 20
231.8871339041
 10
185.8378223567
 20
231.9085840211
 10
185.8312361771
 20
231.9300052183
 10
185.8251996652
 20
231.9513978007
 10
185.8197312757
 20
231.972679541
 10
185.8148334444
 20
231.9938452401
 10
185.8105037355
 20
232.0148881465
 10
185.8067532967
 20
232.0357280626
 10
185.803581899
 20
232.056357418
 10
185.8009897715
 20
232.0767764548
 10
185.7989887485
 20
232.0969211013
 10
185.7975827749
 20
232.11676991
 10
185.7967679059
 20
232.1363417774
 10
185.7965441415
 20
232.1556353102
  0
LINE
  5
332
100
AcDbEntity
  8
IMPORT_IGES
100
AcDbLine
 62
7
  6
CONTINUOUS
 10
-246.7528045234
 20
-229.3947880332
 11
-246.718243855
 21
-229.3934397318
  0
LINE
  5
333
100
AcDbEntity
  8
IMPORT_IGES
100
AcDbLine
 62
7
  6
CONTINUOUS
 10
-332.109289866
 20
-232.8
 11
-320.109289866
 21
-232.8
  0
LINE
  5
334
100
AcDbEntity
  8
IMPORT_IGES
100
AcDbLine
 62
7
  6
CONTINUOUS
 10
-320.109289866
 20
-231.598
 11
-332.8889277838
 21
-231.598
  0
LINE
  5
335
100
AcDbEntity
  8
IMPORT_IGES
100
AcDbLine
 62
7
  6
CONTINUOUS
 10
-320.109289866
 20
-230.9493014859
 11
-248.1324553638
 21
-230.9493014859
  0
LINE
  5
336
100
AcDbEntity
  8
IMPORT_IGES
100
AcDbLine
 62
7
  6
CONTINUOUS
 10
-320.109289866
 20
-229.9493014859
 11
-247.7681605244
 21
-229.9493014859
  0
LINE
  5
337
100
AcDbEntity
  8
IMPORT_IGES
100
AcDbLine
 62
7
  6
CONTINUOUS
 10
-320.109289866
 20
-229.8493014859
 11
-249.6324553638
 21
-229.8493014859
  0
LINE
  5
338
100
AcDbEntity
  8
IMPORT_IGES
100
AcDbLine
 62
7
  6
CONTINUOUS
 10
-247.4478764666
 20
-229.8493014859
 11
-248.6324553638
 21
-229.8493014859
  0
LINE
  5
339
100
AcDbEntity
  8
IMPORT_IGES
100
AcDbLine
 62
7
  6
CONTINUOUS
 10
-246.7182418014
 20
-229.3938810432
 11
-246.7295558775
 21
-229.3938810432
  0
LINE
  5
33A
100
AcDbEntity
  8
IMPORT_IGES
100
AcDbLine
 62
7
  6
CONTINUOUS
 10
-248.6324553638
 20
-227.8493014859
 11
-249.6324553638
 21
-227.8493014859
  0
LINE
  5
33B
100
AcDbEntity
  8
IMPORT_IGES
100
AcDbLine
 62
250
  6
CONTINUOUS
 10
-249.6324553638
 20
-227.8493014859
 11
-320.109289866
 21
-227.8493014859
  0
LWPOLYLINE
  5
33C
100
AcDbEntity
  8
IMPORT_IGES
100
AcDbPolyline
 62
7
  6
CONTINUOUS
 90
52
 70
0
 10
-333.6649243377
 20
-231.0965441415
 10
-333.6457692126
 20
-231.0967676064
 10
-333.6262756411
 20
-231.0975905661
 10
-333.6064427442
 20
-231.0990130204
 10
-333.5862343115
 20
-231.1010402123
 10
-333.5656843395
 20
-231.1036668989
 10
-333.5449010266
 20
-231.1068773517
 10
-333.5238865387
 20
-231.1106723236
 10
-333.502644961
 20
-231.1150510618
 10
-333.4812945539
 20
-231.119995579
 10
-333.4598489864
 20
-231.1255081358
 10
-333.438307924
 20
-231.1315864716
 10
-333.4167747393
 20
-231.1382058176
 10
-333.395262922
 20
-231.1453701453
 10
-333.3737767829
 20
-231.1530754832
 10
-333.3524104839
 20
-231.1612851477
 10
-333.3311763771
 20
-231.1700044747
 10
-333.3100825505
 20
-231.1792281282
 10
-333.2892202721
 20
-231.1889034168
 10
-333.2686004353
 20
-231.199035594
 10
-333.2482339346
 20
-231.2096194061
 10
-333.2282148832
 20
-231.2205864008
 10
-333.2085503207
 20
-231.2319465081
 10
-333.1892554008
 20
-231.243689798
 10
-333.1704389683
 20
-231.2557180272
 10
-333.1521229673
 20
-231.268033455
 10
-333.1343077571
 20
-231.2806338222
 10
-333.1170715574
 20
-231.2934141078
 10
-333.1004351819
 20
-231.3063749157
 10
-333.0843982785
 20
-231.3195156419
 10
-333.0690077992
 20
-231.3327294541
 10
-333.0542881443
 20
-231.3460089339
 10
-333.0402325143
 20
-231.3593614996
 10
-333.0268405137
 20
-231.3727025736
 10
-333.0141297651
 20
-231.3860237077
 10
-333.0020965938
 20
-231.39933335
 10
-332.990707465
 20
-231.4125722674
 10
-332.9799727759
 20
-231.4257337154
 10
-332.9698925635
 20
-231.4388244384
 10
-332.9604164538
 20
-231.451805437
 10
-332.9515523164
 20
-231.4646679091
 10
-332.9432997952
 20
-231.4774206569
 10
-332.9355950096
 20
-231.4900510869
 10
-332.9284381132
 20
-231.5025583111
 10
-332.9218341222
 20
-231.5149432176
 10
-332.9157255332
 20
-231.5271958776
 10
-332.9101134638
 20
-231.5393098258
 10
-332.9050003039
 20
-231.5512915275
 10
-332.9003298005
 20
-231.5631504491
 10
-332.8960838921
 20
-231.5748897461
 10
-332.8922828989
 20
-231.5865062631
 10
-332.8889277838
 20
-231.598
  0
LWPOLYLINE
  5
33D
100
AcDbEntity
  8
IMPORT_IGES
100
AcDbPolyline
 62
7
  6
CONTINUOUS
 90
19
 70
0
 10
-246.7182432935
 20
-229.393439728
 10
-246.6841810554
 20
-229.3941193019
 10
-246.6513766004
 20
-229.396627282
 10
-246.6198182515
 20
-229.4009636721
 10
-246.5894386094
 20
-229.4071571682
 10
-246.5602793454
 20
-229.4151790743
 10
-246.532476025
 20
-229.4249433025
 10
-246.5060123962
 20
-229.4364393619
 10
-246.4808399627
 20
-229.4496777435
 10
-246.4570210497
 20
-229.4646038317
 10
-246.4344930848
 20
-229.4812386938
 10
-246.4132321368
 20
-229.4995612624
 10
-246.3933334052
 20
-229.5194537203
 10
-246.3747579258
 20
-229.5409102025
 10
-246.3574256035
 20
-229.5639365738
 10
-246.3413482077
 20
-229.5884326119
 10
-246.3264839599
 20
-229.6143649092
 10
-246.3127462396
 20
-229.6417668731
 10
-246.300074161
 20
-229.6706385037
  0
LINE
  5
33E
100
AcDbEntity
  8
IMPORT_IGES
100
AcDbLine
 62
7
  6
CONTINUOUS
 10
-333.3808062556
 20
-231.2761750553
 11
-333.2066987411
 21
-231.2330734181
  0
LINE
  5
33F
100
AcDbEntity
  8
IMPORT_IGES
100
AcDbLine
 62
7
  6
CONTINUOUS
 10
-333.3786414999
 20
-231.2742958638
 11
-333.4796007188
 21
-231.3000799175
  0
LINE
  5
340
100
AcDbEntity
  8
IMPORT_IGES
100
AcDbLine
 62
7
  6
CONTINUOUS
 10
-333.6858800285
 20
-231.3486233192
 11
-333.4780792758
 21
-231.2983223477
  0
LINE
  5
341
100
AcDbEntity
  8
IMPORT_IGES
100
AcDbLine
 62
7
  6
CONTINUOUS
 10
-334.0196977197
 20
-231.4253937328
 11
-333.6825143714
 21
-231.3463537603
  0
LINE
  5
342
100
AcDbEntity
  8
IMPORT_IGES
100
AcDbLine
 62
7
  6
CONTINUOUS
 10
-334.0177256956
 20
-231.4232913562
 11
-334.1375664423
 21
-231.4504073483
  0
LINE
  5
343
100
AcDbEntity
  8
IMPORT_IGES
100
AcDbLine
 62
7
  6
CONTINUOUS
 10
-246.300074161
 20
-229.6706385037
 11
-246.5248094333
 21
-229.6255898268
  0
LINE
  5
344
100
AcDbEntity
  8
IMPORT_IGES
100
AcDbLine
 62
7
  6
CONTINUOUS
 10
-246.5248094333
 20
-229.6255898268
 11
-246.7487884358
 21
-229.5789091357
  0
LINE
  5
345
100
AcDbEntity
  8
IMPORT_IGES
100
AcDbLine
 62
7
  6
CONTINUOUS
 10
-246.7487884358
 20
-229.5789091357
 11
-246.9720011807
 21
-229.530598572
  0
LWPOLYLINE
  5
346
100
AcDbEntity
  8
IMPORT_IGES
100
AcDbPolyline
 62
7
  6
CONTINUOUS
 90
8
 70
0
 10
-246.300074161
 20
-229.7507870612
 10
-246.5546731931
 20
-229.6943685013
 10
-246.675266023
 20
-229.6667859811
 10
-246.7913735895
 20
-229.6395759038
 10
-246.903010032
 20
-229.6127836665
 10
-247.0102177678
 20
-229.5865454598
 10
-247.1130109363
 20
-229.5609066808
 10
-247.1788245792
 20
-229.5441229906
  0
LINE
  5
347
100
AcDbEntity
  8
IMPORT_IGES
100
AcDbLine
 62
7
  6
CONTINUOUS
 10
-246.9720011807
 20
-229.530598572
 11
-247.1054693318
 21
-229.5008143473
  0
LWPOLYLINE
  5
348
100
AcDbEntity
  8
0
100
AcDbPolyline
 62
7
  6
CONTINUOUS
 90
10
 70
0
 43
0.3500000006
 10
-292.1851521606
 20
252.8551525269
 10
-291.3280142212
 20
253.7122904663
 10
-291.1137297363
 20
254.5694465332
 10
-291.1137297363
 20
255.4265844727
 10
-291.5422987061
 20
255.8551534424
 10
-292.1851521606
 20
255.8551534424
 10
-292.6137211304
 20
255.4265844727
 10
-292.6137211304
 20
254.5694465332
 10
-292.1851521606
 20
254.140859436
 10
-291.2565921021
 20
254.140859436
  0
LWPOLYLINE
  5
349
100
AcDbEntity
  8
IMPORT_IGES
100
AcDbPolyline
 62
7
  6
CONTINUOUS
 90
3
 70
0
 10
-334.1375643165
 20
231.4504070532
 10
-334.1733172811
 20
231.3602900639
 10
-334.2049269041
 20
231.2690822415
  0
LWPOLYLINE
  5
34A
100
AcDbEntity
  8
IMPORT_IGES
100
AcDbPolyline
 62
7
  6
CONTINUOUS
 90
8
 70
0
 10
-334.2049269041
 20
231.2690822415
 10
-334.2323931856
 20
231.1767835858
 10
-334.2557491194
 20
231.0833972136
 10
-334.2749617117
 20
230.9889200083
 10
-334.2899319807
 20
230.8933426192
 10
-334.3006269324
 20
230.7966619298
 10
-334.3070795609
 20
230.6988810567
 10
-334.309289866
 20
230.6
  0
LWPOLYLINE
  5
34B
100
AcDbEntity
  8
IMPORT_IGES
100
AcDbPolyline
 62
7
  6
CONTINUOUS
 90
4
 70
0
 10
-334.2323928533
 20
-231.1767847982
 10
-334.2049270994
 20
-231.2690832482
 10
-334.1733182957
 20
-231.3602907649
 10
-334.1375664423
 20
-231.4504073483
  0
LWPOLYLINE
  5
34C
100
AcDbEntity
  8
IMPORT_IGES
100
AcDbPolyline
 62
7
  6
CONTINUOUS
 90
52
 70
0
 10
-332.8889245099
 20
231.5980117811
 10
-332.8922807387
 20
231.5865139033
 10
-332.8960824239
 20
231.5748945187
 10
-332.9003286035
 20
231.5631536275
 10
-332.9049988317
 20
231.5512948287
 10
-332.9101112978
 20
231.5393145232
 10
-332.9157226349
 20
231.5272019135
 10
-332.9218306015
 20
231.5149500555
 10
-332.9284339321
 20
231.5025658933
 10
-332.9355900655
 20
231.4900594625
 10
-332.9432939261
 20
231.4774299679
 10
-332.9515454217
 20
231.4646782047
 10
-332.9604085484
 20
231.451816593
 10
-332.969883774
 20
231.438836187
 10
-332.9799631176
 20
231.4257459324
 10
-332.9906967361
 20
231.4125850875
 10
-333.0020843737
 20
231.3993471476
 10
-333.0141158576
 20
231.3860386173
 10
-333.0268251676
 20
231.3727182685
 10
-333.0402164065
 20
231.3593772501
 10
-333.0542715185
 20
231.3460244132
 10
-333.0689900574
 20
231.332745082
 10
-333.0843781641
 20
231.3195324025
 10
-333.1004121181
 20
231.3063932287
 10
-333.1170461288
 20
231.2934334481
 10
-333.1342808982
 20
231.2806533
 10
-333.1520952482
 20
231.268052545
 10
-333.1704110333
 20
231.2557363527
 10
-333.1892282235
 20
231.2437068292
 10
-333.2085245219
 20
231.2319618685
 10
-333.2281901482
 20
231.2206003216
 10
-333.248209563
 20
231.2096323859
 10
-333.2685761283
 20
231.199047864
 10
-333.2891959887
 20
231.1889150152
 10
-333.3100583975
 20
231.1792390153
 10
-333.3311523139
 20
231.1700146885
 10
-333.3523862839
 20
231.1612947675
 10
-333.3737519278
 20
231.1530846761
 10
-333.3952372024
 20
231.1453789903
 10
-333.4167486476
 20
231.1382141709
 10
-333.4382820436
 20
231.1315940988
 10
-333.459823783
 20
231.1255148931
 10
-333.4812708517
 20
231.1200013707
 10
-333.5026240071
 20
231.1150557166
 10
-333.5238690965
 20
231.1106757459
 10
-333.5448868759
 20
231.1068797209
 10
-333.5656729492
 20
231.1036660364
 10
-333.5862254754
 20
231.1010362977
 10
-333.6064362586
 20
231.0990135831
 10
-333.6262713065
 20
231.0976055856
 10
-333.6457668345
 20
231.0968046122
 10
-333.6649237263
 20
231.0966106631
  0
LWPOLYLINE
  5
34D
100
AcDbEntity
  8
0
100
AcDbPolyline
 62
7
  6
CONTINUOUS
 90
3
 70
0
 43
0.3500000006
 10
-287.1851506348
 20
253.1408591309
 10
-287.2565908813
 20
252.926574646
 10
-287.3994351196
 20
252.640868042
  0
LINE
  5
34E
100
AcDbEntity
  8
IMPORT_IGES
100
AcDbLine
 62
7
  6
CONTINUOUS
 10
-242.3664109207
 20
198.1704841104
 11
-246.1324553638
 21
193.6822871155
  0
LINE
  5
34F
100
AcDbEntity
  8
IMPORT_IGES
100
AcDbLine
 62
7
  6
CONTINUOUS
 10
-242.3664109207
 20
-198.1705341105
 11
-246.1324553638
 21
-193.6823371155
  0
LWPOLYLINE
  5
350
100
AcDbEntity
  8
IMPORT_IGES
100
AcDbPolyline
 62
7
  6
CONTINUOUS
 90
7
 70
0
 10
-334.309289866
 20
-230.6
 10
-334.3070795065
 20
-230.6988816049
 10
-334.3006268232
 20
-230.7966628877
 10
-334.2899318163
 20
-230.8933438484
 10
-334.2749613943
 20
-230.9889213575
 10
-334.2557486487
 20
-231.0833985445
 10
-334.2323928533
 20
-231.1767847982
  0
LINE
  5
351
100
AcDbEntity
  8
IMPORT_IGES
100
AcDbLine
 62
7
  6
CONTINUOUS
 10
-334.309289866
 20
-230.6
 11
-334.309289866
 21
230.6
  0
LWPOLYLINE
  5
352
100
AcDbEntity
  8
IMPORT_IGES
100
AcDbPolyline
 62
7
  6
CONTINUOUS
 90
19
 70
0
 10
-246.300074161
 20
229.6706385037
 10
-246.3126872423
 20
229.641902936
 10
-246.3263749917
 20
229.6146116793
 10
-246.3411994702
 20
229.5887647336
 10
-246.3572490299
 20
229.5643261841
 10
-246.3745664205
 20
229.5413319455
 10
-246.3931399184
 20
229.5198897619
 10
-246.4130588592
 20
229.4999899683
 10
-246.4343563975
 20
229.4816422296
 10
-246.4569121586
 20
229.4649832847
 10
-246.4807343791
 20
229.4500440451
 10
-246.5058981945
 20
229.4367935992
 10
-246.5323574076
 20
229.4252759517
 10
-246.5601670969
 20
229.4154742491
 10
-246.5893381249
 20
229.4074053449
 10
-246.6197345781
 20
229.4011638031
 10
-246.6513148585
 20
229.3967811453
 10
-246.6841469386
 20
229.39422585
 10
-246.7182433734
 20
229.3934979172
  0
LINE
  5
353
100
AcDbEntity
  8
IMPORT_IGES
100
AcDbLine
 62
250
  6
CONTINUOUS
 10
-332.109289866
 20
-231.598
 11
-332.109289866
 21
231.598
  0
LINE
  5
354
100
AcDbEntity
  8
IMPORT_IGES
100
AcDbLine
 62
7
  6
CONTINUOUS
 10
-320.109289866
 20
232.8
 11
-320.109289866
 21
231.6
  0
LINE
  5
355
100
AcDbEntity
  8
IMPORT_IGES
100
AcDbLine
 62
7
  6
CONTINUOUS
 10
-320.109289866
 20
-232.8
 11
-320.109289866
 21
-231.6
  0
LINE
  5
356
100
AcDbEntity
  8
IMPORT_IGES
100
AcDbLine
 62
7
  6
CONTINUOUS
 10
-320.109289866
 20
-231.598
 11
-320.109289866
 21
231.598
  0
LINE
  5
357
100
AcDbEntity
  8
IMPORT_IGES
100
AcDbLine
 62
7
  6
CONTINUOUS
 10
-247.7681605246
 20
229.9493014859
 11
-247.4478764668
 21
230.8284906019
  0
LINE
  5
358
100
AcDbEntity
  8
IMPORT_IGES
100
AcDbLine
 62
7
  6
CONTINUOUS
 10
-247.4478764666
 20
-230.8284906018
 11
-247.7681605244
 21
-229.9493014859
  0
LINE
  5
359
100
AcDbEntity
  8
IMPORT_IGES
100
AcDbLine
 62
7
  6
CONTINUOUS
 10
-253.571666809
 20
229.8493014859
 11
-253.5448718897
 21
229.9493014859
  0
LWPOLYLINE
  5
35A
100
AcDbEntity
  8
IMPORT_IGES
100
AcDbPolyline
 62
7
  6
CONTINUOUS
 90
10
 70
0
 10
-247.7761070692
 20
-229.8836546808
 10
-247.775390855
 20
-229.8911266132
 10
-247.7746328622
 20
-229.8985542013
 10
-247.7738330909
 20
-229.9059374453
 10
-247.7729914148
 20
-229.9132765005
 10
-247.7721079602
 20
-229.9205712115
 10
-247.7711831059
 20
-229.9278211121
 10
-247.7702169784
 20
-229.9350260471
 10
-247.7692094512
 20
-229.9421861716
 10
-247.7681605244
 20
-229.9493014859
  0
LWPOLYLINE
  5
35B
100
AcDbEntity
  8
IMPORT_IGES
100
AcDbPolyline
 62
7
  6
CONTINUOUS
 90
10
 70
0
 10
-247.7761070694
 20
229.8836546809
 10
-247.7754107217
 20
229.8909607489
 10
-247.7746677085
 20
229.8982639465
 10
-247.7738780299
 20
229.9055642738
 10
-247.7730416657
 20
229.9128618964
 10
-247.7721586361
 20
229.9201566486
 10
-247.7712290011
 20
229.9274480333
 10
-247.7702527809
 20
229.9347358849
 10
-247.7692299554
 20
229.9420203691
 10
-247.7681605246
 20
229.9493014859
  0
LWPOLYLINE
  5
35C
100
AcDbEntity
  8
IMPORT_IGES
100
AcDbPolyline
 62
7
  6
CONTINUOUS
 90
40
 70
0
 10
-334.1375670097
 20
-231.4504092439
 10
-334.1335832288
 20
-231.4374909696
 10
-334.1292572194
 20
-231.4244840809
 10
-334.124578716
 20
-231.4113885776
 10
-334.1195394131
 20
-231.3981760674
 10
-334.1141251802
 20
-231.3848749428
 10
-334.1083157178
 20
-231.3715703805
 10
-334.1020955262
 20
-231.3582624306
 10
-334.0954529795
 20
-231.3449510431
 10
-334.0883722315
 20
-231.3317212453
 10
-334.0808341846
 20
-231.3185708004
 10
-334.0728268151
 20
-231.3055019452
 10
-334.0643444175
 20
-231.2926064172
 10
-334.0553598965
 20
-231.2798766667
 10
-334.04586658
 20
-231.2673202434
 10
-334.035891356
 20
-231.2550515341
 10
-334.0254184647
 20
-231.2430791912
 10
-334.0144321478
 20
-231.2313945623
 10
-334.0029634716
 20
-231.2200860766
 10
-333.9909949724
 20
-231.2091577839
 10
-333.9785158779
 20
-231.1986056343
 10
-333.9655726161
 20
-231.1885059072
 10
-333.952158043
 20
-231.1788673347
 10
-333.9382570352
 20
-231.1696811846
 10
-333.9239097554
 20
-231.1609975402
 10
-333.9091042425
 20
-231.1528205859
 10
-333.8938352476
 20
-231.1451461371
 10
-333.8781588644
 20
-231.1380117232
 10
-333.8620679822
 20
-231.1314220291
 10
-333.8455593781
 20
-231.1253723697
 10
-333.828701759
 20
-231.1198862196
 10
-333.8114886661
 20
-231.1149657161
 10
-333.7939236654
 20
-231.110608722
 10
-333.7760982068
 20
-231.1068322996
 10
-333.7580159912
 20
-231.1036367944
 10
-333.7396792222
 20
-231.101021861
 10
-333.7211851231
 20
-231.0990035264
 10
-333.7025723126
 20
-231.0975871327
 10
-333.6838165078
 20
-231.0967673377
 10
-333.6649243377
 20
-231.0965441415
  0
LINE
  5
35D
100
AcDbEntity
  8
IMPORT_IGES
100
AcDbLine
 62
7
  6
CONTINUOUS
 10
-249.6324553638
 20
229.8493014859
 11
-249.6324553638
 21
227.8493014859
  0
LINE
  5
35E
100
AcDbEntity
  8
IMPORT_IGES
100
AcDbLine
 62
7
  6
CONTINUOUS
 10
-249.6324553638
 20
-227.8493014859
 11
-249.6324553638
 21
-229.8493014859
  0
LINE
  5
35F
100
AcDbEntity
  8
IMPORT_IGES
100
AcDbLine
 62
7
  6
CONTINUOUS
 10
-248.6324553638
 20
229.8493014859
 11
-248.6324553638
 21
227.8493014859
  0
LINE
  5
360
100
AcDbEntity
  8
IMPORT_IGES
100
AcDbLine
 62
7
  6
CONTINUOUS
 10
-248.6324553638
 20
-229.8493014859
 11
-248.6324553638
 21
-227.8493014859
  0
LINE
  5
361
100
AcDbEntity
  8
IMPORT_IGES
100
AcDbLine
 62
250
  6
CONTINUOUS
 10
-248.1324553638
 20
229.8493014859
 11
-248.1324553638
 21
-229.8493014859
  0
LINE
  5
362
100
AcDbEntity
  8
IMPORT_IGES
100
AcDbLine
 62
7
  6
CONTINUOUS
 10
-248.1324553638
 20
-229.9493014859
 11
-248.1324553638
 21
-230.9493014859
  0
LINE
  5
363
100
AcDbEntity
  8
IMPORT_IGES
100
AcDbLine
 62
7
  6
CONTINUOUS
 10
-248.1324553638
 20
229.9493014859
 11
-248.1324553638
 21
230.9493014859
  0
LINE
  5
364
100
AcDbEntity
  8
IMPORT_IGES
100
AcDbLine
 62
7
  6
CONTINUOUS
 10
-246.1324553638
 20
-228.9493014859
 11
-246.1324553638
 21
228.9493014859
  0
LINE
  5
365
100
AcDbEntity
  8
IMPORT_IGES
100
AcDbLine
 62
7
  6
CONTINUOUS
 10
-244.9465311962
 20
173.0083119615
 11
-244.9465311962
 21
173.0244993393
  0
LINE
  5
366
100
AcDbEntity
  8
IMPORT_IGES
100
AcDbLine
 62
7
  6
CONTINUOUS
 10
-244.9394127828
 20
173.0083119615
 11
-244.9394127828
 21
173.0244993393
  0
LINE
  5
367
100
AcDbEntity
  8
IMPORT_IGES
100
AcDbLine
 62
250
  6
CONTINUOUS
 10
-242.3664109207
 20
213.7281188613
 11
-242.3664109207
 21
198.1704841104
  0
LINE
  5
368
100
AcDbEntity
  8
IMPORT_IGES
100
AcDbLine
 62
250
  6
CONTINUOUS
 10
-242.3664109207
 20
-198.1705341105
 11
-242.3664109207
 21
-213.7281688613
  0
LINE
  5
369
100
AcDbEntity
  8
IMPORT_IGES
100
AcDbLine
 62
7
  6
CONTINUOUS
 10
-242.1324553638
 20
213.0853312516
 11
-242.1324553638
 21
198.8132717201
  0
LINE
  5
36A
100
AcDbEntity
  8
IMPORT_IGES
100
AcDbLine
 62
7
  6
CONTINUOUS
 10
-242.1324553638
 20
-198.8133217201
 11
-242.1324553638
 21
-213.0853812516
  0
LINE
  5
36B
100
AcDbEntity
  8
IMPORT_IGES
100
AcDbLine
 62
7
  6
CONTINUOUS
 10
-332.888924307
 20
-232.657223279
 11
-332.4882640352
 21
-231.6000003844
  0
LINE
  5
36C
100
AcDbEntity
  8
IMPORT_IGES
100
AcDbLine
 62
7
  6
CONTINUOUS
 10
-332.4882658348
 20
231.6
 11
-332.8889277838
 21
232.6572225736
  0
LINE
  5
36D
100
AcDbEntity
  8
IMPORT_IGES
100
AcDbLine
 62
7
  6
CONTINUOUS
 10
-279.1611550323
 20
229.8493014859
 11
-279.1879499516
 21
229.9493014859
  0
LWPOLYLINE
  5
36E
100
AcDbEntity
  8
IMPORT_IGES
100
AcDbPolyline
 62
7
  6
CONTINUOUS
 90
27
 70
0
 10
-247.4478764666
 20
-229.8493014859
 10
-247.4383667542
 20
-229.8262145876
 10
-247.427095297
 20
-229.8029083872
 10
-247.4140745243
 20
-229.779382885
 10
-247.3993628076
 20
-229.7555099956
 10
-247.3829335951
 20
-229.7314178043
 10
-247.3646771455
 20
-229.7074905662
 10
-247.3445427943
 20
-229.6837336521
 10
-247.3226350602
 20
-229.6601416912
 10
-247.2990823045
 20
-229.6370828261
 10
-247.273842137
 20
-229.6145791586
 10
-247.2470318429
 20
-229.5926085868
 10
-247.2190170846
 20
-229.5714729473
 10
-247.1898706805
 20
-229.5512124155
 10
-247.1596034666
 20
-229.531786816
 10
-247.1284805805
 20
-229.51337746
 10
-247.0965863393
 20
-229.4959646307
 10
-247.0639292149
 20
-229.4795680448
 10
-247.0306561465
 20
-229.4644281638
 10
-246.9968057563
 20
-229.4505482541
 10
-246.962447436
 20
-229.4379250494
 10
-246.9277701398
 20
-229.4267892124
 10
-246.8928055387
 20
-229.4171520938
 10
-246.8576385555
 20
-229.409002343
 10
-246.822525819
 20
-229.4025365704
 10
-246.7875845099
 20
-229.3978203127
 10
-246.7528045234
 20
-229.3947880332
  0
LWPOLYLINE
  5
36F
100
AcDbEntity
  8
0
100
AcDbPolyline
 62
7
  6
CONTINUOUS
 90
10
 70
0
 43
0.3500000006
 10
-287.2565908813
 20
253.3551617432
 10
-287.1851506348
 20
253.2122993774
 10
-287.1851506348
 20
253.1408591309
 10
-287.3280130005
 20
252.9980148926
 10
-287.3994351196
 20
252.9980148926
 10
-287.4708753662
 20
253.0694370117
 10
-287.4708753662
 20
253.1408591309
 10
-287.3994351196
 20
253.2837214966
 10
-287.3280130005
 20
253.3551617432
 10
-287.2565908813
 20
253.3551617432
  0
LWPOLYLINE
  5
370
100
AcDbEntity
  8
IMPORT_IGES
100
AcDbPolyline
 62
7
  6
CONTINUOUS
 90
49
 70
0
 10
-247.4478764666
 20
229.8493014859
 10
-247.4428777671
 20
229.8370496379
 10
-247.4373809213
 20
229.8246949276
 10
-247.4313876089
 20
229.812237355
 10
-247.4249183876
 20
229.7996752362
 10
-247.4179565479
 20
229.787010255
 10
-247.4104483848
 20
229.7742474627
 10
-247.4023954061
 20
229.7613802356
 10
-247.3938017734
 20
229.7484151974
 10
-247.3846186637
 20
229.73537727
 10
-247.374846894
 20
229.7222605706
 10
-247.3644936425
 20
229.709070982
 10
-247.3535207127
 20
229.6958510744
 10
-247.3419236439
 20
229.6825907126
 10
-247.3297178105
 20
229.6693000319
 10
-247.3168958289
 20
229.6560520089
 10
-247.3034537516
 20
229.6428408853
 10
-247.289409523
 20
229.6296724193
 10
-247.2747892859
 20
229.6166368623
 10
-247.259594516
 20
229.6037348149
 10
-247.243840553
 20
229.5909656765
 10
-247.2275744889
 20
229.578417897
 10
-247.2107961996
 20
229.5660920121
 10
-247.1935251162
 20
229.553987486
 10
-247.1758370298
 20
229.5421911619
 10
-247.157734182
 20
229.5307053017
 10
-247.1392350043
 20
229.5195276435
 10
-247.120437792
 20
229.5087382442
 10
-247.1013384733
 20
229.4983380097
 10
-247.0819617405
 20
229.4883260342
 10
-247.0624454717
 20
229.4787796564
 10
-247.0428154215
 20
229.4697139083
 10
-247.0230629305
 20
229.461113758
 10
-247.0032702975
 20
229.4530114483
 10
-246.9834565211
 20
229.4454133099
 10
-246.963617728
 20
229.4383130121
 10
-246.9437994805
 20
229.4317238057
 10
-246.9239909369
 20
229.4256424517
 10
-246.9042176183
 20
229.4200721892
 10
-246.8845762549
 20
229.4150359859
 10
-246.8650658944
 20
229.4105389153
 10
-246.8456972849
 20
229.4065759039
 10
-246.8265788577
 20
229.403154699
 10
-246.8077129796
 20
229.4002972528
 10
-246.7891002261
 20
229.3979816132
 10
-246.7708396114
 20
229.3961496707
 10
-246.7529612219
 20
229.3947820557
 10
-246.7354299207
 20
229.3938981379
 10
-246.7182435845
 20
229.3934979192
  0
LINE
  5
371
100
AcDbEntity
  8
IMPORT_IGES
100
AcDbLine
 62
7
  6
CONTINUOUS
 10
-242.3664109207
 20
-213.7281688613
 11
-246.1324553638
 21
-218.2163658562
  0
LINE
  5
372
100
AcDbEntity
  8
IMPORT_IGES
100
AcDbLine
 62
7
  6
CONTINUOUS
 10
-244.9465311962
 20
173.0083119615
 11
-244.9394127828
 21
173.0083119615
  0
LINE
  5
373
100
AcDbEntity
  8
IMPORT_IGES
100
AcDbLine
 62
7
  6
CONTINUOUS
 10
-244.9465311962
 20
173.0244993393
 11
-244.9394127828
 21
173.0244993393
  0
LINE
  5
374
100
AcDbEntity
  8
IMPORT_IGES
100
AcDbLine
 62
7
  6
CONTINUOUS
 10
-242.3664109207
 20
213.7281188613
 11
-246.1324553638
 21
218.2163158562
  0
LINE
  5
375
100
AcDbEntity
  8
IMPORT_IGES
100
AcDbLine
 62
7
  6
CONTINUOUS
 10
-246.9720011868
 20
229.5951871509
 11
-247.1782215694
 21
229.5437814302
  0
LINE
  5
376
100
AcDbEntity
  8
IMPORT_IGES
100
AcDbLine
 62
7
  6
CONTINUOUS
 10
-246.7487884424
 20
229.6488655565
 11
-246.9720011868
 21
229.5951871509
  0
LINE
  5
377
100
AcDbEntity
  8
IMPORT_IGES
100
AcDbLine
 62
7
  6
CONTINUOUS
 10
-246.5248094379
 20
229.7007329865
 11
-246.7487884424
 21
229.6488655565
  0
LINE
  5
378
100
AcDbEntity
  8
IMPORT_IGES
100
AcDbLine
 62
7
  6
CONTINUOUS
 10
-246.300074161
 20
229.7507870613
 11
-246.5248094379
 21
229.7007329865
  0
LWPOLYLINE
  5
379
100
AcDbEntity
  8
IMPORT_IGES
100
AcDbPolyline
 62
7
  6
CONTINUOUS
 90
4
 70
0
 10
-246.6752660265
 20
229.5950375305
 10
-246.7913735935
 20
229.5705484607
 10
-246.9030100359
 20
229.546435447
 10
-247.1065768397
 20
229.50119048
  0
LWPOLYLINE
  5
37A
100
AcDbEntity
  8
IMPORT_IGES
100
AcDbPolyline
 62
7
  6
CONTINUOUS
 90
3
 70
0
 10
-246.300074161
 20
229.6706385037
 10
-246.4296092407
 20
229.6450621233
 10
-246.6752660265
 20
229.5950375305
  0
LINE
  5
37B
100
AcDbEntity
  8
IMPORT_IGES
100
AcDbLine
 62
250
  6
CONTINUOUS
 10
-320.109289866
 20
227.8493014859
 11
-249.6324553638
 21
227.8493014859
  0
LINE
  5
37C
100
AcDbEntity
  8
IMPORT_IGES
100
AcDbLine
 62
7
  6
CONTINUOUS
 10
-248.6324553638
 20
227.8493014859
 11
-249.6324553638
 21
227.8493014859
  0
LINE
  5
37D
100
AcDbEntity
  8
IMPORT_IGES
100
AcDbLine
 62
7
  6
CONTINUOUS
 10
-248.6324553638
 20
229.8493014859
 11
-247.4478764666
 21
229.8493014859
  0
LINE
  5
37E
100
AcDbEntity
  8
IMPORT_IGES
100
AcDbLine
 62
7
  6
CONTINUOUS
 10
-249.6324553638
 20
229.8493014859
 11
-320.109289866
 21
229.8493014859
  0
LINE
  5
37F
100
AcDbEntity
  8
IMPORT_IGES
100
AcDbLine
 62
7
  6
CONTINUOUS
 10
-247.7681605246
 20
229.9493014859
 11
-320.109289866
 21
229.9493014859
  0
LINE
  5
380
100
AcDbEntity
  8
IMPORT_IGES
100
AcDbLine
 62
7
  6
CONTINUOUS
 10
-248.1324553638
 20
230.9493014859
 11
-320.109289866
 21
230.9493014859
  0
LINE
  5
381
100
AcDbEntity
  8
IMPORT_IGES
100
AcDbLine
 62
7
  6
CONTINUOUS
 10
-320.109289866
 20
231.598
 11
-332.8889277838
 21
231.598
  0
LINE
  5
382
100
AcDbEntity
  8
IMPORT_IGES
100
AcDbLine
 62
7
  6
CONTINUOUS
 10
-332.109289866
 20
232.8
 11
-320.109289866
 21
232.8
  0
LWPOLYLINE
  5
383
100
AcDbEntity
  8
0
100
AcDbPolyline
 62
7
  6
CONTINUOUS
 90
7
 70
0
 43
0.3500000006
 10
-284.6851589355
 20
252.8551525269
 10
-286.1851503296
 20
252.8551525269
 10
-284.6851589355
 20
254.9980155029
 10
-284.6851589355
 20
255.4265844727
 10
-285.1137279053
 20
255.8551534424
 10
-285.7565813599
 20
255.8551534424
 10
-286.1851503296
 20
255.2122999878
  0
LWPOLYLINE
  5
384
100
AcDbEntity
  8
0
100
AcDbPolyline
 62
7
  6
CONTINUOUS
 90
7
 70
0
 43
0.3500000006
 10
-288.7565822754
 20
252.8551525269
 10
-290.2565917969
 20
252.8551525269
 10
-288.7565822754
 20
254.9980155029
 10
-288.7565822754
 20
255.4265844727
 10
-289.1851512451
 20
255.8551534424
 10
-289.8280228271
 20
255.8551534424
 10
-290.2565917969
 20
255.2122999878
  0
LWPOLYLINE
  5
385
100
AcDbEntity
  8
IMPORT_IGES
100
AcDbPolyline
 62
7
  6
CONTINUOUS
 90
40
 70
0
 10
-333.6649253396
 20
231.0966106539
 10
-333.6838165277
 20
231.0968044652
 10
-333.7025718319
 20
231.097602022
 10
-333.7211830534
 20
231.0990033334
 10
-333.7396743583
 20
231.1010162634
 10
-333.7580073401
 20
231.103632948
 10
-333.7760852932
 20
231.1068297951
 10
-333.79390566
 20
231.1106044784
 10
-333.8114651601
 20
231.1149593243
 10
-333.8286739297
 20
231.1198777201
 10
-333.845529177
 20
231.1253620174
 10
-333.8620364688
 20
231.1314098647
 10
-333.878126153
 20
231.1379975953
 10
-333.8938010042
 20
231.1451297249
 10
-333.9090685902
 20
231.1528017378
 10
-333.9238732514
 20
231.1609764201
 10
-333.9382203389
 20
231.169657987
 10
-333.9521216552
 20
231.1788422234
 10
-333.965537055
 20
231.1884792693
 10
-333.9784819994
 20
231.1985782322
 10
-333.9909632278
 20
231.2091300046
 10
-334.0029332706
 20
231.2200574049
 10
-334.0144023142
 20
231.2313639034
 10
-334.0253884864
 20
231.2430460296
 10
-334.0358615649
 20
231.2550161909
 10
-334.0458374666
 20
231.2672831002
 10
-334.0553317521
 20
231.2798380445
 10
-334.0643177818
 20
231.2925672919
 10
-334.072802555
 20
231.3054638954
 10
-334.0808127751
 20
231.3185348021
 10
-334.0883533461
 20
231.3316871208
 10
-334.0954360385
 20
231.3449182555
 10
-334.102080241
 20
231.3582308023
 10
-334.1083018512
 20
231.3715396588
 10
-334.1141121577
 20
231.3848437815
 10
-334.1195270271
 20
231.3981442139
 10
-334.1245678212
 20
231.411358984
 10
-334.1292489861
 20
231.4244607677
 10
-334.1335784454
 20
231.4374768892
 10
-334.1375664423
 20
231.4504073483
  0
LINE
  5
386
100
AcDbEntity
  8
IMPORT_IGES
100
AcDbLine
 62
7
  6
CONTINUOUS
 10
-333.7899386367
 20
231.3727107428
 11
-334.1375643165
 21
231.4504070532
  0
LINE
  5
387
100
AcDbEntity
  8
IMPORT_IGES
100
AcDbLine
 62
7
  6
CONTINUOUS
 10
-333.5790201346
 20
231.3236613223
 11
-333.7938117228
 21
231.3720662001
  0
LINE
  5
388
100
AcDbEntity
  8
IMPORT_IGES
100
AcDbLine
 62
7
  6
CONTINUOUS
 10
-333.581230733
 20
231.3227364353
 11
-333.4796007188
 21
231.2986797577
  0
LINE
  5
389
100
AcDbEntity
  8
IMPORT_IGES
100
AcDbLine
 62
7
  6
CONTINUOUS
 10
-333.2816724487
 20
231.2517984692
 11
-333.4780528234
 21
231.299706361
  0
LINE
  5
38A
100
AcDbEntity
  8
IMPORT_IGES
100
AcDbLine
 62
7
  6
CONTINUOUS
 10
-333.2850310738
 20
231.2512986124
 11
-333.2081750033
 21
231.2321746078
  0
CIRCLE
  5
38B
100
AcDbEntity
  8
IMPORT_IGES
100
AcDbCircle
 62
7
  6
CONTINUOUS
 10
166.7996252
 20
221.4493014859
 40
2.5
  0
CIRCLE
  5
38C
100
AcDbEntity
  8
IMPORT_IGES
100
AcDbCircle
 62
7
  6
CONTINUOUS
 10
166.7996252
 20
-221.4493014859
 40
2.5
  0
ARC
  5
38D
100
AcDbEntity
  8
IMPORT_IGES
100
AcDbCircle
 62
7
  6
CONTINUOUS
 10
158.3
 20
-191.5027566879
 40
2.0
100
AcDbArc
 50
0.0
 51
89.9999999996
  0
ARC
  5
38E
100
AcDbEntity
  8
IMPORT_IGES
100
AcDbCircle
 62
7
  6
CONTINUOUS
 10
158.3
 20
-207.5027566878
 40
2.0
100
AcDbArc
 50
270.0000000004
 51
359.9999999985
  0
CIRCLE
  5
38F
100
AcDbEntity
  8
IMPORT_IGES
100
AcDbCircle
 62
250
  6
CONTINUOUS
 10
-266.3664109207
 20
-34.6164241148
 40
12.8215390309
  0
CIRCLE
  5
390
100
AcDbEntity
  8
IMPORT_IGES
100
AcDbCircle
 62
250
  6
CONTINUOUS
 10
-266.3664109207
 20
-34.6164241148
 40
11.8556132046
  0
CIRCLE
  5
391
100
AcDbEntity
  8
IMPORT_IGES
100
AcDbCircle
 62
7
  6
CONTINUOUS
 10
-266.3664109207
 20
-34.6164241148
 40
11.732673012
  0
ARC
  5
392
100
AcDbEntity
  8
IMPORT_IGES
100
AcDbCircle
 62
7
  6
CONTINUOUS
 10
-332.109289866
 20
-230.6
 40
2.2
100
AcDbArc
 50
179.9999999995
 51
269.9999999997
  0
ARC
  5
393
100
AcDbEntity
  8
IMPORT_IGES
100
AcDbCircle
 62
7
  6
CONTINUOUS
 10
-332.109289866
 20
230.6
 40
2.2
100
AcDbArc
 50
90.0000000003
 51
180.0000000005
  0
ARC
  5
394
100
AcDbEntity
  8
IMPORT_IGES
100
AcDbCircle
 62
7
  6
CONTINUOUS
 10
-248.1324553638
 20
-228.9493014859
 40
2.0
100
AcDbArc
 50
270.0
 51
341.5700373055
  0
ARC
  5
395
100
AcDbEntity
  8
IMPORT_IGES
100
AcDbCircle
 62
7
  6
CONTINUOUS
 10
-248.1324553638
 20
228.9493014859
 40
2.0
100
AcDbArc
 50
18.4458244572
 51
90.0
  0
ARC
  5
396
100
AcDbEntity
  8
IMPORT_IGES
100
AcDbCircle
 62
7
  6
CONTINUOUS
 10
-243.1324553638
 20
198.8132717201
 40
1.0
100
AcDbArc
 50
320.0
 51
360.0
  0
ARC
  5
397
100
AcDbEntity
  8
IMPORT_IGES
100
AcDbCircle
 62
7
  6
CONTINUOUS
 10
-243.1324553638
 20
213.0853312516
 40
1.0
100
AcDbArc
 50
0.0
 51
40.0
  0
ARC
  5
398
100
AcDbEntity
  8
IMPORT_IGES
100
AcDbCircle
 62
7
  6
CONTINUOUS
 10
-248.1324553638
 20
-228.9493014859
 40
1.0
100
AcDbArc
 50
270.0
 51
295.8399255035
  0
ARC
  5
399
100
AcDbEntity
  8
IMPORT_IGES
100
AcDbCircle
 62
7
  6
CONTINUOUS
 10
-277.8664109207
 20
-229.9493014859
 40
1.0
100
AcDbArc
 50
174.259619314
 51
180.0
  0
ARC
  5
39A
100
AcDbEntity
  8
IMPORT_IGES
100
AcDbCircle
 62
7
  6
CONTINUOUS
 10
-254.8664109207
 20
-229.9493014859
 40
1.0
100
AcDbArc
 50
0.0
 51
5.740380686
  0
ARC
  5
39B
100
AcDbEntity
  8
IMPORT_IGES
100
AcDbCircle
 62
7
  6
CONTINUOUS
 10
-272.8664109207
 20
-229.9493014859
 40
1.0
100
AcDbArc
 50
174.259619314
 51
180.0
  0
ARC
  5
39C
100
AcDbEntity
  8
IMPORT_IGES
100
AcDbCircle
 62
7
  6
CONTINUOUS
 10
-248.1324553638
 20
228.9493014859
 40
1.0
100
AcDbArc
 50
64.1602703712
 51
90.0
  0
ARC
  5
39D
100
AcDbEntity
  8
IMPORT_IGES
100
AcDbCircle
 62
7
  6
CONTINUOUS
 10
-243.1324553638
 20
-213.0853812516
 40
1.0
100
AcDbArc
 50
320.0
 51
360.0
  0
ARC
  5
39E
100
AcDbEntity
  8
IMPORT_IGES
100
AcDbCircle
 62
7
  6
CONTINUOUS
 10
-243.1324553638
 20
-198.8133217201
 40
1.0
100
AcDbArc
 50
0.0
 51
40.0
  0
ELLIPSE
  5
39F
100
AcDbEntity
  8
IMPORT_IGES
100
AcDbEllipse
 62
7
  6
CONTINUOUS
 10
-248.1324553638
 20
228.9493014859
 30
0.0
 11
2.0
 21
-0.0
 31
0.0
 40
0.9
 41
-0.0
 42
0.4123274373
  0
ELLIPSE
  5
3A0
100
AcDbEntity
  8
IMPORT_IGES
100
AcDbEllipse
 62
7
  6
CONTINUOUS
 10
-248.1324553638
 20
-228.9493014859
 30
0.0
 11
2.0
 21
-0.0
 31
0.0
 40
0.9
 41
-0.4123274373
 42
0.0
  0
ENDSEC
  0
SECTION
  2
OBJECTS
  0
DICTIONARY
  5
C
100
AcDbDictionary
280
0
281
1
  3
ACAD_GROUP
350
D
  3
ACAD_MLINESTYLE
350
17
  3
ACAD_LAYOUT
350
1A
  3
ACAD_PLOTSETTINGS
350
19
  3
ACAD_PLOTSTYLENAME
350
E
  0
DICTIONARY
  5
D
102
{ACAD_REACTORS
330
C
102
}
100
AcDbDictionary
280
0
281
1
  0
ACDBDICTIONARYWDFLT
  5
E
102
{ACAD_REACTORS
330
C
102
}
100
AcDbDictionary
281
1
  3
Normal
350
F
100
AcDbDictionaryWithDefault
340
F
  0
DICTIONARY
  5
17
102
{ACAD_REACTORS
330
C
102
}
100
AcDbDictionary
280
0
281
1
  3
Standard
350
18
  0
DICTIONARY
  5
19
102
{ACAD_REACTORS
330
C
102
}
100
AcDbDictionary
281
1
  0
DICTIONARY
  5
1A
102
{ACAD_REACTORS
330
C
102
}
100
AcDbDictionary
281
1
  3
Model
350
3A1
  3
Layout1
350
3A2
  0
ACDBPLACEHOLDER
  5
F
102
{ACAD_REACTORS
330
E
102
}
  0
MLINESTYLE
  5
18
102
{ACAD_REACTORS
330
17
102
}
100
AcDbMlineStyle
  2
STANDARD
 70
0
  3

 62
256
 51
90.0
 52
90.0
 71
2
 49
0.5
 62
256
  6
BYLAYER
 49
-0.5
 62
256
  6
BYLAYER
  0
LAYOUT
  5
3A1
102
{ACAD_REACTORS
330
1A
102
}
100
AcDbPlotSettings
  1

  2
none_device
  4
ISO_A4_(297.00_x_210.00_MM)
  6

 40
0.0
 41
0.0
 42
0.0
 43
0.0
 44
297.0
 45
210.0
 46
0.0
 47
0.0
 48
0.0
 49
0.0
140
0.0
141
0.0
142
1.0
143
1.0
 70
1024
 72
1
 73
0
 74
0
  7

 75
0
147
1.0
148
0.0
149
0.0
100
AcDbLayout
  1
Model
 70
0
 71
0
 10
0.0
 20
0.0
 11
297.0
 21
210.0
 12
0.0
 22
0.0
 32
0.0
 14
0.0
 24
0.0
 34
0.0
 15
0.0
 25
0.0
 35
0.0
146
0.0
 13
0.0
 23
0.0
 33
0.0
 16
1.0
 26
0.0
 36
0.0
 17
0.0
 27
1.0
 37
0.0
 76
0
330
255
345
0
346
0
  0
LAYOUT
  5
3A2
102
{ACAD_REACTORS
330
1A
102
}
100
AcDbPlotSettings
  1

  2
none_device
  4
ISO_A4_(297.00_x_210.00_MM)
  6

 40
0.0
 41
0.0
 42
0.0
 43
0.0
 44
297.0
 45
210.0
 46
0.0
 47
0.0
 48
0.0
 49
0.0
140
0.0
141
0.0
142
1.0
143
1.0
 70
0
 72
1
 73
0
 74
0
  7

 75
0
147
1.0
148
0.0
149
0.0
100
AcDbLayout
  1
Layout1
 70
0
 71
1
 10
0.0
 20
0.0
 11
297.0
 21
210.0
 12
0.0
 22
0.0
 32
0.0
 14
0.0
 24
0.0
 34
0.0
 15
0.0
 25
0.0
 35
0.0
146
0.0
 13
0.0
 23
0.0
 33
0.0
 16
1.0
 26
0.0
 36
0.0
 17
0.0
 27
1.0
 37
0.0
 76
0
330
256
345
0
346
0
  0
ENDSEC
  0
EOF
