  0
SECTION
  2
HEADER
  9
$ACADVER
  1
AC1024
  9
$DWGCODEPAGE
  3
ANSI_1252
  9
$EXTMAX
 10
420.0
 20
297.0
 30
0.0
  9
$EXTMIN
 10
0.0
 20
-0.0
 30
0.0
  9
$LIMMIN
 10
0.0
 20
-0.0
  9
$LIMMAX
 10
420.0
 20
297.0
  9
$VIEWCTR
 10
210.0
 20
148.5
  9
$VIEWSIZE
 40
297.0
  9
$CLAYER
  8
0
  9
$LTSCALE
 40
23.1
  9
$CELTYPE
  6
BYLAYER
  9
$DIMSCALE
 40
1.0
  9
$DIMASZ
 40
3.0
  9
$DIMEXO
 40
0.5
  9
$DIMDLI
 40
15.96
  9
$DIMEXE
 40
1.5
  9
$DIMCEN
 40
3.78
  9
$DIMLFAC
 40
1.0
  9
$DIMBLK
  1
_FILLED
  9
$DIMALT
 70
0
  9
$DIMALTF
 40
0.0393700787
  9
$DIMTXT
 40
3.0
  9
$DIMTOL
 70
1
  9
$DIMLIM
 70
0
  9
$DIMTFAC
 40
1.0
  9
$DIMTP
 40
0.01
  9
$DIMTM
 40
0.01
  9
$DIMGAP
 40
0.625
  9
$DIMDSEP
 70
44
  9
$AUNITS
 70
0
  9
$PDMODE
 70
3
  9
$PDSIZE
 40
3.0
  9
$HANDSEED
  5
37C
  9
$TILEMODE
 70
1
  9
$MEASUREMENT
 70
1
  9
$INSUNITS
 70
4
  0
ENDSEC
  0
SECTION
  2
CLASSES
  0
CLASS
  1
ACDBDICTIONARYWDFLT
  2
AcDbDictionaryWithDefault
  3
AutoCAD 2000
 90
0
 91
1
280
0
281
0
  0
CLASS
  1
ACDBPLACEHOLDER
  2
AcDbPlaceHolder
  3
AutoCAD 2000
 90
0
 91
1
280
0
281
0
  0
CLASS
  1
LAYOUT
  2
AcDbLayout
  3
AutoCAD 2000
 90
0
 91
0
280
0
281
0
  0
ENDSEC
  0
SECTION
  2
TABLES
  0
TABLE
  2
VPORT
  5
8
100
AcDbSymbolTable
 70
2
  0
VPORT
  5
1F4
100
AcDbSymbolTableRecord
100
AcDbViewportTableRecord
  2
*ACTIVE
 70
0
 10
0.0
 20
0.0
 11
1.0
 21
1.0
 12
210.0
 22
148.5
 13
0.0
 23
0.0
 14
1.0
 24
1.0
 15
0.0
 25
0.0
 16
0.0
 26
0.0
 36
1.0
 17
0.0
 27
0.0
 37
0.0
 40
297.0
 41
1.4141414141
 42
50.0
 43
0.0
 44
0.0
 50
0.0
 51
0.0
 71
0
 72
100
 73
1
 74
1
 75
0
 76
0
 77
0
 78
0
  0
ENDTAB
  0
TABLE
  2
LTYPE
  5
5
100
AcDbSymbolTable
 70
6
  0
LTYPE
  5
14
100
AcDbSymbolTableRecord
100
AcDbLinetypeTableRecord
  2
BYBLOCK
 70
0
  3

 72
65
 73
0
 40
0.0
  0
LTYPE
  5
15
100
AcDbSymbolTableRecord
100
AcDbLinetypeTableRecord
  2
BYLAYER
 70
0
  3

 72
65
 73
0
 40
0.0
  0
LTYPE
  5
16
100
AcDbSymbolTableRecord
100
AcDbLinetypeTableRecord
  2
CONTINUOUS
 70
64
  3
Solid line
 72
65
 73
0
 40
0.0
  0
LTYPE
  5
1F5
100
AcDbSymbolTableRecord
100
AcDbLinetypeTableRecord
  2
CENTER
 70
64
  3
____ _ ____ _ ____ _ ____ _ ____ _ ____ _ ____
 72
65
 73
4
 40
0.6
 49
0.375
 74
0
 49
-0.075
 74
0
 49
0.075
 74
0
 49
-0.075
 74
0
  0
LTYPE
  5
1F6
100
AcDbSymbolTableRecord
100
AcDbLinetypeTableRecord
  2
HIDDEN
 70
64
  3
- - - - - - - - - - - - - - - - - - - -
 72
65
 73
2
 40
0.2
 49
0.1
 74
0
 49
-0.1
 74
0
  0
LTYPE
  5
1F7
100
AcDbSymbolTableRecord
100
AcDbLinetypeTableRecord
  2
PHANTOM
 70
64
  3
_____ _ _ _____ _ _ _____ _ _ _____
 72
65
 73
6
 40
0.8
 49
0.45
 74
0
 49
-0.05
 74
0
 49
0.1
 74
0
 49
-0.05
 74
0
 49
0.1
 74
0
 49
-0.05
 74
0
  0
LTYPE
  5
1F8
100
AcDbSymbolTableRecord
100
AcDbLinetypeTableRecord
  2
DOT
 70
64
  3
. . . . . . . . . . . . . . . . . . . .
 72
65
 73
2
 40
0.2
 49
0.1
 74
0
 49
-0.1
 74
0
  0
LTYPE
  5
1F9
100
AcDbSymbolTableRecord
100
AcDbLinetypeTableRecord
  2
DASHED
 70
64
  3
- - - - - - - - - - - - - - - - - - - -
 72
65
 73
2
 40
0.2
 49
0.1
 74
0
 49
-0.1
 74
0
  0
ENDTAB
  0
TABLE
  2
LAYER
  5
2
100
AcDbSymbolTable
 70
36
  0
LAYER
  5
10
100
AcDbSymbolTableRecord
100
AcDbLayerTableRecord
  2
0
 70
0
 62
7
  6
CONTINUOUS
370
-3
390
F
  0
LAYER
  5
1FA
100
AcDbSymbolTableRecord
100
AcDbLayerTableRecord
  2
DEFAULT_1
 70
0
 62
7
  6
CENTER
370
-3
390
F
  0
LAYER
  5
1FB
100
AcDbSymbolTableRecord
100
AcDbLayerTableRecord
  2
DEFAULT_2
 70
0
 62
7
  6
HIDDEN
370
-3
390
F
  0
LAYER
  5
1FC
100
AcDbSymbolTableRecord
100
AcDbLayerTableRecord
  2
DEFAULT_3
 70
0
 62
7
  6
PHANTOM
370
-3
390
F
  0
LAYER
  5
1FD
100
AcDbSymbolTableRecord
100
AcDbLayerTableRecord
  2
03822_IN248_IB200
 70
0
 62
7
  6
CONTINUOUS
370
-3
390
F
  0
LAYER
  5
1FE
100
AcDbSymbolTableRecord
100
AcDbLayerTableRecord
  2
ASSI
 70
0
 62
7
  6
CONTINUOUS
370
-3
390
F
  0
LAYER
  5
1FF
100
AcDbSymbolTableRecord
100
AcDbLayerTableRecord
  2
BOARD
 70
0
 62
7
  6
CONTINUOUS
370
-3
390
F
  0
LAYER
  5
200
100
AcDbSymbolTableRecord
100
AcDbLayerTableRecord
  2
COLOR88
 70
0
 62
7
  6
CONTINUOUS
370
-3
390
F
  0
LAYER
  5
201
100
AcDbSymbolTableRecord
100
AcDbLayerTableRecord
  2
COORDINATE
 70
0
 62
7
  6
CONTINUOUS
370
-3
390
F
  0
LAYER
  5
202
100
AcDbSymbolTableRecord
100
AcDbLayerTableRecord
  2
COPY_PUBLISH
 70
0
 62
7
  6
CONTINUOUS
370
-3
390
F
  0
LAYER
  5
203
100
AcDbSymbolTableRecord
100
AcDbLayerTableRecord
  2
COSMETICI
 70
0
 62
7
  6
CONTINUOUS
370
-3
390
F
  0
LAYER
  5
204
100
AcDbSymbolTableRecord
100
AcDbLayerTableRecord
  2
CURVE
 70
0
 62
7
  6
CONTINUOUS
370
-3
390
F
  0
LAYER
  5
205
100
AcDbSymbolTableRecord
100
AcDbLayerTableRecord
  2
DRAFT
 70
0
 62
7
  6
CONTINUOUS
370
-3
390
F
  0
LAYER
  5
206
100
AcDbSymbolTableRecord
100
AcDbLayerTableRecord
  2
GUSCIO-INF_IB200P
 70
0
 62
7
  6
CONTINUOUS
370
-3
390
F
  0
LAYER
  5
207
100
AcDbSymbolTableRecord
100
AcDbLayerTableRecord
  2
GUSCIO-SUP_IB200P
 70
0
 62
7
  6
CONTINUOUS
370
-3
390
F
  0
LAYER
  5
208
100
AcDbSymbolTableRecord
100
AcDbLayerTableRecord
  2
IMPORT_IGES
 70
0
 62
7
  6
CONTINUOUS
370
-3
390
F
  0
LAYER
  5
209
100
AcDbSymbolTableRecord
100
AcDbLayerTableRecord
  2
IN248-R1_0_VIMAR_2
 70
0
 62
7
  6
CONTINUOUS
370
-3
390
F
  0
LAYER
  5
20A
100
AcDbSymbolTableRecord
100
AcDbLayerTableRecord
  2
INTF_YELLOW
 70
0
 62
7
  6
CONTINUOUS
370
-3
390
F
  0
LAYER
  5
20B
100
AcDbSymbolTableRecord
100
AcDbLayerTableRecord
  2
NOTE
 70
0
 62
7
  6
CONTINUOUS
370
-3
390
F
  0
LAYER
  5
20C
100
AcDbSymbolTableRecord
100
AcDbLayerTableRecord
  2
PIANI
 70
0
 62
7
  6
CONTINUOUS
370
-3
390
F
  0
LAYER
  5
20D
100
AcDbSymbolTableRecord
100
AcDbLayerTableRecord
  2
PUNTI
 70
0
 62
7
  6
CONTINUOUS
370
-3
390
F
  0
LAYER
  5
20E
100
AcDbSymbolTableRecord
100
AcDbLayerTableRecord
  2
RACCORDO
 70
0
 62
7
  6
CONTINUOUS
370
-3
390
F
  0
LAYER
  5
20F
100
AcDbSymbolTableRecord
100
AcDbLayerTableRecord
  2
SIMBOLI
 70
0
 62
7
  6
CONTINUOUS
370
-3
390
F
  0
LAYER
  5
210
100
AcDbSymbolTableRecord
100
AcDbLayerTableRecord
  2
SMUSSO
 70
0
 62
7
  6
CONTINUOUS
370
-3
390
F
  0
LAYER
  5
211
100
AcDbSymbolTableRecord
100
AcDbLayerTableRecord
  2
SUPERFICI
 70
0
 62
7
  6
CONTINUOUS
370
-3
390
F
  0
LAYER
  5
212
100
AcDbSymbolTableRecord
100
AcDbLayerTableRecord
  2
TOP_SILK
 70
0
 62
7
  6
CONTINUOUS
370
-3
390
F
  0
LAYER
  5
213
100
AcDbSymbolTableRecord
100
AcDbLayerTableRecord
  2
TRASH
 70
0
 62
7
  6
CONTINUOUS
370
-3
390
F
  0
LAYER
  5
214
100
AcDbSymbolTableRecord
100
AcDbLayerTableRecord
  2
WHITE
 70
0
 62
7
  6
CONTINUOUS
370
-3
390
F
  0
LAYER
  5
215
100
AcDbSymbolTableRecord
100
AcDbLayerTableRecord
  2
___SHELL
 70
0
 62
7
  6
CONTINUOUS
370
-3
390
F
  0
ENDTAB
  0
TABLE
  2
STYLE
  5
3
100
AcDbSymbolTable
 70
1
  0
STYLE
  5
11
100
AcDbSymbolTableRecord
100
AcDbTextStyleTableRecord
  2
STANDARD
 70
0
 40
0.0
 41
0.8
 50
0.0
 71
0
 42
0.2
  3
txt
  4

  0
STYLE
  5
216
100
AcDbSymbolTableRecord
100
AcDbTextStyleTableRecord
  2
TEXTSTYLE_1
 70
0
 40
0.0
 41
0.8
 50
0.0
 71
0
 42
0.2
  3
gdt
  4

  0
ENDTAB
  0
TABLE
  2
VIEW
  5
6
100
AcDbSymbolTable
 70
0
  0
ENDTAB
  0
TABLE
  2
UCS
  5
7
100
AcDbSymbolTable
 70
0
  0
ENDTAB
  0
TABLE
  2
APPID
  5
9
100
AcDbSymbolTable
 70
1
  0
APPID
  5
217
100
AcDbSymbolTableRecord
100
AcDbRegAppTableRecord
  2
ACAD
 70
0
  0
ENDTAB
  0
TABLE
  2
BLOCK_RECORD
  5
1
100
AcDbSymbolTable
 70
0
  0
BLOCK_RECORD
  5
218
100
AcDbSymbolTableRecord
100
AcDbBlockTableRecord
  2
*Model_Space
  0
BLOCK_RECORD
  5
219
100
AcDbSymbolTableRecord
100
AcDbBlockTableRecord
  2
*Paper_Space
  0
BLOCK_RECORD
  5
21A
100
AcDbSymbolTableRecord
100
AcDbBlockTableRecord
  2
_FILLED
  0
BLOCK_RECORD
  5
21B
100
AcDbSymbolTableRecord
100
AcDbBlockTableRecord
  2
*D0
  0
BLOCK_RECORD
  5
21C
100
AcDbSymbolTableRecord
100
AcDbBlockTableRecord
  2
*D1
  0
BLOCK_RECORD
  5
21D
100
AcDbSymbolTableRecord
100
AcDbBlockTableRecord
  2
*D2
  0
ENDTAB
  0
TABLE
  2
DIMSTYLE
  5
A
100
AcDbSymbolTable
 70
1
100
AcDbDimStyleTable
 71
0
  0
DIMSTYLE
105
21E
100
AcDbSymbolTableRecord
100
AcDbDimStyleTableRecord
  2
STANDARD
 70
0
  3

  4

 40
1.0
 41
3.0
 42
0.5
 43
0.38
 44
1.5
 45
0.0
 46
0.0
 47
0.01
 48
0.01
140
3.0
141
0.09
142
0.0
143
25.4
144
1.0
145
0.0
146
1.0
147
0.625
 71
1
 72
0
 73
0
 74
0
 75
0
 76
0
 77
1
 78
8
 79
2
170
0
171
1
172
0
173
0
174
0
175
0
176
0
177
0
178
0
270
2
179
2
271
2
272
2
273
2
274
2
275
0
280
0
281
0
282
0
283
1
284
8
285
0
286
0
287
3
288
0
340
11
278
44
341
21A
342
21A
343
21A
344
21A
  0
DIMSTYLE
105
21F
100
AcDbSymbolTableRecord
100
AcDbDimStyleTableRecord
  2
DIMSTYLE_1
 70
0
  3

  4

 40
1.0
 41
3.0
 42
0.5
 43
0.38
 44
1.5
 45
0.0
 46
0.0
 47
0.0
 48
0.0
140
3.0
141
0.09
142
0.0
143
25.4
144
1.0
145
0.0
146
1.0
147
0.75
 71
0
 72
0
 73
0
 74
0
 75
0
 76
0
 77
1
 78
8
 79
2
170
0
171
1
172
0
173
0
174
0
175
0
176
0
177
0
178
0
270
2
179
2
271
0
272
0
273
2
274
2
275
0
280
0
281
0
282
0
283
1
284
8
285
0
286
0
287
3
288
0
340
11
278
44
341
21A
342
21A
343
21A
344
21A
  0
DIMSTYLE
105
220
100
AcDbSymbolTableRecord
100
AcDbDimStyleTableRecord
  2
DIMSTYLE_2
 70
0
  3

  4

 40
1.0
 41
3.0
 42
0.5
 43
0.38
 44
1.5
 45
0.0
 46
0.0
 47
0.0
 48
0.0
140
3.0
141
0.09
142
0.0
143
25.4
144
1.0
145
0.0
146
1.0
147
0.75
 71
0
 72
0
 73
0
 74
0
 75
0
 76
0
 77
1
 78
8
 79
2
170
0
171
1
172
0
173
0
174
0
175
0
176
0
177
0
178
0
270
2
179
2
271
2
272
2
273
2
274
2
275
0
280
0
281
0
282
0
283
1
284
8
285
0
286
0
287
3
288
0
340
11
278
44
341
21A
342
21A
343
21A
344
21A
  0
ENDTAB
  0
ENDSEC
  0
SECTION
  2
BLOCKS
  0
BLOCK
  5
20
100
AcDbEntity
  8
0
100
AcDbBlockBegin
  2
*Model_Space
 70
0
 10
0.0
 20
0.0
 30
0.0
  3
*Model_Space
  1

  0
ENDBLK
  5
21
100
AcDbEntity
  8
0
100
AcDbBlockEnd
  0
BLOCK
  5
1C
100
AcDbEntity
  8
0
100
AcDbBlockBegin
  2
*Paper_Space
 70
0
 10
0.0
 20
0.0
 30
0.0
  3
*Paper_Space
  1

  0
ENDBLK
  5
1D
100
AcDbEntity
  8
0
100
AcDbBlockEnd
  0
BLOCK
  5
221
100
AcDbEntity
  8
0
100
AcDbBlockBegin
  2
_FILLED
 70
64
 10
0.0
 20
0.0
  3
_FILLED
  1

  0
SOLID
  5
222
100
AcDbEntity
  8
0
  6
BYBLOCK
 62
0
100
AcDbTrace
 10
0.0
 20
0.0
 11
-1.0
 21
0.3166666667
 12
-1.0
 22
-0.3166666667
 13
-1.0
 23
-0.3166666667
  0
ENDBLK
  5
223
100
AcDbEntity
  8
0
  6
BYBLOCK
 62
0
100
AcDbBlockEnd
  0
BLOCK
  5
224
100
AcDbEntity
  8
0
100
AcDbBlockBegin
 62
7
  6
CONTINUOUS
  2
*D0
 70
65
 10
0.0
 20
0.0
  3
*D0
  1

  0
LINE
  5
225
100
AcDbEntity
  8
0
100
AcDbLine
 62
7
  6
CONTINUOUS
 10
-63.0349101299
 20
29.5349101299
 11
-63.0349101299
 21
53.6028154622
  0
LINE
  5
226
100
AcDbEntity
  8
0
100
AcDbLine
 62
7
  6
CONTINUOUS
 10
63.0349101299
 20
29.5349101299
 11
63.0349101299
 21
53.6028154622
  0
LINE
  5
227
100
AcDbEntity
  8
0
100
AcDbLine
 62
7
  6
CONTINUOUS
 10
-63.0349101299
 20
52.1028154622
 11
0.0
 21
52.1028154622
  0
LINE
  5
228
100
AcDbEntity
  8
0
100
AcDbLine
 62
7
  6
CONTINUOUS
 10
63.0349101299
 20
52.1028154622
 11
0.0
 21
52.1028154622
  0
INSERT
  5
229
100
AcDbEntity
  8
0
100
AcDbBlockReference
 62
7
  6
CONTINUOUS
  2
_FILLED
 10
-63.0349101299
 20
52.1028154622
 41
3.0
 42
3.0
 43
3.0
 50
180.0
  0
INSERT
  5
22A
100
AcDbEntity
  8
0
100
AcDbBlockReference
 62
7
  6
CONTINUOUS
  2
_FILLED
 10
63.0349101299
 20
52.1028154622
 41
3.0
 42
3.0
 43
3.0
  0
ENDBLK
  5
22B
100
AcDbEntity
  8
0
  6
BYBLOCK
 62
0
100
AcDbBlockEnd
  0
BLOCK
  5
22C
100
AcDbEntity
  8
0
100
AcDbBlockBegin
 62
7
  6
CONTINUOUS
  2
*D1
 70
65
 10
0.0
 20
0.0
  3
*D1
  1

  0
LINE
  5
22D
100
AcDbEntity
  8
0
100
AcDbLine
 62
7
  6
CONTINUOUS
 10
61.5351353243
 20
40.0349101299
 11
78.1005934036
 21
40.0349101299
  0
LINE
  5
22E
100
AcDbEntity
  8
0
100
AcDbLine
 62
7
  6
CONTINUOUS
 10
61.5351353166
 20
-40.0349076408
 11
78.1005934036
 21
-40.0349076408
  0
LINE
  5
22F
100
AcDbEntity
  8
0
100
AcDbLine
 62
7
  6
CONTINUOUS
 10
76.6005934036
 20
40.0349101299
 11
76.6005934036
 21
0.0000012445
  0
LINE
  5
230
100
AcDbEntity
  8
0
100
AcDbLine
 62
7
  6
CONTINUOUS
 10
76.6005934036
 20
-40.0349076408
 11
76.6005934036
 21
0.0000012445
  0
INSERT
  5
231
100
AcDbEntity
  8
0
100
AcDbBlockReference
 62
7
  6
CONTINUOUS
  2
_FILLED
 10
76.6005934036
 20
40.0349101299
 41
3.0
 42
3.0
 43
3.0
 50
90.0
  0
INSERT
  5
232
100
AcDbEntity
  8
0
100
AcDbBlockReference
 62
7
  6
CONTINUOUS
  2
_FILLED
 10
76.6005934036
 20
-40.0349076408
 41
3.0
 42
3.0
 43
3.0
 50
270.0
  0
ENDBLK
  5
233
100
AcDbEntity
  8
0
  6
BYBLOCK
 62
0
100
AcDbBlockEnd
  0
BLOCK
  5
234
100
AcDbEntity
  8
0
100
AcDbBlockBegin
 62
7
  6
CONTINUOUS
  2
*D2
 70
65
 10
0.0
 20
0.0
  3
*D2
  1

  0
LINE
  5
235
100
AcDbEntity
  8
0
100
AcDbLine
 62
7
  6
CONTINUOUS
 10
-89.3247180898
 20
34.0
 11
-89.3247180898
 21
54.3105889031
  0
LINE
  5
236
100
AcDbEntity
  8
0
100
AcDbLine
 62
7
  6
CONTINUOUS
 10
-116.3247180897
 20
29.2207189521
 11
-116.3247180897
 21
54.3105889031
  0
LINE
  5
237
100
AcDbEntity
  8
0
100
AcDbLine
 62
7
  6
CONTINUOUS
 10
-89.3247180898
 20
52.8105889031
 11
-102.8247180898
 21
52.8105889031
  0
LINE
  5
238
100
AcDbEntity
  8
0
100
AcDbLine
 62
7
  6
CONTINUOUS
 10
-116.3247180897
 20
52.8105889031
 11
-102.8247180898
 21
52.8105889031
  0
INSERT
  5
239
100
AcDbEntity
  8
0
100
AcDbBlockReference
 62
7
  6
CONTINUOUS
  2
_FILLED
 10
-89.3247180898
 20
52.8105889031
 41
3.0
 42
3.0
 43
3.0
  0
INSERT
  5
23A
100
AcDbEntity
  8
0
100
AcDbBlockReference
 62
7
  6
CONTINUOUS
  2
_FILLED
 10
-116.3247180897
 20
52.8105889031
 41
3.0
 42
3.0
 43
3.0
 50
180.0
  0
ENDBLK
  5
23B
100
AcDbEntity
  8
0
  6
BYBLOCK
 62
0
100
AcDbBlockEnd
  0
ENDSEC
  0
SECTION
  2
ENTITIES
  0
DIMENSION
  5
23C
100
AcDbEntity
  8
0
100
AcDbDimension
 62
7
  6
CONTINUOUS
  2
*D0
 10
63.0349101299
 20
52.1028154622
 11
-3.2142857143
 21
52.1028154622
 70
160
 71
2
 72
2
 41
0.9
 42
126.0698202597
  3
DIMSTYLE_1
100
AcDbAlignedDimension
 13
-63.0349101299
 23
29.0349101299
 14
63.0349101299
 24
29.0349101299
100
AcDbRotatedDimension
  0
DIMENSION
  5
23D
100
AcDbEntity
  8
0
100
AcDbDimension
 62
7
  6
CONTINUOUS
  2
*D1
 10
76.6005934036
 20
-40.0349076408
 11
76.6005934036
 21
-2.3571416126
 70
160
 71
2
 72
2
 41
0.9
 42
80.0698177706
  3
DIMSTYLE_1
100
AcDbAlignedDimension
 13
61.0351353243
 23
40.0349101299
 14
61.0351353166
 24
-40.0349076408
 50
270.0
100
AcDbRotatedDimension
  0
DIMENSION
  5
23E
100
AcDbEntity
  8
0
100
AcDbDimension
 62
7
  6
CONTINUOUS
  2
*D2
 10
-116.3247180897
 20
52.8105889031
 11
-105.1818609469
 21
52.8105889031
 70
160
 71
2
 72
2
 41
0.9
 42
27.0
  3
DIMSTYLE_2
100
AcDbAlignedDimension
 13
-89.3247180898
 23
33.5
 14
-116.3247180897
 24
28.7207189521
 50
180.0
100
AcDbRotatedDimension
  0
LWPOLYLINE
  5
23F
100
AcDbEntity
  8
IMPORT_IGES
100
AcDbPolyline
 62
7
  6
CONTINUOUS
 90
28
 70
0
 10
-62.5349076408
 20
-38.5351385465
 10
-62.532289781
 20
-38.6229271831
 10
-62.5246838327
 20
-38.7098160303
 10
-62.5120897958
 20
-38.7958050881
 10
-62.4944292772
 20
-38.8811761529
 10
-62.47178067
 20
-38.9656474283
 10
-62.4443791544
 20
-39.0483735256
 10
-62.4121781765
 20
-39.129336556
 10
-62.3752242902
 20
-39.2085544084
 10
-62.3338923376
 20
-39.2852353599
 10
-62.2881389488
 20
-39.3593544557
 10
-62.2380074937
 20
-39.4309366507
 10
-62.184002924
 20
-39.499265087
 10
-62.1260870623
 20
-39.5643072916
 10
-62.0642980861
 20
-39.6260957375
 10
-61.9992554794
 20
-39.6840109864
 10
-61.9309267748
 20
-39.7380148565
 10
-61.8593444397
 20
-39.7881455295
 10
-61.7852253607
 20
-39.8338981121
 10
-61.7085445895
 20
-39.8752292318
 10
-61.6293270744
 20
-39.9121822611
 10
-61.5483645468
 20
-39.9443824238
 10
-61.4656391249
 20
-39.9717830733
 10
-61.3811686905
 20
-39.9944308563
 10
-61.2957986204
 20
-40.012090937
 10
-61.2098107068
 20
-40.0246850369
 10
-61.1229231575
 20
-40.0322914345
 10
-61.0351359725
 20
-40.0349101299
  0
LINE
  5
240
100
AcDbEntity
  8
IMPORT_IGES
100
AcDbLine
 62
7
  6
CONTINUOUS
 10
-63.0349101299
 20
29.0349101299
 11
-63.0349101299
 21
-29.0349101299
  0
LINE
  5
241
100
AcDbEntity
  8
IMPORT_IGES
100
AcDbLine
 62
7
  6
CONTINUOUS
 10
-62.9476348052
 20
-28.9476348052
 11
-62.9476348052
 21
28.9476348053
  0
LINE
  5
242
100
AcDbEntity
  8
IMPORT_IGES
100
AcDbLine
 62
250
  6
CONTINUOUS
 10
-62.7464448822
 20
-28.7464448822
 11
-62.7464448822
 21
28.7464448822
  0
LINE
  5
243
100
AcDbEntity
  8
IMPORT_IGES
100
AcDbLine
 62
7
  6
CONTINUOUS
 10
-62.5349101299
 20
38.5351385732
 11
-62.5349101299
 21
29.0349101299
  0
LINE
  5
244
100
AcDbEntity
  8
IMPORT_IGES
100
AcDbLine
 62
7
  6
CONTINUOUS
 10
-62.5349101299
 20
-29.0349101299
 11
-62.5349101299
 21
-38.5351385736
  0
LINE
  5
245
100
AcDbEntity
  8
IMPORT_IGES
100
AcDbLine
 62
7
  6
CONTINUOUS
 10
-62.447631699
 20
38.4478632219
 11
-62.4476348052
 21
28.9476348053
  0
LINE
  5
246
100
AcDbEntity
  8
IMPORT_IGES
100
AcDbLine
 62
7
  6
CONTINUOUS
 10
-62.4476348031
 20
-38.4478561167
 11
-62.4476348042
 21
-28.9476348053
  0
LINE
  5
247
100
AcDbEntity
  8
IMPORT_IGES
100
AcDbLine
 62
250
  6
CONTINUOUS
 10
-62.2551722782
 20
-28.7551722782
 11
-62.2551722099
 21
-38.255400633
  0
LINE
  5
248
100
AcDbEntity
  8
IMPORT_IGES
100
AcDbLine
 62
250
  6
CONTINUOUS
 10
-62.2551722782
 20
28.7551722781
 11
-62.255172227
 21
38.2554006416
  0
LINE
  5
249
100
AcDbEntity
  8
IMPORT_IGES
100
AcDbLine
 62
250
  6
CONTINUOUS
 10
-61.2466815909
 20
-28.7207189521
 11
-61.2466843742
 21
28.7207189482
  0
LINE
  5
24A
100
AcDbEntity
  8
IMPORT_IGES
100
AcDbLine
 62
7
  6
CONTINUOUS
 10
-60.755400599
 20
39.7551721417
 11
-60.755400599
 21
38.2554005989
  0
LINE
  5
24B
100
AcDbEntity
  8
IMPORT_IGES
100
AcDbLine
 62
250
  6
CONTINUOUS
 10
-60.7554055109
 20
-28.7294464791
 11
-60.7554005941
 21
-30.0139867035
  0
LINE
  5
24C
100
AcDbEntity
  8
IMPORT_IGES
100
AcDbLine
 62
250
  6
CONTINUOUS
 10
-60.7554007791
 20
-31.9860132965
 11
-60.7554005941
 21
-32.5139867035
  0
LINE
  5
24D
100
AcDbEntity
  8
IMPORT_IGES
100
AcDbLine
 62
250
  6
CONTINUOUS
 10
-60.7554007791
 20
-34.4860132965
 11
-60.7554005941
 21
-35.0139867035
  0
LINE
  5
24E
100
AcDbEntity
  8
IMPORT_IGES
100
AcDbLine
 62
250
  6
CONTINUOUS
 10
-60.7554007791
 20
-36.9860132965
 11
-60.755400599
 21
-39.7551721417
  0
LINE
  5
24F
100
AcDbEntity
  8
IMPORT_IGES
100
AcDbLine
 62
250
  6
CONTINUOUS
 10
-60.7554029187
 20
28.7294464936
 11
-60.755400778
 21
30.0139867035
  0
LINE
  5
250
100
AcDbEntity
  8
IMPORT_IGES
100
AcDbLine
 62
250
  6
CONTINUOUS
 10
-60.755400594
 20
36.9860132965
 11
-60.7554005971
 21
38.2554005838
  0
LINE
  5
251
100
AcDbEntity
  8
IMPORT_IGES
100
AcDbLine
 62
250
  6
CONTINUOUS
 10
-60.755400594
 20
31.9860132965
 11
-60.755400778
 21
32.5139867035
  0
LINE
  5
252
100
AcDbEntity
  8
IMPORT_IGES
100
AcDbLine
 62
250
  6
CONTINUOUS
 10
-60.755400778
 20
35.0139867035
 11
-60.755400594
 21
34.4860132965
  0
LWPOLYLINE
  5
253
100
AcDbEntity
  8
IMPORT_IGES
100
AcDbPolyline
 62
250
  6
CONTINUOUS
 90
28
 70
0
 10
-62.255172227
 20
38.2554006561
 10
-62.2526092369
 20
38.3425877897
 10
-62.2449821286
 20
38.4294800343
 10
-62.2323166995
 20
38.5157834872
 10
-62.2146557915
 20
38.6012062409
 10
-62.1920591373
 20
38.6854593596
 10
-62.1646031582
 20
38.7682578561
 10
-62.1323807181
 20
38.8493216708
 10
-62.0955008084
 20
38.9283766188
 10
-62.0540881705
 20
39.0051553068
 10
-62.0082828774
 20
39.0793980406
 10
-61.9582398601
 20
39.1508537024
 10
-61.9041283836
 20
39.2192806013
 10
-61.846131474
 20
39.2844472912
 10
-61.7844452986
 20
39.346133354
 10
-61.7192785034
 20
39.4041301441
 10
-61.650851507
 20
39.4582414947
 10
-61.5793957558
 20
39.5082843804
 10
-61.5051529406
 20
39.554089537
 10
-61.4283741763
 20
39.5955020355
 10
-61.3493191603
 20
39.6323818015
 10
-61.2682552949
 20
39.6646040909
 10
-61.1854567531
 20
39.6920599221
 10
-61.1012036071
 20
39.7146564237
 10
-61.0157808928
 20
39.732317157
 10
-60.9294775639
 20
39.7449823962
 10
-60.8425855123
 20
39.7526093196
 10
-60.7553986393
 20
39.7551721421
  0
LWPOLYLINE
  5
254
100
AcDbEntity
  8
0
100
AcDbPolyline
 62
7
  6
CONTINUOUS
 90
3
 70
0
 43
0.3499999917
 10
-3.2142857838
 20
54.9956735229
 10
-2.3571429348
 20
55.8528167725
 10
-2.3571429348
 20
52.8528186035
  0
LWPOLYLINE
  5
255
100
AcDbEntity
  8
IMPORT_IGES
100
AcDbPolyline
 62
7
  6
CONTINUOUS
 90
28
 70
0
 10
61.0351353166
 20
-40.0349076408
 10
61.1229239837
 20
-40.0322899684
 10
61.2098128714
 20
-40.024684203
 10
61.2958019798
 20
-40.0120903443
 10
61.3811731055
 20
-39.9944299996
 10
61.4656444517
 20
-39.9717815618
 10
61.5483706287
 20
-39.9443802093
 10
61.6293337476
 20
-39.9121793882
 10
61.7085516972
 20
-39.8752256524
 10
61.7852327534
 20
-39.8338938429
 10
61.8593519613
 20
-39.7881405894
 10
61.9309342757
 20
-39.7380092622
 10
61.9992628373
 20
-39.6840048119
 10
62.0643051729
 20
-39.626089061
 10
62.1260937556
 20
-39.564300187
 10
62.1840091453
 20
-39.4992576733
 10
62.2380131603
 20
-39.4309290524
 10
62.2881439824
 20
-39.3593467918
 10
62.3338967162
 20
-39.2852277778
 10
62.3752279895
 20
-39.2085470619
 10
62.4121811746
 20
-39.1293295926
 10
62.4443814937
 20
-39.0483671012
 10
62.4717823001
 20
-38.9656417049
 10
62.4944302404
 20
-38.8811712864
 10
62.5120904773
 20
-38.7958012258
 10
62.5246847316
 20
-38.7098133163
 10
62.5322912825
 20
-38.6229257647
 10
62.5349101299
 20
-38.5351385708
  0
LWPOLYLINE
  5
256
100
AcDbEntity
  8
IMPORT_IGES
100
AcDbPolyline
 62
7
  6
CONTINUOUS
 90
28
 70
0
 10
60.9478599911
 20
-39.9476323161
 10
61.0357276974
 20
-39.9450083259
 10
61.122679102
 20
-39.9373935933
 10
61.208714205
 20
-39.9247881183
 10
61.2941130969
 20
-39.9071113778
 10
61.3785956871
 20
-39.8844438949
 10
61.4613217041
 20
-39.857027239
 10
61.5422732241
 20
-39.8248156589
 10
61.6214681707
 20
-39.7878549059
 10
61.6981200434
 20
-39.746523803
 10
61.7722029502
 20
-39.7007808976
 10
61.843742783
 20
-39.6506676423
 10
61.9120307166
 20
-39.596687218
 10
61.9770355199
 20
-39.5388023334
 10
62.0387884239
 20
-39.4770502798
 10
62.0966742965
 20
-39.4120461126
 10
62.1506558535
 20
-39.3437585909
 10
62.200770379
 20
-39.2722189556
 10
62.2465145937
 20
-39.1981359837
 10
62.2878470492
 20
-39.1214837723
 10
62.3248091938
 20
-39.0422882244
 10
62.3570220931
 20
-38.9613358265
 10
62.3844399969
 20
-38.8786086425
 10
62.4071086555
 20
-38.7941246085
 10
62.4247863851
 20
-38.708724019
 10
62.4373926244
 20
-38.6226869721
 10
62.4450079348
 20
-38.5357333697
 10
62.4476323161
 20
-38.4478632118
  0
LWPOLYLINE
  5
257
100
AcDbEntity
  8
IMPORT_IGES
100
AcDbPolyline
 62
250
  6
CONTINUOUS
 90
28
 70
0
 10
60.7553981366
 20
-39.7551721091
 10
60.8425808345
 20
-39.7526095162
 10
60.9294687859
 20
-39.7449833115
 10
61.0157681308
 20
-39.7323192715
 10
61.1011862396
 20
-39.7146603955
 10
61.185435
 20
-39.6920662957
 10
61.268231676
 20
-39.6646125551
 10
61.3492975613
 20
-39.6323909877
 10
61.4283567683
 20
-39.5955106499
 10
61.5051395731
 20
-39.5540971302
 10
61.579385531
 20
-39.5082909859
 10
61.6508442569
 20
-39.4582467792
 10
61.7192741232
 20
-39.4041337143
 10
61.7844437311
 20
-39.3461347371
 10
61.8461325238
 20
-39.284446094
 10
61.9041316581
 20
-39.2192766277
 10
61.958244887
 20
-39.1508468944
 10
62.0082892642
 20
-39.0793882926
 10
62.0540955848
 20
-39.0051424494
 10
62.0955092859
 20
-38.9283597496
 10
62.1323898099
 20
-38.8493006376
 10
62.1646115675
 20
-38.7682348362
 10
62.1920654963
 20
-38.6854382648
 10
62.2146597902
 20
-38.6011895983
 10
62.2323188724
 20
-38.5157714735
 10
62.2449831148
 20
-38.4294719669
 10
62.2526094974
 20
-38.3425837401
 10
62.255172227
 20
-38.2554006545
  0
LINE
  5
258
100
AcDbEntity
  8
IMPORT_IGES
100
AcDbLine
 62
7
  6
CONTINUOUS
 10
-61.0351359725
 20
-40.0349101299
 11
61.0351353244
 21
-40.0349101299
  0
LINE
  5
259
100
AcDbEntity
  8
IMPORT_IGES
100
AcDbLine
 62
7
  6
CONTINUOUS
 10
60.9478599997
 20
-39.9476348052
 11
-60.9478568782
 21
-39.9476348051
  0
LINE
  5
25A
100
AcDbEntity
  8
IMPORT_IGES
100
AcDbLine
 62
250
  6
CONTINUOUS
 10
-60.7553992894
 20
-39.7551721419
 11
60.7553989693
 21
-39.7551721089
  0
LWPOLYLINE
  5
25B
100
AcDbEntity
  8
IMPORT_IGES
100
AcDbPolyline
 62
7
  6
CONTINUOUS
 90
28
 70
0
 10
-60.9478564996
 20
-39.9472799481
 10
-61.0356381169
 20
-39.944819922
 10
-61.1225217758
 20
-39.9373326547
 10
-61.2085074761
 20
-39.9248181463
 10
-61.2938771811
 20
-39.9071852018
 10
-61.3783489277
 20
-39.8845250162
 10
-61.4610768257
 20
-39.8571111736
 10
-61.5420445095
 20
-39.8249088365
 10
-61.6212683447
 20
-39.7879528424
 10
-61.6979515388
 20
-39.746621288
 10
-61.772065802
 20
-39.7008726255
 10
-61.8436394241
 20
-39.6507484026
 10
-61.9119604815
 20
-39.5967513598
 10
-61.9769982506
 20
-39.5388425818
 10
-62.0387834551
 20
-39.4770609838
 10
-62.0966963419
 20
-39.4120260515
 10
-62.1506979023
 20
-39.3437073534
 10
-62.2008271451
 20
-39.2721353209
 10
-62.246581344
 20
-39.1980207338
 10
-62.287919317
 20
-39.1213346575
 10
-62.3248822461
 20
-39.0421060265
 10
-62.3570909512
 20
-38.9611324247
 10
-62.3844972356
 20
-38.8783976941
 10
-62.4071492959
 20
-38.7939179927
 10
-62.4248125419
 20
-38.7085393785
 10
-62.4374087769
 20
-38.6225438708
 10
-62.4450161977
 20
-38.5356494502
 10
-62.4476348042
 20
-38.4478561167
  0
LWPOLYLINE
  5
25C
100
AcDbEntity
  8
IMPORT_IGES
100
AcDbPolyline
 62
7
  6
CONTINUOUS
 90
28
 70
0
 10
-60.755396753
 20
-39.7551721426
 10
-60.8426669015
 20
-39.7526045532
 10
-60.9296246559
 20
-39.7449651551
 10
-61.0159756998
 20
-39.7322827418
 10
-61.1014264217
 20
-39.7146035408
 10
-61.1856898465
 20
-39.6919900616
 10
-61.268486355
 20
-39.6645199182
 10
-61.3495364235
 20
-39.6322880175
 10
-61.4285668305
 20
-39.5954052269
 10
-61.5053159056
 20
-39.5539954082
 10
-61.5795251206
 20
-39.508199268
 10
-61.6509438451
 20
-39.4581727359
 10
-61.7193344482
 20
-39.4040831945
 10
-61.7844659383
 20
-39.3461138806
 10
-61.8461186772
 20
-39.2844608545
 10
-61.9040876199
 20
-39.2193291752
 10
-61.9581767214
 20
-39.1509384932
 10
-62.008202762
 20
-39.0795198106
 10
-62.0539983766
 20
-39.0053107671
 10
-62.0954076548
 20
-38.9285619998
 10
-62.1322899096
 20
-38.8495320412
 10
-62.1645212994
 20
-38.7684825644
 10
-62.19199095
 20
-38.6856868721
 10
-62.2146040128
 20
-38.6014244074
 10
-62.2322829479
 20
-38.5159745337
 10
-62.244965234
 20
-38.4296241278
 10
-62.2526045951
 20
-38.3426668733
 10
-62.255172211
 20
-38.2553970794
  0
LWPOLYLINE
  5
25D
100
AcDbEntity
  8
0
100
AcDbPolyline
 62
7
  6
CONTINUOUS
 90
10
 70
0
 43
0.3499999917
 10
1.9285715103
 20
55.8528167725
 10
1.2857142735
 20
55.2099609375
 10
0.857142849
 20
54.352817688
 10
0.857142849
 20
53.2813870239
 10
1.2857142735
 20
52.8528186035
 10
1.9285715103
 20
52.8528186035
 10
2.3571429348
 20
53.2813870239
 10
2.3571429348
 20
54.1385302734
 10
1.9285715103
 20
54.5670986938
 10
0.9999999905
 20
54.5670986938
  0
LWPOLYLINE
  5
25E
100
AcDbEntity
  8
IMPORT_IGES
100
AcDbPolyline
 62
250
  6
CONTINUOUS
 90
64
 70
0
 10
60.7554006831
 20
-34.81678404
 10
60.8423325397
 20
-34.8147806201
 10
60.9299644719
 20
-34.8146138293
 10
61.017979728
 20
-34.8162836677
 10
61.1061825475
 20
-34.819755085
 10
61.1940749916
 20
-34.8250631315
 10
61.2808809078
 20
-34.8323129576
 10
61.3670947735
 20
-34.8415442476
 10
61.4514514092
 20
-34.8527173172
 10
61.5308111394
 20
-34.8658182641
 10
61.6042719445
 20
-34.8804106428
 10
61.6727458411
 20
-34.8969308989
 10
61.7361669793
 20
-34.9166744663
 10
61.794296507
 20
-34.9397855021
 10
61.8476455801
 20
-34.9661198493
 10
61.8972032482
 20
-34.9965404704
 10
61.9436131083
 20
-35.0314818367
 10
61.9862720753
 20
-35.0705094769
 10
62.0243804116
 20
-35.1131829393
 10
62.0583111801
 20
-35.1596907249
 10
62.0882599236
 20
-35.2098443327
 10
62.1136037269
 20
-35.2626378086
 10
62.1344475109
 20
-35.3178331851
 10
62.1517452544
 20
-35.3756684296
 10
62.1662587953
 20
-35.4358514907
 10
62.1784228226
 20
-35.4986578142
 10
62.1884174963
 20
-35.5638119543
 10
62.19650056
 20
-35.6301955213
 10
62.2029503501
 20
-35.6977431672
 10
62.2079252961
 20
-35.7665202401
 10
62.2114714266
 20
-35.8356043942
 10
62.2136976408
 20
-35.9047434256
 10
62.2147264283
 20
-35.9741895382
 10
62.2145732403
 20
-36.0437769977
 10
62.213204411
 20
-36.1137410995
 10
62.2105887161
 20
-36.1838465482
 10
62.2066760381
 20
-36.2532217234
 10
62.2012675409
 20
-36.3220447616
 10
62.194215238
 20
-36.3901375262
 10
62.1855231026
 20
-36.4560939873
 10
62.1751064024
 20
-36.5195784451
 10
62.1625887896
 20
-36.5809265993
 10
62.1474979298
 20
-36.6397395202
 10
62.1293906872
 20
-36.6960719872
 10
62.1079734466
 20
-36.7498692209
 10
62.0829376248
 20
-36.8005679521
 10
62.0534390947
 20
-36.848217324
 10
62.0194421742
 20
-36.8927681935
 10
61.9821684312
 20
-36.9335098624
 10
61.9419273
 20
-36.9702217449
 10
61.8982795741
 20
-37.0031244268
 10
61.8517514765
 20
-37.0321689681
 10
61.8031726793
 20
-37.0568110902
 10
61.7518626659
 20
-37.0775950716
 10
61.6959551001
 20
-37.0961048077
 10
61.6342900809
 20
-37.1126230569
 10
61.5676625306
 20
-37.1268670608
 10
61.4970608379
 20
-37.1395724397
 10
61.4223836123
 20
-37.1510207925
 10
61.3438661787
 20
-37.1609305203
 10
61.2632916929
 20
-37.1691924467
 10
61.1814810198
 20
-37.1757970633
 10
61.0981612256
 20
-37.1807538784
 10
61.0136134335
 20
-37.1839822408
  0
LWPOLYLINE
  5
25F
100
AcDbEntity
  8
IMPORT_IGES
100
AcDbPolyline
 62
250
  6
CONTINUOUS
 90
64
 70
0
 10
-60.7554006841
 20
-37.18321596
 10
-60.8423066991
 20
-37.1852208268
 10
-60.9299253867
 20
-37.1853878758
 10
-61.0179399474
 20
-37.1837171068
 10
-61.106155932
 20
-37.1802439328
 10
-61.1940731481
 20
-37.174932941
 10
-61.2809098864
 20
-37.1676778923
 10
-61.3671634895
 20
-37.1584369278
 10
-61.4515639044
 20
-37.1472519066
 10
-61.5309558595
 20
-37.1341421669
 10
-61.6044323172
 20
-37.1195476264
 10
-61.6729122312
 20
-37.1030283674
 10
-61.7363335401
 20
-37.0832839752
 10
-61.7944577333
 20
-37.060169672
 10
-61.8477970147
 20
-37.0338302354
 10
-61.8973443963
 20
-37.0033995836
 10
-61.9437467497
 20
-36.9684381256
 10
-61.9863975581
 20
-36.9293854523
 10
-62.0244916707
 20
-36.8866942542
 10
-62.0583989897
 20
-36.8401804302
 10
-62.0883215218
 20
-36.7900280813
 10
-62.1136445933
 20
-36.7372422015
 10
-62.1344745819
 20
-36.6820632289
 10
-62.1517621601
 20
-36.6242507253
 10
-62.1662684525
 20
-36.5640883706
 10
-62.1784280598
 20
-36.501299191
 10
-62.1884202657
 20
-36.4361601602
 10
-62.1965013287
 20
-36.3697858786
 10
-62.202949134
 20
-36.3022389254
 10
-62.2079224353
 20
-36.2334567214
 10
-62.2114671963
 20
-36.1643661294
 10
-62.2136920412
 20
-36.0952186093
 10
-62.2147195954
 20
-36.0257627012
 10
-62.2145658467
 20
-35.9561708886
 10
-62.2131972691
 20
-35.8862112481
 10
-62.2105825355
 20
-35.8161157031
 10
-62.2066717841
 20
-35.746752507
 10
-62.2012668092
 20
-35.677942858
 10
-62.1942195153
 20
-35.6098655578
 10
-62.1855328945
 20
-35.5439252654
 10
-62.1751215251
 20
-35.4804580027
 10
-62.1626098067
 20
-35.4191277477
 10
-62.1475265329
 20
-35.3603310929
 10
-62.1294307468
 20
-35.3040153258
 10
-62.1080275615
 20
-35.2502331588
 10
-62.0830035416
 20
-35.1995393218
 10
-62.053511562
 20
-35.1518785313
 10
-62.0195168563
 20
-35.1073060709
 10
-61.9822411057
 20
-35.0665425207
 10
-61.9419908489
 20
-35.0298094087
 10
-61.898328098
 20
-34.9968852069
 10
-61.8517871125
 20
-34.9678259121
 10
-61.8032027739
 20
-34.9431800957
 10
-61.7518911768
 20
-34.9223991862
 10
-61.695981871
 20
-34.9038934659
 10
-61.6343132693
 20
-34.8873791649
 10
-61.5676818644
 20
-34.873140053
 10
-61.4970762428
 20
-34.8604377218
 10
-61.4223947194
 20
-34.8489890009
 10
-61.3438730049
 20
-34.8390770605
 10
-61.2632956131
 20
-34.8308130039
 10
-61.1814848262
 20
-34.8242069165
 10
-61.0981665784
 20
-34.8192487129
 10
-61.0136194733
 20
-34.8160192387
  0
LWPOLYLINE
  5
260
100
AcDbEntity
  8
IMPORT_IGES
100
AcDbPolyline
 62
250
  6
CONTINUOUS
 90
4
 70
0
 10
61.0136134335
 20
-37.1839822408
 10
60.9281177383
 20
-37.1854552669
 10
60.8419517872
 20
-37.1851998402
 10
60.7554005971
 20
-37.1832159609
  0
LWPOLYLINE
  5
261
100
AcDbEntity
  8
IMPORT_IGES
100
AcDbPolyline
 62
250
  6
CONTINUOUS
 90
4
 70
0
 10
61.01361343
 20
-34.6839822408
 10
60.9281177443
 20
-34.6854552668
 10
60.8419518077
 20
-34.6851998401
 10
60.7554006371
 20
-34.6832159608
  0
LWPOLYLINE
  5
262
100
AcDbEntity
  8
IMPORT_IGES
100
AcDbPolyline
 62
250
  6
CONTINUOUS
 90
64
 70
0
 10
60.7554007696
 20
-36.986013296
 10
60.8673644681
 20
-36.9846520051
 10
60.9706731795
 20
-36.9825196687
 10
61.0653269038
 20
-36.9794825227
 10
61.1505109956
 20
-36.9752249681
 10
61.2270401003
 20
-36.9696389146
 10
61.2973581541
 20
-36.9629700305
 10
61.3610946985
 20
-36.955253403
 10
61.418620192
 20
-36.9461946231
 10
61.4734899471
 20
-36.9356708567
 10
61.5270057451
 20
-36.9235474826
 10
61.5778658046
 20
-36.9096509911
 10
61.6257200939
 20
-36.8937958042
 10
61.6705586673
 20
-36.8757931057
 10
61.7123914704
 20
-36.8554904838
 10
61.7508983079
 20
-36.8327583441
 10
61.7857146326
 20
-36.8074385743
 10
61.8172049915
 20
-36.7793805842
 10
61.8461428307
 20
-36.7484907689
 10
61.8726887212
 20
-36.7146408127
 10
61.8966820919
 20
-36.6777256095
 10
61.9184146754
 20
-36.6377258741
 10
61.9379252318
 20
-36.5946262409
 10
61.955175001
 20
-36.5483431045
 10
61.9703394355
 20
-36.4987911081
 10
61.9834406328
 20
-36.4457919853
 10
61.9944564954
 20
-36.3895612171
 10
62.0034961833
 20
-36.3306881411
 10
62.0104477469
 20
-36.2695513907
 10
62.0154231358
 20
-36.2061148442
 10
62.0188673589
 20
-36.1404272267
 10
62.0208277711
 20
-36.0717976608
 10
62.0212570175
 20
-36.00144037
 10
62.0204580425
 20
-35.9323335688
 10
62.0186791156
 20
-35.8657481186
 10
62.0156719672
 20
-35.8009992285
 10
62.0109947329
 20
-35.7381060736
 10
62.0047553144
 20
-35.677248697
 10
61.99684581
 20
-35.6186539679
 10
61.9865006508
 20
-35.5623838934
 10
61.9736560548
 20
-35.5086020594
 10
61.9583758041
 20
-35.4574083686
 10
61.9400856758
 20
-35.4087576101
 10
61.9185237374
 20
-35.3624512359
 10
61.8939519214
 20
-35.318888141
 10
61.8665818019
 20
-35.2787976398
 10
61.8364265711
 20
-35.2420147442
 10
61.8034730369
 20
-35.2085427058
 10
61.7678931973
 20
-35.1790508769
 10
61.730018596
 20
-35.1536257637
 10
61.6895176892
 20
-35.1315238607
 10
61.6455678441
 20
-35.1120797891
 10
61.5978317644
 20
-35.0950118604
 10
61.5466467465
 20
-35.0801869149
 10
61.4922020455
 20
-35.0672836927
 10
61.4355928076
 20
-35.0561024036
 10
61.3757238866
 20
-35.0465055015
 10
61.3094990995
 20
-35.0383100368
 10
61.2365191236
 20
-35.0311702536
 10
61.1571832815
 20
-35.0251793236
 10
61.0695933583
 20
-35.020662207
 10
60.9731166156
 20
-35.0175015797
 10
60.868385792
 20
-35.0153262104
 10
60.7554008872
 20
-35.0139867038
  0
LWPOLYLINE
  5
263
100
AcDbEntity
  8
IMPORT_IGES
100
AcDbPolyline
 62
250
  6
CONTINUOUS
 90
64
 70
0
 10
60.7554007696
 20
-34.486013296
 10
60.8673644681
 20
-34.4846520051
 10
60.9706731795
 20
-34.4825196687
 10
61.0653269038
 20
-34.4794825227
 10
61.1505109956
 20
-34.4752249681
 10
61.2270401003
 20
-34.4696389146
 10
61.2973581541
 20
-34.4629700305
 10
61.3610946985
 20
-34.455253403
 10
61.418620192
 20
-34.4461946231
 10
61.4734899471
 20
-34.4356708567
 10
61.5270057451
 20
-34.4235474826
 10
61.5778658046
 20
-34.4096509911
 10
61.6257200939
 20
-34.3937958042
 10
61.6705586673
 20
-34.3757931057
 10
61.7123914704
 20
-34.3554904838
 10
61.7508983079
 20
-34.3327583441
 10
61.7857146325
 20
-34.3074385743
 10
61.8172049915
 20
-34.2793805842
 10
61.8461428307
 20
-34.2484907689
 10
61.8726887212
 20
-34.2146408127
 10
61.8966820919
 20
-34.1777256096
 10
61.9184146754
 20
-34.1377258742
 10
61.9379252318
 20
-34.0946262409
 10
61.9551750009
 20
-34.0483431046
 10
61.9703394354
 20
-33.9987911082
 10
61.9834406328
 20
-33.9457919853
 10
61.9944564954
 20
-33.8895612172
 10
62.0034961833
 20
-33.8306881412
 10
62.0104477469
 20
-33.7695513909
 10
62.0154231358
 20
-33.7061148443
 10
62.0188673589
 20
-33.6404272268
 10
62.0208277711
 20
-33.571797661
 10
62.0212570175
 20
-33.5014403702
 10
62.0204580425
 20
-33.432333569
 10
62.0186791156
 20
-33.3657481188
 10
62.0156719672
 20
-33.3009992288
 10
62.010994733
 20
-33.2381060738
 10
62.0047553144
 20
-33.1772486972
 10
61.99684581
 20
-33.1186539681
 10
61.9865006508
 20
-33.0623838936
 10
61.9736560549
 20
-33.0086020596
 10
61.9583758042
 20
-32.9574083687
 10
61.9400856759
 20
-32.9087576102
 10
61.9185237375
 20
-32.8624512361
 10
61.8939519214
 20
-32.8188881411
 10
61.866581802
 20
-32.77879764
 10
61.8364265712
 20
-32.7420147442
 10
61.803473037
 20
-32.7085427059
 10
61.7678931974
 20
-32.679050877
 10
61.730018596
 20
-32.6536257637
 10
61.6895176893
 20
-32.6315238607
 10
61.6455678441
 20
-32.6120797891
 10
61.5978317645
 20
-32.5950118604
 10
61.5466467465
 20
-32.580186915
 10
61.4922020455
 20
-32.5672836927
 10
61.4355928076
 20
-32.5561024036
 10
61.3757238866
 20
-32.5465055015
 10
61.3094990995
 20
-32.5383100368
 10
61.2365191236
 20
-32.5311702536
 10
61.1571832815
 20
-32.5251793236
 10
61.0695933582
 20
-32.520662207
 10
60.9731166156
 20
-32.5175015797
 10
60.868385792
 20
-32.5153262104
 10
60.7554008872
 20
-32.5139867038
  0
LWPOLYLINE
  5
264
100
AcDbEntity
  8
IMPORT_IGES
100
AcDbPolyline
 62
250
  6
CONTINUOUS
 90
64
 70
0
 10
-60.7554006765
 20
-35.0139867039
 10
-60.8617130774
 20
-35.015106692
 10
-60.9612403347
 20
-35.017038888
 10
-61.0539824483
 20
-35.0199182949
 10
-61.1395349491
 20
-35.0240770929
 10
-61.2183023063
 20
-35.029639107
 10
-61.2914979273
 20
-35.0363635925
 10
-61.3587644357
 20
-35.044240891
 10
-61.4204592078
 20
-35.05358994
 10
-61.4788677805
 20
-35.0645226343
 10
-61.5349149866
 20
-35.0771804878
 10
-61.5876759932
 20
-35.0917691909
 10
-61.6366618384
 20
-35.1084918196
 10
-61.6814156691
 20
-35.1274379117
 10
-61.7223943385
 20
-35.1488833886
 10
-61.7604794444
 20
-35.1733883927
 10
-61.7959058579
 20
-35.2015995178
 10
-61.8284387079
 20
-35.233435748
 10
-61.8582549785
 20
-35.2682778279
 10
-61.8854475565
 20
-35.3061777608
 10
-61.9099235551
 20
-35.347216507
 10
-61.9315812983
 20
-35.3905098794
 10
-61.9502068655
 20
-35.435399202
 10
-61.9660141773
 20
-35.4822865757
 10
-61.9795433198
 20
-35.5318117512
 10
-61.9907757071
 20
-35.5842074118
 10
-61.9997299251
 20
-35.6391068222
 10
-62.007001817
 20
-35.6962846266
 10
-62.0126434494
 20
-35.7553606171
 10
-62.0166027556
 20
-35.8163888925
 10
-62.0193193789
 20
-35.8797735711
 10
-62.0209506888
 20
-35.9463696087
 10
-62.0213393156
 20
-36.0148569534
 10
-62.020452794
 20
-36.0823268517
 10
-62.0184478584
 20
-36.1475533822
 10
-62.0151677743
 20
-36.2112142845
 10
-62.010109873
 20
-36.2732781314
 10
-62.0033023647
 20
-36.3336782181
 10
-61.9947170392
 20
-36.3920559363
 10
-61.9837665975
 20
-36.4479854044
 10
-61.9704016591
 20
-36.5012709192
 10
-61.9546716045
 20
-36.5518707098
 10
-61.9361372754
 20
-36.5996520035
 10
-61.914632549
 20
-36.6447086577
 10
-61.8903235482
 20
-36.6868452197
 10
-61.8632694831
 20
-36.7256061395
 10
-61.8335637185
 20
-36.76111379
 10
-61.8011128896
 20
-36.7934278527
 10
-61.7656961119
 20
-36.8222001091
 10
-61.727462719
 20
-36.847453234
 10
-61.6862633772
 20
-36.8696667685
 10
-61.6414292018
 20
-36.8892480659
 10
-61.5924734148
 20
-36.906469503
 10
-61.539882794
 20
-36.9214550039
 10
-61.4844487882
 20
-36.9343608849
 10
-61.427522499
 20
-36.9453510491
 10
-61.3677528248
 20
-36.9546754039
 10
-61.3018779087
 20
-36.9625965573
 10
-61.2294213456
 20
-36.969457782
 10
-61.1508595406
 20
-36.9751850668
 10
-61.0643598522
 20
-36.9795196848
 10
-60.9693113997
 20
-36.9825787289
 10
-60.8663250639
 20
-36.9846966573
 10
-60.7554008446
 20
-36.9860132963
  0
LINE
  5
265
100
AcDbEntity
  8
IMPORT_IGES
100
AcDbLine
 62
250
  6
CONTINUOUS
 10
-62.2551722782
 20
-38.2554005989
 11
62.2551722525
 21
-38.2554006416
  0
LINE
  5
266
100
AcDbEntity
  8
IMPORT_IGES
100
AcDbLine
 62
250
  6
CONTINUOUS
 10
60.7554005956
 20
-37.1832159604
 11
-60.7554006393
 21
-37.18321596
  0
LINE
  5
267
100
AcDbEntity
  8
IMPORT_IGES
100
AcDbLine
 62
250
  6
CONTINUOUS
 10
60.7554007696
 20
-36.986013296
 11
-60.7554008446
 21
-36.9860132963
  0
LINE
  5
268
100
AcDbEntity
  8
IMPORT_IGES
100
AcDbLine
 62
250
  6
CONTINUOUS
 10
-60.7554006765
 20
-35.0139867039
 11
60.7554008872
 21
-35.0139867038
  0
LINE
  5
269
100
AcDbEntity
  8
IMPORT_IGES
100
AcDbLine
 62
250
  6
CONTINUOUS
 10
-60.7554005912
 20
-34.8167840396
 11
60.7554006371
 21
-34.81678404
  0
LINE
  5
26A
100
AcDbEntity
  8
IMPORT_IGES
100
AcDbLine
 62
250
  6
CONTINUOUS
 10
60.7554006371
 20
-34.6832159608
 11
-60.7554006375
 21
-34.68321596
  0
LINE
  5
26B
100
AcDbEntity
  8
IMPORT_IGES
100
AcDbLine
 62
250
  6
CONTINUOUS
 10
60.7554007696
 20
-34.486013296
 11
-60.7554008446
 21
-34.4860132963
  0
LWPOLYLINE
  5
26C
100
AcDbEntity
  8
IMPORT_IGES
100
AcDbPolyline
 62
250
  6
CONTINUOUS
 90
64
 70
0
 10
60.7554006831
 20
-32.31678404
 10
60.8423325397
 20
-32.3147806201
 10
60.9299644719
 20
-32.3146138293
 10
61.017979728
 20
-32.3162836677
 10
61.1061825474
 20
-32.319755085
 10
61.1940749915
 20
-32.3250631315
 10
61.2808809076
 20
-32.3323129576
 10
61.3670947732
 20
-32.3415442475
 10
61.4514514089
 20
-32.3527173171
 10
61.5308111391
 20
-32.365818264
 10
61.6042719442
 20
-32.3804106428
 10
61.6727458408
 20
-32.3969308988
 10
61.7361669791
 20
-32.4166744662
 10
61.7942965068
 20
-32.439785502
 10
61.8476455799
 20
-32.4661198492
 10
61.8972032481
 20
-32.4965404703
 10
61.9436131083
 20
-32.5314818366
 10
61.9862720753
 20
-32.5705094769
 10
62.0243804117
 20
-32.6131829393
 10
62.0583111802
 20
-32.659690725
 10
62.0882599237
 20
-32.7098443328
 10
62.113603727
 20
-32.7626378088
 10
62.134447511
 20
-32.8178331853
 10
62.1517452545
 20
-32.8756684299
 10
62.1662587954
 20
-32.935851491
 10
62.1784228227
 20
-32.9986578146
 10
62.1884174964
 20
-33.0638119546
 10
62.19650056
 20
-33.1301955216
 10
62.2029503501
 20
-33.1977431675
 10
62.2079252961
 20
-33.2665202403
 10
62.2114714266
 20
-33.3356043944
 10
62.2136976408
 20
-33.4047434258
 10
62.2147264284
 20
-33.4741895384
 10
62.2145732403
 20
-33.5437769979
 10
62.213204411
 20
-33.6137410998
 10
62.2105887161
 20
-33.6838465485
 10
62.2066760381
 20
-33.7532217238
 10
62.2012675409
 20
-33.822044762
 10
62.194215238
 20
-33.8901375267
 10
62.1855231025
 20
-33.9560939879
 10
62.1751064022
 20
-34.0195784458
 10
62.1625887894
 20
-34.0809266001
 10
62.1474979295
 20
-34.1397395211
 10
62.1293906868
 20
-34.1960719882
 10
62.1079734462
 20
-34.2498692219
 10
62.0829376242
 20
-34.3005679532
 10
62.0534390938
 20
-34.3482173252
 10
62.019442173
 20
-34.3927681948
 10
61.9821684297
 20
-34.4335098639
 10
61.9419272981
 20
-34.4702217464
 10
61.8982795718
 20
-34.5031244283
 10
61.851751474
 20
-34.5321689695
 10
61.8031726766
 20
-34.5568110914
 10
61.7518626632
 20
-34.5775950726
 10
61.6959550973
 20
-34.5961048086
 10
61.6342900778
 20
-34.6126230577
 10
61.5676625273
 20
-34.6268670615
 10
61.4970608344
 20
-34.6395724403
 10
61.4223836091
 20
-34.651020793
 10
61.343866176
 20
-34.6609305206
 10
61.2632916905
 20
-34.6691924469
 10
61.1814810157
 20
-34.6757970634
 10
61.0981612194
 20
-34.6807538784
 10
61.01361343
 20
-34.6839822408
  0
LWPOLYLINE
  5
26D
100
AcDbEntity
  8
IMPORT_IGES
100
AcDbPolyline
 62
250
  6
CONTINUOUS
 90
64
 70
0
 10
-60.7554006375
 20
-34.68321596
 10
-60.8423066731
 20
-34.6852208269
 10
-60.9299253761
 20
-34.6853878758
 10
-61.017939947
 20
-34.6837171068
 10
-61.1061559351
 20
-34.6802439329
 10
-61.1940731496
 20
-34.674932941
 10
-61.2809098863
 20
-34.6676778923
 10
-61.3671634895
 20
-34.6584369278
 10
-61.4515639044
 20
-34.6472519066
 10
-61.5309558595
 20
-34.6341421668
 10
-61.6044323172
 20
-34.6195476264
 10
-61.6729122311
 20
-34.6030283674
 10
-61.7363335401
 20
-34.5832839752
 10
-61.7944577333
 20
-34.5601696719
 10
-61.8477970148
 20
-34.5338302354
 10
-61.8973443964
 20
-34.5033995835
 10
-61.9437467498
 20
-34.4684381255
 10
-61.9863975582
 20
-34.4293854522
 10
-62.0244916707
 20
-34.3866942541
 10
-62.0583989897
 20
-34.3401804301
 10
-62.0883215218
 20
-34.2900280812
 10
-62.1136445933
 20
-34.2372422014
 10
-62.1344745819
 20
-34.1820632287
 10
-62.1517621601
 20
-34.1242507252
 10
-62.1662684525
 20
-34.0640883704
 10
-62.1784280598
 20
-34.0012991909
 10
-62.1884202657
 20
-33.9361601601
 10
-62.1965013287
 20
-33.8697858786
 10
-62.202949134
 20
-33.8022389253
 10
-62.2079224353
 20
-33.7334567213
 10
-62.2114671963
 20
-33.6643661293
 10
-62.2136920412
 20
-33.5952186092
 10
-62.2147195954
 20
-33.5257627011
 10
-62.2145658467
 20
-33.4561708885
 10
-62.2131972691
 20
-33.3862112481
 10
-62.2105825355
 20
-33.3161157031
 10
-62.2066717841
 20
-33.246752507
 10
-62.2012668092
 20
-33.1779428579
 10
-62.1942195153
 20
-33.1098655577
 10
-62.1855328945
 20
-33.0439252653
 10
-62.1751215251
 20
-32.9804580026
 10
-62.1626098067
 20
-32.9191277476
 10
-62.1475265329
 20
-32.8603310927
 10
-62.1294307468
 20
-32.8040153256
 10
-62.1080275615
 20
-32.7502331586
 10
-62.0830035415
 20
-32.6995393216
 10
-62.0535115619
 20
-32.6518785312
 10
-62.0195168562
 20
-32.6073060707
 10
-61.9822411056
 20
-32.5665425206
 10
-61.9419908488
 20
-32.5298094086
 10
-61.898328098
 20
-32.4968852068
 10
-61.8517871124
 20
-32.467825912
 10
-61.8032027738
 20
-32.4431800956
 10
-61.7518911768
 20
-32.4223991862
 10
-61.6959818709
 20
-32.4038934658
 10
-61.6343132693
 20
-32.3873791648
 10
-61.5676818643
 20
-32.373140053
 10
-61.4970762427
 20
-32.3604377218
 10
-61.4223947193
 20
-32.3489890008
 10
-61.3438730048
 20
-32.3390770605
 10
-61.2632956131
 20
-32.3308130039
 10
-61.1814848262
 20
-32.3242069165
 10
-61.0981665784
 20
-32.3192487129
 10
-61.0136194734
 20
-32.3160192387
  0
LWPOLYLINE
  5
26E
100
AcDbEntity
  8
IMPORT_IGES
100
AcDbPolyline
 62
250
  6
CONTINUOUS
 90
64
 70
0
 10
60.755402637
 20
-29.81678404
 10
60.842334209
 20
-29.814780621
 10
60.9299658401
 20
-29.8146138321
 10
61.0179807818
 20
-29.8162836734
 10
61.1061832328
 20
-29.8197550945
 10
61.194075304
 20
-29.8250631458
 10
61.2808809754
 20
-29.8323129781
 10
61.3670948116
 20
-29.8415442802
 10
61.4514515286
 20
-29.8527173633
 10
61.5308112994
 20
-29.8658183118
 10
61.604272048
 20
-29.8804106715
 10
61.6727458593
 20
-29.8969308966
 10
61.7361669276
 20
-29.9166744344
 10
61.7942964102
 20
-29.9397854451
 10
61.8476454505
 20
-29.9661197685
 10
61.8972031038
 20
-29.9965403713
 10
61.9436129712
 20
-30.0314817287
 10
61.9862719578
 20
-30.0705093655
 10
62.0243803124
 20
-30.1131828229
 10
62.0583110947
 20
-30.1596905989
 10
62.0882598509
 20
-30.2098441956
 10
62.1136036651
 20
-30.2626376599
 10
62.1344474575
 20
-30.3178330235
 10
62.1517452081
 20
-30.3756682547
 10
62.1662587557
 20
-30.4358513055
 10
62.1784227897
 20
-30.4986576223
 10
62.1884174695
 20
-30.5638117586
 10
62.1965005388
 20
-30.6301953272
 10
62.2029503344
 20
-30.6977429817
 10
62.2079252855
 20
-30.7665200686
 10
62.2114714201
 20
-30.8356042387
 10
62.2136976374
 20
-30.9047432882
 10
62.2147264275
 20
-30.9741894211
 10
62.2145732413
 20
-31.0437769002
 10
62.2132044131
 20
-31.1137410207
 10
62.2105887188
 20
-31.1838464873
 10
62.2066760412
 20
-31.2532216776
 10
62.201267544
 20
-31.3220447274
 10
62.1942152409
 20
-31.3901375007
 10
62.1855231055
 20
-31.4560939673
 10
62.1751064058
 20
-31.5195784266
 10
62.1625887941
 20
-31.5809265792
 10
62.1474979365
 20
-31.6397394966
 10
62.1293906977
 20
-31.6960719583
 10
62.1079734629
 20
-31.7498691848
 10
62.0829376488
 20
-31.8005679088
 10
62.0534391302
 20
-31.8482172728
 10
62.0194422242
 20
-31.8927681342
 10
61.9821684954
 20
-31.9335097985
 10
61.9419273761
 20
-31.9702216815
 10
61.8982796609
 20
-32.0031243674
 10
61.8517515731
 20
-32.0321689137
 10
61.8031727863
 20
-32.0568110415
 10
61.7518627821
 20
-32.0775950298
 10
61.695955219
 20
-32.096104773
 10
61.6342901904
 20
-32.11262303
 10
61.5676626221
 20
-32.126867042
 10
61.4970609115
 20
-32.1395724275
 10
61.422383672
 20
-32.1510207846
 10
61.3438662254
 20
-32.1609305151
 10
61.2632917262
 20
-32.1691924436
 10
61.1814810357
 20
-32.1757970618
 10
61.0981612239
 20
-32.1807538779
 10
61.0136134241
 20
-32.183982241
  0
LWPOLYLINE
  5
26F
100
AcDbEntity
  8
IMPORT_IGES
100
AcDbPolyline
 62
250
  6
CONTINUOUS
 90
64
 70
0
 10
-60.7554006837
 20
-32.18321596
 10
-60.8423066902
 20
-32.1852208233
 10
-60.9299253767
 20
-32.1853878691
 10
-61.0179399437
 20
-32.1837170975
 10
-61.1061559438
 20
-32.1802439216
 10
-61.194073182
 20
-32.1749329282
 10
-61.2809099424
 20
-32.1676778783
 10
-61.3671635688
 20
-32.1584369129
 10
-61.4515640062
 20
-32.147251891
 10
-61.5309559733
 20
-32.1341421501
 10
-61.6044324298
 20
-32.1195476073
 10
-61.6729123341
 20
-32.1030283454
 10
-61.7363336277
 20
-32.083283951
 10
-61.7944577988
 20
-32.0601696451
 10
-61.8477970544
 20
-32.0338302066
 10
-61.8973444143
 20
-32.0033995589
 10
-61.9437467527
 20
-31.9684381139
 10
-61.9863975495
 20
-31.9293854598
 10
-62.0244916514
 20
-31.8866942839
 10
-62.0583989589
 20
-31.8401804865
 10
-62.0883214808
 20
-31.7900281672
 10
-62.1136445469
 20
-31.7372423126
 10
-62.1344745346
 20
-31.6820633593
 10
-62.1517621149
 20
-31.6242508706
 10
-62.1662684121
 20
-31.5640885233
 10
-62.1784280276
 20
-31.5012993411
 10
-62.1884202431
 20
-31.4361603003
 10
-62.1965013141
 20
-31.3697860067
 10
-62.2029491253
 20
-31.3022390395
 10
-62.2079224314
 20
-31.2334568195
 10
-62.2114671956
 20
-31.1643662149
 10
-62.2136920413
 20
-31.0952186856
 10
-62.2147195951
 20
-31.0257627716
 10
-62.2145658468
 20
-30.9561709617
 10
-62.2131972706
 20
-30.8862113354
 10
-62.2105825394
 20
-30.8161158132
 10
-62.2066717929
 20
-30.7467526444
 10
-62.2012668274
 20
-30.6779430271
 10
-62.1942195469
 20
-30.6098657633
 10
-62.1855329416
 20
-30.5439255089
 10
-62.1751215885
 20
-30.4804582865
 10
-62.1626098891
 20
-30.4191280734
 10
-62.1475266405
 20
-30.3603314574
 10
-62.1294308833
 20
-30.3040157213
 10
-62.108027735
 20
-30.2502335823
 10
-62.0830037778
 20
-30.1995397794
 10
-62.0535119089
 20
-30.1518790409
 10
-62.0195173529
 20
-30.1073066387
 10
-61.9822417572
 20
-30.0665431275
 10
-61.9419916504
 20
-30.0298100274
 10
-61.8983290486
 20
-29.9968858184
 10
-61.8517881871
 20
-29.9678264961
 10
-61.803203916
 20
-29.9431806212
 10
-61.751892348
 20
-29.922399633
 10
-61.6959830873
 20
-29.9038938446
 10
-61.6343146003
 20
-29.8873795025
 10
-61.5676833332
 20
-29.8731403602
 10
-61.4970777735
 20
-29.8604379912
 10
-61.4223961321
 20
-29.8489892134
 10
-61.3438742029
 20
-29.8390772089
 10
-61.2632966886
 20
-29.8308130973
 10
-61.1814858798
 20
-29.824206971
 10
-61.0981677173
 20
-29.8192487375
 10
-61.0136210123
 20
-29.8160192396
  0
LWPOLYLINE
  5
270
100
AcDbEntity
  8
IMPORT_IGES
100
AcDbPolyline
 62
250
  6
CONTINUOUS
 90
4
 70
0
 10
-61.0136194733
 20
-34.8160192387
 10
-60.9281227012
 20
-34.8145454427
 10
-60.8419547481
 20
-34.8148003762
 10
-60.7554006375
 20
-34.8167840393
  0
LWPOLYLINE
  5
271
100
AcDbEntity
  8
IMPORT_IGES
100
AcDbPolyline
 62
250
  6
CONTINUOUS
 90
4
 70
0
 10
-61.0136194734
 20
-32.3160192387
 10
-60.9281227012
 20
-32.3145454427
 10
-60.8419547481
 20
-32.3148003762
 10
-60.7554006375
 20
-32.3167840393
  0
LWPOLYLINE
  5
272
100
AcDbEntity
  8
IMPORT_IGES
100
AcDbPolyline
 62
250
  6
CONTINUOUS
 90
4
 70
0
 10
61.0136134241
 20
-32.183982241
 10
60.9281177347
 20
-32.1854552673
 10
60.8419518001
 20
-32.1851998406
 10
60.7554006371
 20
-32.1832159608
  0
LWPOLYLINE
  5
273
100
AcDbEntity
  8
IMPORT_IGES
100
AcDbPolyline
 62
250
  6
CONTINUOUS
 90
64
 70
0
 10
60.7554007696
 20
-31.986013296
 10
60.8673644681
 20
-31.9846520051
 10
60.9706731795
 20
-31.9825196687
 10
61.0653269039
 20
-31.9794825227
 10
61.1505109956
 20
-31.9752249681
 10
61.2270401003
 20
-31.9696389146
 10
61.2973581542
 20
-31.9629700305
 10
61.3610946985
 20
-31.955253403
 10
61.4186201921
 20
-31.9461946231
 10
61.4734899472
 20
-31.9356708567
 10
61.5270057452
 20
-31.9235474826
 10
61.5778658047
 20
-31.9096509911
 10
61.625720094
 20
-31.8937958042
 10
61.6705586674
 20
-31.8757931057
 10
61.7123914705
 20
-31.8554904838
 10
61.750898308
 20
-31.832758344
 10
61.7857146326
 20
-31.8074385742
 10
61.8172049916
 20
-31.7793805841
 10
61.8461428308
 20
-31.7484907688
 10
61.8726887213
 20
-31.7146408126
 10
61.896682092
 20
-31.6777256094
 10
61.9184146755
 20
-31.637725874
 10
61.9379252318
 20
-31.5946262408
 10
61.955175001
 20
-31.5483431044
 10
61.9703394355
 20
-31.498791108
 10
61.9834406328
 20
-31.4457919852
 10
61.9944564954
 20
-31.389561217
 10
62.0034961833
 20
-31.330688141
 10
62.0104477469
 20
-31.2695513906
 10
62.0154231358
 20
-31.2061148441
 10
62.0188673589
 20
-31.1404272266
 10
62.0208277711
 20
-31.0717976608
 10
62.0212570175
 20
-31.0014403701
 10
62.0204580425
 20
-30.9323335688
 10
62.0186791156
 20
-30.8657481186
 10
62.0156719672
 20
-30.8009992286
 10
62.010994733
 20
-30.7381060736
 10
62.0047553144
 20
-30.677248697
 10
61.99684581
 20
-30.618653968
 10
61.9865006508
 20
-30.5623838935
 10
61.9736560549
 20
-30.5086020595
 10
61.9583758042
 20
-30.4574083687
 10
61.9400856758
 20
-30.4087576102
 10
61.9185237375
 20
-30.3624512361
 10
61.8939519214
 20
-30.3188881411
 10
61.866581802
 20
-30.2787976399
 10
61.8364265712
 20
-30.2420147442
 10
61.803473037
 20
-30.2085427059
 10
61.7678931974
 20
-30.179050877
 10
61.730018596
 20
-30.1536257637
 10
61.6895176893
 20
-30.1315238607
 10
61.6455678441
 20
-30.1120797891
 10
61.5978317645
 20
-30.0950118604
 10
61.5466467466
 20
-30.080186915
 10
61.4922020456
 20
-30.0672836928
 10
61.4355928077
 20
-30.0561024036
 10
61.3757238867
 20
-30.0465055015
 10
61.3094990996
 20
-30.0383100368
 10
61.2365191236
 20
-30.0311702536
 10
61.1571832815
 20
-30.0251793236
 10
61.0695933583
 20
-30.020662207
 10
60.9731166157
 20
-30.0175015797
 10
60.868385792
 20
-30.0153262104
 10
60.7554008872
 20
-30.0139867038
  0
LWPOLYLINE
  5
274
100
AcDbEntity
  8
IMPORT_IGES
100
AcDbPolyline
 62
250
  6
CONTINUOUS
 90
64
 70
0
 10
-60.7554006765
 20
-32.5139867039
 10
-60.8617130774
 20
-32.515106692
 10
-60.9612403347
 20
-32.517038888
 10
-61.0539824483
 20
-32.5199182949
 10
-61.1395349491
 20
-32.5240770929
 10
-61.2183023063
 20
-32.529639107
 10
-61.2914979272
 20
-32.5363635925
 10
-61.3587644356
 20
-32.544240891
 10
-61.4204592078
 20
-32.55358994
 10
-61.4788677805
 20
-32.5645226343
 10
-61.5349149866
 20
-32.5771804878
 10
-61.5876759931
 20
-32.5917691909
 10
-61.6366618384
 20
-32.6084918195
 10
-61.6814156691
 20
-32.6274379117
 10
-61.7223943385
 20
-32.6488833886
 10
-61.7604794443
 20
-32.6733883927
 10
-61.7959058578
 20
-32.7015995177
 10
-61.8284387078
 20
-32.7334357479
 10
-61.8582549784
 20
-32.7682778278
 10
-61.8854475564
 20
-32.8061777608
 10
-61.909923555
 20
-32.8472165069
 10
-61.9315812983
 20
-32.8905098793
 10
-61.9502068655
 20
-32.935399202
 10
-61.9660141773
 20
-32.9822865756
 10
-61.9795433198
 20
-33.0318117511
 10
-61.9907757071
 20
-33.0842074117
 10
-61.9997299251
 20
-33.1391068221
 10
-62.007001817
 20
-33.1962846265
 10
-62.0126434494
 20
-33.255360617
 10
-62.0166027556
 20
-33.3163888924
 10
-62.0193193789
 20
-33.3797735709
 10
-62.0209506888
 20
-33.4463696086
 10
-62.0213393156
 20
-33.5148569533
 10
-62.020452794
 20
-33.5823268516
 10
-62.0184478584
 20
-33.6475533821
 10
-62.0151677743
 20
-33.7112142844
 10
-62.010109873
 20
-33.7732781313
 10
-62.0033023647
 20
-33.833678218
 10
-61.9947170392
 20
-33.8920559362
 10
-61.9837665975
 20
-33.9479854043
 10
-61.9704016591
 20
-34.0012709192
 10
-61.9546716045
 20
-34.0518707097
 10
-61.9361372754
 20
-34.0996520034
 10
-61.9146325491
 20
-34.1447086577
 10
-61.8903235483
 20
-34.1868452196
 10
-61.8632694831
 20
-34.2256061395
 10
-61.8335637186
 20
-34.2611137899
 10
-61.8011128896
 20
-34.2934278527
 10
-61.7656961119
 20
-34.3222001091
 10
-61.727462719
 20
-34.3474532339
 10
-61.6862633773
 20
-34.3696667684
 10
-61.6414292018
 20
-34.3892480659
 10
-61.5924734148
 20
-34.406469503
 10
-61.539882794
 20
-34.4214550039
 10
-61.4844487882
 20
-34.4343608848
 10
-61.4275224991
 20
-34.4453510491
 10
-61.3677528249
 20
-34.4546754039
 10
-61.3018779088
 20
-34.4625965573
 10
-61.2294213457
 20
-34.469457782
 10
-61.1508595406
 20
-34.4751850668
 10
-61.0643598522
 20
-34.4795196848
 10
-60.9693113998
 20
-34.4825787289
 10
-60.8663250639
 20
-34.4846966573
 10
-60.7554008446
 20
-34.4860132963
  0
LWPOLYLINE
  5
275
100
AcDbEntity
  8
IMPORT_IGES
100
AcDbPolyline
 62
250
  6
CONTINUOUS
 90
64
 70
0
 10
-60.7554006765
 20
-30.0139867039
 10
-60.8617130774
 20
-30.015106692
 10
-60.9612403346
 20
-30.017038888
 10
-61.0539824482
 20
-30.0199182949
 10
-61.139534949
 20
-30.0240770928
 10
-61.2183023062
 20
-30.029639107
 10
-61.2914979271
 20
-30.0363635925
 10
-61.3587644355
 20
-30.044240891
 10
-61.4204592077
 20
-30.05358994
 10
-61.4788677804
 20
-30.0645226343
 10
-61.5349149864
 20
-30.0771804877
 10
-61.587675993
 20
-30.0917691909
 10
-61.6366618382
 20
-30.1084918195
 10
-61.681415669
 20
-30.1274379116
 10
-61.7223943383
 20
-30.1488833885
 10
-61.7604794442
 20
-30.1733883926
 10
-61.7959058577
 20
-30.2015995176
 10
-61.8284387077
 20
-30.2334357478
 10
-61.8582549783
 20
-30.2682778277
 10
-61.8854475563
 20
-30.3061777606
 10
-61.909923555
 20
-30.3472165068
 10
-61.9315812982
 20
-30.3905098791
 10
-61.9502068654
 20
-30.4353992018
 10
-61.9660141773
 20
-30.4822865755
 10
-61.9795433197
 20
-30.531811751
 10
-61.9907757071
 20
-30.5842074116
 10
-61.9997299251
 20
-30.6391068219
 10
-62.007001817
 20
-30.6962846264
 10
-62.0126434494
 20
-30.7553606169
 10
-62.0166027556
 20
-30.8163888923
 10
-62.0193193789
 20
-30.8797735708
 10
-62.0209506888
 20
-30.9463696084
 10
-62.0213393156
 20
-31.0148569531
 10
-62.0204527941
 20
-31.0823268515
 10
-62.0184478584
 20
-31.147553382
 10
-62.0151677743
 20
-31.2112142843
 10
-62.010109873
 20
-31.2732781312
 10
-62.0033023647
 20
-31.3336782179
 10
-61.9947170392
 20
-31.3920559361
 10
-61.9837665975
 20
-31.4479854043
 10
-61.9704016592
 20
-31.5012709191
 10
-61.9546716045
 20
-31.5518707097
 10
-61.9361372754
 20
-31.5996520033
 10
-61.9146325491
 20
-31.6447086576
 10
-61.8903235483
 20
-31.6868452196
 10
-61.8632694832
 20
-31.7256061394
 10
-61.8335637186
 20
-31.7611137899
 10
-61.8011128897
 20
-31.7934278526
 10
-61.765696112
 20
-31.8222001091
 10
-61.727462719
 20
-31.8474532339
 10
-61.6862633773
 20
-31.8696667684
 10
-61.6414292019
 20
-31.8892480658
 10
-61.5924734149
 20
-31.906469503
 10
-61.5398827941
 20
-31.9214550038
 10
-61.4844487882
 20
-31.9343608848
 10
-61.4275224991
 20
-31.9453510491
 10
-61.3677528249
 20
-31.9546754039
 10
-61.3018779088
 20
-31.9625965573
 10
-61.2294213457
 20
-31.969457782
 10
-61.1508595407
 20
-31.9751850668
 10
-61.0643598522
 20
-31.9795196848
 10
-60.9693113998
 20
-31.9825787289
 10
-60.8663250639
 20
-31.9846966573
 10
-60.7554008446
 20
-31.9860132963
  0
LINE
  5
276
100
AcDbEntity
  8
IMPORT_IGES
100
AcDbLine
 62
250
  6
CONTINUOUS
 10
-60.7554006765
 20
-32.5139867039
 11
60.7554008872
 21
-32.5139867038
  0
LINE
  5
277
100
AcDbEntity
  8
IMPORT_IGES
100
AcDbLine
 62
250
  6
CONTINUOUS
 10
60.7554006371
 20
-32.31678404
 11
-60.7554005912
 21
-32.3167840396
  0
LINE
  5
278
100
AcDbEntity
  8
IMPORT_IGES
100
AcDbLine
 62
250
  6
CONTINUOUS
 10
60.7554006371
 20
-32.1832159608
 11
-60.7554006375
 21
-32.18321596
  0
LINE
  5
279
100
AcDbEntity
  8
IMPORT_IGES
100
AcDbLine
 62
250
  6
CONTINUOUS
 10
60.7554007696
 20
-31.986013296
 11
-60.7554008446
 21
-31.9860132963
  0
LINE
  5
27A
100
AcDbEntity
  8
IMPORT_IGES
100
AcDbLine
 62
250
  6
CONTINUOUS
 10
-60.7554006765
 20
-30.0139867039
 11
60.7554008872
 21
-30.0139867038
  0
LINE
  5
27B
100
AcDbEntity
  8
IMPORT_IGES
100
AcDbLine
 62
250
  6
CONTINUOUS
 10
-60.7554025491
 20
-29.8167840204
 11
60.7554029187
 21
-29.81678404
  0
LWPOLYLINE
  5
27C
100
AcDbEntity
  8
IMPORT_IGES
100
AcDbPolyline
 62
7
  6
CONTINUOUS
 90
9
 70
0
 10
-62.0872384978
 20
-28.7435841923
 10
-62.1247748897
 20
-28.7449431206
 10
-62.1576896749
 20
-28.7463331261
 10
-62.1859393288
 20
-28.7477545181
 10
-62.2095673761
 20
-28.7492069873
 10
-62.2283284905
 20
-28.7506764105
 10
-62.2421408965
 20
-28.7521580799
 10
-62.2510863697
 20
-28.7536567032
 10
-62.2551649099
 20
-28.7551722804
  0
LWPOLYLINE
  5
27D
100
AcDbEntity
  8
IMPORT_IGES
100
AcDbPolyline
 62
7
  6
CONTINUOUS
 90
9
 70
0
 10
-62.5785803994
 20
-28.7348594666
 10
-62.6161166523
 20
-28.7362189136
 10
-62.6490268571
 20
-28.7376092347
 10
-62.6772665463
 20
-28.7390307397
 10
-62.7008801874
 20
-28.7404831188
 10
-62.7196287451
 20
-28.7419521452
 10
-62.7334325409
 20
-28.7434330768
 10
-62.7423712532
 20
-28.7449306558
 10
-62.7464448821
 20
-28.7464448822
  0
LINE
  5
27E
100
AcDbEntity
  8
IMPORT_IGES
100
AcDbLine
 62
7
  6
CONTINUOUS
 10
-61.9993892431
 20
-28.7409995935
 11
-62.0872384978
 21
-28.7435841923
  0
LINE
  5
27F
100
AcDbEntity
  8
IMPORT_IGES
100
AcDbLine
 62
7
  6
CONTINUOUS
 10
-62.490705826
 20
-28.7322735147
 11
-62.5785803994
 21
-28.7348594666
  0
LINE
  5
280
100
AcDbEntity
  8
IMPORT_IGES
100
AcDbLine
 62
7
  6
CONTINUOUS
 10
-61.8950117724
 20
-28.7386043995
 11
-61.9993892431
 21
-28.7409995935
  0
LINE
  5
281
100
AcDbEntity
  8
IMPORT_IGES
100
AcDbLine
 62
7
  6
CONTINUOUS
 10
-62.3862717236
 20
-28.7298766959
 11
-62.490705826
 21
-28.7322735147
  0
LWPOLYLINE
  5
282
100
AcDbEntity
  8
IMPORT_IGES
100
AcDbPolyline
 62
250
  6
CONTINUOUS
 90
4
 70
0
 10
-61.0136210123
 20
-29.8160192396
 10
-60.9281250303
 20
-29.8145454245
 10
-60.8419581907
 20
-29.814800345
 10
-60.7554055109
 20
-29.8167840009
  0
LINE
  5
283
100
AcDbEntity
  8
IMPORT_IGES
100
AcDbLine
 62
7
  6
CONTINUOUS
 10
-61.7108014401
 20
-28.7354445844
 11
-61.8950117724
 21
-28.7386043995
  0
LINE
  5
284
100
AcDbEntity
  8
IMPORT_IGES
100
AcDbLine
 62
7
  6
CONTINUOUS
 10
-62.2019357578
 20
-28.7267149198
 11
-62.3862717236
 21
-28.7298766959
  0
LINE
  5
285
100
AcDbEntity
  8
IMPORT_IGES
100
AcDbLine
 62
7
  6
CONTINUOUS
 10
-61.4221880665
 20
-28.7321763634
 11
-61.7108014401
 21
-28.7354445844
  0
LINE
  5
286
100
AcDbEntity
  8
IMPORT_IGES
100
AcDbLine
 62
7
  6
CONTINUOUS
 10
-61.9131595084
 20
-28.723445935
 11
-62.2019357578
 21
-28.7267149198
  0
LINE
  5
287
100
AcDbEntity
  8
IMPORT_IGES
100
AcDbLine
 62
7
  6
CONTINUOUS
 10
-61.0979490208
 20
-28.7301389436
 11
-61.4221880665
 21
-28.7321763634
  0
LINE
  5
288
100
AcDbEntity
  8
IMPORT_IGES
100
AcDbLine
 62
7
  6
CONTINUOUS
 10
-61.5889169516
 20
-28.7214100062
 11
-61.9131595084
 21
-28.723445935
  0
LINE
  5
289
100
AcDbEntity
  8
IMPORT_IGES
100
AcDbLine
 62
7
  6
CONTINUOUS
 10
-63.0349101299
 20
-29.0349101299
 11
-62.5349101299
 21
-29.0349101299
  0
LINE
  5
28A
100
AcDbEntity
  8
IMPORT_IGES
100
AcDbLine
 62
7
  6
CONTINUOUS
 10
63.0349101299
 20
-29.0349101299
 11
62.5349101299
 21
-29.0349101299
  0
LINE
  5
28B
100
AcDbEntity
  8
IMPORT_IGES
100
AcDbLine
 62
7
  6
CONTINUOUS
 10
-62.9476348052
 20
-28.9476348052
 11
-62.4476348053
 21
-28.9476348052
  0
LINE
  5
28C
100
AcDbEntity
  8
IMPORT_IGES
100
AcDbLine
 62
7
  6
CONTINUOUS
 10
62.4476348052
 20
-28.9476348053
 11
62.9476348052
 21
-28.9476348052
  0
LINE
  5
28D
100
AcDbEntity
  8
IMPORT_IGES
100
AcDbLine
 62
7
  6
CONTINUOUS
 10
61.2466815934
 20
-28.720718952
 11
-61.5889169516
 21
-28.7214100062
  0
LINE
  5
28E
100
AcDbEntity
  8
IMPORT_IGES
100
AcDbLine
 62
7
  6
CONTINUOUS
 10
60.8422993176
 20
-28.7294913387
 11
-61.0979490208
 21
-28.7301389436
  0
LINE
  5
28F
100
AcDbEntity
  8
IMPORT_IGES
100
AcDbLine
 62
7
  6
CONTINUOUS
 10
61.2634850582
 20
-28.730994525
 11
60.8422993176
 21
-28.7294913387
  0
LINE
  5
290
100
AcDbEntity
  8
IMPORT_IGES
100
AcDbLine
 62
7
  6
CONTINUOUS
 10
61.5717816349
 20
-28.7336646809
 11
61.2634850582
 21
-28.730994525
  0
LINE
  5
291
100
AcDbEntity
  8
IMPORT_IGES
100
AcDbLine
 62
7
  6
CONTINUOUS
 10
61.7755626729
 20
-28.7364349462
 11
61.5717816349
 21
-28.7336646809
  0
LINE
  5
292
100
AcDbEntity
  8
IMPORT_IGES
100
AcDbLine
 62
7
  6
CONTINUOUS
 10
61.8950178256
 20
-28.7386045229
 11
61.7755626729
 21
-28.7364349462
  0
LINE
  5
293
100
AcDbEntity
  8
IMPORT_IGES
100
AcDbLine
 62
7
  6
CONTINUOUS
 10
61.999394577
 20
-28.740999732
 11
61.8950178256
 21
-28.7386045229
  0
LINE
  5
294
100
AcDbEntity
  8
IMPORT_IGES
100
AcDbLine
 62
7
  6
CONTINUOUS
 10
-62.7464448822
 20
-28.7464448822
 11
-62.9476348052
 21
-28.9476348052
  0
LINE
  5
295
100
AcDbEntity
  8
IMPORT_IGES
100
AcDbLine
 62
7
  6
CONTINUOUS
 10
-62.4476348042
 20
-28.9476348053
 11
-62.2551722782
 21
-28.7551722782
  0
LINE
  5
296
100
AcDbEntity
  8
IMPORT_IGES
100
AcDbLine
 62
7
  6
CONTINUOUS
 10
-62.9476348052
 20
28.9476348053
 11
-62.7464448822
 21
28.7464448822
  0
LINE
  5
297
100
AcDbEntity
  8
IMPORT_IGES
100
AcDbLine
 62
7
  6
CONTINUOUS
 10
-62.2551722782
 20
28.7551722781
 11
-62.4476348052
 21
28.9476348053
  0
LINE
  5
298
100
AcDbEntity
  8
IMPORT_IGES
100
AcDbLine
 62
250
  6
CONTINUOUS
 10
-62.2551722099
 20
-38.255400633
 11
-62.4476348031
 21
-38.4478561167
  0
LINE
  5
299
100
AcDbEntity
  8
IMPORT_IGES
100
AcDbLine
 62
250
  6
CONTINUOUS
 10
-60.9478568782
 20
-39.9476348051
 11
-60.7553992894
 21
-39.7551721419
  0
LINE
  5
29A
100
AcDbEntity
  8
IMPORT_IGES
100
AcDbLine
 62
250
  6
CONTINUOUS
 10
-62.4476348052
 20
38.4478632489
 11
-62.255172227
 21
38.2554006416
  0
LINE
  5
29B
100
AcDbEntity
  8
IMPORT_IGES
100
AcDbLine
 62
250
  6
CONTINUOUS
 10
-60.7553992936
 20
39.7551721419
 11
-60.9478606479
 21
39.9476348052
  0
LWPOLYLINE
  5
29C
100
AcDbEntity
  8
IMPORT_IGES
100
AcDbPolyline
 62
7
  6
CONTINUOUS
 90
9
 70
0
 10
62.2551722782
 20
28.7551722782
 10
62.2510980464
 20
28.7536580259
 10
62.2421586267
 20
28.7521604241
 10
62.2283540191
 20
28.7506794729
 10
62.209604521
 20
28.74921043
 10
62.185989835
 20
28.7477580376
 10
62.1577490687
 20
28.7463365226
 10
62.1248377563
 20
28.7449461947
 10
62.0873003634
 20
28.7435867443
  0
LWPOLYLINE
  5
29D
100
AcDbEntity
  8
IMPORT_IGES
100
AcDbPolyline
 62
7
  6
CONTINUOUS
 90
10
 70
0
 10
62.2551722781
 20
-28.7551722782
 10
62.2510906515
 20
-28.7536567329
 10
62.2421430225
 20
-28.7521581376
 10
62.228329391
 20
-28.7506764921
 10
62.2095682884
 20
-28.7492070888
 10
62.1859411833
 20
-28.7477546353
 10
62.1576924822
 20
-28.7463332551
 10
62.124778385
 20
-28.7449432575
 10
62.0872426918
 20
-28.7435843331
 10
61.999394577
 20
-28.740999732
  0
LWPOLYLINE
  5
29E
100
AcDbEntity
  8
0
100
AcDbPolyline
 62
7
  6
CONTINUOUS
 90
4
 70
0
 43
0.3499999917
 10
75.422024231
 20
-2.3571414185
 10
74.5648809814
 20
-2.3571414185
 10
74.1363061523
 20
-1.9285697937
 10
74.1363061523
 20
-1.2857139587
  0
LWPOLYLINE
  5
29F
100
AcDbEntity
  8
0
100
AcDbPolyline
 62
7
  6
CONTINUOUS
 90
13
 70
0
 43
0.3499999917
 10
74.9934494019
 20
0.0000009155
 10
73.7077377319
 20
0.0000009155
 10
73.2791629028
 20
0.2142883301
 10
72.8505944824
 20
0.6428599548
 10
72.8505944824
 20
0.857144165
 10
73.2791629028
 20
1.2857157898
 10
73.7077377319
 20
1.5
 10
74.9934494019
 20
1.5
 10
75.422024231
 20
1.2857157898
 10
75.8505926514
 20
0.857144165
 10
75.8505926514
 20
0.6428599548
 10
75.422024231
 20
0.2142883301
 10
74.9934494019
 20
0.0000009155
  0
LWPOLYLINE
  5
2A0
100
AcDbEntity
  8
IMPORT_IGES
100
AcDbPolyline
 62
7
  6
CONTINUOUS
 90
10
 70
0
 10
-62.7464375139
 20
28.7464448844
 10
-62.7423670397
 20
28.7449306376
 10
-62.7334305967
 20
28.743433041
 10
-62.719628185
 20
28.7419520944
 10
-62.7008798319
 20
28.7404830559
 10
-62.67726551
 20
28.7390306675
 10
-62.6490251371
 20
28.7376091557
 10
-62.6161145211
 20
28.7362188301
 10
-62.5785778542
 20
28.7348593811
 10
-62.4907026159
 20
28.7322734313
  0
LINE
  5
2A1
100
AcDbEntity
  8
IMPORT_IGES
100
AcDbLine
 62
250
  6
CONTINUOUS
 10
60.9478518242
 20
39.947634805
 11
60.7553989647
 21
39.7551721419
  0
LINE
  5
2A2
100
AcDbEntity
  8
IMPORT_IGES
100
AcDbLine
 62
250
  6
CONTINUOUS
 10
60.7553989693
 20
-39.7551721089
 11
60.9478599997
 21
-39.9476348052
  0
LINE
  5
2A3
100
AcDbEntity
  8
IMPORT_IGES
100
AcDbLine
 62
250
  6
CONTINUOUS
 10
62.2551722099
 20
38.255400633
 11
62.4476348025
 21
38.4478543452
  0
LINE
  5
2A4
100
AcDbEntity
  8
IMPORT_IGES
100
AcDbLine
 62
250
  6
CONTINUOUS
 10
62.4476348052
 20
-38.4478632456
 11
62.255172227
 21
-38.2554006416
  0
LINE
  5
2A5
100
AcDbEntity
  8
IMPORT_IGES
100
AcDbLine
 62
7
  6
CONTINUOUS
 10
62.4476348039
 20
28.9476348053
 11
62.2551722782
 21
28.7551722782
  0
LINE
  5
2A6
100
AcDbEntity
  8
IMPORT_IGES
100
AcDbLine
 62
7
  6
CONTINUOUS
 10
62.9476348053
 20
28.9476348052
 11
62.7464448822
 21
28.7464448822
  0
LINE
  5
2A7
100
AcDbEntity
  8
IMPORT_IGES
100
AcDbLine
 62
7
  6
CONTINUOUS
 10
62.4476348053
 20
-28.9476348052
 11
62.2551722781
 21
-28.7551722782
  0
LINE
  5
2A8
100
AcDbEntity
  8
IMPORT_IGES
100
AcDbLine
 62
7
  6
CONTINUOUS
 10
62.9476348052
 20
-28.9476348052
 11
62.7464448822
 21
-28.7464448821
  0
LWPOLYLINE
  5
2A9
100
AcDbEntity
  8
IMPORT_IGES
100
AcDbPolyline
 62
7
  6
CONTINUOUS
 90
9
 70
0
 10
62.5785803997
 20
28.7348594666
 10
62.6161166525
 20
28.7362189136
 10
62.6490268573
 20
28.7376092348
 10
62.6772665465
 20
28.7390307397
 10
62.7008801876
 20
28.7404831188
 10
62.7196287452
 20
28.7419521452
 10
62.733432541
 20
28.7434330768
 10
62.7423712533
 20
28.7449306558
 10
62.7464448822
 20
28.7464448822
  0
LINE
  5
2AA
100
AcDbEntity
  8
IMPORT_IGES
100
AcDbLine
 62
7
  6
CONTINUOUS
 10
62.4907058263
 20
28.7322735147
 11
62.5785803997
 21
28.7348594666
  0
LINE
  5
2AB
100
AcDbEntity
  8
IMPORT_IGES
100
AcDbLine
 62
7
  6
CONTINUOUS
 10
62.0873003634
 20
28.7435867443
 11
61.999423616
 21
28.7410007945
  0
LINE
  5
2AC
100
AcDbEntity
  8
IMPORT_IGES
100
AcDbLine
 62
7
  6
CONTINUOUS
 10
62.3862717238
 20
28.7298766959
 11
62.4907058263
 21
28.7322735147
  0
LINE
  5
2AD
100
AcDbEntity
  8
IMPORT_IGES
100
AcDbLine
 62
7
  6
CONTINUOUS
 10
61.999423616
 20
28.7410007945
 11
61.894987535
 21
28.7386039893
  0
LWPOLYLINE
  5
2AE
100
AcDbEntity
  8
IMPORT_IGES
100
AcDbPolyline
 62
250
  6
CONTINUOUS
 90
4
 70
0
 10
61.0136210123
 20
29.8160192396
 10
60.9281244493
 20
29.8145454246
 10
60.841956731
 20
29.814800345
 10
60.7554028789
 20
29.8167840009
  0
LINE
  5
2AF
100
AcDbEntity
  8
IMPORT_IGES
100
AcDbLine
 62
7
  6
CONTINUOUS
 10
62.2019357581
 20
28.7267149198
 11
62.3862717238
 21
28.7298766959
  0
LINE
  5
2B0
100
AcDbEntity
  8
IMPORT_IGES
100
AcDbLine
 62
7
  6
CONTINUOUS
 10
61.894987535
 20
28.7386039893
 11
61.7106493298
 21
28.735442251
  0
LWPOLYLINE
  5
2B1
100
AcDbEntity
  8
IMPORT_IGES
100
AcDbPolyline
 62
250
  6
CONTINUOUS
 90
64
 70
0
 10
60.7554006765
 20
30.0139867039
 10
60.8617130774
 20
30.015106692
 10
60.9612403346
 20
30.017038888
 10
61.0539824482
 20
30.0199182949
 10
61.139534949
 20
30.0240770928
 10
61.2183023061
 20
30.029639107
 10
61.2914979271
 20
30.0363635925
 10
61.3587644354
 20
30.044240891
 10
61.4204592076
 20
30.05358994
 10
61.4788677803
 20
30.0645226343
 10
61.5349149863
 20
30.0771804877
 10
61.5876759929
 20
30.0917691908
 10
61.6366618381
 20
30.1084918195
 10
61.6814156688
 20
30.1274379116
 10
61.7223943382
 20
30.1488833885
 10
61.7604794441
 20
30.1733883925
 10
61.7959058576
 20
30.2015995175
 10
61.8284387076
 20
30.2334357477
 10
61.8582549782
 20
30.2682778276
 10
61.8854475562
 20
30.3061777605
 10
61.9099235548
 20
30.3472165066
 10
61.9315812981
 20
30.3905098789
 10
61.9502068653
 20
30.4353992016
 10
61.9660141772
 20
30.4822865753
 10
61.9795433197
 20
30.5318117507
 10
61.990775707
 20
30.5842074113
 10
61.9997299251
 20
30.6391068217
 10
62.0070018169
 20
30.6962846261
 10
62.0126434493
 20
30.7553606166
 10
62.0166027556
 20
30.816388892
 10
62.0193193789
 20
30.8797735705
 10
62.0209506887
 20
30.9463696082
 10
62.0213393156
 20
31.0148569529
 10
62.020452794
 20
31.0823268513
 10
62.0184478584
 20
31.1475533818
 10
62.0151677743
 20
31.2112142841
 10
62.010109873
 20
31.273278131
 10
62.0033023647
 20
31.3336782178
 10
61.9947170393
 20
31.392055936
 10
61.9837665975
 20
31.4479854041
 10
61.9704016592
 20
31.501270919
 10
61.9546716046
 20
31.5518707095
 10
61.9361372755
 20
31.5996520032
 10
61.9146325492
 20
31.6447086575
 10
61.8903235484
 20
31.6868452194
 10
61.8632694833
 20
31.7256061393
 10
61.8335637187
 20
31.7611137898
 10
61.8011128898
 20
31.7934278525
 10
61.7656961121
 20
31.822200109
 10
61.7274627192
 20
31.8474532338
 10
61.6862633775
 20
31.8696667683
 10
61.6414292021
 20
31.8892480658
 10
61.592473415
 20
31.9064695029
 10
61.5398827942
 20
31.9214550038
 10
61.4844487884
 20
31.9343608848
 10
61.4275224993
 20
31.9453510491
 10
61.3677528251
 20
31.9546754039
 10
61.301877909
 20
31.9625965573
 10
61.2294213458
 20
31.969457782
 10
61.1508595408
 20
31.9751850668
 10
61.0643598523
 20
31.9795196848
 10
60.9693113999
 20
31.9825787289
 10
60.866325064
 20
31.9846966573
 10
60.7554008446
 20
31.9860132963
  0
LINE
  5
2B2
100
AcDbEntity
  8
IMPORT_IGES
100
AcDbLine
 62
7
  6
CONTINUOUS
 10
61.9131595087
 20
28.723445935
 11
62.2019357581
 21
28.7267149198
  0
LINE
  5
2B3
100
AcDbEntity
  8
IMPORT_IGES
100
AcDbLine
 62
7
  6
CONTINUOUS
 10
61.7106493298
 20
28.735442251
 11
61.4218719672
 21
28.7321733368
  0
LINE
  5
2B4
100
AcDbEntity
  8
IMPORT_IGES
100
AcDbLine
 62
7
  6
CONTINUOUS
 10
61.5889169518
 20
28.7214100062
 11
61.9131595087
 21
28.723445935
  0
LINE
  5
2B5
100
AcDbEntity
  8
IMPORT_IGES
100
AcDbLine
 62
7
  6
CONTINUOUS
 10
61.4218719672
 20
28.7321733368
 11
61.0976306002
 21
28.7301374732
  0
LINE
  5
2B6
100
AcDbEntity
  8
IMPORT_IGES
100
AcDbLine
 62
7
  6
CONTINUOUS
 10
61.0976306002
 20
28.7301374732
 11
-60.7554029187
 21
28.7294464936
  0
LINE
  5
2B7
100
AcDbEntity
  8
IMPORT_IGES
100
AcDbLine
 62
7
  6
CONTINUOUS
 10
62.9476348052
 20
28.9476348053
 11
62.4476348053
 21
28.9476348053
  0
LINE
  5
2B8
100
AcDbEntity
  8
IMPORT_IGES
100
AcDbLine
 62
7
  6
CONTINUOUS
 10
-62.4476348052
 20
28.9476348053
 11
-62.9476348053
 21
28.9476348053
  0
LINE
  5
2B9
100
AcDbEntity
  8
IMPORT_IGES
100
AcDbLine
 62
7
  6
CONTINUOUS
 10
63.0349101299
 20
29.0349101299
 11
62.5349101299
 21
29.0349101299
  0
LINE
  5
2BA
100
AcDbEntity
  8
IMPORT_IGES
100
AcDbLine
 62
7
  6
CONTINUOUS
 10
-62.5349101299
 20
29.0349101299
 11
-63.0349101299
 21
29.0349101299
  0
LINE
  5
2BB
100
AcDbEntity
  8
IMPORT_IGES
100
AcDbLine
 62
250
  6
CONTINUOUS
 10
-60.7554029187
 20
29.81678404
 11
60.755402549
 21
29.8167840204
  0
LINE
  5
2BC
100
AcDbEntity
  8
IMPORT_IGES
100
AcDbLine
 62
250
  6
CONTINUOUS
 10
60.7554006765
 20
30.0139867039
 11
-60.7554008872
 21
30.0139867038
  0
LINE
  5
2BD
100
AcDbEntity
  8
IMPORT_IGES
100
AcDbLine
 62
7
  6
CONTINUOUS
 10
-61.3334752736
 20
28.7207636306
 11
61.5889169518
 21
28.7214100062
  0
LINE
  5
2BE
100
AcDbEntity
  8
IMPORT_IGES
100
AcDbLine
 62
7
  6
CONTINUOUS
 10
-60.7554006081
 20
28.729446365
 11
-61.1812334278
 21
28.7305241729
  0
LINE
  5
2BF
100
AcDbEntity
  8
IMPORT_IGES
100
AcDbLine
 62
7
  6
CONTINUOUS
 10
-61.7544274734
 20
28.7222646421
 11
-61.3334752736
 21
28.7207636306
  0
LINE
  5
2C0
100
AcDbEntity
  8
IMPORT_IGES
100
AcDbLine
 62
7
  6
CONTINUOUS
 10
-61.1812334278
 20
28.7305241729
 11
-61.4979474378
 21
28.7328796819
  0
LINE
  5
2C1
100
AcDbEntity
  8
IMPORT_IGES
100
AcDbLine
 62
7
  6
CONTINUOUS
 10
-62.062815124
 20
28.7249342327
 11
-61.7544274734
 21
28.7222646421
  0
LINE
  5
2C2
100
AcDbEntity
  8
IMPORT_IGES
100
AcDbLine
 62
7
  6
CONTINUOUS
 10
-61.4979474378
 20
28.7328796819
 11
-61.7106563557
 21
28.7354423523
  0
LINE
  5
2C3
100
AcDbEntity
  8
IMPORT_IGES
100
AcDbLine
 62
7
  6
CONTINUOUS
 10
-62.2667315633
 20
28.7277056795
 11
-62.062815124
 21
28.7249342327
  0
LINE
  5
2C4
100
AcDbEntity
  8
IMPORT_IGES
100
AcDbLine
 62
7
  6
CONTINUOUS
 10
-62.3862681084
 20
28.7298766221
 11
-62.2667315633
 21
28.7277056795
  0
LINE
  5
2C5
100
AcDbEntity
  8
IMPORT_IGES
100
AcDbLine
 62
7
  6
CONTINUOUS
 10
-61.7106563557
 20
28.7354423523
 11
-61.8949935601
 21
28.7386041122
  0
LINE
  5
2C6
100
AcDbEntity
  8
IMPORT_IGES
100
AcDbLine
 62
7
  6
CONTINUOUS
 10
-62.4907026159
 20
28.7322734313
 11
-62.3862681084
 21
28.7298766221
  0
LINE
  5
2C7
100
AcDbEntity
  8
IMPORT_IGES
100
AcDbLine
 62
7
  6
CONTINUOUS
 10
-61.8949935601
 20
28.7386041122
 11
-61.9994285519
 21
28.7410009226
  0
LWPOLYLINE
  5
2C8
100
AcDbEntity
  8
IMPORT_IGES
100
AcDbPolyline
 62
7
  6
CONTINUOUS
 90
10
 70
0
 10
-61.9994285519
 20
28.7410009226
 10
-62.0873040467
 20
28.7435868682
 10
-62.1248407702
 20
28.7449463127
 10
-62.1577514472
 20
28.7463366319
 10
-62.1859916098
 20
28.7477581354
 10
-62.2096057258
 20
28.7492105136
 10
-62.2283547547
 20
28.7506795396
 10
-62.2421590163
 20
28.7521604712
 10
-62.2510981908
 20
28.7536580508
 10
-62.2551722782
 20
28.7551722782
  0
LWPOLYLINE
  5
2C9
100
AcDbEntity
  8
IMPORT_IGES
100
AcDbPolyline
 62
250
  6
CONTINUOUS
 90
64
 70
0
 10
60.7554006837
 20
32.18321596
 10
60.8423066902
 20
32.1852208233
 10
60.9299253767
 20
32.1853878691
 10
61.0179399436
 20
32.1837170975
 10
61.1061559438
 20
32.1802439216
 10
61.194073182
 20
32.1749329282
 10
61.2809099424
 20
32.1676778783
 10
61.3671635688
 20
32.1584369129
 10
61.4515640062
 20
32.147251891
 10
61.5309559732
 20
32.1341421501
 10
61.6044324297
 20
32.1195476073
 10
61.6729123341
 20
32.1030283454
 10
61.7363336277
 20
32.083283951
 10
61.7944577988
 20
32.0601696451
 10
61.8477970544
 20
32.0338302066
 10
61.8973444143
 20
32.0033995589
 10
61.9437467527
 20
31.9684381139
 10
61.9863975495
 20
31.9293854598
 10
62.0244916514
 20
31.8866942839
 10
62.0583989589
 20
31.8401804865
 10
62.0883214808
 20
31.7900281672
 10
62.1136445469
 20
31.7372423126
 10
62.1344745346
 20
31.6820633593
 10
62.1517621148
 20
31.6242508706
 10
62.1662684121
 20
31.5640885233
 10
62.1784280275
 20
31.5012993411
 10
62.1884202431
 20
31.4361603003
 10
62.1965013141
 20
31.3697860067
 10
62.2029491253
 20
31.3022390395
 10
62.2079224314
 20
31.2334568195
 10
62.2114671956
 20
31.1643662149
 10
62.2136920413
 20
31.0952186856
 10
62.2147195951
 20
31.0257627716
 10
62.2145658468
 20
30.9561709616
 10
62.2131972706
 20
30.8862113354
 10
62.2105825394
 20
30.8161158131
 10
62.2066717929
 20
30.7467526444
 10
62.2012668274
 20
30.6779430271
 10
62.1942195469
 20
30.6098657633
 10
62.1855329416
 20
30.5439255088
 10
62.1751215884
 20
30.4804582864
 10
62.162609889
 20
30.4191280734
 10
62.1475266405
 20
30.3603314574
 10
62.1294308833
 20
30.3040157212
 10
62.1080277349
 20
30.2502335822
 10
62.0830037777
 20
30.1995397793
 10
62.0535119088
 20
30.1518790408
 10
62.0195173528
 20
30.1073066386
 10
61.9822417572
 20
30.0665431275
 10
61.9419916504
 20
30.0298100274
 10
61.8983290485
 20
29.9968858184
 10
61.8517881871
 20
29.9678264961
 10
61.803203916
 20
29.9431806212
 10
61.751892348
 20
29.922399633
 10
61.6959830873
 20
29.9038938446
 10
61.6343146003
 20
29.8873795025
 10
61.5676833332
 20
29.8731403602
 10
61.4970777735
 20
29.8604379911
 10
61.4223961321
 20
29.8489892134
 10
61.343874203
 20
29.8390772089
 10
61.2632966887
 20
29.8308130973
 10
61.1814859734
 20
29.824206971
 10
61.0981679072
 20
29.8192487376
 10
61.0136210123
 20
29.8160192396
  0
LWPOLYLINE
  5
2CA
100
AcDbEntity
  8
IMPORT_IGES
100
AcDbPolyline
 62
250
  6
CONTINUOUS
 90
64
 70
0
 10
-60.755402637
 20
29.81678404
 10
-60.842334209
 20
29.814780621
 10
-60.9299658401
 20
29.8146138321
 10
-61.0179807818
 20
29.8162836734
 10
-61.1061832328
 20
29.8197550945
 10
-61.194075304
 20
29.8250631458
 10
-61.2808809754
 20
29.8323129781
 10
-61.3670948116
 20
29.8415442802
 10
-61.4514515286
 20
29.8527173633
 10
-61.5308112994
 20
29.8658183118
 10
-61.604272048
 20
29.8804106715
 10
-61.6727458593
 20
29.8969308966
 10
-61.7361669277
 20
29.9166744344
 10
-61.7942964102
 20
29.9397854451
 10
-61.8476454505
 20
29.9661197685
 10
-61.8972031038
 20
29.9965403713
 10
-61.9436129712
 20
30.0314817287
 10
-61.9862719579
 20
30.0705093655
 10
-62.0243803125
 20
30.1131828229
 10
-62.0583110947
 20
30.159690599
 10
-62.0882598509
 20
30.2098441956
 10
-62.1136036651
 20
30.2626376599
 10
-62.1344474576
 20
30.3178330235
 10
-62.1517452081
 20
30.3756682547
 10
-62.1662587557
 20
30.4358513055
 10
-62.1784227897
 20
30.4986576223
 10
-62.1884174695
 20
30.5638117586
 10
-62.1965005388
 20
30.6301953271
 10
-62.2029503344
 20
30.6977429817
 10
-62.2079252855
 20
30.7665200685
 10
-62.2114714201
 20
30.8356042387
 10
-62.2136976374
 20
30.9047432882
 10
-62.2147264275
 20
30.9741894211
 10
-62.2145732413
 20
31.0437769002
 10
-62.2132044131
 20
31.1137410207
 10
-62.2105887188
 20
31.1838464873
 10
-62.2066760412
 20
31.2532216776
 10
-62.201267544
 20
31.3220447274
 10
-62.1942152409
 20
31.3901375007
 10
-62.1855231055
 20
31.4560939674
 10
-62.1751064058
 20
31.5195784267
 10
-62.1625887941
 20
31.5809265792
 10
-62.1474979365
 20
31.6397394966
 10
-62.1293906977
 20
31.6960719583
 10
-62.1079734629
 20
31.7498691848
 10
-62.0829376488
 20
31.8005679088
 10
-62.0534391302
 20
31.8482172728
 10
-62.0194422242
 20
31.8927681342
 10
-61.9821684955
 20
31.9335097985
 10
-61.9419273761
 20
31.9702216815
 10
-61.8982796609
 20
32.0031243674
 10
-61.8517515731
 20
32.0321689137
 10
-61.8031727863
 20
32.0568110415
 10
-61.7518627822
 20
32.0775950297
 10
-61.695955219
 20
32.096104773
 10
-61.6342901905
 20
32.11262303
 10
-61.5676626222
 20
32.126867042
 10
-61.4970609115
 20
32.1395724275
 10
-61.422383672
 20
32.1510207846
 10
-61.3438662255
 20
32.1609305151
 10
-61.2632917262
 20
32.1691924436
 10
-61.1814810358
 20
32.1757970618
 10
-61.098161224
 20
32.1807538779
 10
-61.0136134241
 20
32.183982241
  0
LWPOLYLINE
  5
2CB
100
AcDbEntity
  8
IMPORT_IGES
100
AcDbPolyline
 62
250
  6
CONTINUOUS
 90
64
 70
0
 10
60.7554006375
 20
34.68321596
 10
60.8423066731
 20
34.6852208269
 10
60.9299253762
 20
34.6853878758
 10
61.0179399471
 20
34.6837171068
 10
61.1061559351
 20
34.6802439328
 10
61.1940731496
 20
34.674932941
 10
61.2809098863
 20
34.6676778923
 10
61.3671634895
 20
34.6584369278
 10
61.4515639044
 20
34.6472519066
 10
61.5309558595
 20
34.6341421668
 10
61.6044323172
 20
34.6195476264
 10
61.6729122312
 20
34.6030283674
 10
61.7363335401
 20
34.5832839752
 10
61.7944577333
 20
34.5601696719
 10
61.8477970148
 20
34.5338302354
 10
61.8973443964
 20
34.5033995835
 10
61.9437467497
 20
34.4684381256
 10
61.9863975581
 20
34.4293854523
 10
62.0244916707
 20
34.3866942542
 10
62.0583989897
 20
34.3401804301
 10
62.0883215218
 20
34.2900280812
 10
62.1136445933
 20
34.2372422014
 10
62.1344745819
 20
34.1820632288
 10
62.1517621601
 20
34.1242507253
 10
62.1662684525
 20
34.0640883705
 10
62.1784280598
 20
34.001299191
 10
62.1884202657
 20
33.9361601602
 10
62.1965013287
 20
33.8697858786
 10
62.202949134
 20
33.8022389254
 10
62.2079224353
 20
33.7334567214
 10
62.2114671963
 20
33.6643661294
 10
62.2136920412
 20
33.5952186093
 10
62.2147195954
 20
33.5257627012
 10
62.2145658467
 20
33.4561708886
 10
62.2131972691
 20
33.3862112482
 10
62.2105825355
 20
33.3161157032
 10
62.2066717841
 20
33.2467525071
 10
62.2012668092
 20
33.1779428581
 10
62.1942195153
 20
33.1098655579
 10
62.1855328945
 20
33.0439252654
 10
62.1751215251
 20
32.9804580027
 10
62.1626098067
 20
32.9191277478
 10
62.1475265329
 20
32.8603310929
 10
62.1294307468
 20
32.8040153258
 10
62.1080275616
 20
32.7502331588
 10
62.0830035416
 20
32.6995393218
 10
62.053511562
 20
32.6518785314
 10
62.0195168563
 20
32.6073060709
 10
61.9822411057
 20
32.5665425207
 10
61.9419908489
 20
32.5298094087
 10
61.898328098
 20
32.4968852069
 10
61.8517871125
 20
32.4678259121
 10
61.8032027739
 20
32.4431800957
 10
61.7518911768
 20
32.4223991862
 10
61.695981871
 20
32.4038934659
 10
61.6343132693
 20
32.3873791649
 10
61.5676818644
 20
32.373140053
 10
61.4970762428
 20
32.3604377219
 10
61.4223947194
 20
32.3489890009
 10
61.3438730048
 20
32.3390770605
 10
61.263295613
 20
32.3308130038
 10
61.1814848262
 20
32.3242069165
 10
61.0981665783
 20
32.3192487129
 10
61.0136194733
 20
32.3160192387
  0
LWPOLYLINE
  5
2CC
100
AcDbEntity
  8
IMPORT_IGES
100
AcDbPolyline
 62
250
  6
CONTINUOUS
 90
64
 70
0
 10
-60.7554006831
 20
32.31678404
 10
-60.8423325397
 20
32.3147806201
 10
-60.9299644719
 20
32.3146138293
 10
-61.0179797279
 20
32.3162836677
 10
-61.1061825473
 20
32.319755085
 10
-61.1940749914
 20
32.3250631315
 10
-61.2808809075
 20
32.3323129575
 10
-61.3670947732
 20
32.3415442475
 10
-61.4514514089
 20
32.3527173171
 10
-61.5308111391
 20
32.365818264
 10
-61.6042719442
 20
32.3804106428
 10
-61.6727458408
 20
32.3969308988
 10
-61.7361669791
 20
32.4166744662
 10
-61.7942965068
 20
32.4397855021
 10
-61.84764558
 20
32.4661198493
 10
-61.8972032481
 20
32.4965404703
 10
-61.9436131083
 20
32.5314818367
 10
-61.9862720754
 20
32.5705094769
 10
-62.0243804117
 20
32.6131829394
 10
-62.0583111803
 20
32.659690725
 10
-62.0882599238
 20
32.7098443329
 10
-62.1136037271
 20
32.7626378089
 10
-62.134447511
 20
32.8178331854
 10
-62.1517452545
 20
32.87566843
 10
-62.1662587954
 20
32.9358514911
 10
-62.1784228227
 20
32.9986578146
 10
-62.1884174964
 20
33.0638119546
 10
-62.19650056
 20
33.1301955216
 10
-62.2029503501
 20
33.1977431675
 10
-62.2079252961
 20
33.2665202403
 10
-62.2114714266
 20
33.3356043943
 10
-62.2136976408
 20
33.4047434257
 10
-62.2147264284
 20
33.4741895383
 10
-62.2145732403
 20
33.5437769979
 10
-62.213204411
 20
33.6137410997
 10
-62.2105887161
 20
33.6838465485
 10
-62.2066760381
 20
33.7532217237
 10
-62.2012675409
 20
33.8220447619
 10
-62.194215238
 20
33.8901375266
 10
-62.1855231025
 20
33.9560939879
 10
-62.1751064022
 20
34.0195784457
 10
-62.1625887894
 20
34.0809266001
 10
-62.1474979296
 20
34.1397395211
 10
-62.1293906868
 20
34.1960719882
 10
-62.1079734462
 20
34.2498692219
 10
-62.0829376242
 20
34.3005679532
 10
-62.0534390938
 20
34.3482173252
 10
-62.019442173
 20
34.3927681948
 10
-61.9821684297
 20
34.4335098639
 10
-61.9419272981
 20
34.4702217464
 10
-61.8982795719
 20
34.5031244283
 10
-61.851751474
 20
34.5321689695
 10
-61.8031726766
 20
34.5568110914
 10
-61.7518626632
 20
34.5775950726
 10
-61.6959550973
 20
34.5961048086
 10
-61.6342900779
 20
34.6126230577
 10
-61.5676625273
 20
34.6268670615
 10
-61.4970608344
 20
34.6395724403
 10
-61.4223836091
 20
34.651020793
 10
-61.343866176
 20
34.6609305206
 10
-61.2632916905
 20
34.6691924469
 10
-61.1814810157
 20
34.6757970634
 10
-61.0981612194
 20
34.6807538784
 10
-61.0136134301
 20
34.6839822408
  0
LWPOLYLINE
  5
2CD
100
AcDbEntity
  8
IMPORT_IGES
100
AcDbPolyline
 62
250
  6
CONTINUOUS
 90
4
 70
0
 10
61.0136194733
 20
32.3160192387
 10
60.9281227012
 20
32.3145454427
 10
60.8419547481
 20
32.3148003762
 10
60.7554006375
 20
32.3167840393
  0
LWPOLYLINE
  5
2CE
100
AcDbEntity
  8
IMPORT_IGES
100
AcDbPolyline
 62
250
  6
CONTINUOUS
 90
4
 70
0
 10
61.0136194733
 20
34.8160192387
 10
60.9281227012
 20
34.8145454427
 10
60.8419547481
 20
34.8148003762
 10
60.7554006375
 20
34.8167840393
  0
LWPOLYLINE
  5
2CF
100
AcDbEntity
  8
IMPORT_IGES
100
AcDbPolyline
 62
250
  6
CONTINUOUS
 90
4
 70
0
 10
-61.0136134241
 20
32.183982241
 10
-60.9281177348
 20
32.1854552673
 10
-60.8419518002
 20
32.1851998406
 10
-60.7554006371
 20
32.1832159608
  0
LWPOLYLINE
  5
2D0
100
AcDbEntity
  8
IMPORT_IGES
100
AcDbPolyline
 62
250
  6
CONTINUOUS
 90
64
 70
0
 10
-60.7554007696
 20
31.986013296
 10
-60.8673644681
 20
31.9846520051
 10
-60.9706731796
 20
31.9825196687
 10
-61.0653269039
 20
31.9794825227
 10
-61.1505109957
 20
31.9752249681
 10
-61.2270401003
 20
31.9696389146
 10
-61.2973581542
 20
31.9629700305
 10
-61.3610946986
 20
31.955253403
 10
-61.4186201921
 20
31.9461946231
 10
-61.4734899472
 20
31.9356708566
 10
-61.5270057452
 20
31.9235474826
 10
-61.5778658048
 20
31.9096509911
 10
-61.625720094
 20
31.8937958042
 10
-61.6705586674
 20
31.8757931056
 10
-61.7123914706
 20
31.8554904838
 10
-61.750898308
 20
31.832758344
 10
-61.7857146327
 20
31.8074385742
 10
-61.8172049916
 20
31.7793805841
 10
-61.8461428308
 20
31.7484907688
 10
-61.8726887213
 20
31.7146408126
 10
-61.896682092
 20
31.6777256094
 10
-61.9184146755
 20
31.637725874
 10
-61.9379252318
 20
31.5946262408
 10
-61.955175001
 20
31.5483431044
 10
-61.9703394355
 20
31.498791108
 10
-61.9834406328
 20
31.4457919851
 10
-61.9944564954
 20
31.389561217
 10
-62.0034961834
 20
31.330688141
 10
-62.0104477469
 20
31.2695513906
 10
-62.0154231358
 20
31.2061148441
 10
-62.0188673589
 20
31.1404272266
 10
-62.0208277711
 20
31.0717976608
 10
-62.0212570175
 20
31.0014403701
 10
-62.0204580425
 20
30.9323335689
 10
-62.0186791156
 20
30.8657481186
 10
-62.0156719672
 20
30.8009992287
 10
-62.010994733
 20
30.7381060737
 10
-62.0047553144
 20
30.6772486971
 10
-61.99684581
 20
30.6186539681
 10
-61.9865006508
 20
30.5623838935
 10
-61.9736560549
 20
30.5086020595
 10
-61.9583758042
 20
30.4574083688
 10
-61.9400856759
 20
30.4087576103
 10
-61.9185237375
 20
30.3624512361
 10
-61.8939519215
 20
30.3188881412
 10
-61.866581802
 20
30.27879764
 10
-61.8364265712
 20
30.2420147443
 10
-61.8034730371
 20
30.2085427059
 10
-61.7678931975
 20
30.179050877
 10
-61.7300185961
 20
30.1536257637
 10
-61.6895176893
 20
30.1315238607
 10
-61.6455678442
 20
30.1120797892
 10
-61.5978317646
 20
30.0950118605
 10
-61.5466467466
 20
30.080186915
 10
-61.4922020456
 20
30.0672836928
 10
-61.4355928077
 20
30.0561024036
 10
-61.3757238868
 20
30.0465055015
 10
-61.3094990997
 20
30.0383100368
 10
-61.2365191237
 20
30.0311702536
 10
-61.1571832815
 20
30.0251793236
 10
-61.0695933583
 20
30.020662207
 10
-60.9731166157
 20
30.0175015797
 10
-60.868385792
 20
30.0153262104
 10
-60.7554008872
 20
30.0139867038
  0
LWPOLYLINE
  5
2D1
100
AcDbEntity
  8
IMPORT_IGES
100
AcDbPolyline
 62
250
  6
CONTINUOUS
 90
64
 70
0
 10
-60.7554007696
 20
34.486013296
 10
-60.8673644681
 20
34.4846520051
 10
-60.9706731796
 20
34.4825196687
 10
-61.0653269039
 20
34.4794825227
 10
-61.1505109956
 20
34.4752249681
 10
-61.2270401003
 20
34.4696389146
 10
-61.2973581542
 20
34.4629700305
 10
-61.3610946985
 20
34.455253403
 10
-61.4186201921
 20
34.4461946231
 10
-61.4734899472
 20
34.4356708567
 10
-61.5270057452
 20
34.4235474826
 10
-61.5778658047
 20
34.4096509911
 10
-61.625720094
 20
34.3937958042
 10
-61.6705586674
 20
34.3757931057
 10
-61.7123914705
 20
34.3554904838
 10
-61.750898308
 20
34.332758344
 10
-61.7857146326
 20
34.3074385742
 10
-61.8172049916
 20
34.2793805841
 10
-61.8461428308
 20
34.2484907688
 10
-61.8726887213
 20
34.2146408126
 10
-61.8966820919
 20
34.1777256095
 10
-61.9184146755
 20
34.137725874
 10
-61.9379252318
 20
34.0946262408
 10
-61.955175001
 20
34.0483431044
 10
-61.9703394355
 20
33.998791108
 10
-61.9834406328
 20
33.9457919852
 10
-61.9944564954
 20
33.8895612171
 10
-62.0034961834
 20
33.830688141
 10
-62.0104477469
 20
33.7695513907
 10
-62.0154231358
 20
33.7061148442
 10
-62.0188673589
 20
33.6404272267
 10
-62.0208277711
 20
33.5717976609
 10
-62.0212570175
 20
33.5014403701
 10
-62.0204580425
 20
33.4323335689
 10
-62.0186791156
 20
33.3657481187
 10
-62.0156719672
 20
33.3009992287
 10
-62.010994733
 20
33.2381060737
 10
-62.0047553144
 20
33.1772486971
 10
-61.99684581
 20
33.1186539681
 10
-61.9865006508
 20
33.0623838936
 10
-61.9736560549
 20
33.0086020596
 10
-61.9583758042
 20
32.9574083688
 10
-61.9400856759
 20
32.9087576103
 10
-61.9185237375
 20
32.8624512361
 10
-61.8939519215
 20
32.8188881412
 10
-61.866581802
 20
32.77879764
 10
-61.8364265712
 20
32.7420147443
 10
-61.8034730371
 20
32.7085427059
 10
-61.7678931975
 20
32.679050877
 10
-61.7300185961
 20
32.6536257637
 10
-61.6895176893
 20
32.6315238607
 10
-61.6455678442
 20
32.6120797892
 10
-61.5978317646
 20
32.5950118605
 10
-61.5466467466
 20
32.580186915
 10
-61.4922020456
 20
32.5672836928
 10
-61.4355928077
 20
32.5561024036
 10
-61.3757238868
 20
32.5465055015
 10
-61.3094990997
 20
32.5383100368
 10
-61.2365191237
 20
32.5311702536
 10
-61.1571832815
 20
32.5251793236
 10
-61.0695933583
 20
32.520662207
 10
-60.9731166157
 20
32.5175015797
 10
-60.868385792
 20
32.5153262104
 10
-60.7554008872
 20
32.5139867038
  0
LWPOLYLINE
  5
2D2
100
AcDbEntity
  8
IMPORT_IGES
100
AcDbPolyline
 62
250
  6
CONTINUOUS
 90
64
 70
0
 10
60.7554006765
 20
32.5139867039
 10
60.8617130774
 20
32.515106692
 10
60.9612403347
 20
32.517038888
 10
61.0539824483
 20
32.5199182949
 10
61.1395349491
 20
32.5240770929
 10
61.2183023063
 20
32.529639107
 10
61.2914979273
 20
32.5363635925
 10
61.3587644356
 20
32.544240891
 10
61.4204592078
 20
32.55358994
 10
61.4788677805
 20
32.5645226343
 10
61.5349149866
 20
32.5771804878
 10
61.5876759932
 20
32.5917691909
 10
61.6366618384
 20
32.6084918196
 10
61.6814156691
 20
32.6274379117
 10
61.7223943385
 20
32.6488833886
 10
61.7604794444
 20
32.6733883928
 10
61.7959058579
 20
32.7015995178
 10
61.8284387079
 20
32.733435748
 10
61.8582549785
 20
32.7682778279
 10
61.8854475565
 20
32.8061777609
 10
61.9099235551
 20
32.8472165071
 10
61.9315812983
 20
32.8905098794
 10
61.9502068655
 20
32.9353992021
 10
61.9660141773
 20
32.9822865758
 10
61.9795433198
 20
33.0318117513
 10
61.9907757072
 20
33.0842074119
 10
61.9997299251
 20
33.1391068223
 10
62.007001817
 20
33.1962846267
 10
62.0126434494
 20
33.2553606172
 10
62.0166027556
 20
33.3163888926
 10
62.0193193789
 20
33.3797735711
 10
62.0209506888
 20
33.4463696088
 10
62.0213393156
 20
33.5148569534
 10
62.020452794
 20
33.5823268518
 10
62.0184478584
 20
33.6475533823
 10
62.0151677742
 20
33.7112142845
 10
62.010109873
 20
33.7732781314
 10
62.0033023647
 20
33.8336782182
 10
61.9947170392
 20
33.8920559363
 10
61.9837665975
 20
33.9479854045
 10
61.9704016591
 20
34.0012709193
 10
61.9546716045
 20
34.0518707099
 10
61.9361372753
 20
34.0996520035
 10
61.914632549
 20
34.1447086578
 10
61.8903235482
 20
34.1868452197
 10
61.8632694831
 20
34.2256061396
 10
61.8335637185
 20
34.26111379
 10
61.8011128895
 20
34.2934278528
 10
61.7656961118
 20
34.3222001092
 10
61.7274627189
 20
34.347453234
 10
61.6862633772
 20
34.3696667685
 10
61.6414292017
 20
34.3892480659
 10
61.5924734147
 20
34.406469503
 10
61.5398827939
 20
34.4214550039
 10
61.4844487881
 20
34.4343608849
 10
61.427522499
 20
34.4453510491
 10
61.3677528248
 20
34.4546754039
 10
61.3018779087
 20
34.4625965573
 10
61.2294213456
 20
34.469457782
 10
61.1508595405
 20
34.4751850668
 10
61.0643598521
 20
34.4795196848
 10
60.9693113997
 20
34.4825787289
 10
60.8663250639
 20
34.4846966573
 10
60.7554008446
 20
34.4860132963
  0
LWPOLYLINE
  5
2D3
100
AcDbEntity
  8
IMPORT_IGES
100
AcDbPolyline
 62
250
  6
CONTINUOUS
 90
64
 70
0
 10
60.7554006765
 20
35.0139867039
 10
60.8617130774
 20
35.015106692
 10
60.9612403346
 20
35.017038888
 10
61.0539824482
 20
35.0199182949
 10
61.139534949
 20
35.0240770928
 10
61.2183023062
 20
35.029639107
 10
61.2914979272
 20
35.0363635925
 10
61.3587644355
 20
35.044240891
 10
61.4204592077
 20
35.05358994
 10
61.4788677804
 20
35.0645226343
 10
61.5349149865
 20
35.0771804878
 10
61.587675993
 20
35.0917691909
 10
61.6366618383
 20
35.1084918195
 10
61.681415669
 20
35.1274379116
 10
61.7223943384
 20
35.1488833886
 10
61.7604794443
 20
35.1733883927
 10
61.7959058578
 20
35.2015995177
 10
61.8284387078
 20
35.2334357479
 10
61.8582549784
 20
35.2682778278
 10
61.8854475564
 20
35.3061777607
 10
61.909923555
 20
35.3472165069
 10
61.9315812982
 20
35.3905098792
 10
61.9502068654
 20
35.4353992019
 10
61.9660141773
 20
35.4822865756
 10
61.9795433197
 20
35.5318117511
 10
61.9907757071
 20
35.5842074117
 10
61.9997299251
 20
35.639106822
 10
62.007001817
 20
35.6962846265
 10
62.0126434494
 20
35.755360617
 10
62.0166027556
 20
35.8163888924
 10
62.0193193789
 20
35.8797735709
 10
62.0209506888
 20
35.9463696085
 10
62.0213393156
 20
36.0148569532
 10
62.020452794
 20
36.0823268516
 10
62.0184478584
 20
36.1475533821
 10
62.0151677743
 20
36.2112142843
 10
62.010109873
 20
36.2732781313
 10
62.0033023647
 20
36.333678218
 10
61.9947170392
 20
36.3920559362
 10
61.9837665975
 20
36.4479854043
 10
61.9704016591
 20
36.5012709192
 10
61.9546716045
 20
36.5518707097
 10
61.9361372754
 20
36.5996520034
 10
61.9146325491
 20
36.6447086577
 10
61.8903235483
 20
36.6868452196
 10
61.8632694831
 20
36.7256061395
 10
61.8335637186
 20
36.7611137899
 10
61.8011128896
 20
36.7934278527
 10
61.7656961119
 20
36.8222001091
 10
61.727462719
 20
36.8474532339
 10
61.6862633773
 20
36.8696667684
 10
61.6414292018
 20
36.8892480659
 10
61.5924734148
 20
36.906469503
 10
61.5398827941
 20
36.9214550039
 10
61.4844487882
 20
36.9343608848
 10
61.4275224991
 20
36.9453510491
 10
61.3677528249
 20
36.9546754039
 10
61.3018779088
 20
36.9625965573
 10
61.2294213457
 20
36.969457782
 10
61.1508595406
 20
36.9751850668
 10
61.0643598522
 20
36.9795196848
 10
60.9693113998
 20
36.9825787289
 10
60.8663250639
 20
36.9846966573
 10
60.7554008446
 20
36.9860132963
  0
LINE
  5
2D4
100
AcDbEntity
  8
IMPORT_IGES
100
AcDbLine
 62
250
  6
CONTINUOUS
 10
-60.7554007696
 20
31.986013296
 11
60.7554008446
 21
31.9860132963
  0
LINE
  5
2D5
100
AcDbEntity
  8
IMPORT_IGES
100
AcDbLine
 62
250
  6
CONTINUOUS
 10
-60.7554006371
 20
32.1832159608
 11
60.7554006375
 21
32.18321596
  0
LINE
  5
2D6
100
AcDbEntity
  8
IMPORT_IGES
100
AcDbLine
 62
250
  6
CONTINUOUS
 10
-60.7554006371
 20
32.31678404
 11
60.7554005912
 21
32.3167840396
  0
LINE
  5
2D7
100
AcDbEntity
  8
IMPORT_IGES
100
AcDbLine
 62
250
  6
CONTINUOUS
 10
60.7554006765
 20
32.5139867039
 11
-60.7554008872
 21
32.5139867038
  0
LINE
  5
2D8
100
AcDbEntity
  8
IMPORT_IGES
100
AcDbLine
 62
250
  6
CONTINUOUS
 10
-60.7554007696
 20
34.486013296
 11
60.7554008446
 21
34.4860132963
  0
LINE
  5
2D9
100
AcDbEntity
  8
IMPORT_IGES
100
AcDbLine
 62
250
  6
CONTINUOUS
 10
-60.7554006371
 20
34.6832159608
 11
60.7554006375
 21
34.68321596
  0
LINE
  5
2DA
100
AcDbEntity
  8
IMPORT_IGES
100
AcDbLine
 62
250
  6
CONTINUOUS
 10
60.7554005912
 20
34.8167840396
 11
-60.7554006371
 21
34.81678404
  0
LINE
  5
2DB
100
AcDbEntity
  8
IMPORT_IGES
100
AcDbLine
 62
250
  6
CONTINUOUS
 10
60.7554006765
 20
35.0139867039
 11
-60.7554008872
 21
35.0139867038
  0
LWPOLYLINE
  5
2DC
100
AcDbEntity
  8
IMPORT_IGES
100
AcDbPolyline
 62
250
  6
CONTINUOUS
 90
64
 70
0
 10
60.7554006841
 20
37.18321596
 10
60.8423066991
 20
37.1852208269
 10
60.9299253867
 20
37.1853878758
 10
61.0179399473
 20
37.1837171068
 10
61.106155932
 20
37.1802439328
 10
61.194073148
 20
37.174932941
 10
61.2809098863
 20
37.1676778923
 10
61.3671634895
 20
37.1584369278
 10
61.4515639044
 20
37.1472519066
 10
61.5309558595
 20
37.1341421668
 10
61.6044323172
 20
37.1195476264
 10
61.6729122312
 20
37.1030283674
 10
61.7363335401
 20
37.0832839752
 10
61.7944577333
 20
37.0601696719
 10
61.8477970148
 20
37.0338302354
 10
61.8973443964
 20
37.0033995835
 10
61.9437467497
 20
36.9684381256
 10
61.9863975581
 20
36.9293854523
 10
62.0244916707
 20
36.8866942542
 10
62.0583989897
 20
36.8401804301
 10
62.0883215218
 20
36.7900280812
 10
62.1136445933
 20
36.7372422014
 10
62.1344745819
 20
36.6820632288
 10
62.1517621601
 20
36.6242507253
 10
62.1662684525
 20
36.5640883705
 10
62.1784280598
 20
36.501299191
 10
62.1884202657
 20
36.4361601602
 10
62.1965013287
 20
36.3697858786
 10
62.202949134
 20
36.3022389254
 10
62.2079224353
 20
36.2334567214
 10
62.2114671963
 20
36.1643661294
 10
62.2136920412
 20
36.0952186093
 10
62.2147195954
 20
36.0257627012
 10
62.2145658467
 20
35.9561708886
 10
62.2131972691
 20
35.8862112481
 10
62.2105825355
 20
35.8161157032
 10
62.2066717841
 20
35.7467525071
 10
62.2012668091
 20
35.677942858
 10
62.1942195153
 20
35.6098655578
 10
62.1855328945
 20
35.5439252654
 10
62.1751215251
 20
35.4804580027
 10
62.1626098067
 20
35.4191277477
 10
62.1475265329
 20
35.3603310929
 10
62.1294307468
 20
35.3040153257
 10
62.1080275615
 20
35.2502331587
 10
62.0830035416
 20
35.1995393218
 10
62.0535115619
 20
35.1518785313
 10
62.0195168563
 20
35.1073060708
 10
61.9822411057
 20
35.0665425207
 10
61.9419908489
 20
35.0298094086
 10
61.898328098
 20
34.9968852069
 10
61.8517871125
 20
34.9678259121
 10
61.8032027739
 20
34.9431800957
 10
61.7518911768
 20
34.9223991862
 10
61.695981871
 20
34.9038934659
 10
61.6343132693
 20
34.8873791649
 10
61.5676818644
 20
34.873140053
 10
61.4970762428
 20
34.8604377218
 10
61.4223947194
 20
34.8489890009
 10
61.3438730048
 20
34.8390770605
 10
61.263295613
 20
34.8308130039
 10
61.1814848262
 20
34.8242069165
 10
61.0981665783
 20
34.8192487129
 10
61.0136194733
 20
34.8160192387
  0
LWPOLYLINE
  5
2DD
100
AcDbEntity
  8
IMPORT_IGES
100
AcDbPolyline
 62
250
  6
CONTINUOUS
 90
64
 70
0
 10
-60.7554006831
 20
34.81678404
 10
-60.8423325397
 20
34.8147806201
 10
-60.9299644719
 20
34.8146138293
 10
-61.017979728
 20
34.8162836677
 10
-61.1061825474
 20
34.819755085
 10
-61.1940749916
 20
34.8250631315
 10
-61.2808809078
 20
34.8323129576
 10
-61.3670947735
 20
34.8415442476
 10
-61.4514514092
 20
34.8527173172
 10
-61.5308111394
 20
34.8658182641
 10
-61.6042719445
 20
34.8804106428
 10
-61.6727458411
 20
34.8969308989
 10
-61.7361669793
 20
34.9166744663
 10
-61.794296507
 20
34.9397855021
 10
-61.8476455801
 20
34.9661198493
 10
-61.8972032482
 20
34.9965404704
 10
-61.9436131083
 20
35.0314818367
 10
-61.9862720753
 20
35.0705094769
 10
-62.0243804117
 20
35.1131829393
 10
-62.0583111802
 20
35.1596907249
 10
-62.0882599236
 20
35.2098443327
 10
-62.113603727
 20
35.2626378086
 10
-62.1344475109
 20
35.3178331851
 10
-62.1517452544
 20
35.3756684296
 10
-62.1662587953
 20
35.4358514907
 10
-62.1784228226
 20
35.4986578143
 10
-62.1884174963
 20
35.5638119543
 10
-62.19650056
 20
35.6301955213
 10
-62.2029503501
 20
35.6977431673
 10
-62.2079252961
 20
35.7665202402
 10
-62.2114714266
 20
35.8356043942
 10
-62.2136976408
 20
35.9047434257
 10
-62.2147264284
 20
35.9741895383
 10
-62.2145732403
 20
36.0437769978
 10
-62.213204411
 20
36.1137410996
 10
-62.2105887161
 20
36.1838465483
 10
-62.2066760381
 20
36.2532217235
 10
-62.2012675409
 20
36.3220447616
 10
-62.194215238
 20
36.3901375263
 10
-62.1855231026
 20
36.4560939874
 10
-62.1751064023
 20
36.5195784452
 10
-62.1625887896
 20
36.5809265994
 10
-62.1474979298
 20
36.6397395203
 10
-62.1293906871
 20
36.6960719873
 10
-62.1079734466
 20
36.749869221
 10
-62.0829376247
 20
36.8005679522
 10
-62.0534390946
 20
36.8482173241
 10
-62.0194421741
 20
36.8927681935
 10
-61.9821684312
 20
36.9335098625
 10
-61.9419272999
 20
36.9702217449
 10
-61.898279574
 20
37.0031244269
 10
-61.8517514765
 20
37.0321689681
 10
-61.8031726793
 20
37.0568110902
 10
-61.7518626659
 20
37.0775950716
 10
-61.6959551001
 20
37.0961048077
 10
-61.6342900809
 20
37.1126230569
 10
-61.5676625307
 20
37.1268670608
 10
-61.4970608379
 20
37.1395724397
 10
-61.4223836123
 20
37.1510207925
 10
-61.3438661788
 20
37.1609305203
 10
-61.263291693
 20
37.1691924467
 10
-61.1814810199
 20
37.1757970632
 10
-61.0981612257
 20
37.1807538784
 10
-61.0136134336
 20
37.1839822408
  0
LWPOLYLINE
  5
2DE
100
AcDbEntity
  8
IMPORT_IGES
100
AcDbPolyline
 62
250
  6
CONTINUOUS
 90
4
 70
0
 10
-61.0136134301
 20
34.6839822408
 10
-60.9281177443
 20
34.6854552668
 10
-60.8419518077
 20
34.6851998401
 10
-60.7554006371
 20
34.6832159608
  0
LWPOLYLINE
  5
2DF
100
AcDbEntity
  8
IMPORT_IGES
100
AcDbPolyline
 62
250
  6
CONTINUOUS
 90
4
 70
0
 10
-61.0136134336
 20
37.1839822408
 10
-60.9281177383
 20
37.1854552668
 10
-60.8419517872
 20
37.1851998402
 10
-60.7554005971
 20
37.1832159609
  0
LWPOLYLINE
  5
2E0
100
AcDbEntity
  8
IMPORT_IGES
100
AcDbPolyline
 62
250
  6
CONTINUOUS
 90
64
 70
0
 10
-60.7554007696
 20
36.986013296
 10
-60.8673644681
 20
36.9846520051
 10
-60.9706731795
 20
36.9825196687
 10
-61.0653269039
 20
36.9794825227
 10
-61.1505109956
 20
36.9752249681
 10
-61.2270401003
 20
36.9696389146
 10
-61.2973581541
 20
36.9629700305
 10
-61.3610946985
 20
36.955253403
 10
-61.4186201921
 20
36.9461946231
 10
-61.4734899472
 20
36.9356708567
 10
-61.5270057452
 20
36.9235474826
 10
-61.5778658047
 20
36.9096509911
 10
-61.6257200939
 20
36.8937958042
 10
-61.6705586674
 20
36.8757931057
 10
-61.7123914705
 20
36.8554904838
 10
-61.750898308
 20
36.832758344
 10
-61.7857146326
 20
36.8074385743
 10
-61.8172049916
 20
36.7793805841
 10
-61.8461428308
 20
36.7484907688
 10
-61.8726887212
 20
36.7146408127
 10
-61.8966820919
 20
36.6777256095
 10
-61.9184146754
 20
36.6377258741
 10
-61.9379252318
 20
36.5946262409
 10
-61.955175001
 20
36.5483431045
 10
-61.9703394355
 20
36.4987911081
 10
-61.9834406328
 20
36.4457919852
 10
-61.9944564954
 20
36.3895612171
 10
-62.0034961834
 20
36.330688141
 10
-62.0104477469
 20
36.2695513907
 10
-62.0154231358
 20
36.2061148441
 10
-62.0188673589
 20
36.1404272266
 10
-62.0208277711
 20
36.0717976608
 10
-62.0212570175
 20
36.0014403701
 10
-62.0204580425
 20
35.9323335688
 10
-62.0186791156
 20
35.8657481186
 10
-62.0156719672
 20
35.8009992286
 10
-62.010994733
 20
35.7381060736
 10
-62.0047553144
 20
35.677248697
 10
-61.99684581
 20
35.618653968
 10
-61.9865006508
 20
35.5623838934
 10
-61.9736560549
 20
35.5086020594
 10
-61.9583758042
 20
35.4574083687
 10
-61.9400856758
 20
35.4087576102
 10
-61.9185237375
 20
35.362451236
 10
-61.8939519214
 20
35.3188881411
 10
-61.866581802
 20
35.2787976399
 10
-61.8364265712
 20
35.2420147442
 10
-61.803473037
 20
35.2085427059
 10
-61.7678931974
 20
35.179050877
 10
-61.7300185961
 20
35.1536257637
 10
-61.6895176893
 20
35.1315238607
 10
-61.6455678442
 20
35.1120797892
 10
-61.5978317646
 20
35.0950118604
 10
-61.5466467466
 20
35.080186915
 10
-61.4922020456
 20
35.0672836928
 10
-61.4355928077
 20
35.0561024036
 10
-61.3757238868
 20
35.0465055015
 10
-61.3094990997
 20
35.0383100368
 10
-61.2365191237
 20
35.0311702536
 10
-61.1571832816
 20
35.0251793236
 10
-61.0695933583
 20
35.020662207
 10
-60.9731166157
 20
35.0175015797
 10
-60.868385792
 20
35.0153262104
 10
-60.7554008872
 20
35.0139867038
  0
LINE
  5
2E1
100
AcDbEntity
  8
IMPORT_IGES
100
AcDbLine
 62
250
  6
CONTINUOUS
 10
-60.7554007696
 20
36.986013296
 11
60.7554008446
 21
36.9860132963
  0
LINE
  5
2E2
100
AcDbEntity
  8
IMPORT_IGES
100
AcDbLine
 62
250
  6
CONTINUOUS
 10
-60.7554005956
 20
37.1832159604
 11
60.7554006393
 21
37.18321596
  0
LINE
  5
2E3
100
AcDbEntity
  8
IMPORT_IGES
100
AcDbLine
 62
250
  6
CONTINUOUS
 10
62.2551722781
 20
38.2554005989
 11
-62.2551722525
 21
38.2554006416
  0
LINE
  5
2E4
100
AcDbEntity
  8
IMPORT_IGES
100
AcDbLine
 62
250
  6
CONTINUOUS
 10
-60.7553992936
 20
39.7551721419
 11
60.7553989647
 21
39.7551721419
  0
LINE
  5
2E5
100
AcDbEntity
  8
IMPORT_IGES
100
AcDbLine
 62
7
  6
CONTINUOUS
 10
60.9478514467
 20
39.9472799445
 11
-60.9478606479
 21
39.947634805
  0
LINE
  5
2E6
100
AcDbEntity
  8
IMPORT_IGES
100
AcDbLine
 62
7
  6
CONTINUOUS
 10
61.0351353243
 20
40.0349101299
 11
-61.0351359718
 21
40.0349101299
  0
LWPOLYLINE
  5
2E7
100
AcDbEntity
  8
IMPORT_IGES
100
AcDbPolyline
 62
7
  6
CONTINUOUS
 90
28
 70
0
 10
-60.9478606479
 20
39.947634805
 10
-61.0357282773
 20
39.9450093645
 10
-61.1226796038
 20
39.9373935354
 10
-61.2087146274
 20
39.9247873176
 10
-61.2941134382
 20
39.9071103031
 10
-61.3785959461
 20
39.8844429
 10
-61.4613218808
 20
39.8570263326
 10
-61.5422733185
 20
39.8248147347
 10
-61.621468183
 20
39.7878539724
 10
-61.6981199758
 20
39.7465228684
 10
-61.7722028051
 20
39.70077997
 10
-61.8437425626
 20
39.6506667298
 10
-61.9120304249
 20
39.5966863277
 10
-61.9770351611
 20
39.5388014726
 10
-62.0387880022
 20
39.4770494556
 10
-62.0966738176
 20
39.4120453307
 10
-62.1506553232
 20
39.3437578572
 10
-62.2007698032
 20
39.2722182758
 10
-62.2465139792
 20
39.1981353621
 10
-62.2878464031
 20
39.1214832129
 10
-62.3248085231
 20
39.0422877313
 10
-62.3570214058
 20
38.9613354019
 10
-62.3844393009
 20
38.8786082887
 10
-62.4071079587
 20
38.7941243277
 10
-62.4247856957
 20
38.7087238112
 10
-62.4373919508
 20
38.6226868369
 10
-62.4450072853
 20
38.5357333071
 10
-62.447631699
 20
38.4478632219
  0
LWPOLYLINE
  5
2E8
100
AcDbEntity
  8
IMPORT_IGES
100
AcDbPolyline
 62
7
  6
CONTINUOUS
 90
28
 70
0
 10
-61.0351359639
 20
40.0349070236
 10
-61.1229246026
 20
40.0322895894
 10
-61.2098134612
 20
40.0246839966
 10
-61.2958025397
 20
40.0120902452
 10
-61.3811736345
 20
39.9944299195
 10
-61.4656449492
 20
39.9717814352
 10
-61.5483710944
 20
39.9443800393
 10
-61.6293341821
 20
39.9121792
 10
-61.7085521003
 20
39.8752254491
 10
-61.7852331238
 20
39.8338936284
 10
-61.8593522964
 20
39.7881403688
 10
-61.9309345743
 20
39.7380090395
 10
-61.9992631006
 20
39.6840045902
 10
-62.0643054031
 20
39.6260888431
 10
-62.126093954
 20
39.5642999759
 10
-62.1840093139
 20
39.4992574717
 10
-62.2380133007
 20
39.4309288635
 10
-62.2881440964
 20
39.3593466182
 10
-62.333896807
 20
39.2852276196
 10
-62.375228061
 20
39.208546918
 10
-62.4121812298
 20
39.129329463
 10
-62.4443815348
 20
39.0483669873
 10
-62.4717823286
 20
38.9656416087
 10
-62.4944302584
 20
38.8811712095
 10
-62.5120904872
 20
38.7958011684
 10
-62.5246847358
 20
38.7098132785
 10
-62.5322912834
 20
38.6229257467
 10
-62.5349101299
 20
38.5351385732
  0
LWPOLYLINE
  5
2E9
100
AcDbEntity
  8
IMPORT_IGES
100
AcDbPolyline
 62
7
  6
CONTINUOUS
 90
28
 70
0
 10
60.7553940645
 20
39.7551721434
 10
60.8426651464
 20
39.752604656
 10
60.9296236088
 20
39.7449652779
 10
61.0159751316
 20
39.7322828422
 10
61.1014260308
 20
39.7146036337
 10
61.1856894124
 20
39.6919901917
 10
61.2684858808
 20
39.664520091
 10
61.3495359822
 20
39.6322882081
 10
61.4285664225
 20
39.595405432
 10
61.505315531
 20
39.5539956246
 10
61.5795247792
 20
39.5081994926
 10
61.6509435367
 20
39.4581729656
 10
61.719334172
 20
39.4040834263
 10
61.7844656935
 20
39.3461141115
 10
61.8461184627
 20
39.2844610818
 10
61.9040874344
 20
39.2193293963
 10
61.9581765634
 20
39.1509387054
 10
62.0082026297
 20
39.0795200116
 10
62.0539982683
 20
39.0053109546
 10
62.0954075684
 20
38.9285621718
 10
62.1322898428
 20
38.8495321959
 10
62.1645212499
 20
38.7684827002
 10
62.191990906
 20
38.6856870188
 10
62.2146039754
 20
38.6014245649
 10
62.2322829353
 20
38.5159746049
 10
62.2449652513
 20
38.4296239803
 10
62.2526046225
 20
38.3426664064
 10
62.2551722113
 20
38.2553961941
  0
LWPOLYLINE
  5
2EA
100
AcDbEntity
  8
IMPORT_IGES
100
AcDbPolyline
 62
7
  6
CONTINUOUS
 90
28
 70
0
 10
61.0351353243
 20
40.0349101299
 10
61.123002979
 20
40.0322847258
 10
61.2099543324
 20
40.02466893
 10
61.2959893845
 20
40.0120627425
 10
61.3813882257
 20
39.9943857551
 10
61.4658707656
 20
39.9717183761
 10
61.5485967329
 20
39.9443018294
 10
61.6295482038
 20
39.912090249
 10
61.7087431021
 20
39.8751295009
 10
61.7853949284
 20
39.8337984079
 10
61.8594777911
 20
39.7880555174
 10
61.9310175818
 20
39.7379422818
 10
61.9993054765
 20
39.6839618815
 10
62.0643102441
 20
39.6260770252
 10
62.1260631157
 20
39.564325004
 10
62.18394896
 20
39.4993208724
 10
62.237930493
 20
39.4310333896
 10
62.2880449988
 20
39.3594937964
 10
62.3337891986
 20
39.2854108688
 10
62.3751216442
 20
39.2087587037
 10
62.4120837838
 20
39.1295632041
 10
62.4442966835
 20
39.0486108553
 10
62.4717145931
 20
38.9658837213
 10
62.4943832629
 20
38.8813997379
 10
62.5120610092
 20
38.7959991985
 10
62.5246672708
 20
38.7099622006
 10
62.532282609
 20
38.6230086466
 10
62.5349070236
 20
38.5351385364
  0
LWPOLYLINE
  5
2EB
100
AcDbEntity
  8
0
100
AcDbPolyline
 62
7
  6
CONTINUOUS
 90
7
 70
0
 43
0.3499999917
 10
0.0
 20
52.8528186035
 10
-1.4999999857
 20
52.8528186035
 10
0.0
 20
54.9956735229
 10
0.0
 20
55.4242419434
 10
-0.4285714245
 20
55.8528167725
 10
-1.0714285612
 20
55.8528167725
 10
-1.4999999857
 20
55.2099609375
  0
LWPOLYLINE
  5
2EC
100
AcDbEntity
  8
IMPORT_IGES
100
AcDbPolyline
 62
7
  6
CONTINUOUS
 90
28
 70
0
 10
62.4476348039
 20
38.4478543452
 10
62.4447894087
 20
38.5356714793
 10
62.436994804
 20
38.6225696125
 10
62.4242509897
 20
38.7085487448
 10
62.4064877704
 20
38.7938879514
 10
62.3837753415
 20
38.8783081571
 10
62.3563242895
 20
38.9609721356
 10
62.3240788334
 20
39.0418620118
 10
62.2870947543
 20
39.1209956609
 10
62.245749982
 20
39.1975894816
 10
62.2000032774
 20
39.2716176921
 10
62.1498958796
 20
39.3431060742
 10
62.0959294366
 20
39.4113483726
 10
62.0380668435
 20
39.476313504
 10
61.9763452052
 20
39.5380325518
 10
61.9113774846
 20
39.5958925106
 10
61.8431325909
 20
39.649856281
 10
61.7716416148
 20
39.6999609625
 10
61.6976107919
 20
39.7457048484
 10
61.6210143312
 20
39.7870467023
 10
61.5418780236
 20
39.8240277607
 10
61.4609854771
 20
39.8562700265
 10
61.3783188184
 20
39.8837279838
 10
61.2938959207
 20
39.9064471485
 10
61.2085540119
 20
39.9241860719
 10
61.122572168
 20
39.9368642708
 10
61.0356713129
 20
39.9445622283
 10
60.9478514467
 20
39.9472799445
  0
LINE
  5
2ED
100
AcDbEntity
  8
IMPORT_IGES
100
AcDbLine
 62
7
  6
CONTINUOUS
 10
60.7554005989
 20
-39.7551721417
 11
60.7554005986
 21
-38.2554005914
  0
LINE
  5
2EE
100
AcDbEntity
  8
IMPORT_IGES
100
AcDbLine
 62
250
  6
CONTINUOUS
 10
60.755400594
 20
-31.9860132965
 11
60.755400778
 21
-32.5139867035
  0
LINE
  5
2EF
100
AcDbEntity
  8
IMPORT_IGES
100
AcDbLine
 62
250
  6
CONTINUOUS
 10
60.755400594
 20
-34.4860132965
 11
60.755400778
 21
-35.0139867035
  0
LINE
  5
2F0
100
AcDbEntity
  8
IMPORT_IGES
100
AcDbLine
 62
250
  6
CONTINUOUS
 10
60.755400594
 20
-36.9860132965
 11
60.7554005971
 21
-38.2554005838
  0
LINE
  5
2F1
100
AcDbEntity
  8
IMPORT_IGES
100
AcDbLine
 62
250
  6
CONTINUOUS
 10
60.7554005941
 20
30.0139867035
 11
60.7554028789
 21
28.7294464936
  0
LINE
  5
2F2
100
AcDbEntity
  8
IMPORT_IGES
100
AcDbLine
 62
250
  6
CONTINUOUS
 10
60.7554007791
 20
31.9860132965
 11
60.7554005941
 21
32.5139867035
  0
LINE
  5
2F3
100
AcDbEntity
  8
IMPORT_IGES
100
AcDbLine
 62
250
  6
CONTINUOUS
 10
60.7554007791
 20
34.4860132965
 11
60.7554005941
 21
35.0139867035
  0
LINE
  5
2F4
100
AcDbEntity
  8
IMPORT_IGES
100
AcDbLine
 62
250
  6
CONTINUOUS
 10
60.7553989647
 20
39.7551721419
 11
60.7554007791
 21
36.9860132965
  0
LINE
  5
2F5
100
AcDbEntity
  8
IMPORT_IGES
100
AcDbLine
 62
250
  6
CONTINUOUS
 10
60.7554029187
 20
-28.7294464936
 11
60.755400778
 21
-30.0139867035
  0
LINE
  5
2F6
100
AcDbEntity
  8
IMPORT_IGES
100
AcDbLine
 62
250
  6
CONTINUOUS
 10
61.2466815934
 20
-28.720718952
 11
61.246681591
 21
28.7207189482
  0
LINE
  5
2F7
100
AcDbEntity
  8
IMPORT_IGES
100
AcDbLine
 62
250
  6
CONTINUOUS
 10
62.2551722099
 20
38.255400633
 11
62.2551722782
 21
28.7551722782
  0
LINE
  5
2F8
100
AcDbEntity
  8
IMPORT_IGES
100
AcDbLine
 62
250
  6
CONTINUOUS
 10
62.255172227
 20
-38.2554006416
 11
62.2551722781
 21
-28.7551722781
  0
LINE
  5
2F9
100
AcDbEntity
  8
IMPORT_IGES
100
AcDbLine
 62
7
  6
CONTINUOUS
 10
62.4476348053
 20
28.9476348053
 11
62.4476348039
 21
38.4478543452
  0
LINE
  5
2FA
100
AcDbEntity
  8
IMPORT_IGES
100
AcDbLine
 62
7
  6
CONTINUOUS
 10
62.4476323161
 20
-38.4478632118
 11
62.4476348052
 21
-28.9476348053
  0
LINE
  5
2FB
100
AcDbEntity
  8
IMPORT_IGES
100
AcDbLine
 62
7
  6
CONTINUOUS
 10
62.5349101299
 20
-29.0349101299
 11
62.5349101299
 21
-38.5351385708
  0
LINE
  5
2FC
100
AcDbEntity
  8
IMPORT_IGES
100
AcDbLine
 62
7
  6
CONTINUOUS
 10
62.5349070236
 20
38.5351385364
 11
62.5349101299
 21
29.0349101299
  0
LINE
  5
2FD
100
AcDbEntity
  8
IMPORT_IGES
100
AcDbLine
 62
250
  6
CONTINUOUS
 10
62.7464448822
 20
28.7464448822
 11
62.7464448822
 21
-28.7464448821
  0
LINE
  5
2FE
100
AcDbEntity
  8
IMPORT_IGES
100
AcDbLine
 62
7
  6
CONTINUOUS
 10
62.9476348052
 20
-28.9476348052
 11
62.9476348052
 21
28.9476348053
  0
LINE
  5
2FF
100
AcDbEntity
  8
IMPORT_IGES
100
AcDbLine
 62
7
  6
CONTINUOUS
 10
63.0349101299
 20
29.0349101299
 11
63.0349101299
 21
-29.0349101299
  0
LWPOLYLINE
  5
300
100
AcDbEntity
  8
0
100
AcDbPolyline
 62
7
  6
CONTINUOUS
 90
13
 70
0
 43
0.3499999917
 10
74.1363061523
 20
-1.9285697937
 10
73.9220251465
 20
-2.2142836761
 10
73.2791629028
 20
-2.2142836761
 10
72.8505944824
 20
-1.9285697937
 10
72.8505944824
 20
-1.2857139587
 10
73.2791629028
 20
-0.9999984741
 10
73.9220251465
 20
-0.9999984741
 10
74.1363061523
 20
-1.2857139587
 10
74.5648809814
 20
-0.857142334
 10
75.422024231
 20
-0.857142334
 10
75.8505926514
 20
-1.2857139587
 10
75.8505926514
 20
-1.9285697937
 10
75.422024231
 20
-2.3571414185
  0
LINE
  5
301
100
AcDbEntity
  8
IMPORT_IGES
100
AcDbLine
 62
7
  6
CONTINUOUS
 10
-102.3247180898
 20
-40.0349101299
 11
-91.7985394929
 21
-39.851174999
  0
LINE
  5
302
100
AcDbEntity
  8
IMPORT_IGES
100
AcDbLine
 62
7
  6
CONTINUOUS
 10
-114.3508985783
 20
-39.7551721089
 11
-103.3247180898
 21
-39.9476348052
  0
LWPOLYLINE
  5
303
100
AcDbEntity
  8
IMPORT_IGES
100
AcDbPolyline
 62
250
  6
CONTINUOUS
 90
48
 70
0
 10
-115.8247180898
 20
37.18321596
 10
-115.8221984168
 20
37.1852208269
 10
-115.8145305271
 20
37.1853878758
 10
-115.8015637454
 20
37.1837171068
 10
-115.7831318501
 20
37.1802439328
 10
-115.7591400621
 20
37.174932941
 10
-115.729652248
 20
37.1676778923
 10
-115.6942969176
 20
37.1584369278
 10
-115.6533853363
 20
37.1472519066
 10
-115.6086628073
 20
37.1341421668
 10
-115.561304173
 20
37.1195476264
 10
-115.5113824925
 20
37.1030283674
 10
-115.4595178805
 20
37.0832839752
 10
-115.4065499951
 20
37.0601696719
 10
-115.3526626752
 20
37.0338302354
 10
-115.2973250831
 20
37.0033995835
 10
-115.2400505026
 20
36.9684381256
 10
-115.1818333017
 20
36.9293854523
 10
-115.1243479114
 20
36.8866942542
 10
-115.0678164639
 20
36.8401804301
 10
-115.0127019656
 20
36.7900280812
 10
-114.9612502977
 20
36.7372422014
 10
-114.9147646554
 20
36.6820632288
 10
-114.8725998201
 20
36.6242507253
 10
-114.8340823011
 20
36.5640883705
 10
-114.7990521974
 20
36.501299191
 10
-114.7679501224
 20
36.4361601602
 10
-114.7409255941
 20
36.3697858786
 10
-114.7179142732
 20
36.3022389254
 10
-114.6991247069
 20
36.2334567214
 10
-114.6850929834
 20
36.1643661294
 10
-114.6759816223
 20
36.0952186093
 10
-114.671687925
 20
36.0257627012
 10
-114.6723339406
 20
35.9561708886
 10
-114.678029381
 20
35.8862112481
 10
-114.6886487583
 20
35.8161157032
 10
-114.7039435467
 20
35.7467525071
 10
-114.7240561698
 20
35.677942858
 10
-114.7487465391
 20
35.6098655578
 10
-114.7771798199
 20
35.5439252654
 10
-114.8088590733
 20
35.4804580027
 10
-114.8441045024
 20
35.4191277477
 10
-114.8832746079
 20
35.3603310929
 10
-114.9264166461
 20
35.3040153257
 10
-114.9731009243
 20
35.2502331587
 10
-115.0229089137
 20
35.1995393218
 10
-115.0763216606
 20
35.1518785313
 10
-115.132189506
 20
35.1073060708
  0
LINE
  5
304
100
AcDbEntity
  8
IMPORT_IGES
100
AcDbLine
 62
7
  6
CONTINUOUS
 10
-102.3247180898
 20
-38.882164115
 11
-103.3247180898
 21
-38.8996191799
  0
LINE
  5
305
100
AcDbEntity
  8
IMPORT_IGES
100
AcDbLine
 62
250
  6
CONTINUOUS
 10
-91.7985394801
 20
-38.351403456
 11
-102.3247180897
 21
-38.5351385708
  0
LINE
  5
306
100
AcDbEntity
  8
IMPORT_IGES
100
AcDbLine
 62
250
  6
CONTINUOUS
 10
-91.7985394801
 20
-38.3514034561
 11
-90.3247180898
 21
-38.351403456
  0
LINE
  5
307
100
AcDbEntity
  8
IMPORT_IGES
100
AcDbLine
 62
250
  6
CONTINUOUS
 10
-115.8247180898
 20
-38.2554005838
 11
-114.3508903468
 21
-38.2554006416
  0
LINE
  5
308
100
AcDbEntity
  8
IMPORT_IGES
100
AcDbLine
 62
250
  6
CONTINUOUS
 10
-103.3247180898
 20
-38.4478632456
 11
-114.3508918128
 21
-38.2554006416
  0
LWPOLYLINE
  5
309
100
AcDbEntity
  8
IMPORT_IGES
100
AcDbPolyline
 62
250
  6
CONTINUOUS
 90
48
 70
0
 10
-115.8247180898
 20
34.68321596
 10
-115.8221984183
 20
34.6852208269
 10
-115.8145305283
 20
34.6853878758
 10
-115.8015637454
 20
34.6837171068
 10
-115.7831318493
 20
34.6802439328
 10
-115.7591400616
 20
34.674932941
 10
-115.729652248
 20
34.6676778923
 10
-115.6942969176
 20
34.6584369278
 10
-115.6533853364
 20
34.6472519066
 10
-115.6086628074
 20
34.6341421668
 10
-115.5613041731
 20
34.6195476264
 10
-115.5113824925
 20
34.6030283674
 10
-115.4595178804
 20
34.5832839752
 10
-115.4065499951
 20
34.5601696719
 10
-115.3526626752
 20
34.5338302354
 10
-115.2973250831
 20
34.5033995835
 10
-115.2400505026
 20
34.4684381256
 10
-115.1818333017
 20
34.4293854523
 10
-115.1243479114
 20
34.3866942542
 10
-115.0678164639
 20
34.3401804301
 10
-115.0127019656
 20
34.2900280812
 10
-114.9612502977
 20
34.2372422014
 10
-114.9147646554
 20
34.1820632288
 10
-114.8725998201
 20
34.1242507253
 10
-114.834082301
 20
34.0640883705
 10
-114.7990521974
 20
34.001299191
 10
-114.7679501224
 20
33.9361601602
 10
-114.7409255941
 20
33.8697858786
 10
-114.7179142732
 20
33.8022389254
 10
-114.6991247069
 20
33.7334567214
 10
-114.6850929834
 20
33.6643661294
 10
-114.6759816223
 20
33.5952186093
 10
-114.671687925
 20
33.5257627012
 10
-114.6723339406
 20
33.4561708886
 10
-114.678029381
 20
33.3862112482
 10
-114.6886487583
 20
33.3161157032
 10
-114.7039435467
 20
33.2467525071
 10
-114.7240561698
 20
33.1779428581
 10
-114.7487465391
 20
33.1098655579
 10
-114.7771798199
 20
33.0439252654
 10
-114.8088590732
 20
32.9804580027
 10
-114.8441045024
 20
32.9191277478
 10
-114.8832746079
 20
32.8603310929
 10
-114.9264166461
 20
32.8040153258
 10
-114.9731009242
 20
32.7502331588
 10
-115.0229089136
 20
32.6995393218
 10
-115.0763216606
 20
32.6518785314
 10
-115.1321895059
 20
32.6073060709
  0
LWPOLYLINE
  5
30A
100
AcDbEntity
  8
IMPORT_IGES
100
AcDbPolyline
 62
250
  6
CONTINUOUS
 90
20
 70
0
 10
-115.132189506
 20
35.1073060708
 10
-115.1877721848
 20
35.0665425207
 10
-115.2423256195
 20
35.0298094086
 10
-115.2961689284
 20
34.9968852069
 10
-115.3484058415
 20
34.9678259121
 10
-115.3980822415
 20
34.9431800957
 10
-115.4458811146
 20
34.9223991862
 10
-115.4931815554
 20
34.9038934659
 10
-115.540247817
 20
34.8873791649
 10
-115.585749075
 20
34.873140053
 10
-115.6285268331
 20
34.8604377218
 10
-115.6682652022
 20
34.8489890009
 10
-115.7044645257
 20
34.8390770605
 10
-115.7361155018
 20
34.8308130039
 10
-115.7629295594
 20
34.8242069165
 10
-115.7850302082
 20
34.8192487129
 10
-115.8023252815
 20
34.8160192387
 10
-115.8147405981
 20
34.8145454427
 10
-115.8222188007
 20
34.8148003762
 10
-115.8247180898
 20
34.8167840393
  0
LWPOLYLINE
  5
30B
100
AcDbEntity
  8
IMPORT_IGES
100
AcDbPolyline
 62
250
  6
CONTINUOUS
 90
20
 70
0
 10
-115.1321895059
 20
32.6073060709
 10
-115.1877721848
 20
32.5665425207
 10
-115.2423256195
 20
32.5298094087
 10
-115.2961689284
 20
32.4968852069
 10
-115.3484058414
 20
32.4678259121
 10
-115.3980822415
 20
32.4431800957
 10
-115.4458811146
 20
32.4223991862
 10
-115.4931815554
 20
32.4038934659
 10
-115.540247817
 20
32.3873791649
 10
-115.585749075
 20
32.373140053
 10
-115.6285268331
 20
32.3604377219
 10
-115.6682652022
 20
32.3489890009
 10
-115.7044645257
 20
32.3390770605
 10
-115.7361155018
 20
32.3308130038
 10
-115.7629295594
 20
32.3242069165
 10
-115.7850302083
 20
32.3192487129
 10
-115.8023252815
 20
32.3160192387
 10
-115.8147405981
 20
32.3145454427
 10
-115.8222188007
 20
32.3148003762
 10
-115.8247180898
 20
32.3167840393
  0
LWPOLYLINE
  5
30C
100
AcDbEntity
  8
IMPORT_IGES
100
AcDbPolyline
 62
250
  6
CONTINUOUS
 90
48
 70
0
 10
-115.8247180898
 20
32.18321596
 10
-115.8221984173
 20
32.1852208233
 10
-115.8145305283
 20
32.1853878691
 10
-115.8015637461
 20
32.1837170975
 10
-115.7831318473
 20
32.1802439216
 10
-115.7591400517
 20
32.1749329282
 10
-115.729652227
 20
32.1676778783
 10
-115.6942968822
 20
32.1584369129
 10
-115.653385283
 20
32.147251891
 10
-115.6086627386
 20
32.1341421501
 10
-115.5613040958
 20
32.1195476073
 10
-115.5113824129
 20
32.1030283454
 10
-115.4595178047
 20
32.083283951
 10
-115.4065499323
 20
32.0601696451
 10
-115.3526626331
 20
32.0338302066
 10
-115.2973250621
 20
32.0033995589
 10
-115.2400504987
 20
31.9684381139
 10
-115.1818333141
 20
31.9293854598
 10
-115.124347942
 20
31.8866942839
 10
-115.067816518
 20
31.8401804865
 10
-115.012702045
 20
31.7900281672
 10
-114.9612503968
 20
31.7372423126
 10
-114.9147647659
 20
31.6820633593
 10
-114.8725999355
 20
31.6242508706
 10
-114.8340824131
 20
31.5640885233
 10
-114.7990522941
 20
31.5012993411
 10
-114.7679501952
 20
31.4361603003
 10
-114.7409256446
 20
31.3697860067
 10
-114.7179143051
 20
31.3022390395
 10
-114.6991247219
 20
31.2334568195
 10
-114.6850929864
 20
31.1643662149
 10
-114.675981622
 20
31.0952186856
 10
-114.6716879263
 20
31.0257627716
 10
-114.6723339402
 20
30.9561709616
 10
-114.6780293747
 20
30.8862113354
 10
-114.6886487428
 20
30.8161158131
 10
-114.7039435128
 20
30.7467526444
 10
-114.7240561037
 20
30.6779430271
 10
-114.7487464319
 20
30.6098657633
 10
-114.777179671
 20
30.5439255088
 10
-114.8088588874
 20
30.4804582864
 10
-114.8441042793
 20
30.4191280734
 10
-114.8832743398
 20
30.3603314574
 10
-114.9264163344
 20
30.3040157212
 10
-114.9731005625
 20
30.2502335822
 10
-115.0229084647
 20
30.1995397793
 10
-115.0763210615
 20
30.1518790408
 10
-115.1321887286
 20
30.1073066386
  0
LWPOLYLINE
  5
30D
100
AcDbEntity
  8
IMPORT_IGES
100
AcDbPolyline
 62
250
  6
CONTINUOUS
 90
20
 70
0
 10
-115.1321887286
 20
30.1073066386
 10
-115.1877712587
 20
30.0665431275
 10
-115.2423245831
 20
30.0298100274
 10
-115.2961678101
 20
29.9968858184
 10
-115.3484046905
 20
29.9678264961
 10
-115.3980811266
 20
29.9431806212
 10
-115.4458800737
 20
29.922399633
 10
-115.4931805764
 20
29.9038938446
 10
-115.5402468547
 20
29.8873795025
 10
-115.5857481289
 20
29.8731403602
 10
-115.6285259624
 20
29.8604379911
 10
-115.6682645009
 20
29.8489892134
 10
-115.7044640147
 20
29.8390772089
 10
-115.7361151147
 20
29.8308130973
 10
-115.7629292195
 20
29.824206971
 10
-115.7850298963
 20
29.8192487376
 10
-115.8023250125
 20
29.8160192396
 10
-115.8147403955
 20
29.8145454246
 10
-115.8222186861
 20
29.814800345
 10
-115.8247180898
 20
29.8167840009
  0
LWPOLYLINE
  5
30E
100
AcDbEntity
  8
IMPORT_IGES
100
AcDbPolyline
 62
7
  6
CONTINUOUS
 90
10
 70
0
 10
-114.3508965997
 20
39.7551721434
 10
-114.3523751001
 20
39.752604656
 10
-114.3537596151
 20
39.7449652779
 10
-114.3550455106
 20
39.7322828422
 10
-114.3562284688
 20
39.7146036337
 10
-114.3573045731
 20
39.6919901917
 10
-114.3582702989
 20
39.664520091
 10
-114.3591224241
 20
39.6322882081
 10
-114.3598581143
 20
39.595405432
 10
-114.3609709169
 20
39.5081994926
  0
LINE
  5
30F
100
AcDbEntity
  8
IMPORT_IGES
100
AcDbLine
 62
7
  6
CONTINUOUS
 10
-102.3247180898
 20
-29.0349101299
 11
-96.7985446947
 21
-28.9384504144
  0
LINE
  5
310
100
AcDbEntity
  8
IMPORT_IGES
100
AcDbLine
 62
7
  6
CONTINUOUS
 10
-90.3247180898
 20
-30.04
 11
-89.3247180898
 21
-30.04
  0
LINE
  5
311
100
AcDbEntity
  8
IMPORT_IGES
100
AcDbLine
 62
7
  6
CONTINUOUS
 10
-103.3247180898
 20
-28.9476348052
 11
-116.3247180899
 21
-28.7207189611
  0
LWPOLYLINE
  5
312
100
AcDbEntity
  8
IMPORT_IGES
100
AcDbPolyline
 62
250
  6
CONTINUOUS
 90
9
 70
0
 10
-114.3508985638
 20
-39.7551721091
 10
-114.3523778898
 20
-39.7526095162
 10
-114.3537630328
 20
-39.7449833115
 10
-114.3550493134
 20
-39.7323192715
 10
-114.3562321633
 20
-39.7146603955
 10
-114.357307805
 20
-39.6920662957
 10
-114.3582732555
 20
-39.6646125551
 10
-114.3591254625
 20
-39.6323909877
 10
-114.3598613041
 20
-39.5955106499
  0
LINE
  5
313
100
AcDbEntity
  8
IMPORT_IGES
100
AcDbLine
 62
250
  6
CONTINUOUS
 10
-90.3247180898
 20
-26.2
 11
-89.3247180898
 21
-26.2
  0
LINE
  5
314
100
AcDbEntity
  8
IMPORT_IGES
100
AcDbLine
 62
250
  6
CONTINUOUS
 10
-90.3247180898
 20
-23.2
 11
-89.3247180898
 21
-23.2
  0
LINE
  5
315
100
AcDbEntity
  8
IMPORT_IGES
100
AcDbLine
 62
7
  6
CONTINUOUS
 10
-90.3247180898
 20
-19.36
 11
-89.3247180898
 21
-19.36
  0
LINE
  5
316
100
AcDbEntity
  8
IMPORT_IGES
100
AcDbLine
 62
7
  6
CONTINUOUS
 10
-114.3582702636
 20
38.7684827002
 11
-114.3523729403
 21
38.3426664064
  0
LINE
  5
317
100
AcDbEntity
  8
IMPORT_IGES
100
AcDbLine
 62
250
  6
CONTINUOUS
 10
-114.3598613041
 20
-39.5955106499
 11
-114.3609742626
 21
-39.5082909859
  0
LINE
  5
318
100
AcDbEntity
  8
IMPORT_IGES
100
AcDbLine
 62
7
  6
CONTINUOUS
 10
-114.3609708884
 20
39.0795200116
 11
-114.3582702636
 21
38.7684827002
  0
LINE
  5
319
100
AcDbEntity
  8
IMPORT_IGES
100
AcDbLine
 62
250
  6
CONTINUOUS
 10
-114.3609742626
 20
-39.5082909859
 11
-114.3615970639
 21
-39.4041337143
  0
LINE
  5
31A
100
AcDbEntity
  8
IMPORT_IGES
100
AcDbLine
 62
7
  6
CONTINUOUS
 10
-114.3617189585
 20
39.2844610818
 11
-114.3609708884
 21
39.0795200116
  0
LINE
  5
31B
100
AcDbEntity
  8
IMPORT_IGES
100
AcDbLine
 62
7
  6
CONTINUOUS
 10
-116.3247180898
 20
-28.720718952
 11
-116.3247180898
 21
28.7207189482
  0
LINE
  5
31C
100
AcDbEntity
  8
IMPORT_IGES
100
AcDbLine
 62
7
  6
CONTINUOUS
 10
-115.8247180898
 20
34.8167840396
 11
-115.8247180898
 21
34.68321596
  0
LINE
  5
31D
100
AcDbEntity
  8
IMPORT_IGES
100
AcDbLine
 62
7
  6
CONTINUOUS
 10
-115.8247180898
 20
32.3167840396
 11
-115.8247180898
 21
32.18321596
  0
LINE
  5
31E
100
AcDbEntity
  8
IMPORT_IGES
100
AcDbLine
 62
7
  6
CONTINUOUS
 10
-115.8247180898
 20
29.8167840204
 11
-115.8247180898
 21
28.7294464936
  0
LINE
  5
31F
100
AcDbEntity
  8
IMPORT_IGES
100
AcDbLine
 62
7
  6
CONTINUOUS
 10
-115.8247180898
 20
-29.81678404
 11
-115.8247180898
 21
-28.7294464936
  0
LINE
  5
320
100
AcDbEntity
  8
IMPORT_IGES
100
AcDbLine
 62
7
  6
CONTINUOUS
 10
-115.8247180898
 20
-32.1832159608
 11
-115.8247180898
 21
-32.31678404
  0
LINE
  5
321
100
AcDbEntity
  8
IMPORT_IGES
100
AcDbLine
 62
7
  6
CONTINUOUS
 10
-115.8247180898
 20
-34.6832159608
 11
-115.8247180898
 21
-34.81678404
  0
LINE
  5
322
100
AcDbEntity
  8
IMPORT_IGES
100
AcDbLine
 62
7
  6
CONTINUOUS
 10
-115.8247180898
 20
-37.1832159604
 11
-115.8247180898
 21
-38.2554005838
  0
LINE
  5
323
100
AcDbEntity
  8
IMPORT_IGES
100
AcDbLine
 62
7
  6
CONTINUOUS
 10
-115.8247180898
 20
37.18321596
 11
-115.8247180898
 21
38.2554005989
  0
LINE
  5
324
100
AcDbEntity
  8
IMPORT_IGES
100
AcDbLine
 62
250
  6
CONTINUOUS
 10
-114.8508810606
 20
28.7464448822
 11
-114.8508810609
 21
-28.7464448821
  0
LINE
  5
325
100
AcDbEntity
  8
IMPORT_IGES
100
AcDbLine
 62
250
  6
CONTINUOUS
 10
-114.3508918128
 20
-38.2554006416
 11
-114.3508888808
 21
-28.7551722781
  0
LINE
  5
326
100
AcDbEntity
  8
IMPORT_IGES
100
AcDbLine
 62
250
  6
CONTINUOUS
 10
-114.3508927894
 20
38.255400633
 11
-114.3508888793
 21
28.7551722782
  0
LINE
  5
327
100
AcDbEntity
  8
IMPORT_IGES
100
AcDbLine
 62
250
  6
CONTINUOUS
 10
-114.3615970639
 20
-39.4041337143
 11
-114.361595656
 21
-39.2192766277
  0
LINE
  5
328
100
AcDbEntity
  8
IMPORT_IGES
100
AcDbLine
 62
7
  6
CONTINUOUS
 10
-114.3615939462
 20
39.4040834263
 11
-114.3617189585
 21
39.2844610818
  0
LINE
  5
329
100
AcDbEntity
  8
IMPORT_IGES
100
AcDbLine
 62
250
  6
CONTINUOUS
 10
-114.361595656
 20
-39.2192766277
 11
-114.3604740876
 21
-39.0051424494
  0
LINE
  5
32A
100
AcDbEntity
  8
IMPORT_IGES
100
AcDbLine
 62
7
  6
CONTINUOUS
 10
-114.3609709169
 20
39.5081994926
 11
-114.3615939462
 21
39.4040834263
  0
LINE
  5
32B
100
AcDbEntity
  8
IMPORT_IGES
100
AcDbLine
 62
250
  6
CONTINUOUS
 10
-114.3604740876
 20
-39.0051424494
 11
-114.3572999664
 21
-38.6854382648
  0
LWPOLYLINE
  5
32C
100
AcDbEntity
  8
IMPORT_IGES
100
AcDbPolyline
 62
250
  6
CONTINUOUS
 90
3
 70
0
 10
-114.3572999664
 20
-38.6854382648
 10
-114.352369751
 20
-38.3425837401
 10
-114.350891813
 20
-38.2554006545
  0
LINE
  5
32D
100
AcDbEntity
  8
IMPORT_IGES
100
AcDbLine
 62
7
  6
CONTINUOUS
 10
-114.3523729403
 20
38.3426664064
 11
-114.350892712
 21
38.2553961941
  0
LINE
  5
32E
100
AcDbEntity
  8
IMPORT_IGES
100
AcDbLine
 62
7
  6
CONTINUOUS
 10
-89.3247180898
 20
-5.0
 11
-90.3247180898
 21
-5.0
  0
LINE
  5
32F
100
AcDbEntity
  8
IMPORT_IGES
100
AcDbLine
 62
7
  6
CONTINUOUS
 10
-103.3247180898
 20
-39.9476323161
 11
-103.3247180898
 21
39.9472799445
  0
LWPOLYLINE
  5
330
100
AcDbEntity
  8
0
100
AcDbPolyline
 62
7
  6
CONTINUOUS
 90
4
 70
0
 43
0.3499999917
 10
-102.8247171021
 20
55.9177304077
 10
-102.8247171021
 20
56.5605862427
 10
-101.3247180176
 20
56.5605862427
 10
-102.1818612671
 20
53.5605880737
  0
LINE
  5
331
100
AcDbEntity
  8
IMPORT_IGES
100
AcDbLine
 62
250
  6
CONTINUOUS
 10
-90.3247180898
 20
-2.0
 11
-89.3247180898
 21
-2.0
  0
LINE
  5
332
100
AcDbEntity
  8
IMPORT_IGES
100
AcDbLine
 62
7
  6
CONTINUOUS
 10
-102.3247180898
 20
40.0349101299
 11
-102.3247180898
 21
-40.0349076408
  0
LINE
  5
333
100
AcDbEntity
  8
IMPORT_IGES
100
AcDbLine
 62
250
  6
CONTINUOUS
 10
-90.3247180898
 20
2.0
 11
-89.3247180898
 21
2.0
  0
LINE
  5
334
100
AcDbEntity
  8
IMPORT_IGES
100
AcDbLine
 62
7
  6
CONTINUOUS
 10
-89.3247180898
 20
5.0
 11
-90.3247180898
 21
5.0
  0
LINE
  5
335
100
AcDbEntity
  8
IMPORT_IGES
100
AcDbLine
 62
7
  6
CONTINUOUS
 10
-95.3247107209
 20
27.4386887271
 11
-95.3247107216
 21
-27.4386944213
  0
LINE
  5
336
100
AcDbEntity
  8
IMPORT_IGES
100
AcDbLine
 62
7
  6
CONTINUOUS
 10
-91.7921316371
 20
-38.781689718
 11
-91.7985394801
 21
-38.3514034561
  0
LINE
  5
337
100
AcDbEntity
  8
IMPORT_IGES
100
AcDbLine
 62
250
  6
CONTINUOUS
 10
-91.7895798641
 20
39.6915123803
 11
-91.7884660862
 21
39.6042930954
  0
LINE
  5
338
100
AcDbEntity
  8
IMPORT_IGES
100
AcDbLine
 62
7
  6
CONTINUOUS
 10
-91.7889612492
 20
-39.1013138088
 11
-91.7921316371
 21
-38.781689718
  0
LINE
  5
339
100
AcDbEntity
  8
IMPORT_IGES
100
AcDbLine
 62
250
  6
CONTINUOUS
 10
-91.7884660862
 20
39.6042930954
 11
-91.787842395
 21
39.500134621
  0
LINE
  5
33A
100
AcDbEntity
  8
IMPORT_IGES
100
AcDbLine
 62
7
  6
CONTINUOUS
 10
-91.7878422467
 20
-39.3153322499
 11
-91.7889612492
 21
-39.1013138088
  0
LINE
  5
33B
100
AcDbEntity
  8
IMPORT_IGES
100
AcDbLine
 62
250
  6
CONTINUOUS
 10
-91.7985394801
 20
38.351403456
 11
-91.7985394801
 21
-38.351403456
  0
LINE
  5
33C
100
AcDbEntity
  8
IMPORT_IGES
100
AcDbLine
 62
250
  6
CONTINUOUS
 10
-91.787842395
 20
39.500134621
 11
-91.7878423958
 21
39.3152791298
  0
LINE
  5
33D
100
AcDbEntity
  8
IMPORT_IGES
100
AcDbLine
 62
7
  6
CONTINUOUS
 10
-91.7878422333
 20
-39.5000862797
 11
-91.7878422467
 21
-39.3153322499
  0
LINE
  5
33E
100
AcDbEntity
  8
IMPORT_IGES
100
AcDbLine
 62
250
  6
CONTINUOUS
 10
-91.7878423958
 20
39.3152791298
 11
-91.7889625108
 21
39.101142696
  0
LINE
  5
33F
100
AcDbEntity
  8
IMPORT_IGES
100
AcDbLine
 62
7
  6
CONTINUOUS
 10
-91.7884652626
 20
-39.6042023462
 11
-91.7878422333
 21
-39.5000862797
  0
LINE
  5
340
100
AcDbEntity
  8
IMPORT_IGES
100
AcDbLine
 62
250
  6
CONTINUOUS
 10
-91.7889625108
 20
39.101142696
 11
-91.7921346487
 21
38.7814433483
  0
LINE
  5
341
100
AcDbEntity
  8
IMPORT_IGES
100
AcDbLine
 62
250
  6
CONTINUOUS
 10
-91.7921346487
 20
38.7814433483
 11
-91.7985394801
 21
38.351403456
  0
LINE
  5
342
100
AcDbEntity
  8
IMPORT_IGES
100
AcDbLine
 62
7
  6
CONTINUOUS
 10
-90.3247180898
 20
-38.3514034561
 11
-90.3247180898
 21
38.351403456
  0
LINE
  5
343
100
AcDbEntity
  8
IMPORT_IGES
100
AcDbLine
 62
7
  6
CONTINUOUS
 10
-89.3247180898
 20
-34.0
 11
-89.3247180898
 21
-32.0000000104
  0
LINE
  5
344
100
AcDbEntity
  8
IMPORT_IGES
100
AcDbLine
 62
7
  6
CONTINUOUS
 10
-89.3247180898
 20
-30.04
 11
-89.3247180898
 21
-19.36
  0
LINE
  5
345
100
AcDbEntity
  8
IMPORT_IGES
100
AcDbLine
 62
7
  6
CONTINUOUS
 10
-89.3247180898
 20
-4.9999999996
 11
-89.3247180898
 21
4.9999999996
  0
LINE
  5
346
100
AcDbEntity
  8
IMPORT_IGES
100
AcDbLine
 62
7
  6
CONTINUOUS
 10
-89.3247180898
 20
15.5
 11
-89.3247180898
 21
36.5
  0
LWPOLYLINE
  5
347
100
AcDbEntity
  8
IMPORT_IGES
100
AcDbPolyline
 62
250
  6
CONTINUOUS
 90
48
 70
0
 10
-115.8247180898
 20
-29.81678404
 10
-115.82219682
 20
-29.814780621
 10
-115.8145257876
 20
-29.8146138321
 10
-115.8015564857
 20
-29.8162836734
 10
-115.7831252839
 20
-29.8197550945
 10
-115.7591394027
 20
-29.8250631458
 10
-115.7296630616
 20
-29.8323129781
 10
-115.6943275926
 20
-29.8415442802
 10
-115.6534442103
 20
-29.8527173633
 10
-115.6087501165
 20
-29.8658183118
 10
-115.5614141976
 20
-29.8804106715
 10
-115.5115111102
 20
-29.8969308966
 10
-115.4596618807
 20
-29.9166744344
 10
-115.4067049166
 20
-29.9397854451
 10
-115.3528237187
 20
-29.9661197685
 10
-115.2974909512
 20
-29.9965403713
 10
-115.2402241566
 20
-30.0314817287
 10
-115.1820136618
 20
-30.0705093655
 10
-115.1245246206
 20
-30.1131828229
 10
-115.0679705638
 20
-30.1596905989
 10
-115.0128214355
 20
-30.2098441956
 10
-114.9613376238
 20
-30.2626376599
 10
-114.9148280471
 20
-30.3178330235
 10
-114.872643023
 20
-30.3756682547
 10
-114.834109159
 20
-30.4358513055
 10
-114.7990680077
 20
-30.4986576223
 10
-114.7679591626
 20
-30.5638117586
 10
-114.7409283291
 20
-30.6301953272
 10
-114.7179098537
 20
-30.6977429817
 10
-114.6991136491
 20
-30.7665200686
 10
-114.6850759171
 20
-30.8356042387
 10
-114.6759583886
 20
-30.9047432882
 10
-114.6716591885
 20
-30.9741894211
 10
-114.6723028991
 20
-31.0437769002
 10
-114.6779999027
 20
-31.1137410207
 10
-114.6886240333
 20
-31.1838464873
 10
-114.7039272547
 20
-31.2532216776
 10
-114.7240535091
 20
-31.3220447274
 10
-114.7487610429
 20
-31.3901375007
 10
-114.7772107595
 20
-31.4560939673
 10
-114.8089034075
 20
-31.5195784266
 10
-114.8441614296
 20
-31.5809265792
 10
-114.8833458753
 20
-31.6397394966
 10
-114.9265080933
 20
-31.6960719583
 10
-114.9732137704
 20
-31.7498691848
 10
-115.0230341938
 20
-31.8005679088
 10
-115.0764467452
 20
-31.8482172728
 10
-115.1323063324
 20
-31.8927681342
  0
LWPOLYLINE
  5
348
100
AcDbEntity
  8
IMPORT_IGES
100
AcDbPolyline
 62
250
  6
CONTINUOUS
 90
48
 70
0
 10
-115.8247180898
 20
-32.31678404
 10
-115.8221969169
 20
-32.3147806201
 10
-115.8145259479
 20
-32.3146138293
 10
-115.801556673
 20
-32.3162836677
 10
-115.7831254487
 20
-32.319755085
 10
-115.7591394983
 20
-32.3250631315
 10
-115.729663087
 20
-32.3323129576
 10
-115.6943276097
 20
-32.3415442475
 10
-115.653444273
 20
-32.3527173171
 10
-115.6087502133
 20
-32.365818264
 10
-115.5614142688
 20
-32.3804106428
 10
-115.5115111245
 20
-32.3969308988
 10
-115.4596618362
 20
-32.4166744662
 10
-115.4067048238
 20
-32.439785502
 10
-115.3528235812
 20
-32.4661198492
 10
-115.2974907818
 20
-32.4965404703
 10
-115.2402239787
 20
-32.5314818366
 10
-115.1820134931
 20
-32.5705094769
 10
-115.1245244632
 20
-32.6131829393
 10
-115.0679704138
 20
-32.659690725
 10
-115.0128212945
 20
-32.7098443328
 10
-114.9613374916
 20
-32.7626378088
 10
-114.9148279222
 20
-32.8178331853
 10
-114.8726429049
 20
-32.8756684299
 10
-114.8341090492
 20
-32.935851491
 10
-114.7990679087
 20
-32.9986578146
 10
-114.7679590758
 20
-33.0638119546
 10
-114.7409282557
 20
-33.1301955216
 10
-114.717909796
 20
-33.1977431675
 10
-114.699113608
 20
-33.2665202403
 10
-114.6850758909
 20
-33.3356043944
 10
-114.6759583747
 20
-33.4047434258
 10
-114.6716591851
 20
-33.4741895384
 10
-114.6723029035
 20
-33.5437769979
 10
-114.6779999116
 20
-33.6137410998
 10
-114.6886240443
 20
-33.6838465485
 10
-114.7039272665
 20
-33.7532217238
 10
-114.7240535205
 20
-33.822044762
 10
-114.7487610528
 20
-33.8901375267
 10
-114.7772107691
 20
-33.9560939879
 10
-114.8089034181
 20
-34.0195784458
 10
-114.8441614423
 20
-34.0809266001
 10
-114.8833458926
 20
-34.1397395211
 10
-114.9265081183
 20
-34.1960719882
 10
-114.9732138051
 20
-34.2498692219
 10
-115.0230342406
 20
-34.3005679532
 10
-115.076446808
 20
-34.3482173252
 10
-115.1323064125
 20
-34.3927681948
  0
LINE
  5
349
100
AcDbEntity
  8
IMPORT_IGES
100
AcDbLine
 62
7
  6
CONTINUOUS
 10
-90.3247180898
 20
15.5
 11
-89.3247180898
 21
15.5
  0
LWPOLYLINE
  5
34A
100
AcDbEntity
  8
IMPORT_IGES
100
AcDbPolyline
 62
250
  6
CONTINUOUS
 90
48
 70
0
 10
-115.8247180898
 20
-34.81678404
 10
-115.8221969169
 20
-34.8147806201
 10
-115.8145259479
 20
-34.8146138293
 10
-115.801556673
 20
-34.8162836677
 10
-115.7831254487
 20
-34.819755085
 10
-115.7591394983
 20
-34.8250631315
 10
-115.7296630869
 20
-34.8323129576
 10
-115.6943276096
 20
-34.8415442476
 10
-115.6534442728
 20
-34.8527173172
 10
-115.6087502131
 20
-34.8658182641
 10
-115.5614142686
 20
-34.8804106428
 10
-115.5115111242
 20
-34.8969308989
 10
-115.459661836
 20
-34.9166744663
 10
-115.4067048236
 20
-34.9397855021
 10
-115.3528235811
 20
-34.9661198493
 10
-115.2974907817
 20
-34.9965404704
 10
-115.2402239786
 20
-35.0314818367
 10
-115.1820134931
 20
-35.0705094769
 10
-115.1245244632
 20
-35.1131829393
 10
-115.0679704139
 20
-35.1596907249
 10
-115.0128212947
 20
-35.2098443327
 10
-114.9613374918
 20
-35.2626378086
 10
-114.9148279225
 20
-35.3178331851
 10
-114.8726429051
 20
-35.3756684296
 10
-114.8341090495
 20
-35.4358514907
 10
-114.7990679089
 20
-35.4986578142
 10
-114.767959076
 20
-35.5638119543
 10
-114.7409282558
 20
-35.6301955213
 10
-114.717909796
 20
-35.6977431672
 10
-114.699113608
 20
-35.7665202401
 10
-114.6850758909
 20
-35.8356043942
 10
-114.6759583747
 20
-35.9047434256
 10
-114.6716591851
 20
-35.9741895382
 10
-114.6723029035
 20
-36.0437769977
 10
-114.6779999116
 20
-36.1137410995
 10
-114.6886240443
 20
-36.1838465482
 10
-114.7039272665
 20
-36.2532217234
 10
-114.7240535204
 20
-36.3220447616
 10
-114.7487610525
 20
-36.3901375262
 10
-114.7772107687
 20
-36.4560939873
 10
-114.8089034177
 20
-36.5195784451
 10
-114.8441614418
 20
-36.5809265993
 10
-114.883345892
 20
-36.6397395202
 10
-114.9265081175
 20
-36.6960719872
 10
-114.9732138042
 20
-36.7498692209
 10
-115.0230342395
 20
-36.8005679521
 10
-115.0764468065
 20
-36.848217324
 10
-115.1323064107
 20
-36.8927681935
  0
LWPOLYLINE
  5
34B
100
AcDbEntity
  8
IMPORT_IGES
100
AcDbPolyline
 62
250
  6
CONTINUOUS
 90
20
 70
0
 10
-115.1323063324
 20
-31.8927681342
 10
-115.1878753918
 20
-31.9335097985
 10
-115.2424076926
 20
-31.9702216815
 10
-115.2962259126
 20
-32.0031243674
 10
-115.3484439034
 20
-32.0321689137
 10
-115.3981115141
 20
-32.0568110415
 10
-115.4459063512
 20
-32.0775950298
 10
-115.4932030091
 20
-32.096104773
 10
-115.5402645043
 20
-32.11262303
 10
-115.5857614695
 20
-32.126867042
 10
-115.6285355543
 20
-32.1395724275
 10
-115.6682706865
 20
-32.1510207846
 10
-115.7044674172
 20
-32.1609305151
 10
-115.7361169005
 20
-32.1691924436
 10
-115.7629306823
 20
-32.1757970618
 10
-115.785031465
 20
-32.1807538779
 10
-115.8023263386
 20
-32.183982241
 10
-115.8147411738
 20
-32.1854552673
 10
-115.8222189711
 20
-32.1851998406
 10
-115.8247180898
 20
-32.1832159608
  0
LINE
  5
34C
100
AcDbEntity
  8
IMPORT_IGES
100
AcDbLine
 62
250
  6
CONTINUOUS
 10
-90.3247180898
 20
18.5
 11
-89.3247180898
 21
18.5
  0
LWPOLYLINE
  5
34D
100
AcDbEntity
  8
IMPORT_IGES
100
AcDbPolyline
 62
250
  6
CONTINUOUS
 90
20
 70
0
 10
-115.1323064125
 20
-34.3927681948
 10
-115.1878754853
 20
-34.4335098639
 10
-115.2424077935
 20
-34.4702217464
 10
-115.2962260173
 20
-34.5031244283
 10
-115.3484440095
 20
-34.5321689695
 10
-115.3981116212
 20
-34.5568110914
 10
-115.4459064569
 20
-34.5775950726
 10
-115.4932031071
 20
-34.5961048086
 10
-115.5402645857
 20
-34.6126230577
 10
-115.5857615307
 20
-34.6268670615
 10
-115.6285355981
 20
-34.6395724403
 10
-115.6682707178
 20
-34.651020793
 10
-115.7044674382
 20
-34.6609305206
 10
-115.7361169133
 20
-34.6691924469
 10
-115.7629306883
 20
-34.6757970634
 10
-115.7850314661
 20
-34.6807538784
 10
-115.8023263375
 20
-34.6839822408
 10
-115.8147411727
 20
-34.6854552668
 10
-115.8222189707
 20
-34.6851998401
 10
-115.8247180898
 20
-34.6832159608
  0
LWPOLYLINE
  5
34E
100
AcDbEntity
  8
IMPORT_IGES
100
AcDbPolyline
 62
250
  6
CONTINUOUS
 90
20
 70
0
 10
-115.1323064107
 20
-36.8927681935
 10
-115.1878754831
 20
-36.9335098624
 10
-115.242407791
 20
-36.9702217449
 10
-115.2962260147
 20
-37.0031244268
 10
-115.3484440068
 20
-37.0321689681
 10
-115.3981116186
 20
-37.0568110902
 10
-115.4459064545
 20
-37.0775950716
 10
-115.4932031048
 20
-37.0961048077
 10
-115.5402645835
 20
-37.1126230569
 10
-115.5857615285
 20
-37.1268670608
 10
-115.6285355961
 20
-37.1395724397
 10
-115.6682707162
 20
-37.1510207925
 10
-115.7044674371
 20
-37.1609305203
 10
-115.7361169125
 20
-37.1691924467
 10
-115.762930687
 20
-37.1757970633
 10
-115.7850314646
 20
-37.1807538784
 10
-115.8023263369
 20
-37.1839822408
 10
-115.8147411734
 20
-37.1854552669
 10
-115.8222189718
 20
-37.1851998402
 10
-115.8247180898
 20
-37.1832159609
  0
LWPOLYLINE
  5
34F
100
AcDbEntity
  8
IMPORT_IGES
100
AcDbPolyline
 62
7
  6
CONTINUOUS
 90
10
 70
0
 10
-91.7985395369
 20
-39.8511749998
 10
-91.7970610574
 20
-39.8486074066
 10
-91.7956765564
 20
-39.8409680494
 10
-91.7943906688
 20
-39.8282856977
 10
-91.7932077127
 20
-39.8106065446
 10
-91.7921316073
 20
-39.7879930812
 10
-91.7911658805
 20
-39.7605229453
 10
-91.7903137554
 20
-39.7282910622
 10
-91.7895780652
 20
-39.6914082859
 10
-91.7884652626
 20
-39.6042023462
  0
LINE
  5
350
100
AcDbEntity
  8
IMPORT_IGES
100
AcDbLine
 62
7
  6
CONTINUOUS
 10
-103.3247180898
 20
28.9476348052
 11
-116.3247254586
 21
28.7207188325
  0
LINE
  5
351
100
AcDbEntity
  8
IMPORT_IGES
100
AcDbLine
 62
7
  6
CONTINUOUS
 10
-96.7985551189
 20
28.9384505964
 11
-102.3247180898
 21
29.0349101299
  0
LWPOLYLINE
  5
352
100
AcDbEntity
  8
IMPORT_IGES
100
AcDbPolyline
 62
250
  6
CONTINUOUS
 90
9
 70
0
 10
-91.7985395369
 20
39.8511749998
 10
-91.7970624606
 20
39.8486124069
 10
-91.7956789203
 20
39.8409860308
 10
-91.7943935952
 20
39.8283216707
 10
-91.7932108392
 20
39.8106622853
 10
-91.7921346444
 20
39.7880675454
 10
-91.791168634
 20
39.7606133391
 10
-91.7903160744
 20
39.7283919646
 10
-91.7895798641
 20
39.6915123803
  0
LINE
  5
353
100
AcDbEntity
  8
IMPORT_IGES
100
AcDbLine
 62
7
  6
CONTINUOUS
 10
-90.3247180898
 20
36.5
 11
-89.3247180898
 21
36.5
  0
LINE
  5
354
100
AcDbEntity
  8
IMPORT_IGES
100
AcDbLine
 62
250
  6
CONTINUOUS
 10
-114.3508927894
 20
38.255400633
 11
-103.3247182424
 21
38.4478543452
  0
LINE
  5
355
100
AcDbEntity
  8
IMPORT_IGES
100
AcDbLine
 62
7
  6
CONTINUOUS
 10
-103.3247181027
 20
39.947634805
 11
-114.3508966852
 21
39.7551721419
  0
LINE
  5
356
100
AcDbEntity
  8
IMPORT_IGES
100
AcDbLine
 62
250
  6
CONTINUOUS
 10
-114.3508888794
 20
38.2554005989
 11
-115.8247180898
 21
38.2554005989
  0
LINE
  5
357
100
AcDbEntity
  8
IMPORT_IGES
100
AcDbLine
 62
250
  6
CONTINUOUS
 10
-90.3247180898
 20
38.351403456
 11
-91.7985394801
 21
38.351403456
  0
LWPOLYLINE
  5
358
100
AcDbEntity
  8
0
100
AcDbPolyline
 62
7
  6
CONTINUOUS
 90
7
 70
0
 43
0.3499999917
 10
-103.6818603516
 20
53.5605880737
 10
-105.181859436
 20
53.5605880737
 10
-103.6818603516
 20
55.7034429932
 10
-103.6818603516
 20
56.1320178223
 10
-104.1104351807
 20
56.5605862427
 10
-104.7532910156
 20
56.5605862427
 10
-105.181859436
 20
55.9177304077
  0
LINE
  5
359
100
AcDbEntity
  8
IMPORT_IGES
100
AcDbLine
 62
250
  6
CONTINUOUS
 10
-102.3247180897
 20
38.5351385702
 11
-91.7985394801
 21
38.351403456
  0
LINE
  5
35A
100
AcDbEntity
  8
IMPORT_IGES
100
AcDbLine
 62
7
  6
CONTINUOUS
 10
-102.3247180898
 20
38.782164115
 11
-103.3247180898
 21
38.7996191799
  0
LINE
  5
35B
100
AcDbEntity
  8
IMPORT_IGES
100
AcDbLine
 62
7
  6
CONTINUOUS
 10
-91.7985394929
 20
39.851174999
 11
-102.3247180898
 21
40.0349101299
  0
CIRCLE
  5
35C
100
AcDbEntity
  8
IMPORT_IGES
100
AcDbCircle
 62
7
  6
CONTINUOUS
 10
-0.0
 20
-0.0
 40
10.0
  0
ARC
  5
35D
100
AcDbEntity
  8
IMPORT_IGES
100
AcDbCircle
 62
7
  6
CONTINUOUS
 10
-114.3247180898
 20
-38.2554005989
 40
1.5
100
AcDbArc
 50
179.999999711
 51
268.9999999992
  0
ARC
  5
35E
100
AcDbEntity
  8
IMPORT_IGES
100
AcDbCircle
 62
7
  6
CONTINUOUS
 10
-115.8247180898
 20
-36.0
 40
1.0
100
AcDbArc
 50
279.5940686412
 51
80.4059314325
  0
ARC
  5
35F
100
AcDbEntity
  8
IMPORT_IGES
100
AcDbCircle
 62
7
  6
CONTINUOUS
 10
-115.8247180898
 20
-33.5
 40
1.0
100
AcDbArc
 50
279.5940685354
 51
80.405931411
  0
ARC
  5
360
100
AcDbEntity
  8
IMPORT_IGES
100
AcDbCircle
 62
7
  6
CONTINUOUS
 10
-115.8247180898
 20
-31.0
 40
1.0
100
AcDbArc
 50
279.5940685354
 51
80.405931411
  0
ARC
  5
361
100
AcDbEntity
  8
IMPORT_IGES
100
AcDbCircle
 62
7
  6
CONTINUOUS
 10
-115.6247180898
 20
-34.8167840434
 40
0.2
100
AcDbArc
 50
179.9999989273
 51
260.4059329176
  0
ARC
  5
362
100
AcDbEntity
  8
IMPORT_IGES
100
AcDbCircle
 62
7
  6
CONTINUOUS
 10
-115.6247180898
 20
-37.1832159566
 40
0.2
100
AcDbArc
 50
99.5940670775
 51
179.9999999996
  0
ARC
  5
363
100
AcDbEntity
  8
IMPORT_IGES
100
AcDbCircle
 62
7
  6
CONTINUOUS
 10
-115.6247180898
 20
-34.6832159566
 40
0.2
100
AcDbArc
 50
99.5940670775
 51
180.0000010811
  0
ARC
  5
364
100
AcDbEntity
  8
IMPORT_IGES
100
AcDbCircle
 62
7
  6
CONTINUOUS
 10
-115.6247180898
 20
-32.3167840434
 40
0.2
100
AcDbArc
 50
179.9999999988
 51
260.4059329176
  0
ARC
  5
365
100
AcDbEntity
  8
IMPORT_IGES
100
AcDbCircle
 62
7
  6
CONTINUOUS
 10
-115.6247180898
 20
-32.1832159566
 40
0.2
100
AcDbArc
 50
99.5940670775
 51
180.0000010811
  0
ARC
  5
366
100
AcDbEntity
  8
IMPORT_IGES
100
AcDbCircle
 62
7
  6
CONTINUOUS
 10
-115.6247180898
 20
-29.8167840434
 40
0.2
100
AcDbArc
 50
179.9999999988
 51
260.4059329176
  0
ARC
  5
367
100
AcDbEntity
  8
IMPORT_IGES
100
AcDbCircle
 62
7
  6
CONTINUOUS
 10
-114.3247180898
 20
38.2554005989
 40
1.5
100
AcDbArc
 50
90.9999995112
 51
180.0
  0
ARC
  5
368
100
AcDbEntity
  8
IMPORT_IGES
100
AcDbCircle
 62
7
  6
CONTINUOUS
 10
-115.8247180898
 20
36.0
 40
1.0
100
AcDbArc
 50
279.5940685675
 51
80.4059313588
  0
ARC
  5
369
100
AcDbEntity
  8
IMPORT_IGES
100
AcDbCircle
 62
7
  6
CONTINUOUS
 10
-115.8247180898
 20
33.5
 40
1.0
100
AcDbArc
 50
279.594068589
 51
80.4059314646
  0
ARC
  5
36A
100
AcDbEntity
  8
IMPORT_IGES
100
AcDbCircle
 62
7
  6
CONTINUOUS
 10
-115.8247180898
 20
31.0
 40
1.0
100
AcDbArc
 50
279.594068589
 51
80.4059314646
  0
ARC
  5
36B
100
AcDbEntity
  8
IMPORT_IGES
100
AcDbCircle
 62
7
  6
CONTINUOUS
 10
-115.6247180898
 20
34.8167840434
 40
0.2
100
AcDbArc
 50
99.5940670824
 51
180.0000010727
  0
ARC
  5
36C
100
AcDbEntity
  8
IMPORT_IGES
100
AcDbCircle
 62
7
  6
CONTINUOUS
 10
-115.6247180898
 20
37.1832159566
 40
0.2
100
AcDbArc
 50
180.0000000004
 51
260.4059329225
  0
ARC
  5
36D
100
AcDbEntity
  8
IMPORT_IGES
100
AcDbCircle
 62
7
  6
CONTINUOUS
 10
-115.6247180898
 20
34.6832159566
 40
0.2
100
AcDbArc
 50
179.9999989189
 51
260.4059329225
  0
ARC
  5
36E
100
AcDbEntity
  8
IMPORT_IGES
100
AcDbCircle
 62
7
  6
CONTINUOUS
 10
-115.6247180898
 20
32.3167840434
 40
0.2
100
AcDbArc
 50
99.5940670824
 51
180.0000000012
  0
ARC
  5
36F
100
AcDbEntity
  8
IMPORT_IGES
100
AcDbCircle
 62
7
  6
CONTINUOUS
 10
-115.6247180898
 20
32.1832159566
 40
0.2
100
AcDbArc
 50
179.9999989189
 51
260.4059329225
  0
ARC
  5
370
100
AcDbEntity
  8
IMPORT_IGES
100
AcDbCircle
 62
7
  6
CONTINUOUS
 10
-115.6247180898
 20
29.8167840434
 40
0.2
100
AcDbArc
 50
99.5940670824
 51
180.0000000012
  0
ARC
  5
371
100
AcDbEntity
  8
IMPORT_IGES
100
AcDbCircle
 62
7
  6
CONTINUOUS
 10
-96.8247180898
 20
-27.4386787807
 40
1.5
100
AcDbArc
 50
270.9998007856
 51
359.999402576
  0
ARC
  5
372
100
AcDbEntity
  8
IMPORT_IGES
100
AcDbCircle
 62
7
  6
CONTINUOUS
 10
-91.8247180898
 20
-38.351403456
 40
1.5
100
AcDbArc
 50
270.9999995118
 51
359.9999999997
  0
ARC
  5
373
100
AcDbEntity
  8
IMPORT_IGES
100
AcDbCircle
 62
7
  6
CONTINUOUS
 10
-90.3247180898
 20
-34.0
 40
1.0
100
AcDbArc
 50
269.9999999999
 51
359.9985157622
  0
ARC
  5
374
100
AcDbEntity
  8
IMPORT_IGES
100
AcDbCircle
 62
7
  6
CONTINUOUS
 10
-90.3247180898
 20
-32.0
 40
1.0
100
AcDbArc
 50
0.0014842381
 51
90.0000000001
  0
ARC
  5
375
100
AcDbEntity
  8
IMPORT_IGES
100
AcDbCircle
 62
7
  6
CONTINUOUS
 10
-96.8247180898
 20
27.4386787807
 40
1.5
100
AcDbArc
 50
0.0003257063
 51
89.0005974389
  0
ARC
  5
376
100
AcDbEntity
  8
IMPORT_IGES
100
AcDbCircle
 62
7
  6
CONTINUOUS
 10
-91.8247180898
 20
38.351403456
 40
1.5
100
AcDbArc
 50
0.0000000002
 51
88.9999999995
  0
ARC
  5
377
100
AcDbEntity
  8
IMPORT_IGES
100
AcDbCircle
 62
7
  6
CONTINUOUS
 10
-90.3247180898
 20
32.0
 40
1.0
100
AcDbArc
 50
269.9999999998
 51
359.9985157626
  0
ARC
  5
378
100
AcDbEntity
  8
IMPORT_IGES
100
AcDbCircle
 62
7
  6
CONTINUOUS
 10
-90.3247180898
 20
34.0
 40
1.0
100
AcDbArc
 50
0.0014842382
 51
90.0000000002
  0
ELLIPSE
  5
379
100
AcDbEntity
  8
IMPORT_IGES
100
AcDbEllipse
 62
7
  6
CONTINUOUS
 10
61.2466730665
 20
-28.7469015585
 30
0.0
 11
1.5
 21
-0.0
 31
0.0
 40
0.0174550649
 41
0.0174428652
 42
1.5707906405
  0
ENDSEC
  0
SECTION
  2
OBJECTS
  0
DICTIONARY
  5
C
100
AcDbDictionary
280
0
281
1
  3
ACAD_GROUP
350
D
  3
ACAD_MLINESTYLE
350
17
  3
ACAD_LAYOUT
350
1A
  3
ACAD_PLOTSETTINGS
350
19
  3
ACAD_PLOTSTYLENAME
350
E
  0
DICTIONARY
  5
D
102
{ACAD_REACTORS
330
C
102
}
100
AcDbDictionary
280
0
281
1
  0
ACDBDICTIONARYWDFLT
  5
E
102
{ACAD_REACTORS
330
C
102
}
100
AcDbDictionary
281
1
  3
Normal
350
F
100
AcDbDictionaryWithDefault
340
F
  0
DICTIONARY
  5
17
102
{ACAD_REACTORS
330
C
102
}
100
AcDbDictionary
280
0
281
1
  3
Standard
350
18
  0
DICTIONARY
  5
19
102
{ACAD_REACTORS
330
C
102
}
100
AcDbDictionary
281
1
  0
DICTIONARY
  5
1A
102
{ACAD_REACTORS
330
C
102
}
100
AcDbDictionary
281
1
  3
Model
350
37A
  3
Layout1
350
37B
  0
ACDBPLACEHOLDER
  5
F
102
{ACAD_REACTORS
330
E
102
}
  0
MLINESTYLE
  5
18
102
{ACAD_REACTORS
330
17
102
}
100
AcDbMlineStyle
  2
STANDARD
 70
0
  3

 62
256
 51
90.0
 52
90.0
 71
2
 49
0.5
 62
256
  6
BYLAYER
 49
-0.5
 62
256
  6
BYLAYER
  0
LAYOUT
  5
37A
102
{ACAD_REACTORS
330
1A
102
}
100
AcDbPlotSettings
  1

  2
none_device
  4
ISO_A3_(420.00_x_297.00_MM)
  6

 40
0.0
 41
0.0
 42
0.0
 43
0.0
 44
420.0
 45
297.0
 46
0.0
 47
0.0
 48
0.0
 49
0.0
140
0.0
141
0.0
142
1.0
143
1.0
 70
1024
 72
1
 73
0
 74
0
  7

 75
0
147
1.0
148
0.0
149
0.0
100
AcDbLayout
  1
Model
 70
0
 71
0
 10
0.0
 20
0.0
 11
420.0
 21
297.0
 12
0.0
 22
0.0
 32
0.0
 14
0.0
 24
0.0
 34
0.0
 15
0.0
 25
0.0
 35
0.0
146
0.0
 13
0.0
 23
0.0
 33
0.0
 16
1.0
 26
0.0
 36
0.0
 17
0.0
 27
1.0
 37
0.0
 76
0
330
218
345
0
346
0
  0
LAYOUT
  5
37B
102
{ACAD_REACTORS
330
1A
102
}
100
AcDbPlotSettings
  1

  2
none_device
  4
ISO_A3_(420.00_x_297.00_MM)
  6

 40
0.0
 41
0.0
 42
0.0
 43
0.0
 44
420.0
 45
297.0
 46
0.0
 47
0.0
 48
0.0
 49
0.0
140
0.0
141
0.0
142
1.0
143
1.0
 70
0
 72
1
 73
0
 74
0
  7

 75
0
147
1.0
148
0.0
149
0.0
100
AcDbLayout
  1
Layout1
 70
0
 71
1
 10
0.0
 20
0.0
 11
420.0
 21
297.0
 12
0.0
 22
0.0
 32
0.0
 14
0.0
 24
0.0
 34
0.0
 15
0.0
 25
0.0
 35
0.0
146
0.0
 13
0.0
 23
0.0
 33
0.0
 16
1.0
 26
0.0
 36
0.0
 17
0.0
 27
1.0
 37
0.0
 76
0
330
219
345
0
346
0
  0
ENDSEC
  0
EOF
