  0
SECTION
  2
HEADER
  9
$ACADVER
  1
AC1024
  9
$DWGCODEPAGE
  3
ANSI_1252
  9
$EXTMAX
 10
297.0
 20
210.0
 30
0.0
  9
$EXTMIN
 10
0.0
 20
0.0
 30
0.0
  9
$LIMMIN
 10
0.0
 20
0.0
  9
$LIMMAX
 10
297.0
 20
210.0
  9
$VIEWCTR
 10
148.5
 20
105.0
  9
$VIEWSIZE
 40
210.0
  9
$CLAYER
  8
0
  9
$LTSCALE
 40
16.335
  9
$CELTYPE
  6
BYLAYER
  9
$DIMSCALE
 40
1.0
  9
$DIMASZ
 40
3.0
  9
$DIMEXO
 40
0.5
  9
$DIMDLI
 40
11.286
  9
$DIMEXE
 40
1.5
  9
$DIMCEN
 40
2.673
  9
$DIMLFAC
 40
1.0
  9
$DIMBLK
  1
_FILLED
  9
$DIMALT
 70
0
  9
$DIMALTF
 40
0.0393700787
  9
$DIMTXT
 40
3.0
  9
$DIMTOL
 70
1
  9
$DIMLIM
 70
0
  9
$DIMTFAC
 40
1.0
  9
$DIMTP
 40
0.01
  9
$DIMTM
 40
0.01
  9
$DIMGAP
 40
0.625
  9
$DIMDSEP
 70
44
  9
$AUNITS
 70
0
  9
$PDMODE
 70
3
  9
$PDSIZE
 40
3.0
  9
$HANDSEED
  5
353
  9
$TILEMODE
 70
1
  9
$MEASUREMENT
 70
1
  9
$INSUNITS
 70
4
  0
ENDSEC
  0
SECTION
  2
CLASSES
  0
CLASS
  1
ACDBDICTIONARYWDFLT
  2
AcDbDictionaryWithDefault
  3
AutoCAD 2000
 90
0
 91
1
280
0
281
0
  0
CLASS
  1
ACDBPLACEHOLDER
  2
AcDbPlaceHolder
  3
AutoCAD 2000
 90
0
 91
1
280
0
281
0
  0
CLASS
  1
LAYOUT
  2
AcDbLayout
  3
AutoCAD 2000
 90
0
 91
0
280
0
281
0
  0
ENDSEC
  0
SECTION
  2
TABLES
  0
TABLE
  2
VPORT
  5
8
100
AcDbSymbolTable
 70
2
  0
VPORT
  5
1F4
100
AcDbSymbolTableRecord
100
AcDbViewportTableRecord
  2
*ACTIVE
 70
0
 10
0.0
 20
0.0
 11
1.0
 21
1.0
 12
148.5
 22
105.0
 13
0.0
 23
0.0
 14
1.0
 24
1.0
 15
0.0
 25
0.0
 16
0.0
 26
0.0
 36
1.0
 17
0.0
 27
0.0
 37
0.0
 40
210.0
 41
1.4142857143
 42
50.0
 43
0.0
 44
0.0
 50
0.0
 51
0.0
 71
0
 72
100
 73
1
 74
1
 75
0
 76
0
 77
0
 78
0
  0
ENDTAB
  0
TABLE
  2
LTYPE
  5
5
100
AcDbSymbolTable
 70
6
  0
LTYPE
  5
14
100
AcDbSymbolTableRecord
100
AcDbLinetypeTableRecord
  2
BYBLOCK
 70
0
  3

 72
65
 73
0
 40
0.0
  0
LTYPE
  5
15
100
AcDbSymbolTableRecord
100
AcDbLinetypeTableRecord
  2
BYLAYER
 70
0
  3

 72
65
 73
0
 40
0.0
  0
LTYPE
  5
16
100
AcDbSymbolTableRecord
100
AcDbLinetypeTableRecord
  2
CONTINUOUS
 70
64
  3
Solid line
 72
65
 73
0
 40
0.0
  0
LTYPE
  5
1F5
100
AcDbSymbolTableRecord
100
AcDbLinetypeTableRecord
  2
CENTER
 70
64
  3
____ _ ____ _ ____ _ ____ _ ____ _ ____ _ ____
 72
65
 73
4
 40
0.6
 49
0.375
 74
0
 49
-0.075
 74
0
 49
0.075
 74
0
 49
-0.075
 74
0
  0
LTYPE
  5
1F6
100
AcDbSymbolTableRecord
100
AcDbLinetypeTableRecord
  2
HIDDEN
 70
64
  3
- - - - - - - - - - - - - - - - - - - -
 72
65
 73
2
 40
0.2
 49
0.1
 74
0
 49
-0.1
 74
0
  0
LTYPE
  5
1F7
100
AcDbSymbolTableRecord
100
AcDbLinetypeTableRecord
  2
PHANTOM
 70
64
  3
_____ _ _ _____ _ _ _____ _ _ _____
 72
65
 73
6
 40
0.8
 49
0.45
 74
0
 49
-0.05
 74
0
 49
0.1
 74
0
 49
-0.05
 74
0
 49
0.1
 74
0
 49
-0.05
 74
0
  0
LTYPE
  5
1F8
100
AcDbSymbolTableRecord
100
AcDbLinetypeTableRecord
  2
DOT
 70
64
  3
. . . . . . . . . . . . . . . . . . . .
 72
65
 73
2
 40
0.2
 49
0.1
 74
0
 49
-0.1
 74
0
  0
LTYPE
  5
1F9
100
AcDbSymbolTableRecord
100
AcDbLinetypeTableRecord
  2
DASHED
 70
64
  3
- - - - - - - - - - - - - - - - - - - -
 72
65
 73
2
 40
0.2
 49
0.1
 74
0
 49
-0.1
 74
0
  0
ENDTAB
  0
TABLE
  2
LAYER
  5
2
100
AcDbSymbolTable
 70
36
  0
LAYER
  5
10
100
AcDbSymbolTableRecord
100
AcDbLayerTableRecord
  2
0
 70
0
 62
7
  6
CONTINUOUS
370
-3
390
F
  0
LAYER
  5
1FA
100
AcDbSymbolTableRecord
100
AcDbLayerTableRecord
  2
DEFAULT_1
 70
0
 62
7
  6
CENTER
370
-3
390
F
  0
LAYER
  5
1FB
100
AcDbSymbolTableRecord
100
AcDbLayerTableRecord
  2
DEFAULT_2
 70
0
 62
7
  6
HIDDEN
370
-3
390
F
  0
LAYER
  5
1FC
100
AcDbSymbolTableRecord
100
AcDbLayerTableRecord
  2
DEFAULT_3
 70
0
 62
7
  6
PHANTOM
370
-3
390
F
  0
LAYER
  5
1FD
100
AcDbSymbolTableRecord
100
AcDbLayerTableRecord
  2
ASSI
 70
0
 62
7
  6
CONTINUOUS
370
-3
390
F
  0
LAYER
  5
1FE
100
AcDbSymbolTableRecord
100
AcDbLayerTableRecord
  2
COORDINATE
 70
0
 62
7
  6
CONTINUOUS
370
-3
390
F
  0
LAYER
  5
1FF
100
AcDbSymbolTableRecord
100
AcDbLayerTableRecord
  2
COPY_PUBLISH
 70
0
 62
7
  6
CONTINUOUS
370
-3
390
F
  0
LAYER
  5
200
100
AcDbSymbolTableRecord
100
AcDbLayerTableRecord
  2
COSMETICI
 70
0
 62
7
  6
CONTINUOUS
370
-3
390
F
  0
LAYER
  5
201
100
AcDbSymbolTableRecord
100
AcDbLayerTableRecord
  2
CURVE
 70
0
 62
7
  6
CONTINUOUS
370
-3
390
F
  0
LAYER
  5
202
100
AcDbSymbolTableRecord
100
AcDbLayerTableRecord
  2
DRAFT
 70
0
 62
7
  6
CONTINUOUS
370
-3
390
F
  0
LAYER
  5
203
100
AcDbSymbolTableRecord
100
AcDbLayerTableRecord
  2
IMPORT_IGES
 70
0
 62
7
  6
CONTINUOUS
370
-3
390
F
  0
LAYER
  5
204
100
AcDbSymbolTableRecord
100
AcDbLayerTableRecord
  2
NOTE
 70
0
 62
7
  6
CONTINUOUS
370
-3
390
F
  0
LAYER
  5
205
100
AcDbSymbolTableRecord
100
AcDbLayerTableRecord
  2
PIANI
 70
0
 62
7
  6
CONTINUOUS
370
-3
390
F
  0
LAYER
  5
206
100
AcDbSymbolTableRecord
100
AcDbLayerTableRecord
  2
PUNTI
 70
0
 62
7
  6
CONTINUOUS
370
-3
390
F
  0
LAYER
  5
207
100
AcDbSymbolTableRecord
100
AcDbLayerTableRecord
  2
RACCORDO
 70
0
 62
7
  6
CONTINUOUS
370
-3
390
F
  0
LAYER
  5
208
100
AcDbSymbolTableRecord
100
AcDbLayerTableRecord
  2
SIMBOLI
 70
0
 62
7
  6
CONTINUOUS
370
-3
390
F
  0
LAYER
  5
209
100
AcDbSymbolTableRecord
100
AcDbLayerTableRecord
  2
SMUSSO
 70
0
 62
7
  6
CONTINUOUS
370
-3
390
F
  0
LAYER
  5
20A
100
AcDbSymbolTableRecord
100
AcDbLayerTableRecord
  2
SUPERFICI
 70
0
 62
7
  6
CONTINUOUS
370
-3
390
F
  0
LAYER
  5
20B
100
AcDbSymbolTableRecord
100
AcDbLayerTableRecord
  2
TRASH
 70
0
 62
7
  6
CONTINUOUS
370
-3
390
F
  0
ENDTAB
  0
TABLE
  2
STYLE
  5
3
100
AcDbSymbolTable
 70
1
  0
STYLE
  5
11
100
AcDbSymbolTableRecord
100
AcDbTextStyleTableRecord
  2
STANDARD
 70
0
 40
0.0
 41
0.8
 50
0.0
 71
0
 42
0.2
  3
txt
  4

  0
STYLE
  5
20C
100
AcDbSymbolTableRecord
100
AcDbTextStyleTableRecord
  2
TEXTSTYLE_1
 70
0
 40
0.0
 41
0.8
 50
0.0
 71
0
 42
0.2
  3
gdt
  4

  0
ENDTAB
  0
TABLE
  2
VIEW
  5
6
100
AcDbSymbolTable
 70
0
  0
ENDTAB
  0
TABLE
  2
UCS
  5
7
100
AcDbSymbolTable
 70
0
  0
ENDTAB
  0
TABLE
  2
APPID
  5
9
100
AcDbSymbolTable
 70
1
  0
APPID
  5
20D
100
AcDbSymbolTableRecord
100
AcDbRegAppTableRecord
  2
ACAD
 70
0
  0
ENDTAB
  0
TABLE
  2
BLOCK_RECORD
  5
1
100
AcDbSymbolTable
 70
0
  0
BLOCK_RECORD
  5
20E
100
AcDbSymbolTableRecord
100
AcDbBlockTableRecord
  2
*Model_Space
  0
BLOCK_RECORD
  5
20F
100
AcDbSymbolTableRecord
100
AcDbBlockTableRecord
  2
*Paper_Space
  0
BLOCK_RECORD
  5
210
100
AcDbSymbolTableRecord
100
AcDbBlockTableRecord
  2
_FILLED
  0
BLOCK_RECORD
  5
211
100
AcDbSymbolTableRecord
100
AcDbBlockTableRecord
  2
*D0
  0
BLOCK_RECORD
  5
212
100
AcDbSymbolTableRecord
100
AcDbBlockTableRecord
  2
*D1
  0
BLOCK_RECORD
  5
213
100
AcDbSymbolTableRecord
100
AcDbBlockTableRecord
  2
*D2
  0
ENDTAB
  0
TABLE
  2
DIMSTYLE
  5
A
100
AcDbSymbolTable
 70
1
100
AcDbDimStyleTable
 71
0
  0
DIMSTYLE
105
214
100
AcDbSymbolTableRecord
100
AcDbDimStyleTableRecord
  2
STANDARD
 70
0
  3

  4

 40
1.0
 41
3.0
 42
0.5
 43
0.38
 44
1.5
 45
0.0
 46
0.0
 47
0.01
 48
0.01
140
3.0
141
0.09
142
0.0
143
25.4
144
1.0
145
0.0
146
1.0
147
0.625
 71
1
 72
0
 73
0
 74
0
 75
0
 76
0
 77
1
 78
8
 79
2
170
0
171
1
172
0
173
0
174
0
175
0
176
0
177
0
178
0
270
2
179
2
271
2
272
2
273
2
274
2
275
0
280
0
281
0
282
0
283
1
284
8
285
0
286
0
287
3
288
0
340
11
278
44
341
210
342
210
343
210
344
210
  0
DIMSTYLE
105
215
100
AcDbSymbolTableRecord
100
AcDbDimStyleTableRecord
  2
DIMSTYLE_1
 70
0
  3

  4

 40
1.0
 41
3.0
 42
0.5
 43
0.38
 44
1.5
 45
0.0
 46
0.0
 47
0.0
 48
0.0
140
3.0
141
0.09
142
0.0
143
25.4
144
1.0
145
0.0
146
1.0
147
0.75
 71
0
 72
0
 73
0
 74
0
 75
0
 76
0
 77
1
 78
8
 79
2
170
0
171
1
172
0
173
0
174
0
175
0
176
0
177
0
178
0
270
2
179
2
271
1
272
1
273
2
274
2
275
0
280
0
281
0
282
0
283
1
284
8
285
0
286
0
287
3
288
0
340
11
278
44
341
210
342
210
343
210
344
210
  0
DIMSTYLE
105
216
100
AcDbSymbolTableRecord
100
AcDbDimStyleTableRecord
  2
DIMSTYLE_2
 70
0
  3

  4

 40
1.0
 41
3.0
 42
0.5
 43
0.38
 44
1.5
 45
0.0
 46
0.0
 47
0.0
 48
0.0
140
3.0
141
0.09
142
0.0
143
25.4
144
1.0
145
0.0
146
1.0
147
0.75
 71
0
 72
0
 73
0
 74
0
 75
0
 76
0
 77
1
 78
8
 79
2
170
0
171
1
172
0
173
0
174
0
175
0
176
0
177
0
178
0
270
2
179
2
271
2
272
2
273
2
274
2
275
0
280
0
281
0
282
0
283
1
284
8
285
0
286
0
287
3
288
0
340
11
278
44
341
210
342
210
343
210
344
210
  0
ENDTAB
  0
ENDSEC
  0
SECTION
  2
BLOCKS
  0
BLOCK
  5
20
100
AcDbEntity
  8
0
100
AcDbBlockBegin
  2
*Model_Space
 70
0
 10
0.0
 20
0.0
 30
0.0
  3
*Model_Space
  1

  0
ENDBLK
  5
21
100
AcDbEntity
  8
0
100
AcDbBlockEnd
  0
BLOCK
  5
1C
100
AcDbEntity
  8
0
100
AcDbBlockBegin
  2
*Paper_Space
 70
0
 10
0.0
 20
0.0
 30
0.0
  3
*Paper_Space
  1

  0
ENDBLK
  5
1D
100
AcDbEntity
  8
0
100
AcDbBlockEnd
  0
BLOCK
  5
217
100
AcDbEntity
  8
0
100
AcDbBlockBegin
  2
_FILLED
 70
64
 10
0.0
 20
0.0
  3
_FILLED
  1

  0
SOLID
  5
218
100
AcDbEntity
  8
0
  6
BYBLOCK
 62
0
100
AcDbTrace
 10
0.0
 20
0.0
 11
-1.0
 21
0.3166666667
 12
-1.0
 22
-0.3166666667
 13
-1.0
 23
-0.3166666667
  0
ENDBLK
  5
219
100
AcDbEntity
  8
0
  6
BYBLOCK
 62
0
100
AcDbBlockEnd
  0
BLOCK
  5
21A
100
AcDbEntity
  8
0
100
AcDbBlockBegin
 62
7
  6
CONTINUOUS
  2
*D0
 70
65
 10
0.0
 20
0.0
  3
*D0
  1

  0
LINE
  5
21B
100
AcDbEntity
  8
0
100
AcDbLine
 62
7
  6
CONTINUOUS
 10
-63.0349101299
 20
29.5349101299
 11
-63.0349101299
 21
54.5467244698
  0
LINE
  5
21C
100
AcDbEntity
  8
0
100
AcDbLine
 62
7
  6
CONTINUOUS
 10
63.0349101299
 20
29.5349101299
 11
63.0349101299
 21
54.5467244698
  0
LINE
  5
21D
100
AcDbEntity
  8
0
100
AcDbLine
 62
7
  6
CONTINUOUS
 10
-63.0349101299
 20
53.0467244698
 11
0.0
 21
53.0467244698
  0
LINE
  5
21E
100
AcDbEntity
  8
0
100
AcDbLine
 62
7
  6
CONTINUOUS
 10
63.0349101299
 20
53.0467244698
 11
0.0
 21
53.0467244698
  0
INSERT
  5
21F
100
AcDbEntity
  8
0
100
AcDbBlockReference
 62
7
  6
CONTINUOUS
  2
_FILLED
 10
-63.0349101299
 20
53.0467244698
 41
3.0
 42
3.0
 43
3.0
 50
180.0
  0
INSERT
  5
220
100
AcDbEntity
  8
0
100
AcDbBlockReference
 62
7
  6
CONTINUOUS
  2
_FILLED
 10
63.0349101299
 20
53.0467244698
 41
3.0
 42
3.0
 43
3.0
  0
ENDBLK
  5
221
100
AcDbEntity
  8
0
  6
BYBLOCK
 62
0
100
AcDbBlockEnd
  0
BLOCK
  5
222
100
AcDbEntity
  8
0
100
AcDbBlockBegin
 62
7
  6
CONTINUOUS
  2
*D1
 70
65
 10
0.0
 20
0.0
  3
*D1
  1

  0
LINE
  5
223
100
AcDbEntity
  8
0
100
AcDbLine
 62
7
  6
CONTINUOUS
 10
-114.0975870046
 20
29.220718946
 11
-114.0975870046
 21
54.5843715192
  0
LINE
  5
224
100
AcDbEntity
  8
0
100
AcDbLine
 62
7
  6
CONTINUOUS
 10
-87.0975870046
 20
30.54
 11
-87.0975870046
 21
54.5843715192
  0
LINE
  5
225
100
AcDbEntity
  8
0
100
AcDbLine
 62
7
  6
CONTINUOUS
 10
-114.0975870046
 20
53.0843715192
 11
-100.5975870046
 21
53.0843715192
  0
LINE
  5
226
100
AcDbEntity
  8
0
100
AcDbLine
 62
7
  6
CONTINUOUS
 10
-87.0975870046
 20
53.0843715192
 11
-100.5975870046
 21
53.0843715192
  0
INSERT
  5
227
100
AcDbEntity
  8
0
100
AcDbBlockReference
 62
7
  6
CONTINUOUS
  2
_FILLED
 10
-114.0975870046
 20
53.0843715192
 41
3.0
 42
3.0
 43
3.0
 50
180.0
  0
INSERT
  5
228
100
AcDbEntity
  8
0
100
AcDbBlockReference
 62
7
  6
CONTINUOUS
  2
_FILLED
 10
-87.0975870046
 20
53.0843715192
 41
3.0
 42
3.0
 43
3.0
  0
ENDBLK
  5
229
100
AcDbEntity
  8
0
  6
BYBLOCK
 62
0
100
AcDbBlockEnd
  0
BLOCK
  5
22A
100
AcDbEntity
  8
0
100
AcDbBlockBegin
 62
7
  6
CONTINUOUS
  2
*D2
 70
65
 10
0.0
 20
0.0
  3
*D2
  1

  0
LINE
  5
22B
100
AcDbEntity
  8
0
100
AcDbLine
 62
7
  6
CONTINUOUS
 10
61.5351359582
 20
40.0349101299
 11
75.8829509957
 21
40.0349101299
  0
LINE
  5
22C
100
AcDbEntity
  8
0
100
AcDbLine
 62
7
  6
CONTINUOUS
 10
61.5351359552
 20
-40.0349101299
 11
75.8829509957
 21
-40.0349101299
  0
LINE
  5
22D
100
AcDbEntity
  8
0
100
AcDbLine
 62
7
  6
CONTINUOUS
 10
74.3829509957
 20
40.0349101299
 11
74.3829509957
 21
-0.0
  0
LINE
  5
22E
100
AcDbEntity
  8
0
100
AcDbLine
 62
7
  6
CONTINUOUS
 10
74.3829509957
 20
-40.0349101299
 11
74.3829509957
 21
-0.0
  0
INSERT
  5
22F
100
AcDbEntity
  8
0
100
AcDbBlockReference
 62
7
  6
CONTINUOUS
  2
_FILLED
 10
74.3829509957
 20
40.0349101299
 41
3.0
 42
3.0
 43
3.0
 50
90.0
  0
INSERT
  5
230
100
AcDbEntity
  8
0
100
AcDbBlockReference
 62
7
  6
CONTINUOUS
  2
_FILLED
 10
74.3829509957
 20
-40.0349101299
 41
3.0
 42
3.0
 43
3.0
 50
270.0
  0
ENDBLK
  5
231
100
AcDbEntity
  8
0
  6
BYBLOCK
 62
0
100
AcDbBlockEnd
  0
ENDSEC
  0
SECTION
  2
ENTITIES
  0
DIMENSION
  5
232
100
AcDbEntity
  8
0
100
AcDbDimension
 62
7
  6
CONTINUOUS
  2
*D0
 10
63.0349101299
 20
53.0467244698
 11
-4.9285714286
 21
53.0467244698
 70
160
 71
2
 72
2
 41
0.9
 42
126.0698202597
  3
DIMSTYLE_1
100
AcDbAlignedDimension
 13
-63.0349101299
 23
29.0349101299
 14
63.0349101299
 24
29.0349101299
100
AcDbRotatedDimension
  0
DIMENSION
  5
233
100
AcDbEntity
  8
0
100
AcDbDimension
 62
7
  6
CONTINUOUS
  2
*D1
 10
-87.0975870046
 20
53.0843715192
 11
-102.9547298618
 21
53.0843715192
 70
160
 71
2
 72
2
 41
0.9
 42
27.0
  3
DIMSTYLE_2
100
AcDbAlignedDimension
 13
-114.0975870046
 23
28.720718946
 14
-87.0975870046
 24
30.04
100
AcDbRotatedDimension
  0
DIMENSION
  5
234
100
AcDbEntity
  8
0
100
AcDbDimension
 62
7
  6
CONTINUOUS
  2
*D2
 10
74.3829509957
 20
-40.0349101299
 11
74.3829509957
 21
-4.0714285714
 70
160
 71
2
 72
2
 41
0.9
 42
80.0698202597
  3
DIMSTYLE_1
100
AcDbAlignedDimension
 13
61.0351359582
 23
40.0349101299
 14
61.0351359552
 24
-40.0349101299
 50
270.0
100
AcDbRotatedDimension
  0
LWPOLYLINE
  5
235
100
AcDbEntity
  8
IMPORT_IGES
100
AcDbPolyline
 62
7
  6
CONTINUOUS
 90
28
 70
0
 10
-62.4476348052
 20
-38.4478360137
 10
-62.4449330844
 20
-38.5362593316
 10
-62.4372444047
 20
-38.62361908
 10
-62.4245687659
 20
-38.709915259
 10
-62.4068046046
 20
-38.7954163677
 10
-62.3840534842
 20
-38.8798539069
 10
-62.3566200959
 20
-38.9624223789
 10
-62.3245955476
 20
-39.0429434016
 10
-62.2878887312
 20
-39.1215953571
 10
-62.2465310143
 20
-39.1981078932
 10
-62.2002832475
 20
-39.2728075286
 10
-62.1493845802
 20
-39.3453677446
 10
-62.0945838279
 20
-39.4145386324
 10
-62.0359224674
 20
-39.4800980135
 10
-61.973359022
 20
-39.5422680665
 10
-61.9075178772
 20
-39.6004654188
 10
-61.8381899033
 20
-39.6547238596
 10
-61.7655842299
 20
-39.7050095996
 10
-61.6909526324
 20
-39.7506378989
 10
-61.6146059261
 20
-39.7913795205
 10
-61.5362332955
 20
-39.8274637014
 10
-61.4561540698
 20
-39.8588934126
 10
-61.3742022431
 20
-39.8857473836
 10
-61.2905438213
 20
-39.907946885
 10
-61.2059961514
 20
-39.9252586996
 10
-61.1208316824
 20
-39.9376050883
 10
-61.0347779654
 20
-39.9450637902
 10
-60.9478350002
 20
-39.9476348052
  0
LWPOLYLINE
  5
236
100
AcDbEntity
  8
IMPORT_IGES
100
AcDbPolyline
 62
250
  6
CONTINUOUS
 90
28
 70
0
 10
-62.2551721417
 20
-38.2554005989
 10
-62.2526091975
 20
-38.342587599
 10
-62.2449821442
 20
-38.4294797152
 10
-62.2323167767
 20
-38.5157830461
 10
-62.2146559312
 20
-38.601205683
 10
-62.1920593407
 20
-38.6854586933
 10
-62.1646034343
 20
-38.7682570979
 10
-62.1323810758
 20
-38.8493208418
 10
-62.0955012519
 20
-38.928375736
 10
-62.0540887045
 20
-39.0051543821
 10
-62.008283506
 20
-39.0793970849
 10
-61.9582405855
 20
-39.1508527281
 10
-61.9041292083
 20
-39.2192796186
 10
-61.8461323986
 20
-39.2844463113
 10
-61.7844463234
 20
-39.3461323872
 10
-61.7192796312
 20
-39.4041291977
 10
-61.650852741
 20
-39.4582405759
 10
-61.5793970979
 20
-39.5082834975
 10
-61.5051543949
 20
-39.5540886971
 10
-61.4283757484
 20
-39.5955012456
 10
-61.3493208535
 20
-39.6323810708
 10
-61.2682571087
 20
-39.6646034303
 10
-61.1854588189
 20
-39.6920593031
 10
-61.1012059268
 20
-39.7146558733
 10
-61.0157830526
 20
-39.7323167756
 10
-60.9294789984
 20
-39.7449822282
 10
-60.8425857889
 20
-39.7526093035
 10
-60.7553973309
 20
-39.7551721427
  0
LINE
  5
237
100
AcDbEntity
  8
IMPORT_IGES
100
AcDbLine
 62
7
  6
CONTINUOUS
 10
-63.0349101299
 20
29.0349101299
 11
-63.0349101299
 21
-29.0349101299
  0
LINE
  5
238
100
AcDbEntity
  8
IMPORT_IGES
100
AcDbLine
 62
7
  6
CONTINUOUS
 10
-62.9476348052
 20
-28.9476348052
 11
-62.9476348052
 21
28.9476348052
  0
LINE
  5
239
100
AcDbEntity
  8
IMPORT_IGES
100
AcDbLine
 62
250
  6
CONTINUOUS
 10
-62.7464448822
 20
28.7464448821
 11
-62.7464448822
 21
-28.7464448822
  0
LINE
  5
23A
100
AcDbEntity
  8
IMPORT_IGES
100
AcDbLine
 62
7
  6
CONTINUOUS
 10
-62.5349101299
 20
38.5351385042
 11
-62.5349101299
 21
29.0349101299
  0
LINE
  5
23B
100
AcDbEntity
  8
IMPORT_IGES
100
AcDbLine
 62
7
  6
CONTINUOUS
 10
-62.5349101299
 20
-29.0349101299
 11
-62.5349101299
 21
-38.5351385006
  0
LINE
  5
23C
100
AcDbEntity
  8
IMPORT_IGES
100
AcDbLine
 62
7
  6
CONTINUOUS
 10
-62.4476348052
 20
-38.4478360137
 11
-62.4476348052
 21
-28.9476348052
  0
LINE
  5
23D
100
AcDbEntity
  8
IMPORT_IGES
100
AcDbLine
 62
7
  6
CONTINUOUS
 10
-62.4476348052
 20
28.9476348052
 11
-62.4476348052
 21
38.447863176
  0
LINE
  5
23E
100
AcDbEntity
  8
IMPORT_IGES
100
AcDbLine
 62
250
  6
CONTINUOUS
 10
-62.2551722781
 20
38.2554007354
 11
-62.2551722781
 21
28.7551722782
  0
LINE
  5
23F
100
AcDbEntity
  8
IMPORT_IGES
100
AcDbLine
 62
250
  6
CONTINUOUS
 10
-62.2551722782
 20
-28.7551722782
 11
-62.2551722782
 21
-38.2554007353
  0
LINE
  5
240
100
AcDbEntity
  8
IMPORT_IGES
100
AcDbLine
 62
250
  6
CONTINUOUS
 10
-61.2466886942
 20
-28.7207189612
 11
-61.2466886942
 21
28.7207189611
  0
LINE
  5
241
100
AcDbEntity
  8
IMPORT_IGES
100
AcDbLine
 62
250
  6
CONTINUOUS
 10
-60.755400778
 20
30.0139867035
 11
-60.755408395
 21
28.7294464936
  0
LINE
  5
242
100
AcDbEntity
  8
IMPORT_IGES
100
AcDbLine
 62
250
  6
CONTINUOUS
 10
-60.7554005941
 20
-30.0139867035
 11
-60.7554084111
 21
-28.7294464936
  0
LINE
  5
243
100
AcDbEntity
  8
IMPORT_IGES
100
AcDbLine
 62
250
  6
CONTINUOUS
 10
-60.7554007791
 20
-31.9860132965
 11
-60.7554005941
 21
-32.5139867035
  0
LINE
  5
244
100
AcDbEntity
  8
IMPORT_IGES
100
AcDbLine
 62
250
  6
CONTINUOUS
 10
-60.7554007791
 20
-34.4860132965
 11
-60.7554005941
 21
-35.0139867035
  0
LINE
  5
245
100
AcDbEntity
  8
IMPORT_IGES
100
AcDbLine
 62
250
  6
CONTINUOUS
 10
-60.7554007791
 20
-36.9860132965
 11
-60.7554005989
 21
-39.7551721417
  0
LINE
  5
246
100
AcDbEntity
  8
IMPORT_IGES
100
AcDbLine
 62
250
  6
CONTINUOUS
 10
-60.755400594
 20
31.9860132965
 11
-60.755400778
 21
32.5139867035
  0
LINE
  5
247
100
AcDbEntity
  8
IMPORT_IGES
100
AcDbLine
 62
250
  6
CONTINUOUS
 10
-60.755400594
 20
34.4860132965
 11
-60.755400778
 21
35.0139867035
  0
LINE
  5
248
100
AcDbEntity
  8
IMPORT_IGES
100
AcDbLine
 62
250
  6
CONTINUOUS
 10
-60.755400594
 20
36.9860132965
 11
-60.7554005989
 21
39.7551721417
  0
LWPOLYLINE
  5
249
100
AcDbEntity
  8
IMPORT_IGES
100
AcDbPolyline
 62
250
  6
CONTINUOUS
 90
28
 70
0
 10
-62.2551721417
 20
38.2554005989
 10
-62.2526072545
 20
38.3426207856
 10
-62.2449754566
 20
38.4295367845
 10
-62.2323041409
 20
38.5158545877
 10
-62.2146384297
 20
38.6012794392
 10
-62.1920392678
 20
38.6855256815
 10
-62.1645815156
 20
38.7683172772
 10
-62.1323568423
 20
38.8493769909
 10
-62.0954750989
 20
38.9284277884
 10
-62.054061025
 20
39.0052023083
 10
-62.0082546891
 20
39.0794408877
 10
-61.9582110151
 20
39.1508924408
 10
-61.904099258
 20
39.2193153077
 10
-61.8461024319
 20
39.2844780723
 10
-61.7844166905
 20
39.3461603444
 10
-61.7192506643
 20
39.4041535054
 10
-61.6508247543
 20
39.4582614139
 10
-61.5793703871
 20
39.5083010689
 10
-61.5051292321
 20
39.5541032288
 10
-61.4283523837
 20
39.595512984
 10
-61.3492995127
 20
39.6323902806
 10
-61.2682379875
 20
39.6646103941
 10
-61.1854419704
 20
39.6920643512
 10
-61.1011914896
 20
39.7146592986
 10
-61.0157714927
 20
39.732318817
 10
-60.9294708829
 20
39.744983179
 10
-60.8425815416
 20
39.7526095521
 10
-60.7553973415
 20
39.7551721427
  0
LWPOLYLINE
  5
24A
100
AcDbEntity
  8
0
100
AcDbPolyline
 62
7
  6
CONTINUOUS
 90
3
 70
0
 43
0.3500000006
 10
-4.928571476
 20
55.9395844116
 10
-4.0714284382
 20
56.7967223511
 10
-4.0714284382
 20
53.7967259674
  0
LWPOLYLINE
  5
24B
100
AcDbEntity
  8
0
100
AcDbPolyline
 62
7
  6
CONTINUOUS
 90
10
 70
0
 43
0.3500000006
 10
0.2142857063
 20
56.7967223511
 10
-0.4285714127
 20
56.1538688965
 10
-0.8571428254
 20
55.2967264252
 10
-0.8571428254
 20
54.2252949371
 10
-0.4285714127
 20
53.7967259674
 10
0.2142857063
 20
53.7967259674
 10
0.6428571367
 20
54.2252949371
 10
0.6428571367
 20
55.0824374084
 10
0.2142857063
 20
55.51101091
 10
-0.7142856996
 20
55.51101091
  0
LINE
  5
24C
100
AcDbEntity
  8
IMPORT_IGES
100
AcDbLine
 62
7
  6
CONTINUOUS
 10
-61.0351353064
 20
-40.0349101299
 11
61.0351359552
 21
-40.0349101299
  0
LINE
  5
24D
100
AcDbEntity
  8
IMPORT_IGES
100
AcDbLine
 62
7
  6
CONTINUOUS
 10
60.9478606336
 20
-39.9476348052
 11
-60.9478350002
 21
-39.9476348052
  0
LINE
  5
24E
100
AcDbEntity
  8
IMPORT_IGES
100
AcDbLine
 62
250
  6
CONTINUOUS
 10
-60.7553973299
 20
-39.7551721417
 11
60.7553979878
 21
-39.7551721417
  0
LWPOLYLINE
  5
24F
100
AcDbEntity
  8
0
100
AcDbPolyline
 62
7
  6
CONTINUOUS
 90
3
 70
0
 43
0.3500000006
 10
3.2142856836
 20
55.9395844116
 10
4.0714284382
 20
56.7967223511
 10
4.0714284382
 20
53.7967259674
  0
LWPOLYLINE
  5
250
100
AcDbEntity
  8
IMPORT_IGES
100
AcDbPolyline
 62
250
  6
CONTINUOUS
 90
64
 70
0
 10
-60.7554008418
 20
-35.0139867035
 10
-60.8552147222
 20
-35.0148091222
 10
-60.9500664973
 20
-35.0164849483
 10
-61.0399561673
 20
-35.0191445966
 10
-61.124461026
 20
-35.0230853695
 10
-61.2040037795
 20
-35.0284812253
 10
-61.2798525457
 20
-35.0352687336
 10
-61.3529204361
 20
-35.0436976792
 10
-61.4222943392
 20
-35.0540359433
 10
-61.4865030384
 20
-35.0660403923
 10
-61.5447758694
 20
-35.0796896005
 10
-61.5978834964
 20
-35.095281346
 10
-61.6466666954
 20
-35.1128949395
 10
-61.6909643673
 20
-35.1325755252
 10
-61.7309376112
 20
-35.1545321861
 10
-61.7679104996
 20
-35.1791103948
 10
-61.8021659122
 20
-35.2064171614
 10
-61.8334209694
 20
-35.2366577353
 10
-61.8621511055
 20
-35.2704288995
 10
-61.8885489053
 20
-35.3086423258
 10
-61.912421784
 20
-35.3508508149
 10
-61.9336674212
 20
-35.3953983454
 10
-61.95221775
 20
-35.4416403018
 10
-61.9681408374
 20
-35.4899437183
 10
-61.981538563
 20
-35.5398633474
 10
-61.9920630019
 20
-35.5901283391
 10
-62.0000620791
 20
-35.6416186202
 10
-62.0066814499
 20
-35.6972889946
 10
-62.0123192333
 20
-35.7584530106
 10
-62.0165773102
 20
-35.8237595905
 10
-62.0194069789
 20
-35.8922478341
 10
-62.0208066955
 20
-35.9649397317
 10
-62.0207780038
 20
-36.040226024
 10
-62.0192768343
 20
-36.113060185
 10
-62.0163434245
 20
-36.1815968745
 10
-62.0119375367
 20
-36.2470928775
 10
-62.0058943885
 20
-36.3092628295
 10
-61.9985804542
 20
-36.3670989621
 10
-61.9896292594
 20
-36.4214365183
 10
-61.9777765985
 20
-36.474646692
 10
-61.9625494742
 20
-36.5277773281
 10
-61.9444208838
 20
-36.5792382966
 10
-61.9235456136
 20
-36.6274290002
 10
-61.8998701193
 20
-36.672367516
 10
-61.8734479452
 20
-36.7140028376
 10
-61.84459451
 20
-36.7510811806
 10
-61.8135318966
 20
-36.7832339878
 10
-61.7800380221
 20
-36.8114949941
 10
-61.7437620565
 20
-36.8368354601
 10
-61.7049125121
 20
-36.8595875748
 10
-61.6632808767
 20
-36.87976263
 10
-61.6178907833
 20
-36.8976889484
 10
-61.5686080145
 20
-36.913574843
 10
-61.5155667877
 20
-36.9275175907
 10
-61.4581933883
 20
-36.9396521065
 10
-61.396010427
 20
-36.9502472305
 10
-61.329495293
 20
-36.9593289181
 10
-61.2595064401
 20
-36.9667647807
 10
-61.1868093212
 20
-36.9727901035
 10
-61.1106384833
 20
-36.9776055095
 10
-61.0295560214
 20
-36.9811667361
 10
-60.9430826338
 20
-36.9836154406
 10
-60.8516976223
 20
-36.9851944671
 10
-60.7554009868
 20
-36.9860132965
  0
LINE
  5
251
100
AcDbEntity
  8
IMPORT_IGES
100
AcDbLine
 62
250
  6
CONTINUOUS
 10
62.2551722781
 20
-38.255400599
 11
-62.2551722782
 21
-38.2554005989
  0
LINE
  5
252
100
AcDbEntity
  8
IMPORT_IGES
100
AcDbLine
 62
250
  6
CONTINUOUS
 10
-60.7554005813
 20
-37.1832159595
 11
60.7554005974
 21
-37.1832159595
  0
LINE
  5
253
100
AcDbEntity
  8
IMPORT_IGES
100
AcDbLine
 62
250
  6
CONTINUOUS
 10
-60.7554009868
 20
-36.9860132965
 11
60.7554011084
 21
-36.9860132965
  0
LINE
  5
254
100
AcDbEntity
  8
IMPORT_IGES
100
AcDbLine
 62
250
  6
CONTINUOUS
 10
60.7554011109
 20
-35.0139867035
 11
-60.7554008418
 21
-35.0139867035
  0
LINE
  5
255
100
AcDbEntity
  8
IMPORT_IGES
100
AcDbLine
 62
250
  6
CONTINUOUS
 10
60.7554005794
 20
-34.8167840405
 11
-60.7554005797
 21
-34.8167840405
  0
LINE
  5
256
100
AcDbEntity
  8
IMPORT_IGES
100
AcDbLine
 62
250
  6
CONTINUOUS
 10
-60.7554005797
 20
-34.6832159595
 11
60.7554005794
 21
-34.6832159595
  0
LINE
  5
257
100
AcDbEntity
  8
IMPORT_IGES
100
AcDbLine
 62
250
  6
CONTINUOUS
 10
-60.7554009868
 20
-34.4860132965
 11
60.7554011084
 21
-34.4860132965
  0
LWPOLYLINE
  5
258
100
AcDbEntity
  8
IMPORT_IGES
100
AcDbPolyline
 62
250
  6
CONTINUOUS
 90
3
 70
0
 10
-60.9306727007
 20
-37.1846566203
 10
-60.8428706612
 20
-37.1847474649
 10
-60.7554005989
 20
-37.1832159602
  0
LWPOLYLINE
  5
259
100
AcDbEntity
  8
IMPORT_IGES
100
AcDbPolyline
 62
250
  6
CONTINUOUS
 90
3
 70
0
 10
60.9306418276
 20
-34.8153445659
 10
60.842849166
 20
-34.8152533526
 10
60.7554005989
 20
-34.8167840399
  0
LWPOLYLINE
  5
25A
100
AcDbEntity
  8
IMPORT_IGES
100
AcDbPolyline
 62
250
  6
CONTINUOUS
 90
3
 70
0
 10
-60.9306727007
 20
-34.6846566203
 10
-60.8428706612
 20
-34.6847474649
 10
-60.7554005989
 20
-34.6832159602
  0
LWPOLYLINE
  5
25B
100
AcDbEntity
  8
IMPORT_IGES
100
AcDbPolyline
 62
250
  6
CONTINUOUS
 90
61
 70
0
 10
60.7554011109
 20
-35.0139867035
 10
60.8548844794
 20
-35.0147899099
 10
60.9497614146
 20
-35.0164698681
 10
61.0400319165
 20
-35.0191613503
 10
61.1253183444
 20
-35.023161283
 10
61.2059983391
 20
-35.0286627546
 10
61.2832048226
 20
-35.0356484894
 10
61.3578493251
 20
-35.0443862981
 10
61.4290203166
 20
-35.055182506
 10
61.4951161285
 20
-35.0679002345
 10
61.555448989
 20
-35.0826252992
 10
61.6107066699
 20
-35.0996691591
 10
61.6613508194
 20
-35.1190736575
 10
61.7070765897
 20
-35.1408484446
 10
61.7481888284
 20
-35.1652965036
 10
61.7860637271
 20
-35.1929209112
 10
61.8210372092
 20
-35.2240058596
 10
61.8527733513
 20
-35.258703173
 10
61.8816405742
 20
-35.2974003471
 10
61.9078638153
 20
-35.3412799317
 10
61.9312181373
 20
-35.3896348835
 10
61.9513971482
 20
-35.4395760053
 10
61.9680297918
 20
-35.4892489144
 10
61.9814871244
 20
-35.5398271897
 10
61.9925759236
 20
-35.5927044305
 10
62.0011871493
 20
-35.6473641197
 10
62.0074298417
 20
-35.7040485639
 10
62.0124378993
 20
-35.7655922581
 10
62.0167324564
 20
-35.8341576156
 10
62.0197923788
 20
-35.907424814
 10
62.0211881619
 20
-35.9814373669
 10
62.0206851774
 20
-36.0556832541
 10
62.0185180537
 20
-36.1298600517
 10
62.0149611717
 20
-36.2002781909
 10
62.0104315852
 20
-36.2649188249
 10
62.0045122403
 20
-36.3254578283
 10
61.9962263572
 20
-36.3838219505
 10
61.9855769513
 20
-36.4399462424
 10
61.9725610071
 20
-36.4935837205
 10
61.9561926982
 20
-36.5461479845
 10
61.9359541101
 20
-36.5989031513
 10
61.9123631572
 20
-36.6498515468
 10
61.8859877565
 20
-36.6958227552
 10
61.8572420363
 20
-36.736076505
 10
61.8257118683
 20
-36.7719251017
 10
61.7907227843
 20
-36.8037830389
 10
61.7523623399
 20
-36.8317445733
 10
61.7105429796
 20
-36.8562746324
 10
61.6643275689
 20
-36.8781992538
 10
61.6133185637
 20
-36.8979171475
 10
61.5579135083
 20
-36.9152969746
 10
61.4983679004
 20
-36.9303037782
 10
61.434901352
 20
-36.9432087014
 10
61.3672942512
 20
-36.9541616631
 10
61.2951432607
 20
-36.9630979521
 10
61.218706818
 20
-36.9703401305
 10
61.1377264855
 20
-36.976102073
 10
61.0510236133
 20
-36.9803261012
 10
60.958205318
 20
-36.9832029482
 10
60.8596644831
 20
-36.9850502814
 10
60.7554011084
 20
-36.9860132965
  0
LWPOLYLINE
  5
25C
100
AcDbEntity
  8
IMPORT_IGES
100
AcDbPolyline
 62
250
  6
CONTINUOUS
 90
65
 70
0
 10
60.7554005989
 20
-37.1832159607
 10
60.8465997682
 20
-37.1847502478
 10
60.9369467523
 20
-37.1846254268
 10
61.0261195869
 20
-37.1828414978
 10
61.1132970242
 20
-37.1795409752
 10
61.1987146353
 20
-37.1745813446
 10
61.2835818295
 20
-37.1675350627
 10
61.3691414511
 20
-37.1581575704
 10
61.4533091004
 20
-37.1466934268
 10
61.5325056972
 20
-37.1334487664
 10
61.6060670197
 20
-37.1188291968
 10
61.674646015
 20
-37.1024291104
 10
61.7371632805
 20
-37.0833378183
 10
61.7923211204
 20
-37.0620504209
 10
61.8420777417
 20
-37.0380718179
 10
61.8899461775
 20
-37.0090060188
 10
61.9377228977
 20
-36.9734838583
 10
61.982972506
 20
-36.9328745018
 10
62.0229396346
 20
-36.8888894553
 10
62.0574503295
 20
-36.8418684347
 10
62.0875402392
 20
-36.7914717241
 10
62.1130072193
 20
-36.7383916812
 10
62.1340830675
 20
-36.6826161749
 10
62.1515799084
 20
-36.6241573363
 10
62.1662057444
 20
-36.5637439168
 10
62.1783787363
 20
-36.5012445289
 10
62.1883289558
 20
-36.4367905601
 10
62.1963615011
 20
-36.371504924
 10
62.2027380146
 20
-36.305768211
 10
62.2076356303
 20
-36.2391998308
 10
62.2111787667
 20
-36.1717809263
 10
62.2135222761
 20
-36.1033141012
 10
62.2147292234
 20
-36.0339967518
 10
62.2147347568
 20
-35.9644022094
 10
62.2134615786
 20
-35.8942879823
 10
62.2109313057
 20
-35.8238965621
 10
62.2071653272
 20
-35.7545287551
 10
62.2020270634
 20
-35.6863306636
 10
62.1953379976
 20
-35.6191561852
 10
62.1870295522
 20
-35.5538678199
 10
62.1768638808
 20
-35.4902998354
 10
62.164597562
 20
-35.428617964
 10
62.1501766763
 20
-35.3701819022
 10
62.1334721838
 20
-35.3155538669
 10
62.1141018315
 20
-35.2641716412
 10
62.0916211156
 20
-35.2157082712
 10
62.0653825484
 20
-35.1700446399
 10
62.0353171274
 20
-35.1272998643
 10
62.0019658023
 20
-35.0875043404
 10
61.9651383898
 20
-35.0504486286
 10
61.9246719646
 20
-35.0163421685
 10
61.881498922
 20
-34.985843676
 10
61.8371733521
 20
-34.9596819862
 10
61.7903344644
 20
-34.9371282639
 10
61.7372592602
 20
-34.916654719
 10
61.675576344
 20
-34.8978451689
 10
61.6066863918
 20
-34.8811157962
 10
61.5323494495
 20
-34.8661873594
 10
61.4519320993
 20
-34.8528490088
 10
61.3660037052
 20
-34.8413115941
 10
61.2788284211
 20
-34.8319284231
 10
61.1924752419
 20
-34.8249947127
 10
61.1057809434
 20
-34.8202152459
 10
61.0184655301
 20
-34.8170576795
 10
60.9306418276
 20
-34.8153445659
  0
LWPOLYLINE
  5
25D
100
AcDbEntity
  8
IMPORT_IGES
100
AcDbPolyline
 62
250
  6
CONTINUOUS
 90
65
 70
0
 10
-60.7554005989
 20
-34.8167840395
 10
-60.8465821034
 20
-34.8152498535
 10
-60.9369137244
 20
-34.815374628
 10
-61.0260736293
 20
-34.8171583631
 10
-61.1132386554
 20
-34.8204583333
 10
-61.1986464611
 20
-34.8254172642
 10
-61.2835122446
 20
-34.8324633318
 10
-61.3690837469
 20
-34.8418422222
 10
-61.4532702763
 20
-34.8533082494
 10
-61.5324821643
 20
-34.8665525312
 10
-61.606055042
 20
-34.8811692303
 10
-61.6746423773
 20
-34.897564184
 10
-61.7371572591
 20
-34.9166460223
 10
-61.7922968434
 20
-34.937917394
 10
-61.842027744
 20
-34.9618756503
 10
-61.8898754525
 20
-34.9909214751
 10
-61.937638335
 20
-35.0264253845
 10
-61.982878629
 20
-35.0670168624
 10
-62.0228443812
 20
-35.1109850442
 10
-62.0573629443
 20
-35.1579906438
 10
-62.0874654536
 20
-35.2083729473
 10
-62.112944433
 20
-35.2614389484
 10
-62.1340307814
 20
-35.3171990644
 10
-62.1515374896
 20
-35.375642878
 10
-62.1661713024
 20
-35.4360461308
 10
-62.1783501426
 20
-35.4985424972
 10
-62.1883048781
 20
-35.5629983028
 10
-62.1963410992
 20
-35.6282882664
 10
-62.2027204694
 20
-35.6940317436
 10
-62.2076203251
 20
-35.7606093787
 10
-62.2111656836
 20
-35.8280378228
 10
-62.213511591
 20
-35.8965138578
 10
-62.2147209888
 20
-35.9658407017
 10
-62.214729112
 20
-36.0354446599
 10
-62.2134590366
 20
-36.1055678123
 10
-62.2109322768
 20
-36.175968079
 10
-62.2071695586
 20
-36.2453455247
 10
-62.202034105
 20
-36.313555143
 10
-62.1953476364
 20
-36.3807419403
 10
-62.1870413976
 20
-36.4460410009
 10
-62.1768776804
 20
-36.5096151757
 10
-62.1646127236
 20
-36.5713016138
 10
-62.150191439
 20
-36.6297468461
 10
-62.1334839677
 20
-36.6843913028
 10
-62.1141079299
 20
-36.7357945536
 10
-62.0916184418
 20
-36.7842818389
 10
-62.0653659936
 20
-36.8299751292
 10
-62.0352822341
 20
-36.872752454
 10
-62.0019127461
 20
-36.9125731421
 10
-61.9650682101
 20
-36.9496438068
 10
-61.9245858065
 20
-36.9837578347
 10
-61.8814032869
 20
-37.0142547145
 10
-61.8370815693
 20
-37.040401046
 10
-61.7902558653
 20
-37.0629302293
 10
-61.737191613
 20
-37.0833819535
 10
-61.6755109492
 20
-37.1021759402
 10
-61.6066197544
 20
-37.1188924677
 10
-61.5322832332
 20
-37.1338120599
 10
-61.4518688058
 20
-37.1471471726
 10
-61.3659453665
 20
-37.1586853499
 10
-61.2787811196
 20
-37.1680697483
 10
-61.1924523126
 20
-37.1750042767
 10
-61.1057890483
 20
-37.1797850262
 10
-61.0184937484
 20
-37.1829434263
 10
-60.9306727007
 20
-37.1846566203
  0
LWPOLYLINE
  5
25E
100
AcDbEntity
  8
IMPORT_IGES
100
AcDbPolyline
 62
250
  6
CONTINUOUS
 90
64
 70
0
 10
-60.7554008418
 20
-32.5139867035
 10
-60.8552147222
 20
-32.5148091222
 10
-60.9500664973
 20
-32.5164849483
 10
-61.0399561673
 20
-32.5191445966
 10
-61.124461026
 20
-32.5230853695
 10
-61.2040037795
 20
-32.5284812253
 10
-61.2798525457
 20
-32.5352687336
 10
-61.3529204361
 20
-32.5436976792
 10
-61.4222943392
 20
-32.5540359433
 10
-61.4865030384
 20
-32.5660403923
 10
-61.5447758694
 20
-32.5796896005
 10
-61.5978834964
 20
-32.595281346
 10
-61.6466666953
 20
-32.6128949395
 10
-61.6909643673
 20
-32.6325755252
 10
-61.7309376111
 20
-32.6545321861
 10
-61.7679104996
 20
-32.6791103948
 10
-61.8021659122
 20
-32.7064171614
 10
-61.8334209694
 20
-32.7366577353
 10
-61.8621511054
 20
-32.7704288994
 10
-61.8885489053
 20
-32.8086423258
 10
-61.912421784
 20
-32.8508508149
 10
-61.9336674211
 20
-32.8953983454
 10
-61.95221775
 20
-32.9416403018
 10
-61.9681408374
 20
-32.9899437183
 10
-61.981538563
 20
-33.0398633474
 10
-61.9920630019
 20
-33.0901283391
 10
-62.0000620791
 20
-33.1416186202
 10
-62.0066814499
 20
-33.1972889946
 10
-62.0123192333
 20
-33.2584530106
 10
-62.0165773102
 20
-33.3237595906
 10
-62.0194069789
 20
-33.3922478341
 10
-62.0208066955
 20
-33.4649397317
 10
-62.0207780038
 20
-33.540226024
 10
-62.0192768343
 20
-33.613060185
 10
-62.0163434245
 20
-33.6815968745
 10
-62.0119375367
 20
-33.7470928775
 10
-62.0058943885
 20
-33.8092628295
 10
-61.9985804542
 20
-33.8670989621
 10
-61.9896292594
 20
-33.9214365183
 10
-61.9777765985
 20
-33.9746466921
 10
-61.9625494742
 20
-34.0277773281
 10
-61.9444208838
 20
-34.0792382967
 10
-61.9235456136
 20
-34.1274290002
 10
-61.8998701193
 20
-34.1723675161
 10
-61.8734479452
 20
-34.2140028377
 10
-61.84459451
 20
-34.2510811806
 10
-61.8135318966
 20
-34.2832339878
 10
-61.780038022
 20
-34.3114949942
 10
-61.7437620565
 20
-34.3368354601
 10
-61.7049125121
 20
-34.3595875749
 10
-61.6632808767
 20
-34.3797626301
 10
-61.6178907832
 20
-34.3976889484
 10
-61.5686080144
 20
-34.413574843
 10
-61.5155667876
 20
-34.4275175907
 10
-61.4581933883
 20
-34.4396521066
 10
-61.3960104269
 20
-34.4502472305
 10
-61.329495293
 20
-34.4593289181
 10
-61.2595064401
 20
-34.4667647807
 10
-61.1868093211
 20
-34.4727901035
 10
-61.1106384832
 20
-34.4776055095
 10
-61.0295560213
 20
-34.4811667361
 10
-60.9430826338
 20
-34.4836154406
 10
-60.8516976223
 20
-34.4851944671
 10
-60.7554009868
 20
-34.4860132965
  0
LWPOLYLINE
  5
25F
100
AcDbEntity
  8
IMPORT_IGES
100
AcDbPolyline
 62
250
  6
CONTINUOUS
 90
64
 70
0
 10
-60.7554008418
 20
-30.0139867035
 10
-60.8552147222
 20
-30.0148091222
 10
-60.9500664973
 20
-30.0164849483
 10
-61.0399561673
 20
-30.0191445966
 10
-61.124461026
 20
-30.0230853695
 10
-61.2040037795
 20
-30.0284812253
 10
-61.2798525457
 20
-30.0352687336
 10
-61.3529204361
 20
-30.0436976792
 10
-61.4222943392
 20
-30.0540359433
 10
-61.4865030384
 20
-30.0660403923
 10
-61.5447758694
 20
-30.0796896005
 10
-61.5978834964
 20
-30.095281346
 10
-61.6466666954
 20
-30.1128949395
 10
-61.6909643673
 20
-30.1325755252
 10
-61.7309376111
 20
-30.1545321861
 10
-61.7679104996
 20
-30.1791103948
 10
-61.8021659122
 20
-30.2064171614
 10
-61.8334209694
 20
-30.2366577353
 10
-61.8621511054
 20
-30.2704288994
 10
-61.8885489053
 20
-30.3086423258
 10
-61.912421784
 20
-30.3508508149
 10
-61.9336674211
 20
-30.3953983454
 10
-61.95221775
 20
-30.4416403018
 10
-61.9681408374
 20
-30.4899437183
 10
-61.981538563
 20
-30.5398633474
 10
-61.9920630019
 20
-30.5901283391
 10
-62.0000620791
 20
-30.6416186202
 10
-62.0066814499
 20
-30.6972889946
 10
-62.0123192333
 20
-30.7584530106
 10
-62.0165773102
 20
-30.8237595905
 10
-62.0194069789
 20
-30.892247834
 10
-62.0208066955
 20
-30.9649397317
 10
-62.0207780039
 20
-31.040226024
 10
-62.0192768343
 20
-31.113060185
 10
-62.0163434245
 20
-31.1815968745
 10
-62.0119375367
 20
-31.2470928774
 10
-62.0058943885
 20
-31.3092628295
 10
-61.9985804542
 20
-31.3670989621
 10
-61.9896292594
 20
-31.4214365183
 10
-61.9777765985
 20
-31.474646692
 10
-61.9625494742
 20
-31.5277773281
 10
-61.9444208838
 20
-31.5792382966
 10
-61.9235456136
 20
-31.6274290002
 10
-61.8998701193
 20
-31.672367516
 10
-61.8734479452
 20
-31.7140028377
 10
-61.84459451
 20
-31.7510811806
 10
-61.8135318966
 20
-31.7832339878
 10
-61.7800380221
 20
-31.8114949941
 10
-61.7437620565
 20
-31.8368354601
 10
-61.7049125121
 20
-31.8595875748
 10
-61.6632808767
 20
-31.8797626301
 10
-61.6178907833
 20
-31.8976889484
 10
-61.5686080145
 20
-31.913574843
 10
-61.5155667877
 20
-31.9275175907
 10
-61.4581933883
 20
-31.9396521066
 10
-61.3960104269
 20
-31.9502472305
 10
-61.329495293
 20
-31.9593289181
 10
-61.2595064401
 20
-31.9667647807
 10
-61.1868093212
 20
-31.9727901035
 10
-61.1106384832
 20
-31.9776055095
 10
-61.0295560213
 20
-31.9811667361
 10
-60.9430826338
 20
-31.9836154406
 10
-60.8516976223
 20
-31.9851944671
 10
-60.7554009868
 20
-31.9860132965
  0
LINE
  5
260
100
AcDbEntity
  8
IMPORT_IGES
100
AcDbLine
 62
250
  6
CONTINUOUS
 10
60.7554011109
 20
-32.5139867035
 11
-60.7554008418
 21
-32.5139867035
  0
LINE
  5
261
100
AcDbEntity
  8
IMPORT_IGES
100
AcDbLine
 62
250
  6
CONTINUOUS
 10
60.7554005794
 20
-32.3167840405
 11
-60.7554005797
 21
-32.3167840405
  0
LINE
  5
262
100
AcDbEntity
  8
IMPORT_IGES
100
AcDbLine
 62
250
  6
CONTINUOUS
 10
-60.7554005797
 20
-32.1832159595
 11
60.7554005794
 21
-32.1832159595
  0
LINE
  5
263
100
AcDbEntity
  8
IMPORT_IGES
100
AcDbLine
 62
250
  6
CONTINUOUS
 10
-60.7554009868
 20
-31.9860132965
 11
60.7554011084
 21
-31.9860132965
  0
LINE
  5
264
100
AcDbEntity
  8
IMPORT_IGES
100
AcDbLine
 62
250
  6
CONTINUOUS
 10
60.7554011109
 20
-30.0139867035
 11
-60.7554008418
 21
-30.0139867035
  0
LINE
  5
265
100
AcDbEntity
  8
IMPORT_IGES
100
AcDbLine
 62
250
  6
CONTINUOUS
 10
60.755408395
 20
-29.8167840405
 11
-60.7554084111
 21
-29.8167840405
  0
LWPOLYLINE
  5
266
100
AcDbEntity
  8
IMPORT_IGES
100
AcDbPolyline
 62
250
  6
CONTINUOUS
 90
3
 70
0
 10
60.9306418279
 20
-32.3153445658
 10
60.8428491661
 20
-32.3152533526
 10
60.7554005989
 20
-32.3167840399
  0
LWPOLYLINE
  5
267
100
AcDbEntity
  8
IMPORT_IGES
100
AcDbPolyline
 62
250
  6
CONTINUOUS
 90
3
 70
0
 10
-60.9306725233
 20
-32.1846566151
 10
-60.8428705865
 20
-32.1847474588
 10
-60.7554005989
 20
-32.1832159602
  0
LWPOLYLINE
  5
268
100
AcDbEntity
  8
IMPORT_IGES
100
AcDbPolyline
 62
250
  6
CONTINUOUS
 90
3
 70
0
 10
60.9306418279
 20
-29.8153445658
 10
60.8428491661
 20
-29.8152533526
 10
60.7554005989
 20
-29.8167840399
  0
LWPOLYLINE
  5
269
100
AcDbEntity
  8
IMPORT_IGES
100
AcDbPolyline
 62
250
  6
CONTINUOUS
 90
61
 70
0
 10
60.7554011109
 20
-32.5139867035
 10
60.8548844794
 20
-32.5147899099
 10
60.9497614146
 20
-32.5164698681
 10
61.0400319165
 20
-32.5191613503
 10
61.1253183444
 20
-32.523161283
 10
61.2059983391
 20
-32.5286627546
 10
61.2832048226
 20
-32.5356484894
 10
61.3578493252
 20
-32.5443862981
 10
61.4290203166
 20
-32.555182506
 10
61.4951161285
 20
-32.5679002345
 10
61.555448989
 20
-32.5826252992
 10
61.61070667
 20
-32.5996691591
 10
61.6613508195
 20
-32.6190736575
 10
61.7070765897
 20
-32.6408484446
 10
61.7481888284
 20
-32.6652965036
 10
61.7860637271
 20
-32.6929209112
 10
61.8210372092
 20
-32.7240058597
 10
61.8527733513
 20
-32.7587031731
 10
61.8816405742
 20
-32.7974003472
 10
61.9078638154
 20
-32.8412799318
 10
61.9312181373
 20
-32.8896348835
 10
61.9513971483
 20
-32.9395760053
 10
61.9680297918
 20
-32.9892489144
 10
61.9814871244
 20
-33.0398271897
 10
61.9925759236
 20
-33.0927044305
 10
62.0011871493
 20
-33.1473641197
 10
62.0074298417
 20
-33.204048564
 10
62.0124378993
 20
-33.2655922581
 10
62.0167324564
 20
-33.3341576156
 10
62.0197923788
 20
-33.4074248141
 10
62.0211881619
 20
-33.481437367
 10
62.0206851774
 20
-33.5556832542
 10
62.0185180537
 20
-33.6298600517
 10
62.0149611717
 20
-33.7002781909
 10
62.0104315852
 20
-33.764918825
 10
62.0045122403
 20
-33.8254578283
 10
61.9962263572
 20
-33.8838219505
 10
61.9855769513
 20
-33.9399462425
 10
61.9725610071
 20
-33.9935837205
 10
61.9561926982
 20
-34.0461479845
 10
61.9359541101
 20
-34.0989031513
 10
61.9123631572
 20
-34.1498515468
 10
61.8859877565
 20
-34.1958227552
 10
61.8572420363
 20
-34.236076505
 10
61.8257118683
 20
-34.2719251017
 10
61.7907227843
 20
-34.3037830389
 10
61.7523623399
 20
-34.3317445733
 10
61.7105429795
 20
-34.3562746324
 10
61.6643275689
 20
-34.3781992538
 10
61.6133185637
 20
-34.3979171475
 10
61.5579135082
 20
-34.4152969746
 10
61.4983679004
 20
-34.4303037782
 10
61.434901352
 20
-34.4432087014
 10
61.3672942512
 20
-34.4541616631
 10
61.2951432607
 20
-34.4630979521
 10
61.218706818
 20
-34.4703401305
 10
61.1377264855
 20
-34.476102073
 10
61.0510236133
 20
-34.4803261012
 10
60.958205318
 20
-34.4832029482
 10
60.8596644831
 20
-34.4850502814
 10
60.7554011084
 20
-34.4860132965
  0
LWPOLYLINE
  5
26A
100
AcDbEntity
  8
IMPORT_IGES
100
AcDbPolyline
 62
250
  6
CONTINUOUS
 90
61
 70
0
 10
60.7554011109
 20
-30.0139867035
 10
60.8548844794
 20
-30.0147899099
 10
60.9497614146
 20
-30.0164698681
 10
61.0400319165
 20
-30.0191613503
 10
61.1253183444
 20
-30.023161283
 10
61.2059983391
 20
-30.0286627546
 10
61.2832048226
 20
-30.0356484894
 10
61.3578493251
 20
-30.0443862981
 10
61.4290203165
 20
-30.055182506
 10
61.4951161285
 20
-30.0679002345
 10
61.5554489889
 20
-30.0826252992
 10
61.6107066699
 20
-30.0996691591
 10
61.6613508194
 20
-30.1190736575
 10
61.7070765896
 20
-30.1408484446
 10
61.7481888284
 20
-30.1652965036
 10
61.786063727
 20
-30.1929209111
 10
61.8210372092
 20
-30.2240058596
 10
61.8527733513
 20
-30.258703173
 10
61.8816405742
 20
-30.2974003471
 10
61.9078638153
 20
-30.3412799317
 10
61.9312181373
 20
-30.3896348835
 10
61.9513971482
 20
-30.4395760053
 10
61.9680297918
 20
-30.4892489144
 10
61.9814871244
 20
-30.5398271896
 10
61.9925759236
 20
-30.5927044305
 10
62.0011871493
 20
-30.6473641197
 10
62.0074298417
 20
-30.7040485639
 10
62.0124378993
 20
-30.765592258
 10
62.0167324564
 20
-30.8341576156
 10
62.0197923788
 20
-30.907424814
 10
62.0211881619
 20
-30.9814373669
 10
62.0206851774
 20
-31.0556832541
 10
62.0185180537
 20
-31.1298600516
 10
62.0149611718
 20
-31.2002781909
 10
62.0104315852
 20
-31.2649188249
 10
62.0045122403
 20
-31.3254578283
 10
61.9962263572
 20
-31.3838219505
 10
61.9855769513
 20
-31.4399462424
 10
61.9725610071
 20
-31.4935837204
 10
61.9561926982
 20
-31.5461479845
 10
61.9359541101
 20
-31.5989031512
 10
61.9123631572
 20
-31.6498515467
 10
61.8859877565
 20
-31.6958227552
 10
61.8572420363
 20
-31.736076505
 10
61.8257118683
 20
-31.7719251016
 10
61.7907227844
 20
-31.8037830389
 10
61.7523623399
 20
-31.8317445733
 10
61.7105429796
 20
-31.8562746323
 10
61.6643275689
 20
-31.8781992538
 10
61.6133185637
 20
-31.8979171475
 10
61.5579135083
 20
-31.9152969746
 10
61.4983679004
 20
-31.9303037782
 10
61.434901352
 20
-31.9432087014
 10
61.3672942513
 20
-31.9541616631
 10
61.2951432607
 20
-31.9630979521
 10
61.218706818
 20
-31.9703401305
 10
61.1377264855
 20
-31.976102073
 10
61.0510236133
 20
-31.9803261012
 10
60.958205318
 20
-31.9832029482
 10
60.8596644831
 20
-31.9850502814
 10
60.7554011084
 20
-31.9860132965
  0
LWPOLYLINE
  5
26B
100
AcDbEntity
  8
IMPORT_IGES
100
AcDbPolyline
 62
250
  6
CONTINUOUS
 90
65
 70
0
 10
60.7554005989
 20
-34.6832159605
 10
60.8465997689
 20
-34.6847502477
 10
60.9369467538
 20
-34.6846254268
 10
61.0261195891
 20
-34.6828414978
 10
61.1132970273
 20
-34.6795409751
 10
61.1987146392
 20
-34.6745813443
 10
61.2835818343
 20
-34.6675350622
 10
61.3691414567
 20
-34.6581575696
 10
61.4533091068
 20
-34.6466934258
 10
61.5325057039
 20
-34.6334487651
 10
61.6060670258
 20
-34.6188291955
 10
61.67464602
 20
-34.6024291092
 10
61.7371632846
 20
-34.583337817
 10
61.7923211239
 20
-34.5620504195
 10
61.8420777448
 20
-34.5380718162
 10
61.8899461802
 20
-34.5090060169
 10
61.9377228999
 20
-34.4734838563
 10
61.982972508
 20
-34.4328744998
 10
62.0229396362
 20
-34.3888894533
 10
62.0574503307
 20
-34.341868433
 10
62.0875402401
 20
-34.2914717226
 10
62.1130072198
 20
-34.23839168
 10
62.1340830679
 20
-34.1826161738
 10
62.1515799086
 20
-34.1241573353
 10
62.1662057446
 20
-34.0637439158
 10
62.1783787364
 20
-34.0012445279
 10
62.1883289559
 20
-33.9367905591
 10
62.1963615012
 20
-33.8715049229
 10
62.2027380147
 20
-33.8057682097
 10
62.2076356304
 20
-33.7391998292
 10
62.2111787668
 20
-33.6717809243
 10
62.2135222762
 20
-33.6033140989
 10
62.2147292234
 20
-33.5339967491
 10
62.2147347568
 20
-33.4644022062
 10
62.2134615785
 20
-33.3942879787
 10
62.2109313055
 20
-33.3238965582
 10
62.2071653269
 20
-33.254528751
 10
62.2020270631
 20
-33.1863306593
 10
62.1953379972
 20
-33.1191561809
 10
62.1870295516
 20
-33.0538678158
 10
62.1768638801
 20
-32.9902998315
 10
62.1645975613
 20
-32.9286179605
 10
62.1501766755
 20
-32.8701818991
 10
62.133472183
 20
-32.8155538644
 10
62.1141018307
 20
-32.7641716394
 10
62.091621115
 20
-32.71570827
 10
62.0653825481
 20
-32.6700446394
 10
62.0353171276
 20
-32.6272998644
 10
62.001965803
 20
-32.5875043412
 10
61.9651383911
 20
-32.5504486298
 10
61.9246719667
 20
-32.5163421701
 10
61.8814989246
 20
-32.4858436777
 10
61.8371733552
 20
-32.4596819879
 10
61.7903344678
 20
-32.4371282653
 10
61.7372592637
 20
-32.4166547203
 10
61.6755763474
 20
-32.3978451699
 10
61.6066863948
 20
-32.3811157969
 10
61.5323494521
 20
-32.3661873599
 10
61.4519321016
 20
-32.3528490091
 10
61.3660037071
 20
-32.3413115943
 10
61.2788284226
 20
-32.3319284232
 10
61.1924752431
 20
-32.3249947127
 10
61.1057809443
 20
-32.3202152459
 10
61.0184655307
 20
-32.3170576795
 10
60.9306418279
 20
-32.3153445658
  0
LWPOLYLINE
  5
26C
100
AcDbEntity
  8
IMPORT_IGES
100
AcDbPolyline
 62
250
  6
CONTINUOUS
 90
65
 70
0
 10
-60.7554005989
 20
-32.3167840395
 10
-60.8465821034
 20
-32.3152498535
 10
-60.9369137243
 20
-32.315374628
 10
-61.0260736292
 20
-32.3171583631
 10
-61.1132386552
 20
-32.3204583333
 10
-61.1986464608
 20
-32.3254172641
 10
-61.2835122442
 20
-32.3324633317
 10
-61.3690837466
 20
-32.3418422222
 10
-61.453270276
 20
-32.3533082493
 10
-61.532482164
 20
-32.3665525312
 10
-61.6060550417
 20
-32.3811692302
 10
-61.674642377
 20
-32.3975641839
 10
-61.7371572589
 20
-32.4166460223
 10
-61.7922968432
 20
-32.4379173939
 10
-61.8420277438
 20
-32.4618756502
 10
-61.8898754523
 20
-32.490921475
 10
-61.9376383348
 20
-32.5264253844
 10
-61.9828786288
 20
-32.5670168622
 10
-62.0228443811
 20
-32.610985044
 10
-62.0573629442
 20
-32.6579906436
 10
-62.0874654535
 20
-32.7083729472
 10
-62.112944433
 20
-32.7614389483
 10
-62.1340307814
 20
-32.8171990643
 10
-62.1515374895
 20
-32.8756428779
 10
-62.1661713024
 20
-32.9360461307
 10
-62.1783501426
 20
-32.9985424971
 10
-62.1883048781
 20
-33.0629983028
 10
-62.1963410992
 20
-33.1282882663
 10
-62.2027204694
 20
-33.1940317435
 10
-62.2076203251
 20
-33.2606093786
 10
-62.2111656836
 20
-33.3280378226
 10
-62.213511591
 20
-33.3965138576
 10
-62.2147209888
 20
-33.4658407016
 10
-62.214729112
 20
-33.5354446597
 10
-62.2134590366
 20
-33.6055678122
 10
-62.2109322768
 20
-33.6759680789
 10
-62.2071695586
 20
-33.7453455246
 10
-62.202034105
 20
-33.8135551429
 10
-62.1953476364
 20
-33.8807419402
 10
-62.1870413976
 20
-33.9460410008
 10
-62.1768776804
 20
-34.0096151756
 10
-62.1646127236
 20
-34.0713016138
 10
-62.1501914391
 20
-34.1297468461
 10
-62.1334839677
 20
-34.1843913027
 10
-62.1141079299
 20
-34.2357945536
 10
-62.0916184418
 20
-34.2842818389
 10
-62.0653659936
 20
-34.3299751292
 10
-62.035282234
 20
-34.3727524541
 10
-62.001912746
 20
-34.4125731421
 10
-61.96506821
 20
-34.4496438068
 10
-61.9245858064
 20
-34.4837578348
 10
-61.8814032868
 20
-34.5142547146
 10
-61.8370815692
 20
-34.540401046
 10
-61.7902558652
 20
-34.5629302294
 10
-61.7371916129
 20
-34.5833819535
 10
-61.6755109491
 20
-34.6021759402
 10
-61.6066197543
 20
-34.6188924678
 10
-61.5322832331
 20
-34.6338120599
 10
-61.4518688057
 20
-34.6471471726
 10
-61.3659453664
 20
-34.6586853499
 10
-61.2787811196
 20
-34.6680697483
 10
-61.1924523126
 20
-34.6750042767
 10
-61.1057890482
 20
-34.6797850262
 10
-61.0184937484
 20
-34.6829434263
 10
-60.9306727007
 20
-34.6846566203
  0
LWPOLYLINE
  5
26D
100
AcDbEntity
  8
IMPORT_IGES
100
AcDbPolyline
 62
250
  6
CONTINUOUS
 90
65
 70
0
 10
60.7554005989
 20
-32.1832159605
 10
60.8465997689
 20
-32.1847502477
 10
60.9369467537
 20
-32.1846254268
 10
61.026119589
 20
-32.1828414978
 10
61.1132970272
 20
-32.1795409751
 10
61.1987146391
 20
-32.1745813443
 10
61.2835818341
 20
-32.1675350622
 10
61.3691414565
 20
-32.1581575696
 10
61.4533091067
 20
-32.1466934258
 10
61.5325057038
 20
-32.1334487652
 10
61.6060670257
 20
-32.1188291956
 10
61.6746460199
 20
-32.1024291092
 10
61.7371632845
 20
-32.0833378171
 10
61.7923211238
 20
-32.0620504195
 10
61.8420777447
 20
-32.0380718162
 10
61.8899461801
 20
-32.009006017
 10
61.9377228999
 20
-31.9734838564
 10
61.9829725079
 20
-31.9328744999
 10
62.0229396362
 20
-31.8888894534
 10
62.0574503307
 20
-31.8418684331
 10
62.08754024
 20
-31.7914717227
 10
62.1130072198
 20
-31.7383916801
 10
62.1340830679
 20
-31.6826161739
 10
62.1515799086
 20
-31.6241573354
 10
62.1662057446
 20
-31.5637439159
 10
62.1783787364
 20
-31.501244528
 10
62.1883289559
 20
-31.4367905591
 10
62.1963615012
 20
-31.371504923
 10
62.2027380147
 20
-31.3057682098
 10
62.2076356304
 20
-31.2391998293
 10
62.2111787668
 20
-31.1717809245
 10
62.2135222762
 20
-31.103314099
 10
62.2147292234
 20
-31.0339967492
 10
62.2147347568
 20
-30.9644022064
 10
62.2134615785
 20
-30.8942879788
 10
62.2109313055
 20
-30.8238965583
 10
62.2071653269
 20
-30.7545287511
 10
62.2020270631
 20
-30.6863306594
 10
62.1953379972
 20
-30.6191561811
 10
62.1870295517
 20
-30.5538678159
 10
62.1768638801
 20
-30.4902998316
 10
62.1645975613
 20
-30.4286179606
 10
62.1501766755
 20
-30.3701818992
 10
62.133472183
 20
-30.3155538645
 10
62.1141018308
 20
-30.2641716395
 10
62.091621115
 20
-30.21570827
 10
62.0653825481
 20
-30.1700446395
 10
62.0353171276
 20
-30.1272998645
 10
62.001965803
 20
-30.0875043412
 10
61.9651383912
 20
-30.0504486298
 10
61.9246719667
 20
-30.0163421701
 10
61.8814989247
 20
-29.9858436777
 10
61.8371733553
 20
-29.9596819879
 10
61.7903344679
 20
-29.9371282654
 10
61.7372592638
 20
-29.9166547203
 10
61.6755763475
 20
-29.8978451699
 10
61.6066863949
 20
-29.8811157969
 10
61.5323494523
 20
-29.8661873599
 10
61.4519321017
 20
-29.8528490092
 10
61.3660037072
 20
-29.8413115944
 10
61.2788284227
 20
-29.8319284232
 10
61.1924752432
 20
-29.8249947127
 10
61.1057809444
 20
-29.8202152459
 10
61.0184655308
 20
-29.8170576795
 10
60.9306418279
 20
-29.8153445658
  0
LWPOLYLINE
  5
26E
100
AcDbEntity
  8
IMPORT_IGES
100
AcDbPolyline
 62
250
  6
CONTINUOUS
 90
65
 70
0
 10
-60.7554005989
 20
-29.8167839628
 10
-60.8465817926
 20
-29.815249834
 10
-60.936913083
 20
-29.8153746323
 10
-61.0260726416
 20
-29.8171583574
 10
-61.1132373026
 20
-29.8204582763
 10
-61.1986447364
 20
-29.825417122
 10
-61.283510169
 20
-29.8324630948
 10
-61.3690812783
 20
-29.8418418738
 10
-61.4532674497
 20
-29.8533077799
 10
-61.5324792291
 20
-29.8665519748
 10
-61.6060523739
 20
-29.8811686563
 10
-61.6746401665
 20
-29.8975636268
 10
-61.7371554449
 20
-29.9166454553
 10
-61.7922952901
 20
-29.9379167532
 10
-61.8420264043
 20
-29.9618749092
 10
-61.8898743003
 20
-29.9909206587
 10
-61.9376373383
 20
-30.0264245307
 10
-61.9828777659
 20
-30.0670159964
 10
-62.0228436649
 20
-30.1109842044
 10
-62.0573624097
 20
-30.1579898929
 10
-62.0874651
 20
-30.2083723238
 10
-62.112944213
 20
-30.2614384322
 10
-62.1340306384
 20
-30.3171986166
 10
-62.151537393
 20
-30.3756424784
 10
-62.1661712358
 20
-30.4360457573
 10
-62.1783500923
 20
-30.4985421304
 10
-62.1883048331
 20
-30.5629979206
 10
-62.1963410574
 20
-30.6282878364
 10
-62.2027204288
 20
-30.6940312258
 10
-62.2076202841
 20
-30.7606087407
 10
-62.2111656474
 20
-30.8280370455
 10
-62.2135115663
 20
-30.8965129171
 10
-62.21472098
 20
-30.9658395785
 10
-62.214729124
 20
-31.0354433636
 10
-62.213459077
 20
-31.1055663482
 10
-62.2109323528
 20
-31.1759664565
 10
-62.2071696722
 20
-31.2453437939
 10
-62.2020342588
 20
-31.3135533683
 10
-62.1953478343
 20
-31.3807401718
 10
-62.1870416377
 20
-31.4460392874
 10
-62.1768779606
 20
-31.5096135692
 10
-62.16461304
 20
-31.571300163
 10
-62.1501917757
 20
-31.6297455891
 10
-62.1334843054
 20
-31.6843902834
 10
-62.114108244
 20
-31.7357938099
 10
-62.091618684
 20
-31.7842813804
 10
-62.0653660853
 20
-31.8299749777
 10
-62.0352821033
 20
-31.8727526192
 10
-62.0019123612
 20
-31.9125735687
 10
-61.9650675351
 20
-31.9496444228
 10
-61.9245848081
 20
-31.983758585
 10
-61.8814020054
 20
-32.0142555302
 10
-61.8370800843
 20
-32.0404018344
 10
-61.7902542427
 20
-32.0629309216
 10
-61.7371899252
 20
-32.0833825376
 10
-61.6755093054
 20
-32.1021764131
 10
-61.6066182529
 20
-32.1188928174
 10
-61.532281895
 20
-32.1338123044
 10
-61.4518676238
 20
-32.1471473419
 10
-61.3659443586
 20
-32.1586854621
 10
-61.278780291
 20
-32.1680698158
 10
-61.1924516663
 20
-32.1750043119
 10
-61.1057885825
 20
-32.1797850416
 10
-61.0184934417
 20
-32.1829434289
 10
-60.9306725233
 20
-32.1846566151
  0
LINE
  5
26F
100
AcDbEntity
  8
IMPORT_IGES
100
AcDbLine
 62
7
  6
CONTINUOUS
 10
62.5349101299
 20
-29.0349101299
 11
63.0349101299
 21
-29.0349101299
  0
LINE
  5
270
100
AcDbEntity
  8
IMPORT_IGES
100
AcDbLine
 62
7
  6
CONTINUOUS
 10
-62.5349101299
 20
-29.0349101299
 11
-63.0349101299
 21
-29.0349101299
  0
LINE
  5
271
100
AcDbEntity
  8
IMPORT_IGES
100
AcDbLine
 62
7
  6
CONTINUOUS
 10
62.9476348052
 20
-28.9476348052
 11
62.4476348052
 21
-28.9476348052
  0
LINE
  5
272
100
AcDbEntity
  8
IMPORT_IGES
100
AcDbLine
 62
7
  6
CONTINUOUS
 10
-62.4476348052
 20
-28.9476348052
 11
-62.9476348052
 21
-28.9476348052
  0
LINE
  5
273
100
AcDbEntity
  8
IMPORT_IGES
100
AcDbLine
 62
7
  6
CONTINUOUS
 10
60.755408395
 20
-28.7294464936
 11
-60.7554084111
 21
-28.7294464936
  0
LINE
  5
274
100
AcDbEntity
  8
IMPORT_IGES
100
AcDbLine
 62
7
  6
CONTINUOUS
 10
61.246690672
 20
-28.7207189611
 11
-61.2466826297
 21
-28.7207189611
  0
LINE
  5
275
100
AcDbEntity
  8
IMPORT_IGES
100
AcDbLine
 62
7
  6
CONTINUOUS
 10
-62.9476348052
 20
-28.9476348053
 11
-62.7464448822
 21
-28.7464448822
  0
LINE
  5
276
100
AcDbEntity
  8
IMPORT_IGES
100
AcDbLine
 62
7
  6
CONTINUOUS
 10
-62.4476348053
 20
-28.9476348052
 11
-62.2551722782
 21
-28.7551722782
  0
LINE
  5
277
100
AcDbEntity
  8
IMPORT_IGES
100
AcDbLine
 62
7
  6
CONTINUOUS
 10
-62.7464448822
 20
28.7464448821
 11
-62.9476348052
 21
28.9476348052
  0
LINE
  5
278
100
AcDbEntity
  8
IMPORT_IGES
100
AcDbLine
 62
7
  6
CONTINUOUS
 10
-62.4476348052
 20
28.9476348053
 11
-62.2551722781
 21
28.7551722782
  0
LWPOLYLINE
  5
279
100
AcDbEntity
  8
0
100
AcDbPolyline
 62
7
  6
CONTINUOUS
 90
3
 70
0
 43
0.3500000006
 10
2.2142856617
 20
54.0824371033
 10
2.1428571696
 20
53.8681526184
 10
2.0000000439
 20
53.5824369507
  0
LINE
  5
27A
100
AcDbEntity
  8
IMPORT_IGES
100
AcDbLine
 62
250
  6
CONTINUOUS
 10
-62.4476348052
 20
-38.4478632625
 11
-62.2551722782
 21
-38.2554007353
  0
LINE
  5
27B
100
AcDbEntity
  8
IMPORT_IGES
100
AcDbLine
 62
250
  6
CONTINUOUS
 10
-60.7553973299
 20
-39.7551721417
 11
-60.9478599935
 21
-39.9476348052
  0
LINE
  5
27C
100
AcDbEntity
  8
IMPORT_IGES
100
AcDbLine
 62
250
  6
CONTINUOUS
 10
-62.2551722781
 20
38.2554007354
 11
-62.4476348052
 21
38.4478632626
  0
LINE
  5
27D
100
AcDbEntity
  8
IMPORT_IGES
100
AcDbLine
 62
250
  6
CONTINUOUS
 10
-60.9478600041
 20
39.9476348052
 11
-60.7553973404
 21
39.7551721417
  0
LWPOLYLINE
  5
27E
100
AcDbEntity
  8
0
100
AcDbPolyline
 62
7
  6
CONTINUOUS
 90
4
 70
0
 43
0.3500000006
 10
73.2043774567
 20
-4.0714281921
 10
72.3472349854
 20
-4.0714281921
 10
71.9186660156
 20
-3.6428569565
 10
71.9186660156
 20
-3.000000103
  0
LWPOLYLINE
  5
27F
100
AcDbEntity
  8
0
100
AcDbPolyline
 62
7
  6
CONTINUOUS
 90
13
 70
0
 43
0.3500000006
 10
72.7758084869
 20
-1.7142852631
 10
71.490092514
 20
-1.7142852631
 10
71.0615235443
 20
-1.4999996452
 10
70.6329500427
 20
-1.0714295425
 10
70.6329500427
 20
-0.8571427917
 10
71.0615235443
 20
-0.4285715561
 10
71.490092514
 20
-0.2142848053
 10
72.7758084869
 20
-0.2142848053
 10
73.2043774567
 20
-0.4285715561
 10
73.6329509583
 20
-0.8571427917
 10
73.6329509583
 20
-1.0714295425
 10
73.2043774567
 20
-1.4999996452
 10
72.7758084869
 20
-1.7142852631
  0
LINE
  5
280
100
AcDbEntity
  8
IMPORT_IGES
100
AcDbLine
 62
250
  6
CONTINUOUS
 10
60.7553979794
 20
39.7551721417
 11
60.947860643
 21
39.9476348052
  0
LINE
  5
281
100
AcDbEntity
  8
IMPORT_IGES
100
AcDbLine
 62
250
  6
CONTINUOUS
 10
60.9478606514
 20
-39.9476348052
 11
60.7553979878
 21
-39.7551721417
  0
LINE
  5
282
100
AcDbEntity
  8
IMPORT_IGES
100
AcDbLine
 62
250
  6
CONTINUOUS
 10
62.4476348052
 20
38.4478632625
 11
62.2551722782
 21
38.2554007353
  0
LINE
  5
283
100
AcDbEntity
  8
IMPORT_IGES
100
AcDbLine
 62
250
  6
CONTINUOUS
 10
62.2551722781
 20
-38.2554007354
 11
62.4476348052
 21
-38.4478632626
  0
LINE
  5
284
100
AcDbEntity
  8
IMPORT_IGES
100
AcDbLine
 62
7
  6
CONTINUOUS
 10
62.4476348053
 20
28.9476348052
 11
62.2551722782
 21
28.7551722782
  0
LINE
  5
285
100
AcDbEntity
  8
IMPORT_IGES
100
AcDbLine
 62
7
  6
CONTINUOUS
 10
62.7464448821
 20
28.7464448822
 11
62.9476348052
 21
28.9476348052
  0
LWPOLYLINE
  5
286
100
AcDbEntity
  8
0
100
AcDbPolyline
 62
7
  6
CONTINUOUS
 90
3
 70
0
 43
0.3500000006
 10
73.3472352905
 20
1.3571423035
 10
73.5615243073
 20
1.2857133865
 10
73.8472354431
 20
1.1428578186
  0
LINE
  5
287
100
AcDbEntity
  8
IMPORT_IGES
100
AcDbLine
 62
7
  6
CONTINUOUS
 10
62.4476348052
 20
-28.9476348053
 11
62.2551722781
 21
-28.7551722782
  0
LINE
  5
288
100
AcDbEntity
  8
IMPORT_IGES
100
AcDbLine
 62
7
  6
CONTINUOUS
 10
62.9476348053
 20
-28.9476348052
 11
62.7464448822
 21
-28.7464448822
  0
LWPOLYLINE
  5
289
100
AcDbEntity
  8
IMPORT_IGES
100
AcDbPolyline
 62
250
  6
CONTINUOUS
 90
64
 70
0
 10
60.7554008418
 20
30.0139867035
 10
60.8552147222
 20
30.0148091222
 10
60.9500664973
 20
30.0164849483
 10
61.0399561673
 20
30.0191445966
 10
61.124461026
 20
30.0230853695
 10
61.2040037795
 20
30.0284812253
 10
61.2798525457
 20
30.0352687336
 10
61.3529204361
 20
30.0436976792
 10
61.4222943392
 20
30.0540359433
 10
61.4865030384
 20
30.0660403923
 10
61.5447758694
 20
30.0796896005
 10
61.5978834964
 20
30.095281346
 10
61.6466666954
 20
30.1128949395
 10
61.6909643673
 20
30.1325755252
 10
61.7309376111
 20
30.1545321861
 10
61.7679104996
 20
30.1791103948
 10
61.8021659122
 20
30.2064171614
 10
61.8334209694
 20
30.2366577353
 10
61.8621511054
 20
30.2704288994
 10
61.8885489053
 20
30.3086423258
 10
61.912421784
 20
30.3508508149
 10
61.9336674211
 20
30.3953983454
 10
61.95221775
 20
30.4416403018
 10
61.9681408374
 20
30.4899437183
 10
61.981538563
 20
30.5398633474
 10
61.9920630019
 20
30.5901283391
 10
62.0000620791
 20
30.6416186202
 10
62.0066814499
 20
30.6972889946
 10
62.0123192333
 20
30.7584530106
 10
62.0165773102
 20
30.8237595905
 10
62.0194069789
 20
30.8922478341
 10
62.0208066955
 20
30.9649397317
 10
62.0207780039
 20
31.040226024
 10
62.0192768343
 20
31.113060185
 10
62.0163434245
 20
31.1815968745
 10
62.0119375367
 20
31.2470928774
 10
62.0058943885
 20
31.3092628295
 10
61.9985804542
 20
31.3670989621
 10
61.9896292594
 20
31.4214365183
 10
61.9777765985
 20
31.474646692
 10
61.9625494742
 20
31.5277773281
 10
61.9444208838
 20
31.5792382967
 10
61.9235456136
 20
31.6274290002
 10
61.8998701193
 20
31.672367516
 10
61.8734479452
 20
31.7140028377
 10
61.84459451
 20
31.7510811806
 10
61.8135318966
 20
31.7832339878
 10
61.7800380221
 20
31.8114949941
 10
61.7437620565
 20
31.8368354601
 10
61.7049125121
 20
31.8595875749
 10
61.6632808767
 20
31.8797626301
 10
61.6178907833
 20
31.8976889484
 10
61.5686080144
 20
31.913574843
 10
61.5155667877
 20
31.9275175907
 10
61.4581933883
 20
31.9396521066
 10
61.3960104269
 20
31.9502472305
 10
61.329495293
 20
31.9593289181
 10
61.2595064401
 20
31.9667647807
 10
61.1868093211
 20
31.9727901035
 10
61.1106384832
 20
31.9776055095
 10
61.0295560213
 20
31.9811667361
 10
60.9430826338
 20
31.9836154406
 10
60.8516976223
 20
31.9851944671
 10
60.7554009868
 20
31.9860132965
  0
LINE
  5
28A
100
AcDbEntity
  8
IMPORT_IGES
100
AcDbLine
 62
7
  6
CONTINUOUS
 10
61.2466886942
 20
28.7207189611
 11
-61.2466886942
 21
28.7207189611
  0
LINE
  5
28B
100
AcDbEntity
  8
IMPORT_IGES
100
AcDbLine
 62
7
  6
CONTINUOUS
 10
60.755415814
 20
28.7294464936
 11
-60.7554006145
 21
28.7294464936
  0
LINE
  5
28C
100
AcDbEntity
  8
IMPORT_IGES
100
AcDbLine
 62
7
  6
CONTINUOUS
 10
62.9476348052
 20
28.9476348052
 11
62.4476348053
 21
28.9476348052
  0
LINE
  5
28D
100
AcDbEntity
  8
IMPORT_IGES
100
AcDbLine
 62
7
  6
CONTINUOUS
 10
-62.4476348053
 20
28.9476348052
 11
-62.9476348052
 21
28.9476348052
  0
LINE
  5
28E
100
AcDbEntity
  8
IMPORT_IGES
100
AcDbLine
 62
7
  6
CONTINUOUS
 10
62.5349101299
 20
29.0349101299
 11
63.0349101299
 21
29.0349101299
  0
LINE
  5
28F
100
AcDbEntity
  8
IMPORT_IGES
100
AcDbLine
 62
7
  6
CONTINUOUS
 10
-62.5349101299
 20
29.0349101299
 11
-63.0349101299
 21
29.0349101299
  0
LINE
  5
290
100
AcDbEntity
  8
IMPORT_IGES
100
AcDbLine
 62
250
  6
CONTINUOUS
 10
-60.755408395
 20
29.8167840405
 11
60.7554084111
 21
29.8167840405
  0
LINE
  5
291
100
AcDbEntity
  8
IMPORT_IGES
100
AcDbLine
 62
250
  6
CONTINUOUS
 10
-60.7554011109
 20
30.0139867035
 11
60.7554008418
 21
30.0139867035
  0
LWPOLYLINE
  5
292
100
AcDbEntity
  8
IMPORT_IGES
100
AcDbPolyline
 62
250
  6
CONTINUOUS
 90
3
 70
0
 10
-60.9306418279
 20
29.8153445658
 10
-60.8428491661
 20
29.8152533526
 10
-60.7554005989
 20
29.8167840399
  0
LWPOLYLINE
  5
293
100
AcDbEntity
  8
IMPORT_IGES
100
AcDbPolyline
 62
250
  6
CONTINUOUS
 90
61
 70
0
 10
-60.7554011109
 20
30.0139867035
 10
-60.8548844794
 20
30.0147899099
 10
-60.9497614146
 20
30.0164698681
 10
-61.0400319165
 20
30.0191613503
 10
-61.1253183444
 20
30.023161283
 10
-61.2059983391
 20
30.0286627546
 10
-61.2832048226
 20
30.0356484894
 10
-61.3578493251
 20
30.0443862981
 10
-61.4290203166
 20
30.055182506
 10
-61.4951161285
 20
30.0679002345
 10
-61.555448989
 20
30.0826252992
 10
-61.6107066699
 20
30.0996691591
 10
-61.6613508194
 20
30.1190736575
 10
-61.7070765897
 20
30.1408484446
 10
-61.7481888284
 20
30.1652965036
 10
-61.7860637271
 20
30.1929209112
 10
-61.8210372092
 20
30.2240058596
 10
-61.8527733513
 20
30.258703173
 10
-61.8816405742
 20
30.2974003472
 10
-61.9078638153
 20
30.3412799317
 10
-61.9312181373
 20
30.3896348835
 10
-61.9513971482
 20
30.4395760053
 10
-61.9680297918
 20
30.4892489144
 10
-61.9814871244
 20
30.5398271897
 10
-61.9925759236
 20
30.5927044305
 10
-62.0011871493
 20
30.6473641197
 10
-62.0074298417
 20
30.704048564
 10
-62.0124378993
 20
30.7655922581
 10
-62.0167324564
 20
30.8341576156
 10
-62.0197923788
 20
30.9074248141
 10
-62.0211881619
 20
30.981437367
 10
-62.0206851774
 20
31.0556832542
 10
-62.0185180537
 20
31.1298600517
 10
-62.0149611717
 20
31.2002781909
 10
-62.0104315852
 20
31.264918825
 10
-62.0045122403
 20
31.3254578283
 10
-61.9962263572
 20
31.3838219505
 10
-61.9855769513
 20
31.4399462425
 10
-61.9725610071
 20
31.4935837205
 10
-61.9561926982
 20
31.5461479845
 10
-61.9359541101
 20
31.5989031513
 10
-61.9123631572
 20
31.6498515468
 10
-61.8859877565
 20
31.6958227552
 10
-61.8572420363
 20
31.736076505
 10
-61.8257118683
 20
31.7719251017
 10
-61.7907227843
 20
31.8037830389
 10
-61.7523623399
 20
31.8317445733
 10
-61.7105429795
 20
31.8562746324
 10
-61.6643275689
 20
31.8781992538
 10
-61.6133185637
 20
31.8979171475
 10
-61.5579135082
 20
31.9152969746
 10
-61.4983679004
 20
31.9303037782
 10
-61.434901352
 20
31.9432087014
 10
-61.3672942512
 20
31.9541616631
 10
-61.2951432607
 20
31.9630979521
 10
-61.218706818
 20
31.9703401305
 10
-61.1377264855
 20
31.976102073
 10
-61.0510236133
 20
31.9803261012
 10
-60.958205318
 20
31.9832029482
 10
-60.8596644831
 20
31.9850502814
 10
-60.7554011084
 20
31.9860132965
  0
LWPOLYLINE
  5
294
100
AcDbEntity
  8
0
100
AcDbPolyline
 62
7
  6
CONTINUOUS
 90
10
 70
0
 43
0.3500000006
 10
2.1428571696
 20
54.29672612
 10
2.2142856617
 20
54.1538682861
 10
2.2142856617
 20
54.0824371033
 10
2.0714285359
 20
53.9395838013
 10
2.0000000439
 20
53.9395838013
 10
1.9285714102
 20
54.0110104523
 10
1.9285714102
 20
54.0824371033
 10
2.0000000439
 20
54.2252949371
 10
2.0714285359
 20
54.29672612
 10
2.1428571696
 20
54.29672612
  0
LWPOLYLINE
  5
295
100
AcDbEntity
  8
0
100
AcDbPolyline
 62
7
  6
CONTINUOUS
 90
10
 70
0
 43
0.3500000006
 10
73.1329508057
 20
1.2857133865
 10
73.2758086395
 20
1.3571423035
 10
73.3472352905
 20
1.3571423035
 10
73.4900931244
 20
1.2142867355
 10
73.4900931244
 20
1.1428578186
 10
73.4186664734
 20
1.0714289017
 10
73.3472352905
 20
1.0714289017
 10
73.2043774567
 20
1.1428578186
 10
73.1329508057
 20
1.2142867355
 10
73.1329508057
 20
1.2857133865
  0
LWPOLYLINE
  5
296
100
AcDbEntity
  8
IMPORT_IGES
100
AcDbPolyline
 62
250
  6
CONTINUOUS
 90
64
 70
0
 10
60.7554008418
 20
32.5139867035
 10
60.8552147222
 20
32.5148091222
 10
60.9500664973
 20
32.5164849483
 10
61.0399561673
 20
32.5191445966
 10
61.124461026
 20
32.5230853695
 10
61.2040037795
 20
32.5284812253
 10
61.2798525457
 20
32.5352687336
 10
61.3529204361
 20
32.5436976792
 10
61.4222943392
 20
32.5540359433
 10
61.4865030384
 20
32.5660403923
 10
61.5447758694
 20
32.5796896005
 10
61.5978834964
 20
32.595281346
 10
61.6466666953
 20
32.6128949395
 10
61.6909643673
 20
32.6325755252
 10
61.7309376111
 20
32.6545321861
 10
61.7679104996
 20
32.6791103948
 10
61.8021659122
 20
32.7064171614
 10
61.8334209694
 20
32.7366577353
 10
61.8621511054
 20
32.7704288994
 10
61.8885489053
 20
32.8086423258
 10
61.912421784
 20
32.8508508149
 10
61.9336674211
 20
32.8953983454
 10
61.95221775
 20
32.9416403018
 10
61.9681408374
 20
32.9899437183
 10
61.981538563
 20
33.0398633474
 10
61.9920630019
 20
33.0901283391
 10
62.0000620791
 20
33.1416186201
 10
62.0066814499
 20
33.1972889945
 10
62.0123192333
 20
33.2584530105
 10
62.0165773102
 20
33.3237595905
 10
62.0194069789
 20
33.392247834
 10
62.0208066955
 20
33.4649397316
 10
62.0207780039
 20
33.5402260239
 10
62.0192768343
 20
33.6130601849
 10
62.0163434245
 20
33.6815968744
 10
62.0119375367
 20
33.7470928774
 10
62.0058943885
 20
33.8092628295
 10
61.9985804542
 20
33.8670989621
 10
61.9896292594
 20
33.9214365182
 10
61.9777765985
 20
33.974646692
 10
61.9625494742
 20
34.0277773281
 10
61.9444208838
 20
34.0792382966
 10
61.9235456136
 20
34.1274290001
 10
61.8998701193
 20
34.172367516
 10
61.8734479452
 20
34.2140028376
 10
61.84459451
 20
34.2510811806
 10
61.8135318966
 20
34.2832339878
 10
61.7800380221
 20
34.3114949941
 10
61.7437620565
 20
34.3368354601
 10
61.7049125121
 20
34.3595875748
 10
61.6632808767
 20
34.37976263
 10
61.6178907833
 20
34.3976889484
 10
61.5686080145
 20
34.413574843
 10
61.5155667877
 20
34.4275175907
 10
61.4581933883
 20
34.4396521065
 10
61.3960104269
 20
34.4502472305
 10
61.329495293
 20
34.4593289181
 10
61.2595064401
 20
34.4667647807
 10
61.1868093212
 20
34.4727901035
 10
61.1106384832
 20
34.4776055095
 10
61.0295560213
 20
34.4811667361
 10
60.9430826338
 20
34.4836154406
 10
60.8516976223
 20
34.4851944671
 10
60.7554009868
 20
34.4860132965
  0
LWPOLYLINE
  5
297
100
AcDbEntity
  8
IMPORT_IGES
100
AcDbPolyline
 62
250
  6
CONTINUOUS
 90
64
 70
0
 10
60.7554008418
 20
35.0139867035
 10
60.8552147222
 20
35.0148091222
 10
60.9500664973
 20
35.0164849483
 10
61.0399561673
 20
35.0191445966
 10
61.124461026
 20
35.0230853695
 10
61.2040037795
 20
35.0284812253
 10
61.2798525457
 20
35.0352687336
 10
61.3529204361
 20
35.0436976792
 10
61.4222943392
 20
35.0540359433
 10
61.4865030384
 20
35.0660403923
 10
61.5447758694
 20
35.0796896005
 10
61.5978834964
 20
35.095281346
 10
61.6466666953
 20
35.1128949395
 10
61.6909643673
 20
35.1325755252
 10
61.7309376111
 20
35.1545321861
 10
61.7679104996
 20
35.1791103948
 10
61.8021659122
 20
35.2064171614
 10
61.8334209694
 20
35.2366577353
 10
61.8621511054
 20
35.2704288994
 10
61.8885489053
 20
35.3086423258
 10
61.912421784
 20
35.3508508149
 10
61.9336674211
 20
35.3953983454
 10
61.95221775
 20
35.4416403018
 10
61.9681408374
 20
35.4899437183
 10
61.981538563
 20
35.5398633474
 10
61.9920630019
 20
35.5901283391
 10
62.0000620791
 20
35.6416186201
 10
62.0066814499
 20
35.6972889945
 10
62.0123192333
 20
35.7584530105
 10
62.0165773102
 20
35.8237595905
 10
62.0194069789
 20
35.892247834
 10
62.0208066955
 20
35.9649397316
 10
62.0207780039
 20
36.0402260239
 10
62.0192768343
 20
36.1130601849
 10
62.0163434245
 20
36.1815968744
 10
62.0119375367
 20
36.2470928774
 10
62.0058943885
 20
36.3092628295
 10
61.9985804542
 20
36.3670989621
 10
61.9896292594
 20
36.4214365182
 10
61.9777765985
 20
36.474646692
 10
61.9625494742
 20
36.5277773281
 10
61.9444208838
 20
36.5792382966
 10
61.9235456136
 20
36.6274290001
 10
61.8998701193
 20
36.672367516
 10
61.8734479452
 20
36.7140028376
 10
61.84459451
 20
36.7510811805
 10
61.8135318966
 20
36.7832339878
 10
61.7800380221
 20
36.8114949941
 10
61.7437620565
 20
36.8368354601
 10
61.7049125122
 20
36.8595875748
 10
61.6632808767
 20
36.87976263
 10
61.6178907833
 20
36.8976889484
 10
61.5686080145
 20
36.913574843
 10
61.5155667877
 20
36.9275175907
 10
61.4581933883
 20
36.9396521065
 10
61.396010427
 20
36.9502472305
 10
61.329495293
 20
36.9593289181
 10
61.2595064402
 20
36.9667647807
 10
61.1868093212
 20
36.9727901035
 10
61.1106384833
 20
36.9776055095
 10
61.0295560214
 20
36.9811667361
 10
60.9430826338
 20
36.9836154406
 10
60.8516976223
 20
36.9851944671
 10
60.7554009868
 20
36.9860132965
  0
LINE
  5
298
100
AcDbEntity
  8
IMPORT_IGES
100
AcDbLine
 62
250
  6
CONTINUOUS
 10
60.7554009868
 20
31.9860132965
 11
-60.7554011084
 21
31.9860132965
  0
LINE
  5
299
100
AcDbEntity
  8
IMPORT_IGES
100
AcDbLine
 62
250
  6
CONTINUOUS
 10
60.7554005797
 20
32.1832159595
 11
-60.7554005794
 21
32.1832159595
  0
LINE
  5
29A
100
AcDbEntity
  8
IMPORT_IGES
100
AcDbLine
 62
250
  6
CONTINUOUS
 10
-60.7554005794
 20
32.3167840405
 11
60.7554005797
 21
32.3167840405
  0
LINE
  5
29B
100
AcDbEntity
  8
IMPORT_IGES
100
AcDbLine
 62
250
  6
CONTINUOUS
 10
-60.7554011109
 20
32.5139867035
 11
60.7554008418
 21
32.5139867035
  0
LINE
  5
29C
100
AcDbEntity
  8
IMPORT_IGES
100
AcDbLine
 62
250
  6
CONTINUOUS
 10
60.7554009868
 20
34.4860132965
 11
-60.7554011084
 21
34.4860132965
  0
LINE
  5
29D
100
AcDbEntity
  8
IMPORT_IGES
100
AcDbLine
 62
250
  6
CONTINUOUS
 10
60.7554005797
 20
34.6832159595
 11
-60.7554005794
 21
34.6832159595
  0
LINE
  5
29E
100
AcDbEntity
  8
IMPORT_IGES
100
AcDbLine
 62
250
  6
CONTINUOUS
 10
-60.7554005794
 20
34.8167840405
 11
60.7554005797
 21
34.8167840405
  0
LINE
  5
29F
100
AcDbEntity
  8
IMPORT_IGES
100
AcDbLine
 62
250
  6
CONTINUOUS
 10
-60.7554011109
 20
35.0139867035
 11
60.7554008418
 21
35.0139867035
  0
LWPOLYLINE
  5
2A0
100
AcDbEntity
  8
IMPORT_IGES
100
AcDbPolyline
 62
250
  6
CONTINUOUS
 90
3
 70
0
 10
60.9306725233
 20
32.1846566151
 10
60.8428705865
 20
32.1847474588
 10
60.7554005989
 20
32.1832159602
  0
LWPOLYLINE
  5
2A1
100
AcDbEntity
  8
IMPORT_IGES
100
AcDbPolyline
 62
250
  6
CONTINUOUS
 90
3
 70
0
 10
-60.930641828
 20
32.3153445658
 10
-60.8428491661
 20
32.3152533526
 10
-60.7554005989
 20
32.3167840398
  0
LWPOLYLINE
  5
2A2
100
AcDbEntity
  8
IMPORT_IGES
100
AcDbPolyline
 62
250
  6
CONTINUOUS
 90
3
 70
0
 10
60.9306727007
 20
34.6846566203
 10
60.8428706612
 20
34.6847474649
 10
60.7554005989
 20
34.6832159602
  0
LWPOLYLINE
  5
2A3
100
AcDbEntity
  8
IMPORT_IGES
100
AcDbPolyline
 62
250
  6
CONTINUOUS
 90
3
 70
0
 10
-60.9306418276
 20
34.8153445659
 10
-60.842849166
 20
34.8152533526
 10
-60.7554005989
 20
34.8167840398
  0
LWPOLYLINE
  5
2A4
100
AcDbEntity
  8
IMPORT_IGES
100
AcDbPolyline
 62
250
  6
CONTINUOUS
 90
61
 70
0
 10
-60.7554011109
 20
32.5139867035
 10
-60.8548844794
 20
32.5147899099
 10
-60.9497614146
 20
32.5164698681
 10
-61.0400319165
 20
32.5191613503
 10
-61.1253183444
 20
32.523161283
 10
-61.2059983391
 20
32.5286627546
 10
-61.2832048226
 20
32.5356484894
 10
-61.3578493251
 20
32.5443862981
 10
-61.4290203166
 20
32.555182506
 10
-61.4951161286
 20
32.5679002345
 10
-61.555448989
 20
32.5826252992
 10
-61.61070667
 20
32.5996691591
 10
-61.6613508195
 20
32.6190736575
 10
-61.7070765897
 20
32.6408484446
 10
-61.7481888284
 20
32.6652965036
 10
-61.7860637271
 20
32.6929209112
 10
-61.8210372092
 20
32.7240058597
 10
-61.8527733513
 20
32.7587031731
 10
-61.8816405742
 20
32.7974003472
 10
-61.9078638154
 20
32.8412799318
 10
-61.9312181373
 20
32.8896348835
 10
-61.9513971483
 20
32.9395760053
 10
-61.9680297918
 20
32.9892489145
 10
-61.9814871244
 20
33.0398271897
 10
-61.9925759236
 20
33.0927044306
 10
-62.0011871493
 20
33.1473641198
 10
-62.0074298417
 20
33.204048564
 10
-62.0124378993
 20
33.2655922582
 10
-62.0167324564
 20
33.3341576157
 10
-62.0197923788
 20
33.4074248141
 10
-62.0211881619
 20
33.481437367
 10
-62.0206851774
 20
33.5556832542
 10
-62.0185180537
 20
33.6298600518
 10
-62.0149611717
 20
33.700278191
 10
-62.0104315852
 20
33.764918825
 10
-62.0045122403
 20
33.8254578284
 10
-61.9962263572
 20
33.8838219506
 10
-61.9855769513
 20
33.9399462425
 10
-61.9725610071
 20
33.9935837205
 10
-61.9561926982
 20
34.0461479846
 10
-61.93595411
 20
34.0989031513
 10
-61.9123631572
 20
34.1498515468
 10
-61.8859877565
 20
34.1958227552
 10
-61.8572420363
 20
34.236076505
 10
-61.8257118683
 20
34.2719251017
 10
-61.7907227843
 20
34.3037830389
 10
-61.7523623399
 20
34.3317445733
 10
-61.7105429795
 20
34.3562746324
 10
-61.6643275688
 20
34.3781992538
 10
-61.6133185637
 20
34.3979171475
 10
-61.5579135082
 20
34.4152969746
 10
-61.4983679004
 20
34.4303037782
 10
-61.434901352
 20
34.4432087014
 10
-61.3672942512
 20
34.4541616631
 10
-61.2951432607
 20
34.4630979521
 10
-61.2187068179
 20
34.4703401305
 10
-61.1377264855
 20
34.476102073
 10
-61.0510236133
 20
34.4803261012
 10
-60.958205318
 20
34.4832029482
 10
-60.8596644831
 20
34.4850502814
 10
-60.7554011084
 20
34.4860132965
  0
LWPOLYLINE
  5
2A5
100
AcDbEntity
  8
IMPORT_IGES
100
AcDbPolyline
 62
250
  6
CONTINUOUS
 90
61
 70
0
 10
-60.7554011109
 20
35.0139867035
 10
-60.8548844794
 20
35.0147899099
 10
-60.9497614146
 20
35.0164698681
 10
-61.0400319165
 20
35.0191613503
 10
-61.1253183444
 20
35.023161283
 10
-61.2059983391
 20
35.0286627546
 10
-61.2832048226
 20
35.0356484894
 10
-61.3578493252
 20
35.0443862981
 10
-61.4290203166
 20
35.055182506
 10
-61.4951161285
 20
35.0679002345
 10
-61.555448989
 20
35.0826252992
 10
-61.61070667
 20
35.0996691591
 10
-61.6613508195
 20
35.1190736575
 10
-61.7070765897
 20
35.1408484446
 10
-61.7481888284
 20
35.1652965036
 10
-61.7860637271
 20
35.1929209112
 10
-61.8210372092
 20
35.2240058597
 10
-61.8527733513
 20
35.2587031731
 10
-61.8816405742
 20
35.2974003472
 10
-61.9078638154
 20
35.3412799318
 10
-61.9312181373
 20
35.3896348835
 10
-61.9513971482
 20
35.4395760053
 10
-61.9680297918
 20
35.4892489144
 10
-61.9814871244
 20
35.5398271897
 10
-61.9925759236
 20
35.5927044306
 10
-62.0011871493
 20
35.6473641198
 10
-62.0074298417
 20
35.704048564
 10
-62.0124378993
 20
35.7655922581
 10
-62.0167324564
 20
35.8341576157
 10
-62.0197923788
 20
35.9074248141
 10
-62.0211881619
 20
35.981437367
 10
-62.0206851774
 20
36.0556832542
 10
-62.0185180537
 20
36.1298600517
 10
-62.0149611717
 20
36.2002781909
 10
-62.0104315852
 20
36.264918825
 10
-62.0045122403
 20
36.3254578284
 10
-61.9962263572
 20
36.3838219506
 10
-61.9855769513
 20
36.4399462425
 10
-61.9725610071
 20
36.4935837205
 10
-61.9561926982
 20
36.5461479846
 10
-61.93595411
 20
36.5989031513
 10
-61.9123631572
 20
36.6498515468
 10
-61.8859877565
 20
36.6958227552
 10
-61.8572420363
 20
36.736076505
 10
-61.8257118683
 20
36.7719251017
 10
-61.7907227843
 20
36.8037830389
 10
-61.7523623399
 20
36.8317445733
 10
-61.7105429795
 20
36.8562746324
 10
-61.6643275688
 20
36.8781992538
 10
-61.6133185637
 20
36.8979171475
 10
-61.5579135082
 20
36.9152969746
 10
-61.4983679004
 20
36.9303037782
 10
-61.434901352
 20
36.9432087014
 10
-61.3672942512
 20
36.9541616631
 10
-61.2951432607
 20
36.9630979521
 10
-61.218706818
 20
36.9703401305
 10
-61.1377264855
 20
36.976102073
 10
-61.0510236133
 20
36.9803261012
 10
-60.958205318
 20
36.9832029482
 10
-60.8596644831
 20
36.9850502814
 10
-60.7554011084
 20
36.9860132965
  0
LWPOLYLINE
  5
2A6
100
AcDbEntity
  8
IMPORT_IGES
100
AcDbPolyline
 62
250
  6
CONTINUOUS
 90
65
 70
0
 10
60.7554005989
 20
29.8167839628
 10
60.8465817925
 20
29.815249834
 10
60.9369130829
 20
29.8153746323
 10
61.0260726415
 20
29.8171583574
 10
61.1132373023
 20
29.8204582762
 10
61.1986447361
 20
29.825417122
 10
61.2835101686
 20
29.8324630947
 10
61.3690812779
 20
29.8418418738
 10
61.4532674493
 20
29.8533077798
 10
61.5324792287
 20
29.8665519748
 10
61.6060523735
 20
29.8811686563
 10
61.6746401662
 20
29.8975636267
 10
61.7371554446
 20
29.9166454553
 10
61.7922952898
 20
29.9379167531
 10
61.8420264041
 20
29.961874909
 10
61.8898743001
 20
29.9909206586
 10
61.937637338
 20
30.0264245306
 10
61.9828777657
 20
30.0670159961
 10
62.0228436647
 20
30.1109842042
 10
62.0573624096
 20
30.1579898927
 10
62.0874650999
 20
30.2083723236
 10
62.1129442129
 20
30.261438432
 10
62.1340306383
 20
30.3171986163
 10
62.1515373929
 20
30.3756424781
 10
62.1661712357
 20
30.4360457571
 10
62.1783500923
 20
30.4985421302
 10
62.1883048331
 20
30.5629979204
 10
62.1963410574
 20
30.6282878362
 10
62.2027204288
 20
30.6940312256
 10
62.2076202841
 20
30.7606087405
 10
62.2111656473
 20
30.8280370453
 10
62.2135115663
 20
30.8965129168
 10
62.21472098
 20
30.9658395783
 10
62.214729124
 20
31.0354433633
 10
62.213459077
 20
31.1055663479
 10
62.2109323528
 20
31.1759664562
 10
62.2071696722
 20
31.2453437936
 10
62.2020342588
 20
31.313553368
 10
62.1953478344
 20
31.3807401715
 10
62.1870416377
 20
31.4460392871
 10
62.1768779607
 20
31.5096135689
 10
62.1646130401
 20
31.5713001628
 10
62.1501917757
 20
31.6297455889
 10
62.1334843055
 20
31.6843902832
 10
62.114108244
 20
31.7357938097
 10
62.0916186841
 20
31.7842813803
 10
62.0653660853
 20
31.8299749777
 10
62.0352821034
 20
31.8727526191
 10
62.0019123612
 20
31.9125735687
 10
61.9650675351
 20
31.9496444228
 10
61.9245848081
 20
31.9837585851
 10
61.8814020054
 20
32.0142555302
 10
61.8370800842
 20
32.0404018345
 10
61.7902542426
 20
32.0629309217
 10
61.7371899251
 20
32.0833825376
 10
61.6755093053
 20
32.1021764131
 10
61.6066182529
 20
32.1188928174
 10
61.532281895
 20
32.1338123044
 10
61.4518676238
 20
32.1471473419
 10
61.3659443586
 20
32.1586854621
 10
61.278780291
 20
32.1680698158
 10
61.1924516663
 20
32.1750043119
 10
61.1057885825
 20
32.1797850416
 10
61.0184934417
 20
32.1829434289
 10
60.9306725233
 20
32.1846566151
  0
LWPOLYLINE
  5
2A7
100
AcDbEntity
  8
IMPORT_IGES
100
AcDbPolyline
 62
250
  6
CONTINUOUS
 90
65
 70
0
 10
-60.7554005989
 20
32.1832159605
 10
-60.8465997689
 20
32.1847502477
 10
-60.9369467538
 20
32.1846254268
 10
-61.0261195891
 20
32.1828414978
 10
-61.1132970272
 20
32.1795409751
 10
-61.1987146391
 20
32.1745813443
 10
-61.2835818342
 20
32.1675350622
 10
-61.3691414566
 20
32.1581575696
 10
-61.4533091067
 20
32.1466934258
 10
-61.5325057038
 20
32.1334487651
 10
-61.6060670257
 20
32.1188291956
 10
-61.67464602
 20
32.1024291092
 10
-61.7371632846
 20
32.083337817
 10
-61.7923211239
 20
32.0620504195
 10
-61.8420777447
 20
32.0380718162
 10
-61.8899461801
 20
32.009006017
 10
-61.9377228999
 20
31.9734838564
 10
-61.9829725079
 20
31.9328744999
 10
-62.0229396362
 20
31.8888894534
 10
-62.0574503307
 20
31.841868433
 10
-62.08754024
 20
31.7914717227
 10
-62.1130072198
 20
31.7383916801
 10
-62.1340830679
 20
31.6826161739
 10
-62.1515799086
 20
31.6241573354
 10
-62.1662057446
 20
31.5637439159
 10
-62.1783787364
 20
31.501244528
 10
-62.1883289559
 20
31.4367905592
 10
-62.1963615012
 20
31.371504923
 10
-62.2027380147
 20
31.3057682098
 10
-62.2076356304
 20
31.2391998294
 10
-62.2111787668
 20
31.1717809245
 10
-62.2135222762
 20
31.103314099
 10
-62.2147292234
 20
31.0339967492
 10
-62.2147347568
 20
30.9644022064
 10
-62.2134615785
 20
30.8942879789
 10
-62.2109313055
 20
30.8238965583
 10
-62.2071653269
 20
30.7545287511
 10
-62.2020270631
 20
30.6863306594
 10
-62.1953379972
 20
30.6191561811
 10
-62.1870295517
 20
30.5538678159
 10
-62.1768638801
 20
30.4902998316
 10
-62.1645975613
 20
30.4286179606
 10
-62.1501766755
 20
30.3701818992
 10
-62.133472183
 20
30.3155538645
 10
-62.1141018308
 20
30.2641716395
 10
-62.0916211151
 20
30.2157082701
 10
-62.0653825481
 20
30.1700446395
 10
-62.0353171277
 20
30.1272998646
 10
-62.0019658031
 20
30.0875043413
 10
-61.9651383912
 20
30.0504486299
 10
-61.9246719668
 20
30.0163421702
 10
-61.8814989248
 20
29.9858436778
 10
-61.8371733553
 20
29.9596819879
 10
-61.790334468
 20
29.9371282654
 10
-61.7372592639
 20
29.9166547203
 10
-61.6755763476
 20
29.8978451699
 10
-61.606686395
 20
29.8811157969
 10
-61.5323494524
 20
29.8661873599
 10
-61.4519321018
 20
29.8528490092
 10
-61.3660037073
 20
29.8413115944
 10
-61.2788284228
 20
29.8319284232
 10
-61.1924752432
 20
29.8249947127
 10
-61.1057809444
 20
29.8202152459
 10
-61.0184655308
 20
29.8170576795
 10
-60.9306418279
 20
29.8153445658
  0
LWPOLYLINE
  5
2A8
100
AcDbEntity
  8
IMPORT_IGES
100
AcDbPolyline
 62
250
  6
CONTINUOUS
 90
65
 70
0
 10
60.7554005989
 20
32.3167840395
 10
60.8465821034
 20
32.3152498535
 10
60.9369137245
 20
32.315374628
 10
61.0260736294
 20
32.3171583631
 10
61.1132386555
 20
32.3204583334
 10
61.1986464613
 20
32.3254172642
 10
61.2835122448
 20
32.3324633318
 10
61.3690837471
 20
32.3418422222
 10
61.4532702765
 20
32.3533082494
 10
61.5324821645
 20
32.3665525312
 10
61.6060550422
 20
32.3811692303
 10
61.6746423775
 20
32.397564184
 10
61.7371572593
 20
32.4166460224
 10
61.7922968436
 20
32.4379173941
 10
61.8420277442
 20
32.4618756504
 10
61.8898754527
 20
32.4909214752
 10
61.9376383351
 20
32.5264253846
 10
61.9828786291
 20
32.5670168625
 10
62.0228443814
 20
32.6109850443
 10
62.0573629444
 20
32.6579906439
 10
62.0874654537
 20
32.7083729475
 10
62.1129444331
 20
32.7614389486
 10
62.1340307815
 20
32.8171990646
 10
62.1515374896
 20
32.8756428782
 10
62.1661713024
 20
32.936046131
 10
62.1783501426
 20
32.9985424974
 10
62.1883048782
 20
33.0629983031
 10
62.1963410992
 20
33.1282882666
 10
62.2027204695
 20
33.1940317438
 10
62.2076203251
 20
33.2606093789
 10
62.2111656836
 20
33.328037823
 10
62.213511591
 20
33.396513858
 10
62.2147209888
 20
33.465840702
 10
62.214729112
 20
33.5354446601
 10
62.2134590366
 20
33.6055678126
 10
62.2109322768
 20
33.6759680792
 10
62.2071695586
 20
33.7453455249
 10
62.202034105
 20
33.8135551432
 10
62.1953476364
 20
33.8807419405
 10
62.1870413976
 20
33.946041001
 10
62.1768776804
 20
34.0096151759
 10
62.1646127235
 20
34.071301614
 10
62.150191439
 20
34.1297468463
 10
62.1334839676
 20
34.1843913029
 10
62.1141079299
 20
34.2357945537
 10
62.0916184417
 20
34.2842818391
 10
62.0653659935
 20
34.3299751294
 10
62.0352822339
 20
34.3727524542
 10
62.001912746
 20
34.4125731422
 10
61.96506821
 20
34.4496438069
 10
61.9245858063
 20
34.4837578348
 10
61.8814032867
 20
34.5142547146
 10
61.8370815692
 20
34.5404010461
 10
61.7902558651
 20
34.5629302294
 10
61.7371916128
 20
34.5833819535
 10
61.6755109489
 20
34.6021759402
 10
61.6066197541
 20
34.6188924678
 10
61.5322832329
 20
34.63381206
 10
61.4518688055
 20
34.6471471726
 10
61.3659453662
 20
34.65868535
 10
61.2787811194
 20
34.6680697483
 10
61.1924523124
 20
34.6750042767
 10
61.1057890482
 20
34.6797850262
 10
61.0184937483
 20
34.6829434263
 10
60.9306727007
 20
34.6846566203
  0
LWPOLYLINE
  5
2A9
100
AcDbEntity
  8
IMPORT_IGES
100
AcDbPolyline
 62
250
  6
CONTINUOUS
 90
65
 70
0
 10
-60.7554005989
 20
34.6832159605
 10
-60.8465997689
 20
34.6847502477
 10
-60.9369467538
 20
34.6846254268
 10
-61.0261195891
 20
34.6828414978
 10
-61.1132970273
 20
34.6795409751
 10
-61.1987146392
 20
34.6745813443
 10
-61.2835818342
 20
34.6675350622
 10
-61.3691414567
 20
34.6581575696
 10
-61.4533091068
 20
34.6466934258
 10
-61.5325057039
 20
34.6334487651
 10
-61.6060670258
 20
34.6188291955
 10
-61.67464602
 20
34.6024291092
 10
-61.7371632846
 20
34.583337817
 10
-61.7923211239
 20
34.5620504195
 10
-61.8420777447
 20
34.5380718162
 10
-61.8899461801
 20
34.5090060169
 10
-61.9377228999
 20
34.4734838564
 10
-61.9829725079
 20
34.4328744999
 10
-62.0229396362
 20
34.3888894534
 10
-62.0574503307
 20
34.3418684331
 10
-62.08754024
 20
34.2914717228
 10
-62.1130072198
 20
34.2383916801
 10
-62.1340830678
 20
34.182616174
 10
-62.1515799086
 20
34.1241573355
 10
-62.1662057446
 20
34.063743916
 10
-62.1783787364
 20
34.0012445281
 10
-62.1883289559
 20
33.9367905593
 10
-62.1963615012
 20
33.8715049231
 10
-62.2027380147
 20
33.8057682099
 10
-62.2076356304
 20
33.7391998294
 10
-62.2111787668
 20
33.6717809246
 10
-62.2135222762
 20
33.6033140991
 10
-62.2147292234
 20
33.5339967493
 10
-62.2147347568
 20
33.4644022065
 10
-62.2134615785
 20
33.3942879789
 10
-62.2109313055
 20
33.3238965584
 10
-62.2071653269
 20
33.2545287512
 10
-62.2020270631
 20
33.1863306595
 10
-62.1953379972
 20
33.1191561811
 10
-62.1870295517
 20
33.053867816
 10
-62.1768638801
 20
32.9902998317
 10
-62.1645975613
 20
32.9286179606
 10
-62.1501766756
 20
32.8701818993
 10
-62.133472183
 20
32.8155538646
 10
-62.1141018308
 20
32.7641716396
 10
-62.0916211151
 20
32.7157082702
 10
-62.0653825482
 20
32.6700446396
 10
-62.0353171277
 20
32.6272998647
 10
-62.0019658032
 20
32.5875043414
 10
-61.9651383914
 20
32.55044863
 10
-61.924671967
 20
32.5163421703
 10
-61.881498925
 20
32.4858436779
 10
-61.8371733555
 20
32.459681988
 10
-61.7903344681
 20
32.4371282655
 10
-61.737259264
 20
32.4166547204
 10
-61.6755763478
 20
32.3978451699
 10
-61.6066863952
 20
32.381115797
 10
-61.5323494525
 20
32.36618736
 10
-61.451932102
 20
32.3528490092
 10
-61.3660037075
 20
32.3413115944
 10
-61.278828423
 20
32.3319284233
 10
-61.1924752434
 20
32.3249947128
 10
-61.1057809445
 20
32.3202152459
 10
-61.0184655308
 20
32.3170576795
 10
-60.930641828
 20
32.3153445658
  0
LINE
  5
2AA
100
AcDbEntity
  8
IMPORT_IGES
100
AcDbLine
 62
250
  6
CONTINUOUS
 10
60.7554009868
 20
36.9860132965
 11
-60.7554011084
 21
36.9860132965
  0
LINE
  5
2AB
100
AcDbEntity
  8
IMPORT_IGES
100
AcDbLine
 62
250
  6
CONTINUOUS
 10
60.7554005813
 20
37.1832159595
 11
-60.7554005974
 21
37.1832159595
  0
LINE
  5
2AC
100
AcDbEntity
  8
IMPORT_IGES
100
AcDbLine
 62
250
  6
CONTINUOUS
 10
-62.2551722781
 20
38.2554005989
 11
62.2551722782
 21
38.2554005989
  0
LINE
  5
2AD
100
AcDbEntity
  8
IMPORT_IGES
100
AcDbLine
 62
250
  6
CONTINUOUS
 10
60.7553979794
 20
39.7551721417
 11
-60.7553973404
 21
39.7551721417
  0
LINE
  5
2AE
100
AcDbEntity
  8
IMPORT_IGES
100
AcDbLine
 62
7
  6
CONTINUOUS
 10
60.947860643
 20
39.9476348052
 11
-60.9478600041
 21
39.9476348052
  0
LINE
  5
2AF
100
AcDbEntity
  8
IMPORT_IGES
100
AcDbLine
 62
7
  6
CONTINUOUS
 10
61.0351359582
 20
40.0349101299
 11
-61.0351353081
 21
40.0349101299
  0
LWPOLYLINE
  5
2B0
100
AcDbEntity
  8
IMPORT_IGES
100
AcDbPolyline
 62
250
  6
CONTINUOUS
 90
3
 70
0
 10
60.9306727008
 20
37.1846566203
 10
60.8428706612
 20
37.1847474649
 10
60.7554005989
 20
37.1832159602
  0
LWPOLYLINE
  5
2B1
100
AcDbEntity
  8
IMPORT_IGES
100
AcDbPolyline
 62
250
  6
CONTINUOUS
 90
65
 70
0
 10
60.7554005989
 20
34.8167840395
 10
60.8465821035
 20
34.8152498535
 10
60.9369137245
 20
34.815374628
 10
61.0260736294
 20
34.8171583631
 10
61.1132386555
 20
34.8204583333
 10
61.1986464612
 20
34.8254172642
 10
61.2835122447
 20
34.8324633318
 10
61.369083747
 20
34.8418422222
 10
61.4532702765
 20
34.8533082494
 10
61.5324821644
 20
34.8665525312
 10
61.6060550421
 20
34.8811692303
 10
61.6746423774
 20
34.897564184
 10
61.7371572593
 20
34.9166460224
 10
61.7922968435
 20
34.9379173941
 10
61.8420277441
 20
34.9618756504
 10
61.8898754526
 20
34.9909214752
 10
61.937638335
 20
35.0264253845
 10
61.982878629
 20
35.0670168624
 10
62.0228443812
 20
35.1109850442
 10
62.0573629443
 20
35.1579906438
 10
62.0874654536
 20
35.2083729473
 10
62.112944433
 20
35.2614389484
 10
62.1340307814
 20
35.3171990643
 10
62.1515374895
 20
35.3756428779
 10
62.1661713024
 20
35.4360461307
 10
62.1783501425
 20
35.4985424971
 10
62.1883048781
 20
35.5629983027
 10
62.1963410992
 20
35.6282882662
 10
62.2027204694
 20
35.6940317435
 10
62.2076203251
 20
35.7606093786
 10
62.2111656836
 20
35.8280378226
 10
62.213511591
 20
35.8965138576
 10
62.2147209888
 20
35.9658407016
 10
62.214729112
 20
36.0354446598
 10
62.2134590366
 20
36.1055678122
 10
62.2109322768
 20
36.1759680789
 10
62.2071695587
 20
36.2453455246
 10
62.202034105
 20
36.3135551429
 10
62.1953476364
 20
36.3807419402
 10
62.1870413976
 20
36.4460410008
 10
62.1768776805
 20
36.5096151756
 10
62.1646127236
 20
36.5713016137
 10
62.1501914391
 20
36.629746846
 10
62.1334839677
 20
36.6843913027
 10
62.11410793
 20
36.7357945535
 10
62.0916184418
 20
36.7842818388
 10
62.0653659937
 20
36.8299751291
 10
62.0352822342
 20
36.8727524539
 10
62.0019127462
 20
36.9125731419
 10
61.9650682103
 20
36.9496438066
 10
61.9245858067
 20
36.9837578345
 10
61.8814032871
 20
37.0142547143
 10
61.8370815696
 20
37.0404010458
 10
61.7902558655
 20
37.0629302292
 10
61.7371916133
 20
37.0833819534
 10
61.6755109494
 20
37.1021759401
 10
61.6066197547
 20
37.1188924677
 10
61.5322832335
 20
37.1338120599
 10
61.4518688061
 20
37.1471471726
 10
61.3659453668
 20
37.1586853499
 10
61.2787811199
 20
37.1680697483
 10
61.1924523129
 20
37.1750042767
 10
61.1057890484
 20
37.1797850262
 10
61.0184937485
 20
37.1829434263
 10
60.9306727008
 20
37.1846566203
  0
LWPOLYLINE
  5
2B2
100
AcDbEntity
  8
IMPORT_IGES
100
AcDbPolyline
 62
250
  6
CONTINUOUS
 90
65
 70
0
 10
-60.7554005989
 20
37.1832159607
 10
-60.8465997682
 20
37.1847502478
 10
-60.9369467522
 20
37.1846254268
 10
-61.0261195867
 20
37.1828414978
 10
-61.113297024
 20
37.1795409753
 10
-61.198714635
 20
37.1745813446
 10
-61.2835818292
 20
37.1675350628
 10
-61.3691414507
 20
37.1581575704
 10
-61.4533091
 20
37.1466934269
 10
-61.5325056968
 20
37.1334487665
 10
-61.6060670194
 20
37.1188291969
 10
-61.6746460147
 20
37.1024291105
 10
-61.7371632803
 20
37.0833378184
 10
-61.7923211201
 20
37.0620504211
 10
-61.8420777415
 20
37.038071818
 10
-61.8899461773
 20
37.009006019
 10
-61.9377228974
 20
36.9734838585
 10
-61.9829725058
 20
36.932874502
 10
-62.0229396344
 20
36.8888894555
 10
-62.0574503293
 20
36.8418684349
 10
-62.0875402391
 20
36.7914717243
 10
-62.1130072192
 20
36.7383916815
 10
-62.1340830675
 20
36.6826161751
 10
-62.1515799083
 20
36.6241573365
 10
-62.1662057444
 20
36.563743917
 10
-62.1783787362
 20
36.5012445291
 10
-62.1883289558
 20
36.4367905603
 10
-62.1963615011
 20
36.3715049242
 10
-62.2027380146
 20
36.3057682113
 10
-62.2076356303
 20
36.2391998311
 10
-62.2111787667
 20
36.1717809265
 10
-62.2135222761
 20
36.1033141015
 10
-62.2147292234
 20
36.0339967521
 10
-62.2147347568
 20
35.9644022097
 10
-62.2134615786
 20
35.8942879825
 10
-62.2109313057
 20
35.8238965624
 10
-62.2071653272
 20
35.7545287554
 10
-62.2020270635
 20
35.6863306639
 10
-62.1953379977
 20
35.6191561855
 10
-62.1870295523
 20
35.5538678202
 10
-62.1768638808
 20
35.4902998357
 10
-62.1645975621
 20
35.4286179642
 10
-62.1501766764
 20
35.3701819024
 10
-62.1334721839
 20
35.3155538671
 10
-62.1141018316
 20
35.2641716414
 10
-62.0916211157
 20
35.2157082713
 10
-62.0653825484
 20
35.17004464
 10
-62.0353171275
 20
35.1272998643
 10
-62.0019658023
 20
35.0875043404
 10
-61.9651383898
 20
35.0504486286
 10
-61.9246719646
 20
35.0163421685
 10
-61.8814989219
 20
34.985843676
 10
-61.837173352
 20
34.9596819862
 10
-61.7903344643
 20
34.9371282638
 10
-61.7372592601
 20
34.916654719
 10
-61.6755763439
 20
34.8978451688
 10
-61.6066863917
 20
34.8811157961
 10
-61.5323494494
 20
34.8661873594
 10
-61.4519320993
 20
34.8528490088
 10
-61.3660037052
 20
34.8413115941
 10
-61.278828421
 20
34.8319284231
 10
-61.1924752419
 20
34.8249947127
 10
-61.1057809434
 20
34.8202152459
 10
-61.0184655301
 20
34.8170576795
 10
-60.9306418276
 20
34.8153445659
  0
LWPOLYLINE
  5
2B3
100
AcDbEntity
  8
0
100
AcDbPolyline
 62
7
  6
CONTINUOUS
 90
7
 70
0
 43
0.3500000006
 10
-1.7142856507
 20
53.7967259674
 10
-3.2142856836
 20
53.7967259674
 10
-1.7142856507
 20
55.9395844116
 10
-1.7142856507
 20
56.3681533813
 10
-2.1428571696
 20
56.7967223511
 10
-2.7857141647
 20
56.7967223511
 10
-3.2142856836
 20
56.1538688965
  0
LWPOLYLINE
  5
2B4
100
AcDbEntity
  8
0
100
AcDbPolyline
 62
7
  6
CONTINUOUS
 90
3
 70
0
 43
0.3500000006
 10
71.490092514
 20
2.3571426086
 10
70.6329500427
 20
3.21428508
 10
73.6329509583
 20
3.21428508
  0
LWPOLYLINE
  5
2B5
100
AcDbEntity
  8
0
100
AcDbPolyline
 62
7
  6
CONTINUOUS
 90
13
 70
0
 43
0.3500000006
 10
71.9186660156
 20
-3.6428569565
 10
71.7043815308
 20
-3.9285714912
 10
71.0615235443
 20
-3.9285714912
 10
70.6329500427
 20
-3.6428569565
 10
70.6329500427
 20
-3.000000103
 10
71.0615235443
 20
-2.7142855682
 10
71.7043815308
 20
-2.7142855682
 10
71.9186660156
 20
-3.000000103
 10
72.3472349854
 20
-2.5714288673
 10
73.2043774567
 20
-2.5714288673
 10
73.6329509583
 20
-3.000000103
 10
73.6329509583
 20
-3.6428569565
 10
73.2043774567
 20
-4.0714281921
  0
LWPOLYLINE
  5
2B6
100
AcDbEntity
  8
IMPORT_IGES
100
AcDbPolyline
 62
7
  6
CONTINUOUS
 90
28
 70
0
 10
62.4476348052
 20
38.4478414269
 10
62.4449331994
 20
38.5362601117
 10
62.4372449156
 20
38.6236158242
 10
62.4245699537
 20
38.7099085643
 10
62.4068068221
 20
38.795406874
 10
62.3840570124
 20
38.8798422113
 10
62.3566249998
 20
38.9624089508
 10
62.3246018895
 20
39.0429286784
 10
62.2878965763
 20
39.1215798083
 10
62.2465402196
 20
39.1980919573
 10
62.2002936172
 20
39.2727917128
 10
62.1493959713
 20
39.3453524876
 10
62.0945960476
 20
39.4145241362
 10
62.0359352959
 20
39.4800844543
 10
61.9733722665
 20
39.5422556463
 10
61.9075313753
 20
39.6004541806
 10
61.8382034697
 20
39.6547138287
 10
61.7655977024
 20
39.705000819
 10
61.6909659478
 20
39.7506303046
 10
61.6146190105
 20
39.7913730182
 10
61.536246086
 20
39.827458227
 10
61.4561666354
 20
39.8588888868
 10
61.3742146715
 20
39.885743702
 10
61.2905561815
 20
39.9079439681
 10
61.2060085877
 20
39.9252565272
 10
61.120844364
 20
39.9376036601
 10
61.0347910365
 20
39.9450630861
 10
60.9478486051
 20
39.9476348052
  0
LWPOLYLINE
  5
2B7
100
AcDbEntity
  8
IMPORT_IGES
100
AcDbPolyline
 62
250
  6
CONTINUOUS
 90
28
 70
0
 10
62.2551721417
 20
38.2554005989
 10
62.2526091975
 20
38.342587599
 10
62.2449821442
 20
38.4294797152
 10
62.2323167767
 20
38.5157830461
 10
62.2146559312
 20
38.601205683
 10
62.1920593407
 20
38.6854586933
 10
62.1646034343
 20
38.7682570979
 10
62.1323810758
 20
38.8493208418
 10
62.0955012519
 20
38.928375736
 10
62.0540887045
 20
39.0051543821
 10
62.008283506
 20
39.0793970849
 10
61.9582405855
 20
39.1508527281
 10
61.9041292083
 20
39.2192796186
 10
61.8461323986
 20
39.2844463113
 10
61.7844463234
 20
39.3461323872
 10
61.7192796312
 20
39.4041291977
 10
61.650852741
 20
39.4582405759
 10
61.5793970979
 20
39.5082834975
 10
61.5051543949
 20
39.5540886971
 10
61.4283757484
 20
39.5955012456
 10
61.3493208535
 20
39.6323810708
 10
61.2682571087
 20
39.6646034303
 10
61.1854587958
 20
39.69205931
 10
61.10120588
 20
39.7146558844
 10
61.0157830526
 20
39.7323167756
 10
60.9294791417
 20
39.7449822114
 10
60.842586149
 20
39.7526092824
 10
60.7553979802
 20
39.7551721425
  0
LINE
  5
2B8
100
AcDbEntity
  8
IMPORT_IGES
100
AcDbLine
 62
250
  6
CONTINUOUS
 10
60.755400594
 20
-31.9860132965
 11
60.755400778
 21
-32.5139867035
  0
LINE
  5
2B9
100
AcDbEntity
  8
IMPORT_IGES
100
AcDbLine
 62
250
  6
CONTINUOUS
 10
60.755400594
 20
-34.4860132965
 11
60.755400778
 21
-35.0139867035
  0
LINE
  5
2BA
100
AcDbEntity
  8
IMPORT_IGES
100
AcDbLine
 62
250
  6
CONTINUOUS
 10
60.755400594
 20
-36.9860132965
 11
60.7554005989
 21
-39.7551721417
  0
LINE
  5
2BB
100
AcDbEntity
  8
IMPORT_IGES
100
AcDbLine
 62
250
  6
CONTINUOUS
 10
60.7554007791
 20
31.9860132965
 11
60.7554005941
 21
32.5139867035
  0
LINE
  5
2BC
100
AcDbEntity
  8
IMPORT_IGES
100
AcDbLine
 62
250
  6
CONTINUOUS
 10
60.7554007791
 20
34.4860132965
 11
60.7554005941
 21
35.0139867035
  0
LINE
  5
2BD
100
AcDbEntity
  8
IMPORT_IGES
100
AcDbLine
 62
250
  6
CONTINUOUS
 10
60.7554007791
 20
36.9860132965
 11
60.755400599
 21
39.7551721417
  0
LINE
  5
2BE
100
AcDbEntity
  8
IMPORT_IGES
100
AcDbLine
 62
250
  6
CONTINUOUS
 10
60.7554005941
 20
30.0139867035
 11
60.7554084111
 21
28.7294464936
  0
LINE
  5
2BF
100
AcDbEntity
  8
IMPORT_IGES
100
AcDbLine
 62
250
  6
CONTINUOUS
 10
60.755408395
 20
-28.7294464936
 11
60.755400778
 21
-30.0139867035
  0
LINE
  5
2C0
100
AcDbEntity
  8
IMPORT_IGES
100
AcDbLine
 62
250
  6
CONTINUOUS
 10
61.2466886942
 20
28.7207189611
 11
61.2466886942
 21
-28.7207189612
  0
LINE
  5
2C1
100
AcDbEntity
  8
IMPORT_IGES
100
AcDbLine
 62
250
  6
CONTINUOUS
 10
62.2551722781
 20
-38.2554007354
 11
62.2551722781
 21
-28.7551722782
  0
LINE
  5
2C2
100
AcDbEntity
  8
IMPORT_IGES
100
AcDbLine
 62
250
  6
CONTINUOUS
 10
62.2551722782
 20
28.7551722782
 11
62.2551722782
 21
38.2554007353
  0
LINE
  5
2C3
100
AcDbEntity
  8
IMPORT_IGES
100
AcDbLine
 62
7
  6
CONTINUOUS
 10
62.4476348052
 20
38.4478414269
 11
62.4476348052
 21
28.9476348052
  0
LINE
  5
2C4
100
AcDbEntity
  8
IMPORT_IGES
100
AcDbLine
 62
7
  6
CONTINUOUS
 10
62.4476348052
 20
-28.9476348052
 11
62.4476348052
 21
-38.4478631932
  0
LINE
  5
2C5
100
AcDbEntity
  8
IMPORT_IGES
100
AcDbLine
 62
7
  6
CONTINUOUS
 10
62.5349101299
 20
-38.5351385164
 11
62.5349101299
 21
-29.0349101299
  0
LINE
  5
2C6
100
AcDbEntity
  8
IMPORT_IGES
100
AcDbLine
 62
7
  6
CONTINUOUS
 10
62.5349101299
 20
29.0349101299
 11
62.5349101299
 21
38.5351385178
  0
LINE
  5
2C7
100
AcDbEntity
  8
IMPORT_IGES
100
AcDbLine
 62
250
  6
CONTINUOUS
 10
62.7464448822
 20
-28.7464448822
 11
62.7464448822
 21
28.7464448821
  0
LINE
  5
2C8
100
AcDbEntity
  8
IMPORT_IGES
100
AcDbLine
 62
7
  6
CONTINUOUS
 10
62.9476348052
 20
28.9476348052
 11
62.9476348052
 21
-28.9476348052
  0
LINE
  5
2C9
100
AcDbEntity
  8
IMPORT_IGES
100
AcDbLine
 62
7
  6
CONTINUOUS
 10
63.0349101299
 20
-29.0349101299
 11
63.0349101299
 21
29.0349101299
  0
LWPOLYLINE
  5
2CA
100
AcDbEntity
  8
IMPORT_IGES
100
AcDbPolyline
 62
250
  6
CONTINUOUS
 90
28
 70
0
 10
62.2551721417
 20
-38.2554005989
 10
62.2526091876
 20
-38.342587769
 10
62.2449821063
 20
-38.4294800389
 10
62.2323166955
 20
-38.5157835062
 10
62.2146557943
 20
-38.6012062598
 10
62.1920591387
 20
-38.6854593675
 10
62.1646031592
 20
-38.7682578533
 10
62.1323807221
 20
-38.8493216614
 10
62.0955008161
 20
-38.9283766032
 10
62.054088183
 20
-39.005155285
 10
62.008282896
 20
-39.0793980122
 10
61.958239886
 20
-39.1508536676
 10
61.9041284173
 20
-39.2192805611
 10
61.8461315156
 20
-39.2844472471
 10
61.7844453483
 20
-39.3461333072
 10
61.7192785613
 20
-39.4041300955
 10
61.6508515736
 20
-39.4582414451
 10
61.5793958312
 20
-39.5082843308
 10
61.5051530244
 20
-39.5540894886
 10
61.4283742705
 20
-39.5955019881
 10
61.3493192645
 20
-39.6323817565
 10
61.2682554004
 20
-39.6646040525
 10
61.1854568668
 20
-39.692059888
 10
61.1012037199
 20
-39.7146563969
 10
61.0157809356
 20
-39.7323171494
 10
60.9294774463
 20
-39.7449824101
 10
60.8425851631
 20
-39.7526093401
 10
60.7553979886
 20
-39.7551721425
  0
LINE
  5
2CB
100
AcDbEntity
  8
IMPORT_IGES
100
AcDbLine
 62
7
  6
CONTINUOUS
 10
-89.571408395
 20
-39.8511749988
 11
-100.0975870046
 21
-40.0349101299
  0
LINE
  5
2CC
100
AcDbEntity
  8
IMPORT_IGES
100
AcDbLine
 62
7
  6
CONTINUOUS
 10
-101.0975870046
 20
-39.9476348052
 11
-112.1237656143
 21
-39.7551721417
  0
LINE
  5
2CD
100
AcDbEntity
  8
IMPORT_IGES
100
AcDbLine
 62
7
  6
CONTINUOUS
 10
-101.0975870046
 20
-38.7996191799
 11
-100.0975870046
 21
-38.782164115
  0
LINE
  5
2CE
100
AcDbEntity
  8
IMPORT_IGES
100
AcDbLine
 62
250
  6
CONTINUOUS
 10
-100.0975870046
 20
-38.5351385871
 11
-89.571408395
 21
-38.3514034559
  0
LINE
  5
2CF
100
AcDbEntity
  8
IMPORT_IGES
100
AcDbLine
 62
250
  6
CONTINUOUS
 10
-88.0975870046
 20
-38.3514034561
 11
-89.571408395
 21
-38.3514034561
  0
LINE
  5
2D0
100
AcDbEntity
  8
IMPORT_IGES
100
AcDbLine
 62
250
  6
CONTINUOUS
 10
-112.1237577957
 20
-38.255400599
 11
-113.5975870046
 21
-38.255400599
  0
LINE
  5
2D1
100
AcDbEntity
  8
IMPORT_IGES
100
AcDbLine
 62
7
  6
CONTINUOUS
 10
-88.0975870046
 20
-36.5
 11
-87.0975870046
 21
-36.5
  0
LINE
  5
2D2
100
AcDbEntity
  8
IMPORT_IGES
100
AcDbLine
 62
250
  6
CONTINUOUS
 10
-112.1237577957
 20
-38.2554007354
 11
-101.0975870046
 21
-38.4478632626
  0
LWPOLYLINE
  5
2D3
100
AcDbEntity
  8
IMPORT_IGES
100
AcDbPolyline
 62
250
  6
CONTINUOUS
 90
16
 70
0
 10
-113.0884969737
 20
-34.985843676
 10
-113.1367057228
 20
-34.9596819862
 10
-113.1833640969
 20
-34.9371282639
 10
-113.2315859329
 20
-34.916654719
 10
-113.2821867675
 20
-34.8978451689
 10
-113.3326224288
 20
-34.8811157962
 10
-113.3806889038
 20
-34.8661873594
 10
-113.4260612682
 20
-34.8528490088
 10
-113.4676832956
 20
-34.8413115941
 10
-113.5032979689
 20
-34.8319284231
 10
-113.532496673
 20
-34.8249947127
 10
-113.5560909005
 20
-34.8202152459
 10
-113.5743391307
 20
-34.8170576795
 10
-113.5873153395
 20
-34.8153445659
 10
-113.595035751
 20
-34.8152533526
 10
-113.5975870046
 20
-34.8167840399
  0
LWPOLYLINE
  5
2D4
100
AcDbEntity
  8
IMPORT_IGES
100
AcDbPolyline
 62
250
  6
CONTINUOUS
 90
52
 70
0
 10
-113.5975870046
 20
-37.1832159607
 10
-113.5948120083
 20
-37.1847502478
 10
-113.5865601388
 20
-37.1846254268
 10
-113.5729551721
 20
-37.1828414978
 10
-113.5542647826
 20
-37.1795409752
 10
-113.5305813051
 20
-37.1745813446
 10
-113.5015188362
 20
-37.1675350627
 10
-113.4662806031
 20
-37.1581575704
 10
-113.4253383833
 20
-37.1466934268
 10
-113.3805942791
 20
-37.1334487664
 10
-113.3330491208
 20
-37.1188291968
 10
-113.2829088449
 20
-37.1024291104
 10
-113.2316690286
 20
-37.0833378183
 10
-113.1814669944
 20
-37.0620504209
 10
-113.1315757799
 20
-37.0380718179
 10
-113.078813956
 20
-37.0090060188
 10
-113.0206872061
 20
-36.9734838583
 10
-112.9596004692
 20
-36.9328745018
 10
-112.8996747761
 20
-36.8888894553
 10
-112.8423463612
 20
-36.8418684347
 10
-112.7870824569
 20
-36.7914717241
 10
-112.7354774846
 20
-36.7383916812
 10
-112.6885477908
 20
-36.6826161749
 10
-112.6459330047
 20
-36.6241573363
 10
-112.6071248751
 20
-36.5637439168
 10
-112.5720690598
 20
-36.5012445289
 10
-112.5411141449
 20
-36.4367905601
 10
-112.5142783514
 20
-36.371504924
 10
-112.491559599
 20
-36.305768211
 10
-112.4731045325
 20
-36.2391998308
 10
-112.4591252823
 20
-36.1717809263
 10
-112.4495545806
 20
-36.1033141012
 10
-112.4445163432
 20
-36.0339967518
 10
-112.4444930664
 20
-35.9644022094
 10
-112.4498059418
 20
-35.8942879823
 10
-112.4601202606
 20
-35.8238965621
 10
-112.4749186542
 20
-35.7545287551
 10
-112.4941621831
 20
-35.6863306636
 10
-112.5178015782
 20
-35.6191561852
 10
-112.5452906344
 20
-35.5538678199
 10
-112.5765881929
 20
-35.4902998354
 10
-112.6115557967
 20
-35.428617964
 10
-112.6494925164
 20
-35.3701819022
 10
-112.6899709232
 20
-35.3155538669
 10
-112.733142636
 20
-35.2641716412
 10
-112.7791401799
 20
-35.2157082712
 10
-112.8283039759
 20
-35.1700446399
 10
-112.8797722002
 20
-35.1272998643
 10
-112.9318982139
 20
-35.0875043404
 10
-112.9844547949
 20
-35.0504486286
 10
-113.0371637569
 20
-35.0163421685
 10
-113.0884969737
 20
-34.985843676
  0
LWPOLYLINE
  5
2D5
100
AcDbEntity
  8
IMPORT_IGES
100
AcDbPolyline
 62
250
  6
CONTINUOUS
 90
52
 70
0
 10
-113.5975870046
 20
-34.6832159605
 10
-113.5948120082
 20
-34.6847502477
 10
-113.5865601386
 20
-34.6846254268
 10
-113.5729551717
 20
-34.6828414978
 10
-113.5542647818
 20
-34.6795409751
 10
-113.5305813039
 20
-34.6745813443
 10
-113.5015188344
 20
-34.6675350622
 10
-113.4662806006
 20
-34.6581575696
 10
-113.4253383799
 20
-34.6466934258
 10
-113.380594275
 20
-34.6334487651
 10
-113.3330491166
 20
-34.6188291955
 10
-113.282908841
 20
-34.6024291092
 10
-113.231669025
 20
-34.583337817
 10
-113.181466991
 20
-34.5620504195
 10
-113.1315757767
 20
-34.5380718162
 10
-113.078813953
 20
-34.5090060169
 10
-113.0206872032
 20
-34.4734838563
 10
-112.9596004663
 20
-34.4328744998
 10
-112.8996747735
 20
-34.3888894533
 10
-112.842346359
 20
-34.341868433
 10
-112.7870824553
 20
-34.2914717226
 10
-112.7354774834
 20
-34.23839168
 10
-112.68854779
 20
-34.1826161738
 10
-112.6459330041
 20
-34.1241573353
 10
-112.6071248746
 20
-34.0637439158
 10
-112.5720690594
 20
-34.0012445279
 10
-112.5411141445
 20
-33.9367905591
 10
-112.514278351
 20
-33.8715049229
 10
-112.4915595986
 20
-33.8057682097
 10
-112.4731045321
 20
-33.7391998292
 10
-112.459125282
 20
-33.6717809243
 10
-112.4495545804
 20
-33.6033140989
 10
-112.4445163431
 20
-33.5339967491
 10
-112.4444930665
 20
-33.4644022062
 10
-112.4498059422
 20
-33.3942879787
 10
-112.4601202613
 20
-33.3238965582
 10
-112.4749186553
 20
-33.254528751
 10
-112.4941621844
 20
-33.1863306593
 10
-112.5178015798
 20
-33.1191561809
 10
-112.5452906363
 20
-33.0538678158
 10
-112.5765881949
 20
-32.9902998315
 10
-112.6115557988
 20
-32.9286179605
 10
-112.6494925185
 20
-32.8701818991
 10
-112.6899709251
 20
-32.8155538644
 10
-112.7331426377
 20
-32.7641716394
 10
-112.7791401812
 20
-32.71570827
 10
-112.8283039765
 20
-32.6700446394
 10
-112.8797721999
 20
-32.6272998644
 10
-112.9318982128
 20
-32.5875043412
 10
-112.9844547931
 20
-32.5504486298
 10
-113.0371637543
 20
-32.5163421701
 10
-113.0884969707
 20
-32.4858436777
  0
LWPOLYLINE
  5
2D6
100
AcDbEntity
  8
IMPORT_IGES
100
AcDbPolyline
 62
250
  6
CONTINUOUS
 90
16
 70
0
 10
-113.0884969707
 20
-32.4858436777
 10
-113.1367057196
 20
-32.4596819879
 10
-113.1833640936
 20
-32.4371282653
 10
-113.2315859299
 20
-32.4166547203
 10
-113.2821867648
 20
-32.3978451699
 10
-113.3326224267
 20
-32.3811157969
 10
-113.3806889022
 20
-32.3661873599
 10
-113.426061267
 20
-32.3528490091
 10
-113.4676832948
 20
-32.3413115943
 10
-113.5032979683
 20
-32.3319284232
 10
-113.5324966727
 20
-32.3249947127
 10
-113.5560909003
 20
-32.3202152459
 10
-113.5743391306
 20
-32.3170576795
 10
-113.5873153395
 20
-32.3153445658
 10
-113.595035751
 20
-32.3152533526
 10
-113.5975870046
 20
-32.3167840399
  0
LWPOLYLINE
  5
2D7
100
AcDbEntity
  8
IMPORT_IGES
100
AcDbPolyline
 62
250
  6
CONTINUOUS
 90
52
 70
0
 10
-113.5975870046
 20
-32.1832159605
 10
-113.5948120082
 20
-32.1847502477
 10
-113.5865601386
 20
-32.1846254268
 10
-113.5729551717
 20
-32.1828414978
 10
-113.5542647819
 20
-32.1795409751
 10
-113.5305813039
 20
-32.1745813443
 10
-113.5015188345
 20
-32.1675350622
 10
-113.4662806006
 20
-32.1581575696
 10
-113.42533838
 20
-32.1466934258
 10
-113.3805942751
 20
-32.1334487652
 10
-113.3330491167
 20
-32.1188291956
 10
-113.2829088411
 20
-32.1024291092
 10
-113.2316690251
 20
-32.0833378171
 10
-113.1814669911
 20
-32.0620504195
 10
-113.1315757768
 20
-32.0380718162
 10
-113.0788139531
 20
-32.009006017
 10
-113.0206872033
 20
-31.9734838564
 10
-112.9596004664
 20
-31.9328744999
 10
-112.8996747736
 20
-31.8888894534
 10
-112.8423463591
 20
-31.8418684331
 10
-112.7870824554
 20
-31.7914717227
 10
-112.7354774835
 20
-31.7383916801
 10
-112.68854779
 20
-31.6826161739
 10
-112.6459330042
 20
-31.6241573354
 10
-112.6071248747
 20
-31.5637439159
 10
-112.5720690595
 20
-31.501244528
 10
-112.5411141445
 20
-31.4367905591
 10
-112.5142783511
 20
-31.371504923
 10
-112.4915595986
 20
-31.3057682098
 10
-112.4731045321
 20
-31.2391998293
 10
-112.459125282
 20
-31.1717809245
 10
-112.4495545804
 20
-31.103314099
 10
-112.4445163431
 20
-31.0339967492
 10
-112.4444930665
 20
-30.9644022064
 10
-112.4498059422
 20
-30.8942879788
 10
-112.4601202613
 20
-30.8238965583
 10
-112.4749186552
 20
-30.7545287511
 10
-112.4941621844
 20
-30.6863306594
 10
-112.5178015797
 20
-30.6191561811
 10
-112.5452906362
 20
-30.5538678159
 10
-112.5765881949
 20
-30.4902998316
 10
-112.6115557988
 20
-30.4286179606
 10
-112.6494925184
 20
-30.3701818992
 10
-112.6899709251
 20
-30.3155538645
 10
-112.7331426377
 20
-30.2641716395
 10
-112.7791401811
 20
-30.21570827
 10
-112.8283039764
 20
-30.1700446395
 10
-112.8797721998
 20
-30.1272998645
 10
-112.9318982128
 20
-30.0875043412
 10
-112.984454793
 20
-30.0504486298
 10
-113.0371637543
 20
-30.0163421701
 10
-113.0884969706
 20
-29.9858436777
  0
LWPOLYLINE
  5
2D8
100
AcDbEntity
  8
IMPORT_IGES
100
AcDbPolyline
 62
250
  6
CONTINUOUS
 90
16
 70
0
 10
-113.0884969706
 20
-29.9858436777
 10
-113.1367057195
 20
-29.9596819879
 10
-113.1833640936
 20
-29.9371282654
 10
-113.2315859298
 20
-29.9166547203
 10
-113.2821867648
 20
-29.8978451699
 10
-113.3326224266
 20
-29.8811157969
 10
-113.3806889021
 20
-29.8661873599
 10
-113.4260612669
 20
-29.8528490092
 10
-113.4676832947
 20
-29.8413115944
 10
-113.5032979683
 20
-29.8319284232
 10
-113.5324966726
 20
-29.8249947127
 10
-113.5560909003
 20
-29.8202152459
 10
-113.5743391306
 20
-29.8170576795
 10
-113.5873153395
 20
-29.8153445658
 10
-113.595035751
 20
-29.8152533526
 10
-113.5975870046
 20
-29.8167840399
  0
LINE
  5
2D9
100
AcDbEntity
  8
IMPORT_IGES
100
AcDbLine
 62
7
  6
CONTINUOUS
 10
-100.0975870046
 20
-29.0349101299
 11
-94.5714240344
 21
-28.9384505964
  0
LINE
  5
2DA
100
AcDbEntity
  8
IMPORT_IGES
100
AcDbLine
 62
7
  6
CONTINUOUS
 10
-101.0975870046
 20
-28.9476348052
 11
-114.0975870046
 21
-28.7207189611
  0
LINE
  5
2DB
100
AcDbEntity
  8
IMPORT_IGES
100
AcDbLine
 62
250
  6
CONTINUOUS
 10
-88.0975870046
 20
-18.5
 11
-87.0975870046
 21
-18.5
  0
LINE
  5
2DC
100
AcDbEntity
  8
IMPORT_IGES
100
AcDbLine
 62
7
  6
CONTINUOUS
 10
-87.0975870046
 20
-15.5
 11
-88.0975870046
 21
-15.5
  0
LWPOLYLINE
  5
2DD
100
AcDbEntity
  8
IMPORT_IGES
100
AcDbPolyline
 62
250
  6
CONTINUOUS
 90
9
 70
0
 10
-112.1327253605
 20
-39.5955019881
 10
-112.131989189
 20
-39.6323817565
 10
-112.1311366563
 20
-39.6646040525
 10
-112.1301706459
 20
-39.692059888
 10
-112.1290944253
 20
-39.7146563969
 10
-112.1279116346
 20
-39.7323171494
 10
-112.1266262746
 20
-39.7449824101
 10
-112.1252426927
 20
-39.7526093401
 10
-112.1237655688
 20
-39.7551721425
  0
LINE
  5
2DE
100
AcDbEntity
  8
IMPORT_IGES
100
AcDbLine
 62
250
  6
CONTINUOUS
 10
-112.1252427327
 20
38.342587599
 11
-112.1311366751
 21
38.7682570979
  0
LINE
  5
2DF
100
AcDbEntity
  8
IMPORT_IGES
100
AcDbLine
 62
250
  6
CONTINUOUS
 10
-112.1338390618
 20
-39.5082843308
 11
-112.1327253605
 21
-39.5955019881
  0
LINE
  5
2E0
100
AcDbEntity
  8
IMPORT_IGES
100
AcDbLine
 62
250
  6
CONTINUOUS
 10
-112.1311366751
 20
38.7682570979
 11
-112.1338390693
 21
39.0793970849
  0
LINE
  5
2E1
100
AcDbEntity
  8
IMPORT_IGES
100
AcDbLine
 62
250
  6
CONTINUOUS
 10
-112.134462705
 20
-39.4041300955
 11
-112.1338390618
 21
-39.5082843308
  0
LINE
  5
2E2
100
AcDbEntity
  8
IMPORT_IGES
100
AcDbLine
 62
250
  6
CONTINUOUS
 10
-112.1338390693
 20
39.0793970849
 11
-112.1345878588
 21
39.2844463113
  0
LINE
  5
2E3
100
AcDbEntity
  8
IMPORT_IGES
100
AcDbLine
 62
7
  6
CONTINUOUS
 10
-114.0975870046
 20
28.7207189611
 11
-114.0975870046
 21
-28.7207189612
  0
LINE
  5
2E4
100
AcDbEntity
  8
IMPORT_IGES
100
AcDbLine
 62
7
  6
CONTINUOUS
 10
-113.5975870046
 20
38.2554005989
 11
-113.5975870046
 21
37.1832159595
  0
LINE
  5
2E5
100
AcDbEntity
  8
IMPORT_IGES
100
AcDbLine
 62
7
  6
CONTINUOUS
 10
-113.5975870046
 20
34.8167840405
 11
-113.5975870046
 21
34.6832159595
  0
LINE
  5
2E6
100
AcDbEntity
  8
IMPORT_IGES
100
AcDbLine
 62
7
  6
CONTINUOUS
 10
-113.5975870046
 20
32.3167840405
 11
-113.5975870046
 21
32.1832159595
  0
LINE
  5
2E7
100
AcDbEntity
  8
IMPORT_IGES
100
AcDbLine
 62
7
  6
CONTINUOUS
 10
-113.5975870046
 20
29.8167840405
 11
-113.5975870046
 21
28.7294464936
  0
LINE
  5
2E8
100
AcDbEntity
  8
IMPORT_IGES
100
AcDbLine
 62
7
  6
CONTINUOUS
 10
-113.5975870046
 20
-28.7294464936
 11
-113.5975870046
 21
-29.8167840405
  0
LINE
  5
2E9
100
AcDbEntity
  8
IMPORT_IGES
100
AcDbLine
 62
7
  6
CONTINUOUS
 10
-113.5975870046
 20
-32.1832159595
 11
-113.5975870046
 21
-32.3167840405
  0
LINE
  5
2EA
100
AcDbEntity
  8
IMPORT_IGES
100
AcDbLine
 62
7
  6
CONTINUOUS
 10
-113.5975870046
 20
-34.6832159595
 11
-113.5975870046
 21
-34.8167840405
  0
LINE
  5
2EB
100
AcDbEntity
  8
IMPORT_IGES
100
AcDbLine
 62
7
  6
CONTINUOUS
 10
-113.5975870046
 20
-37.1832159595
 11
-113.5975870046
 21
-38.255400599
  0
LINE
  5
2EC
100
AcDbEntity
  8
IMPORT_IGES
100
AcDbLine
 62
250
  6
CONTINUOUS
 10
-112.6237499756
 20
-28.7464448822
 11
-112.6237499756
 21
28.7464448821
  0
LINE
  5
2ED
100
AcDbEntity
  8
IMPORT_IGES
100
AcDbLine
 62
250
  6
CONTINUOUS
 10
-112.1237577957
 20
-38.2554007354
 11
-112.1237577957
 21
-28.7551722782
  0
LINE
  5
2EE
100
AcDbEntity
  8
IMPORT_IGES
100
AcDbLine
 62
250
  6
CONTINUOUS
 10
-112.1237577942
 20
28.7551722782
 11
-112.1237577942
 21
38.2554007353
  0
LINE
  5
2EF
100
AcDbEntity
  8
IMPORT_IGES
100
AcDbLine
 62
250
  6
CONTINUOUS
 10
-112.1344627106
 20
-39.2192805611
 11
-112.134462705
 21
-39.4041300955
  0
LINE
  5
2F0
100
AcDbEntity
  8
IMPORT_IGES
100
AcDbLine
 62
250
  6
CONTINUOUS
 10
-112.1345878588
 20
39.2844463113
 11
-112.134462708
 21
39.4041291977
  0
LINE
  5
2F1
100
AcDbEntity
  8
IMPORT_IGES
100
AcDbLine
 62
250
  6
CONTINUOUS
 10
-112.1333426975
 20
-39.005155285
 11
-112.1344627106
 21
-39.2192805611
  0
LINE
  5
2F2
100
AcDbEntity
  8
IMPORT_IGES
100
AcDbLine
 62
250
  6
CONTINUOUS
 10
-112.134462708
 20
39.4041291977
 11
-112.1338390694
 21
39.5082834975
  0
LINE
  5
2F3
100
AcDbEntity
  8
IMPORT_IGES
100
AcDbLine
 62
250
  6
CONTINUOUS
 10
-112.1301706765
 20
-38.6854593675
 11
-112.1333426975
 21
-39.005155285
  0
LWPOLYLINE
  5
2F4
100
AcDbEntity
  8
IMPORT_IGES
100
AcDbPolyline
 62
250
  6
CONTINUOUS
 90
10
 70
0
 10
-112.1338390694
 20
39.5082834975
 10
-112.1327253734
 20
39.5955012456
 10
-112.1319892048
 20
39.6323810708
 10
-112.1311366752
 20
39.6646034303
 10
-112.1301706695
 20
39.69205931
 10
-112.129094454
 20
39.7146558844
 10
-112.127911665
 20
39.7323167756
 10
-112.1266263007
 20
39.7449822114
 10
-112.1252427089
 20
39.7526092824
 10
-112.1237655686
 20
39.7551721425
  0
LINE
  5
2F5
100
AcDbEntity
  8
IMPORT_IGES
100
AcDbLine
 62
250
  6
CONTINUOUS
 10
-112.1237656143
 20
38.2554005989
 11
-112.1252427327
 21
38.342587599
  0
LWPOLYLINE
  5
2F6
100
AcDbEntity
  8
IMPORT_IGES
100
AcDbPolyline
 62
250
  6
CONTINUOUS
 90
3
 70
0
 10
-112.1237656143
 20
-38.2554005989
 10
-112.1252427355
 20
-38.342587769
 10
-112.1301706765
 20
-38.6854593675
  0
LINE
  5
2F7
100
AcDbEntity
  8
IMPORT_IGES
100
AcDbLine
 62
7
  6
CONTINUOUS
 10
-87.0975870046
 20
-5.0
 11
-88.0975870046
 21
-5.0
  0
LINE
  5
2F8
100
AcDbEntity
  8
IMPORT_IGES
100
AcDbLine
 62
7
  6
CONTINUOUS
 10
-88.0975870046
 20
-3.0
 11
-87.0975870046
 21
-3.0
  0
LINE
  5
2F9
100
AcDbEntity
  8
IMPORT_IGES
100
AcDbLine
 62
7
  6
CONTINUOUS
 10
-101.0975870046
 20
-39.9476348052
 11
-101.0975870046
 21
39.9476348052
  0
LWPOLYLINE
  5
2FA
100
AcDbEntity
  8
0
100
AcDbPolyline
 62
7
  6
CONTINUOUS
 90
4
 70
0
 43
0.3500000006
 10
-100.5975834961
 20
56.1915105286
 10
-100.5975834961
 20
56.8343730469
 10
-99.0975830383
 20
56.8343730469
 10
-99.9547300415
 20
53.8343721313
  0
LINE
  5
2FB
100
AcDbEntity
  8
IMPORT_IGES
100
AcDbLine
 62
7
  6
CONTINUOUS
 10
-100.0975870046
 20
-40.0349101299
 11
-100.0975870046
 21
40.0349101299
  0
LINE
  5
2FC
100
AcDbEntity
  8
IMPORT_IGES
100
AcDbLine
 62
7
  6
CONTINUOUS
 10
-87.0975870046
 20
3.0
 11
-88.0975870046
 21
3.0
  0
LINE
  5
2FD
100
AcDbEntity
  8
IMPORT_IGES
100
AcDbLine
 62
7
  6
CONTINUOUS
 10
-87.0975870046
 20
5.0
 11
-88.0975870046
 21
5.0
  0
LINE
  5
2FE
100
AcDbEntity
  8
IMPORT_IGES
100
AcDbLine
 62
7
  6
CONTINUOUS
 10
-93.0975870046
 20
27.4386944084
 11
-93.0975870046
 21
-27.4386944084
  0
LINE
  5
2FF
100
AcDbEntity
  8
IMPORT_IGES
100
AcDbLine
 62
250
  6
CONTINUOUS
 10
-89.571408395
 20
-38.351403456
 11
-89.565003341
 21
-38.7814615504
  0
LINE
  5
300
100
AcDbEntity
  8
IMPORT_IGES
100
AcDbLine
 62
250
  6
CONTINUOUS
 10
-89.5624486487
 20
39.6915048452
 11
-89.5613349474
 21
39.6042871879
  0
LINE
  5
301
100
AcDbEntity
  8
IMPORT_IGES
100
AcDbLine
 62
250
  6
CONTINUOUS
 10
-89.565003341
 20
-38.7814615504
 11
-89.5618313184
 21
-39.1011572392
  0
LINE
  5
302
100
AcDbEntity
  8
IMPORT_IGES
100
AcDbLine
 62
250
  6
CONTINUOUS
 10
-89.5613349474
 20
39.6042871879
 11
-89.5607113042
 21
39.5001329526
  0
LINE
  5
303
100
AcDbEntity
  8
IMPORT_IGES
100
AcDbLine
 62
250
  6
CONTINUOUS
 10
-89.5618313184
 20
-39.1011572392
 11
-89.5607113013
 21
-39.3152824757
  0
LINE
  5
304
100
AcDbEntity
  8
IMPORT_IGES
100
AcDbLine
 62
250
  6
CONTINUOUS
 10
-89.571408395
 20
38.3514034561
 11
-89.571408395
 21
-38.3514034559
  0
LINE
  5
305
100
AcDbEntity
  8
IMPORT_IGES
100
AcDbLine
 62
250
  6
CONTINUOUS
 10
-89.5607113042
 20
39.5001329526
 11
-89.5607112986
 21
39.3152834182
  0
LINE
  5
306
100
AcDbEntity
  8
IMPORT_IGES
100
AcDbLine
 62
250
  6
CONTINUOUS
 10
-89.5607113013
 20
-39.3152824757
 11
-89.5607113012
 21
-39.5001320548
  0
LINE
  5
307
100
AcDbEntity
  8
IMPORT_IGES
100
AcDbLine
 62
250
  6
CONTINUOUS
 10
-89.5607112986
 20
39.3152834182
 11
-89.5618313118
 21
39.1011581421
  0
LINE
  5
308
100
AcDbEntity
  8
IMPORT_IGES
100
AcDbLine
 62
250
  6
CONTINUOUS
 10
-89.5607113012
 20
-39.5001320548
 11
-89.5613349399
 21
-39.6042863546
  0
LINE
  5
309
100
AcDbEntity
  8
IMPORT_IGES
100
AcDbLine
 62
250
  6
CONTINUOUS
 10
-89.5618313118
 20
39.1011581421
 11
-89.5650033328
 21
38.7814622246
  0
LWPOLYLINE
  5
30A
100
AcDbEntity
  8
IMPORT_IGES
100
AcDbPolyline
 62
250
  6
CONTINUOUS
 90
10
 70
0
 10
-89.5613349399
 20
-39.6042863546
 10
-89.5624486359
 20
-39.6915041027
 10
-89.5631848045
 20
-39.7283839279
 10
-89.564037334
 20
-39.7606062874
 10
-89.5650033398
 20
-39.7880621672
 10
-89.5660795552
 20
-39.8106587417
 10
-89.5672623442
 20
-39.8283196327
 10
-89.5685477086
 20
-39.8409850683
 10
-89.5699313003
 20
-39.8486121393
 10
-89.5714084405
 20
-39.8511749996
  0
LINE
  5
30B
100
AcDbEntity
  8
IMPORT_IGES
100
AcDbLine
 62
250
  6
CONTINUOUS
 10
-89.5650033328
 20
38.7814622246
 11
-89.571408395
 21
38.351403456
  0
LINE
  5
30C
100
AcDbEntity
  8
IMPORT_IGES
100
AcDbLine
 62
7
  6
CONTINUOUS
 10
-88.0975870046
 20
-38.3514034561
 11
-88.0975870046
 21
38.351403456
  0
LINE
  5
30D
100
AcDbEntity
  8
IMPORT_IGES
100
AcDbLine
 62
7
  6
CONTINUOUS
 10
-87.0975870046
 20
34.0000038653
 11
-87.0975870046
 21
31.9999961655
  0
LINE
  5
30E
100
AcDbEntity
  8
IMPORT_IGES
100
AcDbLine
 62
7
  6
CONTINUOUS
 10
-87.0975870046
 20
30.04
 11
-87.0975870046
 21
19.36
  0
LINE
  5
30F
100
AcDbEntity
  8
IMPORT_IGES
100
AcDbLine
 62
7
  6
CONTINUOUS
 10
-87.0975870046
 20
4.9999999999
 11
-87.0975870046
 21
-4.9999999999
  0
LINE
  5
310
100
AcDbEntity
  8
IMPORT_IGES
100
AcDbLine
 62
7
  6
CONTINUOUS
 10
-87.0975870046
 20
-15.5
 11
-87.0975870046
 21
-36.5
  0
LINE
  5
311
100
AcDbEntity
  8
IMPORT_IGES
100
AcDbLine
 62
7
  6
CONTINUOUS
 10
-88.0975870046
 20
19.36
 11
-87.0975870046
 21
19.36
  0
LWPOLYLINE
  5
312
100
AcDbEntity
  8
IMPORT_IGES
100
AcDbPolyline
 62
250
  6
CONTINUOUS
 90
52
 70
0
 10
-113.5975870046
 20
29.8167839628
 10
-113.5948131031
 20
29.815249834
 10
-113.5865642436
 20
29.8153746323
 10
-113.5729637855
 20
29.8171583574
 10
-113.5542794546
 20
29.8204582762
 10
-113.5306029274
 20
29.825417122
 10
-113.5015457941
 20
29.8324630947
 10
-113.466307584
 20
29.8418418738
 10
-113.4253602756
 20
29.8533077798
 10
-113.3806103104
 20
29.8665519748
 10
-113.3330592052
 20
29.8811686563
 10
-113.2829133808
 20
29.8975636267
 10
-113.231675812
 20
29.9166454553
 10
-113.1814917053
 20
29.9379167531
 10
-113.1316297309
 20
29.961874909
 10
-113.0788970583
 20
29.9909206586
 10
-113.0207967818
 20
30.0264245306
 10
-112.9597353707
 20
30.0670159961
 10
-112.8998264172
 20
30.1109842042
 10
-112.842500049
 20
30.1579898927
 10
-112.7872276105
 20
30.2083723236
 10
-112.7356115623
 20
30.261438432
 10
-112.6886700906
 20
30.3171986163
 10
-112.6460412438
 20
30.3756424781
 10
-112.6072204125
 20
30.4360457571
 10
-112.5721549549
 20
30.4985421302
 10
-112.5411920719
 20
30.5629979204
 10
-112.5143490414
 20
30.6282878362
 10
-112.4916241984
 20
30.6940312256
 10
-112.4731638755
 20
30.7606087405
 10
-112.459178105
 20
30.8280370453
 10
-112.449598946
 20
30.8965129168
 10
-112.4445510162
 20
30.9658395783
 10
-112.4445167612
 20
31.0354433633
 10
-112.4498162973
 20
31.1055663479
 10
-112.4601160566
 20
31.1759664562
 10
-112.4749019366
 20
31.2453437936
 10
-112.494135935
 20
31.313553368
 10
-112.5177678694
 20
31.3807401715
 10
-112.5452519865
 20
31.4460392871
 10
-112.5765464079
 20
31.5096135689
 10
-112.6115133571
 20
31.5713001628
 10
-112.6494543557
 20
31.6297455889
 10
-112.6899427235
 20
31.6843902832
 10
-112.7331289271
 20
31.7357938097
 10
-112.779144947
 20
31.7842813803
 10
-112.8283334891
 20
31.8299749777
 10
-112.8798295084
 20
31.8727526191
 10
-112.931978056
 20
31.9125735687
 10
-112.9845514366
 20
31.9496444228
 10
-113.03727221
 20
31.9837585851
 10
-113.0886071017
 20
32.0142555302
  0
LWPOLYLINE
  5
313
100
AcDbEntity
  8
IMPORT_IGES
100
AcDbPolyline
 62
250
  6
CONTINUOUS
 90
16
 70
0
 10
-113.0886071017
 20
32.0142555302
 10
-113.1368028105
 20
32.0404018345
 10
-113.1834405565
 20
32.0629309217
 10
-113.2316459621
 20
32.0833825376
 10
-113.2822388389
 20
32.1021764131
 10
-113.3326693928
 20
32.1188928174
 10
-113.3807298072
 20
32.1338123044
 10
-113.4260950713
 20
32.1471473419
 10
-113.4677097428
 20
32.1586854621
 10
-113.5033158896
 20
32.1680698158
 10
-113.532503854
 20
32.1750043119
 10
-113.5560890653
 20
32.1797850416
 10
-113.5743341584
 20
32.1829434289
 10
-113.5873117284
 20
32.1846566151
 10
-113.5950345
 20
32.1847474588
 10
-113.5975870046
 20
32.1832159602
  0
LWPOLYLINE
  5
314
100
AcDbEntity
  8
IMPORT_IGES
100
AcDbPolyline
 62
250
  6
CONTINUOUS
 90
52
 70
0
 10
-113.5975870046
 20
32.3167840395
 10
-113.5948130842
 20
32.3152498535
 10
-113.5865641654
 20
32.315374628
 10
-113.5729636042
 20
32.3171583631
 10
-113.5542791222
 20
32.3204583334
 10
-113.5306023938
 20
32.3254172642
 10
-113.5015450131
 20
32.3324633318
 10
-113.4663064768
 20
32.3418422222
 10
-113.4253587896
 20
32.3533082494
 10
-113.3806085323
 20
32.3665525312
 10
-113.3330573678
 20
32.3811692303
 10
-113.2829116659
 20
32.397564184
 10
-113.2316742411
 20
32.4166460224
 10
-113.1814902189
 20
32.4379173941
 10
-113.1316283226
 20
32.4618756504
 10
-113.0788957258
 20
32.4909214752
 10
-113.020795505
 20
32.5264253846
 10
-112.9597341414
 20
32.5670168625
 10
-112.899825285
 20
32.6109850443
 10
-112.8424991142
 20
32.6579906439
 10
-112.7872269272
 20
32.7083729475
 10
-112.7356110938
 20
32.7614389486
 10
-112.6886697567
 20
32.8171990646
 10
-112.6460409977
 20
32.8756428782
 10
-112.6072202278
 20
32.936046131
 10
-112.572154804
 20
32.9985424974
 10
-112.5411919264
 20
33.0629983031
 10
-112.5143488966
 20
33.1282882666
 10
-112.4916240491
 20
33.1940317438
 10
-112.473163717
 20
33.2606093789
 10
-112.459177959
 20
33.328037823
 10
-112.4495988436
 20
33.396513858
 10
-112.4445509794
 20
33.465840702
 10
-112.4445168115
 20
33.5354446601
 10
-112.4498164645
 20
33.6055678126
 10
-112.4601163616
 20
33.6759680792
 10
-112.4749023736
 20
33.7453455249
 10
-112.494136496
 20
33.8135551432
 10
-112.5177685479
 20
33.8807419405
 10
-112.5452527547
 20
33.946041001
 10
-112.5765472398
 20
34.0096151759
 10
-112.6115142251
 20
34.071301614
 10
-112.6494552067
 20
34.1297468463
 10
-112.6899435096
 20
34.1843913029
 10
-112.7331295987
 20
34.2357945537
 10
-112.7791454223
 20
34.2842818391
 10
-112.8283336536
 20
34.3299751294
 10
-112.8798292947
 20
34.3727524542
 10
-112.9319774812
 20
34.4125731422
 10
-112.9845505162
 20
34.4496438069
 10
-113.0372709679
 20
34.4837578348
 10
-113.0886056458
 20
34.5142547146
  0
LINE
  5
315
100
AcDbEntity
  8
IMPORT_IGES
100
AcDbLine
 62
250
  6
CONTINUOUS
 10
-87.0975870046
 20
23.2
 11
-88.0975870046
 21
23.2
  0
LWPOLYLINE
  5
316
100
AcDbEntity
  8
IMPORT_IGES
100
AcDbPolyline
 62
250
  6
CONTINUOUS
 90
16
 70
0
 10
-113.0886056458
 20
34.5142547146
 10
-113.1368012648
 20
34.5404010461
 10
-113.1834390103
 20
34.5629302294
 10
-113.231644501
 20
34.5833819535
 10
-113.2822375623
 20
34.6021759402
 10
-113.3326683582
 20
34.6188924678
 10
-113.3807289972
 20
34.63381206
 10
-113.4260944518
 20
34.6471471726
 10
-113.4677092938
 20
34.65868535
 10
-113.5033155811
 20
34.6680697483
 10
-113.5325036572
 20
34.6750042767
 10
-113.5560889534
 20
34.6797850262
 10
-113.5743341037
 20
34.6829434263
 10
-113.5873117075
 20
34.6846566203
 10
-113.5950344956
 20
34.6847474649
 10
-113.5975870046
 20
34.6832159602
  0
LWPOLYLINE
  5
317
100
AcDbEntity
  8
IMPORT_IGES
100
AcDbPolyline
 62
250
  6
CONTINUOUS
 90
52
 70
0
 10
-113.5975870046
 20
34.8167840395
 10
-113.5948130842
 20
34.8152498535
 10
-113.5865641654
 20
34.815374628
 10
-113.5729636042
 20
34.8171583631
 10
-113.5542791222
 20
34.8204583333
 10
-113.5306023938
 20
34.8254172642
 10
-113.5015450131
 20
34.8324633318
 10
-113.4663064769
 20
34.8418422222
 10
-113.4253587897
 20
34.8533082494
 10
-113.3806085323
 20
34.8665525312
 10
-113.3330573678
 20
34.8811692303
 10
-113.2829116659
 20
34.897564184
 10
-113.2316742411
 20
34.9166460224
 10
-113.1814902189
 20
34.9379173941
 10
-113.1316283226
 20
34.9618756504
 10
-113.0788957259
 20
34.9909214752
 10
-113.0207955051
 20
35.0264253845
 10
-112.9597341416
 20
35.0670168624
 10
-112.8998252852
 20
35.1109850442
 10
-112.8424991144
 20
35.1579906438
 10
-112.7872269274
 20
35.2083729473
 10
-112.735611094
 20
35.2614389484
 10
-112.6886697569
 20
35.3171990643
 10
-112.6460409979
 20
35.3756428779
 10
-112.607220228
 20
35.4360461307
 10
-112.5721548041
 20
35.4985424971
 10
-112.5411919265
 20
35.5629983027
 10
-112.5143488967
 20
35.6282882662
 10
-112.4916240492
 20
35.6940317435
 10
-112.473163717
 20
35.7606093786
 10
-112.4591779591
 20
35.8280378226
 10
-112.4495988437
 20
35.8965138576
 10
-112.4445509794
 20
35.9658407016
 10
-112.4445168114
 20
36.0354446598
 10
-112.4498164645
 20
36.1055678122
 10
-112.4601163615
 20
36.1759680789
 10
-112.4749023735
 20
36.2453455246
 10
-112.4941364959
 20
36.3135551429
 10
-112.5177685478
 20
36.3807419402
 10
-112.5452527545
 20
36.4460410008
 10
-112.5765472397
 20
36.5096151756
 10
-112.6115142249
 20
36.5713016137
 10
-112.6494552065
 20
36.629746846
 10
-112.6899435094
 20
36.6843913027
 10
-112.7331295985
 20
36.7357945535
 10
-112.779145422
 20
36.7842818388
 10
-112.8283336533
 20
36.8299751291
 10
-112.8798292943
 20
36.8727524539
 10
-112.9319774807
 20
36.9125731419
 10
-112.9845505157
 20
36.9496438066
 10
-113.0372709675
 20
36.9837578345
 10
-113.0886056453
 20
37.0142547143
  0
LINE
  5
318
100
AcDbEntity
  8
IMPORT_IGES
100
AcDbLine
 62
250
  6
CONTINUOUS
 10
-88.0975870046
 20
26.2
 11
-87.0975870046
 21
26.2
  0
LWPOLYLINE
  5
319
100
AcDbEntity
  8
IMPORT_IGES
100
AcDbPolyline
 62
250
  6
CONTINUOUS
 90
16
 70
0
 10
-113.0886056453
 20
37.0142547143
 10
-113.1368012644
 20
37.0404010458
 10
-113.1834390099
 20
37.0629302292
 10
-113.2316445006
 20
37.0833819534
 10
-113.2822375619
 20
37.1021759401
 10
-113.3326683578
 20
37.1188924677
 10
-113.3807289968
 20
37.1338120599
 10
-113.4260944515
 20
37.1471471726
 10
-113.4677092935
 20
37.1586853499
 10
-113.5033155809
 20
37.1680697483
 10
-113.532503657
 20
37.1750042767
 10
-113.5560889534
 20
37.1797850262
 10
-113.5743341037
 20
37.1829434263
 10
-113.5873117075
 20
37.1846566203
 10
-113.5950344956
 20
37.1847474649
 10
-113.5975870046
 20
37.1832159602
  0
LINE
  5
31A
100
AcDbEntity
  8
IMPORT_IGES
100
AcDbLine
 62
7
  6
CONTINUOUS
 10
-101.0975870046
 20
28.9476348052
 11
-114.0975870046
 21
28.7207189611
  0
LINE
  5
31B
100
AcDbEntity
  8
IMPORT_IGES
100
AcDbLine
 62
7
  6
CONTINUOUS
 10
-87.0975870046
 20
30.04
 11
-88.0975870046
 21
30.04
  0
LINE
  5
31C
100
AcDbEntity
  8
IMPORT_IGES
100
AcDbLine
 62
7
  6
CONTINUOUS
 10
-94.5714084
 20
28.9384503235
 11
-100.0975870046
 21
29.0349101299
  0
LWPOLYLINE
  5
31D
100
AcDbEntity
  8
IMPORT_IGES
100
AcDbPolyline
 62
250
  6
CONTINUOUS
 90
9
 70
0
 10
-89.5714084405
 20
39.8511749996
 10
-89.5699313166
 20
39.8486121972
 10
-89.5685477347
 20
39.8409852672
 10
-89.5672623746
 20
39.8283200065
 10
-89.566079584
 20
39.810659254
 10
-89.5650033634
 20
39.7880627451
 10
-89.564037353
 20
39.7606069096
 10
-89.5631848202
 20
39.7283846136
 10
-89.5624486487
 20
39.6915048452
  0
LINE
  5
31E
100
AcDbEntity
  8
IMPORT_IGES
100
AcDbLine
 62
250
  6
CONTINUOUS
 10
-101.0975870046
 20
38.4478632625
 11
-112.1237577942
 21
38.2554007353
  0
LINE
  5
31F
100
AcDbEntity
  8
IMPORT_IGES
100
AcDbLine
 62
7
  6
CONTINUOUS
 10
-112.1237656143
 20
39.7551721417
 11
-101.0975870046
 21
39.9476348052
  0
LINE
  5
320
100
AcDbEntity
  8
IMPORT_IGES
100
AcDbLine
 62
250
  6
CONTINUOUS
 10
-113.5975870046
 20
38.2554005989
 11
-112.1237577942
 21
38.2554005989
  0
LINE
  5
321
100
AcDbEntity
  8
IMPORT_IGES
100
AcDbLine
 62
250
  6
CONTINUOUS
 10
-89.571408395
 20
38.351403456
 11
-88.0975870046
 21
38.351403456
  0
LWPOLYLINE
  5
322
100
AcDbEntity
  8
0
100
AcDbPolyline
 62
7
  6
CONTINUOUS
 90
7
 70
0
 43
0.3500000006
 10
-101.4547304993
 20
53.8343721313
 10
-102.954730957
 20
53.8343721313
 10
-101.4547304993
 20
55.9772260437
 10
-101.4547304993
 20
56.4058040771
 10
-101.883299469
 20
56.8343730469
 10
-102.5261619873
 20
56.8343730469
 10
-102.954730957
 20
56.1915105286
  0
LINE
  5
323
100
AcDbEntity
  8
IMPORT_IGES
100
AcDbLine
 62
250
  6
CONTINUOUS
 10
-89.571408395
 20
38.3514034561
 11
-100.0975870046
 21
38.5351385872
  0
LINE
  5
324
100
AcDbEntity
  8
IMPORT_IGES
100
AcDbLine
 62
7
  6
CONTINUOUS
 10
-101.0975870046
 20
38.8996191799
 11
-100.0975870046
 21
38.882164115
  0
LINE
  5
325
100
AcDbEntity
  8
IMPORT_IGES
100
AcDbLine
 62
7
  6
CONTINUOUS
 10
-100.0975870046
 20
40.0349101299
 11
-89.571408395
 21
39.8511749988
  0
CIRCLE
  5
326
100
AcDbEntity
  8
IMPORT_IGES
100
AcDbCircle
 62
7
  6
CONTINUOUS
 10
0.0
 20
-0.0
 40
10.0
  0
ARC
  5
327
100
AcDbEntity
  8
IMPORT_IGES
100
AcDbCircle
 62
7
  6
CONTINUOUS
 10
-112.0975870046
 20
-38.2554005989
 40
1.5
100
AcDbArc
 50
180.0
 51
268.9999999994
  0
ARC
  5
328
100
AcDbEntity
  8
IMPORT_IGES
100
AcDbCircle
 62
7
  6
CONTINUOUS
 10
-113.5975870046
 20
-36.0
 40
1.0
100
AcDbArc
 50
279.5940684564
 51
80.4059315447
  0
ARC
  5
329
100
AcDbEntity
  8
IMPORT_IGES
100
AcDbCircle
 62
7
  6
CONTINUOUS
 10
-113.5975870046
 20
-33.5
 40
1.0
100
AcDbArc
 50
279.5940684564
 51
80.4059315447
  0
ARC
  5
32A
100
AcDbEntity
  8
IMPORT_IGES
100
AcDbCircle
 62
7
  6
CONTINUOUS
 10
-113.5975870046
 20
-31.0
 40
1.0
100
AcDbArc
 50
279.5940684564
 51
80.4059315447
  0
ARC
  5
32B
100
AcDbEntity
  8
IMPORT_IGES
100
AcDbCircle
 62
7
  6
CONTINUOUS
 10
-113.3975870046
 20
-34.8167840434
 40
0.2
100
AcDbArc
 50
180.0
 51
260.4059329155
  0
ARC
  5
32C
100
AcDbEntity
  8
IMPORT_IGES
100
AcDbCircle
 62
7
  6
CONTINUOUS
 10
-113.3975870046
 20
-37.1832159566
 40
0.2
100
AcDbArc
 50
99.594067079
 51
180.0
  0
ARC
  5
32D
100
AcDbEntity
  8
IMPORT_IGES
100
AcDbCircle
 62
7
  6
CONTINUOUS
 10
-113.3975870046
 20
-34.6832159566
 40
0.2
100
AcDbArc
 50
99.594067079
 51
180.0
  0
ARC
  5
32E
100
AcDbEntity
  8
IMPORT_IGES
100
AcDbCircle
 62
7
  6
CONTINUOUS
 10
-113.3975870046
 20
-32.3167840434
 40
0.2
100
AcDbArc
 50
180.0
 51
260.4059329155
  0
ARC
  5
32F
100
AcDbEntity
  8
IMPORT_IGES
100
AcDbCircle
 62
7
  6
CONTINUOUS
 10
-113.3975870046
 20
-32.1832159566
 40
0.2
100
AcDbArc
 50
99.594067079
 51
180.0
  0
ARC
  5
330
100
AcDbEntity
  8
IMPORT_IGES
100
AcDbCircle
 62
7
  6
CONTINUOUS
 10
-113.3975870046
 20
-29.8167840434
 40
0.2
100
AcDbArc
 50
180.0
 51
260.4059329155
  0
ARC
  5
331
100
AcDbEntity
  8
IMPORT_IGES
100
AcDbCircle
 62
7
  6
CONTINUOUS
 10
-112.0975870046
 20
38.2554005989
 40
1.5
100
AcDbArc
 50
91.0000000006
 51
180.0
  0
ARC
  5
332
100
AcDbEntity
  8
IMPORT_IGES
100
AcDbCircle
 62
7
  6
CONTINUOUS
 10
-113.5975870046
 20
36.0
 40
1.0
100
AcDbArc
 50
279.5940684553
 51
80.4059315436
  0
ARC
  5
333
100
AcDbEntity
  8
IMPORT_IGES
100
AcDbCircle
 62
7
  6
CONTINUOUS
 10
-113.5975870046
 20
33.5
 40
1.0
100
AcDbArc
 50
279.5940684553
 51
80.4059315436
  0
ARC
  5
334
100
AcDbEntity
  8
IMPORT_IGES
100
AcDbCircle
 62
7
  6
CONTINUOUS
 10
-113.5975870046
 20
31.0
 40
1.0
100
AcDbArc
 50
279.5940684553
 51
80.4059315436
  0
ARC
  5
335
100
AcDbEntity
  8
IMPORT_IGES
100
AcDbCircle
 62
7
  6
CONTINUOUS
 10
-113.3975870046
 20
34.8167840434
 40
0.2
100
AcDbArc
 50
99.5940670845
 51
180.0
  0
ARC
  5
336
100
AcDbEntity
  8
IMPORT_IGES
100
AcDbCircle
 62
7
  6
CONTINUOUS
 10
-113.3975870046
 20
37.1832159566
 40
0.2
100
AcDbArc
 50
180.0
 51
260.4059329209
  0
ARC
  5
337
100
AcDbEntity
  8
IMPORT_IGES
100
AcDbCircle
 62
7
  6
CONTINUOUS
 10
-113.3975870046
 20
34.6832159566
 40
0.2
100
AcDbArc
 50
180.0
 51
260.4059329209
  0
ARC
  5
338
100
AcDbEntity
  8
IMPORT_IGES
100
AcDbCircle
 62
7
  6
CONTINUOUS
 10
-113.3975870046
 20
32.3167840434
 40
0.2
100
AcDbArc
 50
99.5940670845
 51
180.0
  0
ARC
  5
339
100
AcDbEntity
  8
IMPORT_IGES
100
AcDbCircle
 62
7
  6
CONTINUOUS
 10
-113.3975870046
 20
32.1832159566
 40
0.2
100
AcDbArc
 50
180.0
 51
260.405932921
  0
ARC
  5
33A
100
AcDbEntity
  8
IMPORT_IGES
100
AcDbCircle
 62
7
  6
CONTINUOUS
 10
-113.3975870046
 20
29.8167840434
 40
0.2
100
AcDbArc
 50
99.5940670845
 51
180.0
  0
ARC
  5
33B
100
AcDbEntity
  8
IMPORT_IGES
100
AcDbCircle
 62
7
  6
CONTINUOUS
 10
-94.5975870046
 20
-27.4386787807
 40
1.5
100
AcDbArc
 50
270.9994025564
 51
360.0
  0
ARC
  5
33C
100
AcDbEntity
  8
IMPORT_IGES
100
AcDbCircle
 62
7
  6
CONTINUOUS
 10
-89.5975870046
 20
-38.351403456
 40
1.5
100
AcDbArc
 50
271.0000000004
 51
360.0
  0
ARC
  5
33D
100
AcDbEntity
  8
IMPORT_IGES
100
AcDbCircle
 62
7
  6
CONTINUOUS
 10
-88.0975870046
 20
-32.0
 40
1.0
100
AcDbArc
 50
0.0
 51
90.0
  0
ARC
  5
33E
100
AcDbEntity
  8
IMPORT_IGES
100
AcDbCircle
 62
7
  6
CONTINUOUS
 10
-88.0975870046
 20
-34.0
 40
1.0
100
AcDbArc
 50
270.0
 51
360.0
  0
ARC
  5
33F
100
AcDbEntity
  8
IMPORT_IGES
100
AcDbCircle
 62
7
  6
CONTINUOUS
 10
-94.5975870046
 20
27.4386787807
 40
1.5
100
AcDbArc
 50
0.0005969362
 51
89.0
  0
ARC
  5
340
100
AcDbEntity
  8
IMPORT_IGES
100
AcDbCircle
 62
7
  6
CONTINUOUS
 10
-89.5975870046
 20
38.351403456
 40
1.5
100
AcDbArc
 50
0.0000000004
 51
89.0
  0
ARC
  5
341
100
AcDbEntity
  8
IMPORT_IGES
100
AcDbCircle
 62
7
  6
CONTINUOUS
 10
-88.0975870046
 20
34.0
 40
1.0
100
AcDbArc
 50
0.0
 51
90.0
  0
ARC
  5
342
100
AcDbEntity
  8
IMPORT_IGES
100
AcDbCircle
 62
7
  6
CONTINUOUS
 10
-88.0975870046
 20
32.0
 40
1.0
100
AcDbArc
 50
270.0
 51
360.0
  0
ELLIPSE
  5
343
100
AcDbEntity
  8
IMPORT_IGES
100
AcDbEllipse
 62
7
  6
CONTINUOUS
 10
-60.9474063132
 20
38.4474063132
 30
0.0
 11
1.0609832838
 21
-1.0609832838
 31
0.0
 40
0.9996954599
 41
2.3563445967
 42
3.9268385814
  0
ELLIPSE
  5
344
100
AcDbEntity
  8
IMPORT_IGES
100
AcDbEllipse
 62
7
  6
CONTINUOUS
 10
60.9474063132
 20
-38.4474063132
 30
0.0
 11
-1.0609832838
 21
1.0609832838
 31
0.0
 40
0.9996954599
 41
2.3563450311
 42
3.9268385699
  0
ELLIPSE
  5
345
100
AcDbEntity
  8
IMPORT_IGES
100
AcDbEllipse
 62
7
  6
CONTINUOUS
 10
-61.0346816378
 20
38.5346816378
 30
0.0
 11
1.0609832838
 21
-1.0609832838
 31
0.0
 40
0.9996954599
 41
2.3563445978
 42
3.926838579
  0
ELLIPSE
  5
346
100
AcDbEntity
  8
IMPORT_IGES
100
AcDbEllipse
 62
7
  6
CONTINUOUS
 10
61.0346816378
 20
38.5346816378
 30
0.0
 11
1.0609832838
 21
1.0609832838
 31
0.0
 40
0.9996954599
 41
-0.7852459164
 42
0.7852476225
  0
ELLIPSE
  5
347
100
AcDbEntity
  8
IMPORT_IGES
100
AcDbEllipse
 62
7
  6
CONTINUOUS
 10
61.0346816378
 20
-38.5346816378
 30
0.0
 11
-1.0609832838
 21
1.0609832838
 31
0.0
 40
0.9996954599
 41
-3.9268402781
 42
-2.3563467363
  0
ELLIPSE
  5
348
100
AcDbEntity
  8
IMPORT_IGES
100
AcDbEllipse
 62
7
  6
CONTINUOUS
 10
-61.0346816378
 20
-38.5346816378
 30
0.0
 11
1.0609832838
 21
1.0609832838
 31
0.0
 40
0.9996954599
 41
-3.9268385814
 42
-2.3563445966
  0
ELLIPSE
  5
349
100
AcDbEntity
  8
IMPORT_IGES
100
AcDbEllipse
 62
7
  6
CONTINUOUS
 10
-60.7554005989
 20
28.755629091
 30
0.0
 11
1.5
 21
-0.0
 31
0.0
 40
0.0174550649
 41
-3.1241445744
 42
-1.5707963372
  0
ELLIPSE
  5
34A
100
AcDbEntity
  8
IMPORT_IGES
100
AcDbEllipse
 62
7
  6
CONTINUOUS
 10
60.7554005989
 20
28.755629091
 30
0.0
 11
1.5
 21
0.0
 31
0.0
 40
0.0174550649
 41
-1.5707861834
 42
-0.0174480782
  0
ELLIPSE
  5
34B
100
AcDbEntity
  8
IMPORT_IGES
100
AcDbEllipse
 62
7
  6
CONTINUOUS
 10
61.2466730665
 20
28.7469015585
 30
0.0
 11
1.5
 21
-0.0
 31
0.0
 40
0.0174550649
 41
-1.5707899514
 42
-0.0174428654
  0
ELLIPSE
  5
34C
100
AcDbEntity
  8
IMPORT_IGES
100
AcDbEllipse
 62
7
  6
CONTINUOUS
 10
61.2466730665
 20
-28.7469015585
 30
0.0
 11
1.5
 21
0.0
 31
0.0
 40
0.0174550649
 41
0.0174428646
 42
1.5707845898
  0
ELLIPSE
  5
34D
100
AcDbEntity
  8
IMPORT_IGES
100
AcDbEllipse
 62
7
  6
CONTINUOUS
 10
-61.2466730665
 20
-28.7469015585
 30
0.0
 11
1.5
 21
-0.0
 31
0.0
 40
0.0174550649
 41
1.5708027023
 42
3.1241497891
  0
ELLIPSE
  5
34E
100
AcDbEntity
  8
IMPORT_IGES
100
AcDbEllipse
 62
7
  6
CONTINUOUS
 10
-61.2466730665
 20
28.7469015585
 30
0.0
 11
1.5
 21
0.0
 31
0.0
 40
0.0174550649
 41
-3.1241497882
 42
-1.5708027213
  0
ELLIPSE
  5
34F
100
AcDbEntity
  8
IMPORT_IGES
100
AcDbEllipse
 62
7
  6
CONTINUOUS
 10
60.7554005989
 20
-28.755629091
 30
0.0
 11
1.5
 21
0.0
 31
0.0
 40
0.0174550649
 41
0.0174480791
 42
1.5707963164
  0
ELLIPSE
  5
350
100
AcDbEntity
  8
IMPORT_IGES
100
AcDbEllipse
 62
7
  6
CONTINUOUS
 10
-60.7554005989
 20
-28.755629091
 30
0.0
 11
1.5
 21
0.0
 31
0.0
 40
0.0174550649
 41
1.5707963477
 42
3.1241445754
  0
ENDSEC
  0
SECTION
  2
OBJECTS
  0
DICTIONARY
  5
C
100
AcDbDictionary
280
0
281
1
  3
ACAD_GROUP
350
D
  3
ACAD_MLINESTYLE
350
17
  3
ACAD_LAYOUT
350
1A
  3
ACAD_PLOTSETTINGS
350
19
  3
ACAD_PLOTSTYLENAME
350
E
  0
DICTIONARY
  5
D
102
{ACAD_REACTORS
330
C
102
}
100
AcDbDictionary
280
0
281
1
  0
ACDBDICTIONARYWDFLT
  5
E
102
{ACAD_REACTORS
330
C
102
}
100
AcDbDictionary
281
1
  3
Normal
350
F
100
AcDbDictionaryWithDefault
340
F
  0
DICTIONARY
  5
17
102
{ACAD_REACTORS
330
C
102
}
100
AcDbDictionary
280
0
281
1
  3
Standard
350
18
  0
DICTIONARY
  5
19
102
{ACAD_REACTORS
330
C
102
}
100
AcDbDictionary
281
1
  0
DICTIONARY
  5
1A
102
{ACAD_REACTORS
330
C
102
}
100
AcDbDictionary
281
1
  3
Model
350
351
  3
Layout1
350
352
  0
ACDBPLACEHOLDER
  5
F
102
{ACAD_REACTORS
330
E
102
}
  0
MLINESTYLE
  5
18
102
{ACAD_REACTORS
330
17
102
}
100
AcDbMlineStyle
  2
STANDARD
 70
0
  3

 62
256
 51
90.0
 52
90.0
 71
2
 49
0.5
 62
256
  6
BYLAYER
 49
-0.5
 62
256
  6
BYLAYER
  0
LAYOUT
  5
351
102
{ACAD_REACTORS
330
1A
102
}
100
AcDbPlotSettings
  1

  2
none_device
  4
ISO_A4_(297.00_x_210.00_MM)
  6

 40
0.0
 41
0.0
 42
0.0
 43
0.0
 44
297.0
 45
210.0
 46
0.0
 47
0.0
 48
0.0
 49
0.0
140
0.0
141
0.0
142
1.0
143
1.0
 70
1024
 72
1
 73
0
 74
0
  7

 75
0
147
1.0
148
0.0
149
0.0
100
AcDbLayout
  1
Model
 70
0
 71
0
 10
0.0
 20
0.0
 11
297.0
 21
210.0
 12
0.0
 22
0.0
 32
0.0
 14
0.0
 24
0.0
 34
0.0
 15
0.0
 25
0.0
 35
0.0
146
0.0
 13
0.0
 23
0.0
 33
0.0
 16
1.0
 26
0.0
 36
0.0
 17
0.0
 27
1.0
 37
0.0
 76
0
330
20E
345
0
346
0
  0
LAYOUT
  5
352
102
{ACAD_REACTORS
330
1A
102
}
100
AcDbPlotSettings
  1

  2
none_device
  4
ISO_A4_(297.00_x_210.00_MM)
  6

 40
0.0
 41
0.0
 42
0.0
 43
0.0
 44
297.0
 45
210.0
 46
0.0
 47
0.0
 48
0.0
 49
0.0
140
0.0
141
0.0
142
1.0
143
1.0
 70
0
 72
1
 73
0
 74
0
  7

 75
0
147
1.0
148
0.0
149
0.0
100
AcDbLayout
  1
Layout1
 70
0
 71
1
 10
0.0
 20
0.0
 11
297.0
 21
210.0
 12
0.0
 22
0.0
 32
0.0
 14
0.0
 24
0.0
 34
0.0
 15
0.0
 25
0.0
 35
0.0
146
0.0
 13
0.0
 23
0.0
 33
0.0
 16
1.0
 26
0.0
 36
0.0
 17
0.0
 27
1.0
 37
0.0
 76
0
330
20F
345
0
346
0
  0
ENDSEC
  0
EOF
