  0
SECTION
  2
HEADER
  9
$ACADVER
  1
AC1024
  9
$DWGCODEPAGE
  3
ANSI_1252
  9
$EXTMAX
 10
297.0
 20
210.0
 30
0.0
  9
$EXTMIN
 10
0.0
 20
0.0
 30
0.0
  9
$LIMMIN
 10
0.0
 20
0.0
  9
$LIMMAX
 10
297.0
 20
210.0
  9
$VIEWCTR
 10
148.5
 20
105.0
  9
$VIEWSIZE
 40
210.0
  9
$CLAYER
  8
0
  9
$LTSCALE
 40
16.335
  9
$CELTYPE
  6
BYLAYER
  9
$DIMSCALE
 40
1.0
  9
$DIMASZ
 40
3.0
  9
$DIMEXO
 40
0.5
  9
$DIMDLI
 40
11.286
  9
$DIMEXE
 40
1.5
  9
$DIMCEN
 40
2.673
  9
$DIMLFAC
 40
1.0
  9
$DIMBLK
  1
_FILLED
  9
$DIMALT
 70
0
  9
$DIMALTF
 40
0.0393700787
  9
$DIMTXT
 40
3.0
  9
$DIMTOL
 70
1
  9
$DIMLIM
 70
0
  9
$DIMTFAC
 40
1.0
  9
$DIMTP
 40
0.01
  9
$DIMTM
 40
0.01
  9
$DIMGAP
 40
0.625
  9
$DIMDSEP
 70
44
  9
$AUNITS
 70
0
  9
$PDMODE
 70
3
  9
$PDSIZE
 40
3.0
  9
$HANDSEED
  5
3D1
  9
$TILEMODE
 70
1
  9
$MEASUREMENT
 70
1
  9
$INSUNITS
 70
4
  0
ENDSEC
  0
SECTION
  2
CLASSES
  0
CLASS
  1
ACDBDICTIONARYWDFLT
  2
AcDbDictionaryWithDefault
  3
AutoCAD 2000
 90
0
 91
1
280
0
281
0
  0
CLASS
  1
ACDBPLACEHOLDER
  2
AcDbPlaceHolder
  3
AutoCAD 2000
 90
0
 91
1
280
0
281
0
  0
CLASS
  1
LAYOUT
  2
AcDbLayout
  3
AutoCAD 2000
 90
0
 91
0
280
0
281
0
  0
ENDSEC
  0
SECTION
  2
TABLES
  0
TABLE
  2
VPORT
  5
8
100
AcDbSymbolTable
 70
2
  0
VPORT
  5
1F4
100
AcDbSymbolTableRecord
100
AcDbViewportTableRecord
  2
*ACTIVE
 70
0
 10
0.0
 20
0.0
 11
1.0
 21
1.0
 12
148.5
 22
105.0
 13
0.0
 23
0.0
 14
1.0
 24
1.0
 15
0.0
 25
0.0
 16
0.0
 26
0.0
 36
1.0
 17
0.0
 27
0.0
 37
0.0
 40
210.0
 41
1.4142857143
 42
50.0
 43
0.0
 44
0.0
 50
0.0
 51
0.0
 71
0
 72
100
 73
1
 74
1
 75
0
 76
0
 77
0
 78
0
  0
ENDTAB
  0
TABLE
  2
LTYPE
  5
5
100
AcDbSymbolTable
 70
6
  0
LTYPE
  5
14
100
AcDbSymbolTableRecord
100
AcDbLinetypeTableRecord
  2
BYBLOCK
 70
0
  3

 72
65
 73
0
 40
0.0
  0
LTYPE
  5
15
100
AcDbSymbolTableRecord
100
AcDbLinetypeTableRecord
  2
BYLAYER
 70
0
  3

 72
65
 73
0
 40
0.0
  0
LTYPE
  5
16
100
AcDbSymbolTableRecord
100
AcDbLinetypeTableRecord
  2
CONTINUOUS
 70
64
  3
Solid line
 72
65
 73
0
 40
0.0
  0
LTYPE
  5
1F5
100
AcDbSymbolTableRecord
100
AcDbLinetypeTableRecord
  2
CENTER
 70
64
  3
____ _ ____ _ ____ _ ____ _ ____ _ ____ _ ____
 72
65
 73
4
 40
0.6
 49
0.375
 74
0
 49
-0.075
 74
0
 49
0.075
 74
0
 49
-0.075
 74
0
  0
LTYPE
  5
1F6
100
AcDbSymbolTableRecord
100
AcDbLinetypeTableRecord
  2
HIDDEN
 70
64
  3
- - - - - - - - - - - - - - - - - - - -
 72
65
 73
2
 40
0.2
 49
0.1
 74
0
 49
-0.1
 74
0
  0
LTYPE
  5
1F7
100
AcDbSymbolTableRecord
100
AcDbLinetypeTableRecord
  2
PHANTOM
 70
64
  3
_____ _ _ _____ _ _ _____ _ _ _____
 72
65
 73
6
 40
0.8
 49
0.45
 74
0
 49
-0.05
 74
0
 49
0.1
 74
0
 49
-0.05
 74
0
 49
0.1
 74
0
 49
-0.05
 74
0
  0
LTYPE
  5
1F8
100
AcDbSymbolTableRecord
100
AcDbLinetypeTableRecord
  2
DOT
 70
64
  3
. . . . . . . . . . . . . . . . . . . .
 72
65
 73
2
 40
0.2
 49
0.1
 74
0
 49
-0.1
 74
0
  0
LTYPE
  5
1F9
100
AcDbSymbolTableRecord
100
AcDbLinetypeTableRecord
  2
DASHED
 70
64
  3
- - - - - - - - - - - - - - - - - - - -
 72
65
 73
2
 40
0.2
 49
0.1
 74
0
 49
-0.1
 74
0
  0
ENDTAB
  0
TABLE
  2
LAYER
  5
2
100
AcDbSymbolTable
 70
36
  0
LAYER
  5
10
100
AcDbSymbolTableRecord
100
AcDbLayerTableRecord
  2
0
 70
0
 62
7
  6
CONTINUOUS
370
-3
390
F
  0
LAYER
  5
1FA
100
AcDbSymbolTableRecord
100
AcDbLayerTableRecord
  2
DEFAULT_1
 70
0
 62
7
  6
CENTER
370
-3
390
F
  0
LAYER
  5
1FB
100
AcDbSymbolTableRecord
100
AcDbLayerTableRecord
  2
DEFAULT_2
 70
0
 62
7
  6
HIDDEN
370
-3
390
F
  0
LAYER
  5
1FC
100
AcDbSymbolTableRecord
100
AcDbLayerTableRecord
  2
DEFAULT_3
 70
0
 62
7
  6
PHANTOM
370
-3
390
F
  0
LAYER
  5
1FD
100
AcDbSymbolTableRecord
100
AcDbLayerTableRecord
  2
ASSI
 70
0
 62
7
  6
CONTINUOUS
370
-3
390
F
  0
LAYER
  5
1FE
100
AcDbSymbolTableRecord
100
AcDbLayerTableRecord
  2
COORDINATE
 70
0
 62
7
  6
CONTINUOUS
370
-3
390
F
  0
LAYER
  5
1FF
100
AcDbSymbolTableRecord
100
AcDbLayerTableRecord
  2
COPY_PUBLISH
 70
0
 62
7
  6
CONTINUOUS
370
-3
390
F
  0
LAYER
  5
200
100
AcDbSymbolTableRecord
100
AcDbLayerTableRecord
  2
COSMETICI
 70
0
 62
7
  6
CONTINUOUS
370
-3
390
F
  0
LAYER
  5
201
100
AcDbSymbolTableRecord
100
AcDbLayerTableRecord
  2
CURVE
 70
0
 62
7
  6
CONTINUOUS
370
-3
390
F
  0
LAYER
  5
202
100
AcDbSymbolTableRecord
100
AcDbLayerTableRecord
  2
DRAFT
 70
0
 62
7
  6
CONTINUOUS
370
-3
390
F
  0
LAYER
  5
203
100
AcDbSymbolTableRecord
100
AcDbLayerTableRecord
  2
IMPORT_IGES
 70
0
 62
7
  6
CONTINUOUS
370
-3
390
F
  0
LAYER
  5
204
100
AcDbSymbolTableRecord
100
AcDbLayerTableRecord
  2
NOTE
 70
0
 62
7
  6
CONTINUOUS
370
-3
390
F
  0
LAYER
  5
205
100
AcDbSymbolTableRecord
100
AcDbLayerTableRecord
  2
PIANI
 70
0
 62
7
  6
CONTINUOUS
370
-3
390
F
  0
LAYER
  5
206
100
AcDbSymbolTableRecord
100
AcDbLayerTableRecord
  2
PUNTI
 70
0
 62
7
  6
CONTINUOUS
370
-3
390
F
  0
LAYER
  5
207
100
AcDbSymbolTableRecord
100
AcDbLayerTableRecord
  2
RACCORDO
 70
0
 62
7
  6
CONTINUOUS
370
-3
390
F
  0
LAYER
  5
208
100
AcDbSymbolTableRecord
100
AcDbLayerTableRecord
  2
SIMBOLI
 70
0
 62
7
  6
CONTINUOUS
370
-3
390
F
  0
LAYER
  5
209
100
AcDbSymbolTableRecord
100
AcDbLayerTableRecord
  2
SMUSSO
 70
0
 62
7
  6
CONTINUOUS
370
-3
390
F
  0
LAYER
  5
20A
100
AcDbSymbolTableRecord
100
AcDbLayerTableRecord
  2
SUPERFICI
 70
0
 62
7
  6
CONTINUOUS
370
-3
390
F
  0
LAYER
  5
20B
100
AcDbSymbolTableRecord
100
AcDbLayerTableRecord
  2
TRASH
 70
0
 62
7
  6
CONTINUOUS
370
-3
390
F
  0
ENDTAB
  0
TABLE
  2
STYLE
  5
3
100
AcDbSymbolTable
 70
1
  0
STYLE
  5
11
100
AcDbSymbolTableRecord
100
AcDbTextStyleTableRecord
  2
STANDARD
 70
0
 40
0.0
 41
0.8
 50
0.0
 71
0
 42
0.2
  3
txt
  4

  0
STYLE
  5
20C
100
AcDbSymbolTableRecord
100
AcDbTextStyleTableRecord
  2
TEXTSTYLE_1
 70
0
 40
0.0
 41
0.8
 50
0.0
 71
0
 42
0.2
  3
gdt
  4

  0
ENDTAB
  0
TABLE
  2
VIEW
  5
6
100
AcDbSymbolTable
 70
0
  0
ENDTAB
  0
TABLE
  2
UCS
  5
7
100
AcDbSymbolTable
 70
0
  0
ENDTAB
  0
TABLE
  2
APPID
  5
9
100
AcDbSymbolTable
 70
1
  0
APPID
  5
20D
100
AcDbSymbolTableRecord
100
AcDbRegAppTableRecord
  2
ACAD
 70
0
  0
ENDTAB
  0
TABLE
  2
BLOCK_RECORD
  5
1
100
AcDbSymbolTable
 70
0
  0
BLOCK_RECORD
  5
20E
100
AcDbSymbolTableRecord
100
AcDbBlockTableRecord
  2
*Model_Space
  0
BLOCK_RECORD
  5
20F
100
AcDbSymbolTableRecord
100
AcDbBlockTableRecord
  2
*Paper_Space
  0
BLOCK_RECORD
  5
210
100
AcDbSymbolTableRecord
100
AcDbBlockTableRecord
  2
_FILLED
  0
BLOCK_RECORD
  5
211
100
AcDbSymbolTableRecord
100
AcDbBlockTableRecord
  2
*D0
  0
BLOCK_RECORD
  5
212
100
AcDbSymbolTableRecord
100
AcDbBlockTableRecord
  2
*D1
  0
BLOCK_RECORD
  5
213
100
AcDbSymbolTableRecord
100
AcDbBlockTableRecord
  2
*D2
  0
ENDTAB
  0
TABLE
  2
DIMSTYLE
  5
A
100
AcDbSymbolTable
 70
1
100
AcDbDimStyleTable
 71
0
  0
DIMSTYLE
105
214
100
AcDbSymbolTableRecord
100
AcDbDimStyleTableRecord
  2
STANDARD
 70
0
  3

  4

 40
1.0
 41
3.0
 42
0.5
 43
0.38
 44
1.5
 45
0.0
 46
0.0
 47
0.01
 48
0.01
140
3.0
141
0.09
142
0.0
143
25.4
144
1.0
145
0.0
146
1.0
147
0.625
 71
1
 72
0
 73
0
 74
0
 75
0
 76
0
 77
1
 78
8
 79
2
170
0
171
1
172
0
173
0
174
0
175
0
176
0
177
0
178
0
270
2
179
2
271
2
272
2
273
2
274
2
275
0
280
0
281
0
282
0
283
1
284
8
285
0
286
0
287
3
288
0
340
11
278
44
341
210
342
210
343
210
344
210
  0
DIMSTYLE
105
215
100
AcDbSymbolTableRecord
100
AcDbDimStyleTableRecord
  2
DIMSTYLE_1
 70
0
  3

  4

 40
1.0
 41
3.0
 42
0.5
 43
0.38
 44
1.5
 45
0.0
 46
0.0
 47
0.0
 48
0.0
140
3.0
141
0.09
142
0.0
143
25.4
144
1.0
145
0.0
146
1.0
147
0.75
 71
0
 72
0
 73
0
 74
0
 75
0
 76
0
 77
1
 78
8
 79
2
170
0
171
1
172
0
173
0
174
0
175
0
176
0
177
0
178
0
270
2
179
2
271
1
272
1
273
2
274
2
275
0
280
0
281
0
282
0
283
1
284
8
285
0
286
0
287
3
288
0
340
11
278
44
341
210
342
210
343
210
344
210
  0
ENDTAB
  0
ENDSEC
  0
SECTION
  2
BLOCKS
  0
BLOCK
  5
20
100
AcDbEntity
  8
0
100
AcDbBlockBegin
  2
*Model_Space
 70
0
 10
0.0
 20
0.0
 30
0.0
  3
*Model_Space
  1

  0
ENDBLK
  5
21
100
AcDbEntity
  8
0
100
AcDbBlockEnd
  0
BLOCK
  5
1C
100
AcDbEntity
  8
0
100
AcDbBlockBegin
  2
*Paper_Space
 70
0
 10
0.0
 20
0.0
 30
0.0
  3
*Paper_Space
  1

  0
ENDBLK
  5
1D
100
AcDbEntity
  8
0
100
AcDbBlockEnd
  0
BLOCK
  5
216
100
AcDbEntity
  8
0
100
AcDbBlockBegin
  2
_FILLED
 70
64
 10
0.0
 20
0.0
  3
_FILLED
  1

  0
SOLID
  5
217
100
AcDbEntity
  8
0
  6
BYBLOCK
 62
0
100
AcDbTrace
 10
0.0
 20
0.0
 11
-1.0
 21
0.3166666667
 12
-1.0
 22
-0.3166666667
 13
-1.0
 23
-0.3166666667
  0
ENDBLK
  5
218
100
AcDbEntity
  8
0
  6
BYBLOCK
 62
0
100
AcDbBlockEnd
  0
BLOCK
  5
219
100
AcDbEntity
  8
0
100
AcDbBlockBegin
 62
7
  6
CONTINUOUS
  2
*D0
 70
65
 10
0.0
 20
0.0
  3
*D0
  1

  0
LINE
  5
21A
100
AcDbEntity
  8
0
100
AcDbLine
 62
7
  6
CONTINUOUS
 10
-85.6622414243
 20
29.4472039333
 11
-85.6622414243
 21
53.8729920119
  0
LINE
  5
21B
100
AcDbEntity
  8
0
100
AcDbLine
 62
7
  6
CONTINUOUS
 10
85.6622414243
 20
29.5290432892
 11
85.6622414243
 21
53.8729920119
  0
LINE
  5
21C
100
AcDbEntity
  8
0
100
AcDbLine
 62
7
  6
CONTINUOUS
 10
-85.6622414243
 20
52.3729920119
 11
-0.0
 21
52.3729920119
  0
LINE
  5
21D
100
AcDbEntity
  8
0
100
AcDbLine
 62
7
  6
CONTINUOUS
 10
85.6622414243
 20
52.3729920119
 11
-0.0
 21
52.3729920119
  0
INSERT
  5
21E
100
AcDbEntity
  8
0
100
AcDbBlockReference
 62
7
  6
CONTINUOUS
  2
_FILLED
 10
-85.6622414243
 20
52.3729920119
 41
3.0
 42
3.0
 43
3.0
 50
180.0
  0
INSERT
  5
21F
100
AcDbEntity
  8
0
100
AcDbBlockReference
 62
7
  6
CONTINUOUS
  2
_FILLED
 10
85.6622414243
 20
52.3729920119
 41
3.0
 42
3.0
 43
3.0
  0
ENDBLK
  5
220
100
AcDbEntity
  8
0
  6
BYBLOCK
 62
0
100
AcDbBlockEnd
  0
BLOCK
  5
221
100
AcDbEntity
  8
0
100
AcDbBlockBegin
 62
7
  6
CONTINUOUS
  2
*D1
 70
65
 10
0.0
 20
0.0
  3
*D1
  1

  0
LINE
  5
222
100
AcDbEntity
  8
0
100
AcDbLine
 62
7
  6
CONTINUOUS
 10
84.1623937175
 20
40.0349101299
 11
99.0632465254
 21
40.0349101299
  0
LINE
  5
223
100
AcDbEntity
  8
0
100
AcDbLine
 62
7
  6
CONTINUOUS
 10
84.1623937175
 20
-40.0349101299
 11
99.0632465254
 21
-40.0349101299
  0
LINE
  5
224
100
AcDbEntity
  8
0
100
AcDbLine
 62
7
  6
CONTINUOUS
 10
97.5632465254
 20
40.0349101299
 11
97.5632465254
 21
-0.0
  0
LINE
  5
225
100
AcDbEntity
  8
0
100
AcDbLine
 62
7
  6
CONTINUOUS
 10
97.5632465254
 20
-40.0349101299
 11
97.5632465254
 21
-0.0
  0
INSERT
  5
226
100
AcDbEntity
  8
0
100
AcDbBlockReference
 62
7
  6
CONTINUOUS
  2
_FILLED
 10
97.5632465254
 20
40.0349101299
 41
3.0
 42
3.0
 43
3.0
 50
90.0
  0
INSERT
  5
227
100
AcDbEntity
  8
0
100
AcDbBlockReference
 62
7
  6
CONTINUOUS
  2
_FILLED
 10
97.5632465254
 20
-40.0349101299
 41
3.0
 42
3.0
 43
3.0
 50
270.0
  0
ENDBLK
  5
228
100
AcDbEntity
  8
0
  6
BYBLOCK
 62
0
100
AcDbBlockEnd
  0
BLOCK
  5
229
100
AcDbEntity
  8
0
100
AcDbBlockBegin
 62
7
  6
CONTINUOUS
  2
*D2
 70
65
 10
0.0
 20
0.0
  3
*D2
  1

  0
LINE
  5
22A
100
AcDbEntity
  8
0
100
AcDbLine
 62
7
  6
CONTINUOUS
 10
-128.1385489863
 20
29.2206377593
 11
-128.1385489863
 21
54.3146374317
  0
LINE
  5
22B
100
AcDbEntity
  8
0
100
AcDbLine
 62
7
  6
CONTINUOUS
 10
-100.6551457802
 20
35.5
 11
-100.6551457802
 21
54.3146374317
  0
LINE
  5
22C
100
AcDbEntity
  8
0
100
AcDbLine
 62
7
  6
CONTINUOUS
 10
-128.1385489863
 20
52.8146374317
 11
-114.3968473833
 21
52.8146374317
  0
LINE
  5
22D
100
AcDbEntity
  8
0
100
AcDbLine
 62
7
  6
CONTINUOUS
 10
-100.6551457802
 20
52.8146374317
 11
-114.3968473833
 21
52.8146374317
  0
INSERT
  5
22E
100
AcDbEntity
  8
0
100
AcDbBlockReference
 62
7
  6
CONTINUOUS
  2
_FILLED
 10
-128.1385489863
 20
52.8146374317
 41
3.0
 42
3.0
 43
3.0
 50
180.0
  0
INSERT
  5
22F
100
AcDbEntity
  8
0
100
AcDbBlockReference
 62
7
  6
CONTINUOUS
  2
_FILLED
 10
-100.6551457802
 20
52.8146374317
 41
3.0
 42
3.0
 43
3.0
  0
ENDBLK
  5
230
100
AcDbEntity
  8
0
  6
BYBLOCK
 62
0
100
AcDbBlockEnd
  0
ENDSEC
  0
SECTION
  2
ENTITIES
  0
DIMENSION
  5
231
100
AcDbEntity
  8
0
100
AcDbDimension
 62
7
  6
CONTINUOUS
  2
*D0
 10
85.6622414243
 20
52.3729920119
 11
-4.8214285714
 21
52.3729920119
 70
160
 71
2
 72
2
 41
0.9
 42
171.3244828486
  3
DIMSTYLE_1
100
AcDbAlignedDimension
 13
-85.6622414243
 23
28.9472039333
 14
85.6622414243
 24
29.0290432892
100
AcDbRotatedDimension
  0
DIMENSION
  5
232
100
AcDbEntity
  8
0
100
AcDbDimension
 62
7
  6
CONTINUOUS
  2
*D1
 10
97.5632465254
 20
-40.0349101299
 11
97.5632465254
 21
-4.0714285714
 70
160
 71
2
 72
2
 41
0.9
 42
80.0698202597
  3
DIMSTYLE_1
100
AcDbAlignedDimension
 13
83.6623937175
 23
40.0349101299
 14
83.6623937175
 24
-40.0349101299
 50
270.0
100
AcDbRotatedDimension
  0
DIMENSION
  5
233
100
AcDbEntity
  8
0
100
AcDbDimension
 62
7
  6
CONTINUOUS
  2
*D2
 10
-100.6551457802
 20
52.8146374317
 11
-118.682561669
 21
52.8146374317
 70
160
 71
2
 72
2
 41
0.9
 42
27.483403206
  3
DIMSTYLE_1
100
AcDbAlignedDimension
 13
-128.1385489863
 23
28.7206377593
 14
-100.6551457802
 24
35.0
100
AcDbRotatedDimension
  0
LWPOLYLINE
  5
234
100
AcDbEntity
  8
IMPORT_IGES
100
AcDbPolyline
 62
250
  6
CONTINUOUS
 90
4
 70
0
 10
-83.4938009098
 20
-39.7552533436
 10
-83.4940287158
 20
-39.751888497
 10
-83.4942557052
 20
-39.7445127225
 10
-83.4944812696
 20
-39.7331457901
  0
LWPOLYLINE
  5
235
100
AcDbEntity
  8
IMPORT_IGES
100
AcDbPolyline
 62
250
  6
CONTINUOUS
 90
31
 70
0
 10
-84.9935659875
 20
-38.2554818008
 10
-84.9914914274
 20
-38.3339584565
 10
-84.9853131928
 20
-38.4122201188
 10
-84.9750482078
 20
-38.4900523614
 10
-84.9607245934
 20
-38.5672419357
 10
-84.942381591
 20
-38.6435773506
 10
-84.9200694565
 20
-38.7188494516
 10
-84.8938493195
 20
-38.7928520024
 10
-84.8637930172
 20
-38.8653822449
 10
-84.8299829002
 20
-38.9362414499
 10
-84.7925116021
 20
-39.0052354718
 10
-84.7514817879
 20
-39.0721752749
 10
-84.7070058758
 20
-39.1368774473
 10
-84.6592057234
 20
-39.199164713
 10
-84.6082122962
 20
-39.2588664122
 10
-84.5541653132
 20
-39.3158189653
 10
-84.4972128562
 20
-39.3698663294
 10
-84.4375109676
 20
-39.4208604218
 10
-84.3752232278
 20
-39.4686615218
 10
-84.3105202976
 20
-39.5131386612
 10
-84.2435794554
 20
-39.554169979
 10
-84.1745841158
 20
-39.591643053
 10
-84.1037233181
 20
-39.6254552134
 10
-84.0311912123
 20
-39.6555138208
 10
-83.9571865328
 20
-39.6817365187
 10
-83.8819120434
 20
-39.7040514626
 10
-83.8055739871
 20
-39.7223975152
 10
-83.7283815253
 20
-39.7367244125
 10
-83.6505461575
 20
-39.746992904
 10
-83.5722811404
 20
-39.7531748591
 10
-83.4938009098
 20
-39.7552533436
  0
LINE
  5
236
100
AcDbEntity
  8
IMPORT_IGES
100
AcDbLine
 62
250
  6
CONTINUOUS
 10
-83.4976389772
 20
-30.014067328
 11
-83.4976958777
 21
-30.010111926
  0
LINE
  5
237
100
AcDbEntity
  8
IMPORT_IGES
100
AcDbLine
 62
250
  6
CONTINUOUS
 10
-83.4944812696
 20
-39.7331457901
 11
-83.4949257102
 21
-39.6985709375
  0
LINE
  5
238
100
AcDbEntity
  8
IMPORT_IGES
100
AcDbLine
 62
250
  6
CONTINUOUS
 10
-83.4976389667
 20
-35.0140679054
 11
-83.4977452044
 21
-35.0043955158
  0
LINE
  5
239
100
AcDbEntity
  8
IMPORT_IGES
100
AcDbLine
 62
250
  6
CONTINUOUS
 10
-83.4976389667
 20
-32.5140679054
 11
-83.4977452044
 21
-32.5043955158
  0
LINE
  5
23A
100
AcDbEntity
  8
IMPORT_IGES
100
AcDbLine
 62
250
  6
CONTINUOUS
 10
-83.4976389667
 20
31.9859320946
 11
-83.4977452044
 21
31.9956044842
  0
LINE
  5
23B
100
AcDbEntity
  8
IMPORT_IGES
100
AcDbLine
 62
250
  6
CONTINUOUS
 10
-83.4976389667
 20
34.4859320946
 11
-83.4977452044
 21
34.4956044842
  0
LINE
  5
23C
100
AcDbEntity
  8
IMPORT_IGES
100
AcDbLine
 62
250
  6
CONTINUOUS
 10
-83.4976389667
 20
36.9859320946
 11
-83.4977452044
 21
36.9956044842
  0
LINE
  5
23D
100
AcDbEntity
  8
IMPORT_IGES
100
AcDbLine
 62
250
  6
CONTINUOUS
 10
-83.4976958777
 20
-30.010111926
 11
-83.4978516968
 21
-29.988345792
  0
LINE
  5
23E
100
AcDbEntity
  8
IMPORT_IGES
100
AcDbLine
 62
250
  6
CONTINUOUS
 10
-83.4949257102
 20
-39.6985709375
 11
-83.4959704186
 21
-39.5457055227
  0
LINE
  5
23F
100
AcDbEntity
  8
IMPORT_IGES
100
AcDbLine
 62
250
  6
CONTINUOUS
 10
-83.4977452044
 20
-35.0043955158
 11
-83.4979673455
 21
-34.954434092
  0
LINE
  5
240
100
AcDbEntity
  8
IMPORT_IGES
100
AcDbLine
 62
250
  6
CONTINUOUS
 10
-83.4977452044
 20
-32.5043955158
 11
-83.4979673455
 21
-32.454434092
  0
LINE
  5
241
100
AcDbEntity
  8
IMPORT_IGES
100
AcDbLine
 62
250
  6
CONTINUOUS
 10
-83.4977452044
 20
31.9956044842
 11
-83.4979673455
 21
32.045565908
  0
LINE
  5
242
100
AcDbEntity
  8
IMPORT_IGES
100
AcDbLine
 62
250
  6
CONTINUOUS
 10
-83.4977452044
 20
34.4956044842
 11
-83.4979673455
 21
34.545565908
  0
LINE
  5
243
100
AcDbEntity
  8
IMPORT_IGES
100
AcDbLine
 62
250
  6
CONTINUOUS
 10
-83.4977452044
 20
36.9956044842
 11
-83.4979673455
 21
37.045565908
  0
LINE
  5
244
100
AcDbEntity
  8
IMPORT_IGES
100
AcDbLine
 62
250
  6
CONTINUOUS
 10
-83.4959704186
 20
-39.5457055227
 11
-83.4980753038
 21
-38.4875473803
  0
LINE
  5
245
100
AcDbEntity
  8
IMPORT_IGES
100
AcDbLine
 62
250
  6
CONTINUOUS
 10
-83.4978516968
 20
-29.988345792
 11
-83.4981438992
 21
-29.8168757414
  0
LINE
  5
246
100
AcDbEntity
  8
IMPORT_IGES
100
AcDbLine
 62
7
  6
CONTINUOUS
 10
-85.6622414243
 20
28.9472039333
 11
-85.6622414243
 21
-28.9473663371
  0
LINE
  5
247
100
AcDbEntity
  8
IMPORT_IGES
100
AcDbLine
 62
7
  6
CONTINUOUS
 10
-85.6295571374
 20
-29.0291956753
 11
-85.6295571374
 21
-28.9473663371
  0
LINE
  5
248
100
AcDbEntity
  8
IMPORT_IGES
100
AcDbLine
 62
7
  6
CONTINUOUS
 10
-85.6295571374
 20
28.9472039333
 11
-85.6295571374
 21
29.0290432892
  0
LINE
  5
249
100
AcDbEntity
  8
IMPORT_IGES
100
AcDbLine
 62
7
  6
CONTINUOUS
 10
-85.4737879007
 20
-28.720800163
 11
-85.4737879007
 21
28.7206377593
  0
LINE
  5
24A
100
AcDbEntity
  8
IMPORT_IGES
100
AcDbLine
 62
7
  6
CONTINUOUS
 10
-85.1536528464
 20
38.4477820606
 11
-85.1536528464
 21
28.9368150693
  0
LINE
  5
24B
100
AcDbEntity
  8
IMPORT_IGES
100
AcDbLine
 62
7
  6
CONTINUOUS
 10
-85.1536528464
 20
-28.9369774731
 11
-85.1536528464
 21
-38.4479444644
  0
LINE
  5
24C
100
AcDbEntity
  8
IMPORT_IGES
100
AcDbLine
 62
250
  6
CONTINUOUS
 10
-84.9935659875
 20
38.2553193971
 11
-84.9935659875
 21
28.7550909398
  0
LINE
  5
24D
100
AcDbEntity
  8
IMPORT_IGES
100
AcDbLine
 62
250
  6
CONTINUOUS
 10
-84.9935659875
 20
-28.7552533436
 11
-84.9935659875
 21
-38.2554818008
  0
LINE
  5
24E
100
AcDbEntity
  8
IMPORT_IGES
100
AcDbLine
 62
7
  6
CONTINUOUS
 10
-84.9738405863
 20
-28.720800163
 11
-84.9738405863
 21
28.7206377593
  0
LINE
  5
24F
100
AcDbEntity
  8
IMPORT_IGES
100
AcDbLine
 62
7
  6
CONTINUOUS
 10
-84.9649084737
 20
-28.720800163
 11
-84.9649084737
 21
28.7206377593
  0
LINE
  5
250
100
AcDbEntity
  8
IMPORT_IGES
100
AcDbLine
 62
250
  6
CONTINUOUS
 10
-83.498128332
 20
-29.8168627089
 11
-83.498128332
 21
-28.7295276955
  0
LINE
  5
251
100
AcDbEntity
  8
IMPORT_IGES
100
AcDbLine
 62
250
  6
CONTINUOUS
 10
-83.4979673455
 20
37.045565908
 11
-83.4978421948
 21
38.7871639613
  0
LINE
  5
252
100
AcDbEntity
  8
IMPORT_IGES
100
AcDbLine
 62
250
  6
CONTINUOUS
 10
-83.4979673455
 20
34.545565908
 11
-83.4980408661
 21
34.921717969
  0
LINE
  5
253
100
AcDbEntity
  8
IMPORT_IGES
100
AcDbLine
 62
250
  6
CONTINUOUS
 10
-83.4979673455
 20
32.045565908
 11
-83.4980408661
 21
32.421717969
  0
LINE
  5
254
100
AcDbEntity
  8
IMPORT_IGES
100
AcDbLine
 62
250
  6
CONTINUOUS
 10
-83.4979673455
 20
-32.454434092
 11
-83.4980408661
 21
-32.078282031
  0
LINE
  5
255
100
AcDbEntity
  8
IMPORT_IGES
100
AcDbLine
 62
250
  6
CONTINUOUS
 10
-83.4979673455
 20
-34.954434092
 11
-83.4980408661
 21
-34.578282031
  0
LINE
  5
256
100
AcDbEntity
  8
IMPORT_IGES
100
AcDbLine
 62
250
  6
CONTINUOUS
 10
-83.4980753038
 20
-38.4875473803
 11
-83.4978946463
 21
-37.023606968
  0
LINE
  5
257
100
AcDbEntity
  8
IMPORT_IGES
100
AcDbLine
 62
250
  6
CONTINUOUS
 10
-83.498128332
 20
28.7293652917
 11
-83.497898014
 21
29.9775759252
  0
LINE
  5
258
100
AcDbEntity
  8
IMPORT_IGES
100
AcDbLine
 62
250
  6
CONTINUOUS
 10
-83.4978421948
 20
38.7871639613
 11
-83.4957713424
 21
39.5834098357
  0
LINE
  5
259
100
AcDbEntity
  8
IMPORT_IGES
100
AcDbLine
 62
250
  6
CONTINUOUS
 10
-83.4980408661
 20
34.921717969
 11
-83.4977997911
 21
34.9962502068
  0
LINE
  5
25A
100
AcDbEntity
  8
IMPORT_IGES
100
AcDbLine
 62
250
  6
CONTINUOUS
 10
-83.4980408661
 20
32.421717969
 11
-83.4977997911
 21
32.4962502068
  0
LINE
  5
25B
100
AcDbEntity
  8
IMPORT_IGES
100
AcDbLine
 62
250
  6
CONTINUOUS
 10
-83.4980408661
 20
-32.078282031
 11
-83.4977997911
 21
-32.0037497932
  0
LINE
  5
25C
100
AcDbEntity
  8
IMPORT_IGES
100
AcDbLine
 62
250
  6
CONTINUOUS
 10
-83.4980408661
 20
-34.578282031
 11
-83.4977997911
 21
-34.5037497932
  0
LINE
  5
25D
100
AcDbEntity
  8
IMPORT_IGES
100
AcDbLine
 62
250
  6
CONTINUOUS
 10
-83.4978946463
 20
-37.023606968
 11
-83.4977482276
 21
-36.9961517909
  0
LWPOLYLINE
  5
25E
100
AcDbEntity
  8
IMPORT_IGES
100
AcDbPolyline
 62
250
  6
CONTINUOUS
 90
4
 70
0
 10
-83.497898014
 20
29.9775759252
 10
-83.497751186
 20
30.0042377882
 10
-83.4976961754
 20
30.009919656
 10
-83.4976389772
 20
30.0139049242
  0
LWPOLYLINE
  5
25F
100
AcDbEntity
  8
IMPORT_IGES
100
AcDbPolyline
 62
250
  6
CONTINUOUS
 90
3
 70
0
 10
-83.4977997911
 20
34.9962502068
 10
-83.4976944629
 20
35.0097613857
 10
-83.4976389667
 20
35.0139055016
  0
LWPOLYLINE
  5
260
100
AcDbEntity
  8
IMPORT_IGES
100
AcDbPolyline
 62
250
  6
CONTINUOUS
 90
3
 70
0
 10
-83.4977997911
 20
32.4962502068
 10
-83.4976944629
 20
32.5097613857
 10
-83.4976389667
 20
32.5139055016
  0
LWPOLYLINE
  5
261
100
AcDbEntity
  8
IMPORT_IGES
100
AcDbPolyline
 62
250
  6
CONTINUOUS
 90
3
 70
0
 10
-83.4977997911
 20
-32.0037497932
 10
-83.4976944629
 20
-31.9902386143
 10
-83.4976389667
 20
-31.9860944983
  0
LWPOLYLINE
  5
262
100
AcDbEntity
  8
IMPORT_IGES
100
AcDbPolyline
 62
250
  6
CONTINUOUS
 90
3
 70
0
 10
-83.4977997911
 20
-34.5037497932
 10
-83.4976944629
 20
-34.4902386143
 10
-83.4976389667
 20
-34.4860944983
  0
LINE
  5
263
100
AcDbEntity
  8
IMPORT_IGES
100
AcDbLine
 62
250
  6
CONTINUOUS
 10
-83.4957713424
 20
39.5834098357
 11
-83.4949257102
 21
39.6984085338
  0
LINE
  5
264
100
AcDbEntity
  8
IMPORT_IGES
100
AcDbLine
 62
250
  6
CONTINUOUS
 10
-83.4977482276
 20
-36.9961517909
 11
-83.4976389667
 21
-36.9860944983
  0
LWPOLYLINE
  5
265
100
AcDbEntity
  8
IMPORT_IGES
100
AcDbPolyline
 62
250
  6
CONTINUOUS
 90
5
 70
0
 10
-83.4949257102
 20
39.6984085338
 10
-83.4944812696
 20
39.7329833863
 10
-83.4942557052
 20
39.7443503188
 10
-83.4940287158
 20
39.7517260932
 10
-83.4938009098
 20
39.7550909398
  0
LINE
  5
266
100
AcDbEntity
  8
IMPORT_IGES
100
AcDbLine
 62
7
  6
CONTINUOUS
 10
-85.1113695355
 20
-38.8000500518
 11
-85.1118292553
 21
-38.7997003818
  0
LINE
  5
267
100
AcDbEntity
  8
IMPORT_IGES
100
AcDbLine
 62
7
  6
CONTINUOUS
 10
-85.6622414243
 20
-28.9473663371
 11
-85.4737879007
 21
-28.720800163
  0
LINE
  5
268
100
AcDbEntity
  8
IMPORT_IGES
100
AcDbLine
 62
7
  6
CONTINUOUS
 10
-84.9738405863
 20
-28.720800163
 11
-85.1622941099
 21
-28.9473663371
  0
LINE
  5
269
100
AcDbEntity
  8
IMPORT_IGES
100
AcDbLine
 62
7
  6
CONTINUOUS
 10
-84.9935659875
 20
-28.7552533436
 11
-84.9649084737
 21
-28.720800163
  0
LWPOLYLINE
  5
26A
100
AcDbEntity
  8
0
100
AcDbPolyline
 62
7
  6
CONTINUOUS
 90
5
 70
0
 43
0.3500000006
 10
3.5357143936
 20
54.837277359
 10
3.8928572788
 20
55.0515618439
 10
3.8928572788
 20
55.6944198303
 10
3.5357143936
 20
56.1229888
 10
2.6785713558
 20
56.1229888
  0
LINE
  5
26B
100
AcDbEntity
  8
IMPORT_IGES
100
AcDbLine
 62
7
  6
CONTINUOUS
 10
-85.4737879007
 20
28.7206377593
 11
-85.6622414243
 21
28.9472039333
  0
LINE
  5
26C
100
AcDbEntity
  8
IMPORT_IGES
100
AcDbLine
 62
7
  6
CONTINUOUS
 10
-84.9738405863
 20
28.7206377593
 11
-85.1622941099
 21
28.9472039333
  0
LINE
  5
26D
100
AcDbEntity
  8
IMPORT_IGES
100
AcDbLine
 62
7
  6
CONTINUOUS
 10
-84.9649084737
 20
28.7206377593
 11
-84.9935659875
 21
28.7550909398
  0
LINE
  5
26E
100
AcDbEntity
  8
IMPORT_IGES
100
AcDbLine
 62
250
  6
CONTINUOUS
 10
-85.1536528464
 20
-38.4479444644
 11
-84.9935659875
 21
-38.2554818008
  0
LINE
  5
26F
100
AcDbEntity
  8
IMPORT_IGES
100
AcDbLine
 62
250
  6
CONTINUOUS
 10
-83.4938009098
 20
-39.7552533436
 11
-83.6538877686
 21
-39.9477160071
  0
LWPOLYLINE
  5
270
100
AcDbEntity
  8
0
100
AcDbPolyline
 62
7
  6
CONTINUOUS
 90
3
 70
0
 43
0.3500000006
 10
-4.8214286671
 20
55.2658508606
 10
-3.9642856293
 20
56.1229888
 10
-3.9642856293
 20
53.1229924164
  0
LWPOLYLINE
  5
271
100
AcDbEntity
  8
0
100
AcDbPolyline
 62
7
  6
CONTINUOUS
 90
3
 70
0
 43
0.3500000006
 10
-0.7500000165
 20
55.2658508606
 10
0.1071428532
 20
56.1229888
 10
0.1071428532
 20
53.1229924164
  0
LWPOLYLINE
  5
272
100
AcDbEntity
  8
IMPORT_IGES
100
AcDbPolyline
 62
250
  6
CONTINUOUS
 90
31
 70
0
 10
83.4259933321
 20
-39.7552533446
 10
83.5044673039
 20
-39.7531749479
 10
83.582726119
 20
-39.7469929565
 10
83.6605553572
 20
-39.7367243654
 10
83.737741662
 20
-39.722397391
 10
83.8140736822
 20
-39.7040513307
 10
83.8893426363
 20
-39.6817363936
 10
83.9633424107
 20
-39.655513676
 10
84.035870139
 20
-39.6254550561
 10
84.1067271051
 20
-39.5916428905
 10
84.17571917
 20
-39.55416982
 10
84.2426573048
 20
-39.513138516
 10
84.3073581077
 20
-39.4686613987
 10
84.3696443071
 20
-39.4208603296
 10
84.429345247
 20
-39.3698662774
 10
84.4862973548
 20
-39.3158189589
 10
84.5403445892
 20
-39.2588664567
 10
84.5913388679
 20
-39.1991648132
 10
84.6391404733
 20
-39.1368776028
 10
84.6836184354
 20
-39.0721754844
 10
84.7246508904
 20
-39.0052357333
 10
84.7621254148
 20
-38.9362417554
 10
84.7959393334
 20
-38.8653825852
 10
84.8260000004
 20
-38.7928523674
 10
84.8522250537
 20
-38.7188498253
 10
84.87454264
 20
-38.6435777161
 10
84.8928916122
 20
-38.5672422752
 10
84.9072216964
 20
-38.4900526519
 10
84.9174936302
 20
-38.4122203355
 10
84.9236792697
 20
-38.3339585762
 10
84.9257616671
 20
-38.2554818008
  0
LWPOLYLINE
  5
273
100
AcDbEntity
  8
IMPORT_IGES
100
AcDbPolyline
 62
250
  6
CONTINUOUS
 90
70
 70
0
 10
83.4221565109
 20
-36.9860944983
 10
83.5126589886
 20
-36.9855254348
 10
83.5990208326
 20
-36.984269433
 10
83.6812419988
 20
-36.9822441466
 10
83.7591912394
 20
-36.9792549899
 10
83.8329996109
 20
-36.9751892647
 10
83.9030605045
 20
-36.9700797713
 10
83.9692130393
 20
-36.9637982679
 10
84.0316177435
 20
-36.956103155
 10
84.0911501223
 20
-36.9469172622
 10
84.1481670154
 20
-36.9360370405
 10
84.2023109889
 20
-36.9232611467
 10
84.2533861422
 20
-36.9085825515
 10
84.3011199847
 20
-36.8920527316
 10
84.3457842526
 20
-36.8733116198
 10
84.3879992011
 20
-36.8516780261
 10
84.4283109501
 20
-36.826481839
 10
84.4661716535
 20
-36.7977817899
 10
84.500560561
 20
-36.7660209472
 10
84.5310102063
 20
-36.731074627
 10
84.5579863972
 20
-36.6928296755
 10
84.5818688462
 20
-36.6520322928
 10
84.6025991611
 20
-36.6085400152
 10
84.6202345312
 20
-36.5625960848
 10
84.6353291434
 20
-36.5158564241
 10
84.6477785385
 20
-36.4693827866
 10
84.6576879041
 20
-36.4226408385
 10
84.6659263197
 20
-36.3749864226
 10
84.6725185295
 20
-36.3271809864
 10
84.6774398881
 20
-36.2787716084
 10
84.6814838076
 20
-36.2270922624
 10
84.6849973993
 20
-36.1707231996
 10
84.687630365
 20
-36.1111861636
 10
84.6891294916
 20
-36.0502003901
 10
84.6893926125
 20
-35.9876941128
 10
84.6885205844
 20
-35.9241909589
 10
84.6865669396
 20
-35.8623587605
 10
84.6835933514
 20
-35.8029929406
 10
84.6795400102
 20
-35.7456737736
 10
84.6742799116
 20
-35.6911537169
 10
84.6680575148
 20
-35.6404511568
 10
84.660630845
 20
-35.5926312621
 10
84.6511424999
 20
-35.5455820725
 10
84.6392937496
 20
-35.4983464865
 10
84.6253830672
 20
-35.4522601278
 10
84.6094484791
 20
-35.4086712911
 10
84.5914294584
 20
-35.3676552168
 10
84.571387873
 20
-35.3291601856
 10
84.5495463281
 20
-35.2940696795
 10
84.5262609864
 20
-35.2628168005
 10
84.5011776638
 20
-35.2345894235
 10
84.4734534023
 20
-35.2083880424
 10
84.4429799138
 20
-35.1839062808
 10
84.4098662095
 20
-35.1613651909
 10
84.3735948992
 20
-35.1406808062
 10
84.3342015348
 20
-35.1217640782
 10
84.2916511957
 20
-35.104569896
 10
84.2453207561
 20
-35.0890674645
 10
84.1947894184
 20
-35.075032418
 10
84.1404784781
 20
-35.0625373717
 10
84.083028058
 20
-35.0518704379
 10
84.0227411833
 20
-35.0428838813
 10
83.9593153987
 20
-35.0353345593
 10
83.8924827082
 20
-35.0292140485
 10
83.8220522545
 20
-35.0243041365
 10
83.748215253
 20
-35.0204349921
 10
83.6712768241
 20
-35.0176053815
 10
83.5913387413
 20
-35.0157012448
 10
83.5082994085
 20
-35.0145472415
 10
83.4221588658
 20
-35.0140679054
  0
LINE
  5
274
100
AcDbEntity
  8
IMPORT_IGES
100
AcDbLine
 62
7
  6
CONTINUOUS
 10
83.6623937175
 20
-40.0349101299
 11
-83.6297094306
 21
-40.0349101299
  0
LINE
  5
275
100
AcDbEntity
  8
IMPORT_IGES
100
AcDbLine
 62
7
  6
CONTINUOUS
 10
83.6508333984
 20
-39.9477160071
 11
-83.6538877686
 21
-39.9477160071
  0
LINE
  5
276
100
AcDbEntity
  8
IMPORT_IGES
100
AcDbLine
 62
250
  6
CONTINUOUS
 10
-83.4938009098
 20
-39.7552533436
 11
83.4259965893
 21
-39.7552533436
  0
LINE
  5
277
100
AcDbEntity
  8
IMPORT_IGES
100
AcDbLine
 62
250
  6
CONTINUOUS
 10
84.9257618265
 20
-38.2554818008
 11
-84.9935659875
 21
-38.2554818008
  0
LINE
  5
278
100
AcDbEntity
  8
IMPORT_IGES
100
AcDbLine
 62
250
  6
CONTINUOUS
 10
-83.498128332
 20
-37.1832971628
 11
83.421669164
 21
-37.1832971607
  0
LINE
  5
279
100
AcDbEntity
  8
IMPORT_IGES
100
AcDbLine
 62
250
  6
CONTINUOUS
 10
83.4221584726
 20
-36.9860944983
 11
-83.4976389667
 21
-36.9860944983
  0
LWPOLYLINE
  5
27A
100
AcDbEntity
  8
IMPORT_IGES
100
AcDbPolyline
 62
250
  6
CONTINUOUS
 90
70
 70
0
 10
-83.4976390225
 20
-36.9860944983
 10
-83.5838106929
 20
-36.9857002204
 10
-83.6671500113
 20
-36.9845873405
 10
-83.7476570193
 20
-36.9826773362
 10
-83.8252781965
 20
-36.9798110951
 10
-83.9000672534
 20
-36.9758365938
 10
-83.9721851234
 20
-36.9706383026
 10
-84.0419556687
 20
-36.9639081544
 10
-84.1090555087
 20
-36.9554273903
 10
-84.1726747045
 20
-36.9452955843
 10
-84.2327593678
 20
-36.9333067185
 10
-84.2893640694
 20
-36.9192340869
 10
-84.341841408
 20
-36.9033634168
 10
-84.3898672171
 20
-36.8857363301
 10
-84.4337663023
 20
-36.866130389
 10
-84.4738645733
 20
-36.8445915955
 10
-84.5099010732
 20
-36.8212777
 10
-84.5421374421
 20
-36.7959383897
 10
-84.5716836755
 20
-36.7679507449
 10
-84.5987156796
 20
-36.7369328748
 10
-84.6230590018
 20
-36.7029793048
 10
-84.6452983346
 20
-36.6661251951
 10
-84.6657471308
 20
-36.625617941
 10
-84.6840937912
 20
-36.5820215335
 10
-84.6999843818
 20
-36.5376705045
 10
-84.7130735999
 20
-36.4938608324
 10
-84.7237059793
 20
-36.4498047877
 10
-84.7325615533
 20
-36.4049039351
 10
-84.7395417134
 20
-36.3598883893
 10
-84.7447449413
 20
-36.3143076022
 10
-84.7491483436
 20
-36.2655902365
 10
-84.7531479603
 20
-36.212497113
 10
-84.7563505945
 20
-36.1563097506
 10
-84.7585501986
 20
-36.0981897696
 10
-84.7597047935
 20
-36.0379729296
 10
-84.7598580807
 20
-35.9761894011
 10
-84.7589308811
 20
-35.9151238264
 10
-84.7568222958
 20
-35.8550411177
 10
-84.7536324265
 20
-35.7961047926
 10
-84.7495814384
 20
-35.7403681046
 10
-84.7450648559
 20
-35.6893297847
 10
-84.7396840287
 20
-35.6415589587
 10
-84.7324680372
 20
-35.5947207237
 10
-84.7232930109
 20
-35.5484206078
 10
-84.7122826523
 20
-35.5033172781
 10
-84.69883878
 20
-35.4588411659
 10
-84.6825955264
 20
-35.414202163
 10
-84.6639192286
 20
-35.3706490659
 10
-84.6433092207
 20
-35.3304656343
 10
-84.6211184861
 20
-35.2942448001
 10
-84.5969919528
 20
-35.2611206327
 10
-84.5703659471
 20
-35.2308929993
 10
-84.541478204
 20
-35.2036344982
 10
-84.5100895697
 20
-35.1789769122
 10
-84.4749214093
 20
-35.1561701144
 10
-84.435698663
 20
-35.1349392941
 10
-84.3926958148
 20
-35.115508693
 10
-84.3454587677
 20
-35.0979535715
 10
-84.2936597761
 20
-35.0820687075
 10
-84.2376260002
 20
-35.0679124108
 10
-84.1778855411
 20
-35.0557953235
 10
-84.1143184209
 20
-35.0454927607
 10
-84.0470439561
 20
-35.036824977
 10
-83.9769490169
 20
-35.0299360175
 10
-83.9043761684
 20
-35.0246074877
 10
-83.8289823503
 20
-35.0205227984
 10
-83.7506259708
 20
-35.0175785989
 10
-83.669259763
 20
-35.0156202691
 10
-83.5849307944
 20
-35.0144773958
 10
-83.4976390217
 20
-35.0140679054
  0
LINE
  5
27B
100
AcDbEntity
  8
IMPORT_IGES
100
AcDbLine
 62
250
  6
CONTINUOUS
 10
-84.9935659875
 20
38.2553193971
 11
-85.1536528464
 21
38.4477820606
  0
LINE
  5
27C
100
AcDbEntity
  8
IMPORT_IGES
100
AcDbLine
 62
250
  6
CONTINUOUS
 10
-83.6538877686
 20
39.9475536033
 11
-83.4938009098
 21
39.7550909398
  0
LWPOLYLINE
  5
27D
100
AcDbEntity
  8
IMPORT_IGES
100
AcDbPolyline
 62
250
  6
CONTINUOUS
 90
70
 70
0
 10
83.4221565109
 20
-34.4860944983
 10
83.5126589886
 20
-34.4855254348
 10
83.5990208326
 20
-34.484269433
 10
83.6812419988
 20
-34.4822441466
 10
83.7591912393
 20
-34.4792549899
 10
83.8329996108
 20
-34.4751892647
 10
83.9030605045
 20
-34.4700797713
 10
83.9692130393
 20
-34.4637982679
 10
84.0316177434
 20
-34.456103155
 10
84.0911501222
 20
-34.4469172623
 10
84.1481670153
 20
-34.4360370405
 10
84.2023109888
 20
-34.4232611467
 10
84.2533861421
 20
-34.4085825515
 10
84.3011199845
 20
-34.3920527317
 10
84.3457842524
 20
-34.3733116198
 10
84.3879992009
 20
-34.3516780262
 10
84.42831095
 20
-34.3264818391
 10
84.4661716533
 20
-34.2977817901
 10
84.5005605609
 20
-34.2660209473
 10
84.5310102062
 20
-34.2310746272
 10
84.5579863971
 20
-34.1928296757
 10
84.5818688461
 20
-34.152032293
 10
84.602599161
 20
-34.1085400153
 10
84.6202345312
 20
-34.0625960849
 10
84.6353291433
 20
-34.0158564243
 10
84.6477785385
 20
-33.9693827868
 10
84.6576879041
 20
-33.9226408388
 10
84.6659263197
 20
-33.8749864229
 10
84.6725185294
 20
-33.8271809868
 10
84.6774398881
 20
-33.7787716088
 10
84.6814838075
 20
-33.7270922628
 10
84.6849973992
 20
-33.6707232
 10
84.687630365
 20
-33.6111861639
 10
84.6891294915
 20
-33.5502003903
 10
84.6893926125
 20
-33.4876941131
 10
84.6885205844
 20
-33.4241909591
 10
84.6865669396
 20
-33.3623587607
 10
84.6835933514
 20
-33.3029929408
 10
84.6795400102
 20
-33.2456737738
 10
84.6742799116
 20
-33.1911537171
 10
84.6680575148
 20
-33.1404511569
 10
84.660630845
 20
-33.092631262
 10
84.6511424998
 20
-33.0455820723
 10
84.6392937496
 20
-32.9983464862
 10
84.6253830671
 20
-32.9522601275
 10
84.609448479
 20
-32.9086712908
 10
84.5914294582
 20
-32.8676552165
 10
84.5713878728
 20
-32.8291601853
 10
84.5495463279
 20
-32.7940696793
 10
84.5262609862
 20
-32.7628168003
 10
84.5011776636
 20
-32.7345894232
 10
84.473453402
 20
-32.7083880422
 10
84.4429799135
 20
-32.6839062806
 10
84.4098662092
 20
-32.6613651908
 10
84.3735948989
 20
-32.640680806
 10
84.3342015345
 20
-32.6217640781
 10
84.2916511954
 20
-32.6045698959
 10
84.2453207558
 20
-32.5890674644
 10
84.1947894182
 20
-32.5750324179
 10
84.1404784779
 20
-32.5625373717
 10
84.0830280578
 20
-32.5518704379
 10
84.0227411832
 20
-32.5428838812
 10
83.9593153986
 20
-32.5353345592
 10
83.8924827082
 20
-32.5292140485
 10
83.8220522545
 20
-32.5243041365
 10
83.7482152531
 20
-32.5204349921
 10
83.6712768243
 20
-32.5176053815
 10
83.5913387414
 20
-32.5157012448
 10
83.5082994086
 20
-32.5145472415
 10
83.4221588659
 20
-32.5140679054
  0
LWPOLYLINE
  5
27E
100
AcDbEntity
  8
IMPORT_IGES
100
AcDbPolyline
 62
250
  6
CONTINUOUS
 90
79
 70
0
 10
-83.498128332
 20
-34.8168652453
 10
-83.5793514572
 20
-34.8173728728
 10
-83.6588297304
 20
-34.8184357907
 10
-83.7363583517
 20
-34.8200539991
 10
-83.8115405113
 20
-34.8220023523
 10
-83.8844446741
 20
-34.8245059959
 10
-83.9555772226
 20
-34.8282403668
 10
-84.0238038923
 20
-34.8331404073
 10
-84.090033399
 20
-34.8392711751
 10
-84.1576242499
 20
-34.847503281
 10
-84.229509882
 20
-34.8584365569
 10
-84.3017859489
 20
-34.8714711708
 10
-84.367912531
 20
-34.8856782373
 10
-84.4260166924
 20
-34.9005430835
 10
-84.478587659
 20
-34.9165803823
 10
-84.5262789935
 20
-34.9344052667
 10
-84.5685535452
 20
-34.9538806203
 10
-84.6065226703
 20
-34.9751435595
 10
-84.6429656301
 20
-34.9992205667
 10
-84.6790101626
 20
-35.0266916715
 10
-84.7133159691
 20
-35.0569768443
 10
-84.7448133622
 20
-35.0893624784
 10
-84.7735265631
 20
-35.1236990289
 10
-84.7997004127
 20
-35.1601360406
 10
-84.8228841725
 20
-35.1984085418
 10
-84.8430466033
 20
-35.2382531607
 10
-84.8607257808
 20
-35.279933269
 10
-84.876379722
 20
-35.3239740106
 10
-84.8902498556
 20
-35.3705285954
 10
-84.9024175382
 20
-35.4194438135
 10
-84.913042782
 20
-35.4707851781
 10
-84.9223408482
 20
-35.5247783845
 10
-84.9303685437
 20
-35.5811977374
 10
-84.937067948
 20
-35.639431665
 10
-84.9425935433
 20
-35.699599382
 10
-84.9470594973
 20
-35.7615816736
 10
-84.9503824185
 20
-35.8244093229
 10
-84.952638119
 20
-35.8880557607
 10
-84.953931373
 20
-35.9525475562
 10
-84.9542086982
 20
-36.0169952005
 10
-84.953411039
 20
-36.0813860946
 10
-84.9515776318
 20
-36.1457328375
 10
-84.9487580797
 20
-36.2091837173
 10
-84.9448339263
 20
-36.2718132971
 10
-84.9397127925
 20
-36.3335470138
 10
-84.9334782277
 20
-36.3933094658
 10
-84.9260144977
 20
-36.4509278583
 10
-84.9171546829
 20
-36.5065749861
 10
-84.9069467534
 20
-36.5596938325
 10
-84.8953363292
 20
-36.6100561898
 10
-84.8820985607
 20
-36.6578902656
 10
-84.8670421071
 20
-36.7033236669
 10
-84.8500496664
 20
-36.7462248546
 10
-84.8308983365
 20
-36.7867253678
 10
-84.8091868448
 20
-36.8253474305
 10
-84.7843066452
 20
-36.8624080332
 10
-84.7563657022
 20
-36.8975901855
 10
-84.7261564452
 20
-36.9304651399
 10
-84.6937034161
 20
-36.9610499523
 10
-84.6588608971
 20
-36.9893275669
 10
-84.622455358
 20
-37.0148180694
 10
-84.585849464
 20
-37.0369400706
 10
-84.5479108843
 20
-37.0562749598
 10
-84.5055034886
 20
-37.0740869908
 10
-84.4570344622
 20
-37.0906773302
 10
-84.4034643337
 20
-37.1057448115
 10
-84.3452340854
 20
-37.1196501887
 10
-84.2806517697
 20
-37.1327754728
 10
-84.2110474892
 20
-37.1447386528
 10
-84.1420154209
 20
-37.1547544499
 10
-84.0771437538
 20
-37.1622730049
 10
-84.01370108
 20
-37.167844177
 10
-83.9480293991
 20
-37.1723322653
 10
-83.8791276834
 20
-37.175838239
 10
-83.8081603775
 20
-37.178261129
 10
-83.7345076436
 20
-37.1801623267
 10
-83.658048349
 20
-37.1817289628
 10
-83.5791906554
 20
-37.1827739068
 10
-83.498128332
 20
-37.1832971585
  0
LWPOLYLINE
  5
27F
100
AcDbEntity
  8
IMPORT_IGES
100
AcDbPolyline
 62
250
  6
CONTINUOUS
 90
70
 70
0
 10
83.4221565109
 20
-31.9860944983
 10
83.5126589886
 20
-31.9855254348
 10
83.5990208326
 20
-31.984269433
 10
83.6812419988
 20
-31.9822441466
 10
83.7591912394
 20
-31.9792549899
 10
83.8329996109
 20
-31.9751892647
 10
83.9030605045
 20
-31.9700797713
 10
83.9692130394
 20
-31.9637982679
 10
84.0316177435
 20
-31.956103155
 10
84.0911501223
 20
-31.9469172622
 10
84.1481670154
 20
-31.9360370405
 10
84.2023109889
 20
-31.9232611467
 10
84.2533861422
 20
-31.9085825515
 10
84.3011199846
 20
-31.8920527316
 10
84.3457842525
 20
-31.8733116198
 10
84.3879992011
 20
-31.8516780262
 10
84.4283109501
 20
-31.826481839
 10
84.4661716535
 20
-31.79778179
 10
84.500560561
 20
-31.7660209472
 10
84.5310102063
 20
-31.7310746271
 10
84.5579863972
 20
-31.6928296756
 10
84.5818688462
 20
-31.6520322929
 10
84.6025991611
 20
-31.6085400152
 10
84.6202345312
 20
-31.5625960848
 10
84.6353291434
 20
-31.5158564241
 10
84.6477785385
 20
-31.4693827866
 10
84.6576879041
 20
-31.4226408386
 10
84.6659263197
 20
-31.3749864227
 10
84.6725185295
 20
-31.3271809865
 10
84.6774398881
 20
-31.2787716086
 10
84.6814838076
 20
-31.2270922625
 10
84.6849973993
 20
-31.1707231997
 10
84.687630365
 20
-31.1111861637
 10
84.6891294916
 20
-31.0502003901
 10
84.6893926125
 20
-30.9876941129
 10
84.6885205844
 20
-30.9241909589
 10
84.6865669396
 20
-30.8623587605
 10
84.6835933514
 20
-30.8029929406
 10
84.6795400102
 20
-30.7456737737
 10
84.6742799116
 20
-30.6911537169
 10
84.6680575148
 20
-30.6404511568
 10
84.660630845
 20
-30.5926312621
 10
84.6511424999
 20
-30.5455820724
 10
84.6392937496
 20
-30.4983464864
 10
84.6253830672
 20
-30.4522601277
 10
84.6094484791
 20
-30.4086712911
 10
84.5914294583
 20
-30.3676552167
 10
84.5713878729
 20
-30.3291601855
 10
84.549546328
 20
-30.2940696794
 10
84.5262609863
 20
-30.2628168005
 10
84.5011776637
 20
-30.2345894234
 10
84.4734534022
 20
-30.2083880424
 10
84.4429799137
 20
-30.1839062807
 10
84.4098662095
 20
-30.1613651909
 10
84.3735948991
 20
-30.1406808061
 10
84.3342015348
 20
-30.1217640782
 10
84.2916511957
 20
-30.104569896
 10
84.245320756
 20
-30.0890674644
 10
84.1947894184
 20
-30.075032418
 10
84.1404784781
 20
-30.0625373717
 10
84.083028058
 20
-30.0518704379
 10
84.0227411833
 20
-30.0428838813
 10
83.9593153987
 20
-30.0353345593
 10
83.8924827083
 20
-30.0292140485
 10
83.8220522545
 20
-30.0243041365
 10
83.7482152531
 20
-30.0204349921
 10
83.6712768242
 20
-30.0176053815
 10
83.5913387414
 20
-30.0157012448
 10
83.5082994085
 20
-30.0145472415
 10
83.4221588659
 20
-30.0140679054
  0
LWPOLYLINE
  5
280
100
AcDbEntity
  8
IMPORT_IGES
100
AcDbPolyline
 62
250
  6
CONTINUOUS
 90
79
 70
0
 10
-83.498128332
 20
-32.3168652453
 10
-83.5793514573
 20
-32.3173728728
 10
-83.6588297304
 20
-32.3184357907
 10
-83.7363583518
 20
-32.3200539991
 10
-83.8115405114
 20
-32.3220023523
 10
-83.8844446742
 20
-32.3245059959
 10
-83.9555772227
 20
-32.3282403669
 10
-84.0238038925
 20
-32.3331404073
 10
-84.0900333994
 20
-32.3392711752
 10
-84.1576242503
 20
-32.347503281
 10
-84.2295098823
 20
-32.3584365569
 10
-84.3017859492
 20
-32.3714711708
 10
-84.3679125313
 20
-32.3856782373
 10
-84.4260166926
 20
-32.4005430836
 10
-84.4785876592
 20
-32.4165803824
 10
-84.5262789938
 20
-32.4344052669
 10
-84.5685535455
 20
-32.4538806205
 10
-84.6065226706
 20
-32.4751435597
 10
-84.6429656305
 20
-32.4992205669
 10
-84.679010163
 20
-32.5266916718
 10
-84.7133159695
 20
-32.5569768446
 10
-84.7448133626
 20
-32.5893624788
 10
-84.7735265634
 20
-32.6236990292
 10
-84.799700413
 20
-32.660136041
 10
-84.8228841728
 20
-32.6984085423
 10
-84.8430466035
 20
-32.7382531612
 10
-84.860725781
 20
-32.7799332697
 10
-84.8763797222
 20
-32.8239740113
 10
-84.8902498558
 20
-32.8705285962
 10
-84.9024175384
 20
-32.9194438144
 10
-84.9130427821
 20
-32.9707851791
 10
-84.9223408483
 20
-33.0247783855
 10
-84.9303685438
 20
-33.0811977385
 10
-84.9370679481
 20
-33.139431666
 10
-84.9425935434
 20
-33.199599383
 10
-84.9470594974
 20
-33.2615816746
 10
-84.9503824185
 20
-33.3244093239
 10
-84.9526381191
 20
-33.3880557617
 10
-84.953931373
 20
-33.4525475572
 10
-84.9542086982
 20
-33.5169952016
 10
-84.953411039
 20
-33.5813860957
 10
-84.9515776318
 20
-33.6457328386
 10
-84.9487580796
 20
-33.7091837184
 10
-84.9448339262
 20
-33.7718132983
 10
-84.9397127923
 20
-33.833547015
 10
-84.9334782276
 20
-33.893309467
 10
-84.9260144975
 20
-33.9509278595
 10
-84.9171546826
 20
-34.0065749873
 10
-84.9069467532
 20
-34.0596938337
 10
-84.895336329
 20
-34.1100561908
 10
-84.8820985604
 20
-34.1578902666
 10
-84.8670421068
 20
-34.2033236678
 10
-84.8500496661
 20
-34.2462248555
 10
-84.8308983361
 20
-34.2867253685
 10
-84.8091868444
 20
-34.3253474312
 10
-84.7843066447
 20
-34.3624080338
 10
-84.7563657017
 20
-34.397590186
 10
-84.7261564447
 20
-34.4304651404
 10
-84.6937034156
 20
-34.4610499527
 10
-84.6588608965
 20
-34.4893275673
 10
-84.6224553575
 20
-34.5148180698
 10
-84.5858494636
 20
-34.5369400709
 10
-84.5479108839
 20
-34.55627496
 10
-84.5055034882
 20
-34.5740869909
 10
-84.4570344619
 20
-34.5906773303
 10
-84.4034643333
 20
-34.6057448116
 10
-84.345234085
 20
-34.6196501888
 10
-84.2806517693
 20
-34.6327754729
 10
-84.2110474888
 20
-34.6447386528
 10
-84.1420154205
 20
-34.65475445
 10
-84.0771437534
 20
-34.6622730049
 10
-84.0137010797
 20
-34.667844177
 10
-83.9480293989
 20
-34.6723322653
 10
-83.8791276832
 20
-34.675838239
 10
-83.8081603774
 20
-34.678261129
 10
-83.7345076435
 20
-34.6801623267
 10
-83.658048349
 20
-34.6817289628
 10
-83.5791906554
 20
-34.6827739068
 10
-83.498128332
 20
-34.6832971585
  0
LINE
  5
281
100
AcDbEntity
  8
IMPORT_IGES
100
AcDbLine
 62
250
  6
CONTINUOUS
 10
-83.4976389667
 20
-35.0140679054
 11
83.4221587114
 21
-35.0140679054
  0
LINE
  5
282
100
AcDbEntity
  8
IMPORT_IGES
100
AcDbLine
 62
250
  6
CONTINUOUS
 10
83.421669131
 20
-34.8168652417
 11
-83.498128332
 21
-34.8168652431
  0
LINE
  5
283
100
AcDbEntity
  8
IMPORT_IGES
100
AcDbLine
 62
250
  6
CONTINUOUS
 10
-83.498128332
 20
-34.6832971585
 11
83.421669164
 21
-34.6832971607
  0
LINE
  5
284
100
AcDbEntity
  8
IMPORT_IGES
100
AcDbLine
 62
250
  6
CONTINUOUS
 10
83.4221584726
 20
-34.4860944983
 11
-83.4976389667
 21
-34.4860944983
  0
LINE
  5
285
100
AcDbEntity
  8
IMPORT_IGES
100
AcDbLine
 62
250
  6
CONTINUOUS
 10
-83.4976389667
 20
-32.5140679054
 11
83.4221587114
 21
-32.5140679054
  0
LINE
  5
286
100
AcDbEntity
  8
IMPORT_IGES
100
AcDbLine
 62
250
  6
CONTINUOUS
 10
83.421669131
 20
-32.3168652417
 11
-83.498128332
 21
-32.3168652431
  0
LINE
  5
287
100
AcDbEntity
  8
IMPORT_IGES
100
AcDbLine
 62
250
  6
CONTINUOUS
 10
-83.498128332
 20
-32.1832971585
 11
83.421669164
 21
-32.1832971607
  0
LINE
  5
288
100
AcDbEntity
  8
IMPORT_IGES
100
AcDbLine
 62
250
  6
CONTINUOUS
 10
83.4221584726
 20
-31.9860944983
 11
-83.4976389667
 21
-31.9860944983
  0
LWPOLYLINE
  5
289
100
AcDbEntity
  8
IMPORT_IGES
100
AcDbPolyline
 62
250
  6
CONTINUOUS
 90
70
 70
0
 10
-83.4976390225
 20
-34.4860944983
 10
-83.5838106929
 20
-34.4857002204
 10
-83.6671500113
 20
-34.4845873405
 10
-83.7476570193
 20
-34.4826773362
 10
-83.8252781966
 20
-34.4798110951
 10
-83.9000672534
 20
-34.4758365938
 10
-83.9721851235
 20
-34.4706383026
 10
-84.0419556687
 20
-34.4639081544
 10
-84.1090555088
 20
-34.4554273903
 10
-84.1726747045
 20
-34.4452955843
 10
-84.2327593679
 20
-34.4333067185
 10
-84.2893640694
 20
-34.4192340869
 10
-84.341841408
 20
-34.4033634168
 10
-84.3898672171
 20
-34.3857363301
 10
-84.4337663023
 20
-34.366130389
 10
-84.4738645733
 20
-34.3445915955
 10
-84.5099010732
 20
-34.3212777
 10
-84.5421374421
 20
-34.2959383896
 10
-84.5716836755
 20
-34.2679507448
 10
-84.5987156796
 20
-34.2369328748
 10
-84.6230590018
 20
-34.2029793048
 10
-84.6452983346
 20
-34.1661251951
 10
-84.6657471309
 20
-34.125617941
 10
-84.6840937912
 20
-34.0820215335
 10
-84.6999843818
 20
-34.0376705046
 10
-84.7130735999
 20
-33.9938608324
 10
-84.7237059793
 20
-33.9498047877
 10
-84.7325615533
 20
-33.9049039351
 10
-84.7395417134
 20
-33.8598883892
 10
-84.7447449413
 20
-33.814307602
 10
-84.7491483436
 20
-33.7655902363
 10
-84.7531479603
 20
-33.7124971129
 10
-84.7563505945
 20
-33.6563097504
 10
-84.7585501986
 20
-33.5981897695
 10
-84.7597047935
 20
-33.5379729295
 10
-84.7598580807
 20
-33.4761894009
 10
-84.758930881
 20
-33.4151238262
 10
-84.7568222958
 20
-33.3550411176
 10
-84.7536324265
 20
-33.2961047925
 10
-84.7495814384
 20
-33.2403681044
 10
-84.7450648559
 20
-33.1893297845
 10
-84.7396840287
 20
-33.1415589586
 10
-84.7324680372
 20
-33.0947207236
 10
-84.7232930108
 20
-33.0484206077
 10
-84.7122826523
 20
-33.0033172781
 10
-84.6988387799
 20
-32.9588411659
 10
-84.6825955263
 20
-32.9142021629
 10
-84.6639192286
 20
-32.8706490658
 10
-84.6433092206
 20
-32.8304656343
 10
-84.6211184861
 20
-32.7942448
 10
-84.5969919527
 20
-32.7611206327
 10
-84.570365947
 20
-32.7308929993
 10
-84.5414782039
 20
-32.7036344982
 10
-84.5100895697
 20
-32.6789769122
 10
-84.4749214093
 20
-32.6561701144
 10
-84.435698663
 20
-32.6349392941
 10
-84.3926958149
 20
-32.615508693
 10
-84.3454587678
 20
-32.5979535715
 10
-84.2936597761
 20
-32.5820687075
 10
-84.2376260003
 20
-32.5679124108
 10
-84.1778855412
 20
-32.5557953235
 10
-84.114318421
 20
-32.5454927607
 10
-84.0470439562
 20
-32.5368249771
 10
-83.976949017
 20
-32.5299360176
 10
-83.9043761685
 20
-32.5246074877
 10
-83.8289823503
 20
-32.5205227984
 10
-83.7506259709
 20
-32.5175785989
 10
-83.669259763
 20
-32.5156202691
 10
-83.5849307945
 20
-32.5144773958
 10
-83.4976390217
 20
-32.5140679054
  0
LWPOLYLINE
  5
28A
100
AcDbEntity
  8
IMPORT_IGES
100
AcDbPolyline
 62
250
  6
CONTINUOUS
 90
70
 70
0
 10
-83.4976390229
 20
-31.9860944983
 10
-83.5835375106
 20
-31.9856912656
 10
-83.6663962038
 20
-31.9845916628
 10
-83.7462151422
 20
-31.9827205729
 10
-83.8228822268
 20
-31.9799231523
 10
-83.8965097366
 20
-31.9760588945
 10
-83.9674343195
 20
-31.9710323578
 10
-84.0359651858
 20
-31.9645660972
 10
-84.1017935664
 20
-31.9564509237
 10
-84.1643291318
 20
-31.9467677492
 10
-84.2235668327
 20
-31.9353220122
 10
-84.2795123504
 20
-31.921896716
 10
-84.3315913279
 20
-31.9067276438
 10
-84.3795288779
 20
-31.8898372239
 10
-84.4236005113
 20
-31.8710067983
 10
-84.464057354
 20
-31.8502438555
 10
-84.5006833821
 20
-31.8276543654
 10
-84.5336953312
 20
-31.8030062242
 10
-84.5639936403
 20
-31.775749808
 10
-84.5916708996
 20
-31.7455899699
 10
-84.6166359107
 20
-31.7125385533
 10
-84.6395137081
 20
-31.6764350433
 10
-84.6606454695
 20
-31.6363937904
 10
-84.6796920563
 20
-31.5930394323
 10
-84.6962570216
 20
-31.5487984645
 10
-84.710012143
 20
-31.5048607067
 10
-84.7212849909
 20
-31.4605351983
 10
-84.730661769
 20
-31.4156796971
 10
-84.7379822306
 20
-31.3712291471
 10
-84.7434061322
 20
-31.3265859648
 10
-84.7480009318
 20
-31.2791259704
 10
-84.752156192
 20
-31.2277486072
 10
-84.755484787
 20
-31.1735998182
 10
-84.757890079
 20
-31.1173466657
 10
-84.7593956547
 20
-31.058733541
 10
-84.7599797954
 20
-30.9983320147
 10
-84.7594766917
 20
-30.9381255107
 10
-84.7577467418
 20
-30.8782168513
 10
-84.7549293092
 20
-30.8189351683
 10
-84.7512749386
 20
-30.7625478911
 10
-84.747212687
 20
-30.7106893717
 10
-84.7423105507
 20
-30.6618397481
 10
-84.7355276125
 20
-30.6135478011
 10
-84.7268548218
 20
-30.5655203995
 10
-84.7163013545
 20
-30.5183778505
 10
-84.702855254
 20
-30.4712615586
 10
-84.6861092474
 20
-30.4232591087
 10
-84.666471769
 20
-30.3759479322
 10
-84.6441535468
 20
-30.3319950944
 10
-84.6192791871
 20
-30.2918559898
 10
-84.591722041
 20
-30.2549365171
 10
-84.5613143851
 20
-30.2218358092
 10
-84.527920295
 20
-30.1926063097
 10
-84.4916735943
 20
-30.1667010697
 10
-84.4528110801
 20
-30.1437104518
 10
-84.4115668114
 20
-30.1234915596
 10
-84.3677054554
 20
-30.1057534654
 10
-84.3207600353
 20
-30.0899744214
 10
-84.2705922908
 20
-30.0758629844
 10
-84.217339851
 20
-30.0634654
 10
-84.1609496985
 20
-30.0527982326
 10
-84.101452603
 20
-30.0436400066
 10
-84.0388172807
 20
-30.0358805434
 10
-83.9728975823
 20
-30.0295927664
 10
-83.9040339187
 20
-30.0245719027
 10
-83.8318855023
 20
-30.0206178745
 10
-83.7552843624
 20
-30.017723329
 10
-83.6738411065
 20
-30.0157692286
 10
-83.5879449435
 20
-30.0145767444
 10
-83.4975958314
 20
-30.0140673279
  0
LWPOLYLINE
  5
28B
100
AcDbEntity
  8
IMPORT_IGES
100
AcDbPolyline
 62
250
  6
CONTINUOUS
 90
79
 70
0
 10
83.4216691671
 20
-34.8168652373
 10
83.5049659571
 20
-34.8176443771
 10
83.5858173713
 20
-34.8190042971
 10
83.6640153105
 20
-34.8209449973
 10
83.7401187845
 20
-34.8234960206
 10
83.8132462832
 20
-34.8266278241
 10
83.8811601565
 20
-34.8302517795
 10
83.9397879589
 20
-34.8337675887
 10
83.9934207537
 20
-34.8377755499
 10
84.0520420604
 20
-34.843987929
 10
84.1215362717
 20
-34.8532311914
 10
84.1946813575
 20
-34.8646788716
 10
84.2620161199
 20
-34.8775638398
 10
84.3205462839
 20
-34.8915417773
 10
84.3738517068
 20
-34.9069570027
 10
84.4231254899
 20
-34.9240753422
 10
84.4680596544
 20
-34.9424497316
 10
84.5093024331
 20
-34.9625272351
 10
84.5491323791
 20
-34.9859148709
 10
84.5885728386
 20
-35.0134090356
 10
84.6263063189
 20
-35.0442133327
 10
84.6610382699
 20
-35.0775455901
 10
84.6928577821
 20
-35.1133922917
 10
84.7219169432
 20
-35.1517669537
 10
84.7474150178
 20
-35.1919279532
 10
84.7692673378
 20
-35.2335158903
 10
84.7882113523
 20
-35.2768901649
 10
84.8047955356
 20
-35.3223873538
 10
84.8192852189
 20
-35.3701542724
 10
84.8318266709
 20
-35.4200441054
 10
84.8427008766
 20
-35.4719529838
 10
84.8521432274
 20
-35.526078789
 10
84.8602227326
 20
-35.5822236397
 10
84.8669574189
 20
-35.6396900233
 10
84.8724981935
 20
-35.6985022403
 10
84.8769612737
 20
-35.7586359901
 10
84.8803244706
 20
-35.8193208591
 10
84.8826694869
 20
-35.8804777593
 10
84.884082565
 20
-35.9421857786
 10
84.8845296414
 20
-36.0039117671
 10
84.8839764473
 20
-36.0656525563
 10
84.8824536321
 20
-36.1274113146
 10
84.8799841123
 20
-36.1886643974
 10
84.8764773295
 20
-36.2495067941
 10
84.8718472194
 20
-36.3098435152
 10
84.8661035359
 20
-36.3688659487
 10
84.8591237808
 20
-36.4265420639
 10
84.8507504309
 20
-36.4829038914
 10
84.8409501877
 20
-36.5372389113
 10
84.8296429987
 20
-36.5893504879
 10
84.8165857207
 20
-36.6394352569
 10
84.8014844746
 20
-36.6873706048
 10
84.784160951
 20
-36.7330225719
 10
84.7643558682
 20
-36.7765251178
 10
84.74157428
 20
-36.8181575085
 10
84.715028689
 20
-36.8583140455
 10
84.684848296
 20
-36.8966004272
 10
84.6520835134
 20
-36.932113015
 10
84.6167664356
 20
-36.9647416654
 10
84.5787293576
 20
-36.9945965218
 10
84.5391341674
 20
-37.0211043759
 10
84.4993174802
 20
-37.0434806902
 10
84.4582600181
 20
-37.0625100021
 10
84.413480759
 20
-37.0799727157
 10
84.3639231258
 20
-37.0964305424
 10
84.3102661247
 20
-37.1113217707
 10
84.2523739879
 20
-37.1247416706
 10
84.1878795968
 20
-37.136866253
 10
84.1188325427
 20
-37.147519507
 10
84.0523589678
 20
-37.1562686694
 10
83.9941292391
 20
-37.1625193564
 10
83.9395272128
 20
-37.1668659517
 10
83.8803440702
 20
-37.1706588433
 10
83.813259023
 20
-37.1743923096
 10
83.7414356438
 20
-37.1775720722
 10
83.6661035606
 20
-37.1800656838
 10
83.5877813914
 20
-37.1818289953
 10
83.5062344735
 20
-37.1829061557
 10
83.4216691671
 20
-37.1832971652
  0
LWPOLYLINE
  5
28C
100
AcDbEntity
  8
IMPORT_IGES
100
AcDbPolyline
 62
250
  6
CONTINUOUS
 90
79
 70
0
 10
83.4216691671
 20
-32.3168652373
 10
83.5049659571
 20
-32.3176443771
 10
83.5858173713
 20
-32.3190042971
 10
83.6640153104
 20
-32.3209449973
 10
83.7401187844
 20
-32.3234960206
 10
83.8132462832
 20
-32.3266278241
 10
83.8811601564
 20
-32.3302517795
 10
83.9397879587
 20
-32.3337675887
 10
83.9934207533
 20
-32.3377755499
 10
84.05204206
 20
-32.343987929
 10
84.1215362712
 20
-32.3532311913
 10
84.1946813571
 20
-32.3646788715
 10
84.2620161195
 20
-32.3775638397
 10
84.3205462836
 20
-32.3915417772
 10
84.3738517064
 20
-32.4069570026
 10
84.4231254896
 20
-32.424075342
 10
84.468059654
 20
-32.4424497315
 10
84.5093024328
 20
-32.4625272349
 10
84.5491323788
 20
-32.4859148707
 10
84.5885728382
 20
-32.5134090354
 10
84.6263063185
 20
-32.5442133324
 10
84.6610382696
 20
-32.5775455898
 10
84.6928577819
 20
-32.6133922913
 10
84.721916943
 20
-32.6517669533
 10
84.7474150176
 20
-32.6919279528
 10
84.7692673376
 20
-32.7335158899
 10
84.7882113522
 20
-32.7768901645
 10
84.8047955354
 20
-32.8223873534
 10
84.8192852187
 20
-32.8701542719
 10
84.8318266707
 20
-32.9200441049
 10
84.8427008765
 20
-32.9719529833
 10
84.8521432273
 20
-33.0260787885
 10
84.8602227325
 20
-33.0822236392
 10
84.8669574189
 20
-33.1396900228
 10
84.8724981934
 20
-33.1985022398
 10
84.8769612737
 20
-33.2586359896
 10
84.8803244706
 20
-33.3193208586
 10
84.8826694869
 20
-33.3804777588
 10
84.884082565
 20
-33.4421857781
 10
84.8845296414
 20
-33.5039117665
 10
84.8839764473
 20
-33.5656525557
 10
84.8824536321
 20
-33.627411314
 10
84.8799841123
 20
-33.6886643969
 10
84.8764773295
 20
-33.7495067935
 10
84.8718472195
 20
-33.8098435147
 10
84.866103536
 20
-33.8688659482
 10
84.8591237808
 20
-33.9265420634
 10
84.850750431
 20
-33.9829038909
 10
84.8409501877
 20
-34.0372389108
 10
84.8296429988
 20
-34.0893504875
 10
84.8165857208
 20
-34.1394352565
 10
84.8014844747
 20
-34.1873706044
 10
84.7841609511
 20
-34.2330225715
 10
84.7643558684
 20
-34.2765251175
 10
84.7415742802
 20
-34.3181575082
 10
84.7150286892
 20
-34.3583140452
 10
84.6848482963
 20
-34.3966004269
 10
84.6520835137
 20
-34.4321130148
 10
84.6167664359
 20
-34.4647416652
 10
84.5787293579
 20
-34.4945965216
 10
84.5391341678
 20
-34.5211043757
 10
84.4993174806
 20
-34.54348069
 10
84.4582600185
 20
-34.562510002
 10
84.4134807594
 20
-34.5799727156
 10
84.3639231262
 20
-34.5964305423
 10
84.3102661252
 20
-34.6113217706
 10
84.2523739884
 20
-34.6247416705
 10
84.1878795973
 20
-34.6368662529
 10
84.1188325433
 20
-34.647519507
 10
84.0523589683
 20
-34.6562686693
 10
83.9941292396
 20
-34.6625193563
 10
83.9395272131
 20
-34.6668659516
 10
83.8803440704
 20
-34.6706588432
 10
83.8132590231
 20
-34.6743923096
 10
83.7414356439
 20
-34.6775720722
 10
83.6661035606
 20
-34.6800656838
 10
83.5877813914
 20
-34.6818289953
 10
83.5062344735
 20
-34.6829061558
 10
83.4216691671
 20
-34.6832971652
  0
LWPOLYLINE
  5
28D
100
AcDbEntity
  8
IMPORT_IGES
100
AcDbPolyline
 62
250
  6
CONTINUOUS
 90
79
 70
0
 10
-83.498128332
 20
-29.8168650349
 10
-83.5807863431
 20
-29.8173977065
 10
-83.6613752045
 20
-29.8184899766
 10
-83.7396853582
 20
-29.8201418453
 10
-83.8152386821
 20
-29.82212434
 10
-83.8881942051
 20
-29.8246664332
 10
-83.9593096919
 20
-29.8284550422
 10
-84.0275697911
 20
-29.8334454851
 10
-84.0937663118
 20
-29.8396824438
 10
-84.1611521797
 20
-29.8479868806
 10
-84.232574083
 20
-29.8589342988
 10
-84.30424766
 20
-29.8719491951
 10
-84.3698283175
 20
-29.8861260224
 10
-84.4275016445
 20
-29.9009628027
 10
-84.4796914946
 20
-29.9169615138
 10
-84.5270408594
 20
-29.9347225422
 10
-84.5690136102
 20
-29.9541086821
 10
-84.6067155883
 20
-29.9752571392
 10
-84.6429099761
 20
-29.9991799168
 10
-84.6787082336
 20
-30.0264411666
 10
-84.7127912902
 20
-30.0564767368
 10
-84.7441260671
 20
-30.0886061748
 10
-84.7727414897
 20
-30.1226829744
 10
-84.7988639673
 20
-30.1588536417
 10
-84.8220366264
 20
-30.1968772437
 10
-84.8422253499
 20
-30.236490918
 10
-84.8599582948
 20
-30.2779575268
 10
-84.8756788155
 20
-30.3218247231
 10
-84.8896250716
 20
-30.3682514356
 10
-84.9018763973
 20
-30.4170787355
 10
-84.9125838682
 20
-30.4683774901
 10
-84.9219629211
 20
-30.5223814204
 10
-84.93006907
 20
-30.5788568053
 10
-84.9368365421
 20
-30.6371733488
 10
-84.9424196988
 20
-30.6974496308
 10
-84.946935724
 20
-30.7595670713
 10
-84.9503001934
 20
-30.8225396349
 10
-84.9525912273
 20
-30.8863170328
 10
-84.9539142619
 20
-30.9509495538
 10
-84.9542128334
 20
-31.0156020285
 10
-84.9534313796
 20
-31.0802706288
 10
-84.951606946
 20
-31.1449591828
 10
-84.9487762453
 20
-31.2088440055
 10
-84.9448109154
 20
-31.2720605486
 10
-84.9396216751
 20
-31.3344733603
 10
-84.9332977561
 20
-31.3948524008
 10
-84.9257118861
 20
-31.4530110472
 10
-84.9166994941
 20
-31.5091359222
 10
-84.9063430006
 20
-31.5625568548
 10
-84.8945949728
 20
-31.6129903306
 10
-84.8812298977
 20
-31.6607198638
 10
-84.866092662
 20
-31.7059258264
 10
-84.8490847901
 20
-31.748463018
 10
-84.8299873047
 20
-31.7884766389
 10
-84.8084218108
 20
-31.8265826609
 10
-84.7838244474
 20
-31.8630955133
 10
-84.7562949076
 20
-31.8977007669
 10
-84.7265566789
 20
-31.9300711063
 10
-84.6946231349
 20
-31.9602470191
 10
-84.6603610749
 20
-31.9881880176
 10
-84.6245379312
 20
-32.013445324
 10
-84.5884755745
 20
-32.0354722347
 10
-84.5510631885
 20
-32.0548154533
 10
-84.509196102
 20
-32.072666312
 10
-84.4613674035
 20
-32.0892995087
 10
-84.4084528197
 20
-32.1044403456
 10
-84.3506482051
 20
-32.1184560617
 10
-84.2861127606
 20
-32.1317450366
 10
-84.2162581242
 20
-32.1439088907
 10
-84.1467737908
 20
-32.1541197239
 10
-84.0812076141
 20
-32.1618259377
 10
-84.0168627704
 20
-32.1675791306
 10
-83.9503194708
 20
-32.172206199
 10
-83.8806158927
 20
-32.1757856129
 10
-83.808893659
 20
-32.1782389023
 10
-83.7346908893
 20
-32.1801575529
 10
-83.6579469289
 20
-32.1817387268
 10
-83.5790270022
 20
-32.182785262
 10
-83.498128332
 20
-32.1832971585
  0
LINE
  5
28E
100
AcDbEntity
  8
IMPORT_IGES
100
AcDbLine
 62
7
  6
CONTINUOUS
 10
-85.6295571374
 20
-29.0291956753
 11
-85.1536528464
 21
-29.0290506329
  0
LINE
  5
28F
100
AcDbEntity
  8
IMPORT_IGES
100
AcDbLine
 62
250
  6
CONTINUOUS
 10
83.4221586994
 20
-30.0140672133
 11
-83.4976389772
 21
-30.014067328
  0
LINE
  5
290
100
AcDbEntity
  8
IMPORT_IGES
100
AcDbLine
 62
250
  6
CONTINUOUS
 10
-83.498128332
 20
-29.8168627089
 11
83.4216691311
 21
-29.8168652417
  0
LINE
  5
291
100
AcDbEntity
  8
IMPORT_IGES
100
AcDbLine
 62
7
  6
CONTINUOUS
 10
85.6505963208
 20
-28.9477160071
 11
85.1505984761
 21
-28.9477160071
  0
LINE
  5
292
100
AcDbEntity
  8
IMPORT_IGES
100
AcDbLine
 62
7
  6
CONTINUOUS
 10
-85.1622941099
 20
-28.9473663371
 11
-85.6622414243
 21
-28.9473663371
  0
LINE
  5
293
100
AcDbEntity
  8
IMPORT_IGES
100
AcDbLine
 62
7
  6
CONTINUOUS
 10
83.4216847951
 20
-28.7295276955
 11
-83.498128332
 21
-28.7295276955
  0
LINE
  5
294
100
AcDbEntity
  8
IMPORT_IGES
100
AcDbLine
 62
7
  6
CONTINUOUS
 10
83.9114839222
 20
-28.720800163
 11
-84.9649084737
 21
-28.720800163
  0
LINE
  5
295
100
AcDbEntity
  8
IMPORT_IGES
100
AcDbLine
 62
7
  6
CONTINUOUS
 10
-84.9738405863
 20
-28.720800163
 11
-85.4737879007
 21
-28.720800163
  0
LINE
  5
296
100
AcDbEntity
  8
IMPORT_IGES
100
AcDbLine
 62
7
  6
CONTINUOUS
 10
85.6622414243
 20
-29.0291956753
 11
85.1621652603
 21
-29.029043266
  0
LWPOLYLINE
  5
297
100
AcDbEntity
  8
IMPORT_IGES
100
AcDbPolyline
 62
250
  6
CONTINUOUS
 90
79
 70
0
 10
83.4216691671
 20
-29.8168652373
 10
83.5049659572
 20
-29.8176443771
 10
83.5858173714
 20
-29.8190042971
 10
83.6640153105
 20
-29.8209449974
 10
83.7401187845
 20
-29.8234960206
 10
83.8132462832
 20
-29.8266278241
 10
83.8811601564
 20
-29.8302517795
 10
83.9397879588
 20
-29.8337675887
 10
83.9934207535
 20
-29.8377755499
 10
84.0520420601
 20
-29.843987929
 10
84.1215362713
 20
-29.8532311913
 10
84.1946813571
 20
-29.8646788715
 10
84.2620161195
 20
-29.8775638397
 10
84.3205462836
 20
-29.8915417772
 10
84.3738517064
 20
-29.9069570026
 10
84.4231254896
 20
-29.924075342
 10
84.4680596541
 20
-29.9424497315
 10
84.5093024328
 20
-29.9625272349
 10
84.5491323789
 20
-29.9859148707
 10
84.5885728383
 20
-30.0134090355
 10
84.6263063187
 20
-30.0442133325
 10
84.6610382697
 20
-30.07754559
 10
84.692857782
 20
-30.1133922916
 10
84.7219169431
 20
-30.1517669536
 10
84.7474150177
 20
-30.1919279531
 10
84.7692673377
 20
-30.2335158902
 10
84.7882113523
 20
-30.2768901648
 10
84.8047955356
 20
-30.3223873537
 10
84.8192852188
 20
-30.3701542723
 10
84.8318266708
 20
-30.4200441052
 10
84.8427008765
 20
-30.4719529837
 10
84.8521432274
 20
-30.5260787889
 10
84.8602227326
 20
-30.5822236395
 10
84.8669574189
 20
-30.6396900232
 10
84.8724981935
 20
-30.6985022401
 10
84.8769612737
 20
-30.75863599
 10
84.8803244706
 20
-30.819320859
 10
84.8826694869
 20
-30.8804777592
 10
84.884082565
 20
-30.9421857785
 10
84.8845296414
 20
-31.003911767
 10
84.8839764473
 20
-31.0656525562
 10
84.8824536321
 20
-31.1274113145
 10
84.8799841123
 20
-31.1886643974
 10
84.8764773295
 20
-31.249506794
 10
84.8718472194
 20
-31.3098435152
 10
84.8661035359
 20
-31.3688659487
 10
84.8591237808
 20
-31.4265420638
 10
84.8507504309
 20
-31.4829038914
 10
84.8409501877
 20
-31.5372389112
 10
84.8296429987
 20
-31.5893504879
 10
84.8165857207
 20
-31.6394352569
 10
84.8014844746
 20
-31.6873706048
 10
84.784160951
 20
-31.7330225718
 10
84.7643558683
 20
-31.7765251177
 10
84.74157428
 20
-31.8181575084
 10
84.715028689
 20
-31.8583140454
 10
84.6848482961
 20
-31.8966004272
 10
84.6520835134
 20
-31.932113015
 10
84.6167664356
 20
-31.9647416654
 10
84.5787293575
 20
-31.9945965218
 10
84.5391341674
 20
-32.0211043759
 10
84.4993174801
 20
-32.0434806902
 10
84.458260018
 20
-32.0625100022
 10
84.4134807588
 20
-32.0799727158
 10
84.3639231256
 20
-32.0964305425
 10
84.3102661245
 20
-32.1113217708
 10
84.2523739876
 20
-32.1247416706
 10
84.1878795965
 20
-32.1368662531
 10
84.1188325424
 20
-32.1475195071
 10
84.0523589675
 20
-32.1562686694
 10
83.9941292388
 20
-32.1625193564
 10
83.9395272126
 20
-32.1668659517
 10
83.8803440701
 20
-32.1706588433
 10
83.8132590229
 20
-32.1743923096
 10
83.7414356437
 20
-32.1775720722
 10
83.6661035606
 20
-32.1800656838
 10
83.5877813914
 20
-32.1818289953
 10
83.5062344735
 20
-32.1829061557
 10
83.4216691671
 20
-32.1832971652
  0
LWPOLYLINE
  5
298
100
AcDbEntity
  8
0
100
AcDbPolyline
 62
7
  6
CONTINUOUS
 90
3
 70
0
 43
0.3500000006
 10
1.6785714755
 20
53.4087080841
 10
1.6071428418
 20
53.1944190674
 10
1.4642857161
 20
52.9087079315
  0
LWPOLYLINE
  5
299
100
AcDbEntity
  8
IMPORT_IGES
100
AcDbPolyline
 62
7
  6
CONTINUOUS
 90
46
 70
0
 10
-9.8677392237
 20
-0.0000812019
 10
-9.8616032383
 20
0.3495205286
 10
-9.8433450573
 20
0.6979287759
 10
-9.8129646807
 20
1.0451435402
 10
-9.7703914686
 20
1.3916244657
 10
-9.7156960609
 20
1.7369119081
 10
-9.6490903775
 20
2.0796269345
 10
-9.5705087193
 20
2.41976957
 10
-9.4800167853
 20
2.7573397895
 10
-9.3780235927
 20
3.0909585848
 10
-9.2645835675
 20
3.4203984571
 10
-9.1396422836
 20
3.7458869052
 10
-9.0034454795
 20
4.0667274165
 10
-8.8558482385
 20
4.3831719071
 10
-8.6969954772
 20
4.6949684609
 10
-8.5275676842
 20
5.0006648172
 10
-8.3475551503
 20
5.300140098
 10
-8.1569675847
 20
5.5935151813
 10
-7.9565146035
 20
5.8797004402
 10
-7.74608617
 20
6.1587321695
 10
-7.5257923208
 20
6.4305740744
 10
-7.2966727817
 20
6.6940276439
 10
-7.058856556
 20
6.9488916897
 10
-6.8122146403
 20
7.1953674
 10
-6.5573997497
 20
7.4328598293
 10
-6.2943238485
 20
7.6614313604
 10
-6.0230749723
 20
7.8810196105
 10
-5.7445699433
 20
8.0908424852
 10
-5.4587124973
 20
8.2909058853
 10
-5.1655988985
 20
8.4812039099
 10
-4.8664347612
 20
8.660936762
 10
-4.5612272879
 20
8.8300314116
 10
-4.2499692761
 20
8.9885608887
 10
-3.9338447326
 20
9.1359444863
 10
-3.6128729936
 20
9.2721270376
 10
-3.287034723
 20
9.3971637094
 10
-2.9574559191
 20
9.5106392953
 10
-2.6241230527
 20
9.6125213688
 10
-2.287049653
 20
9.7028423563
 10
-1.9474023061
 20
9.7812843314
 10
-1.6051425866
 20
9.847812579
 10
-1.26030892
 20
9.9024618142
 10
-0.9141831682
 20
9.945018255
 10
-0.5667602939
 20
9.975434029
 10
-0.2180453345
 20
9.9937570087
 10
0.1322204969
 20
9.9999187981
  0
LWPOLYLINE
  5
29A
100
AcDbEntity
  8
IMPORT_IGES
100
AcDbPolyline
 62
7
  6
CONTINUOUS
 90
46
 70
0
 10
0.1322148433
 20
-10.0000812019
 10
-0.2149294965
 20
-9.9940294869
 10
-0.5636247084
 20
-9.9758165816
 10
-0.9110333007
 20
-9.9455115739
 10
-1.2571506192
 20
-9.9030686455
 10
-1.601981318
 20
-9.8485336145
 10
-1.9442576284
 20
-9.7821147931
 10
-2.2839578496
 20
-9.70377229
 10
-2.6211036824
 20
-9.6135459963
 10
-2.95449246
 20
-9.5117638974
 10
-3.2841108741
 20
-9.3983874554
 10
-3.609972233
 20
-9.2734552082
 10
-3.9309137941
 20
-9.1374107547
 10
-4.2469180943
 20
-8.9902177585
 10
-4.5580025966
 20
-8.8319125559
 10
-4.8630569478
 20
-8.6630477555
 10
-5.162080975
 20
-8.4835711986
 10
-5.455074851
 20
-8.293535044
 10
-5.7409287413
 20
-8.0936483762
 10
-6.0196046571
 20
-7.8838794848
 10
-6.2911405872
 20
-7.6642600804
 10
-6.5545406638
 20
-7.4355943787
 10
-6.8097270358
 20
-7.1979139505
 10
-7.0567775543
 20
-6.951187225
 10
-7.2949299043
 20
-6.6961237056
 10
-7.5242677188
 20
-6.4325574667
 10
-7.7447073649
 20
-6.1606544339
 10
-7.955235629
 20
-5.8816218875
 10
-8.1557380625
 20
-5.5955089021
 10
-8.3463291139
 20
-5.3022664031
 10
-8.5263389152
 20
-5.0029544466
 10
-8.6957632721
 20
-4.6974552584
 10
-8.8546063788
 20
-4.3858866127
 10
-9.0022109502
 20
-4.0696618889
 10
-9.1384373876
 20
-3.7490366408
 10
-9.2634252897
 20
-3.4237553147
 10
-9.3769361667
 20
-3.0944646282
 10
-9.4790311747
 20
-2.7609388409
 10
-9.5696491576
 20
-2.4234036933
 10
-9.6483681586
 20
-2.0831831246
 10
-9.7151297627
 20
-1.7402752088
 10
-9.7699923847
 20
-1.3946818719
 10
-9.812709313
 20
-1.047732831
 10
-9.8431983103
 20
-0.6998713253
 10
-9.8615416139
 20
-0.3506541156
 10
-9.8677392237
 20
-0.0000812019
  0
LWPOLYLINE
  5
29B
100
AcDbEntity
  8
0
100
AcDbPolyline
 62
7
  6
CONTINUOUS
 90
4
 70
0
 43
0.3500000006
 10
-3.1071428747
 20
55.4801353455
 10
-3.1071428747
 20
56.1229888
 10
-1.6071428418
 20
56.1229888
 10
-2.464285738
 20
53.1229924164
  0
LWPOLYLINE
  5
29C
100
AcDbEntity
  8
0
100
AcDbPolyline
 62
7
  6
CONTINUOUS
 90
4
 70
0
 43
0.3500000006
 10
96.3846754761
 20
-4.0714281921
 10
95.5275284729
 20
-4.0714281921
 10
95.0989595032
 20
-3.6428569565
 10
95.0989595032
 20
-3.000000103
  0
LWPOLYLINE
  5
29D
100
AcDbEntity
  8
0
100
AcDbPolyline
 62
7
  6
CONTINUOUS
 90
13
 70
0
 43
0.3500000006
 10
95.9561065063
 20
-1.7142852631
 10
94.6703905334
 20
-1.7142852631
 10
94.2418215637
 20
-1.4999996452
 10
93.8132435303
 20
-1.0714295425
 10
93.8132435303
 20
-0.8571427917
 10
94.2418215637
 20
-0.4285715561
 10
94.6703905334
 20
-0.2142848053
 10
95.9561065063
 20
-0.2142848053
 10
96.3846754761
 20
-0.4285715561
 10
96.8132444458
 20
-0.8571427917
 10
96.8132444458
 20
-1.0714295425
 10
96.3846754761
 20
-1.4999996452
 10
95.9561065063
 20
-1.7142852631
  0
LWPOLYLINE
  5
29E
100
AcDbEntity
  8
IMPORT_IGES
100
AcDbPolyline
 62
7
  6
CONTINUOUS
 90
46
 70
0
 10
10.1321745639
 20
-0.0000812019
 10
10.1260385785
 20
-0.3496829323
 10
10.1077803975
 20
-0.6980911797
 10
10.0774000209
 20
-1.045305944
 10
10.0348268088
 20
-1.3917868695
 10
9.9801314012
 20
-1.7370743119
 10
9.9135257178
 20
-2.0797893383
 10
9.8349440595
 20
-2.4199319738
 10
9.7444521256
 20
-2.7575021933
 10
9.6424589329
 20
-3.0911209886
 10
9.5290189077
 20
-3.4205608609
 10
9.4040776239
 20
-3.746049309
 10
9.2678808198
 20
-4.0668898203
 10
9.1202835787
 20
-4.3833343109
 10
8.9614308174
 20
-4.6951308647
 10
8.7920030244
 20
-5.000827221
 10
8.6119904905
 20
-5.3003025018
 10
8.421402925
 20
-5.593677585
 10
8.2209499437
 20
-5.8798628439
 10
8.0105215102
 20
-6.1588945732
 10
7.7902276611
 20
-6.4307364782
 10
7.5611081219
 20
-6.6941900477
 10
7.3232918962
 20
-6.9490540934
 10
7.0766499806
 20
-7.1955298038
 10
6.82183509
 20
-7.433022233
 10
6.5587591887
 20
-7.6615937642
 10
6.2875103125
 20
-7.8811820143
 10
6.0090052835
 20
-8.0910048889
 10
5.7231478376
 20
-8.291068289
 10
5.4300342388
 20
-8.4813663137
 10
5.1308701015
 20
-8.6610991658
 10
4.8256626282
 20
-8.8301938154
 10
4.5144046163
 20
-8.9887232925
 10
4.1982800729
 20
-9.1361068901
 10
3.8773083339
 20
-9.2722894414
 10
3.5514700632
 20
-9.3973261132
 10
3.2218912593
 20
-9.5108016991
 10
2.8885583929
 20
-9.6126837726
 10
2.5514849932
 20
-9.7030047601
 10
2.2118376463
 20
-9.7814467352
 10
1.8695779269
 20
-9.8479749828
 10
1.5247442602
 20
-9.902624218
 10
1.1786185084
 20
-9.9451806588
 10
0.8311956341
 20
-9.9755964328
 10
0.4824806748
 20
-9.9939194125
 10
0.1322148433
 20
-10.0000812019
  0
LWPOLYLINE
  5
29F
100
AcDbEntity
  8
IMPORT_IGES
100
AcDbPolyline
 62
7
  6
CONTINUOUS
 90
46
 70
0
 10
0.1322204969
 20
9.9999187981
 10
0.4793648368
 20
9.9938670831
 10
0.8280600487
 20
9.9756541779
 10
1.1754686409
 20
9.9453491702
 10
1.5215859594
 20
9.9029062417
 10
1.8664166582
 20
9.8483712108
 10
2.2086929686
 20
9.7819523893
 10
2.5483931899
 20
9.7036098862
 10
2.8855390227
 20
9.6133835925
 10
3.2189278002
 20
9.5116014936
 10
3.5485462144
 20
9.3982250516
 10
3.8744075733
 20
9.2732928044
 10
4.1953491343
 20
9.137248351
 10
4.5113534345
 20
8.9900553547
 10
4.8224379369
 20
8.8317501521
 10
5.1274922881
 20
8.6628853517
 10
5.4265163152
 20
8.4834087949
 10
5.7195101912
 20
8.2933726402
 10
6.0053640816
 20
8.0934859724
 10
6.2840399974
 20
7.8837170811
 10
6.5555759275
 20
7.6640976766
 10
6.8189760041
 20
7.4354319749
 10
7.0741623761
 20
7.1977515467
 10
7.3212128945
 20
6.9510248212
 10
7.5593652445
 20
6.6959613018
 10
7.7887030591
 20
6.4323950629
 10
8.0091427052
 20
6.1604920302
 10
8.2196709692
 20
5.8814594838
 10
8.4201734027
 20
5.5953464984
 10
8.6107644541
 20
5.3021039993
 10
8.7907742554
 20
5.0027920429
 10
8.9601986123
 20
4.6972928546
 10
9.119041719
 20
4.3857242089
 10
9.2666462904
 20
4.0694994851
 10
9.4028727278
 20
3.7488742371
 10
9.5278606299
 20
3.4235929109
 10
9.641371507
 20
3.0943022244
 10
9.7434665149
 20
2.7607764371
 10
9.8340844979
 20
2.4232412895
 10
9.9128034989
 20
2.0830207208
 10
9.9795651029
 20
1.740112805
 10
10.034427725
 20
1.3945194681
 10
10.0771446533
 20
1.0475704273
 10
10.1076336506
 20
0.6997089215
 10
10.1259769541
 20
0.3504917118
 10
10.1321745639
 20
-0.0000812019
  0
LINE
  5
2A0
100
AcDbEntity
  8
IMPORT_IGES
100
AcDbLine
 62
250
  6
CONTINUOUS
 10
83.4259965893
 20
39.7550909398
 11
83.6508268602
 21
39.9475536033
  0
LINE
  5
2A1
100
AcDbEntity
  8
IMPORT_IGES
100
AcDbLine
 62
250
  6
CONTINUOUS
 10
83.6508268815
 20
-39.9477160071
 11
83.4259965893
 21
-39.7552533436
  0
LWPOLYLINE
  5
2A2
100
AcDbEntity
  8
0
100
AcDbPolyline
 62
7
  6
CONTINUOUS
 90
10
 70
0
 43
0.3500000006
 10
1.6071428418
 20
53.622992569
 10
1.6785714755
 20
53.4801347351
 10
1.6785714755
 20
53.4087080841
 10
1.5357143497
 20
53.2658502502
 10
1.4642857161
 20
53.2658502502
 10
1.3928570824
 20
53.3372769012
 10
1.3928570824
 20
53.4087080841
 10
1.4642857161
 20
53.5515613861
 10
1.5357143497
 20
53.622992569
 10
1.6071428418
 20
53.622992569
  0
LINE
  5
2A3
100
AcDbEntity
  8
IMPORT_IGES
100
AcDbLine
 62
250
  6
CONTINUOUS
 10
85.1505984761
 20
38.4477755224
 11
84.9257616671
 21
38.2553193971
  0
LINE
  5
2A4
100
AcDbEntity
  8
IMPORT_IGES
100
AcDbLine
 62
7
  6
CONTINUOUS
 10
85.1621652603
 20
29.0288908799
 11
85.6622414243
 21
29.0290432892
  0
LINE
  5
2A5
100
AcDbEntity
  8
IMPORT_IGES
100
AcDbLine
 62
7
  6
CONTINUOUS
 10
83.9114870491
 20
28.7206377593
 11
-84.9649084737
 21
28.7206377593
  0
LINE
  5
2A6
100
AcDbEntity
  8
IMPORT_IGES
100
AcDbLine
 62
7
  6
CONTINUOUS
 10
-84.9738405863
 20
28.7206377593
 11
-85.4737879007
 21
28.7206377593
  0
LINE
  5
2A7
100
AcDbEntity
  8
IMPORT_IGES
100
AcDbLine
 62
7
  6
CONTINUOUS
 10
83.4216691671
 20
28.7293652917
 11
-83.498128332
 21
28.7293652917
  0
LINE
  5
2A8
100
AcDbEntity
  8
IMPORT_IGES
100
AcDbLine
 62
7
  6
CONTINUOUS
 10
-85.1622941099
 20
28.9472039333
 11
-85.6622414243
 21
28.9472039333
  0
LINE
  5
2A9
100
AcDbEntity
  8
IMPORT_IGES
100
AcDbLine
 62
7
  6
CONTINUOUS
 10
85.6505963208
 20
28.9475536033
 11
85.1505984761
 21
28.9475536033
  0
LINE
  5
2AA
100
AcDbEntity
  8
IMPORT_IGES
100
AcDbLine
 62
250
  6
CONTINUOUS
 10
83.4216691641
 20
29.8167028393
 11
-83.498128332
 21
29.816702838
  0
LINE
  5
2AB
100
AcDbEntity
  8
IMPORT_IGES
100
AcDbLine
 62
250
  6
CONTINUOUS
 10
-83.4976389772
 20
30.0139049242
 11
83.4678012029
 21
30.0140777393
  0
LINE
  5
2AC
100
AcDbEntity
  8
IMPORT_IGES
100
AcDbLine
 62
250
  6
CONTINUOUS
 10
83.4216691317
 20
32.1831347583
 11
-83.498128332
 21
32.1831347547
  0
LINE
  5
2AD
100
AcDbEntity
  8
IMPORT_IGES
100
AcDbLine
 62
250
  6
CONTINUOUS
 10
-83.498128332
 20
32.3167028393
 11
83.421669164
 21
32.3167028393
  0
LINE
  5
2AE
100
AcDbEntity
  8
IMPORT_IGES
100
AcDbLine
 62
7
  6
CONTINUOUS
 10
-85.1536528464
 20
29.0288982468
 11
-85.6295571374
 21
29.0290432892
  0
LWPOLYLINE
  5
2AF
100
AcDbEntity
  8
IMPORT_IGES
100
AcDbPolyline
 62
250
  6
CONTINUOUS
 90
135
 70
0
 10
-83.4976389667
 20
31.9859320946
 10
83.4644244974
 20
31.9858359605
 10
83.5062667547
 20
31.9855453788
 10
83.5476856912
 20
31.9850544564
 10
83.5886706866
 20
31.9843502671
 10
83.6292323486
 20
31.9834220098
 10
83.6694025126
 20
31.9822619289
 10
83.7091795667
 20
31.9808527873
 10
83.7485650961
 20
31.9791677884
 10
83.7875957286
 20
31.9771805082
 10
83.8262952775
 20
31.9748612565
 10
83.8646398819
 20
31.9721751971
 10
83.9025946514
 20
31.9690829676
 10
83.9402847563
 20
31.9655216915
 10
83.9775849459
 20
31.9614668144
 10
84.0140846986
 20
31.9569420939
 10
84.0497972029
 20
31.9518942235
 10
84.0847091712
 20
31.9462963764
 10
84.1183703872
 20
31.9402400595
 10
84.1507148406
 20
31.9337169649
 10
84.1818084563
 20
31.9266923555
 10
84.2113989521
 20
31.919252261
 10
84.239394845
 20
31.9113985752
 10
84.2658875535
 20
31.9031154452
 10
84.2908991768
 20
31.894488357
 10
84.3143071093
 20
31.8855719491
 10
84.3362339249
 20
31.8763237691
 10
84.3570694978
 20
31.8666887687
 10
84.3768460154
 20
31.8566778665
 10
84.395531235
 20
31.8462779659
 10
84.4134183575
 20
31.8353824282
 10
84.4305722515
 20
31.8239492546
 10
84.4469279455
 20
31.8119976797
 10
84.4625838569
 20
31.799502352
 10
84.4775461766
 20
31.7864540327
 10
84.4918085964
 20
31.7728408254
 10
84.5054507757
 20
31.7586310417
 10
84.5184691021
 20
31.7438305384
 10
84.5308670503
 20
31.7284127507
 10
84.5427348871
 20
31.7122910321
 10
84.55408806
 20
31.695441281
 10
84.5649109313
 20
31.677858777
 10
84.5752471078
 20
31.6594782159
 10
84.5851061407
 20
31.6402361998
 10
84.5944782342
 20
31.620164791
 10
84.6033779779
 20
31.5993459799
 10
84.6118040852
 20
31.577768205
 10
84.619757621
 20
31.555432968
 10
84.6272567459
 20
31.5324561549
 10
84.6343179771
 20
31.5088565441
 10
84.6409246213
 20
31.4846268763
 10
84.6470450687
 20
31.459856113
 10
84.6526622116
 20
31.4345752964
 10
84.6577930192
 20
31.4087793986
 10
84.6624570235
 20
31.3825096757
 10
84.6666236402
 20
31.3558156366
 10
84.6703233341
 20
31.3286819045
 10
84.6736671999
 20
31.3010525586
 10
84.6766753565
 20
31.2729116513
 10
84.679327521
 20
31.2443099728
 10
84.681674174
 20
31.215291949
 10
84.6837377482
 20
31.1858332124
 10
84.6854956622
 20
31.1560019679
 10
84.6869309267
 20
31.1259864904
 10
84.6880345753
 20
31.0958515158
 10
84.6888155384
 20
31.0655869453
 10
84.6892837321
 20
31.0352722475
 10
84.6894398917
 20
31.0049831063
 10
84.6892832902
 20
30.9746997368
 10
84.6888216435
 20
30.9443588284
 10
84.6880593131
 20
30.9139323481
 10
84.6869918934
 20
30.8835056275
 10
84.6856139505
 20
30.853185361
 10
84.6839156873
 20
30.8229173993
 10
84.6819069094
 20
30.7928135531
 10
84.6796116986
 20
30.7632227387
 10
84.6770511353
 20
30.7342200555
 10
84.6742043559
 20
30.7057688917
 10
84.6710326546
 20
30.6780380201
 10
84.6675718234
 20
30.6511224307
 10
84.6637863649
 20
30.6249438465
 10
84.6595306499
 20
30.5994070611
 10
84.6547873555
 20
30.5745409777
 10
84.6495740246
 20
30.5503293732
 10
84.6437972607
 20
30.5266166775
 10
84.6374417009
 20
30.5034315221
 10
84.6305228445
 20
30.4807631288
 10
84.6229934998
 20
30.4584117578
 10
84.6148564951
 20
30.4363453326
 10
84.6061090332
 20
30.4146329929
 10
84.5966954239
 20
30.393239643
 10
84.5865814281
 20
30.3720981258
 10
84.5758012955
 20
30.3513210928
 10
84.5644021095
 20
30.3311323016
 10
84.5523608003
 20
30.3115302532
 10
84.5397005663
 20
30.2925286144
 10
84.5265379942
 20
30.2743417604
 10
84.5128625422
 20
30.256952356
 10
84.4986849693
 20
30.2403499611
 10
84.4841539044
 20
30.2247224869
 10
84.4692934554
 20
30.2100817281
 10
84.4540797923
 20
30.1963433755
 10
84.4385896829
 20
30.1835269868
 10
84.4229126329
 20
30.1716507446
 10
84.4069593821
 20
30.1606123222
 10
84.3905385245
 20
30.1502567815
 10
84.3737051241
 20
30.1405688253
 10
84.356404269
 20
30.1315063962
 10
84.3382795367
 20
30.122899561
 10
84.3194057873
 20
30.1147518477
 10
84.2997082435
 20
30.1070303694
 10
84.2786059715
 20
30.0995428017
 10
84.2560243979
 20
30.0922447925
 10
84.2320381112
 20
30.0851927481
 10
84.2062898893
 20
30.0783668218
 10
84.1785187832
 20
30.0717186085
 10
84.1489857516
 20
30.0653157348
 10
84.1181164531
 20
30.059296438
 10
84.0858886343
 20
30.0536538384
 10
84.0523246056
 20
30.0483708661
 10
84.0179169061
 20
30.0435353238
 10
83.9827272009
 20
30.0391187447
 10
83.9466938975
 20
30.0350958893
 10
83.9101246706
 20
30.0315291947
 10
83.8731162166
 20
30.0284006188
 10
83.835571912
 20
30.0256515211
 10
83.7975094587
 20
30.0232687052
 10
83.7590221925
 20
30.0212268605
 10
83.7200168262
 20
30.0194868071
 10
83.6802311225
 20
30.0180166978
 10
83.639668323
 20
30.0167864463
 10
83.5983252127
 20
30.01578322
 10
83.555929866
 20
30.015004968
 10
83.5123916458
 20
30.0144418313
 10
83.4678012029
 20
30.0140777393
  0
LWPOLYLINE
  5
2B0
100
AcDbEntity
  8
IMPORT_IGES
100
AcDbPolyline
 62
250
  6
CONTINUOUS
 90
70
 70
0
 10
-83.4976390225
 20
32.5139055016
 10
-83.5838106929
 20
32.5142997796
 10
-83.6671500113
 20
32.5154126595
 10
-83.7476570193
 20
32.5173226638
 10
-83.8252781966
 20
32.5201889049
 10
-83.9000672534
 20
32.5241634062
 10
-83.9721851235
 20
32.5293616974
 10
-84.0419556687
 20
32.5360918456
 10
-84.1090555088
 20
32.5445726097
 10
-84.1726747046
 20
32.5547044157
 10
-84.2327593679
 20
32.5666932815
 10
-84.2893640695
 20
32.5807659131
 10
-84.3418414081
 20
32.5966365832
 10
-84.3898672172
 20
32.6142636699
 10
-84.4337663024
 20
32.633869611
 10
-84.4738645734
 20
32.6554084046
 10
-84.5099010733
 20
32.6787223
 10
-84.5421374422
 20
32.7040616104
 10
-84.5716836756
 20
32.7320492552
 10
-84.5987156796
 20
32.7630671253
 10
-84.6230590019
 20
32.7970206953
 10
-84.6452983346
 20
32.833874805
 10
-84.6657471309
 20
32.8743820591
 10
-84.6840937912
 20
32.9179784666
 10
-84.6999843819
 20
32.9623294956
 10
-84.7130736
 20
33.0061391677
 10
-84.7237059793
 20
33.0501952125
 10
-84.7325615534
 20
33.095096065
 10
-84.7395417135
 20
33.1401116109
 10
-84.7447449413
 20
33.1856923981
 10
-84.7491483436
 20
33.2344097638
 10
-84.7531479603
 20
33.2875028872
 10
-84.7563505946
 20
33.3436902496
 10
-84.7585501986
 20
33.4018102306
 10
-84.7597047935
 20
33.4620270706
 10
-84.7598580806
 20
33.5238105991
 10
-84.758930881
 20
33.5848761739
 10
-84.7568222957
 20
33.6449588825
 10
-84.7536324265
 20
33.7038952076
 10
-84.7495814383
 20
33.7596318957
 10
-84.7450648559
 20
33.8106702156
 10
-84.7396840287
 20
33.8584410415
 10
-84.7324680372
 20
33.9052792764
 10
-84.7232930108
 20
33.9515793922
 10
-84.7122826523
 20
33.9966827219
 10
-84.69883878
 20
34.041158834
 10
-84.6825955263
 20
34.085797837
 10
-84.6639192286
 20
34.1293509341
 10
-84.6433092206
 20
34.1695343657
 10
-84.6211184861
 20
34.2057551999
 10
-84.5969919527
 20
34.2388793673
 10
-84.570365947
 20
34.2691070006
 10
-84.5414782039
 20
34.2963655018
 10
-84.5100895697
 20
34.3210230878
 10
-84.4749214094
 20
34.3438298856
 10
-84.435698663
 20
34.3650607059
 10
-84.3926958149
 20
34.3844913069
 10
-84.3454587678
 20
34.4020464285
 10
-84.2936597761
 20
34.4179312925
 10
-84.2376260003
 20
34.4320875892
 10
-84.1778855412
 20
34.4442046765
 10
-84.114318421
 20
34.4545072393
 10
-84.0470439562
 20
34.4631750229
 10
-83.976949017
 20
34.4700639824
 10
-83.9043761685
 20
34.4753925123
 10
-83.8289823503
 20
34.4794772016
 10
-83.7506259709
 20
34.4824214011
 10
-83.669259763
 20
34.4843797309
 10
-83.5849307945
 20
34.4855226042
 10
-83.4976390218
 20
34.4859320946
  0
LWPOLYLINE
  5
2B1
100
AcDbEntity
  8
IMPORT_IGES
100
AcDbPolyline
 62
250
  6
CONTINUOUS
 90
70
 70
0
 10
-83.4975938773
 20
30.0139049242
 10
-83.5830594664
 20
30.0142986479
 10
-83.6656122841
 20
30.0153890531
 10
-83.7452523699
 20
30.0172507761
 10
-83.821893238
 20
30.0200363386
 10
-83.8956215532
 20
30.0238876731
 10
-83.9666971235
 20
30.0289072157
 10
-84.0354285028
 20
30.0353789853
 10
-84.1015075826
 20
30.0435116613
 10
-84.1642691697
 20
30.0532213561
 10
-84.2236977528
 20
30.0647091878
 10
-84.2798094822
 20
30.0781903048
 10
-84.3319865252
 20
30.0934050277
 10
-84.3799341138
 20
30.1103230726
 10
-84.423947628
 20
30.1291610186
 10
-84.4642943272
 20
30.1498852066
 10
-84.5007475993
 20
30.1723786577
 10
-84.5335347298
 20
30.1968661925
 10
-84.5636039788
 20
30.2238691247
 10
-84.5910488
 20
30.2536443847
 10
-84.6157770431
 20
30.2861910789
 10
-84.6384588466
 20
30.3217209073
 10
-84.6594369857
 20
30.361092202
 10
-84.6783706508
 20
30.4037026506
 10
-84.6949037029
 20
30.4472821728
 10
-84.7087486026
 20
30.4907335783
 10
-84.720192373
 20
30.5346940437
 10
-84.7297397393
 20
30.5792540307
 10
-84.7372079866
 20
30.6234582672
 10
-84.7427793958
 20
30.6679345085
 10
-84.7475074119
 20
30.7153271832
 10
-84.7517737149
 20
30.7667544584
 10
-84.7551991551
 20
30.8210654412
 10
-84.7576968739
 20
30.8775796481
 10
-84.7592977826
 20
30.936581572
 10
-84.7599729464
 20
30.9974708362
 10
-84.7595444559
 20
31.0581578899
 10
-84.7578637291
 20
31.1185156708
 10
-84.7550790805
 20
31.1782297278
 10
-84.7514557567
 20
31.2349839664
 10
-84.7474242577
 20
31.2871163897
 10
-84.7425510467
 20
31.3361735339
 10
-84.7358054378
 20
31.3846409571
 10
-84.7271862705
 20
31.432812826
 10
-84.7166948022
 20
31.4800698609
 10
-84.7033056309
 20
31.5273022658
 10
-84.6866100506
 20
31.5754246938
 10
-84.6670179323
 20
31.6228562571
 10
-84.6447308864
 20
31.6669473337
 10
-84.6198717422
 20
31.7072527482
 10
-84.5923156455
 20
31.7443464747
 10
-84.5618911058
 20
31.7776024264
 10
-84.5284666098
 20
31.8069602458
 10
-84.4921715515
 20
31.8329774091
 10
-84.4532256893
 20
31.8560681737
 10
-84.4118402133
 20
31.8763821249
 10
-84.3678026533
 20
31.8942034477
 10
-84.3206975891
 20
31.9100407937
 10
-84.270407413
 20
31.9241827562
 10
-84.217049088
 20
31.936594066
 10
-84.1605591747
 20
31.9472671094
 10
-84.1009545606
 20
31.9564267506
 10
-84.0382178411
 20
31.964182486
 10
-83.972234089
 20
31.9704625933
 10
-83.9033450717
 20
31.9754714807
 10
-83.8312086436
 20
31.9794119185
 10
-83.7546839859
 20
31.9822955552
 10
-83.6733907572
 20
31.9842419721
 10
-83.5877091161
 20
31.9854281191
 10
-83.4976390208
 20
31.9859320946
  0
LWPOLYLINE
  5
2B2
100
AcDbEntity
  8
0
100
AcDbPolyline
 62
7
  6
CONTINUOUS
 90
3
 70
0
 43
0.3500000006
 10
96.5275287781
 20
1.3571423035
 10
96.7418223267
 20
1.2857133865
 10
97.0275289307
 20
1.1428578186
  0
LINE
  5
2B3
100
AcDbEntity
  8
IMPORT_IGES
100
AcDbLine
 62
250
  6
CONTINUOUS
 10
84.9257616671
 20
-38.2554818008
 11
85.1505984761
 21
-38.4479379467
  0
LINE
  5
2B4
100
AcDbEntity
  8
IMPORT_IGES
100
AcDbLine
 62
7
  6
CONTINUOUS
 10
84.925761986
 20
28.7550912128
 11
85.1505984761
 21
28.9475536033
  0
LINE
  5
2B5
100
AcDbEntity
  8
IMPORT_IGES
100
AcDbLine
 62
7
  6
CONTINUOUS
 10
85.4155641762
 20
28.7463636257
 11
85.6505963208
 21
28.9475536033
  0
LWPOLYLINE
  5
2B6
100
AcDbEntity
  8
IMPORT_IGES
100
AcDbPolyline
 62
250
  6
CONTINUOUS
 90
79
 70
0
 10
-83.498128332
 20
32.1831347547
 10
-83.5795714234
 20
32.1826246493
 10
-83.6592463307
 20
32.1815566447
 10
-83.7369469592
 20
32.1799307409
 10
-83.8122810296
 20
32.1779727793
 10
-83.8853111651
 20
32.1754569186
 10
-83.9565280357
 20
32.171705635
 10
-84.0248173704
 20
32.1667742883
 10
-84.0910698534
 20
32.1606075188
 10
-84.158576191
 20
32.1523617237
 10
-84.230215292
 20
32.1414497877
 10
-84.3021593817
 20
32.1284588262
 10
-84.3679910173
 20
32.1143065824
 10
-84.4258943423
 20
32.0994879708
 10
-84.4782939807
 20
32.0835080769
 10
-84.5257769116
 20
32.0657998999
 10
-84.5677818086
 20
32.0465138529
 10
-84.6054562314
 20
32.0254995229
 10
-84.6416105505
 20
32.0017386702
 10
-84.6773594045
 20
31.9746688256
 10
-84.7113872383
 20
31.9448524584
 10
-84.742698437
 20
31.912958737
 10
-84.7713303805
 20
31.8791306213
 10
-84.7974925037
 20
31.8432251514
 10
-84.8207205637
 20
31.805482616
 10
-84.8409748337
 20
31.7661753837
 10
-84.8587831621
 20
31.7250310858
 10
-84.874589544
 20
31.6814729045
 10
-84.8886306513
 20
31.6353422529
 10
-84.9009821868
 20
31.5867977179
 10
-84.9117928041
 20
31.5357382417
 10
-84.921278285
 20
31.4819143766
 10
-84.9294906929
 20
31.4255755704
 10
-84.936357916
 20
31.3673691083
 10
-84.9420338646
 20
31.3071690773
 10
-84.9466376154
 20
31.2451013905
 10
-84.9500841039
 20
31.1821910722
 10
-84.9524529527
 20
31.1185076647
 10
-84.9538521761
 20
31.0539816258
 10
-84.9542275255
 20
30.9894293534
 10
-84.9535270112
 20
30.924848584
 10
-84.9517901892
 20
30.8602415811
 10
-84.9490545731
 20
30.7964315327
 10
-84.9451964876
 20
30.7333031998
 10
-84.9401280349
 20
30.6709718213
 10
-84.9339322041
 20
30.6106063025
 10
-84.9264832787
 20
30.5523767894
 10
-84.9176167331
 20
30.4961131361
 10
-84.9074019121
 20
30.4424738089
 10
-84.8957847954
 20
30.39171917
 10
-84.8825400806
 20
30.3435888573
 10
-84.8675061412
 20
30.2979602513
 10
-84.8505776733
 20
30.2549823016
 10
-84.8315322567
 20
30.2145060587
 10
-84.8099891555
 20
30.1759620545
 10
-84.7853783953
 20
30.1390513446
 10
-84.7577931139
 20
30.1040728734
 10
-84.7279556907
 20
30.0713540056
 10
-84.6958553339
 20
30.0408428795
 10
-84.6613723731
 20
30.0125913569
 10
-84.6253428951
 20
29.9870823879
 10
-84.589119514
 20
29.9648825483
 10
-84.5515758155
 20
29.9454252623
 10
-84.5096152707
 20
29.9274937529
 10
-84.4617465846
 20
29.9108142829
 10
-84.4088404265
 20
29.8956605894
 10
-84.3510656028
 20
29.8816371061
 10
-84.2865698099
 20
29.8683372293
 10
-84.2167792672
 20
29.8561675628
 10
-84.1473927516
 20
29.845952351
 10
-84.0819811263
 20
29.8382430984
 10
-84.0178283512
 20
29.8324883006
 10
-83.9514575004
 20
29.8278576888
 10
-83.8819397022
 20
29.8242714975
 10
-83.8103801977
 20
29.8218094921
 10
-83.7361473755
 20
29.8198807004
 10
-83.6591188219
 20
29.8182881318
 10
-83.5797129893
 20
29.8172287768
 10
-83.498128332
 20
29.8167026356
  0
LWPOLYLINE
  5
2B7
100
AcDbEntity
  8
IMPORT_IGES
100
AcDbPolyline
 62
250
  6
CONTINUOUS
 90
79
 70
0
 10
-83.498128332
 20
34.6831347547
 10
-83.5793514573
 20
34.6826271272
 10
-83.6588297305
 20
34.6815642093
 10
-83.7363583518
 20
34.6799460009
 10
-83.8115405114
 20
34.6779976477
 10
-83.8844446741
 20
34.6754940041
 10
-83.9555772225
 20
34.6717596332
 10
-84.0238038921
 20
34.6668595927
 10
-84.0900333988
 20
34.6607288249
 10
-84.1576242497
 20
34.652496719
 10
-84.2295098817
 20
34.6415634431
 10
-84.3017859487
 20
34.6285288292
 10
-84.3679125309
 20
34.6143217627
 10
-84.4260166923
 20
34.5994569165
 10
-84.4785876589
 20
34.5834196177
 10
-84.5262789935
 20
34.5655947333
 10
-84.5685535452
 20
34.5461193797
 10
-84.6065226702
 20
34.5248564405
 10
-84.64296563
 20
34.5007794334
 10
-84.6790101626
 20
34.4733083285
 10
-84.7133159691
 20
34.4430231557
 10
-84.7448133622
 20
34.4106375215
 10
-84.7735265632
 20
34.376300971
 10
-84.7997004128
 20
34.3398639593
 10
-84.8228841726
 20
34.301591458
 10
-84.8430466034
 20
34.2617468392
 10
-84.8607257809
 20
34.2200667308
 10
-84.876379722
 20
34.1760259892
 10
-84.8902498556
 20
34.1294714044
 10
-84.9024175382
 20
34.0805561864
 10
-84.913042782
 20
34.0292148218
 10
-84.9223408482
 20
33.9752216155
 10
-84.9303685437
 20
33.9188022625
 10
-84.937067948
 20
33.860568335
 10
-84.9425935433
 20
33.800400618
 10
-84.9470594973
 20
33.7384183265
 10
-84.9503824185
 20
33.6755906772
 10
-84.952638119
 20
33.6119442394
 10
-84.953931373
 20
33.5474524438
 10
-84.9542086982
 20
33.4830047995
 10
-84.953411039
 20
33.4186139054
 10
-84.9515776318
 20
33.3542671624
 10
-84.9487580797
 20
33.2908162827
 10
-84.9448339263
 20
33.2281867029
 10
-84.9397127925
 20
33.1664529862
 10
-84.9334782277
 20
33.1066905342
 10
-84.9260144977
 20
33.0490721418
 10
-84.9171546829
 20
32.993425014
 10
-84.9069467534
 20
32.9403061676
 10
-84.8953363293
 20
32.8899438104
 10
-84.8820985608
 20
32.8421097345
 10
-84.8670421072
 20
32.7966763332
 10
-84.8500496665
 20
32.7537751455
 10
-84.8308983365
 20
32.7132746323
 10
-84.8091868448
 20
32.6746525696
 10
-84.7843066452
 20
32.6375919669
 10
-84.7563657022
 20
32.6024098146
 10
-84.7261564452
 20
32.5695348601
 10
-84.6937034161
 20
32.5389500477
 10
-84.658860897
 20
32.5106724331
 10
-84.6224553579
 20
32.4851819305
 10
-84.585849464
 20
32.4630599293
 10
-84.5479108842
 20
32.4437250402
 10
-84.5055034885
 20
32.4259130092
 10
-84.4570344621
 20
32.4093226697
 10
-84.4034643335
 20
32.3942551884
 10
-84.3452340852
 20
32.3803498112
 10
-84.2806517694
 20
32.3672245272
 10
-84.211047489
 20
32.3552613472
 10
-84.1420154206
 20
32.3452455501
 10
-84.0771437535
 20
32.3377269951
 10
-84.0137010798
 20
32.332155823
 10
-83.948029399
 20
32.3276677347
 10
-83.8791276833
 20
32.324161761
 10
-83.8081603775
 20
32.321738871
 10
-83.7345076436
 20
32.3198376733
 10
-83.658048349
 20
32.3182710372
 10
-83.5791906554
 20
32.3172260932
 10
-83.498128332
 20
32.3167028415
  0
LWPOLYLINE
  5
2B8
100
AcDbEntity
  8
IMPORT_IGES
100
AcDbPolyline
 62
250
  6
CONTINUOUS
 90
79
 70
0
 10
-83.498128332
 20
37.1831347547
 10
-83.5793514573
 20
37.1826271272
 10
-83.6588297304
 20
37.1815642093
 10
-83.7363583518
 20
37.1799460009
 10
-83.8115405115
 20
37.1779976477
 10
-83.8844446743
 20
37.1754940041
 10
-83.9555772227
 20
37.1717596331
 10
-84.0238038925
 20
37.1668595927
 10
-84.0900333993
 20
37.1607288248
 10
-84.1576242503
 20
37.152496719
 10
-84.2295098823
 20
37.1415634431
 10
-84.3017859492
 20
37.1285288292
 10
-84.3679125313
 20
37.1143217627
 10
-84.4260166926
 20
37.0994569164
 10
-84.4785876592
 20
37.0834196176
 10
-84.5262789938
 20
37.0655947331
 10
-84.5685535455
 20
37.0461193795
 10
-84.6065226706
 20
37.0248564403
 10
-84.6429656305
 20
37.0007794331
 10
-84.679010163
 20
36.9733083282
 10
-84.7133159695
 20
36.9430231553
 10
-84.7448133626
 20
36.9106375212
 10
-84.7735265635
 20
36.8763009707
 10
-84.799700413
 20
36.8398639589
 10
-84.8228841728
 20
36.8015914576
 10
-84.8430466036
 20
36.7617468387
 10
-84.8607257811
 20
36.7200667302
 10
-84.8763797222
 20
36.6760259886
 10
-84.8902498558
 20
36.6294714037
 10
-84.9024175384
 20
36.5805561856
 10
-84.9130427822
 20
36.5292148209
 10
-84.9223408483
 20
36.4752216145
 10
-84.9303685438
 20
36.4188022615
 10
-84.9370679481
 20
36.360568334
 10
-84.9425935434
 20
36.3004006169
 10
-84.9470594974
 20
36.2384183254
 10
-84.9503824185
 20
36.1755906761
 10
-84.9526381191
 20
36.1119442383
 10
-84.953931373
 20
36.0474524427
 10
-84.9542086982
 20
35.9830047984
 10
-84.953411039
 20
35.9186139043
 10
-84.9515776318
 20
35.8542671613
 10
-84.9487580796
 20
35.7908162815
 10
-84.9448339262
 20
35.7281867017
 10
-84.9397127923
 20
35.666452985
 10
-84.9334782276
 20
35.606690533
 10
-84.9260144975
 20
35.5490721405
 10
-84.9171546826
 20
35.4934250127
 10
-84.9069467532
 20
35.4403061663
 10
-84.8953363289
 20
35.3899438091
 10
-84.8820985604
 20
35.3421097334
 10
-84.8670421068
 20
35.2966763321
 10
-84.8500496661
 20
35.2537751445
 10
-84.8308983361
 20
35.2132746314
 10
-84.8091868444
 20
35.1746525688
 10
-84.7843066447
 20
35.1375919662
 10
-84.7563657017
 20
35.102409814
 10
-84.7261564447
 20
35.0695348595
 10
-84.6937034156
 20
35.0389500473
 10
-84.6588608965
 20
35.0106724327
 10
-84.6224553575
 20
34.9851819302
 10
-84.5858494636
 20
34.9630599291
 10
-84.5479108839
 20
34.94372504
 10
-84.5055034882
 20
34.9259130091
 10
-84.4570344618
 20
34.9093226697
 10
-84.4034643333
 20
34.8942551884
 10
-84.3452340849
 20
34.8803498112
 10
-84.2806517692
 20
34.8672245271
 10
-84.2110474887
 20
34.8552613471
 10
-84.1420154204
 20
34.84524555
 10
-84.0771437533
 20
34.8377269951
 10
-84.0137010796
 20
34.832155823
 10
-83.9480293989
 20
34.8276677347
 10
-83.8791276832
 20
34.8241617609
 10
-83.8081603774
 20
34.821738871
 10
-83.7345076435
 20
34.8198376733
 10
-83.658048349
 20
34.8182710372
 10
-83.5791906553
 20
34.8172260932
 10
-83.498128332
 20
34.8167028415
  0
LINE
  5
2B9
100
AcDbEntity
  8
IMPORT_IGES
100
AcDbLine
 62
250
  6
CONTINUOUS
 10
83.4221584724
 20
32.5139055016
 11
-83.4976389667
 21
32.5139055016
  0
LINE
  5
2BA
100
AcDbEntity
  8
IMPORT_IGES
100
AcDbLine
 62
250
  6
CONTINUOUS
 10
83.4216691317
 20
34.6831347583
 11
-83.498128332
 21
34.6831347547
  0
LINE
  5
2BB
100
AcDbEntity
  8
IMPORT_IGES
100
AcDbLine
 62
250
  6
CONTINUOUS
 10
-83.498128332
 20
34.8167028393
 11
83.421669164
 21
34.8167028393
  0
LINE
  5
2BC
100
AcDbEntity
  8
IMPORT_IGES
100
AcDbLine
 62
250
  6
CONTINUOUS
 10
83.467801203
 20
35.0140777393
 11
-83.4976389667
 21
35.0139055016
  0
LINE
  5
2BD
100
AcDbEntity
  8
IMPORT_IGES
100
AcDbLine
 62
250
  6
CONTINUOUS
 10
83.4216691318
 20
37.1831347583
 11
-83.498128332
 21
37.183134759
  0
LINE
  5
2BE
100
AcDbEntity
  8
IMPORT_IGES
100
AcDbLine
 62
250
  6
CONTINUOUS
 10
-84.9935659875
 20
38.2553193971
 11
84.9257618266
 21
38.2553193971
  0
LWPOLYLINE
  5
2BF
100
AcDbEntity
  8
IMPORT_IGES
100
AcDbPolyline
 62
250
  6
CONTINUOUS
 90
136
 70
0
 10
-83.4976389667
 20
34.4859320946
 10
83.4644244973
 20
34.4858359605
 10
83.5062667547
 20
34.4855453788
 10
83.5476856911
 20
34.4850544564
 10
83.5886706865
 20
34.4843502671
 10
83.6292323484
 20
34.4834220098
 10
83.6694025125
 20
34.4822619289
 10
83.7091795666
 20
34.4808527873
 10
83.748565096
 20
34.4791677884
 10
83.7875957285
 20
34.4771805082
 10
83.8262952774
 20
34.4748612565
 10
83.8646398818
 20
34.4721751971
 10
83.9025946513
 20
34.4690829676
 10
83.9402847562
 20
34.4655216915
 10
83.9775849458
 20
34.4614668144
 10
84.0140846985
 20
34.456942094
 10
84.0497972028
 20
34.4518942236
 10
84.0847091712
 20
34.4462963764
 10
84.1183703871
 20
34.4402400595
 10
84.1507148405
 20
34.4337169649
 10
84.1818084563
 20
34.4266923555
 10
84.211398952
 20
34.4192522611
 10
84.239394845
 20
34.4113985752
 10
84.2658875535
 20
34.4031154452
 10
84.2908991768
 20
34.394488357
 10
84.3143071093
 20
34.3855719491
 10
84.3362339248
 20
34.3763237692
 10
84.3570694977
 20
34.3666887687
 10
84.3768460154
 20
34.3566778665
 10
84.395531235
 20
34.3462779659
 10
84.4134183575
 20
34.3353824283
 10
84.4305722515
 20
34.3239492546
 10
84.4469279454
 20
34.3119976797
 10
84.4625838569
 20
34.2995023521
 10
84.4775461765
 20
34.2864540328
 10
84.4918085964
 20
34.2728408254
 10
84.5054507757
 20
34.2586310418
 10
84.5184691021
 20
34.2438305384
 10
84.5308670503
 20
34.2284127507
 10
84.542734887
 20
34.2122910322
 10
84.55408806
 20
34.195441281
 10
84.5649109312
 20
34.1778587771
 10
84.5752471077
 20
34.1594782159
 10
84.5851061406
 20
34.1402361999
 10
84.5944782342
 20
34.120164791
 10
84.6033779779
 20
34.0993459799
 10
84.6118040852
 20
34.0777682051
 10
84.619757621
 20
34.0554329681
 10
84.6272567459
 20
34.032456155
 10
84.6343179771
 20
34.0088565441
 10
84.6409246213
 20
33.9846268763
 10
84.6470450687
 20
33.959856113
 10
84.6526622116
 20
33.9345752964
 10
84.6577930192
 20
33.9087793987
 10
84.6624570235
 20
33.8825096757
 10
84.6666236402
 20
33.8558156367
 10
84.6703233341
 20
33.8286819046
 10
84.6736671999
 20
33.8010525586
 10
84.6766753565
 20
33.7729116513
 10
84.679327521
 20
33.7443099729
 10
84.681674174
 20
33.715291949
 10
84.6837377482
 20
33.6858332125
 10
84.6854956622
 20
33.656001968
 10
84.6869309267
 20
33.6259864904
 10
84.6880345753
 20
33.5958515158
 10
84.6888155384
 20
33.5655869453
 10
84.6892837321
 20
33.5352722475
 10
84.6894398917
 20
33.5049831064
 10
84.6892832902
 20
33.4746997368
 10
84.6888216435
 20
33.4443588284
 10
84.6880593131
 20
33.4139323481
 10
84.6869918934
 20
33.3835056276
 10
84.6856139505
 20
33.353185361
 10
84.6839156873
 20
33.3229173993
 10
84.6819069094
 20
33.2928135531
 10
84.6796116986
 20
33.2632227387
 10
84.6770511353
 20
33.2342200555
 10
84.6742043559
 20
33.2057688917
 10
84.6710326546
 20
33.1780380201
 10
84.6675718234
 20
33.1511224307
 10
84.6637863649
 20
33.1249438465
 10
84.6595306499
 20
33.0994070611
 10
84.6547873555
 20
33.0745409778
 10
84.6495740246
 20
33.0503293732
 10
84.6437972607
 20
33.0266166775
 10
84.6374417009
 20
33.0034315221
 10
84.6305228445
 20
32.9807631288
 10
84.6229934998
 20
32.9584117578
 10
84.6148564951
 20
32.9363453326
 10
84.6061090332
 20
32.9146329929
 10
84.5966954239
 20
32.893239643
 10
84.5865814281
 20
32.8720981258
 10
84.5758012955
 20
32.8513210927
 10
84.5644021095
 20
32.8311323016
 10
84.5523608003
 20
32.8115302532
 10
84.5397005663
 20
32.7925286143
 10
84.5265379942
 20
32.7743417604
 10
84.5128625422
 20
32.756952356
 10
84.4986849693
 20
32.7403499611
 10
84.4841539044
 20
32.7247224869
 10
84.4692934554
 20
32.7100817281
 10
84.4540797923
 20
32.6963433755
 10
84.4385896829
 20
32.6835269868
 10
84.422912633
 20
32.6716507446
 10
84.4069593821
 20
32.6606123222
 10
84.3905385245
 20
32.6502567815
 10
84.3737051241
 20
32.6405688253
 10
84.356404269
 20
32.6315063962
 10
84.3382795367
 20
32.622899561
 10
84.3194057873
 20
32.6147518477
 10
84.2997082435
 20
32.6070303694
 10
84.2786059715
 20
32.5995428017
 10
84.2560243979
 20
32.5922447925
 10
84.2320381112
 20
32.5851927481
 10
84.2062898893
 20
32.5783668218
 10
84.1785187832
 20
32.5717186085
 10
84.1489857516
 20
32.5653157348
 10
84.1181164531
 20
32.559296438
 10
84.0858886343
 20
32.5536538384
 10
84.0523246056
 20
32.5483708661
 10
84.0179169061
 20
32.5435353238
 10
83.982727201
 20
32.5391187447
 10
83.9466938976
 20
32.5350958893
 10
83.9101246706
 20
32.5315291947
 10
83.8731162166
 20
32.5284006189
 10
83.835571912
 20
32.5256515211
 10
83.7975094587
 20
32.5232687052
 10
83.7590221926
 20
32.5212268605
 10
83.7200168263
 20
32.5194868071
 10
83.6802311226
 20
32.5180166978
 10
83.639668323
 20
32.5167864463
 10
83.5983252128
 20
32.51578322
 10
83.5559298661
 20
32.515004968
 10
83.5123916458
 20
32.5144418313
 10
83.467801203
 20
32.5140777393
 10
83.4221585411
 20
32.5139055016
  0
LWPOLYLINE
  5
2C0
100
AcDbEntity
  8
IMPORT_IGES
100
AcDbPolyline
 62
250
  6
CONTINUOUS
 90
135
 70
0
 10
-83.4976389667
 20
36.9859320946
 10
83.4644244954
 20
36.9858359605
 10
83.5062667512
 20
36.9855453788
 10
83.5476856867
 20
36.9850544565
 10
83.588670682
 20
36.9843502672
 10
83.6292323445
 20
36.9834220099
 10
83.669402509
 20
36.982261929
 10
83.7091795633
 20
36.9808527874
 10
83.7485650929
 20
36.9791677885
 10
83.7875957255
 20
36.9771805084
 10
83.8262952745
 20
36.9748612567
 10
83.8646398789
 20
36.9721751973
 10
83.9025946485
 20
36.9690829678
 10
83.9402847534
 20
36.9655216917
 10
83.9775849431
 20
36.9614668147
 10
84.0140846959
 20
36.9569420943
 10
84.0497972003
 20
36.9518942239
 10
84.0847091688
 20
36.9462963768
 10
84.1183703849
 20
36.94024006
 10
84.1507148384
 20
36.9337169654
 10
84.1818084543
 20
36.9266923559
 10
84.2113989502
 20
36.9192522616
 10
84.2393948433
 20
36.9113985758
 10
84.2658875519
 20
36.9031154457
 10
84.2908991752
 20
36.8944883576
 10
84.3143071078
 20
36.8855719497
 10
84.3362339234
 20
36.8763237698
 10
84.3570694964
 20
36.8666887694
 10
84.3768460141
 20
36.8566778672
 10
84.3955312338
 20
36.8462779666
 10
84.4134183563
 20
36.835382429
 10
84.4305722503
 20
36.8239492554
 10
84.4469279444
 20
36.8119976806
 10
84.4625838558
 20
36.7995023529
 10
84.4775461756
 20
36.7864540337
 10
84.4918085955
 20
36.7728408264
 10
84.5054507748
 20
36.7586310427
 10
84.5184691013
 20
36.7438305394
 10
84.5308670495
 20
36.7284127518
 10
84.5427348863
 20
36.7122910332
 10
84.5540880593
 20
36.6954412821
 10
84.5649109306
 20
36.6778587782
 10
84.5752471071
 20
36.6594782171
 10
84.58510614
 20
36.640236201
 10
84.5944782337
 20
36.6201647922
 10
84.6033779774
 20
36.5993459811
 10
84.6118040847
 20
36.5777682063
 10
84.6197576206
 20
36.5554329694
 10
84.6272567455
 20
36.5324561563
 10
84.6343179767
 20
36.5088565455
 10
84.640924621
 20
36.4846268777
 10
84.6470450684
 20
36.4598561144
 10
84.6526622113
 20
36.4345752979
 10
84.6577930189
 20
36.4087794002
 10
84.6624570232
 20
36.3825096773
 10
84.66662364
 20
36.3558156383
 10
84.6703233339
 20
36.3286819062
 10
84.6736671997
 20
36.3010525602
 10
84.6766753563
 20
36.2729116529
 10
84.6793275209
 20
36.2443099745
 10
84.6816741738
 20
36.2152919506
 10
84.6837377481
 20
36.185833214
 10
84.6854956621
 20
36.1560019695
 10
84.6869309266
 20
36.1259864919
 10
84.6880345752
 20
36.0958515173
 10
84.6888155383
 20
36.0655869468
 10
84.689283732
 20
36.035272249
 10
84.6894398917
 20
36.0049831078
 10
84.6892832902
 20
35.9746997383
 10
84.6888216435
 20
35.9443588298
 10
84.6880593131
 20
35.9139323495
 10
84.6869918935
 20
35.8835056289
 10
84.6856139506
 20
35.8531853623
 10
84.6839156874
 20
35.8229174006
 10
84.6819069095
 20
35.7928135544
 10
84.6796116988
 20
35.76322274
 10
84.6770511355
 20
35.7342200568
 10
84.6742043561
 20
35.705768893
 10
84.6710326547
 20
35.6780380214
 10
84.6675718236
 20
35.6511224319
 10
84.6637863651
 20
35.6249438477
 10
84.6595306502
 20
35.5994070622
 10
84.6547873557
 20
35.5745409788
 10
84.6495740249
 20
35.5503293742
 10
84.6437972609
 20
35.5266166785
 10
84.6374417011
 20
35.503431523
 10
84.6305228447
 20
35.4807631296
 10
84.6229935
 20
35.4584117587
 10
84.6148564954
 20
35.4363453333
 10
84.6061090334
 20
35.4146329936
 10
84.5966954242
 20
35.3932396437
 10
84.5865814284
 20
35.3720981264
 10
84.5758012957
 20
35.3513210933
 10
84.5644021098
 20
35.3311323021
 10
84.5523608006
 20
35.3115302537
 10
84.5397005666
 20
35.2925286148
 10
84.5265379946
 20
35.2743417608
 10
84.5128625426
 20
35.2569523564
 10
84.4986849697
 20
35.2403499615
 10
84.4841539049
 20
35.2247224873
 10
84.4692934558
 20
35.2100817285
 10
84.4540797928
 20
35.1963433759
 10
84.4385896834
 20
35.1835269871
 10
84.4229126335
 20
35.171650745
 10
84.4069593827
 20
35.1606123226
 10
84.390538525
 20
35.1502567818
 10
84.3737051246
 20
35.1405688256
 10
84.3564042696
 20
35.1315063965
 10
84.3382795373
 20
35.1228995613
 10
84.3194057879
 20
35.114751848
 10
84.2997082441
 20
35.1070303696
 10
84.2786059721
 20
35.0995428019
 10
84.2560243985
 20
35.0922447926
 10
84.2320381117
 20
35.0851927483
 10
84.2062898899
 20
35.0783668219
 10
84.1785187838
 20
35.0717186086
 10
84.1489857521
 20
35.0653157349
 10
84.1181164535
 20
35.0592964381
 10
84.0858886348
 20
35.0536538385
 10
84.0523246061
 20
35.0483708662
 10
84.0179169064
 20
35.0435353239
 10
83.9827272013
 20
35.0391187448
 10
83.9466938979
 20
35.0350958893
 10
83.9101246709
 20
35.0315291947
 10
83.8731162169
 20
35.0284006189
 10
83.8355719122
 20
35.0256515211
 10
83.7975094589
 20
35.0232687053
 10
83.7590221927
 20
35.0212268605
 10
83.7200168264
 20
35.0194868071
 10
83.6802311226
 20
35.0180166978
 10
83.6396683231
 20
35.0167864463
 10
83.5983252128
 20
35.01578322
 10
83.5559298661
 20
35.015004968
 10
83.5123916458
 20
35.0144418313
 10
83.467801203
 20
35.0140777393
  0
LWPOLYLINE
  5
2C1
100
AcDbEntity
  8
IMPORT_IGES
100
AcDbPolyline
 62
250
  6
CONTINUOUS
 90
70
 70
0
 10
-83.4976390225
 20
35.0139055016
 10
-83.5838106929
 20
35.0142997796
 10
-83.6671500113
 20
35.0154126595
 10
-83.7476570193
 20
35.0173226638
 10
-83.8252781965
 20
35.0201889049
 10
-83.9000672534
 20
35.0241634062
 10
-83.9721851234
 20
35.0293616974
 10
-84.0419556687
 20
35.0360918456
 10
-84.1090555087
 20
35.0445726097
 10
-84.1726747045
 20
35.0547044157
 10
-84.2327593679
 20
35.0666932815
 10
-84.2893640695
 20
35.0807659131
 10
-84.3418414081
 20
35.0966365832
 10
-84.3898672172
 20
35.1142636699
 10
-84.4337663024
 20
35.133869611
 10
-84.4738645734
 20
35.1554084045
 10
-84.5099010733
 20
35.1787223
 10
-84.5421374422
 20
35.2040616104
 10
-84.5716836756
 20
35.2320492552
 10
-84.5987156796
 20
35.2630671252
 10
-84.6230590019
 20
35.2970206953
 10
-84.6452983346
 20
35.333874805
 10
-84.6657471309
 20
35.3743820591
 10
-84.6840937913
 20
35.4179784667
 10
-84.6999843819
 20
35.4623294957
 10
-84.7130736
 20
35.5061391677
 10
-84.7237059793
 20
35.5501952124
 10
-84.7325615533
 20
35.5950960648
 10
-84.7395417134
 20
35.6401116106
 10
-84.7447449412
 20
35.6856923976
 10
-84.7491483435
 20
35.7344097632
 10
-84.7531479602
 20
35.7875028867
 10
-84.7563505945
 20
35.8436902492
 10
-84.7585501985
 20
35.9018102302
 10
-84.7597047935
 20
35.9620270703
 10
-84.7598580807
 20
36.0238105988
 10
-84.7589308811
 20
36.0848761735
 10
-84.7568222958
 20
36.1449588821
 10
-84.7536324266
 20
36.2038952071
 10
-84.7495814384
 20
36.2596318952
 10
-84.745064856
 20
36.3106702152
 10
-84.7396840287
 20
36.3584410412
 10
-84.7324680372
 20
36.4052792763
 10
-84.7232930108
 20
36.4515793922
 10
-84.7122826523
 20
36.4966827219
 10
-84.6988387799
 20
36.5411588342
 10
-84.6825955263
 20
36.5857978371
 10
-84.6639192286
 20
36.6293509341
 10
-84.6433092207
 20
36.6695343656
 10
-84.6211184861
 20
36.7057551999
 10
-84.5969919528
 20
36.7388793673
 10
-84.570365947
 20
36.7691070006
 10
-84.5414782039
 20
36.7963655018
 10
-84.5100895697
 20
36.8210230878
 10
-84.4749214093
 20
36.8438298856
 10
-84.4356986629
 20
36.8650607059
 10
-84.3926958148
 20
36.884491307
 10
-84.3454587677
 20
36.9020464286
 10
-84.293659776
 20
36.9179312925
 10
-84.2376260003
 20
36.9320875892
 10
-84.1778855411
 20
36.9442046765
 10
-84.114318421
 20
36.9545072393
 10
-84.0470439562
 20
36.9631750229
 10
-83.976949017
 20
36.9700639824
 10
-83.9043761685
 20
36.9753925123
 10
-83.8289823504
 20
36.9794772016
 10
-83.7506259709
 20
36.9824214011
 10
-83.6692597631
 20
36.9843797309
 10
-83.5849307945
 20
36.9855226042
 10
-83.4976390218
 20
36.9859320946
  0
LWPOLYLINE
  5
2C2
100
AcDbEntity
  8
IMPORT_IGES
100
AcDbPolyline
 62
250
  6
CONTINUOUS
 90
79
 70
0
 10
83.4216691671
 20
32.1831347626
 10
83.5049490647
 20
32.1823576929
 10
83.5857906164
 20
32.1809998729
 10
83.6639857137
 20
32.1790613026
 10
83.7400971039
 20
32.1765124307
 10
83.8132390917
 20
32.1733828084
 10
83.8811624062
 20
32.1697610901
 10
83.9397879641
 20
32.1662478813
 10
83.9934140207
 20
32.1622425765
 10
84.0520333256
 20
32.1560320124
 10
84.1215347418
 20
32.1467893597
 10
84.1946908884
 20
32.1353414477
 10
84.2620351167
 20
32.1224556021
 10
84.3205725522
 20
32.1084757256
 10
84.3738838896
 20
32.0930579154
 10
84.4231598305
 20
32.0759377885
 10
84.4680920102
 20
32.0575626774
 10
84.5093298531
 20
32.0374852496
 10
84.5491521662
 20
32.014099125
 10
84.5885810486
 20
31.9866095725
 10
84.6263013304
 20
31.9558113231
 10
84.6610233322
 20
31.9224821893
 10
84.6928363714
 20
31.8866348205
 10
84.72189159
 20
31.8482565672
 10
84.7473900678
 20
31.8080872937
 10
84.7692481845
 20
31.76648365
 10
84.788200731
 20
31.723088986
 10
84.8047926613
 20
31.6775732155
 10
84.8192889929
 20
31.6297904071
 10
84.8318364629
 20
31.5798864921
 10
84.8427145965
 20
31.5279691781
 10
84.8521584982
 20
31.4738427367
 10
84.8602381315
 20
31.4177028963
 10
84.8669721016
 20
31.3602445493
 10
84.8725114143
 20
31.3014437022
 10
84.8769724355
 20
31.2413243486
 10
84.8803334569
 20
31.1806533616
 10
84.8826761666
 20
31.1195100947
 10
84.8840867691
 20
31.0578151944
 10
84.8845315318
 20
30.9960974737
 10
84.8839761736
 20
30.9343586944
 10
84.8824512036
 20
30.8725970946
 10
84.8799796735
 20
30.8113362016
 10
84.8764707859
 20
30.7504778963
 10
84.8718386414
 20
30.6901202977
 10
84.8660938891
 20
30.6310812898
 10
84.8591140215
 20
30.5733935318
 10
84.8507418757
 20
30.5170243647
 10
84.840946046
 20
30.462693695
 10
84.82964893
 20
30.4106039953
 10
84.8166064504
 20
30.3605527931
 10
84.8015212216
 20
30.3126525785
 10
84.7842154648
 20
30.2670385216
 10
84.7644295164
 20
30.2235754522
 10
84.7416616831
 20
30.1819703493
 10
84.7151180231
 20
30.1418220335
 10
84.6849307439
 20
30.1035316841
 10
84.652158032
 20
30.0680098177
 10
84.6168327333
 20
30.0353653681
 10
84.578786618
 20
30.0054894015
 10
84.5391904549
 20
29.9789656333
 10
84.4993890628
 20
29.9565836621
 10
84.4583579558
 20
29.9375538893
 10
84.4136047731
 20
29.9200912339
 10
84.3640694856
 20
29.9036331366
 10
84.3104338091
 20
29.8887421568
 10
84.252558258
 20
29.8753208918
 10
84.1880759117
 20
29.8631924346
 10
84.1190349096
 20
29.8525336923
 10
84.0525545913
 20
29.8437779836
 10
83.9942963241
 20
29.8375191688
 10
83.939651841
 20
29.8331633877
 10
83.8804313414
 20
29.8293623786
 10
83.8133218436
 20
29.8256225424
 10
83.7414799298
 20
29.8224374783
 10
83.6661324314
 20
29.8199397219
 10
83.5877971225
 20
29.8181734519
 10
83.5062405389
 20
29.8170944895
 10
83.4216691671
 20
29.8167028349
  0
LWPOLYLINE
  5
2C3
100
AcDbEntity
  8
IMPORT_IGES
100
AcDbPolyline
 62
250
  6
CONTINUOUS
 90
79
 70
0
 10
83.4216691671
 20
34.6831347626
 10
83.5049490648
 20
34.6823576929
 10
83.5857906164
 20
34.6809998729
 10
83.6639857137
 20
34.6790613026
 10
83.7400971038
 20
34.6765124307
 10
83.8132390915
 20
34.6733828084
 10
83.8811624058
 20
34.6697610901
 10
83.9397879635
 20
34.6662478814
 10
83.9934140199
 20
34.6622425766
 10
84.0520333246
 20
34.6560320125
 10
84.1215347407
 20
34.6467893598
 10
84.1946908873
 20
34.6353414479
 10
84.2620351155
 20
34.6224556024
 10
84.3205725511
 20
34.6084757259
 10
84.3738838886
 20
34.5930579157
 10
84.4231598295
 20
34.5759377888
 10
84.4680920093
 20
34.5575626778
 10
84.5093298523
 20
34.5374852501
 10
84.5491521655
 20
34.5140991255
 10
84.5885810478
 20
34.4866095731
 10
84.6263013297
 20
34.4558113237
 10
84.6610233316
 20
34.42248219
 10
84.6928363708
 20
34.3866348212
 10
84.7218915895
 20
34.348256568
 10
84.7473900674
 20
34.3080872945
 10
84.7692481841
 20
34.2664836508
 10
84.7882007307
 20
34.2230889868
 10
84.804792661
 20
34.1775732163
 10
84.8192889927
 20
34.1297904079
 10
84.8318364627
 20
34.0798864929
 10
84.8427145963
 20
34.027969179
 10
84.852158498
 20
33.9738427376
 10
84.8602381314
 20
33.9177028972
 10
84.8669721015
 20
33.8602445502
 10
84.8725114142
 20
33.8014437031
 10
84.8769724354
 20
33.7413243495
 10
84.8803334569
 20
33.6806533624
 10
84.8826761666
 20
33.6195100955
 10
84.8840867691
 20
33.5578151952
 10
84.8845315318
 20
33.4960974744
 10
84.8839761736
 20
33.4343586951
 10
84.8824512036
 20
33.3725970953
 10
84.8799796736
 20
33.3113362022
 10
84.8764707859
 20
33.2504778968
 10
84.8718386414
 20
33.1901202982
 10
84.8660938892
 20
33.1310812904
 10
84.8591140216
 20
33.0733935324
 10
84.8507418757
 20
33.0170243652
 10
84.8409460461
 20
32.9626936955
 10
84.8296489301
 20
32.9106039958
 10
84.8166064505
 20
32.8605527936
 10
84.8015212218
 20
32.8126525789
 10
84.784215465
 20
32.767038522
 10
84.7644295166
 20
32.7235754527
 10
84.7416616834
 20
32.6819703497
 10
84.7151180233
 20
32.6418220338
 10
84.6849307442
 20
32.6035316844
 10
84.6521580323
 20
32.5680098179
 10
84.6168327335
 20
32.5353653683
 10
84.5787866181
 20
32.5054894017
 10
84.5391904551
 20
32.4789656334
 10
84.4993890629
 20
32.4565836622
 10
84.4583579558
 20
32.4375538893
 10
84.4136047731
 20
32.4200912339
 10
84.3640694856
 20
32.4036331366
 10
84.3104338091
 20
32.3887421567
 10
84.2525582579
 20
32.3753208918
 10
84.1880759116
 20
32.3631924346
 10
84.1190349095
 20
32.3525336922
 10
84.0525545912
 20
32.3437779836
 10
83.994296324
 20
32.3375191688
 10
83.9396518409
 20
32.3331633877
 10
83.8804313414
 20
32.3293623786
 10
83.8133218436
 20
32.3256225424
 10
83.7414799298
 20
32.3224374783
 10
83.6661324315
 20
32.3199397219
 10
83.5877971226
 20
32.3181734519
 10
83.5062405389
 20
32.3170944895
 10
83.4216691671
 20
32.3167028349
  0
LWPOLYLINE
  5
2C4
100
AcDbEntity
  8
IMPORT_IGES
100
AcDbPolyline
 62
250
  6
CONTINUOUS
 90
79
 70
0
 10
83.4216691671
 20
37.1831347626
 10
83.5049490648
 20
37.1823576929
 10
83.5857906164
 20
37.1809998729
 10
83.6639857137
 20
37.1790613026
 10
83.7400971039
 20
37.1765124307
 10
83.8132390915
 20
37.1733828084
 10
83.881162406
 20
37.1697610901
 10
83.9397879637
 20
37.1662478814
 10
83.9934140202
 20
37.1622425765
 10
84.052033325
 20
37.1560320125
 10
84.1215347411
 20
37.1467893598
 10
84.1946908877
 20
37.1353414479
 10
84.2620351159
 20
37.1224556023
 10
84.3205725514
 20
37.1084757258
 10
84.373883889
 20
37.0930579156
 10
84.4231598298
 20
37.0759377887
 10
84.4680920096
 20
37.0575626776
 10
84.5093298526
 20
37.0374852499
 10
84.5491521657
 20
37.0140991253
 10
84.5885810481
 20
36.9866095729
 10
84.62630133
 20
36.9558113235
 10
84.6610233318
 20
36.9224821897
 10
84.6928363711
 20
36.8866348209
 10
84.7218915897
 20
36.8482565677
 10
84.7473900675
 20
36.8080872942
 10
84.7692481842
 20
36.7664836505
 10
84.7882007308
 20
36.7230889865
 10
84.8047926611
 20
36.6775732159
 10
84.8192889927
 20
36.6297904076
 10
84.8318364628
 20
36.5798864926
 10
84.8427145964
 20
36.5279691786
 10
84.8521584981
 20
36.4738427373
 10
84.8602381314
 20
36.4177028969
 10
84.8669721015
 20
36.3602445499
 10
84.8725114142
 20
36.3014437028
 10
84.8769724355
 20
36.2413243491
 10
84.8803334569
 20
36.1806533621
 10
84.8826761666
 20
36.1195100952
 10
84.8840867691
 20
36.0578151949
 10
84.8845315318
 20
35.9960974741
 10
84.8839761736
 20
35.9343586948
 10
84.8824512036
 20
35.872597095
 10
84.8799796736
 20
35.8113362019
 10
84.8764707859
 20
35.7504778966
 10
84.8718386414
 20
35.690120298
 10
84.8660938892
 20
35.6310812901
 10
84.8591140215
 20
35.5733935321
 10
84.8507418757
 20
35.5170243649
 10
84.8409460461
 20
35.4626936953
 10
84.82964893
 20
35.4106039956
 10
84.8166064504
 20
35.3605527934
 10
84.8015212217
 20
35.3126525787
 10
84.7842154649
 20
35.2670385219
 10
84.7644295165
 20
35.2235754525
 10
84.7416616833
 20
35.1819703495
 10
84.7151180232
 20
35.1418220337
 10
84.6849307441
 20
35.1035316842
 10
84.6521580322
 20
35.0680098178
 10
84.6168327333
 20
35.0353653682
 10
84.578786618
 20
35.0054894016
 10
84.5391904549
 20
34.9789656333
 10
84.4993890628
 20
34.9565836621
 10
84.4583579557
 20
34.9375538893
 10
84.413604773
 20
34.9200912339
 10
84.3640694856
 20
34.9036331366
 10
84.310433809
 20
34.8887421567
 10
84.2525582579
 20
34.8753208918
 10
84.1880759115
 20
34.8631924346
 10
84.1190349095
 20
34.8525336922
 10
84.0525545911
 20
34.8437779836
 10
83.994296324
 20
34.8375191688
 10
83.9396518409
 20
34.8331633877
 10
83.8804313414
 20
34.8293623786
 10
83.8133218436
 20
34.8256225424
 10
83.7414799298
 20
34.8224374783
 10
83.6661324315
 20
34.8199397219
 10
83.5877971226
 20
34.8181734519
 10
83.5062405389
 20
34.8170944895
 10
83.4216691671
 20
34.8167028349
  0
LINE
  5
2C5
100
AcDbEntity
  8
IMPORT_IGES
100
AcDbLine
 62
7
  6
CONTINUOUS
 10
84.9257619222
 20
-28.7552535619
 11
85.1505984761
 21
-28.9477160071
  0
LINE
  5
2C6
100
AcDbEntity
  8
IMPORT_IGES
100
AcDbLine
 62
7
  6
CONTINUOUS
 10
85.6505963208
 20
-28.9477160071
 11
85.4155641762
 21
-28.7465260295
  0
LWPOLYLINE
  5
2C7
100
AcDbEntity
  8
0
100
AcDbPolyline
 62
7
  6
CONTINUOUS
 90
10
 70
0
 43
0.3500000006
 10
96.3132442932
 20
1.2857133865
 10
96.4561066589
 20
1.3571423035
 10
96.5275287781
 20
1.3571423035
 10
96.6703911438
 20
1.2142867355
 10
96.6703911438
 20
1.1428578186
 10
96.5989599609
 20
1.0714289017
 10
96.5275287781
 20
1.0714289017
 10
96.3846754761
 20
1.1428578186
 10
96.3132442932
 20
1.2142867355
 10
96.3132442932
 20
1.2857133865
  0
LWPOLYLINE
  5
2C8
100
AcDbEntity
  8
IMPORT_IGES
100
AcDbPolyline
 62
250
  6
CONTINUOUS
 90
31
 70
0
 10
-83.4938009098
 20
39.7550909398
 10
-83.5722811427
 20
39.7530124552
 10
-83.6505461618
 20
39.7468304997
 10
-83.7283815316
 20
39.7365620078
 10
-83.805573995
 20
39.7222351097
 10
-83.8819120529
 20
39.7038890563
 10
-83.9571865435
 20
39.6815741114
 10
-84.0311912241
 20
39.6553514126
 10
-84.1037233307
 20
39.625292804
 10
-84.174584129
 20
39.5914806426
 10
-84.2435794689
 20
39.5540075674
 10
-84.3105203113
 20
39.5129762485
 10
-84.3752232414
 20
39.4684991081
 10
-84.4375109811
 20
39.4206980072
 10
-84.4972128692
 20
39.3697039139
 10
-84.5541653256
 20
39.315656549
 10
-84.6082123079
 20
39.2587039954
 10
-84.6592057342
 20
39.1990022958
 10
-84.7070058857
 20
39.1367150299
 10
-84.7514817968
 20
39.0720128574
 10
-84.7925116099
 20
39.0050730545
 10
-84.8299829069
 20
38.936079033
 10
-84.8637930228
 20
38.8652198285
 10
-84.893849324
 20
38.7926895868
 10
-84.92006946
 20
38.7186870371
 10
-84.9423815936
 20
38.6434149374
 10
-84.9607245951
 20
38.567079524
 10
-84.9750482088
 20
38.4898899513
 10
-84.9853131933
 20
38.4120577107
 10
-84.9914914275
 20
38.3337960505
 10
-84.9935659875
 20
38.2553193971
  0
LINE
  5
2C9
100
AcDbEntity
  8
IMPORT_IGES
100
AcDbLine
 62
250
  6
CONTINUOUS
 10
83.4259965893
 20
39.7550909398
 11
-83.4938009098
 21
39.7550909398
  0
LINE
  5
2CA
100
AcDbEntity
  8
IMPORT_IGES
100
AcDbLine
 62
7
  6
CONTINUOUS
 10
83.6508268602
 20
39.9475536033
 11
-83.6538877686
 21
39.9475536033
  0
LINE
  5
2CB
100
AcDbEntity
  8
IMPORT_IGES
100
AcDbLine
 62
7
  6
CONTINUOUS
 10
-83.6297094306
 20
40.0349101299
 11
83.6623937175
 21
40.0349101299
  0
LWPOLYLINE
  5
2CC
100
AcDbEntity
  8
0
100
AcDbPolyline
 62
7
  6
CONTINUOUS
 90
6
 70
0
 43
0.3500000006
 10
2.6785713558
 20
53.1229924164
 10
3.7500000114
 20
53.1229924164
 10
3.9642856293
 20
53.3372769012
 10
3.9642856293
 20
54.4087083893
 10
3.5357143936
 20
54.837277359
 10
3.1071428747
 20
54.837277359
  0
LWPOLYLINE
  5
2CD
100
AcDbEntity
  8
0
100
AcDbPolyline
 62
7
  6
CONTINUOUS
 90
3
 70
0
 43
0.3500000006
 10
94.6703905334
 20
2.3571426086
 10
93.8132435303
 20
3.21428508
 10
96.8132444458
 20
3.21428508
  0
LWPOLYLINE
  5
2CE
100
AcDbEntity
  8
IMPORT_IGES
100
AcDbPolyline
 62
250
  6
CONTINUOUS
 90
4
 70
0
 10
83.4253162296
 20
-39.7331457945
 10
83.425541794
 20
-39.744512725
 10
83.4257687833
 20
-39.7518884978
 10
83.4259965893
 20
-39.7552533436
  0
LWPOLYLINE
  5
2CF
100
AcDbEntity
  8
IMPORT_IGES
100
AcDbPolyline
 62
250
  6
CONTINUOUS
 90
5
 70
0
 10
83.4259965893
 20
39.7550909398
 10
83.4257687833
 20
39.7517260932
 10
83.4255417939
 20
39.7443503188
 10
83.4253162295
 20
39.7329833863
 10
83.4248717889
 20
39.6984085338
  0
LWPOLYLINE
  5
2D0
100
AcDbEntity
  8
0
100
AcDbPolyline
 62
7
  6
CONTINUOUS
 90
13
 70
0
 43
0.3500000006
 10
95.0989595032
 20
-3.6428569565
 10
94.8846750183
 20
-3.9285714912
 10
94.2418215637
 20
-3.9285714912
 10
93.8132435303
 20
-3.6428569565
 10
93.8132435303
 20
-3.000000103
 10
94.2418215637
 20
-2.7142855682
 10
94.8846750183
 20
-2.7142855682
 10
95.0989595032
 20
-3.000000103
 10
95.5275284729
 20
-2.5714288673
 10
96.3846754761
 20
-2.5714288673
 10
96.8132444458
 20
-3.000000103
 10
96.8132444458
 20
-3.6428569565
 10
96.3846754761
 20
-4.0714281921
  0
LINE
  5
2D1
100
AcDbEntity
  8
IMPORT_IGES
100
AcDbLine
 62
7
  6
CONTINUOUS
 10
85.108774885
 20
-38.7997003818
 11
85.1081975263
 21
-38.8000500518
  0
LWPOLYLINE
  5
2D2
100
AcDbEntity
  8
IMPORT_IGES
100
AcDbPolyline
 62
250
  6
CONTINUOUS
 90
31
 70
0
 10
84.9257616671
 20
38.2553193971
 10
84.923679276
 20
38.3337960528
 10
84.917493653
 20
38.4120577151
 10
84.9072217425
 20
38.4898899577
 10
84.8928916845
 20
38.567079532
 10
84.874542738
 20
38.6434149469
 10
84.8522251752
 20
38.7186870479
 10
84.8260001406
 20
38.7926895987
 10
84.7959394849
 20
38.8652198412
 10
84.7621255705
 20
38.9360790462
 10
84.7246510414
 20
39.0050730681
 10
84.6836185715
 20
39.0720128712
 10
84.6391405863
 20
39.1367150436
 10
84.5913389489
 20
39.1990023093
 10
84.5403446292
 20
39.2587040085
 10
84.4862973484
 20
39.3156565615
 10
84.4293451892
 20
39.3697039257
 10
84.3696441932
 20
39.4206980181
 10
84.3073579382
 20
39.4684991181
 10
84.2426570812
 20
39.5129762574
 10
84.1757188947
 20
39.5540075753
 10
84.1067267861
 20
39.5914806493
 10
84.0358697858
 20
39.6252928097
 10
83.9633420335
 20
39.6553514171
 10
83.8893422515
 20
39.6815741149
 10
83.8140733074
 20
39.7038890275
 10
83.7377413149
 20
39.7222350611
 10
83.66055506
 20
39.7365620088
 10
83.5827258954
 20
39.7468305763
 10
83.504467176
 20
39.7530125509
 10
83.4259933214
 20
39.7550909408
  0
LINE
  5
2D3
100
AcDbEntity
  8
IMPORT_IGES
100
AcDbLine
 62
250
  6
CONTINUOUS
 10
83.424871789
 20
-39.698570945
 11
83.4253162296
 21
-39.7331457945
  0
LINE
  5
2D4
100
AcDbEntity
  8
IMPORT_IGES
100
AcDbLine
 62
250
  6
CONTINUOUS
 10
83.4220525014
 20
-35.0043990013
 11
83.4221587114
 21
-35.0140679054
  0
LINE
  5
2D5
100
AcDbEntity
  8
IMPORT_IGES
100
AcDbLine
 62
250
  6
CONTINUOUS
 10
83.4220525014
 20
-32.5043990009
 11
83.4221587114
 21
-32.5140679054
  0
LINE
  5
2D6
100
AcDbEntity
  8
IMPORT_IGES
100
AcDbLine
 62
250
  6
CONTINUOUS
 10
83.4220524954
 20
-30.0043988574
 11
83.4221586994
 21
-30.0140672133
  0
LINE
  5
2D7
100
AcDbEntity
  8
IMPORT_IGES
100
AcDbLine
 62
250
  6
CONTINUOUS
 10
83.4220525025
 20
31.9956009986
 11
83.4221587125
 21
31.9859320946
  0
LINE
  5
2D8
100
AcDbEntity
  8
IMPORT_IGES
100
AcDbLine
 62
250
  6
CONTINUOUS
 10
83.4220525025
 20
34.4956009986
 11
83.4221587125
 21
34.4859320946
  0
LINE
  5
2D9
100
AcDbEntity
  8
IMPORT_IGES
100
AcDbLine
 62
250
  6
CONTINUOUS
 10
83.4220525025
 20
36.995600999
 11
83.4221587125
 21
36.9859320946
  0
LINE
  5
2DA
100
AcDbEntity
  8
IMPORT_IGES
100
AcDbLine
 62
250
  6
CONTINUOUS
 10
83.4238270804
 20
-39.5457055191
 11
83.424871789
 21
-39.698570945
  0
LINE
  5
2DB
100
AcDbEntity
  8
IMPORT_IGES
100
AcDbLine
 62
250
  6
CONTINUOUS
 10
83.4218258111
 20
-34.952790642
 11
83.4220525014
 21
-35.0043990013
  0
LINE
  5
2DC
100
AcDbEntity
  8
IMPORT_IGES
100
AcDbLine
 62
250
  6
CONTINUOUS
 10
83.4218258111
 20
-32.4527906413
 11
83.4220525014
 21
-32.5043990009
  0
LINE
  5
2DD
100
AcDbEntity
  8
IMPORT_IGES
100
AcDbLine
 62
250
  6
CONTINUOUS
 10
83.421825818
 20
-29.9527934258
 11
83.4220524954
 21
-30.0043988574
  0
LINE
  5
2DE
100
AcDbEntity
  8
IMPORT_IGES
100
AcDbLine
 62
250
  6
CONTINUOUS
 10
83.4218258123
 20
32.0472093545
 11
83.4220525025
 21
31.9956009986
  0
LINE
  5
2DF
100
AcDbEntity
  8
IMPORT_IGES
100
AcDbLine
 62
250
  6
CONTINUOUS
 10
83.4218258123
 20
34.5472093545
 11
83.4220525025
 21
34.4956009986
  0
LINE
  5
2E0
100
AcDbEntity
  8
IMPORT_IGES
100
AcDbLine
 62
250
  6
CONTINUOUS
 10
83.4218258123
 20
37.0472093552
 11
83.4220525025
 21
36.995600999
  0
LINE
  5
2E1
100
AcDbEntity
  8
IMPORT_IGES
100
AcDbLine
 62
250
  6
CONTINUOUS
 10
83.4216927615
 20
-38.4105385639
 11
83.4238270804
 21
-39.5457055191
  0
LINE
  5
2E2
100
AcDbEntity
  8
IMPORT_IGES
100
AcDbLine
 62
250
  6
CONTINUOUS
 10
83.4216847951
 20
-28.7295276955
 11
83.421825818
 21
-29.9527934258
  0
LINE
  5
2E3
100
AcDbEntity
  8
IMPORT_IGES
100
AcDbLine
 62
250
  6
CONTINUOUS
 10
83.9114870491
 20
28.7206377593
 11
83.9114870483
 21
-28.720800163
  0
LINE
  5
2E4
100
AcDbEntity
  8
IMPORT_IGES
100
AcDbLine
 62
250
  6
CONTINUOUS
 10
84.9257616671
 20
-38.2554818008
 11
84.925761986
 21
-28.7552536165
  0
LINE
  5
2E5
100
AcDbEntity
  8
IMPORT_IGES
100
AcDbLine
 62
250
  6
CONTINUOUS
 10
84.925761986
 20
28.7550912128
 11
84.9257616671
 21
38.2553193971
  0
LINE
  5
2E6
100
AcDbEntity
  8
IMPORT_IGES
100
AcDbLine
 62
7
  6
CONTINUOUS
 10
85.1505984761
 20
-38.4479379467
 11
85.1505984761
 21
-28.9477160071
  0
LINE
  5
2E7
100
AcDbEntity
  8
IMPORT_IGES
100
AcDbLine
 62
7
  6
CONTINUOUS
 10
85.1505984761
 20
28.9475536033
 11
85.1505984761
 21
38.4477755224
  0
LINE
  5
2E8
100
AcDbEntity
  8
IMPORT_IGES
100
AcDbLine
 62
7
  6
CONTINUOUS
 10
85.1621652603
 20
-38.5351385871
 11
85.1621652603
 21
-29.029043266
  0
LINE
  5
2E9
100
AcDbEntity
  8
IMPORT_IGES
100
AcDbLine
 62
7
  6
CONTINUOUS
 10
85.1621652603
 20
29.0288908799
 11
85.1621652603
 21
38.5351385871
  0
LINE
  5
2EA
100
AcDbEntity
  8
IMPORT_IGES
100
AcDbLine
 62
250
  6
CONTINUOUS
 10
85.41556424
 20
-28.7465260841
 11
85.4155642399
 21
28.7463636803
  0
LINE
  5
2EB
100
AcDbEntity
  8
IMPORT_IGES
100
AcDbLine
 62
7
  6
CONTINUOUS
 10
85.6505963208
 20
-28.9477160071
 11
85.6505963208
 21
28.9475536033
  0
LINE
  5
2EC
100
AcDbEntity
  8
IMPORT_IGES
100
AcDbLine
 62
7
  6
CONTINUOUS
 10
85.6622414243
 20
-29.0291956753
 11
85.6622414243
 21
29.0290432892
  0
LINE
  5
2ED
100
AcDbEntity
  8
IMPORT_IGES
100
AcDbLine
 62
250
  6
CONTINUOUS
 10
83.4223644332
 20
39.0642106162
 11
83.4218258123
 21
37.0472093552
  0
LINE
  5
2EE
100
AcDbEntity
  8
IMPORT_IGES
100
AcDbLine
 62
250
  6
CONTINUOUS
 10
83.4218258123
 20
34.5472093545
 11
83.421759223
 21
34.9231669342
  0
LINE
  5
2EF
100
AcDbEntity
  8
IMPORT_IGES
100
AcDbLine
 62
250
  6
CONTINUOUS
 10
83.4218258123
 20
32.0472093545
 11
83.421759223
 21
32.4231669342
  0
LINE
  5
2F0
100
AcDbEntity
  8
IMPORT_IGES
100
AcDbLine
 62
250
  6
CONTINUOUS
 10
83.4218258111
 20
-32.4527906413
 11
83.4217592232
 21
-32.0768330658
  0
LINE
  5
2F1
100
AcDbEntity
  8
IMPORT_IGES
100
AcDbLine
 62
250
  6
CONTINUOUS
 10
83.4218258111
 20
-34.952790642
 11
83.4217592232
 21
-34.5768330658
  0
LINE
  5
2F2
100
AcDbEntity
  8
IMPORT_IGES
100
AcDbLine
 62
250
  6
CONTINUOUS
 10
83.4216847942
 20
28.7293652917
 11
83.421907902
 21
29.9776911581
  0
LINE
  5
2F3
100
AcDbEntity
  8
IMPORT_IGES
100
AcDbLine
 62
250
  6
CONTINUOUS
 10
83.4216927615
 20
-38.4105385639
 11
83.4219079
 21
-37.0223102045
  0
LINE
  5
2F4
100
AcDbEntity
  8
IMPORT_IGES
100
AcDbLine
 62
250
  6
CONTINUOUS
 10
83.421759223
 20
34.9231669342
 11
83.4220019128
 21
34.9969556904
  0
LINE
  5
2F5
100
AcDbEntity
  8
IMPORT_IGES
100
AcDbLine
 62
250
  6
CONTINUOUS
 10
83.421759223
 20
32.4231669342
 11
83.4220019128
 21
32.4969556904
  0
LINE
  5
2F6
100
AcDbEntity
  8
IMPORT_IGES
100
AcDbLine
 62
250
  6
CONTINUOUS
 10
83.4217592232
 20
-32.0768330658
 11
83.422001913
 21
-32.0030443096
  0
LINE
  5
2F7
100
AcDbEntity
  8
IMPORT_IGES
100
AcDbLine
 62
250
  6
CONTINUOUS
 10
83.4217592232
 20
-34.5768330658
 11
83.422001913
 21
-34.5030443096
  0
LINE
  5
2F8
100
AcDbEntity
  8
IMPORT_IGES
100
AcDbLine
 62
250
  6
CONTINUOUS
 10
83.4242307204
 20
39.6177167749
 11
83.4223644332
 21
39.0642106162
  0
LINE
  5
2F9
100
AcDbEntity
  8
IMPORT_IGES
100
AcDbLine
 62
250
  6
CONTINUOUS
 10
83.421907902
 20
29.9776911581
 11
83.4220524627
 21
30.0042624844
  0
LINE
  5
2FA
100
AcDbEntity
  8
IMPORT_IGES
100
AcDbLine
 62
250
  6
CONTINUOUS
 10
83.4219079
 20
-37.0223102045
 11
83.4220524689
 21
-36.9957373705
  0
LWPOLYLINE
  5
2FB
100
AcDbEntity
  8
IMPORT_IGES
100
AcDbPolyline
 62
250
  6
CONTINUOUS
 90
3
 70
0
 10
83.4220019128
 20
34.9969556904
 10
83.4221048079
 20
35.0099290869
 10
83.4221584724
 20
35.0139055016
  0
LWPOLYLINE
  5
2FC
100
AcDbEntity
  8
IMPORT_IGES
100
AcDbPolyline
 62
250
  6
CONTINUOUS
 90
3
 70
0
 10
83.4220019128
 20
32.4969556904
 10
83.4221048079
 20
32.5099290869
 10
83.4221584724
 20
32.5139055016
  0
LWPOLYLINE
  5
2FD
100
AcDbEntity
  8
IMPORT_IGES
100
AcDbPolyline
 62
250
  6
CONTINUOUS
 90
3
 70
0
 10
83.422001913
 20
-32.0030443096
 10
83.4221048081
 20
-31.9900709131
 10
83.4221584726
 20
-31.9860944983
  0
LWPOLYLINE
  5
2FE
100
AcDbEntity
  8
IMPORT_IGES
100
AcDbPolyline
 62
250
  6
CONTINUOUS
 90
3
 70
0
 10
83.422001913
 20
-34.5030443096
 10
83.4221048081
 20
-34.4900709131
 10
83.4221584726
 20
-34.4860944983
  0
LINE
  5
2FF
100
AcDbEntity
  8
IMPORT_IGES
100
AcDbLine
 62
250
  6
CONTINUOUS
 10
83.4248717889
 20
39.6984085338
 11
83.4242307204
 21
39.6177167749
  0
LINE
  5
300
100
AcDbEntity
  8
IMPORT_IGES
100
AcDbLine
 62
250
  6
CONTINUOUS
 10
83.4220524627
 20
30.0042624844
 11
83.4221584604
 21
30.0139048096
  0
LINE
  5
301
100
AcDbEntity
  8
IMPORT_IGES
100
AcDbLine
 62
250
  6
CONTINUOUS
 10
83.4220524689
 20
-36.9957373705
 11
83.4221584726
 21
-36.9860944983
  0
LINE
  5
302
100
AcDbEntity
  8
IMPORT_IGES
100
AcDbLine
 62
7
  6
CONTINUOUS
 10
-103.1289671706
 20
-39.8511749988
 11
-113.6551457802
 21
-40.0349101299
  0
LINE
  5
303
100
AcDbEntity
  8
IMPORT_IGES
100
AcDbLine
 62
7
  6
CONTINUOUS
 10
-115.1377276614
 20
-39.9477160071
 11
-114.6464867954
 21
-39.9477160071
  0
LINE
  5
304
100
AcDbEntity
  8
IMPORT_IGES
100
AcDbLine
 62
7
  6
CONTINUOUS
 10
-115.1377276423
 20
-39.9477160071
 11
-126.1632936341
 21
-39.7552533436
  0
LINE
  5
305
100
AcDbEntity
  8
IMPORT_IGES
100
AcDbLine
 62
7
  6
CONTINUOUS
 10
-113.6551457802
 20
-38.7824135275
 11
-114.6622400011
 21
-38.8000500518
  0
LINE
  5
306
100
AcDbEntity
  8
IMPORT_IGES
100
AcDbLine
 62
7
  6
CONTINUOUS
 10
-115.1387604843
 20
-38.7997003818
 11
-113.6551457802
 21
-38.7738050063
  0
LINE
  5
307
100
AcDbEntity
  8
IMPORT_IGES
100
AcDbLine
 62
7
  6
CONTINUOUS
 10
-115.1420084757
 20
-38.7997003818
 11
-115.1620394506
 21
-38.8000500518
  0
LINE
  5
308
100
AcDbEntity
  8
IMPORT_IGES
100
AcDbLine
 62
250
  6
CONTINUOUS
 10
-113.6551457802
 20
-38.5351385871
 11
-103.1289671706
 21
-38.351403456
  0
LINE
  5
309
100
AcDbEntity
  8
IMPORT_IGES
100
AcDbLine
 62
7
  6
CONTINUOUS
 10
-114.6622400011
 20
-38.8000500518
 11
-115.1620394506
 21
-38.8000500518
  0
LINE
  5
30A
100
AcDbEntity
  8
IMPORT_IGES
100
AcDbLine
 62
7
  6
CONTINUOUS
 10
-114.6454539726
 20
-38.7997003818
 11
-114.6422059811
 21
-38.7997003818
  0
LINE
  5
30B
100
AcDbEntity
  8
IMPORT_IGES
100
AcDbLine
 62
250
  6
CONTINUOUS
 10
-101.6551457802
 20
-38.351403456
 11
-103.1289671706
 21
-38.351403456
  0
LINE
  5
30C
100
AcDbEntity
  8
IMPORT_IGES
100
AcDbLine
 62
250
  6
CONTINUOUS
 10
-126.1676894329
 20
-38.2554818008
 11
-127.6371086714
 21
-38.2554818008
  0
LINE
  5
30D
100
AcDbEntity
  8
IMPORT_IGES
100
AcDbLine
 62
7
  6
CONTINUOUS
 10
-101.6551457802
 20
-38.0
 11
-100.6551457802
 21
-38.0
  0
LINE
  5
30E
100
AcDbEntity
  8
IMPORT_IGES
100
AcDbLine
 62
250
  6
CONTINUOUS
 10
-126.167697251
 20
-38.2554818008
 11
-115.1421312783
 21
-38.4479379467
  0
LWPOLYLINE
  5
30F
100
AcDbEntity
  8
IMPORT_IGES
100
AcDbPolyline
 62
250
  6
CONTINUOUS
 90
68
 70
0
 10
-127.618122792
 20
-34.8209449973
 10
-127.5664142991
 20
-34.8302517795
 10
-127.5464048195
 20
-34.8337675887
 10
-127.5256816796
 20
-34.8377755499
 10
-127.5002597756
 20
-34.843987929
 10
-127.4661491739
 20
-34.8532311914
 10
-127.4252307734
 20
-34.8646788716
 10
-127.3825868795
 20
-34.8775638398
 10
-127.3412406947
 20
-34.8915417773
 10
-127.2997485211
 20
-34.9069570027
 10
-127.2577788867
 20
-34.9240753422
 10
-127.2161261474
 20
-34.9424497316
 10
-127.1747157254
 20
-34.9625272351
 10
-127.1314685214
 20
-34.9859148709
 10
-127.0850577425
 20
-35.0134090356
 10
-127.0368045681
 20
-35.0442133327
 10
-126.9885033598
 20
-35.0775455901
 10
-126.9403943341
 20
-35.1133922917
 10
-126.8926213606
 20
-35.1517669537
 10
-126.8470844844
 20
-35.1919279532
 10
-126.8048203063
 20
-35.2335158903
 10
-126.7652714459
 20
-35.2768901649
 10
-126.7279835015
 20
-35.3223873538
 10
-126.6929577233
 20
-35.3701542724
 10
-126.6604294744
 20
-35.4200441054
 10
-126.6302345425
 20
-35.4719529838
 10
-126.6022226555
 20
-35.526078789
 10
-126.5766783852
 20
-35.5822236397
 10
-126.5540724515
 20
-35.6396900233
 10
-126.5344254383
 20
-35.6985022403
 10
-126.5178046916
 20
-35.7586359901
 10
-126.5047480833
 20
-35.8193208591
 10
-126.495344113
 20
-35.8804777593
 10
-126.4895487262
 20
-35.9421857786
 10
-126.4876940181
 20
-36.0039117671
 10
-126.4899874432
 20
-36.0656525563
 10
-126.4962206638
 20
-36.1274113146
 10
-126.5060918302
 20
-36.1886643974
 10
-126.5196443522
 20
-36.2495067941
 10
-126.5367877801
 20
-36.3098435152
 10
-126.5570119882
 20
-36.3688659487
 10
-126.5802480329
 20
-36.4265420639
 10
-126.6064716262
 20
-36.4829038914
 10
-126.6352354347
 20
-36.5372389113
 10
-126.6662583461
 20
-36.5893504879
 10
-126.6996768125
 20
-36.6394352569
 10
-126.735650455
 20
-36.6873706048
 10
-126.7739811771
 20
-36.7330225719
 10
-126.8146106589
 20
-36.7765251178
 10
-126.8578491929
 20
-36.8181575085
 10
-126.9043142016
 20
-36.8583140455
 10
-126.9528883282
 20
-36.8966004272
 10
-127.0013485179
 20
-36.932113015
 10
-127.0493926309
 20
-36.9647416654
 10
-127.0970028233
 20
-36.9945965218
 10
-127.1426477573
 20
-37.0211043759
 10
-127.185040355
 20
-37.0434806902
 10
-127.2255042674
 20
-37.0625100021
 10
-127.2662859904
 20
-37.0799727157
 10
-127.3077722154
 20
-37.0964305424
 10
-127.3488095387
 20
-37.1113217707
 10
-127.3890046808
 20
-37.1247416706
 10
-127.429265052
 20
-37.136866253
 10
-127.4675604936
 20
-37.147519507
 10
-127.5001142042
 20
-37.1562686694
 10
-127.5253919922
 20
-37.1625193564
 10
-127.5464998394
 20
-37.1668659517
 10
-127.5862829453
 20
-37.1743923096
  0
LWPOLYLINE
  5
310
100
AcDbEntity
  8
IMPORT_IGES
100
AcDbPolyline
 62
250
  6
CONTINUOUS
 90
4
 70
0
 10
-127.6371086714
 20
-34.8168652373
 10
-127.6350390249
 20
-34.8176443771
 10
-127.6285848424
 20
-34.8190042971
 10
-127.618122792
 20
-34.8209449973
  0
LWPOLYLINE
  5
311
100
AcDbEntity
  8
IMPORT_IGES
100
AcDbPolyline
 62
250
  6
CONTINUOUS
 90
3
 70
0
 10
-127.5862829453
 20
-37.1743923096
 10
-127.603589375
 20
-37.1775720722
 10
-127.6177857787
 20
-37.1800656838
  0
LWPOLYLINE
  5
312
100
AcDbEntity
  8
IMPORT_IGES
100
AcDbPolyline
 62
7
  6
CONTINUOUS
 90
69
 70
0
 10
-127.470442713
 20
-36.9860944983
 10
-127.4605029142
 20
-36.984269433
 10
-127.4498382404
 20
-36.9822441466
 10
-127.4350749572
 20
-36.9792549899
 10
-127.4165853015
 20
-36.9751892647
 10
-127.395410463
 20
-36.9700797713
 10
-127.3717893578
 20
-36.9637982679
 10
-127.3456032247
 20
-36.956103155
 10
-127.3173565666
 20
-36.9469172622
 10
-127.287122893
 20
-36.9360370405
 10
-127.2550310993
 20
-36.9232611467
 10
-127.2216670427
 20
-36.9085825515
 10
-127.1875973972
 20
-36.8920527316
 10
-127.1525124229
 20
-36.8733116198
 10
-127.1157464165
 20
-36.8516780261
 10
-127.0769793745
 20
-36.826481839
 10
-127.0371192391
 20
-36.7977817899
 10
-126.9973613827
 20
-36.7660209472
 10
-126.9579784772
 20
-36.731074627
 10
-126.9192627435
 20
-36.6928296755
 10
-126.8822509659
 20
-36.6520322928
 10
-126.8469872486
 20
-36.6085400152
 10
-126.8138371812
 20
-36.5625960848
 10
-126.7839445859
 20
-36.5158564241
 10
-126.7576670219
 20
-36.4693827866
 10
-126.7343988462
 20
-36.4226408385
 10
-126.7136949232
 20
-36.3749864226
 10
-126.6957875427
 20
-36.3271809864
 10
-126.6804107352
 20
-36.2787716084
 10
-126.6669113666
 20
-36.2270922624
 10
-126.6554807187
 20
-36.1707231996
 10
-126.6470128308
 20
-36.1111861636
 10
-126.642082645
 20
-36.0502003901
 10
-126.6409033792
 20
-35.9876941128
 10
-126.6437079307
 20
-35.9241909589
 10
-126.650347538
 20
-35.8623587605
 10
-126.6604239635
 20
-35.8029929406
 10
-126.6737007377
 20
-35.7456737736
 10
-126.6896968979
 20
-35.6911537169
 10
-126.7076693261
 20
-35.6404511568
 10
-126.7275150359
 20
-35.5926312621
 10
-126.7499676353
 20
-35.5455820725
 10
-126.7756585911
 20
-35.4983464865
 10
-126.8040438912
 20
-35.4522601278
 10
-126.8342216791
 20
-35.4086712911
 10
-126.8659191944
 20
-35.3676552168
 10
-126.8989524648
 20
-35.3291601856
 10
-126.9322169504
 20
-35.2940696795
 10
-126.9647447426
 20
-35.2628168005
 10
-126.99682988
 20
-35.2345894235
 10
-127.0292753597
 20
-35.2083880424
 10
-127.0623000616
 20
-35.1839062808
 10
-127.09543882
 20
-35.1613651909
 10
-127.1285983184
 20
-35.1406808062
 10
-127.1617075151
 20
-35.1217640782
 10
-127.1946224345
 20
-35.104569896
 10
-127.2271492974
 20
-35.0890674645
 10
-127.2595287515
 20
-35.075032418
 10
-127.291350575
 20
-35.0625373717
 10
-127.3214073336
 20
-35.0518704379
 10
-127.3494361364
 20
-35.0428838813
 10
-127.3755057903
 20
-35.0353345593
 10
-127.3988716581
 20
-35.0292140485
 10
-127.4195160642
 20
-35.0243041365
 10
-127.4373346923
 20
-35.0204349921
 10
-127.4514506861
 20
-35.0176053815
 10
-127.4615490041
 20
-35.0157012448
 10
-127.4678842449
 20
-35.0145472415
 10
-127.4704427199
 20
-35.0140679054
  0
LWPOLYLINE
  5
313
100
AcDbEntity
  8
IMPORT_IGES
100
AcDbPolyline
 62
250
  6
CONTINUOUS
 90
3
 70
0
 10
-127.6177857787
 20
-37.1800656838
 10
-127.6349716762
 20
-37.1829061557
 10
-127.6371086714
 20
-37.1832971652
  0
LINE
  5
314
100
AcDbEntity
  8
IMPORT_IGES
100
AcDbLine
 62
7
  6
CONTINUOUS
 10
-101.6551457802
 20
-35.0
 11
-100.6551457802
 21
-35.0
  0
LWPOLYLINE
  5
315
100
AcDbEntity
  8
IMPORT_IGES
100
AcDbPolyline
 62
250
  6
CONTINUOUS
 90
68
 70
0
 10
-127.618122792
 20
-32.3209449973
 10
-127.5664142992
 20
-32.3302517795
 10
-127.5464048196
 20
-32.3337675887
 10
-127.5256816798
 20
-32.3377755499
 10
-127.5002597758
 20
-32.343987929
 10
-127.4661491741
 20
-32.3532311913
 10
-127.4252307736
 20
-32.3646788715
 10
-127.3825868798
 20
-32.3775638397
 10
-127.341240695
 20
-32.3915417772
 10
-127.2997485214
 20
-32.4069570026
 10
-127.257778887
 20
-32.424075342
 10
-127.2161261477
 20
-32.4424497315
 10
-127.1747157258
 20
-32.4625272349
 10
-127.1314685217
 20
-32.4859148707
 10
-127.0850577429
 20
-32.5134090354
 10
-127.0368045686
 20
-32.5442133324
 10
-126.9885033603
 20
-32.5775455898
 10
-126.9403943345
 20
-32.6133922913
 10
-126.892621361
 20
-32.6517669533
 10
-126.8470844848
 20
-32.6919279528
 10
-126.8048203066
 20
-32.7335158899
 10
-126.7652714462
 20
-32.7768901645
 10
-126.7279835019
 20
-32.8223873534
 10
-126.6929577236
 20
-32.8701542719
 10
-126.6604294747
 20
-32.9200441049
 10
-126.6302345428
 20
-32.9719529833
 10
-126.6022226558
 20
-33.0260787885
 10
-126.5766783855
 20
-33.0822236392
 10
-126.5540724517
 20
-33.1396900228
 10
-126.5344254384
 20
-33.1985022398
 10
-126.5178046917
 20
-33.2586359896
 10
-126.5047480834
 20
-33.3193208586
 10
-126.4953441131
 20
-33.3804777588
 10
-126.4895487262
 20
-33.4421857781
 10
-126.4876940181
 20
-33.5039117665
 10
-126.4899874432
 20
-33.5656525557
 10
-126.4962206637
 20
-33.627411314
 10
-126.50609183
 20
-33.6886643969
 10
-126.519644352
 20
-33.7495067935
 10
-126.5367877799
 20
-33.8098435147
 10
-126.557011988
 20
-33.8688659482
 10
-126.5802480327
 20
-33.9265420634
 10
-126.606471626
 20
-33.9829038909
 10
-126.6352354345
 20
-34.0372389108
 10
-126.6662583458
 20
-34.0893504875
 10
-126.6996768122
 20
-34.1394352565
 10
-126.7356504547
 20
-34.1873706044
 10
-126.7739811768
 20
-34.2330225715
 10
-126.8146106586
 20
-34.2765251175
 10
-126.8578491925
 20
-34.3181575082
 10
-126.9043142012
 20
-34.3583140452
 10
-126.9528883278
 20
-34.3966004269
 10
-127.0013485175
 20
-34.4321130148
 10
-127.0493926305
 20
-34.4647416652
 10
-127.097002823
 20
-34.4945965216
 10
-127.142647757
 20
-34.5211043757
 10
-127.1850403546
 20
-34.54348069
 10
-127.2255042671
 20
-34.562510002
 10
-127.2662859901
 20
-34.5799727156
 10
-127.3077722151
 20
-34.5964305423
 10
-127.3488095384
 20
-34.6113217706
 10
-127.3890046804
 20
-34.6247416705
 10
-127.4292650517
 20
-34.6368662529
 10
-127.4675604933
 20
-34.647519507
 10
-127.5001142039
 20
-34.6562686693
 10
-127.525391992
 20
-34.6625193563
 10
-127.5464998392
 20
-34.6668659516
 10
-127.5862829453
 20
-34.6743923096
  0
LWPOLYLINE
  5
316
100
AcDbEntity
  8
IMPORT_IGES
100
AcDbPolyline
 62
250
  6
CONTINUOUS
 90
4
 70
0
 10
-127.6371086714
 20
-32.3168652373
 10
-127.6350390249
 20
-32.3176443771
 10
-127.6285848424
 20
-32.3190042971
 10
-127.618122792
 20
-32.3209449973
  0
LWPOLYLINE
  5
317
100
AcDbEntity
  8
IMPORT_IGES
100
AcDbPolyline
 62
250
  6
CONTINUOUS
 90
3
 70
0
 10
-127.5862829453
 20
-34.6743923096
 10
-127.603589375
 20
-34.6775720722
 10
-127.6177857787
 20
-34.6800656838
  0
LWPOLYLINE
  5
318
100
AcDbEntity
  8
IMPORT_IGES
100
AcDbPolyline
 62
7
  6
CONTINUOUS
 90
69
 70
0
 10
-127.470442713
 20
-34.4860944983
 10
-127.4605029142
 20
-34.484269433
 10
-127.4498382404
 20
-34.4822441466
 10
-127.4350749572
 20
-34.4792549899
 10
-127.4165853015
 20
-34.4751892647
 10
-127.395410463
 20
-34.4700797713
 10
-127.3717893578
 20
-34.4637982679
 10
-127.3456032247
 20
-34.456103155
 10
-127.3173565666
 20
-34.4469172623
 10
-127.287122893
 20
-34.4360370405
 10
-127.2550310994
 20
-34.4232611467
 10
-127.2216670428
 20
-34.4085825515
 10
-127.1875973973
 20
-34.3920527317
 10
-127.152512423
 20
-34.3733116198
 10
-127.1157464167
 20
-34.3516780262
 10
-127.0769793747
 20
-34.3264818391
 10
-127.0371192393
 20
-34.2977817901
 10
-126.9973613829
 20
-34.2660209473
 10
-126.9579784773
 20
-34.2310746272
 10
-126.9192627437
 20
-34.1928296757
 10
-126.882250966
 20
-34.152032293
 10
-126.8469872487
 20
-34.1085400153
 10
-126.8138371813
 20
-34.0625960849
 10
-126.783944586
 20
-34.0158564243
 10
-126.757667022
 20
-33.9693827868
 10
-126.7343988463
 20
-33.9226408388
 10
-126.7136949233
 20
-33.8749864229
 10
-126.6957875428
 20
-33.8271809868
 10
-126.6804107353
 20
-33.7787716088
 10
-126.6669113667
 20
-33.7270922628
 10
-126.6554807188
 20
-33.6707232
 10
-126.6470128309
 20
-33.6111861639
 10
-126.6420826451
 20
-33.5502003903
 10
-126.6409033792
 20
-33.4876941131
 10
-126.6437079306
 20
-33.4241909591
 10
-126.6503475379
 20
-33.3623587607
 10
-126.6604239634
 20
-33.3029929408
 10
-126.6737007377
 20
-33.2456737738
 10
-126.6896968978
 20
-33.1911537171
 10
-126.7076693261
 20
-33.1404511569
 10
-126.7275150359
 20
-33.092631262
 10
-126.7499676354
 20
-33.0455820723
 10
-126.7756585913
 20
-32.9983464862
 10
-126.8040438914
 20
-32.9522601275
 10
-126.8342216793
 20
-32.9086712908
 10
-126.8659191946
 20
-32.8676552165
 10
-126.898952465
 20
-32.8291601853
 10
-126.9322169507
 20
-32.7940696793
 10
-126.9647447429
 20
-32.7628168003
 10
-126.9968298803
 20
-32.7345894232
 10
-127.02927536
 20
-32.7083880422
 10
-127.0623000619
 20
-32.6839062806
 10
-127.0954388203
 20
-32.6613651908
 10
-127.1285983186
 20
-32.640680806
 10
-127.1617075153
 20
-32.6217640781
 10
-127.1946224348
 20
-32.6045698959
 10
-127.2271492976
 20
-32.5890674644
 10
-127.2595287516
 20
-32.5750324179
 10
-127.2913505751
 20
-32.5625373717
 10
-127.3214073337
 20
-32.5518704379
 10
-127.3494361364
 20
-32.5428838812
 10
-127.3755057903
 20
-32.5353345592
 10
-127.3988716581
 20
-32.5292140485
 10
-127.4195160642
 20
-32.5243041365
 10
-127.4373346923
 20
-32.5204349921
 10
-127.4514506861
 20
-32.5176053815
 10
-127.461549004
 20
-32.5157012448
 10
-127.4678842449
 20
-32.5145472415
 10
-127.4704427199
 20
-32.5140679054
  0
LWPOLYLINE
  5
319
100
AcDbEntity
  8
IMPORT_IGES
100
AcDbPolyline
 62
250
  6
CONTINUOUS
 90
3
 70
0
 10
-127.6177857787
 20
-34.6800656838
 10
-127.6349716762
 20
-34.6829061558
 10
-127.6371086714
 20
-34.6832971652
  0
LWPOLYLINE
  5
31A
100
AcDbEntity
  8
IMPORT_IGES
100
AcDbPolyline
 62
250
  6
CONTINUOUS
 90
68
 70
0
 10
-127.618122792
 20
-29.8209449974
 10
-127.5664142992
 20
-29.8302517795
 10
-127.5464048195
 20
-29.8337675887
 10
-127.5256816797
 20
-29.8377755499
 10
-127.5002597757
 20
-29.843987929
 10
-127.4661491741
 20
-29.8532311913
 10
-127.4252307736
 20
-29.8646788715
 10
-127.3825868798
 20
-29.8775638397
 10
-127.341240695
 20
-29.8915417772
 10
-127.2997485214
 20
-29.9069570026
 10
-127.257778887
 20
-29.924075342
 10
-127.2161261477
 20
-29.9424497315
 10
-127.1747157257
 20
-29.9625272349
 10
-127.1314685216
 20
-29.9859148707
 10
-127.0850577427
 20
-30.0134090355
 10
-127.0368045684
 20
-30.0442133325
 10
-126.98850336
 20
-30.07754559
 10
-126.9403943343
 20
-30.1133922916
 10
-126.8926213607
 20
-30.1517669536
 10
-126.8470844845
 20
-30.1919279531
 10
-126.8048203063
 20
-30.2335158902
 10
-126.7652714459
 20
-30.2768901648
 10
-126.7279835016
 20
-30.3223873537
 10
-126.6929577234
 20
-30.3701542723
 10
-126.6604294745
 20
-30.4200441052
 10
-126.6302345426
 20
-30.4719529837
 10
-126.6022226556
 20
-30.5260787889
 10
-126.5766783853
 20
-30.5822236395
 10
-126.5540724516
 20
-30.6396900232
 10
-126.5344254383
 20
-30.6985022401
 10
-126.5178046916
 20
-30.75863599
 10
-126.5047480833
 20
-30.819320859
 10
-126.495344113
 20
-30.8804777592
 10
-126.4895487262
 20
-30.9421857785
 10
-126.4876940181
 20
-31.003911767
 10
-126.4899874432
 20
-31.0656525562
 10
-126.4962206638
 20
-31.1274113145
 10
-126.5060918301
 20
-31.1886643974
 10
-126.5196443522
 20
-31.249506794
 10
-126.5367877801
 20
-31.3098435152
 10
-126.5570119881
 20
-31.3688659487
 10
-126.5802480329
 20
-31.4265420638
 10
-126.6064716262
 20
-31.4829038914
 10
-126.6352354347
 20
-31.5372389112
 10
-126.666258346
 20
-31.5893504879
 10
-126.6996768124
 20
-31.6394352569
 10
-126.735650455
 20
-31.6873706048
 10
-126.773981177
 20
-31.7330225718
 10
-126.8146106589
 20
-31.7765251177
 10
-126.8578491928
 20
-31.8181575084
 10
-126.9043142015
 20
-31.8583140454
 10
-126.9528883282
 20
-31.8966004272
 10
-127.0013485179
 20
-31.932113015
 10
-127.0493926309
 20
-31.9647416654
 10
-127.0970028234
 20
-31.9945965218
 10
-127.1426477574
 20
-32.0211043759
 10
-127.1850403551
 20
-32.0434806902
 10
-127.2255042675
 20
-32.0625100022
 10
-127.2662859906
 20
-32.0799727158
 10
-127.3077722156
 20
-32.0964305425
 10
-127.3488095389
 20
-32.1113217708
 10
-127.3890046809
 20
-32.1247416706
 10
-127.4292650522
 20
-32.1368662531
 10
-127.4675604938
 20
-32.1475195071
 10
-127.5001142043
 20
-32.1562686694
 10
-127.5253919923
 20
-32.1625193564
 10
-127.5464998394
 20
-32.1668659517
 10
-127.5862829453
 20
-32.1743923096
  0
LWPOLYLINE
  5
31B
100
AcDbEntity
  8
IMPORT_IGES
100
AcDbPolyline
 62
250
  6
CONTINUOUS
 90
4
 70
0
 10
-127.6371086714
 20
-29.8168652373
 10
-127.6350390249
 20
-29.8176443771
 10
-127.6285848424
 20
-29.8190042971
 10
-127.618122792
 20
-29.8209449974
  0
LWPOLYLINE
  5
31C
100
AcDbEntity
  8
IMPORT_IGES
100
AcDbPolyline
 62
250
  6
CONTINUOUS
 90
10
 70
0
 10
-126.1632935677
 20
-39.7552533446
 10
-126.1648575531
 20
-39.7531749479
 10
-126.1663455184
 20
-39.7469929565
 10
-126.1677533878
 20
-39.7367243654
 10
-126.1690773031
 20
-39.722397391
 10
-126.1703136401
 20
-39.7040513307
 10
-126.171459018
 20
-39.6817363936
 10
-126.1725103
 20
-39.655513676
 10
-126.1734646039
 20
-39.6254550561
 10
-126.1743193151
 20
-39.5916428905
  0
LWPOLYLINE
  5
31D
100
AcDbEntity
  8
IMPORT_IGES
100
AcDbPolyline
 62
250
  6
CONTINUOUS
 90
3
 70
0
 10
-127.5862829453
 20
-32.1743923096
 10
-127.603589375
 20
-32.1775720722
 10
-127.6177857787
 20
-32.1800656838
  0
LWPOLYLINE
  5
31E
100
AcDbEntity
  8
IMPORT_IGES
100
AcDbPolyline
 62
7
  6
CONTINUOUS
 90
69
 70
0
 10
-127.470442713
 20
-31.9860944983
 10
-127.4605029142
 20
-31.984269433
 10
-127.4498382403
 20
-31.9822441466
 10
-127.4350749572
 20
-31.9792549899
 10
-127.4165853015
 20
-31.9751892647
 10
-127.395410463
 20
-31.9700797713
 10
-127.3717893578
 20
-31.9637982679
 10
-127.3456032247
 20
-31.956103155
 10
-127.3173565666
 20
-31.9469172622
 10
-127.287122893
 20
-31.9360370405
 10
-127.2550310993
 20
-31.9232611467
 10
-127.2216670427
 20
-31.9085825515
 10
-127.1875973972
 20
-31.8920527316
 10
-127.1525124229
 20
-31.8733116198
 10
-127.1157464166
 20
-31.8516780262
 10
-127.0769793746
 20
-31.826481839
 10
-127.0371192391
 20
-31.79778179
 10
-126.9973613827
 20
-31.7660209472
 10
-126.9579784772
 20
-31.7310746271
 10
-126.9192627435
 20
-31.6928296756
 10
-126.8822509659
 20
-31.6520322929
 10
-126.8469872486
 20
-31.6085400152
 10
-126.8138371812
 20
-31.5625960848
 10
-126.7839445859
 20
-31.5158564241
 10
-126.7576670219
 20
-31.4693827866
 10
-126.7343988462
 20
-31.4226408386
 10
-126.7136949232
 20
-31.3749864227
 10
-126.6957875427
 20
-31.3271809865
 10
-126.6804107352
 20
-31.2787716086
 10
-126.6669113666
 20
-31.2270922625
 10
-126.6554807187
 20
-31.1707231997
 10
-126.6470128309
 20
-31.1111861637
 10
-126.642082645
 20
-31.0502003901
 10
-126.6409033792
 20
-30.9876941129
 10
-126.6437079307
 20
-30.9241909589
 10
-126.650347538
 20
-30.8623587605
 10
-126.6604239635
 20
-30.8029929406
 10
-126.6737007377
 20
-30.7456737737
 10
-126.6896968978
 20
-30.6911537169
 10
-126.7076693261
 20
-30.6404511568
 10
-126.7275150359
 20
-30.5926312621
 10
-126.7499676353
 20
-30.5455820724
 10
-126.7756585912
 20
-30.4983464864
 10
-126.8040438913
 20
-30.4522601277
 10
-126.8342216791
 20
-30.4086712911
 10
-126.8659191944
 20
-30.3676552167
 10
-126.8989524648
 20
-30.3291601855
 10
-126.9322169505
 20
-30.2940696794
 10
-126.9647447427
 20
-30.2628168005
 10
-126.9968298801
 20
-30.2345894234
 10
-127.0292753598
 20
-30.2083880424
 10
-127.0623000617
 20
-30.1839062807
 10
-127.09543882
 20
-30.1613651909
 10
-127.1285983184
 20
-30.1406808061
 10
-127.1617075151
 20
-30.1217640782
 10
-127.1946224346
 20
-30.104569896
 10
-127.2271492974
 20
-30.0890674644
 10
-127.2595287515
 20
-30.075032418
 10
-127.291350575
 20
-30.0625373717
 10
-127.3214073336
 20
-30.0518704379
 10
-127.3494361364
 20
-30.0428838813
 10
-127.3755057903
 20
-30.0353345593
 10
-127.3988716581
 20
-30.0292140485
 10
-127.4195160642
 20
-30.0243041365
 10
-127.4373346923
 20
-30.0204349921
 10
-127.4514506861
 20
-30.0176053815
 10
-127.461549004
 20
-30.0157012448
 10
-127.4678842449
 20
-30.0145472415
 10
-127.4704427199
 20
-30.0140679054
  0
LWPOLYLINE
  5
31F
100
AcDbEntity
  8
IMPORT_IGES
100
AcDbPolyline
 62
250
  6
CONTINUOUS
 90
3
 70
0
 10
-127.6177857787
 20
-32.1800656838
 10
-127.6349716762
 20
-32.1829061557
 10
-127.6371086714
 20
-32.1832971652
  0
LWPOLYLINE
  5
320
100
AcDbEntity
  8
IMPORT_IGES
100
AcDbPolyline
 62
7
  6
CONTINUOUS
 90
31
 70
0
 10
-108.4636350291
 20
-28.9385222823
 10
-108.3855989596
 20
-28.935079054
 10
-108.3082790555
 20
-28.9276759123
 10
-108.2316753167
 20
-28.9163128572
 10
-108.1555828873
 20
-28.9009317902
 10
-108.0802066233
 20
-28.8815908097
 10
-108.0061610928
 20
-28.8584642118
 10
-107.933466558
 20
-28.8315253714
 10
-107.8621027567
 20
-28.8008009135
 10
-107.7926234703
 20
-28.7665450085
 10
-107.7250434969
 20
-28.7287321046
 10
-107.6593480383
 20
-28.6873877536
 10
-107.5960464815
 20
-28.6428427812
 10
-107.5351568524
 20
-28.5950739421
 10
-107.4766611249
 20
-28.5441044816
 10
-107.4210146075
 20
-28.490334962
 10
-107.3682382538
 20
-28.4337447912
 10
-107.3183111102
 20
-28.3743545612
 10
-107.2716256246
 20
-28.3126266104
 10
-107.2282053519
 20
-28.2485433205
 10
-107.1880267373
 20
-28.1821223097
 10
-107.1514115646
 20
-28.1138787705
 10
-107.1183856375
 20
-28.0437983531
 10
-107.0889231524
 20
-27.9718954073
 10
-107.0632684818
 20
-27.8987281747
 10
-107.0414600995
 20
-27.8244242455
 10
-107.0234595317
 20
-27.7488560294
 10
-107.0093957308
 20
-27.6721989969
 10
-106.9993116807
 20
-27.5945116383
 10
-106.9931643973
 20
-27.5157354632
 10
-106.9909538808
 20
-27.4358704718
  0
LINE
  5
321
100
AcDbEntity
  8
IMPORT_IGES
100
AcDbLine
 62
7
  6
CONTINUOUS
 10
-113.6551457802
 20
-29.0291956753
 11
-108.4636350291
 21
-28.9385222823
  0
LINE
  5
322
100
AcDbEntity
  8
IMPORT_IGES
100
AcDbLine
 62
7
  6
CONTINUOUS
 10
-100.6551457802
 20
-29.0
 11
-101.6551457802
 21
-29.0
  0
LINE
  5
323
100
AcDbEntity
  8
IMPORT_IGES
100
AcDbLine
 62
7
  6
CONTINUOUS
 10
-115.1435993742
 20
-28.9477160071
 11
-128.138549023
 21
-28.720800163
  0
LINE
  5
324
100
AcDbEntity
  8
IMPORT_IGES
100
AcDbLine
 62
250
  6
CONTINUOUS
 10
-101.6551457802
 20
-19.0
 11
-100.6551457802
 21
-19.0
  0
LWPOLYLINE
  5
325
100
AcDbEntity
  8
IMPORT_IGES
100
AcDbPolyline
 62
7
  6
CONTINUOUS
 90
16
 70
0
 10
-127.6371086719
 20
-34.8168652453
 10
-127.6362417064
 20
-34.8354672905
 10
-127.6336451599
 20
-34.8539248564
 10
-127.6293368669
 20
-34.8720769643
 10
-127.6233483189
 20
-34.8897680297
 10
-127.6157279095
 20
-34.9068385796
 10
-127.6065437901
 20
-34.923128058
 10
-127.5958781819
 20
-34.9384888414
 10
-127.5838204776
 20
-34.952790642
 10
-127.5704708262
 20
-34.9659109176
 10
-127.5559393743
 20
-34.9777358371
 10
-127.5403554643
 20
-34.9881550172
 10
-127.5238646024
 20
-34.9970692775
 10
-127.5066152799
 20
-35.0043990013
 10
-127.4887557037
 20
-35.010081834
 10
-127.4704427194
 20
-35.0140679054
  0
LWPOLYLINE
  5
326
100
AcDbEntity
  8
IMPORT_IGES
100
AcDbPolyline
 62
7
  6
CONTINUOUS
 90
16
 70
0
 10
-127.6371086719
 20
-32.3168652453
 10
-127.6362417064
 20
-32.3354672904
 10
-127.6336451599
 20
-32.3539248562
 10
-127.629336867
 20
-32.372076964
 10
-127.6233483191
 20
-32.3897680293
 10
-127.6157279097
 20
-32.4068385791
 10
-127.6065437905
 20
-32.4231280574
 10
-127.5958781824
 20
-32.4384888408
 10
-127.5838204782
 20
-32.4527906413
 10
-127.5704708269
 20
-32.4659109169
 10
-127.5559393752
 20
-32.4777358365
 10
-127.5403554655
 20
-32.4881550165
 10
-127.5238646036
 20
-32.4970692769
 10
-127.5066152809
 20
-32.5043990009
 10
-127.4887557043
 20
-32.5100818338
 10
-127.4704427194
 20
-32.5140679054
  0
LWPOLYLINE
  5
327
100
AcDbEntity
  8
IMPORT_IGES
100
AcDbPolyline
 62
7
  6
CONTINUOUS
 90
16
 70
0
 10
-127.6371033108
 20
-29.8168757414
 10
-127.6362363945
 20
-29.8354767311
 10
-127.6336399953
 20
-29.8539332498
 10
-127.6293319469
 20
-29.8720843277
 10
-127.6233437387
 20
-29.8897743893
 10
-127.6157237617
 20
-29.9068439707
 10
-127.6065401635
 20
-29.9231325248
 10
-127.5958751605
 20
-29.9384924367
 10
-127.5838181404
 20
-29.9527934258
 10
-127.5704692465
 20
-29.965912957
 10
-127.5559386192
 20
-29.9777372057
 10
-127.5403555937
 20
-29.9881557946
 10
-127.5238656674
 20
-29.9970695492
 10
-127.5066173233
 20
-30.0043988574
 10
-127.48875876
 20
-30.0100813679
 10
-127.4704468141
 20
-30.0140672133
  0
LWPOLYLINE
  5
328
100
AcDbEntity
  8
IMPORT_IGES
100
AcDbPolyline
 62
7
  6
CONTINUOUS
 90
31
 70
0
 10
-127.6371086714
 20
-38.2554818008
 10
-127.6350984021
 20
-38.3331142218
 10
-127.6290729818
 20
-38.4105385639
 10
-127.6190485603
 20
-38.4875473011
 10
-127.6050520059
 20
-38.5639340216
 10
-127.5871208338
 20
-38.6394939802
 10
-127.5653031058
 20
-38.7140246467
 10
-127.5396573012
 20
-38.7873262513
 10
-127.5102521595
 20
-38.859202318
 10
-127.4771664976
 20
-38.9294601909
 10
-127.4404889969
 20
-38.9979115527
 10
-127.4003179666
 20
-39.0643729279
 10
-127.3567610802
 20
-39.128666174
 10
-127.3099350863
 20
-39.1906189612
 10
-127.2599654959
 20
-39.2500652325
 10
-127.2069862466
 20
-39.306845649
 10
-127.1511393427
 20
-39.3608080179
 10
-127.0925744746
 20
-39.4118076997
 10
-127.0314486188
 20
-39.4597079957
 10
-126.9679256155
 20
-39.5043805151
 10
-126.90217573
 20
-39.5457055191
 10
-126.8343751975
 20
-39.5835722409
 10
-126.7647057488
 20
-39.6178791836
 10
-126.6933541242
 20
-39.6485343921
 10
-126.6205115734
 20
-39.6754556988
 10
-126.5463733419
 20
-39.698570945
 10
-126.4711381478
 20
-39.7178181734
 10
-126.3950076506
 20
-39.7331457945
 10
-126.3181859086
 20
-39.744512725
 10
-126.2408788325
 20
-39.7518884978
 10
-126.1632936341
 20
-39.7552533436
  0
LINE
  5
329
100
AcDbEntity
  8
IMPORT_IGES
100
AcDbLine
 62
7
  6
CONTINUOUS
 10
-128.1385490322
 20
28.7206377593
 11
-128.1385490322
 21
-28.720800163
  0
LWPOLYLINE
  5
32A
100
AcDbEntity
  8
IMPORT_IGES
100
AcDbPolyline
 62
7
  6
CONTINUOUS
 90
16
 70
0
 10
-127.6371086712
 20
34.8167028415
 10
-127.6362340304
 20
34.8353868678
 10
-127.6336177579
 20
34.8539074753
 10
-127.6292827368
 20
34.8721026745
 10
-127.6232668831
 20
34.889813322
 10
-127.6156228142
 20
34.9068845127
 10
-127.6064173885
 20
34.9231669342
 10
-127.5957311209
 20
34.9385181733
 10
-127.583657478
 20
34.9528039611
 10
-127.5703020614
 20
34.9658993479
 10
-127.5557816835
 20
34.9776897955
 10
-127.540223346
 20
34.9880721794
 10
-127.5237631295
 20
34.9969556904
 10
-127.5065450025
 20
35.0042626294
 10
-127.4887195625
 20
35.0099290869
 10
-127.4704427187
 20
35.0139055016
  0
LWPOLYLINE
  5
32B
100
AcDbEntity
  8
IMPORT_IGES
100
AcDbPolyline
 62
7
  6
CONTINUOUS
 90
16
 70
0
 10
-127.6371086712
 20
32.3167028415
 10
-127.6362340304
 20
32.3353868678
 10
-127.6336177579
 20
32.3539074753
 10
-127.6292827368
 20
32.3721026745
 10
-127.6232668831
 20
32.389813322
 10
-127.6156228142
 20
32.4068845127
 10
-127.6064173885
 20
32.4231669342
 10
-127.5957311209
 20
32.4385181733
 10
-127.583657478
 20
32.4528039611
 10
-127.5703020614
 20
32.4658993479
 10
-127.5557816835
 20
32.4776897955
 10
-127.540223346
 20
32.4880721794
 10
-127.5237631295
 20
32.4969556904
 10
-127.5065450025
 20
32.5042626294
 10
-127.4887195625
 20
32.5099290869
 10
-127.4704427187
 20
32.5139055016
  0
LWPOLYLINE
  5
32C
100
AcDbEntity
  8
IMPORT_IGES
100
AcDbPolyline
 62
7
  6
CONTINUOUS
 90
16
 70
0
 10
-127.6371033101
 20
29.8167133376
 10
-127.6362287189
 20
29.8353963039
 10
-127.6336125948
 20
29.8539158607
 10
-127.6292778197
 20
29.8721100275
 10
-127.6232623073
 20
29.8898196703
 10
-127.6156186721
 20
29.9068898924
 10
-127.6064137687
 20
29.9231713901
 10
-127.5957281073
 20
29.9385217583
 10
-127.5836551494
 20
29.9528067356
 10
-127.5703004906
 20
29.9659013794
 10
-127.5557809365
 20
29.9776911581
 10
-127.5402234816
 20
29.988072953
 10
-127.523764199
 20
29.99695596
 10
-127.5065470489
 20
30.0042624844
 10
-127.4887226202
 20
30.0099286204
 10
-127.4704468134
 20
30.0139048096
  0
LWPOLYLINE
  5
32D
100
AcDbEntity
  8
0
100
AcDbPolyline
 62
7
  6
CONTINUOUS
 90
3
 70
0
 43
0.3500000006
 10
-113.2539908752
 20
53.8503514709
 10
-113.3254220581
 20
53.6360669861
 10
-113.4682753601
 20
53.3503513184
  0
LINE
  5
32E
100
AcDbEntity
  8
IMPORT_IGES
100
AcDbLine
 62
7
  6
CONTINUOUS
 10
-100.6551457802
 20
-16.0
 11
-101.6551457802
 21
-16.0
  0
LWPOLYLINE
  5
32F
100
AcDbEntity
  8
IMPORT_IGES
100
AcDbPolyline
 62
7
  6
CONTINUOUS
 90
16
 70
0
 10
-127.6371086719
 20
32.1831347547
 10
-127.6362417061
 20
32.1645327072
 10
-127.6336451591
 20
32.1460751395
 10
-127.6293368654
 20
32.1279230304
 10
-127.6233483166
 20
32.1102319644
 10
-127.6157279065
 20
32.0931614144
 10
-127.6065437866
 20
32.0768719364
 10
-127.5958781783
 20
32.0615111539
 10
-127.5838204744
 20
32.0472093545
 10
-127.5704708235
 20
32.03408908
 10
-127.5559393722
 20
32.0222641613
 10
-127.540355463
 20
32.011844982
 10
-127.5238646017
 20
32.0029307222
 10
-127.5066152796
 20
31.9956009986
 10
-127.4887557037
 20
31.989918166
 10
-127.4704427194
 20
31.9859320946
  0
LWPOLYLINE
  5
330
100
AcDbEntity
  8
IMPORT_IGES
100
AcDbPolyline
 62
7
  6
CONTINUOUS
 90
16
 70
0
 10
-127.6371086719
 20
34.6831347547
 10
-127.6362417061
 20
34.6645327072
 10
-127.6336451591
 20
34.6460751395
 10
-127.6293368654
 20
34.6279230304
 10
-127.6233483166
 20
34.6102319644
 10
-127.6157279065
 20
34.5931614144
 10
-127.6065437866
 20
34.5768719364
 10
-127.5958781783
 20
34.5615111539
 10
-127.5838204744
 20
34.5472093545
 10
-127.5704708235
 20
34.53408908
 10
-127.5559393722
 20
34.5222641613
 10
-127.540355463
 20
34.511844982
 10
-127.5238646017
 20
34.5029307222
 10
-127.5066152796
 20
34.4956009986
 10
-127.4887557037
 20
34.489918166
 10
-127.4704427194
 20
34.4859320946
  0
LWPOLYLINE
  5
331
100
AcDbEntity
  8
IMPORT_IGES
100
AcDbPolyline
 62
7
  6
CONTINUOUS
 90
16
 70
0
 10
-127.6371086719
 20
37.1831347547
 10
-127.6362417062
 20
37.1645327073
 10
-127.6336451591
 20
37.1460751397
 10
-127.6293368655
 20
37.1279230307
 10
-127.6233483168
 20
37.1102319648
 10
-127.6157279067
 20
37.0931614148
 10
-127.606543787
 20
37.0768719369
 10
-127.5958781788
 20
37.0615111545
 10
-127.583820475
 20
37.0472093552
 10
-127.5704708242
 20
37.0340890807
 10
-127.5559393732
 20
37.022264162
 10
-127.5403554642
 20
37.0118449827
 10
-127.5238646029
 20
37.0029307228
 10
-127.5066152806
 20
36.995600999
 10
-127.4887557043
 20
36.9899181662
 10
-127.4704427194
 20
36.9859320946
  0
LINE
  5
332
100
AcDbEntity
  8
IMPORT_IGES
100
AcDbLine
 62
250
  6
CONTINUOUS
 10
-126.1743193151
 20
-39.5916428905
 11
-126.1757208714
 21
-39.513138516
  0
LINE
  5
333
100
AcDbEntity
  8
IMPORT_IGES
100
AcDbLine
 62
250
  6
CONTINUOUS
 10
-126.167697251
 20
38.2553193971
 11
-126.1734273879
 21
38.6434149469
  0
LINE
  5
334
100
AcDbEntity
  8
IMPORT_IGES
100
AcDbLine
 62
250
  6
CONTINUOUS
 10
-126.1757208714
 20
-39.513138516
 11
-126.1766996191
 21
-39.4208603296
  0
LINE
  5
335
100
AcDbEntity
  8
IMPORT_IGES
100
AcDbLine
 62
250
  6
CONTINUOUS
 10
-126.1734273879
 20
38.6434149469
 11
-126.1762436964
 21
38.9360790462
  0
LINE
  5
336
100
AcDbEntity
  8
IMPORT_IGES
100
AcDbLine
 62
250
  6
CONTINUOUS
 10
-126.1766996191
 20
-39.4208603296
 11
-126.1772448389
 21
-39.3158189589
  0
LINE
  5
337
100
AcDbEntity
  8
IMPORT_IGES
100
AcDbLine
 62
250
  6
CONTINUOUS
 10
-126.1762436964
 20
38.9360790462
 11
-126.1772380569
 21
39.1367150436
  0
LINE
  5
338
100
AcDbEntity
  8
IMPORT_IGES
100
AcDbLine
 62
7
  6
CONTINUOUS
 10
-127.6371086714
 20
29.8167028393
 11
-127.6371087173
 21
28.7293652917
  0
LINE
  5
339
100
AcDbEntity
  8
IMPORT_IGES
100
AcDbLine
 62
7
  6
CONTINUOUS
 10
-127.6371087173
 20
-28.7295276955
 11
-127.6371086713
 21
-29.8168652417
  0
LINE
  5
33A
100
AcDbEntity
  8
IMPORT_IGES
100
AcDbLine
 62
7
  6
CONTINUOUS
 10
-127.6371086714
 20
38.2553193971
 11
-127.6371086713
 21
37.1831347583
  0
LINE
  5
33B
100
AcDbEntity
  8
IMPORT_IGES
100
AcDbLine
 62
7
  6
CONTINUOUS
 10
-127.6371086714
 20
34.8167028393
 11
-127.6371086713
 21
34.6831347583
  0
LINE
  5
33C
100
AcDbEntity
  8
IMPORT_IGES
100
AcDbLine
 62
7
  6
CONTINUOUS
 10
-127.6371086714
 20
32.3167028393
 11
-127.6371086713
 21
32.1831347583
  0
LINE
  5
33D
100
AcDbEntity
  8
IMPORT_IGES
100
AcDbLine
 62
7
  6
CONTINUOUS
 10
-127.6371086714
 20
-32.1832971607
 11
-127.6371086713
 21
-32.3168652417
  0
LINE
  5
33E
100
AcDbEntity
  8
IMPORT_IGES
100
AcDbLine
 62
7
  6
CONTINUOUS
 10
-127.6371086714
 20
-34.6832971607
 11
-127.6371086713
 21
-34.8168652417
  0
LINE
  5
33F
100
AcDbEntity
  8
IMPORT_IGES
100
AcDbLine
 62
7
  6
CONTINUOUS
 10
-127.6371086714
 20
-37.1832971607
 11
-127.6371086714
 21
-38.2554818008
  0
LINE
  5
340
100
AcDbEntity
  8
IMPORT_IGES
100
AcDbLine
 62
250
  6
CONTINUOUS
 10
-126.6691219266
 20
-28.7465260841
 11
-126.6691219296
 21
28.7463636803
  0
LINE
  5
341
100
AcDbEntity
  8
IMPORT_IGES
100
AcDbLine
 62
250
  6
CONTINUOUS
 10
-126.167697251
 20
-38.2554818008
 11
-126.1676816147
 21
-28.7552536165
  0
LINE
  5
342
100
AcDbEntity
  8
IMPORT_IGES
100
AcDbLine
 62
250
  6
CONTINUOUS
 10
-126.1676816117
 20
28.7550912128
 11
-126.167697251
 21
38.2553193971
  0
LINE
  5
343
100
AcDbEntity
  8
IMPORT_IGES
100
AcDbLine
 62
250
  6
CONTINUOUS
 10
-126.1772380569
 20
39.1367150436
 11
-126.1772448389
 21
39.3156565615
  0
LINE
  5
344
100
AcDbEntity
  8
IMPORT_IGES
100
AcDbLine
 62
250
  6
CONTINUOUS
 10
-126.1772448389
 20
-39.3158189589
 11
-126.1772380573
 21
-39.1368776028
  0
LINE
  5
345
100
AcDbEntity
  8
IMPORT_IGES
100
AcDbLine
 62
250
  6
CONTINUOUS
 10
-126.1772448389
 20
39.3156565615
 11
-126.1766996184
 21
39.4206980181
  0
LINE
  5
346
100
AcDbEntity
  8
IMPORT_IGES
100
AcDbLine
 62
250
  6
CONTINUOUS
 10
-126.1772380573
 20
-39.1368776028
 11
-126.1756963225
 21
-38.8653825852
  0
LINE
  5
347
100
AcDbEntity
  8
IMPORT_IGES
100
AcDbLine
 62
250
  6
CONTINUOUS
 10
-126.1766996184
 20
39.4206980181
 11
-126.1757208694
 21
39.5129762574
  0
LINE
  5
348
100
AcDbEntity
  8
IMPORT_IGES
100
AcDbLine
 62
250
  6
CONTINUOUS
 10
-126.1756963225
 20
-38.8653825852
 11
-126.1724690562
 21
-38.5672422752
  0
LINE
  5
349
100
AcDbEntity
  8
IMPORT_IGES
100
AcDbLine
 62
250
  6
CONTINUOUS
 10
-126.1724690562
 20
-38.5672422752
 11
-126.167697251
 21
-38.2554818008
  0
LWPOLYLINE
  5
34A
100
AcDbEntity
  8
IMPORT_IGES
100
AcDbPolyline
 62
250
  6
CONTINUOUS
 90
11
 70
0
 10
-126.1757208694
 20
39.5129762574
 10
-126.1743193115
 20
39.5914806493
 10
-126.1734645995
 20
39.6252928097
 10
-126.1725102949
 20
39.6553514171
 10
-126.1714590124
 20
39.6815741149
 10
-126.1703136343
 20
39.7038890275
 10
-126.1690772973
 20
39.7222350611
 10
-126.1677533826
 20
39.7365620088
 10
-126.1663455142
 20
39.7468305763
 10
-126.1648575506
 20
39.7530125509
 10
-126.1632935675
 20
39.7550909408
  0
LWPOLYLINE
  5
34B
100
AcDbEntity
  8
IMPORT_IGES
100
AcDbPolyline
 62
7
  6
CONTINUOUS
 90
16
 70
0
 10
-127.6371086712
 20
-32.1832971585
 10
-127.6362340304
 20
-32.1646131322
 10
-127.6336177579
 20
-32.1460925247
 10
-127.6292827368
 20
-32.1278973255
 10
-127.6232668831
 20
-32.110186678
 10
-127.6156228142
 20
-32.0931154873
 10
-127.6064173885
 20
-32.0768330658
 10
-127.5957311208
 20
-32.0614818267
 10
-127.583657478
 20
-32.0471960388
 10
-127.5703020614
 20
-32.0341006521
 10
-127.5557816835
 20
-32.0223102045
 10
-127.5402233459
 20
-32.0119278206
 10
-127.5237631294
 20
-32.0030443096
 10
-127.5065450025
 20
-31.9957373705
 10
-127.4887195625
 20
-31.9900709131
 10
-127.4704427187
 20
-31.9860944983
  0
LWPOLYLINE
  5
34C
100
AcDbEntity
  8
IMPORT_IGES
100
AcDbPolyline
 62
7
  6
CONTINUOUS
 90
16
 70
0
 10
-127.6371086712
 20
-34.6832971585
 10
-127.6362340304
 20
-34.6646131322
 10
-127.6336177579
 20
-34.6460925247
 10
-127.6292827368
 20
-34.6278973255
 10
-127.6232668831
 20
-34.610186678
 10
-127.6156228142
 20
-34.5931154873
 10
-127.6064173885
 20
-34.5768330658
 10
-127.5957311208
 20
-34.5614818267
 10
-127.583657478
 20
-34.5471960388
 10
-127.5703020614
 20
-34.5341006521
 10
-127.5557816835
 20
-34.5223102045
 10
-127.5402233459
 20
-34.5119278206
 10
-127.5237631294
 20
-34.5030443096
 10
-127.5065450025
 20
-34.4957373705
 10
-127.4887195625
 20
-34.4900709131
 10
-127.4704427187
 20
-34.4860944983
  0
LWPOLYLINE
  5
34D
100
AcDbEntity
  8
IMPORT_IGES
100
AcDbPolyline
 62
7
  6
CONTINUOUS
 90
16
 70
0
 10
-127.6371086712
 20
-37.1832971585
 10
-127.6362340304
 20
-37.1646131322
 10
-127.6336177579
 20
-37.1460925247
 10
-127.6292827368
 20
-37.1278973255
 10
-127.6232668831
 20
-37.110186678
 10
-127.6156228142
 20
-37.0931154873
 10
-127.6064173885
 20
-37.0768330658
 10
-127.5957311208
 20
-37.0614818267
 10
-127.583657478
 20
-37.0471960388
 10
-127.5703020614
 20
-37.0341006521
 10
-127.5557816835
 20
-37.0223102045
 10
-127.5402233459
 20
-37.0119278206
 10
-127.5237631294
 20
-37.0030443096
 10
-127.5065450025
 20
-36.9957373705
 10
-127.4887195625
 20
-36.9900709131
 10
-127.4704427187
 20
-36.9860944983
  0
LINE
  5
34E
100
AcDbEntity
  8
IMPORT_IGES
100
AcDbLine
 62
7
  6
CONTINUOUS
 10
-101.6551457802
 20
-7.0428021464
 11
-101.3551457802
 21
-7.0428021464
  0
LINE
  5
34F
100
AcDbEntity
  8
IMPORT_IGES
100
AcDbLine
 62
7
  6
CONTINUOUS
 10
-101.6551457802
 20
-6.925098209
 11
-101.3551457802
 21
-6.925098209
  0
LINE
  5
350
100
AcDbEntity
  8
IMPORT_IGES
100
AcDbLine
 62
7
  6
CONTINUOUS
 10
-115.1387604843
 20
-5.0000812019
 11
-113.6551457802
 21
-5.0000812019
  0
LINE
  5
351
100
AcDbEntity
  8
IMPORT_IGES
100
AcDbLine
 62
7
  6
CONTINUOUS
 10
-103.3551457802
 20
-4.25
 11
-101.6551457802
 21
-4.25
  0
LINE
  5
352
100
AcDbEntity
  8
IMPORT_IGES
100
AcDbLine
 62
7
  6
CONTINUOUS
 10
-103.3551457802
 20
-4.0000812019
 11
-102.1328180989
 21
-4.0000812019
  0
LINE
  5
353
100
AcDbEntity
  8
IMPORT_IGES
100
AcDbLine
 62
7
  6
CONTINUOUS
 10
-113.6551457802
 20
-4.0000812019
 11
-115.1387604843
 21
-4.0000812019
  0
LINE
  5
354
100
AcDbEntity
  8
IMPORT_IGES
100
AcDbLine
 62
7
  6
CONTINUOUS
 10
-115.1362577766
 20
-1.0000812019
 11
-115.1356982528
 21
-1.0100680829
  0
LWPOLYLINE
  5
355
100
AcDbEntity
  8
0
100
AcDbPolyline
 62
7
  6
CONTINUOUS
 90
4
 70
0
 43
0.3500000006
 10
-116.3254229736
 20
55.9217832642
 10
-116.3254229736
 20
56.5646367188
 10
-114.8254225159
 20
56.5646367188
 10
-115.6825604553
 20
53.5646358032
  0
LINE
  5
356
100
AcDbEntity
  8
IMPORT_IGES
100
AcDbLine
 62
7
  6
CONTINUOUS
 10
-115.1421312783
 20
-38.4479379467
 11
-115.1421312783
 21
38.4477755224
  0
LINE
  5
357
100
AcDbEntity
  8
IMPORT_IGES
100
AcDbLine
 62
7
  6
CONTINUOUS
 10
-115.1362577766
 20
-1.0000812019
 11
-115.1362577766
 21
0.9999187981
  0
LINE
  5
358
100
AcDbEntity
  8
IMPORT_IGES
100
AcDbLine
 62
7
  6
CONTINUOUS
 10
-115.1356982528
 20
3.9999187981
 11
-115.1356982528
 21
1.0099056791
  0
LINE
  5
359
100
AcDbEntity
  8
IMPORT_IGES
100
AcDbLine
 62
7
  6
CONTINUOUS
 10
-115.1356982528
 20
-1.0100680829
 11
-115.1356982528
 21
-4.0000812019
  0
LINE
  5
35A
100
AcDbEntity
  8
IMPORT_IGES
100
AcDbLine
 62
7
  6
CONTINUOUS
 10
-114.1327663717
 20
-4.0000812019
 11
-114.1327663717
 21
-1.0624758621
  0
LINE
  5
35B
100
AcDbEntity
  8
IMPORT_IGES
100
AcDbLine
 62
7
  6
CONTINUOUS
 10
-114.1327663717
 20
1.0623134584
 11
-114.1327663717
 21
3.9999187981
  0
LINE
  5
35C
100
AcDbEntity
  8
IMPORT_IGES
100
AcDbLine
 62
7
  6
CONTINUOUS
 10
-115.1362577766
 20
0.9999187981
 11
-115.1356982528
 21
1.0099056791
  0
LINE
  5
35D
100
AcDbEntity
  8
IMPORT_IGES
100
AcDbLine
 62
7
  6
CONTINUOUS
 10
-101.3551457802
 20
-2.0575705229
 11
-101.6551457802
 21
-2.0575705229
  0
LINE
  5
35E
100
AcDbEntity
  8
IMPORT_IGES
100
AcDbLine
 62
7
  6
CONTINUOUS
 10
-105.7551000888
 20
-1.2
 11
-103.3551457802
 21
-1.2
  0
LINE
  5
35F
100
AcDbEntity
  8
IMPORT_IGES
100
AcDbLine
 62
7
  6
CONTINUOUS
 10
-106.311884948
 20
-1.0624758621
 11
-103.8295050327
 21
-1.0624758621
  0
LINE
  5
360
100
AcDbEntity
  8
IMPORT_IGES
100
AcDbLine
 62
7
  6
CONTINUOUS
 10
-113.6551457802
 20
-1.0624758621
 11
-114.1327663717
 21
-1.0624758621
  0
LWPOLYLINE
  5
361
100
AcDbEntity
  8
IMPORT_IGES
100
AcDbPolyline
 62
7
  6
CONTINUOUS
 90
28
 70
0
 10
-105.7551000888
 20
-1.2
 10
-105.8253928809
 20
-1.197896231
 10
-105.8949525061
 20
-1.1917996794
 10
-105.9637789643
 20
-1.1817103452
 10
-106.032096286
 20
-1.1675638022
 10
-106.0996804408
 20
-1.1494244767
 10
-106.1658593371
 20
-1.1274856474
 10
-106.2306186385
 20
-1.1017107176
 10
-106.2939726815
 20
-1.0721362842
 10
-106.355292384
 20
-1.039065416
 10
-106.4145570372
 20
-1.002464955
 10
-106.4717873499
 20
-0.9623680594
 10
-106.5264163668
 20
-0.9191772731
 10
-106.5784191092
 20
-0.8728627662
 10
-106.6278205558
 20
-0.8234543685
 10
-106.6741286873
 20
-0.7714441139
 10
-106.7173136842
 20
-0.7168070123
 10
-106.7574053659
 20
-0.6595680537
 10
-106.7940011725
 20
-0.6002942423
 10
-106.8270679539
 20
-0.538964857
 10
-106.85663886
 20
-0.4756006189
 10
-106.8824107803
 20
-0.4108306952
 10
-106.9043471243
 20
-0.3446407373
 10
-106.9224844824
 20
-0.2770450937
 10
-106.9366295153
 20
-0.2087159769
 10
-106.9467177764
 20
-0.1398774578
 10
-106.9528137123
 20
-0.0703054655
 10
-106.954917323
 20
-0.0
  0
LINE
  5
362
100
AcDbEntity
  8
IMPORT_IGES
100
AcDbLine
 62
7
  6
CONTINUOUS
 10
-115.1356982528
 20
-1.0100680829
 11
-114.1327663717
 21
-1.0624758621
  0
LINE
  5
363
100
AcDbEntity
  8
IMPORT_IGES
100
AcDbLine
 62
7
  6
CONTINUOUS
 10
-113.6551457802
 20
-40.0349101299
 11
-113.6551457802
 21
40.0349101299
  0
LINE
  5
364
100
AcDbEntity
  8
IMPORT_IGES
100
AcDbLine
 62
7
  6
CONTINUOUS
 10
-115.1356982528
 20
1.0099056791
 11
-114.1327663717
 21
1.0623134584
  0
LINE
  5
365
100
AcDbEntity
  8
IMPORT_IGES
100
AcDbLine
 62
7
  6
CONTINUOUS
 10
-106.4180758464
 20
1.0
 11
-105.0758169228
 21
1.0
  0
LINE
  5
366
100
AcDbEntity
  8
IMPORT_IGES
100
AcDbLine
 62
7
  6
CONTINUOUS
 10
-114.1327663717
 20
1.0623134584
 11
-113.6551457802
 21
1.0623134584
  0
LINE
  5
367
100
AcDbEntity
  8
IMPORT_IGES
100
AcDbLine
 62
7
  6
CONTINUOUS
 10
-103.8295050327
 20
1.0623134584
 11
-106.3121863226
 21
1.0623134584
  0
LINE
  5
368
100
AcDbEntity
  8
IMPORT_IGES
100
AcDbLine
 62
7
  6
CONTINUOUS
 10
-103.3551457802
 20
1.2
 11
-105.7551000888
 21
1.2
  0
LINE
  5
369
100
AcDbEntity
  8
IMPORT_IGES
100
AcDbLine
 62
7
  6
CONTINUOUS
 10
-101.6551457802
 20
2.1752744603
 11
-101.3551457802
 21
2.1752744603
  0
LWPOLYLINE
  5
36A
100
AcDbEntity
  8
IMPORT_IGES
100
AcDbPolyline
 62
7
  6
CONTINUOUS
 90
52
 70
0
 10
-105.4328038738
 20
1.0623134584
 10
-105.3670946037
 20
1.0602530645
 10
-105.3020861705
 20
1.054235008
 10
-105.2377785743
 20
1.044259289
 10
-105.1739138461
 20
1.0302538765
 10
-105.110749955
 20
1.0122908015
 10
-105.0490608076
 20
0.9905861564
 10
-104.9888648508
 20
0.9650794168
 10
-104.9301436376
 20
0.935831107
 10
-104.8736157342
 20
0.9032388927
 10
-104.8193996842
 20
0.8673547394
 10
-104.767376944
 20
0.8281266817
 10
-104.7179104486
 20
0.7857964883
 10
-104.6708955185
 20
0.7402243761
 10
-104.6264368334
 20
0.6915501283
 10
-104.5852113665
 20
0.6404348628
 10
-104.5473105282
 20
0.5868760013
 10
-104.5126429082
 20
0.5308761222
 10
-104.4816112492
 20
0.473104078
 10
-104.4542653064
 20
0.4135443745
 10
-104.4305553246
 20
0.3522125059
 10
-104.4107347808
 20
0.289823808
 10
-104.3948507578
 20
0.2263750201
 10
-104.3828561728
 20
0.1618694029
 10
-104.374863254
 20
0.0970320742
 10
-104.3709148047
 20
0.0318632874
 10
-104.3709680216
 20
-0.0336372109
 10
-104.3750067223
 20
-0.0987450626
 10
-104.3830720078
 20
-0.1634544007
 10
-104.395122777
 20
-0.2277710921
 10
-104.4110195452
 20
-0.2909883794
 10
-104.4308003617
 20
-0.353092818
 10
-104.454427177
 20
-0.4140978525
 10
-104.4816463586
 20
-0.4733370589
 10
-104.5124964646
 20
-0.5307964314
 10
-104.5469389369
 20
-0.5864899758
 10
-104.5846044687
 20
-0.639793285
 10
-104.625580883
 20
-0.690715435
 10
-104.6697803568
 20
-0.7392473499
 10
-104.7165701156
 20
-0.7847373949
 10
-104.765853363
 20
-0.827057547
 10
-104.8177268952
 20
-0.8663358292
 10
-104.8718483263
 20
-0.9023046763
 10
-104.9283406378
 20
-0.9350180689
 10
-104.9870808482
 20
-0.9644220263
 10
-105.0473576275
 20
-0.9900870411
 10
-105.1091953368
 20
-1.0119523317
 10
-105.1725696151
 20
-1.0300786797
 10
-105.2366960493
 20
-1.044218923
 10
-105.3013131683
 20
-1.0542906741
 10
-105.3666824431
 20
-1.0603763205
 10
-105.4328038738
 20
-1.0624758621
  0
LWPOLYLINE
  5
36B
100
AcDbEntity
  8
IMPORT_IGES
100
AcDbPolyline
 62
7
  6
CONTINUOUS
 90
25
 70
0
 10
-106.9909538808
 20
-2.5217089543
 10
-107.1001489266
 20
-2.4528373298
 10
-107.2059210334
 20
-2.3796400554
 10
-107.3082702011
 20
-2.3021171313
 10
-107.4073721734
 20
-2.2201100943
 10
-107.5030512066
 20
-2.1337774075
 10
-107.5947800704
 20
-2.0435944599
 10
-107.6825369491
 20
-1.9495399702
 10
-107.7663436584
 20
-1.8516352197
 10
-107.8457384146
 20
-1.7504194418
 10
-107.9206968454
 20
-1.6458743382
 10
-107.9912433232
 20
-1.5380182073
 10
-108.0569891805
 20
-1.4274451776
 10
-108.1179078941
 20
-1.3141402381
 10
-108.1740259872
 20
-1.1981183999
 10
-108.2250343628
 20
-1.0800188239
 10
-108.2709047873
 20
-0.9598300364
 10
-108.3116654942
 20
-0.8375635112
 10
-108.3470920866
 20
-0.71389283
 10
-108.3771550907
 20
-0.5888102471
 10
-108.4018839802
 20
-0.4623235083
 10
-108.4211427798
 20
-0.3351294323
 10
-108.434886164
 20
-0.2074602921
 10
-108.4431594583
 20
-0.0790838146
 10
-108.4459626625
 20
0.05
  0
LWPOLYLINE
  5
36C
100
AcDbEntity
  8
IMPORT_IGES
100
AcDbPolyline
 62
7
  6
CONTINUOUS
 90
25
 70
0
 10
-108.4459626625
 20
0.05
 10
-108.4431594583
 20
0.1790838146
 10
-108.434886164
 20
0.3074602921
 10
-108.4211427798
 20
0.4351294323
 10
-108.4018839802
 20
0.5623235083
 10
-108.3771550907
 20
0.6888102471
 10
-108.3470920866
 20
0.81389283
 10
-108.3116654942
 20
0.9375635112
 10
-108.2709047873
 20
1.0598300364
 10
-108.2250343628
 20
1.1800188239
 10
-108.1740259872
 20
1.2981183999
 10
-108.1179078941
 20
1.4141402381
 10
-108.0569891805
 20
1.5274451776
 10
-107.9912433232
 20
1.6380182073
 10
-107.9206968454
 20
1.7458743382
 10
-107.8457384146
 20
1.8504194418
 10
-107.7663436584
 20
1.9516352197
 10
-107.6825369491
 20
2.0495399702
 10
-107.5947800704
 20
2.1435944599
 10
-107.5030512066
 20
2.2337774075
 10
-107.4073721734
 20
2.3201100943
 10
-107.3082702011
 20
2.4021171313
 10
-107.2059210334
 20
2.4796400554
 10
-107.1001489266
 20
2.5528373298
 10
-106.9909538808
 20
2.6217089543
  0
LINE
  5
36D
100
AcDbEntity
  8
IMPORT_IGES
100
AcDbLine
 62
7
  6
CONTINUOUS
 10
-103.3551457802
 20
3.9999187981
 11
-102.1328180989
 21
3.9999187981
  0
LINE
  5
36E
100
AcDbEntity
  8
IMPORT_IGES
100
AcDbLine
 62
7
  6
CONTINUOUS
 10
-113.6551457802
 20
3.9999187981
 11
-115.1387604843
 21
3.9999187981
  0
LINE
  5
36F
100
AcDbEntity
  8
IMPORT_IGES
100
AcDbLine
 62
7
  6
CONTINUOUS
 10
-101.6551457802
 20
4.25
 11
-103.3551457802
 21
4.25
  0
LINE
  5
370
100
AcDbEntity
  8
IMPORT_IGES
100
AcDbLine
 62
7
  6
CONTINUOUS
 10
-113.6551457802
 20
4.9999187981
 11
-115.1387604843
 21
4.9999187981
  0
LWPOLYLINE
  5
371
100
AcDbEntity
  8
IMPORT_IGES
100
AcDbPolyline
 62
7
  6
CONTINUOUS
 90
31
 70
0
 10
-106.9909538808
 20
27.43850011
 10
-106.9930429665
 20
27.516836148
 10
-106.999099432
 20
27.5944727696
 10
-107.0091232773
 20
27.671409975
 10
-107.0231675811
 20
27.7478359506
 10
-107.0411792646
 20
27.8235625098
 10
-107.0629990922
 20
27.8980250933
 10
-107.0886553982
 20
27.9712215583
 10
-107.1181198483
 20
28.0431540475
 10
-107.1511482032
 20
28.1132644304
 10
-107.1877662545
 20
28.1815383693
 10
-107.2279482107
 20
28.247990202
 10
-107.2713724584
 20
28.3121048103
 10
-107.3180625426
 20
28.3738645907
 10
-107.3679949182
 20
28.4332871469
 10
-107.4207773367
 20
28.4899101714
 10
-107.4764307449
 20
28.5437130887
 10
-107.5349341961
 20
28.5947164744
 10
-107.5958326015
 20
28.6425197474
 10
-107.6591439837
 20
28.6870996804
 10
-107.7248503202
 20
28.7284795009
 10
-107.7924424546
 20
28.7663283098
 10
-107.8619351851
 20
28.8006205746
 10
-107.9333137135
 20
28.8313818279
 10
-108.0060244892
 20
28.8583577687
 10
-108.0800787154
 20
28.8815263396
 10
-108.1554651888
 20
28.9009095979
 10
-108.2315967485
 20
28.9163194154
 10
-108.3082776744
 20
28.9276930827
 10
-108.3857036865
 20
28.9350933091
 10
-108.4638747851
 20
28.9385200948
  0
LINE
  5
372
100
AcDbEntity
  8
IMPORT_IGES
100
AcDbLine
 62
7
  6
CONTINUOUS
 10
-106.9909538808
 20
27.438618215
 11
-106.9909538808
 21
2.6217089543
  0
LINE
  5
373
100
AcDbEntity
  8
IMPORT_IGES
100
AcDbLine
 62
7
  6
CONTINUOUS
 10
-106.9909538808
 20
-2.5217089543
 11
-106.9909538808
 21
-27.4387549737
  0
LINE
  5
374
100
AcDbEntity
  8
IMPORT_IGES
100
AcDbLine
 62
7
  6
CONTINUOUS
 10
-105.6380978633
 20
-1.2
 11
-105.6380978633
 21
-1.0624758621
  0
LINE
  5
375
100
AcDbEntity
  8
IMPORT_IGES
100
AcDbLine
 62
7
  6
CONTINUOUS
 10
-105.6380978633
 20
1.0623134584
 11
-105.6380978633
 21
1.2
  0
LWPOLYLINE
  5
376
100
AcDbEntity
  8
IMPORT_IGES
100
AcDbPolyline
 62
7
  6
CONTINUOUS
 90
28
 70
0
 10
-106.954917323
 20
-0.0
 10
-106.9528138744
 20
0.0703034997
 10
-106.9467182513
 20
0.1398737208
 10
-106.9366304538
 20
0.2087106632
 10
-106.9224860654
 20
0.2770383915
 10
-106.9043495026
 20
0.3446328412
 10
-106.8824140147
 20
0.4108218184
 10
-106.8566430105
 20
0.4755909845
 10
-106.8270730814
 20
0.5389546781
 10
-106.7940072501
 20
0.6002837213
 10
-106.7574123636
 20
0.6595574022
 10
-106.7173215749
 20
0.7167964326
 10
-106.6741373667
 20
0.7714337711
 10
-106.6278299137
 20
0.823444435
 10
-106.5784290412
 20
0.8728534068
 10
-106.5264267081
 20
0.9191685924
 10
-106.4717979279
 20
0.9623601675
 10
-106.4145676871
 20
1.0024579564
 10
-106.3553029033
 20
1.0390593374
 10
-106.2939828588
 20
1.0721311558
 10
-106.2306282714
 20
1.1017065665
 10
-106.1658682125
 20
1.1274824125
 10
-106.0996883356
 20
1.149422098
 10
-106.0321029872
 20
1.167562219
 10
-105.9637842773
 20
1.1817094065
 10
-105.8949562426
 20
1.1917992044
 10
-105.8253948464
 20
1.1978960689
 10
-105.7551000888
 20
1.2
  0
LINE
  5
377
100
AcDbEntity
  8
IMPORT_IGES
100
AcDbLine
 62
7
  6
CONTINUOUS
 10
-101.3551457802
 20
7.0428021464
 11
-101.6551457802
 21
7.0428021464
  0
LINE
  5
378
100
AcDbEntity
  8
IMPORT_IGES
100
AcDbLine
 62
250
  6
CONTINUOUS
 10
-103.1289671706
 20
-38.351403456
 11
-103.1230866698
 21
-38.7394990058
  0
LINE
  5
379
100
AcDbEntity
  8
IMPORT_IGES
100
AcDbLine
 62
250
  6
CONTINUOUS
 10
-103.1230866698
 20
-38.7394990058
 11
-103.1193900949
 21
-39.101157127
  0
LINE
  5
37A
100
AcDbEntity
  8
IMPORT_IGES
100
AcDbLine
 62
250
  6
CONTINUOUS
 10
-103.1189378606
 20
39.6090603075
 11
-103.1183319744
 21
39.5167820662
  0
LINE
  5
37B
100
AcDbEntity
  8
IMPORT_IGES
100
AcDbLine
 62
250
  6
CONTINUOUS
 10
-103.1193900949
 20
-39.101157127
 11
-103.1181799826
 21
-39.3547880674
  0
LINE
  5
37C
100
AcDbEntity
  8
IMPORT_IGES
100
AcDbLine
 62
7
  6
CONTINUOUS
 10
-103.8295050327
 20
-1.2
 11
-103.8295050327
 21
-1.0624758621
  0
LINE
  5
37D
100
AcDbEntity
  8
IMPORT_IGES
100
AcDbLine
 62
7
  6
CONTINUOUS
 10
-103.8295050327
 20
1.0623134584
 11
-103.8295050327
 21
1.2
  0
LINE
  5
37E
100
AcDbEntity
  8
IMPORT_IGES
100
AcDbLine
 62
7
  6
CONTINUOUS
 10
-103.3551457802
 20
-1.2
 11
-103.3551457802
 21
-4.25
  0
LINE
  5
37F
100
AcDbEntity
  8
IMPORT_IGES
100
AcDbLine
 62
7
  6
CONTINUOUS
 10
-103.3551457802
 20
1.2
 11
-103.3551457802
 21
4.25
  0
LINE
  5
380
100
AcDbEntity
  8
IMPORT_IGES
100
AcDbLine
 62
250
  6
CONTINUOUS
 10
-103.1289671706
 20
38.351403456
 11
-103.1289671706
 21
4.25
  0
LINE
  5
381
100
AcDbEntity
  8
IMPORT_IGES
100
AcDbLine
 62
250
  6
CONTINUOUS
 10
-103.1289671706
 20
-4.25
 11
-103.1289671706
 21
-38.351403456
  0
LINE
  5
382
100
AcDbEntity
  8
IMPORT_IGES
100
AcDbLine
 62
250
  6
CONTINUOUS
 10
-103.1183319744
 20
39.5167820662
 11
-103.1181799826
 21
39.3547880544
  0
LINE
  5
383
100
AcDbEntity
  8
IMPORT_IGES
100
AcDbLine
 62
250
  6
CONTINUOUS
 10
-103.1181799826
 20
-39.3547880674
 11
-103.1183319745
 21
-39.516782077
  0
LINE
  5
384
100
AcDbEntity
  8
IMPORT_IGES
100
AcDbLine
 62
250
  6
CONTINUOUS
 10
-103.1181799826
 20
39.3547880544
 11
-103.119390095
 21
39.1011571134
  0
LINE
  5
385
100
AcDbEntity
  8
IMPORT_IGES
100
AcDbLine
 62
250
  6
CONTINUOUS
 10
-103.1183319745
 20
-39.516782077
 11
-103.1189378607
 21
-39.6090603164
  0
LINE
  5
386
100
AcDbEntity
  8
IMPORT_IGES
100
AcDbLine
 62
250
  6
CONTINUOUS
 10
-103.119390095
 20
39.1011571134
 11
-103.1230866699
 21
38.7394989964
  0
LINE
  5
387
100
AcDbEntity
  8
IMPORT_IGES
100
AcDbLine
 62
250
  6
CONTINUOUS
 10
-103.1230866699
 20
38.7394989964
 11
-103.1289671706
 21
38.351403456
  0
LINE
  5
388
100
AcDbEntity
  8
IMPORT_IGES
100
AcDbLine
 62
250
  6
CONTINUOUS
 10
-103.1199402951
 20
39.6875647016
 11
-103.1189378606
 21
39.6090603075
  0
LINE
  5
389
100
AcDbEntity
  8
IMPORT_IGES
100
AcDbLine
 62
7
  6
CONTINUOUS
 10
-102.1328180989
 20
-4.0000812019
 11
-102.1328180989
 21
3.9999187981
  0
LINE
  5
38A
100
AcDbEntity
  8
IMPORT_IGES
100
AcDbLine
 62
7
  6
CONTINUOUS
 10
-101.6551457802
 20
-38.351403456
 11
-101.6551457802
 21
38.351403456
  0
LINE
  5
38B
100
AcDbEntity
  8
IMPORT_IGES
100
AcDbLine
 62
7
  6
CONTINUOUS
 10
-101.3551457802
 20
7.0428021464
 11
-101.3551457802
 21
2.1752744603
  0
LINE
  5
38C
100
AcDbEntity
  8
IMPORT_IGES
100
AcDbLine
 62
7
  6
CONTINUOUS
 10
-101.3551457802
 20
-7.0428021464
 11
-101.3551457802
 21
-2.0575705229
  0
LINE
  5
38D
100
AcDbEntity
  8
IMPORT_IGES
100
AcDbLine
 62
7
  6
CONTINUOUS
 10
-100.6551457802
 20
35.0
 11
-100.6551457802
 21
29.0
  0
LINE
  5
38E
100
AcDbEntity
  8
IMPORT_IGES
100
AcDbLine
 62
7
  6
CONTINUOUS
 10
-100.6551457802
 20
-16.0
 11
-100.6551457802
 21
-38.0
  0
LWPOLYLINE
  5
38F
100
AcDbEntity
  8
IMPORT_IGES
100
AcDbPolyline
 62
250
  6
CONTINUOUS
 90
11
 70
0
 10
-103.1189378607
 20
-39.6090603164
 10
-103.1199402952
 20
-39.6875647083
 10
-103.1205869537
 20
-39.7213768686
 10
-103.1213282989
 20
-39.7514354761
 10
-103.1221622993
 20
-39.7776581739
 10
-103.1230866699
 20
-39.7999731178
 10
-103.1240988779
 20
-39.8183191704
 10
-103.12519615
 20
-39.8326460677
 10
-103.1263754797
 20
-39.8429145592
 10
-103.1276336356
 20
-39.8490965143
 10
-103.1289671706
 20
-39.8511749988
  0
LWPOLYLINE
  5
390
100
AcDbEntity
  8
IMPORT_IGES
100
AcDbPolyline
 62
250
  6
CONTINUOUS
 90
4
 70
0
 10
-127.6371086714
 20
32.1831347626
 10
-127.6350399145
 20
32.1823576929
 10
-127.6285877077
 20
32.1809998729
 10
-127.6181275468
 20
32.1790613026
  0
LWPOLYLINE
  5
391
100
AcDbEntity
  8
0
100
AcDbPolyline
 62
7
  6
CONTINUOUS
 90
10
 70
0
 43
0.3500000006
 10
-113.3254220581
 20
54.0646359558
 10
-113.2539908752
 20
53.9217781219
 10
-113.2539908752
 20
53.8503514709
 10
-113.3968441772
 20
53.7074936371
 10
-113.4682753601
 20
53.7074936371
 10
-113.539706543
 20
53.7789248199
 10
-113.539706543
 20
53.8503514709
 10
-113.4682753601
 20
53.9932093048
 10
-113.3968441772
 20
54.0646359558
 10
-113.3254220581
 20
54.0646359558
  0
LWPOLYLINE
  5
392
100
AcDbEntity
  8
IMPORT_IGES
100
AcDbPolyline
 62
250
  6
CONTINUOUS
 90
4
 70
0
 10
-127.6371086714
 20
34.6831347626
 10
-127.6350399145
 20
34.6823576929
 10
-127.6285877077
 20
34.6809998729
 10
-127.6181275468
 20
34.6790613026
  0
LINE
  5
393
100
AcDbEntity
  8
IMPORT_IGES
100
AcDbLine
 62
7
  6
CONTINUOUS
 10
-128.1385489863
 20
28.7206377593
 11
-115.1435993742
 21
28.9475536033
  0
LINE
  5
394
100
AcDbEntity
  8
IMPORT_IGES
100
AcDbLine
 62
7
  6
CONTINUOUS
 10
-101.6551457802
 20
29.0
 11
-100.6551457802
 21
29.0
  0
LINE
  5
395
100
AcDbEntity
  8
IMPORT_IGES
100
AcDbLine
 62
7
  6
CONTINUOUS
 10
-113.6551457802
 20
29.0290432892
 11
-108.4638774589
 21
28.9383741304
  0
LWPOLYLINE
  5
396
100
AcDbEntity
  8
IMPORT_IGES
100
AcDbPolyline
 62
7
  6
CONTINUOUS
 90
128
 70
0
 10
-127.4684177598
 20
31.9855453788
 10
-127.4618294305
 20
31.9843502671
 10
-127.4568266747
 20
31.9834220098
 10
-127.4507471173
 20
31.9822619289
 10
-127.4436108052
 20
31.9808527873
 10
-127.4354067936
 20
31.9791677884
 10
-127.4261455213
 20
31.9771805082
 10
-127.415838584
 20
31.9748612565
 10
-127.4044906065
 20
31.9721751971
 10
-127.3921037705
 20
31.9690829676
 10
-127.3786090582
 20
31.9655216915
 10
-127.3641028963
 20
31.9614668144
 10
-127.3488358207
 20
31.9569420939
 10
-127.3327772212
 20
31.9518942235
 10
-127.3159914443
 20
31.9462963764
 10
-127.2988648583
 20
31.9402400595
 10
-127.2814475554
 20
31.9337169649
 10
-127.2637184588
 20
31.9266923555
 10
-127.2459464524
 20
31.919252261
 10
-127.2281630212
 20
31.9113985752
 10
-127.2103586198
 20
31.9031154452
 10
-127.1927302354
 20
31.894488357
 10
-127.1753802499
 20
31.8855719491
 10
-127.1582171044
 20
31.8763237691
 10
-127.1411448991
 20
31.8666887687
 10
-127.1241941643
 20
31.8566778665
 10
-127.1073532548
 20
31.8462779659
 10
-127.0904725387
 20
31.8353824282
 10
-127.0735230721
 20
31.8239492546
 10
-127.0565688494
 20
31.8119976797
 10
-127.0396075606
 20
31.799502352
 10
-127.0226608772
 20
31.7864540327
 10
-127.0057470681
 20
31.7728408254
 10
-126.9888621461
 20
31.7586310417
 10
-126.9720483412
 20
31.7438305384
 10
-126.9553103178
 20
31.7284127507
 10
-126.9385955003
 20
31.7122910321
 10
-126.9219262551
 20
31.695441281
 10
-126.9053450348
 20
31.677858777
 10
-126.8888401427
 20
31.6594782159
 10
-126.8724110241
 20
31.6402361998
 10
-126.8561415361
 20
31.620164791
 10
-126.8401456663
 20
31.5993459799
 10
-126.8244562244
 20
31.577768205
 10
-126.80911585
 20
31.555432968
 10
-126.7942383742
 20
31.5324561549
 10
-126.7798622169
 20
31.5088565441
 10
-126.7660088991
 20
31.4846268763
 10
-126.7527514105
 20
31.459856113
 10
-126.7401229182
 20
31.4345752964
 10
-126.7281374006
 20
31.4087793986
 10
-126.716830031
 20
31.3825096757
 10
-126.7062348352
 20
31.3558156366
 10
-126.6963584839
 20
31.3286819045
 10
-126.6871987734
 20
31.3010525586
 10
-126.678773418
 20
31.2729116513
 10
-126.6711205071
 20
31.2443099728
 10
-126.6642722689
 20
31.215291949
 10
-126.6582441852
 20
31.1858332124
 10
-126.6530713503
 20
31.1560019679
 10
-126.648797821
 20
31.1259864904
 10
-126.6454348676
 20
31.0958515158
 10
-126.6429834532
 20
31.0655869453
 10
-126.6414514676
 20
31.0352722475
 10
-126.6408396185
 20
31.0049831063
 10
-126.6411443875
 20
30.9746997368
 10
-126.6423696342
 20
30.9443588284
 10
-126.6445264506
 20
30.9139323481
 10
-126.6476187635
 20
30.8835056275
 10
-126.6516395372
 20
30.853185361
 10
-126.6566000428
 20
30.8229173993
 10
-126.6624861012
 20
30.7928135531
 10
-126.6692143137
 20
30.7632227387
 10
-126.6767344664
 20
30.7342200555
 10
-126.6850229545
 20
30.7057688917
 10
-126.6939927675
 20
30.6780380201
 10
-126.7035643214
 20
30.6511224307
 10
-126.7137168423
 20
30.6249438465
 10
-126.7244477075
 20
30.5994070611
 10
-126.7357095956
 20
30.5745409777
 10
-126.7474748739
 20
30.5503293732
 10
-126.759793126
 20
30.5266166775
 10
-126.772630687
 20
30.5034315221
 10
-126.7859747279
 20
30.4807631288
 10
-126.7999361666
 20
30.4584117578
 10
-126.8145426054
 20
30.4363453326
 10
-126.8297558707
 20
30.4146329929
 10
-126.8456085696
 20
30.393239643
 10
-126.8621677193
 20
30.3720981258
 10
-126.8793627527
 20
30.3513210928
 10
-126.897006245
 20
30.3311323016
 10
-126.9150833526
 20
30.3115302532
 10
-126.9335651283
 20
30.2925286144
 10
-126.9522088793
 20
30.2743417604
 10
-126.970981085
 20
30.256952356
 10
-126.9898412834
 20
30.2403499611
 10
-127.0085052085
 20
30.2247224869
 10
-127.0268653436
 20
30.2100817281
 10
-127.044934534
 20
30.1963433755
 10
-127.0625936613
 20
30.1835269868
 10
-127.079714039
 20
30.1716507446
 10
-127.0963407725
 20
30.1606123222
 10
-127.1126235401
 20
30.1502567815
 10
-127.1285139002
 20
30.1405688253
 10
-127.144008491
 20
30.1315063962
 10
-127.1593426949
 20
30.122899561
 10
-127.1744690609
 20
30.1147518477
 10
-127.1894068587
 20
30.1070303694
 10
-127.2045102336
 20
30.0995428017
 10
-127.2198807541
 20
30.0922447925
 10
-127.2354117743
 20
30.0851927481
 10
-127.2511557919
 20
30.0783668218
 10
-127.267248148
 20
30.0717186085
 10
-127.2835502452
 20
30.0653157348
 10
-127.2996972984
 20
30.059296438
 10
-127.3156651898
 20
30.0536538384
 10
-127.3314586189
 20
30.0483708661
 10
-127.3467440128
 20
30.0435353238
 10
-127.3615126214
 20
30.0391187447
 10
-127.3757484628
 20
30.0350958893
 10
-127.3890992708
 20
30.0315291947
 10
-127.4014681567
 20
30.0284006188
 10
-127.4129271891
 20
30.0256515211
 10
-127.4233750817
 20
30.0232687052
 10
-127.432764227
 20
30.0212268605
 10
-127.4411257341
 20
30.0194868071
 10
-127.4484778556
 20
30.0180166978
 10
-127.4548524325
 20
30.0167864463
  0
LWPOLYLINE
  5
397
100
AcDbEntity
  8
IMPORT_IGES
100
AcDbPolyline
 62
250
  6
CONTINUOUS
 90
68
 70
0
 10
-127.6181275468
 20
32.1790613026
 10
-127.5664135828
 20
32.1697610901
 10
-127.5464048176
 20
32.1662478813
 10
-127.5256844306
 20
32.1622425765
 10
-127.5002637866
 20
32.1560320124
 10
-127.4661499744
 20
32.1467893597
 10
-127.4252250863
 20
32.1353414477
 10
-127.382574129
 20
32.1224556021
 10
-127.3412211811
 20
32.1084757256
 10
-127.2997222849
 20
32.0930579154
 10
-127.2577483331
 20
32.0759377885
 10
-127.2160949008
 20
32.0575626774
 10
-127.1746870989
 20
32.0374852496
 10
-127.1314461727
 20
32.014099125
 10
-127.0850476742
 20
31.9866095725
 10
-127.036811223
 20
31.9558113231
 10
-126.9885250269
 20
31.9224821893
 10
-126.9404280981
 20
31.8866348205
 10
-126.8926648448
 20
31.8482565672
 10
-126.8471309175
 20
31.8080872937
 10
-126.8048588348
 20
31.76648365
 10
-126.7652944775
 20
31.723088986
 10
-126.7279902084
 20
31.6775732155
 10
-126.6929482637
 20
31.6297904071
 10
-126.6604031697
 20
31.5798864921
 10
-126.6301951264
 20
31.5279691781
 10
-126.6021758312
 20
31.4738427367
 10
-126.5766281407
 20
31.4177028963
 10
-126.5540217091
 20
31.3602445493
 10
-126.5343773042
 20
31.3014437022
 10
-126.5177621493
 20
31.2413243486
 10
-126.5047125341
 20
31.1806533616
 10
-126.4953169516
 20
31.1195100947
 10
-126.4895313333
 20
31.0578151944
 10
-126.4876861535
 20
30.9960974737
 10
-126.4899885741
 20
30.9343586944
 10
-126.4962305127
 20
30.8725970946
 10
-126.5061093202
 20
30.8113362016
 10
-126.5196691622
 20
30.7504778963
 10
-126.5368188089
 20
30.6901202977
 10
-126.5570450702
 20
30.6310812898
 10
-126.5802795922
 20
30.5733935318
 10
-126.6064975939
 20
30.5170243647
 10
-126.6352471986
 20
30.462693695
 10
-126.6662426129
 20
30.4106039953
 10
-126.6996255711
 20
30.3605527931
 10
-126.7355660047
 20
30.3126525785
 10
-126.7738649159
 20
30.2670385216
 10
-126.8144651593
 20
30.2235754522
 10
-126.8576896396
 20
30.1819703493
 10
-126.9041640933
 20
30.1418220335
 10
-126.9527610933
 20
30.1035316841
 10
-127.0012427953
 20
30.0680098177
 10
-127.0493060936
 20
30.0353653681
 10
-127.0969340595
 20
30.0054894015
 10
-127.1425854471
 20
29.9789656333
 10
-127.1849670379
 20
29.9565836621
 10
-127.2254113787
 20
29.9375538893
 10
-127.2661775339
 20
29.9200912339
 10
-127.307654947
 20
29.9036331366
 10
-127.348687159
 20
29.8887421568
 10
-127.3888830351
 20
29.8753208918
 10
-127.4291492915
 20
29.8631924346
 10
-127.4674551022
 20
29.8525336923
 10
-127.5000243
 20
29.8437779836
 10
-127.5253236126
 20
29.8375191688
 10
-127.5464544298
 20
29.8331633877
 10
-127.5862661596
 20
29.8256225424
  0
LWPOLYLINE
  5
398
100
AcDbEntity
  8
IMPORT_IGES
100
AcDbPolyline
 62
250
  6
CONTINUOUS
 90
5
 70
0
 10
-127.6371086714
 20
37.1831347626
 10
-127.6350399145
 20
37.1823576929
 10
-127.6285877077
 20
37.1809998729
 10
-127.6181275468
 20
37.1790613026
 10
-127.5862882704
 20
37.1733828084
  0
LWPOLYLINE
  5
399
100
AcDbEntity
  8
IMPORT_IGES
100
AcDbPolyline
 62
250
  6
CONTINUOUS
 90
10
 70
0
 10
-103.1289671706
 20
39.8511749988
 10
-103.1276336356
 20
39.8490965142
 10
-103.1263754796
 20
39.8429145587
 10
-103.1251961499
 20
39.8326460668
 10
-103.1240988778
 20
39.8183191687
 10
-103.1230866698
 20
39.7999731153
 10
-103.1221622992
 20
39.7776581704
 10
-103.1213282988
 20
39.7514354716
 10
-103.1205869536
 20
39.721376863
 10
-103.1199402951
 20
39.6875647016
  0
LINE
  5
39A
100
AcDbEntity
  8
IMPORT_IGES
100
AcDbLine
 62
7
  6
CONTINUOUS
 10
-127.4695609438
 20
30.0140777393
 11
-127.4704427189
 21
30.0139055016
  0
LWPOLYLINE
  5
39B
100
AcDbEntity
  8
IMPORT_IGES
100
AcDbPolyline
 62
250
  6
CONTINUOUS
 90
3
 70
0
 10
-127.5862661596
 20
29.8256225424
 10
-127.6035798507
 20
29.8224374783
 10
-127.6177810982
 20
29.8199397219
  0
LWPOLYLINE
  5
39C
100
AcDbEntity
  8
IMPORT_IGES
100
AcDbPolyline
 62
250
  6
CONTINUOUS
 90
3
 70
0
 10
-127.5862661596
 20
32.3256225424
 10
-127.6035798507
 20
32.3224374783
 10
-127.6177810982
 20
32.3199397219
  0
LWPOLYLINE
  5
39D
100
AcDbEntity
  8
IMPORT_IGES
100
AcDbPolyline
 62
7
  6
CONTINUOUS
 90
3
 70
0
 10
-127.4548524325
 20
30.0167864463
 10
-127.4644566359
 20
30.015004968
 10
-127.4695609438
 20
30.0140777393
  0
LWPOLYLINE
  5
39E
100
AcDbEntity
  8
IMPORT_IGES
100
AcDbPolyline
 62
250
  6
CONTINUOUS
 90
3
 70
0
 10
-127.6177810982
 20
29.8199397219
 10
-127.6349713516
 20
29.8170944895
 10
-127.6371086714
 20
29.8167028349
  0
LWPOLYLINE
  5
39F
100
AcDbEntity
  8
IMPORT_IGES
100
AcDbPolyline
 62
250
  6
CONTINUOUS
 90
3
 70
0
 10
-127.6177810982
 20
32.3199397219
 10
-127.6349713516
 20
32.3170944895
 10
-127.6371086714
 20
32.3167028349
  0
LWPOLYLINE
  5
3A0
100
AcDbEntity
  8
IMPORT_IGES
100
AcDbPolyline
 62
7
  6
CONTINUOUS
 90
128
 70
0
 10
-127.4684177598
 20
34.4855453788
 10
-127.4618294305
 20
34.4843502671
 10
-127.4568266747
 20
34.4834220098
 10
-127.4507471173
 20
34.4822619289
 10
-127.4436108052
 20
34.4808527873
 10
-127.4354067936
 20
34.4791677884
 10
-127.4261455213
 20
34.4771805082
 10
-127.415838584
 20
34.4748612565
 10
-127.4044906065
 20
34.4721751971
 10
-127.3921037706
 20
34.4690829676
 10
-127.3786090583
 20
34.4655216915
 10
-127.3641028963
 20
34.4614668144
 10
-127.3488358208
 20
34.456942094
 10
-127.3327772212
 20
34.4518942236
 10
-127.3159914443
 20
34.4462963764
 10
-127.2988648583
 20
34.4402400595
 10
-127.2814475555
 20
34.4337169649
 10
-127.2637184588
 20
34.4266923555
 10
-127.2459464524
 20
34.4192522611
 10
-127.2281630212
 20
34.4113985752
 10
-127.2103586199
 20
34.4031154452
 10
-127.1927302355
 20
34.394488357
 10
-127.1753802499
 20
34.3855719491
 10
-127.1582171044
 20
34.3763237692
 10
-127.1411448991
 20
34.3666887687
 10
-127.1241941644
 20
34.3566778665
 10
-127.1073532548
 20
34.3462779659
 10
-127.0904725387
 20
34.3353824283
 10
-127.0735230721
 20
34.3239492546
 10
-127.0565688495
 20
34.3119976797
 10
-127.0396075606
 20
34.2995023521
 10
-127.0226608773
 20
34.2864540328
 10
-127.0057470682
 20
34.2728408254
 10
-126.9888621461
 20
34.2586310418
 10
-126.9720483413
 20
34.2438305384
 10
-126.9553103178
 20
34.2284127507
 10
-126.9385955003
 20
34.2122910322
 10
-126.9219262551
 20
34.195441281
 10
-126.9053450348
 20
34.1778587771
 10
-126.8888401427
 20
34.1594782159
 10
-126.8724110241
 20
34.1402361999
 10
-126.8561415361
 20
34.120164791
 10
-126.8401456663
 20
34.0993459799
 10
-126.8244562245
 20
34.0777682051
 10
-126.80911585
 20
34.0554329681
 10
-126.7942383743
 20
34.032456155
 10
-126.7798622169
 20
34.0088565441
 10
-126.7660088991
 20
33.9846268763
 10
-126.7527514105
 20
33.959856113
 10
-126.7401229182
 20
33.9345752964
 10
-126.7281374006
 20
33.9087793987
 10
-126.716830031
 20
33.8825096757
 10
-126.7062348352
 20
33.8558156367
 10
-126.6963584839
 20
33.8286819046
 10
-126.6871987735
 20
33.8010525586
 10
-126.678773418
 20
33.7729116513
 10
-126.6711205071
 20
33.7443099729
 10
-126.6642722689
 20
33.715291949
 10
-126.6582441852
 20
33.6858332125
 10
-126.6530713503
 20
33.656001968
 10
-126.648797821
 20
33.6259864904
 10
-126.6454348676
 20
33.5958515158
 10
-126.6429834532
 20
33.5655869453
 10
-126.6414514676
 20
33.5352722475
 10
-126.6408396185
 20
33.5049831064
 10
-126.6411443875
 20
33.4746997368
 10
-126.6423696342
 20
33.4443588284
 10
-126.6445264506
 20
33.4139323481
 10
-126.6476187635
 20
33.3835056276
 10
-126.6516395372
 20
33.353185361
 10
-126.6566000428
 20
33.3229173993
 10
-126.6624861012
 20
33.2928135531
 10
-126.6692143137
 20
33.2632227387
 10
-126.6767344664
 20
33.2342200555
 10
-126.6850229545
 20
33.2057688917
 10
-126.6939927675
 20
33.1780380201
 10
-126.7035643213
 20
33.1511224307
 10
-126.7137168422
 20
33.1249438465
 10
-126.7244477075
 20
33.0994070611
 10
-126.7357095956
 20
33.0745409778
 10
-126.7474748739
 20
33.0503293732
 10
-126.759793126
 20
33.0266166775
 10
-126.772630687
 20
33.0034315221
 10
-126.7859747279
 20
32.9807631288
 10
-126.7999361666
 20
32.9584117578
 10
-126.8145426054
 20
32.9363453326
 10
-126.8297558707
 20
32.9146329929
 10
-126.8456085696
 20
32.893239643
 10
-126.8621677193
 20
32.8720981258
 10
-126.8793627527
 20
32.8513210927
 10
-126.897006245
 20
32.8311323016
 10
-126.9150833526
 20
32.8115302532
 10
-126.9335651283
 20
32.7925286143
 10
-126.9522088793
 20
32.7743417604
 10
-126.970981085
 20
32.756952356
 10
-126.9898412834
 20
32.7403499611
 10
-127.0085052085
 20
32.7247224869
 10
-127.0268653436
 20
32.7100817281
 10
-127.044934534
 20
32.6963433755
 10
-127.0625936613
 20
32.6835269868
 10
-127.079714039
 20
32.6716507446
 10
-127.0963407725
 20
32.6606123222
 10
-127.1126235401
 20
32.6502567815
 10
-127.1285139002
 20
32.6405688253
 10
-127.144008491
 20
32.6315063962
 10
-127.1593426948
 20
32.622899561
 10
-127.1744690609
 20
32.6147518477
 10
-127.1894068587
 20
32.6070303694
 10
-127.2045102336
 20
32.5995428017
 10
-127.2198807541
 20
32.5922447925
 10
-127.2354117742
 20
32.5851927481
 10
-127.2511557919
 20
32.5783668218
 10
-127.267248148
 20
32.5717186085
 10
-127.2835502452
 20
32.5653157348
 10
-127.2996972984
 20
32.559296438
 10
-127.3156651898
 20
32.5536538384
 10
-127.3314586189
 20
32.5483708661
 10
-127.3467440128
 20
32.5435353238
 10
-127.3615126214
 20
32.5391187447
 10
-127.3757484628
 20
32.5350958893
 10
-127.3890992708
 20
32.5315291947
 10
-127.4014681567
 20
32.5284006189
 10
-127.4129271891
 20
32.5256515211
 10
-127.4233750816
 20
32.5232687052
 10
-127.432764227
 20
32.5212268605
 10
-127.4411257341
 20
32.5194868071
 10
-127.4484778556
 20
32.5180166978
 10
-127.4548524325
 20
32.5167864463
  0
LWPOLYLINE
  5
3A1
100
AcDbEntity
  8
IMPORT_IGES
100
AcDbPolyline
 62
7
  6
CONTINUOUS
 90
128
 70
0
 10
-127.4684177601
 20
36.9855453788
 10
-127.461829431
 20
36.9843502672
 10
-127.4568266752
 20
36.9834220099
 10
-127.4507471179
 20
36.982261929
 10
-127.4436108058
 20
36.9808527874
 10
-127.4354067943
 20
36.9791677885
 10
-127.4261455221
 20
36.9771805084
 10
-127.4158385848
 20
36.9748612567
 10
-127.4044906074
 20
36.9721751973
 10
-127.3921037715
 20
36.9690829678
 10
-127.3786090593
 20
36.9655216917
 10
-127.3641028973
 20
36.9614668147
 10
-127.3488358219
 20
36.9569420943
 10
-127.3327772224
 20
36.9518942239
 10
-127.3159914454
 20
36.9462963768
 10
-127.2988648594
 20
36.94024006
 10
-127.2814475566
 20
36.9337169654
 10
-127.26371846
 20
36.9266923559
 10
-127.2459464536
 20
36.9192522616
 10
-127.2281630224
 20
36.9113985758
 10
-127.210358621
 20
36.9031154457
 10
-127.1927302366
 20
36.8944883576
 10
-127.1753802511
 20
36.8855719497
 10
-127.1582171056
 20
36.8763237698
 10
-127.1411449003
 20
36.8666887694
 10
-127.1241941655
 20
36.8566778672
 10
-127.107353256
 20
36.8462779666
 10
-127.0904725399
 20
36.835382429
 10
-127.0735230733
 20
36.8239492554
 10
-127.0565688506
 20
36.8119976806
 10
-127.0396075618
 20
36.7995023529
 10
-127.0226608784
 20
36.7864540337
 10
-127.0057470693
 20
36.7728408264
 10
-126.9888621472
 20
36.7586310427
 10
-126.9720483424
 20
36.7438305394
 10
-126.9553103189
 20
36.7284127518
 10
-126.9385955014
 20
36.7122910332
 10
-126.9219262561
 20
36.6954412821
 10
-126.9053450358
 20
36.6778587782
 10
-126.8888401438
 20
36.6594782171
 10
-126.8724110251
 20
36.640236201
 10
-126.856141537
 20
36.6201647922
 10
-126.8401456672
 20
36.5993459811
 10
-126.8244562254
 20
36.5777682063
 10
-126.8091158509
 20
36.5554329694
 10
-126.7942383751
 20
36.5324561563
 10
-126.7798622177
 20
36.5088565455
 10
-126.7660088999
 20
36.4846268777
 10
-126.7527514113
 20
36.4598561144
 10
-126.7401229189
 20
36.4345752979
 10
-126.7281374013
 20
36.4087794002
 10
-126.7168300317
 20
36.3825096773
 10
-126.7062348358
 20
36.3558156383
 10
-126.6963584844
 20
36.3286819062
 10
-126.687198774
 20
36.3010525602
 10
-126.6787734184
 20
36.2729116529
 10
-126.6711205075
 20
36.2443099745
 10
-126.6642722692
 20
36.2152919506
 10
-126.6582441855
 20
36.185833214
 10
-126.6530713506
 20
36.1560019695
 10
-126.6487978212
 20
36.1259864919
 10
-126.6454348678
 20
36.0958515173
 10
-126.6429834533
 20
36.0655869468
 10
-126.6414514676
 20
36.035272249
 10
-126.6408396185
 20
36.0049831078
 10
-126.6411443874
 20
35.9746997383
 10
-126.6423696342
 20
35.9443588298
 10
-126.6445264504
 20
35.9139323495
 10
-126.6476187633
 20
35.8835056289
 10
-126.651639537
 20
35.8531853623
 10
-126.6566000426
 20
35.8229174006
 10
-126.6624861009
 20
35.7928135544
 10
-126.6692143134
 20
35.76322274
 10
-126.6767344661
 20
35.7342200568
 10
-126.6850229541
 20
35.705768893
 10
-126.6939927671
 20
35.6780380214
 10
-126.7035643209
 20
35.6511224319
 10
-126.7137168418
 20
35.6249438477
 10
-126.724447707
 20
35.5994070622
 10
-126.7357095951
 20
35.5745409788
 10
-126.7474748734
 20
35.5503293742
 10
-126.7597931255
 20
35.5266166785
 10
-126.7726306864
 20
35.503431523
 10
-126.7859747274
 20
35.4807631296
 10
-126.7999361661
 20
35.4584117587
 10
-126.8145426049
 20
35.4363453333
 10
-126.8297558702
 20
35.4146329936
 10
-126.8456085691
 20
35.3932396437
 10
-126.8621677188
 20
35.3720981264
 10
-126.8793627522
 20
35.3513210933
 10
-126.8970062445
 20
35.3311323021
 10
-126.9150833521
 20
35.3115302537
 10
-126.9335651279
 20
35.2925286148
 10
-126.9522088788
 20
35.2743417608
 10
-126.9709810845
 20
35.2569523564
 10
-126.989841283
 20
35.2403499615
 10
-127.008505208
 20
35.2247224873
 10
-127.0268653431
 20
35.2100817285
 10
-127.0449345335
 20
35.1963433759
 10
-127.0625936608
 20
35.1835269871
 10
-127.0797140384
 20
35.171650745
 10
-127.0963407719
 20
35.1606123226
 10
-127.1126235396
 20
35.1502567818
 10
-127.1285138997
 20
35.1405688256
 10
-127.1440084905
 20
35.1315063965
 10
-127.1593426944
 20
35.1228995613
 10
-127.1744690604
 20
35.114751848
 10
-127.1894068583
 20
35.1070303696
 10
-127.2045102332
 20
35.0995428019
 10
-127.2198807537
 20
35.0922447926
 10
-127.2354117739
 20
35.0851927483
 10
-127.2511557916
 20
35.0783668219
 10
-127.2672481477
 20
35.0717186086
 10
-127.2835502449
 20
35.0653157349
 10
-127.2996972982
 20
35.0592964381
 10
-127.3156651896
 20
35.0536538385
 10
-127.3314586187
 20
35.0483708662
 10
-127.3467440127
 20
35.0435353239
 10
-127.3615126213
 20
35.0391187448
 10
-127.3757484626
 20
35.0350958893
 10
-127.3890992707
 20
35.0315291947
 10
-127.4014681566
 20
35.0284006189
 10
-127.412927189
 20
35.0256515211
 10
-127.4233750816
 20
35.0232687053
 10
-127.432764227
 20
35.0212268605
 10
-127.4411257341
 20
35.0194868071
 10
-127.4484778556
 20
35.0180166978
 10
-127.4548524325
 20
35.0167864463
  0
LWPOLYLINE
  5
3A2
100
AcDbEntity
  8
IMPORT_IGES
100
AcDbPolyline
 62
250
  6
CONTINUOUS
 90
68
 70
0
 10
-127.6181275468
 20
34.6790613026
 10
-127.5664135829
 20
34.6697610901
 10
-127.5464048178
 20
34.6662478814
 10
-127.5256844309
 20
34.6622425766
 10
-127.5002637871
 20
34.6560320125
 10
-127.466149975
 20
34.6467893598
 10
-127.425225087
 20
34.6353414479
 10
-127.3825741297
 20
34.6224556024
 10
-127.341221182
 20
34.6084757259
 10
-127.2997222857
 20
34.5930579157
 10
-127.2577483339
 20
34.5759377888
 10
-127.2160949017
 20
34.5575626778
 10
-127.1746870998
 20
34.5374852501
 10
-127.1314461735
 20
34.5140991255
 10
-127.0850476751
 20
34.4866095731
 10
-127.0368112239
 20
34.4558113237
 10
-126.9885250278
 20
34.42248219
 10
-126.940428099
 20
34.3866348212
 10
-126.8926648457
 20
34.348256568
 10
-126.8471309183
 20
34.3080872945
 10
-126.8048588355
 20
34.2664836508
 10
-126.7652944781
 20
34.2230889868
 10
-126.727990209
 20
34.1775732163
 10
-126.6929482642
 20
34.1297904079
 10
-126.6604031702
 20
34.0798864929
 10
-126.6301951269
 20
34.027969179
 10
-126.6021758316
 20
33.9738427376
 10
-126.576628141
 20
33.9177028972
 10
-126.5540217094
 20
33.8602445502
 10
-126.5343773045
 20
33.8014437031
 10
-126.5177621495
 20
33.7413243495
 10
-126.5047125342
 20
33.6806533624
 10
-126.4953169517
 20
33.6195100955
 10
-126.4895313333
 20
33.5578151952
 10
-126.4876861536
 20
33.4960974744
 10
-126.4899885741
 20
33.4343586951
 10
-126.4962305126
 20
33.3725970953
 10
-126.5061093201
 20
33.3113362022
 10
-126.5196691621
 20
33.2504778968
 10
-126.5368188088
 20
33.1901202982
 10
-126.5570450701
 20
33.1310812904
 10
-126.5802795919
 20
33.0733935324
 10
-126.6064975936
 20
33.0170243652
 10
-126.6352471983
 20
32.9626936955
 10
-126.6662426126
 20
32.9106039958
 10
-126.6996255708
 20
32.8605527936
 10
-126.7355660043
 20
32.8126525789
 10
-126.7738649155
 20
32.767038522
 10
-126.8144651589
 20
32.7235754527
 10
-126.8576896392
 20
32.6819703497
 10
-126.9041640929
 20
32.6418220338
 10
-126.9527610929
 20
32.6035316844
 10
-127.001242795
 20
32.5680098179
 10
-127.0493060933
 20
32.5353653683
 10
-127.0969340593
 20
32.5054894017
 10
-127.142585447
 20
32.4789656334
 10
-127.1849670378
 20
32.4565836622
 10
-127.2254113787
 20
32.4375538893
 10
-127.2661775339
 20
32.4200912339
 10
-127.307654947
 20
32.4036331366
 10
-127.348687159
 20
32.3887421567
 10
-127.3888830352
 20
32.3753208918
 10
-127.4291492916
 20
32.3631924346
 10
-127.4674551022
 20
32.3525336922
 10
-127.5000243
 20
32.3437779836
 10
-127.5253236126
 20
32.3375191688
 10
-127.5464544298
 20
32.3331633877
 10
-127.5862661596
 20
32.3256225424
  0
LWPOLYLINE
  5
3A3
100
AcDbEntity
  8
IMPORT_IGES
100
AcDbPolyline
 62
250
  6
CONTINUOUS
 90
68
 70
0
 10
-127.5862882704
 20
37.1733828084
 10
-127.5664135829
 20
37.1697610901
 10
-127.5464048177
 20
37.1662478814
 10
-127.5256844308
 20
37.1622425765
 10
-127.5002637869
 20
37.1560320125
 10
-127.4661499748
 20
37.1467893598
 10
-127.4252250868
 20
37.1353414479
 10
-127.3825741295
 20
37.1224556023
 10
-127.3412211817
 20
37.1084757258
 10
-127.2997222854
 20
37.0930579156
 10
-127.2577483336
 20
37.0759377887
 10
-127.2160949014
 20
37.0575626776
 10
-127.1746870995
 20
37.0374852499
 10
-127.1314461732
 20
37.0140991253
 10
-127.0850476747
 20
36.9866095729
 10
-127.0368112236
 20
36.9558113235
 10
-126.9885250275
 20
36.9224821897
 10
-126.9404280987
 20
36.8866348209
 10
-126.8926648453
 20
36.8482565677
 10
-126.847130918
 20
36.8080872942
 10
-126.8048588352
 20
36.7664836505
 10
-126.7652944779
 20
36.7230889865
 10
-126.7279902088
 20
36.6775732159
 10
-126.692948264
 20
36.6297904076
 10
-126.66040317
 20
36.5798864926
 10
-126.6301951267
 20
36.5279691786
 10
-126.6021758315
 20
36.4738427373
 10
-126.5766281409
 20
36.4177028969
 10
-126.5540217093
 20
36.3602445499
 10
-126.5343773044
 20
36.3014437028
 10
-126.5177621494
 20
36.2413243491
 10
-126.5047125342
 20
36.1806533621
 10
-126.4953169517
 20
36.1195100952
 10
-126.4895313333
 20
36.0578151949
 10
-126.4876861535
 20
35.9960974741
 10
-126.4899885741
 20
35.9343586948
 10
-126.4962305126
 20
35.872597095
 10
-126.5061093201
 20
35.8113362019
 10
-126.5196691621
 20
35.7504778966
 10
-126.5368188089
 20
35.690120298
 10
-126.5570450701
 20
35.6310812901
 10
-126.580279592
 20
35.5733935321
 10
-126.6064975937
 20
35.5170243649
 10
-126.6352471985
 20
35.4626936953
 10
-126.6662426127
 20
35.4106039956
 10
-126.6996255709
 20
35.3605527934
 10
-126.7355660045
 20
35.3126525787
 10
-126.7738649157
 20
35.2670385219
 10
-126.8144651591
 20
35.2235754525
 10
-126.8576896394
 20
35.1819703495
 10
-126.9041640931
 20
35.1418220337
 10
-126.9527610931
 20
35.1035316842
 10
-127.0012427952
 20
35.0680098178
 10
-127.0493060935
 20
35.0353653682
 10
-127.0969340595
 20
35.0054894016
 10
-127.1425854471
 20
34.9789656333
 10
-127.1849670379
 20
34.9565836621
 10
-127.2254113787
 20
34.9375538893
 10
-127.266177534
 20
34.9200912339
 10
-127.3076549471
 20
34.9036331366
 10
-127.3486871591
 20
34.8887421567
 10
-127.3888830352
 20
34.8753208918
 10
-127.4291492916
 20
34.8631924346
 10
-127.4674551023
 20
34.8525336922
 10
-127.5000243
 20
34.8437779836
 10
-127.5253236126
 20
34.8375191688
 10
-127.5464544298
 20
34.8331633877
 10
-127.5862661596
 20
34.8256225424
  0
LINE
  5
3A4
100
AcDbEntity
  8
IMPORT_IGES
100
AcDbLine
 62
7
  6
CONTINUOUS
 10
-127.4695609438
 20
32.5140777393
 11
-127.4704427189
 21
32.5139055016
  0
LINE
  5
3A5
100
AcDbEntity
  8
IMPORT_IGES
100
AcDbLine
 62
7
  6
CONTINUOUS
 10
-127.4695609438
 20
35.0140777393
 11
-127.4704427189
 21
35.0139055016
  0
LWPOLYLINE
  5
3A6
100
AcDbEntity
  8
IMPORT_IGES
100
AcDbPolyline
 62
250
  6
CONTINUOUS
 90
3
 70
0
 10
-127.5862661596
 20
34.8256225424
 10
-127.6035798507
 20
34.8224374783
 10
-127.6177810982
 20
34.8199397219
  0
LWPOLYLINE
  5
3A7
100
AcDbEntity
  8
IMPORT_IGES
100
AcDbPolyline
 62
7
  6
CONTINUOUS
 90
3
 70
0
 10
-127.4548524325
 20
32.5167864463
 10
-127.4644566359
 20
32.515004968
 10
-127.4695609438
 20
32.5140777393
  0
LWPOLYLINE
  5
3A8
100
AcDbEntity
  8
IMPORT_IGES
100
AcDbPolyline
 62
7
  6
CONTINUOUS
 90
3
 70
0
 10
-127.4548524325
 20
35.0167864463
 10
-127.4644566359
 20
35.015004968
 10
-127.4695609438
 20
35.0140777393
  0
LWPOLYLINE
  5
3A9
100
AcDbEntity
  8
IMPORT_IGES
100
AcDbPolyline
 62
250
  6
CONTINUOUS
 90
3
 70
0
 10
-127.6177810982
 20
34.8199397219
 10
-127.6349713516
 20
34.8170944895
 10
-127.6371086714
 20
34.8167028349
  0
LINE
  5
3AA
100
AcDbEntity
  8
IMPORT_IGES
100
AcDbLine
 62
7
  6
CONTINUOUS
 10
-100.6551457802
 20
35.0
 11
-101.6551457802
 21
35.0
  0
LWPOLYLINE
  5
3AB
100
AcDbEntity
  8
IMPORT_IGES
100
AcDbPolyline
 62
7
  6
CONTINUOUS
 90
31
 70
0
 10
-126.1632936341
 20
39.7550909398
 10
-126.2408788441
 20
39.7517260932
 10
-126.3181859287
 20
39.7443503188
 10
-126.395007676
 20
39.7329833863
 10
-126.4711381752
 20
39.7176557634
 10
-126.5463733681
 20
39.6984085338
 10
-126.6205115964
 20
39.6752932872
 10
-126.6933541419
 20
39.6483719813
 10
-126.7647057595
 20
39.6177167749
 10
-126.8343752002
 20
39.5834098357
 10
-126.902175724
 20
39.5455431189
 10
-126.9679256002
 20
39.5042181215
 10
-127.0314485946
 20
39.4595456099
 10
-127.0925744419
 20
39.411645323
 10
-127.151139302
 20
39.3606456515
 10
-127.2069861992
 20
39.3066832935
 10
-127.2599654431
 20
39.2499028883
 10
-127.3099350296
 20
39.1904566285
 10
-127.3567610214
 20
39.1285038523
 10
-127.4003179076
 20
39.0642106162
 10
-127.4404889393
 20
38.99774925
 10
-127.4771664433
 20
38.929297895
 10
-127.5102521102
 20
38.8590400263
 10
-127.539657258
 20
38.7871639613
 10
-127.56530307
 20
38.7138623545
 10
-127.5871208059
 20
38.6393316816
 10
-127.6050519859
 20
38.5637717127
 10
-127.6190485479
 20
38.4873849765
 10
-127.6290729758
 20
38.4103762181
 10
-127.6350984004
 20
38.3329518495
 10
-127.6371086714
 20
38.2553193971
  0
LINE
  5
3AC
100
AcDbEntity
  8
IMPORT_IGES
100
AcDbLine
 62
250
  6
CONTINUOUS
 10
-115.1421312783
 20
38.4477755224
 11
-126.167697251
 21
38.2553193971
  0
LINE
  5
3AD
100
AcDbEntity
  8
IMPORT_IGES
100
AcDbLine
 62
7
  6
CONTINUOUS
 10
-126.1632936341
 20
39.7550909398
 11
-115.1377276422
 21
39.9475536033
  0
LINE
  5
3AE
100
AcDbEntity
  8
IMPORT_IGES
100
AcDbLine
 62
250
  6
CONTINUOUS
 10
-127.6371086714
 20
38.2553193971
 11
-126.1676894314
 21
38.2553193971
  0
LINE
  5
3AF
100
AcDbEntity
  8
IMPORT_IGES
100
AcDbLine
 62
250
  6
CONTINUOUS
 10
-103.1289671706
 20
38.351403456
 11
-101.6551457802
 21
38.351403456
  0
LINE
  5
3B0
100
AcDbEntity
  8
IMPORT_IGES
100
AcDbLine
 62
7
  6
CONTINUOUS
 10
-114.6454539726
 20
38.799537978
 11
-115.1387604843
 21
38.799537978
  0
LINE
  5
3B1
100
AcDbEntity
  8
IMPORT_IGES
100
AcDbLine
 62
7
  6
CONTINUOUS
 10
-115.1377276422
 20
39.9475536033
 11
-114.6464867954
 21
39.9475536033
  0
LWPOLYLINE
  5
3B2
100
AcDbEntity
  8
0
100
AcDbPolyline
 62
7
  6
CONTINUOUS
 90
8
 70
0
 43
0.3500000006
 10
-112.2539905701
 20
53.5646358032
 10
-111.3968435669
 20
53.5646358032
 10
-110.9682745972
 20
53.9932093048
 10
-110.9682745972
 20
54.8503517761
 10
-111.3968435669
 20
55.2789252777
 10
-112.2539905701
 20
55.2789252777
 10
-112.2539905701
 20
56.5646367188
 10
-110.9682745972
 20
56.5646367188
  0
LWPOLYLINE
  5
3B3
100
AcDbEntity
  8
0
100
AcDbPolyline
 62
7
  6
CONTINUOUS
 90
7
 70
0
 43
0.3500000006
 10
-117.1825609131
 20
53.5646358032
 10
-118.6825613708
 20
53.5646358032
 10
-117.1825609131
 20
55.7074942474
 10
-117.1825609131
 20
56.136067749
 10
-117.6111298828
 20
56.5646367188
 10
-118.2539924011
 20
56.5646367188
 10
-118.6825613708
 20
55.9217832642
  0
LINE
  5
3B4
100
AcDbEntity
  8
IMPORT_IGES
100
AcDbLine
 62
250
  6
CONTINUOUS
 10
-103.1289671706
 20
38.351403456
 11
-113.6551457802
 21
38.5351385871
  0
LINE
  5
3B5
100
AcDbEntity
  8
IMPORT_IGES
100
AcDbLine
 62
7
  6
CONTINUOUS
 10
-113.6551457802
 20
38.7736426026
 11
-115.1387604843
 21
38.799537978
  0
LINE
  5
3B6
100
AcDbEntity
  8
IMPORT_IGES
100
AcDbLine
 62
7
  6
CONTINUOUS
 10
-113.6551457802
 20
38.7822511237
 11
-114.6454539726
 21
38.799537978
  0
LINE
  5
3B7
100
AcDbEntity
  8
IMPORT_IGES
100
AcDbLine
 62
7
  6
CONTINUOUS
 10
-113.6551457802
 20
40.0349101299
 11
-103.1289671706
 21
39.8511749988
  0
ARC
  5
3B8
100
AcDbEntity
  8
IMPORT_IGES
100
AcDbCircle
 62
7
  6
CONTINUOUS
 10
-103.1551457802
 20
-38.351403456
 40
1.5
100
AcDbArc
 50
271.0
 51
360.0
  0
ARC
  5
3B9
100
AcDbEntity
  8
IMPORT_IGES
100
AcDbCircle
 62
7
  6
CONTINUOUS
 10
-103.1551457802
 20
38.351403456
 40
1.5
100
AcDbArc
 50
0.0
 51
89.0
  0
ELLIPSE
  5
3BA
100
AcDbEntity
  8
IMPORT_IGES
100
AcDbEllipse
 62
7
  6
CONTINUOUS
 10
-83.6530505076
 20
-38.4470302872
 30
0.0
 11
0.7621602914
 21
1.293023562
 31
0.0
 40
0.9993623148
 41
-3.9425846652
 42
-2.60925277
  0
ELLIPSE
  5
3BB
100
AcDbEntity
  8
IMPORT_IGES
100
AcDbEllipse
 62
7
  6
CONTINUOUS
 10
83.6498423128
 20
-38.4470302872
 30
0.0
 11
-0.8058502589
 21
1.266337024
 31
0.0
 40
0.9992710033
 41
-3.7079912863
 42
-2.3746593911
  0
ELLIPSE
  5
3BC
100
AcDbEntity
  8
IMPORT_IGES
100
AcDbEllipse
 62
7
  6
CONTINUOUS
 10
83.650376451
 20
38.4473251113
 30
0.0
 11
1.053447304
 21
1.0684616036
 31
0.0
 40
0.9996954294
 41
-0.7923215972
 42
0.7781723222
  0
ELLIPSE
  5
3BD
100
AcDbEntity
  8
IMPORT_IGES
100
AcDbEllipse
 62
7
  6
CONTINUOUS
 10
-83.6534308212
 20
38.4473251113
 30
0.0
 11
-1.053447304
 21
1.0684616036
 31
0.0
 40
0.9996954294
 41
-0.7781701431
 42
0.7923215972
  0
ELLIPSE
  5
3BE
100
AcDbEntity
  8
IMPORT_IGES
100
AcDbEllipse
 62
7
  6
CONTINUOUS
 10
-83.6534308212
 20
-38.447487515
 30
0.0
 11
1.0534473041
 21
1.0684616035
 31
0.0
 40
0.9996954294
 41
-3.9339142508
 42
-3.6972339928
  0
ELLIPSE
  5
3BF
100
AcDbEntity
  8
IMPORT_IGES
100
AcDbEllipse
 62
7
  6
CONTINUOUS
 10
83.650376451
 20
-38.447487515
 30
0.0
 11
-1.0534473041
 21
1.0684616035
 31
0.0
 40
0.9996954294
 41
-2.5859513144
 42
-2.3492710565
  0
ELLIPSE
  5
3C0
100
AcDbEntity
  8
IMPORT_IGES
100
AcDbEllipse
 62
7
  6
CONTINUOUS
 10
83.6619367682
 20
-38.5346816378
 30
0.0
 11
1.0609832838
 21
-1.0609832838
 31
0.0
 40
0.9996954599
 41
-0.7852458702
 42
0.7852458701
  0
ELLIPSE
  5
3C1
100
AcDbEntity
  8
IMPORT_IGES
100
AcDbEllipse
 62
7
  6
CONTINUOUS
 10
-83.6292524813
 20
38.5346816378
 30
0.0
 11
1.0609832838
 21
-1.0609832838
 31
0.0
 40
0.9996954599
 41
2.3563467834
 42
3.6856747476
  0
ELLIPSE
  5
3C2
100
AcDbEntity
  8
IMPORT_IGES
100
AcDbEllipse
 62
7
  6
CONTINUOUS
 10
-83.6292524813
 20
-38.5346816378
 30
0.0
 11
1.0609832838
 21
1.0609832838
 31
0.0
 40
0.9996954599
 41
8.8785689383
 42
10.2100238309
  0
ELLIPSE
  5
3C3
100
AcDbEntity
  8
IMPORT_IGES
100
AcDbEllipse
 62
7
  6
CONTINUOUS
 10
83.6619367682
 20
38.5346816378
 30
0.0
 11
1.0609832838
 21
1.0609832838
 31
0.0
 40
0.9996954599
 41
-0.7852458701
 42
0.7852458702
  0
ELLIPSE
  5
3C4
100
AcDbEntity
  8
IMPORT_IGES
100
AcDbEllipse
 62
7
  6
CONTINUOUS
 10
-83.4937240443
 20
28.7555478891
 30
0.0
 11
1.5
 21
0.0000769006
 31
0.0
 40
0.0174549896
 41
-3.1270764519
 42
-1.5737334177
  0
ELLIPSE
  5
3C5
100
AcDbEntity
  8
IMPORT_IGES
100
AcDbEllipse
 62
7
  6
CONTINUOUS
 10
-83.4937240443
 20
-28.7557102929
 30
0.0
 11
1.5
 21
-0.0000769006
 31
0.0
 40
0.0174549896
 41
1.5737334177
 42
3.1270764519
  0
ELLIPSE
  5
3C6
100
AcDbEntity
  8
IMPORT_IGES
100
AcDbEllipse
 62
7
  6
CONTINUOUS
 10
83.4260734548
 20
-28.7557102929
 30
0.0
 11
1.5
 21
-0.0000769006
 31
0.0
 40
0.0174549896
 41
0.0203820428
 42
1.5737250831
  0
ELLIPSE
  5
3C7
100
AcDbEntity
  8
IMPORT_IGES
100
AcDbEllipse
 62
7
  6
CONTINUOUS
 10
83.9158757087
 20
-28.7469827604
 30
0.0
 11
1.5
 21
-0.0000769006
 31
0.0
 40
0.0174549896
 41
0.0203820412
 42
1.5737250835
  0
ELLIPSE
  5
3C8
100
AcDbEntity
  8
IMPORT_IGES
100
AcDbEllipse
 62
7
  6
CONTINUOUS
 10
83.9158757087
 20
28.7468203567
 30
0.0
 11
1.5
 21
0.0000769006
 31
0.0
 40
0.0174549896
 41
-1.5737334177
 42
-0.0203820428
  0
ELLIPSE
  5
3C9
100
AcDbEntity
  8
IMPORT_IGES
100
AcDbEllipse
 62
7
  6
CONTINUOUS
 10
83.4260734548
 20
28.7555478891
 30
0.0
 11
1.5
 21
0.0000769006
 31
0.0
 40
0.0174549896
 41
-1.5737334177
 42
-0.0203820412
  0
ELLIPSE
  5
3CA
100
AcDbEntity
  8
IMPORT_IGES
100
AcDbEllipse
 62
7
  6
CONTINUOUS
 10
-114.6726839334
 20
-38.4470302872
 30
0.0
 11
-0.0261973636
 21
1.500685718
 31
0.0
 40
0.0029344028
 41
-3.1416438793
 42
-1.808311984
  0
ELLIPSE
  5
3CB
100
AcDbEntity
  8
IMPORT_IGES
100
AcDbEllipse
 62
7
  6
CONTINUOUS
 10
-114.6464881371
 20
38.4473251113
 30
0.0
 11
0.0000013417
 21
1.5002284921
 31
0.0
 40
0.0029361917
 41
-1.3337648392
 42
0.0000000026
  0
ELLIPSE
  5
3CC
100
AcDbEntity
  8
IMPORT_IGES
100
AcDbEllipse
 62
7
  6
CONTINUOUS
 10
-115.1377263198
 20
38.4473251113
 30
0.0
 11
-0.0000013417
 21
1.5002284921
 31
0.0
 40
0.0029361917
 41
-0.0000021817
 42
1.5704917376
  0
ELLIPSE
  5
3CD
100
AcDbEntity
  8
IMPORT_IGES
100
AcDbEllipse
 62
7
  6
CONTINUOUS
 10
-115.163919431
 20
-38.4470302872
 30
0.0
 11
-0.0261919951
 21
1.500685718
 31
0.0
 40
0.0029344032
 41
-4.474975764
 42
-3.1416438688
  0
ELLIPSE
  5
3CE
100
AcDbEntity
  8
IMPORT_IGES
100
AcDbEllipse
 62
7
  6
CONTINUOUS
 10
-115.1377263198
 20
-38.447487515
 30
0.0
 11
0.0000013417
 21
1.5002284921
 31
0.0
 40
0.0029361917
 41
-4.7120843912
 42
-4.4754041333
  0
ENDSEC
  0
SECTION
  2
OBJECTS
  0
DICTIONARY
  5
C
100
AcDbDictionary
280
0
281
1
  3
ACAD_GROUP
350
D
  3
ACAD_MLINESTYLE
350
17
  3
ACAD_LAYOUT
350
1A
  3
ACAD_PLOTSETTINGS
350
19
  3
ACAD_PLOTSTYLENAME
350
E
  0
DICTIONARY
  5
D
102
{ACAD_REACTORS
330
C
102
}
100
AcDbDictionary
280
0
281
1
  0
ACDBDICTIONARYWDFLT
  5
E
102
{ACAD_REACTORS
330
C
102
}
100
AcDbDictionary
281
1
  3
Normal
350
F
100
AcDbDictionaryWithDefault
340
F
  0
DICTIONARY
  5
17
102
{ACAD_REACTORS
330
C
102
}
100
AcDbDictionary
280
0
281
1
  3
Standard
350
18
  0
DICTIONARY
  5
19
102
{ACAD_REACTORS
330
C
102
}
100
AcDbDictionary
281
1
  0
DICTIONARY
  5
1A
102
{ACAD_REACTORS
330
C
102
}
100
AcDbDictionary
281
1
  3
Model
350
3CF
  3
Layout1
350
3D0
  0
ACDBPLACEHOLDER
  5
F
102
{ACAD_REACTORS
330
E
102
}
  0
MLINESTYLE
  5
18
102
{ACAD_REACTORS
330
17
102
}
100
AcDbMlineStyle
  2
STANDARD
 70
0
  3

 62
256
 51
90.0
 52
90.0
 71
2
 49
0.5
 62
256
  6
BYLAYER
 49
-0.5
 62
256
  6
BYLAYER
  0
LAYOUT
  5
3CF
102
{ACAD_REACTORS
330
1A
102
}
100
AcDbPlotSettings
  1

  2
none_device
  4
ISO_A4_(297.00_x_210.00_MM)
  6

 40
0.0
 41
0.0
 42
0.0
 43
0.0
 44
297.0
 45
210.0
 46
0.0
 47
0.0
 48
0.0
 49
0.0
140
0.0
141
0.0
142
1.0
143
1.0
 70
1024
 72
1
 73
0
 74
0
  7

 75
0
147
1.0
148
0.0
149
0.0
100
AcDbLayout
  1
Model
 70
0
 71
0
 10
0.0
 20
0.0
 11
297.0
 21
210.0
 12
0.0
 22
0.0
 32
0.0
 14
0.0
 24
0.0
 34
0.0
 15
0.0
 25
0.0
 35
0.0
146
0.0
 13
0.0
 23
0.0
 33
0.0
 16
1.0
 26
0.0
 36
0.0
 17
0.0
 27
1.0
 37
0.0
 76
0
330
20E
345
0
346
0
  0
LAYOUT
  5
3D0
102
{ACAD_REACTORS
330
1A
102
}
100
AcDbPlotSettings
  1

  2
none_device
  4
ISO_A4_(297.00_x_210.00_MM)
  6

 40
0.0
 41
0.0
 42
0.0
 43
0.0
 44
297.0
 45
210.0
 46
0.0
 47
0.0
 48
0.0
 49
0.0
140
0.0
141
0.0
142
1.0
143
1.0
 70
0
 72
1
 73
0
 74
0
  7

 75
0
147
1.0
148
0.0
149
0.0
100
AcDbLayout
  1
Layout1
 70
0
 71
1
 10
0.0
 20
0.0
 11
297.0
 21
210.0
 12
0.0
 22
0.0
 32
0.0
 14
0.0
 24
0.0
 34
0.0
 15
0.0
 25
0.0
 35
0.0
146
0.0
 13
0.0
 23
0.0
 33
0.0
 16
1.0
 26
0.0
 36
0.0
 17
0.0
 27
1.0
 37
0.0
 76
0
330
20F
345
0
346
0
  0
ENDSEC
  0
EOF
