  0
SECTION
  2
HEADER
  9
$ACADVER
  1
AC1024
  9
$DWGCODEPAGE
  3
ANSI_1252
  9
$EXTMAX
 10
297.0
 20
210.0
 30
0.0
  9
$EXTMIN
 10
0.0
 20
0.0
 30
0.0
  9
$LIMMIN
 10
0.0
 20
0.0
  9
$LIMMAX
 10
297.0
 20
210.0
  9
$VIEWCTR
 10
148.5
 20
105.0
  9
$VIEWSIZE
 40
210.0
  9
$CLAYER
  8
0
  9
$LTSCALE
 40
16.335
  9
$CELTYPE
  6
BYLAYER
  9
$DIMSCALE
 40
1.0
  9
$DIMASZ
 40
3.0
  9
$DIMEXO
 40
0.5
  9
$DIMDLI
 40
11.286
  9
$DIMEXE
 40
1.5
  9
$DIMCEN
 40
2.673
  9
$DIMLFAC
 40
1.0
  9
$DIMBLK
  1
_FILLED
  9
$DIMALT
 70
0
  9
$DIMALTF
 40
0.0393700787
  9
$DIMTXT
 40
3.0
  9
$DIMTOL
 70
1
  9
$DIMLIM
 70
0
  9
$DIMTFAC
 40
1.0
  9
$DIMTP
 40
0.01
  9
$DIMTM
 40
0.01
  9
$DIMGAP
 40
0.625
  9
$DIMDSEP
 70
44
  9
$AUNITS
 70
0
  9
$PDMODE
 70
3
  9
$PDSIZE
 40
3.0
  9
$HANDSEED
  5
387
  9
$TILEMODE
 70
1
  9
$MEASUREMENT
 70
1
  9
$INSUNITS
 70
4
  0
ENDSEC
  0
SECTION
  2
CLASSES
  0
CLASS
  1
ACDBDICTIONARYWDFLT
  2
AcDbDictionaryWithDefault
  3
AutoCAD 2000
 90
0
 91
1
280
0
281
0
  0
CLASS
  1
ACDBPLACEHOLDER
  2
AcDbPlaceHolder
  3
AutoCAD 2000
 90
0
 91
1
280
0
281
0
  0
CLASS
  1
LAYOUT
  2
AcDbLayout
  3
AutoCAD 2000
 90
0
 91
0
280
0
281
0
  0
ENDSEC
  0
SECTION
  2
TABLES
  0
TABLE
  2
VPORT
  5
8
100
AcDbSymbolTable
 70
2
  0
VPORT
  5
1F4
100
AcDbSymbolTableRecord
100
AcDbViewportTableRecord
  2
*ACTIVE
 70
0
 10
0.0
 20
0.0
 11
1.0
 21
1.0
 12
148.5
 22
105.0
 13
0.0
 23
0.0
 14
1.0
 24
1.0
 15
0.0
 25
0.0
 16
0.0
 26
0.0
 36
1.0
 17
0.0
 27
0.0
 37
0.0
 40
210.0
 41
1.4142857143
 42
50.0
 43
0.0
 44
0.0
 50
0.0
 51
0.0
 71
0
 72
100
 73
1
 74
1
 75
0
 76
0
 77
0
 78
0
  0
ENDTAB
  0
TABLE
  2
LTYPE
  5
5
100
AcDbSymbolTable
 70
6
  0
LTYPE
  5
14
100
AcDbSymbolTableRecord
100
AcDbLinetypeTableRecord
  2
BYBLOCK
 70
0
  3

 72
65
 73
0
 40
0.0
  0
LTYPE
  5
15
100
AcDbSymbolTableRecord
100
AcDbLinetypeTableRecord
  2
BYLAYER
 70
0
  3

 72
65
 73
0
 40
0.0
  0
LTYPE
  5
16
100
AcDbSymbolTableRecord
100
AcDbLinetypeTableRecord
  2
CONTINUOUS
 70
64
  3
Solid line
 72
65
 73
0
 40
0.0
  0
LTYPE
  5
1F5
100
AcDbSymbolTableRecord
100
AcDbLinetypeTableRecord
  2
CENTER
 70
64
  3
____ _ ____ _ ____ _ ____ _ ____ _ ____ _ ____
 72
65
 73
4
 40
0.6
 49
0.375
 74
0
 49
-0.075
 74
0
 49
0.075
 74
0
 49
-0.075
 74
0
  0
LTYPE
  5
1F6
100
AcDbSymbolTableRecord
100
AcDbLinetypeTableRecord
  2
HIDDEN
 70
64
  3
- - - - - - - - - - - - - - - - - - - -
 72
65
 73
2
 40
0.2
 49
0.1
 74
0
 49
-0.1
 74
0
  0
LTYPE
  5
1F7
100
AcDbSymbolTableRecord
100
AcDbLinetypeTableRecord
  2
PHANTOM
 70
64
  3
_____ _ _ _____ _ _ _____ _ _ _____
 72
65
 73
6
 40
0.8
 49
0.45
 74
0
 49
-0.05
 74
0
 49
0.1
 74
0
 49
-0.05
 74
0
 49
0.1
 74
0
 49
-0.05
 74
0
  0
LTYPE
  5
1F8
100
AcDbSymbolTableRecord
100
AcDbLinetypeTableRecord
  2
DOT
 70
64
  3
. . . . . . . . . . . . . . . . . . . .
 72
65
 73
2
 40
0.2
 49
0.1
 74
0
 49
-0.1
 74
0
  0
LTYPE
  5
1F9
100
AcDbSymbolTableRecord
100
AcDbLinetypeTableRecord
  2
DASHED
 70
64
  3
- - - - - - - - - - - - - - - - - - - -
 72
65
 73
2
 40
0.2
 49
0.1
 74
0
 49
-0.1
 74
0
  0
ENDTAB
  0
TABLE
  2
LAYER
  5
2
100
AcDbSymbolTable
 70
36
  0
LAYER
  5
10
100
AcDbSymbolTableRecord
100
AcDbLayerTableRecord
  2
0
 70
0
 62
7
  6
CONTINUOUS
370
-3
390
F
  0
LAYER
  5
1FA
100
AcDbSymbolTableRecord
100
AcDbLayerTableRecord
  2
DEFAULT_1
 70
0
 62
7
  6
CENTER
370
-3
390
F
  0
LAYER
  5
1FB
100
AcDbSymbolTableRecord
100
AcDbLayerTableRecord
  2
DEFAULT_2
 70
0
 62
7
  6
HIDDEN
370
-3
390
F
  0
LAYER
  5
1FC
100
AcDbSymbolTableRecord
100
AcDbLayerTableRecord
  2
DEFAULT_3
 70
0
 62
7
  6
PHANTOM
370
-3
390
F
  0
LAYER
  5
1FD
100
AcDbSymbolTableRecord
100
AcDbLayerTableRecord
  2
ASSI
 70
0
 62
7
  6
CONTINUOUS
370
-3
390
F
  0
LAYER
  5
1FE
100
AcDbSymbolTableRecord
100
AcDbLayerTableRecord
  2
COORDINATE
 70
0
 62
7
  6
CONTINUOUS
370
-3
390
F
  0
LAYER
  5
1FF
100
AcDbSymbolTableRecord
100
AcDbLayerTableRecord
  2
COPY_PUBLISH
 70
0
 62
7
  6
CONTINUOUS
370
-3
390
F
  0
LAYER
  5
200
100
AcDbSymbolTableRecord
100
AcDbLayerTableRecord
  2
COSMETICI
 70
0
 62
7
  6
CONTINUOUS
370
-3
390
F
  0
LAYER
  5
201
100
AcDbSymbolTableRecord
100
AcDbLayerTableRecord
  2
CURVE
 70
0
 62
7
  6
CONTINUOUS
370
-3
390
F
  0
LAYER
  5
202
100
AcDbSymbolTableRecord
100
AcDbLayerTableRecord
  2
DRAFT
 70
0
 62
7
  6
CONTINUOUS
370
-3
390
F
  0
LAYER
  5
203
100
AcDbSymbolTableRecord
100
AcDbLayerTableRecord
  2
IMPORT_IGES
 70
0
 62
7
  6
CONTINUOUS
370
-3
390
F
  0
LAYER
  5
204
100
AcDbSymbolTableRecord
100
AcDbLayerTableRecord
  2
NOTE
 70
0
 62
7
  6
CONTINUOUS
370
-3
390
F
  0
LAYER
  5
205
100
AcDbSymbolTableRecord
100
AcDbLayerTableRecord
  2
PIANI
 70
0
 62
7
  6
CONTINUOUS
370
-3
390
F
  0
LAYER
  5
206
100
AcDbSymbolTableRecord
100
AcDbLayerTableRecord
  2
PUNTI
 70
0
 62
7
  6
CONTINUOUS
370
-3
390
F
  0
LAYER
  5
207
100
AcDbSymbolTableRecord
100
AcDbLayerTableRecord
  2
RACCORDO
 70
0
 62
7
  6
CONTINUOUS
370
-3
390
F
  0
LAYER
  5
208
100
AcDbSymbolTableRecord
100
AcDbLayerTableRecord
  2
SIMBOLI
 70
0
 62
7
  6
CONTINUOUS
370
-3
390
F
  0
LAYER
  5
209
100
AcDbSymbolTableRecord
100
AcDbLayerTableRecord
  2
SMUSSO
 70
0
 62
7
  6
CONTINUOUS
370
-3
390
F
  0
LAYER
  5
20A
100
AcDbSymbolTableRecord
100
AcDbLayerTableRecord
  2
SUPERFICI
 70
0
 62
7
  6
CONTINUOUS
370
-3
390
F
  0
LAYER
  5
20B
100
AcDbSymbolTableRecord
100
AcDbLayerTableRecord
  2
TRASH
 70
0
 62
7
  6
CONTINUOUS
370
-3
390
F
  0
ENDTAB
  0
TABLE
  2
STYLE
  5
3
100
AcDbSymbolTable
 70
1
  0
STYLE
  5
11
100
AcDbSymbolTableRecord
100
AcDbTextStyleTableRecord
  2
STANDARD
 70
0
 40
0.0
 41
0.8
 50
0.0
 71
0
 42
0.2
  3
txt
  4

  0
STYLE
  5
20C
100
AcDbSymbolTableRecord
100
AcDbTextStyleTableRecord
  2
TEXTSTYLE_1
 70
0
 40
0.0
 41
0.8
 50
0.0
 71
0
 42
0.2
  3
gdt
  4

  0
ENDTAB
  0
TABLE
  2
VIEW
  5
6
100
AcDbSymbolTable
 70
0
  0
ENDTAB
  0
TABLE
  2
UCS
  5
7
100
AcDbSymbolTable
 70
0
  0
ENDTAB
  0
TABLE
  2
APPID
  5
9
100
AcDbSymbolTable
 70
1
  0
APPID
  5
20D
100
AcDbSymbolTableRecord
100
AcDbRegAppTableRecord
  2
ACAD
 70
0
  0
ENDTAB
  0
TABLE
  2
BLOCK_RECORD
  5
1
100
AcDbSymbolTable
 70
0
  0
BLOCK_RECORD
  5
20E
100
AcDbSymbolTableRecord
100
AcDbBlockTableRecord
  2
*Model_Space
  0
BLOCK_RECORD
  5
20F
100
AcDbSymbolTableRecord
100
AcDbBlockTableRecord
  2
*Paper_Space
  0
BLOCK_RECORD
  5
210
100
AcDbSymbolTableRecord
100
AcDbBlockTableRecord
  2
_FILLED
  0
BLOCK_RECORD
  5
211
100
AcDbSymbolTableRecord
100
AcDbBlockTableRecord
  2
*D0
  0
BLOCK_RECORD
  5
212
100
AcDbSymbolTableRecord
100
AcDbBlockTableRecord
  2
*D1
  0
BLOCK_RECORD
  5
213
100
AcDbSymbolTableRecord
100
AcDbBlockTableRecord
  2
*D2
  0
ENDTAB
  0
TABLE
  2
DIMSTYLE
  5
A
100
AcDbSymbolTable
 70
1
100
AcDbDimStyleTable
 71
0
  0
DIMSTYLE
105
214
100
AcDbSymbolTableRecord
100
AcDbDimStyleTableRecord
  2
STANDARD
 70
0
  3

  4

 40
1.0
 41
3.0
 42
0.5
 43
0.38
 44
1.5
 45
0.0
 46
0.0
 47
0.01
 48
0.01
140
3.0
141
0.09
142
0.0
143
25.4
144
1.0
145
0.0
146
1.0
147
0.625
 71
1
 72
0
 73
0
 74
0
 75
0
 76
0
 77
1
 78
8
 79
2
170
0
171
1
172
0
173
0
174
0
175
0
176
0
177
0
178
0
270
2
179
2
271
2
272
2
273
2
274
2
275
0
280
0
281
0
282
0
283
1
284
8
285
0
286
0
287
3
288
0
340
11
278
44
341
210
342
210
343
210
344
210
  0
DIMSTYLE
105
215
100
AcDbSymbolTableRecord
100
AcDbDimStyleTableRecord
  2
DIMSTYLE_1
 70
0
  3

  4

 40
1.0
 41
3.0
 42
0.5
 43
0.38
 44
1.5
 45
0.0
 46
0.0
 47
0.0
 48
0.0
140
3.0
141
0.09
142
0.0
143
25.4
144
1.0
145
0.0
146
1.0
147
0.75
 71
0
 72
0
 73
0
 74
0
 75
0
 76
0
 77
1
 78
8
 79
2
170
0
171
1
172
0
173
0
174
0
175
0
176
0
177
0
178
0
270
2
179
2
271
1
272
1
273
2
274
2
275
0
280
0
281
0
282
0
283
1
284
8
285
0
286
0
287
3
288
0
340
11
278
44
341
210
342
210
343
210
344
210
  0
DIMSTYLE
105
216
100
AcDbSymbolTableRecord
100
AcDbDimStyleTableRecord
  2
DIMSTYLE_2
 70
0
  3

  4

 40
1.0
 41
3.0
 42
0.5
 43
0.38
 44
1.5
 45
0.0
 46
0.0
 47
0.0
 48
0.0
140
3.0
141
0.09
142
0.0
143
25.4
144
1.0
145
0.0
146
1.0
147
0.75
 71
0
 72
0
 73
0
 74
0
 75
0
 76
0
 77
1
 78
8
 79
2
170
0
171
1
172
0
173
0
174
0
175
0
176
0
177
0
178
0
270
2
179
2
271
2
272
2
273
2
274
2
275
0
280
0
281
0
282
0
283
1
284
8
285
0
286
0
287
3
288
0
340
11
278
44
341
210
342
210
343
210
344
210
  0
ENDTAB
  0
ENDSEC
  0
SECTION
  2
BLOCKS
  0
BLOCK
  5
20
100
AcDbEntity
  8
0
100
AcDbBlockBegin
  2
*Model_Space
 70
0
 10
0.0
 20
0.0
 30
0.0
  3
*Model_Space
  1

  0
ENDBLK
  5
21
100
AcDbEntity
  8
0
100
AcDbBlockEnd
  0
BLOCK
  5
1C
100
AcDbEntity
  8
0
100
AcDbBlockBegin
  2
*Paper_Space
 70
0
 10
0.0
 20
0.0
 30
0.0
  3
*Paper_Space
  1

  0
ENDBLK
  5
1D
100
AcDbEntity
  8
0
100
AcDbBlockEnd
  0
BLOCK
  5
217
100
AcDbEntity
  8
0
100
AcDbBlockBegin
  2
_FILLED
 70
64
 10
0.0
 20
0.0
  3
_FILLED
  1

  0
SOLID
  5
218
100
AcDbEntity
  8
0
  6
BYBLOCK
 62
0
100
AcDbTrace
 10
0.0
 20
0.0
 11
-1.0
 21
0.3166666667
 12
-1.0
 22
-0.3166666667
 13
-1.0
 23
-0.3166666667
  0
ENDBLK
  5
219
100
AcDbEntity
  8
0
  6
BYBLOCK
 62
0
100
AcDbBlockEnd
  0
BLOCK
  5
21A
100
AcDbEntity
  8
0
100
AcDbBlockBegin
 62
7
  6
CONTINUOUS
  2
*D0
 70
65
 10
0.0
 20
0.0
  3
*D0
  1

  0
LINE
  5
21B
100
AcDbEntity
  8
0
100
AcDbLine
 62
7
  6
CONTINUOUS
 10
57.2564531412
 20
-63.3920346761
 11
81.2510042722
 21
-63.3920346761
  0
LINE
  5
21C
100
AcDbEntity
  8
0
100
AcDbLine
 62
7
  6
CONTINUOUS
 10
-51.1164531412
 20
63.3920346761
 11
81.2510042722
 21
63.3920346761
  0
LINE
  5
21D
100
AcDbEntity
  8
0
100
AcDbLine
 62
7
  6
CONTINUOUS
 10
79.7510042722
 20
-63.3920346761
 11
79.7510042722
 21
-0.0
  0
LINE
  5
21E
100
AcDbEntity
  8
0
100
AcDbLine
 62
7
  6
CONTINUOUS
 10
79.7510042722
 20
63.3920346761
 11
79.7510042722
 21
-0.0
  0
INSERT
  5
21F
100
AcDbEntity
  8
0
100
AcDbBlockReference
 62
7
  6
CONTINUOUS
  2
_FILLED
 10
79.7510042722
 20
-63.3920346761
 41
3.0
 42
3.0
 43
3.0
 50
270.0
  0
INSERT
  5
220
100
AcDbEntity
  8
0
100
AcDbBlockReference
 62
7
  6
CONTINUOUS
  2
_FILLED
 10
79.7510042722
 20
63.3920346761
 41
3.0
 42
3.0
 43
3.0
 50
90.0
  0
ENDBLK
  5
221
100
AcDbEntity
  8
0
  6
BYBLOCK
 62
0
100
AcDbBlockEnd
  0
BLOCK
  5
222
100
AcDbEntity
  8
0
100
AcDbBlockBegin
 62
7
  6
CONTINUOUS
  2
*D1
 70
65
 10
0.0
 20
0.0
  3
*D1
  1

  0
LINE
  5
223
100
AcDbEntity
  8
0
100
AcDbLine
 62
7
  6
CONTINUOUS
 10
63.3920346761
 20
57.2564531412
 11
63.3920346761
 21
80.2084621226
  0
LINE
  5
224
100
AcDbEntity
  8
0
100
AcDbLine
 62
7
  6
CONTINUOUS
 10
-63.3920346761
 20
57.2564531412
 11
-63.3920346761
 21
80.2084621226
  0
LINE
  5
225
100
AcDbEntity
  8
0
100
AcDbLine
 62
7
  6
CONTINUOUS
 10
63.3920346761
 20
78.7084621226
 11
0.0
 21
78.7084621226
  0
LINE
  5
226
100
AcDbEntity
  8
0
100
AcDbLine
 62
7
  6
CONTINUOUS
 10
-63.3920346761
 20
78.7084621226
 11
0.0
 21
78.7084621226
  0
INSERT
  5
227
100
AcDbEntity
  8
0
100
AcDbBlockReference
 62
7
  6
CONTINUOUS
  2
_FILLED
 10
63.3920346761
 20
78.7084621226
 41
3.0
 42
3.0
 43
3.0
 50
360.0
  0
INSERT
  5
228
100
AcDbEntity
  8
0
100
AcDbBlockReference
 62
7
  6
CONTINUOUS
  2
_FILLED
 10
-63.3920346761
 20
78.7084621226
 41
3.0
 42
3.0
 43
3.0
 50
180.0
  0
ENDBLK
  5
229
100
AcDbEntity
  8
0
  6
BYBLOCK
 62
0
100
AcDbBlockEnd
  0
BLOCK
  5
22A
100
AcDbEntity
  8
0
100
AcDbBlockBegin
 62
7
  6
CONTINUOUS
  2
*D2
 70
65
 10
0.0
 20
0.0
  3
*D2
  1

  0
LINE
  5
22B
100
AcDbEntity
  8
0
100
AcDbLine
 62
7
  6
CONTINUOUS
 10
-92.0636565968
 20
44.3383042825
 11
-92.0636565968
 21
80.5701276536
  0
LINE
  5
22C
100
AcDbEntity
  8
0
100
AcDbLine
 62
7
  6
CONTINUOUS
 10
-126.9652682264
 20
0.4813031691
 11
-126.9652682264
 21
80.5701276536
  0
LINE
  5
22D
100
AcDbEntity
  8
0
100
AcDbLine
 62
7
  6
CONTINUOUS
 10
-92.0636565968
 20
79.0701276536
 11
-109.5144624116
 21
79.0701276536
  0
LINE
  5
22E
100
AcDbEntity
  8
0
100
AcDbLine
 62
7
  6
CONTINUOUS
 10
-126.9652682264
 20
79.0701276536
 11
-109.5144624116
 21
79.0701276536
  0
INSERT
  5
22F
100
AcDbEntity
  8
0
100
AcDbBlockReference
 62
7
  6
CONTINUOUS
  2
_FILLED
 10
-92.0636565968
 20
79.0701276536
 41
3.0
 42
3.0
 43
3.0
  0
INSERT
  5
230
100
AcDbEntity
  8
0
100
AcDbBlockReference
 62
7
  6
CONTINUOUS
  2
_FILLED
 10
-126.9652682264
 20
79.0701276536
 41
3.0
 42
3.0
 43
3.0
 50
180.0
  0
ENDBLK
  5
231
100
AcDbEntity
  8
0
  6
BYBLOCK
 62
0
100
AcDbBlockEnd
  0
ENDSEC
  0
SECTION
  2
ENTITIES
  0
DIMENSION
  5
232
100
AcDbEntity
  8
0
100
AcDbDimension
 62
7
  6
CONTINUOUS
  2
*D0
 10
79.7510042722
 20
63.3920346761
 11
79.7510042722
 21
-5.25
 70
160
 71
2
 72
2
 41
0.9
 42
126.7840693522
  3
DIMSTYLE_1
100
AcDbAlignedDimension
 13
56.7564531412
 23
-63.3920346761
 14
-51.6164531412
 24
63.3920346761
 50
90.0
100
AcDbRotatedDimension
  0
DIMENSION
  5
233
100
AcDbEntity
  8
0
100
AcDbDimension
 62
7
  6
CONTINUOUS
  2
*D1
 10
-63.3920346761
 20
78.7084621226
 11
-5.25
 21
78.7084621226
 70
160
 71
2
 72
2
 41
0.9
 42
126.7840693522
  3
DIMSTYLE_1
100
AcDbAlignedDimension
 13
63.3920346761
 23
56.7564531412
 14
-63.3920346761
 24
56.7564531412
 50
180.0
100
AcDbRotatedDimension
  0
DIMENSION
  5
234
100
AcDbEntity
  8
0
100
AcDbDimension
 62
7
  6
CONTINUOUS
  2
*D2
 10
-126.9652682264
 20
79.0701276536
 11
-113.8001766973
 21
79.0701276536
 70
160
 71
2
 72
2
 41
0.9
 42
34.9016116296
  3
DIMSTYLE_2
100
AcDbAlignedDimension
 13
-92.0636565968
 23
43.8383042825
 14
-126.9652682264
 24
-0.0186968309
 50
180.0
100
AcDbRotatedDimension
  0
LWPOLYLINE
  5
235
100
AcDbEntity
  8
IMPORT_IGES
100
AcDbPolyline
 62
250
  6
CONTINUOUS
 90
25
 70
0
 10
-61.8030885167
 20
-60.3458888573
 10
-61.654968644
 20
-60.5458948394
 10
-61.4996275359
 20
-60.7389203576
 10
-61.3370651322
 20
-60.9249653838
 10
-61.1669825968
 20
-61.1042669215
 10
-60.9896786027
 20
-61.2765880035
 10
-60.8060494979
 20
-61.4412176393
 10
-60.6160504798
 20
-61.5980642853
 10
-60.4197269857
 20
-61.7472191957
 10
-60.2181109589
 20
-61.8882455456
 10
-60.0111085685
 20
-62.0211745313
 10
-59.7988143395
 20
-62.145974755
 10
-59.5825427213
 20
-62.262115647
 10
-59.3624925043
 20
-62.3694967955
 10
-59.1384655513
 20
-62.4682185832
 10
-58.9111806994
 20
-62.5580518627
 10
-58.6805514794
 20
-62.639055567
 10
-58.4466643236
 20
-62.7111711769
 10
-58.2104973467
 20
-62.7739934758
 10
-57.9720546147
 20
-62.8275206898
 10
-57.7313321008
 20
-62.8717547848
 10
-57.4892957813
 20
-62.9062961815
 10
-57.2462676372
 20
-62.9310118154
 10
-57.0019256652
 20
-62.9460350223
 10
-56.7562698482
 20
-62.9513659139
  0
LWPOLYLINE
  5
236
100
AcDbEntity
  8
IMPORT_IGES
100
AcDbPolyline
 62
250
  6
CONTINUOUS
 90
16
 70
0
 10
-62.9507665378
 20
-56.7558806301
 10
-62.9453349711
 20
-57.0118107953
 10
-62.9294785028
 20
-57.2664478534
 10
-62.9031969403
 20
-57.5197911793
 10
-62.8664105958
 20
-57.7722654419
 10
-62.8191988305
 20
-58.0234447396
 10
-62.7618001402
 20
-58.2720526224
 10
-62.6941624836
 20
-58.5180755663
 10
-62.616337901
 20
-58.7615259677
 10
-62.5287212037
 20
-59.0011663347
 10
-62.4312625493
 20
-59.2369768733
 10
-62.3240120752
 20
-59.4689764329
 10
-62.2075147428
 20
-59.6959856064
 10
-62.0819524182
 20
-59.9176110484
 10
-61.9471437883
 20
-60.1342454197
 10
-61.803089136
 20
-60.3458884123
  0
LWPOLYLINE
  5
237
100
AcDbEntity
  8
IMPORT_IGES
100
AcDbPolyline
 62
250
  6
CONTINUOUS
 90
76
 70
0
 10
-63.1489537817
 20
-56.7564531412
 10
-63.1475336165
 20
-56.8908782476
 10
-63.1432871243
 20
-57.0252416346
 10
-63.1362163146
 20
-57.1594838881
 10
-63.1263237797
 20
-57.2935531688
 10
-63.1136143749
 20
-57.4273826578
 10
-63.0980967962
 20
-57.56089074
 10
-63.0797794189
 20
-57.6940187994
 10
-63.058671904
 20
-57.8267080058
 10
-63.0347895911
 20
-57.9588771334
 10
-63.0081472282
 20
-58.0904626246
 10
-62.9787585411
 20
-58.2214128633
 10
-62.9466409235
 20
-58.3516653935
 10
-62.9118157068
 20
-58.4811497099
 10
-62.8742981403
 20
-58.6098238564
 10
-62.8340962906
 20
-58.7376682907
 10
-62.7912306357
 20
-58.8646217879
 10
-62.7457192879
 20
-58.990634336
 10
-62.6975629647
 20
-59.1157020139
 10
-62.6467788649
 20
-59.2397729876
 10
-62.593388512
 20
-59.3627877197
 10
-62.5373952165
 20
-59.4847290534
 10
-62.4788073174
 20
-59.6055646317
 10
-62.4176567283
 20
-59.7252149748
 10
-62.3539835796
 20
-59.8435927428
 10
-62.2877983024
 20
-59.9606705957
 10
-62.2191418484
 20
-60.0763684275
 10
-62.1481108625
 20
-60.1905256664
 10
-62.074747752
 20
-60.3030848202
 10
-61.9990832013
 20
-60.4140091107
 10
-61.9212094341
 20
-60.5231777197
 10
-61.8411820479
 20
-60.630532876
 10
-61.7590333695
 20
-60.7360507782
 10
-61.6748281727
 20
-60.8396677002
 10
-61.5886390678
 20
-60.9413168651
 10
-61.5004888755
 20
-61.0409933319
 10
-61.4103660583
 20
-61.1387255235
 10
-61.3183446878
 20
-61.2344461697
 10
-61.2244416094
 20
-61.3281505251
 10
-61.1285469933
 20
-61.4199493743
 10
-61.0306719867
 20
-61.5098225545
 10
-60.9308802022
 20
-61.5977023549
 10
-60.8291281821
 20
-61.6836148599
 10
-60.7254206338
 20
-61.7675381182
 10
-60.6198251836
 20
-61.8493997062
 10
-60.5123905501
 20
-61.9291464724
 10
-60.4031389775
 20
-62.0067464322
 10
-60.2921289432
 20
-62.0821427852
 10
-60.1794684255
 20
-62.1552508761
 10
-60.0651927906
 20
-62.2260390814
 10
-59.9493592693
 20
-62.294463381
 10
-59.8321164485
 20
-62.3604321637
 10
-59.7135450859
 20
-62.4239015763
 10
-59.5936698314
 20
-62.4848599903
 10
-59.4725602062
 20
-62.5432730508
 10
-59.3502875423
 20
-62.5991086735
 10
-59.2268897642
 20
-62.6523518356
 10
-59.102386561
 20
-62.7029943177
 10
-58.9768126823
 20
-62.7510202862
 10
-58.8502429798
 20
-62.7963994267
 10
-58.7227576392
 20
-62.8391028437
 10
-58.5944008751
 20
-62.8791160566
 10
-58.4652419327
 20
-62.9164178058
 10
-58.3354007629
 20
-62.9509762704
 10
-58.2049199071
 20
-62.9827845529
 10
-58.0738739937
 20
-63.0118288596
 10
-57.9424339652
 20
-63.0380798395
 10
-57.8106551238
 20
-63.0615384873
 10
-57.6786021518
 20
-63.0822052658
 10
-57.546462473
 20
-63.1000669518
 10
-57.4142995434
 20
-63.1151352122
 10
-57.2821696048
 20
-63.1274237816
 10
-57.1502501804
 20
-63.1369397691
 10
-57.0186393363
 20
-63.1437045702
 10
-56.8873548983
 20
-63.1477456344
 10
-56.7564531412
 20
-63.1490882375
  0
LINE
  5
238
100
AcDbEntity
  8
IMPORT_IGES
100
AcDbLine
 62
250
  6
CONTINUOUS
 10
-62.9508064452
 20
-56.7558769441
 11
-62.9658802247
 21
-32.5805172913
  0
LINE
  5
239
100
AcDbEntity
  8
IMPORT_IGES
100
AcDbLine
 62
250
  6
CONTINUOUS
 10
-62.9658802247
 20
-32.5805172913
 11
-62.9726891503
 21
-15.8161070782
  0
LINE
  5
23A
100
AcDbEntity
  8
IMPORT_IGES
100
AcDbLine
 62
7
  6
CONTINUOUS
 10
-63.3920346761
 20
-56.7564531412
 11
-63.3920346761
 21
56.7564531412
  0
LINE
  5
23B
100
AcDbEntity
  8
IMPORT_IGES
100
AcDbLine
 62
250
  6
CONTINUOUS
 10
-63.1489537817
 20
-56.7564531412
 11
-63.1529728788
 21
-17.4500906256
  0
LINE
  5
23C
100
AcDbEntity
  8
IMPORT_IGES
100
AcDbLine
 62
250
  6
CONTINUOUS
 10
-63.1529728788
 20
-17.4500906256
 11
-63.1532485392
 21
13.4034760455
  0
LINE
  5
23D
100
AcDbEntity
  8
IMPORT_IGES
100
AcDbLine
 62
250
  6
CONTINUOUS
 10
-62.9726891503
 20
-15.8161070782
 11
-62.9750269095
 21
-1.8129095086
  0
LINE
  5
23E
100
AcDbEntity
  8
IMPORT_IGES
100
AcDbLine
 62
7
  6
CONTINUOUS
 10
-60.2999767798
 20
-56.6164531481
 11
-60.2999767798
 21
56.6164531342
  0
LINE
  5
23F
100
AcDbEntity
  8
IMPORT_IGES
100
AcDbLine
 62
250
  6
CONTINUOUS
 10
-63.1532485392
 20
13.4034760455
 11
-63.1491491707
 21
56.7564531412
  0
LINE
  5
240
100
AcDbEntity
  8
IMPORT_IGES
100
AcDbLine
 62
250
  6
CONTINUOUS
 10
-62.9750269095
 20
-1.8129095086
 11
-62.9703039208
 21
24.3378587872
  0
LINE
  5
241
100
AcDbEntity
  8
IMPORT_IGES
100
AcDbLine
 62
250
  6
CONTINUOUS
 10
-62.9703039208
 20
24.3378587872
 11
-62.9516270661
 21
56.7560986801
  0
LWPOLYLINE
  5
242
100
AcDbEntity
  8
0
100
AcDbPolyline
 62
7
  6
CONTINUOUS
 90
3
 70
0
 43
0.3500000006
 10
-5.2499999027
 20
81.6013161621
 10
-4.3928571482
 20
82.4584631653
 10
-4.3928571482
 20
79.4584622498
  0
LINE
  5
243
100
AcDbEntity
  8
IMPORT_IGES
100
AcDbLine
 62
7
  6
CONTINUOUS
 10
1.8671450091
 20
-63.324915531
 11
1.7517424041
 21
-63.3284049696
  0
LINE
  5
244
100
AcDbEntity
  8
IMPORT_IGES
100
AcDbLine
 62
7
  6
CONTINUOUS
 10
-1.8800548893
 20
-63.2918110431
 11
-1.7646522842
 21
-63.2883216046
  0
LINE
  5
245
100
AcDbEntity
  8
IMPORT_IGES
100
AcDbLine
 62
7
  6
CONTINUOUS
 10
1.7517424041
 20
-63.3284049696
 11
1.6148375229
 21
-63.3316561127
  0
LINE
  5
246
100
AcDbEntity
  8
IMPORT_IGES
100
AcDbLine
 62
7
  6
CONTINUOUS
 10
-1.7646522842
 20
-63.2883216046
 11
-1.627747403
 21
-63.2850704615
  0
LWPOLYLINE
  5
247
100
AcDbEntity
  8
IMPORT_IGES
100
AcDbPolyline
 62
250
  6
CONTINUOUS
 90
16
 70
0
 10
56.756291058
 20
-62.9513073997
 10
57.0128804791
 20
-62.9458841725
 10
57.2681620852
 20
-62.9299759876
 10
57.5221358753
 20
-62.9035825764
 10
57.7752314921
 20
-62.8666226495
 10
58.0270193164
 20
-62.8191770021
 10
58.2762104304
 20
-62.7614886157
 10
58.5227913949
 20
-62.6935047681
 10
58.7667756162
 20
-62.6152779553
 10
59.0069143783
 20
-62.527209177
 10
59.2431877393
 20
-62.4292478581
 10
59.4756155288
 20
-62.3214444967
 10
59.7030086168
 20
-62.2043518685
 10
59.9249705435
 20
-62.0781542739
 10
60.1418975556
 20
-61.9426674382
 10
60.3537895426
 20
-61.7978913365
  0
LINE
  5
248
100
AcDbEntity
  8
IMPORT_IGES
100
AcDbLine
 62
7
  6
CONTINUOUS
 10
1.6148375229
 20
-63.3316561127
 11
1.3729127321
 21
-63.3359967192
  0
LINE
  5
249
100
AcDbEntity
  8
IMPORT_IGES
100
AcDbLine
 62
7
  6
CONTINUOUS
 10
-1.627747403
 20
-63.2850704615
 11
-1.3858226122
 21
-63.280729855
  0
LWPOLYLINE
  5
24A
100
AcDbEntity
  8
IMPORT_IGES
100
AcDbPolyline
 62
250
  6
CONTINUOUS
 90
76
 70
0
 10
56.7564531412
 20
-63.1490762652
 10
56.8908727034
 20
-63.1476609248
 10
57.0252298647
 20
-63.1434193352
 10
57.1594652082
 20
-63.1363535554
 10
57.2935268841
 20
-63.1264662602
 10
57.4273480858
 20
-63.1137623225
 10
57.5608472259
 20
-63.0982503882
 10
57.6939656822
 20
-63.0799388816
 10
57.8266446317
 20
-63.058837512
 10
57.9588028864
 20
-63.0349615636
 10
58.0903768539
 20
-63.0083258376
 10
58.2213149537
 20
-62.978944101
 10
58.3515548631
 20
-62.9468336647
 10
58.4810260017
 20
-62.9120159179
 10
58.6096864853
 20
-62.8745061326
 10
58.7375171077
 20
-62.8343122102
 10
58.8644565991
 20
-62.7914546533
 10
58.9904549728
 20
-62.7459515893
 10
59.1155087236
 20
-62.6978035098
 10
59.2395659319
 20
-62.6470275838
 10
59.3625670984
 20
-62.593645358
 10
59.4844956417
 20
-62.5376599328
 10
59.605319206
 20
-62.4790795648
 10
59.7249582337
 20
-62.4179361732
 10
59.8433258213
 20
-62.3542697463
 10
59.9603946627
 20
-62.2880906034
 10
60.0760845171
 20
-62.2194396804
 10
60.1902349882
 20
-62.1484135805
 10
60.3027886065
 20
-62.0750545875
 10
60.4137084567
 20
-61.999393366
 10
60.5228736653
 20
-61.9215222417
 10
60.6302264889
 20
-61.8414966876
 10
60.7357429887
 20
-61.7593490264
 10
60.8393591636
 20
-61.6751443319
 10
60.9410081871
 20
-61.5889551848
 10
61.0406850932
 20
-61.5008043521
 10
61.1384181062
 20
-61.4106805883
 10
61.2341399163
 20
-61.3186579779
 10
61.3278457758
 20
-61.2247533
 10
61.4196463575
 20
-61.1288569169
 10
61.5095214499
 20
-61.0309800198
 10
61.5974033689
 20
-60.9311861421
 10
61.6833182128
 20
-60.8294318391
 10
61.7672439898
 20
-60.7257218354
 10
61.8491082913
 20
-60.6201237046
 10
61.9288580592
 20
-60.5126860661
 10
62.0064613142
 20
-60.4034311037
 10
62.0818612065
 20
-60.2924173075
 10
62.1549730865
 20
-60.1797526604
 10
62.2257653264
 20
-60.0654724782
 10
62.294193864
 20
-59.9496339961
 10
62.3601670458
 20
-59.8323858887
 10
62.4236409854
 20
-59.7138089251
 10
62.4846040522
 20
-59.5939277067
 10
62.5430219035
 20
-59.4728117532
 10
62.5988624271
 20
-59.3505323961
 10
62.6521105889
 20
-59.2271275237
 10
62.7027582035
 20
-59.1026167664
 10
62.7507894122
 20
-58.9770348546
 10
62.7961738744
 20
-58.8504566205
 10
62.8388827198
 20
-58.7229621851
 10
62.8789014401
 20
-58.5945957358
 10
62.9162087403
 20
-58.4654265063
 10
62.9507728081
 20
-58.3355744023
 10
62.9825867245
 20
-58.2050818954
 10
63.0116366439
 20
-58.0740236476
 10
63.0378931835
 20
-57.9425707112
 10
63.0613573154
 20
-57.8107783523
 10
63.0820294653
 20
-57.6787112615
 10
63.0998963784
 20
-57.5465570419
 10
63.1149697061
 20
-57.4143791395
 10
63.1272631616
 20
-57.2822337855
 10
63.1367838381
 20
-57.1502986832
 10
63.1435531266
 20
-57.0186719532
 10
63.1475984692
 20
-56.8873713503
 10
63.1489451332
 20
-56.7564531412
  0
LINE
  5
24B
100
AcDbEntity
  8
IMPORT_IGES
100
AcDbLine
 62
7
  6
CONTINUOUS
 10
1.3729127321
 20
-63.3359967192
 11
0.9957366372
 21
-63.3405704684
  0
LINE
  5
24C
100
AcDbEntity
  8
IMPORT_IGES
100
AcDbLine
 62
7
  6
CONTINUOUS
 10
-1.3858226122
 20
-63.280729855
 11
-1.0086465173
 21
-63.2761561058
  0
LINE
  5
24D
100
AcDbEntity
  8
IMPORT_IGES
100
AcDbLine
 62
7
  6
CONTINUOUS
 10
0.9957366372
 20
-63.3405704684
 11
0.5675830528
 21
-63.3436166598
  0
LINE
  5
24E
100
AcDbEntity
  8
IMPORT_IGES
100
AcDbLine
 62
7
  6
CONTINUOUS
 10
-1.0086465173
 20
-63.2761561058
 11
-0.5804929329
 21
-63.2731099144
  0
LINE
  5
24F
100
AcDbEntity
  8
IMPORT_IGES
100
AcDbLine
 62
250
  6
CONTINUOUS
 10
-61.803089136
 20
-60.3458884123
 11
-56.616413828
 21
-60.3409056
  0
LINE
  5
250
100
AcDbEntity
  8
IMPORT_IGES
100
AcDbLine
 62
250
  6
CONTINUOUS
 10
-56.616413828
 20
-60.3409056
 11
-30.8790481517
 21
-60.2999767798
  0
LINE
  5
251
100
AcDbEntity
  8
IMPORT_IGES
100
AcDbLine
 62
7
  6
CONTINUOUS
 10
0.5675830528
 20
-63.3436166598
 11
-0.0064549401
 21
-63.3450133406
  0
LINE
  5
252
100
AcDbEntity
  8
IMPORT_IGES
100
AcDbLine
 62
7
  6
CONTINUOUS
 10
-0.5804929329
 20
-63.2731099144
 11
-0.0064549401
 21
-63.2717132336
  0
LINE
  5
253
100
AcDbEntity
  8
IMPORT_IGES
100
AcDbLine
 62
250
  6
CONTINUOUS
 10
18.7814569624
 20
-62.9772935981
 11
48.7031941402
 21
-62.9561363784
  0
LINE
  5
254
100
AcDbEntity
  8
IMPORT_IGES
100
AcDbLine
 62
250
  6
CONTINUOUS
 10
48.7031941402
 20
-62.9561363784
 11
56.756291058
 21
-62.9513073997
  0
LINE
  5
255
100
AcDbEntity
  8
IMPORT_IGES
100
AcDbLine
 62
7
  6
CONTINUOUS
 10
56.7564531412
 20
-63.3920346761
 11
-56.7564531412
 21
-63.3920346761
  0
LINE
  5
256
100
AcDbEntity
  8
IMPORT_IGES
100
AcDbLine
 62
7
  6
CONTINUOUS
 10
-5.1564549401
 20
-63.2549500017
 11
5.1435450599
 21
-63.2549500017
  0
LINE
  5
257
100
AcDbEntity
  8
IMPORT_IGES
100
AcDbLine
 62
7
  6
CONTINUOUS
 10
5.1435450599
 20
-63.2363009233
 11
-5.1564549401
 21
-63.2363009233
  0
LINE
  5
258
100
AcDbEntity
  8
IMPORT_IGES
100
AcDbLine
 62
250
  6
CONTINUOUS
 10
56.7564531412
 20
-63.1490762652
 11
11.9146868189
 21
-63.1545783631
  0
LINE
  5
259
100
AcDbEntity
  8
IMPORT_IGES
100
AcDbLine
 62
7
  6
CONTINUOUS
 10
56.6164531481
 20
-60.2999767798
 11
-56.6164531481
 21
-60.2999767798
  0
LINE
  5
25A
100
AcDbEntity
  8
IMPORT_IGES
100
AcDbLine
 62
250
  6
CONTINUOUS
 10
11.9146868189
 20
-63.1545783631
 11
-9.3671077246
 21
-63.1547671483
  0
LWPOLYLINE
  5
25B
100
AcDbEntity
  8
IMPORT_IGES
100
AcDbPolyline
 62
250
  6
CONTINUOUS
 90
3
 70
0
 10
-9.3671077246
 20
-63.1547671483
 10
-54.3852563072
 20
-63.1492375679
 10
-56.7564531412
 20
-63.1490882375
  0
LWPOLYLINE
  5
25C
100
AcDbEntity
  8
IMPORT_IGES
100
AcDbPolyline
 62
250
  6
CONTINUOUS
 90
3
 70
0
 10
-10.9512600207
 20
-62.981394711
 10
6.325783882
 20
-62.9822912628
 10
18.7814569624
 20
-62.9772935981
  0
LINE
  5
25D
100
AcDbEntity
  8
IMPORT_IGES
100
AcDbLine
 62
250
  6
CONTINUOUS
 10
-56.7562698482
 20
-62.9513659139
 11
-10.9512600207
 21
-62.981394711
  0
LINE
  5
25E
100
AcDbEntity
  8
IMPORT_IGES
100
AcDbLine
 62
250
  6
CONTINUOUS
 10
55.4238515463
 20
-60.3395580302
 11
61.8000154748
 21
-60.3458247815
  0
LINE
  5
25F
100
AcDbEntity
  8
IMPORT_IGES
100
AcDbLine
 62
250
  6
CONTINUOUS
 10
30.8893616608
 20
-60.2999767797
 11
55.4238515463
 21
-60.3395580302
  0
LINE
  5
260
100
AcDbEntity
  8
IMPORT_IGES
100
AcDbLine
 62
7
  6
CONTINUOUS
 10
-0.0064549401
 20
-63.3450133406
 11
-0.5777098363
 21
-63.34363054
  0
LINE
  5
261
100
AcDbEntity
  8
IMPORT_IGES
100
AcDbLine
 62
7
  6
CONTINUOUS
 10
-0.0064549401
 20
-63.2717132336
 11
0.5647999562
 21
-63.2730960342
  0
LINE
  5
262
100
AcDbEntity
  8
IMPORT_IGES
100
AcDbLine
 62
7
  6
CONTINUOUS
 10
-0.5777098363
 20
-63.34363054
 11
-1.0060662231
 21
-63.3405948853
  0
LINE
  5
263
100
AcDbEntity
  8
IMPORT_IGES
100
AcDbLine
 62
7
  6
CONTINUOUS
 10
0.5647999562
 20
-63.2730960342
 11
0.993156343
 21
-63.2761316888
  0
LINE
  5
264
100
AcDbEntity
  8
IMPORT_IGES
100
AcDbLine
 62
7
  6
CONTINUOUS
 10
-1.0060662231
 20
-63.3405948853
 11
-1.3848537672
 21
-63.3360112212
  0
LINE
  5
265
100
AcDbEntity
  8
IMPORT_IGES
100
AcDbLine
 62
7
  6
CONTINUOUS
 10
0.993156343
 20
-63.2761316888
 11
1.3719438871
 21
-63.280715353
  0
LINE
  5
266
100
AcDbEntity
  8
IMPORT_IGES
100
AcDbLine
 62
7
  6
CONTINUOUS
 10
-1.3848537672
 20
-63.3360112212
 11
-1.6282684396
 21
-63.3316448213
  0
LINE
  5
267
100
AcDbEntity
  8
IMPORT_IGES
100
AcDbLine
 62
7
  6
CONTINUOUS
 10
1.3719438871
 20
-63.280715353
 11
1.6153585595
 21
-63.2850817529
  0
LINE
  5
268
100
AcDbEntity
  8
IMPORT_IGES
100
AcDbLine
 62
7
  6
CONTINUOUS
 10
-1.6282684396
 20
-63.3316448213
 11
-1.765984518
 21
-63.3283693241
  0
LINE
  5
269
100
AcDbEntity
  8
IMPORT_IGES
100
AcDbLine
 62
7
  6
CONTINUOUS
 10
1.6153585595
 20
-63.2850817529
 11
1.7530746379
 21
-63.28835725
  0
LWPOLYLINE
  5
26A
100
AcDbEntity
  8
IMPORT_IGES
100
AcDbPolyline
 62
7
  6
CONTINUOUS
 90
11
 70
0
 10
-1.765984518
 20
-63.3283693241
 10
-1.8818574848
 20
-63.3248528822
 10
-1.9311823492
 20
-63.323021402
 10
-1.9745494718
 20
-63.3211464467
 10
-2.0120174894
 20
-63.319228277
 10
-2.0432882361
 20
-63.3172845506
 10
-2.0683054106
 20
-63.3153152423
 10
-2.087125314
 20
-63.3133203773
 10
-2.099618684
 20
-63.3113176884
 10
-2.1057337518
 20
-63.3093071825
 10
-2.1061362295
 20
-63.3077247859
  0
LWPOLYLINE
  5
26B
100
AcDbEntity
  8
IMPORT_IGES
100
AcDbPolyline
 62
7
  6
CONTINUOUS
 90
11
 70
0
 10
1.7530746379
 20
-63.28835725
 10
1.8689476047
 20
-63.2918736919
 10
1.9182724691
 20
-63.2937051721
 10
1.9616395917
 20
-63.2955801275
 10
1.9991076093
 20
-63.2974982972
 10
2.030378356
 20
-63.2994420236
 10
2.0553955304
 20
-63.3014113318
 10
2.0742154339
 20
-63.3034061968
 10
2.0867088039
 20
-63.3054088858
 10
2.0928238717
 20
-63.3074193917
 10
2.0932266605
 20
-63.3077250976
  0
LINE
  5
26C
100
AcDbEntity
  8
IMPORT_IGES
100
AcDbLine
 62
250
  6
CONTINUOUS
 10
-56.7564265312
 20
63.1481165848
 11
-56.7564531412
 21
63.1492035668
  0
LINE
  5
26D
100
AcDbEntity
  8
IMPORT_IGES
100
AcDbLine
 62
250
  6
CONTINUOUS
 10
-56.756373936
 20
63.1412747006
 11
-56.7564265312
 21
63.1481165848
  0
LINE
  5
26E
100
AcDbEntity
  8
IMPORT_IGES
100
AcDbLine
 62
7
  6
CONTINUOUS
 10
-58.8252569615
 20
56.6164531342
 11
-58.8252569615
 21
-56.6164531481
  0
LINE
  5
26F
100
AcDbEntity
  8
IMPORT_IGES
100
AcDbLine
 62
250
  6
CONTINUOUS
 10
-56.7564531412
 20
63.1492035668
 11
-56.7564531412
 21
63.3920346761
  0
LWPOLYLINE
  5
270
100
AcDbEntity
  8
IMPORT_IGES
100
AcDbPolyline
 62
250
  6
CONTINUOUS
 90
3
 70
0
 10
-56.7561515492
 20
62.9518472937
 10
-56.7561534404
 20
62.9689341419
 10
-56.756373936
 20
63.1412747006
  0
LINE
  5
271
100
AcDbEntity
  8
IMPORT_IGES
100
AcDbLine
 62
250
  6
CONTINUOUS
 10
-56.7562698555
 20
-62.9513659715
 11
-56.7564531412
 21
-63.3920346761
  0
LWPOLYLINE
  5
272
100
AcDbEntity
  8
0
100
AcDbPolyline
 62
7
  6
CONTINUOUS
 90
10
 70
0
 43
0.3500000006
 10
-0.1071428532
 20
82.4584631653
 10
-0.7500000165
 20
81.815600647
 10
-1.1785713937
 20
80.9584627075
 10
-1.1785713937
 20
79.8870312195
 10
-0.7500000165
 20
79.4584622498
 10
-0.1071428532
 20
79.4584622498
 10
0.3214285684
 20
79.8870312195
 10
0.3214285684
 20
80.7441782227
 10
-0.1071428532
 20
81.1727471924
 10
-1.035714268
 20
81.1727471924
  0
LWPOLYLINE
  5
273
100
AcDbEntity
  8
IMPORT_IGES
100
AcDbPolyline
 62
250
  6
CONTINUOUS
 90
3
 70
0
 10
-63.1451963449
 20
-56.7563513776
 10
-63.1478616774
 20
-56.756402169
 10
-63.1489537817
 20
-56.7564531412
  0
LINE
  5
274
100
AcDbEntity
  8
IMPORT_IGES
100
AcDbLine
 62
250
  6
CONTINUOUS
 10
-63.1353269847
 20
-56.7562532007
 11
-63.1451963449
 21
-56.7563513776
  0
LINE
  5
275
100
AcDbEntity
  8
IMPORT_IGES
100
AcDbLine
 62
250
  6
CONTINUOUS
 10
-63.0750352065
 20
-56.7560120389
 11
-63.1353269847
 21
-56.7562532007
  0
LINE
  5
276
100
AcDbEntity
  8
IMPORT_IGES
100
AcDbLine
 62
250
  6
CONTINUOUS
 10
-58.8252029589
 20
-56.5582388667
 11
-48.1554317996
 21
-56.5486646872
  0
LWPOLYLINE
  5
277
100
AcDbEntity
  8
IMPORT_IGES
100
AcDbPolyline
 62
250
  6
CONTINUOUS
 90
6
 70
0
 10
-48.1554317996
 20
-56.5486646872
 10
-18.0100267349
 20
-56.5159522875
 10
-8.5953142608
 20
-56.5096990532
 10
0.6438987325
 20
-56.5076754467
 10
9.6063244992
 20
-56.5101270406
 10
18.3949594128
 20
-56.5162467573
  0
LINE
  5
278
100
AcDbEntity
  8
IMPORT_IGES
100
AcDbLine
 62
250
  6
CONTINUOUS
 10
-62.950806405
 20
-56.7558769441
 11
-63.0750352065
 21
-56.7560120389
  0
LINE
  5
279
100
AcDbEntity
  8
IMPORT_IGES
100
AcDbLine
 62
7
  6
CONTINUOUS
 10
-56.6164531481
 20
-58.8252569615
 11
56.6164531481
 21
-58.8252569615
  0
LINE
  5
27A
100
AcDbEntity
  8
IMPORT_IGES
100
AcDbLine
 62
250
  6
CONTINUOUS
 10
63.3920346761
 20
-56.7564531412
 11
63.1489451332
 21
-56.7564531412
  0
LINE
  5
27B
100
AcDbEntity
  8
IMPORT_IGES
100
AcDbLine
 62
250
  6
CONTINUOUS
 10
-63.1489537817
 20
-56.7564531412
 11
-63.3920346761
 21
-56.7564531412
  0
LWPOLYLINE
  5
27C
100
AcDbEntity
  8
IMPORT_IGES
100
AcDbPolyline
 62
250
  6
CONTINUOUS
 90
4
 70
0
 10
18.3949594128
 20
-56.5162467573
 10
36.8959166777
 20
-56.5356364698
 10
46.6090747613
 20
-56.5468795408
 10
58.8252024781
 20
-56.5581586396
  0
LINE
  5
27D
100
AcDbEntity
  8
IMPORT_IGES
100
AcDbLine
 62
250
  6
CONTINUOUS
 10
63.1222764784
 20
-56.7561908626
 11
62.9507632394
 21
-56.7559113994
  0
LWPOLYLINE
  5
27E
100
AcDbEntity
  8
IMPORT_IGES
100
AcDbPolyline
 62
250
  6
CONTINUOUS
 90
5
 70
0
 10
63.1489451332
 20
-56.7564531412
 10
63.1479099013
 20
-56.756406687
 10
63.1454128124
 20
-56.7563606115
 10
63.1414997863
 20
-56.7563154849
 10
63.1222764784
 20
-56.7561908626
  0
LINE
  5
27F
100
AcDbEntity
  8
IMPORT_IGES
100
AcDbLine
 62
7
  6
CONTINUOUS
 10
-51.6164531412
 20
63.3920346761
 11
-51.6164531412
 21
63.2796571393
  0
LWPOLYLINE
  5
280
100
AcDbEntity
  8
0
100
AcDbPolyline
 62
7
  6
CONTINUOUS
 90
3
 70
0
 43
0.3500000006
 10
1.8928570933
 20
79.7441779175
 10
1.8214286013
 20
79.5298934326
 10
1.6785714755
 20
79.2441777649
  0
LINE
  5
281
100
AcDbEntity
  8
IMPORT_IGES
100
AcDbLine
 62
7
  6
CONTINUOUS
 10
-5.1564549401
 20
-63.2363009233
 11
-5.1564549401
 21
-63.2549500017
  0
LWPOLYLINE
  5
282
100
AcDbEntity
  8
0
100
AcDbPolyline
 62
7
  6
CONTINUOUS
 90
4
 70
0
 43
0.3500000006
 10
2.8928572569
 20
79.8870312195
 10
2.8928572569
 20
80.7441782227
 10
3.3214284925
 20
81.1727471924
 10
3.9642856293
 20
81.1727471924
  0
LINE
  5
283
100
AcDbEntity
  8
IMPORT_IGES
100
AcDbLine
 62
7
  6
CONTINUOUS
 10
5.1435450599
 20
-63.2549500017
 11
5.1435450599
 21
-63.2363009233
  0
LWPOLYLINE
  5
284
100
AcDbEntity
  8
0
100
AcDbPolyline
 62
7
  6
CONTINUOUS
 90
4
 70
0
 43
0.3500000006
 10
78.572434021
 20
2.8928560867
 10
77.7152870178
 20
2.8928560867
 10
77.2867180481
 20
3.3214295883
 10
77.2867180481
 20
3.9642853088
  0
LWPOLYLINE
  5
285
100
AcDbEntity
  8
IMPORT_IGES
100
AcDbPolyline
 62
7
  6
CONTINUOUS
 90
10
 70
0
 10
2.0932266605
 20
-63.3077250976
 10
2.0926124059
 20
-63.3094377216
 10
2.0861004497
 20
-63.3114461639
 10
2.0732373744
 20
-63.3134446135
 10
2.0540738086
 20
-63.3154331755
 10
2.0287876818
 20
-63.3173944536
 10
1.9973312889
 20
-63.3193281819
 10
1.959752335
 20
-63.3212346263
 10
1.9163718651
 20
-63.3230971872
 10
1.8671450091
 20
-63.324915531
  0
LWPOLYLINE
  5
286
100
AcDbEntity
  8
0
100
AcDbPolyline
 62
7
  6
CONTINUOUS
 90
3
 70
0
 43
0.3500000006
 10
78.715287323
 20
1.8928580475
 10
78.9295718079
 20
1.8214291306
 10
79.2152874756
 20
1.6785712967
  0
LWPOLYLINE
  5
287
100
AcDbEntity
  8
0
100
AcDbPolyline
 62
7
  6
CONTINUOUS
 90
10
 70
0
 43
0.3500000006
 10
78.5010028381
 20
1.8214291306
 10
78.6438652039
 20
1.8928580475
 10
78.715287323
 20
1.8928580475
 10
78.8581496887
 20
1.7500002136
 10
78.8581496887
 20
1.6785712967
 10
78.7867185059
 20
1.6071423798
 10
78.715287323
 20
1.6071423798
 10
78.572434021
 20
1.6785712967
 10
78.5010028381
 20
1.7500002136
 10
78.5010028381
 20
1.8214291306
  0
LWPOLYLINE
  5
288
100
AcDbEntity
  8
0
100
AcDbPolyline
 62
7
  6
CONTINUOUS
 90
10
 70
0
 43
0.3500000006
 10
1.8214286013
 20
79.9584624023
 10
1.8928570933
 20
79.8156091003
 10
1.8928570933
 20
79.7441779175
 10
1.7499999676
 20
79.6013155518
 10
1.6785714755
 20
79.6013155518
 10
1.6071428418
 20
79.6727467346
 10
1.6071428418
 20
79.7441779175
 10
1.6785714755
 20
79.8870312195
 10
1.7499999676
 20
79.9584624023
 10
1.8214286013
 20
79.9584624023
  0
LINE
  5
289
100
AcDbEntity
  8
IMPORT_IGES
100
AcDbLine
 62
7
  6
CONTINUOUS
 10
51.6164531412
 20
63.2796571393
 11
51.6164531412
 21
63.3920346761
  0
LWPOLYLINE
  5
28A
100
AcDbEntity
  8
IMPORT_IGES
100
AcDbPolyline
 62
7
  6
CONTINUOUS
 90
10
 70
0
 10
-2.1061362295
 20
-63.3077247859
 10
-2.105522286
 20
-63.3072888526
 10
-2.0990103299
 20
-63.3052804103
 10
-2.0861472545
 20
-63.3032819606
 10
-2.0669836887
 20
-63.3012933986
 10
-2.0416975619
 20
-63.2993321206
 10
-2.010241169
 20
-63.2973983922
 10
-1.9726622151
 20
-63.2954919479
 10
-1.9292817452
 20
-63.293629387
 10
-1.8800548893
 20
-63.2918110431
  0
LWPOLYLINE
  5
28B
100
AcDbEntity
  8
0
100
AcDbPolyline
 62
7
  6
CONTINUOUS
 90
3
 70
0
 43
0.3500000006
 10
76.8581490784
 20
-5.2499996567
 10
76.0010020752
 20
-4.3928571854
 10
79.0010029907
 20
-4.3928571854
  0
LWPOLYLINE
  5
28C
100
AcDbEntity
  8
0
100
AcDbPolyline
 62
7
  6
CONTINUOUS
 90
10
 70
0
 43
0.3500000006
 10
76.0010020752
 20
-0.1071425629
 10
76.6438645935
 20
-0.7500005493
 10
77.501002533
 20
-1.178571785
 10
78.572434021
 20
-1.178571785
 10
79.0010029907
 20
-0.7500005493
 10
79.0010029907
 20
-0.1071425629
 10
78.572434021
 20
0.3214286728
 10
77.7152870178
 20
0.3214286728
 10
77.2867180481
 20
-0.1071425629
 10
77.2867180481
 20
-1.0357139511
  0
LINE
  5
28D
100
AcDbEntity
  8
IMPORT_IGES
100
AcDbLine
 62
250
  6
CONTINUOUS
 10
56.530671979
 20
-29.9062977973
 11
56.5871316188
 21
-58.8252431955
  0
LINE
  5
28E
100
AcDbEntity
  8
IMPORT_IGES
100
AcDbLine
 62
250
  6
CONTINUOUS
 10
60.2999767798
 20
-35.8924214685
 11
60.3446672223
 21
-56.6163727456
  0
LINE
  5
28F
100
AcDbEntity
  8
IMPORT_IGES
100
AcDbLine
 62
250
  6
CONTINUOUS
 10
60.3446672223
 20
-56.6163727456
 11
60.3537895426
 21
-61.7978913379
  0
LINE
  5
290
100
AcDbEntity
  8
IMPORT_IGES
100
AcDbLine
 62
250
  6
CONTINUOUS
 10
56.756291058
 20
-62.9513074632
 11
56.7564531412
 21
-63.3920346761
  0
LINE
  5
291
100
AcDbEntity
  8
IMPORT_IGES
100
AcDbLine
 62
7
  6
CONTINUOUS
 10
58.8252569615
 20
-56.6164531481
 11
58.8252569615
 21
56.6164531481
  0
LINE
  5
292
100
AcDbEntity
  8
IMPORT_IGES
100
AcDbLine
 62
7
  6
CONTINUOUS
 10
60.2999767798
 20
56.6164531481
 11
60.2999767798
 21
-56.6164531481
  0
LINE
  5
293
100
AcDbEntity
  8
IMPORT_IGES
100
AcDbLine
 62
250
  6
CONTINUOUS
 10
56.7564531412
 20
63.3920346761
 11
56.7561996401
 21
62.9517844407
  0
LWPOLYLINE
  5
294
100
AcDbEntity
  8
IMPORT_IGES
100
AcDbPolyline
 62
250
  6
CONTINUOUS
 90
7
 70
0
 10
56.5869473289
 20
58.8252431463
 10
56.5349021314
 20
32.2881377413
 10
56.5136365767
 20
19.4836783613
 10
56.501262632
 20
7.2012032613
 10
56.5001785596
 20
-4.7709812524
 10
56.5107904824
 20
-17.0694871567
 10
56.530671979
 20
-29.9062977973
  0
LWPOLYLINE
  5
295
100
AcDbEntity
  8
IMPORT_IGES
100
AcDbPolyline
 62
250
  6
CONTINUOUS
 90
3
 70
0
 10
60.3538939427
 20
61.794969379
 10
60.3283748646
 20
48.8198145113
 10
60.3000277619
 20
36.0449843762
  0
LWPOLYLINE
  5
296
100
AcDbEntity
  8
0
100
AcDbPolyline
 62
7
  6
CONTINUOUS
 90
13
 70
0
 43
0.3500000006
 10
77.2867180481
 20
3.3214295883
 10
77.0724335632
 20
3.0357139206
 10
76.4295801086
 20
3.0357139206
 10
76.0010020752
 20
3.3214295883
 10
76.0010020752
 20
3.9642853088
 10
76.4295801086
 20
4.2500009766
 10
77.0724335632
 20
4.2500009766
 10
77.2867180481
 20
3.9642853088
 10
77.7152870178
 20
4.3928565445
 10
78.572434021
 20
4.3928565445
 10
79.0010029907
 20
3.9642853088
 10
79.0010029907
 20
3.3214295883
 10
78.572434021
 20
2.8928560867
  0
LINE
  5
297
100
AcDbEntity
  8
IMPORT_IGES
100
AcDbLine
 62
250
  6
CONTINUOUS
 10
63.1491496954
 20
56.7564531412
 11
63.1481182117
 21
56.7564256737
  0
LINE
  5
298
100
AcDbEntity
  8
IMPORT_IGES
100
AcDbLine
 62
250
  6
CONTINUOUS
 10
63.1481182117
 20
56.7564256737
 11
63.1417337694
 21
56.756371744
  0
LINE
  5
299
100
AcDbEntity
  8
IMPORT_IGES
100
AcDbLine
 62
250
  6
CONTINUOUS
 10
63.1417337694
 20
56.756371744
 11
63.0207005248
 21
56.7561553125
  0
LINE
  5
29A
100
AcDbEntity
  8
IMPORT_IGES
100
AcDbLine
 62
250
  6
CONTINUOUS
 10
63.0207005248
 20
56.7561553125
 11
62.9516245807
 21
56.7561321704
  0
LINE
  5
29B
100
AcDbEntity
  8
IMPORT_IGES
100
AcDbLine
 62
250
  6
CONTINUOUS
 10
-63.3920346761
 20
56.7564531412
 11
-63.1491491707
 21
56.7564531412
  0
LINE
  5
29C
100
AcDbEntity
  8
IMPORT_IGES
100
AcDbLine
 62
250
  6
CONTINUOUS
 10
63.1491496954
 20
56.7564531412
 11
63.3920346761
 21
56.7564531412
  0
LINE
  5
29D
100
AcDbEntity
  8
IMPORT_IGES
100
AcDbLine
 62
7
  6
CONTINUOUS
 10
56.6164531481
 20
58.8252569615
 11
-56.6164531342
 21
58.8252569615
  0
LINE
  5
29E
100
AcDbEntity
  8
IMPORT_IGES
100
AcDbLine
 62
7
  6
CONTINUOUS
 10
-56.6164531342
 20
60.2999767798
 11
56.6164531481
 21
60.2999767798
  0
LINE
  5
29F
100
AcDbEntity
  8
IMPORT_IGES
100
AcDbLine
 62
250
  6
CONTINUOUS
 10
-62.9516270661
 20
56.7560986801
 11
-63.1355780474
 21
56.7563303875
  0
LWPOLYLINE
  5
2A0
100
AcDbEntity
  8
IMPORT_IGES
100
AcDbPolyline
 62
250
  6
CONTINUOUS
 90
4
 70
0
 10
-63.1355780474
 20
56.7563303875
 10
-63.1454066934
 20
56.7563906683
 10
-63.1480611226
 20
56.7564218495
 10
-63.1491491707
 20
56.7564531412
  0
LWPOLYLINE
  5
2A1
100
AcDbEntity
  8
IMPORT_IGES
100
AcDbPolyline
 62
250
  6
CONTINUOUS
 90
25
 70
0
 10
62.9516243218
 20
56.7561322876
 10
62.946432314
 20
57.0042596943
 10
62.93159667
 20
57.2507196963
 10
62.9071173425
 20
57.4955118823
 10
62.8729095853
 20
57.7389140443
 10
62.8290580577
 20
57.9806475825
 10
62.7758168542
 20
58.2198775353
 10
62.7131783503
 20
58.4566080477
 10
62.6411501525
 20
58.6908342523
 10
62.560009255
 20
58.9217077312
 10
62.4696972299
 20
59.149248287
 10
62.3702725209
 20
59.3734354666
 10
62.2621874775
 20
59.5933605448
 10
62.1453615014
 20
59.8091195471
 10
62.0198752284
 20
60.0206158935
 10
61.8864229163
 20
60.2266520628
 10
61.7450164562
 20
60.4271904991
 10
61.5956441423
 20
60.6222682869
 10
61.4389649167
 20
60.8108000031
 10
61.2749346397
 20
60.9926970571
 10
61.1035977966
 20
61.1680477464
 10
60.9257461559
 20
61.3360322181
 10
60.7416436048
 20
61.4963772795
 10
60.5510262015
 20
61.6493562984
 10
60.3538939427
 20
61.794969379
  0
LWPOLYLINE
  5
2A2
100
AcDbEntity
  8
IMPORT_IGES
100
AcDbPolyline
 62
250
  6
CONTINUOUS
 90
76
 70
0
 10
63.1491496954
 20
56.7564531412
 10
63.1477324539
 20
56.890878903
 10
63.1434888388
 20
57.0252426037
 10
63.1364208852
 20
57.1594848259
 10
63.126531231
 20
57.2935537076
 10
63.1138247382
 20
57.4273824495
 10
63.0983100656
 20
57.560889494
 10
63.079995611
 20
57.6940162187
 10
63.0588910578
 20
57.8267037947
 10
63.0350116998
 20
57.9588710586
 10
63.0083723058
 20
58.0904544373
 10
62.9789866186
 20
58.2214023224
 10
62.9468719719
 20
58.3516523477
 10
62.912049716
 20
58.4811339794
 10
62.8745351093
 20
58.6098052769
 10
62.8343361282
 20
58.7376468436
 10
62.7914732559
 20
58.8645974325
 10
62.7459646107
 20
58.9906070311
 10
62.6978108023
 20
59.1156718839
 10
62.6470290041
 20
59.2397401147
 10
62.5936407588
 20
59.3627521914
 10
62.5376493103
 20
59.4846911837
 10
62.4790629622
 20
59.6055247179
 10
62.4179136312
 20
59.7251732849
 10
62.3542414103
 20
59.843549746
 10
62.2880566892
 20
59.9606267575
 10
62.2194004057
 20
60.0763241638
 10
62.1483691846
 20
60.1904815233
 10
62.0750053745
 20
60.3030413515
 10
61.9993396493
 20
60.4139668023
 10
61.9214642738
 20
60.5231370791
 10
61.8414347822
 20
60.6304944216
 10
61.7592834966
 20
60.7360149582
 10
61.6750753217
 20
60.8396348754
 10
61.5888828318
 20
60.941287387
 10
61.5007288312
 20
61.0409675159
 10
61.4106019543
 20
61.1387035759
 10
61.3185762623
 20
61.2344282974
 10
61.2246685748
 20
61.328136908
 10
61.1287692248
 20
61.4199400639
 10
61.0308893882
 20
61.5098175815
 10
60.9310926312
 20
61.5977017628
 10
60.8293355566
 20
61.6836186272
 10
60.7256228896
 20
61.7675462043
 10
60.6200222292
 20
61.8494120862
 10
60.5125822912
 20
61.9291631142
 10
60.4033253103
 20
62.0067673044
 10
60.2923097639
 20
62.0821678497
 10
60.1796436443
 20
62.1552800752
 10
60.0653623108
 20
62.2260723581
 10
59.9495229939
 20
62.2945006727
 10
59.8322743078
 20
62.360473383
 10
59.7136970151
 20
62.4239466316
 10
59.593815757
 20
62.4849087928
 10
59.4727000643
 20
62.5433254994
 10
59.3504212715
 20
62.5991646648
 10
59.2270172981
 20
62.6524112674
 10
59.1025078325
 20
62.7030570816
 10
58.9769276225
 20
62.7510862731
 10
58.8503515198
 20
62.7964685259
 10
58.7228597121
 20
62.8391749367
 10
58.594496413
 20
62.8791910241
 10
58.465330868
 20
62.9164955266
 10
58.3354830336
 20
62.9510566146
 10
58.2049954459
 20
62.982867391
 10
58.0739427388
 20
63.0119140592
 10
57.9424958781
 20
63.0381672555
 10
57.8107101651
 20
63.0616279761
 10
57.6786502849
 20
63.082296683
 10
57.5465036916
 20
63.1001601419
 10
57.4143338436
 20
63.1152300223
 10
57.2821969835
 20
63.1275200608
 10
57.1502706636
 20
63.1370373586
 10
57.0186529614
 20
63.1438033121
 10
56.8873616952
 20
63.1478453787
 10
56.7564531412
 20
63.149188838
  0
LINE
  5
2A3
100
AcDbEntity
  8
IMPORT_IGES
100
AcDbLine
 62
250
  6
CONTINUOUS
 10
62.9516245807
 20
56.7561321704
 11
62.9530633529
 21
54.0143526595
  0
LINE
  5
2A4
100
AcDbEntity
  8
IMPORT_IGES
100
AcDbLine
 62
250
  6
CONTINUOUS
 10
62.9530633529
 20
54.0143526595
 11
62.9669909674
 21
31.7247402929
  0
LINE
  5
2A5
100
AcDbEntity
  8
IMPORT_IGES
100
AcDbLine
 62
250
  6
CONTINUOUS
 10
62.9669909674
 20
31.7247402929
 11
62.9745292905
 21
7.6465722321
  0
LINE
  5
2A6
100
AcDbEntity
  8
IMPORT_IGES
100
AcDbLine
 62
250
  6
CONTINUOUS
 10
63.1491496954
 20
56.7564531412
 11
63.153192251
 21
-12.7090105659
  0
LINE
  5
2A7
100
AcDbEntity
  8
IMPORT_IGES
100
AcDbLine
 62
7
  6
CONTINUOUS
 10
63.3920346761
 20
56.7564531412
 11
63.3920346761
 21
-56.7564531412
  0
LINE
  5
2A8
100
AcDbEntity
  8
IMPORT_IGES
100
AcDbLine
 62
250
  6
CONTINUOUS
 10
62.9745292905
 20
7.6465722321
 11
62.9737325763
 21
-11.0896817156
  0
LINE
  5
2A9
100
AcDbEntity
  8
IMPORT_IGES
100
AcDbLine
 62
250
  6
CONTINUOUS
 10
63.153192251
 20
-12.7090105659
 11
63.1489451332
 21
-56.7564531412
  0
LINE
  5
2AA
100
AcDbEntity
  8
IMPORT_IGES
100
AcDbLine
 62
250
  6
CONTINUOUS
 10
62.9737325763
 20
-11.0896817156
 11
62.9694874792
 21
-24.6214093168
  0
LINE
  5
2AB
100
AcDbEntity
  8
IMPORT_IGES
100
AcDbLine
 62
250
  6
CONTINUOUS
 10
62.9694874792
 20
-24.6214093168
 11
62.9613263598
 21
-40.2461560274
  0
LINE
  5
2AC
100
AcDbEntity
  8
IMPORT_IGES
100
AcDbLine
 62
250
  6
CONTINUOUS
 10
62.9613263598
 20
-40.2461560274
 11
62.9507632809
 21
-56.7559113994
  0
LWPOLYLINE
  5
2AD
100
AcDbEntity
  8
IMPORT_IGES
100
AcDbPolyline
 62
250
  6
CONTINUOUS
 90
40
 70
0
 10
-56.7561515319
 20
62.9518459908
 10
-57.0117583702
 20
62.9462362197
 10
-57.2651100827
 20
62.9305529568
 10
-57.51620647
 20
62.9047959985
 10
-57.7652843196
 20
62.8688351059
 10
-58.0121064109
 20
62.822800127
 10
-58.2559615276
 20
62.7670810794
 10
-58.496855424
 20
62.7016929307
 10
-58.7347818984
 20
62.6266204586
 10
-58.9690118367
 20
62.5422084446
 10
-59.1997352407
 20
62.4483056976
 10
-59.42676181
 20
62.3450629828
 10
-59.6487918895
 20
62.2332782669
 10
-59.8656173222
 20
62.113047996
 10
-60.077445394
 20
61.9842761114
 10
-60.2835994482
 20
61.8474721651
 10
-60.4841368797
 20
61.7026734305
 10
-60.6789995941
 20
61.5498429956
 10
-60.8673377767
 20
61.389379207
 10
-61.0491664089
 20
61.2211612094
 10
-61.2244700639
 20
61.0453101732
 10
-61.3923535046
 20
60.862587452
 10
-61.5527391973
 20
60.6728893075
 10
-61.7057044148
 20
60.4763196703
 10
-61.8505861027
 20
60.2739515757
 10
-61.9873463696
 20
60.0658073697
 10
-62.1160229114
 20
59.8518651909
 10
-62.2360660934
 20
59.6331319299
 10
-62.3475052066
 20
59.4094855259
 10
-62.4503109002
 20
59.1810485928
 10
-62.5438456369
 20
58.9491951645
 10
-62.6280421812
 20
58.7139833085
 10
-62.702967749
 20
58.4753556738
 10
-62.7681865539
 20
58.234513285
 10
-62.8236704258
 20
57.9914595766
 10
-62.8694475671
 20
57.7461919366
 10
-62.9051668268
 20
57.4999024117
 10
-62.9307112132
 20
57.2529886741
 10
-62.9461978505
 20
57.0050539779
 10
-62.9516268092
 20
56.7560987893
  0
LWPOLYLINE
  5
2AE
100
AcDbEntity
  8
IMPORT_IGES
100
AcDbPolyline
 62
250
  6
CONTINUOUS
 90
76
 70
0
 10
-56.7564531412
 20
63.1492035668
 10
-56.8908713993
 20
63.147786614
 10
-57.0252280072
 20
63.1435434445
 10
-57.1594635467
 20
63.1364760677
 10
-57.2935261563
 20
63.1265870896
 10
-57.4273490311
 20
63.113881354
 10
-57.5608506027
 20
63.0983675154
 10
-57.6939722465
 20
63.080053947
 10
-57.8266551274
 20
63.0589503088
 10
-57.9588180666
 20
63.0350718942
 10
-58.0903974886
 20
63.0084334485
 10
-58.2213417759
 20
62.9790486931
 10
-58.3515885385
 20
62.9469349663
 10
-58.481067241
 20
62.9121135964
 10
-58.609735931
 20
62.8745998233
 10
-58.7375751746
 20
62.834401636
 10
-58.8645237231
 20
62.7915394989
 10
-58.9905315515
 20
62.7460315148
 10
-59.1155948549
 20
62.697878316
 10
-59.2396617557
 20
62.6470970617
 10
-59.36267271
 20
62.5937092819
 10
-59.484610726
 20
62.5377182525
 10
-59.6054434164
 20
62.479132273
 10
-59.7250912753
 20
62.4179832464
 10
-59.843467133
 20
62.3543112889
 10
-59.9605436246
 20
62.2881267932
 10
-60.0762406072
 20
62.2194706814
 10
-60.190397661
 20
62.1484395738
 10
-60.3029573069
 20
62.0750758038
 10
-60.4138826827
 20
61.9994100443
 10
-60.5230529817
 20
61.9215345755
 10
-60.6304104534
 20
61.8415049138
 10
-60.7359312067
 20
61.7593533846
 10
-60.8395513784
 20
61.6751449435
 10
-60.9412041735
 20
61.5889521676
 10
-61.0408846204
 20
61.5007978517
 10
-61.1386210117
 20
61.4106706661
 10
-61.2343460697
 20
61.3186446795
 10
-61.3280550308
 20
61.2247367003
 10
-61.4198585562
 20
61.1288370709
 10
-61.5097364551
 20
61.0309569757
 10
-61.597621038
 20
60.9311599684
 10
-61.6835383525
 20
60.8294026289
 10
-61.7674664217
 20
60.7256896852
 10
-61.8493328421
 20
60.6200887258
 10
-61.9290844939
 20
60.5126484203
 10
-62.006689399
 20
60.403390983
 10
-62.0820907348
 20
60.2923748986
 10
-62.1552038323
 20
60.1797081513
 10
-62.2259970696
 20
60.0654260836
 10
-62.2944264086
 20
59.9495859298
 10
-62.3604001996
 20
59.8323363262
 10
-62.4238745765
 20
59.7137580395
 10
-62.4848379138
 20
59.5938756966
 10
-62.5432558472
 20
59.4727588234
 10
-62.5990962827
 20
59.3504787551
 10
-62.652344196
 20
59.2270734003
 10
-62.7029913705
 20
59.1025624259
 10
-62.7510219655
 20
58.9769805733
 10
-62.7964056571
 20
58.8504026897
 10
-62.8391135469
 20
58.7229089428
 10
-62.879131146
 20
58.5945435383
 10
-62.9164371828
 20
58.4653757191
 10
-62.9509998276
 20
58.3355254272
 10
-62.9828121766
 20
58.2050351822
 10
-63.0118604194
 20
58.0739796252
 10
-63.0381151825
 20
57.9425297433
 10
-63.0615774546
 20
57.8107408292
 10
-63.0822476873
 20
57.6786775695
 10
-63.1001126359
 20
57.5465274558
 10
-63.1151839641
 20
57.4143539441
 10
-63.1274754012
 20
57.2822132745
 10
-63.1369940413
 20
57.1502830374
 10
-63.143761277
 20
57.0186613218
 10
-63.1478045617
 20
56.8873659315
 10
-63.1491491707
 20
56.7564531412
  0
LINE
  5
2AF
100
AcDbEntity
  8
IMPORT_IGES
100
AcDbLine
 62
250
  6
CONTINUOUS
 10
-56.7561515491
 20
62.9518460498
 11
-29.5833575372
 21
62.9713525704
  0
LINE
  5
2B0
100
AcDbEntity
  8
IMPORT_IGES
100
AcDbLine
 62
250
  6
CONTINUOUS
 10
-29.5833575372
 20
62.9713525704
 11
-10.5489090871
 21
62.9812884299
  0
LINE
  5
2B1
100
AcDbEntity
  8
IMPORT_IGES
100
AcDbLine
 62
250
  6
CONTINUOUS
 10
-56.7564531412
 20
63.1492035668
 11
7.3549137013
 21
63.1549554467
  0
LINE
  5
2B2
100
AcDbEntity
  8
IMPORT_IGES
100
AcDbLine
 62
7
  6
CONTINUOUS
 10
-51.6164531412
 20
63.2796571393
 11
51.6164531412
 21
63.2796571393
  0
LINE
  5
2B3
100
AcDbEntity
  8
IMPORT_IGES
100
AcDbLine
 62
7
  6
CONTINUOUS
 10
-56.7564531412
 20
63.3920346761
 11
-51.6164531412
 21
63.3920346761
  0
LINE
  5
2B4
100
AcDbEntity
  8
IMPORT_IGES
100
AcDbLine
 62
7
  6
CONTINUOUS
 10
51.6164531412
 20
63.3920346761
 11
56.7564531412
 21
63.3920346761
  0
LINE
  5
2B5
100
AcDbEntity
  8
IMPORT_IGES
100
AcDbLine
 62
250
  6
CONTINUOUS
 10
-10.5489090871
 20
62.9812884299
 11
6.7220547167
 21
62.9823303522
  0
LINE
  5
2B6
100
AcDbEntity
  8
IMPORT_IGES
100
AcDbLine
 62
250
  6
CONTINUOUS
 10
7.3549137013
 20
63.1549554467
 11
42.6715460184
 21
63.1509887275
  0
LINE
  5
2B7
100
AcDbEntity
  8
IMPORT_IGES
100
AcDbLine
 62
250
  6
CONTINUOUS
 10
42.6715460184
 20
63.1509887275
 11
56.7564531412
 21
63.149188838
  0
LINE
  5
2B8
100
AcDbEntity
  8
IMPORT_IGES
100
AcDbLine
 62
250
  6
CONTINUOUS
 10
6.7220547167
 20
62.9823303522
 11
19.0433776449
 21
62.9775388495
  0
LINE
  5
2B9
100
AcDbEntity
  8
IMPORT_IGES
100
AcDbLine
 62
250
  6
CONTINUOUS
 10
19.0433776449
 20
62.9775388495
 11
36.6820403458
 21
62.9664085656
  0
LINE
  5
2BA
100
AcDbEntity
  8
IMPORT_IGES
100
AcDbLine
 62
250
  6
CONTINUOUS
 10
36.6820403458
 20
62.9664085656
 11
56.7561996401
 21
62.9517845053
  0
LWPOLYLINE
  5
2BB
100
AcDbEntity
  8
0
100
AcDbPolyline
 62
7
  6
CONTINUOUS
 90
13
 70
0
 43
0.3500000006
 10
3.3214284925
 20
81.1727471924
 10
3.035714241
 20
81.3870316772
 10
3.035714241
 20
82.0298941956
 10
3.3214284925
 20
82.4584631653
 10
3.9642856293
 20
82.4584631653
 10
4.2499998808
 20
82.0298941956
 10
4.2499998808
 20
81.3870316772
 10
3.9642856293
 20
81.1727471924
 10
4.3928571482
 20
80.7441782227
 10
4.3928571482
 20
79.8870312195
 10
3.9642856293
 20
79.4584622498
 10
3.3214284925
 20
79.4584622498
 10
2.8928572569
 20
79.8870312195
  0
LWPOLYLINE
  5
2BC
100
AcDbEntity
  8
0
100
AcDbPolyline
 62
7
  6
CONTINUOUS
 90
7
 70
0
 43
0.3500000006
 10
79.0010029907
 20
-2.0357142563
 10
79.0010029907
 20
-3.5357147141
 10
76.8581490784
 20
-2.0357142563
 10
76.4295801086
 20
-2.0357142563
 10
76.0010020752
 20
-2.4642854919
 10
76.0010020752
 20
-3.1071423454
 10
76.6438645935
 20
-3.5357147141
  0
LWPOLYLINE
  5
2BD
100
AcDbEntity
  8
IMPORT_IGES
100
AcDbPolyline
 62
250
  6
CONTINUOUS
 90
16
 70
0
 10
61.8000154748
 20
-60.3458247815
 10
61.9448944498
 20
-60.1311598502
 10
62.0803539453
 20
-59.9118755273
 10
62.2063936619
 20
-59.6879721329
 10
62.3231572557
 20
-59.4589828857
 10
62.4305004956
 20
-59.2253752667
 10
62.5279913626
 20
-58.9885510726
 10
62.6155793489
 20
-58.7485951763
 10
62.6933147048
 20
-58.5054236403
 10
62.760916744
 20
-58.2601851491
 10
62.8183811396
 20
-58.0129579453
 10
62.8657122573
 20
-57.7636648711
 10
62.9026426203
 20
-57.5132215768
 10
62.9290831977
 20
-57.2619336821
 10
62.9451233403
 20
-57.0094967553
 10
62.9507632394
 20
-56.7559113994
  0
LWPOLYLINE
  5
2BE
100
AcDbEntity
  8
IMPORT_IGES
100
AcDbPolyline
 62
250
  6
CONTINUOUS
 90
10
 70
0
 10
60.3537895426
 20
-61.7978913379
 10
60.5381042693
 20
-61.6614552141
 10
60.7166856528
 20
-61.5186201623
 10
60.889533341
 20
-61.3693863398
 10
61.0568762079
 20
-61.213523844
 10
61.218485079
 20
-61.0512627844
 10
61.3736727229
 20
-60.8832932598
 10
61.5222096168
 20
-60.7098453691
 10
61.6643241783
 20
-60.5306891665
 10
61.8000155139
 20
-60.3458247815
  0
LWPOLYLINE
  5
2BF
100
AcDbEntity
  8
0
100
AcDbPolyline
 62
7
  6
CONTINUOUS
 90
7
 70
0
 43
0.3500000006
 10
-2.0357142191
 20
79.4584622498
 10
-3.5357143936
 20
79.4584622498
 10
-2.0357142191
 20
81.6013161621
 10
-2.0357142191
 20
82.0298941956
 10
-2.464285738
 20
82.4584631653
 10
-3.1071428747
 20
82.4584631653
 10
-3.5357143936
 20
81.815600647
  0
LWPOLYLINE
  5
2C0
100
AcDbEntity
  8
IMPORT_IGES
100
AcDbPolyline
 62
250
  6
CONTINUOUS
 90
16
 70
0
 10
60.3538935085
 20
61.7949694911
 10
60.1388978258
 20
61.9405934179
 10
59.9192488141
 20
62.0767520649
 10
59.6949466864
 20
62.2034454782
 10
59.4655215368
 20
62.3208192657
 10
59.2314437328
 20
62.4287278412
 10
58.9941239002
 20
62.5267345446
 10
58.7536465687
 20
62.6147889292
 10
58.509927694
 20
62.6929416297
 10
58.2641250225
 20
62.7609077939
 10
58.016316395
 20
62.8186831867
 10
57.7664244557
 20
62.8662723932
 10
57.5153741306
 20
62.9034039676
 10
57.2634738797
 20
62.9299876516
 10
57.0104157143
 20
62.9461142903
 10
56.7561998751
 20
62.9517841981
  0
LWPOLYLINE
  5
2C1
100
AcDbEntity
  8
0
100
AcDbPolyline
 62
7
  6
CONTINUOUS
 90
5
 70
0
 43
0.3500000006
 10
-112.9430327454
 20
81.5344168396
 10
-112.5858949585
 20
81.7487013245
 10
-112.5858949585
 20
82.3915547791
 10
-112.9430327454
 20
82.8201237488
 10
-113.8001797485
 20
82.8201237488
  0
LWPOLYLINE
  5
2C2
100
AcDbEntity
  8
IMPORT_IGES
100
AcDbPolyline
 62
7
  6
CONTINUOUS
 90
4
 70
0
 10
-122.5827796979
 20
63.1235702276
 10
-122.5935638062
 20
63.1170543421
 10
-122.6037724103
 20
63.1099789539
 10
-122.6134038757
 20
63.1023829841
  0
LINE
  5
2C3
100
AcDbEntity
  8
IMPORT_IGES
100
AcDbLine
 62
7
  6
CONTINUOUS
 10
-122.4947283944
 20
-63.1490762652
 11
-108.5756503541
 21
-63.3920346761
  0
LINE
  5
2C4
100
AcDbEntity
  8
IMPORT_IGES
100
AcDbLine
 62
7
  6
CONTINUOUS
 10
-122.4947283943
 20
-63.1490762652
 11
-122.5105824829
 21
-63.1481144212
  0
LWPOLYLINE
  5
2C5
100
AcDbEntity
  8
IMPORT_IGES
100
AcDbPolyline
 62
7
  6
CONTINUOUS
 90
4
 70
0
 10
-122.5152502719
 20
-63.1476600321
 10
-122.5059707617
 20
-63.1485633524
 10
-122.4966401215
 20
-63.1490337534
 10
-122.4947283942
 20
-63.1490762652
  0
LWPOLYLINE
  5
2C6
100
AcDbEntity
  8
IMPORT_IGES
100
AcDbPolyline
 62
7
  6
CONTINUOUS
 90
15
 70
0
 10
-122.5119477497
 20
-63.1480315925
 10
-122.5290013707
 20
-63.1455091714
 10
-122.5456764193
 20
-63.1415552837
 10
-122.5616191085
 20
-63.136313789
 10
-122.5768118187
 20
-63.1298748158
 10
-122.5915509684
 20
-63.1221306688
 10
-122.6057497234
 20
-63.113079398
 10
-122.6191629687
 20
-63.1028440666
 10
-122.631806878
 20
-63.0913753227
 10
-122.6435339172
 20
-63.0787443454
 10
-122.654172102
 20
-63.0650913505
 10
-122.6636634972
 20
-63.0504447685
 10
-122.6718920362
 20
-63.0349208668
 10
-122.6787259988
 20
-63.0187357067
 10
-122.6840950303
 20
-63.0020794373
  0
LINE
  5
2C7
100
AcDbEntity
  8
IMPORT_IGES
100
AcDbLine
 62
7
  6
CONTINUOUS
 10
-122.5335160559
 20
-63.144587135
 11
-122.5244433478
 21
-63.1463310083
  0
LINE
  5
2C8
100
AcDbEntity
  8
IMPORT_IGES
100
AcDbLine
 62
250
  6
CONTINUOUS
 10
-122.7244488802
 20
-60.3395580302
 11
-122.7071476506
 21
-60.3445235917
  0
LINE
  5
2C9
100
AcDbEntity
  8
IMPORT_IGES
100
AcDbLine
 62
250
  6
CONTINUOUS
 10
-122.7071476506
 20
-60.3445235917
 11
-122.7032705
 21
-60.3458247815
  0
LINE
  5
2CA
100
AcDbEntity
  8
IMPORT_IGES
100
AcDbLine
 62
7
  6
CONTINUOUS
 10
-122.9340323618
 20
-58.8252569615
 11
-122.7189286695
 21
-58.8252569615
  0
LINE
  5
2CB
100
AcDbEntity
  8
IMPORT_IGES
100
AcDbLine
 62
250
  6
CONTINUOUS
 10
-122.7228141746
 20
-56.6164531481
 11
-122.7363233724
 21
-56.6164531481
  0
LINE
  5
2CC
100
AcDbEntity
  8
IMPORT_IGES
100
AcDbLine
 62
250
  6
CONTINUOUS
 10
-108.5756503541
 20
-56.7564531412
 11
-122.6987417357
 21
-56.7559113994
  0
LINE
  5
2CD
100
AcDbEntity
  8
IMPORT_IGES
100
AcDbLine
 62
250
  6
CONTINUOUS
 10
-122.761924265
 20
-56.5564913955
 11
-122.7366505414
 21
-56.5581586396
  0
LINE
  5
2CE
100
AcDbEntity
  8
IMPORT_IGES
100
AcDbLine
 62
250
  6
CONTINUOUS
 10
-122.8725941268
 20
-56.5468795408
 11
-122.7619242702
 21
-56.556491157
  0
LINE
  5
2CF
100
AcDbEntity
  8
IMPORT_IGES
100
AcDbLine
 62
250
  6
CONTINUOUS
 10
-123.2435705439
 20
-56.5076662656
 11
-123.218815085
 21
-56.5101270406
  0
LWPOLYLINE
  5
2D0
100
AcDbEntity
  8
IMPORT_IGES
100
AcDbPolyline
 62
250
  6
CONTINUOUS
 90
3
 70
0
 10
-123.218815085
 20
-56.5101270406
 10
-123.0810122011
 20
-56.525125723
 10
-122.8725941268
 20
-56.5468795408
  0
LWPOLYLINE
  5
2D1
100
AcDbEntity
  8
IMPORT_IGES
100
AcDbPolyline
 62
7
  6
CONTINUOUS
 90
3
 70
0
 10
-122.6224262683
 20
63.0943299163
 10
-122.6308070124
 20
63.0858944107
 10
-122.6385491427
 20
63.077123309
  0
LWPOLYLINE
  5
2D2
100
AcDbEntity
  8
0
100
AcDbPolyline
 62
7
  6
CONTINUOUS
 90
10
 70
0
 43
0.3500000006
 10
-107.1573153992
 20
79.820131897
 10
-106.3001774597
 20
80.6772698364
 10
-106.0858929749
 20
81.5344168396
 10
-106.0858929749
 20
82.3915547791
 10
-106.5144619446
 20
82.8201237488
 10
-107.1573153992
 20
82.8201237488
 10
-107.5858934326
 20
82.3915547791
 10
-107.5858934326
 20
81.5344168396
 10
-107.1573153992
 20
81.1058388062
 10
-106.2287462769
 20
81.1058388062
  0
LINE
  5
2D3
100
AcDbEntity
  8
IMPORT_IGES
100
AcDbLine
 62
7
  6
CONTINUOUS
 10
-107.6454068279
 20
-53.9777870326
 11
-93.3427296547
 21
-52.9776464156
  0
LINE
  5
2D4
100
AcDbEntity
  8
IMPORT_IGES
100
AcDbLine
 62
250
  6
CONTINUOUS
 10
-122.7286123179
 20
-60.335615349
 11
-122.7244488802
 21
-60.3395580302
  0
LINE
  5
2D5
100
AcDbEntity
  8
IMPORT_IGES
100
AcDbLine
 62
7
  6
CONTINUOUS
 10
-92.0636565968
 20
-46.9818046702
 11
-92.8157510501
 21
-47.1144192143
  0
LINE
  5
2D6
100
AcDbEntity
  8
IMPORT_IGES
100
AcDbLine
 62
250
  6
CONTINUOUS
 10
-93.0636565968
 20
-49.4581317263
 11
-108.5756503541
 21
-49.4581317263
  0
LWPOLYLINE
  5
2D7
100
AcDbEntity
  8
IMPORT_IGES
100
AcDbPolyline
 62
7
  6
CONTINUOUS
 90
3
 70
0
 10
-122.6456453441
 20
63.0680770498
 10
-122.6520854707
 20
63.0588285054
 10
-122.6578760499
 20
63.0494369553
  0
LINE
  5
2D8
100
AcDbEntity
  8
IMPORT_IGES
100
AcDbLine
 62
7
  6
CONTINUOUS
 10
-108.4071613049
 20
54.8264758238
 11
-108.5756503541
 21
54.7291986259
  0
LINE
  5
2D9
100
AcDbEntity
  8
IMPORT_IGES
100
AcDbLine
 62
7
  6
CONTINUOUS
 10
-92.8157510501
 20
-45.1144192221
 11
-92.0636565968
 21
-44.981804678
  0
LWPOLYLINE
  5
2DA
100
AcDbEntity
  8
IMPORT_IGES
100
AcDbPolyline
 62
7
  6
CONTINUOUS
 90
19
 70
0
 10
-122.6641367656
 20
-63.0496412245
 10
-122.6600054742
 20
-63.0564313613
 10
-122.6555129087
 20
-63.0631886019
 10
-122.6506655835
 20
-63.0698695499
 10
-122.6454601426
 20
-63.0764497617
 10
-122.6398980519
 20
-63.0829006714
 10
-122.6340016117
 20
-63.0891749343
 10
-122.6277797588
 20
-63.0952464815
 10
-122.6212419264
 20
-63.1010915738
 10
-122.6144195178
 20
-63.1066715364
 10
-122.607344685
 20
-63.1119549383
 10
-122.6000216139
 20
-63.11693515
 10
-122.5924424993
 20
-63.1216113944
 10
-122.5846294119
 20
-63.1259632123
 10
-122.5766028472
 20
-63.1299740281
 10
-122.5683518025
 20
-63.1336428178
 10
-122.5599000321
 20
-63.1369513601
 10
-122.5512745502
 20
-63.1398832214
 10
-122.5424699925
 20
-63.1424337095
  0
LWPOLYLINE
  5
2DB
100
AcDbEntity
  8
IMPORT_IGES
100
AcDbPolyline
 62
7
  6
CONTINUOUS
 90
5
 70
0
 10
-122.6630736357
 20
63.039871342
 10
-122.667637425
 20
63.0302764239
 10
-122.6714830901
 20
63.0209816508
 10
-122.674704127
 20
63.0119698882
 10
-122.6770889178
 20
63.0041747228
  0
LINE
  5
2DC
100
AcDbEntity
  8
IMPORT_IGES
100
AcDbLine
 62
7
  6
CONTINUOUS
 10
-92.0636565968
 20
-37.3344586394
 11
-92.8157510501
 21
-37.2018440952
  0
LINE
  5
2DD
100
AcDbEntity
  8
IMPORT_IGES
100
AcDbLine
 62
7
  6
CONTINUOUS
 10
-92.0636565968
 20
-35.3344586316
 11
-92.8157510501
 21
-35.2018440874
  0
LWPOLYLINE
  5
2DE
100
AcDbEntity
  8
IMPORT_IGES
100
AcDbPolyline
 62
7
  6
CONTINUOUS
 90
8
 70
0
 10
-122.683820979
 20
-63.0030936054
 10
-122.6818957829
 20
-63.0095388265
 10
-122.6797129883
 20
-63.0160343924
 10
-122.6772328499
 20
-63.0226444625
 10
-122.6744475965
 20
-63.0293308559
 10
-122.6713460661
 20
-63.0360697313
 10
-122.6679125173
 20
-63.0428480177
 10
-122.6641367656
 20
-63.0496412245
  0
LWPOLYLINE
  5
2DF
100
AcDbEntity
  8
IMPORT_IGES
100
AcDbPolyline
 62
7
  6
CONTINUOUS
 90
4
 70
0
 10
-122.6770889178
 20
63.0041747228
 10
-122.68119508
 20
62.9869610677
 10
-122.6837662897
 20
62.9694139455
 10
-122.6847720093
 20
62.9517844407
  0
LWPOLYLINE
  5
2E0
100
AcDbEntity
  8
IMPORT_IGES
100
AcDbPolyline
 62
7
  6
CONTINUOUS
 90
14
 70
0
 10
-122.6773407601
 20
63.003351526
 10
-122.6793457809
 20
62.9956459174
 10
-122.6808055502
 20
62.9890536164
 10
-122.6818756545
 20
62.9833929395
 10
-122.6826525509
 20
62.9785958106
 10
-122.6831883116
 20
62.974768863
 10
-122.6835548215
 20
62.9717878827
 10
-122.6838332063
 20
62.9692418266
 10
-122.6840460747
 20
62.9670682077
 10
-122.6842009663
 20
62.9653211869
 10
-122.6843265516
 20
62.9637718412
 10
-122.6844304859
 20
62.9623759803
 10
-122.6845132241
 20
62.9611739866
 10
-122.6845841394
 20
62.9600663523
  0
LINE
  5
2E1
100
AcDbEntity
  8
IMPORT_IGES
100
AcDbLine
 62
7
  6
CONTINUOUS
 10
-122.6854792846
 20
-62.996788472
 11
-122.6841434765
 21
-63.0018674199
  0
LWPOLYLINE
  5
2E2
100
AcDbEntity
  8
IMPORT_IGES
100
AcDbPolyline
 62
7
  6
CONTINUOUS
 90
4
 70
0
 10
-122.6840950303
 20
-63.0020794373
 10
-122.6879625333
 20
-62.9851538972
 10
-122.6903277654
 20
-62.9681646583
 10
-122.691225739
 20
-62.9513074632
  0
LWPOLYLINE
  5
2E3
100
AcDbEntity
  8
0
100
AcDbPolyline
 62
7
  6
CONTINUOUS
 90
3
 70
0
 43
0.3500000006
 10
-108.5858937378
 20
80.105838501
 10
-108.6573158569
 20
79.8915540161
 10
-108.8001782227
 20
79.6058383484
  0
LWPOLYLINE
  5
2E4
100
AcDbEntity
  8
IMPORT_IGES
100
AcDbPolyline
 62
250
  6
CONTINUOUS
 90
3
 70
0
 10
-122.4947283942
 20
-63.1490762652
 10
-122.4948397592
 20
-63.1476609248
 10
-122.4949628107
 20
-63.1434193352
  0
LWPOLYLINE
  5
2E5
100
AcDbEntity
  8
IMPORT_IGES
100
AcDbPolyline
 62
7
  6
CONTINUOUS
 90
11
 70
0
 10
-122.6909810374
 20
-62.9599851253
 10
-122.6909026542
 20
-62.9612718655
 10
-122.6908037399
 20
-62.9627429144
 10
-122.6906773657
 20
-62.9644349603
 10
-122.6904982189
 20
-62.9665703818
 10
-122.6902493754
 20
-62.9691760512
 10
-122.6899140583
 20
-62.9722361313
 10
-122.6894486176
 20
-62.9759144476
 10
-122.6887962872
 20
-62.9803460672
 10
-122.6879265213
 20
-62.9854111828
 10
-122.6868344858
 20
-62.9908890891
  0
LINE
  5
2E6
100
AcDbEntity
  8
IMPORT_IGES
100
AcDbLine
 62
7
  6
CONTINUOUS
 10
-122.6851369478
 20
62.9461142903
 11
-122.6847738143
 21
62.9517841981
  0
LWPOLYLINE
  5
2E7
100
AcDbEntity
  8
IMPORT_IGES
100
AcDbPolyline
 62
7
  6
CONTINUOUS
 90
28
 70
0
 10
-122.9324768464
 20
58.8252569615
 10
-123.5007315377
 20
54.4941876103
 10
-124.0362234803
 20
50.1240012466
 10
-124.5215926857
 20
45.7939298146
 10
-124.9572375386
 20
41.521068801
 10
-125.3462445778
 20
37.2896574002
 10
-125.6937774351
 20
33.0508945025
 10
-126.0008669176
 20
28.7875365428
 10
-126.2658290939
 20
24.5176112958
 10
-126.4883667273
 20
20.2450230583
 10
-126.6684138129
 20
15.9712349453
 10
-126.8060033209
 20
11.6956251983
 10
-126.9011094929
 20
7.4189546004
 10
-126.9537262459
 20
3.1417160701
 10
-126.9638513817
 20
-1.1358196003
 10
-126.9314835513
 20
-5.4132240244
 10
-126.8566287659
 20
-9.690067203
 10
-126.7392934209
 20
-13.9659430426
 10
-126.5794853684
 20
-18.2404379095
 10
-126.377223853
 20
-22.5132138797
 10
-126.1325375651
 20
-26.7837765199
 10
-125.8454448731
 20
-31.0514605623
 10
-125.5159948696
 20
-35.3156003389
 10
-125.1442512751
 20
-39.5761861559
 10
-124.7301788148
 20
-43.8334333972
 10
-124.2736967821
 20
-48.0870400077
 10
-123.7748801333
 20
-52.3363585753
 10
-123.2435705439
 20
-56.5076662657
  0
LINE
  5
2E8
100
AcDbEntity
  8
IMPORT_IGES
100
AcDbLine
 62
7
  6
CONTINUOUS
 10
-123.2435705439
 20
-56.5076662656
 11
-122.9368992879
 21
-58.8252569615
  0
LINE
  5
2E9
100
AcDbEntity
  8
IMPORT_IGES
100
AcDbLine
 62
7
  6
CONTINUOUS
 10
-122.6911325677
 20
-62.9570573066
 11
-122.6910903259
 21
-62.9579464294
  0
LINE
  5
2EA
100
AcDbEntity
  8
IMPORT_IGES
100
AcDbLine
 62
7
  6
CONTINUOUS
 10
-122.6912257397
 20
-62.9513073997
 11
-122.6914626989
 21
-62.9458841725
  0
LINE
  5
2EB
100
AcDbEntity
  8
IMPORT_IGES
100
AcDbLine
 62
7
  6
CONTINUOUS
 10
-122.6911982526
 20
-62.9555250108
 11
-122.6911675113
 21
-62.9562673662
  0
LINE
  5
2EC
100
AcDbEntity
  8
IMPORT_IGES
100
AcDbLine
 62
7
  6
CONTINUOUS
 10
-122.6912497612
 20
-62.9541637293
 11
-122.6912256304
 21
-62.95482128
  0
LINE
  5
2ED
100
AcDbEntity
  8
IMPORT_IGES
100
AcDbLine
 62
7
  6
CONTINUOUS
 10
-122.6913628178
 20
-62.9505106286
 11
-122.6912924515
 21
-62.9529035684
  0
LINE
  5
2EE
100
AcDbEntity
  8
IMPORT_IGES
100
AcDbLine
 62
7
  6
CONTINUOUS
 10
-122.6914235385
 20
-62.9480819275
 11
-122.6913628178
 21
-62.9505106286
  0
LINE
  5
2EF
100
AcDbEntity
  8
IMPORT_IGES
100
AcDbLine
 62
7
  6
CONTINUOUS
 10
-122.6914521771
 20
-62.9468107364
 11
-122.6917500867
 21
-62.9299759876
  0
LINE
  5
2F0
100
AcDbEntity
  8
IMPORT_IGES
100
AcDbLine
 62
7
  6
CONTINUOUS
 10
-122.7294244394
 20
-60.2999767798
 11
-122.7209682523
 21
-60.7319279951
  0
LINE
  5
2F1
100
AcDbEntity
  8
IMPORT_IGES
100
AcDbLine
 62
250
  6
CONTINUOUS
 10
-122.4949628107
 20
-63.1434193352
 11
-122.4952439881
 21
-63.1264662602
  0
LINE
  5
2F2
100
AcDbEntity
  8
IMPORT_IGES
100
AcDbLine
 62
7
  6
CONTINUOUS
 10
-122.7209682523
 20
-60.7319279951
 11
-122.7068356251
 21
-61.6428031866
  0
LINE
  5
2F3
100
AcDbEntity
  8
IMPORT_IGES
100
AcDbLine
 62
7
  6
CONTINUOUS
 10
-122.7068356251
 20
-61.6428031866
 11
-122.6945935552
 21
-62.6501355611
  0
LINE
  5
2F4
100
AcDbEntity
  8
IMPORT_IGES
100
AcDbLine
 62
7
  6
CONTINUOUS
 10
-122.7312683191
 20
-35.012726337
 11
-122.7277477092
 21
-35.3062704809
  0
LINE
  5
2F5
100
AcDbEntity
  8
IMPORT_IGES
100
AcDbLine
 62
7
  6
CONTINUOUS
 10
-122.7346889916
 20
58.6337588794
 11
-122.7354774675
 21
58.7167213142
  0
LINE
  5
2F6
100
AcDbEntity
  8
IMPORT_IGES
100
AcDbLine
 62
250
  6
CONTINUOUS
 10
-122.4952439881
 20
-63.1264662602
 11
-122.4963671755
 21
-63.0083258376
  0
LWPOLYLINE
  5
2F7
100
AcDbEntity
  8
IMPORT_IGES
100
AcDbPolyline
 62
250
  6
CONTINUOUS
 90
22
 70
0
 10
-122.6403897199
 20
48.2025428728
 10
-122.5893866448
 20
41.9577701659
 10
-122.5657175832
 20
38.6630619327
 10
-122.5442678875
 20
35.2526531396
 10
-122.5247486324
 20
31.7247402929
 10
-122.5067108392
 20
28.0661131551
 10
-122.489877446
 20
24.2803037009
 10
-122.474501961
 20
20.3637901043
 10
-122.4609437055
 20
16.2927829212
 10
-122.449689923
 20
12.0469246301
 10
-122.441422283
 20
7.6465722321
 10
-122.4368427742
 20
3.1290078688
 10
-122.4366184951
 20
-1.5578563352
 10
-122.4412682326
 20
-6.3619339653
 10
-122.4503465237
 20
-11.0896817156
 10
-122.4631945054
 20
-15.7100594265
 10
-122.4793422538
 20
-20.2541088446
 10
-122.4978515892
 20
-24.6214093168
 10
-122.5178800514
 20
-28.7677013739
 10
-122.5392391454
 20
-32.7372427904
 10
-122.5622675527
 20
-36.562383759
 10
-122.5871774256
 20
-40.2461560274
  0
LINE
  5
2F8
100
AcDbEntity
  8
IMPORT_IGES
100
AcDbLine
 62
250
  6
CONTINUOUS
 10
-122.4028964472
 20
43.2018500819
 11
-122.3700665557
 21
38.6836697958
  0
LINE
  5
2F9
100
AcDbEntity
  8
IMPORT_IGES
100
AcDbLine
 62
250
  6
CONTINUOUS
 10
-122.4963671755
 20
-63.0083258376
 11
-122.4985056792
 21
-62.6978035098
  0
LINE
  5
2FA
100
AcDbEntity
  8
IMPORT_IGES
100
AcDbLine
 62
250
  6
CONTINUOUS
 10
-122.3700665557
 20
38.6836697958
 11
-122.3418837784
 21
34.1732940991
  0
LINE
  5
2FB
100
AcDbEntity
  8
IMPORT_IGES
100
AcDbLine
 62
7
  6
CONTINUOUS
 10
-122.6966104864
 20
-62.2543733649
 11
-122.691604861
 21
-62.9386686513
  0
LINE
  5
2FC
100
AcDbEntity
  8
IMPORT_IGES
100
AcDbLine
 62
250
  6
CONTINUOUS
 10
-122.4985056792
 20
-62.6978035098
 11
-122.4998338645
 21
-62.4790795648
  0
LWPOLYLINE
  5
2FD
100
AcDbEntity
  8
IMPORT_IGES
100
AcDbPolyline
 62
250
  6
CONTINUOUS
 90
3
 70
0
 10
-122.678441565
 20
54.0143526595
 10
-122.6623024382
 20
51.1631752692
 10
-122.6403897199
 20
48.2025428728
  0
LINE
  5
2FE
100
AcDbEntity
  8
IMPORT_IGES
100
AcDbLine
 62
250
  6
CONTINUOUS
 10
-122.3418837784
 20
34.1732940991
 11
-122.3182628035
 21
29.6472275019
  0
LWPOLYLINE
  5
2FF
100
AcDbEntity
  8
IMPORT_IGES
100
AcDbPolyline
 62
250
  6
CONTINUOUS
 90
4
 70
0
 10
-122.4819629204
 20
54.4973159375
 10
-122.4709860478
 20
52.2381934113
 10
-122.4575909642
 20
49.9790855627
 10
-122.4407112729
 20
47.7199989284
  0
LINE
  5
300
100
AcDbEntity
  8
IMPORT_IGES
100
AcDbLine
 62
250
  6
CONTINUOUS
 10
-122.3182628035
 20
29.6472275019
 11
-122.2970613875
 21
24.9958314844
  0
LINE
  5
301
100
AcDbEntity
  8
IMPORT_IGES
100
AcDbLine
 62
7
  6
CONTINUOUS
 10
-122.7165384038
 20
60.195939186
 11
-122.7155961742
 21
60.0357760869
  0
LINE
  5
302
100
AcDbEntity
  8
IMPORT_IGES
100
AcDbLine
 62
250
  6
CONTINUOUS
 10
-122.7197223871
 20
-58.2974067088
 11
-122.7021101383
 21
-60.8832932598
  0
LWPOLYLINE
  5
303
100
AcDbEntity
  8
IMPORT_IGES
100
AcDbPolyline
 62
7
  6
CONTINUOUS
 90
11
 70
0
 10
-122.7797394819
 20
-46.7877945007
 10
-122.8154349448
 20
-37.1788973969
 10
-122.843736029
 20
-27.7314673672
 10
-122.8649684529
 20
-18.50649629
 10
-122.878806498
 20
-9.4429922868
 10
-122.8842730096
 20
-0.3579797226
 10
-122.8810606513
 20
8.748543413
 10
-122.8694767595
 20
17.8765751097
 10
-122.8494661877
 20
27.2090849711
 10
-122.821010554
 20
36.8070628653
 10
-122.7841282404
 20
46.6095189243
  0
LINE
  5
304
100
AcDbEntity
  8
IMPORT_IGES
100
AcDbLine
 62
250
  6
CONTINUOUS
 10
-122.2970613875
 20
24.9958314844
 11
-122.2787664754
 21
20.3287607577
  0
LINE
  5
305
100
AcDbEntity
  8
IMPORT_IGES
100
AcDbLine
 62
7
  6
CONTINUOUS
 10
-122.6955307243
 20
-62.4292478581
 11
-122.7011326972
 21
-61.213523844
  0
LINE
  5
306
100
AcDbEntity
  8
IMPORT_IGES
100
AcDbLine
 62
7
  6
CONTINUOUS
 10
-122.7277477092
 20
-35.3062704809
 11
-122.7262599212
 21
-35.5995021914
  0
LINE
  5
307
100
AcDbEntity
  8
IMPORT_IGES
100
AcDbLine
 62
250
  6
CONTINUOUS
 10
-122.2787664754
 20
20.3287607577
 11
-122.2635751583
 21
15.6695140651
  0
LINE
  5
308
100
AcDbEntity
  8
IMPORT_IGES
100
AcDbLine
 62
250
  6
CONTINUOUS
 10
-122.4998338645
 20
-62.4790795648
 11
-122.5047594676
 21
-61.3186579779
  0
LINE
  5
309
100
AcDbEntity
  8
IMPORT_IGES
100
AcDbLine
 62
7
  6
CONTINUOUS
 10
-122.7337190569
 20
58.4030000116
 11
-122.7346889916
 21
58.6337588794
  0
LINE
  5
30A
100
AcDbEntity
  8
IMPORT_IGES
100
AcDbLine
 62
250
  6
CONTINUOUS
 10
-122.2635751583
 20
15.6695140651
 11
-122.2519596776
 21
11.0102606147
  0
LINE
  5
30B
100
AcDbEntity
  8
IMPORT_IGES
100
AcDbLine
 62
250
  6
CONTINUOUS
 10
-122.678441565
 20
54.0143526595
 11
-122.6874363602
 21
57.0042596943
  0
LINE
  5
30C
100
AcDbEntity
  8
IMPORT_IGES
100
AcDbLine
 62
250
  6
CONTINUOUS
 10
-122.4819629204
 20
54.4973159375
 11
-122.490953788
 21
57.0252426037
  0
LINE
  5
30D
100
AcDbEntity
  8
IMPORT_IGES
100
AcDbLine
 62
7
  6
CONTINUOUS
 10
-122.7326980931
 20
-57.7217807848
 11
-122.7797394819
 21
-46.7877945007
  0
LINE
  5
30E
100
AcDbEntity
  8
IMPORT_IGES
100
AcDbLine
 62
250
  6
CONTINUOUS
 10
-122.2519596776
 20
11.0102606147
 11
-122.2443339337
 21
6.3588351827
  0
LINE
  5
30F
100
AcDbEntity
  8
IMPORT_IGES
100
AcDbLine
 62
7
  6
CONTINUOUS
 10
-122.7011326972
 20
-61.213523844
 11
-122.7038474209
 21
-59.9118755273
  0
LINE
  5
310
100
AcDbEntity
  8
IMPORT_IGES
100
AcDbLine
 62
7
  6
CONTINUOUS
 10
-122.7281604345
 20
-52.1567114161
 11
-122.7180076346
 21
-59.5172199602
  0
LINE
  5
311
100
AcDbEntity
  8
IMPORT_IGES
100
AcDbLine
 62
250
  6
CONTINUOUS
 10
-122.5047594676
 20
-61.3186579779
 11
-122.5064541247
 21
-60.2924173075
  0
LINE
  5
312
100
AcDbEntity
  8
IMPORT_IGES
100
AcDbLine
 62
250
  6
CONTINUOUS
 10
-122.2443339337
 20
6.3588351827
 11
-122.240961979
 21
1.6917407348
  0
LINE
  5
313
100
AcDbEntity
  8
IMPORT_IGES
100
AcDbLine
 62
250
  6
CONTINUOUS
 10
-122.7277767545
 20
53.1227857776
 11
-122.7267494277
 21
52.1976858358
  0
LINE
  5
314
100
AcDbEntity
  8
IMPORT_IGES
100
AcDbLine
 62
7
  6
CONTINUOUS
 10
-122.7284970211
 20
49.9555873782
 11
-122.7263916958
 21
36.0449843762
  0
LINE
  5
315
100
AcDbEntity
  8
IMPORT_IGES
100
AcDbLine
 62
7
  6
CONTINUOUS
 10
-122.7263916958
 20
36.0449843762
 11
-122.7247207507
 21
-19.1883244211
  0
LINE
  5
316
100
AcDbEntity
  8
IMPORT_IGES
100
AcDbLine
 62
250
  6
CONTINUOUS
 10
-122.7281604345
 20
-52.1567114161
 11
-122.7285157974
 21
-52.1588102065
  0
LINE
  5
317
100
AcDbEntity
  8
IMPORT_IGES
100
AcDbLine
 62
250
  6
CONTINUOUS
 10
-122.6874363602
 20
57.0042596943
 11
-122.6930715294
 21
60.9926970571
  0
LINE
  5
318
100
AcDbEntity
  8
IMPORT_IGES
100
AcDbLine
 62
7
  6
CONTINUOUS
 10
-122.7247207507
 20
-19.1883244211
 11
-122.7267628899
 21
-27.0440885472
  0
LINE
  5
319
100
AcDbEntity
  8
IMPORT_IGES
100
AcDbLine
 62
250
  6
CONTINUOUS
 10
-122.7291049599
 20
-47.6137688744
 11
-122.7278244921
 21
-48.0791188719
  0
LWPOLYLINE
  5
31A
100
AcDbEntity
  8
IMPORT_IGES
100
AcDbPolyline
 62
7
  6
CONTINUOUS
 90
4
 70
0
 10
-122.7269033439
 20
-42.9876265977
 10
-122.7278742558
 20
-45.3110972553
 10
-122.7291049599
 20
-47.6137688744
 10
-122.7281604345
 20
-52.1567114161
  0
LINE
  5
31B
100
AcDbEntity
  8
IMPORT_IGES
100
AcDbLine
 62
250
  6
CONTINUOUS
 10
-122.5064541247
 20
-60.2924173075
 11
-122.5065446522
 21
-59.3505323961
  0
LINE
  5
31C
100
AcDbEntity
  8
IMPORT_IGES
100
AcDbLine
 62
250
  6
CONTINUOUS
 10
-122.240961979
 20
1.6917407348
 11
-122.2422965458
 21
-3.1006801
  0
LINE
  5
31D
100
AcDbEntity
  8
IMPORT_IGES
100
AcDbLine
 62
7
  6
CONTINUOUS
 10
-122.7267628899
 20
-27.0440885472
 11
-122.7312683191
 21
-35.012726337
  0
LINE
  5
31E
100
AcDbEntity
  8
IMPORT_IGES
100
AcDbLine
 62
7
  6
CONTINUOUS
 10
-122.7155961742
 20
60.0357760869
 11
-122.7151828722
 21
58.7534679504
  0
LINE
  5
31F
100
AcDbEntity
  8
IMPORT_IGES
100
AcDbLine
 62
250
  6
CONTINUOUS
 10
-122.5065446522
 20
-59.3505323961
 11
-122.5061697582
 21
-58.8504566205
  0
LINE
  5
320
100
AcDbEntity
  8
IMPORT_IGES
100
AcDbLine
 62
7
  6
CONTINUOUS
 10
-122.7239152783
 20
54.4179744257
 11
-122.7284970211
 21
49.9555873782
  0
LINE
  5
321
100
AcDbEntity
  8
IMPORT_IGES
100
AcDbLine
 62
250
  6
CONTINUOUS
 10
-122.5061697582
 20
-58.8504566205
 11
-122.5057131484
 21
-58.4654265063
  0
LINE
  5
322
100
AcDbEntity
  8
IMPORT_IGES
100
AcDbLine
 62
7
  6
CONTINUOUS
 10
-122.7038474209
 20
-59.9118755273
 11
-122.703269876
 21
-58.6303386438
  0
LINE
  5
323
100
AcDbEntity
  8
IMPORT_IGES
100
AcDbLine
 62
250
  6
CONTINUOUS
 10
-122.490953788
 20
57.0252426037
 11
-122.4960704784
 21
61.6836186272
  0
LINE
  5
324
100
AcDbEntity
  8
IMPORT_IGES
100
AcDbLine
 62
250
  6
CONTINUOUS
 10
-122.2422965458
 20
-3.1006801
 11
-122.2483285788
 21
-7.9087642303
  0
LINE
  5
325
100
AcDbEntity
  8
IMPORT_IGES
100
AcDbLine
 62
250
  6
CONTINUOUS
 10
-122.5057131484
 20
-58.4654265063
 11
-122.5051140829
 21
-58.0740236476
  0
LINE
  5
326
100
AcDbEntity
  8
IMPORT_IGES
100
AcDbLine
 62
250
  6
CONTINUOUS
 10
-122.5051140829
 20
-58.0740236476
 11
-122.5046408637
 21
-57.8107783523
  0
LINE
  5
327
100
AcDbEntity
  8
IMPORT_IGES
100
AcDbLine
 62
7
  6
CONTINUOUS
 10
-122.7341561547
 20
57.6202947776
 11
-122.7337190569
 21
58.4030000116
  0
LINE
  5
328
100
AcDbEntity
  8
IMPORT_IGES
100
AcDbLine
 62
250
  6
CONTINUOUS
 10
-122.5046408637
 20
-57.8107783523
 11
-122.5038287633
 21
-57.4143791395
  0
LINE
  5
329
100
AcDbEntity
  8
IMPORT_IGES
100
AcDbLine
 62
7
  6
CONTINUOUS
 10
-122.7180076346
 20
-59.5172199602
 11
-122.7181565932
 21
-60.1018649836
  0
LINE
  5
32A
100
AcDbEntity
  8
IMPORT_IGES
100
AcDbLine
 62
250
  6
CONTINUOUS
 10
-122.2483285788
 20
-7.9087642303
 11
-122.2589237227
 21
-12.7090105659
  0
LINE
  5
32B
100
AcDbEntity
  8
IMPORT_IGES
100
AcDbLine
 62
7
  6
CONTINUOUS
 10
-122.732987047
 20
-58.4684276631
 11
-122.7326980931
 21
-57.7217807848
  0
LINE
  5
32C
100
AcDbEntity
  8
IMPORT_IGES
100
AcDbLine
 62
250
  6
CONTINUOUS
 10
-122.5038287633
 20
-57.4143791395
 11
-122.5025800967
 21
-56.8873713503
  0
LINE
  5
32D
100
AcDbEntity
  8
IMPORT_IGES
100
AcDbLine
 62
7
  6
CONTINUOUS
 10
-122.7151828722
 20
58.7534679504
 11
-122.7181654814
 21
57.1412990157
  0
LINE
  5
32E
100
AcDbEntity
  8
IMPORT_IGES
100
AcDbLine
 62
250
  6
CONTINUOUS
 10
-122.7239152783
 20
54.4179744257
 11
-122.7277767545
 21
53.1227857776
  0
LINE
  5
32F
100
AcDbEntity
  8
IMPORT_IGES
100
AcDbLine
 62
250
  6
CONTINUOUS
 10
-122.703269876
 20
-58.6303386438
 11
-122.6987417357
 21
-56.7559113994
  0
LINE
  5
330
100
AcDbEntity
  8
IMPORT_IGES
100
AcDbLine
 62
250
  6
CONTINUOUS
 10
-122.6930715294
 20
60.9926970571
 11
-122.6912776515
 21
62.0767520649
  0
LINE
  5
331
100
AcDbEntity
  8
IMPORT_IGES
100
AcDbLine
 62
250
  6
CONTINUOUS
 10
-122.2589237227
 20
-12.7090105659
 11
-122.2736059314
 21
-17.5092473904
  0
LINE
  5
332
100
AcDbEntity
  8
IMPORT_IGES
100
AcDbLine
 62
7
  6
CONTINUOUS
 10
-122.7262599212
 20
-35.5995021914
 11
-122.7269033439
 21
-42.9876265977
  0
LINE
  5
333
100
AcDbEntity
  8
IMPORT_IGES
100
AcDbLine
 62
7
  6
CONTINUOUS
 10
-122.7181654814
 20
57.1412990157
 11
-122.7239152783
 21
54.4179744257
  0
LINE
  5
334
100
AcDbEntity
  8
IMPORT_IGES
100
AcDbLine
 62
250
  6
CONTINUOUS
 10
-122.2736059314
 20
-17.5092473904
 11
-122.2919028921
 21
-22.3016381218
  0
LINE
  5
335
100
AcDbEntity
  8
IMPORT_IGES
100
AcDbLine
 62
250
  6
CONTINUOUS
 10
-122.2919028921
 20
-22.3016381218
 11
-122.3137310766
 21
-27.1096763413
  0
LINE
  5
336
100
AcDbEntity
  8
IMPORT_IGES
100
AcDbLine
 62
250
  6
CONTINUOUS
 10
-122.4960704784
 20
61.6836186272
 11
-122.4927539451
 21
62.7030570816
  0
LINE
  5
337
100
AcDbEntity
  8
IMPORT_IGES
100
AcDbLine
 62
250
  6
CONTINUOUS
 10
-122.3137310766
 20
-27.1096763413
 11
-122.3392428976
 21
-32.0430079208
  0
LINE
  5
338
100
AcDbEntity
  8
IMPORT_IGES
100
AcDbLine
 62
250
  6
CONTINUOUS
 10
-122.6920741846
 20
61.794969379
 11
-122.7181654814
 21
57.1412990157
  0
LINE
  5
339
100
AcDbEntity
  8
IMPORT_IGES
100
AcDbLine
 62
250
  6
CONTINUOUS
 10
-122.6912776515
 20
62.0767520649
 11
-122.6892096156
 21
62.5373980058
  0
LWPOLYLINE
  5
33A
100
AcDbEntity
  8
IMPORT_IGES
100
AcDbPolyline
 62
7
  6
CONTINUOUS
 90
4
 70
0
 10
-122.7181565932
 20
-60.1018649836
 10
-122.7186234359
 20
-60.1989446535
 10
-122.7189412542
 20
-60.2353810521
 10
-122.7193272816
 20
-60.2636928601
  0
LWPOLYLINE
  5
33B
100
AcDbEntity
  8
IMPORT_IGES
100
AcDbPolyline
 62
250
  6
CONTINUOUS
 90
3
 70
0
 10
-122.6665837782
 20
-50.5087115113
 10
-122.6863516631
 20
-53.6927430488
 10
-122.6987417353
 20
-56.7559113994
  0
LINE
  5
33C
100
AcDbEntity
  8
IMPORT_IGES
100
AcDbLine
 62
250
  6
CONTINUOUS
 10
-122.3392428976
 20
-32.0430079208
 11
-122.3690963644
 21
-36.9919778356
  0
LINE
  5
33D
100
AcDbEntity
  8
IMPORT_IGES
100
AcDbLine
 62
7
  6
CONTINUOUS
 10
-122.7841282404
 20
46.6095189243
 11
-122.7341561547
 21
57.6202947776
  0
LINE
  5
33E
100
AcDbEntity
  8
IMPORT_IGES
100
AcDbLine
 62
250
  6
CONTINUOUS
 10
-122.3690963644
 20
-36.9919778356
 11
-122.4033127875
 21
-41.9330901238
  0
LINE
  5
33F
100
AcDbEntity
  8
IMPORT_IGES
100
AcDbLine
 62
250
  6
CONTINUOUS
 10
-122.5871774256
 20
-40.2461560274
 11
-122.6665837782
 21
-50.5087115113
  0
LWPOLYLINE
  5
340
100
AcDbEntity
  8
IMPORT_IGES
100
AcDbPolyline
 62
7
  6
CONTINUOUS
 90
3
 70
0
 10
-122.7343964626
 20
-58.7167232688
 10
-122.734030204
 20
-58.6780561144
 10
-122.732987047
 20
-58.4684276631
  0
LINE
  5
341
100
AcDbEntity
  8
IMPORT_IGES
100
AcDbLine
 62
250
  6
CONTINUOUS
 10
-122.4927539451
 20
62.7030570816
 11
-122.4902511403
 21
63.0381672555
  0
LWPOLYLINE
  5
342
100
AcDbEntity
  8
IMPORT_IGES
100
AcDbPolyline
 62
250
  6
CONTINUOUS
 90
10
 70
0
 10
-122.7395372355
 20
58.8252431463
 10
-122.8865147654
 20
45.401766664
 10
-123.0021968277
 20
32.2881377413
 10
-123.0834973675
 20
19.4836783613
 10
-123.1246166232
 20
7.2012032613
 10
-123.1264878533
 20
-4.7709812524
 10
-123.088876264
 20
-17.0694871567
 10
-123.0098862484
 20
-29.9062977973
 10
-122.8956729132
 20
-43.0685585043
 10
-122.7399169384
 20
-58.6307274635
  0
LINE
  5
343
100
AcDbEntity
  8
IMPORT_IGES
100
AcDbLine
 62
250
  6
CONTINUOUS
 10
-122.4902511403
 20
63.0381672555
 11
-122.48949479
 21
63.1001601419
  0
LINE
  5
344
100
AcDbEntity
  8
IMPORT_IGES
100
AcDbLine
 62
7
  6
CONTINUOUS
 10
-122.6858738096
 20
62.9091172035
 11
-122.6968848587
 21
62.027524519
  0
LINE
  5
345
100
AcDbEntity
  8
IMPORT_IGES
100
AcDbLine
 62
7
  6
CONTINUOUS
 10
-122.6968848587
 20
62.027524519
 11
-122.71058823
 21
61.1745637828
  0
LWPOLYLINE
  5
346
100
AcDbEntity
  8
IMPORT_IGES
100
AcDbPolyline
 62
250
  6
CONTINUOUS
 90
6
 70
0
 10
-122.48949479
 20
63.1001601419
 10
-122.4890381932
 20
63.1275200608
 10
-122.4888279738
 20
63.1370373586
 10
-122.4886319116
 20
63.1438033121
 10
-122.4884489543
 20
63.1478453787
 10
-122.4882791019
 20
63.149188838
  0
LINE
  5
347
100
AcDbEntity
  8
IMPORT_IGES
100
AcDbLine
 62
7
  6
CONTINUOUS
 10
-122.6853891658
 20
62.9367858591
 11
-122.6860220006
 21
62.9034039676
  0
LINE
  5
348
100
AcDbEntity
  8
IMPORT_IGES
100
AcDbLine
 62
7
  6
CONTINUOUS
 10
-122.71058823
 20
61.1745637828
 11
-122.7247137072
 21
60.4598539809
  0
LINE
  5
349
100
AcDbEntity
  8
IMPORT_IGES
100
AcDbLine
 62
7
  6
CONTINUOUS
 10
-122.7247137072
 20
60.4598539809
 11
-122.7284513143
 21
60.2999767798
  0
LINE
  5
34A
100
AcDbEntity
  8
IMPORT_IGES
100
AcDbLine
 62
7
  6
CONTINUOUS
 10
-122.6851042036
 20
62.9480610889
 11
-122.6855562712
 21
62.9299876516
  0
LWPOLYLINE
  5
34B
100
AcDbEntity
  8
IMPORT_IGES
100
AcDbPolyline
 62
7
  6
CONTINUOUS
 90
3
 70
0
 10
-122.6849816071
 20
62.9517408977
 10
-122.6850077551
 20
62.9510110494
 10
-122.6851042036
 20
62.9480610889
  0
LINE
  5
34C
100
AcDbEntity
  8
IMPORT_IGES
100
AcDbLine
 62
7
  6
CONTINUOUS
 10
-122.6848946416
 20
62.9539725427
 11
-122.6849251934
 21
62.9532213388
  0
LINE
  5
34D
100
AcDbEntity
  8
IMPORT_IGES
100
AcDbLine
 62
7
  6
CONTINUOUS
 10
-122.6847882267
 20
62.9563441269
 11
-122.6848264378
 21
62.9555333231
  0
LWPOLYLINE
  5
34E
100
AcDbEntity
  8
IMPORT_IGES
100
AcDbPolyline
 62
7
  6
CONTINUOUS
 90
3
 70
0
 10
-122.7174542707
 20
60.2623905949
 10
-122.7169609551
 20
60.2332624087
 10
-122.7165384038
 20
60.195939186
  0
LWPOLYLINE
  5
34F
100
AcDbEntity
  8
IMPORT_IGES
100
AcDbPolyline
 62
7
  6
CONTINUOUS
 90
7
 70
0
 10
-122.7354774675
 20
58.7167213142
 10
-122.7359575464
 20
58.7496479401
 10
-122.7364951804
 20
58.7767343295
 10
-122.737099449
 20
58.7979002806
 10
-122.7377733787
 20
58.8130764246
 10
-122.7385139429
 20
58.8222077149
 10
-122.7393211417
 20
58.8252569615
  0
LINE
  5
350
100
AcDbEntity
  8
IMPORT_IGES
100
AcDbLine
 62
250
  6
CONTINUOUS
 10
-122.4407112729
 20
47.7199989284
 11
-122.4028964472
 21
43.2018500819
  0
LWPOLYLINE
  5
351
100
AcDbEntity
  8
IMPORT_IGES
100
AcDbPolyline
 62
250
  6
CONTINUOUS
 90
6
 70
0
 10
-122.4033127875
 20
-41.9330901238
 10
-122.443238464
 20
-46.8741744526
 10
-122.4616987742
 20
-49.3447246734
 10
-122.4771954763
 20
-51.815290394
 10
-122.4907095316
 20
-54.2858665499
 10
-122.5025800967
 20
-56.8873713503
  0
LWPOLYLINE
  5
352
100
AcDbEntity
  8
IMPORT_IGES
100
AcDbPolyline
 62
7
  6
CONTINUOUS
 90
4
 70
0
 10
-122.7193272816
 20
-60.2636928601
 10
-122.7197854623
 20
-60.2838782274
 10
-122.720311852
 20
-60.2959605325
 10
-122.7209064507
 20
-60.2999767798
  0
LWPOLYLINE
  5
353
100
AcDbEntity
  8
0
100
AcDbPolyline
 62
7
  6
CONTINUOUS
 90
2
 70
0
 43
0.3500000006
 10
-110.6573164673
 20
79.820131897
 10
-110.6573164673
 20
81.320123291
  0
LWPOLYLINE
  5
354
100
AcDbEntity
  8
IMPORT_IGES
100
AcDbPolyline
 62
7
  6
CONTINUOUS
 90
7
 70
0
 10
-122.7376707313
 20
-58.8252569615
 10
-122.7369858807
 20
-58.8222077666
 10
-122.7363566858
 20
-58.8130766339
 10
-122.7357831465
 20
-58.7979007568
 10
-122.7352682272
 20
-58.7767351877
 10
-122.7348089636
 20
-58.7496492957
 10
-122.7343964626
 20
-58.7167232688
  0
LWPOLYLINE
  5
355
100
AcDbEntity
  8
IMPORT_IGES
100
AcDbPolyline
 62
7
  6
CONTINUOUS
 90
4
 70
0
 10
-122.7193749532
 20
60.2999767798
 10
-122.7186639614
 20
60.295792145
 10
-122.7180237339
 20
60.2832518683
 10
-122.7174542707
 20
60.2623905949
  0
LWPOLYLINE
  5
356
100
AcDbEntity
  8
IMPORT_IGES
100
AcDbPolyline
 62
7
  6
CONTINUOUS
 90
10
 70
0
 10
-108.5756503541
 20
55.4108835849
 10
-108.5733991706
 20
55.3417362196
 10
-108.5669720565
 20
55.2734520958
 10
-108.5563690118
 20
55.2060312135
 10
-108.5415121161
 20
55.1392202321
 10
-108.5224792899
 20
55.0732724923
 10
-108.4995042947
 20
55.0089480158
 10
-108.4726650512
 20
54.9465001433
 10
-108.4418836387
 20
54.8856755342
 10
-108.4071600572
 20
54.8264741885
  0
LINE
  5
357
100
AcDbEntity
  8
IMPORT_IGES
100
AcDbLine
 62
7
  6
CONTINUOUS
 10
-108.5756503541
 20
63.3920346761
 11
-108.5756503541
 21
-63.3920346761
  0
LINE
  5
358
100
AcDbEntity
  8
IMPORT_IGES
100
AcDbLine
 62
250
  6
CONTINUOUS
 10
-107.6454068279
 20
-53.9777870326
 11
-107.6454068279
 21
54.6579596642
  0
LINE
  5
359
100
AcDbEntity
  8
IMPORT_IGES
100
AcDbLine
 62
250
  6
CONTINUOUS
 10
-93.3427296547
 20
53.6578190472
 11
-93.3427296547
 21
-52.9776464156
  0
LINE
  5
35A
100
AcDbEntity
  8
IMPORT_IGES
100
AcDbLine
 62
7
  6
CONTINUOUS
 10
-93.0636565968
 20
-52.6783772005
 11
-93.0636565968
 21
53.3585498321
  0
LINE
  5
35B
100
AcDbEntity
  8
IMPORT_IGES
100
AcDbLine
 62
250
  6
CONTINUOUS
 10
-92.8157510501
 20
-47.1144192143
 11
-92.8157510501
 21
-35.2018440874
  0
LINE
  5
35C
100
AcDbEntity
  8
IMPORT_IGES
100
AcDbLine
 62
250
  6
CONTINUOUS
 10
-92.8157510501
 20
35.882016719
 11
-92.8157510501
 21
47.7945918459
  0
LINE
  5
35D
100
AcDbEntity
  8
IMPORT_IGES
100
AcDbLine
 62
7
  6
CONTINUOUS
 10
-92.0636565968
 20
47.6619773018
 11
-92.0636565968
 21
36.0146312632
  0
LINE
  5
35E
100
AcDbEntity
  8
IMPORT_IGES
100
AcDbLine
 62
7
  6
CONTINUOUS
 10
-92.0636565968
 20
-35.3344586316
 11
-92.0636565968
 21
-46.9818046702
  0
LINE
  5
35F
100
AcDbEntity
  8
IMPORT_IGES
100
AcDbLine
 62
7
  6
CONTINUOUS
 10
-92.0636565968
 20
36.0146312632
 11
-92.8157510501
 21
35.882016719
  0
LINE
  5
360
100
AcDbEntity
  8
IMPORT_IGES
100
AcDbLine
 62
250
  6
CONTINUOUS
 10
-92.0636565968
 20
39.8383042825
 11
-93.0636565968
 21
39.8383042825
  0
LWPOLYLINE
  5
361
100
AcDbEntity
  8
0
100
AcDbPolyline
 62
7
  6
CONTINUOUS
 90
10
 70
0
 43
0.3500000006
 10
-108.6573158569
 20
80.3201320496
 10
-108.5858937378
 20
80.1772696838
 10
-108.5858937378
 20
80.105838501
 10
-108.7287470398
 20
79.962985199
 10
-108.8001782227
 20
79.962985199
 10
-108.8716094055
 20
80.0344163818
 10
-108.8716094055
 20
80.105838501
 10
-108.8001782227
 20
80.2487008667
 10
-108.7287470398
 20
80.3201320496
 10
-108.6573158569
 20
80.3201320496
  0
LINE
  5
362
100
AcDbEntity
  8
IMPORT_IGES
100
AcDbLine
 62
250
  6
CONTINUOUS
 10
-93.0636565968
 20
43.8383042825
 11
-92.0636565968
 21
43.8383042825
  0
LINE
  5
363
100
AcDbEntity
  8
IMPORT_IGES
100
AcDbLine
 62
250
  6
CONTINUOUS
 10
-108.5756503541
 20
50.1383043579
 11
-93.0636565968
 21
50.1383043579
  0
LINE
  5
364
100
AcDbEntity
  8
IMPORT_IGES
100
AcDbLine
 62
7
  6
CONTINUOUS
 10
-92.0636565968
 20
47.6619773018
 11
-92.8157510501
 21
47.7945918459
  0
LINE
  5
365
100
AcDbEntity
  8
IMPORT_IGES
100
AcDbLine
 62
250
  6
CONTINUOUS
 10
-122.738819247
 20
56.6164531481
 11
-122.7199945728
 21
56.6164531481
  0
LINE
  5
366
100
AcDbEntity
  8
IMPORT_IGES
100
AcDbLine
 62
250
  6
CONTINUOUS
 10
-122.6870159045
 20
56.7561321704
 11
-108.5756503541
 21
56.7564531412
  0
LINE
  5
367
100
AcDbEntity
  8
IMPORT_IGES
100
AcDbLine
 62
7
  6
CONTINUOUS
 10
-93.3427296547
 20
53.6578190472
 11
-107.6454068279
 21
54.6579596642
  0
LWPOLYLINE
  5
368
100
AcDbEntity
  8
IMPORT_IGES
100
AcDbPolyline
 62
7
  6
CONTINUOUS
 90
7
 70
0
 10
-122.4948312075
 20
63.1489670111
 10
-122.5084683102
 20
63.1478125819
 10
-122.5218421804
 20
63.1457570533
 10
-122.5348382237
 20
63.1428559309
 10
-122.5474984627
 20
63.1391341592
 10
-122.5597455304
 20
63.1346424051
 10
-122.5714928009
 20
63.1294490348
  0
LWPOLYLINE
  5
369
100
AcDbEntity
  8
IMPORT_IGES
100
AcDbPolyline
 62
7
  6
CONTINUOUS
 90
16
 70
0
 10
-122.4882791016
 20
63.149188838
 10
-122.5053647157
 20
63.1481580429
 10
-122.5222860402
 20
63.1456727073
 10
-122.5388350904
 20
63.1417783158
 10
-122.5546651223
 20
63.1366153165
 10
-122.5697595295
 20
63.1302715949
 10
-122.5844107422
 20
63.1226419558
 10
-122.5985347584
 20
63.1137239991
 10
-122.6118910396
 20
63.1036374009
 10
-122.6244962031
 20
63.0923338025
 10
-122.6362065373
 20
63.0798813773
 10
-122.646852917
 20
63.0664162385
 10
-122.6563780653
 20
63.0519666401
 10
-122.6646292117
 20
63.0367253598
 10
-122.6715306901
 20
63.0208247748
 10
-122.6770831721
 20
63.0041988096
  0
LINE
  5
36A
100
AcDbEntity
  8
IMPORT_IGES
100
AcDbLine
 62
7
  6
CONTINUOUS
 10
-122.4882791016
 20
63.149188838
 11
-122.4948312075
 21
63.1489670111
  0
LINE
  5
36B
100
AcDbEntity
  8
IMPORT_IGES
100
AcDbLine
 62
7
  6
CONTINUOUS
 10
-108.5756503541
 20
63.3920346761
 11
-122.4882791019
 21
63.149188838
  0
LINE
  5
36C
100
AcDbEntity
  8
IMPORT_IGES
100
AcDbLine
 62
7
  6
CONTINUOUS
 10
-122.7151217485
 20
58.8252569615
 11
-122.9324759258
 21
58.8252569615
  0
LWPOLYLINE
  5
36D
100
AcDbEntity
  8
0
100
AcDbPolyline
 62
7
  6
CONTINUOUS
 90
6
 70
0
 43
0.3500000006
 10
-113.8001797485
 20
79.820131897
 10
-112.7287482605
 20
79.820131897
 10
-112.5144637756
 20
80.0344163818
 10
-112.5144637756
 20
81.1058388062
 10
-112.9430327454
 20
81.5344168396
 10
-113.3716017151
 20
81.5344168396
  0
LWPOLYLINE
  5
36E
100
AcDbEntity
  8
0
100
AcDbPolyline
 62
7
  6
CONTINUOUS
 90
3
 70
0
 43
0.3500000006
 10
-110.1573163147
 20
80.4629853516
 10
-111.6573167725
 20
80.4629853516
 10
-111.0144633179
 20
82.8201237488
  0
ARC
  5
36F
100
AcDbEntity
  8
IMPORT_IGES
100
AcDbCircle
 62
7
  6
CONTINUOUS
 10
-56.7564531412
 20
56.7564531412
 40
6.6355815349
100
AcDbArc
 50
90.0
 51
180.0
  0
ARC
  5
370
100
AcDbEntity
  8
IMPORT_IGES
100
AcDbCircle
 62
7
  6
CONTINUOUS
 10
-56.7564531412
 20
-56.7564531412
 40
6.6355815349
100
AcDbArc
 50
180.0
 51
270.0
  0
ARC
  5
371
100
AcDbEntity
  8
IMPORT_IGES
100
AcDbCircle
 62
7
  6
CONTINUOUS
 10
56.7564531412
 20
-56.7564531412
 40
6.6355815349
100
AcDbArc
 50
270.0
 51
360.0
  0
ARC
  5
372
100
AcDbEntity
  8
IMPORT_IGES
100
AcDbCircle
 62
7
  6
CONTINUOUS
 10
56.7564531412
 20
56.7564531412
 40
6.6355815349
100
AcDbArc
 50
0.0
 51
90.0
  0
ARC
  5
373
100
AcDbEntity
  8
IMPORT_IGES
100
AcDbCircle
 62
7
  6
CONTINUOUS
 10
-56.6164531342
 20
56.6164531342
 40
3.6835236456
100
AcDbArc
 50
90.0
 51
180.0
  0
ARC
  5
374
100
AcDbEntity
  8
IMPORT_IGES
100
AcDbCircle
 62
7
  6
CONTINUOUS
 10
56.6164531481
 20
56.6164531481
 40
3.6835236316
100
AcDbArc
 50
0.0
 51
90.0
  0
ARC
  5
375
100
AcDbEntity
  8
IMPORT_IGES
100
AcDbCircle
 62
7
  6
CONTINUOUS
 10
-56.6164531481
 20
-56.6164531481
 40
3.6835236316
100
AcDbArc
 50
180.0
 51
270.0
  0
ARC
  5
376
100
AcDbEntity
  8
IMPORT_IGES
100
AcDbCircle
 62
7
  6
CONTINUOUS
 10
56.6164531481
 20
-56.6164531481
 40
3.6835236316
100
AcDbArc
 50
270.0
 51
360.0
  0
ARC
  5
377
100
AcDbEntity
  8
IMPORT_IGES
100
AcDbCircle
 62
7
  6
CONTINUOUS
 10
-56.6164531342
 20
56.6164531342
 40
2.2088038273
100
AcDbArc
 50
90.0
 51
180.0
  0
ARC
  5
378
100
AcDbEntity
  8
IMPORT_IGES
100
AcDbCircle
 62
7
  6
CONTINUOUS
 10
-56.6164531481
 20
-56.6164531481
 40
2.2088038133
100
AcDbArc
 50
180.0
 51
270.0
  0
ARC
  5
379
100
AcDbEntity
  8
IMPORT_IGES
100
AcDbCircle
 62
7
  6
CONTINUOUS
 10
56.6164531481
 20
56.6164531481
 40
2.2088038133
100
AcDbArc
 50
0.0
 51
90.0
  0
ARC
  5
37A
100
AcDbEntity
  8
IMPORT_IGES
100
AcDbCircle
 62
7
  6
CONTINUOUS
 10
56.6164531481
 20
-56.6164531481
 40
2.2088038133
100
AcDbArc
 50
270.0
 51
360.0
  0
ARC
  5
37B
100
AcDbEntity
  8
IMPORT_IGES
100
AcDbCircle
 62
7
  6
CONTINUOUS
 10
-107.5756503541
 20
-54.9753510828
 40
1.0
100
AcDbArc
 50
94.0
 51
180.0
  0
ARC
  5
37C
100
AcDbEntity
  8
IMPORT_IGES
100
AcDbCircle
 62
7
  6
CONTINUOUS
 10
-107.5756503541
 20
55.6555237144
 40
1.0
100
AcDbArc
 50
180.0
 51
266.0
  0
ARC
  5
37D
100
AcDbEntity
  8
IMPORT_IGES
100
AcDbCircle
 62
7
  6
CONTINUOUS
 10
-92.7636565968
 20
-47.4098615402
 40
0.3
100
AcDbArc
 50
100.0
 51
180.0
  0
ARC
  5
37E
100
AcDbEntity
  8
IMPORT_IGES
100
AcDbCircle
 62
7
  6
CONTINUOUS
 10
-92.7636565968
 20
-34.9064017615
 40
0.3
100
AcDbArc
 50
180.0
 51
260.0
  0
ARC
  5
37F
100
AcDbEntity
  8
IMPORT_IGES
100
AcDbCircle
 62
7
  6
CONTINUOUS
 10
-92.7636565968
 20
48.0900341718
 40
0.3
100
AcDbArc
 50
180.0
 51
260.0
  0
ARC
  5
380
100
AcDbEntity
  8
IMPORT_IGES
100
AcDbCircle
 62
7
  6
CONTINUOUS
 10
-92.7636565968
 20
35.5865743931
 40
0.3
100
AcDbArc
 50
100.0
 51
180.0
  0
ARC
  5
381
100
AcDbEntity
  8
IMPORT_IGES
100
AcDbCircle
 62
7
  6
CONTINUOUS
 10
-92.7636565968
 20
-45.409861548
 40
0.3
100
AcDbArc
 50
100.0
 51
180.0
  0
ARC
  5
382
100
AcDbEntity
  8
IMPORT_IGES
100
AcDbCircle
 62
7
  6
CONTINUOUS
 10
-92.7636565968
 20
-36.9064017693
 40
0.3
100
AcDbArc
 50
180.0
 51
260.0
  0
ARC
  5
383
100
AcDbEntity
  8
IMPORT_IGES
100
AcDbCircle
 62
7
  6
CONTINUOUS
 10
-93.3636565968
 20
53.3585498321
 40
0.3
100
AcDbArc
 50
0.0
 51
86.0
  0
ARC
  5
384
100
AcDbEntity
  8
IMPORT_IGES
100
AcDbCircle
 62
7
  6
CONTINUOUS
 10
-93.3636565968
 20
-52.6783772005
 40
0.3
100
AcDbArc
 50
274.0
 51
360.0
  0
ENDSEC
  0
SECTION
  2
OBJECTS
  0
DICTIONARY
  5
C
100
AcDbDictionary
280
0
281
1
  3
ACAD_GROUP
350
D
  3
ACAD_MLINESTYLE
350
17
  3
ACAD_LAYOUT
350
1A
  3
ACAD_PLOTSETTINGS
350
19
  3
ACAD_PLOTSTYLENAME
350
E
  0
DICTIONARY
  5
D
102
{ACAD_REACTORS
330
C
102
}
100
AcDbDictionary
280
0
281
1
  0
ACDBDICTIONARYWDFLT
  5
E
102
{ACAD_REACTORS
330
C
102
}
100
AcDbDictionary
281
1
  3
Normal
350
F
100
AcDbDictionaryWithDefault
340
F
  0
DICTIONARY
  5
17
102
{ACAD_REACTORS
330
C
102
}
100
AcDbDictionary
280
0
281
1
  3
Standard
350
18
  0
DICTIONARY
  5
19
102
{ACAD_REACTORS
330
C
102
}
100
AcDbDictionary
281
1
  0
DICTIONARY
  5
1A
102
{ACAD_REACTORS
330
C
102
}
100
AcDbDictionary
281
1
  3
Model
350
385
  3
Layout1
350
386
  0
ACDBPLACEHOLDER
  5
F
102
{ACAD_REACTORS
330
E
102
}
  0
MLINESTYLE
  5
18
102
{ACAD_REACTORS
330
17
102
}
100
AcDbMlineStyle
  2
STANDARD
 70
0
  3

 62
256
 51
90.0
 52
90.0
 71
2
 49
0.5
 62
256
  6
BYLAYER
 49
-0.5
 62
256
  6
BYLAYER
  0
LAYOUT
  5
385
102
{ACAD_REACTORS
330
1A
102
}
100
AcDbPlotSettings
  1

  2
none_device
  4
ISO_A4_(297.00_x_210.00_MM)
  6

 40
0.0
 41
0.0
 42
0.0
 43
0.0
 44
297.0
 45
210.0
 46
0.0
 47
0.0
 48
0.0
 49
0.0
140
0.0
141
0.0
142
1.0
143
1.0
 70
1024
 72
1
 73
0
 74
0
  7

 75
0
147
1.0
148
0.0
149
0.0
100
AcDbLayout
  1
Model
 70
0
 71
0
 10
0.0
 20
0.0
 11
297.0
 21
210.0
 12
0.0
 22
0.0
 32
0.0
 14
0.0
 24
0.0
 34
0.0
 15
0.0
 25
0.0
 35
0.0
146
0.0
 13
0.0
 23
0.0
 33
0.0
 16
1.0
 26
0.0
 36
0.0
 17
0.0
 27
1.0
 37
0.0
 76
0
330
20E
345
0
346
0
  0
LAYOUT
  5
386
102
{ACAD_REACTORS
330
1A
102
}
100
AcDbPlotSettings
  1

  2
none_device
  4
ISO_A4_(297.00_x_210.00_MM)
  6

 40
0.0
 41
0.0
 42
0.0
 43
0.0
 44
297.0
 45
210.0
 46
0.0
 47
0.0
 48
0.0
 49
0.0
140
0.0
141
0.0
142
1.0
143
1.0
 70
0
 72
1
 73
0
 74
0
  7

 75
0
147
1.0
148
0.0
149
0.0
100
AcDbLayout
  1
Layout1
 70
0
 71
1
 10
0.0
 20
0.0
 11
297.0
 21
210.0
 12
0.0
 22
0.0
 32
0.0
 14
0.0
 24
0.0
 34
0.0
 15
0.0
 25
0.0
 35
0.0
146
0.0
 13
0.0
 23
0.0
 33
0.0
 16
1.0
 26
0.0
 36
0.0
 17
0.0
 27
1.0
 37
0.0
 76
0
330
20F
345
0
346
0
  0
ENDSEC
  0
EOF
