  0
SECTION
  2
HEADER
  9
$ACADVER
  1
AC1024
  9
$DWGCODEPAGE
  3
ANSI_1252
  9
$EXTMAX
 10
297.0
 20
210.0
 30
0.0
  9
$EXTMIN
 10
0.0
 20
0.0
 30
0.0
  9
$LIMMIN
 10
0.0
 20
0.0
  9
$LIMMAX
 10
297.0
 20
210.0
  9
$VIEWCTR
 10
148.5
 20
105.0
  9
$VIEWSIZE
 40
210.0
  9
$CLAYER
  8
0
  9
$LTSCALE
 40
16.335
  9
$CELTYPE
  6
BYLAYER
  9
$DIMSCALE
 40
1.0
  9
$DIMASZ
 40
3.0
  9
$DIMEXO
 40
0.5
  9
$DIMDLI
 40
11.286
  9
$DIMEXE
 40
1.5
  9
$DIMCEN
 40
2.673
  9
$DIMLFAC
 40
1.0
  9
$DIMBLK
  1
_FILLED
  9
$DIMALT
 70
0
  9
$DIMALTF
 40
0.0393700787
  9
$DIMTXT
 40
3.0
  9
$DIMTOL
 70
1
  9
$DIMLIM
 70
0
  9
$DIMTFAC
 40
1.0
  9
$DIMTP
 40
0.01
  9
$DIMTM
 40
0.01
  9
$DIMGAP
 40
0.625
  9
$DIMDSEP
 70
44
  9
$AUNITS
 70
0
  9
$PDMODE
 70
3
  9
$PDSIZE
 40
3.0
  9
$HANDSEED
  5
7FA
  9
$TILEMODE
 70
1
  9
$MEASUREMENT
 70
1
  9
$INSUNITS
 70
4
  0
ENDSEC
  0
SECTION
  2
CLASSES
  0
CLASS
  1
ACDBDICTIONARYWDFLT
  2
AcDbDictionaryWithDefault
  3
AutoCAD 2000
 90
0
 91
1
280
0
281
0
  0
CLASS
  1
ACDBPLACEHOLDER
  2
AcDbPlaceHolder
  3
AutoCAD 2000
 90
0
 91
1
280
0
281
0
  0
CLASS
  1
LAYOUT
  2
AcDbLayout
  3
AutoCAD 2000
 90
0
 91
0
280
0
281
0
  0
ENDSEC
  0
SECTION
  2
TABLES
  0
TABLE
  2
VPORT
  5
8
100
AcDbSymbolTable
 70
2
  0
VPORT
  5
1F4
100
AcDbSymbolTableRecord
100
AcDbViewportTableRecord
  2
*ACTIVE
 70
0
 10
0.0
 20
0.0
 11
1.0
 21
1.0
 12
148.5
 22
105.0
 13
0.0
 23
0.0
 14
1.0
 24
1.0
 15
0.0
 25
0.0
 16
0.0
 26
0.0
 36
1.0
 17
0.0
 27
0.0
 37
0.0
 40
210.0
 41
1.4142857143
 42
50.0
 43
0.0
 44
0.0
 50
0.0
 51
0.0
 71
0
 72
100
 73
1
 74
1
 75
0
 76
0
 77
0
 78
0
  0
ENDTAB
  0
TABLE
  2
LTYPE
  5
5
100
AcDbSymbolTable
 70
6
  0
LTYPE
  5
14
100
AcDbSymbolTableRecord
100
AcDbLinetypeTableRecord
  2
BYBLOCK
 70
0
  3

 72
65
 73
0
 40
0.0
  0
LTYPE
  5
15
100
AcDbSymbolTableRecord
100
AcDbLinetypeTableRecord
  2
BYLAYER
 70
0
  3

 72
65
 73
0
 40
0.0
  0
LTYPE
  5
16
100
AcDbSymbolTableRecord
100
AcDbLinetypeTableRecord
  2
CONTINUOUS
 70
64
  3
Solid line
 72
65
 73
0
 40
0.0
  0
LTYPE
  5
1F5
100
AcDbSymbolTableRecord
100
AcDbLinetypeTableRecord
  2
CENTER
 70
64
  3
____ _ ____ _ ____ _ ____ _ ____ _ ____ _ ____
 72
65
 73
4
 40
0.6
 49
0.375
 74
0
 49
-0.075
 74
0
 49
0.075
 74
0
 49
-0.075
 74
0
  0
LTYPE
  5
1F6
100
AcDbSymbolTableRecord
100
AcDbLinetypeTableRecord
  2
HIDDEN
 70
64
  3
- - - - - - - - - - - - - - - - - - - -
 72
65
 73
2
 40
0.2
 49
0.1
 74
0
 49
-0.1
 74
0
  0
LTYPE
  5
1F7
100
AcDbSymbolTableRecord
100
AcDbLinetypeTableRecord
  2
PHANTOM
 70
64
  3
_____ _ _ _____ _ _ _____ _ _ _____
 72
65
 73
6
 40
0.8
 49
0.45
 74
0
 49
-0.05
 74
0
 49
0.1
 74
0
 49
-0.05
 74
0
 49
0.1
 74
0
 49
-0.05
 74
0
  0
LTYPE
  5
1F8
100
AcDbSymbolTableRecord
100
AcDbLinetypeTableRecord
  2
DOT
 70
64
  3
. . . . . . . . . . . . . . . . . . . .
 72
65
 73
2
 40
0.2
 49
0.1
 74
0
 49
-0.1
 74
0
  0
LTYPE
  5
1F9
100
AcDbSymbolTableRecord
100
AcDbLinetypeTableRecord
  2
DASHED
 70
64
  3
- - - - - - - - - - - - - - - - - - - -
 72
65
 73
2
 40
0.2
 49
0.1
 74
0
 49
-0.1
 74
0
  0
ENDTAB
  0
TABLE
  2
LAYER
  5
2
100
AcDbSymbolTable
 70
36
  0
LAYER
  5
10
100
AcDbSymbolTableRecord
100
AcDbLayerTableRecord
  2
0
 70
0
 62
7
  6
CONTINUOUS
370
-3
390
F
  0
LAYER
  5
1FA
100
AcDbSymbolTableRecord
100
AcDbLayerTableRecord
  2
DEFAULT_1
 70
0
 62
7
  6
CENTER
370
-3
390
F
  0
LAYER
  5
1FB
100
AcDbSymbolTableRecord
100
AcDbLayerTableRecord
  2
DEFAULT_2
 70
0
 62
7
  6
HIDDEN
370
-3
390
F
  0
LAYER
  5
1FC
100
AcDbSymbolTableRecord
100
AcDbLayerTableRecord
  2
DEFAULT_3
 70
0
 62
7
  6
PHANTOM
370
-3
390
F
  0
LAYER
  5
1FD
100
AcDbSymbolTableRecord
100
AcDbLayerTableRecord
  2
ASSI
 70
0
 62
7
  6
CONTINUOUS
370
-3
390
F
  0
LAYER
  5
1FE
100
AcDbSymbolTableRecord
100
AcDbLayerTableRecord
  2
COLOR28
 70
0
 62
7
  6
CONTINUOUS
370
-3
390
F
  0
LAYER
  5
1FF
100
AcDbSymbolTableRecord
100
AcDbLayerTableRecord
  2
COLOR43
 70
0
 62
7
  6
CONTINUOUS
370
-3
390
F
  0
LAYER
  5
200
100
AcDbSymbolTableRecord
100
AcDbLayerTableRecord
  2
COLOR63
 70
0
 62
7
  6
CONTINUOUS
370
-3
390
F
  0
LAYER
  5
201
100
AcDbSymbolTableRecord
100
AcDbLayerTableRecord
  2
COLOR64
 70
0
 62
7
  6
CONTINUOUS
370
-3
390
F
  0
LAYER
  5
202
100
AcDbSymbolTableRecord
100
AcDbLayerTableRecord
  2
COLOR65
 70
0
 62
7
  6
CONTINUOUS
370
-3
390
F
  0
LAYER
  5
203
100
AcDbSymbolTableRecord
100
AcDbLayerTableRecord
  2
COLOR66
 70
0
 62
7
  6
CONTINUOUS
370
-3
390
F
  0
LAYER
  5
204
100
AcDbSymbolTableRecord
100
AcDbLayerTableRecord
  2
COORDINATE
 70
0
 62
7
  6
CONTINUOUS
370
-3
390
F
  0
LAYER
  5
205
100
AcDbSymbolTableRecord
100
AcDbLayerTableRecord
  2
COPY_PUBLISH
 70
0
 62
7
  6
CONTINUOUS
370
-3
390
F
  0
LAYER
  5
206
100
AcDbSymbolTableRecord
100
AcDbLayerTableRecord
  2
COSMETICI
 70
0
 62
7
  6
CONTINUOUS
370
-3
390
F
  0
LAYER
  5
207
100
AcDbSymbolTableRecord
100
AcDbLayerTableRecord
  2
CURVE
 70
0
 62
7
  6
CONTINUOUS
370
-3
390
F
  0
LAYER
  5
208
100
AcDbSymbolTableRecord
100
AcDbLayerTableRecord
  2
D2F-01L_1_ASM_1
 70
0
 62
7
  6
CONTINUOUS
370
-3
390
F
  0
LAYER
  5
209
100
AcDbSymbolTableRecord
100
AcDbLayerTableRecord
  2
D2F-01L_1_ASM_1_1
 70
0
 62
7
  6
CONTINUOUS
370
-3
390
F
  0
LAYER
  5
20A
100
AcDbSymbolTableRecord
100
AcDbLayerTableRecord
  2
D2F-01L_ASM_1
 70
0
 62
7
  6
CONTINUOUS
370
-3
390
F
  0
LAYER
  5
20B
100
AcDbSymbolTableRecord
100
AcDbLayerTableRecord
  2
D2F-01L_ASM_1_1
 70
0
 62
7
  6
CONTINUOUS
370
-3
390
F
  0
LAYER
  5
20C
100
AcDbSymbolTableRecord
100
AcDbLayerTableRecord
  2
DEFAULT-10447_1_1_1_1_1
 70
0
 62
7
  6
CONTINUOUS
370
-3
390
F
  0
LAYER
  5
20D
100
AcDbSymbolTableRecord
100
AcDbLayerTableRecord
  2
DEFAULT-10451_1_ASM_1_1_ASM_1_1
 70
0
 62
7
  6
CONTINUOUS
370
-3
390
F
  0
LAYER
  5
20E
100
AcDbSymbolTableRecord
100
AcDbLayerTableRecord
  2
DRAFT
 70
0
 62
7
  6
CONTINUOUS
370
-3
390
F
  0
LAYER
  5
20F
100
AcDbSymbolTableRecord
100
AcDbLayerTableRecord
  2
IMPORT_IGES
 70
0
 62
7
  6
CONTINUOUS
370
-3
390
F
  0
LAYER
  5
210
100
AcDbSymbolTableRecord
100
AcDbLayerTableRecord
  2
IN319-R1_0_3831_5_1_1_1
 70
0
 62
7
  6
CONTINUOUS
370
-3
390
F
  0
LAYER
  5
211
100
AcDbSymbolTableRecord
100
AcDbLayerTableRecord
  2
IN319_BASE_32
 70
0
 62
7
  6
CONTINUOUS
370
-3
390
F
  0
LAYER
  5
212
100
AcDbSymbolTableRecord
100
AcDbLayerTableRecord
  2
IN319_PCB_6
 70
0
 62
7
  6
CONTINUOUS
370
-3
390
F
  0
LAYER
  5
213
100
AcDbSymbolTableRecord
100
AcDbLayerTableRecord
  2
INTFCLR_188
 70
0
 62
7
  6
CONTINUOUS
370
-3
390
F
  0
LAYER
  5
214
100
AcDbSymbolTableRecord
100
AcDbLayerTableRecord
  2
INTFCLR_188_1
 70
0
 62
7
  6
CONTINUOUS
370
-3
390
F
  0
LAYER
  5
215
100
AcDbSymbolTableRecord
100
AcDbLayerTableRecord
  2
INTFCLR_188_1_1
 70
0
 62
7
  6
CONTINUOUS
370
-3
390
F
  0
LAYER
  5
216
100
AcDbSymbolTableRecord
100
AcDbLayerTableRecord
  2
INTFCLR_188_1_2
 70
0
 62
7
  6
CONTINUOUS
370
-3
390
F
  0
LAYER
  5
217
100
AcDbSymbolTableRecord
100
AcDbLayerTableRecord
  2
INTFCLR_188_2
 70
0
 62
7
  6
CONTINUOUS
370
-3
390
F
  0
LAYER
  5
218
100
AcDbSymbolTableRecord
100
AcDbLayerTableRecord
  2
INTFCLR_188_2_1
 70
0
 62
7
  6
CONTINUOUS
370
-3
390
F
  0
LAYER
  5
219
100
AcDbSymbolTableRecord
100
AcDbLayerTableRecord
  2
INTFCLR_188_3
 70
0
 62
7
  6
CONTINUOUS
370
-3
390
F
  0
LAYER
  5
21A
100
AcDbSymbolTableRecord
100
AcDbLayerTableRecord
  2
INTFCLR_188_3_1
 70
0
 62
7
  6
CONTINUOUS
370
-3
390
F
  0
LAYER
  5
21B
100
AcDbSymbolTableRecord
100
AcDbLayerTableRecord
  2
INTFCLR_188_4
 70
0
 62
7
  6
CONTINUOUS
370
-3
390
F
  0
LAYER
  5
21C
100
AcDbSymbolTableRecord
100
AcDbLayerTableRecord
  2
INTFCLR_188_4_1
 70
0
 62
7
  6
CONTINUOUS
370
-3
390
F
  0
LAYER
  5
21D
100
AcDbSymbolTableRecord
100
AcDbLayerTableRecord
  2
INTFCLR_188_5
 70
0
 62
7
  6
CONTINUOUS
370
-3
390
F
  0
LAYER
  5
21E
100
AcDbSymbolTableRecord
100
AcDbLayerTableRecord
  2
INTFCLR_188_5_1
 70
0
 62
7
  6
CONTINUOUS
370
-3
390
F
  0
LAYER
  5
21F
100
AcDbSymbolTableRecord
100
AcDbLayerTableRecord
  2
INTFCLR_188_6
 70
0
 62
7
  6
CONTINUOUS
370
-3
390
F
  0
LAYER
  5
220
100
AcDbSymbolTableRecord
100
AcDbLayerTableRecord
  2
INTFCLR_188_6_1
 70
0
 62
7
  6
CONTINUOUS
370
-3
390
F
  0
LAYER
  5
221
100
AcDbSymbolTableRecord
100
AcDbLayerTableRecord
  2
INTF_GREEN
 70
0
 62
7
  6
CONTINUOUS
370
-3
390
F
  0
LAYER
  5
222
100
AcDbSymbolTableRecord
100
AcDbLayerTableRecord
  2
INTF_YELLOW
 70
0
 62
7
  6
CONTINUOUS
370
-3
390
F
  0
LAYER
  5
223
100
AcDbSymbolTableRecord
100
AcDbLayerTableRecord
  2
KSC421J70SHLFS_1_ASM_1
 70
0
 62
7
  6
CONTINUOUS
370
-3
390
F
  0
LAYER
  5
224
100
AcDbSymbolTableRecord
100
AcDbLayerTableRecord
  2
KSC421J70SHLFS_1_ASM_1_1
 70
0
 62
7
  6
CONTINUOUS
370
-3
390
F
  0
LAYER
  5
225
100
AcDbSymbolTableRecord
100
AcDbLayerTableRecord
  2
KSC421J70SHLFS_1_ASM_1_2
 70
0
 62
7
  6
CONTINUOUS
370
-3
390
F
  0
LAYER
  5
226
100
AcDbSymbolTableRecord
100
AcDbLayerTableRecord
  2
KSC421J70SHLFS_ASM_1_1_ASM_1_1
 70
0
 62
7
  6
CONTINUOUS
370
-3
390
F
  0
LAYER
  5
227
100
AcDbSymbolTableRecord
100
AcDbLayerTableRecord
  2
LAYER_104
 70
0
 62
7
  6
CONTINUOUS
370
-3
390
F
  0
LAYER
  5
228
100
AcDbSymbolTableRecord
100
AcDbLayerTableRecord
  2
LAYER_104_1
 70
0
 62
7
  6
CONTINUOUS
370
-3
390
F
  0
LAYER
  5
229
100
AcDbSymbolTableRecord
100
AcDbLayerTableRecord
  2
LED_SIGN_2
 70
0
 62
7
  6
CONTINUOUS
370
-3
390
F
  0
LAYER
  5
22A
100
AcDbSymbolTableRecord
100
AcDbLayerTableRecord
  2
LED_SIGN_2_1
 70
0
 62
7
  6
CONTINUOUS
370
-3
390
F
  0
LAYER
  5
22B
100
AcDbSymbolTableRecord
100
AcDbLayerTableRecord
  2
LED_SIGN_2_2
 70
0
 62
7
  6
CONTINUOUS
370
-3
390
F
  0
LAYER
  5
22C
100
AcDbSymbolTableRecord
100
AcDbLayerTableRecord
  2
LED_SIGN_2_3
 70
0
 62
7
  6
CONTINUOUS
370
-3
390
F
  0
LAYER
  5
22D
100
AcDbSymbolTableRecord
100
AcDbLayerTableRecord
  2
LED_SIGN_2_4
 70
0
 62
7
  6
CONTINUOUS
370
-3
390
F
  0
LAYER
  5
22E
100
AcDbSymbolTableRecord
100
AcDbLayerTableRecord
  2
LED_SIGN_2_5
 70
0
 62
7
  6
CONTINUOUS
370
-3
390
F
  0
LAYER
  5
22F
100
AcDbSymbolTableRecord
100
AcDbLayerTableRecord
  2
METALLIC_SHIELD-IN319_1_1_1_1
 70
0
 62
7
  6
CONTINUOUS
370
-3
390
F
  0
LAYER
  5
230
100
AcDbSymbolTableRecord
100
AcDbLayerTableRecord
  2
MP_COTBVSM02D0810G10_1_1_1_1
 70
0
 62
7
  6
CONTINUOUS
370
-3
390
F
  0
LAYER
  5
231
100
AcDbSymbolTableRecord
100
AcDbLayerTableRecord
  2
MP_COTBVSM02D0810G10_1_1_1_1_1
 70
0
 62
7
  6
CONTINUOUS
370
-3
390
F
  0
LAYER
  5
232
100
AcDbSymbolTableRecord
100
AcDbLayerTableRecord
  2
MP_SWPUSH06060500100_ASM_1_1__1
 70
0
 62
7
  6
CONTINUOUS
370
-3
390
F
  0
LAYER
  5
233
100
AcDbSymbolTableRecord
100
AcDbLayerTableRecord
  2
NONE
 70
0
 62
7
  6
CONTINUOUS
370
-3
390
F
  0
LAYER
  5
234
100
AcDbSymbolTableRecord
100
AcDbLayerTableRecord
  2
NONE-1712_1_1_1_1_1
 70
0
 62
7
  6
CONTINUOUS
370
-3
390
F
  0
LAYER
  5
235
100
AcDbSymbolTableRecord
100
AcDbLayerTableRecord
  2
NONE-1712_1_1_1_1_1_1
 70
0
 62
7
  6
CONTINUOUS
370
-3
390
F
  0
LAYER
  5
236
100
AcDbSymbolTableRecord
100
AcDbLayerTableRecord
  2
NONE-1793_1_1_1_1_1
 70
0
 62
7
  6
CONTINUOUS
370
-3
390
F
  0
LAYER
  5
237
100
AcDbSymbolTableRecord
100
AcDbLayerTableRecord
  2
NONE-1793_1_1_1_1_1_1
 70
0
 62
7
  6
CONTINUOUS
370
-3
390
F
  0
LAYER
  5
238
100
AcDbSymbolTableRecord
100
AcDbLayerTableRecord
  2
NONE-1858_1_1_1_1_1
 70
0
 62
7
  6
CONTINUOUS
370
-3
390
F
  0
LAYER
  5
239
100
AcDbSymbolTableRecord
100
AcDbLayerTableRecord
  2
NONE-1858_1_1_1_1_1_1
 70
0
 62
7
  6
CONTINUOUS
370
-3
390
F
  0
LAYER
  5
23A
100
AcDbSymbolTableRecord
100
AcDbLayerTableRecord
  2
NONE-2252_1_1_1_1_1
 70
0
 62
7
  6
CONTINUOUS
370
-3
390
F
  0
LAYER
  5
23B
100
AcDbSymbolTableRecord
100
AcDbLayerTableRecord
  2
NONE-2252_1_1_1_1_1_1
 70
0
 62
7
  6
CONTINUOUS
370
-3
390
F
  0
LAYER
  5
23C
100
AcDbSymbolTableRecord
100
AcDbLayerTableRecord
  2
NONE-2272_1_1_1_1_1
 70
0
 62
7
  6
CONTINUOUS
370
-3
390
F
  0
LAYER
  5
23D
100
AcDbSymbolTableRecord
100
AcDbLayerTableRecord
  2
NONE-2272_1_1_1_1_1_1
 70
0
 62
7
  6
CONTINUOUS
370
-3
390
F
  0
LAYER
  5
23E
100
AcDbSymbolTableRecord
100
AcDbLayerTableRecord
  2
NONE_1
 70
0
 62
7
  6
CONTINUOUS
370
-3
390
F
  0
LAYER
  5
23F
100
AcDbSymbolTableRecord
100
AcDbLayerTableRecord
  2
NONE_1_1
 70
0
 62
7
  6
CONTINUOUS
370
-3
390
F
  0
LAYER
  5
240
100
AcDbSymbolTableRecord
100
AcDbLayerTableRecord
  2
NONE_1_2
 70
0
 62
7
  6
CONTINUOUS
370
-3
390
F
  0
LAYER
  5
241
100
AcDbSymbolTableRecord
100
AcDbLayerTableRecord
  2
NONE_2
 70
0
 62
7
  6
CONTINUOUS
370
-3
390
F
  0
LAYER
  5
242
100
AcDbSymbolTableRecord
100
AcDbLayerTableRecord
  2
NONE_2_1
 70
0
 62
7
  6
CONTINUOUS
370
-3
390
F
  0
LAYER
  5
243
100
AcDbSymbolTableRecord
100
AcDbLayerTableRecord
  2
NONE_3
 70
0
 62
7
  6
CONTINUOUS
370
-3
390
F
  0
LAYER
  5
244
100
AcDbSymbolTableRecord
100
AcDbLayerTableRecord
  2
NONE_3_1
 70
0
 62
7
  6
CONTINUOUS
370
-3
390
F
  0
LAYER
  5
245
100
AcDbSymbolTableRecord
100
AcDbLayerTableRecord
  2
NONE_4
 70
0
 62
7
  6
CONTINUOUS
370
-3
390
F
  0
LAYER
  5
246
100
AcDbSymbolTableRecord
100
AcDbLayerTableRecord
  2
NONE_4_1
 70
0
 62
7
  6
CONTINUOUS
370
-3
390
F
  0
LAYER
  5
247
100
AcDbSymbolTableRecord
100
AcDbLayerTableRecord
  2
NONE_5
 70
0
 62
7
  6
CONTINUOUS
370
-3
390
F
  0
LAYER
  5
248
100
AcDbSymbolTableRecord
100
AcDbLayerTableRecord
  2
NONE_5_1
 70
0
 62
7
  6
CONTINUOUS
370
-3
390
F
  0
LAYER
  5
249
100
AcDbSymbolTableRecord
100
AcDbLayerTableRecord
  2
NONE_6
 70
0
 62
7
  6
CONTINUOUS
370
-3
390
F
  0
LAYER
  5
24A
100
AcDbSymbolTableRecord
100
AcDbLayerTableRecord
  2
NONE_6_1
 70
0
 62
7
  6
CONTINUOUS
370
-3
390
F
  0
LAYER
  5
24B
100
AcDbSymbolTableRecord
100
AcDbLayerTableRecord
  2
NOTE
 70
0
 62
7
  6
CONTINUOUS
370
-3
390
F
  0
LAYER
  5
24C
100
AcDbSymbolTableRecord
100
AcDbLayerTableRecord
  2
PIANI
 70
0
 62
7
  6
CONTINUOUS
370
-3
390
F
  0
LAYER
  5
24D
100
AcDbSymbolTableRecord
100
AcDbLayerTableRecord
  2
PUNTI
 70
0
 62
7
  6
CONTINUOUS
370
-3
390
F
  0
LAYER
  5
24E
100
AcDbSymbolTableRecord
100
AcDbLayerTableRecord
  2
RACCORDO
 70
0
 62
7
  6
CONTINUOUS
370
-3
390
F
  0
LAYER
  5
24F
100
AcDbSymbolTableRecord
100
AcDbLayerTableRecord
  2
SCREW_2_2X4_5_2
 70
0
 62
7
  6
CONTINUOUS
370
-3
390
F
  0
LAYER
  5
250
100
AcDbSymbolTableRecord
100
AcDbLayerTableRecord
  2
SCREW_2_2X4_5_2_1
 70
0
 62
7
  6
CONTINUOUS
370
-3
390
F
  0
LAYER
  5
251
100
AcDbSymbolTableRecord
100
AcDbLayerTableRecord
  2
SCREW_2_2X4_5_2_2
 70
0
 62
7
  6
CONTINUOUS
370
-3
390
F
  0
LAYER
  5
252
100
AcDbSymbolTableRecord
100
AcDbLayerTableRecord
  2
SIMBOLI
 70
0
 62
7
  6
CONTINUOUS
370
-3
390
F
  0
LAYER
  5
253
100
AcDbSymbolTableRecord
100
AcDbLayerTableRecord
  2
SMUSSO
 70
0
 62
7
  6
CONTINUOUS
370
-3
390
F
  0
LAYER
  5
254
100
AcDbSymbolTableRecord
100
AcDbLayerTableRecord
  2
SUPERFICI
 70
0
 62
7
  6
CONTINUOUS
370
-3
390
F
  0
LAYER
  5
255
100
AcDbSymbolTableRecord
100
AcDbLayerTableRecord
  2
SW3DPS-LED_SMD0805_1_ASM_1_1__1
 70
0
 62
7
  6
CONTINUOUS
370
-3
390
F
  0
LAYER
  5
256
100
AcDbSymbolTableRecord
100
AcDbLayerTableRecord
  2
SW3DPS-LED_SMD0805_1_ASM_1_1__2
 70
0
 62
7
  6
CONTINUOUS
370
-3
390
F
  0
LAYER
  5
257
100
AcDbSymbolTableRecord
100
AcDbLayerTableRecord
  2
TRASH
 70
0
 62
7
  6
CONTINUOUS
370
-3
390
F
  0
LAYER
  5
258
100
AcDbSymbolTableRecord
100
AcDbLayerTableRecord
  2
_111
 70
0
 62
7
  6
CONTINUOUS
370
-3
390
F
  0
LAYER
  5
259
100
AcDbSymbolTableRecord
100
AcDbLayerTableRecord
  2
_111_1
 70
0
 62
7
  6
CONTINUOUS
370
-3
390
F
  0
LAYER
  5
25A
100
AcDbSymbolTableRecord
100
AcDbLayerTableRecord
  2
_1323
 70
0
 62
7
  6
CONTINUOUS
370
-3
390
F
  0
LAYER
  5
25B
100
AcDbSymbolTableRecord
100
AcDbLayerTableRecord
  2
_1323_1
 70
0
 62
7
  6
CONTINUOUS
370
-3
390
F
  0
LAYER
  5
25C
100
AcDbSymbolTableRecord
100
AcDbLayerTableRecord
  2
_2262
 70
0
 62
7
  6
CONTINUOUS
370
-3
390
F
  0
LAYER
  5
25D
100
AcDbSymbolTableRecord
100
AcDbLayerTableRecord
  2
_2262_1
 70
0
 62
7
  6
CONTINUOUS
370
-3
390
F
  0
LAYER
  5
25E
100
AcDbSymbolTableRecord
100
AcDbLayerTableRecord
  2
_2635
 70
0
 62
7
  6
CONTINUOUS
370
-3
390
F
  0
LAYER
  5
25F
100
AcDbSymbolTableRecord
100
AcDbLayerTableRecord
  2
_2635_1
 70
0
 62
7
  6
CONTINUOUS
370
-3
390
F
  0
LAYER
  5
260
100
AcDbSymbolTableRecord
100
AcDbLayerTableRecord
  2
_2983_1
 70
0
 62
7
  6
CONTINUOUS
370
-3
390
F
  0
LAYER
  5
261
100
AcDbSymbolTableRecord
100
AcDbLayerTableRecord
  2
_2983_1_1
 70
0
 62
7
  6
CONTINUOUS
370
-3
390
F
  0
LAYER
  5
262
100
AcDbSymbolTableRecord
100
AcDbLayerTableRecord
  2
_950_1
 70
0
 62
7
  6
CONTINUOUS
370
-3
390
F
  0
LAYER
  5
263
100
AcDbSymbolTableRecord
100
AcDbLayerTableRecord
  2
_950_1_1
 70
0
 62
7
  6
CONTINUOUS
370
-3
390
F
  0
LAYER
  5
264
100
AcDbSymbolTableRecord
100
AcDbLayerTableRecord
  2
_KSC41J_PIN_1
 70
0
 62
7
  6
CONTINUOUS
370
-3
390
F
  0
LAYER
  5
265
100
AcDbSymbolTableRecord
100
AcDbLayerTableRecord
  2
_KSC41J_PIN_1_1
 70
0
 62
7
  6
CONTINUOUS
370
-3
390
F
  0
LAYER
  5
266
100
AcDbSymbolTableRecord
100
AcDbLayerTableRecord
  2
_KSC41J_PIN_1_10
 70
0
 62
7
  6
CONTINUOUS
370
-3
390
F
  0
LAYER
  5
267
100
AcDbSymbolTableRecord
100
AcDbLayerTableRecord
  2
_KSC41J_PIN_1_11
 70
0
 62
7
  6
CONTINUOUS
370
-3
390
F
  0
LAYER
  5
268
100
AcDbSymbolTableRecord
100
AcDbLayerTableRecord
  2
_KSC41J_PIN_1_1_1_1
 70
0
 62
7
  6
CONTINUOUS
370
-3
390
F
  0
LAYER
  5
269
100
AcDbSymbolTableRecord
100
AcDbLayerTableRecord
  2
_KSC41J_PIN_1_1_1_1_1
 70
0
 62
7
  6
CONTINUOUS
370
-3
390
F
  0
LAYER
  5
26A
100
AcDbSymbolTableRecord
100
AcDbLayerTableRecord
  2
_KSC41J_PIN_1_1_1_1_2
 70
0
 62
7
  6
CONTINUOUS
370
-3
390
F
  0
LAYER
  5
26B
100
AcDbSymbolTableRecord
100
AcDbLayerTableRecord
  2
_KSC41J_PIN_1_1_1_1_3
 70
0
 62
7
  6
CONTINUOUS
370
-3
390
F
  0
LAYER
  5
26C
100
AcDbSymbolTableRecord
100
AcDbLayerTableRecord
  2
_KSC41J_PIN_1_2
 70
0
 62
7
  6
CONTINUOUS
370
-3
390
F
  0
LAYER
  5
26D
100
AcDbSymbolTableRecord
100
AcDbLayerTableRecord
  2
_KSC41J_PIN_1_3
 70
0
 62
7
  6
CONTINUOUS
370
-3
390
F
  0
LAYER
  5
26E
100
AcDbSymbolTableRecord
100
AcDbLayerTableRecord
  2
_KSC41J_PIN_1_4
 70
0
 62
7
  6
CONTINUOUS
370
-3
390
F
  0
LAYER
  5
26F
100
AcDbSymbolTableRecord
100
AcDbLayerTableRecord
  2
_KSC41J_PIN_1_5
 70
0
 62
7
  6
CONTINUOUS
370
-3
390
F
  0
LAYER
  5
270
100
AcDbSymbolTableRecord
100
AcDbLayerTableRecord
  2
_KSC41J_PIN_1_6
 70
0
 62
7
  6
CONTINUOUS
370
-3
390
F
  0
LAYER
  5
271
100
AcDbSymbolTableRecord
100
AcDbLayerTableRecord
  2
_KSC41J_PIN_1_7
 70
0
 62
7
  6
CONTINUOUS
370
-3
390
F
  0
LAYER
  5
272
100
AcDbSymbolTableRecord
100
AcDbLayerTableRecord
  2
_KSC41J_PIN_1_8
 70
0
 62
7
  6
CONTINUOUS
370
-3
390
F
  0
LAYER
  5
273
100
AcDbSymbolTableRecord
100
AcDbLayerTableRecord
  2
_KSC41J_PIN_1_9
 70
0
 62
7
  6
CONTINUOUS
370
-3
390
F
  0
LAYER
  5
274
100
AcDbSymbolTableRecord
100
AcDbLayerTableRecord
  2
_KSC4_-_BODY_1
 70
0
 62
7
  6
CONTINUOUS
370
-3
390
F
  0
LAYER
  5
275
100
AcDbSymbolTableRecord
100
AcDbLayerTableRecord
  2
_KSC4_-_BODY_1_1
 70
0
 62
7
  6
CONTINUOUS
370
-3
390
F
  0
LAYER
  5
276
100
AcDbSymbolTableRecord
100
AcDbLayerTableRecord
  2
_KSC4_-_BODY_1_1_1_1
 70
0
 62
7
  6
CONTINUOUS
370
-3
390
F
  0
LAYER
  5
277
100
AcDbSymbolTableRecord
100
AcDbLayerTableRecord
  2
_KSC4_-_BODY_1_2
 70
0
 62
7
  6
CONTINUOUS
370
-3
390
F
  0
LAYER
  5
278
100
AcDbSymbolTableRecord
100
AcDbLayerTableRecord
  2
_KSC4_-_COVER_1
 70
0
 62
7
  6
CONTINUOUS
370
-3
390
F
  0
LAYER
  5
279
100
AcDbSymbolTableRecord
100
AcDbLayerTableRecord
  2
_KSC4_-_COVER_1_1
 70
0
 62
7
  6
CONTINUOUS
370
-3
390
F
  0
LAYER
  5
27A
100
AcDbSymbolTableRecord
100
AcDbLayerTableRecord
  2
_KSC4_-_COVER_1_1_1_1
 70
0
 62
7
  6
CONTINUOUS
370
-3
390
F
  0
LAYER
  5
27B
100
AcDbSymbolTableRecord
100
AcDbLayerTableRecord
  2
_KSC4_-_COVER_1_2
 70
0
 62
7
  6
CONTINUOUS
370
-3
390
F
  0
LAYER
  5
27C
100
AcDbSymbolTableRecord
100
AcDbLayerTableRecord
  2
_KSC4__-_BUTTON_1
 70
0
 62
7
  6
CONTINUOUS
370
-3
390
F
  0
LAYER
  5
27D
100
AcDbSymbolTableRecord
100
AcDbLayerTableRecord
  2
_KSC4__-_BUTTON_1_1
 70
0
 62
7
  6
CONTINUOUS
370
-3
390
F
  0
LAYER
  5
27E
100
AcDbSymbolTableRecord
100
AcDbLayerTableRecord
  2
_KSC4__-_BUTTON_1_1_1_1
 70
0
 62
7
  6
CONTINUOUS
370
-3
390
F
  0
LAYER
  5
27F
100
AcDbSymbolTableRecord
100
AcDbLayerTableRecord
  2
_KSC4__-_BUTTON_1_2
 70
0
 62
7
  6
CONTINUOUS
370
-3
390
F
  0
LAYER
  5
280
100
AcDbSymbolTableRecord
100
AcDbLayerTableRecord
  2
___SHELL
 70
0
 62
7
  6
CONTINUOUS
370
-3
390
F
  0
LAYER
  5
281
100
AcDbSymbolTableRecord
100
AcDbLayerTableRecord
  2
white
 70
0
 62
7
  6
CONTINUOUS
370
-3
390
F
  0
ENDTAB
  0
TABLE
  2
STYLE
  5
3
100
AcDbSymbolTable
 70
1
  0
STYLE
  5
11
100
AcDbSymbolTableRecord
100
AcDbTextStyleTableRecord
  2
STANDARD
 70
0
 40
0.0
 41
0.8
 50
0.0
 71
0
 42
0.2
  3
txt
  4

  0
STYLE
  5
282
100
AcDbSymbolTableRecord
100
AcDbTextStyleTableRecord
  2
TEXTSTYLE_1
 70
0
 40
0.0
 41
0.8
 50
0.0
 71
0
 42
0.2
  3
gdt
  4

  0
ENDTAB
  0
TABLE
  2
VIEW
  5
6
100
AcDbSymbolTable
 70
0
  0
ENDTAB
  0
TABLE
  2
UCS
  5
7
100
AcDbSymbolTable
 70
0
  0
ENDTAB
  0
TABLE
  2
APPID
  5
9
100
AcDbSymbolTable
 70
1
  0
APPID
  5
283
100
AcDbSymbolTableRecord
100
AcDbRegAppTableRecord
  2
ACAD
 70
0
  0
ENDTAB
  0
TABLE
  2
BLOCK_RECORD
  5
1
100
AcDbSymbolTable
 70
0
  0
BLOCK_RECORD
  5
284
100
AcDbSymbolTableRecord
100
AcDbBlockTableRecord
  2
*Model_Space
  0
BLOCK_RECORD
  5
285
100
AcDbSymbolTableRecord
100
AcDbBlockTableRecord
  2
*Paper_Space
  0
BLOCK_RECORD
  5
286
100
AcDbSymbolTableRecord
100
AcDbBlockTableRecord
  2
_FILLED
  0
BLOCK_RECORD
  5
287
100
AcDbSymbolTableRecord
100
AcDbBlockTableRecord
  2
*D0
  0
BLOCK_RECORD
  5
288
100
AcDbSymbolTableRecord
100
AcDbBlockTableRecord
  2
*D1
  0
BLOCK_RECORD
  5
289
100
AcDbSymbolTableRecord
100
AcDbBlockTableRecord
  2
*D2
  0
BLOCK_RECORD
  5
28A
100
AcDbSymbolTableRecord
100
AcDbBlockTableRecord
  2
*D3
  0
BLOCK_RECORD
  5
28B
100
AcDbSymbolTableRecord
100
AcDbBlockTableRecord
  2
*D4
  0
BLOCK_RECORD
  5
28C
100
AcDbSymbolTableRecord
100
AcDbBlockTableRecord
  2
*D5
  0
ENDTAB
  0
TABLE
  2
DIMSTYLE
  5
A
100
AcDbSymbolTable
 70
1
100
AcDbDimStyleTable
 71
0
  0
DIMSTYLE
105
28D
100
AcDbSymbolTableRecord
100
AcDbDimStyleTableRecord
  2
STANDARD
 70
0
  3

  4

 40
1.0
 41
3.0
 42
0.5
 43
0.38
 44
1.5
 45
0.0
 46
0.0
 47
0.01
 48
0.01
140
3.0
141
0.09
142
0.0
143
25.4
144
1.0
145
0.0
146
1.0
147
0.625
 71
1
 72
0
 73
0
 74
0
 75
0
 76
0
 77
1
 78
8
 79
2
170
0
171
1
172
0
173
0
174
0
175
0
176
0
177
0
178
0
270
2
179
2
271
2
272
2
273
2
274
2
275
0
280
0
281
0
282
0
283
1
284
8
285
0
286
0
287
3
288
0
340
11
278
44
341
286
342
286
343
286
344
286
  0
DIMSTYLE
105
28E
100
AcDbSymbolTableRecord
100
AcDbDimStyleTableRecord
  2
DIMSTYLE_1
 70
0
  3

  4

 40
1.0
 41
3.0
 42
0.5
 43
0.38
 44
1.5
 45
0.0
 46
0.0
 47
0.0
 48
0.0
140
3.0
141
0.09
142
0.0
143
25.4
144
1.0
145
0.0
146
1.0
147
0.75
 71
0
 72
0
 73
0
 74
0
 75
0
 76
0
 77
1
 78
8
 79
2
170
0
171
1
172
0
173
0
174
0
175
0
176
0
177
0
178
0
270
2
179
2
271
2
272
2
273
2
274
2
275
0
280
0
281
0
282
0
283
1
284
8
285
0
286
0
287
3
288
0
340
11
278
44
341
286
342
286
343
286
344
286
  0
DIMSTYLE
105
28F
100
AcDbSymbolTableRecord
100
AcDbDimStyleTableRecord
  2
DIMSTYLE_2
 70
0
  3

  4

 40
1.0
 41
3.0
 42
0.5
 43
0.38
 44
1.5
 45
0.0
 46
0.0
 47
0.0
 48
0.0
140
3.0
141
0.09
142
0.0
143
25.4
144
1.0
145
0.0
146
1.0
147
0.75
 71
0
 72
0
 73
0
 74
0
 75
0
 76
0
 77
1
 78
8
 79
2
170
0
171
1
172
0
173
0
174
0
175
0
176
0
177
0
178
0
270
2
179
2
271
1
272
1
273
2
274
2
275
0
280
0
281
0
282
0
283
1
284
8
285
0
286
0
287
3
288
0
340
11
278
44
341
286
342
286
343
286
344
286
  0
ENDTAB
  0
ENDSEC
  0
SECTION
  2
BLOCKS
  0
BLOCK
  5
20
100
AcDbEntity
  8
0
100
AcDbBlockBegin
  2
*Model_Space
 70
0
 10
0.0
 20
0.0
 30
0.0
  3
*Model_Space
  1

  0
ENDBLK
  5
21
100
AcDbEntity
  8
0
100
AcDbBlockEnd
  0
BLOCK
  5
1C
100
AcDbEntity
  8
0
100
AcDbBlockBegin
  2
*Paper_Space
 70
0
 10
0.0
 20
0.0
 30
0.0
  3
*Paper_Space
  1

  0
ENDBLK
  5
1D
100
AcDbEntity
  8
0
100
AcDbBlockEnd
  0
BLOCK
  5
290
100
AcDbEntity
  8
0
100
AcDbBlockBegin
  2
_FILLED
 70
64
 10
0.0
 20
0.0
  3
_FILLED
  1

  0
SOLID
  5
291
100
AcDbEntity
  8
0
  6
BYBLOCK
 62
0
100
AcDbTrace
 10
0.0
 20
0.0
 11
-1.0
 21
0.3166666667
 12
-1.0
 22
-0.3166666667
 13
-1.0
 23
-0.3166666667
  0
ENDBLK
  5
292
100
AcDbEntity
  8
0
  6
BYBLOCK
 62
0
100
AcDbBlockEnd
  0
BLOCK
  5
293
100
AcDbEntity
  8
0
100
AcDbBlockBegin
 62
7
  6
CONTINUOUS
  2
*D0
 70
65
 10
0.0
 20
0.0
  3
*D0
  1

  0
LINE
  5
294
100
AcDbEntity
  8
0
100
AcDbLine
 62
7
  6
CONTINUOUS
 10
-45.7499999998
 20
56.6564271716
 11
-45.7499999998
 21
68.089597663
  0
LINE
  5
295
100
AcDbEntity
  8
0
100
AcDbLine
 62
7
  6
CONTINUOUS
 10
18.2500000002
 20
56.6564271716
 11
18.2500000002
 21
68.089597663
  0
LINE
  5
296
100
AcDbEntity
  8
0
100
AcDbLine
 62
7
  6
CONTINUOUS
 10
-45.7499999998
 20
66.589597663
 11
-13.7499999998
 21
66.589597663
  0
LINE
  5
297
100
AcDbEntity
  8
0
100
AcDbLine
 62
7
  6
CONTINUOUS
 10
18.2500000002
 20
66.589597663
 11
-13.7499999998
 21
66.589597663
  0
INSERT
  5
298
100
AcDbEntity
  8
0
100
AcDbBlockReference
 62
7
  6
CONTINUOUS
  2
_FILLED
 10
-45.7499999998
 20
66.589597663
 41
3.0
 42
3.0
 43
3.0
 50
180.0
  0
INSERT
  5
299
100
AcDbEntity
  8
0
100
AcDbBlockReference
 62
7
  6
CONTINUOUS
  2
_FILLED
 10
18.2500000002
 20
66.589597663
 41
3.0
 42
3.0
 43
3.0
  0
ENDBLK
  5
29A
100
AcDbEntity
  8
0
  6
BYBLOCK
 62
0
100
AcDbBlockEnd
  0
BLOCK
  5
29B
100
AcDbEntity
  8
0
100
AcDbBlockBegin
 62
7
  6
CONTINUOUS
  2
*D1
 70
65
 10
0.0
 20
0.0
  3
*D1
  1

  0
LINE
  5
29C
100
AcDbEntity
  8
0
100
AcDbLine
 62
7
  6
CONTINUOUS
 10
-45.7499999998
 20
-56.6435728284
 11
-45.7499999998
 21
-67.2920810452
  0
LINE
  5
29D
100
AcDbEntity
  8
0
100
AcDbLine
 62
7
  6
CONTINUOUS
 10
18.2500000002
 20
-56.6435728284
 11
18.2500000002
 21
-67.2920810452
  0
LINE
  5
29E
100
AcDbEntity
  8
0
100
AcDbLine
 62
7
  6
CONTINUOUS
 10
-45.7499999998
 20
-65.7920810452
 11
-13.7499999998
 21
-65.7920810452
  0
LINE
  5
29F
100
AcDbEntity
  8
0
100
AcDbLine
 62
7
  6
CONTINUOUS
 10
18.2500000002
 20
-65.7920810452
 11
-13.7499999998
 21
-65.7920810452
  0
INSERT
  5
2A0
100
AcDbEntity
  8
0
100
AcDbBlockReference
 62
7
  6
CONTINUOUS
  2
_FILLED
 10
-45.7499999998
 20
-65.7920810452
 41
3.0
 42
3.0
 43
3.0
 50
180.0
  0
INSERT
  5
2A1
100
AcDbEntity
  8
0
100
AcDbBlockReference
 62
7
  6
CONTINUOUS
  2
_FILLED
 10
18.2500000002
 20
-65.7920810452
 41
3.0
 42
3.0
 43
3.0
  0
ENDBLK
  5
2A2
100
AcDbEntity
  8
0
  6
BYBLOCK
 62
0
100
AcDbBlockEnd
  0
BLOCK
  5
2A3
100
AcDbEntity
  8
0
100
AcDbBlockBegin
 62
7
  6
CONTINUOUS
  2
*D2
 70
65
 10
0.0
 20
0.0
  3
*D2
  1

  0
LINE
  5
2A4
100
AcDbEntity
  8
0
100
AcDbLine
 62
7
  6
CONTINUOUS
 10
18.7500000002
 20
56.1564271716
 11
64.5428226687
 21
56.1564271716
  0
LINE
  5
2A5
100
AcDbEntity
  8
0
100
AcDbLine
 62
7
  6
CONTINUOUS
 10
18.7500000002
 20
-56.1435728284
 11
64.5428226687
 21
-56.1435728284
  0
LINE
  5
2A6
100
AcDbEntity
  8
0
100
AcDbLine
 62
7
  6
CONTINUOUS
 10
63.0428226687
 20
56.1564271716
 11
63.0428226687
 21
0.0064271716
  0
LINE
  5
2A7
100
AcDbEntity
  8
0
100
AcDbLine
 62
7
  6
CONTINUOUS
 10
63.0428226687
 20
-56.1435728284
 11
63.0428226687
 21
0.0064271716
  0
INSERT
  5
2A8
100
AcDbEntity
  8
0
100
AcDbBlockReference
 62
7
  6
CONTINUOUS
  2
_FILLED
 10
63.0428226687
 20
56.1564271716
 41
3.0
 42
3.0
 43
3.0
 50
90.0
  0
INSERT
  5
2A9
100
AcDbEntity
  8
0
100
AcDbBlockReference
 62
7
  6
CONTINUOUS
  2
_FILLED
 10
63.0428226687
 20
-56.1435728284
 41
3.0
 42
3.0
 43
3.0
 50
270.0
  0
ENDBLK
  5
2AA
100
AcDbEntity
  8
0
  6
BYBLOCK
 62
0
100
AcDbBlockEnd
  0
BLOCK
  5
2AB
100
AcDbEntity
  8
0
100
AcDbBlockBegin
 62
7
  6
CONTINUOUS
  2
*D3
 70
65
 10
0.0
 20
0.0
  3
*D3
  1

  0
LINE
  5
2AC
100
AcDbEntity
  8
0
100
AcDbLine
 62
7
  6
CONTINUOUS
 10
18.7500000002
 20
-61.3133930769
 11
74.8631863584
 21
-61.3133930769
  0
LINE
  5
2AD
100
AcDbEntity
  8
0
100
AcDbLine
 62
7
  6
CONTINUOUS
 10
18.7500000002
 20
61.3262474224
 11
74.8631863584
 21
61.3262474224
  0
LINE
  5
2AE
100
AcDbEntity
  8
0
100
AcDbLine
 62
7
  6
CONTINUOUS
 10
73.3631863584
 20
-61.3133930769
 11
73.3631863584
 21
0.0064271728
  0
LINE
  5
2AF
100
AcDbEntity
  8
0
100
AcDbLine
 62
7
  6
CONTINUOUS
 10
73.3631863584
 20
61.3262474224
 11
73.3631863584
 21
0.0064271728
  0
INSERT
  5
2B0
100
AcDbEntity
  8
0
100
AcDbBlockReference
 62
7
  6
CONTINUOUS
  2
_FILLED
 10
73.3631863584
 20
-61.3133930769
 41
3.0
 42
3.0
 43
3.0
 50
270.0
  0
INSERT
  5
2B1
100
AcDbEntity
  8
0
100
AcDbBlockReference
 62
7
  6
CONTINUOUS
  2
_FILLED
 10
73.3631863584
 20
61.3262474224
 41
3.0
 42
3.0
 43
3.0
 50
90.0
  0
ENDBLK
  5
2B2
100
AcDbEntity
  8
0
  6
BYBLOCK
 62
0
100
AcDbBlockEnd
  0
BLOCK
  5
2B3
100
AcDbEntity
  8
0
100
AcDbBlockBegin
 62
7
  6
CONTINUOUS
  2
*D4
 70
65
 10
0.0
 20
0.0
  3
*D4
  1

  0
LINE
  5
2B4
100
AcDbEntity
  8
0
100
AcDbLine
 62
7
  6
CONTINUOUS
 10
-51.3198202595
 20
56.2564271713
 11
-51.3198202595
 21
76.375177169
  0
LINE
  5
2B5
100
AcDbEntity
  8
0
100
AcDbLine
 62
7
  6
CONTINUOUS
 10
51.3198169408
 20
49.8265311502
 11
51.3198169408
 21
76.375177169
  0
LINE
  5
2B6
100
AcDbEntity
  8
0
100
AcDbLine
 62
7
  6
CONTINUOUS
 10
-51.3198202595
 20
74.875177169
 11
-0.0000016594
 21
74.875177169
  0
LINE
  5
2B7
100
AcDbEntity
  8
0
100
AcDbLine
 62
7
  6
CONTINUOUS
 10
51.3198169408
 20
74.875177169
 11
-0.0000016594
 21
74.875177169
  0
INSERT
  5
2B8
100
AcDbEntity
  8
0
100
AcDbBlockReference
 62
7
  6
CONTINUOUS
  2
_FILLED
 10
-51.3198202595
 20
74.875177169
 41
3.0
 42
3.0
 43
3.0
 50
180.0
  0
INSERT
  5
2B9
100
AcDbEntity
  8
0
100
AcDbBlockReference
 62
7
  6
CONTINUOUS
  2
_FILLED
 10
51.3198169408
 20
74.875177169
 41
3.0
 42
3.0
 43
3.0
 50
360.0
  0
ENDBLK
  5
2BA
100
AcDbEntity
  8
0
  6
BYBLOCK
 62
0
100
AcDbBlockEnd
  0
BLOCK
  5
2BB
100
AcDbEntity
  8
0
100
AcDbBlockBegin
 62
7
  6
CONTINUOUS
  2
*D5
 70
65
 10
0.0
 20
0.0
  3
*D5
  1

  0
LINE
  5
2BC
100
AcDbEntity
  8
0
100
AcDbLine
 62
7
  6
CONTINUOUS
 10
-103.5462899782
 20
-3.7362996502
 11
-103.5462899782
 21
76.7394265187
  0
LINE
  5
2BD
100
AcDbEntity
  8
0
100
AcDbLine
 62
7
  6
CONTINUOUS
 10
-82.4462899782
 20
49.7738774579
 11
-82.4462899782
 21
76.7394265187
  0
LINE
  5
2BE
100
AcDbEntity
  8
0
100
AcDbLine
 62
7
  6
CONTINUOUS
 10
-103.5462899782
 20
75.2394265187
 11
-92.9962899782
 21
75.2394265187
  0
LINE
  5
2BF
100
AcDbEntity
  8
0
100
AcDbLine
 62
7
  6
CONTINUOUS
 10
-82.4462899782
 20
75.2394265187
 11
-92.9962899782
 21
75.2394265187
  0
INSERT
  5
2C0
100
AcDbEntity
  8
0
100
AcDbBlockReference
 62
7
  6
CONTINUOUS
  2
_FILLED
 10
-103.5462899782
 20
75.2394265187
 41
3.0
 42
3.0
 43
3.0
 50
180.0
  0
INSERT
  5
2C1
100
AcDbEntity
  8
0
100
AcDbBlockReference
 62
7
  6
CONTINUOUS
  2
_FILLED
 10
-82.4462899782
 20
75.2394265187
 41
3.0
 42
3.0
 43
3.0
  0
ENDBLK
  5
2C2
100
AcDbEntity
  8
0
  6
BYBLOCK
 62
0
100
AcDbBlockEnd
  0
ENDSEC
  0
SECTION
  2
ENTITIES
  0
DIMENSION
  5
2C3
100
AcDbEntity
  8
0
100
AcDbDimension
 62
7
  6
CONTINUOUS
  2
*D0
 10
18.2500000002
 20
66.589597663
 11
-16.107142857
 21
66.589597663
 70
160
 71
2
 72
2
 41
0.9
 42
64.0
  3
DIMSTYLE_1
100
AcDbAlignedDimension
 13
-45.7499999998
 23
56.1564271716
 14
18.2500000002
 24
56.1564271716
100
AcDbRotatedDimension
  0
DIMENSION
  5
2C4
100
AcDbEntity
  8
0
100
AcDbDimension
 62
7
  6
CONTINUOUS
  2
*D1
 10
18.2500000002
 20
-65.7920810452
 11
-16.107142857
 21
-65.7920810452
 70
160
 71
2
 72
2
 41
0.9
 42
64.0
  3
DIMSTYLE_1
100
AcDbAlignedDimension
 13
-45.7499999998
 23
-56.1435728284
 14
18.2500000002
 24
-56.1435728284
100
AcDbRotatedDimension
  0
DIMENSION
  5
2C5
100
AcDbEntity
  8
0
100
AcDbDimension
 62
7
  6
CONTINUOUS
  2
*D2
 10
63.0428226687
 20
-56.1435728284
 11
63.0428226687
 21
-4.8150013998
 70
160
 71
2
 72
2
 41
0.9
 42
112.3
  3
DIMSTYLE_1
100
AcDbAlignedDimension
 13
18.2500000002
 23
56.1564271716
 14
18.2500000002
 24
-56.1435728284
 50
270.0
100
AcDbRotatedDimension
  0
DIMENSION
  5
2C6
100
AcDbEntity
  8
0
100
AcDbDimension
 62
7
  6
CONTINUOUS
  2
*D3
 10
73.3631863584
 20
61.3262474224
 11
73.3631863584
 21
-5.2435728272
 70
160
 71
2
 72
2
 41
0.9
 42
122.6396404993
  3
DIMSTYLE_2
100
AcDbAlignedDimension
 13
18.2500000002
 23
-61.3133930769
 14
18.2500000002
 24
61.3262474224
 50
90.0
100
AcDbRotatedDimension
  0
DIMENSION
  5
2C7
100
AcDbEntity
  8
0
100
AcDbDimension
 62
7
  6
CONTINUOUS
  2
*D4
 10
51.3198169408
 20
74.875177169
 11
-5.2500016594
 21
74.875177169
 70
160
 71
2
 72
2
 41
0.9
 42
102.6396372003
  3
DIMSTYLE_2
100
AcDbAlignedDimension
 13
-51.3198202595
 23
55.7564271713
 14
51.3198169408
 24
49.3265311502
100
AcDbRotatedDimension
  0
DIMENSION
  5
2C8
100
AcDbEntity
  8
0
100
AcDbDimension
 62
7
  6
CONTINUOUS
  2
*D5
 10
-82.4462899782
 20
75.2394265187
 11
-96.7462899782
 21
75.2394265187
 70
160
 71
2
 72
2
 41
0.9
 42
21.1
  3
DIMSTYLE_1
100
AcDbAlignedDimension
 13
-103.5462899782
 23
-4.2362996502
 14
-82.4462899782
 24
49.2738774579
100
AcDbRotatedDimension
  0
LWPOLYLINE
  5
2C9
100
AcDbEntity
  8
0
100
AcDbPolyline
 62
7
  6
CONTINUOUS
 90
3
 70
0
 43
0.3500000006
 10
-12.2500003395
 20
-64.3992223663
 10
-13.7499996643
 20
-64.3992223663
 10
-13.1071428108
 20
-62.0420794373
  0
LWPOLYLINE
  5
2CA
100
AcDbEntity
  8
0
100
AcDbPolyline
 62
7
  6
CONTINUOUS
 90
10
 70
0
 43
0.3500000006
 10
-15.0357145042
 20
70.3395978699
 10
-15.6785713577
 20
69.6967444153
 10
-16.1071425934
 20
68.8395974121
 10
-16.1071425934
 20
67.7681659241
 10
-15.6785713577
 20
67.3395969543
 10
-15.0357145042
 20
67.3395969543
 10
-14.6071432686
 20
67.7681659241
 10
-14.6071432686
 20
68.6253129272
 10
-15.0357145042
 20
69.053881897
 10
-15.9642858925
 20
69.053881897
  0
LWPOLYLINE
  5
2CB
100
AcDbEntity
  8
0
100
AcDbPolyline
 62
7
  6
CONTINUOUS
 90
3
 70
0
 43
0.3500000006
 10
-5.2500016022
 20
77.76803302
 10
-4.3928588476
 20
78.6251800232
 10
-4.3928588476
 20
75.6251791077
  0
LINE
  5
2CC
100
AcDbEntity
  8
IMPORT_IGES
100
AcDbLine
 62
7
  6
CONTINUOUS
 10
-46.2501485072
 20
-40.9935680709
 11
-45.7500928975
 21
-41.4934514258
  0
LINE
  5
2CD
100
AcDbEntity
  8
IMPORT_IGES
100
AcDbLine
 62
7
  6
CONTINUOUS
 10
-45.7500928975
 20
-42.243448713
 11
-46.2501485071
 21
-40.9935680709
  0
LWPOLYLINE
  5
2CE
100
AcDbEntity
  8
IMPORT_IGES
100
AcDbPolyline
 62
250
  6
CONTINUOUS
 90
13
 70
0
 10
-47.4500065668
 20
24.2564114107
 10
-47.414625603
 20
24.3339199792
 10
-47.3746795317
 20
24.4083749053
 10
-47.3301683529
 20
24.4797761892
 10
-47.2808650126
 20
24.54840058
 10
-47.2269965647
 20
24.6139713285
 10
-47.169244171
 20
24.6756581868
 10
-47.1075581393
 20
24.7334114633
 10
-47.0419881617
 20
24.7872808497
 10
-46.9733644765
 20
24.8365851721
 10
-46.9019638297
 20
24.8810973728
 10
-46.8275094753
 20
24.9210445097
 10
-46.7500014132
 20
24.9564265827
  0
LWPOLYLINE
  5
2CF
100
AcDbEntity
  8
0
100
AcDbPolyline
 62
7
  6
CONTINUOUS
 90
10
 70
0
 43
0.3500000006
 10
3.9642839298
 20
78.6251800232
 10
3.3214267931
 20
77.9823175049
 10
2.8928555574
 20
77.1251795654
 10
2.8928555574
 20
76.0537480774
 10
3.3214267931
 20
75.6251791077
 10
3.9642839298
 20
75.6251791077
 10
4.3928554487
 20
76.0537480774
 10
4.3928554487
 20
76.9108950806
 10
3.9642839298
 20
77.3394640503
 10
3.0357125416
 20
77.3394640503
  0
LINE
  5
2D0
100
AcDbEntity
  8
IMPORT_IGES
100
AcDbLine
 62
250
  6
CONTINUOUS
 10
-41.4499999998
 20
-55.7435728284
 11
-41.4238174027
 21
-55.7435728284
  0
LINE
  5
2D1
100
AcDbEntity
  8
IMPORT_IGES
100
AcDbLine
 62
250
  6
CONTINUOUS
 10
13.9500000004
 20
-55.7435728284
 11
13.9238174028
 21
-55.7435728284
  0
LINE
  5
2D2
100
AcDbEntity
  8
IMPORT_IGES
100
AcDbLine
 62
250
  6
CONTINUOUS
 10
22.5500000002
 20
-55.7435728284
 11
22.5761825973
 21
-55.7435728284
  0
LINE
  5
2D3
100
AcDbEntity
  8
IMPORT_IGES
100
AcDbLine
 62
250
  6
CONTINUOUS
 10
-50.0499999998
 20
-55.7435728284
 11
-50.0761825972
 21
-55.7435728284
  0
LINE
  5
2D4
100
AcDbEntity
  8
IMPORT_IGES
100
AcDbLine
 62
7
  6
CONTINUOUS
 10
-46.2501485072
 20
-40.9935680709
 11
-45.0000956103
 21
-41.4934514258
  0
LINE
  5
2D5
100
AcDbEntity
  8
IMPORT_IGES
100
AcDbLine
 62
7
  6
CONTINUOUS
 10
-47.1985832943
 20
-29.1334823534
 11
-47.4766024999
 21
-28.8578747146
  0
LINE
  5
2D6
100
AcDbEntity
  8
IMPORT_IGES
100
AcDbLine
 62
7
  6
CONTINUOUS
 10
-47.2251105295
 20
-27.9779973277
 11
-47.4766024999
 21
-27.7271943763
  0
LINE
  5
2D7
100
AcDbEntity
  8
IMPORT_IGES
100
AcDbLine
 62
7
  6
CONTINUOUS
 10
-48.0088697524
 20
-29.684008612
 11
-47.7373962281
 21
-29.9547931171
  0
LINE
  5
2D8
100
AcDbEntity
  8
IMPORT_IGES
100
AcDbLine
 62
7
  6
CONTINUOUS
 10
-44.8369703391
 20
-31.9157414673
 11
-45.252104345
 21
-31.50164099
  0
LINE
  5
2D9
100
AcDbEntity
  8
IMPORT_IGES
100
AcDbLine
 62
7
  6
CONTINUOUS
 10
-47.7525546483
 20
-29.993033677
 11
-48.0467658027
 21
-29.6988225225
  0
LINE
  5
2DA
100
AcDbEntity
  8
IMPORT_IGES
100
AcDbLine
 62
7
  6
CONTINUOUS
 10
-48.0467658027
 20
-29.1334823534
 11
-48.3165167791
 21
-28.8633868674
  0
LINE
  5
2DB
100
AcDbEntity
  8
IMPORT_IGES
100
AcDbLine
 62
7
  6
CONTINUOUS
 10
-48.3027363973
 20
-28.825490817
 11
-48.0088697524
 21
-29.1197019715
  0
LINE
  5
2DC
100
AcDbEntity
  8
IMPORT_IGES
100
AcDbLine
 62
7
  6
CONTINUOUS
 10
-45.2410800395
 20
-31.4730466975
 11
-44.8094095752
 21
-31.9054061808
  0
LINE
  5
2DD
100
AcDbEntity
  8
IMPORT_IGES
100
AcDbLine
 62
7
  6
CONTINUOUS
 10
-45.8873799526
 20
-32.3484454603
 11
-46.1071770445
 21
-32.1279593492
  0
LINE
  5
2DE
100
AcDbEntity
  8
IMPORT_IGES
100
AcDbLine
 62
7
  6
CONTINUOUS
 10
-47.449041736
 20
-27.6996336125
 11
-47.162065282
 21
-27.9883326141
  0
LINE
  5
2DF
100
AcDbEntity
  8
IMPORT_IGES
100
AcDbLine
 62
7
  6
CONTINUOUS
 10
-46.0792717711
 20
-32.1165905341
 11
-45.8770446661
 21
-32.3201956773
  0
LINE
  5
2E0
100
AcDbEntity
  8
IMPORT_IGES
100
AcDbLine
 62
7
  6
CONTINUOUS
 10
-47.449041736
 20
-28.8303139507
 11
-47.162065282
 21
-29.1197019715
  0
LINE
  5
2E1
100
AcDbEntity
  8
IMPORT_IGES
100
AcDbLine
 62
7
  6
CONTINUOUS
 10
-47.189626046
 20
-30.5225448531
 11
-47.1710225303
 21
-30.5549287506
  0
LINE
  5
2E2
100
AcDbEntity
  8
IMPORT_IGES
100
AcDbLine
 62
7
  6
CONTINUOUS
 10
-45.7500928975
 20
-38.2433483451
 11
-46.2501485071
 21
-36.2434704159
  0
LINE
  5
2E3
100
AcDbEntity
  8
IMPORT_IGES
100
AcDbLine
 62
7
  6
CONTINUOUS
 10
-51.3198202595
 20
-55.7435728284
 11
-51.3198202595
 21
55.7564271713
  0
LINE
  5
2E4
100
AcDbEntity
  8
IMPORT_IGES
100
AcDbLine
 62
7
  6
CONTINUOUS
 10
-50.2500766203
 20
50.2565037921
 11
-50.2500766203
 21
-50.2436494488
  0
LINE
  5
2E5
100
AcDbEntity
  8
IMPORT_IGES
100
AcDbLine
 62
7
  6
CONTINUOUS
 10
-50.0761825972
 20
-55.7435728284
 11
-50.0761825972
 21
-50.2436494488
  0
LINE
  5
2E6
100
AcDbEntity
  8
IMPORT_IGES
100
AcDbLine
 62
7
  6
CONTINUOUS
 10
-50.0761825972
 20
50.2565037921
 11
-50.0761825972
 21
55.7564271716
  0
LINE
  5
2E7
100
AcDbEntity
  8
IMPORT_IGES
100
AcDbLine
 62
7
  6
CONTINUOUS
 10
-50.0499999998
 20
55.7564271716
 11
-50.0499999998
 21
50.2565037921
  0
LINE
  5
2E8
100
AcDbEntity
  8
IMPORT_IGES
100
AcDbLine
 62
7
  6
CONTINUOUS
 10
-50.0499999998
 20
-50.2436494488
 11
-50.0499999998
 21
-55.7435728284
  0
LINE
  5
2E9
100
AcDbEntity
  8
IMPORT_IGES
100
AcDbLine
 62
7
  6
CONTINUOUS
 10
-49.2499999998
 20
32.5064271716
 11
-49.2499999998
 21
49.7564271716
  0
LINE
  5
2EA
100
AcDbEntity
  8
IMPORT_IGES
100
AcDbLine
 62
7
  6
CONTINUOUS
 10
-48.8921922348
 20
-29.9733966327
 11
-48.8921922348
 21
-28.825490817
  0
LINE
  5
2EB
100
AcDbEntity
  8
IMPORT_IGES
100
AcDbLine
 62
7
  6
CONTINUOUS
 10
-48.8921922348
 20
-28.2787541635
 11
-48.8921922348
 21
-27.7134139944
  0
LINE
  5
2EC
100
AcDbEntity
  8
IMPORT_IGES
100
AcDbLine
 62
7
  6
CONTINUOUS
 10
-48.8921922348
 20
-17.2558266489
 11
-48.8921922348
 21
-16.6767060978
  0
LINE
  5
2ED
100
AcDbEntity
  8
IMPORT_IGES
100
AcDbLine
 62
7
  6
CONTINUOUS
 10
-48.8921922348
 20
-12.2246092023
 11
-48.8921922348
 21
-11.3698810124
  0
LINE
  5
2EE
100
AcDbEntity
  8
IMPORT_IGES
100
AcDbLine
 62
7
  6
CONTINUOUS
 10
-48.8749667573
 20
-31.4058673355
 11
-48.8749667573
 21
-31.3645261897
  0
LINE
  5
2EF
100
AcDbEntity
  8
IMPORT_IGES
100
AcDbLine
 62
7
  6
CONTINUOUS
 10
-48.8553297131
 20
-11.3698810124
 11
-48.8553297131
 21
-11.6341198361
  0
LINE
  5
2F0
100
AcDbEntity
  8
IMPORT_IGES
100
AcDbLine
 62
7
  6
CONTINUOUS
 10
-48.8553297131
 20
-11.6709823578
 11
-48.8553297131
 21
-12.2097952917
  0
LINE
  5
2F1
100
AcDbEntity
  8
IMPORT_IGES
100
AcDbLine
 62
7
  6
CONTINUOUS
 10
-48.8553297131
 20
-16.6904864798
 11
-48.8553297131
 21
-17.2410127383
  0
LINE
  5
2F2
100
AcDbEntity
  8
IMPORT_IGES
100
AcDbLine
 62
7
  6
CONTINUOUS
 10
-48.8553297131
 20
-27.7134139944
 11
-48.8553297131
 21
-27.9779973277
  0
LINE
  5
2F3
100
AcDbEntity
  8
IMPORT_IGES
100
AcDbLine
 62
7
  6
CONTINUOUS
 10
-48.8553297131
 20
-28.0145153398
 11
-48.8553297131
 21
-28.2787541635
  0
LINE
  5
2F4
100
AcDbEntity
  8
IMPORT_IGES
100
AcDbLine
 62
7
  6
CONTINUOUS
 10
-48.8553297131
 20
-28.8633868674
 11
-48.8553297131
 21
-29.9733966327
  0
LINE
  5
2F5
100
AcDbEntity
  8
IMPORT_IGES
100
AcDbLine
 62
7
  6
CONTINUOUS
 10
-48.0467658027
 20
-29.6988225226
 11
-48.0467658027
 21
-29.1334823534
  0
LINE
  5
2F6
100
AcDbEntity
  8
IMPORT_IGES
100
AcDbLine
 62
7
  6
CONTINUOUS
 10
-48.0088697524
 20
-29.1197019715
 11
-48.0088697524
 21
-29.684008612
  0
LINE
  5
2F7
100
AcDbEntity
  8
IMPORT_IGES
100
AcDbLine
 62
7
  6
CONTINUOUS
 10
-47.9499999998
 20
24.2564271716
 11
-47.9499999998
 21
23.2564271716
  0
LINE
  5
2F8
100
AcDbEntity
  8
IMPORT_IGES
100
AcDbLine
 62
7
  6
CONTINUOUS
 10
-47.9499999998
 20
-45.7435728284
 11
-47.9499999998
 21
-46.7435728284
  0
LINE
  5
2F9
100
AcDbEntity
  8
IMPORT_IGES
100
AcDbLine
 62
7
  6
CONTINUOUS
 10
-47.7501430814
 20
-5.9934649981
 11
-47.7501430814
 21
-7.4934595724
  0
LINE
  5
2FA
100
AcDbEntity
  8
IMPORT_IGES
100
AcDbLine
 62
7
  6
CONTINUOUS
 10
-47.7501430814
 20
-20.9934107409
 11
-47.7501430814
 21
-22.4934053151
  0
LINE
  5
2FB
100
AcDbEntity
  8
IMPORT_IGES
100
AcDbLine
 62
7
  6
CONTINUOUS
 10
-47.7501430814
 20
-25.4933944637
 11
-47.7501430814
 21
-26.993389038
  0
LINE
  5
2FC
100
AcDbEntity
  8
IMPORT_IGES
100
AcDbLine
 62
7
  6
CONTINUOUS
 10
-47.7501430814
 20
-31.4933727608
 11
-47.7501430814
 21
-32.9933673351
  0
LWPOLYLINE
  5
2FD
100
AcDbEntity
  8
IMPORT_IGES
100
AcDbPolyline
 62
250
  6
CONTINUOUS
 90
13
 70
0
 10
-45.0499934329
 20
23.2564429326
 10
-45.0853743966
 20
23.1789343641
 10
-45.1253204679
 20
23.1044794379
 10
-45.1698316467
 20
23.0330781541
 10
-45.2191349871
 20
22.9644537632
 10
-45.2730034349
 20
22.8988830147
 10
-45.3307558287
 20
22.8371961565
 10
-45.3924418604
 20
22.7794428799
 10
-45.4580118379
 20
22.7255734936
 10
-45.5266355231
 20
22.6762691711
 10
-45.5980361699
 20
22.6317569704
 10
-45.6724905244
 20
22.5918098335
 10
-45.7499985865
 20
22.5564277605
  0
LINE
  5
2FE
100
AcDbEntity
  8
IMPORT_IGES
100
AcDbLine
 62
7
  6
CONTINUOUS
 10
49.3200987993
 20
-51.3133889462
 11
24.8196679536
 21
-51.3133930879
  0
LINE
  5
2FF
100
AcDbEntity
  8
IMPORT_IGES
100
AcDbLine
 62
7
  6
CONTINUOUS
 10
11.6803320453
 20
-51.3133930881
 11
-39.1803320464
 21
-51.3133930881
  0
LINE
  5
300
100
AcDbEntity
  8
IMPORT_IGES
100
AcDbLine
 62
7
  6
CONTINUOUS
 10
-50.2500766203
 20
-50.2436494488
 11
50.2500766206
 21
-50.2436494488
  0
LINE
  5
301
100
AcDbEntity
  8
IMPORT_IGES
100
AcDbLine
 62
7
  6
CONTINUOUS
 10
49.7500000002
 20
-49.2435728284
 11
32.5000000002
 21
-49.2435728284
  0
LINE
  5
302
100
AcDbEntity
  8
IMPORT_IGES
100
AcDbLine
 62
7
  6
CONTINUOUS
 10
13.249751109
 20
-48.2434270101
 11
26.2498189226
 21
-48.2434270101
  0
LINE
  5
303
100
AcDbEntity
  8
IMPORT_IGES
100
AcDbLine
 62
7
  6
CONTINUOUS
 10
26.1476713669
 20
-48.1251406973
 11
13.3476713667
 21
-48.1251406973
  0
LINE
  5
304
100
AcDbEntity
  8
IMPORT_IGES
100
AcDbLine
 62
7
  6
CONTINUOUS
 10
-46.7499999998
 20
-47.9435728284
 11
-45.7499999998
 21
-47.9435728284
  0
LINE
  5
305
100
AcDbEntity
  8
IMPORT_IGES
100
AcDbLine
 62
7
  6
CONTINUOUS
 10
8.2500000002
 20
-47.9435728284
 11
9.2500000002
 21
-47.9435728284
  0
LINE
  5
306
100
AcDbEntity
  8
IMPORT_IGES
100
AcDbLine
 62
7
  6
CONTINUOUS
 10
-48.8325920829
 20
-31.3851967626
 11
-47.1710225303
 21
-32.2161537936
  0
LINE
  5
307
100
AcDbEntity
  8
IMPORT_IGES
100
AcDbLine
 62
7
  6
CONTINUOUS
 10
-47.189626046
 20
-32.2492267103
 11
-48.8749667573
 21
-31.4058673355
  0
LINE
  5
308
100
AcDbEntity
  8
IMPORT_IGES
100
AcDbLine
 62
7
  6
CONTINUOUS
 10
-45.8925475958
 20
-26.4766247152
 11
-45.8718770228
 21
-26.4972952881
  0
LINE
  5
309
100
AcDbEntity
  8
IMPORT_IGES
100
AcDbLine
 62
7
  6
CONTINUOUS
 10
-45.8873799526
 20
-27.348233873
 11
-46.1071770445
 21
-27.1277477619
  0
LINE
  5
30A
100
AcDbEntity
  8
IMPORT_IGES
100
AcDbLine
 62
7
  6
CONTINUOUS
 10
-46.0792717711
 20
-27.1167234564
 11
-45.8770446661
 21
-27.31998409
  0
LINE
  5
30B
100
AcDbEntity
  8
IMPORT_IGES
100
AcDbLine
 62
7
  6
CONTINUOUS
 10
-47.1985832943
 20
-29.684008612
 11
-47.1985832943
 21
-29.1334823534
  0
LINE
  5
30C
100
AcDbEntity
  8
IMPORT_IGES
100
AcDbLine
 62
7
  6
CONTINUOUS
 10
-47.1985832943
 20
-17.2410127383
 11
-47.1985832943
 21
-16.6904864798
  0
LINE
  5
30D
100
AcDbEntity
  8
IMPORT_IGES
100
AcDbLine
 62
7
  6
CONTINUOUS
 10
-47.1985832943
 20
-12.2097952917
 11
-47.1985832943
 21
-11.6709823578
  0
LINE
  5
30E
100
AcDbEntity
  8
IMPORT_IGES
100
AcDbLine
 62
7
  6
CONTINUOUS
 10
-47.1985832943
 20
-11.6341198361
 11
-47.1985832943
 21
-11.3698810124
  0
LINE
  5
30F
100
AcDbEntity
  8
IMPORT_IGES
100
AcDbLine
 62
7
  6
CONTINUOUS
 10
-47.1620652821
 20
-11.3698810124
 11
-47.1620652821
 21
-12.2246092023
  0
LINE
  5
310
100
AcDbEntity
  8
IMPORT_IGES
100
AcDbLine
 62
7
  6
CONTINUOUS
 10
-47.1620652821
 20
-16.6767060979
 11
-47.1620652821
 21
-17.2558266489
  0
LINE
  5
311
100
AcDbEntity
  8
IMPORT_IGES
100
AcDbLine
 62
7
  6
CONTINUOUS
 10
-47.1620652821
 20
-27.9883326141
 11
-47.1620652821
 21
-28.0145153398
  0
LINE
  5
312
100
AcDbEntity
  8
IMPORT_IGES
100
AcDbLine
 62
7
  6
CONTINUOUS
 10
-47.1620652821
 20
-29.1197019715
 11
-47.1620652821
 21
-29.6988225226
  0
LINE
  5
313
100
AcDbEntity
  8
IMPORT_IGES
100
AcDbLine
 62
7
  6
CONTINUOUS
 10
-47.0001457943
 20
-41.4934514259
 11
-47.0001457943
 21
-40.9935680709
  0
LINE
  5
314
100
AcDbEntity
  8
IMPORT_IGES
100
AcDbLine
 62
7
  6
CONTINUOUS
 10
-46.7499999998
 20
-47.9435728284
 11
-46.7499999998
 21
-46.7435708199
  0
LINE
  5
315
100
AcDbEntity
  8
IMPORT_IGES
100
AcDbLine
 62
7
  6
CONTINUOUS
 10
-46.7499999998
 20
-45.7435728284
 11
-46.7499999998
 21
-44.5435728284
  0
LINE
  5
316
100
AcDbEntity
  8
IMPORT_IGES
100
AcDbLine
 62
7
  6
CONTINUOUS
 10
-46.7499999998
 20
24.2564271716
 11
-46.7499999998
 21
25.4564271716
  0
LINE
  5
317
100
AcDbEntity
  8
IMPORT_IGES
100
AcDbLine
 62
7
  6
CONTINUOUS
 10
-46.7499999998
 20
23.2564291801
 11
-46.7499999998
 21
22.0564271716
  0
LINE
  5
318
100
AcDbEntity
  8
IMPORT_IGES
100
AcDbLine
 62
7
  6
CONTINUOUS
 10
-46.2501485072
 20
-42.243448713
 11
-46.2501485072
 21
-40.2435707838
  0
LINE
  5
319
100
AcDbEntity
  8
IMPORT_IGES
100
AcDbLine
 62
7
  6
CONTINUOUS
 10
-46.2501485072
 20
-36.2434704159
 11
-46.2501485072
 21
-38.2433483451
  0
LINE
  5
31A
100
AcDbEntity
  8
IMPORT_IGES
100
AcDbLine
 62
7
  6
CONTINUOUS
 10
-46.1071770445
 20
-32.1279593492
 11
-46.1071770445
 21
-31.6935328085
  0
LINE
  5
31B
100
AcDbEntity
  8
IMPORT_IGES
100
AcDbLine
 62
7
  6
CONTINUOUS
 10
-46.1071770445
 20
-27.1277477619
 11
-46.1071770445
 21
-26.6936657308
  0
LINE
  5
31C
100
AcDbEntity
  8
IMPORT_IGES
100
AcDbLine
 62
7
  6
CONTINUOUS
 10
-46.1071770445
 20
-17.1276690969
 11
-46.1071770445
 21
-16.6932425562
  0
LINE
  5
31D
100
AcDbEntity
  8
IMPORT_IGES
100
AcDbLine
 62
7
  6
CONTINUOUS
 10
-46.1071770445
 20
-12.3338187291
 11
-46.1071770445
 21
-11.4732338769
  0
LINE
  5
31E
100
AcDbEntity
  8
IMPORT_IGES
100
AcDbLine
 62
7
  6
CONTINUOUS
 10
-46.1071770445
 20
-6.9105494163
 11
-46.1071770445
 21
-6.4868026716
  0
LINE
  5
31F
100
AcDbEntity
  8
IMPORT_IGES
100
AcDbLine
 62
7
  6
CONTINUOUS
 10
-46.0940856817
 20
-22.1364934229
 11
-46.0940856817
 21
-22.1078991303
  0
LINE
  5
320
100
AcDbEntity
  8
IMPORT_IGES
100
AcDbLine
 62
7
  6
CONTINUOUS
 10
-46.0792717711
 20
-6.4868026716
 11
-46.0792717711
 21
-6.684895662
  0
LINE
  5
321
100
AcDbEntity
  8
IMPORT_IGES
100
AcDbLine
 62
7
  6
CONTINUOUS
 10
-46.0792717711
 20
-6.7124564259
 11
-46.0792717711
 21
-6.9105494163
  0
LINE
  5
322
100
AcDbEntity
  8
IMPORT_IGES
100
AcDbLine
 62
7
  6
CONTINUOUS
 10
-46.0792717711
 20
-11.5014836599
 11
-46.0792717711
 21
-12.3338187291
  0
LINE
  5
323
100
AcDbEntity
  8
IMPORT_IGES
100
AcDbLine
 62
7
  6
CONTINUOUS
 10
-46.0792717711
 20
-16.7035778426
 11
-46.0792717711
 21
-17.1163002818
  0
LINE
  5
324
100
AcDbEntity
  8
IMPORT_IGES
100
AcDbLine
 62
7
  6
CONTINUOUS
 10
-46.0792717711
 20
-26.7040010172
 11
-46.0792717711
 21
-27.1167234564
  0
LINE
  5
325
100
AcDbEntity
  8
IMPORT_IGES
100
AcDbLine
 62
7
  6
CONTINUOUS
 10
-46.0792717711
 20
-31.703868095
 11
-46.0792717711
 21
-32.1165905341
  0
LINE
  5
326
100
AcDbEntity
  8
IMPORT_IGES
100
AcDbLine
 62
7
  6
CONTINUOUS
 10
-45.7500928975
 20
-38.2433483451
 11
-45.7500928975
 21
-36.2434704159
  0
LINE
  5
327
100
AcDbEntity
  8
IMPORT_IGES
100
AcDbLine
 62
7
  6
CONTINUOUS
 10
-45.7500928975
 20
-40.2435707838
 11
-45.7500928975
 21
-40.9935680709
  0
LINE
  5
328
100
AcDbEntity
  8
IMPORT_IGES
100
AcDbLine
 62
7
  6
CONTINUOUS
 10
-45.7500928975
 20
-41.4934514259
 11
-45.7500928975
 21
-42.243448713
  0
LINE
  5
329
100
AcDbEntity
  8
IMPORT_IGES
100
AcDbLine
 62
7
  6
CONTINUOUS
 10
-45.7499999998
 20
23.2564271716
 11
-45.7499999998
 21
22.0564271716
  0
LINE
  5
32A
100
AcDbEntity
  8
IMPORT_IGES
100
AcDbLine
 62
7
  6
CONTINUOUS
 10
-45.7499999998
 20
-44.5435728284
 11
-45.7499999998
 21
-45.7435748369
  0
LINE
  5
32B
100
AcDbEntity
  8
IMPORT_IGES
100
AcDbLine
 62
7
  6
CONTINUOUS
 10
-45.7499999998
 20
-46.7435728284
 11
-45.7499999998
 21
-47.9435728284
  0
LINE
  5
32C
100
AcDbEntity
  8
IMPORT_IGES
100
AcDbLine
 62
7
  6
CONTINUOUS
 10
-45.7499999998
 20
24.2564251631
 11
-45.7499999998
 21
25.4564271716
  0
LINE
  5
32D
100
AcDbEntity
  8
IMPORT_IGES
100
AcDbLine
 62
7
  6
CONTINUOUS
 10
-45.6837748094
 20
-22.3335528846
 11
-45.6837748094
 21
-22.1364934229
  0
LINE
  5
32E
100
AcDbEntity
  8
IMPORT_IGES
100
AcDbLine
 62
7
  6
CONTINUOUS
 10
-45.6837748094
 20
-22.1078991304
 11
-45.6837748094
 21
-21.4581541218
  0
LINE
  5
32F
100
AcDbEntity
  8
IMPORT_IGES
100
AcDbLine
 62
7
  6
CONTINUOUS
 10
-45.6562140455
 20
-21.5149981973
 11
-45.6562140455
 21
-22.1078991304
  0
LINE
  5
330
100
AcDbEntity
  8
IMPORT_IGES
100
AcDbLine
 62
7
  6
CONTINUOUS
 10
-45.6562140455
 20
-22.1364934229
 11
-45.6562140455
 21
-22.3335528846
  0
LINE
  5
331
100
AcDbEntity
  8
IMPORT_IGES
100
AcDbLine
 62
7
  6
CONTINUOUS
 10
-45.4729349657
 20
-32.1165905341
 11
-45.4729349657
 21
-31.50164099
  0
LINE
  5
332
100
AcDbEntity
  8
IMPORT_IGES
100
AcDbLine
 62
7
  6
CONTINUOUS
 10
-45.4729349657
 20
-17.1163002818
 11
-45.4729349657
 21
-16.9106280813
  0
LINE
  5
333
100
AcDbEntity
  8
IMPORT_IGES
100
AcDbLine
 62
7
  6
CONTINUOUS
 10
-45.4729349657
 20
-12.1278020191
 11
-45.4729349657
 21
-11.7040552744
  0
LINE
  5
334
100
AcDbEntity
  8
IMPORT_IGES
100
AcDbLine
 62
7
  6
CONTINUOUS
 10
-45.4443406732
 20
-11.693719988
 11
-45.4443406732
 21
-12.1167777136
  0
LINE
  5
335
100
AcDbEntity
  8
IMPORT_IGES
100
AcDbLine
 62
7
  6
CONTINUOUS
 10
-45.4443406732
 20
-16.9106280813
 11
-45.4443406732
 21
-17.1163002818
  0
LINE
  5
336
100
AcDbEntity
  8
IMPORT_IGES
100
AcDbLine
 62
7
  6
CONTINUOUS
 10
-45.4443406732
 20
-31.50164099
 11
-45.4443406732
 21
-32.1279593492
  0
LINE
  5
337
100
AcDbEntity
  8
IMPORT_IGES
100
AcDbLine
 62
7
  6
CONTINUOUS
 10
-45.2607170838
 20
-27.1167234564
 11
-45.2607170838
 21
-26.4731796197
  0
LINE
  5
338
100
AcDbEntity
  8
IMPORT_IGES
100
AcDbLine
 62
7
  6
CONTINUOUS
 10
-45.2324673008
 20
-26.5014294027
 11
-45.2324673008
 21
-27.1277477619
  0
LINE
  5
339
100
AcDbEntity
  8
IMPORT_IGES
100
AcDbLine
 62
7
  6
CONTINUOUS
 10
-45.0000956103
 20
-40.9935680709
 11
-45.0000956103
 21
-41.4934514258
  0
LINE
  5
33A
100
AcDbEntity
  8
IMPORT_IGES
100
AcDbLine
 62
7
  6
CONTINUOUS
 10
-44.8369703391
 20
-32.1217581773
 11
-44.8369703391
 21
-31.9157414673
  0
LINE
  5
33B
100
AcDbEntity
  8
IMPORT_IGES
100
AcDbLine
 62
7
  6
CONTINUOUS
 10
-44.8369703391
 20
-27.3337644719
 11
-44.8369703391
 21
-26.5014294027
  0
LINE
  5
33C
100
AcDbEntity
  8
IMPORT_IGES
100
AcDbLine
 62
7
  6
CONTINUOUS
 10
-44.8369703391
 20
-17.1163002818
 11
-44.8369703391
 21
-16.7035778426
  0
LINE
  5
33D
100
AcDbEntity
  8
IMPORT_IGES
100
AcDbLine
 62
7
  6
CONTINUOUS
 10
-44.8369703391
 20
-12.1167777136
 11
-44.8369703391
 21
-11.7040552744
  0
LINE
  5
33E
100
AcDbEntity
  8
IMPORT_IGES
100
AcDbLine
 62
7
  6
CONTINUOUS
 10
-44.8094095752
 20
-6.6928193816
 11
-44.8094095752
 21
-6.7124564259
  0
LINE
  5
33F
100
AcDbEntity
  8
IMPORT_IGES
100
AcDbLine
 62
7
  6
CONTINUOUS
 10
-44.8094095752
 20
-11.693719988
 11
-44.8094095752
 21
-12.1278020191
  0
LINE
  5
340
100
AcDbEntity
  8
IMPORT_IGES
100
AcDbLine
 62
7
  6
CONTINUOUS
 10
-44.8094095752
 20
-16.6932425562
 11
-44.8094095752
 21
-17.1276690969
  0
LINE
  5
341
100
AcDbEntity
  8
IMPORT_IGES
100
AcDbLine
 62
7
  6
CONTINUOUS
 10
-44.8094095752
 20
-26.4731796197
 11
-44.8094095752
 21
-27.3337644719
  0
LINE
  5
342
100
AcDbEntity
  8
IMPORT_IGES
100
AcDbLine
 62
7
  6
CONTINUOUS
 10
-44.8094095752
 20
-31.9054061808
 11
-44.8094095752
 21
-32.1217581773
  0
LINE
  5
343
100
AcDbEntity
  8
IMPORT_IGES
100
AcDbLine
 62
7
  6
CONTINUOUS
 10
-44.7499999998
 20
44.7564271716
 11
-44.7499999998
 21
32.5064271716
  0
LINE
  5
344
100
AcDbEntity
  8
IMPORT_IGES
100
AcDbLine
 62
7
  6
CONTINUOUS
 10
-44.5499999998
 20
24.2564271716
 11
-44.5499999998
 21
23.2564271716
  0
LINE
  5
345
100
AcDbEntity
  8
IMPORT_IGES
100
AcDbLine
 62
7
  6
CONTINUOUS
 10
-44.5499999998
 20
-45.7435728284
 11
-44.5499999998
 21
-46.7435728284
  0
LINE
  5
346
100
AcDbEntity
  8
IMPORT_IGES
100
AcDbLine
 62
7
  6
CONTINUOUS
 10
-44.0001566458
 20
-4.2433564916
 11
-44.0001566458
 21
-24.2435138217
  0
LINE
  5
347
100
AcDbEntity
  8
IMPORT_IGES
100
AcDbLine
 62
7
  6
CONTINUOUS
 10
-43.9798493862
 20
-4.2362996502
 11
-43.9798493862
 21
-24.2362996502
  0
LINE
  5
348
100
AcDbEntity
  8
IMPORT_IGES
100
AcDbLine
 62
7
  6
CONTINUOUS
 10
-43.777998439
 20
-4.2362996502
 11
-43.777998439
 21
-24.2362996502
  0
LINE
  5
349
100
AcDbEntity
  8
IMPORT_IGES
100
AcDbLine
 62
7
  6
CONTINUOUS
 10
-43.7500427135
 20
-3.7434731367
 11
-43.7500427135
 21
-4.2362996502
  0
LINE
  5
34A
100
AcDbEntity
  8
IMPORT_IGES
100
AcDbLine
 62
7
  6
CONTINUOUS
 10
-42.7501037489
 20
-4.2362996502
 11
-42.7501037489
 21
-3.7434731367
  0
LINE
  5
34B
100
AcDbEntity
  8
IMPORT_IGES
100
AcDbLine
 62
7
  6
CONTINUOUS
 10
-42.2798493862
 20
-4.2362996502
 11
-42.2798493862
 21
-24.2362996502
  0
LINE
  5
34C
100
AcDbEntity
  8
IMPORT_IGES
100
AcDbLine
 62
7
  6
CONTINUOUS
 10
-32.8294345348
 20
28.0833524847
 11
-33.2430182478
 21
27.666495931
  0
LINE
  5
34D
100
AcDbEntity
  8
IMPORT_IGES
100
AcDbLine
 62
7
  6
CONTINUOUS
 10
-37.8673699177
 20
28.0437338866
 11
-38.2430575803
 21
27.6664959309
  0
LINE
  5
34E
100
AcDbEntity
  8
IMPORT_IGES
100
AcDbLine
 62
7
  6
CONTINUOUS
 10
-36.5282613026
 20
25.6790203456
 11
-36.6534905234
 21
25.5532743604
  0
LINE
  5
34F
100
AcDbEntity
  8
IMPORT_IGES
100
AcDbLine
 62
7
  6
CONTINUOUS
 10
-33.2912495846
 20
26.427295085
 11
-32.8501051077
 21
26.8686118166
  0
LINE
  5
350
100
AcDbEntity
  8
IMPORT_IGES
100
AcDbLine
 62
7
  6
CONTINUOUS
 10
-32.8294345348
 20
26.8117677411
 11
-33.234405509
 21
26.406624512
  0
LINE
  5
351
100
AcDbEntity
  8
IMPORT_IGES
100
AcDbLine
 62
7
  6
CONTINUOUS
 10
-37.7805535115
 20
24.9920683058
 11
-37.9274868339
 21
24.8456517477
  0
LINE
  5
352
100
AcDbEntity
  8
IMPORT_IGES
100
AcDbLine
 62
7
  6
CONTINUOUS
 10
-37.935066044
 20
24.8639107538
 11
-37.7995015366
 21
24.9989584968
  0
LINE
  5
353
100
AcDbEntity
  8
IMPORT_IGES
100
AcDbLine
 62
7
  6
CONTINUOUS
 10
-36.6672709054
 20
25.5670547423
 11
-36.5230936593
 21
25.710715224
  0
LINE
  5
354
100
AcDbEntity
  8
IMPORT_IGES
100
AcDbLine
 62
7
  6
CONTINUOUS
 10
-38.2843987262
 20
27.7078370768
 11
-37.851866988
 21
28.1384740124
  0
LINE
  5
355
100
AcDbEntity
  8
IMPORT_IGES
100
AcDbLine
 62
7
  6
CONTINUOUS
 10
-33.2843593937
 20
27.7078370768
 11
-32.8501051077
 21
28.1384740124
  0
LINE
  5
356
100
AcDbEntity
  8
IMPORT_IGES
100
AcDbLine
 62
7
  6
CONTINUOUS
 10
14.3507558382
 20
-45.8279201223
 11
14.2494699316
 21
-45.8347250056
  0
LWPOLYLINE
  5
357
100
AcDbEntity
  8
IMPORT_IGES
100
AcDbPolyline
 62
7
  6
CONTINUOUS
 90
3
 70
0
 10
14.350755838
 20
-45.8279201503
 10
14.3557251391
 20
-45.8276352484
 10
14.363278126
 20
-45.8272905735
  0
LINE
  5
358
100
AcDbEntity
  8
IMPORT_IGES
100
AcDbLine
 62
7
  6
CONTINUOUS
 10
14.363278126
 20
-45.8272905735
 11
14.3860626826
 21
-45.8264194164
  0
LINE
  5
359
100
AcDbEntity
  8
IMPORT_IGES
100
AcDbLine
 62
7
  6
CONTINUOUS
 10
14.3860626826
 20
-45.8264194164
 11
14.4608160564
 21
-45.8239977557
  0
LINE
  5
35A
100
AcDbEntity
  8
IMPORT_IGES
100
AcDbLine
 62
7
  6
CONTINUOUS
 10
18.9339240382
 20
-45.7075834604
 11
14.4608160564
 21
-45.8239977557
  0
LINE
  5
35B
100
AcDbEntity
  8
IMPORT_IGES
100
AcDbLine
 62
7
  6
CONTINUOUS
 10
26.7500467871
 20
-47.2436603003
 11
26.1476713669
 21
-47.2436603003
  0
LINE
  5
35C
100
AcDbEntity
  8
IMPORT_IGES
100
AcDbLine
 62
7
  6
CONTINUOUS
 10
14.0334713667
 20
-47.1809406973
 11
14.9986713667
 21
-47.1809406973
  0
LINE
  5
35D
100
AcDbEntity
  8
IMPORT_IGES
100
AcDbLine
 62
7
  6
CONTINUOUS
 10
27.3701480527
 20
-47.0348906973
 11
14.3086650996
 21
-47.0348906973
  0
LINE
  5
35E
100
AcDbEntity
  8
IMPORT_IGES
100
AcDbLine
 62
7
  6
CONTINUOUS
 10
10.4500000002
 20
-46.7435728284
 11
9.2500004547
 21
-46.7435728284
  0
LINE
  5
35F
100
AcDbEntity
  8
IMPORT_IGES
100
AcDbLine
 62
7
  6
CONTINUOUS
 10
8.2500000002
 20
-46.7435728284
 11
7.0500000002
 21
-46.7435728284
  0
LINE
  5
360
100
AcDbEntity
  8
IMPORT_IGES
100
AcDbLine
 62
7
  6
CONTINUOUS
 10
-46.7499999998
 20
-46.7435728284
 11
-47.9499999998
 21
-46.7435728284
  0
LINE
  5
361
100
AcDbEntity
  8
IMPORT_IGES
100
AcDbLine
 62
7
  6
CONTINUOUS
 10
-45.7499995453
 20
-46.7435728284
 11
-44.5499999998
 21
-46.7435728284
  0
LINE
  5
362
100
AcDbEntity
  8
IMPORT_IGES
100
AcDbLine
 62
7
  6
CONTINUOUS
 10
13.3476713667
 20
-46.4062406973
 11
14.0334713667
 21
-46.4062406973
  0
LINE
  5
363
100
AcDbEntity
  8
IMPORT_IGES
100
AcDbLine
 62
7
  6
CONTINUOUS
 10
-47.9499999998
 20
-45.7435728284
 11
-46.7499999998
 21
-45.7435728284
  0
LINE
  5
364
100
AcDbEntity
  8
IMPORT_IGES
100
AcDbLine
 62
7
  6
CONTINUOUS
 10
-45.7499999998
 20
-45.7435728284
 11
-44.5499999998
 21
-45.7435728284
  0
LINE
  5
365
100
AcDbEntity
  8
IMPORT_IGES
100
AcDbLine
 62
7
  6
CONTINUOUS
 10
7.0500000002
 20
-45.7435728284
 11
8.2500000002
 21
-45.7435728284
  0
LINE
  5
366
100
AcDbEntity
  8
IMPORT_IGES
100
AcDbLine
 62
7
  6
CONTINUOUS
 10
9.2500000002
 20
-45.7435728284
 11
10.4500000002
 21
-45.7435728284
  0
LINE
  5
367
100
AcDbEntity
  8
IMPORT_IGES
100
AcDbLine
 62
7
  6
CONTINUOUS
 10
32.5000000002
 20
-44.7435728284
 11
44.7500000002
 21
-44.7435728284
  0
LINE
  5
368
100
AcDbEntity
  8
IMPORT_IGES
100
AcDbLine
 62
7
  6
CONTINUOUS
 10
8.2500000002
 20
-44.5435728284
 11
9.2500000002
 21
-44.5435728284
  0
LINE
  5
369
100
AcDbEntity
  8
IMPORT_IGES
100
AcDbLine
 62
7
  6
CONTINUOUS
 10
-45.7499999998
 20
-44.5435728284
 11
-46.7499999998
 21
-44.5435728284
  0
LINE
  5
36A
100
AcDbEntity
  8
IMPORT_IGES
100
AcDbLine
 62
7
  6
CONTINUOUS
 10
14.0334713667
 20
-44.0440406973
 11
13.3476713667
 21
-44.0440406973
  0
LINE
  5
36B
100
AcDbEntity
  8
IMPORT_IGES
100
AcDbLine
 62
7
  6
CONTINUOUS
 10
14.3086650996
 20
-43.4153906973
 11
27.3701480527
 21
-43.4153906973
  0
LINE
  5
36C
100
AcDbEntity
  8
IMPORT_IGES
100
AcDbLine
 62
7
  6
CONTINUOUS
 10
13.3476713668
 20
-43.3503578924
 11
13.164312741
 21
-43.3503578924
  0
LINE
  5
36D
100
AcDbEntity
  8
IMPORT_IGES
100
AcDbLine
 62
7
  6
CONTINUOUS
 10
10.8529981799
 20
-43.3503578924
 11
10.4185716393
 21
-43.3503578924
  0
LINE
  5
36E
100
AcDbEntity
  8
IMPORT_IGES
100
AcDbLine
 62
7
  6
CONTINUOUS
 10
12.3443800155
 20
-43.3372665296
 11
12.3154412135
 21
-43.3372665296
  0
LINE
  5
36F
100
AcDbEntity
  8
IMPORT_IGES
100
AcDbLine
 62
7
  6
CONTINUOUS
 10
11.9213222899
 20
-43.3372665296
 11
11.8923834879
 21
-43.3372665296
  0
LINE
  5
370
100
AcDbEntity
  8
IMPORT_IGES
100
AcDbLine
 62
7
  6
CONTINUOUS
 10
10.4289069257
 20
-43.322452619
 11
10.8416293649
 21
-43.322452619
  0
LINE
  5
371
100
AcDbEntity
  8
IMPORT_IGES
100
AcDbLine
 62
7
  6
CONTINUOUS
 10
13.192562524
 20
-43.322452619
 11
13.3476713668
 21
-43.322452619
  0
LINE
  5
372
100
AcDbEntity
  8
IMPORT_IGES
100
AcDbLine
 62
7
  6
CONTINUOUS
 10
14.9986713667
 20
-43.2693406973
 11
14.0334713667
 21
-43.2693406973
  0
LINE
  5
373
100
AcDbEntity
  8
IMPORT_IGES
100
AcDbLine
 62
7
  6
CONTINUOUS
 10
26.1476713669
 20
-43.2435599324
 11
26.7500467871
 21
-43.2435599324
  0
LINE
  5
374
100
AcDbEntity
  8
IMPORT_IGES
100
AcDbLine
 62
7
  6
CONTINUOUS
 10
26.1476713669
 20
-42.3251406973
 11
13.3476713667
 21
-42.3251406973
  0
LINE
  5
375
100
AcDbEntity
  8
IMPORT_IGES
100
AcDbLine
 62
7
  6
CONTINUOUS
 10
26.2498189226
 20
-42.243448713
 11
13.2497511091
 21
-42.243448713
  0
LINE
  5
376
100
AcDbEntity
  8
IMPORT_IGES
100
AcDbLine
 62
7
  6
CONTINUOUS
 10
-45.7500928975
 20
-42.243448713
 11
-46.2501485071
 21
-42.243448713
  0
LINE
  5
377
100
AcDbEntity
  8
IMPORT_IGES
100
AcDbLine
 62
7
  6
CONTINUOUS
 10
13.8078565776
 20
-42.080151187
 11
13.3951341385
 21
-42.080151187
  0
LINE
  5
378
100
AcDbEntity
  8
IMPORT_IGES
100
AcDbLine
 62
7
  6
CONTINUOUS
 10
10.8416293648
 20
-42.080151187
 11
10.4289069257
 21
-42.080151187
  0
LINE
  5
379
100
AcDbEntity
  8
IMPORT_IGES
100
AcDbLine
 62
7
  6
CONTINUOUS
 10
10.4185716393
 20
-42.0525904231
 11
10.85299818
 21
-42.0525904231
  0
LINE
  5
37A
100
AcDbEntity
  8
IMPORT_IGES
100
AcDbLine
 62
7
  6
CONTINUOUS
 10
13.3847988521
 20
-42.0525904231
 11
13.8188808833
 21
-42.0525904231
  0
LINE
  5
37B
100
AcDbEntity
  8
IMPORT_IGES
100
AcDbLine
 62
7
  6
CONTINUOUS
 10
14.4609405085
 20
-44.6262895736
 11
18.933924039
 21
-44.7426979343
  0
LINE
  5
37C
100
AcDbEntity
  8
IMPORT_IGES
100
AcDbLine
 62
7
  6
CONTINUOUS
 10
14.3864000926
 20
-44.6238702229
 11
14.4609405085
 21
-44.6262895736
  0
LWPOLYLINE
  5
37D
100
AcDbEntity
  8
IMPORT_IGES
100
AcDbPolyline
 62
7
  6
CONTINUOUS
 90
4
 70
0
 10
14.3507558383
 20
-44.6223617278
 10
14.3557947143
 20
-44.6226490762
 10
14.3634455232
 20
-44.6229958194
 10
14.3864000926
 20
-44.6238702229
  0
LINE
  5
37E
100
AcDbEntity
  8
IMPORT_IGES
100
AcDbLine
 62
7
  6
CONTINUOUS
 10
14.3507558385
 20
-44.6223613795
 11
14.2494699438
 21
-44.6155406988
  0
LWPOLYLINE
  5
37F
100
AcDbEntity
  8
IMPORT_IGES
100
AcDbPolyline
 62
7
  6
CONTINUOUS
 90
37
 70
0
 10
18.933924039
 20
-44.7426979343
 10
18.9753342952
 20
-44.7456872032
 10
19.0157341479
 20
-44.7520833732
 10
19.0551235973
 20
-44.7618864444
 10
19.0937731858
 20
-44.7752241506
 10
19.1314123709
 20
-44.7919687578
 10
19.1672295251
 20
-44.8117370647
 10
19.2011832979
 20
-44.8345926451
 10
19.2333150398
 20
-44.8604719251
 10
19.2629371746
 20
-44.8888009817
 10
19.289994701
 20
-44.9196310972
 10
19.3145426205
 20
-44.9529109895
 10
19.336058361
 20
-44.9879128889
 10
19.3544762737
 20
-45.0246719308
 10
19.3698620076
 20
-45.0631529799
 10
19.381889938
 20
-45.1025228616
 10
19.3904885006
 20
-45.1428000913
 10
19.3957292598
 20
-45.1839661535
 10
19.3975012838
 20
-45.2251323269
 10
19.395730653
 20
-45.2662986194
 10
19.3904912871
 20
-45.3074650231
 10
19.3818940129
 20
-45.3477427926
 10
19.3698672599
 20
-45.3871134273
 10
19.3544825986
 20
-45.4255954278
 10
19.3360655674
 20
-45.4623555511
 10
19.3145505056
 20
-45.4973586736
 10
19.2900030738
 20
-45.5306399189
 10
19.2629457919
 20
-45.5614714151
 10
19.2333236429
 20
-45.5898018865
 10
19.2011916439
 20
-45.6156826089
 10
19.1672373654
 20
-45.6385395378
 10
19.1314194396
 20
-45.6583090994
 10
19.0937792345
 20
-45.6750548675
 10
19.0551284243
 20
-45.6883935198
 10
19.0157375673
 20
-45.6981972824
 10
18.9753361052
 20
-45.7045939293
 10
18.9339240382
 20
-45.7075834604
  0
LINE
  5
380
100
AcDbEntity
  8
IMPORT_IGES
100
AcDbLine
 62
7
  6
CONTINUOUS
 10
-44.8652201221
 20
-22.1078991304
 11
-45.6562140455
 21
-21.5149981973
  0
LINE
  5
381
100
AcDbEntity
  8
IMPORT_IGES
100
AcDbLine
 62
7
  6
CONTINUOUS
 10
-45.6837748094
 20
-21.4581541218
 11
-44.7808152827
 21
-22.1364934229
  0
LINE
  5
382
100
AcDbEntity
  8
IMPORT_IGES
100
AcDbLine
 62
7
  6
CONTINUOUS
 10
-44.8369703391
 20
-16.7035778426
 11
-45.0453986159
 21
-16.4968721135
  0
LINE
  5
383
100
AcDbEntity
  8
IMPORT_IGES
100
AcDbLine
 62
7
  6
CONTINUOUS
 10
-47.1985832943
 20
-16.6904864798
 11
-47.462822118
 21
-16.4272811847
  0
LINE
  5
384
100
AcDbEntity
  8
IMPORT_IGES
100
AcDbLine
 62
7
  6
CONTINUOUS
 10
-48.6062493095
 20
-16.3873180771
 11
-48.5786885456
 21
-16.414878841
  0
LINE
  5
385
100
AcDbEntity
  8
IMPORT_IGES
100
AcDbLine
 62
7
  6
CONTINUOUS
 10
-47.449041736
 20
-17.544181141
 11
-47.4766024998
 21
-17.5166203772
  0
LINE
  5
386
100
AcDbEntity
  8
IMPORT_IGES
100
AcDbLine
 62
7
  6
CONTINUOUS
 10
-45.8925475958
 20
-16.4762015406
 11
-45.8718770228
 21
-16.4968721135
  0
LINE
  5
387
100
AcDbEntity
  8
IMPORT_IGES
100
AcDbLine
 62
7
  6
CONTINUOUS
 10
-47.462822118
 20
-16.3756047524
 11
-47.1620652821
 21
-16.6767060979
  0
LINE
  5
388
100
AcDbEntity
  8
IMPORT_IGES
100
AcDbLine
 62
7
  6
CONTINUOUS
 10
-45.4443406732
 20
-17.1163002818
 11
-45.2410800395
 21
-17.3199054249
  0
LINE
  5
389
100
AcDbEntity
  8
IMPORT_IGES
100
AcDbLine
 62
7
  6
CONTINUOUS
 10
-48.8553297131
 20
-17.2410127383
 11
-48.5924689276
 21
-17.5049070525
  0
LINE
  5
38A
100
AcDbEntity
  8
IMPORT_IGES
100
AcDbLine
 62
7
  6
CONTINUOUS
 10
-48.8553297131
 20
-12.2097952917
 11
-48.5855787366
 21
-12.4805797968
  0
LINE
  5
38B
100
AcDbEntity
  8
IMPORT_IGES
100
AcDbLine
 62
7
  6
CONTINUOUS
 10
-48.5924689276
 20
-17.5569279943
 11
-48.8921922348
 21
-17.2558266489
  0
LINE
  5
38C
100
AcDbEntity
  8
IMPORT_IGES
100
AcDbLine
 62
7
  6
CONTINUOUS
 10
-45.8873799526
 20
-17.3484997175
 11
-46.1071770445
 21
-17.1276690969
  0
LINE
  5
38D
100
AcDbEntity
  8
IMPORT_IGES
100
AcDbLine
 62
7
  6
CONTINUOUS
 10
-48.5993591186
 20
-12.5188203567
 11
-48.8921922348
 21
-12.2246092023
  0
LINE
  5
38E
100
AcDbEntity
  8
IMPORT_IGES
100
AcDbLine
 62
7
  6
CONTINUOUS
 10
-45.2521043451
 20
-17.3484997175
 11
-45.4581210551
 21
-17.1414494788
  0
LINE
  5
38F
100
AcDbEntity
  8
IMPORT_IGES
100
AcDbLine
 62
7
  6
CONTINUOUS
 10
-46.0792717711
 20
-17.1163002818
 11
-45.8770446661
 21
-17.3199054249
  0
LINE
  5
390
100
AcDbEntity
  8
IMPORT_IGES
100
AcDbLine
 62
7
  6
CONTINUOUS
 10
-45.0247280431
 20
-16.4762015406
 11
-44.8094095752
 21
-16.6932425562
  0
LINE
  5
391
100
AcDbEntity
  8
IMPORT_IGES
100
AcDbLine
 62
7
  6
CONTINUOUS
 10
-41.4500012706
 20
-50.2436494488
 11
-41.4500000001
 21
-55.7435728284
  0
LINE
  5
392
100
AcDbEntity
  8
IMPORT_IGES
100
AcDbLine
 62
7
  6
CONTINUOUS
 10
-41.4500000002
 20
50.2565037921
 11
-41.4500000001
 21
55.7564271716
  0
LINE
  5
393
100
AcDbEntity
  8
IMPORT_IGES
100
AcDbLine
 62
7
  6
CONTINUOUS
 10
-41.4238174024
 20
55.7564271716
 11
-41.4238174026
 21
50.2565037921
  0
LINE
  5
394
100
AcDbEntity
  8
IMPORT_IGES
100
AcDbLine
 62
7
  6
CONTINUOUS
 10
-41.4238174027
 20
-50.2436494488
 11
-41.4238174027
 21
-55.7435728284
  0
LINE
  5
395
100
AcDbEntity
  8
IMPORT_IGES
100
AcDbLine
 62
7
  6
CONTINUOUS
 10
-40.1801797401
 20
55.7564271716
 11
-40.1801797401
 21
52.326095125
  0
LINE
  5
396
100
AcDbEntity
  8
IMPORT_IGES
100
AcDbLine
 62
7
  6
CONTINUOUS
 10
-40.1801797401
 20
-52.3132407832
 11
-40.1801797401
 21
-55.743572828
  0
LINE
  5
397
100
AcDbEntity
  8
IMPORT_IGES
100
AcDbLine
 62
7
  6
CONTINUOUS
 10
-40.0798493862
 20
-23.5528898626
 11
-40.0798493862
 21
-19.9197094377
  0
LINE
  5
398
100
AcDbEntity
  8
IMPORT_IGES
100
AcDbLine
 62
7
  6
CONTINUOUS
 10
-40.0798493862
 20
-18.5528898626
 11
-40.0798493862
 21
-14.9197094377
  0
LINE
  5
399
100
AcDbEntity
  8
IMPORT_IGES
100
AcDbLine
 62
7
  6
CONTINUOUS
 10
-40.0798493862
 20
-13.5528898626
 11
-40.0798493862
 21
-9.9197094377
  0
LINE
  5
39A
100
AcDbEntity
  8
IMPORT_IGES
100
AcDbLine
 62
7
  6
CONTINUOUS
 10
-40.0798493862
 20
-8.5528898626
 11
-40.0798493862
 21
-4.9197094377
  0
LINE
  5
39B
100
AcDbEntity
  8
IMPORT_IGES
100
AcDbLine
 62
7
  6
CONTINUOUS
 10
-39.3798493862
 20
-23.5528898626
 11
-39.3798493862
 21
-19.9197094377
  0
LINE
  5
39C
100
AcDbEntity
  8
IMPORT_IGES
100
AcDbLine
 62
7
  6
CONTINUOUS
 10
-39.3798493862
 20
-18.5528898626
 11
-39.3798493862
 21
-14.9197094377
  0
LINE
  5
39D
100
AcDbEntity
  8
IMPORT_IGES
100
AcDbLine
 62
7
  6
CONTINUOUS
 10
-39.3798493862
 20
-13.5528898626
 11
-39.3798493862
 21
-9.9197094377
  0
LINE
  5
39E
100
AcDbEntity
  8
IMPORT_IGES
100
AcDbLine
 62
7
  6
CONTINUOUS
 10
-39.3798493862
 20
-8.5528898626
 11
-39.3798493862
 21
-4.9197094377
  0
LINE
  5
39F
100
AcDbEntity
  8
IMPORT_IGES
100
AcDbLine
 62
7
  6
CONTINUOUS
 10
-38.7814336534
 20
23.5838702169
 11
-38.7814336534
 21
23.3338702169
  0
LINE
  5
3A0
100
AcDbEntity
  8
IMPORT_IGES
100
AcDbLine
 62
7
  6
CONTINUOUS
 10
-38.7814336534
 20
23.8963702169
 11
-38.7814336534
 21
24.1463702169
  0
LINE
  5
3A1
100
AcDbEntity
  8
IMPORT_IGES
100
AcDbLine
 62
7
  6
CONTINUOUS
 10
-38.7501836534
 20
23.3338702169
 11
-38.7501836534
 21
23.2869952169
  0
LINE
  5
3A2
100
AcDbEntity
  8
IMPORT_IGES
100
AcDbLine
 62
7
  6
CONTINUOUS
 10
-38.7501836534
 20
24.1463702169
 11
-38.7501836534
 21
24.1932452169
  0
LINE
  5
3A3
100
AcDbEntity
  8
IMPORT_IGES
100
AcDbLine
 62
7
  6
CONTINUOUS
 10
-38.7501756358
 20
23.131544489
 11
-38.7501756358
 21
23.2869952169
  0
LINE
  5
3A4
100
AcDbEntity
  8
IMPORT_IGES
100
AcDbLine
 62
7
  6
CONTINUOUS
 10
-38.7501756358
 20
23.5838702169
 11
-38.7501756358
 21
23.8963702169
  0
LINE
  5
3A5
100
AcDbEntity
  8
IMPORT_IGES
100
AcDbLine
 62
7
  6
CONTINUOUS
 10
-38.7501756358
 20
24.1932452169
 11
-38.7501756358
 21
24.3815973858
  0
LINE
  5
3A6
100
AcDbEntity
  8
IMPORT_IGES
100
AcDbLine
 62
7
  6
CONTINUOUS
 10
-38.5001836534
 20
23.3338702169
 11
-38.5001836534
 21
24.1463702169
  0
LINE
  5
3A7
100
AcDbEntity
  8
IMPORT_IGES
100
AcDbLine
 62
7
  6
CONTINUOUS
 10
-38.3751836534
 20
24.1932452169
 11
-38.3751836534
 21
23.2869952169
  0
LINE
  5
3A8
100
AcDbEntity
  8
IMPORT_IGES
100
AcDbLine
 62
7
  6
CONTINUOUS
 10
-38.3750047374
 20
23.131544489
 11
-38.3750047374
 21
23.2869952169
  0
LINE
  5
3A9
100
AcDbEntity
  8
IMPORT_IGES
100
AcDbLine
 62
7
  6
CONTINUOUS
 10
-38.3750047374
 20
24.1932452169
 11
-38.3750047374
 21
24.3815973858
  0
LINE
  5
3AA
100
AcDbEntity
  8
IMPORT_IGES
100
AcDbLine
 62
7
  6
CONTINUOUS
 10
-38.3550231836
 20
24.8456517477
 11
-38.3550231836
 21
24.8639107538
  0
LINE
  5
3AB
100
AcDbEntity
  8
IMPORT_IGES
100
AcDbLine
 62
7
  6
CONTINUOUS
 10
-38.3550231836
 20
25.692456218
 11
-38.3550231836
 21
25.7107152241
  0
LINE
  5
3AC
100
AcDbEntity
  8
IMPORT_IGES
100
AcDbLine
 62
7
  6
CONTINUOUS
 10
-38.3174333826
 20
23.2869952169
 11
-38.3174333826
 21
24.1932452169
  0
LINE
  5
3AD
100
AcDbEntity
  8
IMPORT_IGES
100
AcDbLine
 62
7
  6
CONTINUOUS
 10
-38.2637281533
 20
25.5432835835
 11
-38.2637281533
 21
25.5984051112
  0
LINE
  5
3AE
100
AcDbEntity
  8
IMPORT_IGES
100
AcDbLine
 62
7
  6
CONTINUOUS
 10
-38.2229037718
 20
24.8639107538
 11
-38.2229037718
 21
25.692456218
  0
LINE
  5
3AF
100
AcDbEntity
  8
IMPORT_IGES
100
AcDbLine
 62
7
  6
CONTINUOUS
 10
-38.2044725109
 20
25.692456218
 11
-38.2044725109
 21
24.8639107538
  0
LINE
  5
3B0
100
AcDbEntity
  8
IMPORT_IGES
100
AcDbLine
 62
7
  6
CONTINUOUS
 10
-37.8673699177
 20
25.5984051112
 11
-37.8673699177
 21
28.0437338866
  0
LINE
  5
3B1
100
AcDbEntity
  8
IMPORT_IGES
100
AcDbLine
 62
7
  6
CONTINUOUS
 10
-37.8122483899
 20
28.1384740125
 11
-37.8122483899
 21
25.5984051112
  0
LINE
  5
3B2
100
AcDbEntity
  8
IMPORT_IGES
100
AcDbLine
 62
7
  6
CONTINUOUS
 10
-37.7995015366
 20
24.9989584968
 11
-37.7995015366
 21
25.5567194558
  0
LINE
  5
3B3
100
AcDbEntity
  8
IMPORT_IGES
100
AcDbLine
 62
7
  6
CONTINUOUS
 10
-37.7805535115
 20
25.5636096468
 11
-37.7805535115
 21
24.9920683058
  0
LINE
  5
3B4
100
AcDbEntity
  8
IMPORT_IGES
100
AcDbLine
 62
7
  6
CONTINUOUS
 10
-37.5168314521
 20
24.8456517477
 11
-37.5168314521
 21
25.7014134662
  0
LINE
  5
3B5
100
AcDbEntity
  8
IMPORT_IGES
100
AcDbLine
 62
7
  6
CONTINUOUS
 10
-37.4978834269
 20
25.7014134662
 11
-37.4978834269
 21
24.8639107537
  0
LINE
  5
3B6
100
AcDbEntity
  8
IMPORT_IGES
100
AcDbLine
 62
7
  6
CONTINUOUS
 10
-37.4158901543
 20
25.5984051112
 11
-37.4158901543
 21
25.5432835834
  0
LINE
  5
3B7
100
AcDbEntity
  8
IMPORT_IGES
100
AcDbLine
 62
7
  6
CONTINUOUS
 10
-37.2500088067
 20
-3.7434731367
 11
-37.2500088067
 21
-4.2362996502
  0
LINE
  5
3B8
100
AcDbEntity
  8
IMPORT_IGES
100
AcDbLine
 62
7
  6
CONTINUOUS
 10
-37.1829339242
 20
23.2869952169
 11
-37.1829339242
 21
24.1932452169
  0
LINE
  5
3B9
100
AcDbEntity
  8
IMPORT_IGES
100
AcDbLine
 62
7
  6
CONTINUOUS
 10
-37.1798493862
 20
-24.2362996502
 11
-37.1798493862
 21
-4.2362996502
  0
LINE
  5
3BA
100
AcDbEntity
  8
IMPORT_IGES
100
AcDbLine
 62
7
  6
CONTINUOUS
 10
-37.1251836534
 20
24.1932452169
 11
-37.1251836534
 21
23.2869952169
  0
LINE
  5
3BB
100
AcDbEntity
  8
IMPORT_IGES
100
AcDbLine
 62
7
  6
CONTINUOUS
 10
-37.1251240954
 20
23.131544489
 11
-37.1251240954
 21
23.2869952169
  0
LINE
  5
3BC
100
AcDbEntity
  8
IMPORT_IGES
100
AcDbLine
 62
7
  6
CONTINUOUS
 10
-37.1251240954
 20
24.1932452169
 11
-37.1251240954
 21
24.3815973858
  0
LINE
  5
3BD
100
AcDbEntity
  8
IMPORT_IGES
100
AcDbLine
 62
7
  6
CONTINUOUS
 10
-37.0001836534
 20
23.3338702169
 11
-37.0001836534
 21
24.1463702169
  0
LINE
  5
3BE
100
AcDbEntity
  8
IMPORT_IGES
100
AcDbLine
 62
7
  6
CONTINUOUS
 10
-36.9428785442
 20
24.8639107538
 11
-36.9428785442
 21
24.8456517477
  0
LINE
  5
3BF
100
AcDbEntity
  8
IMPORT_IGES
100
AcDbLine
 62
7
  6
CONTINUOUS
 10
-36.7501836534
 20
24.1932452169
 11
-36.7501836534
 21
24.1463702169
  0
LINE
  5
3C0
100
AcDbEntity
  8
IMPORT_IGES
100
AcDbLine
 62
7
  6
CONTINUOUS
 10
-36.7501836534
 20
23.2869952169
 11
-36.7501836534
 21
23.3338702169
  0
LINE
  5
3C1
100
AcDbEntity
  8
IMPORT_IGES
100
AcDbLine
 62
7
  6
CONTINUOUS
 10
-36.7501254518
 20
24.3815973858
 11
-36.7501254518
 21
24.1932452169
  0
LINE
  5
3C2
100
AcDbEntity
  8
IMPORT_IGES
100
AcDbLine
 62
7
  6
CONTINUOUS
 10
-36.7501254518
 20
23.8963702169
 11
-36.7501254518
 21
23.5838702169
  0
LINE
  5
3C3
100
AcDbEntity
  8
IMPORT_IGES
100
AcDbLine
 62
7
  6
CONTINUOUS
 10
-36.7501254518
 20
23.2869952169
 11
-36.7501254518
 21
23.131544489
  0
LINE
  5
3C4
100
AcDbEntity
  8
IMPORT_IGES
100
AcDbLine
 62
7
  6
CONTINUOUS
 10
-36.7189336534
 20
23.3338702169
 11
-36.7189336534
 21
23.5838702169
  0
LINE
  5
3C5
100
AcDbEntity
  8
IMPORT_IGES
100
AcDbLine
 62
7
  6
CONTINUOUS
 10
-36.7189336534
 20
23.8963702169
 11
-36.7189336534
 21
24.1463702169
  0
LINE
  5
3C6
100
AcDbEntity
  8
IMPORT_IGES
100
AcDbLine
 62
7
  6
CONTINUOUS
 10
-36.6603807144
 20
24.8456517477
 11
-36.6603807144
 21
24.8639107538
  0
LINE
  5
3C7
100
AcDbEntity
  8
IMPORT_IGES
100
AcDbLine
 62
7
  6
CONTINUOUS
 10
-36.650045428
 20
19.0565132943
 11
-36.650045428
 21
18.4565499155
  0
LINE
  5
3C8
100
AcDbEntity
  8
IMPORT_IGES
100
AcDbLine
 62
7
  6
CONTINUOUS
 10
-36.650045428
 20
15.0565851811
 11
-36.650045428
 21
14.4564495475
  0
LINE
  5
3C9
100
AcDbEntity
  8
IMPORT_IGES
100
AcDbLine
 62
7
  6
CONTINUOUS
 10
-36.6404866627
 20
14.3935156191
 11
-36.6404866627
 21
15.1435156191
  0
LINE
  5
3CA
100
AcDbEntity
  8
IMPORT_IGES
100
AcDbLine
 62
7
  6
CONTINUOUS
 10
-36.6404866627
 20
18.3935156191
 11
-36.6404866627
 21
19.1435156191
  0
LINE
  5
3CB
100
AcDbEntity
  8
IMPORT_IGES
100
AcDbLine
 62
7
  6
CONTINUOUS
 10
-33.8140428245
 20
20.1706571742
 11
-32.9670660994
 21
21.44051937
  0
LINE
  5
3CC
100
AcDbEntity
  8
IMPORT_IGES
100
AcDbLine
 62
7
  6
CONTINUOUS
 10
-32.9420891572
 20
21.4267389881
 11
-33.7899271561
 21
20.1565322827
  0
LINE
  5
3CD
100
AcDbEntity
  8
IMPORT_IGES
100
AcDbLine
 62
7
  6
CONTINUOUS
 10
-31.5154751168
 20
25.692456218
 11
-31.6534511909
 21
25.5532743604
  0
LINE
  5
3CE
100
AcDbEntity
  8
IMPORT_IGES
100
AcDbLine
 62
7
  6
CONTINUOUS
 10
-34.4519022536
 20
21.4002117529
 11
-34.6396599575
 21
21.2114205203
  0
LINE
  5
3CF
100
AcDbEntity
  8
IMPORT_IGES
100
AcDbLine
 62
7
  6
CONTINUOUS
 10
-31.2403842423
 20
25.2873129889
 11
-31.1048197349
 21
25.423049751
  0
LINE
  5
3D0
100
AcDbEntity
  8
IMPORT_IGES
100
AcDbLine
 62
7
  6
CONTINUOUS
 10
-31.0858717097
 20
25.415470541
 11
-31.2328050321
 21
25.2683649638
  0
LINE
  5
3D1
100
AcDbEntity
  8
IMPORT_IGES
100
AcDbLine
 62
7
  6
CONTINUOUS
 10
-35.0592725877
 20
21.0047147912
 11
-35.2799309535
 21
20.7838841706
  0
LINE
  5
3D2
100
AcDbEntity
  8
IMPORT_IGES
100
AcDbLine
 62
7
  6
CONTINUOUS
 10
-31.6694708849
 20
25.1402074117
 11
-31.5223653076
 21
25.2873129889
  0
LINE
  5
3D3
100
AcDbEntity
  8
IMPORT_IGES
100
AcDbLine
 62
7
  6
CONTINUOUS
 10
-31.5154751168
 20
25.2683649637
 11
-31.6505228598
 21
25.1333172207
  0
LINE
  5
3D4
100
AcDbEntity
  8
IMPORT_IGES
100
AcDbLine
 62
7
  6
CONTINUOUS
 10
-34.8404866627
 20
19.5810156191
 11
-34.5279866627
 21
19.8935156191
  0
LINE
  5
3D5
100
AcDbEntity
  8
IMPORT_IGES
100
AcDbLine
 62
7
  6
CONTINUOUS
 10
-32.0038174018
 20
26.8686118166
 11
-31.5971238797
 21
27.2751330838
  0
LINE
  5
3D6
100
AcDbEntity
  8
IMPORT_IGES
100
AcDbLine
 62
7
  6
CONTINUOUS
 10
-31.5402798043
 20
27.2527399632
 11
-31.9814242811
 21
26.8117677411
  0
LINE
  5
3D7
100
AcDbEntity
  8
IMPORT_IGES
100
AcDbLine
 62
7
  6
CONTINUOUS
 10
-35.2911275138
 20
20.8124784631
 11
-35.0876946254
 21
21.0157390967
  0
LINE
  5
3D8
100
AcDbEntity
  8
IMPORT_IGES
100
AcDbLine
 62
7
  6
CONTINUOUS
 10
-32.7805141789
 20
24.9920683058
 11
-32.9274475013
 21
24.8456517477
  0
LINE
  5
3D9
100
AcDbEntity
  8
IMPORT_IGES
100
AcDbLine
 62
7
  6
CONTINUOUS
 10
-32.9350267115
 20
24.8639107538
 11
-32.7994622041
 21
24.9989584968
  0
LINE
  5
3DA
100
AcDbEntity
  8
IMPORT_IGES
100
AcDbLine
 62
7
  6
CONTINUOUS
 10
-34.6603305305
 20
21.2320910932
 11
-34.4441507888
 21
21.447409561
  0
LINE
  5
3DB
100
AcDbEntity
  8
IMPORT_IGES
100
AcDbLine
 62
7
  6
CONTINUOUS
 10
-31.6672315729
 20
25.5670547423
 11
-31.5223653077
 21
25.710715224
  0
LINE
  5
3DC
100
AcDbEntity
  8
IMPORT_IGES
100
AcDbLine
 62
7
  6
CONTINUOUS
 10
-45.0000956103
 20
-41.4934514259
 11
-45.7500928974
 21
-41.4934514259
  0
LINE
  5
3DD
100
AcDbEntity
  8
IMPORT_IGES
100
AcDbLine
 62
7
  6
CONTINUOUS
 10
-46.2501485072
 20
-41.4934514259
 11
-47.0001457943
 21
-41.4934514259
  0
LINE
  5
3DE
100
AcDbEntity
  8
IMPORT_IGES
100
AcDbLine
 62
7
  6
CONTINUOUS
 10
-47.0001457943
 20
-40.9935680709
 11
-45.0000956103
 21
-40.9935680709
  0
LINE
  5
3DF
100
AcDbEntity
  8
IMPORT_IGES
100
AcDbLine
 62
7
  6
CONTINUOUS
 10
-46.2501485072
 20
-40.2435707838
 11
-45.7500928975
 21
-40.2435707838
  0
LINE
  5
3E0
100
AcDbEntity
  8
IMPORT_IGES
100
AcDbLine
 62
7
  6
CONTINUOUS
 10
-46.2501485072
 20
-38.2433483451
 11
-45.7500928975
 21
-38.2433483451
  0
LINE
  5
3E1
100
AcDbEntity
  8
IMPORT_IGES
100
AcDbLine
 62
7
  6
CONTINUOUS
 10
-44.8369703391
 20
-11.7040552744
 11
-45.0453986159
 21
-11.4973495453
  0
LINE
  5
3E2
100
AcDbEntity
  8
IMPORT_IGES
100
AcDbLine
 62
7
  6
CONTINUOUS
 10
-45.2521043451
 20
-12.3482881302
 11
-45.4729349657
 21
-12.1278020191
  0
LINE
  5
3E3
100
AcDbEntity
  8
IMPORT_IGES
100
AcDbLine
 62
7
  6
CONTINUOUS
 10
-34.3363193001
 20
-20.3119708539
 11
-34.751453306
 21
-19.8971813575
  0
LINE
  5
3E4
100
AcDbEntity
  8
IMPORT_IGES
100
AcDbLine
 62
7
  6
CONTINUOUS
 10
-45.4443406732
 20
-12.1167777136
 11
-45.2410800395
 21
-12.3200383472
  0
LINE
  5
3E5
100
AcDbEntity
  8
IMPORT_IGES
100
AcDbLine
 62
7
  6
CONTINUOUS
 10
-45.6648267842
 20
-11.4732338769
 11
-45.4443406731
 21
-11.693719988
  0
LINE
  5
3E6
100
AcDbEntity
  8
IMPORT_IGES
100
AcDbLine
 62
7
  6
CONTINUOUS
 10
-35.3918965568
 20
-18.6014809455
 11
-35.3712259838
 21
-18.6221515184
  0
LINE
  5
3E7
100
AcDbEntity
  8
IMPORT_IGES
100
AcDbLine
 62
7
  6
CONTINUOUS
 10
-45.4729349657
 20
-11.7040552744
 11
-45.6751620706
 21
-11.5014836599
  0
LINE
  5
3E8
100
AcDbEntity
  8
IMPORT_IGES
100
AcDbLine
 62
7
  6
CONTINUOUS
 10
-34.7404290005
 20
-19.8689315745
 11
-34.3087585362
 21
-20.3016355674
  0
LINE
  5
3E9
100
AcDbEntity
  8
IMPORT_IGES
100
AcDbLine
 62
7
  6
CONTINUOUS
 10
-35.3867289135
 20
-19.4734346128
 11
-35.6065260054
 21
-19.2529485017
  0
LINE
  5
3EA
100
AcDbEntity
  8
IMPORT_IGES
100
AcDbLine
 62
7
  6
CONTINUOUS
 10
-35.3867289135
 20
-20.7443303373
 11
-35.6065260054
 21
-20.5234997167
  0
LINE
  5
3EB
100
AcDbEntity
  8
IMPORT_IGES
100
AcDbLine
 62
7
  6
CONTINUOUS
 10
-35.5786207321
 20
-20.5124754111
 11
-35.3763936271
 21
-20.7157360448
  0
LINE
  5
3EC
100
AcDbEntity
  8
IMPORT_IGES
100
AcDbLine
 62
7
  6
CONTINUOUS
 10
-35.5786207321
 20
-19.2415796866
 11
-35.3763936271
 21
-19.4451848298
  0
LINE
  5
3ED
100
AcDbEntity
  8
IMPORT_IGES
100
AcDbLine
 62
7
  6
CONTINUOUS
 10
-45.0247280431
 20
-11.4766789724
 11
-44.8094095752
 21
-11.693719988
  0
LINE
  5
3EE
100
AcDbEntity
  8
IMPORT_IGES
100
AcDbLine
 62
7
  6
CONTINUOUS
 10
-36.5282613026
 20
24.8639107538
 11
-36.5282613026
 21
25.6790203456
  0
LINE
  5
3EF
100
AcDbEntity
  8
IMPORT_IGES
100
AcDbLine
 62
7
  6
CONTINUOUS
 10
-36.5098300417
 20
25.710715224
 11
-36.5098300417
 21
24.8639107537
  0
LINE
  5
3F0
100
AcDbEntity
  8
IMPORT_IGES
100
AcDbLine
 62
7
  6
CONTINUOUS
 10
-36.3904866627
 20
19.5685156191
 11
-36.3904866627
 21
19.1435156191
  0
LINE
  5
3F1
100
AcDbEntity
  8
IMPORT_IGES
100
AcDbLine
 62
7
  6
CONTINUOUS
 10
-36.3904866627
 20
18.3935156191
 11
-36.3904866627
 21
15.1435156191
  0
LINE
  5
3F2
100
AcDbEntity
  8
IMPORT_IGES
100
AcDbLine
 62
7
  6
CONTINUOUS
 10
-36.3904866627
 20
14.3935156191
 11
-36.3904866627
 21
13.9685156191
  0
LINE
  5
3F3
100
AcDbEntity
  8
IMPORT_IGES
100
AcDbLine
 62
7
  6
CONTINUOUS
 10
-36.3777106299
 20
24.8639107538
 11
-36.3777106299
 21
24.8456517477
  0
LINE
  5
3F4
100
AcDbEntity
  8
IMPORT_IGES
100
AcDbLine
 62
7
  6
CONTINUOUS
 10
-36.3754866627
 20
14.8035156191
 11
-36.3754866627
 21
18.7335156191
  0
LINE
  5
3F5
100
AcDbEntity
  8
IMPORT_IGES
100
AcDbLine
 62
7
  6
CONTINUOUS
 10
-36.3654866627
 20
17.9810156191
 11
-36.3654866627
 21
13.9560156191
  0
LINE
  5
3F6
100
AcDbEntity
  8
IMPORT_IGES
100
AcDbLine
 62
7
  6
CONTINUOUS
 10
-36.350149866
 20
19.9565444898
 11
-36.350149866
 21
19.5685156191
  0
LINE
  5
3F7
100
AcDbEntity
  8
IMPORT_IGES
100
AcDbLine
 62
7
  6
CONTINUOUS
 10
-36.350149866
 20
13.9560156191
 11
-36.350149866
 21
13.5565906068
  0
LINE
  5
3F8
100
AcDbEntity
  8
IMPORT_IGES
100
AcDbLine
 62
7
  6
CONTINUOUS
 10
-36.3404866627
 20
19.4310156191
 11
-36.3404866627
 21
18.8298224205
  0
LINE
  5
3F9
100
AcDbEntity
  8
IMPORT_IGES
100
AcDbLine
 62
7
  6
CONTINUOUS
 10
-36.2798493862
 20
-22.4862996502
 11
-36.2798493862
 21
-20.9862996502
  0
LINE
  5
3FA
100
AcDbEntity
  8
IMPORT_IGES
100
AcDbLine
 62
7
  6
CONTINUOUS
 10
-36.2798493862
 20
-17.4862996502
 11
-36.2798493862
 21
-15.9862996502
  0
LINE
  5
3FB
100
AcDbEntity
  8
IMPORT_IGES
100
AcDbLine
 62
7
  6
CONTINUOUS
 10
-36.2798493862
 20
-12.4862996502
 11
-36.2798493862
 21
-10.9862996502
  0
LINE
  5
3FC
100
AcDbEntity
  8
IMPORT_IGES
100
AcDbLine
 62
7
  6
CONTINUOUS
 10
-36.2798493862
 20
-7.4862996502
 11
-36.2798493862
 21
-5.9862996502
  0
LINE
  5
3FD
100
AcDbEntity
  8
IMPORT_IGES
100
AcDbLine
 62
7
  6
CONTINUOUS
 10
-36.2654866627
 20
19.5810156191
 11
-36.2654866627
 21
19.4310156191
  0
LINE
  5
3FE
100
AcDbEntity
  8
IMPORT_IGES
100
AcDbLine
 62
7
  6
CONTINUOUS
 10
-36.2654866627
 20
18.9810156191
 11
-36.2654866627
 21
17.9810156191
  0
LINE
  5
3FF
100
AcDbEntity
  8
IMPORT_IGES
100
AcDbLine
 62
7
  6
CONTINUOUS
 10
-36.2500698421
 20
-4.2362996502
 11
-36.2500698421
 21
-3.7434731367
  0
LINE
  5
400
100
AcDbEntity
  8
IMPORT_IGES
100
AcDbLine
 62
7
  6
CONTINUOUS
 10
-35.9454866627
 20
13.9560156191
 11
-35.9454866627
 21
13.7560156191
  0
LINE
  5
401
100
AcDbEntity
  8
IMPORT_IGES
100
AcDbLine
 62
7
  6
CONTINUOUS
 10
-35.9454866627
 20
19.5810156191
 11
-35.9454866627
 21
19.7810156191
  0
LINE
  5
402
100
AcDbEntity
  8
IMPORT_IGES
100
AcDbLine
 62
7
  6
CONTINUOUS
 10
-35.9346713505
 20
20.1627334546
 11
-35.9346713505
 21
21.447409561
  0
LINE
  5
403
100
AcDbEntity
  8
IMPORT_IGES
100
AcDbLine
 62
7
  6
CONTINUOUS
 10
-35.9062493127
 20
21.4198487972
 11
-35.9062493127
 21
20.8124784631
  0
LINE
  5
404
100
AcDbEntity
  8
IMPORT_IGES
100
AcDbLine
 62
7
  6
CONTINUOUS
 10
-35.9062493127
 20
20.7838841706
 11
-35.9062493127
 21
20.1627334546
  0
LINE
  5
405
100
AcDbEntity
  8
IMPORT_IGES
100
AcDbLine
 62
7
  6
CONTINUOUS
 10
-35.7798493862
 20
-4.2362996502
 11
-35.7798493862
 21
-24.2362996502
  0
LINE
  5
406
100
AcDbEntity
  8
IMPORT_IGES
100
AcDbLine
 62
7
  6
CONTINUOUS
 10
-35.6065260055
 20
-20.5234997167
 11
-35.6065260055
 21
-20.0894176855
  0
LINE
  5
407
100
AcDbEntity
  8
IMPORT_IGES
100
AcDbLine
 62
7
  6
CONTINUOUS
 10
-35.6065260055
 20
-19.2529485017
 11
-35.6065260055
 21
-18.818521961
  0
LINE
  5
408
100
AcDbEntity
  8
IMPORT_IGES
100
AcDbLine
 62
7
  6
CONTINUOUS
 10
-35.5786207321
 20
-18.8288572475
 11
-35.5786207321
 21
-19.2415796866
  0
LINE
  5
409
100
AcDbEntity
  8
IMPORT_IGES
100
AcDbLine
 62
7
  6
CONTINUOUS
 10
-35.5786207321
 20
-20.099752972
 11
-35.5786207321
 21
-20.5124754111
  0
LINE
  5
40A
100
AcDbEntity
  8
IMPORT_IGES
100
AcDbLine
 62
7
  6
CONTINUOUS
 10
-35.2904866627
 20
19.7810156191
 11
-35.2904866627
 21
19.5810156191
  0
LINE
  5
40B
100
AcDbEntity
  8
IMPORT_IGES
100
AcDbLine
 62
7
  6
CONTINUOUS
 10
-35.2904866627
 20
13.7560156191
 11
-35.2904866627
 21
13.9560156191
  0
LINE
  5
40C
100
AcDbEntity
  8
IMPORT_IGES
100
AcDbLine
 62
7
  6
CONTINUOUS
 10
-35.0876946254
 20
21.0157390967
 11
-35.0876946254
 21
21.2165881635
  0
LINE
  5
40D
100
AcDbEntity
  8
IMPORT_IGES
100
AcDbLine
 62
7
  6
CONTINUOUS
 10
-35.0592725877
 20
21.22692345
 11
-35.0592725877
 21
21.0047147912
  0
LINE
  5
40E
100
AcDbEntity
  8
IMPORT_IGES
100
AcDbLine
 62
7
  6
CONTINUOUS
 10
-35.0404866627
 20
19.9185156191
 11
-35.0404866627
 21
19.8685156191
  0
LINE
  5
40F
100
AcDbEntity
  8
IMPORT_IGES
100
AcDbLine
 62
7
  6
CONTINUOUS
 10
-35.0404866627
 20
13.6685156191
 11
-35.0404866627
 21
13.6185156191
  0
LINE
  5
410
100
AcDbEntity
  8
IMPORT_IGES
100
AcDbLine
 62
7
  6
CONTINUOUS
 10
-34.9722839267
 20
-20.5124754111
 11
-34.9722839267
 21
-19.8971813575
  0
LINE
  5
411
100
AcDbEntity
  8
IMPORT_IGES
100
AcDbLine
 62
7
  6
CONTINUOUS
 10
-34.9436896341
 20
-19.8971813575
 11
-34.9436896341
 21
-20.5234997167
  0
LINE
  5
412
100
AcDbEntity
  8
IMPORT_IGES
100
AcDbLine
 62
7
  6
CONTINUOUS
 10
-34.649995244
 20
20.1496420917
 11
-34.649995244
 21
20.1775473651
  0
LINE
  5
413
100
AcDbEntity
  8
IMPORT_IGES
100
AcDbLine
 62
7
  6
CONTINUOUS
 10
-34.4519022536
 20
20.1775473652
 11
-34.4519022536
 21
21.4002117529
  0
LINE
  5
414
100
AcDbEntity
  8
IMPORT_IGES
100
AcDbLine
 62
7
  6
CONTINUOUS
 10
-34.4243414897
 20
21.447409561
 11
-34.4243414897
 21
20.1775473651
  0
LINE
  5
415
100
AcDbEntity
  8
IMPORT_IGES
100
AcDbLine
 62
7
  6
CONTINUOUS
 10
-34.3363193001
 20
-20.5176430544
 11
-34.3363193001
 21
-20.3119708539
  0
LINE
  5
416
100
AcDbEntity
  8
IMPORT_IGES
100
AcDbLine
 62
7
  6
CONTINUOUS
 10
-34.3225389181
 20
-19.4451848298
 11
-34.3225389181
 21
-19.4734346128
  0
LINE
  5
417
100
AcDbEntity
  8
IMPORT_IGES
100
AcDbLine
 62
7
  6
CONTINUOUS
 10
-34.3087585362
 20
-20.3016355674
 11
-34.3087585362
 21
-20.5176430544
  0
LINE
  5
418
100
AcDbEntity
  8
IMPORT_IGES
100
AcDbLine
 62
7
  6
CONTINUOUS
 10
-34.2985955045
 20
-5.8701305797
 11
-34.2985955045
 21
-4.8162758708
  0
LINE
  5
419
100
AcDbEntity
  8
IMPORT_IGES
100
AcDbLine
 62
7
  6
CONTINUOUS
 10
-34.2701734668
 20
-4.8162758708
 11
-34.2701734668
 21
-5.8804658662
  0
LINE
  5
41A
100
AcDbEntity
  8
IMPORT_IGES
100
AcDbLine
 62
7
  6
CONTINUOUS
 10
-34.2260762446
 20
20.1775473652
 11
-34.2260762446
 21
20.1496420917
  0
LINE
  5
41B
100
AcDbEntity
  8
IMPORT_IGES
100
AcDbLine
 62
7
  6
CONTINUOUS
 10
-33.8746765051
 20
-5.2538029974
 11
-33.8746765051
 21
-4.8024954889
  0
LINE
  5
41C
100
AcDbEntity
  8
IMPORT_IGES
100
AcDbLine
 62
7
  6
CONTINUOUS
 10
-33.8462544673
 20
-4.8300562527
 11
-33.8462544673
 21
-5.2255532144
  0
LINE
  5
41D
100
AcDbEntity
  8
IMPORT_IGES
100
AcDbLine
 62
7
  6
CONTINUOUS
 10
-33.7788531271
 20
23.5838702169
 11
-33.7788531271
 21
23.3338702169
  0
LINE
  5
41E
100
AcDbEntity
  8
IMPORT_IGES
100
AcDbLine
 62
7
  6
CONTINUOUS
 10
-33.7788531271
 20
23.8963702169
 11
-33.7788531271
 21
24.1463702169
  0
LINE
  5
41F
100
AcDbEntity
  8
IMPORT_IGES
100
AcDbLine
 62
7
  6
CONTINUOUS
 10
-33.7501363033
 20
23.131544489
 11
-33.7501363033
 21
23.2869952169
  0
LINE
  5
420
100
AcDbEntity
  8
IMPORT_IGES
100
AcDbLine
 62
7
  6
CONTINUOUS
 10
-33.7501363033
 20
23.5838702169
 11
-33.7501363033
 21
23.8963702169
  0
LINE
  5
421
100
AcDbEntity
  8
IMPORT_IGES
100
AcDbLine
 62
7
  6
CONTINUOUS
 10
-33.7501363033
 20
24.1932452169
 11
-33.7501363033
 21
24.3815973858
  0
LINE
  5
422
100
AcDbEntity
  8
IMPORT_IGES
100
AcDbLine
 62
7
  6
CONTINUOUS
 10
-33.7476031271
 20
23.3338702169
 11
-33.7476031271
 21
23.2869952169
  0
LINE
  5
423
100
AcDbEntity
  8
IMPORT_IGES
100
AcDbLine
 62
7
  6
CONTINUOUS
 10
-33.7476031271
 20
24.1463702169
 11
-33.7476031271
 21
24.1932452169
  0
LINE
  5
424
100
AcDbEntity
  8
IMPORT_IGES
100
AcDbLine
 62
7
  6
CONTINUOUS
 10
-33.4976031271
 20
23.3338702169
 11
-33.4976031271
 21
24.1463702169
  0
LINE
  5
425
100
AcDbEntity
  8
IMPORT_IGES
100
AcDbLine
 62
7
  6
CONTINUOUS
 10
-33.3751376597
 20
23.131544489
 11
-33.3751376597
 21
23.2869952169
  0
LINE
  5
426
100
AcDbEntity
  8
IMPORT_IGES
100
AcDbLine
 62
7
  6
CONTINUOUS
 10
-33.3751376597
 20
24.1932452169
 11
-33.3751376597
 21
24.3815973858
  0
LINE
  5
427
100
AcDbEntity
  8
IMPORT_IGES
100
AcDbLine
 62
7
  6
CONTINUOUS
 10
-33.3726031271
 20
24.1932452169
 11
-33.3726031271
 21
23.2869952169
  0
LINE
  5
428
100
AcDbEntity
  8
IMPORT_IGES
100
AcDbLine
 62
7
  6
CONTINUOUS
 10
-33.3549838511
 20
24.8456517477
 11
-33.3549838511
 21
24.8639107538
  0
LINE
  5
429
100
AcDbEntity
  8
IMPORT_IGES
100
AcDbLine
 62
7
  6
CONTINUOUS
 10
-33.3549838511
 20
25.692456218
 11
-33.3549838511
 21
25.7107152241
  0
LINE
  5
42A
100
AcDbEntity
  8
IMPORT_IGES
100
AcDbLine
 62
7
  6
CONTINUOUS
 10
-33.3148528562
 20
23.2869952169
 11
-33.3148528562
 21
24.1932452169
  0
LINE
  5
42B
100
AcDbEntity
  8
IMPORT_IGES
100
AcDbLine
 62
7
  6
CONTINUOUS
 10
-33.2912495846
 20
25.5432835835
 11
-33.2912495846
 21
26.427295085
  0
LINE
  5
42C
100
AcDbEntity
  8
IMPORT_IGES
100
AcDbLine
 62
7
  6
CONTINUOUS
 10
-33.2344055091
 20
26.4066245121
 11
-33.2344055091
 21
25.5984051112
  0
LINE
  5
42D
100
AcDbEntity
  8
IMPORT_IGES
100
AcDbLine
 62
7
  6
CONTINUOUS
 10
-33.2228644392
 20
24.8639107538
 11
-33.2228644392
 21
25.692456218
  0
LINE
  5
42E
100
AcDbEntity
  8
IMPORT_IGES
100
AcDbLine
 62
7
  6
CONTINUOUS
 10
-33.2044331784
 20
25.692456218
 11
-33.2044331784
 21
24.8639107538
  0
LINE
  5
42F
100
AcDbEntity
  8
IMPORT_IGES
100
AcDbLine
 62
7
  6
CONTINUOUS
 10
-33.02769978
 20
-5.8701305797
 11
-33.02769978
 21
-5.4563746119
  0
LINE
  5
430
100
AcDbEntity
  8
IMPORT_IGES
100
AcDbLine
 62
7
  6
CONTINUOUS
 10
-33.0139193981
 20
-4.8024954888
 11
-33.0139193981
 21
-4.8300562527
  0
LINE
  5
431
100
AcDbEntity
  8
IMPORT_IGES
100
AcDbLine
 62
7
  6
CONTINUOUS
 10
-32.9992777423
 20
-5.4460393255
 11
-32.9992777423
 21
-5.8804658662
  0
LINE
  5
432
100
AcDbEntity
  8
IMPORT_IGES
100
AcDbLine
 62
7
  6
CONTINUOUS
 10
-32.7994622041
 20
24.9989584968
 11
-32.7994622041
 21
25.5567194558
  0
LINE
  5
433
100
AcDbEntity
  8
IMPORT_IGES
100
AcDbLine
 62
7
  6
CONTINUOUS
 10
-32.7805141789
 20
25.5636096468
 11
-32.7805141789
 21
24.9920683058
  0
LINE
  5
434
100
AcDbEntity
  8
IMPORT_IGES
100
AcDbLine
 62
7
  6
CONTINUOUS
 10
-32.5448696478
 20
20.1496420917
 11
-32.5448696478
 21
21.447409561
  0
LINE
  5
435
100
AcDbEntity
  8
IMPORT_IGES
100
AcDbLine
 62
7
  6
CONTINUOUS
 10
-32.5167921195
 20
24.8456517477
 11
-32.5167921195
 21
25.7014134662
  0
LINE
  5
436
100
AcDbEntity
  8
IMPORT_IGES
100
AcDbLine
 62
7
  6
CONTINUOUS
 10
-32.51644761
 20
21.4198487972
 11
-32.51644761
 21
20.8124784631
  0
LINE
  5
437
100
AcDbEntity
  8
IMPORT_IGES
100
AcDbLine
 62
7
  6
CONTINUOUS
 10
-32.51644761
 20
20.7838841706
 11
-32.51644761
 21
20.1775473652
  0
LINE
  5
438
100
AcDbEntity
  8
IMPORT_IGES
100
AcDbLine
 62
7
  6
CONTINUOUS
 10
-32.4978440944
 20
25.7014134662
 11
-32.4978440944
 21
24.8639107537
  0
LINE
  5
439
100
AcDbEntity
  8
IMPORT_IGES
100
AcDbLine
 62
7
  6
CONTINUOUS
 10
-32.1803533979
 20
23.2869952169
 11
-32.1803533979
 21
24.1932452169
  0
LINE
  5
43A
100
AcDbEntity
  8
IMPORT_IGES
100
AcDbLine
 62
7
  6
CONTINUOUS
 10
-32.1250847629
 20
23.131544489
 11
-32.1250847629
 21
23.2869952169
  0
LINE
  5
43B
100
AcDbEntity
  8
IMPORT_IGES
100
AcDbLine
 62
7
  6
CONTINUOUS
 10
-32.1250847629
 20
24.1932452169
 11
-32.1250847629
 21
24.3815973858
  0
LINE
  5
43C
100
AcDbEntity
  8
IMPORT_IGES
100
AcDbLine
 62
7
  6
CONTINUOUS
 10
-32.122603127
 20
24.1932452169
 11
-32.122603127
 21
23.2869952169
  0
LINE
  5
43D
100
AcDbEntity
  8
IMPORT_IGES
100
AcDbLine
 62
7
  6
CONTINUOUS
 10
-32.1071702663
 20
20.8124784631
 11
-32.1071702663
 21
20.7838841706
  0
LINE
  5
43E
100
AcDbEntity
  8
IMPORT_IGES
100
AcDbLine
 62
7
  6
CONTINUOUS
 10
-31.9976031271
 20
23.3338702169
 11
-31.9976031271
 21
24.1463702169
  0
LINE
  5
43F
100
AcDbEntity
  8
IMPORT_IGES
100
AcDbLine
 62
7
  6
CONTINUOUS
 10
-31.9428392117
 20
24.8639107538
 11
-31.9428392117
 21
24.8456517477
  0
LINE
  5
440
100
AcDbEntity
  8
IMPORT_IGES
100
AcDbLine
 62
7
  6
CONTINUOUS
 10
-31.7500861193
 20
24.3815973858
 11
-31.7500861193
 21
24.1932452169
  0
LINE
  5
441
100
AcDbEntity
  8
IMPORT_IGES
100
AcDbLine
 62
7
  6
CONTINUOUS
 10
-31.7500861193
 20
23.8963702169
 11
-31.7500861193
 21
23.5838702169
  0
LINE
  5
442
100
AcDbEntity
  8
IMPORT_IGES
100
AcDbLine
 62
7
  6
CONTINUOUS
 10
-31.7500861193
 20
23.2869952169
 11
-31.7500861193
 21
23.131544489
  0
LINE
  5
443
100
AcDbEntity
  8
IMPORT_IGES
100
AcDbLine
 62
7
  6
CONTINUOUS
 10
-31.7476031271
 20
24.1932452169
 11
-31.7476031271
 21
24.1463702169
  0
LINE
  5
444
100
AcDbEntity
  8
IMPORT_IGES
100
AcDbLine
 62
7
  6
CONTINUOUS
 10
-31.7476031271
 20
23.2869952169
 11
-31.7476031271
 21
23.3338702169
  0
LINE
  5
445
100
AcDbEntity
  8
IMPORT_IGES
100
AcDbLine
 62
7
  6
CONTINUOUS
 10
-31.7163531271
 20
23.3338702169
 11
-31.7163531271
 21
23.5838702169
  0
LINE
  5
446
100
AcDbEntity
  8
IMPORT_IGES
100
AcDbLine
 62
7
  6
CONTINUOUS
 10
-31.7163531271
 20
23.8963702169
 11
-31.7163531271
 21
24.1463702169
  0
LINE
  5
447
100
AcDbEntity
  8
IMPORT_IGES
100
AcDbLine
 62
7
  6
CONTINUOUS
 10
-31.6841125408
 20
21.447409561
 11
-31.6841125408
 21
21.4198487971
  0
LINE
  5
448
100
AcDbEntity
  8
IMPORT_IGES
100
AcDbLine
 62
7
  6
CONTINUOUS
 10
-31.6841125408
 20
20.1775473652
 11
-31.6841125408
 21
20.1496420917
  0
LINE
  5
449
100
AcDbEntity
  8
IMPORT_IGES
100
AcDbLine
 62
7
  6
CONTINUOUS
 10
-31.6694708849
 20
24.8456517477
 11
-31.6694708849
 21
25.1402074117
  0
LINE
  5
44A
100
AcDbEntity
  8
IMPORT_IGES
100
AcDbLine
 62
7
  6
CONTINUOUS
 10
-31.6505228598
 20
25.1333172207
 11
-31.6505228598
 21
24.8639107537
  0
LINE
  5
44B
100
AcDbEntity
  8
IMPORT_IGES
100
AcDbLine
 62
7
  6
CONTINUOUS
 10
-31.5971238798
 20
27.2751330839
 11
-31.5971238798
 21
27.6768312175
  0
LINE
  5
44C
100
AcDbEntity
  8
IMPORT_IGES
100
AcDbLine
 62
7
  6
CONTINUOUS
 10
-31.5695631159
 20
25.5984051112
 11
-31.5695631159
 21
25.5432835834
  0
LINE
  5
44D
100
AcDbEntity
  8
IMPORT_IGES
100
AcDbLine
 62
7
  6
CONTINUOUS
 10
-31.5402798043
 20
27.6975017904
 11
-31.5402798043
 21
27.2527399632
  0
LINE
  5
44E
100
AcDbEntity
  8
IMPORT_IGES
100
AcDbLine
 62
7
  6
CONTINUOUS
 10
-31.4404866627
 20
13.6185156191
 11
-31.4404866627
 21
13.6685156191
  0
LINE
  5
44F
100
AcDbEntity
  8
IMPORT_IGES
100
AcDbLine
 62
7
  6
CONTINUOUS
 10
-31.4404866627
 20
19.8685156191
 11
-31.4404866627
 21
19.9185156191
  0
LINE
  5
450
100
AcDbEntity
  8
IMPORT_IGES
100
AcDbLine
 62
7
  6
CONTINUOUS
 10
-31.2738016685
 20
20.1627334546
 11
-31.2738016685
 21
21.43294016
  0
LINE
  5
451
100
AcDbEntity
  8
IMPORT_IGES
100
AcDbLine
 62
7
  6
CONTINUOUS
 10
-29.1318135505
 20
20.1741022697
 11
-29.1524841234
 21
20.1530871872
  0
LINE
  5
452
100
AcDbEntity
  8
IMPORT_IGES
100
AcDbLine
 62
7
  6
CONTINUOUS
 10
-29.1275071812
 20
21.0047147912
 11
-29.348165547
 21
20.7838841706
  0
LINE
  5
453
100
AcDbEntity
  8
IMPORT_IGES
100
AcDbLine
 62
7
  6
CONTINUOUS
 10
-31.6404866627
 20
13.9560156191
 11
-31.9529866627
 21
13.6435156191
  0
LINE
  5
454
100
AcDbEntity
  8
IMPORT_IGES
100
AcDbLine
 62
7
  6
CONTINUOUS
 10
-29.3593621073
 20
20.8124784631
 11
-29.1559292189
 21
21.0157390967
  0
LINE
  5
455
100
AcDbEntity
  8
IMPORT_IGES
100
AcDbLine
 62
7
  6
CONTINUOUS
 10
-45.7500928975
 20
-36.2434704159
 11
-46.2501485071
 21
-36.2434704159
  0
LINE
  5
456
100
AcDbEntity
  8
IMPORT_IGES
100
AcDbLine
 62
7
  6
CONTINUOUS
 10
-44.7501539329
 20
-34.2435924867
 11
-49.7500210106
 21
-34.2435924867
  0
LINE
  5
457
100
AcDbEntity
  8
IMPORT_IGES
100
AcDbLine
 62
7
  6
CONTINUOUS
 10
-45.6648267842
 20
-32.3484454603
 11
-45.8873799525
 21
-32.3484454603
  0
LINE
  5
458
100
AcDbEntity
  8
IMPORT_IGES
100
AcDbLine
 62
7
  6
CONTINUOUS
 10
-45.8770446661
 20
-32.3201956773
 11
-45.6751620706
 21
-32.3201956773
  0
LINE
  5
459
100
AcDbEntity
  8
IMPORT_IGES
100
AcDbLine
 62
7
  6
CONTINUOUS
 10
-44.8094095752
 20
-32.1217581773
 11
-44.836970339
 21
-32.1217581773
  0
LINE
  5
45A
100
AcDbEntity
  8
IMPORT_IGES
100
AcDbLine
 62
7
  6
CONTINUOUS
 10
-45.2521043451
 20
-31.50164099
 11
-45.4443406731
 21
-31.50164099
  0
LINE
  5
45B
100
AcDbEntity
  8
IMPORT_IGES
100
AcDbLine
 62
7
  6
CONTINUOUS
 10
-45.4729349657
 20
-31.50164099
 11
-45.8770446661
 21
-31.50164099
  0
LINE
  5
45C
100
AcDbEntity
  8
IMPORT_IGES
100
AcDbLine
 62
7
  6
CONTINUOUS
 10
-45.8873799526
 20
-31.4730466975
 11
-45.2410800395
 21
-31.4730466975
  0
LINE
  5
45D
100
AcDbEntity
  8
IMPORT_IGES
100
AcDbLine
 62
7
  6
CONTINUOUS
 10
12.7391879581
 20
-42.0612031618
 11
12.7674377411
 21
-42.0715384483
  0
LINE
  5
45E
100
AcDbEntity
  8
IMPORT_IGES
100
AcDbLine
 62
7
  6
CONTINUOUS
 10
-44.8566073834
 20
-6.684895662
 11
-45.0453986159
 21
-6.497137958
  0
LINE
  5
45F
100
AcDbEntity
  8
IMPORT_IGES
100
AcDbLine
 62
7
  6
CONTINUOUS
 10
-45.0247280431
 20
-6.4764673851
 11
-44.8094095752
 21
-6.6928193816
  0
LINE
  5
460
100
AcDbEntity
  8
IMPORT_IGES
100
AcDbLine
 62
7
  6
CONTINUOUS
 10
-31.2453796307
 20
21.3881539187
 11
-31.2453796307
 21
20.1627334546
  0
LINE
  5
461
100
AcDbEntity
  8
IMPORT_IGES
100
AcDbLine
 62
7
  6
CONTINUOUS
 10
-31.1904866627
 20
13.9560156191
 11
-31.1904866627
 21
13.7560156191
  0
LINE
  5
462
100
AcDbEntity
  8
IMPORT_IGES
100
AcDbLine
 62
7
  6
CONTINUOUS
 10
-31.1904866627
 20
19.5810156191
 11
-31.1904866627
 21
19.7810156191
  0
LINE
  5
463
100
AcDbEntity
  8
IMPORT_IGES
100
AcDbLine
 62
7
  6
CONTINUOUS
 10
-31.1048197349
 20
25.423049751
 11
-31.1048197349
 21
25.5567194558
  0
LINE
  5
464
100
AcDbEntity
  8
IMPORT_IGES
100
AcDbLine
 62
7
  6
CONTINUOUS
 10
-31.0955179771
 20
24.8639107538
 11
-31.0955179771
 21
24.8456517477
  0
LINE
  5
465
100
AcDbEntity
  8
IMPORT_IGES
100
AcDbLine
 62
7
  6
CONTINUOUS
 10
-31.0858717097
 20
25.5636096468
 11
-31.0858717097
 21
25.4154705409
  0
LINE
  5
466
100
AcDbEntity
  8
IMPORT_IGES
100
AcDbLine
 62
7
  6
CONTINUOUS
 10
-30.5354866627
 20
19.7810156191
 11
-30.5354866627
 21
19.5810156191
  0
LINE
  5
467
100
AcDbEntity
  8
IMPORT_IGES
100
AcDbLine
 62
7
  6
CONTINUOUS
 10
-30.5354866627
 20
13.7560156191
 11
-30.5354866627
 21
13.9560156191
  0
LINE
  5
468
100
AcDbEntity
  8
IMPORT_IGES
100
AcDbLine
 62
7
  6
CONTINUOUS
 10
-30.4268249434
 20
20.2092422436
 11
-30.4268249434
 21
21.433629179
  0
LINE
  5
469
100
AcDbEntity
  8
IMPORT_IGES
100
AcDbLine
 62
7
  6
CONTINUOUS
 10
-30.3984029057
 20
21.4336291791
 11
-30.3984029057
 21
20.1627334546
  0
LINE
  5
46A
100
AcDbEntity
  8
IMPORT_IGES
100
AcDbLine
 62
7
  6
CONTINUOUS
 10
-30.2154866627
 20
17.9810156191
 11
-30.2154866627
 21
18.9810156191
  0
LINE
  5
46B
100
AcDbEntity
  8
IMPORT_IGES
100
AcDbLine
 62
7
  6
CONTINUOUS
 10
-30.2154866627
 20
19.4310156191
 11
-30.2154866627
 21
19.5810156191
  0
LINE
  5
46C
100
AcDbEntity
  8
IMPORT_IGES
100
AcDbLine
 62
7
  6
CONTINUOUS
 10
-30.1500115212
 20
13.5565906069
 11
-30.1500115212
 21
13.9560156191
  0
LINE
  5
46D
100
AcDbEntity
  8
IMPORT_IGES
100
AcDbLine
 62
7
  6
CONTINUOUS
 10
-30.1500115212
 20
19.5685156191
 11
-30.1500115212
 21
19.9565444898
  0
LINE
  5
46E
100
AcDbEntity
  8
IMPORT_IGES
100
AcDbLine
 62
7
  6
CONTINUOUS
 10
-30.1404866627
 20
18.8298224205
 11
-30.1404866627
 21
19.4310156191
  0
LINE
  5
46F
100
AcDbEntity
  8
IMPORT_IGES
100
AcDbLine
 62
7
  6
CONTINUOUS
 10
-30.1154866627
 20
13.9560156191
 11
-30.1154866627
 21
17.9810156191
  0
LINE
  5
470
100
AcDbEntity
  8
IMPORT_IGES
100
AcDbLine
 62
7
  6
CONTINUOUS
 10
-30.1054866627
 20
14.8035156191
 11
-30.1054866627
 21
18.7335156191
  0
LINE
  5
471
100
AcDbEntity
  8
IMPORT_IGES
100
AcDbLine
 62
7
  6
CONTINUOUS
 10
-30.0904866627
 20
13.9685156191
 11
-30.0904866627
 21
14.3935156191
  0
LINE
  5
472
100
AcDbEntity
  8
IMPORT_IGES
100
AcDbLine
 62
7
  6
CONTINUOUS
 10
-30.0904866627
 20
15.1435156191
 11
-30.0904866627
 21
18.3935156191
  0
LINE
  5
473
100
AcDbEntity
  8
IMPORT_IGES
100
AcDbLine
 62
7
  6
CONTINUOUS
 10
-30.0904866627
 20
19.1435156191
 11
-30.0904866627
 21
19.5685156191
  0
LINE
  5
474
100
AcDbEntity
  8
IMPORT_IGES
100
AcDbLine
 62
7
  6
CONTINUOUS
 10
-30.002905944
 20
20.1627334546
 11
-30.002905944
 21
21.447409561
  0
LINE
  5
475
100
AcDbEntity
  8
IMPORT_IGES
100
AcDbLine
 62
7
  6
CONTINUOUS
 10
-29.9744839062
 20
21.4198487972
 11
-29.9744839062
 21
20.8124784631
  0
LINE
  5
476
100
AcDbEntity
  8
IMPORT_IGES
100
AcDbLine
 62
7
  6
CONTINUOUS
 10
-29.9744839062
 20
20.7838841706
 11
-29.9744839062
 21
20.1627334546
  0
LINE
  5
477
100
AcDbEntity
  8
IMPORT_IGES
100
AcDbLine
 62
7
  6
CONTINUOUS
 10
-29.8404866627
 20
19.1435156191
 11
-29.8404866627
 21
18.3935156191
  0
LINE
  5
478
100
AcDbEntity
  8
IMPORT_IGES
100
AcDbLine
 62
7
  6
CONTINUOUS
 10
-29.8404866627
 20
15.1435156191
 11
-29.8404866627
 21
14.3935156191
  0
LINE
  5
479
100
AcDbEntity
  8
IMPORT_IGES
100
AcDbLine
 62
7
  6
CONTINUOUS
 10
-29.1559292189
 20
21.0157390967
 11
-29.1559292189
 21
21.2165881635
  0
LINE
  5
47A
100
AcDbEntity
  8
IMPORT_IGES
100
AcDbLine
 62
7
  6
CONTINUOUS
 10
-29.1275071812
 20
21.22692345
 11
-29.1275071812
 21
21.0047147912
  0
LINE
  5
47B
100
AcDbEntity
  8
IMPORT_IGES
100
AcDbLine
 62
7
  6
CONTINUOUS
 10
-45.045398616
 20
-6.497137958
 11
-45.024728043
 21
-6.4764673851
  0
LINE
  5
47C
100
AcDbEntity
  8
IMPORT_IGES
100
AcDbLine
 62
7
  6
CONTINUOUS
 10
-47.455931927
 20
-29.993033677
 11
-47.7525546482
 21
-29.993033677
  0
LINE
  5
47D
100
AcDbEntity
  8
IMPORT_IGES
100
AcDbLine
 62
7
  6
CONTINUOUS
 10
-48.8553297131
 20
-29.9733966327
 11
-48.8921922348
 21
-29.9733966327
  0
LINE
  5
47E
100
AcDbEntity
  8
IMPORT_IGES
100
AcDbLine
 62
7
  6
CONTINUOUS
 10
-47.7373962282
 20
-29.9547931171
 11
-47.469712309
 21
-29.9547931171
  0
LINE
  5
47F
100
AcDbEntity
  8
IMPORT_IGES
100
AcDbLine
 62
7
  6
CONTINUOUS
 10
-48.3165167792
 20
-28.8633868674
 11
-48.855329713
 21
-28.8633868674
  0
LINE
  5
480
100
AcDbEntity
  8
IMPORT_IGES
100
AcDbLine
 62
7
  6
CONTINUOUS
 10
-48.8921922348
 20
-28.825490817
 11
-48.3027363972
 21
-28.825490817
  0
LINE
  5
481
100
AcDbEntity
  8
IMPORT_IGES
100
AcDbLine
 62
7
  6
CONTINUOUS
 10
-48.8553297131
 20
-28.2787541635
 11
-48.8921922348
 21
-28.2787541635
  0
LINE
  5
482
100
AcDbEntity
  8
IMPORT_IGES
100
AcDbLine
 62
7
  6
CONTINUOUS
 10
-47.1620652821
 20
-28.0145153398
 11
-48.8553297131
 21
-28.0145153398
  0
LINE
  5
483
100
AcDbEntity
  8
IMPORT_IGES
100
AcDbLine
 62
7
  6
CONTINUOUS
 10
-48.8553297131
 20
-27.9779973277
 11
-47.2251105295
 21
-27.9779973277
  0
LINE
  5
484
100
AcDbEntity
  8
IMPORT_IGES
100
AcDbLine
 62
7
  6
CONTINUOUS
 10
-48.8921922348
 20
-27.7134139944
 11
-48.8553297131
 21
-27.7134139944
  0
LINE
  5
485
100
AcDbEntity
  8
IMPORT_IGES
100
AcDbLine
 62
7
  6
CONTINUOUS
 10
-45.4529534119
 20
-27.348233873
 11
-45.8873799525
 21
-27.348233873
  0
LINE
  5
486
100
AcDbEntity
  8
IMPORT_IGES
100
AcDbLine
 62
7
  6
CONTINUOUS
 10
-44.8094095752
 20
-27.3337644719
 11
-44.836970339
 21
-27.3337644719
  0
LINE
  5
487
100
AcDbEntity
  8
IMPORT_IGES
100
AcDbLine
 62
7
  6
CONTINUOUS
 10
-45.8770446661
 20
-27.31998409
 11
-45.4632886983
 21
-27.31998409
  0
LINE
  5
488
100
AcDbEntity
  8
IMPORT_IGES
100
AcDbLine
 62
7
  6
CONTINUOUS
 10
-44.8369703391
 20
-26.5014294027
 11
-45.2324673008
 21
-26.5014294027
  0
LINE
  5
489
100
AcDbEntity
  8
IMPORT_IGES
100
AcDbLine
 62
7
  6
CONTINUOUS
 10
-45.2607170838
 20
-26.4731796197
 11
-44.8094095752
 21
-26.4731796197
  0
LINE
  5
48A
100
AcDbEntity
  8
IMPORT_IGES
100
AcDbLine
 62
7
  6
CONTINUOUS
 10
-47.0001457943
 20
-26.2433917508
 11
-48.5001403685
 21
-26.2433917508
  0
LINE
  5
48B
100
AcDbEntity
  8
IMPORT_IGES
100
AcDbLine
 62
7
  6
CONTINUOUS
 10
-34.9250861185
 20
-6.1002629581
 11
-35.142127134
 21
-5.8856335094
  0
LINE
  5
48C
100
AcDbEntity
  8
IMPORT_IGES
100
AcDbLine
 62
7
  6
CONTINUOUS
 10
-33.654190394
 20
-6.1002629581
 11
-33.8712314095
 21
-5.8856335094
  0
LINE
  5
48D
100
AcDbEntity
  8
IMPORT_IGES
100
AcDbLine
 62
7
  6
CONTINUOUS
 10
-33.02769978
 20
-5.4563746119
 11
-33.2311326684
 21
-5.2538029974
  0
LINE
  5
48E
100
AcDbEntity
  8
IMPORT_IGES
100
AcDbLine
 62
7
  6
CONTINUOUS
 10
-33.2199361081
 20
-5.2255532144
 11
-32.9992777422
 21
-5.4460393255
  0
LINE
  5
48F
100
AcDbEntity
  8
IMPORT_IGES
100
AcDbLine
 62
7
  6
CONTINUOUS
 10
-35.1214565612
 20
-5.8649629365
 11
-34.914750832
 21
-6.0723576847
  0
LINE
  5
490
100
AcDbEntity
  8
IMPORT_IGES
100
AcDbLine
 62
7
  6
CONTINUOUS
 10
-33.8505608367
 20
-5.8649629365
 11
-33.6438551075
 21
-6.0723576847
  0
LWPOLYLINE
  5
491
100
AcDbEntity
  8
0
100
AcDbPolyline
 62
7
  6
CONTINUOUS
 90
3
 70
0
 43
0.3500000006
 10
1.8928555355
 20
75.9108947754
 10
1.8214269018
 20
75.6966012268
 10
1.6785697761
 20
75.4108946228
  0
LWPOLYLINE
  5
492
100
AcDbEntity
  8
IMPORT_IGES
100
AcDbPolyline
 62
250
  6
CONTINUOUS
 90
13
 70
0
 10
-47.4500065668
 20
-45.7435885893
 10
-47.414625603
 20
-45.6660800208
 10
-47.3746795317
 20
-45.5916250947
 10
-47.3301683529
 20
-45.5202238108
 10
-47.2808650126
 20
-45.45159942
 10
-47.2269965647
 20
-45.3860286715
 10
-47.169244171
 20
-45.3243418132
 10
-47.1075581393
 20
-45.2665885367
 10
-47.0419881617
 20
-45.2127191503
 10
-46.9733644765
 20
-45.1634148279
 10
-46.9019638297
 20
-45.1189026272
 10
-46.8275094753
 20
-45.0789554903
 10
-46.7500014132
 20
-45.0435734173
  0
LWPOLYLINE
  5
493
100
AcDbEntity
  8
IMPORT_IGES
100
AcDbPolyline
 62
250
  6
CONTINUOUS
 90
13
 70
0
 10
-45.0499934329
 20
-46.7435570674
 10
-45.0853743966
 20
-46.8210656359
 10
-45.1253204679
 20
-46.8955205621
 10
-45.1698316467
 20
-46.9669218459
 10
-45.2191349871
 20
-47.0355462368
 10
-45.2730034349
 20
-47.1011169853
 10
-45.3307558287
 20
-47.1628038435
 10
-45.3924418604
 20
-47.2205571201
 10
-45.4580118379
 20
-47.2744265064
 10
-45.5266355231
 20
-47.3237308289
 10
-45.5980361699
 20
-47.3682430296
 10
-45.6724905244
 20
-47.4081901665
 10
-45.7499985865
 20
-47.4435722395
  0
LINE
  5
494
100
AcDbEntity
  8
IMPORT_IGES
100
AcDbLine
 62
7
  6
CONTINUOUS
 10
-47.1710225304
 20
-32.2161537936
 11
-47.189626046
 21
-32.2492267103
  0
LINE
  5
495
100
AcDbEntity
  8
IMPORT_IGES
100
AcDbLine
 62
7
  6
CONTINUOUS
 10
-48.8921922348
 20
-16.6767060979
 11
-48.6062493095
 21
-16.3873180771
  0
LINE
  5
496
100
AcDbEntity
  8
IMPORT_IGES
100
AcDbLine
 62
7
  6
CONTINUOUS
 10
-46.1071770445
 20
-16.6932425562
 11
-45.8925475957
 21
-16.4762015406
  0
LINE
  5
497
100
AcDbEntity
  8
IMPORT_IGES
100
AcDbLine
 62
7
  6
CONTINUOUS
 10
-47.1620652821
 20
-17.2558266489
 11
-47.449041736
 21
-17.544181141
  0
LINE
  5
498
100
AcDbEntity
  8
IMPORT_IGES
100
AcDbLine
 62
7
  6
CONTINUOUS
 10
-47.1620652821
 20
-12.2246092023
 11
-47.4559319269
 21
-12.5188203567
  0
LINE
  5
499
100
AcDbEntity
  8
IMPORT_IGES
100
AcDbLine
 62
7
  6
CONTINUOUS
 10
-45.045398616
 20
-11.4973495453
 11
-45.024728043
 21
-11.4766789724
  0
LINE
  5
49A
100
AcDbEntity
  8
IMPORT_IGES
100
AcDbLine
 62
7
  6
CONTINUOUS
 10
-45.0402309728
 20
-12.3200383472
 11
-44.8369703391
 21
-12.1167777136
  0
LINE
  5
49B
100
AcDbEntity
  8
IMPORT_IGES
100
AcDbLine
 62
7
  6
CONTINUOUS
 10
-44.8094095752
 20
-12.1278020191
 11
-45.0298956862
 21
-12.3482881302
  0
LINE
  5
49C
100
AcDbEntity
  8
IMPORT_IGES
100
AcDbLine
 62
7
  6
CONTINUOUS
 10
-47.462822118
 20
-16.4272811847
 11
-48.5924689276
 21
-17.5569279943
  0
LINE
  5
49D
100
AcDbEntity
  8
IMPORT_IGES
100
AcDbLine
 62
7
  6
CONTINUOUS
 10
-35.1421271341
 20
-5.8856335094
 11
-35.1214565611
 21
-5.8649629365
  0
LINE
  5
49E
100
AcDbEntity
  8
IMPORT_IGES
100
AcDbLine
 62
7
  6
CONTINUOUS
 10
-48.5924689276
 20
-17.5049070525
 11
-47.4628221179
 21
-16.3756047524
  0
LINE
  5
49F
100
AcDbEntity
  8
IMPORT_IGES
100
AcDbLine
 62
7
  6
CONTINUOUS
 10
-47.4697123089
 20
-12.4805797968
 11
-47.1985832942
 21
-12.2097952917
  0
LINE
  5
4A0
100
AcDbEntity
  8
IMPORT_IGES
100
AcDbLine
 62
7
  6
CONTINUOUS
 10
-45.8718770229
 20
-16.4968721135
 11
-46.0792717711
 21
-16.7035778426
  0
LINE
  5
4A1
100
AcDbEntity
  8
IMPORT_IGES
100
AcDbLine
 62
7
  6
CONTINUOUS
 10
-48.5786885457
 20
-16.414878841
 11
-48.8553297131
 21
-16.6904864798
  0
LINE
  5
4A2
100
AcDbEntity
  8
IMPORT_IGES
100
AcDbLine
 62
7
  6
CONTINUOUS
 10
-47.4766024999
 20
-17.5166203772
 11
-47.1985832942
 21
-17.2410127383
  0
LWPOLYLINE
  5
4A3
100
AcDbEntity
  8
IMPORT_IGES
100
AcDbPolyline
 62
7
  6
CONTINUOUS
 90
41
 70
0
 10
45.6391409954
 20
47.0009933367
 10
45.6328143575
 20
46.9978383701
 10
45.6265770679
 20
46.9945110841
 10
45.6204343111
 20
46.991013303
 10
45.6143912715
 20
46.987346851
 10
45.6084531337
 20
46.9835135523
 10
45.6026250821
 20
46.9795152312
 10
45.5969123012
 20
46.9753537118
 10
45.5913199754
 20
46.9710308184
 10
45.5858532893
 20
46.9665483752
 10
45.5805174273
 20
46.9619082064
 10
45.5753175738
 20
46.9571121364
 10
45.5702589135
 20
46.9521619892
 10
45.5653051904
 20
46.947016511
 10
45.5605025268
 20
46.9417224653
 10
45.5558531174
 20
46.9362861246
 10
45.5513591567
 20
46.9307137614
 10
45.5470228394
 20
46.9250116481
 10
45.5428463603
 20
46.9191860573
 10
45.5388319139
 20
46.9132432613
 10
45.5349816949
 20
46.9071895328
 10
45.531297898
 20
46.9010311441
 10
45.5277827179
 20
46.8947743677
 10
45.5244383491
 20
46.8884254762
 10
45.5212669865
 20
46.881990742
 10
45.5182708245
 20
46.8754764375
 10
45.515452058
 20
46.8688888353
 10
45.5128128814
 20
46.8622342078
 10
45.5103554896
 20
46.8555188276
 10
45.5080820772
 20
46.848748967
 10
45.5059948387
 20
46.8419308985
 10
45.504095969
 20
46.8350708947
 10
45.5023876626
 20
46.828175228
 10
45.5008721142
 20
46.8212501709
 10
45.4995515185
 20
46.8143019959
 10
45.4984280701
 20
46.8073369754
 10
45.4975039636
 20
46.800361382
 10
45.4967813939
 20
46.793381488
 10
45.4962625554
 20
46.786403566
 10
45.4959496429
 20
46.7794338885
 10
45.495844851
 20
46.7724787279
  0
LINE
  5
4A4
100
AcDbEntity
  8
IMPORT_IGES
100
AcDbLine
 62
7
  6
CONTINUOUS
 10
-35.8001403718
 20
-24.2435138217
 11
-44.0001566457
 21
-24.2435138217
  0
LINE
  5
4A5
100
AcDbEntity
  8
IMPORT_IGES
100
AcDbLine
 62
7
  6
CONTINUOUS
 10
-44.7501539329
 20
-24.2435138217
 11
-49.7500210106
 21
-24.2435138217
  0
LINE
  5
4A6
100
AcDbEntity
  8
IMPORT_IGES
100
AcDbLine
 62
7
  6
CONTINUOUS
 10
-35.7798493862
 20
-24.2362996502
 11
-43.9798493862
 21
-24.2362996502
  0
LINE
  5
4A7
100
AcDbEntity
  8
IMPORT_IGES
100
AcDbLine
 62
7
  6
CONTINUOUS
 10
-35.7798493862
 20
-22.4862996502
 11
-36.2798493862
 21
-22.4862996502
  0
LINE
  5
4A8
100
AcDbEntity
  8
IMPORT_IGES
100
AcDbLine
 62
7
  6
CONTINUOUS
 10
-45.6562140455
 20
-22.3335528846
 11
-45.6837748093
 21
-22.3335528846
  0
LINE
  5
4A9
100
AcDbEntity
  8
IMPORT_IGES
100
AcDbLine
 62
7
  6
CONTINUOUS
 10
-44.7808152827
 20
-22.1364934229
 11
-45.6562140455
 21
-22.1364934229
  0
LINE
  5
4AA
100
AcDbEntity
  8
IMPORT_IGES
100
AcDbLine
 62
7
  6
CONTINUOUS
 10
-45.6837748094
 20
-22.1364934229
 11
-46.0940856816
 21
-22.1364934229
  0
LINE
  5
4AB
100
AcDbEntity
  8
IMPORT_IGES
100
AcDbLine
 62
7
  6
CONTINUOUS
 10
-46.0940856817
 20
-22.1078991304
 11
-45.6837748094
 21
-22.1078991304
  0
LINE
  5
4AC
100
AcDbEntity
  8
IMPORT_IGES
100
AcDbLine
 62
7
  6
CONTINUOUS
 10
-45.6562140455
 20
-22.1078991304
 11
-44.865220122
 21
-22.1078991304
  0
LINE
  5
4AD
100
AcDbEntity
  8
IMPORT_IGES
100
AcDbLine
 62
7
  6
CONTINUOUS
 10
-36.2798493862
 20
-20.9862996502
 11
-35.7798493862
 21
-20.9862996502
  0
LINE
  5
4AE
100
AcDbEntity
  8
IMPORT_IGES
100
AcDbLine
 62
7
  6
CONTINUOUS
 10
-35.1641757452
 20
-20.7443303373
 11
-35.3867289135
 21
-20.7443303373
  0
LINE
  5
4AF
100
AcDbEntity
  8
IMPORT_IGES
100
AcDbLine
 62
7
  6
CONTINUOUS
 10
-35.3763936271
 20
-20.7157360448
 11
-35.1745110316
 21
-20.7157360448
  0
LINE
  5
4B0
100
AcDbEntity
  8
IMPORT_IGES
100
AcDbLine
 62
7
  6
CONTINUOUS
 10
10.4185716393
 20
-43.3503578924
 11
10.2015306238
 21
-43.1357284437
  0
LINE
  5
4B1
100
AcDbEntity
  8
IMPORT_IGES
100
AcDbLine
 62
7
  6
CONTINUOUS
 10
10.8529981799
 20
-42.0525904231
 11
11.0693501764
 21
-42.2679088909
  0
LINE
  5
4B2
100
AcDbEntity
  8
IMPORT_IGES
100
AcDbLine
 62
7
  6
CONTINUOUS
 10
11.0400668648
 20
-43.1253931572
 11
10.1932623946
 21
-42.2782441774
  0
LINE
  5
4B3
100
AcDbEntity
  8
IMPORT_IGES
100
AcDbLine
 62
7
  6
CONTINUOUS
 10
10.231847464
 20
-42.2782441774
 11
11.0786519343
 21
-43.1253931572
  0
LINE
  5
4B4
100
AcDbEntity
  8
IMPORT_IGES
100
AcDbLine
 62
7
  6
CONTINUOUS
 10
10.2222011966
 20
-43.1150578708
 11
10.4289069258
 21
-43.322452619
  0
LINE
  5
4B5
100
AcDbEntity
  8
IMPORT_IGES
100
AcDbLine
 62
7
  6
CONTINUOUS
 10
11.0486796035
 20
-42.2885794638
 11
10.8416293649
 21
-42.080151187
  0
LINE
  5
4B6
100
AcDbEntity
  8
IMPORT_IGES
100
AcDbLine
 62
7
  6
CONTINUOUS
 10
-46.2501485072
 20
-40.9935680709
 11
-45.7500928975
 21
-40.2435707838
  0
LINE
  5
4B7
100
AcDbEntity
  8
IMPORT_IGES
100
AcDbLine
 62
7
  6
CONTINUOUS
 10
-45.6751620707
 20
-17.3199054249
 11
-45.4729349657
 21
-17.1163002818
  0
LINE
  5
4B8
100
AcDbEntity
  8
IMPORT_IGES
100
AcDbLine
 62
7
  6
CONTINUOUS
 10
-45.4581210551
 20
-17.1414494788
 11
-45.6648267842
 21
-17.3484997175
  0
LINE
  5
4B9
100
AcDbEntity
  8
IMPORT_IGES
100
AcDbLine
 62
7
  6
CONTINUOUS
 10
-45.0402309728
 20
-17.3199054249
 11
-44.8369703391
 21
-17.1163002818
  0
LINE
  5
4BA
100
AcDbEntity
  8
IMPORT_IGES
100
AcDbLine
 62
7
  6
CONTINUOUS
 10
-44.8094095752
 20
-17.1276690969
 11
-45.0298956862
 21
-17.3484997175
  0
LINE
  5
4BB
100
AcDbEntity
  8
IMPORT_IGES
100
AcDbLine
 62
7
  6
CONTINUOUS
 10
-45.045398616
 20
-16.4968721135
 11
-45.024728043
 21
-16.4762015406
  0
LINE
  5
4BC
100
AcDbEntity
  8
IMPORT_IGES
100
AcDbLine
 62
7
  6
CONTINUOUS
 10
-33.8712314096
 20
-5.8856335094
 11
-33.8505608366
 21
-5.8649629365
  0
LINE
  5
4BD
100
AcDbEntity
  8
IMPORT_IGES
100
AcDbLine
 62
7
  6
CONTINUOUS
 10
-34.2701734668
 20
-5.8804658662
 11
-34.4908318326
 21
-6.1002629581
  0
LINE
  5
4BE
100
AcDbEntity
  8
IMPORT_IGES
100
AcDbLine
 62
7
  6
CONTINUOUS
 10
-32.9992777423
 20
-5.8804658662
 11
-33.2199361081
 21
-6.1002629581
  0
LINE
  5
4BF
100
AcDbEntity
  8
IMPORT_IGES
100
AcDbLine
 62
7
  6
CONTINUOUS
 10
-34.5020283929
 20
-6.0723576847
 11
-34.2985955045
 21
-5.8701305797
  0
LINE
  5
4C0
100
AcDbEntity
  8
IMPORT_IGES
100
AcDbLine
 62
7
  6
CONTINUOUS
 10
-33.2311326684
 20
-6.0723576847
 11
-33.02769978
 21
-5.8701305797
  0
LWPOLYLINE
  5
4C1
100
AcDbEntity
  8
IMPORT_IGES
100
AcDbPolyline
 62
7
  6
CONTINUOUS
 90
41
 70
0
 10
45.8607831098
 20
44.5120550122
 10
45.867106452
 20
44.5152097404
 10
45.8733404315
 20
44.518536705
 10
45.8794798673
 20
44.5220340825
 10
45.8855195781
 20
44.525700049
 10
45.891454383
 20
44.529532781
 10
45.8972791007
 20
44.5335304548
 10
45.9029885503
 20
44.5376912466
 10
45.9085775505
 20
44.542013333
 10
45.9140409204
 20
44.54649489
 10
45.9193734787
 20
44.5511340942
 10
45.9245700443
 20
44.5559291218
 10
45.9296254363
 20
44.5608781492
 10
45.9345772411
 20
44.56602387
 10
45.939377936
 20
44.5713181635
 10
45.9440253354
 20
44.5767547545
 10
45.9485172536
 20
44.5823273679
 10
45.9528515051
 20
44.5880297285
 10
45.9570259044
 20
44.5938555611
 10
45.9610382657
 20
44.5997985907
 10
45.9648864036
 20
44.6058525421
 10
45.9685681324
 20
44.6120111401
 10
45.9720812666
 20
44.6182681095
 10
45.9754236205
 20
44.6246171753
 10
45.9785930087
 20
44.6310520623
 10
45.9815872455
 20
44.6375664953
 10
45.9844041453
 20
44.6441541991
 10
45.9870415226
 20
44.6508088987
 10
45.9894971917
 20
44.6575243188
 10
45.9917689672
 20
44.6642941844
 10
45.9938546633
 20
44.6711122203
 10
45.9957520946
 20
44.6779721512
 10
45.9974590754
 20
44.6848677022
 10
45.9989734201
 20
44.6917925979
 10
46.0002929432
 20
44.6987405634
 10
46.0014154591
 20
44.7057053233
 10
46.0023387822
 20
44.7126806026
 10
46.003060727
 20
44.7196601262
 10
46.0035791077
 20
44.7266376188
 10
46.003891739
 20
44.7336068054
 10
46.003996435
 20
44.7405614107
  0
LINE
  5
4C2
100
AcDbEntity
  8
IMPORT_IGES
100
AcDbLine
 62
7
  6
CONTINUOUS
 10
-34.3087585362
 20
-20.5176430544
 11
-34.3363193
 21
-20.5176430544
  0
LINE
  5
4C3
100
AcDbEntity
  8
IMPORT_IGES
100
AcDbLine
 62
7
  6
CONTINUOUS
 10
-34.7514533061
 20
-19.8971813575
 11
-34.9436896341
 21
-19.8971813575
  0
LINE
  5
4C4
100
AcDbEntity
  8
IMPORT_IGES
100
AcDbLine
 62
7
  6
CONTINUOUS
 10
-34.9722839267
 20
-19.8971813575
 11
-35.3763936271
 21
-19.8971813575
  0
LINE
  5
4C5
100
AcDbEntity
  8
IMPORT_IGES
100
AcDbLine
 62
7
  6
CONTINUOUS
 10
-35.3867289135
 20
-19.8689315745
 11
-34.7404290004
 21
-19.8689315745
  0
LINE
  5
4C6
100
AcDbEntity
  8
IMPORT_IGES
100
AcDbLine
 62
7
  6
CONTINUOUS
 10
-34.3225389181
 20
-19.4734346128
 11
-35.3867289134
 21
-19.4734346128
  0
LINE
  5
4C7
100
AcDbEntity
  8
IMPORT_IGES
100
AcDbLine
 62
7
  6
CONTINUOUS
 10
-35.3763936271
 20
-19.4451848298
 11
-34.3225389181
 21
-19.4451848298
  0
LINE
  5
4C8
100
AcDbEntity
  8
IMPORT_IGES
100
AcDbLine
 62
7
  6
CONTINUOUS
 10
-35.7798493862
 20
-17.4862996502
 11
-36.2798493862
 21
-17.4862996502
  0
LINE
  5
4C9
100
AcDbEntity
  8
IMPORT_IGES
100
AcDbLine
 62
7
  6
CONTINUOUS
 10
-45.0298956863
 20
-17.3484997175
 11
-45.2521043451
 21
-17.3484997175
  0
LINE
  5
4CA
100
AcDbEntity
  8
IMPORT_IGES
100
AcDbLine
 62
7
  6
CONTINUOUS
 10
-45.6648267842
 20
-17.3484997175
 11
-45.8873799525
 21
-17.3484997175
  0
LINE
  5
4CB
100
AcDbEntity
  8
IMPORT_IGES
100
AcDbLine
 62
7
  6
CONTINUOUS
 10
-45.8770446661
 20
-17.3199054249
 11
-45.6751620706
 21
-17.3199054249
  0
LINE
  5
4CC
100
AcDbEntity
  8
IMPORT_IGES
100
AcDbLine
 62
7
  6
CONTINUOUS
 10
-45.2410800395
 20
-17.3199054249
 11
-45.0402309727
 21
-17.3199054249
  0
LINE
  5
4CD
100
AcDbEntity
  8
IMPORT_IGES
100
AcDbLine
 62
7
  6
CONTINUOUS
 10
-45.4729349657
 20
-16.9106280813
 11
-45.4443406731
 21
-16.9106280813
  0
LINE
  5
4CE
100
AcDbEntity
  8
IMPORT_IGES
100
AcDbLine
 62
7
  6
CONTINUOUS
 10
-36.2798493862
 20
-15.9862996502
 11
-35.7798493862
 21
-15.9862996502
  0
LINE
  5
4CF
100
AcDbEntity
  8
IMPORT_IGES
100
AcDbLine
 62
7
  6
CONTINUOUS
 10
13.1884284094
 20
-42.2885794638
 11
13.1677578365
 21
-42.2679088909
  0
LINE
  5
4D0
100
AcDbEntity
  8
IMPORT_IGES
100
AcDbLine
 62
7
  6
CONTINUOUS
 10
14.0111172113
 20
-42.2834118206
 11
13.8078565777
 21
-42.080151187
  0
LINE
  5
4D1
100
AcDbEntity
  8
IMPORT_IGES
100
AcDbLine
 62
7
  6
CONTINUOUS
 10
13.8188808832
 20
-42.0525904231
 11
14.0393669943
 21
-42.2730765342
  0
LINE
  5
4D2
100
AcDbEntity
  8
IMPORT_IGES
100
AcDbLine
 62
7
  6
CONTINUOUS
 10
-12.0875481468
 20
-2.8677298643
 11
-12.0892706945
 21
-2.5624944043
  0
LINE
  5
4D3
100
AcDbEntity
  8
IMPORT_IGES
100
AcDbLine
 62
7
  6
CONTINUOUS
 10
-10.8628167018
 20
-2.2569144348
 11
-10.8619554279
 21
-2.5624944044
  0
LWPOLYLINE
  5
4D4
100
AcDbEntity
  8
0
100
AcDbPolyline
 62
7
  6
CONTINUOUS
 90
2
 70
0
 43
0.3500000006
 10
-12.7500004921
 20
-65.0420803528
 10
-12.7500004921
 20
-63.542079895
  0
LWPOLYLINE
  5
4D5
100
AcDbEntity
  8
0
100
AcDbPolyline
 62
7
  6
CONTINUOUS
 90
2
 70
0
 43
0.3500000006
 10
-12.7500004921
 20
67.3395969543
 10
-12.7500004921
 20
68.8395974121
  0
LINE
  5
4D6
100
AcDbEntity
  8
IMPORT_IGES
100
AcDbLine
 62
7
  6
CONTINUOUS
 10
-11.489135061
 20
-3.1478161273
 11
-11.4889628062
 21
-1.9499564271
  0
LINE
  5
4D7
100
AcDbEntity
  8
IMPORT_IGES
100
AcDbLine
 62
7
  6
CONTINUOUS
 10
-11.4615742971
 20
-1.9775171909
 11
-11.4617465518
 21
-3.1750323816
  0
LINE
  5
4D8
100
AcDbEntity
  8
IMPORT_IGES
100
AcDbLine
 62
7
  6
CONTINUOUS
 10
-12.0599873829
 20
-2.5624944043
 11
-12.0605041472
 21
-2.8553275206
  0
LINE
  5
4D9
100
AcDbEntity
  8
IMPORT_IGES
100
AcDbLine
 62
7
  6
CONTINUOUS
 10
-10.8912387395
 20
-2.5624944043
 11
-10.890032956
 21
-2.2686277594
  0
LINE
  5
4DA
100
AcDbEntity
  8
IMPORT_IGES
100
AcDbLine
 62
7
  6
CONTINUOUS
 10
7.2500000002
 20
33.2564271716
 11
4.7500000002
 21
29.7564271716
  0
LINE
  5
4DB
100
AcDbEntity
  8
IMPORT_IGES
100
AcDbLine
 62
7
  6
CONTINUOUS
 10
-46.1071770445
 20
-26.6936657308
 11
-45.8925475957
 21
-26.4766247152
  0
LINE
  5
4DC
100
AcDbEntity
  8
IMPORT_IGES
100
AcDbLine
 62
7
  6
CONTINUOUS
 10
-35.6065260055
 20
-18.818521961
 11
-35.3918965567
 21
-18.6014809455
  0
LINE
  5
4DD
100
AcDbEntity
  8
IMPORT_IGES
100
AcDbLine
 62
7
  6
CONTINUOUS
 10
-35.1745110316
 20
-20.7157360448
 11
-34.9722839266
 21
-20.5124754111
  0
LINE
  5
4DE
100
AcDbEntity
  8
IMPORT_IGES
100
AcDbLine
 62
7
  6
CONTINUOUS
 10
-45.4632886983
 20
-27.31998409
 11
-45.2607170837
 21
-27.1167234564
  0
LINE
  5
4DF
100
AcDbEntity
  8
IMPORT_IGES
100
AcDbLine
 62
7
  6
CONTINUOUS
 10
-35.6065260055
 20
-20.0894176855
 11
-35.3867289135
 21
-19.8689315745
  0
LINE
  5
4E0
100
AcDbEntity
  8
IMPORT_IGES
100
AcDbLine
 62
7
  6
CONTINUOUS
 10
-46.1071770445
 20
-31.6935328085
 11
-45.8873799525
 21
-31.4730466975
  0
LINE
  5
4E1
100
AcDbEntity
  8
IMPORT_IGES
100
AcDbLine
 62
7
  6
CONTINUOUS
 10
-35.3763936271
 20
-19.8971813575
 11
-35.578620732
 21
-20.099752972
  0
LINE
  5
4E2
100
AcDbEntity
  8
IMPORT_IGES
100
AcDbLine
 62
7
  6
CONTINUOUS
 10
-34.9436896341
 20
-20.5234997167
 11
-35.1641757451
 21
-20.7443303373
  0
LINE
  5
4E3
100
AcDbEntity
  8
IMPORT_IGES
100
AcDbLine
 62
7
  6
CONTINUOUS
 10
-47.1620652821
 20
-29.6988225226
 11
-47.4559319269
 21
-29.993033677
  0
LINE
  5
4E4
100
AcDbEntity
  8
IMPORT_IGES
100
AcDbLine
 62
7
  6
CONTINUOUS
 10
-47.4766024999
 20
-27.7271943763
 11
-47.449041736
 21
-27.6996336125
  0
LINE
  5
4E5
100
AcDbEntity
  8
IMPORT_IGES
100
AcDbLine
 62
7
  6
CONTINUOUS
 10
-47.4766024999
 20
-28.8578747146
 11
-47.449041736
 21
-28.8303139507
  0
LINE
  5
4E6
100
AcDbEntity
  8
IMPORT_IGES
100
AcDbLine
 62
7
  6
CONTINUOUS
 10
-45.2324673008
 20
-27.1277477619
 11
-45.4529534118
 21
-27.348233873
  0
LINE
  5
4E7
100
AcDbEntity
  8
IMPORT_IGES
100
AcDbLine
 62
7
  6
CONTINUOUS
 10
-45.8770446661
 20
-31.50164099
 11
-46.079271771
 21
-31.703868095
  0
LINE
  5
4E8
100
AcDbEntity
  8
IMPORT_IGES
100
AcDbLine
 62
7
  6
CONTINUOUS
 10
-47.4697123089
 20
-29.9547931171
 11
-47.1985832942
 21
-29.684008612
  0
LINE
  5
4E9
100
AcDbEntity
  8
IMPORT_IGES
100
AcDbLine
 62
7
  6
CONTINUOUS
 10
-45.8718770229
 20
-26.4972952881
 11
-46.0792717711
 21
-26.7040010172
  0
LINE
  5
4EA
100
AcDbEntity
  8
IMPORT_IGES
100
AcDbLine
 62
7
  6
CONTINUOUS
 10
-35.3712259838
 20
-18.6221515184
 11
-35.578620732
 21
-18.8288572475
  0
LINE
  5
4EB
100
AcDbEntity
  8
IMPORT_IGES
100
AcDbLine
 62
7
  6
CONTINUOUS
 10
-43.9798493862
 20
-14.2434351566
 11
-44.0001566457
 21
-14.2434351566
  0
LINE
  5
4EC
100
AcDbEntity
  8
IMPORT_IGES
100
AcDbLine
 62
7
  6
CONTINUOUS
 10
-47.455931927
 20
-12.5188203567
 11
-48.5993591185
 21
-12.5188203567
  0
LINE
  5
4ED
100
AcDbEntity
  8
IMPORT_IGES
100
AcDbLine
 62
7
  6
CONTINUOUS
 10
-35.7798493862
 20
-12.4862996502
 11
-36.2798493862
 21
-12.4862996502
  0
LINE
  5
4EE
100
AcDbEntity
  8
IMPORT_IGES
100
AcDbLine
 62
7
  6
CONTINUOUS
 10
-48.5855787366
 20
-12.4805797968
 11
-47.4697123089
 21
-12.4805797968
  0
LINE
  5
4EF
100
AcDbEntity
  8
IMPORT_IGES
100
AcDbLine
 62
7
  6
CONTINUOUS
 10
-45.0298956863
 20
-12.3482881302
 11
-45.2521043451
 21
-12.3482881302
  0
LINE
  5
4F0
100
AcDbEntity
  8
IMPORT_IGES
100
AcDbLine
 62
7
  6
CONTINUOUS
 10
-46.0792717711
 20
-12.3338187291
 11
-46.1071770445
 21
-12.3338187291
  0
LINE
  5
4F1
100
AcDbEntity
  8
IMPORT_IGES
100
AcDbLine
 62
7
  6
CONTINUOUS
 10
-45.2410800395
 20
-12.3200383472
 11
-45.0402309727
 21
-12.3200383472
  0
LINE
  5
4F2
100
AcDbEntity
  8
IMPORT_IGES
100
AcDbLine
 62
7
  6
CONTINUOUS
 10
-47.1985832943
 20
-11.6709823578
 11
-48.8553297131
 21
-11.6709823578
  0
LINE
  5
4F3
100
AcDbEntity
  8
IMPORT_IGES
100
AcDbLine
 62
7
  6
CONTINUOUS
 10
-48.8553297131
 20
-11.6341198361
 11
-47.1985832942
 21
-11.6341198361
  0
LINE
  5
4F4
100
AcDbEntity
  8
IMPORT_IGES
100
AcDbLine
 62
7
  6
CONTINUOUS
 10
-45.6751620707
 20
-11.5014836599
 11
-46.0792717711
 21
-11.5014836599
  0
LINE
  5
4F5
100
AcDbEntity
  8
IMPORT_IGES
100
AcDbLine
 62
7
  6
CONTINUOUS
 10
-46.1071770445
 20
-11.4732338769
 11
-45.6648267841
 21
-11.4732338769
  0
LINE
  5
4F6
100
AcDbEntity
  8
IMPORT_IGES
100
AcDbLine
 62
7
  6
CONTINUOUS
 10
-48.8921922348
 20
-11.3698810124
 11
-48.8553297131
 21
-11.3698810124
  0
LINE
  5
4F7
100
AcDbEntity
  8
IMPORT_IGES
100
AcDbLine
 62
7
  6
CONTINUOUS
 10
-47.1985832943
 20
-11.3698810124
 11
-47.1620652821
 21
-11.3698810124
  0
LINE
  5
4F8
100
AcDbEntity
  8
IMPORT_IGES
100
AcDbLine
 62
7
  6
CONTINUOUS
 10
-36.2798493862
 20
-10.9862996502
 11
-35.7798493862
 21
-10.9862996502
  0
LINE
  5
4F9
100
AcDbEntity
  8
IMPORT_IGES
100
AcDbLine
 62
7
  6
CONTINUOUS
 10
-10.4165045817
 20
-4.4993270861
 11
-10.2764614502
 21
-4.6391979628
  0
LINE
  5
4FA
100
AcDbEntity
  8
IMPORT_IGES
100
AcDbLine
 62
7
  6
CONTINUOUS
 10
-12.0605041472
 20
-2.8553275206
 11
-11.7685323048
 21
-3.1471271082
  0
LINE
  5
4FB
100
AcDbEntity
  8
IMPORT_IGES
100
AcDbLine
 62
7
  6
CONTINUOUS
 10
-34.5279866627
 20
13.6435156191
 11
-34.8404866627
 21
13.9560156191
  0
LINE
  5
4FC
100
AcDbEntity
  8
IMPORT_IGES
100
AcDbLine
 62
7
  6
CONTINUOUS
 10
-10.1365905735
 20
-4.8186874376
 11
-10.4363138807
 21
-4.5189641304
  0
LINE
  5
4FD
100
AcDbEntity
  8
IMPORT_IGES
100
AcDbLine
 62
7
  6
CONTINUOUS
 10
-11.7805901391
 20
-3.174687872
 11
-12.0875481468
 21
-2.8677298643
  0
LINE
  5
4FE
100
AcDbEntity
  8
IMPORT_IGES
100
AcDbLine
 62
7
  6
CONTINUOUS
 10
-10.7165723984
 20
-4.2202743518
 11
-10.7365539522
 21
-4.200292798
  0
LINE
  5
4FF
100
AcDbEntity
  8
IMPORT_IGES
100
AcDbLine
 62
7
  6
CONTINUOUS
 10
-11.3155022485
 20
-3.6211722469
 11
-11.3354838023
 21
-3.6011906931
  0
LINE
  5
500
100
AcDbEntity
  8
IMPORT_IGES
100
AcDbLine
 62
7
  6
CONTINUOUS
 10
-10.2569966607
 20
-4.6584904975
 11
-10.1167812744
 21
-4.7990503933
  0
LINE
  5
501
100
AcDbEntity
  8
IMPORT_IGES
100
AcDbLine
 62
7
  6
CONTINUOUS
 10
-30.4285474912
 20
20.1627334546
 11
-31.2453796307
 21
21.3881539187
  0
LINE
  5
502
100
AcDbEntity
  8
IMPORT_IGES
100
AcDbLine
 62
7
  6
CONTINUOUS
 10
-31.2427958091
 20
21.4336291791
 11
-30.4268249434
 21
20.2092422436
  0
LINE
  5
503
100
AcDbEntity
  8
IMPORT_IGES
100
AcDbLine
 62
7
  6
CONTINUOUS
 10
-9.6780483644
 20
-3.7755125247
 11
-9.6780483644
 21
-3.7462292131
  0
LINE
  5
504
100
AcDbEntity
  8
IMPORT_IGES
100
AcDbLine
 62
7
  6
CONTINUOUS
 10
-45.6751620707
 20
-32.3201956773
 11
-45.4729349657
 21
-32.1165905341
  0
LINE
  5
505
100
AcDbEntity
  8
IMPORT_IGES
100
AcDbLine
 62
7
  6
CONTINUOUS
 10
-10.4168490912
 20
-2.7223468348
 11
-10.8560987655
 21
-3.1619410187
  0
LINE
  5
506
100
AcDbEntity
  8
IMPORT_IGES
100
AcDbLine
 62
7
  6
CONTINUOUS
 10
-10.7365539522
 20
-4.200292798
 11
-10.2973042778
 21
-3.7606986141
  0
LINE
  5
507
100
AcDbEntity
  8
IMPORT_IGES
100
AcDbLine
 62
7
  6
CONTINUOUS
 10
-45.4443406732
 20
-32.1279593492
 11
-45.6648267842
 21
-32.3484454603
  0
LINE
  5
508
100
AcDbEntity
  8
IMPORT_IGES
100
AcDbLine
 62
7
  6
CONTINUOUS
 10
-11.2301992002
 20
0.0901216602
 11
6.7275687401
 21
18.0477213496
  0
LINE
  5
509
100
AcDbEntity
  8
IMPORT_IGES
100
AcDbLine
 62
7
  6
CONTINUOUS
 10
6.9424702946
 20
18.2625910397
 11
6.7275836656
 21
18.047706424
  0
LINE
  5
50A
100
AcDbEntity
  8
IMPORT_IGES
100
AcDbLine
 62
7
  6
CONTINUOUS
 10
-11.2301842755
 20
0.0901067354
 11
-11.4424540172
 21
-0.1221610174
  0
LINE
  5
50B
100
AcDbEntity
  8
IMPORT_IGES
100
AcDbLine
 62
7
  6
CONTINUOUS
 10
6.9396997807
 20
17.8355883214
 11
6.7996919822
 21
17.6955818346
  0
LINE
  5
50C
100
AcDbEntity
  8
IMPORT_IGES
100
AcDbLine
 62
7
  6
CONTINUOUS
 10
-11.0180681596
 20
-0.1220113679
 11
-10.8780603611
 21
0.0179951189
  0
LINE
  5
50D
100
AcDbEntity
  8
IMPORT_IGES
100
AcDbLine
 62
7
  6
CONTINUOUS
 10
7.154661236
 20
18.0477193488
 11
6.9425282078
 21
17.8355883082
  0
LINE
  5
50E
100
AcDbEntity
  8
IMPORT_IGES
100
AcDbLine
 62
7
  6
CONTINUOUS
 10
-11.0180681729
 20
-0.124839795
 11
-11.230201201
 21
-0.3369708356
  0
LINE
  5
50F
100
AcDbEntity
  8
IMPORT_IGES
100
AcDbLine
 62
7
  6
CONTINUOUS
 10
7.2946677227
 20
17.9077115502
 11
6.9411126759
 21
17.5541598159
  0
LINE
  5
510
100
AcDbEntity
  8
IMPORT_IGES
100
AcDbLine
 62
250
  6
CONTINUOUS
 10
6.9411126759
 20
17.5541598159
 11
-10.7366396673
 21
-0.1234268998
  0
LINE
  5
511
100
AcDbEntity
  8
IMPORT_IGES
100
AcDbLine
 62
7
  6
CONTINUOUS
 10
-10.7366396673
 20
-0.1234268998
 11
-11.0901947142
 21
-0.4769786342
  0
LINE
  5
512
100
AcDbEntity
  8
IMPORT_IGES
100
AcDbLine
 62
7
  6
CONTINUOUS
 10
-11.3354838024
 20
-3.6011906931
 11
-10.436830645
 21
-2.702365281
  0
LINE
  5
513
100
AcDbEntity
  8
IMPORT_IGES
100
AcDbLine
 62
7
  6
CONTINUOUS
 10
-10.8762525742
 20
-3.1819225726
 11
-11.3155022485
 21
-3.621172247
  0
LINE
  5
514
100
AcDbEntity
  8
IMPORT_IGES
100
AcDbLine
 62
7
  6
CONTINUOUS
 10
-10.2771504693
 20
-3.7407170603
 11
-9.8379007949
 21
-3.301467386
  0
LINE
  5
515
100
AcDbEntity
  8
IMPORT_IGES
100
AcDbLine
 62
7
  6
CONTINUOUS
 10
-35.7798493862
 20
-7.4862996502
 11
-36.2798493862
 21
-7.4862996502
  0
LINE
  5
516
100
AcDbEntity
  8
IMPORT_IGES
100
AcDbLine
 62
7
  6
CONTINUOUS
 10
-46.0792717711
 20
-6.9105494163
 11
-46.1071770445
 21
-6.9105494163
  0
LINE
  5
517
100
AcDbEntity
  8
IMPORT_IGES
100
AcDbLine
 62
7
  6
CONTINUOUS
 10
-47.0001457943
 20
-6.7434622852
 11
-48.5001403685
 21
-6.7434622852
  0
LINE
  5
518
100
AcDbEntity
  8
IMPORT_IGES
100
AcDbLine
 62
7
  6
CONTINUOUS
 10
-44.8094095752
 20
-6.7124564259
 11
-46.079271771
 21
-6.7124564259
  0
LINE
  5
519
100
AcDbEntity
  8
IMPORT_IGES
100
AcDbLine
 62
7
  6
CONTINUOUS
 10
-46.0792717711
 20
-6.684895662
 11
-44.8566073833
 21
-6.684895662
  0
LINE
  5
51A
100
AcDbEntity
  8
IMPORT_IGES
100
AcDbLine
 62
7
  6
CONTINUOUS
 10
-46.1071770445
 20
-6.4868026716
 11
-46.079271771
 21
-6.4868026716
  0
LINE
  5
51B
100
AcDbEntity
  8
IMPORT_IGES
100
AcDbLine
 62
7
  6
CONTINUOUS
 10
-33.2199361081
 20
-6.1002629581
 11
-33.654190394
 21
-6.1002629581
  0
LINE
  5
51C
100
AcDbEntity
  8
IMPORT_IGES
100
AcDbLine
 62
7
  6
CONTINUOUS
 10
-34.4908318326
 20
-6.1002629581
 11
-34.9250861185
 21
-6.1002629581
  0
LINE
  5
51D
100
AcDbEntity
  8
IMPORT_IGES
100
AcDbLine
 62
7
  6
CONTINUOUS
 10
-34.9147508321
 20
-6.0723576847
 11
-34.5020283929
 21
-6.0723576847
  0
LINE
  5
51E
100
AcDbEntity
  8
IMPORT_IGES
100
AcDbLine
 62
7
  6
CONTINUOUS
 10
-33.6438551075
 20
-6.0723576847
 11
-33.2311326683
 21
-6.0723576847
  0
LINE
  5
51F
100
AcDbEntity
  8
IMPORT_IGES
100
AcDbLine
 62
7
  6
CONTINUOUS
 10
-36.2798493862
 20
-5.9862996502
 11
-35.7798493862
 21
-5.9862996502
  0
LINE
  5
520
100
AcDbEntity
  8
IMPORT_IGES
100
AcDbLine
 62
7
  6
CONTINUOUS
 10
-33.2311326684
 20
-5.2538029974
 11
-33.874676505
 21
-5.2538029974
  0
LINE
  5
521
100
AcDbEntity
  8
IMPORT_IGES
100
AcDbLine
 62
7
  6
CONTINUOUS
 10
-33.8462544673
 20
-5.2255532144
 11
-33.219936108
 21
-5.2255532144
  0
LINE
  5
522
100
AcDbEntity
  8
IMPORT_IGES
100
AcDbLine
 62
7
  6
CONTINUOUS
 10
-33.0139193981
 20
-4.8300562527
 11
-33.8462544673
 21
-4.8300562527
  0
LINE
  5
523
100
AcDbEntity
  8
IMPORT_IGES
100
AcDbLine
 62
7
  6
CONTINUOUS
 10
-34.2985955045
 20
-4.8162758708
 11
-34.2701734667
 21
-4.8162758708
  0
LINE
  5
524
100
AcDbEntity
  8
IMPORT_IGES
100
AcDbLine
 62
7
  6
CONTINUOUS
 10
-33.8746765051
 20
-4.8024954888
 11
-33.0139193981
 21
-4.8024954888
  0
LINE
  5
525
100
AcDbEntity
  8
IMPORT_IGES
100
AcDbLine
 62
7
  6
CONTINUOUS
 10
-9.3729851592
 20
-3.7469182321
 11
-9.3590325224
 21
-3.7606986141
  0
LINE
  5
526
100
AcDbEntity
  8
IMPORT_IGES
100
AcDbLine
 62
7
  6
CONTINUOUS
 10
-29.7436625087
 20
20.7838841706
 11
-29.1318135505
 21
20.1741022697
  0
LINE
  5
527
100
AcDbEntity
  8
IMPORT_IGES
100
AcDbLine
 62
7
  6
CONTINUOUS
 10
-35.0876946254
 20
21.2165881635
 11
-35.2911275138
 21
21.4198487971
  0
LINE
  5
528
100
AcDbEntity
  8
IMPORT_IGES
100
AcDbLine
 62
7
  6
CONTINUOUS
 10
-35.2799309535
 20
21.447409561
 11
-35.0592725876
 21
21.2269234499
  0
LINE
  5
529
100
AcDbEntity
  8
IMPORT_IGES
100
AcDbLine
 62
7
  6
CONTINUOUS
 10
-29.1559292189
 20
21.2165881635
 11
-29.3593621073
 21
21.4198487971
  0
LINE
  5
52A
100
AcDbEntity
  8
IMPORT_IGES
100
AcDbLine
 62
7
  6
CONTINUOUS
 10
-29.348165547
 20
21.447409561
 11
-29.1275071811
 21
21.2269234499
  0
LINE
  5
52B
100
AcDbEntity
  8
IMPORT_IGES
100
AcDbLine
 62
7
  6
CONTINUOUS
 10
-10.2973042779
 20
-3.7606986141
 11
-10.8762525742
 21
-3.1819225726
  0
LINE
  5
52C
100
AcDbEntity
  8
IMPORT_IGES
100
AcDbLine
 62
7
  6
CONTINUOUS
 10
-10.8560987656
 20
-3.1619410187
 11
-10.2771504693
 21
-3.7407170602
  0
LINE
  5
52D
100
AcDbEntity
  8
IMPORT_IGES
100
AcDbLine
 62
7
  6
CONTINUOUS
 10
-10.8900329561
 20
-2.2686277594
 11
-11.1820047984
 21
-1.9768281718
  0
LINE
  5
52E
100
AcDbEntity
  8
IMPORT_IGES
100
AcDbLine
 62
7
  6
CONTINUOUS
 10
-34.6396599576
 20
21.2114205203
 11
-34.6603305305
 21
21.2320910932
  0
LINE
  5
52F
100
AcDbEntity
  8
IMPORT_IGES
100
AcDbLine
 62
7
  6
CONTINUOUS
 10
-9.8379007949
 20
-3.3014673859
 11
-9.817919241
 21
-3.3214489397
  0
LINE
  5
530
100
AcDbEntity
  8
IMPORT_IGES
100
AcDbLine
 62
7
  6
CONTINUOUS
 10
-10.436830645
 20
-2.702365281
 11
-10.4168490911
 21
-2.7223468348
  0
LINE
  5
531
100
AcDbEntity
  8
IMPORT_IGES
100
AcDbLine
 62
7
  6
CONTINUOUS
 10
-11.1697747095
 20
-1.949956427
 11
-10.8628167017
 21
-2.2569144348
  0
LINE
  5
532
100
AcDbEntity
  8
IMPORT_IGES
100
AcDbLine
 62
7
  6
CONTINUOUS
 10
-31.9529866627
 20
19.8935156191
 11
-31.6404866627
 21
19.5810156191
  0
LINE
  5
533
100
AcDbEntity
  8
IMPORT_IGES
100
AcDbLine
 62
7
  6
CONTINUOUS
 10
-0.343636198
 20
-11.2236378386
 11
-11.230201201
 21
-0.3369708356
  0
LINE
  5
534
100
AcDbEntity
  8
IMPORT_IGES
100
AcDbLine
 62
7
  6
CONTINUOUS
 10
-11.4424540172
 20
-0.1221610173
 11
-11.2289259316
 21
-0.335695605
  0
LINE
  5
535
100
AcDbEntity
  8
IMPORT_IGES
100
AcDbLine
 62
7
  6
CONTINUOUS
 10
-0.3424756827
 20
-11.2224773587
 11
-0.1289326984
 21
-11.4360268457
  0
LINE
  5
536
100
AcDbEntity
  8
IMPORT_IGES
100
AcDbLine
 62
7
  6
CONTINUOUS
 10
-0.2715096566
 20
-10.8714989995
 11
-0.1315031698
 21
-11.011506798
  0
LINE
  5
537
100
AcDbEntity
  8
IMPORT_IGES
100
AcDbLine
 62
7
  6
CONTINUOUS
 10
-10.8780616861
 20
-0.2648475936
 11
-11.0180681729
 21
-0.124839795
  0
LINE
  5
538
100
AcDbEntity
  8
IMPORT_IGES
100
AcDbLine
 62
7
  6
CONTINUOUS
 10
0.0834562979
 20
-11.2236398394
 11
-0.1286747427
 21
-11.0115068113
  0
LINE
  5
539
100
AcDbEntity
  8
IMPORT_IGES
100
AcDbLine
 62
7
  6
CONTINUOUS
 10
-11.0180681596
 20
-0.1220113679
 11
-11.2301992002
 21
0.0901216602
  0
LINE
  5
53A
100
AcDbEntity
  8
IMPORT_IGES
100
AcDbLine
 62
7
  6
CONTINUOUS
 10
-36.6534905235
 20
25.5532743604
 11
-36.6672709054
 21
25.5670547423
  0
LINE
  5
53B
100
AcDbEntity
  8
IMPORT_IGES
100
AcDbLine
 62
7
  6
CONTINUOUS
 10
-11.0901914016
 20
0.230128147
 11
-10.7366396673
 21
-0.1234268998
  0
LINE
  5
53C
100
AcDbEntity
  8
IMPORT_IGES
100
AcDbLine
 62
7
  6
CONTINUOUS
 10
-0.1300876379
 20
-10.7300783058
 11
0.2234640964
 21
-11.0836333526
  0
LINE
  5
53D
100
AcDbEntity
  8
IMPORT_IGES
100
AcDbLine
 62
250
  6
CONTINUOUS
 10
-0.1300876379
 20
-10.7300783058
 11
-10.7366396673
 21
-0.1234268998
  0
LINE
  5
53E
100
AcDbEntity
  8
IMPORT_IGES
100
AcDbLine
 62
7
  6
CONTINUOUS
 10
-38.2430575804
 20
27.666495931
 11
-38.2843987262
 21
27.7078370768
  0
LINE
  5
53F
100
AcDbEntity
  8
IMPORT_IGES
100
AcDbLine
 62
7
  6
CONTINUOUS
 10
-37.7995015366
 20
25.5567194558
 11
-37.9350660439
 21
25.6924562179
  0
LINE
  5
540
100
AcDbEntity
  8
IMPORT_IGES
100
AcDbLine
 62
7
  6
CONTINUOUS
 10
-37.9274868339
 20
25.710715224
 11
-37.7805535114
 21
25.5636096468
  0
LINE
  5
541
100
AcDbEntity
  8
IMPORT_IGES
100
AcDbLine
 62
7
  6
CONTINUOUS
 10
-29.1524841234
 20
20.1530871872
 11
-29.7824198328
 21
20.7838841705
  0
LINE
  5
542
100
AcDbEntity
  8
IMPORT_IGES
100
AcDbLine
 62
7
  6
CONTINUOUS
 10
-32.7994622041
 20
25.5567194558
 11
-32.9350267114
 21
25.6924562179
  0
LINE
  5
543
100
AcDbEntity
  8
IMPORT_IGES
100
AcDbLine
 62
7
  6
CONTINUOUS
 10
-32.9274475014
 20
25.710715224
 11
-32.7805141789
 21
25.5636096468
  0
LWPOLYLINE
  5
544
100
AcDbEntity
  8
0
100
AcDbPolyline
 62
7
  6
CONTINUOUS
 90
13
 70
0
 43
0.3500000006
 10
-3.5357158098
 20
76.4823170471
 10
-3.5357158098
 20
77.76803302
 10
-3.321430192
 20
78.1966019897
 10
-2.8928586731
 20
78.6251800232
 10
-2.6785730553
 20
78.6251800232
 10
-2.250001678
 20
78.1966019897
 10
-2.0357159185
 20
77.76803302
 10
-2.0357159185
 20
76.4823170471
 10
-2.250001678
 20
76.0537480774
 10
-2.6785730553
 20
75.6251791077
 10
-2.8928586731
 20
75.6251791077
 10
-3.321430192
 20
76.0537480774
 10
-3.5357158098
 20
76.4823170471
  0
LINE
  5
545
100
AcDbEntity
  8
IMPORT_IGES
100
AcDbLine
 62
7
  6
CONTINUOUS
 10
-9.8179192411
 20
-3.3214489397
 11
-10.7165723984
 21
-4.2202743518
  0
LINE
  5
546
100
AcDbEntity
  8
IMPORT_IGES
100
AcDbLine
 62
7
  6
CONTINUOUS
 10
-10.2764614502
 20
-4.6391979628
 11
-9.4119147381
 21
-3.774478996
  0
LINE
  5
547
100
AcDbEntity
  8
IMPORT_IGES
100
AcDbLine
 62
7
  6
CONTINUOUS
 10
-9.3590325225
 20
-3.7606986141
 11
-10.2569966607
 21
-4.6584904976
  0
LINE
  5
548
100
AcDbEntity
  8
IMPORT_IGES
100
AcDbLine
 62
7
  6
CONTINUOUS
 10
-10.4363138807
 20
-4.5189641304
 11
-10.4165045816
 21
-4.4993270862
  0
LINE
  5
549
100
AcDbEntity
  8
IMPORT_IGES
100
AcDbLine
 62
7
  6
CONTINUOUS
 10
-10.1167812745
 20
-4.7990503933
 11
-10.1365905735
 21
-4.8186874376
  0
LINE
  5
54A
100
AcDbEntity
  8
IMPORT_IGES
100
AcDbLine
 62
7
  6
CONTINUOUS
 10
-9.4119147382
 20
-3.774478996
 11
-9.6780483644
 21
-3.7755125247
  0
LINE
  5
54B
100
AcDbEntity
  8
IMPORT_IGES
100
AcDbLine
 62
7
  6
CONTINUOUS
 10
-11.1820047985
 20
-1.9768281718
 11
-11.4615742971
 21
-1.9775171909
  0
LINE
  5
54C
100
AcDbEntity
  8
IMPORT_IGES
100
AcDbLine
 62
7
  6
CONTINUOUS
 10
-49.7500210106
 20
-4.2433564916
 11
-44.7501539329
 21
-4.2433564916
  0
LINE
  5
54D
100
AcDbEntity
  8
IMPORT_IGES
100
AcDbLine
 62
7
  6
CONTINUOUS
 10
-43.9798493862
 20
-4.2433564916
 11
-44.0001566457
 21
-4.2433564916
  0
LINE
  5
54E
100
AcDbEntity
  8
IMPORT_IGES
100
AcDbLine
 62
7
  6
CONTINUOUS
 10
-35.7798493862
 20
-4.2362996502
 11
-43.9798493862
 21
-4.2362996502
  0
LINE
  5
54F
100
AcDbEntity
  8
IMPORT_IGES
100
AcDbLine
 62
7
  6
CONTINUOUS
 10
-36.2500698421
 20
-3.7434731367
 11
-37.2500088066
 21
-3.7434731367
  0
LINE
  5
550
100
AcDbEntity
  8
IMPORT_IGES
100
AcDbLine
 62
7
  6
CONTINUOUS
 10
-42.7501037489
 20
-3.7434731367
 11
-43.7500427134
 21
-3.7434731367
  0
LINE
  5
551
100
AcDbEntity
  8
IMPORT_IGES
100
AcDbLine
 62
7
  6
CONTINUOUS
 10
-12.0892706945
 20
-2.5624944043
 11
-12.0599873828
 21
-2.5624944043
  0
LINE
  5
552
100
AcDbEntity
  8
IMPORT_IGES
100
AcDbLine
 62
7
  6
CONTINUOUS
 10
-10.8619554279
 20
-2.5624944043
 11
-10.8912387395
 21
-2.5624944043
  0
LINE
  5
553
100
AcDbEntity
  8
IMPORT_IGES
100
AcDbLine
 62
7
  6
CONTINUOUS
 10
-11.4889628062
 20
-1.949956427
 11
-11.1697747094
 21
-1.949956427
  0
LINE
  5
554
100
AcDbEntity
  8
IMPORT_IGES
100
AcDbLine
 62
7
  6
CONTINUOUS
 10
-11.4617465519
 20
-3.1750323816
 11
-11.780590139
 21
-3.1746878721
  0
LINE
  5
555
100
AcDbEntity
  8
IMPORT_IGES
100
AcDbLine
 62
7
  6
CONTINUOUS
 10
-9.6780483644
 20
-3.746229213
 11
-9.3729851591
 21
-3.7469182321
  0
LINE
  5
556
100
AcDbEntity
  8
IMPORT_IGES
100
AcDbLine
 62
7
  6
CONTINUOUS
 10
-11.7685323049
 20
-3.1471271082
 11
-11.489135061
 21
-3.1478161273
  0
LINE
  5
557
100
AcDbEntity
  8
IMPORT_IGES
100
AcDbLine
 62
7
  6
CONTINUOUS
 10
-33.7899271561
 20
20.1565322827
 11
-33.8140428245
 21
20.1706571742
  0
LINE
  5
558
100
AcDbEntity
  8
IMPORT_IGES
100
AcDbLine
 62
7
  6
CONTINUOUS
 10
-31.5971238798
 20
27.6768312175
 11
-32.0038174018
 21
28.0833524847
  0
LINE
  5
559
100
AcDbEntity
  8
IMPORT_IGES
100
AcDbLine
 62
7
  6
CONTINUOUS
 10
-31.9814242811
 20
28.1384740125
 11
-31.5402798042
 21
27.6975017904
  0
LINE
  5
55A
100
AcDbEntity
  8
IMPORT_IGES
100
AcDbLine
 62
7
  6
CONTINUOUS
 10
-31.6534511909
 20
25.5532743604
 11
-31.6672315728
 21
25.5670547423
  0
LINE
  5
55B
100
AcDbEntity
  8
IMPORT_IGES
100
AcDbLine
 62
7
  6
CONTINUOUS
 10
-33.2430182478
 20
27.666495931
 11
-33.2843593936
 21
27.7078370768
  0
LINE
  5
55C
100
AcDbEntity
  8
IMPORT_IGES
100
AcDbLine
 62
7
  6
CONTINUOUS
 10
-31.1048197349
 20
25.5567194558
 11
-31.2403842422
 21
25.6924562179
  0
LINE
  5
55D
100
AcDbEntity
  8
IMPORT_IGES
100
AcDbLine
 62
7
  6
CONTINUOUS
 10
-31.2328050322
 20
25.710715224
 11
-31.0858717097
 21
25.5636096468
  0
LINE
  5
55E
100
AcDbEntity
  8
IMPORT_IGES
100
AcDbLine
 62
7
  6
CONTINUOUS
 10
12.3154412134
 20
-43.3372665296
 11
12.1176927326
 21
-42.7460881443
  0
LINE
  5
55F
100
AcDbEntity
  8
IMPORT_IGES
100
AcDbLine
 62
7
  6
CONTINUOUS
 10
11.8923834878
 20
-43.3372665296
 11
11.4693257623
 21
-42.0715384483
  0
LINE
  5
560
100
AcDbEntity
  8
IMPORT_IGES
100
AcDbLine
 62
7
  6
CONTINUOUS
 10
12.1176927326
 20
-42.6575491903
 11
12.3299106145
 21
-43.2924802882
  0
LINE
  5
561
100
AcDbEntity
  8
IMPORT_IGES
100
AcDbLine
 62
7
  6
CONTINUOUS
 10
11.4975755452
 20
-42.0612031618
 11
11.9068528889
 21
-43.2924802882
  0
LINE
  5
562
100
AcDbEntity
  8
IMPORT_IGES
100
AcDbLine
 62
7
  6
CONTINUOUS
 10
2.2500000002
 20
33.2564271716
 11
2.2500000002
 21
44.7564271716
  0
LINE
  5
563
100
AcDbEntity
  8
IMPORT_IGES
100
AcDbLine
 62
7
  6
CONTINUOUS
 10
44.7500000002
 20
2.2564271716
 11
33.2500000002
 21
2.2564271716
  0
LINE
  5
564
100
AcDbEntity
  8
IMPORT_IGES
100
AcDbLine
 62
7
  6
CONTINUOUS
 10
-32.9670660995
 20
21.4405193701
 11
-32.9420891572
 21
21.4267389881
  0
LINE
  5
565
100
AcDbEntity
  8
IMPORT_IGES
100
AcDbLine
 62
7
  6
CONTINUOUS
 10
7.0500000002
 20
-45.7435728284
 11
7.0500000002
 21
-46.7435728284
  0
LINE
  5
566
100
AcDbEntity
  8
IMPORT_IGES
100
AcDbLine
 62
7
  6
CONTINUOUS
 10
7.2500000002
 20
49.7564271716
 11
7.2500000002
 21
33.2564271716
  0
LINE
  5
567
100
AcDbEntity
  8
IMPORT_IGES
100
AcDbLine
 62
7
  6
CONTINUOUS
 10
8.2500000002
 20
-47.9435728284
 11
8.2500000002
 21
-46.7435708199
  0
LINE
  5
568
100
AcDbEntity
  8
IMPORT_IGES
100
AcDbLine
 62
7
  6
CONTINUOUS
 10
8.2500000002
 20
-45.7435728284
 11
8.2500000002
 21
-44.5435728284
  0
LINE
  5
569
100
AcDbEntity
  8
IMPORT_IGES
100
AcDbLine
 62
7
  6
CONTINUOUS
 10
9.2500000002
 20
-44.5435728284
 11
9.2500000002
 21
-45.7435748369
  0
LINE
  5
56A
100
AcDbEntity
  8
IMPORT_IGES
100
AcDbLine
 62
7
  6
CONTINUOUS
 10
9.2500000002
 20
-46.7435728284
 11
9.2500000002
 21
-47.9435728284
  0
LINE
  5
56B
100
AcDbEntity
  8
IMPORT_IGES
100
AcDbLine
 62
7
  6
CONTINUOUS
 10
10.4500000002
 20
-45.7435728284
 11
10.4500000002
 21
-46.7435728284
  0
LINE
  5
56C
100
AcDbEntity
  8
IMPORT_IGES
100
AcDbLine
 62
7
  6
CONTINUOUS
 10
-0.4836426848
 20
-11.0836300401
 11
-0.1300876379
 21
-10.7300783058
  0
LINE
  5
56D
100
AcDbEntity
  8
IMPORT_IGES
100
AcDbLine
 62
250
  6
CONTINUOUS
 10
-0.1300876379
 20
-10.7300783058
 11
17.5476647053
 21
6.94750841
  0
LINE
  5
56E
100
AcDbEntity
  8
IMPORT_IGES
100
AcDbLine
 62
7
  6
CONTINUOUS
 10
17.5476647053
 20
6.94750841
 11
17.9012197522
 21
7.3010601443
  0
LINE
  5
56F
100
AcDbEntity
  8
IMPORT_IGES
100
AcDbLine
 62
7
  6
CONTINUOUS
 10
18.041226239
 20
7.1610523457
 11
17.8290932109
 21
6.9489213051
  0
LINE
  5
570
100
AcDbEntity
  8
IMPORT_IGES
100
AcDbLine
 62
7
  6
CONTINUOUS
 10
-0.1315031698
 20
-11.011506798
 11
-0.343636198
 21
-11.2236378386
  0
LINE
  5
571
100
AcDbEntity
  8
IMPORT_IGES
100
AcDbLine
 62
7
  6
CONTINUOUS
 10
-0.1286747427
 20
-11.0115068113
 11
0.0113330558
 21
-10.8715003245
  0
LINE
  5
572
100
AcDbEntity
  8
IMPORT_IGES
100
AcDbLine
 62
7
  6
CONTINUOUS
 10
17.689085399
 20
6.8060863912
 11
17.8290931976
 21
6.946092878
  0
LINE
  5
573
100
AcDbEntity
  8
IMPORT_IGES
100
AcDbLine
 62
7
  6
CONTINUOUS
 10
18.0412242382
 20
6.7339598499
 11
0.0834562979
 21
-11.2236398394
  0
LINE
  5
574
100
AcDbEntity
  8
IMPORT_IGES
100
AcDbLine
 62
7
  6
CONTINUOUS
 10
-0.1289326984
 20
-11.4360268457
 11
0.0834562979
 21
-11.2236398394
  0
LINE
  5
575
100
AcDbEntity
  8
IMPORT_IGES
100
AcDbLine
 62
7
  6
CONTINUOUS
 10
18.0412242382
 20
6.7339598499
 11
18.2561638682
 21
6.9488974661
  0
LINE
  5
576
100
AcDbEntity
  8
IMPORT_IGES
100
AcDbLine
 62
7
  6
CONTINUOUS
 10
-47.0001457943
 20
-41.4934514259
 11
-46.2501485071
 21
-40.9935680709
  0
LINE
  5
577
100
AcDbEntity
  8
IMPORT_IGES
100
AcDbLine
 62
7
  6
CONTINUOUS
 10
-47.1710225304
 20
-30.5549287506
 11
-48.8325920829
 21
-31.3851967626
  0
LINE
  5
578
100
AcDbEntity
  8
IMPORT_IGES
100
AcDbLine
 62
7
  6
CONTINUOUS
 10
-48.8749667573
 20
-31.3645261897
 11
-47.189626046
 21
-30.5225448531
  0
LINE
  5
579
100
AcDbEntity
  8
IMPORT_IGES
100
AcDbLine
 62
7
  6
CONTINUOUS
 10
33.2500000002
 20
7.2564271716
 11
49.7500000002
 21
7.2564271716
  0
LINE
  5
57A
100
AcDbEntity
  8
IMPORT_IGES
100
AcDbLine
 62
7
  6
CONTINUOUS
 10
12.6801797405
 20
-55.7435728284
 11
12.6801797405
 21
-52.3132407832
  0
LINE
  5
57B
100
AcDbEntity
  8
IMPORT_IGES
100
AcDbLine
 62
7
  6
CONTINUOUS
 10
12.6801797405
 20
52.3260951265
 11
12.6801797405
 21
55.7564271713
  0
LINE
  5
57C
100
AcDbEntity
  8
IMPORT_IGES
100
AcDbLine
 62
7
  6
CONTINUOUS
 10
13.164312741
 20
-43.3503578924
 11
13.164312741
 21
-42.9080076321
  0
LINE
  5
57D
100
AcDbEntity
  8
IMPORT_IGES
100
AcDbLine
 62
7
  6
CONTINUOUS
 10
13.192562524
 20
-42.9183429186
 11
13.192562524
 21
-43.322452619
  0
LINE
  5
57E
100
AcDbEntity
  8
IMPORT_IGES
100
AcDbLine
 62
7
  6
CONTINUOUS
 10
13.249751109
 20
-42.243448713
 11
13.249751109
 21
-48.2434270101
  0
LINE
  5
57F
100
AcDbEntity
  8
IMPORT_IGES
100
AcDbLine
 62
7
  6
CONTINUOUS
 10
13.3476713668
 20
-48.1251406974
 11
13.3476713668
 21
-42.3251406973
  0
LINE
  5
580
100
AcDbEntity
  8
IMPORT_IGES
100
AcDbLine
 62
7
  6
CONTINUOUS
 10
13.9238174028
 20
-55.7435728284
 11
13.9238174029
 21
-50.2436494488
  0
LINE
  5
581
100
AcDbEntity
  8
IMPORT_IGES
100
AcDbLine
 62
7
  6
CONTINUOUS
 10
13.9238174032
 20
50.2565037921
 11
13.9238174031
 21
55.7564271716
  0
LINE
  5
582
100
AcDbEntity
  8
IMPORT_IGES
100
AcDbLine
 62
7
  6
CONTINUOUS
 10
13.9500000005
 20
-50.2436494488
 11
13.9500000004
 21
-55.7435728284
  0
LINE
  5
583
100
AcDbEntity
  8
IMPORT_IGES
100
AcDbLine
 62
7
  6
CONTINUOUS
 10
13.950001586
 20
50.2565037921
 11
13.9500000005
 21
55.7564271716
  0
LINE
  5
584
100
AcDbEntity
  8
IMPORT_IGES
100
AcDbLine
 62
7
  6
CONTINUOUS
 10
14.0111172113
 20
-42.3251406973
 11
14.0111172113
 21
-42.2834118206
  0
LINE
  5
585
100
AcDbEntity
  8
IMPORT_IGES
100
AcDbLine
 62
7
  6
CONTINUOUS
 10
14.0334713668
 20
-43.2693406973
 11
14.0334713668
 21
-44.0440406973
  0
LINE
  5
586
100
AcDbEntity
  8
IMPORT_IGES
100
AcDbLine
 62
7
  6
CONTINUOUS
 10
14.0334713668
 20
-46.4062406974
 11
14.0334713668
 21
-47.1809406974
  0
LINE
  5
587
100
AcDbEntity
  8
IMPORT_IGES
100
AcDbLine
 62
7
  6
CONTINUOUS
 10
14.0393669942
 20
-42.2730765342
 11
14.0393669942
 21
-42.3251406973
  0
LINE
  5
588
100
AcDbEntity
  8
IMPORT_IGES
100
AcDbLine
 62
7
  6
CONTINUOUS
 10
14.2494699232
 20
-43.2693406973
 11
14.2494699316
 21
-44.6155563891
  0
LINE
  5
589
100
AcDbEntity
  8
IMPORT_IGES
100
AcDbLine
 62
7
  6
CONTINUOUS
 10
14.2494699316
 20
-45.8347250056
 11
14.2494699231
 21
-47.1809406973
  0
LINE
  5
58A
100
AcDbEntity
  8
IMPORT_IGES
100
AcDbLine
 62
7
  6
CONTINUOUS
 10
14.3086650997
 20
-43.2693406973
 11
14.3086650996
 21
-43.4153906973
  0
LINE
  5
58B
100
AcDbEntity
  8
IMPORT_IGES
100
AcDbLine
 62
7
  6
CONTINUOUS
 10
14.3086650996
 20
-47.0348906974
 11
14.3086650997
 21
-47.1809406973
  0
LINE
  5
58C
100
AcDbEntity
  8
IMPORT_IGES
100
AcDbLine
 62
250
  6
CONTINUOUS
 10
14.3507558385
 20
-47.0348906974
 11
14.3507558382
 21
-45.8279201223
  0
LINE
  5
58D
100
AcDbEntity
  8
IMPORT_IGES
100
AcDbLine
 62
250
  6
CONTINUOUS
 10
14.3507558383
 20
-43.4153906972
 11
14.350755838
 21
-44.6223617278
  0
LINE
  5
58E
100
AcDbEntity
  8
IMPORT_IGES
100
AcDbLine
 62
7
  6
CONTINUOUS
 10
14.6118963502
 20
-47.1809406973
 11
14.6118963502
 21
-47.0348906974
  0
LINE
  5
58F
100
AcDbEntity
  8
IMPORT_IGES
100
AcDbLine
 62
7
  6
CONTINUOUS
 10
14.6118963502
 20
-43.4153906973
 11
14.6118963502
 21
-43.2693406973
  0
LINE
  5
590
100
AcDbEntity
  8
IMPORT_IGES
100
AcDbLine
 62
250
  6
CONTINUOUS
 10
14.7706848579
 20
-43.4153906972
 11
14.7706848608
 21
-44.6348604847
  0
LINE
  5
591
100
AcDbEntity
  8
IMPORT_IGES
100
AcDbLine
 62
250
  6
CONTINUOUS
 10
14.7706848607
 20
-45.8154211201
 11
14.7706848592
 21
-47.0348906975
  0
LINE
  5
592
100
AcDbEntity
  8
IMPORT_IGES
100
AcDbLine
 62
7
  6
CONTINUOUS
 10
14.9986713668
 20
-47.1809406974
 11
14.9986713668
 21
-47.0348906973
  0
LINE
  5
593
100
AcDbEntity
  8
IMPORT_IGES
100
AcDbLine
 62
7
  6
CONTINUOUS
 10
14.9986713668
 20
-45.8095157348
 11
14.9986713668
 21
-44.6407658584
  0
LINE
  5
594
100
AcDbEntity
  8
IMPORT_IGES
100
AcDbLine
 62
7
  6
CONTINUOUS
 10
14.9986713668
 20
-43.4153906973
 11
14.9986713668
 21
-43.2693406973
  0
LINE
  5
595
100
AcDbEntity
  8
IMPORT_IGES
100
AcDbLine
 62
7
  6
CONTINUOUS
 10
29.7500000002
 20
4.7564271716
 11
33.2500000002
 21
7.2564271716
  0
LINE
  5
596
100
AcDbEntity
  8
IMPORT_IGES
100
AcDbLine
 62
7
  6
CONTINUOUS
 10
-36.350149866
 20
13.5565906069
 11
-30.1500115212
 21
13.5565906069
  0
LINE
  5
597
100
AcDbEntity
  8
IMPORT_IGES
100
AcDbLine
 62
7
  6
CONTINUOUS
 10
-35.0404866627
 20
13.6185156191
 11
-31.4404866627
 21
13.6185156191
  0
LINE
  5
598
100
AcDbEntity
  8
IMPORT_IGES
100
AcDbLine
 62
7
  6
CONTINUOUS
 10
-34.5279866627
 20
13.6435156191
 11
-31.9529866627
 21
13.6435156191
  0
LINE
  5
599
100
AcDbEntity
  8
IMPORT_IGES
100
AcDbLine
 62
7
  6
CONTINUOUS
 10
-35.1404866627
 20
13.6685156191
 11
-34.5529866627
 21
13.6685156191
  0
LINE
  5
59A
100
AcDbEntity
  8
IMPORT_IGES
100
AcDbLine
 62
7
  6
CONTINUOUS
 10
-31.9279866627
 20
13.6685156191
 11
-31.3404866627
 21
13.6685156191
  0
LINE
  5
59B
100
AcDbEntity
  8
IMPORT_IGES
100
AcDbLine
 62
7
  6
CONTINUOUS
 10
-30.5354866627
 20
13.7560156191
 11
-31.2042340178
 21
13.7560156191
  0
LINE
  5
59C
100
AcDbEntity
  8
IMPORT_IGES
100
AcDbLine
 62
7
  6
CONTINUOUS
 10
-35.2767389558
 20
13.7560156191
 11
-35.9454866627
 21
13.7560156191
  0
LINE
  5
59D
100
AcDbEntity
  8
IMPORT_IGES
100
AcDbLine
 62
7
  6
CONTINUOUS
 10
-36.3654866627
 20
13.9560156191
 11
-35.9454866627
 21
13.9560156191
  0
LINE
  5
59E
100
AcDbEntity
  8
IMPORT_IGES
100
AcDbLine
 62
7
  6
CONTINUOUS
 10
-35.2904866627
 20
13.9560156191
 11
-34.8404866627
 21
13.9560156191
  0
LINE
  5
59F
100
AcDbEntity
  8
IMPORT_IGES
100
AcDbLine
 62
7
  6
CONTINUOUS
 10
-31.6404866627
 20
13.9560156191
 11
-31.1904866627
 21
13.9560156191
  0
LINE
  5
5A0
100
AcDbEntity
  8
IMPORT_IGES
100
AcDbLine
 62
7
  6
CONTINUOUS
 10
-30.5354866627
 20
13.9560156191
 11
-30.1154866627
 21
13.9560156191
  0
LINE
  5
5A1
100
AcDbEntity
  8
IMPORT_IGES
100
AcDbLine
 62
7
  6
CONTINUOUS
 10
-36.3904866627
 20
13.9685156191
 11
-36.3654866627
 21
13.9685156191
  0
LINE
  5
5A2
100
AcDbEntity
  8
IMPORT_IGES
100
AcDbLine
 62
7
  6
CONTINUOUS
 10
-30.1154866627
 20
13.9685156191
 11
-30.0904866627
 21
13.9685156191
  0
LINE
  5
5A3
100
AcDbEntity
  8
IMPORT_IGES
100
AcDbLine
 62
7
  6
CONTINUOUS
 10
-30.0904866627
 20
14.2676181549
 11
-30.1154866627
 21
14.2676181549
  0
LINE
  5
5A4
100
AcDbEntity
  8
IMPORT_IGES
100
AcDbLine
 62
7
  6
CONTINUOUS
 10
-36.3654866627
 20
14.2676181549
 11
-36.3904866627
 21
14.2676181549
  0
LINE
  5
5A5
100
AcDbEntity
  8
IMPORT_IGES
100
AcDbLine
 62
7
  6
CONTINUOUS
 10
-36.6404866627
 20
14.3935156191
 11
-36.3670567285
 21
14.3935156191
  0
LINE
  5
5A6
100
AcDbEntity
  8
IMPORT_IGES
100
AcDbLine
 62
7
  6
CONTINUOUS
 10
-30.1154866627
 20
14.3935156191
 11
-29.8404866627
 21
14.3935156191
  0
LINE
  5
5A7
100
AcDbEntity
  8
IMPORT_IGES
100
AcDbLine
 62
7
  6
CONTINUOUS
 10
-36.6404866627
 20
15.0565851811
 11
-36.6500454279
 21
15.0565851811
  0
LINE
  5
5A8
100
AcDbEntity
  8
IMPORT_IGES
100
AcDbLine
 62
7
  6
CONTINUOUS
 10
-29.8404866627
 20
15.1435156191
 11
-30.1054866627
 21
15.1435156191
  0
LINE
  5
5A9
100
AcDbEntity
  8
IMPORT_IGES
100
AcDbLine
 62
7
  6
CONTINUOUS
 10
-36.3754866627
 20
15.1435156191
 11
-36.6404866627
 21
15.1435156191
  0
LINE
  5
5AA
100
AcDbEntity
  8
IMPORT_IGES
100
AcDbLine
 62
7
  6
CONTINUOUS
 10
-36.3904866627
 20
15.2694130833
 11
-36.3754866627
 21
15.2694130833
  0
LINE
  5
5AB
100
AcDbEntity
  8
IMPORT_IGES
100
AcDbLine
 62
7
  6
CONTINUOUS
 10
-30.1054866627
 20
15.2694130833
 11
-30.0904866627
 21
15.2694130833
  0
LINE
  5
5AC
100
AcDbEntity
  8
IMPORT_IGES
100
AcDbLine
 62
7
  6
CONTINUOUS
 10
17.1976713668
 20
-44.6977250053
 11
17.1976713668
 21
-45.752556477
  0
LINE
  5
5AD
100
AcDbEntity
  8
IMPORT_IGES
100
AcDbLine
 62
7
  6
CONTINUOUS
 10
17.2376713668
 20
-44.6987610971
 11
17.2376713668
 21
-45.7515203832
  0
LINE
  5
5AE
100
AcDbEntity
  8
IMPORT_IGES
100
AcDbLine
 62
7
  6
CONTINUOUS
 10
18.3576713668
 20
-44.7277716675
 11
18.3576713668
 21
-45.7225097562
  0
LINE
  5
5AF
100
AcDbEntity
  8
IMPORT_IGES
100
AcDbLine
 62
7
  6
CONTINUOUS
 10
18.3976713668
 20
-45.7214736624
 11
18.3976713668
 21
-44.7288077593
  0
LWPOLYLINE
  5
5B0
100
AcDbEntity
  8
IMPORT_IGES
100
AcDbPolyline
 62
7
  6
CONTINUOUS
 90
10
 70
0
 10
44.5054368034
 20
45.8672586302
 10
44.5047204598
 20
45.8657593188
 10
44.5040137616
 20
45.8642554336
 10
44.5033167328
 20
45.8627470417
 10
44.5026293972
 20
45.8612342103
 10
44.5019517787
 20
45.8597170067
 10
44.5012839009
 20
45.858195498
 10
44.5006257879
 20
45.8566697515
 10
44.4999774633
 20
45.8551398345
 10
44.4993389512
 20
45.8536058141
  0
LINE
  5
5B1
100
AcDbEntity
  8
IMPORT_IGES
100
AcDbLine
 62
7
  6
CONTINUOUS
 10
-30.1154866627
 20
17.9810156191
 11
-30.2154866627
 21
17.9810156191
  0
LINE
  5
5B2
100
AcDbEntity
  8
IMPORT_IGES
100
AcDbLine
 62
7
  6
CONTINUOUS
 10
-36.2654866627
 20
17.9810156191
 11
-36.3654866627
 21
17.9810156191
  0
LINE
  5
5B3
100
AcDbEntity
  8
IMPORT_IGES
100
AcDbLine
 62
7
  6
CONTINUOUS
 10
-30.0904866627
 20
18.2676181549
 11
-30.1054866627
 21
18.2676181549
  0
LINE
  5
5B4
100
AcDbEntity
  8
IMPORT_IGES
100
AcDbLine
 62
7
  6
CONTINUOUS
 10
-36.3754866627
 20
18.2676181549
 11
-36.3904866627
 21
18.2676181549
  0
LINE
  5
5B5
100
AcDbEntity
  8
IMPORT_IGES
100
AcDbLine
 62
7
  6
CONTINUOUS
 10
-36.6404866627
 20
18.3935156191
 11
-36.3754866627
 21
18.3935156191
  0
LINE
  5
5B6
100
AcDbEntity
  8
IMPORT_IGES
100
AcDbLine
 62
7
  6
CONTINUOUS
 10
-30.1054866627
 20
18.3935156191
 11
-29.8404866627
 21
18.3935156191
  0
LINE
  5
5B7
100
AcDbEntity
  8
IMPORT_IGES
100
AcDbLine
 62
7
  6
CONTINUOUS
 10
-36.3404866627
 20
18.9810156191
 11
-36.2654866627
 21
18.9810156191
  0
LINE
  5
5B8
100
AcDbEntity
  8
IMPORT_IGES
100
AcDbLine
 62
7
  6
CONTINUOUS
 10
-30.2154866627
 20
18.9810156191
 11
-30.1404866627
 21
18.9810156191
  0
LINE
  5
5B9
100
AcDbEntity
  8
IMPORT_IGES
100
AcDbLine
 62
7
  6
CONTINUOUS
 10
-36.6404866627
 20
19.0565132943
 11
-36.6500454279
 21
19.0565132943
  0
LINE
  5
5BA
100
AcDbEntity
  8
IMPORT_IGES
100
AcDbLine
 62
7
  6
CONTINUOUS
 10
-29.8404866627
 20
19.1435156191
 11
-30.1404866627
 21
19.1435156191
  0
LINE
  5
5BB
100
AcDbEntity
  8
IMPORT_IGES
100
AcDbLine
 62
7
  6
CONTINUOUS
 10
-36.3404866627
 20
19.1435156191
 11
-36.6404866627
 21
19.1435156191
  0
LINE
  5
5BC
100
AcDbEntity
  8
IMPORT_IGES
100
AcDbLine
 62
7
  6
CONTINUOUS
 10
-36.3904866627
 20
19.2694130833
 11
-36.3404866627
 21
19.2694130833
  0
LINE
  5
5BD
100
AcDbEntity
  8
IMPORT_IGES
100
AcDbLine
 62
7
  6
CONTINUOUS
 10
-30.1404866627
 20
19.2694130833
 11
-30.0904866627
 21
19.2694130833
  0
LINE
  5
5BE
100
AcDbEntity
  8
IMPORT_IGES
100
AcDbLine
 62
7
  6
CONTINUOUS
 10
-30.1404866627
 20
19.4310156191
 11
-30.2154866627
 21
19.4310156191
  0
LINE
  5
5BF
100
AcDbEntity
  8
IMPORT_IGES
100
AcDbLine
 62
7
  6
CONTINUOUS
 10
-36.2654866627
 20
19.4310156191
 11
-36.3404866627
 21
19.4310156191
  0
LINE
  5
5C0
100
AcDbEntity
  8
IMPORT_IGES
100
AcDbLine
 62
7
  6
CONTINUOUS
 10
-30.0904866627
 20
19.5685156191
 11
-30.2154866627
 21
19.5685156191
  0
LINE
  5
5C1
100
AcDbEntity
  8
IMPORT_IGES
100
AcDbLine
 62
7
  6
CONTINUOUS
 10
-36.2654866627
 20
19.5685156191
 11
-36.3904866627
 21
19.5685156191
  0
LINE
  5
5C2
100
AcDbEntity
  8
IMPORT_IGES
100
AcDbLine
 62
7
  6
CONTINUOUS
 10
-36.2654866627
 20
19.5810156191
 11
-35.9454866627
 21
19.5810156191
  0
LINE
  5
5C3
100
AcDbEntity
  8
IMPORT_IGES
100
AcDbLine
 62
7
  6
CONTINUOUS
 10
-35.2904866627
 20
19.5810156191
 11
-34.8404866627
 21
19.5810156191
  0
LINE
  5
5C4
100
AcDbEntity
  8
IMPORT_IGES
100
AcDbLine
 62
7
  6
CONTINUOUS
 10
-31.6404866627
 20
19.5810156191
 11
-31.1904866627
 21
19.5810156191
  0
LINE
  5
5C5
100
AcDbEntity
  8
IMPORT_IGES
100
AcDbLine
 62
7
  6
CONTINUOUS
 10
-30.5354866627
 20
19.5810156191
 11
-30.2154866627
 21
19.5810156191
  0
LINE
  5
5C6
100
AcDbEntity
  8
IMPORT_IGES
100
AcDbLine
 62
7
  6
CONTINUOUS
 10
-35.9454866627
 20
19.7810156191
 11
-35.2767393076
 21
19.7810156191
  0
LINE
  5
5C7
100
AcDbEntity
  8
IMPORT_IGES
100
AcDbLine
 62
7
  6
CONTINUOUS
 10
-31.2042343697
 20
19.7810156191
 11
-30.5354866627
 21
19.7810156191
  0
LINE
  5
5C8
100
AcDbEntity
  8
IMPORT_IGES
100
AcDbLine
 62
7
  6
CONTINUOUS
 10
-35.1404866627
 20
19.8685156191
 11
-34.5529866627
 21
19.8685156191
  0
LINE
  5
5C9
100
AcDbEntity
  8
IMPORT_IGES
100
AcDbLine
 62
7
  6
CONTINUOUS
 10
-31.9279866627
 20
19.8685156191
 11
-31.3404866627
 21
19.8685156191
  0
LINE
  5
5CA
100
AcDbEntity
  8
IMPORT_IGES
100
AcDbLine
 62
7
  6
CONTINUOUS
 10
-34.5279866627
 20
19.8935156191
 11
-31.9529866627
 21
19.8935156191
  0
LINE
  5
5CB
100
AcDbEntity
  8
IMPORT_IGES
100
AcDbLine
 62
7
  6
CONTINUOUS
 10
-31.4404866627
 20
19.9185156191
 11
-35.0404866627
 21
19.9185156191
  0
LINE
  5
5CC
100
AcDbEntity
  8
IMPORT_IGES
100
AcDbLine
 62
7
  6
CONTINUOUS
 10
-30.1500115212
 20
19.9565444898
 11
-36.350149866
 21
19.9565444898
  0
LINE
  5
5CD
100
AcDbEntity
  8
IMPORT_IGES
100
AcDbLine
 62
7
  6
CONTINUOUS
 10
-31.6841125408
 20
20.1496420917
 11
-32.5448696477
 21
20.1496420917
  0
LINE
  5
5CE
100
AcDbEntity
  8
IMPORT_IGES
100
AcDbLine
 62
7
  6
CONTINUOUS
 10
-34.2260762446
 20
20.1496420917
 11
-34.649995244
 21
20.1496420917
  0
LINE
  5
5CF
100
AcDbEntity
  8
IMPORT_IGES
100
AcDbLine
 62
7
  6
CONTINUOUS
 10
-29.9744839062
 20
20.1627334546
 11
-30.0029059439
 21
20.1627334546
  0
LINE
  5
5D0
100
AcDbEntity
  8
IMPORT_IGES
100
AcDbLine
 62
7
  6
CONTINUOUS
 10
-30.3984029057
 20
20.1627334546
 11
-30.4285474912
 21
20.1627334546
  0
LINE
  5
5D1
100
AcDbEntity
  8
IMPORT_IGES
100
AcDbLine
 62
7
  6
CONTINUOUS
 10
-31.2453796307
 20
20.1627334546
 11
-31.2738016684
 21
20.1627334546
  0
LINE
  5
5D2
100
AcDbEntity
  8
IMPORT_IGES
100
AcDbLine
 62
7
  6
CONTINUOUS
 10
-35.9062493127
 20
20.1627334546
 11
-35.9346713504
 21
20.1627334546
  0
LINE
  5
5D3
100
AcDbEntity
  8
IMPORT_IGES
100
AcDbLine
 62
7
  6
CONTINUOUS
 10
-34.649995244
 20
20.1775473652
 11
-34.4519022536
 21
20.1775473652
  0
LINE
  5
5D4
100
AcDbEntity
  8
IMPORT_IGES
100
AcDbLine
 62
7
  6
CONTINUOUS
 10
-34.4243414897
 20
20.1775473652
 11
-34.2260762445
 21
20.1775473652
  0
LINE
  5
5D5
100
AcDbEntity
  8
IMPORT_IGES
100
AcDbLine
 62
7
  6
CONTINUOUS
 10
-32.51644761
 20
20.1775473652
 11
-31.6841125407
 21
20.1775473652
  0
LINE
  5
5D6
100
AcDbEntity
  8
IMPORT_IGES
100
AcDbLine
 62
7
  6
CONTINUOUS
 10
-29.7824198329
 20
20.7838841706
 11
-29.9744839062
 21
20.7838841706
  0
LINE
  5
5D7
100
AcDbEntity
  8
IMPORT_IGES
100
AcDbLine
 62
7
  6
CONTINUOUS
 10
-29.348165547
 20
20.7838841706
 11
-29.7436625087
 21
20.7838841706
  0
LINE
  5
5D8
100
AcDbEntity
  8
IMPORT_IGES
100
AcDbLine
 62
7
  6
CONTINUOUS
 10
-32.1071702663
 20
20.7838841706
 11
-32.5164476099
 21
20.7838841706
  0
LINE
  5
5D9
100
AcDbEntity
  8
IMPORT_IGES
100
AcDbLine
 62
7
  6
CONTINUOUS
 10
-35.2799309535
 20
20.7838841706
 11
-35.9062493127
 21
20.7838841706
  0
LINE
  5
5DA
100
AcDbEntity
  8
IMPORT_IGES
100
AcDbLine
 62
7
  6
CONTINUOUS
 10
-35.9062493127
 20
20.8124784631
 11
-35.2911275138
 21
20.8124784631
  0
LINE
  5
5DB
100
AcDbEntity
  8
IMPORT_IGES
100
AcDbLine
 62
7
  6
CONTINUOUS
 10
-32.51644761
 20
20.8124784631
 11
-32.1071702663
 21
20.8124784631
  0
LINE
  5
5DC
100
AcDbEntity
  8
IMPORT_IGES
100
AcDbLine
 62
7
  6
CONTINUOUS
 10
-29.9744839062
 20
20.8124784631
 11
-29.3593621073
 21
20.8124784631
  0
LINE
  5
5DD
100
AcDbEntity
  8
IMPORT_IGES
100
AcDbLine
 62
7
  6
CONTINUOUS
 10
-29.3593621073
 20
21.4198487972
 11
-29.9744839061
 21
21.4198487972
  0
LINE
  5
5DE
100
AcDbEntity
  8
IMPORT_IGES
100
AcDbLine
 62
7
  6
CONTINUOUS
 10
-31.6841125408
 20
21.4198487972
 11
-32.51644761
 21
21.4198487972
  0
LINE
  5
5DF
100
AcDbEntity
  8
IMPORT_IGES
100
AcDbLine
 62
7
  6
CONTINUOUS
 10
-35.2911275138
 20
21.4198487972
 11
-35.9062493126
 21
21.4198487972
  0
LINE
  5
5E0
100
AcDbEntity
  8
IMPORT_IGES
100
AcDbLine
 62
7
  6
CONTINUOUS
 10
-30.4268249434
 20
21.4336291791
 11
-30.3984029056
 21
21.4336291791
  0
LINE
  5
5E1
100
AcDbEntity
  8
IMPORT_IGES
100
AcDbLine
 62
7
  6
CONTINUOUS
 10
-35.9346713505
 20
21.447409561
 11
-35.2799309535
 21
21.447409561
  0
LINE
  5
5E2
100
AcDbEntity
  8
IMPORT_IGES
100
AcDbLine
 62
7
  6
CONTINUOUS
 10
-34.4441507888
 20
21.447409561
 11
-34.4243414897
 21
21.447409561
  0
LINE
  5
5E3
100
AcDbEntity
  8
IMPORT_IGES
100
AcDbLine
 62
7
  6
CONTINUOUS
 10
-32.5448696478
 20
21.447409561
 11
-31.6841125408
 21
21.447409561
  0
LINE
  5
5E4
100
AcDbEntity
  8
IMPORT_IGES
100
AcDbLine
 62
7
  6
CONTINUOUS
 10
-30.002905944
 20
21.447409561
 11
-29.348165547
 21
21.447409561
  0
LWPOLYLINE
  5
5E5
100
AcDbEntity
  8
0
100
AcDbPolyline
 62
7
  6
CONTINUOUS
 90
3
 70
0
 43
0.3500000006
 10
62.0071067505
 20
1.6849974747
 10
62.2213957672
 20
1.6135708237
 10
62.5071069031
 20
1.4707129898
  0
LINE
  5
5E6
100
AcDbEntity
  8
IMPORT_IGES
100
AcDbLine
 62
7
  6
CONTINUOUS
 10
33.2500000002
 20
2.2564271716
 11
29.7500000002
 21
4.7564271716
  0
LINE
  5
5E7
100
AcDbEntity
  8
IMPORT_IGES
100
AcDbLine
 62
250
  6
CONTINUOUS
 10
6.9411126759
 20
17.5541598159
 11
17.5476647053
 21
6.94750841
  0
LINE
  5
5E8
100
AcDbEntity
  8
IMPORT_IGES
100
AcDbLine
 62
7
  6
CONTINUOUS
 10
17.9012164396
 20
6.5939533631
 11
17.5476647053
 21
6.94750841
  0
LINE
  5
5E9
100
AcDbEntity
  8
IMPORT_IGES
100
AcDbLine
 62
7
  6
CONTINUOUS
 10
6.9411126759
 20
17.5541598159
 11
6.5875609416
 21
17.9077148628
  0
LINE
  5
5EA
100
AcDbEntity
  8
IMPORT_IGES
100
AcDbLine
 62
7
  6
CONTINUOUS
 10
18.0412242382
 20
6.7339598499
 11
17.8290931976
 21
6.946092878
  0
LINE
  5
5EB
100
AcDbEntity
  8
IMPORT_IGES
100
AcDbLine
 62
7
  6
CONTINUOUS
 10
6.9396997807
 20
17.8355883214
 11
6.7275687401
 21
18.0477213496
  0
LINE
  5
5EC
100
AcDbEntity
  8
IMPORT_IGES
100
AcDbLine
 62
7
  6
CONTINUOUS
 10
17.8290932109
 20
6.9489213051
 11
17.6890867241
 21
7.0889291037
  0
LINE
  5
5ED
100
AcDbEntity
  8
IMPORT_IGES
100
AcDbLine
 62
7
  6
CONTINUOUS
 10
7.0825346946
 20
17.6955805096
 11
6.9425282078
 21
17.8355883082
  0
LINE
  5
5EE
100
AcDbEntity
  8
IMPORT_IGES
100
AcDbLine
 62
7
  6
CONTINUOUS
 10
18.041226239
 20
7.1610523457
 11
7.154661236
 21
18.0477193488
  0
LINE
  5
5EF
100
AcDbEntity
  8
IMPORT_IGES
100
AcDbLine
 62
7
  6
CONTINUOUS
 10
18.2561638682
 20
6.9488974661
 11
18.0426176138
 21
7.1624437205
  0
LINE
  5
5F0
100
AcDbEntity
  8
IMPORT_IGES
100
AcDbLine
 62
7
  6
CONTINUOUS
 10
7.1560016108
 20
18.0490597236
 11
6.9424702947
 21
18.2625910396
  0
LINE
  5
5F1
100
AcDbEntity
  8
IMPORT_IGES
100
AcDbLine
 62
7
  6
CONTINUOUS
 10
4.7500000002
 20
29.7564271716
 11
2.2500000002
 21
33.2564271716
  0
LINE
  5
5F2
100
AcDbEntity
  8
IMPORT_IGES
100
AcDbLine
 62
7
  6
CONTINUOUS
 10
22.5499987294
 20
-50.2436494488
 11
22.5499999999
 21
-55.7435728284
  0
LINE
  5
5F3
100
AcDbEntity
  8
IMPORT_IGES
100
AcDbLine
 62
7
  6
CONTINUOUS
 10
22.5499999998
 20
50.2565037921
 11
22.5499999999
 21
55.7564271716
  0
LINE
  5
5F4
100
AcDbEntity
  8
IMPORT_IGES
100
AcDbLine
 62
7
  6
CONTINUOUS
 10
22.5761825976
 20
55.7564271716
 11
22.5761825974
 21
50.2565037921
  0
LINE
  5
5F5
100
AcDbEntity
  8
IMPORT_IGES
100
AcDbLine
 62
7
  6
CONTINUOUS
 10
22.5761825973
 20
-50.2436494488
 11
22.5761825973
 21
-55.7435728284
  0
LINE
  5
5F6
100
AcDbEntity
  8
IMPORT_IGES
100
AcDbLine
 62
7
  6
CONTINUOUS
 10
23.8198202599
 20
55.7564271716
 11
23.8198202599
 21
52.3260951265
  0
LINE
  5
5F7
100
AcDbEntity
  8
IMPORT_IGES
100
AcDbLine
 62
7
  6
CONTINUOUS
 10
23.8198202599
 20
-52.3132407832
 11
23.8198202599
 21
-55.743572828
  0
LINE
  5
5F8
100
AcDbEntity
  8
IMPORT_IGES
100
AcDbLine
 62
7
  6
CONTINUOUS
 10
26.1476713669
 20
-48.1251406974
 11
26.1476713669
 21
-47.0348906973
  0
LINE
  5
5F9
100
AcDbEntity
  8
IMPORT_IGES
100
AcDbLine
 62
7
  6
CONTINUOUS
 10
26.1476713669
 20
-43.4153906973
 11
26.1476713669
 21
-42.3251406973
  0
LINE
  5
5FA
100
AcDbEntity
  8
IMPORT_IGES
100
AcDbLine
 62
7
  6
CONTINUOUS
 10
26.2498189226
 20
-43.2435599324
 11
26.2498189226
 21
-42.243448713
  0
LINE
  5
5FB
100
AcDbEntity
  8
IMPORT_IGES
100
AcDbLine
 62
7
  6
CONTINUOUS
 10
26.2498189226
 20
-47.2436603003
 11
26.2498189226
 21
-48.2434270101
  0
LINE
  5
5FC
100
AcDbEntity
  8
IMPORT_IGES
100
AcDbLine
 62
7
  6
CONTINUOUS
 10
26.7500467871
 20
-43.2435599324
 11
26.7500467871
 21
-43.4153906973
  0
LINE
  5
5FD
100
AcDbEntity
  8
IMPORT_IGES
100
AcDbLine
 62
7
  6
CONTINUOUS
 10
26.7500467871
 20
-47.0348906973
 11
26.7500467871
 21
-47.2436603003
  0
LINE
  5
5FE
100
AcDbEntity
  8
IMPORT_IGES
100
AcDbLine
 62
7
  6
CONTINUOUS
 10
27.3188742138
 20
-47.0348906974
 11
27.3188742138
 21
-43.4153906973
  0
LINE
  5
5FF
100
AcDbEntity
  8
IMPORT_IGES
100
AcDbLine
 62
7
  6
CONTINUOUS
 10
11.9068528889
 20
-43.2924802882
 11
12.1176927326
 21
-42.6575491903
  0
LINE
  5
600
100
AcDbEntity
  8
IMPORT_IGES
100
AcDbLine
 62
7
  6
CONTINUOUS
 10
12.1176927326
 20
-42.7460881443
 11
11.92132229
 21
-43.3372665295
  0
LINE
  5
601
100
AcDbEntity
  8
IMPORT_IGES
100
AcDbLine
 62
7
  6
CONTINUOUS
 10
12.3299106145
 20
-43.2924802882
 11
12.7391879582
 21
-42.0612031618
  0
LINE
  5
602
100
AcDbEntity
  8
IMPORT_IGES
100
AcDbLine
 62
7
  6
CONTINUOUS
 10
12.7674377411
 20
-42.0715384483
 11
12.3443800156
 21
-43.3372665296
  0
LWPOLYLINE
  5
603
100
AcDbEntity
  8
IMPORT_IGES
100
AcDbPolyline
 62
7
  6
CONTINUOUS
 90
35
 70
0
 10
44.4993389512
 20
45.8536058141
 10
44.4971625141
 20
45.8481555532
 10
44.4951098452
 20
45.8426578986
 10
44.4931819949
 20
45.8371158124
 10
44.4913800133
 20
45.8315322568
 10
44.4897049508
 20
45.8259101938
 10
44.4881578577
 20
45.8202525855
 10
44.4867397841
 20
45.8145623941
 10
44.4854517806
 20
45.8088425816
 10
44.4842948972
 20
45.8030961102
 10
44.4832701844
 20
45.7973259419
 10
44.4823786923
 20
45.7915350389
 10
44.4816214713
 20
45.7857263633
 10
44.4809995717
 20
45.7799028771
 10
44.4805140437
 20
45.7740675425
 10
44.4801659376
 20
45.7682233216
 10
44.4799563037
 20
45.7623731765
 10
44.4798861924
 20
45.7565200693
 10
44.4799563037
 20
45.7506669621
 10
44.4801659376
 20
45.7448168169
 10
44.4805140437
 20
45.738972596
 10
44.4809995717
 20
45.7331372614
 10
44.4816214713
 20
45.7273137753
 10
44.4823786923
 20
45.7215050996
 10
44.4832701844
 20
45.7157141966
 10
44.4842948972
 20
45.7099440284
 10
44.4854517806
 20
45.7041975569
 10
44.4867397841
 20
45.6984777444
 10
44.4881578576
 20
45.692787553
 10
44.4897049508
 20
45.6871299447
 10
44.4913800133
 20
45.6815078817
 10
44.4931819949
 20
45.6759243261
 10
44.4951098452
 20
45.67038224
 10
44.4971625141
 20
45.6648845854
 10
44.4993389512
 20
45.6594343245
  0
LWPOLYLINE
  5
604
100
AcDbEntity
  8
IMPORT_IGES
100
AcDbPolyline
 62
7
  6
CONTINUOUS
 90
35
 70
0
 10
47.0005023349
 20
45.6594343245
 10
47.002678772
 20
45.6648845854
 10
47.0047314409
 20
45.67038224
 10
47.0066592912
 20
45.6759243261
 10
47.0084612728
 20
45.6815078817
 10
47.0101363353
 20
45.6871299447
 10
47.0116834284
 20
45.692787553
 10
47.0131015019
 20
45.6984777444
 10
47.0143895055
 20
45.7041975569
 10
47.0155463889
 20
45.7099440283
 10
47.0165711017
 20
45.7157141966
 10
47.0174625938
 20
45.7215050996
 10
47.0182198148
 20
45.7273137753
 10
47.0188417144
 20
45.7331372614
 10
47.0193272424
 20
45.738972596
 10
47.0196753485
 20
45.7448168169
 10
47.0198849823
 20
45.7506669621
 10
47.0199550937
 20
45.7565200693
 10
47.0198849824
 20
45.7623731765
 10
47.0196753485
 20
45.7682233216
 10
47.0193272424
 20
45.7740675425
 10
47.0188417144
 20
45.7799028771
 10
47.0182198148
 20
45.7857263633
 10
47.0174625938
 20
45.7915350389
 10
47.0165711017
 20
45.7973259419
 10
47.0155463889
 20
45.8030961102
 10
47.0143895055
 20
45.8088425816
 10
47.0131015019
 20
45.8145623941
 10
47.0116834284
 20
45.8202525855
 10
47.0101363353
 20
45.8259101938
 10
47.0084612728
 20
45.8315322568
 10
47.0066592912
 20
45.8371158124
 10
47.0047314409
 20
45.8426578986
 10
47.002678772
 20
45.8481555532
 10
47.0005023349
 20
45.8536058141
  0
LWPOLYLINE
  5
605
100
AcDbEntity
  8
IMPORT_IGES
100
AcDbPolyline
 62
250
  6
CONTINUOUS
 90
13
 70
0
 10
7.5499934332
 20
-45.7435885893
 10
7.585374397
 20
-45.6660800208
 10
7.6253204683
 20
-45.5916250947
 10
7.6698316471
 20
-45.5202238108
 10
7.7191349874
 20
-45.45159942
 10
7.7730034353
 20
-45.3860286715
 10
7.830755829
 20
-45.3243418132
 10
7.8924418607
 20
-45.2665885367
 10
7.9580118383
 20
-45.2127191503
 10
8.0266355235
 20
-45.1634148279
 10
8.0980361703
 20
-45.1189026272
 10
8.1724905247
 20
-45.0789554903
 10
8.2499985868
 20
-45.0435734173
  0
LWPOLYLINE
  5
606
100
AcDbEntity
  8
IMPORT_IGES
100
AcDbPolyline
 62
7
  6
CONTINUOUS
 90
10
 70
0
 10
46.9944044826
 20
45.6457815084
 10
46.9951208263
 20
45.6472808197
 10
46.9958275245
 20
45.648784705
 10
46.9965245532
 20
45.6502930969
 10
46.9972118889
 20
45.6518059283
 10
46.9978895074
 20
45.6533231319
 10
46.9985573852
 20
45.6548446406
 10
46.9992154982
 20
45.656370387
 10
46.9998638228
 20
45.6579003041
 10
47.0005023349
 20
45.6594343245
  0
LWPOLYLINE
  5
607
100
AcDbEntity
  8
0
100
AcDbPolyline
 62
7
  6
CONTINUOUS
 90
10
 70
0
 43
0.3500000006
 10
61.7928222656
 20
1.6135708237
 10
61.9356800995
 20
1.6849974747
 10
62.0071067505
 20
1.6849974747
 10
62.1499645844
 20
1.5421419067
 10
62.1499645844
 20
1.4707129898
 10
62.0785379333
 20
1.3992840729
 10
62.0071067505
 20
1.3992840729
 10
61.8642534485
 20
1.4707129898
 10
61.7928222656
 20
1.5421419067
 10
61.7928222656
 20
1.6135708237
  0
LINE
  5
608
100
AcDbEntity
  8
IMPORT_IGES
100
AcDbLine
 62
7
  6
CONTINUOUS
 10
-31.2738016685
 20
21.43294016
 11
-31.2427958091
 21
21.4336291791
  0
LINE
  5
609
100
AcDbEntity
  8
IMPORT_IGES
100
AcDbLine
 62
7
  6
CONTINUOUS
 10
-46.7499999998
 20
22.0564271716
 11
-45.7499999998
 21
22.0564271716
  0
LINE
  5
60A
100
AcDbEntity
  8
IMPORT_IGES
100
AcDbLine
 62
7
  6
CONTINUOUS
 10
-31.7500861193
 20
23.131544489
 11
-33.7501363032
 21
23.131544489
  0
LINE
  5
60B
100
AcDbEntity
  8
IMPORT_IGES
100
AcDbLine
 62
7
  6
CONTINUOUS
 10
-36.7501254518
 20
23.131544489
 11
-38.7501756357
 21
23.131544489
  0
LINE
  5
60C
100
AcDbEntity
  8
IMPORT_IGES
100
AcDbLine
 62
7
  6
CONTINUOUS
 10
-46.7499999998
 20
23.2564271716
 11
-47.9499999998
 21
23.2564271716
  0
LINE
  5
60D
100
AcDbEntity
  8
IMPORT_IGES
100
AcDbLine
 62
7
  6
CONTINUOUS
 10
-45.7499995453
 20
23.2564271716
 11
-44.5499999998
 21
23.2564271716
  0
LINE
  5
60E
100
AcDbEntity
  8
IMPORT_IGES
100
AcDbLine
 62
7
  6
CONTINUOUS
 10
-31.7476031271
 20
23.2869952169
 11
-33.7476031271
 21
23.2869952169
  0
LINE
  5
60F
100
AcDbEntity
  8
IMPORT_IGES
100
AcDbLine
 62
7
  6
CONTINUOUS
 10
-36.7501836534
 20
23.2869952169
 11
-38.7501836534
 21
23.2869952169
  0
LINE
  5
610
100
AcDbEntity
  8
IMPORT_IGES
100
AcDbLine
 62
7
  6
CONTINUOUS
 10
-31.7163531271
 20
23.3338702169
 11
-31.9976031271
 21
23.3338702169
  0
LINE
  5
611
100
AcDbEntity
  8
IMPORT_IGES
100
AcDbLine
 62
7
  6
CONTINUOUS
 10
-33.4976031271
 20
23.3338702169
 11
-33.7788531271
 21
23.3338702169
  0
LINE
  5
612
100
AcDbEntity
  8
IMPORT_IGES
100
AcDbLine
 62
7
  6
CONTINUOUS
 10
-36.7189336534
 20
23.3338702169
 11
-37.0001836534
 21
23.3338702169
  0
LINE
  5
613
100
AcDbEntity
  8
IMPORT_IGES
100
AcDbLine
 62
7
  6
CONTINUOUS
 10
-38.5001836534
 20
23.3338702169
 11
-38.7814336534
 21
23.3338702169
  0
LINE
  5
614
100
AcDbEntity
  8
IMPORT_IGES
100
AcDbLine
 62
7
  6
CONTINUOUS
 10
-38.7814336534
 20
24.1463702169
 11
-38.5001836534
 21
24.1463702169
  0
LINE
  5
615
100
AcDbEntity
  8
IMPORT_IGES
100
AcDbLine
 62
7
  6
CONTINUOUS
 10
-37.0001836534
 20
24.1463702169
 11
-36.7189336534
 21
24.1463702169
  0
LINE
  5
616
100
AcDbEntity
  8
IMPORT_IGES
100
AcDbLine
 62
7
  6
CONTINUOUS
 10
-33.7788531271
 20
24.1463702169
 11
-33.4976031271
 21
24.1463702169
  0
LINE
  5
617
100
AcDbEntity
  8
IMPORT_IGES
100
AcDbLine
 62
7
  6
CONTINUOUS
 10
-31.9976031271
 20
24.1463702169
 11
-31.7163531271
 21
24.1463702169
  0
LINE
  5
618
100
AcDbEntity
  8
IMPORT_IGES
100
AcDbLine
 62
7
  6
CONTINUOUS
 10
-31.7476031271
 20
24.1932452169
 11
-33.7476031271
 21
24.1932452169
  0
LINE
  5
619
100
AcDbEntity
  8
IMPORT_IGES
100
AcDbLine
 62
7
  6
CONTINUOUS
 10
-36.7501836534
 20
24.1932452169
 11
-38.7501836534
 21
24.1932452169
  0
LINE
  5
61A
100
AcDbEntity
  8
IMPORT_IGES
100
AcDbLine
 62
7
  6
CONTINUOUS
 10
-47.9499999998
 20
24.2564271716
 11
-46.7499999998
 21
24.2564271716
  0
LINE
  5
61B
100
AcDbEntity
  8
IMPORT_IGES
100
AcDbLine
 62
7
  6
CONTINUOUS
 10
-45.7499999998
 20
24.2564271716
 11
-44.5499999998
 21
24.2564271716
  0
LINE
  5
61C
100
AcDbEntity
  8
IMPORT_IGES
100
AcDbLine
 62
7
  6
CONTINUOUS
 10
-38.7501756358
 20
24.3815973858
 11
-36.7501254518
 21
24.3815973858
  0
LINE
  5
61D
100
AcDbEntity
  8
IMPORT_IGES
100
AcDbLine
 62
7
  6
CONTINUOUS
 10
-33.7501363033
 20
24.3815973858
 11
-31.7500861193
 21
24.3815973858
  0
LINE
  5
61E
100
AcDbEntity
  8
IMPORT_IGES
100
AcDbLine
 62
7
  6
CONTINUOUS
 10
-31.0955179771
 20
24.8456517477
 11
-31.6694708849
 21
24.8456517477
  0
LINE
  5
61F
100
AcDbEntity
  8
IMPORT_IGES
100
AcDbLine
 62
7
  6
CONTINUOUS
 10
-31.9428392117
 20
24.8456517477
 11
-32.5167921195
 21
24.8456517477
  0
LINE
  5
620
100
AcDbEntity
  8
IMPORT_IGES
100
AcDbLine
 62
7
  6
CONTINUOUS
 10
-32.9274475014
 20
24.8456517477
 11
-33.3549838511
 21
24.8456517477
  0
LINE
  5
621
100
AcDbEntity
  8
IMPORT_IGES
100
AcDbLine
 62
7
  6
CONTINUOUS
 10
-36.3777106299
 20
24.8456517477
 11
-36.6603807144
 21
24.8456517477
  0
LINE
  5
622
100
AcDbEntity
  8
IMPORT_IGES
100
AcDbLine
 62
7
  6
CONTINUOUS
 10
-36.9428785442
 20
24.8456517477
 11
-37.516831452
 21
24.8456517477
  0
LINE
  5
623
100
AcDbEntity
  8
IMPORT_IGES
100
AcDbLine
 62
7
  6
CONTINUOUS
 10
-37.9274868339
 20
24.8456517477
 11
-38.3550231836
 21
24.8456517477
  0
LINE
  5
624
100
AcDbEntity
  8
IMPORT_IGES
100
AcDbLine
 62
7
  6
CONTINUOUS
 10
-38.3550231836
 20
24.8639107538
 11
-38.2229037717
 21
24.8639107538
  0
LINE
  5
625
100
AcDbEntity
  8
IMPORT_IGES
100
AcDbLine
 62
7
  6
CONTINUOUS
 10
-38.2044725109
 20
24.8639107538
 11
-37.9350660439
 21
24.8639107538
  0
LINE
  5
626
100
AcDbEntity
  8
IMPORT_IGES
100
AcDbLine
 62
7
  6
CONTINUOUS
 10
-37.4978834269
 20
24.8639107538
 11
-36.9428785442
 21
24.8639107538
  0
LINE
  5
627
100
AcDbEntity
  8
IMPORT_IGES
100
AcDbLine
 62
7
  6
CONTINUOUS
 10
-36.6603807144
 20
24.8639107538
 11
-36.5282613025
 21
24.8639107538
  0
LINE
  5
628
100
AcDbEntity
  8
IMPORT_IGES
100
AcDbLine
 62
7
  6
CONTINUOUS
 10
-36.5098300417
 20
24.8639107538
 11
-36.3777106298
 21
24.8639107538
  0
LINE
  5
629
100
AcDbEntity
  8
IMPORT_IGES
100
AcDbLine
 62
7
  6
CONTINUOUS
 10
-33.3549838511
 20
24.8639107538
 11
-33.2228644392
 21
24.8639107538
  0
LINE
  5
62A
100
AcDbEntity
  8
IMPORT_IGES
100
AcDbLine
 62
7
  6
CONTINUOUS
 10
-33.2044331784
 20
24.8639107538
 11
-32.9350267114
 21
24.8639107538
  0
LINE
  5
62B
100
AcDbEntity
  8
IMPORT_IGES
100
AcDbLine
 62
7
  6
CONTINUOUS
 10
-32.4978440944
 20
24.8639107538
 11
-31.9428392117
 21
24.8639107538
  0
LINE
  5
62C
100
AcDbEntity
  8
IMPORT_IGES
100
AcDbLine
 62
7
  6
CONTINUOUS
 10
-31.6505228598
 20
24.8639107538
 11
-31.0955179771
 21
24.8639107538
  0
LINE
  5
62D
100
AcDbEntity
  8
IMPORT_IGES
100
AcDbLine
 62
7
  6
CONTINUOUS
 10
-31.2328050322
 20
25.2683649637
 11
-31.5154751167
 21
25.2683649637
  0
LINE
  5
62E
100
AcDbEntity
  8
IMPORT_IGES
100
AcDbLine
 62
7
  6
CONTINUOUS
 10
-31.5223653077
 20
25.2873129889
 11
-31.2403842422
 21
25.2873129889
  0
LINE
  5
62F
100
AcDbEntity
  8
IMPORT_IGES
100
AcDbLine
 62
7
  6
CONTINUOUS
 10
-45.7499999998
 20
25.4564271716
 11
-46.7499999998
 21
25.4564271716
  0
LINE
  5
630
100
AcDbEntity
  8
IMPORT_IGES
100
AcDbLine
 62
7
  6
CONTINUOUS
 10
-31.5695631159
 20
25.5432835835
 11
-33.2912495846
 21
25.5432835835
  0
LINE
  5
631
100
AcDbEntity
  8
IMPORT_IGES
100
AcDbLine
 62
7
  6
CONTINUOUS
 10
-37.4158901543
 20
25.5432835835
 11
-38.2637281532
 21
25.5432835835
  0
LINE
  5
632
100
AcDbEntity
  8
IMPORT_IGES
100
AcDbLine
 62
7
  6
CONTINUOUS
 10
-38.2637281533
 20
25.5984051112
 11
-37.8673699177
 21
25.5984051112
  0
LINE
  5
633
100
AcDbEntity
  8
IMPORT_IGES
100
AcDbLine
 62
7
  6
CONTINUOUS
 10
-37.8122483899
 20
25.5984051112
 11
-37.4158901543
 21
25.5984051112
  0
LINE
  5
634
100
AcDbEntity
  8
IMPORT_IGES
100
AcDbLine
 62
7
  6
CONTINUOUS
 10
-33.2344055091
 20
25.5984051112
 11
-31.5695631158
 21
25.5984051112
  0
LINE
  5
635
100
AcDbEntity
  8
IMPORT_IGES
100
AcDbLine
 62
7
  6
CONTINUOUS
 10
-31.2403842423
 20
25.692456218
 11
-31.5154751168
 21
25.692456218
  0
LINE
  5
636
100
AcDbEntity
  8
IMPORT_IGES
100
AcDbLine
 62
7
  6
CONTINUOUS
 10
-32.9350267115
 20
25.692456218
 11
-33.2044331784
 21
25.692456218
  0
LINE
  5
637
100
AcDbEntity
  8
IMPORT_IGES
100
AcDbLine
 62
7
  6
CONTINUOUS
 10
-33.2228644392
 20
25.692456218
 11
-33.354983851
 21
25.692456218
  0
LINE
  5
638
100
AcDbEntity
  8
IMPORT_IGES
100
AcDbLine
 62
7
  6
CONTINUOUS
 10
-37.935066044
 20
25.692456218
 11
-38.2044725109
 21
25.692456218
  0
LINE
  5
639
100
AcDbEntity
  8
IMPORT_IGES
100
AcDbLine
 62
7
  6
CONTINUOUS
 10
-38.2229037718
 20
25.692456218
 11
-38.3550231836
 21
25.692456218
  0
LINE
  5
63A
100
AcDbEntity
  8
IMPORT_IGES
100
AcDbLine
 62
7
  6
CONTINUOUS
 10
-37.5168314521
 20
25.7014134662
 11
-37.4978834269
 21
25.7014134662
  0
LINE
  5
63B
100
AcDbEntity
  8
IMPORT_IGES
100
AcDbLine
 62
7
  6
CONTINUOUS
 10
-32.5167921195
 20
25.7014134662
 11
-32.4978440943
 21
25.7014134662
  0
LINE
  5
63C
100
AcDbEntity
  8
IMPORT_IGES
100
AcDbLine
 62
7
  6
CONTINUOUS
 10
-38.3550231836
 20
25.710715224
 11
-37.9274868338
 21
25.710715224
  0
LINE
  5
63D
100
AcDbEntity
  8
IMPORT_IGES
100
AcDbLine
 62
7
  6
CONTINUOUS
 10
-36.5230936593
 20
25.710715224
 11
-36.5098300416
 21
25.710715224
  0
LINE
  5
63E
100
AcDbEntity
  8
IMPORT_IGES
100
AcDbLine
 62
7
  6
CONTINUOUS
 10
-33.3549838511
 20
25.710715224
 11
-32.9274475013
 21
25.710715224
  0
LINE
  5
63F
100
AcDbEntity
  8
IMPORT_IGES
100
AcDbLine
 62
7
  6
CONTINUOUS
 10
-31.5223653077
 20
25.710715224
 11
-31.2328050321
 21
25.710715224
  0
LINE
  5
640
100
AcDbEntity
  8
IMPORT_IGES
100
AcDbLine
 62
7
  6
CONTINUOUS
 10
-31.9814242811
 20
26.8117677411
 11
-32.8294345347
 21
26.8117677411
  0
LINE
  5
641
100
AcDbEntity
  8
IMPORT_IGES
100
AcDbLine
 62
7
  6
CONTINUOUS
 10
-32.8501051077
 20
26.8686118166
 11
-32.0038174017
 21
26.8686118166
  0
LWPOLYLINE
  5
642
100
AcDbEntity
  8
0
100
AcDbPolyline
 62
7
  6
CONTINUOUS
 90
3
 70
0
 43
0.3500000006
 10
72.3274715424
 20
1.8992842255
 10
72.5417560272
 20
1.8278553085
 10
72.8274716949
 20
1.6849974747
  0
LINE
  5
643
100
AcDbEntity
  8
IMPORT_IGES
100
AcDbLine
 62
7
  6
CONTINUOUS
 10
27.3701480527
 20
-43.4153906972
 11
27.3701480527
 21
-47.0348906974
  0
LINE
  5
644
100
AcDbEntity
  8
IMPORT_IGES
100
AcDbLine
 62
7
  6
CONTINUOUS
 10
32.5000000002
 20
-49.2435728284
 11
32.5000000002
 21
-44.7435728284
  0
LWPOLYLINE
  5
645
100
AcDbEntity
  8
IMPORT_IGES
100
AcDbPolyline
 62
250
  6
CONTINUOUS
 90
13
 70
0
 10
9.9500065671
 20
-46.7435570674
 10
9.9146256034
 20
-46.8210656359
 10
9.8746795321
 20
-46.8955205621
 10
9.8301683533
 20
-46.9669218459
 10
9.7808650129
 20
-47.0355462368
 10
9.7269965651
 20
-47.1011169853
 10
9.6692441713
 20
-47.1628038435
 10
9.6075581396
 20
-47.2205571201
 10
9.5419881621
 20
-47.2744265064
 10
9.4733644769
 20
-47.3237308289
 10
9.4019638301
 20
-47.3682430296
 10
9.3275094756
 20
-47.4081901665
 10
9.2500014135
 20
-47.4435722395
  0
LWPOLYLINE
  5
646
100
AcDbEntity
  8
0
100
AcDbPolyline
 62
7
  6
CONTINUOUS
 90
10
 70
0
 43
0.3500000006
 10
72.1131870575
 20
1.8278553085
 10
72.2560448914
 20
1.8992842255
 10
72.3274715424
 20
1.8992842255
 10
72.4703293762
 20
1.7564263916
 10
72.4703293762
 20
1.6849974747
 10
72.3989027252
 20
1.6135708237
 10
72.3274715424
 20
1.6135708237
 10
72.1846137085
 20
1.6849974747
 10
72.1131870575
 20
1.7564263916
 10
72.1131870575
 20
1.8278553085
  0
LINE
  5
647
100
AcDbEntity
  8
IMPORT_IGES
100
AcDbLine
 62
7
  6
CONTINUOUS
 10
-32.0038174018
 20
28.0833524847
 11
-32.8294345348
 21
28.0833524847
  0
LINE
  5
648
100
AcDbEntity
  8
IMPORT_IGES
100
AcDbLine
 62
7
  6
CONTINUOUS
 10
-37.851866988
 20
28.1384740125
 11
-37.8122483899
 21
28.1384740125
  0
LINE
  5
649
100
AcDbEntity
  8
IMPORT_IGES
100
AcDbLine
 62
7
  6
CONTINUOUS
 10
-32.8501051077
 20
28.1384740125
 11
-31.981424281
 21
28.1384740125
  0
LINE
  5
64A
100
AcDbEntity
  8
IMPORT_IGES
100
AcDbLine
 62
7
  6
CONTINUOUS
 10
-44.7499999998
 20
32.5064271716
 11
-49.2499999998
 21
32.5064271716
  0
LINE
  5
64B
100
AcDbEntity
  8
IMPORT_IGES
100
AcDbLine
 62
7
  6
CONTINUOUS
 10
10.4289069257
 20
-42.080151187
 11
10.231847464
 21
-42.2782441774
  0
LINE
  5
64C
100
AcDbEntity
  8
IMPORT_IGES
100
AcDbLine
 62
7
  6
CONTINUOUS
 10
10.1932623945
 20
-42.2782441774
 11
10.4185716393
 21
-42.0525904231
  0
LWPOLYLINE
  5
64D
100
AcDbEntity
  8
0
100
AcDbPolyline
 62
7
  6
CONTINUOUS
 90
10
 70
0
 43
0.3500000006
 10
-15.0357145042
 20
-62.0420794373
 10
-15.6785713577
 20
-62.6849374237
 10
-16.1071425934
 20
-63.542079895
 10
-16.1071425934
 20
-64.6135113831
 10
-15.6785713577
 20
-65.0420803528
 10
-15.0357145042
 20
-65.0420803528
 10
-14.6071432686
 20
-64.6135113831
 10
-14.6071432686
 20
-63.7563689117
 10
-15.0357145042
 20
-63.3277954102
 10
-15.9642858925
 20
-63.3277954102
  0
LINE
  5
64E
100
AcDbEntity
  8
IMPORT_IGES
100
AcDbLine
 62
7
  6
CONTINUOUS
 10
10.2015306237
 20
-43.1357284437
 11
10.2222011967
 21
-43.1150578708
  0
LINE
  5
64F
100
AcDbEntity
  8
IMPORT_IGES
100
AcDbLine
 62
7
  6
CONTINUOUS
 10
11.0693501764
 20
-42.2679088909
 11
11.0486796035
 21
-42.2885794638
  0
LWPOLYLINE
  5
650
100
AcDbEntity
  8
0
100
AcDbPolyline
 62
7
  6
CONTINUOUS
 90
10
 70
0
 43
0.3500000006
 10
1.8214269018
 20
76.1251792603
 10
1.8928555355
 20
75.9823168945
 10
1.8928555355
 20
75.9108947754
 10
1.7499984097
 20
75.7680324097
 10
1.6785697761
 20
75.7680324097
 10
1.6071411424
 20
75.8394635925
 10
1.6071411424
 20
75.9108947754
 10
1.6785697761
 20
76.0537480774
 10
1.7499984097
 20
76.1251792603
 10
1.8214269018
 20
76.1251792603
  0
LWPOLYLINE
  5
651
100
AcDbEntity
  8
IMPORT_IGES
100
AcDbPolyline
 62
250
  6
CONTINUOUS
 90
31
 70
0
 10
45.579793887
 20
45.7564271716
 10
45.5806964523
 20
45.7713894002
 10
45.583489778
 20
45.7865262399
 10
45.5881738642
 20
45.8018376908
 10
45.5948121523
 20
45.8175757983
 10
45.6033412008
 20
45.833488517
 10
45.6135706859
 20
45.8488197104
 10
45.6257169625
 20
45.8636607711
 10
45.6395636758
 20
45.8779203065
 10
45.654271437
 20
45.8905680022
 10
45.6698289015
 20
45.9014062349
 10
45.6862474139
 20
45.910632628
 10
45.70272162
 20
45.917809737
 10
45.7190382793
 20
45.9227931969
 10
45.7354106321
 20
45.9257273729
 10
45.7516730456
 20
45.926607916
 10
45.7677713258
 20
45.9253908393
 10
45.7837596666
 20
45.9221201297
 10
45.7996350166
 20
45.9169234
 10
45.8156146552
 20
45.9097314839
 10
45.831481303
 20
45.9006135476
 10
45.8465800702
 20
45.8899047018
 10
45.8609842503
 20
45.8773900488
 10
45.8746205498
 20
45.8632844862
 10
45.8866141981
 20
45.8485678178
 10
45.8967523001
 20
45.8333061638
 10
45.905247751
 20
45.8174334039
 10
45.9118644662
 20
45.8017309805
 10
45.9165237509
 20
45.7864593744
 10
45.9193042999
 20
45.7713581048
 10
45.9202061134
 20
45.7564271716
  0
LINE
  5
652
100
AcDbEntity
  8
IMPORT_IGES
100
AcDbLine
 62
7
  6
CONTINUOUS
 10
13.3951341385
 20
-42.080151187
 11
13.1884284094
 21
-42.2885794638
  0
LINE
  5
653
100
AcDbEntity
  8
IMPORT_IGES
100
AcDbLine
 62
7
  6
CONTINUOUS
 10
13.164312741
 20
-42.9080076321
 11
13.3476713668
 21
-42.7246490063
  0
LINE
  5
654
100
AcDbEntity
  8
IMPORT_IGES
100
AcDbLine
 62
7
  6
CONTINUOUS
 10
13.3476713668
 20
-42.7634978663
 11
13.192562524
 21
-42.9183429185
  0
LINE
  5
655
100
AcDbEntity
  8
IMPORT_IGES
100
AcDbLine
 62
7
  6
CONTINUOUS
 10
11.0786519342
 20
-43.1253931572
 11
10.85299818
 21
-43.3503578924
  0
LINE
  5
656
100
AcDbEntity
  8
IMPORT_IGES
100
AcDbLine
 62
7
  6
CONTINUOUS
 10
10.8416293648
 20
-43.322452619
 11
11.0400668648
 21
-43.1253931572
  0
LINE
  5
657
100
AcDbEntity
  8
IMPORT_IGES
100
AcDbLine
 62
7
  6
CONTINUOUS
 10
13.1677578365
 20
-42.2679088909
 11
13.3847988521
 21
-42.0525904231
  0
LWPOLYLINE
  5
658
100
AcDbEntity
  8
0
100
AcDbPolyline
 62
7
  6
CONTINUOUS
 90
3
 70
0
 43
0.3500000006
 10
60.149963974
 20
-4.8150011101
 10
59.2928215027
 20
-3.9578586388
 10
62.2928224182
 20
-3.9578586388
  0
LWPOLYLINE
  5
659
100
AcDbEntity
  8
0
100
AcDbPolyline
 62
7
  6
CONTINUOUS
 90
3
 70
0
 43
0.3500000006
 10
60.149963974
 20
-3.1007161674
 10
59.2928215027
 20
-2.2435725632
 10
62.2928224182
 20
-2.2435725632
  0
LWPOLYLINE
  5
65A
100
AcDbEntity
  8
IMPORT_IGES
100
AcDbPolyline
 62
250
  6
CONTINUOUS
 90
31
 70
0
 10
45.579793887
 20
45.7564271716
 10
45.5807243527
 20
45.7413208084
 10
45.5835601498
 20
45.7260627185
 10
45.5883012783
 20
45.7106529019
 10
45.5950224818
 20
45.6948353916
 10
45.6036490167
 20
45.6788661546
 10
45.6139566523
 20
45.663513092
 10
45.62615488
 20
45.6486958277
 10
45.6400342082
 20
45.6344947377
 10
45.6547419318
 20
45.6219188512
 10
45.6702530461
 20
45.6111698117
 10
45.6865925556
 20
45.6020459756
 10
45.7029827695
 20
45.5949514418
 10
45.7192176716
 20
45.5900196889
 10
45.735503278
 20
45.5871172382
 10
45.7516799462
 20
45.5862477525
 10
45.7676952122
 20
45.5874550283
 10
45.7836015399
 20
45.5906952691
 10
45.7993966783
 20
45.5958407476
 10
45.8152874101
 20
45.6029492431
 10
45.8310669527
 20
45.6119629763
 10
45.8461127063
 20
45.6225808822
 10
45.8605132748
 20
45.6350217163
 10
45.8741800544
 20
45.6490667231
 10
45.8862246345
 20
45.6637585704
 10
45.8964413595
 20
45.6790430167
 10
45.9050358851
 20
45.6949743035
 10
45.9117367676
 20
45.7107578231
 10
45.9164535259
 20
45.7261287065
 10
45.9192766412
 20
45.7413518226
 10
45.9202061134
 20
45.7564271716
  0
LWPOLYLINE
  5
65B
100
AcDbEntity
  8
IMPORT_IGES
100
AcDbPolyline
 62
7
  6
CONTINUOUS
 90
81
 70
0
 10
43.717831071
 20
45.7565200693
 10
43.7194613926
 20
45.675755746
 10
43.7243375553
 20
45.5949499355
 10
43.7324373561
 20
45.5142572315
 10
43.743738592
 20
45.4338322274
 10
43.7582190601
 20
45.3538295166
 10
43.7758565574
 20
45.2744036927
 10
43.7966288809
 20
45.1957093491
 10
43.8205138276
 20
45.1179010793
 10
43.8474891945
 20
45.0411334768
 10
43.8775327786
 20
44.9655611351
 10
43.9094205756
 20
44.8938703662
 10
43.9440801614
 20
44.8235248329
 10
43.981444171
 20
44.7546115876
 10
44.0214452394
 20
44.6872176827
 10
44.0640160016
 20
44.6214301707
 10
44.1090890925
 20
44.5573361039
 10
44.1565971472
 20
44.4950225349
 10
44.2064728006
 20
44.4345765159
 10
44.2586486877
 20
44.3760850995
 10
44.3130574435
 20
44.3196353379
 10
44.3696279325
 20
44.2653096678
 10
44.4282599593
 20
44.2131853107
 10
44.488849381
 20
44.1633346982
 10
44.5512920546
 20
44.115830262
 10
44.6154838371
 20
44.0707444335
 10
44.6813205856
 20
44.0281496445
 10
44.748698157
 20
43.9881183264
 10
44.8175124083
 20
43.9507229108
 10
44.8876591966
 20
43.9160358293
 10
44.9590343788
 20
43.8841295134
 10
45.0333910027
 20
43.8543662222
 10
45.1088235164
 20
43.827623181
 10
45.1852256913
 20
43.8039205818
 10
45.2624912982
 20
43.7832786165
 10
45.3405141083
 20
43.7657174771
 10
45.4216001647
 20
43.7508608985
 10
45.503239353
 20
43.7393009427
 10
45.5852933921
 20
43.7310405783
 10
45.6676240007
 20
43.7260827737
 10
45.7500928979
 20
43.7244304973
 10
45.8325391254
 20
43.7260848823
 10
45.9148470535
 20
43.7310433591
 10
45.9968783752
 20
43.7393033415
 10
46.0784947837
 20
43.750862243
 10
46.1595579723
 20
43.765717477
 10
46.2375639745
 20
43.7832786416
 10
46.3148126033
 20
43.8039208877
 10
46.3911976585
 20
43.8276237552
 10
46.4666129398
 20
43.8543667838
 10
46.5409522472
 20
43.8841295134
 10
46.6123172577
 20
43.9160377132
 10
46.6824536763
 20
43.9507263954
 10
46.7512574297
 20
43.9881230776
 10
46.8186244444
 20
44.0281552774
 10
46.884450647
 20
44.0707505126
 10
46.9486319639
 20
44.1158363008
 10
47.0110643217
 20
44.1633401597
 10
47.071643647
 20
44.2131896071
 10
47.1302658664
 20
44.2653121606
 10
47.1868269063
 20
44.3196353379
 10
47.2412309988
 20
44.3760865846
 10
47.2934023304
 20
44.4345791113
 10
47.3432735703
 20
44.4950258825
 10
47.3907773877
 20
44.5573398625
 10
47.4358464516
 20
44.6214340157
 10
47.4784134312
 20
44.6872213066
 10
47.5184109958
 20
44.7546146996
 10
47.5557718144
 20
44.8235271591
 10
47.5904285562
 20
44.8938716494
 10
47.6223138904
 20
44.9655611351
 10
47.6523560847
 20
45.0411338745
 10
47.6793303235
 20
45.1179017266
 10
47.7032143766
 20
45.1957101205
 10
47.7239860139
 20
45.2744044849
 10
47.7416230052
 20
45.3538302487
 10
47.7561031202
 20
45.4338328407
 10
47.767404129
 20
45.51425769
 10
47.7755038011
 20
45.5949502252
 10
47.7803799065
 20
45.6757558754
 10
47.782010215
 20
45.7565200693
  0
LWPOLYLINE
  5
65C
100
AcDbEntity
  8
IMPORT_IGES
100
AcDbPolyline
 62
7
  6
CONTINUOUS
 90
41
 70
0
 10
45.495844851
 20
44.7405614107
 10
45.4959496429
 20
44.7336062501
 10
45.4962625554
 20
44.7266365725
 10
45.4967813939
 20
44.7196586505
 10
45.4975039636
 20
44.7126787566
 10
45.4984280701
 20
44.7057031631
 10
45.4995515185
 20
44.6987381426
 10
45.5008721142
 20
44.6917899676
 10
45.5023876626
 20
44.6848649105
 10
45.504095969
 20
44.6779692438
 10
45.5059948387
 20
44.67110924
 10
45.5080820772
 20
44.6642911715
 10
45.5103554896
 20
44.6575213109
 10
45.5128128814
 20
44.6508059306
 10
45.515452058
 20
44.6441513032
 10
45.5182708245
 20
44.637563701
 10
45.5212669865
 20
44.6310493965
 10
45.5244383492
 20
44.6246146623
 10
45.5277827179
 20
44.6182657707
 10
45.531297898
 20
44.6120089944
 10
45.5349816949
 20
44.6058506057
 10
45.5388319139
 20
44.5997968771
 10
45.5428463603
 20
44.5938540812
 10
45.5470228394
 20
44.5880284904
 10
45.5513591567
 20
44.5823263771
 10
45.5558531174
 20
44.5767540139
 10
45.5605025269
 20
44.5713176731
 10
45.5653051905
 20
44.5660236274
 10
45.5702589135
 20
44.5608781492
 10
45.5753186685
 20
44.5559269623
 10
45.5805196756
 20
44.5511299185
 10
45.5858567472
 20
44.5464888434
 10
45.5913246954
 20
44.5420055624
 10
45.5969183325
 20
44.5376819008
 10
45.6026324705
 20
44.533519684
 10
45.6084619219
 20
44.5295207374
 10
45.6144014986
 20
44.5256868864
 10
45.620446013
 20
44.5220199564
 10
45.6265902773
 20
44.5185217729
 10
45.6328291036
 20
44.5151941611
 10
45.6391573042
 20
44.5120389466
  0
LWPOLYLINE
  5
65D
100
AcDbEntity
  8
IMPORT_IGES
100
AcDbPolyline
 62
7
  6
CONTINUOUS
 90
41
 70
0
 10
46.003996435
 20
46.7724787279
 10
46.003891739
 20
46.7794333332
 10
46.0035791077
 20
46.7864025197
 10
46.003060727
 20
46.7933800124
 10
46.0023387822
 20
46.8003595359
 10
46.0014154591
 20
46.8073348152
 10
46.0002929432
 20
46.8142995752
 10
45.9989734201
 20
46.8212475406
 10
45.9974590754
 20
46.8281724364
 10
45.9957520946
 20
46.8350679873
 10
45.9938546633
 20
46.8419279183
 10
45.9917689672
 20
46.8487459541
 10
45.9894971917
 20
46.8555158197
 10
45.9870415226
 20
46.8622312398
 10
45.9844041453
 20
46.8688859394
 10
45.9815872455
 20
46.8754736432
 10
45.9785930087
 20
46.8819880762
 10
45.9754236205
 20
46.8884229632
 10
45.9720812666
 20
46.894772029
 10
45.9685681324
 20
46.9010289984
 10
45.9648864036
 20
46.9071875964
 10
45.9610382657
 20
46.9132415478
 10
45.9570259044
 20
46.9191845773
 10
45.9528515052
 20
46.92501041
 10
45.9485172536
 20
46.9307127706
 10
45.9440253354
 20
46.936285384
 10
45.9393779361
 20
46.941721975
 10
45.9345772412
 20
46.9470162684
 10
45.9296254363
 20
46.9521619892
 10
45.9245689628
 20
46.9571120444
 10
45.9193712572
 20
46.9619080345
 10
45.9140375037
 20
46.9665481346
 10
45.9085728868
 20
46.97103052
 10
45.9029825908
 20
46.9753533657
 10
45.8972718002
 20
46.979514847
 10
45.8914456993
 20
46.9835131391
 10
45.8855094724
 20
46.9873464171
 10
45.8794683041
 20
46.9910128562
 10
45.8733273787
 20
46.9945106316
 10
45.8670918805
 20
46.9978379185
 10
45.8607669939
 20
47.000992892
  0
LINE
  5
65E
100
AcDbEntity
  8
IMPORT_IGES
100
AcDbLine
 62
7
  6
CONTINUOUS
 10
44.7500000002
 20
-44.7435728284
 11
44.7500000002
 21
2.2564271716
  0
LINE
  5
65F
100
AcDbEntity
  8
IMPORT_IGES
100
AcDbLine
 62
7
  6
CONTINUOUS
 10
11.4693257623
 20
-42.0715384483
 11
11.4975755453
 21
-42.0612031618
  0
LWPOLYLINE
  5
660
100
AcDbEntity
  8
IMPORT_IGES
100
AcDbPolyline
 62
7
  6
CONTINUOUS
 90
41
 70
0
 10
46.7660515564
 20
45.5024442773
 10
46.7730022092
 20
45.5025492561
 10
46.7799671441
 20
45.5028627099
 10
46.7869401085
 20
45.5033824146
 10
46.7939148492
 20
45.5041061463
 10
46.8008851136
 20
45.505031681
 10
46.8078446488
 20
45.5061567946
 10
46.8147872017
 20
45.5074792632
 10
46.8217065197
 20
45.5089968628
 10
46.8285963497
 20
45.5107073694
 10
46.835450439
 20
45.512608559
 10
46.8422625346
 20
45.5146982075
 10
46.8490263837
 20
45.516974091
 10
46.8557357334
 20
45.5194339855
 10
46.8623843308
 20
45.5220756671
 10
46.8689659231
 20
45.5248969115
 10
46.8754742573
 20
45.527895495
 10
46.8819030807
 20
45.5310691935
 10
46.8882461402
 20
45.534415783
 10
46.8944971831
 20
45.5379330395
 10
46.9006499564
 20
45.541618739
 10
46.9066982074
 20
45.5454706575
 10
46.912635683
 20
45.549486571
 10
46.9184561305
 20
45.5536642556
 10
46.924153297
 20
45.5580014871
 10
46.9297209295
 20
45.5624960417
 10
46.9351527753
 20
45.5671456952
 10
46.9404425814
 20
45.5719482238
 10
46.9455840949
 20
45.5769014035
 10
46.9505327085
 20
45.5819613243
 10
46.9553273925
 20
45.5871621446
 10
46.9599663121
 20
45.5924986904
 10
46.9644476328
 20
45.5979657873
 10
46.96876952
 20
45.6035582613
 10
46.9729301389
 20
45.6092709383
 10
46.9769276552
 20
45.615098644
 10
46.9807602339
 20
45.6210362042
 10
46.9844260407
 20
45.627078445
 10
46.9879232408
 20
45.633220192
 10
46.9912499997
 20
45.6394562712
 10
46.9944044826
 20
45.6457815084
  0
LWPOLYLINE
  5
661
100
AcDbEntity
  8
IMPORT_IGES
100
AcDbPolyline
 62
7
  6
CONTINUOUS
 90
41
 70
0
 10
44.7337897296
 20
46.0105958613
 10
44.7268390769
 20
46.0104908825
 10
44.719874142
 20
46.0101774287
 10
44.7129011776
 20
46.0096577239
 10
44.7059264368
 20
46.0089339922
 10
44.6989561725
 20
46.0080084576
 10
44.6919966373
 20
46.0068833439
 10
44.6850540844
 20
46.0055608753
 10
44.6781347664
 20
46.0040432757
 10
44.6712449364
 20
46.0023327691
 10
44.6643908471
 20
46.0004315796
 10
44.6575787515
 20
45.998341931
 10
44.6508149024
 20
45.9960660475
 10
44.6441055527
 20
45.993606153
 10
44.6374569553
 20
45.9909644715
 10
44.630875363
 20
45.988143227
 10
44.6243670288
 20
45.9851446435
 10
44.6179382054
 20
45.981970945
 10
44.6115951459
 20
45.9786243555
 10
44.605344103
 20
45.975107099
 10
44.5991913297
 20
45.9714213995
 10
44.5931430787
 20
45.967569481
 10
44.5872056031
 20
45.9635535675
 10
44.5813851556
 20
45.959375883
 10
44.5756879891
 20
45.9550386515
 10
44.5701203566
 20
45.9505440969
 10
44.5646885108
 20
45.9458944433
 10
44.5593987047
 20
45.9410919147
 10
44.5542571912
 20
45.9361387351
 10
44.5493085776
 20
45.9310788143
 10
44.5445138936
 20
45.9258779939
 10
44.539874974
 20
45.9205414482
 10
44.5353936533
 20
45.9150743512
 10
44.5310717661
 20
45.9094818772
 10
44.5269111472
 20
45.9037692003
 10
44.5229136309
 20
45.8979414946
 10
44.5190810521
 20
45.8920039343
 10
44.5154152454
 20
45.8859616936
 10
44.5119180453
 20
45.8798199465
 10
44.5085912864
 20
45.8735838673
 10
44.5054368034
 20
45.8672586302
  0
LINE
  5
662
100
AcDbEntity
  8
IMPORT_IGES
100
AcDbLine
 62
7
  6
CONTINUOUS
 10
2.2500000002
 20
44.7564271716
 11
-44.7499999998
 21
44.7564271716
  0
LWPOLYLINE
  5
663
100
AcDbEntity
  8
0
100
AcDbPolyline
 62
7
  6
CONTINUOUS
 90
3
 70
0
 43
0.3500000006
 10
70.4703287659
 20
-5.2435723457
 10
69.6131862946
 20
-4.3864298744
 10
72.6131872101
 20
-4.3864298744
  0
LWPOLYLINE
  5
664
100
AcDbEntity
  8
IMPORT_IGES
100
AcDbPolyline
 62
7
  6
CONTINUOUS
 90
81
 70
0
 10
47.782010215
 20
45.7565200693
 10
47.7803799782
 20
45.8372816604
 10
47.7755040559
 20
45.9180847607
 10
47.7674046306
 20
45.9987747716
 10
47.7561038846
 20
46.079197095
 10
47.7416240004
 20
46.1591971324
 10
47.7239871604
 20
46.2386202856
 10
47.703215547
 20
46.3173119561
 10
47.6793313426
 20
46.3951175457
 10
47.6523567296
 20
46.471882456
 10
47.6223138904
 20
46.5474520887
 10
47.5904286543
 20
46.6191362404
 10
47.5557719139
 20
46.6894752867
 10
47.5184110282
 20
46.7583821841
 10
47.4784133561
 20
46.8257698897
 10
47.4358462565
 20
46.89155136
 10
47.3907770882
 20
46.9556395521
 10
47.3432732101
 20
47.0179474226
 10
47.2934019812
 20
47.0783879285
 10
47.2412307603
 20
47.1368740264
 10
47.1868269063
 20
47.1933186733
 10
47.1302650772
 20
47.2476361767
 10
47.0716421652
 20
47.2997528479
 10
47.0110622733
 20
47.3495962621
 10
46.9486295046
 20
47.3970939945
 10
46.884447962
 20
47.4421736203
 10
46.8186217485
 20
47.4847627149
 10
46.7512549673
 20
47.5247888534
 10
46.6824517214
 20
47.5621796111
 10
46.6123161137
 20
47.5968625633
 10
46.5409522472
 20
47.6287652851
 10
46.4666123823
 20
47.6585235129
 10
46.3911968402
 20
47.6852622683
 10
46.3148118031
 20
47.708961162
 10
46.2375634531
 20
47.7295998051
 10
46.1595579722
 20
47.7471578082
 10
46.0784945187
 20
47.7620104828
 10
45.9968780218
 20
47.773567325
 10
45.9148467443
 20
47.7818257878
 10
45.8325389487
 20
47.786783324
 10
45.7500928978
 20
47.7884373865
 10
45.6676241773
 20
47.7867854322
 10
45.5852937011
 20
47.7818285681
 10
45.5032397062
 20
47.7735697233
 10
45.4216004297
 20
47.762011827
 10
45.3405141084
 20
47.7471578083
 10
45.2624918196
 20
47.7295998302
 10
45.1852264915
 20
47.7089614679
 10
45.1088243348
 20
47.6852628424
 10
45.0333915603
 20
47.6585240745
 10
44.9590343789
 20
47.6287652851
 10
44.8876603407
 20
47.596864447
 10
44.8175143635
 20
47.5621830953
 10
44.7487006197
 20
47.524793604
 10
44.6813232818
 20
47.4847683472
 10
44.6154865225
 20
47.4421796988
 10
44.5512945143
 20
47.3971000328
 10
44.4888514298
 20
47.3496017233
 10
44.4282614414
 20
47.2997571442
 10
44.3696287218
 20
47.2476386695
 10
44.3130574435
 20
47.1933186732
 10
44.2586489265
 20
47.1368755115
 10
44.2064731502
 20
47.0783905238
 10
44.1565975078
 20
47.0179507701
 10
44.1090893925
 20
46.9556433105
 10
44.0640161972
 20
46.891555205
 10
44.0214453149
 20
46.8257735135
 10
43.9814441389
 20
46.7583852962
 10
43.9440800621
 20
46.6894776129
 10
43.9094204777
 20
46.6191375237
 10
43.8775327787
 20
46.5474520886
 10
43.8474885496
 20
46.4718828537
 10
43.8205128085
 20
46.3951181931
 10
43.7966277105
 20
46.3173127276
 10
43.7758554109
 20
46.2386210779
 10
43.7582180649
 20
46.1591978646
 10
43.7437378277
 20
46.0791977084
 10
43.7324368545
 20
45.9987752301
 10
43.7243373005
 20
45.9180850504
 10
43.7194613209
 20
45.8372817898
 10
43.717831071
 20
45.7565200693
  0
LINE
  5
665
100
AcDbEntity
  8
IMPORT_IGES
100
AcDbLine
 62
7
  6
CONTINUOUS
 10
49.7500000002
 20
7.2564271716
 11
49.7500000002
 21
-49.2435728284
  0
LINE
  5
666
100
AcDbEntity
  8
IMPORT_IGES
100
AcDbLine
 62
7
  6
CONTINUOUS
 10
50.2500766206
 20
-50.2436494488
 11
50.2500766206
 21
50.2565037921
  0
LINE
  5
667
100
AcDbEntity
  8
IMPORT_IGES
100
AcDbLine
 62
7
  6
CONTINUOUS
 10
51.3198169408
 20
49.3265311502
 11
51.3198202595
 21
-49.3136890092
  0
LWPOLYLINE
  5
668
100
AcDbEntity
  8
IMPORT_IGES
100
AcDbPolyline
 62
7
  6
CONTINUOUS
 90
28
 70
0
 10
51.3198202595
 20
-49.3136890092
 10
51.3163208823
 20
-49.4308400054
 10
51.3061674376
 20
-49.5467712129
 10
51.2893599252
 20
-49.6614826317
 10
51.2657911321
 20
-49.7753483767
 10
51.2355682715
 20
-49.8879943331
 10
51.1990129827
 20
-49.9982981563
 10
51.1560641072
 20
-50.1062353035
 10
51.1067828036
 20
-50.2118303177
 10
51.0516741873
 20
-50.3140344832
 10
50.9906829851
 20
-50.4128132758
 10
50.9238644702
 20
-50.5082012198
 10
50.8518895788
 20
-50.5992531725
 10
50.774708586
 20
-50.6859274902
 10
50.6923712166
 20
-50.7682658166
 10
50.6056975812
 20
-50.8454479404
 10
50.514646023
 20
-50.9174241466
 10
50.4192581987
 20
-50.9842441502
 10
50.3204791883
 20
-51.045236886
 10
50.2182744527
 20
-51.100347086
 10
50.112678531
 20
-51.1496300182
 10
50.0047401208
 20
-51.1925804209
 10
49.8944353065
 20
-51.22913729
 10
49.7817880038
 20
-51.2593616295
 10
49.6679186572
 20
-51.2829311899
 10
49.5532007484
 20
-51.2997385545
 10
49.4372607957
 20
-51.30989114
 10
49.3200987993
 20
-51.3133889462
  0
LINE
  5
669
100
AcDbEntity
  8
IMPORT_IGES
100
AcDbLine
 62
7
  6
CONTINUOUS
 10
-49.2499999998
 20
49.7564271716
 11
7.2500000002
 21
49.7564271716
  0
LINE
  5
66A
100
AcDbEntity
  8
IMPORT_IGES
100
AcDbLine
 62
7
  6
CONTINUOUS
 10
50.2500766206
 20
50.2565037921
 11
-50.2500766203
 21
50.2565037921
  0
LINE
  5
66B
100
AcDbEntity
  8
IMPORT_IGES
100
AcDbLine
 62
7
  6
CONTINUOUS
 10
-39.1803320449
 20
51.3262474313
 11
11.6803320468
 21
51.3262474313
  0
LINE
  5
66C
100
AcDbEntity
  8
IMPORT_IGES
100
AcDbLine
 62
7
  6
CONTINUOUS
 10
24.8196679551
 20
51.3262474313
 11
49.3201179074
 21
51.3262474312
  0
LWPOLYLINE
  5
66D
100
AcDbEntity
  8
IMPORT_IGES
100
AcDbPolyline
 62
7
  6
CONTINUOUS
 90
28
 70
0
 10
49.3201179074
 20
51.3262474312
 10
49.4372701009
 20
51.3227481845
 10
49.5532021178
 20
51.3125948178
 10
49.6679139581
 20
51.295787331
 10
49.7817796054
 20
51.2722184809
 10
49.8944250761
 20
51.2419955109
 10
50.0047284191
 20
51.2054401505
 10
50.1126652195
 20
51.1624912724
 10
50.2182598923
 20
51.113210004
 10
50.320463731
 20
51.0581014576
 10
50.4192422117
 20
50.9971103604
 10
50.5146298583
 20
50.9302919853
 10
50.6056815364
 20
50.8583172631
 10
50.6923556026
 20
50.7811364696
 10
50.7746937002
 20
50.698799329
 10
50.8518756248
 20
50.612125945
 10
50.9238516617
 20
50.5210746615
 10
50.9906715256
 20
50.4256871346
 10
51.0516641563
 20
50.3269084362
 10
51.1067742866
 20
50.2247040274
 10
51.1560571835
 20
50.119108447
 10
51.1990075888
 20
50.0111703837
 10
51.2355644991
 20
49.9008659218
 10
51.2657889176
 20
49.7882189769
 10
51.2893585959
 20
49.6743499838
 10
51.3061661178
 20
49.5596324208
 10
51.3163188994
 20
49.4436928096
 10
51.3198169408
 20
49.3265311502
  0
LWPOLYLINE
  5
66E
100
AcDbEntity
  8
0
100
AcDbPolyline
 62
7
  6
CONTINUOUS
 90
10
 70
0
 43
0.3500000006
 10
69.6131862946
 20
3.9707137527
 10
70.256044281
 20
3.3278557663
 10
71.1131867523
 20
2.8992845306
 10
72.1846137085
 20
2.8992845306
 10
72.6131872101
 20
3.3278557663
 10
72.6131872101
 20
3.9707137527
 10
72.1846137085
 20
4.3992849884
 10
71.3274712372
 20
4.3992849884
 10
70.8989022675
 20
3.9707137527
 10
70.8989022675
 20
3.0421423645
  0
LWPOLYLINE
  5
66F
100
AcDbEntity
  8
0
100
AcDbPolyline
 62
7
  6
CONTINUOUS
 90
5
 70
0
 43
0.3500000006
 10
60.5785374756
 20
3.5421425171
 10
60.3642529907
 20
3.8992848358
 10
59.7213950043
 20
3.8992848358
 10
59.2928215027
 20
3.5421425171
 10
59.2928215027
 20
2.6849977798
  0
LINE
  5
670
100
AcDbEntity
  8
IMPORT_IGES
100
AcDbLine
 62
250
  6
CONTINUOUS
 10
-41.4500000001
 20
55.7564271716
 11
-41.4238174024
 21
55.7564271716
  0
LINE
  5
671
100
AcDbEntity
  8
IMPORT_IGES
100
AcDbLine
 62
250
  6
CONTINUOUS
 10
13.9500000002
 20
55.7564271716
 11
13.9238174031
 21
55.7564271716
  0
LINE
  5
672
100
AcDbEntity
  8
IMPORT_IGES
100
AcDbLine
 62
250
  6
CONTINUOUS
 10
22.5499999999
 20
55.7564271716
 11
22.5761825976
 21
55.7564271716
  0
LINE
  5
673
100
AcDbEntity
  8
IMPORT_IGES
100
AcDbLine
 62
250
  6
CONTINUOUS
 10
-50.0499999998
 20
55.7564271716
 11
-50.0761825972
 21
55.7564271716
  0
LWPOLYLINE
  5
674
100
AcDbEntity
  8
IMPORT_IGES
100
AcDbPolyline
 62
7
  6
CONTINUOUS
 90
10
 70
0
 10
44.4993389512
 20
45.6594343245
 10
44.4999772802
 20
45.6579007401
 10
44.500625416
 20
45.6563712568
 10
44.5012833348
 20
45.6548459417
 10
44.5019510127
 20
45.6533248619
 10
44.5026284259
 20
45.6518080846
 10
44.5033155507
 20
45.6502956769
 10
44.5040123631
 20
45.6487877061
 10
44.5047188395
 20
45.6472842392
 10
44.505434956
 20
45.6457853435
  0
LWPOLYLINE
  5
675
100
AcDbEntity
  8
0
100
AcDbPolyline
 62
7
  6
CONTINUOUS
 90
7
 70
0
 43
0.3500000006
 10
62.2928224182
 20
0.1135703659
 10
62.2928224182
 20
-1.3864300919
 10
60.149963974
 20
0.1135703659
 10
59.7213950043
 20
0.1135703659
 10
59.2928215027
 20
-0.3150008698
 10
59.2928215027
 20
-0.9578588562
 10
59.9356794891
 20
-1.3864300919
  0
LWPOLYLINE
  5
676
100
AcDbEntity
  8
0
100
AcDbPolyline
 62
7
  6
CONTINUOUS
 90
6
 70
0
 43
0.3500000006
 10
62.2928224182
 20
2.6849977798
 10
62.2928224182
 20
3.756427002
 10
62.0785379333
 20
3.9707137527
 10
61.0071064453
 20
3.9707137527
 10
60.5785374756
 20
3.5421425171
 10
60.5785374756
 20
3.1135690155
  0
LWPOLYLINE
  5
677
100
AcDbEntity
  8
IMPORT_IGES
100
AcDbPolyline
 62
7
  6
CONTINUOUS
 90
37
 70
0
 10
45.6391573042
 20
44.5120389466
 10
45.6449426728
 20
44.5093400956
 10
45.6507928361
 20
44.5067845784
 10
45.6567039772
 20
44.5043737379
 10
45.662672279
 20
44.5021089174
 10
45.6686939247
 20
44.4999914597
 10
45.6747650973
 20
44.4980227079
 10
45.6808819799
 20
44.4962040052
 10
45.6870407554
 20
44.4945366945
 10
45.693237607
 20
44.4930221188
 10
45.6994687177
 20
44.4916616213
 10
45.7057302706
 20
44.4904565449
 10
45.7120184487
 20
44.4894082328
 10
45.7183294351
 20
44.4885180279
 10
45.7246594128
 20
44.4877872732
 10
45.7310045648
 20
44.487217312
 10
45.7373610743
 20
44.4868094871
 10
45.7437251243
 20
44.4865651416
 10
45.7500928978
 20
44.4864856186
 10
45.7564474439
 20
44.4865714653
 10
45.7627981019
 20
44.4868214569
 10
45.7691410768
 20
44.4872342574
 10
45.7754725736
 20
44.4878085313
 10
45.7817887973
 20
44.4885429426
 10
45.7880859527
 20
44.4894361555
 10
45.794360245
 20
44.4904868344
 10
45.8006078791
 20
44.4916936433
 10
45.8068250598
 20
44.4930552465
 10
45.8130079923
 20
44.4945703081
 10
45.8191528814
 20
44.4962374925
 10
45.8252559322
 20
44.4980554638
 10
45.8313133496
 20
44.5000228862
 10
45.8373213386
 20
44.502138424
 10
45.8432761042
 20
44.5044007412
 10
45.8491738512
 20
44.5068085022
 10
45.8550107848
 20
44.5093603711
 10
45.8607831098
 20
44.5120550122
  0
LWPOLYLINE
  5
678
100
AcDbEntity
  8
IMPORT_IGES
100
AcDbPolyline
 62
7
  6
CONTINUOUS
 90
37
 70
0
 10
45.8607669939
 20
47.000992892
 10
45.8549953879
 20
47.0036867248
 10
45.8491592035
 20
47.0062378264
 10
45.8432622341
 20
47.0086448618
 10
45.8373082728
 20
47.0109064956
 10
45.831301113
 20
47.0130213928
 10
45.8252445479
 20
47.0149882182
 10
45.8191423708
 20
47.0168056366
 10
45.8129983749
 20
47.0184723128
 10
45.8068163534
 20
47.0199869117
 10
45.8006000996
 20
47.0213480981
 10
45.7943534068
 20
47.0225545369
 10
45.7880800683
 20
47.0236048929
 10
45.7817838772
 20
47.0244978308
 10
45.7754686268
 20
47.0252320156
 10
45.7691381105
 20
47.0258061121
 10
45.7627961214
 20
47.0262187851
 10
45.7564464527
 20
47.0264686994
 10
45.7500928978
 20
47.0265545199
 10
45.7437241214
 20
47.0264749713
 10
45.7373590703
 20
47.0262305486
 10
45.7310015632
 20
47.0258225953
 10
45.724655419
 20
47.0252524552
 10
45.7183244563
 20
47.024521472
 10
45.7120124939
 20
47.0236309893
 10
45.7057233506
 20
47.0225823508
 10
45.6994608451
 20
47.0213769001
 10
45.6932287962
 20
47.0200159811
 10
45.6870310226
 20
47.0185009372
 10
45.6808713431
 20
47.0168331123
 10
45.6747535764
 20
47.01501385
 10
45.6686815412
 20
47.013044494
 10
45.6626590564
 20
47.0109263879
 10
45.6566899406
 20
47.0086608754
 10
45.6507780127
 20
47.0062493003
 10
45.6449270914
 20
47.0036930061
 10
45.6391409954
 20
47.0009933367
  0
LWPOLYLINE
  5
679
100
AcDbEntity
  8
IMPORT_IGES
100
AcDbPolyline
 62
7
  6
CONTINUOUS
 90
41
 70
0
 10
44.505434956
 20
45.6457853435
 10
44.5085894973
 20
45.639459739
 10
44.5119163328
 20
45.6332232985
 10
44.5154136276
 20
45.627081197
 10
44.5190795468
 20
45.6210386095
 10
44.5229122555
 20
45.6151007109
 10
44.5269099188
 20
45.6092726761
 10
44.5310707018
 20
45.60355968
 10
44.5353927696
 20
45.5979668976
 10
44.5398742874
 20
45.5924995038
 10
44.5445134202
 20
45.5871626736
 10
44.5493083331
 20
45.5819615818
 10
44.5542571912
 20
45.5769014035
 10
44.5593987047
 20
45.5719482238
 10
44.5646885108
 20
45.5671456952
 10
44.5701203566
 20
45.5624960417
 10
44.5756879891
 20
45.5580014871
 10
44.5813851556
 20
45.5536642556
 10
44.5872056031
 20
45.549486571
 10
44.5931430787
 20
45.5454706575
 10
44.5991913297
 20
45.541618739
 10
44.605344103
 20
45.5379330395
 10
44.6115951459
 20
45.534415783
 10
44.6179382054
 20
45.5310691935
 10
44.6243670288
 20
45.527895495
 10
44.630875363
 20
45.5248969115
 10
44.6374569553
 20
45.5220756671
 10
44.6441055527
 20
45.5194339855
 10
44.6508149024
 20
45.516974091
 10
44.6575787515
 20
45.5146982075
 10
44.6643908471
 20
45.512608559
 10
44.6712449364
 20
45.5107073694
 10
44.6781347664
 20
45.5089968628
 10
44.6850540844
 20
45.5074792632
 10
44.6919966373
 20
45.5061567946
 10
44.6989561725
 20
45.505031681
 10
44.7059264368
 20
45.5041061463
 10
44.7129011776
 20
45.5033824146
 10
44.719874142
 20
45.5028627099
 10
44.7268390769
 20
45.5025492561
 10
44.7337897296
 20
45.5024442773
  0
LWPOLYLINE
  5
67A
100
AcDbEntity
  8
IMPORT_IGES
100
AcDbPolyline
 62
7
  6
CONTINUOUS
 90
41
 70
0
 10
46.9944063301
 20
45.867254795
 10
46.9912517888
 20
45.8735803996
 10
46.9879249533
 20
45.8798168401
 10
46.9844276585
 20
45.8859589415
 10
46.9807617393
 20
45.8920015291
 10
46.9769290306
 20
45.8979394277
 10
46.9729313673
 20
45.9037674625
 10
46.9687705843
 20
45.9094804586
 10
46.9644485165
 20
45.915073241
 10
46.9599669987
 20
45.9205406348
 10
46.9553278659
 20
45.925877465
 10
46.950532953
 20
45.9310785568
 10
46.9455840949
 20
45.9361387351
 10
46.9404425814
 20
45.9410919147
 10
46.9351527753
 20
45.9458944433
 10
46.9297209295
 20
45.9505440969
 10
46.924153297
 20
45.9550386515
 10
46.9184561305
 20
45.959375883
 10
46.912635683
 20
45.9635535675
 10
46.9066982074
 20
45.967569481
 10
46.9006499564
 20
45.9714213995
 10
46.8944971831
 20
45.975107099
 10
46.8882461402
 20
45.9786243555
 10
46.8819030807
 20
45.981970945
 10
46.8754742573
 20
45.9851446435
 10
46.8689659231
 20
45.988143227
 10
46.8623843308
 20
45.9909644715
 10
46.8557357334
 20
45.993606153
 10
46.8490263837
 20
45.9960660475
 10
46.8422625346
 20
45.998341931
 10
46.835450439
 20
46.0004315796
 10
46.8285963497
 20
46.0023327691
 10
46.8217065197
 20
46.0040432757
 10
46.8147872017
 20
46.0055608753
 10
46.8078446488
 20
46.0068833439
 10
46.8008851136
 20
46.0080084576
 10
46.7939148492
 20
46.0089339922
 10
46.7869401085
 20
46.0096577239
 10
46.7799671441
 20
46.0101774287
 10
46.7730022092
 20
46.0104908825
 10
46.7660515564
 20
46.0105958613
  0
LWPOLYLINE
  5
67B
100
AcDbEntity
  8
IMPORT_IGES
100
AcDbPolyline
 62
7
  6
CONTINUOUS
 90
10
 70
0
 10
47.0005023349
 20
45.8536058141
 10
46.9998640059
 20
45.8551393984
 10
46.9992158701
 20
45.8566688817
 10
46.9985579513
 20
45.8581941969
 10
46.9978902734
 20
45.8597152767
 10
46.9972128602
 20
45.861232054
 10
46.9965257354
 20
45.8627444616
 10
46.9958289229
 20
45.8642524325
 10
46.9951224466
 20
45.8657558993
 10
46.9944063301
 20
45.867254795
  0
LWPOLYLINE
  5
67C
100
AcDbEntity
  8
0
100
AcDbPolyline
 62
7
  6
CONTINUOUS
 90
3
 70
0
 43
0.3500000006
 10
-12.2500003395
 20
67.9824504089
 10
-13.7499996643
 20
67.9824504089
 10
-13.1071428108
 20
70.3395978699
  0
LWPOLYLINE
  5
67D
100
AcDbEntity
  8
0
100
AcDbPolyline
 62
7
  6
CONTINUOUS
 90
7
 70
0
 43
0.3500000006
 10
72.6131872101
 20
0.3278548508
 10
72.6131872101
 20
-1.1721433411
 10
70.4703287659
 20
0.3278548508
 10
70.0417597961
 20
0.3278548508
 10
69.6131862946
 20
-0.1007163849
 10
69.6131862946
 20
-0.7435721054
 10
70.256044281
 20
-1.1721433411
  0
LWPOLYLINE
  5
67E
100
AcDbEntity
  8
0
100
AcDbPolyline
 62
7
  6
CONTINUOUS
 90
7
 70
0
 43
0.3500000006
 10
72.6131872101
 20
-2.0292869453
 10
72.6131872101
 20
-3.5292874031
 10
70.4703287659
 20
-2.0292869453
 10
70.0417597961
 20
-2.0292869453
 10
69.6131862946
 20
-2.457858181
 10
69.6131862946
 20
-3.1007161674
 10
70.256044281
 20
-3.5292874031
  0
LWPOLYLINE
  5
67F
100
AcDbEntity
  8
0
100
AcDbPolyline
 62
7
  6
CONTINUOUS
 90
7
 70
0
 43
0.3500000006
 10
0.3214269043
 20
75.6251791077
 10
-1.1785730932
 20
75.6251791077
 10
0.3214269043
 20
77.76803302
 10
0.3214269043
 20
78.1966019897
 10
-0.1071445172
 20
78.6251800232
 10
-0.7500016451
 20
78.6251800232
 10
-1.1785730932
 20
77.9823175049
  0
LINE
  5
680
100
AcDbEntity
  8
IMPORT_IGES
100
AcDbLine
 62
7
  6
CONTINUOUS
 10
-83.4288375718
 20
-61.2607232604
 11
-86.4462899782
 21
-61.3133930881
  0
LWPOLYLINE
  5
681
100
AcDbEntity
  8
0
100
AcDbPolyline
 62
7
  6
CONTINUOUS
 90
3
 70
0
 43
0.3500000006
 10
-94.38914328
 20
78.1322858276
 10
-93.5320053406
 20
78.9894237671
 10
-93.5320053406
 20
75.9894228516
  0
LWPOLYLINE
  5
682
100
AcDbEntity
  8
0
100
AcDbPolyline
 62
7
  6
CONTINUOUS
 90
3
 70
0
 43
0.3500000006
 10
-90.9605733948
 20
78.1322858276
 10
-90.1034354553
 20
78.9894237671
 10
-90.1034354553
 20
75.9894228516
  0
LINE
  5
683
100
AcDbEntity
  8
IMPORT_IGES
100
AcDbLine
 62
250
  6
CONTINUOUS
 10
-86.4462899782
 20
-55.7435728278
 11
-82.4462899782
 21
-55.7435728284
  0
LINE
  5
684
100
AcDbEntity
  8
IMPORT_IGES
100
AcDbLine
 62
250
  6
CONTINUOUS
 10
-86.4462899782
 20
-52.3132407832
 11
-83.4288380199
 21
-52.26057096
  0
LINE
  5
685
100
AcDbEntity
  8
IMPORT_IGES
100
AcDbLine
 62
7
  6
CONTINUOUS
 10
-86.4462899662
 20
-51.3133930879
 11
-83.4288382188
 21
-51.2607232717
  0
LINE
  5
686
100
AcDbEntity
  8
IMPORT_IGES
100
AcDbLine
 62
250
  6
CONTINUOUS
 10
-83.4288375054
 20
-49.2610278321
 11
-86.4462899541
 21
-49.3136890092
  0
LINE
  5
687
100
AcDbEntity
  8
IMPORT_IGES
100
AcDbLine
 62
250
  6
CONTINUOUS
 10
-83.4288380199
 20
-52.26057096
 11
-82.4462899782
 21
-52.260579978
  0
LINE
  5
688
100
AcDbEntity
  8
IMPORT_IGES
100
AcDbLine
 62
7
  6
CONTINUOUS
 10
-91.9462899782
 20
-50.2436494488
 11
-93.5462899782
 21
-50.2436494488
  0
LINE
  5
689
100
AcDbEntity
  8
IMPORT_IGES
100
AcDbLine
 62
250
  6
CONTINUOUS
 10
-83.4288374565
 20
-49.2610141033
 11
-82.4462899782
 21
-49.2610230403
  0
LINE
  5
68A
100
AcDbEntity
  8
IMPORT_IGES
100
AcDbLine
 62
7
  6
CONTINUOUS
 10
-93.5962899782
 20
-49.2435728284
 11
-93.5462899782
 21
-49.2435728284
  0
LINE
  5
68B
100
AcDbEntity
  8
IMPORT_IGES
100
AcDbLine
 62
7
  6
CONTINUOUS
 10
-94.5462899782
 20
-48.3435728283
 11
-93.5462899782
 21
-48.3435728283
  0
LINE
  5
68C
100
AcDbEntity
  8
IMPORT_IGES
100
AcDbLine
 62
7
  6
CONTINUOUS
 10
-94.8071467812
 20
-48.1251406973
 11
-100.0462899782
 21
-48.1251406973
  0
LINE
  5
68D
100
AcDbEntity
  8
IMPORT_IGES
100
AcDbLine
 62
7
  6
CONTINUOUS
 10
-94.5071467811
 20
-48.0751406973
 11
-95.2071467803
 21
-48.0751406973
  0
LINE
  5
68E
100
AcDbEntity
  8
IMPORT_IGES
100
AcDbLine
 62
7
  6
CONTINUOUS
 10
-96.3064877019
 20
-48.0251406974
 11
-93.5462899782
 21
-48.0251406973
  0
LINE
  5
68F
100
AcDbEntity
  8
IMPORT_IGES
100
AcDbLine
 62
7
  6
CONTINUOUS
 10
-91.9462899782
 20
-47.2935728284
 11
-93.5462899782
 21
-47.2935728284
  0
LINE
  5
690
100
AcDbEntity
  8
IMPORT_IGES
100
AcDbLine
 62
7
  6
CONTINUOUS
 10
-100.0465709023
 20
-47.0348906973
 11
-102.4884158196
 21
-47.0348906973
  0
LINE
  5
691
100
AcDbEntity
  8
IMPORT_IGES
100
AcDbLine
 62
7
  6
CONTINUOUS
 10
-100.4662861421
 20
-46.6751406973
 11
-100.0462899782
 21
-46.6751406973
  0
LINE
  5
692
100
AcDbEntity
  8
IMPORT_IGES
100
AcDbLine
 62
250
  6
CONTINUOUS
 10
-100.5462899782
 20
-46.5951406973
 11
-100.0462899782
 21
-46.5951406974
  0
LINE
  5
693
100
AcDbEntity
  8
IMPORT_IGES
100
AcDbLine
 62
7
  6
CONTINUOUS
 10
-90.0466899781
 20
-45.4251406974
 11
-91.9462899782
 21
-45.4251406973
  0
LINE
  5
694
100
AcDbEntity
  8
IMPORT_IGES
100
AcDbLine
 62
7
  6
CONTINUOUS
 10
-91.9462899782
 20
-45.1935728284
 11
-93.5462899782
 21
-45.1935728284
  0
LINE
  5
695
100
AcDbEntity
  8
IMPORT_IGES
100
AcDbLine
 62
7
  6
CONTINUOUS
 10
-91.9462899782
 20
-48.8213873739
 11
-86.4462899782
 21
-48.917390231
  0
LINE
  5
696
100
AcDbEntity
  8
IMPORT_IGES
100
AcDbLine
 62
7
  6
CONTINUOUS
 10
-100.5462899782
 20
-45.7395719265
 11
-100.7570409492
 21
-45.7075834604
  0
LWPOLYLINE
  5
697
100
AcDbEntity
  8
IMPORT_IGES
100
AcDbPolyline
 62
7
  6
CONTINUOUS
 90
37
 70
0
 10
-100.7570409492
 20
-45.7075834604
 10
-100.7641077415
 20
-45.7045941915
 10
-100.7710021053
 20
-45.6981980214
 10
-100.7777240405
 20
-45.6883949503
 10
-100.7843197161
 20
-45.6750572441
 10
-100.7907429631
 20
-45.6583126369
 10
-100.7968552747
 20
-45.63854433
 10
-100.8026495943
 20
-45.6156887496
 10
-100.8081329786
 20
-45.5898094697
 10
-100.8131880904
 20
-45.561480413
 10
-100.8178055436
 20
-45.5306502975
 10
-100.8219947243
 20
-45.4973704053
 10
-100.8256664541
 20
-45.4623685058
 10
-100.8288095297
 20
-45.4256094639
 10
-100.8314351542
 20
-45.3871284148
 10
-100.8334877589
 20
-45.3477585332
 10
-100.8349551311
 20
-45.3074813035
 10
-100.8358494833
 20
-45.2663152412
 10
-100.8361518849
 20
-45.2251490679
 10
-100.8358497211
 20
-45.1839827754
 10
-100.8349556066
 20
-45.1428163717
 10
-100.8334884543
 20
-45.1025386022
 10
-100.8314360506
 20
-45.0631679675
 10
-100.8288106091
 20
-45.024685967
 10
-100.8256676839
 20
-44.9879258437
 10
-100.82199607
 20
-44.9529227212
 10
-100.8178069725
 20
-44.9196414759
 10
-100.813189561
 20
-44.8888099796
 10
-100.8081344468
 20
-44.8604795082
 10
-100.8026510186
 20
-44.8345987859
 10
-100.7968566127
 20
-44.8117418569
 10
-100.7907441694
 20
-44.7919722954
 10
-100.7843207483
 20
-44.7752265273
 10
-100.7777248643
 20
-44.7618878749
 10
-100.7710026889
 20
-44.7520841123
 10
-100.7641080505
 20
-44.7456874654
 10
-100.7570409492
 20
-44.7426979342
  0
LINE
  5
698
100
AcDbEntity
  8
IMPORT_IGES
100
AcDbLine
 62
7
  6
CONTINUOUS
 10
-100.7570409492
 20
-44.7426979342
 11
-100.5462899782
 21
-44.7107094009
  0
LINE
  5
699
100
AcDbEntity
  8
IMPORT_IGES
100
AcDbLine
 62
7
  6
CONTINUOUS
 10
-91.9462899782
 20
-43.6657582829
 11
-86.4462899782
 21
-43.5697554258
  0
LINE
  5
69A
100
AcDbEntity
  8
IMPORT_IGES
100
AcDbLine
 62
7
  6
CONTINUOUS
 10
-90.0466899781
 20
-45.0251406973
 11
-91.9462899782
 21
-45.0251406973
  0
LINE
  5
69B
100
AcDbEntity
  8
IMPORT_IGES
100
AcDbLine
 62
7
  6
CONTINUOUS
 10
-93.5962899782
 20
-44.7435728284
 11
-93.5462899782
 21
-44.7435728284
  0
LINE
  5
69C
100
AcDbEntity
  8
IMPORT_IGES
100
AcDbLine
 62
250
  6
CONTINUOUS
 10
-100.0462899782
 20
-43.8551406973
 11
-100.5462899782
 21
-43.8551406973
  0
LINE
  5
69D
100
AcDbEntity
  8
IMPORT_IGES
100
AcDbLine
 62
7
  6
CONTINUOUS
 10
-100.4659007018
 20
-43.7751406973
 11
-100.0462899782
 21
-43.7751406973
  0
LINE
  5
69E
100
AcDbEntity
  8
IMPORT_IGES
100
AcDbLine
 62
7
  6
CONTINUOUS
 10
-102.4884158196
 20
-43.4153906973
 11
-100.0465709023
 21
-43.4153906973
  0
LINE
  5
69F
100
AcDbEntity
  8
IMPORT_IGES
100
AcDbLine
 62
7
  6
CONTINUOUS
 10
-93.5462899782
 20
-42.4251406973
 11
-96.3064877019
 21
-42.4251406973
  0
LINE
  5
6A0
100
AcDbEntity
  8
IMPORT_IGES
100
AcDbLine
 62
7
  6
CONTINUOUS
 10
-95.2071467808
 20
-42.3751406973
 11
-94.5071467811
 21
-42.3751406973
  0
LINE
  5
6A1
100
AcDbEntity
  8
IMPORT_IGES
100
AcDbLine
 62
7
  6
CONTINUOUS
 10
-94.8071467812
 20
-42.3251406973
 11
-100.0462899782
 21
-42.3251406973
  0
LWPOLYLINE
  5
6A2
100
AcDbEntity
  8
0
100
AcDbPolyline
 62
7
  6
CONTINUOUS
 90
3
 70
0
 43
0.3500000006
 10
-91.9605737
 20
76.2751385193
 10
-92.0320048828
 20
76.0608540344
 10
-92.1748581848
 20
75.7751383667
  0
LINE
  5
6A3
100
AcDbEntity
  8
IMPORT_IGES
100
AcDbLine
 62
7
  6
CONTINUOUS
 10
-93.5462899782
 20
-24.2362996502
 11
-103.5462899782
 21
-24.2362996502
  0
LINE
  5
6A4
100
AcDbEntity
  8
IMPORT_IGES
100
AcDbLine
 62
7
  6
CONTINUOUS
 10
-95.5462899782
 20
-22.4862996502
 11
-99.6891471211
 21
-22.4862996502
  0
LINE
  5
6A5
100
AcDbEntity
  8
IMPORT_IGES
100
AcDbLine
 62
7
  6
CONTINUOUS
 10
-99.6891471211
 20
-20.9862996502
 11
-95.5462899782
 21
-20.9862996502
  0
LWPOLYLINE
  5
6A6
100
AcDbEntity
  8
IMPORT_IGES
100
AcDbPolyline
 62
7
  6
CONTINUOUS
 90
7
 70
0
 10
-94.0725912137
 20
18.4205943001
 10
-94.0688784436
 20
18.4229933498
 10
-94.0651186307
 20
18.4249726853
 10
-94.0613378699
 20
18.4265195679
 10
-94.0575589557
 20
18.4276274746
 10
-94.0538007145
 20
18.4282934954
 10
-94.0500840915
 20
18.4285156191
  0
LWPOLYLINE
  5
6A7
100
AcDbEntity
  8
IMPORT_IGES
100
AcDbPolyline
 62
7
  6
CONTINUOUS
 90
5
 70
0
 10
-94.0983144943
 20
18.3990109914
 10
-94.1024692257
 20
18.3970349517
 10
-94.1067188533
 20
18.395495025
 10
-94.1110437686
 20
18.3943991101
 10
-94.1154654573
 20
18.3937393081
  0
LINE
  5
6A8
100
AcDbEntity
  8
IMPORT_IGES
100
AcDbLine
 62
7
  6
CONTINUOUS
 10
-95.5462899782
 20
-17.4862996502
 11
-99.6891471211
 21
-17.4862996502
  0
LINE
  5
6A9
100
AcDbEntity
  8
IMPORT_IGES
100
AcDbLine
 62
7
  6
CONTINUOUS
 10
-91.9462899782
 20
-21.4112996502
 11
-91.4462899782
 21
-21.5862996502
  0
LWPOLYLINE
  5
6AA
100
AcDbEntity
  8
IMPORT_IGES
100
AcDbPolyline
 62
7
  6
CONTINUOUS
 90
10
 70
0
 10
-95.1922092751
 20
25.4564271716
 10
-95.2224477001
 20
25.4105488317
 10
-95.2496431081
 20
25.361887274
 10
-95.2737954991
 20
25.3104424985
 10
-95.2952202994
 20
25.2557292432
 10
-95.3136020827
 20
25.19823277
 10
-95.3279945701
 20
25.1394088653
 10
-95.3380823353
 20
25.0797427911
 10
-95.3441808047
 20
25.0187492853
 10
-95.3462899782
 20
24.956428348
  0
LWPOLYLINE
  5
6AB
100
AcDbEntity
  8
IMPORT_IGES
100
AcDbPolyline
 62
7
  6
CONTINUOUS
 90
4
 70
0
 10
-94.0832529106
 20
18.4110156192
 10
-94.079795672
 20
18.4145914334
 10
-94.0762358298
 20
18.4177894967
 10
-94.0725912137
 20
18.4205943001
  0
LWPOLYLINE
  5
6AC
100
AcDbEntity
  8
IMPORT_IGES
100
AcDbPolyline
 62
7
  6
CONTINUOUS
 90
5
 70
0
 10
-94.0832529106
 20
18.4110156192
 10
-94.0867954788
 20
18.4073978121
 10
-94.090481113
 20
18.4041924216
 10
-94.094313011
 20
18.4013994477
 10
-94.0983144943
 20
18.3990109914
  0
LINE
  5
6AD
100
AcDbEntity
  8
IMPORT_IGES
100
AcDbLine
 62
7
  6
CONTINUOUS
 10
-99.6891471211
 20
-15.9862996502
 11
-95.5462899782
 21
-15.9862996502
  0
LINE
  5
6AE
100
AcDbEntity
  8
IMPORT_IGES
100
AcDbLine
 62
7
  6
CONTINUOUS
 10
-95.5462899782
 20
-12.4862996502
 11
-99.6891471211
 21
-12.4862996502
  0
LINE
  5
6AF
100
AcDbEntity
  8
IMPORT_IGES
100
AcDbLine
 62
7
  6
CONTINUOUS
 10
-91.9462899782
 20
-16.4112996502
 11
-91.4462899782
 21
-16.5862996502
  0
LWPOLYLINE
  5
6B0
100
AcDbEntity
  8
IMPORT_IGES
100
AcDbPolyline
 62
250
  6
CONTINUOUS
 90
9
 70
0
 10
-83.4288389391
 20
-51.2607232843
 10
-83.427720371
 20
-51.2628504972
 10
-83.4266978824
 20
-51.269260852
 10
-83.4257671557
 20
-51.2799225253
 10
-83.4249179364
 20
-51.2947847375
 10
-83.4241529726
 20
-51.3137800705
 10
-83.4234879912
 20
-51.3368264621
 10
-83.4229226331
 20
-51.3638229478
 10
-83.4224520965
 20
-51.3946513981
  0
LINE
  5
6B1
100
AcDbEntity
  8
IMPORT_IGES
100
AcDbLine
 62
7
  6
CONTINUOUS
 10
-103.5462899782
 20
-24.2362996502
 11
-103.5462899782
 21
-4.2362996502
  0
LINE
  5
6B2
100
AcDbEntity
  8
IMPORT_IGES
100
AcDbLine
 62
7
  6
CONTINUOUS
 10
-102.4884158196
 20
-47.0348906974
 11
-102.4884158196
 21
-43.4153906973
  0
LINE
  5
6B3
100
AcDbEntity
  8
IMPORT_IGES
100
AcDbLine
 62
7
  6
CONTINUOUS
 10
-102.1879594443
 20
-43.4153906972
 11
-102.1879594443
 21
-47.0348906974
  0
LWPOLYLINE
  5
6B4
100
AcDbEntity
  8
IMPORT_IGES
100
AcDbPolyline
 62
7
  6
CONTINUOUS
 90
25
 70
0
 10
-91.9462899782
 20
-10.5497530403
 10
-91.8852701999
 20
-10.5440508486
 10
-91.8252742995
 20
-10.5358050398
 10
-91.766302277
 20
-10.5250156138
 10
-91.7081285806
 20
-10.5116202653
 10
-91.6509787622
 20
-10.4956812996
 10
-91.5955294765
 20
-10.4773856333
 10
-91.5418163724
 20
-10.4567098574
 10
-91.4898038011
 20
-10.4336773809
 10
-91.4400614713
 20
-10.408545347
 10
-91.3926134491
 20
-10.3812915834
 10
-91.3474356684
 20
-10.3519382624
 10
-91.3050256395
 20
-10.3208090434
 10
-91.2654125765
 20
-10.2878850387
 10
-91.2285672655
 20
-10.253185136
 10
-91.1948995743
 20
-10.2170896584
 10
-91.1644427203
 20
-10.1795832116
 10
-91.1371634863
 20
-10.14068119
 10
-91.113372088
 20
-10.1008100996
 10
-91.0931052163
 20
-10.0599602093
 10
-91.0763261805
 20
-10.0181412504
 10
-91.0632351243
 20
-9.9758089221
 10
-91.0538987625
 20
-9.9331151245
 10
-91.0482503805
 20
-9.8899079576
 10
-91.0462899782
 20
-9.8461874215
  0
LINE
  5
6B5
100
AcDbEntity
  8
IMPORT_IGES
100
AcDbLine
 62
7
  6
CONTINUOUS
 10
-95.5462899782
 20
-11.2236398394
 11
-93.5462899782
 21
-11.2236398394
  0
LINE
  5
6B6
100
AcDbEntity
  8
IMPORT_IGES
100
AcDbLine
 62
7
  6
CONTINUOUS
 10
-99.6891471211
 20
-10.9862996502
 11
-95.8905237582
 21
-10.9862996502
  0
LINE
  5
6B7
100
AcDbEntity
  8
IMPORT_IGES
100
AcDbLine
 62
7
  6
CONTINUOUS
 10
-91.9462899782
 20
-11.4112996502
 11
-91.4462899782
 21
-11.5862996502
  0
LWPOLYLINE
  5
6B8
100
AcDbEntity
  8
IMPORT_IGES
100
AcDbPolyline
 62
7
  6
CONTINUOUS
 90
22
 70
0
 10
-96.0462899782
 20
-10.7300783058
 10
-96.0447854105
 20
-10.7569133151
 10
-96.0405655811
 20
-10.7832645352
 10
-96.0336304899
 20
-10.8091319658
 10
-96.0239035672
 20
-10.8346466866
 10
-96.0114613828
 20
-10.859677618
 10
-95.9965336464
 20
-10.8838315213
 10
-95.9790866785
 20
-10.9070939953
 10
-95.9591541587
 20
-10.9294794413
 10
-95.9370668341
 20
-10.9506378247
 10
-95.912795126
 20
-10.9705513412
 10
-95.8863686132
 20
-10.9892377952
 10
-95.85820678
 20
-11.006400565
 10
-95.8282844474
 20
-11.0220187351
 10
-95.7966267944
 20
-11.0361132211
 10
-95.7637288423
 20
-11.0484501481
 10
-95.7295702246
 20
-11.0590057013
 10
-95.6941713078
 20
-11.0678036954
 10
-95.6580882126
 20
-11.0746817007
 10
-95.6215063128
 20
-11.0795855736
 10
-95.5842402347
 20
-11.0825694576
 10
-95.5462899782
 20
-11.0836333526
  0
LINE
  5
6B9
100
AcDbEntity
  8
IMPORT_IGES
100
AcDbLine
 62
7
  6
CONTINUOUS
 10
-100.5462899782
 20
-46.5951406973
 11
-100.5462899782
 21
-43.8551406973
  0
LINE
  5
6BA
100
AcDbEntity
  8
IMPORT_IGES
100
AcDbLine
 62
7
  6
CONTINUOUS
 10
-100.0462899782
 20
-48.1251406974
 11
-100.0462899782
 21
-42.3251406973
  0
LINE
  5
6BB
100
AcDbEntity
  8
IMPORT_IGES
100
AcDbLine
 62
7
  6
CONTINUOUS
 10
-99.6891471211
 20
-22.4862996502
 11
-99.6891471211
 21
-20.9862996502
  0
LINE
  5
6BC
100
AcDbEntity
  8
IMPORT_IGES
100
AcDbLine
 62
7
  6
CONTINUOUS
 10
-99.6891471211
 20
-17.4862996502
 11
-99.6891471211
 21
-15.9862996502
  0
LINE
  5
6BD
100
AcDbEntity
  8
IMPORT_IGES
100
AcDbLine
 62
7
  6
CONTINUOUS
 10
-99.6891471211
 20
-12.4862996502
 11
-99.6891471211
 21
-10.9862996502
  0
LINE
  5
6BE
100
AcDbEntity
  8
IMPORT_IGES
100
AcDbLine
 62
7
  6
CONTINUOUS
 10
-99.6891471211
 20
-7.4862996502
 11
-99.6891471211
 21
-5.9862996502
  0
LINE
  5
6BF
100
AcDbEntity
  8
IMPORT_IGES
100
AcDbLine
 62
7
  6
CONTINUOUS
 10
-99.1412899782
 20
17.8353778641
 11
-99.1412899782
 21
15.7016533741
  0
LINE
  5
6C0
100
AcDbEntity
  8
IMPORT_IGES
100
AcDbLine
 62
250
  6
CONTINUOUS
 10
-98.9482700276
 20
18.0352560242
 11
-98.9482700276
 21
15.501775214
  0
LINE
  5
6C1
100
AcDbEntity
  8
IMPORT_IGES
100
AcDbLine
 62
7
  6
CONTINUOUS
 10
-97.5462899782
 20
-4.2362996502
 11
-97.5462899782
 21
-5.9862996502
  0
LINE
  5
6C2
100
AcDbEntity
  8
IMPORT_IGES
100
AcDbLine
 62
7
  6
CONTINUOUS
 10
-97.5462899782
 20
-7.4862996502
 11
-97.5462899782
 21
-10.9862996502
  0
LINE
  5
6C3
100
AcDbEntity
  8
IMPORT_IGES
100
AcDbLine
 62
7
  6
CONTINUOUS
 10
-97.5462899782
 20
-12.4862996502
 11
-97.5462899782
 21
-15.9862996502
  0
LINE
  5
6C4
100
AcDbEntity
  8
IMPORT_IGES
100
AcDbLine
 62
7
  6
CONTINUOUS
 10
-97.5462899782
 20
-17.4862996502
 11
-97.5462899782
 21
-20.9862996502
  0
LINE
  5
6C5
100
AcDbEntity
  8
IMPORT_IGES
100
AcDbLine
 62
7
  6
CONTINUOUS
 10
-97.5462899782
 20
-22.4862996502
 11
-97.5462899782
 21
-24.2362996502
  0
LINE
  5
6C6
100
AcDbEntity
  8
IMPORT_IGES
100
AcDbLine
 62
7
  6
CONTINUOUS
 10
-96.6362899782
 20
13.6435156191
 11
-96.6362899782
 21
19.8935156191
  0
LWPOLYLINE
  5
6C7
100
AcDbEntity
  8
IMPORT_IGES
100
AcDbPolyline
 62
7
  6
CONTINUOUS
 90
10
 70
0
 10
-95.1922092751
 20
24.2564271716
 10
-95.2016545457
 20
24.2076089689
 10
-95.2100688221
 20
24.1571178315
 10
-95.2174521043
 20
24.1049537593
 10
-95.2238410937
 20
24.0510733152
 10
-95.229199089
 20
23.9955199362
 10
-95.233415986
 20
23.9384239342
 10
-95.2364550831
 20
23.8798287463
 10
-95.2383530818
 20
23.8196909354
 10
-95.2391099822
 20
23.7580105013
  0
LWPOLYLINE
  5
6C8
100
AcDbEntity
  8
IMPORT_IGES
100
AcDbPolyline
 62
7
  6
CONTINUOUS
 90
18
 70
0
 10
-91.1371683873
 20
14.9615473014
 10
-91.1644487157
 20
14.9226449543
 10
-91.1949065965
 20
14.8851383568
 10
-91.2285752411
 20
14.8490429122
 10
-91.265421438
 20
14.8143432173
 10
-91.3050352194
 20
14.7814195505
 10
-91.3474457899
 20
14.750290807
 10
-91.3926239447
 20
14.7209380917
 10
-91.4400721016
 20
14.693684998
 10
-91.4898143146
 20
14.6685537031
 10
-91.5418265296
 20
14.6455220299
 10
-91.595539002
 20
14.6248470403
 10
-91.6509873643
 20
14.6065521457
 10
-91.7081359841
 20
14.5906139348
 10
-91.7663082196
 20
14.5772192354
 10
-91.8252785235
 20
14.5664303236
 10
-91.885272443
 20
14.5581849232
 10
-91.9462899782
 20
14.5524830345
  0
LWPOLYLINE
  5
6C9
100
AcDbEntity
  8
IMPORT_IGES
100
AcDbPolyline
 62
7
  6
CONTINUOUS
 90
18
 70
0
 10
-91.1371683873
 20
9.3046665516
 10
-91.1644487157
 20
9.2657642045
 10
-91.1949065965
 20
9.228257607
 10
-91.2285752411
 20
9.1921621624
 10
-91.265421438
 20
9.1574624674
 10
-91.3050352194
 20
9.1245388007
 10
-91.3474457899
 20
9.0934100572
 10
-91.3926239447
 20
9.0640573419
 10
-91.4400721016
 20
9.0368042482
 10
-91.4898143146
 20
9.0116729533
 10
-91.5418265296
 20
8.9886412801
 10
-91.595539002
 20
8.9679662905
 10
-91.6509873643
 20
8.9496713959
 10
-91.7081359841
 20
8.933733185
 10
-91.7663082196
 20
8.9203384856
 10
-91.8252785235
 20
8.9095495737
 10
-91.885272443
 20
8.9013041734
 10
-91.9462899782
 20
8.8956022847
  0
LINE
  5
6CA
100
AcDbEntity
  8
IMPORT_IGES
100
AcDbLine
 62
7
  6
CONTINUOUS
 10
-96.0462899782
 20
-7.4862996502
 11
-99.6891471211
 21
-7.4862996502
  0
LINE
  5
6CB
100
AcDbEntity
  8
IMPORT_IGES
100
AcDbLine
 62
7
  6
CONTINUOUS
 10
-99.6891471211
 20
-5.9862996502
 11
-96.0462899782
 21
-5.9862996502
  0
LINE
  5
6CC
100
AcDbEntity
  8
IMPORT_IGES
100
AcDbLine
 62
7
  6
CONTINUOUS
 10
-96.0462899782
 20
-4.2362996502
 11
-103.5462899782
 21
-4.2362996502
  0
LWPOLYLINE
  5
6CD
100
AcDbEntity
  8
IMPORT_IGES
100
AcDbPolyline
 62
7
  6
CONTINUOUS
 90
18
 70
0
 10
-91.9462899782
 20
-7.0213328043
 10
-91.8852701999
 20
-7.0270349426
 10
-91.8252742995
 20
-7.0352806741
 10
-91.766302277
 20
-7.046069999
 10
-91.7081285806
 20
-7.059465222
 10
-91.6509787622
 20
-7.0754040384
 10
-91.5955294765
 20
-7.0936995333
 10
-91.5418163724
 20
-7.1143751154
 10
-91.4898038011
 20
-7.1374073761
 10
-91.4400614713
 20
-7.1625391746
 10
-91.3926134491
 20
-7.1897926828
 10
-91.3474356684
 20
-7.2191457288
 10
-91.3050256395
 20
-7.2502746561
 10
-91.2654125765
 20
-7.2831983524
 10
-91.2285672655
 20
-7.31789793
 10
-91.1948995743
 20
-7.3539930693
 10
-91.1644427203
 20
-7.3914991647
 10
-91.1371634863
 20
-7.4304008219
  0
LINE
  5
6CE
100
AcDbEntity
  8
IMPORT_IGES
100
AcDbLine
 62
7
  6
CONTINUOUS
 10
-91.9462899782
 20
-6.4112996502
 11
-91.4462899782
 21
-6.5862996502
  0
LWPOLYLINE
  5
6CF
100
AcDbEntity
  8
IMPORT_IGES
100
AcDbPolyline
 62
7
  6
CONTINUOUS
 90
18
 70
0
 10
-91.5203839762
 20
-8.679469612
 10
-91.4898038011
 20
-8.6930112837
 10
-91.4400614713
 20
-8.7181433177
 10
-91.3926134491
 20
-8.7453970812
 10
-91.3474356684
 20
-8.7747504023
 10
-91.3050256395
 20
-8.8058796213
 10
-91.2654125765
 20
-8.838803626
 10
-91.2285672655
 20
-8.8735035287
 10
-91.1948995743
 20
-8.9095990062
 10
-91.1644427203
 20
-8.947105453
 10
-91.1371634863
 20
-8.9860074747
 10
-91.113372088
 20
-9.0258785651
 10
-91.0931052163
 20
-9.0667284553
 10
-91.0763261805
 20
-9.1085474143
 10
-91.0632351243
 20
-9.1508797425
 10
-91.0538987625
 20
-9.1935735402
 10
-91.0482503805
 20
-9.236780707
 10
-91.0462899782
 20
-9.2805012432
  0
LWPOLYLINE
  5
6D0
100
AcDbEntity
  8
IMPORT_IGES
100
AcDbPolyline
 62
7
  6
CONTINUOUS
 90
16
 70
0
 10
-95.7462899782
 20
6.94750841
 10
-95.7450668223
 20
6.9323950501
 10
-95.7417822491
 20
6.9177813365
 10
-95.7364362587
 20
6.9036672692
 10
-95.7289232415
 20
6.8899172826
 10
-95.719348807
 20
6.8766669423
 10
-95.7080297842
 20
6.8643229454
 10
-95.6949173342
 20
6.8529117174
 10
-95.6800602959
 20
6.8424068328
 10
-95.6639220137
 20
6.8331357122
 10
-95.6464651921
 20
6.8251329209
 10
-95.6277271266
 20
6.8183638935
 10
-95.6082830493
 20
6.8130523544
 10
-95.5883247042
 20
6.8092728784
 10
-95.5676603471
 20
6.8069508907
 10
-95.5462899782
 20
6.8060863912
  0
LWPOLYLINE
  5
6D1
100
AcDbEntity
  8
IMPORT_IGES
100
AcDbPolyline
 62
7
  6
CONTINUOUS
 90
10
 70
0
 10
-95.3462899782
 20
22.5564277621
 10
-95.3441794687
 20
22.4940964064
 10
-95.3380794503
 20
22.433094785
 10
-95.3279899229
 20
22.3734228979
 10
-95.3135947308
 20
22.3145951462
 10
-95.2952100297
 20
22.2570971288
 10
-95.2737842869
 20
22.202385643
 10
-95.249633658
 20
22.1509462877
 10
-95.2224419875
 20
22.1022934639
 10
-95.1922092751
 20
22.0564271716
  0
LWPOLYLINE
  5
6D2
100
AcDbEntity
  8
IMPORT_IGES
100
AcDbPolyline
 62
7
  6
CONTINUOUS
 90
10
 70
0
 10
-95.2391099822
 20
23.7580105013
 10
-95.2384055403
 20
23.6957865609
 10
-95.2365407438
 20
23.6351259199
 10
-95.2335155927
 20
23.5760285782
 10
-95.2292851967
 20
23.5184147817
 10
-95.223894446
 20
23.4623642846
 10
-95.2174780115
 20
23.4081163489
 10
-95.2100807833
 20
23.3557507284
 10
-95.2016578712
 20
23.3051876694
 10
-95.1922092751
 20
23.2564271716
  0
LINE
  5
6D3
100
AcDbEntity
  8
IMPORT_IGES
100
AcDbLine
 62
7
  6
CONTINUOUS
 10
-96.4462899782
 20
19.8685156191
 11
-96.4462899782
 21
19.7810156191
  0
LINE
  5
6D4
100
AcDbEntity
  8
IMPORT_IGES
100
AcDbLine
 62
7
  6
CONTINUOUS
 10
-96.4462899782
 20
13.7560156191
 11
-96.4462899782
 21
13.6685156191
  0
LINE
  5
6D5
100
AcDbEntity
  8
IMPORT_IGES
100
AcDbLine
 62
7
  6
CONTINUOUS
 10
-96.4462899782
 20
14.749663971
 11
-96.4462899782
 21
18.878083942
  0
LINE
  5
6D6
100
AcDbEntity
  8
IMPORT_IGES
100
AcDbLine
 62
7
  6
CONTINUOUS
 10
-96.4362899782
 20
19.5810156191
 11
-96.4362899782
 21
18.878083942
  0
LINE
  5
6D7
100
AcDbEntity
  8
IMPORT_IGES
100
AcDbLine
 62
7
  6
CONTINUOUS
 10
-96.4362899782
 20
14.749663971
 11
-96.4362899782
 21
13.9560156191
  0
LINE
  5
6D8
100
AcDbEntity
  8
IMPORT_IGES
100
AcDbLine
 62
7
  6
CONTINUOUS
 10
-96.4362899782
 20
13.6435156191
 11
-96.4362899782
 21
13.6685156191
  0
LINE
  5
6D9
100
AcDbEntity
  8
IMPORT_IGES
100
AcDbLine
 62
7
  6
CONTINUOUS
 10
-96.4362899782
 20
19.8685156191
 11
-96.4362899782
 21
19.8935156191
  0
LINE
  5
6DA
100
AcDbEntity
  8
IMPORT_IGES
100
AcDbLine
 62
7
  6
CONTINUOUS
 10
-96.3064877019
 20
-48.1251406974
 11
-96.3064877019
 21
-42.3251406973
  0
LINE
  5
6DB
100
AcDbEntity
  8
IMPORT_IGES
100
AcDbLine
 62
7
  6
CONTINUOUS
 10
-96.0462899782
 20
-10.7300783058
 11
-96.0462899782
 21
17.5541598159
  0
LINE
  5
6DC
100
AcDbEntity
  8
IMPORT_IGES
100
AcDbLine
 62
7
  6
CONTINUOUS
 10
-95.9462899782
 20
17.7658821109
 11
-95.9462899782
 21
19.5685156191
  0
LINE
  5
6DD
100
AcDbEntity
  8
IMPORT_IGES
100
AcDbLine
 62
7
  6
CONTINUOUS
 10
-95.9462899782
 20
19.7810156191
 11
-95.9462899782
 21
19.9185156191
  0
LINE
  5
6DE
100
AcDbEntity
  8
IMPORT_IGES
100
AcDbLine
 62
250
  6
CONTINUOUS
 10
-95.8064877022
 20
-48.1251406975
 11
-95.8064877011
 21
-48.0251406974
  0
LINE
  5
6DF
100
AcDbEntity
  8
IMPORT_IGES
100
AcDbLine
 62
250
  6
CONTINUOUS
 10
-95.8064877022
 20
-42.4251406972
 11
-95.8064877011
 21
-42.3251406972
  0
LINE
  5
6E0
100
AcDbEntity
  8
IMPORT_IGES
100
AcDbLine
 62
7
  6
CONTINUOUS
 10
-95.6972899782
 20
19.5810156191
 11
-95.6972899782
 21
19.7810156191
  0
LINE
  5
6E1
100
AcDbEntity
  8
IMPORT_IGES
100
AcDbLine
 62
7
  6
CONTINUOUS
 10
-95.5462899782
 20
18.0477193488
 11
-95.5462899782
 21
17.9077115502
  0
LINE
  5
6E2
100
AcDbEntity
  8
IMPORT_IGES
100
AcDbLine
 62
250
  6
CONTINUOUS
 10
-95.5462899782
 20
17.9077115502
 11
-95.5462899782
 21
7.3010601443
  0
LINE
  5
6E3
100
AcDbEntity
  8
IMPORT_IGES
100
AcDbLine
 62
250
  6
CONTINUOUS
 10
-95.5462899782
 20
6.5939533631
 11
-95.5462899782
 21
-11.0836333526
  0
LINE
  5
6E4
100
AcDbEntity
  8
IMPORT_IGES
100
AcDbLine
 62
7
  6
CONTINUOUS
 10
-95.5462899782
 20
-11.0836333526
 11
-95.5462899782
 21
-12.4862996502
  0
LINE
  5
6E5
100
AcDbEntity
  8
IMPORT_IGES
100
AcDbLine
 62
7
  6
CONTINUOUS
 10
-95.5462899782
 20
-15.9862996502
 11
-95.5462899782
 21
-17.4862996502
  0
LINE
  5
6E6
100
AcDbEntity
  8
IMPORT_IGES
100
AcDbLine
 62
7
  6
CONTINUOUS
 10
-95.5462899782
 20
-20.9862996502
 11
-95.5462899782
 21
-22.4862996502
  0
LINE
  5
6E7
100
AcDbEntity
  8
IMPORT_IGES
100
AcDbLine
 62
7
  6
CONTINUOUS
 10
-95.5462899782
 20
6.5939533631
 11
-95.5462899782
 21
6.946092878
  0
LINE
  5
6E8
100
AcDbEntity
  8
IMPORT_IGES
100
AcDbLine
 62
7
  6
CONTINUOUS
 10
-95.5462899782
 20
6.9489213051
 11
-95.5462899782
 21
7.3010601443
  0
LINE
  5
6E9
100
AcDbEntity
  8
IMPORT_IGES
100
AcDbLine
 62
7
  6
CONTINUOUS
 10
-95.3462899782
 20
24.956428161
 11
-95.3462899782
 21
24.2564198264
  0
LINE
  5
6EA
100
AcDbEntity
  8
IMPORT_IGES
100
AcDbLine
 62
7
  6
CONTINUOUS
 10
-95.3462899782
 20
23.2564429326
 11
-95.3462899782
 21
22.5564277605
  0
LINE
  5
6EB
100
AcDbEntity
  8
IMPORT_IGES
100
AcDbLine
 62
7
  6
CONTINUOUS
 10
-95.2822899782
 20
19.1435156191
 11
-95.2822899782
 21
18.3935156191
  0
LINE
  5
6EC
100
AcDbEntity
  8
IMPORT_IGES
100
AcDbLine
 62
250
  6
CONTINUOUS
 10
-95.2071467805
 20
-42.3251406972
 11
-95.2071467805
 21
-42.3751406972
  0
LINE
  5
6ED
100
AcDbEntity
  8
IMPORT_IGES
100
AcDbLine
 62
250
  6
CONTINUOUS
 10
-95.2071467805
 20
-48.0751406975
 11
-95.2071467808
 21
-48.1251406975
  0
LINE
  5
6EE
100
AcDbEntity
  8
IMPORT_IGES
100
AcDbLine
 62
250
  6
CONTINUOUS
 10
-94.9822899782
 20
19.1435156191
 11
-94.9822899782
 21
18.3935156191
  0
LINE
  5
6EF
100
AcDbEntity
  8
IMPORT_IGES
100
AcDbLine
 62
7
  6
CONTINUOUS
 10
-94.8962899782
 20
19.7810156191
 11
-94.8962899782
 21
19.9185156191
  0
LINE
  5
6F0
100
AcDbEntity
  8
IMPORT_IGES
100
AcDbLine
 62
250
  6
CONTINUOUS
 10
-94.8462899782
 20
18.2035156191
 11
-94.8462899782
 21
18.3935156191
  0
LINE
  5
6F1
100
AcDbEntity
  8
IMPORT_IGES
100
AcDbLine
 62
250
  6
CONTINUOUS
 10
-94.8462899782
 20
19.1435156191
 11
-94.8462899782
 21
19.5685156191
  0
LINE
  5
6F2
100
AcDbEntity
  8
IMPORT_IGES
100
AcDbLine
 62
7
  6
CONTINUOUS
 10
-94.8071467812
 20
-48.1251406975
 11
-94.8071467812
 21
-48.0751406975
  0
LINE
  5
6F3
100
AcDbEntity
  8
IMPORT_IGES
100
AcDbLine
 62
7
  6
CONTINUOUS
 10
-94.8071467812
 20
-42.3251406972
 11
-94.8071467812
 21
-42.3751406972
  0
LINE
  5
6F4
100
AcDbEntity
  8
IMPORT_IGES
100
AcDbLine
 62
250
  6
CONTINUOUS
 10
-94.7451977064
 20
19.5810156191
 11
-94.7451977064
 21
19.7810156191
  0
LINE
  5
6F5
100
AcDbEntity
  8
IMPORT_IGES
100
AcDbLine
 62
250
  6
CONTINUOUS
 10
-94.5962899782
 20
19.1435156191
 11
-94.5962899782
 21
18.3935156191
  0
LINE
  5
6F6
100
AcDbEntity
  8
IMPORT_IGES
100
AcDbLine
 62
250
  6
CONTINUOUS
 10
-94.5462899782
 20
-48.3435728283
 11
-94.5462899782
 21
-48.0729619057
  0
LINE
  5
6F7
100
AcDbEntity
  8
IMPORT_IGES
100
AcDbLine
 62
250
  6
CONTINUOUS
 10
-94.5462899782
 20
21.6564271717
 11
-94.5462899782
 21
25.8564271716
  0
LINE
  5
6F8
100
AcDbEntity
  8
IMPORT_IGES
100
AcDbLine
 62
7
  6
CONTINUOUS
 10
-94.5071467811
 20
-48.0751406974
 11
-94.5071467811
 21
-48.0251406974
  0
LINE
  5
6F9
100
AcDbEntity
  8
IMPORT_IGES
100
AcDbLine
 62
7
  6
CONTINUOUS
 10
-94.5071467811
 20
-42.4251406972
 11
-94.5071467811
 21
-42.3751406973
  0
LINE
  5
6FA
100
AcDbEntity
  8
IMPORT_IGES
100
AcDbLine
 62
7
  6
CONTINUOUS
 10
-94.4462899782
 20
45.9266312646
 11
-94.4462899782
 21
45.5862226444
  0
LINE
  5
6FB
100
AcDbEntity
  8
IMPORT_IGES
100
AcDbLine
 62
7
  6
CONTINUOUS
 10
-94.3674379298
 20
19.7810156191
 11
-94.3674379298
 21
19.5810156191
  0
LINE
  5
6FC
100
AcDbEntity
  8
IMPORT_IGES
100
AcDbLine
 62
7
  6
CONTINUOUS
 10
-94.3587899782
 20
23.2869952169
 11
-94.3587899782
 21
24.1932452169
  0
LINE
  5
6FD
100
AcDbEntity
  8
IMPORT_IGES
100
AcDbLine
 62
7
  6
CONTINUOUS
 10
-94.2462899782
 20
19.5685156191
 11
-94.2462899782
 21
19.1435156191
  0
LINE
  5
6FE
100
AcDbEntity
  8
IMPORT_IGES
100
AcDbLine
 62
7
  6
CONTINUOUS
 10
-94.2462899782
 20
18.1685156191
 11
-94.2462899782
 21
18.3935156191
  0
LINE
  5
6FF
100
AcDbEntity
  8
IMPORT_IGES
100
AcDbLine
 62
7
  6
CONTINUOUS
 10
-94.0462899782
 20
18.0477213495
 11
-94.0462899782
 21
18.4285156191
  0
LINE
  5
700
100
AcDbEntity
  8
IMPORT_IGES
100
AcDbLine
 62
7
  6
CONTINUOUS
 10
-94.0462899782
 20
19.1085156191
 11
-94.0462899782
 21
19.5685156191
  0
LINE
  5
701
100
AcDbEntity
  8
IMPORT_IGES
100
AcDbLine
 62
7
  6
CONTINUOUS
 10
-93.9525399782
 20
23.3338702169
 11
-93.9525399782
 21
24.1463702169
  0
LINE
  5
702
100
AcDbEntity
  8
IMPORT_IGES
100
AcDbLine
 62
7
  6
CONTINUOUS
 10
-93.9462899782
 20
19.1085156191
 11
-93.9462899782
 21
18.4285156191
  0
LINE
  5
703
100
AcDbEntity
  8
IMPORT_IGES
100
AcDbLine
 62
7
  6
CONTINUOUS
 10
-93.9212899782
 20
24.1932452169
 11
-93.9212899782
 21
24.1463702169
  0
LINE
  5
704
100
AcDbEntity
  8
IMPORT_IGES
100
AcDbLine
 62
7
  6
CONTINUOUS
 10
-93.9212899782
 20
23.2869952169
 11
-93.9212899782
 21
23.3338702169
  0
LINE
  5
705
100
AcDbEntity
  8
IMPORT_IGES
100
AcDbLine
 62
250
  6
CONTINUOUS
 10
-93.6602547171
 20
46.7265098058
 11
-93.660254696
 21
44.7863445371
  0
LINE
  5
706
100
AcDbEntity
  8
IMPORT_IGES
100
AcDbLine
 62
7
  6
CONTINUOUS
 10
-93.5962899782
 20
49.7564271716
 11
-93.5962899782
 21
29.7564271716
  0
LINE
  5
707
100
AcDbEntity
  8
IMPORT_IGES
100
AcDbLine
 62
7
  6
CONTINUOUS
 10
-93.5962899782
 20
7.2564271716
 11
-93.5962899782
 21
-49.2435728284
  0
LINE
  5
708
100
AcDbEntity
  8
IMPORT_IGES
100
AcDbLine
 62
7
  6
CONTINUOUS
 10
-93.5462899782
 20
-50.2436494488
 11
-93.5462899782
 21
50.2565037921
  0
LWPOLYLINE
  5
709
100
AcDbEntity
  8
IMPORT_IGES
100
AcDbPolyline
 62
7
  6
CONTINUOUS
 90
22
 70
0
 10
-96.0462899782
 20
6.94750841
 10
-96.0447854105
 20
6.9743431679
 10
-96.0405655811
 20
7.000694141
 10
-96.0336304899
 20
7.0265613293
 10
-96.0239035672
 20
7.052075811
 10
-96.0114613828
 20
7.0771065079
 10
-95.9965336464
 20
7.101260185
 10
-95.9790866785
 20
7.124522441
 10
-95.9591541587
 20
7.1469076773
 10
-95.9370668341
 20
7.1680658624
 10
-95.912795126
 20
7.1879791924
 10
-95.8863686132
 20
7.2066654712
 10
-95.85820678
 20
7.2238280802
 10
-95.8282844474
 20
7.239446104
 10
-95.7966267944
 20
7.253540458
 10
-95.7637288423
 20
7.2658772694
 10
-95.7295702246
 20
7.2764327237
 10
-95.6941713078
 20
7.2852306354
 10
-95.6580882126
 20
7.2921085762
 10
-95.6215063128
 20
7.2970124032
 10
-95.5842402347
 20
7.2999962592
 10
-95.5462899782
 20
7.3010601443
  0
LWPOLYLINE
  5
70A
100
AcDbEntity
  8
IMPORT_IGES
100
AcDbPolyline
 62
7
  6
CONTINUOUS
 90
18
 70
0
 10
-91.9462899782
 20
-1.3645050552
 10
-91.8852701999
 20
-1.3702071935
 10
-91.8252742995
 20
-1.3784529251
 10
-91.766302277
 20
-1.3892422499
 10
-91.7081285806
 20
-1.402637473
 10
-91.6509787622
 20
-1.4185762893
 10
-91.5955294765
 20
-1.4368717842
 10
-91.5418163724
 20
-1.4575473664
 10
-91.4898038011
 20
-1.4805796271
 10
-91.4400614713
 20
-1.5057114256
 10
-91.3926134491
 20
-1.5329649338
 10
-91.3474356684
 20
-1.5623179798
 10
-91.3050256395
 20
-1.5934469071
 10
-91.2654125765
 20
-1.6263706034
 10
-91.2285672655
 20
-1.6610701809
 10
-91.1948995743
 20
-1.6971653203
 10
-91.1644427203
 20
-1.7346714157
 10
-91.1371634863
 20
-1.7735730729
  0
LWPOLYLINE
  5
70B
100
AcDbEntity
  8
IMPORT_IGES
100
AcDbPolyline
 62
7
  6
CONTINUOUS
 90
25
 70
0
 10
-91.9462899782
 20
-0.7987245933
 10
-91.8852701999
 20
-0.804426785
 10
-91.8252742995
 20
-0.8126725939
 10
-91.766302277
 20
-0.8234620198
 10
-91.7081285806
 20
-0.8368573684
 10
-91.6509787622
 20
-0.8527963341
 10
-91.5955294765
 20
-0.8710920004
 10
-91.5418163724
 20
-0.8917677762
 10
-91.4898038011
 20
-0.9148002527
 10
-91.4400614713
 20
-0.9399322867
 10
-91.3926134491
 20
-0.9671860502
 10
-91.3474356684
 20
-0.9965393713
 10
-91.3050256395
 20
-1.0276685902
 10
-91.2654125765
 20
-1.060592595
 10
-91.2285672655
 20
-1.0952924976
 10
-91.1948995743
 20
-1.1313879752
 10
-91.1644427203
 20
-1.168894422
 10
-91.1371634863
 20
-1.2077964437
 10
-91.113372088
 20
-1.2476675341
 10
-91.0931052163
 20
-1.2885174243
 10
-91.0763261805
 20
-1.3303363833
 10
-91.0632351243
 20
-1.3726687115
 10
-91.0538987625
 20
-1.4153625091
 10
-91.0482503805
 20
-1.458569676
 10
-91.0462899782
 20
-1.5022902122
  0
LWPOLYLINE
  5
70C
100
AcDbEntity
  8
IMPORT_IGES
100
AcDbPolyline
 62
7
  6
CONTINUOUS
 90
8
 70
0
 10
-91.1371634863
 20
-7.4304008219
 10
-91.113372088
 20
-7.4702715387
 10
-91.0931052163
 20
-7.5111210463
 10
-91.0763261805
 20
-7.5529396134
 10
-91.0632351243
 20
-7.595271545
 10
-91.0538987625
 20
-7.6379649426
 10
-91.0482503805
 20
-7.6811717047
 10
-91.0462899782
 20
-7.7248918312
  0
LWPOLYLINE
  5
70D
100
AcDbEntity
  8
IMPORT_IGES
100
AcDbPolyline
 62
7
  6
CONTINUOUS
 90
25
 70
0
 10
-91.0462899782
 20
-7.5127588031
 10
-91.0482505885
 20
-7.4690370479
 10
-91.0538993525
 20
-7.4258288375
 10
-91.0632362701
 20
-7.383134172
 10
-91.0763280973
 20
-7.3408011491
 10
-91.0931080781
 20
-7.2989816711
 10
-91.1133759451
 20
-7.2581314447
 10
-91.1371683873
 20
-7.2182602104
 10
-91.1644487157
 20
-7.1793582278
 10
-91.1949065965
 20
-7.1418519817
 10
-91.2285752411
 20
-7.1057568754
 10
-91.265421438
 20
-7.0710575055
 10
-91.3050352194
 20
-7.0381341472
 10
-91.3474457899
 20
-7.0070056953
 10
-91.3926239447
 20
-6.9776532551
 10
-91.4400721016
 20
-6.9504004167
 10
-91.4898143146
 20
-6.9252693573
 10
-91.5418265296
 20
-6.9022378999
 10
-91.595539002
 20
-6.881563104
 10
-91.6509873643
 20
-6.8632683808
 10
-91.7081359841
 20
-6.8473303192
 10
-91.7663082196
 20
-6.8339357453
 10
-91.8252785235
 20
-6.8231469346
 10
-91.885272443
 20
-6.8149016115
 10
-91.9462899782
 20
-6.8091997762
  0
LWPOLYLINE
  5
70E
100
AcDbEntity
  8
IMPORT_IGES
100
AcDbPolyline
 62
7
  6
CONTINUOUS
 90
25
 70
0
 10
-91.0462899782
 20
-1.8559310541
 10
-91.0482505885
 20
-1.8122092988
 10
-91.0538993525
 20
-1.7690010885
 10
-91.0632362701
 20
-1.726306423
 10
-91.0763280973
 20
-1.6839734001
 10
-91.0931080781
 20
-1.642153922
 10
-91.1133759451
 20
-1.6013036956
 10
-91.1371683873
 20
-1.5614324614
 10
-91.1644487157
 20
-1.5225304788
 10
-91.1949065965
 20
-1.4850242327
 10
-91.2285752411
 20
-1.4489291263
 10
-91.265421438
 20
-1.4142297565
 10
-91.3050352194
 20
-1.3813063982
 10
-91.3474457899
 20
-1.3501779463
 10
-91.3926239447
 20
-1.320825506
 10
-91.4400721016
 20
-1.2935726677
 10
-91.4898143146
 20
-1.2684416083
 10
-91.5418265296
 20
-1.2454101508
 10
-91.595539002
 20
-1.2247353549
 10
-91.6509873643
 20
-1.2064406318
 10
-91.7081359841
 20
-1.1905025702
 10
-91.7663082196
 20
-1.1771079963
 10
-91.8252785235
 20
-1.1663191855
 10
-91.885272443
 20
-1.1580738625
 10
-91.9462899782
 20
-1.1523720271
  0
LWPOLYLINE
  5
70F
100
AcDbEntity
  8
IMPORT_IGES
100
AcDbPolyline
 62
7
  6
CONTINUOUS
 90
25
 70
0
 10
-91.0462899782
 20
3.800896695
 10
-91.0482505885
 20
3.8446184502
 10
-91.0538993525
 20
3.8878266606
 10
-91.0632362701
 20
3.9305213261
 10
-91.0763280973
 20
3.972854349
 10
-91.0931080781
 20
4.014673827
 10
-91.1133759451
 20
4.0555240534
 10
-91.1371683873
 20
4.0953952876
 10
-91.1644487157
 20
4.1342972702
 10
-91.1949065965
 20
4.1718035163
 10
-91.2285752411
 20
4.2078986227
 10
-91.265421438
 20
4.2425979926
 10
-91.3050352194
 20
4.2755213509
 10
-91.3474457899
 20
4.3066498027
 10
-91.3926239447
 20
4.336002243
 10
-91.4400721016
 20
4.3632550813
 10
-91.4898143146
 20
4.3883861408
 10
-91.5418265296
 20
4.4114175982
 10
-91.595539002
 20
4.4320923941
 10
-91.6509873643
 20
4.4503871173
 10
-91.7081359841
 20
4.4663251789
 10
-91.7663082196
 20
4.4797197527
 10
-91.8252785235
 20
4.4905085635
 10
-91.885272443
 20
4.4987538866
 10
-91.9462899782
 20
4.5044557219
  0
LINE
  5
710
100
AcDbEntity
  8
IMPORT_IGES
100
AcDbLine
 62
7
  6
CONTINUOUS
 10
-91.0462899782
 20
9.2456974175
 11
-91.0482505885
 21
9.2894191727
  0
LINE
  5
711
100
AcDbEntity
  8
IMPORT_IGES
100
AcDbLine
 62
7
  6
CONTINUOUS
 10
-91.0462899782
 20
14.9025251665
 11
-91.0482505885
 21
14.9462469217
  0
LINE
  5
712
100
AcDbEntity
  8
IMPORT_IGES
100
AcDbLine
 62
7
  6
CONTINUOUS
 10
-91.9462899782
 20
-50.2436494488
 11
-91.9462899782
 21
50.2565037921
  0
LINE
  5
713
100
AcDbEntity
  8
IMPORT_IGES
100
AcDbLine
 62
7
  6
CONTINUOUS
 10
-91.4770575166
 20
-45.0251406972
 11
-91.4770575166
 21
-45.4251406974
  0
LINE
  5
714
100
AcDbEntity
  8
IMPORT_IGES
100
AcDbLine
 62
7
  6
CONTINUOUS
 10
-91.4462899782
 20
-21.8862996502
 11
-91.4462899782
 21
-21.5862996502
  0
LINE
  5
715
100
AcDbEntity
  8
IMPORT_IGES
100
AcDbLine
 62
7
  6
CONTINUOUS
 10
-91.4462899782
 20
-16.8862996502
 11
-91.4462899782
 21
-16.5862996502
  0
LINE
  5
716
100
AcDbEntity
  8
IMPORT_IGES
100
AcDbLine
 62
7
  6
CONTINUOUS
 10
-91.4462899782
 20
-11.8862996502
 11
-91.4462899782
 21
-11.5862996502
  0
LINE
  5
717
100
AcDbEntity
  8
IMPORT_IGES
100
AcDbLine
 62
7
  6
CONTINUOUS
 10
-91.4462899782
 20
-6.8862996502
 11
-91.4462899782
 21
-6.5862996502
  0
LINE
  5
718
100
AcDbEntity
  8
IMPORT_IGES
100
AcDbLine
 62
7
  6
CONTINUOUS
 10
-91.0462899782
 20
15.609603791
 11
-91.0462899782
 21
15.0439176127
  0
LINE
  5
719
100
AcDbEntity
  8
IMPORT_IGES
100
AcDbLine
 62
7
  6
CONTINUOUS
 10
-91.0462899782
 20
9.9527230412
 11
-91.0462899782
 21
9.3870368629
  0
LINE
  5
71A
100
AcDbEntity
  8
IMPORT_IGES
100
AcDbLine
 62
7
  6
CONTINUOUS
 10
-91.0462899782
 20
-7.5127588031
 11
-91.0462899782
 21
-8.0784436564
  0
LINE
  5
71B
100
AcDbEntity
  8
IMPORT_IGES
100
AcDbLine
 62
7
  6
CONTINUOUS
 10
-91.0462899782
 20
-9.8461874215
 11
-91.0462899782
 21
-9.2805012432
  0
LINE
  5
71C
100
AcDbEntity
  8
IMPORT_IGES
100
AcDbLine
 62
7
  6
CONTINUOUS
 10
-91.0462899782
 20
-2.4216159073
 11
-91.0462899782
 21
-1.5022902138
  0
LINE
  5
71D
100
AcDbEntity
  8
IMPORT_IGES
100
AcDbLine
 62
7
  6
CONTINUOUS
 10
-91.0462899782
 20
3.0231848152
 11
-91.0462899782
 21
3.800896695
  0
LINE
  5
71E
100
AcDbEntity
  8
IMPORT_IGES
100
AcDbLine
 62
7
  6
CONTINUOUS
 10
-91.0462899782
 20
8.6800125642
 11
-91.0462899782
 21
9.2456974175
  0
LINE
  5
71F
100
AcDbEntity
  8
IMPORT_IGES
100
AcDbLine
 62
7
  6
CONTINUOUS
 10
-91.0462899782
 20
14.3368403132
 11
-91.0462899782
 21
14.9025251665
  0
LINE
  5
720
100
AcDbEntity
  8
IMPORT_IGES
100
AcDbLine
 62
7
  6
CONTINUOUS
 10
-90.6163224396
 20
-45.0251406972
 11
-90.6163224396
 21
-45.4251406974
  0
LINE
  5
721
100
AcDbEntity
  8
IMPORT_IGES
100
AcDbLine
 62
7
  6
CONTINUOUS
 10
-90.0466899782
 20
-45.0251406973
 11
-90.0466899782
 21
-45.4251406974
  0
LWPOLYLINE
  5
722
100
AcDbEntity
  8
IMPORT_IGES
100
AcDbPolyline
 62
7
  6
CONTINUOUS
 90
8
 70
0
 10
-91.0462899782
 20
15.2560486533
 10
-91.0482505885
 20
15.2123264884
 10
-91.0538993525
 20
15.1691178732
 10
-91.0632362701
 20
15.1264228077
 10
-91.0763280973
 20
15.0840893882
 10
-91.0931080781
 20
15.0422695183
 10
-91.1133759451
 20
15.0014189092
 10
-91.1371683873
 20
14.9615473014
  0
LWPOLYLINE
  5
723
100
AcDbEntity
  8
IMPORT_IGES
100
AcDbPolyline
 62
7
  6
CONTINUOUS
 90
25
 70
0
 10
-91.0462899782
 20
14.3368403132
 10
-91.0482505885
 20
14.293118558
 10
-91.0538993525
 20
14.2499103476
 10
-91.0632362701
 20
14.2072156821
 10
-91.0763280973
 20
14.1648826592
 10
-91.0931080781
 20
14.1230631812
 10
-91.1133759451
 20
14.0822129548
 10
-91.1371683873
 20
14.0423417206
 10
-91.1644487157
 20
14.003439738
 10
-91.1949065965
 20
13.9659334919
 10
-91.2285752411
 20
13.9298383855
 10
-91.265421438
 20
13.8951390156
 10
-91.3050352194
 20
13.8622156573
 10
-91.3474457899
 20
13.8310872055
 10
-91.3926239447
 20
13.8017347652
 10
-91.4400721016
 20
13.7744819269
 10
-91.4898143146
 20
13.7493508674
 10
-91.5418265296
 20
13.72631941
 10
-91.595539002
 20
13.7056446141
 10
-91.6509873643
 20
13.6873498909
 10
-91.7081359841
 20
13.6714118293
 10
-91.7663082196
 20
13.6580172555
 10
-91.8252785235
 20
13.6472284447
 10
-91.885272443
 20
13.6389831216
 10
-91.9462899782
 20
13.6332812863
  0
LWPOLYLINE
  5
724
100
AcDbEntity
  8
IMPORT_IGES
100
AcDbPolyline
 62
7
  6
CONTINUOUS
 90
8
 70
0
 10
-91.0462899782
 20
9.5991679035
 10
-91.0482505885
 20
9.5554457386
 10
-91.0538993525
 20
9.5122371234
 10
-91.0632362701
 20
9.4695420579
 10
-91.0763280973
 20
9.4272086384
 10
-91.0931080781
 20
9.3853887685
 10
-91.1133759451
 20
9.3445381594
 10
-91.1371683873
 20
9.3046665516
  0
LWPOLYLINE
  5
725
100
AcDbEntity
  8
IMPORT_IGES
100
AcDbPolyline
 62
7
  6
CONTINUOUS
 90
25
 70
0
 10
-91.0462899782
 20
8.6800125642
 10
-91.0482505885
 20
8.636290809
 10
-91.0538993525
 20
8.5930825986
 10
-91.0632362701
 20
8.5503879331
 10
-91.0763280973
 20
8.5080549102
 10
-91.0931080781
 20
8.4662354322
 10
-91.1133759451
 20
8.4253852058
 10
-91.1371683873
 20
8.3855139715
 10
-91.1644487157
 20
8.3466119889
 10
-91.1949065965
 20
8.3091057428
 10
-91.2285752411
 20
8.2730106365
 10
-91.265421438
 20
8.2383112666
 10
-91.3050352194
 20
8.2053879083
 10
-91.3474457899
 20
8.1742594565
 10
-91.3926239447
 20
8.1449070162
 10
-91.4400721016
 20
8.1176541778
 10
-91.4898143146
 20
8.0925231184
 10
-91.5418265296
 20
8.069491661
 10
-91.595539002
 20
8.0488168651
 10
-91.6509873643
 20
8.0305221419
 10
-91.7081359841
 20
8.0145840803
 10
-91.7663082196
 20
8.0011895064
 10
-91.8252785235
 20
7.9904006957
 10
-91.885272443
 20
7.9821553726
 10
-91.9462899782
 20
7.9764535373
  0
LWPOLYLINE
  5
726
100
AcDbEntity
  8
IMPORT_IGES
100
AcDbPolyline
 62
7
  6
CONTINUOUS
 90
25
 70
0
 10
-91.0462899782
 20
3.2352118417
 10
-91.0482505885
 20
3.1914900865
 10
-91.0538993525
 20
3.1482818761
 10
-91.0632362701
 20
3.1055872106
 10
-91.0763280973
 20
3.0632541877
 10
-91.0931080781
 20
3.0214347097
 10
-91.1133759451
 20
2.9805844833
 10
-91.1371683873
 20
2.940713249
 10
-91.1644487157
 20
2.9018112664
 10
-91.1949065965
 20
2.8643050203
 10
-91.2285752411
 20
2.828209914
 10
-91.265421438
 20
2.7935105441
 10
-91.3050352194
 20
2.7605871858
 10
-91.3474457899
 20
2.729458734
 10
-91.3926239447
 20
2.7001062937
 10
-91.4400721016
 20
2.6728534553
 10
-91.4898143146
 20
2.6477223959
 10
-91.5418265296
 20
2.6246909385
 10
-91.595539002
 20
2.6040161426
 10
-91.6509873643
 20
2.5857214194
 10
-91.7081359841
 20
2.5697833578
 10
-91.7663082196
 20
2.5563887839
 10
-91.8252785235
 20
2.5455999732
 10
-91.885272443
 20
2.5373546501
 10
-91.9462899782
 20
2.5316528148
  0
LWPOLYLINE
  5
727
100
AcDbEntity
  8
IMPORT_IGES
100
AcDbPolyline
 62
7
  6
CONTINUOUS
 90
25
 70
0
 10
-91.0462899782
 20
3.0231848152
 10
-91.0482505885
 20
2.9794630599
 10
-91.0538993525
 20
2.9362548496
 10
-91.0632362701
 20
2.8935601841
 10
-91.0763280973
 20
2.8512271612
 10
-91.0931080781
 20
2.8094076832
 10
-91.1133759451
 20
2.7685574567
 10
-91.1371683873
 20
2.7286862225
 10
-91.1644487157
 20
2.6897842399
 10
-91.1949065965
 20
2.6522779938
 10
-91.2285752411
 20
2.6161828874
 10
-91.265421438
 20
2.5814835176
 10
-91.3050352194
 20
2.5485601593
 10
-91.3474457899
 20
2.5174317074
 10
-91.3926239447
 20
2.4880792671
 10
-91.4400721016
 20
2.4608264288
 10
-91.4898143146
 20
2.4356953694
 10
-91.5418265296
 20
2.4126639119
 10
-91.595539002
 20
2.391989116
 10
-91.6509873643
 20
2.3736943929
 10
-91.7081359841
 20
2.3577563313
 10
-91.7663082196
 20
2.3443617574
 10
-91.8252785235
 20
2.3335729466
 10
-91.885272443
 20
2.3253276236
 10
-91.9462899782
 20
2.3196257882
  0
LWPOLYLINE
  5
728
100
AcDbEntity
  8
IMPORT_IGES
100
AcDbPolyline
 62
7
  6
CONTINUOUS
 90
25
 70
0
 10
-91.0462899782
 20
-2.4216159073
 10
-91.0482505885
 20
-2.4653376626
 10
-91.0538993525
 20
-2.5085458729
 10
-91.0632362701
 20
-2.5512405384
 10
-91.0763280973
 20
-2.5935735613
 10
-91.0931080781
 20
-2.6353930393
 10
-91.1133759451
 20
-2.6762432658
 10
-91.1371683873
 20
-2.7161145
 10
-91.1644487157
 20
-2.7550164826
 10
-91.1949065965
 20
-2.7925227287
 10
-91.2285752411
 20
-2.8286178351
 10
-91.265421438
 20
-2.8633172049
 10
-91.3050352194
 20
-2.8962405632
 10
-91.3474457899
 20
-2.9273690151
 10
-91.3926239447
 20
-2.9567214554
 10
-91.4400721016
 20
-2.9839742937
 10
-91.4898143146
 20
-3.0091053531
 10
-91.5418265296
 20
-3.0321368106
 10
-91.595539002
 20
-3.0528116065
 10
-91.6509873643
 20
-3.0711063296
 10
-91.7081359841
 20
-3.0870443912
 10
-91.7663082196
 20
-3.1004389651
 10
-91.8252785235
 20
-3.1112277759
 10
-91.885272443
 20
-3.1194730989
 10
-91.9462899782
 20
-3.1251749343
  0
LWPOLYLINE
  5
729
100
AcDbEntity
  8
IMPORT_IGES
100
AcDbPolyline
 62
7
  6
CONTINUOUS
 90
25
 70
0
 10
-91.0462899782
 20
-8.0784436564
 10
-91.0482505885
 20
-8.1221654116
 10
-91.0538993525
 20
-8.165373622
 10
-91.0632362701
 20
-8.2080682875
 10
-91.0763280973
 20
-8.2504013104
 10
-91.0931080781
 20
-8.2922207884
 10
-91.1133759451
 20
-8.3330710148
 10
-91.1371683873
 20
-8.372942249
 10
-91.1644487157
 20
-8.4118442316
 10
-91.1949065965
 20
-8.4493504777
 10
-91.2285752411
 20
-8.4854455841
 10
-91.265421438
 20
-8.520144954
 10
-91.3050352194
 20
-8.5530683123
 10
-91.3474457899
 20
-8.5841967641
 10
-91.3926239447
 20
-8.6135492044
 10
-91.4400721016
 20
-8.6408020427
 10
-91.4898143146
 20
-8.6659331021
 10
-91.5418265296
 20
-8.6889645596
 10
-91.595539002
 20
-8.7096393555
 10
-91.6509873643
 20
-8.7279340787
 10
-91.7081359841
 20
-8.7438721403
 10
-91.7663082196
 20
-8.7572667141
 10
-91.8252785235
 20
-8.7680555249
 10
-91.885272443
 20
-8.776300848
 10
-91.9462899782
 20
-8.7820026833
  0
LWPOLYLINE
  5
72A
100
AcDbEntity
  8
IMPORT_IGES
100
AcDbPolyline
 62
7
  6
CONTINUOUS
 90
8
 70
0
 10
-91.0462899782
 20
-9.6340563809
 10
-91.0482505885
 20
-9.6777785458
 10
-91.0538993525
 20
-9.7209871609
 10
-91.0632362701
 20
-9.7636822265
 10
-91.0763280973
 20
-9.806015646
 10
-91.0931080781
 20
-9.8478355158
 10
-91.1133759451
 20
-9.888686125
 10
-91.1371683873
 20
-9.9285577328
  0
LINE
  5
72B
100
AcDbEntity
  8
IMPORT_IGES
100
AcDbLine
 62
7
  6
CONTINUOUS
 10
-93.5962899782
 20
2.2564271716
 11
-93.5462899782
 21
2.2564271716
  0
LWPOLYLINE
  5
72C
100
AcDbEntity
  8
IMPORT_IGES
100
AcDbPolyline
 62
7
  6
CONTINUOUS
 90
18
 70
0
 10
-91.9462899782
 20
4.2923226938
 10
-91.8852701999
 20
4.2866205555
 10
-91.8252742995
 20
4.2783748239
 10
-91.766302277
 20
4.2675854991
 10
-91.7081285806
 20
4.254190276
 10
-91.6509787622
 20
4.2382514597
 10
-91.5955294765
 20
4.2199559648
 10
-91.5418163724
 20
4.1992803827
 10
-91.4898038011
 20
4.176248122
 10
-91.4400614713
 20
4.1511163235
 10
-91.3926134491
 20
4.1238628153
 10
-91.3474356684
 20
4.0945097692
 10
-91.3050256395
 20
4.0633808419
 10
-91.2654125765
 20
4.0304571457
 10
-91.2285672655
 20
3.9957575681
 10
-91.1948995743
 20
3.9596624287
 10
-91.1644427203
 20
3.9221563334
 10
-91.1371634863
 20
3.8832546762
  0
LWPOLYLINE
  5
72D
100
AcDbEntity
  8
IMPORT_IGES
100
AcDbPolyline
 62
7
  6
CONTINUOUS
 90
8
 70
0
 10
-91.1371634863
 20
-1.7735730729
 10
-91.113372088
 20
-1.8134437897
 10
-91.0931052163
 20
-1.8542932972
 10
-91.0763261805
 20
-1.8961118644
 10
-91.0632351243
 20
-1.938443796
 10
-91.0538987625
 20
-1.9811371936
 10
-91.0482503805
 20
-2.0243439557
 10
-91.0462899782
 20
-2.0680640822
  0
LWPOLYLINE
  5
72E
100
AcDbEntity
  8
IMPORT_IGES
100
AcDbPolyline
 62
7
  6
CONTINUOUS
 90
8
 70
0
 10
-91.1371634863
 20
3.8832546762
 10
-91.113372088
 20
3.8433839593
 10
-91.0931052163
 20
3.8025344518
 10
-91.0763261805
 20
3.7607158847
 10
-91.0632351243
 20
3.7183839531
 10
-91.0538987625
 20
3.6756905554
 10
-91.0482503805
 20
3.6324837934
 10
-91.0462899782
 20
3.5887636669
  0
LINE
  5
72F
100
AcDbEntity
  8
IMPORT_IGES
100
AcDbLine
 62
7
  6
CONTINUOUS
 10
-91.0482505885
 20
9.2894191727
 11
-91.0517734919
 21
9.3163663685
  0
LINE
  5
730
100
AcDbEntity
  8
IMPORT_IGES
100
AcDbLine
 62
7
  6
CONTINUOUS
 10
-91.0482505885
 20
14.9462469217
 11
-91.0517769563
 21
14.9732206174
  0
LINE
  5
731
100
AcDbEntity
  8
IMPORT_IGES
100
AcDbLine
 62
7
  6
CONTINUOUS
 10
-86.4462899782
 20
61.3262017623
 11
-86.4462899782
 21
-61.3133930881
  0
LWPOLYLINE
  5
732
100
AcDbEntity
  8
IMPORT_IGES
100
AcDbPolyline
 62
7
  6
CONTINUOUS
 90
18
 70
0
 10
-91.1371683873
 20
-9.9285577328
 10
-91.1644487157
 20
-9.9674600799
 10
-91.1949065965
 20
-10.0049666774
 10
-91.2285752411
 20
-10.041062122
 10
-91.265421438
 20
-10.0757618169
 10
-91.3050352194
 20
-10.1086854837
 10
-91.3474457899
 20
-10.1398142272
 10
-91.3926239447
 20
-10.1691669425
 10
-91.4400721016
 20
-10.1964200362
 10
-91.4898143146
 20
-10.2215513311
 10
-91.5418265296
 20
-10.2445830043
 10
-91.595539002
 20
-10.2652579939
 10
-91.6509873643
 20
-10.2835528885
 10
-91.7081359841
 20
-10.2994910994
 10
-91.7663082196
 20
-10.3128857988
 10
-91.8252785235
 20
-10.3236747106
 10
-91.885272443
 20
-10.3319201109
 10
-91.9462899782
 20
-10.3376219997
  0
LINE
  5
733
100
AcDbEntity
  8
IMPORT_IGES
100
AcDbLine
 62
7
  6
CONTINUOUS
 10
-91.4462899782
 20
-6.8862996502
 11
-91.5197536828
 21
-6.9120119468
  0
LWPOLYLINE
  5
734
100
AcDbEntity
  8
IMPORT_IGES
100
AcDbPolyline
 62
7
  6
CONTINUOUS
 90
25
 70
0
 10
-91.9462899782
 20
8.6834712441
 10
-91.8852701999
 20
8.6891734358
 10
-91.8252742995
 20
8.6974192446
 10
-91.766302277
 20
8.7082086705
 10
-91.7081285806
 20
8.7216040191
 10
-91.6509787622
 20
8.7375429848
 10
-91.5955294765
 20
8.7558386511
 10
-91.5418163724
 20
8.7765144269
 10
-91.4898038011
 20
8.7995469034
 10
-91.4400614713
 20
8.8246789374
 10
-91.3926134491
 20
8.851932701
 10
-91.3474356684
 20
8.881286022
 10
-91.3050256395
 20
8.912415241
 10
-91.2654125765
 20
8.9453392457
 10
-91.2285672655
 20
8.9800391484
 10
-91.1948995743
 20
9.0161346259
 10
-91.1644427203
 20
9.0536410727
 10
-91.1371634863
 20
9.0925430944
 10
-91.113372088
 20
9.1324141848
 10
-91.0931052163
 20
9.173264075
 10
-91.0763261804
 20
9.215083034
 10
-91.0632351243
 20
9.2574153622
 10
-91.0538987625
 20
9.3001091599
 10
-91.0482503805
 20
9.3433163268
 10
-91.0462899782
 20
9.3870368629
  0
LWPOLYLINE
  5
735
100
AcDbEntity
  8
IMPORT_IGES
100
AcDbPolyline
 62
7
  6
CONTINUOUS
 90
16
 70
0
 10
-95.5462899782
 20
7.0889291037
 10
-95.5676633966
 20
7.0880642059
 10
-95.5883302117
 20
7.0857416728
 10
-95.6082904236
 20
7.0819615045
 10
-95.6277357501
 20
7.0766490239
 10
-95.6464744733
 20
7.0698789081
 10
-95.6639314393
 20
7.0618751878
 10
-95.6800692771
 20
7.0526033289
 10
-95.6949253578
 20
7.0420978656
 10
-95.7080366409
 20
7.0306864303
 10
-95.7193542439
 20
7.0183426512
 10
-95.7289270493
 20
7.0050929001
 10
-95.7364386648
 20
6.9913439256
 10
-95.741783626
 20
6.9772313105
 10
-95.7450673971
 20
6.9626194719
 10
-95.7462899782
 20
6.94750841
  0
LINE
  5
736
100
AcDbEntity
  8
IMPORT_IGES
100
AcDbLine
 62
7
  6
CONTINUOUS
 10
-93.5462899782
 20
4.7564271716
 11
-93.5962899782
 21
4.7564271716
  0
LINE
  5
737
100
AcDbEntity
  8
IMPORT_IGES
100
AcDbLine
 62
7
  6
CONTINUOUS
 10
-93.5462899782
 20
6.7339598499
 11
-95.5462899782
 21
6.7339598499
  0
LINE
  5
738
100
AcDbEntity
  8
IMPORT_IGES
100
AcDbLine
 62
7
  6
CONTINUOUS
 10
-95.5462899782
 20
6.946092878
 11
-93.5462899782
 21
6.946092878
  0
LINE
  5
739
100
AcDbEntity
  8
IMPORT_IGES
100
AcDbLine
 62
7
  6
CONTINUOUS
 10
-96.0462899782
 20
6.94750841
 11
-95.7462899782
 21
6.94750841
  0
LINE
  5
73A
100
AcDbEntity
  8
IMPORT_IGES
100
AcDbLine
 62
7
  6
CONTINUOUS
 10
-93.5462899782
 20
6.9489213051
 11
-95.5462899782
 21
6.9489213051
  0
LINE
  5
73B
100
AcDbEntity
  8
IMPORT_IGES
100
AcDbLine
 62
7
  6
CONTINUOUS
 10
-93.5462899782
 20
7.1610523457
 11
-95.5462899782
 21
7.1610523457
  0
LINE
  5
73C
100
AcDbEntity
  8
IMPORT_IGES
100
AcDbLine
 62
7
  6
CONTINUOUS
 10
-93.5962899782
 20
7.2564271716
 11
-93.5462899782
 21
7.2564271716
  0
LWPOLYLINE
  5
73D
100
AcDbEntity
  8
IMPORT_IGES
100
AcDbPolyline
 62
7
  6
CONTINUOUS
 90
22
 70
0
 10
-95.5462899782
 20
6.5939533631
 10
-95.5842402347
 20
6.5950172581
 10
-95.6215063128
 20
6.5980011421
 10
-95.6580882126
 20
6.6029050151
 10
-95.6941713078
 20
6.6097830203
 10
-95.7295702246
 20
6.6185810145
 10
-95.7637288423
 20
6.6291365676
 10
-95.7966267944
 20
6.6414734946
 10
-95.8282844474
 20
6.6555679806
 10
-95.85820678
 20
6.6711861508
 10
-95.8863686132
 20
6.6883489206
 10
-95.912795126
 20
6.7070353745
 10
-95.9370668341
 20
6.726948891
 10
-95.9591541587
 20
6.7481072744
 10
-95.9790866785
 20
6.7704927204
 10
-95.9965336464
 20
6.7937551944
 10
-96.0114613828
 20
6.8179090978
 10
-96.0239035672
 20
6.8429400292
 10
-96.0336304899
 20
6.86845475
 10
-96.0405655811
 20
6.8943221806
 10
-96.0447854105
 20
6.9206734006
 10
-96.0462899782
 20
6.94750841
  0
LWPOLYLINE
  5
73E
100
AcDbEntity
  8
IMPORT_IGES
100
AcDbPolyline
 62
7
  6
CONTINUOUS
 90
6
 70
0
 10
-91.0782453599
 20
9.2102997982
 10
-91.0763261805
 20
9.2055166072
 10
-91.0632351243
 20
9.1631846756
 10
-91.0538987625
 20
9.1204912779
 10
-91.0482503805
 20
9.0772845159
 10
-91.0462899782
 20
9.0335643894
  0
LWPOLYLINE
  5
73F
100
AcDbEntity
  8
IMPORT_IGES
100
AcDbPolyline
 62
7
  6
CONTINUOUS
 90
6
 70
0
 10
-91.0782559927
 20
14.8671540475
 10
-91.0763261804
 20
14.8623443562
 10
-91.0632351243
 20
14.8200124246
 10
-91.0538987625
 20
14.777319027
 10
-91.0482503805
 20
14.7341122649
 10
-91.0462899782
 20
14.6903921384
  0
LINE
  5
740
100
AcDbEntity
  8
IMPORT_IGES
100
AcDbLine
 62
7
  6
CONTINUOUS
 10
-83.4245659335
 20
51.1894065285
 11
-83.4233527588
 21
51.1098241032
  0
LINE
  5
741
100
AcDbEntity
  8
IMPORT_IGES
100
AcDbLine
 62
250
  6
CONTINUOUS
 10
-83.4288388441
 20
52.2734252969
 11
-83.4249182591
 21
52.014320358
  0
LINE
  5
742
100
AcDbEntity
  8
IMPORT_IGES
100
AcDbLine
 62
250
  6
CONTINUOUS
 10
-83.4249182591
 20
52.014320358
 11
-83.4224526907
 21
51.7732012613
  0
LINE
  5
743
100
AcDbEntity
  8
IMPORT_IGES
100
AcDbLine
 62
7
  6
CONTINUOUS
 10
-83.4233527588
 20
51.1098241032
 11
-83.4224521357
 21
51.0054496574
  0
LINE
  5
744
100
AcDbEntity
  8
IMPORT_IGES
100
AcDbLine
 62
250
  6
CONTINUOUS
 10
-83.4224520965
 20
-51.3946513981
 11
-83.4218253863
 21
-51.4672647745
  0
LINE
  5
745
100
AcDbEntity
  8
IMPORT_IGES
100
AcDbLine
 62
7
  6
CONTINUOUS
 10
-83.4288374947
 20
-49.2610278331
 11
-83.4228634174
 21
-50.1586947343
  0
LINE
  5
746
100
AcDbEntity
  8
IMPORT_IGES
100
AcDbLine
 62
250
  6
CONTINUOUS
 10
-83.4224526907
 20
51.7732012613
 11
-83.4216672586
 21
51.6139969243
  0
LINE
  5
747
100
AcDbEntity
  8
IMPORT_IGES
100
AcDbLine
 62
250
  6
CONTINUOUS
 10
-83.4218253863
 20
-51.4672647745
 11
-83.4216128529
 21
-51.5534249368
  0
LINE
  5
748
100
AcDbEntity
  8
IMPORT_IGES
100
AcDbLine
 62
7
  6
CONTINUOUS
 10
-83.4224521357
 20
51.0054496574
 11
-83.4216224584
 21
50.7282907748
  0
LINE
  5
749
100
AcDbEntity
  8
IMPORT_IGES
100
AcDbLine
 62
250
  6
CONTINUOUS
 10
-83.4288375054
 20
49.2738822137
 11
-83.4288375054
 21
-49.2610278321
  0
LINE
  5
74A
100
AcDbEntity
  8
IMPORT_IGES
100
AcDbLine
 62
250
  6
CONTINUOUS
 10
-83.4288381862
 20
61.2735775804
 11
-83.4288382176
 21
52.2734253001
  0
LINE
  5
74B
100
AcDbEntity
  8
IMPORT_IGES
100
AcDbLine
 62
250
  6
CONTINUOUS
 10
-83.4288380199
 20
-52.26057096
 11
-83.4288375718
 21
-61.2607232604
  0
LINE
  5
74C
100
AcDbEntity
  8
IMPORT_IGES
100
AcDbLine
 62
7
  6
CONTINUOUS
 10
-83.4228634174
 20
-50.1586947343
 11
-83.4216224887
 21
-50.7154453658
  0
LINE
  5
74D
100
AcDbEntity
  8
IMPORT_IGES
100
AcDbLine
 62
7
  6
CONTINUOUS
 10
-82.4462899782
 20
-60.26085959
 11
-82.4462899782
 21
60.2737299085
  0
LINE
  5
74E
100
AcDbEntity
  8
IMPORT_IGES
100
AcDbLine
 62
250
  6
CONTINUOUS
 10
-83.4216672586
 20
51.6139969243
 11
-83.4216671966
 21
51.5215959769
  0
LINE
  5
74F
100
AcDbEntity
  8
IMPORT_IGES
100
AcDbLine
 62
7
  6
CONTINUOUS
 10
-83.4216224584
 20
50.7282907748
 11
-83.4228635289
 21
50.1715393682
  0
LINE
  5
750
100
AcDbEntity
  8
IMPORT_IGES
100
AcDbLine
 62
250
  6
CONTINUOUS
 10
-83.4216128529
 20
-51.5534249368
 11
-83.4220858752
 21
-51.7048143359
  0
LINE
  5
751
100
AcDbEntity
  8
IMPORT_IGES
100
AcDbLine
 62
7
  6
CONTINUOUS
 10
-83.4216224887
 20
-50.7154453658
 11
-83.4224522734
 21
-50.9926011102
  0
LWPOLYLINE
  5
752
100
AcDbEntity
  8
IMPORT_IGES
100
AcDbPolyline
 62
250
  6
CONTINUOUS
 90
11
 70
0
 10
-83.4216671966
 20
51.5215959769
 10
-83.4220864559
 20
51.4420396235
 10
-83.4224524462
 20
51.4075089156
 10
-83.4229228733
 20
51.3766799062
 10
-83.4234881146
 20
51.3496828601
 10
-83.4241529714
 20
51.3266359302
 10
-83.4249178024
 20
51.3076401048
 10
-83.4257668855
 20
51.2927774718
 10
-83.426697474
 20
51.2821154717
 10
-83.4277198205
 20
51.2757049048
 10
-83.4288382424
 20
51.2735776154
  0
LINE
  5
753
100
AcDbEntity
  8
IMPORT_IGES
100
AcDbLine
 62
7
  6
CONTINUOUS
 10
-83.4228635289
 20
50.1715393682
 11
-83.4288376407
 21
49.2738822137
  0
LINE
  5
754
100
AcDbEntity
  8
IMPORT_IGES
100
AcDbLine
 62
7
  6
CONTINUOUS
 10
-83.4224522734
 20
-50.9926011102
 11
-83.4233529445
 21
-51.0969737287
  0
LINE
  5
755
100
AcDbEntity
  8
IMPORT_IGES
100
AcDbLine
 62
250
  6
CONTINUOUS
 10
-83.4220858752
 20
-51.7048143359
 11
-83.4241526907
 21
-51.9388342511
  0
LWPOLYLINE
  5
756
100
AcDbEntity
  8
IMPORT_IGES
100
AcDbPolyline
 62
250
  6
CONTINUOUS
 90
3
 70
0
 10
-83.4241526907
 20
-51.9388342511
 10
-83.4277200051
 20
-52.1950566168
 10
-83.4288385642
 20
-52.2605709538
  0
LWPOLYLINE
  5
757
100
AcDbEntity
  8
IMPORT_IGES
100
AcDbPolyline
 62
7
  6
CONTINUOUS
 90
7
 70
0
 10
-83.4233529445
 20
-51.0969737287
 10
-83.42456616
 20
-51.1765544441
 10
-83.4252819531
 20
-51.2066930638
 10
-83.4260717798
 20
-51.2302516236
 10
-83.4269327921
 20
-51.2471467797
 10
-83.4278568584
 20
-51.2573168052
 10
-83.4288378002
 20
-51.2607232644
  0
LINE
  5
758
100
AcDbEntity
  8
IMPORT_IGES
100
AcDbLine
 62
7
  6
CONTINUOUS
 10
-91.4462899782
 20
-11.8862996502
 11
-91.9462899782
 21
-12.0612996502
  0
LWPOLYLINE
  5
759
100
AcDbEntity
  8
IMPORT_IGES
100
AcDbPolyline
 62
7
  6
CONTINUOUS
 90
25
 70
0
 10
-91.9462899782
 20
10.65628866
 10
-91.8852701999
 20
10.6505864683
 10
-91.8252742995
 20
10.6423406595
 10
-91.766302277
 20
10.6315512335
 10
-91.7081285806
 20
10.618155885
 10
-91.6509787622
 20
10.6022169193
 10
-91.5955294765
 20
10.583921253
 10
-91.5418163724
 20
10.5632454771
 10
-91.4898038011
 20
10.5402130007
 10
-91.4400614713
 20
10.5150809667
 10
-91.3926134491
 20
10.4878272031
 10
-91.3474356684
 20
10.4584738821
 10
-91.3050256395
 20
10.4273446631
 10
-91.2654125765
 20
10.3944206584
 10
-91.2285672655
 20
10.3597207557
 10
-91.1948995743
 20
10.3236252782
 10
-91.1644427203
 20
10.2861188314
 10
-91.1371634863
 20
10.2472168097
 10
-91.113372088
 20
10.2073457193
 10
-91.0931052163
 20
10.166495829
 10
-91.0763261805
 20
10.1246768701
 10
-91.0632351243
 20
10.0823445418
 10
-91.0538987625
 20
10.0396507442
 10
-91.0482503805
 20
9.9964435773
 10
-91.0462899782
 20
9.9527230412
  0
LINE
  5
75A
100
AcDbEntity
  8
IMPORT_IGES
100
AcDbLine
 62
7
  6
CONTINUOUS
 10
-91.4462899782
 20
-16.8862996502
 11
-91.9462899782
 21
-17.0612996502
  0
LWPOLYLINE
  5
75B
100
AcDbEntity
  8
IMPORT_IGES
100
AcDbPolyline
 62
7
  6
CONTINUOUS
 90
25
 70
0
 10
-91.9462899782
 20
14.3403519939
 10
-91.8852701999
 20
14.3460541856
 10
-91.8252742995
 20
14.3542999944
 10
-91.766302277
 20
14.3650894204
 10
-91.7081285806
 20
14.3784847689
 10
-91.6509787622
 20
14.3944237346
 10
-91.5955294765
 20
14.4127194009
 10
-91.5418163724
 20
14.4333951768
 10
-91.4898038011
 20
14.4564276533
 10
-91.4400614713
 20
14.4815596872
 10
-91.3926134491
 20
14.5088134508
 10
-91.3474356684
 20
14.5381667718
 10
-91.3050256395
 20
14.5692959908
 10
-91.2654125765
 20
14.6022199955
 10
-91.2285672655
 20
14.6369198982
 10
-91.1948995743
 20
14.6730153758
 10
-91.1644427203
 20
14.7105218225
 10
-91.1371634863
 20
14.7494238442
 10
-91.113372088
 20
14.7892949346
 10
-91.0931052163
 20
14.8301448249
 10
-91.0763261805
 20
14.8719637838
 10
-91.0632351243
 20
14.9142961121
 10
-91.0538987625
 20
14.9569899097
 10
-91.0482503805
 20
15.0001970766
 10
-91.0462899782
 20
15.0439176127
  0
LINE
  5
75C
100
AcDbEntity
  8
IMPORT_IGES
100
AcDbLine
 62
7
  6
CONTINUOUS
 10
-96.6362899782
 20
13.6435156191
 11
-96.4362899782
 21
13.6435156191
  0
LINE
  5
75D
100
AcDbEntity
  8
IMPORT_IGES
100
AcDbLine
 62
7
  6
CONTINUOUS
 10
-96.4462899782
 20
13.6685156191
 11
-96.0462899782
 21
13.6685156191
  0
LINE
  5
75E
100
AcDbEntity
  8
IMPORT_IGES
100
AcDbLine
 62
7
  6
CONTINUOUS
 10
-96.6362899782
 20
13.7560156191
 11
-96.0462899782
 21
13.7560156191
  0
LINE
  5
75F
100
AcDbEntity
  8
IMPORT_IGES
100
AcDbLine
 62
7
  6
CONTINUOUS
 10
-96.0462899782
 20
13.9560156191
 11
-96.6362899782
 21
13.9560156191
  0
LINE
  5
760
100
AcDbEntity
  8
IMPORT_IGES
100
AcDbLine
 62
7
  6
CONTINUOUS
 10
-96.4362899782
 20
13.9835156191
 11
-96.0462899782
 21
13.9835156191
  0
LINE
  5
761
100
AcDbEntity
  8
IMPORT_IGES
100
AcDbLine
 62
250
  6
CONTINUOUS
 10
-96.4362899782
 20
14.1335156191
 11
-96.0462899782
 21
14.1335156191
  0
LINE
  5
762
100
AcDbEntity
  8
IMPORT_IGES
100
AcDbLine
 62
250
  6
CONTINUOUS
 10
-96.4362899782
 20
14.5035156191
 11
-96.0462899782
 21
14.5035156191
  0
LINE
  5
763
100
AcDbEntity
  8
IMPORT_IGES
100
AcDbLine
 62
7
  6
CONTINUOUS
 10
-96.4362899782
 20
14.6535156191
 11
-96.0462899782
 21
14.6535156191
  0
LINE
  5
764
100
AcDbEntity
  8
IMPORT_IGES
100
AcDbLine
 62
7
  6
CONTINUOUS
 10
-96.4362899782
 20
14.749663971
 11
-96.4462899782
 21
14.749663971
  0
LINE
  5
765
100
AcDbEntity
  8
IMPORT_IGES
100
AcDbLine
 62
250
  6
CONTINUOUS
 10
-96.4462899782
 20
14.8035156191
 11
-96.0462899782
 21
14.8035156191
  0
LINE
  5
766
100
AcDbEntity
  8
IMPORT_IGES
100
AcDbLine
 62
7
  6
CONTINUOUS
 10
-98.9482700276
 20
15.501775214
 11
-96.6362899782
 21
15.4210390917
  0
LWPOLYLINE
  5
767
100
AcDbEntity
  8
IMPORT_IGES
100
AcDbPolyline
 62
7
  6
CONTINUOUS
 90
25
 70
0
 10
-91.9462899782
 20
16.3131694098
 10
-91.8852701999
 20
16.3074672181
 10
-91.8252742995
 20
16.2992214093
 10
-91.766302277
 20
16.2884319834
 10
-91.7081285806
 20
16.2750366348
 10
-91.6509787622
 20
16.2590976691
 10
-91.5955294765
 20
16.2408020028
 10
-91.5418163724
 20
16.220126227
 10
-91.4898038011
 20
16.1970937505
 10
-91.4400614713
 20
16.1719617165
 10
-91.3926134491
 20
16.144707953
 10
-91.3474356684
 20
16.1153546319
 10
-91.3050256395
 20
16.0842254129
 10
-91.2654125765
 20
16.0513014082
 10
-91.2285672655
 20
16.0166015055
 10
-91.1948995743
 20
15.980506028
 10
-91.1644427203
 20
15.9429995812
 10
-91.1371634863
 20
15.9040975595
 10
-91.113372088
 20
15.8642264691
 10
-91.0931052163
 20
15.8233765789
 10
-91.0763261804
 20
15.7815576199
 10
-91.0632351243
 20
15.7392252917
 10
-91.0538987625
 20
15.696531494
 10
-91.0482503805
 20
15.6533243271
 10
-91.0462899782
 20
15.609603791
  0
LWPOLYLINE
  5
768
100
AcDbEntity
  8
IMPORT_IGES
100
AcDbPolyline
 62
7
  6
CONTINUOUS
 90
5
 70
0
 10
-94.0982982244
 20
19.1380140148
 10
-94.1024365079
 20
19.139987802
 10
-94.1066943697
 20
19.1415290468
 10
-94.1110535871
 20
19.1426322142
 10
-94.1154907703
 20
19.1432948109
  0
LWPOLYLINE
  5
769
100
AcDbEntity
  8
IMPORT_IGES
100
AcDbPolyline
 62
7
  6
CONTINUOUS
 90
4
 70
0
 10
-94.0867492848
 20
19.1296058921
 10
-94.0904352027
 20
19.1328114032
 10
-94.0942921086
 20
19.1356179564
 10
-94.0982982244
 20
19.1380140148
  0
LINE
  5
76A
100
AcDbEntity
  8
IMPORT_IGES
100
AcDbLine
 62
7
  6
CONTINUOUS
 10
-91.4462899782
 20
-21.8862996502
 11
-91.9462899782
 21
-22.0612996502
  0
LINE
  5
76B
100
AcDbEntity
  8
IMPORT_IGES
100
AcDbLine
 62
7
  6
CONTINUOUS
 10
-95.9462899782
 20
18.2676181549
 11
-95.2322899782
 21
18.3935156191
  0
LWPOLYLINE
  5
76C
100
AcDbEntity
  8
IMPORT_IGES
100
AcDbPolyline
 62
7
  6
CONTINUOUS
 90
21
 70
0
 10
-95.5842402347
 20
17.9066476651
 10
-95.6215063128
 20
17.9036638091
 10
-95.6580882126
 20
17.8987599821
 10
-95.6941713078
 20
17.8918820413
 10
-95.7295702246
 20
17.8830841296
 10
-95.7637288423
 20
17.8725286754
 10
-95.7966267944
 20
17.8601918639
 10
-95.8282844474
 20
17.84609751
 10
-95.85820678
 20
17.8304794862
 10
-95.8863686132
 20
17.8133168772
 10
-95.912795126
 20
17.7946305983
 10
-95.9370668341
 20
17.7747172684
 10
-95.9591541587
 20
17.7535590832
 10
-95.9790866785
 20
17.731173847
 10
-95.9965336464
 20
17.7079115909
 10
-96.0114613828
 20
17.6837579138
 10
-96.0239035672
 20
17.658727217
 10
-96.0336304899
 20
17.6332127352
 10
-96.0405655811
 20
17.607345547
 10
-96.0447854105
 20
17.5809945739
 10
-96.0462899782
 20
17.5541598159
  0
LINE
  5
76D
100
AcDbEntity
  8
IMPORT_IGES
100
AcDbLine
 62
7
  6
CONTINUOUS
 10
-94.1154654573
 20
18.3937393081
 11
-94.1199850686
 21
18.3935156191
  0
LINE
  5
76E
100
AcDbEntity
  8
IMPORT_IGES
100
AcDbLine
 62
7
  6
CONTINUOUS
 10
-96.6362899782
 20
18.1159921465
 11
-98.9482700276
 21
18.0352560242
  0
LINE
  5
76F
100
AcDbEntity
  8
IMPORT_IGES
100
AcDbLine
 62
7
  6
CONTINUOUS
 10
-95.5462899782
 20
17.9077115502
 11
-95.5842402347
 21
17.9066476651
  0
LINE
  5
770
100
AcDbEntity
  8
IMPORT_IGES
100
AcDbLine
 62
7
  6
CONTINUOUS
 10
-96.6362899782
 20
17.9810156191
 11
-96.4462899782
 21
17.9810156191
  0
LINE
  5
771
100
AcDbEntity
  8
IMPORT_IGES
100
AcDbLine
 62
7
  6
CONTINUOUS
 10
-93.5462899782
 20
18.0477193488
 11
-95.5462899782
 21
18.0477193488
  0
LINE
  5
772
100
AcDbEntity
  8
IMPORT_IGES
100
AcDbLine
 62
7
  6
CONTINUOUS
 10
-94.0462899782
 20
18.1685156191
 11
-94.2462899782
 21
18.1685156191
  0
LINE
  5
773
100
AcDbEntity
  8
IMPORT_IGES
100
AcDbLine
 62
7
  6
CONTINUOUS
 10
-94.2462899782
 20
18.2035156191
 11
-94.8462899782
 21
18.2035156191
  0
LINE
  5
774
100
AcDbEntity
  8
IMPORT_IGES
100
AcDbLine
 62
7
  6
CONTINUOUS
 10
-94.1199850686
 20
18.3935156191
 11
-95.2822899782
 21
18.3935156191
  0
LINE
  5
775
100
AcDbEntity
  8
IMPORT_IGES
100
AcDbLine
 62
7
  6
CONTINUOUS
 10
-94.0500840915
 20
18.4285156191
 11
-93.9462900561
 21
18.4285156191
  0
LINE
  5
776
100
AcDbEntity
  8
IMPORT_IGES
100
AcDbLine
 62
250
  6
CONTINUOUS
 10
-96.4462899782
 20
18.7335156191
 11
-95.9462899782
 21
18.7335156191
  0
LINE
  5
777
100
AcDbEntity
  8
IMPORT_IGES
100
AcDbLine
 62
7
  6
CONTINUOUS
 10
-96.4362899782
 20
18.878083942
 11
-96.4462899782
 21
18.878083942
  0
LINE
  5
778
100
AcDbEntity
  8
IMPORT_IGES
100
AcDbLine
 62
7
  6
CONTINUOUS
 10
-96.4362899782
 20
18.8835156191
 11
-95.9462899782
 21
18.8835156191
  0
LINE
  5
779
100
AcDbEntity
  8
IMPORT_IGES
100
AcDbLine
 62
7
  6
CONTINUOUS
 10
-96.6362899782
 20
18.9810156191
 11
-96.4362899782
 21
18.9810156191
  0
LINE
  5
77A
100
AcDbEntity
  8
IMPORT_IGES
100
AcDbLine
 62
250
  6
CONTINUOUS
 10
-96.4362899782
 20
19.0335156191
 11
-95.9462899782
 21
19.0335156191
  0
LINE
  5
77B
100
AcDbEntity
  8
IMPORT_IGES
100
AcDbLine
 62
7
  6
CONTINUOUS
 10
-93.9462900561
 20
19.1085156191
 11
-94.0500840914
 21
19.1085156191
  0
LINE
  5
77C
100
AcDbEntity
  8
IMPORT_IGES
100
AcDbLine
 62
7
  6
CONTINUOUS
 10
-94.1199850686
 20
19.1435156191
 11
-95.2810552878
 21
19.1435156191
  0
LINE
  5
77D
100
AcDbEntity
  8
IMPORT_IGES
100
AcDbLine
 62
7
  6
CONTINUOUS
 10
-94.2462899782
 20
19.3185156191
 11
-94.0462899782
 21
19.3185156191
  0
LINE
  5
77E
100
AcDbEntity
  8
IMPORT_IGES
100
AcDbLine
 62
250
  6
CONTINUOUS
 10
-96.4362899782
 20
19.4035156191
 11
-95.9462899782
 21
19.4035156191
  0
LINE
  5
77F
100
AcDbEntity
  8
IMPORT_IGES
100
AcDbLine
 62
7
  6
CONTINUOUS
 10
-96.6362899782
 20
19.4310156191
 11
-96.4362899782
 21
19.4310156191
  0
LINE
  5
780
100
AcDbEntity
  8
IMPORT_IGES
100
AcDbLine
 62
7
  6
CONTINUOUS
 10
-95.9462899782
 20
19.5535156191
 11
-96.4362899782
 21
19.5535156191
  0
LINE
  5
781
100
AcDbEntity
  8
IMPORT_IGES
100
AcDbLine
 62
7
  6
CONTINUOUS
 10
-94.0462899782
 20
19.5685156191
 11
-95.9462899782
 21
19.5685156191
  0
LINE
  5
782
100
AcDbEntity
  8
IMPORT_IGES
100
AcDbLine
 62
7
  6
CONTINUOUS
 10
-96.6362899782
 20
19.5810156191
 11
-94.3674379299
 21
19.5810156191
  0
LINE
  5
783
100
AcDbEntity
  8
IMPORT_IGES
100
AcDbLine
 62
7
  6
CONTINUOUS
 10
-94.3674379299
 20
19.7810156191
 11
-96.6362899782
 21
19.7810156191
  0
LINE
  5
784
100
AcDbEntity
  8
IMPORT_IGES
100
AcDbLine
 62
7
  6
CONTINUOUS
 10
-96.4462899782
 20
19.8685156191
 11
-95.9462899782
 21
19.8685156191
  0
LINE
  5
785
100
AcDbEntity
  8
IMPORT_IGES
100
AcDbLine
 62
7
  6
CONTINUOUS
 10
-96.6362899782
 20
19.8935156191
 11
-96.4362899782
 21
19.8935156191
  0
LINE
  5
786
100
AcDbEntity
  8
IMPORT_IGES
100
AcDbLine
 62
7
  6
CONTINUOUS
 10
-94.8962899782
 20
19.9185156191
 11
-95.9462899782
 21
19.9185156191
  0
LINE
  5
787
100
AcDbEntity
  8
IMPORT_IGES
100
AcDbLine
 62
7
  6
CONTINUOUS
 10
-91.9462899782
 20
21.1786126261
 11
-86.4462899782
 21
21.082609769
  0
LINE
  5
788
100
AcDbEntity
  8
IMPORT_IGES
100
AcDbLine
 62
7
  6
CONTINUOUS
 10
-94.1154907703
 20
19.1432948109
 11
-94.1199850686
 21
19.1435156191
  0
LWPOLYLINE
  5
789
100
AcDbEntity
  8
IMPORT_IGES
100
AcDbPolyline
 62
7
  6
CONTINUOUS
 90
10
 70
0
 10
-94.0500840914
 20
19.1085156191
 10
-94.0538013776
 20
19.108737819
 10
-94.0575600179
 20
19.1094040094
 10
-94.0613390669
 20
19.1105120901
 10
-94.0651195915
 20
19.112059009
 10
-94.0688789339
 20
19.1140381854
 10
-94.0725913492
 20
19.1164370395
 10
-94.076235827
 20
19.1192417399
 10
-94.0797956277
 20
19.1224397587
 10
-94.0867492848
 20
19.1296058921
  0
LINE
  5
78A
100
AcDbEntity
  8
IMPORT_IGES
100
AcDbLine
 62
7
  6
CONTINUOUS
 10
-95.2322899783
 20
19.1435156191
 11
-95.9462899782
 21
19.2694130833
  0
LINE
  5
78B
100
AcDbEntity
  8
IMPORT_IGES
100
AcDbLine
 62
7
  6
CONTINUOUS
 10
-94.5462899782
 20
21.6564271717
 11
-93.5462899782
 21
21.6564271717
  0
LINE
  5
78C
100
AcDbEntity
  8
IMPORT_IGES
100
AcDbLine
 62
7
  6
CONTINUOUS
 10
-95.2390995983
 20
22.0564271716
 11
-95.1922092751
 21
22.0564271716
  0
LINE
  5
78D
100
AcDbEntity
  8
IMPORT_IGES
100
AcDbLine
 62
7
  6
CONTINUOUS
 10
-91.9462899782
 20
22.7064271716
 11
-93.5462899782
 21
22.7064271716
  0
LINE
  5
78E
100
AcDbEntity
  8
IMPORT_IGES
100
AcDbLine
 62
7
  6
CONTINUOUS
 10
-95.1922092751
 20
23.2564271716
 11
-95.3462899782
 21
23.2564271716
  0
LINE
  5
78F
100
AcDbEntity
  8
IMPORT_IGES
100
AcDbLine
 62
7
  6
CONTINUOUS
 10
-94.3587899782
 20
23.2869952169
 11
-93.5462899782
 21
23.2869952169
  0
LINE
  5
790
100
AcDbEntity
  8
IMPORT_IGES
100
AcDbLine
 62
7
  6
CONTINUOUS
 10
-93.5462899782
 20
23.3338702169
 11
-93.9525399782
 21
23.3338702169
  0
LINE
  5
791
100
AcDbEntity
  8
IMPORT_IGES
100
AcDbLine
 62
7
  6
CONTINUOUS
 10
-93.5462899782
 20
23.5838702169
 11
-93.9525399782
 21
23.5838702169
  0
LINE
  5
792
100
AcDbEntity
  8
IMPORT_IGES
100
AcDbLine
 62
7
  6
CONTINUOUS
 10
-93.5462899782
 20
23.8963702169
 11
-93.9525399782
 21
23.8963702169
  0
LINE
  5
793
100
AcDbEntity
  8
IMPORT_IGES
100
AcDbLine
 62
7
  6
CONTINUOUS
 10
-93.9525399782
 20
24.1463702169
 11
-93.5462899782
 21
24.1463702169
  0
LINE
  5
794
100
AcDbEntity
  8
IMPORT_IGES
100
AcDbLine
 62
7
  6
CONTINUOUS
 10
-93.5462899782
 20
24.1932452169
 11
-94.3587899782
 21
24.1932452169
  0
LINE
  5
795
100
AcDbEntity
  8
IMPORT_IGES
100
AcDbLine
 62
7
  6
CONTINUOUS
 10
-95.3462899782
 20
24.2564271716
 11
-95.1922092751
 21
24.2564271716
  0
LINE
  5
796
100
AcDbEntity
  8
IMPORT_IGES
100
AcDbLine
 62
7
  6
CONTINUOUS
 10
-91.9462899782
 20
24.8064271716
 11
-93.5462899782
 21
24.8064271716
  0
LWPOLYLINE
  5
797
100
AcDbEntity
  8
IMPORT_IGES
100
AcDbPolyline
 62
7
  6
CONTINUOUS
 90
6
 70
0
 10
-83.4288375204
 20
51.2735776028
 10
-83.4278565827
 20
51.270171037
 10
-83.4269325241
 20
51.2600007051
 10
-83.4260715228
 20
51.2431050703
 10
-83.42528171
 20
51.2195458873
 10
-83.4245659335
 20
51.1894065285
  0
LINE
  5
798
100
AcDbEntity
  8
IMPORT_IGES
100
AcDbLine
 62
7
  6
CONTINUOUS
 10
-91.9462899782
 20
26.3342417171
 11
-86.4462899782
 21
26.4302445742
  0
LINE
  5
799
100
AcDbEntity
  8
IMPORT_IGES
100
AcDbLine
 62
7
  6
CONTINUOUS
 10
-95.1922092751
 20
25.4564271716
 11
-95.2391103012
 21
25.4564271716
  0
LINE
  5
79A
100
AcDbEntity
  8
IMPORT_IGES
100
AcDbLine
 62
7
  6
CONTINUOUS
 10
-93.5462899782
 20
25.8564271715
 11
-94.5462899782
 21
25.8564271715
  0
LINE
  5
79B
100
AcDbEntity
  8
IMPORT_IGES
100
AcDbLine
 62
7
  6
CONTINUOUS
 10
-93.5962899782
 20
29.7564271716
 11
-93.5462899782
 21
29.7564271716
  0
LINE
  5
79C
100
AcDbEntity
  8
IMPORT_IGES
100
AcDbLine
 62
7
  6
CONTINUOUS
 10
-93.5962899782
 20
32.5064271716
 11
-93.5462899782
 21
32.5064271716
  0
LINE
  5
79D
100
AcDbEntity
  8
IMPORT_IGES
100
AcDbLine
 62
7
  6
CONTINUOUS
 10
-93.5962899782
 20
33.2564271716
 11
-93.5462899782
 21
33.2564271716
  0
LWPOLYLINE
  5
79E
100
AcDbEntity
  8
0
100
AcDbPolyline
 62
7
  6
CONTINUOUS
 90
10
 70
0
 43
0.3500000006
 10
-92.0320048828
 20
76.4894230042
 10
-91.9605737
 20
76.3465697021
 10
-91.9605737
 20
76.2751385193
 10
-92.1034360657
 20
76.1322852173
 10
-92.1748581848
 20
76.1322852173
 10
-92.2462893677
 20
76.2037164001
 10
-92.2462893677
 20
76.2751385193
 10
-92.1748581848
 20
76.418000885
 10
-92.1034360657
 20
76.4894230042
 10
-92.0320048828
 20
76.4894230042
  0
LINE
  5
79F
100
AcDbEntity
  8
IMPORT_IGES
100
AcDbLine
 62
7
  6
CONTINUOUS
 10
-91.9462899782
 20
44.7064271716
 11
-93.5462899782
 21
44.7064271716
  0
LINE
  5
7A0
100
AcDbEntity
  8
IMPORT_IGES
100
AcDbLine
 62
7
  6
CONTINUOUS
 10
-93.5962899782
 20
44.7564271716
 11
-93.5462899782
 21
44.7564271716
  0
LINE
  5
7A1
100
AcDbEntity
  8
IMPORT_IGES
100
AcDbLine
 62
7
  6
CONTINUOUS
 10
-91.9462899782
 20
43.1786126261
 11
-86.4462899782
 21
43.082609769
  0
LINE
  5
7A2
100
AcDbEntity
  8
IMPORT_IGES
100
AcDbLine
 62
7
  6
CONTINUOUS
 10
-93.660254696
 20
44.7863445371
 11
-93.5462899782
 21
44.7843552755
  0
LINE
  5
7A3
100
AcDbEntity
  8
IMPORT_IGES
100
AcDbLine
 62
7
  6
CONTINUOUS
 10
-93.6602547171
 20
46.7265098058
 11
-93.5462899782
 21
46.7284990677
  0
LINE
  5
7A4
100
AcDbEntity
  8
IMPORT_IGES
100
AcDbLine
 62
7
  6
CONTINUOUS
 10
-91.9462899782
 20
48.3342417171
 11
-86.4462899782
 21
48.4302445742
  0
LINE
  5
7A5
100
AcDbEntity
  8
IMPORT_IGES
100
AcDbLine
 62
7
  6
CONTINUOUS
 10
-91.9462899782
 20
46.8064271716
 11
-93.5462899782
 21
46.8064271716
  0
LINE
  5
7A6
100
AcDbEntity
  8
IMPORT_IGES
100
AcDbLine
 62
250
  6
CONTINUOUS
 10
-83.4288375054
 20
49.2738822137
 11
-82.4462899782
 21
49.2738774579
  0
LINE
  5
7A7
100
AcDbEntity
  8
IMPORT_IGES
100
AcDbLine
 62
7
  6
CONTINUOUS
 10
-93.5962899782
 20
49.7564271716
 11
-93.5462899782
 21
49.7564271716
  0
LINE
  5
7A8
100
AcDbEntity
  8
IMPORT_IGES
100
AcDbLine
 62
7
  6
CONTINUOUS
 10
-93.5462899782
 20
50.2565037921
 11
-91.9462899782
 21
50.2565037921
  0
LINE
  5
7A9
100
AcDbEntity
  8
IMPORT_IGES
100
AcDbLine
 62
250
  6
CONTINUOUS
 10
-86.4462899565
 20
49.326545077
 11
-83.4288375054
 21
49.2738822137
  0
LINE
  5
7AA
100
AcDbEntity
  8
IMPORT_IGES
100
AcDbLine
 62
250
  6
CONTINUOUS
 10
-83.4288381844
 20
52.2734252847
 11
-82.4462899782
 21
52.27343172
  0
LINE
  5
7AB
100
AcDbEntity
  8
IMPORT_IGES
100
AcDbLine
 62
7
  6
CONTINUOUS
 10
-83.4288376462
 20
51.273577605
 11
-86.4462899589
 21
51.326247431
  0
LINE
  5
7AC
100
AcDbEntity
  8
IMPORT_IGES
100
AcDbLine
 62
250
  6
CONTINUOUS
 10
-83.4288382176
 20
52.2734253001
 11
-86.4462899782
 21
52.3260951265
  0
LINE
  5
7AD
100
AcDbEntity
  8
IMPORT_IGES
100
AcDbLine
 62
250
  6
CONTINUOUS
 10
-86.4462899782
 20
55.7564271716
 11
-82.4462899782
 21
55.7564271718
  0
LWPOLYLINE
  5
7AE
100
AcDbEntity
  8
0
100
AcDbPolyline
 62
7
  6
CONTINUOUS
 90
7
 70
0
 43
0.3500000006
 10
-95.2462902832
 20
75.9894228516
 10
-96.746290741
 20
75.9894228516
 10
-95.2462902832
 20
78.1322858276
 10
-95.2462902832
 20
78.5608547974
 10
-95.6748592529
 20
78.9894237671
 10
-96.3177217712
 20
78.9894237671
 10
-96.746290741
 20
78.3465703125
  0
LINE
  5
7AF
100
AcDbEntity
  8
IMPORT_IGES
100
AcDbLine
 62
7
  6
CONTINUOUS
 10
-83.4288381857
 20
61.2735776144
 11
-86.4462899782
 21
61.3262474313
  0
ARC
  5
7B0
100
AcDbEntity
  8
IMPORT_IGES
100
AcDbCircle
 62
7
  6
CONTINUOUS
 10
-45.7499999998
 20
-55.7435728284
 40
5.5698202485
100
AcDbArc
 50
180.0000000004
 51
360.0
  0
ARC
  5
7B1
100
AcDbEntity
  8
IMPORT_IGES
100
AcDbCircle
 62
7
  6
CONTINUOUS
 10
-45.7499999998
 20
-55.7435728284
 40
4.3261825884
100
AcDbArc
 50
180.0000000002
 51
359.9999999998
  0
ARC
  5
7B2
100
AcDbEntity
  8
IMPORT_IGES
100
AcDbCircle
 62
7
  6
CONTINUOUS
 10
-45.7499999998
 20
-55.7435728284
 40
4.2999999911
100
AcDbArc
 50
179.9999999999
 51
360.0
  0
CIRCLE
  5
7B3
100
AcDbEntity
  8
IMPORT_IGES
100
AcDbCircle
 62
7
  6
CONTINUOUS
 10
-46.2499999998
 20
-46.2435728284
 40
2.1
  0
CIRCLE
  5
7B4
100
AcDbEntity
  8
IMPORT_IGES
100
AcDbCircle
 62
7
  6
CONTINUOUS
 10
-45.7499999998
 20
-56.1435728284
 40
2.0999999955
  0
ARC
  5
7B5
100
AcDbEntity
  8
IMPORT_IGES
100
AcDbCircle
 62
250
  6
CONTINUOUS
 10
-46.2499999998
 20
-46.2435728284
 40
1.3000078504
100
AcDbArc
 50
202.6195142388
 51
247.3802516136
  0
ARC
  5
7B6
100
AcDbEntity
  8
IMPORT_IGES
100
AcDbCircle
 62
250
  6
CONTINUOUS
 10
-46.2499999998
 20
-46.2435728284
 40
1.3
100
AcDbArc
 50
22.619514239
 51
67.3802484242
  0
CIRCLE
  5
7B7
100
AcDbEntity
  8
IMPORT_IGES
100
AcDbCircle
 62
7
  6
CONTINUOUS
 10
-39.7298493862
 20
-21.7362996502
 40
1.9
  0
CIRCLE
  5
7B8
100
AcDbEntity
  8
IMPORT_IGES
100
AcDbCircle
 62
7
  6
CONTINUOUS
 10
-39.7298493862
 20
-16.7362996502
 40
1.9
  0
CIRCLE
  5
7B9
100
AcDbEntity
  8
IMPORT_IGES
100
AcDbCircle
 62
7
  6
CONTINUOUS
 10
-39.7298493862
 20
-6.7362996502
 40
1.9
  0
CIRCLE
  5
7BA
100
AcDbEntity
  8
IMPORT_IGES
100
AcDbCircle
 62
7
  6
CONTINUOUS
 10
-39.7298493862
 20
-11.7362996502
 40
1.9
  0
CIRCLE
  5
7BB
100
AcDbEntity
  8
IMPORT_IGES
100
AcDbCircle
 62
7
  6
CONTINUOUS
 10
-39.7298493862
 20
-6.7362996502
 40
1.85
  0
CIRCLE
  5
7BC
100
AcDbEntity
  8
IMPORT_IGES
100
AcDbCircle
 62
7
  6
CONTINUOUS
 10
-39.7298493862
 20
-11.7362996502
 40
1.85
  0
CIRCLE
  5
7BD
100
AcDbEntity
  8
IMPORT_IGES
100
AcDbCircle
 62
7
  6
CONTINUOUS
 10
-39.7298493862
 20
-16.7362996502
 40
1.85
  0
CIRCLE
  5
7BE
100
AcDbEntity
  8
IMPORT_IGES
100
AcDbCircle
 62
7
  6
CONTINUOUS
 10
-39.7298493862
 20
-21.7362996502
 40
1.85
  0
ARC
  5
7BF
100
AcDbEntity
  8
IMPORT_IGES
100
AcDbCircle
 62
7
  6
CONTINUOUS
 10
-45.7499999998
 20
55.7564271716
 40
5.5698202508
100
AcDbArc
 50
0.0000000003
 51
180.0000000033
  0
ARC
  5
7C0
100
AcDbEntity
  8
IMPORT_IGES
100
AcDbCircle
 62
7
  6
CONTINUOUS
 10
-45.7499999998
 20
55.7564271716
 40
4.3261825884
100
AcDbArc
 50
0.0000000002
 51
179.9999999997
  0
ARC
  5
7C1
100
AcDbEntity
  8
IMPORT_IGES
100
AcDbCircle
 62
7
  6
CONTINUOUS
 10
-45.7499999998
 20
55.7564271716
 40
4.2999999911
100
AcDbArc
 50
0.0
 51
180.0000000001
  0
CIRCLE
  5
7C2
100
AcDbEntity
  8
IMPORT_IGES
100
AcDbCircle
 62
7
  6
CONTINUOUS
 10
-46.2499999998
 20
23.7564271716
 40
2.1
  0
CIRCLE
  5
7C3
100
AcDbEntity
  8
IMPORT_IGES
100
AcDbCircle
 62
7
  6
CONTINUOUS
 10
-45.7499999998
 20
56.1564271716
 40
2.0999999955
  0
CIRCLE
  5
7C4
100
AcDbEntity
  8
IMPORT_IGES
100
AcDbCircle
 62
7
  6
CONTINUOUS
 10
-33.2404866627
 20
16.7685156191
 40
1.64
  0
CIRCLE
  5
7C5
100
AcDbEntity
  8
IMPORT_IGES
100
AcDbCircle
 62
7
  6
CONTINUOUS
 10
-33.2404866627
 20
16.7685156191
 40
1.3541114652
  0
ARC
  5
7C6
100
AcDbEntity
  8
IMPORT_IGES
100
AcDbCircle
 62
250
  6
CONTINUOUS
 10
-46.2499999998
 20
23.7564271716
 40
1.3000078504
100
AcDbArc
 50
202.6195142388
 51
247.3802516136
  0
ARC
  5
7C7
100
AcDbEntity
  8
IMPORT_IGES
100
AcDbCircle
 62
250
  6
CONTINUOUS
 10
-46.2499999998
 20
23.7564271716
 40
1.3
100
AcDbArc
 50
22.619514239
 51
67.3802484242
  0
CIRCLE
  5
7C8
100
AcDbEntity
  8
IMPORT_IGES
100
AcDbCircle
 62
250
  6
CONTINUOUS
 10
-33.2404866627
 20
16.7685156191
 40
1.2667401979
  0
CIRCLE
  5
7C9
100
AcDbEntity
  8
IMPORT_IGES
100
AcDbCircle
 62
250
  6
CONTINUOUS
 10
-33.2404866627
 20
16.7685156191
 40
1.066853279
  0
ARC
  5
7CA
100
AcDbEntity
  8
IMPORT_IGES
100
AcDbCircle
 62
7
  6
CONTINUOUS
 10
-33.7788531271
 20
23.7401202169
 40
0.15625
100
AcDbArc
 50
269.9999999994
 51
90.0000000006
  0
ARC
  5
7CB
100
AcDbEntity
  8
IMPORT_IGES
100
AcDbCircle
 62
7
  6
CONTINUOUS
 10
-31.7163531271
 20
23.7401202169
 40
0.15625
100
AcDbArc
 50
89.9999999994
 51
270.0000000006
  0
ARC
  5
7CC
100
AcDbEntity
  8
IMPORT_IGES
100
AcDbCircle
 62
7
  6
CONTINUOUS
 10
-38.7814336534
 20
23.7401202169
 40
0.15625
100
AcDbArc
 50
269.9999999994
 51
90.0000000006
  0
ARC
  5
7CD
100
AcDbEntity
  8
IMPORT_IGES
100
AcDbCircle
 62
7
  6
CONTINUOUS
 10
-36.7189336534
 20
23.7401202169
 40
0.15625
100
AcDbArc
 50
89.9999999994
 51
270.0000000006
  0
ARC
  5
7CE
100
AcDbEntity
  8
IMPORT_IGES
100
AcDbCircle
 62
7
  6
CONTINUOUS
 10
-35.1404866627
 20
19.7185156191
 40
0.15
100
AcDbArc
 50
90.0
 51
180.0000000062
  0
ARC
  5
7CF
100
AcDbEntity
  8
IMPORT_IGES
100
AcDbCircle
 62
7
  6
CONTINUOUS
 10
-31.3404866627
 20
19.7185156191
 40
0.15
100
AcDbArc
 50
6.1362442275
 51
90.0
  0
ARC
  5
7D0
100
AcDbEntity
  8
IMPORT_IGES
100
AcDbCircle
 62
7
  6
CONTINUOUS
 10
-30.2554866627
 20
18.7335156191
 40
0.15
100
AcDbArc
 50
0.0000000003
 51
74.5339900463
  0
ARC
  5
7D1
100
AcDbEntity
  8
IMPORT_IGES
100
AcDbCircle
 62
7
  6
CONTINUOUS
 10
-30.2554866627
 20
14.8035156191
 40
0.15
100
AcDbArc
 50
338.9605302213
 51
360.0
  0
ARC
  5
7D2
100
AcDbEntity
  8
IMPORT_IGES
100
AcDbCircle
 62
7
  6
CONTINUOUS
 10
-31.3404866627
 20
13.8185156191
 40
0.15
100
AcDbArc
 50
270.0
 51
360.0
  0
ARC
  5
7D3
100
AcDbEntity
  8
IMPORT_IGES
100
AcDbCircle
 62
7
  6
CONTINUOUS
 10
-35.1404866627
 20
13.8185156191
 40
0.15
100
AcDbArc
 50
186.1362442267
 51
270.0
  0
ARC
  5
7D4
100
AcDbEntity
  8
IMPORT_IGES
100
AcDbCircle
 62
7
  6
CONTINUOUS
 10
-36.2254866627
 20
14.8035156191
 40
0.15
100
AcDbArc
 50
179.9999999965
 51
201.0394697788
  0
ARC
  5
7D5
100
AcDbEntity
  8
IMPORT_IGES
100
AcDbCircle
 62
7
  6
CONTINUOUS
 10
-36.2254866627
 20
18.7335156191
 40
0.15
100
AcDbArc
 50
105.4660099537
 51
180.0000000035
  0
ARC
  5
7D6
100
AcDbEntity
  8
IMPORT_IGES
100
AcDbCircle
 62
7
  6
CONTINUOUS
 10
18.2500000002
 20
-55.7435728284
 40
5.5698202485
100
AcDbArc
 50
180.0000000004
 51
360.0
  0
ARC
  5
7D7
100
AcDbEntity
  8
IMPORT_IGES
100
AcDbCircle
 62
7
  6
CONTINUOUS
 10
18.2500000002
 20
-55.7435728284
 40
4.3261825884
100
AcDbArc
 50
180.0000000002
 51
359.9999999998
  0
ARC
  5
7D8
100
AcDbEntity
  8
IMPORT_IGES
100
AcDbCircle
 62
7
  6
CONTINUOUS
 10
18.2500000002
 20
-55.7435728284
 40
4.2999999911
100
AcDbArc
 50
179.9999999999
 51
360.0
  0
CIRCLE
  5
7D9
100
AcDbEntity
  8
IMPORT_IGES
100
AcDbCircle
 62
7
  6
CONTINUOUS
 10
8.7500000002
 20
-46.2435728284
 40
2.1
  0
CIRCLE
  5
7DA
100
AcDbEntity
  8
IMPORT_IGES
100
AcDbCircle
 62
7
  6
CONTINUOUS
 10
18.2500000002
 20
-56.1435728284
 40
2.0999999955
  0
ARC
  5
7DB
100
AcDbEntity
  8
IMPORT_IGES
100
AcDbCircle
 62
250
  6
CONTINUOUS
 10
8.7500000002
 20
-46.2435728284
 40
1.3000078504
100
AcDbArc
 50
202.6195142387
 51
247.3802516137
  0
ARC
  5
7DC
100
AcDbEntity
  8
IMPORT_IGES
100
AcDbCircle
 62
250
  6
CONTINUOUS
 10
8.7500000002
 20
-46.2435728284
 40
1.3
100
AcDbArc
 50
22.6195142388
 51
67.3802484243
  0
ARC
  5
7DD
100
AcDbEntity
  8
IMPORT_IGES
100
AcDbCircle
 62
7
  6
CONTINUOUS
 10
18.2500000002
 20
55.7564271716
 40
5.5698202508
100
AcDbArc
 50
0.0000000003
 51
180.0000000033
  0
ARC
  5
7DE
100
AcDbEntity
  8
IMPORT_IGES
100
AcDbCircle
 62
7
  6
CONTINUOUS
 10
18.2500000002
 20
55.7564271716
 40
4.3261825884
100
AcDbArc
 50
0.0000000002
 51
179.9999999998
  0
ARC
  5
7DF
100
AcDbEntity
  8
IMPORT_IGES
100
AcDbCircle
 62
7
  6
CONTINUOUS
 10
18.2500000002
 20
55.7564271716
 40
4.2999999911
100
AcDbArc
 50
0.0
 51
180.0000000001
  0
CIRCLE
  5
7E0
100
AcDbEntity
  8
IMPORT_IGES
100
AcDbCircle
 62
7
  6
CONTINUOUS
 10
18.2500000002
 20
56.1564271716
 40
2.0999999955
  0
CIRCLE
  5
7E1
100
AcDbEntity
  8
IMPORT_IGES
100
AcDbCircle
 62
7
  6
CONTINUOUS
 10
45.749920643
 20
45.7565200693
 40
1.25
  0
CIRCLE
  5
7E2
100
AcDbEntity
  8
IMPORT_IGES
100
AcDbCircle
 62
7
  6
CONTINUOUS
 10
45.7500000002
 20
45.7564271716
 40
1.05
  0
CIRCLE
  5
7E3
100
AcDbEntity
  8
IMPORT_IGES
100
AcDbCircle
 62
7
  6
CONTINUOUS
 10
45.7500000002
 20
45.7564271716
 40
0.9999999971
  0
CIRCLE
  5
7E4
100
AcDbEntity
  8
IMPORT_IGES
100
AcDbCircle
 62
250
  6
CONTINUOUS
 10
45.7500000002
 20
45.7564271716
 40
0.9700825842
  0
ARC
  5
7E5
100
AcDbEntity
  8
IMPORT_IGES
100
AcDbCircle
 62
7
  6
CONTINUOUS
 10
-83.4462899782
 20
50.2737299085
 40
1.0
100
AcDbArc
 50
0.0000078102
 51
89.0000061702
  0
ARC
  5
7E6
100
AcDbEntity
  8
IMPORT_IGES
100
AcDbCircle
 62
7
  6
CONTINUOUS
 10
-83.4462899782
 20
-50.2608755653
 40
1.0
100
AcDbArc
 50
270.9999629249
 51
359.9999804732
  0
ARC
  5
7E7
100
AcDbEntity
  8
IMPORT_IGES
100
AcDbCircle
 62
7
  6
CONTINUOUS
 10
-83.4462899782
 20
-60.2608755653
 40
1.0
100
AcDbArc
 50
271.0001827532
 51
359.9995808804
  0
ARC
  5
7E8
100
AcDbEntity
  8
IMPORT_IGES
100
AcDbCircle
 62
7
  6
CONTINUOUS
 10
-83.4462899782
 20
60.2737299085
 40
1.0
100
AcDbArc
 50
0.0004191196
 51
88.9998161924
  0
ARC
  5
7E9
100
AcDbEntity
  8
IMPORT_IGES
100
AcDbCircle
 62
7
  6
CONTINUOUS
 10
-94.5462899782
 20
25.0564271716
 40
0.8
100
AcDbArc
 50
90.0000000008
 51
149.9999999997
  0
ARC
  5
7EA
100
AcDbEntity
  8
IMPORT_IGES
100
AcDbCircle
 62
7
  6
CONTINUOUS
 10
-94.5462899782
 20
-47.5435728284
 40
0.8
100
AcDbArc
 50
226.6643316362
 51
270.0000000001
  0
ARC
  5
7EB
100
AcDbEntity
  8
IMPORT_IGES
100
AcDbCircle
 62
7
  6
CONTINUOUS
 10
-94.5462899782
 20
22.4564271716
 40
0.8
100
AcDbArc
 50
210.0000000001
 51
270.0
  0
ARC
  5
7EC
100
AcDbEntity
  8
IMPORT_IGES
100
AcDbCircle
 62
7
  6
CONTINUOUS
 10
-93.6462899782
 20
45.5862226444
 40
0.8
100
AcDbArc
 50
180.0000000006
 51
268.9996063946
  0
ARC
  5
7ED
100
AcDbEntity
  8
IMPORT_IGES
100
AcDbCircle
 62
7
  6
CONTINUOUS
 10
-93.6462899782
 20
45.9266316988
 40
0.8
100
AcDbArc
 50
91.0003950005
 51
179.9999999994
  0
ARC
  5
7EE
100
AcDbEntity
  8
IMPORT_IGES
100
AcDbCircle
 62
7
  6
CONTINUOUS
 10
-98.9412899782
 20
15.7016533741
 40
0.2
100
AcDbArc
 50
179.9999598407
 51
267.9982903057
  0
ARC
  5
7EF
100
AcDbEntity
  8
IMPORT_IGES
100
AcDbCircle
 62
7
  6
CONTINUOUS
 10
-98.9412899782
 20
17.835377864
 40
0.2
100
AcDbArc
 50
92.0017096942
 51
180.0000401592
  0
ARC
  5
7F0
100
AcDbEntity
  8
IMPORT_IGES
100
AcDbCircle
 62
7
  6
CONTINUOUS
 10
-100.4662899782
 20
-46.5951406973
 40
0.08
100
AcDbArc
 50
180.0426606607
 51
269.9984319778
  0
ARC
  5
7F1
100
AcDbEntity
  8
IMPORT_IGES
100
AcDbCircle
 62
7
  6
CONTINUOUS
 10
-100.4662899782
 20
-43.8551406973
 40
0.08
100
AcDbArc
 50
89.9991778974
 51
180.0000000004
  0
ELLIPSE
  5
7F2
100
AcDbEntity
  8
IMPORT_IGES
100
AcDbEllipse
 62
7
  6
CONTINUOUS
 10
11.6800274124
 20
52.3263997594
 30
0.0
 11
0.7073221892
 21
-0.7073221892
 31
0.0
 40
0.9996954599
 41
-0.7852458686
 42
0.7852458701
  0
ELLIPSE
  5
7F3
100
AcDbEntity
  8
IMPORT_IGES
100
AcDbEllipse
 62
7
  6
CONTINUOUS
 10
24.8199725879
 20
52.3263997594
 30
0.0
 11
0.7073221892
 21
0.7073221892
 31
0.0
 40
0.9996954599
 41
2.3563467834
 42
3.9268385237
  0
ELLIPSE
  5
7F4
100
AcDbEntity
  8
IMPORT_IGES
100
AcDbEllipse
 62
7
  6
CONTINUOUS
 10
24.819972588
 20
-52.3135454161
 30
0.0
 11
-0.7073221892
 21
0.7073221892
 31
0.0
 40
0.9996954599
 41
-0.7852458686
 42
0.7852458701
  0
ELLIPSE
  5
7F5
100
AcDbEntity
  8
IMPORT_IGES
100
AcDbEllipse
 62
7
  6
CONTINUOUS
 10
11.6800274124
 20
-52.3135454161
 30
0.0
 11
-0.7073221892
 21
-0.7073221892
 31
0.0
 40
0.9996954599
 41
2.3563467834
 42
3.9268385237
  0
ELLIPSE
  5
7F6
100
AcDbEntity
  8
IMPORT_IGES
100
AcDbEllipse
 62
7
  6
CONTINUOUS
 10
-39.180027412
 20
-52.3135454161
 30
0.0
 11
-0.7073221892
 21
0.7073221892
 31
0.0
 40
0.9996954599
 41
-0.7852458686
 42
0.7852458701
  0
ELLIPSE
  5
7F7
100
AcDbEntity
  8
IMPORT_IGES
100
AcDbEllipse
 62
7
  6
CONTINUOUS
 10
-39.1800274121
 20
52.3263997594
 30
0.0
 11
-0.7073221892
 21
-0.7073221892
 31
0.0
 40
0.9996954599
 41
-0.7852458686
 42
0.7852458701
  0
ENDSEC
  0
SECTION
  2
OBJECTS
  0
DICTIONARY
  5
C
100
AcDbDictionary
280
0
281
1
  3
ACAD_GROUP
350
D
  3
ACAD_MLINESTYLE
350
17
  3
ACAD_LAYOUT
350
1A
  3
ACAD_PLOTSETTINGS
350
19
  3
ACAD_PLOTSTYLENAME
350
E
  0
DICTIONARY
  5
D
102
{ACAD_REACTORS
330
C
102
}
100
AcDbDictionary
280
0
281
1
  0
ACDBDICTIONARYWDFLT
  5
E
102
{ACAD_REACTORS
330
C
102
}
100
AcDbDictionary
281
1
  3
Normal
350
F
100
AcDbDictionaryWithDefault
340
F
  0
DICTIONARY
  5
17
102
{ACAD_REACTORS
330
C
102
}
100
AcDbDictionary
280
0
281
1
  3
Standard
350
18
  0
DICTIONARY
  5
19
102
{ACAD_REACTORS
330
C
102
}
100
AcDbDictionary
281
1
  0
DICTIONARY
  5
1A
102
{ACAD_REACTORS
330
C
102
}
100
AcDbDictionary
281
1
  3
Model
350
7F8
  3
Layout1
350
7F9
  0
ACDBPLACEHOLDER
  5
F
102
{ACAD_REACTORS
330
E
102
}
  0
MLINESTYLE
  5
18
102
{ACAD_REACTORS
330
17
102
}
100
AcDbMlineStyle
  2
STANDARD
 70
0
  3

 62
256
 51
90.0
 52
90.0
 71
2
 49
0.5
 62
256
  6
BYLAYER
 49
-0.5
 62
256
  6
BYLAYER
  0
LAYOUT
  5
7F8
102
{ACAD_REACTORS
330
1A
102
}
100
AcDbPlotSettings
  1

  2
none_device
  4
ISO_A4_(297.00_x_210.00_MM)
  6

 40
0.0
 41
0.0
 42
0.0
 43
0.0
 44
297.0
 45
210.0
 46
0.0
 47
0.0
 48
0.0
 49
0.0
140
0.0
141
0.0
142
1.0
143
1.0
 70
1024
 72
1
 73
0
 74
0
  7

 75
0
147
1.0
148
0.0
149
0.0
100
AcDbLayout
  1
Model
 70
0
 71
0
 10
0.0
 20
0.0
 11
297.0
 21
210.0
 12
0.0
 22
0.0
 32
0.0
 14
0.0
 24
0.0
 34
0.0
 15
0.0
 25
0.0
 35
0.0
146
0.0
 13
0.0
 23
0.0
 33
0.0
 16
1.0
 26
0.0
 36
0.0
 17
0.0
 27
1.0
 37
0.0
 76
0
330
284
345
0
346
0
  0
LAYOUT
  5
7F9
102
{ACAD_REACTORS
330
1A
102
}
100
AcDbPlotSettings
  1

  2
none_device
  4
ISO_A4_(297.00_x_210.00_MM)
  6

 40
0.0
 41
0.0
 42
0.0
 43
0.0
 44
297.0
 45
210.0
 46
0.0
 47
0.0
 48
0.0
 49
0.0
140
0.0
141
0.0
142
1.0
143
1.0
 70
0
 72
1
 73
0
 74
0
  7

 75
0
147
1.0
148
0.0
149
0.0
100
AcDbLayout
  1
Layout1
 70
0
 71
1
 10
0.0
 20
0.0
 11
297.0
 21
210.0
 12
0.0
 22
0.0
 32
0.0
 14
0.0
 24
0.0
 34
0.0
 15
0.0
 25
0.0
 35
0.0
146
0.0
 13
0.0
 23
0.0
 33
0.0
 16
1.0
 26
0.0
 36
0.0
 17
0.0
 27
1.0
 37
0.0
 76
0
330
285
345
0
346
0
  0
ENDSEC
  0
EOF
