  0
SECTION
  2
HEADER
  9
$ACADVER
  1
AC1024
  9
$DWGCODEPAGE
  3
ANSI_1252
  9
$EXTMAX
 10
297.0
 20
210.0
 30
0.0
  9
$EXTMIN
 10
0.0
 20
0.0
 30
0.0
  9
$LIMMIN
 10
0.0
 20
0.0
  9
$LIMMAX
 10
297.0
 20
210.0
  9
$VIEWCTR
 10
148.5
 20
105.0
  9
$VIEWSIZE
 40
210.0
  9
$CLAYER
  8
0
  9
$LTSCALE
 40
16.335
  9
$CELTYPE
  6
BYLAYER
  9
$DIMSCALE
 40
1.0
  9
$DIMASZ
 40
3.0
  9
$DIMEXO
 40
0.5
  9
$DIMDLI
 40
11.286
  9
$DIMEXE
 40
1.5
  9
$DIMCEN
 40
2.673
  9
$DIMLFAC
 40
1.0
  9
$DIMBLK
  1
_FILLED
  9
$DIMALT
 70
0
  9
$DIMALTF
 40
0.0393700787
  9
$DIMTXT
 40
3.0
  9
$DIMTOL
 70
1
  9
$DIMLIM
 70
0
  9
$DIMTFAC
 40
1.0
  9
$DIMTP
 40
0.01
  9
$DIMTM
 40
0.01
  9
$DIMGAP
 40
0.625
  9
$DIMDSEP
 70
44
  9
$AUNITS
 70
0
  9
$PDMODE
 70
3
  9
$PDSIZE
 40
3.0
  9
$HANDSEED
  5
315
  9
$TILEMODE
 70
1
  9
$MEASUREMENT
 70
1
  9
$INSUNITS
 70
4
  0
ENDSEC
  0
SECTION
  2
CLASSES
  0
CLASS
  1
ACDBDICTIONARYWDFLT
  2
AcDbDictionaryWithDefault
  3
AutoCAD 2000
 90
0
 91
1
280
0
281
0
  0
CLASS
  1
ACDBPLACEHOLDER
  2
AcDbPlaceHolder
  3
AutoCAD 2000
 90
0
 91
1
280
0
281
0
  0
CLASS
  1
LAYOUT
  2
AcDbLayout
  3
AutoCAD 2000
 90
0
 91
0
280
0
281
0
  0
ENDSEC
  0
SECTION
  2
TABLES
  0
TABLE
  2
VPORT
  5
8
100
AcDbSymbolTable
 70
2
  0
VPORT
  5
1F4
100
AcDbSymbolTableRecord
100
AcDbViewportTableRecord
  2
*ACTIVE
 70
0
 10
0.0
 20
0.0
 11
1.0
 21
1.0
 12
148.5
 22
105.0
 13
0.0
 23
0.0
 14
1.0
 24
1.0
 15
0.0
 25
0.0
 16
0.0
 26
0.0
 36
1.0
 17
0.0
 27
0.0
 37
0.0
 40
210.0
 41
1.4142857143
 42
50.0
 43
0.0
 44
0.0
 50
0.0
 51
0.0
 71
0
 72
100
 73
1
 74
1
 75
0
 76
0
 77
0
 78
0
  0
ENDTAB
  0
TABLE
  2
LTYPE
  5
5
100
AcDbSymbolTable
 70
6
  0
LTYPE
  5
14
100
AcDbSymbolTableRecord
100
AcDbLinetypeTableRecord
  2
BYBLOCK
 70
0
  3

 72
65
 73
0
 40
0.0
  0
LTYPE
  5
15
100
AcDbSymbolTableRecord
100
AcDbLinetypeTableRecord
  2
BYLAYER
 70
0
  3

 72
65
 73
0
 40
0.0
  0
LTYPE
  5
16
100
AcDbSymbolTableRecord
100
AcDbLinetypeTableRecord
  2
CONTINUOUS
 70
64
  3
Solid line
 72
65
 73
0
 40
0.0
  0
LTYPE
  5
1F5
100
AcDbSymbolTableRecord
100
AcDbLinetypeTableRecord
  2
CENTER
 70
64
  3
____ _ ____ _ ____ _ ____ _ ____ _ ____ _ ____
 72
65
 73
4
 40
0.6
 49
0.375
 74
0
 49
-0.075
 74
0
 49
0.075
 74
0
 49
-0.075
 74
0
  0
LTYPE
  5
1F6
100
AcDbSymbolTableRecord
100
AcDbLinetypeTableRecord
  2
HIDDEN
 70
64
  3
- - - - - - - - - - - - - - - - - - - -
 72
65
 73
2
 40
0.2
 49
0.1
 74
0
 49
-0.1
 74
0
  0
LTYPE
  5
1F7
100
AcDbSymbolTableRecord
100
AcDbLinetypeTableRecord
  2
PHANTOM
 70
64
  3
_____ _ _ _____ _ _ _____ _ _ _____
 72
65
 73
6
 40
0.8
 49
0.45
 74
0
 49
-0.05
 74
0
 49
0.1
 74
0
 49
-0.05
 74
0
 49
0.1
 74
0
 49
-0.05
 74
0
  0
LTYPE
  5
1F8
100
AcDbSymbolTableRecord
100
AcDbLinetypeTableRecord
  2
DOT
 70
64
  3
. . . . . . . . . . . . . . . . . . . .
 72
65
 73
2
 40
0.2
 49
0.1
 74
0
 49
-0.1
 74
0
  0
LTYPE
  5
1F9
100
AcDbSymbolTableRecord
100
AcDbLinetypeTableRecord
  2
DASHED
 70
64
  3
- - - - - - - - - - - - - - - - - - - -
 72
65
 73
2
 40
0.2
 49
0.1
 74
0
 49
-0.1
 74
0
  0
ENDTAB
  0
TABLE
  2
LAYER
  5
2
100
AcDbSymbolTable
 70
36
  0
LAYER
  5
10
100
AcDbSymbolTableRecord
100
AcDbLayerTableRecord
  2
0
 70
0
 62
7
  6
CONTINUOUS
370
-3
390
F
  0
LAYER
  5
1FA
100
AcDbSymbolTableRecord
100
AcDbLayerTableRecord
  2
DEFAULT_1
 70
0
 62
7
  6
CENTER
370
-3
390
F
  0
LAYER
  5
1FB
100
AcDbSymbolTableRecord
100
AcDbLayerTableRecord
  2
DEFAULT_2
 70
0
 62
7
  6
HIDDEN
370
-3
390
F
  0
LAYER
  5
1FC
100
AcDbSymbolTableRecord
100
AcDbLayerTableRecord
  2
DEFAULT_3
 70
0
 62
7
  6
PHANTOM
370
-3
390
F
  0
LAYER
  5
1FD
100
AcDbSymbolTableRecord
100
AcDbLayerTableRecord
  2
ASSI
 70
0
 62
7
  6
CONTINUOUS
370
-3
390
F
  0
LAYER
  5
1FE
100
AcDbSymbolTableRecord
100
AcDbLayerTableRecord
  2
COORDINATE
 70
0
 62
7
  6
CONTINUOUS
370
-3
390
F
  0
LAYER
  5
1FF
100
AcDbSymbolTableRecord
100
AcDbLayerTableRecord
  2
COPY_PUBLISH
 70
0
 62
7
  6
CONTINUOUS
370
-3
390
F
  0
LAYER
  5
200
100
AcDbSymbolTableRecord
100
AcDbLayerTableRecord
  2
COSMETICI
 70
0
 62
7
  6
CONTINUOUS
370
-3
390
F
  0
LAYER
  5
201
100
AcDbSymbolTableRecord
100
AcDbLayerTableRecord
  2
CURVE
 70
0
 62
7
  6
CONTINUOUS
370
-3
390
F
  0
LAYER
  5
202
100
AcDbSymbolTableRecord
100
AcDbLayerTableRecord
  2
DRAFT
 70
0
 62
7
  6
CONTINUOUS
370
-3
390
F
  0
LAYER
  5
203
100
AcDbSymbolTableRecord
100
AcDbLayerTableRecord
  2
IMPORT_IGES
 70
0
 62
7
  6
CONTINUOUS
370
-3
390
F
  0
LAYER
  5
204
100
AcDbSymbolTableRecord
100
AcDbLayerTableRecord
  2
NOTE
 70
0
 62
7
  6
CONTINUOUS
370
-3
390
F
  0
LAYER
  5
205
100
AcDbSymbolTableRecord
100
AcDbLayerTableRecord
  2
PIANI
 70
0
 62
7
  6
CONTINUOUS
370
-3
390
F
  0
LAYER
  5
206
100
AcDbSymbolTableRecord
100
AcDbLayerTableRecord
  2
PUNTI
 70
0
 62
7
  6
CONTINUOUS
370
-3
390
F
  0
LAYER
  5
207
100
AcDbSymbolTableRecord
100
AcDbLayerTableRecord
  2
RACCORDO
 70
0
 62
7
  6
CONTINUOUS
370
-3
390
F
  0
LAYER
  5
208
100
AcDbSymbolTableRecord
100
AcDbLayerTableRecord
  2
SIMBOLI
 70
0
 62
7
  6
CONTINUOUS
370
-3
390
F
  0
LAYER
  5
209
100
AcDbSymbolTableRecord
100
AcDbLayerTableRecord
  2
SMUSSO
 70
0
 62
7
  6
CONTINUOUS
370
-3
390
F
  0
LAYER
  5
20A
100
AcDbSymbolTableRecord
100
AcDbLayerTableRecord
  2
SUPERFICI
 70
0
 62
7
  6
CONTINUOUS
370
-3
390
F
  0
LAYER
  5
20B
100
AcDbSymbolTableRecord
100
AcDbLayerTableRecord
  2
TRASH
 70
0
 62
7
  6
CONTINUOUS
370
-3
390
F
  0
ENDTAB
  0
TABLE
  2
STYLE
  5
3
100
AcDbSymbolTable
 70
1
  0
STYLE
  5
11
100
AcDbSymbolTableRecord
100
AcDbTextStyleTableRecord
  2
STANDARD
 70
0
 40
0.0
 41
0.8
 50
0.0
 71
0
 42
0.2
  3
txt
  4

  0
STYLE
  5
20C
100
AcDbSymbolTableRecord
100
AcDbTextStyleTableRecord
  2
TEXTSTYLE_1
 70
0
 40
0.0
 41
0.8
 50
0.0
 71
0
 42
0.2
  3
gdt
  4

  0
ENDTAB
  0
TABLE
  2
VIEW
  5
6
100
AcDbSymbolTable
 70
0
  0
ENDTAB
  0
TABLE
  2
UCS
  5
7
100
AcDbSymbolTable
 70
0
  0
ENDTAB
  0
TABLE
  2
APPID
  5
9
100
AcDbSymbolTable
 70
1
  0
APPID
  5
20D
100
AcDbSymbolTableRecord
100
AcDbRegAppTableRecord
  2
ACAD
 70
0
  0
ENDTAB
  0
TABLE
  2
BLOCK_RECORD
  5
1
100
AcDbSymbolTable
 70
0
  0
BLOCK_RECORD
  5
20E
100
AcDbSymbolTableRecord
100
AcDbBlockTableRecord
  2
*Model_Space
  0
BLOCK_RECORD
  5
20F
100
AcDbSymbolTableRecord
100
AcDbBlockTableRecord
  2
*Paper_Space
  0
BLOCK_RECORD
  5
210
100
AcDbSymbolTableRecord
100
AcDbBlockTableRecord
  2
_FILLED
  0
BLOCK_RECORD
  5
211
100
AcDbSymbolTableRecord
100
AcDbBlockTableRecord
  2
*D0
  0
BLOCK_RECORD
  5
212
100
AcDbSymbolTableRecord
100
AcDbBlockTableRecord
  2
*D1
  0
BLOCK_RECORD
  5
213
100
AcDbSymbolTableRecord
100
AcDbBlockTableRecord
  2
*D2
  0
ENDTAB
  0
TABLE
  2
DIMSTYLE
  5
A
100
AcDbSymbolTable
 70
1
100
AcDbDimStyleTable
 71
0
  0
DIMSTYLE
105
214
100
AcDbSymbolTableRecord
100
AcDbDimStyleTableRecord
  2
STANDARD
 70
0
  3

  4

 40
1.0
 41
3.0
 42
0.5
 43
0.38
 44
1.5
 45
0.0
 46
0.0
 47
0.01
 48
0.01
140
3.0
141
0.09
142
0.0
143
25.4
144
1.0
145
0.0
146
1.0
147
0.625
 71
1
 72
0
 73
0
 74
0
 75
0
 76
0
 77
1
 78
8
 79
2
170
0
171
1
172
0
173
0
174
0
175
0
176
0
177
0
178
0
270
2
179
2
271
2
272
2
273
2
274
2
275
0
280
0
281
0
282
0
283
1
284
8
285
0
286
0
287
3
288
0
340
11
278
44
341
210
342
210
343
210
344
210
  0
DIMSTYLE
105
215
100
AcDbSymbolTableRecord
100
AcDbDimStyleTableRecord
  2
DIMSTYLE_1
 70
0
  3

  4

 40
1.0
 41
3.0
 42
0.5
 43
0.38
 44
1.5
 45
0.0
 46
0.0
 47
0.0
 48
0.0
140
3.0
141
0.09
142
0.0
143
25.4
144
1.0
145
0.0
146
1.0
147
0.75
 71
0
 72
0
 73
0
 74
0
 75
0
 76
0
 77
1
 78
8
 79
2
170
0
171
1
172
0
173
0
174
0
175
0
176
0
177
0
178
0
270
2
179
2
271
2
272
2
273
2
274
2
275
0
280
0
281
0
282
0
283
1
284
8
285
0
286
0
287
3
288
0
340
11
278
44
341
210
342
210
343
210
344
210
  0
ENDTAB
  0
ENDSEC
  0
SECTION
  2
BLOCKS
  0
BLOCK
  5
20
100
AcDbEntity
  8
0
100
AcDbBlockBegin
  2
*Model_Space
 70
0
 10
0.0
 20
0.0
 30
0.0
  3
*Model_Space
  1

  0
ENDBLK
  5
21
100
AcDbEntity
  8
0
100
AcDbBlockEnd
  0
BLOCK
  5
1C
100
AcDbEntity
  8
0
100
AcDbBlockBegin
  2
*Paper_Space
 70
0
 10
0.0
 20
0.0
 30
0.0
  3
*Paper_Space
  1

  0
ENDBLK
  5
1D
100
AcDbEntity
  8
0
100
AcDbBlockEnd
  0
BLOCK
  5
216
100
AcDbEntity
  8
0
100
AcDbBlockBegin
  2
_FILLED
 70
64
 10
0.0
 20
0.0
  3
_FILLED
  1

  0
SOLID
  5
217
100
AcDbEntity
  8
0
  6
BYBLOCK
 62
0
100
AcDbTrace
 10
0.0
 20
0.0
 11
-1.0
 21
0.3166666667
 12
-1.0
 22
-0.3166666667
 13
-1.0
 23
-0.3166666667
  0
ENDBLK
  5
218
100
AcDbEntity
  8
0
  6
BYBLOCK
 62
0
100
AcDbBlockEnd
  0
BLOCK
  5
219
100
AcDbEntity
  8
0
100
AcDbBlockBegin
 62
7
  6
CONTINUOUS
  2
*D0
 70
65
 10
0.0
 20
0.0
  3
*D0
  1

  0
LINE
  5
21A
100
AcDbEntity
  8
0
100
AcDbLine
 62
7
  6
CONTINUOUS
 10
-17.64997
 20
24.249965
 11
-17.64997
 21
42.0988503529
  0
LINE
  5
21B
100
AcDbEntity
  8
0
100
AcDbLine
 62
7
  6
CONTINUOUS
 10
17.34997
 20
24.249965
 11
17.34997
 21
42.0988503529
  0
LINE
  5
21C
100
AcDbEntity
  8
0
100
AcDbLine
 62
7
  6
CONTINUOUS
 10
-17.64997
 20
40.5988503529
 11
-0.15
 21
40.5988503529
  0
LINE
  5
21D
100
AcDbEntity
  8
0
100
AcDbLine
 62
7
  6
CONTINUOUS
 10
17.34997
 20
40.5988503529
 11
-0.15
 21
40.5988503529
  0
INSERT
  5
21E
100
AcDbEntity
  8
0
100
AcDbBlockReference
 62
7
  6
CONTINUOUS
  2
_FILLED
 10
-17.64997
 20
40.5988503529
 41
3.0
 42
3.0
 43
3.0
 50
180.0
  0
INSERT
  5
21F
100
AcDbEntity
  8
0
100
AcDbBlockReference
 62
7
  6
CONTINUOUS
  2
_FILLED
 10
17.34997
 20
40.5988503529
 41
3.0
 42
3.0
 43
3.0
  0
ENDBLK
  5
220
100
AcDbEntity
  8
0
  6
BYBLOCK
 62
0
100
AcDbBlockEnd
  0
BLOCK
  5
221
100
AcDbEntity
  8
0
100
AcDbBlockBegin
 62
7
  6
CONTINUOUS
  2
*D1
 70
65
 10
0.0
 20
0.0
  3
*D1
  1

  0
LINE
  5
222
100
AcDbEntity
  8
0
100
AcDbLine
 62
7
  6
CONTINUOUS
 10
16.84997
 20
28.749965
 11
29.4660737985
 21
28.749965
  0
LINE
  5
223
100
AcDbEntity
  8
0
100
AcDbLine
 62
7
  6
CONTINUOUS
 10
16.84997
 20
-28.749965
 11
29.4660737985
 21
-28.749965
  0
LINE
  5
224
100
AcDbEntity
  8
0
100
AcDbLine
 62
7
  6
CONTINUOUS
 10
27.9660737985
 20
28.749965
 11
27.9660737985
 21
0.0
  0
LINE
  5
225
100
AcDbEntity
  8
0
100
AcDbLine
 62
7
  6
CONTINUOUS
 10
27.9660737985
 20
-28.749965
 11
27.9660737985
 21
0.0
  0
INSERT
  5
226
100
AcDbEntity
  8
0
100
AcDbBlockReference
 62
7
  6
CONTINUOUS
  2
_FILLED
 10
27.9660737985
 20
28.749965
 41
3.0
 42
3.0
 43
3.0
 50
90.0
  0
INSERT
  5
227
100
AcDbEntity
  8
0
100
AcDbBlockReference
 62
7
  6
CONTINUOUS
  2
_FILLED
 10
27.9660737985
 20
-28.749965
 41
3.0
 42
3.0
 43
3.0
 50
270.0
  0
ENDBLK
  5
228
100
AcDbEntity
  8
0
  6
BYBLOCK
 62
0
100
AcDbBlockEnd
  0
BLOCK
  5
229
100
AcDbEntity
  8
0
100
AcDbBlockBegin
 62
7
  6
CONTINUOUS
  2
*D2
 70
65
 10
0.0
 20
0.0
  3
*D2
  1

  0
LINE
  5
22A
100
AcDbEntity
  8
0
100
AcDbLine
 62
7
  6
CONTINUOUS
 10
-36.5348876988
 20
28.249965
 11
-36.5348876988
 21
42.6426345056
  0
LINE
  5
22B
100
AcDbEntity
  8
0
100
AcDbLine
 62
7
  6
CONTINUOUS
 10
-59.2387496143
 20
24.249965
 11
-59.2387496143
 21
42.6426345056
  0
LINE
  5
22C
100
AcDbEntity
  8
0
100
AcDbLine
 62
7
  6
CONTINUOUS
 10
-36.5348876988
 20
41.1426345056
 11
-47.8868186566
 21
41.1426345056
  0
LINE
  5
22D
100
AcDbEntity
  8
0
100
AcDbLine
 62
7
  6
CONTINUOUS
 10
-59.2387496143
 20
41.1426345056
 11
-47.8868186566
 21
41.1426345056
  0
INSERT
  5
22E
100
AcDbEntity
  8
0
100
AcDbBlockReference
 62
7
  6
CONTINUOUS
  2
_FILLED
 10
-36.5348876988
 20
41.1426345056
 41
3.0
 42
3.0
 43
3.0
  0
INSERT
  5
22F
100
AcDbEntity
  8
0
100
AcDbBlockReference
 62
7
  6
CONTINUOUS
  2
_FILLED
 10
-59.2387496143
 20
41.1426345056
 41
3.0
 42
3.0
 43
3.0
 50
180.0
  0
ENDBLK
  5
230
100
AcDbEntity
  8
0
  6
BYBLOCK
 62
0
100
AcDbBlockEnd
  0
ENDSEC
  0
SECTION
  2
ENTITIES
  0
DIMENSION
  5
231
100
AcDbEntity
  8
0
100
AcDbDimension
 62
7
  6
CONTINUOUS
  2
*D0
 10
17.34997
 20
40.5988503529
 11
-2.2928571429
 21
40.5988503529
 70
160
 71
2
 72
2
 41
0.9
 42
34.99994
  3
DIMSTYLE_1
100
AcDbAlignedDimension
 13
-17.64997
 23
23.749965
 14
17.34997
 24
23.749965
100
AcDbRotatedDimension
  0
DIMENSION
  5
232
100
AcDbEntity
  8
0
100
AcDbDimension
 62
7
  6
CONTINUOUS
  2
*D1
 10
27.9660737985
 20
-28.749965
 11
27.9660737985
 21
-4.1785714286
 70
160
 71
2
 72
2
 41
0.9
 42
57.49993
  3
DIMSTYLE_1
100
AcDbAlignedDimension
 13
16.34997
 23
28.749965
 14
16.34997
 24
-28.749965
 50
270.0
100
AcDbRotatedDimension
  0
DIMENSION
  5
233
100
AcDbEntity
  8
0
100
AcDbDimension
 62
7
  6
CONTINUOUS
  2
*D2
 10
-59.2387496143
 20
41.1426345056
 11
-52.2796757994
 21
41.1426345056
 70
160
 71
2
 72
2
 41
0.9
 42
22.7038619154
  3
DIMSTYLE_1
100
AcDbAlignedDimension
 13
-36.5348876988
 23
27.749965
 14
-59.2387496143
 24
23.749965
 50
180.0
100
AcDbRotatedDimension
  0
LWPOLYLINE
  5
234
100
AcDbEntity
  8
0
100
AcDbPolyline
 62
7
  6
CONTINUOUS
 90
5
 70
0
 43
0.3500000006
 10
-1.4357143192
 20
43.063137085
 10
-1.078571434
 20
43.2774215698
 10
-1.078571434
 20
43.9202795563
 10
-1.4357143192
 20
44.348848526
 10
-2.2928570738
 20
44.348848526
  0
LINE
  5
235
100
AcDbEntity
  8
IMPORT_IGES
100
AcDbLine
 62
7
  6
CONTINUOUS
 10
16.34997
 20
-28.749965
 11
-16.64997
 21
-28.749965
  0
LWPOLYLINE
  5
236
100
AcDbEntity
  8
IMPORT_IGES
100
AcDbPolyline
 62
250
  6
CONTINUOUS
 90
19
 70
0
 10
-17.64997
 20
-24.0262166073
 10
-17.6470970209
 20
-24.0315712449
 10
-17.6385892658
 20
-24.036851227
 10
-17.6246352779
 20
-24.0420278433
 10
-17.6055420678
 20
-24.0470531647
 10
-17.5814999442
 20
-24.0519242388
 10
-17.5523648036
 20
-24.0566778627
 10
-17.5181024775
 20
-24.0613025995
 10
-17.4789346758
 20
-24.0657538674
 10
-17.4349248951
 20
-24.0700131075
 10
-17.3861530962
 20
-24.0740586897
 10
-17.332884827
 20
-24.0778558707
 10
-17.2755179414
 20
-24.0813683203
 10
-17.2144255596
 20
-24.0845690252
 10
-17.1498579471
 20
-24.0874409416
 10
-17.0820947961
 20
-24.0899662696
 10
-17.0114769006
 20
-24.0921262611
 10
-16.9384145559
 20
-24.0939025129
 10
-16.8633200198
 20
-24.0952795091
  0
LINE
  5
237
100
AcDbEntity
  8
IMPORT_IGES
100
AcDbLine
 62
250
  6
CONTINUOUS
 10
-16.8633200198
 20
-24.0952795091
 11
16.5633163736
 21
-24.0952797906
  0
LINE
  5
238
100
AcDbEntity
  8
IMPORT_IGES
100
AcDbLine
 62
7
  6
CONTINUOUS
 10
17.34997
 20
-20.5060038123
 11
17.44997
 21
-20.5060038123
  0
LINE
  5
239
100
AcDbEntity
  8
IMPORT_IGES
100
AcDbLine
 62
250
  6
CONTINUOUS
 10
17.64997
 20
-20.3060038123
 11
17.34997
 21
-20.3060038123
  0
LINE
  5
23A
100
AcDbEntity
  8
IMPORT_IGES
100
AcDbLine
 62
250
  6
CONTINUOUS
 10
17.34997
 20
-20.2060038123
 11
17.64997
 21
-20.2060038123
  0
LINE
  5
23B
100
AcDbEntity
  8
IMPORT_IGES
100
AcDbLine
 62
7
  6
CONTINUOUS
 10
17.44997
 20
-20.0060038123
 11
17.34997
 21
-20.0060038123
  0
LWPOLYLINE
  5
23C
100
AcDbEntity
  8
IMPORT_IGES
100
AcDbPolyline
 62
250
  6
CONTINUOUS
 90
14
 70
0
 10
-16.792614215
 20
-27.4902279913
 10
-16.7834378082
 20
-27.6692163036
 10
-16.7738840362
 20
-27.8362607261
 10
-16.7641424767
 20
-27.9904471599
 10
-16.7538161499
 20
-28.1315531949
 10
-16.7431629721
 20
-28.2587519077
 10
-16.732421546
 20
-28.371723681
 10
-16.7211543541
 20
-28.4707402496
 10
-16.7096417597
 20
-28.5552424837
 10
-16.6981441426
 20
-28.6247681507
 10
-16.6861962101
 20
-28.6793238016
 10
-16.6738501474
 20
-28.7185631701
 10
-16.6616698178
 20
-28.7421275653
 10
-16.6499710619
 20
-28.7499649999
  0
LWPOLYLINE
  5
23D
100
AcDbEntity
  8
IMPORT_IGES
100
AcDbPolyline
 62
250
  6
CONTINUOUS
 90
3
 70
0
 10
-16.81737104
 20
-26.8863998534
 10
-16.8094875823
 20
-27.0985531689
 10
-16.792614215
 20
-27.4902279913
  0
LINE
  5
23E
100
AcDbEntity
  8
IMPORT_IGES
100
AcDbLine
 62
250
  6
CONTINUOUS
 10
-16.8203040571
 20
26.80617049
 11
-16.8090775534
 21
27.1213993581
  0
LINE
  5
23F
100
AcDbEntity
  8
IMPORT_IGES
100
AcDbLine
 62
250
  6
CONTINUOUS
 10
-16.8090775534
 20
27.1213993581
 11
-16.8010600376
 21
27.3167268414
  0
LINE
  5
240
100
AcDbEntity
  8
IMPORT_IGES
100
AcDbLine
 62
250
  6
CONTINUOUS
 10
-16.8010600376
 20
27.3167268414
 11
-16.7925654003
 21
27.5014056862
  0
LINE
  5
241
100
AcDbEntity
  8
IMPORT_IGES
100
AcDbLine
 62
250
  6
CONTINUOUS
 10
-16.7925654003
 20
27.5014056862
 11
-16.7835805821
 21
27.6756787563
  0
LINE
  5
242
100
AcDbEntity
  8
IMPORT_IGES
100
AcDbLine
 62
250
  6
CONTINUOUS
 10
-16.7835805821
 20
27.6756787563
 11
-16.7740704588
 21
27.8399414341
  0
LWPOLYLINE
  5
243
100
AcDbEntity
  8
IMPORT_IGES
100
AcDbPolyline
 62
250
  6
CONTINUOUS
 90
22
 70
0
 10
-16.7740704588
 20
27.8399414341
 10
-16.7641116803
 20
27.9925575867
 10
-16.7589769722
 20
28.0642534781
 10
-16.7537544928
 20
28.1326461626
 10
-16.7484519531
 20
28.19764824
 10
-16.7430696129
 20
28.2592667594
 10
-16.7376118434
 20
28.3174546025
 10
-16.7320826585
 20
28.3721693688
 10
-16.7264859734
 20
28.4233696728
 10
-16.7208260495
 20
28.4710111746
 10
-16.7151068111
 20
28.5150528098
 10
-16.7093323159
 20
28.5554524284
 10
-16.7035070566
 20
28.5921654475
 10
-16.6976308738
 20
28.6251731529
 10
-16.6917119068
 20
28.6544073446
 10
-16.6857673783
 20
28.679775237
 10
-16.6798005058
 20
28.7012648841
 10
-16.6738165037
 20
28.7188567153
 10
-16.6678360052
 20
28.7325040711
 10
-16.6618687804
 20
28.7422179352
 10
-16.6559134871
 20
28.7480316293
 10
-16.6499741437
 20
28.749965
  0
LINE
  5
244
100
AcDbEntity
  8
IMPORT_IGES
100
AcDbLine
 62
250
  6
CONTINUOUS
 10
-16.8313723293
 20
-26.4342694963
 11
-16.81737104
 21
-26.8863998534
  0
LINE
  5
245
100
AcDbEntity
  8
IMPORT_IGES
100
AcDbLine
 62
250
  6
CONTINUOUS
 10
-16.8429372932
 20
-25.9515605141
 11
-16.8313723293
 21
-26.4342694963
  0
LINE
  5
246
100
AcDbEntity
  8
IMPORT_IGES
100
AcDbLine
 62
250
  6
CONTINUOUS
 10
-16.8520220226
 20
-25.4422117476
 11
-16.8429372932
 21
-25.9515605141
  0
LINE
  5
247
100
AcDbEntity
  8
IMPORT_IGES
100
AcDbLine
 62
250
  6
CONTINUOUS
 10
-16.8583883735
 20
-24.9129825282
 11
-16.8520220226
 21
-25.4422117476
  0
LINE
  5
248
100
AcDbEntity
  8
IMPORT_IGES
100
AcDbLine
 62
250
  6
CONTINUOUS
 10
-16.8623956957
 20
-24.3690354624
 11
-16.8583883735
 21
-24.9129825282
  0
LINE
  5
249
100
AcDbEntity
  8
IMPORT_IGES
100
AcDbLine
 62
7
  6
CONTINUOUS
 10
-17.64997
 20
-27.749965
 11
-17.64997
 21
27.749965
  0
LINE
  5
24A
100
AcDbEntity
  8
IMPORT_IGES
100
AcDbLine
 62
250
  6
CONTINUOUS
 10
-16.8623956957
 20
-24.3690354624
 11
-16.8647297513
 21
2.5674424525
  0
LINE
  5
24B
100
AcDbEntity
  8
IMPORT_IGES
100
AcDbLine
 62
250
  6
CONTINUOUS
 10
-16.8647297513
 20
2.5674424525
 11
-16.8634725742
 21
24.285703106
  0
LINE
  5
24C
100
AcDbEntity
  8
IMPORT_IGES
100
AcDbLine
 62
250
  6
CONTINUOUS
 10
-16.8634725742
 20
24.285703106
 11
-16.8596545173
 21
24.8244366401
  0
LINE
  5
24D
100
AcDbEntity
  8
IMPORT_IGES
100
AcDbLine
 62
250
  6
CONTINUOUS
 10
-16.8596545173
 20
24.8244366401
 11
-16.8533277697
 21
25.3534670632
  0
LINE
  5
24E
100
AcDbEntity
  8
IMPORT_IGES
100
AcDbLine
 62
250
  6
CONTINUOUS
 10
-16.8533277697
 20
25.3534670632
 11
-16.844599266
 21
25.8640288392
  0
LINE
  5
24F
100
AcDbEntity
  8
IMPORT_IGES
100
AcDbLine
 62
250
  6
CONTINUOUS
 10
-16.844599266
 20
25.8640288392
 11
-16.8365309194
 21
26.2313659323
  0
LINE
  5
250
100
AcDbEntity
  8
IMPORT_IGES
100
AcDbLine
 62
250
  6
CONTINUOUS
 10
-16.8365309194
 20
26.2313659323
 11
-16.8271980256
 21
26.5826109421
  0
LINE
  5
251
100
AcDbEntity
  8
IMPORT_IGES
100
AcDbLine
 62
250
  6
CONTINUOUS
 10
-16.8271980256
 20
26.5826109421
 11
-16.8203040571
 21
26.80617049
  0
LWPOLYLINE
  5
252
100
AcDbEntity
  8
IMPORT_IGES
100
AcDbPolyline
 62
250
  6
CONTINUOUS
 90
10
 70
0
 10
0.1517347303
 20
-11.9534008734
 10
0.1188115755
 20
-11.9600197896
 10
0.0857244328
 20
-11.9658755678
 10
0.0524733177
 20
-11.9709681827
 10
0.0190406214
 20
-11.9753033645
 10
-0.014556015
 20
-11.9788753305
 10
-0.0482637007
 20
-11.9816667945
 10
-0.0820647932
 20
-11.9836719862
 10
-0.1159768991
 20
-11.9848966429
 10
-0.15
 20
-11.9853407471
  0
LINE
  5
253
100
AcDbEntity
  8
IMPORT_IGES
100
AcDbLine
 62
7
  6
CONTINUOUS
 10
1.3466629547
 20
-11.7499955
 11
1.4112494996
 21
-11.7499955
  0
LWPOLYLINE
  5
254
100
AcDbEntity
  8
IMPORT_IGES
100
AcDbPolyline
 62
250
  6
CONTINUOUS
 90
40
 70
0
 10
-0.15
 20
-11.9853407471
 10
-0.2611496965
 20
-11.9805144676
 10
-0.3700542934
 20
-11.9680442846
 10
-0.4767132296
 20
-11.9479313331
 10
-0.5815245679
 20
-11.9199514227
 10
-0.6840893207
 20
-11.8843308172
 10
-0.7832115407
 20
-11.841746866
 10
-0.8789605114
 20
-11.7922849764
 10
-0.9712666647
 20
-11.735862833
 10
-1.0587261284
 20
-11.6729072881
 10
-1.1412507444
 20
-11.6033800727
 10
-1.2189291572
 20
-11.5273233023
 10
-1.2906230783
 20
-11.4452852521
 10
-1.3564465636
 20
-11.3566755004
 10
-1.4162865777
 20
-11.2620882649
 10
-1.4686645173
 20
-11.1638493488
 10
-1.5133668577
 20
-11.0618860614
 10
-1.5506083909
 20
-10.9562744892
 10
-1.5795531266
 20
-10.8495637668
 10
-1.5999585642
 20
-10.7420998175
 10
-1.612068034
 20
-10.633538638
 10
-1.6157741717
 20
-10.5253941435
 10
-1.6108837597
 20
-10.4177808808
 10
-1.5975899945
 20
-10.3105842564
 10
-1.5763649303
 20
-10.2049740187
 10
-1.5472129439
 20
-10.1008157766
 10
-1.5101288596
 20
-9.9982420658
 10
-1.4655702816
 20
-9.8988226937
 10
-1.413500254
 20
-9.802423008
 10
-1.3539544816
 20
-9.7091743016
 10
-1.2874995739
 20
-9.6210451455
 10
-1.2137197257
 20
-9.5381063674
 10
-1.1330294689
 20
-9.460282551
 10
-1.0472412241
 20
-9.3893234025
 10
-0.9561226571
 20
-9.3255704683
 10
-0.8599055936
 20
-9.2686779525
 10
-0.7610992911
 20
-9.2193661596
 10
-0.6605404466
 20
-9.1778748923
 10
-0.5573929102
 20
-9.1439622114
 10
-0.4516570321
 20
-9.1176268782
  0
LWPOLYLINE
  5
255
100
AcDbEntity
  8
IMPORT_IGES
100
AcDbPolyline
 62
250
  6
CONTINUOUS
 90
10
 70
0
 10
-0.4516570321
 20
-9.1176268782
 10
-0.418636551
 20
-9.1109505949
 10
-0.3854479069
 20
-9.1050421422
 10
-0.3520911155
 20
-9.099901494
 10
-0.3185482538
 20
-9.0955226617
 10
-0.2848372771
 20
-9.09191158
 10
-0.25101202
 20
-9.0890861159
 10
-0.2170904394
 20
-9.0870522169
 10
-0.1830546145
 20
-9.0858039014
 10
-0.148904564
 20
-9.0853411516
  0
LINE
  5
256
100
AcDbEntity
  8
IMPORT_IGES
100
AcDbLine
 62
7
  6
CONTINUOUS
 10
1.4112494996
 20
-9.2499955
 11
1.3466629547
 21
-9.2499955
  0
LWPOLYLINE
  5
257
100
AcDbEntity
  8
IMPORT_IGES
100
AcDbPolyline
 62
250
  6
CONTINUOUS
 90
40
 70
0
 10
-0.148904564
 20
-9.0853411516
 10
-0.0385355562
 20
-9.0900324193
 10
0.0697588223
 20
-9.1023746125
 10
0.1759780159
 20
-9.1223687739
 10
0.2805484343
 20
-9.1502300052
 10
0.3830427355
 20
-9.1857450956
 10
0.4821799227
 20
-9.2282731977
 10
0.5780283456
 20
-9.2777606572
 10
0.6705193529
 20
-9.3342641452
 10
0.7581668119
 20
-9.3973094694
 10
0.8408658792
 20
-9.4669442543
 10
0.918721883
 20
-9.5431247323
 10
0.9905643401
 20
-9.625240518
 10
1.0564983456
 20
-9.7138756852
 10
1.1164198327
 20
-9.8084499838
 10
1.1688449023
 20
-9.9066071248
 10
1.2135484071
 20
-10.00839477
 10
1.2507567695
 20
-10.1137686722
 10
1.2796635807
 20
-10.2202348376
 10
1.3000332947
 20
-10.3274414065
 10
1.3121022863
 20
-10.4357421564
 10
1.3157719041
 20
-10.5437012135
 10
1.3108534317
 20
-10.6512284962
 10
1.2975355633
 20
-10.7584140371
 10
1.2762855605
 20
-10.8640916762
 10
1.2471069774
 20
-10.9684092082
 10
1.2099954601
 20
-11.0712169808
 10
1.1654062871
 20
-11.170902332
 10
1.113303484
 20
-11.2675959475
 10
1.0537217731
 20
-11.3611637787
 10
0.9872224903
 20
-11.4495959059
 10
0.9133773608
 20
-11.5328178832
 10
0.8326133834
 20
-11.6108995562
 10
0.7467751134
 20
-11.6820479543
 10
0.6556304922
 20
-11.7458961323
 10
0.5594110762
 20
-11.8028068037
 10
0.4606574476
 20
-11.8520831254
 10
0.3602167486
 20
-11.8934925416
 10
0.2572423922
 20
-11.9272655277
 10
0.1517347303
 20
-11.9534008734
  0
LWPOLYLINE
  5
258
100
AcDbEntity
  8
IMPORT_IGES
100
AcDbPolyline
 62
7
  6
CONTINUOUS
 90
14
 70
0
 10
-17.64997
 20
2.6020062186
 10
-17.6471589988
 20
2.599329683
 10
-17.6387272275
 20
2.5967009937
 10
-17.6247004376
 20
2.5941201509
 10
-17.6051206864
 20
2.5915733786
 10
-17.5800857412
 20
2.5890744527
 10
-17.5497864597
 20
2.586664701
 10
-17.5144493964
 20
2.5843494356
 10
-17.4742560581
 20
2.5821233444
 10
-17.4293880359
 20
2.5800118191
 10
-17.380056879
 20
2.5780124153
 10
-17.3265673613
 20
2.5761275775
 10
-17.2692729208
 20
2.5743900298
 10
-17.144696633
 20
2.5713549791
  0
LWPOLYLINE
  5
259
100
AcDbEntity
  8
0
100
AcDbPolyline
 62
7
  6
CONTINUOUS
 90
4
 70
0
 43
0.3500000006
 10
24.8589308167
 20
-2.0357142563
 10
24.2160728302
 20
-2.0357142563
 10
24.2160728302
 20
-0.5357137985
 10
27.2160737457
 20
-1.3928574028
  0
LWPOLYLINE
  5
25A
100
AcDbEntity
  8
IMPORT_IGES
100
AcDbPolyline
 62
250
  6
CONTINUOUS
 90
5
 70
0
 10
0.2441248998
 20
-12.3796925272
 10
0.2470611949
 20
-12.3920639256
 10
0.249299666
 20
-12.4010634351
 10
0.2507870003
 20
-12.4064654436
 10
0.2515068007
 20
-12.4082125419
  0
LINE
  5
25B
100
AcDbEntity
  8
IMPORT_IGES
100
AcDbLine
 62
250
  6
CONTINUOUS
 10
0.2362922559
 20
-12.3454458826
 11
0.2441248998
 21
-12.3796925272
  0
LINE
  5
25C
100
AcDbEntity
  8
IMPORT_IGES
100
AcDbLine
 62
250
  6
CONTINUOUS
 10
0.220092334
 20
-12.2723605506
 11
0.2362922559
 21
-12.3454458826
  0
LINE
  5
25D
100
AcDbEntity
  8
IMPORT_IGES
100
AcDbLine
 62
250
  6
CONTINUOUS
 10
0.1850028429
 20
-12.1100280524
 11
0.220092334
 21
-12.2723605506
  0
LINE
  5
25E
100
AcDbEntity
  8
IMPORT_IGES
100
AcDbLine
 62
250
  6
CONTINUOUS
 10
0.1517346129
 20
-11.9533991724
 11
0.1850028429
 21
-12.1100280524
  0
LINE
  5
25F
100
AcDbEntity
  8
IMPORT_IGES
100
AcDbLine
 62
250
  6
CONTINUOUS
 10
-0.451656893
 20
-9.1176256816
 11
-0.4793999865
 21
-8.9848481552
  0
LINE
  5
260
100
AcDbEntity
  8
IMPORT_IGES
100
AcDbLine
 62
250
  6
CONTINUOUS
 10
-0.4793999865
 20
-8.9848481552
 11
-0.5039035318
 21
-8.8639985438
  0
LINE
  5
261
100
AcDbEntity
  8
IMPORT_IGES
100
AcDbLine
 62
250
  6
CONTINUOUS
 10
-0.5039035318
 20
-8.8639985438
 11
-0.5184678586
 21
-8.7899906217
  0
LWPOLYLINE
  5
262
100
AcDbEntity
  8
IMPORT_IGES
100
AcDbPolyline
 62
250
  6
CONTINUOUS
 90
10
 70
0
 10
-0.5184678586
 20
-8.7899906217
 10
-0.5310672185
 20
-8.7238875895
 10
-0.5364289957
 20
-8.6948106406
 10
-0.5410943295
 20
-8.6687435735
 10
-0.5449723013
 20
-8.6461811763
 10
-0.5480267049
 20
-8.6273329237
 10
-0.5502574378
 20
-8.6121685786
 10
-0.5516060634
 20
-8.6009986189
 10
-0.5520203559
 20
-8.5941712029
 10
-0.5514969037
 20
-8.591776425
  0
LINE
  5
263
100
AcDbEntity
  8
IMPORT_IGES
100
AcDbLine
 62
7
  6
CONTINUOUS
 10
16.9694064232
 20
2.5740662497
 11
16.8449794888
 21
2.5711650538
  0
LINE
  5
264
100
AcDbEntity
  8
IMPORT_IGES
100
AcDbLine
 62
7
  6
CONTINUOUS
 10
16.8449794888
 20
2.5711650538
 11
16.7087144893
 21
2.5689328867
  0
LINE
  5
265
100
AcDbEntity
  8
IMPORT_IGES
100
AcDbLine
 62
7
  6
CONTINUOUS
 10
16.7087144893
 20
2.5689328867
 11
16.5633163736
 21
2.5674583599
  0
LINE
  5
266
100
AcDbEntity
  8
IMPORT_IGES
100
AcDbLine
 62
7
  6
CONTINUOUS
 10
-17.0088591658
 20
2.569027299
 11
-16.8647297513
 21
2.5674424525
  0
LINE
  5
267
100
AcDbEntity
  8
IMPORT_IGES
100
AcDbLine
 62
7
  6
CONTINUOUS
 10
-17.144696633
 20
2.5713549791
 11
-17.0088591658
 21
2.569027299
  0
LINE
  5
268
100
AcDbEntity
  8
IMPORT_IGES
100
AcDbLine
 62
7
  6
CONTINUOUS
 10
-10.3085140168
 20
2.6998930626
 11
-5.2990941701
 21
2.8387410554
  0
LINE
  5
269
100
AcDbEntity
  8
IMPORT_IGES
100
AcDbLine
 62
7
  6
CONTINUOUS
 10
-5.2990941701
 20
2.8387410554
 11
-4.1168790585
 21
2.8693149042
  0
LINE
  5
26A
100
AcDbEntity
  8
IMPORT_IGES
100
AcDbLine
 62
7
  6
CONTINUOUS
 10
-4.1168790585
 20
2.8693149042
 11
-3.0356467362
 21
2.8936349913
  0
LWPOLYLINE
  5
26B
100
AcDbEntity
  8
IMPORT_IGES
100
AcDbPolyline
 62
7
  6
CONTINUOUS
 90
7
 70
0
 10
-16.8633200198
 20
2.5674465156
 10
-15.8182359222
 20
2.5830504475
 10
-14.8099056011
 20
2.5998262042
 10
-13.8381881876
 20
2.6177737857
 10
-12.9042034932
 20
2.6371676558
 10
-12.0065718465
 20
2.6577333506
 10
-10.3085140168
 20
2.6998930626
  0
LINE
  5
26C
100
AcDbEntity
  8
IMPORT_IGES
100
AcDbLine
 62
7
  6
CONTINUOUS
 10
-3.0356467362
 20
2.8936349913
 11
-2.0333404543
 21
2.9101020549
  0
LINE
  5
26D
100
AcDbEntity
  8
IMPORT_IGES
100
AcDbLine
 62
7
  6
CONTINUOUS
 10
-2.0333404543
 20
2.9101020549
 11
-1.0720642493
 21
2.9198756505
  0
LINE
  5
26E
100
AcDbEntity
  8
IMPORT_IGES
100
AcDbLine
 62
7
  6
CONTINUOUS
 10
-1.0720642493
 20
2.9198756505
 11
-0.1439353572
 21
2.9234179124
  0
LWPOLYLINE
  5
26F
100
AcDbEntity
  8
IMPORT_IGES
100
AcDbPolyline
 62
7
  6
CONTINUOUS
 90
4
 70
0
 10
-0.1439353572
 20
2.9234179124
 10
0.7831879667
 20
2.9222289097
 10
1.254480953
 20
2.918500356
 10
1.7357813391
 20
2.9115256405
  0
LWPOLYLINE
  5
270
100
AcDbEntity
  8
IMPORT_IGES
100
AcDbPolyline
 62
7
  6
CONTINUOUS
 90
5
 70
0
 10
12.6091470891
 20
2.6348018626
 10
13.542266015
 20
2.6159487256
 10
14.5129244582
 20
2.5985291871
 10
15.5199242126
 20
2.5823657318
 10
16.5633163736
 20
2.5674583599
  0
LINE
  5
271
100
AcDbEntity
  8
IMPORT_IGES
100
AcDbLine
 62
7
  6
CONTINUOUS
 10
1.7357813391
 20
2.9115256405
 11
3.2738772972
 21
2.8807345054
  0
LINE
  5
272
100
AcDbEntity
  8
IMPORT_IGES
100
AcDbLine
 62
7
  6
CONTINUOUS
 10
3.2738772972
 20
2.8807345054
 11
4.4043198189
 21
2.8553077121
  0
LINE
  5
273
100
AcDbEntity
  8
IMPORT_IGES
100
AcDbLine
 62
7
  6
CONTINUOUS
 10
10.847713477
 20
2.6757438411
 11
12.6091470891
 21
2.6348018626
  0
LINE
  5
274
100
AcDbEntity
  8
IMPORT_IGES
100
AcDbLine
 62
7
  6
CONTINUOUS
 10
4.4043198189
 20
2.8553077121
 11
5.6413927172
 21
2.823640284
  0
LINE
  5
275
100
AcDbEntity
  8
IMPORT_IGES
100
AcDbLine
 62
7
  6
CONTINUOUS
 10
9.2151299476
 20
2.7199162776
 11
10.847713477
 21
2.6757438411
  0
LWPOLYLINE
  5
276
100
AcDbEntity
  8
IMPORT_IGES
100
AcDbPolyline
 62
7
  6
CONTINUOUS
 90
3
 70
0
 10
5.6413927172
 20
2.823640284
 10
6.9866962372
 20
2.7854950132
 10
9.2151299476
 20
2.7199162776
  0
LWPOLYLINE
  5
277
100
AcDbEntity
  8
IMPORT_IGES
100
AcDbPolyline
 62
7
  6
CONTINUOUS
 90
13
 70
0
 10
17.34997
 20
2.6020180926
 10
17.3471521448
 20
2.5993878346
 10
17.3387039399
 20
2.5967339064
 10
17.3246573693
 20
2.5940862354
 10
17.3050622024
 20
2.5914848893
 10
17.2800214635
 20
2.5889491388
 10
17.2497250159
 20
2.5864764435
 10
17.21440109
 20
2.5840937744
 10
17.1742335996
 20
2.5818269379
 10
17.1293982913
 20
2.579670055
 10
17.0801061594
 20
2.5776472109
 10
17.0266612237
 20
2.5757820546
 10
16.9694064232
 20
2.5740662497
  0
LWPOLYLINE
  5
278
100
AcDbEntity
  8
0
100
AcDbPolyline
 62
7
  6
CONTINUOUS
 90
10
 70
0
 43
0.3500000006
 10
26.7160735931
 20
0.9642866592
 10
26.858931427
 20
1.0357133102
 10
26.9303603439
 20
1.0357133102
 10
27.0732159119
 20
0.8928577423
 10
27.0732159119
 20
0.8214288254
 10
27.0017869949
 20
0.7499999084
 10
26.9303603439
 20
0.7499999084
 10
26.7875025101
 20
0.8214288254
 10
26.7160735931
 20
0.8928577423
 10
26.7160735931
 20
0.9642866592
  0
LWPOLYLINE
  5
279
100
AcDbEntity
  8
0
100
AcDbPolyline
 62
7
  6
CONTINUOUS
 90
3
 70
0
 43
0.3500000006
 10
26.9303603439
 20
1.0357133102
 10
27.1446448288
 20
0.9642866592
 10
27.4303604965
 20
0.8214288254
  0
LINE
  5
27A
100
AcDbEntity
  8
IMPORT_IGES
100
AcDbLine
 62
250
  6
CONTINUOUS
 10
16.4692474784
 20
27.9174744263
 11
16.4789651217
 21
27.7589250615
  0
LINE
  5
27B
100
AcDbEntity
  8
IMPORT_IGES
100
AcDbLine
 62
250
  6
CONTINUOUS
 10
16.4789651217
 20
27.7589250615
 11
16.4881850463
 21
27.5896141825
  0
LINE
  5
27C
100
AcDbEntity
  8
IMPORT_IGES
100
AcDbLine
 62
250
  6
CONTINUOUS
 10
16.4881850463
 20
27.5896141825
 11
16.4968936876
 21
27.410126579
  0
LINE
  5
27D
100
AcDbEntity
  8
IMPORT_IGES
100
AcDbLine
 62
250
  6
CONTINUOUS
 10
16.4968936876
 20
27.410126579
 11
16.505115427
 21
27.2201324058
  0
LINE
  5
27E
100
AcDbEntity
  8
IMPORT_IGES
100
AcDbLine
 62
250
  6
CONTINUOUS
 10
16.505115427
 20
27.2201324058
 11
16.5166448073
 21
26.9129610837
  0
LINE
  5
27F
100
AcDbEntity
  8
IMPORT_IGES
100
AcDbLine
 62
250
  6
CONTINUOUS
 10
16.5166448073
 20
26.9129610837
 11
16.5271404956
 21
26.581018944
  0
LINE
  5
280
100
AcDbEntity
  8
IMPORT_IGES
100
AcDbLine
 62
250
  6
CONTINUOUS
 10
16.5271404956
 20
26.581018944
 11
16.5364509511
 21
26.2296071282
  0
LINE
  5
281
100
AcDbEntity
  8
IMPORT_IGES
100
AcDbLine
 62
250
  6
CONTINUOUS
 10
16.5364509511
 20
26.2296071282
 11
16.5469150203
 21
25.7366951791
  0
LINE
  5
282
100
AcDbEntity
  8
IMPORT_IGES
100
AcDbLine
 62
250
  6
CONTINUOUS
 10
16.5469150203
 20
25.7366951791
 11
16.5550734745
 21
25.2210018753
  0
LINE
  5
283
100
AcDbEntity
  8
IMPORT_IGES
100
AcDbLine
 62
250
  6
CONTINUOUS
 10
16.5550734745
 20
25.2210018753
 11
16.560815832
 21
24.6885380644
  0
LINE
  5
284
100
AcDbEntity
  8
IMPORT_IGES
100
AcDbLine
 62
250
  6
CONTINUOUS
 10
16.560815832
 20
24.6885380644
 11
16.5640131515
 21
24.150121275
  0
LINE
  5
285
100
AcDbEntity
  8
IMPORT_IGES
100
AcDbLine
 62
7
  6
CONTINUOUS
 10
17.34997
 20
-27.749965
 11
17.34997
 21
27.749965
  0
LINE
  5
286
100
AcDbEntity
  8
IMPORT_IGES
100
AcDbLine
 62
250
  6
CONTINUOUS
 10
17.44997
 20
20.4939961877
 11
17.44997
 21
19.9939961877
  0
LINE
  5
287
100
AcDbEntity
  8
IMPORT_IGES
100
AcDbLine
 62
250
  6
CONTINUOUS
 10
17.44997
 20
-20.0060038123
 11
17.44997
 21
-20.5060038123
  0
LINE
  5
288
100
AcDbEntity
  8
IMPORT_IGES
100
AcDbLine
 62
7
  6
CONTINUOUS
 10
17.64997
 20
-20.3060038123
 11
17.64997
 21
-20.2060038123
  0
LINE
  5
289
100
AcDbEntity
  8
IMPORT_IGES
100
AcDbLine
 62
7
  6
CONTINUOUS
 10
17.64997
 20
20.1939961877
 11
17.64997
 21
20.2939961877
  0
LINE
  5
28A
100
AcDbEntity
  8
IMPORT_IGES
100
AcDbLine
 62
250
  6
CONTINUOUS
 10
16.5623834393
 20
-24.3674899255
 11
16.5640131515
 21
24.150121275
  0
LINE
  5
28B
100
AcDbEntity
  8
IMPORT_IGES
100
AcDbLine
 62
250
  6
CONTINUOUS
 10
16.5583998209
 20
-24.9087899027
 11
16.5623834393
 21
-24.3674899255
  0
LINE
  5
28C
100
AcDbEntity
  8
IMPORT_IGES
100
AcDbLine
 62
250
  6
CONTINUOUS
 10
16.5520569866
 20
-25.43613313
 11
16.5583998209
 21
-24.9087899027
  0
LINE
  5
28D
100
AcDbEntity
  8
IMPORT_IGES
100
AcDbLine
 62
250
  6
CONTINUOUS
 10
16.5430208936
 20
-25.9443689652
 11
16.5520569866
 21
-25.43613313
  0
LINE
  5
28E
100
AcDbEntity
  8
IMPORT_IGES
100
AcDbLine
 62
250
  6
CONTINUOUS
 10
16.5315130437
 20
-26.4266549474
 11
16.5430208936
 21
-25.9443689652
  0
LINE
  5
28F
100
AcDbEntity
  8
IMPORT_IGES
100
AcDbLine
 62
250
  6
CONTINUOUS
 10
16.5175904166
 20
-26.8786601554
 11
16.5315130437
 21
-26.4266549474
  0
LINE
  5
290
100
AcDbEntity
  8
IMPORT_IGES
100
AcDbLine
 62
250
  6
CONTINUOUS
 10
16.4590949853
 20
28.0639880208
 11
16.4692474784
 21
27.9174744263
  0
LINE
  5
291
100
AcDbEntity
  8
IMPORT_IGES
100
AcDbLine
 62
7
  6
CONTINUOUS
 10
17.34997
 20
19.9939961877
 11
17.44997
 21
19.9939961877
  0
LINE
  5
292
100
AcDbEntity
  8
IMPORT_IGES
100
AcDbLine
 62
250
  6
CONTINUOUS
 10
17.64997
 20
20.1939961877
 11
17.34997
 21
20.1939961877
  0
LINE
  5
293
100
AcDbEntity
  8
IMPORT_IGES
100
AcDbLine
 62
250
  6
CONTINUOUS
 10
17.34997
 20
20.2939961877
 11
17.64997
 21
20.2939961877
  0
LINE
  5
294
100
AcDbEntity
  8
IMPORT_IGES
100
AcDbLine
 62
7
  6
CONTINUOUS
 10
17.44997
 20
20.4939961877
 11
17.34997
 21
20.4939961877
  0
LINE
  5
295
100
AcDbEntity
  8
IMPORT_IGES
100
AcDbLine
 62
250
  6
CONTINUOUS
 10
-17.64997
 20
23.749965
 11
17.34997
 21
23.749965
  0
LWPOLYLINE
  5
296
100
AcDbEntity
  8
0
100
AcDbPolyline
 62
7
  6
CONTINUOUS
 90
8
 70
0
 43
0.3500000006
 10
27.2160737457
 20
-4.1785715675
 10
27.2160737457
 20
-3.3214290962
 10
26.7875025101
 20
-2.8928567276
 10
25.9303600388
 20
-2.8928567276
 10
25.5017888031
 20
-3.3214290962
 10
25.5017888031
 20
-4.1785715675
 10
24.2160728302
 20
-4.1785715675
 10
24.2160728302
 20
-2.8928567276
  0
LWPOLYLINE
  5
297
100
AcDbEntity
  8
0
100
AcDbPolyline
 62
7
  6
CONTINUOUS
 90
8
 70
0
 43
0.3500000006
 10
27.2160737457
 20
2.0357136154
 10
27.2160737457
 20
2.8928560867
 10
26.7875025101
 20
3.3214295883
 10
25.9303600388
 20
3.3214295883
 10
25.5017888031
 20
2.8928560867
 10
25.5017888031
 20
2.0357136154
 10
24.2160728302
 20
2.0357136154
 10
24.2160728302
 20
3.3214295883
  0
LWPOLYLINE
  5
298
100
AcDbEntity
  8
IMPORT_IGES
100
AcDbPolyline
 62
250
  6
CONTINUOUS
 90
19
 70
0
 10
17.34997
 20
-24.0262168324
 10
17.3470970049
 20
-24.0315714849
 10
17.338589203
 20
-24.0368514814
 10
17.3246351395
 20
-24.0420281111
 10
17.3055418286
 20
-24.0470534447
 10
17.2814995808
 20
-24.0519245298
 10
17.252364291
 20
-24.0566781638
 10
17.2181017901
 20
-24.0613029096
 10
17.1789337905
 20
-24.0657541853
 10
17.1349237894
 20
-24.0700134317
 10
17.0861517489
 20
-24.0740590184
 10
17.0328832193
 20
-24.0778562021
 10
16.975516059
 20
-24.0813686521
 10
16.9144233924
 20
-24.0845693551
 10
16.8498554872
 20
-24.0874412671
 10
16.7820920383
 20
-24.0899665881
 10
16.7114738428
 20
-24.0921265701
 10
16.6384112005
 20
-24.0939028095
 10
16.5633163736
 20
-24.0952797906
  0
LINE
  5
299
100
AcDbEntity
  8
IMPORT_IGES
100
AcDbLine
 62
7
  6
CONTINUOUS
 10
-16.64997
 20
28.749965
 11
16.34997
 21
28.749965
  0
LWPOLYLINE
  5
29A
100
AcDbEntity
  8
IMPORT_IGES
100
AcDbPolyline
 62
250
  6
CONTINUOUS
 90
16
 70
0
 10
16.3499710573
 20
-28.7499649999
 10
16.3616992768
 20
-28.7420848659
 10
16.37391647
 20
-28.7183876477
 10
16.3863043978
 20
-28.67891938
 10
16.3982961042
 20
-28.6240315335
 10
16.409837209
 20
-28.5540694227
 10
16.4213917282
 20
-28.4690395279
 10
16.432697338
 20
-28.3694149285
 10
16.4434708214
 20
-28.2557631311
 10
16.4541475463
 20
-28.1278349043
 10
16.464488818
 20
-27.9859551528
 10
16.4742346276
 20
-27.8309772353
 10
16.4837792043
 20
-27.6631955838
 10
16.4929372163
 20
-27.4835703827
 10
16.5014868118
 20
-27.2928772986
 10
16.5175904166
 20
-26.8786601554
  0
LWPOLYLINE
  5
29B
100
AcDbEntity
  8
0
100
AcDbPolyline
 62
7
  6
CONTINUOUS
 90
6
 70
0
 43
0.3500000006
 10
-2.2928570738
 20
41.3488521423
 10
-1.2214285598
 20
41.3488521423
 10
-1.0071428711
 20
41.5631366272
 10
-1.0071428711
 20
42.6345635834
 10
-1.4357143192
 20
43.063137085
 10
-1.8642856965
 20
43.063137085
  0
LWPOLYLINE
  5
29C
100
AcDbEntity
  8
0
100
AcDbPolyline
 62
7
  6
CONTINUOUS
 90
8
 70
0
 43
0.3500000006
 10
-0.1499999927
 20
41.3488521423
 10
0.7071428504
 20
41.3488521423
 10
1.1357142985
 20
41.7774211121
 10
1.1357142985
 20
42.6345635834
 10
0.7071428504
 20
43.063137085
 10
-0.1499999927
 20
43.063137085
 10
-0.1499999927
 20
44.348848526
 10
1.1357142985
 20
44.348848526
  0
LWPOLYLINE
  5
29D
100
AcDbEntity
  8
IMPORT_IGES
100
AcDbPolyline
 62
250
  6
CONTINUOUS
 90
20
 70
0
 10
16.34997
 20
28.749965
 10
16.355925888
 20
28.7480267506
 10
16.3618964871
 20
28.7422015103
 10
16.3678777986
 20
28.7324740823
 10
16.3738717179
 20
28.7188170815
 10
16.3798679924
 20
28.7012233239
 10
16.3858444892
 20
28.6797377341
 10
16.3917948618
 20
28.6543817376
 10
16.3977171955
 20
28.625168111
 10
16.4035964079
 20
28.5921795535
 10
16.4094248726
 20
28.5554770629
 10
16.4152023251
 20
28.5150807437
 10
16.420924966
 20
28.471034838
 10
16.426589417
 20
28.4233794863
 10
16.4321911482
 20
28.3721539984
 10
16.4377246801
 20
28.3174038409
 10
16.4431865736
 20
28.2591630752
 10
16.4485724363
 20
28.197478179
 10
16.453875503
 20
28.1324187285
 10
16.4590949853
 20
28.0639880208
  0
LINE
  5
29E
100
AcDbEntity
  8
IMPORT_IGES
100
AcDbLine
 62
7
  6
CONTINUOUS
 10
-52.3359467706
 20
-28.7499649999
 11
-42.5348876988
 21
-28.749965
  0
LINE
  5
29F
100
AcDbEntity
  8
IMPORT_IGES
100
AcDbLine
 62
7
  6
CONTINUOUS
 10
-42.0348876988
 20
-28.749965
 11
-37.5348876988
 21
-28.749965
  0
LWPOLYLINE
  5
2A0
100
AcDbEntity
  8
IMPORT_IGES
100
AcDbPolyline
 62
250
  6
CONTINUOUS
 90
28
 70
0
 10
-49.9961268724
 20
-28.7499649999
 10
-50.2809207036
 20
-28.7420848659
 10
-50.5654590627
 20
-28.7183876477
 10
-50.8483072408
 20
-28.67891938
 10
-51.1275392004
 20
-28.6240315335
 10
-51.4022681575
 20
-28.5540694227
 10
-51.6726712249
 20
-28.4690395279
 10
-51.9373841736
 20
-28.3694149285
 10
-52.1952737511
 20
-28.2557631311
 10
-52.4468682872
 20
-28.1278349043
 10
-52.6913456587
 20
-27.9859551528
 10
-52.9272228076
 20
-27.8309772353
 10
-53.1539858433
 20
-27.6631955838
 10
-53.3704339238
 20
-27.4835703827
 10
-53.5758526808
 20
-27.2928772986
 10
-53.7703655341
 20
-27.0909919942
 10
-53.9532277131
 20
-26.8786601554
 10
-54.123503278
 20
-26.6570724528
 10
-54.2809058703
 20
-26.4266549474
 10
-54.4246326467
 20
-26.1887802147
 10
-54.5543400815
 20
-25.9443689652
 10
-54.6702443283
 20
-25.6931023077
 10
-54.7718391265
 20
-25.43613313
 10
-54.8587160797
 20
-25.1747460761
 10
-54.9309301642
 20
-24.9087899027
 10
-54.9882107007
 20
-24.6390992486
 10
-55.0302433166
 20
-24.3674899255
 10
-55.0569966935
 20
-24.0953052601
  0
LINE
  5
2A1
100
AcDbEntity
  8
IMPORT_IGES
100
AcDbLine
 62
250
  6
CONTINUOUS
 10
-36.5348876988
 20
-27.749965
 11
-42.0348876988
 21
-27.749965
  0
LINE
  5
2A2
100
AcDbEntity
  8
IMPORT_IGES
100
AcDbLine
 62
250
  6
CONTINUOUS
 10
-42.5348876988
 20
-27.749965
 11
-49.9960994496
 21
-27.749965
  0
LINE
  5
2A3
100
AcDbEntity
  8
IMPORT_IGES
100
AcDbLine
 62
7
  6
CONTINUOUS
 10
-42.0348876988
 20
-27.599965
 11
-42.5348876988
 21
-27.599965
  0
LINE
  5
2A4
100
AcDbEntity
  8
IMPORT_IGES
100
AcDbLine
 62
250
  6
CONTINUOUS
 10
-54.0823017392
 20
-24.0262168324
 11
-55.0568342593
 21
-24.0952797906
  0
LINE
  5
2A5
100
AcDbEntity
  8
IMPORT_IGES
100
AcDbLine
 62
250
  6
CONTINUOUS
 10
-57.3222264338
 20
-24.1034359984
 11
-55.6852180689
 21
-24.0963662389
  0
LINE
  5
2A6
100
AcDbEntity
  8
IMPORT_IGES
100
AcDbLine
 62
250
  6
CONTINUOUS
 10
-55.6852180689
 20
-24.0963662389
 11
-55.0568342593
 21
-24.0952797906
  0
LINE
  5
2A7
100
AcDbEntity
  8
IMPORT_IGES
100
AcDbLine
 62
7
  6
CONTINUOUS
 10
-41.8348876988
 20
-20.5060038123
 11
-37.7348876988
 21
-20.5060038123
  0
LINE
  5
2A8
100
AcDbEntity
  8
IMPORT_IGES
100
AcDbLine
 62
250
  6
CONTINUOUS
 10
-37.5348876988
 20
-20.3060038123
 11
-42.0348876988
 21
-20.3060038123
  0
LINE
  5
2A9
100
AcDbEntity
  8
IMPORT_IGES
100
AcDbLine
 62
250
  6
CONTINUOUS
 10
-42.0348876988
 20
-20.2060038123
 11
-37.5348876988
 21
-20.2060038123
  0
LINE
  5
2AA
100
AcDbEntity
  8
IMPORT_IGES
100
AcDbLine
 62
7
  6
CONTINUOUS
 10
-37.7348876988
 20
-20.0060038123
 11
-41.8348876988
 21
-20.0060038123
  0
LWPOLYLINE
  5
2AB
100
AcDbEntity
  8
0
100
AcDbPolyline
 62
7
  6
CONTINUOUS
 90
3
 70
0
 43
0.3500000006
 10
-46.8511064758
 20
42.1783502655
 10
-46.9225331268
 20
41.9640612488
 10
-47.0653909607
 20
41.6783501129
  0
LINE
  5
2AC
100
AcDbEntity
  8
IMPORT_IGES
100
AcDbLine
 62
7
  6
CONTINUOUS
 10
-58.1834497624
 20
-12.4499955
 11
-58.1457264369
 21
-12.4499955
  0
LINE
  5
2AD
100
AcDbEntity
  8
IMPORT_IGES
100
AcDbLine
 62
7
  6
CONTINUOUS
 10
-58.4092359237
 20
-8.6748350419
 11
-58.3866093359
 21
-8.8840998671
  0
LINE
  5
2AE
100
AcDbEntity
  8
IMPORT_IGES
100
AcDbLine
 62
7
  6
CONTINUOUS
 10
-58.3866093359
 20
-8.8840998671
 11
-58.3583306744
 21
-9.1590225007
  0
LINE
  5
2AF
100
AcDbEntity
  8
IMPORT_IGES
100
AcDbLine
 62
250
  6
CONTINUOUS
 10
-58.8877154437
 20
-9.0853411516
 11
-58.8626870915
 21
-9.3342641452
  0
LINE
  5
2B0
100
AcDbEntity
  8
IMPORT_IGES
100
AcDbLine
 62
7
  6
CONTINUOUS
 10
-58.8876656238
 20
-9.0858544764
 11
-58.8877152695
 21
-9.0853437953
  0
LINE
  5
2B1
100
AcDbEntity
  8
IMPORT_IGES
100
AcDbLine
 62
7
  6
CONTINUOUS
 10
-58.3583306744
 20
-9.1590225007
 11
-58.3372912924
 21
-9.3744258481
  0
LINE
  5
2B2
100
AcDbEntity
  8
IMPORT_IGES
100
AcDbLine
 62
250
  6
CONTINUOUS
 10
-58.8626870915
 20
-9.3342641452
 11
-58.8427393974
 21
-9.5431247323
  0
LWPOLYLINE
  5
2B3
100
AcDbEntity
  8
IMPORT_IGES
100
AcDbPolyline
 62
7
  6
CONTINUOUS
 90
28
 70
0
 10
-57.3234128059
 20
-24.1034384829
 10
-57.3041722892
 20
-24.3125457553
 10
-57.2647820708
 20
-24.5904091958
 10
-57.2097467509
 20
-24.8661371826
 10
-57.1394609462
 20
-25.1377768148
 10
-57.0542578577
 20
-25.4044482329
 10
-56.9540885311
 20
-25.6663537681
 10
-56.8393927912
 20
-25.9222354313
 10
-56.7107998859
 20
-26.1708019294
 10
-56.5682373198
 20
-26.4122037071
 10
-56.4123013722
 20
-26.6453300958
 10
-56.2438056478
 20
-26.8690118285
 10
-56.0627600733
 20
-27.0832345014
 10
-55.8699957851
 20
-27.2869594745
 10
-55.6664477909
 20
-27.4792551722
 10
-55.4521027393
 20
-27.6601343816
 10
-55.2279437107
 20
-27.8287169089
 10
-54.9950538915
 20
-27.984232819
 10
-54.753444231
 20
-28.1266752097
 10
-54.5043166466
 20
-28.2553029694
 10
-54.2488205594
 20
-28.3695779897
 10
-53.9868230894
 20
-28.4695550371
 10
-53.7196507602
 20
-28.5546812909
 10
-53.4485758858
 20
-28.6245936611
 10
-53.1733966829
 20
-28.679329937
 10
-52.8950063075
 20
-28.7186093299
 10
-52.6153679829
 20
-28.7421499764
 10
-52.3359236509
 20
-28.749965
  0
LINE
  5
2B4
100
AcDbEntity
  8
IMPORT_IGES
100
AcDbLine
 62
7
  6
CONTINUOUS
 10
-58.3372912924
 20
-9.3744258481
 11
-58.3153488822
 21
-9.612275983
  0
LINE
  5
2B5
100
AcDbEntity
  8
IMPORT_IGES
100
AcDbLine
 62
250
  6
CONTINUOUS
 10
-58.8427393974
 20
-9.5431247323
 11
-58.8188693079
 21
-9.8084499838
  0
LINE
  5
2B6
100
AcDbEntity
  8
IMPORT_IGES
100
AcDbLine
 62
7
  6
CONTINUOUS
 10
-58.3153488822
 20
-9.612275983
 11
-58.2929393476
 21
-9.8693212399
  0
LINE
  5
2B7
100
AcDbEntity
  8
IMPORT_IGES
100
AcDbLine
 62
250
  6
CONTINUOUS
 10
-58.8188693079
 20
-9.8084499838
 11
-58.8018956709
 21
-10.00839477
  0
LWPOLYLINE
  5
2B8
100
AcDbEntity
  8
IMPORT_IGES
100
AcDbPolyline
 62
7
  6
CONTINUOUS
 90
69
 70
0
 10
-58.681906084
 20
-11.9863716592
 10
-58.6814491624
 20
-11.9919898496
 10
-58.6808119672
 20
-11.998785958
 10
-58.6800255469
 20
-12.0060684378
 10
-58.6790799186
 20
-12.0137429489
 10
-58.6779394248
 20
-12.0219204137
 10
-58.6766444045
 20
-12.0301972698
 10
-58.6752144043
 20
-12.0384319256
 10
-58.673623149
 20
-12.0467605401
 10
-58.6718629487
 20
-12.05518903
 10
-58.6699260191
 20
-12.0637205561
 10
-58.6678073623
 20
-12.072345018
 10
-58.6655036438
 20
-12.0810476294
 10
-58.6630090692
 20
-12.0898245391
 10
-58.6603181974
 20
-12.0986704611
 10
-58.6574296797
 20
-12.1075678982
 10
-58.6543389273
 20
-12.1165113163
 10
-58.6510413579
 20
-12.1254952417
 10
-58.6475373161
 20
-12.1345019161
 10
-58.6438234819
 20
-12.1435248844
 10
-58.6398964617
 20
-12.1525581122
 10
-58.6357582164
 20
-12.1615843249
 10
-58.6314069582
 20
-12.1705961693
 10
-58.6268404946
 20
-12.1795874948
 10
-58.6220618051
 20
-12.1885428677
 10
-58.6170724469
 20
-12.1974512269
 10
-58.6118697586
 20
-12.206309638
 10
-58.6064511182
 20
-12.2151147516
 10
-58.6008180526
 20
-12.2238566131
 10
-58.5949691405
 20
-12.2325303649
 10
-58.588896778
 20
-12.2411396634
 10
-58.5826011669
 20
-12.2496762516
 10
-58.5760825775
 20
-12.2581321824
 10
-58.5693324874
 20
-12.2665105268
 10
-58.5623514781
 20
-12.2748022188
 10
-58.5551401791
 20
-12.2829985454
 10
-58.5476891743
 20
-12.2911018274
 10
-58.5399996222
 20
-12.2991020559
 10
-58.5320726609
 20
-12.3069896745
 10
-58.5238979637
 20
-12.3147661503
 10
-58.5154770867
 20
-12.3224207893
 10
-58.5068122693
 20
-12.3299427255
 10
-58.4978935202
 20
-12.3373314395
 10
-58.4887232747
 20
-12.3445753584
 10
-58.4793050559
 20
-12.3516625429
 10
-58.469630133
 20
-12.358590134
 10
-58.4597030974
 20
-12.3653451743
 10
-58.4495282538
 20
-12.3719154884
 10
-58.4390963344
 20
-12.3782974689
 10
-58.4284137381
 20
-12.384477341
 10
-58.4174864524
 20
-12.3904422384
 10
-58.4063047008
 20
-12.3961877117
 10
-58.3948770012
 20
-12.4016993011
 10
-58.3832113534
 20
-12.4069635692
 10
-58.3712975976
 20
-12.4119751025
 10
-58.3591466549
 20
-12.4167189831
 10
-58.3467689482
 20
-12.4211813816
 10
-58.3341543379
 20
-12.425355755
 10
-58.3213176097
 20
-12.4292267208
 10
-58.3082708721
 20
-12.4327807753
 10
-58.2950011933
 20
-12.4360109571
 10
-58.2815271748
 20
-12.4389018517
 10
-58.2678633691
 20
-12.4414401843
 10
-58.2539926385
 20
-12.4436181159
 10
-58.239936196
 20
-12.4454206488
 10
-58.2257132072
 20
-12.4468345186
 10
-58.2113062394
 20
-12.4478497771
 10
-58.1967407206
 20
-12.4484522726
 10
-58.1834440179
 20
-12.4486314302
  0
LINE
  5
2B9
100
AcDbEntity
  8
IMPORT_IGES
100
AcDbLine
 62
7
  6
CONTINUOUS
 10
-58.2929393476
 20
-9.8693212399
 11
-58.2705983054
 21
-10.1433205829
  0
LINE
  5
2BA
100
AcDbEntity
  8
IMPORT_IGES
100
AcDbLine
 62
250
  6
CONTINUOUS
 10
-58.8018956709
 20
-10.00839477
 11
-58.7848557844
 21
-10.2202348376
  0
LINE
  5
2BB
100
AcDbEntity
  8
IMPORT_IGES
100
AcDbLine
 62
250
  6
CONTINUOUS
 10
-58.7848557844
 20
-10.2202348376
 11
-58.7685534806
 21
-10.4357421564
  0
LINE
  5
2BC
100
AcDbEntity
  8
IMPORT_IGES
100
AcDbLine
 62
7
  6
CONTINUOUS
 10
-58.2705983054
 20
-10.1433205829
 11
-58.2492212722
 21
-10.4272384964
  0
LINE
  5
2BD
100
AcDbEntity
  8
IMPORT_IGES
100
AcDbLine
 62
7
  6
CONTINUOUS
 10
-58.681906084
 20
-11.9863716592
 11
-58.8877152695
 21
-9.0853437953
  0
LINE
  5
2BE
100
AcDbEntity
  8
IMPORT_IGES
100
AcDbLine
 62
7
  6
CONTINUOUS
 10
-59.238749611
 20
2.9234189864
 11
-58.4291975641
 21
-8.4999955031
  0
LINE
  5
2BF
100
AcDbEntity
  8
IMPORT_IGES
100
AcDbLine
 62
7
  6
CONTINUOUS
 10
-58.1457264369
 20
-12.4999954969
 11
-57.3234156531
 21
-24.1034457737
  0
LINE
  5
2C0
100
AcDbEntity
  8
IMPORT_IGES
100
AcDbLine
 62
250
  6
CONTINUOUS
 10
-58.7685534806
 20
-10.4357421564
 11
-58.7533225145
 21
-10.6512284962
  0
LINE
  5
2C1
100
AcDbEntity
  8
IMPORT_IGES
100
AcDbLine
 62
7
  6
CONTINUOUS
 10
-58.2492212722
 20
-10.4272384964
 11
-58.2293235445
 21
-10.7137662244
  0
LINE
  5
2C2
100
AcDbEntity
  8
IMPORT_IGES
100
AcDbLine
 62
250
  6
CONTINUOUS
 10
-58.7533225145
 20
-10.6512284962
 11
-58.7393329838
 21
-10.8640916762
  0
LINE
  5
2C3
100
AcDbEntity
  8
IMPORT_IGES
100
AcDbLine
 62
7
  6
CONTINUOUS
 10
-58.2293235445
 20
-10.7137662244
 11
-58.2117315227
 21
-10.9930583688
  0
LINE
  5
2C4
100
AcDbEntity
  8
IMPORT_IGES
100
AcDbLine
 62
250
  6
CONTINUOUS
 10
-58.7393329838
 20
-10.8640916762
 11
-58.726682038
 21
-11.0712169808
  0
LINE
  5
2C5
100
AcDbEntity
  8
IMPORT_IGES
100
AcDbLine
 62
250
  6
CONTINUOUS
 10
-58.2891244892
 20
-10.0300317762
 11
-58.3128531325
 21
-9.6403491258
  0
LINE
  5
2C6
100
AcDbEntity
  8
IMPORT_IGES
100
AcDbLine
 62
7
  6
CONTINUOUS
 10
-58.2117315227
 20
-10.9930583688
 11
-58.1965087397
 21
-11.2585011523
  0
LINE
  5
2C7
100
AcDbEntity
  8
IMPORT_IGES
100
AcDbLine
 62
250
  6
CONTINUOUS
 10
-58.2661869992
 20
-10.4384285047
 11
-58.2891244892
 21
-10.0300317762
  0
LINE
  5
2C8
100
AcDbEntity
  8
IMPORT_IGES
100
AcDbLine
 62
250
  6
CONTINUOUS
 10
-58.726682038
 20
-11.0712169808
 11
-58.7105318634
 21
-11.3611637787
  0
LINE
  5
2C9
100
AcDbEntity
  8
IMPORT_IGES
100
AcDbLine
 62
7
  6
CONTINUOUS
 10
-58.1965087397
 20
-11.2585011523
 11
-58.1836575684
 21
-11.505615201
  0
LINE
  5
2CA
100
AcDbEntity
  8
IMPORT_IGES
100
AcDbLine
 62
250
  6
CONTINUOUS
 10
-58.2453617196
 20
-10.8486684054
 11
-58.2661869992
 21
-10.4384285047
  0
LINE
  5
2CB
100
AcDbEntity
  8
IMPORT_IGES
100
AcDbLine
 62
250
  6
CONTINUOUS
 10
-58.7105318634
 20
-11.3611637787
 11
-58.6981393921
 21
-11.6108995562
  0
LINE
  5
2CC
100
AcDbEntity
  8
IMPORT_IGES
100
AcDbLine
 62
7
  6
CONTINUOUS
 10
-58.1836575684
 20
-11.505615201
 11
-58.1729907271
 21
-11.73229843
  0
LINE
  5
2CD
100
AcDbEntity
  8
IMPORT_IGES
100
AcDbLine
 62
250
  6
CONTINUOUS
 10
-58.2219824183
 20
-11.3680639351
 11
-58.2453617196
 21
-10.8486684054
  0
LINE
  5
2CE
100
AcDbEntity
  8
IMPORT_IGES
100
AcDbLine
 62
7
  6
CONTINUOUS
 10
-58.6822183928
 20
-11.9848790906
 11
-58.6821989113
 21
-11.9853407471
  0
LINE
  5
2CF
100
AcDbEntity
  8
IMPORT_IGES
100
AcDbLine
 62
250
  6
CONTINUOUS
 10
-58.6981393921
 20
-11.6108995562
 11
-58.6875507885
 21
-11.8520831254
  0
LINE
  5
2D0
100
AcDbEntity
  8
IMPORT_IGES
100
AcDbLine
 62
7
  6
CONTINUOUS
 10
-58.1729907271
 20
-11.73229843
 11
-58.1644127666
 21
-11.9357956799
  0
LINE
  5
2D1
100
AcDbEntity
  8
IMPORT_IGES
100
AcDbLine
 62
250
  6
CONTINUOUS
 10
-58.6875507885
 20
-11.8520831254
 11
-58.6822183928
 21
-11.9848790906
  0
LINE
  5
2D2
100
AcDbEntity
  8
IMPORT_IGES
100
AcDbLine
 62
250
  6
CONTINUOUS
 10
-58.204141743
 20
-11.8152704119
 11
-58.2219824183
 21
-11.3680639351
  0
LINE
  5
2D3
100
AcDbEntity
  8
IMPORT_IGES
100
AcDbLine
 62
7
  6
CONTINUOUS
 10
-58.1644127666
 20
-11.9357956799
 11
-58.1551082468
 21
-12.1912328653
  0
LINE
  5
2D4
100
AcDbEntity
  8
IMPORT_IGES
100
AcDbLine
 62
250
  6
CONTINUOUS
 10
-58.1921125056
 20
-12.1599534238
 11
-58.204141743
 21
-11.8152704119
  0
LINE
  5
2D5
100
AcDbEntity
  8
IMPORT_IGES
100
AcDbLine
 62
7
  6
CONTINUOUS
 10
-58.1551082468
 20
-12.1912328653
 11
-58.1457264365
 21
-12.4999955
  0
LINE
  5
2D6
100
AcDbEntity
  8
IMPORT_IGES
100
AcDbLine
 62
250
  6
CONTINUOUS
 10
-58.1921125056
 20
-12.1599534238
 11
-58.1834497803
 21
-12.4499752452
  0
LINE
  5
2D7
100
AcDbEntity
  8
IMPORT_IGES
100
AcDbLine
 62
7
  6
CONTINUOUS
 10
-59.2387496143
 20
23.749965
 11
-59.2387496143
 21
2.9234190784
  0
LINE
  5
2D8
100
AcDbEntity
  8
IMPORT_IGES
100
AcDbLine
 62
7
  6
CONTINUOUS
 10
-58.4292070221
 20
-8.4999955
 11
-58.4285301044
 21
-8.5049387375
  0
LWPOLYLINE
  5
2D9
100
AcDbEntity
  8
IMPORT_IGES
100
AcDbPolyline
 62
250
  6
CONTINUOUS
 90
19
 70
0
 10
-58.6834426495
 20
-11.9533991724
 10
-58.678838241
 20
-11.9939761206
 10
-58.6708068695
 20
-12.0339690074
 10
-58.6594837862
 20
-12.0729143621
 10
-58.6452418707
 20
-12.1100280524
 10
-58.6282832267
 20
-12.1453026872
 10
-58.6083102319
 20
-12.1794420252
 10
-58.5853052542
 20
-12.2122741414
 10
-58.5595719515
 20
-12.2432409551
 10
-58.5310046853
 20
-12.2723605506
 10
-58.4997730527
 20
-12.2993107574
 10
-58.4662025711
 20
-12.3237177975
 10
-58.4303727254
 20
-12.3454458826
 10
-58.3927538406
 20
-12.3641557166
 10
-58.3536424956
 20
-12.3796925272
 10
-58.3128510566
 20
-12.3920639256
 10
-58.2706332454
 20
-12.4010634351
 10
-58.2277041963
 20
-12.4064654436
 10
-58.1845924119
 20
-12.4082125419
  0
LINE
  5
2DA
100
AcDbEntity
  8
IMPORT_IGES
100
AcDbLine
 62
7
  6
CONTINUOUS
 10
-58.4285301044
 20
-8.5049387375
 11
-58.4092359237
 21
-8.6748350419
  0
LWPOLYLINE
  5
2DB
100
AcDbEntity
  8
IMPORT_IGES
100
AcDbPolyline
 62
250
  6
CONTINUOUS
 90
28
 70
0
 10
-54.0823017392
 20
-24.0262168324
 10
-54.0604307847
 20
-24.2435325532
 10
-54.0264554757
 20
-24.458682578
 10
-53.9803758121
 20
-24.6716669067
 10
-53.9219816324
 20
-24.8831415192
 10
-53.8514830981
 20
-25.0924504357
 10
-53.7695106942
 20
-25.2976257165
 10
-53.6760826357
 20
-25.498603229
 10
-53.5711807075
 20
-25.6954471058
 10
-53.4553807485
 20
-25.8863818046
 10
-53.3284965443
 20
-26.0716166748
 10
-53.1907143094
 20
-26.2509423671
 10
-53.0431685263
 20
-26.4219552906
 10
-52.885740228
 20
-26.584395082
 10
-52.7185483816
 20
-26.7385221046
 10
-52.5430843707
 20
-26.8827138574
 10
-52.3590048892
 20
-27.0168151992
 10
-52.1666532432
 20
-27.1409812712
 10
-51.9685507357
 20
-27.2540549968
 10
-51.765004467
 20
-27.3558093443
 10
-51.5557073366
 20
-27.4464713455
 10
-51.3422593465
 20
-27.5255650191
 10
-51.1245087896
 20
-27.5931641204
 10
-50.9026073729
 20
-27.6491948942
 10
-50.6786102184
 20
-27.6929600937
 10
-50.4532023667
 20
-27.7242273034
 10
-50.2256987771
 20
-27.7432289388
 10
-49.9960994496
 20
-27.749965
  0
LINE
  5
2DC
100
AcDbEntity
  8
IMPORT_IGES
100
AcDbLine
 62
250
  6
CONTINUOUS
 10
-56.946363372
 20
2.5674583599
 11
-55.0568342593
 21
-24.0952797906
  0
LINE
  5
2DD
100
AcDbEntity
  8
IMPORT_IGES
100
AcDbLine
 62
250
  6
CONTINUOUS
 10
-56.9460534093
 20
2.5674542975
 11
-56.9460534093
 21
23.749965
  0
LINE
  5
2DE
100
AcDbEntity
  8
IMPORT_IGES
100
AcDbLine
 62
250
  6
CONTINUOUS
 10
-55.9693856849
 20
2.6020180926
 11
-55.9693856849
 21
23.749965
  0
LINE
  5
2DF
100
AcDbEntity
  8
IMPORT_IGES
100
AcDbLine
 62
250
  6
CONTINUOUS
 10
-55.9693856849
 20
2.6020180926
 11
-54.0823017392
 21
-24.0262168324
  0
LWPOLYLINE
  5
2E0
100
AcDbEntity
  8
IMPORT_IGES
100
AcDbPolyline
 62
7
  6
CONTINUOUS
 90
73
 70
0
 10
-58.4230258924
 20
-8.5527248273
 10
-58.433552093
 20
-8.5535238088
 10
-58.4469845849
 20
-8.5549096628
 10
-58.4603316841
 20
-8.5566516372
 10
-58.4735759601
 20
-8.5587435963
 10
-58.4867181737
 20
-8.5611818582
 10
-58.4997424272
 20
-8.5639597702
 10
-58.5126328506
 20
-8.5670696257
 10
-58.5253913044
 20
-8.5705076474
 10
-58.5380035376
 20
-8.5742659068
 10
-58.5504553337
 20
-8.5783355024
 10
-58.5627494321
 20
-8.5827127865
 10
-58.5748732587
 20
-8.5873889063
 10
-58.5868142595
 20
-8.5923541028
 10
-58.598575788
 20
-8.5976049918
 10
-58.610146909
 20
-8.6031320986
 10
-58.6215166795
 20
-8.6089250914
 10
-58.632688792
 20
-8.6149808905
 10
-58.6436538682
 20
-8.6212896447
 10
-58.6544024881
 20
-8.627840677
 10
-58.6649384272
 20
-8.6346311683
 10
-58.6752537598
 20
-8.6416510804
 10
-58.6853404863
 20
-8.6488895637
 10
-58.6952022509
 20
-8.6563439475
 10
-58.7048331929
 20
-8.6640047322
 10
-58.7142258841
 20
-8.6718604726
 10
-58.7233816043
 20
-8.6799066126
 10
-58.7322966688
 20
-8.6881343963
 10
-58.7409641794
 20
-8.696531467
 10
-58.7493809789
 20
-8.7050882549
 10
-58.7575421054
 20
-8.7137927214
 10
-58.7654454254
 20
-8.7226350992
 10
-58.7730924583
 20
-8.7316095261
 10
-58.7804808475
 20
-8.7407055339
 10
-58.7876084839
 20
-8.7499123039
 10
-58.794477387
 20
-8.7592240098
 10
-58.8010865361
 20
-8.7686306544
 10
-58.8074349655
 20
-8.778121693
 10
-58.8135249112
 20
-8.7876909879
 10
-58.8193565159
 20
-8.7973290105
 10
-58.8249299672
 20
-8.8070257058
 10
-58.8302477506
 20
-8.8167746011
 10
-58.8353110848
 20
-8.8265667364
 10
-58.8401212242
 20
-8.8363926442
 10
-58.8446809469
 20
-8.8462455101
 10
-58.848992536
 20
-8.8561172195
 10
-58.8530581333
 20
-8.8659987978
 10
-58.856880646
 20
-8.8758825344
 10
-58.8604639993
 20
-8.8857631272
 10
-58.8638104428
 20
-8.895630289
 10
-58.8669212675
 20
-8.9054691761
 10
-58.8698013431
 20
-8.9152746689
 10
-58.8724545222
 20
-8.9250379133
 10
-58.8748822716
 20
-8.9347388631
 10
-58.8770904979
 20
-8.9443721383
 10
-58.8790848634
 20
-8.9539311809
 10
-58.8808685177
 20
-8.9633947866
 10
-58.8824487173
 20
-8.9727596598
 10
-58.8838321601
 20
-8.9820196404
 10
-58.8850233896
 20
-8.9911501054
 10
-58.8860313313
 20
-9.0001549694
 10
-58.8868630256
 20
-9.0090237086
 10
-58.88752361
 20
-9.0177114858
 10
-58.8880238731
 20
-9.0262313281
 10
-58.8883723689
 20
-9.0345673633
 10
-58.8885771587
 20
-9.0426343432
 10
-58.888651617
 20
-9.0505260919
 10
-58.8886053969
 20
-9.0581512369
 10
-58.88846061
 20
-9.0651569112
 10
-58.8882427763
 20
-9.0715554486
 10
-58.8879746326
 20
-9.0773581731
 10
-58.8876980694
 20
-9.0822254018
 10
-58.8874622869
 20
-9.0858412448
  0
LINE
  5
2E1
100
AcDbEntity
  8
IMPORT_IGES
100
AcDbLine
 62
250
  6
CONTINUOUS
 10
-51.872605696
 20
27.749965
 11
-51.872605696
 21
28.749965
  0
LINE
  5
2E2
100
AcDbEntity
  8
IMPORT_IGES
100
AcDbLine
 62
250
  6
CONTINUOUS
 10
-49.9960994496
 20
-28.749965
 11
-49.9960994496
 21
-27.749965
  0
LWPOLYLINE
  5
2E3
100
AcDbEntity
  8
0
100
AcDbPolyline
 62
7
  6
CONTINUOUS
 90
4
 70
0
 43
0.3500000006
 10
-45.8511061707
 20
44.2497775269
 10
-45.8511061707
 20
44.8926355133
 10
-44.3511057129
 20
44.8926355133
 10
-45.2082481842
 20
41.8926345978
  0
LWPOLYLINE
  5
2E4
100
AcDbEntity
  8
IMPORT_IGES
100
AcDbPolyline
 62
7
  6
CONTINUOUS
 90
25
 70
0
 10
-59.238749611
 20
2.9234118394
 10
-59.2362652667
 20
2.9235202183
 10
-59.2290024402
 20
2.9222289097
 10
-59.2167256207
 20
2.918500356
 10
-59.1991769352
 20
2.9115256405
 10
-59.1761296673
 20
2.90211368
 10
-59.146973611
 20
2.8916475949
 10
-59.1113235227
 20
2.8807345054
 10
-59.068771434
 20
2.8687672912
 10
-59.0182790812
 20
2.8553077121
 10
-58.9590821696
 20
2.8402201805
 10
-58.8907814859
 20
2.823640284
 10
-58.812651741
 20
2.8055365451
 10
-58.7241264118
 20
2.7854950132
 10
-58.6247605046
 20
2.763929639
 10
-58.5140072573
 20
2.7420507972
 10
-58.391617082
 20
2.7199162776
 10
-58.2571783826
 20
2.6974682904
 10
-58.1099057306
 20
2.6757438411
 10
-57.9496445122
 20
2.6549110829
 10
-57.7762886914
 20
2.6348018626
 10
-57.5891313407
 20
2.6159487256
 10
-57.3880480376
 20
2.5985291871
 10
-57.1736144219
 20
2.5823657318
 10
-56.946363372
 20
2.5674583599
  0
LINE
  5
2E5
100
AcDbEntity
  8
IMPORT_IGES
100
AcDbLine
 62
7
  6
CONTINUOUS
 10
-55.9693856849
 20
2.6020180926
 11
-56.946363372
 21
2.5674583599
  0
LINE
  5
2E6
100
AcDbEntity
  8
IMPORT_IGES
100
AcDbLine
 62
7
  6
CONTINUOUS
 10
-42.5348876988
 20
-28.749965
 11
-42.5348876988
 21
28.749965
  0
LINE
  5
2E7
100
AcDbEntity
  8
IMPORT_IGES
100
AcDbLine
 62
7
  6
CONTINUOUS
 10
-42.0348876988
 20
-28.749965
 11
-42.0348876988
 21
28.749965
  0
LINE
  5
2E8
100
AcDbEntity
  8
IMPORT_IGES
100
AcDbLine
 62
250
  6
CONTINUOUS
 10
-41.8348876988
 20
-20.5060038123
 11
-41.8348876988
 21
-20.0060038123
  0
LINE
  5
2E9
100
AcDbEntity
  8
IMPORT_IGES
100
AcDbLine
 62
250
  6
CONTINUOUS
 10
-41.8348876988
 20
19.9939961877
 11
-41.8348876988
 21
20.4939961877
  0
LINE
  5
2EA
100
AcDbEntity
  8
IMPORT_IGES
100
AcDbLine
 62
250
  6
CONTINUOUS
 10
-37.7348876988
 20
20.4939961877
 11
-37.7348876988
 21
19.9939961877
  0
LINE
  5
2EB
100
AcDbEntity
  8
IMPORT_IGES
100
AcDbLine
 62
250
  6
CONTINUOUS
 10
-37.7348876988
 20
-20.0060038123
 11
-37.7348876988
 21
-20.5060038123
  0
LINE
  5
2EC
100
AcDbEntity
  8
IMPORT_IGES
100
AcDbLine
 62
7
  6
CONTINUOUS
 10
-37.5348876988
 20
-28.749965
 11
-37.5348876988
 21
28.749965
  0
LINE
  5
2ED
100
AcDbEntity
  8
IMPORT_IGES
100
AcDbLine
 62
7
  6
CONTINUOUS
 10
-36.5348876988
 20
-27.749965
 11
-36.5348876988
 21
27.749965
  0
LINE
  5
2EE
100
AcDbEntity
  8
IMPORT_IGES
100
AcDbLine
 62
7
  6
CONTINUOUS
 10
-41.8348876988
 20
19.9939961877
 11
-37.7348876988
 21
19.9939961877
  0
LINE
  5
2EF
100
AcDbEntity
  8
IMPORT_IGES
100
AcDbLine
 62
250
  6
CONTINUOUS
 10
-37.5348876988
 20
20.1939961877
 11
-42.0348876988
 21
20.1939961877
  0
LINE
  5
2F0
100
AcDbEntity
  8
IMPORT_IGES
100
AcDbLine
 62
250
  6
CONTINUOUS
 10
-42.0348876988
 20
20.2939961877
 11
-37.5348876988
 21
20.2939961877
  0
LINE
  5
2F1
100
AcDbEntity
  8
IMPORT_IGES
100
AcDbLine
 62
7
  6
CONTINUOUS
 10
-37.7348876988
 20
20.4939961877
 11
-41.8348876988
 21
20.4939961877
  0
LWPOLYLINE
  5
2F2
100
AcDbEntity
  8
0
100
AcDbPolyline
 62
7
  6
CONTINUOUS
 90
10
 70
0
 43
0.3500000006
 10
-46.9225331268
 20
42.3926347504
 10
-46.8511064758
 20
42.2497769165
 10
-46.8511064758
 20
42.1783502655
 10
-46.9939597778
 20
42.0354924316
 10
-47.0653909607
 20
42.0354924316
 10
-47.1368176117
 20
42.1069190826
 10
-47.1368176117
 20
42.1783502655
 10
-47.0653909607
 20
42.3212080994
 10
-46.9939597778
 20
42.3926347504
 10
-46.9225331268
 20
42.3926347504
  0
LINE
  5
2F3
100
AcDbEntity
  8
IMPORT_IGES
100
AcDbLine
 62
250
  6
CONTINUOUS
 10
-59.2387919427
 20
23.749965
 11
-55.9693856849
 21
23.749965
  0
LINE
  5
2F4
100
AcDbEntity
  8
IMPORT_IGES
100
AcDbLine
 62
7
  6
CONTINUOUS
 10
-37.5348876988
 20
-28.749965
 11
-36.5348876988
 21
-27.749965
  0
LWPOLYLINE
  5
2F5
100
AcDbEntity
  8
IMPORT_IGES
100
AcDbPolyline
 62
250
  6
CONTINUOUS
 90
28
 70
0
 10
-51.872605696
 20
27.749965
 10
-52.1141069221
 20
27.7425037
 10
-52.3531458232
 20
27.7215388803
 10
-52.5897223996
 20
27.6870705408
 10
-52.8246313391
 20
27.6388192634
 10
-53.0570779538
 20
27.5770644661
 10
-53.2846781797
 20
27.5026444038
 10
-53.5072684154
 20
27.4156303774
 10
-53.7250122625
 20
27.3159510859
 10
-53.9360164609
 20
27.2042308808
 10
-54.1405837501
 20
27.0802100857
 10
-54.3384113906
 20
26.944148377
 10
-54.5266979048
 20
26.7974491356
 10
-54.7050483649
 20
26.6398981849
 10
-54.8738576986
 20
26.4717097016
 10
-55.0315092117
 20
26.2949295958
 10
-55.1778379296
 20
26.1092520959
 10
-55.3130088268
 20
25.9149829735
 10
-55.435900132
 20
25.7150854538
 10
-55.5462881589
 20
25.5098404759
 10
-55.6443965937
 20
25.2989671006
 10
-55.7297747236
 20
25.0845857355
 10
-55.8024360139
 20
24.8666219078
 10
-55.8623669992
 20
24.6451500902
 10
-55.9090765699
 20
24.4225141081
 10
-55.9424010228
 20
24.1994952366
 10
-55.9625040612
 20
23.9753122006
 10
-55.9693856849
 20
23.749965
  0
LWPOLYLINE
  5
2F6
100
AcDbEntity
  8
IMPORT_IGES
100
AcDbPolyline
 62
7
  6
CONTINUOUS
 90
31
 70
0
 10
-54.238792456
 20
28.749965
 10
-54.5021185596
 20
28.7430261202
 10
-54.7656397609
 20
28.7221307117
 10
-55.0281345982
 20
28.6872657671
 10
-55.2879380095
 20
28.6386553564
 10
-55.5442877635
 20
28.5765250256
 10
-55.7973535715
 20
28.5008477382
 10
-56.0460327438
 20
28.4119261675
 10
-56.2892151518
 20
28.3102024913
 10
-56.5270840443
 20
28.1956056312
 10
-56.7586843935
 20
28.0685461823
 10
-56.9829559173
 20
27.9296259289
 10
-57.1998864427
 20
27.7788507954
 10
-57.4085474608
 20
27.6168308264
 10
-57.6080795789
 20
27.444271721
 10
-57.798492171
 20
27.2611664405
 10
-57.9789693226
 20
27.0682588954
 10
-58.1487769951
 20
26.8663760816
 10
-58.3079197742
 20
26.6555113782
 10
-58.4557014889
 20
26.4365380709
 10
-58.5915270925
 20
26.2103913091
 10
-58.7153936803
 20
25.9770792117
 10
-58.8267109738
 20
25.7376771818
 10
-58.9250837323
 20
25.4931431165
 10
-59.0105865226
 20
25.2432757871
 10
-59.0827903391
 20
24.9891906047
 10
-59.1414038403
 20
24.732002218
 10
-59.1864510813
 20
24.4715393396
 10
-59.217715578
 20
24.2085714616
 10
-59.2349954825
 20
23.9447742071
 10
-59.2387919862
 20
23.749965
  0
LWPOLYLINE
  5
2F7
100
AcDbEntity
  8
IMPORT_IGES
100
AcDbPolyline
 62
250
  6
CONTINUOUS
 90
58
 70
0
 10
-51.872605696
 20
28.749965
 10
-52.0118792766
 20
28.7480267506
 10
-52.1515264296
 20
28.7422015103
 10
-52.2914525759
 20
28.7324740823
 10
-52.4316764895
 20
28.7188170815
 10
-52.5719819585
 20
28.7012233239
 10
-52.7119225312
 20
28.6797377341
 10
-52.8513727269
 20
28.6543817376
 10
-52.9902593472
 20
28.625168111
 10
-53.1282219855
 20
28.5921795535
 10
-53.2650846797
 20
28.5554770629
 10
-53.400832531
 20
28.5150807437
 10
-53.535352131
 20
28.471034838
 10
-53.668546803
 20
28.4233794863
 10
-53.8003225624
 20
28.3721539984
 10
-53.9305710689
 20
28.3174038409
 10
-54.0592118461
 20
28.2591630752
 10
-54.1861359221
 20
28.197478179
 10
-54.3111951466
 20
28.1324187285
 10
-54.4343703473
 20
28.0639880208
 10
-54.5554953238
 20
27.9922684327
 10
-54.6742176057
 20
27.9174744263
 10
-54.7904618848
 20
27.8396714119
 10
-54.9041528591
 20
27.7589250615
 10
-55.0149690879
 20
27.6754924445
 10
-55.1226651952
 20
27.5896141825
 10
-55.2273880815
 20
27.50122756
 10
-55.3294012006
 20
27.410126579
 10
-55.4285686429
 20
27.3164280158
 10
-55.5248935458
 20
27.2201324058
 10
-55.6188068001
 20
27.1208215156
 10
-55.7104277824
 20
27.018337408
 10
-55.7994727809
 20
26.9129610837
 10
-55.8857453369
 20
26.8049150309
 10
-55.9692226349
 20
26.6942212867
 10
-56.0497911515
 20
26.581018944
 10
-56.1271570279
 20
26.4657385717
 10
-56.2012044505
 20
26.3486073168
 10
-56.2719773106
 20
26.2296071282
 10
-56.3394478051
 20
26.1088190982
 10
-56.4035756269
 20
25.9863437033
 10
-56.4643223246
 20
25.8622780711
 10
-56.5216599971
 20
25.7366951791
 10
-56.5755491146
 20
25.6096888507
 10
-56.6259486534
 20
25.4813566452
 10
-56.672825568
 20
25.3517745682
 10
-56.7161498344
 20
25.2210018753
 10
-56.7558681501
 20
25.0891653573
 10
-56.7919184144
 20
24.9564430719
 10
-56.8242877954
 20
24.8228405961
 10
-56.8529188442
 20
24.6885380644
 10
-56.8777192911
 20
24.5539831191
 10
-56.8986840476
 20
24.419296185
 10
-56.9158169533
 20
24.2845485086
 10
-56.9290939051
 20
24.150121275
 10
-56.9385352113
 20
24.0162038855
 10
-56.9441788764
 20
23.8827897531
 10
-56.9460534093
 20
23.749965
  0
LINE
  5
2F8
100
AcDbEntity
  8
IMPORT_IGES
100
AcDbLine
 62
7
  6
CONTINUOUS
 10
-42.0348876988
 20
27.5999650592
 11
-42.5348876988
 21
27.5999650592
  0
LINE
  5
2F9
100
AcDbEntity
  8
IMPORT_IGES
100
AcDbLine
 62
250
  6
CONTINUOUS
 10
-51.872605696
 20
27.749965
 11
-42.5348876988
 21
27.749965
  0
LINE
  5
2FA
100
AcDbEntity
  8
IMPORT_IGES
100
AcDbLine
 62
7
  6
CONTINUOUS
 10
-42.5348876988
 20
27.7499650592
 11
-42.0348876988
 21
27.7499650592
  0
LINE
  5
2FB
100
AcDbEntity
  8
IMPORT_IGES
100
AcDbLine
 62
250
  6
CONTINUOUS
 10
-42.0348876988
 20
27.749965
 11
-36.5348876988
 21
27.749965
  0
LINE
  5
2FC
100
AcDbEntity
  8
IMPORT_IGES
100
AcDbLine
 62
7
  6
CONTINUOUS
 10
-37.5348876988
 20
28.749965
 11
-42.0348876988
 21
28.749965
  0
LINE
  5
2FD
100
AcDbEntity
  8
IMPORT_IGES
100
AcDbLine
 62
7
  6
CONTINUOUS
 10
-42.5348876988
 20
28.749965
 11
-54.2388552262
 21
28.7499649996
  0
LWPOLYLINE
  5
2FE
100
AcDbEntity
  8
0
100
AcDbPolyline
 62
7
  6
CONTINUOUS
 90
7
 70
0
 43
0.3500000006
 10
-48.4225335846
 20
41.8926345978
 10
-49.9225340424
 20
41.8926345978
 10
-48.4225335846
 20
44.035493042
 10
-48.4225335846
 20
44.4640620117
 10
-48.8511025543
 20
44.8926355133
 10
-49.4939605408
 20
44.8926355133
 10
-49.9225340424
 20
44.2497775269
  0
LWPOLYLINE
  5
2FF
100
AcDbEntity
  8
0
100
AcDbPolyline
 62
7
  6
CONTINUOUS
 90
7
 70
0
 43
0.3500000006
 10
-50.7796765137
 20
41.8926345978
 10
-52.2796769714
 20
41.8926345978
 10
-50.7796765137
 20
44.035493042
 10
-50.7796765137
 20
44.4640620117
 10
-51.2082454834
 20
44.8926355133
 10
-51.8511034698
 20
44.8926355133
 10
-52.2796769714
 20
44.2497775269
  0
LINE
  5
300
100
AcDbEntity
  8
IMPORT_IGES
100
AcDbLine
 62
7
  6
CONTINUOUS
 10
-36.5348876988
 20
27.749965
 11
-37.5348876988
 21
28.749965
  0
CIRCLE
  5
301
100
AcDbEntity
  8
IMPORT_IGES
100
AcDbCircle
 62
7
  6
CONTINUOUS
 10
-0.15
 20
-10.4999955
 40
2.0
  0
CIRCLE
  5
302
100
AcDbEntity
  8
IMPORT_IGES
100
AcDbCircle
 62
7
  6
CONTINUOUS
 10
-0.15
 20
-10.4999955
 40
1.95
  0
ARC
  5
303
100
AcDbEntity
  8
IMPORT_IGES
100
AcDbCircle
 62
7
  6
CONTINUOUS
 10
16.34997
 20
27.749965
 40
1.0
100
AcDbArc
 50
0.0
 51
90.0
  0
ARC
  5
304
100
AcDbEntity
  8
IMPORT_IGES
100
AcDbCircle
 62
7
  6
CONTINUOUS
 10
16.34997
 20
-27.749965
 40
1.0
100
AcDbArc
 50
270.0
 51
360.0
  0
ARC
  5
305
100
AcDbEntity
  8
IMPORT_IGES
100
AcDbCircle
 62
7
  6
CONTINUOUS
 10
-16.64997
 20
-27.749965
 40
1.0
100
AcDbArc
 50
180.0
 51
270.0
  0
ARC
  5
306
100
AcDbEntity
  8
IMPORT_IGES
100
AcDbCircle
 62
7
  6
CONTINUOUS
 10
-16.64997
 20
27.749965
 40
1.0
100
AcDbArc
 50
90.0
 51
180.0
  0
ARC
  5
307
100
AcDbEntity
  8
IMPORT_IGES
100
AcDbCircle
 62
7
  6
CONTINUOUS
 10
17.44997
 20
20.1939961877
 40
0.2
100
AcDbArc
 50
270.0
 51
360.0
  0
ARC
  5
308
100
AcDbEntity
  8
IMPORT_IGES
100
AcDbCircle
 62
7
  6
CONTINUOUS
 10
17.44997
 20
20.2939961877
 40
0.2
100
AcDbArc
 50
0.0
 51
90.0
  0
ARC
  5
309
100
AcDbEntity
  8
IMPORT_IGES
100
AcDbCircle
 62
7
  6
CONTINUOUS
 10
17.44997
 20
-20.2060038123
 40
0.2
100
AcDbArc
 50
0.0
 51
90.0
  0
ARC
  5
30A
100
AcDbEntity
  8
IMPORT_IGES
100
AcDbCircle
 62
7
  6
CONTINUOUS
 10
17.44997
 20
-20.3060038123
 40
0.2
100
AcDbArc
 50
270.0
 51
360.0
  0
ARC
  5
30B
100
AcDbEntity
  8
IMPORT_IGES
100
AcDbCircle
 62
7
  6
CONTINUOUS
 10
-37.7348876988
 20
20.2939961877
 40
0.2
100
AcDbArc
 50
0.0
 51
90.0
  0
ARC
  5
30C
100
AcDbEntity
  8
IMPORT_IGES
100
AcDbCircle
 62
7
  6
CONTINUOUS
 10
-41.8348876988
 20
20.1939961877
 40
0.2
100
AcDbArc
 50
180.0
 51
270.0
  0
ARC
  5
30D
100
AcDbEntity
  8
IMPORT_IGES
100
AcDbCircle
 62
7
  6
CONTINUOUS
 10
-41.8348876988
 20
20.2939961877
 40
0.2
100
AcDbArc
 50
90.0
 51
180.0
  0
ARC
  5
30E
100
AcDbEntity
  8
IMPORT_IGES
100
AcDbCircle
 62
7
  6
CONTINUOUS
 10
-37.7348876988
 20
20.1939961877
 40
0.2
100
AcDbArc
 50
270.0
 51
360.0
  0
ARC
  5
30F
100
AcDbEntity
  8
IMPORT_IGES
100
AcDbCircle
 62
7
  6
CONTINUOUS
 10
-37.7348876988
 20
-20.2060038123
 40
0.2
100
AcDbArc
 50
0.0
 51
90.0
  0
ARC
  5
310
100
AcDbEntity
  8
IMPORT_IGES
100
AcDbCircle
 62
7
  6
CONTINUOUS
 10
-41.8348876988
 20
-20.2060038123
 40
0.2
100
AcDbArc
 50
90.0
 51
180.0
  0
ARC
  5
311
100
AcDbEntity
  8
IMPORT_IGES
100
AcDbCircle
 62
7
  6
CONTINUOUS
 10
-41.8348876988
 20
-20.3060038123
 40
0.2
100
AcDbArc
 50
180.0
 51
270.0
  0
ARC
  5
312
100
AcDbEntity
  8
IMPORT_IGES
100
AcDbCircle
 62
7
  6
CONTINUOUS
 10
-37.7348876988
 20
-20.3060038123
 40
0.2
100
AcDbArc
 50
270.0
 51
360.0
  0
ENDSEC
  0
SECTION
  2
OBJECTS
  0
DICTIONARY
  5
C
100
AcDbDictionary
280
0
281
1
  3
ACAD_GROUP
350
D
  3
ACAD_MLINESTYLE
350
17
  3
ACAD_LAYOUT
350
1A
  3
ACAD_PLOTSETTINGS
350
19
  3
ACAD_PLOTSTYLENAME
350
E
  0
DICTIONARY
  5
D
102
{ACAD_REACTORS
330
C
102
}
100
AcDbDictionary
280
0
281
1
  0
ACDBDICTIONARYWDFLT
  5
E
102
{ACAD_REACTORS
330
C
102
}
100
AcDbDictionary
281
1
  3
Normal
350
F
100
AcDbDictionaryWithDefault
340
F
  0
DICTIONARY
  5
17
102
{ACAD_REACTORS
330
C
102
}
100
AcDbDictionary
280
0
281
1
  3
Standard
350
18
  0
DICTIONARY
  5
19
102
{ACAD_REACTORS
330
C
102
}
100
AcDbDictionary
281
1
  0
DICTIONARY
  5
1A
102
{ACAD_REACTORS
330
C
102
}
100
AcDbDictionary
281
1
  3
Model
350
313
  3
Layout1
350
314
  0
ACDBPLACEHOLDER
  5
F
102
{ACAD_REACTORS
330
E
102
}
  0
MLINESTYLE
  5
18
102
{ACAD_REACTORS
330
17
102
}
100
AcDbMlineStyle
  2
STANDARD
 70
0
  3

 62
256
 51
90.0
 52
90.0
 71
2
 49
0.5
 62
256
  6
BYLAYER
 49
-0.5
 62
256
  6
BYLAYER
  0
LAYOUT
  5
313
102
{ACAD_REACTORS
330
1A
102
}
100
AcDbPlotSettings
  1

  2
none_device
  4
ISO_A4_(297.00_x_210.00_MM)
  6

 40
0.0
 41
0.0
 42
0.0
 43
0.0
 44
297.0
 45
210.0
 46
0.0
 47
0.0
 48
0.0
 49
0.0
140
0.0
141
0.0
142
1.0
143
1.0
 70
1024
 72
1
 73
0
 74
0
  7

 75
0
147
1.0
148
0.0
149
0.0
100
AcDbLayout
  1
Model
 70
0
 71
0
 10
0.0
 20
0.0
 11
297.0
 21
210.0
 12
0.0
 22
0.0
 32
0.0
 14
0.0
 24
0.0
 34
0.0
 15
0.0
 25
0.0
 35
0.0
146
0.0
 13
0.0
 23
0.0
 33
0.0
 16
1.0
 26
0.0
 36
0.0
 17
0.0
 27
1.0
 37
0.0
 76
0
330
20E
345
0
346
0
  0
LAYOUT
  5
314
102
{ACAD_REACTORS
330
1A
102
}
100
AcDbPlotSettings
  1

  2
none_device
  4
ISO_A4_(297.00_x_210.00_MM)
  6

 40
0.0
 41
0.0
 42
0.0
 43
0.0
 44
297.0
 45
210.0
 46
0.0
 47
0.0
 48
0.0
 49
0.0
140
0.0
141
0.0
142
1.0
143
1.0
 70
0
 72
1
 73
0
 74
0
  7

 75
0
147
1.0
148
0.0
149
0.0
100
AcDbLayout
  1
Layout1
 70
0
 71
1
 10
0.0
 20
0.0
 11
297.0
 21
210.0
 12
0.0
 22
0.0
 32
0.0
 14
0.0
 24
0.0
 34
0.0
 15
0.0
 25
0.0
 35
0.0
146
0.0
 13
0.0
 23
0.0
 33
0.0
 16
1.0
 26
0.0
 36
0.0
 17
0.0
 27
1.0
 37
0.0
 76
0
330
20F
345
0
346
0
  0
ENDSEC
  0
EOF
