  0
SECTION
  2
HEADER
  9
$ACADVER
  1
AC1024
  9
$DWGCODEPAGE
  3
ANSI_1252
  9
$EXTMAX
 10
297.0
 20
210.0
 30
0.0
  9
$EXTMIN
 10
0.0
 20
0.0
 30
0.0
  9
$LIMMIN
 10
0.0
 20
0.0
  9
$LIMMAX
 10
297.0
 20
210.0
  9
$VIEWCTR
 10
148.5
 20
105.0
  9
$VIEWSIZE
 40
210.0
  9
$CLAYER
  8
0
  9
$LTSCALE
 40
16.335
  9
$CELTYPE
  6
BYLAYER
  9
$DIMSCALE
 40
1.0
  9
$DIMASZ
 40
3.0
  9
$DIMEXO
 40
0.5
  9
$DIMDLI
 40
11.286
  9
$DIMEXE
 40
1.5
  9
$DIMCEN
 40
2.673
  9
$DIMLFAC
 40
1.0
  9
$DIMBLK
  1
_FILLED
  9
$DIMALT
 70
0
  9
$DIMALTF
 40
0.0393700787
  9
$DIMTXT
 40
3.0
  9
$DIMTOL
 70
1
  9
$DIMLIM
 70
0
  9
$DIMTFAC
 40
1.0
  9
$DIMTP
 40
0.01
  9
$DIMTM
 40
0.01
  9
$DIMGAP
 40
0.625
  9
$DIMDSEP
 70
44
  9
$AUNITS
 70
0
  9
$PDMODE
 70
3
  9
$PDSIZE
 40
3.0
  9
$HANDSEED
  5
53A
  9
$TILEMODE
 70
1
  9
$MEASUREMENT
 70
1
  9
$INSUNITS
 70
4
  0
ENDSEC
  0
SECTION
  2
CLASSES
  0
CLASS
  1
ACDBDICTIONARYWDFLT
  2
AcDbDictionaryWithDefault
  3
AutoCAD 2000
 90
0
 91
1
280
0
281
0
  0
CLASS
  1
ACDBPLACEHOLDER
  2
AcDbPlaceHolder
  3
AutoCAD 2000
 90
0
 91
1
280
0
281
0
  0
CLASS
  1
LAYOUT
  2
AcDbLayout
  3
AutoCAD 2000
 90
0
 91
0
280
0
281
0
  0
ENDSEC
  0
SECTION
  2
TABLES
  0
TABLE
  2
VPORT
  5
8
100
AcDbSymbolTable
 70
2
  0
VPORT
  5
1F4
100
AcDbSymbolTableRecord
100
AcDbViewportTableRecord
  2
*ACTIVE
 70
0
 10
0.0
 20
0.0
 11
1.0
 21
1.0
 12
148.5
 22
105.0
 13
0.0
 23
0.0
 14
1.0
 24
1.0
 15
0.0
 25
0.0
 16
0.0
 26
0.0
 36
1.0
 17
0.0
 27
0.0
 37
0.0
 40
210.0
 41
1.4142857143
 42
50.0
 43
0.0
 44
0.0
 50
0.0
 51
0.0
 71
0
 72
100
 73
1
 74
1
 75
0
 76
0
 77
0
 78
0
  0
ENDTAB
  0
TABLE
  2
LTYPE
  5
5
100
AcDbSymbolTable
 70
6
  0
LTYPE
  5
14
100
AcDbSymbolTableRecord
100
AcDbLinetypeTableRecord
  2
BYBLOCK
 70
0
  3

 72
65
 73
0
 40
0.0
  0
LTYPE
  5
15
100
AcDbSymbolTableRecord
100
AcDbLinetypeTableRecord
  2
BYLAYER
 70
0
  3

 72
65
 73
0
 40
0.0
  0
LTYPE
  5
16
100
AcDbSymbolTableRecord
100
AcDbLinetypeTableRecord
  2
CONTINUOUS
 70
64
  3
Solid line
 72
65
 73
0
 40
0.0
  0
LTYPE
  5
1F5
100
AcDbSymbolTableRecord
100
AcDbLinetypeTableRecord
  2
CENTER
 70
64
  3
____ _ ____ _ ____ _ ____ _ ____ _ ____ _ ____
 72
65
 73
4
 40
0.6
 49
0.375
 74
0
 49
-0.075
 74
0
 49
0.075
 74
0
 49
-0.075
 74
0
  0
LTYPE
  5
1F6
100
AcDbSymbolTableRecord
100
AcDbLinetypeTableRecord
  2
HIDDEN
 70
64
  3
- - - - - - - - - - - - - - - - - - - -
 72
65
 73
2
 40
0.2
 49
0.1
 74
0
 49
-0.1
 74
0
  0
LTYPE
  5
1F7
100
AcDbSymbolTableRecord
100
AcDbLinetypeTableRecord
  2
PHANTOM
 70
64
  3
_____ _ _ _____ _ _ _____ _ _ _____
 72
65
 73
6
 40
0.8
 49
0.45
 74
0
 49
-0.05
 74
0
 49
0.1
 74
0
 49
-0.05
 74
0
 49
0.1
 74
0
 49
-0.05
 74
0
  0
LTYPE
  5
1F8
100
AcDbSymbolTableRecord
100
AcDbLinetypeTableRecord
  2
DOT
 70
64
  3
. . . . . . . . . . . . . . . . . . . .
 72
65
 73
2
 40
0.2
 49
0.1
 74
0
 49
-0.1
 74
0
  0
LTYPE
  5
1F9
100
AcDbSymbolTableRecord
100
AcDbLinetypeTableRecord
  2
DASHED
 70
64
  3
- - - - - - - - - - - - - - - - - - - -
 72
65
 73
2
 40
0.2
 49
0.1
 74
0
 49
-0.1
 74
0
  0
ENDTAB
  0
TABLE
  2
LAYER
  5
2
100
AcDbSymbolTable
 70
36
  0
LAYER
  5
10
100
AcDbSymbolTableRecord
100
AcDbLayerTableRecord
  2
0
 70
0
 62
7
  6
CONTINUOUS
370
-3
390
F
  0
LAYER
  5
1FA
100
AcDbSymbolTableRecord
100
AcDbLayerTableRecord
  2
DEFAULT_1
 70
0
 62
7
  6
CENTER
370
-3
390
F
  0
LAYER
  5
1FB
100
AcDbSymbolTableRecord
100
AcDbLayerTableRecord
  2
DEFAULT_2
 70
0
 62
7
  6
HIDDEN
370
-3
390
F
  0
LAYER
  5
1FC
100
AcDbSymbolTableRecord
100
AcDbLayerTableRecord
  2
DEFAULT_3
 70
0
 62
7
  6
PHANTOM
370
-3
390
F
  0
LAYER
  5
1FD
100
AcDbSymbolTableRecord
100
AcDbLayerTableRecord
  2
ASSI
 70
0
 62
7
  6
CONTINUOUS
370
-3
390
F
  0
LAYER
  5
1FE
100
AcDbSymbolTableRecord
100
AcDbLayerTableRecord
  2
B4B-PH-K-S
 70
0
 62
7
  6
CONTINUOUS
370
-3
390
F
  0
LAYER
  5
1FF
100
AcDbSymbolTableRecord
100
AcDbLayerTableRecord
  2
BASE-DT-23-04-2019
 70
0
 62
7
  6
CONTINUOUS
370
-3
390
F
  0
LAYER
  5
200
100
AcDbSymbolTableRecord
100
AcDbLayerTableRecord
  2
BATTERIA_LITIO
 70
0
 62
7
  6
CONTINUOUS
370
-3
390
F
  0
LAYER
  5
201
100
AcDbSymbolTableRecord
100
AcDbLayerTableRecord
  2
CAPACITOR_0603
 70
0
 62
7
  6
CONTINUOUS
370
-3
390
F
  0
LAYER
  5
202
100
AcDbSymbolTableRecord
100
AcDbLayerTableRecord
  2
CAPACITOR_0603_1
 70
0
 62
7
  6
CONTINUOUS
370
-3
390
F
  0
LAYER
  5
203
100
AcDbSymbolTableRecord
100
AcDbLayerTableRecord
  2
CAPACITOR_0603_2
 70
0
 62
7
  6
CONTINUOUS
370
-3
390
F
  0
LAYER
  5
204
100
AcDbSymbolTableRecord
100
AcDbLayerTableRecord
  2
CAPACITOR_0603_3
 70
0
 62
7
  6
CONTINUOUS
370
-3
390
F
  0
LAYER
  5
205
100
AcDbSymbolTableRecord
100
AcDbLayerTableRecord
  2
CAPACITOR_0603_4
 70
0
 62
7
  6
CONTINUOUS
370
-3
390
F
  0
LAYER
  5
206
100
AcDbSymbolTableRecord
100
AcDbLayerTableRecord
  2
CAPACITOR_0603_5
 70
0
 62
7
  6
CONTINUOUS
370
-3
390
F
  0
LAYER
  5
207
100
AcDbSymbolTableRecord
100
AcDbLayerTableRecord
  2
CLIP_BATTERIA
 70
0
 62
7
  6
CONTINUOUS
370
-3
390
F
  0
LAYER
  5
208
100
AcDbSymbolTableRecord
100
AcDbLayerTableRecord
  2
CLIP_BATTERIA_1
 70
0
 62
7
  6
CONTINUOUS
370
-3
390
F
  0
LAYER
  5
209
100
AcDbSymbolTableRecord
100
AcDbLayerTableRecord
  2
CLIP_BATTERIA_2
 70
0
 62
7
  6
CONTINUOUS
370
-3
390
F
  0
LAYER
  5
20A
100
AcDbSymbolTableRecord
100
AcDbLayerTableRecord
  2
COLOR4
 70
0
 62
7
  6
CONTINUOUS
370
-3
390
F
  0
LAYER
  5
20B
100
AcDbSymbolTableRecord
100
AcDbLayerTableRecord
  2
COLOR43
 70
0
 62
7
  6
CONTINUOUS
370
-3
390
F
  0
LAYER
  5
20C
100
AcDbSymbolTableRecord
100
AcDbLayerTableRecord
  2
COLOR58
 70
0
 62
7
  6
CONTINUOUS
370
-3
390
F
  0
LAYER
  5
20D
100
AcDbSymbolTableRecord
100
AcDbLayerTableRecord
  2
COLOR64
 70
0
 62
7
  6
CONTINUOUS
370
-3
390
F
  0
LAYER
  5
20E
100
AcDbSymbolTableRecord
100
AcDbLayerTableRecord
  2
COLOR65
 70
0
 62
7
  6
CONTINUOUS
370
-3
390
F
  0
LAYER
  5
20F
100
AcDbSymbolTableRecord
100
AcDbLayerTableRecord
  2
COLOR68
 70
0
 62
7
  6
CONTINUOUS
370
-3
390
F
  0
LAYER
  5
210
100
AcDbSymbolTableRecord
100
AcDbLayerTableRecord
  2
COLOR69
 70
0
 62
7
  6
CONTINUOUS
370
-3
390
F
  0
LAYER
  5
211
100
AcDbSymbolTableRecord
100
AcDbLayerTableRecord
  2
COLOR72
 70
0
 62
7
  6
CONTINUOUS
370
-3
390
F
  0
LAYER
  5
212
100
AcDbSymbolTableRecord
100
AcDbLayerTableRecord
  2
COLOR73
 70
0
 62
7
  6
CONTINUOUS
370
-3
390
F
  0
LAYER
  5
213
100
AcDbSymbolTableRecord
100
AcDbLayerTableRecord
  2
COLOR74
 70
0
 62
7
  6
CONTINUOUS
370
-3
390
F
  0
LAYER
  5
214
100
AcDbSymbolTableRecord
100
AcDbLayerTableRecord
  2
COORDINATE
 70
0
 62
7
  6
CONTINUOUS
370
-3
390
F
  0
LAYER
  5
215
100
AcDbSymbolTableRecord
100
AcDbLayerTableRecord
  2
COPERTURA_LENTE-AGGIORNATAMARCO
 70
0
 62
7
  6
CONTINUOUS
370
-3
390
F
  0
LAYER
  5
216
100
AcDbSymbolTableRecord
100
AcDbLayerTableRecord
  2
COPY_PUBLISH
 70
0
 62
7
  6
CONTINUOUS
370
-3
390
F
  0
LAYER
  5
217
100
AcDbSymbolTableRecord
100
AcDbLayerTableRecord
  2
COSMETICI
 70
0
 62
7
  6
CONTINUOUS
370
-3
390
F
  0
LAYER
  5
218
100
AcDbSymbolTableRecord
100
AcDbLayerTableRecord
  2
COVER-DT-23-04-2019
 70
0
 62
7
  6
CONTINUOUS
370
-3
390
F
  0
LAYER
  5
219
100
AcDbSymbolTableRecord
100
AcDbLayerTableRecord
  2
CURVE
 70
0
 62
7
  6
CONTINUOUS
370
-3
390
F
  0
LAYER
  5
21A
100
AcDbSymbolTableRecord
100
AcDbLayerTableRecord
  2
DADO_QUADRO_M3
 70
0
 62
7
  6
CONTINUOUS
370
-3
390
F
  0
LAYER
  5
21B
100
AcDbSymbolTableRecord
100
AcDbLayerTableRecord
  2
DOPPIAT-PORTASENSORE
 70
0
 62
7
  6
CONTINUOUS
370
-3
390
F
  0
LAYER
  5
21C
100
AcDbSymbolTableRecord
100
AcDbLayerTableRecord
  2
DRAFT
 70
0
 62
7
  6
CONTINUOUS
370
-3
390
F
  0
LAYER
  5
21D
100
AcDbSymbolTableRecord
100
AcDbLayerTableRecord
  2
GUIDALUCE-FOTODIODO
 70
0
 62
7
  6
CONTINUOUS
370
-3
390
F
  0
LAYER
  5
21E
100
AcDbSymbolTableRecord
100
AcDbLayerTableRecord
  2
GUIDALUCE-TRASMETTITORE
 70
0
 62
7
  6
CONTINUOUS
370
-3
390
F
  0
LAYER
  5
21F
100
AcDbSymbolTableRecord
100
AcDbLayerTableRecord
  2
IMPORT_IGES
 70
0
 62
7
  6
CONTINUOUS
370
-3
390
F
  0
LAYER
  5
220
100
AcDbSymbolTableRecord
100
AcDbLayerTableRecord
  2
LENTE_REV02
 70
0
 62
7
  6
CONTINUOUS
370
-3
390
F
  0
LAYER
  5
221
100
AcDbSymbolTableRecord
100
AcDbLayerTableRecord
  2
LIGHT-PIPE
 70
0
 62
7
  6
CONTINUOUS
370
-3
390
F
  0
LAYER
  5
222
100
AcDbSymbolTableRecord
100
AcDbLayerTableRecord
  2
MICROONDA-MICROWAVE
 70
0
 62
7
  6
CONTINUOUS
370
-3
390
F
  0
LAYER
  5
223
100
AcDbSymbolTableRecord
100
AcDbLayerTableRecord
  2
MICROONDA-ROMA
 70
0
 62
7
  6
CONTINUOUS
370
-3
390
F
  0
LAYER
  5
224
100
AcDbSymbolTableRecord
100
AcDbLayerTableRecord
  2
MICROSW-PTS-5232R
 70
0
 62
7
  6
CONTINUOUS
370
-3
390
F
  0
LAYER
  5
225
100
AcDbSymbolTableRecord
100
AcDbLayerTableRecord
  2
MOLLA_DOPPIA
 70
0
 62
7
  6
CONTINUOUS
370
-3
390
F
  0
LAYER
  5
226
100
AcDbSymbolTableRecord
100
AcDbLayerTableRecord
  2
MORSETTIERA-PXC_1751303_04_MKDS
 70
0
 62
7
  6
CONTINUOUS
370
-3
390
F
  0
LAYER
  5
227
100
AcDbSymbolTableRecord
100
AcDbLayerTableRecord
  2
NOTE
 70
0
 62
7
  6
CONTINUOUS
370
-3
390
F
  0
LAYER
  5
228
100
AcDbSymbolTableRecord
100
AcDbLayerTableRecord
  2
P441_03835_03836_RIVELATORE_IR_
 70
0
 62
7
  6
CONTINUOUS
370
-3
390
F
  0
LAYER
  5
229
100
AcDbSymbolTableRecord
100
AcDbLayerTableRecord
  2
PCB-IN263-R1
 70
0
 62
7
  6
CONTINUOUS
370
-3
390
F
  0
LAYER
  5
22A
100
AcDbSymbolTableRecord
100
AcDbLayerTableRecord
  2
PCB-IN263R1
 70
0
 62
7
  6
CONTINUOUS
370
-3
390
F
  0
LAYER
  5
22B
100
AcDbSymbolTableRecord
100
AcDbLayerTableRecord
  2
PIANI
 70
0
 62
7
  6
CONTINUOUS
370
-3
390
F
  0
LAYER
  5
22C
100
AcDbSymbolTableRecord
100
AcDbLayerTableRecord
  2
PULSANTE-KSC421J70SHLFS
 70
0
 62
7
  6
CONTINUOUS
370
-3
390
F
  0
LAYER
  5
22D
100
AcDbSymbolTableRecord
100
AcDbLayerTableRecord
  2
PULSANTE-KSC421J70SHLFS_1
 70
0
 62
7
  6
CONTINUOUS
370
-3
390
F
  0
LAYER
  5
22E
100
AcDbSymbolTableRecord
100
AcDbLayerTableRecord
  2
PUNTI
 70
0
 62
7
  6
CONTINUOUS
370
-3
390
F
  0
LAYER
  5
22F
100
AcDbSymbolTableRecord
100
AcDbLayerTableRecord
  2
RACCORDO
 70
0
 62
7
  6
CONTINUOUS
370
-3
390
F
  0
LAYER
  5
230
100
AcDbSymbolTableRecord
100
AcDbLayerTableRecord
  2
SENSORE
 70
0
 62
7
  6
CONTINUOUS
370
-3
390
F
  0
LAYER
  5
231
100
AcDbSymbolTableRecord
100
AcDbLayerTableRecord
  2
SIMBOLI
 70
0
 62
7
  6
CONTINUOUS
370
-3
390
F
  0
LAYER
  5
232
100
AcDbSymbolTableRecord
100
AcDbLayerTableRecord
  2
SMUSSO
 70
0
 62
7
  6
CONTINUOUS
370
-3
390
F
  0
LAYER
  5
233
100
AcDbSymbolTableRecord
100
AcDbLayerTableRecord
  2
SOIC-8
 70
0
 62
7
  6
CONTINUOUS
370
-3
390
F
  0
LAYER
  5
234
100
AcDbSymbolTableRecord
100
AcDbLayerTableRecord
  2
STRIP2
 70
0
 62
7
  6
CONTINUOUS
370
-3
390
F
  0
LAYER
  5
235
100
AcDbSymbolTableRecord
100
AcDbLayerTableRecord
  2
STRIP2X4
 70
0
 62
7
  6
CONTINUOUS
370
-3
390
F
  0
LAYER
  5
236
100
AcDbSymbolTableRecord
100
AcDbLayerTableRecord
  2
STRIP2_1
 70
0
 62
7
  6
CONTINUOUS
370
-3
390
F
  0
LAYER
  5
237
100
AcDbSymbolTableRecord
100
AcDbLayerTableRecord
  2
STRIP2_2
 70
0
 62
7
  6
CONTINUOUS
370
-3
390
F
  0
LAYER
  5
238
100
AcDbSymbolTableRecord
100
AcDbLayerTableRecord
  2
STRIP2_3
 70
0
 62
7
  6
CONTINUOUS
370
-3
390
F
  0
LAYER
  5
239
100
AcDbSymbolTableRecord
100
AcDbLayerTableRecord
  2
SUPERFICI
 70
0
 62
7
  6
CONTINUOUS
370
-3
390
F
  0
LAYER
  5
23A
100
AcDbSymbolTableRecord
100
AcDbLayerTableRecord
  2
SUPPORTO_MICROONDA-MICROWAVE
 70
0
 62
7
  6
CONTINUOUS
370
-3
390
F
  0
LAYER
  5
23B
100
AcDbSymbolTableRecord
100
AcDbLayerTableRecord
  2
SUPPORTO_MICROONDA-MICROWAVE_1
 70
0
 62
7
  6
CONTINUOUS
370
-3
390
F
  0
LAYER
  5
23C
100
AcDbSymbolTableRecord
100
AcDbLayerTableRecord
  2
TRASH
 70
0
 62
7
  6
CONTINUOUS
370
-3
390
F
  0
LAYER
  5
23D
100
AcDbSymbolTableRecord
100
AcDbLayerTableRecord
  2
VITE2_9X6_5SP
 70
0
 62
7
  6
CONTINUOUS
370
-3
390
F
  0
LAYER
  5
23E
100
AcDbSymbolTableRecord
100
AcDbLayerTableRecord
  2
VITEM3XCON_INCASSO
 70
0
 62
7
  6
CONTINUOUS
370
-3
390
F
  0
LAYER
  5
23F
100
AcDbSymbolTableRecord
100
AcDbLayerTableRecord
  2
XIR200NEW-01-10-2019
 70
0
 62
7
  6
CONTINUOUS
370
-3
390
F
  0
LAYER
  5
240
100
AcDbSymbolTableRecord
100
AcDbLayerTableRecord
  2
_KSC41J_PIN
 70
0
 62
7
  6
CONTINUOUS
370
-3
390
F
  0
LAYER
  5
241
100
AcDbSymbolTableRecord
100
AcDbLayerTableRecord
  2
_KSC41J_PIN_1
 70
0
 62
7
  6
CONTINUOUS
370
-3
390
F
  0
LAYER
  5
242
100
AcDbSymbolTableRecord
100
AcDbLayerTableRecord
  2
_KSC41J_PIN_2
 70
0
 62
7
  6
CONTINUOUS
370
-3
390
F
  0
LAYER
  5
243
100
AcDbSymbolTableRecord
100
AcDbLayerTableRecord
  2
_KSC41J_PIN_3
 70
0
 62
7
  6
CONTINUOUS
370
-3
390
F
  0
LAYER
  5
244
100
AcDbSymbolTableRecord
100
AcDbLayerTableRecord
  2
_KSC41J_PIN_4
 70
0
 62
7
  6
CONTINUOUS
370
-3
390
F
  0
LAYER
  5
245
100
AcDbSymbolTableRecord
100
AcDbLayerTableRecord
  2
_KSC41J_PIN_5
 70
0
 62
7
  6
CONTINUOUS
370
-3
390
F
  0
LAYER
  5
246
100
AcDbSymbolTableRecord
100
AcDbLayerTableRecord
  2
_KSC41J_PIN_6
 70
0
 62
7
  6
CONTINUOUS
370
-3
390
F
  0
LAYER
  5
247
100
AcDbSymbolTableRecord
100
AcDbLayerTableRecord
  2
_KSC41J_PIN_7
 70
0
 62
7
  6
CONTINUOUS
370
-3
390
F
  0
LAYER
  5
248
100
AcDbSymbolTableRecord
100
AcDbLayerTableRecord
  2
_KSC4_-_BODY
 70
0
 62
7
  6
CONTINUOUS
370
-3
390
F
  0
LAYER
  5
249
100
AcDbSymbolTableRecord
100
AcDbLayerTableRecord
  2
_KSC4_-_BODY_1
 70
0
 62
7
  6
CONTINUOUS
370
-3
390
F
  0
LAYER
  5
24A
100
AcDbSymbolTableRecord
100
AcDbLayerTableRecord
  2
_KSC4_-_COVER
 70
0
 62
7
  6
CONTINUOUS
370
-3
390
F
  0
LAYER
  5
24B
100
AcDbSymbolTableRecord
100
AcDbLayerTableRecord
  2
_KSC4_-_COVER_1
 70
0
 62
7
  6
CONTINUOUS
370
-3
390
F
  0
LAYER
  5
24C
100
AcDbSymbolTableRecord
100
AcDbLayerTableRecord
  2
_KSC4__-_BUTTON
 70
0
 62
7
  6
CONTINUOUS
370
-3
390
F
  0
LAYER
  5
24D
100
AcDbSymbolTableRecord
100
AcDbLayerTableRecord
  2
_KSC4__-_BUTTON_1
 70
0
 62
7
  6
CONTINUOUS
370
-3
390
F
  0
LAYER
  5
24E
100
AcDbSymbolTableRecord
100
AcDbLayerTableRecord
  2
___SHELL
 70
0
 62
7
  6
CONTINUOUS
370
-3
390
F
  0
ENDTAB
  0
TABLE
  2
STYLE
  5
3
100
AcDbSymbolTable
 70
1
  0
STYLE
  5
11
100
AcDbSymbolTableRecord
100
AcDbTextStyleTableRecord
  2
STANDARD
 70
0
 40
0.0
 41
0.8
 50
0.0
 71
0
 42
0.2
  3
txt
  4

  0
STYLE
  5
24F
100
AcDbSymbolTableRecord
100
AcDbTextStyleTableRecord
  2
TEXTSTYLE_1
 70
0
 40
0.0
 41
0.8
 50
0.0
 71
0
 42
0.2
  3
gdt
  4

  0
ENDTAB
  0
TABLE
  2
VIEW
  5
6
100
AcDbSymbolTable
 70
0
  0
ENDTAB
  0
TABLE
  2
UCS
  5
7
100
AcDbSymbolTable
 70
0
  0
ENDTAB
  0
TABLE
  2
APPID
  5
9
100
AcDbSymbolTable
 70
1
  0
APPID
  5
250
100
AcDbSymbolTableRecord
100
AcDbRegAppTableRecord
  2
ACAD
 70
0
  0
ENDTAB
  0
TABLE
  2
BLOCK_RECORD
  5
1
100
AcDbSymbolTable
 70
0
  0
BLOCK_RECORD
  5
251
100
AcDbSymbolTableRecord
100
AcDbBlockTableRecord
  2
*Model_Space
  0
BLOCK_RECORD
  5
252
100
AcDbSymbolTableRecord
100
AcDbBlockTableRecord
  2
*Paper_Space
  0
BLOCK_RECORD
  5
253
100
AcDbSymbolTableRecord
100
AcDbBlockTableRecord
  2
_FILLED
  0
BLOCK_RECORD
  5
254
100
AcDbSymbolTableRecord
100
AcDbBlockTableRecord
  2
*D0
  0
BLOCK_RECORD
  5
255
100
AcDbSymbolTableRecord
100
AcDbBlockTableRecord
  2
*D1
  0
BLOCK_RECORD
  5
256
100
AcDbSymbolTableRecord
100
AcDbBlockTableRecord
  2
*D2
  0
ENDTAB
  0
TABLE
  2
DIMSTYLE
  5
A
100
AcDbSymbolTable
 70
1
100
AcDbDimStyleTable
 71
0
  0
DIMSTYLE
105
257
100
AcDbSymbolTableRecord
100
AcDbDimStyleTableRecord
  2
STANDARD
 70
0
  3

  4

 40
1.0
 41
3.0
 42
0.5
 43
0.38
 44
1.5
 45
0.0
 46
0.0
 47
0.01
 48
0.01
140
3.0
141
0.09
142
0.0
143
25.4
144
1.0
145
0.0
146
1.0
147
0.625
 71
1
 72
0
 73
0
 74
0
 75
0
 76
0
 77
1
 78
8
 79
2
170
0
171
1
172
0
173
0
174
0
175
0
176
0
177
0
178
0
270
2
179
2
271
2
272
2
273
2
274
2
275
0
280
0
281
0
282
0
283
1
284
8
285
0
286
0
287
3
288
0
340
11
278
44
341
253
342
253
343
253
344
253
  0
DIMSTYLE
105
258
100
AcDbSymbolTableRecord
100
AcDbDimStyleTableRecord
  2
DIMSTYLE_1
 70
0
  3

  4

 40
1.0
 41
3.0
 42
0.5
 43
0.38
 44
1.5
 45
0.0
 46
0.0
 47
0.0
 48
0.0
140
3.0
141
0.09
142
0.0
143
25.4
144
1.0
145
0.0
146
1.0
147
0.75
 71
0
 72
0
 73
0
 74
0
 75
0
 76
0
 77
1
 78
8
 79
2
170
0
171
1
172
0
173
0
174
0
175
0
176
0
177
0
178
0
270
2
179
2
271
1
272
1
273
2
274
2
275
0
280
0
281
0
282
0
283
1
284
8
285
0
286
0
287
3
288
0
340
11
278
44
341
253
342
253
343
253
344
253
  0
ENDTAB
  0
ENDSEC
  0
SECTION
  2
BLOCKS
  0
BLOCK
  5
20
100
AcDbEntity
  8
0
100
AcDbBlockBegin
  2
*Model_Space
 70
0
 10
0.0
 20
0.0
 30
0.0
  3
*Model_Space
  1

  0
ENDBLK
  5
21
100
AcDbEntity
  8
0
100
AcDbBlockEnd
  0
BLOCK
  5
1C
100
AcDbEntity
  8
0
100
AcDbBlockBegin
  2
*Paper_Space
 70
0
 10
0.0
 20
0.0
 30
0.0
  3
*Paper_Space
  1

  0
ENDBLK
  5
1D
100
AcDbEntity
  8
0
100
AcDbBlockEnd
  0
BLOCK
  5
259
100
AcDbEntity
  8
0
100
AcDbBlockBegin
  2
_FILLED
 70
64
 10
0.0
 20
0.0
  3
_FILLED
  1

  0
SOLID
  5
25A
100
AcDbEntity
  8
0
  6
BYBLOCK
 62
0
100
AcDbTrace
 10
0.0
 20
0.0
 11
-1.0
 21
0.3166666667
 12
-1.0
 22
-0.3166666667
 13
-1.0
 23
-0.3166666667
  0
ENDBLK
  5
25B
100
AcDbEntity
  8
0
  6
BYBLOCK
 62
0
100
AcDbBlockEnd
  0
BLOCK
  5
25C
100
AcDbEntity
  8
0
100
AcDbBlockBegin
 62
7
  6
CONTINUOUS
  2
*D0
 70
65
 10
0.0
 20
0.0
  3
*D0
  1

  0
LINE
  5
25D
100
AcDbEntity
  8
0
100
AcDbLine
 62
7
  6
CONTINUOUS
 10
30.1146427054
 20
55.4892333967
 11
30.1146427054
 21
78.9796086003
  0
LINE
  5
25E
100
AcDbEntity
  8
0
100
AcDbLine
 62
7
  6
CONTINUOUS
 10
-30.1146427072
 20
55.489233338
 11
-30.1146427072
 21
78.9796086003
  0
LINE
  5
25F
100
AcDbEntity
  8
0
100
AcDbLine
 62
7
  6
CONTINUOUS
 10
30.1146427054
 20
77.4796086003
 11
-0.0000000009
 21
77.4796086003
  0
LINE
  5
260
100
AcDbEntity
  8
0
100
AcDbLine
 62
7
  6
CONTINUOUS
 10
-30.1146427072
 20
77.4796086003
 11
-0.0000000009
 21
77.4796086003
  0
INSERT
  5
261
100
AcDbEntity
  8
0
100
AcDbBlockReference
 62
7
  6
CONTINUOUS
  2
_FILLED
 10
30.1146427054
 20
77.4796086003
 41
3.0
 42
3.0
 43
3.0
 50
0.0
  0
INSERT
  5
262
100
AcDbEntity
  8
0
100
AcDbBlockReference
 62
7
  6
CONTINUOUS
  2
_FILLED
 10
-30.1146427072
 20
77.4796086003
 41
3.0
 42
3.0
 43
3.0
 50
180.0
  0
ENDBLK
  5
263
100
AcDbEntity
  8
0
  6
BYBLOCK
 62
0
100
AcDbBlockEnd
  0
BLOCK
  5
264
100
AcDbEntity
  8
0
100
AcDbBlockBegin
 62
7
  6
CONTINUOUS
  2
*D1
 70
65
 10
0.0
 20
0.0
  3
*D1
  1

  0
LINE
  5
265
100
AcDbEntity
  8
0
100
AcDbLine
 62
7
  6
CONTINUOUS
 10
0.4999999991
 20
60.2533578464
 11
50.68895803
 21
60.2533578464
  0
LINE
  5
266
100
AcDbEntity
  8
0
100
AcDbLine
 62
7
  6
CONTINUOUS
 10
0.6483827634
 20
-60.2251125694
 11
50.68895803
 21
-60.2251125694
  0
LINE
  5
267
100
AcDbEntity
  8
0
100
AcDbLine
 62
7
  6
CONTINUOUS
 10
49.18895803
 20
60.2533578464
 11
49.18895803
 21
0.0141226385
  0
LINE
  5
268
100
AcDbEntity
  8
0
100
AcDbLine
 62
7
  6
CONTINUOUS
 10
49.18895803
 20
-60.2251125694
 11
49.18895803
 21
0.0141226385
  0
INSERT
  5
269
100
AcDbEntity
  8
0
100
AcDbBlockReference
 62
7
  6
CONTINUOUS
  2
_FILLED
 10
49.18895803
 20
60.2533578464
 41
3.0
 42
3.0
 43
3.0
 50
90.0
  0
INSERT
  5
26A
100
AcDbEntity
  8
0
100
AcDbBlockReference
 62
7
  6
CONTINUOUS
  2
_FILLED
 10
49.18895803
 20
-60.2251125694
 41
3.0
 42
3.0
 43
3.0
 50
270.0
  0
ENDBLK
  5
26B
100
AcDbEntity
  8
0
  6
BYBLOCK
 62
0
100
AcDbBlockEnd
  0
BLOCK
  5
26C
100
AcDbEntity
  8
0
100
AcDbBlockBegin
 62
7
  6
CONTINUOUS
  2
*D2
 70
65
 10
0.0
 20
0.0
  3
*D2
  1

  0
LINE
  5
26D
100
AcDbEntity
  8
0
100
AcDbLine
 62
7
  6
CONTINUOUS
 10
-63.472401957
 20
-28.3723302232
 11
-63.472401957
 21
79.930320985
  0
LINE
  5
26E
100
AcDbEntity
  8
0
100
AcDbLine
 62
7
  6
CONTINUOUS
 10
-111.1152775352
 20
-19.7996813624
 11
-111.1152775352
 21
79.930320985
  0
LINE
  5
26F
100
AcDbEntity
  8
0
100
AcDbLine
 62
7
  6
CONTINUOUS
 10
-63.472401957
 20
78.430320985
 11
-87.2938397461
 21
78.430320985
  0
LINE
  5
270
100
AcDbEntity
  8
0
100
AcDbLine
 62
7
  6
CONTINUOUS
 10
-111.1152775352
 20
78.430320985
 11
-87.2938397461
 21
78.430320985
  0
INSERT
  5
271
100
AcDbEntity
  8
0
100
AcDbBlockReference
 62
7
  6
CONTINUOUS
  2
_FILLED
 10
-63.472401957
 20
78.430320985
 41
3.0
 42
3.0
 43
3.0
  0
INSERT
  5
272
100
AcDbEntity
  8
0
100
AcDbBlockReference
 62
7
  6
CONTINUOUS
  2
_FILLED
 10
-111.1152775352
 20
78.430320985
 41
3.0
 42
3.0
 43
3.0
 50
180.0
  0
ENDBLK
  5
273
100
AcDbEntity
  8
0
  6
BYBLOCK
 62
0
100
AcDbBlockEnd
  0
ENDSEC
  0
SECTION
  2
ENTITIES
  0
DIMENSION
  5
274
100
AcDbEntity
  8
0
100
AcDbDimension
 62
7
  6
CONTINUOUS
  2
*D0
 10
-30.1146427072
 20
77.4796086003
 11
-4.3928571438
 21
77.4796086003
 70
160
 71
2
 72
2
 41
0.9
 42
60.2292854127
  3
DIMSTYLE_1
100
AcDbAlignedDimension
 13
30.1146427054
 23
54.9892333967
 14
-30.1146427072
 24
54.989233338
 50
180.0
100
AcDbRotatedDimension
  0
DIMENSION
  5
275
100
AcDbEntity
  8
0
100
AcDbDimension
 62
7
  6
CONTINUOUS
  2
*D1
 10
49.18895803
 20
-60.2251125694
 11
49.18895803
 21
-5.1287345043
 70
160
 71
2
 72
2
 41
0.9
 42
120.4784704158
  3
DIMSTYLE_1
100
AcDbAlignedDimension
 13
-0.0000000009
 23
60.2533578464
 14
0.1483827634
 24
-60.2251125694
 50
270.0
100
AcDbRotatedDimension
  0
DIMENSION
  5
276
100
AcDbEntity
  8
0
100
AcDbDimension
 62
7
  6
CONTINUOUS
  2
*D2
 10
-111.1152775352
 20
78.430320985
 11
-91.686696889
 21
78.430320985
 70
160
 71
2
 72
2
 41
0.9
 42
47.6428755782
  3
DIMSTYLE_1
100
AcDbAlignedDimension
 13
-63.472401957
 23
-28.8723302232
 14
-111.1152775352
 24
-20.2996813624
 50
180.0
100
AcDbRotatedDimension
  0
LWPOLYLINE
  5
277
100
AcDbEntity
  8
IMPORT_IGES
100
AcDbPolyline
 62
250
  6
CONTINUOUS
 90
8
 70
0
 10
-30.0638010932
 20
54.862731489
 10
-30.0511837518
 20
54.8684428235
 10
-30.0270450308
 20
54.8774228162
 10
-29.9915867036
 20
54.8893383736
 10
-29.9451605744
 20
54.9036856704
 10
-29.888115678
 20
54.9203420905
 10
-29.8206595552
 20
54.939567658
 10
-29.743258362
 20
54.9610924411
  0
LWPOLYLINE
  5
278
100
AcDbEntity
  8
0
100
AcDbPolyline
 62
7
  6
CONTINUOUS
 90
10
 70
0
 43
0.3500000006
 10
-3.3214284925
 20
81.2296129761
 10
-3.9642856293
 20
80.5867504578
 10
-4.3928571482
 20
79.7296125183
 10
-4.3928571482
 20
78.6581810303
 10
-3.9642856293
 20
78.2296120605
 10
-3.3214284925
 20
78.2296120605
 10
-2.8928572569
 20
78.6581810303
 10
-2.8928572569
 20
79.5153189697
 10
-3.3214284925
 20
79.9438970032
 10
-4.2499998808
 20
79.9438970032
  0
LWPOLYLINE
  5
279
100
AcDbEntity
  8
IMPORT_IGES
100
AcDbPolyline
 62
7
  6
CONTINUOUS
 90
5
 70
0
 10
1.3628383497
 20
-60.1444971053
 10
1.2887401795
 20
-60.1648655892
 10
1.198300675
 20
-60.1880061857
 10
1.1109873954
 20
-60.2080885125
 10
1.0268003406
 20
-60.2251125694
  0
LINE
  5
27A
100
AcDbEntity
  8
IMPORT_IGES
100
AcDbLine
 62
7
  6
CONTINUOUS
 10
0.7331035476
 20
-60.2080884869
 11
0.7794326054
 21
-60.1977417114
  0
LINE
  5
27B
100
AcDbEntity
  8
IMPORT_IGES
100
AcDbLine
 62
7
  6
CONTINUOUS
 10
0.6467055347
 20
-60.2251125694
 11
0.7331035476
 21
-60.2080884869
  0
LWPOLYLINE
  5
27C
100
AcDbEntity
  8
IMPORT_IGES
100
AcDbPolyline
 62
7
  6
CONTINUOUS
 90
20
 70
0
 10
1.0268003406
 20
-60.2251125694
 10
1.0033392598
 20
-60.2296130866
 10
0.9811394054
 20
-60.2336969935
 10
0.960233152
 20
-60.2373642902
 10
0.9408227668
 20
-60.2405888378
 10
0.9227144697
 20
-60.2433967752
 10
0.9054130887
 20
-60.2458665186
 10
0.8888649554
 20
-60.2480376028
 10
0.8733029011
 20
-60.249870493
 10
0.8587557224
 20
-60.2513250012
 10
0.8452685288
 20
-60.2523995734
 10
0.8329884207
 20
-60.2530957637
 10
0.8220752446
 20
-60.2533780453
 10
0.8125764489
 20
-60.2532296186
 10
0.8045517415
 20
-60.2526672833
 10
0.7980989615
 20
-60.2517059119
 10
0.7932292433
 20
-60.2503405241
 10
0.7899102715
 20
-60.2485761001
 10
0.7881328789
 20
-60.2464424536
 10
0.7878622971
 20
-60.2455488686
  0
LINE
  5
27D
100
AcDbEntity
  8
IMPORT_IGES
100
AcDbLine
 62
7
  6
CONTINUOUS
 10
1.2259962967
 20
-58.8174663823
 11
2.2360631064
 21
-58.8010449847
  0
LINE
  5
27E
100
AcDbEntity
  8
IMPORT_IGES
100
AcDbLine
 62
7
  6
CONTINUOUS
 10
0.6951021045
 20
-58.8230310516
 11
1.2259962967
 21
-58.8174663823
  0
LINE
  5
27F
100
AcDbEntity
  8
IMPORT_IGES
100
AcDbLine
 62
7
  6
CONTINUOUS
 10
0.2799099584
 20
-58.825341941
 11
0.6951021045
 21
-58.8230310516
  0
LINE
  5
280
100
AcDbEntity
  8
IMPORT_IGES
100
AcDbLine
 62
7
  6
CONTINUOUS
 10
1.4304118338
 20
-59.3339278289
 11
2.999999999
 21
-59.3339303386
  0
LINE
  5
281
100
AcDbEntity
  8
IMPORT_IGES
100
AcDbLine
 62
7
  6
CONTINUOUS
 10
0.7632486443
 20
-59.3339278306
 11
-3.0000000008
 21
-59.3339303386
  0
LINE
  5
282
100
AcDbEntity
  8
IMPORT_IGES
100
AcDbLine
 62
7
  6
CONTINUOUS
 10
0.801663035
 20
-58.9695219005
 11
1.3496123253
 21
-58.9695219005
  0
LINE
  5
283
100
AcDbEntity
  8
IMPORT_IGES
100
AcDbLine
 62
7
  6
CONTINUOUS
 10
-0.1400860125
 20
-58.8256778788
 11
0.2799099584
 21
-58.825341941
  0
LINE
  5
284
100
AcDbEntity
  8
IMPORT_IGES
100
AcDbLine
 62
7
  6
CONTINUOUS
 10
-2.1772099849
 20
-59.8081979907
 11
-1.8710284353
 21
-59.8080877407
  0
LINE
  5
285
100
AcDbEntity
  8
IMPORT_IGES
100
AcDbLine
 62
7
  6
CONTINUOUS
 10
-0.5577459641
 20
-58.8240184014
 11
-0.1400860125
 21
-58.8256778788
  0
LINE
  5
286
100
AcDbEntity
  8
IMPORT_IGES
100
AcDbLine
 62
7
  6
CONTINUOUS
 10
-2.196967068
 20
-59.8080758431
 11
-2.1772099849
 21
-59.8081979907
  0
LINE
  5
287
100
AcDbEntity
  8
IMPORT_IGES
100
AcDbLine
 62
7
  6
CONTINUOUS
 10
-1.0966901399
 20
-58.8190592882
 11
-0.5577459641
 21
-58.8240184014
  0
LINE
  5
288
100
AcDbEntity
  8
IMPORT_IGES
100
AcDbLine
 62
7
  6
CONTINUOUS
 10
-1.7128683855
 20
-58.8102254672
 11
-1.0966901399
 21
-58.8190592882
  0
LINE
  5
289
100
AcDbEntity
  8
IMPORT_IGES
100
AcDbLine
 62
7
  6
CONTINUOUS
 10
-2.2360631081
 20
-58.8010449847
 11
-1.7128683855
 21
-58.8102254672
  0
LWPOLYLINE
  5
28A
100
AcDbEntity
  8
IMPORT_IGES
100
AcDbPolyline
 62
7
  6
CONTINUOUS
 90
20
 70
0
 10
-1.0268003423
 20
-60.2251125694
 10
-1.0033392615
 20
-60.2296130866
 10
-0.9811394072
 20
-60.2336969935
 10
-0.9602331538
 20
-60.2373642902
 10
-0.9408227686
 20
-60.2405888378
 10
-0.9227144714
 20
-60.2433967752
 10
-0.9054130904
 20
-60.2458665186
 10
-0.8888649571
 20
-60.2480376028
 10
-0.8733029028
 20
-60.249870493
 10
-0.8587557242
 20
-60.2513250012
 10
-0.8452685305
 20
-60.2523995734
 10
-0.8329884224
 20
-60.2530957637
 10
-0.8220752463
 20
-60.2533780453
 10
-0.8125764506
 20
-60.2532296186
 10
-0.8045517433
 20
-60.2526672833
 10
-0.7980989633
 20
-60.2517059119
 10
-0.7932292451
 20
-60.2503405241
 10
-0.7899102732
 20
-60.2485761001
 10
-0.7881328807
 20
-60.2464424536
 10
-0.7878622988
 20
-60.2455488686
  0
LWPOLYLINE
  5
28B
100
AcDbEntity
  8
IMPORT_IGES
100
AcDbPolyline
 62
7
  6
CONTINUOUS
 90
13
 70
0
 10
-0.6467055365
 20
-60.2251125694
 10
-0.7310305444
 20
-60.2085005107
 10
-0.8187438349
 20
-60.1889798057
 10
-0.9098454078
 20
-60.1665504543
 10
-1.0044288054
 20
-60.1414474963
 10
-1.1024004854
 20
-60.1134358919
 10
-1.2034798218
 20
-60.0818105225
 10
-1.3077079945
 20
-60.0465837432
 10
-1.4150438236
 20
-60.0077431989
 10
-1.5250831425
 20
-59.9645467053
 10
-1.637691229
 20
-59.9167468677
 10
-1.7530028052
 20
-59.8645910808
 10
-1.8710178713
 20
-59.8080793447
  0
LWPOLYLINE
  5
28C
100
AcDbEntity
  8
IMPORT_IGES
100
AcDbPolyline
 62
7
  6
CONTINUOUS
 90
5
 70
0
 10
-1.3628430672
 20
-60.1445121421
 10
-1.2823347401
 20
-60.1665505188
 10
-1.1941460402
 20
-60.1889798508
 10
-1.1089679076
 20
-60.2085005344
 10
-1.0268003423
 20
-60.2251125694
  0
LWPOLYLINE
  5
28D
100
AcDbEntity
  8
IMPORT_IGES
100
AcDbPolyline
 62
7
  6
CONTINUOUS
 90
8
 70
0
 10
5.2863625295
 20
-55.9587545879
 10
4.5327222822
 20
-56.0959518325
 10
3.7764996119
 20
-56.21168727
 10
3.0174235645
 20
-56.3062203622
 10
2.2579792681
 20
-56.3796576274
 10
1.4989950986
 20
-56.4320484397
 10
0.7396426801
 20
-56.4633850947
 10
-0.0200779874
 20
-56.4736780093
  0
LWPOLYLINE
  5
28E
100
AcDbEntity
  8
IMPORT_IGES
100
AcDbPolyline
 62
7
  6
CONTINUOUS
 90
7
 70
0
 10
-0.0200779874
 20
-56.4736780093
 10
-0.7811132593
 20
-56.4630957046
 10
-1.5399809385
 20
-56.4317978798
 10
-2.296681025
 20
-56.3797742935
 10
-3.0513339386
 20
-56.3070557776
 10
-3.8038192596
 20
-56.213570849
 10
-4.5537757285
 20
-56.0991455312
  0
LWPOLYLINE
  5
28F
100
AcDbEntity
  8
IMPORT_IGES
100
AcDbPolyline
 62
7
  6
CONTINUOUS
 90
43
 70
0
 10
-0.020078161
 20
-56.1800377745
 10
-0.7854695502
 20
-56.169232079
 10
-1.5482942039
 20
-56.1361485115
 10
-2.308552122
 20
-56.080787072
 10
-3.0670240708
 20
-56.0028866963
 10
-3.8229292841
 20
-55.9027084487
 10
-4.5739254624
 20
-55.781035521
 10
-5.3200172193
 20
-55.6377881315
 10
-6.0611999411
 20
-55.473046062
 10
-6.7951174888
 20
-55.2878318502
 10
-7.5217005027
 20
-55.0823113204
 10
-8.2410183424
 20
-54.8563186484
 10
-8.9509229466
 20
-54.6103788984
 10
-9.6501712321
 20
-54.3448911962
 10
-10.340006282
 20
-54.0594564161
 10
-11.0220092844
 20
-53.7534022462
 10
-11.6973219781
 20
-53.4262293294
 10
-12.3648026244
 20
-53.0784370229
 10
-13.0226071951
 20
-52.7108510855
 10
-13.6716744305
 20
-52.3229249221
 10
-14.3110655903
 20
-51.915205128
 10
-14.9361204262
 20
-51.490157248
 10
-15.5451268595
 20
-51.0488954413
 10
-16.1397969687
 20
-50.5903055488
 10
-16.7206067415
 20
-50.1135106381
 10
-17.2883742574
 20
-49.6176715131
 10
-17.8422814367
 20
-49.1036273698
 10
-18.3803500281
 20
-48.5730188637
 10
-18.9029771309
 20
-48.0251783314
 10
-19.4097656458
 20
-47.4607734362
 10
-19.8975460226
 20
-46.883447824
 10
-20.3654228111
 20
-46.2942282633
 10
-20.8142914616
 20
-45.6920879856
 10
-21.2436687744
 20
-45.0775903306
 10
-21.6538332353
 20
-44.4502436251
 10
-22.0445063585
 20
-43.8105395424
 10
-22.4143694866
 20
-43.1605164417
 10
-22.762860972
 20
-42.5014047838
 10
-23.0905424624
 20
-41.8319741079
 10
-23.3977802427
 20
-41.1505713912
 10
-23.6846964079
 20
-40.4566456262
 10
-23.951168863
 20
-39.7507478205
 10
-24.1941565804
 20
-39.0417511733
  0
LWPOLYLINE
  5
290
100
AcDbEntity
  8
IMPORT_IGES
100
AcDbPolyline
 62
7
  6
CONTINUOUS
 90
45
 70
0
 10
-4.5537757285
 20
-56.0991455312
 10
-5.3017722142
 20
-55.9636618458
 10
-6.0472398479
 20
-55.8071565839
 10
-6.7881107637
 20
-55.6296780848
 10
-7.5250616955
 20
-55.4308317152
 10
-8.2574159094
 20
-55.2108924043
 10
-8.9810753378
 20
-54.9709075735
 10
-9.6947996282
 20
-54.7111357185
 10
-10.3998291331
 20
-54.4311739566
 10
-11.095786842
 20
-54.1310743826
 10
-11.7833234419
 20
-53.8104895496
 10
-12.4617882459
 20
-53.4695937248
 10
-13.1288521836
 20
-53.1092200923
 10
-13.7846197691
 20
-52.7290618999
 10
-14.4289864884
 20
-52.3292387559
 10
-15.059309728
 20
-51.9112317439
 10
-15.675051521
 20
-51.4752402674
 10
-16.2767498345
 20
-51.0208814864
 10
-16.8633759559
 20
-50.5487732032
 10
-17.4353347491
 20
-50.0584284555
 10
-17.9922213502
 20
-49.5501476297
 10
-18.5317924558
 20
-49.0257444926
 10
-19.0540130841
 20
-48.48488164
 10
-19.558918217
 20
-47.9277320032
 10
-20.0443694963
 20
-47.3569049948
 10
-20.5099376639
 20
-46.7726882802
 10
-20.956051978
 20
-46.1746713405
 10
-21.3818618546
 20
-45.5644466247
 10
-21.7871309457
 20
-44.9423539061
 10
-22.1720955992
 20
-44.3079601269
 10
-22.5366142749
 20
-43.6617149687
 10
-22.8810576441
 20
-43.0029072039
 10
-23.2050550355
 20
-42.3321664088
 10
-23.5073528942
 20
-41.6519757992
 10
-23.787797049
 20
-40.9621168539
 10
-24.0465416711
 20
-40.2627723058
 10
-24.2827957192
 20
-39.5570659229
 10
-24.4962607529
 20
-38.8458152225
 10
-24.6872352126
 20
-38.1282199198
 10
-24.8558233772
 20
-37.4050029237
 10
-25.0020796623
 20
-36.6764197954
 10
-25.1259496522
 20
-35.9422462098
 10
-25.2273743798
 20
-35.2024913394
 10
-25.3063341893
 20
-34.457170963
 10
-25.3628487363
 20
-33.7063075365
  0
LWPOLYLINE
  5
291
100
AcDbEntity
  8
IMPORT_IGES
100
AcDbPolyline
 62
250
  6
CONTINUOUS
 90
10
 70
0
 10
-29.6696773414
 20
-46.1122703536
 10
-29.727282283
 20
-46.0901327386
 10
-29.779393552
 20
-46.0710950542
 10
-29.8260013913
 20
-46.0551573004
 10
-29.8670992647
 20
-46.0423195219
 10
-29.902676611
 20
-46.0325816741
 10
-29.9327220213
 20
-46.0259436229
 10
-29.9572314273
 20
-46.0224053238
 10
-29.9762049246
 20
-46.0219668214
 10
-29.9896417472
 20
-46.0246281156
  0
LWPOLYLINE
  5
292
100
AcDbEntity
  8
IMPORT_IGES
100
AcDbPolyline
 62
7
  6
CONTINUOUS
 90
25
 70
0
 10
0.1483827634
 20
-60.2251125694
 10
0.1604527451
 20
-60.229955904
 10
0.1738809543
 20
-60.2343063799
 10
0.1884660975
 20
-60.2381639971
 10
0.2038575585
 20
-60.2414937188
 10
0.2200081216
 20
-60.2443305818
 10
0.2372965318
 20
-60.2467796965
 10
0.2558445022
 20
-60.2488828786
 10
0.2754208959
 20
-60.2505983124
 10
0.2959841385
 20
-60.2519056614
 10
0.317541033
 20
-60.2527989019
 10
0.3399438743
 20
-60.2532840576
 10
0.3628968294
 20
-60.2533588633
 10
0.3862712752
 20
-60.253007767
 10
0.409995598
 20
-60.2522463207
 10
0.4338309483
 20
-60.2511189148
 10
0.4575960526
 20
-60.2496260946
 10
0.4812765283
 20
-60.2477673147
 10
0.5048837563
 20
-60.2455853297
 10
0.5281393067
 20
-60.2431195412
 10
0.5511617643
 20
-60.2403305477
 10
0.5745586502
 20
-60.2371428987
 10
0.5984654406
 20
-60.2335314443
 10
0.6225521265
 20
-60.2295213345
 10
0.6467055347
 20
-60.2251125694
  0
LWPOLYLINE
  5
293
100
AcDbEntity
  8
IMPORT_IGES
100
AcDbPolyline
 62
7
  6
CONTINUOUS
 90
10
 70
0
 10
-2.1969641994
 20
-59.8080733325
 10
-2.0862835665
 20
-59.8645877842
 10
-1.9777418564
 20
-59.9167456085
 10
-1.8713390691
 20
-59.9645468054
 10
-1.7669087222
 20
-60.007743756
 10
-1.6646172982
 20
-60.0465840791
 10
-1.5649642433
 20
-60.0818106313
 10
-1.4679919737
 20
-60.1134359906
 10
-1.3736580732
 20
-60.141447579
 10
-1.3628430672
 20
-60.1445121421
  0
LWPOLYLINE
  5
294
100
AcDbEntity
  8
IMPORT_IGES
100
AcDbPolyline
 62
7
  6
CONTINUOUS
 90
94
 70
0
 10
-27.7776814425
 20
-50.1534415839
 10
-27.2248012323
 20
-50.5287435066
 10
-26.6683075141
 20
-50.8955706837
 10
-26.1083415697
 20
-51.2539136798
 10
-25.5450665898
 20
-51.6037570634
 10
-24.9785998089
 20
-51.9451048463
 10
-24.4090113698
 20
-52.2779774155
 10
-23.836439476
 20
-52.6023696328
 10
-23.261019275
 20
-52.9182824314
 10
-22.6828129907
 20
-53.2257429214
 10
-22.1019465648
 20
-53.5247536825
 10
-21.5185601315
 20
-53.8153145635
 10
-20.9327341425
 20
-54.0974467592
 10
-20.3445973788
 20
-54.3711541878
 10
-19.7542807585
 20
-54.6364435435
 10
-19.1618652704
 20
-54.8933392633
 10
-18.5674482983
 20
-55.1418616886
 10
-17.9711853075
 20
-55.3820081561
 10
-17.3732432195
 20
-55.6137711595
 10
-16.7736686748
 20
-55.8371946655
 10
-16.1726635122
 20
-56.0522653628
 10
-15.5706307926
 20
-56.258904891
 10
-14.9678175197
 20
-56.4571051229
 10
-14.3642280188
 20
-56.646942154
 10
-13.7599023714
 20
-56.8284741763
 10
-13.1550795382
 20
-57.0017026216
 10
-12.5497616339
 20
-57.1666977882
 10
-11.9436260808
 20
-57.3236037831
 10
-11.3367430408
 20
-57.4724536917
 10
-10.7292666057
 20
-57.6132581903
 10
-10.1209917499
 20
-57.7461014722
 10
-9.5117977181
 20
-57.8710404707
 10
-8.9020190492
 20
-57.9880424056
 10
-8.2921328405
 20
-58.0970610604
 10
-7.6824690859
 20
-58.1980940674
 10
-7.0729138548
 20
-58.2912155273
 10
-6.463277771
 20
-58.3764989032
 10
-5.8538965951
 20
-58.4539433194
 10
-5.2446411802
 20
-58.5236077221
 10
-4.6346178297
 20
-58.5856093259
 10
-4.0238211499
 20
-58.6399451799
 10
-3.4124517842
 20
-58.6866017985
 10
-2.7999189217
 20
-58.7256199559
 10
-2.1860306844
 20
-58.7569826203
 10
-1.5711718555
 20
-58.7806419873
 10
-0.9556153529
 20
-58.7965754419
 10
-0.3394290871
 20
-58.8047684338
 10
0.2772583049
 20
-58.8051974967
 10
0.8940819685
 20
-58.7978449937
 10
1.5110648297
 20
-58.7827026932
 10
2.1279849729
 20
-58.7597659876
 10
2.7441103924
 20
-58.7290582224
 10
3.3591097901
 20
-58.6906156414
 10
3.9731180091
 20
-58.6444529971
 10
4.5861032177
 20
-58.5905844915
 10
5.1977489501
 20
-58.5290554096
 10
5.808177906
 20
-58.4598735908
 10
6.4180143064
 20
-58.3829695385
 10
7.0271250496
 20
-58.2983473401
 10
7.6354440468
 20
-58.2060051452
 10
8.2436881542
 20
-58.1058090226
 10
8.8517345681
 20
-57.9977350389
 10
9.4594946615
 20
-57.8817558561
 10
10.0677245689
 20
-57.7576714306
 10
10.676477573
 20
-57.6253882475
 10
11.2854680228
 20
-57.4848873556
 10
11.8949322053
 20
-57.3360367482
 10
12.5048950175
 20
-57.1787320226
 10
13.1150821542
 20
-57.0129476875
 10
13.7252766875
 20
-56.8386624408
 10
14.3355421447
 20
-56.6557645965
 10
14.9455561159
 20
-56.4642515967
 10
15.5545297384
 20
-56.2642975025
 10
16.1624921061
 20
-56.0558294495
 10
16.769162869
 20
-55.8388687877
 10
17.3733109444
 20
-55.6138026116
 10
17.9743879859
 20
-55.3808248268
 10
18.5727243118
 20
-55.1398023047
 10
19.1684187833
 20
-54.8906690709
 10
19.7612001839
 20
-54.6335097654
 10
20.3511125668
 20
-54.3682861609
 10
20.9387125053
 20
-54.0947156531
 10
21.5240254968
 20
-53.8127224888
 10
22.106769856
 20
-53.5223783036
 10
22.6870250251
 20
-53.2235896562
 10
23.2647056878
 20
-52.9163273813
 10
23.8396300988
 20
-52.6006146968
 10
24.4117272027
 20
-52.2764290193
 10
24.9808701759
 20
-51.9437640805
 10
25.5469123836
 20
-51.6026287806
 10
26.1097507158
 20
-51.2530225893
 10
26.6692578571
 20
-50.8949491301
 10
27.2252825272
 20
-50.5284177617
 10
27.7776843027
 20
-50.153438526
  0
LWPOLYLINE
  5
295
100
AcDbEntity
  8
IMPORT_IGES
100
AcDbPolyline
 62
250
  6
CONTINUOUS
 90
43
 70
0
 10
-27.8055572856
 20
-50.155382934
 10
-27.8969119859
 20
-50.0915939628
 10
-27.9873874133
 20
-50.0253625197
 10
-28.0768928287
 20
-49.9566972231
 10
-28.1653220066
 20
-49.8856231552
 10
-28.2525985025
 20
-49.8121460521
 10
-28.3386737201
 20
-49.7362484614
 10
-28.4235258808
 20
-49.6578847559
 10
-28.50698626
 20
-49.5771465434
 10
-28.5887937464
 20
-49.4942394698
 10
-28.668860965
 20
-49.4092190748
 10
-28.7471129398
 20
-49.3221341759
 10
-28.8233300152
 20
-49.233212011
 10
-28.8973821642
 20
-49.1426076276
 10
-28.9692774848
 20
-49.0503182589
 10
-29.0390141081
 20
-48.9563460852
 10
-29.1065330876
 20
-48.8607686713
 10
-29.1717801117
 20
-48.7636649249
 10
-29.234755479
 20
-48.6650344289
 10
-29.2954065852
 20
-48.5649574668
 10
-29.3536843736
 20
-48.463517154
 10
-29.409588947
 20
-48.360713325
 10
-29.4630733967
 20
-48.2566298883
 10
-29.5140947904
 20
-48.1513528519
 10
-29.5626532083
 20
-48.0448820341
 10
-29.6087075838
 20
-47.9373047688
 10
-29.6522211831
 20
-47.8287097369
 10
-29.6931941788
 20
-47.719096468
 10
-29.7315919379
 20
-47.6085542778
 10
-29.7673835486
 20
-47.4971755503
 10
-29.8005682616
 20
-47.3849630599
 10
-29.8311438029
 20
-47.2719085631
 10
-29.8590552485
 20
-47.1582068088
 10
-29.8842384793
 20
-47.044167251
 10
-29.9066953655
 20
-46.9298793312
 10
-29.9264292
 20
-46.8154465367
 10
-29.9434170432
 20
-46.7012004456
 10
-29.9576781849
 20
-46.587332074
 10
-29.9692625939
 20
-46.4738337329
 10
-29.978212054
 20
-46.3607357649
 10
-29.9845648652
 20
-46.2481045782
 10
-29.9883601074
 20
-46.1360420811
 10
-29.9896417472
 20
-46.0246281156
  0
LWPOLYLINE
  5
296
100
AcDbEntity
  8
IMPORT_IGES
100
AcDbPolyline
 62
7
  6
CONTINUOUS
 90
43
 70
0
 10
-27.5168375647
 20
-50.0398337328
 10
-27.5724717769
 20
-50.0009791295
 10
-27.6275197231
 20
-49.9608998075
 10
-27.6819735769
 20
-49.9195962292
 10
-27.735799003
 20
-49.8771017708
 10
-27.7890144611
 20
-49.8333841885
 10
-27.8416905919
 20
-49.7883451934
 10
-27.8938451381
 20
-49.7419930846
 10
-27.9454425252
 20
-49.6943200557
 10
-27.9964717997
 20
-49.6452032057
 10
-28.0469358036
 20
-49.5946425265
 10
-28.0968111295
 20
-49.5426385686
 10
-28.1460454096
 20
-49.4890692101
 10
-28.1946471487
 20
-49.4339238904
 10
-28.2425841728
 20
-49.3772140594
 10
-28.2897410979
 20
-49.3188509598
 10
-28.3361239602
 20
-49.2588200479
 10
-28.3817001655
 20
-49.1971376967
 10
-28.4262948716
 20
-49.1337623911
 10
-28.4699253059
 20
-49.0686500016
 10
-28.5125453049
 20
-49.001847944
 10
-28.5538849962
 20
-48.9334535937
 10
-28.593959019
 20
-48.8633991713
 10
-28.6327241074
 20
-48.7917581337
 10
-28.6698270007
 20
-48.7188421393
 10
-28.7052473833
 20
-48.6446471887
 10
-28.7389826599
 20
-48.5691861485
 10
-28.7707123621
 20
-48.4927985941
 10
-28.8003998947
 20
-48.4155588044
 10
-28.8280664808
 20
-48.3374038183
 10
-28.8534832842
 20
-48.2584692301
 10
-28.8766330593
 20
-48.1787649292
 10
-28.8975209651
 20
-48.0982933603
 10
-28.9159547828
 20
-48.0171801169
 10
-28.931918839
 20
-47.9354109688
 10
-28.9454204423
 20
-47.8530129435
 10
-28.9563055215
 20
-47.7701742916
 10
-28.9645955602
 20
-47.6868968649
 10
-28.9702661958
 20
-47.6031914139
 10
-28.9730992424
 20
-47.5192601478
 10
-28.9730240964
 20
-47.4351747686
 10
-28.9701151987
 20
-47.3508759346
 10
-28.9643746309
 20
-47.2663693864
  0
LWPOLYLINE
  5
297
100
AcDbEntity
  8
IMPORT_IGES
100
AcDbPolyline
 62
7
  6
CONTINUOUS
 90
28
 70
0
 10
-27.7776449858
 20
-50.1533827395
 10
-27.914586235
 20
-50.055701291
 10
-28.0491702237
 20
-49.9523563076
 10
-28.1810476741
 20
-49.8433488409
 10
-28.3099692546
 20
-49.7286249828
 10
-28.4354765232
 20
-49.608326795
 10
-28.5569421966
 20
-49.4828209034
 10
-28.6753657696
 20
-49.3507742747
 10
-28.7889747358
 20
-49.2138139735
 10
-28.8937445576
 20
-49.0770755431
 10
-28.9871665135
 20
-48.9452687936
 10
-29.0729375633
 20
-48.8146256151
 10
-29.15596285
 20
-48.6776167137
 10
-29.2366627796
 20
-48.5323033305
 10
-29.3129567391
 20
-48.381301659
 10
-29.3847489013
 20
-48.223879564
 10
-29.4522704522
 20
-48.057511221
 10
-29.5132091425
 20
-47.8857996088
 10
-29.5648856178
 20
-47.7169259604
 10
-29.6066211943
 20
-47.5565434906
 10
-29.6407338306
 20
-47.3988366993
 10
-29.6690720389
 20
-47.2347309934
 10
-29.6912436735
 20
-47.061602616
 10
-29.7058184416
 20
-46.882620278
 10
-29.7117306109
 20
-46.6977654478
 10
-29.7080772872
 20
-46.5073708369
 10
-29.6942505731
 20
-46.3120290757
 10
-29.6696209802
 20
-46.1122670019
  0
LWPOLYLINE
  5
298
100
AcDbEntity
  8
IMPORT_IGES
100
AcDbPolyline
 62
7
  6
CONTINUOUS
 90
22
 70
0
 10
-27.936691631
 20
-50.2172307362
 10
-28.124654736
 20
-50.081234908
 10
-28.3051887951
 20
-49.9372611865
 10
-28.4782938085
 20
-49.7853095719
 10
-28.6442078175
 20
-49.6249233894
 10
-28.8026927808
 20
-49.4565593136
 10
-28.9530345739
 20
-49.281587369
 10
-29.0951964865
 20
-49.1000497737
 10
-29.229215229
 20
-48.9119043096
 10
-29.3544868089
 20
-48.7183943464
 10
-29.4710157065
 20
-48.5195443778
 10
-29.5787974415
 20
-48.3153299102
 10
-29.6772145807
 20
-48.1069208325
 10
-29.7662898747
 20
-47.8943070285
 10
-29.8460005728
 20
-47.6774986145
 10
-29.9156609899
 20
-47.4576958287
 10
-29.9752852867
 20
-47.2348445437
 10
-30.0248593023
 20
-47.0089988869
 10
-30.063654869
 20
-46.7815214783
 10
-30.091429264
 20
-46.5528665246
 10
-30.1084252101
 20
-46.322579819
 10
-30.1146427072
 20
-46.0906613616
  0
LWPOLYLINE
  5
299
100
AcDbEntity
  8
IMPORT_IGES
100
AcDbPolyline
 62
250
  6
CONTINUOUS
 90
10
 70
0
 10
27.7776843027
 20
-50.153438526
 10
27.7817453173
 20
-50.1529974025
 10
27.7855653532
 20
-50.1527204378
 10
27.7891444152
 20
-50.1526076994
 10
27.792482541
 20
-50.1526592635
 10
27.7955796941
 20
-50.1528751766
 10
27.7984357638
 20
-50.1532554555
 10
27.8010507078
 20
-50.1538001381
 10
27.803424552
 20
-50.1545092836
 10
27.8055572838
 20
-50.155382934
  0
LWPOLYLINE
  5
29A
100
AcDbEntity
  8
IMPORT_IGES
100
AcDbPolyline
 62
7
  6
CONTINUOUS
 90
26
 70
0
 10
-10.6106321925
 20
-53.5060102693
 10
-11.0394418366
 20
-53.305535121
 10
-11.7125026984
 20
-52.9708629649
 10
-12.3784953185
 20
-52.6146730266
 10
-13.0337664147
 20
-52.238706602
 10
-13.6765425164
 20
-51.8440091987
 10
-14.3074371199
 20
-51.4302325703
 10
-14.9264954402
 20
-50.997260554
 10
-15.5329546432
 20
-50.5455055915
 10
-16.1263528435
 20
-50.0751877881
 10
-16.7070830468
 20
-49.5857821527
 10
-17.2748653815
 20
-49.0771949371
 10
-17.8286051317
 20
-48.550067041
 10
-18.3674218476
 20
-48.0049389689
 10
-18.8902737533
 20
-47.4426151253
 10
-19.3969443927
 20
-46.8630698904
 10
-19.8877180528
 20
-46.265565676
 10
-20.3631505763
 20
-45.6487315911
 10
-20.8211186871
 20
-45.0145963383
 10
-21.2581721917
 20
-44.3677475575
 10
-21.673301959
 20
-43.7100075911
 10
-22.0669701518
 20
-43.0409884145
 10
-22.4384324476
 20
-42.3622880437
 10
-22.7852021993
 20
-41.679410414
 10
-23.1097607264
 20
-40.9884826443
 10
-23.4176889135
 20
-40.2765095127
  0
LWPOLYLINE
  5
29B
100
AcDbEntity
  8
IMPORT_IGES
100
AcDbPolyline
 62
7
  6
CONTINUOUS
 90
5
 70
0
 10
-0.0000000009
 20
-60.1443841055
 10
0.00738468
 20
-60.1492089821
 10
0.0567870887
 20
-60.1789887349
 10
0.1037864499
 20
-60.2042899306
 10
0.1483827634
 20
-60.2251125694
  0
LWPOLYLINE
  5
29C
100
AcDbEntity
  8
IMPORT_IGES
100
AcDbPolyline
 62
7
  6
CONTINUOUS
 90
10
 70
0
 10
-29.124834729
 20
-46.7991714986
 10
-29.1879155159
 20
-46.703936721
 10
-29.2496837384
 20
-46.6091091294
 10
-29.3101398169
 20
-46.5146861403
 10
-29.3692687182
 20
-46.4206427294
 10
-29.4270863231
 20
-46.3269987238
 10
-29.4836394952
 20
-46.2338188098
 10
-29.5389442232
 20
-46.1411228132
 10
-29.592985553
 20
-46.0488856905
 10
-29.6457640028
 20
-45.9571048271
  0
LWPOLYLINE
  5
29D
100
AcDbEntity
  8
IMPORT_IGES
100
AcDbPolyline
 62
7
  6
CONTINUOUS
 90
10
 70
0
 10
-29.1248513661
 20
-46.7991799258
 10
-29.1083594183
 20
-46.8523801516
 10
-29.0915467549
 20
-46.9052589534
 10
-29.0744133759
 20
-46.9578165023
 10
-29.0569747722
 20
-47.0100502206
 10
-29.039215453
 20
-47.0619630273
 10
-29.0210889453
 20
-47.113563332
 10
-29.0025797583
 20
-47.1648540447
 10
-28.9837033828
 20
-47.2158325816
 10
-28.964459819
 20
-47.2664991054
  0
LINE
  5
29E
100
AcDbEntity
  8
IMPORT_IGES
100
AcDbLine
 62
250
  6
CONTINUOUS
 10
28.8128333448
 20
-32.8343388704
 11
28.272300123
 21
-32.9499260794
  0
LINE
  5
29F
100
AcDbEntity
  8
IMPORT_IGES
100
AcDbLine
 62
7
  6
CONTINUOUS
 10
-23.8771957603
 20
-39.0432078431
 11
-24.198406894
 21
-39.0432078431
  0
LINE
  5
2A0
100
AcDbEntity
  8
IMPORT_IGES
100
AcDbLine
 62
7
  6
CONTINUOUS
 10
23.8370397586
 20
-39.0431797728
 11
24.1582508915
 21
-39.0431797728
  0
LINE
  5
2A1
100
AcDbEntity
  8
IMPORT_IGES
100
AcDbLine
 62
250
  6
CONTINUOUS
 10
-28.812769966
 20
-32.8343248259
 11
-28.2722378193
 21
-32.9499128224
  0
LWPOLYLINE
  5
2A2
100
AcDbEntity
  8
IMPORT_IGES
100
AcDbPolyline
 62
250
  6
CONTINUOUS
 90
10
 70
0
 10
29.9896417432
 20
-46.0246281156
 10
29.9761897289
 20
-46.0216024267
 10
29.9571907232
 20
-46.0216774264
 10
29.9326455459
 20
-46.024853115
 10
29.9025541498
 20
-46.0311294492
 10
29.8669206707
 20
-46.0405064721
 10
29.8257566206
 20
-46.0529843132
 10
29.7790726586
 20
-46.0685630154
 10
29.7268753975
 20
-46.0872425357
 10
29.6691746851
 20
-46.109022874
  0
LINE
  5
2A3
100
AcDbEntity
  8
IMPORT_IGES
100
AcDbLine
 62
250
  6
CONTINUOUS
 10
-26.9813957225
 20
-28.468165234
 11
-26.4752349261
 21
-29.0254754101
  0
LINE
  5
2A4
100
AcDbEntity
  8
IMPORT_IGES
100
AcDbLine
 62
7
  6
CONTINUOUS
 10
-23.4176889135
 20
-40.2765095127
 11
-23.7113675732
 21
-39.5337542231
  0
LWPOLYLINE
  5
2A5
100
AcDbEntity
  8
IMPORT_IGES
100
AcDbPolyline
 62
7
  6
CONTINUOUS
 90
9
 70
0
 10
-23.7113675732
 20
-39.5337542231
 10
-23.9849871411
 20
-38.7702456382
 10
-24.23213611
 20
-38.00272215
 10
-24.4516129596
 20
-37.2371927587
 10
-24.645310718
 20
-36.469568453
 10
-24.8132014496
 20
-35.7019925735
 10
-24.9555906816
 20
-34.9357644457
 10
-25.0729816296
 20
-34.1713058037
 10
-25.1505142295
 20
-33.5349204207
  0
LWPOLYLINE
  5
2A6
100
AcDbEntity
  8
IMPORT_IGES
100
AcDbPolyline
 62
7
  6
CONTINUOUS
 90
19
 70
0
 10
-30.1146008095
 20
54.9892333761
 10
-30.1119629644
 20
55.0611404256
 10
-30.1044003888
 20
55.1319309013
 10
-30.0919130829
 20
55.2016048032
 10
-30.0743829886
 20
55.2704939967
 10
-30.0519281639
 20
55.3382666164
 10
-30.024902783
 20
55.4039270659
 10
-29.9932433687
 20
55.4674453915
 10
-29.9570133982
 20
55.5288515469
 10
-29.9167574765
 20
55.587239798
 10
-29.872416976
 20
55.6425670444
 10
-29.8240505244
 20
55.6948763865
 10
-29.7723786102
 20
55.7433913906
 10
-29.7173530984
 20
55.7880568271
 10
-29.659022124
 20
55.8289279256
 10
-29.5982505799
 20
55.8653939422
 10
-29.5353267637
 20
55.8972512953
 10
-29.4699623778
 20
55.9247035664
 10
-29.4021574223
 20
55.9477507554
  0
LWPOLYLINE
  5
2A7
100
AcDbEntity
  8
IMPORT_IGES
100
AcDbPolyline
 62
250
  6
CONTINUOUS
 90
19
 70
0
 10
-30.0638010919
 20
54.8627314653
 10
-30.0611272959
 20
54.9339935257
 10
-30.053438059
 20
55.0043732362
 10
-30.04088289
 20
55.07352832
 10
-30.0237056667
 20
55.1408867935
 10
-30.0020584207
 20
55.2064051505
 10
-29.9758287573
 20
55.2705133456
 10
-29.9449923213
 20
55.3330728069
 10
-29.9097263974
 20
55.3935534327
 10
-29.870080079
 20
55.4517380063
 10
-29.8261159217
 20
55.5073709845
 10
-29.7780462246
 20
55.5600341571
 10
-29.7261886851
 20
55.6092858576
 10
-29.6708388775
 20
55.6547956437
 10
-29.6121995322
 20
55.69635004
 10
-29.5505039952
 20
55.7337226087
 10
-29.4860293847
 20
55.7666785788
 10
-29.4191024377
 20
55.7949864432
 10
-29.3500548246
 20
55.8184453124
  0
LINE
  5
2A8
100
AcDbEntity
  8
IMPORT_IGES
100
AcDbLine
 62
7
  6
CONTINUOUS
 10
-24.8965584628
 20
-34.4359596117
 11
-25.2036355171
 21
-34.4359596117
  0
LINE
  5
2A9
100
AcDbEntity
  8
IMPORT_IGES
100
AcDbLine
 62
7
  6
CONTINUOUS
 10
24.8620328882
 20
-34.435959613
 11
25.1634819187
 21
-34.4359598302
  0
LINE
  5
2AA
100
AcDbEntity
  8
IMPORT_IGES
100
AcDbLine
 62
7
  6
CONTINUOUS
 10
24.8620328882
 20
-34.4259848876
 11
25.1623188011
 21
-34.4259848863
  0
LINE
  5
2AB
100
AcDbEntity
  8
IMPORT_IGES
100
AcDbLine
 62
250
  6
CONTINUOUS
 10
-28.2722757588
 20
-32.9499233698
 11
-25.396918021
 21
-32.9499222647
  0
LINE
  5
2AC
100
AcDbEntity
  8
IMPORT_IGES
100
AcDbLine
 62
250
  6
CONTINUOUS
 10
25.3567620193
 20
-32.9499211595
 11
28.2722757569
 21
-32.9499222647
  0
LINE
  5
2AD
100
AcDbEntity
  8
IMPORT_IGES
100
AcDbLine
 62
250
  6
CONTINUOUS
 10
27.7776852015
 20
-50.1534384132
 11
27.5176216347
 21
-50.0395241176
  0
LINE
  5
2AE
100
AcDbEntity
  8
IMPORT_IGES
100
AcDbLine
 62
250
  6
CONTINUOUS
 10
27.8055572838
 20
-50.155382934
 11
27.9366917072
 21
-50.2172308979
  0
LWPOLYLINE
  5
2AF
100
AcDbEntity
  8
IMPORT_IGES
100
AcDbPolyline
 62
7
  6
CONTINUOUS
 90
10
 70
0
 10
-24.198406894
 20
-39.0432078431
 10
-24.3555206063
 20
-38.5410430237
 10
-24.5013168573
 20
-38.0362661516
 10
-24.635795647
 20
-37.5288772268
 10
-24.7590075747
 20
-37.0186432984
 10
-24.8709020412
 20
-36.5057973173
 10
-24.9713272484
 20
-35.9910381365
 10
-25.0602325971
 20
-35.4745987069
 10
-25.1376686867
 20
-34.9562460776
 10
-25.2036355171
 20
-34.4359802487
  0
LINE
  5
2B0
100
AcDbEntity
  8
IMPORT_IGES
100
AcDbLine
 62
7
  6
CONTINUOUS
 10
-25.3628487363
 20
-33.7063075365
 11
-25.396918021
 21
-32.9499222647
  0
LWPOLYLINE
  5
2B1
100
AcDbEntity
  8
IMPORT_IGES
100
AcDbPolyline
 62
7
  6
CONTINUOUS
 90
10
 70
0
 10
-25.3684716739
 20
-32.2970772378
 10
-25.3596289727
 20
-32.5174118819
 10
-25.34842054
 20
-32.7422464216
 10
-25.3348463758
 20
-32.9713014724
 10
-25.3189527231
 20
-33.2040337656
 10
-25.3006933389
 20
-33.4404129372
 10
-25.2799294938
 20
-33.6809663834
 10
-25.2566149447
 20
-33.9257183207
 10
-25.2307959347
 20
-34.1741455216
 10
-25.2024724638
 20
-34.4259851005
  0
LWPOLYLINE
  5
2B2
100
AcDbEntity
  8
IMPORT_IGES
100
AcDbPolyline
 62
250
  6
CONTINUOUS
 90
91
 70
0
 10
-29.9896417449
 20
47.7120515279
 10
-29.970614833
 20
46.5033665306
 10
-29.942164883
 20
45.2935422665
 10
-29.9045721096
 20
44.0825787356
 10
-29.8577321072
 20
42.860912437
 10
-29.8021719113
 20
41.6381068716
 10
-29.7397348289
 20
40.4428525419
 10
-29.6724947758
 20
39.2942965928
 10
-29.6003419848
 20
38.1732918793
 10
-29.5218338911
 20
37.0510874689
 10
-29.4355853219
 20
35.9071604546
 10
-29.3431634955
 20
34.7620337435
 10
-29.2475223944
 20
33.6485251245
 10
-29.1514387768
 20
32.5884563768
 10
-29.0538155162
 20
31.5600057213
 10
-28.951770675
 20
30.5305256095
 10
-28.8429672668
 20
29.4766818298
 10
-28.7297853102
 20
28.4218085937
 10
-28.6164009594
 20
27.403260987
 10
-28.5063468205
 20
26.4457959831
 10
-28.397519535
 20
25.5246566086
 10
-28.2856362068
 20
24.6029270299
 10
-28.1676391555
 20
23.6560626607
 10
-28.0465480074
 20
22.7086080872
 10
-27.9271331282
 20
21.7972812343
 10
-27.8131848887
 20
20.9464298231
 10
-27.7019975842
 20
20.1317061325
 10
-27.5886010074
 20
19.3167849247
 10
-27.4698287076
 20
18.4789377481
 10
-27.3487853303
 20
17.6408930543
 10
-27.2298091905
 20
16.8345109593
 10
-27.1164037126
 20
16.0808724764
 10
-27.0057810652
 20
15.3588965923
 10
-26.8928147571
 20
14.6372003842
 10
-26.774296644
 20
13.8962858337
 10
-26.6533024419
 20
13.1556509592
 10
-26.5340618553
 20
12.4424068934
 10
-26.4198288077
 20
11.7745359879
 10
-26.3078259589
 20
11.134055891
 10
-26.1932254036
 20
10.494130681
 10
-26.0729193947
 20
9.8380047913
 10
-25.9498585538
 20
9.1824337884
 10
-25.828267654
 20
8.55084845
 10
-25.7113536009
 20
7.9587331443
 10
-25.596260526
 20
7.3906035031
 10
-25.47810915
 20
6.8234371997
 10
-25.3538818203
 20
6.2434432189
 10
-25.2264160395
 20
5.664412576
 10
-25.0995758489
 20
5.1046959897
 10
-24.9762913663
 20
4.5764648287
 10
-24.8538658489
 20
4.0675477244
 10
-24.727710709
 20
3.5597812902
 10
-24.594914344
 20
3.0420403031
 10
-24.4581816554
 20
2.5254499861
 10
-24.3213247273
 20
2.0252226214
 10
-24.1872224681
 20
1.5515215435
 10
-24.0531620872
 20
1.0941834179
 10
-23.9145548992
 20
0.6379305229
 10
-23.7683983648
 20
0.173411545
 10
-23.6174543424
 20
-0.2900222022
 10
-23.4657676647
 20
-0.7395945001
 10
-23.3161863537
 20
-1.1671496127
 10
-23.1659896991
 20
-1.5808432759
 10
-23.010872252
 20
-1.9923664778
 10
-22.8476850935
 20
-2.4095578957
 10
-22.6793334441
 20
-2.8245788524
 10
-22.5106112188
 20
-3.2256043049
 10
-22.3448162418
 20
-3.6050526406
 10
-22.1788115363
 20
-3.9705054721
 10
-22.0077489457
 20
-4.332882595
 10
-21.8280262123
 20
-4.6993333454
 10
-21.643009339
 20
-5.0627083872
 10
-21.4583272916
 20
-5.4124795064
 10
-21.2778574281
 20
-5.741580832
 10
-21.097927992
 20
-6.057078235
 10
-20.9128556303
 20
-6.3696411154
 10
-20.7196651028
 20
-6.6843340365
 10
-20.5211257436
 20
-6.9960924348
 10
-20.3201013467
 20
-7.3003920197
 10
-20.1186347495
 20
-7.5942131127
 10
-19.9147112911
 20
-7.8805753921
 10
-19.705105879
 20
-8.1640136024
 10
-19.4872027799
 20
-8.4477548715
 10
-19.2634158909
 20
-8.7285720716
 10
-19.0380950917
 20
-9.001318563
 10
-18.8139448146
 20
-9.2627878325
 10
-18.5883597002
 20
-9.5161863934
 10
-18.3577505884
 20
-9.7659871468
 10
-18.1195380045
 20
-10.014927297
 10
-17.8761573617
 20
-10.2602696397
 10
-17.6315507559
 20
-10.4982754627
  0
LINE
  5
2B3
100
AcDbEntity
  8
IMPORT_IGES
100
AcDbLine
 62
250
  6
CONTINUOUS
 10
-30.0638010932
 20
54.862731489
 11
-30.0136000237
 21
50.1070680574
  0
LINE
  5
2B4
100
AcDbEntity
  8
IMPORT_IGES
100
AcDbLine
 62
250
  6
CONTINUOUS
 10
-30.0136000237
 20
50.1070680574
 11
-29.9896417427
 21
47.7120515279
  0
LINE
  5
2B5
100
AcDbEntity
  8
IMPORT_IGES
100
AcDbLine
 62
7
  6
CONTINUOUS
 10
-30.1146427072
 20
-46.0906613616
 11
-30.1146427072
 21
54.989233338
  0
LINE
  5
2B6
100
AcDbEntity
  8
IMPORT_IGES
100
AcDbLine
 62
250
  6
CONTINUOUS
 10
-29.9896417427
 20
47.7120515279
 11
-29.9896417449
 21
-46.0246281156
  0
LWPOLYLINE
  5
2B7
100
AcDbEntity
  8
IMPORT_IGES
100
AcDbPolyline
 62
7
  6
CONTINUOUS
 90
6
 70
0
 10
-29.1248513661
 20
-46.7991799258
 10
-29.0401353629
 20
-45.2927456215
 10
-28.95210877
 20
-43.7776614564
 10
-28.8607715875
 20
-42.2542915704
 10
-28.7650479025
 20
-40.7233971077
 10
-28.5668965023
 20
-37.6381478446
  0
LWPOLYLINE
  5
2B8
100
AcDbEntity
  8
IMPORT_IGES
100
AcDbPolyline
 62
7
  6
CONTINUOUS
 90
4
 70
0
 10
-29.384653171
 20
-41.6516284828
 10
-29.4757655062
 20
-43.0943981075
 10
-29.5631652357
 20
-44.5295589925
 10
-29.6458294153
 20
-45.9571111377
  0
LWPOLYLINE
  5
2B9
100
AcDbEntity
  8
IMPORT_IGES
100
AcDbPolyline
 62
7
  6
CONTINUOUS
 90
31
 70
0
 10
-28.9067012707
 20
-34.3231531247
 10
-28.7991091817
 20
-32.6219334801
 10
-28.7825574581
 20
-32.4111812012
 10
-28.7631358611
 20
-32.2020773143
 10
-28.7408750556
 20
-31.994637417
 10
-28.7156096454
 20
-31.7888459116
 10
-28.6869689647
 20
-31.5846560054
 10
-28.6544591092
 20
-31.380295118
 10
-28.6183521631
 20
-31.1775358298
 10
-28.5794365707
 20
-30.9816490889
 10
-28.5378932699
 20
-30.794794845
 10
-28.4933562285
 20
-30.6148131485
 10
-28.4458243097
 20
-30.440495099
 10
-28.3951496859
 20
-30.2712443148
 10
-28.3412652155
 20
-30.1076571777
 10
-28.2842994321
 20
-29.9503139328
 10
-28.224279201
 20
-29.7992801075
 10
-28.1609659007
 20
-29.6544901745
 10
-28.0940878388
 20
-29.5163277975
 10
-28.0234211205
 20
-29.3846515852
 10
-27.9489313201
 20
-29.2596029288
 10
-27.8706243042
 20
-29.1419896662
 10
-27.7883217249
 20
-29.031643973
 10
-27.7019373837
 20
-28.9287336736
 10
-27.6116336588
 20
-28.8345700777
 10
-27.5173808034
 20
-28.7491357207
 10
-27.4189643335
 20
-28.6724480672
 10
-27.3162835426
 20
-28.6058708214
 10
-27.2092196381
 20
-28.5498585513
 10
-27.0976342401
 20
-28.5039566888
 10
-26.9813957225
 20
-28.468165234
  0
LWPOLYLINE
  5
2BA
100
AcDbEntity
  8
IMPORT_IGES
100
AcDbPolyline
 62
7
  6
CONTINUOUS
 90
3
 70
0
 10
-28.9067012707
 20
-34.3231531247
 10
-29.0985784776
 20
-37.27766717
 10
-29.384653171
 20
-41.6516284828
  0
LINE
  5
2BB
100
AcDbEntity
  8
IMPORT_IGES
100
AcDbLine
 62
7
  6
CONTINUOUS
 10
-25.262684263
 20
-29.5676282087
 11
-24.2507874256
 21
-29.5676282087
  0
LINE
  5
2BC
100
AcDbEntity
  8
IMPORT_IGES
100
AcDbLine
 62
7
  6
CONTINUOUS
 10
24.2106314239
 20
-29.5676282087
 11
25.2225282613
 21
-29.5676282087
  0
LINE
  5
2BD
100
AcDbEntity
  8
IMPORT_IGES
100
AcDbLine
 62
250
  6
CONTINUOUS
 10
23.2361222511
 20
-29.0254754101
 11
26.4752349244
 21
-29.0254754101
  0
LINE
  5
2BE
100
AcDbEntity
  8
IMPORT_IGES
100
AcDbLine
 62
250
  6
CONTINUOUS
 10
-23.2388187755
 20
-29.0254754101
 11
-26.4752349261
 21
-29.0254754101
  0
LWPOLYLINE
  5
2BF
100
AcDbEntity
  8
IMPORT_IGES
100
AcDbPolyline
 62
7
  6
CONTINUOUS
 90
40
 70
0
 10
0.0000005429
 20
-26.6969759198
 10
0.8386691549
 20
-26.698567853
 10
1.675753582
 20
-26.7035612977
 10
2.5112538241
 20
-26.7119562536
 10
3.3458115403
 20
-26.7237753596
 10
4.1787850714
 20
-26.738995977
 10
5.0082494409
 20
-26.7575501896
 10
5.8342138499
 20
-26.7794375241
 10
6.6566690972
 20
-26.8046584538
 10
7.473662602
 20
-26.8331464831
 10
8.2855307852
 20
-26.8649220719
 10
9.091937226
 20
-26.8999647604
 10
9.8899200808
 20
-26.9381466733
 10
10.6789295996
 20
-26.9794428209
 10
11.4595155325
 20
-27.0238781929
 10
12.2303652866
 20
-27.0713998833
 10
12.9916513598
 20
-27.1220116017
 10
13.7432012543
 20
-27.1757096385
 10
14.4831848828
 20
-27.2324299587
 10
15.2116266124
 20
-27.2921990914
 10
15.9285020761
 20
-27.3549905074
 10
16.6319080853
 20
-27.4206605838
 10
17.3217098323
 20
-27.4892258209
 10
17.9980421249
 20
-27.5606697184
 10
18.6594061976
 20
-27.6347991523
 10
19.3058466445
 20
-27.7116216496
 10
19.9373188715
 20
-27.7911296833
 10
20.5521903311
 20
-27.8731075491
 10
21.1505210227
 20
-27.9575702561
 10
21.7322509469
 20
-28.0445027952
 10
22.2955675568
 20
-28.1336444346
 10
22.8403938581
 20
-28.2249917697
 10
23.3668068451
 20
-28.3185482053
 10
23.8732249551
 20
-28.4140632235
 10
24.3596188946
 20
-28.5115387678
 10
24.8260179571
 20
-28.6109728948
 10
25.2709284595
 20
-28.7121092572
 10
25.6938525078
 20
-28.8148624061
 10
26.0952879961
 20
-28.9193177904
 10
26.4752349244
 20
-29.0254754101
  0
LINE
  5
2C0
100
AcDbEntity
  8
IMPORT_IGES
100
AcDbLine
 62
250
  6
CONTINUOUS
 10
30.1146427055
 20
-46.0906612649
 11
29.9896417432
 21
-46.0246281156
  0
LWPOLYLINE
  5
2C1
100
AcDbEntity
  8
IMPORT_IGES
100
AcDbPolyline
 62
250
  6
CONTINUOUS
 90
16
 70
0
 10
-27.1946215033
 20
55.5962968892
 10
-27.1976612284
 20
55.6593441777
 10
-27.198594319
 20
55.7204453785
 10
-27.1974199916
 20
55.7791365896
 10
-27.1941946175
 20
55.8346989917
 10
-27.1889830404
 20
55.8870880881
 10
-27.1817430321
 20
55.9368052696
 10
-27.1724668774
 20
55.9835893367
 10
-27.1612257257
 20
56.0269270563
 10
-27.1479932354
 20
56.0667937874
 10
-27.1328379247
 20
56.1028363005
 10
-27.1158576803
 20
56.1347558526
 10
-27.0970329608
 20
56.1625024952
 10
-27.0764332908
 20
56.1858472955
 10
-27.0542560451
 20
56.2045045172
 10
-27.030679674
 20
56.2183396053
  0
LINE
  5
2C2
100
AcDbEntity
  8
IMPORT_IGES
100
AcDbLine
 62
7
  6
CONTINUOUS
 10
-25.3969182356
 20
-32.9499211656
 11
-25.4010044618
 21
-32.7994288519
  0
LWPOLYLINE
  5
2C3
100
AcDbEntity
  8
IMPORT_IGES
100
AcDbPolyline
 62
7
  6
CONTINUOUS
 90
3
 70
0
 10
-25.4010044618
 20
-32.7994288519
 10
-25.4043565919
 20
-32.6500634032
 10
-25.4050800213
 20
-32.6129151408
  0
LWPOLYLINE
  5
2C4
100
AcDbEntity
  8
IMPORT_IGES
100
AcDbPolyline
 62
250
  6
CONTINUOUS
 90
3
 70
0
 10
-27.0910222258
 20
49.2866520278
 10
-27.1020046969
 20
50.0092365955
 10
-27.1946222482
 20
55.5963100518
  0
LWPOLYLINE
  5
2C5
100
AcDbEntity
  8
IMPORT_IGES
100
AcDbPolyline
 62
7
  6
CONTINUOUS
 90
17
 70
0
 10
-25.4050800213
 20
-32.6129151408
 10
-25.4082655203
 20
-32.4015945563
 10
-25.4098843366
 20
-32.1928924575
 10
-25.4099364705
 20
-31.9872407864
 10
-25.4083799619
 20
-31.7850085667
 10
-25.4052567707
 20
-31.5866882825
 10
-25.4006927767
 20
-31.3928809389
 10
-25.3946311333
 20
-31.203831168
 10
-25.387128687
 20
-31.0201094093
 10
-25.3784818578
 20
-30.842721097
 10
-25.3686793204
 20
-30.6723739528
 10
-25.3577323999
 20
-30.5089401279
 10
-25.3459714918
 20
-30.3521564815
 10
-25.3333692773
 20
-30.2022279795
 10
-25.3199530752
 20
-30.0596264704
 10
-25.3061352375
 20
-29.9245606595
 10
-25.2925397651
 20
-29.8015217555
  0
LINE
  5
2C6
100
AcDbEntity
  8
IMPORT_IGES
100
AcDbLine
 62
7
  6
CONTINUOUS
 10
-28.5668965023
 20
-37.6381478446
 11
-28.2722757588
 21
-32.9499233698
  0
LINE
  5
2C7
100
AcDbEntity
  8
IMPORT_IGES
100
AcDbLine
 62
7
  6
CONTINUOUS
 10
-29.6541080218
 20
-46.0101867553
 11
-29.6696773414
 21
-46.1122703536
  0
LINE
  5
2C8
100
AcDbEntity
  8
IMPORT_IGES
100
AcDbLine
 62
7
  6
CONTINUOUS
 10
-29.6458294153
 20
-45.9571111377
 11
-29.6541080218
 21
-46.0101867553
  0
LWPOLYLINE
  5
2C9
100
AcDbEntity
  8
0
100
AcDbPolyline
 62
7
  6
CONTINUOUS
 90
3
 70
0
 43
0.3500000006
 10
1.035714268
 20
78.5153186646
 10
0.9642857051
 20
78.3010341797
 10
0.8214285793
 20
78.015318512
  0
LINE
  5
2CA
100
AcDbEntity
  8
IMPORT_IGES
100
AcDbLine
 62
7
  6
CONTINUOUS
 10
-21.582165046
 20
-27.3982507534
 11
-20.9462219498
 21
-27.3102670238
  0
LINE
  5
2CB
100
AcDbEntity
  8
IMPORT_IGES
100
AcDbLine
 62
7
  6
CONTINUOUS
 10
-20.9462219498
 20
-27.3102670238
 11
-20.2901307282
 21
-27.2250974753
  0
LINE
  5
2CC
100
AcDbEntity
  8
IMPORT_IGES
100
AcDbLine
 62
7
  6
CONTINUOUS
 10
-20.2901307282
 20
-27.2250974753
 11
-19.6160847172
 21
-27.1429683254
  0
LINE
  5
2CD
100
AcDbEntity
  8
IMPORT_IGES
100
AcDbLine
 62
7
  6
CONTINUOUS
 10
-19.6160847172
 20
-27.1429683254
 11
-18.9302108114
 21
-27.064518417
  0
LINE
  5
2CE
100
AcDbEntity
  8
IMPORT_IGES
100
AcDbLine
 62
7
  6
CONTINUOUS
 10
-18.9302108114
 20
-27.064518417
 11
-18.2347950519
 21
-26.989731886
  0
LINE
  5
2CF
100
AcDbEntity
  8
IMPORT_IGES
100
AcDbLine
 62
7
  6
CONTINUOUS
 10
-18.2347950519
 20
-26.989731886
 11
-17.5302208435
 21
-26.9184501163
  0
LINE
  5
2D0
100
AcDbEntity
  8
IMPORT_IGES
100
AcDbLine
 62
7
  6
CONTINUOUS
 10
-17.5302208435
 20
-26.9184501163
 11
-16.8133534269
 21
-26.8501023522
  0
LINE
  5
2D1
100
AcDbEntity
  8
IMPORT_IGES
100
AcDbLine
 62
7
  6
CONTINUOUS
 10
-16.8133534269
 20
-26.8501023522
 11
-16.0807851213
 21
-26.7841862669
  0
LWPOLYLINE
  5
2D2
100
AcDbEntity
  8
IMPORT_IGES
100
AcDbPolyline
 62
7
  6
CONTINUOUS
 90
46
 70
0
 10
13.0776326185
 20
-23.0827283013
 10
13.0876806385
 20
-23.0818429239
 10
13.0984073643
 20
-23.0817012848
 10
13.1098205478
 20
-23.0823033841
 10
13.1219227216
 20
-23.0836663063
 10
13.134723856
 20
-23.0857729669
 10
13.1482433463
 20
-23.0885721122
 10
13.162497954
 20
-23.0920340041
 10
13.1774824017
 20
-23.0961883807
 10
13.1931810977
 20
-23.1010732034
 10
13.2095950997
 20
-23.1066944633
 10
13.2267228164
 20
-23.1130461692
 10
13.2445385327
 20
-23.1201483092
 10
13.263010418
 20
-23.1279909417
 10
13.2821564014
 20
-23.1365840083
 10
13.3020259508
 20
-23.1459773219
 10
13.3226226948
 20
-23.1561721098
 10
13.343931806
 20
-23.1671671447
 10
13.365979606
 20
-23.1790085569
 10
13.3887473722
 20
-23.191688513
 10
13.4122355557
 20
-23.2052148465
 10
13.4365026006
 20
-23.2196571885
 10
13.461544762
 20
-23.2350182398
 10
13.4873422467
 20
-23.2512952995
 10
13.5139318614
 20
-23.2685498966
 10
13.5413175575
 20
-23.2868004255
 10
13.5694588277
 20
-23.3060284917
 10
13.5983228315
 20
-23.3262404406
 10
13.6278802401
 20
-23.3474446225
 10
13.658101145
 20
-23.3696326871
 10
13.6889458385
 20
-23.3927859294
 10
13.7203969032
 20
-23.4169338231
 10
13.7523892611
 20
-23.4420468944
 10
13.7848049456
 20
-23.4680180177
 10
13.8175924973
 20
-23.4948623476
 10
13.8506965723
 20
-23.5225647294
 10
13.8839878669
 20
-23.5509725727
 10
13.9174143467
 20
-23.5801070566
 10
13.9509033059
 20
-23.6099470021
 10
13.9842929324
 20
-23.6402762815
 10
14.0175071536
 20
-23.671095659
 10
14.0504898159
 20
-23.7024043704
 10
14.0831116124
 20
-23.7339839956
 10
14.115286591
 20
-23.7657617277
 10
14.1469695338
 20
-23.7978103735
 10
14.1780944207
 20
-23.8301299329
  0
LINE
  5
2D3
100
AcDbEntity
  8
IMPORT_IGES
100
AcDbLine
 62
7
  6
CONTINUOUS
 10
-16.0807851213
 20
-26.7841862669
 11
-15.3304422171
 21
-26.7204813633
  0
LINE
  5
2D4
100
AcDbEntity
  8
IMPORT_IGES
100
AcDbLine
 62
7
  6
CONTINUOUS
 10
-15.3304422171
 20
-26.7204813633
 11
-14.557676144
 21
-26.658683558
  0
LINE
  5
2D5
100
AcDbEntity
  8
IMPORT_IGES
100
AcDbLine
 62
7
  6
CONTINUOUS
 10
13.0776378268
 20
-23.0831768503
 11
13.0000093783
 21
-23.089074434
  0
LINE
  5
2D6
100
AcDbEntity
  8
IMPORT_IGES
100
AcDbLine
 62
7
  6
CONTINUOUS
 10
-14.557676144
 20
-26.658683558
 11
-13.7658746685
 21
-26.599416723
  0
LINE
  5
2D7
100
AcDbEntity
  8
IMPORT_IGES
100
AcDbLine
 62
7
  6
CONTINUOUS
 10
13.0004973663
 20
-23.0874153845
 11
12.9870608915
 21
-23.0883676524
  0
LINE
  5
2D8
100
AcDbEntity
  8
IMPORT_IGES
100
AcDbLine
 62
7
  6
CONTINUOUS
 10
-13.7658746685
 20
-26.599416723
 11
-12.9585681705
 21
-26.5430805706
  0
LWPOLYLINE
  5
2D9
100
AcDbEntity
  8
IMPORT_IGES
100
AcDbPolyline
 62
250
  6
CONTINUOUS
 90
16
 70
0
 10
12.8229523926
 20
-22.8209137666
 10
11.9664172105
 20
-22.8757442677
 10
11.1053548135
 20
-22.9265440162
 10
10.241014193
 20
-22.9733184328
 10
9.3746320119
 20
-23.0161185462
 10
8.5073177885
 20
-23.0549035103
 10
7.6400513094
 20
-23.0895405926
 10
6.7741452874
 20
-23.1199612511
 10
5.9103394816
 20
-23.1462429357
 10
5.0486652506
 20
-23.1684715155
 10
4.1891824042
 20
-23.1866431876
 10
3.3335881658
 20
-23.2007693806
 10
2.4843106423
 20
-23.2109585531
 10
1.6426797847
 20
-23.2172491174
 10
0.8089126625
 20
-23.2196093753
 10
-0.0162841676
 20
-23.2180423934
  0
LINE
  5
2DA
100
AcDbEntity
  8
IMPORT_IGES
100
AcDbLine
 62
7
  6
CONTINUOUS
 10
-12.9585681705
 20
-26.5430805706
 11
-12.1455065094
 21
-26.4905341832
  0
LINE
  5
2DB
100
AcDbEntity
  8
IMPORT_IGES
100
AcDbLine
 62
250
  6
CONTINUOUS
 10
11.3198665513
 20
-23.2069315725
 11
10.6524163989
 21
-23.2487205038
  0
LINE
  5
2DC
100
AcDbEntity
  8
IMPORT_IGES
100
AcDbLine
 62
7
  6
CONTINUOUS
 10
-12.1455065094
 20
-26.4905341832
 11
-11.3266685349
 21
-26.4417775727
  0
LINE
  5
2DD
100
AcDbEntity
  8
IMPORT_IGES
100
AcDbLine
 62
250
  6
CONTINUOUS
 10
10.6524163989
 20
-23.2487205038
 11
9.9535467158
 21
-23.2892430324
  0
LWPOLYLINE
  5
2DE
100
AcDbEntity
  8
IMPORT_IGES
100
AcDbPolyline
 62
7
  6
CONTINUOUS
 90
4
 70
0
 10
10.2235001131
 20
-23.2685427806
 10
9.3602371569
 20
-23.3167192682
 10
8.5936341141
 20
-23.3559258513
 10
7.8210185612
 20
-23.3921353375
  0
LINE
  5
2DF
100
AcDbEntity
  8
IMPORT_IGES
100
AcDbLine
 62
7
  6
CONTINUOUS
 10
-11.3266685349
 20
-26.4417775727
 11
-10.5018045076
 21
-26.3968058623
  0
LINE
  5
2E0
100
AcDbEntity
  8
IMPORT_IGES
100
AcDbLine
 62
250
  6
CONTINUOUS
 10
9.9535467158
 20
-23.2892430324
 11
9.3046387631
 21
-23.3240102602
  0
LINE
  5
2E1
100
AcDbEntity
  8
IMPORT_IGES
100
AcDbLine
 62
7
  6
CONTINUOUS
 10
-10.5018045076
 20
-26.3968058623
 11
-9.6671892549
 21
-26.3554428992
  0
LINE
  5
2E2
100
AcDbEntity
  8
IMPORT_IGES
100
AcDbLine
 62
250
  6
CONTINUOUS
 10
9.3046387631
 20
-23.3240102602
 11
8.4189956482
 21
-23.367204862
  0
LINE
  5
2E3
100
AcDbEntity
  8
IMPORT_IGES
100
AcDbLine
 62
7
  6
CONTINUOUS
 10
-9.6671892549
 20
-26.3554428992
 11
-8.8223506385
 21
-26.3177230634
  0
LINE
  5
2E4
100
AcDbEntity
  8
IMPORT_IGES
100
AcDbLine
 62
7
  6
CONTINUOUS
 10
7.1398878834
 20
-23.4214053662
 11
7.0433457025
 21
-23.4251754385
  0
LINE
  5
2E5
100
AcDbEntity
  8
IMPORT_IGES
100
AcDbLine
 62
250
  6
CONTINUOUS
 10
8.4189956482
 20
-23.367204862
 11
7.6243677305
 21
-23.4019782018
  0
LINE
  5
2E6
100
AcDbEntity
  8
IMPORT_IGES
100
AcDbLine
 62
7
  6
CONTINUOUS
 10
-8.8223506385
 20
-26.3177230634
 11
-7.9673340049
 21
-26.2836620661
  0
LINE
  5
2E7
100
AcDbEntity
  8
IMPORT_IGES
100
AcDbLine
 62
250
  6
CONTINUOUS
 10
7.6243677305
 20
-23.4019782018
 11
6.9097137534
 21
-23.4301763748
  0
LWPOLYLINE
  5
2E8
100
AcDbEntity
  8
IMPORT_IGES
100
AcDbPolyline
 62
7
  6
CONTINUOUS
 90
3
 70
0
 10
6.2652170204
 20
-23.453195817
 10
6.2611796175
 20
-23.4548447791
 10
6.0647318396
 20
-23.4598983777
  0
LINE
  5
2E9
100
AcDbEntity
  8
IMPORT_IGES
100
AcDbLine
 62
7
  6
CONTINUOUS
 10
-7.9673340049
 20
-26.2836620661
 11
-7.102229652
 21
-26.2533017743
  0
LINE
  5
2EA
100
AcDbEntity
  8
IMPORT_IGES
100
AcDbLine
 62
250
  6
CONTINUOUS
 10
6.9097137534
 20
-23.4301763748
 11
6.0647318396
 21
-23.4598983777
  0
LWPOLYLINE
  5
2EB
100
AcDbEntity
  8
IMPORT_IGES
100
AcDbPolyline
 62
7
  6
CONTINUOUS
 90
5
 70
0
 10
5.8705450373
 20
-23.4661837347
 10
5.4749073251
 20
-23.4807727636
 10
4.6852242768
 20
-23.502544628
 10
3.8927157002
 20
-23.5197559454
 10
3.7177970567
 20
-23.5222763649
  0
LINE
  5
2EC
100
AcDbEntity
  8
IMPORT_IGES
100
AcDbLine
 62
7
  6
CONTINUOUS
 10
-7.102229652
 20
-26.2533017743
 11
-6.2292540181
 21
-26.2266885147
  0
LINE
  5
2ED
100
AcDbEntity
  8
IMPORT_IGES
100
AcDbLine
 62
250
  6
CONTINUOUS
 10
6.0647318396
 20
-23.4598983777
 11
5.3251849216
 21
-23.4827497148
  0
LINE
  5
2EE
100
AcDbEntity
  8
IMPORT_IGES
100
AcDbLine
 62
7
  6
CONTINUOUS
 10
-6.2292540181
 20
-26.2266885147
 11
-5.349967218
 21
-26.2038217559
  0
LINE
  5
2EF
100
AcDbEntity
  8
IMPORT_IGES
100
AcDbLine
 62
250
  6
CONTINUOUS
 10
5.3251849216
 20
-23.4827497148
 11
4.5258245749
 21
-23.504139791
  0
LINE
  5
2F0
100
AcDbEntity
  8
IMPORT_IGES
100
AcDbLine
 62
7
  6
CONTINUOUS
 10
-5.349967218
 20
-26.2038217559
 11
-4.4667406467
 21
-26.1846743479
  0
LINE
  5
2F1
100
AcDbEntity
  8
IMPORT_IGES
100
AcDbLine
 62
250
  6
CONTINUOUS
 10
4.5258245749
 20
-23.504139791
 11
3.7177970567
 21
-23.5222763649
  0
LWPOLYLINE
  5
2F2
100
AcDbEntity
  8
IMPORT_IGES
100
AcDbPolyline
 62
250
  6
CONTINUOUS
 90
6
 70
0
 10
-0.0057084927
 20
-24.3630476141
 10
-0.0071574772
 20
-24.3630760795
 10
-0.0086010411
 20
-24.3630878228
 10
-0.0100348919
 20
-24.3630760459
 10
-0.0114633222
 20
-24.363047547
 10
-0.0128863319
 20
-24.3630023261
  0
LINE
  5
2F3
100
AcDbEntity
  8
IMPORT_IGES
100
AcDbLine
 62
7
  6
CONTINUOUS
 10
-4.4667406467
 20
-26.1846743479
 11
-3.5798995369
 21
-26.1690965346
  0
LINE
  5
2F4
100
AcDbEntity
  8
IMPORT_IGES
100
AcDbLine
 62
250
  6
CONTINUOUS
 10
3.7177970567
 20
-23.5222763649
 11
2.9432748663
 21
-23.5363851358
  0
LWPOLYLINE
  5
2F5
100
AcDbEntity
  8
IMPORT_IGES
100
AcDbPolyline
 62
250
  6
CONTINUOUS
 90
15
 70
0
 10
3.2740487484
 20
-24.3292778019
 10
4.0881945448
 20
-24.3171968672
 10
4.8993228994
 20
-24.3007948016
 10
5.7067977661
 20
-24.2788833786
 10
6.5100439498
 20
-24.2526508247
 10
7.3085015182
 20
-24.2230617613
 10
8.1016216533
 20
-24.1902279505
 10
8.8887583807
 20
-24.1540376302
 10
9.6692135412
 20
-24.1151201352
 10
10.4424111319
 20
-24.0735175859
 10
11.2077658971
 20
-24.029187862
 10
11.9645807824
 20
-23.9826339373
 10
12.7122537441
 20
-23.9340234699
 10
13.4502736655
 20
-23.8831888017
 10
14.1780949837
 20
-23.8301299329
  0
LINE
  5
2F6
100
AcDbEntity
  8
IMPORT_IGES
100
AcDbLine
 62
7
  6
CONTINUOUS
 10
-3.5798995369
 20
-26.1690965346
 11
-2.6898680737
 21
-26.1569853844
  0
LINE
  5
2F7
100
AcDbEntity
  8
IMPORT_IGES
100
AcDbLine
 62
250
  6
CONTINUOUS
 10
2.9432748663
 20
-23.5363851358
 11
2.1539204549
 21
-23.5474717797
  0
LINE
  5
2F8
100
AcDbEntity
  8
IMPORT_IGES
100
AcDbLine
 62
250
  6
CONTINUOUS
 10
-0.0028371868
 20
-24.3630084979
 11
-0.0042669651
 21
-24.3630228209
  0
LINE
  5
2F9
100
AcDbEntity
  8
IMPORT_IGES
100
AcDbLine
 62
250
  6
CONTINUOUS
 10
0.1358282232
 20
-23.5613146425
 11
-0.0083319536
 21
-23.5629969266
  0
LINE
  5
2FA
100
AcDbEntity
  8
IMPORT_IGES
100
AcDbLine
 62
7
  6
CONTINUOUS
 10
-2.6898680737
 20
-26.1569853844
 11
-1.7964331508
 21
-26.1481657177
  0
LINE
  5
2FB
100
AcDbEntity
  8
IMPORT_IGES
100
AcDbLine
 62
250
  6
CONTINUOUS
 10
2.1539204549
 20
-23.5474717797
 11
1.3678951252
 21
-23.5551722503
  0
LWPOLYLINE
  5
2FC
100
AcDbEntity
  8
IMPORT_IGES
100
AcDbPolyline
 62
250
  6
CONTINUOUS
 90
4
 70
0
 10
0.0000002053
 20
-24.3629908684
 10
0.819911316
 20
-24.3569275398
 10
1.6392955397
 20
-24.3491431381
 10
3.2740487484
 20
-24.3292778019
  0
LINE
  5
2FD
100
AcDbEntity
  8
IMPORT_IGES
100
AcDbLine
 62
7
  6
CONTINUOUS
 10
-1.7964331508
 20
-26.1481657177
 11
-0.8996249869
 21
-26.1424142219
  0
LINE
  5
2FE
100
AcDbEntity
  8
IMPORT_IGES
100
AcDbLine
 62
7
  6
CONTINUOUS
 10
12.9864293371
 20
-22.9491767058
 11
12.9993922179
 21
-22.9491204546
  0
LINE
  5
2FF
100
AcDbEntity
  8
IMPORT_IGES
100
AcDbLine
 62
250
  6
CONTINUOUS
 10
0.3077299531
 20
-23.5603078716
 11
0.1358282232
 21
-23.5613146425
  0
LINE
  5
300
100
AcDbEntity
  8
IMPORT_IGES
100
AcDbLine
 62
250
  6
CONTINUOUS
 10
1.3678951252
 20
-23.5551722503
 11
0.5837457667
 21
-23.5595221898
  0
LINE
  5
301
100
AcDbEntity
  8
IMPORT_IGES
100
AcDbLine
 62
250
  6
CONTINUOUS
 10
0.5837457667
 20
-23.5595221898
 11
0.3077299531
 21
-23.5603078716
  0
LINE
  5
302
100
AcDbEntity
  8
IMPORT_IGES
100
AcDbLine
 62
7
  6
CONTINUOUS
 10
-0.8996249869
 20
-26.1424142219
 11
0.0000002053
 21
-26.1396653303
  0
LINE
  5
303
100
AcDbEntity
  8
IMPORT_IGES
100
AcDbLine
 62
7
  6
CONTINUOUS
 10
0.0000004115
 20
-26.1396653303
 11
0.8996207823
 21
-26.1424146576
  0
LINE
  5
304
100
AcDbEntity
  8
IMPORT_IGES
100
AcDbLine
 62
7
  6
CONTINUOUS
 10
-4.7956417848
 20
-23.4973040542
 11
3.2024021088
 21
-23.5320135
  0
LWPOLYLINE
  5
305
100
AcDbEntity
  8
IMPORT_IGES
100
AcDbPolyline
 62
250
  6
CONTINUOUS
 90
16
 70
0
 10
-0.0162851505
 20
-23.2180423891
 10
-0.8426748122
 20
-23.2125669165
 10
-1.6779254968
 20
-23.2030375501
 10
-2.5213266612
 20
-23.1894573735
 10
-3.3727905473
 20
-23.1718538876
 10
-4.2308433473
 20
-23.150206369
 10
-5.0926440509
 20
-23.1244457877
 10
-5.9569058864
 20
-23.0945458509
 10
-6.8231413091
 20
-23.060540552
 10
-7.6896821197
 20
-23.0224514044
 10
-8.5548774894
 20
-22.9802488609
 10
-9.418418407
 20
-22.9339709744
 10
-10.2805722321
 20
-22.8837409928
 10
-11.1406486618
 20
-22.8296033815
 10
-11.9970395632
 20
-22.7715236506
 10
-12.8485290472
 20
-22.7095070769
  0
LINE
  5
306
100
AcDbEntity
  8
IMPORT_IGES
100
AcDbLine
 62
7
  6
CONTINUOUS
 10
0.8996207823
 20
-26.1424146576
 11
1.7961812888
 21
-26.1481637134
  0
LINE
  5
307
100
AcDbEntity
  8
IMPORT_IGES
100
AcDbLine
 62
7
  6
CONTINUOUS
 10
-0.0083318091
 20
-23.5629969276
 11
-1.2780050856
 21
-23.5559229221
  0
LINE
  5
308
100
AcDbEntity
  8
IMPORT_IGES
100
AcDbLine
 62
7
  6
CONTINUOUS
 10
1.7961812888
 20
-26.1481637134
 11
2.6890859349
 21
-26.1569762248
  0
LINE
  5
309
100
AcDbEntity
  8
IMPORT_IGES
100
AcDbLine
 62
7
  6
CONTINUOUS
 10
-1.2780050856
 20
-23.5559229221
 11
-2.1025055244
 21
-23.5480955915
  0
LINE
  5
30A
100
AcDbEntity
  8
IMPORT_IGES
100
AcDbLine
 62
7
  6
CONTINUOUS
 10
2.6890859349
 20
-26.1569762248
 11
3.5781984279
 21
-26.1690707899
  0
LINE
  5
30B
100
AcDbEntity
  8
IMPORT_IGES
100
AcDbLine
 62
7
  6
CONTINUOUS
 10
-2.1025055244
 20
-23.5480955915
 11
-2.9361285359
 21
-23.5364871366
  0
LINE
  5
30C
100
AcDbEntity
  8
IMPORT_IGES
100
AcDbLine
 62
7
  6
CONTINUOUS
 10
3.5781984279
 20
-26.1690707899
 11
4.4634041036
 21
-26.1846083434
  0
LINE
  5
30D
100
AcDbEntity
  8
IMPORT_IGES
100
AcDbLine
 62
7
  6
CONTINUOUS
 10
-2.9361285359
 20
-23.5364871366
 11
-3.763946287
 21
-23.5213403952
  0
LINE
  5
30E
100
AcDbEntity
  8
IMPORT_IGES
100
AcDbLine
 62
7
  6
CONTINUOUS
 10
4.4634041036
 20
-26.1846083434
 11
5.3442924186
 21
-26.2036866734
  0
LINE
  5
30F
100
AcDbEntity
  8
IMPORT_IGES
100
AcDbLine
 62
7
  6
CONTINUOUS
 10
-3.763946287
 20
-23.5213403952
 11
-4.636798621
 21
-23.501374917
  0
LINE
  5
310
100
AcDbEntity
  8
IMPORT_IGES
100
AcDbLine
 62
7
  6
CONTINUOUS
 10
5.3442924186
 20
-26.2036866734
 11
6.2205245467
 21
-26.2264391867
  0
LINE
  5
311
100
AcDbEntity
  8
IMPORT_IGES
100
AcDbLine
 62
7
  6
CONTINUOUS
 10
-4.636798621
 20
-23.501374917
 11
-5.4554066367
 21
-23.4789540317
  0
LINE
  5
312
100
AcDbEntity
  8
IMPORT_IGES
100
AcDbLine
 62
7
  6
CONTINUOUS
 10
6.2205245467
 20
-26.2264391867
 11
7.0919309373
 21
-26.2529645894
  0
LINE
  5
313
100
AcDbEntity
  8
IMPORT_IGES
100
AcDbLine
 62
7
  6
CONTINUOUS
 10
-5.4554066367
 20
-23.4789540317
 11
-6.3562281216
 21
-23.4500976885
  0
LINE
  5
314
100
AcDbEntity
  8
IMPORT_IGES
100
AcDbLine
 62
7
  6
CONTINUOUS
 10
7.0919309373
 20
-26.2529645894
 11
7.9577635677
 21
-26.2833038697
  0
LINE
  5
315
100
AcDbEntity
  8
IMPORT_IGES
100
AcDbLine
 62
7
  6
CONTINUOUS
 10
-6.3562281216
 20
-23.4500976885
 11
-7.3985681008
 21
-23.4111264087
  0
LINE
  5
316
100
AcDbEntity
  8
IMPORT_IGES
100
AcDbLine
 62
7
  6
CONTINUOUS
 10
7.9577635677
 20
-26.2833038697
 11
8.8171198436
 21
-26.317505342
  0
LINE
  5
317
100
AcDbEntity
  8
IMPORT_IGES
100
AcDbLine
 62
7
  6
CONTINUOUS
 10
8.8171198436
 20
-26.317505342
 11
9.6666810293
 21
-26.355420592
  0
LINE
  5
318
100
AcDbEntity
  8
IMPORT_IGES
100
AcDbLine
 62
7
  6
CONTINUOUS
 10
-7.3985681008
 20
-23.4111264087
 11
-8.7953474083
 21
-23.3493347627
  0
LINE
  5
319
100
AcDbEntity
  8
IMPORT_IGES
100
AcDbLine
 62
7
  6
CONTINUOUS
 10
9.6666810293
 20
-26.355420592
 11
10.5051240581
 21
-26.3969786228
  0
LINE
  5
31A
100
AcDbEntity
  8
IMPORT_IGES
100
AcDbLine
 62
7
  6
CONTINUOUS
 10
-8.7953474083
 20
-23.3493347627
 11
-9.5093051713
 21
-23.3132958131
  0
LINE
  5
31B
100
AcDbEntity
  8
IMPORT_IGES
100
AcDbLine
 62
7
  6
CONTINUOUS
 10
10.5051240581
 20
-26.3969786228
 11
11.3313569614
 21
-26.4420466241
  0
LINE
  5
31C
100
AcDbEntity
  8
IMPORT_IGES
100
AcDbLine
 62
7
  6
CONTINUOUS
 10
-9.5093051713
 20
-23.3132958131
 11
-10.1839846502
 21
-23.2762354026
  0
LINE
  5
31D
100
AcDbEntity
  8
IMPORT_IGES
100
AcDbLine
 62
7
  6
CONTINUOUS
 10
11.3313569614
 20
-26.4420466241
 11
12.1490315145
 21
-26.4907511104
  0
LINE
  5
31E
100
AcDbEntity
  8
IMPORT_IGES
100
AcDbLine
 62
7
  6
CONTINUOUS
 10
-10.1839846502
 20
-23.2762354026
 11
-10.8627612004
 21
-23.2359075678
  0
LINE
  5
31F
100
AcDbEntity
  8
IMPORT_IGES
100
AcDbLine
 62
7
  6
CONTINUOUS
 10
12.1490315145
 20
-26.4907511104
 11
12.9585032848
 21
-26.5430762111
  0
LINE
  5
320
100
AcDbEntity
  8
IMPORT_IGES
100
AcDbLine
 62
7
  6
CONTINUOUS
 10
-10.8627612004
 20
-23.2359075678
 11
-11.5312117115
 21
-23.1932156479
  0
LINE
  5
321
100
AcDbEntity
  8
IMPORT_IGES
100
AcDbLine
 62
7
  6
CONTINUOUS
 10
-11.5312117115
 20
-23.1932156479
 11
-12.2333269532
 21
-23.1452031535
  0
LINE
  5
322
100
AcDbEntity
  8
IMPORT_IGES
100
AcDbLine
 62
7
  6
CONTINUOUS
 10
12.9585032848
 20
-26.5430762111
 11
13.7596665671
 21
-26.5989628149
  0
LWPOLYLINE
  5
323
100
AcDbEntity
  8
IMPORT_IGES
100
AcDbPolyline
 62
250
  6
CONTINUOUS
 90
19
 70
0
 10
-14.1780844519
 20
-23.8301388952
 10
-13.4511761705
 20
-23.8831779473
 10
-12.714079464
 20
-23.933954977
 10
-11.9673373031
 20
-23.9824699843
 10
-11.2114798152
 20
-24.028907782
 10
-10.4470853955
 20
-24.0730835573
 10
-9.6747824961
 20
-24.1144428716
 10
-8.8950644572
 20
-24.1529803045
 10
-8.1085895582
 20
-24.1887012763
 10
-7.3162518667
 20
-24.2210676106
 10
-6.5188560496
 20
-24.2500200094
 10
-5.7167952122
 20
-24.2756177705
 10
-4.9103528904
 20
-24.2975006108
 10
-4.1000208154
 20
-24.3150692291
 10
-3.2865095575
 20
-24.3289229265
 10
-2.4704304667
 20
-24.3404993229
 10
-1.6523938598
 20
-24.3502776249
 10
-0.8330085092
 20
-24.357778626
 10
-0.0128863321
 20
-24.363002326
  0
LINE
  5
324
100
AcDbEntity
  8
IMPORT_IGES
100
AcDbLine
 62
7
  6
CONTINUOUS
 10
-12.2333269532
 20
-23.1452031535
 11
-12.9274174285
 21
-23.0945597756
  0
LINE
  5
325
100
AcDbEntity
  8
IMPORT_IGES
100
AcDbLine
 62
7
  6
CONTINUOUS
 10
13.7596665671
 20
-26.5989628149
 11
14.5469663364
 21
-26.6578550812
  0
LINE
  5
326
100
AcDbEntity
  8
IMPORT_IGES
100
AcDbLine
 62
7
  6
CONTINUOUS
 10
-12.9274174285
 20
-23.0945597756
 11
-13.0776263877
 21
-23.0831853412
  0
LINE
  5
327
100
AcDbEntity
  8
IMPORT_IGES
100
AcDbLine
 62
7
  6
CONTINUOUS
 10
14.5469663364
 20
-26.6578550812
 11
15.3182054916
 21
-26.7194726055
  0
LWPOLYLINE
  5
328
100
AcDbEntity
  8
IMPORT_IGES
100
AcDbPolyline
 62
7
  6
CONTINUOUS
 90
34
 70
0
 10
-13.0776217295
 20
-23.0827563883
 10
-13.0878200106
 20
-23.081882222
 10
-13.0987189678
 20
-23.0817676523
 10
-13.110327005
 20
-23.0824126795
 10
-13.122653041
 20
-23.083834288
 10
-13.1357023305
 20
-23.0860154933
 10
-13.1494757385
 20
-23.0889053413
 10
-13.1639794701
 20
-23.0924750998
 10
-13.1792141094
 20
-23.096753501
 10
-13.1951683927
 20
-23.1017757868
 10
-13.2118370696
 20
-23.1075441961
 10
-13.2292218311
 20
-23.1140564899
 10
-13.2473185113
 20
-23.1213411934
 10
-13.2661047894
 20
-23.129390407
 10
-13.2855908902
 20
-23.1382120302
 10
-13.3058237747
 20
-23.1478582874
 10
-13.3267975223
 20
-23.1583245244
 10
-13.3485064819
 20
-23.1696153955
 10
-13.37100399
 20
-23.1817970869
 10
-13.3942857175
 20
-23.1948680582
 10
-13.4183408047
 20
-23.2088298499
 10
-13.4432168778
 20
-23.2237532702
 10
-13.4689170731
 20
-23.2396483873
 10
-13.4954141752
 20
-23.2565051331
 10
-13.5227099769
 20
-23.274364111
 10
-13.5507955017
 20
-23.2932397064
 10
-13.5796373861
 20
-23.313117534
 10
-13.609195927
 20
-23.333995042
 10
-13.6394345155
 20
-23.3558698368
 10
-13.6703238635
 20
-23.3787443122
 10
-13.7018291304
 20
-23.4026230973
 10
-13.7339088651
 20
-23.4275077353
 10
-13.7665148242
 20
-23.453396683
 10
-13.7995958145
 20
-23.4802899406
  0
LINE
  5
329
100
AcDbEntity
  8
IMPORT_IGES
100
AcDbLine
 62
7
  6
CONTINUOUS
 10
15.3182054916
 20
-26.7194726055
 11
16.0713691304
 21
-26.7833653508
  0
LINE
  5
32A
100
AcDbEntity
  8
IMPORT_IGES
100
AcDbLine
 62
7
  6
CONTINUOUS
 10
16.0713691304
 20
-26.7833653508
 11
16.8079017003
 21
-26.849599284
  0
LINE
  5
32B
100
AcDbEntity
  8
IMPORT_IGES
100
AcDbLine
 62
7
  6
CONTINUOUS
 10
16.8079017003
 20
-26.849599284
 11
17.5286532183
 21
-26.9182961991
  0
LINE
  5
32C
100
AcDbEntity
  8
IMPORT_IGES
100
AcDbLine
 62
7
  6
CONTINUOUS
 10
17.5286532183
 20
-26.9182961991
 11
18.2355954001
 21
-26.9898163774
  0
LINE
  5
32D
100
AcDbEntity
  8
IMPORT_IGES
100
AcDbLine
 62
7
  6
CONTINUOUS
 10
18.2355954001
 20
-26.9898163774
 11
18.9318435558
 21
-27.0646979011
  0
LINE
  5
32E
100
AcDbEntity
  8
IMPORT_IGES
100
AcDbLine
 62
7
  6
CONTINUOUS
 10
18.9318435558
 20
-27.0646979011
 11
19.6172840705
 21
-27.1431098905
  0
LINE
  5
32F
100
AcDbEntity
  8
IMPORT_IGES
100
AcDbLine
 62
7
  6
CONTINUOUS
 10
19.6172840705
 20
-27.1431098905
 11
20.2905433393
 21
-27.2251481809
  0
LINE
  5
330
100
AcDbEntity
  8
IMPORT_IGES
100
AcDbLine
 62
7
  6
CONTINUOUS
 10
20.2905433393
 20
-27.2251481809
 11
20.9463009698
 21
-27.3102782612
  0
LWPOLYLINE
  5
331
100
AcDbEntity
  8
IMPORT_IGES
100
AcDbPolyline
 62
7
  6
CONTINUOUS
 90
22
 70
0
 10
20.9463009698
 20
-27.3102782612
 10
21.5824643809
 20
-27.3982935062
 10
21.8925817055
 20
-27.4432925877
 10
22.1974446333
 20
-27.4889664329
 10
22.4972165575
 20
-27.5353075602
 10
22.7918517629
 20
-27.5823220136
 10
23.0812730567
 20
-27.6300037491
 10
23.3655791103
 20
-27.6783271531
 10
23.6447155481
 20
-27.7272984062
 10
23.9186037206
 20
-27.7769113278
 10
24.1872920836
 20
-27.8271217628
 10
24.4507464055
 20
-27.877941408
 10
24.7088594649
 20
-27.9293585665
 10
24.9615647808
 20
-27.9812939919
 10
25.2087996209
 20
-28.0337537078
 10
25.4504923883
 20
-28.0867316906
 10
25.6865656325
 20
-28.1401306225
 10
25.9169564809
 20
-28.19395526
 10
26.1416019765
 20
-28.2482008466
 10
26.3604281666
 20
-28.302755796
 10
26.5733719616
 20
-28.3575829126
 10
26.7803799878
 20
-28.4127193919
  0
LWPOLYLINE
  5
332
100
AcDbEntity
  8
IMPORT_IGES
100
AcDbPolyline
 62
7
  6
CONTINUOUS
 90
10
 70
0
 10
-13.79957249
 20
-20.727725071
 10
-13.8429968097
 20
-20.6940325279
 10
-13.8863740194
 20
-20.6597439771
 10
-13.929574694
 20
-20.6248594185
 10
-13.9724566928
 20
-20.5893275726
 10
-14.0149020485
 20
-20.5531997188
 10
-14.0568157305
 20
-20.5166296958
 10
-14.0980775048
 20
-20.4796687831
 10
-14.1385439921
 20
-20.442265701
 10
-14.1780844519
 20
-20.4044204497
  0
LINE
  5
333
100
AcDbEntity
  8
IMPORT_IGES
100
AcDbLine
 62
250
  6
CONTINUOUS
 10
-25.3684783801
 20
-32.2970771452
 11
-25.4050878102
 21
-32.6129152186
  0
LINE
  5
334
100
AcDbEntity
  8
IMPORT_IGES
100
AcDbLine
 62
7
  6
CONTINUOUS
 10
-25.2036355171
 20
-34.4359596117
 11
-25.2024724638
 21
-34.425984885
  0
LINE
  5
335
100
AcDbEntity
  8
IMPORT_IGES
100
AcDbLine
 62
7
  6
CONTINUOUS
 10
-25.2925397651
 20
-29.8015217555
 11
-25.2775695567
 21
-29.678242488
  0
LINE
  5
336
100
AcDbEntity
  8
IMPORT_IGES
100
AcDbLine
 62
7
  6
CONTINUOUS
 10
-25.2615184303
 20
-29.5582999447
 11
-25.262684263
 21
-29.5676282087
  0
LINE
  5
337
100
AcDbEntity
  8
IMPORT_IGES
100
AcDbLine
 62
7
  6
CONTINUOUS
 10
-25.2775695567
 20
-29.678242488
 11
-25.262684263
 21
-29.5676282087
  0
LWPOLYLINE
  5
338
100
AcDbEntity
  8
IMPORT_IGES
100
AcDbPolyline
 62
7
  6
CONTINUOUS
 90
40
 70
0
 10
-26.4752349261
 20
-29.0254754101
 10
-26.0953616662
 20
-28.919351541
 10
-25.694214002
 20
-28.8149637723
 10
-25.2717919336
 20
-28.7123121041
 10
-24.8276104135
 20
-28.6113190566
 10
-24.3621544892
 20
-28.5120621095
 10
-23.8768793032
 20
-28.4147737022
 10
-23.3717716115
 20
-28.319454583
 10
-22.846844658
 20
-28.2261040034
 10
-22.3035933167
 20
-28.1349521576
 10
-21.7419546839
 20
-28.0459941184
 10
-21.1619916633
 20
-27.9592348129
 10
-20.5653878394
 20
-27.8749192164
 10
-19.9522121042
 20
-27.7930601434
 10
-19.3223955658
 20
-27.7136447794
 10
-18.6774151331
 20
-27.6368796558
 10
-18.0173214233
 20
-27.5627698178
 10
-17.3420638192
 20
-27.4913102202
 10
-16.6529673784
 20
-27.4226922588
 10
-15.9498532046
 20
-27.3569265553
 10
-15.2329001942
 20
-27.294002488
 10
-14.5039700942
 20
-27.2340795871
 10
-13.763019712
 20
-27.1771816955
 10
-13.0100922401
 20
-27.1232849703
 10
-12.2471790036
 20
-27.0724774121
 10
-11.474446591
 20
-27.0247659705
 10
-10.6917284138
 20
-26.980143696
 10
-9.9005160309
 20
-26.9386777411
 10
-9.1002426961
 20
-26.9003456684
 10
-8.2914751557
 20
-26.8651699153
 10
-7.4774052083
 20
-26.8332849474
 10
-6.6583694389
 20
-26.8047147666
 10
-5.8340312624
 20
-26.7794353711
 10
-5.0065727226
 20
-26.7575092205
 10
-4.1760048149
 20
-26.738939337
 10
-3.3423165439
 20
-26.7237226985
 10
-2.5076569669
 20
-26.7119126982
 10
-1.6727424364
 20
-26.7035271338
 10
-0.8368565998
 20
-26.6985482077
 10
0.0000005429
 20
-26.6969759198
  0
LWPOLYLINE
  5
339
100
AcDbEntity
  8
IMPORT_IGES
100
AcDbPolyline
 62
7
  6
CONTINUOUS
 90
22
 70
0
 10
-26.9813957225
 20
-28.468165234
 10
-26.7803801903
 20
-28.412719303
 10
-26.5733545496
 20
-28.3575782287
 10
-26.3603737918
 20
-28.3027420114
 10
-26.1414841152
 20
-28.2481719956
 10
-25.9167524967
 20
-28.1939068366
 10
-25.6862693506
 20
-28.1400625002
 10
-25.4501034172
 20
-28.0866451058
 10
-25.2083119078
 20
-28.0336485339
 10
-24.9609729902
 20
-27.9811703923
 10
-24.7081501515
 20
-27.92921517
 10
-24.4499138489
 20
-27.877778378
 10
-24.1863567264
 20
-27.8269441565
 10
-23.917592488
 20
-27.7767253092
 10
-23.6436522271
 20
-27.7271090324
 10
-23.3645015093
 20
-27.6781410555
 10
-23.0802279912
 20
-27.6298287769
 10
-22.7908815867
 20
-27.5821647982
 10
-22.4963576581
 20
-27.5351726531
 10
-22.1967585478
 20
-27.488861633
 10
-21.8921087578
 20
-27.4432224465
 10
-21.582165046
 20
-27.3982507534
  0
LWPOLYLINE
  5
33A
100
AcDbEntity
  8
IMPORT_IGES
100
AcDbPolyline
 62
7
  6
CONTINUOUS
 90
37
 70
0
 10
-13.0652516117
 20
-21.0937034883
 10
-13.0747348265
 20
-21.0948919149
 10
-13.0848323041
 20
-21.0954987793
 10
-13.095536347
 20
-21.0955240818
 10
-13.1068291064
 20
-21.094970654
 10
-13.1187104912
 20
-21.0938356642
 10
-13.131202981
 20
-21.0921106166
 10
-13.1443014438
 20
-21.0897990114
 10
-13.1579992429
 20
-21.0868973484
 10
-13.1723238931
 20
-21.0833866309
 10
-13.1872777431
 20
-21.0792676892
 10
-13.202850528
 20
-21.0745396929
 10
-13.2190553729
 20
-21.0691811537
 10
-13.2358790631
 20
-21.0631973937
 10
-13.2533241827
 20
-21.0565830907
 10
-13.2714319362
 20
-21.0493007898
 10
-13.29020751
 20
-21.041348985
 10
-13.3096374434
 20
-21.0327291823
 10
-13.3297387684
 20
-21.023408444
 10
-13.3505002871
 20
-21.0133897699
 10
-13.3719192672
 20
-21.0026701603
 10
-13.3940273497
 20
-20.9912076791
 10
-13.4168264393
 20
-20.9789960009
 10
-13.4402961288
 20
-20.9660414512
 10
-13.4644348
 20
-20.9523210689
 10
-13.4892284835
 20
-20.9378314302
 10
-13.5146611809
 20
-20.9225759591
 10
-13.5407260055
 20
-20.9065419663
 10
-13.5674086316
 20
-20.8897207634
 10
-13.5946807046
 20
-20.8721210388
 10
-13.6225109323
 20
-20.8537561683
 10
-13.6508654066
 20
-20.8346232238
 10
-13.6797197713
 20
-20.8147251334
 10
-13.7090532768
 20
-20.7940840569
 10
-13.738834549
 20
-20.772707381
 10
-13.7690213002
 20
-20.750587719
 10
-13.79957249
 20
-20.727725071
  0
LWPOLYLINE
  5
33B
100
AcDbEntity
  8
IMPORT_IGES
100
AcDbPolyline
 62
250
  6
CONTINUOUS
 90
19
 70
0
 10
-0.0000121215
 20
-19.2444847133
 10
-0.8085427783
 20
-19.2482276972
 10
-1.6166978176
 20
-19.2593930906
 10
-2.4238891217
 20
-19.2779808936
 10
-3.2287886057
 20
-19.3040043657
 10
-4.0315531987
 20
-19.3374502473
 10
-4.8338009804
 20
-19.3782787599
 10
-5.6354041156
 20
-19.4265582129
 10
-6.4352452689
 20
-19.4822202969
 10
-7.2334120546
 20
-19.545020305
 10
-8.0300913526
 20
-19.6151099175
 10
-8.8237617834
 20
-19.6923374542
 10
-9.6119649342
 20
-19.776003167
 10
-10.3938527419
 20
-19.86614711
 10
-11.1690095367
 20
-19.9627292291
 10
-11.9357046832
 20
-20.0649296137
 10
-12.6929854355
 20
-20.1724749602
 10
-13.4406377273
 20
-20.2856385722
 10
-14.1780844519
 20
-20.4044204497
  0
LWPOLYLINE
  5
33C
100
AcDbEntity
  8
IMPORT_IGES
100
AcDbPolyline
 62
250
  6
CONTINUOUS
 90
19
 70
0
 10
-0.003617899
 20
-20.2996813642
 10
-0.7028641458
 20
-20.299806881
 10
-1.4111910859
 20
-20.3060413095
 10
-2.1269620729
 20
-20.3185140773
 10
-2.8479943591
 20
-20.3374230779
 10
-3.5729173031
 20
-20.362818145
 10
-4.3017177276
 20
-20.3946183998
 10
-5.0390716863
 20
-20.4331437419
 10
-5.7795365573
 20
-20.4783405948
 10
-6.5090932909
 20
-20.5292030922
 10
-7.2188660063
 20
-20.5846730101
 10
-7.9176352669
 20
-20.6450831957
 10
-8.6178296856
 20
-20.7114631099
 10
-9.3229410842
 20
-20.7841777073
 10
-10.0282366999
 20
-20.862845558
 10
-10.7334576808
 20
-20.9476704829
 10
-11.4380522013
 20
-21.0386791657
 10
-12.141191671
 20
-21.1357128304
 10
-12.8421436321
 20
-21.2386864937
  0
LWPOLYLINE
  5
33D
100
AcDbEntity
  8
IMPORT_IGES
100
AcDbPolyline
 62
250
  6
CONTINUOUS
 90
19
 70
0
 10
-0.0036182752
 20
-20.2996813624
 10
0.6808585363
 20
-20.3053282451
 10
1.3736822388
 20
-20.3172229897
 10
2.0744498332
 20
-20.3353638474
 10
2.7826480371
 20
-20.3596287591
 10
3.497896452
 20
-20.3901359052
 10
4.2199451181
 20
-20.4272436944
 10
4.9532707494
 20
-20.4714912605
 10
5.6922697202
 20
-20.522334579
 10
6.42169738
 20
-20.5785078664
 10
7.1314292785
 20
-20.6392413417
 10
7.8309250524
 20
-20.7053019007
 10
8.5342719674
 20
-20.7777285835
 10
9.2454348994
 20
-20.8567835787
 10
9.9590815003
 20
-20.9421987629
 10
10.6750284561
 20
-21.0342162992
 10
11.3926858539
 20
-21.1329146136
 10
12.1110709566
 20
-21.2382084547
 10
12.8293359559
 20
-21.350094143
  0
LWPOLYLINE
  5
33E
100
AcDbEntity
  8
IMPORT_IGES
100
AcDbPolyline
 62
7
  6
CONTINUOUS
 90
46
 70
0
 10
13.0652623871
 20
-21.0936955824
 10
13.0754929086
 20
-21.0949513319
 10
13.0864362264
 20
-21.0955327994
 10
13.0980830568
 20
-21.0954399851
 10
13.1104097963
 20
-21.0946773798
 10
13.1234178903
 20
-21.0932404926
 10
13.1371410038
 20
-21.0911158505
 10
13.1515810661
 20
-21.0883059677
 10
13.1667241406
 20
-21.0848083301
 10
13.1825882086
 20
-21.080601922
 10
13.1991632108
 20
-21.0756908505
 10
13.216446188
 20
-21.0700710085
 10
13.2344714522
 20
-21.0637090596
 10
13.2532471071
 20
-21.0566009536
 10
13.2727541569
 20
-21.0487507406
 10
13.2929887795
 20
-21.0401372337
 10
13.3139272384
 20
-21.0307666532
 10
13.3355725559
 20
-21.0206327788
 10
13.3579626806
 20
-21.0096957631
 10
13.3810782912
 20
-20.997963301
 10
13.4049150634
 20
-20.9854276976
 10
13.4295388772
 20
-20.9720260203
 10
13.4549467395
 20
-20.9577550554
 10
13.4811143445
 20
-20.9426180166
 10
13.5080790109
 20
-20.9265616121
 10
13.5358339864
 20
-20.9095755645
 10
13.564345684
 20
-20.8916701511
 10
13.5936094731
 20
-20.8728229124
 10
13.6236295889
 20
-20.8530017725
 10
13.6543409922
 20
-20.8322388072
 10
13.685628075
 20
-20.8106077846
 10
13.7174349135
 20
-20.7881045648
 10
13.7497291816
 20
-20.7647332877
 10
13.7824230581
 20
-20.7405801406
 10
13.8154672362
 20
-20.7156305042
 10
13.8488016375
 20
-20.6898989977
 10
13.8823172795
 20
-20.6635156663
 10
13.9159678411
 20
-20.6364561435
 10
13.9496728275
 20
-20.6087447958
 10
13.9832704163
 20
-20.5805847676
 10
14.0166843781
 20
-20.5519769992
 10
14.0498569482
 20
-20.5229205504
 10
14.0826567576
 20
-20.4936157453
 10
14.1149968161
 20
-20.4641293588
 10
14.1468318306
 20
-20.434394616
 10
14.1780953694
 20
-20.4044115169
  0
LWPOLYLINE
  5
33F
100
AcDbEntity
  8
IMPORT_IGES
100
AcDbPolyline
 62
250
  6
CONTINUOUS
 90
19
 70
0
 10
14.1780949837
 20
-20.4044115169
 10
13.4406243174
 20
-20.2856264123
 10
12.692950082
 20
-20.1724602377
 10
11.9356495403
 20
-20.0649129932
 10
11.1689368143
 20
-19.9627114232
 10
10.3937648698
 20
-19.8661287832
 10
9.6118647371
 20
-19.7759848397
 10
8.8236522948
 20
-19.6923196734
 10
8.0299756167
 20
-19.6150932035
 10
7.2332932007
 20
-19.5450049538
 10
6.4351265466
 20
-19.4822066188
 10
5.6352887845
 20
-19.4265465039
 10
4.8336921961
 20
-19.3782690496
 10
4.0314544724
 20
-19.3374425641
 10
3.2287031359
 20
-19.3039987392
 10
2.4238189677
 20
-19.2779770901
 10
1.6166446391
 20
-19.2593907887
 10
0.8085085871
 20
-19.248226663
 10
-0.0000011059
 20
-19.2444847133
  0
LWPOLYLINE
  5
340
100
AcDbEntity
  8
IMPORT_IGES
100
AcDbPolyline
 62
250
  6
CONTINUOUS
 90
29
 70
0
 10
-10.037578544
 20
-15.0138115824
 10
-9.7020251418
 20
-15.1288422682
 10
-9.36220608
 20
-15.2401565717
 10
-9.0191335046
 20
-15.3474578709
 10
-8.674946497
 20
-15.4502492842
 10
-8.3310335739
 20
-15.5481564351
 10
-7.9861186904
 20
-15.6415537001
 10
-7.6383492349
 20
-15.731067328
 10
-7.2867416921
 20
-15.8170177186
 10
-6.9323421233
 20
-15.8990844721
 10
-6.5763356061
 20
-15.9769326376
 10
-6.2191453676
 20
-16.0504705764
 10
-5.8604465329
 20
-16.1197899273
 10
-5.5003133638
 20
-16.1848306551
 10
-5.1385154165
 20
-16.2456010616
 10
-4.77538233
 20
-16.3020928451
 10
-4.4118349584
 20
-16.3542210652
 10
-4.0484837791
 20
-16.4019045391
 10
-3.6848327144
 20
-16.4452244497
 10
-3.3201440925
 20
-16.484339405
 10
-2.9541530458
 20
-16.5192792846
 10
-2.5872293015
 20
-16.5500142089
 10
-2.2195846101
 20
-16.5766131475
 10
-1.851398434
 20
-16.5990931841
 10
-1.4826010128
 20
-16.617437235
 10
-1.1130308816
 20
-16.6316630188
 10
-0.7426710953
 20
-16.6417764415
 10
-0.371649717
 20
-16.647771597
 10
-0.0000231371
 20
-16.6496484853
  0
LWPOLYLINE
  5
341
100
AcDbEntity
  8
IMPORT_IGES
100
AcDbPolyline
 62
250
  6
CONTINUOUS
 90
14
 70
0
 10
-15.7109524163
 20
-10.8687453671
 10
-16.2122198751
 20
-10.4362866459
 10
-16.694028835
 20
-9.9866898832
 10
-17.1593981487
 20
-9.5172157654
 10
-17.6085772562
 20
-9.0291448387
 10
-18.041833868
 20
-8.5208506436
 10
-18.4620562503
 20
-7.9852727579
 10
-18.8723562885
 20
-7.4184439013
 10
-19.270069261
 20
-6.8239903279
 10
-19.6495459345
 20
-6.2062070221
 10
-20.0087376297
 20
-5.5685668191
 10
-20.350751277
 20
-4.9071501475
 10
-20.6778125464
 20
-4.2151399112
 10
-20.9907222285
 20
-3.4928728737
  0
LWPOLYLINE
  5
342
100
AcDbEntity
  8
IMPORT_IGES
100
AcDbPolyline
 62
250
  6
CONTINUOUS
 90
26
 70
0
 10
-17.3882801931
 20
-10.7265327804
 10
-17.1438963569
 20
-10.9474535784
 10
-16.8948387827
 20
-11.1645351015
 10
-16.6396137109
 20
-11.3791567969
 10
-16.3796234229
 20
-11.5899392174
 10
-16.1155938254
 20
-11.7962412658
 10
-15.8480320662
 20
-11.9976257369
 10
-15.5764053294
 20
-12.1945298359
 10
-15.2998810753
 20
-12.3876240811
 10
-15.017651121
 20
-12.5773983623
 10
-14.7304583883
 20
-12.7633627897
 10
-14.4398123844
 20
-12.9447182119
 10
-14.1464897411
 20
-13.1209942725
 10
-13.8497343376
 20
-13.2926613279
 10
-13.5487734471
 20
-13.4603312959
 10
-13.2425463929
 20
-13.6245598472
 10
-12.932094745
 20
-13.7847913111
 10
-12.6198280609
 20
-13.9399705932
 10
-12.3071599419
 20
-14.0894319981
 10
-11.9927703739
 20
-14.2338412212
 10
-11.674982908
 20
-14.374140255
 10
-11.3529594656
 20
-14.5107416969
 10
-11.0275621021
 20
-14.6432329495
 10
-10.6996526906
 20
-14.7713182129
 10
-10.3698373028
 20
-14.8947678922
 10
-10.037578544
 20
-15.0138115824
  0
LINE
  5
343
100
AcDbEntity
  8
IMPORT_IGES
100
AcDbLine
 62
250
  6
CONTINUOUS
 10
-17.6315507559
 20
-10.4982754627
 11
-17.3882801931
 21
-10.7265327804
  0
LWPOLYLINE
  5
344
100
AcDbEntity
  8
IMPORT_IGES
100
AcDbPolyline
 62
250
  6
CONTINUOUS
 90
36
 70
0
 10
-20.9907222285
 20
-3.4928728737
 10
-21.289665691
 20
-2.7397199587
 10
-21.5759112523
 20
-1.9474607966
 10
-21.8512542546
 20
-1.1120628175
 10
-22.1150100806
 20
-0.2375270847
 10
-22.3647873899
 20
0.6722393254
 10
-22.5999592933
 20
1.6142495568
 10
-22.822430526
 20
2.5912969669
 10
-23.0336630284
 20
3.6080676824
 10
-23.2340486626
 20
4.6637368343
 10
-23.4245527139
 20
5.7583551982
 10
-23.6075891166
 20
6.8977005249
 10
-23.7841123338
 20
8.0828256332
 10
-23.9547462868
 20
9.3109095136
 10
-24.12128149
 20
10.5821627643
 10
-24.2836662341
 20
11.8904725371
 10
-24.4425238564
 20
13.2418724793
 10
-24.6006247082
 20
14.6551927172
 10
-24.7585139925
 20
16.1325145204
 10
-24.9164303427
 20
17.6718767791
 10
-25.076979714
 20
19.286021861
 10
-25.2421189623
 20
20.9813612516
 10
-25.4106242211
 20
22.7523798074
 10
-25.5802970634
 20
24.593959523
 10
-25.7523327922
 20
26.5157970791
 10
-25.9256564227
 20
28.5096731512
 10
-26.0941823318
 20
30.5437408272
 10
-26.2575510691
 20
32.6224203312
 10
-26.4153259959
 20
34.7436994465
 10
-26.5607398933
 20
36.8663855231
 10
-26.6925611802
 20
38.9913976649
 10
-26.8109173273
 20
41.121926513
 10
-26.9108032925
 20
43.2196679624
 10
-26.9902382842
 20
45.2723437909
 10
-27.0503959721
 20
47.294389935
 10
-27.0910222258
 20
49.2866520278
  0
LWPOLYLINE
  5
345
100
AcDbEntity
  8
IMPORT_IGES
100
AcDbPolyline
 62
7
  6
CONTINUOUS
 90
21
 70
0
 10
-13.0015939332
 20
-21.0280911883
 10
-12.9993430323
 20
-21.0347323527
 10
-12.9965363775
 20
-21.0418273811
 10
-12.9931615278
 20
-21.049374183
 10
-12.9892011842
 20
-21.0573749779
 10
-12.9846358297
 20
-21.0658366806
 10
-12.9794482555
 20
-21.0747693173
 10
-12.9736283591
 20
-21.0841629804
 10
-12.9671684326
 20
-21.0939946789
 10
-12.9600553931
 20
-21.1042792647
 10
-12.952287461
 20
-21.1150019505
 10
-12.9438819299
 20
-21.1260952511
 10
-12.9348392333
 20
-21.137570342
 10
-12.9251661674
 20
-21.1494160165
 10
-12.9149021273
 20
-21.1615311619
 10
-12.9040666855
 20
-21.1739186085
 10
-12.8926717629
 20
-21.1865753894
 10
-12.8807558649
 20
-21.1993916505
 10
-12.8683489609
 20
-21.2123306994
 10
-12.855469844
 20
-21.2254290167
 10
-12.8421455804
 20
-21.2386864852
  0
LWPOLYLINE
  5
346
100
AcDbEntity
  8
IMPORT_IGES
100
AcDbPolyline
 62
7
  6
CONTINUOUS
 90
5
 70
0
 10
-13.0053922244
 20
-21.0060592774
 10
-13.0051807718
 20
-21.0108875019
 10
-13.0044917763
 20
-21.0161688542
 10
-13.0033035663
 20
-21.0219034283
 10
-13.0015939332
 20
-21.0280911883
  0
LINE
  5
347
100
AcDbEntity
  8
IMPORT_IGES
100
AcDbLine
 62
250
  6
CONTINUOUS
 10
-14.1780844519
 20
-23.8301388952
 11
-14.1780844519
 21
-20.4044204497
  0
LINE
  5
348
100
AcDbEntity
  8
IMPORT_IGES
100
AcDbLine
 62
7
  6
CONTINUOUS
 10
-13.0000000009
 20
-23.0891338032
 11
-13.0000000009
 21
-22.9879118651
  0
LINE
  5
349
100
AcDbEntity
  8
IMPORT_IGES
100
AcDbLine
 62
7
  6
CONTINUOUS
 10
-13.013993618
 20
-22.9879150368
 11
-13.0052876479
 21
-20.9819636962
  0
LWPOLYLINE
  5
34A
100
AcDbEntity
  8
IMPORT_IGES
100
AcDbPolyline
 62
250
  6
CONTINUOUS
 90
18
 70
0
 10
29.3500548188
 20
55.8184453021
 10
29.3390417319
 20
55.8058686453
 10
29.3192187588
 20
55.7962508146
 10
29.2905883768
 20
55.789586457
 10
29.2529331183
 20
55.7859173249
 10
29.2064727735
 20
55.7851836364
 10
29.1518643149
 20
55.787225109
 10
29.0891490961
 20
55.7920136209
 10
29.0182829375
 20
55.7995480709
 10
28.9397932961
 20
55.8097077353
 10
28.8535858518
 20
55.8225010611
 10
28.7597476959
 20
55.8378810249
 10
28.6590776148
 20
55.8556444738
 10
28.5513029308
 20
55.8758437286
 10
28.4366856619
 20
55.8983823736
 10
28.316826893
 20
55.9228399169
 10
28.192028526
 20
55.9491303617
 10
28.0619771374
 20
55.9773013607
  0
LWPOLYLINE
  5
34B
100
AcDbEntity
  8
IMPORT_IGES
100
AcDbPolyline
 62
250
  6
CONTINUOUS
 90
51
 70
0
 10
-0.0000121215
 20
-16.6496484853
 10
0.3683977737
 20
-16.647582287
 10
0.7370311623
 20
-16.6413632785
 10
1.105832176
 20
-16.63099146
 10
1.474466968
 20
-16.6164863147
 10
1.843157326
 20
-16.5978283594
 10
2.2126787868
 20
-16.5749591439
 10
2.583842763
 20
-16.5478387539
 10
2.9557166431
 20
-16.5165071037
 10
3.3264629147
 20
-16.4810254864
 10
3.6946859343
 20
-16.4415532405
 10
4.0616771163
 20
-16.3979310276
 10
4.4296258705
 20
-16.349742125
 10
4.8002988656
 20
-16.296740569
 10
5.171790592
 20
-16.2391723235
 10
5.5407898704
 20
-16.1773585574
 10
5.9057193542
 20
-16.1115110918
 10
6.2680733877
 20
-16.0414181057
 10
6.629161002
 20
-15.9667653051
 10
6.9896427513
 20
-15.8873742423
 10
7.348749607
 20
-15.8034233651
 10
7.7056436579
 20
-15.7151337228
 10
8.0592392896
 20
-15.6228054902
 10
8.410543667
 20
-15.5261384925
 10
8.7618425052
 20
-15.4244532543
 10
9.1147741859
 20
-15.3172663782
 10
9.4675534988
 20
-15.2050612617
 10
9.817338569
 20
-15.0886086218
 10
10.1631710649
 20
-14.9682147622
 10
10.5059518973
 20
-14.8435733792
 10
10.8456638484
 20
-14.7145362792
 10
11.182755517
 20
-14.5809004708
 10
11.5167173033
 20
-14.4428689453
 10
11.8461175767
 20
-14.3009024834
 10
12.169087753
 20
-14.1559205578
 10
12.4875124536
 20
-14.0070036958
 10
12.8055480592
 20
-13.8518542592
 10
13.1259034933
 20
-13.6890834221
 10
13.4457070117
 20
-13.5200800105
 10
13.7607499756
 20
-13.3467128645
 10
14.0689851459
 20
-13.1700820162
 10
14.372503028
 20
-12.9890874335
 10
14.6733402755
 20
-12.8022978599
 10
14.9728164911
 20
-12.6088559795
 10
15.2695458937
 20
-12.4096191083
 10
15.5615107013
 20
-12.2057279381
 10
15.8474805345
 20
-11.998068193
 10
16.1287428467
 20
-11.7857541488
 10
16.4070627703
 20
-11.5672693251
 10
16.6838805998
 20
-11.3414231097
 10
16.9577087753
 20
-11.1094061148
  0
LWPOLYLINE
  5
34C
100
AcDbEntity
  8
IMPORT_IGES
100
AcDbPolyline
 62
250
  6
CONTINUOUS
 90
25
 70
0
 10
0.0000138888
 20
-15.892887237
 10
-0.7167816331
 20
-15.8851129645
 10
-1.4318055076
 20
-15.8605639828
 10
-2.1446089542
 20
-15.8192359216
 10
-2.8540822491
 20
-15.7614553885
 10
-3.5604567255
 20
-15.686909231
 10
-4.2652816957
 20
-15.5946648279
 10
-4.9696495266
 20
-15.4843706108
 10
-5.6715483326
 20
-15.3564916423
 10
-6.367883236
 20
-15.2113253581
 10
-7.0570808298
 20
-15.0493276165
 10
-7.7399180851
 20
-14.8701258441
 10
-8.4168521345
 20
-14.6727672936
 10
-9.0892844149
 20
-14.4569500293
 10
-9.7550050217
 20
-14.2231202594
 10
-10.4091495344
 20
-13.9714084668
 10
-11.0494444415
 20
-13.7025142765
 10
-11.6777505242
 20
-13.4157292598
 10
-12.2954899239
 20
-13.1090355812
 10
-12.9053909559
 20
-12.7809209749
 10
-13.5042617037
 20
-12.4329402836
 10
-14.0848395598
 20
-12.0675990778
 10
-14.6455896907
 20
-11.6853051474
 10
-15.1882844085
 20
-11.2854191664
 10
-15.7109524163
 20
-10.8687453671
  0
LINE
  5
34D
100
AcDbEntity
  8
IMPORT_IGES
100
AcDbLine
 62
250
  6
CONTINUOUS
 10
-12.8421455804
 20
-21.2386864852
 11
-12.8485290472
 21
-22.7095070769
  0
LWPOLYLINE
  5
34E
100
AcDbEntity
  8
IMPORT_IGES
100
AcDbPolyline
 62
7
  6
CONTINUOUS
 90
4
 70
0
 10
-13.0138690378
 20
-22.9592103897
 10
-13.0136224875
 20
-22.9540935511
 10
-13.0129091852
 20
-22.9484912679
 10
-13.0117054291
 20
-22.9424036428
  0
LINE
  5
34F
100
AcDbEntity
  8
IMPORT_IGES
100
AcDbLine
 62
7
  6
CONTINUOUS
 10
1.3496123253
 20
-58.9695219005
 11
1.3766294875
 21
-59.0909726843
  0
LINE
  5
350
100
AcDbEntity
  8
IMPORT_IGES
100
AcDbLine
 62
7
  6
CONTINUOUS
 10
1.3766294875
 20
-59.0909726843
 11
1.4125872317
 21
-59.252936201
  0
LINE
  5
351
100
AcDbEntity
  8
IMPORT_IGES
100
AcDbLine
 62
7
  6
CONTINUOUS
 10
1.4125872317
 20
-59.252936201
 11
1.4305381569
 21
-59.3339303855
  0
LINE
  5
352
100
AcDbEntity
  8
IMPORT_IGES
100
AcDbLine
 62
7
  6
CONTINUOUS
 10
0.7878609551
 20
-60.2455412578
 11
0.6543645862
 21
-59.4884457277
  0
LINE
  5
353
100
AcDbEntity
  8
IMPORT_IGES
100
AcDbLine
 62
250
  6
CONTINUOUS
 10
0.1483827634
 20
-60.2251125694
 11
0.121226409
 21
-60.0594600826
  0
LINE
  5
354
100
AcDbEntity
  8
IMPORT_IGES
100
AcDbLine
 62
250
  6
CONTINUOUS
 10
0.683848932
 20
-59.4480405662
 11
0.8112387656
 21
-60.2251125694
  0
LWPOLYLINE
  5
355
100
AcDbEntity
  8
IMPORT_IGES
100
AcDbPolyline
 62
7
  6
CONTINUOUS
 90
22
 70
0
 10
-13.0117054291
 20
-22.9424036428
 10
-13.0099868349
 20
-22.9358325636
 10
-13.0077313127
 20
-22.9287763443
 10
-13.0049221874
 20
-22.9212297115
 10
-13.0015450126
 20
-22.913195753
 10
-12.9975798895
 20
-22.9046715301
 10
-12.9930039336
 20
-22.8956427207
 10
-12.987797058
 20
-22.8860983718
 10
-12.9819465041
 20
-22.876049579
 10
-12.9754409573
 20
-22.8655150916
 10
-12.9682627711
 20
-22.8544756608
 10
-12.9604086474
 20
-22.8429506264
 10
-12.9518974889
 20
-22.8310165825
 10
-12.9427284625
 20
-22.8186586378
 10
-12.9329061156
 20
-22.8058916677
 10
-12.9224713679
 20
-22.7928368559
 10
-12.9114337742
 20
-22.7795047012
 10
-12.8998126912
 20
-22.7658845793
 10
-12.8876788253
 20
-22.7520659244
 10
-12.8750764976
 20
-22.7380784578
 10
-12.8620167283
 20
-22.723892218
 10
-12.8485290472
 20
-22.7095070769
  0
LINE
  5
356
100
AcDbEntity
  8
IMPORT_IGES
100
AcDbLine
 62
250
  6
CONTINUOUS
 10
-29.3500548246
 20
55.8184453124
 11
-29.402157503
 21
55.9477509228
  0
LINE
  5
357
100
AcDbEntity
  8
IMPORT_IGES
100
AcDbLine
 62
250
  6
CONTINUOUS
 10
-30.1146427072
 20
54.989233338
 11
-30.0638010932
 21
54.862731489
  0
LINE
  5
358
100
AcDbEntity
  8
IMPORT_IGES
100
AcDbLine
 62
7
  6
CONTINUOUS
 10
2.8998201396
 20
-58.7657821229
 11
2.9999999883
 21
-59.3339302773
  0
LWPOLYLINE
  5
359
100
AcDbEntity
  8
IMPORT_IGES
100
AcDbPolyline
 62
250
  6
CONTINUOUS
 90
3
 70
0
 10
-0.0167388494
 20
-23.5180431724
 10
-0.0168179012
 20
-23.5169043106
 10
-0.0168812905
 20
-23.5134794305
  0
LINE
  5
35A
100
AcDbEntity
  8
IMPORT_IGES
100
AcDbLine
 62
250
  6
CONTINUOUS
 10
-0.0000000007
 20
-24.3629908684
 11
-0.0080817228
 21
-23.6423589133
  0
LINE
  5
35B
100
AcDbEntity
  8
IMPORT_IGES
100
AcDbLine
 62
250
  6
CONTINUOUS
 10
-0.0168812905
 20
-23.5134794305
 11
-0.0169703647
 21
-23.4998620341
  0
LWPOLYLINE
  5
35C
100
AcDbEntity
  8
IMPORT_IGES
100
AcDbPolyline
 62
250
  6
CONTINUOUS
 90
5
 70
0
 10
-0.0080817228
 20
-23.6423589133
 10
-0.0084624219
 20
-23.5831251696
 10
-0.008477145
 20
-23.5719698365
 10
-0.0084338565
 20
-23.5652454289
 10
-0.0083319529
 20
-23.5629969708
  0
LWPOLYLINE
  5
35D
100
AcDbEntity
  8
0
100
AcDbPolyline
 62
7
  6
CONTINUOUS
 90
13
 70
0
 43
0.3500000006
 10
-2.0357142191
 20
79.08675
 10
-2.0357142191
 20
80.3724659729
 10
-1.8214286013
 20
80.8010349426
 10
-1.3928570824
 20
81.2296129761
 10
-1.1785714645
 20
81.2296129761
 10
-0.7500000165
 20
80.8010349426
 10
-0.5357142924
 20
80.3724659729
 10
-0.5357142924
 20
79.08675
 10
-0.7500000165
 20
78.6581810303
 10
-1.1785714645
 20
78.2296120605
 10
-1.3928570824
 20
78.2296120605
 10
-1.8214286013
 20
78.6581810303
 10
-2.0357142191
 20
79.08675
  0
LINE
  5
35E
100
AcDbEntity
  8
IMPORT_IGES
100
AcDbLine
 62
250
  6
CONTINUOUS
 10
0.0000004117
 20
-26.1396655054
 11
0.0000012907
 21
-26.6969759365
  0
LINE
  5
35F
100
AcDbEntity
  8
IMPORT_IGES
100
AcDbLine
 62
250
  6
CONTINUOUS
 10
-0.000000218
 20
58.8626755492
 11
0.0000000416
 21
59.4957988889
  0
LINE
  5
360
100
AcDbEntity
  8
IMPORT_IGES
100
AcDbLine
 62
250
  6
CONTINUOUS
 10
-0.0000028249
 20
-19.9997004516
 11
-0.0000016297
 21
-19.2444847133
  0
LINE
  5
361
100
AcDbEntity
  8
IMPORT_IGES
100
AcDbLine
 62
250
  6
CONTINUOUS
 10
0.0000138833
 20
-15.8929967546
 11
-0.0000231424
 21
-16.6497727575
  0
LINE
  5
362
100
AcDbEntity
  8
IMPORT_IGES
100
AcDbLine
 62
250
  6
CONTINUOUS
 10
-0.0169703647
 20
-23.4998620341
 11
-0.0169878872
 21
-23.4301253953
  0
LINE
  5
363
100
AcDbEntity
  8
IMPORT_IGES
100
AcDbLine
 62
250
  6
CONTINUOUS
 10
-0.0130191717
 20
-24.0047130591
 11
-0.0128863319
 21
-24.3630023261
  0
LINE
  5
364
100
AcDbEntity
  8
IMPORT_IGES
100
AcDbLine
 62
250
  6
CONTINUOUS
 10
-0.0022181735
 20
-20.0540396326
 11
-0.0169878872
 21
-23.4301253953
  0
LINE
  5
365
100
AcDbEntity
  8
IMPORT_IGES
100
AcDbLine
 62
250
  6
CONTINUOUS
 10
-0.0120469851
 20
-23.9025827016
 11
-0.0130191717
 21
-24.0047130591
  0
LINE
  5
366
100
AcDbEntity
  8
IMPORT_IGES
100
AcDbLine
 62
250
  6
CONTINUOUS
 10
-0.008397234
 20
-23.5651273723
 11
-0.0120469851
 21
-23.9025827016
  0
LWPOLYLINE
  5
367
100
AcDbEntity
  8
0
100
AcDbPolyline
 62
7
  6
CONTINUOUS
 90
13
 70
0
 43
0.3500000006
 10
47.5818145752
 20
-1.0573059998
 10
46.2961031342
 20
-1.0573059998
 10
45.8675296326
 20
-0.843019249
 10
45.438956131
 20
-0.4144480133
 10
45.438956131
 20
-0.2001635284
 10
45.8675296326
 20
0.2284077072
 10
46.2961031342
 20
0.442694458
 10
47.5818145752
 20
0.442694458
 10
48.0103880768
 20
0.2284077072
 10
48.4389570465
 20
-0.2001635284
 10
48.4389570465
 20
-0.4144480133
 10
48.0103880768
 20
-0.843019249
 10
47.5818145752
 20
-1.0573059998
  0
LWPOLYLINE
  5
368
100
AcDbEntity
  8
IMPORT_IGES
100
AcDbPolyline
 62
7
  6
CONTINUOUS
 90
7
 70
0
 10
0.7878622971
 20
-60.2455488686
 10
0.787885551
 20
-60.2439804095
 10
0.7891262645
 20
-60.2411491428
 10
0.7919414347
 20
-60.2378559917
 10
0.7965000994
 20
-60.2340700687
 10
0.8028966386
 20
-60.2298222613
 10
0.8112387656
 20
-60.2251125694
  0
LINE
  5
369
100
AcDbEntity
  8
IMPORT_IGES
100
AcDbLine
 62
250
  6
CONTINUOUS
 10
-0.0083319529
 20
-23.5629969708
 11
-0.008397234
 21
-23.5651273723
  0
LINE
  5
36A
100
AcDbEntity
  8
IMPORT_IGES
100
AcDbLine
 62
250
  6
CONTINUOUS
 10
-1.0210589735
 20
-60.1366926764
 11
-1.0268003423
 21
-60.2251125694
  0
LINE
  5
36B
100
AcDbEntity
  8
IMPORT_IGES
100
AcDbLine
 62
250
  6
CONTINUOUS
 10
0.6837267916
 20
-59.6549670698
 11
0.6467055347
 21
-60.2251125694
  0
LWPOLYLINE
  5
36C
100
AcDbEntity
  8
IMPORT_IGES
100
AcDbPolyline
 62
250
  6
CONTINUOUS
 90
6
 70
0
 10
-0.0014655233
 20
-19.9996879562
 10
-0.0015459013
 20
-20.0008259662
 10
-0.0016407444
 20
-20.0042500074
 10
-0.0017465383
 20
-20.0099625388
 10
-0.0018567348
 20
-20.0178657928
 10
-0.0022181735
 20
-20.0540396326
  0
LWPOLYLINE
  5
36D
100
AcDbEntity
  8
IMPORT_IGES
100
AcDbPolyline
 62
7
  6
CONTINUOUS
 90
20
 70
0
 10
12.9800296003
 20
-23.041423456
 10
12.9772894616
 20
-23.0338495898
 10
12.9739861264
 20
-23.0257835671
 10
12.9700998286
 20
-23.0172225432
 10
12.9656080007
 20
-23.008152078
 10
12.9604908116
 20
-22.9985613457
 10
12.9547353926
 20
-22.9884610304
 10
12.9483302284
 20
-22.977868959
 10
12.9412575543
 20
-22.9667657107
 10
12.9335141832
 20
-22.9551706154
 10
12.92511931
 20
-22.943159665
 10
12.9160712111
 20
-22.9307189814
 10
12.9063755247
 20
-22.9178624597
 10
12.8960773759
 20
-22.9047078163
 10
12.8851967865
 20
-22.8912515851
 10
12.873745063
 20
-22.8774973682
 10
12.861766926
 20
-22.8635735392
 10
12.8492952958
 20
-22.8495229673
 10
12.8363477916
 20
-22.8353030026
 10
12.8229522901
 20
-22.8209137661
  0
LINE
  5
36E
100
AcDbEntity
  8
IMPORT_IGES
100
AcDbLine
 62
7
  6
CONTINUOUS
 10
0.7888598096
 20
-59.0909727435
 11
0.8016631566
 21
-58.9695218527
  0
LINE
  5
36F
100
AcDbEntity
  8
IMPORT_IGES
100
AcDbLine
 62
7
  6
CONTINUOUS
 10
0.7717144135
 20
-59.2529362365
 11
0.7888598096
 21
-59.0909727435
  0
LINE
  5
370
100
AcDbEntity
  8
IMPORT_IGES
100
AcDbLine
 62
7
  6
CONTINUOUS
 10
0.7631098767
 20
-59.3339303386
 11
0.7717144135
 21
-59.2529362365
  0
LINE
  5
371
100
AcDbEntity
  8
IMPORT_IGES
100
AcDbLine
 62
7
  6
CONTINUOUS
 10
-2.8998201122
 20
-58.7657819573
 11
-3.0000000009
 21
-59.3339303386
  0
LINE
  5
372
100
AcDbEntity
  8
IMPORT_IGES
100
AcDbLine
 62
250
  6
CONTINUOUS
 10
30.0638010916
 20
54.8627314449
 11
30.1146427054
 21
54.9892333967
  0
LINE
  5
373
100
AcDbEntity
  8
IMPORT_IGES
100
AcDbLine
 62
250
  6
CONTINUOUS
 10
29.402157501
 20
55.9477509222
 11
29.3500548229
 21
55.8184453124
  0
LWPOLYLINE
  5
374
100
AcDbEntity
  8
IMPORT_IGES
100
AcDbPolyline
 62
7
  6
CONTINUOUS
 90
10
 70
0
 10
-13.7995958145
 20
-23.4802899406
 10
-13.8433986594
 20
-23.5164873005
 10
-13.8870119827
 20
-23.5534268087
 10
-13.9303060925
 20
-23.5911084651
 10
-13.9730833083
 20
-23.6296302186
 10
-14.0152896997
 20
-23.6688941203
 10
-14.0570059885
 20
-23.7086063235
 10
-14.0981667912
 20
-23.7486688793
 10
-14.1385704942
 20
-23.7891797365
 10
-14.1780844519
 20
-23.8301388952
  0
LWPOLYLINE
  5
375
100
AcDbEntity
  8
IMPORT_IGES
100
AcDbPolyline
 62
7
  6
CONTINUOUS
 90
3
 70
0
 10
12.9838808006
 20
-23.0550927693
 10
12.982221139
 20
-23.0485024701
 10
12.9800296003
 20
-23.041423456
  0
LWPOLYLINE
  5
376
100
AcDbEntity
  8
IMPORT_IGES
100
AcDbPolyline
 62
7
  6
CONTINUOUS
 90
4
 70
0
 10
12.9858965222
 20
-23.0719384315
 10
12.9856945986
 20
-23.0668116571
 10
12.9850305482
 20
-23.0611964704
 10
12.9838808006
 20
-23.0550927693
  0
LINE
  5
377
100
AcDbEntity
  8
IMPORT_IGES
100
AcDbLine
 62
7
  6
CONTINUOUS
 10
12.9912909482
 20
-21.0824983247
 11
12.9913443801
 21
-21.0948096356
  0
LINE
  5
378
100
AcDbEntity
  8
IMPORT_IGES
100
AcDbLine
 62
7
  6
CONTINUOUS
 10
13.0000105917
 20
-21.0831806322
 11
13.0000099323
 21
-23.0891250572
  0
LINE
  5
379
100
AcDbEntity
  8
IMPORT_IGES
100
AcDbLine
 62
250
  6
CONTINUOUS
 10
12.8229522901
 20
-22.8209137661
 11
12.8293359559
 21
-21.350094143
  0
LINE
  5
37A
100
AcDbEntity
  8
IMPORT_IGES
100
AcDbLine
 62
7
  6
CONTINUOUS
 10
12.9945311011
 20
-21.0825123877
 11
12.9857731951
 21
-23.1003532738
  0
LINE
  5
37B
100
AcDbEntity
  8
IMPORT_IGES
100
AcDbLine
 62
7
  6
CONTINUOUS
 10
-0.7878609569
 20
-60.2455412578
 11
-0.7794303774
 21
-60.1977290659
  0
LINE
  5
37C
100
AcDbEntity
  8
IMPORT_IGES
100
AcDbLine
 62
250
  6
CONTINUOUS
 10
14.1780949837
 20
-23.8301299329
 11
14.1780949837
 21
-20.4044115169
  0
LWPOLYLINE
  5
37D
100
AcDbEntity
  8
0
100
AcDbPolyline
 62
7
  6
CONTINUOUS
 90
3
 70
0
 43
0.3500000006
 10
48.1532459106
 20
2.0141215668
 10
48.3675303955
 20
1.9426949158
 10
48.6532415314
 20
1.7998370819
  0
LINE
  5
37E
100
AcDbEntity
  8
IMPORT_IGES
100
AcDbLine
 62
7
  6
CONTINUOUS
 10
25.2534804789
 20
-29.8108182534
 11
25.2798469069
 21
-30.060143408
  0
LINE
  5
37F
100
AcDbEntity
  8
IMPORT_IGES
100
AcDbLine
 62
7
  6
CONTINUOUS
 10
25.2932671115
 20
-30.2028342042
 11
25.2682354595
 21
-29.9515294867
  0
LWPOLYLINE
  5
380
100
AcDbEntity
  8
IMPORT_IGES
100
AcDbPolyline
 62
7
  6
CONTINUOUS
 90
14
 70
0
 10
25.2932671115
 20
-30.2028342042
 10
25.3058686009
 20
-30.3528053411
 10
25.3176225399
 20
-30.5095792679
 10
25.3285577637
 20
-30.6729424401
 10
25.3383472032
 20
-30.8431253625
 10
25.3469778186
 20
-31.0201804329
 10
25.3544626497
 20
-31.2034553961
 10
25.3605137467
 20
-31.3921237304
 10
25.3650800216
 20
-31.5856618343
 10
25.3682125624
 20
-31.7837987635
 10
25.369776683
 20
-31.9860233284
 10
25.3697274882
 20
-32.191881873
 10
25.3681098732
 20
-32.4009870483
 10
25.3649238382
 20
-32.6129132198
  0
LWPOLYLINE
  5
381
100
AcDbEntity
  8
IMPORT_IGES
100
AcDbPolyline
 62
250
  6
CONTINUOUS
 90
87
 70
0
 10
17.486548899
 20
-10.6350304347
 10
17.7416912379
 20
-10.3926717495
 10
17.9950486385
 20
-10.1422392447
 10
18.2492429861
 20
-9.8809490636
 10
18.5015449919
 20
-9.6115850628
 10
18.7476291462
 20
-9.3385404169
 10
18.9843018602
 20
-9.0656917691
 10
19.2149638246
 20
-8.7891624762
 10
19.4451527255
 20
-8.501715784
 10
19.6785044984
 20
-8.1986100387
 10
19.9111965914
 20
-7.8845868942
 10
20.1375935172
 20
-7.5666345576
 10
20.3545622812
 20
-7.2493100389
 10
20.5654764968
 20
-6.9280563281
 10
20.7745029661
 20
-6.5961906031
 10
20.9843727374
 20
-6.2491025914
 10
21.1922632233
 20
-5.8914025655
 10
21.3940203394
 20
-5.5302385197
 10
21.586636916
 20
-5.1715340834
 10
21.7733810543
 20
-4.8093656272
 10
21.9594844308
 20
-4.4331102573
 10
22.1484198535
 20
-4.0353235727
 10
22.3365462578
 20
-3.6234499745
 10
22.5184439665
 20
-3.2091997716
 10
22.6904551609
 20
-2.801488152
 10
22.8565469483
 20
-2.3913999278
 10
23.0227246839
 20
-1.9638998442
 10
23.1926974735
 20
-1.5088819967
 10
23.3625415038
 20
-1.0364522898
 10
23.5268118976
 20
-0.5618931823
 10
23.68218181
 20
-0.09535232
 10
23.8322701622
 20
0.3733179429
 10
23.9820700434
 20
0.8592780857
 10
24.1345753772
 20
1.3727304743
 10
24.2866143541
 20
1.9034727427
 10
24.4339211173
 20
2.4360582721
 10
24.5735355625
 20
2.9591885617
 10
24.7086739893
 20
3.4841621123
 10
24.8443133719
 20
4.0294278068
 10
24.9833731257
 20
4.6074328102
 10
25.1226942473
 20
5.2057299574
 10
25.2581214272
 20
5.8054266372
 10
25.3866945128
 20
6.3927445951
 10
25.5115947525
 20
6.9814620856
 10
25.6378450834
 20
7.59402126
 10
25.768349246
 20
8.2456565696
 10
25.8998644565
 20
8.9211335633
 10
26.0281778643
 20
9.5971910382
 10
26.1502547334
 20
10.2569401179
 10
26.269315784
 20
10.9172696789
 10
26.3904834881
 20
11.6055851476
 10
26.5166945436
 20
12.340267326
 10
26.6445205902
 20
13.102935412
 10
26.7695233556
 20
13.865852426
 10
26.8884737107
 20
14.608937107
 10
27.0047599393
 20
15.3522707159
 10
27.123795818
 20
16.1283600555
 10
27.2485004767
 20
16.9590306869
 10
27.3752148409
 20
17.8224570489
 10
27.499450708
 20
18.6856692614
 10
27.6179671032
 20
19.5252878627
 10
27.7340800616
 20
20.3646923143
 10
27.8530283062
 20
21.2410511208
 10
27.977631083
 20
22.1792345793
 10
28.1039333712
 20
23.1543723925
 10
28.2270078564
 20
24.1290221736
 10
28.3437856068
 20
25.0785922798
 10
28.4573634381
 20
26.0276743538
 10
28.572011842
 20
27.012600937
 10
28.6898083911
 20
28.0577140384
 10
28.8072240783
 20
29.138671649
 10
28.9201085514
 20
30.2187802831
 10
29.0261130691
 20
31.2753843055
 10
29.1275144958
 20
32.3311393515
 10
29.2270918232
 20
33.417318841
 10
29.3258950826
 20
34.5549940774
 10
29.4211979563
 20
35.7230937575
 10
29.5100937999
 20
36.8896773908
 10
29.5910538227
 20
38.0350831234
 10
29.6654035533
 20
39.1789728094
 10
29.7345000373
 20
40.3483915209
 10
29.7984277445
 20
41.5613562056
 10
29.8551875179
 20
42.7998499159
 10
29.9030017147
 20
44.0368668804
 10
29.9413528614
 20
45.2634051753
 10
29.9703267632
 20
46.4884667245
 10
29.9896417409
 20
47.7120515279
  0
LINE
  5
382
100
AcDbEntity
  8
IMPORT_IGES
100
AcDbLine
 62
250
  6
CONTINUOUS
 10
17.2259436579
 20
-10.8732736953
 11
17.486548899
 21
-10.6350304347
  0
LINE
  5
383
100
AcDbEntity
  8
IMPORT_IGES
100
AcDbLine
 62
250
  6
CONTINUOUS
 10
16.9577087753
 20
-11.1094061148
 11
17.2259436579
 21
-10.8732736953
  0
LWPOLYLINE
  5
384
100
AcDbEntity
  8
0
100
AcDbPolyline
 62
7
  6
CONTINUOUS
 90
10
 70
0
 43
0.3500000006
 10
47.9389568939
 20
1.9426949158
 10
48.0818147278
 20
2.0141215668
 10
48.1532459106
 20
2.0141215668
 10
48.2960992126
 20
1.8712659988
 10
48.2960992126
 20
1.7998370819
 10
48.2246725616
 20
1.728408165
 10
48.1532459106
 20
1.728408165
 10
48.0103880768
 20
1.7998370819
 10
47.9389568939
 20
1.8712659988
 10
47.9389568939
 20
1.9426949158
  0
LWPOLYLINE
  5
385
100
AcDbEntity
  8
IMPORT_IGES
100
AcDbPolyline
 62
7
  6
CONTINUOUS
 90
28
 70
0
 10
-26.4752349261
 20
-29.0254754101
 10
-26.5948553392
 20
-29.0629479288
 10
-26.7102669371
 20
-29.1104572344
 10
-26.8214697199
 20
-29.1676254678
 10
-26.9285405545
 20
-29.2339184229
 10
-27.031402574
 20
-29.309040442
 10
-27.1298251779
 20
-29.3931266243
 10
-27.2233557888
 20
-29.4856526176
 10
-27.3124469841
 20
-29.5865753571
 10
-27.3982258949
 20
-29.697279636
 10
-27.4814867644
 20
-29.8190340715
 10
-27.5614353495
 20
-29.9508444233
 10
-27.6368160518
 20
-30.09066836
 10
-27.7072276249
 20
-30.2375416593
 10
-27.7730713151
 20
-30.3916121079
 10
-27.8342952627
 20
-30.55206598
 10
-27.8903793903
 20
-30.7169989565
 10
-27.9418437752
 20
-30.8873052775
 10
-27.9901967898
 20
-31.0667447449
 10
-28.0362273114
 20
-31.2580575571
 10
-28.0791464628
 20
-31.4585191106
 10
-28.1180959841
 20
-31.6637038425
 10
-28.1525838111
 20
-31.871841395
 10
-28.1831020082
 20
-32.0836185455
 10
-28.2102685081
 20
-32.2979050306
 10
-28.2342892887
 20
-32.5139582676
 10
-28.2549583723
 20
-32.7314653414
 10
-28.2722757588
 20
-32.9499222647
  0
LINE
  5
386
100
AcDbEntity
  8
IMPORT_IGES
100
AcDbLine
 62
7
  6
CONTINUOUS
 10
29.6458242071
 20
-45.9567572412
 11
29.6691746851
 21
-46.109022874
  0
LINE
  5
387
100
AcDbEntity
  8
IMPORT_IGES
100
AcDbLine
 62
7
  6
CONTINUOUS
 10
25.2225282613
 20
-29.5676282087
 11
25.2374311685
 21
-29.6783849444
  0
LINE
  5
388
100
AcDbEntity
  8
IMPORT_IGES
100
AcDbLine
 62
7
  6
CONTINUOUS
 10
25.2213624285
 20
-29.5582999446
 11
25.2225282613
 21
-29.5676282087
  0
LINE
  5
389
100
AcDbEntity
  8
IMPORT_IGES
100
AcDbLine
 62
7
  6
CONTINUOUS
 10
25.2374311685
 20
-29.6783849444
 11
25.252383105
 21
-29.8015217784
  0
LINE
  5
38A
100
AcDbEntity
  8
IMPORT_IGES
100
AcDbLine
 62
7
  6
CONTINUOUS
 10
25.1623188011
 20
-34.4259848863
 11
25.1634819187
 21
-34.4359601668
  0
LINE
  5
38B
100
AcDbEntity
  8
IMPORT_IGES
100
AcDbLine
 62
250
  6
CONTINUOUS
 10
25.328322413
 20
-32.2970760904
 11
25.3649318434
 21
-32.6129132938
  0
LINE
  5
38C
100
AcDbEntity
  8
IMPORT_IGES
100
AcDbLine
 62
7
  6
CONTINUOUS
 10
25.252383105
 20
-29.8015217784
 11
25.2660215621
 21
-29.9249651271
  0
LWPOLYLINE
  5
38D
100
AcDbEntity
  8
IMPORT_IGES
100
AcDbPolyline
 62
7
  6
CONTINUOUS
 90
28
 70
0
 10
28.2722757569
 20
-32.9499222647
 10
28.2547167985
 20
-32.7287401852
 10
28.2338421575
 20
-32.5092986025
 10
28.2096518338
 20
-32.292086326
 10
28.1823027019
 20
-32.0773827367
 10
28.1516378872
 20
-31.8659060794
 10
28.1171867668
 20
-31.6587695527
 10
28.0784494572
 20
-31.455166168
 10
28.0359258419
 20
-31.2568722139
 10
27.9906449484
 20
-31.0684546132
 10
27.9435132994
 20
-30.8929312299
 10
27.8936243722
 20
-30.72705396
 10
27.839287626
 20
-30.5660658682
 10
27.7800017898
 20
-30.4088946713
 10
27.7162681345
 20
-30.2576071454
 10
27.6478999326
 20
-30.112673254
 10
27.5745595373
 20
-29.9740315601
 10
27.4965845954
 20
-29.8426644061
 10
27.4148013198
 20
-29.7203198152
 10
27.329887194
 20
-29.6079951715
 10
27.2411647346
 20
-29.5047788069
 10
27.1474277034
 20
-29.4095793291
 10
27.0483500252
 20
-29.3226851363
 10
26.9442577753
 20
-29.2446351658
 10
26.8349229415
 20
-29.1752829142
 10
26.7202695197
 20
-29.1151132669
 10
26.600373514
 20
-29.0649673491
 10
26.4752349244
 20
-29.0254754101
  0
LINE
  5
38E
100
AcDbEntity
  8
IMPORT_IGES
100
AcDbLine
 62
7
  6
CONTINUOUS
 10
29.0021809753
 20
-35.8039284835
 11
28.9066902957
 21
-34.3229669801
  0
LINE
  5
38F
100
AcDbEntity
  8
IMPORT_IGES
100
AcDbLine
 62
7
  6
CONTINUOUS
 10
28.5669060139
 20
-37.6382480914
 11
28.7650646817
 21
-40.7235514112
  0
LINE
  5
390
100
AcDbEntity
  8
IMPORT_IGES
100
AcDbLine
 62
7
  6
CONTINUOUS
 10
28.2722757569
 20
-32.9499222647
 11
28.5669060139
 21
-37.6382480914
  0
LWPOLYLINE
  5
391
100
AcDbEntity
  8
IMPORT_IGES
100
AcDbPolyline
 62
7
  6
CONTINUOUS
 90
5
 70
0
 10
28.7650646817
 20
-40.7235514112
 10
28.8607913893
 20
-42.2544689693
 10
28.9521306933
 20
-43.7778593989
 10
29.0401587533
 20
-45.2929615496
 10
29.1248755694
 20
-46.7994113045
  0
LWPOLYLINE
  5
392
100
AcDbEntity
  8
IMPORT_IGES
100
AcDbPolyline
 62
7
  6
CONTINUOUS
 90
58
 70
0
 10
28.9066902957
 20
-34.3229669801
 10
28.8060521508
 20
-32.7247978059
 10
28.7984797301
 20
-32.6153117927
 10
28.7901215649
 20
-32.5058761116
 10
28.7809579007
 20
-32.3962932044
 10
28.7709922067
 20
-32.2867606291
 10
28.7602516563
 20
-32.1778710601
 10
28.7487157931
 20
-32.0696491149
 10
28.7363856179
 20
-31.9620701759
 10
28.7233209781
 20
-31.8556530641
 10
28.709517219
 20
-31.7505070712
 10
28.6949582603
 20
-31.6465229056
 10
28.6796879432
 20
-31.5438915131
 10
28.6637374665
 20
-31.4428353352
 10
28.6470543144
 20
-31.3431319304
 10
28.6295557223
 20
-31.2443049202
 10
28.6112466438
 20
-31.1463408634
 10
28.5920951569
 20
-31.0492532012
 10
28.5719585564
 20
-30.9526058796
 10
28.5508228399
 20
-30.8563193193
 10
28.5286660182
 20
-30.7604730995
 10
28.5053266414
 20
-30.6648699045
 10
28.4807372657
 20
-30.5693041
 10
28.4549172168
 20
-30.4739813203
 10
28.4278303447
 20
-30.3793211514
 10
28.3993528661
 20
-30.2850870717
 10
28.369552946
 20
-30.1915156028
 10
28.3386882049
 20
-30.099735896
 10
28.3067656843
 20
-30.009946536
 10
28.273735563
 20
-29.9219489381
 10
28.2397827308
 20
-29.8362764993
 10
28.2049445859
 20
-29.7530948185
 10
28.1691506835
 20
-29.6722382968
 10
28.1324308303
 20
-29.5937435348
 10
28.0947807567
 20
-29.5176240243
 10
28.0561721565
 20
-29.4438662734
 10
28.0166001321
 20
-29.3724664073
 10
27.9760420031
 20
-29.3034022926
 10
27.9344869634
 20
-29.2366960626
 10
27.8919488613
 20
-29.1724102429
 10
27.8483778938
 20
-29.1105037222
 10
27.8037905122
 20
-29.0510176117
 10
27.7583045064
 20
-28.9941377709
 10
27.7119012621
 20
-28.9398798617
 10
27.6645736569
 20
-28.8882282223
 10
27.6164650508
 20
-28.8393217264
 10
27.5675988275
 20
-28.7932023124
 10
27.5179353711
 20
-28.749828042
 10
27.4675298706
 20
-28.7092119743
 10
27.4163821495
 20
-28.6713563925
 10
27.3644792405
 20
-28.6362590135
 10
27.3118602476
 20
-28.6039260476
 10
27.2585179026
 20
-28.5743531988
 10
27.2044487543
 20
-28.547544763
 10
27.1497003813
 20
-28.5235198388
 10
27.0942867189
 20
-28.5022847923
 10
27.0381864437
 20
-28.4838332574
 10
26.7803799878
 20
-28.4127193919
  0
LWPOLYLINE
  5
393
100
AcDbEntity
  8
IMPORT_IGES
100
AcDbPolyline
 62
7
  6
CONTINUOUS
 90
5
 70
0
 10
29.6458242071
 20
-45.9567572412
 10
29.5631536561
 20
-44.5290970836
 10
29.4757482595
 20
-43.0938650837
 10
29.384631476
 20
-41.6510612415
 10
29.0021809753
 20
-35.8039284835
  0
LWPOLYLINE
  5
394
100
AcDbEntity
  8
IMPORT_IGES
100
AcDbPolyline
 62
250
  6
CONTINUOUS
 90
3
 70
0
 10
27.1946222464
 20
55.5963100518
 10
27.1826005041
 20
54.9166788602
 10
27.0910222241
 20
49.2866520278
  0
LWPOLYLINE
  5
395
100
AcDbEntity
  8
IMPORT_IGES
100
AcDbPolyline
 62
250
  6
CONTINUOUS
 90
76
 70
0
 10
27.0910222241
 20
49.2866520278
 10
27.055388965
 20
47.440384675
 10
27.0004625519
 20
45.5390840687
 10
26.9264956733
 20
43.5826644209
 10
26.8326676128
 20
41.5539061386
 10
26.7206334042
 20
39.4692139355
 10
26.5943609257
 20
37.377717346
 10
26.453225133
 20
35.2763013291
 10
26.2989866253
 20
33.1644013409
 10
26.1388532524
 20
31.0939237671
 10
25.9732976057
 20
29.0696510846
 10
25.8026228829
 20
27.0843273478
 10
25.6331662367
 20
25.1720468598
 10
25.4661423338
 20
23.3435431399
 10
25.3001962525
 20
21.586567424
 10
25.1373797929
 20
19.9009004435
 10
24.979040731
 20
18.2906799727
 10
24.8232344231
 20
16.7508371021
 10
24.667113471
 20
15.2673938403
 10
24.5105689384
 20
13.8415696585
 10
24.3531010025
 20
12.4718754076
 10
24.1915784101
 20
11.1402531389
 10
24.0253181318
 20
9.839361408
 10
23.8546139422
 20
8.5764475496
 10
23.6778104291
 20
7.3555680163
 10
23.4934604143
 20
6.1776668896
 10
23.30144095
 20
5.0436639136
 10
23.1017218365
 20
3.9581219194
 10
22.8934111878
 20
2.9244125223
 10
22.6758593247
 20
1.9401117714
 10
22.4494524375
 20
1.0008657139
 10
22.2139881524
 20
0.1083143682
 10
21.9684269644
 20
-0.7389422743
 10
21.7120114338
 20
-1.5498973462
 10
21.4433836237
 20
-2.3267198844
 10
21.1628819145
 20
-3.0672192446
 10
20.872393638
 20
-3.7739035422
 10
20.5724157237
 20
-4.4453064972
 10
20.2616877682
 20
-5.0830983582
 10
19.9395288091
 20
-5.6945149263
 10
19.6060455697
 20
-6.2799870346
 10
19.2604840922
 20
-6.8393740675
 10
18.900829544
 20
-7.3790708306
 10
18.5246500025
 20
-7.9022446331
 10
18.1336674059
 20
-8.4060822326
 10
17.7321881768
 20
-8.8879819822
 10
17.3227183082
 20
-9.3451777691
 10
16.9025333181
 20
-9.7806657343
 10
16.4681439887
 20
-10.2004720493
 10
16.0185888812
 20
-10.6063527952
 10
15.5544423084
 20
-10.9968047118
 10
15.0743936084
 20
-11.3730008069
 10
14.57730153
 20
-11.7358286078
 10
14.063972198
 20
-12.0846309468
 10
13.5360660119
 20
-12.4182445397
 10
12.9941956258
 20
-12.7361673292
 10
12.4376933112
 20
-13.0390313634
 10
11.8663808101
 20
-13.3273457246
 10
11.2797788397
 20
-13.6013112731
 10
10.6784226414
 20
-13.8608345041
 10
10.0637136176
 20
-14.1059651234
 10
9.4341800523
 20
-14.3373932152
 10
8.7915436773
 20
-14.5544923003
 10
8.1422011531
 20
-14.7552488204
 10
7.4893214931
 20
-14.938811882
 10
6.8304499745
 20
-15.1059116885
 10
6.1636614282
 20
-15.2568635089
 10
5.4869569672
 20
-15.3917530436
 10
4.8030008505
 20
-15.5104675146
 10
4.1168984079
 20
-15.6130099636
 10
3.4302072654
 20
-15.6990795383
 10
2.7422089295
 20
-15.768877691
 10
2.0546468688
 20
-15.8231184453
 10
1.3683770399
 20
-15.8620118365
 10
0.6833649449
 20
-15.8852758446
 10
0.0000138888
 20
-15.892887237
  0
LINE
  5
396
100
AcDbEntity
  8
IMPORT_IGES
100
AcDbLine
 62
7
  6
CONTINUOUS
 10
25.3649238382
 20
-32.6129132198
 11
25.3617552966
 21
-32.7619749364
  0
LWPOLYLINE
  5
397
100
AcDbEntity
  8
IMPORT_IGES
100
AcDbPolyline
 62
7
  6
CONTINUOUS
 90
3
 70
0
 10
25.3617552966
 20
-32.7619749364
 10
25.3578525318
 20
-32.9122007721
 10
25.3567620193
 20
-32.9499222647
  0
LWPOLYLINE
  5
398
100
AcDbEntity
  8
IMPORT_IGES
100
AcDbPolyline
 62
7
  6
CONTINUOUS
 90
12
 70
0
 10
25.3283157067
 20
-32.2970762175
 10
25.3352470152
 20
-32.061191528
 10
25.3397454812
 20
-31.8314982691
 10
25.3418111047
 20
-31.6083425609
 10
25.3412894759
 20
-31.3919545203
 10
25.3383350045
 20
-31.1827853146
 10
25.3334109206
 20
-30.9814666562
 10
25.3264936913
 20
-30.7884848132
 10
25.3176068494
 20
-30.6038841158
 10
25.3072842225
 20
-30.4276254418
 10
25.2955149459
 20
-30.2600263695
 10
25.2823098842
 20
-30.1013417353
  0
LWPOLYLINE
  5
399
100
AcDbEntity
  8
IMPORT_IGES
100
AcDbPolyline
 62
7
  6
CONTINUOUS
 90
45
 70
0
 10
25.3567620193
 20
-32.9499211595
 10
25.323199946
 20
-33.7009328866
 10
25.2671893209
 20
-34.4476569194
 10
25.1887301441
 20
-35.1900665649
 10
25.0877740513
 20
-35.9285846911
 10
24.9643694068
 20
-36.6627365046
 10
24.818661303
 20
-37.391157677
 10
24.6505982816
 20
-38.1139041028
 10
24.4602318009
 20
-38.8308909456
 10
24.247861329
 20
-39.5405611919
 10
24.0134279022
 20
-40.2430371241
 10
23.756990484
 20
-40.9381942954
 10
23.4790254335
 20
-41.6241289547
 10
23.1793818408
 20
-42.3009198221
 10
22.8582106158
 20
-42.9685201748
 10
22.5164408463
 20
-43.624866156
 10
22.1542566516
 20
-44.2696497906
 10
21.7714739124
 20
-44.9032505137
 10
21.3684693591
 20
-45.5246586752
 10
20.9451156223
 20
-46.1340924136
 10
20.5015400715
 20
-46.7314262687
 10
20.0385015451
 20
-47.3151547255
 10
19.5553733476
 20
-47.8858712661
 10
19.0527821746
 20
-48.4431016564
 10
18.5333669519
 20
-48.9837715784
 10
17.9975032977
 20
-49.5073249132
 10
17.4448155937
 20
-50.0144871412
 10
16.8768159108
 20
-50.5041350061
 10
16.2942312607
 20
-50.975911786
 10
15.6963346317
 20
-51.4303553788
 10
15.0824570598
 20
-51.8676900048
 10
14.4511511337
 20
-52.2889486088
 10
13.8038642648
 20
-52.6932650133
 10
13.1442697225
 20
-53.0780267904
 10
12.4721142507
 20
-53.4430603606
 10
11.7876511056
 20
-53.7887271396
 10
11.0953133256
 20
-54.113236921
 10
10.3966897194
 20
-54.4159125318
 10
9.6901914783
 20
-54.6976150462
 10
8.9754852149
 20
-54.958862003
 10
8.2517742482
 20
-55.2000828203
 10
7.5198552592
 20
-55.4209950584
 10
6.7817849026
 20
-55.621041017
 10
6.0371493999
 20
-55.8002716338
 10
5.2863625295
 20
-55.9587545879
  0
LWPOLYLINE
  5
39A
100
AcDbEntity
  8
IMPORT_IGES
100
AcDbPolyline
 62
250
  6
CONTINUOUS
 90
16
 70
0
 10
27.1946207533
 20
55.5963088655
 10
27.1976534245
 20
55.6591376292
 10
27.1985937105
 20
55.7203113536
 10
27.197411207
 20
55.7793474346
 10
27.1941195337
 20
55.8356485307
 10
27.1887535817
 20
55.8889575769
 10
27.1813129746
 20
55.9393007889
 10
27.1718443517
 20
55.986302937
 10
27.1604260319
 20
56.029627218
 10
27.1470547424
 20
56.0692859619
 10
27.1318227516
 20
56.1049685871
 10
27.1148465402
 20
56.1364312749
 10
27.0961169657
 20
56.1636837465
 10
27.0757128348
 20
56.1865515319
 10
27.0538400407
 20
56.2047990216
 10
27.0306788825
 20
56.2183400306
  0
LWPOLYLINE
  5
39B
100
AcDbEntity
  8
IMPORT_IGES
100
AcDbPolyline
 62
7
  6
CONTINUOUS
 90
25
 70
0
 10
12.8293359559
 20
-21.350094143
 10
12.8427489521
 20
-21.3369549571
 10
12.8557188488
 20
-21.3239739314
 10
12.868218465
 20
-21.3111509478
 10
12.880230158
 20
-21.2984508115
 10
12.8917223626
 20
-21.2859085038
 10
12.9026526415
 20
-21.2736291954
 10
12.913008017
 20
-21.2616143
 10
12.9227703373
 20
-21.2498622689
 10
12.9319002245
 20
-21.2384738755
 10
12.9403911121
 20
-21.2274600527
 10
12.948242239
 20
-21.2168098359
 10
12.9554354083
 20
-21.2065912069
 10
12.9619721694
 20
-21.1968192111
 10
12.9678658933
 20
-21.1874788679
 10
12.973124191
 20
-21.178593155
 10
12.9777571153
 20
-21.1701719554
 10
12.981781852
 20
-21.1622055044
 10
12.9852178624
 20
-21.1546873129
 10
12.9880824147
 20
-21.1476154166
 10
12.990388002
 20
-21.140991909
 10
12.9921491611
 20
-21.134816397
 10
12.9933856894
 20
-21.1290888147
 10
12.9941197094
 20
-21.1238094101
 10
12.9943728305
 20
-21.1189782769
  0
LINE
  5
39C
100
AcDbEntity
  8
IMPORT_IGES
100
AcDbLine
 62
250
  6
CONTINUOUS
 10
-29.9896417449
 20
-46.0246281156
 11
-30.1146427072
 21
-46.0906613616
  0
LINE
  5
39D
100
AcDbEntity
  8
IMPORT_IGES
100
AcDbLine
 62
250
  6
CONTINUOUS
 10
29.9896417432
 20
47.7120515279
 11
29.9896417432
 21
-46.0246281156
  0
LINE
  5
39E
100
AcDbEntity
  8
IMPORT_IGES
100
AcDbLine
 62
7
  6
CONTINUOUS
 10
30.1146427054
 20
54.9892333967
 11
30.1146427055
 21
-46.0906612649
  0
LWPOLYLINE
  5
39F
100
AcDbEntity
  8
IMPORT_IGES
100
AcDbPolyline
 62
250
  6
CONTINUOUS
 90
4
 70
0
 10
29.9896417432
 20
47.7120515279
 10
30.0467300517
 20
53.2827077458
 10
30.0552234029
 20
54.0733692747
 10
30.0638010916
 20
54.8627314449
  0
LWPOLYLINE
  5
3A0
100
AcDbEntity
  8
IMPORT_IGES
100
AcDbPolyline
 62
7
  6
CONTINUOUS
 90
22
 70
0
 10
30.1146427055
 20
-46.0906612649
 10
30.108425213
 20
-46.3225797263
 10
30.091429271
 20
-46.5528664362
 10
30.0636548795
 20
-46.7815213946
 10
30.0248593159
 20
-47.0089988082
 10
29.9752853027
 20
-47.2348444704
 10
29.9156610079
 20
-47.4576957609
 10
29.8460005922
 20
-47.6774985525
 10
29.7662898949
 20
-47.8943069724
 10
29.6772146011
 20
-48.1069207824
 10
29.5787974616
 20
-48.3153298662
 10
29.4710157257
 20
-48.5195443399
 10
29.3544868266
 20
-48.7183943147
 10
29.2292152445
 20
-48.9119042839
 10
29.0951964992
 20
-49.100049754
 10
28.9530345833
 20
-49.2815873552
 10
28.8026927824
 20
-49.4565593
 10
28.6442078109
 20
-49.6249233758
 10
28.4782938041
 20
-49.7853095743
 10
28.3051888071
 20
-49.9372612261
 10
28.1246547748
 20
-50.0812350006
 10
27.9366917072
 20
-50.2172308979
  0
LWPOLYLINE
  5
3A1
100
AcDbEntity
  8
IMPORT_IGES
100
AcDbPolyline
 62
7
  6
CONTINUOUS
 90
10
 70
0
 10
25.1623188011
 20
-34.4259652065
 10
25.1906431543
 20
-34.174114353
 10
25.2164627015
 20
-33.9256792896
 10
25.2397774426
 20
-33.6809228075
 10
25.2605410538
 20
-33.4403676925
 10
25.2787998589
 20
-33.2039899304
 10
25.2946928296
 20
-32.9712629176
 10
25.3082662897
 20
-32.7422170986
 10
25.3194739154
 20
-32.5173951643
 10
25.3283157067
 20
-32.2970762175
  0
LWPOLYLINE
  5
3A2
100
AcDbEntity
  8
IMPORT_IGES
100
AcDbPolyline
 62
7
  6
CONTINUOUS
 90
4
 70
0
 10
25.0704211784
 20
-33.8636781112
 10
25.0345261737
 20
-34.1589243473
 10
24.9202734771
 20
-34.9071308273
 10
24.7828306683
 20
-35.6533388787
  0
LWPOLYLINE
  5
3A3
100
AcDbEntity
  8
IMPORT_IGES
100
AcDbPolyline
 62
7
  6
CONTINUOUS
 90
9
 70
0
 10
25.1634819187
 20
-34.4359598302
 10
25.0975151447
 20
-34.9562280397
 10
25.0200790304
 20
-35.4745830172
 10
24.9311735757
 20
-35.9910247629
 10
24.830748181
 20
-36.5057851821
 10
24.7188534459
 20
-37.0186323694
 10
24.5956411695
 20
-37.5288706081
 10
24.4611619515
 20
-38.0362679928
 10
24.3153651921
 20
-38.5410564289
  0
LWPOLYLINE
  5
3A4
100
AcDbEntity
  8
IMPORT_IGES
100
AcDbPolyline
 62
7
  6
CONTINUOUS
 90
5
 70
0
 10
24.7828306683
 20
-35.6533388787
 10
24.6221870815
 20
-36.3967227929
 10
24.4383104326
 20
-37.1366725293
 10
24.231113465
 20
-37.8727862003
 10
23.9990806935
 20
-38.6088932033
  0
LWPOLYLINE
  5
3A5
100
AcDbEntity
  8
0
100
AcDbPolyline
 62
7
  6
CONTINUOUS
 90
3
 70
0
 43
0.3500000006
 10
46.2961031342
 20
-5.1287350044
 10
45.438956131
 20
-4.2715914001
 10
48.4389570465
 20
-4.2715914001
  0
LWPOLYLINE
  5
3A6
100
AcDbEntity
  8
IMPORT_IGES
100
AcDbPolyline
 62
250
  6
CONTINUOUS
 90
19
 70
0
 10
30.0638010915
 20
54.8627314683
 10
30.0611272993
 20
54.9339934668
 10
30.0534380726
 20
55.0043731338
 10
30.040882916
 20
55.0735281925
 10
30.0237057024
 20
55.1408866647
 10
30.0020584605
 20
55.2064050377
 10
29.9758287993
 20
55.2705132487
 10
29.944992366
 20
55.3330727204
 10
29.9097264436
 20
55.3935533568
 10
29.8700801254
 20
55.4517379408
 10
29.826115967
 20
55.5073709291
 10
29.7780462676
 20
55.5600341115
 10
29.7261887246
 20
55.6092858212
 10
29.6708389124
 20
55.6547956157
 10
29.6121995615
 20
55.6963500197
 10
29.5505040179
 20
55.7337225951
 10
29.4860294
 20
55.7666785708
 10
29.4191024448
 20
55.7949864399
 10
29.3500548229
 20
55.8184453124
  0
LINE
  5
3A7
100
AcDbEntity
  8
IMPORT_IGES
100
AcDbLine
 62
7
  6
CONTINUOUS
 10
24.3153651921
 20
-38.5410564289
 11
24.1582508915
 21
-39.0432359165
  0
LWPOLYLINE
  5
3A8
100
AcDbEntity
  8
IMPORT_IGES
100
AcDbPolyline
 62
7
  6
CONTINUOUS
 90
43
 70
0
 10
24.1540104582
 20
-39.0417267686
 10
23.912526694
 20
-39.7464706739
 10
23.647215984
 20
-40.4490932929
 10
23.3610912603
 20
-41.1408017131
 10
23.0539481466
 20
-41.8215784387
 10
22.7259910193
 20
-42.4914409657
 10
22.3778330074
 20
-43.1504417823
 10
22.0091815657
 20
-43.7992690514
 10
21.6203292394
 20
-44.4372346103
 10
21.2127667925
 20
-45.0623264584
 10
20.7867207345
 20
-45.6742561814
 10
20.3419645559
 20
-46.2733121937
 10
19.8793094922
 20
-46.858347738
 10
19.3987755771
 20
-47.4292579776
 10
18.9003427768
 20
-47.9861477492
 10
18.3847622267
 20
-48.5281848053
 10
17.8515792904
 20
-49.055671218
 10
17.3012486041
 20
-49.5683049152
 10
16.7358852114
 20
-50.0643474331
 10
16.1556513239
 20
-50.5437050421
 10
15.56038473
 20
-51.0064714717
 10
14.9517138376
 20
-51.4511894473
 10
14.3298434196
 20
-51.87767445
 10
13.6945687032
 20
-52.2861109986
 10
13.0469037775
 20
-52.6755953756
 10
12.3866736004
 20
-53.046047202
 10
11.714053214
 20
-53.3975468568
 10
11.0305818345
 20
-53.7294317589
 10
10.3354683594
 20
-54.0420060893
 10
9.6295038911
 20
-54.3349656671
 10
8.9166009537
 20
-54.6067353694
 10
8.1973345715
 20
-54.8569888199
 10
7.4711297201
 20
-55.086052395
 10
6.7401738498
 20
-55.2933301008
 10
6.0047480543
 20
-55.4785668043
 10
5.2645712398
 20
-55.6420176386
 10
4.5209875758
 20
-55.7838520098
 10
3.7748417204
 20
-55.9041713328
 10
3.0252890156
 20
-56.0028741926
 10
2.2711396555
 20
-56.0798257505
 10
1.5119970385
 20
-56.1349810604
 10
0.7482577664
 20
-56.1683850684
 10
-0.020078161
 20
-56.1800377745
  0
LINE
  5
3A9
100
AcDbEntity
  8
IMPORT_IGES
100
AcDbLine
 62
7
  6
CONTINUOUS
 10
23.9990806935
 20
-38.6088932033
 11
23.7434741259
 21
-39.3395821648
  0
LWPOLYLINE
  5
3AA
100
AcDbEntity
  8
IMPORT_IGES
100
AcDbPolyline
 62
7
  6
CONTINUOUS
 90
28
 70
0
 10
23.7434741259
 20
-39.3395821648
 10
23.469623829
 20
-40.0510003797
 10
23.182487812
 20
-40.7344910071
 10
22.8801512934
 20
-41.3984507541
 10
22.5577722926
 20
-42.0546456422
 10
22.2136868701
 20
-42.7058067647
 10
21.8497123585
 20
-43.3478738993
 10
21.4650319787
 20
-43.9818665707
 10
21.0589934385
 20
-44.6081782701
 10
20.6323742794
 20
-45.22495664
 10
20.186541302
 20
-45.8298640298
 10
19.7221903964
 20
-46.4218102243
 10
19.2392880186
 20
-47.000697458
 10
18.7383012422
 20
-47.5657993295
 10
18.2198732265
 20
-48.1162675259
 10
17.6841524439
 20
-48.6518254242
 10
17.1308430921
 20
-49.1725673667
 10
16.5599891447
 20
-49.6781689103
 10
15.9723033123
 20
-50.1677227554
 10
15.3684847992
 20
-50.640423369
 10
14.7500102799
 20
-51.0949888174
 10
14.116392927
 20
-51.5316536936
 10
13.4652601513
 20
-51.9516752498
 10
12.7939954926
 20
-52.3559953435
 10
12.1058601687
 20
-52.7419122518
 10
11.4074945612
 20
-53.1055276491
 10
10.7014489038
 20
-53.4458091946
 10
10.5706285585
 20
-53.5059407562
  0
LWPOLYLINE
  5
3AB
100
AcDbEntity
  8
IMPORT_IGES
100
AcDbPolyline
 62
7
  6
CONTINUOUS
 90
16
 70
0
 10
0.7631098767
 20
-59.3339303386
 10
0.6876439714
 20
-59.4428398683
 10
0.6140890807
 20
-59.5436390262
 10
0.5424452046
 20
-59.6363278123
 10
0.4726187294
 20
-59.7205041652
 10
0.4047032688
 20
-59.7965701464
 10
0.3389796645
 20
-59.8657319402
 10
0.275490174
 20
-59.9279811694
 10
0.2141925397
 20
-59.9833262112
 10
0.1552408302
 20
-60.0329983818
 10
0.0986673605
 20
-60.077010015
 10
0.0444398156
 20
-60.1153487771
 10
-0.0073846817
 20
-60.1492089821
 10
-0.0567870905
 20
-60.1789887349
 10
-0.1037864516
 20
-60.2042899306
 10
-0.1483827651
 20
-60.2251125694
  0
LINE
  5
3AC
100
AcDbEntity
  8
IMPORT_IGES
100
AcDbLine
 62
250
  6
CONTINUOUS
 10
-27.936691709
 20
-50.2172308979
 11
-27.8055572856
 21
-50.155382934
  0
LINE
  5
3AD
100
AcDbEntity
  8
IMPORT_IGES
100
AcDbLine
 62
250
  6
CONTINUOUS
 10
-27.5169116366
 20
-50.0399779259
 11
-27.7776449858
 21
-50.1533827395
  0
LWPOLYLINE
  5
3AE
100
AcDbEntity
  8
IMPORT_IGES
100
AcDbPolyline
 62
250
  6
CONTINUOUS
 90
10
 70
0
 10
-27.8055572856
 20
-50.155382934
 10
-27.8034249555
 20
-50.1545091317
 10
-27.801051333
 20
-50.1537999573
 10
-27.7984364308
 20
-50.1532553687
 10
-27.7955802227
 20
-50.1528753068
 10
-27.7924827513
 20
-50.1526597336
 10
-27.7891441274
 20
-50.1526086323
 10
-27.7855643877
 20
-50.1527219562
 10
-27.7817434944
 20
-50.1529996294
 10
-27.7776814425
 20
-50.1534415839
  0
LWPOLYLINE
  5
3AF
100
AcDbEntity
  8
0
100
AcDbPolyline
 62
7
  6
CONTINUOUS
 90
10
 70
0
 43
0.3500000006
 10
0.9642857051
 20
78.7296122131
 10
1.035714268
 20
78.5867498474
 10
1.035714268
 20
78.5153186646
 10
0.8928571422
 20
78.3724653625
 10
0.8214285793
 20
78.3724653625
 10
0.7500000165
 20
78.4438965454
 10
0.7500000165
 20
78.5153186646
 10
0.8214285793
 20
78.6581810303
 10
0.8928571422
 20
78.7296122131
 10
0.9642857051
 20
78.7296122131
  0
LWPOLYLINE
  5
3B0
100
AcDbEntity
  8
IMPORT_IGES
100
AcDbPolyline
 62
250
  6
CONTINUOUS
 90
25
 70
0
 10
29.9896422021
 20
47.7120985238
 10
29.9786139556
 20
47.7933084867
 10
29.9568340186
 20
47.8745364567
 10
29.9243201212
 20
47.9555076448
 10
29.8812234031
 20
48.0358524881
 10
29.8276810662
 20
48.115395762
 10
29.7636841401
 20
48.1941581406
 10
29.6894208647
 20
48.2718862963
 10
29.6051606928
 20
48.3483197431
 10
29.5108960526
 20
48.4234681184
 10
29.4069128401
 20
48.4970890259
 10
29.2935685157
 20
48.5689437256
 10
29.1708570179
 20
48.6390366905
 10
29.0391590267
 20
48.7071390516
 10
28.8989130512
 20
48.7730347711
 10
28.7501096726
 20
48.8367275832
 10
28.5932228903
 20
48.8980046364
 10
28.4287664769
 20
48.9566740149
 10
28.2567183714
 20
49.0127419893
 10
28.0776464591
 20
49.0660142726
 10
27.8921341039
 20
49.1163251279
 10
27.700131107
 20
49.1636858484
 10
27.5020380495
 20
49.2079795305
 10
27.29875776
 20
49.2490033781
 10
27.0910013267
 20
49.2866363588
  0
LINE
  5
3B1
100
AcDbEntity
  8
IMPORT_IGES
100
AcDbLine
 62
250
  6
CONTINUOUS
 10
26.9813957208
 20
-28.468165234
 11
26.4752349244
 21
-29.0254754101
  0
LWPOLYLINE
  5
3B2
100
AcDbEntity
  8
IMPORT_IGES
100
AcDbPolyline
 62
7
  6
CONTINUOUS
 90
10
 70
0
 10
28.9645785538
 20
-47.2664100397
 10
28.9839762926
 20
-47.2153456116
 10
29.0029653081
 20
-47.1640763147
 10
29.0215456002
 20
-47.1126020488
 10
29.0397011911
 20
-47.0609240147
 10
29.0574480587
 20
-47.0090408111
 10
29.074834137
 20
-46.9569484321
 10
29.0918754038
 20
-46.9046454726
 10
29.1085558813
 20
-46.8521331312
 10
29.1248755694
 20
-46.7994113045
  0
LWPOLYLINE
  5
3B3
100
AcDbEntity
  8
0
100
AcDbPolyline
 62
7
  6
CONTINUOUS
 90
7
 70
0
 43
0.3500000006
 10
48.4389570465
 20
-1.9144484711
 10
48.4389570465
 20
-3.4144489288
 10
46.2961031342
 20
-1.9144484711
 10
45.8675296326
 20
-1.9144484711
 10
45.438956131
 20
-2.3430197067
 10
45.438956131
 20
-2.9858776932
 10
46.0818141174
 20
-3.4144489288
  0
LWPOLYLINE
  5
3B4
100
AcDbEntity
  8
0
100
AcDbPolyline
 62
7
  6
CONTINUOUS
 90
8
 70
0
 43
0.3500000006
 10
48.4389570465
 20
3.0141218719
 10
48.4389570465
 20
3.8712666092
 10
48.0103880768
 20
4.2998378448
 10
47.1532456055
 20
4.2998378448
 10
46.7246721039
 20
3.8712666092
 10
46.7246721039
 20
3.0141218719
 10
45.438956131
 20
3.0141218719
 10
45.438956131
 20
4.2998378448
  0
LWPOLYLINE
  5
3B5
100
AcDbEntity
  8
IMPORT_IGES
100
AcDbPolyline
 62
7
  6
CONTINUOUS
 90
10
 70
0
 10
29.6457674293
 20
-45.9567739709
 10
29.5930822718
 20
-46.0485941582
 10
29.5391122993
 20
-46.1408764553
 10
29.4838569851
 20
-46.2336235251
 10
29.4273329741
 20
-46.3268606087
 10
29.3695225704
 20
-46.4205677775
 10
29.3103738061
 20
-46.514679952
 10
29.2498690937
 20
-46.6091772152
 10
29.1880251577
 20
-46.7040847952
 10
29.1248415702
 20
-46.799405331
  0
LWPOLYLINE
  5
3B6
100
AcDbEntity
  8
IMPORT_IGES
100
AcDbPolyline
 62
7
  6
CONTINUOUS
 90
16
 70
0
 10
0.8112387656
 20
-60.2251125694
 10
0.8490079417
 20
-60.2042899242
 10
0.8877117732
 20
-60.178988722
 10
0.92735026
 20
-60.1492089629
 10
0.9680729702
 20
-60.1153487513
 10
1.0097303357
 20
-60.0770099827
 10
1.0518736523
 20
-60.0329983438
 10
1.0945392793
 20
-59.9833261686
 10
1.1376908574
 20
-59.9279811232
 10
1.1807706052
 20
-59.8657318925
 10
1.2238180376
 20
-59.7965700974
 10
1.2667936397
 20
-59.7205041171
 10
1.3090210853
 20
-59.6363277736
 10
1.3502749323
 20
-59.5436390074
 10
1.3907806229
 20
-59.4428398781
 10
1.4305381569
 20
-59.3339303855
  0
LWPOLYLINE
  5
3B7
100
AcDbEntity
  8
IMPORT_IGES
100
AcDbPolyline
 62
250
  6
CONTINUOUS
 90
25
 70
0
 10
-27.0910013285
 20
49.2866363588
 10
-27.2987557933
 20
49.2490037547
 10
-27.5020343418
 20
49.207980319
 10
-27.7001258985
 20
49.1636870727
 10
-27.8921276476
 20
49.1163267988
 10
-28.0776390068
 20
49.0660163902
 10
-28.2567101621
 20
49.0127445462
 10
-28.4287577429
 20
48.9566769937
 10
-28.5932138592
 20
48.8980080079
 10
-28.7501005577
 20
48.8367313102
 10
-28.8989040489
 20
48.7730388081
 10
-29.0391503176
 20
48.7071433436
 10
-29.1708487663
 20
48.6390411737
 10
-29.2935608596
 20
48.5689483307
 10
-29.4069058928
 20
48.4970936772
 10
-29.5108899082
 20
48.4234727305
 10
-29.6051554113
 20
48.3483242293
 10
-29.6894164748
 20
48.2718905667
 10
-29.7636806478
 20
48.1941620953
 10
-29.8276784381
 20
48.1153993044
 10
-29.8812215703
 20
48.0358555229
 10
-29.9243189881
 20
47.9555100655
 10
-29.9568334509
 20
47.8745381582
 10
-29.9786137774
 20
47.7933093779
 10
-29.9896422038
 20
47.7120985238
  0
LWPOLYLINE
  5
3B8
100
AcDbEntity
  8
IMPORT_IGES
100
AcDbPolyline
 62
7
  6
CONTINUOUS
 90
52
 70
0
 10
28.9645785538
 20
-47.2664100397
 10
27.9350108897
 20
-48.0662607116
 10
26.8927583966
 20
-48.832291368
 10
25.8378210745
 20
-49.5647414839
 10
24.7701317978
 20
-50.2637464218
 10
23.6897576922
 20
-50.9296486337
 10
22.5969001342
 20
-51.5629934893
 10
21.4907440106
 20
-52.1643874281
 10
20.3721044347
 20
-52.73367555
 10
19.243628123
 20
-53.270258165
 10
18.1052947804
 20
-53.7741740981
 10
16.9571247021
 20
-54.2458142096
 10
15.8018254894
 20
-54.6851033253
 10
14.6380823678
 20
-55.0926110242
 10
13.4672101119
 20
-55.4681428026
 10
12.2958606474
 20
-55.8104713774
 10
11.1257433642
 20
-56.1189755635
 10
9.9551488724
 20
-56.3945979839
 10
8.7856009275
 20
-56.6384401203
 10
7.6183265055
 20
-56.8505601971
 10
6.4520986304
 20
-57.031124721
 10
5.2847601304
 20
-57.1813684081
 10
4.115689423
 20
-57.3016886657
 10
2.9455080908
 20
-57.3918189919
 10
1.7739237093
 20
-57.4519732414
 10
0.5999711587
 20
-57.4822449789
 10
-0.5753844411
 20
-57.4825847712
 10
-1.7495401553
 20
-57.4529698935
 10
-2.9217978148
 20
-57.3934089175
 10
-4.0928555886
 20
-57.303849695
 10
-5.2622050486
 20
-57.1841564174
 10
-6.4287708601
 20
-57.0346775834
 10
-7.5936283577
 20
-56.8549348032
 10
-8.7594951181
 20
-56.6435266552
 10
-9.9279930443
 20
-56.3999649437
 10
-11.0975002333
 20
-56.1245119948
 10
-12.2658685519
 20
-55.8168657959
 10
-13.4338287739
 20
-55.4768200849
 10
-14.6006501255
 20
-55.1042704143
 10
-15.7619921535
 20
-54.6990469327
 10
-16.9175396058
 20
-54.2608747342
 10
-18.0676077344
 20
-53.7896439904
 10
-19.2088018423
 20
-53.2854175339
 10
-20.3411834655
 20
-52.7475289135
 10
-21.4646910679
 20
-52.1762020981
 10
-22.5757453442
 20
-51.572837588
 10
-23.6734840339
 20
-50.9378970232
 10
-24.7587693975
 20
-50.270469069
 10
-25.8306089103
 20
-49.569897249
 10
-26.8886717307
 20
-48.8358011826
 10
-27.9332887002
 20
-48.068081838
 10
-28.964459819
 20
-47.2664991054
  0
LWPOLYLINE
  5
3B9
100
AcDbEntity
  8
IMPORT_IGES
100
AcDbPolyline
 62
7
  6
CONTINUOUS
 90
28
 70
0
 10
27.7776939719
 20
-50.1534527319
 10
27.9124627627
 20
-50.0573644712
 10
28.0457056172
 20
-49.9551590251
 10
28.1770325212
 20
-49.8467809077
 10
28.3063051142
 20
-49.7319475293
 10
28.432806772
 20
-49.6108923707
 10
28.5553255457
 20
-49.4844794374
 10
28.6745353523
 20
-49.3516345349
 10
28.7889247054
 20
-49.2136971752
 10
28.8945753959
 20
-49.0757762079
 10
28.9887974545
 20
-48.9427585242
 10
29.0749626986
 20
-48.8112652061
 10
29.1580372857
 20
-48.6738723413
 10
29.2389674737
 20
-48.5279197752
 10
29.3155395919
 20
-48.3760815373
 10
29.3871699019
 20
-48.2184346172
 10
29.454184796
 20
-48.0526070433
 10
29.5148242462
 20
-47.8813013427
 10
29.5663490885
 20
-47.7125643815
 10
29.6077264226
 20
-47.5529932435
 10
29.6413234275
 20
-47.3970418118
 10
29.6693015111
 20
-47.2345740439
 10
29.691246478
 20
-47.0628323059
 10
29.7056965718
 20
-46.8851638719
 10
29.7117838961
 20
-46.7005210853
 10
29.7084237079
 20
-46.5089384591
 10
29.6945614176
 20
-46.3115304932
 10
29.6691746045
 20
-46.109022874
  0
LWPOLYLINE
  5
3BA
100
AcDbEntity
  8
IMPORT_IGES
100
AcDbPolyline
 62
7
  6
CONTINUOUS
 90
43
 70
0
 10
27.5176216347
 20
-50.0395241176
 10
27.5745598544
 20
-49.999641515
 10
27.6307811679
 20
-49.9586401167
 10
27.6862392281
 20
-49.9165311964
 10
27.7408059475
 20
-49.873369547
 10
27.7945184497
 20
-49.8291317802
 10
27.8475773281
 20
-49.7836998541
 10
27.8999674195
 20
-49.7370756354
 10
27.9516135681
 20
-49.6892648086
 10
28.0026132656
 20
-49.6401379954
 10
28.0529035686
 20
-49.5897058784
 10
28.1024325173
 20
-49.5379706225
 10
28.1512888898
 20
-49.4847837932
 10
28.199405718
 20
-49.4301494821
 10
28.2467076985
 20
-49.3740839453
 10
28.2932446965
 20
-49.3164532064
 10
28.3389259094
 20
-49.257282812
 10
28.3836752084
 20
-49.1965834557
 10
28.4275356432
 20
-49.1341981745
 10
28.4704185053
 20
-49.0701379537
 10
28.5122122793
 20
-49.0044519749
 10
28.5528976514
 20
-48.9370444113
 10
28.5923897838
 20
-48.8679134435
 10
28.63054787
 20
-48.7971591148
 10
28.6672572313
 20
-48.7248486463
 10
28.7024127911
 20
-48.65104363
 10
28.7359004909
 20
-48.5758324332
 10
28.7675965324
 20
-48.4993366797
 10
28.7974069562
 20
-48.4216303578
 10
28.8252178255
 20
-48.3428490519
 10
28.8508917014
 20
-48.2631977231
 10
28.8743470557
 20
-48.1827118998
 10
28.8955005251
 20
-48.1014398878
 10
28.9142417655
 20
-48.0195568124
 10
28.9305060537
 20
-47.9371122159
 10
28.9442382992
 20
-47.8541379037
 10
28.9553705791
 20
-47.7707803595
 10
28.9638843238
 20
-47.6870699524
 10
28.9697189909
 20
-47.6030605827
 10
28.972765467
 20
-47.5189403408
 10
28.9729752126
 20
-47.4348108412
 10
28.9703533988
 20
-47.3506802329
 10
28.9648839236
 20
-47.2666051321
  0
LWPOLYLINE
  5
3BB
100
AcDbEntity
  8
IMPORT_IGES
100
AcDbPolyline
 62
250
  6
CONTINUOUS
 90
43
 70
0
 10
27.8055572189
 20
-50.1553829798
 10
27.8968736976
 20
-50.0914365642
 10
27.9871484588
 20
-50.0249688741
 10
28.0763263084
 20
-49.9559902548
 10
28.1643633531
 20
-49.884502272
 10
28.2511892149
 20
-49.810528165
 10
28.3367095059
 20
-49.7341157611
 10
28.4209375301
 20
-49.6552164431
 10
28.5037407748
 20
-49.5739155756
 10
28.5848236012
 20
-49.490484146
 10
28.6641374017
 20
-49.4049685032
 10
28.7416439299
 20
-49.3174043686
 10
28.8170957812
 20
-49.2280800332
 10
28.8903990727
 20
-49.137136418
 10
28.9615962418
 20
-49.0445491638
 10
29.0306608662
 20
-48.9503732556
 10
29.0975633144
 20
-48.8546680628
 10
29.1622782837
 20
-48.7574868863
 10
29.2247850859
 20
-48.6588749179
 10
29.2850549721
 20
-48.5588887718
 10
29.3430604249
 20
-48.4575830632
 10
29.3987809622
 20
-48.3549988808
 10
29.4521875126
 20
-48.251191207
 10
29.5032510049
 20
-48.1462150246
 10
29.5519490141
 20
-48.0401103946
 10
29.5982518976
 20
-47.9329308085
 10
29.6421290542
 20
-47.824731901
 10
29.6835547836
 20
-47.7155562148
 10
29.7224992826
 20
-47.6054546711
 10
29.7589301698
 20
-47.4944851851
 10
29.7928168804
 20
-47.3827005518
 10
29.824155652
 20
-47.2700519846
 10
29.8528828819
 20
-47.1566964146
 10
29.8788996138
 20
-47.0430006219
 10
29.9021978604
 20
-46.9290163267
 10
29.9227666848
 20
-46.8148097964
 10
29.9405485884
 20
-46.7007779318
 10
29.9555476332
 20
-46.5870782972
 10
29.9677965058
 20
-46.4736725365
 10
29.9773088207
 20
-46.3606656193
 10
29.9841049994
 20
-46.248128805
 10
29.988208465
 20
-46.1360992382
 10
29.9896417466
 20
-46.0246283581
  0
LWPOLYLINE
  5
3BC
100
AcDbEntity
  8
IMPORT_IGES
100
AcDbPolyline
 62
7
  6
CONTINUOUS
 90
49
 70
0
 10
27.5174492635
 20
-50.0391921156
 10
26.4375373432
 20
-50.7625777963
 10
25.3476309571
 20
-51.4517366578
 10
24.2484472875
 20
-52.1068491392
 10
23.1396836948
 20
-52.7285310243
 10
22.0215770226
 20
-53.3173221962
 10
20.894907208
 20
-53.8737421558
 10
19.7586285186
 20
-54.399128013
 10
18.6137170332
 20
-54.8933403058
 10
17.4642827519
 20
-55.3549961832
 10
16.3156437937
 20
-55.7831132784
 10
15.1666998394
 20
-56.179072085
 10
14.0125798122
 20
-56.544546855
 10
12.8537975997
 20
-56.8791942648
 10
11.6935824356
 20
-57.1828036275
 10
10.5307142054
 20
-57.4566574212
 10
9.3648602835
 20
-57.7012634703
 10
8.1981816053
 20
-57.9164156612
 10
7.0318688085
 20
-58.1023308798
 10
5.8652373346
 20
-58.2595301797
 10
4.6969924061
 20
-58.3882991989
 10
3.5274401039
 20
-58.4886434695
 10
2.3601570331
 20
-58.5606012467
 10
1.1950370528
 20
-58.6044282615
 10
0.0285480562
 20
-58.6199075042
 10
-1.1362769089
 20
-58.6067150114
 10
-2.2989510612
 20
-58.5652688526
 10
-3.4668073581
 20
-58.4954433404
 10
-4.6415549701
 20
-58.3966287459
 10
-5.8183555645
 20
-58.268672376
 10
-6.9960189956
 20
-58.1113119218
 10
-8.1761613883
 20
-57.9238061815
 10
-9.3583024883
 20
-57.7055267615
 10
-10.5380972034
 20
-57.4568947463
 10
-11.7110152535
 20
-57.1791047231
 10
-12.8785132395
 20
-56.8719664296
 10
-14.0437345095
 20
-56.5342816987
 10
-15.2047830063
 20
-56.1659520614
 10
-16.3596567172
 20
-55.7673803418
 10
-17.5110081003
 20
-55.3374635481
 10
-18.6598716439
 20
-54.8748798777
 10
-19.8022445772
 20
-54.3801687154
 10
-20.9341276892
 20
-53.8548594893
 10
-22.0553805946
 20
-53.2991795705
 10
-23.1683678042
 20
-52.7118529501
 10
-24.2719626959
 20
-52.0926033181
 10
-25.3650739442
 20
-51.4410848267
 10
-26.4471171358
 20
-50.756804302
 10
-27.5168375647
 20
-50.0398337328
  0
LWPOLYLINE
  5
3BD
100
AcDbEntity
  8
IMPORT_IGES
100
AcDbPolyline
 62
7
  6
CONTINUOUS
 90
25
 70
0
 10
-0.1483827651
 20
-60.2251125694
 10
-0.1604527469
 20
-60.229955904
 10
-0.1738809561
 20
-60.2343063799
 10
-0.1884660992
 20
-60.2381639971
 10
-0.2038575602
 20
-60.2414937188
 10
-0.2200081233
 20
-60.2443305818
 10
-0.2372965335
 20
-60.2467796965
 10
-0.2558445039
 20
-60.2488828785
 10
-0.2754208976
 20
-60.2505983124
 10
-0.2959841401
 20
-60.2519056614
 10
-0.3175410346
 20
-60.2527989019
 10
-0.339943876
 20
-60.2532840576
 10
-0.362896831
 20
-60.2533588633
 10
-0.3862712769
 20
-60.253007767
 10
-0.4099955997
 20
-60.2522463207
 10
-0.43383095
 20
-60.2511189148
 10
-0.4575960543
 20
-60.2496260946
 10
-0.48127653
 20
-60.2477673147
 10
-0.5048837579
 20
-60.2455853297
 10
-0.5281393083
 20
-60.2431195412
 10
-0.551161766
 20
-60.2403305477
 10
-0.5745586519
 20
-60.2371428987
 10
-0.5984654423
 20
-60.2335314443
 10
-0.6225521282
 20
-60.2295213345
 10
-0.6467055365
 20
-60.2251125694
  0
LWPOLYLINE
  5
3BE
100
AcDbEntity
  8
IMPORT_IGES
100
AcDbPolyline
 62
250
  6
CONTINUOUS
 90
19
 70
0
 10
-0.0000000329
 20
58.8626718945
 10
1.54976075
 20
58.8518346135
 10
3.0994124749
 20
58.820137893
 10
4.6479821227
 20
58.7675945202
 10
6.19479208
 20
58.6940853348
 10
7.7385848253
 20
58.5997900525
 10
9.2775365427
 20
58.4852033287
 10
10.809519093
 20
58.3505159138
 10
12.3348408659
 20
58.1957319506
 10
13.8553350403
 20
58.0210508949
 10
15.3712183386
 20
57.8262346811
 10
16.8804602209
 20
57.6116352602
 10
18.3815276736
 20
57.3783067472
 10
19.8723982609
 20
57.1264507823
 10
21.3534641897
 20
56.8560471969
 10
22.82679041
 20
56.5677682237
 10
24.29246523
 20
56.2618177825
 10
25.7486848088
 20
55.9379972504
 10
27.5878633536
 20
55.5039784555
  0
LINE
  5
3BF
100
AcDbEntity
  8
IMPORT_IGES
100
AcDbLine
 62
250
  6
CONTINUOUS
 10
-29.743258362
 20
54.9610924411
 11
-29.559945411
 21
55.0105909887
  0
LINE
  5
3C0
100
AcDbEntity
  8
IMPORT_IGES
100
AcDbLine
 62
250
  6
CONTINUOUS
 10
-29.559945411
 20
55.0105909887
 11
-29.3404373821
 21
55.0686203552
  0
LINE
  5
3C1
100
AcDbEntity
  8
IMPORT_IGES
100
AcDbLine
 62
250
  6
CONTINUOUS
 10
-29.3404373821
 20
55.0686203552
 11
-28.9461167254
 21
55.1709497468
  0
LINE
  5
3C2
100
AcDbEntity
  8
IMPORT_IGES
100
AcDbLine
 62
250
  6
CONTINUOUS
 10
-28.9461167254
 20
55.1709497468
 11
-28.645202131
 21
55.2471139758
  0
LINE
  5
3C3
100
AcDbEntity
  8
IMPORT_IGES
100
AcDbLine
 62
250
  6
CONTINUOUS
 10
-28.645202131
 20
55.2471139758
 11
-28.3183648598
 21
55.3282023503
  0
LINE
  5
3C4
100
AcDbEntity
  8
IMPORT_IGES
100
AcDbLine
 62
250
  6
CONTINUOUS
 10
-27.0306788843
 20
56.2183400306
 11
-27.3467870687
 21
56.1418448469
  0
LINE
  5
3C5
100
AcDbEntity
  8
IMPORT_IGES
100
AcDbLine
 62
250
  6
CONTINUOUS
 10
-28.3183648598
 20
55.3282023503
 11
-27.7812995225
 21
55.4579686907
  0
LINE
  5
3C6
100
AcDbEntity
  8
IMPORT_IGES
100
AcDbLine
 62
250
  6
CONTINUOUS
 10
-27.7812995225
 20
55.4579686907
 11
-25.7487422251
 21
55.937984227
  0
LINE
  5
3C7
100
AcDbEntity
  8
IMPORT_IGES
100
AcDbLine
 62
250
  6
CONTINUOUS
 10
-27.3467870687
 20
56.1418448469
 11
-27.6472227385
 21
56.0710233311
  0
LWPOLYLINE
  5
3C8
100
AcDbEntity
  8
IMPORT_IGES
100
AcDbPolyline
 62
250
  6
CONTINUOUS
 90
20
 70
0
 10
-27.6472227385
 20
56.0710233311
 10
-27.931315061
 20
56.0061912909
 10
-28.0663708947
 20
55.97627034
 10
-28.1967576846
 20
55.9480474827
 10
-28.3216823956
 20
55.9217584011
 10
-28.4413550436
 20
55.8973788577
 10
-28.5555774336
 20
55.8749732442
 10
-28.6629450409
 20
55.8549169062
 10
-28.763260619
 20
55.8372954776
 10
-28.8567320409
 20
55.8220672006
 10
-28.9425625698
 20
55.8094213746
 10
-29.0206564196
 20
55.799407704
 10
-29.0911164993
 20
55.7920149459
 10
-29.1534432557
 20
55.7873416643
 10
-29.2076779246
 20
55.785388892
 10
-29.2537819651
 20
55.7861845691
 10
-29.291134916
 20
55.7898665353
 10
-29.319529143
 20
55.7964869813
 10
-29.3391699275
 20
55.8060114801
 10
-29.3500548205
 20
55.8184453021
  0
LWPOLYLINE
  5
3C9
100
AcDbEntity
  8
IMPORT_IGES
100
AcDbPolyline
 62
250
  6
CONTINUOUS
 90
18
 70
0
 10
-25.7487422251
 20
55.937984227
 10
-24.2925743323
 20
56.2617943528
 10
-22.826945187
 20
56.5677368938
 10
-21.3536583501
 20
56.8560104688
 10
-19.872625285
 20
57.1264109395
 10
-18.3817808664
 20
57.3782656396
 10
-16.8807326094
 20
57.6115946801
 10
-15.3715028457
 20
57.8261962503
 10
-13.8556247142
 20
58.0210156304
 10
-12.3351288528
 20
58.1957007404
 10
-10.8097982087
 20
58.3504895411
 10
-9.2777991223
 20
58.4851819977
 10
-7.7388230153
 20
58.5997738586
 10
-6.1949981211
 20
58.6940742137
 10
-4.6481482378
 20
58.7675877428
 10
-3.0995309092
 20
58.8201344183
 10
-1.5498238072
 20
58.8518334424
 10
-0.0000000329
 20
58.8626718945
  0
LWPOLYLINE
  5
3CA
100
AcDbEntity
  8
IMPORT_IGES
100
AcDbPolyline
 62
250
  6
CONTINUOUS
 90
19
 70
0
 10
0.0000000197
 20
59.4957990195
 10
-1.5315278897
 20
59.4853982886
 10
-3.0626942421
 20
59.4541802581
 10
-4.5932528211
 20
59.4021534288
 10
-6.1239315934
 20
59.3292746552
 10
-7.6535089541
 20
59.2355813481
 10
-9.1788219758
 20
59.1213380449
 10
-10.6983801966
 20
58.9868027088
 10
-12.2132104716
 20
58.8320541638
 10
-13.7239373963
 20
58.6571843299
 10
-15.2316150245
 20
58.4621208732
 10
-16.7347348567
 20
58.2471300383
 10
-18.2301009883
 20
58.0129094808
 10
-19.7162490988
 20
57.7599459665
 10
-21.194266783
 20
57.4882959943
 10
-22.6648127478
 20
57.1981085434
 10
-24.1279866199
 20
56.8895606906
 10
-25.5833322579
 20
56.5628990705
 10
-27.0306788843
 20
56.2183400306
  0
LWPOLYLINE
  5
3CB
100
AcDbEntity
  8
0
100
AcDbPolyline
 62
7
  6
CONTINUOUS
 90
7
 70
0
 43
0.3500000006
 10
3.5357143936
 20
78.2296120605
 10
2.0357142191
 20
78.2296120605
 10
3.5357143936
 20
80.3724659729
 10
3.5357143936
 20
80.8010349426
 10
3.1071428747
 20
81.2296129761
 10
2.464285738
 20
81.2296129761
 10
2.0357142191
 20
80.5867504578
  0
LINE
  5
3CC
100
AcDbEntity
  8
IMPORT_IGES
100
AcDbLine
 62
250
  6
CONTINUOUS
 10
28.0619771374
 20
55.9773013607
 11
27.7881484361
 21
56.0386167774
  0
LINE
  5
3CD
100
AcDbEntity
  8
IMPORT_IGES
100
AcDbLine
 62
250
  6
CONTINUOUS
 10
27.7881484361
 20
56.0386167774
 11
27.4966553446
 21
56.1062817492
  0
LWPOLYLINE
  5
3CE
100
AcDbEntity
  8
IMPORT_IGES
100
AcDbPolyline
 62
250
  6
CONTINUOUS
 90
19
 70
0
 10
27.0306788825
 20
56.2183400306
 10
25.5834243409
 20
56.5628776763
 10
24.1281610452
 20
56.8895226419
 10
22.6650596463
 20
57.1980581453
 10
21.1945764168
 20
57.4882370067
 10
19.716611382
 20
57.7598818184
 10
18.2305049934
 20
58.0128434498
 10
16.7351693196
 20
58.2470649614
 10
15.2320688402
 20
58.4620590456
 10
13.7243993617
 20
58.6571277018
 10
12.2136696102
 20
58.8320041494
 10
10.6988251929
 20
58.9867602614
 10
9.17924057
 20
59.1213038362
 10
7.6538885532
 20
59.2355555209
 10
6.1242598869
 20
59.3292567673
 10
4.5935174833
 20
59.4021426305
 10
3.0628829483
 20
59.4541751974
 10
1.5316283399
 20
59.4853970116
 10
-0.0000000892
 20
59.4957990195
  0
LWPOLYLINE
  5
3CF
100
AcDbEntity
  8
IMPORT_IGES
100
AcDbPolyline
 62
250
  6
CONTINUOUS
 90
3
 70
0
 10
27.4966553446
 20
56.1062817492
 10
27.1899352218
 20
56.1795820349
 10
27.0306788825
 20
56.2183400306
  0
LINE
  5
3D0
100
AcDbEntity
  8
IMPORT_IGES
100
AcDbLine
 62
250
  6
CONTINUOUS
 10
27.5878633536
 20
55.5039784555
 11
28.1421798419
 21
55.3714327132
  0
LINE
  5
3D1
100
AcDbEntity
  8
IMPORT_IGES
100
AcDbLine
 62
250
  6
CONTINUOUS
 10
28.1421798419
 20
55.3714327132
 11
28.4833336851
 21
55.287817826
  0
LINE
  5
3D2
100
AcDbEntity
  8
IMPORT_IGES
100
AcDbLine
 62
250
  6
CONTINUOUS
 10
28.4833336851
 20
55.287817826
 11
28.7987792377
 21
55.2087641038
  0
LINE
  5
3D3
100
AcDbEntity
  8
IMPORT_IGES
100
AcDbLine
 62
250
  6
CONTINUOUS
 10
28.7987792377
 20
55.2087641038
 11
29.087864135
 21
55.1346488794
  0
LINE
  5
3D4
100
AcDbEntity
  8
IMPORT_IGES
100
AcDbLine
 62
250
  6
CONTINUOUS
 10
29.087864135
 20
55.1346488794
 11
29.4578832898
 21
55.0376006549
  0
LWPOLYLINE
  5
3D5
100
AcDbEntity
  8
IMPORT_IGES
100
AcDbPolyline
 62
250
  6
CONTINUOUS
 90
9
 70
0
 10
29.4578832898
 20
55.0376006549
 10
29.7460099273
 20
54.9600038505
 10
29.8229588584
 20
54.9385900548
 10
29.8899217093
 20
54.9195253642
 10
29.946466391
 20
54.9030753377
 10
29.9924206781
 20
54.8889233515
 10
30.0274766681
 20
54.877169945
 10
30.051324902
 20
54.8683310441
 10
30.0638010916
 20
54.8627314449
  0
LWPOLYLINE
  5
3D6
100
AcDbEntity
  8
IMPORT_IGES
100
AcDbPolyline
 62
7
  6
CONTINUOUS
 90
19
 70
0
 10
29.4021685184
 20
55.9477877331
 10
29.4699698444
 20
55.9247235842
 10
29.5353316754
 20
55.8972583552
 10
29.5982540114
 20
55.8653920461
 10
29.6590255809
 20
55.8289224009
 10
29.7173576554
 20
55.7880516756
 10
29.7723840493
 20
55.7433866382
 10
29.8240561894
 20
55.6948706793
 10
29.872422649
 20
55.6425604083
 10
29.9167629615
 20
55.587232422
 10
29.9570184682
 20
55.528843623
 10
29.9932478279
 20
55.4674371087
 10
30.0249065507
 20
55.4039187678
 10
30.0519295782
 20
55.3382586649
 10
30.0743819688
 20
55.2704867353
 10
30.0919144083
 20
55.2015986742
 10
30.1044104585
 20
55.1319263799
 10
30.1119865576
 20
55.0611379541
 10
30.1146427055
 20
54.9892333967
  0
LINE
  5
3D7
100
AcDbEntity
  8
IMPORT_IGES
100
AcDbLine
 62
7
  6
CONTINUOUS
 10
-73.5203706681
 20
-60.2042899242
 11
-73.4929293875
 21
-60.1979683537
  0
LINE
  5
3D8
100
AcDbEntity
  8
IMPORT_IGES
100
AcDbLine
 62
7
  6
CONTINUOUS
 10
-73.6256964214
 20
-60.2251125694
 11
-73.5203706681
 21
-60.2042899242
  0
LWPOLYLINE
  5
3D9
100
AcDbEntity
  8
IMPORT_IGES
100
AcDbPolyline
 62
7
  6
CONTINUOUS
 90
19
 70
0
 10
-73.2456016155
 20
-60.2251125694
 10
-73.2709673587
 20
-60.229955904
 10
-73.2947438191
 20
-60.2343063799
 10
-73.3169060105
 20
-60.2381639971
 10
-73.337253377
 20
-60.2414937188
 10
-73.3560146395
 20
-60.2443305818
 10
-73.3737354155
 20
-60.2467796965
 10
-73.3904987974
 20
-60.2488828786
 10
-73.4060652788
 20
-60.2505983124
 10
-73.420397198
 20
-60.2519056614
 10
-73.4334758247
 20
-60.2527989019
 10
-73.4451840409
 20
-60.2532840576
 10
-73.4553775588
 20
-60.2533588633
 10
-73.4640401812
 20
-60.253007767
 10
-73.4711783894
 20
-60.2522463207
 10
-73.476759316
 20
-60.2511189148
 10
-73.48080819
 20
-60.2496260946
 10
-73.4833866228
 20
-60.2477673147
 10
-73.484540927
 20
-60.2455416776
  0
LWPOLYLINE
  5
3DA
100
AcDbEntity
  8
0
100
AcDbPolyline
 62
7
  6
CONTINUOUS
 90
10
 70
0
 43
0.3500000006
 10
-84.1866929626
 20
82.1803247681
 10
-84.829555481
 20
81.5374622498
 10
-85.2581244507
 20
80.6803243103
 10
-85.2581244507
 20
79.6088928223
 10
-84.829555481
 20
79.1803238525
 10
-84.1866929626
 20
79.1803238525
 10
-83.7581239929
 20
79.6088928223
 10
-83.7581239929
 20
80.4660307617
 10
-84.1866929626
 20
80.8946087952
 10
-85.1152711487
 20
80.8946087952
  0
LINE
  5
3DB
100
AcDbEntity
  8
IMPORT_IGES
100
AcDbLine
 62
7
  6
CONTINUOUS
 10
-76.2724074021
 20
-58.8010449847
 11
-76.0152065709
 21
-58.7910026607
  0
LINE
  5
3DC
100
AcDbEntity
  8
IMPORT_IGES
100
AcDbLine
 62
7
  6
CONTINUOUS
 10
-63.972401957
 20
-58.4399152895
 11
-69.1724347381
 21
-58.6215044356
  0
LINE
  5
3DD
100
AcDbEntity
  8
IMPORT_IGES
100
AcDbLine
 62
7
  6
CONTINUOUS
 10
-71.8349014079
 20
-58.1958828359
 11
-63.972401957
 21
-57.9383535807
  0
LINE
  5
3DE
100
AcDbEntity
  8
IMPORT_IGES
100
AcDbLine
 62
7
  6
CONTINUOUS
 10
-76.0152065709
 20
-58.7910026607
 11
-75.7375981069
 21
-58.7818612881
  0
LWPOLYLINE
  5
3DF
100
AcDbEntity
  8
IMPORT_IGES
100
AcDbPolyline
 62
7
  6
CONTINUOUS
 90
5
 70
0
 10
-75.772401957
 20
-58.590497337
 10
-74.0307625147
 20
-58.5301558951
 10
-73.7895554179
 20
-58.5237085172
 10
-73.5492786568
 20
-58.518495638
 10
-73.3104322678
 20
-58.5145819956
  0
LINE
  5
3E0
100
AcDbEntity
  8
IMPORT_IGES
100
AcDbLine
 62
7
  6
CONTINUOUS
 10
-77.2724019569
 20
-58.8258018218
 11
-77.0647649609
 21
-58.8190593901
  0
LINE
  5
3E1
100
AcDbEntity
  8
IMPORT_IGES
100
AcDbLine
 62
7
  6
CONTINUOUS
 10
-77.0647649609
 20
-58.8190593901
 11
-76.8125138261
 21
-58.812147088
  0
LINE
  5
3E2
100
AcDbEntity
  8
IMPORT_IGES
100
AcDbLine
 62
7
  6
CONTINUOUS
 10
-75.7375981069
 20
-58.7818612881
 11
-75.4429500284
 21
-58.7737911308
  0
LINE
  5
3E3
100
AcDbEntity
  8
IMPORT_IGES
100
AcDbLine
 62
7
  6
CONTINUOUS
 10
-76.8125138261
 20
-58.812147088
 11
-76.5650966331
 21
-58.8063300393
  0
LINE
  5
3E4
100
AcDbEntity
  8
IMPORT_IGES
100
AcDbLine
 62
7
  6
CONTINUOUS
 10
-75.4429500284
 20
-58.7737911308
 11
-75.1346099045
 21
-58.7674256311
  0
LINE
  5
3E5
100
AcDbEntity
  8
IMPORT_IGES
100
AcDbLine
 62
7
  6
CONTINUOUS
 10
-76.5650966331
 20
-58.8063300393
 11
-76.2724074021
 21
-58.8010449847
  0
LINE
  5
3E6
100
AcDbEntity
  8
IMPORT_IGES
100
AcDbLine
 62
7
  6
CONTINUOUS
 10
-75.1346099045
 20
-58.7674256311
 11
-74.8157798344
 21
-58.7629194968
  0
LWPOLYLINE
  5
3E7
100
AcDbEntity
  8
IMPORT_IGES
100
AcDbPolyline
 62
7
  6
CONTINUOUS
 90
3
 70
0
 10
-73.3104322678
 20
-58.5145819956
 10
-72.8394566124
 20
-58.5102639928
 10
-72.608501309
 20
-58.5096711192
  0
LINE
  5
3E8
100
AcDbEntity
  8
IMPORT_IGES
100
AcDbLine
 62
7
  6
CONTINUOUS
 10
-83.9421909211
 20
-55.8053773343
 11
-81.3094337314
 21
-55.788307656
  0
LINE
  5
3E9
100
AcDbEntity
  8
IMPORT_IGES
100
AcDbLine
 62
7
  6
CONTINUOUS
 10
-74.8157798344
 20
-58.7629194968
 11
-74.4900896511
 21
-58.7603965279
  0
LINE
  5
3EA
100
AcDbEntity
  8
IMPORT_IGES
100
AcDbLine
 62
7
  6
CONTINUOUS
 10
-77.1736859576
 20
-59.3339278306
 11
-77.2724019565
 21
-59.3339303386
  0
LINE
  5
3EB
100
AcDbEntity
  8
IMPORT_IGES
100
AcDbLine
 62
7
  6
CONTINUOUS
 10
-76.9094304604
 20
-59.3339278289
 11
-71.2724019577
 21
-59.3339303386
  0
LINE
  5
3EC
100
AcDbEntity
  8
IMPORT_IGES
100
AcDbLine
 62
7
  6
CONTINUOUS
 10
-77.0965717198
 20
-58.9695219005
 11
-76.8795354483
 21
-58.9695219005
  0
LINE
  5
3ED
100
AcDbEntity
  8
IMPORT_IGES
100
AcDbLine
 62
250
  6
CONTINUOUS
 10
-69.272401957
 20
-58.8519769928
 11
-71.272401957
 21
-58.8519769928
  0
LINE
  5
3EE
100
AcDbEntity
  8
IMPORT_IGES
100
AcDbLine
 62
7
  6
CONTINUOUS
 10
-74.4900896511
 20
-58.7603965279
 11
-74.1613270949
 21
-58.7600389276
  0
LINE
  5
3EF
100
AcDbEntity
  8
IMPORT_IGES
100
AcDbLine
 62
7
  6
CONTINUOUS
 10
-73.0454525898
 20
-59.7914685008
 11
-73.8629090131
 21
-59.7914886475
  0
LWPOLYLINE
  5
3F0
100
AcDbEntity
  8
IMPORT_IGES
100
AcDbPolyline
 62
7
  6
CONTINUOUS
 90
10
 70
0
 10
-76.272401957
 20
-58.597928327
 10
-74.0346443916
 20
-58.5975872635
 10
-73.7983654468
 20
-58.5993006604
 10
-73.5635651225
 20
-58.6021320833
 10
-73.3297261148
 20
-58.6060718976
 10
-73.0973657277
 20
-58.611084036
 10
-72.8680358727
 20
-58.61710695
 10
-72.6417504254
 20
-58.6241073211
 10
-72.4184955102
 20
-58.6320300996
 10
-72.1997814123
 20
-58.6407737614
  0
LINE
  5
3F1
100
AcDbEntity
  8
IMPORT_IGES
100
AcDbLine
 62
7
  6
CONTINUOUS
 10
-72.608501309
 20
-58.5096711192
 11
-72.1585018576
 21
-58.5113949086
  0
LINE
  5
3F2
100
AcDbEntity
  8
IMPORT_IGES
100
AcDbLine
 62
7
  6
CONTINUOUS
 10
-74.1613270949
 20
-58.7600389276
 11
-73.8338855811
 21
-58.761854167
  0
LINE
  5
3F3
100
AcDbEntity
  8
IMPORT_IGES
100
AcDbLine
 62
7
  6
CONTINUOUS
 10
-73.8338855811
 20
-58.761854167
 11
-73.5118402037
 21
-58.7657835516
  0
LINE
  5
3F4
100
AcDbEntity
  8
IMPORT_IGES
100
AcDbLine
 62
7
  6
CONTINUOUS
 10
-72.1585018576
 20
-58.5113949086
 11
-71.7286109272
 21
-58.5164285608
  0
LINE
  5
3F5
100
AcDbEntity
  8
IMPORT_IGES
100
AcDbLine
 62
7
  6
CONTINUOUS
 10
-76.272401957
 20
-57.0735054269
 11
-75.772401957
 21
-57.0822822958
  0
LINE
  5
3F6
100
AcDbEntity
  8
IMPORT_IGES
100
AcDbLine
 62
7
  6
CONTINUOUS
 10
-73.5118402037
 20
-58.7657835516
 11
-73.1991937285
 21
-58.7716434199
  0
LINE
  5
3F7
100
AcDbEntity
  8
IMPORT_IGES
100
AcDbLine
 62
7
  6
CONTINUOUS
 10
-71.7286109272
 20
-58.5164285608
 11
-71.3207818059
 21
-58.5241766279
  0
LINE
  5
3F8
100
AcDbEntity
  8
IMPORT_IGES
100
AcDbLine
 62
7
  6
CONTINUOUS
 10
-78.0297112252
 20
-58.8059636068
 11
-77.272401957
 21
-58.8257944479
  0
LINE
  5
3F9
100
AcDbEntity
  8
IMPORT_IGES
100
AcDbLine
 62
7
  6
CONTINUOUS
 10
-73.1991937285
 20
-58.7716434199
 11
-72.8993189695
 21
-58.7790821571
  0
LINE
  5
3FA
100
AcDbEntity
  8
IMPORT_IGES
100
AcDbLine
 62
7
  6
CONTINUOUS
 10
-71.3207818059
 20
-58.5241766279
 11
-70.9386048351
 21
-58.5342181148
  0
LINE
  5
3FB
100
AcDbEntity
  8
IMPORT_IGES
100
AcDbLine
 62
7
  6
CONTINUOUS
 10
-72.8993189695
 20
-58.7790821571
 11
-72.6157401607
 21
-58.7878406488
  0
LINE
  5
3FC
100
AcDbEntity
  8
IMPORT_IGES
100
AcDbLine
 62
7
  6
CONTINUOUS
 10
-70.9386048351
 20
-58.5342181148
 11
-70.5862986939
 21
-58.5459061013
  0
LINE
  5
3FD
100
AcDbEntity
  8
IMPORT_IGES
100
AcDbLine
 62
7
  6
CONTINUOUS
 10
-72.6157401607
 20
-58.7878406488
 11
-72.3518524233
 21
-58.7974808196
  0
LINE
  5
3FE
100
AcDbEntity
  8
IMPORT_IGES
100
AcDbLine
 62
7
  6
CONTINUOUS
 10
-70.5862986939
 20
-58.5459061013
 11
-70.2674838802
 21
-58.5585036091
  0
LINE
  5
3FF
100
AcDbEntity
  8
IMPORT_IGES
100
AcDbLine
 62
7
  6
CONTINUOUS
 10
-72.3518524233
 20
-58.7974808196
 11
-72.1110646595
 21
-58.8074538943
  0
LINE
  5
400
100
AcDbEntity
  8
IMPORT_IGES
100
AcDbLine
 62
7
  6
CONTINUOUS
 10
-70.2674838802
 20
-58.5585036091
 11
-69.9851566518
 21
-58.5715310846
  0
LINE
  5
401
100
AcDbEntity
  8
IMPORT_IGES
100
AcDbLine
 62
7
  6
CONTINUOUS
 10
-72.1997814123
 20
-58.6407737614
 11
-71.7759058533
 21
-58.660505223
  0
LINE
  5
402
100
AcDbEntity
  8
IMPORT_IGES
100
AcDbLine
 62
7
  6
CONTINUOUS
 10
-72.1110646595
 20
-58.8074538943
 11
-71.7996965376
 21
-58.8221704282
  0
LINE
  5
403
100
AcDbEntity
  8
IMPORT_IGES
100
AcDbLine
 62
7
  6
CONTINUOUS
 10
-69.9851566518
 20
-58.5715310846
 11
-69.7419056817
 21
-58.5842685168
  0
LINE
  5
404
100
AcDbEntity
  8
IMPORT_IGES
100
AcDbLine
 62
7
  6
CONTINUOUS
 10
-71.7996965376
 20
-58.8221704282
 11
-71.5553899874
 21
-58.8351432836
  0
LINE
  5
405
100
AcDbEntity
  8
IMPORT_IGES
100
AcDbLine
 62
7
  6
CONTINUOUS
 10
-71.7759058533
 20
-58.660505223
 11
-71.3751483473
 21
-58.6825014326
  0
LINE
  5
406
100
AcDbEntity
  8
IMPORT_IGES
100
AcDbLine
 62
7
  6
CONTINUOUS
 10
-69.7419056817
 20
-58.5842685168
 11
-69.5396073959
 21
-58.5960211117
  0
LINE
  5
407
100
AcDbEntity
  8
IMPORT_IGES
100
AcDbLine
 62
7
  6
CONTINUOUS
 10
-71.5553899874
 20
-58.8351432836
 11
-71.3441302386
 21
-58.847436072
  0
LINE
  5
408
100
AcDbEntity
  8
IMPORT_IGES
100
AcDbLine
 62
7
  6
CONTINUOUS
 10
-71.3751483473
 20
-58.6825014326
 11
-71.0004096237
 21
-58.7060136449
  0
LWPOLYLINE
  5
409
100
AcDbEntity
  8
IMPORT_IGES
100
AcDbPolyline
 62
7
  6
CONTINUOUS
 90
3
 70
0
 10
-71.3441302386
 20
-58.847436072
 10
-71.2769113738
 20
-58.8516107777
 10
-71.2724019571
 20
-58.8519769928
  0
LWPOLYLINE
  5
40A
100
AcDbEntity
  8
IMPORT_IGES
100
AcDbPolyline
 62
7
  6
CONTINUOUS
 90
3
 70
0
 10
-69.5396073959
 20
-58.5960211117
 10
-69.3801471011
 20
-58.6063173343
 10
-69.316991167
 20
-58.6106531069
  0
LINE
  5
40B
100
AcDbEntity
  8
IMPORT_IGES
100
AcDbLine
 62
7
  6
CONTINUOUS
 10
-71.0004096237
 20
-58.7060136449
 11
-70.655537786
 21
-58.7301908942
  0
LWPOLYLINE
  5
40C
100
AcDbEntity
  8
IMPORT_IGES
100
AcDbPolyline
 62
7
  6
CONTINUOUS
 90
3
 70
0
 10
-69.316991167
 20
-58.6106531069
 10
-69.1956943487
 20
-58.6196376462
 10
-69.1724347381
 20
-58.6214909211
  0
LINE
  5
40D
100
AcDbEntity
  8
IMPORT_IGES
100
AcDbLine
 62
7
  6
CONTINUOUS
 10
-70.655537786
 20
-58.7301908942
 11
-70.3439323861
 21
-58.754120224
  0
LINE
  5
40E
100
AcDbEntity
  8
IMPORT_IGES
100
AcDbLine
 62
7
  6
CONTINUOUS
 10
-70.3439323861
 20
-58.754120224
 11
-70.067574094
 21
-58.777006338
  0
LINE
  5
40F
100
AcDbEntity
  8
IMPORT_IGES
100
AcDbLine
 62
7
  6
CONTINUOUS
 10
-70.067574094
 20
-58.777006338
 11
-69.8288408287
 21
-58.7980377577
  0
LINE
  5
410
100
AcDbEntity
  8
IMPORT_IGES
100
AcDbLine
 62
7
  6
CONTINUOUS
 10
-69.8288408287
 20
-58.7980377577
 11
-69.5473205417
 21
-58.8243654389
  0
LINE
  5
411
100
AcDbEntity
  8
IMPORT_IGES
100
AcDbLine
 62
7
  6
CONTINUOUS
 10
-69.5473205417
 20
-58.8243654389
 11
-69.323259777
 21
-58.8466090112
  0
LWPOLYLINE
  5
412
100
AcDbEntity
  8
IMPORT_IGES
100
AcDbPolyline
 62
7
  6
CONTINUOUS
 90
3
 70
0
 10
-69.323259777
 20
-58.8466090112
 10
-69.2781676048
 20
-58.8513144055
 10
-69.272401957
 20
-58.8519769928
  0
LINE
  5
413
100
AcDbEntity
  8
IMPORT_IGES
100
AcDbLine
 62
7
  6
CONTINUOUS
 10
-78.0296778446
 20
-58.8059526404
 11
-78.0295935864
 21
-58.8059666873
  0
LWPOLYLINE
  5
414
100
AcDbEntity
  8
IMPORT_IGES
100
AcDbPolyline
 62
7
  6
CONTINUOUS
 90
19
 70
0
 10
-75.2992022984
 20
-60.2251125694
 10
-75.2738365552
 20
-60.229955904
 10
-75.2500600949
 20
-60.2343063799
 10
-75.2278979035
 20
-60.2381639971
 10
-75.2075505369
 20
-60.2414937188
 10
-75.1887892745
 20
-60.2443305818
 10
-75.1710684985
 20
-60.2467796965
 10
-75.1543051166
 20
-60.2488828785
 10
-75.1387386352
 20
-60.2505983124
 10
-75.124406716
 20
-60.2519056614
 10
-75.1113280893
 20
-60.2527989019
 10
-75.0996198731
 20
-60.2532840576
 10
-75.0894263552
 20
-60.2533588633
 10
-75.0807637328
 20
-60.253007767
 10
-75.0736255246
 20
-60.2522463207
 10
-75.0680445979
 20
-60.2511189148
 10
-75.063995724
 20
-60.2496260946
 10
-75.0614172912
 20
-60.2477673147
 10
-75.060262987
 20
-60.2455416776
  0
LWPOLYLINE
  5
415
100
AcDbEntity
  8
IMPORT_IGES
100
AcDbPolyline
 62
7
  6
CONTINUOUS
 90
16
 70
0
 10
-74.9191074926
 20
-60.2251125694
 10
-75.0244332459
 20
-60.2042899242
 10
-75.1342631358
 20
-60.178988722
 10
-75.2485971622
 20
-60.1492089629
 10
-75.3676223177
 20
-60.1153487513
 10
-75.4911516098
 20
-60.0770099827
 10
-75.6186240605
 20
-60.0329983438
 10
-75.7501255594
 20
-59.9833261686
 10
-75.8855702168
 20
-59.9279811232
 10
-76.0241393855
 20
-59.8657318925
 10
-76.1659368403
 20
-59.7965700974
 10
-76.3108588064
 20
-59.7205041171
 10
-76.4577753116
 20
-59.6363277736
 10
-76.6063096986
 20
-59.5436390074
 10
-76.7568386248
 20
-59.4428398781
 10
-76.9093620901
 20
-59.3339303855
  0
LWPOLYLINE
  5
416
100
AcDbEntity
  8
IMPORT_IGES
100
AcDbPolyline
 62
7
  6
CONTINUOUS
 90
5
 70
0
 10
-75.6352451319
 20
-60.1445138184
 10
-75.6188346015
 20
-60.1492089821
 10
-75.508367972
 20
-60.1789887349
 10
-75.401823871
 20
-60.2042899306
 10
-75.2992022984
 20
-60.2251125694
  0
LINE
  5
417
100
AcDbEntity
  8
IMPORT_IGES
100
AcDbLine
 62
7
  6
CONTINUOUS
 10
-78.6524844363
 20
-58.6199486149
 11
-78.0297932043
 21
-58.8059496198
  0
LINE
  5
418
100
AcDbEntity
  8
IMPORT_IGES
100
AcDbLine
 62
250
  6
CONTINUOUS
 10
-71.8355872979
 20
-50.1042966413
 11
-75.772401957
 21
-50.2177984584
  0
LINE
  5
419
100
AcDbEntity
  8
IMPORT_IGES
100
AcDbLine
 62
250
  6
CONTINUOUS
 10
-81.7064833104
 20
-50.153438526
 11
-81.5597918203
 21
-50.1527204378
  0
LINE
  5
41A
100
AcDbEntity
  8
IMPORT_IGES
100
AcDbLine
 62
250
  6
CONTINUOUS
 10
-81.5597918203
 20
-50.1527204378
 11
-81.4130474716
 21
-50.1526592635
  0
LINE
  5
41B
100
AcDbEntity
  8
IMPORT_IGES
100
AcDbLine
 62
250
  6
CONTINUOUS
 10
-81.4130474716
 20
-50.1526592635
 11
-81.2662537641
 21
-50.1532554555
  0
LINE
  5
41C
100
AcDbEntity
  8
IMPORT_IGES
100
AcDbLine
 62
250
  6
CONTINUOUS
 10
-81.2662537641
 20
-50.1532554555
 11
-81.1194246969
 21
-50.1545092836
  0
LINE
  5
41D
100
AcDbEntity
  8
IMPORT_IGES
100
AcDbLine
 62
250
  6
CONTINUOUS
 10
-81.1194246969
 20
-50.1545092836
 11
-76.272401957
 21
-50.2172308979
  0
LINE
  5
41E
100
AcDbEntity
  8
IMPORT_IGES
100
AcDbLine
 62
250
  6
CONTINUOUS
 10
-76.272401957
 20
-49.150044283
 11
-75.772401957
 21
-49.1572821449
  0
LINE
  5
41F
100
AcDbEntity
  8
IMPORT_IGES
100
AcDbLine
 62
250
  6
CONTINUOUS
 10
-81.706482217
 20
-50.1534384132
 11
-82.3943733455
 21
-50.0395241176
  0
LWPOLYLINE
  5
420
100
AcDbEntity
  8
IMPORT_IGES
100
AcDbPolyline
 62
7
  6
CONTINUOUS
 90
25
 70
0
 10
-74.1240191927
 20
-60.2251125694
 10
-74.1129306109
 20
-60.2296130866
 10
-74.1006211473
 20
-60.2336969935
 10
-74.0872329077
 20
-60.2373642902
 10
-74.0730452195
 20
-60.2405888378
 10
-74.0580706044
 20
-60.2433967752
 10
-74.0419455805
 20
-60.2458665186
 10
-74.0245478955
 20
-60.2480376028
 10
-74.0060543672
 20
-60.249870493
 10
-73.9864503134
 20
-60.2513250012
 10
-73.9657035065
 20
-60.2523995734
 10
-73.9439323832
 20
-60.2530957637
 10
-73.9213656043
 20
-60.2533780453
 10
-73.8980709173
 20
-60.2532296186
 10
-73.8741420631
 20
-60.2526672833
 10
-73.8498839634
 20
-60.2517059119
 10
-73.8254854788
 20
-60.2503405241
 10
-73.8009568282
 20
-60.2485761001
 10
-73.7763462077
 20
-60.2464424536
 10
-73.7519731501
 20
-60.2439804095
 10
-73.727700376
 20
-60.2411491428
 10
-73.702891973
 20
-60.2378559917
 10
-73.6774150643
 20
-60.2340700687
 10
-73.6516361027
 20
-60.2298222613
 10
-73.6256964214
 20
-60.2251125694
  0
LINE
  5
421
100
AcDbEntity
  8
IMPORT_IGES
100
AcDbLine
 62
250
  6
CONTINUOUS
 10
-76.272401957
 20
-46.2546843422
 11
-75.772401957
 21
-46.2546843422
  0
LINE
  5
422
100
AcDbEntity
  8
IMPORT_IGES
100
AcDbLine
 62
250
  6
CONTINUOUS
 10
-71.8355295089
 20
-46.0897570531
 11
-75.772401957
 21
-46.089757053
  0
LWPOLYLINE
  5
423
100
AcDbEntity
  8
IMPORT_IGES
100
AcDbPolyline
 62
250
  6
CONTINUOUS
 90
10
 70
0
 10
-81.0459961156
 20
-46.0246281156
 10
-81.4537394915
 20
-46.0216024267
 10
-81.8613282653
 20
-46.0216774264
 10
-82.2686869123
 20
-46.024853115
 10
-82.6757633629
 20
-46.0311294492
 10
-83.0824585397
 20
-46.0405064721
 10
-83.4886266511
 20
-46.0529843132
 10
-83.8941691224
 20
-46.0685630154
 10
-84.2990343304
 20
-46.0872425357
 10
-84.7031473354
 20
-46.109022874
  0
LINE
  5
424
100
AcDbEntity
  8
IMPORT_IGES
100
AcDbLine
 62
250
  6
CONTINUOUS
 10
-76.2724019563
 20
-46.0906612649
 11
-81.0459961156
 21
-46.0246281156
  0
LWPOLYLINE
  5
425
100
AcDbEntity
  8
IMPORT_IGES
100
AcDbPolyline
 62
7
  6
CONTINUOUS
 90
5
 70
0
 10
-74.2724561568
 20
-60.1444015608
 10
-74.2363399423
 20
-60.1665505188
 10
-74.1971556027
 20
-60.1889798508
 10
-74.1597153529
 20
-60.2085005344
 10
-74.1240191927
 20
-60.2251125694
  0
LINE
  5
426
100
AcDbEntity
  8
IMPORT_IGES
100
AcDbLine
 62
7
  6
CONTINUOUS
 10
-80.48321247
 20
-57.4865105072
 11
-78.6525037565
 21
-58.6199261307
  0
LWPOLYLINE
  5
427
100
AcDbEntity
  8
IMPORT_IGES
100
AcDbPolyline
 62
7
  6
CONTINUOUS
 90
13
 70
0
 10
-77.1737229173
 20
-59.3339303386
 10
-77.0353429427
 20
-59.4428398683
 10
-76.8979042811
 20
-59.5436390262
 10
-76.7614069326
 20
-59.6363278123
 10
-76.6254220362
 20
-59.7205041652
 10
-76.4903784528
 20
-59.7965701464
 10
-76.3575627653
 20
-59.8657319402
 10
-76.2270776499
 20
-59.9279811694
 10
-76.0988204304
 20
-59.9833262112
 10
-75.9737696604
 20
-60.0329983818
 10
-75.8520128316
 20
-60.077010015
 10
-75.7334624523
 20
-60.1153487771
 10
-75.6352451319
 20
-60.1445138184
  0
LINE
  5
428
100
AcDbEntity
  8
IMPORT_IGES
100
AcDbLine
 62
7
  6
CONTINUOUS
 10
-63.472401957
 20
-37.3723302232
 11
-63.972401957
 21
-37.3723302232
  0
LINE
  5
429
100
AcDbEntity
  8
IMPORT_IGES
100
AcDbLine
 62
250
  6
CONTINUOUS
 10
-110.2606960197
 20
-26.1396655054
 11
-109.7762325011
 21
-26.6969759365
  0
LINE
  5
42A
100
AcDbEntity
  8
IMPORT_IGES
100
AcDbLine
 62
7
  6
CONTINUOUS
 10
-76.072401957
 20
54.3502407213
 11
-76.272401957
 21
54.1502407213
  0
LWPOLYLINE
  5
42B
100
AcDbEntity
  8
IMPORT_IGES
100
AcDbPolyline
 62
7
  6
CONTINUOUS
 90
5
 70
0
 10
-110.2606638844
 20
-26.139728962
 10
-110.2573173096
 20
-26.1406623726
 10
-110.2472015679
 20
-26.1424146576
 10
-110.2303754567
 20
-26.1449221853
 10
-110.206871251
 20
-26.1481637134
  0
LWPOLYLINE
  5
42C
100
AcDbEntity
  8
IMPORT_IGES
100
AcDbPolyline
 62
7
  6
CONTINUOUS
 90
20
 70
0
 10
-110.9554292819
 20
-23.4832227262
 10
-110.9429625694
 20
-23.4894559085
 10
-110.9256908963
 20
-23.4969604777
 10
-110.9102781895
 20
-23.5026275784
 10
-110.8966946222
 20
-23.5068691214
 10
-110.8845618946
 20
-23.5100919802
 10
-110.8739577768
 20
-23.5124903718
 10
-110.8648367768
 20
-23.5142526204
 10
-110.856608821
 20
-23.5156117249
 10
-110.8491960035
 20
-23.5166548825
 10
-110.8426613901
 20
-23.5174365082
 10
-110.8366329276
 20
-23.5180467383
 10
-110.8310496023
 20
-23.5185203023
 10
-110.8259575661
 20
-23.5188782242
 10
-110.8211524528
 20
-23.5191538161
 10
-110.8166005691
 20
-23.5193615619
 10
-110.812324537
 20
-23.5195115933
 10
-110.8082085498
 20
-23.519616701
 10
-110.8042338465
 20
-23.5196834648
 10
-110.8004110673
 20
-23.5197172037
  0
LWPOLYLINE
  5
42D
100
AcDbEntity
  8
IMPORT_IGES
100
AcDbPolyline
 62
7
  6
CONTINUOUS
 90
14
 70
0
 10
-110.9554292819
 20
-23.4832227262
 10
-110.9652915334
 20
-23.4777662283
 10
-110.9873658966
 20
-23.4636861765
 10
-111.0080416446
 20
-23.4478082076
 10
-111.0273308798
 20
-23.4301253953
 10
-111.0450054466
 20
-23.4108294799
 10
-111.0608742203
 20
-23.3901484227
 10
-111.0749446197
 20
-23.3680694735
 10
-111.0870336593
 20
-23.3448537168
 10
-111.0970202745
 20
-23.3207624299
 10
-111.1049132197
 20
-23.295759097
 10
-111.1106148772
 20
-23.2700364114
 10
-111.1140279329
 20
-23.2440234051
 10
-111.115155134
 20
-23.2180423867
  0
LINE
  5
42E
100
AcDbEntity
  8
IMPORT_IGES
100
AcDbLine
 62
7
  6
CONTINUOUS
 10
-84.7718017681
 20
-46.0412449233
 11
-84.4979382442
 21
-46.3115304932
  0
LWPOLYLINE
  5
42F
100
AcDbEntity
  8
IMPORT_IGES
100
AcDbPolyline
 62
7
  6
CONTINUOUS
 90
3
 70
0
 10
-84.8563905975
 20
-45.9567572412
 10
-84.8395638586
 20
-45.973656922
 10
-84.7718017681
 20
-46.0412449233
  0
LINE
  5
430
100
AcDbEntity
  8
IMPORT_IGES
100
AcDbLine
 62
7
  6
CONTINUOUS
 10
-110.2606958176
 20
-26.1396653303
 11
-110.2606638844
 21
-26.139728962
  0
LINE
  5
431
100
AcDbEntity
  8
IMPORT_IGES
100
AcDbLine
 62
7
  6
CONTINUOUS
 10
-63.472401957
 20
-28.8723302232
 11
-63.972401957
 21
-28.8723302232
  0
LINE
  5
432
100
AcDbEntity
  8
IMPORT_IGES
100
AcDbLine
 62
7
  6
CONTINUOUS
 10
-110.206871251
 20
-26.1481637134
 11
-109.5127996413
 21
-26.2392231767
  0
LINE
  5
433
100
AcDbEntity
  8
IMPORT_IGES
100
AcDbLine
 62
7
  6
CONTINUOUS
 10
-94.5828302202
 20
-28.302755796
 11
-93.2580834791
 21
-28.4838332574
  0
LINE
  5
434
100
AcDbEntity
  8
IMPORT_IGES
100
AcDbLine
 62
7
  6
CONTINUOUS
 10
-109.5127996413
 20
-26.2392231767
 11
-108.6605837289
 21
-26.355420592
  0
LINE
  5
435
100
AcDbEntity
  8
IMPORT_IGES
100
AcDbLine
 62
7
  6
CONTINUOUS
 10
-100.4416219476
 20
-27.4889664329
 11
-94.5828302202
 21
-28.302755796
  0
LWPOLYLINE
  5
436
100
AcDbEntity
  8
IMPORT_IGES
100
AcDbPolyline
 62
7
  6
CONTINUOUS
 90
3
 70
0
 10
-108.6605837289
 20
-26.355420592
 10
-107.3175803686
 20
-26.5430762111
 10
-100.4416219476
 20
-27.4889664329
  0
LINE
  5
437
100
AcDbEntity
  8
IMPORT_IGES
100
AcDbLine
 62
7
  6
CONTINUOUS
 10
-109.7762404678
 20
-26.6969747977
 11
-93.2078635299
 21
-29.0254754101
  0
LINE
  5
438
100
AcDbEntity
  8
IMPORT_IGES
100
AcDbLine
 62
250
  6
CONTINUOUS
 10
-109.1716745969
 20
-20.9421987629
 11
-107.8901854235
 21
-21.350094143
  0
LINE
  5
439
100
AcDbEntity
  8
IMPORT_IGES
100
AcDbLine
 62
250
  6
CONTINUOUS
 10
-107.7841085424
 20
-20.0649129932
 11
-108.4026198094
 21
-19.8661287832
  0
LINE
  5
43A
100
AcDbEntity
  8
IMPORT_IGES
100
AcDbLine
 62
7
  6
CONTINUOUS
 10
-107.2658090131
 20
-20.8360054177
 11
-106.7938918715
 21
-20.9888886757
  0
LINE
  5
43B
100
AcDbEntity
  8
IMPORT_IGES
100
AcDbLine
 62
250
  6
CONTINUOUS
 10
-108.8101925327
 20
-20.6697422487
 11
-107.4929925417
 21
-21.094802258
  0
LINE
  5
43C
100
AcDbEntity
  8
IMPORT_IGES
100
AcDbLine
 62
250
  6
CONTINUOUS
 10
-110.4646139442
 20
-20.522334579
 11
-109.1716745969
 21
-20.9421987629
  0
LINE
  5
43D
100
AcDbEntity
  8
IMPORT_IGES
100
AcDbLine
 62
250
  6
CONTINUOUS
 10
-108.4026198094
 20
-19.8661287832
 11
-108.9337085095
 21
-19.6923196734
  0
LINE
  5
43E
100
AcDbEntity
  8
IMPORT_IGES
100
AcDbLine
 62
250
  6
CONTINUOUS
 10
-109.7776127239
 20
-20.3518155601
 11
-108.8101925327
 21
-20.6697422487
  0
LINE
  5
43F
100
AcDbEntity
  8
IMPORT_IGES
100
AcDbLine
 62
7
  6
CONTINUOUS
 10
-107.8734530614
 20
-20.6353200979
 11
-107.2658090131
 21
-20.8360054177
  0
LINE
  5
440
100
AcDbEntity
  8
IMPORT_IGES
100
AcDbLine
 62
250
  6
CONTINUOUS
 10
-110.7501718193
 20
-20.4272436944
 11
-110.4646139442
 21
-20.522334579
  0
LINE
  5
441
100
AcDbEntity
  8
IMPORT_IGES
100
AcDbLine
 62
250
  6
CONTINUOUS
 10
-108.9337085095
 20
-19.6923196734
 11
-109.5623688991
 21
-19.4822066188
  0
LINE
  5
442
100
AcDbEntity
  8
IMPORT_IGES
100
AcDbLine
 62
250
  6
CONTINUOUS
 10
-110.5531563836
 20
-20.0926107795
 11
-109.7776127239
 21
-20.3518155601
  0
LINE
  5
443
100
AcDbEntity
  8
IMPORT_IGES
100
AcDbLine
 62
7
  6
CONTINUOUS
 10
-108.3983457764
 20
-20.4587596088
 11
-107.8734530614
 21
-20.6353200979
  0
LINE
  5
444
100
AcDbEntity
  8
IMPORT_IGES
100
AcDbLine
 62
250
  6
CONTINUOUS
 10
-109.5623688991
 20
-19.4822066188
 11
-110.2606958176
 21
-19.2444847133
  0
LINE
  5
445
100
AcDbEntity
  8
IMPORT_IGES
100
AcDbLine
 62
7
  6
CONTINUOUS
 10
-109.0251027468
 20
-20.2442740381
 11
-108.3983457764
 21
-20.4587596088
  0
LINE
  5
446
100
AcDbEntity
  8
IMPORT_IGES
100
AcDbLine
 62
7
  6
CONTINUOUS
 10
-109.4545747586
 20
-20.0950354154
 11
-109.0251027468
 21
-20.2442740381
  0
LWPOLYLINE
  5
447
100
AcDbEntity
  8
IMPORT_IGES
100
AcDbPolyline
 62
250
  6
CONTINUOUS
 90
3
 70
0
 10
-110.770417888
 20
-20.0178098737
 10
-110.7178362724
 20
-20.0362098955
 10
-110.5531563836
 20
-20.0926107795
  0
LINE
  5
448
100
AcDbEntity
  8
IMPORT_IGES
100
AcDbLine
 62
7
  6
CONTINUOUS
 10
-109.685785713
 20
-20.0135521358
 11
-109.4545747586
 21
-20.0950354154
  0
LINE
  5
449
100
AcDbEntity
  8
IMPORT_IGES
100
AcDbLine
 62
7
  6
CONTINUOUS
 10
-109.7309846571
 20
-19.9974424118
 11
-109.685785713
 21
-20.0135521358
  0
LWPOLYLINE
  5
44A
100
AcDbEntity
  8
IMPORT_IGES
100
AcDbPolyline
 62
7
  6
CONTINUOUS
 90
18
 70
0
 10
-109.7311734926
 20
-19.9973745988
 10
-109.7490494055
 20
-19.9907109182
 10
-109.8023212484
 20
-19.9678749016
 10
-109.85402477
 20
-19.9411148781
 10
-109.9035738733
 20
-19.910713071
 10
-109.9511273465
 20
-19.8765274736
 10
-109.9962473414
 20
-19.8387789442
 10
-110.0385560072
 20
-19.7977284165
 10
-110.078173161
 20
-19.7531325719
 10
-110.1147594273
 20
-19.7051381861
 10
-110.1478027295
 20
-19.6542222239
 10
-110.1770658272
 20
-19.6005951583
 10
-110.2021767353
 20
-19.5448288296
 10
-110.2229533477
 20
-19.4873095349
 10
-110.239363683
 20
-19.4279967975
 10
-110.2512183479
 20
-19.3672623566
 10
-110.2583357019
 20
-19.3058909453
 10
-110.2606958176
 20
-19.2444847133
  0
LWPOLYLINE
  5
44B
100
AcDbEntity
  8
IMPORT_IGES
100
AcDbPolyline
 62
7
  6
CONTINUOUS
 90
10
 70
0
 10
-107.6227667897
 20
-23.0719384315
 10
-107.6078215182
 20
-23.0779106573
 10
-107.5926266439
 20
-23.0831946056
 10
-107.5771821667
 20
-23.0877902765
 10
-107.5614774903
 20
-23.0917037497
 10
-107.5455232111
 20
-23.0949289454
 10
-107.5293511181
 20
-23.0974476246
 10
-107.5129718075
 20
-23.0992537075
 10
-107.4963746831
 20
-23.1003532738
 10
-107.4795597449
 20
-23.1007463235
  0
LWPOLYLINE
  5
44C
100
AcDbEntity
  8
IMPORT_IGES
100
AcDbPolyline
 62
7
  6
CONTINUOUS
 90
25
 70
0
 10
-107.6227668054
 20
-23.0719384315
 10
-107.6343622668
 20
-23.0668116571
 10
-107.6461489037
 20
-23.0611964704
 10
-107.6581070125
 20
-23.0550927693
 10
-107.6702218141
 20
-23.0485024701
 10
-107.6824626928
 20
-23.041423456
 10
-107.6947836764
 20
-23.0338495898
 10
-107.707145147
 20
-23.0257835671
 10
-107.7195311228
 20
-23.0172225432
 10
-107.731928106
 20
-23.008152078
 10
-107.7443096197
 20
-22.9985613457
 10
-107.7566331211
 20
-22.9884610304
 10
-107.7688575443
 20
-22.977868959
 10
-107.7809548713
 20
-22.9667657107
 10
-107.7928726286
 20
-22.9551706154
 10
-107.8045339723
 20
-22.943159665
 10
-107.8159017543
 20
-22.9307189814
 10
-107.8269312662
 20
-22.9178624597
 10
-107.8375416848
 20
-22.9047078163
 10
-107.8476912804
 20
-22.8912515851
 10
-107.8573491819
 20
-22.8774973682
 10
-107.8664602329
 20
-22.8635735392
 10
-107.8749868978
 20
-22.8495229673
 10
-107.8829052254
 20
-22.8353030026
 10
-107.8901855278
 20
-22.8209137661
  0
LWPOLYLINE
  5
44D
100
AcDbEntity
  8
IMPORT_IGES
100
AcDbPolyline
 62
250
  6
CONTINUOUS
 90
6
 70
0
 10
-111.1152775352
 20
-20.2996813624
 10
-111.1025363623
 20
-20.3053282451
 10
-111.0711048341
 20
-20.3172229897
 10
-111.020560562
 20
-20.3353638474
 10
-110.9504997627
 20
-20.3596287591
 10
-110.7501718193
 20
-20.4272436944
  0
LWPOLYLINE
  5
44E
100
AcDbEntity
  8
IMPORT_IGES
100
AcDbPolyline
 62
250
  6
CONTINUOUS
 90
3
 70
0
 10
-110.8152689456
 20
-19.9996878325
 10
-110.8028954457
 20
-20.0056948922
 10
-110.770417888
 20
-20.0178098737
  0
LINE
  5
44F
100
AcDbEntity
  8
IMPORT_IGES
100
AcDbLine
 62
7
  6
CONTINUOUS
 10
-111.1152775352
 20
-23.2180423934
 11
-111.1152775352
 21
-20.2996813624
  0
LINE
  5
450
100
AcDbEntity
  8
IMPORT_IGES
100
AcDbLine
 62
7
  6
CONTINUOUS
 10
-110.2606958176
 20
-26.1396653303
 11
-110.2606958176
 21
-24.3629908684
  0
LINE
  5
451
100
AcDbEntity
  8
IMPORT_IGES
100
AcDbLine
 62
7
  6
CONTINUOUS
 10
-110.2606958176
 20
-19.2444847133
 11
-110.2606958176
 21
-16.6496484853
  0
LINE
  5
452
100
AcDbEntity
  8
IMPORT_IGES
100
AcDbLine
 62
250
  6
CONTINUOUS
 10
-110.2606947938
 20
-24.3629908684
 11
-110.2606932086
 21
-24.3613686037
  0
LINE
  5
453
100
AcDbEntity
  8
IMPORT_IGES
100
AcDbLine
 62
250
  6
CONTINUOUS
 10
-110.2606932086
 20
-24.3613686037
 11
-110.2584502575
 21
-24.3030806962
  0
LINE
  5
454
100
AcDbEntity
  8
IMPORT_IGES
100
AcDbLine
 62
7
  6
CONTINUOUS
 10
-110.2578420762
 20
-24.2952376701
 11
-110.2606940003
 21
-24.3614237579
  0
LWPOLYLINE
  5
455
100
AcDbEntity
  8
0
100
AcDbPolyline
 62
7
  6
CONTINUOUS
 90
3
 70
0
 43
0.3500000006
 10
-86.2581247559
 20
79.4660395203
 10
-86.3295559387
 20
79.2517459717
 10
-86.4724092407
 20
78.9660393677
  0
LWPOLYLINE
  5
456
100
AcDbEntity
  8
IMPORT_IGES
100
AcDbPolyline
 62
7
  6
CONTINUOUS
 90
13
 70
0
 10
-87.9677544908
 20
58.8626718945
 10
-89.089164582
 20
55.9413524777
 10
-90.18269828
 20
52.9806732244
 10
-91.2222398338
 20
50.0586689691
 10
-92.2150020805
 20
47.1678436203
 10
-93.1652853265
 20
44.3092795234
 10
-94.0750955776
 20
41.4920844269
 10
-94.9507073976
 20
38.7130328901
 10
-95.7986889008
 20
35.9677725354
 10
-96.6221250416
 20
33.2629865593
 10
-97.4263226049
 20
30.5936861531
 10
-98.214579767
 20
27.9570562015
 10
-100.4935958953
 20
20.2870030991
  0
LWPOLYLINE
  5
457
100
AcDbEntity
  8
IMPORT_IGES
100
AcDbPolyline
 62
7
  6
CONTINUOUS
 90
19
 70
0
 10
-87.9677530605
 20
58.8626755492
 10
-87.943087733
 20
58.920309152
 10
-87.9148888816
 20
58.9762302137
 10
-87.883357131
 20
59.0300975941
 10
-87.8489138275
 20
59.0813531745
 10
-87.8116941271
 20
59.1299906203
 10
-87.7713741639
 20
59.1764672341
 10
-87.7280352341
 20
59.2206031623
 10
-87.6820114376
 20
59.2620080847
 10
-87.6332024904
 20
59.3007173549
 10
-87.5817981521
 20
59.3364945246
 10
-87.5281288573
 20
59.3690549379
 10
-87.4722731921
 20
59.3983044965
 10
-87.414607115
 20
59.4240078457
 10
-87.355419409
 20
59.4460259366
 10
-87.2946545125
 20
59.4643459195
 10
-87.2325444428
 20
59.4788355185
 10
-87.1696210248
 20
59.4893385706
 10
-87.1062886355
 20
59.4957988889
  0
LWPOLYLINE
  5
458
100
AcDbEntity
  8
IMPORT_IGES
100
AcDbPolyline
 62
250
  6
CONTINUOUS
 90
5
 70
0
 10
-110.159860896
 20
-24.3396376635
 10
-110.0814946277
 20
-24.3292778019
 10
-109.9808230576
 20
-24.3171968672
 10
-109.8579219502
 20
-24.3007948016
 10
-109.7128855782
 20
-24.2788833786
  0
LWPOLYLINE
  5
459
100
AcDbEntity
  8
IMPORT_IGES
100
AcDbPolyline
 62
250
  6
CONTINUOUS
 90
9
 70
0
 10
-110.8002493682
 20
-23.5197276255
 10
-110.7709460225
 20
-23.5186682899
 10
-110.7189104971
 20
-23.5148394512
 10
-110.6473965391
 20
-23.508131641
 10
-110.5559665385
 20
-23.4984594864
 10
-110.4433076659
 20
-23.4857563551
 10
-110.308160646
 20
-23.4698567421
 10
-110.1517847541
 20
-23.4507436147
 10
-109.7844654594
 20
-23.4041847398
  0
LINE
  5
45A
100
AcDbEntity
  8
IMPORT_IGES
100
AcDbLine
 62
7
  6
CONTINUOUS
 10
-110.8002493682
 20
-23.5197276255
 11
-109.2554463748
 21
-23.5197276255
  0
LINE
  5
45B
100
AcDbEntity
  8
IMPORT_IGES
100
AcDbLine
 62
7
  6
CONTINUOUS
 10
-107.4795597449
 20
-23.1007463235
 11
-106.7938922438
 21
-23.1007463325
  0
LINE
  5
45C
100
AcDbEntity
  8
IMPORT_IGES
100
AcDbLine
 62
7
  6
CONTINUOUS
 10
-106.7938918902
 20
-21.0947960219
 11
-107.4929925417
 21
-21.0947960364
  0
LINE
  5
45D
100
AcDbEntity
  8
IMPORT_IGES
100
AcDbLine
 62
250
  6
CONTINUOUS
 10
-106.6989111734
 20
-20.4044115169
 11
-107.4431694174
 21
-20.1724602377
  0
LINE
  5
45E
100
AcDbEntity
  8
IMPORT_IGES
100
AcDbLine
 62
250
  6
CONTINUOUS
 10
-107.4431694174
 20
-20.1724602377
 11
-107.7841085424
 21
-20.0649129932
  0
LWPOLYLINE
  5
45F
100
AcDbEntity
  8
IMPORT_IGES
100
AcDbPolyline
 62
7
  6
CONTINUOUS
 90
13
 70
0
 10
-106.7938923107
 20
-23.4803925342
 10
-106.7936990704
 20
-23.4948623476
 10
-106.7922849848
 20
-23.5225647294
 10
-106.789472414
 20
-23.5509725727
 10
-106.7852305402
 20
-23.5801070566
 10
-106.7795329245
 20
-23.6099470021
 10
-106.7723778617
 20
-23.6402762815
 10
-106.7637591351
 20
-23.671095659
 10
-106.753668453
 20
-23.7024043704
 10
-106.7421258208
 20
-23.7339839956
 10
-106.7291477509
 20
-23.7657617277
 10
-106.7147383095
 20
-23.7978103735
 10
-106.6989114753
 20
-23.8301299329
  0
LINE
  5
460
100
AcDbEntity
  8
IMPORT_IGES
100
AcDbLine
 62
250
  6
CONTINUOUS
 10
-107.8901855278
 20
-22.8209137661
 11
-107.8901854235
 21
-21.350094143
  0
LINE
  5
461
100
AcDbEntity
  8
IMPORT_IGES
100
AcDbLine
 62
250
  6
CONTINUOUS
 10
-107.6227667231
 20
-21.1189782769
 11
-107.6227667897
 21
-23.0719384315
  0
LINE
  5
462
100
AcDbEntity
  8
IMPORT_IGES
100
AcDbLine
 62
7
  6
CONTINUOUS
 10
-106.7938918254
 20
-20.7273648943
 11
-106.7938923107
 21
-23.4803975074
  0
LINE
  5
463
100
AcDbEntity
  8
IMPORT_IGES
100
AcDbLine
 62
250
  6
CONTINUOUS
 10
-106.6989111734
 20
-23.8301299329
 11
-106.6989111734
 21
-20.4044115169
  0
LWPOLYLINE
  5
464
100
AcDbEntity
  8
IMPORT_IGES
100
AcDbPolyline
 62
7
  6
CONTINUOUS
 90
13
 70
0
 10
-106.7938918254
 20
-20.7273705581
 10
-106.7937424943
 20
-20.7156305042
 10
-106.7924025867
 20
-20.6898989977
 10
-106.7896465703
 20
-20.6635156663
 10
-106.7854434188
 20
-20.6364561435
 10
-106.7797679155
 20
-20.6087447958
 10
-106.7726189002
 20
-20.5805847676
 10
-106.7639908439
 20
-20.5519769992
 10
-106.7538765854
 20
-20.5229205504
 10
-106.7422975929
 20
-20.4936157453
 10
-106.7292718213
 20
-20.4641293588
 10
-106.714804512
 20
-20.434394616
 10
-106.6989109665
 20
-20.4044115169
  0
LINE
  5
465
100
AcDbEntity
  8
IMPORT_IGES
100
AcDbLine
 62
250
  6
CONTINUOUS
 10
-110.2584502575
 20
-24.3030806962
 11
-110.2517297059
 21
-24.243539058
  0
LINE
  5
466
100
AcDbEntity
  8
IMPORT_IGES
100
AcDbLine
 62
250
  6
CONTINUOUS
 10
-110.2030956397
 20
-15.892887237
 11
-110.2031082971
 21
-15.8929967566
  0
LINE
  5
467
100
AcDbEntity
  8
IMPORT_IGES
100
AcDbLine
 62
7
  6
CONTINUOUS
 10
-110.2494499042
 20
-24.2288410813
 11
-110.2577425905
 21
-24.2944505665
  0
LWPOLYLINE
  5
468
100
AcDbEntity
  8
IMPORT_IGES
100
AcDbPolyline
 62
7
  6
CONTINUOUS
 90
10
 70
0
 10
-110.2031082968
 20
-15.8929967546
 10
-110.2151694537
 20
-15.9764686432
 10
-110.2258253159
 20
-16.0601681422
 10
-110.235069815
 20
-16.1440597138
 10
-110.2428970204
 20
-16.2280950633
 10
-110.2493047583
 20
-16.3122508129
 10
-110.254292497
 20
-16.396528715
 10
-110.2578575197
 20
-16.4809053659
 10
-110.2599970505
 20
-16.565332096
 10
-110.2607103844
 20
-16.6497727575
  0
LWPOLYLINE
  5
469
100
AcDbEntity
  8
IMPORT_IGES
100
AcDbPolyline
 62
250
  6
CONTINUOUS
 90
7
 70
0
 10
-110.2517297059
 20
-24.243539058
 10
-110.2405781294
 20
-24.1846991934
 10
-110.2250665573
 20
-24.1268937976
 10
-110.2052882155
 20
-24.0704400913
 10
-110.1813547252
 20
-24.0156391599
 10
-110.153403643
 20
-23.9627953094
 10
-110.1517967308
 20
-23.9602394291
  0
LINE
  5
46A
100
AcDbEntity
  8
IMPORT_IGES
100
AcDbLine
 62
7
  6
CONTINUOUS
 10
-110.2358875701
 20
-24.1645936415
 11
-110.2494499042
 21
-24.2288410813
  0
LWPOLYLINE
  5
46B
100
AcDbEntity
  8
IMPORT_IGES
100
AcDbPolyline
 62
7
  6
CONTINUOUS
 90
6
 70
0
 10
-100.4935958953
 20
20.2870030991
 10
-101.2319718754
 20
17.8077577757
 10
-101.9623377668
 20
15.3662122161
 10
-102.6875840239
 20
12.9563442916
 10
-103.4077989657
 20
10.5809802059
 10
-104.8272105592
 20
5.9327594598
  0
LWPOLYLINE
  5
46C
100
AcDbEntity
  8
IMPORT_IGES
100
AcDbPolyline
 62
7
  6
CONTINUOUS
 90
11
 70
0
 10
-104.8272105592
 20
5.9327594598
 10
-105.516568434
 20
3.6488125793
 10
-106.1833734633
 20
1.3915218601
 10
-106.8221516649
 20
-0.8398958895
 10
-107.4305919623
 20
-3.0546104165
 10
-108.003624765
 20
-5.2508136785
 10
-108.5363908726
 20
-7.4257485177
 10
-109.0270421108
 20
-9.5872564675
 10
-109.4728240592
 20
-11.7361533545
 10
-109.8699798987
 20
-13.8665484418
 10
-110.2030956415
 20
-15.8928872488
  0
LWPOLYLINE
  5
46D
100
AcDbEntity
  8
IMPORT_IGES
100
AcDbPolyline
 62
250
  6
CONTINUOUS
 90
10
 70
0
 10
-82.6705660447
 20
55.5963100518
 10
-82.9512997719
 20
54.9166788602
 10
-83.2314945705
 20
54.2316746696
 10
-83.5110624962
 20
53.5413155754
 10
-83.7898989496
 20
52.8456392765
 10
-84.0679364052
 20
52.1446335349
 10
-84.3451430049
 20
51.43823677
 10
-84.6214517843
 20
50.7264301211
 10
-84.8967622275
 20
50.009236596
 10
-85.1709929672
 20
49.2866520278
  0
LWPOLYLINE
  5
46E
100
AcDbEntity
  8
IMPORT_IGES
100
AcDbPolyline
 62
250
  6
CONTINUOUS
 90
16
 70
0
 10
-82.6705631226
 20
55.5963088655
 10
-82.6406090676
 20
55.6591376292
 10
-82.6065559374
 20
55.7203113536
 10
-82.5686165417
 20
55.7793474346
 10
-82.5271787681
 20
55.8356485307
 10
-82.4824800604
 20
55.8889575769
 10
-82.4345039431
 20
55.9393007889
 10
-82.383586577
 20
55.986302937
 10
-82.3301182453
 20
56.029627218
 10
-82.2740836858
 20
56.0692859619
 10
-82.2158914866
 20
56.1049685871
 10
-82.1559693894
 20
56.1364312749
 10
-82.0942894243
 20
56.1636837465
 10
-82.0311466374
 20
56.1865515319
 10
-81.9671810627
 20
56.2047990216
 10
-81.9028818179
 20
56.2183400306
  0
LWPOLYLINE
  5
46F
100
AcDbEntity
  8
IMPORT_IGES
100
AcDbPolyline
 62
7
  6
CONTINUOUS
 90
24
 70
0
 10
-109.5569490979
 20
-23.5587246191
 10
-109.5703089034
 20
-23.5610431894
 10
-109.5847673983
 20
-23.5637435575
 10
-109.6003955397
 20
-23.5669004527
 10
-109.6177659584
 20
-23.5707165635
 10
-109.6368563526
 20
-23.5753036568
 10
-109.6577103744
 20
-23.5808084883
 10
-109.6809989594
 20
-23.5875949099
 10
-109.7068085188
 20
-23.5959415569
 10
-109.7349916403
 20
-23.6060972397
 10
-109.7658325279
 20
-23.618524942
 10
-109.7994311005
 20
-23.6337241596
 10
-109.8353574258
 20
-23.652030399
 10
-109.8730211941
 20
-23.673696567
 10
-109.9122259682
 20
-23.6992159659
 10
-109.95239061
 20
-23.7288868501
 10
-109.9923209211
 20
-23.7624509283
 10
-110.0313675867
 20
-23.7998964463
 10
-110.069155563
 20
-23.8414266131
 10
-110.1049556812
 20
-23.8868213572
 10
-110.1380868143
 20
-23.9357301415
 10
-110.1681661879
 20
-23.9880994249
 10
-110.1948661502
 20
-24.0440168387
 10
-110.2175940582
 20
-24.1029975125
  0
LINE
  5
470
100
AcDbEntity
  8
IMPORT_IGES
100
AcDbLine
 62
250
  6
CONTINUOUS
 10
-110.2158694513
 20
-24.3491431381
 11
-110.159860896
 21
-24.3396376635
  0
LINE
  5
471
100
AcDbEntity
  8
IMPORT_IGES
100
AcDbLine
 62
7
  6
CONTINUOUS
 10
-108.0742252224
 20
-23.3323056726
 11
-109.1021527794
 21
-23.4963679992
  0
LINE
  5
472
100
AcDbEntity
  8
IMPORT_IGES
100
AcDbLine
 62
250
  6
CONTINUOUS
 10
-109.7128855782
 20
-24.2788833786
 11
-108.6597215855
 21
-24.1151201352
  0
LINE
  5
473
100
AcDbEntity
  8
IMPORT_IGES
100
AcDbLine
 62
7
  6
CONTINUOUS
 10
-109.1021527794
 20
-23.4963679992
 11
-109.189838811
 21
-23.5099364329
  0
LINE
  5
474
100
AcDbEntity
  8
IMPORT_IGES
100
AcDbLine
 62
7
  6
CONTINUOUS
 10
-107.4790142868
 20
-23.240259729
 11
-108.0742252224
 21
-23.3323056726
  0
LINE
  5
475
100
AcDbEntity
  8
IMPORT_IGES
100
AcDbLine
 62
250
  6
CONTINUOUS
 10
-108.6597215855
 20
-24.1151201352
 11
-108.0884532243
 21
-24.029187862
  0
LINE
  5
476
100
AcDbEntity
  8
IMPORT_IGES
100
AcDbLine
 62
7
  6
CONTINUOUS
 10
-106.8782195426
 20
-23.1500552131
 11
-107.4790142868
 21
-23.240259729
  0
LINE
  5
477
100
AcDbEntity
  8
IMPORT_IGES
100
AcDbLine
 62
7
  6
CONTINUOUS
 10
-109.189838811
 20
-23.5099364329
 11
-109.2505385823
 21
-23.5190125637
  0
LINE
  5
478
100
AcDbEntity
  8
IMPORT_IGES
100
AcDbLine
 62
7
  6
CONTINUOUS
 10
-106.7938922503
 20
-23.1376116132
 11
-106.8782195426
 21
-23.1500552131
  0
LINE
  5
479
100
AcDbEntity
  8
IMPORT_IGES
100
AcDbLine
 62
7
  6
CONTINUOUS
 10
-109.2505385823
 20
-23.5190125637
 11
-109.3107336841
 21
-23.5270256513
  0
LINE
  5
47A
100
AcDbEntity
  8
IMPORT_IGES
100
AcDbLine
 62
250
  6
CONTINUOUS
 10
-108.0884532243
 20
-24.029187862
 11
-107.4341470954
 21
-23.9340234699
  0
LWPOLYLINE
  5
47B
100
AcDbEntity
  8
IMPORT_IGES
100
AcDbPolyline
 62
7
  6
CONTINUOUS
 90
3
 70
0
 10
-109.3107336841
 20
-23.5270256513
 10
-109.3529837096
 20
-23.5330534124
 10
-109.3623303345
 20
-23.5343572668
  0
LINE
  5
47C
100
AcDbEntity
  8
IMPORT_IGES
100
AcDbLine
 62
250
  6
CONTINUOUS
 10
-107.4341470954
 20
-23.9340234699
 11
-106.6989111734
 21
-23.8301299329
  0
LINE
  5
47D
100
AcDbEntity
  8
IMPORT_IGES
100
AcDbLine
 62
7
  6
CONTINUOUS
 10
-109.2644012932
 20
-23.5210323506
 11
-109.3027849485
 21
-23.5264856525
  0
LINE
  5
47E
100
AcDbEntity
  8
IMPORT_IGES
100
AcDbLine
 62
7
  6
CONTINUOUS
 10
-109.3027849485
 20
-23.5264856525
 11
-109.3256216007
 21
-23.5296079766
  0
LWPOLYLINE
  5
47F
100
AcDbEntity
  8
IMPORT_IGES
100
AcDbPolyline
 62
7
  6
CONTINUOUS
 90
6
 70
0
 10
-109.5027593647
 20
-23.5507865315
 10
-109.5124027342
 20
-23.5520536742
 10
-109.5224653957
 20
-23.5534350131
 10
-109.5332465525
 20
-23.5549903888
 10
-109.5447273998
 20
-23.556741884
 10
-109.5569490979
 20
-23.5587246191
  0
LINE
  5
480
100
AcDbEntity
  8
IMPORT_IGES
100
AcDbLine
 62
7
  6
CONTINUOUS
 10
-109.3256216007
 20
-23.5296079766
 11
-109.3463769027
 21
-23.5323413479
  0
LINE
  5
481
100
AcDbEntity
  8
IMPORT_IGES
100
AcDbLine
 62
250
  6
CONTINUOUS
 10
-107.8901854757
 20
-22.8209137666
 11
-109.6874585562
 21
-23.0549035103
  0
LINE
  5
482
100
AcDbEntity
  8
IMPORT_IGES
100
AcDbLine
 62
250
  6
CONTINUOUS
 10
-109.7844654594
 20
-23.4041847398
 11
-107.4795597449
 21
-23.1007463623
  0
LINE
  5
483
100
AcDbEntity
  8
IMPORT_IGES
100
AcDbLine
 62
7
  6
CONTINUOUS
 10
-109.3463769027
 20
-23.5323413479
 11
-109.3654819865
 21
-23.5347502406
  0
LINE
  5
484
100
AcDbEntity
  8
IMPORT_IGES
100
AcDbLine
 62
250
  6
CONTINUOUS
 10
-109.6874585562
 20
-23.0549035103
 11
-110.4128013676
 21
-23.1462429357
  0
LINE
  5
485
100
AcDbEntity
  8
IMPORT_IGES
100
AcDbLine
 62
7
  6
CONTINUOUS
 10
-109.4846314886
 20
-23.5485294747
 11
-109.5027593647
 21
-23.5507865315
  0
LINE
  5
486
100
AcDbEntity
  8
IMPORT_IGES
100
AcDbLine
 62
7
  6
CONTINUOUS
 10
-109.3654819865
 20
-23.5347502406
 11
-109.392427022
 21
-23.5379842857
  0
LINE
  5
487
100
AcDbEntity
  8
IMPORT_IGES
100
AcDbLine
 62
7
  6
CONTINUOUS
 10
-109.4674783105
 20
-23.5465066585
 11
-109.4846314886
 21
-23.5485294747
  0
LWPOLYLINE
  5
488
100
AcDbEntity
  8
IMPORT_IGES
100
AcDbPolyline
 62
250
  6
CONTINUOUS
 90
7
 70
0
 10
-110.4128013676
 20
-23.1462429357
 10
-110.7532897958
 20
-23.1866431876
 10
-110.8812596491
 20
-23.2007693806
 10
-110.9810718987
 20
-23.2109585531
 10
-111.0530526969
 20
-23.2172491174
 10
-111.0976548769
 20
-23.2196093753
 10
-111.1152775352
 20
-23.2180423934
  0
LINE
  5
489
100
AcDbEntity
  8
IMPORT_IGES
100
AcDbLine
 62
7
  6
CONTINUOUS
 10
-109.392427022
 20
-23.5379842857
 11
-109.4674783105
 21
-23.5465066585
  0
LWPOLYLINE
  5
48A
100
AcDbEntity
  8
IMPORT_IGES
100
AcDbPolyline
 62
250
  6
CONTINUOUS
 90
5
 70
0
 10
-110.8271218636
 20
-19.9994446309
 10
-110.841253431
 20
-20.0008259662
 10
-110.8672681647
 20
-20.0042500074
 10
-110.8929908539
 20
-20.0099625388
 10
-110.9050970911
 20
-20.0134893559
  0
LWPOLYLINE
  5
48B
100
AcDbEntity
  8
IMPORT_IGES
100
AcDbPolyline
 62
7
  6
CONTINUOUS
 90
10
 70
0
 10
-107.4929925417
 20
-21.0947960364
 10
-107.5082880176
 20
-21.0951299306
 10
-107.5233627341
 20
-21.0960550843
 10
-107.5382166911
 20
-21.0975714975
 10
-107.5528475834
 20
-21.0996831758
 10
-107.5672577162
 20
-21.1023861135
 10
-107.581454005
 20
-21.1056682942
 10
-107.5954387551
 20
-21.1095257122
 10
-107.6092096611
 20
-21.1139623731
 10
-107.6227667231
 20
-21.1189782769
  0
LWPOLYLINE
  5
48C
100
AcDbEntity
  8
IMPORT_IGES
100
AcDbPolyline
 62
7
  6
CONTINUOUS
 90
9
 70
0
 10
-110.8086428546
 20
-19.9989216039
 10
-110.8167982388
 20
-19.9990306505
 10
-110.8271218636
 20
-19.9994446309
 10
-110.8388389432
 20
-20.0002999089
 10
-110.8519941468
 20
-20.0017645458
 10
-110.8665975868
 20
-20.0040369374
 10
-110.8831305634
 20
-20.0074628654
 10
-110.9017218583
 20
-20.0124498762
 10
-110.9050970911
 20
-20.0134893559
  0
LINE
  5
48D
100
AcDbEntity
  8
IMPORT_IGES
100
AcDbLine
 62
7
  6
CONTINUOUS
 10
-110.8096888996
 20
-19.9989194705
 11
-109.7311733716
 21
-19.9989193736
  0
LWPOLYLINE
  5
48E
100
AcDbEntity
  8
IMPORT_IGES
100
AcDbPolyline
 62
7
  6
CONTINUOUS
 90
4
 70
0
 10
-78.7193989871
 20
-58.4886434695
 10
-78.6833035588
 20
-58.5606012467
 10
-78.6608308395
 20
-58.6044282615
 10
-78.6525037565
 20
-58.6199261307
  0
LWPOLYLINE
  5
48F
100
AcDbEntity
  8
IMPORT_IGES
100
AcDbPolyline
 62
7
  6
CONTINUOUS
 90
3
 70
0
 10
-78.9087824187
 20
-58.1023308798
 10
-78.8323942826
 20
-58.2595301797
 10
-78.7193989871
 20
-58.4886434695
  0
LINE
  5
490
100
AcDbEntity
  8
IMPORT_IGES
100
AcDbLine
 62
7
  6
CONTINUOUS
 10
-79.1006579984
 20
-57.7012634703
 11
-78.9087824187
 21
-58.1023308798
  0
LINE
  5
491
100
AcDbEntity
  8
IMPORT_IGES
100
AcDbLine
 62
7
  6
CONTINUOUS
 10
-78.2534479952
 20
-58.2983473401
 11
-78.6416851732
 21
-57.4848873556
  0
LINE
  5
492
100
AcDbEntity
  8
IMPORT_IGES
100
AcDbLine
 62
7
  6
CONTINUOUS
 10
-78.6416851732
 20
-57.4848873556
 11
-78.7121594896
 21
-57.3360367482
  0
LINE
  5
493
100
AcDbEntity
  8
IMPORT_IGES
100
AcDbLine
 62
7
  6
CONTINUOUS
 10
-79.3454298654
 20
-57.1828036275
 11
-79.1006579984
 21
-57.7012634703
  0
LINE
  5
494
100
AcDbEntity
  8
IMPORT_IGES
100
AcDbLine
 62
7
  6
CONTINUOUS
 10
-110.2175940582
 20
-24.1029975125
 11
-110.2358875701
 21
-24.1645936415
  0
LWPOLYLINE
  5
495
100
AcDbEntity
  8
IMPORT_IGES
100
AcDbPolyline
 62
250
  6
CONTINUOUS
 90
20
 70
0
 10
-85.1709929672
 20
49.2866520278
 10
-85.8615059308
 20
47.440384675
 10
-86.5604666932
 20
45.5390840687
 10
-87.2657149875
 20
43.5826644209
 10
-87.9812663982
 20
41.5539061386
 10
-88.6987841676
 20
39.4692139355
 10
-89.4000494783
 20
37.377717346
 10
-90.086764611
 20
35.2763013291
 10
-90.758974513
 20
33.1644013409
 10
-91.4000593209
 20
31.0939237671
 10
-92.0102360429
 20
29.0696510846
 10
-92.5930127556
 20
27.0843273478
 10
-93.1390079409
 20
25.1720468598
 10
-93.647886827
 20
23.3435431399
 10
-94.1259334204
 20
21.586567424
 10
-94.5746791196
 20
19.9009004435
 10
-94.9948247456
 20
18.2906799727
 10
-95.3905073048
 20
16.7508371021
 10
-95.7678989375
 20
15.2673938403
 10
-96.4743742174
 20
12.4718754076
  0
LINE
  5
496
100
AcDbEntity
  8
IMPORT_IGES
100
AcDbLine
 62
250
  6
CONTINUOUS
 10
-110.8152689456
 20
-19.9996878325
 11
-110.8096888996
 21
-19.9989194705
  0
LWPOLYLINE
  5
497
100
AcDbEntity
  8
IMPORT_IGES
100
AcDbPolyline
 62
7
  6
CONTINUOUS
 90
3
 70
0
 10
-78.7121594896
 20
-57.3360367482
 10
-78.8637460673
 20
-57.0129476875
 10
-78.9442968079
 20
-56.8386624408
  0
LWPOLYLINE
  5
498
100
AcDbEntity
  8
IMPORT_IGES
100
AcDbPolyline
 62
7
  6
CONTINUOUS
 90
3
 70
0
 10
-78.9442968079
 20
-56.8386624408
 10
-79.1142901777
 20
-56.4642515967
 10
-79.2034998959
 20
-56.2642975025
  0
LWPOLYLINE
  5
499
100
AcDbEntity
  8
IMPORT_IGES
100
AcDbPolyline
 62
7
  6
CONTINUOUS
 90
6
 70
0
 10
-80.3921130457
 20
-54.8933403058
 10
-80.1858298275
 20
-55.3549961832
 10
-79.9921612538
 20
-55.7831132784
 10
-79.810956001
 20
-56.179072085
 10
-79.642337863
 20
-56.544546855
 10
-79.3454298654
 20
-57.1828036275
  0
LINE
  5
49A
100
AcDbEntity
  8
IMPORT_IGES
100
AcDbLine
 62
7
  6
CONTINUOUS
 10
-79.2034998959
 20
-56.2642975025
 11
-79.38969395
 21
-55.8388687877
  0
LINE
  5
49B
100
AcDbEntity
  8
IMPORT_IGES
100
AcDbLine
 62
7
  6
CONTINUOUS
 10
-79.38969395
 20
-55.8388687877
 11
-79.6907444496
 21
-55.1398023047
  0
LINE
  5
49C
100
AcDbEntity
  8
IMPORT_IGES
100
AcDbLine
 62
7
  6
CONTINUOUS
 10
-79.6907444496
 20
-55.1398023047
 11
-80.0195700367
 21
-54.3682861609
  0
LWPOLYLINE
  5
49D
100
AcDbEntity
  8
IMPORT_IGES
100
AcDbPolyline
 62
7
  6
CONTINUOUS
 90
42
 70
0
 10
-82.409844827
 20
-49.999641515
 10
-82.4271243042
 20
-49.9586401167
 10
-82.4462268472
 20
-49.9165311964
 10
-82.467194005
 20
-49.873369547
 10
-82.4900060463
 20
-49.8291317802
 10
-82.5145978394
 20
-49.7836998541
 10
-82.5409444303
 20
-49.7370756354
 10
-82.569112971
 20
-49.6892648086
 10
-82.5991997359
 20
-49.6401379954
 10
-82.6312277097
 20
-49.5897058784
 10
-82.6652244435
 20
-49.5379706225
 10
-82.7013141213
 20
-49.4847837932
 10
-82.7395297767
 20
-49.4301494821
 10
-82.779895327
 20
-49.3740839453
 10
-82.822540129
 20
-49.3164532064
 10
-82.867484987
 20
-49.257282812
 10
-82.9147611324
 20
-49.1965834557
 10
-82.9645302466
 20
-49.1341981745
 10
-83.0168294235
 20
-49.0701379537
 10
-83.0716642554
 20
-49.0044519749
 10
-83.1291603447
 20
-48.9370444113
 10
-83.1893682022
 20
-48.8679134435
 10
-83.2522500165
 20
-48.7971591148
 10
-83.3177934924
 20
-48.7248486463
 10
-83.3859857275
 20
-48.65104363
 10
-83.4567889057
 20
-48.5758324332
 10
-83.5301348693
 20
-48.4993366797
 10
-83.6059911426
 20
-48.4216303578
 10
-83.6842649083
 20
-48.3428490519
 10
-83.764800964
 20
-48.2631977231
 10
-83.8476103103
 20
-48.1827118998
 10
-83.9326892324
 20
-48.1014398878
 10
-84.0199046147
 20
-48.0195568124
 10
-84.1092446103
 20
-47.9371122159
 10
-84.2007103865
 20
-47.8541379037
 10
-84.2941760713
 20
-47.7707803595
 10
-84.3895956671
 20
-47.6870699524
 10
-84.4869796738
 20
-47.6030605827
 10
-84.5862754171
 20
-47.5189403408
 10
-84.6874429734
 20
-47.4348108412
 10
-84.7904590656
 20
-47.3506802329
 10
-84.8952873721
 20
-47.2666051321
  0
LINE
  5
49E
100
AcDbEntity
  8
IMPORT_IGES
100
AcDbLine
 62
7
  6
CONTINUOUS
 10
-80.0195700367
 20
-54.3682861609
 11
-80.2536528737
 21
-53.8127224888
  0
LINE
  5
49F
100
AcDbEntity
  8
IMPORT_IGES
100
AcDbLine
 62
7
  6
CONTINUOUS
 10
-80.2536528737
 20
-53.8127224888
 11
-80.4987578746
 21
-53.2235896562
  0
LINE
  5
4A0
100
AcDbEntity
  8
IMPORT_IGES
100
AcDbLine
 62
7
  6
CONTINUOUS
 10
-80.4987578746
 20
-53.2235896562
 11
-80.7537560931
 21
-52.6006146968
  0
LWPOLYLINE
  5
4A1
100
AcDbEntity
  8
IMPORT_IGES
100
AcDbPolyline
 62
7
  6
CONTINUOUS
 90
4
 70
0
 10
-80.7537560931
 20
-52.6006146968
 10
-81.0173892757
 20
-51.9437640805
 10
-81.1522905878
 20
-51.6026287806
 10
-81.288703867
 20
-51.2530225893
  0
LWPOLYLINE
  5
4A2
100
AcDbEntity
  8
IMPORT_IGES
100
AcDbPolyline
 62
7
  6
CONTINUOUS
 90
9
 70
0
 10
-82.409844827
 20
-49.999641515
 10
-82.1139005265
 20
-50.7625777963
 10
-81.8412833071
 20
-51.4517366578
 10
-81.5769506225
 20
-52.1068491392
 10
-81.3214474585
 20
-52.7285310243
 10
-81.0751065986
 20
-53.3173221962
 10
-80.8380410201
 20
-53.8737421558
 10
-80.6100662968
 20
-54.399128013
 10
-80.3921130457
 20
-54.8933403058
  0
LWPOLYLINE
  5
4A3
100
AcDbEntity
  8
IMPORT_IGES
100
AcDbPolyline
 62
7
  6
CONTINUOUS
 90
3
 70
0
 10
-81.288703867
 20
-51.2530225893
 10
-81.5657115287
 20
-50.5284177617
 10
-81.7064833104
 20
-50.153438526
  0
LWPOLYLINE
  5
4A4
100
AcDbEntity
  8
IMPORT_IGES
100
AcDbPolyline
 62
7
  6
CONTINUOUS
 90
10
 70
0
 10
-84.8563905975
 20
-45.9567572412
 10
-85.3612109964
 20
-44.5290970836
 10
-85.8442055263
 20
-43.0938650837
 10
-86.3054255136
 20
-41.6510612415
 10
-86.7451220503
 20
-40.2007187182
 10
-87.1632133046
 20
-38.7428043526
 10
-87.5592870075
 20
-37.2772186614
 10
-87.9333004173
 20
-35.8039284835
 10
-88.2855714783
 20
-34.3229669801
 10
-88.6162506622
 20
-32.834334151
  0
LINE
  5
4A5
100
AcDbEntity
  8
IMPORT_IGES
100
AcDbLine
 62
250
  6
CONTINUOUS
 10
-93.3755692436
 20
-28.468165234
 11
-93.2078635299
 21
-29.0254754101
  0
LWPOLYLINE
  5
4A6
100
AcDbEntity
  8
IMPORT_IGES
100
AcDbPolyline
 62
250
  6
CONTINUOUS
 90
42
 70
0
 10
-96.4743742174
 20
12.4718754076
 10
-96.8120868872
 20
11.1402531389
 10
-97.1445946607
 20
9.839361408
 10
-97.4715603626
 20
8.5764475496
 10
-97.7942514117
 20
7.3555680163
 10
-98.1141159218
 20
6.1776668896
 10
-98.4316342144
 20
5.0436639136
 10
-98.7463977547
 20
3.9581219194
 10
-99.0585734333
 20
2.9244125223
 10
-99.3690800852
 20
1.9401117714
 10
-99.6784130592
 20
1.0008657139
 10
-99.9862480172
 20
0.1083143682
 10
-100.2932475699
 20
-0.7389422743
 10
-100.6012160053
 20
-1.5498973462
 10
-100.9110489912
 20
-2.3267198844
 10
-101.2217138137
 20
-3.0672192446
 10
-101.5320069102
 20
-3.7739035422
 10
-101.8408544537
 20
-4.4453064972
 10
-102.1488220674
 20
-5.0830983582
 10
-102.4570999662
 20
-5.6945149263
 10
-102.7651324186
 20
-6.2799870346
 10
-103.0727588613
 20
-6.8393740675
 10
-103.3817086382
 20
-7.3790708306
 10
-103.693260496
 20
-7.9022446331
 10
-104.0051560332
 20
-8.4060822326
 10
-104.3138413447
 20
-8.8879819822
 10
-104.6169447282
 20
-9.3451777691
 10
-104.916012934
 20
-9.7806657343
 10
-105.2133788176
 20
-10.2004720493
 10
-105.5091632028
 20
-10.6063527952
 10
-105.8021149524
 20
-10.9968047118
 10
-106.0923572471
 20
-11.3730008069
 10
-106.3797977933
 20
-11.7358286078
 10
-106.6631633044
 20
-12.0846309468
 10
-106.9407970207
 20
-12.4182445397
 10
-107.2116833437
 20
-12.7361673292
 10
-107.4755222179
 20
-13.0390313634
 10
-107.7317668158
 20
-13.3273457246
 10
-107.9798999333
 20
-13.6013112731
 10
-108.2189913292
 20
-13.8608345041
 10
-108.4479104288
 20
-14.1059651234
 10
-108.6665273898
 20
-14.3373932152
  0
LINE
  5
4A7
100
AcDbEntity
  8
IMPORT_IGES
100
AcDbLine
 62
250
  6
CONTINUOUS
 10
-94.7492695277
 20
10.9172696789
 11
-92.8111860531
 21
16.9590306869
  0
LWPOLYLINE
  5
4A8
100
AcDbEntity
  8
IMPORT_IGES
100
AcDbPolyline
 62
250
  6
CONTINUOUS
 90
8
 70
0
 10
-92.8111860531
 20
16.9590306869
 10
-92.5323370527
 20
17.8224570489
 10
-92.2513488532
 20
18.6856692614
 10
-91.9757897872
 20
19.5252878627
 10
-91.6981921076
 20
20.3646923143
 10
-91.4053948628
 20
21.2410511208
 10
-91.0887910068
 20
22.1792345793
 10
-90.7566188017
 20
23.1543723925
  0
LINE
  5
4A9
100
AcDbEntity
  8
IMPORT_IGES
100
AcDbLine
 62
250
  6
CONTINUOUS
 10
-95.1781256036
 20
9.5971910382
 11
-94.7492695277
 21
10.9172696789
  0
LWPOLYLINE
  5
4AA
100
AcDbEntity
  8
IMPORT_IGES
100
AcDbPolyline
 62
250
  6
CONTINUOUS
 90
23
 70
0
 10
-90.7566188017
 20
23.1543723925
 10
-90.4209852866
 20
24.1290221736
 10
-90.0905105408
 20
25.0785922798
 10
-89.7566892979
 20
26.0276743538
 10
-89.4059432956
 20
27.012600937
 10
-89.0294068185
 20
28.0577140384
 10
-88.6356122588
 20
29.138671649
 10
-88.237079277
 20
30.2187802831
 10
-87.842260311
 20
31.2753843055
 10
-87.4428437267
 20
32.3311393515
 10
-87.0262292541
 20
33.417318841
 10
-86.5842396908
 20
34.5549940774
 10
-86.1248608583
 20
35.7230937575
 10
-85.6597399204
 20
36.8896773908
 10
-85.1967712626
 20
38.0350831234
 10
-84.7282605041
 20
39.1789728094
 10
-84.2425052066
 20
40.3483915209
 10
-83.7318627715
 20
41.5613562056
 10
-83.2040057662
 20
42.7998499159
 10
-82.6702153543
 20
44.0368668804
 10
-82.1343786096
 20
45.2634051753
 10
-81.5929181108
 20
46.4884667245
 10
-81.0459962028
 20
47.7120515279
  0
LWPOLYLINE
  5
4AB
100
AcDbEntity
  8
IMPORT_IGES
100
AcDbPolyline
 62
250
  6
CONTINUOUS
 90
10
 70
0
 10
-81.0459961156
 20
47.7120515279
 10
-80.7442559497
 20
48.5116501106
 10
-80.4392793656
 20
49.3099889489
 10
-80.1310663633
 20
50.1070680428
 10
-79.8196117098
 20
50.9029005971
 10
-79.5049206382
 20
51.697473407
 10
-79.1870088474
 20
52.4907468581
 10
-78.8658815704
 20
53.2827077458
 10
-78.5415335742
 20
54.0733692747
 10
-78.2139648587
 20
54.8627314449
  0
LWPOLYLINE
  5
4AC
100
AcDbEntity
  8
IMPORT_IGES
100
AcDbPolyline
 62
7
  6
CONTINUOUS
 90
27
 70
0
 10
-81.7064837599
 20
-50.1534527319
 10
-81.7378179163
 20
-50.0573644712
 10
-81.7756931313
 20
-49.9551590251
 10
-81.8202479881
 20
-49.8467809077
 10
-81.8718286543
 20
-49.7319475293
 10
-81.9303710059
 20
-49.6108923707
 10
-81.9953790302
 20
-49.4844794374
 10
-82.0680114404
 20
-49.3516345349
 10
-82.1473548939
 20
-49.2136971752
 10
-82.229666909
 20
-49.0757762079
 10
-82.3121871518
 20
-48.9427585242
 10
-82.3975966878
 20
-48.8112652061
 10
-82.4903181752
 20
-48.6738723413
 10
-82.5917855847
 20
-48.5279197752
 10
-82.7007735953
 20
-48.3760815373
 10
-82.8178327155
 20
-48.2184346172
 10
-82.9455360637
 20
-48.0526070433
 10
-83.0814762559
 20
-47.8813013427
 10
-83.2185697839
 20
-47.7125643815
 10
-83.3516506425
 20
-47.5529932435
 10
-83.4856227856
 20
-47.3970418118
 10
-83.6284820396
 20
-47.2345740439
 10
-83.7823396846
 20
-47.0628323059
 10
-83.9450798935
 20
-46.8851638719
 10
-84.1184522778
 20
-46.7005210853
 10
-84.302980731
 20
-46.5089384591
 10
-84.4979382442
 20
-46.3115304932
  0
LWPOLYLINE
  5
4AD
100
AcDbEntity
  8
IMPORT_IGES
100
AcDbPolyline
 62
7
  6
CONTINUOUS
 90
57
 70
0
 10
-88.6162506622
 20
-32.834334151
 10
-88.6396422976
 20
-32.7247978059
 10
-88.665631911
 20
-32.6153117927
 10
-88.6942174271
 20
-32.5058761116
 10
-88.7254373869
 20
-32.3962932044
 10
-88.7592484068
 20
-32.2867606291
 10
-88.7955253168
 20
-32.1778710601
 10
-88.8343024973
 20
-32.0696491149
 10
-88.8755396528
 20
-31.9620701759
 10
-88.9189997045
 20
-31.8556530641
 10
-88.9646614011
 20
-31.7505070712
 10
-89.0125395074
 20
-31.6465229056
 10
-89.0624512566
 20
-31.5438915131
 10
-89.1142575674
 20
-31.4428353352
 10
-89.168090627
 20
-31.3431319304
 10
-89.224174183
 20
-31.2443049202
 10
-89.2824458101
 20
-31.1463408634
 10
-89.3429589865
 20
-31.0492532012
 10
-89.4061097716
 20
-30.9526058796
 10
-89.4718808581
 20
-30.8563193193
 10
-89.540277305
 20
-30.7604730995
 10
-89.611726416
 20
-30.6648699045
 10
-89.6863537773
 20
-30.5693041
 10
-89.7640169482
 20
-30.4739813203
 10
-89.8447394077
 20
-30.3793211514
 10
-89.9287974893
 20
-30.2850870717
 10
-90.0158945581
 20
-30.1915156028
 10
-90.1051963879
 20
-30.099735896
 10
-90.1966135467
 20
-30.009946536
 10
-90.2902185413
 20
-29.9219489381
 10
-90.3854241759
 20
-29.8362764993
 10
-90.4820733327
 20
-29.7530948185
 10
-90.5803087802
 20
-29.6722382968
 10
-90.6799953223
 20
-29.5937435348
 10
-90.7810934157
 20
-29.5176240243
 10
-90.8836276285
 20
-29.4438662734
 10
-90.98755922
 20
-29.3724664073
 10
-91.0928959859
 20
-29.3034022926
 10
-91.1996139598
 20
-29.2366960626
 10
-91.3076268971
 20
-29.1724102429
 10
-91.4170102594
 20
-29.1105037222
 10
-91.5276715534
 20
-29.0510176117
 10
-91.6392741991
 20
-28.9941377709
 10
-91.7518249881
 20
-28.9398798617
 10
-91.865302309
 20
-28.8882282223
 10
-91.9793302059
 20
-28.8393217264
 10
-92.0938287598
 20
-28.7932023124
 10
-92.2088663845
 20
-28.749828042
 10
-92.3242921534
 20
-28.7092119743
 10
-92.4400862155
 20
-28.6713563925
 10
-92.5562577623
 20
-28.6362590135
 10
-92.6727006751
 20
-28.6039260476
 10
-92.7894141788
 20
-28.5743531988
 10
-92.9063890514
 20
-28.547544763
 10
-93.0235076583
 20
-28.5235198388
 10
-93.1407281028
 20
-28.5022847923
 10
-93.2580834791
 20
-28.4838332574
  0
LWPOLYLINE
  5
4AE
100
AcDbEntity
  8
IMPORT_IGES
100
AcDbPolyline
 62
7
  6
CONTINUOUS
 90
25
 70
0
 10
-107.8901854235
 20
-21.350094143
 10
-107.8829636753
 20
-21.3369549571
 10
-107.8751139749
 20
-21.3239739314
 10
-107.8666654333
 20
-21.3111509478
 10
-107.8576422091
 20
-21.2984508115
 10
-107.8480804698
 20
-21.2859085038
 10
-107.8380319107
 20
-21.2736291954
 10
-107.8275281184
 20
-21.2616143
 10
-107.8166080312
 20
-21.2498622689
 10
-107.8053421913
 20
-21.2384738755
 10
-107.7937721603
 20
-21.2274600527
 10
-107.7819343258
 20
-21.2168098359
 10
-107.7698974339
 20
-21.2065912069
 10
-107.7577092892
 20
-21.1968192111
 10
-107.7453990667
 20
-21.1874788679
 10
-107.7330084887
 20
-21.178593155
 10
-107.7205791641
 20
-21.1701719554
 10
-107.7081371069
 20
-21.1622055044
 10
-107.6956977641
 20
-21.1546873129
 10
-107.6832780109
 20
-21.1476154166
 10
-107.6709166942
 20
-21.140991909
 10
-107.6586596075
 20
-21.134816397
 10
-107.6465376933
 20
-21.1290888147
 10
-107.6345665472
 20
-21.1238094101
 10
-107.6227666566
 20
-21.1189782769
  0
LWPOLYLINE
  5
4AF
100
AcDbEntity
  8
IMPORT_IGES
100
AcDbPolyline
 62
250
  6
CONTINUOUS
 90
6
 70
0
 10
-108.6665273898
 20
-14.3373932152
 10
-109.0665911196
 20
-14.7552488204
 10
-109.2445772291
 20
-14.938811882
 10
-109.4081041775
 20
-15.1059116885
 10
-109.5573835266
 20
-15.2568635089
 10
-109.6924346271
 20
-15.3917530436
  0
LWPOLYLINE
  5
4B0
100
AcDbEntity
  8
IMPORT_IGES
100
AcDbPolyline
 62
250
  6
CONTINUOUS
 90
65
 70
0
 10
-107.6816958467
 20
-14.1559205578
 10
-107.5381575658
 20
-14.0070036958
 10
-107.3903064509
 20
-13.8518542592
 10
-107.2367674162
 20
-13.6890834221
 10
-107.0787996234
 20
-13.5200800105
 10
-106.91851713
 20
-13.3467128645
 10
-106.757134888
 20
-13.1700820162
 10
-106.593730839
 20
-12.9890874335
 10
-106.4272892657
 20
-12.8022978599
 10
-106.2570848926
 20
-12.6088559795
 10
-106.0839101496
 20
-12.4096191083
 10
-105.9090245624
 20
-12.2057279381
 10
-105.7333222416
 20
-11.998068193
 10
-105.5561686294
 20
-11.7857541488
 10
-105.3765381637
 20
-11.5672693251
 10
-105.1935121218
 20
-11.3414231097
 10
-105.0080849649
 20
-11.1094061148
 10
-104.8221285603
 20
-10.8732736953
 10
-104.6372763601
 20
-10.6350304347
 10
-104.4522113214
 20
-10.3926717495
 10
-104.2643458363
 20
-10.1422392447
 10
-104.0716613474
 20
-9.8809490636
 10
-103.8761513842
 20
-9.6115850628
 10
-103.6812694837
 20
-9.3385404169
 10
-103.4898394661
 20
-9.0656917691
 10
-103.2994015173
 20
-8.7891624762
 10
-103.1054500088
 20
-8.501715784
 10
-102.9047498347
 20
-8.1986100387
 10
-102.7004136219
 20
-7.8845868942
 10
-102.4974666367
 20
-7.5666345576
 10
-102.2990353491
 20
-7.2493100389
 10
-102.1023477304
 20
-6.9280563281
 10
-101.9036294346
 20
-6.5961906031
 10
-101.7002064698
 20
-6.2491025914
 10
-101.494736017
 20
-5.8914025655
 10
-101.2914434502
 20
-5.5302385197
 10
-101.0936871765
 20
-5.1715340834
 10
-100.8984348115
 20
-4.8093656272
 10
-100.7002997282
 20
-4.4331102573
 10
-100.49541433
 20
-4.0353235727
 10
-100.2875529735
 20
-3.6234499745
 10
-100.0828036674
 20
-3.2091997716
 10
-99.885667065
 20
-2.801488152
 10
-99.6919718443
 20
-2.3913999278
 10
-99.4947892238
 20
-1.9638998442
 10
-99.2894887119
 20
-1.5088819967
 10
-99.0805737066
 20
-1.0364522898
 10
-98.8748099863
 20
-0.5618931823
 10
-98.6767313723
 20
-0.09535232
 10
-98.4820837201
 20
0.3733179429
 10
-98.2844682321
 20
0.8592780857
 10
-98.0797391159
 20
1.3727304743
 10
-97.8719528183
 20
1.9034727427
 10
-97.6670017658
 20
2.4360582721
 10
-97.4693365858
 20
2.9591885617
 10
-97.2747305168
 20
3.4841621123
 10
-97.0760465436
 20
4.0294278068
 10
-96.8687352468
 20
4.6074328102
 10
-96.6572234886
 20
5.2057299574
 10
-96.44782552
 20
5.8054266372
 10
-96.2454256851
 20
6.3927445951
 10
-96.0453200511
 20
6.9814620856
 10
-95.8394220217
 20
7.59402126
 10
-95.6225957295
 20
8.2456565696
 10
-95.1781256036
 20
9.5971910382
  0
LINE
  5
4B1
100
AcDbEntity
  8
IMPORT_IGES
100
AcDbLine
 62
250
  6
CONTINUOUS
 10
-107.9620183484
 20
-14.4428689453
 11
-107.6816958467
 21
-14.1559205578
  0
LINE
  5
4B2
100
AcDbEntity
  8
IMPORT_IGES
100
AcDbLine
 62
250
  6
CONTINUOUS
 10
-108.2315687852
 20
-14.7145362792
 11
-107.9620183484
 21
-14.4428689453
  0
LINE
  5
4B3
100
AcDbEntity
  8
IMPORT_IGES
100
AcDbLine
 62
250
  6
CONTINUOUS
 10
-108.4867161975
 20
-14.9682147622
 11
-108.2315687852
 21
-14.7145362792
  0
LINE
  5
4B4
100
AcDbEntity
  8
IMPORT_IGES
100
AcDbLine
 62
250
  6
CONTINUOUS
 10
-109.6924346271
 20
-15.3917530436
 11
-109.9164413395
 21
-15.6130099636
  0
LINE
  5
4B5
100
AcDbEntity
  8
IMPORT_IGES
100
AcDbLine
 62
250
  6
CONTINUOUS
 10
-108.7275856994
 20
-15.2050612617
 11
-108.4867161975
 21
-14.9682147622
  0
LINE
  5
4B6
100
AcDbEntity
  8
IMPORT_IGES
100
AcDbLine
 62
250
  6
CONTINUOUS
 10
-109.9164413395
 20
-15.6130099636
 11
-110.1952134983
 21
-15.8852758446
  0
LINE
  5
4B7
100
AcDbEntity
  8
IMPORT_IGES
100
AcDbLine
 62
250
  6
CONTINUOUS
 10
-109.0575935883
 20
-15.5261384925
 11
-108.7275856994
 21
-15.2050612617
  0
LINE
  5
4B8
100
AcDbEntity
  8
IMPORT_IGES
100
AcDbLine
 62
250
  6
CONTINUOUS
 10
-110.1952134983
 20
-15.8852758446
 11
-110.2030956397
 21
-15.892887237
  0
LWPOLYLINE
  5
4B9
100
AcDbEntity
  8
IMPORT_IGES
100
AcDbPolyline
 62
250
  6
CONTINUOUS
 90
3
 70
0
 10
-109.3466825452
 20
-15.8034233651
 10
-109.2541733664
 20
-15.7151337228
 10
-109.0575935883
 20
-15.5261384925
  0
LINE
  5
4BA
100
AcDbEntity
  8
IMPORT_IGES
100
AcDbLine
 62
7
  6
CONTINUOUS
 10
-75.772401957
 20
-4.0753078526
 11
-76.2724019566
 21
-4.0753078526
  0
LINE
  5
4BB
100
AcDbEntity
  8
IMPORT_IGES
100
AcDbLine
 62
7
  6
CONTINUOUS
 10
-85.4505689598
 20
-45.7125827322
 11
-83.9421909211
 21
-55.8053773343
  0
LWPOLYLINE
  5
4BC
100
AcDbEntity
  8
0
100
AcDbPolyline
 62
7
  6
CONTINUOUS
 90
2
 70
0
 43
0.3500000006
 10
-90.6866949463
 20
79.1803238525
 10
-90.6866949463
 20
80.6803243103
  0
LWPOLYLINE
  5
4BD
100
AcDbEntity
  8
0
100
AcDbPolyline
 62
7
  6
CONTINUOUS
 90
4
 70
0
 43
0.3500000006
 10
-89.3295568542
 20
81.5374622498
 10
-89.3295568542
 20
82.1803247681
 10
-87.8295563965
 20
82.1803247681
 10
-88.6866943359
 20
79.1803238525
  0
LINE
  5
4BE
100
AcDbEntity
  8
IMPORT_IGES
100
AcDbLine
 62
250
  6
CONTINUOUS
 10
-109.5190807804
 20
-15.9667653051
 11
-109.3466825452
 21
-15.8034233651
  0
LINE
  5
4BF
100
AcDbEntity
  8
IMPORT_IGES
100
AcDbLine
 62
250
  6
CONTINUOUS
 10
-109.6736430962
 20
-16.1115110918
 11
-109.5190807804
 21
-15.9667653051
  0
LINE
  5
4C0
100
AcDbEntity
  8
IMPORT_IGES
100
AcDbLine
 62
250
  6
CONTINUOUS
 10
-109.8115282146
 20
-16.2391723235
 11
-109.6736430962
 21
-16.1115110918
  0
LINE
  5
4C1
100
AcDbEntity
  8
IMPORT_IGES
100
AcDbLine
 62
250
  6
CONTINUOUS
 10
-110.0323041185
 20
-16.4415532405
 11
-109.8115282146
 21
-16.2391723235
  0
LINE
  5
4C2
100
AcDbEntity
  8
IMPORT_IGES
100
AcDbLine
 62
250
  6
CONTINUOUS
 10
-110.2606958176
 20
-16.6496484853
 11
-110.0323041185
 21
-16.4415532405
  0
LINE
  5
4C3
100
AcDbEntity
  8
IMPORT_IGES
100
AcDbLine
 62
7
  6
CONTINUOUS
 10
-76.2724019566
 20
2.1246921474
 11
-75.772401957
 21
2.1246921474
  0
LINE
  5
4C4
100
AcDbEntity
  8
IMPORT_IGES
100
AcDbLine
 62
7
  6
CONTINUOUS
 10
-73.484541001
 20
-60.2455412578
 11
-73.5646174336
 21
-59.7914052412
  0
LINE
  5
4C5
100
AcDbEntity
  8
IMPORT_IGES
100
AcDbLine
 62
250
  6
CONTINUOUS
 10
-74.151178641
 20
-60.05944121
 11
-74.1240191927
 21
-60.2251125694
  0
LINE
  5
4C6
100
AcDbEntity
  8
IMPORT_IGES
100
AcDbLine
 62
250
  6
CONTINUOUS
 10
-73.5322659247
 20
-59.7913892294
 11
-73.4611631906
 21
-60.2251125694
  0
LINE
  5
4C7
100
AcDbEntity
  8
IMPORT_IGES
100
AcDbLine
 62
250
  6
CONTINUOUS
 10
-81.0459959775
 20
-50.1553829798
 11
-81.050325656
 21
-49.9559902548
  0
LINE
  5
4C8
100
AcDbEntity
  8
IMPORT_IGES
100
AcDbLine
 62
250
  6
CONTINUOUS
 10
-81.050325656
 20
-49.9559902548
 11
-81.055185211
 21
-49.6552164431
  0
LINE
  5
4C9
100
AcDbEntity
  8
IMPORT_IGES
100
AcDbLine
 62
250
  6
CONTINUOUS
 10
-81.055185211
 20
-49.6552164431
 11
-81.0589059708
 21
-49.3174043686
  0
LINE
  5
4CA
100
AcDbEntity
  8
IMPORT_IGES
100
AcDbLine
 62
250
  6
CONTINUOUS
 10
-81.0589059708
 20
-49.3174043686
 11
-81.0618192081
 21
-48.8546680628
  0
LINE
  5
4CB
100
AcDbEntity
  8
IMPORT_IGES
100
AcDbLine
 62
250
  6
CONTINUOUS
 10
-81.0459961156
 20
47.7120515279
 11
-81.0459961156
 21
-46.0246281156
  0
LINE
  5
4CC
100
AcDbEntity
  8
IMPORT_IGES
100
AcDbLine
 62
250
  6
CONTINUOUS
 10
-81.0618192081
 20
-48.8546680628
 11
-81.0627499636
 21
-48.251191207
  0
LINE
  5
4CD
100
AcDbEntity
  8
IMPORT_IGES
100
AcDbLine
 62
250
  6
CONTINUOUS
 10
-81.0627499636
 20
-48.251191207
 11
-81.0603054165
 21
-47.4944851851
  0
LINE
  5
4CE
100
AcDbEntity
  8
IMPORT_IGES
100
AcDbLine
 62
250
  6
CONTINUOUS
 10
-81.0603054165
 20
-47.4944851851
 11
-81.0540720436
 21
-46.7007779318
  0
LINE
  5
4CF
100
AcDbEntity
  8
IMPORT_IGES
100
AcDbLine
 62
250
  6
CONTINUOUS
 10
-81.0540720436
 20
-46.7007779318
 11
-81.0459959819
 21
-46.0246283581
  0
LWPOLYLINE
  5
4D0
100
AcDbEntity
  8
IMPORT_IGES
100
AcDbPolyline
 62
7
  6
CONTINUOUS
 90
19
 70
0
 10
-71.819346482
 20
55.0602123305
 10
-71.8098566497
 20
55.1167533143
 10
-71.8018633786
 20
55.1725639335
 10
-71.7953698399
 20
55.227455826
 10
-71.7904415735
 20
55.2812609339
 10
-71.7870180759
 20
55.333779783
 10
-71.784912375
 20
55.3847862204
 10
-71.7841426185
 20
55.4339669871
 10
-71.7846910903
 20
55.4813179122
 10
-71.7863194756
 20
55.5270429659
 10
-71.7891042181
 20
55.5711932651
 10
-71.7929761368
 20
55.6132891531
 10
-71.79747705
 20
55.652761722
 10
-71.8026170024
 20
55.6891738083
 10
-71.8083773401
 20
55.7227823802
 10
-71.8142594064
 20
55.753996068
 10
-71.8201022097
 20
55.7827173403
 10
-71.8260739786
 20
55.8085100471
 10
-71.8321762711
 20
55.831124754
  0
LINE
  5
4D1
100
AcDbEntity
  8
IMPORT_IGES
100
AcDbLine
 62
7
  6
CONTINUOUS
 10
-71.3583358605
 20
-58.846574954
 11
-71.272401957
 21
-59.3339303386
  0
LINE
  5
4D2
100
AcDbEntity
  8
IMPORT_IGES
100
AcDbLine
 62
250
  6
CONTINUOUS
 10
-78.2139648603
 20
54.8627314683
 11
-78.2270991707
 21
55.0735281925
  0
LINE
  5
4D3
100
AcDbEntity
  8
IMPORT_IGES
100
AcDbLine
 62
250
  6
CONTINUOUS
 10
-78.2270991707
 20
55.0735281925
 11
-78.2382301665
 21
55.2705132487
  0
LINE
  5
4D4
100
AcDbEntity
  8
IMPORT_IGES
100
AcDbLine
 62
250
  6
CONTINUOUS
 10
-78.2382301665
 20
55.2705132487
 11
-78.244515854
 21
55.3935533568
  0
LINE
  5
4D5
100
AcDbEntity
  8
IMPORT_IGES
100
AcDbLine
 62
250
  6
CONTINUOUS
 10
-78.244515854
 20
55.3935533568
 11
-78.2497421838
 21
55.5073709291
  0
LWPOLYLINE
  5
4D6
100
AcDbEntity
  8
IMPORT_IGES
100
AcDbPolyline
 62
250
  6
CONTINUOUS
 90
8
 70
0
 10
-78.2497421838
 20
55.5073709291
 10
-78.2537657288
 20
55.6092858212
 10
-78.255281519
 20
55.6547956157
 10
-78.2564534573
 20
55.6963500197
 10
-78.2572729007
 20
55.7337225951
 10
-78.2577318094
 20
55.7666785708
 10
-78.2578236555
 20
55.7949864399
 10
-78.2575440352
 20
55.8184453124
  0
LINE
  5
4D7
100
AcDbEntity
  8
IMPORT_IGES
100
AcDbLine
 62
7
  6
CONTINUOUS
 10
-76.272401957
 20
-58.8006299445
 11
-76.272401957
 21
60.2533780453
  0
LINE
  5
4D8
100
AcDbEntity
  8
IMPORT_IGES
100
AcDbLine
 62
7
  6
CONTINUOUS
 10
-75.772401957
 20
-58.590497337
 11
-75.772401957
 21
60.2533780453
  0
LINE
  5
4D9
100
AcDbEntity
  8
IMPORT_IGES
100
AcDbLine
 62
250
  6
CONTINUOUS
 10
-74.272401957
 20
-58.5970009154
 11
-74.272401957
 21
-58.5378377718
  0
LWPOLYLINE
  5
4DA
100
AcDbEntity
  8
IMPORT_IGES
100
AcDbPolyline
 62
7
  6
CONTINUOUS
 90
10
 70
0
 10
-84.8564292721
 20
-45.9567739709
 10
-84.875489261
 20
-46.0485941582
 10
-84.8955766774
 20
-46.1408764553
 10
-84.9166941537
 20
-46.2336235251
 10
-84.9388216919
 20
-46.3268606087
 10
-84.9619845458
 20
-46.4205677775
 10
-84.9862533812
 20
-46.514679952
 10
-85.0116536854
 20
-46.6091772152
 10
-85.0381656061
 20
-46.7040847952
 10
-85.0657919457
 20
-46.799405331
  0
LWPOLYLINE
  5
4DB
100
AcDbEntity
  8
IMPORT_IGES
100
AcDbPolyline
 62
250
  6
CONTINUOUS
 90
3
 70
0
 10
-110.2606958176
 20
-24.3629908684
 10
-110.2494871211
 20
-24.3569275398
 10
-110.2158694513
 20
-24.3491431381
  0
LWPOLYLINE
  5
4DC
100
AcDbEntity
  8
IMPORT_IGES
100
AcDbPolyline
 62
7
  6
CONTINUOUS
 90
16
 70
0
 10
-110.9050970911
 20
-20.0134893559
 10
-110.9179922255
 20
-20.0178657928
 10
-110.9420799712
 20
-20.027861959
 10
-110.9652914919
 20
-20.0399601456
 10
-110.9873660662
 20
-20.0540396326
 10
-111.0080421019
 20
-20.0699171629
 10
-111.0273316084
 20
-20.0875996195
 10
-111.0450064315
 20
-20.1068952615
 10
-111.0608754509
 20
-20.1275761246
 10
-111.0749460276
 20
-20.1496548861
 10
-111.0870351737
 20
-20.172870397
 10
-111.0970218864
 20
-20.196961425
 10
-111.1049149544
 20
-20.2219645804
 10
-111.1106167595
 20
-20.247687206
 10
-111.1140299775
 20
-20.2737002379
 10
-111.1151573498
 20
-20.2996813642
  0
LWPOLYLINE
  5
4DD
100
AcDbEntity
  8
IMPORT_IGES
100
AcDbPolyline
 62
7
  6
CONTINUOUS
 90
6
 70
0
 10
-71.8355872979
 20
-50.1042966412
 10
-71.8353704072
 20
-50.1101502238
 10
-71.8352069206
 20
-50.1159920611
 10
-71.835096838
 20
-50.121822164
 10
-71.8350645295
 20
-50.1276412638
 10
-71.8350870143
 20
-50.1392421767
  0
LWPOLYLINE
  5
4DE
100
AcDbEntity
  8
IMPORT_IGES
100
AcDbPolyline
 62
7
  6
CONTINUOUS
 90
10
 70
0
 10
-71.8342017021
 20
55.8456983172
 10
-71.83417665
 20
55.8441883713
 10
-71.8341015795
 20
55.84265087
 10
-71.8339764944
 20
55.8410858539
 10
-71.8338013835
 20
55.8394932114
 10
-71.8335762657
 20
55.8378731322
 10
-71.8333011884
 20
55.8362261314
 10
-71.832976169
 20
55.8345524349
 10
-71.8326011957
 20
55.8328519534
 10
-71.8321762711
 20
55.831124754
  0
LWPOLYLINE
  5
4DF
100
AcDbEntity
  8
IMPORT_IGES
100
AcDbPolyline
 62
7
  6
CONTINUOUS
 90
3
 70
0
 10
-71.8350870143
 20
-50.1392421767
 10
-71.8350443267
 20
-50.1450211291
 10
-71.834899832
 20
-50.1565375168
  0
LINE
  5
4E0
100
AcDbEntity
  8
IMPORT_IGES
100
AcDbLine
 62
7
  6
CONTINUOUS
 10
-71.8407843634
 20
-46.9879993382
 11
-71.8361802304
 21
-48.0572933194
  0
LINE
  5
4E1
100
AcDbEntity
  8
IMPORT_IGES
100
AcDbLine
 62
7
  6
CONTINUOUS
 10
-71.8350483728
 20
-46.052485497
 11
-71.8350755497
 21
-46.0339555403
  0
LWPOLYLINE
  5
4E2
100
AcDbEntity
  8
IMPORT_IGES
100
AcDbPolyline
 62
7
  6
CONTINUOUS
 90
5
 70
0
 10
-71.8407332114
 20
-49.5285432633
 10
-71.8407223213
 20
-49.6840760942
 10
-71.8397607642
 20
-49.8321264539
 10
-71.8380490898
 20
-49.9723149446
 10
-71.8355872979
 20
-50.1042966413
  0
LINE
  5
4E3
100
AcDbEntity
  8
IMPORT_IGES
100
AcDbLine
 62
7
  6
CONTINUOUS
 10
-71.8349014079
 20
54.8879998135
 11
-71.8349014079
 21
-46.0062916207
  0
LINE
  5
4E4
100
AcDbEntity
  8
IMPORT_IGES
100
AcDbLine
 62
7
  6
CONTINUOUS
 10
-71.834899832
 20
-50.1565375168
 11
-71.8349014079
 21
-58.195882836
  0
LINE
  5
4E5
100
AcDbEntity
  8
IMPORT_IGES
100
AcDbLine
 62
7
  6
CONTINUOUS
 10
-71.8342032073
 20
60.1158531145
 11
-71.8341533451
 21
55.8456978626
  0
LINE
  5
4E6
100
AcDbEntity
  8
IMPORT_IGES
100
AcDbLine
 62
7
  6
CONTINUOUS
 10
-71.8361802304
 20
-48.0572933194
 11
-71.8361540353
 21
-48.6509996536
  0
LINE
  5
4E7
100
AcDbEntity
  8
IMPORT_IGES
100
AcDbLine
 62
7
  6
CONTINUOUS
 10
-71.8397747878
 20
-46.5415260792
 11
-71.8407843634
 21
-46.9879993382
  0
LINE
  5
4E8
100
AcDbEntity
  8
IMPORT_IGES
100
AcDbLine
 62
7
  6
CONTINUOUS
 10
-71.8361540353
 20
-48.6509996536
 11
-71.8407332114
 21
-49.5285432633
  0
LINE
  5
4E9
100
AcDbEntity
  8
IMPORT_IGES
100
AcDbLine
 62
7
  6
CONTINUOUS
 10
-71.8350755497
 20
-46.0339555403
 11
-71.8349014079
 21
-46.0062916207
  0
LWPOLYLINE
  5
4EA
100
AcDbEntity
  8
IMPORT_IGES
100
AcDbPolyline
 62
7
  6
CONTINUOUS
 90
10
 70
0
 10
-71.8349014079
 20
54.8879998135
 10
-71.8347017789
 20
54.9073641124
 10
-71.8341188673
 20
54.926682455
 10
-71.8331526731
 20
54.9459548414
 10
-71.8318017198
 20
54.9651965168
 10
-71.8300674839
 20
54.984392236
 10
-71.8279543944
 20
55.0034962626
 10
-71.8254639278
 20
55.022493351
 10
-71.8225946077
 20
55.0413987469
 10
-71.8193464341
 20
55.0602124501
  0
LINE
  5
4EB
100
AcDbEntity
  8
IMPORT_IGES
100
AcDbLine
 62
7
  6
CONTINUOUS
 10
-71.8355295089
 20
-46.089757053
 11
-71.8397747878
 21
-46.5415260792
  0
LWPOLYLINE
  5
4EC
100
AcDbEntity
  8
IMPORT_IGES
100
AcDbPolyline
 62
7
  6
CONTINUOUS
 90
5
 70
0
 10
-71.8355295089
 20
-46.0897570531
 10
-71.8353277492
 20
-46.0804126754
 10
-71.8351764295
 20
-46.0710859479
 10
-71.8350755497
 20
-46.0617768706
 10
-71.8350483728
 20
-46.052485497
  0
LINE
  5
4ED
100
AcDbEntity
  8
IMPORT_IGES
100
AcDbLine
 62
250
  6
CONTINUOUS
 10
-75.2934452118
 20
-60.1364506141
 11
-75.2992022984
 21
-60.2251125694
  0
LINE
  5
4EE
100
AcDbEntity
  8
IMPORT_IGES
100
AcDbLine
 62
250
  6
CONTINUOUS
 10
-73.5975350198
 20
-59.7914131839
 11
-73.6256964214
 21
-60.2251125694
  0
LINE
  5
4EF
100
AcDbEntity
  8
IMPORT_IGES
100
AcDbLine
 62
7
  6
CONTINUOUS
 10
-76.8795354483
 20
-58.9695219005
 11
-76.9093620901
 21
-59.3339303855
  0
LINE
  5
4F0
100
AcDbEntity
  8
IMPORT_IGES
100
AcDbLine
 62
7
  6
CONTINUOUS
 10
-69.272401957
 20
-58.8519769928
 11
-69.272401957
 21
-58.6139125011
  0
LWPOLYLINE
  5
4F1
100
AcDbEntity
  8
IMPORT_IGES
100
AcDbPolyline
 62
7
  6
CONTINUOUS
 90
7
 70
0
 10
-73.484540927
 20
-60.2455416776
 10
-73.4842838815
 20
-60.2431195412
 10
-73.4826942487
 20
-60.2403305477
 10
-73.4796921548
 20
-60.2371428987
 10
-73.4751433722
 20
-60.2335314443
 10
-73.4689917245
 20
-60.2295213345
 10
-73.4611631906
 20
-60.2251125694
  0
LINE
  5
4F2
100
AcDbEntity
  8
IMPORT_IGES
100
AcDbLine
 62
7
  6
CONTINUOUS
 10
-77.1822682669
 20
-58.8227567808
 11
-77.2724019462
 21
-59.3339302773
  0
LINE
  5
4F3
100
AcDbEntity
  8
IMPORT_IGES
100
AcDbLine
 62
7
  6
CONTINUOUS
 10
-77.1737229173
 20
-59.3339303386
 11
-77.1395576877
 21
-59.1719503675
  0
LINE
  5
4F4
100
AcDbEntity
  8
IMPORT_IGES
100
AcDbLine
 62
7
  6
CONTINUOUS
 10
-63.972401957
 20
-58.4373522857
 11
-63.972401957
 21
59.9786143037
  0
LINE
  5
4F5
100
AcDbEntity
  8
IMPORT_IGES
100
AcDbLine
 62
7
  6
CONTINUOUS
 10
-63.472401957
 20
50.2784355221
 11
-63.472401957
 21
41.7784355221
  0
LINE
  5
4F6
100
AcDbEntity
  8
IMPORT_IGES
100
AcDbLine
 62
7
  6
CONTINUOUS
 10
-63.472401957
 20
-28.8723302232
 11
-63.472401957
 21
-37.3723302232
  0
LINE
  5
4F7
100
AcDbEntity
  8
IMPORT_IGES
100
AcDbLine
 62
7
  6
CONTINUOUS
 10
-75.060262913
 20
-60.2455412578
 11
-75.0518745264
 21
-60.1979683537
  0
LINE
  5
4F8
100
AcDbEntity
  8
IMPORT_IGES
100
AcDbLine
 62
7
  6
CONTINUOUS
 10
-77.1395576877
 20
-59.1719503675
 11
-77.0965720039
 21
-58.9695218527
  0
LWPOLYLINE
  5
4F9
100
AcDbEntity
  8
IMPORT_IGES
100
AcDbPolyline
 62
7
  6
CONTINUOUS
 90
12
 70
0
 10
-78.0295935864
 20
-58.8059666873
 10
-78.0292933114
 20
-58.8051974967
 10
-78.0311448587
 20
-58.7978449937
 10
-78.0363931344
 20
-58.7827026932
 10
-78.0450778737
 20
-58.7597659876
 10
-78.0575355372
 20
-58.7290582224
 10
-78.0738259448
 20
-58.6906156414
 10
-78.0938892767
 20
-58.6444529971
 10
-78.1178825334
 20
-58.5905844915
 10
-78.1458471463
 20
-58.5290554096
 10
-78.1777416841
 20
-58.4598735908
 10
-78.2534479952
 20
-58.2983473401
  0
LINE
  5
4FA
100
AcDbEntity
  8
IMPORT_IGES
100
AcDbLine
 62
250
  6
CONTINUOUS
 10
-88.6162703378
 20
-32.8343388704
 11
-89.0103244543
 21
-32.9499260794
  0
LWPOLYLINE
  5
4FB
100
AcDbEntity
  8
0
100
AcDbPolyline
 62
7
  6
CONTINUOUS
 90
10
 70
0
 43
0.3500000006
 10
-86.3295559387
 20
79.6803240051
 10
-86.2581247559
 20
79.5374616394
 10
-86.2581247559
 20
79.4660395203
 10
-86.4009871216
 20
79.3231771545
 10
-86.4724092407
 20
79.3231771545
 10
-86.5438404236
 20
79.3946083374
 10
-86.5438404236
 20
79.4660395203
 10
-86.4724092407
 20
79.6088928223
 10
-86.4009871216
 20
79.6803240051
 10
-86.3295559387
 20
79.6803240051
  0
LINE
  5
4FC
100
AcDbEntity
  8
IMPORT_IGES
100
AcDbLine
 62
7
  6
CONTINUOUS
 10
-63.472401957
 20
41.7784355221
 11
-63.972401957
 21
41.7784355221
  0
LWPOLYLINE
  5
4FD
100
AcDbEntity
  8
IMPORT_IGES
100
AcDbPolyline
 62
250
  6
CONTINUOUS
 90
10
 70
0
 10
-63.9724018912
 20
-41.5798130739
 10
-64.8391042971
 20
-42.0959243295
 10
-65.7075498193
 20
-42.6059744912
 10
-66.5777384578
 20
-43.109963559
 10
-67.4496914837
 20
-43.6079035097
 10
-68.3233876259
 20
-44.0997823664
 10
-69.1987630708
 20
-44.5855641988
 10
-70.0757965472
 20
-45.0652370304
 10
-70.9545093262
 20
-45.5388128376
 10
-71.8349014079
 20
-46.0062916207
  0
LINE
  5
4FE
100
AcDbEntity
  8
IMPORT_IGES
100
AcDbLine
 62
250
  6
CONTINUOUS
 10
-81.0459785916
 20
47.7120985238
 11
-82.3266526008
 21
48.1941581406
  0
LINE
  5
4FF
100
AcDbEntity
  8
IMPORT_IGES
100
AcDbLine
 62
250
  6
CONTINUOUS
 10
-82.3266526008
 20
48.1941581406
 11
-83.4982222559
 21
48.6390366905
  0
LINE
  5
500
100
AcDbEntity
  8
IMPORT_IGES
100
AcDbLine
 62
250
  6
CONTINUOUS
 10
-83.4982222559
 20
48.6390366905
 11
-84.3261401464
 21
48.9566740149
  0
LINE
  5
501
100
AcDbEntity
  8
IMPORT_IGES
100
AcDbLine
 62
250
  6
CONTINUOUS
 10
-84.3261401464
 20
48.9566740149
 11
-84.85913085
 21
49.1636858484
  0
LINE
  5
502
100
AcDbEntity
  8
IMPORT_IGES
100
AcDbLine
 62
250
  6
CONTINUOUS
 10
-84.85913085
 20
49.1636858484
 11
-85.1709506077
 21
49.2866363588
  0
LWPOLYLINE
  5
503
100
AcDbEntity
  8
IMPORT_IGES
100
AcDbPolyline
 62
7
  6
CONTINUOUS
 90
13
 70
0
 10
-73.8628996385
 20
-59.791490005
 10
-73.9191055661
 20
-59.8506030538
 10
-73.9735735056
 20
-59.9051111614
 10
-74.0263034568
 20
-59.9550143279
 10
-74.0773168316
 20
-60.0000482559
 10
-74.1265922182
 20
-60.0404772428
 10
-74.1740653815
 20
-60.0770941804
 10
-74.219720261
 20
-60.1099121061
 10
-74.2635729171
 20
-60.1389179826
 10
-74.3056072966
 20
-60.1648655892
 10
-74.3458180482
 20
-60.1880061857
 10
-74.3842105231
 20
-60.2080885125
 10
-74.4207847213
 20
-60.2251125694
  0
LINE
  5
504
100
AcDbEntity
  8
IMPORT_IGES
100
AcDbLine
 62
7
  6
CONTINUOUS
 10
-63.972401957
 20
-50.257508314
 11
-67.4649448439
 21
-53.7870945859
  0
LWPOLYLINE
  5
505
100
AcDbEntity
  8
IMPORT_IGES
100
AcDbPolyline
 62
7
  6
CONTINUOUS
 90
3
 70
0
 10
-67.4649448439
 20
-53.7870945859
 10
-70.9605658726
 20
-57.3143741455
 10
-71.8349014079
 20
-58.1958828359
  0
LWPOLYLINE
  5
506
100
AcDbEntity
  8
IMPORT_IGES
100
AcDbPolyline
 62
250
  6
CONTINUOUS
 90
10
 70
0
 10
-71.8349014079
 20
-50.1565375623
 10
-70.9106604863
 20
-49.6956353613
 10
-69.9990232037
 20
-49.2351853896
 10
-69.09998956
 20
-48.7749711208
 10
-68.2134877833
 20
-48.3145209288
 10
-67.3395896457
 20
-47.8539463581
 10
-66.4785104627
 20
-47.3938642831
 10
-65.6303220061
 20
-46.9343172335
 10
-64.7949525042
 20
-46.4748511291
 10
-63.972401957
 20
-46.0152990372
  0
LINE
  5
507
100
AcDbEntity
  8
IMPORT_IGES
100
AcDbLine
 62
7
  6
CONTINUOUS
 10
-63.472401957
 20
50.2784355221
 11
-63.972401957
 21
50.2784355221
  0
LWPOLYLINE
  5
508
100
AcDbEntity
  8
IMPORT_IGES
100
AcDbPolyline
 62
250
  6
CONTINUOUS
 90
25
 70
0
 10
-82.6705590792
 20
55.5963072242
 10
-82.5820874497
 20
55.5498262891
 10
-82.4834479894
 20
55.5039784555
 10
-82.3748695086
 20
55.4588578722
 10
-82.2568066167
 20
55.414650584
 10
-82.1294522787
 20
55.3714327132
 10
-81.992615335
 20
55.3291206694
 10
-81.8467658152
 20
55.287817826
 10
-81.6921635591
 20
55.2477101509
 10
-81.5281249884
 20
55.2087641038
 10
-81.3544566094
 20
55.1709890819
 10
-81.1720575422
 20
55.1346488794
 10
-80.9818719107
 20
55.100085378
 10
-80.7850045027
 20
55.0677275205
 10
-80.5815124502
 20
55.0376006549
 10
-80.3707834059
 20
55.0094468018
 10
-80.1533235479
 20
54.9835105476
 10
-79.9297987554
 20
54.9600038505
 10
-79.699761218
 20
54.9385900548
 10
-79.4636879673
 20
54.9195253642
 10
-79.2224317448
 20
54.9030753377
 10
-78.9761172603
 20
54.8889233515
 10
-78.7253030852
 20
54.877169945
 10
-78.4709808724
 20
54.8683310441
 10
-78.2139648587
 20
54.8627314449
  0
LWPOLYLINE
  5
509
100
AcDbEntity
  8
IMPORT_IGES
100
AcDbPolyline
 62
250
  6
CONTINUOUS
 90
5
 70
0
 10
-81.9028818179
 20
56.2183400306
 10
-82.4733231785
 20
56.5628776763
 10
-83.009628638
 20
56.8895226419
 10
-83.5117981963
 20
57.1980581453
 10
-83.9794252482
 20
57.4882370067
  0
LWPOLYLINE
  5
50A
100
AcDbEntity
  8
IMPORT_IGES
100
AcDbPolyline
 62
250
  6
CONTINUOUS
 90
5
 70
0
 10
-84.7725056088
 20
56.8560471969
 10
-84.2983972324
 20
56.5677682237
 10
-83.7898539306
 20
56.2618177825
 10
-83.2472525058
 20
55.9379972504
 10
-82.6705660447
 20
55.5963100518
  0
LINE
  5
50B
100
AcDbEntity
  8
IMPORT_IGES
100
AcDbLine
 62
250
  6
CONTINUOUS
 10
-85.6204915378
 20
57.3783067472
 11
-84.7725056088
 21
56.8560471969
  0
LINE
  5
50C
100
AcDbEntity
  8
IMPORT_IGES
100
AcDbLine
 62
250
  6
CONTINUOUS
 10
-86.3383083626
 20
57.8262346811
 11
-85.6204915378
 21
57.3783067472
  0
LINE
  5
50D
100
AcDbEntity
  8
IMPORT_IGES
100
AcDbLine
 62
250
  6
CONTINUOUS
 10
-83.9794252482
 20
57.4882370067
 11
-84.8134914644
 21
58.0128434498
  0
LINE
  5
50E
100
AcDbEntity
  8
IMPORT_IGES
100
AcDbLine
 62
250
  6
CONTINUOUS
 10
-87.1688477671
 20
58.3505159138
 11
-86.3383083626
 21
57.8262346811
  0
LINE
  5
50F
100
AcDbEntity
  8
IMPORT_IGES
100
AcDbLine
 62
250
  6
CONTINUOUS
 10
-87.5601651377
 20
58.5997900525
 11
-87.1688477671
 21
58.3505159138
  0
LINE
  5
510
100
AcDbEntity
  8
IMPORT_IGES
100
AcDbLine
 62
250
  6
CONTINUOUS
 10
-84.8134914644
 20
58.0128434498
 11
-85.5163479761
 21
58.4620590456
  0
LINE
  5
511
100
AcDbEntity
  8
IMPORT_IGES
100
AcDbLine
 62
250
  6
CONTINUOUS
 10
-85.5163479761
 20
58.4620590456
 11
-86.0890698508
 21
58.8320041494
  0
LINE
  5
512
100
AcDbEntity
  8
IMPORT_IGES
100
AcDbLine
 62
250
  6
CONTINUOUS
 10
-86.0890698508
 20
58.8320041494
 11
-87.1062867681
 21
59.4957990195
  0
LWPOLYLINE
  5
513
100
AcDbEntity
  8
IMPORT_IGES
100
AcDbPolyline
 62
250
  6
CONTINUOUS
 90
4
 70
0
 10
-87.9677530605
 20
58.8626755492
 10
-87.9515747257
 20
58.8518346135
 10
-87.9027149428
 20
58.820137893
 10
-87.5601651377
 20
58.5997900525
  0
LINE
  5
514
100
AcDbEntity
  8
IMPORT_IGES
100
AcDbLine
 62
250
  6
CONTINUOUS
 10
-78.2139648587
 20
54.8627314449
 11
-76.272401957
 21
54.9892333967
  0
LINE
  5
515
100
AcDbEntity
  8
IMPORT_IGES
100
AcDbLine
 62
250
  6
CONTINUOUS
 10
-76.27239927
 20
55.9477509222
 11
-78.2575440352
 21
55.8184453124
  0
LWPOLYLINE
  5
516
100
AcDbEntity
  8
IMPORT_IGES
100
AcDbPolyline
 62
250
  6
CONTINUOUS
 90
25
 70
0
 10
-78.257544193
 20
55.8184453021
 10
-78.4749894296
 20
55.8058686453
 10
-78.6879749318
 20
55.7962508146
 10
-78.8965006997
 20
55.789586457
 10
-79.100784098
 20
55.7859173249
 10
-79.300607762
 20
55.7851836364
 10
-79.4953195972
 20
55.787225109
 10
-79.6849460012
 20
55.7920136209
 10
-79.8694605764
 20
55.7995480709
 10
-80.048132036
 20
55.8097077353
 10
-80.2209607052
 20
55.8225010611
 10
-80.3879462587
 20
55.8378810249
 10
-80.5483564336
 20
55.8556444738
 10
-80.7022532581
 20
55.8758437286
 10
-80.849574704
 20
55.8983823736
 10
-80.9894024225
 20
55.9228399169
 10
-81.1214420429
 20
55.9491303617
 10
-81.245987936
 20
55.9773013607
 10
-81.3630048652
 20
56.0071399594
 10
-81.4726309335
 20
56.0386167774
 10
-81.5747280379
 20
56.0717231114
 10
-81.6688466331
 20
56.1062817492
 10
-81.7548368706
 20
56.1422231297
 10
-81.8328485988
 20
56.1795820349
 10
-81.9028818179
 20
56.2183400306
  0
LINE
  5
517
100
AcDbEntity
  8
IMPORT_IGES
100
AcDbLine
 62
7
  6
CONTINUOUS
 10
-75.772401957
 20
54.3502407213
 11
-76.072401957
 21
54.3502407213
  0
LINE
  5
518
100
AcDbEntity
  8
IMPORT_IGES
100
AcDbLine
 62
250
  6
CONTINUOUS
 10
-75.7724020089
 20
54.9904237399
 11
-71.8349014079
 21
54.8879998135
  0
LINE
  5
519
100
AcDbEntity
  8
IMPORT_IGES
100
AcDbLine
 62
7
  6
CONTINUOUS
 10
-71.8342017021
 20
55.8456983172
 11
-75.7724019068
 21
55.9478563862
  0
LINE
  5
51A
100
AcDbEntity
  8
IMPORT_IGES
100
AcDbLine
 62
7
  6
CONTINUOUS
 10
-76.272401957
 20
54.9753996683
 11
-75.7746952922
 21
54.9483022681
  0
LWPOLYLINE
  5
51B
100
AcDbEntity
  8
IMPORT_IGES
100
AcDbPolyline
 62
7
  6
CONTINUOUS
 90
13
 70
0
 10
-73.4611631906
 20
-60.2251125694
 10
-73.4301706539
 20
-60.2080884869
 10
-73.3983625674
 20
-60.1880061369
 10
-73.3657389311
 20
-60.1648655195
 10
-73.3322120133
 20
-60.1389178931
 10
-73.2978695457
 20
-60.1099119991
 10
-73.2629747234
 20
-60.0770940623
 10
-73.2275072116
 20
-60.0404771197
 10
-73.1914873451
 20
-60.0000481343
 10
-73.1552393241
 20
-59.9550142189
 10
-73.1188712155
 20
-59.9051110776
 10
-73.0822749523
 20
-59.8506030064
 10
-73.0454505347
 20
-59.791490005
  0
LWPOLYLINE
  5
51C
100
AcDbEntity
  8
IMPORT_IGES
100
AcDbPolyline
 62
7
  6
CONTINUOUS
 90
25
 70
0
 10
-74.4207847213
 20
-60.2251125694
 10
-74.431873303
 20
-60.2296130866
 10
-74.4441827667
 20
-60.2336969935
 10
-74.4575710063
 20
-60.2373642902
 10
-74.4717586944
 20
-60.2405888378
 10
-74.4867333096
 20
-60.2433967752
 10
-74.5028583335
 20
-60.2458665186
 10
-74.5202560185
 20
-60.2480376028
 10
-74.5387495468
 20
-60.249870493
 10
-74.5583536006
 20
-60.2513250012
 10
-74.5791004074
 20
-60.2523995734
 10
-74.6008715307
 20
-60.2530957637
 10
-74.6234383097
 20
-60.2533780453
 10
-74.6467329966
 20
-60.2532296186
 10
-74.6706618509
 20
-60.2526672833
 10
-74.6949199506
 20
-60.2517059119
 10
-74.7193184351
 20
-60.2503405241
 10
-74.7438470858
 20
-60.2485761001
 10
-74.7684577062
 20
-60.2464424536
 10
-74.7928307638
 20
-60.2439804095
 10
-74.817103538
 20
-60.2411491428
 10
-74.8419119409
 20
-60.2378559917
 10
-74.8673888497
 20
-60.2340700687
 10
-74.8931678112
 20
-60.2298222613
 10
-74.9191074926
 20
-60.2251125694
  0
LWPOLYLINE
  5
51D
100
AcDbEntity
  8
IMPORT_IGES
100
AcDbPolyline
 62
7
  6
CONTINUOUS
 90
5
 70
0
 10
-72.9095587821
 20
-60.1445138184
 10
-72.9259693125
 20
-60.1492089821
 10
-73.0364359419
 20
-60.1789887349
 10
-73.142980043
 20
-60.2042899306
 10
-73.2456016156
 20
-60.2251125694
  0
LINE
  5
51E
100
AcDbEntity
  8
IMPORT_IGES
100
AcDbLine
 62
7
  6
CONTINUOUS
 10
-76.2726908139
 20
60.2533578464
 11
-87.1062867681
 21
59.4957990195
  0
LWPOLYLINE
  5
51F
100
AcDbEntity
  8
0
100
AcDbPolyline
 62
7
  6
CONTINUOUS
 90
3
 70
0
 43
0.3500000006
 10
-90.1866947937
 20
79.8231773071
 10
-91.6866952515
 20
79.8231773071
 10
-91.0438417969
 20
82.1803247681
  0
LINE
  5
520
100
AcDbEntity
  8
IMPORT_IGES
100
AcDbLine
 62
7
  6
CONTINUOUS
 10
-63.972401957
 20
59.7387765453
 11
-71.8342016983
 21
59.8668319989
  0
LINE
  5
521
100
AcDbEntity
  8
IMPORT_IGES
100
AcDbLine
 62
7
  6
CONTINUOUS
 10
-63.972401957
 20
59.9786248369
 11
-71.8343702674
 21
60.1158560042
  0
LINE
  5
522
100
AcDbEntity
  8
IMPORT_IGES
100
AcDbLine
 62
7
  6
CONTINUOUS
 10
-71.8342032073
 20
60.1158531145
 11
-75.772401957
 21
60.2533780453
  0
LINE
  5
523
100
AcDbEntity
  8
IMPORT_IGES
100
AcDbLine
 62
7
  6
CONTINUOUS
 10
-75.772401957
 20
58.7271741556
 11
-76.2722326334
 21
58.7533691714
  0
LWPOLYLINE
  5
524
100
AcDbEntity
  8
IMPORT_IGES
100
AcDbPolyline
 62
250
  6
CONTINUOUS
 90
10
 70
0
 10
-71.8193464341
 20
55.0602124501
 10
-70.9436305114
 20
54.7926059972
 10
-70.0688581937
 20
54.5191585199
 10
-69.1950294809
 20
54.2398700182
 10
-68.3221247813
 20
53.9547339559
 10
-67.4501636866
 20
53.6637568692
 10
-66.5792049727
 20
53.3669583671
 10
-65.7092682315
 20
53.0643449859
 10
-64.8403338709
 20
52.7559101893
 10
-63.9724018912
 20
52.4416539772
  0
LWPOLYLINE
  5
525
100
AcDbEntity
  8
IMPORT_IGES
100
AcDbPolyline
 62
250
  6
CONTINUOUS
 90
10
 70
0
 10
-63.9722785814
 20
53.2107036447
 10
-64.8290905299
 20
53.5211302933
 10
-65.6900448278
 20
53.8268031647
 10
-66.555141475
 20
54.1277014808
 10
-67.424400271
 20
54.4238261613
 10
-68.2978014165
 20
54.7151372388
 10
-69.1752855127
 20
55.0015505439
 10
-70.0568327601
 20
55.2830226921
 10
-70.9424629583
 20
55.5595544047
 10
-71.8321761072
 20
55.8311256016
  0
LINE
  5
526
100
AcDbEntity
  8
IMPORT_IGES
100
AcDbLine
 62
7
  6
CONTINUOUS
 10
-71.8342016983
 20
59.8668319989
 11
-63.972401957
 21
55.3261777441
  0
ARC
  5
527
100
AcDbEntity
  8
IMPORT_IGES
100
AcDbCircle
 62
7
  6
CONTINUOUS
 10
0.7589515368
 20
155.0928794222
 40
178.6126070477
100
AcDbArc
 50
265.5774780737
 51
273.9252182426
  0
ARC
  5
528
100
AcDbEntity
  8
IMPORT_IGES
100
AcDbCircle
 62
7
  6
CONTINUOUS
 10
-0.0000260957
 20
-42.2899637763
 40
102.5433216228
100
AcDbArc
 50
73.3377533709
 51
106.6622466127
  0
ARC
  5
529
100
AcDbEntity
  8
IMPORT_IGES
100
AcDbCircle
 62
7
  6
CONTINUOUS
 10
-0.3561936486
 20
-101.8700822467
 40
81.8711628732
100
AcDbArc
 50
80.6148795274
 51
98.8877985782
  0
ARC
  5
52A
100
AcDbEntity
  8
IMPORT_IGES
100
AcDbCircle
 62
7
  6
CONTINUOUS
 10
0.0000317037
 20
-101.9156484845
 40
81.8711628731
100
AcDbArc
 50
80.8173153067
 51
90.0000234995
  0
ARC
  5
52B
100
AcDbEntity
  8
IMPORT_IGES
100
AcDbCircle
 62
7
  6
CONTINUOUS
 10
0.0000317037
 20
-101.9156484845
 40
81.8711628731
100
AcDbArc
 50
99.1407651672
 51
99.1827187236
  0
ARC
  5
52C
100
AcDbEntity
  8
IMPORT_IGES
100
AcDbCircle
 62
7
  6
CONTINUOUS
 10
-0.0000000009
 20
-9.3417053556
 40
49.5102740937
100
AcDbArc
 50
272.5886141938
 51
304.3509536981
  0
ARC
  5
52D
100
AcDbEntity
  8
IMPORT_IGES
100
AcDbCircle
 62
7
  6
CONTINUOUS
 10
-0.0000000009
 20
-9.3417053556
 40
49.5102740937
100
AcDbArc
 50
235.6490462709
 51
267.4113858062
  0
ARC
  5
52E
100
AcDbEntity
  8
IMPORT_IGES
100
AcDbCircle
 62
7
  6
CONTINUOUS
 10
-0.0200780009
 20
-30.2921043104
 40
25.5155887247
100
AcDbArc
 50
245.4763399044
 51
294.5239561773
  0
ARC
  5
52F
100
AcDbEntity
  8
IMPORT_IGES
100
AcDbCircle
 62
7
  6
CONTINUOUS
 10
-0.0000000009
 20
-55.3339303388
 40
4.9999999999
100
AcDbArc
 50
285.8175126806
 51
306.8698976467
  0
ARC
  5
530
100
AcDbEntity
  8
IMPORT_IGES
100
AcDbCircle
 62
7
  6
CONTINUOUS
 10
-0.0000000009
 20
-55.3339303388
 40
4.9999999999
100
AcDbArc
 50
233.1301023535
 51
245.1237928163
  0
ARC
  5
531
100
AcDbEntity
  8
IMPORT_IGES
100
AcDbCircle
 62
7
  6
CONTINUOUS
 10
25.1146427055
 20
-46.0897570529
 40
5.0
100
AcDbArc
 50
304.4416766733
 51
359.9169220504
  0
ARC
  5
532
100
AcDbEntity
  8
IMPORT_IGES
100
AcDbCircle
 62
7
  6
CONTINUOUS
 10
-25.1146427072
 20
-46.0897570529
 40
5.0
100
AcDbArc
 50
180.0830924936
 51
235.5589173542
  0
ARC
  5
533
100
AcDbEntity
  8
IMPORT_IGES
100
AcDbCircle
 62
7
  6
CONTINUOUS
 10
10.8637793887
 20
-11.9910995983
 40
102.0495239352
100
AcDbArc
 50
191.8516825079
 51
206.475400739
  0
ARC
  5
534
100
AcDbEntity
  8
IMPORT_IGES
100
AcDbCircle
 62
7
  6
CONTINUOUS
 10
-84.2859460329
 20
-30.2921043104
 40
25.5155887247
100
AcDbArc
 50
171.9717560775
 51
270.771781227
  0
ARC
  5
535
100
AcDbEntity
  8
IMPORT_IGES
100
AcDbCircle
 62
7
  6
CONTINUOUS
 10
-74.272401957
 20
-55.3339303388
 40
4.9999999999
100
AcDbArc
 50
285.8175126805
 51
306.8698976464
  0
ARC
  5
536
100
AcDbEntity
  8
IMPORT_IGES
100
AcDbCircle
 62
7
  6
CONTINUOUS
 10
-74.272401957
 20
-55.3339303388
 40
4.9999999999
100
AcDbArc
 50
233.1301023536
 51
254.1824873195
  0
ARC
  5
537
100
AcDbEntity
  8
IMPORT_IGES
100
AcDbCircle
 62
7
  6
CONTINUOUS
 10
-93.9037193897
 20
-33.9768171093
 40
5.0
100
AcDbArc
 50
11.851684424
 51
82.00011161
  0
ENDSEC
  0
SECTION
  2
OBJECTS
  0
DICTIONARY
  5
C
100
AcDbDictionary
280
0
281
1
  3
ACAD_GROUP
350
D
  3
ACAD_MLINESTYLE
350
17
  3
ACAD_LAYOUT
350
1A
  3
ACAD_PLOTSETTINGS
350
19
  3
ACAD_PLOTSTYLENAME
350
E
  0
DICTIONARY
  5
D
102
{ACAD_REACTORS
330
C
102
}
100
AcDbDictionary
280
0
281
1
  0
ACDBDICTIONARYWDFLT
  5
E
102
{ACAD_REACTORS
330
C
102
}
100
AcDbDictionary
281
1
  3
Normal
350
F
100
AcDbDictionaryWithDefault
340
F
  0
DICTIONARY
  5
17
102
{ACAD_REACTORS
330
C
102
}
100
AcDbDictionary
280
0
281
1
  3
Standard
350
18
  0
DICTIONARY
  5
19
102
{ACAD_REACTORS
330
C
102
}
100
AcDbDictionary
281
1
  0
DICTIONARY
  5
1A
102
{ACAD_REACTORS
330
C
102
}
100
AcDbDictionary
281
1
  3
Model
350
538
  3
Layout1
350
539
  0
ACDBPLACEHOLDER
  5
F
102
{ACAD_REACTORS
330
E
102
}
  0
MLINESTYLE
  5
18
102
{ACAD_REACTORS
330
17
102
}
100
AcDbMlineStyle
  2
STANDARD
 70
0
  3

 62
256
 51
90.0
 52
90.0
 71
2
 49
0.5
 62
256
  6
BYLAYER
 49
-0.5
 62
256
  6
BYLAYER
  0
LAYOUT
  5
538
102
{ACAD_REACTORS
330
1A
102
}
100
AcDbPlotSettings
  1

  2
none_device
  4
ISO_A4_(297.00_x_210.00_MM)
  6

 40
0.0
 41
0.0
 42
0.0
 43
0.0
 44
297.0
 45
210.0
 46
0.0
 47
0.0
 48
0.0
 49
0.0
140
0.0
141
0.0
142
1.0
143
1.0
 70
1024
 72
1
 73
0
 74
0
  7

 75
0
147
1.0
148
0.0
149
0.0
100
AcDbLayout
  1
Model
 70
0
 71
0
 10
0.0
 20
0.0
 11
297.0
 21
210.0
 12
0.0
 22
0.0
 32
0.0
 14
0.0
 24
0.0
 34
0.0
 15
0.0
 25
0.0
 35
0.0
146
0.0
 13
0.0
 23
0.0
 33
0.0
 16
1.0
 26
0.0
 36
0.0
 17
0.0
 27
1.0
 37
0.0
 76
0
330
251
345
0
346
0
  0
LAYOUT
  5
539
102
{ACAD_REACTORS
330
1A
102
}
100
AcDbPlotSettings
  1

  2
none_device
  4
ISO_A4_(297.00_x_210.00_MM)
  6

 40
0.0
 41
0.0
 42
0.0
 43
0.0
 44
297.0
 45
210.0
 46
0.0
 47
0.0
 48
0.0
 49
0.0
140
0.0
141
0.0
142
1.0
143
1.0
 70
0
 72
1
 73
0
 74
0
  7

 75
0
147
1.0
148
0.0
149
0.0
100
AcDbLayout
  1
Layout1
 70
0
 71
1
 10
0.0
 20
0.0
 11
297.0
 21
210.0
 12
0.0
 22
0.0
 32
0.0
 14
0.0
 24
0.0
 34
0.0
 15
0.0
 25
0.0
 35
0.0
146
0.0
 13
0.0
 23
0.0
 33
0.0
 16
1.0
 26
0.0
 36
0.0
 17
0.0
 27
1.0
 37
0.0
 76
0
330
252
345
0
346
0
  0
ENDSEC
  0
EOF
