  0
SECTION
  2
HEADER
  9
$ACADVER
  1
AC1024
  9
$DWGCODEPAGE
  3
ANSI_1252
  9
$EXTMAX
 10
297.0
 20
210.0
 30
0.0
  9
$EXTMIN
 10
0.0
 20
0.0
 30
0.0
  9
$LIMMIN
 10
0.0
 20
0.0
  9
$LIMMAX
 10
297.0
 20
210.0
  9
$VIEWCTR
 10
148.5
 20
105.0
  9
$VIEWSIZE
 40
210.0
  9
$CLAYER
  8
0
  9
$LTSCALE
 40
16.335
  9
$CELTYPE
  6
BYLAYER
  9
$DIMSCALE
 40
1.0
  9
$DIMASZ
 40
3.0
  9
$DIMEXO
 40
0.5
  9
$DIMDLI
 40
11.286
  9
$DIMEXE
 40
1.5
  9
$DIMCEN
 40
2.673
  9
$DIMLFAC
 40
1.0
  9
$DIMBLK
  1
_FILLED
  9
$DIMALT
 70
0
  9
$DIMALTF
 40
0.0393700787
  9
$DIMTXT
 40
3.0
  9
$DIMTOL
 70
1
  9
$DIMLIM
 70
0
  9
$DIMTFAC
 40
1.0
  9
$DIMTP
 40
0.01
  9
$DIMTM
 40
0.01
  9
$DIMGAP
 40
0.625
  9
$DIMDSEP
 70
44
  9
$AUNITS
 70
0
  9
$PDMODE
 70
3
  9
$PDSIZE
 40
3.0
  9
$HANDSEED
  5
35D
  9
$TILEMODE
 70
1
  9
$MEASUREMENT
 70
1
  9
$INSUNITS
 70
4
  0
ENDSEC
  0
SECTION
  2
CLASSES
  0
CLASS
  1
ACDBDICTIONARYWDFLT
  2
AcDbDictionaryWithDefault
  3
AutoCAD 2000
 90
0
 91
1
280
0
281
0
  0
CLASS
  1
ACDBPLACEHOLDER
  2
AcDbPlaceHolder
  3
AutoCAD 2000
 90
0
 91
1
280
0
281
0
  0
CLASS
  1
LAYOUT
  2
AcDbLayout
  3
AutoCAD 2000
 90
0
 91
0
280
0
281
0
  0
ENDSEC
  0
SECTION
  2
TABLES
  0
TABLE
  2
VPORT
  5
8
100
AcDbSymbolTable
 70
2
  0
VPORT
  5
1F4
100
AcDbSymbolTableRecord
100
AcDbViewportTableRecord
  2
*ACTIVE
 70
0
 10
0.0
 20
0.0
 11
1.0
 21
1.0
 12
148.5
 22
105.0
 13
0.0
 23
0.0
 14
1.0
 24
1.0
 15
0.0
 25
0.0
 16
0.0
 26
0.0
 36
1.0
 17
0.0
 27
0.0
 37
0.0
 40
210.0
 41
1.4142857143
 42
50.0
 43
0.0
 44
0.0
 50
0.0
 51
0.0
 71
0
 72
100
 73
1
 74
1
 75
0
 76
0
 77
0
 78
0
  0
ENDTAB
  0
TABLE
  2
LTYPE
  5
5
100
AcDbSymbolTable
 70
6
  0
LTYPE
  5
14
100
AcDbSymbolTableRecord
100
AcDbLinetypeTableRecord
  2
BYBLOCK
 70
0
  3

 72
65
 73
0
 40
0.0
  0
LTYPE
  5
15
100
AcDbSymbolTableRecord
100
AcDbLinetypeTableRecord
  2
BYLAYER
 70
0
  3

 72
65
 73
0
 40
0.0
  0
LTYPE
  5
16
100
AcDbSymbolTableRecord
100
AcDbLinetypeTableRecord
  2
CONTINUOUS
 70
64
  3
Solid line
 72
65
 73
0
 40
0.0
  0
LTYPE
  5
1F5
100
AcDbSymbolTableRecord
100
AcDbLinetypeTableRecord
  2
CENTER
 70
64
  3
____ _ ____ _ ____ _ ____ _ ____ _ ____ _ ____
 72
65
 73
4
 40
0.6
 49
0.375
 74
0
 49
-0.075
 74
0
 49
0.075
 74
0
 49
-0.075
 74
0
  0
LTYPE
  5
1F6
100
AcDbSymbolTableRecord
100
AcDbLinetypeTableRecord
  2
HIDDEN
 70
64
  3
- - - - - - - - - - - - - - - - - - - -
 72
65
 73
2
 40
0.2
 49
0.1
 74
0
 49
-0.1
 74
0
  0
LTYPE
  5
1F7
100
AcDbSymbolTableRecord
100
AcDbLinetypeTableRecord
  2
PHANTOM
 70
64
  3
_____ _ _ _____ _ _ _____ _ _ _____
 72
65
 73
6
 40
0.8
 49
0.45
 74
0
 49
-0.05
 74
0
 49
0.1
 74
0
 49
-0.05
 74
0
 49
0.1
 74
0
 49
-0.05
 74
0
  0
LTYPE
  5
1F8
100
AcDbSymbolTableRecord
100
AcDbLinetypeTableRecord
  2
DOT
 70
64
  3
. . . . . . . . . . . . . . . . . . . .
 72
65
 73
2
 40
0.2
 49
0.1
 74
0
 49
-0.1
 74
0
  0
LTYPE
  5
1F9
100
AcDbSymbolTableRecord
100
AcDbLinetypeTableRecord
  2
DASHED
 70
64
  3
- - - - - - - - - - - - - - - - - - - -
 72
65
 73
2
 40
0.2
 49
0.1
 74
0
 49
-0.1
 74
0
  0
ENDTAB
  0
TABLE
  2
LAYER
  5
2
100
AcDbSymbolTable
 70
36
  0
LAYER
  5
10
100
AcDbSymbolTableRecord
100
AcDbLayerTableRecord
  2
0
 70
0
 62
7
  6
CONTINUOUS
370
-3
390
F
  0
LAYER
  5
1FA
100
AcDbSymbolTableRecord
100
AcDbLayerTableRecord
  2
DEFAULT_1
 70
0
 62
7
  6
CENTER
370
-3
390
F
  0
LAYER
  5
1FB
100
AcDbSymbolTableRecord
100
AcDbLayerTableRecord
  2
DEFAULT_2
 70
0
 62
7
  6
HIDDEN
370
-3
390
F
  0
LAYER
  5
1FC
100
AcDbSymbolTableRecord
100
AcDbLayerTableRecord
  2
DEFAULT_3
 70
0
 62
7
  6
PHANTOM
370
-3
390
F
  0
LAYER
  5
1FD
100
AcDbSymbolTableRecord
100
AcDbLayerTableRecord
  2
ASSI
 70
0
 62
7
  6
CONTINUOUS
370
-3
390
F
  0
LAYER
  5
1FE
100
AcDbSymbolTableRecord
100
AcDbLayerTableRecord
  2
BASE-QDT200-NEO-10-02-2021_OA_1
 70
0
 62
7
  6
CONTINUOUS
370
-3
390
F
  0
LAYER
  5
1FF
100
AcDbSymbolTableRecord
100
AcDbLayerTableRecord
  2
BATTERIA_LITIO_0_0_OA_1
 70
0
 62
7
  6
CONTINUOUS
370
-3
390
F
  0
LAYER
  5
200
100
AcDbSymbolTableRecord
100
AcDbLayerTableRecord
  2
BATTERY-HOLDER-TYPEAA_0_0_OA_10
 70
0
 62
7
  6
CONTINUOUS
370
-3
390
F
  0
LAYER
  5
201
100
AcDbSymbolTableRecord
100
AcDbLayerTableRecord
  2
BATTERY-HOLDER-TYPEAA_0_0_OA_7
 70
0
 62
7
  6
CONTINUOUS
370
-3
390
F
  0
LAYER
  5
202
100
AcDbSymbolTableRecord
100
AcDbLayerTableRecord
  2
BATTERY_HOLDER_CLIP__0_0_OA_6
 70
0
 62
7
  6
CONTINUOUS
370
-3
390
F
  0
LAYER
  5
203
100
AcDbSymbolTableRecord
100
AcDbLayerTableRecord
  2
BATTERY_HOLDER_CLIP__0_0_OA_9
 70
0
 62
7
  6
CONTINUOUS
370
-3
390
F
  0
LAYER
  5
204
100
AcDbSymbolTableRecord
100
AcDbLayerTableRecord
  2
CLIP_BATT-AA-13-02-2019_0-32367
 70
0
 62
7
  6
CONTINUOUS
370
-3
390
F
  0
LAYER
  5
205
100
AcDbSymbolTableRecord
100
AcDbLayerTableRecord
  2
CLIP_BATT-AA-13-02-2019_0-32372
 70
0
 62
7
  6
CONTINUOUS
370
-3
390
F
  0
LAYER
  5
206
100
AcDbSymbolTableRecord
100
AcDbLayerTableRecord
  2
COLOR14
 70
0
 62
7
  6
CONTINUOUS
370
-3
390
F
  0
LAYER
  5
207
100
AcDbSymbolTableRecord
100
AcDbLayerTableRecord
  2
COLOR31
 70
0
 62
7
  6
CONTINUOUS
370
-3
390
F
  0
LAYER
  5
208
100
AcDbSymbolTableRecord
100
AcDbLayerTableRecord
  2
COLOR37
 70
0
 62
7
  6
CONTINUOUS
370
-3
390
F
  0
LAYER
  5
209
100
AcDbSymbolTableRecord
100
AcDbLayerTableRecord
  2
COLOR40
 70
0
 62
7
  6
CONTINUOUS
370
-3
390
F
  0
LAYER
  5
20A
100
AcDbSymbolTableRecord
100
AcDbLayerTableRecord
  2
COLOR42
 70
0
 62
7
  6
CONTINUOUS
370
-3
390
F
  0
LAYER
  5
20B
100
AcDbSymbolTableRecord
100
AcDbLayerTableRecord
  2
COLOR46
 70
0
 62
7
  6
CONTINUOUS
370
-3
390
F
  0
LAYER
  5
20C
100
AcDbSymbolTableRecord
100
AcDbLayerTableRecord
  2
COORDINATE
 70
0
 62
7
  6
CONTINUOUS
370
-3
390
F
  0
LAYER
  5
20D
100
AcDbSymbolTableRecord
100
AcDbLayerTableRecord
  2
COPY_PUBLISH
 70
0
 62
7
  6
CONTINUOUS
370
-3
390
F
  0
LAYER
  5
20E
100
AcDbSymbolTableRecord
100
AcDbLayerTableRecord
  2
COSMETICI
 70
0
 62
7
  6
CONTINUOUS
370
-3
390
F
  0
LAYER
  5
20F
100
AcDbSymbolTableRecord
100
AcDbLayerTableRecord
  2
COVER-QDT-200-NEO-10-02-2021_OA
 70
0
 62
7
  6
CONTINUOUS
370
-3
390
F
  0
LAYER
  5
210
100
AcDbSymbolTableRecord
100
AcDbLayerTableRecord
  2
CURVE
 70
0
 62
7
  6
CONTINUOUS
370
-3
390
F
  0
LAYER
  5
211
100
AcDbSymbolTableRecord
100
AcDbLayerTableRecord
  2
DRAFT
 70
0
 62
7
  6
CONTINUOUS
370
-3
390
F
  0
LAYER
  5
212
100
AcDbSymbolTableRecord
100
AcDbLayerTableRecord
  2
GUARNIZIONE_QDT600-W
 70
0
 62
7
  6
CONTINUOUS
370
-3
390
F
  0
LAYER
  5
213
100
AcDbSymbolTableRecord
100
AcDbLayerTableRecord
  2
IMPORT_IGES
 70
0
 62
7
  6
CONTINUOUS
370
-3
390
F
  0
LAYER
  5
214
100
AcDbSymbolTableRecord
100
AcDbLayerTableRecord
  2
LED5MM_0_0
 70
0
 62
7
  6
CONTINUOUS
370
-3
390
F
  0
LAYER
  5
215
100
AcDbSymbolTableRecord
100
AcDbLayerTableRecord
  2
LENTE_0_0_OA_2
 70
0
 62
7
  6
CONTINUOUS
370
-3
390
F
  0
LAYER
  5
216
100
AcDbSymbolTableRecord
100
AcDbLayerTableRecord
  2
MICROONDA-PICCOLA_0_0
 70
0
 62
7
  6
CONTINUOUS
370
-3
390
F
  0
LAYER
  5
217
100
AcDbSymbolTableRecord
100
AcDbLayerTableRecord
  2
NOTE
 70
0
 62
7
  6
CONTINUOUS
370
-3
390
F
  0
LAYER
  5
218
100
AcDbSymbolTableRecord
100
AcDbLayerTableRecord
  2
PCB_0_0_OA_0
 70
0
 62
7
  6
CONTINUOUS
370
-3
390
F
  0
LAYER
  5
219
100
AcDbSymbolTableRecord
100
AcDbLayerTableRecord
  2
PIANI
 70
0
 62
7
  6
CONTINUOUS
370
-3
390
F
  0
LAYER
  5
21A
100
AcDbSymbolTableRecord
100
AcDbLayerTableRecord
  2
PIR-HOUSING-11-01-2019_0_0_OA_4
 70
0
 62
7
  6
CONTINUOUS
370
-3
390
F
  0
LAYER
  5
21B
100
AcDbSymbolTableRecord
100
AcDbLayerTableRecord
  2
PORTALENTE-SENSORI-QDT_OA_13
 70
0
 62
7
  6
CONTINUOUS
370
-3
390
F
  0
LAYER
  5
21C
100
AcDbSymbolTableRecord
100
AcDbLayerTableRecord
  2
PULSANTE_0_0_OA_3
 70
0
 62
7
  6
CONTINUOUS
370
-3
390
F
  0
LAYER
  5
21D
100
AcDbSymbolTableRecord
100
AcDbLayerTableRecord
  2
PUNTI
 70
0
 62
7
  6
CONTINUOUS
370
-3
390
F
  0
LAYER
  5
21E
100
AcDbSymbolTableRecord
100
AcDbLayerTableRecord
  2
RACCORDO
 70
0
 62
7
  6
CONTINUOUS
370
-3
390
F
  0
LAYER
  5
21F
100
AcDbSymbolTableRecord
100
AcDbLayerTableRecord
  2
SIMBOLI
 70
0
 62
7
  6
CONTINUOUS
370
-3
390
F
  0
LAYER
  5
220
100
AcDbSymbolTableRecord
100
AcDbLayerTableRecord
  2
SMUSSO
 70
0
 62
7
  6
CONTINUOUS
370
-3
390
F
  0
LAYER
  5
221
100
AcDbSymbolTableRecord
100
AcDbLayerTableRecord
  2
SUPERFICI
 70
0
 62
7
  6
CONTINUOUS
370
-3
390
F
  0
LAYER
  5
222
100
AcDbSymbolTableRecord
100
AcDbLayerTableRecord
  2
SUPPORT-MICROWAVE-LED-09-01-201
 70
0
 62
7
  6
CONTINUOUS
370
-3
390
F
  0
LAYER
  5
223
100
AcDbSymbolTableRecord
100
AcDbLayerTableRecord
  2
TRASH
 70
0
 62
7
  6
CONTINUOUS
370
-3
390
F
  0
LAYER
  5
224
100
AcDbSymbolTableRecord
100
AcDbLayerTableRecord
  2
___SHELL
 70
0
 62
7
  6
CONTINUOUS
370
-3
390
F
  0
ENDTAB
  0
TABLE
  2
STYLE
  5
3
100
AcDbSymbolTable
 70
1
  0
STYLE
  5
11
100
AcDbSymbolTableRecord
100
AcDbTextStyleTableRecord
  2
STANDARD
 70
0
 40
0.0
 41
0.8
 50
0.0
 71
0
 42
0.2
  3
txt
  4

  0
STYLE
  5
225
100
AcDbSymbolTableRecord
100
AcDbTextStyleTableRecord
  2
TEXTSTYLE_1
 70
0
 40
0.0
 41
0.8
 50
0.0
 71
0
 42
0.2
  3
gdt
  4

  0
ENDTAB
  0
TABLE
  2
VIEW
  5
6
100
AcDbSymbolTable
 70
0
  0
ENDTAB
  0
TABLE
  2
UCS
  5
7
100
AcDbSymbolTable
 70
0
  0
ENDTAB
  0
TABLE
  2
APPID
  5
9
100
AcDbSymbolTable
 70
1
  0
APPID
  5
226
100
AcDbSymbolTableRecord
100
AcDbRegAppTableRecord
  2
ACAD
 70
0
  0
ENDTAB
  0
TABLE
  2
BLOCK_RECORD
  5
1
100
AcDbSymbolTable
 70
0
  0
BLOCK_RECORD
  5
227
100
AcDbSymbolTableRecord
100
AcDbBlockTableRecord
  2
*Model_Space
  0
BLOCK_RECORD
  5
228
100
AcDbSymbolTableRecord
100
AcDbBlockTableRecord
  2
*Paper_Space
  0
BLOCK_RECORD
  5
229
100
AcDbSymbolTableRecord
100
AcDbBlockTableRecord
  2
_FILLED
  0
BLOCK_RECORD
  5
22A
100
AcDbSymbolTableRecord
100
AcDbBlockTableRecord
  2
*D0
  0
BLOCK_RECORD
  5
22B
100
AcDbSymbolTableRecord
100
AcDbBlockTableRecord
  2
*D1
  0
BLOCK_RECORD
  5
22C
100
AcDbSymbolTableRecord
100
AcDbBlockTableRecord
  2
*D2
  0
ENDTAB
  0
TABLE
  2
DIMSTYLE
  5
A
100
AcDbSymbolTable
 70
1
100
AcDbDimStyleTable
 71
0
  0
DIMSTYLE
105
22D
100
AcDbSymbolTableRecord
100
AcDbDimStyleTableRecord
  2
STANDARD
 70
0
  3

  4

 40
1.0
 41
3.0
 42
0.5
 43
0.38
 44
1.5
 45
0.0
 46
0.0
 47
0.01
 48
0.01
140
3.0
141
0.09
142
0.0
143
25.4
144
1.0
145
0.0
146
1.0
147
0.625
 71
1
 72
0
 73
0
 74
0
 75
0
 76
0
 77
1
 78
8
 79
2
170
0
171
1
172
0
173
0
174
0
175
0
176
0
177
0
178
0
270
2
179
2
271
2
272
2
273
2
274
2
275
0
280
0
281
0
282
0
283
1
284
8
285
0
286
0
287
3
288
0
340
11
278
44
341
229
342
229
343
229
344
229
  0
DIMSTYLE
105
22E
100
AcDbSymbolTableRecord
100
AcDbDimStyleTableRecord
  2
DIMSTYLE_1
 70
0
  3

  4

 40
1.0
 41
3.0
 42
0.5
 43
0.38
 44
1.5
 45
0.0
 46
0.0
 47
0.0
 48
0.0
140
3.0
141
0.09
142
0.0
143
25.4
144
1.0
145
0.0
146
1.0
147
0.75
 71
0
 72
0
 73
0
 74
0
 75
0
 76
0
 77
1
 78
8
 79
2
170
0
171
1
172
0
173
0
174
0
175
0
176
0
177
0
178
0
270
2
179
2
271
1
272
1
273
2
274
2
275
0
280
0
281
0
282
0
283
1
284
8
285
0
286
0
287
3
288
0
340
11
278
44
341
229
342
229
343
229
344
229
  0
ENDTAB
  0
ENDSEC
  0
SECTION
  2
BLOCKS
  0
BLOCK
  5
20
100
AcDbEntity
  8
0
100
AcDbBlockBegin
  2
*Model_Space
 70
0
 10
0.0
 20
0.0
 30
0.0
  3
*Model_Space
  1

  0
ENDBLK
  5
21
100
AcDbEntity
  8
0
100
AcDbBlockEnd
  0
BLOCK
  5
1C
100
AcDbEntity
  8
0
100
AcDbBlockBegin
  2
*Paper_Space
 70
0
 10
0.0
 20
0.0
 30
0.0
  3
*Paper_Space
  1

  0
ENDBLK
  5
1D
100
AcDbEntity
  8
0
100
AcDbBlockEnd
  0
BLOCK
  5
22F
100
AcDbEntity
  8
0
100
AcDbBlockBegin
  2
_FILLED
 70
64
 10
0.0
 20
0.0
  3
_FILLED
  1

  0
SOLID
  5
230
100
AcDbEntity
  8
0
  6
BYBLOCK
 62
0
100
AcDbTrace
 10
0.0
 20
0.0
 11
-1.0
 21
0.3166666667
 12
-1.0
 22
-0.3166666667
 13
-1.0
 23
-0.3166666667
  0
ENDBLK
  5
231
100
AcDbEntity
  8
0
  6
BYBLOCK
 62
0
100
AcDbBlockEnd
  0
BLOCK
  5
232
100
AcDbEntity
  8
0
100
AcDbBlockBegin
 62
7
  6
CONTINUOUS
  2
*D0
 70
65
 10
0.0
 20
0.0
  3
*D0
  1

  0
LINE
  5
233
100
AcDbEntity
  8
0
100
AcDbLine
 62
7
  6
CONTINUOUS
 10
11.2841694019
 20
69.0357681765
 11
35.1463167928
 21
69.0357681765
  0
LINE
  5
234
100
AcDbEntity
  8
0
100
AcDbLine
 62
7
  6
CONTINUOUS
 10
11.1641714981
 20
-69.0357681765
 11
35.1463167928
 21
-69.0357681765
  0
LINE
  5
235
100
AcDbEntity
  8
0
100
AcDbLine
 62
7
  6
CONTINUOUS
 10
33.6463167928
 20
69.0357681765
 11
33.6463167928
 21
0.0
  0
LINE
  5
236
100
AcDbEntity
  8
0
100
AcDbLine
 62
7
  6
CONTINUOUS
 10
33.6463167928
 20
-69.0357681765
 11
33.6463167928
 21
0.0
  0
INSERT
  5
237
100
AcDbEntity
  8
0
100
AcDbBlockReference
 62
7
  6
CONTINUOUS
  2
_FILLED
 10
33.6463167928
 20
69.0357681765
 41
3.0
 42
3.0
 43
3.0
 50
90.0
  0
INSERT
  5
238
100
AcDbEntity
  8
0
100
AcDbBlockReference
 62
7
  6
CONTINUOUS
  2
_FILLED
 10
33.6463167928
 20
-69.0357681765
 41
3.0
 42
3.0
 43
3.0
 50
270.0
  0
ENDBLK
  5
239
100
AcDbEntity
  8
0
  6
BYBLOCK
 62
0
100
AcDbBlockEnd
  0
BLOCK
  5
23A
100
AcDbEntity
  8
0
100
AcDbBlockBegin
 62
7
  6
CONTINUOUS
  2
*D1
 70
65
 10
0.0
 20
0.0
  3
*D1
  1

  0
LINE
  5
23B
100
AcDbEntity
  8
0
100
AcDbLine
 62
7
  6
CONTINUOUS
 10
17.6197621052
 20
62.7001754732
 11
17.6197621052
 21
82.2962188284
  0
LINE
  5
23C
100
AcDbEntity
  8
0
100
AcDbLine
 62
7
  6
CONTINUOUS
 10
-17.6197621052
 20
62.7001754732
 11
-17.6197621052
 21
82.2962188284
  0
LINE
  5
23D
100
AcDbEntity
  8
0
100
AcDbLine
 62
7
  6
CONTINUOUS
 10
17.6197621052
 20
80.7962188284
 11
-0.0
 21
80.7962188284
  0
LINE
  5
23E
100
AcDbEntity
  8
0
100
AcDbLine
 62
7
  6
CONTINUOUS
 10
-17.6197621052
 20
80.7962188284
 11
-0.0
 21
80.7962188284
  0
INSERT
  5
23F
100
AcDbEntity
  8
0
100
AcDbBlockReference
 62
7
  6
CONTINUOUS
  2
_FILLED
 10
17.6197621052
 20
80.7962188284
 41
3.0
 42
3.0
 43
3.0
  0
INSERT
  5
240
100
AcDbEntity
  8
0
100
AcDbBlockReference
 62
7
  6
CONTINUOUS
  2
_FILLED
 10
-17.6197621052
 20
80.7962188284
 41
3.0
 42
3.0
 43
3.0
 50
180.0
  0
ENDBLK
  5
241
100
AcDbEntity
  8
0
  6
BYBLOCK
 62
0
100
AcDbBlockEnd
  0
BLOCK
  5
242
100
AcDbEntity
  8
0
100
AcDbBlockBegin
 62
7
  6
CONTINUOUS
  2
*D2
 70
65
 10
0.0
 20
0.0
  3
*D2
  1

  0
LINE
  5
243
100
AcDbEntity
  8
0
100
AcDbLine
 62
7
  6
CONTINUOUS
 10
-43.6741211499
 20
62.6301754732
 11
-43.6741211499
 21
82.4757156286
  0
LINE
  5
244
100
AcDbEntity
  8
0
100
AcDbLine
 62
7
  6
CONTINUOUS
 10
-78.0050299219
 20
0.4859307772
 11
-78.0050299219
 21
82.4757156286
  0
LINE
  5
245
100
AcDbEntity
  8
0
100
AcDbLine
 62
7
  6
CONTINUOUS
 10
-43.6741211499
 20
80.9757156286
 11
-60.8395755359
 21
80.9757156286
  0
LINE
  5
246
100
AcDbEntity
  8
0
100
AcDbLine
 62
7
  6
CONTINUOUS
 10
-78.0050299219
 20
80.9757156286
 11
-60.8395755359
 21
80.9757156286
  0
INSERT
  5
247
100
AcDbEntity
  8
0
100
AcDbBlockReference
 62
7
  6
CONTINUOUS
  2
_FILLED
 10
-43.6741211499
 20
80.9757156286
 41
3.0
 42
3.0
 43
3.0
  0
INSERT
  5
248
100
AcDbEntity
  8
0
100
AcDbBlockReference
 62
7
  6
CONTINUOUS
  2
_FILLED
 10
-78.0050299219
 20
80.9757156286
 41
3.0
 42
3.0
 43
3.0
 50
180.0
  0
ENDBLK
  5
249
100
AcDbEntity
  8
0
  6
BYBLOCK
 62
0
100
AcDbBlockEnd
  0
ENDSEC
  0
SECTION
  2
ENTITIES
  0
DIMENSION
  5
24A
100
AcDbEntity
  8
0
100
AcDbDimension
 62
7
  6
CONTINUOUS
  2
*D0
 10
33.6463167928
 20
-69.0357681765
 11
33.6463167928
 21
-4.8214285714
 70
160
 71
2
 72
2
 41
0.9
 42
138.0715363531
  3
DIMSTYLE_1
100
AcDbAlignedDimension
 13
10.7841694019
 23
69.0357681765
 14
10.6641714981
 24
-69.0357681765
 50
270.0
100
AcDbRotatedDimension
  0
DIMENSION
  5
24B
100
AcDbEntity
  8
0
100
AcDbDimension
 62
7
  6
CONTINUOUS
  2
*D1
 10
-17.6197621052
 20
80.7962188284
 11
-4.1785714286
 21
80.7962188284
 70
160
 71
2
 72
2
 41
0.9
 42
35.2395242105
  3
DIMSTYLE_1
100
AcDbAlignedDimension
 13
17.6197621052
 23
62.2001754732
 14
-17.6197621052
 24
62.2001754732
 50
180.0
100
AcDbRotatedDimension
  0
DIMENSION
  5
24C
100
AcDbEntity
  8
0
100
AcDbDimension
 62
7
  6
CONTINUOUS
  2
*D2
 10
-78.0050299219
 20
80.9757156286
 11
-65.0181469645
 21
80.9757156286
 70
160
 71
2
 72
2
 41
0.9
 42
34.330908772
  3
DIMSTYLE_1
100
AcDbAlignedDimension
 13
-43.6741211499
 23
62.1301754732
 14
-78.0050299219
 24
-0.0140692228
 50
180.0
100
AcDbRotatedDimension
  0
LWPOLYLINE
  5
24D
100
AcDbEntity
  8
0
100
AcDbPolyline
 62
7
  6
CONTINUOUS
 90
5
 70
0
 43
0.3500000006
 10
-3.3214284925
 20
83.2605027466
 10
-2.9642856073
 20
83.4747872314
 10
-2.9642856073
 20
84.1176497498
 10
-3.3214284925
 20
84.5462187195
 10
-4.1785715303
 20
84.5462187195
  0
LWPOLYLINE
  5
24E
100
AcDbEntity
  8
IMPORT_IGES
100
AcDbPolyline
 62
250
  6
CONTINUOUS
 90
37
 70
0
 10
10.7927342918
 20
-67.8144854081
 10
11.0306281007
 20
-67.8080911844
 10
11.2690177222
 20
-67.7914138673
 10
11.5074518955
 20
-67.7644283665
 10
11.7454848042
 20
-67.7271067952
 10
11.9826362069
 20
-67.6794313702
 10
12.2183934321
 20
-67.6214000312
 10
12.4522129121
 20
-67.5529831878
 10
12.6836697646
 20
-67.4741927602
 10
12.9124295321
 20
-67.3850765437
 10
13.1384042668
 20
-67.2854797207
 10
13.3606723509
 20
-67.1756537523
 10
13.5777125018
 20
-67.0563794284
 10
13.7886147417
 20
-66.9282756833
 10
13.9934372355
 20
-66.7913925967
 10
14.1921490083
 20
-66.6457368094
 10
14.3844515502
 20
-66.4913656722
 10
14.5696872428
 20
-66.328715145
 10
14.7472848175
 20
-66.1583211762
 10
14.9169557296
 20
-65.9805557981
 10
15.0784181754
 20
-65.7957242742
 10
15.2311554792
 20
-65.6043241651
 10
15.3745875153
 20
-65.4073582977
 10
15.5090879367
 20
-65.2047842171
 10
15.63538368
 20
-64.9954548588
 10
15.7537047872
 20
-64.7785669847
 10
15.8630660795
 20
-64.5555851074
 10
15.9624017331
 20
-64.328771997
 10
16.0514043078
 20
-64.0991603583
 10
16.130235175
 20
-63.8666912094
 10
16.1988064722
 20
-63.6320878467
 10
16.257073543
 20
-63.3958652556
 10
16.3049818176
 20
-63.1584117712
 10
16.3424775398
 20
-62.920248886
 10
16.36952703
 20
-62.6818333599
 10
16.3861047293
 20
-62.4435557634
 10
16.3921851174
 20
-62.2058244395
  0
LWPOLYLINE
  5
24F
100
AcDbEntity
  8
IMPORT_IGES
100
AcDbPolyline
 62
250
  6
CONTINUOUS
 90
73
 70
0
 10
10.7841694021
 20
-68.790196356
 10
10.9276250317
 20
-68.7886435155
 10
11.0712426768
 20
-68.7839576914
 10
11.2149535307
 20
-68.7761260791
 10
11.3587506309
 20
-68.7651318821
 10
11.5025013101
 20
-68.7509680731
 10
11.6459485814
 20
-68.7336510839
 10
11.7889741744
 20
-68.7131940547
 10
11.9315581614
 20
-68.6895986979
 10
12.0735928341
 20
-68.6628814498
 10
12.2150081831
 20
-68.6330553708
 10
12.3557377961
 20
-68.6001343587
 10
12.4956807478
 20
-68.5641431108
 10
12.6348107382
 20
-68.5250891279
 10
12.7730204669
 20
-68.4830032694
 10
12.9100918426
 20
-68.4379597599
 10
13.0458415589
 20
-68.3900366386
 10
13.1803324021
 20
-68.3392296353
 10
13.3137147593
 20
-68.2854875549
 10
13.4459447033
 20
-68.228824894
 10
13.5769375221
 20
-68.1692746809
 10
13.7067735504
 20
-68.1067921611
 10
13.8354901025
 20
-68.0413408886
 10
13.962912344
 20
-67.9729910349
 10
14.0888043416
 20
-67.9018618861
 10
14.2130660491
 20
-67.82801171
 10
14.3356781251
 20
-67.7514537641
 10
14.45653486
 20
-67.6722562333
 10
14.5756353287
 20
-67.5904214932
 10
14.6928675544
 20
-67.5060282783
 10
14.8079726122
 20
-67.4192780028
 10
14.9209159567
 20
-67.3302221336
 10
15.0316481753
 20
-67.238925439
 10
15.1399124089
 20
-67.1456385818
 10
15.2454699192
 20
-67.0506315876
 10
15.3485195958
 20
-66.9537906713
 10
15.4494506235
 20
-66.8547778868
 10
15.5482031977
 20
-66.7536550179
 10
15.6447480568
 20
-66.6504551967
 10
15.7394659175
 20
-66.5447433817
 10
15.8324808401
 20
-66.436306235
 10
15.9235107648
 20
-66.3253954413
 10
16.0123108337
 20
-66.2122600133
 10
16.0988250458
 20
-66.0969350073
 10
16.1829902127
 20
-65.979467227
 10
16.2645816432
 20
-65.8601488324
 10
16.3435116277
 20
-65.7391084391
 10
16.4197894228
 20
-65.6163322154
 10
16.4933558353
 20
-65.491912923
 10
16.5641690126
 20
-65.365922274
 10
16.6322019126
 20
-65.2384093475
 10
16.6974218037
 20
-65.109435506
 10
16.7597973478
 20
-64.9790627895
 10
16.8192985605
 20
-64.8473539396
 10
16.8758967979
 20
-64.7143723834
 10
16.9295648695
 20
-64.5801821023
 10
16.9802769912
 20
-64.4448476616
 10
17.0280087515
 20
-64.3084342416
 10
17.072737225
 20
-64.1710074925
 10
17.1144409415
 20
-64.0326335183
 10
17.1530998457
 20
-63.8933789145
 10
17.188712253
 20
-63.7532411115
 10
17.2212411563
 20
-63.61235636
 10
17.2506294988
 20
-63.4710032545
 10
17.2768837464
 20
-63.3292139261
 10
17.2999968366
 20
-63.1870971366
 10
17.3199290572
 20
-63.0450526254
 10
17.3366995279
 20
-62.9032165524
 10
17.3503453589
 20
-62.7615962192
 10
17.3608865892
 20
-62.6204003941
 10
17.368360555
 20
-62.4797440727
 10
17.3728118223
 20
-62.3396475015
 10
17.3742822151
 20
-62.2001754732
  0
LINE
  5
250
100
AcDbEntity
  8
IMPORT_IGES
100
AcDbLine
 62
250
  6
CONTINUOUS
 10
10.7927342918
 20
-67.8144854081
 11
3.4602070399
 21
-67.8734112963
  0
LWPOLYLINE
  5
251
100
AcDbEntity
  8
IMPORT_IGES
100
AcDbPolyline
 62
250
  6
CONTINUOUS
 90
3
 70
0
 10
3.4602070399
 20
-67.8734112963
 10
1.1382486498
 20
-67.8852558064
 10
-0.0002966817
 20
-67.8890278713
  0
LINE
  5
252
100
AcDbEntity
  8
IMPORT_IGES
100
AcDbLine
 62
7
  6
CONTINUOUS
 10
10.6641714981
 20
-69.0357681765
 11
-10.6641714981
 21
-69.0357681765
  0
LINE
  5
253
100
AcDbEntity
  8
IMPORT_IGES
100
AcDbLine
 62
7
  6
CONTINUOUS
 10
10.7841694019
 20
-69.0001754732
 11
-10.7841694019
 21
-69.0001754732
  0
LINE
  5
254
100
AcDbEntity
  8
IMPORT_IGES
100
AcDbLine
 62
250
  6
CONTINUOUS
 10
-10.7841694033
 20
-68.7901963536
 11
10.7841694021
 21
-68.790196356
  0
LWPOLYLINE
  5
255
100
AcDbEntity
  8
IMPORT_IGES
100
AcDbPolyline
 62
250
  6
CONTINUOUS
 90
3
 70
0
 10
0.0003300177
 20
-67.8890280269
 10
-2.2938780362
 20
-67.8800437162
 10
-3.4630174253
 20
-67.8733965436
  0
LINE
  5
256
100
AcDbEntity
  8
IMPORT_IGES
100
AcDbLine
 62
250
  6
CONTINUOUS
 10
-3.4630174253
 20
-67.8733965436
 11
-10.7927342921
 21
-67.814484411
  0
LWPOLYLINE
  5
257
100
AcDbEntity
  8
IMPORT_IGES
100
AcDbPolyline
 62
250
  6
CONTINUOUS
 90
37
 70
0
 10
-10.7927342921
 20
-67.814484411
 10
-11.0312346443
 20
-67.8081329307
 10
-11.2693146329
 20
-67.7914696204
 10
-11.5069723484
 20
-67.7644927673
 10
-11.7446852286
 20
-67.7272126859
 10
-11.9819735545
 20
-67.679615735
 10
-12.2173997796
 20
-67.6216644253
 10
-12.4509188189
 20
-67.5533138526
 10
-12.6825752612
 20
-67.4746061463
 10
-12.9110657082
 20
-67.385634705
 10
-13.1368269085
 20
-67.2860081435
 10
-13.359423888
 20
-67.1761157729
 10
-13.5762445287
 20
-67.0572227491
 10
-13.7866637305
 20
-66.9295962786
 10
-13.9913076105
 20
-66.7929686601
 10
-14.1894394807
 20
-66.6478034126
 10
-14.3812568819
 20
-66.4938871425
 10
-14.5665633725
 20
-66.3314334334
 10
-14.7440299402
 20
-66.1615467962
 10
-14.9135286813
 20
-65.9841756868
 10
-15.0751859292
 20
-65.7993727922
 10
-15.2280520082
 20
-65.6083995357
 10
-15.3717428836
 20
-65.4117454999
 10
-15.5066377454
 20
-65.2089229252
 10
-15.6329307217
 20
-64.9997274318
 10
-15.7511548071
 20
-64.7831154907
 10
-15.8607715743
 20
-64.5601323279
 10
-15.9603665631
 20
-64.3337069903
 10
-16.0495511278
 20
-64.1042804212
 10
-16.1287048775
 20
-63.8714140893
 10
-16.1975641526
 20
-63.6367181906
 10
-16.2560978555
 20
-63.4002702993
 10
-16.3043287393
 20
-63.1619951938
 10
-16.3420738298
 20
-62.9232739516
 10
-16.3692700374
 20
-62.6845676866
 10
-16.3859744756
 20
-62.4454175009
 10
-16.3921851174
 20
-62.2058244395
  0
LWPOLYLINE
  5
258
100
AcDbEntity
  8
IMPORT_IGES
100
AcDbPolyline
 62
250
  6
CONTINUOUS
 90
5
 70
0
 10
17.3372011943
 20
-62.2016532785
 10
17.3529958457
 20
-62.2012879448
 10
17.3644666489
 20
-62.200917957
 10
17.371554777
 20
-62.2005462576
 10
17.3742822151
 20
-62.2001754732
  0
LINE
  5
259
100
AcDbEntity
  8
IMPORT_IGES
100
AcDbLine
 62
250
  6
CONTINUOUS
 10
17.2930597575
 20
-62.2023614467
 11
17.3372011943
 21
-62.2016532785
  0
LINE
  5
25A
100
AcDbEntity
  8
IMPORT_IGES
100
AcDbLine
 62
250
  6
CONTINUOUS
 10
17.1981939019
 20
-62.2033375411
 11
17.2930597575
 21
-62.2023614467
  0
LINE
  5
25B
100
AcDbEntity
  8
IMPORT_IGES
100
AcDbLine
 62
250
  6
CONTINUOUS
 10
16.8742531119
 20
-62.2050447316
 11
17.1981939019
 21
-62.2033375411
  0
LINE
  5
25C
100
AcDbEntity
  8
IMPORT_IGES
100
AcDbLine
 62
250
  6
CONTINUOUS
 10
16.3921851174
 20
-62.2058244395
 11
16.8742531119
 21
-62.2050447316
  0
LINE
  5
25D
100
AcDbEntity
  8
IMPORT_IGES
100
AcDbLine
 62
250
  6
CONTINUOUS
 10
17.3742822151
 20
-62.2001754732
 11
17.6197621052
 21
-62.2001754732
  0
LINE
  5
25E
100
AcDbEntity
  8
IMPORT_IGES
100
AcDbLine
 62
250
  6
CONTINUOUS
 10
-17.3742822151
 20
-62.2001754732
 11
-17.6197621052
 21
-62.2001754732
  0
LINE
  5
25F
100
AcDbEntity
  8
IMPORT_IGES
100
AcDbLine
 62
250
  6
CONTINUOUS
 10
-16.3921847414
 20
-62.2058244395
 11
-17.0276270878
 21
-62.2044214011
  0
LINE
  5
260
100
AcDbEntity
  8
IMPORT_IGES
100
AcDbLine
 62
250
  6
CONTINUOUS
 10
-17.0276270878
 20
-62.2044214011
 11
-17.2333778269
 21
-62.2030256109
  0
LWPOLYLINE
  5
261
100
AcDbEntity
  8
IMPORT_IGES
100
AcDbPolyline
 62
250
  6
CONTINUOUS
 90
7
 70
0
 10
-17.2333778269
 20
-62.2030256109
 10
-17.3171862158
 20
-62.2020116517
 10
-17.3372011944
 20
-62.2016532785
 10
-17.3529958457
 20
-62.2012879448
 10
-17.3644666488
 20
-62.2009179571
 10
-17.3715547768
 20
-62.2005462576
 10
-17.3742822151
 20
-62.2001754732
  0
LWPOLYLINE
  5
262
100
AcDbEntity
  8
IMPORT_IGES
100
AcDbPolyline
 62
7
  6
CONTINUOUS
 90
13
 70
0
 10
-0.0
 20
-59.2570385785
 10
0.3615873544
 20
-59.2329732928
 10
0.7376871776
 20
-59.1954616456
 10
1.1282994694
 20
-59.1445031586
 10
1.5387553166
 20
-59.0794085121
 10
1.9637236326
 20
-59.0008655266
 10
2.387211157
 20
-58.910939335
 10
2.7987408502
 20
-58.8118402397
 10
3.2087897519
 20
-58.7013560661
 10
3.6327957214
 20
-58.574917736
 10
4.0759047115
 20
-58.4310006866
 10
4.5329707694
 20
-58.2711254039
 10
5.003993895
 20
-58.0952895826
  0
LWPOLYLINE
  5
263
100
AcDbEntity
  8
IMPORT_IGES
100
AcDbPolyline
 62
7
  6
CONTINUOUS
 90
13
 70
0
 10
-0.0
 20
-59.2570385785
 10
-0.3621175441
 20
-59.2329404089
 10
-0.7385921434
 20
-59.195408196
 10
-1.129423798
 20
-59.1444414615
 10
-1.5398724107
 20
-59.0793650008
 10
-1.9646780788
 20
-59.0008525216
 10
-2.3880610937
 20
-58.9109268111
 10
-2.7996825136
 20
-58.8117580114
 10
-3.2098812804
 20
-58.7011740997
 10
-3.6338945116
 20
-58.5746841253
 10
-4.0768012463
 20
-58.4307895753
 10
-4.5335224455
 20
-58.2709848995
 10
-5.0040581091
 20
-58.0952678007
  0
LINE
  5
264
100
AcDbEntity
  8
IMPORT_IGES
100
AcDbLine
 62
250
  6
CONTINUOUS
 10
5.0039939063
 20
-30.09965414
 11
-5.0039939063
 21
-30.09965414
  0
LWPOLYLINE
  5
265
100
AcDbEntity
  8
0
100
AcDbPolyline
 62
7
  6
CONTINUOUS
 90
3
 70
0
 43
0.3500000006
 10
0.8214285793
 20
81.8319334717
 10
0.7500000165
 20
81.6176489868
 10
0.6071428907
 20
81.3319333191
  0
LWPOLYLINE
  5
266
100
AcDbEntity
  8
IMPORT_IGES
100
AcDbPolyline
 62
250
  6
CONTINUOUS
 90
73
 70
0
 10
-17.3742822151
 20
-62.2001754732
 10
-17.37281181
 20
-62.3396475993
 10
-17.3683605267
 20
-62.4797443515
 10
-17.3608865358
 20
-62.6204009372
 10
-17.3503452599
 20
-62.761597173
 10
-17.3366993606
 20
-62.9032179987
 10
-17.3199288185
 20
-63.045054455
 10
-17.2999965383
 20
-63.1870992107
 10
-17.2768834005
 20
-63.3292161372
 10
-17.2506291357
 20
-63.4710053991
 10
-17.2212408421
 20
-63.6123581276
 10
-17.1887120493
 20
-63.7532423048
 10
-17.1530997625
 20
-63.8933795678
 10
-17.1144409748
 20
-64.0326336963
 10
-17.0727373794
 20
-64.1710072285
 10
-17.0280089903
 20
-64.308433701
 10
-16.9802772376
 20
-64.4448470867
 10
-16.9295650621
 20
-64.5801816503
 10
-16.8758969151
 20
-64.7143721014
 10
-16.8192985798
 20
-64.8473538742
 10
-16.7597972413
 20
-64.9790629851
 10
-16.6974215908
 20
-65.1094359004
 10
-16.63220164
 20
-65.2384098362
 10
-16.5641687093
 20
-65.3659227994
 10
-16.4933555149
 20
-65.4919134575
 10
-16.4197890996
 20
-65.6163327328
 10
-16.3435113188
 20
-65.7391089138
 10
-16.2645813494
 20
-65.8601492659
 10
-16.1829899286
 20
-65.9794676293
 10
-16.0988247717
 20
-66.0969353796
 10
-16.0123105689
 20
-66.2122603581
 10
-15.9235105084
 20
-66.3253957612
 10
-15.8324805911
 20
-66.4363065324
 10
-15.7394656743
 20
-66.5447436597
 10
-15.6447478172
 20
-66.6504554591
 10
-15.5482029596
 20
-66.7536552674
 10
-15.4494503863
 20
-66.8547781247
 10
-15.3485193589
 20
-66.9537908988
 10
-15.2454696818
 20
-67.050631806
 10
-15.1399121716
 20
-67.1456387908
 10
-15.031647939
 20
-67.2389256384
 10
-14.9209157218
 20
-67.3302223231
 10
-14.8079723797
 20
-67.4192781823
 10
-14.6928673252
 20
-67.5060284475
 10
-14.5756351037
 20
-67.590421652
 10
-14.4565346404
 20
-67.6722563813
 10
-14.3356779126
 20
-67.7514539007
 10
-14.2130658449
 20
-67.8280118349
 10
-14.0888041454
 20
-67.9018620003
 10
-13.9629121548
 20
-67.9729911393
 10
-13.8354899198
 20
-68.0413409839
 10
-13.7067733736
 20
-68.1067922482
 10
-13.5769373497
 20
-68.1692747611
 10
-13.4459445346
 20
-68.2288249681
 10
-13.3137145962
 20
-68.2854876223
 10
-13.180332248
 20
-68.339229695
 10
-13.0458414158
 20
-68.3900366905
 10
-12.9100917102
 20
-68.4379598045
 10
-12.7730203443
 20
-68.4830033075
 10
-12.6348106248
 20
-68.5250891599
 10
-12.4956806425
 20
-68.5641431378
 10
-12.3557376961
 20
-68.6001343817
 10
-12.215008087
 20
-68.6330553904
 10
-12.0735927428
 20
-68.6628814662
 10
-11.9315580768
 20
-68.6895987109
 10
-11.7889740976
 20
-68.7131940646
 10
-11.6459485131
 20
-68.7336510909
 10
-11.502501251
 20
-68.7509680775
 10
-11.3587505818
 20
-68.7651318844
 10
-11.2149534926
 20
-68.7761260795
 10
-11.0712426508
 20
-68.7839576904
 10
-10.9276250188
 20
-68.7886435135
 10
-10.7841694032
 20
-68.7901963536
  0
LINE
  5
267
100
AcDbEntity
  8
IMPORT_IGES
100
AcDbLine
 62
250
  6
CONTINUOUS
 10
-16.4405847433
 20
-55.1594445622
 11
-16.5547976482
 21
-42.8177516115
  0
LINE
  5
268
100
AcDbEntity
  8
IMPORT_IGES
100
AcDbLine
 62
250
  6
CONTINUOUS
 10
-16.5547976482
 20
-42.8177516115
 11
-16.5857023853
 21
-39.3049621644
  0
LINE
  5
269
100
AcDbEntity
  8
IMPORT_IGES
100
AcDbLine
 62
250
  6
CONTINUOUS
 10
-16.5857023853
 20
-39.3049621644
 11
-16.6133705959
 21
-35.8090079946
  0
LINE
  5
26A
100
AcDbEntity
  8
IMPORT_IGES
100
AcDbLine
 62
250
  6
CONTINUOUS
 10
-16.4137476661
 20
-58.6829997104
 11
-16.4405847433
 21
-55.1594445622
  0
LINE
  5
26B
100
AcDbEntity
  8
IMPORT_IGES
100
AcDbLine
 62
250
  6
CONTINUOUS
 10
-16.6133705959
 20
-35.8090079946
 11
-16.636640021
 21
-32.3101042774
  0
LINE
  5
26C
100
AcDbEntity
  8
IMPORT_IGES
100
AcDbLine
 62
250
  6
CONTINUOUS
 10
-16.3921851174
 20
-62.2058244395
 11
-16.4137476661
 21
-58.6829997104
  0
LINE
  5
26D
100
AcDbEntity
  8
IMPORT_IGES
100
AcDbLine
 62
250
  6
CONTINUOUS
 10
-16.636640021
 20
-32.3101042774
 11
-16.6550745991
 21
-28.8116016241
  0
LINE
  5
26E
100
AcDbEntity
  8
IMPORT_IGES
100
AcDbLine
 62
250
  6
CONTINUOUS
 10
-16.6550745991
 20
-28.8116016241
 11
-16.6692997544
 21
-25.3135370416
  0
LINE
  5
26F
100
AcDbEntity
  8
IMPORT_IGES
100
AcDbLine
 62
250
  6
CONTINUOUS
 10
-16.6692997544
 20
-25.3135370416
 11
-16.7190505287
 21
-9.656446001
  0
LINE
  5
270
100
AcDbEntity
  8
IMPORT_IGES
100
AcDbLine
 62
250
  6
CONTINUOUS
 10
-16.7190505287
 20
-9.656446001
 11
-16.7283697165
 21
-6.1858889243
  0
LINE
  5
271
100
AcDbEntity
  8
IMPORT_IGES
100
AcDbLine
 62
250
  6
CONTINUOUS
 10
-16.7283697165
 20
-6.1858889243
 11
-16.7340751196
 21
-2.7136584578
  0
LINE
  5
272
100
AcDbEntity
  8
IMPORT_IGES
100
AcDbLine
 62
7
  6
CONTINUOUS
 10
-17.6197621052
 20
-62.2001754732
 11
-17.6197621052
 21
62.2001754732
  0
LINE
  5
273
100
AcDbEntity
  8
IMPORT_IGES
100
AcDbLine
 62
7
  6
CONTINUOUS
 10
-17.5841694019
 20
-62.2001754732
 11
-17.5841694019
 21
62.2001754732
  0
LINE
  5
274
100
AcDbEntity
  8
IMPORT_IGES
100
AcDbLine
 62
250
  6
CONTINUOUS
 10
-17.3741625085
 20
62.2001754732
 11
-17.3713860497
 21
-22.6345358904
  0
LINE
  5
275
100
AcDbEntity
  8
IMPORT_IGES
100
AcDbLine
 62
250
  6
CONTINUOUS
 10
-17.3713860497
 20
-22.6345358904
 11
-17.3742822151
 21
-62.2001754732
  0
LINE
  5
276
100
AcDbEntity
  8
IMPORT_IGES
100
AcDbLine
 62
250
  6
CONTINUOUS
 10
-16.7340751196
 20
-2.7136584578
 11
-16.734966536
 21
0.7555146787
  0
LINE
  5
277
100
AcDbEntity
  8
IMPORT_IGES
100
AcDbLine
 62
250
  6
CONTINUOUS
 10
-16.734966536
 20
0.7555146787
 11
-16.7306072687
 21
4.1997131661
  0
LINE
  5
278
100
AcDbEntity
  8
IMPORT_IGES
100
AcDbLine
 62
250
  6
CONTINUOUS
 10
-16.7306072687
 20
4.1997131661
 11
-16.7220847076
 21
7.6406904452
  0
LINE
  5
279
100
AcDbEntity
  8
IMPORT_IGES
100
AcDbLine
 62
250
  6
CONTINUOUS
 10
-16.7220847076
 20
7.6406904452
 11
-16.6448258978
 21
29.9426946376
  0
LINE
  5
27A
100
AcDbEntity
  8
IMPORT_IGES
100
AcDbLine
 62
250
  6
CONTINUOUS
 10
-16.6448258978
 20
29.9426946376
 11
-16.623392502
 21
35.0639485445
  0
LINE
  5
27B
100
AcDbEntity
  8
IMPORT_IGES
100
AcDbLine
 62
250
  6
CONTINUOUS
 10
-16.623392502
 20
35.0639485445
 11
-16.6058874599
 21
38.480068505
  0
LINE
  5
27C
100
AcDbEntity
  8
IMPORT_IGES
100
AcDbLine
 62
250
  6
CONTINUOUS
 10
-16.6058874599
 20
38.480068505
 11
-16.5852391789
 21
41.893359748
  0
LINE
  5
27D
100
AcDbEntity
  8
IMPORT_IGES
100
AcDbLine
 62
250
  6
CONTINUOUS
 10
-16.5852391789
 20
41.893359748
 11
-16.5610448259
 21
45.2820731054
  0
LINE
  5
27E
100
AcDbEntity
  8
IMPORT_IGES
100
AcDbLine
 62
250
  6
CONTINUOUS
 10
-16.5610448259
 20
45.2820731054
 11
-16.5322400399
 21
48.6677802519
  0
LINE
  5
27F
100
AcDbEntity
  8
IMPORT_IGES
100
AcDbLine
 62
250
  6
CONTINUOUS
 10
-16.4476847479
 20
57.1339090523
 11
-16.4026286609
 21
62.2094486239
  0
LINE
  5
280
100
AcDbEntity
  8
IMPORT_IGES
100
AcDbLine
 62
250
  6
CONTINUOUS
 10
-16.5322400399
 20
48.6677802519
 11
-16.4476847479
 21
57.1339090523
  0
LWPOLYLINE
  5
281
100
AcDbEntity
  8
IMPORT_IGES
100
AcDbPolyline
 62
250
  6
CONTINUOUS
 90
37
 70
0
 10
-16.4026286609
 20
62.2094486239
 10
-16.396158186
 20
62.4477817872
 10
-16.3793982168
 20
62.6857248004
 10
-16.3523498717
 20
62.9232764486
 10
-16.3150355071
 20
63.1609154213
 10
-16.2674370366
 20
63.3981604971
 10
-16.2094956897
 20
63.633570566
 10
-16.1411719078
 20
63.8670992127
 10
-16.0625124431
 20
64.0987902
 10
-15.9735882353
 20
64.3273377295
 10
-15.874010596
 20
64.5531738448
 10
-15.7641769281
 20
64.7758638244
 10
-15.6453362264
 20
64.9928020726
 10
-15.5177534527
 20
65.2033628817
 10
-15.381169759
 20
65.4081700378
 10
-15.2360467077
 20
65.6064926382
 10
-15.0821732206
 20
65.7985282069
 10
-14.9197645292
 20
65.9840776119
 10
-14.7499200025
 20
66.1618153835
 10
-14.5725854807
 20
66.3316182747
 10
-14.3878158286
 20
66.4936087205
 10
-14.1968719754
 20
66.6468303613
 10
-14.0002454429
 20
66.7909015209
 10
-13.7974428855
 20
66.9262039845
 10
-13.5882472621
 20
67.0529268913
 10
-13.3716064828
 20
67.171613045
 10
-13.1485722199
 20
67.2817199093
 10
-12.9220821757
 20
67.3818091815
 10
-12.69257539
 20
67.4714950996
 10
-12.4596115315
 20
67.5511653391
 10
-12.2248080318
 20
67.6205425434
 10
-11.9882412153
 20
67.6796033313
 10
-11.7498357879
 20
67.7283737483
 10
-11.5109814455
 20
67.7666509841
 10
-11.2721423187
 20
67.7943685717
 10
-11.0328575487
 20
67.8115962541
 10
-10.7931295641
 20
67.8183357318
  0
LINE
  5
282
100
AcDbEntity
  8
IMPORT_IGES
100
AcDbLine
 62
7
  6
CONTINUOUS
 10
-5.0039939063
 20
-14.3630441146
 11
5.0039939063
 21
-14.3630441146
  0
LWPOLYLINE
  5
283
100
AcDbEntity
  8
IMPORT_IGES
100
AcDbPolyline
 62
250
  6
CONTINUOUS
 90
6
 70
0
 10
-10.786942197
 20
-68.733581315
 10
-10.7864008748
 20
-68.7534274195
 10
-10.7858491481
 20
-68.769087868
 10
-10.7852904772
 20
-68.7804611454
 10
-10.7847292532
 20
-68.7874900456
 10
-10.7841694046
 20
-68.7901963536
  0
LINE
  5
284
100
AcDbEntity
  8
IMPORT_IGES
100
AcDbLine
 62
250
  6
CONTINUOUS
 10
-10.7879823911
 20
-68.6818749054
 11
-10.786942197
 21
-68.733581315
  0
LINE
  5
285
100
AcDbEntity
  8
IMPORT_IGES
100
AcDbLine
 62
250
  6
CONTINUOUS
 10
-10.789394424
 20
-68.5775009411
 11
-10.7879823911
 21
-68.6818749054
  0
LINE
  5
286
100
AcDbEntity
  8
IMPORT_IGES
100
AcDbLine
 62
250
  6
CONTINUOUS
 10
-10.7912478872
 20
-68.346668852
 11
-10.789394424
 21
-68.5775009411
  0
LWPOLYLINE
  5
287
100
AcDbEntity
  8
IMPORT_IGES
100
AcDbPolyline
 62
250
  6
CONTINUOUS
 90
3
 70
0
 10
-10.7927342921
 20
-67.814484411
 10
-10.7926988971
 20
-67.8781181162
 10
-10.7912478872
 20
-68.346668852
  0
LINE
  5
288
100
AcDbEntity
  8
IMPORT_IGES
100
AcDbLine
 62
250
  6
CONTINUOUS
 10
-10.7841694033
 20
-68.7901963536
 11
-10.7841694019
 21
-69.0357678859
  0
LINE
  5
289
100
AcDbEntity
  8
IMPORT_IGES
100
AcDbLine
 62
250
  6
CONTINUOUS
 10
-10.7841694019
 20
68.7901675127
 11
-10.7841694019
 21
69.0357681765
  0
LINE
  5
28A
100
AcDbEntity
  8
IMPORT_IGES
100
AcDbLine
 62
250
  6
CONTINUOUS
 10
-10.7931295641
 20
67.8183357121
 11
-10.7918631543
 21
68.2962161059
  0
LINE
  5
28B
100
AcDbEntity
  8
IMPORT_IGES
100
AcDbLine
 62
250
  6
CONTINUOUS
 10
-10.7918631543
 20
68.2962161059
 11
-10.7900658614
 21
68.537781069
  0
LINE
  5
28C
100
AcDbEntity
  8
IMPORT_IGES
100
AcDbLine
 62
250
  6
CONTINUOUS
 10
-10.7900658614
 20
68.537781069
 11
-10.788662914
 21
68.6511550503
  0
LWPOLYLINE
  5
28D
100
AcDbEntity
  8
IMPORT_IGES
100
AcDbPolyline
 62
250
  6
CONTINUOUS
 90
8
 70
0
 10
-10.788662914
 20
68.6511550503
 10
-10.7876147626
 20
68.7100427787
 10
-10.7870630975
 20
68.733843762
 10
-10.7864980791
 20
68.7535875945
 10
-10.7859222699
 20
68.7691667787
 10
-10.7853392664
 20
68.7804810026
 10
-10.7847536185
 20
68.7874740263
 10
-10.7841694019
 20
68.7901675127
  0
LINE
  5
28E
100
AcDbEntity
  8
IMPORT_IGES
100
AcDbLine
 62
7
  6
CONTINUOUS
 10
-5.0068041976
 20
-13.3740750034
 11
-5.0068041976
 21
13.374142062
  0
LINE
  5
28F
100
AcDbEntity
  8
IMPORT_IGES
100
AcDbLine
 62
7
  6
CONTINUOUS
 10
-5.0039939287
 20
-58.0952895826
 11
-5.0039939287
 21
-13.3740750034
  0
LINE
  5
290
100
AcDbEntity
  8
IMPORT_IGES
100
AcDbLine
 62
7
  6
CONTINUOUS
 10
-5.0039939287
 20
13.3741085327
 11
-5.0039939287
 21
58.5519071856
  0
LINE
  5
291
100
AcDbEntity
  8
IMPORT_IGES
100
AcDbLine
 62
250
  6
CONTINUOUS
 10
-0.1
 20
68.789408816
 11
-0.1
 21
67.8888957516
  0
LINE
  5
292
100
AcDbEntity
  8
IMPORT_IGES
100
AcDbLine
 62
250
  6
CONTINUOUS
 10
0.0000228229
 20
67.8890388069
 11
-0.0000297186
 21
59.1749166587
  0
LINE
  5
293
100
AcDbEntity
  8
IMPORT_IGES
100
AcDbLine
 62
250
  6
CONTINUOUS
 10
0.1
 20
67.8888957516
 11
0.1
 21
68.789408816
  0
LINE
  5
294
100
AcDbEntity
  8
IMPORT_IGES
100
AcDbLine
 62
250
  6
CONTINUOUS
 10
-0.0002633091
 20
-59.2570123335
 11
-0.0011470221
 21
-68.6687080054
  0
LWPOLYLINE
  5
295
100
AcDbEntity
  8
IMPORT_IGES
100
AcDbPolyline
 62
250
  6
CONTINUOUS
 90
5
 70
0
 10
-0.0011470221
 20
-68.6687080054
 10
-0.0017155292
 20
-68.7657943279
 10
-0.0018626888
 20
-68.7785216028
 10
-0.0020132552
 20
-68.7863938801
 10
-0.0021684169
 20
-68.7894077725
  0
LWPOLYLINE
  5
296
100
AcDbEntity
  8
0
100
AcDbPolyline
 62
7
  6
CONTINUOUS
 90
4
 70
0
 43
0.3500000006
 10
32.4677453384
 20
-0.9642850342
 10
31.6106028671
 20
-0.9642850342
 10
31.1820316315
 20
-0.5357137985
 10
31.1820316315
 20
0.107141922
  0
LINE
  5
297
100
AcDbEntity
  8
IMPORT_IGES
100
AcDbLine
 62
7
  6
CONTINUOUS
 10
5.0039939287
 20
58.5519071858
 11
5.0039939287
 21
13.374142062
  0
LINE
  5
298
100
AcDbEntity
  8
IMPORT_IGES
100
AcDbLine
 62
7
  6
CONTINUOUS
 10
5.0039939287
 20
-13.3740750034
 11
5.0039939287
 21
-58.0952678535
  0
LINE
  5
299
100
AcDbEntity
  8
IMPORT_IGES
100
AcDbLine
 62
7
  6
CONTINUOUS
 10
5.0068041976
 20
13.3741085327
 11
5.0068041976
 21
-13.3740750034
  0
LWPOLYLINE
  5
29A
100
AcDbEntity
  8
IMPORT_IGES
100
AcDbPolyline
 62
250
  6
CONTINUOUS
 90
6
 70
0
 10
10.7870630975
 20
68.733843762
 10
10.7864980791
 20
68.7535875945
 10
10.7859222699
 20
68.7691667787
 10
10.7853392665
 20
68.7804810025
 10
10.7847536185
 20
68.7874740262
 10
10.7841694019
 20
68.7901675127
  0
LINE
  5
29B
100
AcDbEntity
  8
IMPORT_IGES
100
AcDbLine
 62
250
  6
CONTINUOUS
 10
10.7881490313
 20
68.6824017988
 11
10.7870630975
 21
68.733843762
  0
LINE
  5
29C
100
AcDbEntity
  8
IMPORT_IGES
100
AcDbLine
 62
250
  6
CONTINUOUS
 10
10.7896239656
 20
68.5785405149
 11
10.7881490313
 21
68.6824017988
  0
LINE
  5
29D
100
AcDbEntity
  8
IMPORT_IGES
100
AcDbLine
 62
250
  6
CONTINUOUS
 10
10.7915628568
 20
68.3487237872
 11
10.7896239656
 21
68.5785405149
  0
LINE
  5
29E
100
AcDbEntity
  8
IMPORT_IGES
100
AcDbLine
 62
250
  6
CONTINUOUS
 10
10.7930152237
 20
67.9449388461
 11
10.7915628568
 21
68.3487237872
  0
LINE
  5
29F
100
AcDbEntity
  8
IMPORT_IGES
100
AcDbLine
 62
250
  6
CONTINUOUS
 10
10.7931295641
 20
67.8183357318
 11
10.7930152237
 21
67.9449388461
  0
LINE
  5
2A0
100
AcDbEntity
  8
IMPORT_IGES
100
AcDbLine
 62
250
  6
CONTINUOUS
 10
10.7841694019
 20
-69.0357678859
 11
10.7841694021
 21
-68.790196356
  0
LINE
  5
2A1
100
AcDbEntity
  8
IMPORT_IGES
100
AcDbLine
 62
250
  6
CONTINUOUS
 10
10.7841694019
 20
68.7901675127
 11
10.7841694019
 21
69.0357681765
  0
LINE
  5
2A2
100
AcDbEntity
  8
IMPORT_IGES
100
AcDbLine
 62
250
  6
CONTINUOUS
 10
10.7927342921
 20
-67.8144846316
 11
10.7915344192
 21
-68.2939512789
  0
LINE
  5
2A3
100
AcDbEntity
  8
IMPORT_IGES
100
AcDbLine
 62
250
  6
CONTINUOUS
 10
10.7915344192
 20
-68.2939512789
 11
10.7898171881
 21
-68.5365513973
  0
LINE
  5
2A4
100
AcDbEntity
  8
IMPORT_IGES
100
AcDbLine
 62
250
  6
CONTINUOUS
 10
10.7898171881
 20
-68.5365513973
 11
10.7884744857
 21
-68.6504705406
  0
LWPOLYLINE
  5
2A5
100
AcDbEntity
  8
IMPORT_IGES
100
AcDbPolyline
 62
250
  6
CONTINUOUS
 90
8
 70
0
 10
10.7884744857
 20
-68.6504705406
 10
10.7874706604
 20
-68.7096577532
 10
10.7869421942
 20
-68.7335814308
 10
10.7864008729
 20
-68.7534274805
 10
10.7858491449
 20
-68.7690879446
 10
10.7852904699
 20
-68.7804612657
 10
10.7847292396
 20
-68.7874901627
 10
10.7841693831
 20
-68.7901963755
  0
LWPOLYLINE
  5
2A6
100
AcDbEntity
  8
0
100
AcDbPolyline
 62
7
  6
CONTINUOUS
 90
10
 70
0
 43
0.3500000006
 10
32.3963164215
 20
2.0357136154
 10
32.5391742554
 20
2.1071425323
 10
32.6106031723
 20
2.1071425323
 10
32.7534587402
 20
1.9642846985
 10
32.7534587402
 20
1.8928580475
 10
32.6820320892
 20
1.8214291306
 10
32.6106031723
 20
1.8214291306
 10
32.4677453384
 20
1.8928580475
 10
32.3963164215
 20
1.9642846985
 10
32.3963164215
 20
2.0357136154
  0
LINE
  5
2A7
100
AcDbEntity
  8
IMPORT_IGES
100
AcDbLine
 62
7
  6
CONTINUOUS
 10
-5.0039939063
 20
14.3613647372
 11
5.0039939063
 21
14.3613647372
  0
LWPOLYLINE
  5
2A8
100
AcDbEntity
  8
0
100
AcDbPolyline
 62
7
  6
CONTINUOUS
 90
3
 70
0
 43
0.3500000006
 10
32.6106031723
 20
2.1071425323
 10
32.8248876572
 20
2.0357136154
 10
33.1106033249
 20
1.8928580475
  0
LWPOLYLINE
  5
2A9
100
AcDbEntity
  8
IMPORT_IGES
100
AcDbPolyline
 62
250
  6
CONTINUOUS
 90
37
 70
0
 10
16.4026286609
 20
62.2094486239
 10
16.3960906661
 20
62.4474091313
 10
16.3792888801
 20
62.6858814055
 10
16.3521956139
 20
62.9244130369
 10
16.3147801532
 20
63.1625579479
 10
16.2670222709
 20
63.3998335655
 10
16.2089182517
 20
63.6357229135
 10
16.1404363575
 20
63.8696817681
 10
16.0615861141
 20
64.1012830971
 10
15.9724143185
 20
64.3301860269
 10
15.8727653122
 20
64.5562963708
 10
15.7628883722
 20
64.7786998307
 10
15.6435601327
 20
64.9958891388
 10
15.5153863873
 20
65.2069683256
 10
15.3784206597
 20
65.4119855906
 10
15.2326917503
 20
65.6108910488
 10
15.078262915
 20
65.8033893201
 10
14.9155611136
 20
65.9888320217
 10
14.7451262175
 20
66.1666424352
 10
14.5673356851
 20
66.3365371537
 10
14.3824944542
 20
66.4982408721
 10
14.1910971194
 20
66.6512332299
 10
13.9941658045
 20
66.7949237725
 10
13.7916483648
 20
66.9296994195
 10
13.5823483348
 20
67.0563121183
 10
13.3654350512
 20
67.1750012118
 10
13.1424016759
 20
67.2847606486
 10
12.9155451016
 20
67.3845017756
 10
12.6859130838
 20
67.473907112
 10
12.453439493
 20
67.5531465044
 10
12.2188490045
 20
67.6221404434
 10
11.9826570633
 20
67.6808456476
 10
11.7452550391
 20
67.729204049
 10
11.5071678837
 20
67.7671630142
 10
11.2688541694
 20
67.7946889723
 10
11.030704954
 20
67.811755205
 10
10.7931295641
 20
67.8183357318
  0
LWPOLYLINE
  5
2AA
100
AcDbEntity
  8
IMPORT_IGES
100
AcDbPolyline
 62
250
  6
CONTINUOUS
 90
73
 70
0
 10
17.3741625085
 20
62.2001754732
 10
17.3726105163
 20
62.3436245624
 10
17.3679257099
 20
62.4872361346
 10
17.3600952559
 20
62.6309413848
 10
17.349102329
 20
62.7747333599
 10
17.3349398729
 20
62.9184793835
 10
17.3176242924
 20
63.06192244
 10
17.2971686979
 20
63.2049442678
 10
17.2735747768
 20
63.347524923
 10
17.2468589505
 20
63.4895566314
 10
17.2170342764
 20
63.6309692896
 10
17.1841146149
 20
63.7716965677
 10
17.1481245871
 20
63.9116377342
 10
17.1090716378
 20
64.0507665502
 10
17.0669866108
 20
64.1889756277
 10
17.0219437041
 20
64.3260468409
 10
16.9740208816
 20
64.4617969843
 10
16.9232138817
 20
64.5962887079
 10
16.8694716355
 20
64.7296720164
 10
16.8128086851
 20
64.8619028499
 10
16.7532580088
 20
64.9928966115
 10
16.6907748587
 20
65.1227336346
 10
16.6253228076
 20
65.2514511761
 10
16.5569720015
 20
65.3788744403
 10
16.4858416554
 20
65.5047676329
 10
16.4119899246
 20
65.6290308566
 10
16.3354301467
 20
65.7516445868
 10
16.2562307383
 20
65.8725027658
 10
16.1743941499
 20
65.9916043761
 10
16.0899990665
 20
66.1088375359
 10
16.0032469739
 20
66.2239432728
 10
15.9141894409
 20
66.336886937
 10
15.8228911659
 20
66.4476192355
 10
15.7296026092
 20
66.5558835885
 10
15.6345937562
 20
66.661441296
 10
15.5377508509
 20
66.7644911944
 10
15.4387358229
 20
66.8654225889
 10
15.3376104308
 20
66.9641756801
 10
15.2344078072
 20
67.0607211684
 10
15.1286928133
 20
67.1554398103
 10
15.0202519424
 20
67.248455769
 10
14.9093370149
 20
67.3394868253
 10
14.7961974207
 20
67.4282877849
 10
14.6808682696
 20
67.5148026143
 10
14.5633963318
 20
67.5989681586
 10
14.4440740497
 20
67.6805595337
 10
14.3230301848
 20
67.7594889717
 10
14.2002508059
 20
67.8357658321
 10
14.0758285985
 20
67.9093309832
 10
13.949835254
 20
67.9801426083
 10
13.8223199035
 20
68.0481736591
 10
13.6933439407
 20
68.1133913983
 10
13.5629694154
 20
68.1757645091
 10
13.4312590903
 20
68.2352630227
 10
13.2982764441
 20
68.2918582853
 10
13.164085473
 20
68.3455231292
 10
13.0287507574
 20
68.3962317933
 10
12.8923375323
 20
68.4439598615
 10
12.7549114676
 20
68.4886844339
 10
12.6165386752
 20
68.5303840699
 10
12.4772857899
 20
68.569038721
 10
12.3371501838
 20
68.6046467482
 10
12.1962681884
 20
68.6371711573
 10
12.0549186493
 20
68.6665548686
 10
11.9131336969
 20
68.6928043956
 10
11.7710221147
 20
68.7159127233
 10
11.62898393
 20
68.7358401498
 10
11.4871553895
 20
68.7526058531
 10
11.3455437196
 20
68.7662470204
 10
11.2043577335
 20
68.7767837494
 10
11.0637124402
 20
68.7842534415
 10
10.9236280677
 20
68.7887007325
 10
10.7841694019
 20
68.7901675127
  0
LINE
  5
2AB
100
AcDbEntity
  8
IMPORT_IGES
100
AcDbLine
 62
250
  6
CONTINUOUS
 10
16.4476847255
 20
57.1339113306
 11
16.5159889618
 21
50.3614316045
  0
LINE
  5
2AC
100
AcDbEntity
  8
IMPORT_IGES
100
AcDbLine
 62
250
  6
CONTINUOUS
 10
16.5159889618
 20
50.3614316045
 11
16.5473638522
 21
46.9741364754
  0
LINE
  5
2AD
100
AcDbEntity
  8
IMPORT_IGES
100
AcDbLine
 62
250
  6
CONTINUOUS
 10
16.4026286609
 20
62.2094486239
 11
16.4476847255
 21
57.1339113306
  0
LINE
  5
2AE
100
AcDbEntity
  8
IMPORT_IGES
100
AcDbLine
 62
250
  6
CONTINUOUS
 10
16.5473638522
 20
46.9741364754
 11
16.5735896442
 21
43.5900252525
  0
LINE
  5
2AF
100
AcDbEntity
  8
IMPORT_IGES
100
AcDbLine
 62
250
  6
CONTINUOUS
 10
16.5735896442
 20
43.5900252525
 11
16.5960150433
 21
40.1890227228
  0
LINE
  5
2B0
100
AcDbEntity
  8
IMPORT_IGES
100
AcDbLine
 62
250
  6
CONTINUOUS
 10
16.5960150433
 20
40.1890227228
 11
16.6150184254
 21
36.7712058107
  0
LINE
  5
2B1
100
AcDbEntity
  8
IMPORT_IGES
100
AcDbLine
 62
250
  6
CONTINUOUS
 10
16.6150184254
 20
36.7712058107
 11
16.6310199917
 21
33.3567870122
  0
LINE
  5
2B2
100
AcDbEntity
  8
IMPORT_IGES
100
AcDbLine
 62
250
  6
CONTINUOUS
 10
16.6310199917
 20
33.3567870122
 11
16.6511105963
 21
28.2358019161
  0
LINE
  5
2B3
100
AcDbEntity
  8
IMPORT_IGES
100
AcDbLine
 62
250
  6
CONTINUOUS
 10
16.6799461129
 20
19.6908845709
 11
16.7165577977
 21
9.3619259278
  0
LINE
  5
2B4
100
AcDbEntity
  8
IMPORT_IGES
100
AcDbLine
 62
250
  6
CONTINUOUS
 10
16.6511105963
 20
28.2358019161
 11
16.6799461129
 21
19.6908845709
  0
LINE
  5
2B5
100
AcDbEntity
  8
IMPORT_IGES
100
AcDbLine
 62
250
  6
CONTINUOUS
 10
16.7165577977
 20
9.3619259278
 11
16.7268223416
 21
5.9194537844
  0
LINE
  5
2B6
100
AcDbEntity
  8
IMPORT_IGES
100
AcDbLine
 62
250
  6
CONTINUOUS
 10
16.7268223416
 20
5.9194537844
 11
16.7333926863
 21
2.4799723449
  0
LINE
  5
2B7
100
AcDbEntity
  8
IMPORT_IGES
100
AcDbLine
 62
250
  6
CONTINUOUS
 10
16.7333926863
 20
2.4799723449
 11
16.7351770716
 21
-0.9767135729
  0
LINE
  5
2B8
100
AcDbEntity
  8
IMPORT_IGES
100
AcDbLine
 62
250
  6
CONTINUOUS
 10
17.3742822151
 20
-62.2001754732
 11
17.3719017475
 21
34.8478070884
  0
LINE
  5
2B9
100
AcDbEntity
  8
IMPORT_IGES
100
AcDbLine
 62
7
  6
CONTINUOUS
 10
17.5841694019
 20
62.2001754732
 11
17.5841694019
 21
-62.2001754732
  0
LINE
  5
2BA
100
AcDbEntity
  8
IMPORT_IGES
100
AcDbLine
 62
7
  6
CONTINUOUS
 10
17.6197621052
 20
62.2001754732
 11
17.6197621052
 21
-62.2001754732
  0
LINE
  5
2BB
100
AcDbEntity
  8
IMPORT_IGES
100
AcDbLine
 62
250
  6
CONTINUOUS
 10
17.3719017475
 20
34.8478070884
 11
17.3741625085
 21
62.2001754732
  0
LINE
  5
2BC
100
AcDbEntity
  8
IMPORT_IGES
100
AcDbLine
 62
250
  6
CONTINUOUS
 10
16.7351770716
 20
-0.9767135729
 11
16.7317977041
 21
-4.4505492965
  0
LINE
  5
2BD
100
AcDbEntity
  8
IMPORT_IGES
100
AcDbLine
 62
250
  6
CONTINUOUS
 10
16.7317977041
 20
-4.4505492965
 11
16.7239871851
 21
-7.9211745025
  0
LINE
  5
2BE
100
AcDbEntity
  8
IMPORT_IGES
100
AcDbLine
 62
250
  6
CONTINUOUS
 10
16.7239871851
 20
-7.9211745025
 11
16.6753654843
 21
-23.5630388011
  0
LINE
  5
2BF
100
AcDbEntity
  8
IMPORT_IGES
100
AcDbLine
 62
250
  6
CONTINUOUS
 10
16.6753654843
 20
-23.5630388011
 11
16.662545275
 21
-27.0625269381
  0
LINE
  5
2C0
100
AcDbEntity
  8
IMPORT_IGES
100
AcDbLine
 62
250
  6
CONTINUOUS
 10
16.662545275
 20
-27.0625269381
 11
16.6465186549
 21
-30.560764261
  0
LINE
  5
2C1
100
AcDbEntity
  8
IMPORT_IGES
100
AcDbLine
 62
250
  6
CONTINUOUS
 10
16.4137476771
 20
-58.6829981924
 11
16.3921851174
 21
-62.2058244395
  0
LINE
  5
2C2
100
AcDbEntity
  8
IMPORT_IGES
100
AcDbLine
 62
250
  6
CONTINUOUS
 10
16.6465186549
 20
-30.560764261
 11
16.6255426112
 21
-34.0595295747
  0
LINE
  5
2C3
100
AcDbEntity
  8
IMPORT_IGES
100
AcDbLine
 62
250
  6
CONTINUOUS
 10
16.6255426112
 20
-34.0595295747
 11
16.6000705522
 21
-37.5569592638
  0
LINE
  5
2C4
100
AcDbEntity
  8
IMPORT_IGES
100
AcDbLine
 62
250
  6
CONTINUOUS
 10
16.4405847686
 20
-55.1594415256
 11
16.4137476771
 21
-58.6829981924
  0
LINE
  5
2C5
100
AcDbEntity
  8
IMPORT_IGES
100
AcDbLine
 62
250
  6
CONTINUOUS
 10
16.6000705522
 20
-37.5569592638
 11
16.5706226711
 21
-41.0575144046
  0
LWPOLYLINE
  5
2C6
100
AcDbEntity
  8
IMPORT_IGES
100
AcDbPolyline
 62
250
  6
CONTINUOUS
 90
3
 70
0
 10
16.5706226711
 20
-41.0575144046
 10
16.5049363347
 20
-48.1100010914
 10
16.4405847686
 20
-55.1594415256
  0
LWPOLYLINE
  5
2C7
100
AcDbEntity
  8
0
100
AcDbPolyline
 62
7
  6
CONTINUOUS
 90
3
 70
0
 43
0.3500000006
 10
30.7534603958
 20
-4.821428421
 10
29.8963179245
 20
-3.9642859497
 10
32.8963165741
 20
-3.9642859497
  0
LWPOLYLINE
  5
2C8
100
AcDbEntity
  8
0
100
AcDbPolyline
 62
7
  6
CONTINUOUS
 90
3
 70
0
 43
0.3500000006
 10
30.7534603958
 20
3.1071428375
 10
29.8963179245
 20
3.9642853088
 10
32.8963165741
 20
3.9642853088
  0
LWPOLYLINE
  5
2C9
100
AcDbEntity
  8
0
100
AcDbPolyline
 62
7
  6
CONTINUOUS
 90
13
 70
0
 43
0.3500000006
 10
31.1820316315
 20
-0.5357137985
 10
30.9677448807
 20
-0.8214294662
 10
30.3248891602
 20
-0.8214294662
 10
29.8963179245
 20
-0.5357137985
 10
29.8963179245
 20
0.107141922
 10
30.3248891602
 20
0.3928575897
 10
30.9677448807
 20
0.3928575897
 10
31.1820316315
 20
0.107141922
 10
31.6106028671
 20
0.5357131577
 10
32.4677453384
 20
0.5357131577
 10
32.8963165741
 20
0.107141922
 10
32.8963165741
 20
-0.5357137985
 10
32.4677453384
 20
-0.9642850342
  0
LWPOLYLINE
  5
2CA
100
AcDbEntity
  8
0
100
AcDbPolyline
 62
7
  6
CONTINUOUS
 90
5
 70
0
 43
0.3500000006
 10
31.1820316315
 20
-2.2499998741
 10
30.9677448807
 20
-1.8928575554
 10
30.3248891602
 20
-1.8928575554
 10
29.8963179245
 20
-2.2499998741
 10
29.8963179245
 20
-3.1071423454
  0
LWPOLYLINE
  5
2CB
100
AcDbEntity
  8
0
100
AcDbPolyline
 62
7
  6
CONTINUOUS
 90
6
 70
0
 43
0.3500000006
 10
32.8963165741
 20
-3.1071423454
 10
32.8963165741
 20
-2.0357142563
 10
32.6820320892
 20
-1.8214286385
 10
31.6106028671
 20
-1.8214286385
 10
31.1820316315
 20
-2.2499998741
 10
31.1820316315
 20
-2.6785711098
  0
LINE
  5
2CC
100
AcDbEntity
  8
IMPORT_IGES
100
AcDbLine
 62
250
  6
CONTINUOUS
 10
-5.0039939063
 20
30.1293584391
 11
5.0039939063
 21
30.1293584391
  0
LWPOLYLINE
  5
2CD
100
AcDbEntity
  8
0
100
AcDbPolyline
 62
7
  6
CONTINUOUS
 90
10
 70
0
 43
0.3500000006
 10
0.7500000165
 20
82.0462179565
 10
0.8214285793
 20
81.9033646545
 10
0.8214285793
 20
81.8319334717
 10
0.6785714536
 20
81.6890801697
 10
0.6071428907
 20
81.6890801697
 10
0.5357142924
 20
81.7605022888
 10
0.5357142924
 20
81.8319334717
 10
0.6071428907
 20
81.9747867737
 10
0.6785714536
 20
82.0462179565
 10
0.7500000165
 20
82.0462179565
  0
LWPOLYLINE
  5
2CE
100
AcDbEntity
  8
IMPORT_IGES
100
AcDbPolyline
 62
7
  6
CONTINUOUS
 90
10
 70
0
 10
5.0040324231
 20
58.5519071725
 10
4.6949716145
 20
58.6422921049
 10
4.3893564905
 20
58.7273160331
 10
4.0871870511
 20
58.8069793603
 10
3.7884055327
 20
58.8812014949
 10
3.4930696989
 20
58.9500637672
 10
3.2013528409
 20
59.0138094128
 10
2.9133127226
 20
59.0725196918
 10
2.6288915802
 20
59.126113906
 10
2.3480894137
 20
59.1745923038
  0
LWPOLYLINE
  5
2CF
100
AcDbEntity
  8
IMPORT_IGES
100
AcDbPolyline
 62
7
  6
CONTINUOUS
 90
10
 70
0
 10
-2.3480893903
 20
59.1745923039
 10
-2.628865916
 20
59.1261206503
 10
-2.9132682393
 20
59.0725316066
 10
-3.2012963604
 20
59.0138249242
 10
-3.4930100179
 20
58.9500810534
 10
-3.7883494731
 20
58.8812189818
 10
-4.08713551
 20
58.8069962184
 10
-4.38930839
 20
58.7273316809
 10
-4.6949278517
 20
58.6423057128
 10
-5.003993895
 20
58.5519179107
  0
LINE
  5
2D0
100
AcDbEntity
  8
IMPORT_IGES
100
AcDbLine
 62
250
  6
CONTINUOUS
 10
-16.8803871018
 20
62.2081370924
 11
-17.1218726017
 21
62.206276954
  0
LWPOLYLINE
  5
2D1
100
AcDbEntity
  8
IMPORT_IGES
100
AcDbPolyline
 62
250
  6
CONTINUOUS
 90
3
 70
0
 10
-16.4026286609
 20
62.2094486239
 10
-16.4660766488
 20
62.2094079896
 10
-16.8803871018
 20
62.2081370924
  0
LINE
  5
2D2
100
AcDbEntity
  8
IMPORT_IGES
100
AcDbLine
 62
7
  6
CONTINUOUS
 10
-2.3480893903
 20
59.1747084174
 11
2.3480894137
 21
59.1747084174
  0
LINE
  5
2D3
100
AcDbEntity
  8
IMPORT_IGES
100
AcDbLine
 62
250
  6
CONTINUOUS
 10
17.3741625085
 20
62.2001754732
 11
17.6197621052
 21
62.2001754732
  0
LINE
  5
2D4
100
AcDbEntity
  8
IMPORT_IGES
100
AcDbLine
 62
250
  6
CONTINUOUS
 10
-17.3741625085
 20
62.2001754732
 11
-17.6197621052
 21
62.2001754732
  0
LINE
  5
2D5
100
AcDbEntity
  8
IMPORT_IGES
100
AcDbLine
 62
250
  6
CONTINUOUS
 10
16.402628287
 20
62.209448624
 11
16.8263083847
 21
62.2084155723
  0
LWPOLYLINE
  5
2D6
100
AcDbEntity
  8
IMPORT_IGES
100
AcDbPolyline
 62
250
  6
CONTINUOUS
 90
3
 70
0
 10
16.8263083847
 20
62.2084155723
 10
17.0782525913
 20
62.2067080739
 10
17.1218726017
 20
62.206276954
  0
LWPOLYLINE
  5
2D7
100
AcDbEntity
  8
IMPORT_IGES
100
AcDbPolyline
 62
250
  6
CONTINUOUS
 90
10
 70
0
 10
0.1
 20
67.8888957516
 10
0.0888926615
 20
67.8884445296
 10
0.0777834566
 20
67.8881097031
 10
0.0666723853
 20
67.887891284
 10
0.0555582167
 20
67.8877894047
 10
0.0444421818
 20
67.8878039438
 10
0.0333279733
 20
67.8879345261
 10
0.0222168224
 20
67.8881810219
 10
0.0111074979
 20
67.8885435478
 10
-0.0
 20
67.8890220911
  0
LWPOLYLINE
  5
2D8
100
AcDbEntity
  8
IMPORT_IGES
100
AcDbPolyline
 62
250
  6
CONTINUOUS
 90
6
 70
0
 10
-17.31786109
 20
62.2031696894
 10
-17.3375970804
 20
62.2025850362
 10
-17.3531700342
 20
62.2019892226
 10
-17.3644797311
 20
62.2013859691
 10
-17.3714700047
 20
62.2007799808
 10
-17.3741625085
 20
62.2001754732
  0
LINE
  5
2D9
100
AcDbEntity
  8
IMPORT_IGES
100
AcDbLine
 62
250
  6
CONTINUOUS
 10
-17.2664394005
 20
62.2042933767
 11
-17.31786109
 21
62.2031696894
  0
LWPOLYLINE
  5
2DA
100
AcDbEntity
  8
IMPORT_IGES
100
AcDbPolyline
 62
250
  6
CONTINUOUS
 90
3
 70
0
 10
-17.1218726017
 20
62.206276954
 10
-17.1626174282
 20
62.2058196526
 10
-17.2664394005
 20
62.2042933767
  0
LWPOLYLINE
  5
2DB
100
AcDbEntity
  8
IMPORT_IGES
100
AcDbPolyline
 62
250
  6
CONTINUOUS
 90
73
 70
0
 10
-10.7841694019
 20
68.7901675127
 10
-10.9236282052
 20
68.7887007174
 10
-11.0637128394
 20
68.7842534048
 10
-11.2043585185
 20
68.7767836766
 10
-11.3455451073
 20
68.7662468807
 10
-11.4871575018
 20
68.7526056117
 10
-11.6289866079
 20
68.7358398011
 10
-11.7710251541
 20
68.7159122823
 10
-11.9131369412
 20
68.6928038787
 10
-12.0549218032
 20
68.6665543201
 10
-12.1962708018
 20
68.6371706738
 10
-12.3371519708
 20
68.6046464194
 10
-12.4772868009
 20
68.5690385627
 10
-12.6165390075
 20
68.5303840772
 10
-12.7549111704
 20
68.4886846146
 10
-12.8923368396
 20
68.4439601641
 10
-13.0287500115
 20
68.3962321101
 10
-13.1640848964
 20
68.3455233741
 10
-13.2982761018
 20
68.2918584278
 10
-13.4312590445
 20
68.2352630316
 10
-13.5629697274
 20
68.1757643455
 10
-13.6933445245
 20
68.1133910885
 10
-13.822320614
 20
68.0481732676
 10
-13.9498360116
 20
67.9801421749
 10
-14.0758293661
 20
67.9093305263
 10
-14.2002515486
 20
67.8357653708
 10
-14.3230308682
 20
67.7594885291
 10
-14.444074676
 20
67.6805591106
 10
-14.5633969146
 20
67.598967748
 10
-14.6808688109
 20
67.5148022164
 10
-14.7961979241
 20
67.4282873986
 10
-14.9093374843
 20
67.3394864491
 10
-15.0202523813
 20
67.2484554015
 10
-15.1286932256
 20
67.1554394495
 10
-15.2344081977
 20
67.0607208114
 10
-15.3376108031
 20
66.9641753246
 10
-15.4387361782
 20
66.8654222346
 10
-15.5377511897
 20
66.7644908416
 10
-15.6345940797
 20
66.6614409443
 10
-15.7296029177
 20
66.5558832382
 10
-15.8228914595
 20
66.4476188871
 10
-15.91418972
 20
66.3368865908
 10
-16.0032472384
 20
66.2239429296
 10
-16.0899993167
 20
66.1088371963
 10
-16.1743943858
 20
65.9916040409
 10
-16.2562309594
 20
65.8725024368
 10
-16.3354303517
 20
65.7516442669
 10
-16.4119901131
 20
65.6290305478
 10
-16.4858418284
 20
65.504767335
 10
-16.55697216
 20
65.3788741526
 10
-16.6253229526
 20
65.2514508984
 10
-16.6907749913
 20
65.122733366
 10
-16.7532581308
 20
64.99289635
 10
-16.8128087976
 20
64.8619025943
 10
-16.8694717382
 20
64.7296717684
 10
-16.923213974
 20
64.5962884707
 10
-16.9740209634
 20
64.4617967597
 10
-17.0219437761
 20
64.3260466289
 10
-17.0669866738
 20
64.1889754279
 10
-17.1090716922
 20
64.0507663627
 10
-17.148124634
 20
63.9116375579
 10
-17.1841146554
 20
63.7716964007
 10
-17.2170343113
 20
63.630969131
 10
-17.2468589799
 20
63.4895564824
 10
-17.2735748008
 20
63.3475247857
 10
-17.2971687169
 20
63.2049441434
 10
-17.3176243068
 20
63.0619223297
 10
-17.3349398834
 20
62.9184792883
 10
-17.349102336
 20
62.7747332809
 10
-17.3600952601
 20
62.6309413233
 10
-17.3679257119
 20
62.4872360922
 10
-17.3726105168
 20
62.3436245405
 10
-17.3741625085
 20
62.2001754732
  0
LWPOLYLINE
  5
2DC
100
AcDbEntity
  8
IMPORT_IGES
100
AcDbPolyline
 62
250
  6
CONTINUOUS
 90
3
 70
0
 10
-10.7931295641
 20
67.8183357318
 10
-4.7041289201
 20
67.8672397305
 10
-3.5309167986
 20
67.8751150543
  0
LWPOLYLINE
  5
2DD
100
AcDbEntity
  8
IMPORT_IGES
100
AcDbPolyline
 62
250
  6
CONTINUOUS
 90
3
 70
0
 10
-3.5309167986
 20
67.8751150543
 10
-1.2290541354
 20
67.8857370675
 10
-0.0999999991
 20
67.8888923885
  0
LINE
  5
2DE
100
AcDbEntity
  8
IMPORT_IGES
100
AcDbLine
 62
7
  6
CONTINUOUS
 10
-10.7841694019
 20
69.0001754732
 11
10.7841694019
 21
69.0001754732
  0
LINE
  5
2DF
100
AcDbEntity
  8
IMPORT_IGES
100
AcDbLine
 62
7
  6
CONTINUOUS
 10
-10.7841694019
 20
69.0357681765
 11
10.7841694019
 21
69.0357681765
  0
LWPOLYLINE
  5
2E0
100
AcDbEntity
  8
0
100
AcDbPolyline
 62
7
  6
CONTINUOUS
 90
6
 70
0
 43
0.3500000006
 10
-4.1785715303
 20
81.546217804
 10
-3.1071428747
 20
81.546217804
 10
-2.8928572569
 20
81.7605022888
 10
-2.8928572569
 20
82.8319337769
 10
-3.3214284925
 20
83.2605027466
 10
-3.7500000114
 20
83.2605027466
  0
LWPOLYLINE
  5
2E1
100
AcDbEntity
  8
0
100
AcDbPolyline
 62
7
  6
CONTINUOUS
 90
8
 70
0
 43
0.3500000006
 10
-2.0357142191
 20
81.546217804
 10
-1.1785713937
 20
81.546217804
 10
-0.7500000165
 20
81.9747867737
 10
-0.7500000165
 20
82.8319337769
 10
-1.1785713937
 20
83.2605027466
 10
-2.0357142191
 20
83.2605027466
 10
-2.0357142191
 20
84.5462187195
 10
-0.7500000165
 20
84.5462187195
  0
LWPOLYLINE
  5
2E2
100
AcDbEntity
  8
0
100
AcDbPolyline
 62
7
  6
CONTINUOUS
 90
7
 70
0
 43
0.3500000006
 10
3.3214284925
 20
81.546217804
 10
1.8214286013
 20
81.546217804
 10
3.3214284925
 20
83.6890717163
 10
3.3214284925
 20
84.1176497498
 10
2.8928572569
 20
84.5462187195
 10
2.2499999785
 20
84.5462187195
 10
1.8214286013
 20
83.9033652649
  0
LINE
  5
2E3
100
AcDbEntity
  8
IMPORT_IGES
100
AcDbLine
 62
250
  6
CONTINUOUS
 10
10.7841694019
 20
68.7901675127
 11
-10.7841694019
 21
68.7901675127
  0
LWPOLYLINE
  5
2E4
100
AcDbEntity
  8
IMPORT_IGES
100
AcDbPolyline
 62
250
  6
CONTINUOUS
 90
3
 70
0
 10
0.0999999991
 20
67.8888923885
 10
2.3746506592
 20
67.8811360387
 10
3.5334890161
 20
67.8750990022
  0
LINE
  5
2E5
100
AcDbEntity
  8
IMPORT_IGES
100
AcDbLine
 62
250
  6
CONTINUOUS
 10
3.5334890161
 20
67.8750990022
 11
8.3147616408
 21
67.8386087039
  0
LINE
  5
2E6
100
AcDbEntity
  8
IMPORT_IGES
100
AcDbLine
 62
250
  6
CONTINUOUS
 10
8.3147616408
 20
67.8386087039
 11
10.7931295641
 21
67.8183357318
  0
LINE
  5
2E7
100
AcDbEntity
  8
IMPORT_IGES
100
AcDbLine
 62
250
  6
CONTINUOUS
 10
17.1218726017
 20
62.206276954
 11
17.2352047547
 21
62.2048251365
  0
LWPOLYLINE
  5
2E8
100
AcDbEntity
  8
IMPORT_IGES
100
AcDbPolyline
 62
250
  6
CONTINUOUS
 90
8
 70
0
 10
17.2352047547
 20
62.2048251365
 10
17.2940695194
 20
62.2037405304
 10
17.31786109
 20
62.2031696894
 10
17.3375970805
 20
62.2025850362
 10
17.3531700342
 20
62.2019892226
 10
17.364479731
 20
62.2013859691
 10
17.3714700046
 20
62.2007799808
 10
17.3741625085
 20
62.2001754733
  0
LWPOLYLINE
  5
2E9
100
AcDbEntity
  8
IMPORT_IGES
100
AcDbPolyline
 62
250
  6
CONTINUOUS
 90
10
 70
0
 10
-0.1
 20
67.8888957516
 10
-0.0888919452
 20
67.8884445197
 10
-0.0777822053
 20
67.8881096917
 10
-0.0666707803
 20
67.8878912792
 10
-0.0555564422
 20
67.8877894226
 10
-0.0444404191
 20
67.8878039926
 10
-0.0333263949
 20
67.8879345909
 10
-0.0222155976
 20
67.8881810801
 10
-0.0111067994
 20
67.8885435844
 10
-0.0
 20
67.8890220911
  0
LWPOLYLINE
  5
2EA
100
AcDbEntity
  8
0
100
AcDbPolyline
 62
7
  6
CONTINUOUS
 90
5
 70
0
 43
0.3500000006
 10
-64.1610048065
 20
83.4400006714
 10
-63.8038624878
 20
83.6542851563
 10
-63.8038624878
 20
84.2971476746
 10
-64.1610048065
 20
84.7257166443
 10
-65.0181472778
 20
84.7257166443
  0
LWPOLYLINE
  5
2EB
100
AcDbEntity
  8
0
100
AcDbPolyline
 62
7
  6
CONTINUOUS
 90
5
 70
0
 43
0.3500000006
 10
-57.9467184906
 20
83.4400006714
 10
-57.5895761719
 20
83.6542851563
 10
-57.5895761719
 20
84.2971476746
 10
-57.9467184906
 20
84.7257166443
 10
-58.8038609619
 20
84.7257166443
  0
LINE
  5
2EC
100
AcDbEntity
  8
IMPORT_IGES
100
AcDbLine
 62
7
  6
CONTINUOUS
 10
-43.6741211499
 20
-69.0357681765
 11
-45.6741211504
 21
-69.0357681765
  0
LINE
  5
2ED
100
AcDbEntity
  8
IMPORT_IGES
100
AcDbLine
 62
7
  6
CONTINUOUS
 10
-45.6741544495
 20
-69.0357678859
 11
-49.7526409774
 21
-69.0001754732
  0
LINE
  5
2EE
100
AcDbEntity
  8
IMPORT_IGES
100
AcDbLine
 62
7
  6
CONTINUOUS
 10
-49.7526409774
 20
-69.0001754732
 11
-73.9042297856
 21
-68.7894077507
  0
LINE
  5
2EF
100
AcDbEntity
  8
IMPORT_IGES
100
AcDbLine
 62
250
  6
CONTINUOUS
 10
-74.7944283096
 20
-62.2058244395
 11
-73.8033303931
 21
-62.2001754732
  0
LINE
  5
2F0
100
AcDbEntity
  8
IMPORT_IGES
100
AcDbLine
 62
7
  6
CONTINUOUS
 10
-43.6741211499
 20
-62.2001754732
 11
-45.6741211499
 21
-62.2001754732
  0
LINE
  5
2F1
100
AcDbEntity
  8
IMPORT_IGES
100
AcDbLine
 62
250
  6
CONTINUOUS
 10
-45.6741211499
 20
-62.2001754732
 11
-73.8033303931
 21
-62.2001754732
  0
LWPOLYLINE
  5
2F2
100
AcDbEntity
  8
0
100
AcDbPolyline
 62
7
  6
CONTINUOUS
 90
3
 70
0
 43
0.3500000006
 10
-59.8038612671
 20
82.0114313965
 10
-59.8752879181
 20
81.7971469116
 10
-60.018145752
 20
81.5114312439
  0
LINE
  5
2F3
100
AcDbEntity
  8
IMPORT_IGES
100
AcDbLine
 62
250
  6
CONTINUOUS
 10
-75.0796575582
 20
-65.972007034
 11
-74.8905352449
 21
-67.8890280269
  0
LINE
  5
2F4
100
AcDbEntity
  8
IMPORT_IGES
100
AcDbLine
 62
250
  6
CONTINUOUS
 10
-75.2633690479
 20
-64.0542951763
 11
-75.0796575582
 21
-65.972007034
  0
LINE
  5
2F5
100
AcDbEntity
  8
IMPORT_IGES
100
AcDbLine
 62
250
  6
CONTINUOUS
 10
-75.4416685671
 20
-62.1358995913
 11
-75.2633690479
 21
-64.0542951763
  0
LWPOLYLINE
  5
2F6
100
AcDbEntity
  8
IMPORT_IGES
100
AcDbPolyline
 62
250
  6
CONTINUOUS
 90
3
 70
0
 10
-75.6989701421
 20
-59.2570123335
 10
-75.6145563533
 20
-60.2168111163
 10
-75.4416685671
 20
-62.1358995913
  0
LINE
  5
2F7
100
AcDbEntity
  8
IMPORT_IGES
100
AcDbLine
 62
7
  6
CONTINUOUS
 10
-75.8501267202
 20
-54.6468701924
 11
-75.5891233936
 21
-58.0952678535
  0
LWPOLYLINE
  5
2F8
100
AcDbEntity
  8
IMPORT_IGES
100
AcDbPolyline
 62
7
  6
CONTINUOUS
 90
22
 70
0
 10
-75.7778110017
 20
56.4238456813
 10
-75.9698474101
 20
53.9706933618
 10
-76.1508910026
 20
51.5519900798
 10
-76.3209417791
 20
49.1677358352
 10
-76.4798973538
 20
46.8163858731
 10
-76.6278601125
 20
44.4994849485
 10
-76.7651372133
 20
42.2216673261
 10
-76.8917739001
 20
39.9700337791
 10
-77.0077249289
 20
37.7574835344
 10
-77.1131617255
 20
35.6273485382
 10
-77.2064766513
 20
33.6153202478
 10
-77.2892773449
 20
31.6857072059
 10
-77.3665581488
 20
29.7747669868
 10
-77.4397088495
 20
27.8601627533
 10
-77.5073396605
 20
25.9642313425
 10
-77.570275565
 20
24.09024084
 10
-77.6286323277
 20
22.2370380523
 10
-77.6822941839
 20
20.405776173
 10
-77.7317388228
 20
18.6031828677
 10
-77.7771254744
 20
16.8315006917
 10
-77.8182949087
 20
15.0884870898
 10
-77.8552471258
 20
13.374142062
  0
LINE
  5
2F9
100
AcDbEntity
  8
IMPORT_IGES
100
AcDbLine
 62
7
  6
CONTINUOUS
 10
-75.6059886222
 20
58.5519071858
 11
-75.7778110017
 21
56.4238456813
  0
LINE
  5
2FA
100
AcDbEntity
  8
IMPORT_IGES
100
AcDbLine
 62
250
  6
CONTINUOUS
 10
-75.5345113989
 20
61.1126518872
 11
-75.7060929448
 21
59.1749166587
  0
LINE
  5
2FB
100
AcDbEntity
  8
IMPORT_IGES
100
AcDbLine
 62
250
  6
CONTINUOUS
 10
-75.3574148095
 20
63.0496980488
 11
-75.5345113989
 21
61.1126518872
  0
LINE
  5
2FC
100
AcDbEntity
  8
IMPORT_IGES
100
AcDbLine
 62
250
  6
CONTINUOUS
 10
-75.1748061014
 20
64.9860270325
 11
-75.3574148095
 21
63.0496980488
  0
LWPOLYLINE
  5
2FD
100
AcDbEntity
  8
IMPORT_IGES
100
AcDbPolyline
 62
250
  6
CONTINUOUS
 90
3
 70
0
 10
-74.8905721972
 20
67.8890388069
 10
-74.9866927872
 20
66.9215659698
 10
-75.1748061014
 20
64.9860270325
  0
LWPOLYLINE
  5
2FE
100
AcDbEntity
  8
IMPORT_IGES
100
AcDbPolyline
 62
250
  6
CONTINUOUS
 90
22
 70
0
 10
-74.8905345127
 20
-67.8890268398
 10
-74.8812310654
 20
-67.9578029196
 10
-74.8670894298
 20
-68.0261386639
 10
-74.8481625249
 20
-68.0934905686
 10
-74.8246576918
 20
-68.159141039
 10
-74.7967418237
 20
-68.222771491
 10
-74.7643962544
 20
-68.2844474211
 10
-74.7278351764
 20
-68.343724368
 10
-74.6873620513
 20
-68.4001505566
 10
-74.642962917
 20
-68.4537531154
 10
-74.5949423674
 20
-68.5041377664
 10
-74.5436683726
 20
-68.5509451216
 10
-74.4891275138
 20
-68.5941874307
 10
-74.4317111399
 20
-68.6335308923
 10
-74.3718395666
 20
-68.6687080054
 10
-74.3094844787
 20
-68.6997302205
 10
-74.2451234829
 20
-68.7263363272
 10
-74.1792185519
 20
-68.7483534585
 10
-74.1117023705
 20
-68.7657943279
 10
-74.0429072583
 20
-68.7785216028
 10
-73.9735668583
 20
-68.7863938801
 10
-73.9042272955
 20
-68.7894077725
  0
LWPOLYLINE
  5
2FF
100
AcDbEntity
  8
IMPORT_IGES
100
AcDbPolyline
 62
250
  6
CONTINUOUS
 90
25
 70
0
 10
-74.8048072276
 20
-67.8144846316
 10
-74.8012321766
 20
-67.8781186369
 10
-74.7936030615
 20
-67.941447049
 10
-74.7819795097
 20
-68.004035396
 10
-74.7665312611
 20
-68.0652897992
 10
-74.7474109635
 20
-68.1249833799
 10
-74.7246329953
 20
-68.1832577427
 10
-74.6984289491
 20
-68.2396487054
 10
-74.6689754216
 20
-68.2939512789
 10
-74.6359989675
 20
-68.3466694635
 10
-74.5995270846
 20
-68.3976060256
 10
-74.559826115
 20
-68.4462867563
 10
-74.5168132997
 20
-68.4927169649
 10
-74.4707047418
 20
-68.5365513973
 10
-74.4217282731
 20
-68.5775013072
 10
-74.3697590954
 20
-68.6155708479
 10
-74.3150157333
 20
-68.6504705406
 10
-74.2578656446
 20
-68.6818751335
 10
-74.1983934617
 20
-68.7096577532
 10
-74.1369342506
 20
-68.7335814308
 10
-74.0739393629
 20
-68.7534274805
 10
-74.0096935688
 20
-68.7690879446
 10
-73.944599689
 20
-68.7804612657
 10
-73.8791697246
 20
-68.7874901627
 10
-73.8138623354
 20
-68.7901963755
  0
LWPOLYLINE
  5
300
100
AcDbEntity
  8
IMPORT_IGES
100
AcDbPolyline
 62
7
  6
CONTINUOUS
 90
29
 70
0
 10
-77.8593738415
 20
-13.3740750034
 10
-77.8315242236
 20
-14.7265239343
 10
-77.8020488335
 20
-16.0715060705
 10
-77.7709476713
 20
-17.409021412
 10
-77.7382639257
 20
-18.7396655273
 10
-77.7039544079
 20
-20.0628428478
 10
-77.6678895515
 20
-21.3767666681
 10
-77.6302566156
 20
-22.6774100181
 10
-77.5908683411
 20
-23.9687998679
 10
-77.5490333849
 20
-25.2612304229
 10
-77.5052211131
 20
-26.5472160911
 10
-77.4589621595
 20
-27.8342424645
 10
-77.4081570833
 20
-29.1550605242
 10
-77.3520590461
 20
-30.5288713858
 10
-77.2914148863
 20
-31.9364739338
 10
-77.2263656781
 20
-33.3530158026
 10
-77.1571810736
 20
-34.7669298552
 10
-77.0835914208
 20
-36.1897832286
 10
-77.0049288376
 20
-37.6314249678
 10
-76.9202165553
 20
-39.1039667234
 10
-76.8304313427
 20
-40.5952968447
 10
-76.7378356246
 20
-42.0789294255
 10
-76.6440918354
 20
-43.5286398377
 10
-76.5475375407
 20
-44.9706527094
 10
-76.445447862
 20
-46.4571560171
 10
-76.3367345418
 20
-48.0053550107
 10
-76.2224858376
 20
-49.5980444404
 10
-76.1032416443
 20
-51.2357965331
 10
-75.8501267202
 20
-54.6468701924
  0
LWPOLYLINE
  5
301
100
AcDbEntity
  8
IMPORT_IGES
100
AcDbPolyline
 62
250
  6
CONTINUOUS
 90
8
 70
0
 10
-73.8893414569
 20
-52.4037997517
 10
-73.9714665204
 20
-45.0566322316
 10
-73.9978342055
 20
-42.6075679447
 10
-74.0224562039
 20
-40.1584947133
 10
-74.0450721822
 20
-37.7199708742
 10
-74.0659424736
 20
-35.2814380905
 10
-74.0844654086
 20
-32.8112153004
 10
-74.100195812
 20
-30.288181346
  0
LINE
  5
302
100
AcDbEntity
  8
IMPORT_IGES
100
AcDbLine
 62
250
  6
CONTINUOUS
 10
-74.9715165956
 20
-42.8177431864
 11
-74.8666023474
 21
-53.3973829195
  0
LWPOLYLINE
  5
303
100
AcDbEntity
  8
IMPORT_IGES
100
AcDbPolyline
 62
250
  6
CONTINUOUS
 90
4
 70
0
 10
-74.8666023474
 20
-53.3973829195
 10
-74.833347054
 20
-56.9213116877
 10
-74.8185123751
 20
-58.6829981924
 10
-74.8054068735
 20
-60.4445015133
  0
LINE
  5
304
100
AcDbEntity
  8
IMPORT_IGES
100
AcDbLine
 62
250
  6
CONTINUOUS
 10
-75.0011364517
 20
-39.3049525227
 11
-74.9715165956
 21
-42.8177431864
  0
LINE
  5
305
100
AcDbEntity
  8
IMPORT_IGES
100
AcDbLine
 62
250
  6
CONTINUOUS
 10
-75.0255758626
 20
-35.8089975084
 11
-75.0011364517
 21
-39.3049525227
  0
LINE
  5
306
100
AcDbEntity
  8
IMPORT_IGES
100
AcDbLine
 62
250
  6
CONTINUOUS
 10
-75.0442033058
 20
-32.3100928805
 11
-75.0255758626
 21
-35.8089975084
  0
LINE
  5
307
100
AcDbEntity
  8
IMPORT_IGES
100
AcDbLine
 62
250
  6
CONTINUOUS
 10
-75.0636967639
 20
-27.0625269381
 11
-75.0442033058
 21
-32.3100928805
  0
LINE
  5
308
100
AcDbEntity
  8
IMPORT_IGES
100
AcDbLine
 62
250
  6
CONTINUOUS
 10
-75.1126090013
 20
-7.9211745025
 11
-75.0636967639
 21
-27.0625269381
  0
LINE
  5
309
100
AcDbEntity
  8
IMPORT_IGES
100
AcDbLine
 62
250
  6
CONTINUOUS
 10
-74.7885705797
 20
-63.8666912094
 11
-74.8054068735
 21
-60.4445015133
  0
LINE
  5
30A
100
AcDbEntity
  8
IMPORT_IGES
100
AcDbLine
 62
250
  6
CONTINUOUS
 10
-75.1199182055
 20
-2.713642317
 11
-75.1126090013
 21
-7.9211745025
  0
LINE
  5
30B
100
AcDbEntity
  8
IMPORT_IGES
100
AcDbLine
 62
250
  6
CONTINUOUS
 10
-74.7950188272
 20
66.7949237725
 11
-74.7965466981
 21
67.3845017756
  0
LINE
  5
30C
100
AcDbEntity
  8
IMPORT_IGES
100
AcDbLine
 62
250
  6
CONTINUOUS
 10
-75.1204770509
 20
0.7555310897
 11
-75.1199182055
 21
-2.713642317
  0
LINE
  5
30D
100
AcDbEntity
  8
IMPORT_IGES
100
AcDbLine
 62
250
  6
CONTINUOUS
 10
-75.1169651735
 20
4.1997293067
 11
-75.1204770509
 21
0.7555310897
  0
LINE
  5
30E
100
AcDbEntity
  8
IMPORT_IGES
100
AcDbLine
 62
250
  6
CONTINUOUS
 10
-75.101686788
 20
11.0830824794
 11
-75.1169651735
 21
4.1997293067
  0
LINE
  5
30F
100
AcDbEntity
  8
IMPORT_IGES
100
AcDbLine
 62
250
  6
CONTINUOUS
 10
-74.7903339825
 20
-66.4913656722
 11
-74.7885705797
 21
-63.8666912094
  0
LINE
  5
310
100
AcDbEntity
  8
IMPORT_IGES
100
AcDbLine
 62
250
  6
CONTINUOUS
 10
-75.0918842474
 20
14.5251885656
 11
-75.101686788
 21
11.0830824794
  0
LINE
  5
311
100
AcDbEntity
  8
IMPORT_IGES
100
AcDbLine
 62
250
  6
CONTINUOUS
 10
-75.0395898131
 20
33.3567870122
 11
-75.0918842474
 21
14.5251885656
  0
LINE
  5
312
100
AcDbEntity
  8
IMPORT_IGES
100
AcDbLine
 62
250
  6
CONTINUOUS
 10
-74.8002300476
 20
63.3998335655
 11
-74.7950188272
 21
66.7949237725
  0
LINE
  5
313
100
AcDbEntity
  8
IMPORT_IGES
100
AcDbLine
 62
250
  6
CONTINUOUS
 10
-75.0182864155
 20
38.4800785677
 11
-75.0395898131
 21
33.3567870122
  0
LINE
  5
314
100
AcDbEntity
  8
IMPORT_IGES
100
AcDbLine
 62
250
  6
CONTINUOUS
 10
-74.7929933404
 20
-67.1756537523
 11
-74.7903339825
 21
-66.4913656722
  0
LINE
  5
315
100
AcDbEntity
  8
IMPORT_IGES
100
AcDbLine
 62
250
  6
CONTINUOUS
 10
-75.0001125412
 20
41.8933688659
 11
-75.0182864155
 21
38.4800785677
  0
LINE
  5
316
100
AcDbEntity
  8
IMPORT_IGES
100
AcDbLine
 62
250
  6
CONTINUOUS
 10
-74.9782379434
 20
45.282080738
 11
-75.0001125412
 21
41.8933688659
  0
LINE
  5
317
100
AcDbEntity
  8
IMPORT_IGES
100
AcDbLine
 62
250
  6
CONTINUOUS
 10
-74.9518847644
 20
48.6677863309
 11
-74.9782379434
 21
45.282080738
  0
LINE
  5
318
100
AcDbEntity
  8
IMPORT_IGES
100
AcDbLine
 62
250
  6
CONTINUOUS
 10
-74.8078736967
 20
62.2094486239
 11
-74.8002300476
 21
63.3998335655
  0
LINE
  5
319
100
AcDbEntity
  8
IMPORT_IGES
100
AcDbLine
 62
250
  6
CONTINUOUS
 10
-74.8078736967
 20
62.2094486239
 11
-74.8244051782
 21
60.5179809284
  0
LINE
  5
31A
100
AcDbEntity
  8
IMPORT_IGES
100
AcDbLine
 62
250
  6
CONTINUOUS
 10
-74.9198998801
 20
52.0548843177
 11
-74.9518847644
 21
48.6677863309
  0
LWPOLYLINE
  5
31B
100
AcDbEntity
  8
IMPORT_IGES
100
AcDbPolyline
 62
250
  6
CONTINUOUS
 90
3
 70
0
 10
-74.8244051782
 20
60.5179809284
 10
-74.8821787715
 20
55.4412280997
 10
-74.9198998801
 20
52.0548843177
  0
LINE
  5
31C
100
AcDbEntity
  8
IMPORT_IGES
100
AcDbLine
 62
250
  6
CONTINUOUS
 10
-73.972597469
 20
48.5294517423
 11
-73.8170474068
 21
62.2001754732
  0
LWPOLYLINE
  5
31D
100
AcDbEntity
  8
IMPORT_IGES
100
AcDbPolyline
 62
7
  6
CONTINUOUS
 90
19
 70
0
 10
-77.8552471258
 20
13.3741085327
 10
-77.8844332403
 20
11.9081174684
 10
-77.91053008
 20
10.4545535547
 10
-77.9335376449
 20
9.0134167917
 10
-77.9535322208
 20
7.5849485448
 10
-77.970437522
 20
6.1689074485
 10
-77.9840246904
 20
4.7645694065
 10
-77.9943206208
 20
3.38204752
 10
-78.0012984185
 20
2.0112286878
 10
-78.0046485414
 20
0.6210495098
 10
-78.0043844161
 20
-0.7936780802
 10
-78.000492616
 20
-2.227766016
 10
-77.9926233198
 20
-3.696713499
 10
-77.9807268332
 20
-5.2019599773
 10
-77.9648528506
 20
-6.7420660027
 10
-77.944800634
 20
-8.3282124324
 10
-77.9205032705
 20
-9.9641262185
 10
-77.8920276731
 20
-11.6460804089
 10
-77.8593738415
 20
-13.3740750034
  0
LWPOLYLINE
  5
31E
100
AcDbEntity
  8
IMPORT_IGES
100
AcDbPolyline
 62
250
  6
CONTINUOUS
 90
25
 70
0
 10
-74.8080072696
 20
67.8183357318
 10
-74.8041998703
 20
67.8817970039
 10
-74.7963598414
 20
67.9449388461
 10
-74.784547901
 20
68.0073305135
 10
-74.7689342342
 20
68.0683837746
 10
-74.7496707882
 20
68.1278737316
 10
-74.7267716015
 20
68.1859398222
 10
-74.7004682035
 20
68.2421214167
 10
-74.6709361526
 20
68.2962161059
 10
-74.637902477
 20
68.3487237872
 10
-74.6013951236
 20
68.3994488156
 10
-74.5616797974
 20
68.4479210651
 10
-74.5186743634
 20
68.4941457732
 10
-74.4725938458
 20
68.537781069
 10
-74.4236653089
 20
68.5785405149
 10
-74.3717659029
 20
68.6164274871
 10
-74.3171138135
 20
68.6511550503
 10
-74.2600736353
 20
68.6824017988
 10
-74.2007283554
 20
68.7100427787
 10
-74.1394093601
 20
68.733843762
 10
-74.0765656871
 20
68.7535875945
 10
-74.0124821695
 20
68.7691667787
 10
-73.9475590748
 20
68.7804810025
 10
-73.8823033243
 20
68.7874740262
 10
-73.8171696902
 20
68.7901675127
  0
LWPOLYLINE
  5
31F
100
AcDbEntity
  8
IMPORT_IGES
100
AcDbPolyline
 62
250
  6
CONTINUOUS
 90
9
 70
0
 10
-73.8102524602
 20
68.6928043956
 10
-73.810952456
 20
68.7159127233
 10
-73.8116987394
 20
68.7358401498
 10
-73.8124913789
 20
68.7526058531
 10
-73.813330306
 20
68.7662470204
 10
-73.8142174116
 20
68.7767837494
 10
-73.815153326
 20
68.7842534415
 10
-73.8161374188
 20
68.7887007325
 10
-73.8171696902
 20
68.7901675127
  0
LINE
  5
320
100
AcDbEntity
  8
IMPORT_IGES
100
AcDbLine
 62
250
  6
CONTINUOUS
 10
-73.8089855968
 20
68.6371711573
 11
-73.8102524602
 21
68.6928043956
  0
LWPOLYLINE
  5
321
100
AcDbEntity
  8
IMPORT_IGES
100
AcDbPolyline
 62
250
  6
CONTINUOUS
 90
7
 70
0
 10
-74.7988958651
 20
67.6221404434
 10
-74.7999752257
 20
67.6808456476
 10
-74.8012187854
 20
67.729204049
 10
-74.8026351398
 20
67.7671630142
 10
-74.8042328789
 20
67.7946889723
 10
-74.8060208089
 20
67.811755205
 10
-74.8080072696
 20
67.8183357318
  0
LINE
  5
322
100
AcDbEntity
  8
IMPORT_IGES
100
AcDbLine
 62
250
  6
CONTINUOUS
 10
-73.8078922956
 20
68.569038721
 11
-73.8089855968
 21
68.6371711573
  0
LINE
  5
323
100
AcDbEntity
  8
IMPORT_IGES
100
AcDbLine
 62
250
  6
CONTINUOUS
 10
-73.8065518431
 20
68.4439598615
 11
-73.8078922956
 21
68.569038721
  0
LWPOLYLINE
  5
324
100
AcDbEntity
  8
IMPORT_IGES
100
AcDbPolyline
 62
250
  6
CONTINUOUS
 90
4
 70
0
 10
-73.8211841739
 20
-59.7510573557
 10
-73.8413234708
 20
-57.301954362
 10
-73.8637482837
 20
-54.852866492
 10
-73.8893414569
 20
-52.4037997517
  0
LWPOLYLINE
  5
325
100
AcDbEntity
  8
IMPORT_IGES
100
AcDbPolyline
 62
250
  6
CONTINUOUS
 90
3
 70
0
 10
-74.7965466981
 20
67.3845017756
 10
-74.7971899488
 20
67.473907112
 10
-74.7988958651
 20
67.6221404434
  0
LINE
  5
326
100
AcDbEntity
  8
IMPORT_IGES
100
AcDbLine
 62
250
  6
CONTINUOUS
 10
-74.100195812
 20
-30.288181346
 11
-74.1253484045
 21
-25.1787258305
  0
LINE
  5
327
100
AcDbEntity
  8
IMPORT_IGES
100
AcDbLine
 62
250
  6
CONTINUOUS
 10
-73.804789392
 20
68.1133913983
 11
-73.8065518431
 21
68.4439598615
  0
LINE
  5
328
100
AcDbEntity
  8
IMPORT_IGES
100
AcDbLine
 62
250
  6
CONTINUOUS
 10
-74.1253484045
 20
-25.1787258305
 11
-74.1784274989
 21
-9.9135898247
  0
LINE
  5
329
100
AcDbEntity
  8
IMPORT_IGES
100
AcDbLine
 62
250
  6
CONTINUOUS
 10
-73.7995516663
 20
-63.1870971366
 11
-73.8211841739
 21
-59.7510573557
  0
LWPOLYLINE
  5
32A
100
AcDbEntity
  8
IMPORT_IGES
100
AcDbPolyline
 62
250
  6
CONTINUOUS
 90
7
 70
0
 10
-74.1784274989
 20
-9.9135898247
 10
-74.1928733711
 20
-4.8463216101
 10
-74.1967269883
 20
-2.2810056153
 10
-74.1968596884
 20
0.3371127416
 10
-74.1940907431
 20
2.9869126516
 10
-74.1889116679
 20
5.6367125715
 10
-74.180718708
 20
8.2759524792
  0
LINE
  5
32B
100
AcDbEntity
  8
IMPORT_IGES
100
AcDbLine
 62
250
  6
CONTINUOUS
 10
-73.7967106818
 20
-65.365922274
 11
-73.7995516663
 21
-63.1870971366
  0
LINE
  5
32C
100
AcDbEntity
  8
IMPORT_IGES
100
AcDbLine
 62
250
  6
CONTINUOUS
 10
-73.7971351807
 20
-66.0969350073
 11
-73.7967106818
 21
-65.365922274
  0
LINE
  5
32D
100
AcDbEntity
  8
IMPORT_IGES
100
AcDbLine
 62
250
  6
CONTINUOUS
 10
-73.7977055986
 20
-66.5447433817
 11
-73.7971351807
 21
-66.0969350073
  0
LINE
  5
32E
100
AcDbEntity
  8
IMPORT_IGES
100
AcDbLine
 62
250
  6
CONTINUOUS
 10
-73.7982390883
 20
-66.8547778868
 11
-73.7977055986
 21
-66.5447433817
  0
LINE
  5
32F
100
AcDbEntity
  8
IMPORT_IGES
100
AcDbLine
 62
250
  6
CONTINUOUS
 10
-73.7995346174
 20
-67.4192780028
 11
-73.7982390883
 21
-66.8547778868
  0
LWPOLYLINE
  5
330
100
AcDbEntity
  8
IMPORT_IGES
100
AcDbPolyline
 62
250
  6
CONTINUOUS
 90
7
 70
0
 10
-74.180718708
 20
8.2759524792
 10
-74.0761049654
 20
34.8478070884
 10
-74.0613811243
 20
37.5926210796
 10
-74.044064663
 20
40.3268607483
 10
-74.0242876447
 20
43.0610864197
 10
-74.0009811014
 20
45.7952873648
 10
-73.972597469
 20
48.5294517423
  0
LINE
  5
331
100
AcDbEntity
  8
IMPORT_IGES
100
AcDbLine
 62
250
  6
CONTINUOUS
 10
-73.8115571196
 20
63.06192244
 11
-73.804789392
 21
68.1133913983
  0
LINE
  5
332
100
AcDbEntity
  8
IMPORT_IGES
100
AcDbLine
 62
250
  6
CONTINUOUS
 10
-73.8037189963
 20
-68.3900366386
 11
-73.7995346174
 21
-67.4192780028
  0
LINE
  5
333
100
AcDbEntity
  8
IMPORT_IGES
100
AcDbLine
 62
250
  6
CONTINUOUS
 10
-73.8170474068
 20
62.2001754732
 11
-73.8115571196
 21
63.06192244
  0
LINE
  5
334
100
AcDbEntity
  8
IMPORT_IGES
100
AcDbLine
 62
250
  6
CONTINUOUS
 10
-74.7957244232
 20
-67.5529831878
 11
-74.7929933404
 21
-67.1756537523
  0
LINE
  5
335
100
AcDbEntity
  8
IMPORT_IGES
100
AcDbLine
 62
250
  6
CONTINUOUS
 10
-73.8053448877
 20
-68.5641431108
 11
-73.8037189963
 21
-68.3900366386
  0
LINE
  5
336
100
AcDbEntity
  8
IMPORT_IGES
100
AcDbLine
 62
250
  6
CONTINUOUS
 10
-73.8063167502
 20
-68.6330553708
 11
-73.8053448877
 21
-68.5641431108
  0
LWPOLYLINE
  5
337
100
AcDbEntity
  8
0
100
AcDbPolyline
 62
7
  6
CONTINUOUS
 90
2
 70
0
 43
0.3500000006
 10
-61.8752885284
 20
81.7257157288
 10
-61.8752885284
 20
83.2257161865
  0
LWPOLYLINE
  5
338
100
AcDbEntity
  8
IMPORT_IGES
100
AcDbPolyline
 62
250
  6
CONTINUOUS
 90
7
 70
0
 10
-74.8048072088
 20
-67.8144854081
 10
-74.8029276704
 20
-67.8080911844
 10
-74.8012820197
 20
-67.7914138673
 10
-74.7998467408
 20
-67.7644283665
 10
-74.7985978549
 20
-67.7271067952
 10
-74.7975109973
 20
-67.6794313702
 10
-74.7957244232
 20
-67.5529831878
  0
LINE
  5
339
100
AcDbEntity
  8
IMPORT_IGES
100
AcDbLine
 62
7
  6
CONTINUOUS
 10
-49.7526409774
 20
69.0001754732
 11
-49.7526409774
 21
-69.0001754732
  0
LINE
  5
33A
100
AcDbEntity
  8
IMPORT_IGES
100
AcDbLine
 62
7
  6
CONTINUOUS
 10
-45.6741211499
 20
-69.0338629472
 11
-45.6741211499
 21
69.0357681765
  0
LINE
  5
33B
100
AcDbEntity
  8
IMPORT_IGES
100
AcDbLine
 62
7
  6
CONTINUOUS
 10
-43.6741211499
 20
-69.0357681765
 11
-43.6741211499
 21
68.9657681765
  0
LWPOLYLINE
  5
33C
100
AcDbEntity
  8
IMPORT_IGES
100
AcDbPolyline
 62
250
  6
CONTINUOUS
 90
10
 70
0
 10
-73.8138645717
 20
-68.790196356
 10
-73.8128610484
 20
-68.7886435155
 10
-73.8119159974
 20
-68.7839576914
 10
-73.8110294189
 20
-68.7761260791
 10
-73.8102043316
 20
-68.7651318821
 10
-73.8094377167
 20
-68.7509680731
 10
-73.8087205176
 20
-68.7336510839
 10
-73.8080531251
 20
-68.7131940547
 10
-73.8074351486
 20
-68.6895986979
 10
-73.8063167502
 20
-68.6330553708
  0
LWPOLYLINE
  5
33D
100
AcDbEntity
  8
IMPORT_IGES
100
AcDbPolyline
 62
250
  6
CONTINUOUS
 90
10
 70
0
 10
-74.8904256776
 20
67.8888923885
 10
-74.8874304148
 20
67.8857304059
 10
-74.8820346445
 20
67.8811360387
 10
-74.874564146
 20
67.8750990022
 10
-74.8653975765
 20
67.8672201054
 10
-74.8548797554
 20
67.8578744435
 10
-74.8433666185
 20
67.8482123757
 10
-74.8313444855
 20
67.8386087039
 10
-74.8193902508
 20
67.8286607911
 10
-74.8080072696
 20
67.8183357318
  0
LWPOLYLINE
  5
33E
100
AcDbEntity
  8
0
100
AcDbPolyline
 62
7
  6
CONTINUOUS
 90
10
 70
0
 43
0.3500000006
 10
-59.8752879181
 20
82.2257158813
 10
-59.8038612671
 20
82.0828625793
 10
-59.8038612671
 20
82.0114313965
 10
-59.946719101
 20
81.8685690308
 10
-60.018145752
 20
81.8685690308
 10
-60.0895769348
 20
81.9400002136
 10
-60.0895769348
 20
82.0114313965
 10
-60.018145752
 20
82.1542846985
 10
-59.946719101
 20
82.2257158813
 10
-59.8752879181
 20
82.2257158813
  0
LWPOLYLINE
  5
33F
100
AcDbEntity
  8
IMPORT_IGES
100
AcDbPolyline
 62
250
  6
CONTINUOUS
 90
10
 70
0
 10
-74.8048072088
 20
-67.8144854081
 10
-74.815992394
 20
-67.8247559599
 10
-74.8280110051
 20
-67.8348129799
 10
-74.8403215033
 20
-67.8446900742
 10
-74.8522723864
 20
-67.854851506
 10
-74.8633136253
 20
-67.8648665489
 10
-74.8730468871
 20
-67.8734112963
 10
-74.8810936036
 20
-67.880054359
 10
-74.8870402072
 20
-67.8852558064
 10
-74.8905351878
 20
-67.8890278713
  0
LINE
  5
340
100
AcDbEntity
  8
IMPORT_IGES
100
AcDbLine
 62
7
  6
CONTINUOUS
 10
-75.7061027551
 20
59.1747083652
 11
-75.6641586513
 21
59.1747084174
  0
LINE
  5
341
100
AcDbEntity
  8
IMPORT_IGES
100
AcDbLine
 62
7
  6
CONTINUOUS
 10
-43.6741211499
 20
62.1301754732
 11
-45.6741211499
 21
62.1301754732
  0
LINE
  5
342
100
AcDbEntity
  8
IMPORT_IGES
100
AcDbLine
 62
250
  6
CONTINUOUS
 10
-45.6741211499
 20
62.2001754732
 11
-73.8170474068
 21
62.2001754732
  0
LINE
  5
343
100
AcDbEntity
  8
IMPORT_IGES
100
AcDbLine
 62
250
  6
CONTINUOUS
 10
-74.8078737074
 20
62.209448624
 11
-73.8170474102
 21
62.2001754733
  0
LINE
  5
344
100
AcDbEntity
  8
IMPORT_IGES
100
AcDbLine
 62
7
  6
CONTINUOUS
 10
-73.9041077151
 20
68.789408816
 11
-49.7526409774
 21
69.0001754732
  0
LINE
  5
345
100
AcDbEntity
  8
IMPORT_IGES
100
AcDbLine
 62
7
  6
CONTINUOUS
 10
-49.7526409774
 20
69.0001754732
 11
-45.6741211499
 21
69.0357681765
  0
LINE
  5
346
100
AcDbEntity
  8
IMPORT_IGES
100
AcDbLine
 62
7
  6
CONTINUOUS
 10
-43.6741211499
 20
68.9657681765
 11
-45.6741211499
 21
68.9657681765
  0
LWPOLYLINE
  5
347
100
AcDbEntity
  8
0
100
AcDbPolyline
 62
7
  6
CONTINUOUS
 90
6
 70
0
 43
0.3500000006
 10
-65.0181472778
 20
81.7257157288
 10
-63.9467203217
 20
81.7257157288
 10
-63.7324313049
 20
81.9400002136
 10
-63.7324313049
 20
83.0114317017
 10
-64.1610048065
 20
83.4400006714
 10
-64.5895737762
 20
83.4400006714
  0
LWPOLYLINE
  5
348
100
AcDbEntity
  8
0
100
AcDbPolyline
 62
7
  6
CONTINUOUS
 90
6
 70
0
 43
0.3500000006
 10
-58.8038609619
 20
81.7257157288
 10
-57.7324340057
 20
81.7257157288
 10
-57.518144989
 20
81.9400002136
 10
-57.518144989
 20
83.0114317017
 10
-57.9467184906
 20
83.4400006714
 10
-58.3752919922
 20
83.4400006714
  0
LWPOLYLINE
  5
349
100
AcDbEntity
  8
0
100
AcDbPolyline
 62
7
  6
CONTINUOUS
 90
3
 70
0
 43
0.3500000006
 10
-61.3752883759
 20
82.3685691833
 10
-62.8752888336
 20
82.3685691833
 10
-62.2324308472
 20
84.7257166443
  0
ARC
  5
34A
100
AcDbEntity
  8
IMPORT_IGES
100
AcDbCircle
 62
7
  6
CONTINUOUS
 10
-10.501648994
 20
-62.0376550653
 40
7.0
100
AcDbArc
 50
267.6881708039
 51
268.6696156727
  0
ARC
  5
34B
100
AcDbEntity
  8
IMPORT_IGES
100
AcDbCircle
 62
7
  6
CONTINUOUS
 10
10.501648994
 20
-62.0376550653
 40
7.0
100
AcDbArc
 50
271.3303843273
 51
272.3118291961
  0
ARC
  5
34C
100
AcDbEntity
  8
IMPORT_IGES
100
AcDbCircle
 62
7
  6
CONTINUOUS
 10
10.7841694019
 20
-62.2001754732
 40
6.8355927033
100
AcDbArc
 50
269.9993515546
 51
360.0
  0
ARC
  5
34D
100
AcDbEntity
  8
IMPORT_IGES
100
AcDbCircle
 62
7
  6
CONTINUOUS
 10
10.7841694019
 20
62.2001754732
 40
6.8355927033
100
AcDbArc
 50
0.0
 51
90.0000000001
  0
ARC
  5
34E
100
AcDbEntity
  8
IMPORT_IGES
100
AcDbCircle
 62
7
  6
CONTINUOUS
 10
-10.7841694019
 20
62.2001754732
 40
6.8355927033
100
AcDbArc
 50
89.9999999999
 51
180.0
  0
ARC
  5
34F
100
AcDbEntity
  8
IMPORT_IGES
100
AcDbCircle
 62
7
  6
CONTINUOUS
 10
-10.7841694019
 20
-62.2001754732
 40
6.8355927033
100
AcDbArc
 50
180.0
 51
270.0006484454
  0
ARC
  5
350
100
AcDbEntity
  8
IMPORT_IGES
100
AcDbCircle
 62
7
  6
CONTINUOUS
 10
-10.7841694019
 20
-62.2001754732
 40
6.8
100
AcDbArc
 50
180.0
 51
270.0000000001
  0
ARC
  5
351
100
AcDbEntity
  8
IMPORT_IGES
100
AcDbCircle
 62
7
  6
CONTINUOUS
 10
-10.7841694019
 20
62.2001754732
 40
6.8
100
AcDbArc
 50
90.0
 51
180.0
  0
ARC
  5
352
100
AcDbEntity
  8
IMPORT_IGES
100
AcDbCircle
 62
7
  6
CONTINUOUS
 10
10.7841694019
 20
62.2001754732
 40
6.8
100
AcDbArc
 50
0.0000000001
 51
90.0
  0
ARC
  5
353
100
AcDbEntity
  8
IMPORT_IGES
100
AcDbCircle
 62
7
  6
CONTINUOUS
 10
10.7841694019
 20
-62.2001754732
 40
6.8
100
AcDbArc
 50
270.0
 51
360.0
  0
CIRCLE
  5
354
100
AcDbEntity
  8
IMPORT_IGES
100
AcDbCircle
 62
7
  6
CONTINUOUS
 10
-0.0000006102
 20
40.499919
 40
2.5055713149
  0
ARC
  5
355
100
AcDbEntity
  8
IMPORT_IGES
100
AcDbCircle
 62
7
  6
CONTINUOUS
 10
-0.005571925
 20
40.499919
 40
2.5
100
AcDbArc
 50
270.0005152371
 51
89.9994847629
  0
ARC
  5
356
100
AcDbEntity
  8
IMPORT_IGES
100
AcDbCircle
 62
7
  6
CONTINUOUS
 10
-385.3384001441
 20
29.9326934372
 40
311.051806059
100
AcDbArc
 50
5.2791288678
 51
5.3943269131
  0
ARC
  5
357
100
AcDbEntity
  8
IMPORT_IGES
100
AcDbCircle
 62
7
  6
CONTINUOUS
 10
-379.9008513992
 20
-29.9093643501
 40
305.6142546228
100
AcDbArc
 50
354.489481615
 51
354.7082548103
  0
ARC
  5
358
100
AcDbEntity
  8
IMPORT_IGES
100
AcDbCircle
 62
250
  6
CONTINUOUS
 10
-73.8953817114
 20
67.7894458322
 40
1.0000010561
100
AcDbArc
 50
90.4999690057
 51
174.2925107644
  0
ELLIPSE
  5
359
100
AcDbEntity
  8
IMPORT_IGES
100
AcDbEllipse
 62
7
  6
CONTINUOUS
 10
0.0053147725
 20
68.9580676653
 30
0.0
 11
1.0
 21
-0.0
 31
0.0
 40
0.0087268678
 41
0.0
 42
6.2831853072
  0
ELLIPSE
  5
35A
100
AcDbEntity
  8
IMPORT_IGES
100
AcDbEllipse
 62
7
  6
CONTINUOUS
 10
0.0053147725
 20
-68.9580676653
 30
0.0
 11
1.0
 21
-0.0
 31
0.0
 40
0.0087268678
 41
0.0
 42
6.2831853072
  0
ENDSEC
  0
SECTION
  2
OBJECTS
  0
DICTIONARY
  5
C
100
AcDbDictionary
280
0
281
1
  3
ACAD_GROUP
350
D
  3
ACAD_MLINESTYLE
350
17
  3
ACAD_LAYOUT
350
1A
  3
ACAD_PLOTSETTINGS
350
19
  3
ACAD_PLOTSTYLENAME
350
E
  0
DICTIONARY
  5
D
102
{ACAD_REACTORS
330
C
102
}
100
AcDbDictionary
280
0
281
1
  0
ACDBDICTIONARYWDFLT
  5
E
102
{ACAD_REACTORS
330
C
102
}
100
AcDbDictionary
281
1
  3
Normal
350
F
100
AcDbDictionaryWithDefault
340
F
  0
DICTIONARY
  5
17
102
{ACAD_REACTORS
330
C
102
}
100
AcDbDictionary
280
0
281
1
  3
Standard
350
18
  0
DICTIONARY
  5
19
102
{ACAD_REACTORS
330
C
102
}
100
AcDbDictionary
281
1
  0
DICTIONARY
  5
1A
102
{ACAD_REACTORS
330
C
102
}
100
AcDbDictionary
281
1
  3
Model
350
35B
  3
Layout1
350
35C
  0
ACDBPLACEHOLDER
  5
F
102
{ACAD_REACTORS
330
E
102
}
  0
MLINESTYLE
  5
18
102
{ACAD_REACTORS
330
17
102
}
100
AcDbMlineStyle
  2
STANDARD
 70
0
  3

 62
256
 51
90.0
 52
90.0
 71
2
 49
0.5
 62
256
  6
BYLAYER
 49
-0.5
 62
256
  6
BYLAYER
  0
LAYOUT
  5
35B
102
{ACAD_REACTORS
330
1A
102
}
100
AcDbPlotSettings
  1

  2
none_device
  4
ISO_A4_(297.00_x_210.00_MM)
  6

 40
0.0
 41
0.0
 42
0.0
 43
0.0
 44
297.0
 45
210.0
 46
0.0
 47
0.0
 48
0.0
 49
0.0
140
0.0
141
0.0
142
1.0
143
1.0
 70
1024
 72
1
 73
0
 74
0
  7

 75
0
147
1.0
148
0.0
149
0.0
100
AcDbLayout
  1
Model
 70
0
 71
0
 10
0.0
 20
0.0
 11
297.0
 21
210.0
 12
0.0
 22
0.0
 32
0.0
 14
0.0
 24
0.0
 34
0.0
 15
0.0
 25
0.0
 35
0.0
146
0.0
 13
0.0
 23
0.0
 33
0.0
 16
1.0
 26
0.0
 36
0.0
 17
0.0
 27
1.0
 37
0.0
 76
0
330
227
345
0
346
0
  0
LAYOUT
  5
35C
102
{ACAD_REACTORS
330
1A
102
}
100
AcDbPlotSettings
  1

  2
none_device
  4
ISO_A4_(297.00_x_210.00_MM)
  6

 40
0.0
 41
0.0
 42
0.0
 43
0.0
 44
297.0
 45
210.0
 46
0.0
 47
0.0
 48
0.0
 49
0.0
140
0.0
141
0.0
142
1.0
143
1.0
 70
0
 72
1
 73
0
 74
0
  7

 75
0
147
1.0
148
0.0
149
0.0
100
AcDbLayout
  1
Layout1
 70
0
 71
1
 10
0.0
 20
0.0
 11
297.0
 21
210.0
 12
0.0
 22
0.0
 32
0.0
 14
0.0
 24
0.0
 34
0.0
 15
0.0
 25
0.0
 35
0.0
146
0.0
 13
0.0
 23
0.0
 33
0.0
 16
1.0
 26
0.0
 36
0.0
 17
0.0
 27
1.0
 37
0.0
 76
0
330
228
345
0
346
0
  0
ENDSEC
  0
EOF
