  0
SECTION
  2
HEADER
  9
$ACADVER
  1
AC1024
  9
$DWGCODEPAGE
  3
ANSI_1252
  9
$EXTMAX
 10
297.0
 20
210.0
 30
0.0
  9
$EXTMIN
 10
0.0
 20
0.0
 30
0.0
  9
$LIMMIN
 10
0.0
 20
0.0
  9
$LIMMAX
 10
297.0
 20
210.0
  9
$VIEWCTR
 10
148.5
 20
105.0
  9
$VIEWSIZE
 40
210.0
  9
$CLAYER
  8
0
  9
$LTSCALE
 40
16.335
  9
$CELTYPE
  6
BYLAYER
  9
$DIMSCALE
 40
1.0
  9
$DIMASZ
 40
3.0
  9
$DIMEXO
 40
0.5
  9
$DIMDLI
 40
11.286
  9
$DIMEXE
 40
1.5
  9
$DIMCEN
 40
2.673
  9
$DIMLFAC
 40
1.0
  9
$DIMBLK
  1
_FILLED
  9
$DIMALT
 70
0
  9
$DIMALTF
 40
0.0393700787
  9
$DIMTXT
 40
3.0
  9
$DIMTOL
 70
1
  9
$DIMLIM
 70
0
  9
$DIMTFAC
 40
1.0
  9
$DIMTP
 40
0.01
  9
$DIMTM
 40
0.01
  9
$DIMGAP
 40
0.625
  9
$DIMDSEP
 70
44
  9
$AUNITS
 70
0
  9
$PDMODE
 70
3
  9
$PDSIZE
 40
3.0
  9
$HANDSEED
  5
4C8
  9
$TILEMODE
 70
1
  9
$MEASUREMENT
 70
1
  9
$INSUNITS
 70
4
  0
ENDSEC
  0
SECTION
  2
CLASSES
  0
CLASS
  1
ACDBDICTIONARYWDFLT
  2
AcDbDictionaryWithDefault
  3
AutoCAD 2000
 90
0
 91
1
280
0
281
0
  0
CLASS
  1
ACDBPLACEHOLDER
  2
AcDbPlaceHolder
  3
AutoCAD 2000
 90
0
 91
1
280
0
281
0
  0
CLASS
  1
LAYOUT
  2
AcDbLayout
  3
AutoCAD 2000
 90
0
 91
0
280
0
281
0
  0
ENDSEC
  0
SECTION
  2
TABLES
  0
TABLE
  2
VPORT
  5
8
100
AcDbSymbolTable
 70
2
  0
VPORT
  5
1F4
100
AcDbSymbolTableRecord
100
AcDbViewportTableRecord
  2
*ACTIVE
 70
0
 10
0.0
 20
0.0
 11
1.0
 21
1.0
 12
148.5
 22
105.0
 13
0.0
 23
0.0
 14
1.0
 24
1.0
 15
0.0
 25
0.0
 16
0.0
 26
0.0
 36
1.0
 17
0.0
 27
0.0
 37
0.0
 40
210.0
 41
1.4142857143
 42
50.0
 43
0.0
 44
0.0
 50
0.0
 51
0.0
 71
0
 72
100
 73
1
 74
1
 75
0
 76
0
 77
0
 78
0
  0
ENDTAB
  0
TABLE
  2
LTYPE
  5
5
100
AcDbSymbolTable
 70
6
  0
LTYPE
  5
14
100
AcDbSymbolTableRecord
100
AcDbLinetypeTableRecord
  2
BYBLOCK
 70
0
  3

 72
65
 73
0
 40
0.0
  0
LTYPE
  5
15
100
AcDbSymbolTableRecord
100
AcDbLinetypeTableRecord
  2
BYLAYER
 70
0
  3

 72
65
 73
0
 40
0.0
  0
LTYPE
  5
16
100
AcDbSymbolTableRecord
100
AcDbLinetypeTableRecord
  2
CONTINUOUS
 70
64
  3
Solid line
 72
65
 73
0
 40
0.0
  0
LTYPE
  5
1F5
100
AcDbSymbolTableRecord
100
AcDbLinetypeTableRecord
  2
CENTER
 70
64
  3
____ _ ____ _ ____ _ ____ _ ____ _ ____ _ ____
 72
65
 73
4
 40
0.6
 49
0.375
 74
0
 49
-0.075
 74
0
 49
0.075
 74
0
 49
-0.075
 74
0
  0
LTYPE
  5
1F6
100
AcDbSymbolTableRecord
100
AcDbLinetypeTableRecord
  2
HIDDEN
 70
64
  3
- - - - - - - - - - - - - - - - - - - -
 72
65
 73
2
 40
0.2
 49
0.1
 74
0
 49
-0.1
 74
0
  0
LTYPE
  5
1F7
100
AcDbSymbolTableRecord
100
AcDbLinetypeTableRecord
  2
PHANTOM
 70
64
  3
_____ _ _ _____ _ _ _____ _ _ _____
 72
65
 73
6
 40
0.8
 49
0.45
 74
0
 49
-0.05
 74
0
 49
0.1
 74
0
 49
-0.05
 74
0
 49
0.1
 74
0
 49
-0.05
 74
0
  0
LTYPE
  5
1F8
100
AcDbSymbolTableRecord
100
AcDbLinetypeTableRecord
  2
DOT
 70
64
  3
. . . . . . . . . . . . . . . . . . . .
 72
65
 73
2
 40
0.2
 49
0.1
 74
0
 49
-0.1
 74
0
  0
LTYPE
  5
1F9
100
AcDbSymbolTableRecord
100
AcDbLinetypeTableRecord
  2
DASHED
 70
64
  3
- - - - - - - - - - - - - - - - - - - -
 72
65
 73
2
 40
0.2
 49
0.1
 74
0
 49
-0.1
 74
0
  0
ENDTAB
  0
TABLE
  2
LAYER
  5
2
100
AcDbSymbolTable
 70
36
  0
LAYER
  5
10
100
AcDbSymbolTableRecord
100
AcDbLayerTableRecord
  2
0
 70
0
 62
7
  6
CONTINUOUS
370
-3
390
F
  0
LAYER
  5
1FA
100
AcDbSymbolTableRecord
100
AcDbLayerTableRecord
  2
DEFAULT_1
 70
0
 62
7
  6
CENTER
370
-3
390
F
  0
LAYER
  5
1FB
100
AcDbSymbolTableRecord
100
AcDbLayerTableRecord
  2
DEFAULT_2
 70
0
 62
7
  6
HIDDEN
370
-3
390
F
  0
LAYER
  5
1FC
100
AcDbSymbolTableRecord
100
AcDbLayerTableRecord
  2
DEFAULT_3
 70
0
 62
7
  6
PHANTOM
370
-3
390
F
  0
LAYER
  5
1FD
100
AcDbSymbolTableRecord
100
AcDbLayerTableRecord
  2
0402_C_REF_70000
 70
0
 62
7
  6
CONTINUOUS
370
-3
390
F
  0
LAYER
  5
1FE
100
AcDbSymbolTableRecord
100
AcDbLayerTableRecord
  2
0402_C_REF_70000_1
 70
0
 62
7
  6
CONTINUOUS
370
-3
390
F
  0
LAYER
  5
1FF
100
AcDbSymbolTableRecord
100
AcDbLayerTableRecord
  2
0402_C_REF_70000_10
 70
0
 62
7
  6
CONTINUOUS
370
-3
390
F
  0
LAYER
  5
200
100
AcDbSymbolTableRecord
100
AcDbLayerTableRecord
  2
0402_C_REF_70000_11
 70
0
 62
7
  6
CONTINUOUS
370
-3
390
F
  0
LAYER
  5
201
100
AcDbSymbolTableRecord
100
AcDbLayerTableRecord
  2
0402_C_REF_70000_12
 70
0
 62
7
  6
CONTINUOUS
370
-3
390
F
  0
LAYER
  5
202
100
AcDbSymbolTableRecord
100
AcDbLayerTableRecord
  2
0402_C_REF_70000_13
 70
0
 62
7
  6
CONTINUOUS
370
-3
390
F
  0
LAYER
  5
203
100
AcDbSymbolTableRecord
100
AcDbLayerTableRecord
  2
0402_C_REF_70000_14
 70
0
 62
7
  6
CONTINUOUS
370
-3
390
F
  0
LAYER
  5
204
100
AcDbSymbolTableRecord
100
AcDbLayerTableRecord
  2
0402_C_REF_70000_15
 70
0
 62
7
  6
CONTINUOUS
370
-3
390
F
  0
LAYER
  5
205
100
AcDbSymbolTableRecord
100
AcDbLayerTableRecord
  2
0402_C_REF_70000_16
 70
0
 62
7
  6
CONTINUOUS
370
-3
390
F
  0
LAYER
  5
206
100
AcDbSymbolTableRecord
100
AcDbLayerTableRecord
  2
0402_C_REF_70000_17
 70
0
 62
7
  6
CONTINUOUS
370
-3
390
F
  0
LAYER
  5
207
100
AcDbSymbolTableRecord
100
AcDbLayerTableRecord
  2
0402_C_REF_70000_18
 70
0
 62
7
  6
CONTINUOUS
370
-3
390
F
  0
LAYER
  5
208
100
AcDbSymbolTableRecord
100
AcDbLayerTableRecord
  2
0402_C_REF_70000_19
 70
0
 62
7
  6
CONTINUOUS
370
-3
390
F
  0
LAYER
  5
209
100
AcDbSymbolTableRecord
100
AcDbLayerTableRecord
  2
0402_C_REF_70000_2
 70
0
 62
7
  6
CONTINUOUS
370
-3
390
F
  0
LAYER
  5
20A
100
AcDbSymbolTableRecord
100
AcDbLayerTableRecord
  2
0402_C_REF_70000_20
 70
0
 62
7
  6
CONTINUOUS
370
-3
390
F
  0
LAYER
  5
20B
100
AcDbSymbolTableRecord
100
AcDbLayerTableRecord
  2
0402_C_REF_70000_21
 70
0
 62
7
  6
CONTINUOUS
370
-3
390
F
  0
LAYER
  5
20C
100
AcDbSymbolTableRecord
100
AcDbLayerTableRecord
  2
0402_C_REF_70000_22
 70
0
 62
7
  6
CONTINUOUS
370
-3
390
F
  0
LAYER
  5
20D
100
AcDbSymbolTableRecord
100
AcDbLayerTableRecord
  2
0402_C_REF_70000_23
 70
0
 62
7
  6
CONTINUOUS
370
-3
390
F
  0
LAYER
  5
20E
100
AcDbSymbolTableRecord
100
AcDbLayerTableRecord
  2
0402_C_REF_70000_24
 70
0
 62
7
  6
CONTINUOUS
370
-3
390
F
  0
LAYER
  5
20F
100
AcDbSymbolTableRecord
100
AcDbLayerTableRecord
  2
0402_C_REF_70000_25
 70
0
 62
7
  6
CONTINUOUS
370
-3
390
F
  0
LAYER
  5
210
100
AcDbSymbolTableRecord
100
AcDbLayerTableRecord
  2
0402_C_REF_70000_26
 70
0
 62
7
  6
CONTINUOUS
370
-3
390
F
  0
LAYER
  5
211
100
AcDbSymbolTableRecord
100
AcDbLayerTableRecord
  2
0402_C_REF_70000_27
 70
0
 62
7
  6
CONTINUOUS
370
-3
390
F
  0
LAYER
  5
212
100
AcDbSymbolTableRecord
100
AcDbLayerTableRecord
  2
0402_C_REF_70000_28
 70
0
 62
7
  6
CONTINUOUS
370
-3
390
F
  0
LAYER
  5
213
100
AcDbSymbolTableRecord
100
AcDbLayerTableRecord
  2
0402_C_REF_70000_29
 70
0
 62
7
  6
CONTINUOUS
370
-3
390
F
  0
LAYER
  5
214
100
AcDbSymbolTableRecord
100
AcDbLayerTableRecord
  2
0402_C_REF_70000_3
 70
0
 62
7
  6
CONTINUOUS
370
-3
390
F
  0
LAYER
  5
215
100
AcDbSymbolTableRecord
100
AcDbLayerTableRecord
  2
0402_C_REF_70000_30
 70
0
 62
7
  6
CONTINUOUS
370
-3
390
F
  0
LAYER
  5
216
100
AcDbSymbolTableRecord
100
AcDbLayerTableRecord
  2
0402_C_REF_70000_4
 70
0
 62
7
  6
CONTINUOUS
370
-3
390
F
  0
LAYER
  5
217
100
AcDbSymbolTableRecord
100
AcDbLayerTableRecord
  2
0402_C_REF_70000_5
 70
0
 62
7
  6
CONTINUOUS
370
-3
390
F
  0
LAYER
  5
218
100
AcDbSymbolTableRecord
100
AcDbLayerTableRecord
  2
0402_C_REF_70000_6
 70
0
 62
7
  6
CONTINUOUS
370
-3
390
F
  0
LAYER
  5
219
100
AcDbSymbolTableRecord
100
AcDbLayerTableRecord
  2
0402_C_REF_70000_7
 70
0
 62
7
  6
CONTINUOUS
370
-3
390
F
  0
LAYER
  5
21A
100
AcDbSymbolTableRecord
100
AcDbLayerTableRecord
  2
0402_C_REF_70000_8
 70
0
 62
7
  6
CONTINUOUS
370
-3
390
F
  0
LAYER
  5
21B
100
AcDbSymbolTableRecord
100
AcDbLayerTableRecord
  2
0402_C_REF_70000_9
 70
0
 62
7
  6
CONTINUOUS
370
-3
390
F
  0
LAYER
  5
21C
100
AcDbSymbolTableRecord
100
AcDbLayerTableRecord
  2
0402_L_REF_55000
 70
0
 62
7
  6
CONTINUOUS
370
-3
390
F
  0
LAYER
  5
21D
100
AcDbSymbolTableRecord
100
AcDbLayerTableRecord
  2
0402_R_REF_30000
 70
0
 62
7
  6
CONTINUOUS
370
-3
390
F
  0
LAYER
  5
21E
100
AcDbSymbolTableRecord
100
AcDbLayerTableRecord
  2
0402_R_REF_30000_1
 70
0
 62
7
  6
CONTINUOUS
370
-3
390
F
  0
LAYER
  5
21F
100
AcDbSymbolTableRecord
100
AcDbLayerTableRecord
  2
0402_R_REF_30000_2
 70
0
 62
7
  6
CONTINUOUS
370
-3
390
F
  0
LAYER
  5
220
100
AcDbSymbolTableRecord
100
AcDbLayerTableRecord
  2
0402_R_REF_30000_3
 70
0
 62
7
  6
CONTINUOUS
370
-3
390
F
  0
LAYER
  5
221
100
AcDbSymbolTableRecord
100
AcDbLayerTableRecord
  2
0402_R_REF_30000_4
 70
0
 62
7
  6
CONTINUOUS
370
-3
390
F
  0
LAYER
  5
222
100
AcDbSymbolTableRecord
100
AcDbLayerTableRecord
  2
0402_R_REF_30000_5
 70
0
 62
7
  6
CONTINUOUS
370
-3
390
F
  0
LAYER
  5
223
100
AcDbSymbolTableRecord
100
AcDbLayerTableRecord
  2
0402_R_REF_30000_6
 70
0
 62
7
  6
CONTINUOUS
370
-3
390
F
  0
LAYER
  5
224
100
AcDbSymbolTableRecord
100
AcDbLayerTableRecord
  2
0402_R_REF_30000_7
 70
0
 62
7
  6
CONTINUOUS
370
-3
390
F
  0
LAYER
  5
225
100
AcDbSymbolTableRecord
100
AcDbLayerTableRecord
  2
0603_C_REF_90000
 70
0
 62
7
  6
CONTINUOUS
370
-3
390
F
  0
LAYER
  5
226
100
AcDbSymbolTableRecord
100
AcDbLayerTableRecord
  2
0603_C_REF_90000_1
 70
0
 62
7
  6
CONTINUOUS
370
-3
390
F
  0
LAYER
  5
227
100
AcDbSymbolTableRecord
100
AcDbLayerTableRecord
  2
0603_C_REF_90000_2
 70
0
 62
7
  6
CONTINUOUS
370
-3
390
F
  0
LAYER
  5
228
100
AcDbSymbolTableRecord
100
AcDbLayerTableRecord
  2
0603_C_REF_90000_3
 70
0
 62
7
  6
CONTINUOUS
370
-3
390
F
  0
LAYER
  5
229
100
AcDbSymbolTableRecord
100
AcDbLayerTableRecord
  2
0603_C_REF_90000_4
 70
0
 62
7
  6
CONTINUOUS
370
-3
390
F
  0
LAYER
  5
22A
100
AcDbSymbolTableRecord
100
AcDbLayerTableRecord
  2
0603_R_REF_55000
 70
0
 62
7
  6
CONTINUOUS
370
-3
390
F
  0
LAYER
  5
22B
100
AcDbSymbolTableRecord
100
AcDbLayerTableRecord
  2
0603_R_REF_55000_1
 70
0
 62
7
  6
CONTINUOUS
370
-3
390
F
  0
LAYER
  5
22C
100
AcDbSymbolTableRecord
100
AcDbLayerTableRecord
  2
0603_R_REF_55000_2
 70
0
 62
7
  6
CONTINUOUS
370
-3
390
F
  0
LAYER
  5
22D
100
AcDbSymbolTableRecord
100
AcDbLayerTableRecord
  2
0603_R_REF_55000_3
 70
0
 62
7
  6
CONTINUOUS
370
-3
390
F
  0
LAYER
  5
22E
100
AcDbSymbolTableRecord
100
AcDbLayerTableRecord
  2
0603_R_REF_55000_4
 70
0
 62
7
  6
CONTINUOUS
370
-3
390
F
  0
LAYER
  5
22F
100
AcDbSymbolTableRecord
100
AcDbLayerTableRecord
  2
0603_R_REF_55000_5
 70
0
 62
7
  6
CONTINUOUS
370
-3
390
F
  0
LAYER
  5
230
100
AcDbSymbolTableRecord
100
AcDbLayerTableRecord
  2
0603_R_REF_55000_6
 70
0
 62
7
  6
CONTINUOUS
370
-3
390
F
  0
LAYER
  5
231
100
AcDbSymbolTableRecord
100
AcDbLayerTableRecord
  2
06___PRT_ALL_SURFS_1
 70
0
 62
7
  6
CONTINUOUS
370
-3
390
F
  0
LAYER
  5
232
100
AcDbSymbolTableRecord
100
AcDbLayerTableRecord
  2
06___PRT_ALL_SURFS_13
 70
0
 62
7
  6
CONTINUOUS
370
-3
390
F
  0
LAYER
  5
233
100
AcDbSymbolTableRecord
100
AcDbLayerTableRecord
  2
06___PRT_ALL_SURFS_2
 70
0
 62
7
  6
CONTINUOUS
370
-3
390
F
  0
LAYER
  5
234
100
AcDbSymbolTableRecord
100
AcDbLayerTableRecord
  2
06___PRT_ALL_SURFS_21
 70
0
 62
7
  6
CONTINUOUS
370
-3
390
F
  0
LAYER
  5
235
100
AcDbSymbolTableRecord
100
AcDbLayerTableRecord
  2
06___PRT_ALL_SURFS_5
 70
0
 62
7
  6
CONTINUOUS
370
-3
390
F
  0
LAYER
  5
236
100
AcDbSymbolTableRecord
100
AcDbLayerTableRecord
  2
06___PRT_ALL_SURFS_9
 70
0
 62
7
  6
CONTINUOUS
370
-3
390
F
  0
LAYER
  5
237
100
AcDbSymbolTableRecord
100
AcDbLayerTableRecord
  2
0805_L_REF_145000
 70
0
 62
7
  6
CONTINUOUS
370
-3
390
F
  0
LAYER
  5
238
100
AcDbSymbolTableRecord
100
AcDbLayerTableRecord
  2
43000982A0
 70
0
 62
7
  6
CONTINUOUS
370
-3
390
F
  0
LAYER
  5
239
100
AcDbSymbolTableRecord
100
AcDbLayerTableRecord
  2
43000986A0
 70
0
 62
7
  6
CONTINUOUS
370
-3
390
F
  0
LAYER
  5
23A
100
AcDbSymbolTableRecord
100
AcDbLayerTableRecord
  2
ASSI
 70
0
 62
7
  6
CONTINUOUS
370
-3
390
F
  0
LAYER
  5
23B
100
AcDbSymbolTableRecord
100
AcDbLayerTableRecord
  2
BASE_V3-H1_1
 70
0
 62
7
  6
CONTINUOUS
370
-3
390
F
  0
LAYER
  5
23C
100
AcDbSymbolTableRecord
100
AcDbLayerTableRecord
  2
BASE_V3-H2_1
 70
0
 62
7
  6
CONTINUOUS
370
-3
390
F
  0
LAYER
  5
23D
100
AcDbSymbolTableRecord
100
AcDbLayerTableRecord
  2
BASE_V3-H3_1
 70
0
 62
7
  6
CONTINUOUS
370
-3
390
F
  0
LAYER
  5
23E
100
AcDbSymbolTableRecord
100
AcDbLayerTableRecord
  2
CN_STRIP_M_THT_P2_54_R1_P4_TET_
 70
0
 62
7
  6
CONTINUOUS
370
-3
390
F
  0
LAYER
  5
23F
100
AcDbSymbolTableRecord
100
AcDbLayerTableRecord
  2
CN_THT_SAURO_MSB03001_R1_P3_SET
 70
0
 62
7
  6
CONTINUOUS
370
-3
390
F
  0
LAYER
  5
240
100
AcDbSymbolTableRecord
100
AcDbLayerTableRecord
  2
COLOR1
 70
0
 62
7
  6
CONTINUOUS
370
-3
390
F
  0
LAYER
  5
241
100
AcDbSymbolTableRecord
100
AcDbLayerTableRecord
  2
COLOR25
 70
0
 62
7
  6
CONTINUOUS
370
-3
390
F
  0
LAYER
  5
242
100
AcDbSymbolTableRecord
100
AcDbLayerTableRecord
  2
COLOR32
 70
0
 62
7
  6
CONTINUOUS
370
-3
390
F
  0
LAYER
  5
243
100
AcDbSymbolTableRecord
100
AcDbLayerTableRecord
  2
COLOR33
 70
0
 62
7
  6
CONTINUOUS
370
-3
390
F
  0
LAYER
  5
244
100
AcDbSymbolTableRecord
100
AcDbLayerTableRecord
  2
COLOR34
 70
0
 62
7
  6
CONTINUOUS
370
-3
390
F
  0
LAYER
  5
245
100
AcDbSymbolTableRecord
100
AcDbLayerTableRecord
  2
COLOR35
 70
0
 62
7
  6
CONTINUOUS
370
-3
390
F
  0
LAYER
  5
246
100
AcDbSymbolTableRecord
100
AcDbLayerTableRecord
  2
COLOR36
 70
0
 62
7
  6
CONTINUOUS
370
-3
390
F
  0
LAYER
  5
247
100
AcDbSymbolTableRecord
100
AcDbLayerTableRecord
  2
COLOR37
 70
0
 62
7
  6
CONTINUOUS
370
-3
390
F
  0
LAYER
  5
248
100
AcDbSymbolTableRecord
100
AcDbLayerTableRecord
  2
COLOR38
 70
0
 62
7
  6
CONTINUOUS
370
-3
390
F
  0
LAYER
  5
249
100
AcDbSymbolTableRecord
100
AcDbLayerTableRecord
  2
COORDINATE
 70
0
 62
7
  6
CONTINUOUS
370
-3
390
F
  0
LAYER
  5
24A
100
AcDbSymbolTableRecord
100
AcDbLayerTableRecord
  2
COPY_PUBLISH
 70
0
 62
7
  6
CONTINUOUS
370
-3
390
F
  0
LAYER
  5
24B
100
AcDbSymbolTableRecord
100
AcDbLayerTableRecord
  2
COSMETICI
 70
0
 62
7
  6
CONTINUOUS
370
-3
390
F
  0
LAYER
  5
24C
100
AcDbSymbolTableRecord
100
AcDbLayerTableRecord
  2
COVER_V3_1
 70
0
 62
7
  6
CONTINUOUS
370
-3
390
F
  0
LAYER
  5
24D
100
AcDbSymbolTableRecord
100
AcDbLayerTableRecord
  2
CURVE
 70
0
 62
7
  6
CONTINUOUS
370
-3
390
F
  0
LAYER
  5
24E
100
AcDbSymbolTableRecord
100
AcDbLayerTableRecord
  2
DRAFT
 70
0
 62
7
  6
CONTINUOUS
370
-3
390
F
  0
LAYER
  5
24F
100
AcDbSymbolTableRecord
100
AcDbLayerTableRecord
  2
FIDUCIAL_1MM_0
 70
0
 62
7
  6
CONTINUOUS
370
-3
390
F
  0
LAYER
  5
250
100
AcDbSymbolTableRecord
100
AcDbLayerTableRecord
  2
FIDUCIAL_1MM_0_1
 70
0
 62
7
  6
CONTINUOUS
370
-3
390
F
  0
LAYER
  5
251
100
AcDbSymbolTableRecord
100
AcDbLayerTableRecord
  2
FIDUCIAL_1_2_MM_RUOTATO_45_1000
 70
0
 62
7
  6
CONTINUOUS
370
-3
390
F
  0
LAYER
  5
252
100
AcDbSymbolTableRecord
100
AcDbLayerTableRecord
  2
FIDUCIAL_1_2_MM_RUOTATO_45_10_1
 70
0
 62
7
  6
CONTINUOUS
370
-3
390
F
  0
LAYER
  5
253
100
AcDbSymbolTableRecord
100
AcDbLayerTableRecord
  2
GEOMETRIA_SOLIDA
 70
0
 62
7
  6
CONTINUOUS
370
-3
390
F
  0
LAYER
  5
254
100
AcDbSymbolTableRecord
100
AcDbLayerTableRecord
  2
GEOMETRIA_SOLIDA_1
 70
0
 62
7
  6
CONTINUOUS
370
-3
390
F
  0
LAYER
  5
255
100
AcDbSymbolTableRecord
100
AcDbLayerTableRecord
  2
GEOMETRIA_SOLIDA_2
 70
0
 62
7
  6
CONTINUOUS
370
-3
390
F
  0
LAYER
  5
256
100
AcDbSymbolTableRecord
100
AcDbLayerTableRecord
  2
IMPORT_IGES
 70
0
 62
7
  6
CONTINUOUS
370
-3
390
F
  0
LAYER
  5
257
100
AcDbSymbolTableRecord
100
AcDbLayerTableRecord
  2
LOGO_RESIST-RESTYLING_10000
 70
0
 62
7
  6
CONTINUOUS
370
-3
390
F
  0
LAYER
  5
258
100
AcDbSymbolTableRecord
100
AcDbLayerTableRecord
  2
MAGNETE_TONDO_1
 70
0
 62
7
  6
CONTINUOUS
370
-3
390
F
  0
LAYER
  5
259
100
AcDbSymbolTableRecord
100
AcDbLayerTableRecord
  2
MB_PCB_LUNGO_ASM_2
 70
0
 62
7
  6
CONTINUOUS
370
-3
390
F
  0
LAYER
  5
25A
100
AcDbSymbolTableRecord
100
AcDbLayerTableRecord
  2
MC300-ASM_PCB_ASM_3
 70
0
 62
7
  6
CONTINUOUS
370
-3
390
F
  0
LAYER
  5
25B
100
AcDbSymbolTableRecord
100
AcDbLayerTableRecord
  2
MC300-BASE_33
 70
0
 62
7
  6
CONTINUOUS
370
-3
390
F
  0
LAYER
  5
25C
100
AcDbSymbolTableRecord
100
AcDbLayerTableRecord
  2
MC300-COVER_25_2
 70
0
 62
7
  6
CONTINUOUS
370
-3
390
F
  0
LAYER
  5
25D
100
AcDbSymbolTableRecord
100
AcDbLayerTableRecord
  2
MC300-TEST_BUTTON_1_1
 70
0
 62
7
  6
CONTINUOUS
370
-3
390
F
  0
LAYER
  5
25E
100
AcDbSymbolTableRecord
100
AcDbLayerTableRecord
  2
MC300_ASM_18
 70
0
 62
7
  6
CONTINUOUS
370
-3
390
F
  0
LAYER
  5
25F
100
AcDbSymbolTableRecord
100
AcDbLayerTableRecord
  2
MC300_DEVICE
 70
0
 62
7
  6
CONTINUOUS
370
-3
390
F
  0
LAYER
  5
260
100
AcDbSymbolTableRecord
100
AcDbLayerTableRecord
  2
MC300_MAGNATIC_CONTACT-V3_ASM_6
 70
0
 62
7
  6
CONTINUOUS
370
-3
390
F
  0
LAYER
  5
261
100
AcDbSymbolTableRecord
100
AcDbLayerTableRecord
  2
MC300_MAGNET
 70
0
 62
7
  6
CONTINUOUS
370
-3
390
F
  0
LAYER
  5
262
100
AcDbSymbolTableRecord
100
AcDbLayerTableRecord
  2
NOTE
 70
0
 62
7
  6
CONTINUOUS
370
-3
390
F
  0
LAYER
  5
263
100
AcDbSymbolTableRecord
100
AcDbLayerTableRecord
  2
PCB_MC300_LUNGO_ASM_4
 70
0
 62
7
  6
CONTINUOUS
370
-3
390
F
  0
LAYER
  5
264
100
AcDbSymbolTableRecord
100
AcDbLayerTableRecord
  2
PIANI
 70
0
 62
7
  6
CONTINUOUS
370
-3
390
F
  0
LAYER
  5
265
100
AcDbSymbolTableRecord
100
AcDbLayerTableRecord
  2
PUNTI
 70
0
 62
7
  6
CONTINUOUS
370
-3
390
F
  0
LAYER
  5
266
100
AcDbSymbolTableRecord
100
AcDbLayerTableRecord
  2
RACCORDO
 70
0
 62
7
  6
CONTINUOUS
370
-3
390
F
  0
LAYER
  5
267
100
AcDbSymbolTableRecord
100
AcDbLayerTableRecord
  2
SC70-6_REF_H1_1_110000
 70
0
 62
7
  6
CONTINUOUS
370
-3
390
F
  0
LAYER
  5
268
100
AcDbSymbolTableRecord
100
AcDbLayerTableRecord
  2
SCREW_2_2X4_5_2_1
 70
0
 62
7
  6
CONTINUOUS
370
-3
390
F
  0
LAYER
  5
269
100
AcDbSymbolTableRecord
100
AcDbLayerTableRecord
  2
SCREW_2_2X4_5_2_1_1
 70
0
 62
7
  6
CONTINUOUS
370
-3
390
F
  0
LAYER
  5
26A
100
AcDbSymbolTableRecord
100
AcDbLayerTableRecord
  2
SCREW_2_2X4_5_2_1_2
 70
0
 62
7
  6
CONTINUOUS
370
-3
390
F
  0
LAYER
  5
26B
100
AcDbSymbolTableRecord
100
AcDbLayerTableRecord
  2
SCREW_2_2X4_5_2_1_3
 70
0
 62
7
  6
CONTINUOUS
370
-3
390
F
  0
LAYER
  5
26C
100
AcDbSymbolTableRecord
100
AcDbLayerTableRecord
  2
SCREW_2_2X4_5_2_1_4
 70
0
 62
7
  6
CONTINUOUS
370
-3
390
F
  0
LAYER
  5
26D
100
AcDbSymbolTableRecord
100
AcDbLayerTableRecord
  2
SCREW_2_2X6_5_1_1
 70
0
 62
7
  6
CONTINUOUS
370
-3
390
F
  0
LAYER
  5
26E
100
AcDbSymbolTableRecord
100
AcDbLayerTableRecord
  2
SIMBOLI
 70
0
 62
7
  6
CONTINUOUS
370
-3
390
F
  0
LAYER
  5
26F
100
AcDbSymbolTableRecord
100
AcDbLayerTableRecord
  2
SMUSSO
 70
0
 62
7
  6
CONTINUOUS
370
-3
390
F
  0
LAYER
  5
270
100
AcDbSymbolTableRecord
100
AcDbLayerTableRecord
  2
SNAPLINE
 70
0
 62
7
  6
CONTINUOUS
370
-3
390
F
  0
LAYER
  5
271
100
AcDbSymbolTableRecord
100
AcDbLayerTableRecord
  2
SOT323_H1_1_REF_110000
 70
0
 62
7
  6
CONTINUOUS
370
-3
390
F
  0
LAYER
  5
272
100
AcDbSymbolTableRecord
100
AcDbLayerTableRecord
  2
SOT323_H1_1_REF_110000_1
 70
0
 62
7
  6
CONTINUOUS
370
-3
390
F
  0
LAYER
  5
273
100
AcDbSymbolTableRecord
100
AcDbLayerTableRecord
  2
SUPERFICI
 70
0
 62
7
  6
CONTINUOUS
370
-3
390
F
  0
LAYER
  5
274
100
AcDbSymbolTableRecord
100
AcDbLayerTableRecord
  2
SYMBOL_E4_10000
 70
0
 62
7
  6
CONTINUOUS
370
-3
390
F
  0
LAYER
  5
275
100
AcDbSymbolTableRecord
100
AcDbLayerTableRecord
  2
SYMBOL_NO-PB_10000
 70
0
 62
7
  6
CONTINUOUS
370
-3
390
F
  0
LAYER
  5
276
100
AcDbSymbolTableRecord
100
AcDbLayerTableRecord
  2
TP_PROGRAMMAZIONE_SWD_1000
 70
0
 62
7
  6
CONTINUOUS
370
-3
390
F
  0
LAYER
  5
277
100
AcDbSymbolTableRecord
100
AcDbLayerTableRecord
  2
TRASH
 70
0
 62
7
  6
CONTINUOUS
370
-3
390
F
  0
LAYER
  5
278
100
AcDbSymbolTableRecord
100
AcDbLayerTableRecord
  2
VG_CN-STRIP-F-THT-P2_54-R1-P4-T
 70
0
 62
7
  6
CONTINUOUS
370
-3
390
F
  0
LAYER
  5
279
100
AcDbSymbolTableRecord
100
AcDbLayerTableRecord
  2
VG_CN-THT-INIM-AA-CLIP-BLACK_15
 70
0
 62
7
  6
CONTINUOUS
370
-3
390
F
  0
LAYER
  5
27A
100
AcDbSymbolTableRecord
100
AcDbLayerTableRecord
  2
VG_CN-THT-INIM-AA-CLIP-RED_1550
 70
0
 62
7
  6
CONTINUOUS
370
-3
390
F
  0
LAYER
  5
27B
100
AcDbSymbolTableRecord
100
AcDbLayerTableRecord
  2
VG_IND-CHIP-0402-POL-1_0-REF_10
 70
0
 62
7
  6
CONTINUOUS
370
-3
390
F
  0
LAYER
  5
27C
100
AcDbSymbolTableRecord
100
AcDbLayerTableRecord
  2
VG_IND-CHIP-0402-POL-1_0-REF__1
 70
0
 62
7
  6
CONTINUOUS
370
-3
390
F
  0
LAYER
  5
27D
100
AcDbSymbolTableRecord
100
AcDbLayerTableRecord
  2
VG_IND-SMT-2_4-2_4-1_5-0_85-2_4
 70
0
 62
7
  6
CONTINUOUS
370
-3
390
F
  0
LAYER
  5
27E
100
AcDbSymbolTableRecord
100
AcDbLayerTableRecord
  2
VG_LED-1305-1_5-REV-4PIN_40000
 70
0
 62
7
  6
CONTINUOUS
370
-3
390
F
  0
LAYER
  5
27F
100
AcDbSymbolTableRecord
100
AcDbLayerTableRecord
  2
VG_PADS_CARBON_SWITCH_ANULAR_D8
 70
0
 62
7
  6
CONTINUOUS
370
-3
390
F
  0
LAYER
  5
280
100
AcDbSymbolTableRecord
100
AcDbLayerTableRecord
  2
VG_QCS5F_40000
 70
0
 62
7
  6
CONTINUOUS
370
-3
390
F
  0
LAYER
  5
281
100
AcDbSymbolTableRecord
100
AcDbLayerTableRecord
  2
VG_QFN73-7_0-7_0-7_0-7_0-0_85-0
 70
0
 62
7
  6
CONTINUOUS
370
-3
390
F
  0
LAYER
  5
282
100
AcDbSymbolTableRecord
100
AcDbLayerTableRecord
  2
VG_REED-LITTELFUSE-MDSM-SMT_200
 70
0
 62
7
  6
CONTINUOUS
370
-3
390
F
  0
LAYER
  5
283
100
AcDbSymbolTableRecord
100
AcDbLayerTableRecord
  2
VG_REED-LITTELFUSE-MDSM-SMT_2_1
 70
0
 62
7
  6
CONTINUOUS
370
-3
390
F
  0
LAYER
  5
284
100
AcDbSymbolTableRecord
100
AcDbLayerTableRecord
  2
VG_SOD523_70000
 70
0
 62
7
  6
CONTINUOUS
370
-3
390
F
  0
LAYER
  5
285
100
AcDbSymbolTableRecord
100
AcDbLayerTableRecord
  2
VG_SOT23_H1_1_REF_110000
 70
0
 62
7
  6
CONTINUOUS
370
-3
390
F
  0
LAYER
  5
286
100
AcDbSymbolTableRecord
100
AcDbLayerTableRecord
  2
VG_SOT23_H1_2_REF_120000
 70
0
 62
7
  6
CONTINUOUS
370
-3
390
F
  0
LAYER
  5
287
100
AcDbSymbolTableRecord
100
AcDbLayerTableRecord
  2
VG_WSON6-1_5-1_5-1_0_100000
 70
0
 62
7
  6
CONTINUOUS
370
-3
390
F
  0
LAYER
  5
288
100
AcDbSymbolTableRecord
100
AcDbLayerTableRecord
  2
VG_X-SMT-2-3_2-1_5-1_0_100000
 70
0
 62
7
  6
CONTINUOUS
370
-3
390
F
  0
LAYER
  5
289
100
AcDbSymbolTableRecord
100
AcDbLayerTableRecord
  2
VG_X-SMT-2-5_0-3_2-1_5_150000
 70
0
 62
7
  6
CONTINUOUS
370
-3
390
F
  0
LAYER
  5
28A
100
AcDbSymbolTableRecord
100
AcDbLayerTableRecord
  2
___SHELL
 70
0
 62
7
  6
CONTINUOUS
370
-3
390
F
  0
ENDTAB
  0
TABLE
  2
STYLE
  5
3
100
AcDbSymbolTable
 70
1
  0
STYLE
  5
11
100
AcDbSymbolTableRecord
100
AcDbTextStyleTableRecord
  2
STANDARD
 70
0
 40
0.0
 41
0.8
 50
0.0
 71
0
 42
0.2
  3
txt
  4

  0
STYLE
  5
28B
100
AcDbSymbolTableRecord
100
AcDbTextStyleTableRecord
  2
TEXTSTYLE_1
 70
0
 40
0.0
 41
0.8
 50
0.0
 71
0
 42
0.2
  3
gdt
  4

  0
ENDTAB
  0
TABLE
  2
VIEW
  5
6
100
AcDbSymbolTable
 70
0
  0
ENDTAB
  0
TABLE
  2
UCS
  5
7
100
AcDbSymbolTable
 70
0
  0
ENDTAB
  0
TABLE
  2
APPID
  5
9
100
AcDbSymbolTable
 70
1
  0
APPID
  5
28C
100
AcDbSymbolTableRecord
100
AcDbRegAppTableRecord
  2
ACAD
 70
0
  0
ENDTAB
  0
TABLE
  2
BLOCK_RECORD
  5
1
100
AcDbSymbolTable
 70
0
  0
BLOCK_RECORD
  5
28D
100
AcDbSymbolTableRecord
100
AcDbBlockTableRecord
  2
*Model_Space
  0
BLOCK_RECORD
  5
28E
100
AcDbSymbolTableRecord
100
AcDbBlockTableRecord
  2
*Paper_Space
  0
BLOCK_RECORD
  5
28F
100
AcDbSymbolTableRecord
100
AcDbBlockTableRecord
  2
_FILLED
  0
BLOCK_RECORD
  5
290
100
AcDbSymbolTableRecord
100
AcDbBlockTableRecord
  2
*D0
  0
BLOCK_RECORD
  5
291
100
AcDbSymbolTableRecord
100
AcDbBlockTableRecord
  2
*D1
  0
BLOCK_RECORD
  5
292
100
AcDbSymbolTableRecord
100
AcDbBlockTableRecord
  2
*D2
  0
BLOCK_RECORD
  5
293
100
AcDbSymbolTableRecord
100
AcDbBlockTableRecord
  2
*D3
  0
BLOCK_RECORD
  5
294
100
AcDbSymbolTableRecord
100
AcDbBlockTableRecord
  2
*D4
  0
BLOCK_RECORD
  5
295
100
AcDbSymbolTableRecord
100
AcDbBlockTableRecord
  2
*D5
  0
ENDTAB
  0
TABLE
  2
DIMSTYLE
  5
A
100
AcDbSymbolTable
 70
1
100
AcDbDimStyleTable
 71
0
  0
DIMSTYLE
105
296
100
AcDbSymbolTableRecord
100
AcDbDimStyleTableRecord
  2
STANDARD
 70
0
  3

  4

 40
1.0
 41
3.0
 42
0.5
 43
0.38
 44
1.5
 45
0.0
 46
0.0
 47
0.01
 48
0.01
140
3.0
141
0.09
142
0.0
143
25.4
144
1.0
145
0.0
146
1.0
147
0.625
 71
1
 72
0
 73
0
 74
0
 75
0
 76
0
 77
1
 78
8
 79
2
170
0
171
1
172
0
173
0
174
0
175
0
176
0
177
0
178
0
270
2
179
2
271
2
272
2
273
2
274
2
275
0
280
0
281
0
282
0
283
1
284
8
285
0
286
0
287
3
288
0
340
11
278
44
341
28F
342
28F
343
28F
344
28F
  0
DIMSTYLE
105
297
100
AcDbSymbolTableRecord
100
AcDbDimStyleTableRecord
  2
DIMSTYLE_1
 70
0
  3

  4

 40
1.0
 41
3.0
 42
0.5
 43
0.38
 44
1.5
 45
0.0
 46
0.0
 47
0.0
 48
0.0
140
3.0
141
0.09
142
0.0
143
25.4
144
1.0
145
0.0
146
1.0
147
0.75
 71
0
 72
0
 73
0
 74
0
 75
0
 76
0
 77
1
 78
8
 79
2
170
0
171
1
172
0
173
0
174
0
175
0
176
0
177
0
178
0
270
2
179
2
271
2
272
2
273
2
274
2
275
0
280
0
281
0
282
0
283
1
284
8
285
0
286
0
287
3
288
0
340
11
278
44
341
28F
342
28F
343
28F
344
28F
  0
DIMSTYLE
105
298
100
AcDbSymbolTableRecord
100
AcDbDimStyleTableRecord
  2
DIMSTYLE_2
 70
0
  3

  4

 40
1.0
 41
3.0
 42
0.5
 43
0.38
 44
1.5
 45
0.0
 46
0.0
 47
0.0
 48
0.0
140
3.0
141
0.09
142
0.0
143
25.4
144
1.0
145
0.0
146
1.0
147
0.75
 71
0
 72
0
 73
0
 74
0
 75
0
 76
0
 77
1
 78
8
 79
2
170
0
171
1
172
0
173
0
174
0
175
0
176
0
177
0
178
0
270
2
179
2
271
1
272
1
273
2
274
2
275
0
280
0
281
0
282
0
283
1
284
8
285
0
286
0
287
3
288
0
340
11
278
44
341
28F
342
28F
343
28F
344
28F
  0
ENDTAB
  0
ENDSEC
  0
SECTION
  2
BLOCKS
  0
BLOCK
  5
20
100
AcDbEntity
  8
0
100
AcDbBlockBegin
  2
*Model_Space
 70
0
 10
0.0
 20
0.0
 30
0.0
  3
*Model_Space
  1

  0
ENDBLK
  5
21
100
AcDbEntity
  8
0
100
AcDbBlockEnd
  0
BLOCK
  5
1C
100
AcDbEntity
  8
0
100
AcDbBlockBegin
  2
*Paper_Space
 70
0
 10
0.0
 20
0.0
 30
0.0
  3
*Paper_Space
  1

  0
ENDBLK
  5
1D
100
AcDbEntity
  8
0
100
AcDbBlockEnd
  0
BLOCK
  5
299
100
AcDbEntity
  8
0
100
AcDbBlockBegin
  2
_FILLED
 70
64
 10
0.0
 20
0.0
  3
_FILLED
  1

  0
SOLID
  5
29A
100
AcDbEntity
  8
0
  6
BYBLOCK
 62
0
100
AcDbTrace
 10
0.0
 20
0.0
 11
-1.0
 21
0.3166666667
 12
-1.0
 22
-0.3166666667
 13
-1.0
 23
-0.3166666667
  0
ENDBLK
  5
29B
100
AcDbEntity
  8
0
  6
BYBLOCK
 62
0
100
AcDbBlockEnd
  0
BLOCK
  5
29C
100
AcDbEntity
  8
0
100
AcDbBlockBegin
 62
7
  6
CONTINUOUS
  2
*D0
 70
65
 10
0.0
 20
0.0
  3
*D0
  1

  0
LINE
  5
29D
100
AcDbEntity
  8
0
100
AcDbLine
 62
7
  6
CONTINUOUS
 10
-37.5107492121
 20
53.0761235726
 11
-37.5107492122
 21
64.8765819861
  0
LINE
  5
29E
100
AcDbEntity
  8
0
100
AcDbLine
 62
7
  6
CONTINUOUS
 10
-11.7107492097
 20
53.0761768121
 11
-11.7107492098
 21
64.8765819865
  0
LINE
  5
29F
100
AcDbEntity
  8
0
100
AcDbLine
 62
7
  6
CONTINUOUS
 10
-37.5107492122
 20
63.3765819861
 11
-24.610749211
 21
63.3765819863
  0
LINE
  5
2A0
100
AcDbEntity
  8
0
100
AcDbLine
 62
7
  6
CONTINUOUS
 10
-11.7107492098
 20
63.3765819865
 11
-24.610749211
 21
63.3765819863
  0
INSERT
  5
2A1
100
AcDbEntity
  8
0
100
AcDbBlockReference
 62
7
  6
CONTINUOUS
  2
_FILLED
 10
-37.5107492122
 20
63.3765819861
 41
3.0
 42
3.0
 43
3.0
 50
180.0000000008
  0
INSERT
  5
2A2
100
AcDbEntity
  8
0
100
AcDbBlockReference
 62
7
  6
CONTINUOUS
  2
_FILLED
 10
-11.7107492098
 20
63.3765819865
 41
3.0
 42
3.0
 43
3.0
 50
0.0000000008
  0
ENDBLK
  5
2A3
100
AcDbEntity
  8
0
  6
BYBLOCK
 62
0
100
AcDbBlockEnd
  0
BLOCK
  5
2A4
100
AcDbEntity
  8
0
100
AcDbBlockBegin
 62
7
  6
CONTINUOUS
  2
*D1
 70
65
 10
0.0
 20
0.0
  3
*D1
  1

  0
LINE
  5
2A5
100
AcDbEntity
  8
0
100
AcDbLine
 62
7
  6
CONTINUOUS
 10
10.8946736519
 20
-54.9168295741
 11
10.8946736519
 21
-66.913750139
  0
LINE
  5
2A6
100
AcDbEntity
  8
0
100
AcDbLine
 62
7
  6
CONTINUOUS
 10
37.0158448575
 20
-54.916829417
 11
37.0158448575
 21
-66.913750139
  0
LINE
  5
2A7
100
AcDbEntity
  8
0
100
AcDbLine
 62
7
  6
CONTINUOUS
 10
10.8946736519
 20
-65.413750139
 11
23.9552592547
 21
-65.413750139
  0
LINE
  5
2A8
100
AcDbEntity
  8
0
100
AcDbLine
 62
7
  6
CONTINUOUS
 10
37.0158448575
 20
-65.413750139
 11
23.9552592547
 21
-65.413750139
  0
INSERT
  5
2A9
100
AcDbEntity
  8
0
100
AcDbBlockReference
 62
7
  6
CONTINUOUS
  2
_FILLED
 10
10.8946736519
 20
-65.413750139
 41
3.0
 42
3.0
 43
3.0
 50
180.0
  0
INSERT
  5
2AA
100
AcDbEntity
  8
0
100
AcDbBlockReference
 62
7
  6
CONTINUOUS
  2
_FILLED
 10
37.0158448575
 20
-65.413750139
 41
3.0
 42
3.0
 43
3.0
  0
ENDBLK
  5
2AB
100
AcDbEntity
  8
0
  6
BYBLOCK
 62
0
100
AcDbBlockEnd
  0
BLOCK
  5
2AC
100
AcDbEntity
  8
0
100
AcDbBlockBegin
 62
7
  6
CONTINUOUS
  2
*D2
 70
65
 10
0.0
 20
0.0
  3
*D2
  1

  0
LINE
  5
2AD
100
AcDbEntity
  8
0
100
AcDbLine
 62
7
  6
CONTINUOUS
 10
36.5159808719
 20
-54.4168295741
 11
46.5571550556
 21
-54.4168295741
  0
LINE
  5
2AE
100
AcDbEntity
  8
0
100
AcDbLine
 62
7
  6
CONTINUOUS
 10
24.4563912086
 20
-27.9168317216
 11
46.5571550556
 21
-27.9168317216
  0
LINE
  5
2AF
100
AcDbEntity
  8
0
100
AcDbLine
 62
7
  6
CONTINUOUS
 10
45.0571550556
 20
-54.4168295741
 11
45.0571550556
 21
-41.1668306479
  0
LINE
  5
2B0
100
AcDbEntity
  8
0
100
AcDbLine
 62
7
  6
CONTINUOUS
 10
45.0571550556
 20
-27.9168317216
 11
45.0571550556
 21
-41.1668306479
  0
INSERT
  5
2B1
100
AcDbEntity
  8
0
100
AcDbBlockReference
 62
7
  6
CONTINUOUS
  2
_FILLED
 10
45.0571550556
 20
-54.4168295741
 41
3.0
 42
3.0
 43
3.0
 50
270.0
  0
INSERT
  5
2B2
100
AcDbEntity
  8
0
100
AcDbBlockReference
 62
7
  6
CONTINUOUS
  2
_FILLED
 10
45.0571550556
 20
-27.9168317216
 41
3.0
 42
3.0
 43
3.0
 50
90.0
  0
ENDBLK
  5
2B3
100
AcDbEntity
  8
0
  6
BYBLOCK
 62
0
100
AcDbBlockEnd
  0
BLOCK
  5
2B4
100
AcDbEntity
  8
0
100
AcDbBlockBegin
 62
7
  6
CONTINUOUS
  2
*D3
 70
65
 10
0.0
 20
0.0
  3
*D3
  1

  0
LINE
  5
2B5
100
AcDbEntity
  8
0
100
AcDbLine
 62
7
  6
CONTINUOUS
 10
-37.0108980341
 20
53.5760279604
 11
-47.1321476521
 21
53.5760279603
  0
LINE
  5
2B6
100
AcDbEntity
  8
0
100
AcDbLine
 62
7
  6
CONTINUOUS
 10
-37.0108971704
 20
-54.4239720392
 11
-47.1321476509
 21
-54.4239720393
  0
LINE
  5
2B7
100
AcDbEntity
  8
0
100
AcDbLine
 62
7
  6
CONTINUOUS
 10
-45.6321476521
 20
53.5760279603
 11
-45.6321476515
 21
-0.4239720395
  0
LINE
  5
2B8
100
AcDbEntity
  8
0
100
AcDbLine
 62
7
  6
CONTINUOUS
 10
-45.6321476509
 20
-54.4239720393
 11
-45.6321476515
 21
-0.4239720395
  0
INSERT
  5
2B9
100
AcDbEntity
  8
0
100
AcDbBlockReference
 62
7
  6
CONTINUOUS
  2
_FILLED
 10
-45.6321476521
 20
53.5760279603
 41
3.0
 42
3.0
 43
3.0
 50
90.0000000006
  0
INSERT
  5
2BA
100
AcDbEntity
  8
0
100
AcDbBlockReference
 62
7
  6
CONTINUOUS
  2
_FILLED
 10
-45.6321476509
 20
-54.4239720393
 41
3.0
 42
3.0
 43
3.0
 50
270.0000000006
  0
ENDBLK
  5
2BB
100
AcDbEntity
  8
0
  6
BYBLOCK
 62
0
100
AcDbBlockEnd
  0
BLOCK
  5
2BC
100
AcDbEntity
  8
0
100
AcDbBlockBegin
 62
7
  6
CONTINUOUS
  2
*D4
 70
65
 10
0.0
 20
0.0
  3
*D4
  1

  0
LINE
  5
2BD
100
AcDbEntity
  8
0
100
AcDbLine
 62
7
  6
CONTINUOUS
 10
-85.5050367101
 20
52.9330022291
 11
-85.5050367101
 21
64.8934035731
  0
LINE
  5
2BE
100
AcDbEntity
  8
0
100
AcDbLine
 62
7
  6
CONTINUOUS
 10
-112.0050367101
 20
52.7960106761
 11
-112.0050367101
 21
64.8934035731
  0
LINE
  5
2BF
100
AcDbEntity
  8
0
100
AcDbLine
 62
7
  6
CONTINUOUS
 10
-85.5050367101
 20
63.3934035731
 11
-98.7550367101
 21
63.3934035731
  0
LINE
  5
2C0
100
AcDbEntity
  8
0
100
AcDbLine
 62
7
  6
CONTINUOUS
 10
-112.0050367101
 20
63.3934035731
 11
-98.7550367101
 21
63.3934035731
  0
INSERT
  5
2C1
100
AcDbEntity
  8
0
100
AcDbBlockReference
 62
7
  6
CONTINUOUS
  2
_FILLED
 10
-85.5050367101
 20
63.3934035731
 41
3.0
 42
3.0
 43
3.0
 50
0.0
  0
INSERT
  5
2C2
100
AcDbEntity
  8
0
100
AcDbBlockReference
 62
7
  6
CONTINUOUS
  2
_FILLED
 10
-112.0050367101
 20
63.3934035731
 41
3.0
 42
3.0
 43
3.0
 50
180.0
  0
ENDBLK
  5
2C3
100
AcDbEntity
  8
0
  6
BYBLOCK
 62
0
100
AcDbBlockEnd
  0
BLOCK
  5
2C4
100
AcDbEntity
  8
0
100
AcDbBlockBegin
 62
7
  6
CONTINUOUS
  2
*D5
 70
65
 10
0.0
 20
0.0
  3
*D5
  1

  0
LINE
  5
2C5
100
AcDbEntity
  8
0
100
AcDbLine
 62
7
  6
CONTINUOUS
 10
-98.4049098106
 20
-54.9168295741
 11
-98.4049098106
 21
-66.6101367525
  0
LINE
  5
2C6
100
AcDbEntity
  8
0
100
AcDbLine
 62
7
  6
CONTINUOUS
 10
-85.5353049197
 20
-54.9168295741
 11
-85.5353049197
 21
-66.6101367525
  0
LINE
  5
2C7
100
AcDbEntity
  8
0
100
AcDbLine
 62
7
  6
CONTINUOUS
 10
-98.4049098106
 20
-65.1101367525
 11
-91.9701073652
 21
-65.1101367525
  0
LINE
  5
2C8
100
AcDbEntity
  8
0
100
AcDbLine
 62
7
  6
CONTINUOUS
 10
-85.5353049197
 20
-65.1101367525
 11
-91.9701073652
 21
-65.1101367525
  0
INSERT
  5
2C9
100
AcDbEntity
  8
0
100
AcDbBlockReference
 62
7
  6
CONTINUOUS
  2
_FILLED
 10
-98.4049098106
 20
-65.1101367525
 41
3.0
 42
3.0
 43
3.0
 50
180.0
  0
INSERT
  5
2CA
100
AcDbEntity
  8
0
100
AcDbBlockReference
 62
7
  6
CONTINUOUS
  2
_FILLED
 10
-85.5353049197
 20
-65.1101367525
 41
3.0
 42
3.0
 43
3.0
  0
ENDBLK
  5
2CB
100
AcDbEntity
  8
0
  6
BYBLOCK
 62
0
100
AcDbBlockEnd
  0
ENDSEC
  0
SECTION
  2
ENTITIES
  0
DIMENSION
  5
2CC
100
AcDbEntity
  8
0
100
AcDbDimension
 62
7
  6
CONTINUOUS
  2
*D0
 10
-11.7107492098
 20
63.3765819865
 11
-28.8964634967
 21
63.3765819862
 70
160
 71
2
 72
2
 41
0.9
 42
25.8000000024
  3
DIMSTYLE_1
100
AcDbAlignedDimension
 13
-37.5107492121
 23
52.5761235726
 14
-11.7107492097
 24
52.5761768121
100
AcDbRotatedDimension
  0
DIMENSION
  5
2CD
100
AcDbEntity
  8
0
100
AcDbDimension
 62
7
  6
CONTINUOUS
  2
*D1
 10
37.0158448575
 20
-65.413750139
 11
19.8838306833
 21
-65.413750139
 70
160
 71
2
 72
2
 41
0.9
 42
26.1211712057
  3
DIMSTYLE_2
100
AcDbAlignedDimension
 13
10.8946736519
 23
-54.4168295741
 14
37.0158448575
 24
-54.416829417
100
AcDbRotatedDimension
  0
DIMENSION
  5
2CE
100
AcDbEntity
  8
0
100
AcDbDimension
 62
7
  6
CONTINUOUS
  2
*D2
 10
45.0571550556
 20
-27.9168317216
 11
45.0571550556
 21
-45.4525449336
 70
160
 71
2
 72
2
 41
0.9
 42
26.4999978525
  3
DIMSTYLE_1
100
AcDbAlignedDimension
 13
36.0159808719
 23
-54.4168295741
 14
23.9563912086
 24
-27.9168317216
 50
90.0
100
AcDbRotatedDimension
  0
DIMENSION
  5
2CF
100
AcDbEntity
  8
0
100
AcDbDimension
 62
7
  6
CONTINUOUS
  2
*D3
 10
-45.6321476509
 20
-54.4239720393
 11
-45.6321476515
 21
-3.6382577537
 70
160
 71
2
 72
2
 41
0.9
 42
107.9999999996
  3
DIMSTYLE_1
100
AcDbAlignedDimension
 13
-36.5108980341
 23
53.5760279604
 14
-36.5108971704
 24
-54.4239720392
 50
270.0000000006
100
AcDbRotatedDimension
  0
DIMENSION
  5
2D0
100
AcDbEntity
  8
0
100
AcDbDimension
 62
7
  6
CONTINUOUS
  2
*D4
 10
-112.0050367101
 20
63.3934035731
 11
-103.0407509958
 21
63.3934035731
 70
160
 71
2
 72
2
 41
0.9
 42
26.5
  3
DIMSTYLE_1
100
AcDbAlignedDimension
 13
-85.5050367101
 23
52.4330022291
 14
-112.0050367101
 24
52.2960106761
 50
180.0
100
AcDbRotatedDimension
  0
DIMENSION
  5
2D1
100
AcDbEntity
  8
0
100
AcDbDimension
 62
7
  6
CONTINUOUS
  2
*D5
 10
-85.5353049197
 20
-65.1101367525
 11
-96.0415359366
 21
-65.1101367525
 70
160
 71
2
 72
2
 41
0.9
 42
12.8696048909
  3
DIMSTYLE_2
100
AcDbAlignedDimension
 13
-98.4049098106
 23
-54.4168295741
 14
-85.5353049197
 24
-54.4168295741
100
AcDbRotatedDimension
  0
LWPOLYLINE
  5
2D2
100
AcDbEntity
  8
0
100
AcDbPolyline
 62
7
  6
CONTINUOUS
 90
7
 70
0
 43
0.3500000006
 10
21.3838300552
 20
-64.6637515869
 10
19.8838295975
 20
-64.6637515869
 10
21.3838300552
 20
-62.5208931427
 10
21.3838300552
 20
-62.0923196411
 10
20.9552588196
 20
-61.6637506714
 10
20.3124030991
 20
-61.6637506714
 10
19.8838295975
 20
-62.3066086578
  0
LWPOLYLINE
  5
2D3
100
AcDbEntity
  8
IMPORT_IGES
100
AcDbPolyline
 62
7
  6
CONTINUOUS
 90
25
 70
0
 10
-34.374105605
 20
-54.1507726234
 10
-34.3829252653
 20
-54.1475305942
 10
-34.3917093662
 20
-54.1400699449
 10
-34.4004207361
 20
-54.1284252798
 10
-34.4090236725
 20
-54.1126493175
 10
-34.4174808068
 20
-54.092811478
 10
-34.4257532036
 20
-54.0689965361
 10
-34.4338047117
 20
-54.0413070722
 10
-34.4416027597
 20
-54.0098619152
 10
-34.4491151006
 20
-53.9747927773
 10
-34.456310088
 20
-53.9362487406
 10
-34.4631574682
 20
-53.8943932942
 10
-34.46962895
 20
-53.8493999016
 10
-34.4756972317
 20
-53.8014584443
 10
-34.4813367121
 20
-53.7507712667
 10
-34.4865239882
 20
-53.6975476242
 10
-34.4912370632
 20
-53.6420114308
 10
-34.4954559118
 20
-53.5843967208
 10
-34.4991628361
 20
-53.5249415414
 10
-34.5023419253
 20
-53.4638962644
 10
-34.5049794959
 20
-53.4015180661
 10
-34.5070642554
 20
-53.3380648099
 10
-34.5085870067
 20
-53.2738024046
 10
-34.5095408416
 20
-53.2090040036
 10
-34.5099213071
 20
-53.1439436508
  0
LWPOLYLINE
  5
2D4
100
AcDbEntity
  8
IMPORT_IGES
100
AcDbPolyline
 62
7
  6
CONTINUOUS
 90
25
 70
0
 10
-34.3741081147
 20
53.3028189734
 10
-34.3829396394
 20
53.2995766058
 10
-34.3917318066
 20
53.2921155115
 10
-34.400447456
 20
53.2804704142
 10
-34.4090496638
 20
53.2646941996
 10
-34.4175023193
 20
53.2448563762
 10
-34.4257702035
 20
53.2210416102
 10
-34.4338183869
 20
53.1933524028
 10
-34.44161308
 20
53.1619076423
 10
-34.4491220752
 20
53.1268390284
 10
-34.456313734
 20
53.0882956255
 10
-34.4631578048
 20
53.046440927
 10
-34.4696260265
 20
53.0014484172
 10
-34.4756911031
 20
52.9535079831
 10
-34.4813274401
 20
52.9028219568
 10
-34.4865116669
 20
52.8495995926
 10
-34.4912217928
 20
52.7940647996
 10
-34.4954377983
 20
52.7364516003
 10
-34.4991420164
 20
52.676998028
 10
-34.5023185414
 20
52.6159544407
 10
-34.5049536943
 20
52.5535780008
 10
-34.5070362104
 20
52.4901265544
 10
-34.5085569044
 20
52.4258659921
 10
-34.5095088621
 20
52.3610694487
 10
-34.5098876323
 20
52.2960109479
  0
LWPOLYLINE
  5
2D5
100
AcDbEntity
  8
IMPORT_IGES
100
AcDbPolyline
 62
250
  6
CONTINUOUS
 90
9
 70
0
 10
-12.9464282772
 20
53.3402035081
 10
-12.9526819061
 20
53.3379217231
 10
-12.9664437269
 20
53.3356667443
 10
-12.9877137396
 20
53.3334385717
 10
-13.0166243154
 20
53.3312297644
 10
-13.053043083
 20
53.3290477633
 10
-13.0965729294
 20
53.3269148914
 10
-13.1472831887
 20
53.3248316892
 10
-13.2051045268
 20
53.3227976162
  0
LINE
  5
2D6
100
AcDbEntity
  8
IMPORT_IGES
100
AcDbLine
 62
250
  6
CONTINUOUS
 10
-36.0163939744
 20
-54.1707416962
 11
-35.8811697292
 21
-54.1668837347
  0
LINE
  5
2D7
100
AcDbEntity
  8
IMPORT_IGES
100
AcDbLine
 62
7
  6
CONTINUOUS
 10
-37.0593420178
 20
-53.1757737235
 11
-36.9282171702
 21
-53.1722992125
  0
LINE
  5
2D8
100
AcDbEntity
  8
IMPORT_IGES
100
AcDbLine
 62
250
  6
CONTINUOUS
 10
-35.8811697292
 20
-54.1668837347
 11
-35.7206543427
 21
-54.1633244097
  0
LINE
  5
2D9
100
AcDbEntity
  8
IMPORT_IGES
100
AcDbLine
 62
7
  6
CONTINUOUS
 10
-36.9282171702
 20
-53.1722992125
 11
-36.6780012504
 21
-53.16727179
  0
LINE
  5
2DA
100
AcDbEntity
  8
IMPORT_IGES
100
AcDbLine
 62
250
  6
CONTINUOUS
 10
-35.7206543427
 20
-54.1633244097
 11
-35.437856451
 21
-54.1586674547
  0
LINE
  5
2DB
100
AcDbEntity
  8
IMPORT_IGES
100
AcDbLine
 62
7
  6
CONTINUOUS
 10
-34.6567338312
 20
-53.1481336218
 11
-34.5098951823
 21
-53.1459756091
  0
LINE
  5
2DC
100
AcDbEntity
  8
IMPORT_IGES
100
AcDbLine
 62
7
  6
CONTINUOUS
 10
-36.6780012504
 20
-53.16727179
 11
-36.2536144618
 21
-53.1610845961
  0
LINE
  5
2DD
100
AcDbEntity
  8
IMPORT_IGES
100
AcDbLine
 62
250
  6
CONTINUOUS
 10
-35.437856451
 20
-54.1586674547
 11
-34.9961793124
 21
-54.1539433583
  0
LINE
  5
2DE
100
AcDbEntity
  8
IMPORT_IGES
100
AcDbLine
 62
7
  6
CONTINUOUS
 10
-36.2536144618
 20
-53.1610845961
 11
-35.4584175374
 21
-53.1533919009
  0
LWPOLYLINE
  5
2DF
100
AcDbEntity
  8
IMPORT_IGES
100
AcDbPolyline
 62
7
  6
CONTINUOUS
 90
3
 70
0
 10
-35.4584175374
 20
-53.1533919009
 10
-34.8026782173
 20
-53.1494322321
 10
-34.6567338312
 20
-53.1481336218
  0
LWPOLYLINE
  5
2E0
100
AcDbEntity
  8
IMPORT_IGES
100
AcDbPolyline
 62
250
  6
CONTINUOUS
 90
3
 70
0
 10
-34.9961793124
 20
-54.1539433583
 10
-34.503196703
 20
-54.1511516802
 10
-34.3741051847
 20
-54.1507726767
  0
LINE
  5
2E1
100
AcDbEntity
  8
IMPORT_IGES
100
AcDbLine
 62
7
  6
CONTINUOUS
 10
-34.3741051847
 20
-54.1507726767
 11
-31.1296696226
 21
-54.1443484489
  0
LINE
  5
2E2
100
AcDbEntity
  8
IMPORT_IGES
100
AcDbLine
 62
7
  6
CONTINUOUS
 10
-14.5738250963
 20
-53.1493056619
 11
-14.5345231595
 21
-53.1491651731
  0
LINE
  5
2E3
100
AcDbEntity
  8
IMPORT_IGES
100
AcDbLine
 62
7
  6
CONTINUOUS
 10
-31.1296696226
 20
-54.1443484489
 11
-27.8743817754
 21
-54.1404916344
  0
LINE
  5
2E4
100
AcDbEntity
  8
IMPORT_IGES
100
AcDbLine
 62
7
  6
CONTINUOUS
 10
-27.8743817754
 20
-54.1404916344
 11
-24.6107460182
 21
-54.1392037194
  0
LINE
  5
2E5
100
AcDbEntity
  8
IMPORT_IGES
100
AcDbLine
 62
7
  6
CONTINUOUS
 10
-12.7106012508
 20
-54.4239720392
 11
-36.5108971704
 21
-54.4239720392
  0
LINE
  5
2E6
100
AcDbEntity
  8
IMPORT_IGES
100
AcDbLine
 62
7
  6
CONTINUOUS
 10
10.8946736519
 20
-54.4168295741
 11
37.0158428747
 21
-54.4168295741
  0
LWPOLYLINE
  5
2E7
100
AcDbEntity
  8
IMPORT_IGES
100
AcDbPolyline
 62
7
  6
CONTINUOUS
 90
3
 70
0
 10
-34.509886251
 20
-53.14394338
 10
-15.8051058541
 20
-53.1449766432
 10
-14.7116058316
 20
-53.1457941348
  0
LINE
  5
2E8
100
AcDbEntity
  8
IMPORT_IGES
100
AcDbLine
 62
7
  6
CONTINUOUS
 10
-24.6107460182
 20
-54.1392037194
 11
-21.3471102987
 21
-54.1404916435
  0
LINE
  5
2E9
100
AcDbEntity
  8
IMPORT_IGES
100
AcDbLine
 62
7
  6
CONTINUOUS
 10
-21.3471102987
 20
-54.1404916435
 11
-18.091822347
 21
-54.1443484473
  0
LINE
  5
2EA
100
AcDbEntity
  8
IMPORT_IGES
100
AcDbLine
 62
7
  6
CONTINUOUS
 10
-18.091822347
 20
-54.1443484473
 11
-14.8473864913
 21
-54.1507726386
  0
LINE
  5
2EB
100
AcDbEntity
  8
IMPORT_IGES
100
AcDbLine
 62
250
  6
CONTINUOUS
 10
-14.8473864913
 20
-54.1507726386
 11
-14.3450941607
 21
-54.1530537682
  0
LINE
  5
2EC
100
AcDbEntity
  8
IMPORT_IGES
100
AcDbLine
 62
7
  6
CONTINUOUS
 10
-14.5345231595
 20
-53.1491651731
 11
-13.5886385164
 21
-53.1544029025
  0
LINE
  5
2ED
100
AcDbEntity
  8
IMPORT_IGES
100
AcDbLine
 62
250
  6
CONTINUOUS
 10
-14.3450941607
 20
-54.1530537682
 11
-13.8876974483
 21
-54.1573206141
  0
LINE
  5
2EE
100
AcDbEntity
  8
IMPORT_IGES
100
AcDbLine
 62
7
  6
CONTINUOUS
 10
-13.5886385164
 20
-53.1544029025
 11
-12.9482499549
 21
-53.1606224528
  0
LINE
  5
2EF
100
AcDbEntity
  8
IMPORT_IGES
100
AcDbLine
 62
250
  6
CONTINUOUS
 10
-13.8876974483
 20
-54.1573206141
 11
-13.5896483208
 21
-54.1616796519
  0
LINE
  5
2F0
100
AcDbEntity
  8
IMPORT_IGES
100
AcDbLine
 62
7
  6
CONTINUOUS
 10
-12.9482499549
 20
-53.1606224528
 11
-12.5318214757
 21
-53.1666772399
  0
LINE
  5
2F1
100
AcDbEntity
  8
IMPORT_IGES
100
AcDbLine
 62
250
  6
CONTINUOUS
 10
-13.5896483208
 20
-54.1616796519
 11
-13.4176587675
 21
-54.1650615242
  0
LINE
  5
2F2
100
AcDbEntity
  8
IMPORT_IGES
100
AcDbLine
 62
7
  6
CONTINUOUS
 10
-12.5318214757
 20
-53.1666772399
 11
-12.2864630913
 21
-53.1716967809
  0
LWPOLYLINE
  5
2F3
100
AcDbEntity
  8
IMPORT_IGES
100
AcDbPolyline
 62
250
  6
CONTINUOUS
 90
11
 70
0
 10
-13.4176587675
 20
-54.1650615242
 10
-13.2693640567
 20
-54.1687794508
 10
-13.2050408385
 20
-54.1707438413
 10
-13.1472245102
 20
-54.1727780552
 10
-13.0965200035
 20
-54.1748613874
 10
-13.0529964143
 20
-54.1769943533
 10
-13.0165846466
 20
-54.1791764376
 10
-12.987682344
 20
-54.1813853889
 10
-12.9664220545
 20
-54.1836137903
 10
-12.9526712301
 20
-54.1858690589
 10
-12.9464298708
 20
-54.1881511946
  0
LWPOLYLINE
  5
2F4
100
AcDbEntity
  8
IMPORT_IGES
100
AcDbPolyline
 62
7
  6
CONTINUOUS
 90
9
 70
0
 10
-12.2864630913
 20
-53.1716967809
 10
-12.1579273278
 20
-53.175211056
 10
-12.1046739185
 20
-53.1770029408
 10
-12.0589468637
 20
-53.1788127227
 10
-12.0208614525
 20
-53.1806413285
 10
-11.9905130007
 20
-53.1824785155
 10
-11.9679793578
 20
-53.1843208695
 10
-11.9533197221
 20
-53.1861718047
 10
-11.9465733733
 20
-53.1880313211
  0
LWPOLYLINE
  5
2F5
100
AcDbEntity
  8
IMPORT_IGES
100
AcDbPolyline
 62
250
  6
CONTINUOUS
 90
25
 70
0
 10
-36.2750714482
 20
-54.188147584
 10
-36.3404198174
 20
-54.1859902984
 10
-36.4051625336
 20
-54.1796095619
 10
-36.4690317779
 20
-54.1690962099
 10
-36.5317497815
 20
-54.1545626941
 10
-36.5930918247
 20
-54.1361283374
 10
-36.6528831197
 20
-54.1139052737
 10
-36.7107449205
 20
-54.0881056974
 10
-36.7666267504
 20
-54.0588250314
 10
-36.820810329
 20
-54.0259110967
 10
-36.8731848536
 20
-53.9893435877
 10
-36.9233535785
 20
-53.9493076603
 10
-36.9711156021
 20
-53.9058804722
 10
-37.0162150332
 20
-53.8592003365
 10
-37.0584206567
 20
-53.8094055368
 10
-37.097554543
 20
-53.7565796292
 10
-37.1334241969
 20
-53.7008113553
 10
-37.1657324064
 20
-53.6423730955
 10
-37.1941759242
 20
-53.5816608127
 10
-37.2185954743
 20
-53.5188732651
 10
-37.238804621
 20
-53.4543238505
 10
-37.254586534
 20
-53.3886430653
 10
-37.26587038
 20
-53.322253324
 10
-37.2726542492
 20
-53.2553434274
 10
-37.274925015
 20
-53.1882178562
  0
LWPOLYLINE
  5
2F6
100
AcDbEntity
  8
IMPORT_IGES
100
AcDbPolyline
 62
7
  6
CONTINUOUS
 90
25
 70
0
 10
-36.5108884806
 20
-54.4239699685
 10
-36.5768275428
 20
-54.4217441989
 10
-36.6419141055
 20
-54.4153302185
 10
-36.7061481687
 20
-54.4047280273
 10
-36.7697940273
 20
-54.3898543862
 10
-36.8325873864
 20
-54.3707925343
 10
-36.8937353612
 20
-54.3477921887
 10
-36.9532169149
 20
-54.3208046108
 10
-37.0110530843
 20
-54.2898785391
 10
-37.0665140951
 20
-54.2554099058
 10
-37.1195699904
 20
-54.2173548867
 10
-37.1702507271
 20
-54.1757573059
 10
-37.2179164012
 20
-54.1311445673
 10
-37.2625295312
 20
-54.0834791835
 10
-37.3041275986
 20
-54.0327986418
 10
-37.3421831441
 20
-53.9797428085
 10
-37.3766523477
 20
-53.9242817194
 10
-37.4075790294
 20
-53.8664453386
 10
-37.4345671905
 20
-53.8069634252
 10
-37.4575680173
 20
-53.7458146115
 10
-37.4766303236
 20
-53.6830202652
 10
-37.4915045517
 20
-53.6193742476
 10
-37.5021075159
 20
-53.5551411792
 10
-37.508522402
 20
-53.4900564395
 10
-37.51074921
 20
-53.4241200285
  0
LWPOLYLINE
  5
2F7
100
AcDbEntity
  8
IMPORT_IGES
100
AcDbPolyline
 62
7
  6
CONTINUOUS
 90
6
 70
0
 10
-14.7116138859
 20
-53.1457941348
 10
-14.6919115908
 20
-53.1470291721
 10
-14.6722141535
 20
-53.1480016879
 10
-14.6525223712
 20
-53.1487116823
 10
-14.6328374971
 20
-53.1490959524
 10
-14.5738250963
 20
-53.1493056619
  0
LINE
  5
2F8
100
AcDbEntity
  8
IMPORT_IGES
100
AcDbLine
 62
250
  6
CONTINUOUS
 10
-11.9465733733
 20
52.3401958107
 11
-11.7107492097
 21
52.5761768121
  0
LINE
  5
2F9
100
AcDbEntity
  8
IMPORT_IGES
100
AcDbLine
 62
250
  6
CONTINUOUS
 10
-12.710600388
 20
53.5760279605
 11
-12.9464282772
 21
53.3402035081
  0
LINE
  5
2FA
100
AcDbEntity
  8
IMPORT_IGES
100
AcDbLine
 62
250
  6
CONTINUOUS
 10
-12.9464298708
 20
-54.1881511946
 11
-12.7106012508
 21
-54.4239720392
  0
LINE
  5
2FB
100
AcDbEntity
  8
IMPORT_IGES
100
AcDbLine
 62
250
  6
CONTINUOUS
 10
-11.7107492097
 20
-53.4240667749
 11
-11.9465733607
 21
-53.1880313211
  0
LWPOLYLINE
  5
2FC
100
AcDbEntity
  8
0
100
AcDbPolyline
 62
7
  6
CONTINUOUS
 90
3
 70
0
 43
0.3500000006
 10
-23.682178894
 20
64.4122961426
 10
-23.753605545
 20
64.1980116577
 10
-23.8964633789
 20
63.91229599
  0
LWPOLYLINE
  5
2FD
100
AcDbEntity
  8
IMPORT_IGES
100
AcDbPolyline
 62
7
  6
CONTINUOUS
 90
8
 70
0
 10
-37.2749250421
 20
-53.1881399007
 10
-37.2680651173
 20
-53.186381032
 10
-37.2531242593
 20
-53.1846185243
 10
-37.230143416
 20
-53.1828523776
 10
-37.1991843557
 20
-53.1810781424
 10
-37.1603282093
 20
-53.1793002681
 10
-37.1136741127
 20
-53.1775321031
 10
-37.0593420178
 20
-53.1757737235
  0
LWPOLYLINE
  5
2FE
100
AcDbEntity
  8
IMPORT_IGES
100
AcDbPolyline
 62
7
  6
CONTINUOUS
 90
19
 70
0
 10
-37.7607872929
 20
-13.9845586367
 10
-37.7597657754
 20
-14.0066679371
 10
-37.7569158617
 20
-14.0282733468
 10
-37.7522375519
 20
-14.049374866
 10
-37.7456662069
 20
-14.0701217817
 10
-37.7372664658
 20
-14.0903648069
 10
-37.7272322456
 20
-14.1096560799
 10
-37.7155283115
 20
-14.1279747289
 10
-37.7021898983
 20
-14.1453416257
 10
-37.6875166282
 20
-14.1613715249
 10
-37.6714796241
 20
-14.1760352181
 10
-37.654107763
 20
-14.1893619135
 10
-37.6357872978
 20
-14.201053991
 10
-37.6164976132
 20
-14.2110761552
 10
-37.5962593246
 20
-14.2194637014
 10
-37.5755205301
 20
-14.2260248946
 10
-37.5544305961
 20
-14.2306958231
 10
-37.5328401563
 20
-14.2335403987
 10
-37.5107492108
 20
-14.2345586213
  0
LINE
  5
2FF
100
AcDbEntity
  8
IMPORT_IGES
100
AcDbLine
 62
7
  6
CONTINUOUS
 10
-37.5107492107
 20
-53.4241200285
 11
-37.5107492121
 21
52.5761235726
  0
LINE
  5
300
100
AcDbEntity
  8
IMPORT_IGES
100
AcDbLine
 62
250
  6
CONTINUOUS
 10
-37.2749250517
 20
-53.1881399007
 11
-37.2749250517
 21
52.3400873677
  0
LWPOLYLINE
  5
301
100
AcDbEntity
  8
IMPORT_IGES
100
AcDbPolyline
 62
7
  6
CONTINUOUS
 90
25
 70
0
 10
-37.5107492092
 20
52.5761235726
 10
-37.508525317
 20
52.642064064
 10
-37.5021132268
 20
52.7071522181
 10
-37.4915129386
 20
52.771388035
 10
-37.4766412932
 20
52.8350358433
 10
-37.4575814499
 20
52.8978313144
 10
-37.4345828868
 20
52.9589814621
 10
-37.4075967742
 20
53.0184652454
 10
-37.3766719419
 20
53.0763037054
 10
-37.3422043577
 20
53.1317669789
 10
-37.3041502151
 20
53.1848250797
 10
-37.2625533206
 20
53.2355079941
 10
-37.2179410619
 20
53.2831758185
 10
-37.1702759581
 20
53.3277910811
 10
-37.11959549
 20
53.3693912537
 10
-37.0665394881
 20
53.4074488485
 10
-37.0110779547
 20
53.4419200649
 10
-36.9532408875
 20
53.4728487035
 10
-36.8937581099
 20
53.4998386778
 10
-36.8326085684
 20
53.5228411605
 10
-36.7698133166
 20
53.5419049789
 10
-36.7061653388
 20
53.5567805286
 10
-36.6419289632
 20
53.567384608
 10
-36.5768398616
 20
53.5738004187
 10
-36.5108980341
 20
53.5760279605
  0
LWPOLYLINE
  5
302
100
AcDbEntity
  8
0
100
AcDbPolyline
 62
7
  6
CONTINUOUS
 90
13
 70
0
 43
0.3500000006
 10
-48.0964345093
 20
0.8617419891
 10
-48.3107189941
 20
0.5760285873
 10
-48.9535769806
 20
0.5760285873
 10
-49.3821459503
 20
0.8617419891
 10
-49.3821459503
 20
1.5045999756
 10
-48.9535769806
 20
1.7903133774
 10
-48.3107189941
 20
1.7903133774
 10
-48.0964345093
 20
1.5045999756
 10
-47.6678610077
 20
1.9331712112
 10
-46.8107185364
 20
1.9331712112
 10
-46.3821495667
 20
1.5045999756
 10
-46.3821495667
 20
0.8617419891
 10
-46.8107185364
 20
0.4331707535
  0
LWPOLYLINE
  5
303
100
AcDbEntity
  8
0
100
AcDbPolyline
 62
7
  6
CONTINUOUS
 90
3
 70
0
 43
0.3500000006
 10
-48.525003479
 20
-3.6382582512
 10
-49.3821459503
 20
-2.7811146469
 10
-46.3821495667
 20
-2.7811146469
  0
LINE
  5
304
100
AcDbEntity
  8
IMPORT_IGES
100
AcDbLine
 62
250
  6
CONTINUOUS
 10
-34.509886251
 20
-53.14394338
 11
-34.5098951822
 21
52.2978500542
  0
LWPOLYLINE
  5
305
100
AcDbEntity
  8
IMPORT_IGES
100
AcDbPolyline
 62
250
  6
CONTINUOUS
 90
13
 70
0
 10
14.1918127403
 20
-29.5652469006
 10
15.8127418392
 20
-29.3618954799
 10
17.4361985474
 20
-29.195493329
 10
19.0621828651
 20
-29.0660404482
 10
20.6915373361
 20
-28.9735076342
 10
22.3234194165
 20
-28.9179240902
 10
23.9553014747
 20
-28.899377425
 10
25.5871835528
 20
-28.9179257378
 10
27.2190656088
 20
-28.9735109293
 10
28.8484198844
 20
-29.066046311
 10
30.4744037936
 20
-29.1955029865
 10
32.0978599225
 20
-29.361909852
 10
33.718788271
 20
-29.5652669076
  0
LWPOLYLINE
  5
306
100
AcDbEntity
  8
IMPORT_IGES
100
AcDbPolyline
 62
250
  6
CONTINUOUS
 90
9
 70
0
 10
11.4252191757
 20
-31.7000938581
 10
11.3943724058
 20
-31.7005619947
 10
11.3673561271
 20
-31.7011301921
 10
11.3442879893
 20
-31.701795797
 10
11.3252686128
 20
-31.7025562791
 10
11.310380295
 20
-31.7034093184
 10
11.2996897988
 20
-31.7043516324
 10
11.2932467712
 20
-31.7053789624
 10
11.2910821703
 20
-31.706486977
  0
LINE
  5
307
100
AcDbEntity
  8
IMPORT_IGES
100
AcDbLine
 62
250
  6
CONTINUOUS
 10
35.8785050172
 20
-31.7025548883
 11
35.6195774153
 21
-31.7064975669
  0
LINE
  5
308
100
AcDbEntity
  8
IMPORT_IGES
100
AcDbLine
 62
250
  6
CONTINUOUS
 10
36.1195573785
 20
-31.7000932762
 11
35.8785050172
 21
-31.7025548883
  0
LINE
  5
309
100
AcDbEntity
  8
IMPORT_IGES
100
AcDbLine
 62
250
  6
CONTINUOUS
 10
11.4978625526
 20
-31.6994650854
 11
11.4252191757
 21
-31.7000938581
  0
LINE
  5
30A
100
AcDbEntity
  8
IMPORT_IGES
100
AcDbLine
 62
250
  6
CONTINUOUS
 10
36.2787595869
 20
-31.69930647
 11
36.1195573785
 21
-31.7000932762
  0
LINE
  5
30B
100
AcDbEntity
  8
IMPORT_IGES
100
AcDbLine
 62
250
  6
CONTINUOUS
 10
11.5840435737
 20
-31.6992543473
 11
11.4978625526
 21
-31.6994650854
  0
LINE
  5
30C
100
AcDbEntity
  8
IMPORT_IGES
100
AcDbLine
 62
250
  6
CONTINUOUS
 10
36.3711745445
 20
-31.6993064702
 11
36.2787595869
 21
-31.69930647
  0
LINE
  5
30D
100
AcDbEntity
  8
IMPORT_IGES
100
AcDbLine
 62
250
  6
CONTINUOUS
 10
11.7354418289
 20
-31.6997277744
 11
11.5840435737
 21
-31.6992543473
  0
LINE
  5
30E
100
AcDbEntity
  8
IMPORT_IGES
100
AcDbLine
 62
250
  6
CONTINUOUS
 10
11.969413893
 20
-31.701796179
 11
11.7354418289
 21
-31.6997277744
  0
LWPOLYLINE
  5
30F
100
AcDbEntity
  8
IMPORT_IGES
100
AcDbPolyline
 62
250
  6
CONTINUOUS
 90
3
 70
0
 10
12.290932505
 20
-31.7064796567
 10
12.2254791101
 20
-31.7053749444
 10
11.969413893
 20
-31.701796179
  0
LWPOLYLINE
  5
310
100
AcDbEntity
  8
IMPORT_IGES
100
AcDbPolyline
 62
7
  6
CONTINUOUS
 90
5
 70
0
 10
-27.3925416302
 20
13.1197820688
 10
-27.3927838988
 20
13.1241723737
 10
-27.3929324454
 20
13.1287243495
 10
-27.3929872701
 20
13.1334379962
 10
-27.3929225806
 20
13.1383131217
  0
LWPOLYLINE
  5
311
100
AcDbEntity
  8
IMPORT_IGES
100
AcDbPolyline
 62
7
  6
CONTINUOUS
 90
82
 70
0
 10
-27.392540865
 20
7.0322384954
 10
-27.3922697306
 20
6.9740572206
 10
-27.3900822356
 20
6.9148998965
 10
-27.3859783732
 20
6.854766523
 10
-27.3799817195
 20
6.7934696547
 10
-27.3720686683
 20
6.7311967371
 10
-27.3621684309
 20
6.6685101064
 10
-27.3502421549
 20
6.6054011475
 10
-27.3363286252
 20
6.5418784754
 10
-27.3204735003
 20
6.478530272
 10
-27.3026355208
 20
6.4153534758
 10
-27.2828558471
 20
6.3523511483
 10
-27.2613037656
 20
6.290120656
 10
-27.2379836341
 20
6.2287537296
 10
-27.2128909801
 20
6.1681586384
 10
-27.18618185
 20
6.108657557
 10
-27.1579494804
 20
6.0504276381
 10
-27.128100516
 20
5.993291729
 10
-27.0965111127
 20
5.9370405455
 10
-27.0631286534
 20
5.8815830952
 10
-27.028005608
 20
5.8270103705
 10
-26.9911757554
 20
5.7733860641
 10
-26.9524158939
 20
5.7204785488
 10
-26.9119490648
 20
5.6685194518
 10
-26.8704784483
 20
5.6182673476
 10
-26.8278958019
 20
5.5697533585
 10
-26.7843092846
 20
5.5229463621
 10
-26.7407467733
 20
5.4785115665
 10
-26.6972570856
 20
5.4366114152
 10
-26.6537914391
 20
5.3970834646
 10
-26.6112314099
 20
5.3601055924
 10
-26.5698501083
 20
5.3259109268
 10
-26.5293745463
 20
5.2942663396
 10
-26.4898671965
 20
5.264650323
 10
-26.451350593
 20
5.237026935
 10
-26.4138023049
 20
5.2114321176
 10
-26.3772173549
 20
5.1874521899
 10
-26.3416043799
 20
5.1650570025
 10
-26.3069548305
 20
5.1442767047
 10
-26.273237945
 20
5.124788064
 10
-26.2404622544
 20
5.1065706741
 10
-26.2086193001
 20
5.0896449411
 10
-26.1776528301
 20
5.0737488514
 10
-26.147564725
 20
5.0588624902
 10
-26.1183531624
 20
5.0450057723
 10
-26.0899563303
 20
5.0319764274
 10
-26.0623750992
 20
5.0197597226
 10
-26.0356086449
 20
5.0083703907
 10
-26.0095926088
 20
4.99765036
 10
-25.9843262903
 20
4.9875883523
 10
-25.9598104267
 20
4.9781956457
 10
-25.9359828126
 20
4.9693480031
 10
-25.9128422563
 20
4.9610369857
 10
-25.8903899786
 20
4.9532710323
 10
-25.868567389
 20
4.945951222
 10
-25.8473731765
 20
4.9390710822
 10
-25.8268086752
 20
4.9326370856
 10
-25.806819259
 20
4.9265697288
 10
-25.7874035066
 20
4.9208639749
 10
-25.7685628575
 20
4.9155248609
 10
-25.7502469748
 20
4.9104879952
 10
-25.7324543698
 20
4.9057494671
 10
-25.7151865455
 20
4.9013131873
 10
-25.6983976515
 20
4.8971264953
 10
-25.6820863897
 20
4.8931861746
 10
-25.6662540695
 20
4.8894954417
 10
-25.6508587503
 20
4.886011286
 10
-25.6359005221
 20
4.8827313403
 10
-25.6213793039
 20
4.8796579718
 10
-25.6072528973
 20
4.8767552717
 10
-25.5935189265
 20
4.8740208499
 10
-25.5801797745
 20
4.8714570964
 10
-25.5672003797
 20
4.8690352734
 10
-25.554579553
 20
4.8667536729
 10
-25.5423184894
 20
4.8646140029
 10
-25.5303857033
 20
4.8625926489
 10
-25.5187801942
 20
4.8606882429
 10
-25.5075029673
 20
4.8589021529
 10
-25.4965255448
 20
4.8572148678
 10
-25.4858470207
 20
4.8556252523
 10
-25.4754683047
 20
4.8541344417
 10
-25.4555321917
 20
4.8513998588
  0
LINE
  5
312
100
AcDbEntity
  8
IMPORT_IGES
100
AcDbLine
 62
7
  6
CONTINUOUS
 10
-28.4107492109
 20
53.4451149736
 11
-28.4107492109
 21
53.5760279606
  0
LINE
  5
313
100
AcDbEntity
  8
IMPORT_IGES
100
AcDbLine
 62
7
  6
CONTINUOUS
 10
-27.5107492109
 20
53.4451149736
 11
-27.5107492109
 21
53.5760279605
  0
LINE
  5
314
100
AcDbEntity
  8
IMPORT_IGES
100
AcDbLine
 62
7
  6
CONTINUOUS
 10
-27.3925400775
 20
7.0322384954
 11
-27.3925414637
 21
13.1197820688
  0
LINE
  5
315
100
AcDbEntity
  8
IMPORT_IGES
100
AcDbLine
 62
7
  6
CONTINUOUS
 10
-27.1107492109
 20
53.5760279606
 11
-27.1107492109
 21
53.4451149736
  0
LINE
  5
316
100
AcDbEntity
  8
IMPORT_IGES
100
AcDbLine
 62
7
  6
CONTINUOUS
 10
-26.7107492109
 20
54.0760279606
 11
-26.7107492109
 21
54.8760279606
  0
LINE
  5
317
100
AcDbEntity
  8
IMPORT_IGES
100
AcDbLine
 62
7
  6
CONTINUOUS
 10
-26.3543449407
 20
7.032394471
 11
-26.3543449407
 21
13.1196851351
  0
LWPOLYLINE
  5
318
100
AcDbEntity
  8
IMPORT_IGES
100
AcDbPolyline
 62
7
  6
CONTINUOUS
 90
7
 70
0
 10
-27.3920444472
 20
13.165120157
 10
-27.3915169258
 20
13.1896181739
 10
-27.3913526621
 20
13.1961863772
 10
-27.3911483273
 20
13.2029347356
 10
-27.390896895
 20
13.2098582836
 10
-27.3906053916
 20
13.2169619865
 10
-27.3902702439
 20
13.2242631727
  0
LWPOLYLINE
  5
319
100
AcDbEntity
  8
IMPORT_IGES
100
AcDbPolyline
 62
7
  6
CONTINUOUS
 90
25
 70
0
 10
-26.1193244269
 20
13.0847540264
 10
-26.1171698315
 20
13.1502133937
 10
-26.1107368611
 20
13.2153759639
 10
-26.1000561453
 20
13.2799626847
 10
-26.0851769501
 20
13.3436956544
 10
-26.0661657287
 20
13.4063042905
 10
-26.0431047252
 20
13.4675261607
 10
-26.0160944906
 20
13.5271000404
 10
-25.9852524779
 20
13.5847718123
 10
-25.9507096084
 20
13.6402997987
 10
-25.9126145868
 20
13.6934469626
 10
-25.8711310931
 20
13.743986814
 10
-25.8264334704
 20
13.7917077361
 10
-25.7787127908
 20
13.8364056975
 10
-25.7281730706
 20
13.8778896084
 10
-25.6750259141
 20
13.9159851066
 10
-25.6194978009
 20
13.9505284911
 10
-25.5618257599
 20
13.9813710356
 10
-25.5022514632
 20
14.0083817957
 10
-25.441029152
 20
14.0314432521
 10
-25.3784199301
 20
14.0504548888
 10
-25.3146858398
 20
14.0653345163
 10
-25.2500973235
 20
14.0760155972
 10
-25.1849324182
 20
14.0824487285
 10
-25.1194701967
 20
14.0846031786
  0
LINE
  5
31A
100
AcDbEntity
  8
IMPORT_IGES
100
AcDbLine
 62
7
  6
CONTINUOUS
 10
-27.3929225806
 20
13.1383131217
 11
-27.3920444472
 21
13.165120157
  0
LINE
  5
31B
100
AcDbEntity
  8
IMPORT_IGES
100
AcDbLine
 62
7
  6
CONTINUOUS
 10
-27.3902702439
 20
13.2242631727
 11
-27.389467986
 21
13.239454092
  0
LINE
  5
31C
100
AcDbEntity
  8
IMPORT_IGES
100
AcDbLine
 62
7
  6
CONTINUOUS
 10
-27.389467986
 20
13.239454092
 11
-27.388485913
 21
13.255504833
  0
LINE
  5
31D
100
AcDbEntity
  8
IMPORT_IGES
100
AcDbLine
 62
7
  6
CONTINUOUS
 10
-27.388485913
 20
13.255504833
 11
-27.3873174239
 21
13.2724607247
  0
LINE
  5
31E
100
AcDbEntity
  8
IMPORT_IGES
100
AcDbLine
 62
7
  6
CONTINUOUS
 10
-27.3873174239
 20
13.2724607247
 11
-27.3859522973
 21
13.2903903196
  0
LWPOLYLINE
  5
31F
100
AcDbEntity
  8
IMPORT_IGES
100
AcDbPolyline
 62
7
  6
CONTINUOUS
 90
85
 70
0
 10
-27.3859522973
 20
13.2903903196
 10
-27.3843540321
 20
13.3093451968
 10
-27.3834634527
 20
13.3192138705
 10
-27.3824971464
 20
13.3293663698
 10
-27.3814564015
 20
13.3398007244
 10
-27.3803399294
 20
13.3505189046
 10
-27.3791294703
 20
13.3615493697
 10
-27.3778263153
 20
13.3728921734
 10
-27.3764291729
 20
13.384547262
 10
-27.3749159079
 20
13.396542934
 10
-27.3732872492
 20
13.408879183
 10
-27.3715424674
 20
13.4215560154
 10
-27.3696572396
 20
13.4346017492
 10
-27.367633428
 20
13.4480115117
 10
-27.3654691696
 20
13.4617901757
 10
-27.3631345536
 20
13.4759806775
 10
-27.3606318802
 20
13.4905812817
 10
-27.357958848
 20
13.5055937238
 10
-27.3550786431
 20
13.5210661464
 10
-27.3519936471
 20
13.5370002521
 10
-27.3487014766
 20
13.5533943383
 10
-27.3451581695
 20
13.5702914402
 10
-27.3413671567
 20
13.5876913149
 10
-27.3373250046
 20
13.6055942053
 10
-27.3329774544
 20
13.624043875
 10
-27.3283291045
 20
13.6430374644
 10
-27.3233753523
 20
13.6625778331
 10
-27.3180481364
 20
13.6827173226
 10
-27.3123530157
 20
13.7034536652
 10
-27.306284425
 20
13.7247891287
 10
-27.2997576147
 20
13.7467828588
 10
-27.2927786394
 20
13.7694359566
 10
-27.2853414352
 20
13.7927473211
 10
-27.2773430725
 20
13.8167727951
 10
-27.2687931815
 20
13.841509007
 10
-27.2596821183
 20
13.8669593285
 10
-27.2498780388
 20
13.893189717
 10
-27.2393974349
 20
13.9201899786
 10
-27.2282237944
 20
13.9479703073
 10
-27.2161757611
 20
13.9766272417
 10
-27.2032659828
 20
14.006171557
 10
-27.1894817804
 20
14.0365924781
 10
-27.1746037984
 20
14.0679542184
 10
-27.1586540475
 20
14.1002589345
 10
-27.1416104699
 20
14.1335044698
 10
-27.1231875933
 20
14.1677485678
 10
-27.1034045093
 20
14.2030072528
 10
-27.0822420546
 20
14.2392645004
 10
-27.0593573535
 20
14.2765299814
 10
-27.0348121763
 20
14.3147751694
 10
-27.0085446463
 20
14.3540285907
 10
-26.9800263844
 20
14.394385495
 10
-26.9492083231
 20
14.4359788286
 10
-26.9161393598
 20
14.4786756451
 10
-26.8804380205
 20
14.5221723552
 10
-26.8418832353
 20
14.566692866
 10
-26.8006958361
 20
14.6120132704
 10
-26.7571571926
 20
14.6571582582
 10
-26.7110385746
 20
14.7021973145
 10
-26.6625684829
 20
14.7470609543
 10
-26.6127142014
 20
14.7905654117
 10
-26.5616831552
 20
14.8324169159
 10
-26.5092678178
 20
14.8729092378
 10
-26.4558131224
 20
14.9117399242
 10
-26.4014563719
 20
14.9488051069
 10
-26.346060211
 20
14.9842086542
 10
-26.2895576048
 20
15.0179597176
 10
-26.2319246107
 20
15.0500644851
 10
-26.1731851209
 20
15.0805167686
 10
-26.1133438538
 20
15.1093071555
 10
-26.0522977229
 20
15.1364792853
 10
-25.9901497815
 20
15.1619895184
 10
-25.9272139784
 20
15.1856975236
 10
-25.8634314045
 20
15.2076048435
 10
-25.7988609887
 20
15.2277099354
 10
-25.733993479
 20
15.2458678397
 10
-25.6687723161
 20
15.2620563889
 10
-25.603254137
 20
15.2762977505
 10
-25.5380995323
 20
15.2885134671
 10
-25.4733076656
 20
15.2986568932
 10
-25.4088795014
 20
15.3067746744
 10
-25.3454783745
 20
15.31292829
 10
-25.2833254542
 20
15.3171382332
 10
-25.2221997218
 20
15.3193840109
 10
-25.162101243
 20
15.3196656229
  0
LINE
  5
320
100
AcDbEntity
  8
IMPORT_IGES
100
AcDbLine
 62
250
  6
CONTINUOUS
 10
-24.0669690649
 20
14.1196656212
 11
-24.1020236743
 21
14.0846031769
  0
LWPOLYLINE
  5
321
100
AcDbEntity
  8
IMPORT_IGES
100
AcDbPolyline
 62
7
  6
CONTINUOUS
 90
25
 70
0
 10
-26.1543868728
 20
7.0322482765
 10
-26.1521506284
 20
6.9662313096
 10
-26.1457247527
 20
6.9010854057
 10
-26.1351092458
 20
6.8368105648
 10
-26.120218519
 20
6.7731450641
 10
-26.1011381609
 20
6.7103506263
 10
-26.0781249375
 20
6.6492124196
 10
-26.0511320131
 20
6.589751853
 10
-26.0202062233
 20
6.5319475174
 10
-25.9857448413
 20
6.4765203541
 10
-25.9477053896
 20
6.4234993719
 10
-25.9061303455
 20
6.3728555619
 10
-25.8615444145
 20
6.3252228384
 10
-25.8139111666
 20
6.2806376439
 10
-25.7632670318
 20
6.2390635358
 10
-25.7102460046
 20
6.201025101
 10
-25.6548190923
 20
6.1665648251
 10
-25.5970152876
 20
6.1356402226
 10
-25.5375555634
 20
6.1086484235
 10
-25.4764185286
 20
6.0856362662
 10
-25.4136255743
 20
6.0665569125
 10
-25.3499618457
 20
6.0516669774
 10
-25.2856890578
 20
6.0410519994
 10
-25.2205454956
 20
6.03462644
 10
-25.154531159
 20
6.0323902994
  0
LWPOLYLINE
  5
322
100
AcDbEntity
  8
IMPORT_IGES
100
AcDbPolyline
 62
7
  6
CONTINUOUS
 90
25
 70
0
 10
-23.0671115498
 20
13.1198073178
 10
-23.0693477786
 20
13.1858243764
 10
-23.07577365
 20
13.2509703699
 10
-23.0863891643
 20
13.3152452982
 10
-23.1012799103
 20
13.3789108853
 10
-23.1203602991
 20
13.4417054072
 10
-23.1433735635
 20
13.5028436928
 10
-23.1703665393
 20
13.5623043329
 10
-23.2012923908
 20
13.6201087365
 10
-23.2357538429
 20
13.6755359599
 10
-23.2737933734
 20
13.7285569938
 10
-23.3153685046
 20
13.7792008474
 10
-23.3599545287
 20
13.8268336042
 10
-23.4075878757
 20
13.8714188215
 10
-23.4582321156
 20
13.912992942
 10
-23.5112532507
 20
13.9510313772
 10
-23.5666802739
 20
13.9854916414
 10
-23.6244841923
 20
14.0164162203
 10
-23.6839440298
 20
14.043407983
 10
-23.7450811774
 20
14.066420091
 10
-23.807874244
 20
14.0854993827
 10
-23.871538081
 20
14.1003892431
 10
-23.935810972
 20
14.1110041337
 10
-24.0009546333
 20
14.1174295929
 10
-24.0669690649
 20
14.1196656207
  0
LINE
  5
323
100
AcDbEntity
  8
IMPORT_IGES
100
AcDbLine
 62
7
  6
CONTINUOUS
 10
-25.1621012415
 20
15.3196656231
 11
-25.1543824872
 21
14.319629444
  0
LINE
  5
324
100
AcDbEntity
  8
IMPORT_IGES
100
AcDbLine
 62
7
  6
CONTINUOUS
 10
-24.0593971803
 20
4.8323902983
 11
-24.0671159355
 21
5.832426739
  0
LINE
  5
325
100
AcDbEntity
  8
IMPORT_IGES
100
AcDbLine
 62
7
  6
CONTINUOUS
 10
-26.1543868711
 20
13.1198084321
 11
-26.1543868728
 21
7.0322482765
  0
LINE
  5
326
100
AcDbEntity
  8
IMPORT_IGES
100
AcDbLine
 62
7
  6
CONTINUOUS
 10
-26.1193244276
 20
7.0673043193
 11
-26.1193244274
 21
13.0847540266
  0
LINE
  5
327
100
AcDbEntity
  8
IMPORT_IGES
100
AcDbLine
 62
250
  6
CONTINUOUS
 10
-25.6194015078
 20
7.0672637372
 11
-25.6194015175
 21
13.0847940661
  0
LINE
  5
328
100
AcDbEntity
  8
IMPORT_IGES
100
AcDbLine
 62
250
  6
CONTINUOUS
 10
-25.1194889232
 20
6.5673765861
 11
-25.1194763017
 21
6.0674527436
  0
LINE
  5
329
100
AcDbEntity
  8
IMPORT_IGES
100
AcDbLine
 62
7
  6
CONTINUOUS
 10
-24.8607492109
 20
53.5760279606
 11
-24.8607492109
 21
53.7859193933
  0
LINE
  5
32A
100
AcDbEntity
  8
IMPORT_IGES
100
AcDbLine
 62
7
  6
CONTINUOUS
 10
-24.3607492109
 20
53.7859193933
 11
-24.3607492109
 21
53.5760279606
  0
LINE
  5
32B
100
AcDbEntity
  8
IMPORT_IGES
100
AcDbLine
 62
250
  6
CONTINUOUS
 10
-24.1020092559
 20
13.5846793348
 11
-24.1020245326
 21
14.0846031771
  0
LINE
  5
32C
100
AcDbEntity
  8
IMPORT_IGES
100
AcDbLine
 62
250
  6
CONTINUOUS
 10
-23.6020972964
 20
13.0848508448
 11
-23.6020971002
 21
7.0672620238
  0
LINE
  5
32D
100
AcDbEntity
  8
IMPORT_IGES
100
AcDbLine
 62
250
  6
CONTINUOUS
 10
-23.1021739932
 20
13.0847527203
 11
-23.1021739943
 21
7.0673004973
  0
LINE
  5
32E
100
AcDbEntity
  8
IMPORT_IGES
100
AcDbLine
 62
7
  6
CONTINUOUS
 10
-23.0671115508
 20
7.0322481797
 11
-23.0671115498
 21
13.1198073178
  0
LINE
  5
32F
100
AcDbEntity
  8
IMPORT_IGES
100
AcDbLine
 62
7
  6
CONTINUOUS
 10
-22.8671538612
 20
13.1196614503
 11
-22.8671538612
 21
7.0323691397
  0
LWPOLYLINE
  5
330
100
AcDbEntity
  8
0
100
AcDbPolyline
 62
7
  6
CONTINUOUS
 90
4
 70
0
 43
0.3500000006
 10
-22.6821785889
 20
64.5551494446
 10
-22.6821785889
 20
65.4122964478
 10
-22.2536073532
 20
65.8408654175
 10
-21.6107493668
 20
65.8408654175
  0
LINE
  5
331
100
AcDbEntity
  8
IMPORT_IGES
100
AcDbLine
 62
7
  6
CONTINUOUS
 10
-22.5107492109
 20
54.0760279606
 11
-22.5107492109
 21
54.8760279606
  0
LINE
  5
332
100
AcDbEntity
  8
IMPORT_IGES
100
AcDbLine
 62
7
  6
CONTINUOUS
 10
-22.1107492109
 20
53.4451149736
 11
-22.1107492109
 21
53.5760279606
  0
LINE
  5
333
100
AcDbEntity
  8
IMPORT_IGES
100
AcDbLine
 62
250
  6
CONTINUOUS
 10
-25.1195138878
 20
13.5846802527
 11
-25.1194737929
 21
14.0846031771
  0
LINE
  5
334
100
AcDbEntity
  8
IMPORT_IGES
100
AcDbLine
 62
7
  6
CONTINUOUS
 10
-25.1543872138
 20
5.8324271628
 11
-25.1620634175
 21
4.832390299
  0
LINE
  5
335
100
AcDbEntity
  8
IMPORT_IGES
100
AcDbLine
 62
7
  6
CONTINUOUS
 10
-24.0585764701
 20
15.3196656221
 11
-24.0671097531
 21
14.3196355753
  0
LWPOLYLINE
  5
336
100
AcDbEntity
  8
IMPORT_IGES
100
AcDbPolyline
 62
250
  6
CONTINUOUS
 90
5
 70
0
 10
-24.1019247039
 20
6.5673758294
 10
-24.1019629925
 20
6.5653158721
 10
-24.1019917496
 20
6.5632484594
 10
-24.1020109752
 20
6.5611736274
 10
-24.1020223886
 20
6.0675343299
  0
LWPOLYLINE
  5
337
100
AcDbEntity
  8
IMPORT_IGES
100
AcDbPolyline
 62
7
  6
CONTINUOUS
 90
22
 70
0
 10
-25.6194015175
 20
13.0847940661
 10
-25.6183595142
 20
13.1192574244
 10
-25.6143781488
 20
13.1539431913
 10
-25.6074574215
 20
13.1888513667
 10
-25.5974593654
 20
13.2244369596
 10
-25.5845219473
 20
13.260244961
 10
-25.5690590676
 20
13.2949103443
 10
-25.5510251847
 20
13.328194068
 10
-25.5304658402
 20
13.3603351736
 10
-25.5079315594
 20
13.3906857588
 10
-25.4835781185
 20
13.4190827575
 10
-25.4572497414
 20
13.4456892358
 10
-25.429029625
 20
13.470346489
 10
-25.398747805
 20
13.4931783868
 10
-25.3665742457
 20
13.5140610596
 10
-25.3331020365
 20
13.5324641945
 10
-25.2980351487
 20
13.548398866
 10
-25.261669611
 20
13.5618539995
 10
-25.2254865985
 20
13.5722660586
 10
-25.1899798364
 20
13.5794471978
 10
-25.1546555994
 20
13.5835852624
 10
-25.1195138878
 20
13.5846802526
  0
LWPOLYLINE
  5
338
100
AcDbEntity
  8
IMPORT_IGES
100
AcDbPolyline
 62
7
  6
CONTINUOUS
 90
22
 70
0
 10
-23.6020971002
 20
7.0672620238
 10
-23.6031415676
 20
7.0327815
 10
-23.6071261997
 20
6.9980817419
 10
-23.6140509965
 20
6.9631627494
 10
-23.6240545845
 20
6.927569547
 10
-23.6369983372
 20
6.8917571101
 10
-23.6524663746
 20
6.857090366
 10
-23.6705038427
 20
6.8238090887
 10
-23.6910655954
 20
6.7916735041
 10
-23.7136003149
 20
6.7613292167
 10
-23.7379512491
 20
6.7329389963
 10
-23.7642751501
 20
6.7063400731
 10
-23.7924909559
 20
6.6816897425
 10
-23.8227698016
 20
6.6588638762
 10
-23.8549405521
 20
6.6379866025
 10
-23.8884087398
 20
6.6195876007
 10
-23.9234706685
 20
6.603655306
 10
-23.9598300344
 20
6.5902012832
 10
-23.9960034588
 20
6.5797899067
 10
-24.0314964821
 20
6.5726093013
 10
-24.0668035637
 20
6.568471342
 10
-24.1019247039
 20
6.5673760291
  0
LWPOLYLINE
  5
339
100
AcDbEntity
  8
IMPORT_IGES
100
AcDbPolyline
 62
7
  6
CONTINUOUS
 90
25
 70
0
 10
-23.1021739947
 20
7.0673004975
 10
-23.1043286834
 20
7.0018411084
 10
-23.1107617488
 20
6.9366785305
 10
-23.1214425593
 20
6.8720918164
 10
-23.1363218472
 20
6.8083588673
 10
-23.1553331571
 20
6.7457502653
 10
-23.1783942432
 20
6.6845284425
 10
-23.2054045524
 20
6.6249546224
 10
-23.2362466303
 20
6.5672829212
 10
-23.2707895536
 20
6.5117550154
 10
-23.3088846147
 20
6.458607943
 10
-23.3503681336
 20
6.4080681897
 10
-23.3950657729
 20
6.3603473638
 10
-23.4427864606
 20
6.3156494961
 10
-23.4933261809
 20
6.2741656757
 10
-23.5464733378
 20
6.2360702593
 10
-23.6020014558
 20
6.2015269473
 10
-23.6596735045
 20
6.1706844691
 10
-23.7192478131
 20
6.1436737704
 10
-23.780470142
 20
6.1206123717
 10
-23.8430793872
 20
6.1016007909
 10
-23.9068135038
 20
6.0867212198
 10
-23.9714020487
 20
6.076040197
 10
-24.0365669855
 20
6.0696071264
 10
-24.1020292414
 20
6.0674527405
  0
LINE
  5
33A
100
AcDbEntity
  8
IMPORT_IGES
100
AcDbLine
 62
7
  6
CONTINUOUS
 10
-21.8430351746
 20
6.7910492643
 11
-21.8372649509
 21
6.8521294814
  0
LWPOLYLINE
  5
33B
100
AcDbEntity
  8
IMPORT_IGES
100
AcDbPolyline
 62
7
  6
CONTINUOUS
 90
3
 70
0
 10
-21.8372649509
 20
6.8521294814
 10
-21.8354728776
 20
6.8702435603
 10
-21.8345809038
 20
6.8789145168
  0
LWPOLYLINE
  5
33C
100
AcDbEntity
  8
IMPORT_IGES
100
AcDbPolyline
 62
7
  6
CONTINUOUS
 90
27
 70
0
 10
-21.8345809038
 20
6.8789145168
 10
-21.8327432507
 20
6.8955014589
 10
-21.8319008067
 20
6.9034408918
 10
-21.8311315783
 20
6.9111577536
 10
-21.8304385128
 20
6.9186460583
 10
-21.829906177
 20
6.9259102529
 10
-21.8295561797
 20
6.932954221
 10
-21.8293669117
 20
6.939774079
 10
-21.8293581134
 20
6.9463626234
 10
-21.829562548
 20
6.9527087685
 10
-21.8299474522
 20
6.9588235999
 10
-21.8304342765
 20
6.9647331712
 10
-21.8310463306
 20
6.9704341096
 10
-21.8317603048
 20
6.9759297878
 10
-21.8324277205
 20
6.9812563774
 10
-21.8330318763
 20
6.986421963
 10
-21.8335894734
 20
6.99141846
 10
-21.8340021363
 20
6.9962577866
 10
-21.8342591875
 20
7.000943539
 10
-21.8343713043
 20
7.005472121
 10
-21.8342721425
 20
7.0098446625
 10
-21.8339451425
 20
7.014081318
 10
-21.8334068641
 20
7.0181619331
 10
-21.8326406432
 20
7.0220271743
 10
-21.8316409253
 20
7.0256572637
 10
-21.8304132655
 20
7.0290719792
 10
-21.8289576642
 20
7.0322713208
  0
LINE
  5
33D
100
AcDbEntity
  8
IMPORT_IGES
100
AcDbLine
 62
250
  6
CONTINUOUS
 10
-23.1021739932
 20
13.0847527203
 11
-23.0671115489
 21
13.1198073178
  0
LINE
  5
33E
100
AcDbEntity
  8
IMPORT_IGES
100
AcDbLine
 62
250
  6
CONTINUOUS
 10
-26.1193244276
 20
7.0673043193
 11
-26.1543868729
 21
7.0322482765
  0
LWPOLYLINE
  5
33F
100
AcDbEntity
  8
IMPORT_IGES
100
AcDbPolyline
 62
250
  6
CONTINUOUS
 90
25
 70
0
 10
33.718788271
 20
-29.5652669076
 10
33.8478798543
 20
-29.586988579
 10
33.9745507451
 20
-29.6159826656
 10
34.0988009432
 20
-29.6522491675
 10
34.2210365515
 20
-29.6959704724
 10
34.3408514672
 20
-29.7469641926
 10
34.4570273821
 20
-29.8046831649
 10
34.5695268016
 20
-29.8691921495
 10
34.6783872203
 20
-29.9404263862
 10
34.7825028138
 20
-30.0176444304
 10
34.8818266377
 20
-30.1009048864
 10
34.9764056363
 20
-30.1901491499
 10
35.0652748186
 20
-30.2844599641
 10
35.1483778987
 20
-30.3838872607
 10
35.2257711625
 20
-30.4883811079
 10
35.2966584764
 20
-30.5968744533
 10
35.360976057
 20
-30.7094069209
 10
35.4187876877
 20
-30.8259388866
 10
35.4694885842
 20
-30.9452844256
 10
35.513009586
 20
-31.0674768734
 10
35.5494198536
 20
-31.1924828944
 10
35.578322085
 20
-31.3190165572
 10
35.5995838461
 20
-31.446649218
 10
35.613337571
 20
-31.5758095206
 10
35.6195832597
 20
-31.7064974649
  0
LWPOLYLINE
  5
340
100
AcDbEntity
  8
0
100
AcDbPolyline
 62
7
  6
CONTINUOUS
 90
3
 70
0
 43
0.3500000006
 10
44.0214400635
 20
-40.0239724731
 10
44.2357245483
 20
-40.0954013901
 10
44.5214402161
 20
-40.2382592239
  0
LINE
  5
341
100
AcDbEntity
  8
IMPORT_IGES
100
AcDbLine
 62
7
  6
CONTINUOUS
 10
-21.8289586075
 20
13.1198255485
 11
-21.8289603037
 21
7.0322713208
  0
LINE
  5
342
100
AcDbEntity
  8
IMPORT_IGES
100
AcDbLine
 62
7
  6
CONTINUOUS
 10
-21.7107492109
 20
53.5760279605
 11
-21.7107492109
 21
53.4451149736
  0
LINE
  5
343
100
AcDbEntity
  8
IMPORT_IGES
100
AcDbLine
 62
7
  6
CONTINUOUS
 10
-20.8107492109
 20
53.5760279606
 11
-20.8107492109
 21
53.4451149736
  0
LINE
  5
344
100
AcDbEntity
  8
IMPORT_IGES
100
AcDbLine
 62
250
  6
CONTINUOUS
 10
-25.154531159
 20
6.0323902992
 11
-25.1194762185
 21
6.0674527442
  0
LINE
  5
345
100
AcDbEntity
  8
IMPORT_IGES
100
AcDbLine
 62
250
  6
CONTINUOUS
 10
-14.7116138859
 20
-53.1457941348
 11
-14.7116058315
 21
52.2980315409
  0
LINE
  5
346
100
AcDbEntity
  8
IMPORT_IGES
100
AcDbLine
 62
250
  6
CONTINUOUS
 10
-24.1020256724
 20
6.0674527429
 11
-24.0669703695
 21
6.0323902986
  0
LINE
  5
347
100
AcDbEntity
  8
IMPORT_IGES
100
AcDbLine
 62
250
  6
CONTINUOUS
 10
-11.9465733607
 20
-53.1880313211
 11
-11.9465733733
 21
52.3401958107
  0
LINE
  5
348
100
AcDbEntity
  8
IMPORT_IGES
100
AcDbLine
 62
7
  6
CONTINUOUS
 10
-11.7107492097
 20
52.5761768121
 11
-11.7107492097
 21
-53.4240667749
  0
LWPOLYLINE
  5
349
100
AcDbEntity
  8
IMPORT_IGES
100
AcDbPolyline
 62
250
  6
CONTINUOUS
 90
25
 70
0
 10
-11.9465734062
 20
-53.188136939
 10
-11.9487208539
 20
-53.2534910984
 10
-11.9550925905
 20
-53.3182405742
 10
-11.965597876
 20
-53.3821174526
 10
-11.9801243926
 20
-53.444844072
 10
-11.9985528694
 20
-53.5061953837
 10
-12.0207710144
 20
-53.565995877
 10
-12.0465664323
 20
-53.6238663623
 10
-12.0758437376
 20
-53.6797566854
 10
-12.1087552952
 20
-53.7339489972
 10
-12.1453216556
 20
-53.7863327014
 10
-12.1853575185
 20
-53.8365106071
 10
-12.2287853345
 20
-53.8842812875
 10
-12.2754663734
 20
-53.9293885022
 10
-12.3252625765
 20
-53.9716013621
 10
-12.3780909751
 20
-54.0107423846
 10
-12.4338633052
 20
-54.0466192119
 10
-12.4923067573
 20
-54.078934134
 10
-12.5530245917
 20
-54.1073834155
 10
-12.6158203243
 20
-54.1318085787
 10
-12.6803781701
 20
-54.1520220761
 10
-12.7460592775
 20
-54.1678055014
 10
-12.8124380451
 20
-54.1790893634
 10
-12.8793282216
 20
-54.1858741921
 10
-12.9464254127
 20
-54.1881485982
  0
LWPOLYLINE
  5
34A
100
AcDbEntity
  8
IMPORT_IGES
100
AcDbPolyline
 62
7
  6
CONTINUOUS
 90
25
 70
0
 10
-11.7107492125
 20
-53.4240667749
 10
-11.7129730512
 20
-53.4900073359
 10
-11.7193850976
 20
-53.5550955624
 10
-11.729985352
 20
-53.6193314543
 10
-11.7448569737
 20
-53.6829793421
 10
-11.7639168034
 20
-53.7457748954
 10
-11.786915362
 20
-53.806925123
 10
-11.8139014803
 20
-53.8664089837
 10
-11.8448263275
 20
-53.9242475187
 10
-11.879293933
 20
-53.9797108611
 10
-11.9173481023
 20
-54.0327690226
 10
-11.9589450297
 20
-54.0834519913
 10
-12.0035573278
 20
-54.1311198648
 10
-12.051222477
 20
-54.1757351714
 10
-12.1019029969
 20
-54.2173353828
 10
-12.1549590584
 20
-54.2553930103
 10
-12.2104206609
 20
-54.2898642547
 10
-12.268257805
 20
-54.3207929152
 10
-12.3277406633
 20
-54.347782902
 10
-12.3888902898
 20
-54.3707853869
 10
-12.4516856305
 20
-54.3898491979
 10
-12.5153336959
 20
-54.4047247293
 10
-12.5795701561
 20
-54.415328779
 10
-12.6446593411
 20
-54.4217445489
 10
-12.7106012508
 20
-54.4239720392
  0
LWPOLYLINE
  5
34B
100
AcDbEntity
  8
IMPORT_IGES
100
AcDbPolyline
 62
7
  6
CONTINUOUS
 90
19
 70
0
 10
-37.5107491895
 20
-13.7345599729
 10
-37.5328413997
 20
-13.735577799
 10
-37.5544328833
 20
-13.7384222123
 10
-37.5755236402
 20
-13.743093213
 10
-37.5962630213
 20
-13.7496548001
 10
-37.6165016757
 20
-13.7580429744
 10
-37.6357915512
 20
-13.7680657384
 10
-37.6541120305
 20
-13.7797583352
 10
-37.671483731
 20
-13.7930855217
 10
-37.6875204524
 20
-13.8077495707
 10
-37.7021932961
 20
-13.823779662
 10
-37.7155311607
 20
-13.8411466159
 10
-37.7272345422
 20
-13.8594651665
 10
-37.7372682127
 20
-13.8787561818
 10
-37.7456674
 20
-13.8989987939
 10
-37.7522382838
 20
-13.9197451324
 10
-37.7569162571
 20
-13.9408459074
 10
-37.7597659268
 20
-13.9624504088
 10
-37.7607872929
 20
-13.9845586367
  0
LWPOLYLINE
  5
34C
100
AcDbEntity
  8
IMPORT_IGES
100
AcDbPolyline
 62
250
  6
CONTINUOUS
 90
11
 70
0
 10
36.6194342164
 20
-31.7064789891
 10
36.6172695338
 20
-31.7053742682
 10
36.610826785
 20
-31.7043494055
 10
36.6001367863
 20
-31.7034087344
 10
36.5852489834
 20
-31.7025562445
 10
36.566230031
 20
-31.7017954932
 10
36.5431623439
 20
-31.7011296166
 10
36.516146622
 20
-31.700561416
 10
36.4853004228
 20
-31.7000932737
 10
36.4507546661
 20
-31.6997271165
 10
36.3711745445
 20
-31.6993064702
  0
LINE
  5
34D
100
AcDbEntity
  8
IMPORT_IGES
100
AcDbLine
 62
250
  6
CONTINUOUS
 10
-23.0671115503
 20
7.0322481797
 11
-23.1021739943
 21
7.0673004973
  0
LINE
  5
34E
100
AcDbEntity
  8
IMPORT_IGES
100
AcDbLine
 62
250
  6
CONTINUOUS
 10
-26.1543868716
 20
13.1198084321
 11
-26.1193244274
 21
13.0847540266
  0
LINE
  5
34F
100
AcDbEntity
  8
IMPORT_IGES
100
AcDbLine
 62
250
  6
CONTINUOUS
 10
-25.1194737911
 20
14.0846031772
 11
-25.1545290452
 21
14.1196656226
  0
LWPOLYLINE
  5
350
100
AcDbEntity
  8
0
100
AcDbPolyline
 62
7
  6
CONTINUOUS
 90
10
 70
0
 43
0.3500000006
 10
25.2409734421
 20
-64.1637514343
 10
25.312402359
 20
-64.3066092682
 10
25.312402359
 20
-64.3780359192
 10
25.1695445251
 20
-64.5208937531
 10
25.0981156082
 20
-64.5208937531
 10
25.0266889572
 20
-64.4494625702
 10
25.0266889572
 20
-64.3780359192
 10
25.0981156082
 20
-64.2351780853
 10
25.1695445251
 20
-64.1637514343
 10
25.2409734421
 20
-64.1637514343
  0
LWPOLYLINE
  5
351
100
AcDbEntity
  8
0
100
AcDbPolyline
 62
7
  6
CONTINUOUS
 90
13
 70
0
 43
0.3500000006
 10
-47.239292038
 20
-1.9239721756
 10
-48.525003479
 20
-1.9239721756
 10
-48.9535769806
 20
-1.7096865578
 10
-49.3821459503
 20
-1.2811141891
 10
-49.3821459503
 20
-1.0668297043
 10
-48.9535769806
 20
-0.6382584686
 10
-48.525003479
 20
-0.4239717178
 10
-47.239292038
 20
-0.4239717178
 10
-46.8107185364
 20
-0.6382584686
 10
-46.3821495667
 20
-1.0668297043
 10
-46.3821495667
 20
-1.2811141891
 10
-46.8107185364
 20
-1.7096865578
 10
-47.239292038
 20
-1.9239721756
  0
LWPOLYLINE
  5
352
100
AcDbEntity
  8
0
100
AcDbPolyline
 62
7
  6
CONTINUOUS
 90
4
 70
0
 43
0.3500000006
 10
-46.8107185364
 20
0.4331707535
 10
-47.6678610077
 20
0.4331707535
 10
-48.0964345093
 20
0.8617419891
 10
-48.0964345093
 20
1.5045999756
  0
LWPOLYLINE
  5
353
100
AcDbEntity
  8
0
100
AcDbPolyline
 62
7
  6
CONTINUOUS
 90
10
 70
0
 43
0.3500000006
 10
41.3071548157
 20
-42.0239730835
 10
41.9500128021
 20
-42.6668310699
 10
42.8071552734
 20
-43.0954023056
 10
43.8785822296
 20
-43.0954023056
 10
44.3071557312
 20
-42.6668310699
 10
44.3071557312
 20
-42.0239730835
 10
43.8785822296
 20
-41.5954018478
 10
43.0214397583
 20
-41.5954018478
 10
42.5928707886
 20
-42.0239730835
 10
42.5928707886
 20
-42.9525444717
  0
LWPOLYLINE
  5
354
100
AcDbEntity
  8
IMPORT_IGES
100
AcDbPolyline
 62
7
  6
CONTINUOUS
 90
78
 70
0
 10
-24.0593971788
 20
4.8323902983
 10
-23.9992100988
 20
4.8326842975
 10
-23.9380623265
 20
4.8349323371
 10
-23.8759539263
 20
4.8391344172
 10
-23.8126915259
 20
4.8452690079
 10
-23.7484686437
 20
4.853357639
 10
-23.6838656695
 20
4.8634648997
 10
-23.6188732554
 20
4.8756309399
 10
-23.5535008777
 20
4.8898156096
 10
-23.4883571252
 20
4.9059630494
 10
-23.4234298689
 20
4.9241196926
 10
-23.3587313227
 20
4.9442391059
 10
-23.2949065362
 20
4.9661261287
 10
-23.2320473286
 20
4.9897822746
 10
-23.1700618914
 20
5.0152060301
 10
-23.1093197801
 20
5.0421976944
 10
-23.0500084982
 20
5.0706660275
 10
-22.9919404912
 20
5.1007022694
 10
-22.9349227133
 20
5.1323804392
 10
-22.8789523939
 20
5.165685898
 10
-22.8240322595
 20
5.2006332847
 10
-22.7699775268
 20
5.2373405349
 10
-22.7165496987
 20
5.2759877585
 10
-22.663987243
 20
5.3163948457
 10
-22.6128208008
 20
5.3581394023
 10
-22.5629349306
 20
5.4014410329
 10
-22.5144449679
 20
5.446080133
 10
-22.468227637
 20
5.4909754948
 10
-22.42445882
 20
5.5361007231
 10
-22.3829624158
 20
5.5814822131
 10
-22.3440871074
 20
5.6261179425
 10
-22.3080594895
 20
5.6697928961
 10
-22.2746527291
 20
5.7127220891
 10
-22.2435353708
 20
5.7545485446
 10
-22.2147738905
 20
5.7951240747
 10
-22.1883016376
 20
5.8345968674
 10
-22.1635875078
 20
5.8730545095
 10
-22.1405738039
 20
5.9105236624
 10
-22.1193181135
 20
5.9469776649
 10
-22.0994622946
 20
5.9824241195
 10
-22.0809889055
 20
6.0168438343
 10
-22.0639153148
 20
6.0502560013
 10
-22.0479356179
 20
6.0827257992
 10
-22.0330241757
 20
6.1142514568
 10
-22.0192065801
 20
6.1448347453
 10
-22.0062537864
 20
6.174546157
 10
-21.9941477945
 20
6.2033849749
 10
-21.9829065736
 20
6.2313519159
 10
-21.9723550424
 20
6.2585196231
 10
-21.9624799061
 20
6.284889094
 10
-21.953294439
 20
6.3104593312
 10
-21.9446634193
 20
6.3352999852
 10
-21.9365766806
 20
6.3594137581
 10
-21.9290443757
 20
6.3827979479
 10
-21.9219617657
 20
6.4055140994
 10
-21.9153203698
 20
6.4275622767
 10
-21.9091286597
 20
6.4489424158
 10
-21.9033073268
 20
6.4697158698
 10
-21.897847876
 20
6.4898827625
 10
-21.8927587962
 20
6.50944297
 10
-21.8879862562
 20
6.5284574736
 10
-21.8835272929
 20
6.546930305
 10
-21.8793848649
 20
6.5648574323
 10
-21.8755140255
 20
6.5822877414
 10
-21.87191299
 20
6.5992249884
 10
-21.86858354
 20
6.615665417
 10
-21.8654860782
 20
6.6316466446
 10
-21.862619507
 20
6.6471685386
 10
-21.8599849219
 20
6.6622312315
 10
-21.8575460158
 20
6.6768727382
 10
-21.8553014452
 20
6.6910939205
 10
-21.8532525522
 20
6.7048939165
 10
-21.8513670582
 20
6.7183081558
 10
-21.8496484895
 20
6.7313378668
 10
-21.848093319
 20
6.7439818212
 10
-21.8466586882
 20
6.7562717636
 10
-21.8453481735
 20
6.7682082158
 10
-21.8430351746
 20
6.7910492643
  0
LINE
  5
355
100
AcDbEntity
  8
IMPORT_IGES
100
AcDbLine
 62
7
  6
CONTINUOUS
 10
-24.0593971788
 20
4.8323902983
 11
-25.1620863142
 21
4.8323954924
  0
LWPOLYLINE
  5
356
100
AcDbEntity
  8
IMPORT_IGES
100
AcDbPolyline
 62
7
  6
CONTINUOUS
 90
7
 70
0
 10
-25.2321413176
 20
4.8334166992
 10
-25.2182468389
 20
4.8332967324
 10
-25.2150177349
 20
4.8332485288
 10
-25.2118835553
 20
4.8331805548
 10
-25.2088448292
 20
4.8330956834
 10
-25.2058987833
 20
4.8329858898
 10
-25.2030485825
 20
4.8328403271
  0
LWPOLYLINE
  5
357
100
AcDbEntity
  8
IMPORT_IGES
100
AcDbPolyline
 62
7
  6
CONTINUOUS
 90
25
 70
0
 10
-25.1194762182
 20
6.0674527448
 10
-25.1849356224
 20
6.0696074044
 10
-25.2500982172
 20
6.0760404428
 10
-25.3146849497
 20
6.0867212284
 10
-25.3784179187
 20
6.1016004935
 10
-25.4410265417
 20
6.1206117829
 10
-25.5022483865
 20
6.1436728508
 10
-25.5618222295
 20
6.1706831442
 10
-25.619493954
 20
6.2015252086
 10
-25.6750218835
 20
6.2360681209
 10
-25.7281689798
 20
6.2741631734
 10
-25.7787087569
 20
6.315646686
 10
-25.8264296064
 20
6.3603443213
 10
-25.8711274973
 20
6.4080650074
 10
-25.9126113401
 20
6.4586047282
 10
-25.9507067781
 20
6.5117518877
 10
-25.9852501107
 20
6.5672800102
 10
-26.0160926084
 20
6.6249520655
 10
-26.0431033252
 20
6.6845263822
 10
-26.066164745
 20
6.745748734
 10
-26.0851763435
 20
6.8083580039
 10
-26.1000559208
 20
6.8720921068
 10
-26.1107369444
 20
6.9366805842
 10
-26.117170022
 20
7.0018454125
 10
-26.1193244288
 20
7.0673075195
  0
LWPOLYLINE
  5
358
100
AcDbEntity
  8
IMPORT_IGES
100
AcDbPolyline
 62
7
  6
CONTINUOUS
 90
6
 70
0
 10
-25.2518936172
 20
4.8339292481
 10
-25.247721514
 20
4.8337736899
 10
-25.2436609498
 20
4.83364715
 10
-25.2397124749
 20
4.8335462632
 10
-25.2358721162
 20
4.8334673791
 10
-25.2321413176
 20
4.8334166992
  0
LINE
  5
359
100
AcDbEntity
  8
IMPORT_IGES
100
AcDbLine
 62
7
  6
CONTINUOUS
 10
-25.2605797136
 20
4.834310879
 11
-25.2518936172
 21
4.8339292481
  0
LINE
  5
35A
100
AcDbEntity
  8
IMPORT_IGES
100
AcDbLine
 62
7
  6
CONTINUOUS
 10
-25.279388237
 20
4.8352801493
 11
-25.2605797136
 21
4.834310879
  0
LINE
  5
35B
100
AcDbEntity
  8
IMPORT_IGES
100
AcDbLine
 62
7
  6
CONTINUOUS
 10
-25.3002904595
 20
4.8364536105
 11
-25.279388237
 21
4.8352801493
  0
LINE
  5
35C
100
AcDbEntity
  8
IMPORT_IGES
100
AcDbLine
 62
7
  6
CONTINUOUS
 10
-25.3116052528
 20
4.8371554419
 11
-25.3002904595
 21
4.8364536105
  0
LINE
  5
35D
100
AcDbEntity
  8
IMPORT_IGES
100
AcDbLine
 62
7
  6
CONTINUOUS
 10
-25.2030485825
 20
4.8328403271
 11
-25.1976139549
 21
4.8324989511
  0
LINE
  5
35E
100
AcDbEntity
  8
IMPORT_IGES
100
AcDbLine
 62
7
  6
CONTINUOUS
 10
-25.3235329438
 20
4.8379576877
 11
-25.3116052528
 21
4.8371554419
  0
LWPOLYLINE
  5
35F
100
AcDbEntity
  8
IMPORT_IGES
100
AcDbPolyline
 62
7
  6
CONTINUOUS
 90
18
 70
0
 10
-25.1976139549
 20
4.8324989511
 10
-25.1924967718
 20
4.8321270737
 10
-25.1900528428
 20
4.8320083546
 10
-25.1876741985
 20
4.8319713072
 10
-25.1853700105
 20
4.8320016826
 10
-25.1831618363
 20
4.8321245633
 10
-25.1810633122
 20
4.8323786569
 10
-25.1790608021
 20
4.8327252558
 10
-25.1771349557
 20
4.833073319
 10
-25.1752947806
 20
4.8334287571
 10
-25.1735312694
 20
4.8337856597
 10
-25.1717980493
 20
4.834035254
 10
-25.1700743217
 20
4.8341659608
 10
-25.1683808852
 20
4.8341893594
 10
-25.1667337639
 20
4.8340314153
 10
-25.1651382989
 20
4.8336674504
 10
-25.163589149
 20
4.8331221427
 10
-25.1620863142
 20
4.8323954924
  0
LINE
  5
360
100
AcDbEntity
  8
IMPORT_IGES
100
AcDbLine
 62
7
  6
CONTINUOUS
 10
-25.3361128715
 20
4.838880313
 11
-25.3235329438
 21
4.8379576877
  0
LINE
  5
361
100
AcDbEntity
  8
IMPORT_IGES
100
AcDbLine
 62
7
  6
CONTINUOUS
 10
-25.3493887573
 20
4.839939314
 11
-25.3361128715
 21
4.838880313
  0
LINE
  5
362
100
AcDbEntity
  8
IMPORT_IGES
100
AcDbLine
 62
7
  6
CONTINUOUS
 10
-25.3633908882
 20
4.8411469572
 11
-25.3493887573
 21
4.839939314
  0
LINE
  5
363
100
AcDbEntity
  8
IMPORT_IGES
100
AcDbLine
 62
7
  6
CONTINUOUS
 10
-25.3781662128
 20
4.8425226446
 11
-25.3633908882
 21
4.8411469572
  0
LINE
  5
364
100
AcDbEntity
  8
IMPORT_IGES
100
AcDbLine
 62
7
  6
CONTINUOUS
 10
-25.3937672322
 20
4.8440900072
 11
-25.3781662128
 21
4.8425226446
  0
LINE
  5
365
100
AcDbEntity
  8
IMPORT_IGES
100
AcDbLine
 62
7
  6
CONTINUOUS
 10
-25.4102303025
 20
4.8458659307
 11
-25.3937672322
 21
4.8440900072
  0
LINE
  5
366
100
AcDbEntity
  8
IMPORT_IGES
100
AcDbLine
 62
7
  6
CONTINUOUS
 10
-25.4276117323
 20
4.8478771566
 11
-25.4102303025
 21
4.8458659307
  0
LWPOLYLINE
  5
367
100
AcDbEntity
  8
IMPORT_IGES
100
AcDbPolyline
 62
7
  6
CONTINUOUS
 90
3
 70
0
 10
-25.4555321917
 20
4.8513998588
 10
-25.4459747976
 20
4.8501560864
 10
-25.4276117323
 20
4.8478771566
  0
LWPOLYLINE
  5
368
100
AcDbEntity
  8
IMPORT_IGES
100
AcDbPolyline
 62
7
  6
CONTINUOUS
 90
25
 70
0
 10
-24.0669703695
 20
6.0323902991
 10
-24.0009532815
 20
6.0346265234
 10
-23.9358072585
 20
6.0410523923
 10
-23.8715323008
 20
6.051667906
 10
-23.8078666843
 20
6.0665586534
 10
-23.7450721329
 20
6.0856390455
 10
-23.6839338184
 20
6.1086523151
 10
-23.6244731498
 20
6.1356452982
 10
-23.566668718
 20
6.1665711587
 10
-23.5112414674
 20
6.2010326218
 10
-23.458220407
 20
6.2390721651
 10
-23.4075765277
 20
6.2806473108
 10
-23.3599437465
 20
6.3252333511
 10
-23.3153585058
 20
6.3728667158
 10
-23.2737843632
 20
6.4235109751
 10
-23.2357459072
 20
6.4765321309
 10
-23.2012856237
 20
6.5319591762
 10
-23.170361027
 20
6.589763118
 10
-23.1433692481
 20
6.64922298
 10
-23.1203571257
 20
6.7103601531
 10
-23.1012778212
 20
6.7731532463
 10
-23.0863879499
 20
6.8368171105
 10
-23.0757730503
 20
6.9010900293
 10
-23.0693475839
 20
6.966233719
 10
-23.0671115508
 20
7.0322481797
  0
LINE
  5
369
100
AcDbEntity
  8
IMPORT_IGES
100
AcDbLine
 62
7
  6
CONTINUOUS
 10
-27.3925400775
 20
7.0322384954
 11
-26.3543554712
 21
7.032394471
  0
LINE
  5
36A
100
AcDbEntity
  8
IMPORT_IGES
100
AcDbLine
 62
7
  6
CONTINUOUS
 10
-24.0671159156
 20
5.8324326109
 11
-25.154382352
 21
5.8324326109
  0
LINE
  5
36B
100
AcDbEntity
  8
IMPORT_IGES
100
AcDbLine
 62
7
  6
CONTINUOUS
 10
-25.154531159
 20
6.0323902994
 11
-24.0669703695
 21
6.0323902991
  0
LINE
  5
36C
100
AcDbEntity
  8
IMPORT_IGES
100
AcDbLine
 62
7
  6
CONTINUOUS
 10
-24.1020256724
 20
6.0674527429
 11
-25.1194762185
 21
6.0674527442
  0
LINE
  5
36D
100
AcDbEntity
  8
IMPORT_IGES
100
AcDbLine
 62
250
  6
CONTINUOUS
 10
-24.1019247039
 20
6.5673760291
 11
-25.1195160181
 21
6.5673758294
  0
LINE
  5
36E
100
AcDbEntity
  8
IMPORT_IGES
100
AcDbLine
 62
250
  6
CONTINUOUS
 10
-23.6020978364
 20
7.0672882483
 11
-23.1021739939
 21
7.0673008698
  0
LINE
  5
36F
100
AcDbEntity
  8
IMPORT_IGES
100
AcDbLine
 62
7
  6
CONTINUOUS
 10
-21.8289603037
 20
7.0322713208
 11
-22.8671475014
 21
7.0323202302
  0
LINE
  5
370
100
AcDbEntity
  8
IMPORT_IGES
100
AcDbLine
 62
250
  6
CONTINUOUS
 10
-25.6194015176
 20
7.0672637372
 11
-26.1192275661
 21
7.0673011381
  0
LWPOLYLINE
  5
371
100
AcDbEntity
  8
IMPORT_IGES
100
AcDbPolyline
 62
7
  6
CONTINUOUS
 90
22
 70
0
 10
-25.1195160181
 20
6.5673758294
 10
-25.1539783162
 20
6.5684176191
 10
-25.1886632758
 20
6.5723987841
 10
-25.223570897
 20
6.5793193244
 10
-25.2591562573
 20
6.5893172076
 10
-25.2949642791
 20
6.602254466
 10
-25.3296297301
 20
6.6177171975
 10
-25.3629135058
 20
6.6357509308
 10
-25.3950547107
 20
6.656310137
 10
-25.4254054257
 20
6.6788443267
 10
-25.4538025866
 20
6.7031977372
 10
-25.4804092575
 20
6.7295261311
 10
-25.5050667124
 20
6.7577463067
 10
-25.5278988297
 20
6.7880282416
 10
-25.548781731
 20
6.8202019581
 10
-25.5671850546
 20
6.8536743217
 10
-25.5831198516
 20
6.8887413274
 10
-25.596575071
 20
6.9251069802
 10
-25.6069871978
 20
6.9612901596
 10
-25.6141683937
 20
6.9967971588
 10
-25.618306497
 20
7.0321216847
 10
-25.6194015078
 20
7.0672637372
  0
LWPOLYLINE
  5
372
100
AcDbEntity
  8
0
100
AcDbPolyline
 62
7
  6
CONTINUOUS
 90
10
 70
0
 43
0.3500000006
 10
-23.753605545
 20
64.6265806274
 10
-23.682178894
 20
64.4837273254
 10
-23.682178894
 20
64.4122961426
 10
-23.825034462
 20
64.2694428406
 10
-23.8964633789
 20
64.2694428406
 10
-23.9678922958
 20
64.3408649597
 10
-23.9678922958
 20
64.4122961426
 10
-23.8964633789
 20
64.5551494446
 10
-23.825034462
 20
64.6265806274
 10
-23.753605545
 20
64.6265806274
  0
LINE
  5
373
100
AcDbEntity
  8
IMPORT_IGES
100
AcDbLine
 62
7
  6
CONTINUOUS
 10
11.2910821729
 20
-31.7064868278
 11
10.8946716678
 21
-54.4168294517
  0
LINE
  5
374
100
AcDbEntity
  8
IMPORT_IGES
100
AcDbLine
 62
250
  6
CONTINUOUS
 10
12.2909321011
 20
-31.7065327243
 11
11.8945356542
 21
-54.4168295495
  0
LINE
  5
375
100
AcDbEntity
  8
IMPORT_IGES
100
AcDbLine
 62
250
  6
CONTINUOUS
 10
-37.2749250517
 20
-53.1881399007
 11
-37.5107492107
 21
-53.4241200285
  0
LINE
  5
376
100
AcDbEntity
  8
IMPORT_IGES
100
AcDbLine
 62
250
  6
CONTINUOUS
 10
-36.5108971704
 20
-54.4239720392
 11
-36.2750701816
 21
-54.1881475844
  0
LINE
  5
377
100
AcDbEntity
  8
IMPORT_IGES
100
AcDbLine
 62
7
  6
CONTINUOUS
 10
-21.8289586075
 20
13.1198255485
 11
-22.8671431417
 21
13.1196614503
  0
LINE
  5
378
100
AcDbEntity
  8
IMPORT_IGES
100
AcDbLine
 62
250
  6
CONTINUOUS
 10
-25.619400585
 20
13.0847679156
 11
-26.1193244273
 21
13.0847526389
  0
LINE
  5
379
100
AcDbEntity
  8
IMPORT_IGES
100
AcDbLine
 62
250
  6
CONTINUOUS
 10
-25.1195138878
 20
13.5846802526
 11
-24.1019828131
 21
13.5846802526
  0
LINE
  5
37A
100
AcDbEntity
  8
IMPORT_IGES
100
AcDbLine
 62
250
  6
CONTINUOUS
 10
-25.1194737911
 20
14.0846031772
 11
-24.1020236743
 21
14.0846031769
  0
LINE
  5
37B
100
AcDbEntity
  8
IMPORT_IGES
100
AcDbLine
 62
7
  6
CONTINUOUS
 10
-24.0669690649
 20
14.1196656207
 11
-25.1545290452
 21
14.1196656216
  0
LINE
  5
37C
100
AcDbEntity
  8
IMPORT_IGES
100
AcDbLine
 62
7
  6
CONTINUOUS
 10
-25.1543825072
 20
14.3196236903
 11
-24.0671185167
 21
14.3196236903
  0
LINE
  5
37D
100
AcDbEntity
  8
IMPORT_IGES
100
AcDbLine
 62
7
  6
CONTINUOUS
 10
-27.3925414637
 20
13.1197820688
 11
-26.3543587789
 21
13.119733602
  0
LWPOLYLINE
  5
37E
100
AcDbEntity
  8
IMPORT_IGES
100
AcDbPolyline
 62
250
  6
CONTINUOUS
 90
5
 70
0
 10
-23.1021739939
 20
13.0847525426
 10
-23.5960102748
 20
13.0847669145
 10
-23.5980464332
 20
13.0847856673
 10
-23.6000753863
 20
13.084813644
 10
-23.6020971002
 20
13.0848508448
  0
LWPOLYLINE
  5
37F
100
AcDbEntity
  8
IMPORT_IGES
100
AcDbPolyline
 62
7
  6
CONTINUOUS
 90
22
 70
0
 10
-24.1019828131
 20
13.5846802526
 10
-24.0675050813
 20
13.583636277
 10
-24.0328072854
 20
13.5796520233
 10
-23.9978894253
 20
13.5727274916
 10
-23.9622962564
 20
13.5627240256
 10
-23.9264830233
 20
13.5497802816
 10
-23.8918154602
 20
13.5343122285
 10
-23.8585335623
 20
13.5162747407
 10
-23.8263973344
 20
13.4957129438
 10
-23.7960525252
 20
13.473178183
 10
-23.7676620155
 20
13.4488272883
 10
-23.7410629244
 20
13.4225034297
 10
-23.7164123591
 20
13.3942874625
 10
-23.6935860863
 20
13.3640081338
 10
-23.6727083392
 20
13.3318366966
 10
-23.6543089241
 20
13.2983677646
 10
-23.6383762846
 20
13.2633049187
 10
-23.624921977
 20
13.2269445781
 10
-23.6145104768
 20
13.1907706134
 10
-23.6073299426
 20
13.155277648
 10
-23.6031922158
 20
13.1199710585
 10
-23.6020972964
 20
13.0848508448
  0
LWPOLYLINE
  5
380
100
AcDbEntity
  8
IMPORT_IGES
100
AcDbPolyline
 62
7
  6
CONTINUOUS
 90
25
 70
0
 10
-24.1020236745
 20
14.0846031766
 10
-24.0365642907
 20
14.0824486147
 10
-23.971401702
 20
14.0760156757
 10
-23.9068149609
 20
14.0653349891
 10
-23.8430819694
 20
14.0504558207
 10
-23.78047331
 20
14.0314446237
 10
-23.7192514154
 20
14.0083836421
 10
-23.6596775104
 20
13.981373427
 10
-23.6020057126
 20
13.9505314312
 10
-23.5464776996
 20
13.9159885762
 10
-23.493330509
 20
13.8778935664
 10
-23.4427906308
 20
13.8364100823
 10
-23.395069682
 20
13.7917124665
 10
-23.3503716942
 20
13.7439917916
 10
-23.3088877574
 20
13.6934520739
 10
-23.2707922341
 20
13.6403049176
 10
-23.2362488253
 20
13.5847768026
 10
-23.2054062576
 20
13.5271047578
 10
-23.1783954753
 20
13.4675304556
 10
-23.1553340021
 20
13.4063081486
 10
-23.1363223484
 20
13.3436989298
 10
-23.1214426968
 20
13.279964806
 10
-23.1107615902
 20
13.2153762062
 10
-23.1043284419
 20
13.1502111792
 10
-23.1021739909
 20
13.0847487986
  0
LINE
  5
381
100
AcDbEntity
  8
IMPORT_IGES
100
AcDbLine
 62
7
  6
CONTINUOUS
 10
-23.9697145382
 20
15.3180070328
 11
-23.9546442367
 21
15.3173650364
  0
LINE
  5
382
100
AcDbEntity
  8
IMPORT_IGES
100
AcDbLine
 62
7
  6
CONTINUOUS
 10
-23.9546442367
 20
15.3173650364
 11
-23.9422180194
 21
15.316768736
  0
LINE
  5
383
100
AcDbEntity
  8
IMPORT_IGES
100
AcDbLine
 62
7
  6
CONTINUOUS
 10
-23.9422180194
 20
15.316768736
 11
-23.9287754975
 21
15.3160502634
  0
LINE
  5
384
100
AcDbEntity
  8
IMPORT_IGES
100
AcDbLine
 62
7
  6
CONTINUOUS
 10
-23.9287754975
 20
15.3160502634
 11
-23.9142338972
 21
15.3151805255
  0
LINE
  5
385
100
AcDbEntity
  8
IMPORT_IGES
100
AcDbLine
 62
7
  6
CONTINUOUS
 10
-23.9142338972
 20
15.3151805255
 11
-23.903874184
 21
15.3144981431
  0
LINE
  5
386
100
AcDbEntity
  8
IMPORT_IGES
100
AcDbLine
 62
7
  6
CONTINUOUS
 10
-23.903874184
 20
15.3144981431
 11
-23.8929515858
 21
15.3137230131
  0
LINE
  5
387
100
AcDbEntity
  8
IMPORT_IGES
100
AcDbLine
 62
7
  6
CONTINUOUS
 10
-23.8929515858
 20
15.3137230131
 11
-23.8814324035
 21
15.3128434658
  0
LINE
  5
388
100
AcDbEntity
  8
IMPORT_IGES
100
AcDbLine
 62
7
  6
CONTINUOUS
 10
-23.8814324035
 20
15.3128434658
 11
-23.8692829062
 21
15.3118463177
  0
LINE
  5
389
100
AcDbEntity
  8
IMPORT_IGES
100
AcDbLine
 62
7
  6
CONTINUOUS
 10
-23.8692829062
 20
15.3118463177
 11
-23.8564779971
 21
15.3107220311
  0
LINE
  5
38A
100
AcDbEntity
  8
IMPORT_IGES
100
AcDbLine
 62
7
  6
CONTINUOUS
 10
-23.8564779971
 20
15.3107220311
 11
-23.8429796746
 21
15.3094558604
  0
LINE
  5
38B
100
AcDbEntity
  8
IMPORT_IGES
100
AcDbLine
 62
7
  6
CONTINUOUS
 10
-23.8429796746
 20
15.3094558604
 11
-23.828725984
 21
15.3080275858
  0
LINE
  5
38C
100
AcDbEntity
  8
IMPORT_IGES
100
AcDbLine
 62
7
  6
CONTINUOUS
 10
-23.828725984
 20
15.3080275858
 11
-23.8136815896
 21
15.3064227536
  0
LINE
  5
38D
100
AcDbEntity
  8
IMPORT_IGES
100
AcDbLine
 62
7
  6
CONTINUOUS
 10
-23.8136815896
 20
15.3064227536
 11
-23.7978000358
 21
15.304618403
  0
LINE
  5
38E
100
AcDbEntity
  8
IMPORT_IGES
100
AcDbLine
 62
7
  6
CONTINUOUS
 10
-23.7978000358
 20
15.304618403
 11
-23.7810267005
 21
15.3025853282
  0
LINE
  5
38F
100
AcDbEntity
  8
IMPORT_IGES
100
AcDbLine
 62
7
  6
CONTINUOUS
 10
-23.7810267005
 20
15.3025853282
 11
-23.763322622
 21
15.3003024072
  0
LWPOLYLINE
  5
390
100
AcDbEntity
  8
IMPORT_IGES
100
AcDbPolyline
 62
7
  6
CONTINUOUS
 90
3
 70
0
 10
-23.763322622
 20
15.3003024072
 10
-23.7446256034
 20
15.2977357005
 10
-23.734881395
 20
15.296331854
  0
LWPOLYLINE
  5
391
100
AcDbEntity
  8
IMPORT_IGES
100
AcDbPolyline
 62
7
  6
CONTINUOUS
 90
81
 70
0
 10
-23.734881395
 20
15.296331854
 10
-23.7145802544
 20
15.293271345
 10
-23.7039974301
 20
15.2915976391
 10
-23.6931188924
 20
15.2898239825
 10
-23.6819438113
 20
15.2879493003
 10
-23.6704445588
 20
15.285954193
 10
-23.6586220631
 20
15.2838399749
 10
-23.6464754006
 20
15.2816053317
 10
-23.6339741665
 20
15.2792269224
 10
-23.6211193841
 20
15.2767063773
 10
-23.6079100358
 20
15.2740420659
 10
-23.5943126562
 20
15.2712057558
 10
-23.5803283499
 20
15.2681994519
 10
-23.5659560194
 20
15.2650211493
 10
-23.5511588965
 20
15.2616365997
 10
-23.5359381678
 20
15.2580482659
 10
-23.5202926556
 20
15.2542536852
 10
-23.5041820465
 20
15.250211222
 10
-23.4876075601
 20
15.2459239211
 10
-23.4705679879
 20
15.2413887375
 10
-23.4530193758
 20
15.2365549006
 10
-23.4349632113
 20
15.2314262969
 10
-23.4163980208
 20
15.2259990399
 10
-23.3972754104
 20
15.2202106983
 10
-23.3775960288
 20
15.2140658961
 10
-23.3573592448
 20
15.2075600095
 10
-23.3365147467
 20
15.2006167358
 10
-23.3150653885
 20
15.193242862
 10
-23.2930083382
 20
15.1854316012
 10
-23.2702847584
 20
15.1770862907
 10
-23.2468983654
 20
15.1682163615
 10
-23.2228454707
 20
15.1588123826
 10
-23.1980561328
 20
15.1487493977
 10
-23.1725311238
 20
15.1380388381
 10
-23.1462697073
 20
15.1266692724
 10
-23.1191996826
 20
15.1144814507
 10
-23.0913159041
 20
15.1014878478
 10
-23.0626235627
 20
15.0876759889
 10
-23.0330659676
 20
15.0728491991
 10
-23.0026426289
 20
15.0570272125
 10
-22.9713540928
 20
15.0401902951
 10
-22.939145228
 20
15.0220825698
 10
-22.9060097757
 20
15.0027251029
 10
-22.8719540647
 20
14.9820968282
 10
-22.8369418513
 20
14.9598786702
 10
-22.8009678066
 20
14.9361034287
 10
-22.7640373444
 20
14.9107383038
 10
-22.7261303396
 20
14.8833658202
 10
-22.687210666
 20
14.8540095044
 10
-22.6473145521
 20
14.8226458297
 10
-22.6065304061
 20
14.7887867408
 10
-22.5646719159
 20
14.7522926001
 10
-22.5219255092
 20
14.713303045
 10
-22.4789386705
 20
14.6717489329
 10
-22.4355011921
 20
14.627309338
 10
-22.3918233445
 20
14.580305186
 10
-22.3491832301
 20
14.531630112
 10
-22.3077560445
 20
14.4812920461
 10
-22.2673665025
 20
14.4292830582
 10
-22.2287668752
 20
14.3764729929
 10
-22.1922558765
 20
14.3232219468
 10
-22.1575346218
 20
14.2691698234
 10
-22.1244589539
 20
14.2141061773
 10
-22.0929947575
 20
14.1579963221
 10
-22.0631760124
 20
14.1008749442
 10
-22.0349607157
 20
14.0426356573
 10
-22.0082757452
 20
13.9831187606
 10
-21.9831941047
 20
13.9224839549
 10
-21.9598929788
 20
13.8611039572
 10
-21.9383792239
 20
13.798914592
 10
-21.9186458684
 20
13.7359800348
 10
-21.9008493493
 20
13.6728655289
 10
-21.8850256847
 20
13.6095603182
 10
-21.8711387581
 20
13.5460751587
 10
-21.8592368059
 20
13.4830075628
 10
-21.8493598193
 20
13.4203618972
 10
-21.84146774
 20
13.3581337951
 10
-21.8354887394
 20
13.2969076681
 10
-21.8313988652
 20
13.2368783198
 10
-21.8292220396
 20
13.1778509466
 10
-21.8289582563
 20
13.1198255485
  0
LINE
  5
392
100
AcDbEntity
  8
IMPORT_IGES
100
AcDbLine
 62
250
  6
CONTINUOUS
 10
-36.275067129
 20
53.3402063458
 11
-36.5108980341
 21
53.5760279604
  0
LINE
  5
393
100
AcDbEntity
  8
IMPORT_IGES
100
AcDbLine
 62
250
  6
CONTINUOUS
 10
-37.5107492121
 20
52.5761235726
 11
-37.2749250517
 21
52.3400873677
  0
LWPOLYLINE
  5
394
100
AcDbEntity
  8
IMPORT_IGES
100
AcDbPolyline
 62
250
  6
CONTINUOUS
 90
3
 70
0
 10
14.0575581509
 20
-28.6002318491
 10
14.0565601706
 20
-28.5940232397
 10
14.0561321371
 20
-28.5919584777
  0
LINE
  5
395
100
AcDbEntity
  8
IMPORT_IGES
100
AcDbLine
 62
250
  6
CONTINUOUS
 10
14.0612449922
 20
-28.6249548835
 11
14.0575581509
 21
-28.6002318491
  0
LINE
  5
396
100
AcDbEntity
  8
IMPORT_IGES
100
AcDbLine
 62
250
  6
CONTINUOUS
 10
14.0798174701
 20
-28.755275937
 11
14.0612449922
 21
-28.6249548835
  0
LINE
  5
397
100
AcDbEntity
  8
IMPORT_IGES
100
AcDbLine
 62
250
  6
CONTINUOUS
 10
14.1918138803
 20
-29.5652552112
 11
14.0798174701
 21
-28.755275937
  0
LWPOLYLINE
  5
398
100
AcDbEntity
  8
IMPORT_IGES
100
AcDbPolyline
 62
250
  6
CONTINUOUS
 90
25
 70
0
 10
12.2909321011
 20
-31.7065327243
 10
12.2971725281
 20
-31.5758626171
 10
12.3109223255
 20
-31.4467129367
 10
12.3321814933
 20
-31.3190836829
 10
12.3610825745
 20
-31.1925435888
 10
12.3974930261
 20
-31.0675239214
 10
12.4410152197
 20
-30.9453184822
 10
12.4917183048
 20
-30.8259631703
 10
12.549533132
 20
-30.7094220866
 10
12.6138546235
 20
-30.5968813356
 10
12.6847465681
 20
-30.4883805718
 10
12.7621451771
 20
-30.3838801408
 10
12.8452540064
 20
-30.2844471835
 10
12.9341293397
 20
-30.1901316612
 10
13.0287148932
 20
-30.1008836128
 10
13.1280453718
 20
-30.0176202955
 10
13.2321677103
 20
-29.9404003404
 10
13.3410349739
 20
-29.8691651166
 10
13.4535410621
 20
-29.8046559882
 10
13.569723496
 20
-29.7469380417
 10
13.6895447546
 20
-29.6959461907
 10
13.8117861746
 20
-29.6522265406
 10
13.936041535
 20
-29.6159611264
 10
14.0627170569
 20
-29.5869679131
 10
14.1918127403
 20
-29.5652469006
  0
LWPOLYLINE
  5
399
100
AcDbEntity
  8
IMPORT_IGES
100
AcDbPolyline
 62
7
  6
CONTINUOUS
 90
9
 70
0
 10
-24.0591297444
 20
15.3196590343
 10
-24.0575463904
 20
15.3197726193
 10
-24.0559304021
 20
15.3198562292
 10
-24.0542817794
 20
15.319909864
 10
-24.0525954416
 20
15.3199288155
 10
-24.0508764695
 20
15.3199177918
 10
-24.0491401056
 20
15.3198909182
 10
-24.0473871754
 20
15.3198474916
 10
-24.0402799743
 20
15.319617757
  0
LWPOLYLINE
  5
39A
100
AcDbEntity
  8
IMPORT_IGES
100
AcDbPolyline
 62
7
  6
CONTINUOUS
 90
34
 70
0
 10
-37.5107492113
 20
13.3866109821
 10
-37.5348707213
 20
13.3853957459
 10
-37.5583579531
 20
13.3820196071
 10
-37.5812109069
 20
13.3764825658
 10
-37.6036332252
 20
13.3686851938
 10
-37.6254212654
 20
13.3587269191
 10
-37.6459640995
 20
13.3469060267
 10
-37.665204658
 20
13.3331864232
 10
-37.6832000103
 20
13.3176042019
 10
-37.6995104364
 20
13.3005659269
 10
-37.7140999498
 20
13.2820429665
 10
-37.7270045369
 20
13.2620639524
 10
-37.7378924377
 20
13.2411213439
 10
-37.7467198001
 20
13.21915838
 10
-37.7535304762
 20
13.1962318217
 10
-37.7581242614
 20
13.1730044119
 10
-37.7604341646
 20
13.1495000609
 10
-37.760527177
 20
13.1256948584
 10
-37.7584040672
 20
13.1021798161
 10
-37.7540097228
 20
13.0789449747
 10
-37.7473992563
 20
13.0560002935
 10
-37.7387387738
 20
13.0339666621
 10
-37.7279825816
 20
13.0128764043
 10
-37.7151763732
 20
12.9926971963
 10
-37.7006233361
 20
12.9739529561
 10
-37.6842679451
 20
12.9566646574
 10
-37.6661657253
 20
12.9408113264
 10
-37.6467864386
 20
12.9268539598
 10
-37.6260601036
 20
12.9148437103
 10
-37.6040567017
 20
12.9047294251
 10
-37.5814559386
 20
12.8968186427
 10
-37.5584843829
 20
12.8912138758
 10
-37.534915466
 20
12.8878126117
 10
-37.5107491878
 20
12.8866148503
  0
LWPOLYLINE
  5
39B
100
AcDbEntity
  8
IMPORT_IGES
100
AcDbPolyline
 62
7
  6
CONTINUOUS
 90
25
 70
0
 10
-25.1545290452
 20
14.1196656216
 10
-25.2205460684
 20
14.1174293638
 10
-25.2856920259
 20
14.1110034678
 10
-25.3499669175
 20
14.1003879337
 10
-25.4136324667
 20
14.0854971724
 10
-25.4764269502
 20
14.0664167729
 10
-25.5375651979
 20
14.0434035023
 10
-25.5970258007
 20
14.0164105248
 10
-25.6548301677
 20
13.9854846762
 10
-25.7102573563
 20
13.9510232309
 10
-25.7632783572
 20
13.9129837113
 10
-25.8139221797
 20
13.871408595
 10
-25.8615549081
 20
13.8268225891
 10
-25.9061401
 20
13.7791892637
 10
-25.9477141978
 20
13.7285450487
 10
-25.9857526141
 20
13.6755239408
 10
-26.0202128631
 20
13.6200969472
 10
-26.0511374304
 20
13.5622930608
 10
-26.0781291858
 20
13.5028332564
 10
-26.1011412907
 20
13.4416961432
 10
-26.1202205836
 20
13.3789031121
 10
-26.1351104495
 20
13.3152393107
 10
-26.1457253503
 20
13.2509664549
 10
-26.1521508242
 20
13.1858228286
 10
-26.1543868711
 20
13.1198084321
  0
LINE
  5
39C
100
AcDbEntity
  8
IMPORT_IGES
100
AcDbLine
 62
7
  6
CONTINUOUS
 10
-25.162101243
 20
15.3196656229
 11
-24.0591297444
 21
15.3196590343
  0
LINE
  5
39D
100
AcDbEntity
  8
IMPORT_IGES
100
AcDbLine
 62
7
  6
CONTINUOUS
 10
-24.0332106115
 20
15.3194941287
 11
-24.0220539853
 21
15.3194398038
  0
LINE
  5
39E
100
AcDbEntity
  8
IMPORT_IGES
100
AcDbLine
 62
7
  6
CONTINUOUS
 10
-24.0220539853
 20
15.3194398038
 11
-24.0178338678
 21
15.3194012635
  0
LINE
  5
39F
100
AcDbEntity
  8
IMPORT_IGES
100
AcDbLine
 62
7
  6
CONTINUOUS
 10
-24.0178338678
 20
15.3194012635
 11
-24.0133204799
 21
15.3193388101
  0
LINE
  5
3A0
100
AcDbEntity
  8
IMPORT_IGES
100
AcDbLine
 62
7
  6
CONTINUOUS
 10
-24.0133204799
 20
15.3193388101
 11
-24.0085111057
 21
15.3192502285
  0
LINE
  5
3A1
100
AcDbEntity
  8
IMPORT_IGES
100
AcDbLine
 62
7
  6
CONTINUOUS
 10
-24.0085111057
 20
15.3192502285
 11
-24.0007433913
 21
15.3190656831
  0
LWPOLYLINE
  5
3A2
100
AcDbEntity
  8
IMPORT_IGES
100
AcDbPolyline
 62
7
  6
CONTINUOUS
 90
4
 70
0
 10
-24.0402799743
 20
15.319617757
 10
-24.0385020707
 20
15.3195711771
 10
-24.0367370956
 20
15.3195377209
 10
-24.0332106115
 20
15.3194941287
  0
LINE
  5
3A3
100
AcDbEntity
  8
IMPORT_IGES
100
AcDbLine
 62
7
  6
CONTINUOUS
 10
-24.0007433913
 20
15.3190656831
 11
-23.9923063905
 21
15.3188185495
  0
LINE
  5
3A4
100
AcDbEntity
  8
IMPORT_IGES
100
AcDbLine
 62
7
  6
CONTINUOUS
 10
-23.9923063905
 20
15.3188185495
 11
-23.9799471288
 21
15.3183965598
  0
LINE
  5
3A5
100
AcDbEntity
  8
IMPORT_IGES
100
AcDbLine
 62
7
  6
CONTINUOUS
 10
-23.9799471288
 20
15.3183965598
 11
-23.9697145382
 21
15.3180070328
  0
LINE
  5
3A6
100
AcDbEntity
  8
IMPORT_IGES
100
AcDbLine
 62
250
  6
CONTINUOUS
 10
35.6195832597
 20
-31.7064974649
 11
36.0159808719
 21
-54.4168295495
  0
LINE
  5
3A7
100
AcDbEntity
  8
IMPORT_IGES
100
AcDbLine
 62
7
  6
CONTINUOUS
 10
37.0158448582
 20
-54.4168294517
 11
36.6194343519
 21
-31.7064867554
  0
LINE
  5
3A8
100
AcDbEntity
  8
IMPORT_IGES
100
AcDbLine
 62
250
  6
CONTINUOUS
 10
33.8360515196
 20
-28.7172467896
 11
33.7186163617
 21
-29.5652433511
  0
LINE
  5
3A9
100
AcDbEntity
  8
IMPORT_IGES
100
AcDbLine
 62
250
  6
CONTINUOUS
 10
33.8493310105
 20
-28.624406213
 11
33.8360515196
 21
-28.7172467896
  0
LWPOLYLINE
  5
3AA
100
AcDbEntity
  8
IMPORT_IGES
100
AcDbPolyline
 62
250
  6
CONTINUOUS
 90
4
 70
0
 10
33.8543901761
 20
-28.5919592353
 10
33.8539513087
 20
-28.5940181315
 10
33.85295309
 20
-28.6001727472
 10
33.8493310105
 20
-28.624406213
  0
LWPOLYLINE
  5
3AB
100
AcDbEntity
  8
IMPORT_IGES
100
AcDbPolyline
 62
250
  6
CONTINUOUS
 90
9
 70
0
 10
-36.2750701816
 20
-54.1881475844
 10
-36.2688165379
 20
-54.1858657977
 10
-36.2550547069
 20
-54.183610818
 10
-36.2337846888
 20
-54.1813826453
 10
-36.2048741107
 20
-54.1791738388
 10
-36.1684553454
 20
-54.1769918394
 10
-36.1249255116
 20
-54.174858969
 10
-36.0742152772
 20
-54.1727757681
 10
-36.0163939744
 20
-54.1707416962
  0
LWPOLYLINE
  5
3AC
100
AcDbEntity
  8
IMPORT_IGES
100
AcDbPolyline
 62
7
  6
CONTINUOUS
 90
9
 70
0
 10
-37.2749250517
 20
52.3400873677
 10
-37.2681767985
 20
52.3382276857
 10
-37.2535125819
 20
52.3363765658
 10
-37.2309718941
 20
52.3345340079
 10
-37.2006141514
 20
52.3326965907
 10
-37.1625174379
 20
52.3308677356
 10
-37.1167773302
 20
52.3290577069
 10
-37.0635093748
 20
52.3272655796
 10
-36.93494109
 20
52.3237508432
  0
LWPOLYLINE
  5
3AD
100
AcDbEntity
  8
0
100
AcDbPolyline
 62
7
  6
CONTINUOUS
 90
13
 70
0
 43
0.3500000006
 10
-22.2536073532
 20
65.8408654175
 10
-22.539320755
 20
66.0551499023
 10
-22.539320755
 20
66.6980124207
 10
-22.2536073532
 20
67.1265813904
 10
-21.6107493668
 20
67.1265813904
 10
-21.325035965
 20
66.6980124207
 10
-21.325035965
 20
66.0551499023
 10
-21.6107493668
 20
65.8408654175
 10
-21.1821781311
 20
65.4122964478
 10
-21.1821781311
 20
64.5551494446
 10
-21.6107493668
 20
64.1265804749
 10
-22.2536073532
 20
64.1265804749
 10
-22.6821785889
 20
64.5551494446
  0
LWPOLYLINE
  5
3AE
100
AcDbEntity
  8
0
100
AcDbPolyline
 62
7
  6
CONTINUOUS
 90
8
 70
0
 43
0.3500000006
 10
44.3071557312
 20
-39.0239733009
 10
44.3071557312
 20
-38.1668308296
 10
43.8785822296
 20
-37.738259594
 10
43.0214397583
 20
-37.738259594
 10
42.5928707886
 20
-38.1668308296
 10
42.5928707886
 20
-39.0239733009
 10
41.3071548157
 20
-39.0239733009
 10
41.3071548157
 20
-37.738259594
  0
LWPOLYLINE
  5
3AF
100
AcDbEntity
  8
0
100
AcDbPolyline
 62
7
  6
CONTINUOUS
 90
7
 70
0
 43
0.3500000006
 10
44.3071557312
 20
-43.9525447769
 10
44.3071557312
 20
-45.4525452347
 10
42.164297287
 20
-43.9525447769
 10
41.7357283173
 20
-43.9525447769
 10
41.3071548157
 20
-44.3811160126
 10
41.3071548157
 20
-45.023973999
 10
41.9500128021
 20
-45.4525452347
  0
LWPOLYLINE
  5
3B0
100
AcDbEntity
  8
IMPORT_IGES
100
AcDbPolyline
 62
7
  6
CONTINUOUS
 90
25
 70
0
 10
-14.8473942154
 20
53.3028285412
 10
-14.8385969575
 20
53.2996004829
 10
-14.8298351044
 20
53.2921757198
 10
-14.8211455395
 20
53.2805885021
 10
-14.8125637323
 20
53.2648910043
 10
-14.8041267242
 20
53.2451519362
 10
-14.79587303
 20
53.2214552194
 10
-14.7878384896
 20
53.1939023987
 10
-14.7800554806
 20
53.1626110992
 10
-14.7725560222
 20
53.127711713
 10
-14.7653715429
 20
53.0893518315
 10
-14.7585320959
 20
53.04769332
 10
-14.7520657939
 20
53.0029079369
 10
-14.7459997749
 20
52.9551837078
 10
-14.7403594974
 20
52.9047210155
 10
-14.7351682459
 20
52.8517271137
 10
-14.7304479183
 20
52.7964237912
 10
-14.726218465
 20
52.7390428918
 10
-14.7224975346
 20
52.6798202732
 10
-14.7193010116
 20
52.6190040288
 10
-14.7166425789
 20
52.5568490348
 10
-14.7145335541
 20
52.4936109018
 10
-14.7129831839
 20
52.4295532529
 10
-14.7119984536
 20
52.3649469385
 10
-14.7115839196
 20
52.3000637544
  0
LWPOLYLINE
  5
3B1
100
AcDbEntity
  8
0
100
AcDbPolyline
 62
7
  6
CONTINUOUS
 90
3
 70
0
 43
0.3500000006
 10
25.312402359
 20
-64.3780359192
 10
25.2409734421
 20
-64.5923204041
 10
25.0981156082
 20
-64.8780360718
  0
LWPOLYLINE
  5
3B2
100
AcDbEntity
  8
IMPORT_IGES
100
AcDbPolyline
 62
7
  6
CONTINUOUS
 90
25
 70
0
 10
-14.8473866718
 20
-54.1507631472
 10
-14.8385567014
 20
-54.1475207746
 10
-14.8297657554
 20
-54.1400596957
 10
-14.8210509583
 20
-54.1284146227
 10
-14.8124490483
 20
-54.1126384254
 10
-14.8039962441
 20
-54.092800604
 10
-14.795728204
 20
-54.0689858356
 10
-14.7876800185
 20
-54.0412966301
 10
-14.7798853231
 20
-54.0098518698
 10
-14.7723763259
 20
-53.9747832548
 10
-14.7651846654
 20
-53.9362398499
 10
-14.7583405928
 20
-53.8943851485
 10
-14.7518723696
 20
-53.8493926343
 10
-14.7458072915
 20
-53.8014521938
 10
-14.7401709529
 20
-53.7507661598
 10
-14.7349867248
 20
-53.6975437866
 10
-14.7302765978
 20
-53.6420089836
 10
-14.7260605913
 20
-53.5843957734
 10
-14.7223563725
 20
-53.5249421891
 10
-14.7191798469
 20
-53.4638985891
 10
-14.7165446936
 20
-53.4015221357
 10
-14.7144621773
 20
-53.3380706751
 10
-14.7129414835
 20
-53.273810098
 10
-14.7119895261
 20
-53.2090135395
 10
-14.7116107565
 20
-53.1439550233
  0
LWPOLYLINE
  5
3B3
100
AcDbEntity
  8
IMPORT_IGES
100
AcDbPolyline
 62
7
  6
CONTINUOUS
 90
7
 70
0
 10
-12.107857951
 20
52.3295873002
 10
-12.0611947715
 20
52.331355647
 10
-12.0223306365
 20
52.3331336971
 10
-11.9913649079
 20
52.334908076
 10
-11.9683789372
 20
52.3366743255
 10
-11.9534347073
 20
52.3384369037
 10
-11.9465733733
 20
52.3401958107
  0
LINE
  5
3B4
100
AcDbEntity
  8
IMPORT_IGES
100
AcDbLine
 62
7
  6
CONTINUOUS
 10
-12.2240813443
 20
52.3260798725
 11
-12.107857951
 21
52.3295873002
  0
LINE
  5
3B5
100
AcDbEntity
  8
IMPORT_IGES
100
AcDbLine
 62
250
  6
CONTINUOUS
 10
-13.2051045268
 20
53.3227976162
 11
-13.3403288691
 21
53.3189396526
  0
LINE
  5
3B6
100
AcDbEntity
  8
IMPORT_IGES
100
AcDbLine
 62
7
  6
CONTINUOUS
 10
-12.3698188914
 20
52.3226508553
 11
-12.2240813443
 21
52.3260798725
  0
LINE
  5
3B7
100
AcDbEntity
  8
IMPORT_IGES
100
AcDbLine
 62
250
  6
CONTINUOUS
 10
-13.3403288691
 20
53.3189396526
 11
-13.5008443862
 21
53.315380326
  0
LINE
  5
3B8
100
AcDbEntity
  8
IMPORT_IGES
100
AcDbLine
 62
7
  6
CONTINUOUS
 10
-12.6404628355
 20
52.3177170253
 11
-12.3698188914
 21
52.3226508553
  0
LINE
  5
3B9
100
AcDbEntity
  8
IMPORT_IGES
100
AcDbLine
 62
250
  6
CONTINUOUS
 10
-13.5008443862
 20
53.315380326
 11
-13.7836425236
 21
53.3107233698
  0
LINE
  5
3BA
100
AcDbEntity
  8
IMPORT_IGES
100
AcDbLine
 62
7
  6
CONTINUOUS
 10
-14.7116058315
 20
52.2980315409
 11
-14.5648217694
 21
52.3001889724
  0
LINE
  5
3BB
100
AcDbEntity
  8
IMPORT_IGES
100
AcDbLine
 62
7
  6
CONTINUOUS
 10
-13.2143988584
 20
52.3103340626
 11
-12.6404628355
 21
52.3177170253
  0
LINE
  5
3BC
100
AcDbEntity
  8
IMPORT_IGES
100
AcDbLine
 62
250
  6
CONTINUOUS
 10
-13.7836425236
 20
53.3107233698
 11
-14.2253200475
 21
53.3059992743
  0
LWPOLYLINE
  5
3BD
100
AcDbEntity
  8
IMPORT_IGES
100
AcDbPolyline
 62
7
  6
CONTINUOUS
 90
3
 70
0
 10
-14.5648217694
 20
52.3001889724
 10
-14.4189129289
 20
52.3014874534
 10
-14.2024053385
 20
52.3025409832
  0
LINE
  5
3BE
100
AcDbEntity
  8
IMPORT_IGES
100
AcDbLine
 62
7
  6
CONTINUOUS
 10
-14.2024053385
 20
52.3025409832
 11
-13.2143988584
 21
52.3103340626
  0
LWPOLYLINE
  5
3BF
100
AcDbEntity
  8
IMPORT_IGES
100
AcDbPolyline
 62
250
  6
CONTINUOUS
 90
3
 70
0
 10
-14.2253200475
 20
53.3059992743
 10
-14.7183030513
 20
53.3032076003
 10
-14.8473946642
 20
53.3028285983
  0
LINE
  5
3C0
100
AcDbEntity
  8
IMPORT_IGES
100
AcDbLine
 62
7
  6
CONTINUOUS
 10
-34.6867859142
 20
52.3012205648
 11
-34.6475272215
 21
52.3013610782
  0
LINE
  5
3C1
100
AcDbEntity
  8
IMPORT_IGES
100
AcDbLine
 62
7
  6
CONTINUOUS
 10
-14.8473946642
 20
53.3028285983
 11
-18.0918293788
 21
53.2964043701
  0
LINE
  5
3C2
100
AcDbEntity
  8
IMPORT_IGES
100
AcDbLine
 62
7
  6
CONTINUOUS
 10
-18.0918293788
 20
53.2964043701
 11
-21.3471163862
 21
53.2925475557
  0
LINE
  5
3C3
100
AcDbEntity
  8
IMPORT_IGES
100
AcDbLine
 62
7
  6
CONTINUOUS
 10
-14.7116058316
 20
52.2980315409
 11
-19.1012727582
 21
52.2958483422
  0
LINE
  5
3C4
100
AcDbEntity
  8
IMPORT_IGES
100
AcDbLine
 62
7
  6
CONTINUOUS
 10
-21.3471163862
 20
53.2925475557
 11
-24.6107513101
 21
53.2912596407
  0
LINE
  5
3C5
100
AcDbEntity
  8
IMPORT_IGES
100
AcDbLine
 62
7
  6
CONTINUOUS
 10
-20.8107492109
 20
53.4451149736
 11
-22.1107492109
 21
53.4451149736
  0
LINE
  5
3C6
100
AcDbEntity
  8
IMPORT_IGES
100
AcDbLine
 62
7
  6
CONTINUOUS
 10
-27.1107492109
 20
53.4451149736
 11
-28.4107492109
 21
53.4451149736
  0
LINE
  5
3C7
100
AcDbEntity
  8
IMPORT_IGES
100
AcDbLine
 62
7
  6
CONTINUOUS
 10
-27.5107492109
 20
53.5358813113
 11
-27.1107492109
 21
53.5358813113
  0
LINE
  5
3C8
100
AcDbEntity
  8
IMPORT_IGES
100
AcDbLine
 62
7
  6
CONTINUOUS
 10
-22.1107492109
 20
53.5358813113
 11
-21.7107492109
 21
53.5358813113
  0
LINE
  5
3C9
100
AcDbEntity
  8
IMPORT_IGES
100
AcDbLine
 62
7
  6
CONTINUOUS
 10
-12.710600388
 20
53.5760279605
 11
-21.7107492109
 21
53.5760279605
  0
LINE
  5
3CA
100
AcDbEntity
  8
IMPORT_IGES
100
AcDbLine
 62
7
  6
CONTINUOUS
 10
-22.1107492109
 20
53.5760279606
 11
-27.1107492109
 21
53.5760279606
  0
LINE
  5
3CB
100
AcDbEntity
  8
IMPORT_IGES
100
AcDbLine
 62
7
  6
CONTINUOUS
 10
-27.5107492109
 20
53.5760279606
 11
-36.5108980341
 21
53.5760279604
  0
LINE
  5
3CC
100
AcDbEntity
  8
IMPORT_IGES
100
AcDbLine
 62
7
  6
CONTINUOUS
 10
-24.8607492109
 20
53.7859193933
 11
-24.3607492109
 21
53.7859193933
  0
LINE
  5
3CD
100
AcDbEntity
  8
IMPORT_IGES
100
AcDbLine
 62
250
  6
CONTINUOUS
 10
-22.5107492109
 20
54.0760279606
 11
-26.7107492096
 21
54.0760279606
  0
LWPOLYLINE
  5
3CE
100
AcDbEntity
  8
IMPORT_IGES
100
AcDbPolyline
 62
7
  6
CONTINUOUS
 90
3
 70
0
 10
-19.1012727582
 20
52.2958483422
 10
-33.4163941592
 20
52.2970325642
 10
-34.5098951822
 20
52.2978500542
  0
LINE
  5
3CF
100
AcDbEntity
  8
IMPORT_IGES
100
AcDbLine
 62
7
  6
CONTINUOUS
 10
-24.6107513101
 20
53.2912596407
 11
-27.8743861963
 21
53.2925475633
  0
LINE
  5
3D0
100
AcDbEntity
  8
IMPORT_IGES
100
AcDbLine
 62
7
  6
CONTINUOUS
 10
-27.8743861963
 20
53.2925475633
 11
-31.1296733234
 21
53.2964043643
  0
LINE
  5
3D1
100
AcDbEntity
  8
IMPORT_IGES
100
AcDbLine
 62
7
  6
CONTINUOUS
 10
-31.1296733234
 20
53.2964043643
 11
-34.3741083649
 21
53.3028285515
  0
LWPOLYLINE
  5
3D2
100
AcDbEntity
  8
IMPORT_IGES
100
AcDbPolyline
 62
7
  6
CONTINUOUS
 90
6
 70
0
 10
-34.6475272215
 20
52.3013610782
 10
-34.5885776358
 20
52.3011515013
 10
-34.5689144152
 20
52.3007673022
 10
-34.5492457058
 20
52.3000573935
 10
-34.5295723625
 20
52.2990849775
 10
-34.5098951823
 20
52.2978500542
  0
LINE
  5
3D3
100
AcDbEntity
  8
IMPORT_IGES
100
AcDbLine
 62
250
  6
CONTINUOUS
 10
-34.3741083649
 20
53.3028285515
 11
-34.8763945557
 21
53.3051096278
  0
LINE
  5
3D4
100
AcDbEntity
  8
IMPORT_IGES
100
AcDbLine
 62
7
  6
CONTINUOUS
 10
-35.7697326442
 20
52.3075617842
 11
-34.6867859142
 21
52.3012205648
  0
LINE
  5
3D5
100
AcDbEntity
  8
IMPORT_IGES
100
AcDbLine
 62
250
  6
CONTINUOUS
 10
-34.8763945557
 20
53.3051096278
 11
-35.3337869218
 21
53.3093763647
  0
LINE
  5
3D6
100
AcDbEntity
  8
IMPORT_IGES
100
AcDbLine
 62
7
  6
CONTINUOUS
 10
-36.3859988336
 20
52.3141086337
 11
-35.7697326442
 21
52.3075617842
  0
LINE
  5
3D7
100
AcDbEntity
  8
IMPORT_IGES
100
AcDbLine
 62
250
  6
CONTINUOUS
 10
-35.3337869218
 20
53.3093763647
 11
-35.6318344279
 21
53.3137352986
  0
LINE
  5
3D8
100
AcDbEntity
  8
IMPORT_IGES
100
AcDbLine
 62
7
  6
CONTINUOUS
 10
-36.6895294374
 20
52.3187307677
 11
-36.3859988336
 21
52.3141086337
  0
LINE
  5
3D9
100
AcDbEntity
  8
IMPORT_IGES
100
AcDbLine
 62
250
  6
CONTINUOUS
 10
-35.6318344279
 20
53.3137352986
 11
-35.8038238376
 21
53.3171170944
  0
LINE
  5
3DA
100
AcDbEntity
  8
IMPORT_IGES
100
AcDbLine
 62
7
  6
CONTINUOUS
 10
-36.93494109
 20
52.3237508432
 11
-36.6895294374
 21
52.3187307677
  0
LWPOLYLINE
  5
3DB
100
AcDbEntity
  8
IMPORT_IGES
100
AcDbPolyline
 62
250
  6
CONTINUOUS
 90
11
 70
0
 10
-35.8038238376
 20
53.3171170944
 10
-35.9521192132
 20
53.3208349409
 10
-36.0164430879
 20
53.3227992908
 10
-36.0742602865
 20
53.3248334639
 10
-36.1249658832
 20
53.326916756
 10
-36.1684907858
 20
53.3290496824
 10
-36.2049040864
 20
53.3312317277
 10
-36.2338081359
 20
53.3334406417
 10
-36.2550703847
 20
53.3356690077
 10
-36.2688233824
 20
53.3379242424
 10
-36.275067129
 20
53.3402063458
  0
LWPOLYLINE
  5
3DC
100
AcDbEntity
  8
IMPORT_IGES
100
AcDbPolyline
 62
250
  6
CONTINUOUS
 90
25
 70
0
 10
-12.9464265593
 20
53.3402035075
 10
-12.8810783678
 20
53.3380462052
 10
-12.8163357832
 20
53.3316654694
 10
-12.7524666237
 20
53.3211521264
 10
-12.6897486436
 20
53.3066186152
 10
-12.6284065796
 20
53.2881842518
 10
-12.5686152652
 20
53.2659611791
 10
-12.5107534605
 20
53.240161598
 10
-12.4548716276
 20
53.2108809271
 10
-12.4006880471
 20
53.1779669873
 10
-12.3483135216
 20
53.1413994731
 10
-12.2981447968
 20
53.1013635409
 10
-12.2503827745
 20
53.0579363484
 10
-12.2052833457
 20
53.0112562092
 10
-12.1630777255
 20
52.9614614068
 10
-12.1239438432
 20
52.9086354976
 10
-12.0880741939
 20
52.8528672233
 10
-12.0557659895
 20
52.7944289644
 10
-12.027322477
 20
52.7337166841
 10
-12.0029029267
 20
52.6709291258
 10
-11.9826937815
 20
52.6063797015
 10
-11.9669118818
 20
52.5406989539
 10
-11.9556280533
 20
52.4743093148
 10
-11.9488441915
 20
52.4073995702
 10
-11.9465734132
 20
52.3402741997
  0
LWPOLYLINE
  5
3DD
100
AcDbEntity
  8
IMPORT_IGES
100
AcDbPolyline
 62
7
  6
CONTINUOUS
 90
25
 70
0
 10
-12.7106073514
 20
53.5760263011
 10
-12.6446685139
 20
53.573800193
 10
-12.5795821789
 20
53.567385949
 10
-12.5153483463
 20
53.5567835691
 10
-12.4517027242
 20
53.54190983
 10
-12.3889096046
 20
53.522847955
 10
-12.3277618634
 20
53.4998476141
 10
-12.2682805372
 20
53.4728600545
 10
-12.2104445894
 20
53.4419340291
 10
-12.1549837863
 20
53.4074654662
 10
-12.1019280841
 20
53.3694105421
 10
-12.0512475266
 20
53.3278130805
 10
-12.0035820123
 20
53.2832004808
 10
-11.9589690223
 20
53.2355352558
 10
-11.9173710755
 20
53.1848548927
 10
-11.8793156265
 20
53.1317992523
 10
-11.8448464951
 20
53.0763383711
 10
-11.8139198616
 20
53.0185022126
 10
-11.7869317205
 20
52.9590205277
 10
-11.7639308235
 20
52.8978722715
 10
-11.744868419
 20
52.835078489
 10
-11.7299942474
 20
52.7714320656
 10
-11.7193915555
 20
52.7071972966
 10
-11.7129770965
 20
52.6421098869
 10
-11.7107508704
 20
52.5761698363
  0
LWPOLYLINE
  5
3DE
100
AcDbEntity
  8
0
100
AcDbPolyline
 62
7
  6
CONTINUOUS
 90
10
 70
0
 43
0.3500000006
 10
43.8071555786
 20
-40.0954013901
 10
43.9500134125
 20
-40.0239724731
 10
44.0214400635
 20
-40.0239724731
 10
44.1642978973
 20
-40.166830307
 10
44.1642978973
 20
-40.2382592239
 10
44.0928712463
 20
-40.3096881409
 10
44.0214400635
 20
-40.3096881409
 10
43.8785822296
 20
-40.2382592239
 10
43.8071555786
 20
-40.166830307
 10
43.8071555786
 20
-40.0954013901
  0
LWPOLYLINE
  5
3DF
100
AcDbEntity
  8
IMPORT_IGES
100
AcDbPolyline
 62
250
  6
CONTINUOUS
 90
25
 70
0
 10
-36.2750730293
 20
53.3402042578
 10
-36.3405351134
 20
53.3380389319
 10
-36.4056997099
 20
53.3315946246
 10
-36.4702876484
 20
53.3209022641
 10
-36.5340207171
 20
53.3060114985
 10
-36.5966285334
 20
53.2869890448
 10
-36.6578493271
 20
53.2639171306
 10
-36.7174219651
 20
53.236896375
 10
-36.7750922039
 20
53.206044475
 10
-36.8306186627
 20
53.1714924098
 10
-36.8837642769
 20
53.1333890392
 10
-36.9343026034
 20
53.0918981172
 10
-36.9820223728
 20
53.0471938052
 10
-37.0267195657
 20
52.9994672028
 10
-37.0682030312
 20
52.9489223871
 10
-37.1062985484
 20
52.8957707296
 10
-37.1408423587
 20
52.8402387436
 10
-37.1716856607
 20
52.7825634708
 10
-37.1986975196
 20
52.7229862626
 10
-37.2217603124
 20
52.661761352
 10
-37.2407733728
 20
52.5991499109
 10
-37.2556543539
 20
52.535413758
 10
-37.266336543
 20
52.4708233084
 10
-37.2727703898
 20
52.4056567815
 10
-37.2749250158
 20
52.3401933611
  0
LINE
  5
3E0
100
AcDbEntity
  8
IMPORT_IGES
100
AcDbLine
 62
250
  6
CONTINUOUS
 10
-22.5107492158
 20
54.8760279606
 11
-26.7107492109
 21
54.8760279606
  0
LINE
  5
3E1
100
AcDbEntity
  8
IMPORT_IGES
100
AcDbLine
 62
7
  6
CONTINUOUS
 10
-26.2107172243
 20
55.3760279606
 11
-23.0107809693
 21
55.3760279606
  0
LWPOLYLINE
  5
3E2
100
AcDbEntity
  8
0
100
AcDbPolyline
 62
7
  6
CONTINUOUS
 90
10
 70
0
 43
0.3500000006
 10
23.3124017487
 20
-61.6637506714
 10
22.6695460281
 20
-62.3066086578
 10
22.2409725266
 20
-63.1637511292
 10
22.2409725266
 20
-64.2351780853
 10
22.6695460281
 20
-64.6637515869
 10
23.3124017487
 20
-64.6637515869
 10
23.7409729843
 20
-64.2351780853
 10
23.7409729843
 20
-63.378035614
 10
23.3124017487
 20
-62.9494666443
 10
22.3838303604
 20
-62.9494666443
  0
LWPOLYLINE
  5
3E3
100
AcDbEntity
  8
0
100
AcDbPolyline
 62
7
  6
CONTINUOUS
 90
3
 70
0
 43
0.3500000006
 10
26.3124026642
 20
-62.5208931427
 10
27.1695451355
 20
-61.6637506714
 10
27.1695451355
 20
-64.6637515869
  0
LWPOLYLINE
  5
3E4
100
AcDbEntity
  8
0
100
AcDbPolyline
 62
7
  6
CONTINUOUS
 90
8
 70
0
 43
0.3500000006
 10
-26.5393197098
 20
64.1265804749
 10
-25.6821772385
 20
64.1265804749
 10
-25.2536060028
 20
64.5551494446
 10
-25.2536060028
 20
65.4122964478
 10
-25.6821772385
 20
65.8408654175
 10
-26.5393197098
 20
65.8408654175
 10
-26.5393197098
 20
67.1265813904
 10
-25.2536060028
 20
67.1265813904
  0
LWPOLYLINE
  5
3E5
100
AcDbEntity
  8
0
100
AcDbPolyline
 62
7
  6
CONTINUOUS
 90
7
 70
0
 43
0.3500000006
 10
-27.396464447
 20
64.1265804749
 10
-28.8964626389
 20
64.1265804749
 10
-27.396464447
 20
66.2694434509
 10
-27.396464447
 20
66.6980124207
 10
-27.8250356827
 20
67.1265813904
 10
-28.4678914032
 20
67.1265813904
 10
-28.8964626389
 20
66.4837279358
  0
LWPOLYLINE
  5
3E6
100
AcDbEntity
  8
0
100
AcDbPolyline
 62
7
  6
CONTINUOUS
 90
7
 70
0
 43
0.3500000006
 10
-92.8272466736
 20
-64.3601350708
 10
-94.3272471313
 20
-64.3601350708
 10
-92.8272466736
 20
-62.2172811584
 10
-92.8272466736
 20
-61.7887076569
 10
-93.255824707
 20
-61.3601386871
 10
-93.8986781616
 20
-61.3601386871
 10
-94.3272471313
 20
-62.0029921417
  0
LWPOLYLINE
  5
3E7
100
AcDbEntity
  8
IMPORT_IGES
100
AcDbPolyline
 62
7
  6
CONTINUOUS
 90
3
 70
0
 10
-111.3079555684
 20
-53.1493056619
 10
-111.304319493
 20
-53.1492718741
 10
-111.3005579921
 20
-53.1491651731
  0
LINE
  5
3E8
100
AcDbEntity
  8
IMPORT_IGES
100
AcDbLine
 62
7
  6
CONTINUOUS
 10
-85.5353049197
 20
-54.4168295741
 11
-98.4049098106
 21
-54.4168295741
  0
LINE
  5
3E9
100
AcDbEntity
  8
IMPORT_IGES
100
AcDbLine
 62
250
  6
CONTINUOUS
 10
-85.5050367101
 20
-53.2809627743
 11
-85.5551295566
 21
-53.2809560612
  0
LINE
  5
3EA
100
AcDbEntity
  8
IMPORT_IGES
100
AcDbLine
 62
7
  6
CONTINUOUS
 10
-112.0050365431
 20
-53.1439547787
 11
-111.5962329473
 21
-53.1443635245
  0
LINE
  5
3EB
100
AcDbEntity
  8
IMPORT_IGES
100
AcDbLine
 62
7
  6
CONTINUOUS
 10
-111.5962329473
 20
-53.1443635245
 11
-111.3299075039
 21
-53.1457941348
  0
LINE
  5
3EC
100
AcDbEntity
  8
IMPORT_IGES
100
AcDbLine
 62
7
  6
CONTINUOUS
 10
-111.2895124158
 20
-53.1494156666
 11
-108.2153939293
 21
-53.1880313211
  0
LINE
  5
3ED
100
AcDbEntity
  8
IMPORT_IGES
100
AcDbLine
 62
7
  6
CONTINUOUS
 10
-98.4039075135
 20
-54.3594080094
 11
-111.022487996
 21
-54.1391498679
  0
LINE
  5
3EE
100
AcDbEntity
  8
IMPORT_IGES
100
AcDbLine
 62
250
  6
CONTINUOUS
 10
-98.386458414
 20
-53.3597497412
 11
-108.2153932048
 21
-53.1880313211
  0
LINE
  5
3EF
100
AcDbEntity
  8
IMPORT_IGES
100
AcDbLine
 62
7
  6
CONTINUOUS
 10
-111.3005579921
 20
-53.1491651731
 11
-111.2895124158
 21
-53.1494156666
  0
LWPOLYLINE
  5
3F0
100
AcDbEntity
  8
IMPORT_IGES
100
AcDbPolyline
 62
7
  6
CONTINUOUS
 90
25
 70
0
 10
-110.3566184134
 20
-54.1507631472
 10
-110.4210153363
 20
-54.1475207746
 10
-110.4850496717
 20
-54.1400596957
 10
-110.5484506901
 20
-54.1284146227
 10
-110.6109489054
 20
-54.1126384254
 10
-110.6722825847
 20
-54.092800604
 10
-110.7321985064
 20
-54.0689858356
 10
-110.7904443937
 20
-54.0412966301
 10
-110.8467749455
 20
-54.0098518698
 10
-110.9009574706
 20
-53.9747832548
 10
-110.9527636717
 20
-53.9362398499
 10
-111.0019756297
 20
-53.8943851485
 10
-111.0483901968
 20
-53.8493926343
 10
-111.0918114794
 20
-53.8014521938
 10
-111.1320562126
 20
-53.7507661598
 10
-111.168957557
 20
-53.6975437866
 10
-111.2023589335
 20
-53.6420089836
 10
-111.2321183111
 20
-53.5843957734
 10
-111.2581109654
 20
-53.5249421891
 10
-111.2802251909
 20
-53.4638985891
 10
-111.2983656324
 20
-53.4015221357
 10
-111.3124546152
 20
-53.3380706751
 10
-111.322429755
 20
-53.273810098
 10
-111.3282453484
 20
-53.2090135395
 10
-111.3298736944
 20
-53.1439550233
  0
LWPOLYLINE
  5
3F1
100
AcDbEntity
  8
IMPORT_IGES
100
AcDbPolyline
 62
7
  6
CONTINUOUS
 90
7
 70
0
 10
-111.3299086076
 20
-53.1457941348
 10
-111.3271461519
 20
-53.1470291721
 10
-111.3242593559
 20
-53.1480016879
 10
-111.3212480944
 20
-53.1487116823
 10
-111.3181123207
 20
-53.1490959524
 10
-111.3148518515
 20
-53.1492177011
 10
-111.3079555684
 20
-53.1493056619
  0
LWPOLYLINE
  5
3F2
100
AcDbEntity
  8
0
100
AcDbPolyline
 62
7
  6
CONTINUOUS
 90
10
 70
0
 43
0.3500000006
 10
-99.6121757813
 20
67.143403656
 10
-100.2550382996
 20
66.5005502014
 10
-100.6836072693
 20
65.6434031982
 10
-100.6836072693
 20
64.5719717102
 10
-100.2550382996
 20
64.1434027405
 10
-99.6121757813
 20
64.1434027405
 10
-99.1836068115
 20
64.5719717102
 10
-99.1836068115
 20
65.4291187134
 10
-99.6121757813
 20
65.8576876831
 10
-100.5407539673
 20
65.8576876831
  0
LINE
  5
3F3
100
AcDbEntity
  8
IMPORT_IGES
100
AcDbLine
 62
7
  6
CONTINUOUS
 10
-87.4148123416
 20
-39.9168295741
 11
-87.2886297442
 21
-39.9168295741
  0
LINE
  5
3F4
100
AcDbEntity
  8
IMPORT_IGES
100
AcDbLine
 62
7
  6
CONTINUOUS
 10
-96.5254002802
 20
-39.9168295741
 11
-96.6515828776
 21
-39.9168295741
  0
LINE
  5
3F5
100
AcDbEntity
  8
IMPORT_IGES
100
AcDbLine
 62
7
  6
CONTINUOUS
 10
-87.4148123416
 20
-38.4168295741
 11
-87.3148123416
 21
-38.4168295741
  0
LINE
  5
3F6
100
AcDbEntity
  8
IMPORT_IGES
100
AcDbLine
 62
7
  6
CONTINUOUS
 10
-96.5254002802
 20
-38.4168295741
 11
-96.6254002802
 21
-38.4168295741
  0
LINE
  5
3F7
100
AcDbEntity
  8
IMPORT_IGES
100
AcDbLine
 62
7
  6
CONTINUOUS
 10
-87.4148123416
 20
-37.9522452245
 11
-87.3229216916
 21
-37.9522452245
  0
LINE
  5
3F8
100
AcDbEntity
  8
IMPORT_IGES
100
AcDbLine
 62
7
  6
CONTINUOUS
 10
-96.5254002802
 20
-37.9522452245
 11
-96.6172909302
 21
-37.9522452245
  0
LINE
  5
3F9
100
AcDbEntity
  8
IMPORT_IGES
100
AcDbLine
 62
7
  6
CONTINUOUS
 10
-89.9701063109
 20
-36.9168295741
 11
-93.9701063109
 21
-36.9168295741
  0
LINE
  5
3FA
100
AcDbEntity
  8
IMPORT_IGES
100
AcDbLine
 62
7
  6
CONTINUOUS
 10
-89.9701063109
 20
-35.9168295741
 11
-87.4148123416
 21
-35.9168295741
  0
LINE
  5
3FB
100
AcDbEntity
  8
IMPORT_IGES
100
AcDbLine
 62
7
  6
CONTINUOUS
 10
-93.9701063109
 20
-35.9168295741
 11
-96.5254002802
 21
-35.9168295741
  0
LINE
  5
3FC
100
AcDbEntity
  8
IMPORT_IGES
100
AcDbLine
 62
7
  6
CONTINUOUS
 10
-96.5800171114
 20
-35.8168295741
 11
-87.3601955104
 21
-35.8168295741
  0
LWPOLYLINE
  5
3FD
100
AcDbEntity
  8
IMPORT_IGES
100
AcDbPolyline
 62
250
  6
CONTINUOUS
 90
11
 70
0
 10
-108.2154105771
 20
53.3402035075
 10
-108.2165100855
 20
53.3380462052
 10
-108.2175261758
 20
53.3316654694
 10
-108.2184557587
 20
53.3211521264
 10
-108.2192962396
 20
53.3066186152
 10
-108.2200454873
 20
53.2881842518
 10
-108.2207015345
 20
53.2659611791
 10
-108.2212611827
 20
53.240161598
 10
-108.2217255077
 20
53.2108809271
 10
-108.2220967707
 20
53.1779669873
 10
-108.2225495516
 20
53.1013635409
  0
LWPOLYLINE
  5
3FE
100
AcDbEntity
  8
IMPORT_IGES
100
AcDbPolyline
 62
250
  6
CONTINUOUS
 90
9
 70
0
 10
-97.8743655622
 20
-31.7000932762
 10
-97.9052117899
 20
-31.7005614199
 10
-97.9322275431
 20
-31.7011296227
 10
-97.9552951675
 20
-31.7017948179
 10
-97.9743140721
 20
-31.7025548883
 10
-97.9892020176
 20
-31.703408754
 10
-97.999892239
 20
-31.7043535468
 10
-98.0063350552
 20
-31.7053845948
 10
-98.0084994914
 20
-31.7064975669
  0
LINE
  5
3FF
100
AcDbEntity
  8
IMPORT_IGES
100
AcDbLine
 62
250
  6
CONTINUOUS
 10
-86.6726382297
 20
-31.7025562818
 11
-86.9315652977
 21
-31.7064869792
  0
LINE
  5
400
100
AcDbEntity
  8
IMPORT_IGES
100
AcDbLine
 62
250
  6
CONTINUOUS
 10
-86.4315847895
 20
-31.7000938614
 11
-86.6726382297
 21
-31.7025562818
  0
LINE
  5
401
100
AcDbEntity
  8
IMPORT_IGES
100
AcDbLine
 62
250
  6
CONTINUOUS
 10
-97.8017231473
 20
-31.6994644841
 11
-97.8743655622
 21
-31.7000932762
  0
LINE
  5
402
100
AcDbEntity
  8
IMPORT_IGES
100
AcDbLine
 62
250
  6
CONTINUOUS
 10
-86.2723830211
 20
-31.6993070849
 11
-86.4315847895
 21
-31.7000938614
  0
LINE
  5
403
100
AcDbEntity
  8
IMPORT_IGES
100
AcDbLine
 62
250
  6
CONTINUOUS
 10
-97.715542857
 20
-31.6992537237
 11
-97.8017231473
 21
-31.6994644841
  0
LINE
  5
404
100
AcDbEntity
  8
IMPORT_IGES
100
AcDbLine
 62
250
  6
CONTINUOUS
 10
-86.931558161
 20
-31.706486805
 11
-97.0086515516
 21
-31.7064867554
  0
LINE
  5
405
100
AcDbEntity
  8
IMPORT_IGES
100
AcDbLine
 62
250
  6
CONTINUOUS
 10
-86.1799686499
 20
-31.6993071068
 11
-86.2723830211
 21
-31.6993070849
  0
LINE
  5
406
100
AcDbEntity
  8
IMPORT_IGES
100
AcDbLine
 62
250
  6
CONTINUOUS
 10
-97.5641455473
 20
-31.6997271165
 11
-97.715542857
 21
-31.6992537237
  0
LINE
  5
407
100
AcDbEntity
  8
IMPORT_IGES
100
AcDbLine
 62
250
  6
CONTINUOUS
 10
-97.33017296
 20
-31.7017954932
 11
-97.5641455473
 21
-31.6997271165
  0
LWPOLYLINE
  5
408
100
AcDbEntity
  8
IMPORT_IGES
100
AcDbPolyline
 62
250
  6
CONTINUOUS
 90
3
 70
0
 10
-97.008651472
 20
-31.7064789891
 10
-97.0741055746
 20
-31.7053742682
 10
-97.33017296
 20
-31.7017954932
  0
LWPOLYLINE
  5
409
100
AcDbEntity
  8
IMPORT_IGES
100
AcDbPolyline
 62
250
  6
CONTINUOUS
 90
25
 70
0
 10
-96.9713958017
 20
-28.5919592353
 10
-97.0360403422
 20
-28.5940181315
 10
-97.1001000564
 20
-28.6001727472
 10
-97.1633154766
 20
-28.6103373969
 10
-97.2254185892
 20
-28.624406213
 10
-97.2861897092
 20
-28.6422661387
 10
-97.345454786
 20
-28.6638094189
 10
-97.4028437626
 20
-28.6888331247
 10
-97.4583091824
 20
-28.7172467896
 10
-97.5121268823
 20
-28.7491958942
 10
-97.5641904462
 20
-28.7847004394
 10
-97.6141138918
 20
-28.8235843096
 10
-97.6617024223
 20
-28.8657744979
 10
-97.7067085325
 20
-28.9111409365
 10
-97.748906456
 20
-28.9595515739
 10
-97.7881212208
 20
-29.010923966
 10
-97.824165162
 20
-29.0651708048
 10
-97.8567518815
 20
-29.1220362534
 10
-97.8855879278
 20
-29.1811500547
 10
-97.9105196757
 20
-29.2423312041
 10
-97.9313593821
 20
-29.3052753203
 10
-97.9478851467
 20
-29.3693658388
 10
-97.9600240284
 20
-29.4341935849
 10
-97.9677751965
 20
-29.4995831015
 10
-97.9711236485
 20
-29.5652433511
  0
LINE
  5
40A
100
AcDbEntity
  8
IMPORT_IGES
100
AcDbLine
 62
250
  6
CONTINUOUS
 10
-86.9688892717
 20
-28.5919564762
 11
-96.9713219868
 21
-28.5919572701
  0
LINE
  5
40B
100
AcDbEntity
  8
IMPORT_IGES
100
AcDbLine
 62
7
  6
CONTINUOUS
 10
-86.9805789899
 20
-27.9168295741
 11
-96.959633632
 21
-27.9168295741
  0
LWPOLYLINE
  5
40C
100
AcDbEntity
  8
IMPORT_IGES
100
AcDbPolyline
 62
250
  6
CONTINUOUS
 90
11
 70
0
 10
-85.9317134432
 20
-31.7064796481
 10
-85.9338779524
 20
-31.705374937
 10
-85.9403204373
 20
-31.7043500814
 10
-85.9510100917
 20
-31.7034094149
 10
-85.9658974772
 20
-31.7025569273
 10
-85.9849159517
 20
-31.7017961758
 10
-86.0079831257
 20
-31.7011302963
 10
-86.0349983175
 20
-31.7005620904
 10
-86.065843987
 20
-31.7000939409
 10
-86.1003892517
 20
-31.6997277746
 10
-86.1799686499
 20
-31.6993071068
  0
LWPOLYLINE
  5
40D
100
AcDbEntity
  8
0
100
AcDbPolyline
 62
7
  6
CONTINUOUS
 90
3
 70
0
 43
0.3500000006
 10
-97.6121751709
 20
64.4291184082
 10
-97.6836063538
 20
64.2148339233
 10
-97.8264687195
 20
63.9291182556
  0
LWPOLYLINE
  5
40E
100
AcDbEntity
  8
0
100
AcDbPolyline
 62
7
  6
CONTINUOUS
 90
10
 70
0
 43
0.3500000006
 10
-91.3272462158
 20
-63.8601349182
 10
-91.2558240967
 20
-64.0029927521
 10
-91.2558240967
 20
-64.0744239349
 10
-91.3986773987
 20
-64.2172817688
 10
-91.4701085815
 20
-64.2172817688
 10
-91.5415397644
 20
-64.1458505859
 10
-91.5415397644
 20
-64.0744239349
 10
-91.4701085815
 20
-63.9315661011
 10
-91.3986773987
 20
-63.8601349182
 10
-91.3272462158
 20
-63.8601349182
  0
LINE
  5
40F
100
AcDbEntity
  8
IMPORT_IGES
100
AcDbLine
 62
7
  6
CONTINUOUS
 10
-112.0029500021
 20
15.3196590343
 11
-112.0028997182
 21
15.319928857
  0
LINE
  5
410
100
AcDbEntity
  8
IMPORT_IGES
100
AcDbLine
 62
7
  6
CONTINUOUS
 10
-112.0008427134
 20
15.3080275858
 11
-112.0007627746
 21
15.3072502506
  0
LINE
  5
411
100
AcDbEntity
  8
IMPORT_IGES
100
AcDbLine
 62
7
  6
CONTINUOUS
 10
-112.0006797899
 20
15.3064227536
 11
-112.0004117105
 21
15.3036314075
  0
LINE
  5
412
100
AcDbEntity
  8
IMPORT_IGES
100
AcDbLine
 62
7
  6
CONTINUOUS
 10
-112.0004117105
 20
15.3036314075
 11
-112.000111836
 21
15.3003024072
  0
LINE
  5
413
100
AcDbEntity
  8
IMPORT_IGES
100
AcDbLine
 62
7
  6
CONTINUOUS
 10
-112.000111836
 20
15.3003024072
 11
-111.9997757004
 21
15.296331854
  0
LINE
  5
414
100
AcDbEntity
  8
IMPORT_IGES
100
AcDbLine
 62
7
  6
CONTINUOUS
 10
-111.9997757004
 20
15.296331854
 11
-111.9993981278
 21
15.2915976391
  0
LINE
  5
415
100
AcDbEntity
  8
IMPORT_IGES
100
AcDbLine
 62
7
  6
CONTINUOUS
 10
-111.9993981278
 20
15.2915976391
 11
-111.9988196551
 21
15.2838399749
  0
LINE
  5
416
100
AcDbEntity
  8
IMPORT_IGES
100
AcDbLine
 62
7
  6
CONTINUOUS
 10
-111.9988196551
 20
15.2838399749
 11
-111.9981397229
 21
15.2740420659
  0
LINE
  5
417
100
AcDbEntity
  8
IMPORT_IGES
100
AcDbLine
 62
7
  6
CONTINUOUS
 10
-111.9981397229
 20
15.2740420659
 11
-111.9971141758
 21
15.2580482659
  0
LINE
  5
418
100
AcDbEntity
  8
IMPORT_IGES
100
AcDbLine
 62
7
  6
CONTINUOUS
 10
-111.9971141758
 20
15.2580482659
 11
-111.9958445385
 21
15.2365549006
  0
LINE
  5
419
100
AcDbEntity
  8
IMPORT_IGES
100
AcDbLine
 62
7
  6
CONTINUOUS
 10
-111.9958445385
 20
15.2365549006
 11
-111.9939012503
 21
15.2006167358
  0
LINE
  5
41A
100
AcDbEntity
  8
IMPORT_IGES
100
AcDbLine
 62
7
  6
CONTINUOUS
 10
-111.9939012503
 20
15.2006167358
 11
-111.9913495705
 21
15.1487493977
  0
LINE
  5
41B
100
AcDbEntity
  8
IMPORT_IGES
100
AcDbLine
 62
7
  6
CONTINUOUS
 10
-111.9913495705
 20
15.1487493977
 11
-111.9879654033
 21
15.0728491991
  0
LINE
  5
41C
100
AcDbEntity
  8
IMPORT_IGES
100
AcDbLine
 62
7
  6
CONTINUOUS
 10
-111.9879654033
 20
15.0728491991
 11
-111.9834566089
 21
14.9598786702
  0
LINE
  5
41D
100
AcDbEntity
  8
IMPORT_IGES
100
AcDbLine
 62
7
  6
CONTINUOUS
 10
-111.9834566089
 20
14.9598786702
 11
-111.9785950962
 21
14.8226458297
  0
LINE
  5
41E
100
AcDbEntity
  8
IMPORT_IGES
100
AcDbLine
 62
7
  6
CONTINUOUS
 10
-111.9785950962
 20
14.8226458297
 11
-111.9725810436
 21
14.627309338
  0
LINE
  5
41F
100
AcDbEntity
  8
IMPORT_IGES
100
AcDbLine
 62
7
  6
CONTINUOUS
 10
-111.9725810436
 20
14.627309338
 11
-111.9661170268
 21
14.3764729929
  0
LINE
  5
420
100
AcDbEntity
  8
IMPORT_IGES
100
AcDbLine
 62
7
  6
CONTINUOUS
 10
-111.9661170268
 20
14.3764729929
 11
-111.9615524016
 21
14.1579963221
  0
LINE
  5
421
100
AcDbEntity
  8
IMPORT_IGES
100
AcDbLine
 62
7
  6
CONTINUOUS
 10
-112.404980824
 20
6.567327283
 11
-112.4046291398
 21
6.5485738987
  0
LINE
  5
422
100
AcDbEntity
  8
IMPORT_IGES
100
AcDbLine
 62
7
  6
CONTINUOUS
 10
-111.9615524016
 20
14.1579963221
 11
-111.9576756911
 21
13.9224839549
  0
LINE
  5
423
100
AcDbEntity
  8
IMPORT_IGES
100
AcDbLine
 62
7
  6
CONTINUOUS
 10
-111.9576756911
 20
13.9224839549
 11
-111.9546596472
 21
13.6728655289
  0
LINE
  5
424
100
AcDbEntity
  8
IMPORT_IGES
100
AcDbLine
 62
7
  6
CONTINUOUS
 10
-111.9546596472
 20
13.6728655289
 11
-111.9527263847
 21
13.4203618972
  0
LINE
  5
425
100
AcDbEntity
  8
IMPORT_IGES
100
AcDbLine
 62
7
  6
CONTINUOUS
 10
-111.9527263847
 20
13.4203618972
 11
-111.9519603645
 21
13.1778509466
  0
LINE
  5
426
100
AcDbEntity
  8
IMPORT_IGES
100
AcDbLine
 62
7
  6
CONTINUOUS
 10
-111.9519655593
 20
6.9463626234
 11
-111.9521567676
 21
7.005472121
  0
LINE
  5
427
100
AcDbEntity
  8
IMPORT_IGES
100
AcDbLine
 62
7
  6
CONTINUOUS
 10
-112.4050367101
 20
13.5846802526
 11
-112.4050367101
 21
6.5673760291
  0
LINE
  5
428
100
AcDbEntity
  8
IMPORT_IGES
100
AcDbLine
 62
7
  6
CONTINUOUS
 10
-112.0050367101
 20
52.2960106761
 11
-112.0050367101
 21
15.3196656231
  0
LINE
  5
429
100
AcDbEntity
  8
IMPORT_IGES
100
AcDbLine
 62
7
  6
CONTINUOUS
 10
-112.0050367101
 20
4.8323902981
 11
-112.0050367101
 21
-53.1439547532
  0
LINE
  5
42A
100
AcDbEntity
  8
IMPORT_IGES
100
AcDbLine
 62
7
  6
CONTINUOUS
 10
-111.9519603645
 20
13.1778509466
 11
-111.9519484329
 21
7.0322713208
  0
LINE
  5
42B
100
AcDbEntity
  8
IMPORT_IGES
100
AcDbLine
 62
250
  6
CONTINUOUS
 10
-111.3299086076
 20
-53.1457941348
 11
-111.3299075038
 21
52.2980315409
  0
LINE
  5
42C
100
AcDbEntity
  8
IMPORT_IGES
100
AcDbLine
 62
7
  6
CONTINUOUS
 10
-111.9521567676
 20
7.005472121
 11
-111.9521200097
 21
7.0181619331
  0
LINE
  5
42D
100
AcDbEntity
  8
IMPORT_IGES
100
AcDbLine
 62
7
  6
CONTINUOUS
 10
-111.9535776669
 20
6.5992249884
 11
-111.9519655593
 21
6.9463626234
  0
LINE
  5
42E
100
AcDbEntity
  8
IMPORT_IGES
100
AcDbLine
 62
7
  6
CONTINUOUS
 10
-111.9521200097
 20
7.0181619331
 11
-111.952052671
 21
7.0256572637
  0
LINE
  5
42F
100
AcDbEntity
  8
IMPORT_IGES
100
AcDbLine
 62
7
  6
CONTINUOUS
 10
-111.9562760268
 20
6.3352999852
 11
-111.9535776669
 21
6.5992249884
  0
LINE
  5
430
100
AcDbEntity
  8
IMPORT_IGES
100
AcDbLine
 62
7
  6
CONTINUOUS
 10
-111.9599815497
 20
6.0827257992
 11
-111.9562760268
 21
6.3352999852
  0
LINE
  5
431
100
AcDbEntity
  8
IMPORT_IGES
100
AcDbLine
 62
7
  6
CONTINUOUS
 10
-111.952052671
 20
7.0256572637
 11
-111.9519502709
 21
7.0322713208
  0
LINE
  5
432
100
AcDbEntity
  8
IMPORT_IGES
100
AcDbLine
 62
7
  6
CONTINUOUS
 10
-111.9647830874
 20
5.8345968674
 11
-111.9599815497
 21
6.0827257992
  0
LINE
  5
433
100
AcDbEntity
  8
IMPORT_IGES
100
AcDbLine
 62
7
  6
CONTINUOUS
 10
-111.9697951736
 20
5.6261179425
 11
-111.9647830874
 21
5.8345968674
  0
LINE
  5
434
100
AcDbEntity
  8
IMPORT_IGES
100
AcDbLine
 62
7
  6
CONTINUOUS
 10
-111.9762731191
 20
5.4014410329
 11
-111.9697951736
 21
5.6261179425
  0
LINE
  5
435
100
AcDbEntity
  8
IMPORT_IGES
100
AcDbLine
 62
7
  6
CONTINUOUS
 10
-111.9817962154
 20
5.2373405349
 11
-111.9762731191
 21
5.4014410329
  0
LINE
  5
436
100
AcDbEntity
  8
IMPORT_IGES
100
AcDbLine
 62
7
  6
CONTINUOUS
 10
-111.9870636967
 20
5.1007022694
 11
-111.9817962154
 21
5.2373405349
  0
LINE
  5
437
100
AcDbEntity
  8
IMPORT_IGES
100
AcDbLine
 62
7
  6
CONTINUOUS
 10
-111.9908016875
 20
5.0152060301
 11
-111.9870636967
 21
5.1007022694
  0
LINE
  5
438
100
AcDbEntity
  8
IMPORT_IGES
100
AcDbLine
 62
7
  6
CONTINUOUS
 10
-111.9942861923
 20
4.9442391059
 11
-111.9908016875
 21
5.0152060301
  0
LWPOLYLINE
  5
439
100
AcDbEntity
  8
IMPORT_IGES
100
AcDbPolyline
 62
7
  6
CONTINUOUS
 90
11
 70
0
 10
-112.0026920909
 20
4.8323126908
 10
-112.0024720347
 20
4.8326842975
 10
-112.001933498
 20
4.8349323371
 10
-112.0013339972
 20
4.8391344172
 10
-112.0006689591
 20
4.8452690079
 10
-111.9999376671
 20
4.853357639
 10
-111.9991449618
 20
4.8634648997
 10
-111.9982897038
 20
4.8756309399
 10
-111.9973709867
 20
4.8898156096
 10
-111.9963971582
 20
4.9059630494
 10
-111.9942861923
 20
4.9442391059
  0
LINE
  5
43A
100
AcDbEntity
  8
IMPORT_IGES
100
AcDbLine
 62
7
  6
CONTINUOUS
 10
-112.0015576183
 20
15.3141236634
 11
-112.001503326
 21
15.3137230131
  0
LINE
  5
43B
100
AcDbEntity
  8
IMPORT_IGES
100
AcDbLine
 62
7
  6
CONTINUOUS
 10
-112.0014471337
 20
15.3132963248
 11
-112.001389006
 21
15.3128434658
  0
LINE
  5
43C
100
AcDbEntity
  8
IMPORT_IGES
100
AcDbLine
 62
7
  6
CONTINUOUS
 10
-112.0013287916
 20
15.312360046
 11
-112.0012664583
 21
15.3118463177
  0
LINE
  5
43D
100
AcDbEntity
  8
IMPORT_IGES
100
AcDbLine
 62
7
  6
CONTINUOUS
 10
-112.001201958
 20
15.3113020285
 11
-112.001135108
 21
15.3107220311
  0
LWPOLYLINE
  5
43E
100
AcDbEntity
  8
IMPORT_IGES
100
AcDbPolyline
 62
7
  6
CONTINUOUS
 90
3
 70
0
 10
-112.0010658807
 20
15.3101067998
 10
-112.0009942096
 20
15.3094558604
 10
-112.0009198426
 20
15.308762643
  0
LWPOLYLINE
  5
43F
100
AcDbEntity
  8
IMPORT_IGES
100
AcDbPolyline
 62
250
  6
CONTINUOUS
 90
9
 70
0
 10
-108.2218785613
 20
-54.0466192119
 10
-108.2214224862
 20
-54.078934134
 10
-108.2208592365
 20
-54.1073834155
 10
-108.2201913109
 20
-54.1318085787
 10
-108.2194191127
 20
-54.1520220761
 10
-108.2185444749
 20
-54.1678055014
 10
-108.2175717783
 20
-54.1790893634
 10
-108.2165061183
 20
-54.1858741921
 10
-108.2153526093
 20
-54.1881485982
  0
LINE
  5
440
100
AcDbEntity
  8
IMPORT_IGES
100
AcDbLine
 62
250
  6
CONTINUOUS
 10
-108.2194161921
 20
52.6063797015
 11
-108.2153960216
 21
52.3402741997
  0
LINE
  5
441
100
AcDbEntity
  8
IMPORT_IGES
100
AcDbLine
 62
250
  6
CONTINUOUS
 10
-108.2218788283
 20
52.8528672233
 11
-108.2194161921
 21
52.6063797015
  0
LINE
  5
442
100
AcDbEntity
  8
IMPORT_IGES
100
AcDbLine
 62
250
  6
CONTINUOUS
 10
-108.2224647527
 20
-53.9716013621
 11
-108.2218785613
 21
-54.0466192119
  0
LINE
  5
443
100
AcDbEntity
  8
IMPORT_IGES
100
AcDbLine
 62
250
  6
CONTINUOUS
 10
-108.222597625
 20
53.0112562092
 11
-108.2218788283
 21
52.8528672233
  0
LINE
  5
444
100
AcDbEntity
  8
IMPORT_IGES
100
AcDbLine
 62
250
  6
CONTINUOUS
 10
-108.2226245916
 20
-53.8842812875
 11
-108.2224647527
 21
-53.9716013621
  0
LINE
  5
445
100
AcDbEntity
  8
IMPORT_IGES
100
AcDbLine
 62
250
  6
CONTINUOUS
 10
-108.2153932048
 20
-53.1880313211
 11
-108.2153939293
 21
52.3401958107
  0
LINE
  5
446
100
AcDbEntity
  8
IMPORT_IGES
100
AcDbLine
 62
250
  6
CONTINUOUS
 10
-108.2225495516
 20
53.1013635409
 11
-108.222597625
 21
53.0112562092
  0
LINE
  5
447
100
AcDbEntity
  8
IMPORT_IGES
100
AcDbLine
 62
250
  6
CONTINUOUS
 10
-108.2220956639
 20
-53.7339489972
 11
-108.2226245916
 21
-53.8842812875
  0
LINE
  5
448
100
AcDbEntity
  8
IMPORT_IGES
100
AcDbLine
 62
250
  6
CONTINUOUS
 10
-108.2200439605
 20
-53.5061953837
 11
-108.2220956639
 21
-53.7339489972
  0
LWPOLYLINE
  5
449
100
AcDbEntity
  8
IMPORT_IGES
100
AcDbPolyline
 62
250
  6
CONTINUOUS
 90
3
 70
0
 10
-108.2153950475
 20
-53.188136939
 10
-108.2165002478
 20
-53.2534910984
 10
-108.2200439605
 20
-53.5061953837
  0
LINE
  5
44A
100
AcDbEntity
  8
IMPORT_IGES
100
AcDbLine
 62
7
  6
CONTINUOUS
 10
-87.2886297442
 20
-39.9168295741
 11
-87.4148123416
 21
-39.6770219521
  0
LINE
  5
44B
100
AcDbEntity
  8
IMPORT_IGES
100
AcDbLine
 62
7
  6
CONTINUOUS
 10
-112.0028327336
 20
15.3197293218
 11
-112.0028188819
 21
15.3196733476
  0
LWPOLYLINE
  5
44C
100
AcDbEntity
  8
IMPORT_IGES
100
AcDbPolyline
 62
7
  6
CONTINUOUS
 90
3
 70
0
 10
-112.0023357153
 20
15.3185117023
 10
-112.0023079167
 20
15.3183965598
 10
-112.002279199
 20
15.3182747531
  0
LWPOLYLINE
  5
44D
100
AcDbEntity
  8
IMPORT_IGES
100
AcDbPolyline
 62
7
  6
CONTINUOUS
 90
15
 70
0
 10
-112.0028602138
 20
15.3198474916
 10
-112.0022494594
 20
15.3181448777
 10
-112.0022186664
 20
15.3180070328
 10
-112.0021868229
 20
15.3178611191
 10
-112.0021538748
 20
15.3177054346
 10
-112.0021198085
 20
15.3175401209
 10
-112.0020846055
 20
15.3173650364
 10
-112.0020482015
 20
15.3171780536
 10
-112.0020105807
 20
15.3169793439
 10
-112.0019717222
 20
15.316768736
 10
-112.0019315518
 20
15.3165435891
 10
-112.0018900634
 20
15.3163041958
 10
-112.0018472214
 20
15.3160502634
 10
-112.0018029037
 20
15.315778274
 10
-112.0017570897
 20
15.3154884283
  0
LWPOLYLINE
  5
44E
100
AcDbEntity
  8
IMPORT_IGES
100
AcDbPolyline
 62
7
  6
CONTINUOUS
 90
3
 70
0
 10
-112.0017097504
 20
15.3151805255
 10
-112.0016607455
 20
15.3148504447
 10
-112.0016100441
 20
15.3144981431
  0
LINE
  5
44F
100
AcDbEntity
  8
IMPORT_IGES
100
AcDbLine
 62
7
  6
CONTINUOUS
 10
-85.6891719637
 20
-3.6626501024
 11
-88.0485006136
 21
-3.6214678676
  0
LWPOLYLINE
  5
450
100
AcDbEntity
  8
IMPORT_IGES
100
AcDbPolyline
 62
7
  6
CONTINUOUS
 90
3
 70
0
 10
-112.0028870919
 20
15.3199177918
 10
-112.0028737375
 20
15.3198909182
 10
-112.0028602138
 20
15.3198474916
  0
LINE
  5
451
100
AcDbEntity
  8
IMPORT_IGES
100
AcDbLine
 62
7
  6
CONTINUOUS
 10
-112.0027910178
 20
15.3195711771
 11
-112.0027771435
 21
15.3195377209
  0
LINE
  5
452
100
AcDbEntity
  8
IMPORT_IGES
100
AcDbLine
 62
7
  6
CONTINUOUS
 10
-112.002952025
 20
4.8323902983
 11
-112.0026920909
 21
4.8323126908
  0
LWPOLYLINE
  5
453
100
AcDbEntity
  8
IMPORT_IGES
100
AcDbPolyline
 62
7
  6
CONTINUOUS
 90
13
 70
0
 10
-112.0026258675
 20
15.3194012635
 10
-112.0026077852
 20
15.3193733861
 10
-112.0025890236
 20
15.3193388101
 10
-112.0025695831
 20
15.3192979297
 10
-112.002549456
 20
15.3192502285
 10
-112.0025286363
 20
15.3191955787
 10
-112.0025071149
 20
15.319134108
 10
-112.0024848795
 20
15.3190656831
 10
-112.0024619301
 20
15.318990153
 10
-112.0024382502
 20
15.3189076687
 10
-112.0024138012
 20
15.3188185495
 10
-112.0023885962
 20
15.3187229117
 10
-112.0023626036
 20
15.3186206391
  0
LINE
  5
454
100
AcDbEntity
  8
IMPORT_IGES
100
AcDbLine
 62
7
  6
CONTINUOUS
 10
-96.5254002802
 20
-35.9168295741
 11
-96.5254002802
 21
-39.9168295741
  0
LINE
  5
455
100
AcDbEntity
  8
IMPORT_IGES
100
AcDbLine
 62
7
  6
CONTINUOUS
 10
-94.7050367101
 20
53.5760263011
 11
-94.7050366408
 21
-27.9168295741
  0
LINE
  5
456
100
AcDbEntity
  8
IMPORT_IGES
100
AcDbLine
 62
7
  6
CONTINUOUS
 10
-96.9713218755
 20
-28.5919572702
 11
-97.0086566682
 21
-31.7064866936
  0
LINE
  5
457
100
AcDbEntity
  8
IMPORT_IGES
100
AcDbLine
 62
7
  6
CONTINUOUS
 10
-96.9713219868
 20
-28.5919572701
 11
-96.9596336299
 21
-27.9168295829
  0
LINE
  5
458
100
AcDbEntity
  8
IMPORT_IGES
100
AcDbLine
 62
7
  6
CONTINUOUS
 10
-97.9595011915
 20
-28.8993796537
 11
-98.4049098107
 21
-54.4168295495
  0
LINE
  5
459
100
AcDbEntity
  8
IMPORT_IGES
100
AcDbLine
 62
250
  6
CONTINUOUS
 10
-97.405047855
 20
-54.4168294517
 11
-97.0086515516
 21
-31.7064867554
  0
LINE
  5
45A
100
AcDbEntity
  8
IMPORT_IGES
100
AcDbLine
 62
7
  6
CONTINUOUS
 10
-96.6515828776
 20
-39.9168295741
 11
-96.5800171114
 21
-35.8168295741
  0
LINE
  5
45B
100
AcDbEntity
  8
IMPORT_IGES
100
AcDbLine
 62
7
  6
CONTINUOUS
 10
-88.0484791973
 20
2.7735241627
 11
-85.6891719637
 21
2.8147060236
  0
LINE
  5
45C
100
AcDbEntity
  8
IMPORT_IGES
100
AcDbLine
 62
250
  6
CONTINUOUS
 10
-92.4661671873
 20
53.3070309374
 11
-92.4647934364
 21
53.2169251289
  0
LINE
  5
45D
100
AcDbEntity
  8
IMPORT_IGES
100
AcDbLine
 62
250
  6
CONTINUOUS
 10
-92.5333401825
 20
53.4176071217
 11
-92.5326931354
 21
53.3481105564
  0
LINE
  5
45E
100
AcDbEntity
  8
IMPORT_IGES
100
AcDbLine
 62
250
  6
CONTINUOUS
 10
-92.4647934364
 20
53.2169251289
 11
-92.4640034655
 21
53.1143109924
  0
LINE
  5
45F
100
AcDbEntity
  8
IMPORT_IGES
100
AcDbLine
 62
250
  6
CONTINUOUS
 10
-92.5326931354
 20
53.3481105564
 11
-92.5324408292
 21
53.2646293427
  0
LINE
  5
460
100
AcDbEntity
  8
IMPORT_IGES
100
AcDbLine
 62
7
  6
CONTINUOUS
 10
-94.2050367346
 20
-27.9168295741
 11
-94.2050367101
 21
53.5760279604
  0
LINE
  5
461
100
AcDbEntity
  8
IMPORT_IGES
100
AcDbLine
 62
7
  6
CONTINUOUS
 10
-93.9701063109
 20
-36.9168295741
 11
-93.9701063109
 21
-35.9168295741
  0
LINE
  5
462
100
AcDbEntity
  8
IMPORT_IGES
100
AcDbLine
 62
250
  6
CONTINUOUS
 10
-92.5396653568
 20
52.5469241953
 11
-92.5396653568
 21
-27.9168295741
  0
LINE
  5
463
100
AcDbEntity
  8
IMPORT_IGES
100
AcDbLine
 62
250
  6
CONTINUOUS
 10
-92.468289302
 20
52.546254547
 11
-92.4682888337
 21
-27.9168295741
  0
LINE
  5
464
100
AcDbEntity
  8
IMPORT_IGES
100
AcDbLine
 62
250
  6
CONTINUOUS
 10
-92.4640034655
 20
53.1143109924
 11
-92.4638330991
 21
53.0001176327
  0
LINE
  5
465
100
AcDbEntity
  8
IMPORT_IGES
100
AcDbLine
 62
7
  6
CONTINUOUS
 10
-91.9050367101
 20
53.7859193933
 11
-91.9050367101
 21
53.5358813113
  0
LINE
  5
466
100
AcDbEntity
  8
IMPORT_IGES
100
AcDbLine
 62
7
  6
CONTINUOUS
 10
-91.70503671
 20
54.8760279606
 11
-91.70503671
 21
54.0760279606
  0
LINE
  5
467
100
AcDbEntity
  8
IMPORT_IGES
100
AcDbLine
 62
250
  6
CONTINUOUS
 10
-92.5324408292
 20
53.2646293427
 11
-92.5328404119
 21
53.115299204
  0
LINE
  5
468
100
AcDbEntity
  8
IMPORT_IGES
100
AcDbLine
 62
250
  6
CONTINUOUS
 10
-92.4638330991
 20
53.0001176327
 11
-92.4643106094
 21
52.8766296172
  0
LINE
  5
469
100
AcDbEntity
  8
IMPORT_IGES
100
AcDbLine
 62
250
  6
CONTINUOUS
 10
-92.5328404119
 20
53.115299204
 11
-92.5342078659
 21
52.9403455684
  0
LINE
  5
46A
100
AcDbEntity
  8
IMPORT_IGES
100
AcDbLine
 62
250
  6
CONTINUOUS
 10
-92.4643106094
 20
52.8766296172
 11
-92.4654407377
 21
52.7464245616
  0
LINE
  5
46B
100
AcDbEntity
  8
IMPORT_IGES
100
AcDbLine
 62
250
  6
CONTINUOUS
 10
-92.5342078659
 20
52.9403455684
 11
-92.5374850905
 21
52.6809137057
  0
LINE
  5
46C
100
AcDbEntity
  8
IMPORT_IGES
100
AcDbLine
 62
250
  6
CONTINUOUS
 10
-92.4654407377
 20
52.7464245616
 11
-92.4682904994
 21
52.5461858838
  0
LINE
  5
46D
100
AcDbEntity
  8
IMPORT_IGES
100
AcDbLine
 62
250
  6
CONTINUOUS
 10
-92.5374850905
 20
52.6809137057
 11
-92.5396650314
 21
52.5469241953
  0
LINE
  5
46E
100
AcDbEntity
  8
IMPORT_IGES
100
AcDbLine
 62
7
  6
CONTINUOUS
 10
-112.002952025
 20
4.8323902983
 11
-112.0050367101
 21
4.8323902983
  0
LINE
  5
46F
100
AcDbEntity
  8
IMPORT_IGES
100
AcDbLine
 62
250
  6
CONTINUOUS
 10
-112.4050367101
 20
7.0672882483
 11
-111.9519494619
 21
7.0672997481
  0
LWPOLYLINE
  5
470
100
AcDbEntity
  8
IMPORT_IGES
100
AcDbPolyline
 62
250
  6
CONTINUOUS
 90
25
 70
0
 10
-85.9690885641
 20
-29.5652670541
 10
-85.9723072622
 20
-29.5011445649
 10
-85.9797071269
 20
-29.4373839358
 10
-85.991253905
 20
-29.3742522883
 10
-86.00689542
 20
-29.3120168076
 10
-86.0265633067
 20
-29.2509344725
 10
-86.0501746
 20
-29.1912513663
 10
-86.0776287277
 20
-29.1332152897
 10
-86.1088087801
 20
-29.0770697639
 10
-86.1435853476
 20
-29.0230446526
 10
-86.1818119561
 20
-28.9713655514
 10
-86.2233279043
 20
-28.9222479404
 10
-86.2679626101
 20
-28.8758928287
 10
-86.3155293533
 20
-28.8324941378
 10
-86.3658291973
 20
-28.7922333769
 10
-86.4186563704
 20
-28.7552759358
 10
-86.4737906431
 20
-28.7217772137
 10
-86.5310017415
 20
-28.6918783954
 10
-86.5900553721
 20
-28.6657036724
 10
-86.6507081414
 20
-28.6433635925
 10
-86.7127039069
 20
-28.6249548789
 10
-86.7757791531
 20
-28.6105571132
 10
-86.8396683694
 20
-28.600231845
 10
-86.90410543
 20
-28.5940232373
 10
-86.9688203506
 20
-28.5919584776
  0
LINE
  5
471
100
AcDbEntity
  8
IMPORT_IGES
100
AcDbLine
 62
7
  6
CONTINUOUS
 10
-87.3601955104
 20
-35.8168295741
 11
-87.2886297442
 21
-39.9168295741
  0
LINE
  5
472
100
AcDbEntity
  8
IMPORT_IGES
100
AcDbLine
 62
250
  6
CONTINUOUS
 10
-86.931558161
 20
-31.706486805
 11
-86.5351619338
 21
-54.416829476
  0
LINE
  5
473
100
AcDbEntity
  8
IMPORT_IGES
100
AcDbLine
 62
7
  6
CONTINUOUS
 10
-86.9805789899
 20
-27.9168295741
 11
-86.9688892717
 21
-28.5919564762
  0
LINE
  5
474
100
AcDbEntity
  8
IMPORT_IGES
100
AcDbLine
 62
7
  6
CONTINUOUS
 10
-86.9688850769
 20
-28.5919568725
 11
-86.931558159
 21
-31.7064868544
  0
LINE
  5
475
100
AcDbEntity
  8
IMPORT_IGES
100
AcDbLine
 62
7
  6
CONTINUOUS
 10
-90.6762509744
 20
53.5144327765
 11
-90.6762509744
 21
53.5760279606
  0
LINE
  5
476
100
AcDbEntity
  8
IMPORT_IGES
100
AcDbLine
 62
7
  6
CONTINUOUS
 10
-90.5050367101
 20
-1.1220743782
 11
-90.5050367101
 21
0.2740996056
  0
LINE
  5
477
100
AcDbEntity
  8
IMPORT_IGES
100
AcDbLine
 62
7
  6
CONTINUOUS
 10
-89.9701063109
 20
-35.9168295741
 11
-89.9701063109
 21
-36.9168295741
  0
LINE
  5
478
100
AcDbEntity
  8
IMPORT_IGES
100
AcDbLine
 62
7
  6
CONTINUOUS
 10
-88.505036712
 20
53.5760279606
 11
-88.505036712
 21
53.4765340905
  0
LINE
  5
479
100
AcDbEntity
  8
IMPORT_IGES
100
AcDbLine
 62
7
  6
CONTINUOUS
 10
-87.5050367102
 20
54.0760279606
 11
-87.5050367102
 21
54.8760279606
  0
LINE
  5
47A
100
AcDbEntity
  8
IMPORT_IGES
100
AcDbLine
 62
7
  6
CONTINUOUS
 10
-87.4148123416
 20
-39.9168295741
 11
-87.4148123416
 21
-35.9168295741
  0
LWPOLYLINE
  5
47B
100
AcDbEntity
  8
IMPORT_IGES
100
AcDbPolyline
 62
7
  6
CONTINUOUS
 90
8
 70
0
 10
-85.9899472964
 20
53.3295162991
 10
-85.9906817415
 20
53.3565205884
 10
-85.9914802837
 20
53.3795770567
 10
-85.9923370791
 20
53.3985853866
 10
-85.9932551885
 20
53.4134636021
 10
-85.9942305017
 20
53.4241456254
 10
-85.9952517424
 20
53.43058256
 10
-85.9963105924
 20
53.4327441132
  0
LINE
  5
47C
100
AcDbEntity
  8
IMPORT_IGES
100
AcDbLine
 62
7
  6
CONTINUOUS
 10
-85.535302811
 20
-54.4168295544
 11
-85.9807115948
 21
-28.899377425
  0
LINE
  5
47D
100
AcDbEntity
  8
IMPORT_IGES
100
AcDbLine
 62
7
  6
CONTINUOUS
 10
-85.9886883325
 20
53.2641462829
 11
-85.9899472964
 21
53.3295162991
  0
LINE
  5
47E
100
AcDbEntity
  8
IMPORT_IGES
100
AcDbLine
 62
7
  6
CONTINUOUS
 10
-85.9877201448
 20
53.1845847941
 11
-85.9886883325
 21
53.2641462829
  0
LINE
  5
47F
100
AcDbEntity
  8
IMPORT_IGES
100
AcDbLine
 62
7
  6
CONTINUOUS
 10
-85.9868491758
 20
53.0416528066
 11
-85.9877201448
 21
53.1845847941
  0
LINE
  5
480
100
AcDbEntity
  8
IMPORT_IGES
100
AcDbLine
 62
250
  6
CONTINUOUS
 10
-85.9891731292
 20
-28.7892048255
 11
-85.9891732241
 21
-3.6574135609
  0
LINE
  5
481
100
AcDbEntity
  8
IMPORT_IGES
100
AcDbLine
 62
250
  6
CONTINUOUS
 10
-85.989173223
 20
2.8094694821
 11
-85.9891732223
 21
52.4330237872
  0
LINE
  5
482
100
AcDbEntity
  8
IMPORT_IGES
100
AcDbLine
 62
7
  6
CONTINUOUS
 10
-85.6891719637
 20
2.8147060236
 11
-85.6891719637
 21
-3.6626501024
  0
LINE
  5
483
100
AcDbEntity
  8
IMPORT_IGES
100
AcDbLine
 62
7
  6
CONTINUOUS
 10
-85.5050367101
 20
52.9328192109
 11
-85.5050367101
 21
-53.7807617969
  0
LINE
  5
484
100
AcDbEntity
  8
IMPORT_IGES
100
AcDbLine
 62
7
  6
CONTINUOUS
 10
-85.9867041874
 20
52.8753290118
 11
-85.9868491758
 21
53.0416528066
  0
LINE
  5
485
100
AcDbEntity
  8
IMPORT_IGES
100
AcDbLine
 62
7
  6
CONTINUOUS
 10
-85.9876477329
 20
52.6282161424
 11
-85.9867041874
 21
52.8753290118
  0
LINE
  5
486
100
AcDbEntity
  8
IMPORT_IGES
100
AcDbLine
 62
7
  6
CONTINUOUS
 10
-85.9891732817
 20
52.4330237879
 11
-85.9876477329
 21
52.6282161424
  0
LWPOLYLINE
  5
487
100
AcDbEntity
  8
IMPORT_IGES
100
AcDbPolyline
 62
250
  6
CONTINUOUS
 90
6
 70
0
 10
-112.4048868964
 20
13.0847660006
 10
-112.404933038
 20
13.084763056
 10
-112.4049705938
 20
13.0847603733
 10
-112.4049996503
 20
13.0847669145
 10
-112.4050326198
 20
13.084813644
 10
-112.4050367101
 20
13.0848508448
  0
LINE
  5
488
100
AcDbEntity
  8
IMPORT_IGES
100
AcDbLine
 62
250
  6
CONTINUOUS
 10
-112.4046960807
 20
13.0847674433
 11
-112.4047685061
 21
13.0847667005
  0
LINE
  5
489
100
AcDbEntity
  8
IMPORT_IGES
100
AcDbLine
 62
250
  6
CONTINUOUS
 10
-111.9519500562
 20
13.0847529205
 11
-112.4046960807
 21
13.0847674433
  0
LINE
  5
48A
100
AcDbEntity
  8
IMPORT_IGES
100
AcDbLine
 62
7
  6
CONTINUOUS
 10
-96.5254002802
 20
-39.6770219521
 11
-96.6515828776
 21
-39.9168295741
  0
LWPOLYLINE
  5
48B
100
AcDbEntity
  8
0
100
AcDbPolyline
 62
7
  6
CONTINUOUS
 90
3
 70
0
 43
0.3500000006
 10
-91.2558240967
 20
-64.0744239349
 10
-91.3272462158
 20
-64.2887084198
 10
-91.4701085815
 20
-64.5744240875
  0
LWPOLYLINE
  5
48C
100
AcDbEntity
  8
IMPORT_IGES
100
AcDbPolyline
 62
250
  6
CONTINUOUS
 90
9
 70
0
 10
-92.5396633293
 20
53.5469587601
 10
-92.5385602299
 20
53.5448008853
 10
-92.5375414313
 20
53.5384187315
 10
-92.5366100255
 20
53.5279030705
 10
-92.5357688976
 20
53.5133662491
 10
-92.5350198936
 20
53.4949275695
 10
-92.5343641165
 20
53.472699363
 10
-92.5338044759
 20
53.4468940824
 10
-92.5333401825
 20
53.4176071217
  0
LWPOLYLINE
  5
48D
100
AcDbEntity
  8
0
100
AcDbPolyline
 62
7
  6
CONTINUOUS
 90
10
 70
0
 43
0.3500000006
 10
-97.6836063538
 20
64.6434028931
 10
-97.6121751709
 20
64.5005495911
 10
-97.6121751709
 20
64.4291184082
 10
-97.7550375366
 20
64.2862651062
 10
-97.8264687195
 20
64.2862651062
 10
-97.8978908386
 20
64.3576872253
 10
-97.8978908386
 20
64.4291184082
 10
-97.8264687195
 20
64.5719717102
 10
-97.7550375366
 20
64.6434028931
 10
-97.6836063538
 20
64.6434028931
  0
LWPOLYLINE
  5
48E
100
AcDbEntity
  8
IMPORT_IGES
100
AcDbPolyline
 62
250
  6
CONTINUOUS
 90
12
 70
0
 10
-92.4825652314
 20
53.5459621091
 10
-92.480529897
 20
53.5437893198
 10
-92.4785874514
 20
53.5373946938
 10
-92.476744805
 20
53.5268689765
 10
-92.4750088035
 20
53.5123244817
 10
-92.4733844988
 20
53.4938804388
 10
-92.4718754895
 20
53.4716490512
 10
-92.4704900876
 20
53.4458425394
 10
-92.4692282272
 20
53.4165562547
 10
-92.468083631
 20
53.3836381199
 10
-92.4670601681
 20
53.3470679822
 10
-92.4661671873
 20
53.3070309374
  0
LWPOLYLINE
  5
48F
100
AcDbEntity
  8
0
100
AcDbPolyline
 62
7
  6
CONTINUOUS
 90
3
 70
0
 43
0.3500000006
 10
-96.041532074
 20
-62.2172811584
 10
-95.1843941345
 20
-61.3601386871
 10
-95.1843941345
 20
-64.3601350708
  0
LWPOLYLINE
  5
490
100
AcDbEntity
  8
0
100
AcDbPolyline
 62
7
  6
CONTINUOUS
 90
10
 70
0
 43
0.3500000006
 10
-89.8272457581
 20
-64.3601350708
 10
-88.9701078186
 20
-63.5029925995
 10
-88.7558233337
 20
-62.6458501282
 10
-88.7558233337
 20
-61.7887076569
 10
-89.1843923035
 20
-61.3601386871
 10
-89.8272457581
 20
-61.3601386871
 10
-90.2558237915
 20
-61.7887076569
 10
-90.2558237915
 20
-62.6458501282
 10
-89.8272457581
 20
-63.0744236298
 10
-88.8986766357
 20
-63.0744236298
  0
LWPOLYLINE
  5
491
100
AcDbEntity
  8
IMPORT_IGES
100
AcDbPolyline
 62
7
  6
CONTINUOUS
 90
5
 70
0
 10
-111.3299075038
 20
52.2980315409
 10
-111.3189669392
 20
52.2992089949
 10
-111.3063058044
 20
52.3001889724
 10
-111.2919242446
 20
52.3009714735
 10
-111.2758234369
 20
52.3014874534
  0
LWPOLYLINE
  5
492
100
AcDbEntity
  8
IMPORT_IGES
100
AcDbPolyline
 62
7
  6
CONTINUOUS
 90
25
 70
0
 10
-110.3566209645
 20
53.3028285412
 10
-110.420850305
 20
53.2996004829
 10
-110.4847198536
 20
53.2921757198
 10
-110.5479609867
 20
53.2805885021
 10
-110.6103063186
 20
53.2648910043
 10
-110.6714960486
 20
53.2451519362
 10
-110.7312787369
 20
53.2214552194
 10
-110.7894039427
 20
53.1939023987
 10
-110.8456281529
 20
53.1626110992
 10
-110.8997202864
 20
53.127711713
 10
-110.9514535832
 20
53.0893518315
 10
-111.0006115655
 20
53.04769332
 10
-111.0469923752
 20
53.0029079369
 10
-111.0904012722
 20
52.9551837078
 10
-111.1306559763
 20
52.9047210155
 10
-111.1675904678
 20
52.8517271137
 10
-111.2010488386
 20
52.7964237912
 10
-111.2308895479
 20
52.7390428918
 10
-111.2569881801
 20
52.6798202732
 10
-111.2792331685
 20
52.6190040288
 10
-111.2975291084
 20
52.5568490348
 10
-111.311798096
 20
52.4936109018
 10
-111.3219773346
 20
52.4295532529
 10
-111.3280205092
 20
52.3649469385
 10
-111.3298991187
 20
52.3000637544
  0
LINE
  5
493
100
AcDbEntity
  8
IMPORT_IGES
100
AcDbLine
 62
250
  6
CONTINUOUS
 10
-94.7050366408
 20
51.3674326752
 11
-94.2050367446
 21
51.3761602059
  0
LINE
  5
494
100
AcDbEntity
  8
IMPORT_IGES
100
AcDbLine
 62
7
  6
CONTINUOUS
 10
-94.2050367134
 20
52.3760127277
 11
-94.7050366408
 21
52.3672851965
  0
LINE
  5
495
100
AcDbEntity
  8
IMPORT_IGES
100
AcDbLine
 62
250
  6
CONTINUOUS
 10
-108.2153939293
 20
52.3401958107
 11
-94.7050366408
 21
52.5761768121
  0
LINE
  5
496
100
AcDbEntity
  8
IMPORT_IGES
100
AcDbLine
 62
7
  6
CONTINUOUS
 10
-94.705036715
 20
53.5760279605
 11
-111.0224879887
 21
53.2912057888
  0
LINE
  5
497
100
AcDbEntity
  8
IMPORT_IGES
100
AcDbLine
 62
7
  6
CONTINUOUS
 10
-111.2758234369
 20
52.3014874534
 11
-110.8918137967
 21
52.3077653387
  0
LINE
  5
498
100
AcDbEntity
  8
IMPORT_IGES
100
AcDbLine
 62
7
  6
CONTINUOUS
 10
-110.8918137967
 20
52.3077653387
 11
-109.3155789659
 21
52.3278287347
  0
LINE
  5
499
100
AcDbEntity
  8
IMPORT_IGES
100
AcDbLine
 62
7
  6
CONTINUOUS
 10
-109.3155789659
 20
52.3278287347
 11
-108.2153939293
 21
52.3401958107
  0
LINE
  5
49A
100
AcDbEntity
  8
IMPORT_IGES
100
AcDbLine
 62
7
  6
CONTINUOUS
 10
-111.3299075039
 20
52.2980315409
 11
-111.7048409929
 21
52.2959993007
  0
LINE
  5
49B
100
AcDbEntity
  8
IMPORT_IGES
100
AcDbLine
 62
250
  6
CONTINUOUS
 10
-85.989173223
 20
52.4330237872
 11
-85.5050367101
 21
52.4330022291
  0
LINE
  5
49C
100
AcDbEntity
  8
IMPORT_IGES
100
AcDbLine
 62
7
  6
CONTINUOUS
 10
-91.1853716559
 20
53.5760279606
 11
-88.0051004457
 21
53.5760279606
  0
LINE
  5
49D
100
AcDbEntity
  8
IMPORT_IGES
100
AcDbLine
 62
250
  6
CONTINUOUS
 10
-91.7049513557
 20
54.0760279606
 11
-87.5050367102
 21
54.0760279606
  0
LINE
  5
49E
100
AcDbEntity
  8
IMPORT_IGES
100
AcDbLine
 62
250
  6
CONTINUOUS
 10
-87.5050367102
 20
54.8760279606
 11
-91.70503671
 21
54.8760279606
  0
LINE
  5
49F
100
AcDbEntity
  8
IMPORT_IGES
100
AcDbLine
 62
7
  6
CONTINUOUS
 10
-88.0050680361
 20
55.3760279606
 11
-91.2050183698
 21
55.3760279606
  0
LWPOLYLINE
  5
4A0
100
AcDbEntity
  8
0
100
AcDbPolyline
 62
7
  6
CONTINUOUS
 90
8
 70
0
 43
0.3500000006
 10
-96.6121839294
 20
64.1434027405
 10
-95.7550369263
 20
64.1434027405
 10
-95.3264679565
 20
64.5719717102
 10
-95.3264679565
 20
65.4291187134
 10
-95.7550369263
 20
65.8576876831
 10
-96.6121839294
 20
65.8576876831
 10
-96.6121839294
 20
67.143403656
 10
-95.3264679565
 20
67.143403656
  0
LWPOLYLINE
  5
4A1
100
AcDbEntity
  8
0
100
AcDbPolyline
 62
7
  6
CONTINUOUS
 90
7
 70
0
 43
0.3500000006
 10
-101.5407542725
 20
64.1434027405
 10
-103.0407547302
 20
64.1434027405
 10
-101.5407542725
 20
66.2862566528
 10
-101.5407542725
 20
66.7148346863
 10
-101.9693232422
 20
67.143403656
 10
-102.6121766968
 20
67.143403656
 10
-103.0407547302
 20
66.5005502014
  0
LINE
  5
4A2
100
AcDbEntity
  8
IMPORT_IGES
100
AcDbLine
 62
7
  6
CONTINUOUS
 10
-111.7048409929
 20
52.2959993007
 11
-112.0050367101
 21
52.2960106761
  0
LINE
  5
4A3
100
AcDbEntity
  8
IMPORT_IGES
100
AcDbLine
 62
7
  6
CONTINUOUS
 10
-92.5160154242
 20
52.5466168829
 11
-92.5001705687
 21
52.546626502
  0
LWPOLYLINE
  5
4A4
100
AcDbEntity
  8
IMPORT_IGES
100
AcDbPolyline
 62
7
  6
CONTINUOUS
 90
5
 70
0
 10
-92.5001705687
 20
52.546626502
 10
-92.4922242701
 20
52.546609376
 10
-92.4842618285
 20
52.5465296911
 10
-92.4762833955
 20
52.5464114147
 10
-92.4682889937
 20
52.546254547
  0
LWPOLYLINE
  5
4A5
100
AcDbEntity
  8
IMPORT_IGES
100
AcDbPolyline
 62
7
  6
CONTINUOUS
 90
3
 70
0
 10
-92.5396653568
 20
52.5469241953
 10
-92.5317977728
 20
52.5467884461
 10
-92.5160154242
 20
52.5466168829
  0
LINE
  5
4A6
100
AcDbEntity
  8
IMPORT_IGES
100
AcDbLine
 62
250
  6
CONTINUOUS
 10
-92.468289302
 20
52.546254547
 11
-85.9891732223
 21
52.4330237872
  0
LINE
  5
4A7
100
AcDbEntity
  8
IMPORT_IGES
100
AcDbLine
 62
7
  6
CONTINUOUS
 10
-85.9963106081
 20
53.4327441135
 11
-94.2050366971
 21
53.5760279604
  0
LINE
  5
4A8
100
AcDbEntity
  8
IMPORT_IGES
100
AcDbLine
 62
7
  6
CONTINUOUS
 10
-91.9050367101
 20
53.7859193933
 11
-91.5926672497
 21
53.7804669641
  0
LINE
  5
4A9
100
AcDbEntity
  8
IMPORT_IGES
100
AcDbLine
 62
250
  6
CONTINUOUS
 10
-94.2050367189
 20
52.5761749555
 11
-92.5396653568
 21
52.5469241953
  0
LWPOLYLINE
  5
4AA
100
AcDbEntity
  8
IMPORT_IGES
100
AcDbPolyline
 62
7
  6
CONTINUOUS
 90
13
 70
0
 10
-91.1853712805
 20
53.5760279606
 10
-91.2254842004
 20
53.5776611209
 10
-91.2648235892
 20
53.5822606643
 10
-91.3033894469
 20
53.5898265907
 10
-91.3414018904
 20
53.600448397
 10
-91.3786408027
 20
53.6140365864
 10
-91.4144458331
 20
53.6303226685
 10
-91.4487885883
 20
53.6493538491
 10
-91.4816974615
 20
53.6710829225
 10
-91.5125972814
 20
53.6950997814
 10
-91.5412963242
 20
53.7212677234
 10
-91.5679863136
 20
53.749723451
 10
-91.5926672497
 20
53.7804669641
  0
ARC
  5
4AB
100
AcDbEntity
  8
IMPORT_IGES
100
AcDbCircle
 62
7
  6
CONTINUOUS
 10
23.955258263
 20
-100.8279391635
 40
72.9111095894
100
AcDbArc
 50
82.1968595269
 51
97.8031358775
  0
ARC
  5
4AC
100
AcDbEntity
  8
IMPORT_IGES
100
AcDbCircle
 62
7
  6
CONTINUOUS
 10
33.4199215764
 20
-31.7623258053
 40
3.2
100
AcDbArc
 50
0.9998461916
 51
82.1967612027
  0
ARC
  5
4AD
100
AcDbEntity
  8
IMPORT_IGES
100
AcDbCircle
 62
7
  6
CONTINUOUS
 10
14.4905949496
 20
-31.7623258053
 40
3.2
100
AcDbArc
 50
97.8031341642
 51
179.0001555678
  0
ARC
  5
4AE
100
AcDbEntity
  8
IMPORT_IGES
100
AcDbCircle
 62
7
  6
CONTINUOUS
 10
-25.1542264535
 20
7.032551098
 40
1.2001184872
100
AcDbArc
 50
180.0074776155
 51
269.9923214652
  0
ARC
  5
4AF
100
AcDbEntity
  8
IMPORT_IGES
100
AcDbCircle
 62
7
  6
CONTINUOUS
 10
-24.0672719682
 20
13.1195048232
 40
1.2001184872
100
AcDbArc
 50
0.0074776173
 51
89.9922527841
  0
ARC
  5
4B0
100
AcDbEntity
  8
IMPORT_IGES
100
AcDbCircle
 62
7
  6
CONTINUOUS
 10
-25.1542260738
 20
13.1195052035
 40
1.2001184868
100
AcDbArc
 50
90.0074683895
 51
179.9914098255
  0
ARC
  5
4B1
100
AcDbEntity
  8
IMPORT_IGES
100
AcDbCircle
 62
7
  6
CONTINUOUS
 10
-24.067272348
 20
7.0325507177
 40
1.2001184868
100
AcDbArc
 50
270.0074683398
 51
359.9913312413
  0
ARC
  5
4B2
100
AcDbEntity
  8
IMPORT_IGES
100
AcDbCircle
 62
7
  6
CONTINUOUS
 10
-23.0107492109
 20
54.8760279606
 40
0.5
100
AcDbArc
 50
0.0
 51
89.9998776743
  0
ARC
  5
4B3
100
AcDbEntity
  8
IMPORT_IGES
100
AcDbCircle
 62
7
  6
CONTINUOUS
 10
-26.2107492109
 20
54.8760279606
 40
0.5
100
AcDbArc
 50
90.0001223253
 51
179.9999999999
  0
ARC
  5
4B4
100
AcDbEntity
  8
IMPORT_IGES
100
AcDbCircle
 62
7
  6
CONTINUOUS
 10
-26.2107492109
 20
54.0760279606
 40
0.5
100
AcDbArc
 50
180.0000000001
 51
270.0049245271
  0
ARC
  5
4B5
100
AcDbEntity
  8
IMPORT_IGES
100
AcDbCircle
 62
7
  6
CONTINUOUS
 10
-23.0107492109
 20
54.0760279606
 40
0.5
100
AcDbArc
 50
269.9945665768
 51
360.0
  0
ARC
  5
4B6
100
AcDbEntity
  8
IMPORT_IGES
100
AcDbCircle
 62
7
  6
CONTINUOUS
 10
-91.9701063109
 20
-33.8168295741
 40
4.1
100
AcDbArc
 50
329.1827710652
 51
330.7968203921
  0
ARC
  5
4B7
100
AcDbEntity
  8
IMPORT_IGES
100
AcDbCircle
 62
7
  6
CONTINUOUS
 10
-91.9701063109
 20
-33.8168295741
 40
4.1
100
AcDbArc
 50
209.2027166575
 51
210.8180938751
  0
ARC
  5
4B8
100
AcDbEntity
  8
IMPORT_IGES
100
AcDbCircle
 62
7
  6
CONTINUOUS
 10
-88.0050367101
 20
-1.1218457128
 40
2.5
100
AcDbArc
 50
180.0052406257
 51
269.0038305219
  0
ARC
  5
4B9
100
AcDbEntity
  8
IMPORT_IGES
100
AcDbCircle
 62
7
  6
CONTINUOUS
 10
-88.0050367101
 20
0.273901634
 40
2.5
100
AcDbArc
 50
90.9956787081
 51
179.9954626705
  0
ARC
  5
4BA
100
AcDbEntity
  8
IMPORT_IGES
100
AcDbCircle
 62
7
  6
CONTINUOUS
 10
-111.0050355899
 20
-53.1393021785
 40
0.9999999942
100
AcDbArc
 50
180.2659190166
 51
269.1472274238
  0
ARC
  5
4BB
100
AcDbEntity
  8
IMPORT_IGES
100
AcDbCircle
 62
7
  6
CONTINUOUS
 10
-111.0050355818
 20
52.2913580996
 40
0.9999999941
100
AcDbArc
 50
90.852772726
 51
179.7340810031
  0
ARC
  5
4BC
100
AcDbEntity
  8
IMPORT_IGES
100
AcDbCircle
 62
7
  6
CONTINUOUS
 10
-86.9805591202
 20
-28.9168317005
 40
0.9999999889
100
AcDbArc
 50
1.000188295
 51
90.0025992942
  0
ARC
  5
4BD
100
AcDbEntity
  8
IMPORT_IGES
100
AcDbCircle
 62
7
  6
CONTINUOUS
 10
-96.9596535011
 20
-28.9168317007
 40
0.9999999889
100
AcDbArc
 50
89.9974007316
 51
178.9998116947
  0
ARC
  5
4BE
100
AcDbEntity
  8
IMPORT_IGES
100
AcDbCircle
 62
7
  6
CONTINUOUS
 10
-91.2050367101
 20
54.8760279606
 40
0.5
100
AcDbArc
 50
89.9994445723
 51
180.0000000001
  0
ARC
  5
4BF
100
AcDbEntity
  8
IMPORT_IGES
100
AcDbCircle
 62
7
  6
CONTINUOUS
 10
-88.0050367101
 20
54.8760279606
 40
0.5
100
AcDbArc
 50
0.0000284766
 51
90.000555366
  0
ARC
  5
4C0
100
AcDbEntity
  8
IMPORT_IGES
100
AcDbCircle
 62
7
  6
CONTINUOUS
 10
-91.2050367101
 20
54.0760279606
 40
0.5
100
AcDbArc
 50
180.0000284765
 51
216.1973399339
  0
ARC
  5
4C1
100
AcDbEntity
  8
IMPORT_IGES
100
AcDbCircle
 62
7
  6
CONTINUOUS
 10
-88.0050367101
 20
54.0760279606
 40
0.5
100
AcDbArc
 50
269.9995603014
 51
359.9999715236
  0
ARC
  5
4C2
100
AcDbEntity
  8
IMPORT_IGES
100
AcDbCircle
 62
7
  6
CONTINUOUS
 10
-111.9050367101
 20
6.5673765922
 40
0.5
100
AcDbArc
 50
180.0000874041
 51
263.6665718783
  0
ARC
  5
4C3
100
AcDbEntity
  8
IMPORT_IGES
100
AcDbCircle
 62
7
  6
CONTINUOUS
 10
-111.9050367755
 20
13.5847321332
 40
0.4999458725
100
AcDbArc
 50
96.3351503999
 51
180.0001638238
  0
ARC
  5
4C4
100
AcDbEntity
  8
IMPORT_IGES
100
AcDbCircle
 62
7
  6
CONTINUOUS
 10
-86.0050377609
 20
52.9328983497
 40
0.4999126526
100
AcDbArc
 50
359.9910536651
 51
88.9997444223
  0
ARC
  5
4C5
100
AcDbEntity
  8
IMPORT_IGES
100
AcDbCircle
 62
7
  6
CONTINUOUS
 10
-86.005037332
 20
-53.7808421481
 40
0.4999122926
100
AcDbArc
 50
337.6507230773
 51
0.0007298573
  0
ENDSEC
  0
SECTION
  2
OBJECTS
  0
DICTIONARY
  5
C
100
AcDbDictionary
280
0
281
1
  3
ACAD_GROUP
350
D
  3
ACAD_MLINESTYLE
350
17
  3
ACAD_LAYOUT
350
1A
  3
ACAD_PLOTSETTINGS
350
19
  3
ACAD_PLOTSTYLENAME
350
E
  0
DICTIONARY
  5
D
102
{ACAD_REACTORS
330
C
102
}
100
AcDbDictionary
280
0
281
1
  0
ACDBDICTIONARYWDFLT
  5
E
102
{ACAD_REACTORS
330
C
102
}
100
AcDbDictionary
281
1
  3
Normal
350
F
100
AcDbDictionaryWithDefault
340
F
  0
DICTIONARY
  5
17
102
{ACAD_REACTORS
330
C
102
}
100
AcDbDictionary
280
0
281
1
  3
Standard
350
18
  0
DICTIONARY
  5
19
102
{ACAD_REACTORS
330
C
102
}
100
AcDbDictionary
281
1
  0
DICTIONARY
  5
1A
102
{ACAD_REACTORS
330
C
102
}
100
AcDbDictionary
281
1
  3
Model
350
4C6
  3
Layout1
350
4C7
  0
ACDBPLACEHOLDER
  5
F
102
{ACAD_REACTORS
330
E
102
}
  0
MLINESTYLE
  5
18
102
{ACAD_REACTORS
330
17
102
}
100
AcDbMlineStyle
  2
STANDARD
 70
0
  3

 62
256
 51
90.0
 52
90.0
 71
2
 49
0.5
 62
256
  6
BYLAYER
 49
-0.5
 62
256
  6
BYLAYER
  0
LAYOUT
  5
4C6
102
{ACAD_REACTORS
330
1A
102
}
100
AcDbPlotSettings
  1

  2
none_device
  4
ISO_A4_(297.00_x_210.00_MM)
  6

 40
0.0
 41
0.0
 42
0.0
 43
0.0
 44
297.0
 45
210.0
 46
0.0
 47
0.0
 48
0.0
 49
0.0
140
0.0
141
0.0
142
1.0
143
1.0
 70
1024
 72
1
 73
0
 74
0
  7

 75
0
147
1.0
148
0.0
149
0.0
100
AcDbLayout
  1
Model
 70
0
 71
0
 10
0.0
 20
0.0
 11
297.0
 21
210.0
 12
0.0
 22
0.0
 32
0.0
 14
0.0
 24
0.0
 34
0.0
 15
0.0
 25
0.0
 35
0.0
146
0.0
 13
0.0
 23
0.0
 33
0.0
 16
1.0
 26
0.0
 36
0.0
 17
0.0
 27
1.0
 37
0.0
 76
0
330
28D
345
0
346
0
  0
LAYOUT
  5
4C7
102
{ACAD_REACTORS
330
1A
102
}
100
AcDbPlotSettings
  1

  2
none_device
  4
ISO_A4_(297.00_x_210.00_MM)
  6

 40
0.0
 41
0.0
 42
0.0
 43
0.0
 44
297.0
 45
210.0
 46
0.0
 47
0.0
 48
0.0
 49
0.0
140
0.0
141
0.0
142
1.0
143
1.0
 70
0
 72
1
 73
0
 74
0
  7

 75
0
147
1.0
148
0.0
149
0.0
100
AcDbLayout
  1
Layout1
 70
0
 71
1
 10
0.0
 20
0.0
 11
297.0
 21
210.0
 12
0.0
 22
0.0
 32
0.0
 14
0.0
 24
0.0
 34
0.0
 15
0.0
 25
0.0
 35
0.0
146
0.0
 13
0.0
 23
0.0
 33
0.0
 16
1.0
 26
0.0
 36
0.0
 17
0.0
 27
1.0
 37
0.0
 76
0
330
28E
345
0
346
0
  0
ENDSEC
  0
EOF
