  0
SECTION
  2
HEADER
  9
$ACADVER
  1
AC1024
  9
$DWGCODEPAGE
  3
ANSI_1252
  9
$EXTMAX
 10
297.0
 20
210.0
 30
0.0
  9
$EXTMIN
 10
0.0
 20
0.0
 30
0.0
  9
$LIMMIN
 10
0.0
 20
0.0
  9
$LIMMAX
 10
297.0
 20
210.0
  9
$VIEWCTR
 10
148.5
 20
105.0
  9
$VIEWSIZE
 40
210.0
  9
$CLAYER
  8
0
  9
$LTSCALE
 40
16.335
  9
$CELTYPE
  6
BYLAYER
  9
$DIMSCALE
 40
1.0
  9
$DIMASZ
 40
3.0
  9
$DIMEXO
 40
0.5
  9
$DIMDLI
 40
11.286
  9
$DIMEXE
 40
1.5
  9
$DIMCEN
 40
2.673
  9
$DIMLFAC
 40
1.0
  9
$DIMBLK
  1
_FILLED
  9
$DIMALT
 70
0
  9
$DIMALTF
 40
0.0393700787
  9
$DIMTXT
 40
3.0
  9
$DIMTOL
 70
1
  9
$DIMLIM
 70
0
  9
$DIMTFAC
 40
1.0
  9
$DIMTP
 40
0.01
  9
$DIMTM
 40
0.01
  9
$DIMGAP
 40
0.625
  9
$DIMDSEP
 70
44
  9
$AUNITS
 70
0
  9
$PDMODE
 70
3
  9
$PDSIZE
 40
3.0
  9
$HANDSEED
  5
75A
  9
$TILEMODE
 70
1
  9
$MEASUREMENT
 70
1
  9
$INSUNITS
 70
4
  0
ENDSEC
  0
SECTION
  2
CLASSES
  0
CLASS
  1
ACDBDICTIONARYWDFLT
  2
AcDbDictionaryWithDefault
  3
AutoCAD 2000
 90
0
 91
1
280
0
281
0
  0
CLASS
  1
ACDBPLACEHOLDER
  2
AcDbPlaceHolder
  3
AutoCAD 2000
 90
0
 91
1
280
0
281
0
  0
CLASS
  1
LAYOUT
  2
AcDbLayout
  3
AutoCAD 2000
 90
0
 91
0
280
0
281
0
  0
ENDSEC
  0
SECTION
  2
TABLES
  0
TABLE
  2
VPORT
  5
8
100
AcDbSymbolTable
 70
2
  0
VPORT
  5
1F4
100
AcDbSymbolTableRecord
100
AcDbViewportTableRecord
  2
*ACTIVE
 70
0
 10
0.0
 20
0.0
 11
1.0
 21
1.0
 12
148.5
 22
105.0
 13
0.0
 23
0.0
 14
1.0
 24
1.0
 15
0.0
 25
0.0
 16
0.0
 26
0.0
 36
1.0
 17
0.0
 27
0.0
 37
0.0
 40
210.0
 41
1.4142857143
 42
50.0
 43
0.0
 44
0.0
 50
0.0
 51
0.0
 71
0
 72
100
 73
1
 74
1
 75
0
 76
0
 77
0
 78
0
  0
ENDTAB
  0
TABLE
  2
LTYPE
  5
5
100
AcDbSymbolTable
 70
6
  0
LTYPE
  5
14
100
AcDbSymbolTableRecord
100
AcDbLinetypeTableRecord
  2
BYBLOCK
 70
0
  3

 72
65
 73
0
 40
0.0
  0
LTYPE
  5
15
100
AcDbSymbolTableRecord
100
AcDbLinetypeTableRecord
  2
BYLAYER
 70
0
  3

 72
65
 73
0
 40
0.0
  0
LTYPE
  5
16
100
AcDbSymbolTableRecord
100
AcDbLinetypeTableRecord
  2
CONTINUOUS
 70
64
  3
Solid line
 72
65
 73
0
 40
0.0
  0
LTYPE
  5
1F5
100
AcDbSymbolTableRecord
100
AcDbLinetypeTableRecord
  2
CENTER
 70
64
  3
____ _ ____ _ ____ _ ____ _ ____ _ ____ _ ____
 72
65
 73
4
 40
0.6
 49
0.375
 74
0
 49
-0.075
 74
0
 49
0.075
 74
0
 49
-0.075
 74
0
  0
LTYPE
  5
1F6
100
AcDbSymbolTableRecord
100
AcDbLinetypeTableRecord
  2
HIDDEN
 70
64
  3
- - - - - - - - - - - - - - - - - - - -
 72
65
 73
2
 40
0.2
 49
0.1
 74
0
 49
-0.1
 74
0
  0
LTYPE
  5
1F7
100
AcDbSymbolTableRecord
100
AcDbLinetypeTableRecord
  2
PHANTOM
 70
64
  3
_____ _ _ _____ _ _ _____ _ _ _____
 72
65
 73
6
 40
0.8
 49
0.45
 74
0
 49
-0.05
 74
0
 49
0.1
 74
0
 49
-0.05
 74
0
 49
0.1
 74
0
 49
-0.05
 74
0
  0
LTYPE
  5
1F8
100
AcDbSymbolTableRecord
100
AcDbLinetypeTableRecord
  2
DOT
 70
64
  3
. . . . . . . . . . . . . . . . . . . .
 72
65
 73
2
 40
0.2
 49
0.1
 74
0
 49
-0.1
 74
0
  0
LTYPE
  5
1F9
100
AcDbSymbolTableRecord
100
AcDbLinetypeTableRecord
  2
DASHED
 70
64
  3
- - - - - - - - - - - - - - - - - - - -
 72
65
 73
2
 40
0.2
 49
0.1
 74
0
 49
-0.1
 74
0
  0
ENDTAB
  0
TABLE
  2
LAYER
  5
2
100
AcDbSymbolTable
 70
36
  0
LAYER
  5
10
100
AcDbSymbolTableRecord
100
AcDbLayerTableRecord
  2
0
 70
0
 62
7
  6
CONTINUOUS
370
-3
390
F
  0
LAYER
  5
1FA
100
AcDbSymbolTableRecord
100
AcDbLayerTableRecord
  2
DEFAULT_1
 70
0
 62
7
  6
CENTER
370
-3
390
F
  0
LAYER
  5
1FB
100
AcDbSymbolTableRecord
100
AcDbLayerTableRecord
  2
DEFAULT_2
 70
0
 62
7
  6
HIDDEN
370
-3
390
F
  0
LAYER
  5
1FC
100
AcDbSymbolTableRecord
100
AcDbLayerTableRecord
  2
DEFAULT_3
 70
0
 62
7
  6
PHANTOM
370
-3
390
F
  0
LAYER
  5
1FD
100
AcDbSymbolTableRecord
100
AcDbLayerTableRecord
  2
43900897B0
 70
0
 62
7
  6
CONTINUOUS
370
-3
390
F
  0
LAYER
  5
1FE
100
AcDbSymbolTableRecord
100
AcDbLayerTableRecord
  2
ASSI
 70
0
 62
7
  6
CONTINUOUS
370
-3
390
F
  0
LAYER
  5
1FF
100
AcDbSymbolTableRecord
100
AcDbLayerTableRecord
  2
COLOR21
 70
0
 62
7
  6
CONTINUOUS
370
-3
390
F
  0
LAYER
  5
200
100
AcDbSymbolTableRecord
100
AcDbLayerTableRecord
  2
COLOR24
 70
0
 62
7
  6
CONTINUOUS
370
-3
390
F
  0
LAYER
  5
201
100
AcDbSymbolTableRecord
100
AcDbLayerTableRecord
  2
COLOR27
 70
0
 62
7
  6
CONTINUOUS
370
-3
390
F
  0
LAYER
  5
202
100
AcDbSymbolTableRecord
100
AcDbLayerTableRecord
  2
COLOR30
 70
0
 62
7
  6
CONTINUOUS
370
-3
390
F
  0
LAYER
  5
203
100
AcDbSymbolTableRecord
100
AcDbLayerTableRecord
  2
COORDINATE
 70
0
 62
7
  6
CONTINUOUS
370
-3
390
F
  0
LAYER
  5
204
100
AcDbSymbolTableRecord
100
AcDbLayerTableRecord
  2
COPY_PUBLISH
 70
0
 62
7
  6
CONTINUOUS
370
-3
390
F
  0
LAYER
  5
205
100
AcDbSymbolTableRecord
100
AcDbLayerTableRecord
  2
COSMETIC
 70
0
 62
7
  6
CONTINUOUS
370
-3
390
F
  0
LAYER
  5
206
100
AcDbSymbolTableRecord
100
AcDbLayerTableRecord
  2
COSMETICI
 70
0
 62
7
  6
CONTINUOUS
370
-3
390
F
  0
LAYER
  5
207
100
AcDbSymbolTableRecord
100
AcDbLayerTableRecord
  2
CURVE
 70
0
 62
7
  6
CONTINUOUS
370
-3
390
F
  0
LAYER
  5
208
100
AcDbSymbolTableRecord
100
AcDbLayerTableRecord
  2
DEMO_00131
 70
0
 62
7
  6
CONTINUOUS
370
-3
390
F
  0
LAYER
  5
209
100
AcDbSymbolTableRecord
100
AcDbLayerTableRecord
  2
DRAFT
 70
0
 62
7
  6
CONTINUOUS
370
-3
390
F
  0
LAYER
  5
20A
100
AcDbSymbolTableRecord
100
AcDbLayerTableRecord
  2
IMPORT_IGES
 70
0
 62
7
  6
CONTINUOUS
370
-3
390
F
  0
LAYER
  5
20B
100
AcDbSymbolTableRecord
100
AcDbLayerTableRecord
  2
INTF_1
 70
0
 62
7
  6
CONTINUOUS
370
-3
390
F
  0
LAYER
  5
20C
100
AcDbSymbolTableRecord
100
AcDbLayerTableRecord
  2
INTF_11
 70
0
 62
7
  6
CONTINUOUS
370
-3
390
F
  0
LAYER
  5
20D
100
AcDbSymbolTableRecord
100
AcDbLayerTableRecord
  2
INTF_2
 70
0
 62
7
  6
CONTINUOUS
370
-3
390
F
  0
LAYER
  5
20E
100
AcDbSymbolTableRecord
100
AcDbLayerTableRecord
  2
INTF_BLANK
 70
0
 62
7
  6
CONTINUOUS
370
-3
390
F
  0
LAYER
  5
20F
100
AcDbSymbolTableRecord
100
AcDbLayerTableRecord
  2
LOGO_RESIST-RESTYLING_10000
 70
0
 62
7
  6
CONTINUOUS
370
-3
390
F
  0
LAYER
  5
210
100
AcDbSymbolTableRecord
100
AcDbLayerTableRecord
  2
NOTE
 70
0
 62
7
  6
CONTINUOUS
370
-3
390
F
  0
LAYER
  5
211
100
AcDbSymbolTableRecord
100
AcDbLayerTableRecord
  2
PIANI
 70
0
 62
7
  6
CONTINUOUS
370
-3
390
F
  0
LAYER
  5
212
100
AcDbSymbolTableRecord
100
AcDbLayerTableRecord
  2
PIANI_RIFERIMENTO
 70
0
 62
7
  6
CONTINUOUS
370
-3
390
F
  0
LAYER
  5
213
100
AcDbSymbolTableRecord
100
AcDbLayerTableRecord
  2
PUNTI
 70
0
 62
7
  6
CONTINUOUS
370
-3
390
F
  0
LAYER
  5
214
100
AcDbSymbolTableRecord
100
AcDbLayerTableRecord
  2
RACCORDO
 70
0
 62
7
  6
CONTINUOUS
370
-3
390
F
  0
LAYER
  5
215
100
AcDbSymbolTableRecord
100
AcDbLayerTableRecord
  2
RGB____0____0____0__
 70
0
 62
7
  6
CONTINUOUS
370
-3
390
F
  0
LAYER
  5
216
100
AcDbSymbolTableRecord
100
AcDbLayerTableRecord
  2
SIMBOLI
 70
0
 62
7
  6
CONTINUOUS
370
-3
390
F
  0
LAYER
  5
217
100
AcDbSymbolTableRecord
100
AcDbLayerTableRecord
  2
SMUSSO
 70
0
 62
7
  6
CONTINUOUS
370
-3
390
F
  0
LAYER
  5
218
100
AcDbSymbolTableRecord
100
AcDbLayerTableRecord
  2
SNAPLINE
 70
0
 62
7
  6
CONTINUOUS
370
-3
390
F
  0
LAYER
  5
219
100
AcDbSymbolTableRecord
100
AcDbLayerTableRecord
  2
SUB_SMA_143000
 70
0
 62
7
  6
CONTINUOUS
370
-3
390
F
  0
LAYER
  5
21A
100
AcDbSymbolTableRecord
100
AcDbLayerTableRecord
  2
SUB_SMA_143000_1
 70
0
 62
7
  6
CONTINUOUS
370
-3
390
F
  0
LAYER
  5
21B
100
AcDbSymbolTableRecord
100
AcDbLayerTableRecord
  2
SUB_SMA_143000_2
 70
0
 62
7
  6
CONTINUOUS
370
-3
390
F
  0
LAYER
  5
21C
100
AcDbSymbolTableRecord
100
AcDbLayerTableRecord
  2
SUB_SMA_143000_3
 70
0
 62
7
  6
CONTINUOUS
370
-3
390
F
  0
LAYER
  5
21D
100
AcDbSymbolTableRecord
100
AcDbLayerTableRecord
  2
SUB_SMA_143000_4
 70
0
 62
7
  6
CONTINUOUS
370
-3
390
F
  0
LAYER
  5
21E
100
AcDbSymbolTableRecord
100
AcDbLayerTableRecord
  2
SUB_SMA_143000_5
 70
0
 62
7
  6
CONTINUOUS
370
-3
390
F
  0
LAYER
  5
21F
100
AcDbSymbolTableRecord
100
AcDbLayerTableRecord
  2
SUPERFICI
 70
0
 62
7
  6
CONTINUOUS
370
-3
390
F
  0
LAYER
  5
220
100
AcDbSymbolTableRecord
100
AcDbLayerTableRecord
  2
TRASH
 70
0
 62
7
  6
CONTINUOUS
370
-3
390
F
  0
LAYER
  5
221
100
AcDbSymbolTableRecord
100
AcDbLayerTableRecord
  2
VG_M_2P_VERT_P_5MM_10MM_H_15MM_
 70
0
 62
7
  6
CONTINUOUS
370
-3
390
F
  0
LAYER
  5
222
100
AcDbSymbolTableRecord
100
AcDbLayerTableRecord
  2
VG_M_2P_VERT_P_5MM_10MM_H_15M_1
 70
0
 62
7
  6
CONTINUOUS
370
-3
390
F
  0
LAYER
  5
223
100
AcDbSymbolTableRecord
100
AcDbLayerTableRecord
  2
VG_M_2P_VERT_P_5MM_10MM_H_15M_2
 70
0
 62
7
  6
CONTINUOUS
370
-3
390
F
  0
LAYER
  5
224
100
AcDbSymbolTableRecord
100
AcDbLayerTableRecord
  2
VG_M_2P_VERT_P_5MM_10MM_H_15M_3
 70
0
 62
7
  6
CONTINUOUS
370
-3
390
F
  0
LAYER
  5
225
100
AcDbSymbolTableRecord
100
AcDbLayerTableRecord
  2
___SHELL
 70
0
 62
7
  6
CONTINUOUS
370
-3
390
F
  0
ENDTAB
  0
TABLE
  2
STYLE
  5
3
100
AcDbSymbolTable
 70
1
  0
STYLE
  5
11
100
AcDbSymbolTableRecord
100
AcDbTextStyleTableRecord
  2
STANDARD
 70
0
 40
0.0
 41
0.8
 50
0.0
 71
0
 42
0.2
  3
txt
  4

  0
STYLE
  5
226
100
AcDbSymbolTableRecord
100
AcDbTextStyleTableRecord
  2
TEXTSTYLE_1
 70
0
 40
0.0
 41
0.8
 50
0.0
 71
0
 42
0.2
  3
gdt
  4

  0
ENDTAB
  0
TABLE
  2
VIEW
  5
6
100
AcDbSymbolTable
 70
0
  0
ENDTAB
  0
TABLE
  2
UCS
  5
7
100
AcDbSymbolTable
 70
0
  0
ENDTAB
  0
TABLE
  2
APPID
  5
9
100
AcDbSymbolTable
 70
1
  0
APPID
  5
227
100
AcDbSymbolTableRecord
100
AcDbRegAppTableRecord
  2
ACAD
 70
0
  0
ENDTAB
  0
TABLE
  2
BLOCK_RECORD
  5
1
100
AcDbSymbolTable
 70
0
  0
BLOCK_RECORD
  5
228
100
AcDbSymbolTableRecord
100
AcDbBlockTableRecord
  2
*Model_Space
  0
BLOCK_RECORD
  5
229
100
AcDbSymbolTableRecord
100
AcDbBlockTableRecord
  2
*Paper_Space
  0
BLOCK_RECORD
  5
22A
100
AcDbSymbolTableRecord
100
AcDbBlockTableRecord
  2
_FILLED
  0
BLOCK_RECORD
  5
22B
100
AcDbSymbolTableRecord
100
AcDbBlockTableRecord
  2
*D0
  0
BLOCK_RECORD
  5
22C
100
AcDbSymbolTableRecord
100
AcDbBlockTableRecord
  2
*D1
  0
BLOCK_RECORD
  5
22D
100
AcDbSymbolTableRecord
100
AcDbBlockTableRecord
  2
*D2
  0
BLOCK_RECORD
  5
22E
100
AcDbSymbolTableRecord
100
AcDbBlockTableRecord
  2
*D3
  0
ENDTAB
  0
TABLE
  2
DIMSTYLE
  5
A
100
AcDbSymbolTable
 70
1
100
AcDbDimStyleTable
 71
0
  0
DIMSTYLE
105
22F
100
AcDbSymbolTableRecord
100
AcDbDimStyleTableRecord
  2
STANDARD
 70
0
  3

  4

 40
1.0
 41
3.0
 42
0.5
 43
0.38
 44
1.5
 45
0.0
 46
0.0
 47
0.01
 48
0.01
140
3.0
141
0.09
142
0.0
143
25.4
144
1.0
145
0.0
146
1.0
147
0.625
 71
1.0
 72
0.0
 73
0
 74
0
 75
0
 76
0
 77
1
 78
8
 79
2
170
0
171
1
172
0
173
0
174
0
175
0
176
0
177
0
178
0
270
2
179
2
271
2
272
2
273
2
274
2
275
0
280
0
281
0
282
0
283
1
284
8
285
0
286
0
287
3
288
0
340
11
278
44
341
22A
342
22A
343
22A
344
22A
  0
DIMSTYLE
105
230
100
AcDbSymbolTableRecord
100
AcDbDimStyleTableRecord
  2
DIMSTYLE_1
 70
0
  3

  4

 40
1.0
 41
3.0
 42
0.5
 43
0.38
 44
1.5
 45
0.0
 46
0.0
 47
0.0
 48
0.0
140
3.0
141
0.09
142
0.0
143
25.4
144
1.0
145
0.0
146
1.0
147
0.75
 71
0.0
 72
0.0
 73
0
 74
0
 75
0
 76
0
 77
1
 78
8
 79
2
170
0
171
1
172
0
173
0
174
0
175
0
176
0
177
0
178
0
270
2
179
2
271
2
272
2
273
2
274
2
275
0
280
0
281
0
282
0
283
1
284
8
285
0
286
0
287
3
288
0
340
11
278
44
341
22A
342
22A
343
22A
344
22A
  0
ENDTAB
  0
ENDSEC
  0
SECTION
  2
BLOCKS
  0
BLOCK
  5
20
100
AcDbEntity
  8
0
100
AcDbBlockBegin
  2
*Model_Space
 70
0
 10
0.0
 20
0.0
 30
0.0
  3
*Model_Space
  1

  0
ENDBLK
  5
21
100
AcDbEntity
  8
0
100
AcDbBlockEnd
  0
BLOCK
  5
1C
100
AcDbEntity
  8
0
100
AcDbBlockBegin
  2
*Paper_Space
 70
0
 10
0.0
 20
0.0
 30
0.0
  3
*Paper_Space
  1

  0
ENDBLK
  5
1D
100
AcDbEntity
  8
0
100
AcDbBlockEnd
  0
BLOCK
  5
231
100
AcDbEntity
  8
0
100
AcDbBlockBegin
  2
_FILLED
 70
64
 10
0.0
 20
0.0
  3
_FILLED
  1

  0
SOLID
  5
232
100
AcDbEntity
  8
0
  6
BYBLOCK
 62
0
100
AcDbTrace
 10
0.0
 20
0.0
 11
-1.0
 21
0.3166666667
 12
-1.0
 22
-0.3166666667
 13
-1.0
 23
-0.3166666667
  0
ENDBLK
  5
233
100
AcDbEntity
  8
0
  6
BYBLOCK
 62
0
100
AcDbBlockEnd
  0
BLOCK
  5
234
100
AcDbEntity
  8
0
100
AcDbBlockBegin
 62
7
  6
CONTINUOUS
  2
*D0
 70
65
 10
0.0
 20
0.0
  3
*D0
  1

  0
LINE
  5
235
100
AcDbEntity
  8
0
100
AcDbLine
 62
7
  6
CONTINUOUS
 10
-14.2156490953
 20
12.4790779002
 11
-14.2156490953
 21
25.6818096838
  0
LINE
  5
236
100
AcDbEntity
  8
0
100
AcDbLine
 62
7
  6
CONTINUOUS
 10
13.7843509047
 20
12.4790779002
 11
13.7843509047
 21
25.6818096838
  0
LINE
  5
237
100
AcDbEntity
  8
0
100
AcDbLine
 62
7
  6
CONTINUOUS
 10
-14.2156490953
 20
24.1818096838
 11
-0.2156490953
 21
24.1818096838
  0
LINE
  5
238
100
AcDbEntity
  8
0
100
AcDbLine
 62
7
  6
CONTINUOUS
 10
13.7843509047
 20
24.1818096838
 11
-0.2156490953
 21
24.1818096838
  0
INSERT
  5
239
100
AcDbEntity
  8
0
100
AcDbBlockReference
 62
7
  6
CONTINUOUS
  2
_FILLED
 10
-14.2156490953
 20
24.1818096838
 41
3.0
 42
3.0
 43
3.0
 50
180.0
  0
INSERT
  5
23A
100
AcDbEntity
  8
0
100
AcDbBlockReference
 62
7
  6
CONTINUOUS
  2
_FILLED
 10
13.7843509047
 20
24.1818096838
 41
3.0
 42
3.0
 43
3.0
  0
ENDBLK
  5
23B
100
AcDbEntity
  8
0
  6
BYBLOCK
 62
0
100
AcDbBlockEnd
  0
BLOCK
  5
23C
100
AcDbEntity
  8
0
100
AcDbBlockBegin
 62
7
  6
CONTINUOUS
  2
*D1
 70
65
 10
0.0
 20
0.0
  3
*D1
  1

  0
LINE
  5
23D
100
AcDbEntity
  8
0
100
AcDbLine
 62
7
  6
CONTINUOUS
 10
10.7855692507
 20
16.1789560656
 11
23.3267479699
 21
16.1789560656
  0
LINE
  5
23E
100
AcDbEntity
  8
0
100
AcDbLine
 62
7
  6
CONTINUOUS
 10
10.7855692507
 20
-7.8210439344
 11
23.3267479699
 21
-7.8210439344
  0
LINE
  5
23F
100
AcDbEntity
  8
0
100
AcDbLine
 62
7
  6
CONTINUOUS
 10
21.8267479699
 20
16.1789560656
 11
21.8267479699
 21
4.1789560656
  0
LINE
  5
240
100
AcDbEntity
  8
0
100
AcDbLine
 62
7
  6
CONTINUOUS
 10
21.8267479699
 20
-7.8210439344
 11
21.8267479699
 21
4.1789560656
  0
INSERT
  5
241
100
AcDbEntity
  8
0
100
AcDbBlockReference
 62
7
  6
CONTINUOUS
  2
_FILLED
 10
21.8267479699
 20
16.1789560656
 41
3.0
 42
3.0
 43
3.0
 50
90.0
  0
INSERT
  5
242
100
AcDbEntity
  8
0
100
AcDbBlockReference
 62
7
  6
CONTINUOUS
  2
_FILLED
 10
21.8267479699
 20
-7.8210439344
 41
3.0
 42
3.0
 43
3.0
 50
270.0
  0
ENDBLK
  5
243
100
AcDbEntity
  8
0
  6
BYBLOCK
 62
0
100
AcDbBlockEnd
  0
BLOCK
  5
244
100
AcDbEntity
  8
0
100
AcDbBlockBegin
 62
7
  6
CONTINUOUS
  2
*D2
 70
65
 10
0.0
 20
0.0
  3
*D2
  1

  0
LINE
  5
245
100
AcDbEntity
  8
0
100
AcDbLine
 62
7
  6
CONTINUOUS
 10
1.98874271
 20
-16.5242173937
 11
33.340751632
 21
-16.5242173937
  0
LINE
  5
246
100
AcDbEntity
  8
0
100
AcDbLine
 62
7
  6
CONTINUOUS
 10
10.7855692507
 20
16.1789560656
 11
33.340751632
 21
16.1789560656
  0
LINE
  5
247
100
AcDbEntity
  8
0
100
AcDbLine
 62
7
  6
CONTINUOUS
 10
31.840751632
 20
-16.5242173937
 11
31.840751632
 21
-0.1726306641
  0
LINE
  5
248
100
AcDbEntity
  8
0
100
AcDbLine
 62
7
  6
CONTINUOUS
 10
31.840751632
 20
16.1789560656
 11
31.840751632
 21
-0.1726306641
  0
INSERT
  5
249
100
AcDbEntity
  8
0
100
AcDbBlockReference
 62
7
  6
CONTINUOUS
  2
_FILLED
 10
31.840751632
 20
-16.5242173937
 41
3.0
 42
3.0
 43
3.0
 50
270.0
  0
INSERT
  5
24A
100
AcDbEntity
  8
0
100
AcDbBlockReference
 62
7
  6
CONTINUOUS
  2
_FILLED
 10
31.840751632
 20
16.1789560656
 41
3.0
 42
3.0
 43
3.0
 50
90.0
  0
ENDBLK
  5
24B
100
AcDbEntity
  8
0
  6
BYBLOCK
 62
0
100
AcDbBlockEnd
  0
BLOCK
  5
24C
100
AcDbEntity
  8
0
100
AcDbBlockBegin
 62
7
  6
CONTINUOUS
  2
*D3
 70
65
 10
0.0
 20
0.0
  3
*D3
  1

  0
LINE
  5
24D
100
AcDbEntity
  8
0
100
AcDbLine
 62
7
  6
CONTINUOUS
 10
-37.8834112298
 20
14.381519795
 11
-37.8834112298
 21
25.7598240139
  0
LINE
  5
24E
100
AcDbEntity
  8
0
100
AcDbLine
 62
7
  6
CONTINUOUS
 10
-60.3834112298
 20
12.0511606113
 11
-60.3834112298
 21
25.7598240139
  0
LINE
  5
24F
100
AcDbEntity
  8
0
100
AcDbLine
 62
7
  6
CONTINUOUS
 10
-37.8834112298
 20
24.2598240139
 11
-49.1334112298
 21
24.2598240139
  0
LINE
  5
250
100
AcDbEntity
  8
0
100
AcDbLine
 62
7
  6
CONTINUOUS
 10
-60.3834112298
 20
24.2598240139
 11
-49.1334112298
 21
24.2598240139
  0
INSERT
  5
251
100
AcDbEntity
  8
0
100
AcDbBlockReference
 62
7
  6
CONTINUOUS
  2
_FILLED
 10
-37.8834112298
 20
24.2598240139
 41
3.0
 42
3.0
 43
3.0
  0
INSERT
  5
252
100
AcDbEntity
  8
0
100
AcDbBlockReference
 62
7
  6
CONTINUOUS
  2
_FILLED
 10
-60.3834112298
 20
24.2598240139
 41
3.0
 42
3.0
 43
3.0
 50
180.0
  0
ENDBLK
  5
253
100
AcDbEntity
  8
0
  6
BYBLOCK
 62
0
100
AcDbBlockEnd
  0
ENDSEC
  0
SECTION
  2
ENTITIES
  0
DIMENSION
  5
254
100
AcDbEntity
  8
0
100
AcDbDimension
 62
7
  6
CONTINUOUS
  2
*D0
 10
13.7843509047
 20
24.1818096838
 11
-2.5727919524
 21
24.1818096838
 70
160
 71
2
 72
2
 41
0.9
 42
28.0
  3
DIMSTYLE_1
100
AcDbAlignedDimension
 13
-14.2156490953
 23
11.9790779002
 14
13.7843509047
 24
11.9790779002
100
AcDbRotatedDimension
  0
DIMENSION
  5
255
100
AcDbEntity
  8
0
100
AcDbDimension
 62
7
  6
CONTINUOUS
  2
*D1
 10
21.8267479699
 20
-7.8210439344
 11
21.8267479699
 21
1.8218132085
 70
160
 71
2
 72
2
 41
0.9
 42
24.0
  3
DIMSTYLE_1
100
AcDbAlignedDimension
 13
10.2855692507
 23
16.1789560656
 14
10.2855692507
 24
-7.8210439344
 50
270.0
100
AcDbRotatedDimension
  0
DIMENSION
  5
256
100
AcDbEntity
  8
0
100
AcDbDimension
 62
7
  6
CONTINUOUS
  2
*D2
 10
31.840751632
 20
16.1789560656
 11
31.840751632
 21
-4.4583449498
 70
160
 71
2
 72
2
 41
0.9
 42
32.7031734593
  3
DIMSTYLE_1
100
AcDbAlignedDimension
 13
1.48874271
 23
-16.5242173937
 14
10.2855692507
 24
16.1789560656
 50
90.0
100
AcDbRotatedDimension
  0
DIMENSION
  5
257
100
AcDbEntity
  8
0
100
AcDbDimension
 62
7
  6
CONTINUOUS
  2
*D3
 10
-60.3834112298
 20
24.2598240139
 11
-53.4191255155
 21
24.2598240139
 70
160
 71
2
 72
2
 41
0.9
 42
22.5
  3
DIMSTYLE_1
100
AcDbAlignedDimension
 13
-37.8834112298
 23
13.881519795
 14
-60.3834112298
 24
11.5511606113
 50
180.0
100
AcDbRotatedDimension
  0
LWPOLYLINE
  5
258
100
AcDbEntity
  8
RACCORDO
100
AcDbPolyline
 62
250
  6
CONTINUOUS
 90
3
 70
0
 10
-10.9044850896
 20
11.8946598751
 10
-10.8670988414
 20
11.9152476238
 10
-10.8307706099
 20
11.9354937281
  0
LWPOLYLINE
  5
259
100
AcDbEntity
  8
ASSI
100
AcDbPolyline
 62
250
  6
CONTINUOUS
 90
3
 70
0
 10
-10.9044850896
 20
11.8946598751
 10
-10.8670988414
 20
11.9152476238
 10
-10.8307706099
 20
11.9354937281
  0
LINE
  5
25A
100
AcDbEntity
  8
RACCORDO
100
AcDbLine
 62
7
  6
CONTINUOUS
 10
-1.9200409005
 20
-16.5242173937
 11
1.48874271
 21
-16.5242173937
  0
LINE
  5
25B
100
AcDbEntity
  8
ASSI
100
AcDbLine
 62
7
  6
CONTINUOUS
 10
-1.9200409005
 20
-16.5242173937
 11
1.48874271
 21
-16.5242173937
  0
LWPOLYLINE
  5
25C
100
AcDbEntity
  8
RACCORDO
100
AcDbPolyline
 62
7
  6
CONTINUOUS
 90
13
 70
0
 10
-14.2156490953
 20
11.9789865266
 10
-14.2139413094
 20
12.0051023335
 10
-14.2088394121
 20
12.0307661528
 10
-14.2004321265
 20
12.055539285
 10
-14.1888652253
 20
12.078997604
 10
-14.174337413
 20
12.1007416483
 10
-14.1570956742
 20
12.1204026445
 10
-14.1374346779
 20
12.1376443834
 10
-14.1156906336
 20
12.1521721956
 10
-14.0922323147
 20
12.1637390969
 10
-14.0674591825
 20
12.1721463824
 10
-14.0417953632
 20
12.1772482798
 10
-14.0156795562
 20
12.1789560656
  0
LWPOLYLINE
  5
25D
100
AcDbEntity
  8
ASSI
100
AcDbPolyline
 62
7
  6
CONTINUOUS
 90
13
 70
0
 10
-14.2156490953
 20
11.9789865266
 10
-14.2139413094
 20
12.0051023335
 10
-14.2088394121
 20
12.0307661528
 10
-14.2004321265
 20
12.055539285
 10
-14.1888652253
 20
12.078997604
 10
-14.174337413
 20
12.1007416483
 10
-14.1570956742
 20
12.1204026445
 10
-14.1374346779
 20
12.1376443834
 10
-14.1156906336
 20
12.1521721956
 10
-14.0922323147
 20
12.1637390969
 10
-14.0674591825
 20
12.1721463824
 10
-14.0417953632
 20
12.1772482798
 10
-14.0156795562
 20
12.1789560656
  0
LWPOLYLINE
  5
25E
100
AcDbEntity
  8
RACCORDO
100
AcDbPolyline
 62
250
  6
CONTINUOUS
 90
13
 70
0
 10
-13.846543581
 20
11.609972386
 10
-13.844804491
 20
11.6360416275
 10
-13.8396804343
 20
11.6616655076
 10
-13.8312589493
 20
11.6864062731
 10
-13.8196839068
 20
11.709841258
 10
-13.8051530526
 20
11.7315701039
 10
-13.7879146287
 20
11.7512215997
 10
-13.7682631328
 20
11.7684600235
 10
-13.7465342869
 20
11.7829908775
 10
-13.7230993021
 20
11.7945659198
 10
-13.6983585367
 20
11.8029874047
 10
-13.6727346569
 20
11.8081114613
 10
-13.6466654156
 20
11.8098505514
  0
LWPOLYLINE
  5
25F
100
AcDbEntity
  8
ASSI
100
AcDbPolyline
 62
250
  6
CONTINUOUS
 90
13
 70
0
 10
-13.846543581
 20
11.609972386
 10
-13.844804491
 20
11.6360416275
 10
-13.8396804343
 20
11.6616655076
 10
-13.8312589493
 20
11.6864062731
 10
-13.8196839068
 20
11.709841258
 10
-13.8051530526
 20
11.7315701039
 10
-13.7879146287
 20
11.7512215997
 10
-13.7682631328
 20
11.7684600235
 10
-13.7465342869
 20
11.7829908775
 10
-13.7230993021
 20
11.7945659198
 10
-13.6983585367
 20
11.8029874047
 10
-13.6727346569
 20
11.8081114613
 10
-13.6466654156
 20
11.8098505514
  0
LWPOLYLINE
  5
260
100
AcDbEntity
  8
RACCORDO
100
AcDbPolyline
 62
250
  6
CONTINUOUS
 90
13
 70
0
 10
-11.910574358
 20
11.7492291078
 10
-11.9114657453
 20
11.7467037586
 10
-11.9123425526
 20
11.7409498419
 10
-11.9131904353
 20
11.7320614849
 10
-11.9139955206
 20
11.720184091
 10
-11.9147446377
 20
11.7055119651
 10
-11.9154255337
 20
11.6882851376
 10
-11.9160270645
 20
11.6687855826
 10
-11.916539394
 20
11.6473321765
 10
-11.9169541517
 20
11.6242753544
 10
-11.9172645478
 20
11.599992047
 10
-11.9174654919
 20
11.5748796461
 10
-11.9175536885
 20
11.5493489887
  0
LWPOLYLINE
  5
261
100
AcDbEntity
  8
ASSI
100
AcDbPolyline
 62
250
  6
CONTINUOUS
 90
13
 70
0
 10
-11.910574358
 20
11.7492291078
 10
-11.9114657453
 20
11.7467037586
 10
-11.9123425526
 20
11.7409498419
 10
-11.9131904353
 20
11.7320614849
 10
-11.9139955206
 20
11.720184091
 10
-11.9147446377
 20
11.7055119651
 10
-11.9154255337
 20
11.6882851376
 10
-11.9160270645
 20
11.6687855826
 10
-11.916539394
 20
11.6473321765
 10
-11.9169541517
 20
11.6242753544
 10
-11.9172645478
 20
11.599992047
 10
-11.9174654919
 20
11.5748796461
 10
-11.9175536885
 20
11.5493489887
  0
LINE
  5
262
100
AcDbEntity
  8
RACCORDO
100
AcDbLine
 62
7
  6
CONTINUOUS
 10
-12.8048222428
 20
9.089782918
 11
-12.7156490953
 21
9.1789560656
  0
LINE
  5
263
100
AcDbEntity
  8
ASSI
100
AcDbLine
 62
7
  6
CONTINUOUS
 10
-12.8048222428
 20
9.089782918
 11
-12.7156490953
 21
9.1789560656
  0
LINE
  5
264
100
AcDbEntity
  8
CURVE
100
AcDbLine
 62
7
  6
CONTINUOUS
 10
-8.2131642741
 20
13.3172344983
 11
-7.5823403049
 21
13.9480584675
  0
LINE
  5
265
100
AcDbEntity
  8
CURVE
100
AcDbLine
 62
7
  6
CONTINUOUS
 10
-8.6764633602
 20
12.0138925561
 11
-7.2748632793
 21
13.4154926371
  0
LINE
  5
266
100
AcDbEntity
  8
RACCORDO
100
AcDbLine
 62
7
  6
CONTINUOUS
 10
-14.2156490953
 20
9.1789560656
 11
-13.846543581
 21
9.3634525933
  0
LINE
  5
267
100
AcDbEntity
  8
ASSI
100
AcDbLine
 62
7
  6
CONTINUOUS
 10
-14.2156490953
 20
9.1789560656
 11
-13.846543581
 21
9.3634525933
  0
LWPOLYLINE
  5
268
100
AcDbEntity
  8
RACCORDO
100
AcDbPolyline
 62
250
  6
CONTINUOUS
 90
7
 70
0
 10
-11.1981280032
 20
11.742446447
 10
-11.152306879
 20
11.7647737707
 10
-11.1078009613
 20
11.786922434
 10
-11.06461025
 20
11.8088924367
 10
-11.022820475
 20
11.8307381069
 10
-10.9823459064
 20
11.8524051167
 10
-10.9044850896
 20
11.8946598751
  0
LWPOLYLINE
  5
269
100
AcDbEntity
  8
ASSI
100
AcDbPolyline
 62
250
  6
CONTINUOUS
 90
7
 70
0
 10
-11.1981280032
 20
11.742446447
 10
-11.152306879
 20
11.7647737707
 10
-11.1078009613
 20
11.786922434
 10
-11.06461025
 20
11.8088924367
 10
-11.022820475
 20
11.8307381069
 10
-10.9823459064
 20
11.8524051167
 10
-10.9044850896
 20
11.8946598751
  0
LINE
  5
26A
100
AcDbEntity
  8
RACCORDO
100
AcDbLine
 62
7
  6
CONTINUOUS
 10
-14.2156490953
 20
11.9790779002
 11
-14.2156490953
 21
9.1789560656
  0
LINE
  5
26B
100
AcDbEntity
  8
ASSI
100
AcDbLine
 62
7
  6
CONTINUOUS
 10
-14.2156490953
 20
11.9790779002
 11
-14.2156490953
 21
9.1789560656
  0
LINE
  5
26C
100
AcDbEntity
  8
RACCORDO
100
AcDbLine
 62
7
  6
CONTINUOUS
 10
-14.2156490953
 20
-0.8210439344
 11
-14.2156490953
 21
-3.621165769
  0
LINE
  5
26D
100
AcDbEntity
  8
ASSI
100
AcDbLine
 62
7
  6
CONTINUOUS
 10
-14.2156490953
 20
-0.8210439344
 11
-14.2156490953
 21
-3.621165769
  0
LINE
  5
26E
100
AcDbEntity
  8
RACCORDO
100
AcDbLine
 62
7
  6
CONTINUOUS
 10
-14.1179007317
 20
-0.2319469392
 11
-14.1179007317
 21
8.5898590704
  0
LINE
  5
26F
100
AcDbEntity
  8
ASSI
100
AcDbLine
 62
7
  6
CONTINUOUS
 10
-14.1179007317
 20
-0.2319469392
 11
-14.1179007317
 21
8.5898590704
  0
LINE
  5
270
100
AcDbEntity
  8
RACCORDO
100
AcDbLine
 62
250
  6
CONTINUOUS
 10
-13.846543581
 20
-1.0055404621
 11
-13.846543581
 21
-3.2520602548
  0
LINE
  5
271
100
AcDbEntity
  8
ASSI
100
AcDbLine
 62
250
  6
CONTINUOUS
 10
-13.846543581
 20
-1.0055404621
 11
-13.846543581
 21
-3.2520602548
  0
LINE
  5
272
100
AcDbEntity
  8
RACCORDO
100
AcDbLine
 62
250
  6
CONTINUOUS
 10
-13.8465506163
 20
11.6099794212
 11
-13.846543581
 21
9.3634525933
  0
LINE
  5
273
100
AcDbEntity
  8
ASSI
100
AcDbLine
 62
250
  6
CONTINUOUS
 10
-13.8465506163
 20
11.6099794212
 11
-13.846543581
 21
9.3634525933
  0
LINE
  5
274
100
AcDbEntity
  8
0
100
AcDbLine
 62
7
  6
CONTINUOUS
 10
-13.8380770034
 20
8.7737645983
 11
-13.8380770034
 21
-0.4158524671
  0
LINE
  5
275
100
AcDbEntity
  8
ASSI
100
AcDbLine
 62
7
  6
CONTINUOUS
 10
-13.8380770034
 20
8.7737645983
 11
-13.8380770034
 21
-0.4158524671
  0
LWPOLYLINE
  5
276
100
AcDbEntity
  8
RACCORDO
100
AcDbPolyline
 62
250
  6
CONTINUOUS
 90
13
 70
0
 10
-12.3296925549
 20
11.9928776907
 10
-12.3314316453
 20
11.9668084488
 10
-12.3365557023
 20
11.9411845685
 10
-12.3449771876
 20
11.9164438029
 10
-12.3565522302
 20
11.8930088178
 10
-12.3710830845
 20
11.8712799719
 10
-12.3883215085
 20
11.8516284761
 10
-12.4079730043
 20
11.8343900526
 10
-12.42970185
 20
11.8198591988
 10
-12.4531368345
 20
11.8082841567
 10
-12.4778775995
 20
11.7998626719
 10
-12.503501479
 20
11.7947386154
 10
-12.5295707199
 20
11.7929995253
  0
LWPOLYLINE
  5
277
100
AcDbEntity
  8
ASSI
100
AcDbPolyline
 62
250
  6
CONTINUOUS
 90
13
 70
0
 10
-12.3296925549
 20
11.9928776907
 10
-12.3314316453
 20
11.9668084488
 10
-12.3365557023
 20
11.9411845685
 10
-12.3449771876
 20
11.9164438029
 10
-12.3565522302
 20
11.8930088178
 10
-12.3710830845
 20
11.8712799719
 10
-12.3883215085
 20
11.8516284761
 10
-12.4079730043
 20
11.8343900526
 10
-12.42970185
 20
11.8198591988
 10
-12.4531368345
 20
11.8082841567
 10
-12.4778775995
 20
11.7998626719
 10
-12.503501479
 20
11.7947386154
 10
-12.5295707199
 20
11.7929995253
  0
LINE
  5
278
100
AcDbEntity
  8
CURVE
100
AcDbLine
 62
250
  6
CONTINUOUS
 10
-7.7156490953
 20
14.1789560656
 11
-8.9656490953
 21
12.0138925561
  0
LINE
  5
279
100
AcDbEntity
  8
CURVE
100
AcDbLine
 62
7
  6
CONTINUOUS
 10
-7.8364205042
 20
12.0138925561
 11
-6.9673862537
 21
12.8829268066
  0
LINE
  5
27A
100
AcDbEntity
  8
CURVE
100
AcDbLine
 62
7
  6
CONTINUOUS
 10
-6.9963776481
 20
12.0138925561
 11
-6.6599092281
 21
12.3503609761
  0
LINE
  5
27B
100
AcDbEntity
  8
RACCORDO
100
AcDbLine
 62
7
  6
CONTINUOUS
 10
-12.3296925549
 20
9.3718755393
 11
-12.7156490953
 21
9.1789560656
  0
LINE
  5
27C
100
AcDbEntity
  8
ASSI
100
AcDbLine
 62
7
  6
CONTINUOUS
 10
-12.3296925549
 20
9.3718755393
 11
-12.7156490953
 21
9.1789560656
  0
LWPOLYLINE
  5
27D
100
AcDbEntity
  8
RACCORDO
100
AcDbPolyline
 62
250
  6
CONTINUOUS
 90
13
 70
0
 10
-12.3296925549
 20
-3.6349655595
 10
-12.331431476
 20
-3.6088975923
 10
-12.3365550788
 20
-3.5832747553
 10
-12.3449759058
 20
-3.5585347595
 10
-12.3565501493
 20
-3.5351002865
 10
-12.371080161
 20
-3.5133716487
 10
-12.3883178731
 20
-3.4937199803
 10
-12.4079689141
 20
-3.4764810617
 10
-12.4296976339
 20
-3.4619495047
 10
-12.45313294
 20
-3.4503736421
 10
-12.4778745321
 20
-3.4419513658
 10
-12.5034997237
 20
-3.4368267172
 10
-12.5295707203
 20
-3.4350873941
  0
LWPOLYLINE
  5
27E
100
AcDbEntity
  8
ASSI
100
AcDbPolyline
 62
250
  6
CONTINUOUS
 90
13
 70
0
 10
-12.3296925549
 20
-3.6349655595
 10
-12.331431476
 20
-3.6088975923
 10
-12.3365550788
 20
-3.5832747553
 10
-12.3449759058
 20
-3.5585347595
 10
-12.3565501493
 20
-3.5351002865
 10
-12.371080161
 20
-3.5133716487
 10
-12.3883178731
 20
-3.4937199803
 10
-12.4079689141
 20
-3.4764810617
 10
-12.4296976339
 20
-3.4619495047
 10
-12.45313294
 20
-3.4503736421
 10
-12.4778745321
 20
-3.4419513658
 10
-12.5034997237
 20
-3.4368267172
 10
-12.5295707203
 20
-3.4350873941
  0
LWPOLYLINE
  5
27F
100
AcDbEntity
  8
RACCORDO
100
AcDbPolyline
 62
7
  6
CONTINUOUS
 90
25
 70
0
 10
-12.7156490953
 20
-4.0209220998
 10
-12.7160913939
 20
-4.0077576868
 10
-12.7173703166
 20
-3.994759588
 10
-12.7194858632
 20
-3.9819278036
 10
-12.7224540363
 20
-3.9692089679
 10
-12.7262588335
 20
-3.9566564465
 10
-12.7308522471
 20
-3.9444303363
 10
-12.7362444759
 20
-3.9325347178
 10
-12.7424253213
 20
-3.9209655106
 10
-12.7493161797
 20
-3.9098705696
 10
-12.756926229
 20
-3.8992560002
 10
-12.7652462914
 20
-3.889115697
 10
-12.7741702302
 20
-3.8795791997
 10
-12.7837058426
 20
-3.870654302
 10
-12.7938453314
 20
-3.8623332102
 10
-12.8044591681
 20
-3.8547220828
 10
-12.8155534623
 20
-3.8478300973
 10
-12.8271221045
 20
-3.8416480762
 10
-12.8390172379
 20
-3.8362546459
 10
-12.8512429447
 20
-3.8316600079
 10
-12.8637951427
 20
-3.8278539607
 10
-12.8765137293
 20
-3.824884526
 10
-12.8893453366
 20
-3.8227677112
 10
-12.9023433324
 20
-3.8214875091
 10
-12.9155077167
 20
-3.8210439195
  0
LWPOLYLINE
  5
280
100
AcDbEntity
  8
ASSI
100
AcDbPolyline
 62
7
  6
CONTINUOUS
 90
25
 70
0
 10
-12.7156490953
 20
-4.0209220998
 10
-12.7160913939
 20
-4.0077576868
 10
-12.7173703166
 20
-3.994759588
 10
-12.7194858632
 20
-3.9819278036
 10
-12.7224540363
 20
-3.9692089679
 10
-12.7262588335
 20
-3.9566564465
 10
-12.7308522471
 20
-3.9444303363
 10
-12.7362444759
 20
-3.9325347178
 10
-12.7424253213
 20
-3.9209655106
 10
-12.7493161797
 20
-3.9098705696
 10
-12.756926229
 20
-3.8992560002
 10
-12.7652462914
 20
-3.889115697
 10
-12.7741702302
 20
-3.8795791997
 10
-12.7837058426
 20
-3.870654302
 10
-12.7938453314
 20
-3.8623332102
 10
-12.8044591681
 20
-3.8547220828
 10
-12.8155534623
 20
-3.8478300973
 10
-12.8271221045
 20
-3.8416480762
 10
-12.8390172379
 20
-3.8362546459
 10
-12.8512429447
 20
-3.8316600079
 10
-12.8637951427
 20
-3.8278539607
 10
-12.8765137293
 20
-3.824884526
 10
-12.8893453366
 20
-3.8227677112
 10
-12.9023433324
 20
-3.8214875091
 10
-12.9155077167
 20
-3.8210439195
  0
LWPOLYLINE
  5
281
100
AcDbEntity
  8
RACCORDO
100
AcDbPolyline
 62
250
  6
CONTINUOUS
 90
13
 70
0
 10
-11.9175502476
 20
-3.1914370746
 10
-11.9174620537
 20
-3.2169677673
 10
-11.9172611173
 20
-3.2420802
 10
-11.916950734
 20
-3.2663635348
 10
-11.9165359945
 20
-3.2894203779
 10
-11.9160236881
 20
-3.3108738002
 10
-11.9154221845
 20
-3.3303733715
 10
-11.9147413195
 20
-3.3476002161
 10
-11.913992237
 20
-3.3622723577
 10
-11.9131871888
 20
-3.3741497645
 10
-11.9123393452
 20
-3.3830381318
 10
-11.9114625787
 20
-3.3887920567
 10
-11.9105712333
 20
-3.3913174126
  0
LWPOLYLINE
  5
282
100
AcDbEntity
  8
ASSI
100
AcDbPolyline
 62
250
  6
CONTINUOUS
 90
13
 70
0
 10
-11.9175502476
 20
-3.1914370746
 10
-11.9174620537
 20
-3.2169677673
 10
-11.9172611173
 20
-3.2420802
 10
-11.916950734
 20
-3.2663635348
 10
-11.9165359945
 20
-3.2894203779
 10
-11.9160236881
 20
-3.3108738002
 10
-11.9154221845
 20
-3.3303733715
 10
-11.9147413195
 20
-3.3476002161
 10
-11.913992237
 20
-3.3622723577
 10
-11.9131871888
 20
-3.3741497645
 10
-11.9123393452
 20
-3.3830381318
 10
-11.9114625787
 20
-3.3887920567
 10
-11.9105712333
 20
-3.3913174126
  0
LINE
  5
283
100
AcDbEntity
  8
DRAFT
100
AcDbLine
 62
7
  6
CONTINUOUS
 10
-12.7156490953
 20
9.1789560656
 11
-12.7156490953
 21
-0.8210439344
  0
LINE
  5
284
100
AcDbEntity
  8
ASSI
100
AcDbLine
 62
7
  6
CONTINUOUS
 10
-12.7156490953
 20
9.1789560656
 11
-12.7156490953
 21
-0.8210439344
  0
LINE
  5
285
100
AcDbEntity
  8
RACCORDO
100
AcDbLine
 62
7
  6
CONTINUOUS
 10
-12.7156490953
 20
-5.8222622804
 11
-12.7156490953
 21
-4.0209220998
  0
LINE
  5
286
100
AcDbEntity
  8
ASSI
100
AcDbLine
 62
7
  6
CONTINUOUS
 10
-12.7156490953
 20
-5.8222622804
 11
-12.7156490953
 21
-4.0209220998
  0
LINE
  5
287
100
AcDbEntity
  8
RACCORDO
100
AcDbLine
 62
7
  6
CONTINUOUS
 10
-12.7156490953
 20
-0.8210439344
 11
-12.7156490953
 21
-0.5710439344
  0
LINE
  5
288
100
AcDbEntity
  8
RACCORDO
100
AcDbLine
 62
7
  6
CONTINUOUS
 10
-12.7156490953
 20
8.9289560656
 11
-12.7156490953
 21
9.1789560656
  0
LINE
  5
289
100
AcDbEntity
  8
RACCORDO
100
AcDbLine
 62
7
  6
CONTINUOUS
 10
-12.7156490953
 20
12.378834231
 11
-12.7156490953
 21
14.1801744116
  0
LINE
  5
28A
100
AcDbEntity
  8
ASSI
100
AcDbLine
 62
7
  6
CONTINUOUS
 10
-12.7156490953
 20
12.378834231
 11
-12.7156490953
 21
14.1801744116
  0
LINE
  5
28B
100
AcDbEntity
  8
RACCORDO
100
AcDbLine
 62
250
  6
CONTINUOUS
 10
-12.329699754
 20
11.9928848897
 11
-12.3296925549
 21
13.7940350949
  0
LINE
  5
28C
100
AcDbEntity
  8
ASSI
100
AcDbLine
 62
250
  6
CONTINUOUS
 10
-12.329699754
 20
11.9928848897
 11
-12.3296925549
 21
13.7940350949
  0
LINE
  5
28D
100
AcDbEntity
  8
RACCORDO
100
AcDbLine
 62
250
  6
CONTINUOUS
 10
-12.3296925549
 20
-5.4361287509
 11
-12.3296996854
 21
-3.63497269
  0
LINE
  5
28E
100
AcDbEntity
  8
ASSI
100
AcDbLine
 62
250
  6
CONTINUOUS
 10
-12.3296925549
 20
-5.4361287509
 11
-12.3296996854
 21
-3.63497269
  0
LINE
  5
28F
100
AcDbEntity
  8
RACCORDO
100
AcDbLine
 62
250
  6
CONTINUOUS
 10
-12.3296925549
 20
-1.0139634081
 11
-12.3296925549
 21
9.3718755393
  0
LINE
  5
290
100
AcDbEntity
  8
ASSI
100
AcDbLine
 62
250
  6
CONTINUOUS
 10
-12.3296925549
 20
-1.0139634081
 11
-12.3296925549
 21
9.3718755393
  0
LINE
  5
291
100
AcDbEntity
  8
RACCORDO
100
AcDbLine
 62
250
  6
CONTINUOUS
 10
-11.847761927
 20
-1.039232246
 11
-11.8477691106
 21
-3.1932478561
  0
LINE
  5
292
100
AcDbEntity
  8
ASSI
100
AcDbLine
 62
250
  6
CONTINUOUS
 10
-11.847761927
 20
-1.039232246
 11
-11.8477691106
 21
-3.1932478561
  0
LINE
  5
293
100
AcDbEntity
  8
RACCORDO
100
AcDbLine
 62
250
  6
CONTINUOUS
 10
-11.8477693359
 20
11.551159739
 11
-11.847761927
 21
9.3971443772
  0
LINE
  5
294
100
AcDbEntity
  8
ASSI
100
AcDbLine
 62
250
  6
CONTINUOUS
 10
-11.8477693359
 20
11.551159739
 11
-11.847761927
 21
9.3971443772
  0
LWPOLYLINE
  5
295
100
AcDbEntity
  8
RACCORDO
100
AcDbPolyline
 62
250
  6
CONTINUOUS
 90
22
 70
0
 10
-12.32969272
 20
13.7940352684
 10
-12.3239819082
 20
13.9434180795
 10
-12.307129032
 20
14.0919420723
 10
-12.27923321
 20
14.2387779757
 10
-12.2404573349
 20
14.3831000748
 10
-12.1910215417
 20
14.5241104299
 10
-12.1311970556
 20
14.6610416564
 10
-12.0613146601
 20
14.7931352628
 10
-11.9817673142
 20
14.9196475595
 10
-11.8929989512
 20
15.039872209
 10
-11.7955053167
 20
15.1531378431
 10
-11.6898308707
 20
15.2588122911
 10
-11.5765652385
 20
15.3563059271
 10
-11.4563405906
 20
15.4450742912
 10
-11.3298282957
 20
15.5246216378
 10
-11.1977346915
 20
15.5945040337
 10
-11.0608032701
 20
15.6543285981
 10
-10.9197927101
 20
15.7037644395
 10
-10.7754710224
 20
15.7425401879
 10
-10.6286363871
 20
15.7704358163
 10
-10.4801143212
 20
15.7872886399
 10
-10.3307340798
 20
15.7929996854
  0
LWPOLYLINE
  5
296
100
AcDbEntity
  8
ASSI
100
AcDbPolyline
 62
250
  6
CONTINUOUS
 90
22
 70
0
 10
-12.32969272
 20
13.7940352684
 10
-12.3239819082
 20
13.9434180795
 10
-12.307129032
 20
14.0919420723
 10
-12.27923321
 20
14.2387779757
 10
-12.2404573349
 20
14.3831000748
 10
-12.1910215417
 20
14.5241104299
 10
-12.1311970556
 20
14.6610416564
 10
-12.0613146601
 20
14.7931352628
 10
-11.9817673142
 20
14.9196475595
 10
-11.8929989512
 20
15.039872209
 10
-11.7955053167
 20
15.1531378431
 10
-11.6898308707
 20
15.2588122911
 10
-11.5765652385
 20
15.3563059271
 10
-11.4563405906
 20
15.4450742912
 10
-11.3298282957
 20
15.5246216378
 10
-11.1977346915
 20
15.5945040337
 10
-11.0608032701
 20
15.6543285981
 10
-10.9197927101
 20
15.7037644395
 10
-10.7754710224
 20
15.7425401879
 10
-10.6286363871
 20
15.7704358163
 10
-10.4801143212
 20
15.7872886399
 10
-10.3307340798
 20
15.7929996854
  0
LINE
  5
297
100
AcDbEntity
  8
RACCORDO
100
AcDbLine
 62
250
  6
CONTINUOUS
 10
-11.8595162937
 20
-3.3916730421
 11
-11.847761927
 21
-3.1932484801
  0
LINE
  5
298
100
AcDbEntity
  8
ASSI
100
AcDbLine
 62
250
  6
CONTINUOUS
 10
-11.8595162937
 20
-3.3916730421
 11
-11.847761927
 21
-3.1932484801
  0
LINE
  5
299
100
AcDbEntity
  8
CURVE
100
AcDbLine
 62
7
  6
CONTINUOUS
 10
-3.6675504411
 20
13.662634051
 11
-3.1512284265
 21
14.1789560656
  0
LINE
  5
29A
100
AcDbEntity
  8
CURVE
100
AcDbLine
 62
7
  6
CONTINUOUS
 10
-3.3600734156
 20
13.1300682205
 11
-2.3111855705
 21
14.1789560656
  0
LINE
  5
29B
100
AcDbEntity
  8
RACCORDO
100
AcDbLine
 62
250
  6
CONTINUOUS
 10
-11.8595170025
 20
11.7495857708
 11
-11.847761927
 21
11.5511603832
  0
LINE
  5
29C
100
AcDbEntity
  8
ASSI
100
AcDbLine
 62
250
  6
CONTINUOUS
 10
-11.8595170025
 20
11.7495857708
 11
-11.847761927
 21
11.5511603832
  0
LINE
  5
29D
100
AcDbEntity
  8
RACCORDO
100
AcDbLine
 62
250
  6
CONTINUOUS
 10
-10.8306063144
 20
-5.43630574
 11
-10.8307570725
 21
-3.5775888337
  0
LINE
  5
29E
100
AcDbEntity
  8
ASSI
100
AcDbLine
 62
250
  6
CONTINUOUS
 10
-10.8306063144
 20
-5.43630574
 11
-10.8307570725
 21
-3.5775888337
  0
LINE
  5
29F
100
AcDbEntity
  8
RACCORDO
100
AcDbLine
 62
250
  6
CONTINUOUS
 10
-10.8306063144
 20
-1.039232246
 11
-10.8306063144
 21
9.3971443772
  0
LINE
  5
2A0
100
AcDbEntity
  8
ASSI
100
AcDbLine
 62
250
  6
CONTINUOUS
 10
-10.8306063144
 20
-1.039232246
 11
-10.8306063144
 21
9.3971443772
  0
LINE
  5
2A1
100
AcDbEntity
  8
RACCORDO
100
AcDbLine
 62
250
  6
CONTINUOUS
 10
-10.3309109009
 20
15.7929995253
 11
-10.3309109009
 21
14.2939132847
  0
LINE
  5
2A2
100
AcDbEntity
  8
ASSI
100
AcDbLine
 62
250
  6
CONTINUOUS
 10
-10.3309109009
 20
15.7929995253
 11
-10.3309109009
 21
14.2939132847
  0
LINE
  5
2A3
100
AcDbEntity
  8
RACCORDO
100
AcDbLine
 62
250
  6
CONTINUOUS
 10
-10.3309109009
 20
-7.4350873941
 11
-10.3309109009
 21
-5.9360011535
  0
LINE
  5
2A4
100
AcDbEntity
  8
ASSI
100
AcDbLine
 62
250
  6
CONTINUOUS
 10
-10.3309109009
 20
-7.4350873941
 11
-10.3309109009
 21
-5.9360011535
  0
LINE
  5
2A5
100
AcDbEntity
  8
RACCORDO
100
AcDbLine
 62
250
  6
CONTINUOUS
 10
-10.8307706099
 20
11.9354937281
 11
-10.8306063144
 21
13.7942178712
  0
LINE
  5
2A6
100
AcDbEntity
  8
ASSI
100
AcDbLine
 62
250
  6
CONTINUOUS
 10
-10.8307706099
 20
11.9354937281
 11
-10.8306063144
 21
13.7942178712
  0
LWPOLYLINE
  5
2A7
100
AcDbEntity
  8
RACCORDO
100
AcDbPolyline
 62
250
  6
CONTINUOUS
 90
22
 70
0
 10
-10.8306063144
 20
13.7942178712
 10
-10.829171844
 20
13.8317803441
 10
-10.8250184569
 20
13.8687637859
 10
-10.8181461532
 20
13.9051681966
 10
-10.8084864059
 20
13.9412038819
 10
-10.7961077419
 20
13.9766605361
 10
-10.7812157422
 20
14.0109072424
 10
-10.7637686277
 20
14.0439101051
 10
-10.7438081775
 20
14.0757030198
 10
-10.7216653097
 20
14.1057567566
 10
-10.6973027504
 20
14.1340425495
 10
-10.6707577735
 20
14.1605891645
 10
-10.6424731188
 20
14.184953669
 10
-10.6124198536
 20
14.2070988789
 10
-10.5806269106
 20
14.2270619782
 10
-10.547623829
 20
14.2445115864
 10
-10.5133775145
 20
14.2594057573
 10
-10.4779210613
 20
14.2717864372
 10
-10.4418832911
 20
14.281448084
 10
-10.4054738113
 20
14.2883221839
 10
-10.3684830146
 20
14.2924772508
 10
-10.3309109009
 20
14.2939132847
  0
LWPOLYLINE
  5
2A8
100
AcDbEntity
  8
ASSI
100
AcDbPolyline
 62
250
  6
CONTINUOUS
 90
22
 70
0
 10
-10.8306063144
 20
13.7942178712
 10
-10.829171844
 20
13.8317803441
 10
-10.8250184569
 20
13.8687637859
 10
-10.8181461532
 20
13.9051681966
 10
-10.8084864059
 20
13.9412038819
 10
-10.7961077419
 20
13.9766605361
 10
-10.7812157422
 20
14.0109072424
 10
-10.7637686277
 20
14.0439101051
 10
-10.7438081775
 20
14.0757030198
 10
-10.7216653097
 20
14.1057567566
 10
-10.6973027504
 20
14.1340425495
 10
-10.6707577735
 20
14.1605891645
 10
-10.6424731188
 20
14.184953669
 10
-10.6124198536
 20
14.2070988789
 10
-10.5806269106
 20
14.2270619782
 10
-10.547623829
 20
14.2445115864
 10
-10.5133775145
 20
14.2594057573
 10
-10.4779210613
 20
14.2717864372
 10
-10.4418832911
 20
14.281448084
 10
-10.4054738113
 20
14.2883221839
 10
-10.3684830146
 20
14.2924772508
 10
-10.3309109009
 20
14.2939132847
  0
LINE
  5
2A9
100
AcDbEntity
  8
CURVE
100
AcDbLine
 62
250
  6
CONTINUOUS
 10
-8.5239824274
 20
6.210871015
 11
-8.4406490953
 21
6.3810837607
  0
LINE
  5
2AA
100
AcDbEntity
  8
CURVE
100
AcDbLine
 62
250
  6
CONTINUOUS
 10
-8.1906490953
 20
6.2959773878
 11
-8.2739824385
 21
6.1683177094
  0
LINE
  5
2AB
100
AcDbEntity
  8
CURVE
100
AcDbLine
 62
250
  6
CONTINUOUS
 10
-8.4406490953
 20
6.3810837607
 11
-8.2739824385
 21
6.5512965063
  0
LINE
  5
2AC
100
AcDbEntity
  8
CURVE
100
AcDbLine
 62
7
  6
CONTINUOUS
 10
-3.05259639
 20
12.5975023901
 11
-1.4711427144
 21
14.1789560656
  0
LINE
  5
2AD
100
AcDbEntity
  8
CURVE
100
AcDbLine
 62
7
  6
CONTINUOUS
 10
-8.45184942
 20
6.358206504
 11
-8.242874534
 21
6.56718139
  0
LINE
  5
2AE
100
AcDbEntity
  8
CURVE
100
AcDbLine
 62
7
  6
CONTINUOUS
 10
-2.7451193644
 20
12.0649365596
 11
-2.6056645535
 21
12.2043913705
  0
LINE
  5
2AF
100
AcDbEntity
  8
CURVE
100
AcDbLine
 62
250
  6
CONTINUOUS
 10
-8.5656490953
 20
5.9981049637
 11
-8.5239824274
 21
6.210871015
  0
LINE
  5
2B0
100
AcDbEntity
  8
CURVE
100
AcDbLine
 62
250
  6
CONTINUOUS
 10
-8.2739824385
 20
6.1683177094
 11
-8.3156490953
 21
5.9981049637
  0
LINE
  5
2B1
100
AcDbEntity
  8
CURVE
100
AcDbLine
 62
250
  6
CONTINUOUS
 10
-8.4739824274
 20
3.210871015
 11
-8.4323157594
 21
3.3810837607
  0
LINE
  5
2B2
100
AcDbEntity
  8
CURVE
100
AcDbLine
 62
250
  6
CONTINUOUS
 10
-8.182315752
 20
3.3385305743
 11
-8.2656490953
 21
3.210871015
  0
LINE
  5
2B3
100
AcDbEntity
  8
CURVE
100
AcDbLine
 62
250
  6
CONTINUOUS
 10
-6.9823157222
 20
4.9768284003
 11
-7.1489824683
 21
4.8066156397
  0
LINE
  5
2B4
100
AcDbEntity
  8
CURVE
100
AcDbLine
 62
7
  6
CONTINUOUS
 10
-8.5656490953
 20
5.4043639727
 11
-8.3156490953
 21
5.6543639727
  0
LINE
  5
2B5
100
AcDbEntity
  8
CURVE
100
AcDbLine
 62
7
  6
CONTINUOUS
 10
-7.5463761208
 20
6.4236369471
 11
-7.330563785
 21
6.6394492829
  0
LINE
  5
2B6
100
AcDbEntity
  8
RACCORDO
100
AcDbLine
 62
7
  6
CONTINUOUS
 10
-14.1264759477
 20
-0.7318707868
 11
-14.2156490953
 21
-0.8210439344
  0
LINE
  5
2B7
100
AcDbEntity
  8
ASSI
100
AcDbLine
 62
7
  6
CONTINUOUS
 10
-14.1264759477
 20
-0.7318707868
 11
-14.2156490953
 21
-0.8210439344
  0
LINE
  5
2B8
100
AcDbEntity
  8
CURVE
100
AcDbLine
 62
7
  6
CONTINUOUS
 10
-8.2984086517
 20
4.8315615602
 11
-8.1177017191
 21
5.0122684928
  0
LINE
  5
2B9
100
AcDbEntity
  8
CURVE
100
AcDbLine
 62
7
  6
CONTINUOUS
 10
-6.9616525025
 20
6.1683177094
 11
-6.9440886736
 21
6.1858815383
  0
LINE
  5
2BA
100
AcDbEntity
  8
CURVE
100
AcDbLine
 62
7
  6
CONTINUOUS
 10
-7.6109712902
 20
4.6789560656
 11
-7.1003329936
 21
5.1895943622
  0
LINE
  5
2BB
100
AcDbEntity
  8
CURVE
100
AcDbLine
 62
250
  6
CONTINUOUS
 10
-8.0656490953
 20
6.3810837607
 11
-8.1906490953
 21
6.2959773878
  0
LINE
  5
2BC
100
AcDbEntity
  8
CURVE
100
AcDbLine
 62
250
  6
CONTINUOUS
 10
-8.2739824385
 20
6.5512965063
 11
-8.107315752
 21
6.6364028792
  0
LINE
  5
2BD
100
AcDbEntity
  8
RACCORDO
100
AcDbLine
 62
7
  6
CONTINUOUS
 10
-12.8048222428
 20
-0.7318707868
 11
-12.7156490953
 21
-0.8210439344
  0
LINE
  5
2BE
100
AcDbEntity
  8
ASSI
100
AcDbLine
 62
7
  6
CONTINUOUS
 10
-12.8048222428
 20
-0.7318707868
 11
-12.7156490953
 21
-0.8210439344
  0
LINE
  5
2BF
100
AcDbEntity
  8
CURVE
100
AcDbLine
 62
250
  6
CONTINUOUS
 10
-8.5656490953
 20
5.3598071079
 11
-8.5656490953
 21
5.9981049637
  0
LINE
  5
2C0
100
AcDbEntity
  8
CURVE
100
AcDbLine
 62
250
  6
CONTINUOUS
 10
-8.3156490953
 20
5.9981049637
 11
-8.3156490953
 21
5.3598071079
  0
LINE
  5
2C1
100
AcDbEntity
  8
CURVE
100
AcDbLine
 62
250
  6
CONTINUOUS
 10
-7.8489824087
 20
2.615126286
 11
-7.8489824087
 21
2.7853390316
  0
LINE
  5
2C2
100
AcDbEntity
  8
CURVE
100
AcDbLine
 62
250
  6
CONTINUOUS
 10
-7.2656490953
 20
3.125764523
 11
-7.2656490953
 21
3.210871015
  0
LINE
  5
2C3
100
AcDbEntity
  8
CURVE
100
AcDbLine
 62
250
  6
CONTINUOUS
 10
-7.2239824683
 20
2.1470411758
 11
-7.2239824683
 21
2.3172539215
  0
LINE
  5
2C4
100
AcDbEntity
  8
CURVE
100
AcDbLine
 62
250
  6
CONTINUOUS
 10
-6.9406490953
 20
5.1895943622
 11
-6.9823157222
 21
4.9768284003
  0
LINE
  5
2C5
100
AcDbEntity
  8
CURVE
100
AcDbLine
 62
250
  6
CONTINUOUS
 10
-7.0573157222
 20
3.125764523
 11
-7.0989824683
 21
2.9555517773
  0
LINE
  5
2C6
100
AcDbEntity
  8
CURVE
100
AcDbLine
 62
250
  6
CONTINUOUS
 10
-7.2323157222
 20
5.061934803
 11
-7.1906490953
 21
5.1895943622
  0
LINE
  5
2C7
100
AcDbEntity
  8
CURVE
100
AcDbLine
 62
250
  6
CONTINUOUS
 10
-7.0156490953
 20
2.1470411758
 11
-7.0573157222
 21
2.0193815867
  0
LINE
  5
2C8
100
AcDbEntity
  8
CURVE
100
AcDbLine
 62
250
  6
CONTINUOUS
 10
-7.3489824683
 20
2.9555517773
 11
-7.2656490953
 21
3.125764523
  0
LINE
  5
2C9
100
AcDbEntity
  8
CURVE
100
AcDbLine
 62
250
  6
CONTINUOUS
 10
-7.2656490953
 20
2.061934803
 11
-7.2239824683
 21
2.1470411758
  0
LINE
  5
2CA
100
AcDbEntity
  8
CURVE
100
AcDbLine
 62
250
  6
CONTINUOUS
 10
-2.7156490953
 20
12.0138925561
 11
-1.4656490953
 21
14.1789560656
  0
LINE
  5
2CB
100
AcDbEntity
  8
CURVE
100
AcDbLine
 62
250
  6
CONTINUOUS
 10
-7.0989824683
 20
2.9555517773
 11
-7.1823157222
 21
2.8278922181
  0
LINE
  5
2CC
100
AcDbEntity
  8
CURVE
100
AcDbLine
 62
250
  6
CONTINUOUS
 10
-8.4323157594
 20
3.3810837607
 11
-8.2656490953
 21
3.5512965063
  0
LINE
  5
2CD
100
AcDbEntity
  8
CURVE
100
AcDbLine
 62
250
  6
CONTINUOUS
 10
-7.4323157222
 20
2.8704454045
 11
-7.3489824683
 21
2.9555517773
  0
LINE
  5
2CE
100
AcDbEntity
  8
CURVE
100
AcDbLine
 62
7
  6
CONTINUOUS
 10
-8.0182728294
 20
3.4316116704
 11
-7.7709284342
 21
3.6789560656
  0
LINE
  5
2CF
100
AcDbEntity
  8
CURVE
100
AcDbLine
 62
7
  6
CONTINUOUS
 10
1.6768511841
 20
13.1267356839
 11
2.4471299643
 21
13.8970144641
  0
LINE
  5
2D0
100
AcDbEntity
  8
CURVE
100
AcDbLine
 62
7
  6
CONTINUOUS
 10
-8.5026444601
 20
2.1071971837
 11
-8.462800468
 21
2.1470411758
  0
LINE
  5
2D1
100
AcDbEntity
  8
CURVE
100
AcDbLine
 62
7
  6
CONTINUOUS
 10
-7.8489824087
 20
2.760859235
 11
-7.8245026121
 21
2.7853390316
  0
LINE
  5
2D2
100
AcDbEntity
  8
CURVE
100
AcDbLine
 62
7
  6
CONTINUOUS
 10
-7.3183055182
 20
3.2915361255
 11
-7.1631871433
 21
3.4466545004
  0
LINE
  5
2D3
100
AcDbEntity
  8
CURVE
100
AcDbLine
 62
7
  6
CONTINUOUS
 10
1.4040509124
 20
12.0138925561
 11
2.7546069899
 21
13.3644486336
  0
LINE
  5
2D4
100
AcDbEntity
  8
RACCORDO
100
AcDbLine
 62
250
  6
CONTINUOUS
 10
-13.846543581
 20
-3.2520602548
 11
-14.2156490953
 21
-3.621165769
  0
LINE
  5
2D5
100
AcDbEntity
  8
ASSI
100
AcDbLine
 62
250
  6
CONTINUOUS
 10
-13.846543581
 20
-3.2520602548
 11
-14.2156490953
 21
-3.621165769
  0
LINE
  5
2D6
100
AcDbEntity
  8
RACCORDO
100
AcDbLine
 62
250
  6
CONTINUOUS
 10
-13.6466654156
 20
-3.4519384202
 11
-14.0157709299
 21
-3.8210439344
  0
LINE
  5
2D7
100
AcDbEntity
  8
ASSI
100
AcDbLine
 62
250
  6
CONTINUOUS
 10
-13.6466654156
 20
-3.4519384202
 11
-14.0157709299
 21
-3.8210439344
  0
LINE
  5
2D8
100
AcDbEntity
  8
CURVE
100
AcDbLine
 62
250
  6
CONTINUOUS
 10
-7.3573157222
 20
4.9768284003
 11
-7.2323157222
 21
5.061934803
  0
LINE
  5
2D9
100
AcDbEntity
  8
CURVE
100
AcDbLine
 62
250
  6
CONTINUOUS
 10
-8.057315752
 20
3.4236369471
 11
-8.182315752
 21
3.3385305743
  0
LINE
  5
2DA
100
AcDbEntity
  8
CURVE
100
AcDbLine
 62
250
  6
CONTINUOUS
 10
-3.0656490953
 20
6.3810837607
 11
-3.1906490953
 21
6.2959773878
  0
LINE
  5
2DB
100
AcDbEntity
  8
CURVE
100
AcDbLine
 62
250
  6
CONTINUOUS
 10
-7.1489824683
 20
4.8066156397
 11
-7.3156490953
 21
4.7215092557
  0
LINE
  5
2DC
100
AcDbEntity
  8
CURVE
100
AcDbLine
 62
250
  6
CONTINUOUS
 10
-3.2739824385
 20
6.5512965063
 11
-3.107315752
 21
6.6364028792
  0
LINE
  5
2DD
100
AcDbEntity
  8
RACCORDO
100
AcDbLine
 62
7
  6
CONTINUOUS
 10
-10.7168674412
 20
-7.8210439344
 11
-10.2156490953
 21
-7.8210439344
  0
LINE
  5
2DE
100
AcDbEntity
  8
ASSI
100
AcDbLine
 62
7
  6
CONTINUOUS
 10
-10.7168674412
 20
-7.8210439344
 11
-10.2156490953
 21
-7.8210439344
  0
LINE
  5
2DF
100
AcDbEntity
  8
RACCORDO
100
AcDbLine
 62
7
  6
CONTINUOUS
 10
9.7843509047
 20
-7.8210439344
 11
10.2855692507
 21
-7.8210439344
  0
LINE
  5
2E0
100
AcDbEntity
  8
ASSI
100
AcDbLine
 62
7
  6
CONTINUOUS
 10
9.7843509047
 20
-7.8210439344
 11
10.2855692507
 21
-7.8210439344
  0
LINE
  5
2E1
100
AcDbEntity
  8
0
100
AcDbLine
 62
7
  6
CONTINUOUS
 10
9.503911226
 20
-7.7337420107
 11
-9.9352094166
 21
-7.7337420107
  0
LINE
  5
2E2
100
AcDbEntity
  8
ASSI
100
AcDbLine
 62
7
  6
CONTINUOUS
 10
9.503911226
 20
-7.7337420107
 11
-9.9352094166
 21
-7.7337420107
  0
LINE
  5
2E3
100
AcDbEntity
  8
RACCORDO
100
AcDbLine
 62
250
  6
CONTINUOUS
 10
9.8994357212
 20
-7.4350873941
 11
-10.3307281246
 21
-7.4350873941
  0
LINE
  5
2E4
100
AcDbEntity
  8
ASSI
100
AcDbLine
 62
250
  6
CONTINUOUS
 10
9.8994357212
 20
-7.4350873941
 11
-10.3307281246
 21
-7.4350873941
  0
LWPOLYLINE
  5
2E5
100
AcDbEntity
  8
RACCORDO
100
AcDbPolyline
 62
250
  6
CONTINUOUS
 90
22
 70
0
 10
-10.3307282981
 20
-7.4350875592
 10
-10.4801111092
 20
-7.4293767474
 10
-10.6286351019
 20
-7.4125238711
 10
-10.7754710053
 20
-7.3846280492
 10
-10.9197931044
 20
-7.345852174
 10
-11.0608034596
 20
-7.2964163808
 10
-11.1977346861
 20
-7.2365918948
 10
-11.3298282925
 20
-7.1667094992
 10
-11.4563405891
 20
-7.0871621534
 10
-11.5765652386
 20
-6.9983937903
 10
-11.6898308728
 20
-6.9009001558
 10
-11.7955053208
 20
-6.7952257098
 10
-11.8929989568
 20
-6.6819600776
 10
-11.9817673209
 20
-6.5617354298
 10
-12.0613146675
 20
-6.4352231348
 10
-12.1311970634
 20
-6.3031295307
 10
-12.1910216277
 20
-6.1661981092
 10
-12.2404574692
 20
-6.0251875493
 10
-12.2792332176
 20
-5.8808658615
 10
-12.307128846
 20
-5.7340312262
 10
-12.3239816696
 20
-5.5855091604
 10
-12.3296927151
 20
-5.4361289189
  0
LWPOLYLINE
  5
2E6
100
AcDbEntity
  8
ASSI
100
AcDbPolyline
 62
250
  6
CONTINUOUS
 90
22
 70
0
 10
-10.3307282981
 20
-7.4350875592
 10
-10.4801111092
 20
-7.4293767474
 10
-10.6286351019
 20
-7.4125238711
 10
-10.7754710053
 20
-7.3846280492
 10
-10.9197931044
 20
-7.345852174
 10
-11.0608034596
 20
-7.2964163808
 10
-11.1977346861
 20
-7.2365918948
 10
-11.3298282925
 20
-7.1667094992
 10
-11.4563405891
 20
-7.0871621534
 10
-11.5765652386
 20
-6.9983937903
 10
-11.6898308728
 20
-6.9009001558
 10
-11.7955053208
 20
-6.7952257098
 10
-11.8929989568
 20
-6.6819600776
 10
-11.9817673209
 20
-6.5617354298
 10
-12.0613146675
 20
-6.4352231348
 10
-12.1311970634
 20
-6.3031295307
 10
-12.1910216277
 20
-6.1661981092
 10
-12.2404574692
 20
-6.0251875493
 10
-12.2792332176
 20
-5.8808658615
 10
-12.307128846
 20
-5.7340312262
 10
-12.3239816696
 20
-5.5855091604
 10
-12.3296927151
 20
-5.4361289189
  0
LWPOLYLINE
  5
2E7
100
AcDbEntity
  8
RACCORDO
100
AcDbPolyline
 62
250
  6
CONTINUOUS
 90
25
 70
0
 10
-11.1981246199
 20
-3.3845343158
 10
-11.2330512987
 20
-3.3682081981
 10
-11.2672430246
 20
-3.3527095028
 10
-11.3006997976
 20
-3.3380382299
 10
-11.3334069055
 20
-3.3242092736
 10
-11.3653790605
 20
-3.3112077396
 10
-11.3966603993
 20
-3.2989889448
 10
-11.4272617944
 20
-3.2875553475
 10
-11.4571723733
 20
-3.2769044893
 10
-11.4864036554
 20
-3.2669843121
 10
-11.5149534139
 20
-3.257799381
 10
-11.5428238756
 20
-3.2493451308
 10
-11.5700332401
 20
-3.2415558075
 10
-11.5965785887
 20
-3.2344333989
 10
-11.6224628401
 20
-3.2279759172
 10
-11.6477129502
 20
-3.2221116445
 10
-11.6723267521
 20
-3.2168406833
 10
-11.6963064128
 20
-3.2121629311
 10
-11.719685389
 20
-3.2080063632
 10
-11.7424615989
 20
-3.2043699316
 10
-11.7646371243
 20
-3.2012546843
 10
-11.7862516679
 20
-3.1985917411
 10
-11.8073184639
 20
-3.196358142
 10
-11.8278242782
 20
-3.194576847
 10
-11.8477691106
 20
-3.1932478561
  0
LWPOLYLINE
  5
2E8
100
AcDbEntity
  8
ASSI
100
AcDbPolyline
 62
250
  6
CONTINUOUS
 90
25
 70
0
 10
-11.1981246199
 20
-3.3845343158
 10
-11.2330512987
 20
-3.3682081981
 10
-11.2672430246
 20
-3.3527095028
 10
-11.3006997976
 20
-3.3380382299
 10
-11.3334069055
 20
-3.3242092736
 10
-11.3653790605
 20
-3.3112077396
 10
-11.3966603993
 20
-3.2989889448
 10
-11.4272617944
 20
-3.2875553475
 10
-11.4571723733
 20
-3.2769044893
 10
-11.4864036554
 20
-3.2669843121
 10
-11.5149534139
 20
-3.257799381
 10
-11.5428238756
 20
-3.2493451308
 10
-11.5700332401
 20
-3.2415558075
 10
-11.5965785887
 20
-3.2344333989
 10
-11.6224628401
 20
-3.2279759172
 10
-11.6477129502
 20
-3.2221116445
 10
-11.6723267521
 20
-3.2168406833
 10
-11.6963064128
 20
-3.2121629311
 10
-11.719685389
 20
-3.2080063632
 10
-11.7424615989
 20
-3.2043699316
 10
-11.7646371243
 20
-3.2012546843
 10
-11.7862516679
 20
-3.1985917411
 10
-11.8073184639
 20
-3.196358142
 10
-11.8278242782
 20
-3.194576847
 10
-11.8477691106
 20
-3.1932478561
  0
LWPOLYLINE
  5
2E9
100
AcDbEntity
  8
RACCORDO
100
AcDbPolyline
 62
250
  6
CONTINUOUS
 90
8
 70
0
 10
-10.9693633643
 20
-3.5014690643
 10
-10.9992915935
 20
-3.4854072475
 10
-11.0300308479
 20
-3.4690898046
 10
-11.0615986132
 20
-3.4525248498
 10
-11.0941739654
 20
-3.4357800562
 10
-11.1278165966
 20
-3.4188779815
 10
-11.1624668148
 20
-3.401796068
 10
-11.1981246199
 20
-3.3845343158
  0
LWPOLYLINE
  5
2EA
100
AcDbEntity
  8
ASSI
100
AcDbPolyline
 62
250
  6
CONTINUOUS
 90
8
 70
0
 10
-10.9693633643
 20
-3.5014690643
 10
-10.9992915935
 20
-3.4854072475
 10
-11.0300308479
 20
-3.4690898046
 10
-11.0615986132
 20
-3.4525248498
 10
-11.0941739654
 20
-3.4357800562
 10
-11.1278165966
 20
-3.4188779815
 10
-11.1624668148
 20
-3.401796068
 10
-11.1981246199
 20
-3.3845343158
  0
LINE
  5
2EB
100
AcDbEntity
  8
RACCORDO
100
AcDbLine
 62
250
  6
CONTINUOUS
 10
-10.8841276787
 20
-3.5480250082
 11
-10.9693633643
 21
-3.5014690643
  0
LINE
  5
2EC
100
AcDbEntity
  8
ASSI
100
AcDbLine
 62
250
  6
CONTINUOUS
 10
-10.8841276787
 20
-3.5480250082
 11
-10.9693633643
 21
-3.5014690643
  0
LINE
  5
2ED
100
AcDbEntity
  8
RACCORDO
100
AcDbLine
 62
250
  6
CONTINUOUS
 10
-10.8307570725
 20
-3.5775888337
 11
-10.8841276787
 21
-3.5480250082
  0
LINE
  5
2EE
100
AcDbEntity
  8
ASSI
100
AcDbLine
 62
250
  6
CONTINUOUS
 10
-10.8307570725
 20
-3.5775888337
 11
-10.8841276787
 21
-3.5480250082
  0
LINE
  5
2EF
100
AcDbEntity
  8
CURVE
100
AcDbLine
 62
250
  6
CONTINUOUS
 10
-7.7156490953
 20
-3.6559804249
 11
-6.4656490953
 21
-5.8210439344
  0
LINE
  5
2F0
100
AcDbEntity
  8
CURVE
100
AcDbLine
 62
250
  6
CONTINUOUS
 10
-8.4739824274
 20
2.0193815867
 11
-8.5156490953
 21
2.1470411758
  0
LINE
  5
2F1
100
AcDbEntity
  8
CURVE
100
AcDbLine
 62
250
  6
CONTINUOUS
 10
-8.5239824274
 20
5.1470411758
 11
-8.5656490953
 21
5.3598071079
  0
LINE
  5
2F2
100
AcDbEntity
  8
CURVE
100
AcDbLine
 62
250
  6
CONTINUOUS
 10
-7.0573157222
 20
3.210871015
 11
-7.0573157222
 21
3.125764523
  0
LINE
  5
2F3
100
AcDbEntity
  8
CURVE
100
AcDbLine
 62
250
  6
CONTINUOUS
 10
-7.0156490953
 20
2.3172539215
 11
-7.0156490953
 21
2.1470411758
  0
LINE
  5
2F4
100
AcDbEntity
  8
CURVE
100
AcDbLine
 62
250
  6
CONTINUOUS
 10
-3.5239824274
 20
6.210871015
 11
-3.4406490953
 21
6.3810837607
  0
LINE
  5
2F5
100
AcDbEntity
  8
CURVE
100
AcDbLine
 62
250
  6
CONTINUOUS
 10
-7.0573157222
 20
2.0193815867
 11
-7.1406490953
 21
1.8917220275
  0
LINE
  5
2F6
100
AcDbEntity
  8
CURVE
100
AcDbLine
 62
250
  6
CONTINUOUS
 10
-3.1906490953
 20
6.2959773878
 11
-3.2739824385
 21
6.1683177094
  0
LINE
  5
2F7
100
AcDbEntity
  8
CURVE
100
AcDbLine
 62
250
  6
CONTINUOUS
 10
-3.4406490953
 20
6.3810837607
 11
-3.2739824385
 21
6.5512965063
  0
LINE
  5
2F8
100
AcDbEntity
  8
CURVE
100
AcDbLine
 62
250
  6
CONTINUOUS
 10
-7.3489824683
 20
1.9768284003
 11
-7.2656490953
 21
2.061934803
  0
LINE
  5
2F9
100
AcDbEntity
  8
CURVE
100
AcDbLine
 62
7
  6
CONTINUOUS
 10
-8.0585999539
 20
1.7111988338
 11
-7.8780767602
 21
1.8917220275
  0
LINE
  5
2FA
100
AcDbEntity
  8
CURVE
100
AcDbLine
 62
7
  6
CONTINUOUS
 10
-7.2991043156
 20
2.4706944721
 11
-7.1506052911
 21
2.6191934966
  0
LINE
  5
2FB
100
AcDbEntity
  8
CURVE
100
AcDbLine
 62
7
  6
CONTINUOUS
 10
-3.4904634158
 20
6.2793353719
 11
-3.1606099716
 21
6.6091888161
  0
LINE
  5
2FC
100
AcDbEntity
  8
CURVE
100
AcDbLine
 62
7
  6
CONTINUOUS
 10
2.2440937684
 20
12.0138925561
 11
3.0620840154
 21
12.8318828031
  0
LINE
  5
2FD
100
AcDbEntity
  8
RACCORDO
100
AcDbLine
 62
250
  6
CONTINUOUS
 10
-12.9155272607
 20
-3.8210439344
 11
-12.5295707203
 21
-3.4350873941
  0
LINE
  5
2FE
100
AcDbEntity
  8
ASSI
100
AcDbLine
 62
250
  6
CONTINUOUS
 10
-12.9155272607
 20
-3.8210439344
 11
-12.5295707203
 21
-3.4350873941
  0
LINE
  5
2FF
100
AcDbEntity
  8
CURVE
100
AcDbLine
 62
7
  6
CONTINUOUS
 10
-3.5656490953
 20
5.3641068364
 11
-3.3156490953
 21
5.6141068364
  0
LINE
  5
300
100
AcDbEntity
  8
CURVE
100
AcDbLine
 62
7
  6
CONTINUOUS
 10
-2.5097522338
 20
6.4200036979
 11
-2.3008897436
 21
6.6288661881
  0
LINE
  5
301
100
AcDbEntity
  8
CURVE
100
AcDbLine
 62
7
  6
CONTINUOUS
 10
3.0841366245
 20
12.0138925561
 11
3.369561041
 21
12.2993169727
  0
LINE
  5
302
100
AcDbEntity
  8
RACCORDO
100
AcDbLine
 62
250
  6
CONTINUOUS
 10
-12.7156490953
 20
-4.0209220998
 11
-12.3296996854
 21
-3.63497269
  0
LINE
  5
303
100
AcDbEntity
  8
ASSI
100
AcDbLine
 62
250
  6
CONTINUOUS
 10
-12.7156490953
 20
-4.0209220998
 11
-12.3296996854
 21
-3.63497269
  0
LINE
  5
304
100
AcDbEntity
  8
CURVE
100
AcDbLine
 62
7
  6
CONTINUOUS
 10
-3.2784919635
 20
4.8112211121
 11
-3.0937512732
 21
4.9959618024
  0
LINE
  5
305
100
AcDbEntity
  8
CURVE
100
AcDbLine
 62
7
  6
CONTINUOUS
 10
6.0544428024
 20
14.144155878
 11
6.08924299
 21
14.1789560656
  0
LINE
  5
306
100
AcDbEntity
  8
CURVE
100
AcDbLine
 62
250
  6
CONTINUOUS
 10
-7.1823157222
 20
2.8278922181
 11
-7.3489824683
 21
2.7002326588
  0
LINE
  5
307
100
AcDbEntity
  8
CURVE
100
AcDbLine
 62
250
  6
CONTINUOUS
 10
-7.1406490953
 20
1.8917220275
 11
-7.2656490953
 21
1.8066156397
  0
LINE
  5
308
100
AcDbEntity
  8
CURVE
100
AcDbLine
 62
250
  6
CONTINUOUS
 10
-8.2656490953
 20
3.5512965063
 11
-8.0989824385
 21
3.6364028792
  0
LINE
  5
309
100
AcDbEntity
  8
RACCORDO
100
AcDbLine
 62
250
  6
CONTINUOUS
 10
10.3993081239
 20
-3.5776720707
 11
10.5576547909
 21
-3.5399959375
  0
LINE
  5
30A
100
AcDbEntity
  8
ASSI
100
AcDbLine
 62
250
  6
CONTINUOUS
 10
10.3993081239
 20
-3.5776720707
 11
10.5576547909
 21
-3.5399959375
  0
LINE
  5
30B
100
AcDbEntity
  8
RACCORDO
100
AcDbLine
 62
250
  6
CONTINUOUS
 10
10.5576547909
 20
-3.5399959375
 11
10.6618539158
 21
-3.5158301524
  0
LINE
  5
30C
100
AcDbEntity
  8
ASSI
100
AcDbLine
 62
250
  6
CONTINUOUS
 10
10.5576547909
 20
-3.5399959375
 11
10.6618539158
 21
-3.5158301524
  0
LINE
  5
30D
100
AcDbEntity
  8
RACCORDO
100
AcDbLine
 62
250
  6
CONTINUOUS
 10
10.6618539158
 20
-3.5158301524
 11
10.7357292467
 21
-3.4991608424
  0
LINE
  5
30E
100
AcDbEntity
  8
ASSI
100
AcDbLine
 62
250
  6
CONTINUOUS
 10
10.6618539158
 20
-3.5158301524
 11
10.7357292467
 21
-3.4991608424
  0
LINE
  5
30F
100
AcDbEntity
  8
RACCORDO
100
AcDbLine
 62
250
  6
CONTINUOUS
 10
10.7357292467
 20
-3.4991608424
 11
10.8131703896
 21
-3.4822112985
  0
LINE
  5
310
100
AcDbEntity
  8
ASSI
100
AcDbLine
 62
250
  6
CONTINUOUS
 10
10.7357292467
 20
-3.4991608424
 11
10.8131703896
 21
-3.4822112985
  0
LINE
  5
311
100
AcDbEntity
  8
RACCORDO
100
AcDbLine
 62
250
  6
CONTINUOUS
 10
9.8996127104
 20
-5.9360011535
 11
-10.3309109009
 21
-5.9360011535
  0
LINE
  5
312
100
AcDbEntity
  8
ASSI
100
AcDbLine
 62
250
  6
CONTINUOUS
 10
9.8996127104
 20
-5.9360011535
 11
-10.3309109009
 21
-5.9360011535
  0
LINE
  5
313
100
AcDbEntity
  8
CURVE
100
AcDbLine
 62
250
  6
CONTINUOUS
 10
-8.9656490953
 20
-5.8210439344
 11
-6.4656490953
 21
-5.8210439344
  0
LINE
  5
314
100
AcDbEntity
  8
CURVE
100
AcDbLine
 62
250
  6
CONTINUOUS
 10
1.0343509047
 20
-5.8210439344
 11
3.5343509047
 21
-5.8210439344
  0
LWPOLYLINE
  5
315
100
AcDbEntity
  8
RACCORDO
100
AcDbPolyline
 62
250
  6
CONTINUOUS
 90
22
 70
0
 10
-10.3309109009
 20
-5.9360011535
 10
-10.3684733738
 20
-5.9345666831
 10
-10.4054568156
 20
-5.9304132961
 10
-10.4418612263
 20
-5.9235409924
 10
-10.4778969116
 20
-5.913881245
 10
-10.5133535658
 20
-5.9015025811
 10
-10.5476002721
 20
-5.8866105814
 10
-10.5806031347
 20
-5.8691634669
 10
-10.6123960495
 20
-5.8492030167
 10
-10.6424497862
 20
-5.8270601489
 10
-10.6707355792
 20
-5.8026975895
 10
-10.6972821942
 20
-5.7761526126
 10
-10.7216466987
 20
-5.747867958
 10
-10.7437919085
 20
-5.7178146927
 10
-10.7637550078
 20
-5.6860217498
 10
-10.7812046161
 20
-5.6530186682
 10
-10.796098787
 20
-5.6187723536
 10
-10.8084794668
 20
-5.5833159004
 10
-10.8181411137
 20
-5.5472781303
 10
-10.8250152136
 20
-5.5108686504
 10
-10.8291702805
 20
-5.4738778537
 10
-10.8306063144
 20
-5.43630574
  0
LWPOLYLINE
  5
316
100
AcDbEntity
  8
ASSI
100
AcDbPolyline
 62
250
  6
CONTINUOUS
 90
22
 70
0
 10
-10.3309109009
 20
-5.9360011535
 10
-10.3684733738
 20
-5.9345666831
 10
-10.4054568156
 20
-5.9304132961
 10
-10.4418612263
 20
-5.9235409924
 10
-10.4778969116
 20
-5.913881245
 10
-10.5133535658
 20
-5.9015025811
 10
-10.5476002721
 20
-5.8866105814
 10
-10.5806031347
 20
-5.8691634669
 10
-10.6123960495
 20
-5.8492030167
 10
-10.6424497862
 20
-5.8270601489
 10
-10.6707355792
 20
-5.8026975895
 10
-10.6972821942
 20
-5.7761526126
 10
-10.7216466987
 20
-5.747867958
 10
-10.7437919085
 20
-5.7178146927
 10
-10.7637550078
 20
-5.6860217498
 10
-10.7812046161
 20
-5.6530186682
 10
-10.796098787
 20
-5.6187723536
 10
-10.8084794668
 20
-5.5833159004
 10
-10.8181411137
 20
-5.5472781303
 10
-10.8250152136
 20
-5.5108686504
 10
-10.8291702805
 20
-5.4738778537
 10
-10.8306063144
 20
-5.43630574
  0
LINE
  5
317
100
AcDbEntity
  8
RACCORDO
100
AcDbLine
 62
250
  6
CONTINUOUS
 10
-11.2444653577
 20
-3.4822115387
 11
-11.1678234287
 21
-3.4989852795
  0
LINE
  5
318
100
AcDbEntity
  8
ASSI
100
AcDbLine
 62
250
  6
CONTINUOUS
 10
-11.2444653577
 20
-3.4822115387
 11
-11.1678234287
 21
-3.4989852795
  0
LINE
  5
319
100
AcDbEntity
  8
RACCORDO
100
AcDbLine
 62
250
  6
CONTINUOUS
 10
-11.1678234287
 20
-3.4989852795
 11
-11.0943431807
 21
-3.5155630564
  0
LINE
  5
31A
100
AcDbEntity
  8
ASSI
100
AcDbLine
 62
250
  6
CONTINUOUS
 10
-11.1678234287
 20
-3.4989852795
 11
-11.0943431807
 21
-3.5155630564
  0
LINE
  5
31B
100
AcDbEntity
  8
RACCORDO
100
AcDbLine
 62
250
  6
CONTINUOUS
 10
-11.0943431807
 20
-3.5155630564
 11
-10.9900625929
 21
-3.5397444569
  0
LINE
  5
31C
100
AcDbEntity
  8
ASSI
100
AcDbLine
 62
250
  6
CONTINUOUS
 10
-11.0943431807
 20
-3.5155630564
 11
-10.9900625929
 21
-3.5397444569
  0
LWPOLYLINE
  5
31D
100
AcDbEntity
  8
RACCORDO
100
AcDbPolyline
 62
250
  6
CONTINUOUS
 90
3
 70
0
 10
-10.9900625929
 20
-3.5397444569
 10
-10.8610970835
 20
-3.5703474419
 10
-10.8306063144
 20
-3.5776720707
  0
LWPOLYLINE
  5
31E
100
AcDbEntity
  8
ASSI
100
AcDbPolyline
 62
250
  6
CONTINUOUS
 90
3
 70
0
 10
-10.9900625929
 20
-3.5397444569
 10
-10.8610970835
 20
-3.5703474419
 10
-10.8306063144
 20
-3.5776720707
  0
LINE
  5
31F
100
AcDbEntity
  8
RACCORDO
100
AcDbLine
 62
7
  6
CONTINUOUS
 10
-14.2156490953
 20
-0.8210439344
 11
-13.846543581
 21
-1.0055404621
  0
LINE
  5
320
100
AcDbEntity
  8
ASSI
100
AcDbLine
 62
7
  6
CONTINUOUS
 10
-14.2156490953
 20
-0.8210439344
 11
-13.846543581
 21
-1.0055404621
  0
LINE
  5
321
100
AcDbEntity
  8
RACCORDO
100
AcDbLine
 62
7
  6
CONTINUOUS
 10
-12.3296925549
 20
-1.0139634081
 11
-12.7156490953
 21
-0.8210439344
  0
LINE
  5
322
100
AcDbEntity
  8
ASSI
100
AcDbLine
 62
7
  6
CONTINUOUS
 10
-12.3296925549
 20
-1.0139634081
 11
-12.7156490953
 21
-0.8210439344
  0
LINE
  5
323
100
AcDbEntity
  8
CURVE
100
AcDbLine
 62
250
  6
CONTINUOUS
 10
-8.3906490953
 20
1.8917220275
 11
-8.4739824274
 21
2.0193815867
  0
LINE
  5
324
100
AcDbEntity
  8
CURVE
100
AcDbLine
 62
250
  6
CONTINUOUS
 10
-8.3073157669
 20
2.1470411758
 11
-8.2656490953
 21
2.061934803
  0
LINE
  5
325
100
AcDbEntity
  8
CURVE
100
AcDbLine
 62
250
  6
CONTINUOUS
 10
-8.3156490953
 20
5.3598071079
 11
-8.2739824385
 21
5.1895943622
  0
LINE
  5
326
100
AcDbEntity
  8
CURVE
100
AcDbLine
 62
250
  6
CONTINUOUS
 10
-7.0573157222
 20
2.4874667267
 11
-7.0156490953
 21
2.3172539215
  0
LINE
  5
327
100
AcDbEntity
  8
CURVE
100
AcDbLine
 62
250
  6
CONTINUOUS
 10
-7.0989824683
 20
3.3810837607
 11
-7.0573157222
 21
3.210871015
  0
LINE
  5
328
100
AcDbEntity
  8
CURVE
100
AcDbLine
 62
250
  6
CONTINUOUS
 10
-3.5656490953
 20
5.9981049637
 11
-3.5239824274
 21
6.210871015
  0
LINE
  5
329
100
AcDbEntity
  8
CURVE
100
AcDbLine
 62
250
  6
CONTINUOUS
 10
-3.2739824385
 20
6.1683177094
 11
-3.3156490953
 21
5.9981049637
  0
LINE
  5
32A
100
AcDbEntity
  8
CURVE
100
AcDbLine
 62
250
  6
CONTINUOUS
 10
2.2843509047
 20
14.1789560656
 11
1.0343509047
 21
12.0138925561
  0
LINE
  5
32B
100
AcDbEntity
  8
CURVE
100
AcDbLine
 62
250
  6
CONTINUOUS
 10
-7.7156490953
 20
-3.6559804249
 11
-8.9656490953
 21
-5.8210439344
  0
LINE
  5
32C
100
AcDbEntity
  8
CURVE
100
AcDbLine
 62
250
  6
CONTINUOUS
 10
-3.182315752
 20
3.3385305743
 11
-3.2656490953
 21
3.210871015
  0
LINE
  5
32D
100
AcDbEntity
  8
CURVE
100
AcDbLine
 62
250
  6
CONTINUOUS
 10
-1.9823157222
 20
4.9768284003
 11
-2.1489824683
 21
4.8066156397
  0
LINE
  5
32E
100
AcDbEntity
  8
CURVE
100
AcDbLine
 62
250
  6
CONTINUOUS
 10
-3.4323157594
 20
3.3810837607
 11
-3.2656490953
 21
3.5512965063
  0
LINE
  5
32F
100
AcDbEntity
  8
RACCORDO
100
AcDbLine
 62
250
  6
CONTINUOUS
 10
-12.3296925549
 20
-5.4361287509
 11
-12.7156490953
 21
-5.8222622804
  0
LINE
  5
330
100
AcDbEntity
  8
ASSI
100
AcDbLine
 62
250
  6
CONTINUOUS
 10
-12.3296925549
 20
-5.4361287509
 11
-12.7156490953
 21
-5.8222622804
  0
LINE
  5
331
100
AcDbEntity
  8
CURVE
100
AcDbLine
 62
7
  6
CONTINUOUS
 10
-2.5707141539
 20
4.6789560656
 11
-2.0600758573
 21
5.1895943622
  0
LINE
  5
332
100
AcDbEntity
  8
CURVE
100
AcDbLine
 62
7
  6
CONTINUOUS
 10
6.361919828
 20
13.6115900475
 11
6.9292858461
 21
14.1789560656
  0
LINE
  5
333
100
AcDbEntity
  8
CURVE
100
AcDbLine
 62
7
  6
CONTINUOUS
 10
-2.9676823127
 20
3.4419450508
 11
-2.7306712979
 21
3.6789560656
  0
LINE
  5
334
100
AcDbEntity
  8
CURVE
100
AcDbLine
 62
7
  6
CONTINUOUS
 10
6.6693968536
 20
13.0790242171
 11
7.7693287021
 21
14.1789560656
  0
LINE
  5
335
100
AcDbEntity
  8
0
100
AcDbLine
 62
7
  6
CONTINUOUS
 10
9.7037893915
 20
16.0983945523
 11
9.7843509047
 21
16.1789560656
  0
LINE
  5
336
100
AcDbEntity
  8
ASSI
100
AcDbLine
 62
7
  6
CONTINUOUS
 10
9.7037893915
 20
16.0983945523
 11
9.7843509047
 21
16.1789560656
  0
LINE
  5
337
100
AcDbEntity
  8
RACCORDO
100
AcDbLine
 62
250
  6
CONTINUOUS
 10
9.8994299341
 20
15.7929995253
 11
10.2855692507
 21
16.1789560656
  0
LINE
  5
338
100
AcDbEntity
  8
ASSI
100
AcDbLine
 62
250
  6
CONTINUOUS
 10
9.8994299341
 20
15.7929995253
 11
10.2855692507
 21
16.1789560656
  0
LINE
  5
339
100
AcDbEntity
  8
CURVE
100
AcDbLine
 62
250
  6
CONTINUOUS
 10
-2.3573157222
 20
4.9768284003
 11
-2.2323157222
 21
5.061934803
  0
LINE
  5
33A
100
AcDbEntity
  8
CURVE
100
AcDbLine
 62
250
  6
CONTINUOUS
 10
-3.057315752
 20
3.4236369471
 11
-3.182315752
 21
3.3385305743
  0
LWPOLYLINE
  5
33B
100
AcDbEntity
  8
RACCORDO
100
AcDbPolyline
 62
250
  6
CONTINUOUS
 90
13
 70
0
 10
11.898401481
 20
11.9928856754
 10
11.8905394903
 20
11.9884997367
 10
11.8745770494
 20
11.9841817577
 10
11.8505188067
 20
11.9799317384
 10
11.8183774864
 20
11.9757223229
 10
11.7782712174
 20
11.971580867
 10
11.73050457
 20
11.9675894382
 10
11.6753937029
 20
11.9637548274
 10
11.6131961324
 20
11.9600702437
 10
11.5442670374
 20
11.956597381
 10
11.4688636405
 20
11.9533370482
 10
11.3875088192
 20
11.9502884364
 10
11.3010986726
 20
11.9475108135
  0
LWPOLYLINE
  5
33C
100
AcDbEntity
  8
ASSI
100
AcDbPolyline
 62
250
  6
CONTINUOUS
 90
13
 70
0
 10
11.898401481
 20
11.9928856754
 10
11.8905394903
 20
11.9884997367
 10
11.8745770494
 20
11.9841817577
 10
11.8505188067
 20
11.9799317384
 10
11.8183774864
 20
11.9757223229
 10
11.7782712174
 20
11.971580867
 10
11.73050457
 20
11.9675894382
 10
11.6753937029
 20
11.9637548274
 10
11.6131961324
 20
11.9600702437
 10
11.5442670374
 20
11.956597381
 10
11.4688636405
 20
11.9533370482
 10
11.3875088192
 20
11.9502884364
 10
11.3010986726
 20
11.9475108135
  0
LINE
  5
33D
100
AcDbEntity
  8
CURVE
100
AcDbLine
 62
250
  6
CONTINUOUS
 10
-2.1489824683
 20
4.8066156397
 11
-2.3156490953
 21
4.7215092557
  0
LINE
  5
33E
100
AcDbEntity
  8
CURVE
100
AcDbLine
 62
250
  6
CONTINUOUS
 10
-7.4323157222
 20
1.9342752139
 11
-7.3489824683
 21
1.9768284003
  0
LINE
  5
33F
100
AcDbEntity
  8
CURVE
100
AcDbLine
 62
250
  6
CONTINUOUS
 10
-7.2656490953
 20
1.8066156397
 11
-7.4323157222
 21
1.7215092557
  0
LINE
  5
340
100
AcDbEntity
  8
CURVE
100
AcDbLine
 62
250
  6
CONTINUOUS
 10
-3.2656490953
 20
3.5512965063
 11
-3.0989824385
 21
3.6364028792
  0
LWPOLYLINE
  5
341
100
AcDbEntity
  8
RACCORDO
100
AcDbPolyline
 62
250
  6
CONTINUOUS
 90
13
 70
0
 10
12.0982725298
 20
11.7929995253
 10
12.0899760738
 20
11.7888398372
 10
12.0734362684
 20
11.7847357307
 10
12.0486531134
 20
11.7806872057
 10
12.0154355406
 20
11.7766700873
 10
11.9739746184
 20
11.7727085504
 10
11.9248435517
 20
11.7688751202
 10
11.8678942661
 20
11.7651748838
 10
11.8032748361
 20
11.7616027541
 10
11.7320026904
 20
11.758215995
 10
11.654416972
 20
11.7550336946
 10
11.5701785379
 20
11.7520367647
 10
11.4792873881
 20
11.7492252055
  0
LWPOLYLINE
  5
342
100
AcDbEntity
  8
ASSI
100
AcDbPolyline
 62
250
  6
CONTINUOUS
 90
13
 70
0
 10
12.0982725298
 20
11.7929995253
 10
12.0899760738
 20
11.7888398372
 10
12.0734362684
 20
11.7847357307
 10
12.0486531134
 20
11.7806872057
 10
12.0154355406
 20
11.7766700873
 10
11.9739746184
 20
11.7727085504
 10
11.9248435517
 20
11.7688751202
 10
11.8678942661
 20
11.7651748838
 10
11.8032748361
 20
11.7616027541
 10
11.7320026904
 20
11.758215995
 10
11.654416972
 20
11.7550336946
 10
11.5701785379
 20
11.7520367647
 10
11.4792873881
 20
11.7492252055
  0
LINE
  5
343
100
AcDbEntity
  8
CURVE
100
AcDbLine
 62
250
  6
CONTINUOUS
 10
-7.6823157818
 20
2.7853390316
 11
-7.4323157222
 21
2.8704454045
  0
LWPOLYLINE
  5
344
100
AcDbEntity
  8
RACCORDO
100
AcDbPolyline
 62
250
  6
CONTINUOUS
 90
10
 70
0
 10
10.8131706287
 20
-3.4822118025
 10
10.8794895264
 20
-3.4682352749
 10
10.9471236345
 20
-3.4545703498
 10
11.0159575854
 20
-3.4414261916
 10
11.0866551808
 20
-3.4289042797
 10
11.1583021611
 20
-3.4174706303
 10
11.2285225118
 20
-3.4077867949
 10
11.2965867175
 20
-3.4001498656
 10
11.3632289475
 20
-3.3946867884
 10
11.4282200683
 20
-3.3916947564
  0
LWPOLYLINE
  5
345
100
AcDbEntity
  8
ASSI
100
AcDbPolyline
 62
250
  6
CONTINUOUS
 90
10
 70
0
 10
10.8131706287
 20
-3.4822118025
 10
10.8794895264
 20
-3.4682352749
 10
10.9471236345
 20
-3.4545703498
 10
11.0159575854
 20
-3.4414261916
 10
11.0866551808
 20
-3.4289042797
 10
11.1583021611
 20
-3.4174706303
 10
11.2285225118
 20
-3.4077867949
 10
11.2965867175
 20
-3.4001498656
 10
11.3632289475
 20
-3.3946867884
 10
11.4282200683
 20
-3.3916947564
  0
LWPOLYLINE
  5
346
100
AcDbEntity
  8
RACCORDO
100
AcDbPolyline
 62
250
  6
CONTINUOUS
 90
10
 70
0
 10
11.4164637365
 20
-3.193248252
 10
11.338671114
 20
-3.201389513
 10
11.2617018568
 20
-3.2134080889
 10
11.1855559648
 20
-3.2293039797
 10
11.1094608999
 20
-3.2498760231
 10
11.0341892002
 20
-3.2743253815
 10
10.9620584802
 20
-3.3002555413
 10
10.893841278
 20
-3.3268676647
 10
10.8287650555
 20
-3.3549605895
 10
10.7668298126
 20
-3.3845343158
  0
LWPOLYLINE
  5
347
100
AcDbEntity
  8
ASSI
100
AcDbPolyline
 62
250
  6
CONTINUOUS
 90
10
 70
0
 10
11.4164637365
 20
-3.193248252
 10
11.338671114
 20
-3.201389513
 10
11.2617018568
 20
-3.2134080889
 10
11.1855559648
 20
-3.2293039797
 10
11.1094608999
 20
-3.2498760231
 10
11.0341892002
 20
-3.2743253815
 10
10.9620584802
 20
-3.3002555413
 10
10.893841278
 20
-3.3268676647
 10
10.8287650555
 20
-3.3549605895
 10
10.7668298126
 20
-3.3845343158
  0
LWPOLYLINE
  5
348
100
AcDbEntity
  8
RACCORDO
100
AcDbPolyline
 62
250
  6
CONTINUOUS
 90
13
 70
0
 10
13.2153672251
 20
-3.4519384202
 10
13.2414350068
 20
-3.4501995238
 10
13.2670577959
 20
-3.4450759592
 10
13.291797874
 20
-3.4366551322
 10
13.3152325919
 20
-3.4250807717
 10
13.3369615428
 20
-3.4105505018
 10
13.3566134171
 20
-3.3933124892
 10
13.3738524327
 20
-3.3736611366
 10
13.3883839872
 20
-3.3519321177
 10
13.3999596937
 20
-3.3284967073
 10
13.4083817257
 20
-3.3037553021
 10
13.4135061599
 20
-3.2781305554
 10
13.4152453907
 20
-3.2520602549
  0
LWPOLYLINE
  5
349
100
AcDbEntity
  8
ASSI
100
AcDbPolyline
 62
250
  6
CONTINUOUS
 90
13
 70
0
 10
13.2153672251
 20
-3.4519384202
 10
13.2414350068
 20
-3.4501995238
 10
13.2670577959
 20
-3.4450759592
 10
13.291797874
 20
-3.4366551322
 10
13.3152325919
 20
-3.4250807717
 10
13.3369615428
 20
-3.4105505018
 10
13.3566134171
 20
-3.3933124892
 10
13.3738524327
 20
-3.3736611366
 10
13.3883839872
 20
-3.3519321177
 10
13.3999596937
 20
-3.3284967073
 10
13.4083817257
 20
-3.3037553021
 10
13.4135061599
 20
-3.2781305554
 10
13.4152453907
 20
-3.2520602549
  0
LINE
  5
34A
100
AcDbEntity
  8
RACCORDO
100
AcDbLine
 62
250
  6
CONTINUOUS
 10
-12.3296925549
 20
-5.43630574
 11
-10.8306063144
 21
-5.43630574
  0
LINE
  5
34B
100
AcDbEntity
  8
ASSI
100
AcDbLine
 62
250
  6
CONTINUOUS
 10
-12.3296925549
 20
-5.43630574
 11
-10.8306063144
 21
-5.43630574
  0
LINE
  5
34C
100
AcDbEntity
  8
RACCORDO
100
AcDbLine
 62
250
  6
CONTINUOUS
 10
11.8983943644
 20
-5.43630574
 11
10.3993081239
 21
-5.43630574
  0
LINE
  5
34D
100
AcDbEntity
  8
ASSI
100
AcDbLine
 62
250
  6
CONTINUOUS
 10
11.8983943644
 20
-5.43630574
 11
10.3993081239
 21
-5.43630574
  0
LWPOLYLINE
  5
34E
100
AcDbEntity
  8
RACCORDO
100
AcDbPolyline
 62
7
  6
CONTINUOUS
 90
13
 70
0
 10
-14.0156795562
 20
-3.8210439344
 10
-14.0417953632
 20
-3.8193361486
 10
-14.0674591825
 20
-3.8142342512
 10
-14.0922323147
 20
-3.8058269657
 10
-14.1156906336
 20
-3.7942600644
 10
-14.1374346779
 20
-3.7797322522
 10
-14.1570956742
 20
-3.7624905133
 10
-14.174337413
 20
-3.7428295171
 10
-14.1888652253
 20
-3.7210854728
 10
-14.2004321265
 20
-3.6976271538
 10
-14.2088394121
 20
-3.6728540216
 10
-14.2139413094
 20
-3.6471902023
 10
-14.2156490953
 20
-3.6210743954
  0
LWPOLYLINE
  5
34F
100
AcDbEntity
  8
ASSI
100
AcDbPolyline
 62
7
  6
CONTINUOUS
 90
13
 70
0
 10
-14.0156795562
 20
-3.8210439344
 10
-14.0417953632
 20
-3.8193361486
 10
-14.0674591825
 20
-3.8142342512
 10
-14.0922323147
 20
-3.8058269657
 10
-14.1156906336
 20
-3.7942600644
 10
-14.1374346779
 20
-3.7797322522
 10
-14.1570956742
 20
-3.7624905133
 10
-14.174337413
 20
-3.7428295171
 10
-14.1888652253
 20
-3.7210854728
 10
-14.2004321265
 20
-3.6976271538
 10
-14.2088394121
 20
-3.6728540216
 10
-14.2139413094
 20
-3.6471902023
 10
-14.2156490953
 20
-3.6210743954
  0
LWPOLYLINE
  5
350
100
AcDbEntity
  8
RACCORDO
100
AcDbPolyline
 62
250
  6
CONTINUOUS
 90
13
 70
0
 10
-13.6466654156
 20
-3.4519384202
 10
-13.6727346567
 20
-3.4501993301
 10
-13.6983585363
 20
-3.4450752736
 10
-13.7230993015
 20
-3.4366537888
 10
-13.7465342863
 20
-3.4250787467
 10
-13.7682631322
 20
-3.4105478928
 10
-13.7879146281
 20
-3.3933094692
 10
-13.8051530521
 20
-3.3736579734
 10
-13.8196839065
 20
-3.3519291275
 10
-13.8312589491
 20
-3.3284941426
 10
-13.8396804342
 20
-3.3037533769
 10
-13.844804491
 20
-3.2781294966
 10
-13.846543581
 20
-3.2520602548
  0
LWPOLYLINE
  5
351
100
AcDbEntity
  8
ASSI
100
AcDbPolyline
 62
250
  6
CONTINUOUS
 90
13
 70
0
 10
-13.6466654156
 20
-3.4519384202
 10
-13.6727346567
 20
-3.4501993301
 10
-13.6983585363
 20
-3.4450752736
 10
-13.7230993015
 20
-3.4366537888
 10
-13.7465342863
 20
-3.4250787467
 10
-13.7682631322
 20
-3.4105478928
 10
-13.7879146281
 20
-3.3933094692
 10
-13.8051530521
 20
-3.3736579734
 10
-13.8196839065
 20
-3.3519291275
 10
-13.8312589491
 20
-3.3284941426
 10
-13.8396804342
 20
-3.3037533769
 10
-13.844804491
 20
-3.2781294966
 10
-13.846543581
 20
-3.2520602548
  0
LINE
  5
352
100
AcDbEntity
  8
RACCORDO
100
AcDbLine
 62
250
  6
CONTINUOUS
 10
-11.3180697497
 20
-3.4667173398
 11
-11.2444655726
 21
-3.4822119915
  0
LINE
  5
353
100
AcDbEntity
  8
ASSI
100
AcDbLine
 62
250
  6
CONTINUOUS
 10
-11.3180697497
 20
-3.4667173398
 11
-11.2444655726
 21
-3.4822119915
  0
LINE
  5
354
100
AcDbEntity
  8
CURVE
100
AcDbLine
 62
250
  6
CONTINUOUS
 10
-8.2656490953
 20
2.061934803
 11
-8.182315752
 21
1.9768284003
  0
LINE
  5
355
100
AcDbEntity
  8
CURVE
100
AcDbLine
 62
250
  6
CONTINUOUS
 10
-7.1406490953
 20
2.615126286
 11
-7.0573157222
 21
2.4874667267
  0
LINE
  5
356
100
AcDbEntity
  8
CURVE
100
AcDbLine
 62
250
  6
CONTINUOUS
 10
-2.7156490953
 20
-5.8210439344
 11
-3.9656490953
 21
-3.6559804249
  0
LINE
  5
357
100
AcDbEntity
  8
CURVE
100
AcDbLine
 62
250
  6
CONTINUOUS
 10
-7.2239824683
 20
2.3172539215
 11
-7.3073157222
 21
2.4874667267
  0
LINE
  5
358
100
AcDbEntity
  8
CURVE
100
AcDbLine
 62
250
  6
CONTINUOUS
 10
-8.4406490953
 20
4.9768284003
 11
-8.5239824274
 21
5.1470411758
  0
LINE
  5
359
100
AcDbEntity
  8
CURVE
100
AcDbLine
 62
250
  6
CONTINUOUS
 10
-7.1906490953
 20
6.1683177094
 11
-7.2323157222
 21
6.2959773878
  0
LINE
  5
35A
100
AcDbEntity
  8
CURVE
100
AcDbLine
 62
250
  6
CONTINUOUS
 10
-6.9823157222
 20
6.3810837607
 11
-6.9406490953
 21
6.1683177094
  0
LINE
  5
35B
100
AcDbEntity
  8
RACCORDO
100
AcDbLine
 62
7
  6
CONTINUOUS
 10
-3.9188225546
 20
-7.7337420107
 11
-3.9188225546
 21
-14.5254357397
  0
LINE
  5
35C
100
AcDbEntity
  8
ASSI
100
AcDbLine
 62
7
  6
CONTINUOUS
 10
-3.9188225546
 20
-7.7337420107
 11
-3.9188225546
 21
-14.5254357397
  0
LINE
  5
35D
100
AcDbEntity
  8
CURVE
100
AcDbLine
 62
250
  6
CONTINUOUS
 10
-3.5656490953
 20
5.3598071079
 11
-3.5656490953
 21
5.9981049637
  0
LINE
  5
35E
100
AcDbEntity
  8
CURVE
100
AcDbLine
 62
250
  6
CONTINUOUS
 10
-3.3156490953
 20
5.9981049637
 11
-3.3156490953
 21
5.3598071079
  0
LINE
  5
35F
100
AcDbEntity
  8
CURVE
100
AcDbLine
 62
250
  6
CONTINUOUS
 10
-1.9406490953
 20
5.1895943622
 11
-1.9823157222
 21
4.9768284003
  0
LINE
  5
360
100
AcDbEntity
  8
CURVE
100
AcDbLine
 62
250
  6
CONTINUOUS
 10
-3.4739824274
 20
3.210871015
 11
-3.4323157594
 21
3.3810837607
  0
LINE
  5
361
100
AcDbEntity
  8
CURVE
100
AcDbLine
 62
250
  6
CONTINUOUS
 10
-2.2323157222
 20
5.061934803
 11
-2.1906490953
 21
5.1895943622
  0
LINE
  5
362
100
AcDbEntity
  8
CURVE
100
AcDbLine
 62
250
  6
CONTINUOUS
 10
-2.3489824683
 20
2.9555517773
 11
-2.2656490953
 21
3.125764523
  0
LINE
  5
363
100
AcDbEntity
  8
CURVE
100
AcDbLine
 62
250
  6
CONTINUOUS
 10
-2.2656490953
 20
2.061934803
 11
-2.2239824683
 21
2.1470411758
  0
LINE
  5
364
100
AcDbEntity
  8
CURVE
100
AcDbLine
 62
250
  6
CONTINUOUS
 10
-2.0989824683
 20
2.9555517773
 11
-2.1823157222
 21
2.8278922181
  0
LINE
  5
365
100
AcDbEntity
  8
CURVE
100
AcDbLine
 62
250
  6
CONTINUOUS
 10
-2.0573157222
 20
2.0193815867
 11
-2.1406490953
 21
1.8917220275
  0
LINE
  5
366
100
AcDbEntity
  8
CURVE
100
AcDbLine
 62
250
  6
CONTINUOUS
 10
-2.4323157222
 20
2.8704454045
 11
-2.3489824683
 21
2.9555517773
  0
LINE
  5
367
100
AcDbEntity
  8
CURVE
100
AcDbLine
 62
250
  6
CONTINUOUS
 10
-2.3489824683
 20
1.9768284003
 11
-2.2656490953
 21
2.061934803
  0
LINE
  5
368
100
AcDbEntity
  8
CURVE
100
AcDbLine
 62
7
  6
CONTINUOUS
 10
-3.4927382544
 20
2.0768462531
 11
-3.4225433317
 21
2.1470411758
  0
LINE
  5
369
100
AcDbEntity
  8
CURVE
100
AcDbLine
 62
7
  6
CONTINUOUS
 10
-2.8489824087
 20
2.7206020987
 11
-2.7842454758
 21
2.7853390316
  0
LINE
  5
36A
100
AcDbEntity
  8
CURVE
100
AcDbLine
 62
7
  6
CONTINUOUS
 10
-2.3024056351
 20
3.2671788723
 11
-2.143270456
 21
3.4263140514
  0
LINE
  5
36B
100
AcDbEntity
  8
CURVE
100
AcDbLine
 62
7
  6
CONTINUOUS
 10
6.9768738792
 20
12.5464583866
 11
8.4318707864
 21
14.0014552938
  0
LINE
  5
36C
100
AcDbEntity
  8
CURVE
100
AcDbLine
 62
7
  6
CONTINUOUS
 10
-3.0265307099
 20
1.7030109415
 11
-2.8378196239
 21
1.8917220275
  0
LINE
  5
36D
100
AcDbEntity
  8
CURVE
100
AcDbLine
 62
7
  6
CONTINUOUS
 10
-2.2858729596
 20
2.4436686918
 11
-2.1302878705
 21
2.5992537809
  0
LINE
  5
36E
100
AcDbEntity
  8
CURVE
100
AcDbLine
 62
7
  6
CONTINUOUS
 10
-7.9481054674
 20
-4.0586066721
 11
-7.6533625981
 21
-3.7638638027
  0
LINE
  5
36F
100
AcDbEntity
  8
CURVE
100
AcDbLine
 62
7
  6
CONTINUOUS
 10
2.2843509047
 20
6.1738497001
 11
2.5343509047
 21
6.4238497001
  0
LINE
  5
370
100
AcDbEntity
  8
CURVE
100
AcDbLine
 62
250
  6
CONTINUOUS
 10
-2.1823157222
 20
2.8278922181
 11
-2.3489824683
 21
2.7002326588
  0
LINE
  5
371
100
AcDbEntity
  8
CURVE
100
AcDbLine
 62
250
  6
CONTINUOUS
 10
-2.1406490953
 20
1.8917220275
 11
-2.2656490953
 21
1.8066156397
  0
LWPOLYLINE
  5
372
100
AcDbEntity
  8
RACCORDO
100
AcDbPolyline
 62
250
  6
CONTINUOUS
 90
13
 70
0
 10
-12.3296996715
 20
-3.6349735442
 10
-12.3218376808
 20
-3.6305876055
 10
-12.30587524
 20
-3.6262696265
 10
-12.2818169972
 20
-3.6220196072
 10
-12.2496756769
 20
-3.6178101917
 10
-12.2095694079
 20
-3.6136687358
 10
-12.1618027605
 20
-3.609677307
 10
-12.1066918935
 20
-3.6058426962
 10
-12.044494323
 20
-3.6021581125
 10
-11.9755652279
 20
-3.5986852498
 10
-11.9001618311
 20
-3.595424917
 10
-11.8188070097
 20
-3.5923763052
 10
-11.7323968631
 20
-3.5895986823
  0
LWPOLYLINE
  5
373
100
AcDbEntity
  8
ASSI
100
AcDbPolyline
 62
250
  6
CONTINUOUS
 90
13
 70
0
 10
-12.3296996715
 20
-3.6349735442
 10
-12.3218376808
 20
-3.6305876055
 10
-12.30587524
 20
-3.6262696265
 10
-12.2818169972
 20
-3.6220196072
 10
-12.2496756769
 20
-3.6178101917
 10
-12.2095694079
 20
-3.6136687358
 10
-12.1618027605
 20
-3.609677307
 10
-12.1066918935
 20
-3.6058426962
 10
-12.044494323
 20
-3.6021581125
 10
-11.9755652279
 20
-3.5986852498
 10
-11.9001618311
 20
-3.595424917
 10
-11.8188070097
 20
-3.5923763052
 10
-11.7323968631
 20
-3.5895986823
  0
LINE
  5
374
100
AcDbEntity
  8
CURVE
100
AcDbLine
 62
250
  6
CONTINUOUS
 10
-2.4323157222
 20
1.9342752139
 11
-2.3489824683
 21
1.9768284003
  0
LINE
  5
375
100
AcDbEntity
  8
CURVE
100
AcDbLine
 62
250
  6
CONTINUOUS
 10
-2.2656490953
 20
1.8066156397
 11
-2.4323157222
 21
1.7215092557
  0
LINE
  5
376
100
AcDbEntity
  8
CURVE
100
AcDbLine
 62
250
  6
CONTINUOUS
 10
-2.6823157818
 20
2.7853390316
 11
-2.4323157222
 21
2.8704454045
  0
LWPOLYLINE
  5
377
100
AcDbEntity
  8
RACCORDO
100
AcDbPolyline
 62
250
  6
CONTINUOUS
 90
12
 70
0
 10
-13.0736665397
 20
-3.4081093014
 10
-13.1650715875
 20
-3.4112996335
 10
-13.2493292839
 20
-3.4146915967
 10
-13.3263380278
 20
-3.4182886722
 10
-13.3961994203
 20
-3.4220873789
 10
-13.4578380028
 20
-3.42602914
 10
-13.5111239617
 20
-3.4301176998
 10
-13.5561871107
 20
-3.434349314
 10
-13.5923414323
 20
-3.438654174
 10
-13.6193582541
 20
-3.4430090103
 10
-13.6374662485
 20
-3.4474370923
 10
-13.6466654156
 20
-3.4519384202
  0
LWPOLYLINE
  5
378
100
AcDbEntity
  8
ASSI
100
AcDbPolyline
 62
250
  6
CONTINUOUS
 90
12
 70
0
 10
-13.0736665397
 20
-3.4081093014
 10
-13.1650715875
 20
-3.4112996335
 10
-13.2493292839
 20
-3.4146915967
 10
-13.3263380278
 20
-3.4182886722
 10
-13.3961994203
 20
-3.4220873789
 10
-13.4578380028
 20
-3.42602914
 10
-13.5111239617
 20
-3.4301176998
 10
-13.5561871107
 20
-3.434349314
 10
-13.5923414323
 20
-3.438654174
 10
-13.6193582541
 20
-3.4430090103
 10
-13.6374662485
 20
-3.4474370923
 10
-13.6466654156
 20
-3.4519384202
  0
LWPOLYLINE
  5
379
100
AcDbEntity
  8
RACCORDO
100
AcDbPolyline
 62
7
  6
CONTINUOUS
 90
25
 70
0
 10
12.4842095262
 20
-3.8210439195
 10
12.4710451419
 20
-3.8214875091
 10
12.4580471461
 20
-3.8227677112
 10
12.4452155387
 20
-3.824884526
 10
12.4324969522
 20
-3.8278539607
 10
12.4199447542
 20
-3.8316600079
 10
12.4077190474
 20
-3.8362546459
 10
12.395823914
 20
-3.8416480762
 10
12.3842552718
 20
-3.8478300973
 10
12.3731609776
 20
-3.8547220828
 10
12.3625471409
 20
-3.8623332102
 10
12.3524076521
 20
-3.870654302
 10
12.3428720397
 20
-3.8795791997
 10
12.3339481009
 20
-3.889115697
 10
12.3256280385
 20
-3.8992560002
 10
12.3180179892
 20
-3.9098705696
 10
12.3111271307
 20
-3.9209655106
 10
12.3049462854
 20
-3.9325347178
 10
12.2995540566
 20
-3.9444303363
 10
12.294960643
 20
-3.9566564465
 10
12.2911558458
 20
-3.9692089679
 10
12.2881876727
 20
-3.9819278036
 10
12.286072126
 20
-3.994759588
 10
12.2847932034
 20
-4.0077576868
 10
12.2843509047
 20
-4.0209220998
  0
LWPOLYLINE
  5
37A
100
AcDbEntity
  8
ASSI
100
AcDbPolyline
 62
7
  6
CONTINUOUS
 90
25
 70
0
 10
12.4842095262
 20
-3.8210439195
 10
12.4710451419
 20
-3.8214875091
 10
12.4580471461
 20
-3.8227677112
 10
12.4452155387
 20
-3.824884526
 10
12.4324969522
 20
-3.8278539607
 10
12.4199447542
 20
-3.8316600079
 10
12.4077190474
 20
-3.8362546459
 10
12.395823914
 20
-3.8416480762
 10
12.3842552718
 20
-3.8478300973
 10
12.3731609776
 20
-3.8547220828
 10
12.3625471409
 20
-3.8623332102
 10
12.3524076521
 20
-3.870654302
 10
12.3428720397
 20
-3.8795791997
 10
12.3339481009
 20
-3.889115697
 10
12.3256280385
 20
-3.8992560002
 10
12.3180179892
 20
-3.9098705696
 10
12.3111271307
 20
-3.9209655106
 10
12.3049462854
 20
-3.9325347178
 10
12.2995540566
 20
-3.9444303363
 10
12.294960643
 20
-3.9566564465
 10
12.2911558458
 20
-3.9692089679
 10
12.2881876727
 20
-3.9819278036
 10
12.286072126
 20
-3.994759588
 10
12.2847932034
 20
-4.0077576868
 10
12.2843509047
 20
-4.0209220998
  0
LINE
  5
37B
100
AcDbEntity
  8
RACCORDO
100
AcDbLine
 62
250
  6
CONTINUOUS
 10
-12.8734563511
 20
-3.4024815123
 11
-13.0736665397
 21
-3.4081093014
  0
LINE
  5
37C
100
AcDbEntity
  8
ASSI
100
AcDbLine
 62
250
  6
CONTINUOUS
 10
-12.8734563511
 20
-3.4024815123
 11
-13.0736665397
 21
-3.4081093014
  0
LINE
  5
37D
100
AcDbEntity
  8
RACCORDO
100
AcDbLine
 62
250
  6
CONTINUOUS
 10
-11.7323968631
 20
-3.5895986823
 11
-11.546712751
 21
-3.5848779598
  0
LINE
  5
37E
100
AcDbEntity
  8
ASSI
100
AcDbLine
 62
250
  6
CONTINUOUS
 10
-11.7323968631
 20
-3.5895986823
 11
-11.546712751
 21
-3.5848779598
  0
LINE
  5
37F
100
AcDbEntity
  8
RACCORDO
100
AcDbLine
 62
250
  6
CONTINUOUS
 10
-12.9878871057
 20
-3.2026167864
 11
-13.210343483
 21
-3.2082379811
  0
LINE
  5
380
100
AcDbEntity
  8
ASSI
100
AcDbLine
 62
250
  6
CONTINUOUS
 10
-12.9878871057
 20
-3.2026167864
 11
-13.210343483
 21
-3.2082379811
  0
LWPOLYLINE
  5
381
100
AcDbEntity
  8
RACCORDO
100
AcDbPolyline
 62
250
  6
CONTINUOUS
 90
7
 70
0
 10
11.4282187627
 20
-3.3916727142
 10
11.4367566799
 20
-3.3914807507
 10
11.4452846008
 20
-3.3913421681
 10
11.4538015209
 20
-3.3912567342
 10
11.4623064313
 20
-3.3912242148
 10
11.4707983187
 20
-3.3912443743
 10
11.4792761675
 20
-3.3913169766
  0
LWPOLYLINE
  5
382
100
AcDbEntity
  8
ASSI
100
AcDbPolyline
 62
250
  6
CONTINUOUS
 90
7
 70
0
 10
11.4282187627
 20
-3.3916727142
 10
11.4367566799
 20
-3.3914807507
 10
11.4452846008
 20
-3.3913421681
 10
11.4538015209
 20
-3.3912567342
 10
11.4623064313
 20
-3.3912242148
 10
11.4707983187
 20
-3.3912443743
 10
11.4792761675
 20
-3.3913169766
  0
LINE
  5
383
100
AcDbEntity
  8
RACCORDO
100
AcDbLine
 62
250
  6
CONTINUOUS
 10
-12.6517557085
 20
-3.397893747
 11
-12.8734563511
 21
-3.4024815123
  0
LINE
  5
384
100
AcDbEntity
  8
ASSI
100
AcDbLine
 62
250
  6
CONTINUOUS
 10
-12.6517557085
 20
-3.397893747
 11
-12.8734563511
 21
-3.4024815123
  0
LINE
  5
385
100
AcDbEntity
  8
RACCORDO
100
AcDbLine
 62
250
  6
CONTINUOUS
 10
-12.7421543555
 20
-3.1980322748
 11
-12.9878871057
 21
-3.2026167864
  0
LINE
  5
386
100
AcDbEntity
  8
ASSI
100
AcDbLine
 62
250
  6
CONTINUOUS
 10
-12.7421543555
 20
-3.1980322748
 11
-12.9878871057
 21
-3.2026167864
  0
LINE
  5
387
100
AcDbEntity
  8
RACCORDO
100
AcDbLine
 62
250
  6
CONTINUOUS
 10
-11.546712751
 20
-3.5848779598
 11
-11.3490333104
 21
-3.5813319637
  0
LINE
  5
388
100
AcDbEntity
  8
ASSI
100
AcDbLine
 62
250
  6
CONTINUOUS
 10
-11.546712751
 20
-3.5848779598
 11
-11.3490333104
 21
-3.5813319637
  0
LINE
  5
389
100
AcDbEntity
  8
RACCORDO
100
AcDbLine
 62
250
  6
CONTINUOUS
 10
-12.4134227754
 20
-3.3944634796
 11
-12.6517557085
 21
-3.397893747
  0
LINE
  5
38A
100
AcDbEntity
  8
ASSI
100
AcDbLine
 62
250
  6
CONTINUOUS
 10
-12.4134227754
 20
-3.3944634796
 11
-12.6517557085
 21
-3.397893747
  0
LINE
  5
38B
100
AcDbEntity
  8
RACCORDO
100
AcDbLine
 62
250
  6
CONTINUOUS
 10
-12.4782548728
 20
-3.1946011905
 11
-12.7421543555
 21
-3.1980322748
  0
LINE
  5
38C
100
AcDbEntity
  8
ASSI
100
AcDbLine
 62
250
  6
CONTINUOUS
 10
-12.4782548728
 20
-3.1946011905
 11
-12.7421543555
 21
-3.1980322748
  0
LINE
  5
38D
100
AcDbEntity
  8
RACCORDO
100
AcDbLine
 62
250
  6
CONTINUOUS
 10
-11.3490333104
 20
-3.5813319637
 11
-11.1442289242
 21
-3.5789846417
  0
LINE
  5
38E
100
AcDbEntity
  8
ASSI
100
AcDbLine
 62
250
  6
CONTINUOUS
 10
-11.3490333104
 20
-3.5813319637
 11
-11.1442289242
 21
-3.5789846417
  0
LWPOLYLINE
  5
38F
100
AcDbEntity
  8
RACCORDO
100
AcDbPolyline
 62
250
  6
CONTINUOUS
 90
7
 70
0
 10
-11.9105712333
 20
-3.3913174126
 10
-11.9020934767
 20
-3.3912448057
 10
-11.8936018075
 20
-3.3912246391
 10
-11.8850972425
 20
-3.3912571466
 10
-11.876580796
 20
-3.3913425619
 10
-11.868053478
 20
-3.391481117
 10
-11.8595162937
 20
-3.3916730421
  0
LWPOLYLINE
  5
390
100
AcDbEntity
  8
ASSI
100
AcDbPolyline
 62
250
  6
CONTINUOUS
 90
7
 70
0
 10
-11.9105712333
 20
-3.3913174126
 10
-11.9020934767
 20
-3.3912448057
 10
-11.8936018075
 20
-3.3912246391
 10
-11.8850972425
 20
-3.3912571466
 10
-11.876580796
 20
-3.3913425619
 10
-11.868053478
 20
-3.391481117
 10
-11.8595162937
 20
-3.3916730421
  0
LINE
  5
391
100
AcDbEntity
  8
RACCORDO
100
AcDbLine
 62
250
  6
CONTINUOUS
 10
-12.1656717321
 20
-3.3922619116
 11
-12.4134227754
 21
-3.3944634796
  0
LINE
  5
392
100
AcDbEntity
  8
ASSI
100
AcDbLine
 62
250
  6
CONTINUOUS
 10
-12.1656717321
 20
-3.3922619116
 11
-12.4134227754
 21
-3.3944634796
  0
LINE
  5
393
100
AcDbEntity
  8
RACCORDO
100
AcDbLine
 62
250
  6
CONTINUOUS
 10
-12.2015106507
 20
-3.1923955775
 11
-12.4782548728
 21
-3.1946011905
  0
LINE
  5
394
100
AcDbEntity
  8
ASSI
100
AcDbLine
 62
250
  6
CONTINUOUS
 10
-12.2015106507
 20
-3.1923955775
 11
-12.4782548728
 21
-3.1946011905
  0
LWPOLYLINE
  5
395
100
AcDbEntity
  8
RACCORDO
100
AcDbPolyline
 62
250
  6
CONTINUOUS
 90
3
 70
0
 10
-11.1442289242
 20
-3.5789846417
 10
-10.9353204744
 20
-3.5778150754
 10
-10.8307570657
 20
-3.577672697
  0
LWPOLYLINE
  5
396
100
AcDbEntity
  8
ASSI
100
AcDbPolyline
 62
250
  6
CONTINUOUS
 90
3
 70
0
 10
-11.1442289242
 20
-3.5789846417
 10
-10.9353204744
 20
-3.5778150754
 10
-10.8307570657
 20
-3.577672697
  0
LWPOLYLINE
  5
397
100
AcDbEntity
  8
RACCORDO
100
AcDbPolyline
 62
250
  6
CONTINUOUS
 90
7
 70
0
 10
11.4862554957
 20
-3.1914395405
 10
11.47459662
 20
-3.1914775752
 10
11.4629479785
 20
-3.1916209768
 10
11.451309972
 20
-3.1918697453
 10
11.4396829991
 20
-3.1922238807
 10
11.4280674561
 20
-3.1926833829
 10
11.4164637365
 20
-3.193248252
  0
LWPOLYLINE
  5
398
100
AcDbEntity
  8
ASSI
100
AcDbPolyline
 62
250
  6
CONTINUOUS
 90
7
 70
0
 10
11.4862554957
 20
-3.1914395405
 10
11.47459662
 20
-3.1914775752
 10
11.4629479785
 20
-3.1916209768
 10
11.451309972
 20
-3.1918697453
 10
11.4396829991
 20
-3.1922238807
 10
11.4280674561
 20
-3.1926833829
 10
11.4164637365
 20
-3.193248252
  0
LINE
  5
399
100
AcDbEntity
  8
RACCORDO
100
AcDbLine
 62
250
  6
CONTINUOUS
 10
-11.9105855786
 20
-3.3913130743
 11
-12.1656717321
 21
-3.3922619116
  0
LINE
  5
39A
100
AcDbEntity
  8
ASSI
100
AcDbLine
 62
250
  6
CONTINUOUS
 10
-11.9105855786
 20
-3.3913130743
 11
-12.1656717321
 21
-3.3922619116
  0
LINE
  5
39B
100
AcDbEntity
  8
RACCORDO
100
AcDbLine
 62
250
  6
CONTINUOUS
 10
-11.9175502458
 20
-3.1914396471
 11
-12.2015106507
 21
-3.1923955775
  0
LINE
  5
39C
100
AcDbEntity
  8
ASSI
100
AcDbLine
 62
250
  6
CONTINUOUS
 10
-11.9175502458
 20
-3.1914396471
 11
-12.2015106507
 21
-3.1923955775
  0
LINE
  5
39D
100
AcDbEntity
  8
RACCORDO
100
AcDbLine
 62
7
  6
CONTINUOUS
 10
-14.0157709299
 20
-3.8210439344
 11
-12.9155272607
 21
-3.8210439344
  0
LINE
  5
39E
100
AcDbEntity
  8
ASSI
100
AcDbLine
 62
7
  6
CONTINUOUS
 10
-14.0157709299
 20
-3.8210439344
 11
-12.9155272607
 21
-3.8210439344
  0
LINE
  5
39F
100
AcDbEntity
  8
RACCORDO
100
AcDbLine
 62
7
  6
CONTINUOUS
 10
12.4842290701
 20
-3.8210439344
 11
13.5844727393
 21
-3.8210439344
  0
LINE
  5
3A0
100
AcDbEntity
  8
ASSI
100
AcDbLine
 62
7
  6
CONTINUOUS
 10
12.4842290701
 20
-3.8210439344
 11
13.5844727393
 21
-3.8210439344
  0
LINE
  5
3A1
100
AcDbEntity
  8
CURVE
100
AcDbLine
 62
250
  6
CONTINUOUS
 10
-3.9656490953
 20
-3.6559804249
 11
-1.4656490953
 21
-3.6559804249
  0
LINE
  5
3A2
100
AcDbEntity
  8
CURVE
100
AcDbLine
 62
250
  6
CONTINUOUS
 10
6.0343509047
 20
-3.6559804249
 11
8.5343509047
 21
-3.6559804249
  0
LINE
  5
3A3
100
AcDbEntity
  8
RACCORDO
100
AcDbLine
 62
250
  6
CONTINUOUS
 10
10.3994724114
 20
-3.5776727611
 11
10.6107260236
 21
-3.578259895
  0
LINE
  5
3A4
100
AcDbEntity
  8
ASSI
100
AcDbLine
 62
250
  6
CONTINUOUS
 10
10.3994724114
 20
-3.5776727611
 11
10.6107260236
 21
-3.578259895
  0
LINE
  5
3A5
100
AcDbEntity
  8
RACCORDO
100
AcDbLine
 62
250
  6
CONTINUOUS
 10
11.7702155254
 20
-3.1923955703
 11
11.4862554957
 21
-3.1914395405
  0
LINE
  5
3A6
100
AcDbEntity
  8
ASSI
100
AcDbLine
 62
250
  6
CONTINUOUS
 10
11.7702155254
 20
-3.1923955703
 11
11.4862554957
 21
-3.1914395405
  0
LINE
  5
3A7
100
AcDbEntity
  8
RACCORDO
100
AcDbLine
 62
250
  6
CONTINUOUS
 10
11.7343747655
 20
-3.3922619213
 11
11.479283574
 21
-3.3913130441
  0
LINE
  5
3A8
100
AcDbEntity
  8
ASSI
100
AcDbLine
 62
250
  6
CONTINUOUS
 10
11.7343747655
 20
-3.3922619213
 11
11.479283574
 21
-3.3913130441
  0
LINE
  5
3A9
100
AcDbEntity
  8
RACCORDO
100
AcDbLine
 62
250
  6
CONTINUOUS
 10
12.0469593269
 20
-3.1946012263
 11
11.7702155254
 21
-3.1923955703
  0
LINE
  5
3AA
100
AcDbEntity
  8
ASSI
100
AcDbLine
 62
250
  6
CONTINUOUS
 10
12.0469593269
 20
-3.1946012263
 11
11.7702155254
 21
-3.1923955703
  0
LINE
  5
3AB
100
AcDbEntity
  8
RACCORDO
100
AcDbLine
 62
250
  6
CONTINUOUS
 10
10.6107260236
 20
-3.578259895
 11
10.8217944351
 21
-3.5800822296
  0
LINE
  5
3AC
100
AcDbEntity
  8
ASSI
100
AcDbLine
 62
250
  6
CONTINUOUS
 10
10.6107260236
 20
-3.578259895
 11
10.8217944351
 21
-3.5800822296
  0
LINE
  5
3AD
100
AcDbEntity
  8
RACCORDO
100
AcDbLine
 62
250
  6
CONTINUOUS
 10
11.9821274831
 20
-3.3944635097
 11
11.7343747655
 21
-3.3922619213
  0
LINE
  5
3AE
100
AcDbEntity
  8
ASSI
100
AcDbLine
 62
250
  6
CONTINUOUS
 10
11.9821274831
 20
-3.3944635097
 11
11.7343747655
 21
-3.3922619213
  0
LINE
  5
3AF
100
AcDbEntity
  8
RACCORDO
100
AcDbLine
 62
250
  6
CONTINUOUS
 10
12.3108583647
 20
-3.1980323094
 11
12.0469593269
 21
-3.1946012263
  0
LINE
  5
3B0
100
AcDbEntity
  8
ASSI
100
AcDbLine
 62
250
  6
CONTINUOUS
 10
12.3108583647
 20
-3.1980323094
 11
12.0469593269
 21
-3.1946012263
  0
LINE
  5
3B1
100
AcDbEntity
  8
RACCORDO
100
AcDbLine
 62
250
  6
CONTINUOUS
 10
12.220459502
 20
-3.3978937816
 11
11.9821274831
 21
-3.3944635097
  0
LINE
  5
3B2
100
AcDbEntity
  8
ASSI
100
AcDbLine
 62
250
  6
CONTINUOUS
 10
12.220459502
 20
-3.3978937816
 11
11.9821274831
 21
-3.3944635097
  0
LINE
  5
3B3
100
AcDbEntity
  8
RACCORDO
100
AcDbLine
 62
250
  6
CONTINUOUS
 10
10.8217944351
 20
-3.5800822296
 11
11.0273401
 21
-3.5831266212
  0
LINE
  5
3B4
100
AcDbEntity
  8
ASSI
100
AcDbLine
 62
250
  6
CONTINUOUS
 10
10.8217944351
 20
-3.5800822296
 11
11.0273401
 21
-3.5831266212
  0
LINE
  5
3B5
100
AcDbEntity
  8
RACCORDO
100
AcDbLine
 62
250
  6
CONTINUOUS
 10
12.5565906664
 20
-3.2026168246
 11
12.3108583647
 21
-3.1980323094
  0
LINE
  5
3B6
100
AcDbEntity
  8
ASSI
100
AcDbLine
 62
250
  6
CONTINUOUS
 10
12.5565906664
 20
-3.2026168246
 11
12.3108583647
 21
-3.1980323094
  0
LINE
  5
3B7
100
AcDbEntity
  8
RACCORDO
100
AcDbLine
 62
250
  6
CONTINUOUS
 10
12.4421597385
 20
-3.4024815505
 11
12.220459502
 21
-3.3978937816
  0
LINE
  5
3B8
100
AcDbEntity
  8
ASSI
100
AcDbLine
 62
250
  6
CONTINUOUS
 10
12.4421597385
 20
-3.4024815505
 11
12.220459502
 21
-3.3978937816
  0
LWPOLYLINE
  5
3B9
100
AcDbEntity
  8
RACCORDO
100
AcDbPolyline
 62
250
  6
CONTINUOUS
 90
15
 70
0
 10
11.0273401
 20
-3.5831266212
 10
11.220501024
 20
-3.5873674353
 10
11.3107761886
 20
-3.589889274
 10
11.3959609706
 20
-3.5926676108
 10
11.4757220497
 20
-3.5957000985
 10
11.5496679487
 20
-3.5989392863
 10
11.6173937205
 20
-3.6023881982
 10
11.6785270646
 20
-3.6060438101
 10
11.7327565081
 20
-3.6098495987
 10
11.7798368943
 20
-3.6138145512
 10
11.8194077695
 20
-3.6179296803
 10
11.8511239951
 20
-3.6221115005
 10
11.8748635474
 20
-3.6263321833
 10
11.8906245372
 20
-3.6306195571
 10
11.8984015492
 20
-3.6349736221
  0
LWPOLYLINE
  5
3BA
100
AcDbEntity
  8
ASSI
100
AcDbPolyline
 62
250
  6
CONTINUOUS
 90
15
 70
0
 10
11.0273401
 20
-3.5831266212
 10
11.220501024
 20
-3.5873674353
 10
11.3107761886
 20
-3.589889274
 10
11.3959609706
 20
-3.5926676108
 10
11.4757220497
 20
-3.5957000985
 10
11.5496679487
 20
-3.5989392863
 10
11.6173937205
 20
-3.6023881982
 10
11.6785270646
 20
-3.6060438101
 10
11.7327565081
 20
-3.6098495987
 10
11.7798368943
 20
-3.6138145512
 10
11.8194077695
 20
-3.6179296803
 10
11.8511239951
 20
-3.6221115005
 10
11.8748635474
 20
-3.6263321833
 10
11.8906245372
 20
-3.6306195571
 10
11.8984015492
 20
-3.6349736221
  0
LWPOLYLINE
  5
3BB
100
AcDbEntity
  8
RACCORDO
100
AcDbPolyline
 62
250
  6
CONTINUOUS
 90
13
 70
0
 10
11.479283574
 20
-3.3913130441
 10
11.5699596889
 20
-3.3941166694
 10
11.654034139
 20
-3.3971063423
 10
11.7315069244
 20
-3.4002820629
 10
11.8027190715
 20
-3.4036619629
 10
11.867329554
 20
-3.4072279106
 10
11.924315292
 20
-3.4109255099
 10
11.9735497554
 20
-3.4147617995
 10
12.0151594743
 20
-3.4187297408
 10
12.0485009601
 20
-3.4227538221
 10
12.0733597165
 20
-3.4268088728
 10
12.0899502397
 20
-3.4309200634
 10
12.0982725298
 20
-3.4350873941
  0
LWPOLYLINE
  5
3BC
100
AcDbEntity
  8
ASSI
100
AcDbPolyline
 62
250
  6
CONTINUOUS
 90
13
 70
0
 10
11.479283574
 20
-3.3913130441
 10
11.5699596889
 20
-3.3941166694
 10
11.654034139
 20
-3.3971063423
 10
11.7315069244
 20
-3.4002820629
 10
11.8027190715
 20
-3.4036619629
 10
11.867329554
 20
-3.4072279106
 10
11.924315292
 20
-3.4109255099
 10
11.9735497554
 20
-3.4147617995
 10
12.0151594743
 20
-3.4187297408
 10
12.0485009601
 20
-3.4227538221
 10
12.0733597165
 20
-3.4268088728
 10
12.0899502397
 20
-3.4309200634
 10
12.0982725298
 20
-3.4350873941
  0
LWPOLYLINE
  5
3BD
100
AcDbEntity
  8
RACCORDO
100
AcDbPolyline
 62
250
  6
CONTINUOUS
 90
23
 70
0
 10
-11.8595163485
 20
-3.3916739668
 10
-11.8431281936
 20
-3.3921824925
 10
-11.8261128041
 20
-3.3928919775
 10
-11.8084644877
 20
-3.3938128813
 10
-11.790199582
 20
-3.3949539067
 10
-11.77129006
 20
-3.3963256674
 10
-11.7516624905
 20
-3.3979428057
 10
-11.7313099686
 20
-3.3998157412
 10
-11.7102248822
 20
-3.4019542407
 10
-11.6883304599
 20
-3.4043750176
 10
-11.6656181063
 20
-3.4070884079
 10
-11.642080437
 20
-3.4101038323
 10
-11.6176406148
 20
-3.413439159
 10
-11.5922878327
 20
-3.4171041005
 10
-11.5660146629
 20
-3.4211072118
 10
-11.538747304
 20
-3.4254663614
 10
-11.5104731418
 20
-3.4301901412
 10
-11.4811850696
 20
-3.4352854715
 10
-11.4508159657
 20
-3.4407683807
 10
-11.4193634236
 20
-3.4466426655
 10
-11.3868082347
 20
-3.4529144212
 10
-11.3530561322
 20
-3.4596031547
 10
-11.3180697497
 20
-3.4667173398
  0
LWPOLYLINE
  5
3BE
100
AcDbEntity
  8
ASSI
100
AcDbPolyline
 62
250
  6
CONTINUOUS
 90
23
 70
0
 10
-11.8595163485
 20
-3.3916739668
 10
-11.8431281936
 20
-3.3921824925
 10
-11.8261128041
 20
-3.3928919775
 10
-11.8084644877
 20
-3.3938128813
 10
-11.790199582
 20
-3.3949539067
 10
-11.77129006
 20
-3.3963256674
 10
-11.7516624905
 20
-3.3979428057
 10
-11.7313099686
 20
-3.3998157412
 10
-11.7102248822
 20
-3.4019542407
 10
-11.6883304599
 20
-3.4043750176
 10
-11.6656181063
 20
-3.4070884079
 10
-11.642080437
 20
-3.4101038323
 10
-11.6176406148
 20
-3.413439159
 10
-11.5922878327
 20
-3.4171041005
 10
-11.5660146629
 20
-3.4211072118
 10
-11.538747304
 20
-3.4254663614
 10
-11.5104731418
 20
-3.4301901412
 10
-11.4811850696
 20
-3.4352854715
 10
-11.4508159657
 20
-3.4407683807
 10
-11.4193634236
 20
-3.4466426655
 10
-11.3868082347
 20
-3.4529144212
 10
-11.3530561322
 20
-3.4596031547
 10
-11.3180697497
 20
-3.4667173398
  0
LWPOLYLINE
  5
3BF
100
AcDbEntity
  8
RACCORDO
100
AcDbPolyline
 62
250
  6
CONTINUOUS
 90
7
 70
0
 10
-11.8477691106
 20
-3.193248196
 10
-11.8593686486
 20
-3.1926835633
 10
-11.8709809744
 20
-3.1922242138
 10
-11.8826056945
 20
-3.1918701474
 10
-11.8942424127
 20
-3.1916213642
 10
-11.9058907303
 20
-3.1914778641
 10
-11.9175502458
 20
-3.1914396471
  0
LWPOLYLINE
  5
3C0
100
AcDbEntity
  8
ASSI
100
AcDbPolyline
 62
250
  6
CONTINUOUS
 90
7
 70
0
 10
-11.8477691106
 20
-3.193248196
 10
-11.8593686486
 20
-3.1926835633
 10
-11.8709809744
 20
-3.1922242138
 10
-11.8826056945
 20
-3.1918701474
 10
-11.8942424127
 20
-3.1916213642
 10
-11.9058907303
 20
-3.1914778641
 10
-11.9175502458
 20
-3.1914396471
  0
LINE
  5
3C1
100
AcDbEntity
  8
CURVE
100
AcDbLine
 62
250
  6
CONTINUOUS
 10
-8.2656490953
 20
1.8066156397
 11
-8.3906490953
 21
1.8917220275
  0
LINE
  5
3C2
100
AcDbEntity
  8
RACCORDO
100
AcDbLine
 62
7
  6
CONTINUOUS
 10
-14.1264759477
 20
9.089782918
 11
-14.2156490953
 21
9.1789560656
  0
LINE
  5
3C3
100
AcDbEntity
  8
ASSI
100
AcDbLine
 62
7
  6
CONTINUOUS
 10
-14.1264759477
 20
9.089782918
 11
-14.2156490953
 21
9.1789560656
  0
LINE
  5
3C4
100
AcDbEntity
  8
CURVE
100
AcDbLine
 62
250
  6
CONTINUOUS
 10
-7.2656490953
 20
3.210871015
 11
-7.3489824683
 21
3.3385305743
  0
LINE
  5
3C5
100
AcDbEntity
  8
CURVE
100
AcDbLine
 62
250
  6
CONTINUOUS
 10
-8.2739824385
 20
5.1895943622
 11
-8.1906490953
 21
5.061934803
  0
LINE
  5
3C6
100
AcDbEntity
  8
CURVE
100
AcDbLine
 62
250
  6
CONTINUOUS
 10
-2.8489824087
 20
2.615126286
 11
-2.8489824087
 21
2.7853390316
  0
LINE
  5
3C7
100
AcDbEntity
  8
CURVE
100
AcDbLine
 62
250
  6
CONTINUOUS
 10
-2.2656490953
 20
3.125764523
 11
-2.2656490953
 21
3.210871015
  0
LINE
  5
3C8
100
AcDbEntity
  8
CURVE
100
AcDbLine
 62
250
  6
CONTINUOUS
 10
-2.2239824683
 20
2.1470411758
 11
-2.2239824683
 21
2.3172539215
  0
LINE
  5
3C9
100
AcDbEntity
  8
CURVE
100
AcDbLine
 62
250
  6
CONTINUOUS
 10
-2.0573157222
 20
3.210871015
 11
-2.0573157222
 21
3.125764523
  0
LINE
  5
3CA
100
AcDbEntity
  8
CURVE
100
AcDbLine
 62
250
  6
CONTINUOUS
 10
-2.0156490953
 20
2.3172539215
 11
-2.0156490953
 21
2.1470411758
  0
LINE
  5
3CB
100
AcDbEntity
  8
CURVE
100
AcDbLine
 62
250
  6
CONTINUOUS
 10
-2.0573157222
 20
3.125764523
 11
-2.0989824683
 21
2.9555517773
  0
LINE
  5
3CC
100
AcDbEntity
  8
CURVE
100
AcDbLine
 62
250
  6
CONTINUOUS
 10
-2.0156490953
 20
2.1470411758
 11
-2.0573157222
 21
2.0193815867
  0
LINE
  5
3CD
100
AcDbEntity
  8
CURVE
100
AcDbLine
 62
250
  6
CONTINUOUS
 10
2.0343509047
 20
6.3810837607
 11
2.2843509047
 21
6.6789560656
  0
LINE
  5
3CE
100
AcDbEntity
  8
CURVE
100
AcDbLine
 62
250
  6
CONTINUOUS
 10
2.2843509047
 20
6.3385305743
 11
2.0343509047
 21
6.0406581501
  0
LINE
  5
3CF
100
AcDbEntity
  8
RACCORDO
100
AcDbLine
 62
250
  6
CONTINUOUS
 10
11.8983943644
 20
13.7940408821
 11
12.2843509047
 21
14.1801744116
  0
LINE
  5
3D0
100
AcDbEntity
  8
ASSI
100
AcDbLine
 62
250
  6
CONTINUOUS
 10
11.8983943644
 20
13.7940408821
 11
12.2843509047
 21
14.1801744116
  0
LINE
  5
3D1
100
AcDbEntity
  8
CURVE
100
AcDbLine
 62
7
  6
CONTINUOUS
 10
-8.8704998737
 20
-5.8210439344
 11
-7.3458855725
 21
-4.2964296332
  0
LINE
  5
3D2
100
AcDbEntity
  8
CURVE
100
AcDbLine
 62
7
  6
CONTINUOUS
 10
2.2843509047
 20
5.333806844
 11
2.5343509047
 21
5.583806844
  0
LINE
  5
3D3
100
AcDbEntity
  8
0
100
AcDbLine
 62
7
  6
CONTINUOUS
 10
-10.135087582
 20
-7.7404824211
 11
-10.2156490953
 21
-7.8210439344
  0
LINE
  5
3D4
100
AcDbEntity
  8
ASSI
100
AcDbLine
 62
7
  6
CONTINUOUS
 10
-10.135087582
 20
-7.7404824211
 11
-10.2156490953
 21
-7.8210439344
  0
LINE
  5
3D5
100
AcDbEntity
  8
CURVE
100
AcDbLine
 62
7
  6
CONTINUOUS
 10
-8.0304570177
 20
-5.8210439344
 11
-7.0384085469
 21
-4.8289954637
  0
LINE
  5
3D6
100
AcDbEntity
  8
CURVE
100
AcDbLine
 62
7
  6
CONTINUOUS
 10
2.4695429823
 20
4.6789560656
 11
2.5343509047
 21
4.743763988
  0
LINE
  5
3D7
100
AcDbEntity
  8
RACCORDO
100
AcDbLine
 62
250
  6
CONTINUOUS
 10
-10.3307281246
 20
-7.4350873941
 11
-10.7168674412
 21
-7.8210439344
  0
LINE
  5
3D8
100
AcDbEntity
  8
ASSI
100
AcDbLine
 62
250
  6
CONTINUOUS
 10
-10.3307281246
 20
-7.4350873941
 11
-10.7168674412
 21
-7.8210439344
  0
LINE
  5
3D9
100
AcDbEntity
  8
CURVE
100
AcDbLine
 62
250
  6
CONTINUOUS
 10
1.942684248
 20
3.4236369471
 11
1.817684248
 21
3.3385305743
  0
LINE
  5
3DA
100
AcDbEntity
  8
CURVE
100
AcDbLine
 62
250
  6
CONTINUOUS
 10
1.7343509047
 20
3.5512965063
 11
1.9010175615
 21
3.6364028792
  0
LWPOLYLINE
  5
3DB
100
AcDbEntity
  8
RACCORDO
100
AcDbPolyline
 62
250
  6
CONTINUOUS
 90
13
 70
0
 10
-12.5295707203
 20
-3.4350873941
 10
-12.5212742643
 20
-3.430927706
 10
-12.5047344589
 20
-3.4268235995
 10
-12.4799513039
 20
-3.4227750745
 10
-12.4467337311
 20
-3.4187579561
 10
-12.4052728089
 20
-3.4147964192
 10
-12.3561417422
 20
-3.410962989
 10
-12.2991924566
 20
-3.4072627526
 10
-12.2345730266
 20
-3.4036906229
 10
-12.1633008809
 20
-3.4003038638
 10
-12.0857151625
 20
-3.3971215634
 10
-12.0014767284
 20
-3.3941246335
 10
-11.9105855786
 20
-3.3913130743
  0
LWPOLYLINE
  5
3DC
100
AcDbEntity
  8
ASSI
100
AcDbPolyline
 62
250
  6
CONTINUOUS
 90
13
 70
0
 10
-12.5295707203
 20
-3.4350873941
 10
-12.5212742643
 20
-3.430927706
 10
-12.5047344589
 20
-3.4268235995
 10
-12.4799513039
 20
-3.4227750745
 10
-12.4467337311
 20
-3.4187579561
 10
-12.4052728089
 20
-3.4147964192
 10
-12.3561417422
 20
-3.410962989
 10
-12.2991924566
 20
-3.4072627526
 10
-12.2345730266
 20
-3.4036906229
 10
-12.1633008809
 20
-3.4003038638
 10
-12.0857151625
 20
-3.3971215634
 10
-12.0014767284
 20
-3.3941246335
 10
-11.9105855786
 20
-3.3913130743
  0
LWPOLYLINE
  5
3DD
100
AcDbEntity
  8
RACCORDO
100
AcDbPolyline
 62
250
  6
CONTINUOUS
 90
12
 70
0
 10
-13.210343483
 20
-3.2082379811
 10
-13.3113986944
 20
-3.2114238241
 10
-13.4049946104
 20
-3.2148109036
 10
-13.4906598861
 20
-3.2184027124
 10
-13.5679420802
 20
-3.2221957578
 10
-13.6364318966
 20
-3.226131807
 10
-13.6957758709
 20
-3.2302127255
 10
-13.7456779039
 20
-3.2344366479
 10
-13.7858868588
 20
-3.2387397449
 10
-13.8161968246
 20
-3.2431007402
 10
-13.8364506238
 20
-3.2475409102
 10
-13.846543581
 20
-3.2520602548
  0
LWPOLYLINE
  5
3DE
100
AcDbEntity
  8
ASSI
100
AcDbPolyline
 62
250
  6
CONTINUOUS
 90
12
 70
0
 10
-13.210343483
 20
-3.2082379811
 10
-13.3113986944
 20
-3.2114238241
 10
-13.4049946104
 20
-3.2148109036
 10
-13.4906598861
 20
-3.2184027124
 10
-13.5679420802
 20
-3.2221957578
 10
-13.6364318966
 20
-3.226131807
 10
-13.6957758709
 20
-3.2302127255
 10
-13.7456779039
 20
-3.2344366479
 10
-13.7858868588
 20
-3.2387397449
 10
-13.8161968246
 20
-3.2431007402
 10
-13.8364506238
 20
-3.2475409102
 10
-13.846543581
 20
-3.2520602548
  0
LINE
  5
3DF
100
AcDbEntity
  8
CURVE
100
AcDbLine
 62
250
  6
CONTINUOUS
 10
-8.0989824385
 20
1.7215092557
 11
-8.2656490953
 21
1.8066156397
  0
LINE
  5
3E0
100
AcDbEntity
  8
CURVE
100
AcDbLine
 62
250
  6
CONTINUOUS
 10
-8.182315752
 20
1.9768284003
 11
-8.0989824385
 21
1.9342752139
  0
LINE
  5
3E1
100
AcDbEntity
  8
CURVE
100
AcDbLine
 62
250
  6
CONTINUOUS
 10
-7.3073157222
 20
2.4874667267
 11
-7.4323157222
 21
2.5725730996
  0
LINE
  5
3E2
100
AcDbEntity
  8
RACCORDO
100
AcDbLine
 62
250
  6
CONTINUOUS
 10
-13.8465506163
 20
11.6099794212
 11
-14.2156490953
 21
11.9790779002
  0
LINE
  5
3E3
100
AcDbEntity
  8
ASSI
100
AcDbLine
 62
250
  6
CONTINUOUS
 10
-13.8465506163
 20
11.6099794212
 11
-14.2156490953
 21
11.9790779002
  0
LINE
  5
3E4
100
AcDbEntity
  8
CURVE
100
AcDbLine
 62
250
  6
CONTINUOUS
 10
-7.2656490953
 20
3.5512965063
 11
-7.0989824683
 21
3.3810837607
  0
LINE
  5
3E5
100
AcDbEntity
  8
CURVE
100
AcDbLine
 62
250
  6
CONTINUOUS
 10
-8.2739824385
 20
4.8066156397
 11
-8.4406490953
 21
4.9768284003
  0
LINE
  5
3E6
100
AcDbEntity
  8
CURVE
100
AcDbLine
 62
250
  6
CONTINUOUS
 10
-3.3906490953
 20
1.8917220275
 11
-3.4739824274
 21
2.0193815867
  0
LINE
  5
3E7
100
AcDbEntity
  8
CURVE
100
AcDbLine
 62
250
  6
CONTINUOUS
 10
-3.3073157669
 20
2.1470411758
 11
-3.2656490953
 21
2.061934803
  0
LINE
  5
3E8
100
AcDbEntity
  8
CURVE
100
AcDbLine
 62
250
  6
CONTINUOUS
 10
-3.4739824274
 20
2.0193815867
 11
-3.5156490953
 21
2.1470411758
  0
LINE
  5
3E9
100
AcDbEntity
  8
CURVE
100
AcDbLine
 62
250
  6
CONTINUOUS
 10
-3.3156490953
 20
5.3598071079
 11
-3.2739824385
 21
5.1895943622
  0
LINE
  5
3EA
100
AcDbEntity
  8
CURVE
100
AcDbLine
 62
250
  6
CONTINUOUS
 10
-3.5239824274
 20
5.1470411758
 11
-3.5656490953
 21
5.3598071079
  0
LWPOLYLINE
  5
3EB
100
AcDbEntity
  8
0
100
AcDbPolyline
 62
7
  6
CONTINUOUS
 90
4
 70
0
 43
0.3500000006
 10
-0.2156490882
 20
25.3603808441
 10
-0.2156490882
 20
26.2175233154
 10
0.2129223245
 20
26.646096817
 10
0.8557794435
 20
26.646096817
  0
LINE
  5
3EC
100
AcDbEntity
  8
IMPORT_IGES
100
AcDbLine
 62
7
  6
CONTINUOUS
 10
2.6160779047
 20
11.1859160656
 11
2.6455711077
 21
11.2948008202
  0
LINE
  5
3ED
100
AcDbEntity
  8
IMPORT_IGES
100
AcDbLine
 62
7
  6
CONTINUOUS
 10
2.107499694
 20
11.3207480257
 11
2.0661299047
 21
11.1859160656
  0
LINE
  5
3EE
100
AcDbEntity
  8
CURVE
100
AcDbLine
 62
250
  6
CONTINUOUS
 10
1.817684248
 20
3.3385305743
 11
1.7343509047
 21
3.210871015
  0
LINE
  5
3EF
100
AcDbEntity
  8
CURVE
100
AcDbLine
 62
250
  6
CONTINUOUS
 10
1.5676842406
 20
3.3810837607
 11
1.7343509047
 21
3.5512965063
  0
LINE
  5
3F0
100
AcDbEntity
  8
CURVE
100
AcDbLine
 62
7
  6
CONTINUOUS
 10
-7.1904141616
 20
-5.8210439344
 11
-6.7309315213
 21
-5.3615612941
  0
LINE
  5
3F1
100
AcDbEntity
  8
CURVE
100
AcDbLine
 62
7
  6
CONTINUOUS
 10
2.082908204
 20
3.4522784312
 11
2.3095858384
 21
3.6789560656
  0
LINE
  5
3F2
100
AcDbEntity
  8
CURVE
100
AcDbLine
 62
7
  6
CONTINUOUS
 10
2.713494248
 20
3.2428216191
 11
2.897698888
 21
3.4270262591
  0
LINE
  5
3F3
100
AcDbEntity
  8
RACCORDO
100
AcDbLine
 62
250
  6
CONTINUOUS
 10
12.2843509047
 20
12.378834231
 11
11.8984014949
 21
11.9928848212
  0
LINE
  5
3F4
100
AcDbEntity
  8
ASSI
100
AcDbLine
 62
250
  6
CONTINUOUS
 10
12.2843509047
 20
12.378834231
 11
11.8984014949
 21
11.9928848212
  0
LINE
  5
3F5
100
AcDbEntity
  8
CURVE
100
AcDbLine
 62
250
  6
CONTINUOUS
 10
1.4843509047
 20
1.8917220275
 11
2.6510175317
 21
2.9555517773
  0
LINE
  5
3F6
100
AcDbEntity
  8
CURVE
100
AcDbLine
 62
250
  6
CONTINUOUS
 10
2.8593509047
 20
2.8278922181
 11
1.817684248
 21
1.8917220275
  0
LINE
  5
3F7
100
AcDbEntity
  8
CURVE
100
AcDbLine
 62
250
  6
CONTINUOUS
 10
6.7343509047
 20
3.5512965063
 11
6.9010175615
 21
3.6364028792
  0
LINE
  5
3F8
100
AcDbEntity
  8
0
100
AcDbLine
 62
7
  6
CONTINUOUS
 10
13.4067788129
 20
-0.4158524671
 11
12.2843509047
 21
-0.4837420107
  0
LINE
  5
3F9
100
AcDbEntity
  8
ASSI
100
AcDbLine
 62
7
  6
CONTINUOUS
 10
13.4067788129
 20
-0.4158524671
 11
12.2843509047
 21
-0.4837420107
  0
LINE
  5
3FA
100
AcDbEntity
  8
RACCORDO
100
AcDbLine
 62
7
  6
CONTINUOUS
 10
11.4164637365
 20
-1.039232246
 11
10.3993081239
 21
-1.039232246
  0
LINE
  5
3FB
100
AcDbEntity
  8
ASSI
100
AcDbLine
 62
7
  6
CONTINUOUS
 10
11.4164637365
 20
-1.039232246
 11
10.3993081239
 21
-1.039232246
  0
LINE
  5
3FC
100
AcDbEntity
  8
RACCORDO
100
AcDbLine
 62
7
  6
CONTINUOUS
 10
-10.8306063144
 20
-1.039232246
 11
-11.847761927
 21
-1.039232246
  0
LINE
  5
3FD
100
AcDbEntity
  8
ASSI
100
AcDbLine
 62
7
  6
CONTINUOUS
 10
-10.8306063144
 20
-1.039232246
 11
-11.847761927
 21
-1.039232246
  0
LINE
  5
3FE
100
AcDbEntity
  8
RACCORDO
100
AcDbLine
 62
250
  6
CONTINUOUS
 10
13.6951777572
 20
-0.7318707868
 11
12.3735240523
 21
-0.7318707868
  0
LINE
  5
3FF
100
AcDbEntity
  8
ASSI
100
AcDbLine
 62
250
  6
CONTINUOUS
 10
13.6951777572
 20
-0.7318707868
 11
12.3735240523
 21
-0.7318707868
  0
LINE
  5
400
100
AcDbEntity
  8
RACCORDO
100
AcDbLine
 62
250
  6
CONTINUOUS
 10
-12.8048222428
 20
-0.7318707868
 11
-14.1264759477
 21
-0.7318707868
  0
LINE
  5
401
100
AcDbEntity
  8
ASSI
100
AcDbLine
 62
250
  6
CONTINUOUS
 10
-12.8048222428
 20
-0.7318707868
 11
-14.1264759477
 21
-0.7318707868
  0
LINE
  5
402
100
AcDbEntity
  8
RACCORDO
100
AcDbLine
 62
250
  6
CONTINUOUS
 10
13.6866025411
 20
-0.2319469392
 11
13.4067788129
 21
-0.2319469392
  0
LINE
  5
403
100
AcDbEntity
  8
ASSI
100
AcDbLine
 62
250
  6
CONTINUOUS
 10
13.6866025411
 20
-0.2319469392
 11
13.4067788129
 21
-0.2319469392
  0
LINE
  5
404
100
AcDbEntity
  8
RACCORDO
100
AcDbLine
 62
250
  6
CONTINUOUS
 10
-13.8380770034
 20
-0.2319469392
 11
-14.1179007317
 21
-0.2319469392
  0
LINE
  5
405
100
AcDbEntity
  8
ASSI
100
AcDbLine
 62
250
  6
CONTINUOUS
 10
-13.8380770034
 20
-0.2319469392
 11
-14.1179007317
 21
-0.2319469392
  0
LINE
  5
406
100
AcDbEntity
  8
0
100
AcDbLine
 62
7
  6
CONTINUOUS
 10
-12.7156490953
 20
-0.4837420107
 11
-13.8380770034
 21
-0.4158524671
  0
LINE
  5
407
100
AcDbEntity
  8
ASSI
100
AcDbLine
 62
7
  6
CONTINUOUS
 10
-12.7156490953
 20
-0.4837420107
 11
-13.8380770034
 21
-0.4158524671
  0
LINE
  5
408
100
AcDbEntity
  8
CURVE
100
AcDbLine
 62
250
  6
CONTINUOUS
 10
-7.9323157818
 20
1.6789560656
 11
-8.0989824385
 21
1.7215092557
  0
LINE
  5
409
100
AcDbEntity
  8
CURVE
100
AcDbLine
 62
250
  6
CONTINUOUS
 10
-7.3489824683
 20
2.7002326588
 11
-7.1406490953
 21
2.615126286
  0
LINE
  5
40A
100
AcDbEntity
  8
CURVE
100
AcDbLine
 62
250
  6
CONTINUOUS
 10
-7.4323157222
 20
3.6364028792
 11
-7.2656490953
 21
3.5512965063
  0
LINE
  5
40B
100
AcDbEntity
  8
CURVE
100
AcDbLine
 62
250
  6
CONTINUOUS
 10
-7.3489824683
 20
3.3385305743
 11
-7.4739824683
 21
3.4236369471
  0
LINE
  5
40C
100
AcDbEntity
  8
CURVE
100
AcDbLine
 62
250
  6
CONTINUOUS
 10
-8.1906490953
 20
5.061934803
 11
-8.0656490953
 21
4.9768284003
  0
LINE
  5
40D
100
AcDbEntity
  8
CURVE
100
AcDbLine
 62
250
  6
CONTINUOUS
 10
-3.2656490953
 20
1.8066156397
 11
-3.3906490953
 21
1.8917220275
  0
LINE
  5
40E
100
AcDbEntity
  8
RACCORDO
100
AcDbLine
 62
250
  6
CONTINUOUS
 10
-13.6466654156
 20
11.8098505514
 11
-14.0157709299
 21
12.1789560656
  0
LINE
  5
40F
100
AcDbEntity
  8
ASSI
100
AcDbLine
 62
250
  6
CONTINUOUS
 10
-13.6466654156
 20
11.8098505514
 11
-14.0157709299
 21
12.1789560656
  0
LINE
  5
410
100
AcDbEntity
  8
RACCORDO
100
AcDbLine
 62
250
  6
CONTINUOUS
 10
-12.5295707203
 20
11.7929995253
 11
-12.9155272607
 21
12.1789560656
  0
LINE
  5
411
100
AcDbEntity
  8
ASSI
100
AcDbLine
 62
250
  6
CONTINUOUS
 10
-12.5295707203
 20
11.7929995253
 11
-12.9155272607
 21
12.1789560656
  0
LINE
  5
412
100
AcDbEntity
  8
RACCORDO
100
AcDbLine
 62
250
  6
CONTINUOUS
 10
-12.329699754
 20
11.9928848897
 11
-12.7156490953
 21
12.378834231
  0
LINE
  5
413
100
AcDbEntity
  8
ASSI
100
AcDbLine
 62
250
  6
CONTINUOUS
 10
-12.329699754
 20
11.9928848897
 11
-12.7156490953
 21
12.378834231
  0
LINE
  5
414
100
AcDbEntity
  8
CURVE
100
AcDbLine
 62
250
  6
CONTINUOUS
 10
-3.2656490953
 20
2.061934803
 11
-3.182315752
 21
1.9768284003
  0
LINE
  5
415
100
AcDbEntity
  8
CURVE
100
AcDbLine
 62
250
  6
CONTINUOUS
 10
-7.1489824683
 20
6.5512965063
 11
-6.9823157222
 21
6.3810837607
  0
LINE
  5
416
100
AcDbEntity
  8
CURVE
100
AcDbLine
 62
250
  6
CONTINUOUS
 10
-2.1406490953
 20
2.615126286
 11
-2.0573157222
 21
2.4874667267
  0
LINE
  5
417
100
AcDbEntity
  8
CURVE
100
AcDbLine
 62
250
  6
CONTINUOUS
 10
-2.2656490953
 20
3.210871015
 11
-2.3489824683
 21
3.3385305743
  0
LINE
  5
418
100
AcDbEntity
  8
CURVE
100
AcDbLine
 62
250
  6
CONTINUOUS
 10
-2.2239824683
 20
2.3172539215
 11
-2.3073157222
 21
2.4874667267
  0
LINE
  5
419
100
AcDbEntity
  8
CURVE
100
AcDbLine
 62
250
  6
CONTINUOUS
 10
-3.4406490953
 20
4.9768284003
 11
-3.5239824274
 21
5.1470411758
  0
LINE
  5
41A
100
AcDbEntity
  8
CURVE
100
AcDbLine
 62
250
  6
CONTINUOUS
 10
-2.1906490953
 20
6.1683177094
 11
-2.2323157222
 21
6.2959773878
  0
LINE
  5
41B
100
AcDbEntity
  8
CURVE
100
AcDbLine
 62
250
  6
CONTINUOUS
 10
-2.0573157222
 20
2.4874667267
 11
-2.0156490953
 21
2.3172539215
  0
LINE
  5
41C
100
AcDbEntity
  8
CURVE
100
AcDbLine
 62
250
  6
CONTINUOUS
 10
-2.0989824683
 20
3.3810837607
 11
-2.0573157222
 21
3.210871015
  0
LINE
  5
41D
100
AcDbEntity
  8
CURVE
100
AcDbLine
 62
250
  6
CONTINUOUS
 10
-1.9823157222
 20
6.3810837607
 11
-1.9406490953
 21
6.1683177094
  0
LINE
  5
41E
100
AcDbEntity
  8
CURVE
100
AcDbLine
 62
250
  6
CONTINUOUS
 10
1.5260175726
 20
3.210871015
 11
1.5676842406
 21
3.3810837607
  0
LINE
  5
41F
100
AcDbEntity
  8
CURVE
100
AcDbLine
 62
250
  6
CONTINUOUS
 10
2.6510175317
 20
2.9555517773
 11
2.7343509047
 21
3.125764523
  0
LINE
  5
420
100
AcDbEntity
  8
CURVE
100
AcDbLine
 62
250
  6
CONTINUOUS
 10
7.2843509047
 20
12.0138925561
 11
8.5343509047
 21
14.1789560656
  0
LINE
  5
421
100
AcDbEntity
  8
CURVE
100
AcDbLine
 62
250
  6
CONTINUOUS
 10
-2.7156490953
 20
-5.8210439344
 11
-1.4656490953
 21
-3.6559804249
  0
LINE
  5
422
100
AcDbEntity
  8
CURVE
100
AcDbLine
 62
250
  6
CONTINUOUS
 10
2.9426842778
 20
2.9555517773
 11
2.8593509047
 21
2.8278922181
  0
LINE
  5
423
100
AcDbEntity
  8
CURVE
100
AcDbLine
 62
250
  6
CONTINUOUS
 10
7.0343509047
 20
6.3810837607
 11
7.2843509047
 21
6.6789560656
  0
LINE
  5
424
100
AcDbEntity
  8
CURVE
100
AcDbLine
 62
250
  6
CONTINUOUS
 10
7.2843509047
 20
6.3385305743
 11
7.0343509047
 21
6.0406581501
  0
LINE
  5
425
100
AcDbEntity
  8
RACCORDO
100
AcDbLine
 62
250
  6
CONTINUOUS
 10
12.4842290701
 20
12.1789560656
 11
12.0982725298
 21
11.7929995253
  0
LINE
  5
426
100
AcDbEntity
  8
ASSI
100
AcDbLine
 62
250
  6
CONTINUOUS
 10
12.4842290701
 20
12.1789560656
 11
12.0982725298
 21
11.7929995253
  0
LINE
  5
427
100
AcDbEntity
  8
CURVE
100
AcDbLine
 62
7
  6
CONTINUOUS
 10
-3.7385727343
 20
-4.0492882192
 11
-3.34526494
 21
-3.6559804249
  0
LINE
  5
428
100
AcDbEntity
  8
CURVE
100
AcDbLine
 62
7
  6
CONTINUOUS
 10
1.9896715505
 20
1.6789560656
 11
2.2024375124
 21
1.8917220275
  0
LINE
  5
429
100
AcDbEntity
  8
CURVE
100
AcDbLine
 62
7
  6
CONTINUOUS
 10
-3.4310957088
 20
-4.5818540497
 11
-2.505222084
 21
-3.6559804249
  0
LINE
  5
42A
100
AcDbEntity
  8
CURVE
100
AcDbLine
 62
7
  6
CONTINUOUS
 10
2.8297144065
 20
1.6789560656
 11
2.9843509047
 21
1.8335925638
  0
LINE
  5
42B
100
AcDbEntity
  8
CURVE
100
AcDbLine
 62
7
  6
CONTINUOUS
 10
7.2843509047
 20
6.1335925638
 11
7.5343509047
 21
6.3835925638
  0
LINE
  5
42C
100
AcDbEntity
  8
RACCORDO
100
AcDbLine
 62
250
  6
CONTINUOUS
 10
13.2153672251
 20
11.8098505514
 11
13.5844727393
 21
12.1789560656
  0
LINE
  5
42D
100
AcDbEntity
  8
ASSI
100
AcDbLine
 62
250
  6
CONTINUOUS
 10
13.2153672251
 20
11.8098505514
 11
13.5844727393
 21
12.1789560656
  0
LINE
  5
42E
100
AcDbEntity
  8
RACCORDO
100
AcDbLine
 62
250
  6
CONTINUOUS
 10
13.4152453905
 20
11.609972386
 11
13.7843509047
 21
11.9790779002
  0
LINE
  5
42F
100
AcDbEntity
  8
ASSI
100
AcDbLine
 62
250
  6
CONTINUOUS
 10
13.4152453905
 20
11.609972386
 11
13.7843509047
 21
11.9790779002
  0
LINE
  5
430
100
AcDbEntity
  8
CURVE
100
AcDbLine
 62
7
  6
CONTINUOUS
 10
-3.1236186832
 20
-5.1144198802
 11
-1.6651792279
 21
-3.6559804249
  0
LINE
  5
431
100
AcDbEntity
  8
CURVE
100
AcDbLine
 62
7
  6
CONTINUOUS
 10
7.2843509047
 20
5.2935497077
 11
7.5343509047
 21
5.5435497077
  0
LINE
  5
432
100
AcDbEntity
  8
CURVE
100
AcDbLine
 62
250
  6
CONTINUOUS
 10
6.942684248
 20
3.4236369471
 11
6.817684248
 21
3.3385305743
  0
LINE
  5
433
100
AcDbEntity
  8
CURVE
100
AcDbLine
 62
250
  6
CONTINUOUS
 10
-7.4323157222
 20
2.5725730996
 11
-7.6823157818
 21
2.615126286
  0
LINE
  5
434
100
AcDbEntity
  8
CURVE
100
AcDbLine
 62
250
  6
CONTINUOUS
 10
-8.0989824385
 20
1.9342752139
 11
-7.8906490953
 21
1.8917220275
  0
LINE
  5
435
100
AcDbEntity
  8
CURVE
100
AcDbLine
 62
250
  6
CONTINUOUS
 10
-3.0989824385
 20
1.9342752139
 11
-2.8906490953
 21
1.8917220275
  0
LINE
  5
436
100
AcDbEntity
  8
CURVE
100
AcDbLine
 62
250
  6
CONTINUOUS
 10
-2.9323157818
 20
1.6789560656
 11
-3.0989824385
 21
1.7215092557
  0
LINE
  5
437
100
AcDbEntity
  8
CURVE
100
AcDbLine
 62
250
  6
CONTINUOUS
 10
-3.0989824385
 20
1.7215092557
 11
-3.2656490953
 21
1.8066156397
  0
LINE
  5
438
100
AcDbEntity
  8
CURVE
100
AcDbLine
 62
250
  6
CONTINUOUS
 10
-3.182315752
 20
1.9768284003
 11
-3.0989824385
 21
1.9342752139
  0
LINE
  5
439
100
AcDbEntity
  8
CURVE
100
AcDbLine
 62
250
  6
CONTINUOUS
 10
-8.107315752
 20
4.7215092557
 11
-8.2739824385
 21
4.8066156397
  0
LINE
  5
43A
100
AcDbEntity
  8
CURVE
100
AcDbLine
 62
250
  6
CONTINUOUS
 10
-2.3073157222
 20
2.4874667267
 11
-2.4323157222
 21
2.5725730996
  0
LINE
  5
43B
100
AcDbEntity
  8
CURVE
100
AcDbLine
 62
250
  6
CONTINUOUS
 10
-7.2323157222
 20
6.2959773878
 11
-7.3573157222
 21
6.3810837607
  0
LINE
  5
43C
100
AcDbEntity
  8
RACCORDO
100
AcDbLine
 62
250
  6
CONTINUOUS
 10
-12.3296925549
 20
13.7940350949
 11
-12.7156490953
 21
14.1801744116
  0
LINE
  5
43D
100
AcDbEntity
  8
ASSI
100
AcDbLine
 62
250
  6
CONTINUOUS
 10
-12.3296925549
 20
13.7940350949
 11
-12.7156490953
 21
14.1801744116
  0
LINE
  5
43E
100
AcDbEntity
  8
CURVE
100
AcDbLine
 62
250
  6
CONTINUOUS
 10
-2.2656490953
 20
3.5512965063
 11
-2.0989824683
 21
3.3810837607
  0
LINE
  5
43F
100
AcDbEntity
  8
CURVE
100
AcDbLine
 62
250
  6
CONTINUOUS
 10
-3.2739824385
 20
4.8066156397
 11
-3.4406490953
 21
4.9768284003
  0
LINE
  5
440
100
AcDbEntity
  8
CURVE
100
AcDbLine
 62
250
  6
CONTINUOUS
 10
-3.2739824385
 20
5.1895943622
 11
-3.1906490953
 21
5.061934803
  0
LINE
  5
441
100
AcDbEntity
  8
CURVE
100
AcDbLine
 62
250
  6
CONTINUOUS
 10
2.2843509047
 20
-3.6559804249
 11
3.5343509047
 21
-5.8210439344
  0
LINE
  5
442
100
AcDbEntity
  8
CURVE
100
AcDbLine
 62
250
  6
CONTINUOUS
 10
-7.7156490953
 20
14.1789560656
 11
-6.4656490953
 21
12.0138925561
  0
LINE
  5
443
100
AcDbEntity
  8
CURVE
100
AcDbLine
 62
250
  6
CONTINUOUS
 10
1.4843509047
 20
1.6789560656
 11
1.4843509047
 21
1.8917220275
  0
LINE
  5
444
100
AcDbEntity
  8
IMPORT_IGES
100
AcDbLine
 62
7
  6
CONTINUOUS
 10
1.9129060435
 20
11.2931255276
 11
1.9129060435
 21
11.1859160491
  0
LINE
  5
445
100
AcDbEntity
  8
CURVE
100
AcDbLine
 62
250
  6
CONTINUOUS
 10
2.0343509047
 20
6.0406581501
 11
2.0343509047
 21
6.3810837607
  0
LINE
  5
446
100
AcDbEntity
  8
CURVE
100
AcDbLine
 62
250
  6
CONTINUOUS
 10
2.2843509047
 20
4.6789560656
 11
2.2843509047
 21
6.3385305743
  0
LINE
  5
447
100
AcDbEntity
  8
CURVE
100
AcDbLine
 62
250
  6
CONTINUOUS
 10
2.5343509047
 20
6.6789560656
 11
2.5343509047
 21
4.6789560656
  0
LINE
  5
448
100
AcDbEntity
  8
CURVE
100
AcDbLine
 62
250
  6
CONTINUOUS
 10
2.7343509047
 20
3.125764523
 11
2.7343509047
 21
3.210871015
  0
LINE
  5
449
100
AcDbEntity
  8
CURVE
100
AcDbLine
 62
250
  6
CONTINUOUS
 10
2.9843509047
 20
3.125764523
 11
2.9426842778
 21
2.9555517773
  0
LINE
  5
44A
100
AcDbEntity
  8
CURVE
100
AcDbLine
 62
250
  6
CONTINUOUS
 10
6.5676842406
 20
3.3810837607
 11
6.7343509047
 21
3.5512965063
  0
LINE
  5
44B
100
AcDbEntity
  8
CURVE
100
AcDbLine
 62
7
  6
CONTINUOUS
 10
-2.8161416576
 20
-5.6469857106
 11
-2.3406057468
 21
-5.1714497999
  0
LINE
  5
44C
100
AcDbEntity
  8
CURVE
100
AcDbLine
 62
7
  6
CONTINUOUS
 10
7.5098001186
 20
4.6789560656
 11
7.5343509047
 21
4.7035068517
  0
LINE
  5
44D
100
AcDbEntity
  8
CURVE
100
AcDbLine
 62
7
  6
CONTINUOUS
 10
7.1334987207
 20
3.4626118116
 11
7.3498429747
 21
3.6789560656
  0
LINE
  5
44E
100
AcDbEntity
  8
CURVE
100
AcDbLine
 62
250
  6
CONTINUOUS
 10
6.4843509047
 20
1.8917220275
 11
7.6510175317
 21
2.9555517773
  0
LINE
  5
44F
100
AcDbEntity
  8
CURVE
100
AcDbLine
 62
250
  6
CONTINUOUS
 10
-2.4323157222
 20
1.7215092557
 11
-2.5989824087
 21
1.6789560656
  0
LINE
  5
450
100
AcDbEntity
  8
CURVE
100
AcDbLine
 62
250
  6
CONTINUOUS
 10
7.1510175913
 20
3.4661901335
 11
6.942684248
 21
3.4236369471
  0
LINE
  5
451
100
AcDbEntity
  8
CURVE
100
AcDbLine
 62
250
  6
CONTINUOUS
 10
-2.6406490953
 20
1.8917220275
 11
-2.4323157222
 21
1.9342752139
  0
LINE
  5
452
100
AcDbEntity
  8
CURVE
100
AcDbLine
 62
250
  6
CONTINUOUS
 10
6.9010175615
 20
3.6364028792
 11
7.1926842182
 21
3.6789560656
  0
LINE
  5
453
100
AcDbEntity
  8
CURVE
100
AcDbLine
 62
250
  6
CONTINUOUS
 10
7.9843509047
 20
1.6789560656
 11
6.4843509047
 21
1.6789560656
  0
LINE
  5
454
100
AcDbEntity
  8
CURVE
100
AcDbLine
 62
250
  6
CONTINUOUS
 10
2.9843509047
 20
1.6789560656
 11
1.4843509047
 21
1.6789560656
  0
LINE
  5
455
100
AcDbEntity
  8
CURVE
100
AcDbLine
 62
250
  6
CONTINUOUS
 10
-2.5989824087
 20
1.6789560656
 11
-2.9323157818
 21
1.6789560656
  0
LINE
  5
456
100
AcDbEntity
  8
CURVE
100
AcDbLine
 62
250
  6
CONTINUOUS
 10
-7.5989824087
 20
1.6789560656
 11
-7.9323157818
 21
1.6789560656
  0
LWPOLYLINE
  5
457
100
AcDbEntity
  8
0
100
AcDbPolyline
 62
7
  6
CONTINUOUS
 90
4
 70
0
 43
0.3500000006
 10
28.7336079712
 20
1.7559414825
 10
28.0907522507
 20
1.7559414825
 10
28.0907522507
 20
3.2559396744
 10
31.0907509003
 20
2.3987972031
  0
LINE
  5
458
100
AcDbEntity
  8
CURVE
100
AcDbLine
 62
250
  6
CONTINUOUS
 10
-7.8906490953
 20
1.8917220275
 11
-7.6406490953
 21
1.8917220275
  0
LINE
  5
459
100
AcDbEntity
  8
CURVE
100
AcDbLine
 62
250
  6
CONTINUOUS
 10
-2.8906490953
 20
1.8917220275
 11
-2.6406490953
 21
1.8917220275
  0
LINE
  5
45A
100
AcDbEntity
  8
CURVE
100
AcDbLine
 62
250
  6
CONTINUOUS
 10
1.817684248
 20
1.8917220275
 11
2.9843509047
 21
1.8917220275
  0
LINE
  5
45B
100
AcDbEntity
  8
CURVE
100
AcDbLine
 62
250
  6
CONTINUOUS
 10
6.817684248
 20
1.8917220275
 11
7.9843509047
 21
1.8917220275
  0
LINE
  5
45C
100
AcDbEntity
  8
CURVE
100
AcDbLine
 62
250
  6
CONTINUOUS
 10
-8.5156490953
 20
2.1470411758
 11
-8.3073157669
 21
2.1470411758
  0
LINE
  5
45D
100
AcDbEntity
  8
CURVE
100
AcDbLine
 62
250
  6
CONTINUOUS
 10
-3.5156490953
 20
2.1470411758
 11
-3.3073157669
 21
2.1470411758
  0
LINE
  5
45E
100
AcDbEntity
  8
CURVE
100
AcDbLine
 62
250
  6
CONTINUOUS
 10
-2.6823157818
 20
2.615126286
 11
-2.8489824087
 21
2.615126286
  0
LINE
  5
45F
100
AcDbEntity
  8
CURVE
100
AcDbLine
 62
250
  6
CONTINUOUS
 10
-7.6823157818
 20
2.615126286
 11
-7.8489824087
 21
2.615126286
  0
LINE
  5
460
100
AcDbEntity
  8
CURVE
100
AcDbLine
 62
250
  6
CONTINUOUS
 10
-7.8489824087
 20
2.7853390316
 11
-7.6823157818
 21
2.7853390316
  0
LINE
  5
461
100
AcDbEntity
  8
CURVE
100
AcDbLine
 62
250
  6
CONTINUOUS
 10
-2.8489824087
 20
2.7853390316
 11
-2.6823157818
 21
2.7853390316
  0
LINE
  5
462
100
AcDbEntity
  8
CURVE
100
AcDbLine
 62
250
  6
CONTINUOUS
 10
-7.7239824087
 20
3.6789560656
 11
-7.4323157222
 21
3.6364028792
  0
LINE
  5
463
100
AcDbEntity
  8
CURVE
100
AcDbLine
 62
250
  6
CONTINUOUS
 10
-2.4323157222
 20
2.5725730996
 11
-2.6823157818
 21
2.615126286
  0
LINE
  5
464
100
AcDbEntity
  8
CURVE
100
AcDbLine
 62
250
  6
CONTINUOUS
 10
-7.4739824683
 20
3.4236369471
 11
-7.6823157818
 21
3.4661901335
  0
LINE
  5
465
100
AcDbEntity
  8
CURVE
100
AcDbLine
 62
250
  6
CONTINUOUS
 10
-8.0656490953
 20
4.9768284003
 11
-7.8989824087
 21
4.9342752139
  0
LINE
  5
466
100
AcDbEntity
  8
CURVE
100
AcDbLine
 62
250
  6
CONTINUOUS
 10
-2.3489824683
 20
2.7002326588
 11
-2.1406490953
 21
2.615126286
  0
LWPOLYLINE
  5
467
100
AcDbEntity
  8
RACCORDO
100
AcDbPolyline
 62
250
  6
CONTINUOUS
 90
13
 70
0
 10
13.4152453905
 20
-3.2520602548
 10
13.4051524507
 20
-3.2475409154
 10
13.3848986922
 20
-3.2431007505
 10
13.3545887897
 20
-3.2387397599
 10
13.3143799203
 20
-3.2344366674
 10
13.264477994
 20
-3.2302127494
 10
13.2051341463
 20
-3.2261318347
 10
13.1366444753
 20
-3.2221957888
 10
13.0593624438
 20
-3.2184027463
 10
12.973697346
 20
-3.2148109397
 10
12.8801016214
 20
-3.2114238618
 10
12.7790466127
 20
-3.2082380198
 10
12.5565906664
 20
-3.2026168246
  0
LWPOLYLINE
  5
468
100
AcDbEntity
  8
ASSI
100
AcDbPolyline
 62
250
  6
CONTINUOUS
 90
13
 70
0
 10
13.4152453905
 20
-3.2520602548
 10
13.4051524507
 20
-3.2475409154
 10
13.3848986922
 20
-3.2431007505
 10
13.3545887897
 20
-3.2387397599
 10
13.3143799203
 20
-3.2344366674
 10
13.264477994
 20
-3.2302127494
 10
13.2051341463
 20
-3.2261318347
 10
13.1366444753
 20
-3.2221957888
 10
13.0593624438
 20
-3.2184027463
 10
12.973697346
 20
-3.2148109397
 10
12.8801016214
 20
-3.2114238618
 10
12.7790466127
 20
-3.2082380198
 10
12.5565906664
 20
-3.2026168246
  0
LWPOLYLINE
  5
469
100
AcDbEntity
  8
RACCORDO
100
AcDbPolyline
 62
250
  6
CONTINUOUS
 90
13
 70
0
 10
13.2153672251
 20
-3.4519384202
 10
13.2061680743
 20
-3.4474370975
 10
13.188060116
 20
-3.4430090205
 10
13.1610433502
 20
-3.4386541889
 10
13.1248891056
 20
-3.4343493335
 10
13.0798260534
 20
-3.4301177236
 10
13.026540208
 20
-3.4260291677
 10
12.9649017562
 20
-3.4220874099
 10
12.8950405112
 20
-3.4182887061
 10
12.8180319268
 20
-3.4146916328
 10
12.7337744027
 20
-3.4112996712
 10
12.6423695393
 20
-3.4081093401
 10
12.4421597385
 20
-3.4024815505
  0
LWPOLYLINE
  5
46A
100
AcDbEntity
  8
ASSI
100
AcDbPolyline
 62
250
  6
CONTINUOUS
 90
13
 70
0
 10
13.2153672251
 20
-3.4519384202
 10
13.2061680743
 20
-3.4474370975
 10
13.188060116
 20
-3.4430090205
 10
13.1610433502
 20
-3.4386541889
 10
13.1248891056
 20
-3.4343493335
 10
13.0798260534
 20
-3.4301177236
 10
13.026540208
 20
-3.4260291677
 10
12.9649017562
 20
-3.4220874099
 10
12.8950405112
 20
-3.4182887061
 10
12.8180319268
 20
-3.4146916328
 10
12.7337744027
 20
-3.4112996712
 10
12.6423695393
 20
-3.4081093401
 10
12.4421597385
 20
-3.4024815505
  0
LINE
  5
46B
100
AcDbEntity
  8
CURVE
100
AcDbLine
 62
250
  6
CONTINUOUS
 10
-2.4323157222
 20
3.6364028792
 11
-2.2656490953
 21
3.5512965063
  0
LINE
  5
46C
100
AcDbEntity
  8
CURVE
100
AcDbLine
 62
250
  6
CONTINUOUS
 10
-7.3156490953
 20
6.6364028792
 11
-7.1489824683
 21
6.5512965063
  0
LINE
  5
46D
100
AcDbEntity
  8
CURVE
100
AcDbLine
 62
250
  6
CONTINUOUS
 10
-3.107315752
 20
4.7215092557
 11
-3.2739824385
 21
4.8066156397
  0
LINE
  5
46E
100
AcDbEntity
  8
CURVE
100
AcDbLine
 62
250
  6
CONTINUOUS
 10
-2.3489824683
 20
3.3385305743
 11
-2.4739824683
 21
3.4236369471
  0
LINE
  5
46F
100
AcDbEntity
  8
CURVE
100
AcDbLine
 62
250
  6
CONTINUOUS
 10
-3.1906490953
 20
5.061934803
 11
-3.0656490953
 21
4.9768284003
  0
LINE
  5
470
100
AcDbEntity
  8
RACCORDO
100
AcDbLine
 62
250
  6
CONTINUOUS
 10
9.8994357212
 20
-7.4350873941
 11
10.2855692507
 21
-7.8210439344
  0
LINE
  5
471
100
AcDbEntity
  8
ASSI
100
AcDbLine
 62
250
  6
CONTINUOUS
 10
9.8994357212
 20
-7.4350873941
 11
10.2855692507
 21
-7.8210439344
  0
LINE
  5
472
100
AcDbEntity
  8
0
100
AcDbLine
 62
7
  6
CONTINUOUS
 10
9.7037893915
 20
-7.7404824211
 11
9.7843509047
 21
-7.8210439344
  0
LINE
  5
473
100
AcDbEntity
  8
ASSI
100
AcDbLine
 62
7
  6
CONTINUOUS
 10
9.7037893915
 20
-7.7404824211
 11
9.7843509047
 21
-7.8210439344
  0
LINE
  5
474
100
AcDbEntity
  8
CURVE
100
AcDbLine
 62
250
  6
CONTINUOUS
 10
2.9843509047
 20
3.210871015
 11
2.9843509047
 21
3.125764523
  0
LINE
  5
475
100
AcDbEntity
  8
CURVE
100
AcDbLine
 62
250
  6
CONTINUOUS
 10
2.9843509047
 20
1.8917220275
 11
2.9843509047
 21
1.6789560656
  0
LINE
  5
476
100
AcDbEntity
  8
RACCORDO
100
AcDbLine
 62
7
  6
CONTINUOUS
 10
3.4875243641
 20
-14.5254357397
 11
3.4875243641
 21
-7.7337420107
  0
LINE
  5
477
100
AcDbEntity
  8
ASSI
100
AcDbLine
 62
7
  6
CONTINUOUS
 10
3.4875243641
 20
-14.5254357397
 11
3.4875243641
 21
-7.7337420107
  0
LINE
  5
478
100
AcDbEntity
  8
CURVE
100
AcDbLine
 62
250
  6
CONTINUOUS
 10
2.2843509047
 20
-3.6559804249
 11
1.0343509047
 21
-5.8210439344
  0
LINE
  5
479
100
AcDbEntity
  8
CURVE
100
AcDbLine
 62
250
  6
CONTINUOUS
 10
6.817684248
 20
3.3385305743
 11
6.7343509047
 21
3.210871015
  0
LINE
  5
47A
100
AcDbEntity
  8
CURVE
100
AcDbLine
 62
7
  6
CONTINUOUS
 10
7.7293941311
 20
3.2184643659
 11
7.9176155824
 21
3.4066858173
  0
LINE
  5
47B
100
AcDbEntity
  8
RACCORDO
100
AcDbLine
 62
7
  6
CONTINUOUS
 10
13.6951777572
 20
9.089782918
 11
13.7843509047
 21
9.1789560656
  0
LINE
  5
47C
100
AcDbEntity
  8
ASSI
100
AcDbLine
 62
7
  6
CONTINUOUS
 10
13.6951777572
 20
9.089782918
 11
13.7843509047
 21
9.1789560656
  0
LINE
  5
47D
100
AcDbEntity
  8
CURVE
100
AcDbLine
 62
7
  6
CONTINUOUS
 10
7.0299286868
 20
1.6789560656
 11
7.2426946487
 21
1.8917220275
  0
LINE
  5
47E
100
AcDbEntity
  8
CURVE
100
AcDbLine
 62
7
  6
CONTINUOUS
 10
1.9419099908
 20
-4.2491054864
 11
2.3761076711
 21
-3.8149078062
  0
LINE
  5
47F
100
AcDbEntity
  8
CURVE
100
AcDbLine
 62
7
  6
CONTINUOUS
 10
7.8699715428
 20
1.6789560656
 11
7.9843509047
 21
1.7933354275
  0
LINE
  5
480
100
AcDbEntity
  8
CURVE
100
AcDbLine
 62
250
  6
CONTINUOUS
 10
7.8593509047
 20
2.8278922181
 11
6.817684248
 21
1.8917220275
  0
LINE
  5
481
100
AcDbEntity
  8
CURVE
100
AcDbLine
 62
250
  6
CONTINUOUS
 10
-7.4323157222
 20
1.7215092557
 11
-7.5989824087
 21
1.6789560656
  0
LINE
  5
482
100
AcDbEntity
  8
CURVE
100
AcDbLine
 62
250
  6
CONTINUOUS
 10
2.1510175913
 20
3.4661901335
 11
1.942684248
 21
3.4236369471
  0
LINE
  5
483
100
AcDbEntity
  8
CURVE
100
AcDbLine
 62
250
  6
CONTINUOUS
 10
-7.6406490953
 20
1.8917220275
 11
-7.4323157222
 21
1.9342752139
  0
LINE
  5
484
100
AcDbEntity
  8
CURVE
100
AcDbLine
 62
250
  6
CONTINUOUS
 10
-2.8489824087
 20
3.4661901335
 11
-3.057315752
 21
3.4236369471
  0
LINE
  5
485
100
AcDbEntity
  8
CURVE
100
AcDbLine
 62
250
  6
CONTINUOUS
 10
1.9010175615
 20
3.6364028792
 11
2.1926842182
 21
3.6789560656
  0
LINE
  5
486
100
AcDbEntity
  8
CURVE
100
AcDbLine
 62
250
  6
CONTINUOUS
 10
-3.0989824385
 20
3.6364028792
 11
-2.8073157818
 21
3.6789560656
  0
LINE
  5
487
100
AcDbEntity
  8
CURVE
100
AcDbLine
 62
250
  6
CONTINUOUS
 10
6.7343509047
 20
3.210871015
 11
6.5260175726
 21
3.210871015
  0
LINE
  5
488
100
AcDbEntity
  8
CURVE
100
AcDbLine
 62
250
  6
CONTINUOUS
 10
1.7343509047
 20
3.210871015
 11
1.5260175726
 21
3.210871015
  0
LINE
  5
489
100
AcDbEntity
  8
CURVE
100
AcDbLine
 62
250
  6
CONTINUOUS
 10
-3.2656490953
 20
3.210871015
 11
-3.4739824274
 21
3.210871015
  0
LINE
  5
48A
100
AcDbEntity
  8
CURVE
100
AcDbLine
 62
250
  6
CONTINUOUS
 10
-8.2656490953
 20
3.210871015
 11
-8.4739824274
 21
3.210871015
  0
LINE
  5
48B
100
AcDbEntity
  8
CURVE
100
AcDbLine
 62
250
  6
CONTINUOUS
 10
7.3176842182
 20
3.4661901335
 11
7.1510175913
 21
3.4661901335
  0
LINE
  5
48C
100
AcDbEntity
  8
CURVE
100
AcDbLine
 62
250
  6
CONTINUOUS
 10
2.3176842182
 20
3.4661901335
 11
2.1510175913
 21
3.4661901335
  0
LINE
  5
48D
100
AcDbEntity
  8
CURVE
100
AcDbLine
 62
250
  6
CONTINUOUS
 10
-2.6823157818
 20
3.4661901335
 11
-2.8489824087
 21
3.4661901335
  0
LINE
  5
48E
100
AcDbEntity
  8
CURVE
100
AcDbLine
 62
250
  6
CONTINUOUS
 10
-7.6823157818
 20
3.4661901335
 11
-7.8489824087
 21
3.4661901335
  0
LINE
  5
48F
100
AcDbEntity
  8
CURVE
100
AcDbLine
 62
250
  6
CONTINUOUS
 10
-7.8073157818
 20
3.6789560656
 11
-7.7239824087
 21
3.6789560656
  0
LINE
  5
490
100
AcDbEntity
  8
CURVE
100
AcDbLine
 62
250
  6
CONTINUOUS
 10
-2.8073157818
 20
3.6789560656
 11
-2.7239824087
 21
3.6789560656
  0
LINE
  5
491
100
AcDbEntity
  8
CURVE
100
AcDbLine
 62
250
  6
CONTINUOUS
 10
2.1926842182
 20
3.6789560656
 11
2.3593509047
 21
3.6789560656
  0
LINE
  5
492
100
AcDbEntity
  8
CURVE
100
AcDbLine
 62
250
  6
CONTINUOUS
 10
7.1926842182
 20
3.6789560656
 11
7.3593509047
 21
3.6789560656
  0
LINE
  5
493
100
AcDbEntity
  8
CURVE
100
AcDbLine
 62
250
  6
CONTINUOUS
 10
-2.7239824087
 20
3.6789560656
 11
-2.4323157222
 21
3.6364028792
  0
LINE
  5
494
100
AcDbEntity
  8
CURVE
100
AcDbLine
 62
250
  6
CONTINUOUS
 10
2.3593509047
 20
3.6789560656
 11
2.6093509047
 21
3.6364028792
  0
LINE
  5
495
100
AcDbEntity
  8
CURVE
100
AcDbLine
 62
250
  6
CONTINUOUS
 10
-2.4739824683
 20
3.4236369471
 11
-2.6823157818
 21
3.4661901335
  0
LINE
  5
496
100
AcDbEntity
  8
CURVE
100
AcDbLine
 62
250
  6
CONTINUOUS
 10
-7.8989824087
 20
4.6789560656
 11
-8.107315752
 21
4.7215092557
  0
LINE
  5
497
100
AcDbEntity
  8
CURVE
100
AcDbLine
 62
250
  6
CONTINUOUS
 10
2.5260175317
 20
3.4236369471
 11
2.3176842182
 21
3.4661901335
  0
LINE
  5
498
100
AcDbEntity
  8
CURVE
100
AcDbLine
 62
250
  6
CONTINUOUS
 10
-2.8989824087
 20
4.6789560656
 11
-3.107315752
 21
4.7215092557
  0
LINE
  5
499
100
AcDbEntity
  8
CURVE
100
AcDbLine
 62
250
  6
CONTINUOUS
 10
-3.0656490953
 20
4.9768284003
 11
-2.8989824087
 21
4.9342752139
  0
LINE
  5
49A
100
AcDbEntity
  8
CURVE
100
AcDbLine
 62
250
  6
CONTINUOUS
 10
-2.2323157222
 20
6.2959773878
 11
-2.3573157222
 21
6.3810837607
  0
LINE
  5
49B
100
AcDbEntity
  8
RACCORDO
100
AcDbLine
 62
250
  6
CONTINUOUS
 10
-10.3307339117
 20
15.7929995253
 11
-10.7168674412
 21
16.1789560656
  0
LINE
  5
49C
100
AcDbEntity
  8
ASSI
100
AcDbLine
 62
250
  6
CONTINUOUS
 10
-10.3307339117
 20
15.7929995253
 11
-10.7168674412
 21
16.1789560656
  0
LINE
  5
49D
100
AcDbEntity
  8
0
100
AcDbLine
 62
7
  6
CONTINUOUS
 10
-10.135087582
 20
16.0983945523
 11
-10.2156490953
 21
16.1789560656
  0
LINE
  5
49E
100
AcDbEntity
  8
ASSI
100
AcDbLine
 62
7
  6
CONTINUOUS
 10
-10.135087582
 20
16.0983945523
 11
-10.2156490953
 21
16.1789560656
  0
LINE
  5
49F
100
AcDbEntity
  8
CURVE
100
AcDbLine
 62
250
  6
CONTINUOUS
 10
-2.1489824683
 20
6.5512965063
 11
-1.9823157222
 21
6.3810837607
  0
LINE
  5
4A0
100
AcDbEntity
  8
CURVE
100
AcDbLine
 62
250
  6
CONTINUOUS
 10
2.7343509047
 20
3.210871015
 11
2.6510175317
 21
3.3385305743
  0
LINE
  5
4A1
100
AcDbEntity
  8
CURVE
100
AcDbLine
 62
250
  6
CONTINUOUS
 10
7.2843509047
 20
-5.8210439344
 11
6.0343509047
 21
-3.6559804249
  0
LINE
  5
4A2
100
AcDbEntity
  8
CURVE
100
AcDbLine
 62
250
  6
CONTINUOUS
 10
-2.7156490953
 20
12.0138925561
 11
-3.9656490953
 21
14.1789560656
  0
LINE
  5
4A3
100
AcDbEntity
  8
CURVE
100
AcDbLine
 62
250
  6
CONTINUOUS
 10
2.9426842778
 20
3.3810837607
 11
2.9843509047
 21
3.210871015
  0
LINE
  5
4A4
100
AcDbEntity
  8
CURVE
100
AcDbLine
 62
250
  6
CONTINUOUS
 10
6.5260175726
 20
3.210871015
 11
6.5676842406
 21
3.3810837607
  0
LINE
  5
4A5
100
AcDbEntity
  8
CURVE
100
AcDbLine
 62
250
  6
CONTINUOUS
 10
7.6510175317
 20
2.9555517773
 11
7.7343509047
 21
3.125764523
  0
LINE
  5
4A6
100
AcDbEntity
  8
CURVE
100
AcDbLine
 62
250
  6
CONTINUOUS
 10
7.9426842778
 20
2.9555517773
 11
7.8593509047
 21
2.8278922181
  0
LINE
  5
4A7
100
AcDbEntity
  8
CURVE
100
AcDbLine
 62
7
  6
CONTINUOUS
 10
1.2100143989
 20
-5.8210439344
 11
2.6835846967
 21
-4.3474736366
  0
LINE
  5
4A8
100
AcDbEntity
  8
CURVE
100
AcDbLine
 62
7
  6
CONTINUOUS
 10
2.0500572549
 20
-5.8210439344
 11
2.9910617222
 21
-4.8800394671
  0
LINE
  5
4A9
100
AcDbEntity
  8
CURVE
100
AcDbLine
 62
250
  6
CONTINUOUS
 10
-2.5239824683
 20
4.9342752139
 11
-2.3573157222
 21
4.9768284003
  0
LINE
  5
4AA
100
AcDbEntity
  8
CURVE
100
AcDbLine
 62
250
  6
CONTINUOUS
 10
-7.8489824087
 20
3.4661901335
 11
-8.057315752
 21
3.4236369471
  0
LINE
  5
4AB
100
AcDbEntity
  8
CURVE
100
AcDbLine
 62
250
  6
CONTINUOUS
 10
-2.3156490953
 20
4.7215092557
 11
-2.5239824683
 21
4.6789560656
  0
LINE
  5
4AC
100
AcDbEntity
  8
CURVE
100
AcDbLine
 62
250
  6
CONTINUOUS
 10
-8.0989824385
 20
3.6364028792
 11
-7.8073157818
 21
3.6789560656
  0
LINE
  5
4AD
100
AcDbEntity
  8
CURVE
100
AcDbLine
 62
250
  6
CONTINUOUS
 10
7.5343509047
 20
4.6789560656
 11
7.2843509047
 21
4.6789560656
  0
LINE
  5
4AE
100
AcDbEntity
  8
CURVE
100
AcDbLine
 62
250
  6
CONTINUOUS
 10
2.5343509047
 20
4.6789560656
 11
2.2843509047
 21
4.6789560656
  0
LINE
  5
4AF
100
AcDbEntity
  8
CURVE
100
AcDbLine
 62
250
  6
CONTINUOUS
 10
-2.5239824683
 20
4.6789560656
 11
-2.8989824087
 21
4.6789560656
  0
LINE
  5
4B0
100
AcDbEntity
  8
CURVE
100
AcDbLine
 62
250
  6
CONTINUOUS
 10
-7.5239824683
 20
4.6789560656
 11
-7.8989824087
 21
4.6789560656
  0
LINE
  5
4B1
100
AcDbEntity
  8
CURVE
100
AcDbLine
 62
250
  6
CONTINUOUS
 10
-7.8989824087
 20
4.9342752139
 11
-7.5239824683
 21
4.9342752139
  0
LINE
  5
4B2
100
AcDbEntity
  8
CURVE
100
AcDbLine
 62
250
  6
CONTINUOUS
 10
-2.8989824087
 20
4.9342752139
 11
-2.5239824683
 21
4.9342752139
  0
LWPOLYLINE
  5
4B3
100
AcDbEntity
  8
0
100
AcDbPolyline
 62
7
  6
CONTINUOUS
 90
2
 70
0
 43
0.3500000006
 10
21.0767489319
 20
5.178955307
 10
19.5767484741
 20
5.178955307
  0
LINE
  5
4B4
100
AcDbEntity
  8
CURVE
100
AcDbLine
 62
250
  6
CONTINUOUS
 10
-7.1906490953
 20
5.1895943622
 11
-6.9406490953
 21
5.1895943622
  0
LINE
  5
4B5
100
AcDbEntity
  8
CURVE
100
AcDbLine
 62
250
  6
CONTINUOUS
 10
-2.1906490953
 20
5.1895943622
 11
-1.9406490953
 21
5.1895943622
  0
LINE
  5
4B6
100
AcDbEntity
  8
CURVE
100
AcDbLine
 62
250
  6
CONTINUOUS
 10
7.3593509047
 20
3.6789560656
 11
7.6093509047
 21
3.6364028792
  0
LINE
  5
4B7
100
AcDbEntity
  8
CURVE
100
AcDbLine
 62
250
  6
CONTINUOUS
 10
7.5260175317
 20
3.4236369471
 11
7.3176842182
 21
3.4661901335
  0
LINE
  5
4B8
100
AcDbEntity
  8
CURVE
100
AcDbLine
 62
250
  6
CONTINUOUS
 10
-7.5239824683
 20
6.6789560656
 11
-7.3156490953
 21
6.6364028792
  0
LINE
  5
4B9
100
AcDbEntity
  8
CURVE
100
AcDbLine
 62
250
  6
CONTINUOUS
 10
-7.3573157222
 20
6.3810837607
 11
-7.5239824683
 21
6.4236369471
  0
LINE
  5
4BA
100
AcDbEntity
  8
CURVE
100
AcDbLine
 62
250
  6
CONTINUOUS
 10
-2.3573157222
 20
6.3810837607
 11
-2.5239824683
 21
6.4236369471
  0
LINE
  5
4BB
100
AcDbEntity
  8
CURVE
100
AcDbLine
 62
250
  6
CONTINUOUS
 10
2.6093509047
 20
3.6364028792
 11
2.7760175317
 21
3.5512965063
  0
LINE
  5
4BC
100
AcDbEntity
  8
CURVE
100
AcDbLine
 62
250
  6
CONTINUOUS
 10
-2.3156490953
 20
6.6364028792
 11
-2.1489824683
 21
6.5512965063
  0
LINE
  5
4BD
100
AcDbEntity
  8
CURVE
100
AcDbLine
 62
250
  6
CONTINUOUS
 10
2.6510175317
 20
3.3385305743
 11
2.5260175317
 21
3.4236369471
  0
LINE
  5
4BE
100
AcDbEntity
  8
RACCORDO
100
AcDbLine
 62
250
  6
CONTINUOUS
 10
11.8983943644
 20
-5.4361229637
 11
12.2843509047
 21
-5.8222622804
  0
LINE
  5
4BF
100
AcDbEntity
  8
ASSI
100
AcDbLine
 62
250
  6
CONTINUOUS
 10
11.8983943644
 20
-5.4361229637
 11
12.2843509047
 21
-5.8222622804
  0
LINE
  5
4C0
100
AcDbEntity
  8
CURVE
100
AcDbLine
 62
250
  6
CONTINUOUS
 10
2.7760175317
 20
3.5512965063
 11
2.9426842778
 21
3.3810837607
  0
LINE
  5
4C1
100
AcDbEntity
  8
CURVE
100
AcDbLine
 62
250
  6
CONTINUOUS
 10
6.4843509047
 20
1.6789560656
 11
6.4843509047
 21
1.8917220275
  0
LINE
  5
4C2
100
AcDbEntity
  8
IMPORT_IGES
100
AcDbLine
 62
7
  6
CONTINUOUS
 10
7.0199559047
 20
11.1859160656
 11
7.0199559047
 21
11.310665463
  0
LINE
  5
4C3
100
AcDbEntity
  8
CURVE
100
AcDbLine
 62
250
  6
CONTINUOUS
 10
7.0343509047
 20
6.0406581501
 11
7.0343509047
 21
6.3810837607
  0
LINE
  5
4C4
100
AcDbEntity
  8
CURVE
100
AcDbLine
 62
250
  6
CONTINUOUS
 10
7.9843509047
 20
3.125764523
 11
7.9426842778
 21
2.9555517773
  0
LINE
  5
4C5
100
AcDbEntity
  8
CURVE
100
AcDbLine
 62
7
  6
CONTINUOUS
 10
2.890100111
 20
-5.8210439344
 11
3.2985387478
 21
-5.4126052976
  0
LINE
  5
4C6
100
AcDbEntity
  8
RACCORDO
100
AcDbLine
 62
7
  6
CONTINUOUS
 10
11.8983943644
 20
-1.0139634081
 11
12.2843509047
 21
-0.8210439344
  0
LINE
  5
4C7
100
AcDbEntity
  8
ASSI
100
AcDbLine
 62
7
  6
CONTINUOUS
 10
11.8983943644
 20
-1.0139634081
 11
12.2843509047
 21
-0.8210439344
  0
LINE
  5
4C8
100
AcDbEntity
  8
RACCORDO
100
AcDbLine
 62
7
  6
CONTINUOUS
 10
13.7843509047
 20
-0.8210439344
 11
13.4152453905
 21
-1.0055404621
  0
LINE
  5
4C9
100
AcDbEntity
  8
ASSI
100
AcDbLine
 62
7
  6
CONTINUOUS
 10
13.7843509047
 20
-0.8210439344
 11
13.4152453905
 21
-1.0055404621
  0
LINE
  5
4CA
100
AcDbEntity
  8
CURVE
100
AcDbLine
 62
250
  6
CONTINUOUS
 10
-7.5239824683
 20
4.9342752139
 11
-7.3573157222
 21
4.9768284003
  0
LINE
  5
4CB
100
AcDbEntity
  8
CURVE
100
AcDbLine
 62
250
  6
CONTINUOUS
 10
-2.8989824087
 20
6.4236369471
 11
-3.0656490953
 21
6.3810837607
  0
LINE
  5
4CC
100
AcDbEntity
  8
CURVE
100
AcDbLine
 62
250
  6
CONTINUOUS
 10
-7.3156490953
 20
4.7215092557
 11
-7.5239824683
 21
4.6789560656
  0
LINE
  5
4CD
100
AcDbEntity
  8
CURVE
100
AcDbLine
 62
250
  6
CONTINUOUS
 10
-3.107315752
 20
6.6364028792
 11
-2.8989824087
 21
6.6789560656
  0
LINE
  5
4CE
100
AcDbEntity
  8
CURVE
100
AcDbLine
 62
250
  6
CONTINUOUS
 10
-1.9406490953
 20
6.1683177094
 11
-2.1906490953
 21
6.1683177094
  0
LINE
  5
4CF
100
AcDbEntity
  8
CURVE
100
AcDbLine
 62
250
  6
CONTINUOUS
 10
-6.9406490953
 20
6.1683177094
 11
-7.1906490953
 21
6.1683177094
  0
LINE
  5
4D0
100
AcDbEntity
  8
CURVE
100
AcDbLine
 62
250
  6
CONTINUOUS
 10
-2.5239824683
 20
6.4236369471
 11
-2.8989824087
 21
6.4236369471
  0
LINE
  5
4D1
100
AcDbEntity
  8
CURVE
100
AcDbLine
 62
250
  6
CONTINUOUS
 10
-7.5239824683
 20
6.4236369471
 11
-7.8989824087
 21
6.4236369471
  0
LINE
  5
4D2
100
AcDbEntity
  8
CURVE
100
AcDbLine
 62
250
  6
CONTINUOUS
 10
-7.8989824087
 20
6.6789560656
 11
-7.5239824683
 21
6.6789560656
  0
LINE
  5
4D3
100
AcDbEntity
  8
CURVE
100
AcDbLine
 62
250
  6
CONTINUOUS
 10
-2.8989824087
 20
6.6789560656
 11
-2.5239824683
 21
6.6789560656
  0
LINE
  5
4D4
100
AcDbEntity
  8
CURVE
100
AcDbLine
 62
250
  6
CONTINUOUS
 10
2.2843509047
 20
6.6789560656
 11
2.5343509047
 21
6.6789560656
  0
LINE
  5
4D5
100
AcDbEntity
  8
CURVE
100
AcDbLine
 62
250
  6
CONTINUOUS
 10
7.2843509047
 20
6.6789560656
 11
7.5343509047
 21
6.6789560656
  0
LINE
  5
4D6
100
AcDbEntity
  8
CURVE
100
AcDbLine
 62
250
  6
CONTINUOUS
 10
-2.5239824683
 20
6.6789560656
 11
-2.3156490953
 21
6.6364028792
  0
LINE
  5
4D7
100
AcDbEntity
  8
CURVE
100
AcDbLine
 62
250
  6
CONTINUOUS
 10
7.6093509047
 20
3.6364028792
 11
7.7760175317
 21
3.5512965063
  0
LINE
  5
4D8
100
AcDbEntity
  8
CURVE
100
AcDbLine
 62
250
  6
CONTINUOUS
 10
7.6510175317
 20
3.3385305743
 11
7.5260175317
 21
3.4236369471
  0
LINE
  5
4D9
100
AcDbEntity
  8
RACCORDO
100
AcDbLine
 62
250
  6
CONTINUOUS
 10
11.8984015634
 20
-3.6349727585
 11
12.2843509047
 21
-4.0209220998
  0
LINE
  5
4DA
100
AcDbEntity
  8
ASSI
100
AcDbLine
 62
250
  6
CONTINUOUS
 10
11.8984015634
 20
-3.6349727585
 11
12.2843509047
 21
-4.0209220998
  0
LINE
  5
4DB
100
AcDbEntity
  8
RACCORDO
100
AcDbLine
 62
250
  6
CONTINUOUS
 10
12.0982725298
 20
-3.4350873941
 11
12.4842290701
 21
-3.8210439344
  0
LINE
  5
4DC
100
AcDbEntity
  8
ASSI
100
AcDbLine
 62
250
  6
CONTINUOUS
 10
12.0982725298
 20
-3.4350873941
 11
12.4842290701
 21
-3.8210439344
  0
LINE
  5
4DD
100
AcDbEntity
  8
RACCORDO
100
AcDbLine
 62
250
  6
CONTINUOUS
 10
13.5844727393
 20
-3.8210439344
 11
13.2153672251
 21
-3.4519384202
  0
LINE
  5
4DE
100
AcDbEntity
  8
ASSI
100
AcDbLine
 62
250
  6
CONTINUOUS
 10
13.5844727393
 20
-3.8210439344
 11
13.2153672251
 21
-3.4519384202
  0
LINE
  5
4DF
100
AcDbEntity
  8
IMPORT_IGES
100
AcDbLine
 62
7
  6
CONTINUOUS
 10
6.7390589047
 20
11.1859160656
 11
6.733476451
 21
11.2477411377
  0
LINE
  5
4E0
100
AcDbEntity
  8
CURVE
100
AcDbLine
 62
250
  6
CONTINUOUS
 10
7.2843509047
 20
4.6789560656
 11
7.2843509047
 21
6.3385305743
  0
LINE
  5
4E1
100
AcDbEntity
  8
CURVE
100
AcDbLine
 62
250
  6
CONTINUOUS
 10
7.5343509047
 20
6.6789560656
 11
7.5343509047
 21
4.6789560656
  0
LINE
  5
4E2
100
AcDbEntity
  8
IMPORT_IGES
100
AcDbLine
 62
7
  6
CONTINUOUS
 10
7.5417489047
 20
11.3118119094
 11
7.5417489047
 21
11.1859160656
  0
LINE
  5
4E3
100
AcDbEntity
  8
CURVE
100
AcDbLine
 62
250
  6
CONTINUOUS
 10
7.7343509047
 20
3.125764523
 11
7.7343509047
 21
3.210871015
  0
LINE
  5
4E4
100
AcDbEntity
  8
CURVE
100
AcDbLine
 62
250
  6
CONTINUOUS
 10
7.9843509047
 20
3.210871015
 11
7.9843509047
 21
3.125764523
  0
LINE
  5
4E5
100
AcDbEntity
  8
CURVE
100
AcDbLine
 62
250
  6
CONTINUOUS
 10
7.9843509047
 20
1.8917220275
 11
7.9843509047
 21
1.6789560656
  0
LINE
  5
4E6
100
AcDbEntity
  8
CURVE
100
AcDbLine
 62
7
  6
CONTINUOUS
 10
6.2908975348
 20
-4.1003322227
 11
6.7352493326
 21
-3.6559804249
  0
LINE
  5
4E7
100
AcDbEntity
  8
CURVE
100
AcDbLine
 62
7
  6
CONTINUOUS
 10
6.5983745604
 20
-4.6328980532
 11
7.5752921886
 21
-3.6559804249
  0
LINE
  5
4E8
100
AcDbEntity
  8
CURVE
100
AcDbLine
 62
7
  6
CONTINUOUS
 10
6.905851586
 20
-5.1654638836
 11
8.4153350447
 21
-3.6559804249
  0
LINE
  5
4E9
100
AcDbEntity
  8
RACCORDO
100
AcDbLine
 62
250
  6
CONTINUOUS
 10
10.4523656742
 20
-3.5482849295
 11
10.3994724194
 21
-3.5775813589
  0
LINE
  5
4EA
100
AcDbEntity
  8
ASSI
100
AcDbLine
 62
250
  6
CONTINUOUS
 10
10.4523656742
 20
-3.5482849295
 11
10.3994724194
 21
-3.5775813589
  0
LWPOLYLINE
  5
4EB
100
AcDbEntity
  8
RACCORDO
100
AcDbPolyline
 62
250
  6
CONTINUOUS
 90
9
 70
0
 10
10.7668298126
 20
-3.3845343158
 10
10.7307656809
 20
-3.4019994927
 10
10.6958004731
 20
-3.4192402102
 10
10.6619341894
 20
-3.4362564682
 10
10.6292373669
 20
-3.4530656871
 10
10.5976394684
 20
-3.4696504466
 10
10.5669288825
 20
-3.4859584853
 10
10.5370870458
 20
-3.5019838536
 10
10.4523656742
 20
-3.5482849295
  0
LWPOLYLINE
  5
4EC
100
AcDbEntity
  8
ASSI
100
AcDbPolyline
 62
250
  6
CONTINUOUS
 90
9
 70
0
 10
10.7668298126
 20
-3.3845343158
 10
10.7307656809
 20
-3.4019994927
 10
10.6958004731
 20
-3.4192402102
 10
10.6619341894
 20
-3.4362564682
 10
10.6292373669
 20
-3.4530656871
 10
10.5976394684
 20
-3.4696504466
 10
10.5669288825
 20
-3.4859584853
 10
10.5370870458
 20
-3.5019838536
 10
10.4523656742
 20
-3.5482849295
  0
LINE
  5
4ED
100
AcDbEntity
  8
CURVE
100
AcDbLine
 62
250
  6
CONTINUOUS
 10
-7.8989824087
 20
6.4236369471
 11
-8.0656490953
 21
6.3810837607
  0
LINE
  5
4EE
100
AcDbEntity
  8
CURVE
100
AcDbLine
 62
250
  6
CONTINUOUS
 10
-8.107315752
 20
6.6364028792
 11
-7.8989824087
 21
6.6789560656
  0
LINE
  5
4EF
100
AcDbEntity
  8
RACCORDO
100
AcDbLine
 62
250
  6
CONTINUOUS
 10
-14.1179007317
 20
8.5898590704
 11
-13.8380770034
 21
8.5898590704
  0
LINE
  5
4F0
100
AcDbEntity
  8
ASSI
100
AcDbLine
 62
250
  6
CONTINUOUS
 10
-14.1179007317
 20
8.5898590704
 11
-13.8380770034
 21
8.5898590704
  0
LINE
  5
4F1
100
AcDbEntity
  8
RACCORDO
100
AcDbLine
 62
250
  6
CONTINUOUS
 10
13.4067788129
 20
8.5898590704
 11
13.6866025411
 21
8.5898590704
  0
LINE
  5
4F2
100
AcDbEntity
  8
ASSI
100
AcDbLine
 62
250
  6
CONTINUOUS
 10
13.4067788129
 20
8.5898590704
 11
13.6866025411
 21
8.5898590704
  0
LINE
  5
4F3
100
AcDbEntity
  8
RACCORDO
100
AcDbLine
 62
250
  6
CONTINUOUS
 10
13.7843509047
 20
-3.621165769
 11
13.4152453905
 21
-3.2520602548
  0
LINE
  5
4F4
100
AcDbEntity
  8
ASSI
100
AcDbLine
 62
250
  6
CONTINUOUS
 10
13.7843509047
 20
-3.621165769
 11
13.4152453905
 21
-3.2520602548
  0
LINE
  5
4F5
100
AcDbEntity
  8
CURVE
100
AcDbLine
 62
250
  6
CONTINUOUS
 10
7.7760175317
 20
3.5512965063
 11
7.9426842778
 21
3.3810837607
  0
LINE
  5
4F6
100
AcDbEntity
  8
CURVE
100
AcDbLine
 62
250
  6
CONTINUOUS
 10
7.7343509047
 20
3.210871015
 11
7.6510175317
 21
3.3385305743
  0
LINE
  5
4F7
100
AcDbEntity
  8
CURVE
100
AcDbLine
 62
250
  6
CONTINUOUS
 10
7.9426842778
 20
3.3810837607
 11
7.9843509047
 21
3.210871015
  0
LINE
  5
4F8
100
AcDbEntity
  8
RACCORDO
100
AcDbLine
 62
250
  6
CONTINUOUS
 10
9.8996127104
 20
15.7929995253
 11
9.8996127104
 21
14.2939132847
  0
LINE
  5
4F9
100
AcDbEntity
  8
ASSI
100
AcDbLine
 62
250
  6
CONTINUOUS
 10
9.8996127104
 20
15.7929995253
 11
9.8996127104
 21
14.2939132847
  0
LINE
  5
4FA
100
AcDbEntity
  8
RACCORDO
100
AcDbLine
 62
250
  6
CONTINUOUS
 10
9.8996127104
 20
-7.4350873941
 11
9.8996127104
 21
-5.9360011535
  0
LINE
  5
4FB
100
AcDbEntity
  8
ASSI
100
AcDbLine
 62
250
  6
CONTINUOUS
 10
9.8996127104
 20
-7.4350873941
 11
9.8996127104
 21
-5.9360011535
  0
LINE
  5
4FC
100
AcDbEntity
  8
CURVE
100
AcDbLine
 62
250
  6
CONTINUOUS
 10
7.2843509047
 20
-5.8210439344
 11
8.5343509047
 21
-3.6559804249
  0
LINE
  5
4FD
100
AcDbEntity
  8
CURVE
100
AcDbLine
 62
7
  6
CONTINUOUS
 10
7.2133286115
 20
-5.6980297141
 11
7.5494097114
 21
-5.3619486142
  0
LINE
  5
4FE
100
AcDbEntity
  8
RACCORDO
100
AcDbLine
 62
7
  6
CONTINUOUS
 10
12.3735240523
 20
-0.7318707868
 11
12.2843509047
 21
-0.8210439344
  0
LINE
  5
4FF
100
AcDbEntity
  8
ASSI
100
AcDbLine
 62
7
  6
CONTINUOUS
 10
12.3735240523
 20
-0.7318707868
 11
12.2843509047
 21
-0.8210439344
  0
LINE
  5
500
100
AcDbEntity
  8
0
100
AcDbLine
 62
7
  6
CONTINUOUS
 10
-12.7156490953
 20
8.8416541419
 11
-13.8380770034
 21
8.7737645983
  0
LINE
  5
501
100
AcDbEntity
  8
ASSI
100
AcDbLine
 62
7
  6
CONTINUOUS
 10
-12.7156490953
 20
8.8416541419
 11
-13.8380770034
 21
8.7737645983
  0
LINE
  5
502
100
AcDbEntity
  8
RACCORDO
100
AcDbLine
 62
250
  6
CONTINUOUS
 10
-14.1264759477
 20
9.089782918
 11
-12.8048222428
 21
9.089782918
  0
LINE
  5
503
100
AcDbEntity
  8
ASSI
100
AcDbLine
 62
250
  6
CONTINUOUS
 10
-14.1264759477
 20
9.089782918
 11
-12.8048222428
 21
9.089782918
  0
LINE
  5
504
100
AcDbEntity
  8
RACCORDO
100
AcDbLine
 62
250
  6
CONTINUOUS
 10
12.3735240523
 20
9.089782918
 11
13.6951777572
 21
9.089782918
  0
LINE
  5
505
100
AcDbEntity
  8
ASSI
100
AcDbLine
 62
250
  6
CONTINUOUS
 10
12.3735240523
 20
9.089782918
 11
13.6951777572
 21
9.089782918
  0
LINE
  5
506
100
AcDbEntity
  8
RACCORDO
100
AcDbLine
 62
7
  6
CONTINUOUS
 10
-11.847761927
 20
9.3971443772
 11
-10.8306063144
 21
9.3971443772
  0
LINE
  5
507
100
AcDbEntity
  8
ASSI
100
AcDbLine
 62
7
  6
CONTINUOUS
 10
-11.847761927
 20
9.3971443772
 11
-10.8306063144
 21
9.3971443772
  0
LINE
  5
508
100
AcDbEntity
  8
RACCORDO
100
AcDbLine
 62
7
  6
CONTINUOUS
 10
10.3993081239
 20
9.3971443772
 11
11.4164637365
 21
9.3971443772
  0
LINE
  5
509
100
AcDbEntity
  8
ASSI
100
AcDbLine
 62
7
  6
CONTINUOUS
 10
10.3993081239
 20
9.3971443772
 11
11.4164637365
 21
9.3971443772
  0
LINE
  5
50A
100
AcDbEntity
  8
0
100
AcDbLine
 62
7
  6
CONTINUOUS
 10
13.4067788129
 20
8.7737645983
 11
12.2843509047
 21
8.8416541419
  0
LINE
  5
50B
100
AcDbEntity
  8
ASSI
100
AcDbLine
 62
7
  6
CONTINUOUS
 10
13.4067788129
 20
8.7737645983
 11
12.2843509047
 21
8.8416541419
  0
LINE
  5
50C
100
AcDbEntity
  8
RACCORDO
100
AcDbLine
 62
7
  6
CONTINUOUS
 10
13.6951777572
 20
-0.7318707868
 11
13.7843509047
 21
-0.8210439344
  0
LINE
  5
50D
100
AcDbEntity
  8
ASSI
100
AcDbLine
 62
7
  6
CONTINUOUS
 10
13.6951777572
 20
-0.7318707868
 11
13.7843509047
 21
-0.8210439344
  0
LINE
  5
50E
100
AcDbEntity
  8
CURVE
100
AcDbLine
 62
250
  6
CONTINUOUS
 10
2.2843509047
 20
14.1789560656
 11
3.5343509047
 21
12.0138925561
  0
LINE
  5
50F
100
AcDbEntity
  8
RACCORDO
100
AcDbLine
 62
250
  6
CONTINUOUS
 10
11.4282200683
 20
-3.3916947564
 11
11.4164637365
 21
-3.193248252
  0
LINE
  5
510
100
AcDbEntity
  8
ASSI
100
AcDbLine
 62
250
  6
CONTINUOUS
 10
11.4282200683
 20
-3.3916947564
 11
11.4164637365
 21
-3.193248252
  0
LINE
  5
511
100
AcDbEntity
  8
RACCORDO
100
AcDbLine
 62
250
  6
CONTINUOUS
 10
10.3993081239
 20
9.3971443772
 11
10.3993081239
 21
-1.039232246
  0
LINE
  5
512
100
AcDbEntity
  8
ASSI
100
AcDbLine
 62
250
  6
CONTINUOUS
 10
10.3993081239
 20
9.3971443772
 11
10.3993081239
 21
-1.039232246
  0
LINE
  5
513
100
AcDbEntity
  8
RACCORDO
100
AcDbLine
 62
250
  6
CONTINUOUS
 10
10.3993081239
 20
13.7942178712
 11
10.3994588819
 21
11.9355011994
  0
LINE
  5
514
100
AcDbEntity
  8
ASSI
100
AcDbLine
 62
250
  6
CONTINUOUS
 10
10.3993081239
 20
13.7942178712
 11
10.3994588819
 21
11.9355011994
  0
LINE
  5
515
100
AcDbEntity
  8
RACCORDO
100
AcDbLine
 62
250
  6
CONTINUOUS
 10
11.4164637365
 20
-3.193248252
 11
11.4164637365
 21
-1.039232246
  0
LINE
  5
516
100
AcDbEntity
  8
ASSI
100
AcDbLine
 62
250
  6
CONTINUOUS
 10
11.4164637365
 20
-3.193248252
 11
11.4164637365
 21
-1.039232246
  0
LINE
  5
517
100
AcDbEntity
  8
RACCORDO
100
AcDbLine
 62
250
  6
CONTINUOUS
 10
11.4164637365
 20
9.3971443772
 11
11.4164637365
 21
11.5511606113
  0
LINE
  5
518
100
AcDbEntity
  8
ASSI
100
AcDbLine
 62
250
  6
CONTINUOUS
 10
11.4164637365
 20
9.3971443772
 11
11.4164637365
 21
11.5511606113
  0
LINE
  5
519
100
AcDbEntity
  8
RACCORDO
100
AcDbLine
 62
250
  6
CONTINUOUS
 10
10.3994724194
 20
-3.5775813589
 11
10.3993081239
 21
-5.43630574
  0
LINE
  5
51A
100
AcDbEntity
  8
ASSI
100
AcDbLine
 62
250
  6
CONTINUOUS
 10
10.3994724194
 20
-3.5775813589
 11
10.3993081239
 21
-5.43630574
  0
LWPOLYLINE
  5
51B
100
AcDbEntity
  8
RACCORDO
100
AcDbPolyline
 62
250
  6
CONTINUOUS
 90
22
 70
0
 10
10.3993081239
 20
-5.43630574
 10
10.3978736535
 20
-5.4738682129
 10
10.3937202664
 20
-5.5108516547
 10
10.3868479627
 20
-5.5472560654
 10
10.3771882154
 20
-5.5832917507
 10
10.3648095514
 20
-5.6187484049
 10
10.3499175517
 20
-5.6529951112
 10
10.3324704372
 20
-5.6859979739
 10
10.312509987
 20
-5.7177908886
 10
10.2903671192
 20
-5.7478446254
 10
10.2660045599
 20
-5.7761304183
 10
10.2394595829
 20
-5.8026770333
 10
10.2111749283
 20
-5.8270415378
 10
10.1811216631
 20
-5.8491867477
 10
10.1493287201
 20
-5.869149847
 10
10.1163256385
 20
-5.8865994552
 10
10.082079324
 20
-5.9014936261
 10
10.0466228707
 20
-5.913874306
 10
10.0105851006
 20
-5.9235359528
 10
9.9741756208
 20
-5.9304100527
 10
9.937184824
 20
-5.9345651196
 10
9.8996127104
 20
-5.9360011535
  0
LWPOLYLINE
  5
51C
100
AcDbEntity
  8
ASSI
100
AcDbPolyline
 62
250
  6
CONTINUOUS
 90
22
 70
0
 10
10.3993081239
 20
-5.43630574
 10
10.3978736535
 20
-5.4738682129
 10
10.3937202664
 20
-5.5108516547
 10
10.3868479627
 20
-5.5472560654
 10
10.3771882154
 20
-5.5832917507
 10
10.3648095514
 20
-5.6187484049
 10
10.3499175517
 20
-5.6529951112
 10
10.3324704372
 20
-5.6859979739
 10
10.312509987
 20
-5.7177908886
 10
10.2903671192
 20
-5.7478446254
 10
10.2660045599
 20
-5.7761304183
 10
10.2394595829
 20
-5.8026770333
 10
10.2111749283
 20
-5.8270415378
 10
10.1811216631
 20
-5.8491867477
 10
10.1493287201
 20
-5.869149847
 10
10.1163256385
 20
-5.8865994552
 10
10.082079324
 20
-5.9014936261
 10
10.0466228707
 20
-5.913874306
 10
10.0105851006
 20
-5.9235359528
 10
9.9741756208
 20
-5.9304100527
 10
9.937184824
 20
-5.9345651196
 10
9.8996127104
 20
-5.9360011535
  0
LINE
  5
51D
100
AcDbEntity
  8
RACCORDO
100
AcDbLine
 62
250
  6
CONTINUOUS
 10
11.4282181032
 20
11.7495851733
 11
11.4164637365
 21
11.5511606113
  0
LINE
  5
51E
100
AcDbEntity
  8
ASSI
100
AcDbLine
 62
250
  6
CONTINUOUS
 10
11.4282181032
 20
11.7495851733
 11
11.4164637365
 21
11.5511606113
  0
LWPOLYLINE
  5
51F
100
AcDbEntity
  8
RACCORDO
100
AcDbPolyline
 62
250
  6
CONTINUOUS
 90
11
 70
0
 10
12.8801005039
 20
11.5693359553
 10
12.9736964199
 20
11.5727230348
 10
13.0593616956
 20
11.5763148436
 10
13.1366438896
 20
11.580107889
 10
13.205133706
 20
11.5840439382
 10
13.2644776804
 20
11.5881248567
 10
13.3143797134
 20
11.5923487791
 10
13.3545886683
 20
11.5966518761
 10
13.3848986341
 20
11.6010128714
 10
13.4051524333
 20
11.6054530414
 10
13.4152453905
 20
11.609972386
  0
LWPOLYLINE
  5
520
100
AcDbEntity
  8
ASSI
100
AcDbPolyline
 62
250
  6
CONTINUOUS
 90
11
 70
0
 10
12.8801005039
 20
11.5693359553
 10
12.9736964199
 20
11.5727230348
 10
13.0593616956
 20
11.5763148436
 10
13.1366438896
 20
11.580107889
 10
13.205133706
 20
11.5840439382
 10
13.2644776804
 20
11.5881248567
 10
13.3143797134
 20
11.5923487791
 10
13.3545886683
 20
11.5966518761
 10
13.3848986341
 20
11.6010128714
 10
13.4051524333
 20
11.6054530414
 10
13.4152453905
 20
11.609972386
  0
LWPOLYLINE
  5
521
100
AcDbEntity
  8
RACCORDO
100
AcDbPolyline
 62
250
  6
CONTINUOUS
 90
12
 70
0
 10
12.6423683492
 20
11.7660214326
 10
12.733773397
 20
11.7692117647
 10
12.8180310933
 20
11.7726037278
 10
12.8950398373
 20
11.7762008034
 10
12.9649012297
 20
11.7799995101
 10
13.0265398123
 20
11.7839412712
 10
13.0798257712
 20
11.788029831
 10
13.1248889202
 20
11.7922614452
 10
13.1610432418
 20
11.7965663052
 10
13.1880600636
 20
11.8009211415
 10
13.206168058
 20
11.8053492235
 10
13.2153672251
 20
11.8098505514
  0
LWPOLYLINE
  5
522
100
AcDbEntity
  8
ASSI
100
AcDbPolyline
 62
250
  6
CONTINUOUS
 90
12
 70
0
 10
12.6423683492
 20
11.7660214326
 10
12.733773397
 20
11.7692117647
 10
12.8180310933
 20
11.7726037278
 10
12.8950398373
 20
11.7762008034
 10
12.9649012297
 20
11.7799995101
 10
13.0265398123
 20
11.7839412712
 10
13.0798257712
 20
11.788029831
 10
13.1248889202
 20
11.7922614452
 10
13.1610432418
 20
11.7965663052
 10
13.1880600636
 20
11.8009211415
 10
13.206168058
 20
11.8053492235
 10
13.2153672251
 20
11.8098505514
  0
LINE
  5
523
100
AcDbEntity
  8
RACCORDO
100
AcDbLine
 62
250
  6
CONTINUOUS
 10
12.6710290352
 20
11.5632132605
 11
12.8801005039
 21
11.5693359553
  0
LINE
  5
524
100
AcDbEntity
  8
ASSI
100
AcDbLine
 62
250
  6
CONTINUOUS
 10
12.6710290352
 20
11.5632132605
 11
12.8801005039
 21
11.5693359553
  0
LWPOLYLINE
  5
525
100
AcDbEntity
  8
RACCORDO
100
AcDbPolyline
 62
250
  6
CONTINUOUS
 90
3
 70
0
 10
12.3333530196
 20
11.7579561864
 10
12.4421581605
 20
11.7603936435
 10
12.6423683492
 20
11.7660214326
  0
LWPOLYLINE
  5
526
100
AcDbEntity
  8
ASSI
100
AcDbPolyline
 62
250
  6
CONTINUOUS
 90
3
 70
0
 10
12.3333530196
 20
11.7579561864
 10
12.4421581605
 20
11.7603936435
 10
12.6423683492
 20
11.7660214326
  0
LINE
  5
527
100
AcDbEntity
  8
RACCORDO
100
AcDbLine
 62
250
  6
CONTINUOUS
 10
12.4363202405
 20
11.5580935659
 11
12.6710290352
 21
11.5632132605
  0
LINE
  5
528
100
AcDbEntity
  8
ASSI
100
AcDbLine
 62
250
  6
CONTINUOUS
 10
12.4363202405
 20
11.5580935659
 11
12.6710290352
 21
11.5632132605
  0
LINE
  5
529
100
AcDbEntity
  8
RACCORDO
100
AcDbLine
 62
250
  6
CONTINUOUS
 10
12.1808501882
 20
11.5540857679
 11
12.4363202405
 21
11.5580935659
  0
LINE
  5
52A
100
AcDbEntity
  8
ASSI
100
AcDbLine
 62
250
  6
CONTINUOUS
 10
12.1808501882
 20
11.5540857679
 11
12.4363202405
 21
11.5580935659
  0
LINE
  5
52B
100
AcDbEntity
  8
RACCORDO
100
AcDbLine
 62
250
  6
CONTINUOUS
 10
11.9098458069
 20
11.5512512785
 11
12.1808501882
 21
11.5540857679
  0
LINE
  5
52C
100
AcDbEntity
  8
ASSI
100
AcDbLine
 62
250
  6
CONTINUOUS
 10
11.9098458069
 20
11.5512512785
 11
12.1808501882
 21
11.5540857679
  0
LINE
  5
52D
100
AcDbEntity
  8
IMPORT_IGES
100
AcDbLine
 62
7
  6
CONTINUOUS
 10
7.5417489047
 20
11.1859160656
 11
7.0199559047
 21
11.1859160656
  0
LINE
  5
52E
100
AcDbEntity
  8
IMPORT_IGES
100
AcDbLine
 62
7
  6
CONTINUOUS
 10
1.9129060435
 20
11.1859160491
 11
1.5610414282
 21
11.1859160491
  0
LINE
  5
52F
100
AcDbEntity
  8
IMPORT_IGES
100
AcDbLine
 62
7
  6
CONTINUOUS
 10
2.0661299047
 20
11.1859160656
 11
2.6160779047
 21
11.1859160656
  0
LINE
  5
530
100
AcDbEntity
  8
IMPORT_IGES
100
AcDbLine
 62
7
  6
CONTINUOUS
 10
6.5610414669
 20
11.1859160656
 11
6.7390589047
 21
11.1859160656
  0
LINE
  5
531
100
AcDbEntity
  8
RACCORDO
100
AcDbLine
 62
250
  6
CONTINUOUS
 10
-12.0600748847
 20
11.5496744156
 11
-12.3411462441
 21
11.5512513137
  0
LINE
  5
532
100
AcDbEntity
  8
ASSI
100
AcDbLine
 62
250
  6
CONTINUOUS
 10
-12.0600748847
 20
11.5496744156
 11
-12.3411462441
 21
11.5512513137
  0
LINE
  5
533
100
AcDbEntity
  8
RACCORDO
100
AcDbLine
 62
250
  6
CONTINUOUS
 10
-12.3411462441
 20
11.5512513137
 11
-12.6121516807
 21
11.5540858681
  0
LINE
  5
534
100
AcDbEntity
  8
ASSI
100
AcDbLine
 62
250
  6
CONTINUOUS
 10
-12.3411462441
 20
11.5512513137
 11
-12.6121516807
 21
11.5540858681
  0
LINE
  5
535
100
AcDbEntity
  8
RACCORDO
100
AcDbLine
 62
250
  6
CONTINUOUS
 10
-12.6121516807
 20
11.5540858681
 11
-12.8676208036
 21
11.5580936496
  0
LINE
  5
536
100
AcDbEntity
  8
ASSI
100
AcDbLine
 62
250
  6
CONTINUOUS
 10
-12.6121516807
 20
11.5540858681
 11
-12.8676208036
 21
11.5580936496
  0
LINE
  5
537
100
AcDbEntity
  8
RACCORDO
100
AcDbLine
 62
250
  6
CONTINUOUS
 10
-12.8676208036
 20
11.5580936496
 11
-13.1023272551
 21
11.5632132785
  0
LINE
  5
538
100
AcDbEntity
  8
ASSI
100
AcDbLine
 62
250
  6
CONTINUOUS
 10
-12.8676208036
 20
11.5580936496
 11
-13.1023272551
 21
11.5632132785
  0
LWPOLYLINE
  5
539
100
AcDbEntity
  8
RACCORDO
100
AcDbPolyline
 62
250
  6
CONTINUOUS
 90
14
 70
0
 10
-12.7644910921
 20
11.7579528729
 10
-12.9762947285
 20
11.7630752858
 10
-13.0734628674
 20
11.7660148961
 10
-13.1648720121
 20
11.7692043406
 10
-13.2491384811
 20
11.7725955162
 10
-13.3261607345
 20
11.7761919161
 10
-13.3960403122
 20
11.779990047
 10
-13.4576981524
 20
11.7839313253
 10
-13.5110029072
 20
11.788019089
 10
-13.5560859246
 20
11.7922500001
 10
-13.592262186
 20
11.7965554616
 10
-13.6193033519
 20
11.8009126078
 10
-13.6374377618
 20
11.8053443044
 10
-13.6466654156
 20
11.8098505514
  0
LWPOLYLINE
  5
53A
100
AcDbEntity
  8
ASSI
100
AcDbPolyline
 62
250
  6
CONTINUOUS
 90
14
 70
0
 10
-12.7644910921
 20
11.7579528729
 10
-12.9762947285
 20
11.7630752858
 10
-13.0734628674
 20
11.7660148961
 10
-13.1648720121
 20
11.7692043406
 10
-13.2491384811
 20
11.7725955162
 10
-13.3261607345
 20
11.7761919161
 10
-13.3960403122
 20
11.779990047
 10
-13.4576981524
 20
11.7839313253
 10
-13.5110029072
 20
11.788019089
 10
-13.5560859246
 20
11.7922500001
 10
-13.592262186
 20
11.7965554616
 10
-13.6193033519
 20
11.8009126078
 10
-13.6374377618
 20
11.8053443044
 10
-13.6466654156
 20
11.8098505514
  0
LWPOLYLINE
  5
53B
100
AcDbEntity
  8
RACCORDO
100
AcDbPolyline
 62
250
  6
CONTINUOUS
 90
13
 70
0
 10
-11.9105817644
 20
11.7492251753
 10
-12.0012578793
 20
11.7520288006
 10
-12.0853323295
 20
11.7550184735
 10
-12.1628051149
 20
11.7581941941
 10
-12.2340172621
 20
11.7615740941
 10
-12.2986277445
 20
11.7651400418
 10
-12.3556134826
 20
11.7688376411
 10
-12.4048479459
 20
11.7726739307
 10
-12.4464576648
 20
11.776641872
 10
-12.4797991506
 20
11.7806659533
 10
-12.504657907
 20
11.784721004
 10
-12.5212484302
 20
11.7888321946
 10
-12.5295707203
 20
11.7929995253
  0
LWPOLYLINE
  5
53C
100
AcDbEntity
  8
ASSI
100
AcDbPolyline
 62
250
  6
CONTINUOUS
 90
13
 70
0
 10
-11.9105817644
 20
11.7492251753
 10
-12.0012578793
 20
11.7520288006
 10
-12.0853323295
 20
11.7550184735
 10
-12.1628051149
 20
11.7581941941
 10
-12.2340172621
 20
11.7615740941
 10
-12.2986277445
 20
11.7651400418
 10
-12.3556134826
 20
11.7688376411
 10
-12.4048479459
 20
11.7726739307
 10
-12.4464576648
 20
11.776641872
 10
-12.4797991506
 20
11.7806659533
 10
-12.504657907
 20
11.784721004
 10
-12.5212484302
 20
11.7888321946
 10
-12.5295707203
 20
11.7929995253
  0
LWPOLYLINE
  5
53D
100
AcDbEntity
  8
RACCORDO
100
AcDbPolyline
 62
250
  6
CONTINUOUS
 90
12
 70
0
 10
-13.1023272551
 20
11.5632132785
 10
-13.3113987869
 20
11.5693359714
 10
-13.4049948407
 20
11.5727230472
 10
-13.490660196
 20
11.5763148382
 10
-13.5679424253
 20
11.5801078584
 10
-13.6364320339
 20
11.5840438795
 10
-13.6957725519
 20
11.588124526
 10
-13.745672173
 20
11.5923481734
 10
-13.7858858033
 20
11.5966517193
 10
-13.8162040729
 20
11.6010141296
 10
-13.836462259
 20
11.6054564384
 10
-13.8465506061
 20
11.6099786457
  0
LWPOLYLINE
  5
53E
100
AcDbEntity
  8
ASSI
100
AcDbPolyline
 62
250
  6
CONTINUOUS
 90
12
 70
0
 10
-13.1023272551
 20
11.5632132785
 10
-13.3113987869
 20
11.5693359714
 10
-13.4049948407
 20
11.5727230472
 10
-13.490660196
 20
11.5763148382
 10
-13.5679424253
 20
11.5801078584
 10
-13.6364320339
 20
11.5840438795
 10
-13.6957725519
 20
11.588124526
 10
-13.745672173
 20
11.5923481734
 10
-13.7858858033
 20
11.5966517193
 10
-13.8162040729
 20
11.6010141296
 10
-13.836462259
 20
11.6054564384
 10
-13.8465506061
 20
11.6099786457
  0
LWPOLYLINE
  5
53F
100
AcDbEntity
  8
0
100
AcDbPolyline
 62
7
  6
CONTINUOUS
 90
3
 70
0
 43
0.3500000006
 10
30.8050374985
 20
0.7559411774
 10
31.0193219833
 20
0.6845122604
 10
31.3050376511
 20
0.5416544266
  0
LWPOLYLINE
  5
540
100
AcDbEntity
  8
RACCORDO
100
AcDbPolyline
 62
250
  6
CONTINUOUS
 90
13
 70
0
 10
11.8983943644
 20
11.9928776907
 10
11.9001332855
 20
11.9668097235
 10
11.9052568883
 20
11.9411868865
 10
11.9136777153
 20
11.9164468907
 10
11.9252519588
 20
11.8930124177
 10
11.9397819705
 20
11.8712837799
 10
11.9570196826
 20
11.8516321115
 10
11.9766707235
 20
11.8343931929
 10
11.9983994434
 20
11.8198616359
 10
12.0218347495
 20
11.8082857733
 10
12.0465763415
 20
11.799863497
 10
12.0722015332
 20
11.7947388484
 10
12.0982725298
 20
11.7929995253
  0
LWPOLYLINE
  5
541
100
AcDbEntity
  8
ASSI
100
AcDbPolyline
 62
250
  6
CONTINUOUS
 90
13
 70
0
 10
11.8983943644
 20
11.9928776907
 10
11.9001332855
 20
11.9668097235
 10
11.9052568883
 20
11.9411868865
 10
11.9136777153
 20
11.9164468907
 10
11.9252519588
 20
11.8930124177
 10
11.9397819705
 20
11.8712837799
 10
11.9570196826
 20
11.8516321115
 10
11.9766707235
 20
11.8343931929
 10
11.9983994434
 20
11.8198616359
 10
12.0218347495
 20
11.8082857733
 10
12.0465763415
 20
11.799863497
 10
12.0722015332
 20
11.7947388484
 10
12.0982725298
 20
11.7929995253
  0
LWPOLYLINE
  5
542
100
AcDbEntity
  8
RACCORDO
100
AcDbPolyline
 62
7
  6
CONTINUOUS
 90
25
 70
0
 10
12.2843509047
 20
12.378834231
 10
12.2847932034
 20
12.365669818
 10
12.286072126
 20
12.3526717192
 10
12.2881876727
 20
12.3398399348
 10
12.2911558458
 20
12.3271210991
 10
12.294960643
 20
12.3145685777
 10
12.2995540566
 20
12.3023424675
 10
12.3049462854
 20
12.290446849
 10
12.3111271307
 20
12.2788776418
 10
12.3180179892
 20
12.2677827008
 10
12.3256280385
 20
12.2571681314
 10
12.3339481009
 20
12.2470278282
 10
12.3428720397
 20
12.2374913309
 10
12.3524076521
 20
12.2285664332
 10
12.3625471409
 20
12.2202453414
 10
12.3731609776
 20
12.212634214
 10
12.3842552718
 20
12.2057422285
 10
12.395823914
 20
12.1995602074
 10
12.4077190474
 20
12.1941667771
 10
12.4199447542
 20
12.1895721391
 10
12.4324969522
 20
12.1857660918
 10
12.4452155387
 20
12.1827966572
 10
12.4580471461
 20
12.1806798424
 10
12.4710451419
 20
12.1793996403
 10
12.4842095262
 20
12.1789560507
  0
LWPOLYLINE
  5
543
100
AcDbEntity
  8
ASSI
100
AcDbPolyline
 62
7
  6
CONTINUOUS
 90
25
 70
0
 10
12.2843509047
 20
12.378834231
 10
12.2847932034
 20
12.365669818
 10
12.286072126
 20
12.3526717192
 10
12.2881876727
 20
12.3398399348
 10
12.2911558458
 20
12.3271210991
 10
12.294960643
 20
12.3145685777
 10
12.2995540566
 20
12.3023424675
 10
12.3049462854
 20
12.290446849
 10
12.3111271307
 20
12.2788776418
 10
12.3180179892
 20
12.2677827008
 10
12.3256280385
 20
12.2571681314
 10
12.3339481009
 20
12.2470278282
 10
12.3428720397
 20
12.2374913309
 10
12.3524076521
 20
12.2285664332
 10
12.3625471409
 20
12.2202453414
 10
12.3731609776
 20
12.212634214
 10
12.3842552718
 20
12.2057422285
 10
12.395823914
 20
12.1995602074
 10
12.4077190474
 20
12.1941667771
 10
12.4199447542
 20
12.1895721391
 10
12.4324969522
 20
12.1857660918
 10
12.4452155387
 20
12.1827966572
 10
12.4580471461
 20
12.1806798424
 10
12.4710451419
 20
12.1793996403
 10
12.4842095262
 20
12.1789560507
  0
LWPOLYLINE
  5
544
100
AcDbEntity
  8
RACCORDO
100
AcDbPolyline
 62
250
  6
CONTINUOUS
 90
13
 70
0
 10
11.4862520571
 20
11.5493492058
 10
11.4861638632
 20
11.5748798985
 10
11.4859629268
 20
11.5999923312
 10
11.4856525435
 20
11.624275666
 10
11.485237804
 20
11.6473325091
 10
11.4847254976
 20
11.6687859314
 10
11.4841239939
 20
11.6882855027
 10
11.483443129
 20
11.7055123473
 10
11.4826940464
 20
11.7201844889
 10
11.4818889983
 20
11.7320618957
 10
11.4810411547
 20
11.7409502629
 10
11.4801643881
 20
11.7467041879
 10
11.4792730428
 20
11.7492295438
  0
LWPOLYLINE
  5
545
100
AcDbEntity
  8
ASSI
100
AcDbPolyline
 62
250
  6
CONTINUOUS
 90
13
 70
0
 10
11.4862520571
 20
11.5493492058
 10
11.4861638632
 20
11.5748798985
 10
11.4859629268
 20
11.5999923312
 10
11.4856525435
 20
11.624275666
 10
11.485237804
 20
11.6473325091
 10
11.4847254976
 20
11.6687859314
 10
11.4841239939
 20
11.6882855027
 10
11.483443129
 20
11.7055123473
 10
11.4826940464
 20
11.7201844889
 10
11.4818889983
 20
11.7320618957
 10
11.4810411547
 20
11.7409502629
 10
11.4801643881
 20
11.7467041879
 10
11.4792730428
 20
11.7492295438
  0
LINE
  5
546
100
AcDbEntity
  8
RACCORDO
100
AcDbLine
 62
250
  6
CONTINUOUS
 10
11.8983943644
 20
9.3718755393
 11
11.8983943644
 21
-1.0139634081
  0
LINE
  5
547
100
AcDbEntity
  8
ASSI
100
AcDbLine
 62
250
  6
CONTINUOUS
 10
11.8983943644
 20
9.3718755393
 11
11.8983943644
 21
-1.0139634081
  0
LINE
  5
548
100
AcDbEntity
  8
RACCORDO
100
AcDbLine
 62
250
  6
CONTINUOUS
 10
11.8984015634
 20
-3.6349727585
 11
11.8983943644
 21
-5.4361229637
  0
LINE
  5
549
100
AcDbEntity
  8
ASSI
100
AcDbLine
 62
250
  6
CONTINUOUS
 10
11.8984015634
 20
-3.6349727585
 11
11.8983943644
 21
-5.4361229637
  0
LINE
  5
54A
100
AcDbEntity
  8
RACCORDO
100
AcDbLine
 62
250
  6
CONTINUOUS
 10
11.8983943644
 20
13.7940408821
 11
11.8984014949
 21
11.9928848212
  0
LINE
  5
54B
100
AcDbEntity
  8
ASSI
100
AcDbLine
 62
250
  6
CONTINUOUS
 10
11.8983943644
 20
13.7940408821
 11
11.8984014949
 21
11.9928848212
  0
LINE
  5
54C
100
AcDbEntity
  8
RACCORDO
100
AcDbLine
 62
7
  6
CONTINUOUS
 10
12.2843509047
 20
-5.8222622804
 11
12.2843509047
 21
-4.0209220998
  0
LINE
  5
54D
100
AcDbEntity
  8
ASSI
100
AcDbLine
 62
7
  6
CONTINUOUS
 10
12.2843509047
 20
-5.8222622804
 11
12.2843509047
 21
-4.0209220998
  0
LINE
  5
54E
100
AcDbEntity
  8
RACCORDO
100
AcDbLine
 62
7
  6
CONTINUOUS
 10
12.2843509047
 20
-0.8210439344
 11
12.2843509047
 21
-0.5710439344
  0
LINE
  5
54F
100
AcDbEntity
  8
RACCORDO
100
AcDbLine
 62
7
  6
CONTINUOUS
 10
12.2843509047
 20
8.9289560656
 11
12.2843509047
 21
9.1789560656
  0
LINE
  5
550
100
AcDbEntity
  8
ASSI
100
AcDbLine
 62
7
  6
CONTINUOUS
 10
12.2843509047
 20
-0.8210439344
 11
12.2843509047
 21
9.1789560656
  0
LINE
  5
551
100
AcDbEntity
  8
DRAFT
100
AcDbLine
 62
7
  6
CONTINUOUS
 10
12.2843509047
 20
-0.8210439344
 11
12.2843509047
 21
9.1789560656
  0
LINE
  5
552
100
AcDbEntity
  8
RACCORDO
100
AcDbLine
 62
7
  6
CONTINUOUS
 10
12.2843509047
 20
12.378834231
 11
12.2843509047
 21
14.1801744116
  0
LINE
  5
553
100
AcDbEntity
  8
ASSI
100
AcDbLine
 62
7
  6
CONTINUOUS
 10
12.2843509047
 20
12.378834231
 11
12.2843509047
 21
14.1801744116
  0
LWPOLYLINE
  5
554
100
AcDbEntity
  8
RACCORDO
100
AcDbPolyline
 62
250
  6
CONTINUOUS
 90
22
 70
0
 10
11.8983945295
 20
-5.4361231372
 10
11.8926837177
 20
-5.5855059483
 10
11.8758308415
 20
-5.7340299411
 10
11.8479350195
 20
-5.8808658445
 10
11.8091591444
 20
-6.0251879436
 10
11.7597233511
 20
-6.1661982987
 10
11.6998988651
 20
-6.3031295252
 10
11.6300164695
 20
-6.4352231316
 10
11.5504691237
 20
-6.5617354283
 10
11.4617007606
 20
-6.6819600778
 10
11.3642071262
 20
-6.7952257119
 10
11.2585326802
 20
-6.9009001599
 10
11.145267048
 20
-6.9983937959
 10
11.0250424001
 20
-7.08716216
 10
10.8985301052
 20
-7.1667095066
 10
10.766436501
 20
-7.2365919025
 10
10.6295050795
 20
-7.2964164669
 10
10.4884945196
 20
-7.3458523083
 10
10.3441728319
 20
-7.3846280567
 10
10.1973381966
 20
-7.4125236851
 10
10.0488161307
 20
-7.4293765087
 10
9.8994358892
 20
-7.4350875542
  0
LWPOLYLINE
  5
555
100
AcDbEntity
  8
ASSI
100
AcDbPolyline
 62
250
  6
CONTINUOUS
 90
22
 70
0
 10
11.8983945295
 20
-5.4361231372
 10
11.8926837177
 20
-5.5855059483
 10
11.8758308415
 20
-5.7340299411
 10
11.8479350195
 20
-5.8808658445
 10
11.8091591444
 20
-6.0251879436
 10
11.7597233511
 20
-6.1661982987
 10
11.6998988651
 20
-6.3031295252
 10
11.6300164695
 20
-6.4352231316
 10
11.5504691237
 20
-6.5617354283
 10
11.4617007606
 20
-6.6819600778
 10
11.3642071262
 20
-6.7952257119
 10
11.2585326802
 20
-6.9009001599
 10
11.145267048
 20
-6.9983937959
 10
11.0250424001
 20
-7.08716216
 10
10.8985301052
 20
-7.1667095066
 10
10.766436501
 20
-7.2365919025
 10
10.6295050795
 20
-7.2964164669
 10
10.4884945196
 20
-7.3458523083
 10
10.3441728319
 20
-7.3846280567
 10
10.1973381966
 20
-7.4125236851
 10
10.0488161307
 20
-7.4293765087
 10
9.8994358892
 20
-7.4350875542
  0
LWPOLYLINE
  5
556
100
AcDbEntity
  8
RACCORDO
100
AcDbPolyline
 62
250
  6
CONTINUOUS
 90
13
 70
0
 10
11.8983943644
 20
-3.6349655595
 10
11.9001334547
 20
-3.6088963176
 10
11.9052575117
 20
-3.5832724373
 10
11.913678997
 20
-3.5585316717
 10
11.9252540397
 20
-3.5350966867
 10
11.939784894
 20
-3.5133678407
 10
11.9570233179
 20
-3.4937163449
 10
11.9766748138
 20
-3.4764779214
 10
11.9984036594
 20
-3.4619470676
 10
12.0218386439
 20
-3.4503720255
 10
12.046579409
 20
-3.4419505407
 10
12.0722032885
 20
-3.4368264842
 10
12.0982725294
 20
-3.4350873941
  0
LWPOLYLINE
  5
557
100
AcDbEntity
  8
ASSI
100
AcDbPolyline
 62
250
  6
CONTINUOUS
 90
13
 70
0
 10
11.8983943644
 20
-3.6349655595
 10
11.9001334547
 20
-3.6088963176
 10
11.9052575117
 20
-3.5832724373
 10
11.913678997
 20
-3.5585316717
 10
11.9252540397
 20
-3.5350966867
 10
11.939784894
 20
-3.5133678407
 10
11.9570233179
 20
-3.4937163449
 10
11.9766748138
 20
-3.4764779214
 10
11.9984036594
 20
-3.4619470676
 10
12.0218386439
 20
-3.4503720255
 10
12.046579409
 20
-3.4419505407
 10
12.0722032885
 20
-3.4368264842
 10
12.0982725294
 20
-3.4350873941
  0
LWPOLYLINE
  5
558
100
AcDbEntity
  8
RACCORDO
100
AcDbPolyline
 62
250
  6
CONTINUOUS
 90
13
 70
0
 10
11.4792761675
 20
-3.3913169766
 10
11.4801675541
 20
-3.388791631
 10
11.4810443607
 20
-3.3830377236
 10
11.4818922428
 20
-3.3741493812
 10
11.4826973275
 20
-3.3622720068
 10
11.4834464442
 20
-3.3475999044
 10
11.4841273399
 20
-3.3303731038
 10
11.4847288704
 20
-3.3108735861
 10
11.4852411998
 20
-3.2894202201
 10
11.4856559581
 20
-3.2663634115
 10
11.4859663554
 20
-3.2420800758
 10
11.4861673006
 20
-3.2169676118
 10
11.4862554976
 20
-3.1914368575
  0
LWPOLYLINE
  5
559
100
AcDbEntity
  8
ASSI
100
AcDbPolyline
 62
250
  6
CONTINUOUS
 90
13
 70
0
 10
11.4792761675
 20
-3.3913169766
 10
11.4801675541
 20
-3.388791631
 10
11.4810443607
 20
-3.3830377236
 10
11.4818922428
 20
-3.3741493812
 10
11.4826973275
 20
-3.3622720068
 10
11.4834464442
 20
-3.3475999044
 10
11.4841273399
 20
-3.3303731038
 10
11.4847288704
 20
-3.3108735861
 10
11.4852411998
 20
-3.2894202201
 10
11.4856559581
 20
-3.2663634115
 10
11.4859663554
 20
-3.2420800758
 10
11.4861673006
 20
-3.2169676118
 10
11.4862554976
 20
-3.1914368575
  0
LWPOLYLINE
  5
55A
100
AcDbEntity
  8
0
100
AcDbPolyline
 62
7
  6
CONTINUOUS
 90
10
 70
0
 43
0.3500000006
 10
30.5907507477
 20
0.6845122604
 10
30.7336085815
 20
0.7559411774
 10
30.8050374985
 20
0.7559411774
 10
30.9478953323
 20
0.6130833435
 10
30.9478953323
 20
0.5416544266
 10
30.8764664154
 20
0.4702255096
 10
30.8050374985
 20
0.4702255096
 10
30.6621796646
 20
0.5416544266
 10
30.5907507477
 20
0.6130833435
 10
30.5907507477
 20
0.6845122604
  0
LWPOLYLINE
  5
55B
100
AcDbEntity
  8
RACCORDO
100
AcDbPolyline
 62
250
  6
CONTINUOUS
 90
25
 70
0
 10
-11.8477693359
 20
11.551159739
 10
-11.827773388
 20
11.5524914744
 10
-11.8072024302
 20
11.5542802441
 10
-11.7860564627
 20
11.5565260482
 10
-11.7643450615
 20
11.5592059815
 10
-11.7420586505
 20
11.5623429491
 10
-11.7191685014
 20
11.566005666
 10
-11.6956727372
 20
11.5701938455
 10
-11.671573235
 20
11.5749077743
 10
-11.6468468971
 20
11.5802170271
 10
-11.6214918166
 20
11.5861223848
 10
-11.5955099005
 20
11.5926230665
 10
-11.5688837724
 20
11.5997863049
 10
-11.5416108392
 20
11.6076146289
 10
-11.513693694
 20
11.6161055096
 10
-11.4851227394
 20
11.6253185935
 10
-11.4558958598
 20
11.6352588591
 10
-11.4260151707
 20
11.645921328
 10
-11.3954774215
 20
11.6573507107
 10
-11.3642933123
 20
11.6695498801
 10
-11.3324521429
 20
11.6825159634
 10
-11.2999185624
 20
11.6962850525
 10
-11.2666807871
 20
11.7108691781
 10
-11.2327506007
 20
11.7262563096
 10
-11.1981280032
 20
11.742446447
  0
LWPOLYLINE
  5
55C
100
AcDbEntity
  8
ASSI
100
AcDbPolyline
 62
250
  6
CONTINUOUS
 90
25
 70
0
 10
-11.8477693359
 20
11.551159739
 10
-11.827773388
 20
11.5524914744
 10
-11.8072024302
 20
11.5542802441
 10
-11.7860564627
 20
11.5565260482
 10
-11.7643450615
 20
11.5592059815
 10
-11.7420586505
 20
11.5623429491
 10
-11.7191685014
 20
11.566005666
 10
-11.6956727372
 20
11.5701938455
 10
-11.671573235
 20
11.5749077743
 10
-11.6468468971
 20
11.5802170271
 10
-11.6214918166
 20
11.5861223848
 10
-11.5955099005
 20
11.5926230665
 10
-11.5688837724
 20
11.5997863049
 10
-11.5416108392
 20
11.6076146289
 10
-11.513693694
 20
11.6161055096
 10
-11.4851227394
 20
11.6253185935
 10
-11.4558958598
 20
11.6352588591
 10
-11.4260151707
 20
11.645921328
 10
-11.3954774215
 20
11.6573507107
 10
-11.3642933123
 20
11.6695498801
 10
-11.3324521429
 20
11.6825159634
 10
-11.2999185624
 20
11.6962850525
 10
-11.2666807871
 20
11.7108691781
 10
-11.2327506007
 20
11.7262563096
 10
-11.1981280032
 20
11.742446447
  0
LWPOLYLINE
  5
55D
100
AcDbEntity
  8
RACCORDO
100
AcDbPolyline
 62
7
  6
CONTINUOUS
 90
25
 70
0
 10
-12.9155077167
 20
12.1789560507
 10
-12.9023433325
 20
12.1793996403
 10
-12.8893453366
 20
12.1806798424
 10
-12.8765137293
 20
12.1827966572
 10
-12.8637951428
 20
12.1857660918
 10
-12.8512429447
 20
12.1895721391
 10
-12.8390172379
 20
12.1941667771
 10
-12.8271221045
 20
12.1995602074
 10
-12.8155534623
 20
12.2057422285
 10
-12.8044591682
 20
12.212634214
 10
-12.7938453314
 20
12.2202453414
 10
-12.7837058426
 20
12.2285664332
 10
-12.7741702302
 20
12.2374913309
 10
-12.7652462914
 20
12.2470278282
 10
-12.756926229
 20
12.2571681314
 10
-12.7493161797
 20
12.2677827008
 10
-12.7424253213
 20
12.2788776418
 10
-12.7362444759
 20
12.290446849
 10
-12.7308522471
 20
12.3023424675
 10
-12.7262588335
 20
12.3145685777
 10
-12.7224540363
 20
12.3271210991
 10
-12.7194858632
 20
12.3398399348
 10
-12.7173703166
 20
12.3526717192
 10
-12.7160913939
 20
12.365669818
 10
-12.7156490953
 20
12.378834231
  0
LWPOLYLINE
  5
55E
100
AcDbEntity
  8
ASSI
100
AcDbPolyline
 62
7
  6
CONTINUOUS
 90
25
 70
0
 10
-12.9155077167
 20
12.1789560507
 10
-12.9023433325
 20
12.1793996403
 10
-12.8893453366
 20
12.1806798424
 10
-12.8765137293
 20
12.1827966572
 10
-12.8637951428
 20
12.1857660918
 10
-12.8512429447
 20
12.1895721391
 10
-12.8390172379
 20
12.1941667771
 10
-12.8271221045
 20
12.1995602074
 10
-12.8155534623
 20
12.2057422285
 10
-12.8044591682
 20
12.212634214
 10
-12.7938453314
 20
12.2202453414
 10
-12.7837058426
 20
12.2285664332
 10
-12.7741702302
 20
12.2374913309
 10
-12.7652462914
 20
12.2470278282
 10
-12.756926229
 20
12.2571681314
 10
-12.7493161797
 20
12.2677827008
 10
-12.7424253213
 20
12.2788776418
 10
-12.7362444759
 20
12.290446849
 10
-12.7308522471
 20
12.3023424675
 10
-12.7262588335
 20
12.3145685777
 10
-12.7224540363
 20
12.3271210991
 10
-12.7194858632
 20
12.3398399348
 10
-12.7173703166
 20
12.3526717192
 10
-12.7160913939
 20
12.365669818
 10
-12.7156490953
 20
12.378834231
  0
LINE
  5
55F
100
AcDbEntity
  8
RACCORDO
100
AcDbLine
 62
250
  6
CONTINUOUS
 10
11.3010986726
 20
11.9475108135
 11
11.1154145605
 21
11.942790091
  0
LINE
  5
560
100
AcDbEntity
  8
ASSI
100
AcDbLine
 62
250
  6
CONTINUOUS
 10
11.3010986726
 20
11.9475108135
 11
11.1154145605
 21
11.942790091
  0
LWPOLYLINE
  5
561
100
AcDbEntity
  8
RACCORDO
100
AcDbPolyline
 62
250
  6
CONTINUOUS
 90
7
 70
0
 10
-11.8595169477
 20
11.7495848456
 10
-11.8680548673
 20
11.7493928819
 10
-11.87658279
 20
11.7492542994
 10
-11.8850997114
 20
11.7491688654
 10
-11.8936046225
 20
11.749136346
 10
-11.9020965099
 20
11.7491565055
 10
-11.910574358
 20
11.7492291078
  0
LWPOLYLINE
  5
562
100
AcDbEntity
  8
ASSI
100
AcDbPolyline
 62
250
  6
CONTINUOUS
 90
7
 70
0
 10
-11.8595169477
 20
11.7495848456
 10
-11.8680548673
 20
11.7493928819
 10
-11.87658279
 20
11.7492542994
 10
-11.8850997114
 20
11.7491688654
 10
-11.8936046225
 20
11.749136346
 10
-11.9020965099
 20
11.7491565055
 10
-11.910574358
 20
11.7492291078
  0
LINE
  5
563
100
AcDbEntity
  8
RACCORDO
100
AcDbLine
 62
250
  6
CONTINUOUS
 10
11.1154145605
 20
11.942790091
 11
10.9177351199
 21
11.9392440949
  0
LINE
  5
564
100
AcDbEntity
  8
ASSI
100
AcDbLine
 62
250
  6
CONTINUOUS
 10
11.1154145605
 20
11.942790091
 11
10.9177351199
 21
11.9392440949
  0
LINE
  5
565
100
AcDbEntity
  8
RACCORDO
100
AcDbLine
 62
250
  6
CONTINUOUS
 10
12.1033362318
 20
11.7539471701
 11
12.3333530196
 21
11.7579561864
  0
LINE
  5
566
100
AcDbEntity
  8
ASSI
100
AcDbLine
 62
250
  6
CONTINUOUS
 10
12.1033362318
 20
11.7539471701
 11
12.3333530196
 21
11.7579561864
  0
LINE
  5
567
100
AcDbEntity
  8
RACCORDO
100
AcDbLine
 62
250
  6
CONTINUOUS
 10
11.858905577
 20
11.7511152315
 11
12.1033362318
 21
11.7539471701
  0
LINE
  5
568
100
AcDbEntity
  8
ASSI
100
AcDbLine
 62
250
  6
CONTINUOUS
 10
11.858905577
 20
11.7511152315
 11
12.1033362318
 21
11.7539471701
  0
LINE
  5
569
100
AcDbEntity
  8
RACCORDO
100
AcDbLine
 62
250
  6
CONTINUOUS
 10
10.9177351199
 20
11.9392440949
 11
10.7129307337
 21
11.9368967729
  0
LINE
  5
56A
100
AcDbEntity
  8
ASSI
100
AcDbLine
 62
250
  6
CONTINUOUS
 10
10.9177351199
 20
11.9392440949
 11
10.7129307337
 21
11.9368967729
  0
LWPOLYLINE
  5
56B
100
AcDbEntity
  8
RACCORDO
100
AcDbPolyline
 62
250
  6
CONTINUOUS
 90
7
 70
0
 10
11.4792730428
 20
11.7492295438
 10
11.4707952862
 20
11.7491569369
 10
11.462303617
 20
11.7491367703
 10
11.453799052
 20
11.7491692778
 10
11.4452826055
 20
11.7492546931
 10
11.4367552874
 20
11.7493932482
 10
11.4282181032
 20
11.7495851733
  0
LWPOLYLINE
  5
56C
100
AcDbEntity
  8
ASSI
100
AcDbPolyline
 62
250
  6
CONTINUOUS
 90
7
 70
0
 10
11.4792730428
 20
11.7492295438
 10
11.4707952862
 20
11.7491569369
 10
11.462303617
 20
11.7491367703
 10
11.453799052
 20
11.7491692778
 10
11.4452826055
 20
11.7492546931
 10
11.4367552874
 20
11.7493932482
 10
11.4282181032
 20
11.7495851733
  0
LWPOLYLINE
  5
56D
100
AcDbEntity
  8
RACCORDO
100
AcDbPolyline
 62
250
  6
CONTINUOUS
 90
3
 70
0
 10
10.7129307337
 20
11.9368967729
 10
10.5040222839
 20
11.9357272066
 10
10.3994588751
 20
11.9355848282
  0
LWPOLYLINE
  5
56E
100
AcDbEntity
  8
ASSI
100
AcDbPolyline
 62
250
  6
CONTINUOUS
 90
3
 70
0
 10
10.7129307337
 20
11.9368967729
 10
10.5040222839
 20
11.9357272066
 10
10.3994588751
 20
11.9355848282
  0
LWPOLYLINE
  5
56F
100
AcDbEntity
  8
RACCORDO
100
AcDbPolyline
 62
250
  6
CONTINUOUS
 90
7
 70
0
 10
-11.9175536864
 20
11.5493515363
 10
-11.9058939878
 20
11.5493896638
 10
-11.894245346
 20
11.5495331105
 10
-11.8826081625
 20
11.5497818765
 10
-11.8709828359
 20
11.5501359618
 10
-11.8593697626
 20
11.5505953663
 10
-11.847769336
 20
11.5511600901
  0
LWPOLYLINE
  5
570
100
AcDbEntity
  8
ASSI
100
AcDbPolyline
 62
250
  6
CONTINUOUS
 90
7
 70
0
 10
-11.9175536864
 20
11.5493515363
 10
-11.9058939878
 20
11.5493896638
 10
-11.894245346
 20
11.5495331105
 10
-11.8826081625
 20
11.5497818765
 10
-11.8709828359
 20
11.5501359618
 10
-11.8593697626
 20
11.5505953663
 10
-11.847769336
 20
11.5511600901
  0
LWPOLYLINE
  5
571
100
AcDbEntity
  8
RACCORDO
100
AcDbPolyline
 62
250
  6
CONTINUOUS
 90
3
 70
0
 10
11.4792873881
 20
11.7492252055
 10
11.6078341453
 20
11.7495440341
 10
11.858905577
 20
11.7511152315
  0
LWPOLYLINE
  5
572
100
AcDbEntity
  8
ASSI
100
AcDbPolyline
 62
250
  6
CONTINUOUS
 90
3
 70
0
 10
11.4792873881
 20
11.7492252055
 10
11.6078341453
 20
11.7495440341
 10
11.858905577
 20
11.7511152315
  0
LWPOLYLINE
  5
573
100
AcDbEntity
  8
RACCORDO
100
AcDbPolyline
 62
250
  6
CONTINUOUS
 90
3
 70
0
 10
11.4862520553
 20
11.5493517783
 10
11.628773928
 20
11.549674542
 10
11.9098458069
 20
11.5512512785
  0
LWPOLYLINE
  5
574
100
AcDbEntity
  8
ASSI
100
AcDbPolyline
 62
250
  6
CONTINUOUS
 90
3
 70
0
 10
11.4862520553
 20
11.5493517783
 10
11.628773928
 20
11.549674542
 10
11.9098458069
 20
11.5512512785
  0
LINE
  5
575
100
AcDbEntity
  8
CURVE
100
AcDbLine
 62
250
  6
CONTINUOUS
 10
-8.9656490953
 20
12.0138925561
 11
-6.4656490953
 21
12.0138925561
  0
LINE
  5
576
100
AcDbEntity
  8
CURVE
100
AcDbLine
 62
250
  6
CONTINUOUS
 10
1.0343509047
 20
12.0138925561
 11
3.5343509047
 21
12.0138925561
  0
LINE
  5
577
100
AcDbEntity
  8
RACCORDO
100
AcDbLine
 62
7
  6
CONTINUOUS
 10
13.5844727393
 20
12.1789560656
 11
12.4842290701
 21
12.1789560656
  0
LINE
  5
578
100
AcDbEntity
  8
ASSI
100
AcDbLine
 62
7
  6
CONTINUOUS
 10
13.5844727393
 20
12.1789560656
 11
12.4842290701
 21
12.1789560656
  0
LINE
  5
579
100
AcDbEntity
  8
RACCORDO
100
AcDbLine
 62
7
  6
CONTINUOUS
 10
-12.9155272607
 20
12.1789560656
 11
-14.0157709299
 21
12.1789560656
  0
LINE
  5
57A
100
AcDbEntity
  8
ASSI
100
AcDbLine
 62
7
  6
CONTINUOUS
 10
-12.9155272607
 20
12.1789560656
 11
-14.0157709299
 21
12.1789560656
  0
LINE
  5
57B
100
AcDbEntity
  8
RACCORDO
100
AcDbLine
 62
250
  6
CONTINUOUS
 10
-11.9175536864
 20
11.5493515363
 11
-12.0600748847
 21
11.5496744156
  0
LINE
  5
57C
100
AcDbEntity
  8
ASSI
100
AcDbLine
 62
250
  6
CONTINUOUS
 10
-11.9175536864
 20
11.5493515363
 11
-12.0600748847
 21
11.5496744156
  0
LINE
  5
57D
100
AcDbEntity
  8
RACCORDO
100
AcDbLine
 62
250
  6
CONTINUOUS
 10
-10.8307706019
 20
11.9355848922
 11
-11.0420242142
 21
11.9361720262
  0
LINE
  5
57E
100
AcDbEntity
  8
ASSI
100
AcDbLine
 62
250
  6
CONTINUOUS
 10
-10.8307706019
 20
11.9355848922
 11
-11.0420242142
 21
11.9361720262
  0
LINE
  5
57F
100
AcDbEntity
  8
RACCORDO
100
AcDbLine
 62
250
  6
CONTINUOUS
 10
-11.9105817644
 20
11.7492251753
 11
-12.1656271323
 21
11.7501737857
  0
LINE
  5
580
100
AcDbEntity
  8
ASSI
100
AcDbLine
 62
250
  6
CONTINUOUS
 10
-11.9105817644
 20
11.7492251753
 11
-12.1656271323
 21
11.7501737857
  0
LINE
  5
581
100
AcDbEntity
  8
RACCORDO
100
AcDbLine
 62
250
  6
CONTINUOUS
 10
-11.0420242142
 20
11.9361720262
 11
-11.2530926257
 21
11.9379943608
  0
LINE
  5
582
100
AcDbEntity
  8
ASSI
100
AcDbLine
 62
250
  6
CONTINUOUS
 10
-11.0420242142
 20
11.9361720262
 11
-11.2530926257
 21
11.9379943608
  0
LINE
  5
583
100
AcDbEntity
  8
RACCORDO
100
AcDbLine
 62
250
  6
CONTINUOUS
 10
-12.1656271323
 20
11.7501737857
 11
-12.413333752
 21
11.752374604
  0
LINE
  5
584
100
AcDbEntity
  8
ASSI
100
AcDbLine
 62
250
  6
CONTINUOUS
 10
-12.1656271323
 20
11.7501737857
 11
-12.413333752
 21
11.752374604
  0
LWPOLYLINE
  5
585
100
AcDbEntity
  8
RACCORDO
100
AcDbPolyline
 62
250
  6
CONTINUOUS
 90
3
 70
0
 10
-12.413333752
 20
11.752374604
 10
-12.6516200278
 20
11.7558035636
 10
-12.7644910921
 20
11.7579528729
  0
LWPOLYLINE
  5
586
100
AcDbEntity
  8
ASSI
100
AcDbPolyline
 62
250
  6
CONTINUOUS
 90
3
 70
0
 10
-12.413333752
 20
11.752374604
 10
-12.6516200278
 20
11.7558035636
 10
-12.7644910921
 20
11.7579528729
  0
LINE
  5
587
100
AcDbEntity
  8
RACCORDO
100
AcDbLine
 62
250
  6
CONTINUOUS
 10
-11.2530926257
 20
11.9379943608
 11
-11.4586382906
 21
11.9410387524
  0
LINE
  5
588
100
AcDbEntity
  8
ASSI
100
AcDbLine
 62
250
  6
CONTINUOUS
 10
-11.2530926257
 20
11.9379943608
 11
-11.4586382906
 21
11.9410387524
  0
LWPOLYLINE
  5
589
100
AcDbEntity
  8
RACCORDO
100
AcDbPolyline
 62
250
  6
CONTINUOUS
 90
15
 70
0
 10
-11.4586382906
 20
11.9410387524
 10
-11.6517992145
 20
11.9452795665
 10
-11.7420743791
 20
11.9478014052
 10
-11.8272591611
 20
11.950579742
 10
-11.9070202403
 20
11.9536122297
 10
-11.9809661392
 20
11.9568514175
 10
-12.048691911
 20
11.9603003294
 10
-12.1098252551
 20
11.9639559413
 10
-12.1640546987
 20
11.9677617299
 10
-12.2111350849
 20
11.9717266824
 10
-12.25070596
 20
11.9758418115
 10
-12.2824221856
 20
11.9800236317
 10
-12.306161738
 20
11.9842443145
 10
-12.3219227277
 20
11.9885316883
 10
-12.3296997398
 20
11.9928857533
  0
LWPOLYLINE
  5
58A
100
AcDbEntity
  8
ASSI
100
AcDbPolyline
 62
250
  6
CONTINUOUS
 90
15
 70
0
 10
-11.4586382906
 20
11.9410387524
 10
-11.6517992145
 20
11.9452795665
 10
-11.7420743791
 20
11.9478014052
 10
-11.8272591611
 20
11.950579742
 10
-11.9070202403
 20
11.9536122297
 10
-11.9809661392
 20
11.9568514175
 10
-12.048691911
 20
11.9603003294
 10
-12.1098252551
 20
11.9639559413
 10
-12.1640546987
 20
11.9677617299
 10
-12.2111350849
 20
11.9717266824
 10
-12.25070596
 20
11.9758418115
 10
-12.2824221856
 20
11.9800236317
 10
-12.306161738
 20
11.9842443145
 10
-12.3219227277
 20
11.9885316883
 10
-12.3296997398
 20
11.9928857533
  0
LWPOLYLINE
  5
58B
100
AcDbEntity
  8
RACCORDO
100
AcDbPolyline
 62
250
  6
CONTINUOUS
 90
10
 70
0
 10
11.4282195034
 20
11.7496086986
 10
11.3612652712
 20
11.7527291833
 10
11.293129688
 20
11.7584047896
 10
11.2240922612
 20
11.7662605952
 10
11.1535205722
 20
11.7761001055
 10
11.0820945119
 20
11.7875881693
 10
11.0119947736
 20
11.8000707337
 10
10.9440770261
 20
11.8130836167
 10
10.8777602538
 20
11.8265053149
 10
10.8131673121
 20
11.8401239752
  0
LWPOLYLINE
  5
58C
100
AcDbEntity
  8
ASSI
100
AcDbPolyline
 62
250
  6
CONTINUOUS
 90
10
 70
0
 10
11.4282195034
 20
11.7496086986
 10
11.3612652712
 20
11.7527291833
 10
11.293129688
 20
11.7584047896
 10
11.2240922612
 20
11.7662605952
 10
11.1535205722
 20
11.7761001055
 10
11.0820945119
 20
11.7875881693
 10
11.0119947736
 20
11.8000707337
 10
10.9440770261
 20
11.8130836167
 10
10.8777602538
 20
11.8265053149
 10
10.8131673121
 20
11.8401239752
  0
LWPOLYLINE
  5
58D
100
AcDbEntity
  8
RACCORDO
100
AcDbPolyline
 62
250
  6
CONTINUOUS
 90
7
 70
0
 10
11.4164637365
 20
11.5511606113
 10
11.4280664673
 20
11.5505958524
 10
11.4396811877
 20
11.5501364082
 10
11.451307504
 20
11.5497822786
 10
11.4629450202
 20
11.5495334638
 10
11.4745933376
 20
11.5493899637
 10
11.4862520553
 20
11.5493517783
  0
LWPOLYLINE
  5
58E
100
AcDbEntity
  8
ASSI
100
AcDbPolyline
 62
250
  6
CONTINUOUS
 90
7
 70
0
 10
11.4164637365
 20
11.5511606113
 10
11.4280664673
 20
11.5505958524
 10
11.4396811877
 20
11.5501364082
 10
11.451307504
 20
11.5497822786
 10
11.4629450202
 20
11.5495334638
 10
11.4745933376
 20
11.5493899637
 10
11.4862520553
 20
11.5493517783
  0
LWPOLYLINE
  5
58F
100
AcDbEntity
  8
RACCORDO
100
AcDbPolyline
 62
250
  6
CONTINUOUS
 90
13
 70
0
 10
13.2153672251
 20
11.8098505514
 10
13.2414364662
 20
11.8081114613
 10
13.2670603458
 20
11.8029874048
 10
13.291801111
 20
11.79456592
 10
13.3152360957
 20
11.7829908779
 10
13.3369649416
 20
11.768460024
 10
13.3566164376
 20
11.7512216004
 10
13.3738548616
 20
11.7315701046
 10
13.388385716
 20
11.7098412587
 10
13.3999607585
 20
11.6864062738
 10
13.4083822437
 20
11.6616655081
 10
13.4135063004
 20
11.6360416278
 10
13.4152453905
 20
11.609972386
  0
LWPOLYLINE
  5
590
100
AcDbEntity
  8
ASSI
100
AcDbPolyline
 62
250
  6
CONTINUOUS
 90
13
 70
0
 10
13.2153672251
 20
11.8098505514
 10
13.2414364662
 20
11.8081114613
 10
13.2670603458
 20
11.8029874048
 10
13.291801111
 20
11.79456592
 10
13.3152360957
 20
11.7829908779
 10
13.3369649416
 20
11.768460024
 10
13.3566164376
 20
11.7512216004
 10
13.3738548616
 20
11.7315701046
 10
13.388385716
 20
11.7098412587
 10
13.3999607585
 20
11.6864062738
 10
13.4083822437
 20
11.6616655081
 10
13.4135063004
 20
11.6360416278
 10
13.4152453905
 20
11.609972386
  0
LINE
  5
591
100
AcDbEntity
  8
CURVE
100
AcDbLine
 62
250
  6
CONTINUOUS
 10
7.2843509047
 20
12.0138925561
 11
6.0343509047
 21
14.1789560656
  0
LINE
  5
592
100
AcDbEntity
  8
0
100
AcDbLine
 62
7
  6
CONTINUOUS
 10
13.4067788129
 20
8.7737645983
 11
13.4067788129
 21
-0.4158524671
  0
LINE
  5
593
100
AcDbEntity
  8
ASSI
100
AcDbLine
 62
7
  6
CONTINUOUS
 10
13.4067788129
 20
8.7737645983
 11
13.4067788129
 21
-0.4158524671
  0
LINE
  5
594
100
AcDbEntity
  8
RACCORDO
100
AcDbLine
 62
250
  6
CONTINUOUS
 10
13.4152453905
 20
-3.2520602548
 11
13.4152453905
 21
-1.0055404621
  0
LINE
  5
595
100
AcDbEntity
  8
ASSI
100
AcDbLine
 62
250
  6
CONTINUOUS
 10
13.4152453905
 20
-3.2520602548
 11
13.4152453905
 21
-1.0055404621
  0
LINE
  5
596
100
AcDbEntity
  8
RACCORDO
100
AcDbLine
 62
250
  6
CONTINUOUS
 10
13.4152453905
 20
9.3634525933
 11
13.4152453905
 21
11.609972386
  0
LINE
  5
597
100
AcDbEntity
  8
ASSI
100
AcDbLine
 62
250
  6
CONTINUOUS
 10
13.4152453905
 20
9.3634525933
 11
13.4152453905
 21
11.609972386
  0
LINE
  5
598
100
AcDbEntity
  8
RACCORDO
100
AcDbLine
 62
7
  6
CONTINUOUS
 10
13.6866025411
 20
-0.2319469392
 11
13.6866025411
 21
8.5898590704
  0
LINE
  5
599
100
AcDbEntity
  8
ASSI
100
AcDbLine
 62
7
  6
CONTINUOUS
 10
13.6866025411
 20
-0.2319469392
 11
13.6866025411
 21
8.5898590704
  0
LINE
  5
59A
100
AcDbEntity
  8
RACCORDO
100
AcDbLine
 62
7
  6
CONTINUOUS
 10
13.7843509047
 20
-3.621165769
 11
13.7843509047
 21
-0.8210439344
  0
LINE
  5
59B
100
AcDbEntity
  8
ASSI
100
AcDbLine
 62
7
  6
CONTINUOUS
 10
13.7843509047
 20
-3.621165769
 11
13.7843509047
 21
-0.8210439344
  0
LINE
  5
59C
100
AcDbEntity
  8
RACCORDO
100
AcDbLine
 62
7
  6
CONTINUOUS
 10
13.7843509047
 20
9.1789560656
 11
13.7843509047
 21
11.9790779002
  0
LINE
  5
59D
100
AcDbEntity
  8
ASSI
100
AcDbLine
 62
7
  6
CONTINUOUS
 10
13.7843509047
 20
9.1789560656
 11
13.7843509047
 21
11.9790779002
  0
LWPOLYLINE
  5
59E
100
AcDbEntity
  8
RACCORDO
100
AcDbPolyline
 62
7
  6
CONTINUOUS
 90
13
 70
0
 10
13.7843509047
 20
-3.6210743954
 10
13.7826431189
 20
-3.6471902023
 10
13.7775412215
 20
-3.6728540216
 10
13.769133936
 20
-3.6976271538
 10
13.7575670347
 20
-3.7210854728
 10
13.7430392225
 20
-3.7428295171
 10
13.7257974837
 20
-3.7624905133
 10
13.7061364874
 20
-3.7797322522
 10
13.6843924431
 20
-3.7942600644
 10
13.6609341242
 20
-3.8058269657
 10
13.636160992
 20
-3.8142342512
 10
13.6104971727
 20
-3.8193361486
 10
13.5843813657
 20
-3.8210439344
  0
LWPOLYLINE
  5
59F
100
AcDbEntity
  8
ASSI
100
AcDbPolyline
 62
7
  6
CONTINUOUS
 90
13
 70
0
 10
13.7843509047
 20
-3.6210743954
 10
13.7826431189
 20
-3.6471902023
 10
13.7775412215
 20
-3.6728540216
 10
13.769133936
 20
-3.6976271538
 10
13.7575670347
 20
-3.7210854728
 10
13.7430392225
 20
-3.7428295171
 10
13.7257974837
 20
-3.7624905133
 10
13.7061364874
 20
-3.7797322522
 10
13.6843924431
 20
-3.7942600644
 10
13.6609341242
 20
-3.8058269657
 10
13.636160992
 20
-3.8142342512
 10
13.6104971727
 20
-3.8193361486
 10
13.5843813657
 20
-3.8210439344
  0
LINE
  5
5A0
100
AcDbEntity
  8
RACCORDO
100
AcDbLine
 62
250
  6
CONTINUOUS
 10
-10.8306063144
 20
11.9355842019
 11
-11.0048280668
 21
11.8941796543
  0
LINE
  5
5A1
100
AcDbEntity
  8
ASSI
100
AcDbLine
 62
250
  6
CONTINUOUS
 10
-10.8306063144
 20
11.9355842019
 11
-11.0048280668
 21
11.8941796543
  0
LINE
  5
5A2
100
AcDbEntity
  8
RACCORDO
100
AcDbLine
 62
250
  6
CONTINUOUS
 10
-11.0048280668
 20
11.8941796543
 11
-11.0976938214
 21
11.8727062272
  0
LINE
  5
5A3
100
AcDbEntity
  8
ASSI
100
AcDbLine
 62
250
  6
CONTINUOUS
 10
-11.0048280668
 20
11.8941796543
 11
-11.0976938214
 21
11.8727062272
  0
LWPOLYLINE
  5
5A4
100
AcDbEntity
  8
RACCORDO
100
AcDbPolyline
 62
250
  6
CONTINUOUS
 90
3
 70
0
 10
-11.0976938214
 20
11.8727062272
 10
-11.194620801
 20
11.8509662913
 10
-11.2444688493
 20
11.8401239971
  0
LWPOLYLINE
  5
5A5
100
AcDbEntity
  8
ASSI
100
AcDbPolyline
 62
250
  6
CONTINUOUS
 90
3
 70
0
 10
-11.0976938214
 20
11.8727062272
 10
-11.194620801
 20
11.8509662913
 10
-11.2444688493
 20
11.8401239971
  0
LWPOLYLINE
  5
5A6
100
AcDbEntity
  8
RACCORDO
100
AcDbPolyline
 62
250
  6
CONTINUOUS
 90
24
 70
0
 10
-11.2444688488
 20
11.8401239961
 10
-11.3174836272
 20
11.8247508345
 10
-11.352248662
 20
11.8176776756
 10
-11.3858315728
 20
11.811017124
 10
-11.4182658171
 20
11.8047623902
 10
-11.4496338815
 20
11.7988968123
 10
-11.4799542143
 20
11.7934150014
 10
-11.509228896
 20
11.7883138334
 10
-11.5375142837
 20
11.7835796262
 10
-11.5648167906
 20
11.7792060489
 10
-11.5911488047
 20
11.7751851719
 10
-11.6165744266
 20
11.7715010544
 10
-11.6411008295
 20
11.7681455579
 10
-11.6647385658
 20
11.765109466
 10
-11.6875551112
 20
11.7623764012
 10
-11.7095577208
 20
11.7599371424
 10
-11.7307549572
 20
11.7577815848
 10
-11.7512146804
 20
11.7558939863
 10
-11.7709445973
 20
11.754264508
 10
-11.7899516619
 20
11.7528826716
 10
-11.8083006111
 20
11.7517342556
 10
-11.8260167731
 20
11.7508084115
 10
-11.8430869407
 20
11.7500958644
 10
-11.8595170025
 20
11.7495857708
  0
LWPOLYLINE
  5
5A7
100
AcDbEntity
  8
ASSI
100
AcDbPolyline
 62
250
  6
CONTINUOUS
 90
24
 70
0
 10
-11.2444688488
 20
11.8401239961
 10
-11.3174836272
 20
11.8247508345
 10
-11.352248662
 20
11.8176776756
 10
-11.3858315728
 20
11.811017124
 10
-11.4182658171
 20
11.8047623902
 10
-11.4496338815
 20
11.7988968123
 10
-11.4799542143
 20
11.7934150014
 10
-11.509228896
 20
11.7883138334
 10
-11.5375142837
 20
11.7835796262
 10
-11.5648167906
 20
11.7792060489
 10
-11.5911488047
 20
11.7751851719
 10
-11.6165744266
 20
11.7715010544
 10
-11.6411008295
 20
11.7681455579
 10
-11.6647385658
 20
11.765109466
 10
-11.6875551112
 20
11.7623764012
 10
-11.7095577208
 20
11.7599371424
 10
-11.7307549572
 20
11.7577815848
 10
-11.7512146804
 20
11.7558939863
 10
-11.7709445973
 20
11.754264508
 10
-11.7899516619
 20
11.7528826716
 10
-11.8083006111
 20
11.7517342556
 10
-11.8260167731
 20
11.7508084115
 10
-11.8430869407
 20
11.7500958644
 10
-11.8595170025
 20
11.7495857708
  0
LINE
  5
5A8
100
AcDbEntity
  8
RACCORDO
100
AcDbLine
 62
250
  6
CONTINUOUS
 10
-12.3296925549
 20
13.7942178712
 11
-10.8306063144
 21
13.7942178712
  0
LINE
  5
5A9
100
AcDbEntity
  8
ASSI
100
AcDbLine
 62
250
  6
CONTINUOUS
 10
-12.3296925549
 20
13.7942178712
 11
-10.8306063144
 21
13.7942178712
  0
LINE
  5
5AA
100
AcDbEntity
  8
RACCORDO
100
AcDbLine
 62
250
  6
CONTINUOUS
 10
11.8983943644
 20
13.7942178712
 11
10.3993081239
 21
13.7942178712
  0
LINE
  5
5AB
100
AcDbEntity
  8
ASSI
100
AcDbLine
 62
250
  6
CONTINUOUS
 10
11.8983943644
 20
13.7942178712
 11
10.3993081239
 21
13.7942178712
  0
LINE
  5
5AC
100
AcDbEntity
  8
CURVE
100
AcDbLine
 62
250
  6
CONTINUOUS
 10
-3.9656490953
 20
14.1789560656
 11
-1.4656490953
 21
14.1789560656
  0
LINE
  5
5AD
100
AcDbEntity
  8
CURVE
100
AcDbLine
 62
250
  6
CONTINUOUS
 10
6.0343509047
 20
14.1789560656
 11
8.5343509047
 21
14.1789560656
  0
LINE
  5
5AE
100
AcDbEntity
  8
RACCORDO
100
AcDbLine
 62
250
  6
CONTINUOUS
 10
-10.3309109009
 20
14.2939132847
 11
9.8996127104
 21
14.2939132847
  0
LINE
  5
5AF
100
AcDbEntity
  8
ASSI
100
AcDbLine
 62
250
  6
CONTINUOUS
 10
-10.3309109009
 20
14.2939132847
 11
9.8996127104
 21
14.2939132847
  0
LWPOLYLINE
  5
5B0
100
AcDbEntity
  8
RACCORDO
100
AcDbPolyline
 62
7
  6
CONTINUOUS
 90
13
 70
0
 10
13.5843813657
 20
12.1789560656
 10
13.6104971727
 20
12.1772482798
 10
13.636160992
 20
12.1721463824
 10
13.6609341242
 20
12.1637390969
 10
13.6843924431
 20
12.1521721956
 10
13.7061364874
 20
12.1376443834
 10
13.7257974837
 20
12.1204026445
 10
13.7430392225
 20
12.1007416483
 10
13.7575670347
 20
12.078997604
 10
13.769133936
 20
12.055539285
 10
13.7775412215
 20
12.0307661528
 10
13.7826431189
 20
12.0051023335
 10
13.7843509047
 20
11.9789865266
  0
LWPOLYLINE
  5
5B1
100
AcDbEntity
  8
ASSI
100
AcDbPolyline
 62
7
  6
CONTINUOUS
 90
13
 70
0
 10
13.5843813657
 20
12.1789560656
 10
13.6104971727
 20
12.1772482798
 10
13.636160992
 20
12.1721463824
 10
13.6609341242
 20
12.1637390969
 10
13.6843924431
 20
12.1521721956
 10
13.7061364874
 20
12.1376443834
 10
13.7257974837
 20
12.1204026445
 10
13.7430392225
 20
12.1007416483
 10
13.7575670347
 20
12.078997604
 10
13.769133936
 20
12.055539285
 10
13.7775412215
 20
12.0307661528
 10
13.7826431189
 20
12.0051023335
 10
13.7843509047
 20
11.9789865266
  0
LINE
  5
5B2
100
AcDbEntity
  8
RACCORDO
100
AcDbLine
 62
250
  6
CONTINUOUS
 10
10.8131673654
 20
11.8401240877
 11
10.7632691768
 21
11.8509782432
  0
LINE
  5
5B3
100
AcDbEntity
  8
ASSI
100
AcDbLine
 62
250
  6
CONTINUOUS
 10
10.8131673654
 20
11.8401240877
 11
10.7632691768
 21
11.8509782432
  0
LINE
  5
5B4
100
AcDbEntity
  8
RACCORDO
100
AcDbLine
 62
250
  6
CONTINUOUS
 10
10.7632691768
 20
11.8509782432
 11
10.6662864033
 21
11.8727367019
  0
LINE
  5
5B5
100
AcDbEntity
  8
ASSI
100
AcDbLine
 62
250
  6
CONTINUOUS
 10
10.7632691768
 20
11.8509782432
 11
10.6662864033
 21
11.8727367019
  0
LINE
  5
5B6
100
AcDbEntity
  8
RACCORDO
100
AcDbLine
 62
250
  6
CONTINUOUS
 10
10.6662864033
 20
11.8727367019
 11
10.5734198819
 21
11.8942135921
  0
LINE
  5
5B7
100
AcDbEntity
  8
ASSI
100
AcDbLine
 62
250
  6
CONTINUOUS
 10
10.6662864033
 20
11.8727367019
 11
10.5734198819
 21
11.8942135921
  0
LINE
  5
5B8
100
AcDbEntity
  8
RACCORDO
100
AcDbLine
 62
250
  6
CONTINUOUS
 10
10.5734198819
 20
11.8942135921
 11
10.3993081239
 21
11.9355842019
  0
LINE
  5
5B9
100
AcDbEntity
  8
ASSI
100
AcDbLine
 62
250
  6
CONTINUOUS
 10
10.5734198819
 20
11.8942135921
 11
10.3993081239
 21
11.9355842019
  0
LINE
  5
5BA
100
AcDbEntity
  8
RACCORDO
100
AcDbLine
 62
7
  6
CONTINUOUS
 10
11.8983943644
 20
9.3718755393
 11
12.2843509047
 21
9.1789560656
  0
LINE
  5
5BB
100
AcDbEntity
  8
ASSI
100
AcDbLine
 62
7
  6
CONTINUOUS
 10
11.8983943644
 20
9.3718755393
 11
12.2843509047
 21
9.1789560656
  0
LINE
  5
5BC
100
AcDbEntity
  8
RACCORDO
100
AcDbLine
 62
250
  6
CONTINUOUS
 10
-10.3307339117
 20
15.7929995253
 11
9.8994299341
 21
15.7929995253
  0
LINE
  5
5BD
100
AcDbEntity
  8
ASSI
100
AcDbLine
 62
250
  6
CONTINUOUS
 10
-10.3307339117
 20
15.7929995253
 11
9.8994299341
 21
15.7929995253
  0
LWPOLYLINE
  5
5BE
100
AcDbEntity
  8
RACCORDO
100
AcDbPolyline
 62
250
  6
CONTINUOUS
 90
22
 70
0
 10
9.8996127104
 20
14.2939132847
 10
9.9371751832
 20
14.2924788143
 10
9.974158625
 20
14.2883254273
 10
10.0105630358
 20
14.2814531236
 10
10.0465987211
 20
14.2717933762
 10
10.0820553753
 20
14.2594147122
 10
10.1163020815
 20
14.2445227125
 10
10.1493049442
 20
14.2270755981
 10
10.1810978589
 20
14.2071151479
 10
10.2111515957
 20
14.1849722801
 10
10.2394373887
 20
14.1606097207
 10
10.2659840037
 20
14.1340647438
 10
10.2903485081
 20
14.1057800892
 10
10.312493718
 20
14.0757268239
 10
10.3324568173
 20
14.043933881
 10
10.3499064255
 20
14.0109307994
 10
10.3648005965
 20
13.9766844848
 10
10.3771812763
 20
13.9412280316
 10
10.3868429232
 20
13.9051902615
 10
10.393717023
 20
13.8687807816
 10
10.39787209
 20
13.8317899849
 10
10.3993081239
 20
13.7942178712
  0
LWPOLYLINE
  5
5BF
100
AcDbEntity
  8
ASSI
100
AcDbPolyline
 62
250
  6
CONTINUOUS
 90
22
 70
0
 10
9.8996127104
 20
14.2939132847
 10
9.9371751832
 20
14.2924788143
 10
9.974158625
 20
14.2883254273
 10
10.0105630358
 20
14.2814531236
 10
10.0465987211
 20
14.2717933762
 10
10.0820553753
 20
14.2594147122
 10
10.1163020815
 20
14.2445227125
 10
10.1493049442
 20
14.2270755981
 10
10.1810978589
 20
14.2071151479
 10
10.2111515957
 20
14.1849722801
 10
10.2394373887
 20
14.1606097207
 10
10.2659840037
 20
14.1340647438
 10
10.2903485081
 20
14.1057800892
 10
10.312493718
 20
14.0757268239
 10
10.3324568173
 20
14.043933881
 10
10.3499064255
 20
14.0109307994
 10
10.3648005965
 20
13.9766844848
 10
10.3771812763
 20
13.9412280316
 10
10.3868429232
 20
13.9051902615
 10
10.393717023
 20
13.8687807816
 10
10.39787209
 20
13.8317899849
 10
10.3993081239
 20
13.7942178712
  0
LWPOLYLINE
  5
5C0
100
AcDbEntity
  8
RACCORDO
100
AcDbPolyline
 62
250
  6
CONTINUOUS
 90
10
 70
0
 10
10.7668264294
 20
11.742446447
 10
10.827092102
 20
11.7135919874
 10
10.8908384851
 20
11.686011797
 10
10.9580655787
 20
11.6597058756
 10
11.0294422465
 20
11.6338397562
 10
11.1042996248
 20
11.6092479059
 10
11.180631122
 20
11.5884337261
 10
11.2577678745
 20
11.572231684
 10
11.336378746
 20
11.5598073124
 10
11.4164637365
 20
11.5511606113
  0
LWPOLYLINE
  5
5C1
100
AcDbEntity
  8
ASSI
100
AcDbPolyline
 62
250
  6
CONTINUOUS
 90
10
 70
0
 10
10.7668264294
 20
11.742446447
 10
10.827092102
 20
11.7135919874
 10
10.8908384851
 20
11.686011797
 10
10.9580655787
 20
11.6597058756
 10
11.0294422465
 20
11.6338397562
 10
11.1042996248
 20
11.6092479059
 10
11.180631122
 20
11.5884337261
 10
11.2577678745
 20
11.572231684
 10
11.336378746
 20
11.5598073124
 10
11.4164637365
 20
11.5511606113
  0
LINE
  5
5C2
100
AcDbEntity
  8
RACCORDO
100
AcDbLine
 62
7
  6
CONTINUOUS
 10
13.7843509047
 20
9.1789560656
 11
13.4152453905
 21
9.3634525933
  0
LINE
  5
5C3
100
AcDbEntity
  8
ASSI
100
AcDbLine
 62
7
  6
CONTINUOUS
 10
13.7843509047
 20
9.1789560656
 11
13.4152453905
 21
9.3634525933
  0
LWPOLYLINE
  5
5C4
100
AcDbEntity
  8
RACCORDO
100
AcDbPolyline
 62
250
  6
CONTINUOUS
 90
6
 70
0
 10
10.5509537604
 20
11.8524681235
 10
10.5914167181
 20
11.830804317
 10
10.6332087893
 20
11.8089542503
 10
10.676418889
 20
11.7869712428
 10
10.7209581024
 20
11.764801975
 10
10.7668264294
 20
11.742446447
  0
LWPOLYLINE
  5
5C5
100
AcDbEntity
  8
ASSI
100
AcDbPolyline
 62
250
  6
CONTINUOUS
 90
6
 70
0
 10
10.5509537604
 20
11.8524681235
 10
10.5914167181
 20
11.830804317
 10
10.6332087893
 20
11.8089542503
 10
10.676418889
 20
11.7869712428
 10
10.7209581024
 20
11.764801975
 10
10.7668264294
 20
11.742446447
  0
LWPOLYLINE
  5
5C6
100
AcDbEntity
  8
RACCORDO
100
AcDbPolyline
 62
250
  6
CONTINUOUS
 90
4
 70
0
 10
10.3994588819
 20
11.9355011994
 10
10.4357612758
 20
11.915275589
 10
10.4731260393
 20
11.8947037594
 10
10.5509537604
 20
11.8524681235
  0
LWPOLYLINE
  5
5C7
100
AcDbEntity
  8
ASSI
100
AcDbPolyline
 62
250
  6
CONTINUOUS
 90
4
 70
0
 10
10.3994588819
 20
11.9355011994
 10
10.4357612758
 20
11.915275589
 10
10.4731260393
 20
11.8947037594
 10
10.5509537604
 20
11.8524681235
  0
LINE
  5
5C8
100
AcDbEntity
  8
RACCORDO
100
AcDbLine
 62
7
  6
CONTINUOUS
 10
12.3735240523
 20
9.089782918
 11
12.2843509047
 21
9.1789560656
  0
LINE
  5
5C9
100
AcDbEntity
  8
ASSI
100
AcDbLine
 62
7
  6
CONTINUOUS
 10
12.3735240523
 20
9.089782918
 11
12.2843509047
 21
9.1789560656
  0
LINE
  5
5CA
100
AcDbEntity
  8
0
100
AcDbLine
 62
7
  6
CONTINUOUS
 10
9.503911226
 20
16.0916541419
 11
-9.9352094166
 21
16.0916541419
  0
LINE
  5
5CB
100
AcDbEntity
  8
ASSI
100
AcDbLine
 62
7
  6
CONTINUOUS
 10
9.503911226
 20
16.0916541419
 11
-9.9352094166
 21
16.0916541419
  0
LINE
  5
5CC
100
AcDbEntity
  8
RACCORDO
100
AcDbLine
 62
7
  6
CONTINUOUS
 10
-10.7168674412
 20
16.1789560656
 11
-10.2156490953
 21
16.1789560656
  0
LINE
  5
5CD
100
AcDbEntity
  8
ASSI
100
AcDbLine
 62
7
  6
CONTINUOUS
 10
-10.7168674412
 20
16.1789560656
 11
-10.2156490953
 21
16.1789560656
  0
LINE
  5
5CE
100
AcDbEntity
  8
RACCORDO
100
AcDbLine
 62
7
  6
CONTINUOUS
 10
9.7843509047
 20
16.1789560656
 11
10.2855692507
 21
16.1789560656
  0
LINE
  5
5CF
100
AcDbEntity
  8
ASSI
100
AcDbLine
 62
7
  6
CONTINUOUS
 10
9.7843509047
 20
16.1789560656
 11
10.2855692507
 21
16.1789560656
  0
LWPOLYLINE
  5
5D0
100
AcDbEntity
  8
RACCORDO
100
AcDbPolyline
 62
250
  6
CONTINUOUS
 90
22
 70
0
 10
9.8994301076
 20
15.7929996904
 10
10.0488129187
 20
15.7872888785
 10
10.1973369114
 20
15.7704360023
 10
10.3441728148
 20
15.7425401804
 10
10.4884949139
 20
15.7037643052
 10
10.629505269
 20
15.654328512
 10
10.7664364955
 20
15.594504026
 10
10.898530102
 20
15.5246216304
 10
11.0250423986
 20
15.4450742846
 10
11.1452670481
 20
15.3563059215
 10
11.2585326822
 20
15.258812287
 10
11.3642071302
 20
15.153137841
 10
11.4617007662
 20
15.0398722088
 10
11.5504691304
 20
14.919647561
 10
11.630016477
 20
14.793135266
 10
11.6998988728
 20
14.6610416619
 10
11.7597234372
 20
14.5241102404
 10
11.8091592786
 20
14.3830996805
 10
11.8479350271
 20
14.2387779927
 10
11.8758306554
 20
14.0919433574
 10
11.8926834791
 20
13.9434212916
 10
11.8983945245
 20
13.7940410501
  0
LWPOLYLINE
  5
5D1
100
AcDbEntity
  8
ASSI
100
AcDbPolyline
 62
250
  6
CONTINUOUS
 90
22
 70
0
 10
9.8994301076
 20
15.7929996904
 10
10.0488129187
 20
15.7872888785
 10
10.1973369114
 20
15.7704360023
 10
10.3441728148
 20
15.7425401804
 10
10.4884949139
 20
15.7037643052
 10
10.629505269
 20
15.654328512
 10
10.7664364955
 20
15.594504026
 10
10.898530102
 20
15.5246216304
 10
11.0250423986
 20
15.4450742846
 10
11.1452670481
 20
15.3563059215
 10
11.2585326822
 20
15.258812287
 10
11.3642071302
 20
15.153137841
 10
11.4617007662
 20
15.0398722088
 10
11.5504691304
 20
14.919647561
 10
11.630016477
 20
14.793135266
 10
11.6998988728
 20
14.6610416619
 10
11.7597234372
 20
14.5241102404
 10
11.8091592786
 20
14.3830996805
 10
11.8479350271
 20
14.2387779927
 10
11.8758306554
 20
14.0919433574
 10
11.8926834791
 20
13.9434212916
 10
11.8983945245
 20
13.7940410501
  0
LWPOLYLINE
  5
5D2
100
AcDbEntity
  8
0
100
AcDbPolyline
 62
7
  6
CONTINUOUS
 90
3
 70
0
 43
0.3500000006
 10
20.4338909454
 20
5.6789554596
 10
20.4338909454
 20
4.1789550018
 10
18.0767480164
 20
4.8218129883
  0
LWPOLYLINE
  5
5D3
100
AcDbEntity
  8
0
100
AcDbPolyline
 62
7
  6
CONTINUOUS
 90
7
 70
0
 43
0.3500000006
 10
21.0767489319
 20
3.3218125305
 10
21.0767489319
 20
1.8218143387
 10
18.9338904877
 20
3.3218125305
 10
18.505319252
 20
3.3218125305
 10
18.0767480164
 20
2.8932412949
 10
18.0767480164
 20
2.2503855743
 10
18.7196048698
 20
1.8218143387
  0
LWPOLYLINE
  5
5D4
100
AcDbEntity
  8
0
100
AcDbPolyline
 62
7
  6
CONTINUOUS
 90
7
 70
0
 43
0.3500000006
 10
31.0907509003
 20
-0.8154881973
 10
31.0907509003
 20
-2.3154875221
 10
28.947894722
 20
-0.8154881973
 10
28.5193234863
 20
-0.8154881973
 10
28.0907522507
 20
-1.244059433
 10
28.0907522507
 20
-1.8869162865
 10
28.7336079712
 20
-2.3154875221
  0
LWPOLYLINE
  5
5D5
100
AcDbEntity
  8
0
100
AcDbPolyline
 62
7
  6
CONTINUOUS
 90
6
 70
0
 43
0.3500000006
 10
31.0907509003
 20
-4.4583448334
 10
31.0907509003
 20
-3.3869167442
 10
30.8764664154
 20
-3.1726311264
 10
29.8050371933
 20
-3.1726311264
 10
29.3764659576
 20
-3.6012023621
 10
29.3764659576
 20
-4.0297735977
  0
LWPOLYLINE
  5
5D6
100
AcDbEntity
  8
0
100
AcDbPolyline
 62
7
  6
CONTINUOUS
 90
7
 70
0
 43
0.3500000006
 10
-1.0727919667
 20
24.9318118744
 10
-2.5727920704
 20
24.9318118744
 10
-1.0727919667
 20
27.0746657867
 10
-1.0727919667
 20
27.5032392883
 10
-1.5013634148
 20
27.9318082581
 10
-2.1442205515
 20
27.9318082581
 10
-2.5727920704
 20
27.2889548035
  0
LWPOLYLINE
  5
5D7
100
AcDbEntity
  8
0
100
AcDbPolyline
 62
7
  6
CONTINUOUS
 90
13
 70
0
 43
0.3500000006
 10
0.2129223245
 20
26.646096817
 10
-0.0727919536
 20
26.8603813019
 10
-0.0727919536
 20
27.5032392883
 10
0.2129223245
 20
27.9318082581
 10
0.8557794435
 20
27.9318082581
 10
1.1414937658
 20
27.5032392883
 10
1.1414937658
 20
26.8603813019
 10
0.8557794435
 20
26.646096817
 10
1.2843508916
 20
26.2175233154
 10
1.2843508916
 20
25.3603808441
 10
0.8557794435
 20
24.9318118744
 10
0.2129223245
 20
24.9318118744
 10
-0.2156490882
 20
25.3603808441
  0
LWPOLYLINE
  5
5D8
100
AcDbEntity
  8
0
100
AcDbPolyline
 62
7
  6
CONTINUOUS
 90
5
 70
0
 43
0.3500000006
 10
29.3764659576
 20
-3.6012023621
 10
29.1621792068
 20
-3.2440589104
 10
28.5193234863
 20
-3.2440589104
 10
28.0907522507
 20
-3.6012023621
 10
28.0907522507
 20
-4.4583448334
  0
LWPOLYLINE
  5
5D9
100
AcDbEntity
  8
RACCORDO
100
AcDbPolyline
 62
250
  6
CONTINUOUS
 90
6
 70
0
 10
-60.3565681876
 20
11.6473325091
 10
-60.3426449941
 20
11.6687859314
 10
-60.3260989373
 20
11.6882855027
 10
-60.3072005457
 20
11.7055123473
 10
-60.2862591018
 20
11.7201844889
 10
-60.2636172045
 20
11.7320618957
  0
LWPOLYLINE
  5
5DA
100
AcDbEntity
  8
ASSI
100
AcDbPolyline
 62
250
  6
CONTINUOUS
 90
6
 70
0
 10
-60.3565681876
 20
11.6473325091
 10
-60.3426449941
 20
11.6687859314
 10
-60.3260989373
 20
11.6882855027
 10
-60.3072005457
 20
11.7055123473
 10
-60.2862591018
 20
11.7201844889
 10
-60.2636172045
 20
11.7320618957
  0
LWPOLYLINE
  5
5DB
100
AcDbEntity
  8
RACCORDO
100
AcDbPolyline
 62
250
  6
CONTINUOUS
 90
12
 70
0
 10
-58.9357555079
 20
15.7929996904
 10
-58.9395063902
 20
15.7872888785
 10
-58.9429550705
 20
15.7704360023
 10
-58.9460760513
 20
15.7425401804
 10
-58.9488420382
 20
15.7037643052
 10
-58.9512370019
 20
15.654328512
 10
-58.9532560606
 20
15.594504026
 10
-58.9548858957
 20
15.5246216304
 10
-58.956112642
 20
15.4450742846
 10
-58.9569347291
 20
15.3563059215
 10
-58.9573485529
 20
15.258812287
 10
-58.9569346422
 20
15.0398722088
  0
LWPOLYLINE
  5
5DC
100
AcDbEntity
  8
ASSI
100
AcDbPolyline
 62
250
  6
CONTINUOUS
 90
12
 70
0
 10
-58.9357555079
 20
15.7929996904
 10
-58.9395063902
 20
15.7872888785
 10
-58.9429550705
 20
15.7704360023
 10
-58.9460760513
 20
15.7425401804
 10
-58.9488420382
 20
15.7037643052
 10
-58.9512370019
 20
15.654328512
 10
-58.9532560606
 20
15.594504026
 10
-58.9548858957
 20
15.5246216304
 10
-58.956112642
 20
15.4450742846
 10
-58.9569347291
 20
15.3563059215
 10
-58.9573485529
 20
15.258812287
 10
-58.9569346422
 20
15.0398722088
  0
LINE
  5
5DD
100
AcDbEntity
  8
RACCORDO
100
AcDbLine
 62
7
  6
CONTINUOUS
 10
-38.3659614815
 20
-16.4886872656
 11
-39.3834112298
 21
-16.5242173937
  0
LINE
  5
5DE
100
AcDbEntity
  8
ASSI
100
AcDbLine
 62
7
  6
CONTINUOUS
 10
-38.3659614815
 20
-16.4886872656
 11
-39.3834112298
 21
-16.5242173937
  0
LWPOLYLINE
  5
5DF
100
AcDbEntity
  8
RACCORDO
100
AcDbPolyline
 62
250
  6
CONTINUOUS
 90
4
 70
0
 10
-60.3601909543
 20
11.6445317572
 10
-60.3729771548
 20
11.6148043845
 10
-60.3807858189
 20
11.583405856
 10
-60.3834119124
 20
11.5511606113
  0
LWPOLYLINE
  5
5E0
100
AcDbEntity
  8
ASSI
100
AcDbPolyline
 62
250
  6
CONTINUOUS
 90
4
 70
0
 10
-60.3601909543
 20
11.6445317572
 10
-60.3729771548
 20
11.6148043845
 10
-60.3807858189
 20
11.583405856
 10
-60.3834119124
 20
11.5511606113
  0
LWPOLYLINE
  5
5E1
100
AcDbEntity
  8
RACCORDO
100
AcDbPolyline
 62
250
  6
CONTINUOUS
 90
6
 70
0
 10
-60.2373411889
 20
11.7434140224
 10
-60.2677386414
 20
11.7321947783
 10
-60.2959218327
 20
11.716222028
 10
-60.321150749
 20
11.6959151725
 10
-60.3427629485
 20
11.6718074145
 10
-60.3601909543
 20
11.6445317572
  0
LWPOLYLINE
  5
5E2
100
AcDbEntity
  8
ASSI
100
AcDbPolyline
 62
250
  6
CONTINUOUS
 90
6
 70
0
 10
-60.2373411889
 20
11.7434140224
 10
-60.2677386414
 20
11.7321947783
 10
-60.2959218327
 20
11.716222028
 10
-60.321150749
 20
11.6959151725
 10
-60.3427629485
 20
11.6718074145
 10
-60.3601909543
 20
11.6445317572
  0
LINE
  5
5E3
100
AcDbEntity
  8
RACCORDO
100
AcDbLine
 62
250
  6
CONTINUOUS
 10
-38.3659614815
 20
-14.4899056116
 11
-39.3834112298
 21
-14.5254357397
  0
LINE
  5
5E4
100
AcDbEntity
  8
ASSI
100
AcDbLine
 62
250
  6
CONTINUOUS
 10
-38.3659614815
 20
-14.4899056116
 11
-39.3834112298
 21
-14.5254357397
  0
LWPOLYLINE
  5
5E5
100
AcDbEntity
  8
RACCORDO
100
AcDbPolyline
 62
250
  6
CONTINUOUS
 90
13
 70
0
 10
-58.4532102232
 20
11.8098505514
 10
-58.4540598507
 20
11.8081114613
 10
-58.45477572
 20
11.8029874048
 10
-58.4553456014
 20
11.79456592
 10
-58.4557597592
 20
11.7829908779
 10
-58.4560111178
 20
11.768460024
 10
-58.4560953835
 20
11.7512216004
 10
-58.4560111162
 20
11.7315701046
 10
-58.4557597558
 20
11.7098412587
 10
-58.4553455973
 20
11.6864062738
 10
-58.4547757164
 20
11.6616655081
 10
-58.4540598484
 20
11.6360416278
 10
-58.4532102232
 20
11.609972386
  0
LWPOLYLINE
  5
5E6
100
AcDbEntity
  8
ASSI
100
AcDbPolyline
 62
250
  6
CONTINUOUS
 90
13
 70
0
 10
-58.4532102232
 20
11.8098505514
 10
-58.4540598507
 20
11.8081114613
 10
-58.45477572
 20
11.8029874048
 10
-58.4553456014
 20
11.79456592
 10
-58.4557597592
 20
11.7829908779
 10
-58.4560111178
 20
11.768460024
 10
-58.4560953835
 20
11.7512216004
 10
-58.4560111162
 20
11.7315701046
 10
-58.4557597558
 20
11.7098412587
 10
-58.4553455973
 20
11.6864062738
 10
-58.4547757164
 20
11.6616655081
 10
-58.4540598484
 20
11.6360416278
 10
-58.4532102232
 20
11.609972386
  0
LINE
  5
5E7
100
AcDbEntity
  8
RACCORDO
100
AcDbLine
 62
250
  6
CONTINUOUS
 10
-38.3659614815
 20
-14.4899056116
 11
-37.8834112298
 21
-14.4899056116
  0
LINE
  5
5E8
100
AcDbEntity
  8
ASSI
100
AcDbLine
 62
250
  6
CONTINUOUS
 10
-38.3659614815
 20
-14.4899056116
 11
-37.8834112298
 21
-14.4899056116
  0
LWPOLYLINE
  5
5E9
100
AcDbEntity
  8
RACCORDO
100
AcDbPolyline
 62
250
  6
CONTINUOUS
 90
5
 70
0
 10
-60.3821933658
 20
11.5493492058
 10
-60.3805594867
 20
11.5748798985
 10
-60.3756820122
 20
11.5999923312
 10
-60.3676409595
 20
11.624275666
 10
-60.3565681876
 20
11.6473325091
  0
LWPOLYLINE
  5
5EA
100
AcDbEntity
  8
ASSI
100
AcDbPolyline
 62
250
  6
CONTINUOUS
 90
5
 70
0
 10
-60.3821933658
 20
11.5493492058
 10
-60.3805594867
 20
11.5748798985
 10
-60.3756820122
 20
11.5999923312
 10
-60.3676409595
 20
11.624275666
 10
-60.3565681876
 20
11.6473325091
  0
LWPOLYLINE
  5
5EB
100
AcDbEntity
  8
RACCORDO
100
AcDbPolyline
 62
250
  6
CONTINUOUS
 90
7
 70
0
 10
-60.3834112298
 20
11.5511606113
 10
-60.3833775737
 20
11.5505958524
 10
-60.3832764628
 20
11.5501364082
 10
-60.3831076848
 20
11.5497822786
 10
-60.3828710294
 20
11.5495334638
 10
-60.3825662887
 20
11.5493899637
 10
-60.3821932566
 20
11.5493517783
  0
LWPOLYLINE
  5
5EC
100
AcDbEntity
  8
ASSI
100
AcDbPolyline
 62
250
  6
CONTINUOUS
 90
7
 70
0
 10
-60.3834112298
 20
11.5511606113
 10
-60.3833775737
 20
11.5505958524
 10
-60.3832764628
 20
11.5501364082
 10
-60.3831076848
 20
11.5497822786
 10
-60.3828710294
 20
11.5495334638
 10
-60.3825662887
 20
11.5493899637
 10
-60.3821932566
 20
11.5493517783
  0
LINE
  5
5ED
100
AcDbEntity
  8
CURVE
100
AcDbLine
 62
250
  6
CONTINUOUS
 10
-60.3834112298
 20
14.1789560656
 11
-60.3834112298
 21
13.7942178712
  0
LINE
  5
5EE
100
AcDbEntity
  8
CURVE
100
AcDbLine
 62
250
  6
CONTINUOUS
 10
-60.3834112298
 20
-5.43630574
 11
-60.3834112298
 21
-5.8210439344
  0
LINE
  5
5EF
100
AcDbEntity
  8
RACCORDO
100
AcDbLine
 62
7
  6
CONTINUOUS
 10
-60.3834112298
 20
-5.9345651196
 11
-60.3834112298
 21
14.2939132847
  0
LINE
  5
5F0
100
AcDbEntity
  8
ASSI
100
AcDbLine
 62
7
  6
CONTINUOUS
 10
-60.3834112298
 20
-5.9345651196
 11
-60.3834112298
 21
14.2939132847
  0
LWPOLYLINE
  5
5F1
100
AcDbEntity
  8
RACCORDO
100
AcDbPolyline
 62
250
  6
CONTINUOUS
 90
13
 70
0
 10
-60.3834112298
 20
-3.5776720707
 10
-60.3832390737
 20
-3.570433573
 10
-60.3827054384
 20
-3.5630303049
 10
-60.3817852348
 20
-3.5554743997
 10
-60.3804549798
 20
-3.547794669
 10
-60.3786894062
 20
-3.5399959375
 10
-60.3764579537
 20
-3.5320569942
 10
-60.3737353782
 20
-3.5239951637
 10
-60.3704951903
 20
-3.5158301524
 10
-60.3666977605
 20
-3.5075479035
 10
-60.3623093161
 20
-3.4991608424
 10
-60.3573082651
 20
-3.4907058436
 10
-60.3516708647
 20
-3.4822112985
  0
LWPOLYLINE
  5
5F2
100
AcDbEntity
  8
ASSI
100
AcDbPolyline
 62
250
  6
CONTINUOUS
 90
13
 70
0
 10
-60.3834112298
 20
-3.5776720707
 10
-60.3832390737
 20
-3.570433573
 10
-60.3827054384
 20
-3.5630303049
 10
-60.3817852348
 20
-3.5554743997
 10
-60.3804549798
 20
-3.547794669
 10
-60.3786894062
 20
-3.5399959375
 10
-60.3764579537
 20
-3.5320569942
 10
-60.3737353782
 20
-3.5239951637
 10
-60.3704951903
 20
-3.5158301524
 10
-60.3666977605
 20
-3.5075479035
 10
-60.3623093161
 20
-3.4991608424
 10
-60.3573082651
 20
-3.4907058436
 10
-60.3516708647
 20
-3.4822112985
  0
LWPOLYLINE
  5
5F3
100
AcDbEntity
  8
RACCORDO
100
AcDbPolyline
 62
250
  6
CONTINUOUS
 90
5
 70
0
 10
-60.356567911
 20
-3.2894202201
 10
-60.3676407125
 20
-3.2663634115
 10
-60.3756818095
 20
-3.2420800758
 10
-60.3805593293
 20
-3.2169676118
 10
-60.3821932445
 20
-3.1914368575
  0
LWPOLYLINE
  5
5F4
100
AcDbEntity
  8
ASSI
100
AcDbPolyline
 62
250
  6
CONTINUOUS
 90
5
 70
0
 10
-60.356567911
 20
-3.2894202201
 10
-60.3676407125
 20
-3.2663634115
 10
-60.3756818095
 20
-3.2420800758
 10
-60.3805593293
 20
-3.2169676118
 10
-60.3821932445
 20
-3.1914368575
  0
LWPOLYLINE
  5
5F5
100
AcDbEntity
  8
RACCORDO
100
AcDbPolyline
 62
250
  6
CONTINUOUS
 90
4
 70
0
 10
-60.3601850855
 20
-3.2866305584
 10
-60.3729721714
 20
-3.2568999443
 10
-60.38078257
 20
-3.2254977006
 10
-60.3834112288
 20
-3.193248252
  0
LWPOLYLINE
  5
5F6
100
AcDbEntity
  8
ASSI
100
AcDbPolyline
 62
250
  6
CONTINUOUS
 90
4
 70
0
 10
-60.3601850855
 20
-3.2866305584
 10
-60.3729721714
 20
-3.2568999443
 10
-60.38078257
 20
-3.2254977006
 10
-60.3834112288
 20
-3.193248252
  0
LWPOLYLINE
  5
5F7
100
AcDbEntity
  8
RACCORDO
100
AcDbPolyline
 62
250
  6
CONTINUOUS
 90
13
 70
0
 10
-58.9357604749
 20
11.9928776907
 10
-58.9349108829
 20
11.9668097235
 10
-58.9341950318
 20
11.9411868865
 10
-58.9336251527
 20
11.9164468907
 10
-58.9332109846
 20
11.8930124177
 10
-58.9329596041
 20
11.8712837799
 10
-58.9328753079
 20
11.8516321115
 10
-58.9329595418
 20
11.8343931929
 10
-58.933210873
 20
11.8198616359
 10
-58.9336250146
 20
11.8082857733
 10
-58.9341948983
 20
11.799863497
 10
-58.9349107936
 20
11.7947388484
 10
-58.9357604749
 20
11.7929995253
  0
LWPOLYLINE
  5
5F8
100
AcDbEntity
  8
ASSI
100
AcDbPolyline
 62
250
  6
CONTINUOUS
 90
13
 70
0
 10
-58.9357604749
 20
11.9928776907
 10
-58.9349108829
 20
11.9668097235
 10
-58.9341950318
 20
11.9411868865
 10
-58.9336251527
 20
11.9164468907
 10
-58.9332109846
 20
11.8930124177
 10
-58.9329596041
 20
11.8712837799
 10
-58.9328753079
 20
11.8516321115
 10
-58.9329595418
 20
11.8343931929
 10
-58.933210873
 20
11.8198616359
 10
-58.9336250146
 20
11.8082857733
 10
-58.9341948983
 20
11.799863497
 10
-58.9349107936
 20
11.7947388484
 10
-58.9357604749
 20
11.7929995253
  0
LINE
  5
5F9
100
AcDbEntity
  8
RACCORDO
100
AcDbLine
 62
250
  6
CONTINUOUS
 10
-58.9460757839
 20
14.2387779927
 11
-58.9357556653
 21
13.7940410501
  0
LINE
  5
5FA
100
AcDbEntity
  8
ASSI
100
AcDbLine
 62
250
  6
CONTINUOUS
 10
-58.9460757839
 20
14.2387779927
 11
-58.9357556653
 21
13.7940410501
  0
LINE
  5
5FB
100
AcDbEntity
  8
RACCORDO
100
AcDbLine
 62
250
  6
CONTINUOUS
 10
-58.9512367608
 20
14.5241102404
 11
-58.9460757839
 21
14.2387779927
  0
LINE
  5
5FC
100
AcDbEntity
  8
ASSI
100
AcDbLine
 62
250
  6
CONTINUOUS
 10
-58.9512367608
 20
14.5241102404
 11
-58.9460757839
 21
14.2387779927
  0
LINE
  5
5FD
100
AcDbEntity
  8
RACCORDO
100
AcDbLine
 62
250
  6
CONTINUOUS
 10
-58.9548857275
 20
14.793135266
 11
-58.9512367608
 21
14.5241102404
  0
LINE
  5
5FE
100
AcDbEntity
  8
ASSI
100
AcDbLine
 62
250
  6
CONTINUOUS
 10
-58.9548857275
 20
14.793135266
 11
-58.9512367608
 21
14.5241102404
  0
LWPOLYLINE
  5
5FF
100
AcDbEntity
  8
RACCORDO
100
AcDbPolyline
 62
250
  6
CONTINUOUS
 90
10
 70
0
 10
-58.9569346422
 20
-6.9983937959
 10
-58.956112511
 20
-7.08716216
 10
-58.9548857275
 20
-7.1667095066
 10
-58.9532558603
 20
-7.2365919025
 10
-58.9512367608
 20
-7.2964164669
 10
-58.9488417601
 20
-7.3458523083
 10
-58.9460757839
 20
-7.3846280567
 10
-58.9429548829
 20
-7.4125236851
 10
-58.9395063427
 20
-7.4293765087
 10
-58.9357556653
 20
-7.4350875542
  0
LWPOLYLINE
  5
600
100
AcDbEntity
  8
ASSI
100
AcDbPolyline
 62
250
  6
CONTINUOUS
 90
10
 70
0
 10
-58.9569346422
 20
-6.9983937959
 10
-58.956112511
 20
-7.08716216
 10
-58.9548857275
 20
-7.1667095066
 10
-58.9532558603
 20
-7.2365919025
 10
-58.9512367608
 20
-7.2964164669
 10
-58.9488417601
 20
-7.3458523083
 10
-58.9460757839
 20
-7.3846280567
 10
-58.9429548829
 20
-7.4125236851
 10
-58.9395063427
 20
-7.4293765087
 10
-58.9357556653
 20
-7.4350875542
  0
LINE
  5
601
100
AcDbEntity
  8
RACCORDO
100
AcDbLine
 62
250
  6
CONTINUOUS
 10
-58.9569346422
 20
15.0398722088
 11
-58.9548857275
 21
14.793135266
  0
LINE
  5
602
100
AcDbEntity
  8
ASSI
100
AcDbLine
 62
250
  6
CONTINUOUS
 10
-58.9569346422
 20
15.0398722088
 11
-58.9548857275
 21
14.793135266
  0
LINE
  5
603
100
AcDbEntity
  8
RACCORDO
100
AcDbLine
 62
250
  6
CONTINUOUS
 10
-58.9573485529
 20
-6.7952257119
 11
-58.9569346422
 21
-6.9983937959
  0
LINE
  5
604
100
AcDbEntity
  8
ASSI
100
AcDbLine
 62
250
  6
CONTINUOUS
 10
-58.9573485529
 20
-6.7952257119
 11
-58.9569346422
 21
-6.9983937959
  0
LINE
  5
605
100
AcDbEntity
  8
RACCORDO
100
AcDbLine
 62
250
  6
CONTINUOUS
 10
-58.9357604749
 20
9.3718755393
 11
-58.9357604749
 21
-1.0139634081
  0
LINE
  5
606
100
AcDbEntity
  8
ASSI
100
AcDbLine
 62
250
  6
CONTINUOUS
 10
-58.9357604749
 20
9.3718755393
 11
-58.9357604749
 21
-1.0139634081
  0
LINE
  5
607
100
AcDbEntity
  8
RACCORDO
100
AcDbLine
 62
250
  6
CONTINUOUS
 10
-58.9357604749
 20
13.7940408821
 11
-58.9355562844
 21
11.9928848212
  0
LINE
  5
608
100
AcDbEntity
  8
ASSI
100
AcDbLine
 62
250
  6
CONTINUOUS
 10
-58.9357604749
 20
13.7940408821
 11
-58.9355562844
 21
11.9928848212
  0
LINE
  5
609
100
AcDbEntity
  8
RACCORDO
100
AcDbLine
 62
250
  6
CONTINUOUS
 10
-58.4532102232
 20
-3.2520602548
 11
-58.4532102232
 21
-1.0055404621
  0
LINE
  5
60A
100
AcDbEntity
  8
ASSI
100
AcDbLine
 62
250
  6
CONTINUOUS
 10
-58.4532102232
 20
-3.2520602548
 11
-58.4532102232
 21
-1.0055404621
  0
LINE
  5
60B
100
AcDbEntity
  8
RACCORDO
100
AcDbLine
 62
250
  6
CONTINUOUS
 10
-58.4532102232
 20
9.3634525933
 11
-58.4532102232
 21
11.609972386
  0
LINE
  5
60C
100
AcDbEntity
  8
ASSI
100
AcDbLine
 62
250
  6
CONTINUOUS
 10
-58.4532102232
 20
9.3634525933
 11
-58.4532102232
 21
11.609972386
  0
LINE
  5
60D
100
AcDbEntity
  8
RACCORDO
100
AcDbLine
 62
250
  6
CONTINUOUS
 10
-58.935554322
 20
-3.6349727585
 11
-58.9357604749
 21
-5.4361229637
  0
LINE
  5
60E
100
AcDbEntity
  8
ASSI
100
AcDbLine
 62
250
  6
CONTINUOUS
 10
-58.935554322
 20
-3.6349727585
 11
-58.9357604749
 21
-5.4361229637
  0
LINE
  5
60F
100
AcDbEntity
  8
RACCORDO
100
AcDbLine
 62
250
  6
CONTINUOUS
 10
-58.956112642
 20
-6.5617354283
 11
-58.9573485529
 21
-6.7952257119
  0
LINE
  5
610
100
AcDbEntity
  8
ASSI
100
AcDbLine
 62
250
  6
CONTINUOUS
 10
-58.956112642
 20
-6.5617354283
 11
-58.9573485529
 21
-6.7952257119
  0
LINE
  5
611
100
AcDbEntity
  8
RACCORDO
100
AcDbLine
 62
250
  6
CONTINUOUS
 10
-58.9532560606
 20
-6.3031295252
 11
-58.956112642
 21
-6.5617354283
  0
LINE
  5
612
100
AcDbEntity
  8
ASSI
100
AcDbLine
 62
250
  6
CONTINUOUS
 10
-58.9532560606
 20
-6.3031295252
 11
-58.956112642
 21
-6.5617354283
  0
LINE
  5
613
100
AcDbEntity
  8
RACCORDO
100
AcDbLine
 62
250
  6
CONTINUOUS
 10
-58.9488420382
 20
-6.0251879436
 11
-58.9532560606
 21
-6.3031295252
  0
LINE
  5
614
100
AcDbEntity
  8
ASSI
100
AcDbLine
 62
250
  6
CONTINUOUS
 10
-58.9488420382
 20
-6.0251879436
 11
-58.9532560606
 21
-6.3031295252
  0
LWPOLYLINE
  5
615
100
AcDbEntity
  8
RACCORDO
100
AcDbPolyline
 62
250
  6
CONTINUOUS
 90
3
 70
0
 10
-58.9357555079
 20
-5.4361231372
 10
-58.9395063902
 20
-5.5855059483
 10
-58.9488420382
 20
-6.0251879436
  0
LWPOLYLINE
  5
616
100
AcDbEntity
  8
ASSI
100
AcDbPolyline
 62
250
  6
CONTINUOUS
 90
3
 70
0
 10
-58.9357555079
 20
-5.4361231372
 10
-58.9395063902
 20
-5.5855059483
 10
-58.9488420382
 20
-6.0251879436
  0
LWPOLYLINE
  5
617
100
AcDbEntity
  8
RACCORDO
100
AcDbPolyline
 62
250
  6
CONTINUOUS
 90
13
 70
0
 10
-58.9357604749
 20
-3.6349655595
 10
-58.9349108432
 20
-3.6088963176
 10
-58.9341949708
 20
-3.5832724373
 10
-58.9336250877
 20
-3.5585316717
 10
-58.9332109299
 20
-3.5350966867
 10
-58.9329595725
 20
-3.5133678407
 10
-58.932875308
 20
-3.4937163449
 10
-58.9329595757
 20
-3.4764779214
 10
-58.9332109363
 20
-3.4619470676
 10
-58.9336250954
 20
-3.4503720255
 10
-58.9341949777
 20
-3.4419505407
 10
-58.9349108473
 20
-3.4368264842
 10
-58.9357604746
 20
-3.4350873941
  0
LWPOLYLINE
  5
618
100
AcDbEntity
  8
ASSI
100
AcDbPolyline
 62
250
  6
CONTINUOUS
 90
13
 70
0
 10
-58.9357604749
 20
-3.6349655595
 10
-58.9349108432
 20
-3.6088963176
 10
-58.9341949708
 20
-3.5832724373
 10
-58.9336250877
 20
-3.5585316717
 10
-58.9332109299
 20
-3.5350966867
 10
-58.9329595725
 20
-3.5133678407
 10
-58.932875308
 20
-3.4937163449
 10
-58.9329595757
 20
-3.4764779214
 10
-58.9332109363
 20
-3.4619470676
 10
-58.9336250954
 20
-3.4503720255
 10
-58.9341949777
 20
-3.4419505407
 10
-58.9349108473
 20
-3.4368264842
 10
-58.9357604746
 20
-3.4350873941
  0
LWPOLYLINE
  5
619
100
AcDbEntity
  8
RACCORDO
100
AcDbPolyline
 62
250
  6
CONTINUOUS
 90
13
 70
0
 10
-58.4532102232
 20
-3.4519384202
 10
-58.4540598078
 20
-3.4501995238
 10
-58.4547756574
 20
-3.4450759592
 10
-58.4553455388
 20
-3.4366551322
 10
-58.4557597119
 20
-3.4250807717
 10
-58.4560110955
 20
-3.4105505018
 10
-58.4560953892
 20
-3.3933124892
 10
-58.4560111479
 20
-3.3736611366
 10
-58.4557598059
 20
-3.3519321177
 10
-58.4553456548
 20
-3.3284967073
 10
-58.4547757685
 20
-3.3037553021
 10
-58.4540598805
 20
-3.2781305554
 10
-58.4532102193
 20
-3.2520602549
  0
LWPOLYLINE
  5
61A
100
AcDbEntity
  8
ASSI
100
AcDbPolyline
 62
250
  6
CONTINUOUS
 90
13
 70
0
 10
-58.4532102232
 20
-3.4519384202
 10
-58.4540598078
 20
-3.4501995238
 10
-58.4547756574
 20
-3.4450759592
 10
-58.4553455388
 20
-3.4366551322
 10
-58.4557597119
 20
-3.4250807717
 10
-58.4560110955
 20
-3.4105505018
 10
-58.4560953892
 20
-3.3933124892
 10
-58.4560111479
 20
-3.3736611366
 10
-58.4557598059
 20
-3.3519321177
 10
-58.4553456548
 20
-3.3284967073
 10
-58.4547757685
 20
-3.3037553021
 10
-58.4540598805
 20
-3.2781305554
 10
-58.4532102193
 20
-3.2520602549
  0
LWPOLYLINE
  5
61B
100
AcDbEntity
  8
RACCORDO
100
AcDbPolyline
 62
250
  6
CONTINUOUS
 90
6
 70
0
 10
-60.263616969
 20
-3.3741493812
 10
-60.2862588446
 20
-3.3622720068
 10
-60.3072002723
 20
-3.3475999044
 10
-60.3260986559
 20
-3.3303731038
 10
-60.3426447093
 20
-3.3108735861
 10
-60.356567911
 20
-3.2894202201
  0
LWPOLYLINE
  5
61C
100
AcDbEntity
  8
ASSI
100
AcDbPolyline
 62
250
  6
CONTINUOUS
 90
6
 70
0
 10
-60.263616969
 20
-3.3741493812
 10
-60.2862588446
 20
-3.3622720068
 10
-60.3072002723
 20
-3.3475999044
 10
-60.3260986559
 20
-3.3303731038
 10
-60.3426447093
 20
-3.3108735861
 10
-60.356567911
 20
-3.2894202201
  0
LWPOLYLINE
  5
61D
100
AcDbEntity
  8
0
100
AcDbPolyline
 62
7
  6
CONTINUOUS
 90
3
 70
0
 43
0.3500000006
 10
-47.990552124
 20
25.2955389862
 10
-48.0619833069
 20
25.0812545013
 10
-48.2048411407
 20
24.7955388336
  0
LWPOLYLINE
  5
61E
100
AcDbEntity
  8
RACCORDO
100
AcDbPolyline
 62
250
  6
CONTINUOUS
 90
3
 70
0
 10
-60.3516717329
 20
-3.4822118025
 10
-60.3409276962
 20
-3.4682352749
 10
-60.3285092578
 20
-3.4545703498
  0
LWPOLYLINE
  5
61F
100
AcDbEntity
  8
ASSI
100
AcDbPolyline
 62
250
  6
CONTINUOUS
 90
3
 70
0
 10
-60.3516717329
 20
-3.4822118025
 10
-60.3409276962
 20
-3.4682352749
 10
-60.3285092578
 20
-3.4545703498
  0
LINE
  5
620
100
AcDbEntity
  8
RACCORDO
100
AcDbLine
 62
7
  6
CONTINUOUS
 10
-47.8834112298
 20
-7.8210439344
 11
-39.3310619848
 21
-7.5223893178
  0
LINE
  5
621
100
AcDbEntity
  8
ASSI
100
AcDbLine
 62
7
  6
CONTINUOUS
 10
-47.8834112298
 20
-7.8210439344
 11
-39.3310619848
 21
-7.5223893178
  0
LINE
  5
622
100
AcDbEntity
  8
RACCORDO
100
AcDbLine
 62
7
  6
CONTINUOUS
 10
-58.9357604749
 20
-7.4350873941
 11
-47.8834112298
 21
-7.8210439344
  0
LINE
  5
623
100
AcDbEntity
  8
ASSI
100
AcDbLine
 62
7
  6
CONTINUOUS
 10
-58.9357604749
 20
-7.4350873941
 11
-47.8834112298
 21
-7.8210439344
  0
LWPOLYLINE
  5
624
100
AcDbEntity
  8
RACCORDO
100
AcDbPolyline
 62
250
  6
CONTINUOUS
 90
6
 70
0
 10
-60.2373416171
 20
-3.3855227371
 10
-60.2677367387
 20
-3.3743022733
 10
-60.2959179983
 20
-3.3583279416
 10
-60.3211455316
 20
-3.3380191255
 10
-60.3427570215
 20
-3.3139090051
 10
-60.3601850855
 20
-3.2866305584
  0
LWPOLYLINE
  5
625
100
AcDbEntity
  8
ASSI
100
AcDbPolyline
 62
250
  6
CONTINUOUS
 90
6
 70
0
 10
-60.2373416171
 20
-3.3855227371
 10
-60.2677367387
 20
-3.3743022733
 10
-60.2959179983
 20
-3.3583279416
 10
-60.3211455316
 20
-3.3380191255
 10
-60.3427570215
 20
-3.3139090051
 10
-60.3601850855
 20
-3.2866305584
  0
LWPOLYLINE
  5
626
100
AcDbEntity
  8
RACCORDO
100
AcDbPolyline
 62
250
  6
CONTINUOUS
 90
8
 70
0
 10
-60.3285092578
 20
-3.4545703498
 10
-60.3144290015
 20
-3.4414261916
 10
-60.2985466225
 20
-3.4289042797
 10
-60.2810897349
 20
-3.4174706303
 10
-60.2627774008
 20
-3.4077867949
 10
-60.2440385157
 20
-3.4001498656
 10
-60.2248885877
 20
-3.3946867884
 10
-60.2055306196
 20
-3.3916947564
  0
LWPOLYLINE
  5
627
100
AcDbEntity
  8
ASSI
100
AcDbPolyline
 62
250
  6
CONTINUOUS
 90
8
 70
0
 10
-60.3285092578
 20
-3.4545703498
 10
-60.3144290015
 20
-3.4414261916
 10
-60.2985466225
 20
-3.4289042797
 10
-60.2810897349
 20
-3.4174706303
 10
-60.2627774008
 20
-3.4077867949
 10
-60.2440385157
 20
-3.4001498656
 10
-60.2248885877
 20
-3.3946867884
 10
-60.2055306196
 20
-3.3916947564
  0
LINE
  5
628
100
AcDbEntity
  8
RACCORDO
100
AcDbLine
 62
250
  6
CONTINUOUS
 10
-47.8834112298
 20
-5.8222622804
 11
-39.3310619848
 21
-5.523424886
  0
LINE
  5
629
100
AcDbEntity
  8
ASSI
100
AcDbLine
 62
250
  6
CONTINUOUS
 10
-47.8834112298
 20
-5.8222622804
 11
-39.3310619848
 21
-5.523424886
  0
LINE
  5
62A
100
AcDbEntity
  8
RACCORDO
100
AcDbLine
 62
250
  6
CONTINUOUS
 10
-39.3310619848
 20
-5.5236076638
 11
-37.8834112298
 21
-5.5236076638
  0
LINE
  5
62B
100
AcDbEntity
  8
ASSI
100
AcDbLine
 62
250
  6
CONTINUOUS
 10
-39.3310619848
 20
-5.5236076638
 11
-37.8834112298
 21
-5.5236076638
  0
LINE
  5
62C
100
AcDbEntity
  8
RACCORDO
100
AcDbLine
 62
250
  6
CONTINUOUS
 10
-58.9357604749
 20
-5.43630574
 11
-60.3834112298
 21
-5.43630574
  0
LINE
  5
62D
100
AcDbEntity
  8
ASSI
100
AcDbLine
 62
250
  6
CONTINUOUS
 10
-58.9357604749
 20
-5.43630574
 11
-60.3834112298
 21
-5.43630574
  0
LINE
  5
62E
100
AcDbEntity
  8
RACCORDO
100
AcDbLine
 62
250
  6
CONTINUOUS
 10
-58.9357604749
 20
-5.4361229637
 11
-47.8834112298
 21
-5.8222622804
  0
LINE
  5
62F
100
AcDbEntity
  8
ASSI
100
AcDbLine
 62
250
  6
CONTINUOUS
 10
-58.9357604749
 20
-5.4361229637
 11
-47.8834112298
 21
-5.8222622804
  0
LINE
  5
630
100
AcDbEntity
  8
RACCORDO
100
AcDbLine
 62
250
  6
CONTINUOUS
 10
-60.2055306196
 20
-3.3916947564
 11
-60.2373416171
 21
-3.3855227371
  0
LINE
  5
631
100
AcDbEntity
  8
ASSI
100
AcDbLine
 62
250
  6
CONTINUOUS
 10
-60.2055306196
 20
-3.3916947564
 11
-60.2373416171
 21
-3.3855227371
  0
LINE
  5
632
100
AcDbEntity
  8
RACCORDO
100
AcDbLine
 62
250
  6
CONTINUOUS
 10
-58.935554322
 20
-3.6349727585
 11
-47.8834112298
 21
-4.0209220998
  0
LINE
  5
633
100
AcDbEntity
  8
ASSI
100
AcDbLine
 62
250
  6
CONTINUOUS
 10
-58.935554322
 20
-3.6349727585
 11
-47.8834112298
 21
-4.0209220998
  0
LINE
  5
634
100
AcDbEntity
  8
RACCORDO
100
AcDbLine
 62
250
  6
CONTINUOUS
 10
-60.3834112208
 20
-3.5776727611
 11
-58.9355543216
 21
-3.6349736221
  0
LINE
  5
635
100
AcDbEntity
  8
ASSI
100
AcDbLine
 62
250
  6
CONTINUOUS
 10
-60.3834112208
 20
-3.5776727611
 11
-58.9355543216
 21
-3.6349736221
  0
LWPOLYLINE
  5
636
100
AcDbEntity
  8
RACCORDO
100
AcDbPolyline
 62
250
  6
CONTINUOUS
 90
3
 70
0
 10
-60.1892951193
 20
-3.3913169766
 10
-60.2147352705
 20
-3.388791631
 10
-60.2396450565
 20
-3.3830377236
  0
LWPOLYLINE
  5
637
100
AcDbEntity
  8
ASSI
100
AcDbPolyline
 62
250
  6
CONTINUOUS
 90
3
 70
0
 10
-60.1892951193
 20
-3.3913169766
 10
-60.2147352705
 20
-3.388791631
 10
-60.2396450565
 20
-3.3830377236
  0
LWPOLYLINE
  5
638
100
AcDbEntity
  8
RACCORDO
100
AcDbPolyline
 62
250
  6
CONTINUOUS
 90
25
 70
0
 10
-42.3310540105
 20
-3.5241576396
 10
-42.1493443389
 20
-3.5150012508
 10
-41.9699416211
 20
-3.4943984426
 10
-41.7928458571
 20
-3.462349215
 10
-41.6172928975
 20
-3.4186262772
 10
-41.4440468916
 20
-3.3634569201
 10
-41.2754002881
 20
-3.2975230158
 10
-41.1114432305
 20
-3.2206824125
 10
-40.9520855752
 20
-3.133077262
 10
-40.7993493398
 20
-3.0358158923
 10
-40.6533331723
 20
-2.9287842868
 10
-40.5139384246
 20
-2.8120964623
 10
-40.3828911696
 20
-2.6872027962
 10
-40.260292256
 20
-2.5540017655
 10
-40.1460408351
 20
-2.4125948933
 10
-40.0415604345
 20
-2.2647371269
 10
-39.9469679288
 20
-2.1103323418
 10
-39.8621464434
 20
-1.9494766625
 10
-39.788168881
 20
-1.7842134099
 10
-39.7251799482
 20
-1.6144672984
 10
-39.6730349384
 20
-1.4403136136
 10
-39.6323726352
 20
-1.264021533
 10
-39.6034059664
 20
-1.0863474489
 10
-39.5859220042
 20
-0.906534969
 10
-39.5799207485
 20
-0.7245840932
  0
LWPOLYLINE
  5
639
100
AcDbEntity
  8
ASSI
100
AcDbPolyline
 62
250
  6
CONTINUOUS
 90
25
 70
0
 10
-42.3310540105
 20
-3.5241576396
 10
-42.1493443389
 20
-3.5150012508
 10
-41.9699416211
 20
-3.4943984426
 10
-41.7928458571
 20
-3.462349215
 10
-41.6172928975
 20
-3.4186262772
 10
-41.4440468916
 20
-3.3634569201
 10
-41.2754002881
 20
-3.2975230158
 10
-41.1114432305
 20
-3.2206824125
 10
-40.9520855752
 20
-3.133077262
 10
-40.7993493398
 20
-3.0358158923
 10
-40.6533331723
 20
-2.9287842868
 10
-40.5139384246
 20
-2.8120964623
 10
-40.3828911696
 20
-2.6872027962
 10
-40.260292256
 20
-2.5540017655
 10
-40.1460408351
 20
-2.4125948933
 10
-40.0415604345
 20
-2.2647371269
 10
-39.9469679288
 20
-2.1103323418
 10
-39.8621464434
 20
-1.9494766625
 10
-39.788168881
 20
-1.7842134099
 10
-39.7251799482
 20
-1.6144672984
 10
-39.6730349384
 20
-1.4403136136
 10
-39.6323726352
 20
-1.264021533
 10
-39.6034059664
 20
-1.0863474489
 10
-39.5859220042
 20
-0.906534969
 10
-39.5799207485
 20
-0.7245840932
  0
LINE
  5
63A
100
AcDbEntity
  8
RACCORDO
100
AcDbLine
 62
7
  6
CONTINUOUS
 10
-47.8834112298
 20
-3.8210439344
 11
-42.3312628094
 21
-3.7241308232
  0
LINE
  5
63B
100
AcDbEntity
  8
ASSI
100
AcDbLine
 62
7
  6
CONTINUOUS
 10
-47.8834112298
 20
-3.8210439344
 11
-42.3312628094
 21
-3.7241308232
  0
LINE
  5
63C
100
AcDbEntity
  8
RACCORDO
100
AcDbLine
 62
250
  6
CONTINUOUS
 10
-47.8834112298
 20
-3.6210743954
 11
-42.3310540105
 21
-3.5241576396
  0
LINE
  5
63D
100
AcDbEntity
  8
ASSI
100
AcDbLine
 62
250
  6
CONTINUOUS
 10
-47.8834112298
 20
-3.6210743954
 11
-42.3310540105
 21
-3.5241576396
  0
LINE
  5
63E
100
AcDbEntity
  8
RACCORDO
100
AcDbLine
 62
250
  6
CONTINUOUS
 10
-58.4532102232
 20
-3.2520602548
 11
-60.3821931365
 21
-3.1914395405
  0
LINE
  5
63F
100
AcDbEntity
  8
ASSI
100
AcDbLine
 62
250
  6
CONTINUOUS
 10
-58.4532102232
 20
-3.2520602548
 11
-60.3821931365
 21
-3.1914395405
  0
LINE
  5
640
100
AcDbEntity
  8
RACCORDO
100
AcDbLine
 62
7
  6
CONTINUOUS
 10
-47.8834112298
 20
-3.8210439344
 11
-60.1892929833
 21
-3.3913130743
  0
LINE
  5
641
100
AcDbEntity
  8
ASSI
100
AcDbLine
 62
7
  6
CONTINUOUS
 10
-47.8834112298
 20
-3.8210439344
 11
-60.1892938482
 21
-3.3913130441
  0
LINE
  5
642
100
AcDbEntity
  8
RACCORDO
100
AcDbLine
 62
250
  6
CONTINUOUS
 10
-47.8834112298
 20
-3.621165769
 11
-58.4532102232
 21
-3.2520602548
  0
LINE
  5
643
100
AcDbEntity
  8
ASSI
100
AcDbLine
 62
250
  6
CONTINUOUS
 10
-47.8834112298
 20
-3.621165769
 11
-58.4532102232
 21
-3.2520602548
  0
LWPOLYLINE
  5
644
100
AcDbEntity
  8
RACCORDO
100
AcDbPolyline
 62
250
  6
CONTINUOUS
 90
10
 70
0
 10
-60.3516717603
 20
11.8401240877
 10
-60.3587637209
 20
11.8509782432
 10
-60.3648840976
 20
11.8618660885
 10
-60.3700597492
 20
11.8727367019
 10
-60.3743209052
 20
11.8835285399
 10
-60.3777088433
 20
11.8942135921
 10
-60.3802698921
 20
11.9047947049
 10
-60.3820457075
 20
11.9152445723
 10
-60.3830777117
 20
11.9255134131
 10
-60.3834112298
 20
11.9355842019
  0
LWPOLYLINE
  5
645
100
AcDbEntity
  8
ASSI
100
AcDbPolyline
 62
250
  6
CONTINUOUS
 90
10
 70
0
 10
-60.3516717603
 20
11.8401240877
 10
-60.3587637209
 20
11.8509782432
 10
-60.3648840976
 20
11.8618660885
 10
-60.3700597492
 20
11.8727367019
 10
-60.3743209052
 20
11.8835285399
 10
-60.3777088433
 20
11.8942135921
 10
-60.3802698921
 20
11.9047947049
 10
-60.3820457075
 20
11.9152445723
 10
-60.3830777117
 20
11.9255134131
 10
-60.3834112298
 20
11.9355842019
  0
LWPOLYLINE
  5
646
100
AcDbEntity
  8
RACCORDO
100
AcDbPolyline
 62
250
  6
CONTINUOUS
 90
7
 70
0
 10
-60.3821931365
 20
-3.1914395405
 10
-60.3825661933
 20
-3.1914775752
 10
-60.3828709607
 20
-3.1916209768
 10
-60.3831076418
 20
-3.1918697453
 10
-60.3832764417
 20
-3.1922238807
 10
-60.383377568
 20
-3.1926833829
 10
-60.3834112298
 20
-3.193248252
  0
LWPOLYLINE
  5
647
100
AcDbEntity
  8
ASSI
100
AcDbPolyline
 62
250
  6
CONTINUOUS
 90
7
 70
0
 10
-60.3821931365
 20
-3.1914395405
 10
-60.3825661933
 20
-3.1914775752
 10
-60.3828709607
 20
-3.1916209768
 10
-60.3831076418
 20
-3.1918697453
 10
-60.3832764417
 20
-3.1922238807
 10
-60.383377568
 20
-3.1926833829
 10
-60.3834112298
 20
-3.193248252
  0
LWPOLYLINE
  5
648
100
AcDbEntity
  8
RACCORDO
100
AcDbPolyline
 62
250
  6
CONTINUOUS
 90
7
 70
0
 10
-60.2055281603
 20
-3.3916727142
 10
-60.2029295328
 20
-3.3914807507
 10
-60.2002879036
 20
-3.3913421681
 10
-60.197603459
 20
-3.3912567342
 10
-60.194876387
 20
-3.3912242148
 10
-60.1921068768
 20
-3.3912443743
 10
-60.1892951193
 20
-3.3913169766
  0
LWPOLYLINE
  5
649
100
AcDbEntity
  8
ASSI
100
AcDbPolyline
 62
250
  6
CONTINUOUS
 90
7
 70
0
 10
-60.2055281603
 20
-3.3916727142
 10
-60.2029295328
 20
-3.3914807507
 10
-60.2002879036
 20
-3.3913421681
 10
-60.197603459
 20
-3.3912567342
 10
-60.194876387
 20
-3.3912242148
 10
-60.1921068768
 20
-3.3912443743
 10
-60.1892951193
 20
-3.3913169766
  0
LINE
  5
64A
100
AcDbEntity
  8
RACCORDO
100
AcDbLine
 62
250
  6
CONTINUOUS
 10
-60.3412248251
 20
11.8265053149
 11
-60.3516715666
 21
11.8401239752
  0
LINE
  5
64B
100
AcDbEntity
  8
ASSI
100
AcDbLine
 62
250
  6
CONTINUOUS
 10
-60.3412248251
 20
11.8265053149
 11
-60.3516715666
 21
11.8401239752
  0
LWPOLYLINE
  5
64C
100
AcDbEntity
  8
RACCORDO
100
AcDbPolyline
 62
7
  6
CONTINUOUS
 90
6
 70
0
 10
-47.8834112298
 20
12.1789560656
 10
-47.8836359653
 20
12.1772482798
 10
-47.8838120971
 20
12.1721463824
 10
-47.8839457343
 20
12.1637390969
 10
-47.8840448961
 20
12.1521721956
 10
-47.8841334682
 20
12.1204026445
  0
LWPOLYLINE
  5
64D
100
AcDbEntity
  8
ASSI
100
AcDbPolyline
 62
7
  6
CONTINUOUS
 90
6
 70
0
 10
-47.8834112298
 20
12.1789560656
 10
-47.8836359653
 20
12.1772482798
 10
-47.8838120971
 20
12.1721463824
 10
-47.8839457343
 20
12.1637390969
 10
-47.8840448961
 20
12.1521721956
 10
-47.8841334682
 20
12.1204026445
  0
LINE
  5
64E
100
AcDbEntity
  8
RACCORDO
100
AcDbLine
 62
7
  6
CONTINUOUS
 10
-42.6729413808
 20
-0.3890903179
 11
-43.4393090651
 21
-0.4158524671
  0
LINE
  5
64F
100
AcDbEntity
  8
0
100
AcDbLine
 62
7
  6
CONTINUOUS
 10
-43.4393090651
 20
-0.4158524671
 11
-47.8834112298
 21
-0.5710439344
  0
LINE
  5
650
100
AcDbEntity
  8
ASSI
100
AcDbLine
 62
7
  6
CONTINUOUS
 10
-42.6729413808
 20
-0.3890903179
 11
-47.8834112298
 21
-0.5710439344
  0
LINE
  5
651
100
AcDbEntity
  8
RACCORDO
100
AcDbLine
 62
7
  6
CONTINUOUS
 10
-42.7746850266
 20
-0.7318707868
 11
-60.3834112298
 21
-1.039232246
  0
LINE
  5
652
100
AcDbEntity
  8
ASSI
100
AcDbLine
 62
7
  6
CONTINUOUS
 10
-42.7746850266
 20
-0.7318707868
 11
-60.3834112298
 21
-1.039232246
  0
LINE
  5
653
100
AcDbEntity
  8
RACCORDO
100
AcDbLine
 62
250
  6
CONTINUOUS
 10
-39.5799207485
 20
-0.7245840932
 11
-39.3834112298
 21
-0.7245840932
  0
LINE
  5
654
100
AcDbEntity
  8
ASSI
100
AcDbLine
 62
250
  6
CONTINUOUS
 10
-39.5799207485
 20
-0.7245840932
 11
-39.3834112298
 21
-0.7245840932
  0
LWPOLYLINE
  5
655
100
AcDbEntity
  8
RACCORDO
100
AcDbPolyline
 62
7
  6
CONTINUOUS
 90
4
 70
0
 10
-47.8839457343
 20
-3.8058269657
 10
-47.8838120971
 20
-3.8142342512
 10
-47.8836359653
 20
-3.8193361486
 10
-47.8834112298
 20
-3.8210439344
  0
LWPOLYLINE
  5
656
100
AcDbEntity
  8
ASSI
100
AcDbPolyline
 62
7
  6
CONTINUOUS
 90
4
 70
0
 10
-47.8839457343
 20
-3.8058269657
 10
-47.8838120971
 20
-3.8142342512
 10
-47.8836359653
 20
-3.8193361486
 10
-47.8834112298
 20
-3.8210439344
  0
LINE
  5
657
100
AcDbEntity
  8
RACCORDO
100
AcDbLine
 62
7
  6
CONTINUOUS
 10
-47.8839457343
 20
12.055539285
 11
-47.8834112298
 21
11.9789865266
  0
LINE
  5
658
100
AcDbEntity
  8
ASSI
100
AcDbLine
 62
7
  6
CONTINUOUS
 10
-47.8839457343
 20
12.055539285
 11
-47.8834112298
 21
11.9789865266
  0
LINE
  5
659
100
AcDbEntity
  8
RACCORDO
100
AcDbLine
 62
7
  6
CONTINUOUS
 10
-47.8841099261
 20
-3.7797322522
 11
-47.8839457343
 21
-3.8058269657
  0
LINE
  5
65A
100
AcDbEntity
  8
ASSI
100
AcDbLine
 62
7
  6
CONTINUOUS
 10
-47.8841099261
 20
-3.7797322522
 11
-47.8839457343
 21
-3.8058269657
  0
LINE
  5
65B
100
AcDbEntity
  8
RACCORDO
100
AcDbLine
 62
7
  6
CONTINUOUS
 10
-47.8841334682
 20
12.1204026445
 11
-47.8839457343
 21
12.055539285
  0
LINE
  5
65C
100
AcDbEntity
  8
ASSI
100
AcDbLine
 62
7
  6
CONTINUOUS
 10
-47.8841334682
 20
12.1204026445
 11
-47.8839457343
 21
12.055539285
  0
LINE
  5
65D
100
AcDbEntity
  8
RACCORDO
100
AcDbLine
 62
7
  6
CONTINUOUS
 10
-47.8834112298
 20
-7.8210439344
 11
-47.8834112298
 21
-3.8210439195
  0
LINE
  5
65E
100
AcDbEntity
  8
ASSI
100
AcDbLine
 62
7
  6
CONTINUOUS
 10
-47.8834112298
 20
-7.8210439344
 11
-47.8834112298
 21
-3.8210439195
  0
LINE
  5
65F
100
AcDbEntity
  8
RACCORDO
100
AcDbLine
 62
7
  6
CONTINUOUS
 10
-47.8834112298
 20
-3.621165769
 11
-47.8834112298
 21
-0.5710439344
  0
LINE
  5
660
100
AcDbEntity
  8
DRAFT
100
AcDbLine
 62
7
  6
CONTINUOUS
 10
-47.8834112298
 20
-0.8210439344
 11
-47.8834112298
 21
9.1789560656
  0
LINE
  5
661
100
AcDbEntity
  8
RACCORDO
100
AcDbLine
 62
7
  6
CONTINUOUS
 10
-47.8834112298
 20
8.9289560656
 11
-47.8834112298
 21
11.9790779002
  0
LINE
  5
662
100
AcDbEntity
  8
ASSI
100
AcDbLine
 62
7
  6
CONTINUOUS
 10
-47.8834112298
 20
-3.621165769
 11
-47.8834112298
 21
11.9790779002
  0
LINE
  5
663
100
AcDbEntity
  8
RACCORDO
100
AcDbLine
 62
7
  6
CONTINUOUS
 10
-47.8834112298
 20
12.1789560507
 11
-47.8834112298
 21
16.1789560656
  0
LINE
  5
664
100
AcDbEntity
  8
ASSI
100
AcDbLine
 62
7
  6
CONTINUOUS
 10
-47.8834112298
 20
12.1789560507
 11
-47.8834112298
 21
16.1789560656
  0
LINE
  5
665
100
AcDbEntity
  8
RACCORDO
100
AcDbLine
 62
7
  6
CONTINUOUS
 10
-47.8840448961
 20
-3.7210854728
 11
-47.8841099261
 21
-3.7797322522
  0
LINE
  5
666
100
AcDbEntity
  8
ASSI
100
AcDbLine
 62
7
  6
CONTINUOUS
 10
-47.8840448961
 20
-3.7210854728
 11
-47.8841099261
 21
-3.7797322522
  0
LWPOLYLINE
  5
667
100
AcDbEntity
  8
RACCORDO
100
AcDbPolyline
 62
7
  6
CONTINUOUS
 90
3
 70
0
 10
-47.8834112298
 20
-3.6210743954
 10
-47.8836359653
 20
-3.6471902023
 10
-47.8840448961
 20
-3.7210854728
  0
LWPOLYLINE
  5
668
100
AcDbEntity
  8
ASSI
100
AcDbPolyline
 62
7
  6
CONTINUOUS
 90
3
 70
0
 10
-47.8834112298
 20
-3.6210743954
 10
-47.8836359653
 20
-3.6471902023
 10
-47.8840448961
 20
-3.7210854728
  0
LINE
  5
669
100
AcDbEntity
  8
0
100
AcDbLine
 62
7
  6
CONTINUOUS
 10
-45.525998284
 20
8.8466333915
 11
-45.525998284
 21
-0.4887212603
  0
LINE
  5
66A
100
AcDbEntity
  8
ASSI
100
AcDbLine
 62
7
  6
CONTINUOUS
 10
-45.525998284
 20
8.8466333915
 11
-45.525998284
 21
-0.4887212603
  0
LINE
  5
66B
100
AcDbEntity
  8
RACCORDO
100
AcDbLine
 62
250
  6
CONTINUOUS
 10
-42.3310540105
 20
-3.5241576396
 11
-42.330269962
 21
-3.5759022042
  0
LINE
  5
66C
100
AcDbEntity
  8
ASSI
100
AcDbLine
 62
250
  6
CONTINUOUS
 10
-42.3310540105
 20
-3.5241576396
 11
-42.330269962
 21
-3.5759022042
  0
LWPOLYLINE
  5
66D
100
AcDbEntity
  8
RACCORDO
100
AcDbPolyline
 62
250
  6
CONTINUOUS
 90
10
 70
0
 10
-42.330269962
 20
-3.5759022042
 10
-42.3297770809
 20
-3.6241227002
 10
-42.3296511719
 20
-3.6458691936
 10
-42.3296089558
 20
-3.6655341029
 10
-42.3296511561
 20
-3.6827810532
 10
-42.3297770526
 20
-3.6973150029
 10
-42.3299844926
 20
-3.7088872877
 10
-42.3302699285
 20
-3.717299938
 10
-42.3306284791
 20
-3.7224090417
 10
-42.3310540122
 20
-3.7241271787
  0
LWPOLYLINE
  5
66E
100
AcDbEntity
  8
ASSI
100
AcDbPolyline
 62
250
  6
CONTINUOUS
 90
10
 70
0
 10
-42.330269962
 20
-3.5759022042
 10
-42.3297770809
 20
-3.6241227002
 10
-42.3296511719
 20
-3.6458691936
 10
-42.3296089558
 20
-3.6655341029
 10
-42.3296511561
 20
-3.6827810532
 10
-42.3297770526
 20
-3.6973150029
 10
-42.3299844926
 20
-3.7088872877
 10
-42.3302699285
 20
-3.717299938
 10
-42.3306284791
 20
-3.7224090417
 10
-42.3310540122
 20
-3.7241271787
  0
LINE
  5
66F
100
AcDbEntity
  8
0
100
AcDbLine
 62
7
  6
CONTINUOUS
 10
-43.4393090651
 20
8.7737645983
 11
-43.4393090651
 21
-0.4158524671
  0
LINE
  5
670
100
AcDbEntity
  8
ASSI
100
AcDbLine
 62
7
  6
CONTINUOUS
 10
-43.4393090651
 20
8.7737645983
 11
-43.4393090651
 21
-0.4158524671
  0
LINE
  5
671
100
AcDbEntity
  8
RACCORDO
100
AcDbLine
 62
250
  6
CONTINUOUS
 10
-42.6781755079
 20
-0.3892730976
 11
-42.6781755079
 21
8.7471852288
  0
LINE
  5
672
100
AcDbEntity
  8
ASSI
100
AcDbLine
 62
250
  6
CONTINUOUS
 10
-42.6781755079
 20
-0.3892730976
 11
-42.6781755079
 21
8.7471852288
  0
LINE
  5
673
100
AcDbEntity
  8
RACCORDO
100
AcDbLine
 62
7
  6
CONTINUOUS
 10
-42.3834112298
 20
-0.0892730698
 11
-42.3834112298
 21
8.447185201
  0
LINE
  5
674
100
AcDbEntity
  8
ASSI
100
AcDbLine
 62
7
  6
CONTINUOUS
 10
-42.3834112298
 20
-0.0892730698
 11
-42.3834112298
 21
8.447185201
  0
LINE
  5
675
100
AcDbEntity
  8
RACCORDO
100
AcDbLine
 62
250
  6
CONTINUOUS
 10
-42.3297770674
 20
11.9820369614
 11
-42.3296089586
 21
12.0234480582
  0
LINE
  5
676
100
AcDbEntity
  8
ASSI
100
AcDbLine
 62
250
  6
CONTINUOUS
 10
-42.3297770674
 20
11.9820369614
 11
-42.3296089586
 21
12.0234480582
  0
LINE
  5
677
100
AcDbEntity
  8
RACCORDO
100
AcDbLine
 62
250
  6
CONTINUOUS
 10
-42.3302699433
 20
11.9338158926
 11
-42.3297770674
 21
11.9820369614
  0
LINE
  5
678
100
AcDbEntity
  8
ASSI
100
AcDbLine
 62
250
  6
CONTINUOUS
 10
-42.3302699433
 20
11.9338158926
 11
-42.3297770674
 21
11.9820369614
  0
LINE
  5
679
100
AcDbEntity
  8
RACCORDO
100
AcDbLine
 62
250
  6
CONTINUOUS
 10
-42.3310540105
 20
11.8820697708
 11
-42.3302699433
 21
11.9338158926
  0
LINE
  5
67A
100
AcDbEntity
  8
ASSI
100
AcDbLine
 62
250
  6
CONTINUOUS
 10
-42.3310540105
 20
11.8820697708
 11
-42.3302699433
 21
11.9338158926
  0
LWPOLYLINE
  5
67B
100
AcDbEntity
  8
RACCORDO
100
AcDbPolyline
 62
250
  6
CONTINUOUS
 90
7
 70
0
 10
-42.3296089586
 20
12.0234480582
 10
-42.3296511669
 20
12.040694648
 10
-42.3297770689
 20
12.0552281732
 10
-42.3299845109
 20
12.0668000573
 10
-42.3302699448
 20
12.0752123789
 10
-42.3306284889
 20
12.0803212566
 10
-42.3310540105
 20
12.0820393098
  0
LWPOLYLINE
  5
67C
100
AcDbEntity
  8
ASSI
100
AcDbPolyline
 62
250
  6
CONTINUOUS
 90
7
 70
0
 10
-42.3296089586
 20
12.0234480582
 10
-42.3296511669
 20
12.040694648
 10
-42.3297770689
 20
12.0552281732
 10
-42.3299845109
 20
12.0668000573
 10
-42.3302699448
 20
12.0752123789
 10
-42.3306284889
 20
12.0803212566
 10
-42.3310540105
 20
12.0820393098
  0
LINE
  5
67D
100
AcDbEntity
  8
RACCORDO
100
AcDbLine
 62
7
  6
CONTINUOUS
 10
-42.2834112298
 20
-0.2319469392
 11
-42.2834112298
 21
8.5898590704
  0
LINE
  5
67E
100
AcDbEntity
  8
ASSI
100
AcDbLine
 62
7
  6
CONTINUOUS
 10
-42.2834112298
 20
-0.2319469392
 11
-42.2834112298
 21
8.5898590704
  0
LINE
  5
67F
100
AcDbEntity
  8
RACCORDO
100
AcDbLine
 62
250
  6
CONTINUOUS
 10
-39.5799207485
 20
9.0824962244
 11
-39.3834112298
 21
9.0824962234
  0
LINE
  5
680
100
AcDbEntity
  8
ASSI
100
AcDbLine
 62
250
  6
CONTINUOUS
 10
-39.5799207485
 20
9.0824962244
 11
-39.3834112298
 21
9.0824962234
  0
LINE
  5
681
100
AcDbEntity
  8
RACCORDO
100
AcDbLine
 62
7
  6
CONTINUOUS
 10
-42.7746850266
 20
9.089782918
 11
-60.3834112298
 21
9.3971443772
  0
LINE
  5
682
100
AcDbEntity
  8
ASSI
100
AcDbLine
 62
7
  6
CONTINUOUS
 10
-42.7746850266
 20
9.089782918
 11
-60.3834112298
 21
9.3971443772
  0
LINE
  5
683
100
AcDbEntity
  8
RACCORDO
100
AcDbLine
 62
7
  6
CONTINUOUS
 10
-43.4393090651
 20
8.7737645983
 11
-42.6729413808
 21
8.7470024491
  0
LINE
  5
684
100
AcDbEntity
  8
0
100
AcDbLine
 62
7
  6
CONTINUOUS
 10
-43.4393090651
 20
8.7737645983
 11
-47.8834112298
 21
8.9289560656
  0
LINE
  5
685
100
AcDbEntity
  8
ASSI
100
AcDbLine
 62
7
  6
CONTINUOUS
 10
-42.6729413808
 20
8.7470024491
 11
-47.8834112298
 21
8.9289560656
  0
LWPOLYLINE
  5
686
100
AcDbEntity
  8
RACCORDO
100
AcDbPolyline
 62
250
  6
CONTINUOUS
 90
8
 70
0
 10
-60.2254700572
 20
11.7527291833
 10
-60.2450162299
 20
11.7584047896
 10
-60.263965669
 20
11.7662605952
 10
-60.2822956451
 20
11.7761001055
 10
-60.2996154429
 20
11.7875881693
 10
-60.3152798269
 20
11.8000707337
 10
-60.3290993322
 20
11.8130836167
 10
-60.3412248251
 20
11.8265053149
  0
LWPOLYLINE
  5
687
100
AcDbEntity
  8
ASSI
100
AcDbPolyline
 62
250
  6
CONTINUOUS
 90
8
 70
0
 10
-60.2254700572
 20
11.7527291833
 10
-60.2450162299
 20
11.7584047896
 10
-60.263965669
 20
11.7662605952
 10
-60.2822956451
 20
11.7761001055
 10
-60.2996154429
 20
11.7875881693
 10
-60.3152798269
 20
11.8000707337
 10
-60.3290993322
 20
11.8130836167
 10
-60.3412248251
 20
11.8265053149
  0
LWPOLYLINE
  5
688
100
AcDbEntity
  8
RACCORDO
100
AcDbPolyline
 62
250
  6
CONTINUOUS
 90
25
 70
0
 10
-39.5799207485
 20
9.0824962244
 10
-39.5859220042
 20
9.2644471002
 10
-39.6034059664
 20
9.4442595801
 10
-39.6323726351
 20
9.6219336642
 10
-39.6730349383
 20
9.7982257448
 10
-39.7251799481
 20
9.9723794296
 10
-39.788168881
 20
10.1421255411
 10
-39.8621464434
 20
10.3073887937
 10
-39.9469679288
 20
10.468244473
 10
-40.0415604345
 20
10.6226492581
 10
-40.1460408351
 20
10.7705070244
 10
-40.260292256
 20
10.9119138967
 10
-40.3828911697
 20
11.0451149274
 10
-40.5139384246
 20
11.1700085935
 10
-40.6533331722
 20
11.2866964181
 10
-40.7993493397
 20
11.3937280235
 10
-40.9520855752
 20
11.4909893931
 10
-41.1114432305
 20
11.5785945436
 10
-41.2754002881
 20
11.655435147
 10
-41.4440468917
 20
11.7213690512
 10
-41.6172928975
 20
11.7765384084
 10
-41.7928458571
 20
11.8202613461
 10
-41.9699416211
 20
11.8523105737
 10
-42.1493443389
 20
11.872913382
 10
-42.3310540105
 20
11.8820697708
  0
LWPOLYLINE
  5
689
100
AcDbEntity
  8
ASSI
100
AcDbPolyline
 62
250
  6
CONTINUOUS
 90
25
 70
0
 10
-39.5799207485
 20
9.0824962244
 10
-39.5859220042
 20
9.2644471002
 10
-39.6034059664
 20
9.4442595801
 10
-39.6323726351
 20
9.6219336642
 10
-39.6730349383
 20
9.7982257448
 10
-39.7251799481
 20
9.9723794296
 10
-39.788168881
 20
10.1421255411
 10
-39.8621464434
 20
10.3073887937
 10
-39.9469679288
 20
10.468244473
 10
-40.0415604345
 20
10.6226492581
 10
-40.1460408351
 20
10.7705070244
 10
-40.260292256
 20
10.9119138967
 10
-40.3828911697
 20
11.0451149274
 10
-40.5139384246
 20
11.1700085935
 10
-40.6533331722
 20
11.2866964181
 10
-40.7993493397
 20
11.3937280235
 10
-40.9520855752
 20
11.4909893931
 10
-41.1114432305
 20
11.5785945436
 10
-41.2754002881
 20
11.655435147
 10
-41.4440468917
 20
11.7213690512
 10
-41.6172928975
 20
11.7765384084
 10
-41.7928458571
 20
11.8202613461
 10
-41.9699416211
 20
11.8523105737
 10
-42.1493443389
 20
11.872913382
 10
-42.3310540105
 20
11.8820697708
  0
LINE
  5
68A
100
AcDbEntity
  8
RACCORDO
100
AcDbLine
 62
250
  6
CONTINUOUS
 10
-39.3207464084
 20
-5.9681677682
 11
-39.3310669518
 21
-5.5234250595
  0
LINE
  5
68B
100
AcDbEntity
  8
ASSI
100
AcDbLine
 62
250
  6
CONTINUOUS
 10
-39.3207464084
 20
-5.9681677682
 11
-39.3310669518
 21
-5.5234250595
  0
LINE
  5
68C
100
AcDbEntity
  8
RACCORDO
100
AcDbLine
 62
250
  6
CONTINUOUS
 10
-39.3155854578
 20
-6.2535002225
 11
-39.3207464084
 21
-5.9681677682
  0
LINE
  5
68D
100
AcDbEntity
  8
ASSI
100
AcDbLine
 62
250
  6
CONTINUOUS
 10
-39.3155854578
 20
-6.2535002225
 11
-39.3207464084
 21
-5.9681677682
  0
LINE
  5
68E
100
AcDbEntity
  8
RACCORDO
100
AcDbLine
 62
250
  6
CONTINUOUS
 10
-39.311936564
 20
-6.5225250554
 11
-39.3155854578
 21
-6.2535002225
  0
LINE
  5
68F
100
AcDbEntity
  8
ASSI
100
AcDbLine
 62
250
  6
CONTINUOUS
 10
-39.311936564
 20
-6.5225250554
 11
-39.3155854578
 21
-6.2535002225
  0
LWPOLYLINE
  5
690
100
AcDbEntity
  8
RACCORDO
100
AcDbPolyline
 62
250
  6
CONTINUOUS
 90
10
 70
0
 10
-39.3098877305
 20
15.4436078452
 10
-39.3107098176
 20
15.5323762083
 10
-39.311936564
 20
15.6119235541
 10
-39.313566399
 20
15.6818059497
 10
-39.3155854578
 20
15.7416304357
 10
-39.3179804215
 20
15.7910662289
 10
-39.3207464084
 20
15.8298421041
 10
-39.3238673892
 20
15.8577379261
 10
-39.3273160695
 20
15.8745908023
 10
-39.3310669518
 20
15.8803016141
  0
LWPOLYLINE
  5
691
100
AcDbEntity
  8
ASSI
100
AcDbPolyline
 62
250
  6
CONTINUOUS
 90
10
 70
0
 10
-39.3098877305
 20
15.4436078452
 10
-39.3107098176
 20
15.5323762083
 10
-39.311936564
 20
15.6119235541
 10
-39.313566399
 20
15.6818059497
 10
-39.3155854578
 20
15.7416304357
 10
-39.3179804215
 20
15.7910662289
 10
-39.3207464084
 20
15.8298421041
 10
-39.3238673892
 20
15.8577379261
 10
-39.3273160695
 20
15.8745908023
 10
-39.3310669518
 20
15.8803016141
  0
LINE
  5
692
100
AcDbEntity
  8
RACCORDO
100
AcDbLine
 62
250
  6
CONTINUOUS
 10
-39.3098877305
 20
-6.7692620015
 11
-39.311936564
 21
-6.5225250554
  0
LINE
  5
693
100
AcDbEntity
  8
ASSI
100
AcDbLine
 62
250
  6
CONTINUOUS
 10
-39.3098877305
 20
-6.7692620015
 11
-39.311936564
 21
-6.5225250554
  0
LINE
  5
694
100
AcDbEntity
  8
RACCORDO
100
AcDbLine
 62
250
  6
CONTINUOUS
 10
-38.3595811446
 20
-15.4893214371
 11
-38.3659614815
 21
-14.4899056116
  0
LINE
  5
695
100
AcDbEntity
  8
ASSI
100
AcDbLine
 62
250
  6
CONTINUOUS
 10
-38.3595811446
 20
-15.4893214371
 11
-38.3659614815
 21
-14.4899056116
  0
LINE
  5
696
100
AcDbEntity
  8
RACCORDO
100
AcDbLine
 62
250
  6
CONTINUOUS
 10
-38.3587620454
 20
-15.8493358836
 11
-38.3595811446
 21
-15.4893214371
  0
LINE
  5
697
100
AcDbEntity
  8
ASSI
100
AcDbLine
 62
250
  6
CONTINUOUS
 10
-38.3587620454
 20
-15.8493358836
 11
-38.3595811446
 21
-15.4893214371
  0
LINE
  5
698
100
AcDbEntity
  8
RACCORDO
100
AcDbLine
 62
250
  6
CONTINUOUS
 10
-39.5799207485
 20
-0.7245840932
 11
-39.5799207485
 21
9.0824962244
  0
LINE
  5
699
100
AcDbEntity
  8
ASSI
100
AcDbLine
 62
250
  6
CONTINUOUS
 10
-39.5799207485
 20
-0.7245840932
 11
-39.5799207485
 21
9.0824962244
  0
LINE
  5
69A
100
AcDbEntity
  8
RACCORDO
100
AcDbLine
 62
7
  6
CONTINUOUS
 10
-39.3834112298
 20
-16.5242173937
 11
-39.3834112298
 21
-7.5242173937
  0
LINE
  5
69B
100
AcDbEntity
  8
ASSI
100
AcDbLine
 62
7
  6
CONTINUOUS
 10
-39.3834112298
 20
-16.5242173937
 11
-39.3834112298
 21
-7.5242173937
  0
LINE
  5
69C
100
AcDbEntity
  8
RACCORDO
100
AcDbLine
 62
7
  6
CONTINUOUS
 10
-39.3834112298
 20
-0.7245840932
 11
-39.3834112298
 21
9.0824962244
  0
LINE
  5
69D
100
AcDbEntity
  8
ASSI
100
AcDbLine
 62
7
  6
CONTINUOUS
 10
-39.3834112298
 20
-0.7245840932
 11
-39.3834112298
 21
9.0824962244
  0
LINE
  5
69E
100
AcDbEntity
  8
RACCORDO
100
AcDbLine
 62
250
  6
CONTINUOUS
 10
-39.3310619848
 20
-5.523424886
 11
-39.3310619848
 21
13.8813428072
  0
LINE
  5
69F
100
AcDbEntity
  8
ASSI
100
AcDbLine
 62
250
  6
CONTINUOUS
 10
-39.3310619848
 20
-5.523424886
 11
-39.3310619848
 21
13.8813428072
  0
LINE
  5
6A0
100
AcDbEntity
  8
RACCORDO
100
AcDbLine
 62
250
  6
CONTINUOUS
 10
-39.309473938
 20
15.2404397647
 11
-39.3098877305
 21
15.4436078452
  0
LINE
  5
6A1
100
AcDbEntity
  8
ASSI
100
AcDbLine
 62
250
  6
CONTINUOUS
 10
-39.309473938
 20
15.2404397647
 11
-39.3098877305
 21
15.4436078452
  0
LINE
  5
6A2
100
AcDbEntity
  8
RACCORDO
100
AcDbLine
 62
250
  6
CONTINUOUS
 10
-39.3107099486
 20
15.0069494847
 11
-39.309473938
 21
15.2404397647
  0
LINE
  5
6A3
100
AcDbEntity
  8
ASSI
100
AcDbLine
 62
250
  6
CONTINUOUS
 10
-39.3107099486
 20
15.0069494847
 11
-39.309473938
 21
15.2404397647
  0
LINE
  5
6A4
100
AcDbEntity
  8
RACCORDO
100
AcDbLine
 62
250
  6
CONTINUOUS
 10
-39.3135665994
 20
14.7483435856
 11
-39.3107099486
 21
15.0069494847
  0
LINE
  5
6A5
100
AcDbEntity
  8
ASSI
100
AcDbLine
 62
250
  6
CONTINUOUS
 10
-39.3135665994
 20
14.7483435856
 11
-39.3107099486
 21
15.0069494847
  0
LINE
  5
6A6
100
AcDbEntity
  8
RACCORDO
100
AcDbLine
 62
250
  6
CONTINUOUS
 10
-39.3179806995
 20
14.4704016041
 11
-39.3135665994
 21
14.7483435856
  0
LINE
  5
6A7
100
AcDbEntity
  8
ASSI
100
AcDbLine
 62
250
  6
CONTINUOUS
 10
-39.3179806995
 20
14.4704016041
 11
-39.3135665994
 21
14.7483435856
  0
LWPOLYLINE
  5
6A8
100
AcDbEntity
  8
RACCORDO
100
AcDbPolyline
 62
250
  6
CONTINUOUS
 90
3
 70
0
 10
-39.3310667943
 20
13.8813429752
 10
-39.3273161169
 20
14.0307232161
 10
-39.3179806995
 20
14.4704016041
  0
LWPOLYLINE
  5
6A9
100
AcDbEntity
  8
ASSI
100
AcDbPolyline
 62
250
  6
CONTINUOUS
 90
3
 70
0
 10
-39.3310667943
 20
13.8813429752
 10
-39.3273161169
 20
14.0307232161
 10
-39.3179806995
 20
14.4704016041
  0
LINE
  5
6AA
100
AcDbEntity
  8
RACCORDO
100
AcDbLine
 62
250
  6
CONTINUOUS
 10
-60.205530252
 20
11.7496086986
 11
-60.2254700572
 21
11.7527291833
  0
LINE
  5
6AB
100
AcDbEntity
  8
ASSI
100
AcDbLine
 62
250
  6
CONTINUOUS
 10
-60.205530252
 20
11.7496086986
 11
-60.2254700572
 21
11.7527291833
  0
LINE
  5
6AC
100
AcDbEntity
  8
RACCORDO
100
AcDbLine
 62
250
  6
CONTINUOUS
 10
-38.3659614815
 20
-14.4899056116
 11
-38.3659614815
 21
-7.1254809257
  0
LINE
  5
6AD
100
AcDbEntity
  8
ASSI
100
AcDbLine
 62
250
  6
CONTINUOUS
 10
-38.3659614815
 20
-14.4899056116
 11
-38.3659614815
 21
-7.1254809257
  0
LINE
  5
6AE
100
AcDbEntity
  8
RACCORDO
100
AcDbLine
 62
7
  6
CONTINUOUS
 10
-37.8834112298
 20
-15.9889918521
 11
-37.8834112298
 21
14.3812152085
  0
LINE
  5
6AF
100
AcDbEntity
  8
ASSI
100
AcDbLine
 62
7
  6
CONTINUOUS
 10
-37.8834112298
 20
-15.9889918521
 11
-37.8834112298
 21
14.3812152085
  0
LINE
  5
6B0
100
AcDbEntity
  8
RACCORDO
100
AcDbLine
 62
250
  6
CONTINUOUS
 10
-38.3591761408
 20
-16.1412093221
 11
-38.3587620454
 21
-15.8493358836
  0
LINE
  5
6B1
100
AcDbEntity
  8
ASSI
100
AcDbLine
 62
250
  6
CONTINUOUS
 10
-38.3591761408
 20
-16.1412093221
 11
-38.3587620454
 21
-15.8493358836
  0
LINE
  5
6B2
100
AcDbEntity
  8
RACCORDO
100
AcDbLine
 62
250
  6
CONTINUOUS
 10
-60.3821932566
 20
11.5493517783
 11
-58.4532102232
 21
11.609972386
  0
LINE
  5
6B3
100
AcDbEntity
  8
ASSI
100
AcDbLine
 62
250
  6
CONTINUOUS
 10
-60.3821932566
 20
11.5493517783
 11
-58.4532102232
 21
11.609972386
  0
LWPOLYLINE
  5
6B4
100
AcDbEntity
  8
RACCORDO
100
AcDbPolyline
 62
250
  6
CONTINUOUS
 90
12
 70
0
 10
-39.3310667943
 20
-7.5223894779
 10
-39.3273161169
 20
-7.5166784324
 10
-39.3238675767
 20
-7.4998256088
 10
-39.3207466757
 20
-7.4719299805
 10
-39.3179806995
 20
-7.4331542321
 10
-39.3155856988
 20
-7.3837183906
 10
-39.3135665994
 20
-7.3238938262
 10
-39.3119367322
 20
-7.2540114304
 10
-39.3107099486
 20
-7.1744640838
 10
-39.3098878175
 20
-7.0856957196
 10
-39.309473938
 20
-6.9882020836
 10
-39.3098877305
 20
-6.7692620015
  0
LWPOLYLINE
  5
6B5
100
AcDbEntity
  8
ASSI
100
AcDbPolyline
 62
250
  6
CONTINUOUS
 90
12
 70
0
 10
-39.3310667943
 20
-7.5223894779
 10
-39.3273161169
 20
-7.5166784324
 10
-39.3238675767
 20
-7.4998256088
 10
-39.3207466757
 20
-7.4719299805
 10
-39.3179806995
 20
-7.4331542321
 10
-39.3155856988
 20
-7.3837183906
 10
-39.3135665994
 20
-7.3238938262
 10
-39.3119367322
 20
-7.2540114304
 10
-39.3107099486
 20
-7.1744640838
 10
-39.3098878175
 20
-7.0856957196
 10
-39.309473938
 20
-6.9882020836
 10
-39.3098877305
 20
-6.7692620015
  0
LINE
  5
6B6
100
AcDbEntity
  8
RACCORDO
100
AcDbLine
 62
250
  6
CONTINUOUS
 10
-58.935556284
 20
11.9928856754
 11
-60.3834112223
 21
11.9355848282
  0
LINE
  5
6B7
100
AcDbEntity
  8
ASSI
100
AcDbLine
 62
250
  6
CONTINUOUS
 10
-58.935556284
 20
11.9928856754
 11
-60.3834112223
 21
11.9355848282
  0
LINE
  5
6B8
100
AcDbEntity
  8
RACCORDO
100
AcDbLine
 62
250
  6
CONTINUOUS
 10
-58.4532102232
 20
11.609972386
 11
-47.8834112298
 21
11.9790779002
  0
LINE
  5
6B9
100
AcDbEntity
  8
ASSI
100
AcDbLine
 62
250
  6
CONTINUOUS
 10
-58.4532102232
 20
11.609972386
 11
-47.8834112298
 21
11.9790779002
  0
LINE
  5
6BA
100
AcDbEntity
  8
RACCORDO
100
AcDbLine
 62
7
  6
CONTINUOUS
 10
-60.1892929833
 20
11.7492252055
 11
-47.8834112298
 21
12.1789560656
  0
LINE
  5
6BB
100
AcDbEntity
  8
ASSI
100
AcDbLine
 62
7
  6
CONTINUOUS
 10
-60.1892929833
 20
11.7492252055
 11
-47.8834112298
 21
12.1789560656
  0
LINE
  5
6BC
100
AcDbEntity
  8
RACCORDO
100
AcDbLine
 62
250
  6
CONTINUOUS
 10
-47.8834112298
 20
12.378834231
 11
-58.9355562844
 21
11.9928848212
  0
LINE
  5
6BD
100
AcDbEntity
  8
ASSI
100
AcDbLine
 62
250
  6
CONTINUOUS
 10
-47.8834112298
 20
12.378834231
 11
-58.9355562844
 21
11.9928848212
  0
LWPOLYLINE
  5
6BE
100
AcDbEntity
  8
RACCORDO
100
AcDbPolyline
 62
250
  6
CONTINUOUS
 90
7
 70
0
 10
-60.1892952734
 20
11.7492295438
 10
-60.1921070102
 20
11.7491569369
 10
-60.19487646
 20
11.7491367703
 10
-60.1976034337
 20
11.7491692778
 10
-60.2002877436
 20
11.7492546931
 10
-60.2029292036
 20
11.7493932482
 10
-60.2055276291
 20
11.7495851733
  0
LWPOLYLINE
  5
6BF
100
AcDbEntity
  8
ASSI
100
AcDbPolyline
 62
250
  6
CONTINUOUS
 90
7
 70
0
 10
-60.1892952734
 20
11.7492295438
 10
-60.1921070102
 20
11.7491569369
 10
-60.19487646
 20
11.7491367703
 10
-60.1976034337
 20
11.7491692778
 10
-60.2002877436
 20
11.7492546931
 10
-60.2029292036
 20
11.7493932482
 10
-60.2055276291
 20
11.7495851733
  0
LINE
  5
6C0
100
AcDbEntity
  8
RACCORDO
100
AcDbLine
 62
250
  6
CONTINUOUS
 10
-42.3310540105
 20
11.8820697708
 11
-47.8834112298
 21
11.9789865266
  0
LINE
  5
6C1
100
AcDbEntity
  8
ASSI
100
AcDbLine
 62
250
  6
CONTINUOUS
 10
-42.3310540105
 20
11.8820697708
 11
-47.8834112298
 21
11.9789865266
  0
LINE
  5
6C2
100
AcDbEntity
  8
RACCORDO
100
AcDbLine
 62
7
  6
CONTINUOUS
 10
-42.3312627971
 20
12.0820429542
 11
-47.8834112298
 21
12.1789560656
  0
LINE
  5
6C3
100
AcDbEntity
  8
ASSI
100
AcDbLine
 62
7
  6
CONTINUOUS
 10
-42.3312627971
 20
12.0820429542
 11
-47.8834112298
 21
12.1789560656
  0
LWPOLYLINE
  5
6C4
100
AcDbEntity
  8
0
100
AcDbPolyline
 62
7
  6
CONTINUOUS
 90
10
 70
0
 43
0.3500000006
 10
-48.0619833069
 20
25.5098234711
 10
-47.990552124
 20
25.3669656372
 10
-47.990552124
 20
25.2955389862
 10
-48.1334099579
 20
25.1526811523
 10
-48.2048411407
 20
25.1526811523
 10
-48.2762677917
 20
25.2241078033
 10
-48.2762677917
 20
25.2955389862
 10
-48.2048411407
 20
25.4383968201
 10
-48.1334099579
 20
25.5098234711
 10
-48.0619833069
 20
25.5098234711
  0
LWPOLYLINE
  5
6C5
100
AcDbEntity
  8
RACCORDO
100
AcDbPolyline
 62
250
  6
CONTINUOUS
 90
8
 70
0
 10
-38.3659614815
 20
-16.4886872656
 10
-38.3647374465
 20
-16.4830548564
 10
-38.3635826559
 20
-16.4662779793
 10
-38.3625226984
 20
-16.4384528319
 10
-38.3615938796
 20
-16.3997379469
 10
-38.3608034815
 20
-16.3503512282
 10
-38.3601296792
 20
-16.2905680669
 10
-38.3591761408
 20
-16.1412093221
  0
LWPOLYLINE
  5
6C6
100
AcDbEntity
  8
ASSI
100
AcDbPolyline
 62
250
  6
CONTINUOUS
 90
8
 70
0
 10
-38.3659614815
 20
-16.4886872656
 10
-38.3647374465
 20
-16.4830548564
 10
-38.3635826559
 20
-16.4662779793
 10
-38.3625226984
 20
-16.4384528319
 10
-38.3615938796
 20
-16.3997379469
 10
-38.3608034815
 20
-16.3503512282
 10
-38.3601296792
 20
-16.2905680669
 10
-38.3591761408
 20
-16.1412093221
  0
LWPOLYLINE
  5
6C7
100
AcDbEntity
  8
RACCORDO
100
AcDbPolyline
 62
250
  6
CONTINUOUS
 90
3
 70
0
 10
-60.2396452667
 20
11.7409502629
 10
-60.2147354531
 20
11.7467041879
 10
-60.1892952734
 20
11.7492295438
  0
LWPOLYLINE
  5
6C8
100
AcDbEntity
  8
ASSI
100
AcDbPolyline
 62
250
  6
CONTINUOUS
 90
3
 70
0
 10
-60.2396452667
 20
11.7409502629
 10
-60.2147354531
 20
11.7467041879
 10
-60.1892952734
 20
11.7492295438
  0
LINE
  5
6C9
100
AcDbEntity
  8
RACCORDO
100
AcDbLine
 62
250
  6
CONTINUOUS
 10
-60.2055276291
 20
11.7495851733
 11
-60.2373411889
 21
11.7434140224
  0
LINE
  5
6CA
100
AcDbEntity
  8
ASSI
100
AcDbLine
 62
250
  6
CONTINUOUS
 10
-60.2055276291
 20
11.7495851733
 11
-60.2373411889
 21
11.7434140224
  0
LINE
  5
6CB
100
AcDbEntity
  8
RACCORDO
100
AcDbLine
 62
250
  6
CONTINUOUS
 10
-58.9357604749
 20
13.7940408821
 11
-47.8834112298
 21
14.1801744116
  0
LINE
  5
6CC
100
AcDbEntity
  8
ASSI
100
AcDbLine
 62
250
  6
CONTINUOUS
 10
-58.9357604749
 20
13.7940408821
 11
-47.8834112298
 21
14.1801744116
  0
LINE
  5
6CD
100
AcDbEntity
  8
RACCORDO
100
AcDbLine
 62
250
  6
CONTINUOUS
 10
-58.9357604749
 20
13.7942178712
 11
-60.3834112298
 21
13.7942178712
  0
LINE
  5
6CE
100
AcDbEntity
  8
ASSI
100
AcDbLine
 62
250
  6
CONTINUOUS
 10
-58.9357604749
 20
13.7942178712
 11
-60.3834112298
 21
13.7942178712
  0
LINE
  5
6CF
100
AcDbEntity
  8
RACCORDO
100
AcDbLine
 62
250
  6
CONTINUOUS
 10
-39.3310619848
 20
13.881519795
 11
-37.8834112298
 21
13.881519795
  0
LINE
  5
6D0
100
AcDbEntity
  8
ASSI
100
AcDbLine
 62
250
  6
CONTINUOUS
 10
-39.3310619848
 20
13.881519795
 11
-37.8834112298
 21
13.881519795
  0
LINE
  5
6D1
100
AcDbEntity
  8
RACCORDO
100
AcDbLine
 62
250
  6
CONTINUOUS
 10
-47.8834112298
 20
14.1801744116
 11
-39.3310619848
 21
13.8813428072
  0
LINE
  5
6D2
100
AcDbEntity
  8
ASSI
100
AcDbLine
 62
250
  6
CONTINUOUS
 10
-47.8834112298
 20
14.1801744116
 11
-39.3310619848
 21
13.8813428072
  0
LINE
  5
6D3
100
AcDbEntity
  8
RACCORDO
100
AcDbLine
 62
7
  6
CONTINUOUS
 10
-58.9357604749
 20
15.7929995253
 11
-47.8834112298
 21
16.1789560656
  0
LINE
  5
6D4
100
AcDbEntity
  8
ASSI
100
AcDbLine
 62
7
  6
CONTINUOUS
 10
-58.9357604749
 20
15.7929995253
 11
-47.8834112298
 21
16.1789560656
  0
LINE
  5
6D5
100
AcDbEntity
  8
RACCORDO
100
AcDbLine
 62
7
  6
CONTINUOUS
 10
-47.8834112298
 20
16.1789560656
 11
-39.3310619848
 21
15.880301449
  0
LINE
  5
6D6
100
AcDbEntity
  8
ASSI
100
AcDbLine
 62
7
  6
CONTINUOUS
 10
-47.8834112298
 20
16.1789560656
 11
-39.3310619848
 21
15.880301449
  0
LWPOLYLINE
  5
6D7
100
AcDbEntity
  8
0
100
AcDbPolyline
 62
7
  6
CONTINUOUS
 90
8
 70
0
 43
0.3500000006
 10
-46.9905563507
 20
25.0098233185
 10
-46.1334093475
 20
25.0098233185
 10
-45.7048403778
 20
25.4383968201
 10
-45.7048403778
 20
26.2955392914
 10
-46.1334093475
 20
26.7241082611
 10
-46.9905563507
 20
26.7241082611
 10
-46.9905563507
 20
28.009824234
 10
-45.7048403778
 20
28.009824234
  0
LWPOLYLINE
  5
6D8
100
AcDbEntity
  8
0
100
AcDbPolyline
 62
7
  6
CONTINUOUS
 90
7
 70
0
 43
0.3500000006
 10
-49.5619837646
 20
25.0098233185
 10
-51.0619842224
 20
25.0098233185
 10
-49.5619837646
 20
27.1526817627
 10
-49.5619837646
 20
27.5812507324
 10
-49.9905527344
 20
28.009824234
 10
-50.6334107208
 20
28.009824234
 10
-51.0619842224
 20
27.3669662476
  0
LWPOLYLINE
  5
6D9
100
AcDbEntity
  8
0
100
AcDbPolyline
 62
7
  6
CONTINUOUS
 90
7
 70
0
 43
0.3500000006
 10
-51.9191266937
 20
25.0098233185
 10
-53.4191271515
 20
25.0098233185
 10
-51.9191266937
 20
27.1526817627
 10
-51.9191266937
 20
27.5812507324
 10
-52.3476956635
 20
28.009824234
 10
-52.9905536499
 20
28.009824234
 10
-53.4191271515
 20
27.3669662476
  0
CIRCLE
  5
6DA
100
AcDbEntity
  8
0
100
AcDbCircle
 62
250
  6
CONTINUOUS
 10
-7.7156490953
 20
-1.0710439344
 40
2.4544822834
  0
CIRCLE
  5
6DB
100
AcDbEntity
  8
ASSI
100
AcDbCircle
 62
250
  6
CONTINUOUS
 10
-7.7156490953
 20
-1.0710439344
 40
2.4544822834
  0
CIRCLE
  5
6DC
100
AcDbEntity
  8
0
100
AcDbCircle
 62
250
  6
CONTINUOUS
 10
-7.7156490953
 20
-1.0710439344
 40
1.955167516
  0
CIRCLE
  5
6DD
100
AcDbEntity
  8
ASSI
100
AcDbCircle
 62
250
  6
CONTINUOUS
 10
-7.7156490953
 20
-1.0710439344
 40
1.955167516
  0
CIRCLE
  5
6DE
100
AcDbEntity
  8
0
100
AcDbCircle
 62
7
  6
CONTINUOUS
 10
-7.7156490953
 20
-1.0710439344
 40
1.9013883311
  0
CIRCLE
  5
6DF
100
AcDbEntity
  8
ASSI
100
AcDbCircle
 62
7
  6
CONTINUOUS
 10
-7.7156490953
 20
-1.0710439344
 40
1.9013883311
  0
CIRCLE
  5
6E0
100
AcDbEntity
  8
0
100
AcDbCircle
 62
250
  6
CONTINUOUS
 10
-7.7156490953
 20
9.4289560656
 40
2.4544822834
  0
CIRCLE
  5
6E1
100
AcDbEntity
  8
ASSI
100
AcDbCircle
 62
250
  6
CONTINUOUS
 10
-7.7156490953
 20
9.4289560656
 40
2.4544822834
  0
CIRCLE
  5
6E2
100
AcDbEntity
  8
0
100
AcDbCircle
 62
250
  6
CONTINUOUS
 10
-7.7156490953
 20
9.4289560656
 40
1.955167516
  0
CIRCLE
  5
6E3
100
AcDbEntity
  8
ASSI
100
AcDbCircle
 62
250
  6
CONTINUOUS
 10
-7.7156490953
 20
9.4289560656
 40
1.955167516
  0
CIRCLE
  5
6E4
100
AcDbEntity
  8
0
100
AcDbCircle
 62
7
  6
CONTINUOUS
 10
-7.7156490953
 20
9.4289560656
 40
1.9013883311
  0
CIRCLE
  5
6E5
100
AcDbEntity
  8
ASSI
100
AcDbCircle
 62
7
  6
CONTINUOUS
 10
-7.7156490953
 20
9.4289560656
 40
1.9013883311
  0
CIRCLE
  5
6E6
100
AcDbEntity
  8
0
100
AcDbCircle
 62
250
  6
CONTINUOUS
 10
-2.7156490953
 20
-1.0710439344
 40
2.4544822834
  0
CIRCLE
  5
6E7
100
AcDbEntity
  8
ASSI
100
AcDbCircle
 62
250
  6
CONTINUOUS
 10
-2.7156490953
 20
-1.0710439344
 40
2.4544822834
  0
CIRCLE
  5
6E8
100
AcDbEntity
  8
0
100
AcDbCircle
 62
250
  6
CONTINUOUS
 10
-2.7156490953
 20
-1.0710439344
 40
1.955167516
  0
CIRCLE
  5
6E9
100
AcDbEntity
  8
ASSI
100
AcDbCircle
 62
250
  6
CONTINUOUS
 10
-2.7156490953
 20
-1.0710439344
 40
1.955167516
  0
CIRCLE
  5
6EA
100
AcDbEntity
  8
0
100
AcDbCircle
 62
7
  6
CONTINUOUS
 10
-2.7156490953
 20
-1.0710439344
 40
1.9013883311
  0
CIRCLE
  5
6EB
100
AcDbEntity
  8
ASSI
100
AcDbCircle
 62
7
  6
CONTINUOUS
 10
-2.7156490953
 20
-1.0710439344
 40
1.9013883311
  0
CIRCLE
  5
6EC
100
AcDbEntity
  8
0
100
AcDbCircle
 62
250
  6
CONTINUOUS
 10
-2.7156490953
 20
9.4289560656
 40
2.4544822834
  0
CIRCLE
  5
6ED
100
AcDbEntity
  8
ASSI
100
AcDbCircle
 62
250
  6
CONTINUOUS
 10
-2.7156490953
 20
9.4289560656
 40
2.4544822834
  0
CIRCLE
  5
6EE
100
AcDbEntity
  8
0
100
AcDbCircle
 62
250
  6
CONTINUOUS
 10
-2.7156490953
 20
9.4289560656
 40
1.955167516
  0
CIRCLE
  5
6EF
100
AcDbEntity
  8
ASSI
100
AcDbCircle
 62
250
  6
CONTINUOUS
 10
-2.7156490953
 20
9.4289560656
 40
1.955167516
  0
CIRCLE
  5
6F0
100
AcDbEntity
  8
0
100
AcDbCircle
 62
7
  6
CONTINUOUS
 10
-2.7156490953
 20
9.4289560656
 40
1.9013883311
  0
CIRCLE
  5
6F1
100
AcDbEntity
  8
ASSI
100
AcDbCircle
 62
7
  6
CONTINUOUS
 10
-2.7156490953
 20
9.4289560656
 40
1.9013883311
  0
CIRCLE
  5
6F2
100
AcDbEntity
  8
DRAFT
100
AcDbCircle
 62
7
  6
CONTINUOUS
 10
-0.2156490953
 20
-12.3210439344
 40
1.5
  0
CIRCLE
  5
6F3
100
AcDbEntity
  8
ASSI
100
AcDbCircle
 62
7
  6
CONTINUOUS
 10
-0.2156490953
 20
-12.3210439344
 40
1.5
  0
CIRCLE
  5
6F4
100
AcDbEntity
  8
DRAFT
100
AcDbCircle
 62
7
  6
CONTINUOUS
 10
-0.2156490953
 20
-12.3210439344
 40
1.4738174026
  0
CIRCLE
  5
6F5
100
AcDbEntity
  8
ASSI
100
AcDbCircle
 62
7
  6
CONTINUOUS
 10
-0.2156490953
 20
-12.3210439344
 40
1.4738174026
  0
CIRCLE
  5
6F6
100
AcDbEntity
  8
0
100
AcDbCircle
 62
250
  6
CONTINUOUS
 10
2.2843509047
 20
-1.0710439344
 40
2.4544822834
  0
CIRCLE
  5
6F7
100
AcDbEntity
  8
ASSI
100
AcDbCircle
 62
250
  6
CONTINUOUS
 10
2.2843509047
 20
-1.0710439344
 40
2.4544822834
  0
CIRCLE
  5
6F8
100
AcDbEntity
  8
0
100
AcDbCircle
 62
250
  6
CONTINUOUS
 10
2.2843509047
 20
-1.0710439344
 40
1.955167516
  0
CIRCLE
  5
6F9
100
AcDbEntity
  8
ASSI
100
AcDbCircle
 62
250
  6
CONTINUOUS
 10
2.2843509047
 20
-1.0710439344
 40
1.955167516
  0
CIRCLE
  5
6FA
100
AcDbEntity
  8
0
100
AcDbCircle
 62
7
  6
CONTINUOUS
 10
2.2843509047
 20
-1.0710439344
 40
1.9013883311
  0
CIRCLE
  5
6FB
100
AcDbEntity
  8
ASSI
100
AcDbCircle
 62
7
  6
CONTINUOUS
 10
2.2843509047
 20
-1.0710439344
 40
1.9013883311
  0
CIRCLE
  5
6FC
100
AcDbEntity
  8
0
100
AcDbCircle
 62
250
  6
CONTINUOUS
 10
2.2843509047
 20
9.4289560656
 40
2.4544822834
  0
CIRCLE
  5
6FD
100
AcDbEntity
  8
ASSI
100
AcDbCircle
 62
250
  6
CONTINUOUS
 10
2.2843509047
 20
9.4289560656
 40
2.4544822834
  0
CIRCLE
  5
6FE
100
AcDbEntity
  8
0
100
AcDbCircle
 62
250
  6
CONTINUOUS
 10
2.2843509047
 20
9.4289560656
 40
1.955167516
  0
CIRCLE
  5
6FF
100
AcDbEntity
  8
ASSI
100
AcDbCircle
 62
250
  6
CONTINUOUS
 10
2.2843509047
 20
9.4289560656
 40
1.955167516
  0
CIRCLE
  5
700
100
AcDbEntity
  8
0
100
AcDbCircle
 62
7
  6
CONTINUOUS
 10
2.2843509047
 20
9.4289560656
 40
1.9013883311
  0
CIRCLE
  5
701
100
AcDbEntity
  8
ASSI
100
AcDbCircle
 62
7
  6
CONTINUOUS
 10
2.2843509047
 20
9.4289560656
 40
1.9013883311
  0
CIRCLE
  5
702
100
AcDbEntity
  8
0
100
AcDbCircle
 62
250
  6
CONTINUOUS
 10
7.2843509047
 20
-1.0710439344
 40
2.4544822834
  0
CIRCLE
  5
703
100
AcDbEntity
  8
ASSI
100
AcDbCircle
 62
250
  6
CONTINUOUS
 10
7.2843509047
 20
-1.0710439344
 40
2.4544822834
  0
CIRCLE
  5
704
100
AcDbEntity
  8
0
100
AcDbCircle
 62
250
  6
CONTINUOUS
 10
7.2843509047
 20
-1.0710439344
 40
1.955167516
  0
CIRCLE
  5
705
100
AcDbEntity
  8
ASSI
100
AcDbCircle
 62
250
  6
CONTINUOUS
 10
7.2843509047
 20
-1.0710439344
 40
1.955167516
  0
CIRCLE
  5
706
100
AcDbEntity
  8
0
100
AcDbCircle
 62
7
  6
CONTINUOUS
 10
7.2843509047
 20
-1.0710439344
 40
1.9013883311
  0
CIRCLE
  5
707
100
AcDbEntity
  8
ASSI
100
AcDbCircle
 62
7
  6
CONTINUOUS
 10
7.2843509047
 20
-1.0710439344
 40
1.9013883311
  0
CIRCLE
  5
708
100
AcDbEntity
  8
0
100
AcDbCircle
 62
250
  6
CONTINUOUS
 10
7.2843509047
 20
9.4289560656
 40
2.4544822834
  0
CIRCLE
  5
709
100
AcDbEntity
  8
ASSI
100
AcDbCircle
 62
250
  6
CONTINUOUS
 10
7.2843509047
 20
9.4289560656
 40
2.4544822834
  0
CIRCLE
  5
70A
100
AcDbEntity
  8
0
100
AcDbCircle
 62
250
  6
CONTINUOUS
 10
7.2843509047
 20
9.4289560656
 40
1.955167516
  0
CIRCLE
  5
70B
100
AcDbEntity
  8
ASSI
100
AcDbCircle
 62
250
  6
CONTINUOUS
 10
7.2843509047
 20
9.4289560656
 40
1.955167516
  0
CIRCLE
  5
70C
100
AcDbEntity
  8
0
100
AcDbCircle
 62
7
  6
CONTINUOUS
 10
7.2843509047
 20
9.4289560656
 40
1.9013883311
  0
CIRCLE
  5
70D
100
AcDbEntity
  8
ASSI
100
AcDbCircle
 62
7
  6
CONTINUOUS
 10
7.2843509047
 20
9.4289560656
 40
1.9013883311
  0
ARC
  5
70E
100
AcDbEntity
  8
RACCORDO
100
AcDbCircle
 62
7
  6
CONTINUOUS
 10
-58.8834112298
 20
-5.9359976547
 40
1.5
100
AcDbArc
 50
180.0001336479
 51
268.0000046642
  0
ARC
  5
70F
100
AcDbEntity
  8
ASSI
100
AcDbCircle
 62
7
  6
CONTINUOUS
 10
-58.8834112298
 20
-5.9360011535
 40
1.5
100
AcDbArc
 50
180.0
 51
268.0
  0
ARC
  5
710
100
AcDbEntity
  8
RACCORDO
100
AcDbCircle
 62
7
  6
CONTINUOUS
 10
-58.8834112298
 20
14.2939097858
 40
1.5
100
AcDbArc
 50
91.9999953358
 51
179.9998663521
  0
ARC
  5
711
100
AcDbEntity
  8
ASSI
100
AcDbCircle
 62
7
  6
CONTINUOUS
 10
-58.8834112298
 20
14.2939132847
 40
1.5
100
AcDbArc
 50
92.0
 51
180.0
  0
ARC
  5
712
100
AcDbEntity
  8
RACCORDO
100
AcDbCircle
 62
7
  6
CONTINUOUS
 10
-39.3834112298
 20
-6.0232999474
 40
1.5
100
AcDbArc
 50
271.9999958277
 51
359.999880449
  0
ARC
  5
713
100
AcDbEntity
  8
ASSI
100
AcDbCircle
 62
7
  6
CONTINUOUS
 10
-39.3834112298
 20
-6.0232999474
 40
1.5
100
AcDbArc
 50
271.9999958277
 51
359.999880449
  0
ARC
  5
714
100
AcDbEntity
  8
RACCORDO
100
AcDbCircle
 62
7
  6
CONTINUOUS
 10
-38.3834112298
 20
-15.9889813437
 40
0.5
100
AcDbArc
 50
271.9999579759
 51
359.9987958271
  0
ARC
  5
715
100
AcDbEntity
  8
ASSI
100
AcDbCircle
 62
7
  6
CONTINUOUS
 10
-38.3834112298
 20
-15.9889918521
 40
0.5
100
AcDbArc
 50
272.0
 51
360.0
  0
ARC
  5
716
100
AcDbEntity
  8
RACCORDO
100
AcDbCircle
 62
7
  6
CONTINUOUS
 10
-42.3834112298
 20
-0.7245840932
 40
3.0
100
AcDbArc
 50
270.9960116278
 51
360.0
  0
ARC
  5
717
100
AcDbEntity
  8
RACCORDO
100
AcDbCircle
 62
7
  6
CONTINUOUS
 10
-42.3834112298
 20
9.0824962244
 40
3.0
100
AcDbArc
 50
0.0
 51
89.0039881376
  0
ARC
  5
718
100
AcDbEntity
  8
ASSI
100
AcDbCircle
 62
7
  6
CONTINUOUS
 10
-42.3834112298
 20
9.0824962244
 40
3.0
100
AcDbArc
 50
0.0
 51
89.0036125503
  0
ARC
  5
719
100
AcDbEntity
  8
ASSI
100
AcDbCircle
 62
7
  6
CONTINUOUS
 10
-42.3834112298
 20
-0.7245840932
 40
3.0
100
AcDbArc
 50
270.9963870941
 51
360.0
  0
ARC
  5
71A
100
AcDbEntity
  8
RACCORDO
100
AcDbCircle
 62
7
  6
CONTINUOUS
 10
-39.3834112298
 20
14.3812120786
 40
1.5
100
AcDbArc
 50
0.0001195509
 51
88.0000041723
  0
ARC
  5
71B
100
AcDbEntity
  8
ASSI
100
AcDbCircle
 62
7
  6
CONTINUOUS
 10
-39.3834112298
 20
14.3812152085
 40
1.5
100
AcDbArc
 50
0.0
 51
88.0
  0
ARC
  5
71C
100
AcDbEntity
  8
RACCORDO
100
AcDbCircle
 62
7
  6
CONTINUOUS
 10
-42.7834112298
 20
8.5898590704
 40
0.5
100
AcDbArc
 50
0.0
 51
89.0
  0
ARC
  5
71D
100
AcDbEntity
  8
RACCORDO
100
AcDbCircle
 62
7
  6
CONTINUOUS
 10
-42.7834112298
 20
-0.2319469392
 40
0.5
100
AcDbArc
 50
271.0
 51
360.0
  0
ARC
  5
71E
100
AcDbEntity
  8
ASSI
100
AcDbCircle
 62
7
  6
CONTINUOUS
 10
-42.7834112298
 20
-0.2319469392
 40
0.5
100
AcDbArc
 50
271.0
 51
360.0
  0
ARC
  5
71F
100
AcDbEntity
  8
ASSI
100
AcDbCircle
 62
7
  6
CONTINUOUS
 10
-42.7834112298
 20
8.5898590704
 40
0.5
100
AcDbArc
 50
0.0
 51
89.0
  0
ARC
  5
720
100
AcDbEntity
  8
RACCORDO
100
AcDbCircle
 62
7
  6
CONTINUOUS
 10
-42.6834112298
 20
-0.0892730698
 40
0.3
100
AcDbArc
 50
272.0
 51
360.0
  0
ARC
  5
721
100
AcDbEntity
  8
RACCORDO
100
AcDbCircle
 62
7
  6
CONTINUOUS
 10
-42.6834112298
 20
8.447185201
 40
0.3
100
AcDbArc
 50
0.0
 51
88.0
  0
ARC
  5
722
100
AcDbEntity
  8
ASSI
100
AcDbCircle
 62
7
  6
CONTINUOUS
 10
-42.6834112298
 20
8.447185201
 40
0.3
100
AcDbArc
 50
0.0
 51
88.0
  0
ARC
  5
723
100
AcDbEntity
  8
ASSI
100
AcDbCircle
 62
7
  6
CONTINUOUS
 10
-42.6834112298
 20
-0.0892730698
 40
0.3
100
AcDbArc
 50
272.0
 51
360.0
  0
ELLIPSE
  5
724
100
AcDbEntity
  8
RACCORDO
100
AcDbEllipse
 62
7
  6
CONTINUOUS
 10
10.2831318161
 20
-5.8198248458
 30
0.0
 11
-1.4159370892
 21
1.4159370892
 31
0.0
 40
0.998782766
 41
2.3568034778
 42
3.9263818294
  0
ELLIPSE
  5
725
100
AcDbEntity
  8
RACCORDO
100
AcDbEllipse
 62
7
  6
CONTINUOUS
 10
10.2831318161
 20
14.177736977
 30
0.0
 11
-1.4159370892
 21
-1.4159370892
 31
0.0
 40
0.998782766
 41
2.3568034778
 42
3.9263818294
  0
ELLIPSE
  5
726
100
AcDbEntity
  8
RACCORDO
100
AcDbEllipse
 62
7
  6
CONTINUOUS
 10
1.4863052755
 20
-14.5229983051
 30
0.0
 11
-1.4159370892
 21
1.4159370892
 31
0.0
 40
0.998782766
 41
2.3568034778
 42
3.9263818294
  0
ELLIPSE
  5
727
100
AcDbEntity
  8
RACCORDO
100
AcDbEllipse
 62
7
  6
CONTINUOUS
 10
-1.917603466
 20
-14.5229983051
 30
0.0
 11
1.4159370892
 21
1.4159370892
 31
0.0
 40
0.998782766
 41
2.3568034778
 42
3.9263818294
  0
ELLIPSE
  5
728
100
AcDbEntity
  8
ASSI
100
AcDbEllipse
 62
7
  6
CONTINUOUS
 10
10.2831318161
 20
-5.8198248458
 30
0.0
 11
-1.4159370892
 21
1.4159370892
 31
0.0
 40
0.998782766
 41
2.3568034778
 42
3.9263818294
  0
ELLIPSE
  5
729
100
AcDbEntity
  8
ASSI
100
AcDbEllipse
 62
7
  6
CONTINUOUS
 10
10.2831318161
 20
14.177736977
 30
0.0
 11
-1.4159370892
 21
-1.4159370892
 31
0.0
 40
0.998782766
 41
2.3568034778
 42
3.9263818294
  0
ELLIPSE
  5
72A
100
AcDbEntity
  8
ASSI
100
AcDbEllipse
 62
7
  6
CONTINUOUS
 10
1.4863052755
 20
-14.5229983051
 30
0.0
 11
-1.4159370892
 21
1.4159370892
 31
0.0
 40
0.998782766
 41
2.3568034778
 42
3.9263818294
  0
ELLIPSE
  5
72B
100
AcDbEntity
  8
ASSI
100
AcDbEllipse
 62
7
  6
CONTINUOUS
 10
-1.917603466
 20
-14.5229983051
 30
0.0
 11
1.4159370892
 21
1.4159370892
 31
0.0
 40
0.998782766
 41
2.3568034778
 42
3.9263818294
  0
ELLIPSE
  5
72C
100
AcDbEntity
  8
0
100
AcDbEllipse
 62
7
  6
CONTINUOUS
 10
-9.9352094166
 20
16.0986382958
 30
0.0
 11
0.2
 21
0.0
 31
0.0
 40
0.0349207695
 41
-3.1066860685
 42
-1.5707963268
  0
ELLIPSE
  5
72D
100
AcDbEntity
  8
0
100
AcDbEllipse
 62
7
  6
CONTINUOUS
 10
-9.9352094166
 20
-7.7407261646
 30
0.0
 11
0.2
 21
0.0
 31
0.0
 40
0.0349207695
 41
1.5707963268
 42
3.1066860685
  0
ELLIPSE
  5
72E
100
AcDbEntity
  8
0
100
AcDbEllipse
 62
7
  6
CONTINUOUS
 10
9.503911226
 20
-7.7407261646
 30
0.0
 11
0.2
 21
0.0
 31
0.0
 40
0.0349207695
 41
0.034906585
 42
1.5707963268
  0
ELLIPSE
  5
72F
100
AcDbEntity
  8
RACCORDO
100
AcDbEllipse
 62
7
  6
CONTINUOUS
 10
10.2831318161
 20
14.177736977
 30
0.0
 11
1.4159370892
 21
1.4159370892
 31
0.0
 40
0.998782766
 41
-0.7847891758
 42
0.7847891758
  0
ELLIPSE
  5
730
100
AcDbEntity
  8
0
100
AcDbEllipse
 62
7
  6
CONTINUOUS
 10
9.503911226
 20
16.0986382958
 30
0.0
 11
0.2
 21
0.0
 31
0.0
 40
0.0349207695
 41
-1.5707963268
 42
-0.034906585
  0
ELLIPSE
  5
731
100
AcDbEntity
  8
RACCORDO
100
AcDbEllipse
 62
7
  6
CONTINUOUS
 10
10.2831318161
 20
-5.8198248458
 30
0.0
 11
1.4159370892
 21
-1.4159370892
 31
0.0
 40
0.998782766
 41
-0.7847891758
 42
0.7847891758
  0
ELLIPSE
  5
732
100
AcDbEntity
  8
RACCORDO
100
AcDbEllipse
 62
7
  6
CONTINUOUS
 10
-10.7144300067
 20
-5.8198248458
 30
0.0
 11
1.4159370892
 21
1.4159370892
 31
0.0
 40
0.998782766
 41
-3.9263818294
 42
-2.3568034778
  0
ELLIPSE
  5
733
100
AcDbEntity
  8
RACCORDO
100
AcDbEllipse
 62
7
  6
CONTINUOUS
 10
-10.7144300067
 20
14.177736977
 30
0.0
 11
1.4159370892
 21
-1.4159370892
 31
0.0
 40
0.998782766
 41
2.3568034778
 42
3.9263818294
  0
ELLIPSE
  5
734
100
AcDbEntity
  8
RACCORDO
100
AcDbEllipse
 62
7
  6
CONTINUOUS
 10
-14.1266282641
 20
-0.2319469392
 30
0.0
 11
-0.0
 21
0.5
 31
0.0
 40
0.0174550649
 41
-3.1241393611
 42
-1.5707963268
  0
ELLIPSE
  5
735
100
AcDbEntity
  8
RACCORDO
100
AcDbEllipse
 62
7
  6
CONTINUOUS
 10
-12.8046699264
 20
-0.2319469392
 30
0.0
 11
0.0
 21
0.5
 31
0.0
 40
0.0174550649
 41
-4.1979151253
 42
-3.1590459461
  0
ELLIPSE
  5
736
100
AcDbEntity
  8
RACCORDO
100
AcDbEllipse
 62
7
  6
CONTINUOUS
 10
-12.8046699264
 20
8.5898590704
 30
0.0
 11
0.0
 21
0.5
 31
0.0
 40
0.0174550649
 41
0.0174532925
 42
1.0563224717
  0
ELLIPSE
  5
737
100
AcDbEntity
  8
RACCORDO
100
AcDbEllipse
 62
7
  6
CONTINUOUS
 10
-14.1266282641
 20
8.5898590704
 30
0.0
 11
-0.0
 21
0.5
 31
0.0
 40
0.0174550649
 41
-1.5707963268
 42
-0.0174532925
  0
ELLIPSE
  5
738
100
AcDbEntity
  8
RACCORDO
100
AcDbEllipse
 62
7
  6
CONTINUOUS
 10
13.6953300736
 20
8.5898590704
 30
0.0
 11
-0.0
 21
0.5
 31
0.0
 40
0.0174550649
 41
0.0174532925
 42
1.5707963268
  0
ELLIPSE
  5
739
100
AcDbEntity
  8
RACCORDO
100
AcDbEllipse
 62
7
  6
CONTINUOUS
 10
12.3733717359
 20
8.5898590704
 30
0.0
 11
0.0
 21
0.5
 31
0.0
 40
0.0174550649
 41
-1.0563224717
 42
-0.0174532925
  0
ELLIPSE
  5
73A
100
AcDbEntity
  8
RACCORDO
100
AcDbEllipse
 62
7
  6
CONTINUOUS
 10
12.3733717359
 20
-0.2319469392
 30
0.0
 11
-0.0
 21
0.5
 31
0.0
 40
0.0174550649
 41
-3.1241393611
 42
-2.0852701819
  0
ELLIPSE
  5
73B
100
AcDbEntity
  8
RACCORDO
100
AcDbEllipse
 62
7
  6
CONTINUOUS
 10
13.6953300736
 20
-0.2319469392
 30
0.0
 11
-0.0
 21
0.5
 31
0.0
 40
0.0174550649
 41
-4.7123889804
 42
-3.1590459461
  0
ELLIPSE
  5
73C
100
AcDbEntity
  8
RACCORDO
100
AcDbEllipse
 62
7
  6
CONTINUOUS
 10
-10.8306063144
 20
9.3709617798
 30
0.0
 11
1.5
 21
-0.0
 31
0.0
 40
0.0174550649
 41
1.5707963268
 42
3.1066860685
  0
ELLIPSE
  5
73D
100
AcDbEntity
  8
RACCORDO
100
AcDbEllipse
 62
7
  6
CONTINUOUS
 10
10.3993081239
 20
-1.0130496486
 30
0.0
 11
1.5
 21
-0.0
 31
0.0
 40
0.0174550649
 41
-1.5707963268
 42
-0.034906585
  0
ELLIPSE
  5
73E
100
AcDbEntity
  8
RACCORDO
100
AcDbEllipse
 62
7
  6
CONTINUOUS
 10
11.4164637365
 20
-1.0043221161
 30
0.0
 11
2.0
 21
-0.0
 31
0.0
 40
0.0174550649
 41
-1.5707963268
 42
-0.034906585
  0
ELLIPSE
  5
73F
100
AcDbEntity
  8
RACCORDO
100
AcDbEllipse
 62
7
  6
CONTINUOUS
 10
11.4164637365
 20
9.3622342473
 30
0.0
 11
2.0
 21
-0.0
 31
0.0
 40
0.0174550649
 41
0.034906585
 42
1.5707963268
  0
ELLIPSE
  5
740
100
AcDbEntity
  8
RACCORDO
100
AcDbEllipse
 62
7
  6
CONTINUOUS
 10
-11.847761927
 20
9.3622342473
 30
0.0
 11
2.0
 21
-0.0
 31
0.0
 40
0.0174550649
 41
1.5707963268
 42
3.1066860685
  0
ELLIPSE
  5
741
100
AcDbEntity
  8
RACCORDO
100
AcDbEllipse
 62
7
  6
CONTINUOUS
 10
-11.847761927
 20
-1.0043221161
 30
0.0
 11
2.0
 21
-0.0
 31
0.0
 40
0.0174550649
 41
-3.1066860685
 42
-1.5707963268
  0
ELLIPSE
  5
742
100
AcDbEntity
  8
ASSI
100
AcDbEllipse
 62
7
  6
CONTINUOUS
 10
10.2831318161
 20
14.177736977
 30
0.0
 11
1.4159370892
 21
1.4159370892
 31
0.0
 40
0.998782766
 41
-0.7847891758
 42
0.7847891758
  0
ELLIPSE
  5
743
100
AcDbEntity
  8
ASSI
100
AcDbEllipse
 62
7
  6
CONTINUOUS
 10
10.2831318161
 20
-5.8198248458
 30
0.0
 11
1.4159370892
 21
-1.4159370892
 31
0.0
 40
0.998782766
 41
-0.7847891758
 42
0.7847891758
  0
ELLIPSE
  5
744
100
AcDbEntity
  8
ASSI
100
AcDbEllipse
 62
7
  6
CONTINUOUS
 10
-10.7144300067
 20
-5.8198248458
 30
0.0
 11
1.4159370892
 21
1.4159370892
 31
0.0
 40
0.998782766
 41
-3.9263818294
 42
-2.3568034778
  0
ELLIPSE
  5
745
100
AcDbEntity
  8
ASSI
100
AcDbEllipse
 62
7
  6
CONTINUOUS
 10
-10.7144300067
 20
14.177736977
 30
0.0
 11
1.4159370892
 21
-1.4159370892
 31
0.0
 40
0.998782766
 41
2.3568034778
 42
3.9263818294
  0
ELLIPSE
  5
746
100
AcDbEntity
  8
ASSI
100
AcDbEllipse
 62
7
  6
CONTINUOUS
 10
13.6953300736
 20
-0.2319469392
 30
0.0
 11
-0.0
 21
0.5
 31
0.0
 40
0.0174550649
 41
-4.7123889804
 42
-3.1590459461
  0
ELLIPSE
  5
747
100
AcDbEntity
  8
ASSI
100
AcDbEllipse
 62
7
  6
CONTINUOUS
 10
12.3733717359
 20
-0.2319469392
 30
0.0
 11
-0.0
 21
0.5
 31
0.0
 40
0.0174550649
 41
-3.1241393611
 42
-2.0852701819
  0
ELLIPSE
  5
748
100
AcDbEntity
  8
ASSI
100
AcDbEllipse
 62
7
  6
CONTINUOUS
 10
12.3733717359
 20
8.5898590704
 30
0.0
 11
0.0
 21
0.5
 31
0.0
 40
0.0174550649
 41
-1.0563224717
 42
-0.0174532925
  0
ELLIPSE
  5
749
100
AcDbEntity
  8
ASSI
100
AcDbEllipse
 62
7
  6
CONTINUOUS
 10
13.6953300736
 20
8.5898590704
 30
0.0
 11
-0.0
 21
0.5
 31
0.0
 40
0.0174550649
 41
0.0174532925
 42
1.5707963268
  0
ELLIPSE
  5
74A
100
AcDbEntity
  8
ASSI
100
AcDbEllipse
 62
7
  6
CONTINUOUS
 10
-14.1266282641
 20
8.5898590704
 30
0.0
 11
-0.0
 21
0.5
 31
0.0
 40
0.0174550649
 41
-1.5707963268
 42
-0.0174532925
  0
ELLIPSE
  5
74B
100
AcDbEntity
  8
ASSI
100
AcDbEllipse
 62
7
  6
CONTINUOUS
 10
-12.8046699264
 20
8.5898590704
 30
0.0
 11
0.0
 21
0.5
 31
0.0
 40
0.0174550649
 41
0.0174532925
 42
1.0563224717
  0
ELLIPSE
  5
74C
100
AcDbEntity
  8
ASSI
100
AcDbEllipse
 62
7
  6
CONTINUOUS
 10
-12.8046699264
 20
-0.2319469392
 30
0.0
 11
0.0
 21
0.5
 31
0.0
 40
0.0174550649
 41
-4.1979151253
 42
-3.1590459461
  0
ELLIPSE
  5
74D
100
AcDbEntity
  8
ASSI
100
AcDbEllipse
 62
7
  6
CONTINUOUS
 10
-14.1266282641
 20
-0.2319469392
 30
0.0
 11
-0.0
 21
0.5
 31
0.0
 40
0.0174550649
 41
-3.1241393611
 42
-1.5707963268
  0
ELLIPSE
  5
74E
100
AcDbEntity
  8
ASSI
100
AcDbEllipse
 62
7
  6
CONTINUOUS
 10
9.503911226
 20
16.0986382958
 30
0.0
 11
0.2
 21
0.0
 31
0.0
 40
0.0349207695
 41
-1.5707963268
 42
-0.034906585
  0
ELLIPSE
  5
74F
100
AcDbEntity
  8
ASSI
100
AcDbEllipse
 62
7
  6
CONTINUOUS
 10
9.503911226
 20
-7.7407261646
 30
0.0
 11
0.2
 21
0.0
 31
0.0
 40
0.0349207695
 41
0.034906585
 42
1.5707963268
  0
ELLIPSE
  5
750
100
AcDbEntity
  8
ASSI
100
AcDbEllipse
 62
7
  6
CONTINUOUS
 10
-9.9352094166
 20
-7.7407261646
 30
0.0
 11
0.2
 21
0.0
 31
0.0
 40
0.0349207695
 41
1.5707963268
 42
3.1066860685
  0
ELLIPSE
  5
751
100
AcDbEntity
  8
ASSI
100
AcDbEllipse
 62
7
  6
CONTINUOUS
 10
-9.9352094166
 20
16.0986382958
 30
0.0
 11
0.2
 21
0.0
 31
0.0
 40
0.0349207695
 41
-3.1066860685
 42
-1.5707963268
  0
ELLIPSE
  5
752
100
AcDbEntity
  8
ASSI
100
AcDbEllipse
 62
7
  6
CONTINUOUS
 10
11.4164637365
 20
-1.0043221161
 30
0.0
 11
2.0
 21
-0.0
 31
0.0
 40
0.0174550649
 41
-1.5707963268
 42
-0.034906585
  0
ELLIPSE
  5
753
100
AcDbEntity
  8
ASSI
100
AcDbEllipse
 62
7
  6
CONTINUOUS
 10
11.4164637365
 20
9.3622342473
 30
0.0
 11
2.0
 21
-0.0
 31
0.0
 40
0.0174550649
 41
0.034906585
 42
1.5707963268
  0
ELLIPSE
  5
754
100
AcDbEntity
  8
ASSI
100
AcDbEllipse
 62
7
  6
CONTINUOUS
 10
-11.847761927
 20
9.3622342473
 30
0.0
 11
2.0
 21
-0.0
 31
0.0
 40
0.0174550649
 41
1.5707963268
 42
3.1066860685
  0
ELLIPSE
  5
755
100
AcDbEntity
  8
ASSI
100
AcDbEllipse
 62
7
  6
CONTINUOUS
 10
-11.847761927
 20
-1.0043221161
 30
0.0
 11
2.0
 21
-0.0
 31
0.0
 40
0.0174550649
 41
-3.1066860685
 42
-1.5707963268
  0
ELLIPSE
  5
756
100
AcDbEntity
  8
ASSI
100
AcDbEllipse
 62
7
  6
CONTINUOUS
 10
10.3993081239
 20
-1.0130496486
 30
0.0
 11
1.5
 21
-0.0
 31
0.0
 40
0.0174550649
 41
-1.5707963268
 42
-0.034906585
  0
ELLIPSE
  5
757
100
AcDbEntity
  8
ASSI
100
AcDbEllipse
 62
7
  6
CONTINUOUS
 10
-10.8306063144
 20
9.3709617798
 30
0.0
 11
1.5
 21
-0.0
 31
0.0
 40
0.0174550649
 41
1.5707963268
 42
3.1066860685
  0
ENDSEC
  0
SECTION
  2
OBJECTS
  0
DICTIONARY
  5
C
100
AcDbDictionary
280
0
281
1
  3
ACAD_GROUP
350
D
  3
ACAD_MLINESTYLE
350
17
  3
ACAD_LAYOUT
350
1A
  3
ACAD_PLOTSETTINGS
350
19
  3
ACAD_PLOTSTYLENAME
350
E
  0
DICTIONARY
  5
D
102
{ACAD_REACTORS
330
C
102
}
100
AcDbDictionary
280
0
281
1
  0
ACDBDICTIONARYWDFLT
  5
E
102
{ACAD_REACTORS
330
C
102
}
100
AcDbDictionary
281
1
  3
Normal
350
F
100
AcDbDictionaryWithDefault
340
F
  0
DICTIONARY
  5
17
102
{ACAD_REACTORS
330
C
102
}
100
AcDbDictionary
280
0
281
1
  3
Standard
350
18
  0
DICTIONARY
  5
19
102
{ACAD_REACTORS
330
C
102
}
100
AcDbDictionary
281
1
  0
DICTIONARY
  5
1A
102
{ACAD_REACTORS
330
C
102
}
100
AcDbDictionary
281
1
  3
Model
350
758
  3
Layout1
350
759
  0
ACDBPLACEHOLDER
  5
F
102
{ACAD_REACTORS
330
E
102
}
  0
MLINESTYLE
  5
18
102
{ACAD_REACTORS
330
17
102
}
100
AcDbMlineStyle
  2
STANDARD
 70
0
  3

 62
256
 51
90.0
 52
90.0
 71
2
 49
0.5
 62
256
  6
BYLAYER
 49
-0.5
 62
256
  6
BYLAYER
  0
LAYOUT
  5
758
102
{ACAD_REACTORS
330
1A
102
}
100
AcDbPlotSettings
  1

  2
none_device
  4
ISO_A4_(297.00_x_210.00_MM)
  6

 40
0.0
 41
0.0
 42
0.0
 43
0.0
 44
297.0
 45
210.0
 46
0.0
 47
0.0
 48
0.0
 49
0.0
140
0.0
141
0.0
142
1.0
143
1.0
 70
1024
 72
1
 73
0
 74
0
  7

 75
0
147
1.0
148
0.0
149
0.0
100
AcDbLayout
  1
Model
 70
0
 71
0
 10
0.0
 20
0.0
 11
297.0
 21
210.0
 12
0.0
 22
0.0
 32
0.0
 14
0.0
 24
0.0
 34
0.0
 15
0.0
 25
0.0
 35
0.0
146
0.0
 13
0.0
 23
0.0
 33
0.0
 16
1.0
 26
0.0
 36
0.0
 17
0.0
 27
1.0
 37
0.0
 76
0
330
228
345
0
346
0
  0
LAYOUT
  5
759
102
{ACAD_REACTORS
330
1A
102
}
100
AcDbPlotSettings
  1

  2
none_device
  4
ISO_A4_(297.00_x_210.00_MM)
  6

 40
0.0
 41
0.0
 42
0.0
 43
0.0
 44
297.0
 45
210.0
 46
0.0
 47
0.0
 48
0.0
 49
0.0
140
0.0
141
0.0
142
1.0
143
1.0
 70
0
 72
1
 73
0
 74
0
  7

 75
0
147
1.0
148
0.0
149
0.0
100
AcDbLayout
  1
Layout1
 70
0
 71
1
 10
0.0
 20
0.0
 11
297.0
 21
210.0
 12
0.0
 22
0.0
 32
0.0
 14
0.0
 24
0.0
 34
0.0
 15
0.0
 25
0.0
 35
0.0
146
0.0
 13
0.0
 23
0.0
 33
0.0
 16
1.0
 26
0.0
 36
0.0
 17
0.0
 27
1.0
 37
0.0
 76
0
330
229
345
0
346
0
  0
ENDSEC
  0
EOF
