  0
SECTION
  2
HEADER
  9
$ACADVER
  1
AC1024
  9
$DWGCODEPAGE
  3
ANSI_1252
  9
$EXTMAX
 10
420.0
 20
297.0
 30
0.0
  9
$EXTMIN
 10
0.0
 20
-0.0
 30
0.0
  9
$LIMMIN
 10
0.0
 20
-0.0
  9
$LIMMAX
 10
420.0
 20
297.0
  9
$VIEWCTR
 10
210.0
 20
148.5
  9
$VIEWSIZE
 40
297.0
  9
$CLAYER
  8
0
  9
$LTSCALE
 40
23.1
  9
$CELTYPE
  6
BYLAYER
  9
$DIMSCALE
 40
1.0
  9
$DIMASZ
 40
3.0
  9
$DIMEXO
 40
0.5
  9
$DIMDLI
 40
15.96
  9
$DIMEXE
 40
1.5
  9
$DIMCEN
 40
3.78
  9
$DIMLFAC
 40
1.0
  9
$DIMBLK
  1
_FILLED
  9
$DIMALT
 70
0
  9
$DIMALTF
 40
0.0393700787
  9
$DIMTXT
 40
3.0
  9
$DIMTOL
 70
1
  9
$DIMLIM
 70
0
  9
$DIMTFAC
 40
1.0
  9
$DIMTP
 40
0.01
  9
$DIMTM
 40
0.01
  9
$DIMGAP
 40
0.625
  9
$DIMDSEP
 70
44
  9
$AUNITS
 70
0
  9
$PDMODE
 70
3
  9
$PDSIZE
 40
3.0
  9
$HANDSEED
  5
467
  9
$TILEMODE
 70
1
  9
$MEASUREMENT
 70
1
  9
$INSUNITS
 70
4
  0
ENDSEC
  0
SECTION
  2
CLASSES
  0
CLASS
  1
ACDBDICTIONARYWDFLT
  2
AcDbDictionaryWithDefault
  3
AutoCAD 2000
 90
0
 91
1
280
0
281
0
  0
CLASS
  1
ACDBPLACEHOLDER
  2
AcDbPlaceHolder
  3
AutoCAD 2000
 90
0
 91
1
280
0
281
0
  0
CLASS
  1
LAYOUT
  2
AcDbLayout
  3
AutoCAD 2000
 90
0
 91
0
280
0
281
0
  0
ENDSEC
  0
SECTION
  2
TABLES
  0
TABLE
  2
VPORT
  5
8
100
AcDbSymbolTable
 70
2
  0
VPORT
  5
1F4
100
AcDbSymbolTableRecord
100
AcDbViewportTableRecord
  2
*ACTIVE
 70
0
 10
0.0
 20
0.0
 11
1.0
 21
1.0
 12
210.0
 22
148.5
 13
0.0
 23
0.0
 14
1.0
 24
1.0
 15
0.0
 25
0.0
 16
0.0
 26
0.0
 36
1.0
 17
0.0
 27
0.0
 37
0.0
 40
297.0
 41
1.4141414141
 42
50.0
 43
0.0
 44
0.0
 50
0.0
 51
0.0
 71
0
 72
100
 73
1
 74
1
 75
0
 76
0
 77
0
 78
0
  0
ENDTAB
  0
TABLE
  2
LTYPE
  5
5
100
AcDbSymbolTable
 70
6
  0
LTYPE
  5
14
100
AcDbSymbolTableRecord
100
AcDbLinetypeTableRecord
  2
BYBLOCK
 70
0
  3

 72
65
 73
0
 40
0.0
  0
LTYPE
  5
15
100
AcDbSymbolTableRecord
100
AcDbLinetypeTableRecord
  2
BYLAYER
 70
0
  3

 72
65
 73
0
 40
0.0
  0
LTYPE
  5
16
100
AcDbSymbolTableRecord
100
AcDbLinetypeTableRecord
  2
CONTINUOUS
 70
64
  3
Solid line
 72
65
 73
0
 40
0.0
  0
LTYPE
  5
1F5
100
AcDbSymbolTableRecord
100
AcDbLinetypeTableRecord
  2
CENTER
 70
64
  3
____ _ ____ _ ____ _ ____ _ ____ _ ____ _ ____
 72
65
 73
4
 40
0.6
 49
0.375
 74
0
 49
-0.075
 74
0
 49
0.075
 74
0
 49
-0.075
 74
0
  0
LTYPE
  5
1F6
100
AcDbSymbolTableRecord
100
AcDbLinetypeTableRecord
  2
HIDDEN
 70
64
  3
- - - - - - - - - - - - - - - - - - - -
 72
65
 73
2
 40
0.2
 49
0.1
 74
0
 49
-0.1
 74
0
  0
LTYPE
  5
1F7
100
AcDbSymbolTableRecord
100
AcDbLinetypeTableRecord
  2
PHANTOM
 70
64
  3
_____ _ _ _____ _ _ _____ _ _ _____
 72
65
 73
6
 40
0.8
 49
0.45
 74
0
 49
-0.05
 74
0
 49
0.1
 74
0
 49
-0.05
 74
0
 49
0.1
 74
0
 49
-0.05
 74
0
  0
LTYPE
  5
1F8
100
AcDbSymbolTableRecord
100
AcDbLinetypeTableRecord
  2
DOT
 70
64
  3
. . . . . . . . . . . . . . . . . . . .
 72
65
 73
2
 40
0.2
 49
0.1
 74
0
 49
-0.1
 74
0
  0
LTYPE
  5
1F9
100
AcDbSymbolTableRecord
100
AcDbLinetypeTableRecord
  2
DASHED
 70
64
  3
- - - - - - - - - - - - - - - - - - - -
 72
65
 73
2
 40
0.2
 49
0.1
 74
0
 49
-0.1
 74
0
  0
ENDTAB
  0
TABLE
  2
LAYER
  5
2
100
AcDbSymbolTable
 70
36
  0
LAYER
  5
10
100
AcDbSymbolTableRecord
100
AcDbLayerTableRecord
  2
0
 70
0
 62
7
  6
CONTINUOUS
370
-3
390
F
  0
LAYER
  5
1FA
100
AcDbSymbolTableRecord
100
AcDbLayerTableRecord
  2
DEFAULT_1
 70
0
 62
7
  6
CENTER
370
-3
390
F
  0
LAYER
  5
1FB
100
AcDbSymbolTableRecord
100
AcDbLayerTableRecord
  2
DEFAULT_2
 70
0
 62
7
  6
HIDDEN
370
-3
390
F
  0
LAYER
  5
1FC
100
AcDbSymbolTableRecord
100
AcDbLayerTableRecord
  2
DEFAULT_3
 70
0
 62
7
  6
PHANTOM
370
-3
390
F
  0
LAYER
  5
1FD
100
AcDbSymbolTableRecord
100
AcDbLayerTableRecord
  2
06___PRT_ALL_SURFS_2
 70
0
 62
7
  6
CONTINUOUS
370
-3
390
F
  0
LAYER
  5
1FE
100
AcDbSymbolTableRecord
100
AcDbLayerTableRecord
  2
06___PRT_ALL_SURFS_3
 70
0
 62
7
  6
CONTINUOUS
370
-3
390
F
  0
LAYER
  5
1FF
100
AcDbSymbolTableRecord
100
AcDbLayerTableRecord
  2
06___PRT_ALL_SURFS_4
 70
0
 62
7
  6
CONTINUOUS
370
-3
390
F
  0
LAYER
  5
200
100
AcDbSymbolTableRecord
100
AcDbLayerTableRecord
  2
0805_C_REF_145000
 70
0
 62
7
  6
CONTINUOUS
370
-3
390
F
  0
LAYER
  5
201
100
AcDbSymbolTableRecord
100
AcDbLayerTableRecord
  2
1206_R_REF_65000
 70
0
 62
7
  6
CONTINUOUS
370
-3
390
F
  0
LAYER
  5
202
100
AcDbSymbolTableRecord
100
AcDbLayerTableRecord
  2
43001104A0
 70
0
 62
7
  6
CONTINUOUS
370
-3
390
F
  0
LAYER
  5
203
100
AcDbSymbolTableRecord
100
AcDbLayerTableRecord
  2
ASSI
 70
0
 62
7
  6
CONTINUOUS
370
-3
390
F
  0
LAYER
  5
204
100
AcDbSymbolTableRecord
100
AcDbLayerTableRecord
  2
CAP-E-6_3-11-2_5_1120000
 70
0
 62
7
  6
CONTINUOUS
370
-3
390
F
  0
LAYER
  5
205
100
AcDbSymbolTableRecord
100
AcDbLayerTableRecord
  2
CN_M_THT_P5_R1_P2_SET_1750000
 70
0
 62
7
  6
CONTINUOUS
370
-3
390
F
  0
LAYER
  5
206
100
AcDbSymbolTableRecord
100
AcDbLayerTableRecord
  2
CN_M_THT_P5_R1_P2_SET_1750000_1
 70
0
 62
7
  6
CONTINUOUS
370
-3
390
F
  0
LAYER
  5
207
100
AcDbSymbolTableRecord
100
AcDbLayerTableRecord
  2
COORDINATE
 70
0
 62
7
  6
CONTINUOUS
370
-3
390
F
  0
LAYER
  5
208
100
AcDbSymbolTableRecord
100
AcDbLayerTableRecord
  2
COPY_PUBLISH
 70
0
 62
7
  6
CONTINUOUS
370
-3
390
F
  0
LAYER
  5
209
100
AcDbSymbolTableRecord
100
AcDbLayerTableRecord
  2
COSMETIC
 70
0
 62
7
  6
CONTINUOUS
370
-3
390
F
  0
LAYER
  5
20A
100
AcDbSymbolTableRecord
100
AcDbLayerTableRecord
  2
COSMETICI
 70
0
 62
7
  6
CONTINUOUS
370
-3
390
F
  0
LAYER
  5
20B
100
AcDbSymbolTableRecord
100
AcDbLayerTableRecord
  2
CURVE
 70
0
 62
7
  6
CONTINUOUS
370
-3
390
F
  0
LAYER
  5
20C
100
AcDbSymbolTableRecord
100
AcDbLayerTableRecord
  2
DRAFT
 70
0
 62
7
  6
CONTINUOUS
370
-3
390
F
  0
LAYER
  5
20D
100
AcDbSymbolTableRecord
100
AcDbLayerTableRecord
  2
GEOMETRIA_SOLIDA
 70
0
 62
7
  6
CONTINUOUS
370
-3
390
F
  0
LAYER
  5
20E
100
AcDbSymbolTableRecord
100
AcDbLayerTableRecord
  2
IMPORT_IGES
 70
0
 62
7
  6
CONTINUOUS
370
-3
390
F
  0
LAYER
  5
20F
100
AcDbSymbolTableRecord
100
AcDbLayerTableRecord
  2
NOTE
 70
0
 62
7
  6
CONTINUOUS
370
-3
390
F
  0
LAYER
  5
210
100
AcDbSymbolTableRecord
100
AcDbLayerTableRecord
  2
PIANI
 70
0
 62
7
  6
CONTINUOUS
370
-3
390
F
  0
LAYER
  5
211
100
AcDbSymbolTableRecord
100
AcDbLayerTableRecord
  2
PUNTI
 70
0
 62
7
  6
CONTINUOUS
370
-3
390
F
  0
LAYER
  5
212
100
AcDbSymbolTableRecord
100
AcDbLayerTableRecord
  2
RACCORDO
 70
0
 62
7
  6
CONTINUOUS
370
-3
390
F
  0
LAYER
  5
213
100
AcDbSymbolTableRecord
100
AcDbLayerTableRecord
  2
SIMBOLI
 70
0
 62
7
  6
CONTINUOUS
370
-3
390
F
  0
LAYER
  5
214
100
AcDbSymbolTableRecord
100
AcDbLayerTableRecord
  2
SMUSSO
 70
0
 62
7
  6
CONTINUOUS
370
-3
390
F
  0
LAYER
  5
215
100
AcDbSymbolTableRecord
100
AcDbLayerTableRecord
  2
SUB_SMA_143000
 70
0
 62
7
  6
CONTINUOUS
370
-3
390
F
  0
LAYER
  5
216
100
AcDbSymbolTableRecord
100
AcDbLayerTableRecord
  2
SUB_SMA_143000_1
 70
0
 62
7
  6
CONTINUOUS
370
-3
390
F
  0
LAYER
  5
217
100
AcDbSymbolTableRecord
100
AcDbLayerTableRecord
  2
SUPERFICI
 70
0
 62
7
  6
CONTINUOUS
370
-3
390
F
  0
LAYER
  5
218
100
AcDbSymbolTableRecord
100
AcDbLayerTableRecord
  2
TRASH
 70
0
 62
7
  6
CONTINUOUS
370
-3
390
F
  0
LAYER
  5
219
100
AcDbSymbolTableRecord
100
AcDbLayerTableRecord
  2
VG_DIP6_SMD_510000
 70
0
 62
7
  6
CONTINUOUS
370
-3
390
F
  0
LAYER
  5
21A
100
AcDbSymbolTableRecord
100
AcDbLayerTableRecord
  2
VG_K_5A_48V_SPDT_1000000
 70
0
 62
7
  6
CONTINUOUS
370
-3
390
F
  0
LAYER
  5
21B
100
AcDbSymbolTableRecord
100
AcDbLayerTableRecord
  2
VG_RES-RAD-5_0-15_0-5_0-0_7_200
 70
0
 62
7
  6
CONTINUOUS
370
-3
390
F
  0
LAYER
  5
21C
100
AcDbSymbolTableRecord
100
AcDbLayerTableRecord
  2
VG_RES-RAD-5_0-15_0-5_0-0_7_2_1
 70
0
 62
7
  6
CONTINUOUS
370
-3
390
F
  0
LAYER
  5
21D
100
AcDbSymbolTableRecord
100
AcDbLayerTableRecord
  2
VG_RES-RAD-5_0-15_0-5_0-0_7_2_2
 70
0
 62
7
  6
CONTINUOUS
370
-3
390
F
  0
LAYER
  5
21E
100
AcDbSymbolTableRecord
100
AcDbLayerTableRecord
  2
VG_RES-RAD-5_0-15_0-5_0-0_7_2_3
 70
0
 62
7
  6
CONTINUOUS
370
-3
390
F
  0
LAYER
  5
21F
100
AcDbSymbolTableRecord
100
AcDbLayerTableRecord
  2
VG_RES-RAD-5_0-15_0-5_0-0_7_2_4
 70
0
 62
7
  6
CONTINUOUS
370
-3
390
F
  0
LAYER
  5
220
100
AcDbSymbolTableRecord
100
AcDbLayerTableRecord
  2
VG_VAR_S05_D7_S4_3_H8_5_850000
 70
0
 62
7
  6
CONTINUOUS
370
-3
390
F
  0
LAYER
  5
221
100
AcDbSymbolTableRecord
100
AcDbLayerTableRecord
  2
VG_VAR_S05_D7_S4_3_H8_5_85000_1
 70
0
 62
7
  6
CONTINUOUS
370
-3
390
F
  0
LAYER
  5
222
100
AcDbSymbolTableRecord
100
AcDbLayerTableRecord
  2
___SHELL
 70
0
 62
7
  6
CONTINUOUS
370
-3
390
F
  0
ENDTAB
  0
TABLE
  2
STYLE
  5
3
100
AcDbSymbolTable
 70
1
  0
STYLE
  5
11
100
AcDbSymbolTableRecord
100
AcDbTextStyleTableRecord
  2
STANDARD
 70
0
 40
0.0
 41
0.8
 50
0.0
 71
0
 42
0.2
  3
txt
  4

  0
STYLE
  5
223
100
AcDbSymbolTableRecord
100
AcDbTextStyleTableRecord
  2
TEXTSTYLE_1
 70
0
 40
0.0
 41
0.8
 50
0.0
 71
0
 42
0.2
  3
gdt
  4

  0
ENDTAB
  0
TABLE
  2
VIEW
  5
6
100
AcDbSymbolTable
 70
0
  0
ENDTAB
  0
TABLE
  2
UCS
  5
7
100
AcDbSymbolTable
 70
0
  0
ENDTAB
  0
TABLE
  2
APPID
  5
9
100
AcDbSymbolTable
 70
1
  0
APPID
  5
224
100
AcDbSymbolTableRecord
100
AcDbRegAppTableRecord
  2
ACAD
 70
0
  0
ENDTAB
  0
TABLE
  2
BLOCK_RECORD
  5
1
100
AcDbSymbolTable
 70
0
  0
BLOCK_RECORD
  5
225
100
AcDbSymbolTableRecord
100
AcDbBlockTableRecord
  2
*Model_Space
  0
BLOCK_RECORD
  5
226
100
AcDbSymbolTableRecord
100
AcDbBlockTableRecord
  2
*Paper_Space
  0
BLOCK_RECORD
  5
227
100
AcDbSymbolTableRecord
100
AcDbBlockTableRecord
  2
_FILLED
  0
BLOCK_RECORD
  5
228
100
AcDbSymbolTableRecord
100
AcDbBlockTableRecord
  2
*D0
  0
BLOCK_RECORD
  5
229
100
AcDbSymbolTableRecord
100
AcDbBlockTableRecord
  2
*D1
  0
BLOCK_RECORD
  5
22A
100
AcDbSymbolTableRecord
100
AcDbBlockTableRecord
  2
*D2
  0
ENDTAB
  0
TABLE
  2
DIMSTYLE
  5
A
100
AcDbSymbolTable
 70
1
100
AcDbDimStyleTable
 71
0
  0
DIMSTYLE
105
22B
100
AcDbSymbolTableRecord
100
AcDbDimStyleTableRecord
  2
STANDARD
 70
0
  3

  4

 40
1.0
 41
3.0
 42
0.5
 43
0.38
 44
1.5
 45
0.0
 46
0.0
 47
0.01
 48
0.01
140
3.0
141
0.0
142
0.0
143
25.4
144
1.0
145
0.0
146
1.0
147
0.625
 71
1
 72
0
 73
0
 74
0
 75
0
 76
0
 77
1
 78
8
 79
2
170
0
171
1
172
0
173
0
174
0
175
0
176
0
177
0
178
0
270
2
179
2
271
2
272
2
273
2
274
2
275
0
280
0
281
0
282
0
283
1
284
8
285
0
286
0
287
3
288
0
340
11
278
44
341
227
342
227
343
227
344
227
  0
DIMSTYLE
105
22C
100
AcDbSymbolTableRecord
100
AcDbDimStyleTableRecord
  2
DIMSTYLE_1
 70
0
  3

  4

 40
1.0
 41
3.0
 42
0.5
 43
0.38
 44
1.5
 45
0.0
 46
0.0
 47
0.0
 48
0.0
140
3.0
141
0.0
142
0.0
143
25.4
144
1.0
145
0.0
146
1.0
147
0.75
 71
0
 72
0
 73
0
 74
0
 75
0
 76
0
 77
1
 78
8
 79
2
170
0
171
1
172
0
173
0
174
0
175
0
176
0
177
0
178
0
270
2
179
2
271
1
272
1
273
2
274
2
275
0
280
0
281
0
282
0
283
1
284
8
285
0
286
0
287
3
288
0
340
11
278
44
341
227
342
227
343
227
344
227
  0
DIMSTYLE
105
22D
100
AcDbSymbolTableRecord
100
AcDbDimStyleTableRecord
  2
DIMSTYLE_2
 70
0
  3

  4

 40
1.0
 41
3.0
 42
0.5
 43
0.38
 44
1.5
 45
0.0
 46
0.0
 47
0.0
 48
0.0
140
3.0
141
0.0
142
0.0
143
25.4
144
1.0
145
0.0
146
1.0
147
0.75
 71
0
 72
0
 73
0
 74
0
 75
0
 76
0
 77
1
 78
8
 79
2
170
0
171
1
172
0
173
0
174
0
175
0
176
0
177
0
178
0
270
2
179
2
271
2
272
2
273
2
274
2
275
0
280
0
281
0
282
0
283
1
284
8
285
0
286
0
287
3
288
0
340
11
278
44
341
227
342
227
343
227
344
227
  0
ENDTAB
  0
ENDSEC
  0
SECTION
  2
BLOCKS
  0
BLOCK
  5
20
100
AcDbEntity
  8
0
100
AcDbBlockBegin
  2
*Model_Space
 70
0
 10
0.0
 20
0.0
 30
0.0
  3
*Model_Space
  1

  0
ENDBLK
  5
21
100
AcDbEntity
  8
0
100
AcDbBlockEnd
  0
BLOCK
  5
1C
100
AcDbEntity
  8
0
100
AcDbBlockBegin
  2
*Paper_Space
 70
0
 10
0.0
 20
0.0
 30
0.0
  3
*Paper_Space
  1

  0
ENDBLK
  5
1D
100
AcDbEntity
  8
0
100
AcDbBlockEnd
  0
BLOCK
  5
22E
100
AcDbEntity
  8
0
100
AcDbBlockBegin
  2
_FILLED
 70
64
 10
0.0
 20
0.0
 30
0.0
  3
_FILLED
  1

  0
SOLID
  5
22F
100
AcDbEntity
  8
0
  6
BYBLOCK
 62
0
100
AcDbTrace
 10
0.0
 20
0.0
 30
0.0
 11
-1.0
 21
0.3166666667
 31
0.0
 12
-1.0
 22
-0.3166666667
 32
0.0
 13
-1.0
 23
-0.3166666667
 33
0.0
  0
ENDBLK
  5
230
100
AcDbEntity
  8
0
  6
BYBLOCK
 62
0
100
AcDbBlockEnd
  0
BLOCK
  5
231
100
AcDbEntity
  8
0
100
AcDbBlockBegin
 62
7
  6
CONTINUOUS
  2
*D0
 70
65
 10
0.0
 20
0.0
 30
0.0
  3
*D0
  1

  0
MTEXT
  5
232
100
AcDbEntity
  8
0
100
AcDbMText
 62
7
  6
CONTINUOUS
  7
STANDARD
 71
2
 72
1
 10
0.0
 20
-33.1432216574
 30
0.0
 11
1.0
 21
0.0
 31
0.0
 73
2
 44
0.9
  1
{\ftxt;\W0.0001;\H0.0001;\~}{\ftxt;\W2.8571428571;\H3.0; }{\ftxt;\W0.0001;\H0.0001;\~}
 40
3.0
 41
12.8571428571
  0
LINE
  5
233
100
AcDbEntity
  8
0
100
AcDbLine
 62
7
  6
CONTINUOUS
 10
-25.2761905771
 20
-18.7147002072
 30
0.0
 11
-25.2761905771
 21
-38.3932216574
 31
0.0
  0
LINE
  5
234
100
AcDbEntity
  8
0
100
AcDbLine
 62
7
  6
CONTINUOUS
 10
25.2761905771
 20
-11.6111311679
 30
0.0
 11
25.2761905771
 21
-38.3932216574
 31
0.0
  0
LINE
  5
235
100
AcDbEntity
  8
0
100
AcDbLine
 62
7
  6
CONTINUOUS
 10
-25.2761905771
 20
-36.8932216574
 30
0.0
 11
0.0
 21
-36.8932216574
 31
0.0
  0
LINE
  5
236
100
AcDbEntity
  8
0
100
AcDbLine
 62
7
  6
CONTINUOUS
 10
25.2761905771
 20
-36.8932216574
 30
0.0
 11
0.0
 21
-36.8932216574
 31
0.0
  0
INSERT
  5
237
100
AcDbEntity
  8
0
100
AcDbBlockReference
 62
7
  6
CONTINUOUS
  2
_FILLED
 10
-25.2761905771
 20
-36.8932216574
 30
0.0
 41
3.0
 42
3.0
 43
3.0
 50
180.0
  0
INSERT
  5
238
100
AcDbEntity
  8
0
100
AcDbBlockReference
 62
7
  6
CONTINUOUS
  2
_FILLED
 10
25.2761905771
 20
-36.8932216574
 30
0.0
 41
3.0
 42
3.0
 43
3.0
  0
ENDBLK
  5
239
100
AcDbEntity
  8
0
  6
BYBLOCK
 62
0
100
AcDbBlockEnd
  0
BLOCK
  5
23A
100
AcDbEntity
  8
0
100
AcDbBlockBegin
 62
7
  6
CONTINUOUS
  2
*D1
 70
65
 10
0.0
 20
0.0
 30
0.0
  3
*D1
  1

  0
MTEXT
  5
23B
100
AcDbEntity
  8
0
100
AcDbMText
 62
7
  6
CONTINUOUS
  7
STANDARD
 71
2
 72
1
 10
35.930714143
 20
0.0
 30
0.0
 11
0.0
 21
1.0
 31
0.0
 73
2
 44
0.9
  1
{\ftxt;\W0.0001;\H0.0001;\~}{\ftxt;\W2.5714285714;\H3.0; }{\ftxt;\W0.0001;\H0.0001;\~}
 40
3.0
 41
11.5714285714
  0
LINE
  5
23C
100
AcDbEntity
  8
0
100
AcDbLine
 62
7
  6
CONTINUOUS
 10
6.1797900773
 20
25.7412804473
 30
0.0
 11
41.180714143
 21
25.7412804473
 31
0.0
  0
LINE
  5
23D
100
AcDbEntity
  8
0
100
AcDbLine
 62
7
  6
CONTINUOUS
 10
21.9762667295
 20
-25.7412804473
 30
0.0
 11
41.180714143
 21
-25.7412804473
 31
0.0
  0
LINE
  5
23E
100
AcDbEntity
  8
0
100
AcDbLine
 62
7
  6
CONTINUOUS
 10
39.680714143
 20
25.7412804473
 30
0.0
 11
39.680714143
 21
0.0
 31
0.0
  0
LINE
  5
23F
100
AcDbEntity
  8
0
100
AcDbLine
 62
7
  6
CONTINUOUS
 10
39.680714143
 20
-25.7412804473
 30
0.0
 11
39.680714143
 21
0.0
 31
0.0
  0
INSERT
  5
240
100
AcDbEntity
  8
0
100
AcDbBlockReference
 62
7
  6
CONTINUOUS
  2
_FILLED
 10
39.680714143
 20
25.7412804473
 30
0.0
 41
3.0
 42
3.0
 43
3.0
 50
90.0
  0
INSERT
  5
241
100
AcDbEntity
  8
0
100
AcDbBlockReference
 62
7
  6
CONTINUOUS
  2
_FILLED
 10
39.680714143
 20
-25.7412804473
 30
0.0
 41
3.0
 42
3.0
 43
3.0
 50
270.0
  0
ENDBLK
  5
242
100
AcDbEntity
  8
0
  6
BYBLOCK
 62
0
100
AcDbBlockEnd
  0
BLOCK
  5
243
100
AcDbEntity
  8
0
100
AcDbBlockBegin
 62
7
  6
CONTINUOUS
  2
*D2
 70
65
 10
0.0
 20
0.0
 30
0.0
  3
*D2
  1

  0
MTEXT
  5
244
100
AcDbEntity
  8
0
100
AcDbMText
 62
7
  6
CONTINUOUS
  7
STANDARD
 71
2
 72
1
 10
-57.84444086
 20
-33.2079323945
 30
0.0
 11
1.0
 21
0.0
 31
0.0
 73
2
 44
0.9
  1
{\ftxt;\W0.0001;\H0.0001;\~}{\ftxt;\W1.5;\H3.0; }{\ftxt;\W0.0001;\H0.0001;\~}
 40
3.0
 41
6.75
  0
LINE
  5
245
100
AcDbEntity
  8
0
100
AcDbLine
 62
7
  6
CONTINUOUS
 10
-45.34444086
 20
2.2412804473
 30
0.0
 11
-45.34444086
 21
-38.4579323945
 31
0.0
  0
LINE
  5
246
100
AcDbEntity
  8
0
100
AcDbLine
 62
7
  6
CONTINUOUS
 10
-70.34444086
 20
-21.7062179778
 30
0.0
 11
-70.34444086
 21
-38.4579323945
 31
0.0
  0
LINE
  5
247
100
AcDbEntity
  8
0
100
AcDbLine
 62
7
  6
CONTINUOUS
 10
-45.34444086
 20
-36.9579323945
 30
0.0
 11
-57.84444086
 21
-36.9579323945
 31
0.0
  0
LINE
  5
248
100
AcDbEntity
  8
0
100
AcDbLine
 62
7
  6
CONTINUOUS
 10
-70.34444086
 20
-36.9579323945
 30
0.0
 11
-57.84444086
 21
-36.9579323945
 31
0.0
  0
INSERT
  5
249
100
AcDbEntity
  8
0
100
AcDbBlockReference
 62
7
  6
CONTINUOUS
  2
_FILLED
 10
-45.34444086
 20
-36.9579323945
 30
0.0
 41
3.0
 42
3.0
 43
3.0
  0
INSERT
  5
24A
100
AcDbEntity
  8
0
100
AcDbBlockReference
 62
7
  6
CONTINUOUS
  2
_FILLED
 10
-70.34444086
 20
-36.9579323945
 30
0.0
 41
3.0
 42
3.0
 43
3.0
 50
180.0
  0
ENDBLK
  5
24B
100
AcDbEntity
  8
0
  6
BYBLOCK
 62
0
100
AcDbBlockEnd
  0
ENDSEC
  0
SECTION
  2
ENTITIES
  0
DIMENSION
  5
24C
100
AcDbEntity
  8
0
100
AcDbDimension
 62
7
  6
CONTINUOUS
  2
*D0
 10
25.2761905771
 20
-36.8932216574
 30
0.0
 11
-0.4285714245
 21
-36.8932216574
 31
0.0
 70
160
 71
2
 72
2
 41
0.9
 42
50.5523811542
  1
{\ftxt;\W0.0001;\H0.0001;\~}{\ftxt;\W2.8571428571;\H3.0; }{\ftxt;\W0.0001;\H0.0001;\~}
  3
DIMSTYLE_1
100
AcDbAlignedDimension
 13
-25.2761905771
 23
-18.2147002072
 33
0.0
 14
25.2761905771
 24
-11.1111311679
 34
0.0
100
AcDbRotatedDimension
  0
DIMENSION
  5
24D
100
AcDbEntity
  8
0
100
AcDbDimension
 62
7
  6
CONTINUOUS
  2
*D1
 10
39.680714143
 20
-25.7412804473
 30
0.0
 11
39.680714143
 21
-0.4285713403
 31
0.0
 70
160
 71
2
 72
2
 41
0.9
 42
51.4825608945
  1
{\ftxt;\W0.0001;\H0.0001;\~}{\ftxt;\W2.5714285714;\H3.0; }{\ftxt;\W0.0001;\H0.0001;\~}
  3
DIMSTYLE_1
100
AcDbAlignedDimension
 13
5.6797900773
 23
25.7412804473
 33
0.0
 14
21.4762667295
 24
-25.7412804473
 34
0.0
 50
270.0
100
AcDbRotatedDimension
  0
DIMENSION
  5
24E
100
AcDbEntity
  8
0
100
AcDbDimension
 62
7
  6
CONTINUOUS
  2
*D2
 10
-70.34444086
 20
-36.9579323945
 30
0.0
 11
-58.2730133057
 21
-36.9579323945
 31
0.0
 70
160
 71
2
 72
2
 41
0.9
 42
25.0
  1
{\ftxt;\W0.0001;\H0.0001;\~}{\ftxt;\W1.5;\H3.0; }{\ftxt;\W0.0001;\H0.0001;\~}
  3
DIMSTYLE_2
100
AcDbAlignedDimension
 13
-45.34444086
 23
2.7412804473
 33
0.0
 14
-70.34444086
 24
-21.2062179778
 34
0.0
 50
180.0
100
AcDbRotatedDimension
  0
LWPOLYLINE
  5
24F
100
AcDbEntity
  8
0
100
AcDbPolyline
 62
7
  6
CONTINUOUS
 90
8
 70
0
 43
0.3499999917
 10
-4.2857142448
 20
-36.1432217789
 10
-3.4285713959
 20
-36.1432217789
 10
-2.9999999714
 20
-35.7146501541
 10
-2.9999999714
 20
-34.8575073051
 10
-3.4285713959
 20
-34.4289360809
 10
-4.2857142448
 20
-34.4289360809
 10
-4.2857142448
 20
-33.1432216072
 10
-2.9999999714
 20
-33.1432216072
  0
LINE
  5
250
100
AcDbEntity
  8
0
100
AcDbLine
 62
7
  6
CONTINUOUS
 10
-14.3436296826
 20
-23.3075269955
 30
0.0
 11
-14.3419423926
 21
-23.309413417
 31
0.0
  0
LINE
  5
251
100
AcDbEntity
  8
RACCORDO
100
AcDbLine
 62
7
  6
CONTINUOUS
 10
-25.2761905771
 20
-18.2147002072
 30
0.0
 11
-25.2761905771
 21
-14.4075012068
 31
0.0
  0
LINE
  5
252
100
AcDbEntity
  8
RACCORDO
100
AcDbLine
 62
7
  6
CONTINUOUS
 10
-13.9238855753
 20
-25.7412804473
 30
0.0
 11
-13.4738551074
 21
-25.7412804473
 31
0.0
  0
LINE
  5
253
100
AcDbEntity
  8
SMUSSO
100
AcDbLine
 62
7
  6
CONTINUOUS
 10
-8.9737637384
 20
-25.7412804473
 30
0.0
 11
-8.4738551074
 21
-25.7412804473
 31
0.0
  0
LINE
  5
254
100
AcDbEntity
  8
SMUSSO
100
AcDbLine
 62
7
  6
CONTINUOUS
 10
-3.9737637384
 20
-25.7412804473
 30
0.0
 11
-3.4738551074
 21
-25.7412804473
 31
0.0
  0
LINE
  5
255
100
AcDbEntity
  8
SMUSSO
100
AcDbLine
 62
7
  6
CONTINUOUS
 10
1.0262362616
 20
-25.7412804473
 30
0.0
 11
1.5261448926
 21
-25.7412804473
 31
0.0
  0
LINE
  5
256
100
AcDbEntity
  8
SMUSSO
100
AcDbLine
 62
7
  6
CONTINUOUS
 10
6.0262362616
 20
-25.7412804473
 30
0.0
 11
6.5261448926
 21
-25.7412804473
 31
0.0
  0
LINE
  5
257
100
AcDbEntity
  8
SMUSSO
100
AcDbLine
 62
7
  6
CONTINUOUS
 10
11.0262362616
 20
-25.7412804473
 30
0.0
 11
11.5261448926
 21
-25.7412804473
 31
0.0
  0
LINE
  5
258
100
AcDbEntity
  8
RACCORDO
100
AcDbLine
 62
7
  6
CONTINUOUS
 10
21.0262362616
 20
-25.7412804473
 30
0.0
 11
21.4762667295
 21
-25.7412804473
 31
0.0
  0
LINE
  5
259
100
AcDbEntity
  8
SMUSSO
100
AcDbLine
 62
7
  6
CONTINUOUS
 10
13.7761905771
 20
-25.6075047968
 30
0.0
 11
18.7761905771
 21
-25.6075047968
 31
0.0
  0
LINE
  5
25A
100
AcDbEntity
  8
SMUSSO
100
AcDbLine
 62
7
  6
CONTINUOUS
 10
13.7761905771
 20
-25.0076875139
 30
0.0
 11
18.7761905771
 21
-25.0076875139
 31
0.0
  0
LINE
  5
25B
100
AcDbEntity
  8
SMUSSO
100
AcDbLine
 62
7
  6
CONTINUOUS
 10
-9.0706053841
 20
-25.6444388016
 30
0.0
 11
-8.9737637384
 21
-25.7412804473
 31
0.0
  0
LINE
  5
25C
100
AcDbEntity
  8
SMUSSO
100
AcDbLine
 62
7
  6
CONTINUOUS
 10
-9.3703769825
 20
-25.0446215187
 30
0.0
 11
-9.2738094229
 21
-25.1411890783
 31
0.0
  0
LINE
  5
25D
100
AcDbEntity
  8
DRAFT
100
AcDbLine
 62
7
  6
CONTINUOUS
 10
-16.2238094229
 20
-20.7722141731
 30
0.0
 11
-16.5030904617
 21
-20.2134818612
 31
0.0
  0
LINE
  5
25E
100
AcDbEntity
  8
DRAFT
100
AcDbLine
 62
7
  6
CONTINUOUS
 10
0.7261905771
 20
-23.4394602758
 30
0.0
 11
1.8261905771
 21
-23.4394602758
 31
0.0
  0
LINE
  5
25F
100
AcDbEntity
  8
DRAFT
100
AcDbLine
 62
7
  6
CONTINUOUS
 10
5.7261905771
 20
-23.4394602758
 30
0.0
 11
6.8261905771
 21
-23.4394602758
 31
0.0
  0
LINE
  5
260
100
AcDbEntity
  8
0
100
AcDbLine
 62
7
  6
CONTINUOUS
 10
-14.2738094229
 20
-23.311100707
 30
0.0
 11
21.8261905771
 21
-23.311100707
 31
0.0
  0
LINE
  5
261
100
AcDbEntity
  8
RACCORDO
100
AcDbLine
 62
250
  6
CONTINUOUS
 10
21.6711835084
 20
-23.2059133681
 30
0.0
 11
-14.1187997421
 21
-23.2059133681
 31
0.0
  0
LINE
  5
262
100
AcDbEntity
  8
RACCORDO
100
AcDbLine
 62
250
  6
CONTINUOUS
 10
21.6713078479
 20
-21.7061418253
 30
0.0
 11
-14.1189266937
 21
-21.7061418253
 31
0.0
  0
LINE
  5
263
100
AcDbEntity
  8
RACCORDO
100
AcDbLine
 62
250
  6
CONTINUOUS
 10
23.6710032382
 20
-21.2062179778
 30
0.0
 11
22.1712316955
 21
-21.2062179778
 31
0.0
  0
LINE
  5
264
100
AcDbEntity
  8
RACCORDO
100
AcDbLine
 62
250
  6
CONTINUOUS
 10
-16.118622084
 20
-21.2062179778
 30
0.0
 11
-14.6188505412
 21
-21.2062179778
 31
0.0
  0
LINE
  5
265
100
AcDbEntity
  8
RACCORDO
100
AcDbLine
 62
7
  6
CONTINUOUS
 10
-23.2774089231
 20
-20.2134818612
 30
0.0
 11
-16.5030904617
 21
-20.2134818612
 31
0.0
  0
LINE
  5
266
100
AcDbEntity
  8
SMUSSO
100
AcDbLine
 62
7
  6
CONTINUOUS
 10
-4.0706053841
 20
-25.6444388016
 30
0.0
 11
-3.9737637384
 21
-25.7412804473
 31
0.0
  0
LINE
  5
267
100
AcDbEntity
  8
SMUSSO
100
AcDbLine
 62
7
  6
CONTINUOUS
 10
-4.3703769825
 20
-25.0446215187
 30
0.0
 11
-4.2738094229
 21
-25.1411890783
 31
0.0
  0
LINE
  5
268
100
AcDbEntity
  8
SMUSSO
100
AcDbLine
 62
7
  6
CONTINUOUS
 10
-9.2738094229
 20
-25.1411890783
 30
0.0
 11
-8.9737637384
 21
-25.7412804473
 31
0.0
  0
LINE
  5
269
100
AcDbEntity
  8
SMUSSO
100
AcDbLine
 62
250
  6
CONTINUOUS
 10
-9.3703769825
 20
-25.0446215187
 30
0.0
 11
-9.0706053841
 21
-25.6444388016
 31
0.0
  0
LINE
  5
26A
100
AcDbEntity
  8
RACCORDO
100
AcDbLine
 62
7
  6
CONTINUOUS
 10
-17.7238094229
 20
4.488929754
 30
0.0
 11
-17.7238094229
 21
1.688899293
 31
0.0
  0
LINE
  5
26B
100
AcDbEntity
  8
RACCORDO
100
AcDbLine
 62
7
  6
CONTINUOUS
 10
-17.7238094229
 20
-8.311100707
 30
0.0
 11
-17.7238094229
 21
-11.1111311679
 31
0.0
  0
LINE
  5
26C
100
AcDbEntity
  8
RACCORDO
100
AcDbLine
 62
7
  6
CONTINUOUS
 10
-17.6278065658
 20
-7.7237492183
 30
0.0
 11
-17.6278065658
 21
1.1015478044
 31
0.0
  0
LINE
  5
26D
100
AcDbEntity
  8
RACCORDO
100
AcDbLine
 62
250
  6
CONTINUOUS
 10
-17.6271973
 20
-8.4077128299
 30
0.0
 11
-17.6271973
 21
-11.0145190451
 31
0.0
  0
LINE
  5
26E
100
AcDbEntity
  8
RACCORDO
100
AcDbLine
 62
250
  6
CONTINUOUS
 10
-17.6271997806
 20
4.3923201117
 30
0.0
 11
-17.6271973
 21
1.7855114159
 31
0.0
  0
LINE
  5
26F
100
AcDbEntity
  8
DRAFT
100
AcDbLine
 62
7
  6
CONTINUOUS
 10
-17.3764080031
 20
1.3414978732
 30
0.0
 11
-17.3764080031
 21
-7.9636992872
 31
0.0
  0
LINE
  5
270
100
AcDbEntity
  8
RACCORDO
100
AcDbLine
 62
7
  6
CONTINUOUS
 10
-17.7238094229
 20
-8.311100707
 30
0.0
 11
-17.6271973
 21
-8.4077128299
 31
0.0
  0
LINE
  5
271
100
AcDbEntity
  8
SMUSSO
100
AcDbLine
 62
7
  6
CONTINUOUS
 10
0.9293946159
 20
-25.6444388016
 30
0.0
 11
1.0262362616
 21
-25.7412804473
 31
0.0
  0
LINE
  5
272
100
AcDbEntity
  8
RACCORDO
100
AcDbLine
 62
7
  6
CONTINUOUS
 10
-16.311237064
 20
-8.2236730659
 30
0.0
 11
-16.2238094229
 21
-8.311100707
 31
0.0
  0
LINE
  5
273
100
AcDbEntity
  8
SMUSSO
100
AcDbLine
 62
7
  6
CONTINUOUS
 10
0.6296230175
 20
-25.0446215187
 30
0.0
 11
0.7261905771
 21
-25.1411890783
 31
0.0
  0
LINE
  5
274
100
AcDbEntity
  8
RACCORDO
100
AcDbLine
 62
250
  6
CONTINUOUS
 10
-15.6425062899
 20
4.5625918745
 30
0.0
 11
-15.6275019096
 21
4.3644748328
 31
0.0
  0
LINE
  5
275
100
AcDbEntity
  8
DRAFT
100
AcDbLine
 62
7
  6
CONTINUOUS
 10
-16.5030904617
 20
-20.2134818612
 30
0.0
 11
-16.5030904617
 21
-12.4087195527
 31
0.0
  0
LINE
  5
276
100
AcDbEntity
  8
RACCORDO
100
AcDbLine
 62
7
  6
CONTINUOUS
 10
-16.2238094229
 20
-21.3114053167
 30
0.0
 11
-16.2238094229
 21
-11.511070246
 31
0.0
  0
LINE
  5
277
100
AcDbEntity
  8
DRAFT
100
AcDbLine
 62
7
  6
CONTINUOUS
 10
-16.2238094229
 20
-20.7722141731
 30
0.0
 11
-16.2238094229
 21
-11.511070246
 31
0.0
  0
LINE
  5
278
100
AcDbEntity
  8
RACCORDO
100
AcDbLine
 62
7
  6
CONTINUOUS
 10
-16.2238094229
 20
-8.4158310965
 30
0.0
 11
-16.2238094229
 21
1.7936296826
 31
0.0
  0
LINE
  5
279
100
AcDbEntity
  8
RACCORDO
100
AcDbLine
 62
7
  6
CONTINUOUS
 10
-16.2238094229
 20
4.8888688321
 30
0.0
 11
-16.2238094229
 21
14.6892039027
 31
0.0
  0
LINE
  5
27A
100
AcDbEntity
  8
RACCORDO
100
AcDbLine
 62
250
  6
CONTINUOUS
 10
-16.118622084
 20
-21.2060936383
 30
0.0
 11
-16.1186245201
 21
-11.4058853432
 31
0.0
  0
LINE
  5
27B
100
AcDbEntity
  8
RACCORDO
100
AcDbLine
 62
250
  6
CONTINUOUS
 10
-16.1186248883
 20
4.7836842974
 30
0.0
 11
-16.118622084
 21
14.5838896122
 31
0.0
  0
LINE
  5
27C
100
AcDbEntity
  8
RACCORDO
100
AcDbLine
 62
250
  6
CONTINUOUS
 10
-15.6275019097
 20
-8.4420136939
 30
0.0
 11
-15.6274542999
 21
-10.9866824075
 31
0.0
  0
LINE
  5
27D
100
AcDbEntity
  8
RACCORDO
100
AcDbLine
 62
250
  6
CONTINUOUS
 10
-15.6274559747
 20
4.3644805953
 30
0.0
 11
-15.6275019097
 21
1.81981228
 31
0.0
  0
LINE
  5
27E
100
AcDbEntity
  8
RACCORDO
100
AcDbLine
 62
250
  6
CONTINUOUS
 10
-14.7238094229
 20
-8.4420136939
 30
0.0
 11
-14.7238094229
 21
1.81981228
 31
0.0
  0
LINE
  5
27F
100
AcDbEntity
  8
RACCORDO
100
AcDbLine
 62
250
  6
CONTINUOUS
 10
-14.6189460876
 20
4.7544730853
 30
0.0
 11
-14.6188505412
 21
14.5840165638
 31
0.0
  0
LINE
  5
280
100
AcDbEntity
  8
RACCORDO
100
AcDbLine
 62
250
  6
CONTINUOUS
 10
-14.6188505412
 20
-21.2062179778
 30
0.0
 11
-14.6189151498
 21
-11.3766917813
 31
0.0
  0
LINE
  5
281
100
AcDbEntity
  8
RACCORDO
100
AcDbLine
 62
7
  6
CONTINUOUS
 10
-14.4238094229
 20
-23.3905761848
 30
0.0
 11
-14.4238094229
 21
-25.2413565997
 31
0.0
  0
LINE
  5
282
100
AcDbEntity
  8
RACCORDO
100
AcDbLine
 62
250
  6
CONTINUOUS
 10
-14.1189266937
 20
16.5837119541
 30
0.0
 11
-14.1189266937
 21
15.0839404114
 31
0.0
  0
LINE
  5
283
100
AcDbEntity
  8
RACCORDO
100
AcDbLine
 62
250
  6
CONTINUOUS
 10
-14.1189266937
 20
-23.2059133681
 30
0.0
 11
-14.1189266937
 21
-21.7061418253
 31
0.0
  0
LINE
  5
284
100
AcDbEntity
  8
RACCORDO
100
AcDbLine
 62
250
  6
CONTINUOUS
 10
-15.6425051821
 20
-11.1847930888
 30
0.0
 11
-15.6275019097
 21
-10.9866764563
 31
0.0
  0
LINE
  5
285
100
AcDbEntity
  8
DRAFT
100
AcDbLine
 62
7
  6
CONTINUOUS
 10
-0.1261905771
 20
16.8285398125
 30
0.0
 11
-0.4055567331
 21
16.688899293
 31
0.0
  0
LINE
  5
286
100
AcDbEntity
  8
DRAFT
100
AcDbLine
 62
7
  6
CONTINUOUS
 10
0.6296230175
 20
-23.3428927162
 30
0.0
 11
0.7261905771
 21
-23.4394602758
 31
0.0
  0
LWPOLYLINE
  5
287
100
AcDbEntity
  8
0
100
AcDbPolyline
 62
7
  6
CONTINUOUS
 90
10
 70
0
 43
0.3499999917
 10
0.857142849
 20
-35.643221283
 10
0.9285714197
 20
-35.7860790253
 10
0.9285714197
 20
-35.8575070953
 10
0.7857142782
 20
-36.0003648376
 10
0.7142857075
 20
-36.0003648376
 10
0.6428571367
 20
-35.9289359665
 10
0.6428571367
 20
-35.8575070953
 10
0.7142857075
 20
-35.7146501541
 10
0.7857142782
 20
-35.643221283
 10
0.857142849
 20
-35.643221283
  0
LINE
  5
288
100
AcDbEntity
  8
SMUSSO
100
AcDbLine
 62
7
  6
CONTINUOUS
 10
-4.2738094229
 20
-25.1411890783
 30
0.0
 11
-3.9737637384
 21
-25.7412804473
 31
0.0
  0
LINE
  5
289
100
AcDbEntity
  8
SMUSSO
100
AcDbLine
 62
250
  6
CONTINUOUS
 10
-4.3703769825
 20
-25.0446215187
 30
0.0
 11
-4.0706053841
 21
-25.6444388016
 31
0.0
  0
LINE
  5
28A
100
AcDbEntity
  8
SMUSSO
100
AcDbLine
 62
7
  6
CONTINUOUS
 10
-13.1738094229
 20
-25.1411890783
 30
0.0
 11
-13.1738094229
 21
-23.311100707
 31
0.0
  0
LINE
  5
28B
100
AcDbEntity
  8
SMUSSO
100
AcDbLine
 62
250
  6
CONTINUOUS
 10
-13.0772418633
 20
-25.0446215187
 30
0.0
 11
-13.0772418633
 21
-23.311100707
 31
0.0
  0
LINE
  5
28C
100
AcDbEntity
  8
RACCORDO
100
AcDbLine
 62
7
  6
CONTINUOUS
 10
-17.7238094229
 20
1.688899293
 30
0.0
 11
-17.6271973
 21
1.7855114159
 31
0.0
  0
LINE
  5
28D
100
AcDbEntity
  8
RACCORDO
100
AcDbLine
 62
7
  6
CONTINUOUS
 10
-16.311237064
 20
1.6014716519
 30
0.0
 11
-16.2238094229
 21
1.688899293
 31
0.0
  0
LINE
  5
28E
100
AcDbEntity
  8
RACCORDO
100
AcDbLine
 62
7
  6
CONTINUOUS
 10
-16.5030904617
 20
-12.4087195527
 30
0.0
 11
-23.2774089231
 21
-12.4087195527
 31
0.0
  0
LINE
  5
28F
100
AcDbEntity
  8
SMUSSO
100
AcDbLine
 62
7
  6
CONTINUOUS
 10
5.9293946159
 20
-25.6444388016
 30
0.0
 11
6.0262362616
 21
-25.7412804473
 31
0.0
  0
LINE
  5
290
100
AcDbEntity
  8
SMUSSO
100
AcDbLine
 62
7
  6
CONTINUOUS
 10
5.6296230175
 20
-25.0446215187
 30
0.0
 11
5.7261905771
 21
-25.1411890783
 31
0.0
  0
LINE
  5
291
100
AcDbEntity
  8
DRAFT
100
AcDbLine
 62
7
  6
CONTINUOUS
 10
5.6296230175
 20
-23.3428927162
 30
0.0
 11
5.7261905771
 21
-23.4394602758
 31
0.0
  0
LINE
  5
292
100
AcDbEntity
  8
SMUSSO
100
AcDbLine
 62
250
  6
CONTINUOUS
 10
-9.3703769825
 20
-25.0446215187
 30
0.0
 11
-9.3703769825
 21
-23.311100707
 31
0.0
  0
LINE
  5
293
100
AcDbEntity
  8
0
100
AcDbLine
 62
7
  6
CONTINUOUS
 10
24.9287891573
 20
-7.9636992872
 30
0.0
 11
23.7761905771
 21
-8.0683240448
 31
0.0
  0
LINE
  5
294
100
AcDbEntity
  8
RACCORDO
100
AcDbLine
 62
7
  6
CONTINUOUS
 10
-17.5238398838
 20
-11.311100707
 30
0.0
 11
-16.4237789619
 21
-11.311100707
 31
0.0
  0
LINE
  5
295
100
AcDbEntity
  8
RACCORDO
100
AcDbLine
 62
7
  6
CONTINUOUS
 10
23.9761601162
 20
-11.311100707
 30
0.0
 11
25.0762210381
 21
-11.311100707
 31
0.0
  0
LINE
  5
296
100
AcDbEntity
  8
0
100
AcDbLine
 62
7
  6
CONTINUOUS
 10
-17.3764080031
 20
-7.9636992872
 30
0.0
 11
-16.2238094229
 21
-8.0683240448
 31
0.0
  0
LINE
  5
297
100
AcDbEntity
  8
RACCORDO
100
AcDbLine
 62
7
  6
CONTINUOUS
 10
-17.6363817818
 20
1.6014716519
 30
0.0
 11
-17.7238094229
 21
1.688899293
 31
0.0
  0
LINE
  5
298
100
AcDbEntity
  8
SMUSSO
100
AcDbLine
 62
7
  6
CONTINUOUS
 10
10.9293946159
 20
-25.6444388016
 30
0.0
 11
11.0262362616
 21
-25.7412804473
 31
0.0
  0
LINE
  5
299
100
AcDbEntity
  8
SMUSSO
100
AcDbLine
 62
7
  6
CONTINUOUS
 10
10.6296230175
 20
-25.0446215187
 30
0.0
 11
10.7261905771
 21
-25.1411890783
 31
0.0
  0
LINE
  5
29A
100
AcDbEntity
  8
RACCORDO
100
AcDbLine
 62
250
  6
CONTINUOUS
 10
-17.6271997806
 20
4.3923201117
 30
0.0
 11
-17.7238094229
 21
4.488929754
 31
0.0
  0
LINE
  5
29B
100
AcDbEntity
  8
SMUSSO
100
AcDbLine
 62
7
  6
CONTINUOUS
 10
0.7261905771
 20
-25.1411890783
 30
0.0
 11
1.0262362616
 21
-25.7412804473
 31
0.0
  0
LINE
  5
29C
100
AcDbEntity
  8
SMUSSO
100
AcDbLine
 62
250
  6
CONTINUOUS
 10
0.6296230175
 20
-25.0446215187
 30
0.0
 11
0.9293946159
 21
-25.6444388016
 31
0.0
  0
LINE
  5
29D
100
AcDbEntity
  8
SMUSSO
100
AcDbLine
 62
7
  6
CONTINUOUS
 10
-9.2738094229
 20
-25.1411890783
 30
0.0
 11
-9.2738094229
 21
-23.311100707
 31
0.0
  0
LINE
  5
29E
100
AcDbEntity
  8
SMUSSO
100
AcDbLine
 62
7
  6
CONTINUOUS
 10
-8.1738094229
 20
-25.1411890783
 30
0.0
 11
-8.1738094229
 21
-23.311100707
 31
0.0
  0
LINE
  5
29F
100
AcDbEntity
  8
SMUSSO
100
AcDbLine
 62
250
  6
CONTINUOUS
 10
-8.0772418633
 20
-25.0446215187
 30
0.0
 11
-8.0772418633
 21
-23.311100707
 31
0.0
  0
LINE
  5
2A0
100
AcDbEntity
  8
DRAFT
100
AcDbLine
 62
7
  6
CONTINUOUS
 10
-16.2238094229
 20
-11.8499872409
 30
0.0
 11
-16.5030904617
 21
-12.4087195527
 31
0.0
  0
LINE
  5
2A1
100
AcDbEntity
  8
DRAFT
100
AcDbLine
 62
7
  6
CONTINUOUS
 10
16.2695819711
 20
16.7412644878
 30
0.0
 11
16.1648196627
 21
16.688899293
 31
0.0
  0
LINE
  5
2A2
100
AcDbEntity
  8
RACCORDO
100
AcDbLine
 62
7
  6
CONTINUOUS
 10
23.1798830639
 20
-8.4420136939
 30
0.0
 11
22.2761905771
 21
-8.4420136939
 31
0.0
  0
LINE
  5
2A3
100
AcDbEntity
  8
RACCORDO
100
AcDbLine
 62
7
  6
CONTINUOUS
 10
-14.7238094229
 20
-8.4420136939
 30
0.0
 11
-15.6275019097
 21
-8.4420136939
 31
0.0
  0
LINE
  5
2A4
100
AcDbEntity
  8
RACCORDO
100
AcDbLine
 62
250
  6
CONTINUOUS
 10
25.188762936
 20
-8.2236730659
 30
0.0
 11
23.8636182182
 21
-8.2236730659
 31
0.0
  0
LINE
  5
2A5
100
AcDbEntity
  8
RACCORDO
100
AcDbLine
 62
250
  6
CONTINUOUS
 10
-16.311237064
 20
-8.2236730659
 30
0.0
 11
-17.6363817818
 21
-8.2236730659
 31
0.0
  0
LINE
  5
2A6
100
AcDbEntity
  8
RACCORDO
100
AcDbLine
 62
250
  6
CONTINUOUS
 10
25.18018772
 20
-7.7237492183
 30
0.0
 11
24.9287891573
 21
-7.7237492183
 31
0.0
  0
LINE
  5
2A7
100
AcDbEntity
  8
RACCORDO
100
AcDbLine
 62
250
  6
CONTINUOUS
 10
-17.3764080031
 20
-7.7237492183
 30
0.0
 11
-17.6278065658
 21
-7.7237492183
 31
0.0
  0
LINE
  5
2A8
100
AcDbEntity
  8
RACCORDO
100
AcDbLine
 62
250
  6
CONTINUOUS
 10
-17.427227761
 20
4.5922871701
 30
0.0
 11
-17.5238398838
 21
4.688899293
 31
0.0
  0
LINE
  5
2A9
100
AcDbEntity
  8
RACCORDO
100
AcDbLine
 62
250
  6
CONTINUOUS
 10
-16.318591623
 20
4.5837119541
 30
0.0
 11
-16.4237789619
 21
4.688899293
 31
0.0
  0
LINE
  5
2AA
100
AcDbEntity
  8
RACCORDO
100
AcDbLine
 62
250
  6
CONTINUOUS
 10
-16.1186248883
 20
4.7836842974
 30
0.0
 11
-16.2238094229
 21
4.8888688321
 31
0.0
  0
LINE
  5
2AB
100
AcDbEntity
  8
RACCORDO
100
AcDbLine
 62
7
  6
CONTINUOUS
 10
-17.6363817818
 20
-8.2236730659
 30
0.0
 11
-17.7238094229
 21
-8.311100707
 31
0.0
  0
LINE
  5
2AC
100
AcDbEntity
  8
RACCORDO
100
AcDbLine
 62
250
  6
CONTINUOUS
 10
-17.6271973
 20
-11.0145190451
 30
0.0
 11
-17.7238094229
 21
-11.1111311679
 31
0.0
  0
LINE
  5
2AD
100
AcDbEntity
  8
SMUSSO
100
AcDbLine
 62
7
  6
CONTINUOUS
 10
5.7261905771
 20
-25.1411890783
 30
0.0
 11
6.0262362616
 21
-25.7412804473
 31
0.0
  0
LINE
  5
2AE
100
AcDbEntity
  8
SMUSSO
100
AcDbLine
 62
250
  6
CONTINUOUS
 10
5.6296230175
 20
-25.0446215187
 30
0.0
 11
5.9293946159
 21
-25.6444388016
 31
0.0
  0
LINE
  5
2AF
100
AcDbEntity
  8
SMUSSO
100
AcDbLine
 62
250
  6
CONTINUOUS
 10
-4.3703769825
 20
-25.0446215187
 30
0.0
 11
-4.3703769825
 21
-23.311100707
 31
0.0
  0
LINE
  5
2B0
100
AcDbEntity
  8
SMUSSO
100
AcDbLine
 62
7
  6
CONTINUOUS
 10
-4.2738094229
 20
-25.1411890783
 30
0.0
 11
-4.2738094229
 21
-23.311100707
 31
0.0
  0
LINE
  5
2B1
100
AcDbEntity
  8
SMUSSO
100
AcDbLine
 62
7
  6
CONTINUOUS
 10
-3.1738094229
 20
-25.1411890783
 30
0.0
 11
-3.1738094229
 21
-23.311100707
 31
0.0
  0
LINE
  5
2B2
100
AcDbEntity
  8
SMUSSO
100
AcDbLine
 62
250
  6
CONTINUOUS
 10
-3.0772418633
 20
-25.0446215187
 30
0.0
 11
-3.0772418633
 21
-23.311100707
 31
0.0
  0
LWPOLYLINE
  5
2B3
100
AcDbEntity
  8
0
100
AcDbPolyline
 62
7
  6
CONTINUOUS
 90
13
 70
0
 43
0.3499999917
 10
-2.1428571224
 20
-35.2860789299
 10
-2.1428571224
 20
-34.0003644562
 10
-1.9285715103
 20
-33.571793232
 10
-1.4999999857
 20
-33.1432216072
 10
-1.2857142735
 20
-33.1432216072
 10
-0.857142849
 20
-33.571793232
 10
-0.6428571367
 20
-34.0003644562
 10
-0.6428571367
 20
-35.2860789299
 10
-0.857142849
 20
-35.7146501541
 10
-1.2857142735
 20
-36.1432217789
 10
-1.4999999857
 20
-36.1432217789
 10
-1.9285715103
 20
-35.7146501541
 10
-2.1428571224
 20
-35.2860789299
  0
LINE
  5
2B4
100
AcDbEntity
  8
RACCORDO
100
AcDbLine
 62
250
  6
CONTINUOUS
 10
-17.427227761
 20
-11.2144885841
 30
0.0
 11
-17.5238398838
 21
-11.311100707
 31
0.0
  0
LINE
  5
2B5
100
AcDbEntity
  8
RACCORDO
100
AcDbLine
 62
250
  6
CONTINUOUS
 10
-16.4237789619
 20
-11.311100707
 30
0.0
 11
-16.318591623
 21
-11.2059133681
 31
0.0
  0
LINE
  5
2B6
100
AcDbEntity
  8
RACCORDO
100
AcDbLine
 62
250
  6
CONTINUOUS
 10
-16.2238094229
 20
-11.511070246
 30
0.0
 11
-16.1186245201
 21
-11.4058853432
 31
0.0
  0
LINE
  5
2B7
100
AcDbEntity
  8
SMUSSO
100
AcDbLine
 62
7
  6
CONTINUOUS
 10
20.9293946159
 20
-25.6444388016
 30
0.0
 11
21.0262362616
 21
-25.7412804473
 31
0.0
  0
LINE
  5
2B8
100
AcDbEntity
  8
SMUSSO
100
AcDbLine
 62
7
  6
CONTINUOUS
 10
20.6296230175
 20
-25.0446215187
 30
0.0
 11
20.7261905771
 21
-25.1411890783
 31
0.0
  0
LINE
  5
2B9
100
AcDbEntity
  8
RACCORDO
100
AcDbLine
 62
7
  6
CONTINUOUS
 10
-0.1261905771
 20
23.7424987932
 30
0.0
 11
-0.1261905771
 21
16.8285398125
 31
0.0
  0
LINE
  5
2BA
100
AcDbEntity
  8
SMUSSO
100
AcDbLine
 62
250
  6
CONTINUOUS
 10
-13.0772418633
 20
-25.0446215187
 30
0.0
 11
-13.3770134615
 21
-25.6444387991
 31
0.0
  0
LINE
  5
2BB
100
AcDbEntity
  8
SMUSSO
100
AcDbLine
 62
7
  6
CONTINUOUS
 10
-13.4738551074
 20
-25.7412804473
 30
0.0
 11
-13.1738094229
 21
-25.1411890783
 31
0.0
  0
LINE
  5
2BC
100
AcDbEntity
  8
0
100
AcDbLine
 62
250
  6
CONTINUOUS
 10
21.6711835084
 20
-23.2059133681
 30
0.0
 11
21.7590401219
 21
-23.293645642
 31
0.0
  0
LINE
  5
2BD
100
AcDbEntity
  8
RACCORDO
100
AcDbLine
 62
7
  6
CONTINUOUS
 10
22.0457784804
 20
-23.2926275254
 30
0.0
 11
22.0460108368
 21
-23.2928598818
 31
0.0
  0
LINE
  5
2BE
100
AcDbEntity
  8
RACCORDO
100
AcDbLine
 62
250
  6
CONTINUOUS
 10
-16.118622084
 20
14.5838896122
 30
0.0
 11
-16.2238094229
 21
14.6892039027
 31
0.0
  0
LINE
  5
2BF
100
AcDbEntity
  8
SMUSSO
100
AcDbLine
 62
7
  6
CONTINUOUS
 10
10.7261905771
 20
-25.1411890783
 30
0.0
 11
11.0262362616
 21
-25.7412804473
 31
0.0
  0
LINE
  5
2C0
100
AcDbEntity
  8
SMUSSO
100
AcDbLine
 62
250
  6
CONTINUOUS
 10
10.6296230175
 20
-25.0446215187
 30
0.0
 11
10.9293946159
 21
-25.6444388016
 31
0.0
  0
LINE
  5
2C1
100
AcDbEntity
  8
SMUSSO
100
AcDbLine
 62
250
  6
CONTINUOUS
 10
0.6296230175
 20
-25.0446215187
 30
0.0
 11
0.6296230175
 21
-23.3428927162
 31
0.0
  0
LINE
  5
2C2
100
AcDbEntity
  8
SMUSSO
100
AcDbLine
 62
7
  6
CONTINUOUS
 10
0.7261905771
 20
-25.1411890783
 30
0.0
 11
0.7261905771
 21
-23.4394602758
 31
0.0
  0
LINE
  5
2C3
100
AcDbEntity
  8
SMUSSO
100
AcDbLine
 62
7
  6
CONTINUOUS
 10
1.8261905771
 20
-25.1411890783
 30
0.0
 11
1.8261905771
 21
-23.4394602758
 31
0.0
  0
LINE
  5
2C4
100
AcDbEntity
  8
SMUSSO
100
AcDbLine
 62
250
  6
CONTINUOUS
 10
1.9227581367
 20
-25.0446215187
 30
0.0
 11
1.9227581367
 21
-23.3428927162
 31
0.0
  0
LINE
  5
2C5
100
AcDbEntity
  8
RACCORDO
100
AcDbLine
 62
250
  6
CONTINUOUS
 10
-17.6278065658
 20
1.1015478044
 30
0.0
 11
-17.3764080031
 21
1.1015478044
 31
0.0
  0
LINE
  5
2C6
100
AcDbEntity
  8
RACCORDO
100
AcDbLine
 62
250
  6
CONTINUOUS
 10
24.9287891573
 20
1.1015478044
 30
0.0
 11
25.18018772
 21
1.1015478044
 31
0.0
  0
LINE
  5
2C7
100
AcDbEntity
  8
RACCORDO
100
AcDbLine
 62
250
  6
CONTINUOUS
 10
-17.6363817818
 20
1.6014716519
 30
0.0
 11
-16.311237064
 21
1.6014716519
 31
0.0
  0
LINE
  5
2C8
100
AcDbEntity
  8
RACCORDO
100
AcDbLine
 62
250
  6
CONTINUOUS
 10
23.8636182182
 20
1.6014716519
 30
0.0
 11
25.188762936
 21
1.6014716519
 31
0.0
  0
LINE
  5
2C9
100
AcDbEntity
  8
RACCORDO
100
AcDbLine
 62
7
  6
CONTINUOUS
 10
-15.6275019097
 20
1.81981228
 30
0.0
 11
-14.7238094229
 21
1.81981228
 31
0.0
  0
LINE
  5
2CA
100
AcDbEntity
  8
RACCORDO
100
AcDbLine
 62
7
  6
CONTINUOUS
 10
22.2761905771
 20
1.81981228
 30
0.0
 11
23.1798830639
 21
1.81981228
 31
0.0
  0
LINE
  5
2CB
100
AcDbEntity
  8
RACCORDO
100
AcDbLine
 62
250
  6
CONTINUOUS
 10
-14.1188023542
 20
16.5837119541
 30
0.0
 11
-14.2241140326
 21
16.688899293
 31
0.0
  0
LINE
  5
2CC
100
AcDbEntity
  8
RACCORDO
100
AcDbLine
 62
250
  6
CONTINUOUS
 10
23.6710032382
 20
-21.2060910262
 30
0.0
 11
23.7761905771
 21
-21.3114053167
 31
0.0
  0
LINE
  5
2CD
100
AcDbEntity
  8
SMUSSO
100
AcDbLine
 62
250
  6
CONTINUOUS
 10
-8.0772418633
 20
-25.0446215187
 30
0.0
 11
-8.3770134615
 21
-25.6444387991
 31
0.0
  0
LINE
  5
2CE
100
AcDbEntity
  8
SMUSSO
100
AcDbLine
 62
7
  6
CONTINUOUS
 10
-8.4738551074
 20
-25.7412804473
 30
0.0
 11
-8.1738094229
 21
-25.1411890783
 31
0.0
  0
LINE
  5
2CF
100
AcDbEntity
  8
RACCORDO
100
AcDbLine
 62
250
  6
CONTINUOUS
 10
-16.118622084
 20
-21.2060936383
 30
0.0
 11
-16.2238094229
 21
-21.3114053167
 31
0.0
  0
LINE
  5
2D0
100
AcDbEntity
  8
RACCORDO
100
AcDbLine
 62
250
  6
CONTINUOUS
 10
21.6711808963
 20
16.5837119541
 30
0.0
 11
21.7764951868
 21
16.688899293
 31
0.0
  0
LINE
  5
2D1
100
AcDbEntity
  8
0
100
AcDbLine
 62
7
  6
CONTINUOUS
 10
-17.3764080031
 20
1.3414978732
 30
0.0
 11
-16.2238094229
 21
1.4461226309
 31
0.0
  0
LINE
  5
2D2
100
AcDbEntity
  8
RACCORDO
100
AcDbLine
 62
7
  6
CONTINUOUS
 10
25.0762210381
 20
4.688899293
 30
0.0
 11
23.9761601162
 21
4.688899293
 31
0.0
  0
LINE
  5
2D3
100
AcDbEntity
  8
RACCORDO
100
AcDbLine
 62
7
  6
CONTINUOUS
 10
-16.4237789619
 20
4.688899293
 30
0.0
 11
-17.5238398838
 21
4.688899293
 31
0.0
  0
LINE
  5
2D4
100
AcDbEntity
  8
0
100
AcDbLine
 62
7
  6
CONTINUOUS
 10
23.7761905771
 20
1.4461226309
 30
0.0
 11
24.9287891573
 21
1.3414978732
 31
0.0
  0
LINE
  5
2D5
100
AcDbEntity
  8
SMUSSO
100
AcDbLine
 62
250
  6
CONTINUOUS
 10
5.6296230175
 20
-25.0446215187
 30
0.0
 11
5.6296230175
 21
-23.3428927162
 31
0.0
  0
LINE
  5
2D6
100
AcDbEntity
  8
SMUSSO
100
AcDbLine
 62
7
  6
CONTINUOUS
 10
5.7261905771
 20
-25.1411890783
 30
0.0
 11
5.7261905771
 21
-23.4394602758
 31
0.0
  0
LINE
  5
2D7
100
AcDbEntity
  8
SMUSSO
100
AcDbLine
 62
7
  6
CONTINUOUS
 10
6.8261905771
 20
-25.1411890783
 30
0.0
 11
6.8261905771
 21
-23.4394602758
 31
0.0
  0
LINE
  5
2D8
100
AcDbEntity
  8
SMUSSO
100
AcDbLine
 62
250
  6
CONTINUOUS
 10
6.9227581367
 20
-25.0446215187
 30
0.0
 11
6.9227581367
 21
-23.3428927162
 31
0.0
  0
LINE
  5
2D9
100
AcDbEntity
  8
RACCORDO
100
AcDbLine
 62
250
  6
CONTINUOUS
 10
23.6710032382
 20
14.5838922243
 30
0.0
 11
23.7761905771
 21
14.6892039027
 31
0.0
  0
LINE
  5
2DA
100
AcDbEntity
  8
0
100
AcDbLine
 62
250
  6
CONTINUOUS
 10
-14.1187997421
 20
-23.2059133681
 30
0.0
 11
-14.2066589676
 21
-23.293645642
 31
0.0
  0
LINE
  5
2DB
100
AcDbEntity
  8
SMUSSO
100
AcDbLine
 62
7
  6
CONTINUOUS
 10
20.7261905771
 20
-25.1411890783
 30
0.0
 11
21.0262362616
 21
-25.7412804473
 31
0.0
  0
LINE
  5
2DC
100
AcDbEntity
  8
SMUSSO
100
AcDbLine
 62
250
  6
CONTINUOUS
 10
20.6296230175
 20
-25.0446215187
 30
0.0
 11
20.9293946159
 21
-25.6444388016
 31
0.0
  0
LINE
  5
2DD
100
AcDbEntity
  8
RACCORDO
100
AcDbLine
 62
7
  6
CONTINUOUS
 10
7.6785717314
 20
16.8285398125
 30
0.0
 11
7.6785717314
 21
23.7424987932
 31
0.0
  0
LINE
  5
2DE
100
AcDbEntity
  8
SMUSSO
100
AcDbLine
 62
250
  6
CONTINUOUS
 10
-3.0772418633
 20
-25.0446215187
 30
0.0
 11
-3.3770134615
 21
-25.6444387991
 31
0.0
  0
LINE
  5
2DF
100
AcDbEntity
  8
SMUSSO
100
AcDbLine
 62
7
  6
CONTINUOUS
 10
-3.4738551074
 20
-25.7412804473
 30
0.0
 11
-3.1738094229
 21
-25.1411890783
 31
0.0
  0
LINE
  5
2E0
100
AcDbEntity
  8
SMUSSO
100
AcDbLine
 62
7
  6
CONTINUOUS
 10
-13.1738094229
 20
-25.1411890783
 30
0.0
 11
-13.0772418633
 21
-25.0446215187
 31
0.0
  0
LINE
  5
2E1
100
AcDbEntity
  8
SMUSSO
100
AcDbLine
 62
7
  6
CONTINUOUS
 10
-13.4738551074
 20
-25.7412804473
 30
0.0
 11
-13.3770134617
 21
-25.6444388016
 31
0.0
  0
LINE
  5
2E2
100
AcDbEntity
  8
RACCORDO
100
AcDbLine
 62
250
  6
CONTINUOUS
 10
23.6710060425
 20
-11.4058857114
 30
0.0
 11
23.7761905771
 21
-11.511070246
 31
0.0
  0
LINE
  5
2E3
100
AcDbEntity
  8
RACCORDO
100
AcDbLine
 62
250
  6
CONTINUOUS
 10
23.8709727772
 20
-11.2059133681
 30
0.0
 11
23.9761601162
 21
-11.311100707
 31
0.0
  0
LINE
  5
2E4
100
AcDbEntity
  8
RACCORDO
100
AcDbLine
 62
250
  6
CONTINUOUS
 10
25.0762210381
 20
-11.311100707
 30
0.0
 11
24.9796089152
 21
-11.2144885841
 31
0.0
  0
LINE
  5
2E5
100
AcDbEntity
  8
SMUSSO
100
AcDbLine
 62
250
  6
CONTINUOUS
 10
10.6296230175
 20
-25.0446215187
 30
0.0
 11
10.6296230175
 21
-23.311100707
 31
0.0
  0
LINE
  5
2E6
100
AcDbEntity
  8
SMUSSO
100
AcDbLine
 62
7
  6
CONTINUOUS
 10
10.7261905771
 20
-25.1411890783
 30
0.0
 11
10.7261905771
 21
-23.311100707
 31
0.0
  0
LINE
  5
2E7
100
AcDbEntity
  8
SMUSSO
100
AcDbLine
 62
7
  6
CONTINUOUS
 10
11.8261905771
 20
-25.1411890783
 30
0.0
 11
11.8261905771
 21
-23.311100707
 31
0.0
  0
LINE
  5
2E8
100
AcDbEntity
  8
SMUSSO
100
AcDbLine
 62
250
  6
CONTINUOUS
 10
11.9227581367
 20
-25.0446215187
 30
0.0
 11
11.9227581367
 21
-23.311100707
 31
0.0
  0
LWPOLYLINE
  5
2E9
100
AcDbEntity
  8
0
100
AcDbPolyline
 62
7
  6
CONTINUOUS
 90
3
 70
0
 43
0.3499999917
 10
0.9285714197
 20
-35.8575070953
 10
0.857142849
 20
-36.0717929077
 10
0.7142857075
 20
-36.3575075912
  0
LINE
  5
2EA
100
AcDbEntity
  8
SMUSSO
100
AcDbLine
 62
7
  6
CONTINUOUS
 10
-8.1738094229
 20
-25.1411890783
 30
0.0
 11
-8.0772418633
 21
-25.0446215187
 31
0.0
  0
LINE
  5
2EB
100
AcDbEntity
  8
SMUSSO
100
AcDbLine
 62
7
  6
CONTINUOUS
 10
-8.4738551074
 20
-25.7412804473
 30
0.0
 11
-8.3770134617
 21
-25.6444388016
 31
0.0
  0
LINE
  5
2EC
100
AcDbEntity
  8
RACCORDO
100
AcDbLine
 62
250
  6
CONTINUOUS
 10
25.2761905771
 20
-11.1111311679
 30
0.0
 11
25.1795784542
 21
-11.0145190451
 31
0.0
  0
LINE
  5
2ED
100
AcDbEntity
  8
RACCORDO
100
AcDbLine
 62
7
  6
CONTINUOUS
 10
25.188762936
 20
-8.2236730659
 30
0.0
 11
25.2761905771
 21
-8.311100707
 31
0.0
  0
LINE
  5
2EE
100
AcDbEntity
  8
SMUSSO
100
AcDbLine
 62
250
  6
CONTINUOUS
 10
13.7761905771
 20
-23.311100707
 30
0.0
 11
13.7761905771
 21
-25.6075047968
 31
0.0
  0
LINE
  5
2EF
100
AcDbEntity
  8
SMUSSO
100
AcDbLine
 62
250
  6
CONTINUOUS
 10
1.9227581367
 20
-25.0446215187
 30
0.0
 11
1.6229865385
 21
-25.6444387991
 31
0.0
  0
LINE
  5
2F0
100
AcDbEntity
  8
SMUSSO
100
AcDbLine
 62
7
  6
CONTINUOUS
 10
1.5261448926
 20
-25.7412804473
 30
0.0
 11
1.8261905771
 21
-25.1411890783
 31
0.0
  0
LINE
  5
2F1
100
AcDbEntity
  8
RACCORDO
100
AcDbLine
 62
250
  6
CONTINUOUS
 10
23.7761905771
 20
4.8888688321
 30
0.0
 11
23.6710056743
 21
4.7836839293
 31
0.0
  0
LINE
  5
2F2
100
AcDbEntity
  8
RACCORDO
100
AcDbLine
 62
250
  6
CONTINUOUS
 10
23.9761601162
 20
4.688899293
 30
0.0
 11
23.8709727772
 21
4.5837119541
 31
0.0
  0
LINE
  5
2F3
100
AcDbEntity
  8
RACCORDO
100
AcDbLine
 62
250
  6
CONTINUOUS
 10
24.9796089152
 20
4.5922871701
 30
0.0
 11
25.0762210381
 21
4.688899293
 31
0.0
  0
LINE
  5
2F4
100
AcDbEntity
  8
RACCORDO
100
AcDbLine
 62
250
  6
CONTINUOUS
 10
25.1795784542
 20
4.3923176311
 30
0.0
 11
25.2761905771
 21
4.488929754
 31
0.0
  0
LINE
  5
2F5
100
AcDbEntity
  8
RACCORDO
100
AcDbLine
 62
250
  6
CONTINUOUS
 10
23.6710032382
 20
14.5840165638
 30
0.0
 11
22.1712316955
 21
14.5840165638
 31
0.0
  0
LINE
  5
2F6
100
AcDbEntity
  8
RACCORDO
100
AcDbLine
 62
250
  6
CONTINUOUS
 10
-16.118622084
 20
14.5840165638
 30
0.0
 11
-14.6188505412
 21
14.5840165638
 31
0.0
  0
LWPOLYLINE
  5
2F7
100
AcDbEntity
  8
0
100
AcDbPolyline
 62
7
  6
CONTINUOUS
 90
3
 70
0
 43
0.3499999917
 10
38.6449987793
 20
0.7142848206
 10
38.8592861938
 20
0.6428567505
 10
39.1449984741
 20
0.5000006104
  0
LINE
  5
2F8
100
AcDbEntity
  8
RACCORDO
100
AcDbLine
 62
7
  6
CONTINUOUS
 10
16.2695819711
 20
17.5469849478
 30
0.0
 11
16.2695819711
 21
16.7412644878
 31
0.0
  0
LINE
  5
2F9
100
AcDbEntity
  8
SMUSSO
100
AcDbLine
 62
7
  6
CONTINUOUS
 10
-3.1738094229
 20
-25.1411890783
 30
0.0
 11
-3.0772418633
 21
-25.0446215187
 31
0.0
  0
LINE
  5
2FA
100
AcDbEntity
  8
SMUSSO
100
AcDbLine
 62
7
  6
CONTINUOUS
 10
-3.4738551074
 20
-25.7412804473
 30
0.0
 11
-3.3770134617
 21
-25.6444388016
 31
0.0
  0
LINE
  5
2FB
100
AcDbEntity
  8
RACCORDO
100
AcDbLine
 62
7
  6
CONTINUOUS
 10
25.188762936
 20
1.6014716519
 30
0.0
 11
25.2761905771
 21
1.688899293
 31
0.0
  0
LWPOLYLINE
  5
2FC
100
AcDbEntity
  8
0
100
AcDbPolyline
 62
7
  6
CONTINUOUS
 90
10
 70
0
 43
0.3499999917
 10
38.4307145691
 20
0.6428567505
 10
38.5735707092
 20
0.7142848206
 10
38.6449987793
 20
0.7142848206
 10
38.7878581238
 20
0.5714286804
 10
38.7878581238
 20
0.5000006104
 10
38.7164268494
 20
0.4285725403
 10
38.6449987793
 20
0.4285725403
 10
38.5021426392
 20
0.5000006104
 10
38.4307145691
 20
0.5714286804
 10
38.4307145691
 20
0.6428567505
  0
LINE
  5
2FD
100
AcDbEntity
  8
RACCORDO
100
AcDbLine
 62
250
  6
CONTINUOUS
 10
-14.1189266937
 20
15.0839404114
 30
0.0
 11
21.6713078479
 21
15.0839404114
 31
0.0
  0
LINE
  5
2FE
100
AcDbEntity
  8
RACCORDO
100
AcDbLine
 62
250
  6
CONTINUOUS
 10
-14.1188023542
 20
16.5837119541
 30
0.0
 11
21.6711808963
 21
16.5837119541
 31
0.0
  0
LINE
  5
2FF
100
AcDbEntity
  8
RACCORDO
100
AcDbLine
 62
7
  6
CONTINUOUS
 10
-14.2241140326
 20
16.688899293
 30
0.0
 11
-13.7238094229
 21
16.688899293
 31
0.0
  0
LINE
  5
300
100
AcDbEntity
  8
DRAFT
100
AcDbLine
 62
7
  6
CONTINUOUS
 10
21.2761905771
 20
16.688899293
 30
0.0
 11
-13.7238094229
 21
16.688899293
 31
0.0
  0
LINE
  5
301
100
AcDbEntity
  8
RACCORDO
100
AcDbLine
 62
7
  6
CONTINUOUS
 10
21.2761905771
 20
16.688899293
 30
0.0
 11
21.7764951868
 21
16.688899293
 31
0.0
  0
LINE
  5
302
100
AcDbEntity
  8
DRAFT
100
AcDbLine
 62
7
  6
CONTINUOUS
 10
16.2695819711
 20
16.7412644878
 30
0.0
 11
20.2827991831
 21
16.7412644878
 31
0.0
  0
LINE
  5
303
100
AcDbEntity
  8
DRAFT
100
AcDbLine
 62
7
  6
CONTINUOUS
 10
-0.1261905771
 20
16.8285398125
 30
0.0
 11
7.6785717314
 21
16.8285398125
 31
0.0
  0
LINE
  5
304
100
AcDbEntity
  8
SMUSSO
100
AcDbLine
 62
250
  6
CONTINUOUS
 10
18.7761905771
 20
-23.311100707
 30
0.0
 11
18.7761905771
 21
-25.6075047968
 31
0.0
  0
LINE
  5
305
100
AcDbEntity
  8
SMUSSO
100
AcDbLine
 62
250
  6
CONTINUOUS
 10
6.9227581367
 20
-25.0446215187
 30
0.0
 11
6.6229865385
 21
-25.6444387991
 31
0.0
  0
LINE
  5
306
100
AcDbEntity
  8
SMUSSO
100
AcDbLine
 62
7
  6
CONTINUOUS
 10
6.5261448926
 20
-25.7412804473
 30
0.0
 11
6.8261905771
 21
-25.1411890783
 31
0.0
  0
LINE
  5
307
100
AcDbEntity
  8
DRAFT
100
AcDbLine
 62
7
  6
CONTINUOUS
 10
1.8261905771
 20
-23.4394602758
 30
0.0
 11
1.9227581367
 21
-23.3428927162
 31
0.0
  0
LINE
  5
308
100
AcDbEntity
  8
SMUSSO
100
AcDbLine
 62
7
  6
CONTINUOUS
 10
1.8261905771
 20
-25.1411890783
 30
0.0
 11
1.9227581367
 21
-25.0446215187
 31
0.0
  0
LINE
  5
309
100
AcDbEntity
  8
SMUSSO
100
AcDbLine
 62
7
  6
CONTINUOUS
 10
1.5261448926
 20
-25.7412804473
 30
0.0
 11
1.6229865383
 21
-25.6444388016
 31
0.0
  0
LINE
  5
30A
100
AcDbEntity
  8
RACCORDO
100
AcDbLine
 62
7
  6
CONTINUOUS
 10
20.0827991645
 20
17.7468935788
 30
0.0
 11
16.4695819897
 21
17.7468935788
 31
0.0
  0
LINE
  5
30B
100
AcDbEntity
  8
DRAFT
100
AcDbLine
 62
7
  6
CONTINUOUS
 10
7.6785717314
 20
16.8285398125
 30
0.0
 11
7.9579378873
 21
16.688899293
 31
0.0
  0
LINE
  5
30C
100
AcDbEntity
  8
RACCORDO
100
AcDbLine
 62
7
  6
CONTINUOUS
 10
23.8636182182
 20
1.6014716519
 30
0.0
 11
23.7761905771
 21
1.688899293
 31
0.0
  0
LINE
  5
30D
100
AcDbEntity
  8
RACCORDO
100
AcDbLine
 62
7
  6
CONTINUOUS
 10
25.2761905771
 20
1.688899293
 30
0.0
 11
25.1795784542
 21
1.7855114159
 31
0.0
  0
LINE
  5
30E
100
AcDbEntity
  8
RACCORDO
100
AcDbLine
 62
7
  6
CONTINUOUS
 10
20.2827991831
 20
16.7412644878
 30
0.0
 11
20.2827991831
 21
17.5469849478
 31
0.0
  0
LINE
  5
30F
100
AcDbEntity
  8
SMUSSO
100
AcDbLine
 62
250
  6
CONTINUOUS
 10
20.6296230175
 20
-25.0446215187
 30
0.0
 11
20.6296230175
 21
-23.311100707
 31
0.0
  0
LINE
  5
310
100
AcDbEntity
  8
SMUSSO
100
AcDbLine
 62
7
  6
CONTINUOUS
 10
20.7261905771
 20
-25.1411890783
 30
0.0
 11
20.7261905771
 21
-23.311100707
 31
0.0
  0
LINE
  5
311
100
AcDbEntity
  8
RACCORDO
100
AcDbLine
 62
250
  6
CONTINUOUS
 10
21.6713078479
 20
16.5837119541
 30
0.0
 11
21.6713078479
 21
15.0839404114
 31
0.0
  0
LINE
  5
312
100
AcDbEntity
  8
RACCORDO
100
AcDbLine
 62
250
  6
CONTINUOUS
 10
21.6713078479
 20
-23.2059133681
 30
0.0
 11
21.6713078479
 21
-21.7061418253
 31
0.0
  0
LINE
  5
313
100
AcDbEntity
  8
SMUSSO
100
AcDbLine
 62
250
  6
CONTINUOUS
 10
11.9227581367
 20
-25.0446215187
 30
0.0
 11
11.6229865384
 21
-25.6444388002
 31
0.0
  0
LINE
  5
314
100
AcDbEntity
  8
SMUSSO
100
AcDbLine
 62
7
  6
CONTINUOUS
 10
11.5261448926
 20
-25.7412804473
 30
0.0
 11
11.8261905771
 21
-25.1411890783
 31
0.0
  0
LINE
  5
315
100
AcDbEntity
  8
DRAFT
100
AcDbLine
 62
7
  6
CONTINUOUS
 10
6.8261905771
 20
-23.4394602758
 30
0.0
 11
6.9227581367
 21
-23.3428927162
 31
0.0
  0
LINE
  5
316
100
AcDbEntity
  8
RACCORDO
100
AcDbLine
 62
250
  6
CONTINUOUS
 10
23.1948874694
 20
-11.1847936221
 30
0.0
 11
23.179883064
 21
-10.9866762467
 31
0.0
  0
LINE
  5
317
100
AcDbEntity
  8
RACCORDO
100
AcDbLine
 62
7
  6
CONTINUOUS
 10
21.9761905771
 20
-25.2413565997
 30
0.0
 11
21.9761905771
 21
-23.3905761848
 31
0.0
  0
LINE
  5
318
100
AcDbEntity
  8
RACCORDO
100
AcDbLine
 62
250
  6
CONTINUOUS
 10
22.1712316955
 20
14.5840165638
 30
0.0
 11
22.171296304
 21
4.7544901444
 31
0.0
  0
LINE
  5
319
100
AcDbEntity
  8
RACCORDO
100
AcDbLine
 62
250
  6
CONTINUOUS
 10
22.1713272418
 20
-11.3766748291
 30
0.0
 11
22.1712316955
 21
-21.2062179778
 31
0.0
  0
LINE
  5
31A
100
AcDbEntity
  8
RACCORDO
100
AcDbLine
 62
250
  6
CONTINUOUS
 10
22.2761905771
 20
1.81981228
 30
0.0
 11
22.2761905771
 21
-8.4420136939
 31
0.0
  0
LINE
  5
31B
100
AcDbEntity
  8
RACCORDO
100
AcDbLine
 62
250
  6
CONTINUOUS
 10
23.1799099486
 20
-10.9866731299
 30
0.0
 11
23.1798830639
 21
-8.4420136939
 31
0.0
  0
LINE
  5
31C
100
AcDbEntity
  8
RACCORDO
100
AcDbLine
 62
250
  6
CONTINUOUS
 10
23.1798830639
 20
1.81981228
 30
0.0
 11
23.1799079057
 21
4.3644721633
 31
0.0
  0
LINE
  5
31D
100
AcDbEntity
  8
RACCORDO
100
AcDbLine
 62
250
  6
CONTINUOUS
 10
23.6710032382
 20
14.5838922243
 30
0.0
 11
23.6710056743
 21
4.7836839293
 31
0.0
  0
LINE
  5
31E
100
AcDbEntity
  8
RACCORDO
100
AcDbLine
 62
250
  6
CONTINUOUS
 10
23.6710060425
 20
-11.4058857114
 30
0.0
 11
23.6710032382
 21
-21.2060910262
 31
0.0
  0
LINE
  5
31F
100
AcDbEntity
  8
RACCORDO
100
AcDbLine
 62
7
  6
CONTINUOUS
 10
23.7761905771
 20
1.7936296826
 30
0.0
 11
23.7761905771
 21
-8.4158310965
 31
0.0
  0
LINE
  5
320
100
AcDbEntity
  8
RACCORDO
100
AcDbLine
 62
7
  6
CONTINUOUS
 10
23.7761905771
 20
-21.3114053167
 30
0.0
 11
23.7761905771
 21
-11.511070246
 31
0.0
  0
LINE
  5
321
100
AcDbEntity
  8
RACCORDO
100
AcDbLine
 62
7
  6
CONTINUOUS
 10
23.7761905771
 20
4.8888688321
 30
0.0
 11
23.7761905771
 21
14.6892039027
 31
0.0
  0
LINE
  5
322
100
AcDbEntity
  8
RACCORDO
100
AcDbLine
 62
250
  6
CONTINUOUS
 10
23.1948863363
 20
4.5625916748
 30
0.0
 11
23.1798830639
 21
4.3644750423
 31
0.0
  0
LINE
  5
323
100
AcDbEntity
  8
SMUSSO
100
AcDbLine
 62
7
  6
CONTINUOUS
 10
6.8261905771
 20
-25.1411890783
 30
0.0
 11
6.9227581367
 21
-25.0446215187
 31
0.0
  0
LINE
  5
324
100
AcDbEntity
  8
RACCORDO
100
AcDbLine
 62
7
  6
CONTINUOUS
 10
23.8636182182
 20
-8.2236730659
 30
0.0
 11
23.7761905771
 21
-8.311100707
 31
0.0
  0
LINE
  5
325
100
AcDbEntity
  8
SMUSSO
100
AcDbLine
 62
7
  6
CONTINUOUS
 10
6.5261448926
 20
-25.7412804473
 30
0.0
 11
6.6229865383
 21
-25.6444388016
 31
0.0
  0
LINE
  5
326
100
AcDbEntity
  8
RACCORDO
100
AcDbLine
 62
7
  6
CONTINUOUS
 10
25.2761905771
 20
-8.311100707
 30
0.0
 11
25.1795784542
 21
-8.4077128299
 31
0.0
  0
LINE
  5
327
100
AcDbEntity
  8
DRAFT
100
AcDbLine
 62
7
  6
CONTINUOUS
 10
20.2827991831
 20
16.7412644878
 30
0.0
 11
20.3875614916
 21
16.688899293
 31
0.0
  0
LINE
  5
328
100
AcDbEntity
  8
DRAFT
100
AcDbLine
 62
7
  6
CONTINUOUS
 10
24.9287891573
 20
-7.9636992872
 30
0.0
 11
24.9287891573
 21
1.3414978732
 31
0.0
  0
LINE
  5
329
100
AcDbEntity
  8
RACCORDO
100
AcDbLine
 62
250
  6
CONTINUOUS
 10
25.1795784542
 20
-11.0145190451
 30
0.0
 11
25.1795784542
 21
-8.4077128299
 31
0.0
  0
LINE
  5
32A
100
AcDbEntity
  8
RACCORDO
100
AcDbLine
 62
250
  6
CONTINUOUS
 10
25.1795784542
 20
1.7855114159
 30
0.0
 11
25.1795784542
 21
4.3923176311
 31
0.0
  0
LINE
  5
32B
100
AcDbEntity
  8
RACCORDO
100
AcDbLine
 62
7
  6
CONTINUOUS
 10
25.18018772
 20
-7.7237492183
 30
0.0
 11
25.18018772
 21
1.1015478044
 31
0.0
  0
LINE
  5
32C
100
AcDbEntity
  8
RACCORDO
100
AcDbLine
 62
7
  6
CONTINUOUS
 10
25.2761905771
 20
-11.1111311679
 30
0.0
 11
25.2761905771
 21
-8.311100707
 31
0.0
  0
LINE
  5
32D
100
AcDbEntity
  8
RACCORDO
100
AcDbLine
 62
7
  6
CONTINUOUS
 10
25.2761905771
 20
1.688899293
 30
0.0
 11
25.2761905771
 21
4.488929754
 31
0.0
  0
LWPOLYLINE
  5
32E
100
AcDbEntity
  8
0
100
AcDbPolyline
 62
7
  6
CONTINUOUS
 90
10
 70
0
 43
0.3499999917
 10
2.9999999714
 20
-33.1432216072
 10
2.3571429348
 20
-33.7860786438
 10
1.9285715103
 20
-34.6432214928
 10
1.9285715103
 20
-35.7146501541
 10
2.3571429348
 20
-36.1432217789
 10
2.9999999714
 20
-36.1432217789
 10
3.4285713959
 20
-35.7146501541
 10
3.4285713959
 20
-34.8575073051
 10
2.9999999714
 20
-34.4289360809
 10
2.0714286518
 20
-34.4289360809
  0
LINE
  5
32F
100
AcDbEntity
  8
SMUSSO
100
AcDbLine
 62
7
  6
CONTINUOUS
 10
11.8261905771
 20
-25.1411890783
 30
0.0
 11
11.9227581367
 21
-25.0446215187
 31
0.0
  0
LINE
  5
330
100
AcDbEntity
  8
SMUSSO
100
AcDbLine
 62
7
  6
CONTINUOUS
 10
11.5261448926
 20
-25.7412804473
 30
0.0
 11
11.6229865383
 21
-25.6444388016
 31
0.0
  0
LINE
  5
331
100
AcDbEntity
  8
RACCORDO
100
AcDbLine
 62
7
  6
CONTINUOUS
 10
1.8725910769
 20
25.7412804473
 30
0.0
 11
5.6797900773
 21
25.7412804473
 31
0.0
  0
LWPOLYLINE
  5
332
100
AcDbEntity
  8
0
100
AcDbPolyline
 62
7
  6
CONTINUOUS
 90
3
 70
0
 43
0.3499999917
 10
36.7878561401
 20
-1.7142855835
 10
35.9307128906
 20
-0.857142334
 10
38.9307142639
 20
-0.857142334
  0
LWPOLYLINE
  5
333
100
AcDbEntity
  8
0
100
AcDbPolyline
 62
7
  6
CONTINUOUS
 90
8
 70
0
 43
0.3499999917
 10
38.9307142639
 20
-3.8571421051
 10
38.9307142639
 20
-3.0000004578
 10
38.5021426392
 20
-2.571428833
 10
37.6449993896
 20
-2.571428833
 10
37.2164277649
 20
-3.0000004578
 10
37.2164277649
 20
-3.8571421051
 10
35.9307128906
 20
-3.8571421051
 10
35.9307128906
 20
-2.571428833
  0
LWPOLYLINE
  5
334
100
AcDbEntity
  8
0
100
AcDbPolyline
 62
7
  6
CONTINUOUS
 90
8
 70
0
 43
0.3499999917
 10
38.9307142639
 20
1.7142842102
 10
38.9307142639
 20
2.5714274597
 10
38.5021426392
 20
2.9999990845
 10
37.6449993896
 20
2.9999990845
 10
37.2164277649
 20
2.5714274597
 10
37.2164277649
 20
1.7142842102
 10
35.9307128906
 20
1.7142842102
 10
35.9307128906
 20
2.9999990845
  0
LINE
  5
335
100
AcDbEntity
  8
0
100
AcDbLine
 62
7
  6
CONTINUOUS
 10
21.8943235469
 20
-23.309413417
 30
0.0
 11
21.8960108368
 21
-23.3075269955
 31
0.0
  0
LWPOLYLINE
  5
336
100
AcDbEntity
  8
0
100
AcDbPolyline
 62
7
  6
CONTINUOUS
 90
8
 70
0
 43
0.3499999917
 10
-57.7372979736
 20
-36.2079327393
 10
-56.8801547241
 20
-36.2079327393
 10
-56.4515863037
 20
-35.7793611145
 10
-56.4515863037
 20
-34.9222182655
 10
-56.8801547241
 20
-34.4936466408
 10
-57.7372979736
 20
-34.4936466408
 10
-57.7372979736
 20
-33.2079325676
 10
-56.4515863037
 20
-33.2079325676
  0
LWPOLYLINE
  5
337
100
AcDbEntity
  8
0
100
AcDbPolyline
 62
7
  6
CONTINUOUS
 90
7
 70
0
 43
0.3499999917
 10
-58.5944412231
 20
-36.2079327393
 10
-60.0944403076
 20
-36.2079327393
 10
-58.5944412231
 20
-34.0650754166
 10
-58.5944412231
 20
-33.6365037918
 10
-59.0230096436
 20
-33.2079325676
 10
-59.6658718872
 20
-33.2079325676
 10
-60.0944403076
 20
-33.8507896042
  0
LINE
  5
338
100
AcDbEntity
  8
RACCORDO
100
AcDbLine
 62
250
  6
CONTINUOUS
 10
-50.2409164709
 20
-24.5376448231
 30
0.0
 11
-50.3199743505
 21
-24.5391137121
 31
0.0
  0
LINE
  5
339
100
AcDbEntity
  8
RACCORDO
100
AcDbLine
 62
7
  6
CONTINUOUS
 10
-58.84444086
 20
-25.7412804473
 30
0.0
 11
-50.7321902677
 21
-25.5996805865
 31
0.0
  0
LINE
  5
33A
100
AcDbEntity
  8
RACCORDO
100
AcDbLine
 62
250
  6
CONTINUOUS
 10
-58.84444086
 20
-25.2413565997
 30
0.0
 11
-53.290276891
 21
-25.144408307
 31
0.0
  0
LINE
  5
33B
100
AcDbEntity
  8
RACCORDO
100
AcDbLine
 62
250
  6
CONTINUOUS
 10
-53.290276891
 20
-25.144408307
 30
0.0
 11
-50.2409164679
 21
-25.0997567387
 31
0.0
  0
LINE
  5
33C
100
AcDbEntity
  8
RACCORDO
100
AcDbLine
 62
250
  6
CONTINUOUS
 10
-50.3137978098
 20
-23.2889989525
 30
0.0
 11
-51.7036004241
 21
-23.3148213729
 31
0.0
  0
LINE
  5
33D
100
AcDbEntity
  8
RACCORDO
100
AcDbLine
 62
7
  6
CONTINUOUS
 10
-45.5409503788
 20
-24.2590671571
 30
0.0
 11
-50.128559548
 21
-24.3391441731
 31
0.0
  0
LINE
  5
33E
100
AcDbEntity
  8
RACCORDO
100
AcDbLine
 62
250
  6
CONTINUOUS
 10
-45.5409507293
 20
-23.9591128547
 30
0.0
 11
-50.2295152033
 21
-24.040952052
 31
0.0
  0
LINE
  5
33F
100
AcDbEntity
  8
RACCORDO
100
AcDbLine
 62
250
  6
CONTINUOUS
 10
-46.8182622504
 20
-23.3313170273
 30
0.0
 11
-50.1219849733
 21
-23.388983722
 31
0.0
  0
LINE
  5
340
100
AcDbEntity
  8
RACCORDO
100
AcDbLine
 62
250
  6
CONTINUOUS
 10
-53.290276891
 20
-23.2936278921
 30
0.0
 11
-58.84444086
 21
-23.3905761848
 31
0.0
  0
LINE
  5
341
100
AcDbEntity
  8
RACCORDO
100
AcDbLine
 62
7
  6
CONTINUOUS
 10
-51.6013504484
 20
-23.1148518338
 30
0.0
 11
-46.8182622504
 21
-23.0313627188
 31
0.0
  0
LINE
  5
342
100
AcDbEntity
  8
0
100
AcDbLine
 62
7
  6
CONTINUOUS
 10
-58.84444086
 20
-23.2412804473
 30
0.0
 11
-62.7477760823
 21
-23.309413417
 31
0.0
  0
LINE
  5
343
100
AcDbEntity
  8
RACCORDO
100
AcDbLine
 62
7
  6
CONTINUOUS
 10
-58.84444086
 20
-23.2230396221
 30
0.0
 11
-62.84444086
 21
-23.2928598818
 31
0.0
  0
LINE
  5
344
100
AcDbEntity
  8
RACCORDO
100
AcDbLine
 62
250
  6
CONTINUOUS
 10
-53.2909410663
 20
-23.0982766556
 30
0.0
 11
-58.84444086
 21
-23.195213355
 31
0.0
  0
LINE
  5
345
100
AcDbEntity
  8
RACCORDO
100
AcDbLine
 62
7
  6
CONTINUOUS
 10
-51.6013504484
 20
-23.1148518338
 30
0.0
 11
-51.6787122035
 21
-23.1157716765
 31
0.0
  0
LINE
  5
346
100
AcDbEntity
  8
0
100
AcDbLine
 62
7
  6
CONTINUOUS
 10
-68.8706194697
 20
-23.2059133681
 30
0.0
 11
-62.84444086
 21
-23.311100707
 31
0.0
  0
LINE
  5
347
100
AcDbEntity
  8
0
100
AcDbLine
 62
7
  6
CONTINUOUS
 10
-62.7477760823
 20
-23.309413417
 30
0.0
 11
-62.84444086
 21
-23.3075269955
 31
0.0
  0
LINE
  5
348
100
AcDbEntity
  8
RACCORDO
100
AcDbLine
 62
250
  6
CONTINUOUS
 10
-62.84444086
 20
-21.3114053167
 30
0.0
 11
-46.8182622504
 21
-21.0315383139
 31
0.0
  0
LINE
  5
349
100
AcDbEntity
  8
RACCORDO
100
AcDbLine
 62
250
  6
CONTINUOUS
 10
-68.8706194697
 20
-21.2062179778
 30
0.0
 11
-70.34444086
 21
-21.2062179778
 31
0.0
  0
LINE
  5
34A
100
AcDbEntity
  8
RACCORDO
100
AcDbLine
 62
250
  6
CONTINUOUS
 10
-45.34444086
 20
-21.0316673285
 30
0.0
 11
-46.8182622504
 21
-21.0316673277
 31
0.0
  0
LINE
  5
34B
100
AcDbEntity
  8
RACCORDO
100
AcDbLine
 62
250
  6
CONTINUOUS
 10
-68.8706194697
 20
-21.2060910262
 30
0.0
 11
-62.84444086
 21
-21.3114053167
 31
0.0
  0
LINE
  5
34C
100
AcDbEntity
  8
RACCORDO
100
AcDbLine
 62
7
  6
CONTINUOUS
 10
-70.34444086
 20
-21.7061418253
 30
0.0
 11
-70.34444086
 21
15.0839404114
 31
0.0
  0
LINE
  5
34D
100
AcDbEntity
  8
RACCORDO
100
AcDbLine
 62
250
  6
CONTINUOUS
 10
-68.8704588128
 20
-11.4058857114
 30
0.0
 11
-62.84444086
 21
-11.511070246
 31
0.0
  0
LINE
  5
34E
100
AcDbEntity
  8
RACCORDO
100
AcDbLine
 62
7
  6
CONTINUOUS
 10
-62.84444086
 20
-11.311100707
 30
0.0
 11
-70.146124303
 21
-11.1836493484
 31
0.0
  0
LINE
  5
34F
100
AcDbEntity
  8
RACCORDO
100
AcDbLine
 62
250
  6
CONTINUOUS
 10
-70.344440857
 20
-11.3767273558
 30
0.0
 11
-68.8704588127
 21
-11.4058860574
 31
0.0
  0
LINE
  5
350
100
AcDbEntity
  8
RACCORDO
100
AcDbLine
 62
250
  6
CONTINUOUS
 10
-68.8706194697
 20
14.5838922243
 30
0.0
 11
-68.8704799041
 21
4.7836839293
 31
0.0
  0
LINE
  5
351
100
AcDbEntity
  8
RACCORDO
100
AcDbLine
 62
250
  6
CONTINUOUS
 10
-68.8704588128
 20
-11.4058857114
 30
0.0
 11
-68.8706194697
 21
-21.2060910262
 31
0.0
  0
LINE
  5
352
100
AcDbEntity
  8
RACCORDO
100
AcDbLine
 62
250
  6
CONTINUOUS
 10
-68.84444086
 20
1.7936296826
 30
0.0
 11
-68.84444086
 21
-8.4158310965
 31
0.0
  0
LINE
  5
353
100
AcDbEntity
  8
RACCORDO
100
AcDbLine
 62
250
  6
CONTINUOUS
 10
-68.3793456729
 20
-11.0145190451
 30
0.0
 11
-68.3793456729
 21
-8.4077128299
 31
0.0
  0
LINE
  5
354
100
AcDbEntity
  8
RACCORDO
100
AcDbLine
 62
250
  6
CONTINUOUS
 10
-68.3793456729
 20
1.7855114159
 30
0.0
 11
-68.3793456729
 21
4.3923176311
 31
0.0
  0
LINE
  5
355
100
AcDbEntity
  8
RACCORDO
100
AcDbLine
 62
7
  6
CONTINUOUS
 10
-62.84444086
 20
-11.311100707
 30
0.0
 11
-57.2920836407
 21
-11.2141839512
 31
0.0
  0
LINE
  5
356
100
AcDbEntity
  8
RACCORDO
100
AcDbLine
 62
250
  6
CONTINUOUS
 10
-62.84444086
 20
-11.1111311679
 30
0.0
 11
-57.2920836407
 21
-11.0142144122
 31
0.0
  0
LINE
  5
357
100
AcDbEntity
  8
RACCORDO
100
AcDbLine
 62
250
  6
CONTINUOUS
 10
-68.3793456729
 20
-11.0145190451
 30
0.0
 11
-70.3424338017
 21
-10.9836811241
 31
0.0
  0
LINE
  5
358
100
AcDbEntity
  8
RACCORDO
100
AcDbLine
 62
250
  6
CONTINUOUS
 10
-62.84444086
 20
-11.1111311679
 30
0.0
 11
-68.3793456729
 21
-11.0145190451
 31
0.0
  0
LINE
  5
359
100
AcDbEntity
  8
RACCORDO
100
AcDbLine
 62
7
  6
CONTINUOUS
 10
-57.6287400732
 20
-7.9260001974
 30
0.0
 11
-58.3480815584
 21
-7.9636992872
 31
0.0
  0
LINE
  5
35A
100
AcDbEntity
  8
0
100
AcDbLine
 62
7
  6
CONTINUOUS
 10
-58.3480815584
 20
-7.9636992872
 30
0.0
 11
-62.84444086
 21
-8.199343493
 31
0.0
  0
LINE
  5
35B
100
AcDbEntity
  8
RACCORDO
100
AcDbLine
 62
7
  6
CONTINUOUS
 10
-57.8357146568
 20
-8.2236730659
 30
0.0
 11
-70.34444086
 21
-8.4420136939
 31
0.0
  0
LINE
  5
35C
100
AcDbEntity
  8
RACCORDO
100
AcDbLine
 62
250
  6
CONTINUOUS
 10
-54.5409503788
 20
-8.2146408657
 30
0.0
 11
-54.34444086
 21
-8.2146408657
 31
0.0
  0
LINE
  5
35D
100
AcDbEntity
  8
DRAFT
100
AcDbLine
 62
7
  6
CONTINUOUS
 10
-62.84444086
 20
1.688899293
 30
0.0
 11
-62.84444086
 21
-8.311100707
 31
0.0
  0
LINE
  5
35E
100
AcDbEntity
  8
0
100
AcDbLine
 62
7
  6
CONTINUOUS
 10
-62.84444086
 20
-21.3114053167
 30
0.0
 11
-62.84444086
 21
-23.3075269955
 31
0.0
  0
LINE
  5
35F
100
AcDbEntity
  8
RACCORDO
100
AcDbLine
 62
7
  6
CONTINUOUS
 10
-62.84444086
 20
-23.2928598818
 30
0.0
 11
-62.84444086
 21
-8.199343493
 31
0.0
  0
LINE
  5
360
100
AcDbEntity
  8
RACCORDO
100
AcDbLine
 62
7
  6
CONTINUOUS
 10
-62.84444086
 20
1.5771420791
 30
0.0
 11
-62.84444086
 21
16.688899293
 31
0.0
  0
LINE
  5
361
100
AcDbEntity
  8
0
100
AcDbLine
 62
7
  6
CONTINUOUS
 10
-60.4178054717
 20
1.4499675072
 30
0.0
 11
-60.4178054717
 21
-8.0721689212
 31
0.0
  0
LINE
  5
362
100
AcDbEntity
  8
0
100
AcDbLine
 62
250
  6
CONTINUOUS
 10
-59.1392051381
 20
-23.2464255769
 30
0.0
 11
-59.1392051381
 21
-23.2281847517
 31
0.0
  0
LINE
  5
363
100
AcDbEntity
  8
RACCORDO
100
AcDbLine
 62
7
  6
CONTINUOUS
 10
-58.84444086
 20
-25.7412804473
 30
0.0
 11
-58.84444086
 21
-23.195213355
 31
0.0
  0
LINE
  5
364
100
AcDbEntity
  8
DRAFT
100
AcDbLine
 62
7
  6
CONTINUOUS
 10
-58.3480815584
 20
-7.9636992872
 30
0.0
 11
-58.3480815584
 21
1.3414978732
 31
0.0
  0
LINE
  5
365
100
AcDbEntity
  8
RACCORDO
100
AcDbLine
 62
7
  6
CONTINUOUS
 10
-45.34444086
 20
-1.3634818612
 30
0.0
 11
-45.3544342503
 21
-1.3631328843
 31
0.0
  0
LINE
  5
366
100
AcDbEntity
  8
RACCORDO
100
AcDbLine
 62
250
  6
CONTINUOUS
 10
-57.6287400732
 20
1.3037987834
 30
0.0
 11
-57.6287400732
 21
-7.9260001974
 31
0.0
  0
LINE
  5
367
100
AcDbEntity
  8
RACCORDO
100
AcDbLine
 62
7
  6
CONTINUOUS
 10
-57.34444086
 20
-7.7237492183
 30
0.0
 11
-57.34444086
 21
1.1015478044
 31
0.0
  0
LINE
  5
368
100
AcDbEntity
  8
RACCORDO
100
AcDbLine
 62
250
  6
CONTINUOUS
 10
-54.5409503788
 20
1.5924394518
 30
0.0
 11
-54.34444086
 21
1.5924394518
 31
0.0
  0
LINE
  5
369
100
AcDbEntity
  8
RACCORDO
100
AcDbLine
 62
7
  6
CONTINUOUS
 10
-57.8357146568
 20
1.6014716519
 30
0.0
 11
-70.34444086
 21
1.81981228
 31
0.0
  0
LINE
  5
36A
100
AcDbEntity
  8
0
100
AcDbLine
 62
7
  6
CONTINUOUS
 10
-62.84444086
 20
1.5771420791
 30
0.0
 11
-58.3480815584
 21
1.3414978732
 31
0.0
  0
LINE
  5
36B
100
AcDbEntity
  8
RACCORDO
100
AcDbLine
 62
7
  6
CONTINUOUS
 10
-57.6287400732
 20
1.3037987834
 30
0.0
 11
-58.3480815584
 21
1.3414978732
 31
0.0
  0
LINE
  5
36C
100
AcDbEntity
  8
RACCORDO
100
AcDbLine
 62
250
  6
CONTINUOUS
 10
-54.5409503788
 20
-8.2146408657
 30
0.0
 11
-54.5409503788
 21
1.5924394518
 31
0.0
  0
LINE
  5
36D
100
AcDbEntity
  8
RACCORDO
100
AcDbLine
 62
7
  6
CONTINUOUS
 10
-54.34444086
 20
-8.2146408657
 30
0.0
 11
-54.34444086
 21
1.5924394518
 31
0.0
  0
LINE
  5
36E
100
AcDbEntity
  8
RACCORDO
100
AcDbLine
 62
7
  6
CONTINUOUS
 10
-45.3544342503
 20
2.7409314704
 30
0.0
 11
-45.34444086
 21
2.7412804473
 31
0.0
  0
LINE
  5
36F
100
AcDbEntity
  8
RACCORDO
100
AcDbLine
 62
250
  6
CONTINUOUS
 10
-53.290276891
 20
-25.144408307
 30
0.0
 11
-53.290276891
 21
-23.2936278921
 31
0.0
  0
LINE
  5
370
100
AcDbEntity
  8
RACCORDO
100
AcDbLine
 62
250
  6
CONTINUOUS
 10
-68.870479904
 20
4.7836842315
 30
0.0
 11
-70.3444408587
 21
4.754525885
 31
0.0
  0
LINE
  5
371
100
AcDbEntity
  8
RACCORDO
100
AcDbLine
 62
250
  6
CONTINUOUS
 10
-68.3793456729
 20
4.3923176311
 30
0.0
 11
-62.84444086
 21
4.488929754
 31
0.0
  0
LINE
  5
372
100
AcDbEntity
  8
RACCORDO
100
AcDbLine
 62
7
  6
CONTINUOUS
 10
-70.1461235119
 20
4.5614479483
 30
0.0
 11
-62.84444086
 21
4.688899293
 31
0.0
  0
LINE
  5
373
100
AcDbEntity
  8
RACCORDO
100
AcDbLine
 62
250
  6
CONTINUOUS
 10
-62.84444086
 20
4.8888688321
 30
0.0
 11
-68.8704799041
 21
4.7836839293
 31
0.0
  0
LINE
  5
374
100
AcDbEntity
  8
RACCORDO
100
AcDbLine
 62
250
  6
CONTINUOUS
 10
-70.3424340139
 20
4.3614798584
 30
0.0
 11
-68.3793456729
 21
4.3923176311
 31
0.0
  0
LINE
  5
375
100
AcDbEntity
  8
RACCORDO
100
AcDbLine
 62
250
  6
CONTINUOUS
 10
-57.2920836407
 20
4.3920129982
 30
0.0
 11
-62.84444086
 21
4.488929754
 31
0.0
  0
LINE
  5
376
100
AcDbEntity
  8
RACCORDO
100
AcDbLine
 62
7
  6
CONTINUOUS
 10
-57.2920836407
 20
4.5919825373
 30
0.0
 11
-62.84444086
 21
4.688899293
 31
0.0
  0
LINE
  5
377
100
AcDbEntity
  8
RACCORDO
100
AcDbLine
 62
7
  6
CONTINUOUS
 10
-51.84444086
 20
16.7412644878
 30
0.0
 11
-51.84444086
 21
17.7468935788
 31
0.0
  0
LINE
  5
378
100
AcDbEntity
  8
RACCORDO
100
AcDbLine
 62
7
  6
CONTINUOUS
 10
-50.84444086
 20
17.7294385139
 30
0.0
 11
-50.84444086
 21
16.4794385139
 31
0.0
  0
LINE
  5
379
100
AcDbEntity
  8
RACCORDO
100
AcDbLine
 62
7
  6
CONTINUOUS
 10
-50.2409164709
 20
-25.0997567389
 30
0.0
 11
-50.2409164709
 21
-24.5376448231
 31
0.0
  0
LINE
  5
37A
100
AcDbEntity
  8
RACCORDO
100
AcDbLine
 62
7
  6
CONTINUOUS
 10
-46.84444086
 20
17.6596182542
 30
0.0
 11
-46.84444086
 21
25.7412804473
 31
0.0
  0
LINE
  5
37B
100
AcDbEntity
  8
RACCORDO
100
AcDbLine
 62
250
  6
CONTINUOUS
 10
-46.8182622504
 20
-21.0315383139
 30
0.0
 11
-46.8182622504
 21
14.4094659145
 31
0.0
  0
LINE
  5
37C
100
AcDbEntity
  8
RACCORDO
100
AcDbLine
 62
250
  6
CONTINUOUS
 10
-45.8269911117
 20
17.6418586028
 30
0.0
 11
-45.8269911117
 21
23.7069686651
 31
0.0
  0
LINE
  5
37D
100
AcDbEntity
  8
RACCORDO
100
AcDbLine
 62
250
  6
CONTINUOUS
 10
-45.5409507293
 20
-23.9591128547
 30
0.0
 11
-45.5409507356
 21
-22.7186783831
 31
0.0
  0
LINE
  5
37E
100
AcDbEntity
  8
RACCORDO
100
AcDbLine
 62
250
  6
CONTINUOUS
 10
-45.5409504598
 20
16.0964789209
 30
0.0
 11
-45.5409504585
 21
17.336911436
 31
0.0
  0
LINE
  5
37F
100
AcDbEntity
  8
RACCORDO
100
AcDbLine
 62
7
  6
CONTINUOUS
 10
-45.3544342503
 20
2.7409314704
 30
0.0
 11
-45.3544342503
 21
-1.3631328843
 31
0.0
  0
LINE
  5
380
100
AcDbEntity
  8
RACCORDO
100
AcDbLine
 62
7
  6
CONTINUOUS
 10
-45.34444086
 20
-24.0590976181
 30
0.0
 11
-45.34444086
 21
-1.3634818612
 31
0.0
  0
LINE
  5
381
100
AcDbEntity
  8
RACCORDO
100
AcDbLine
 62
7
  6
CONTINUOUS
 10
-45.34444086
 20
2.7412804473
 30
0.0
 11
-45.34444086
 21
25.2060549056
 31
0.0
  0
LINE
  5
382
100
AcDbEntity
  8
RACCORDO
100
AcDbLine
 62
250
  6
CONTINUOUS
 10
-68.8706194697
 20
14.5838922243
 30
0.0
 11
-62.84444086
 21
14.6892039027
 31
0.0
  0
LINE
  5
383
100
AcDbEntity
  8
RACCORDO
100
AcDbLine
 62
250
  6
CONTINUOUS
 10
-45.34444086
 20
14.4094659145
 30
0.0
 11
-46.8182622504
 21
14.4094659145
 31
0.0
  0
LINE
  5
384
100
AcDbEntity
  8
RACCORDO
100
AcDbLine
 62
250
  6
CONTINUOUS
 10
-68.8706194697
 20
14.5840165638
 30
0.0
 11
-70.34444086
 21
14.5840165638
 31
0.0
  0
LINE
  5
385
100
AcDbEntity
  8
RACCORDO
100
AcDbLine
 62
250
  6
CONTINUOUS
 10
-62.84444086
 20
14.6892039027
 30
0.0
 11
-46.8182622504
 21
14.4094659145
 31
0.0
  0
LINE
  5
386
100
AcDbEntity
  8
DRAFT
100
AcDbLine
 62
7
  6
CONTINUOUS
 10
-51.84444086
 20
16.7412644878
 30
0.0
 11
-58.84444086
 21
16.6190790333
 31
0.0
  0
LINE
  5
387
100
AcDbEntity
  8
RACCORDO
100
AcDbLine
 62
7
  6
CONTINUOUS
 10
-68.8706194697
 20
16.5837119541
 30
0.0
 11
-62.84444086
 21
16.688899293
 31
0.0
  0
LINE
  5
388
100
AcDbEntity
  8
RACCORDO
100
AcDbLine
 62
7
  6
CONTINUOUS
 10
-62.84444086
 20
16.688899293
 30
0.0
 11
-46.8182622504
 21
16.4091613048
 31
0.0
  0
LINE
  5
389
100
AcDbEntity
  8
RACCORDO
100
AcDbLine
 62
250
  6
CONTINUOUS
 10
-46.8182622504
 20
16.7091156134
 30
0.0
 11
-50.84444086
 21
16.7793928224
 31
0.0
  0
LINE
  5
38A
100
AcDbEntity
  8
RACCORDO
100
AcDbLine
 62
250
  6
CONTINUOUS
 10
-45.5409504585
 20
17.336911436
 30
0.0
 11
-50.84444086
 21
17.4294842053
 31
0.0
  0
LINE
  5
38B
100
AcDbEntity
  8
RACCORDO
100
AcDbLine
 62
250
  6
CONTINUOUS
 10
-50.84444086
 20
17.5295298829
 30
0.0
 11
-51.84444086
 21
17.5469849478
 31
0.0
  0
LINE
  5
38C
100
AcDbEntity
  8
RACCORDO
100
AcDbLine
 62
7
  6
CONTINUOUS
 10
-45.5409503788
 20
17.6368657432
 30
0.0
 11
-51.84444086
 21
17.7468935788
 31
0.0
  0
LINE
  5
38D
100
AcDbEntity
  8
RACCORDO
100
AcDbLine
 62
250
  6
CONTINUOUS
 10
-45.8269911117
 20
23.7069686651
 30
0.0
 11
-45.34444086
 21
23.7069686651
 31
0.0
  0
LINE
  5
38E
100
AcDbEntity
  8
RACCORDO
100
AcDbLine
 62
250
  6
CONTINUOUS
 10
-45.8269911117
 20
23.7069686651
 30
0.0
 11
-46.84444086
 21
23.7424987932
 31
0.0
  0
LINE
  5
38F
100
AcDbEntity
  8
RACCORDO
100
AcDbLine
 62
7
  6
CONTINUOUS
 10
-45.8269911117
 20
25.7057503191
 30
0.0
 11
-46.84444086
 21
25.7412804473
 31
0.0
  0
ARC
  5
390
100
AcDbEntity
  8
0
100
AcDbCircle
 62
7
  6
CONTINUOUS
 10
-19.6716520211
 20
-23.3023730028
 30
0.0
 40
5.3978496541
100
AcDbArc
 50
359.9073592516
 51
0.0926407484
  0
CIRCLE
  5
391
100
AcDbEntity
  8
0
100
AcDbCircle
 62
250
  6
CONTINUOUS
 10
-11.2238094229
 20
-15.811100707
 30
0.0
 40
2.2588036965
  0
CIRCLE
  5
392
100
AcDbEntity
  8
0
100
AcDbCircle
 62
250
  6
CONTINUOUS
 10
-6.2238094229
 20
-15.811100707
 30
0.0
 40
2.2588036965
  0
ARC
  5
393
100
AcDbEntity
  8
RACCORDO
100
AcDbCircle
 62
250
  6
CONTINUOUS
 10
-14.1184092566
 20
-21.2057005406
 30
0.0
 40
2.0002153719
100
AcDbArc
 50
180.0112610624
 51
269.9888137454
  0
CIRCLE
  5
394
100
AcDbEntity
  8
0
100
AcDbCircle
 62
7
  6
CONTINUOUS
 10
-6.2238094229
 20
-15.811100707
 30
0.0
 40
1.7588036965
  0
CIRCLE
  5
395
100
AcDbEntity
  8
0
100
AcDbCircle
 62
7
  6
CONTINUOUS
 10
-11.2238094229
 20
-15.811100707
 30
0.0
 40
1.7588036965
  0
CIRCLE
  5
396
100
AcDbEntity
  8
DRAFT
100
AcDbCircle
 62
7
  6
CONTINUOUS
 10
-21.2238094229
 20
-16.311100707
 30
0.0
 40
1.5
  0
CIRCLE
  5
397
100
AcDbEntity
  8
DRAFT
100
AcDbCircle
 62
7
  6
CONTINUOUS
 10
-21.2238094229
 20
-16.311100707
 30
0.0
 40
1.4738174026
  0
ARC
  5
398
100
AcDbEntity
  8
RACCORDO
100
AcDbCircle
 62
250
  6
CONTINUOUS
 10
-15.6997800384
 20
-12.5885995752
 30
0.0
 40
1.4049743985
100
AcDbArc
 50
87.6636462967
 51
90.340060121
  0
ARC
  5
399
100
AcDbEntity
  8
RACCORDO
100
AcDbCircle
 62
250
  6
CONTINUOUS
 10
-15.7159209528
 20
-12.2903945869
 30
0.0
 40
1.3067138243
100
AcDbArc
 50
86.1180130839
 51
90.0506063196
  0
ARC
  5
39A
100
AcDbEntity
  8
RACCORDO
100
AcDbCircle
 62
250
  6
CONTINUOUS
 10
-14.1189571174
 20
-21.2062484015
 30
0.0
 40
0.4998923247
100
AcDbArc
 50
179.9965129554
 51
270.0034870447
  0
ARC
  5
39B
100
AcDbEntity
  8
RACCORDO
100
AcDbCircle
 62
250
  6
CONTINUOUS
 10
-16.3186647475
 20
-11.4059560316
 30
0.0
 40
0.200043091
100
AcDbArc
 50
0.0209441592
 51
89.9790558408
  0
ARC
  5
39C
100
AcDbEntity
  8
RACCORDO
100
AcDbCircle
 62
250
  6
CONTINUOUS
 10
-17.4271545875
 20
-11.0144458716
 30
0.0
 40
0.2000430908
100
AcDbArc
 50
180.0209581693
 51
269.9790418307
  0
ARC
  5
39D
100
AcDbEntity
  8
RACCORDO
100
AcDbCircle
 62
7
  6
CONTINUOUS
 10
-17.5238520814
 20
-11.1111433655
 30
0.0
 40
0.1999569277
100
AcDbArc
 50
179.9965049109
 51
270.0034950891
  0
ARC
  5
39E
100
AcDbEntity
  8
RACCORDO
100
AcDbCircle
 62
250
  6
CONTINUOUS
 10
-14.1184092565
 20
14.5834991267
 30
0.0
 40
2.0002153719
100
AcDbArc
 50
90.0112610624
 51
179.9888137454
  0
ARC
  5
39F
100
AcDbEntity
  8
RACCORDO
100
AcDbCircle
 62
250
  6
CONTINUOUS
 10
-15.6997796624
 20
5.9661010401
 30
0.0
 40
1.4046778424
100
AcDbArc
 50
269.6596841408
 51
272.3367884371
  0
ARC
  5
3A0
100
AcDbEntity
  8
RACCORDO
100
AcDbCircle
 62
250
  6
CONTINUOUS
 10
-15.7159145538
 20
5.6679890559
 30
0.0
 40
1.3065099225
100
AcDbArc
 50
269.9488976198
 51
273.8822388056
  0
ARC
  5
3A1
100
AcDbEntity
  8
RACCORDO
100
AcDbCircle
 62
250
  6
CONTINUOUS
 10
-14.1189571174
 20
14.5840469875
 30
0.0
 40
0.4998923247
100
AcDbArc
 50
89.9965129553
 51
180.0034870447
  0
ARC
  5
3A2
100
AcDbEntity
  8
RACCORDO
100
AcDbCircle
 62
250
  6
CONTINUOUS
 10
-17.4271546366
 20
4.3922445068
 30
0.0
 40
0.2000430908
100
AcDbArc
 50
90.0209441163
 51
179.9790558837
  0
ARC
  5
3A3
100
AcDbEntity
  8
RACCORDO
100
AcDbCircle
 62
250
  6
CONTINUOUS
 10
-16.3186647475
 20
4.7837546177
 30
0.0
 40
0.200043091
100
AcDbArc
 50
270.0209442389
 51
359.9790558351
  0
ARC
  5
3A4
100
AcDbEntity
  8
RACCORDO
100
AcDbCircle
 62
7
  6
CONTINUOUS
 10
-17.5238521247
 20
4.4889419948
 30
0.0
 40
0.1999569277
100
AcDbArc
 50
89.9964925066
 51
180.0035074934
  0
ARC
  5
3A5
100
AcDbEntity
  8
0
100
AcDbCircle
 62
7
  6
CONTINUOUS
 10
27.2240331754
 20
-23.3023730028
 30
0.0
 40
5.3978496541
100
AcDbArc
 50
179.9073592516
 51
180.0926407484
  0
CIRCLE
  5
3A6
100
AcDbEntity
  8
0
100
AcDbCircle
 62
250
  6
CONTINUOUS
 10
13.7761905771
 20
-15.811100707
 30
0.0
 40
2.2588036965
  0
CIRCLE
  5
3A7
100
AcDbEntity
  8
0
100
AcDbCircle
 62
250
  6
CONTINUOUS
 10
18.7761905771
 20
-15.811100707
 30
0.0
 40
2.2588036965
  0
ARC
  5
3A8
100
AcDbEntity
  8
RACCORDO
100
AcDbCircle
 62
250
  6
CONTINUOUS
 10
21.6707902456
 20
-21.2057003755
 30
0.0
 40
2.0002153719
100
AcDbArc
 50
270.0112657923
 51
359.9888090155
  0
CIRCLE
  5
3A9
100
AcDbEntity
  8
0
100
AcDbCircle
 62
7
  6
CONTINUOUS
 10
18.7761905771
 20
-15.811100707
 30
0.0
 40
1.7588036965
  0
CIRCLE
  5
3AA
100
AcDbEntity
  8
0
100
AcDbCircle
 62
7
  6
CONTINUOUS
 10
13.7761905771
 20
-15.811100707
 30
0.0
 40
1.7588036965
  0
ARC
  5
3AB
100
AcDbEntity
  8
RACCORDO
100
AcDbCircle
 62
250
  6
CONTINUOUS
 10
23.2521608166
 20
-12.5883024539
 30
0.0
 40
1.4046778423
100
AcDbArc
 50
89.6596841407
 51
92.3367884367
  0
ARC
  5
3AC
100
AcDbEntity
  8
RACCORDO
100
AcDbCircle
 62
250
  6
CONTINUOUS
 10
23.2682755039
 20
-12.2890681082
 30
0.0
 40
1.3053875224
100
AcDbArc
 50
89.9479668891
 51
93.8814895863
  0
ARC
  5
3AD
100
AcDbEntity
  8
RACCORDO
100
AcDbCircle
 62
250
  6
CONTINUOUS
 10
21.6713380684
 20
-21.2062481983
 30
0.0
 40
0.4998925746
100
AcDbArc
 50
269.9965362484
 51
0.0034637516
  0
ARC
  5
3AE
100
AcDbEntity
  8
RACCORDO
100
AcDbCircle
 62
250
  6
CONTINUOUS
 10
23.8710459509
 20
-11.4059560808
 30
0.0
 40
0.200043091
100
AcDbArc
 50
90.0209583078
 51
179.9790417663
  0
ARC
  5
3AF
100
AcDbEntity
  8
RACCORDO
100
AcDbCircle
 62
250
  6
CONTINUOUS
 10
24.9795357908
 20
-11.0144459206
 30
0.0
 40
0.200043091
100
AcDbArc
 50
270.0209441447
 51
359.9790558369
  0
ARC
  5
3B0
100
AcDbEntity
  8
RACCORDO
100
AcDbCircle
 62
7
  6
CONTINUOUS
 10
25.0762332789
 20
-11.1111434088
 30
0.0
 40
0.1999569277
100
AcDbArc
 50
269.9964925066
 51
0.0035074934
  0
ARC
  5
3B1
100
AcDbEntity
  8
RACCORDO
100
AcDbCircle
 62
250
  6
CONTINUOUS
 10
21.6707902457
 20
14.5834989615
 30
0.0
 40
2.0002153719
100
AcDbArc
 50
0.0112657923
 51
89.9888090155
  0
CIRCLE
  5
3B2
100
AcDbEntity
  8
DRAFT
100
AcDbCircle
 62
7
  6
CONTINUOUS
 10
3.7761905771
 20
21.688899293
 30
0.0
 40
1.5
  0
CIRCLE
  5
3B3
100
AcDbEntity
  8
DRAFT
100
AcDbCircle
 62
7
  6
CONTINUOUS
 10
3.7761905771
 20
21.688899293
 30
0.0
 40
1.4738174026
  0
ARC
  5
3B4
100
AcDbEntity
  8
RACCORDO
100
AcDbCircle
 62
250
  6
CONTINUOUS
 10
23.2521611926
 20
5.9663981612
 30
0.0
 40
1.4049743985
100
AcDbArc
 50
267.6636462967
 51
270.340060121
  0
ARC
  5
3B5
100
AcDbEntity
  8
RACCORDO
100
AcDbCircle
 62
250
  6
CONTINUOUS
 10
23.2682828272
 20
5.6670762283
 30
0.0
 40
1.3055968972
100
AcDbArc
 50
266.1187218485
 51
270.0514957027
  0
ARC
  5
3B6
100
AcDbEntity
  8
RACCORDO
100
AcDbCircle
 62
250
  6
CONTINUOUS
 10
21.6713380684
 20
14.5840467843
 30
0.0
 40
0.4998925746
100
AcDbArc
 50
359.9965362482
 51
90.0034637518
  0
ARC
  5
3B7
100
AcDbEntity
  8
RACCORDO
100
AcDbCircle
 62
250
  6
CONTINUOUS
 10
24.9795357909
 20
4.3922445068
 30
0.0
 40
0.2000430908
100
AcDbArc
 50
0.020944103
 51
89.9790558971
  0
ARC
  5
3B8
100
AcDbEntity
  8
RACCORDO
100
AcDbCircle
 62
250
  6
CONTINUOUS
 10
23.8710459509
 20
4.7837546668
 30
0.0
 40
0.200043091
100
AcDbArc
 50
180.0209582422
 51
269.9790417578
  0
ARC
  5
3B9
100
AcDbEntity
  8
RACCORDO
100
AcDbCircle
 62
7
  6
CONTINUOUS
 10
25.0762332789
 20
4.4889419948
 30
0.0
 40
0.1999569277
100
AcDbArc
 50
359.9964925066
 51
90.0035074934
  0
ARC
  5
3BA
100
AcDbEntity
  8
RACCORDO
100
AcDbCircle
 62
250
  6
CONTINUOUS
 10
-59.8000885664
 20
-22.1529421009
 30
0.0
 40
9.554074392
100
AcDbArc
 50
349.2136131589
 51
353.1709097612
  0
ARC
  5
3BB
100
AcDbEntity
  8
RACCORDO
100
AcDbCircle
 62
250
  6
CONTINUOUS
 10
-59.0682449149
 20
-22.2483138032
 30
0.0
 40
9.0186858692
100
AcDbArc
 50
348.5349973168
 51
352.7338543194
  0
ARC
  5
3BC
100
AcDbEntity
  8
RACCORDO
100
AcDbCircle
 62
7
  6
CONTINUOUS
 10
-68.84444086
 20
-21.7061393846
 30
0.0
 40
1.5
100
AcDbArc
 50
180.0000932299
 51
269.0000016271
  0
ARC
  5
3BD
100
AcDbEntity
  8
RACCORDO
100
AcDbCircle
 62
250
  6
CONTINUOUS
 10
-70.1425964763
 20
-10.9839135626
 30
0.0
 40
0.1997669716
100
AcDbArc
 50
209.6281709308
 51
268.9882490395
  0
ARC
  5
3BE
100
AcDbEntity
  8
RACCORDO
100
AcDbCircle
 62
250
  6
CONTINUOUS
 10
-70.1444832943
 20
-10.9864986933
 30
0.0
 40
0.1996076242
100
AcDbArc
 50
256.4604015948
 51
263.4253998581
  0
ARC
  5
3BF
100
AcDbEntity
  8
RACCORDO
100
AcDbCircle
 62
7
  6
CONTINUOUS
 10
-68.84444086
 20
15.0839379706
 30
0.0
 40
1.5
100
AcDbArc
 50
90.9999983729
 51
179.9999067701
  0
ARC
  5
3C0
100
AcDbEntity
  8
RACCORDO
100
AcDbCircle
 62
250
  6
CONTINUOUS
 10
-70.1353553463
 20
4.7801465491
 30
0.0
 40
0.2152335984
100
AcDbArc
 50
214.9568565465
 51
217.2495677147
  0
ARC
  5
3C1
100
AcDbEntity
  8
RACCORDO
100
AcDbCircle
 62
250
  6
CONTINUOUS
 10
-70.1425966831
 20
4.3617125601
 30
0.0
 40
0.1997670901
100
AcDbArc
 50
91.0116986609
 51
150.3719182649
  0
ARC
  5
3C2
100
AcDbEntity
  8
RACCORDO
100
AcDbCircle
 62
250
  6
CONTINUOUS
 10
-70.144480829
 20
4.3642930411
 30
0.0
 40
0.1996115339
100
AcDbArc
 50
96.5750490358
 51
103.5399172382
  0
ARC
  5
3C3
100
AcDbEntity
  8
RACCORDO
100
AcDbCircle
 62
7
  6
CONTINUOUS
 10
-57.34444086
 20
-8.2146408657
 30
0.0
 40
3.0
100
AcDbArc
 50
271.0
 51
360.0
  0
ARC
  5
3C4
100
AcDbEntity
  8
RACCORDO
100
AcDbCircle
 62
250
  6
CONTINUOUS
 10
-57.3409514381
 20
-8.2146398247
 30
0.0
 40
2.8000010593
100
AcDbArc
 50
271.0000213019
 51
359.9999786981
  0
ARC
  5
3C5
100
AcDbEntity
  8
RACCORDO
100
AcDbCircle
 62
250
  6
CONTINUOUS
 10
-46.8479790283
 20
-21.6314922716
 30
0.0
 40
1.7000895022
100
AcDbArc
 50
271.0015576727
 51
320.2463165862
  0
ARC
  5
3C6
100
AcDbEntity
  8
RACCORDO
100
AcDbCircle
 62
7
  6
CONTINUOUS
 10
-46.84444086
 20
-21.5315911761
 30
0.0
 40
1.5
100
AcDbArc
 50
271.0
 51
0.0002244325
  0
ARC
  5
3C7
100
AcDbEntity
  8
RACCORDO
100
AcDbCircle
 62
7
  6
CONTINUOUS
 10
-57.84444086
 20
-7.7237492183
 30
0.0
 40
0.5
100
AcDbArc
 50
271.0
 51
360.0
  0
ARC
  5
3C8
100
AcDbEntity
  8
RACCORDO
100
AcDbCircle
 62
7
  6
CONTINUOUS
 10
-50.7409219006
 20
-25.0997568337
 30
0.0
 40
0.5
100
AcDbArc
 50
271.0006222909
 51
0.0000108604
  0
ARC
  5
3C9
100
AcDbEntity
  8
RACCORDO
100
AcDbCircle
 62
7
  6
CONTINUOUS
 10
-57.64444086
 20
-7.626411337
 30
0.0
 40
0.3
100
AcDbArc
 50
273.0
 51
355.9379446641
  0
ARC
  5
3CA
100
AcDbEntity
  8
RACCORDO
100
AcDbCircle
 62
7
  6
CONTINUOUS
 10
-45.54444086
 20
-24.0590976181
 30
0.0
 40
0.2
100
AcDbArc
 50
271.0
 51
360.0
  0
ARC
  5
3CB
100
AcDbEntity
  8
RACCORDO
100
AcDbCircle
 62
7
  6
CONTINUOUS
 10
-50.0409173178
 20
-24.5376448378
 30
0.0
 40
0.1999999487
100
AcDbArc
 50
90.9997573546
 51
179.9999957652
  0
ARC
  5
3CC
100
AcDbEntity
  8
RACCORDO
100
AcDbCircle
 62
7
  6
CONTINUOUS
 10
-57.34444086
 20
1.5924394518
 30
0.0
 40
3.0
100
AcDbArc
 50
0.0
 51
89.0
  0
ARC
  5
3CD
100
AcDbEntity
  8
RACCORDO
100
AcDbCircle
 62
250
  6
CONTINUOUS
 10
-57.3409514377
 20
1.5924384112
 30
0.0
 40
2.800001059
100
AcDbArc
 50
0.0000212942
 51
88.9999787058
  0
ARC
  5
3CE
100
AcDbEntity
  8
RACCORDO
100
AcDbCircle
 62
250
  6
CONTINUOUS
 10
-46.8479743562
 20
15.0092857377
 30
0.0
 40
1.7000919992
100
AcDbArc
 50
39.7539613921
 51
88.9986027765
  0
ARC
  5
3CF
100
AcDbEntity
  8
RACCORDO
100
AcDbCircle
 62
7
  6
CONTINUOUS
 10
-46.84444086
 20
14.9093897621
 30
0.0
 40
1.5
100
AcDbArc
 50
359.9997756012
 51
89.0035667641
  0
ARC
  5
3D0
100
AcDbEntity
  8
RACCORDO
100
AcDbCircle
 62
7
  6
CONTINUOUS
 10
-57.84444086
 20
1.1015478044
 30
0.0
 40
0.5
100
AcDbArc
 50
0.0
 51
89.0
  0
ARC
  5
3D1
100
AcDbEntity
  8
RACCORDO
100
AcDbCircle
 62
7
  6
CONTINUOUS
 10
-45.84444086
 20
25.2060475832
 30
0.0
 40
0.5
100
AcDbArc
 50
0.0008390927
 51
88.0000292835
  0
ARC
  5
3D2
100
AcDbEntity
  8
RACCORDO
100
AcDbCircle
 62
7
  6
CONTINUOUS
 10
-57.64444086
 20
1.004209923
 30
0.0
 40
0.3
100
AcDbArc
 50
4.0220434926
 51
87.0
  0
ARC
  5
3D3
100
AcDbEntity
  8
RACCORDO
100
AcDbCircle
 62
7
  6
CONTINUOUS
 10
-45.54444086
 20
17.4368962042
 30
0.0
 40
0.2
100
AcDbArc
 50
0.0
 51
89.0
  0
SPLINE
  5
3D4
100
AcDbEntity
  8
0
100
AcDbSpline
 62
7
  6
CONTINUOUS
 70
0
 71
3
 72
9
 73
5
 74
0
 42
0.0000001
 43
0.0000001
 44
0.0000000001
 40
0.0
 40
0.0
 40
0.0
 40
0.0
 40
0.2375389467
 40
1.0
 40
1.0
 40
1.0
 40
1.0
 10
21.8943235469
 20
-23.309413417
 30
0.0
 10
21.8889292978
 20
-23.3095658525
 30
0.0
 10
21.8662213563
 20
-23.3102294026
 30
0.0
 10
21.8434946318
 20
-23.3103220102
 30
0.0
 10
21.8261905771
 20
-23.311100707
 30
0.0
  0
SPLINE
  5
3D5
100
AcDbEntity
  8
0
100
AcDbSpline
 62
7
  6
CONTINUOUS
 70
0
 71
3
 72
9
 73
5
 74
0
 42
0.0000001
 43
0.0000001
 44
0.0000000001
 40
0.0
 40
0.0
 40
0.0
 40
0.0
 40
0.2375389463
 40
1.0
 40
1.0
 40
1.0
 40
1.0
 10
-14.3419423926
 20
-23.309413417
 30
0.0
 10
-14.3365481435
 20
-23.3095658525
 30
0.0
 10
-14.313840202
 20
-23.3102294026
 30
0.0
 10
-14.2911134775
 20
-23.31032201
 30
0.0
 10
-14.2738094229
 20
-23.311100707
 30
0.0
  0
SPLINE
  5
3D6
100
AcDbEntity
  8
RACCORDO
100
AcDbSpline
 62
250
  6
CONTINUOUS
 70
0
 71
3
 72
8
 73
4
 74
0
 42
0.0000001
 43
0.0000001
 44
0.0000000001
 40
0.0
 40
0.0
 40
0.0
 40
0.0
 40
1.0
 40
1.0
 40
1.0
 40
1.0
 10
22.171296304
 20
4.7544901444
 30
0.0
 10
22.2940435069
 20
4.6865263503
 30
0.0
 10
22.4169696857
 20
4.6185486342
 30
0.0
 10
22.5435325457
 20
4.5579863061
 30
0.0
  0
SPLINE
  5
3D7
100
AcDbEntity
  8
RACCORDO
100
AcDbSpline
 62
250
  6
CONTINUOUS
 70
0
 71
3
 72
9
 73
5
 74
0
 42
0.0000001
 43
0.0000001
 44
0.0000000001
 40
0.0
 40
0.0
 40
0.0
 40
0.0
 40
0.2487844333
 40
1.0
 40
1.0
 40
1.0
 40
1.0
 10
22.5908140437
 20
4.6568255294
 30
0.0
 10
22.5559158799
 20
4.6644739115
 30
0.0
 10
22.4157943523
 20
4.6959181211
 30
0.0
 10
22.2761300092
 20
4.7293479571
 30
0.0
 10
22.1712316955
 20
4.7545257587
 30
0.0
  0
SPLINE
  5
3D8
100
AcDbEntity
  8
RACCORDO
100
AcDbSpline
 62
250
  6
CONTINUOUS
 70
0
 71
3
 72
8
 73
4
 74
0
 42
0.0000001
 43
0.0000001
 44
0.0000000001
 40
0.0
 40
0.0
 40
0.0
 40
0.0
 40
1.0
 40
1.0
 40
1.0
 40
1.0
 10
22.5435389401
 20
-11.18018772
 30
0.0
 10
22.4169762051
 20
-11.2407275136
 30
0.0
 10
22.2940179189
 20
-11.3086293278
 30
0.0
 10
22.1713272418
 20
-11.3766748291
 30
0.0
  0
SPLINE
  5
3D9
100
AcDbEntity
  8
RACCORDO
100
AcDbSpline
 62
250
  6
CONTINUOUS
 70
0
 71
3
 72
9
 73
5
 74
0
 42
0.0000001
 43
0.0000001
 44
0.0000000001
 40
0.0
 40
0.0
 40
0.0
 40
0.0
 40
0.2508683074
 40
1.0
 40
1.0
 40
1.0
 40
1.0
 10
22.1712316955
 20
-11.3767271726
 30
0.0
 10
22.2062606381
 20
-11.3683076702
 30
0.0
 10
22.3459099305
 20
-11.3348294274
 30
0.0
 10
22.4857389108
 20
-11.3020512574
 30
0.0
 10
22.5908272732
 20
-11.2790273137
 30
0.0
  0
SPLINE
  5
3DA
100
AcDbEntity
  8
RACCORDO
100
AcDbSpline
 62
250
  6
CONTINUOUS
 70
0
 71
3
 72
9
 73
5
 74
0
 42
0.0000001
 43
0.0000001
 44
0.0000000001
 40
0.0
 40
0.0
 40
0.0
 40
0.0
 40
0.5044366091
 40
1.0
 40
1.0
 40
1.0
 40
1.0
 10
22.5908273756
 20
-11.2790275278
 30
0.0
 10
22.6913261474
 20
-11.2570034885
 30
0.0
 10
22.8910617409
 20
-11.2160278763
 30
0.0
 10
23.0938974019
 20
-11.1889110205
 30
0.0
 10
23.1948874694
 20
-11.1847936221
 30
0.0
  0
SPLINE
  5
3DB
100
AcDbEntity
  8
RACCORDO
100
AcDbSpline
 62
250
  6
CONTINUOUS
 70
0
 71
3
 72
16
 73
12
 74
0
 42
0.0000001
 43
0.0000001
 44
0.0000000001
 40
0.0
 40
0.0
 40
0.0
 40
0.0
 40
0.0077200904
 40
0.024023903
 40
0.0492433756
 40
0.0832982954
 40
0.1768401258
 40
0.3010198103
 40
0.4513948958
 40
0.6224673414
 40
1.0
 40
1.0
 40
1.0
 40
1.0
 10
23.2605040374
 20
-11.1836493895
 30
0.0
 10
23.2609851284
 20
-11.1834622004
 30
0.0
 10
23.2616239038
 20
-11.1817080801
 30
0.0
 10
23.2624051714
 20
-11.1787078909
 30
0.0
 10
23.2631961405
 20
-11.1736103705
 30
0.0
 10
23.2643834023
 20
-11.1635184591
 30
0.0
 10
23.265647909
 20
-11.1466834625
 30
0.0
 10
23.2669375839
 20
-11.1221222181
 30
0.0
 10
23.2680028034
 20
-11.0923349511
 30
0.0
 10
23.2691183032
 20
-11.0456113821
 30
0.0
 10
23.2694413684
 20
-11.0089247863
 30
0.0
 10
23.2694610224
 20
-10.9836800331
 30
0.0
  0
SPLINE
  5
3DC
100
AcDbEntity
  8
RACCORDO
100
AcDbSpline
 62
250
  6
CONTINUOUS
 70
0
 71
3
 72
8
 73
4
 74
0
 42
0.0000001
 43
0.0000001
 44
0.0000000001
 40
0.0
 40
0.0
 40
0.0
 40
0.0
 40
1.0
 40
1.0
 40
1.0
 40
1.0
 10
-14.9911577858
 20
4.5579863061
 30
0.0
 10
-14.8646058228
 20
4.6185484949
 30
0.0
 10
-14.7416782931
 20
4.6865026226
 30
0.0
 10
-14.6189460876
 20
4.7544730853
 30
0.0
  0
SPLINE
  5
3DD
100
AcDbEntity
  8
RACCORDO
100
AcDbSpline
 62
250
  6
CONTINUOUS
 70
0
 71
3
 72
9
 73
5
 74
0
 42
0.0000001
 43
0.0000001
 44
0.0000000001
 40
0.0
 40
0.0
 40
0.0
 40
0.0
 40
0.2508883164
 40
1.0
 40
1.0
 40
1.0
 40
1.0
 10
-14.6188505412
 20
4.7545257587
 30
0.0
 10
-14.6538846277
 20
4.7461154222
 30
0.0
 10
-14.7935333816
 20
4.7126351914
 30
0.0
 10
-14.9333618569
 20
4.6798553286
 30
0.0
 10
-15.0384459677
 20
4.6568255838
 30
0.0
  0
SPLINE
  5
3DE
100
AcDbEntity
  8
RACCORDO
100
AcDbSpline
 62
250
  6
CONTINUOUS
 70
0
 71
3
 72
9
 73
5
 74
0
 42
0.0000001
 43
0.0000001
 44
0.0000000001
 40
0.0
 40
0.0
 40
0.0
 40
0.0
 40
0.5044414304
 40
1.0
 40
1.0
 40
1.0
 40
1.0
 10
-15.0384463547
 20
4.6568263926
 30
0.0
 10
-15.1389470211
 20
4.6348063726
 30
0.0
 10
-15.3386807138
 20
4.5938208845
 30
0.0
 10
-15.5415172627
 20
4.5667108224
 30
0.0
 10
-15.6425062899
 20
4.5625918745
 30
0.0
  0
SPLINE
  5
3DF
100
AcDbEntity
  8
RACCORDO
100
AcDbSpline
 62
250
  6
CONTINUOUS
 70
0
 71
3
 72
16
 73
12
 74
0
 42
0.0000001
 43
0.0000001
 44
0.0000000001
 40
0.0
 40
0.0
 40
0.0
 40
0.0
 40
0.0077200905
 40
0.0240239032
 40
0.0492433761
 40
0.0832982961
 40
0.1768401272
 40
0.301019813
 40
0.4513949004
 40
0.6224673458
 40
1.0
 40
1.0
 40
1.0
 40
1.0
 10
-15.7081228831
 20
4.5614479756
 30
0.0
 10
-15.7086039742
 20
4.5612607865
 30
0.0
 10
-15.7092427496
 20
4.5595066661
 30
0.0
 10
-15.7100240171
 20
4.5565064769
 30
0.0
 10
-15.7108149862
 20
4.5514089564
 30
0.0
 10
-15.712002248
 20
4.541317045
 30
0.0
 10
-15.7132667548
 20
4.5244820482
 30
0.0
 10
-15.7145564296
 20
4.4999208035
 30
0.0
 10
-15.7156216492
 20
4.4701335363
 30
0.0
 10
-15.7167371492
 20
4.4234099675
 30
0.0
 10
-15.7170602144
 20
4.386723372
 30
0.0
 10
-15.7170798684
 20
4.3614786191
 30
0.0
  0
SPLINE
  5
3E0
100
AcDbEntity
  8
RACCORDO
100
AcDbSpline
 62
250
  6
CONTINUOUS
 70
0
 71
3
 72
16
 73
12
 74
0
 42
0.0000001
 43
0.0000001
 44
0.0000000001
 40
0.0
 40
0.0
 40
0.0
 40
0.0
 40
0.3775329313
 40
0.5486055016
 40
0.6989806763
 40
0.8231603892
 40
0.9167021721
 40
0.9507570336
 40
0.975976421
 40
0.9922801104
 40
1.0
 40
1.0
 40
1.0
 40
1.0
 10
-15.7170751395
 20
-10.9836803328
 30
0.0
 10
-15.717055497
 20
-11.0089251247
 30
0.0
 10
-15.7167324697
 20
-11.045611777
 30
0.0
 10
-15.7156170523
 20
-11.092335418
 30
0.0
 10
-15.7145519046
 20
-11.1221227284
 30
0.0
 10
-15.7132623101
 20
-11.1466840002
 30
0.0
 10
-15.7119978845
 20
-11.1635190141
 30
0.0
 10
-15.7108106915
 20
-11.1736109243
 30
0.0
 10
-15.7100197782
 20
-11.1787084467
 30
0.0
 10
-15.7092385465
 20
-11.1817086065
 30
0.0
 10
-15.7085998279
 20
-11.1834627366
 30
0.0
 10
-15.7081187496
 20
-11.1836499226
 30
0.0
  0
SPLINE
  5
3E1
100
AcDbEntity
  8
RACCORDO
100
AcDbSpline
 62
250
  6
CONTINUOUS
 70
0
 71
3
 72
9
 73
5
 74
0
 42
0.0000001
 43
0.0000001
 44
0.0000000001
 40
0.0
 40
0.0
 40
0.0
 40
0.0
 40
0.4955579969
 40
1.0
 40
1.0
 40
1.0
 40
1.0
 10
-15.6425052267
 20
-11.1847936775
 30
0.0
 10
-15.5415143691
 20
-11.1889120294
 30
0.0
 10
-15.3386740569
 20
-11.216023986
 30
0.0
 10
-15.1389364259
 20
-11.257009023
 30
0.0
 10
-15.0384334213
 20
-11.2790280548
 30
0.0
  0
SPLINE
  5
3E2
100
AcDbEntity
  8
RACCORDO
100
AcDbSpline
 62
250
  6
CONTINUOUS
 70
0
 71
3
 72
8
 73
4
 74
0
 42
0.0000001
 43
0.0000001
 44
0.0000000001
 40
0.0
 40
0.0
 40
0.0
 40
0.0
 40
1.0
 40
1.0
 40
1.0
 40
1.0
 10
-14.6189151498
 20
-11.3766917813
 30
0.0
 10
-14.7416380635
 20
-11.3086840663
 30
0.0
 10
-14.8645786032
 20
-11.2407293761
 30
0.0
 10
-14.9911513915
 20
-11.18018772
 30
0.0
  0
SPLINE
  5
3E3
100
AcDbEntity
  8
RACCORDO
100
AcDbSpline
 62
250
  6
CONTINUOUS
 70
0
 71
3
 72
9
 73
5
 74
0
 42
0.0000001
 43
0.0000001
 44
0.0000000001
 40
0.0
 40
0.0
 40
0.0
 40
0.0
 40
0.2487674621
 40
1.0
 40
1.0
 40
1.0
 40
1.0
 10
-15.038433357
 20
-11.2790279205
 30
0.0
 10
-15.0035370852
 20
-11.286673659
 30
0.0
 10
-14.8634148754
 20
-11.3181151788
 30
0.0
 10
-14.7237471545
 20
-11.3515315515
 30
0.0
 10
-14.6188505412
 20
-11.3767271726
 30
0.0
  0
SPLINE
  5
3E4
100
AcDbEntity
  8
RACCORDO
100
AcDbSpline
 62
250
  6
CONTINUOUS
 70
0
 71
3
 72
9
 73
5
 74
0
 42
0.0000001
 43
0.0000001
 44
0.0000000001
 40
0.0
 40
0.0
 40
0.0
 40
0.0
 40
0.4996478224
 40
1.0
 40
1.0
 40
1.0
 40
1.0
 10
-15.6274559747
 20
4.3644805953
 30
0.0
 10
-15.5165449526
 20
4.3728824413
 30
0.0
 10
-15.2969921831
 20
4.4228766206
 30
0.0
 10
-15.0916327026
 20
4.5099077995
 30
0.0
 10
-14.9911577858
 20
4.5579863061
 30
0.0
  0
SPLINE
  5
3E5
100
AcDbEntity
  8
RACCORDO
100
AcDbSpline
 62
250
  6
CONTINUOUS
 70
0
 71
3
 72
23
 73
19
 74
0
 42
0.0000001
 43
0.0000001
 44
0.0000000001
 40
0.0
 40
0.0
 40
0.0
 40
0.0
 40
0.195167816
 40
0.3817539351
 40
0.5531442846
 40
0.631214408
 40
0.7032650651
 40
0.768650013
 40
0.8267995817
 40
0.8771867799
 40
0.9193781845
 40
0.9529899242
 40
0.9664891678
 40
0.9777420562
 40
0.986721823
 40
0.9934180203
 40
0.9978310344
 40
1.0
 40
1.0
 40
1.0
 40
1.0
 10
-15.7170751036
 20
-10.9836812724
 30
0.0
 10
-15.8413961786
 20
-10.983768997
 30
0.0
 10
-16.084571764
 20
-10.9842916224
 30
0.0
 10
-16.4369181239
 20
-10.9861391394
 30
0.0
 10
-16.714668313
 20
-10.9885563805
 30
0.0
 10
-16.9194549253
 20
-10.9910230687
 30
0.0
 10
-17.0567167723
 20
-10.9930231493
 30
0.0
 10
-17.1812848176
 20
-10.9952122669
 30
0.0
 10
-17.2920472234
 20
-10.997567724
 30
0.0
 10
-17.3880293555
 20
-11.0000635485
 30
0.0
 10
-17.4683679322
 20
-11.0026757117
 30
0.0
 10
-17.5252108588
 20
-11.005042641
 30
0.0
 10
-17.5623256849
 20
-11.0070707411
 30
0.0
 10
-17.5837849178
 20
-11.0084683974
 30
0.0
 10
-17.6008332816
 20
-11.0099190972
 30
0.0
 10
-17.6136724364
 20
-11.0112176597
 30
0.0
 10
-17.6217974571
 20
-11.0127349552
 30
0.0
 10
-17.6261685625
 20
-11.0135967765
 30
0.0
 10
-17.6271973
 20
-11.0145190451
 30
0.0
  0
SPLINE
  5
3E6
100
AcDbEntity
  8
RACCORDO
100
AcDbSpline
 62
250
  6
CONTINUOUS
 70
0
 71
3
 72
23
 73
19
 74
0
 42
0.0000001
 43
0.0000001
 44
0.0000000001
 40
0.0
 40
0.0
 40
0.0
 40
0.0
 40
0.1951766462
 40
0.3817704111
 40
0.5531663575
 40
0.6312382638
 40
0.7032899377
 40
0.7686750735
 40
0.8268238818
 40
0.8772093149
 40
0.9193981592
 40
0.9530065976
 40
0.9665036581
 40
0.977753819
 40
0.9867302987
 40
0.9934230762
 40
0.9978330683
 40
1.0
 40
1.0
 40
1.0
 40
1.0
 10
-15.7170798361
 20
4.3614796531
 30
0.0
 10
-15.8414064252
 20
4.361567364
 30
0.0
 10
-16.0845922885
 20
4.3620903742
 30
0.0
 10
-16.4369523946
 20
4.3639379364
 30
0.0
 10
-16.7147119063
 20
4.3663554087
 30
0.0
 10
-16.9195036826
 20
4.3688223111
 30
0.0
 10
-17.0567673084
 20
4.3708225468
 30
0.0
 10
-17.1813355232
 20
4.3730118272
 30
0.0
 10
-17.2920963367
 20
4.3753674509
 30
0.0
 10
-17.388075141
 20
4.377863441
 30
0.0
 10
-17.4684087731
 20
4.3804757753
 30
0.0
 10
-17.5252465315
 20
4.3828428245
 30
0.0
 10
-17.5623560546
 20
4.3848710791
 30
0.0
 10
-17.5838100803
 20
4.3862687863
 30
0.0
 10
-17.6008522724
 20
4.387719583
 30
0.0
 10
-17.613685446
 20
4.389018198
 30
0.0
 10
-17.621804503
 20
4.3905355426
 30
0.0
 10
-17.6261728521
 20
4.3913974983
 30
0.0
 10
-17.6271997755
 20
4.3923198468
 30
0.0
  0
SPLINE
  5
3E7
100
AcDbEntity
  8
RACCORDO
100
AcDbSpline
 62
250
  6
CONTINUOUS
 70
0
 71
3
 72
23
 73
19
 74
0
 42
0.0000001
 43
0.0000001
 44
0.0000000001
 40
0.0
 40
0.0
 40
0.0
 40
0.0
 40
0.195167816
 40
0.3817539351
 40
0.5531442846
 40
0.631214408
 40
0.7032650651
 40
0.768650013
 40
0.8267995817
 40
0.8771867799
 40
0.9193781845
 40
0.9529899242
 40
0.9664891678
 40
0.9777420562
 40
0.986721823
 40
0.9934180203
 40
0.9978310344
 40
1.0
 40
1.0
 40
1.0
 40
1.0
 10
23.2694562578
 20
4.3614798584
 30
0.0
 10
23.3937773328
 20
4.3615675831
 30
0.0
 10
23.6369529183
 20
4.3620902085
 30
0.0
 10
23.9892992782
 20
4.3639377255
 30
0.0
 10
24.2670494672
 20
4.3663549666
 30
0.0
 10
24.4718360796
 20
4.3688216548
 30
0.0
 10
24.6090979266
 20
4.3708217353
 30
0.0
 10
24.7336659718
 20
4.373010853
 30
0.0
 10
24.8444283777
 20
4.37536631
 30
0.0
 10
24.9404105098
 20
4.3778621346
 30
0.0
 10
25.0207490864
 20
4.3804742978
 30
0.0
 10
25.077592013
 20
4.3828412271
 30
0.0
 10
25.1147068391
 20
4.3848693272
 30
0.0
 10
25.1361660721
 20
4.3862669835
 30
0.0
 10
25.1532144358
 20
4.3877176833
 30
0.0
 10
25.1660535906
 20
4.3890162458
 30
0.0
 10
25.1741786113
 20
4.3905335412
 30
0.0
 10
25.1785497167
 20
4.3913953625
 30
0.0
 10
25.1795784542
 20
4.3923176311
 30
0.0
  0
SPLINE
  5
3E8
100
AcDbEntity
  8
RACCORDO
100
AcDbSpline
 62
250
  6
CONTINUOUS
 70
0
 71
3
 72
23
 73
19
 74
0
 42
0.0000001
 43
0.0000001
 44
0.0000000001
 40
0.0
 40
0.0
 40
0.0
 40
0.0
 40
0.0021689659
 40
0.0065819786
 40
0.013278173
 40
0.0222579354
 40
0.033510818
 40
0.0470100546
 40
0.0806217769
 40
0.1228131604
 40
0.1732003353
 40
0.2313498801
 40
0.2967348054
 40
0.3687854431
 40
0.4468555526
 40
0.6182458998
 40
0.8048320669
 40
1.0
 40
1.0
 40
1.0
 40
1.0
 10
25.1795784542
 20
-11.0145190451
 30
0.0
 10
25.1785497191
 20
-11.0135967787
 30
0.0
 10
25.1741786261
 20
-11.0127349576
 30
0.0
 10
25.1660536278
 20
-11.0112176653
 30
0.0
 10
25.1532145108
 20
-11.0099191043
 30
0.0
 10
25.1361661976
 20
-11.0084684069
 30
0.0
 10
25.1147070289
 20
-11.0070707525
 30
0.0
 10
25.0775923141
 20
-11.0050426554
 30
0.0
 10
25.0207495575
 20
-11.0026757293
 30
0.0
 10
24.9404112192
 20
-11.0000635695
 30
0.0
 10
24.8444293683
 20
-10.9975677476
 30
0.0
 10
24.7336672813
 20
-10.9952122919
 30
0.0
 10
24.6090995866
 20
-10.9930231758
 30
0.0
 10
24.4718381151
 20
-10.9910230979
 30
0.0
 10
24.2670520326
 20
-10.9885564072
 30
0.0
 10
23.9893025112
 20
-10.9861391463
 30
0.0
 10
23.63695692
 20
-10.984291705
 30
0.0
 10
23.393781832
 20
-10.9837688533
 30
0.0
 10
23.2694609903
 20
-10.9836811241
 30
0.0
  0
SPLINE
  5
3E9
100
AcDbEntity
  8
RACCORDO
100
AcDbSpline
 62
250
  6
CONTINUOUS
 70
0
 71
3
 72
21
 73
17
 74
0
 42
0.0000001
 43
0.0000001
 44
0.0000000001
 40
0.0
 40
0.0
 40
0.0
 40
0.0
 40
0.1928826003
 40
0.3785051109
 40
0.5498980811
 40
0.700626047
 40
0.7664339834
 40
0.8250327791
 40
0.8758627612
 40
0.9184602655
 40
0.9524186641
 40
0.9774350357
 40
0.9865116877
 40
0.9932845726
 40
0.997759569
 40
1.0
 40
1.0
 40
1.0
 40
1.0
 10
-14.6189460871
 20
4.7545259418
 30
0.0
 10
-14.7154323116
 20
4.7545258204
 30
0.0
 10
-14.9047732194
 20
4.7548846279
 30
0.0
 10
-15.179846501
 20
4.7564830083
 30
0.0
 10
-15.4338240057
 20
4.7590749398
 30
0.0
 10
-15.6278572535
 20
4.7620790794
 30
0.0
 10
-15.7654577396
 20
4.7649968274
 30
0.0
 10
-15.8530891371
 20
4.7672548828
 30
0.0
 10
-15.9290973024
 20
4.7696633899
 30
0.0
 10
-15.992779287
 20
4.7721742246
 30
0.0
 10
-16.0435024421
 20
4.7747915617
 30
0.0
 10
-16.077511735
 20
4.7771147561
 30
0.0
 10
-16.0977929543
 20
4.7792006172
 30
0.0
 10
-16.1079784714
 20
4.7805003505
 30
0.0
 10
-16.1143902347
 20
4.7819095747
 30
0.0
 10
-16.1178821082
 20
4.7828453922
 30
0.0
 10
-16.1186248797
 20
4.7836846435
 30
0.0
  0
SPLINE
  5
3EA
100
AcDbEntity
  8
RACCORDO
100
AcDbSpline
 62
250
  6
CONTINUOUS
 70
0
 71
3
 72
21
 73
17
 74
0
 42
0.0000001
 43
0.0000001
 44
0.0000000001
 40
0.0
 40
0.0
 40
0.0
 40
0.0
 40
0.0022398488
 40
0.0067138732
 40
0.0134857223
 40
0.02256158
 40
0.0475731354
 40
0.0815259387
 40
0.1241204475
 40
0.1749481131
 40
0.2335462121
 40
0.2993526928
 40
0.4500793933
 40
0.6214742375
 40
0.8071091196
 40
1.0
 40
1.0
 40
1.0
 40
1.0
 10
23.6710056679
 20
4.7836842315
 30
0.0
 10
23.6702632421
 20
4.7828450327
 30
0.0
 10
23.6667720644
 20
4.7819091196
 30
0.0
 10
23.660361495
 20
4.7805000787
 30
0.0
 10
23.6501771291
 20
4.779200494
 30
0.0
 10
23.6298987833
 20
4.777115305
 30
0.0
 10
23.595894403
 20
4.7747922426
 30
0.0
 10
23.5451769199
 20
4.7721750344
 30
0.0
 10
23.4814990961
 20
4.769664143
 30
0.0
 10
23.405492392
 20
4.7672554522
 30
0.0
 10
23.317861442
 20
4.7649973737
 30
0.0
 10
23.1802598622
 20
4.7620794151
 30
0.0
 10
22.9862230801
 20
4.7590751587
 30
0.0
 10
22.7322339023
 20
4.7564829962
 30
0.0
 10
22.45714374
 20
4.7548846101
 30
0.0
 10
22.2677886388
 20
4.7545258029
 30
0.0
 10
22.1712963038
 20
4.754525885
 30
0.0
  0
SPLINE
  5
3EB
100
AcDbEntity
  8
RACCORDO
100
AcDbSpline
 62
250
  6
CONTINUOUS
 70
0
 71
3
 72
21
 73
17
 74
0
 42
0.0000001
 43
0.0000001
 44
0.0000000001
 40
0.0
 40
0.0
 40
0.0
 40
0.0
 40
0.1928826003
 40
0.3785051109
 40
0.5498980811
 40
0.700626047
 40
0.7664339834
 40
0.8250327791
 40
0.8758627612
 40
0.9184602655
 40
0.9524186641
 40
0.9774350357
 40
0.9865116877
 40
0.9932845726
 40
0.997759569
 40
1.0
 40
1.0
 40
1.0
 40
1.0
 10
22.1713272413
 20
-11.3767273558
 30
0.0
 10
22.2678134659
 20
-11.3767272344
 30
0.0
 10
22.4571543737
 20
-11.3770860419
 30
0.0
 10
22.7322276552
 20
-11.3786844222
 30
0.0
 10
22.9862051599
 20
-11.3812763538
 30
0.0
 10
23.1802384077
 20
-11.3842804933
 30
0.0
 10
23.3178388939
 20
-11.3871982413
 30
0.0
 10
23.4054702914
 20
-11.3894562968
 30
0.0
 10
23.4814784566
 20
-11.3918648038
 30
0.0
 10
23.5451604412
 20
-11.3943756385
 30
0.0
 10
23.5958835964
 20
-11.3969929757
 30
0.0
 10
23.6298928892
 20
-11.3993161701
 30
0.0
 10
23.6501741085
 20
-11.4014020312
 30
0.0
 10
23.6603596256
 20
-11.4027017645
 30
0.0
 10
23.6667713889
 20
-11.4041109886
 30
0.0
 10
23.6702632625
 20
-11.4050468062
 30
0.0
 10
23.6710060339
 20
-11.4058860574
 30
0.0
  0
SPLINE
  5
3EC
100
AcDbEntity
  8
RACCORDO
100
AcDbSpline
 62
250
  6
CONTINUOUS
 70
0
 71
3
 72
21
 73
17
 74
0
 42
0.0000001
 43
0.0000001
 44
0.0000000001
 40
0.0
 40
0.0
 40
0.0
 40
0.0
 40
0.0022398488
 40
0.0067138732
 40
0.0134857223
 40
0.02256158
 40
0.0475731354
 40
0.0815259387
 40
0.1241204475
 40
0.1749481131
 40
0.2335462121
 40
0.2993526928
 40
0.4500793933
 40
0.6214742375
 40
0.8071091196
 40
1.0
 40
1.0
 40
1.0
 40
1.0
 10
-16.1186245136
 20
-11.4058856455
 30
0.0
 10
-16.1178820878
 20
-11.4050464467
 30
0.0
 10
-16.1143909102
 20
-11.4041105336
 30
0.0
 10
-16.1079803407
 20
-11.4027014927
 30
0.0
 10
-16.0977959749
 20
-11.401401908
 30
0.0
 10
-16.077517629
 20
-11.399316719
 30
0.0
 10
-16.0435132488
 20
-11.3969936565
 30
0.0
 10
-15.9927957657
 20
-11.3943764484
 30
0.0
 10
-15.9291179419
 20
-11.3918655569
 30
0.0
 10
-15.8531112377
 20
-11.3894568662
 30
0.0
 10
-15.7654802877
 20
-11.3871987876
 30
0.0
 10
-15.6278787079
 20
-11.384280829
 30
0.0
 10
-15.4338419258
 20
-11.3812765727
 30
0.0
 10
-15.1798527481
 20
-11.3786844101
 30
0.0
 10
-14.9047625858
 20
-11.3770860241
 30
0.0
 10
-14.7154074846
 20
-11.3767272169
 30
0.0
 10
-14.6189151495
 20
-11.376727299
 30
0.0
  0
LINE
  5
3ED
100
AcDbEntity
  8
0
100
AcDbLine
 62
7
  6
CONTINUOUS
 10
-14.240215405
 20
-23.2936455563
 30
0.0
 11
-14.2738094229
 21
-23.2936452986
 31
0.0
  0
LINE
  5
3EE
100
AcDbEntity
  8
0
100
AcDbLine
 62
7
  6
CONTINUOUS
 10
-14.2066589676
 20
-23.293645642
 30
0.0
 11
-14.240215405
 21
-23.2936455563
 31
0.0
  0
LINE
  5
3EF
100
AcDbEntity
  8
0
100
AcDbLine
 62
7
  6
CONTINUOUS
 10
21.7925972113
 20
-23.2936455563
 30
0.0
 11
21.7590401219
 21
-23.293645642
 31
0.0
  0
LINE
  5
3F0
100
AcDbEntity
  8
0
100
AcDbLine
 62
7
  6
CONTINUOUS
 10
21.8261905771
 20
-23.2936452986
 30
0.0
 11
21.7925972113
 21
-23.2936455563
 31
0.0
  0
SPLINE
  5
3F1
100
AcDbEntity
  8
RACCORDO
100
AcDbSpline
 62
250
  6
CONTINUOUS
 70
0
 71
3
 72
9
 73
5
 74
0
 42
0.0000001
 43
0.0000001
 44
0.0000000001
 40
0.0
 40
0.0
 40
0.0
 40
0.0
 40
0.5003583649
 40
1.0
 40
1.0
 40
1.0
 40
1.0
 10
22.5435325457
 20
4.5579863061
 30
0.0
 10
22.6440243187
 20
4.5099101359
 30
0.0
 10
22.8494041084
 20
4.4228630506
 30
0.0
 10
23.0689850786
 20
4.3728694088
 30
0.0
 10
23.1799079057
 20
4.3644721633
 30
0.0
  0
SPLINE
  5
3F2
100
AcDbEntity
  8
RACCORDO
100
AcDbSpline
 62
250
  6
CONTINUOUS
 70
0
 71
3
 72
9
 73
5
 74
0
 42
0.0000001
 43
0.0000001
 44
0.0000000001
 40
0.0
 40
0.0
 40
0.0
 40
0.0
 40
0.4996419314
 40
1.0
 40
1.0
 40
1.0
 40
1.0
 10
23.1799099486
 20
-10.9866731299
 30
0.0
 10
23.0689877574
 20
-10.9950708532
 30
0.0
 10
22.849409345
 20
-11.0450664909
 30
0.0
 10
22.6440272898
 20
-11.1321060882
 30
0.0
 10
22.5435389401
 20
-11.18018772
 30
0.0
  0
SPLINE
  5
3F3
100
AcDbEntity
  8
RACCORDO
100
AcDbSpline
 62
250
  6
CONTINUOUS
 70
0
 71
3
 72
9
 73
5
 74
0
 42
0.0000001
 43
0.0000001
 44
0.0000000001
 40
0.0
 40
0.0
 40
0.0
 40
0.0
 40
0.5003536124
 40
1.0
 40
1.0
 40
1.0
 40
1.0
 10
-14.9911513915
 20
-11.18018772
 30
0.0
 10
-15.0916290158
 20
-11.1321124463
 30
0.0
 10
-15.2969878576
 20
-11.0450768878
 30
0.0
 10
-15.5165428262
 20
-10.9950836834
 30
0.0
 10
-15.6274542999
 20
-10.9866824075
 30
0.0
  0
SPLINE
  5
3F4
100
AcDbEntity
  8
RACCORDO
100
AcDbSpline
 62
250
  6
CONTINUOUS
 70
0
 71
3
 72
18
 73
14
 74
0
 42
0.0000001
 43
0.0000001
 44
0.0000000001
 40
0.0
 40
0.0
 40
0.0
 40
0.0
 40
0.2181537946
 40
0.4136085297
 40
0.5837295897
 40
0.7266681498
 40
0.8408465747
 40
0.8867470936
 40
0.9249861106
 40
0.9554443329
 40
0.9780800505
 40
0.9928874456
 40
1.0
 40
1.0
 40
1.0
 40
1.0
 10
23.2605038099
 20
-11.1836493484
 30
0.0
 10
23.3049541824
 20
-11.184296309
 30
0.0
 10
23.3892281765
 20
-11.1856501467
 30
0.0
 10
23.5081562905
 20
-11.1880125629
 30
0.0
 10
23.611750745
 20
-11.1905695825
 30
0.0
 10
23.6987678698
 20
-11.1932893475
 30
0.0
 10
23.7604748461
 20
-11.1957807516
 30
0.0
 10
23.8008203987
 20
-11.1979350832
 30
0.0
 10
23.8241489335
 20
-11.1994223148
 30
0.0
 10
23.8426368172
 20
-11.2009809678
 30
0.0
 10
23.8565486174
 20
-11.2023549608
 30
0.0
 10
23.8652179599
 20
-11.2040079999
 30
0.0
 10
23.8699410846
 20
-11.2048953643
 30
0.0
 10
23.8709727772
 20
-11.2059133681
 30
0.0
  0
SPLINE
  5
3F5
100
AcDbEntity
  8
RACCORDO
100
AcDbSpline
 62
250
  6
CONTINUOUS
 70
0
 71
3
 72
22
 73
18
 74
0
 42
0.0000001
 43
0.0000001
 44
0.0000000001
 40
0.0
 40
0.0
 40
0.0
 40
0.0
 40
0.002202535
 40
0.0066303574
 40
0.0133345421
 40
0.0223194704
 40
0.0335766501
 40
0.0470795775
 40
0.0806960616
 40
0.1228874502
 40
0.1732717004
 40
0.2314175796
 40
0.2967979906
 40
0.4469064768
 40
0.6182833534
 40
0.8048515769
 40
1.0
 40
1.0
 40
1.0
 40
1.0
 10
24.9796089152
 20
-11.2144885841
 30
0.0
 10
24.9787124395
 20
-11.2135991574
 30
0.0
 10
24.9747586188
 20
-11.2126828694
 30
0.0
 10
24.9674473733
 20
-11.2112024171
 30
0.0
 10
24.9558843442
 20
-11.2098830497
 30
0.0
 10
24.9405437866
 20
-11.2084404939
 30
0.0
 10
24.9212297157
 20
-11.2070396928
 30
0.0
 10
24.8878275865
 20
-11.2050131206
 30
0.0
 10
24.8366687053
 20
-11.2026453109
 30
0.0
 10
24.7643645823
 20
-11.20003343
 30
0.0
 10
24.6779823923
 20
-11.1975375056
 30
0.0
 10
24.5782977493
 20
-11.1951817468
 30
0.0
 10
24.4214374054
 20
-11.192120957
 30
0.0
 10
24.1996478028
 20
-11.1889298709
 30
0.0
 10
23.908365863
 20
-11.1861072291
 30
0.0
 10
23.5912518391
 20
-11.1842622604
 30
0.0
 10
23.3723930166
 20
-11.1837370515
 30
0.0
 10
23.2605038099
 20
-11.1836493484
 30
0.0
  0
SPLINE
  5
3F6
100
AcDbEntity
  8
RACCORDO
100
AcDbSpline
 62
250
  6
CONTINUOUS
 70
0
 71
3
 72
22
 73
18
 74
0
 42
0.0000001
 43
0.0000001
 44
0.0000000001
 40
0.0
 40
0.0
 40
0.0
 40
0.0
 40
0.1951485209
 40
0.3817167589
 40
0.5530936269
 40
0.703202089
 40
0.7685824855
 40
0.8267283498
 40
0.8771125858
 40
0.9193039617
 40
0.9529204353
 40
0.9664233585
 40
0.9776805348
 40
0.9866654605
 40
0.9933696435
 40
0.997797465
 40
1.0
 40
1.0
 40
1.0
 40
1.0
 10
23.260505911
 20
4.5614479483
 30
0.0
 10
23.3723950371
 20
4.5615356468
 30
0.0
 10
23.5912536567
 20
4.5620608516
 30
0.0
 10
23.9083673526
 20
4.5639058275
 30
0.0
 10
24.1996489261
 20
4.5667284705
 30
0.0
 10
24.4214382307
 20
4.5699195569
 30
0.0
 10
24.5782983522
 20
4.5729803459
 30
0.0
 10
24.6779828485
 20
4.5753361037
 30
0.0
 10
24.7643649089
 20
4.5778320267
 30
0.0
 10
24.8366689221
 20
4.580443906
 30
0.0
 10
24.887827725
 20
4.582811714
 30
0.0
 10
24.921229803
 20
4.5848382848
 30
0.0
 10
24.9405438444
 20
4.5862390848
 30
0.0
 10
24.9558843787
 20
4.5876816394
 30
0.0
 10
24.9674473905
 20
4.5890010059
 30
0.0
 10
24.9747586256
 20
4.5904814568
 30
0.0
 10
24.9787124406
 20
4.5913977445
 30
0.0
 10
24.9796089152
 20
4.5922871701
 30
0.0
  0
SPLINE
  5
3F7
100
AcDbEntity
  8
RACCORDO
100
AcDbSpline
 62
250
  6
CONTINUOUS
 70
0
 71
3
 72
18
 73
14
 74
0
 42
0.0000001
 43
0.0000001
 44
0.0000000001
 40
0.0
 40
0.0
 40
0.0
 40
0.0
 40
0.007105868
 40
0.0219017422
 40
0.0445325469
 40
0.0749981281
 40
0.1132234094
 40
0.1590985735
 40
0.2732965074
 40
0.416255629
 40
0.586362674
 40
0.7817576239
 40
1.0
 40
1.0
 40
1.0
 40
1.0
 10
23.8709727772
 20
4.5837119541
 30
0.0
 10
23.8699429425
 20
4.5826940127
 30
0.0
 10
23.8652240002
 20
4.5818042363
 30
0.0
 10
23.8565594911
 20
4.5801516398
 30
0.0
 10
23.8426494128
 20
4.5787777211
 30
0.0
 10
23.8241637271
 20
4.577221845
 30
0.0
 10
23.8008416852
 20
4.5757351732
 30
0.0
 10
23.7605002368
 20
4.5735804895
 30
0.0
 10
23.6987903728
 20
4.5710894247
 30
0.0
 10
23.6117681791
 20
4.5683680565
 30
0.0
 10
23.508184761
 20
4.5658125215
 30
0.0
 10
23.3892539201
 20
4.563448909
 30
0.0
 10
23.3049742374
 20
4.5620950813
 30
0.0
 10
23.260505911
 20
4.5614479483
 30
0.0
  0
SPLINE
  5
3F8
100
AcDbEntity
  8
RACCORDO
100
AcDbSpline
 62
250
  6
CONTINUOUS
 70
0
 71
3
 72
18
 73
14
 74
0
 42
0.0000001
 43
0.0000001
 44
0.0000000001
 40
0.0
 40
0.0
 40
0.0
 40
0.0
 40
0.007105868
 40
0.0219017422
 40
0.0445325469
 40
0.0749981281
 40
0.1132234094
 40
0.1590985735
 40
0.2732965074
 40
0.416255629
 40
0.586362674
 40
0.7817576239
 40
1.0
 40
1.0
 40
1.0
 40
1.0
 10
-16.318591623
 20
-11.2059133681
 30
0.0
 10
-16.3175617882
 20
-11.2048954266
 30
0.0
 10
-16.3128428459
 20
-11.2040056503
 30
0.0
 10
-16.3041783368
 20
-11.2023530537
 30
0.0
 10
-16.2902682585
 20
-11.2009791351
 30
0.0
 10
-16.2717825728
 20
-11.199423259
 30
0.0
 10
-16.248460531
 20
-11.1979365872
 30
0.0
 10
-16.2081190825
 20
-11.1957819035
 30
0.0
 10
-16.1464092185
 20
-11.1932908386
 30
0.0
 10
-16.0593870249
 20
-11.1905694704
 30
0.0
 10
-15.9558036067
 20
-11.1880139354
 30
0.0
 10
-15.8368727659
 20
-11.185650323
 30
0.0
 10
-15.7525930832
 20
-11.1842964953
 30
0.0
 10
-15.7081247568
 20
-11.1836493622
 30
0.0
  0
SPLINE
  5
3F9
100
AcDbEntity
  8
RACCORDO
100
AcDbSpline
 62
250
  6
CONTINUOUS
 70
0
 71
3
 72
22
 73
18
 74
0
 42
0.0000001
 43
0.0000001
 44
0.0000000001
 40
0.0
 40
0.0
 40
0.0
 40
0.0
 40
0.1951485209
 40
0.3817167589
 40
0.5530936269
 40
0.703202089
 40
0.7685824855
 40
0.8267283498
 40
0.8771125858
 40
0.9193039617
 40
0.9529204353
 40
0.9664233585
 40
0.9776805348
 40
0.9866654605
 40
0.9933696435
 40
0.997797465
 40
1.0
 40
1.0
 40
1.0
 40
1.0
 10
-15.7081247568
 20
-11.1836493622
 30
0.0
 10
-15.8200138829
 20
-11.1837370608
 30
0.0
 10
-16.0388725024
 20
-11.1842622656
 30
0.0
 10
-16.3559861984
 20
-11.1861072414
 30
0.0
 10
-16.6472677719
 20
-11.1889298845
 30
0.0
 10
-16.8690570764
 20
-11.1921209708
 30
0.0
 10
-17.025917198
 20
-11.1951817599
 30
0.0
 10
-17.1256016942
 20
-11.1975375177
 30
0.0
 10
-17.2119837547
 20
-11.2000334406
 30
0.0
 10
-17.2842877679
 20
-11.2026453199
 30
0.0
 10
-17.3354465708
 20
-11.2050131279
 30
0.0
 10
-17.3688486487
 20
-11.2070396987
 30
0.0
 10
-17.3881626901
 20
-11.2084404988
 30
0.0
 10
-17.4035032245
 20
-11.2098830533
 30
0.0
 10
-17.4150662363
 20
-11.2112024199
 30
0.0
 10
-17.4223774714
 20
-11.2126828707
 30
0.0
 10
-17.4263312864
 20
-11.2135991584
 30
0.0
 10
-17.427227761
 20
-11.2144885841
 30
0.0
  0
SPLINE
  5
3FA
100
AcDbEntity
  8
RACCORDO
100
AcDbSpline
 62
250
  6
CONTINUOUS
 70
0
 71
3
 72
18
 73
14
 74
0
 42
0.0000001
 43
0.0000001
 44
0.0000000001
 40
0.0
 40
0.0
 40
0.0
 40
0.0
 40
0.2181537946
 40
0.4136085297
 40
0.5837295897
 40
0.7266681498
 40
0.8408465747
 40
0.8867470936
 40
0.9249861106
 40
0.9554443329
 40
0.9780800505
 40
0.9928874456
 40
1.0
 40
1.0
 40
1.0
 40
1.0
 10
-15.7081226557
 20
4.5614479344
 30
0.0
 10
-15.7525730281
 20
4.562094895
 30
0.0
 10
-15.8368470223
 20
4.5634487327
 30
0.0
 10
-15.9557751362
 20
4.565811149
 30
0.0
 10
-16.0593695907
 20
4.5683681686
 30
0.0
 10
-16.1463867155
 20
4.5710879335
 30
0.0
 10
-16.2080936919
 20
4.5735793377
 30
0.0
 10
-16.2484392445
 20
4.5757336692
 30
0.0
 10
-16.2717677793
 20
4.5772209009
 30
0.0
 10
-16.2902556629
 20
4.5787795538
 30
0.0
 10
-16.3041674631
 20
4.5801535469
 30
0.0
 10
-16.3128368057
 20
4.5818065859
 30
0.0
 10
-16.3175599304
 20
4.5826939504
 30
0.0
 10
-16.318591623
 20
4.5837119541
 30
0.0
  0
SPLINE
  5
3FB
100
AcDbEntity
  8
RACCORDO
100
AcDbSpline
 62
250
  6
CONTINUOUS
 70
0
 71
3
 72
22
 73
18
 74
0
 42
0.0000001
 43
0.0000001
 44
0.0000000001
 40
0.0
 40
0.0
 40
0.0
 40
0.0
 40
0.1951483295
 40
0.3817163803
 40
0.5530931214
 40
0.7032015505
 40
0.7685818967
 40
0.8267279891
 40
0.8771129184
 40
0.9193048013
 40
0.9529209983
 40
0.9664236208
 40
0.9776804925
 40
0.986665205
 40
0.9933693188
 40
0.9977972265
 40
1.0
 40
1.0
 40
1.0
 40
1.0
 10
-15.7081226557
 20
4.5614479344
 30
0.0
 10
-15.8200118066
 20
4.5615356178
 30
0.0
 10
-16.0388704723
 20
4.562060859
 30
0.0
 10
-16.3559842597
 20
4.5639058225
 30
0.0
 10
-16.6472659845
 20
4.5667284686
 30
0.0
 10
-16.8690554355
 20
4.5699195455
 30
0.0
 10
-17.0259158286
 20
4.5729803425
 30
0.0
 10
-17.1256009444
 20
4.5753361079
 30
0.0
 10
-17.2119839281
 20
4.5778320091
 30
0.0
 10
-17.2842885614
 20
4.5804438479
 30
0.0
 10
-17.3354473813
 20
4.5828116708
 30
0.0
 10
-17.3688489983
 20
4.5848382589
 30
0.0
 10
-17.3881625776
 20
4.586239077
 30
0.0
 10
-17.4035028293
 20
4.5876816275
 30
0.0
 10
-17.4150656508
 20
4.589001045
 30
0.0
 10
-17.4223772102
 20
4.5904814475
 30
0.0
 10
-17.4263310088
 20
4.591397828
 30
0.0
 10
-17.427227761
 20
4.5922871701
 30
0.0
  0
SPLINE
  5
3FC
100
AcDbEntity
  8
RACCORDO
100
AcDbSpline
 62
250
  6
CONTINUOUS
 70
0
 71
3
 72
16
 73
12
 74
0
 42
0.0000001
 43
0.0000001
 44
0.0000000001
 40
0.0
 40
0.0
 40
0.0
 40
0.0
 40
0.3775329313
 40
0.5486055016
 40
0.6989806763
 40
0.8231603892
 40
0.9167021721
 40
0.9507570336
 40
0.975976421
 40
0.9922801104
 40
1.0
 40
1.0
 40
1.0
 40
1.0
 10
23.2694562937
 20
4.3614789189
 30
0.0
 10
23.2694366513
 20
4.3867237108
 30
0.0
 10
23.269113624
 20
4.423410363
 30
0.0
 10
23.2679982066
 20
4.4701340041
 30
0.0
 10
23.2669330588
 20
4.4999213145
 30
0.0
 10
23.2656434643
 20
4.5244825862
 30
0.0
 10
23.2643790387
 20
4.5413176001
 30
0.0
 10
23.2631918458
 20
4.5514095104
 30
0.0
 10
23.2624009324
 20
4.5565070328
 30
0.0
 10
23.2616197008
 20
4.5595071926
 30
0.0
 10
23.2609809821
 20
4.5612613227
 30
0.0
 10
23.2604999038
 20
4.5614485086
 30
0.0
  0
SPLINE
  5
3FD
100
AcDbEntity
  8
RACCORDO
100
AcDbSpline
 62
250
  6
CONTINUOUS
 70
0
 71
3
 72
9
 73
5
 74
0
 42
0.0000001
 43
0.0000001
 44
0.0000000001
 40
0.0
 40
0.0
 40
0.0
 40
0.0
 40
0.4955633204
 40
1.0
 40
1.0
 40
1.0
 40
1.0
 10
23.194886402
 20
4.5625925414
 30
0.0
 10
23.0938944007
 20
4.5667094161
 30
0.0
 10
22.8910548846
 20
4.5938273909
 30
0.0
 10
22.6913154037
 20
4.6348030214
 30
0.0
 10
22.5908144715
 20
4.6568264236
 30
0.0
  0
SPLINE
  5
3FE
100
AcDbEntity
  8
SMUSSO
100
AcDbSpline
 62
7
  6
CONTINUOUS
 70
0
 71
3
 72
39
 73
35
 74
0
 42
0.0000001
 43
0.0000001
 44
0.0000000001
 40
0.0
 40
0.0
 40
0.0
 40
0.0
 40
0.0010340001
 40
0.0031554733
 40
0.0063981959
 40
0.0107730754
 40
0.016286724
 40
0.022944375
 40
0.0397078152
 40
0.0609889277
 40
0.0865545834
 40
0.1160982255
 40
0.1492109732
 40
0.1855043883
 40
0.2246501215
 40
0.3102289489
 40
0.4032078118
 40
0.5000448344
 40
0.5968781906
 40
0.6898467024
 40
0.7754165656
 40
0.8145612234
 40
0.8508546866
 40
0.8839667096
 40
0.913504941
 40
0.939060465
 40
0.9603294244
 40
0.977079131
 40
0.9837314828
 40
0.9892407261
 40
0.9936118285
 40
0.9968511385
 40
0.9989693113
 40
1.0
 40
1.0
 40
1.0
 40
1.0
 10
-13.3771891029
 20
-25.6444387507
 30
0.0
 10
-13.376165165
 20
-25.6433629596
 30
0.0
 10
-13.3714061957
 20
-25.6422967188
 30
0.0
 10
-13.362651682
 20
-25.6405072666
 30
0.0
 10
-13.3486083634
 20
-25.6389280702
 30
0.0
 10
-13.3298875202
 20
-25.6371731867
 30
0.0
 10
-13.3061592693
 20
-25.6354637253
 30
0.0
 10
-13.2646840671
 20
-25.6329646402
 30
0.0
 10
-13.200533145
 20
-25.6300389808
 30
0.0
 10
-13.1092261756
 20
-25.6268086358
 30
0.0
 10
-12.9995443466
 20
-25.6237237846
 30
0.0
 10
-12.8728597444
 20
-25.620828218
 30
0.0
 10
-12.7307579153
 20
-25.618158118
 30
0.0
 10
-12.5748579346
 20
-25.6157469159
 30
0.0
 10
-12.3435982507
 20
-25.6128136576
 30
0.0
 10
-12.0309117123
 20
-25.609997155
 30
0.0
 10
-11.6353531844
 20
-25.6079606259
 30
0.0
 10
-11.2236245605
 20
-25.6072719334
 30
0.0
 10
-10.8119108065
 20
-25.6079618519
 30
0.0
 10
-10.416385294
 20
-25.6099993995
 30
0.0
 10
-10.1037280527
 20
-25.6128167567
 30
0.0
 10
-9.8724827307
 20
-25.6157507784
 30
0.0
 10
-9.7165852797
 20
-25.6181628119
 30
0.0
 10
-9.5744922106
 20
-25.6208337851
 30
0.0
 10
-9.4478309945
 20
-25.6237298165
 30
0.0
 10
-9.3381889604
 20
-25.6268151821
 30
0.0
 10
-9.2469337819
 20
-25.6300449518
 30
0.0
 10
-9.1828275869
 20
-25.6329704633
 30
0.0
 10
-9.1413862252
 20
-25.6354687063
 30
0.0
 10
-9.1176769761
 20
-25.6371772899
 30
0.0
 10
-9.0989737239
 20
-25.6389316137
 30
0.0
 10
-9.0849432237
 20
-25.6405089307
 30
0.0
 10
-9.0762072839
 20
-25.6422983589
 30
0.0
 10
-9.0714527627
 20
-25.6433619454
 30
0.0
 10
-9.0704368125
 20
-25.6444387531
 30
0.0
  0
SPLINE
  5
3FF
100
AcDbEntity
  8
SMUSSO
100
AcDbSpline
 62
7
  6
CONTINUOUS
 70
0
 71
3
 72
39
 73
35
 74
0
 42
0.0000001
 43
0.0000001
 44
0.0000000001
 40
0.0
 40
0.0
 40
0.0
 40
0.0
 40
0.0010340001
 40
0.0031554733
 40
0.0063981959
 40
0.0107730754
 40
0.016286724
 40
0.022944375
 40
0.0397078152
 40
0.0609889277
 40
0.0865545834
 40
0.1160982255
 40
0.1492109732
 40
0.1855043883
 40
0.2246501215
 40
0.3102289489
 40
0.4032078118
 40
0.5000448344
 40
0.5968781906
 40
0.6898467024
 40
0.7754165656
 40
0.8145612234
 40
0.8508546866
 40
0.8839667096
 40
0.913504941
 40
0.939060465
 40
0.9603294244
 40
0.977079131
 40
0.9837314828
 40
0.9892407261
 40
0.9936118285
 40
0.9968511385
 40
0.9989693113
 40
1.0
 40
1.0
 40
1.0
 40
1.0
 10
-8.3771891029
 20
-25.6444387507
 30
0.0
 10
-8.376165165
 20
-25.6433629596
 30
0.0
 10
-8.3714061957
 20
-25.6422967188
 30
0.0
 10
-8.362651682
 20
-25.6405072666
 30
0.0
 10
-8.3486083634
 20
-25.6389280702
 30
0.0
 10
-8.3298875202
 20
-25.6371731867
 30
0.0
 10
-8.3061592693
 20
-25.6354637253
 30
0.0
 10
-8.2646840671
 20
-25.6329646402
 30
0.0
 10
-8.200533145
 20
-25.6300389808
 30
0.0
 10
-8.1092261756
 20
-25.6268086358
 30
0.0
 10
-7.9995443466
 20
-25.6237237846
 30
0.0
 10
-7.8728597444
 20
-25.620828218
 30
0.0
 10
-7.7307579153
 20
-25.618158118
 30
0.0
 10
-7.5748579346
 20
-25.6157469159
 30
0.0
 10
-7.3435982507
 20
-25.6128136576
 30
0.0
 10
-7.0309117123
 20
-25.609997155
 30
0.0
 10
-6.6353531844
 20
-25.6079606259
 30
0.0
 10
-6.2236245605
 20
-25.6072719334
 30
0.0
 10
-5.8119108065
 20
-25.6079618519
 30
0.0
 10
-5.416385294
 20
-25.6099993995
 30
0.0
 10
-5.1037280527
 20
-25.6128167567
 30
0.0
 10
-4.8724827307
 20
-25.6157507784
 30
0.0
 10
-4.7165852797
 20
-25.6181628119
 30
0.0
 10
-4.5744922106
 20
-25.6208337851
 30
0.0
 10
-4.4478309945
 20
-25.6237298165
 30
0.0
 10
-4.3381889604
 20
-25.6268151821
 30
0.0
 10
-4.2469337819
 20
-25.6300449518
 30
0.0
 10
-4.1828275869
 20
-25.6329704633
 30
0.0
 10
-4.1413862252
 20
-25.6354687063
 30
0.0
 10
-4.1176769761
 20
-25.6371772899
 30
0.0
 10
-4.0989737239
 20
-25.6389316137
 30
0.0
 10
-4.0849432237
 20
-25.6405089307
 30
0.0
 10
-4.0762072839
 20
-25.6422983589
 30
0.0
 10
-4.0714527627
 20
-25.6433619454
 30
0.0
 10
-4.0704368125
 20
-25.6444387531
 30
0.0
  0
SPLINE
  5
400
100
AcDbEntity
  8
SMUSSO
100
AcDbSpline
 62
7
  6
CONTINUOUS
 70
0
 71
3
 72
39
 73
35
 74
0
 42
0.0000001
 43
0.0000001
 44
0.0000000001
 40
0.0
 40
0.0
 40
0.0
 40
0.0
 40
0.0010340001
 40
0.0031554733
 40
0.0063981959
 40
0.0107730754
 40
0.016286724
 40
0.022944375
 40
0.0397078152
 40
0.0609889277
 40
0.0865545834
 40
0.1160982255
 40
0.1492109732
 40
0.1855043883
 40
0.2246501215
 40
0.3102289489
 40
0.4032078118
 40
0.5000448344
 40
0.5968781906
 40
0.6898467024
 40
0.7754165656
 40
0.8145612234
 40
0.8508546866
 40
0.8839667096
 40
0.913504941
 40
0.939060465
 40
0.9603294244
 40
0.977079131
 40
0.9837314828
 40
0.9892407261
 40
0.9936118285
 40
0.9968511385
 40
0.9989693113
 40
1.0
 40
1.0
 40
1.0
 40
1.0
 10
-3.3771891029
 20
-25.6444387507
 30
0.0
 10
-3.376165165
 20
-25.6433629596
 30
0.0
 10
-3.3714061957
 20
-25.6422967188
 30
0.0
 10
-3.362651682
 20
-25.6405072666
 30
0.0
 10
-3.3486083634
 20
-25.6389280702
 30
0.0
 10
-3.3298875202
 20
-25.6371731867
 30
0.0
 10
-3.3061592693
 20
-25.6354637253
 30
0.0
 10
-3.2646840671
 20
-25.6329646402
 30
0.0
 10
-3.200533145
 20
-25.6300389808
 30
0.0
 10
-3.1092261756
 20
-25.6268086358
 30
0.0
 10
-2.9995443466
 20
-25.6237237846
 30
0.0
 10
-2.8728597444
 20
-25.620828218
 30
0.0
 10
-2.7307579153
 20
-25.618158118
 30
0.0
 10
-2.5748579346
 20
-25.6157469159
 30
0.0
 10
-2.3435982507
 20
-25.6128136576
 30
0.0
 10
-2.0309117123
 20
-25.609997155
 30
0.0
 10
-1.6353531844
 20
-25.6079606259
 30
0.0
 10
-1.2236245605
 20
-25.6072719334
 30
0.0
 10
-0.8119108065
 20
-25.6079618519
 30
0.0
 10
-0.416385294
 20
-25.6099993995
 30
0.0
 10
-0.1037280527
 20
-25.6128167567
 30
0.0
 10
0.1275172693
 20
-25.6157507784
 30
0.0
 10
0.2834147203
 20
-25.6181628119
 30
0.0
 10
0.4255077894
 20
-25.6208337851
 30
0.0
 10
0.5521690055
 20
-25.6237298165
 30
0.0
 10
0.6618110396
 20
-25.6268151821
 30
0.0
 10
0.7530662181
 20
-25.6300449518
 30
0.0
 10
0.8171724131
 20
-25.6329704633
 30
0.0
 10
0.8586137748
 20
-25.6354687063
 30
0.0
 10
0.8823230239
 20
-25.6371772899
 30
0.0
 10
0.9010262761
 20
-25.6389316137
 30
0.0
 10
0.9150567763
 20
-25.6405089307
 30
0.0
 10
0.9237927161
 20
-25.6422983589
 30
0.0
 10
0.9285472373
 20
-25.6433619454
 30
0.0
 10
0.9295631875
 20
-25.6444387531
 30
0.0
  0
SPLINE
  5
401
100
AcDbEntity
  8
SMUSSO
100
AcDbSpline
 62
7
  6
CONTINUOUS
 70
0
 71
3
 72
39
 73
35
 74
0
 42
0.0000001
 43
0.0000001
 44
0.0000000001
 40
0.0
 40
0.0
 40
0.0
 40
0.0
 40
0.0010340001
 40
0.0031554733
 40
0.0063981959
 40
0.0107730754
 40
0.016286724
 40
0.022944375
 40
0.0397078152
 40
0.0609889277
 40
0.0865545834
 40
0.1160982255
 40
0.1492109732
 40
0.1855043883
 40
0.2246501215
 40
0.3102289489
 40
0.4032078118
 40
0.5000448344
 40
0.5968781906
 40
0.6898467024
 40
0.7754165656
 40
0.8145612234
 40
0.8508546866
 40
0.8839667096
 40
0.913504941
 40
0.939060465
 40
0.9603294244
 40
0.977079131
 40
0.9837314828
 40
0.9892407261
 40
0.9936118285
 40
0.9968511385
 40
0.9989693113
 40
1.0
 40
1.0
 40
1.0
 40
1.0
 10
1.6228108971
 20
-25.6444387507
 30
0.0
 10
1.623834835
 20
-25.6433629596
 30
0.0
 10
1.6285938043
 20
-25.6422967188
 30
0.0
 10
1.637348318
 20
-25.6405072666
 30
0.0
 10
1.6513916366
 20
-25.6389280702
 30
0.0
 10
1.6701124798
 20
-25.6371731867
 30
0.0
 10
1.6938407307
 20
-25.6354637253
 30
0.0
 10
1.7353159329
 20
-25.6329646402
 30
0.0
 10
1.799466855
 20
-25.6300389808
 30
0.0
 10
1.8907738244
 20
-25.6268086358
 30
0.0
 10
2.0004556534
 20
-25.6237237846
 30
0.0
 10
2.1271402556
 20
-25.620828218
 30
0.0
 10
2.2692420847
 20
-25.618158118
 30
0.0
 10
2.4251420654
 20
-25.6157469159
 30
0.0
 10
2.6564017493
 20
-25.6128136576
 30
0.0
 10
2.9690882877
 20
-25.609997155
 30
0.0
 10
3.3646468156
 20
-25.6079606259
 30
0.0
 10
3.7763754395
 20
-25.6072719334
 30
0.0
 10
4.1880891935
 20
-25.6079618519
 30
0.0
 10
4.583614706
 20
-25.6099993995
 30
0.0
 10
4.8962719473
 20
-25.6128167567
 30
0.0
 10
5.1275172693
 20
-25.6157507784
 30
0.0
 10
5.2834147203
 20
-25.6181628119
 30
0.0
 10
5.4255077894
 20
-25.6208337851
 30
0.0
 10
5.5521690055
 20
-25.6237298165
 30
0.0
 10
5.6618110396
 20
-25.6268151821
 30
0.0
 10
5.7530662181
 20
-25.6300449518
 30
0.0
 10
5.8171724131
 20
-25.6329704633
 30
0.0
 10
5.8586137748
 20
-25.6354687063
 30
0.0
 10
5.8823230239
 20
-25.6371772899
 30
0.0
 10
5.9010262761
 20
-25.6389316137
 30
0.0
 10
5.9150567763
 20
-25.6405089307
 30
0.0
 10
5.9237927161
 20
-25.6422983589
 30
0.0
 10
5.9285472373
 20
-25.6433619454
 30
0.0
 10
5.9295631875
 20
-25.6444387531
 30
0.0
  0
SPLINE
  5
402
100
AcDbEntity
  8
SMUSSO
100
AcDbSpline
 62
7
  6
CONTINUOUS
 70
0
 71
3
 72
39
 73
35
 74
0
 42
0.0000001
 43
0.0000001
 44
0.0000000001
 40
0.0
 40
0.0
 40
0.0
 40
0.0
 40
0.0010340001
 40
0.0031554733
 40
0.0063981959
 40
0.0107730754
 40
0.016286724
 40
0.022944375
 40
0.0397078152
 40
0.0609889277
 40
0.0865545834
 40
0.1160982255
 40
0.1492109732
 40
0.1855043883
 40
0.2246501215
 40
0.3102289489
 40
0.4032078118
 40
0.5000448344
 40
0.5968781906
 40
0.6898467024
 40
0.7754165656
 40
0.8145612234
 40
0.8508546866
 40
0.8839667096
 40
0.913504941
 40
0.939060465
 40
0.9603294244
 40
0.977079131
 40
0.9837314828
 40
0.9892407261
 40
0.9936118285
 40
0.9968511385
 40
0.9989693113
 40
1.0
 40
1.0
 40
1.0
 40
1.0
 10
6.6228108971
 20
-25.6444387507
 30
0.0
 10
6.623834835
 20
-25.6433629596
 30
0.0
 10
6.6285938043
 20
-25.6422967188
 30
0.0
 10
6.637348318
 20
-25.6405072666
 30
0.0
 10
6.6513916366
 20
-25.6389280702
 30
0.0
 10
6.6701124798
 20
-25.6371731867
 30
0.0
 10
6.6938407307
 20
-25.6354637253
 30
0.0
 10
6.7353159329
 20
-25.6329646402
 30
0.0
 10
6.799466855
 20
-25.6300389808
 30
0.0
 10
6.8907738244
 20
-25.6268086358
 30
0.0
 10
7.0004556534
 20
-25.6237237846
 30
0.0
 10
7.1271402556
 20
-25.620828218
 30
0.0
 10
7.2692420847
 20
-25.618158118
 30
0.0
 10
7.4251420654
 20
-25.6157469159
 30
0.0
 10
7.6564017493
 20
-25.6128136576
 30
0.0
 10
7.9690882877
 20
-25.609997155
 30
0.0
 10
8.3646468156
 20
-25.6079606259
 30
0.0
 10
8.7763754395
 20
-25.6072719334
 30
0.0
 10
9.1880891935
 20
-25.6079618519
 30
0.0
 10
9.583614706
 20
-25.6099993995
 30
0.0
 10
9.8962719473
 20
-25.6128167567
 30
0.0
 10
10.1275172693
 20
-25.6157507784
 30
0.0
 10
10.2834147203
 20
-25.6181628119
 30
0.0
 10
10.4255077894
 20
-25.6208337851
 30
0.0
 10
10.5521690055
 20
-25.6237298165
 30
0.0
 10
10.6618110396
 20
-25.6268151821
 30
0.0
 10
10.7530662181
 20
-25.6300449518
 30
0.0
 10
10.8171724131
 20
-25.6329704633
 30
0.0
 10
10.8586137748
 20
-25.6354687063
 30
0.0
 10
10.8823230239
 20
-25.6371772899
 30
0.0
 10
10.9010262761
 20
-25.6389316137
 30
0.0
 10
10.9150567763
 20
-25.6405089307
 30
0.0
 10
10.9237927161
 20
-25.6422983589
 30
0.0
 10
10.9285472373
 20
-25.6433619454
 30
0.0
 10
10.9295631875
 20
-25.6444387531
 30
0.0
  0
SPLINE
  5
403
100
AcDbEntity
  8
SMUSSO
100
AcDbSpline
 62
7
  6
CONTINUOUS
 70
0
 71
3
 72
23
 73
19
 74
0
 42
0.0000001
 43
0.0000001
 44
0.0000000001
 40
0.0
 40
0.0
 40
0.0
 40
0.0
 40
0.0020926342
 40
0.0063728322
 40
0.0129024427
 40
0.0216973535
 40
0.0327647946
 40
0.0461092122
 40
0.0796403011
 40
0.122177368
 40
0.1733380599
 40
0.2326484791
 40
0.2994741133
 40
0.3731155002
 40
0.4527308368
 40
0.6261319937
 40
0.811337896
 40
1.0
 40
1.0
 40
1.0
 40
1.0
 10
11.6228522446
 20
-25.6444387622
 30
0.0
 10
11.6238937631
 20
-25.6433553427
 30
0.0
 10
11.6286941318
 20
-25.642280309
 30
0.0
 10
11.6375269436
 20
-25.6404830118
 30
0.0
 10
11.6516593529
 20
-25.6388987113
 30
0.0
 10
11.6704738904
 20
-25.6371423188
 30
0.0
 10
11.6942837863
 20
-25.6354334243
 30
0.0
 10
11.7358116361
 20
-25.6329399942
 30
0.0
 10
11.7999673413
 20
-25.630019227
 30
0.0
 10
11.8912789857
 20
-25.6267933615
 30
0.0
 10
12.0011221332
 20
-25.6237061456
 30
0.0
 10
12.1284167824
 20
-25.6208000937
 30
0.0
 10
12.2718646037
 20
-25.6181120836
 30
0.0
 10
12.429900858
 20
-25.6156790797
 30
0.0
 10
12.6644757658
 20
-25.612724417
 30
0.0
 10
12.9791790982
 20
-25.6099256629
 30
0.0
 10
13.3722027281
 20
-25.6079457978
 30
0.0
 10
13.6407007339
 20
-25.6075007054
 30
0.0
 10
13.7761906776
 20
-25.607502553
 30
0.0
  0
SPLINE
  5
404
100
AcDbEntity
  8
SMUSSO
100
AcDbSpline
 62
7
  6
CONTINUOUS
 70
0
 71
3
 72
23
 73
19
 74
0
 42
0.0000001
 43
0.0000001
 44
0.0000000001
 40
0.0
 40
0.0
 40
0.0
 40
0.0
 40
0.1887397737
 40
0.3739968274
 40
0.5474150797
 40
0.6270265294
 40
0.7006578594
 40
0.7674688837
 40
0.8267612365
 40
0.8779009164
 40
0.9204159327
 40
0.9539250981
 40
0.9672615322
 40
0.9783224933
 40
0.9871119648
 40
0.9936367168
 40
0.9979121948
 40
1.0
 40
1.0
 40
1.0
 40
1.0
 10
18.7761904867
 20
-25.6075024547
 30
0.0
 10
18.9117358988
 20
-25.6075008604
 30
0.0
 10
19.1803258027
 20
-25.6079461448
 30
0.0
 10
19.5734533185
 20
-25.6099272836
 30
0.0
 10
19.8882021394
 20
-25.6127274781
 30
0.0
 10
20.1227787591
 20
-25.6156832295
 30
0.0
 10
20.2807941335
 20
-25.6181167953
 30
0.0
 10
20.4242109245
 20
-25.6208052161
 30
0.0
 10
20.5514667086
 20
-25.6237113786
 30
0.0
 10
20.6612656973
 20
-25.6267985979
 30
0.0
 10
20.7525304234
 20
-25.6300238337
 30
0.0
 10
20.8166487183
 20
-25.6329442979
 30
0.0
 10
20.8581502195
 20
-25.6354369793
 30
0.0
 10
20.8819460327
 20
-25.6371451956
 30
0.0
 10
20.9007477958
 20
-25.6389011721
 30
0.0
 10
20.9148710356
 20
-25.6404840943
 30
0.0
 10
20.9236904048
 20
-25.6422814362
 30
0.0
 10
20.9284876326
 20
-25.6433545184
 30
0.0
 10
20.9295232715
 20
-25.6444387641
 30
0.0
  0
SPLINE
  5
405
100
AcDbEntity
  8
SMUSSO
100
AcDbSpline
 62
7
  6
CONTINUOUS
 70
0
 71
3
 72
39
 73
35
 74
0
 42
0.0000001
 43
0.0000001
 44
0.0000000001
 40
0.0
 40
0.0
 40
0.0
 40
0.0
 40
0.0011340429
 40
0.0033728343
 40
0.0067593365
 40
0.0112989402
 40
0.0169870363
 40
0.0238090286
 40
0.0407884053
 40
0.0620880114
 40
0.0875036159
 40
0.1168043088
 40
0.1497084978
 40
0.1859124091
 40
0.2250707686
 40
0.3107630976
 40
0.4035685156
 40
0.4999993181
 40
0.5964301102
 40
0.6892355011
 40
0.7749278068
 40
0.8140861627
 40
0.8502900734
 40
0.8831942492
 40
0.9124949182
 40
0.9379104941
 40
0.9592100783
 40
0.9761894501
 40
0.9830113978
 40
0.9886993855
 40
0.9932387743
 40
0.9966250416
 40
0.9988639382
 40
1.0
 40
1.0
 40
1.0
 40
1.0
 10
-13.0772418633
 20
-25.0446215187
 30
0.0
 10
-13.0763693581
 20
-25.0435237583
 30
0.0
 10
-13.0720177424
 20
-25.0422637057
 30
0.0
 10
-13.064092576
 20
-25.0405594374
 30
0.0
 10
-13.0514843703
 20
-25.038980045
 30
0.0
 10
-13.0347911265
 20
-25.0372853596
 30
0.0
 10
-13.0137578258
 20
-25.0355575172
 30
0.0
 10
-12.9773909672
 20
-25.0330214061
 30
0.0
 10
-12.9216939003
 20
-25.0300262832
 30
0.0
 10
-12.8429999602
 20
-25.0268522263
 30
0.0
 10
-12.7490516648
 20
-25.0238383103
 30
0.0
 10
-12.6407456616
 20
-25.0209566182
 30
0.0
 10
-12.5190903065
 20
-25.0182856592
 30
0.0
 10
-12.3852380648
 20
-25.0158934175
 30
0.0
 10
-12.1861122257
 20
-25.012986044
 30
0.0
 10
-11.916990183
 20
-25.0101720541
 30
0.0
 10
-11.5770414161
 20
-25.0081392283
 30
0.0
 10
-11.2238089661
 20
-25.0074572307
 30
0.0
 10
-10.8705765552
 20
-25.0081397628
 30
0.0
 10
-10.5306278476
 20
-25.0101699208
 30
0.0
 10
-10.2615058758
 20
-25.0129850016
 30
0.0
 10
-10.0623801074
 20
-25.0158949064
 30
0.0
 10
-9.928527903
 20
-25.0182878615
 30
0.0
 10
-9.8068725457
 20
-25.0209564099
 30
0.0
 10
-9.6985665451
 20
-25.0238352166
 30
0.0
 10
-9.60461833
 20
-25.0268489393
 30
0.0
 10
-9.5259245046
 20
-25.0300241927
 30
0.0
 10
-9.4702276675
 20
-25.0330224495
 30
0.0
 10
-9.4338609864
 20
-25.0355571331
 30
0.0
 10
-9.4128277543
 20
-25.0372819284
 30
0.0
 10
-9.3961348017
 20
-25.038967768
 30
0.0
 10
-9.383525247
 20
-25.0405423309
 30
0.0
 10
-9.3755991791
 20
-25.0422410454
 30
0.0
 10
-9.3712439984
 20
-25.0435162431
 30
0.0
 10
-9.3703769825
 20
-25.0446215187
 30
0.0
  0
SPLINE
  5
406
100
AcDbEntity
  8
SMUSSO
100
AcDbSpline
 62
7
  6
CONTINUOUS
 70
0
 71
3
 72
39
 73
35
 74
0
 42
0.0000001
 43
0.0000001
 44
0.0000000001
 40
0.0
 40
0.0
 40
0.0
 40
0.0
 40
0.0011340429
 40
0.0033728343
 40
0.0067593365
 40
0.0112989402
 40
0.0169870363
 40
0.0238090286
 40
0.0407884053
 40
0.0620880114
 40
0.0875036159
 40
0.1168043088
 40
0.1497084978
 40
0.1859124091
 40
0.2250707686
 40
0.3107630976
 40
0.4035685156
 40
0.4999993181
 40
0.5964301102
 40
0.6892355011
 40
0.7749278068
 40
0.8140861627
 40
0.8502900734
 40
0.8831942492
 40
0.9124949182
 40
0.9379104941
 40
0.9592100783
 40
0.9761894501
 40
0.9830113978
 40
0.9886993855
 40
0.9932387743
 40
0.9966250416
 40
0.9988639382
 40
1.0
 40
1.0
 40
1.0
 40
1.0
 10
-8.0772418633
 20
-25.0446215187
 30
0.0
 10
-8.0763693581
 20
-25.0435237583
 30
0.0
 10
-8.0720177424
 20
-25.0422637057
 30
0.0
 10
-8.064092576
 20
-25.0405594374
 30
0.0
 10
-8.0514843703
 20
-25.038980045
 30
0.0
 10
-8.0347911265
 20
-25.0372853596
 30
0.0
 10
-8.0137578258
 20
-25.0355575172
 30
0.0
 10
-7.9773909672
 20
-25.0330214061
 30
0.0
 10
-7.9216939003
 20
-25.0300262832
 30
0.0
 10
-7.8429999602
 20
-25.0268522263
 30
0.0
 10
-7.7490516648
 20
-25.0238383103
 30
0.0
 10
-7.6407456616
 20
-25.0209566182
 30
0.0
 10
-7.5190903065
 20
-25.0182856592
 30
0.0
 10
-7.3852380648
 20
-25.0158934175
 30
0.0
 10
-7.1861122257
 20
-25.012986044
 30
0.0
 10
-6.916990183
 20
-25.0101720541
 30
0.0
 10
-6.5770414161
 20
-25.0081392283
 30
0.0
 10
-6.2238089661
 20
-25.0074572307
 30
0.0
 10
-5.8705765552
 20
-25.0081397628
 30
0.0
 10
-5.5306278476
 20
-25.0101699208
 30
0.0
 10
-5.2615058758
 20
-25.0129850016
 30
0.0
 10
-5.0623801074
 20
-25.0158949064
 30
0.0
 10
-4.928527903
 20
-25.0182878615
 30
0.0
 10
-4.8068725457
 20
-25.0209564099
 30
0.0
 10
-4.6985665451
 20
-25.0238352166
 30
0.0
 10
-4.60461833
 20
-25.0268489393
 30
0.0
 10
-4.5259245046
 20
-25.0300241927
 30
0.0
 10
-4.4702276675
 20
-25.0330224495
 30
0.0
 10
-4.4338609864
 20
-25.0355571331
 30
0.0
 10
-4.4128277543
 20
-25.0372819284
 30
0.0
 10
-4.3961348017
 20
-25.038967768
 30
0.0
 10
-4.383525247
 20
-25.0405423309
 30
0.0
 10
-4.3755991791
 20
-25.0422410454
 30
0.0
 10
-4.3712439984
 20
-25.0435162431
 30
0.0
 10
-4.3703769825
 20
-25.0446215187
 30
0.0
  0
SPLINE
  5
407
100
AcDbEntity
  8
SMUSSO
100
AcDbSpline
 62
7
  6
CONTINUOUS
 70
0
 71
3
 72
39
 73
35
 74
0
 42
0.0000001
 43
0.0000001
 44
0.0000000001
 40
0.0
 40
0.0
 40
0.0
 40
0.0
 40
0.0011340429
 40
0.0033728343
 40
0.0067593365
 40
0.0112989402
 40
0.0169870363
 40
0.0238090286
 40
0.0407884053
 40
0.0620880114
 40
0.0875036159
 40
0.1168043088
 40
0.1497084978
 40
0.1859124091
 40
0.2250707686
 40
0.3107630976
 40
0.4035685156
 40
0.4999993181
 40
0.5964301102
 40
0.6892355011
 40
0.7749278068
 40
0.8140861627
 40
0.8502900734
 40
0.8831942492
 40
0.9124949182
 40
0.9379104941
 40
0.9592100783
 40
0.9761894501
 40
0.9830113978
 40
0.9886993855
 40
0.9932387743
 40
0.9966250416
 40
0.9988639382
 40
1.0
 40
1.0
 40
1.0
 40
1.0
 10
-3.0772418633
 20
-25.0446215187
 30
0.0
 10
-3.0763693581
 20
-25.0435237583
 30
0.0
 10
-3.0720177424
 20
-25.0422637057
 30
0.0
 10
-3.064092576
 20
-25.0405594374
 30
0.0
 10
-3.0514843703
 20
-25.038980045
 30
0.0
 10
-3.0347911265
 20
-25.0372853596
 30
0.0
 10
-3.0137578258
 20
-25.0355575172
 30
0.0
 10
-2.9773909672
 20
-25.0330214061
 30
0.0
 10
-2.9216939003
 20
-25.0300262832
 30
0.0
 10
-2.8429999602
 20
-25.0268522263
 30
0.0
 10
-2.7490516648
 20
-25.0238383103
 30
0.0
 10
-2.6407456616
 20
-25.0209566182
 30
0.0
 10
-2.5190903065
 20
-25.0182856592
 30
0.0
 10
-2.3852380648
 20
-25.0158934175
 30
0.0
 10
-2.1861122257
 20
-25.012986044
 30
0.0
 10
-1.916990183
 20
-25.0101720541
 30
0.0
 10
-1.5770414161
 20
-25.0081392283
 30
0.0
 10
-1.2238089661
 20
-25.0074572307
 30
0.0
 10
-0.8705765552
 20
-25.0081397628
 30
0.0
 10
-0.5306278476
 20
-25.0101699208
 30
0.0
 10
-0.2615058758
 20
-25.0129850016
 30
0.0
 10
-0.0623801074
 20
-25.0158949064
 30
0.0
 10
0.071472097
 20
-25.0182878615
 30
0.0
 10
0.1931274543
 20
-25.0209564099
 30
0.0
 10
0.3014334549
 20
-25.0238352166
 30
0.0
 10
0.39538167
 20
-25.0268489393
 30
0.0
 10
0.4740754954
 20
-25.0300241927
 30
0.0
 10
0.5297723325
 20
-25.0330224495
 30
0.0
 10
0.5661390136
 20
-25.0355571331
 30
0.0
 10
0.5871722457
 20
-25.0372819284
 30
0.0
 10
0.6038651983
 20
-25.038967768
 30
0.0
 10
0.616474753
 20
-25.0405423309
 30
0.0
 10
0.6244008209
 20
-25.0422410454
 30
0.0
 10
0.6287560016
 20
-25.0435162431
 30
0.0
 10
0.6296230175
 20
-25.0446215187
 30
0.0
  0
SPLINE
  5
408
100
AcDbEntity
  8
SMUSSO
100
AcDbSpline
 62
7
  6
CONTINUOUS
 70
0
 71
3
 72
39
 73
35
 74
0
 42
0.0000001
 43
0.0000001
 44
0.0000000001
 40
0.0
 40
0.0
 40
0.0
 40
0.0
 40
0.0011340429
 40
0.0033728343
 40
0.0067593365
 40
0.0112989402
 40
0.0169870363
 40
0.0238090286
 40
0.0407884053
 40
0.0620880114
 40
0.0875036159
 40
0.1168043088
 40
0.1497084978
 40
0.1859124091
 40
0.2250707686
 40
0.3107630976
 40
0.4035685156
 40
0.4999993181
 40
0.5964301102
 40
0.6892355011
 40
0.7749278068
 40
0.8140861627
 40
0.8502900734
 40
0.8831942492
 40
0.9124949182
 40
0.9379104941
 40
0.9592100783
 40
0.9761894501
 40
0.9830113978
 40
0.9886993855
 40
0.9932387743
 40
0.9966250416
 40
0.9988639382
 40
1.0
 40
1.0
 40
1.0
 40
1.0
 10
1.9227581367
 20
-25.0446215187
 30
0.0
 10
1.9236306419
 20
-25.0435237583
 30
0.0
 10
1.9279822576
 20
-25.0422637057
 30
0.0
 10
1.935907424
 20
-25.0405594374
 30
0.0
 10
1.9485156297
 20
-25.038980045
 30
0.0
 10
1.9652088735
 20
-25.0372853596
 30
0.0
 10
1.9862421742
 20
-25.0355575172
 30
0.0
 10
2.0226090328
 20
-25.0330214061
 30
0.0
 10
2.0783060997
 20
-25.0300262832
 30
0.0
 10
2.1570000398
 20
-25.0268522263
 30
0.0
 10
2.2509483352
 20
-25.0238383103
 30
0.0
 10
2.3592543384
 20
-25.0209566182
 30
0.0
 10
2.4809096935
 20
-25.0182856592
 30
0.0
 10
2.6147619352
 20
-25.0158934175
 30
0.0
 10
2.8138877743
 20
-25.012986044
 30
0.0
 10
3.083009817
 20
-25.0101720541
 30
0.0
 10
3.4229585839
 20
-25.0081392283
 30
0.0
 10
3.7761910339
 20
-25.0074572307
 30
0.0
 10
4.1294234448
 20
-25.0081397628
 30
0.0
 10
4.4693721524
 20
-25.0101699208
 30
0.0
 10
4.7384941242
 20
-25.0129850016
 30
0.0
 10
4.9376198926
 20
-25.0158949064
 30
0.0
 10
5.071472097
 20
-25.0182878615
 30
0.0
 10
5.1931274543
 20
-25.0209564099
 30
0.0
 10
5.3014334549
 20
-25.0238352166
 30
0.0
 10
5.39538167
 20
-25.0268489393
 30
0.0
 10
5.4740754954
 20
-25.0300241927
 30
0.0
 10
5.5297723325
 20
-25.0330224495
 30
0.0
 10
5.5661390136
 20
-25.0355571331
 30
0.0
 10
5.5871722457
 20
-25.0372819284
 30
0.0
 10
5.6038651983
 20
-25.038967768
 30
0.0
 10
5.616474753
 20
-25.0405423309
 30
0.0
 10
5.6244008209
 20
-25.0422410454
 30
0.0
 10
5.6287560016
 20
-25.0435162431
 30
0.0
 10
5.6296230175
 20
-25.0446215187
 30
0.0
  0
SPLINE
  5
409
100
AcDbEntity
  8
SMUSSO
100
AcDbSpline
 62
7
  6
CONTINUOUS
 70
0
 71
3
 72
39
 73
35
 74
0
 42
0.0000001
 43
0.0000001
 44
0.0000000001
 40
0.0
 40
0.0
 40
0.0
 40
0.0
 40
0.0011340429
 40
0.0033728343
 40
0.0067593365
 40
0.0112989402
 40
0.0169870363
 40
0.0238090286
 40
0.0407884053
 40
0.0620880114
 40
0.0875036159
 40
0.1168043088
 40
0.1497084978
 40
0.1859124091
 40
0.2250707686
 40
0.3107630976
 40
0.4035685156
 40
0.4999993181
 40
0.5964301102
 40
0.6892355011
 40
0.7749278068
 40
0.8140861627
 40
0.8502900734
 40
0.8831942492
 40
0.9124949182
 40
0.9379104941
 40
0.9592100783
 40
0.9761894501
 40
0.9830113978
 40
0.9886993855
 40
0.9932387743
 40
0.9966250416
 40
0.9988639382
 40
1.0
 40
1.0
 40
1.0
 40
1.0
 10
6.9227581367
 20
-25.0446215187
 30
0.0
 10
6.9236306419
 20
-25.0435237583
 30
0.0
 10
6.9279822576
 20
-25.0422637057
 30
0.0
 10
6.935907424
 20
-25.0405594374
 30
0.0
 10
6.9485156297
 20
-25.038980045
 30
0.0
 10
6.9652088735
 20
-25.0372853596
 30
0.0
 10
6.9862421742
 20
-25.0355575172
 30
0.0
 10
7.0226090328
 20
-25.0330214061
 30
0.0
 10
7.0783060997
 20
-25.0300262832
 30
0.0
 10
7.1570000398
 20
-25.0268522263
 30
0.0
 10
7.2509483352
 20
-25.0238383103
 30
0.0
 10
7.3592543384
 20
-25.0209566182
 30
0.0
 10
7.4809096935
 20
-25.0182856592
 30
0.0
 10
7.6147619352
 20
-25.0158934175
 30
0.0
 10
7.8138877743
 20
-25.012986044
 30
0.0
 10
8.083009817
 20
-25.0101720541
 30
0.0
 10
8.4229585839
 20
-25.0081392283
 30
0.0
 10
8.7761910339
 20
-25.0074572307
 30
0.0
 10
9.1294234448
 20
-25.0081397628
 30
0.0
 10
9.4693721524
 20
-25.0101699208
 30
0.0
 10
9.7384941242
 20
-25.0129850016
 30
0.0
 10
9.9376198926
 20
-25.0158949064
 30
0.0
 10
10.071472097
 20
-25.0182878615
 30
0.0
 10
10.1931274543
 20
-25.0209564099
 30
0.0
 10
10.3014334549
 20
-25.0238352166
 30
0.0
 10
10.39538167
 20
-25.0268489393
 30
0.0
 10
10.4740754954
 20
-25.0300241927
 30
0.0
 10
10.5297723325
 20
-25.0330224495
 30
0.0
 10
10.5661390136
 20
-25.0355571331
 30
0.0
 10
10.5871722457
 20
-25.0372819284
 30
0.0
 10
10.6038651983
 20
-25.038967768
 30
0.0
 10
10.616474753
 20
-25.0405423309
 30
0.0
 10
10.6244008209
 20
-25.0422410454
 30
0.0
 10
10.6287560016
 20
-25.0435162431
 30
0.0
 10
10.6296230175
 20
-25.0446215187
 30
0.0
  0
SPLINE
  5
40A
100
AcDbEntity
  8
SMUSSO
100
AcDbSpline
 62
7
  6
CONTINUOUS
 70
0
 71
3
 72
23
 73
19
 74
0
 42
0.0000001
 43
0.0000001
 44
0.0000000001
 40
0.0
 40
0.0
 40
0.0
 40
0.0
 40
0.0021478384
 40
0.006454854
 40
0.0130013963
 40
0.0218080918
 40
0.0328840395
 40
0.0462346092
 40
0.07977276
 40
0.1223117565
 40
0.1734704199
 40
0.2327755565
 40
0.2995931764
 40
0.3732242245
 40
0.4528272693
 40
0.6261992924
 40
0.811372243
 40
1.0
 40
1.0
 40
1.0
 40
1.0
 10
11.9226425395
 20
-25.0446214794
 30
0.0
 10
11.9234891638
 20
-25.0435983541
 30
0.0
 10
11.9276431873
 20
-25.0424250676
 30
0.0
 10
11.9352545633
 20
-25.0406931825
 30
0.0
 10
11.947432922
 20
-25.0390714373
 30
0.0
 10
11.963628624
 20
-25.0373296817
 30
0.0
 10
11.9841262005
 20
-25.0356149136
 30
0.0
 10
12.0198699182
 20
-25.0331242251
 30
0.0
 10
12.0750942341
 20
-25.0302016295
 30
0.0
 10
12.1536949948
 20
-25.0269764033
 30
0.0
 10
12.2482468197
 20
-25.0238888655
 30
0.0
 10
12.3578200192
 20
-25.0209828741
 30
0.0
 10
12.4812973264
 20
-25.0182948193
 30
0.0
 10
12.6173319156
 20
-25.0158618145
 30
0.0
 10
12.8192483653
 20
-25.0129071544
 30
0.0
 10
13.0901383987
 20
-25.0101083916
 30
0.0
 10
13.4284456788
 20
-25.0081285169
 30
0.0
 10
13.6595637324
 20
-25.0076834225
 30
0.0
 10
13.7761906636
 20
-25.0076852701
 30
0.0
  0
SPLINE
  5
40B
100
AcDbEntity
  8
SMUSSO
100
AcDbSpline
 62
7
  6
CONTINUOUS
 70
0
 71
3
 72
23
 73
19
 74
0
 42
0.0000001
 43
0.0000001
 44
0.0000000001
 40
0.0
 40
0.0
 40
0.0
 40
0.0
 40
0.1887053942
 40
0.3739294697
 40
0.5473185702
 40
0.6269177225
 40
0.7005387104
 40
0.7673417186
 40
0.8266287886
 40
0.8777664414
 40
0.9202833894
 40
0.9537996198
 40
0.9671422064
 40
0.9782116737
 40
0.9870129288
 40
0.9935546123
 40
0.9978569152
 40
1.0
 40
1.0
 40
1.0
 40
1.0
 10
18.7761904993
 20
-25.0076851718
 30
0.0
 10
18.8928651766
 20
-25.0076835775
 30
0.0
 10
19.1240623347
 20
-25.008128864
 30
0.0
 10
19.4624590384
 20
-25.0101100123
 30
0.0
 10
19.7333882271
 20
-25.0129102154
 30
0.0
 10
19.9353061498
 20
-25.0158659643
 30
0.0
 10
20.0713227661
 20
-25.018299531
 30
0.0
 10
20.1947733629
 20
-25.0209879968
 30
0.0
 10
20.3043131092
 20
-25.0238940978
 30
0.0
 10
20.3988269213
 20
-25.0269816417
 30
0.0
 10
20.4773873004
 20
-25.0302062308
 30
0.0
 10
20.532579405
 20
-25.0331285409
 30
0.0
 10
20.5683004498
 20
-25.0356184533
 30
0.0
 10
20.5887858912
 20
-25.0373326022
 30
0.0
 10
20.6049706342
 20
-25.0390737858
 30
0.0
 10
20.6171410261
 20
-25.0406945213
 30
0.0
 10
20.6247410391
 20
-25.042425775
 30
0.0
 10
20.628892236
 20
-25.0435979641
 30
0.0
 10
20.6297337615
 20
-25.0446214813
 30
0.0
  0
SPLINE
  5
40C
100
AcDbEntity
  8
RACCORDO
100
AcDbSpline
 62
250
  6
CONTINUOUS
 70
0
 71
3
 72
18
 73
14
 74
0
 42
0.0000001
 43
0.0000001
 44
0.0000000001
 40
0.0
 40
0.0
 40
0.0
 40
0.0
 40
0.005135583
 40
0.0196489047
 40
0.0435089463
 40
0.0765566625
 40
0.1185583182
 40
0.1690366494
 40
0.2932667736
 40
0.4446560776
 40
0.6175168612
 40
0.805411467
 40
1.0
 40
1.0
 40
1.0
 40
1.0
 10
-68.3793456729
 20
4.5922871701
 30
0.0
 10
-68.3796880911
 20
4.5922811932
 30
0.0
 10
-68.3796118063
 20
4.5903016044
 30
0.0
 10
-68.3801282026
 20
4.58804733
 30
0.0
 10
-68.3802000827
 20
4.5829329376
 30
0.0
 10
-68.380462619
 20
4.5764950656
 30
0.0
 10
-68.3805915632
 20
4.5680663281
 30
0.0
 10
-68.380763617
 20
4.5536429027
 30
0.0
 10
-68.3808172983
 20
4.5318794838
 30
0.0
 10
-68.3807140962
 20
4.5019793078
 30
0.0
 10
-68.3804284765
 20
4.4678253051
 30
0.0
 10
-68.3799733495
 20
4.4307952019
 30
0.0
 10
-68.3795720708
 20
4.4052919442
 30
0.0
 10
-68.3793456729
 20
4.3923176311
 30
0.0
  0
SPLINE
  5
40D
100
AcDbEntity
  8
RACCORDO
100
AcDbSpline
 62
250
  6
CONTINUOUS
 70
0
 71
3
 72
18
 73
14
 74
0
 42
0.0000001
 43
0.0000001
 44
0.0000000001
 40
0.0
 40
0.0
 40
0.0
 40
0.0
 40
0.1945885023
 40
0.382483028
 40
0.5553437616
 40
0.706733068
 40
0.8309632376
 40
0.8814415997
 40
0.923443272
 40
0.9564910012
 40
0.9803510651
 40
0.9948644078
 40
1.0
 40
1.0
 40
1.0
 40
1.0
 10
-68.8706194697
 20
4.7836814932
 30
0.0
 10
-68.8703930703
 20
4.7707071821
 30
0.0
 10
-68.8699917889
 20
4.7452039319
 30
0.0
 10
-68.8695366601
 20
4.7081738393
 30
0.0
 10
-68.8692510413
 20
4.6740198452
 30
0.0
 10
-68.869147841
 20
4.6441196693
 30
0.0
 10
-68.8692015233
 20
4.6223562451
 30
0.0
 10
-68.8693735776
 20
4.6079328135
 30
0.0
 10
-68.8695025222
 20
4.599504072
 30
0.0
 10
-68.8697650592
 20
4.5930661966
 30
0.0
 10
-68.8698369392
 20
4.5879518001
 30
0.0
 10
-68.8703533368
 20
4.5856975233
 30
0.0
 10
-68.8702770509
 20
4.5837179311
 30
0.0
 10
-68.8706194697
 20
4.5837119541
 30
0.0
  0
SPLINE
  5
40E
100
AcDbEntity
  8
RACCORDO
100
AcDbSpline
 62
250
  6
CONTINUOUS
 70
0
 71
3
 72
9
 73
5
 74
0
 42
0.0000001
 43
0.0000001
 44
0.0000000001
 40
0.0
 40
0.0
 40
0.0
 40
0.0
 40
0.4863185319
 40
1.0
 40
1.0
 40
1.0
 40
1.0
 10
-70.34444086
 20
-11.3767271726
 30
0.0
 10
-70.3444432484
 20
-11.3598266103
 30
0.0
 10
-70.3384461567
 20
-11.3248668089
 30
0.0
 10
-70.3219840349
 20
-11.2936574029
 30
0.0
 10
-70.3117548686
 20
-11.2790273137
 30
0.0
  0
SPLINE
  5
40F
100
AcDbEntity
  8
RACCORDO
100
AcDbSpline
 62
250
  6
CONTINUOUS
 70
0
 71
3
 72
8
 73
4
 74
0
 42
0.0000001
 43
0.0000001
 44
0.0000000001
 40
0.0
 40
0.0
 40
0.0
 40
0.0
 40
1.0
 40
1.0
 40
1.0
 40
1.0
 10
-70.311755231
 20
-11.2790275278
 30
0.0
 10
-70.3053588018
 20
-11.2698769064
 30
0.0
 10
-70.2982238333
 20
-11.2612104641
 30
0.0
 10
-70.2905494533
 20
-11.2531016991
 30
0.0
  0
SPLINE
  5
410
100
AcDbEntity
  8
RACCORDO
100
AcDbSpline
 62
250
  6
CONTINUOUS
 70
0
 71
3
 72
9
 73
5
 74
0
 42
0.0000001
 43
0.0000001
 44
0.0000000001
 40
0.0
 40
0.0
 40
0.0
 40
0.0
 40
0.4919557678
 40
1.0
 40
1.0
 40
1.0
 40
1.0
 10
-70.2905494533
 20
-11.2531016991
 30
0.0
 10
-70.2744603615
 20
-11.236101933
 30
0.0
 10
-70.2368248127
 20
-11.2061347153
 30
0.0
 10
-70.1912927591
 20
-11.1880225304
 30
0.0
 10
-70.1673377218
 20
-11.1847936221
 30
0.0
  0
SPLINE
  5
411
100
AcDbEntity
  8
RACCORDO
100
AcDbSpline
 62
250
  6
CONTINUOUS
 70
0
 71
3
 72
9
 73
5
 74
0
 42
0.0000001
 43
0.0000001
 44
0.0000000001
 40
0.0
 40
0.0
 40
0.0
 40
0.0
 40
0.5005131639
 40
1.0
 40
1.0
 40
1.0
 40
1.0
 10
-70.1912148993
 20
-11.180558892
 30
0.0
 10
-70.2336440619
 20
-11.1703516333
 30
0.0
 10
-70.3139376391
 20
-11.1200241191
 30
0.0
 10
-70.344441431
 20
-11.0302264447
 30
0.0
 10
-70.3444415692
 20
-10.9866762467
 30
0.0
  0
SPLINE
  5
412
100
AcDbEntity
  8
RACCORDO
100
AcDbSpline
 62
250
  6
CONTINUOUS
 70
0
 71
3
 72
24
 73
20
 74
0
 42
0.0000001
 43
0.0000001
 44
0.0000000001
 40
0.0
 40
0.0
 40
0.0
 40
0.0
 40
0.0013676907
 40
0.005030706
 40
0.0110598451
 40
0.0194575703
 40
0.0302140088
 40
0.0433007695
 40
0.0586843433
 40
0.0763307892
 40
0.1182485327
 40
0.1686412172
 40
0.2270414951
 40
0.292877746
 40
0.3655311278
 40
0.4442985057
 40
0.6171208009
 40
0.804739723
 40
1.0
 40
1.0
 40
1.0
 40
1.0
 10
-68.8706177509
 20
16.5837119801
 30
0.0
 10
-68.8715256389
 20
16.5836939297
 30
0.0
 10
-68.8721616266
 20
16.5790054984
 30
0.0
 10
-68.8734005776
 20
16.5730401548
 30
0.0
 10
-68.8743035955
 20
16.5603402372
 30
0.0
 10
-68.875357345
 20
16.5439696535
 30
0.0
 10
-68.87627536
 20
16.5224591939
 30
0.0
 10
-68.8771567204
 20
16.4964739356
 30
0.0
 10
-68.8779553045
 20
16.4658501778
 30
0.0
 10
-68.8789816615
 20
16.416106008
 30
0.0
 10
-68.8799969117
 20
16.3431034915
 30
0.0
 10
-68.880842776
 20
16.2430451766
 30
0.0
 10
-68.8813505052
 20
16.1271018144
 30
0.0
 10
-68.8815158057
 20
15.9963784327
 30
0.0
 10
-68.8813316905
 20
15.8521322937
 30
0.0
 10
-68.8805991592
 20
15.6368548259
 30
0.0
 10
-68.8787874325
 20
15.3452507691
 30
0.0
 10
-68.8754105243
 20
14.9763122205
 30
0.0
 10
-68.8724206626
 20
14.7221198508
 30
0.0
 10
-68.8707301484
 20
14.5924893594
 30
0.0
  0
LINE
  5
413
100
AcDbEntity
  8
RACCORDO
100
AcDbLine
 62
250
  6
CONTINUOUS
 10
-68.8707301484
 20
14.5924893594
 30
0.0
 11
-68.8706177863
 21
14.5838922538
 31
0.0
  0
SPLINE
  5
414
100
AcDbEntity
  8
RACCORDO
100
AcDbSpline
 62
250
  6
CONTINUOUS
 70
0
 71
3
 72
9
 73
5
 74
0
 42
0.0000001
 43
0.0000001
 44
0.0000000001
 40
0.0
 40
0.0
 40
0.0
 40
0.0
 40
0.2605638444
 40
1.0
 40
1.0
 40
1.0
 40
1.0
 10
-70.1461238817
 20
4.5614485086
 30
0.0
 10
-70.1479697119
 20
4.56141652
 30
0.0
 10
-70.1550545139
 20
4.5614108856
 30
0.0
 10
-70.1621452814
 20
4.5618917597
 30
0.0
 10
-70.1673372577
 20
4.5625916748
 30
0.0
  0
LINE
  5
415
100
AcDbEntity
  8
RACCORDO
100
AcDbLine
 62
250
  6
CONTINUOUS
 10
-68.8706177509
 20
-21.2060910562
 30
0.0
 11
-68.870730118
 21
-21.2146907652
 31
0.0
  0
SPLINE
  5
416
100
AcDbEntity
  8
RACCORDO
100
AcDbSpline
 62
250
  6
CONTINUOUS
 70
0
 71
3
 72
24
 73
20
 74
0
 42
0.0000001
 43
0.0000001
 44
0.0000000001
 40
0.0
 40
0.0
 40
0.0
 40
0.0
 40
0.1952601158
 40
0.3828788899
 40
0.5557010734
 40
0.6344684146
 40
0.7071217736
 40
0.772958017
 40
0.8313583068
 40
0.8817510237
 40
0.9236688098
 40
0.9413152783
 40
0.9566988804
 40
0.9697856815
 40
0.9805421782
 40
0.9889399787
 40
0.9949691913
 40
0.9986322592
 40
1.0
 40
1.0
 40
1.0
 40
1.0
 10
-68.870730118
 20
-21.2146907652
 30
0.0
 10
-68.872420211
 20
-21.3443211597
 30
0.0
 10
-68.8754108805
 20
-21.5985133226
 30
0.0
 10
-68.8787874204
 20
-21.9674516091
 30
0.0
 10
-68.8805992256
 20
-22.2590554782
 30
0.0
 10
-68.8813317328
 20
-22.4743328401
 30
0.0
 10
-68.8815158067
 20
-22.6185789397
 30
0.0
 10
-68.8813504655
 20
-22.7493023137
 30
0.0
 10
-68.8808427169
 20
-22.8652457042
 30
0.0
 10
-68.8799968802
 20
-22.9653040805
 30
0.0
 10
-68.878981632
 20
-23.0383066643
 30
0.0
 10
-68.8779552133
 20
-23.0880508972
 30
0.0
 10
-68.877156582
 20
-23.1186747146
 30
0.0
 10
-68.8762752205
 20
-23.1446600603
 30
0.0
 10
-68.8753572282
 20
-23.1661706311
 30
0.0
 10
-68.8743036909
 20
-23.1825413768
 30
0.0
 10
-68.8734006734
 20
-23.1952414089
 30
0.0
 10
-68.8721620551
 20
-23.2012069325
 30
0.0
 10
-68.8715257084
 20
-23.2058953868
 30
0.0
 10
-68.8706177863
 20
-23.2059133936
 30
0.0
  0
SPLINE
  5
417
100
AcDbEntity
  8
RACCORDO
100
AcDbSpline
 62
250
  6
CONTINUOUS
 70
0
 71
3
 72
9
 73
5
 74
0
 42
0.0000001
 43
0.0000001
 44
0.0000000001
 40
0.0
 40
0.0
 40
0.0
 40
0.0
 40
0.2399296279
 40
1.0
 40
1.0
 40
1.0
 40
1.0
 10
-70.1673376165
 20
-11.1847927117
 30
0.0
 10
-70.1656528594
 20
-11.1845655458
 30
0.0
 10
-70.1586105944
 20
-11.1837713832
 30
0.0
 10
-70.1515084663
 20
-11.1835559907
 30
0.0
 10
-70.1461238551
 20
-11.1836493895
 30
0.0
  0
SPLINE
  5
418
100
AcDbEntity
  8
RACCORDO
100
AcDbSpline
 62
250
  6
CONTINUOUS
 70
0
 71
3
 72
8
 73
4
 74
0
 42
0.0000001
 43
0.0000001
 44
0.0000000001
 40
0.0
 40
0.0
 40
0.0
 40
0.0
 40
1.0
 40
1.0
 40
1.0
 40
1.0
 10
-70.316244309
 20
-11.0826722238
 30
0.0
 10
-70.333135087
 20
-11.0530117429
 30
0.0
 10
-70.3424356214
 20
-11.017812752
 30
0.0
 10
-70.3424345503
 20
-10.9836800331
 30
0.0
  0
SPLINE
  5
419
100
AcDbEntity
  8
RACCORDO
100
AcDbSpline
 62
250
  6
CONTINUOUS
 70
0
 71
3
 72
18
 73
14
 74
0
 42
0.0000001
 43
0.0000001
 44
0.0000000001
 40
0.0
 40
0.0
 40
0.0
 40
0.0
 40
0.1945885327
 40
0.3824831382
 40
0.5553439217
 40
0.7067332258
 40
0.83096335
 40
0.8814416814
 40
0.9234433372
 40
0.9564910535
 40
0.9803510953
 40
0.9948644171
 40
1.0
 40
1.0
 40
1.0
 40
1.0
 10
-68.8706194697
 20
-11.4058829071
 30
0.0
 10
-68.8703930697
 20
-11.3929085941
 30
0.0
 10
-68.8699917875
 20
-11.3674053365
 30
0.0
 10
-68.8695366582
 20
-11.3303752333
 30
0.0
 10
-68.8692510398
 20
-11.2962212306
 30
0.0
 10
-68.8691478406
 20
-11.2663210546
 30
0.0
 10
-68.8692015236
 20
-11.2445576356
 30
0.0
 10
-68.8693735783
 20
-11.2301342102
 30
0.0
 10
-68.8695025229
 20
-11.2217054727
 30
0.0
 10
-68.8697650596
 20
-11.2152676007
 30
0.0
 10
-68.8698369398
 20
-11.2101532082
 30
0.0
 10
-68.8703533364
 20
-11.2078989339
 30
0.0
 10
-68.8702770513
 20
-11.205919345
 30
0.0
 10
-68.8706194695
 20
-11.2059133681
 30
0.0
  0
SPLINE
  5
41A
100
AcDbEntity
  8
RACCORDO
100
AcDbSpline
 62
250
  6
CONTINUOUS
 70
0
 71
3
 72
9
 73
5
 74
0
 42
0.0000001
 43
0.0000001
 44
0.0000000001
 40
0.0
 40
0.0
 40
0.0
 40
0.0
 40
0.5005131689
 40
1.0
 40
1.0
 40
1.0
 40
1.0
 10
-70.1912144292
 20
4.5583567808
 30
0.0
 10
-70.2336434313
 20
4.5481493099
 30
0.0
 10
-70.3139366794
 20
4.4978222368
 30
0.0
 10
-70.3444412497
 20
4.4080251333
 30
0.0
 10
-70.3444417668
 20
4.3644750423
 30
0.0
  0
SPLINE
  5
41B
100
AcDbEntity
  8
RACCORDO
100
AcDbSpline
 62
250
  6
CONTINUOUS
 70
0
 71
3
 72
8
 73
4
 74
0
 42
0.0000001
 43
0.0000001
 44
0.0000000001
 40
0.0
 40
0.0
 40
0.0
 40
0.0
 40
1.0
 40
1.0
 40
1.0
 40
1.0
 10
-70.3424348517
 20
4.3614789189
 30
0.0
 10
-70.3424359557
 20
4.3956115918
 30
0.0
 10
-70.3331354795
 20
4.4308105412
 30
0.0
 10
-70.3162447725
 20
4.4604710095
 30
0.0
  0
SPLINE
  5
41C
100
AcDbEntity
  8
RACCORDO
100
AcDbSpline
 62
250
  6
CONTINUOUS
 70
0
 71
3
 72
8
 73
4
 74
0
 42
0.0000001
 43
0.0000001
 44
0.0000000001
 40
0.0
 40
0.0
 40
0.0
 40
0.0
 40
1.0
 40
1.0
 40
1.0
 40
1.0
 10
-70.1673373578
 20
4.5625925414
 30
0.0
 10
-70.1750525392
 20
4.5636322822
 30
0.0
 10
-70.1826983005
 20
4.5653154587
 30
0.0
 10
-70.1901715149
 20
4.5674963187
 30
0.0
  0
SPLINE
  5
41D
100
AcDbEntity
  8
RACCORDO
100
AcDbSpline
 62
250
  6
CONTINUOUS
 70
0
 71
3
 72
9
 73
5
 74
0
 42
0.0000001
 43
0.0000001
 44
0.0000000001
 40
0.0
 40
0.0
 40
0.0
 40
0.0
 40
0.2596182937
 40
1.0
 40
1.0
 40
1.0
 40
1.0
 10
-70.1901715149
 20
4.5674963187
 30
0.0
 10
-70.2021380512
 20
4.5709884357
 30
0.0
 10
-70.2466953836
 20
4.5893593936
 30
0.0
 10
-70.2851685843
 20
4.621567642
 30
0.0
 10
-70.3066827046
 20
4.6498682386
 30
0.0
  0
SPLINE
  5
41E
100
AcDbEntity
  8
RACCORDO
100
AcDbSpline
 62
250
  6
CONTINUOUS
 70
0
 71
3
 72
18
 73
14
 74
0
 42
0.0000001
 43
0.0000001
 44
0.0000000001
 40
0.0
 40
0.0
 40
0.0
 40
0.0
 40
0.0051355753
 40
0.0196488777
 40
0.0435088988
 40
0.0765566031
 40
0.1185582434
 40
0.1690365462
 40
0.2932666281
 40
0.4446559298
 40
0.6175167594
 40
0.805411439
 40
1.0
 40
1.0
 40
1.0
 40
1.0
 10
-68.3793456729
 20
-11.2144885841
 30
0.0
 10
-68.3796880906
 20
-11.2144826072
 30
0.0
 10
-68.3796118077
 20
-11.2125030217
 30
0.0
 10
-68.3801282028
 20
-11.2102487493
 30
0.0
 10
-68.3802000838
 20
-11.2051343608
 30
0.0
 10
-68.3804626198
 20
-11.1986964919
 30
0.0
 10
-68.3805915643
 20
-11.1902677581
 30
0.0
 10
-68.3807636186
 20
-11.1758443385
 30
0.0
 10
-68.3808173005
 20
-11.1540809243
 30
0.0
 10
-68.3807140988
 20
-11.1241807482
 30
0.0
 10
-68.3804284787
 20
-11.0900267377
 30
0.0
 10
-68.3799733501
 20
-11.0529966246
 30
0.0
 10
-68.3795720699
 20
-11.02749336
 30
0.0
 10
-68.3793456711
 20
-11.0145190451
 30
0.0
  0
SPLINE
  5
41F
100
AcDbEntity
  8
RACCORDO
100
AcDbSpline
 62
250
  6
CONTINUOUS
 70
0
 71
3
 72
18
 73
14
 74
0
 42
0.0000001
 43
0.0000001
 44
0.0000000001
 40
0.0
 40
0.0
 40
0.0
 40
0.0
 40
0.1945885329
 40
0.3824831386
 40
0.5553439222
 40
0.7067332262
 40
0.8309633503
 40
0.8814416816
 40
0.9234433374
 40
0.9564910536
 40
0.9803510952
 40
0.9948644169
 40
1.0
 40
1.0
 40
1.0
 40
1.0
 10
-57.2920836407
 20
4.3920129982
 30
0.0
 10
-57.2918572422
 20
4.4049873113
 30
0.0
 10
-57.2914559624
 20
4.430490569
 30
0.0
 10
-57.2910008347
 20
4.4675206722
 30
0.0
 10
-57.2907152153
 20
4.5016746749
 30
0.0
 10
-57.290612014
 20
4.5315748508
 30
0.0
 10
-57.2906656958
 20
4.5533382698
 30
0.0
 10
-57.2908377499
 20
4.5677616952
 30
0.0
 10
-57.2909666943
 20
4.5761904327
 30
0.0
 10
-57.2912292307
 20
4.5826283047
 30
0.0
 10
-57.2913011109
 20
4.5877426971
 30
0.0
 10
-57.2918175073
 20
4.5899969715
 30
0.0
 10
-57.2917412225
 20
4.5919765603
 30
0.0
 10
-57.2920836407
 20
4.5919825373
 30
0.0
  0
SPLINE
  5
420
100
AcDbEntity
  8
RACCORDO
100
AcDbSpline
 62
250
  6
CONTINUOUS
 70
0
 71
3
 72
9
 73
5
 74
0
 42
0.0000001
 43
0.0000001
 44
0.0000000001
 40
0.0
 40
0.0
 40
0.0
 40
0.0
 40
0.5813827692
 40
1.0
 40
1.0
 40
1.0
 40
1.0
 10
-70.3444408599
 20
4.3644737827
 30
0.0
 10
-70.3444407354
 20
4.3636998748
 30
0.0
 10
-70.3444173119
 20
4.3621795937
 30
0.0
 10
-70.3429912021
 20
4.3614720773
 30
0.0
 10
-70.3424340139
 20
4.3614798584
 30
0.0
  0
SPLINE
  5
421
100
AcDbEntity
  8
RACCORDO
100
AcDbSpline
 62
250
  6
CONTINUOUS
 70
0
 71
3
 72
9
 73
5
 74
0
 42
0.0000001
 43
0.0000001
 44
0.0000000001
 40
0.0
 40
0.0
 40
0.0
 40
0.0
 40
0.5137288935
 40
1.0
 40
1.0
 40
1.0
 40
1.0
 10
-70.3117557843
 20
4.6568255294
 30
0.0
 10
-70.3219822928
 20
4.6714594376
 30
0.0
 10
-70.3384475109
 20
4.702666478
 30
0.0
 10
-70.3444424778
 20
4.737626883
 30
0.0
 10
-70.34444086
 20
4.7545257587
 30
0.0
  0
SPLINE
  5
422
100
AcDbEntity
  8
RACCORDO
100
AcDbSpline
 62
250
  6
CONTINUOUS
 70
0
 71
3
 72
18
 73
14
 74
0
 42
0.0000001
 43
0.0000001
 44
0.0000000001
 40
0.0
 40
0.0
 40
0.0
 40
0.0
 40
0.1945885292
 40
0.3824831262
 40
0.5553439059
 40
0.7067332122
 40
0.8309633413
 40
0.8814416754
 40
0.9234433328
 40
0.9564910501
 40
0.9803510933
 40
0.9948644164
 40
1.0
 40
1.0
 40
1.0
 40
1.0
 10
-57.2920836407
 20
-11.0142144122
 30
0.0
 10
-57.2918572422
 20
-11.027188725
 30
0.0
 10
-57.2914559624
 20
-11.0526919818
 30
0.0
 10
-57.2910008347
 20
-11.089722084
 30
0.0
 10
-57.2907152153
 20
-11.123876086
 30
0.0
 10
-57.290612014
 20
-11.1537762622
 30
0.0
 10
-57.2906656958
 20
-11.1755396818
 30
0.0
 10
-57.2908377499
 20
-11.1899631078
 30
0.0
 10
-57.2909666943
 20
-11.1983918457
 30
0.0
 10
-57.2912292307
 20
-11.204829718
 30
0.0
 10
-57.2913011109
 20
-11.2099441107
 30
0.0
 10
-57.2918175074
 20
-11.2121983853
 30
0.0
 10
-57.2917412225
 20
-11.2141779743
 30
0.0
 10
-57.2920836407
 20
-11.2141839512
 30
0.0
  0
SPLINE
  5
423
100
AcDbEntity
  8
RACCORDO
100
AcDbSpline
 62
250
  6
CONTINUOUS
 70
0
 71
3
 72
9
 73
5
 74
0
 42
0.0000001
 43
0.0000001
 44
0.0000000001
 40
0.0
 40
0.0
 40
0.0
 40
0.0
 40
0.4185705895
 40
1.0
 40
1.0
 40
1.0
 40
1.0
 10
-70.3424338017
 20
-10.9836811241
 30
0.0
 10
-70.34299096
 20
-10.9836732576
 30
0.0
 10
-70.3444174851
 20
-10.9843802291
 30
0.0
 10
-70.3444407365
 20
-10.9859008671
 30
0.0
 10
-70.3444408599
 20
-10.9866748833
 30
0.0
  0
SPLINE
  5
424
100
AcDbEntity
  8
RACCORDO
100
AcDbSpline
 62
250
  6
CONTINUOUS
 70
0
 71
3
 72
12
 73
8
 74
0
 42
0.0000001
 43
0.0000001
 44
0.0000000001
 40
0.0
 40
0.0
 40
0.0
 40
0.0
 40
0.3195665898
 40
0.603055473
 40
0.7236484234
 40
0.8286714668
 40
1.0
 40
1.0
 40
1.0
 40
1.0
 10
-45.5409504598
 20
16.0964792609
 30
0.0
 10
-45.5156539558
 20
16.0967000252
 30
0.0
 10
-45.4678653237
 20
16.1015804231
 30
0.0
 10
-45.4125962792
 20
16.1190279669
 30
0.0
 10
-45.3779004263
 20
16.1400509921
 30
0.0
 10
-45.3545406348
 20
16.1610708822
 30
0.0
 10
-45.3444408664
 20
16.1829012349
 30
0.0
 10
-45.34444086
 20
16.1964639104
 30
0.0
  0
SPLINE
  5
425
100
AcDbEntity
  8
RACCORDO
100
AcDbSpline
 62
250
  6
CONTINUOUS
 70
0
 71
3
 72
12
 73
8
 74
0
 42
0.0000001
 43
0.0000001
 44
0.0000000001
 40
0.0
 40
0.0
 40
0.0
 40
0.0
 40
0.1710619275
 40
0.27587103
 40
0.3964458759
 40
0.6799536641
 40
1.0
 40
1.0
 40
1.0
 40
1.0
 10
-45.34444086
 20
-24.0590976181
 30
0.0
 10
-45.34444086
 20
-24.045555933
 30
0.0
 10
-45.3545074177
 20
-24.023762058
 30
0.0
 10
-45.3778165907
 20
-24.0027430735
 30
0.0
 10
-45.4124897618
 20
-23.9817132946
 30
0.0
 10
-45.4677849142
 20
-23.9642200867
 30
0.0
 10
-45.5156156845
 20
-23.959333958
 30
0.0
 10
-45.5409503788
 20
-23.9591128486
 30
0.0
  0
SPLINE
  5
426
100
AcDbEntity
  8
RACCORDO
100
AcDbSpline
 62
250
  6
CONTINUOUS
 70
0
 71
3
 72
11
 73
7
 74
0
 42
0.0000001
 43
0.0000001
 44
0.0000000001
 40
0.0
 40
0.0
 40
0.0
 40
0.0
 40
0.2470428637
 40
0.4958135546
 40
0.7470281175
 40
1.0
 40
1.0
 40
1.0
 40
1.0
 10
-50.12855953
 20
-24.3391452074
 30
0.0
 10
-50.1536591158
 20
-24.3395829158
 30
0.0
 10
-50.2044130126
 20
-24.3507424284
 30
0.0
 10
-50.2679788992
 20
-24.3956360596
 30
0.0
 10
-50.3102159352
 20
-24.4616356535
 30
0.0
 10
-50.3200038288
 20
-24.513407839
 30
0.0
 10
-50.3199814784
 20
-24.539113712
 30
0.0
  0
SPLINE
  5
427
100
AcDbEntity
  8
RACCORDO
100
AcDbSpline
 62
250
  6
CONTINUOUS
 70
0
 71
3
 72
24
 73
20
 74
0
 42
0.0000001
 43
0.0000001
 44
0.0000000001
 40
0.0
 40
0.0
 40
0.0
 40
0.0
 40
0.0013677236
 40
0.0050306958
 40
0.0110597673
 40
0.0194574259
 40
0.0302138174
 40
0.0433005493
 40
0.0586841062
 40
0.0763305409
 40
0.1182482648
 40
0.1686409394
 40
0.2270412258
 40
0.2928775028
 40
0.3655309244
 40
0.4442983518
 40
0.6171207807
 40
0.8047398498
 40
1.0
 40
1.0
 40
1.0
 40
1.0
 10
-46.8182639971
 20
16.4091613312
 30
0.0
 10
-46.817356088
 20
16.4091432438
 30
0.0
 10
-46.8167198459
 20
16.4044550284
 30
0.0
 10
-46.815481135
 20
16.3984895204
 30
0.0
 10
-46.8145781289
 20
16.3857898286
 30
0.0
 10
-46.8135245378
 20
16.369419308
 30
0.0
 10
-46.8126065398
 20
16.3479089602
 30
0.0
 10
-46.8117251738
 20
16.3219237562
 30
0.0
 10
-46.8109265515
 20
16.2913000382
 30
0.0
 10
-46.8099001507
 20
16.241555898
 30
0.0
 10
-46.8088849274
 20
16.1685534057
 30
0.0
 10
-46.8080390995
 20
16.0684951004
 30
0.0
 10
-46.8075313188
 20
15.9525517177
 30
0.0
 10
-46.8073659081
 20
15.8218282815
 30
0.0
 10
-46.8075498782
 20
15.6775820601
 30
0.0
 10
-46.8082823178
 20
15.462304435
 30
0.0
 10
-46.8100943553
 20
15.1707001516
 30
0.0
 10
-46.8134696535
 20
14.8017614665
 30
0.0
 10
-46.8164631368
 20
14.5475691195
 30
0.0
 10
-46.8181516529
 20
14.4179386811
 30
0.0
  0
LINE
  5
428
100
AcDbEntity
  8
RACCORDO
100
AcDbLine
 62
250
  6
CONTINUOUS
 10
-46.8181516529
 20
14.4179386811
 30
0.0
 11
-46.8182622504
 21
14.4094659145
 31
0.0
  0
LINE
  5
429
100
AcDbEntity
  8
RACCORDO
100
AcDbLine
 62
250
  6
CONTINUOUS
 10
-46.8182639971
 20
-21.0315383444
 30
0.0
 11
-46.8181515818
 21
-21.0401401258
 31
0.0
  0
SPLINE
  5
42A
100
AcDbEntity
  8
RACCORDO
100
AcDbSpline
 62
250
  6
CONTINUOUS
 70
0
 71
3
 72
24
 73
20
 74
0
 42
0.0000001
 43
0.0000001
 44
0.0000000001
 40
0.0
 40
0.0
 40
0.0
 40
0.0
 40
0.1952526097
 40
0.3828647469
 40
0.5556820105
 40
0.6344477635
 40
0.7071002037
 40
0.7729362599
 40
0.8313371971
 40
0.8817314422
 40
0.9236514811
 40
0.941299305
 40
0.9566844912
 40
0.969773216
 40
0.9805320883
 40
0.9889327308
 40
0.9949649203
 40
0.9986306634
 40
1.0
 40
1.0
 40
1.0
 40
1.0
 10
-46.8181515818
 20
-21.0401401258
 30
0.0
 10
-46.8164612527
 20
-21.1697654634
 30
0.0
 10
-46.8134713355
 20
-21.4239481079
 30
0.0
 10
-46.810094546
 20
-21.7928735354
 30
0.0
 10
-46.8082828544
 20
-22.0844685207
 30
0.0
 10
-46.8075501975
 20
-22.2997408349
 30
0.0
 10
-46.8073659215
 20
-22.4439850675
 30
0.0
 10
-46.8075309991
 20
-22.5747080673
 30
0.0
 10
-46.8080385217
 20
-22.6906527155
 30
0.0
 10
-46.8088842925
 20
-22.7907139824
 30
0.0
 10
-46.8098993458
 20
-22.8637199306
 30
0.0
 10
-46.8109253342
 20
-22.9134676069
 30
0.0
 10
-46.8117236155
 20
-22.9440946152
 30
0.0
 10
-46.8126049586
 20
-22.9700839476
 30
0.0
 10
-46.8135226972
 20
-22.9915990202
 30
0.0
 10
-46.8145777516
 20
-23.0079757152
 30
0.0
 10
-46.8154790874
 20
-23.0206802791
 30
0.0
 10
-46.816722005
 20
-23.0266521687
 30
0.0
 10
-46.8173533187
 20
-23.0313423597
 30
0.0
 10
-46.8182622504
 20
-23.0313627188
 30
0.0
  0
SPLINE
  5
42B
100
AcDbEntity
  8
RACCORDO
100
AcDbSpline
 62
250
  6
CONTINUOUS
 70
0
 71
3
 72
18
 73
14
 74
0
 42
0.0000001
 43
0.0000001
 44
0.0000000001
 40
0.0
 40
0.0
 40
0.0
 40
0.0
 40
0.1605927111
 40
0.3331056721
 40
0.5054118748
 40
0.6660429977
 40
0.803976644
 40
0.8614384098
 40
0.9098496448
 40
0.9484529388
 40
0.9765437286
 40
0.9937139376
 40
1.0
 40
1.0
 40
1.0
 40
1.0
 10
-45.5409503788
 20
-23.9591128486
 30
0.0
 10
-45.540389984
 20
-23.9751751272
 30
0.0
 10
-45.5394086545
 20
-24.0084984972
 30
0.0
 10
-45.5383311017
 20
-24.0590680759
 30
0.0
 10
-45.537642928
 20
-24.1096521087
 30
0.0
 10
-45.5373918279
 20
-24.1567669345
 30
0.0
 10
-45.5375453919
 20
-24.192423385
 30
0.0
 10
-45.5379536081
 20
-24.2167797851
 30
0.0
 10
-45.5383130052
 20
-24.231324922
 30
0.0
 10
-45.5388565079
 20
-24.2425929678
 30
0.0
 10
-45.5392459833
 20
-24.2515326062
 30
0.0
 10
-45.5401071025
 20
-24.2556442897
 30
0.0
 10
-45.5403213681
 20
-24.2590561777
 30
0.0
 10
-45.5409503788
 20
-24.2590671571
 30
0.0
  0
SPLINE
  5
42C
100
AcDbEntity
  8
RACCORDO
100
AcDbSpline
 62
250
  6
CONTINUOUS
 70
0
 71
3
 72
18
 73
14
 74
0
 42
0.0000001
 43
0.0000001
 44
0.0000000001
 40
0.0
 40
0.0
 40
0.0
 40
0.0
 40
0.1605864315
 40
0.3330840828
 40
0.5053826765
 40
0.666012431
 40
0.8039451429
 40
0.861405966
 40
0.9098240705
 40
0.9484361019
 40
0.9765310745
 40
0.9937094976
 40
1.0
 40
1.0
 40
1.0
 40
1.0
 10
-50.1219849733
 20
-23.388983722
 30
0.0
 10
-50.1225453459
 20
-23.3729220774
 30
0.0
 10
-50.1235266386
 20
-23.3396008803
 30
0.0
 10
-50.124604147
 20
-23.2890342422
 30
0.0
 10
-50.1252923266
 20
-23.2384526588
 30
0.0
 10
-50.1255434896
 20
-23.1913388446
 30
0.0
 10
-50.1253901088
 20
-23.1556827278
 30
0.0
 10
-50.1249819079
 20
-23.1313258428
 30
0.0
 10
-50.1246226592
 20
-23.1167792114
 30
0.0
 10
-50.1240791409
 20
-23.1055092859
 30
0.0
 10
-50.1236897406
 20
-23.0965672877
 30
0.0
 10
-50.1228276937
 20
-23.0924546618
 30
0.0
 10
-50.122614428
 20
-23.0890404006
 30
0.0
 10
-50.1219849733
 20
-23.0890294134
 30
0.0
  0
SPLINE
  5
42D
100
AcDbEntity
  8
RACCORDO
100
AcDbSpline
 62
250
  6
CONTINUOUS
 70
0
 71
3
 72
12
 73
8
 74
0
 42
0.0000001
 43
0.0000001
 44
0.0000000001
 40
0.0
 40
0.0
 40
0.0
 40
0.0
 40
0.1613952871
 40
0.2695120754
 40
0.396527647
 40
0.6960537737
 40
1.0
 40
1.0
 40
1.0
 40
1.0
 10
-50.128559548
 20
-24.3391441731
 30
0.0
 10
-50.1475634452
 20
-24.3394735424
 30
0.0
 10
-50.1782874059
 20
-24.3220022466
 30
0.0
 10
-50.209016519
 20
-24.2873481466
 30
0.0
 10
-50.2409347799
 20
-24.2323585952
 30
0.0
 10
-50.2591659053
 20
-24.1455380363
 30
0.0
 10
-50.2438968626
 20
-24.0737300834
 30
0.0
 10
-50.2295152033
 20
-24.040952052
 30
0.0
  0
SPLINE
  5
42E
100
AcDbEntity
  8
RACCORDO
100
AcDbSpline
 62
250
  6
CONTINUOUS
 70
0
 71
3
 72
18
 73
14
 74
0
 42
0.0000001
 43
0.0000001
 44
0.0000000001
 40
0.0
 40
0.0
 40
0.0
 40
0.0
 40
0.006304878
 40
0.0235001584
 40
0.0515611516
 40
0.0901701616
 40
0.1386245674
 40
0.196053504
 40
0.3340328673
 40
0.4945776211
 40
0.6668940674
 40
0.8395361571
 40
1.0
 40
1.0
 40
1.0
 40
1.0
 10
-46.8182622504
 20
-23.0313627188
 30
0.0
 10
-46.8188931416
 20
-23.031373731
 30
0.0
 10
-46.819099725
 20
-23.0347958256
 30
0.0
 10
-46.8199661559
 20
-23.0389056388
 30
0.0
 10
-46.8203560281
 20
-23.0478459584
 30
0.0
 10
-46.8209007985
 20
-23.0591153763
 30
0.0
 10
-46.8212588164
 20
-23.0736623307
 30
0.0
 10
-46.8216686912
 20
-23.0980241583
 30
0.0
 10
-46.821818449
 20
-23.133673203
 30
0.0
 10
-46.8215706153
 20
-23.1807848031
 30
0.0
 10
-46.8208816562
 20
-23.2313739773
 30
0.0
 10
-46.8198023753
 20
-23.2819443819
 30
0.0
 10
-46.8188221936
 20
-23.3152676939
 30
0.0
 10
-46.8182622508
 20
-23.331317027
 30
0.0
  0
SPLINE
  5
42F
100
AcDbEntity
  8
RACCORDO
100
AcDbSpline
 62
250
  6
CONTINUOUS
 70
0
 71
3
 72
9
 73
5
 74
0
 42
0.0000001
 43
0.0000001
 44
0.0000000001
 40
0.0
 40
0.0
 40
0.0
 40
0.0
 40
0.4925134212
 40
1.0
 40
1.0
 40
1.0
 40
1.0
 10
-45.5409511374
 20
-22.7186783132
 30
0.0
 10
-45.478901758
 20
-22.5304775269
 30
0.0
 10
-45.3797622055
 20
-22.1388474181
 30
0.0
 10
-45.3444374642
 20
-21.7357957794
 30
0.0
 10
-45.3444403272
 20
-21.5316054969
 30
0.0
  0
SPLINE
  5
430
100
AcDbEntity
  8
RACCORDO
100
AcDbSpline
 62
250
  6
CONTINUOUS
 70
0
 71
3
 72
9
 73
5
 74
0
 42
0.0000001
 43
0.0000001
 44
0.0000000001
 40
0.0
 40
0.0
 40
0.0
 40
0.0
 40
0.5074868378
 40
1.0
 40
1.0
 40
1.0
 40
1.0
 10
-45.3444406064
 20
14.9093780107
 30
0.0
 10
-45.3444416895
 20
15.1135731044
 30
0.0
 10
-45.3797749494
 20
15.5166291721
 30
0.0
 10
-45.4788729284
 20
15.9082831149
 30
0.0
 10
-45.5409505322
 20
16.0964792939
 30
0.0
  0
SPLINE
  5
431
100
AcDbEntity
  8
RACCORDO
100
AcDbSpline
 62
250
  6
CONTINUOUS
 70
0
 71
3
 72
18
 73
14
 74
0
 42
0.0000001
 43
0.0000001
 44
0.0000000001
 40
0.0
 40
0.0
 40
0.0
 40
0.0
 40
0.1604638439
 40
0.3331059347
 40
0.5054223822
 40
0.6659671369
 40
0.803946501
 40
0.8613754378
 40
0.9098298438
 40
0.9484388536
 40
0.9764998462
 40
0.9936951255
 40
1.0
 40
1.0
 40
1.0
 40
1.0
 10
-46.8182622504
 20
16.7091156134
 30
0.0
 10
-46.8188221934
 20
16.6930662803
 30
0.0
 10
-46.8198023754
 20
16.6597429681
 30
0.0
 10
-46.8208816561
 20
16.6091725634
 30
0.0
 10
-46.8215706146
 20
16.558583389
 30
0.0
 10
-46.8218184477
 20
16.5114717887
 30
0.0
 10
-46.8216686891
 20
16.4758227439
 30
0.0
 10
-46.8212588136
 20
16.4514609164
 30
0.0
 10
-46.8209007956
 20
16.4369139618
 30
0.0
 10
-46.8203560248
 20
16.4256445444
 30
0.0
 10
-46.8199661548
 20
16.416704224
 30
0.0
 10
-46.8190997229
 20
16.4125944129
 30
0.0
 10
-46.8188931436
 20
16.409172317
 30
0.0
 10
-46.8182622527
 20
16.4091613049
 30
0.0
  0
SPLINE
  5
432
100
AcDbEntity
  8
RACCORDO
100
AcDbSpline
 62
250
  6
CONTINUOUS
 70
0
 71
3
 72
12
 73
8
 74
0
 42
0.0000001
 43
0.0000001
 44
0.0000000001
 40
0.0
 40
0.0
 40
0.0
 40
0.0
 40
0.3195675936
 40
0.6030568679
 40
0.7236496687
 40
0.8286724111
 40
1.0
 40
1.0
 40
1.0
 40
1.0
 10
-45.5409507356
 20
-22.7186773401
 30
0.0
 10
-45.5156541386
 20
-22.7188982632
 30
0.0
 10
-45.4678654209
 20
-22.7237788822
 30
0.0
 10
-45.4125961861
 20
-22.7412262287
 30
0.0
 10
-45.3779002687
 20
-22.762249195
 30
0.0
 10
-45.3545405122
 20
-22.7832689833
 30
0.0
 10
-45.3444407952
 20
-22.8050992943
 30
0.0
 10
-45.34444086
 20
-22.8186619031
 30
0.0
  0
SPLINE
  5
433
100
AcDbEntity
  8
RACCORDO
100
AcDbSpline
 62
250
  6
CONTINUOUS
 70
0
 71
3
 72
21
 73
17
 74
0
 42
0.0000001
 43
0.0000001
 44
0.0000000001
 40
0.0
 40
0.0
 40
0.0
 40
0.0
 40
0.1948110267
 40
0.3824960753
 40
0.5552418276
 40
0.706642465
 40
0.7725321829
 40
0.8309736782
 40
0.881393657
 40
0.923357353
 40
0.9564412539
 40
0.9803046462
 40
0.9887294238
 40
0.9947997304
 40
0.9985188149
 40
1.0
 40
1.0
 40
1.0
 40
1.0
 10
-53.290276891
 20
-25.144408307
 30
0.0
 10
-53.2897102005
 20
-25.176883841
 30
0.0
 10
-53.2887059111
 20
-25.2406489222
 30
0.0
 10
-53.2875691751
 20
-25.3332166214
 30
0.0
 10
-53.2868577883
 20
-25.4185504567
 30
0.0
 10
-53.2866251615
 20
-25.4835807654
 30
0.0
 10
-53.2866976918
 20
-25.5295524976
 30
0.0
 10
-53.2868651193
 20
-25.5586894461
 30
0.0
 10
-53.2871459746
 20
-25.5838306778
 30
0.0
 10
-53.2875321899
 20
-25.6047581161
 30
0.0
 10
-53.2880192479
 20
-25.6212119301
 30
0.0
 10
-53.2885323735
 20
-25.6321645972
 30
0.0
 10
-53.2890314384
 20
-25.638454851
 30
0.0
 10
-53.2893857615
 20
-25.6416165664
 30
0.0
 10
-53.2897084426
 20
-25.6432034821
 30
0.0
 10
-53.2900299734
 20
-25.6443278446
 30
0.0
 10
-53.290276891
 20
-25.6443321546
 30
0.0
  0
SPLINE
  5
434
100
AcDbEntity
  8
RACCORDO
100
AcDbSpline
 62
250
  6
CONTINUOUS
 70
0
 71
3
 72
10
 73
6
 74
0
 42
0.0000001
 43
0.0000001
 44
0.0000000001
 40
0.0
 40
0.0
 40
0.0
 40
0.0
 40
0.5639858356
 40
0.8046236654
 40
1.0
 40
1.0
 40
1.0
 40
1.0
 10
-50.2295152036
 20
-24.0409520596
 30
0.0
 10
-50.2695839598
 20
-24.034502033
 30
0.0
 10
-50.3263804466
 20
-24.0170504815
 30
0.0
 10
-50.3867824453
 20
-23.9773708409
 30
0.0
 10
-50.4081778418
 20
-23.9533597904
 30
0.0
 10
-50.4148179228
 20
-23.9409672825
 30
0.0
  0
SPLINE
  5
435
100
AcDbEntity
  8
RACCORDO
100
AcDbSpline
 62
250
  6
CONTINUOUS
 70
0
 71
3
 72
11
 73
7
 74
0
 42
0.0000001
 43
0.0000001
 44
0.0000000001
 40
0.0
 40
0.0
 40
0.0
 40
0.0
 40
0.3006425753
 40
0.5791643324
 40
0.814910871
 40
1.0
 40
1.0
 40
1.0
 40
1.0
 10
-50.1219849733
 20
-23.388983722
 30
0.0
 10
-50.144134787
 20
-23.3849135661
 30
0.0
 10
-50.1873275848
 20
-23.3792911345
 30
0.0
 10
-50.2447536719
 20
-23.3566208283
 30
0.0
 10
-50.2887313893
 20
-23.3279463487
 30
0.0
 10
-50.3094628319
 20
-23.3021685738
 30
0.0
 10
-50.3137978098
 20
-23.2889989525
 30
0.0
  0
SPLINE
  5
436
100
AcDbEntity
  8
RACCORDO
100
AcDbSpline
 62
250
  6
CONTINUOUS
 70
0
 71
3
 72
11
 73
7
 74
0
 42
0.0000001
 43
0.0000001
 44
0.0000000001
 40
0.0
 40
0.0
 40
0.0
 40
0.0
 40
0.2472769399
 40
0.4961442717
 40
0.7472624202
 40
1.0
 40
1.0
 40
1.0
 40
1.0
 10
-50.1219849734
 20
-23.0890294134
 30
0.0
 10
-50.14713282
 20
-23.0894683707
 30
0.0
 10
-50.1979605703
 20
-23.1006222485
 30
0.0
 10
-50.2616924199
 20
-23.1455025302
 30
0.0
 10
-50.303891396
 20
-23.2115017419
 30
0.0
 10
-50.3140576173
 20
-23.2632931611
 30
0.0
 10
-50.3137978098
 20
-23.2889989525
 30
0.0
  0
SPLINE
  5
437
100
AcDbEntity
  8
RACCORDO
100
AcDbSpline
 62
250
  6
CONTINUOUS
 70
0
 71
3
 72
12
 73
8
 74
0
 42
0.0000001
 43
0.0000001
 44
0.0000000001
 40
0.0
 40
0.0
 40
0.0
 40
0.0
 40
0.1769563387
 40
0.2832674521
 40
0.4040549507
 40
0.6851819505
 40
1.0
 40
1.0
 40
1.0
 40
1.0
 10
-51.6013503784
 20
-23.1148558419
 30
0.0
 10
-51.6156672738
 20
-23.1151044279
 30
0.0
 10
-51.6384766825
 20
-23.1254589973
 30
0.0
 10
-51.6606054101
 20
-23.1495838226
 30
0.0
 10
-51.6822240652
 20
-23.1848891569
 30
0.0
 10
-51.699736756
 20
-23.2409621448
 30
0.0
 10
-51.7039252397
 20
-23.2893487571
 30
0.0
 10
-51.7036052456
 20
-23.3148213726
 30
0.0
  0
SPLINE
  5
438
100
AcDbEntity
  8
RACCORDO
100
AcDbSpline
 62
250
  6
CONTINUOUS
 70
0
 71
3
 72
10
 73
6
 74
0
 42
0.0000001
 43
0.0000001
 44
0.0000000001
 40
0.0
 40
0.0
 40
0.0
 40
0.0
 40
0.2367846215
 40
0.4848057235
 40
1.0
 40
1.0
 40
1.0
 40
1.0
 10
-51.6788310896
 20
-23.1157820054
 30
0.0
 10
-51.8060802279
 20
-23.1166555607
 30
0.0
 10
-52.0666381219
 20
-23.1125191416
 30
0.0
 10
-52.6038151132
 20
-23.0977937047
 30
0.0
 10
-53.0141084856
 20
-23.0934713112
 30
0.0
 10
-53.2909410663
 20
-23.0982766556
 30
0.0
  0
SPLINE
  5
439
100
AcDbEntity
  8
RACCORDO
100
AcDbSpline
 62
250
  6
CONTINUOUS
 70
0
 71
3
 72
26
 73
22
 74
0
 42
0.0000001
 43
0.0000001
 44
0.0000000001
 40
0.0
 40
0.0
 40
0.0
 40
0.0
 40
0.195048101
 40
0.3825994161
 40
0.5554497825
 40
0.6342553617
 40
0.7069559521
 40
0.772843578
 40
0.8312953078
 40
0.8817357723
 40
0.9236944826
 40
0.941357989
 40
0.9567558501
 40
0.9698539176
 40
0.9806182338
 40
0.9890192652
 40
0.9950445106
 40
0.9971645529
 40
0.9986899078
 40
0.9996247299
 40
1.0
 40
1.0
 40
1.0
 40
1.0
 10
-45.8269911117
 20
23.7069686651
 30
0.0
 10
-45.8258584696
 20
23.8369367635
 30
0.0
 10
-45.8238526702
 20
24.0918795037
 30
0.0
 10
-45.8215855607
 20
24.4620044806
 30
0.0
 10
-45.820364827
 20
24.754674114
 30
0.0
 10
-45.8198676281
 20
24.9708131168
 30
0.0
 10
-45.8197393041
 20
25.1156765242
 30
0.0
 10
-45.8198447493
 20
25.2469768636
 30
0.0
 10
-45.8201795142
 20
25.3634435316
 30
0.0
 10
-45.8207405228
 20
25.4639635534
 30
0.0
 10
-45.8214161413
 20
25.5373029279
 30
0.0
 10
-45.8220987377
 20
25.5872884265
 30
0.0
 10
-45.8226322625
 20
25.6180443014
 30
0.0
 10
-45.8232147008
 20
25.6441953696
 30
0.0
 10
-45.8238399079
 20
25.665697381
 30
0.0
 10
-45.8245077633
 20
25.6824405769
 30
0.0
 10
-45.8251305548
 20
25.6935123024
 30
0.0
 10
-45.825693157
 20
25.6998491246
 30
0.0
 10
-45.8260727051
 20
25.7030177065
 30
0.0
 10
-45.8264179228
 20
25.7046211567
 30
0.0
 10
-45.8267412765
 20
25.705739568
 30
0.0
 10
-45.8269911117
 20
25.7057503191
 30
0.0
  0
SPLINE
  5
43A
100
AcDbEntity
  8
RACCORDO
100
AcDbSpline
 62
250
  6
CONTINUOUS
 70
0
 71
3
 72
10
 73
6
 74
0
 42
0.0000001
 43
0.0000001
 44
0.0000000001
 40
0.0
 40
0.0
 40
0.0
 40
0.0
 40
0.1296075552
 40
0.3581625615
 40
1.0
 40
1.0
 40
1.0
 40
1.0
 10
-53.2909410663
 20
-23.0982766556
 30
0.0
 10
-53.2914663358
 20
-23.1067006712
 30
0.0
 10
-53.2916625488
 20
-23.1300397418
 30
0.0
 10
-53.2918289233
 20
-23.195148935
 30
0.0
 10
-53.2910061462
 20
-23.2518361558
 30
0.0
 10
-53.2902768914
 20
-23.2936278917
 30
0.0
  0
SPLINE
  5
43B
100
AcDbEntity
  8
RACCORDO
100
AcDbSpline
 62
250
  6
CONTINUOUS
 70
0
 71
3
 72
18
 73
14
 74
0
 42
0.0000001
 43
0.0000001
 44
0.0000000001
 40
0.0
 40
0.0
 40
0.0
 40
0.0
 40
0.0062913209
 40
0.0234717639
 40
0.0515693343
 40
0.0901872098
 40
0.138611099
 40
0.1960751778
 40
0.3340184132
 40
0.4946634088
 40
0.6669711093
 40
0.8394412243
 40
1.0
 40
1.0
 40
1.0
 40
1.0
 10
-45.5409503788
 20
17.6368657432
 30
0.0
 10
-45.5403208422
 20
17.6368547546
 30
0.0
 10
-45.5401077544
 20
17.6334399875
 30
0.0
 10
-45.5392455191
 20
17.6293269999
 30
0.0
 10
-45.5388561119
 20
17.6203838595
 30
0.0
 10
-45.5383125858
 20
17.6091125594
 30
0.0
 10
-45.5379533491
 20
17.5945644229
 30
0.0
 10
-45.5375451388
 20
17.5702055861
 30
0.0
 10
-45.5373918743
 20
17.5345465637
 30
0.0
 10
-45.537643161
 20
17.4874292648
 30
0.0
 10
-45.5383314904
 20
17.4368480063
 30
0.0
 10
-45.539408828
 20
17.3862859811
 30
0.0
 10
-45.5403901027
 20
17.352970312
 30
0.0
 10
-45.5409503788
 20
17.3369114346
 30
0.0
  0
SPLINE
  5
43C
100
AcDbEntity
  8
RACCORDO
100
AcDbSpline
 62
250
  6
CONTINUOUS
 70
0
 71
3
 72
12
 73
8
 74
0
 42
0.0000001
 43
0.0000001
 44
0.0000000001
 40
0.0
 40
0.0
 40
0.0
 40
0.0
 40
0.319602611
 40
0.6030345545
 40
0.7237095813
 40
0.8286516128
 40
1.0
 40
1.0
 40
1.0
 40
1.0
 10
-45.5409503788
 20
17.3369114346
 30
0.0
 10
-45.515651
 20
17.3371322358
 30
0.0
 10
-45.4678602502
 20
17.3420051791
 30
0.0
 10
-45.4125986877
 20
17.359477563
 30
0.0
 10
-45.3778929082
 20
17.3804774509
 30
0.0
 10
-45.3545404642
 20
17.4015085984
 30
0.0
 10
-45.34444086
 20
17.4233319444
 30
0.0
 10
-45.34444086
 20
17.4368962042
 30
0.0
  0
SPLINE
  5
43D
100
AcDbEntity
  8
RACCORDO
100
AcDbSpline
 62
250
  6
CONTINUOUS
 70
0
 71
3
 72
11
 73
7
 74
0
 42
0.0000001
 43
0.0000001
 44
0.0000000001
 40
0.0
 40
0.0
 40
0.0
 40
0.0
 40
0.2326844429
 40
0.4799525917
 40
0.7372826253
 40
1.0
 40
1.0
 40
1.0
 40
1.0
 10
-51.7036004241
 20
-23.3148213729
 30
0.0
 10
-51.8266649258
 20
-23.317114339
 30
0.0
 10
-52.0806216964
 20
-23.3133704135
 30
0.0
 10
-52.4703775034
 20
-23.300162699
 30
0.0
 10
-52.8761833108
 20
-23.2903493232
 30
0.0
 10
-53.1513276925
 20
-23.2910700701
 30
0.0
 10
-53.290276891
 20
-23.2936278921
 30
0.0
  0
SPLINE
  5
43E
100
AcDbEntity
  8
RACCORDO
100
AcDbSpline
 62
250
  6
CONTINUOUS
 70
0
 71
3
 72
15
 73
11
 74
0
 42
0.0000001
 43
0.0000001
 44
0.0000000001
 40
0.0
 40
0.0
 40
0.0
 40
0.0
 40
0.0449304825
 40
0.0790024027
 40
0.1214830348
 40
0.2300463266
 40
0.365198993
 40
0.5192202334
 40
0.6829765884
 40
1.0
 40
1.0
 40
1.0
 40
1.0
 10
-50.3199743505
 20
-24.5391137121
 30
0.0
 10
-50.3293971407
 20
-24.5392836128
 30
0.0
 10
-50.3444482713
 20
-24.5274655139
 30
0.0
 10
-50.3589773393
 20
-24.507247732
 30
0.0
 10
-50.3776773239
 20
-24.4728172159
 30
0.0
 10
-50.3980999705
 20
-24.4162616512
 30
0.0
 10
-50.4175036073
 20
-24.334944455
 30
0.0
 10
-50.4302701011
 20
-24.240648255
 30
0.0
 10
-50.4360280839
 20
-24.107521804
 30
0.0
 10
-50.4272798613
 20
-24.0062858768
 30
0.0
 10
-50.4148180089
 20
-23.9409672825
 30
0.0
  0
ELLIPSE
  5
43F
100
AcDbEntity
  8
0
100
AcDbEllipse
 62
7
  6
CONTINUOUS
 10
21.775885921
 20
-21.3107960509
 30
0.0
 11
1.4146443783
 21
-1.4146443783
 31
0.0
 40
0.9996954599
 41
-0.7254609918
 42
0.7852458701
  0
ELLIPSE
  5
440
100
AcDbEntity
  8
RACCORDO
100
AcDbEllipse
 62
7
  6
CONTINUOUS
 10
23.9762210427
 20
4.8889297586
 30
0.0
 11
-0.1414644378
 21
-0.1414644378
 31
0.0
 40
0.9996954599
 41
-0.7852458701
 42
0.78524587
  0
ELLIPSE
  5
441
100
AcDbEntity
  8
RACCORDO
100
AcDbEllipse
 62
7
  6
CONTINUOUS
 10
21.775885921
 20
14.6885946369
 30
0.0
 11
1.4146443783
 21
1.4146443783
 31
0.0
 40
0.9996954599
 41
-0.7852458701
 42
0.7852458701
  0
ELLIPSE
  5
442
100
AcDbEntity
  8
RACCORDO
100
AcDbEllipse
 62
7
  6
CONTINUOUS
 10
-16.4238398885
 20
-11.5111311726
 30
0.0
 11
0.1414644378
 21
0.1414644378
 31
0.0
 40
0.9996954599
 41
-0.7852458701
 42
0.78524587
  0
ELLIPSE
  5
443
100
AcDbEntity
  8
0
100
AcDbEllipse
 62
7
  6
CONTINUOUS
 10
-14.2235047668
 20
-21.3107960509
 30
0.0
 11
1.4146443783
 21
1.4146443783
 31
0.0
 40
0.9996954599
 41
-3.9268385237
 42
-2.4161316618
  0
ELLIPSE
  5
444
100
AcDbEntity
  8
RACCORDO
100
AcDbEllipse
 62
7
  6
CONTINUOUS
 10
23.9762210427
 20
-11.5111311726
 30
0.0
 11
0.1414644378
 21
-0.1414644378
 31
0.0
 40
0.9996954599
 41
2.3563467836
 42
3.9268385237
  0
ELLIPSE
  5
445
100
AcDbEntity
  8
RACCORDO
100
AcDbEllipse
 62
7
  6
CONTINUOUS
 10
-16.4238398885
 20
4.8889297586
 30
0.0
 11
-0.1414644378
 21
0.1414644378
 31
0.0
 40
0.9996954599
 41
2.3563467836
 42
3.9268385237
  0
ELLIPSE
  5
446
100
AcDbEntity
  8
RACCORDO
100
AcDbEllipse
 62
7
  6
CONTINUOUS
 10
-17.6365340982
 20
-7.7237492183
 30
0.0
 11
-0.0
 21
0.5
 31
0.0
 40
0.0174550649
 41
-3.1241393611
 42
-1.5707963268
  0
ELLIPSE
  5
447
100
AcDbEntity
  8
RACCORDO
100
AcDbEllipse
 62
7
  6
CONTINUOUS
 10
-16.3110847475
 20
-7.7237492183
 30
0.0
 11
-0.0
 21
0.5
 31
0.0
 40
0.0174550649
 41
-3.9745960497
 42
-3.1590459461
  0
ELLIPSE
  5
448
100
AcDbEntity
  8
RACCORDO
100
AcDbEllipse
 62
7
  6
CONTINUOUS
 10
-16.3110847475
 20
1.1015478044
 30
0.0
 11
0.0
 21
0.5
 31
0.0
 40
0.0174550649
 41
0.0174532925
 42
0.8330033961
  0
ELLIPSE
  5
449
100
AcDbEntity
  8
RACCORDO
100
AcDbEllipse
 62
7
  6
CONTINUOUS
 10
-17.6365340982
 20
1.1015478044
 30
0.0
 11
-0.0
 21
0.5
 31
0.0
 40
0.0174550649
 41
-1.5707963268
 42
-0.0174532925
  0
ELLIPSE
  5
44A
100
AcDbEntity
  8
RACCORDO
100
AcDbEllipse
 62
7
  6
CONTINUOUS
 10
25.1889152525
 20
1.1015478044
 30
0.0
 11
0.0
 21
0.5
 31
0.0
 40
0.0174550649
 41
0.0174532925
 42
1.5707963268
  0
ELLIPSE
  5
44B
100
AcDbEntity
  8
RACCORDO
100
AcDbEllipse
 62
7
  6
CONTINUOUS
 10
23.8634659018
 20
1.1015478044
 30
0.0
 11
-0.0
 21
0.5
 31
0.0
 40
0.0174550649
 41
-0.8330033961
 42
-0.0174532925
  0
ELLIPSE
  5
44C
100
AcDbEntity
  8
RACCORDO
100
AcDbEllipse
 62
7
  6
CONTINUOUS
 10
23.8634659018
 20
-7.7237492183
 30
0.0
 11
0.0
 21
0.5
 31
0.0
 40
0.0174550649
 41
-3.1241393611
 42
-2.3085892575
  0
ELLIPSE
  5
44D
100
AcDbEntity
  8
RACCORDO
100
AcDbEllipse
 62
7
  6
CONTINUOUS
 10
25.1889152525
 20
-7.7237492183
 30
0.0
 11
-0.0
 21
0.5
 31
0.0
 40
0.0174550649
 41
-4.7123889804
 42
-3.1590459461
  0
ELLIPSE
  5
44E
100
AcDbEntity
  8
RACCORDO
100
AcDbEllipse
 62
7
  6
CONTINUOUS
 10
-14.7238094229
 20
1.7936296826
 30
0.0
 11
1.5
 21
0.0
 31
0.0
 40
0.0174550649
 41
1.5707963268
 42
3.1415926536
  0
ELLIPSE
  5
44F
100
AcDbEntity
  8
RACCORDO
100
AcDbEllipse
 62
7
  6
CONTINUOUS
 10
22.2761905771
 20
-8.4158310965
 30
0.0
 11
1.5
 21
0.0
 31
0.0
 40
0.0174550649
 41
-1.5707963268
 42
-0.0
  0
ELLIPSE
  5
450
100
AcDbEntity
  8
RACCORDO
100
AcDbEllipse
 62
7
  6
CONTINUOUS
 10
-15.6275019097
 20
-8.4071035641
 30
0.0
 11
2.0
 21
-0.0
 31
0.0
 40
0.0174550649
 41
3.1590459461
 42
4.7123889804
  0
ELLIPSE
  5
451
100
AcDbEntity
  8
RACCORDO
100
AcDbEllipse
 62
7
  6
CONTINUOUS
 10
-15.6275019097
 20
1.7849021501
 30
0.0
 11
2.0
 21
-0.0
 31
0.0
 40
0.0174550649
 41
7.853981634
 42
9.4073246682
  0
ELLIPSE
  5
452
100
AcDbEntity
  8
RACCORDO
100
AcDbEllipse
 62
7
  6
CONTINUOUS
 10
23.1798830639
 20
1.7849021501
 30
0.0
 11
2.0
 21
0.0
 31
0.0
 40
0.0174550649
 41
6.3006385997
 42
7.853981634
  0
ELLIPSE
  5
453
100
AcDbEntity
  8
RACCORDO
100
AcDbEllipse
 62
7
  6
CONTINUOUS
 10
23.1798830639
 20
-8.4071035641
 30
0.0
 11
2.0
 21
0.0
 31
0.0
 40
0.0174550649
 41
4.7123889804
 42
6.2657320147
  0
ELLIPSE
  5
454
100
AcDbEntity
  8
RACCORDO
100
AcDbEllipse
 62
7
  6
CONTINUOUS
 10
-14.2235047668
 20
-21.3107960509
 30
0.0
 11
1.4146443783
 21
1.4146443783
 31
0.0
 40
0.9996954599
 41
8.6395320906
 42
10.0748726806
  0
ELLIPSE
  5
455
100
AcDbEntity
  8
RACCORDO
100
AcDbEllipse
 62
7
  6
CONTINUOUS
 10
-14.2235047668
 20
14.6885946369
 30
0.0
 11
1.4146443783
 21
-1.4146443783
 31
0.0
 40
0.9996954599
 41
8.6395320906
 42
10.2100238309
  0
ELLIPSE
  5
456
100
AcDbEntity
  8
RACCORDO
100
AcDbEllipse
 62
7
  6
CONTINUOUS
 10
21.775885921
 20
-21.3107960509
 30
0.0
 11
-1.4146443783
 21
1.4146443783
 31
0.0
 40
0.9996954599
 41
8.7746832409
 42
10.2100238309
  0
ELLIPSE
  5
457
100
AcDbEntity
  8
RACCORDO
100
AcDbEllipse
 62
7
  6
CONTINUOUS
 10
21.775885921
 20
14.6885946369
 30
0.0
 11
-1.4146443783
 21
-1.4146443783
 31
0.0
 40
0.9996954599
 41
8.6395320906
 42
10.2100238309
  0
ELLIPSE
  5
458
100
AcDbEntity
  8
RACCORDO
100
AcDbEllipse
 62
7
  6
CONTINUOUS
 10
-14.6238398885
 20
-23.3906371114
 30
0.0
 11
0.1414644378
 21
0.1414644378
 31
0.0
 40
0.9996954599
 41
-0.7852458701
 42
-0.3004543493
  0
ELLIPSE
  5
459
100
AcDbEntity
  8
RACCORDO
100
AcDbEllipse
 62
7
  6
CONTINUOUS
 10
22.1762210427
 20
-23.3906371114
 30
0.0
 11
0.1414644378
 21
-0.1414644378
 31
0.0
 40
0.9996954599
 41
-2.8411383043
 42
-2.3563467834
  0
ELLIPSE
  5
45A
100
AcDbEntity
  8
RACCORDO
100
AcDbEllipse
 62
7
  6
CONTINUOUS
 10
-23.2749714885
 20
-18.2122627726
 30
0.0
 11
1.4159370892
 21
1.4159370892
 31
0.0
 40
0.998782766
 41
2.3568034778
 42
3.9263818294
  0
ELLIPSE
  5
45B
100
AcDbEntity
  8
RACCORDO
100
AcDbEllipse
 62
7
  6
CONTINUOUS
 10
-23.2749714885
 20
-14.4099386413
 30
0.0
 11
1.4159370892
 21
-1.4159370892
 31
0.0
 40
0.998782766
 41
2.3568034778
 42
3.9263818294
  0
ELLIPSE
  5
45C
100
AcDbEntity
  8
RACCORDO
100
AcDbEllipse
 62
7
  6
CONTINUOUS
 10
5.6773526428
 20
23.7400613587
 30
0.0
 11
-1.4159370892
 21
-1.4159370892
 31
0.0
 40
0.998782766
 41
2.3568034778
 42
3.9263818294
  0
ELLIPSE
  5
45D
100
AcDbEntity
  8
RACCORDO
100
AcDbEllipse
 62
7
  6
CONTINUOUS
 10
1.8750285115
 20
23.7400613587
 30
0.0
 11
1.4159370892
 21
-1.4159370892
 31
0.0
 40
0.998782766
 41
2.3568034778
 42
3.9263818294
  0
ELLIPSE
  5
45E
100
AcDbEntity
  8
RACCORDO
100
AcDbEllipse
 62
7
  6
CONTINUOUS
 10
16.46970388
 20
17.5468631132
 30
0.0
 11
-0.1790326176
 21
0.0894890351
 31
0.0
 40
0.9992388003
 41
-1.1069659872
 42
0.4632212593
  0
ELLIPSE
  5
45F
100
AcDbEntity
  8
RACCORDO
100
AcDbEllipse
 62
7
  6
CONTINUOUS
 10
20.0826772742
 20
17.5468631132
 30
0.0
 11
-0.1790326176
 21
-0.0894890351
 31
0.0
 40
0.9992388003
 41
2.6783713943
 42
4.2485586408
  0
ELLIPSE
  5
460
100
AcDbEntity
  8
RACCORDO
100
AcDbEllipse
 62
7
  6
CONTINUOUS
 10
21.4761144131
 20
-25.2412042832
 30
0.0
 11
0.3536610946
 21
-0.3536610946
 31
0.0
 40
0.9996954599
 41
-0.7852458701
 42
0.7852458701
  0
ELLIPSE
  5
461
100
AcDbEntity
  8
RACCORDO
100
AcDbEllipse
 62
7
  6
CONTINUOUS
 10
-13.9237332589
 20
-25.2412042832
 30
0.0
 11
0.3536610946
 21
0.3536610946
 31
0.0
 40
0.9996954599
 41
2.3563467834
 42
3.9268385237
  0
ELLIPSE
  5
462
100
AcDbEntity
  8
DRAFT
100
AcDbEllipse
 62
7
  6
CONTINUOUS
 10
-1.2238094229
 20
-23.3434574186
 30
0.0
 11
1.8537147701
 21
-0.0
 31
0.0
 40
0.0174550649
 41
0.0174532925
 42
1.5707963268
  0
ELLIPSE
  5
463
100
AcDbEntity
  8
DRAFT
100
AcDbEllipse
 62
7
  6
CONTINUOUS
 10
3.7761905771
 20
-23.3434574186
 30
0.0
 11
1.8537147701
 21
-0.0
 31
0.0
 40
0.0174550649
 41
0.0174532925
 42
3.1241393611
  0
ELLIPSE
  5
464
100
AcDbEntity
  8
DRAFT
100
AcDbEllipse
 62
7
  6
CONTINUOUS
 10
8.7761905771
 20
-23.3434574186
 30
0.0
 11
1.8537147701
 21
-0.0
 31
0.0
 40
0.0174550649
 41
1.5707963268
 42
3.1241393611
  0
ENDSEC
  0
SECTION
  2
OBJECTS
  0
DICTIONARY
  5
C
100
AcDbDictionary
280
0
281
1
  3
ACAD_GROUP
350
D
  3
ACAD_MLINESTYLE
350
17
  3
ACAD_LAYOUT
350
1A
  3
ACAD_PLOTSETTINGS
350
19
  3
ACAD_PLOTSTYLENAME
350
E
  0
DICTIONARY
  5
D
102
{ACAD_REACTORS
330
C
102
}
100
AcDbDictionary
280
0
281
1
  0
ACDBDICTIONARYWDFLT
  5
E
102
{ACAD_REACTORS
330
C
102
}
100
AcDbDictionary
281
1
  3
Normal
350
F
100
AcDbDictionaryWithDefault
340
F
  0
DICTIONARY
  5
17
102
{ACAD_REACTORS
330
C
102
}
100
AcDbDictionary
280
0
281
1
  3
Standard
350
18
  0
DICTIONARY
  5
19
102
{ACAD_REACTORS
330
C
102
}
100
AcDbDictionary
281
1
  0
DICTIONARY
  5
1A
102
{ACAD_REACTORS
330
C
102
}
100
AcDbDictionary
281
1
  3
Model
350
465
  3
Layout1
350
466
  0
ACDBPLACEHOLDER
  5
F
102
{ACAD_REACTORS
330
E
102
}
  0
MLINESTYLE
  5
18
102
{ACAD_REACTORS
330
17
102
}
100
AcDbMlineStyle
  2
STANDARD
 70
0
  3

 62
256
 51
90.0
 52
90.0
 71
2
 49
0.5
 62
256
  6
BYLAYER
 49
-0.5
 62
256
  6
BYLAYER
  0
LAYOUT
  5
465
102
{ACAD_REACTORS
330
1A
102
}
100
AcDbPlotSettings
  1

  2
none_device
  4
ISO_A3_(420.00_x_297.00_MM)
  6

 40
0.0
 41
0.0
 42
0.0
 43
0.0
 44
420.0
 45
297.0
 46
0.0
 47
0.0
 48
0.0
 49
0.0
140
0.0
141
0.0
142
1.0
143
1.0
 70
1024
 72
1
 73
0
 74
0
  7

 75
0
147
1.0
148
0.0
149
0.0
100
AcDbLayout
  1
Model
 70
0
 71
0
 10
0.0
 20
0.0
 11
420.0
 21
297.0
 12
0.0
 22
0.0
 32
0.0
 14
0.0
 24
0.0
 34
0.0
 15
0.0
 25
0.0
 35
0.0
146
0.0
 13
0.0
 23
0.0
 33
0.0
 16
1.0
 26
0.0
 36
0.0
 17
0.0
 27
1.0
 37
0.0
 76
0
330
225
345
0
346
0
  0
LAYOUT
  5
466
102
{ACAD_REACTORS
330
1A
102
}
100
AcDbPlotSettings
  1

  2
none_device
  4
ISO_A3_(420.00_x_297.00_MM)
  6

 40
0.0
 41
0.0
 42
0.0
 43
0.0
 44
420.0
 45
297.0
 46
0.0
 47
0.0
 48
0.0
 49
0.0
140
0.0
141
0.0
142
1.0
143
1.0
 70
0
 72
1
 73
0
 74
0
  7

 75
0
147
1.0
148
0.0
149
0.0
100
AcDbLayout
  1
Layout1
 70
0
 71
1
 10
0.0
 20
0.0
 11
420.0
 21
297.0
 12
0.0
 22
0.0
 32
0.0
 14
0.0
 24
0.0
 34
0.0
 15
0.0
 25
0.0
 35
0.0
146
0.0
 13
0.0
 23
0.0
 33
0.0
 16
1.0
 26
0.0
 36
0.0
 17
0.0
 27
1.0
 37
0.0
 76
0
330
226
345
0
346
0
  0
ENDSEC
  0
EOF
