  0
SECTION
  2
HEADER
  9
$ACADVER
  1
AC1015
  9
$DWGCODEPAGE
  3
ANSI_1252
  9
$EXTMAX
 10
558.8
 20
431.8
 30
0.0
  9
$EXTMIN
 10
0.0
 20
0.0
 30
0.0
  9
$LIMMIN
 10
0.0
 20
0.0
  9
$LIMMAX
 10
558.8
 20
431.8
  9
$VIEWCTR
 10
279.4
 20
215.9
  9
$VIEWSIZE
 40
431.8
  9
$CLAYER
  8
0
  9
$LTSCALE
 40
30.734
  9
$CELTYPE
  6
BYLAYER
  9
$DIMSCALE
 40
1.0
  9
$DIMASZ
 40
3.0
  9
$DIMEXO
 40
3.4925
  9
$DIMDLI
 40
21.2344
  9
$DIMEXE
 40
10.0584
  9
$DIMCEN
 40
5.0292
  9
$DIMLFAC
 40
1.0
  9
$DIMBLK
  1
_FILLED
  9
$DIMTXT
 40
3.0
  9
$DIMTOL
 70
1
  9
$DIMLIM
 70
0
  9
$DIMTFAC
 40
1.0
  9
$DIMTP
 40
0.01
  9
$DIMTM
 40
0.01
  9
$PDMODE
 70
3
  9
$PDSIZE
 40
3.0
  9
$HANDSEED
  5
588
  9
$TILEMODE
 70
1
  9
$MEASUREMENT
 70
1
  9
$INSUNITS
 70
4
  0
ENDSEC
  0
SECTION
  2
CLASSES
  0
CLASS
  1
ACDBDICTIONARYWDFLT
  2
AcDbDictionaryWithDefault
  3
AutoCAD 2000
 90
0
280
0
281
0
  0
CLASS
  1
ACDBPLACEHOLDER
  2
AcDbPlaceHolder
  3
AutoCAD 2000
 90
0
280
0
281
0
  0
CLASS
  1
LAYOUT
  2
AcDbLayout
  3
AutoCAD 2000
 90
0
280
0
281
0
  0
ENDSEC
  0
SECTION
  2
TABLES
  0
TABLE
  2
VPORT
  5
8
100
AcDbSymbolTable
 70
2
  0
VPORT
  5
1F4
100
AcDbSymbolTableRecord
100
AcDbViewportTableRecord
  2
*ACTIVE
 70
0
 10
0.0
 20
0.0
 11
1.0
 21
1.0
 12
279.4
 22
215.9
 13
0.0
 23
0.0
 14
1.0
 24
1.0
 15
0.0
 25
0.0
 16
0.0
 26
0.0
 36
1.0
 17
0.0
 27
0.0
 37
0.0
 40
431.8
 41
1.2941176471
 42
50.0
 43
0.0
 44
0.0
 50
0.0
 51
0.0
 71
0
 72
100
 73
1
 74
1
 75
0
 76
0
 77
0
 78
0
  0
ENDTAB
  0
TABLE
  2
LTYPE
  5
5
100
AcDbSymbolTable
 70
6
  0
LTYPE
  5
14
100
AcDbSymbolTableRecord
100
AcDbLinetypeTableRecord
  2
BYBLOCK
 70
0
  3

 72
65
 73
0
 40
0.0
  0
LTYPE
  5
15
100
AcDbSymbolTableRecord
100
AcDbLinetypeTableRecord
  2
BYLAYER
 70
0
  3

 72
65
 73
0
 40
0.0
  0
LTYPE
  5
16
100
AcDbSymbolTableRecord
100
AcDbLinetypeTableRecord
  2
CONTINUOUS
 70
64
  3
Solid line
 72
65
 73
0
 40
0.0
  0
LTYPE
  5
1F5
100
AcDbSymbolTableRecord
100
AcDbLinetypeTableRecord
  2
CENTER
 70
64
  3
____ _ ____ _ ____ _ ____ _ ____ _ ____ _ ____
 72
65
 73
4
 40
0.6
 49
0.375
 74
0
 49
-0.075
 74
0
 49
0.075
 74
0
 49
-0.075
 74
0
  0
LTYPE
  5
1F6
100
AcDbSymbolTableRecord
100
AcDbLinetypeTableRecord
  2
HIDDEN
 70
64
  3
- - - - - - - - - - - - - - - - - - - -
 72
65
 73
2
 40
0.2
 49
0.1
 74
0
 49
-0.1
 74
0
  0
LTYPE
  5
1F7
100
AcDbSymbolTableRecord
100
AcDbLinetypeTableRecord
  2
PHANTOM
 70
64
  3
_____ _ _ _____ _ _ _____ _ _ _____
 72
65
 73
6
 40
0.8
 49
0.45
 74
0
 49
-0.05
 74
0
 49
0.1
 74
0
 49
-0.05
 74
0
 49
0.1
 74
0
 49
-0.05
 74
0
  0
LTYPE
  5
1F8
100
AcDbSymbolTableRecord
100
AcDbLinetypeTableRecord
  2
DOT
 70
64
  3
. . . . . . . . . . . . . . . . . . . .
 72
65
 73
2
 40
0.2
 49
0.1
 74
0
 49
-0.1
 74
0
  0
LTYPE
  5
1F9
100
AcDbSymbolTableRecord
100
AcDbLinetypeTableRecord
  2
DASHED
 70
64
  3
- - - - - - - - - - - - - - - - - - - -
 72
65
 73
2
 40
0.2
 49
0.1
 74
0
 49
-0.1
 74
0
  0
ENDTAB
  0
TABLE
  2
LAYER
  5
2
100
AcDbSymbolTable
 70
36
  0
LAYER
  5
10
100
AcDbSymbolTableRecord
100
AcDbLayerTableRecord
  2
0
 70
0
 62
7
  6
CONTINUOUS
370
-3
390
F
  0
LAYER
  5
1FA
100
AcDbSymbolTableRecord
100
AcDbLayerTableRecord
  2
DEFAULT_1
 70
0
 62
7
  6
CENTER
370
-3
390
F
  0
LAYER
  5
1FB
100
AcDbSymbolTableRecord
100
AcDbLayerTableRecord
  2
DEFAULT_2
 70
0
 62
7
  6
HIDDEN
370
-3
390
F
  0
LAYER
  5
1FC
100
AcDbSymbolTableRecord
100
AcDbLayerTableRecord
  2
DEFAULT_3
 70
0
 62
7
  6
PHANTOM
370
-3
390
F
  0
LAYER
  5
1FD
100
AcDbSymbolTableRecord
100
AcDbLayerTableRecord
  2
ASSI
 70
0
 62
7
  6
CONTINUOUS
370
-3
390
F
  0
LAYER
  5
1FE
100
AcDbSymbolTableRecord
100
AcDbLayerTableRecord
  2
COORDINATE
 70
0
 62
7
  6
CONTINUOUS
370
-3
390
F
  0
LAYER
  5
1FF
100
AcDbSymbolTableRecord
100
AcDbLayerTableRecord
  2
COORD_ORIGINE
 70
0
 62
7
  6
CONTINUOUS
370
-3
390
F
  0
LAYER
  5
200
100
AcDbSymbolTableRecord
100
AcDbLayerTableRecord
  2
COPY_PUBLISH
 70
0
 62
7
  6
CONTINUOUS
370
-3
390
F
  0
LAYER
  5
201
100
AcDbSymbolTableRecord
100
AcDbLayerTableRecord
  2
COSMETIC
 70
0
 62
7
  6
CONTINUOUS
370
-3
390
F
  0
LAYER
  5
202
100
AcDbSymbolTableRecord
100
AcDbLayerTableRecord
  2
COSMETICHE
 70
0
 62
7
  6
CONTINUOUS
370
-3
390
F
  0
LAYER
  5
203
100
AcDbSymbolTableRecord
100
AcDbLayerTableRecord
  2
COSMETICI
 70
0
 62
7
  6
CONTINUOUS
370
-3
390
F
  0
LAYER
  5
204
100
AcDbSymbolTableRecord
100
AcDbLayerTableRecord
  2
CURVE
 70
0
 62
7
  6
CONTINUOUS
370
-3
390
F
  0
LAYER
  5
205
100
AcDbSymbolTableRecord
100
AcDbLayerTableRecord
  2
DRAFT
 70
0
 62
7
  6
CONTINUOUS
370
-3
390
F
  0
LAYER
  5
206
100
AcDbSymbolTableRecord
100
AcDbLayerTableRecord
  2
IMPORT_IGES
 70
0
 62
7
  6
CONTINUOUS
370
-3
390
F
  0
LAYER
  5
207
100
AcDbSymbolTableRecord
100
AcDbLayerTableRecord
  2
NOTE
 70
0
 62
7
  6
CONTINUOUS
370
-3
390
F
  0
LAYER
  5
208
100
AcDbSymbolTableRecord
100
AcDbLayerTableRecord
  2
PIANI
 70
0
 62
7
  6
CONTINUOUS
370
-3
390
F
  0
LAYER
  5
209
100
AcDbSymbolTableRecord
100
AcDbLayerTableRecord
  2
PIANI_ORIGINE
 70
0
 62
7
  6
CONTINUOUS
370
-3
390
F
  0
LAYER
  5
20A
100
AcDbSymbolTableRecord
100
AcDbLayerTableRecord
  2
PUNTI
 70
0
 62
7
  6
CONTINUOUS
370
-3
390
F
  0
LAYER
  5
20B
100
AcDbSymbolTableRecord
100
AcDbLayerTableRecord
  2
RACCORDO
 70
0
 62
7
  6
CONTINUOUS
370
-3
390
F
  0
LAYER
  5
20C
100
AcDbSymbolTableRecord
100
AcDbLayerTableRecord
  2
SNAPLINE
 70
0
 62
7
  6
CONTINUOUS
370
-3
390
F
  0
LAYER
  5
20D
100
AcDbSymbolTableRecord
100
AcDbLayerTableRecord
  2
SUPERFICI
 70
0
 62
7
  6
CONTINUOUS
370
-3
390
F
  0
LAYER
  5
20E
100
AcDbSymbolTableRecord
100
AcDbLayerTableRecord
  2
TRASH
 70
0
 62
7
  6
CONTINUOUS
370
-3
390
F
  0
LAYER
  5
20F
100
AcDbSymbolTableRecord
100
AcDbLayerTableRecord
  2
XSEC_DATUMS
 70
0
 62
7
  6
CONTINUOUS
370
-3
390
F
  0
ENDTAB
  0
TABLE
  2
STYLE
  5
3
100
AcDbSymbolTable
 70
1
  0
STYLE
  5
11
100
AcDbSymbolTableRecord
100
AcDbTextStyleTableRecord
  2
STANDARD
 70
0
 40
0.0
 41
0.8
 50
0.0
 71
0
 42
0.2
  3
txt
  4

  0
STYLE
  5
210
100
AcDbSymbolTableRecord
100
AcDbTextStyleTableRecord
  2
TEXTSTYLE_1
 70
0
 40
0.0
 41
0.8
 50
0.0
 71
0
 42
0.2
  3
gdt
  4

  0
ENDTAB
  0
TABLE
  2
VIEW
  5
6
100
AcDbSymbolTable
 70
0
  0
ENDTAB
  0
TABLE
  2
UCS
  5
7
100
AcDbSymbolTable
 70
0
  0
ENDTAB
  0
TABLE
  2
APPID
  5
9
100
AcDbSymbolTable
 70
1
  0
APPID
  5
211
100
AcDbSymbolTableRecord
100
AcDbRegAppTableRecord
  2
ACAD
 70
0
  0
ENDTAB
  0
TABLE
  2
BLOCK_RECORD
  5
1
100
AcDbSymbolTable
 70
0
  0
BLOCK_RECORD
  5
212
100
AcDbSymbolTableRecord
100
AcDbBlockTableRecord
  2
*Model_Space
  0
BLOCK_RECORD
  5
213
100
AcDbSymbolTableRecord
100
AcDbBlockTableRecord
  2
*Paper_Space
  0
BLOCK_RECORD
  5
214
100
AcDbSymbolTableRecord
100
AcDbBlockTableRecord
  2
_FILLED
  0
BLOCK_RECORD
  5
215
100
AcDbSymbolTableRecord
100
AcDbBlockTableRecord
  2
*D0
  0
BLOCK_RECORD
  5
216
100
AcDbSymbolTableRecord
100
AcDbBlockTableRecord
  2
*D1
  0
BLOCK_RECORD
  5
217
100
AcDbSymbolTableRecord
100
AcDbBlockTableRecord
  2
*D2
  0
BLOCK_RECORD
  5
218
100
AcDbSymbolTableRecord
100
AcDbBlockTableRecord
  2
*D3
  0
ENDTAB
  0
TABLE
  2
DIMSTYLE
  5
A
100
AcDbSymbolTable
 70
1
100
AcDbDimStyleTable
 71
0
  0
DIMSTYLE
105
219
100
AcDbSymbolTableRecord
100
AcDbDimStyleTableRecord
  2
STANDARD
 70
0
  3

  4

 40
1.0
 41
3.0
 42
0.0625
 43
0.38
 44
0.18
 45
0.0
 46
0.0
 47
0.01
 48
0.01
140
3.0
141
0.09
142
0.0
143
25.4
144
1.0
145
0.0
146
1.0
147
0.09
 71
1.0
 72
0.0
 73
0
 74
0
 75
0
 76
0
 77
1
 78
8
170
0
171
2
172
0
173
0
174
0
175
0
176
0
177
0
178
0
270
2
271
2
272
2
273
2
274
2
275
0
280
0
281
0
282
0
283
1
284
8
285
0
286
0
287
3
288
0
340
11
341
214
342
214
343
214
344
214
  0
DIMSTYLE
105
21A
100
AcDbSymbolTableRecord
100
AcDbDimStyleTableRecord
  2
DIMSTYLE_1
 70
0
  3

  4

 40
1.0
 41
3.0
 42
0.0625
 43
0.38
 44
0.18
 45
0.0
 46
0.0
 47
0.0
 48
0.0
140
3.0
141
0.09
142
0.0
143
25.4
144
1.0
145
0.0
146
1.0
147
0.09
 71
0.0
 72
0.0
 73
0
 74
0
 75
0
 76
0
 77
1
 78
8
170
0
171
2
172
0
173
0
174
0
175
0
176
0
177
0
178
0
270
2
271
2
272
2
273
2
274
2
275
0
280
0
281
0
282
0
283
1
284
8
285
0
286
0
287
3
288
0
340
11
341
214
342
214
343
214
344
214
  0
ENDTAB
  0
ENDSEC
  0
SECTION
  2
BLOCKS
  0
BLOCK
  5
20
100
AcDbEntity
  8
0
100
AcDbBlockBegin
  2
*Model_Space
 70
0
 10
0.0
 20
0.0
 30
0.0
  3
*Model_Space
  1

  0
ENDBLK
  5
21
100
AcDbEntity
  8
0
100
AcDbBlockEnd
  0
BLOCK
  5
1C
100
AcDbEntity
  8
0
100
AcDbBlockBegin
  2
*Paper_Space
 70
0
 10
0.0
 20
0.0
 30
0.0
  3
*Paper_Space
  1

  0
ENDBLK
  5
1D
100
AcDbEntity
  8
0
100
AcDbBlockEnd
  0
BLOCK
  5
21B
100
AcDbEntity
  8
0
100
AcDbBlockBegin
  2
_FILLED
 70
64
 10
0.0
 20
0.0
  3
_FILLED
  1

  0
SOLID
  5
21C
100
AcDbEntity
  8
0
  6
BYBLOCK
 62
0
100
AcDbTrace
 10
0.0
 20
0.0
 11
-1.0
 21
0.3166666667
 12
-1.0
 22
-0.3166666667
 13
-1.0
 23
-0.3166666667
  0
ENDBLK
  5
21D
100
AcDbEntity
  8
0
  6
BYBLOCK
 62
0
100
AcDbBlockEnd
  0
BLOCK
  5
21E
100
AcDbEntity
  8
0
100
AcDbBlockBegin
 62
7
  6
CONTINUOUS
  2
*D0
 70
65
 10
0.0
 20
0.0
  3
*D0
  1

  0
MTEXT
  5
21F
100
AcDbEntity
  8
0
100
AcDbMText
 62
7
  6
CONTINUOUS
  7
STANDARD
 71
2
 72
1
 10
0.0
 20
51.75
 30
0.0
 11
1.0
 21
0.0
 31
0.0
 44
0.9
  1
80
 40
3.0
 41
4.7142857143
  0
LINE
  5
220
100
AcDbEntity
  8
0
100
AcDbLine
 62
7
  6
CONTINUOUS
 10
40.0
 20
39.5001523048
 11
40.0
 21
49.5
  0
LINE
  5
221
100
AcDbEntity
  8
0
100
AcDbLine
 62
7
  6
CONTINUOUS
 10
-40.0
 20
39.5001523048
 11
-40.0
 21
49.5
  0
LINE
  5
222
100
AcDbEntity
  8
0
100
AcDbLine
 62
7
  6
CONTINUOUS
 10
40.0
 20
48.0
 11
0.0
 21
48.0
  0
LINE
  5
223
100
AcDbEntity
  8
0
100
AcDbLine
 62
7
  6
CONTINUOUS
 10
-40.0
 20
48.0
 11
0.0
 21
48.0
  0
INSERT
  5
224
100
AcDbEntity
  8
0
100
AcDbBlockReference
 62
7
  6
CONTINUOUS
  2
_FILLED
 10
40.0
 20
48.0
 41
3.0
 42
3.0
 43
3.0
 50
360.0
  0
INSERT
  5
225
100
AcDbEntity
  8
0
100
AcDbBlockReference
 62
7
  6
CONTINUOUS
  2
_FILLED
 10
-40.0
 20
48.0
 41
3.0
 42
3.0
 43
3.0
 50
180.0
  0
ENDBLK
  5
226
100
AcDbEntity
  8
0
  6
BYBLOCK
 62
0
100
AcDbBlockEnd
  0
BLOCK
  5
227
100
AcDbEntity
  8
0
100
AcDbBlockBegin
 62
7
  6
CONTINUOUS
  2
*D1
 70
65
 10
0.0
 20
0.0
  3
*D1
  1

  0
MTEXT
  5
228
100
AcDbEntity
  8
0
100
AcDbMText
 62
7
  6
CONTINUOUS
  7
STANDARD
 71
2
 72
1
 10
44.25
 20
0.0
 30
0.0
 11
0.0
 21
1.0
 31
0.0
 44
0.9
  1
80
 40
3.0
 41
4.7142857143
  0
LINE
  5
229
100
AcDbEntity
  8
0
100
AcDbLine
 62
7
  6
CONTINUOUS
 10
39.5001523048
 20
40.0
 11
49.5
 21
40.0
  0
LINE
  5
22A
100
AcDbEntity
  8
0
100
AcDbLine
 62
7
  6
CONTINUOUS
 10
39.5001523048
 20
-40.0
 11
49.5
 21
-40.0
  0
LINE
  5
22B
100
AcDbEntity
  8
0
100
AcDbLine
 62
7
  6
CONTINUOUS
 10
48.0
 20
40.0
 11
48.0
 21
0.0
  0
LINE
  5
22C
100
AcDbEntity
  8
0
100
AcDbLine
 62
7
  6
CONTINUOUS
 10
48.0
 20
-40.0
 11
48.0
 21
0.0
  0
INSERT
  5
22D
100
AcDbEntity
  8
0
100
AcDbBlockReference
 62
7
  6
CONTINUOUS
  2
_FILLED
 10
48.0
 20
40.0
 41
3.0
 42
3.0
 43
3.0
 50
90.0
  0
INSERT
  5
22E
100
AcDbEntity
  8
0
100
AcDbBlockReference
 62
7
  6
CONTINUOUS
  2
_FILLED
 10
48.0
 20
-40.0
 41
3.0
 42
3.0
 43
3.0
 50
270.0
  0
ENDBLK
  5
22F
100
AcDbEntity
  8
0
  6
BYBLOCK
 62
0
100
AcDbBlockEnd
  0
BLOCK
  5
230
100
AcDbEntity
  8
0
100
AcDbBlockBegin
 62
7
  6
CONTINUOUS
  2
*D2
 70
65
 10
0.0
 20
0.0
  3
*D2
  1

  0
MTEXT
  5
231
100
AcDbEntity
  8
0
100
AcDbMText
 62
7
  6
CONTINUOUS
  7
STANDARD
 71
2
 72
1
 10
-66.9601786938
 20
51.75
 30
0.0
 11
1.0
 21
0.0
 31
0.0
 44
0.9
  1
23,78
 40
3.0
 41
10.9285714286
  0
LINE
  5
232
100
AcDbEntity
  8
0
100
AcDbLine
 62
7
  6
CONTINUOUS
 10
-78.8525253085
 20
39.5001523048
 11
-78.8525253085
 21
49.5
  0
LINE
  5
233
100
AcDbEntity
  8
0
100
AcDbLine
 62
7
  6
CONTINUOUS
 10
-55.0678320792
 20
14.2465639795
 11
-55.0678320792
 21
49.5
  0
LINE
  5
234
100
AcDbEntity
  8
0
100
AcDbLine
 62
7
  6
CONTINUOUS
 10
-78.8525253085
 20
48.0
 11
-66.9601786938
 21
48.0
  0
LINE
  5
235
100
AcDbEntity
  8
0
100
AcDbLine
 62
7
  6
CONTINUOUS
 10
-55.0678320792
 20
48.0
 11
-66.9601786938
 21
48.0
  0
INSERT
  5
236
100
AcDbEntity
  8
0
100
AcDbBlockReference
 62
7
  6
CONTINUOUS
  2
_FILLED
 10
-78.8525253085
 20
48.0
 41
3.0
 42
3.0
 43
3.0
 50
180.0
  0
INSERT
  5
237
100
AcDbEntity
  8
0
100
AcDbBlockReference
 62
7
  6
CONTINUOUS
  2
_FILLED
 10
-55.0678320792
 20
48.0
 41
3.0
 42
3.0
 43
3.0
  0
ENDBLK
  5
238
100
AcDbEntity
  8
0
  6
BYBLOCK
 62
0
100
AcDbBlockEnd
  0
BLOCK
  5
239
100
AcDbEntity
  8
0
100
AcDbBlockBegin
 62
7
  6
CONTINUOUS
  2
*D3
 70
65
 10
0.0
 20
0.0
  3
*D3
  1

  0
MTEXT
  5
23A
100
AcDbEntity
  8
0
100
AcDbMText
 62
7
  6
CONTINUOUS
  7
STANDARD
 71
2
 72
1
 10
-71.1680593147
 20
61.75
 30
0.0
 11
1.0
 21
0.0
 31
0.0
 44
0.9
  1
32,2
 40
3.0
 41
8.5714285714
  0
LINE
  5
23B
100
AcDbEntity
  8
0
100
AcDbLine
 62
7
  6
CONTINUOUS
 10
-87.2682865503
 20
0.5
 11
-87.2682865503
 21
59.5
  0
LINE
  5
23C
100
AcDbEntity
  8
0
100
AcDbLine
 62
7
  6
CONTINUOUS
 10
-55.0678320792
 20
14.2465639795
 11
-55.0678320792
 21
59.5
  0
LINE
  5
23D
100
AcDbEntity
  8
0
100
AcDbLine
 62
7
  6
CONTINUOUS
 10
-87.2682865503
 20
58.0
 11
-71.1680593147
 21
58.0
  0
LINE
  5
23E
100
AcDbEntity
  8
0
100
AcDbLine
 62
7
  6
CONTINUOUS
 10
-55.0678320792
 20
58.0
 11
-71.1680593147
 21
58.0
  0
INSERT
  5
23F
100
AcDbEntity
  8
0
100
AcDbBlockReference
 62
7
  6
CONTINUOUS
  2
_FILLED
 10
-87.2682865503
 20
58.0
 41
3.0
 42
3.0
 43
3.0
 50
180.0
  0
INSERT
  5
240
100
AcDbEntity
  8
0
100
AcDbBlockReference
 62
7
  6
CONTINUOUS
  2
_FILLED
 10
-55.0678320792
 20
58.0
 41
3.0
 42
3.0
 43
3.0
  0
ENDBLK
  5
241
100
AcDbEntity
  8
0
  6
BYBLOCK
 62
0
100
AcDbBlockEnd
  0
ENDSEC
  0
SECTION
  2
ENTITIES
  0
DIMENSION
  5
242
100
AcDbEntity
  8
0
100
AcDbDimension
 62
7
  6
CONTINUOUS
  2
*D0
 10
-40.0
 20
48.0
 11
-2.3571428571
 21
50.25
 70
160
 71
2
 42
80.0
  3
DIMSTYLE_1
100
AcDbAlignedDimension
 13
40.0
 23
39.5001523048
 14
-40.0
 24
39.5001523048
 50
180.0
100
AcDbRotatedDimension
  0
DIMENSION
  5
243
100
AcDbEntity
  8
0
100
AcDbDimension
 62
7
  6
CONTINUOUS
  2
*D1
 10
48.0
 20
-40.0
 11
46.8061735237
 21
-2.1072778499
 70
160
 71
2
 42
80.0
  3
DIMSTYLE_1
100
AcDbAlignedDimension
 13
39.5001523048
 23
40.0
 14
39.5001523048
 24
-40.0
 50
270.0
100
AcDbRotatedDimension
  0
DIMENSION
  5
244
100
AcDbEntity
  8
0
100
AcDbDimension
 62
7
  6
CONTINUOUS
  2
*D2
 10
-55.0678320792
 20
48.0
 11
-72.4244644081
 21
50.25
 70
160
 71
2
 42
23.7846932293
  3
DIMSTYLE_1
100
AcDbAlignedDimension
 13
-78.8525253085
 23
39.5001523048
 14
-55.0678320792
 24
14.2465639795
100
AcDbRotatedDimension
  0
DIMENSION
  5
245
100
AcDbEntity
  8
0
100
AcDbDimension
 62
7
  6
CONTINUOUS
  2
*D3
 10
-55.0678320792
 20
58.0
 11
-75.4537736005
 21
60.25
 70
160
 71
2
 42
32.2004544711
  3
DIMSTYLE_1
100
AcDbAlignedDimension
 13
-87.2682865503
 23
0.5
 14
-55.0678320792
 24
14.2465639795
100
AcDbRotatedDimension
  0
LINE
  5
246
100
AcDbEntity
  8
RACCORDO
100
AcDbLine
 62
7
  6
CONTINUOUS
 10
-40.0
 20
-39.0001523048
 11
-40.0
 21
39.0001523048
  0
LINE
  5
247
100
AcDbEntity
  8
RACCORDO
100
AcDbLine
 62
7
  6
CONTINUOUS
 10
-39.0001523048
 20
-40.0
 11
39.0001523048
 21
-40.0
  0
LINE
  5
248
100
AcDbEntity
  8
0
100
AcDbLine
 62
7
  6
CONTINUOUS
 10
26.389081
 20
-33.250056
 11
25.889063
 21
-33.250063
  0
LINE
  5
249
100
AcDbEntity
  8
0
100
AcDbLine
 62
7
  6
CONTINUOUS
 10
24.582956
 20
-33.250056
 11
24.08295
 21
-33.250063
  0
LINE
  5
24A
100
AcDbEntity
  8
0
100
AcDbLine
 62
7
  6
CONTINUOUS
 10
30.328613
 20
-33.25005
 11
29.765419
 21
-33.250056
  0
LINE
  5
24B
100
AcDbEntity
  8
0
100
AcDbLine
 62
7
  6
CONTINUOUS
 10
22.610187
 20
-33.250063
 11
22.110169
 21
-33.250069
  0
LINE
  5
24C
100
AcDbEntity
  8
0
100
AcDbLine
 62
7
  6
CONTINUOUS
 10
20.974125
 20
-33.250063
 11
20.474087
 21
-33.250069
  0
LINE
  5
24D
100
AcDbEntity
  8
0
100
AcDbLine
 62
7
  6
CONTINUOUS
 10
25.555719
 20
-33.250063
 11
25.0557
 21
-33.250063
  0
LINE
  5
24E
100
AcDbEntity
  8
0
100
AcDbLine
 62
7
  6
CONTINUOUS
 10
23.610212
 20
-33.250063
 11
23.110194
 21
-33.250063
  0
LINE
  5
24F
100
AcDbEntity
  8
0
100
AcDbLine
 62
7
  6
CONTINUOUS
 10
28.827875
 20
-33.250056
 11
28.32785
 21
-33.250056
  0
LINE
  5
250
100
AcDbEntity
  8
0
100
AcDbLine
 62
7
  6
CONTINUOUS
 10
27.994506
 20
-33.250063
 11
27.494481
 21
-33.250056
  0
LINE
  5
251
100
AcDbEntity
  8
0
100
AcDbLine
 62
7
  6
CONTINUOUS
 10
27.336631
 20
-32.758394
 11
26.546938
 21
-32.758394
  0
LINE
  5
252
100
AcDbEntity
  8
0
100
AcDbLine
 62
7
  6
CONTINUOUS
 10
26.699456
 20
-32.283375
 11
27.184106
 21
-32.283375
  0
LINE
  5
253
100
AcDbEntity
  8
0
100
AcDbLine
 62
7
  6
CONTINUOUS
 10
29.264338
 20
-32.283375
 11
28.827931
 21
-32.283369
  0
LINE
  5
254
100
AcDbEntity
  8
0
100
AcDbLine
 62
7
  6
CONTINUOUS
 10
28.820981
 20
-31.82085
 11
29.429323
 21
-31.82085
  0
LINE
  5
255
100
AcDbEntity
  8
0
100
AcDbLine
 62
7
  6
CONTINUOUS
 10
29.429323
 20
-31.212462
 11
28.820975
 21
-31.212462
  0
LINE
  5
256
100
AcDbEntity
  8
0
100
AcDbLine
 62
7
  6
CONTINUOUS
 10
19.671387
 20
-30.74995
 11
20.171412
 21
-30.74995
  0
LINE
  5
257
100
AcDbEntity
  8
0
100
AcDbLine
 62
7
  6
CONTINUOUS
 10
21.276806
 20
-30.74995
 11
21.776831
 21
-30.74995
  0
LINE
  5
258
100
AcDbEntity
  8
0
100
AcDbLine
 62
7
  6
CONTINUOUS
 10
22.110175
 20
-30.74995
 11
22.610194
 21
-30.74995
  0
LINE
  5
259
100
AcDbEntity
  8
0
100
AcDbLine
 62
7
  6
CONTINUOUS
 10
23.110194
 20
-30.74995
 11
23.866087
 21
-30.74995
  0
LINE
  5
25A
100
AcDbEntity
  8
0
100
AcDbLine
 62
7
  6
CONTINUOUS
 10
24.799825
 20
-30.74995
 11
25.555719
 21
-30.74995
  0
LINE
  5
25B
100
AcDbEntity
  8
0
100
AcDbLine
 62
7
  6
CONTINUOUS
 10
26.691756
 20
-30.749944
 11
27.1918
 21
-30.749944
  0
LINE
  5
25C
100
AcDbEntity
  8
0
100
AcDbLine
 62
7
  6
CONTINUOUS
 10
28.32785
 20
-30.749944
 11
29.498725
 21
-30.749944
  0
LINE
  5
25D
100
AcDbEntity
  8
0
100
AcDbLine
 62
7
  6
CONTINUOUS
 10
-25.5
 20
2.4494897428
 11
-25.5
 21
-2.4494897428
  0
LINE
  5
25E
100
AcDbEntity
  8
0
100
AcDbLine
 62
7
  6
CONTINUOUS
 10
-24.5
 20
-2.4494897428
 11
-24.5
 21
2.4494897428
  0
LINE
  5
25F
100
AcDbEntity
  8
0
100
AcDbLine
 62
7
  6
CONTINUOUS
 10
-1.5
 20
-2.4996245727
 11
-1.4294895349
 21
-3.8450443944
  0
LINE
  5
260
100
AcDbEntity
  8
0
100
AcDbLine
 62
7
  6
CONTINUOUS
 10
0.0
 20
-4.1028546564
 11
0.0
 21
-1.1796247354
  0
LINE
  5
261
100
AcDbEntity
  8
0
100
AcDbLine
 62
7
  6
CONTINUOUS
 10
0.0
 20
1.1803755596
 11
0.0
 21
4.1036055109
  0
LINE
  5
262
100
AcDbEntity
  8
0
100
AcDbLine
 62
7
  6
CONTINUOUS
 10
-1.429399635
 20
3.8475106416
 11
-1.5
 21
2.5003754273
  0
LINE
  5
263
100
AcDbEntity
  8
RACCORDO
100
AcDbLine
 62
253
  6
CONTINUOUS
 10
38.9332980025
 20
39.933151024
 11
39.0001523048
 21
40.0
  0
LINE
  5
264
100
AcDbEntity
  8
RACCORDO
100
AcDbLine
 62
253
  6
CONTINUOUS
 10
-39.9331510337
 20
-38.9333033386
 11
-40.0
 21
-39.0001523048
  0
LINE
  5
265
100
AcDbEntity
  8
0
100
AcDbLine
 62
7
  6
CONTINUOUS
 10
2.5
 20
-1.4996245879
 11
3.8467623429
 21
-1.4290437643
  0
LINE
  5
266
100
AcDbEntity
  8
0
100
AcDbLine
 62
7
  6
CONTINUOUS
 10
-2.5
 20
-1.4996245727
 11
-3.8453582109
 21
-1.4291173366
  0
LINE
  5
267
100
AcDbEntity
  8
RACCORDO
100
AcDbLine
 62
253
  6
CONTINUOUS
 10
-39.9331510244
 20
38.9332980029
 11
-40.0
 21
39.0001523048
  0
LINE
  5
268
100
AcDbEntity
  8
RACCORDO
100
AcDbLine
 62
253
  6
CONTINUOUS
 10
38.9333033386
 20
-39.9331510337
 11
39.0001523048
 21
-40.0
  0
LINE
  5
269
100
AcDbEntity
  8
0
100
AcDbLine
 62
7
  6
CONTINUOUS
 10
1.5
 20
2.5003754121
 11
1.4294895341
 21
3.8457952492
  0
LINE
  5
26A
100
AcDbEntity
  8
0
100
AcDbLine
 62
7
  6
CONTINUOUS
 10
1.4293996358
 20
-3.8467597868
 11
1.5
 21
-2.4996245879
  0
LINE
  5
26B
100
AcDbEntity
  8
RACCORDO
100
AcDbLine
 62
253
  6
CONTINUOUS
 10
39.9331510337
 20
38.9333033386
 11
40.0
 21
39.0001523048
  0
LINE
  5
26C
100
AcDbEntity
  8
RACCORDO
100
AcDbLine
 62
253
  6
CONTINUOUS
 10
-38.9332980025
 20
-39.933151024
 11
-39.0001523048
 21
-40.0
  0
LINE
  5
26D
100
AcDbEntity
  8
0
100
AcDbLine
 62
7
  6
CONTINUOUS
 10
-3.8467623492
 20
1.4297946033
 11
-2.5
 21
1.5003754273
  0
LINE
  5
26E
100
AcDbEntity
  8
0
100
AcDbLine
 62
7
  6
CONTINUOUS
 10
3.8453582167
 20
1.4298681756
 11
2.5
 21
1.5003754121
  0
LINE
  5
26F
100
AcDbEntity
  8
RACCORDO
100
AcDbLine
 62
253
  6
CONTINUOUS
 10
-38.9333033386
 20
39.9331510337
 11
-39.0001523048
 21
40.0
  0
LINE
  5
270
100
AcDbEntity
  8
RACCORDO
100
AcDbLine
 62
253
  6
CONTINUOUS
 10
39.9331510244
 20
-38.9332980029
 11
40.0
 21
-39.0001523048
  0
LINE
  5
271
100
AcDbEntity
  8
0
100
AcDbLine
 62
7
  6
CONTINUOUS
 10
29.765419
 20
-33.250056
 11
29.264338
 21
-32.283375
  0
LINE
  5
272
100
AcDbEntity
  8
0
100
AcDbLine
 62
7
  6
CONTINUOUS
 10
29.7963677907
 20
-32.2232416669
 11
30.328613
 21
-33.25005
  0
LINE
  5
273
100
AcDbEntity
  8
0
100
AcDbLine
 62
7
  6
CONTINUOUS
 10
20.474087
 20
-33.250069
 11
19.671387
 21
-30.74995
  0
LINE
  5
274
100
AcDbEntity
  8
0
100
AcDbLine
 62
7
  6
CONTINUOUS
 10
20.171412
 20
-30.74995
 11
20.724112
 21
-32.471413
  0
LINE
  5
275
100
AcDbEntity
  8
0
100
AcDbLine
 62
7
  6
CONTINUOUS
 10
24.08295
 20
-33.250063
 11
23.610212
 21
-31.601406
  0
LINE
  5
276
100
AcDbEntity
  8
0
100
AcDbLine
 62
7
  6
CONTINUOUS
 10
23.866087
 20
-30.74995
 11
24.332956
 21
-32.378113
  0
LINE
  5
277
100
AcDbEntity
  8
0
100
AcDbLine
 62
7
  6
CONTINUOUS
 10
27.184106
 20
-32.283375
 11
26.941775
 21
-31.5286
  0
LINE
  5
278
100
AcDbEntity
  8
0
100
AcDbLine
 62
7
  6
CONTINUOUS
 10
27.494481
 20
-33.250056
 11
27.336631
 21
-32.758394
  0
LINE
  5
279
100
AcDbEntity
  8
0
100
AcDbLine
 62
7
  6
CONTINUOUS
 10
27.1918
 20
-30.749944
 11
27.994506
 21
-33.250063
  0
LINE
  5
27A
100
AcDbEntity
  8
0
100
AcDbLine
 62
7
  6
CONTINUOUS
 10
22.110169
 20
-33.250069
 11
22.110175
 21
-30.74995
  0
LINE
  5
27B
100
AcDbEntity
  8
0
100
AcDbLine
 62
7
  6
CONTINUOUS
 10
22.610194
 20
-30.74995
 11
22.610187
 21
-33.250063
  0
LINE
  5
27C
100
AcDbEntity
  8
0
100
AcDbLine
 62
7
  6
CONTINUOUS
 10
23.110194
 20
-33.250063
 11
23.110194
 21
-30.74995
  0
LINE
  5
27D
100
AcDbEntity
  8
0
100
AcDbLine
 62
7
  6
CONTINUOUS
 10
23.610212
 20
-31.601406
 11
23.610212
 21
-33.250063
  0
LINE
  5
27E
100
AcDbEntity
  8
0
100
AcDbLine
 62
7
  6
CONTINUOUS
 10
24.5
 20
2.4494897428
 11
24.5
 21
-2.4494897428
  0
LINE
  5
27F
100
AcDbEntity
  8
0
100
AcDbLine
 62
7
  6
CONTINUOUS
 10
25.0557
 20
-33.250063
 11
25.055694
 21
-31.601406
  0
LINE
  5
280
100
AcDbEntity
  8
0
100
AcDbLine
 62
7
  6
CONTINUOUS
 10
25.5
 20
-2.4494897428
 11
25.5
 21
2.4494897428
  0
LINE
  5
281
100
AcDbEntity
  8
0
100
AcDbLine
 62
7
  6
CONTINUOUS
 10
25.555719
 20
-30.74995
 11
25.555719
 21
-33.250063
  0
LINE
  5
282
100
AcDbEntity
  8
0
100
AcDbLine
 62
7
  6
CONTINUOUS
 10
28.32785
 20
-33.250056
 11
28.32785
 21
-30.749944
  0
LINE
  5
283
100
AcDbEntity
  8
0
100
AcDbLine
 62
7
  6
CONTINUOUS
 10
28.820975
 20
-31.212462
 11
28.820981
 21
-31.82085
  0
LINE
  5
284
100
AcDbEntity
  8
0
100
AcDbLine
 62
7
  6
CONTINUOUS
 10
28.827931
 20
-32.283369
 11
28.827875
 21
-33.250056
  0
LINE
  5
285
100
AcDbEntity
  8
0
100
AcDbLine
 62
7
  6
CONTINUOUS
 10
20.724112
 20
-32.471413
 11
21.276806
 21
-30.74995
  0
LINE
  5
286
100
AcDbEntity
  8
0
100
AcDbLine
 62
7
  6
CONTINUOUS
 10
21.776831
 20
-30.74995
 11
20.974125
 21
-33.250063
  0
LINE
  5
287
100
AcDbEntity
  8
0
100
AcDbLine
 62
7
  6
CONTINUOUS
 10
24.332956
 20
-32.378113
 11
24.799825
 21
-30.74995
  0
LINE
  5
288
100
AcDbEntity
  8
0
100
AcDbLine
 62
7
  6
CONTINUOUS
 10
25.055694
 20
-31.601406
 11
24.582956
 21
-33.250056
  0
LINE
  5
289
100
AcDbEntity
  8
0
100
AcDbLine
 62
7
  6
CONTINUOUS
 10
25.889063
 20
-33.250063
 11
26.691756
 21
-30.749944
  0
LINE
  5
28A
100
AcDbEntity
  8
0
100
AcDbLine
 62
7
  6
CONTINUOUS
 10
26.941775
 20
-31.5286
 11
26.699456
 21
-32.283375
  0
LINE
  5
28B
100
AcDbEntity
  8
0
100
AcDbLine
 62
7
  6
CONTINUOUS
 10
26.546938
 20
-32.758394
 11
26.389081
 21
-33.250056
  0
LINE
  5
28C
100
AcDbEntity
  8
RACCORDO
100
AcDbLine
 62
7
  6
CONTINUOUS
 10
40.0
 20
-39.0001523048
 11
40.0
 21
39.0001523048
  0
LINE
  5
28D
100
AcDbEntity
  8
RACCORDO
100
AcDbLine
 62
7
  6
CONTINUOUS
 10
-39.0001523048
 20
40.0
 11
39.0001523048
 21
40.0
  0
LINE
  5
28E
100
AcDbEntity
  8
RACCORDO
100
AcDbLine
 62
7
  6
CONTINUOUS
 10
-84.7549402416
 20
-39.8969729641
 11
-78.8525253085
 21
-40.0
  0
LINE
  5
28F
100
AcDbEntity
  8
RACCORDO
100
AcDbLine
 62
253
  6
CONTINUOUS
 10
-85.2433632795
 20
-39.4503654864
 11
-83.1679189455
 21
-39.4865874394
  0
LINE
  5
290
100
AcDbEntity
  8
RACCORDO
100
AcDbLine
 62
253
  6
CONTINUOUS
 10
-82.6823005537
 20
-38.9332980029
 11
-78.8525253085
 21
-39.0001523048
  0
LINE
  5
291
100
AcDbEntity
  8
0
100
AcDbLine
 62
7
  6
CONTINUOUS
 10
-85.0856299212
 20
-32.758394
 11
-85.1434818386
 21
-32.758394
  0
LINE
  5
292
100
AcDbEntity
  8
0
100
AcDbLine
 62
7
  6
CONTINUOUS
 10
-85.1744424748
 20
-32.283375
 11
-85.1389416966
 21
-32.283375
  0
LINE
  5
293
100
AcDbEntity
  8
0
100
AcDbLine
 62
7
  6
CONTINUOUS
 10
-84.9418058417
 20
-32.2232416669
 11
-84.7403846111
 21
-32.2232416669
  0
LINE
  5
294
100
AcDbEntity
  8
0
100
AcDbLine
 62
7
  6
CONTINUOUS
 10
-85.0546120029
 20
-31.82085
 11
-85.0064228662
 21
-31.82085
  0
LINE
  5
295
100
AcDbEntity
  8
0
100
AcDbLine
 62
7
  6
CONTINUOUS
 10
-84.6053121032
 20
-33.25005
 11
-85.4873982464
 21
-33.250069
  0
LINE
  5
296
100
AcDbEntity
  8
0
100
AcDbLine
 62
7
  6
CONTINUOUS
 10
-84.9792683782
 20
-32.283375
 11
-85.0137477406
 21
-32.283369
  0
LINE
  5
297
100
AcDbEntity
  8
0
100
AcDbLine
 62
7
  6
CONTINUOUS
 10
-85.0585725305
 20
-31.212462
 11
-85.1067552174
 21
-31.212462
  0
LINE
  5
298
100
AcDbEntity
  8
0
100
AcDbLine
 62
7
  6
CONTINUOUS
 10
-85.7483954109
 20
-30.74995
 11
-84.8906405664
 21
-30.749944
  0
LINE
  5
299
100
AcDbEntity
  8
ASSI
100
AcDbLine
 62
7
  6
CONTINUOUS
 10
-85.0919796149
 20
-30.7499411971
 11
-84.890640801
 21
-30.7499411971
  0
LINE
  5
29A
100
AcDbEntity
  8
ASSI
100
AcDbLine
 62
7
  6
CONTINUOUS
 10
-75.8525253085
 20
-28.7
 11
-78.8525253085
 21
-28.7
  0
LINE
  5
29B
100
AcDbEntity
  8
0
100
AcDbLine
 62
7
  6
CONTINUOUS
 10
-75.0525253085
 20
-28.2800090692
 11
-75.8525253085
 21
-28.35
  0
LINE
  5
29C
100
AcDbEntity
  8
ASSI
100
AcDbLine
 62
7
  6
CONTINUOUS
 10
-75.8525253085
 20
-24.9714560971
 11
-78.8525253085
 21
-24.9714560971
  0
LINE
  5
29D
100
AcDbEntity
  8
0
100
AcDbLine
 62
7
  6
CONTINUOUS
 10
-75.0525253085
 20
-22.4199909308
 11
-75.8525253085
 21
-22.35
  0
LINE
  5
29E
100
AcDbEntity
  8
RACCORDO
100
AcDbLine
 62
7
  6
CONTINUOUS
 10
-68.2657012196
 20
-20.5030391186
 11
-75.8525253085
 21
-21.8408009033
  0
LINE
  5
29F
100
AcDbEntity
  8
RACCORDO
100
AcDbLine
 62
7
  6
CONTINUOUS
 10
-75.8525253085
 20
-20.5
 11
-68.3481620407
 21
-20.4345104139
  0
LINE
  5
2A0
100
AcDbEntity
  8
RACCORDO
100
AcDbLine
 62
7
  6
CONTINUOUS
 10
-75.8525253085
 20
-19.8968626967
 11
-68.3481620407
 21
-19.8712857716
  0
LINE
  5
2A1
100
AcDbEntity
  8
RACCORDO
100
AcDbLine
 62
253
  6
CONTINUOUS
 10
-67.8525253085
 20
-19.8712857716
 11
-68.3481620407
 21
-19.8712857716
  0
LINE
  5
2A2
100
AcDbEntity
  8
0
100
AcDbLine
 62
7
  6
CONTINUOUS
 10
-74.7142094272
 20
18.9099339322
 11
-75.3811071641
 21
18.4940055198
  0
LINE
  5
2A3
100
AcDbEntity
  8
0
100
AcDbLine
 62
253
  6
CONTINUOUS
 10
-74.6121348249
 20
18.41787002
 11
-74.6480372522
 21
18.3954785156
  0
LINE
  5
2A4
100
AcDbEntity
  8
0
100
AcDbLine
 62
253
  6
CONTINUOUS
 10
-74.647991385
 20
18.3619586248
 11
-75.0815940882
 21
18.0915307582
  0
LINE
  5
2A5
100
AcDbEntity
  8
0
100
AcDbLine
 62
253
  6
CONTINUOUS
 10
-74.3366364624
 20
-18.6164378878
 11
-74.5774476504
 21
-18.6827703814
  0
LINE
  5
2A6
100
AcDbEntity
  8
0
100
AcDbLine
 62
7
  6
CONTINUOUS
 10
-71.3811814419
 20
-18.9390208268
 11
-71.3398130741
 21
-18.9390208268
  0
LINE
  5
2A7
100
AcDbEntity
  8
0
100
AcDbLine
 62
253
  6
CONTINUOUS
 10
-73.3321723765
 20
-18.8496953671
 11
-71.7875321238
 21
-18.8496953671
  0
LINE
  5
2A8
100
AcDbEntity
  8
RACCORDO
100
AcDbLine
 62
253
  6
CONTINUOUS
 10
-78.8525253085
 20
-17.9857864376
 11
-75.8525253085
 21
-17.9857864376
  0
LINE
  5
2A9
100
AcDbEntity
  8
0
100
AcDbLine
 62
253
  6
CONTINUOUS
 10
-70.7913374257
 20
-17.849847672
 11
-74.3308019112
 21
-17.849847672
  0
LINE
  5
2AA
100
AcDbEntity
  8
0
100
AcDbLine
 62
253
  6
CONTINUOUS
 10
-70.7038487622
 20
-17.8325
 11
-74.3832096905
 21
-17.8325
  0
LINE
  5
2AB
100
AcDbEntity
  8
0
100
AcDbLine
 62
253
  6
CONTINUOUS
 10
-75.3172998335
 20
-17.6669015493
 11
-75.816995247
 21
-17.6669015493
  0
LINE
  5
2AC
100
AcDbEntity
  8
DRAFT
100
AcDbLine
 62
7
  6
CONTINUOUS
 10
-75.8525253085
 20
-18.9
 11
-68.3481620407
 21
-18.9654895861
  0
LINE
  5
2AD
100
AcDbEntity
  8
0
100
AcDbLine
 62
253
  6
CONTINUOUS
 10
-71.3398130741
 20
-18.9390208268
 11
-71.7875321238
 21
-18.8496953671
  0
LINE
  5
2AE
100
AcDbEntity
  8
0
100
AcDbLine
 62
253
  6
CONTINUOUS
 10
-70.7913374257
 20
-17.849847672
 11
-70.1275473099
 21
-17.9822819681
  0
LINE
  5
2AF
100
AcDbEntity
  8
0
100
AcDbLine
 62
7
  6
CONTINUOUS
 10
-75.3811070644
 20
-18.4940049106
 11
-74.7142094272
 21
-18.9099339322
  0
LINE
  5
2B0
100
AcDbEntity
  8
0
100
AcDbLine
 62
253
  6
CONTINUOUS
 10
-74.6480338859
 20
-18.3954810856
 11
-74.6121348306
 21
-18.4178704809
  0
LINE
  5
2B1
100
AcDbEntity
  8
0
100
AcDbLine
 62
253
  6
CONTINUOUS
 10
-75.0815872084
 20
-18.0915357145
 11
-74.647991385
 21
-18.3619592179
  0
LINE
  5
2B2
100
AcDbEntity
  8
RACCORDO
100
AcDbLine
 62
7
  6
CONTINUOUS
 10
-87.2684686882
 20
-7.8778387218
 11
-87.2682865503
 21
-7.8949087949
  0
LINE
  5
2B3
100
AcDbEntity
  8
RACCORDO
100
AcDbLine
 62
7
  6
CONTINUOUS
 10
-87.2684686882
 20
7.8748475618
 11
-87.2684686882
 21
-7.8778387218
  0
LINE
  5
2B4
100
AcDbEntity
  8
RACCORDO
100
AcDbLine
 62
253
  6
CONTINUOUS
 10
-87.2682865503
 20
7.8949087949
 11
-87.2684686882
 21
7.8748475618
  0
LINE
  5
2B5
100
AcDbEntity
  8
RACCORDO
100
AcDbLine
 62
253
  6
CONTINUOUS
 10
-87.2684686882
 20
-7.8778387218
 11
-87.2682865503
 21
-7.8949087949
  0
LINE
  5
2B6
100
AcDbEntity
  8
RACCORDO
100
AcDbLine
 62
7
  6
CONTINUOUS
 10
-87.2684686882
 20
7.8778387218
 11
-87.2682865503
 21
7.8949087949
  0
LINE
  5
2B7
100
AcDbEntity
  8
0
100
AcDbLine
 62
7
  6
CONTINUOUS
 10
-70.1275472717
 20
17.4750021957
 11
-70.4678128083
 21
17.2711750891
  0
LINE
  5
2B8
100
AcDbEntity
  8
0
100
AcDbLine
 62
7
  6
CONTINUOUS
 10
-71.7875321238
 20
-16.8325
 11
-73.3321723765
 21
-16.8325
  0
LINE
  5
2B9
100
AcDbEntity
  8
RACCORDO
100
AcDbLine
 62
253
  6
CONTINUOUS
 10
-78.8525253085
 20
-16.5715728753
 11
-75.8525253085
 21
-16.5715728753
  0
LINE
  5
2BA
100
AcDbEntity
  8
ASSI
100
AcDbLine
 62
7
  6
CONTINUOUS
 10
-75.8525253085
 20
-15.75
 11
-75.7025253085
 21
-15.75
  0
LINE
  5
2BB
100
AcDbEntity
  8
RACCORDO
100
AcDbLine
 62
7
  6
CONTINUOUS
 10
-78.8525253085
 20
-15.2999381673
 11
-73.3525253057
 21
-13.9795049917
  0
LINE
  5
2BC
100
AcDbEntity
  8
RACCORDO
100
AcDbLine
 62
253
  6
CONTINUOUS
 10
-78.8525253085
 20
-14.2715229736
 11
-77.678889026
 21
-13.9897578313
  0
LINE
  5
2BD
100
AcDbEntity
  8
RACCORDO
100
AcDbLine
 62
7
  6
CONTINUOUS
 10
-78.8525253085
 20
-14.0
 11
-73.3525253085
 21
-13.9520022272
  0
LINE
  5
2BE
100
AcDbEntity
  8
RACCORDO
100
AcDbLine
 62
253
  6
CONTINUOUS
 10
-78.8525253085
 20
-13.5000190385
 11
-73.3525253085
 21
-13.4520212656
  0
LINE
  5
2BF
100
AcDbEntity
  8
ASSI
100
AcDbLine
 62
7
  6
CONTINUOUS
 10
-74.3525253085
 20
-11.5
 11
-78.8525253085
 21
-11.5
  0
LINE
  5
2C0
100
AcDbEntity
  8
DRAFT
100
AcDbLine
 62
7
  6
CONTINUOUS
 10
-78.8525253085
 20
-11.50167211
 11
-77.4254407911
 21
-11.5141260879
  0
LINE
  5
2C1
100
AcDbEntity
  8
DRAFT
100
AcDbLine
 62
7
  6
CONTINUOUS
 10
-76.1527445269
 20
-11.52523274
 11
-73.3525253085
 21
-11.5496698829
  0
LINE
  5
2C2
100
AcDbEntity
  8
0
100
AcDbLine
 62
7
  6
CONTINUOUS
 10
-55.2008395639
 20
14.8503569597
 11
-55.3955375291
 21
14.7900396243
  0
LINE
  5
2C3
100
AcDbEntity
  8
0
100
AcDbLine
 62
7
  6
CONTINUOUS
 10
-60.7525234934
 20
-8.1758515058
 11
-61.2372978177
 21
-8.2012573744
  0
LINE
  5
2C4
100
AcDbEntity
  8
0
100
AcDbLine
 62
7
  6
CONTINUOUS
 10
-59.6759144833
 20
-8.4330334866
 11
-61.067196034
 21
-8.4541253917
  0
LINE
  5
2C5
100
AcDbEntity
  8
ASSI
100
AcDbLine
 62
7
  6
CONTINUOUS
 10
-74.3525253085
 20
-10.5
 11
-78.8525253085
 21
-10.5
  0
LINE
  5
2C6
100
AcDbEntity
  8
0
100
AcDbLine
 62
253
  6
CONTINUOUS
 10
-74.3525253085
 20
-10.0
 11
-75.9714717287
 21
-10.0
  0
LINE
  5
2C7
100
AcDbEntity
  8
0
100
AcDbLine
 62
253
  6
CONTINUOUS
 10
-78.7335788883
 20
-10.0
 11
-78.8525253085
 21
-10.0
  0
LINE
  5
2C8
100
AcDbEntity
  8
0
100
AcDbLine
 62
7
  6
CONTINUOUS
 10
-70.1275473099
 20
-8.3750010153
 11
-65.5079977337
 21
-8.3748812871
  0
LINE
  5
2C9
100
AcDbEntity
  8
RACCORDO
100
AcDbLine
 62
7
  6
CONTINUOUS
 10
-78.8525253085
 20
-40.0
 11
-78.8525253085
 21
40.0
  0
LINE
  5
2CA
100
AcDbEntity
  8
RACCORDO
100
AcDbLine
 62
7
  6
CONTINUOUS
 10
-77.8525253085
 20
-5.116336506
 11
-77.8525253085
 21
-1.5
  0
LINE
  5
2CB
100
AcDbEntity
  8
RACCORDO
100
AcDbLine
 62
7
  6
CONTINUOUS
 10
-77.8525253085
 20
1.5
 11
-77.8525253085
 21
5.116336506
  0
LINE
  5
2CC
100
AcDbEntity
  8
ASSI
100
AcDbLine
 62
253
  6
CONTINUOUS
 10
-77.4253175146
 20
11.5
 11
-77.4253175146
 21
10.5
  0
LINE
  5
2CD
100
AcDbEntity
  8
ASSI
100
AcDbLine
 62
253
  6
CONTINUOUS
 10
-77.4253175146
 20
-11.5
 11
-77.4253175146
 21
-10.5
  0
LINE
  5
2CE
100
AcDbEntity
  8
DRAFT
100
AcDbLine
 62
7
  6
CONTINUOUS
 10
-77.2652192094
 20
11.5155243205
 11
-77.2652192094
 21
11.5
  0
LINE
  5
2CF
100
AcDbEntity
  8
DRAFT
100
AcDbLine
 62
7
  6
CONTINUOUS
 10
-77.2652192094
 20
10.5
 11
-77.2652192094
 21
9.088318948
  0
LINE
  5
2D0
100
AcDbEntity
  8
DRAFT
100
AcDbLine
 62
7
  6
CONTINUOUS
 10
-77.2652192094
 20
-11.5155243205
 11
-77.2652192094
 21
-11.5
  0
LINE
  5
2D1
100
AcDbEntity
  8
DRAFT
100
AcDbLine
 62
7
  6
CONTINUOUS
 10
-77.2652192094
 20
-10.5
 11
-77.2652192094
 21
-9.088318948
  0
LINE
  5
2D2
100
AcDbEntity
  8
0
100
AcDbLine
 62
7
  6
CONTINUOUS
 10
-55.2370799793
 20
13.6888931464
 11
-55.0678209844
 21
13.7464994892
  0
LINE
  5
2D3
100
AcDbEntity
  8
0
100
AcDbLine
 62
7
  6
CONTINUOUS
 10
-60.0267476047
 20
-5.8371124907
 11
-59.6089470194
 21
-5.8307786108
  0
LINE
  5
2D4
100
AcDbEntity
  8
0
100
AcDbLine
 62
7
  6
CONTINUOUS
 10
-60.7525234877
 20
-8.1758514446
 11
-69.7950903469
 21
-8.1758514296
  0
LINE
  5
2D5
100
AcDbEntity
  8
0
100
AcDbLine
 62
7
  6
CONTINUOUS
 10
-60.7535055828
 20
-8.175476103
 11
-59.9598668505
 21
-8.1754761059
  0
LINE
  5
2D6
100
AcDbEntity
  8
0
100
AcDbLine
 62
7
  6
CONTINUOUS
 10
-70.4618822217
 20
-8.1747264921
 11
-69.7941513741
 21
-8.1747264945
  0
LINE
  5
2D7
100
AcDbEntity
  8
0
100
AcDbLine
 62
253
  6
CONTINUOUS
 10
-70.4666686888
 20
-8.1728159919
 11
-59.9598668505
 21
-8.1728160294
  0
LINE
  5
2D8
100
AcDbEntity
  8
0
100
AcDbLine
 62
7
  6
CONTINUOUS
 10
-59.5525253085
 20
-7.5
 11
-56.3525253085
 21
-7.5
  0
LINE
  5
2D9
100
AcDbEntity
  8
RACCORDO
100
AcDbLine
 62
7
  6
CONTINUOUS
 10
-59.5964756471
 20
-7.5
 11
-71.8507884954
 21
-7.5
  0
LINE
  5
2DA
100
AcDbEntity
  8
0
100
AcDbLine
 62
7
  6
CONTINUOUS
 10
-71.8507884954
 20
-7.5
 11
-72.2335840149
 21
-7.5
  0
LINE
  5
2DB
100
AcDbEntity
  8
RACCORDO
100
AcDbLine
 62
7
  6
CONTINUOUS
 10
-71.8507884954
 20
-6.5
 11
-59.5265300769
 21
-6.5
  0
LINE
  5
2DC
100
AcDbEntity
  8
0
100
AcDbLine
 62
7
  6
CONTINUOUS
 10
-59.5525253085
 20
-6.5
 11
-56.3525253085
 21
-6.5
  0
LINE
  5
2DD
100
AcDbEntity
  8
0
100
AcDbLine
 62
253
  6
CONTINUOUS
 10
-71.9164680729
 20
-6.45
 11
-73.2795884479
 21
-6.45
  0
LINE
  5
2DE
100
AcDbEntity
  8
0
100
AcDbLine
 62
7
  6
CONTINUOUS
 10
-73.2795884479
 20
-6.45
 11
-73.8047185358
 21
-6.45
  0
LINE
  5
2DF
100
AcDbEntity
  8
0
100
AcDbLine
 62
7
  6
CONTINUOUS
 10
-63.9247963113
 20
-5.7746253779
 11
-59.9883347467
 21
-5.7746253779
  0
LINE
  5
2E0
100
AcDbEntity
  8
0
100
AcDbLine
 62
7
  6
CONTINUOUS
 10
-59.6794344237
 20
-5.7814603983
 11
-57.1632420786
 21
-5.7872335565
  0
LINE
  5
2E1
100
AcDbEntity
  8
0
100
AcDbLine
 62
7
  6
CONTINUOUS
 10
-73.8047185358
 20
-6.45
 11
-73.810336837
 21
-6.4498879455
  0
LINE
  5
2E2
100
AcDbEntity
  8
0
100
AcDbLine
 62
7
  6
CONTINUOUS
 10
-58.1460891846
 20
-6.3271438899
 11
-60.0267476047
 21
-6.2285827582
  0
LINE
  5
2E3
100
AcDbEntity
  8
0
100
AcDbLine
 62
7
  6
CONTINUOUS
 10
-70.4666686888
 20
-8.1728159919
 11
-70.4618822217
 21
-8.1747264921
  0
LINE
  5
2E4
100
AcDbEntity
  8
0
100
AcDbLine
 62
7
  6
CONTINUOUS
 10
-70.4618822217
 20
-8.1747264928
 11
-70.1275473099
 21
-8.3750010153
  0
LINE
  5
2E5
100
AcDbEntity
  8
0
100
AcDbLine
 62
253
  6
CONTINUOUS
 10
-74.3308256693
 20
-17.8325
 11
-74.3307781748
 21
-17.8498397662
  0
LINE
  5
2E6
100
AcDbEntity
  8
0
100
AcDbLine
 62
253
  6
CONTINUOUS
 10
-74.330825691
 20
17.8498555921
 11
-74.3307781531
 21
17.8325
  0
LINE
  5
2E7
100
AcDbEntity
  8
DRAFT
100
AcDbLine
 62
7
  6
CONTINUOUS
 10
-76.3525253085
 20
10.5
 11
-76.3525253085
 21
9.4681583987
  0
LINE
  5
2E8
100
AcDbEntity
  8
DRAFT
100
AcDbLine
 62
7
  6
CONTINUOUS
 10
-76.3525253085
 20
-9.4681583987
 11
-76.3525253085
 21
-10.5
  0
LINE
  5
2E9
100
AcDbEntity
  8
ASSI
100
AcDbLine
 62
253
  6
CONTINUOUS
 10
-76.1525317682
 20
11.5
 11
-76.1525317682
 21
10.5
  0
LINE
  5
2EA
100
AcDbEntity
  8
ASSI
100
AcDbLine
 62
253
  6
CONTINUOUS
 10
-76.1525233494
 20
-11.5
 11
-76.1525233494
 21
-10.5
  0
LINE
  5
2EB
100
AcDbEntity
  8
ASSI
100
AcDbLine
 62
7
  6
CONTINUOUS
 10
-75.8525253085
 20
-28.6958722896
 11
-75.8525253085
 21
-24.9714560971
  0
LINE
  5
2EC
100
AcDbEntity
  8
RACCORDO
100
AcDbLine
 62
7
  6
CONTINUOUS
 10
-75.8525253085
 20
-24.9714560971
 11
-75.8525253085
 21
-14.5797018901
  0
LINE
  5
2ED
100
AcDbEntity
  8
RACCORDO
100
AcDbLine
 62
7
  6
CONTINUOUS
 10
-75.8525253085
 20
14.5797018901
 11
-75.8525253085
 21
24.9714560971
  0
LINE
  5
2EE
100
AcDbEntity
  8
ASSI
100
AcDbLine
 62
7
  6
CONTINUOUS
 10
-75.8525253085
 20
24.9714560971
 11
-75.8525253085
 21
28.6958722896
  0
LINE
  5
2EF
100
AcDbEntity
  8
0
100
AcDbLine
 62
253
  6
CONTINUOUS
 10
-75.816995247
 20
17.6669022149
 11
-75.816995247
 21
15.75
  0
LINE
  5
2F0
100
AcDbEntity
  8
0
100
AcDbLine
 62
253
  6
CONTINUOUS
 10
-75.816995247
 20
-15.75
 11
-75.816995247
 21
-17.6669015493
  0
LINE
  5
2F1
100
AcDbEntity
  8
0
100
AcDbLine
 62
7
  6
CONTINUOUS
 10
-75.721987632
 20
-1.75
 11
-75.721987632
 21
1.75
  0
LINE
  5
2F2
100
AcDbEntity
  8
ASSI
100
AcDbLine
 62
7
  6
CONTINUOUS
 10
-75.7025253085
 20
15.75
 11
-75.7025253085
 21
14.5436900762
  0
LINE
  5
2F3
100
AcDbEntity
  8
ASSI
100
AcDbLine
 62
7
  6
CONTINUOUS
 10
-75.7025253085
 20
-14.5436900762
 11
-75.7025253085
 21
-15.75
  0
LINE
  5
2F4
100
AcDbEntity
  8
0
100
AcDbLine
 62
253
  6
CONTINUOUS
 10
-75.6525253085
 20
-4.8306623863
 11
-75.6525253085
 21
-3.1693376137
  0
LINE
  5
2F5
100
AcDbEntity
  8
0
100
AcDbLine
 62
253
  6
CONTINUOUS
 10
-75.6525253085
 20
3.1693376137
 11
-75.6525253085
 21
4.8306623863
  0
LINE
  5
2F6
100
AcDbEntity
  8
0
100
AcDbLine
 62
253
  6
CONTINUOUS
 10
-75.3172998335
 20
-17.6669015493
 11
-75.3172998335
 21
-14.4512056222
  0
LINE
  5
2F7
100
AcDbEntity
  8
0
100
AcDbLine
 62
253
  6
CONTINUOUS
 10
-75.3172998335
 20
14.4512056222
 11
-75.3172998335
 21
17.6669022149
  0
LINE
  5
2F8
100
AcDbEntity
  8
0
100
AcDbLine
 62
7
  6
CONTINUOUS
 10
-75.0525253085
 20
-28.2799738109
 11
-75.0525253085
 21
-28.237031892
  0
LINE
  5
2F9
100
AcDbEntity
  8
0
100
AcDbLine
 62
7
  6
CONTINUOUS
 10
-75.0525253085
 20
-22.462968108
 11
-75.0525253085
 21
-22.4200261891
  0
LINE
  5
2FA
100
AcDbEntity
  8
0
100
AcDbLine
 62
7
  6
CONTINUOUS
 10
-75.0525253085
 20
22.4200261891
 11
-75.0525253085
 21
22.462968108
  0
LINE
  5
2FB
100
AcDbEntity
  8
0
100
AcDbLine
 62
7
  6
CONTINUOUS
 10
-75.0525253085
 20
28.237031892
 11
-75.0525253085
 21
28.2799738109
  0
LINE
  5
2FC
100
AcDbEntity
  8
0
100
AcDbLine
 62
7
  6
CONTINUOUS
 10
-74.6480372522
 20
18.3954785156
 11
-74.647977586
 21
14.2905155676
  0
LINE
  5
2FD
100
AcDbEntity
  8
0
100
AcDbLine
 62
7
  6
CONTINUOUS
 10
-74.6479837446
 20
11.5383645884
 11
-74.6479838305
 21
11.5
  0
LINE
  5
2FE
100
AcDbEntity
  8
0
100
AcDbLine
 62
7
  6
CONTINUOUS
 10
-74.647991385
 20
-11.5
 11
-74.647991385
 21
-11.5383645217
  0
LINE
  5
2FF
100
AcDbEntity
  8
0
100
AcDbLine
 62
7
  6
CONTINUOUS
 10
-74.647991385
 20
-14.2905188805
 11
-74.647991385
 21
-18.3619592179
  0
LINE
  5
300
100
AcDbEntity
  8
0
100
AcDbLine
 62
253
  6
CONTINUOUS
 10
-74.3832096905
 20
-17.8325
 11
-74.3832096905
 21
-14.2269504198
  0
LINE
  5
301
100
AcDbEntity
  8
0
100
AcDbLine
 62
253
  6
CONTINUOUS
 10
-74.3832096905
 20
-11.5406752365
 11
-74.3832096905
 21
-11.5
  0
LINE
  5
302
100
AcDbEntity
  8
0
100
AcDbLine
 62
253
  6
CONTINUOUS
 10
-74.3832096905
 20
11.5
 11
-74.3832096905
 21
11.5406752365
  0
LINE
  5
303
100
AcDbEntity
  8
0
100
AcDbLine
 62
253
  6
CONTINUOUS
 10
-74.3832096905
 20
14.2269504198
 11
-74.3832096905
 21
17.8325
  0
LINE
  5
304
100
AcDbEntity
  8
ASSI
100
AcDbLine
 62
7
  6
CONTINUOUS
 10
-74.3525253085
 20
11.5
 11
-74.3525253085
 21
10.5
  0
LINE
  5
305
100
AcDbEntity
  8
ASSI
100
AcDbLine
 62
7
  6
CONTINUOUS
 10
-74.3525253085
 20
-11.5
 11
-74.3525253085
 21
-10.5
  0
LINE
  5
306
100
AcDbEntity
  8
0
100
AcDbLine
 62
7
  6
CONTINUOUS
 10
-74.3525253085
 20
-10.5
 11
-74.3525253085
 21
-10.0
  0
LINE
  5
307
100
AcDbEntity
  8
ASSI
100
AcDbLine
 62
7
  6
CONTINUOUS
 10
-74.3525253085
 20
-10.0
 11
-74.3525253085
 21
-7.5
  0
LINE
  5
308
100
AcDbEntity
  8
ASSI
100
AcDbLine
 62
7
  6
CONTINUOUS
 10
-74.3525253085
 20
7.5
 11
-74.3525253085
 21
10.0
  0
LINE
  5
309
100
AcDbEntity
  8
0
100
AcDbLine
 62
7
  6
CONTINUOUS
 10
-74.3525253085
 20
10.0
 11
-74.3525253085
 21
10.5
  0
LINE
  5
30A
100
AcDbEntity
  8
0
100
AcDbLine
 62
253
  6
CONTINUOUS
 10
-74.3069117632
 20
-7.1938826212
 11
-74.3069117632
 21
-1.75
  0
LINE
  5
30B
100
AcDbEntity
  8
0
100
AcDbLine
 62
253
  6
CONTINUOUS
 10
-74.3069117632
 20
1.75
 11
-74.3069117632
 21
7.1938826212
  0
LINE
  5
30C
100
AcDbEntity
  8
0
100
AcDbLine
 62
253
  6
CONTINUOUS
 10
-74.0350941599
 20
28.1466506282
 11
-74.0350941599
 21
22.5533493718
  0
LINE
  5
30D
100
AcDbEntity
  8
0
100
AcDbLine
 62
253
  6
CONTINUOUS
 10
-74.0350941599
 20
-22.5533493718
 11
-74.0350941599
 21
-28.1466506282
  0
LINE
  5
30E
100
AcDbEntity
  8
0
100
AcDbLine
 62
7
  6
CONTINUOUS
 10
-73.8525253085
 20
27.944007918
 11
-73.8525253085
 21
22.755992082
  0
LINE
  5
30F
100
AcDbEntity
  8
0
100
AcDbLine
 62
7
  6
CONTINUOUS
 10
-73.8525253085
 20
-27.944007918
 11
-73.8525253085
 21
-22.755992082
  0
LINE
  5
310
100
AcDbEntity
  8
0
100
AcDbLine
 62
7
  6
CONTINUOUS
 10
-55.2665286965
 20
13.991515598
 11
-55.0764203833
 21
14.1120250362
  0
LINE
  5
311
100
AcDbEntity
  8
0
100
AcDbLine
 62
7
  6
CONTINUOUS
 10
-55.2662120273
 20
13.9783886748
 11
-55.0751565492
 21
14.0897917046
  0
LINE
  5
312
100
AcDbEntity
  8
RACCORDO
100
AcDbLine
 62
7
  6
CONTINUOUS
 10
-78.8525253085
 20
-5.7679491924
 11
-78.2231157859
 21
-5.5992994192
  0
LINE
  5
313
100
AcDbEntity
  8
0
100
AcDbLine
 62
7
  6
CONTINUOUS
 10
-56.444136881
 20
-4.9336431306
 11
-56.5981871156
 21
-4.9359785406
  0
LINE
  5
314
100
AcDbEntity
  8
0
100
AcDbLine
 62
7
  6
CONTINUOUS
 10
-59.8248840278
 20
-3.574733425
 11
-59.8749096983
 21
-3.5754918169
  0
LINE
  5
315
100
AcDbEntity
  8
0
100
AcDbLine
 62
253
  6
CONTINUOUS
 10
-73.1626713251
 20
-4.8306623863
 11
-75.6525253085
 21
-4.8306623863
  0
LINE
  5
316
100
AcDbEntity
  8
0
100
AcDbLine
 62
253
  6
CONTINUOUS
 10
-73.1741658793
 20
-4.798713833
 11
-75.6525253085
 21
-4.798713833
  0
LINE
  5
317
100
AcDbEntity
  8
0
100
AcDbLine
 62
253
  6
CONTINUOUS
 10
-75.6525253085
 20
-3.201286167
 11
-73.1741658793
 21
-3.201286167
  0
LINE
  5
318
100
AcDbEntity
  8
0
100
AcDbLine
 62
253
  6
CONTINUOUS
 10
-75.6525253085
 20
-3.1693376137
 11
-73.1626713251
 21
-3.1693376137
  0
LINE
  5
319
100
AcDbEntity
  8
DRAFT
100
AcDbLine
 62
7
  6
CONTINUOUS
 10
-78.8525253085
 20
-4.0454397731
 11
-77.8525253085
 21
-4.0541666409
  0
LINE
  5
31A
100
AcDbEntity
  8
0
100
AcDbLine
 62
253
  6
CONTINUOUS
 10
-71.2212882389
 20
-18.9404161936
 11
-71.221725382
 21
-18.9320750066
  0
LINE
  5
31B
100
AcDbEntity
  8
0
100
AcDbLine
 62
7
  6
CONTINUOUS
 10
-70.9708306041
 20
-18.9426019043
 11
-70.9739647696
 21
-18.8827984638
  0
LINE
  5
31C
100
AcDbEntity
  8
0
100
AcDbLine
 62
253
  6
CONTINUOUS
 10
-73.3845801557
 20
-16.8338723437
 11
-73.3845801557
 21
-13.9872006803
  0
LINE
  5
31D
100
AcDbEntity
  8
0
100
AcDbLine
 62
253
  6
CONTINUOUS
 10
-73.3845801557
 20
-11.5496698829
 11
-73.3845801557
 21
-6.453063416
  0
LINE
  5
31E
100
AcDbEntity
  8
0
100
AcDbLine
 62
253
  6
CONTINUOUS
 10
-73.3845801557
 20
6.4530661856
 11
-73.3845801557
 21
11.5496698829
  0
LINE
  5
31F
100
AcDbEntity
  8
0
100
AcDbLine
 62
253
  6
CONTINUOUS
 10
-73.3845801557
 20
13.9872006803
 11
-73.3845801557
 21
16.8338723437
  0
LINE
  5
320
100
AcDbEntity
  8
RACCORDO
100
AcDbLine
 62
7
  6
CONTINUOUS
 10
-73.3525253085
 20
13.9795049924
 11
-73.3525253085
 21
11.815723851
  0
LINE
  5
321
100
AcDbEntity
  8
DRAFT
100
AcDbLine
 62
7
  6
CONTINUOUS
 10
-73.3525253085
 20
11.815723851
 11
-73.3525253085
 21
11.5496707107
  0
LINE
  5
322
100
AcDbEntity
  8
DRAFT
100
AcDbLine
 62
7
  6
CONTINUOUS
 10
-73.3525253085
 20
-11.5496707107
 11
-73.3525253085
 21
-11.815723851
  0
LINE
  5
323
100
AcDbEntity
  8
RACCORDO
100
AcDbLine
 62
7
  6
CONTINUOUS
 10
-73.3525253085
 20
-13.9795049924
 11
-73.3525253085
 21
-11.815723851
  0
LINE
  5
324
100
AcDbEntity
  8
0
100
AcDbLine
 62
253
  6
CONTINUOUS
 10
-73.3321723765
 20
-18.8496953671
 11
-73.3321723765
 21
-16.8325
  0
LINE
  5
325
100
AcDbEntity
  8
0
100
AcDbLine
 62
253
  6
CONTINUOUS
 10
-73.3321723765
 20
16.8325
 11
-73.3321723765
 21
18.8496953671
  0
LINE
  5
326
100
AcDbEntity
  8
0
100
AcDbLine
 62
253
  6
CONTINUOUS
 10
-73.3107170651
 20
6.45
 11
-73.3107170651
 21
4.8306623863
  0
LINE
  5
327
100
AcDbEntity
  8
0
100
AcDbLine
 62
253
  6
CONTINUOUS
 10
-73.3107170651
 20
3.1693376137
 11
-73.3107170651
 21
2.0501558692
  0
LINE
  5
328
100
AcDbEntity
  8
0
100
AcDbLine
 62
253
  6
CONTINUOUS
 10
-73.3107170651
 20
-2.0501558692
 11
-73.3107170651
 21
-3.1693376137
  0
LINE
  5
329
100
AcDbEntity
  8
0
100
AcDbLine
 62
253
  6
CONTINUOUS
 10
-73.3107170651
 20
-4.8306623863
 11
-73.3107170651
 21
-6.45
  0
LINE
  5
32A
100
AcDbEntity
  8
ASSI
100
AcDbLine
 62
7
  6
CONTINUOUS
 10
-72.912662771
 20
6.45
 11
-72.912662771
 21
2.2458628631
  0
LINE
  5
32B
100
AcDbEntity
  8
ASSI
100
AcDbLine
 62
7
  6
CONTINUOUS
 10
-72.912662771
 20
-6.45
 11
-72.912662771
 21
-2.2458628631
  0
LINE
  5
32C
100
AcDbEntity
  8
ASSI
100
AcDbLine
 62
7
  6
CONTINUOUS
 10
-71.9164680729
 20
6.45
 11
-71.9164680729
 21
2.2458628631
  0
LINE
  5
32D
100
AcDbEntity
  8
ASSI
100
AcDbLine
 62
7
  6
CONTINUOUS
 10
-71.9164680729
 20
-6.45
 11
-71.9164680729
 21
-2.2458628631
  0
LINE
  5
32E
100
AcDbEntity
  8
0
100
AcDbLine
 62
7
  6
CONTINUOUS
 10
-71.8507884954
 20
7.5
 11
-71.8507884954
 21
6.5
  0
LINE
  5
32F
100
AcDbEntity
  8
0
100
AcDbLine
 62
7
  6
CONTINUOUS
 10
-71.8507884954
 20
-7.5
 11
-71.8507884954
 21
-6.5
  0
LINE
  5
330
100
AcDbEntity
  8
0
100
AcDbLine
 62
253
  6
CONTINUOUS
 10
-71.7875321238
 20
18.8496953671
 11
-71.7875321238
 21
16.8325
  0
LINE
  5
331
100
AcDbEntity
  8
0
100
AcDbLine
 62
253
  6
CONTINUOUS
 10
-71.7875321238
 20
-16.8325
 11
-71.7875321238
 21
-18.8496953671
  0
LINE
  5
332
100
AcDbEntity
  8
0
100
AcDbLine
 62
253
  6
CONTINUOUS
 10
-71.7000434603
 20
16.8363053019
 11
-71.7000434603
 21
7.5
  0
LINE
  5
333
100
AcDbEntity
  8
0
100
AcDbLine
 62
253
  6
CONTINUOUS
 10
-71.7000434603
 20
6.5
 11
-71.7000434603
 21
2.25
  0
LINE
  5
334
100
AcDbEntity
  8
0
100
AcDbLine
 62
253
  6
CONTINUOUS
 10
-71.7000434603
 20
-2.25
 11
-71.7000434603
 21
-6.5
  0
LINE
  5
335
100
AcDbEntity
  8
0
100
AcDbLine
 62
253
  6
CONTINUOUS
 10
-71.7000434603
 20
-7.5
 11
-71.7000434603
 21
-16.8363053019
  0
LINE
  5
336
100
AcDbEntity
  8
0
100
AcDbLine
 62
253
  6
CONTINUOUS
 10
-71.221725382
 20
18.9320750066
 11
-71.2212882389
 21
18.9404161936
  0
LINE
  5
337
100
AcDbEntity
  8
0
100
AcDbLine
 62
7
  6
CONTINUOUS
 10
-70.9739647696
 20
18.8827984638
 11
-70.9708306041
 21
18.9426019043
  0
LINE
  5
338
100
AcDbEntity
  8
0
100
AcDbLine
 62
253
  6
CONTINUOUS
 10
-66.0461267984
 20
-2.2745664053
 11
-63.9247963113
 21
-2.2745660738
  0
LINE
  5
339
100
AcDbEntity
  8
ASSI
100
AcDbLine
 62
7
  6
CONTINUOUS
 10
-71.2182175874
 20
-2.25
 11
-71.9164680729
 21
-2.25
  0
LINE
  5
33A
100
AcDbEntity
  8
ASSI
100
AcDbLine
 62
7
  6
CONTINUOUS
 10
-72.912662771
 20
-2.2458628631
 11
-71.9164680729
 21
-2.2458628631
  0
LINE
  5
33B
100
AcDbEntity
  8
0
100
AcDbLine
 62
7
  6
CONTINUOUS
 10
-75.721987632
 20
-1.75
 11
-73.0842237494
 21
-1.75
  0
LINE
  5
33C
100
AcDbEntity
  8
0
100
AcDbLine
 62
7
  6
CONTINUOUS
 10
-71.8915154386
 20
-1.75
 11
-63.590048632
 21
-1.75
  0
LINE
  5
33D
100
AcDbEntity
  8
0
100
AcDbLine
 62
7
  6
CONTINUOUS
 10
-78.8525253085
 20
-1.5
 11
-75.721987632
 21
-1.5
  0
LINE
  5
33E
100
AcDbEntity
  8
0
100
AcDbLine
 62
7
  6
CONTINUOUS
 10
-75.721987632
 20
-1.381939
 11
-73.0516002677
 21
-1.381939
  0
LINE
  5
33F
100
AcDbEntity
  8
0
100
AcDbLine
 62
7
  6
CONTINUOUS
 10
-71.8778430992
 20
-1.381939
 11
-63.221987632
 21
-1.381939
  0
LINE
  5
340
100
AcDbEntity
  8
ASSI
100
AcDbLine
 62
253
  6
CONTINUOUS
 10
-72.8525253085
 20
0.0
 11
-71.8563306104
 21
0.0
  0
LINE
  5
341
100
AcDbEntity
  8
0
100
AcDbLine
 62
7
  6
CONTINUOUS
 10
-66.3745437796
 20
-4.5675185967
 11
-66.0461166549
 21
-4.8959457215
  0
LINE
  5
342
100
AcDbEntity
  8
0
100
AcDbLine
 62
253
  6
CONTINUOUS
 10
-70.7913374257
 20
-17.849847672
 11
-70.7913374257
 21
-17.8325
  0
LINE
  5
343
100
AcDbEntity
  8
0
100
AcDbLine
 62
253
  6
CONTINUOUS
 10
-70.7913374257
 20
17.8325
 11
-70.7913374257
 21
17.849847672
  0
LINE
  5
344
100
AcDbEntity
  8
0
100
AcDbLine
 62
253
  6
CONTINUOUS
 10
-70.7038487622
 20
-17.8325
 11
-70.7038487622
 21
-7.5
  0
LINE
  5
345
100
AcDbEntity
  8
0
100
AcDbLine
 62
253
  6
CONTINUOUS
 10
-70.7038487622
 20
-6.5
 11
-70.7038487622
 21
-1.75
  0
LINE
  5
346
100
AcDbEntity
  8
0
100
AcDbLine
 62
253
  6
CONTINUOUS
 10
-70.7038487622
 20
1.75
 11
-70.7038487622
 21
6.5
  0
LINE
  5
347
100
AcDbEntity
  8
0
100
AcDbLine
 62
253
  6
CONTINUOUS
 10
-70.7038487622
 20
7.5
 11
-70.7038487622
 21
17.8325
  0
LINE
  5
348
100
AcDbEntity
  8
0
100
AcDbLine
 62
7
  6
CONTINUOUS
 10
-70.5299952039
 20
-6.5
 11
-70.5299952039
 21
-1.75
  0
LINE
  5
349
100
AcDbEntity
  8
0
100
AcDbLine
 62
7
  6
CONTINUOUS
 10
-70.5299952039
 20
1.75
 11
-70.5299952039
 21
6.5
  0
LINE
  5
34A
100
AcDbEntity
  8
0
100
AcDbLine
 62
7
  6
CONTINUOUS
 10
-70.5299952039
 20
7.5
 11
-70.5299952039
 21
16.5222029339
  0
LINE
  5
34B
100
AcDbEntity
  8
0
100
AcDbLine
 62
7
  6
CONTINUOUS
 10
-70.1275473099
 20
-8.3750010153
 11
-70.1275473099
 21
-17.9822819681
  0
LINE
  5
34C
100
AcDbEntity
  8
0
100
AcDbLine
 62
7
  6
CONTINUOUS
 10
-70.1275473099
 20
17.4750021728
 11
-70.1275473099
 21
17.9822819681
  0
LINE
  5
34D
100
AcDbEntity
  8
0
100
AcDbLine
 62
7
  6
CONTINUOUS
 10
-69.7941513741
 20
-8.1747264945
 11
-69.7941513741
 21
-8.1754760707
  0
LINE
  5
34E
100
AcDbEntity
  8
RACCORDO
100
AcDbLine
 62
253
  6
CONTINUOUS
 10
-68.3481620407
 20
-20.4345104139
 11
-68.3481620407
 21
-18.9654895865
  0
LINE
  5
34F
100
AcDbEntity
  8
RACCORDO
100
AcDbLine
 62
253
  6
CONTINUOUS
 10
-68.3481620407
 20
18.9654923857
 11
-68.3481620407
 21
20.4345104139
  0
LINE
  5
350
100
AcDbEntity
  8
0
100
AcDbLine
 62
7
  6
CONTINUOUS
 10
-67.6525243269
 20
17.4750021727
 11
-67.6578617568
 21
17.2711750891
  0
LINE
  5
351
100
AcDbEntity
  8
0
100
AcDbLine
 62
7
  6
CONTINUOUS
 10
-60.0267476047
 20
1.5293327785
 11
-56.6072642433
 21
1.7085404473
  0
LINE
  5
352
100
AcDbEntity
  8
0
100
AcDbLine
 62
7
  6
CONTINUOUS
 10
-56.3443021236
 20
1.2085023699
 11
-59.7837015941
 21
1.0962962512
  0
LINE
  5
353
100
AcDbEntity
  8
0
100
AcDbLine
 62
7
  6
CONTINUOUS
 10
-59.9883347467
 20
1.2254330435
 11
-63.221987632
 21
1.2254330435
  0
LINE
  5
354
100
AcDbEntity
  8
0
100
AcDbLine
 62
7
  6
CONTINUOUS
 10
-75.721987632
 20
1.381939
 11
-73.0515424519
 21
1.381939
  0
LINE
  5
355
100
AcDbEntity
  8
0
100
AcDbLine
 62
7
  6
CONTINUOUS
 10
-71.877843095
 20
1.381939
 11
-63.221987632
 21
1.381939
  0
LINE
  5
356
100
AcDbEntity
  8
0
100
AcDbLine
 62
7
  6
CONTINUOUS
 10
-78.8525253085
 20
1.5
 11
-75.721987632
 21
1.5
  0
LINE
  5
357
100
AcDbEntity
  8
0
100
AcDbLine
 62
7
  6
CONTINUOUS
 10
-75.721987632
 20
1.75
 11
-73.0842300971
 21
1.75
  0
LINE
  5
358
100
AcDbEntity
  8
0
100
AcDbLine
 62
7
  6
CONTINUOUS
 10
-71.891515436
 20
1.75
 11
-63.590048632
 21
1.75
  0
LINE
  5
359
100
AcDbEntity
  8
ASSI
100
AcDbLine
 62
7
  6
CONTINUOUS
 10
-72.912662771
 20
2.2458628631
 11
-71.9164680729
 21
2.2458628631
  0
LINE
  5
35A
100
AcDbEntity
  8
ASSI
100
AcDbLine
 62
7
  6
CONTINUOUS
 10
-71.2182175874
 20
2.25
 11
-71.9164680729
 21
2.25
  0
LINE
  5
35B
100
AcDbEntity
  8
0
100
AcDbLine
 62
253
  6
CONTINUOUS
 10
-73.1626713251
 20
3.1693376137
 11
-75.6525253085
 21
3.1693376137
  0
LINE
  5
35C
100
AcDbEntity
  8
0
100
AcDbLine
 62
253
  6
CONTINUOUS
 10
-73.1741658793
 20
3.201286167
 11
-75.6525253085
 21
3.201286167
  0
LINE
  5
35D
100
AcDbEntity
  8
RACCORDO
100
AcDbLine
 62
7
  6
CONTINUOUS
 10
-67.8525253085
 20
-19.9345294524
 11
-67.8525253085
 21
-19.4655473316
  0
LINE
  5
35E
100
AcDbEntity
  8
RACCORDO
100
AcDbLine
 62
7
  6
CONTINUOUS
 10
-67.8525253085
 20
19.4655648082
 11
-67.8525253085
 21
19.9345294524
  0
LINE
  5
35F
100
AcDbEntity
  8
0
100
AcDbLine
 62
7
  6
CONTINUOUS
 10
-66.6674369985
 20
-3.8604118155
 11
-66.6674369985
 21
-1.75
  0
LINE
  5
360
100
AcDbEntity
  8
0
100
AcDbLine
 62
253
  6
CONTINUOUS
 10
-66.3745437796
 20
-4.5675185967
 11
-66.3745437796
 21
-1.75
  0
LINE
  5
361
100
AcDbEntity
  8
0
100
AcDbLine
 62
253
  6
CONTINUOUS
 10
-66.0461166549
 20
-1.75
 11
-66.0461166549
 21
-4.8959457215
  0
LINE
  5
362
100
AcDbEntity
  8
0
100
AcDbLine
 62
7
  6
CONTINUOUS
 10
-55.3356572978
 20
6.1503598399
 11
-55.4023688763
 21
6.1493484887
  0
LINE
  5
363
100
AcDbEntity
  8
DRAFT
100
AcDbLine
 62
7
  6
CONTINUOUS
 10
-77.8525253085
 20
4.0541666409
 11
-78.8525253085
 21
4.0454397731
  0
LINE
  5
364
100
AcDbEntity
  8
0
100
AcDbLine
 62
253
  6
CONTINUOUS
 10
-75.6525253085
 20
4.798713833
 11
-73.1741658793
 21
4.798713833
  0
LINE
  5
365
100
AcDbEntity
  8
0
100
AcDbLine
 62
253
  6
CONTINUOUS
 10
-75.6525253085
 20
4.8306623863
 11
-73.1626713251
 21
4.8306623863
  0
LINE
  5
366
100
AcDbEntity
  8
0
100
AcDbLine
 62
253
  6
CONTINUOUS
 10
-55.8367029015
 20
1.8189149054
 11
-55.8393445336
 21
1.8192276123
  0
LINE
  5
367
100
AcDbEntity
  8
RACCORDO
100
AcDbLine
 62
7
  6
CONTINUOUS
 10
-78.2231157859
 20
5.5992994192
 11
-78.8525253085
 21
5.7679491924
  0
LINE
  5
368
100
AcDbEntity
  8
0
100
AcDbLine
 62
253
  6
CONTINUOUS
 10
-58.1705182348
 20
-7.5259279089
 11
-58.168817496
 21
-7.5279732681
  0
LINE
  5
369
100
AcDbEntity
  8
0
100
AcDbLine
 62
253
  6
CONTINUOUS
 10
-63.9247963113
 20
-5.7746253779
 11
-63.9247963113
 21
-1.75
  0
LINE
  5
36A
100
AcDbEntity
  8
0
100
AcDbLine
 62
7
  6
CONTINUOUS
 10
-63.590048632
 20
1.75
 11
-63.590048632
 21
-1.75
  0
LINE
  5
36B
100
AcDbEntity
  8
0
100
AcDbLine
 62
7
  6
CONTINUOUS
 10
-63.221987632
 20
1.381939
 11
-63.221987632
 21
-1.381939
  0
LINE
  5
36C
100
AcDbEntity
  8
0
100
AcDbLine
 62
253
  6
CONTINUOUS
 10
-75.3461865851
 20
-18.5157846625
 11
-75.0815910237
 21
-18.091533335
  0
LINE
  5
36D
100
AcDbEntity
  8
0
100
AcDbLine
 62
7
  6
CONTINUOUS
 10
-63.221987632
 20
-1.381939
 11
-63.590048632
 21
-1.75
  0
LINE
  5
36E
100
AcDbEntity
  8
0
100
AcDbLine
 62
253
  6
CONTINUOUS
 10
-55.1208642458
 20
12.7782208352
 11
-55.1163132355
 21
12.7793012453
  0
LINE
  5
36F
100
AcDbEntity
  8
0
100
AcDbLine
 62
7
  6
CONTINUOUS
 10
-73.8105166473
 20
6.449886513
 11
-73.8047185358
 21
6.45
  0
LINE
  5
370
100
AcDbEntity
  8
0
100
AcDbLine
 62
253
  6
CONTINUOUS
 10
-71.9164680729
 20
6.45
 11
-73.2795884479
 21
6.45
  0
LINE
  5
371
100
AcDbEntity
  8
0
100
AcDbLine
 62
7
  6
CONTINUOUS
 10
-73.2795884479
 20
6.45
 11
-73.8047185358
 21
6.45
  0
LINE
  5
372
100
AcDbEntity
  8
0
100
AcDbLine
 62
7
  6
CONTINUOUS
 10
-59.5525253085
 20
6.5
 11
-56.3525253085
 21
6.5
  0
LINE
  5
373
100
AcDbEntity
  8
RACCORDO
100
AcDbLine
 62
7
  6
CONTINUOUS
 10
-59.5964993567
 20
6.5
 11
-71.8507884954
 21
6.5
  0
LINE
  5
374
100
AcDbEntity
  8
RACCORDO
100
AcDbLine
 62
7
  6
CONTINUOUS
 10
-71.8507884954
 20
7.5
 11
-59.5267675899
 21
7.5
  0
LINE
  5
375
100
AcDbEntity
  8
0
100
AcDbLine
 62
7
  6
CONTINUOUS
 10
-59.5525253085
 20
7.5
 11
-56.3525253085
 21
7.5
  0
LINE
  5
376
100
AcDbEntity
  8
0
100
AcDbLine
 62
7
  6
CONTINUOUS
 10
-71.8507884954
 20
7.5
 11
-72.2335840149
 21
7.5
  0
LINE
  5
377
100
AcDbEntity
  8
0
100
AcDbLine
 62
7
  6
CONTINUOUS
 10
-55.2510822838
 20
7.5378819614
 11
-55.2007775078
 21
7.5365524313
  0
LINE
  5
378
100
AcDbEntity
  8
0
100
AcDbLine
 62
7
  6
CONTINUOUS
 10
-63.221987632
 20
1.381939
 11
-63.590048632
 21
1.75
  0
LINE
  5
379
100
AcDbEntity
  8
0
100
AcDbLine
 62
253
  6
CONTINUOUS
 10
-75.0815902908
 20
18.0915331265
 11
-75.3461859033
 21
18.5157844222
  0
LINE
  5
37A
100
AcDbEntity
  8
0
100
AcDbLine
 62
253
  6
CONTINUOUS
 10
-74.9125869975
 20
18.7862099205
 11
-74.647991385
 21
18.3619586248
  0
LINE
  5
37B
100
AcDbEntity
  8
0
100
AcDbLine
 62
7
  6
CONTINUOUS
 10
-61.2643128296
 20
-8.2570907118
 11
-61.2651528658
 21
-8.201679556
  0
LINE
  5
37C
100
AcDbEntity
  8
0
100
AcDbLine
 62
7
  6
CONTINUOUS
 10
-60.5717360848
 20
-8.4466141915
 11
-60.5758465532
 21
-8.1754761036
  0
LINE
  5
37D
100
AcDbEntity
  8
0
100
AcDbLine
 62
7
  6
CONTINUOUS
 10
-59.609829052
 20
-5.781620101
 11
-59.6090857429
 21
-5.8307807138
  0
LINE
  5
37E
100
AcDbEntity
  8
0
100
AcDbLine
 62
7
  6
CONTINUOUS
 10
-60.0267476047
 20
1.5293327785
 11
-60.0267476047
 21
1.2254331014
  0
LINE
  5
37F
100
AcDbEntity
  8
0
100
AcDbLine
 62
7
  6
CONTINUOUS
 10
-60.0267476047
 20
-5.7746254357
 11
-60.0267476047
 21
-6.2285827582
  0
LINE
  5
380
100
AcDbEntity
  8
0
100
AcDbLine
 62
253
  6
CONTINUOUS
 10
-59.9598609816
 20
-7.5
 11
-59.9598668505
 21
-8.1754761059
  0
LINE
  5
381
100
AcDbEntity
  8
RACCORDO
100
AcDbLine
 62
253
  6
CONTINUOUS
 10
-59.804463548
 20
7.5
 11
-59.804463548
 21
6.5
  0
LINE
  5
382
100
AcDbEntity
  8
RACCORDO
100
AcDbLine
 62
253
  6
CONTINUOUS
 10
-59.804463548
 20
-7.5
 11
-59.804463548
 21
-6.5
  0
LINE
  5
383
100
AcDbEntity
  8
0
100
AcDbLine
 62
7
  6
CONTINUOUS
 10
-59.5525253085
 20
7.5
 11
-59.5525253085
 21
6.5
  0
LINE
  5
384
100
AcDbEntity
  8
0
100
AcDbLine
 62
7
  6
CONTINUOUS
 10
-59.5525253085
 20
-7.5
 11
-59.5525253085
 21
-6.5
  0
LINE
  5
385
100
AcDbEntity
  8
0
100
AcDbLine
 62
253
  6
CONTINUOUS
 10
-55.1592421963
 20
13.0032841332
 11
-55.9009367242
 21
12.8991341699
  0
LINE
  5
386
100
AcDbEntity
  8
DRAFT
100
AcDbLine
 62
7
  6
CONTINUOUS
 10
-78.8525253085
 20
11.50167211
 11
-77.4254407911
 21
11.5141260879
  0
LINE
  5
387
100
AcDbEntity
  8
DRAFT
100
AcDbLine
 62
7
  6
CONTINUOUS
 10
-76.1527486833
 20
11.5252327037
 11
-73.3525253085
 21
11.5496698829
  0
LINE
  5
388
100
AcDbEntity
  8
0
100
AcDbLine
 62
253
  6
CONTINUOUS
 10
-74.3525253085
 20
10.0
 11
-75.9714717287
 21
10.0
  0
LINE
  5
389
100
AcDbEntity
  8
0
100
AcDbLine
 62
253
  6
CONTINUOUS
 10
-78.7335788883
 20
10.0
 11
-78.8525253085
 21
10.0
  0
LINE
  5
38A
100
AcDbEntity
  8
ASSI
100
AcDbLine
 62
7
  6
CONTINUOUS
 10
-78.8525253085
 20
10.5
 11
-74.3525253085
 21
10.5
  0
LINE
  5
38B
100
AcDbEntity
  8
ASSI
100
AcDbLine
 62
7
  6
CONTINUOUS
 10
-78.8525253085
 20
11.5
 11
-74.3525253085
 21
11.5
  0
LINE
  5
38C
100
AcDbEntity
  8
0
100
AcDbLine
 62
7
  6
CONTINUOUS
 10
-55.1486329435
 20
9.5095206821
 11
-55.1581114565
 21
9.5097711944
  0
LINE
  5
38D
100
AcDbEntity
  8
0
100
AcDbLine
 62
7
  6
CONTINUOUS
 10
-57.1419287688
 20
-6.5
 11
-57.1527354113
 21
-5.7871633843
  0
LINE
  5
38E
100
AcDbEntity
  8
0
100
AcDbLine
 62
253
  6
CONTINUOUS
 10
-56.4576365157
 20
-4.0431691495
 11
-56.444136881
 21
-4.9336431306
  0
LINE
  5
38F
100
AcDbEntity
  8
0
100
AcDbLine
 62
7
  6
CONTINUOUS
 10
-57.3687493406
 20
-6.4312566708
 11
-57.3687493406
 21
-6.4378734758
  0
LINE
  5
390
100
AcDbEntity
  8
0
100
AcDbLine
 62
253
  6
CONTINUOUS
 10
-57.9605070879
 20
16.0129554133
 11
-57.9105489836
 21
16.9644476203
  0
LINE
  5
391
100
AcDbEntity
  8
0
100
AcDbLine
 62
7
  6
CONTINUOUS
 10
-56.3388588228
 20
1.2195863848
 11
-56.3019845063
 21
1.7300790503
  0
LINE
  5
392
100
AcDbEntity
  8
0
100
AcDbLine
 62
7
  6
CONTINUOUS
 10
-55.067306479
 20
12.9787286108
 11
-55.1163089199
 21
12.779283038
  0
LINE
  5
393
100
AcDbEntity
  8
0
100
AcDbLine
 62
7
  6
CONTINUOUS
 10
-55.8401916
 20
1.8120675673
 11
-55.8367023944
 21
1.8189148455
  0
LINE
  5
394
100
AcDbEntity
  8
0
100
AcDbLine
 62
7
  6
CONTINUOUS
 10
-55.2370787998
 20
13.6888813767
 11
-55.2417327922
 21
13.6884130437
  0
LINE
  5
395
100
AcDbEntity
  8
0
100
AcDbLine
 62
7
  6
CONTINUOUS
 10
-55.2708838657
 20
13.9780976837
 11
-55.2662120273
 21
13.9783886748
  0
LINE
  5
396
100
AcDbEntity
  8
0
100
AcDbLine
 62
7
  6
CONTINUOUS
 10
-55.271205679
 20
13.9914378419
 11
-55.2665286966
 21
13.9915155979
  0
LINE
  5
397
100
AcDbEntity
  8
0
100
AcDbLine
 62
253
  6
CONTINUOUS
 10
-55.33688915
 20
14.5688925915
 11
-55.3320126901
 21
14.5688700193
  0
LINE
  5
398
100
AcDbEntity
  8
RACCORDO
100
AcDbLine
 62
253
  6
CONTINUOUS
 10
-73.3525253085
 20
13.4520212656
 11
-78.8525253085
 21
13.5000190385
  0
LINE
  5
399
100
AcDbEntity
  8
RACCORDO
100
AcDbLine
 62
7
  6
CONTINUOUS
 10
-73.3525253085
 20
13.9520022272
 11
-78.8525253085
 21
14.0
  0
LINE
  5
39A
100
AcDbEntity
  8
0
100
AcDbLine
 62
7
  6
CONTINUOUS
 10
-55.0723360021
 20
11.9746406602
 11
-55.0676587468
 21
11.9745562577
  0
LINE
  5
39B
100
AcDbEntity
  8
0
100
AcDbLine
 62
7
  6
CONTINUOUS
 10
-55.0721645361
 20
12.0289287274
 11
-55.0674876049
 21
12.0287417012
  0
LINE
  5
39C
100
AcDbEntity
  8
RACCORDO
100
AcDbLine
 62
253
  6
CONTINUOUS
 10
-77.678889026
 20
13.9897578313
 11
-78.8525253085
 21
14.2715229736
  0
LINE
  5
39D
100
AcDbEntity
  8
RACCORDO
100
AcDbLine
 62
7
  6
CONTINUOUS
 10
-73.3525253057
 20
13.9795049917
 11
-78.8525253085
 21
15.2999381673
  0
LINE
  5
39E
100
AcDbEntity
  8
0
100
AcDbLine
 62
7
  6
CONTINUOUS
 10
-55.6143954151
 20
3.8623204556
 11
-55.6106496902
 21
3.8596590592
  0
LINE
  5
39F
100
AcDbEntity
  8
0
100
AcDbLine
 62
253
  6
CONTINUOUS
 10
-55.6150361059
 20
3.8627758084
 11
-55.6143954151
 21
3.8623204556
  0
LINE
  5
3A0
100
AcDbEntity
  8
0
100
AcDbLine
 62
253
  6
CONTINUOUS
 10
-55.9865608193
 20
13.6096416539
 11
-56.0195047502
 21
13.936488036
  0
LINE
  5
3A1
100
AcDbEntity
  8
0
100
AcDbLine
 62
253
  6
CONTINUOUS
 10
-55.2417327922
 20
13.6884130437
 11
-55.2708838657
 21
13.9780976837
  0
LINE
  5
3A2
100
AcDbEntity
  8
0
100
AcDbLine
 62
253
  6
CONTINUOUS
 10
-55.271205679
 20
13.9914378419
 11
-55.2708838657
 21
13.9780976837
  0
LINE
  5
3A3
100
AcDbEntity
  8
0
100
AcDbLine
 62
7
  6
CONTINUOUS
 10
-56.0657914703
 20
11.5749886877
 11
-56.0491173256
 21
10.4751150709
  0
LINE
  5
3A4
100
AcDbEntity
  8
0
100
AcDbLine
 62
7
  6
CONTINUOUS
 10
-55.7124401232
 20
-0.4221049472
 11
-55.6563565299
 21
-4.1215369498
  0
LINE
  5
3A5
100
AcDbEntity
  8
0
100
AcDbLine
 62
7
  6
CONTINUOUS
 10
-56.3394111462
 20
1.208661932
 11
-56.3395761596
 21
1.2195755099
  0
LINE
  5
3A6
100
AcDbEntity
  8
0
100
AcDbLine
 62
253
  6
CONTINUOUS
 10
-56.0198169716
 20
13.9794274996
 11
-56.0195047502
 21
13.936488036
  0
LINE
  5
3A7
100
AcDbEntity
  8
0
100
AcDbLine
 62
7
  6
CONTINUOUS
 10
-56.3525253085
 20
7.5
 11
-56.3525253085
 21
6.5
  0
LINE
  5
3A8
100
AcDbEntity
  8
0
100
AcDbLine
 62
7
  6
CONTINUOUS
 10
-56.3525253085
 20
-7.5
 11
-56.3525253085
 21
-6.5
  0
LINE
  5
3A9
100
AcDbEntity
  8
0
100
AcDbLine
 62
7
  6
CONTINUOUS
 10
-55.0675654833
 20
13.7465719425
 11
-55.067565185
 21
12.9787237856
  0
LINE
  5
3AA
100
AcDbEntity
  8
0
100
AcDbLine
 62
253
  6
CONTINUOUS
 10
-55.8210481164
 20
12.0578690525
 11
-55.8212146608
 21
11.988172543
  0
LINE
  5
3AB
100
AcDbEntity
  8
0
100
AcDbLine
 62
253
  6
CONTINUOUS
 10
-55.0723360021
 20
11.9746406602
 11
-55.0721645361
 21
12.0289287274
  0
LINE
  5
3AC
100
AcDbEntity
  8
0
100
AcDbLine
 62
7
  6
CONTINUOUS
 10
-55.2007775078
 20
7.5365524313
 11
-55.1486329435
 21
9.5095206821
  0
LINE
  5
3AD
100
AcDbEntity
  8
0
100
AcDbLine
 62
253
  6
CONTINUOUS
 10
-55.8401933304
 20
1.8120523922
 11
-55.8393438611
 21
1.819229016
  0
LINE
  5
3AE
100
AcDbEntity
  8
0
100
AcDbLine
 62
253
  6
CONTINUOUS
 10
-74.6008243837
 20
-17.9397820262
 11
-74.3307781748
 21
-17.8498397662
  0
LINE
  5
3AF
100
AcDbEntity
  8
0
100
AcDbLine
 62
253
  6
CONTINUOUS
 10
-73.3321723765
 20
-18.8496953671
 11
-73.5437044801
 21
-18.9201487741
  0
LINE
  5
3B0
100
AcDbEntity
  8
0
100
AcDbLine
 62
253
  6
CONTINUOUS
 10
-70.1275473099
 20
17.9822819681
 11
-70.7913374257
 21
17.849847672
  0
LINE
  5
3B1
100
AcDbEntity
  8
ASSI
100
AcDbLine
 62
7
  6
CONTINUOUS
 10
-75.8525253085
 20
15.75
 11
-75.7025253085
 21
15.75
  0
LINE
  5
3B2
100
AcDbEntity
  8
0
100
AcDbLine
 62
253
  6
CONTINUOUS
 10
-70.5299952039
 20
16.5222029381
 11
-67.6774743924
 21
16.5222029381
  0
LINE
  5
3B3
100
AcDbEntity
  8
RACCORDO
100
AcDbLine
 62
253
  6
CONTINUOUS
 10
-78.8525253085
 20
16.5715728753
 11
-75.8525253085
 21
16.5715728753
  0
LINE
  5
3B4
100
AcDbEntity
  8
0
100
AcDbLine
 62
7
  6
CONTINUOUS
 10
-73.3321723765
 20
16.8325
 11
-71.7875321238
 21
16.8325
  0
LINE
  5
3B5
100
AcDbEntity
  8
0
100
AcDbLine
 62
253
  6
CONTINUOUS
 10
-67.6578617568
 20
17.2711750891
 11
-70.4678128083
 21
17.2711750891
  0
LINE
  5
3B6
100
AcDbEntity
  8
0
100
AcDbLine
 62
7
  6
CONTINUOUS
 10
-70.1275473484
 20
17.4750021497
 11
-67.6525243275
 21
17.4750021497
  0
LINE
  5
3B7
100
AcDbEntity
  8
0
100
AcDbLine
 62
253
  6
CONTINUOUS
 10
-57.9605348392
 20
16.0129568677
 11
-67.6774743924
 21
16.5222029381
  0
LINE
  5
3B8
100
AcDbEntity
  8
0
100
AcDbLine
 62
253
  6
CONTINUOUS
 10
-67.6578617568
 20
17.2711750891
 11
-57.9212304615
 21
16.7608970125
  0
LINE
  5
3B9
100
AcDbEntity
  8
0
100
AcDbLine
 62
7
  6
CONTINUOUS
 10
-57.9105489836
 20
16.9644476203
 11
-57.9605072361
 21
16.9670604466
  0
LINE
  5
3BA
100
AcDbEntity
  8
0
100
AcDbLine
 62
7
  6
CONTINUOUS
 10
-67.6525243269
 20
17.4750021727
 11
-57.9605070882
 21
16.9670632697
  0
LINE
  5
3BB
100
AcDbEntity
  8
0
100
AcDbLine
 62
253
  6
CONTINUOUS
 10
-74.5774474076
 20
18.6827708001
 11
-74.3366362798
 21
18.616438086
  0
LINE
  5
3BC
100
AcDbEntity
  8
0
100
AcDbLine
 62
253
  6
CONTINUOUS
 10
-74.330825691
 20
17.8498555921
 11
-74.6008243837
 21
17.9397820262
  0
LINE
  5
3BD
100
AcDbEntity
  8
0
100
AcDbLine
 62
253
  6
CONTINUOUS
 10
-73.5437044801
 20
18.9201487741
 11
-73.3321723765
 21
18.8496953671
  0
LINE
  5
3BE
100
AcDbEntity
  8
0
100
AcDbLine
 62
253
  6
CONTINUOUS
 10
-71.7875321238
 20
18.8496953671
 11
-71.3398130741
 21
18.9390208268
  0
LINE
  5
3BF
100
AcDbEntity
  8
DRAFT
100
AcDbLine
 62
7
  6
CONTINUOUS
 10
-75.8525253085
 20
18.9
 11
-68.3481620407
 21
18.9654895861
  0
LINE
  5
3C0
100
AcDbEntity
  8
0
100
AcDbLine
 62
253
  6
CONTINUOUS
 10
-75.816995247
 20
17.6669022149
 11
-75.3172998335
 21
17.6669022149
  0
LINE
  5
3C1
100
AcDbEntity
  8
0
100
AcDbLine
 62
253
  6
CONTINUOUS
 10
-70.7038487622
 20
17.8325
 11
-74.3832096905
 21
17.8325
  0
LINE
  5
3C2
100
AcDbEntity
  8
0
100
AcDbLine
 62
253
  6
CONTINUOUS
 10
-74.3308019112
 20
17.849847672
 11
-70.7913374257
 21
17.849847672
  0
LINE
  5
3C3
100
AcDbEntity
  8
RACCORDO
100
AcDbLine
 62
253
  6
CONTINUOUS
 10
-78.8525253085
 20
17.9857864376
 11
-75.8525253085
 21
17.9857864376
  0
LINE
  5
3C4
100
AcDbEntity
  8
0
100
AcDbLine
 62
253
  6
CONTINUOUS
 10
-71.7875321238
 20
18.8496953671
 11
-73.3321723765
 21
18.8496953671
  0
LINE
  5
3C5
100
AcDbEntity
  8
0
100
AcDbLine
 62
7
  6
CONTINUOUS
 10
-71.381181442
 20
18.9390208268
 11
-71.3412056873
 21
18.9390208268
  0
LINE
  5
3C6
100
AcDbEntity
  8
RACCORDO
100
AcDbLine
 62
253
  6
CONTINUOUS
 10
-67.8525253085
 20
19.8712857716
 11
-68.3481620407
 21
19.8712857716
  0
LINE
  5
3C7
100
AcDbEntity
  8
RACCORDO
100
AcDbLine
 62
7
  6
CONTINUOUS
 10
-75.8525253085
 20
19.8968626967
 11
-68.3481620407
 21
19.8712857716
  0
LINE
  5
3C8
100
AcDbEntity
  8
RACCORDO
100
AcDbLine
 62
7
  6
CONTINUOUS
 10
-75.8525253085
 20
20.5
 11
-68.3481620407
 21
20.4345104139
  0
LINE
  5
3C9
100
AcDbEntity
  8
0
100
AcDbLine
 62
7
  6
CONTINUOUS
 10
-75.0525253085
 20
22.4199909308
 11
-75.8525253085
 21
22.35
  0
LINE
  5
3CA
100
AcDbEntity
  8
RACCORDO
100
AcDbLine
 62
7
  6
CONTINUOUS
 10
-75.8525253085
 20
21.8408009033
 11
-68.2657012196
 21
20.5030391186
  0
LINE
  5
3CB
100
AcDbEntity
  8
ASSI
100
AcDbLine
 62
7
  6
CONTINUOUS
 10
-75.8525253085
 20
24.9714560971
 11
-78.8525253085
 21
24.9714560971
  0
LINE
  5
3CC
100
AcDbEntity
  8
ASSI
100
AcDbLine
 62
7
  6
CONTINUOUS
 10
-75.8525253085
 20
28.7
 11
-78.8525253085
 21
28.7
  0
LINE
  5
3CD
100
AcDbEntity
  8
0
100
AcDbLine
 62
7
  6
CONTINUOUS
 10
-75.0525253085
 20
28.2800090692
 11
-75.8525253085
 21
28.35
  0
LINE
  5
3CE
100
AcDbEntity
  8
RACCORDO
100
AcDbLine
 62
253
  6
CONTINUOUS
 10
-82.6823000222
 20
38.9333033386
 11
-78.8525253085
 21
39.0001523048
  0
LINE
  5
3CF
100
AcDbEntity
  8
RACCORDO
100
AcDbLine
 62
253
  6
CONTINUOUS
 10
-83.1679189455
 20
39.4865874394
 11
-85.2432840612
 21
39.4503659544
  0
LINE
  5
3D0
100
AcDbEntity
  8
RACCORDO
100
AcDbLine
 62
7
  6
CONTINUOUS
 10
-84.7549402448
 20
39.8969729641
 11
-78.8525253085
 21
40.0
  0
LINE
  5
3D1
100
AcDbEntity
  8
RACCORDO
100
AcDbLine
 62
253
  6
CONTINUOUS
 10
-85.2432840612
 20
39.4503659544
 11
-85.2433502055
 21
39.4503655636
  0
ARC
  5
3D2
100
AcDbEntity
  8
0
100
AcDbCircle
 62
7
  6
CONTINUOUS
 10
-2.5
 20
-2.4996245727
 40
1.0
100
AcDbArc
 50
0.0
 51
90.0
  0
ARC
  5
3D3
100
AcDbEntity
  8
RACCORDO
100
AcDbCircle
 62
253
  6
CONTINUOUS
 10
-38.9344554022
 20
-38.9344554044
 40
0.998681957
100
AcDbArc
 50
179.933905305
 51
270.0664003655
  0
ARC
  5
3D4
100
AcDbEntity
  8
RACCORDO
100
AcDbCircle
 62
253
  6
CONTINUOUS
 10
-38.9873207816
 20
-38.9873207816
 40
0.4992529022
100
AcDbArc
 50
179.8469477988
 51
270.1530522011
  0
ARC
  5
3D5
100
AcDbEntity
  8
RACCORDO
100
AcDbCircle
 62
253
  6
CONTINUOUS
 10
-20989.0997194487
 20
-0.000000172
 40
20949.202746484
100
AcDbArc
 50
359.8935178935
 51
0.1064820929
  0
CIRCLE
  5
3D6
100
AcDbEntity
  8
0
100
AcDbCircle
 62
7
  6
CONTINUOUS
 10
-25.0
 20
-0.0
 40
3.0
  0
CIRCLE
  5
3D7
100
AcDbEntity
  8
0
100
AcDbCircle
 62
7
  6
CONTINUOUS
 10
-25.0
 20
0.0
 40
2.5
  0
ARC
  5
3D8
100
AcDbEntity
  8
0
100
AcDbCircle
 62
7
  6
CONTINUOUS
 10
-2.5
 20
2.5003754273
 40
1.0
100
AcDbArc
 50
270.0
 51
360.0
  0
ARC
  5
3D9
100
AcDbEntity
  8
RACCORDO
100
AcDbCircle
 62
253
  6
CONTINUOUS
 10
-38.9344554044
 20
38.9344554022
 40
0.998681957
100
AcDbArc
 50
89.933905305
 51
180.0664003655
  0
ARC
  5
3DA
100
AcDbEntity
  8
RACCORDO
100
AcDbCircle
 62
253
  6
CONTINUOUS
 10
-38.9873252246
 20
38.9873252246
 40
0.4992473614
100
AcDbArc
 50
89.8464365473
 51
180.1535634527
  0
ARC
  5
3DB
100
AcDbEntity
  8
RACCORDO
100
AcDbCircle
 62
253
  6
CONTINUOUS
 10
-0.0
 20
-21017.0009464192
 40
20977.5505860049
100
AcDbArc
 50
89.893517892
 51
90.106482108
  0
ARC
  5
3DC
100
AcDbEntity
  8
RACCORDO
100
AcDbCircle
 62
253
  6
CONTINUOUS
 10
0.0000000536
 20
-20989.0994599399
 40
20949.2024869759
100
AcDbArc
 50
89.8935178919
 51
90.1064820938
  0
ARC
  5
3DD
100
AcDbEntity
  8
0
100
AcDbCircle
 62
7
  6
CONTINUOUS
 10
2.5
 20
-2.4996245879
 40
1.0
100
AcDbArc
 50
90.0
 51
180.0
  0
ARC
  5
3DE
100
AcDbEntity
  8
RACCORDO
100
AcDbCircle
 62
253
  6
CONTINUOUS
 10
38.9344552652
 20
-38.9344552629
 40
0.998681957
100
AcDbArc
 50
269.9339133048
 51
0.0663923657
  0
ARC
  5
3DF
100
AcDbEntity
  8
0
100
AcDbCircle
 62
7
  6
CONTINUOUS
 10
29.498725
 20
-31.516657
 40
0.7667158029
100
AcDbArc
 50
292.8428457417
 51
90.0
  0
ARC
  5
3E0
100
AcDbEntity
  8
RACCORDO
100
AcDbCircle
 62
253
  6
CONTINUOUS
 10
38.9873207816
 20
-38.9873207816
 40
0.4992529022
100
AcDbArc
 50
269.8469477988
 51
0.1530522011
  0
ARC
  5
3E1
100
AcDbEntity
  8
0
100
AcDbCircle
 62
7
  6
CONTINUOUS
 10
29.429323
 20
-31.516657
 40
0.304195
100
AcDbArc
 50
270.0
 51
90.0
  0
CIRCLE
  5
3E2
100
AcDbEntity
  8
RACCORDO
100
AcDbCircle
 62
253
  6
CONTINUOUS
 10
0.0
 20
0.0
 40
7.894908795
  0
CIRCLE
  5
3E3
100
AcDbEntity
  8
RACCORDO
100
AcDbCircle
 62
253
  6
CONTINUOUS
 10
0.0
 20
0.0
 40
7.0778691834
  0
CIRCLE
  5
3E4
100
AcDbEntity
  8
DRAFT
100
AcDbCircle
 62
7
  6
CONTINUOUS
 10
0.0
 20
0.0
 40
7.0
  0
CIRCLE
  5
3E5
100
AcDbEntity
  8
0
100
AcDbCircle
 62
7
  6
CONTINUOUS
 10
0.0
 20
0.0
 40
5.7
  0
CIRCLE
  5
3E6
100
AcDbEntity
  8
0
100
AcDbCircle
 62
7
  6
CONTINUOUS
 10
-0.0
 20
0.0003754273
 40
5.675
  0
CIRCLE
  5
3E7
100
AcDbEntity
  8
0
100
AcDbCircle
 62
253
  6
CONTINUOUS
 10
-0.0
 20
0.0003754273
 40
5.2125
  0
CIRCLE
  5
3E8
100
AcDbEntity
  8
0
100
AcDbCircle
 62
7
  6
CONTINUOUS
 10
-0.0
 20
0.0003754273
 40
4.75
  0
CIRCLE
  5
3E9
100
AcDbEntity
  8
0
100
AcDbCircle
 62
253
  6
CONTINUOUS
 10
-0.0
 20
0.0003754273
 40
4.5
  0
CIRCLE
  5
3EA
100
AcDbEntity
  8
0
100
AcDbCircle
 62
253
  6
CONTINUOUS
 10
-0.0
 20
0.0003754273
 40
4.3544018482
  0
CIRCLE
  5
3EB
100
AcDbEntity
  8
0
100
AcDbCircle
 62
7
  6
CONTINUOUS
 10
-0.0
 20
0.0003754273
 40
4.1044018482
  0
CIRCLE
  5
3EC
100
AcDbEntity
  8
0
100
AcDbCircle
 62
7
  6
CONTINUOUS
 10
-0.0
 20
0.0003754121
 40
1.1800001475
  0
CIRCLE
  5
3ED
100
AcDbEntity
  8
0
100
AcDbCircle
 62
253
  6
CONTINUOUS
 10
-0.0
 20
0.0003754121
 40
1.1431244734
  0
CIRCLE
  5
3EE
100
AcDbEntity
  8
0
100
AcDbCircle
 62
253
  6
CONTINUOUS
 10
-0.0
 20
0.0003754121
 40
0.6634724723
  0
CIRCLE
  5
3EF
100
AcDbEntity
  8
0
100
AcDbCircle
 62
253
  6
CONTINUOUS
 10
-0.0
 20
0.0003754121
 40
0.4320024962
  0
ARC
  5
3F0
100
AcDbEntity
  8
0
100
AcDbCircle
 62
7
  6
CONTINUOUS
 10
2.5
 20
2.5003754121
 40
1.0
100
AcDbArc
 50
180.0
 51
270.0
  0
CIRCLE
  5
3F1
100
AcDbEntity
  8
0
100
AcDbCircle
 62
7
  6
CONTINUOUS
 10
25.0
 20
-0.0
 40
3.0
  0
CIRCLE
  5
3F2
100
AcDbEntity
  8
0
100
AcDbCircle
 62
7
  6
CONTINUOUS
 10
25.0
 20
0.0
 40
2.5
  0
ARC
  5
3F3
100
AcDbEntity
  8
RACCORDO
100
AcDbCircle
 62
253
  6
CONTINUOUS
 10
38.9344552629
 20
38.9344552652
 40
0.998681957
100
AcDbArc
 50
359.9339133048
 51
90.0663923657
  0
ARC
  5
3F4
100
AcDbEntity
  8
RACCORDO
100
AcDbCircle
 62
253
  6
CONTINUOUS
 10
38.9873252246
 20
38.9873252246
 40
0.4992473615
100
AcDbArc
 50
359.8464365539
 51
90.1535634461
  0
ARC
  5
3F5
100
AcDbEntity
  8
RACCORDO
100
AcDbCircle
 62
253
  6
CONTINUOUS
 10
0.0
 20
21017.0009464584
 40
20977.5505860441
100
AcDbArc
 50
269.893517892
 51
270.106482108
  0
ARC
  5
3F6
100
AcDbEntity
  8
RACCORDO
100
AcDbCircle
 62
253
  6
CONTINUOUS
 10
-0.0000000536
 20
20989.0994599445
 40
20949.2024869804
100
AcDbArc
 50
269.8935178919
 51
270.1064820938
  0
ARC
  5
3F7
100
AcDbEntity
  8
RACCORDO
100
AcDbCircle
 62
253
  6
CONTINUOUS
 10
20989.0997194487
 20
0.000000172
 40
20949.202746484
100
AcDbArc
 50
179.8935178935
 51
180.1064820929
  0
ARC
  5
3F8
100
AcDbEntity
  8
RACCORDO
100
AcDbCircle
 62
7
  6
CONTINUOUS
 10
-84.7462140416
 20
-39.3970491165
 40
0.5
100
AcDbArc
 50
186.1206593041
 51
269.0
  0
ARC
  5
3F9
100
AcDbEntity
  8
0
100
AcDbCircle
 62
7
  6
CONTINUOUS
 10
-80.8437876683
 20
-11.1019354555
 40
4.9958313928
100
AcDbArc
 50
7.4862726605
 51
8.8475384662
  0
ARC
  5
3FA
100
AcDbEntity
  8
0
100
AcDbCircle
 62
7
  6
CONTINUOUS
 10
-73.861466946
 20
-11.1019077854
 40
4.9956255292
100
AcDbArc
 50
171.1803481117
 51
172.5137371536
  0
ARC
  5
3FB
100
AcDbEntity
  8
ASSI
100
AcDbCircle
 62
7
  6
CONTINUOUS
 10
-77.3525253085
 20
-10.5853981634
 40
1.5
100
AcDbArc
 50
22.9710170001
 51
157.0289829999
  0
ARC
  5
3FC
100
AcDbEntity
  8
0
100
AcDbCircle
 62
7
  6
CONTINUOUS
 10
-76.1525253085
 20
-10.4
 40
1.5
100
AcDbArc
 50
227.1665719339
 51
228.1264738466
  0
ARC
  5
3FD
100
AcDbEntity
  8
0
100
AcDbCircle
 62
7
  6
CONTINUOUS
 10
-76.1525253085
 20
-10.4
 40
1.5
100
AcDbArc
 50
310.8673751594
 51
312.8334280661
  0
ARC
  5
3FE
100
AcDbEntity
  8
0
100
AcDbCircle
 62
253
  6
CONTINUOUS
 10
-72.3559233855
 20
-4.0
 40
1.2536750172
100
AcDbArc
 50
140.423569707
 51
219.576430293
  0
ARC
  5
3FF
100
AcDbEntity
  8
0
100
AcDbCircle
 62
253
  6
CONTINUOUS
 10
-72.2086225837
 20
-4.0002762655
 40
1.2529071812
100
AcDbArc
 50
179.9873663062
 51
219.5883963817
  0
ARC
  5
400
100
AcDbEntity
  8
0
100
AcDbCircle
 62
253
  6
CONTINUOUS
 10
-72.2086225837
 20
-3.9997237345
 40
1.2529071812
100
AcDbArc
 50
140.4116036183
 51
180.0126336938
  0
ARC
  5
401
100
AcDbEntity
  8
0
100
AcDbCircle
 62
7
  6
CONTINUOUS
 10
-71.8507684556
 20
-6.4263826349
 40
1.0736173652
100
AcDbArc
 50
250.2425288449
 51
269.9989305314
  0
ARC
  5
402
100
AcDbEntity
  8
0
100
AcDbCircle
 62
7
  6
CONTINUOUS
 10
-73.3025253085
 20
-7.5
 40
1.05
100
AcDbArc
 50
163.049802301
 51
180.0
  0
ARC
  5
403
100
AcDbEntity
  8
0
100
AcDbCircle
 62
7
  6
CONTINUOUS
 10
-73.3317643764
 20
-17.8416722944
 40
1.0091810192
100
AcDbArc
 50
92.7228950424
 51
94.770824396
  0
ARC
  5
404
100
AcDbEntity
  8
0
100
AcDbCircle
 62
7
  6
CONTINUOUS
 10
-74.8482070671
 20
-17.6406138105
 40
1.006110718
100
AcDbArc
 50
223.7167739548
 51
238.0172868246
  0
ARC
  5
405
100
AcDbEntity
  8
0
100
AcDbCircle
 62
7
  6
CONTINUOUS
 10
-73.6089073511
 20
-18.4159735266
 40
1.0046147885
100
AcDbArc
 50
195.4009022414
 51
209.5844108547
  0
ARC
  5
406
100
AcDbEntity
  8
0
100
AcDbCircle
 62
253
  6
CONTINUOUS
 10
-74.8141971383
 20
-17.664389069
 40
1.003991674
100
AcDbArc
 50
218.7204370523
 51
233.1805290756
  0
ARC
  5
407
100
AcDbEntity
  8
0
100
AcDbCircle
 62
7
  6
CONTINUOUS
 10
-74.8503118695
 20
-17.6435708911
 40
1.0025460524
100
AcDbArc
 50
214.1131135188
 51
223.6777598868
  0
ARC
  5
408
100
AcDbEntity
  8
0
100
AcDbCircle
 62
253
  6
CONTINUOUS
 10
-74.8166536757
 20
-17.666793502
 40
1.0005948044
100
AcDbArc
 50
233.2106235498
 51
238.0473780578
  0
ARC
  5
409
100
AcDbEntity
  8
0
100
AcDbCircle
 62
253
  6
CONTINUOUS
 10
-74.8164014132
 20
-17.6672501299
 40
1.0005938947
100
AcDbArc
 50
179.9800396507
 51
184.8160557417
  0
ARC
  5
40A
100
AcDbEntity
  8
0
100
AcDbCircle
 62
7
  6
CONTINUOUS
 10
-74.8519993334
 20
-17.6446813784
 40
1.0005261545
100
AcDbArc
 50
181.3766355235
 51
214.1146579675
  0
ARC
  5
40B
100
AcDbEntity
  8
0
100
AcDbCircle
 62
253
  6
CONTINUOUS
 10
-73.3304367871
 20
-17.8494159796
 40
1.0003247437
100
AcDbArc
 50
180.0247251222
 51
269.9005859302
  0
ARC
  5
40C
100
AcDbEntity
  8
0
100
AcDbCircle
 62
7
  6
CONTINUOUS
 10
-73.3321723765
 20
-17.8325
 40
1.0
100
AcDbArc
 50
90.0
 51
93.0041151424
  0
ARC
  5
40D
100
AcDbEntity
  8
0
100
AcDbCircle
 62
253
  6
CONTINUOUS
 10
-74.8170063351
 20
-17.6672857345
 40
0.9999881194
100
AcDbArc
 50
184.816932874
 51
218.6916290753
  0
ARC
  5
40E
100
AcDbEntity
  8
0
100
AcDbCircle
 62
7
  6
CONTINUOUS
 10
-73.6019564304
 20
-17.9396084783
 40
0.9989245021
100
AcDbArc
 50
212.164162269
 51
222.6530876635
  0
ARC
  5
40F
100
AcDbEntity
  8
0
100
AcDbCircle
 62
7
  6
CONTINUOUS
 10
-73.6022749062
 20
-17.9398089295
 40
0.9985494779
100
AcDbArc
 50
179.9984563194
 51
212.1641537976
  0
ARC
  5
410
100
AcDbEntity
  8
0
100
AcDbCircle
 62
7
  6
CONTINUOUS
 10
-73.6761131609
 20
-18.4199405408
 40
0.9688132578
100
AcDbArc
 50
199.9435086204
 51
210.5289914606
  0
ARC
  5
411
100
AcDbEntity
  8
0
100
AcDbCircle
 62
253
  6
CONTINUOUS
 10
-75.6525253085
 20
-4.0
 40
0.8306623863
100
AcDbArc
 50
90.0000000001
 51
269.9999999994
  0
ARC
  5
412
100
AcDbEntity
  8
0
100
AcDbCircle
 62
253
  6
CONTINUOUS
 10
-75.6525253085
 20
-4.0
 40
0.7987138197
100
AcDbArc
 50
90.0000000001
 51
269.9999999997
  0
ARC
  5
413
100
AcDbEntity
  8
0
100
AcDbCircle
 62
253
  6
CONTINUOUS
 10
-73.6119140584
 20
-18.4167504953
 40
0.7517297504
100
AcDbArc
 50
195.4048192699
 51
221.5230926089
  0
ARC
  5
414
100
AcDbEntity
  8
0
100
AcDbCircle
 62
253
  6
CONTINUOUS
 10
-74.8167803286
 20
-17.6668032545
 40
0.5005197146
100
AcDbArc
 50
180.0112520594
 51
238.0578020313
  0
ARC
  5
415
100
AcDbEntity
  8
RACCORDO
100
AcDbCircle
 62
7
  6
CONTINUOUS
 10
-78.3525253085
 20
-5.116336506
 40
0.5
100
AcDbArc
 50
285.0
 51
360.0
  0
ARC
  5
416
100
AcDbEntity
  8
0
100
AcDbCircle
 62
7
  6
CONTINUOUS
 10
-73.8101834934
 20
-6.6675451729
 40
0.2176207663
100
AcDbArc
 50
90.0403088408
 51
95.9655668014
  0
ARC
  5
417
100
AcDbEntity
  8
RACCORDO
100
AcDbCircle
 62
7
  6
CONTINUOUS
 10
-68.3525253085
 20
-19.9345294524
 40
0.5
100
AcDbArc
 50
270.5
 51
360.0
  0
ARC
  5
418
100
AcDbEntity
  8
RACCORDO
100
AcDbCircle
 62
7
  6
CONTINUOUS
 10
-68.3525253085
 20
-20.0106352421
 40
0.5
100
AcDbArc
 50
280.0
 51
2.3133205357
  0
ARC
  5
419
100
AcDbEntity
  8
0
100
AcDbCircle
 62
7
  6
CONTINUOUS
 10
-68.0644554607
 20
-15.2571841643
 40
9.7592647339
100
AcDbArc
 50
44.1937763092
 51
45.830097147
  0
ARC
  5
41A
100
AcDbEntity
  8
0
100
AcDbCircle
 62
7
  6
CONTINUOUS
 10
-65.0251094148
 20
-5.2502140606
 40
3.1131044777
100
AcDbArc
 50
276.1504093914
 51
276.3096583781
  0
ARC
  5
41B
100
AcDbEntity
  8
0
100
AcDbCircle
 62
7
  6
CONTINUOUS
 10
-63.9247963113
 20
-2.7746253779
 40
3.0
100
AcDbArc
 50
225.0
 51
270.0
  0
ARC
  5
41C
100
AcDbEntity
  8
0
100
AcDbCircle
 62
7
  6
CONTINUOUS
 10
-59.7213894235
 20
-5.4333781681
 40
3.0
100
AcDbArc
 50
270.8685406451
 51
316.4334724165
  0
ARC
  5
41D
100
AcDbEntity
  8
0
100
AcDbCircle
 62
7
  6
CONTINUOUS
 10
-59.7213894235
 20
-5.4333781681
 40
3.0
100
AcDbArc
 50
339.1709291062
 51
350.3543741014
  0
ARC
  5
41E
100
AcDbEntity
  8
0
100
AcDbCircle
 62
7
  6
CONTINUOUS
 10
-59.9598062301
 20
-5.37479301
 40
2.8006831077
100
AcDbArc
 50
269.9987642779
 51
309.7532700091
  0
ARC
  5
41F
100
AcDbEntity
  8
0
100
AcDbCircle
 62
7
  6
CONTINUOUS
 10
-59.9585408257
 20
-5.3755986424
 40
2.7992545662
100
AcDbArc
 50
309.74390249
 51
310.6254505496
  0
ARC
  5
420
100
AcDbEntity
  8
0
100
AcDbCircle
 62
7
  6
CONTINUOUS
 10
-59.9585408257
 20
-5.3755986424
 40
2.7992545662
100
AcDbArc
 50
336.3157648934
 51
337.698137382
  0
ARC
  5
421
100
AcDbEntity
  8
0
100
AcDbCircle
 62
253
  6
CONTINUOUS
 10
-59.9598062301
 20
-5.37479301
 40
2.7980230313
100
AcDbArc
 50
269.9987592503
 51
309.7532700091
  0
ARC
  5
422
100
AcDbEntity
  8
0
100
AcDbCircle
 62
253
  6
CONTINUOUS
 10
-59.9585408257
 20
-5.3755986424
 40
2.7965944897
100
AcDbArc
 50
336.2565350322
 51
337.8234744192
  0
ARC
  5
423
100
AcDbEntity
  8
0
100
AcDbCircle
 62
253
  6
CONTINUOUS
 10
-59.9585408257
 20
-5.3755986424
 40
2.7965944897
100
AcDbArc
 50
309.7438980367
 51
310.5615122906
  0
ARC
  5
424
100
AcDbEntity
  8
0
100
AcDbCircle
 62
7
  6
CONTINUOUS
 10
-64.9239959551
 20
-6.1889029273
 40
2.1689854607
100
AcDbArc
 50
275.8601448884
 51
276.1514289455
  0
ARC
  5
425
100
AcDbEntity
  8
0
100
AcDbCircle
 62
253
  6
CONTINUOUS
 10
-59.9585408257
 20
-5.3755986424
 40
2.0470513695
100
AcDbArc
 50
326.6754514156
 51
332.3003255701
  0
ARC
  5
426
100
AcDbEntity
  8
0
100
AcDbCircle
 62
7
  6
CONTINUOUS
 10
-64.9029809652
 20
-6.3857325873
 40
1.9710389399
100
AcDbArc
 50
275.1404541677
 51
275.8366357073
  0
ARC
  5
427
100
AcDbEntity
  8
0
100
AcDbCircle
 62
7
  6
CONTINUOUS
 10
-65.5158395387
 20
-6.525493389
 40
1.8494045156
100
AcDbArc
 50
270.2429450582
 51
270.5324621746
  0
ARC
  5
428
100
AcDbEntity
  8
0
100
AcDbCircle
 62
7
  6
CONTINUOUS
 10
-65.51583021
 20
-6.5266320234
 40
1.8482658597
100
AcDbArc
 50
270.2428055331
 51
270.5314608677
  0
ARC
  5
429
100
AcDbEntity
  8
0
100
AcDbCircle
 62
7
  6
CONTINUOUS
 10
-64.8275637363
 20
-7.0653018382
 40
1.2873048704
100
AcDbArc
 50
276.4490804851
 51
276.6552643915
  0
ARC
  5
42A
100
AcDbEntity
  8
0
100
AcDbCircle
 62
7
  6
CONTINUOUS
 10
-65.6674369985
 20
-3.8604118155
 40
1.0
100
AcDbArc
 50
180.0
 51
225.0
  0
ARC
  5
42B
100
AcDbEntity
  8
0
100
AcDbCircle
 62
7
  6
CONTINUOUS
 10
-64.7929735393
 20
-7.3585799011
 40
0.9919943075
100
AcDbArc
 50
276.6340339592
 51
277.4349541165
  0
ARC
  5
42C
100
AcDbEntity
  8
0
100
AcDbCircle
 62
7
  6
CONTINUOUS
 10
-64.7773964304
 20
-7.482923013
 40
0.8666811748
100
AcDbArc
 50
277.4775236153
 51
278.4090187666
  0
ARC
  5
42D
100
AcDbEntity
  8
0
100
AcDbCircle
 62
7
  6
CONTINUOUS
 10
-56.5123492913
 20
-0.4341601528
 40
0.8
100
AcDbArc
 50
0.8685406451
 51
40.1257177971
  0
ARC
  5
42E
100
AcDbEntity
  8
0
100
AcDbCircle
 62
7
  6
CONTINUOUS
 10
-56.4562635318
 20
-4.1337350456
 40
0.8
100
AcDbArc
 50
270.8685406451
 51
0.8685406451
  0
ARC
  5
42F
100
AcDbEntity
  8
RACCORDO
100
AcDbCircle
 62
7
  6
CONTINUOUS
 10
-68.3525253085
 20
-19.4654705476
 40
0.5
100
AcDbArc
 50
0.0
 51
89.5
  0
ARC
  5
430
100
AcDbEntity
  8
0
100
AcDbCircle
 62
7
  6
CONTINUOUS
 10
-57.1620948804
 20
-5.2872348726
 40
0.5
100
AcDbArc
 50
269.8685406451
 51
350.6290578076
  0
ARC
  5
431
100
AcDbEntity
  8
0
100
AcDbCircle
 62
7
  6
CONTINUOUS
 10
-56.1709010388
 20
-0.6670694571
 40
0.4625393284
100
AcDbArc
 50
14.4882742473
 51
21.0046385682
  0
ARC
  5
432
100
AcDbEntity
  8
0
100
AcDbCircle
 62
7
  6
CONTINUOUS
 10
-56.1563432935
 20
-0.6633302681
 40
0.4475090592
100
AcDbArc
 50
0.9372410206
 51
14.491066051
  0
ARC
  5
433
100
AcDbEntity
  8
RACCORDO
100
AcDbCircle
 62
253
  6
CONTINUOUS
 10
-68.0920697805
 20
-19.5237246218
 40
0.2395446137
100
AcDbArc
 50
350.0689336226
 51
359.9376933177
  0
ARC
  5
434
100
AcDbEntity
  8
0
100
AcDbCircle
 62
253
  6
CONTINUOUS
 10
-237.6435187749
 20
18.8474350732
 40
182.1587609173
100
AcDbArc
 50
353.3319816813
 51
353.5474498692
  0
ARC
  5
435
100
AcDbEntity
  8
0
100
AcDbCircle
 62
253
  6
CONTINUOUS
 10
-232.2674676302
 20
18.0928471077
 40
176.7323247891
100
AcDbArc
 50
353.8844216382
 51
354.0006183641
  0
ARC
  5
436
100
AcDbEntity
  8
0
100
AcDbCircle
 62
253
  6
CONTINUOUS
 10
-230.1222842663
 20
17.8163828568
 40
174.570048908
100
AcDbArc
 50
354.0865776427
 51
354.253320089
  0
ARC
  5
437
100
AcDbEntity
  8
0
100
AcDbCircle
 62
253
  6
CONTINUOUS
 10
-211.7038167663
 20
15.886419545
 40
156.0505994723
100
AcDbArc
 50
353.5574166518
 51
353.8019997995
  0
ARC
  5
438
100
AcDbEntity
  8
0
100
AcDbCircle
 62
7
  6
CONTINUOUS
 10
-175.0673513925
 20
14.1704239485
 40
120.0
100
AcDbArc
 50
353.5600827633
 51
358.3240813398
  0
ARC
  5
439
100
AcDbEntity
  8
0
100
AcDbCircle
 62
7
  6
CONTINUOUS
 10
-175.0673513925
 20
14.1704239485
 40
120.0
100
AcDbArc
 50
350.3543741014
 51
352.1902368349
  0
ARC
  5
43A
100
AcDbEntity
  8
0
100
AcDbCircle
 62
7
  6
CONTINUOUS
 10
-175.0002626041
 20
15.9239496807
 40
119.9976115449
100
AcDbArc
 50
354.2298102338
 51
358.113925154
  0
ARC
  5
43B
100
AcDbEntity
  8
0
100
AcDbCircle
 62
7
  6
CONTINUOUS
 10
-175.0002626041
 20
15.9239496807
 40
119.9929340327
100
AcDbArc
 50
354.2311324064
 51
358.1138922005
  0
ARC
  5
43C
100
AcDbEntity
  8
0
100
AcDbCircle
 62
7
  6
CONTINUOUS
 10
-174.9696113648
 20
15.9214374712
 40
119.9647073999
100
AcDbArc
 50
353.248950075
 51
354.2295321965
  0
ARC
  5
43D
100
AcDbEntity
  8
0
100
AcDbCircle
 62
253
  6
CONTINUOUS
 10
-174.9696113648
 20
15.9214374712
 40
119.9620473234
100
AcDbArc
 50
353.248950075
 51
354.2306689094
  0
ARC
  5
43E
100
AcDbEntity
  8
0
100
AcDbCircle
 62
253
  6
CONTINUOUS
 10
-175.1565514281
 20
15.9414627775
 40
119.4008848535
100
AcDbArc
 50
354.2059529395
 51
357.3901770244
  0
ARC
  5
43F
100
AcDbEntity
  8
0
100
AcDbCircle
 62
253
  6
CONTINUOUS
 10
-175.1336747659
 20
15.94285956
 40
119.3779824161
100
AcDbArc
 50
357.8811093552
 51
358.1015901338
  0
ARC
  5
440
100
AcDbEntity
  8
0
100
AcDbCircle
 62
7
  6
CONTINUOUS
 10
-164.4444130443
 20
12.612070427
 40
109.2644185831
100
AcDbArc
 50
352.9195152955
 51
353.6679086457
  0
ARC
  5
441
100
AcDbEntity
  8
0
100
AcDbCircle
 62
7
  6
CONTINUOUS
 10
-158.9153212369
 20
11.9272803246
 40
103.6930821527
100
AcDbArc
 50
352.7236472563
 51
352.9184283206
  0
ARC
  5
442
100
AcDbEntity
  8
0
100
AcDbCircle
 62
7
  6
CONTINUOUS
 10
-157.828971151
 20
11.791628595
 40
102.5982997058
100
AcDbArc
 50
352.3963577487
 51
352.721953702
  0
ARC
  5
443
100
AcDbEntity
  8
0
100
AcDbCircle
 62
7
  6
CONTINUOUS
 10
-154.9484662073
 20
11.4102445788
 40
99.6926582094
100
AcDbArc
 50
352.1906594708
 51
352.3945668324
  0
ARC
  5
444
100
AcDbEntity
  8
0
100
AcDbCircle
 62
7
  6
CONTINUOUS
 10
-65.5616234427
 20
7.8247230551
 40
16.1995674135
100
AcDbArc
 50
270.4779813396
 51
270.8891850403
  0
ARC
  5
445
100
AcDbEntity
  8
0
100
AcDbCircle
 62
7
  6
CONTINUOUS
 10
-65.5597896494
 20
7.7185686446
 40
16.0933973294
100
AcDbArc
 50
270.8885221073
 51
271.0791367051
  0
ARC
  5
446
100
AcDbEntity
  8
0
100
AcDbCircle
 62
7
  6
CONTINUOUS
 10
-65.5520834881
 20
7.3110321744
 40
15.6857880084
100
AcDbArc
 50
271.0790289232
 51
271.2071855927
  0
ARC
  5
447
100
AcDbEntity
  8
0
100
AcDbCircle
 62
7
  6
CONTINUOUS
 10
-65.532462313
 20
6.4079437289
 40
14.7824861603
100
AcDbArc
 50
271.2825685681
 51
271.399664794
  0
ARC
  5
448
100
AcDbEntity
  8
0
100
AcDbCircle
 62
7
  6
CONTINUOUS
 10
-65.4889244398
 20
4.7563535216
 40
13.1303201559
100
AcDbArc
 50
271.6170397263
 51
271.7320388488
  0
ARC
  5
449
100
AcDbEntity
  8
0
100
AcDbCircle
 62
7
  6
CONTINUOUS
 10
-61.7769500263
 20
2.6643988979
 40
10.8790668399
100
AcDbArc
 50
271.4550968571
 51
272.7662846149
  0
ARC
  5
44A
100
AcDbEntity
  8
0
100
AcDbCircle
 62
7
  6
CONTINUOUS
 10
-65.4142006598
 20
2.3737370535
 40
10.746534063
100
AcDbArc
 50
271.7177788691
 51
272.5355495138
  0
ARC
  5
44B
100
AcDbEntity
  8
0
100
AcDbCircle
 62
7
  6
CONTINUOUS
 10
-76.0415446599
 20
0.0
 40
10.4880884817
100
AcDbArc
 50
169.1453889791
 51
190.8546123257
  0
ARC
  5
44C
100
AcDbEntity
  8
0
100
AcDbCircle
 62
253
  6
CONTINUOUS
 10
-72.3559233855
 20
4.0
 40
1.2536750172
100
AcDbArc
 50
140.423569707
 51
219.576430293
  0
ARC
  5
44D
100
AcDbEntity
  8
0
100
AcDbCircle
 62
253
  6
CONTINUOUS
 10
-72.2086225837
 20
4.0002762655
 40
1.2529071812
100
AcDbArc
 50
140.4116036183
 51
180.0126336938
  0
ARC
  5
44E
100
AcDbEntity
  8
0
100
AcDbCircle
 62
253
  6
CONTINUOUS
 10
-72.2086225837
 20
3.9997237345
 40
1.2529071812
100
AcDbArc
 50
179.9873663062
 51
219.5883963817
  0
ARC
  5
44F
100
AcDbEntity
  8
0
100
AcDbCircle
 62
7
  6
CONTINUOUS
 10
-73.3025253085
 20
7.5
 40
1.05
100
AcDbArc
 50
180.0
 51
196.950197699
  0
ARC
  5
450
100
AcDbEntity
  8
0
100
AcDbCircle
 62
253
  6
CONTINUOUS
 10
-75.6525253085
 20
4.0
 40
0.8306623863
100
AcDbArc
 50
90.0000000001
 51
269.9999999994
  0
ARC
  5
451
100
AcDbEntity
  8
0
100
AcDbCircle
 62
253
  6
CONTINUOUS
 10
-75.6525253085
 20
4.0
 40
0.7987138197
100
AcDbArc
 50
90.0000000001
 51
269.9999999997
  0
ARC
  5
452
100
AcDbEntity
  8
RACCORDO
100
AcDbCircle
 62
7
  6
CONTINUOUS
 10
-78.3525253085
 20
5.116336506
 40
0.5
100
AcDbArc
 50
0.0
 51
75.0
  0
ARC
  5
453
100
AcDbEntity
  8
0
100
AcDbCircle
 62
7
  6
CONTINUOUS
 10
-56.3279989206
 20
0.7087682351
 40
0.5
100
AcDbArc
 50
353.5319101802
 51
356.6681189976
  0
ARC
  5
454
100
AcDbEntity
  8
0
100
AcDbCircle
 62
7
  6
CONTINUOUS
 10
-56.3279989206
 20
0.7087682351
 40
0.5
100
AcDbArc
 50
2.0302036663
 51
91.8685406451
  0
ARC
  5
455
100
AcDbEntity
  8
0
100
AcDbCircle
 62
7
  6
CONTINUOUS
 10
-94.7603685616
 20
12.1011772282
 40
39.6928654153
100
AcDbArc
 50
359.8935590234
 51
0.026232554
  0
ARC
  5
456
100
AcDbEntity
  8
0
100
AcDbCircle
 62
7
  6
CONTINUOUS
 10
-80.8435836711
 20
11.1019077854
 40
4.9956255293
100
AcDbArc
 50
351.1803481117
 51
352.5137371536
  0
ARC
  5
457
100
AcDbEntity
  8
ASSI
100
AcDbCircle
 62
7
  6
CONTINUOUS
 10
-77.3525253085
 20
10.5853981634
 40
1.5
100
AcDbArc
 50
202.9710170001
 51
337.0289829999
  0
ARC
  5
458
100
AcDbEntity
  8
0
100
AcDbCircle
 62
7
  6
CONTINUOUS
 10
-76.1525253085
 20
10.4
 40
1.5
100
AcDbArc
 50
131.8735261534
 51
132.8334280661
  0
ARC
  5
459
100
AcDbEntity
  8
0
100
AcDbCircle
 62
7
  6
CONTINUOUS
 10
-76.1525253085
 20
10.4
 40
1.5
100
AcDbArc
 50
47.1665719339
 51
49.1326248406
  0
ARC
  5
45A
100
AcDbEntity
  8
0
100
AcDbCircle
 62
253
  6
CONTINUOUS
 10
-70.4615284584
 20
12.0404899369
 40
15.3895772086
100
AcDbArc
 50
359.9569547491
 51
0.2935625956
  0
ARC
  5
45B
100
AcDbEntity
  8
0
100
AcDbCircle
 62
253
  6
CONTINUOUS
 10
-65.4586152264
 20
12.0659659859
 40
10.3865991156
100
AcDbArc
 50
0.2944301405
 51
0.7891658592
  0
ARC
  5
45C
100
AcDbEntity
  8
0
100
AcDbCircle
 62
7
  6
CONTINUOUS
 10
-60.8165556166
 20
13.775111017
 40
5.7500152171
100
AcDbArc
 50
3.1375726835
 51
3.3578116212
  0
ARC
  5
45D
100
AcDbEntity
  8
0
100
AcDbCircle
 62
7
  6
CONTINUOUS
 10
-60.3404800518
 20
13.8094088631
 40
5.2729887799
100
AcDbArc
 50
359.7229854892
 51
0.1998251878
  0
ARC
  5
45E
100
AcDbEntity
  8
0
100
AcDbCircle
 62
7
  6
CONTINUOUS
 10
-60.3277987373
 20
13.8042118075
 40
5.2603907977
100
AcDbArc
 50
1.542844732
 51
3.1128805434
  0
ARC
  5
45F
100
AcDbEntity
  8
0
100
AcDbCircle
 62
7
  6
CONTINUOUS
 10
-60.1832554662
 20
13.8087925912
 40
5.1157766388
100
AcDbArc
 50
1.2811450764
 51
1.5351462826
  0
ARC
  5
460
100
AcDbEntity
  8
0
100
AcDbCircle
 62
7
  6
CONTINUOUS
 10
-60.1518238389
 20
13.8095002927
 40
5.0843370456
100
AcDbArc
 50
1.066739427
 51
1.2810913713
  0
ARC
  5
461
100
AcDbEntity
  8
0
100
AcDbCircle
 62
7
  6
CONTINUOUS
 10
-60.1274425187
 20
13.8099557878
 40
5.059951471
100
AcDbArc
 50
0.8445539009
 51
1.0667223499
  0
ARC
  5
462
100
AcDbEntity
  8
0
100
AcDbCircle
 62
7
  6
CONTINUOUS
 10
-60.1261507669
 20
13.8100628405
 40
5.0586585185
100
AcDbArc
 50
0.2008844384
 51
0.5708512424
  0
ARC
  5
463
100
AcDbEntity
  8
0
100
AcDbCircle
 62
7
  6
CONTINUOUS
 10
-60.1103250598
 20
13.810207784
 40
5.0428321528
100
AcDbArc
 50
0.5709959498
 51
0.7688271141
  0
ARC
  5
464
100
AcDbEntity
  8
0
100
AcDbCircle
 62
7
  6
CONTINUOUS
 10
-73.8612629486
 20
11.1019354555
 40
4.9958313928
100
AcDbArc
 50
187.4862726605
 51
188.8475384662
  0
ARC
  5
465
100
AcDbEntity
  8
0
100
AcDbCircle
 62
7
  6
CONTINUOUS
 10
-58.0878135289
 20
13.9670518212
 40
3.0203784756
100
AcDbArc
 50
4.6267870543
 51
6.9338241475
  0
ARC
  5
466
100
AcDbEntity
  8
0
100
AcDbCircle
 62
7
  6
CONTINUOUS
 10
-58.0677179062
 20
13.9693723921
 40
2.9991897098
100
AcDbArc
 50
17.0820627002
 51
86.9961142647
  0
ARC
  5
467
100
AcDbEntity
  8
0
100
AcDbCircle
 62
7
  6
CONTINUOUS
 10
-58.0657022196
 20
13.9689480008
 40
2.998200074
100
AcDbArc
 50
6.9488643312
 51
11.5437079589
  0
ARC
  5
468
100
AcDbEntity
  8
0
100
AcDbCircle
 62
7
  6
CONTINUOUS
 10
-58.0492681273
 20
13.967915169
 40
2.9819873356
100
AcDbArc
 50
11.6263408623
 51
17.2129558238
  0
ARC
  5
469
100
AcDbEntity
  8
0
100
AcDbCircle
 62
7
  6
CONTINUOUS
 10
-58.0677179062
 20
13.9693723921
 40
2.7953625862
100
AcDbArc
 50
17.0774398252
 51
86.9961142648
  0
ARC
  5
46A
100
AcDbEntity
  8
0
100
AcDbCircle
 62
253
  6
CONTINUOUS
 10
-58.0616865209
 20
13.9659818144
 40
2.7952730798
100
AcDbArc
 50
0.5230233828
 51
12.4554955254
  0
ARC
  5
46B
100
AcDbEntity
  8
0
100
AcDbCircle
 62
253
  6
CONTINUOUS
 10
-58.0616865208
 20
13.9659818144
 40
2.7905970066
100
AcDbArc
 50
0.5230233827
 51
12.4767088009
  0
ARC
  5
46C
100
AcDbEntity
  8
0
100
AcDbCircle
 62
7
  6
CONTINUOUS
 10
-58.0492681273
 20
13.967915169
 40
2.7781601598
100
AcDbArc
 50
12.4931034392
 51
17.2129558238
  0
ARC
  5
46D
100
AcDbEntity
  8
0
100
AcDbCircle
 62
7
  6
CONTINUOUS
 10
-57.3591556744
 20
13.9131740844
 40
2.2915576445
100
AcDbArc
 50
0.1386896412
 51
0.4059703351
  0
ARC
  5
46E
100
AcDbEntity
  8
0
100
AcDbCircle
 62
253
  6
CONTINUOUS
 10
-58.067829168
 20
13.9692298074
 40
2.0465387209
100
AcDbArc
 50
17.0374643287
 51
86.9947681571
  0
ARC
  5
46F
100
AcDbEntity
  8
0
100
AcDbCircle
 62
253
  6
CONTINUOUS
 10
-58.0616865206
 20
13.9659818145
 40
2.0416247991
100
AcDbArc
 50
0.3772865309
 51
17.1751238587
  0
CIRCLE
  5
470
100
AcDbEntity
  8
0
100
AcDbCircle
 62
7
  6
CONTINUOUS
 10
-56.0574543979
 20
11.0250518793
 40
0.55
  0
ARC
  5
471
100
AcDbEntity
  8
0
100
AcDbCircle
 62
7
  6
CONTINUOUS
 10
-71.3405537085
 20
17.9191275528
 40
1.0198934824
100
AcDbArc
 50
83.3092424301
 51
90.0366269979
  0
ARC
  5
472
100
AcDbEntity
  8
0
100
AcDbCircle
 62
253
  6
CONTINUOUS
 10
-74.8122070824
 20
17.6618972712
 40
1.0071036616
100
AcDbArc
 50
122.0198238966
 51
141.2397445984
  0
ARC
  5
473
100
AcDbEntity
  8
0
100
AcDbCircle
 62
7
  6
CONTINUOUS
 10
-74.8482070645
 20
17.6406138073
 40
1.0061107221
100
AcDbArc
 50
121.9827132048
 51
136.2832260159
  0
ARC
  5
474
100
AcDbEntity
  8
0
100
AcDbCircle
 62
7
  6
CONTINUOUS
 10
-73.6089073605
 20
18.4159730632
 40
1.0046147795
100
AcDbArc
 50
150.4155583756
 51
164.5990454398
  0
ARC
  5
475
100
AcDbEntity
  8
0
100
AcDbCircle
 62
7
  6
CONTINUOUS
 10
-74.8503118764
 20
17.6435708952
 40
1.0025460447
100
AcDbArc
 50
136.3222400093
 51
145.8868864524
  0
ARC
  5
476
100
AcDbEntity
  8
0
100
AcDbCircle
 62
7
  6
CONTINUOUS
 10
-73.6460682849
 20
18.395038299
 40
1.0019881846
100
AcDbArc
 50
148.9517246268
 51
158.2722734409
  0
ARC
  5
477
100
AcDbEntity
  8
0
100
AcDbCircle
 62
7
  6
CONTINUOUS
 10
-73.6470851477
 20
18.3954129919
 40
1.0009048568
100
AcDbArc
 50
158.2706496256
 51
179.9946116247
  0
ARC
  5
478
100
AcDbEntity
  8
0
100
AcDbCircle
 62
7
  6
CONTINUOUS
 10
-74.8519993051
 20
17.6446813681
 40
1.0005261839
100
AcDbArc
 50
145.8853424516
 51
178.6233257322
  0
ARC
  5
479
100
AcDbEntity
  8
0
100
AcDbCircle
 62
253
  6
CONTINUOUS
 10
-73.3304367813
 20
17.8494159853
 40
1.0003247438
100
AcDbArc
 50
90.0994144013
 51
179.9752752062
  0
ARC
  5
47A
100
AcDbEntity
  8
0
100
AcDbCircle
 62
253
  6
CONTINUOUS
 10
-74.8169895022
 20
17.6672792565
 40
1.000005816
100
AcDbArc
 50
141.3089303845
 51
180.0216027701
  0
ARC
  5
47B
100
AcDbEntity
  8
0
100
AcDbCircle
 62
7
  6
CONTINUOUS
 10
-73.3321723765
 20
17.8325
 40
1.0
100
AcDbArc
 50
266.9958848576
 51
270.0
  0
ARC
  5
47C
100
AcDbEntity
  8
0
100
AcDbCircle
 62
7
  6
CONTINUOUS
 10
-73.6018884328
 20
17.939556474
 40
0.9990097481
100
AcDbArc
 50
137.3473456532
 51
147.8354136502
  0
ARC
  5
47D
100
AcDbEntity
  8
0
100
AcDbCircle
 62
7
  6
CONTINUOUS
 10
-73.6022749062
 20
17.9398089295
 40
0.9985494779
100
AcDbArc
 50
147.8358708965
 51
180.0015436805
  0
ARC
  5
47E
100
AcDbEntity
  8
0
100
AcDbCircle
 62
253
  6
CONTINUOUS
 10
-73.6510772844
 20
18.426745852
 40
0.9610985292
100
AcDbArc
 50
164.5505660393
 51
180.5291399299
  0
ARC
  5
47F
100
AcDbEntity
  8
0
100
AcDbCircle
 62
253
  6
CONTINUOUS
 10
-73.6117850773
 20
18.4166801049
 40
0.7518726732
100
AcDbArc
 50
138.479386187
 51
164.5926020726
  0
ARC
  5
480
100
AcDbEntity
  8
0
100
AcDbCircle
 62
253
  6
CONTINUOUS
 10
-74.8167803365
 20
17.6668039229
 40
0.5005197066
100
AcDbArc
 50
121.9432061663
 51
179.9887482644
  0
ARC
  5
481
100
AcDbEntity
  8
RACCORDO
100
AcDbCircle
 62
7
  6
CONTINUOUS
 10
-68.3525253085
 20
19.4654705476
 40
0.5
100
AcDbArc
 50
270.5
 51
360.0
  0
ARC
  5
482
100
AcDbEntity
  8
RACCORDO
100
AcDbCircle
 62
253
  6
CONTINUOUS
 10
-68.0923260431
 20
19.5237290103
 40
0.2398008714
100
AcDbArc
 50
0.061191543
 51
9.9233364321
  0
ARC
  5
483
100
AcDbEntity
  8
0
100
AcDbCircle
 62
7
  6
CONTINUOUS
 10
-15.7658384451
 20
18.0182881448
 40
39.7079556063
100
AcDbArc
 50
186.2594538036
 51
186.9215447639
  0
ARC
  5
484
100
AcDbEntity
  8
0
100
AcDbCircle
 62
7
  6
CONTINUOUS
 10
-52.3551906682
 20
13.9499414351
 40
2.7125425816
100
AcDbArc
 50
180.1265513946
 51
180.4336627276
  0
ARC
  5
485
100
AcDbEntity
  8
0
100
AcDbCircle
 62
7
  6
CONTINUOUS
 10
-53.4509392978
 20
13.9456846037
 40
1.6167882658
100
AcDbArc
 50
179.1892871508
 51
180.061465877
  0
ARC
  5
486
100
AcDbEntity
  8
0
100
AcDbCircle
 62
7
  6
CONTINUOUS
 10
-62.0414870922
 20
25.0673482343
 40
33.2842722751
100
AcDbArc
 50
270.3248688367
 51
270.4408257745
  0
ARC
  5
487
100
AcDbEntity
  8
RACCORDO
100
AcDbCircle
 62
7
  6
CONTINUOUS
 10
-68.3525253085
 20
19.9345294524
 40
0.5
100
AcDbArc
 50
0.0
 51
89.5
  0
ARC
  5
488
100
AcDbEntity
  8
RACCORDO
100
AcDbCircle
 62
7
  6
CONTINUOUS
 10
-68.3525253085
 20
20.0106352421
 40
0.5
100
AcDbArc
 50
357.6866794643
 51
80.0
  0
ARC
  5
489
100
AcDbEntity
  8
RACCORDO
100
AcDbCircle
 62
7
  6
CONTINUOUS
 10
-84.7462140416
 20
39.3970491165
 40
0.5
100
AcDbArc
 50
91.0
 51
173.8793406959
  0
ARC
  5
48A
100
AcDbEntity
  8
0
100
AcDbCircle
 62
7
  6
CONTINUOUS
 10
282.6474746915
 20
-0.0000530621
 40
369.5391412262
100
AcDbArc
 50
184.7731855334
 51
185.1622827719
  0
ARC
  5
48B
100
AcDbEntity
  8
0
100
AcDbCircle
 62
7
  6
CONTINUOUS
 10
282.6474746915
 20
-0.0000633059
 40
369.5088838364
100
AcDbArc
 50
184.7735757006
 51
185.1627041062
  0
ARC
  5
48C
100
AcDbEntity
  8
0
100
AcDbCircle
 62
7
  6
CONTINUOUS
 10
282.6474746915
 20
-0.0016701051
 40
369.0757138682
100
AcDbArc
 50
185.0178636688
 51
185.1685283037
  0
ARC
  5
48D
100
AcDbEntity
  8
RACCORDO
100
AcDbCircle
 62
253
  6
CONTINUOUS
 10
281.9583133141
 20
-0.0000125957
 40
367.2016771374
100
AcDbArc
 50
179.9999980347
 51
186.0946065058
  0
ARC
  5
48E
100
AcDbEntity
  8
0
100
AcDbCircle
 62
7
  6
CONTINUOUS
 10
254.8005140303
 20
-8.8995836086
 40
340.9401373055
100
AcDbArc
 50
183.6745230219
 51
183.9487464301
  0
ARC
  5
48F
100
AcDbEntity
  8
0
100
AcDbCircle
 62
7
  6
CONTINUOUS
 10
254.8155844462
 20
-9.0311881894
 40
340.9128073626
100
AcDbArc
 50
183.7960579929
 51
184.0737946524
  0
ARC
  5
490
100
AcDbEntity
  8
0
100
AcDbCircle
 62
7
  6
CONTINUOUS
 10
248.3778537225
 20
-9.0566890104
 40
334.7406831636
100
AcDbArc
 50
183.7157239286
 51
184.0110490208
  0
ARC
  5
491
100
AcDbEntity
  8
0
100
AcDbCircle
 62
7
  6
CONTINUOUS
 10
248.3854383012
 20
-9.2021003837
 40
334.7096938669
100
AcDbArc
 50
183.6913455285
 51
184.1200926179
  0
ARC
  5
492
100
AcDbEntity
  8
0
100
AcDbCircle
 62
7
  6
CONTINUOUS
 10
248.3988962724
 20
-10.6341763621
 40
334.3110051954
100
AcDbArc
 50
183.4496178028
 51
183.8789786318
  0
ARC
  5
493
100
AcDbEntity
  8
0
100
AcDbCircle
 62
7
  6
CONTINUOUS
 10
248.4003230712
 20
-10.7795403492
 40
334.2671672685
100
AcDbArc
 50
183.5588249091
 51
183.6884579324
  0
ARC
  5
494
100
AcDbEntity
  8
0
100
AcDbCircle
 62
7
  6
CONTINUOUS
 10
282.6474746915
 20
0.0
 40
370.0
100
AcDbArc
 50
181.2226467176
 51
186.1216955627
  0
ARC
  5
495
100
AcDbEntity
  8
0
100
AcDbCircle
 62
7
  6
CONTINUOUS
 10
282.6474746915
 20
0.0
 40
370.0
100
AcDbArc
 50
173.8783044373
 51
178.7773532824
  0
ARC
  5
496
100
AcDbEntity
  8
0
100
AcDbCircle
 62
7
  6
CONTINUOUS
 10
282.6474746915
 20
0.0
 40
369.4779545971
100
AcDbArc
 50
184.7739860781
 51
185.1631473101
  0
ARC
  5
497
100
AcDbEntity
  8
0
100
AcDbCircle
 62
7
  6
CONTINUOUS
 10
282.6474746915
 20
0.0
 40
369.4463396615
100
AcDbArc
 50
184.9069167571
 51
185.1635903404
  0
ARC
  5
498
100
AcDbEntity
  8
0
100
AcDbCircle
 62
7
  6
CONTINUOUS
 10
282.6474746915
 20
0.0000911854
 40
369.351130987
100
AcDbArc
 50
184.9081989267
 51
185.164939193
  0
ARC
  5
499
100
AcDbEntity
  8
0
100
AcDbCircle
 62
7
  6
CONTINUOUS
 10
282.6474746915
 20
0.0
 40
369.3168629055
100
AcDbArc
 50
184.7760732705
 51
185.1654055345
  0
ARC
  5
49A
100
AcDbEntity
  8
0
100
AcDbCircle
 62
7
  6
CONTINUOUS
 10
282.6474746915
 20
0.0
 40
369.1145796557
100
AcDbArc
 50
184.7786958179
 51
185.1682429046
  0
ARC
  5
49B
100
AcDbEntity
  8
0
100
AcDbCircle
 62
7
  6
CONTINUOUS
 10
282.6474746915
 20
0.0002842331
 40
369.0764272389
100
AcDbArc
 50
184.8512912952
 51
184.9460842991
  0
ARC
  5
49C
100
AcDbEntity
  8
RACCORDO
100
AcDbCircle
 62
253
  6
CONTINUOUS
 10
281.9583133141
 20
0.0000125957
 40
367.2016771374
100
AcDbArc
 50
173.9053934942
 51
180.0000019653
  0
ARC
  5
49D
100
AcDbEntity
  8
RACCORDO
100
AcDbCircle
 62
253
  6
CONTINUOUS
 10
281.950758142
 20
0.0000001791
 40
366.7056983483
100
AcDbArc
 50
173.9053955446
 51
186.0946036733
  0
ARC
  5
49E
100
AcDbEntity
  8
0
100
AcDbCircle
 62
7
  6
CONTINUOUS
 10
254.9802590167
 20
3.885897329
 40
342.2697676758
100
AcDbArc
 50
185.9512512835
 51
186.2288022495
  0
ARC
  5
49F
100
AcDbEntity
  8
0
100
AcDbCircle
 62
7
  6
CONTINUOUS
 10
254.9634777983
 20
4.0165649321
 40
342.2344123607
100
AcDbArc
 50
185.8305555204
 51
186.1046227762
  0
ARC
  5
4A0
100
AcDbEntity
  8
0
100
AcDbCircle
 62
7
  6
CONTINUOUS
 10
248.5710899532
 20
2.8872810445
 40
336.007413023
100
AcDbArc
 50
185.7454240665
 51
186.1740605703
  0
ARC
  5
4A1
100
AcDbEntity
  8
0
100
AcDbCircle
 62
7
  6
CONTINUOUS
 10
248.5645994542
 20
3.0320247697
 40
335.9885730007
100
AcDbArc
 50
185.7705554881
 51
186.0656880766
  0
ARC
  5
4A2
100
AcDbEntity
  8
0
100
AcDbCircle
 62
7
  6
CONTINUOUS
 10
248.6497812257
 20
4.9368167891
 40
335.8574909495
100
AcDbArc
 50
186.2331238327
 51
186.3626668794
  0
ARC
  5
4A3
100
AcDbEntity
  8
0
100
AcDbCircle
 62
7
  6
CONTINUOUS
 10
248.6597717927
 20
5.0833050475
 40
335.8466163915
100
AcDbArc
 50
186.124847746
 51
186.5539957721
  0
ARC
  5
4A4
100
AcDbEntity
  8
0
100
AcDbCircle
 62
7
  6
CONTINUOUS
 10
205.8591284485
 20
5.4872046234
 40
293.2358455979
100
AcDbArc
 50
187.3887615306
 51
187.5911177635
  0
ARC
  5
4A5
100
AcDbEntity
  8
0
100
AcDbCircle
 62
7
  6
CONTINUOUS
 10
205.8386685006
 20
5.2549066227
 40
293.2306174286
100
AcDbArc
 50
187.3549735161
 51
187.5454663422
  0
ARC
  5
4A6
100
AcDbEntity
  8
0
100
AcDbCircle
 62
7
  6
CONTINUOUS
 10
205.9023523205
 20
5.4873535455
 40
293.0789817137
100
AcDbArc
 50
187.3927676426
 51
187.5952340695
  0
SPLINE
  5
4A7
100
AcDbEntity
  8
RACCORDO
100
AcDbSpline
 62
253
  6
CONTINUOUS
 70
0
 71
3
 72
17
 73
13
 74
11
 42
0.0000001
 43
0.0000001
 44
0.0000000001
 12
0.0060161222
 22
0.4544445223
 32
0.0
 13
0.4485340111
 23
0.073302513
 33
0.0
 40
0.0
 40
0.0
 40
0.0
 40
0.0
 40
0.1948503457
 40
0.379644211
 40
0.5484541141
 40
0.6958954714
 40
0.8173465437
 40
0.9091868592
 40
0.9432711551
 40
0.9693466936
 40
0.9877577961
 40
1.0
 40
1.0
 40
1.0
 40
1.0
 10
-38.9859871049
 20
39.4865874394
 30
0.0
 10
-38.9855963571
 20
39.5161036635
 30
0.0
 10
-38.984289712
 20
39.5736071918
 30
0.0
 10
-38.9806995391
 20
39.6566244332
 30
0.0
 10
-38.9756359715
 20
39.732367594
 30
0.0
 10
-38.9693024951
 20
39.7983917582
 30
0.0
 10
-38.9619217225
 20
39.8525452008
 30
0.0
 10
-38.954699165
 20
39.8893847209
 30
0.0
 10
-38.9481617016
 20
39.9114783606
 30
0.0
 10
-38.9436033215
 20
39.9225273316
 30
0.0
 10
-38.9391711564
 20
39.9298936037
 30
0.0
 10
-38.9351336868
 20
39.9328519056
 30
0.0
 10
-38.9333033386
 20
39.9331510337
 30
0.0
 11
-38.9859871049
 21
39.4865874394
 31
0.0
 11
-38.9839446594
 21
39.5751203143
 31
0.0
 11
-38.980251104
 21
39.6590249753
 31
0.0
 11
-38.9750268059
 21
39.7355683538
 31
0.0
 11
-38.9684420964
 21
39.8022538345
 31
0.0
 11
-38.9607117106
 21
39.856907447
 31
0.0
 11
-38.9520876695
 21
39.8977467944
 31
0.0
 11
-38.9475274591
 21
39.912551142
 31
0.0
 11
-38.9428512561
 21
39.9234404728
 31
0.0
 11
-38.9380966356
 21
39.9303259363
 31
0.0
 11
-38.9333033386
 21
39.9331510337
 31
0.0
  0
SPLINE
  5
4A8
100
AcDbEntity
  8
RACCORDO
100
AcDbSpline
 62
253
  6
CONTINUOUS
 70
0
 71
3
 72
9
 73
5
 74
3
 42
0.0000001
 43
0.0000001
 44
0.0000000001
 12
0.0
 22
38.9860071018
 32
0.0
 13
0.0726599451
 23
38.985939392
 33
0.0
 40
0.0
 40
0.0
 40
0.0
 40
0.0
 40
0.250442544
 40
1.0
 40
1.0
 40
1.0
 40
1.0
 10
39.4503604143
 20
0.0
 30
0.0
 10
39.4503604143
 20
3.2545849326
 30
0.0
 10
39.4533772359
 20
16.2499204472
 30
0.0
 10
39.4684331715
 20
29.2452532544
 30
0.0
 10
39.4865874394
 20
38.9859871049
 30
0.0
 11
39.4503604143
 21
0.0
 31
0.0
 11
39.4526266062
 21
9.7637545349
 31
0.0
 11
39.4865874394
 21
38.9859871049
 31
0.0
  0
SPLINE
  5
4A9
100
AcDbEntity
  8
RACCORDO
100
AcDbSpline
 62
253
  6
CONTINUOUS
 70
0
 71
3
 72
9
 73
5
 74
3
 42
0.0000001
 43
0.0000001
 44
0.0000000001
 12
0.0726599452
 22
-38.985939401
 32
0.0
 13
0.0
 23
-38.9860071108
 33
0.0
 40
0.0
 40
0.0
 40
0.0
 40
0.0
 40
0.2493806543
 40
1.0
 40
1.0
 40
1.0
 40
1.0
 10
-39.4865874394
 20
38.9859871049
 30
0.0
 10
-39.4805474445
 20
35.7452074131
 30
0.0
 10
-39.4593829367
 20
22.7498887574
 30
0.0
 10
-39.4503604143
 20
9.7545503833
 30
0.0
 10
-39.4503604143
 20
0.0
 30
0.0
 11
-39.4865874394
 21
38.9859871049
 31
0.0
 11
-39.4707465256
 21
29.2636440491
 31
0.0
 11
-39.4503604143
 21
0.0
 31
0.0
  0
SPLINE
  5
4AA
100
AcDbEntity
  8
RACCORDO
100
AcDbSpline
 62
253
  6
CONTINUOUS
 70
0
 71
3
 72
9
 73
5
 74
3
 42
0.0000001
 43
0.0000001
 44
0.0000000001
 12
-0.0726599452
 22
38.985939401
 32
0.0
 13
0.0
 23
38.9860071108
 33
0.0
 40
0.0
 40
0.0
 40
0.0
 40
0.0
 40
0.2493806543
 40
1.0
 40
1.0
 40
1.0
 40
1.0
 10
39.4865874394
 20
-38.9859871049
 30
0.0
 10
39.4805474445
 20
-35.7452074131
 30
0.0
 10
39.4593829367
 20
-22.7498887574
 30
0.0
 10
39.4503604143
 20
-9.7545503833
 30
0.0
 10
39.4503604143
 20
0.0
 30
0.0
 11
39.4865874394
 21
-38.9859871049
 31
0.0
 11
39.4707465256
 21
-29.2636440491
 31
0.0
 11
39.4503604143
 21
0.0
 31
0.0
  0
SPLINE
  5
4AB
100
AcDbEntity
  8
RACCORDO
100
AcDbSpline
 62
253
  6
CONTINUOUS
 70
0
 71
3
 72
9
 73
5
 74
3
 42
0.0000001
 43
0.0000001
 44
0.0000000001
 12
0.0
 22
-38.9860071018
 32
0.0
 13
-0.0726599451
 23
-38.985939392
 33
0.0
 40
0.0
 40
0.0
 40
0.0
 40
0.0
 40
0.250442544
 40
1.0
 40
1.0
 40
1.0
 40
1.0
 10
-39.4503604143
 20
-0.0
 30
0.0
 10
-39.4503604143
 20
-3.2545849326
 30
0.0
 10
-39.4533772359
 20
-16.2499204472
 30
0.0
 10
-39.4684331715
 20
-29.2452532544
 30
0.0
 10
-39.4865874394
 20
-38.9859871049
 30
0.0
 11
-39.4503604143
 21
-0.0
 31
0.0
 11
-39.4526266062
 21
-9.7637545349
 31
0.0
 11
-39.4865874394
 21
-38.9859871049
 31
0.0
  0
SPLINE
  5
4AC
100
AcDbEntity
  8
RACCORDO
100
AcDbSpline
 62
253
  6
CONTINUOUS
 70
0
 71
3
 72
17
 73
13
 74
11
 42
0.0000001
 43
0.0000001
 44
0.0000000001
 12
-0.0060161322
 22
0.4544445204
 32
0.0
 13
-0.4485340069
 23
0.0733025277
 33
0.0
 40
0.0
 40
0.0
 40
0.0
 40
0.0
 40
0.1948503466
 40
0.3796442127
 40
0.5484541166
 40
0.6958954746
 40
0.8173465472
 40
0.9091868627
 40
0.9432711583
 40
0.9693466963
 40
0.9877577979
 40
1.0
 40
1.0
 40
1.0
 40
1.0
 10
38.9859871049
 20
39.4865874394
 30
0.0
 10
38.9855963564
 20
39.5161036635
 30
0.0
 10
38.9842897102
 20
39.5736071919
 30
0.0
 10
38.980699536
 20
39.6566244333
 30
0.0
 10
38.9756359676
 20
39.732367594
 30
0.0
 10
38.9693024908
 20
39.7983917581
 30
0.0
 10
38.9619217185
 20
39.8525452007
 30
0.0
 10
38.9546991616
 20
39.8893847208
 30
0.0
 10
38.948161699
 20
39.9114783605
 30
0.0
 10
38.9436033196
 20
39.9225273315
 30
0.0
 10
38.9391711555
 20
39.9298936034
 30
0.0
 10
38.9351336865
 20
39.9328519056
 30
0.0
 10
38.9333033386
 20
39.9331510337
 30
0.0
 11
38.9859871049
 21
39.4865874394
 31
0.0
 11
38.9839446576
 21
39.5751203143
 31
0.0
 11
38.980251101
 21
39.6590249753
 31
0.0
 11
38.9750268021
 21
39.7355683538
 31
0.0
 11
38.9684420922
 21
39.8022538345
 31
0.0
 11
38.9607117067
 21
39.856907447
 31
0.0
 11
38.9520876664
 21
39.8977467944
 31
0.0
 11
38.9475274566
 21
39.912551142
 31
0.0
 11
38.9428512544
 21
39.9234404728
 31
0.0
 11
38.9380966347
 21
39.9303259363
 31
0.0
 11
38.9333033386
 21
39.9331510337
 31
0.0
  0
SPLINE
  5
4AD
100
AcDbEntity
  8
RACCORDO
100
AcDbSpline
 62
253
  6
CONTINUOUS
 70
0
 71
3
 72
17
 73
13
 74
11
 42
0.0000001
 43
0.0000001
 44
0.0000000001
 12
0.4544445223
 22
-0.0060161222
 32
0.0
 13
0.073302513
 23
-0.4485340111
 33
0.0
 40
0.0
 40
0.0
 40
0.0
 40
0.0
 40
0.1948503457
 40
0.379644211
 40
0.5484541141
 40
0.6958954714
 40
0.8173465437
 40
0.9091868592
 40
0.9432711551
 40
0.9693466936
 40
0.9877577961
 40
1.0
 40
1.0
 40
1.0
 40
1.0
 10
39.4865874394
 20
38.9859871049
 30
0.0
 10
39.5161036635
 20
38.9855963571
 30
0.0
 10
39.5736071918
 20
38.984289712
 30
0.0
 10
39.6566244332
 20
38.9806995391
 30
0.0
 10
39.732367594
 20
38.9756359715
 30
0.0
 10
39.7983917582
 20
38.9693024951
 30
0.0
 10
39.8525452008
 20
38.9619217225
 30
0.0
 10
39.8893847209
 20
38.954699165
 30
0.0
 10
39.9114783606
 20
38.9481617016
 30
0.0
 10
39.9225273316
 20
38.9436033215
 30
0.0
 10
39.9298936037
 20
38.9391711564
 30
0.0
 10
39.9328519056
 20
38.9351336868
 30
0.0
 10
39.9331510337
 20
38.9333033386
 30
0.0
 11
39.4865874394
 21
38.9859871049
 31
0.0
 11
39.5751203143
 21
38.9839446594
 31
0.0
 11
39.6590249753
 21
38.980251104
 31
0.0
 11
39.7355683538
 21
38.9750268059
 31
0.0
 11
39.8022538345
 21
38.9684420964
 31
0.0
 11
39.856907447
 21
38.9607117106
 31
0.0
 11
39.8977467944
 21
38.9520876695
 31
0.0
 11
39.912551142
 21
38.9475274591
 31
0.0
 11
39.9234404728
 21
38.9428512561
 31
0.0
 11
39.9303259363
 21
38.9380966356
 31
0.0
 11
39.9331510337
 21
38.9333033386
 31
0.0
  0
SPLINE
  5
4AE
100
AcDbEntity
  8
RACCORDO
100
AcDbSpline
 62
253
  6
CONTINUOUS
 70
0
 71
3
 72
17
 73
13
 74
11
 42
0.0000001
 43
0.0000001
 44
0.0000000001
 12
0.4544445204
 22
0.0060161322
 32
0.0
 13
0.0733025277
 23
0.4485340069
 33
0.0
 40
0.0
 40
0.0
 40
0.0
 40
0.0
 40
0.1948503466
 40
0.3796442127
 40
0.5484541166
 40
0.6958954746
 40
0.8173465472
 40
0.9091868627
 40
0.9432711583
 40
0.9693466963
 40
0.9877577979
 40
1.0
 40
1.0
 40
1.0
 40
1.0
 10
39.4865874394
 20
-38.9859871049
 30
0.0
 10
39.5161036635
 20
-38.9855963564
 30
0.0
 10
39.5736071919
 20
-38.9842897102
 30
0.0
 10
39.6566244333
 20
-38.980699536
 30
0.0
 10
39.732367594
 20
-38.9756359676
 30
0.0
 10
39.7983917581
 20
-38.9693024908
 30
0.0
 10
39.8525452007
 20
-38.9619217185
 30
0.0
 10
39.8893847208
 20
-38.9546991616
 30
0.0
 10
39.9114783605
 20
-38.948161699
 30
0.0
 10
39.9225273315
 20
-38.9436033196
 30
0.0
 10
39.9298936034
 20
-38.9391711555
 30
0.0
 10
39.9328519056
 20
-38.9351336865
 30
0.0
 10
39.9331510337
 20
-38.9333033386
 30
0.0
 11
39.4865874394
 21
-38.9859871049
 31
0.0
 11
39.5751203143
 21
-38.9839446576
 31
0.0
 11
39.6590249753
 21
-38.980251101
 31
0.0
 11
39.7355683538
 21
-38.9750268021
 31
0.0
 11
39.8022538345
 21
-38.9684420922
 31
0.0
 11
39.856907447
 21
-38.9607117067
 31
0.0
 11
39.8977467944
 21
-38.9520876664
 31
0.0
 11
39.912551142
 21
-38.9475274566
 31
0.0
 11
39.9234404728
 21
-38.9428512544
 31
0.0
 11
39.9303259363
 21
-38.9380966347
 31
0.0
 11
39.9331510337
 21
-38.9333033386
 31
0.0
  0
SPLINE
  5
4AF
100
AcDbEntity
  8
RACCORDO
100
AcDbSpline
 62
253
  6
CONTINUOUS
 70
0
 71
3
 72
17
 73
13
 74
11
 42
0.0000001
 43
0.0000001
 44
0.0000000001
 12
-0.0060161222
 22
-0.4544445223
 32
0.0
 13
-0.4485340111
 23
-0.073302513
 33
0.0
 40
0.0
 40
0.0
 40
0.0
 40
0.0
 40
0.1948503457
 40
0.379644211
 40
0.5484541141
 40
0.6958954714
 40
0.8173465437
 40
0.9091868592
 40
0.9432711551
 40
0.9693466936
 40
0.9877577961
 40
1.0
 40
1.0
 40
1.0
 40
1.0
 10
38.9859871049
 20
-39.4865874394
 30
0.0
 10
38.9855963571
 20
-39.5161036635
 30
0.0
 10
38.984289712
 20
-39.5736071918
 30
0.0
 10
38.9806995391
 20
-39.6566244332
 30
0.0
 10
38.9756359715
 20
-39.732367594
 30
0.0
 10
38.9693024951
 20
-39.7983917582
 30
0.0
 10
38.9619217225
 20
-39.8525452008
 30
0.0
 10
38.954699165
 20
-39.8893847209
 30
0.0
 10
38.9481617016
 20
-39.9114783606
 30
0.0
 10
38.9436033215
 20
-39.9225273316
 30
0.0
 10
38.9391711564
 20
-39.9298936037
 30
0.0
 10
38.9351336868
 20
-39.9328519056
 30
0.0
 10
38.9333033386
 20
-39.9331510337
 30
0.0
 11
38.9859871049
 21
-39.4865874394
 31
0.0
 11
38.9839446594
 21
-39.5751203143
 31
0.0
 11
38.980251104
 21
-39.6590249753
 31
0.0
 11
38.9750268059
 21
-39.7355683538
 31
0.0
 11
38.9684420964
 21
-39.8022538345
 31
0.0
 11
38.9607117106
 21
-39.856907447
 31
0.0
 11
38.9520876695
 21
-39.8977467944
 31
0.0
 11
38.9475274591
 21
-39.912551142
 31
0.0
 11
38.9428512561
 21
-39.9234404728
 31
0.0
 11
38.9380966356
 21
-39.9303259363
 31
0.0
 11
38.9333033386
 21
-39.9331510337
 31
0.0
  0
SPLINE
  5
4B0
100
AcDbEntity
  8
RACCORDO
100
AcDbSpline
 62
253
  6
CONTINUOUS
 70
0
 71
3
 72
17
 73
13
 74
11
 42
0.0000001
 43
0.0000001
 44
0.0000000001
 12
0.0060161322
 22
-0.4544445204
 32
0.0
 13
0.4485340069
 23
-0.0733025277
 33
0.0
 40
0.0
 40
0.0
 40
0.0
 40
0.0
 40
0.1948503466
 40
0.3796442127
 40
0.5484541166
 40
0.6958954746
 40
0.8173465472
 40
0.9091868627
 40
0.9432711583
 40
0.9693466963
 40
0.9877577979
 40
1.0
 40
1.0
 40
1.0
 40
1.0
 10
-38.9859871049
 20
-39.4865874394
 30
0.0
 10
-38.9855963564
 20
-39.5161036635
 30
0.0
 10
-38.9842897102
 20
-39.5736071919
 30
0.0
 10
-38.980699536
 20
-39.6566244333
 30
0.0
 10
-38.9756359676
 20
-39.732367594
 30
0.0
 10
-38.9693024908
 20
-39.7983917581
 30
0.0
 10
-38.9619217185
 20
-39.8525452007
 30
0.0
 10
-38.9546991616
 20
-39.8893847208
 30
0.0
 10
-38.948161699
 20
-39.9114783605
 30
0.0
 10
-38.9436033196
 20
-39.9225273315
 30
0.0
 10
-38.9391711555
 20
-39.9298936034
 30
0.0
 10
-38.9351336865
 20
-39.9328519056
 30
0.0
 10
-38.9333033386
 20
-39.9331510337
 30
0.0
 11
-38.9859871049
 21
-39.4865874394
 31
0.0
 11
-38.9839446576
 21
-39.5751203143
 31
0.0
 11
-38.980251101
 21
-39.6590249753
 31
0.0
 11
-38.9750268021
 21
-39.7355683538
 31
0.0
 11
-38.9684420922
 21
-39.8022538345
 31
0.0
 11
-38.9607117067
 21
-39.856907447
 31
0.0
 11
-38.9520876664
 21
-39.8977467944
 31
0.0
 11
-38.9475274566
 21
-39.912551142
 31
0.0
 11
-38.9428512544
 21
-39.9234404728
 31
0.0
 11
-38.9380966347
 21
-39.9303259363
 31
0.0
 11
-38.9333033386
 21
-39.9331510337
 31
0.0
  0
SPLINE
  5
4B1
100
AcDbEntity
  8
RACCORDO
100
AcDbSpline
 62
253
  6
CONTINUOUS
 70
0
 71
3
 72
17
 73
13
 74
11
 42
0.0000001
 43
0.0000001
 44
0.0000000001
 12
-0.4544445223
 22
0.0060161222
 32
0.0
 13
-0.073302513
 23
0.4485340111
 33
0.0
 40
0.0
 40
0.0
 40
0.0
 40
0.0
 40
0.1948503457
 40
0.379644211
 40
0.5484541141
 40
0.6958954714
 40
0.8173465437
 40
0.9091868592
 40
0.9432711551
 40
0.9693466936
 40
0.9877577961
 40
1.0
 40
1.0
 40
1.0
 40
1.0
 10
-39.4865874394
 20
-38.9859871049
 30
0.0
 10
-39.5161036635
 20
-38.9855963571
 30
0.0
 10
-39.5736071918
 20
-38.984289712
 30
0.0
 10
-39.6566244332
 20
-38.9806995391
 30
0.0
 10
-39.732367594
 20
-38.9756359715
 30
0.0
 10
-39.7983917582
 20
-38.9693024951
 30
0.0
 10
-39.8525452008
 20
-38.9619217225
 30
0.0
 10
-39.8893847209
 20
-38.954699165
 30
0.0
 10
-39.9114783606
 20
-38.9481617016
 30
0.0
 10
-39.9225273316
 20
-38.9436033215
 30
0.0
 10
-39.9298936037
 20
-38.9391711564
 30
0.0
 10
-39.9328519056
 20
-38.9351336868
 30
0.0
 10
-39.9331510337
 20
-38.9333033386
 30
0.0
 11
-39.4865874394
 21
-38.9859871049
 31
0.0
 11
-39.5751203143
 21
-38.9839446594
 31
0.0
 11
-39.6590249753
 21
-38.980251104
 31
0.0
 11
-39.7355683538
 21
-38.9750268059
 31
0.0
 11
-39.8022538345
 21
-38.9684420964
 31
0.0
 11
-39.856907447
 21
-38.9607117106
 31
0.0
 11
-39.8977467944
 21
-38.9520876695
 31
0.0
 11
-39.912551142
 21
-38.9475274591
 31
0.0
 11
-39.9234404728
 21
-38.9428512561
 31
0.0
 11
-39.9303259363
 21
-38.9380966356
 31
0.0
 11
-39.9331510337
 21
-38.9333033386
 31
0.0
  0
SPLINE
  5
4B2
100
AcDbEntity
  8
RACCORDO
100
AcDbSpline
 62
253
  6
CONTINUOUS
 70
0
 71
3
 72
17
 73
13
 74
11
 42
0.0000001
 43
0.0000001
 44
0.0000000001
 12
-0.4544445204
 22
-0.0060161322
 32
0.0
 13
-0.0733025277
 23
-0.4485340069
 33
0.0
 40
0.0
 40
0.0
 40
0.0
 40
0.0
 40
0.1948503466
 40
0.3796442127
 40
0.5484541166
 40
0.6958954746
 40
0.8173465472
 40
0.9091868627
 40
0.9432711583
 40
0.9693466963
 40
0.9877577979
 40
1.0
 40
1.0
 40
1.0
 40
1.0
 10
-39.4865874394
 20
38.9859871049
 30
0.0
 10
-39.5161036635
 20
38.9855963564
 30
0.0
 10
-39.5736071919
 20
38.9842897102
 30
0.0
 10
-39.6566244333
 20
38.980699536
 30
0.0
 10
-39.732367594
 20
38.9756359676
 30
0.0
 10
-39.7983917581
 20
38.9693024908
 30
0.0
 10
-39.8525452007
 20
38.9619217185
 30
0.0
 10
-39.8893847208
 20
38.9546991616
 30
0.0
 10
-39.9114783605
 20
38.948161699
 30
0.0
 10
-39.9225273315
 20
38.9436033196
 30
0.0
 10
-39.9298936034
 20
38.9391711555
 30
0.0
 10
-39.9328519056
 20
38.9351336865
 30
0.0
 10
-39.9331510337
 20
38.9333033386
 30
0.0
 11
-39.4865874394
 21
38.9859871049
 31
0.0
 11
-39.5751203143
 21
38.9839446576
 31
0.0
 11
-39.6590249753
 21
38.980251101
 31
0.0
 11
-39.7355683538
 21
38.9750268021
 31
0.0
 11
-39.8022538345
 21
38.9684420922
 31
0.0
 11
-39.856907447
 21
38.9607117067
 31
0.0
 11
-39.8977467944
 21
38.9520876664
 31
0.0
 11
-39.912551142
 21
38.9475274566
 31
0.0
 11
-39.9234404728
 21
38.9428512544
 31
0.0
 11
-39.9303259363
 21
38.9380966347
 31
0.0
 11
-39.9331510337
 21
38.9333033386
 31
0.0
  0
SPLINE
  5
4B3
100
AcDbEntity
  8
0
100
AcDbSpline
 62
7
  6
CONTINUOUS
 70
0
 71
3
 72
11
 73
7
 74
5
 42
0.0000001
 43
0.0000001
 44
0.0000000001
 12
0.2965440486
 22
0.0263556242
 32
0.0
 13
-0.0
 23
0.297712935
 33
0.0
 40
0.0
 40
0.0
 40
0.0
 40
0.0
 40
0.2499494622
 40
0.4999301807
 40
0.7499492652
 40
1.0
 40
1.0
 40
1.0
 40
1.0
 10
-74.0350941599
 20
22.5533493718
 30
0.0
 10
-74.0103871514
 20
22.5555452298
 30
0.0
 10
-73.9613212541
 20
22.569550006
 30
0.0
 10
-73.9010414455
 20
22.6160330955
 30
0.0
 10
-73.8616099566
 20
22.6810847942
 30
0.0
 10
-73.8525253085
 20
22.731177636
 30
0.0
 10
-73.8525253085
 20
22.755992082
 30
0.0
 11
-74.0350941599
 21
22.5533493718
 31
0.0
 11
-73.963544607
 21
22.5737940293
 31
0.0
 11
-73.9045198369
 21
22.6191237551
 31
0.0
 11
-73.8659123037
 21
22.6827623138
 31
0.0
 11
-73.8525253085
 21
22.755992082
 31
0.0
  0
LINE
  5
4B4
100
AcDbEntity
  8
0
100
AcDbLine
 62
7
  6
CONTINUOUS
 10
-75.0525253085
 20
22.462968108
 11
-74.0350941599
 21
22.5533493718
  0
LINE
  5
4B5
100
AcDbEntity
  8
0
100
AcDbLine
 62
7
  6
CONTINUOUS
 10
-74.0350941599
 20
28.1466506282
 11
-75.0525253085
 21
28.237031892
  0
SPLINE
  5
4B6
100
AcDbEntity
  8
0
100
AcDbSpline
 62
7
  6
CONTINUOUS
 70
0
 71
3
 72
11
 73
7
 74
5
 42
0.0000001
 43
0.0000001
 44
0.0000000001
 12
0.0
 22
0.2977129349
 32
0.0
 13
-0.2965440485
 23
0.0263556242
 33
0.0
 40
0.0
 40
0.0
 40
0.0
 40
0.0
 40
0.2500529778
 40
0.500073741
 40
0.7500528708
 40
1.0
 40
1.0
 40
1.0
 40
1.0
 10
-73.8525253085
 20
27.944007918
 30
0.0
 10
-73.8525253085
 20
27.9688225866
 30
0.0
 10
-73.8616100989
 20
28.0189158326
 30
0.0
 10
-73.9010420377
 20
28.08396757
 30
0.0
 10
-73.9613218752
 20
28.1304502042
 30
0.0
 10
-74.0103873821
 20
28.1444547907
 30
0.0
 10
-74.0350941599
 20
28.1466506282
 30
0.0
 11
-73.8525253085
 21
27.944007918
 31
0.0
 11
-73.8659125365
 21
28.0172383225
 31
0.0
 11
-73.9045206274
 21
28.0808771273
 31
0.0
 11
-73.9635452409
 21
28.1262062804
 31
0.0
 11
-74.0350941599
 21
28.1466506282
 31
0.0
  0
SPLINE
  5
4B7
100
AcDbEntity
  8
0
100
AcDbSpline
 62
7
  6
CONTINUOUS
 70
0
 71
3
 72
11
 73
7
 74
5
 42
0.0000001
 43
0.0000001
 44
0.0000000001
 12
0.2965440486
 22
0.0263556242
 32
0.0
 13
-0.0
 23
0.297712935
 33
0.0
 40
0.0
 40
0.0
 40
0.0
 40
0.0
 40
0.2499494622
 40
0.4999301807
 40
0.7499492652
 40
1.0
 40
1.0
 40
1.0
 40
1.0
 10
-74.0350941599
 20
-28.1466506282
 30
0.0
 10
-74.0103871514
 20
-28.1444547702
 30
0.0
 10
-73.9613212541
 20
-28.130449994
 30
0.0
 10
-73.9010414455
 20
-28.0839669045
 30
0.0
 10
-73.8616099566
 20
-28.0189152058
 30
0.0
 10
-73.8525253085
 20
-27.968822364
 30
0.0
 10
-73.8525253085
 20
-27.944007918
 30
0.0
 11
-74.0350941599
 21
-28.1466506282
 31
0.0
 11
-73.963544607
 21
-28.1262059707
 31
0.0
 11
-73.9045198369
 21
-28.0808762449
 31
0.0
 11
-73.8659123037
 21
-28.0172376862
 31
0.0
 11
-73.8525253085
 21
-27.944007918
 31
0.0
  0
LINE
  5
4B8
100
AcDbEntity
  8
0
100
AcDbLine
 62
7
  6
CONTINUOUS
 10
-75.0525253085
 20
-28.237031892
 11
-74.0350941599
 21
-28.1466506282
  0
LINE
  5
4B9
100
AcDbEntity
  8
0
100
AcDbLine
 62
7
  6
CONTINUOUS
 10
-74.0350941599
 20
-22.5533493718
 11
-75.0525253085
 21
-22.462968108
  0
SPLINE
  5
4BA
100
AcDbEntity
  8
0
100
AcDbSpline
 62
7
  6
CONTINUOUS
 70
0
 71
3
 72
11
 73
7
 74
5
 42
0.0000001
 43
0.0000001
 44
0.0000000001
 12
0.0
 22
0.2977129349
 32
0.0
 13
-0.2965440485
 23
0.0263556242
 33
0.0
 40
0.0
 40
0.0
 40
0.0
 40
0.0
 40
0.2500529778
 40
0.500073741
 40
0.7500528708
 40
1.0
 40
1.0
 40
1.0
 40
1.0
 10
-73.8525253085
 20
-22.755992082
 30
0.0
 10
-73.8525253085
 20
-22.7311774134
 30
0.0
 10
-73.8616100989
 20
-22.6810841674
 30
0.0
 10
-73.9010420377
 20
-22.61603243
 30
0.0
 10
-73.9613218752
 20
-22.5695497958
 30
0.0
 10
-74.0103873821
 20
-22.5555452093
 30
0.0
 10
-74.0350941599
 20
-22.5533493718
 30
0.0
 11
-73.8525253085
 21
-22.755992082
 31
0.0
 11
-73.8659125365
 21
-22.6827616775
 31
0.0
 11
-73.9045206274
 21
-22.6191228727
 31
0.0
 11
-73.9635452409
 21
-22.5737937196
 31
0.0
 11
-74.0350941599
 21
-22.5533493718
 31
0.0
  0
SPLINE
  5
4BB
100
AcDbEntity
  8
ASSI
100
AcDbSpline
 62
7
  6
CONTINUOUS
 70
0
 71
3
 72
14
 73
10
 74
8
 42
0.0000001
 43
0.0000001
 44
0.0000000001
 12
-0.0514127642
 22
-0.19977827
 32
0.0
 13
0.0237045307
 23
0.2049212647
 33
0.0
 40
0.0
 40
0.0
 40
0.0
 40
0.0
 40
0.0091638209
 40
0.0131242378
 40
0.0563846146
 40
0.1401755094
 40
0.2582801464
 40
0.5812462432
 40
1.0
 40
1.0
 40
1.0
 40
1.0
 10
-73.1140790892
 20
-1.9504560093
 30
0.0
 10
-73.114236135
 20
-1.9510662534
 30
0.0
 10
-73.1147192446
 20
-1.953065851
 30
0.0
 10
-73.1135189754
 20
-1.94782983
 30
0.0
 10
-73.1120643566
 20
-1.9409372438
 30
0.0
 10
-73.1085609558
 20
-1.9230764863
 30
0.0
 10
-73.1025865763
 20
-1.8883212856
 30
0.0
 10
-73.0937753919
 20
-1.8292459071
 30
0.0
 10
-73.0875343503
 20
-1.7788262511
 30
0.0
 10
-73.0842255632
 20
-1.7502224013
 30
0.0
 11
-73.1140790892
 21
-1.9504560093
 31
0.0
 11
-73.1145390458
 21
-1.9522895826
 31
0.0
 11
-73.1143589434
 21
-1.951492696
 31
0.0
 11
-73.1124674135
 21
-1.9427713767
 31
0.0
 11
-73.1091524327
 21
-1.9258071998
 31
0.0
 11
-73.1049543649
 21
-1.9018080704
 31
0.0
 11
-73.0950148153
 21
-1.835929733
 31
0.0
 11
-73.0842255632
 21
-1.7502224013
 31
0.0
  0
SPLINE
  5
4BC
100
AcDbEntity
  8
ASSI
100
AcDbSpline
 62
7
  6
CONTINUOUS
 70
0
 71
3
 72
9
 73
5
 74
3
 42
0.0000001
 43
0.0000001
 44
0.0000000001
 12
-0.0218270428
 22
0.1887655064
 32
0.0
 13
-0.0373376724
 23
0.1863189052
 33
0.0
 40
0.0
 40
0.0
 40
0.0
 40
0.0
 40
0.3329469779
 40
1.0
 40
1.0
 40
1.0
 40
1.0
 10
-73.0842295934
 20
1.7502604403
 30
0.0
 10
-73.0866520094
 20
1.7712100753
 30
0.0
 10
-73.0944277194
 20
1.8340602985
 30
0.0
 10
-73.1032498758
 20
1.8968577069
 30
0.0
 10
-73.1115519449
 20
1.9382859032
 30
0.0
 11
-73.0842295934
 21
1.7502604403
 31
0.0
 11
-73.0919458101
 21
1.8130558043
 31
0.0
 11
-73.1115519449
 21
1.9382859032
 31
0.0
  0
SPLINE
  5
4BD
100
AcDbEntity
  8
0
100
AcDbSpline
 62
7
  6
CONTINUOUS
 70
0
 71
3
 72
11
 73
7
 74
5
 42
0.0000001
 43
0.0000001
 44
0.0000000001
 12
0.0000731037
 22
-0.2783770176
 32
0.0
 13
-0.2783770272
 23
0.0
 33
0.0
 40
0.0
 40
0.0
 40
0.0
 40
0.0
 40
0.2857921927
 40
0.519547331
 40
0.7448381797
 40
1.0
 40
1.0
 40
1.0
 40
1.0
 10
-75.8525349572
 20
-10.3280128268
 30
0.0
 10
-75.852527993
 20
-10.3545321528
 30
0.0
 10
-75.8580363893
 20
-10.4035195561
 30
0.0
 10
-75.8956323515
 20
-10.4651491365
 30
0.0
 10
-75.9571745558
 20
-10.4962134522
 30
0.0
 10
-76.0021983293
 20
-10.5
 30
0.0
 10
-76.0258753923
 20
-10.5
 30
0.0
 11
-75.8525349572
 21
-10.3280128268
 31
0.0
 11
-75.864856477
 21
-10.4066108706
 31
0.0
 11
-75.900308239
 21
-10.4611777618
 31
0.0
 11
-75.9553974418
 21
-10.4911519323
 31
0.0
 11
-76.0258753923
 21
-10.5
 31
0.0
  0
SPLINE
  5
4BE
100
AcDbEntity
  8
0
100
AcDbSpline
 62
7
  6
CONTINUOUS
 70
0
 71
3
 72
11
 73
7
 74
5
 42
0.0000001
 43
0.0000001
 44
0.0000000001
 12
-0.0000731037
 22
0.2783770176
 32
0.0
 13
0.2783770272
 23
-0.0
 33
0.0
 40
0.0
 40
0.0
 40
0.0
 40
0.0
 40
0.2857921927
 40
0.519547331
 40
0.7448381797
 40
1.0
 40
1.0
 40
1.0
 40
1.0
 10
-78.8525156598
 20
10.3280128268
 30
0.0
 10
-78.8525226239
 20
10.3545321528
 30
0.0
 10
-78.8470142276
 20
10.4035195561
 30
0.0
 10
-78.8094182654
 20
10.4651491365
 30
0.0
 10
-78.7478760611
 20
10.4962134522
 30
0.0
 10
-78.7028522876
 20
10.5
 30
0.0
 10
-78.6791752246
 20
10.5
 30
0.0
 11
-78.8525156598
 21
10.3280128268
 31
0.0
 11
-78.84019414
 21
10.4066108706
 31
0.0
 11
-78.8047423779
 21
10.4611777618
 31
0.0
 11
-78.7496531751
 21
10.4911519323
 31
0.0
 11
-78.6791752246
 21
10.5
 31
0.0
  0
SPLINE
  5
4BF
100
AcDbEntity
  8
0
100
AcDbSpline
 62
7
  6
CONTINUOUS
 70
0
 71
3
 72
11
 73
7
 74
5
 42
0.0000001
 43
0.0000001
 44
0.0000000001
 12
0.2783770272
 22
0.0
 32
0.0
 13
-0.0000731037
 23
-0.2783770176
 33
0.0
 40
0.0
 40
0.0
 40
0.0
 40
0.0
 40
0.2551618203
 40
0.480452669
 40
0.7142078073
 40
1.0
 40
1.0
 40
1.0
 40
1.0
 10
-76.0258753923
 20
10.5
 30
0.0
 10
-76.0021983293
 20
10.5
 30
0.0
 10
-75.9571745558
 20
10.4962134522
 30
0.0
 10
-75.8956323515
 20
10.4651491365
 30
0.0
 10
-75.8580363893
 20
10.4035195561
 30
0.0
 10
-75.852527993
 20
10.3545321528
 30
0.0
 10
-75.8525349572
 20
10.3280128268
 30
0.0
 11
-76.0258753923
 21
10.5
 31
0.0
 11
-75.9553974418
 21
10.4911519323
 31
0.0
 11
-75.900308239
 21
10.4611777618
 31
0.0
 11
-75.864856477
 21
10.4066108706
 31
0.0
 11
-75.8525349572
 21
10.3280128268
 31
0.0
  0
SPLINE
  5
4C0
100
AcDbEntity
  8
0
100
AcDbSpline
 62
7
  6
CONTINUOUS
 70
0
 71
3
 72
11
 73
7
 74
5
 42
0.0000001
 43
0.0000001
 44
0.0000000001
 12
-0.2783770272
 22
0.0
 32
0.0
 13
0.0000731037
 23
0.2783770176
 33
0.0
 40
0.0
 40
0.0
 40
0.0
 40
0.0
 40
0.2551618203
 40
0.480452669
 40
0.7142078073
 40
1.0
 40
1.0
 40
1.0
 40
1.0
 10
-78.6791752246
 20
-10.5
 30
0.0
 10
-78.7028522876
 20
-10.5
 30
0.0
 10
-78.7478760611
 20
-10.4962134522
 30
0.0
 10
-78.8094182654
 20
-10.4651491365
 30
0.0
 10
-78.8470142276
 20
-10.4035195561
 30
0.0
 10
-78.8525226239
 20
-10.3545321528
 30
0.0
 10
-78.8525156598
 20
-10.3280128268
 30
0.0
 11
-78.6791752246
 21
-10.5
 31
0.0
 11
-78.7496531751
 21
-10.4911519323
 31
0.0
 11
-78.8047423779
 21
-10.4611777618
 31
0.0
 11
-78.84019414
 21
-10.4066108706
 31
0.0
 11
-78.8525156598
 21
-10.3280128268
 31
0.0
  0
SPLINE
  5
4C1
100
AcDbEntity
  8
0
100
AcDbSpline
 62
7
  6
CONTINUOUS
 70
0
 71
3
 72
9
 73
5
 74
3
 42
0.0000001
 43
0.0000001
 44
0.0000000001
 12
0.015072714
 22
0.3086743374
 32
0.0
 13
0.1208861647
 23
0.2844179468
 33
0.0
 40
0.0
 40
0.0
 40
0.0
 40
0.0
 40
0.2473913171
 40
1.0
 40
1.0
 40
1.0
 40
1.0
 10
-73.3107170651
 20
-2.0501558692
 30
0.0
 10
-73.3094741122
 20
-2.0247014189
 30
0.0
 10
-73.2997771291
 20
-1.9220748391
 30
0.0
 10
-73.2713981597
 20
-1.821347749
 30
0.0
 10
-73.2410715007
 20
-1.7499959435
 30
0.0
 11
-73.3107170651
 21
-2.0501558692
 31
0.0
 11
-73.3035328298
 21
-1.9740398229
 31
0.0
 11
-73.2410715007
 21
-1.7499959435
 31
0.0
  0
SPLINE
  5
4C2
100
AcDbEntity
  8
0
100
AcDbSpline
 62
7
  6
CONTINUOUS
 70
0
 71
3
 72
9
 73
5
 74
3
 42
0.0000001
 43
0.0000001
 44
0.0000000001
 12
0.015072714
 22
-0.3086743374
 32
0.0
 13
0.1208861647
 23
-0.2844179468
 33
0.0
 40
0.0
 40
0.0
 40
0.0
 40
0.0
 40
0.2473913171
 40
1.0
 40
1.0
 40
1.0
 40
1.0
 10
-73.3107170651
 20
2.0501558692
 30
0.0
 10
-73.3094741122
 20
2.0247014189
 30
0.0
 10
-73.2997771291
 20
1.9220748391
 30
0.0
 10
-73.2713981597
 20
1.821347749
 30
0.0
 10
-73.2410715007
 20
1.7499959435
 30
0.0
 11
-73.3107170651
 21
2.0501558692
 31
0.0
 11
-73.3035328298
 21
1.9740398229
 31
0.0
 11
-73.2410715007
 21
1.7499959435
 31
0.0
  0
SPLINE
  5
4C3
100
AcDbEntity
  8
0
100
AcDbSpline
 62
7
  6
CONTINUOUS
 70
0
 71
3
 72
11
 73
7
 74
5
 42
0.0000001
 43
0.0000001
 44
0.0000000001
 12
0.0
 22
-1.635641417
 32
0.0
 13
1.635641417
 23
0.0
 33
0.0
 40
0.0
 40
0.0
 40
0.0
 40
0.0
 40
0.2504585489
 40
0.5006226691
 40
0.750422088
 40
1.0
 40
1.0
 40
1.0
 40
1.0
 10
-73.2795884479
 20
-6.45
 30
0.0
 10
-73.2795884479
 20
-6.5865534586
 30
0.0
 10
-73.2252214968
 20
-6.862472041
 30
0.0
 10
-72.992591309
 20
-7.2114556679
 30
0.0
 10
-72.6449201789
 20
-7.4452802319
 30
0.0
 10
-72.3696573381
 20
-7.5
 30
0.0
 10
-72.2335840149
 20
-7.5
 30
0.0
 11
-73.2795884479
 21
-6.45
 31
0.0
 11
-73.1999534554
 21
-6.8518456065
 31
0.0
 11
-72.9732208427
 21
-7.1924621202
 31
0.0
 11
-72.6339004775
 21
-7.4200608148
 31
0.0
 11
-72.2335840149
 21
-7.5
 31
0.0
  0
SPLINE
  5
4C4
100
AcDbEntity
  8
0
100
AcDbSpline
 62
7
  6
CONTINUOUS
 70
0
 71
3
 72
11
 73
7
 74
5
 42
0.0000001
 43
0.0000001
 44
0.0000000001
 12
0.0
 22
1.635641417
 32
0.0
 13
1.635641417
 23
0.0
 33
0.0
 40
0.0
 40
0.0
 40
0.0
 40
0.0
 40
0.2504585489
 40
0.5006226691
 40
0.750422088
 40
1.0
 40
1.0
 40
1.0
 40
1.0
 10
-73.2795884479
 20
6.45
 30
0.0
 10
-73.2795884479
 20
6.5865534586
 30
0.0
 10
-73.2252214968
 20
6.862472041
 30
0.0
 10
-72.992591309
 20
7.2114556679
 30
0.0
 10
-72.6449201789
 20
7.4452802319
 30
0.0
 10
-72.3696573381
 20
7.5
 30
0.0
 10
-72.2335840149
 20
7.5
 30
0.0
 11
-73.2795884479
 21
6.45
 31
0.0
 11
-73.1999534554
 21
6.8518456065
 31
0.0
 11
-72.9732208427
 21
7.1924621202
 31
0.0
 11
-72.6339004775
 21
7.4200608148
 31
0.0
 11
-72.2335840149
 21
7.5
 31
0.0
  0
SPLINE
  5
4C5
100
AcDbEntity
  8
0
100
AcDbSpline
 62
253
  6
CONTINUOUS
 70
0
 71
3
 72
25
 73
21
 74
19
 42
0.0000001
 43
0.0000001
 44
0.0000000001
 12
1.6815066077
 22
0.0000000353
 32
0.0
 13
-1.6815066077
 23
0.0000000117
 33
0.0
 40
0.0
 40
0.0
 40
0.0
 40
0.0
 40
0.0048416328
 40
0.0130927687
 40
0.0423435097
 40
0.0885899227
 40
0.1503742357
 40
0.2254248225
 40
0.3109189932
 40
0.4036234
 40
0.5
 40
0.5963766
 40
0.6890810068
 40
0.7745751775
 40
0.8496257643
 40
0.9114100773
 40
0.9576564903
 40
0.9869072313
 40
0.9951583672
 40
1.0
 40
1.0
 40
1.0
 40
1.0
 10
-73.1626713251
 20
3.1693376137
 30
0.0
 10
-73.1599575792
 20
3.1693376138
 30
0.0
 10
-73.1534085022
 20
3.1745005422
 30
0.0
 10
-73.1434178257
 20
3.1957675671
 30
0.0
 10
-73.1320686494
 20
3.2419312374
 30
0.0
 10
-73.1206325555
 20
3.3178058427
 30
0.0
 10
-73.1102190115
 20
3.4200266671
 30
0.0
 10
-73.1016071271
 20
3.5443211838
 30
0.0
 10
-73.0951511424
 20
3.6861442181
 30
0.0
 10
-73.0911676317
 20
3.8399975463
 30
0.0
 10
-73.089820888
 20
4.0
 30
0.0
 10
-73.0911676317
 20
4.1600024537
 30
0.0
 10
-73.0951511424
 20
4.3138557818
 30
0.0
 10
-73.1016071271
 20
4.4556788162
 30
0.0
 10
-73.1102190115
 20
4.5799733329
 30
0.0
 10
-73.1206325555
 20
4.6821941573
 30
0.0
 10
-73.1320686493
 20
4.7580687626
 30
0.0
 10
-73.1434178258
 20
4.8042324329
 30
0.0
 10
-73.1534085022
 20
4.8254994578
 30
0.0
 10
-73.1599575792
 20
4.8306623863
 30
0.0
 10
-73.1626713251
 20
4.8306623863
 30
0.0
 11
-73.1626713251
 21
3.1693376137
 31
0.0
 11
-73.1555870922
 21
3.1733492711
 31
0.0
 11
-73.1485548646
 21
3.1853094163
 31
0.0
 11
-73.134963532
 21
3.2325796057
 31
0.0
 11
-73.1224500647
 21
3.3093298385
 31
0.0
 11
-73.1114797674
 21
3.4126397436
 31
0.0
 11
-73.1024762516
 21
3.5385162165
 31
0.0
 11
-73.0957855153
 21
3.6821194472
 31
0.0
 11
-73.0916658854
 21
3.8379480741
 31
0.0
 11
-73.0902755775
 21
4.0
 31
0.0
 11
-73.0916658854
 21
4.1620519259
 31
0.0
 11
-73.0957855153
 21
4.3178805528
 31
0.0
 11
-73.1024762516
 21
4.4614837835
 31
0.0
 11
-73.1114797674
 21
4.5873602564
 31
0.0
 11
-73.1224500647
 21
4.6906701615
 31
0.0
 11
-73.134963532
 21
4.7674203943
 31
0.0
 11
-73.1485548646
 21
4.8146905838
 31
0.0
 11
-73.1555870922
 21
4.826650729
 31
0.0
 11
-73.1626713251
 21
4.8306623863
 31
0.0
  0
SPLINE
  5
4C6
100
AcDbEntity
  8
0
100
AcDbSpline
 62
253
  6
CONTINUOUS
 70
0
 71
3
 72
21
 73
17
 74
15
 42
0.0000001
 43
0.0000001
 44
0.0000000001
 12
0.1175393446
 22
0.7516855727
 32
0.0
 13
0.0962454105
 23
-0.7547075717
 33
0.0
 40
0.0
 40
0.0
 40
0.0
 40
0.0
 40
0.099268261
 40
0.1858273342
 40
0.2590910778
 40
0.3186556506
 40
0.3646739188
 40
0.397858858
 40
0.4204426459
 40
0.4392312346
 40
0.4643745389
 40
0.5010628782
 40
0.5508350403
 40
0.6141171043
 40
0.7810806616
 40
1.0
 40
1.0
 40
1.0
 40
1.0
 10
-73.3107170651
 20
2.0501558692
 30
0.0
 10
-73.3068277563
 20
2.0750287091
 30
0.0
 10
-73.2990276647
 20
2.1215140128
 30
0.0
 10
-73.2861848593
 20
2.1859604365
 30
0.0
 10
-73.2730391238
 20
2.2400654585
 30
0.0
 10
-73.2597214611
 20
2.2834089208
 30
0.0
 10
-73.2461469356
 20
2.3161150481
 30
0.0
 10
-73.2327910958
 20
2.3380108439
 30
0.0
 10
-73.2173802589
 20
2.3512145763
 30
0.0
 10
-73.1989432401
 20
2.3487139443
 30
0.0
 10
-73.1847687082
 20
2.332763732
 30
0.0
 10
-73.1712226449
 20
2.3080600887
 30
0.0
 10
-73.1577859536
 20
2.2723458203
 30
0.0
 10
-73.1381885585
 20
2.2041042771
 30
0.0
 10
-73.1160449793
 20
2.0921715096
 30
0.0
 10
-73.1020736938
 20
1.9953166898
 30
0.0
 10
-73.0950503666
 20
1.9402433291
 30
0.0
 11
-73.3107170651
 21
2.0501558692
 31
0.0
 11
-73.2980915105
 21
2.1246183386
 31
0.0
 11
-73.2850405499
 21
2.1891680541
 31
0.0
 11
-73.2716305465
 21
2.2432714322
 31
0.0
 11
-73.2579278491
 21
2.2864680579
 31
0.0
 11
-73.2439987499
 21
2.3185895904
 31
0.0
 11
-73.2299095269
 21
2.339540558
 31
0.0
 11
-73.215726877
 21
2.3492400509
 31
0.0
 11
-73.2015191655
 21
2.3476651786
 31
0.0
 11
-73.1873551731
 21
2.3348074978
 31
0.0
 11
-73.1733033581
 21
2.3106891651
 31
0.0
 11
-73.1594308951
 21
2.2754540514
 31
0.0
 11
-73.1458046396
 21
2.2292762862
 31
0.0
 11
-73.1195522601
 21
2.1049894274
 31
0.0
 11
-73.0950503666
 21
1.9402433291
 31
0.0
  0
SPLINE
  5
4C7
100
AcDbEntity
  8
0
100
AcDbSpline
 62
253
  6
CONTINUOUS
 70
0
 71
3
 72
9
 73
5
 74
3
 42
0.0000001
 43
0.0000001
 44
0.0000000001
 12
0.0241620954
 22
-0.1894668664
 32
0.0
 13
0.0184973205
 23
-0.190103523
 33
0.0
 40
0.0
 40
0.0
 40
0.0
 40
0.0
 40
0.2345365932
 40
1.0
 40
1.0
 40
1.0
 40
1.0
 10
-73.0950503666
 20
1.9402433291
 30
0.0
 10
-73.0931614014
 20
1.9254310246
 30
0.0
 10
-73.0853927889
 20
1.8622390486
 30
0.0
 10
-73.0786686441
 20
1.7989211
 30
0.0
 10
-73.0739489701
 20
1.7504153366
 30
0.0
 11
-73.0950503666
 21
1.9402433291
 31
0.0
 11
-73.0895748071
 21
1.8957824336
 31
0.0
 11
-73.0739489701
 21
1.7504153366
 31
0.0
  0
SPLINE
  5
4C8
100
AcDbEntity
  8
0
100
AcDbSpline
 62
253
  6
CONTINUOUS
 70
0
 71
3
 72
9
 73
5
 74
3
 42
0.0000001
 43
0.0000001
 44
0.0000000001
 12
-0.0185355306
 22
-0.190496222
 32
0.0
 13
-0.0242271076
 23
-0.1898563239
 33
0.0
 40
0.0
 40
0.0
 40
0.0
 40
0.0
 40
0.2652641876
 40
1.0
 40
1.0
 40
1.0
 40
1.0
 10
-73.0739489701
 20
-1.7504153366
 30
0.0
 10
-73.0755879076
 20
-1.7672592784
 30
0.0
 10
-73.081966866
 20
-1.8307379868
 30
0.0
 10
-73.0891668295
 20
-1.8941369699
 30
0.0
 10
-73.0951003373
 20
-1.94063505
 30
0.0
 11
-73.0739489701
 21
-1.7504153366
 31
0.0
 11
-73.0790298961
 21
-1.8009309246
 31
0.0
 11
-73.0951003373
 21
-1.94063505
 31
0.0
  0
SPLINE
  5
4C9
100
AcDbEntity
  8
0
100
AcDbSpline
 62
253
  6
CONTINUOUS
 70
0
 71
3
 72
9
 73
5
 74
3
 42
0.0000001
 43
0.0000001
 44
0.0000000001
 12
-0.021042634
 22
-0.1649011183
 32
0.0
 13
-0.0287612082
 23
-0.1637313781
 33
0.0
 40
0.0
 40
0.0
 40
0.0
 40
0.0
 40
0.2714353176
 40
1.0
 40
1.0
 40
1.0
 40
1.0
 10
-73.0951003373
 20
-1.94063505
 30
0.0
 10
-73.097004242
 20
-1.9555550458
 30
0.0
 10
-73.1042716689
 20
-2.0104883253
 30
0.0
 10
-73.1125790592
 20
-2.0652924984
 30
0.0
 10
-73.1195638594
 20
-2.1050554649
 30
0.0
 11
-73.0951003373
 21
-1.94063505
 31
0.0
 11
-73.1010261362
 21
-1.9853671979
 31
0.0
 11
-73.1195638594
 21
-2.1050554649
 31
0.0
  0
SPLINE
  5
4CA
100
AcDbEntity
  8
0
100
AcDbSpline
 62
253
  6
CONTINUOUS
 70
0
 71
3
 72
9
 73
5
 74
3
 42
0.0000001
 43
0.0000001
 44
0.0000000001
 12
-0.0362542465
 22
0.3080409885
 32
0.0
 13
-0.0980741848
 23
0.2942534201
 33
0.0
 40
0.0
 40
0.0
 40
0.0
 40
0.0
 40
0.4552236404
 40
1.0
 40
1.0
 40
1.0
 40
1.0
 10
-73.310716975
 20
-2.0501544741
 30
0.0
 10
-73.3162182384
 20
-2.0034119607
 30
0.0
 10
-73.3391307338
 20
-1.902153339
 30
0.0
 10
-73.3700854134
 20
-1.8035374987
 30
0.0
 10
-73.3878949126
 20
-1.7501033964
 30
0.0
 11
-73.310716975
 21
-2.0501544741
 31
0.0
 11
-73.3387454278
 21
-1.9117689837
 31
0.0
 11
-73.3878949126
 21
-1.7501033964
 31
0.0
  0
SPLINE
  5
4CB
100
AcDbEntity
  8
0
100
AcDbSpline
 62
7
  6
CONTINUOUS
 70
0
 71
3
 72
9
 73
5
 74
3
 42
0.0000001
 43
0.0000001
 44
0.0000000001
 12
-0.1982681442
 22
0.2858013793
 32
0.0
 13
-0.0051668043
 23
0.3478016526
 33
0.0
 40
0.0
 40
0.0
 40
0.0
 40
0.0
 40
0.5318796097
 40
1.0
 40
1.0
 40
1.0
 40
1.0
 10
-78.7335788883
 20
10.0
 30
0.0
 10
-78.7687304827
 20
10.050670642
 30
0.0
 10
-78.8238160525
 20
10.1537864937
 30
0.0
 10
-78.851673335
 20
10.2689924222
 30
0.0
 10
-78.8524795638
 20
10.3232634373
 30
0.0
 11
-78.7335788883
 21
10.0
 31
0.0
 11
-78.8196254941
 21
10.1637813133
 31
0.0
 11
-78.8524795638
 21
10.3232634373
 31
0.0
  0
SPLINE
  5
4CC
100
AcDbEntity
  8
0
100
AcDbSpline
 62
7
  6
CONTINUOUS
 70
0
 71
3
 72
9
 73
5
 74
3
 42
0.0000001
 43
0.0000001
 44
0.0000000001
 12
0.009689104
 22
0.3069204199
 32
0.0
 13
0.108225904
 23
0.2873694079
 33
0.0
 40
0.0
 40
0.0
 40
0.0
 40
0.0
 40
0.2590946759
 40
1.0
 40
1.0
 40
1.0
 40
1.0
 10
-73.3107170651
 20
-2.0501558692
 30
0.0
 10
-73.3098802667
 20
-2.0236487203
 30
0.0
 10
-73.302426356
 20
-1.9215162924
 30
0.0
 10
-73.2781938375
 20
-1.82062916
 30
0.0
 10
-73.2514654547
 20
-1.7496579852
 30
0.0
 11
-73.3107170651
 21
-2.0501558692
 31
0.0
 11
-73.3048913807
 21
-1.9708083804
 31
0.0
 11
-73.2514654547
 21
-1.7496579852
 31
0.0
  0
SPLINE
  5
4CD
100
AcDbEntity
  8
0
100
AcDbSpline
 62
7
  6
CONTINUOUS
 70
0
 71
3
 72
9
 73
5
 74
3
 42
0.0000001
 43
0.0000001
 44
0.0000000001
 12
0.0051668043
 22
0.3478016526
 32
0.0
 13
0.1982681442
 23
0.2858013793
 33
0.0
 40
0.0
 40
0.0
 40
0.0
 40
0.0
 40
0.4681203903
 40
1.0
 40
1.0
 40
1.0
 40
1.0
 10
-78.8524795638
 20
-10.3232634373
 30
0.0
 10
-78.851673335
 20
-10.2689924222
 30
0.0
 10
-78.8238160525
 20
-10.1537864937
 30
0.0
 10
-78.7687304827
 20
-10.050670642
 30
0.0
 10
-78.7335788883
 20
-10.0
 30
0.0
 11
-78.8524795638
 21
-10.3232634373
 31
0.0
 11
-78.8196254941
 21
-10.1637813133
 31
0.0
 11
-78.7335788883
 21
-10.0
 31
0.0
  0
SPLINE
  5
4CE
100
AcDbEntity
  8
0
100
AcDbSpline
 62
7
  6
CONTINUOUS
 70
0
 71
3
 72
9
 73
5
 74
3
 42
0.0000001
 43
0.0000001
 44
0.0000000001
 12
0.2009307451
 22
-0.2896394895
 32
0.0
 13
0.0000925719
 23
-0.3525112617
 33
0.0
 40
0.0
 40
0.0
 40
0.0
 40
0.0
 40
0.5331873585
 40
1.0
 40
1.0
 40
1.0
 40
1.0
 10
-75.9714717287
 20
-10.0
 30
0.0
 10
-75.9357604843
 20
-10.0514773714
 30
0.0
 10
-75.8801136704
 20
-10.1560824021
 30
0.0
 10
-75.8525493617
 20
-10.273160589
 30
0.0
 10
-75.8525349572
 20
-10.3280128268
 30
0.0
 11
-75.9714717287
 21
-10.0
 31
0.0
 11
-75.8844036694
 21
-10.1665715095
 31
0.0
 11
-75.8525349572
 21
-10.3280128268
 31
0.0
  0
SPLINE
  5
4CF
100
AcDbEntity
  8
0
100
AcDbSpline
 62
7
  6
CONTINUOUS
 70
0
 71
3
 72
9
 73
5
 74
3
 42
0.0000001
 43
0.0000001
 44
0.0000000001
 12
-0.0000925719
 22
-0.3525112617
 32
0.0
 13
-0.2009307451
 23
-0.2896394895
 33
0.0
 40
0.0
 40
0.0
 40
0.0
 40
0.0
 40
0.4668126415
 40
1.0
 40
1.0
 40
1.0
 40
1.0
 10
-75.8525349572
 20
10.3280128268
 30
0.0
 10
-75.8525493617
 20
10.273160589
 30
0.0
 10
-75.8801136704
 20
10.1560824021
 30
0.0
 10
-75.9357604843
 20
10.0514773714
 30
0.0
 10
-75.9714717287
 20
10.0
 30
0.0
 11
-75.8525349572
 21
10.3280128268
 31
0.0
 11
-75.8844036694
 21
10.1665715095
 31
0.0
 11
-75.9714717287
 21
10.0
 31
0.0
  0
SPLINE
  5
4D0
100
AcDbEntity
  8
0
100
AcDbSpline
 62
7
  6
CONTINUOUS
 70
0
 71
3
 72
11
 73
7
 74
5
 42
0.0000001
 43
0.0000001
 44
0.0000000001
 12
-0.9274067162
 22
-0.0963155433
 32
0.0
 13
-0.1434156662
 23
-0.9212990002
 33
0.0
 40
0.0
 40
0.0
 40
0.0
 40
0.0
 40
0.1680537367
 40
0.3877662224
 40
0.6655425407
 40
1.0
 40
1.0
 40
1.0
 40
1.0
 10
-73.8328009859
 20
-6.4511029243
 30
0.0
 10
-73.8847523739
 20
-6.4564983199
 30
0.0
 10
-74.0004949713
 20
-6.5082014882
 30
0.0
 10
-74.1378397479
 20
-6.6680647079
 30
0.0
 10
-74.2476147789
 20
-6.90460902
 30
0.0
 10
-74.2909229501
 20
-7.0911708469
 30
0.0
 10
-74.3069117632
 20
-7.1938826212
 30
0.0
 11
-73.8328009859
 21
-6.4511029243
 31
0.0
 11
-73.9783662087
 21
-6.5090967086
 31
0.0
 11
-74.1186365294
 21
-6.6583995844
 31
0.0
 11
-74.2324212246
 21
-6.8910636717
 31
0.0
 11
-74.3069117632
 21
-7.1938826212
 31
0.0
  0
SPLINE
  5
4D1
100
AcDbEntity
  8
0
100
AcDbSpline
 62
253
  6
CONTINUOUS
 70
0
 71
3
 72
9
 73
5
 74
3
 42
0.0000001
 43
0.0000001
 44
0.0000000001
 12
0.0980741848
 22
0.2942534201
 32
0.0
 13
0.0362542465
 23
0.3080409885
 33
0.0
 40
0.0
 40
0.0
 40
0.0
 40
0.0
 40
0.5447763596
 40
1.0
 40
1.0
 40
1.0
 40
1.0
 10
-73.3878949126
 20
1.7501033964
 30
0.0
 10
-73.3700854134
 20
1.8035374987
 30
0.0
 10
-73.3391307338
 20
1.902153339
 30
0.0
 10
-73.3162182384
 20
2.0034119607
 30
0.0
 10
-73.310716975
 20
2.0501544741
 30
0.0
 11
-73.3878949126
 21
1.7501033964
 31
0.0
 11
-73.3387454278
 21
1.9117689837
 31
0.0
 11
-73.310716975
 21
2.0501544741
 31
0.0
  0
SPLINE
  5
4D2
100
AcDbEntity
  8
0
100
AcDbSpline
 62
7
  6
CONTINUOUS
 70
0
 71
3
 72
9
 73
5
 74
3
 42
0.0000001
 43
0.0000001
 44
0.0000000001
 12
0.009689104
 22
-0.3069204199
 32
0.0
 13
0.108225904
 23
-0.2873694079
 33
0.0
 40
0.0
 40
0.0
 40
0.0
 40
0.0
 40
0.2590946759
 40
1.0
 40
1.0
 40
1.0
 40
1.0
 10
-73.3107170651
 20
2.0501558692
 30
0.0
 10
-73.3098802667
 20
2.0236487203
 30
0.0
 10
-73.302426356
 20
1.9215162924
 30
0.0
 10
-73.2781938375
 20
1.82062916
 30
0.0
 10
-73.2514654547
 20
1.7496579852
 30
0.0
 11
-73.3107170651
 21
2.0501558692
 31
0.0
 11
-73.3048913807
 21
1.9708083804
 31
0.0
 11
-73.2514654547
 21
1.7496579852
 31
0.0
  0
SPLINE
  5
4D3
100
AcDbEntity
  8
0
100
AcDbSpline
 62
7
  6
CONTINUOUS
 70
0
 71
3
 72
11
 73
7
 74
5
 42
0.0000001
 43
0.0000001
 44
0.0000000001
 12
0.1460527715
 22
-0.9427400207
 32
0.0
 13
0.9539864562
 23
0.0000005838
 33
0.0
 40
0.0
 40
0.0
 40
0.0
 40
0.0
 40
0.3391879071
 40
0.6184732201
 40
0.8355759989
 40
1.0
 40
1.0
 40
1.0
 40
1.0
 10
-74.3069117632
 20
7.1938826212
 30
0.0
 10
-74.2903986519
 20
7.0872939497
 30
0.0
 10
-74.2449153602
 20
6.894567875
 30
0.0
 10
-74.1290777317
 20
6.6524687754
 30
0.0
 10
-73.9836294704
 20
6.4947165015
 30
0.0
 10
-73.8628024468
 20
6.4499189757
 30
0.0
 10
-73.8105163568
 20
6.4499190077
 30
0.0
 11
-74.3069117632
 21
7.1938826212
 31
0.0
 11
-74.2284018492
 21
6.8799707816
 31
0.0
 11
-74.1076548816
 21
6.6424682289
 31
0.0
 11
-73.960102148
 21
6.4971271426
 31
0.0
 11
-73.8105163568
 21
6.4499190077
 31
0.0
  0
SPLINE
  5
4D4
100
AcDbEntity
  8
0
100
AcDbSpline
 62
253
  6
CONTINUOUS
 70
0
 71
3
 72
25
 73
21
 74
19
 42
0.0000001
 43
0.0000001
 44
0.0000000001
 12
1.6815066077
 22
0.0000000353
 32
0.0
 13
-1.6815066077
 23
0.0000000117
 33
0.0
 40
0.0
 40
0.0
 40
0.0
 40
0.0
 40
0.0048416328
 40
0.0130927687
 40
0.0423435097
 40
0.0885899227
 40
0.1503742357
 40
0.2254248225
 40
0.3109189932
 40
0.4036234
 40
0.5
 40
0.5963766
 40
0.6890810068
 40
0.7745751775
 40
0.8496257643
 40
0.9114100773
 40
0.9576564903
 40
0.9869072313
 40
0.9951583672
 40
1.0
 40
1.0
 40
1.0
 40
1.0
 10
-73.1626713251
 20
-4.8306623863
 30
0.0
 10
-73.1599575792
 20
-4.8306623862
 30
0.0
 10
-73.1534085022
 20
-4.8254994578
 30
0.0
 10
-73.1434178257
 20
-4.8042324329
 30
0.0
 10
-73.1320686494
 20
-4.7580687626
 30
0.0
 10
-73.1206325555
 20
-4.6821941573
 30
0.0
 10
-73.1102190115
 20
-4.5799733329
 30
0.0
 10
-73.1016071271
 20
-4.4556788162
 30
0.0
 10
-73.0951511424
 20
-4.3138557819
 30
0.0
 10
-73.0911676317
 20
-4.1600024537
 30
0.0
 10
-73.089820888
 20
-4.0
 30
0.0
 10
-73.0911676317
 20
-3.8399975463
 30
0.0
 10
-73.0951511424
 20
-3.6861442182
 30
0.0
 10
-73.1016071271
 20
-3.5443211838
 30
0.0
 10
-73.1102190115
 20
-3.4200266671
 30
0.0
 10
-73.1206325555
 20
-3.3178058427
 30
0.0
 10
-73.1320686493
 20
-3.2419312374
 30
0.0
 10
-73.1434178258
 20
-3.1957675671
 30
0.0
 10
-73.1534085022
 20
-3.1745005422
 30
0.0
 10
-73.1599575792
 20
-3.1693376137
 30
0.0
 10
-73.1626713251
 20
-3.1693376137
 30
0.0
 11
-73.1626713251
 21
-4.8306623863
 31
0.0
 11
-73.1555870922
 21
-4.8266507289
 31
0.0
 11
-73.1485548646
 21
-4.8146905837
 31
0.0
 11
-73.134963532
 21
-4.7674203943
 31
0.0
 11
-73.1224500647
 21
-4.6906701615
 31
0.0
 11
-73.1114797674
 21
-4.5873602564
 31
0.0
 11
-73.1024762516
 21
-4.4614837835
 31
0.0
 11
-73.0957855153
 21
-4.3178805528
 31
0.0
 11
-73.0916658854
 21
-4.1620519259
 31
0.0
 11
-73.0902755775
 21
-4.0
 31
0.0
 11
-73.0916658854
 21
-3.8379480741
 31
0.0
 11
-73.0957855153
 21
-3.6821194472
 31
0.0
 11
-73.1024762516
 21
-3.5385162165
 31
0.0
 11
-73.1114797674
 21
-3.4126397436
 31
0.0
 11
-73.1224500647
 21
-3.3093298385
 31
0.0
 11
-73.134963532
 21
-3.2325796057
 31
0.0
 11
-73.1485548646
 21
-3.1853094162
 31
0.0
 11
-73.1555870922
 21
-3.173349271
 31
0.0
 11
-73.1626713251
 21
-3.1693376137
 31
0.0
  0
SPLINE
  5
4D5
100
AcDbEntity
  8
0
100
AcDbSpline
 62
7
  6
CONTINUOUS
 70
0
 71
3
 72
11
 73
7
 74
5
 42
0.0000001
 43
0.0000001
 44
0.0000000001
 12
-1.2080063154
 22
0.4341175295
 32
0.0
 13
-0.0000463252
 23
1.2836421952
 33
0.0
 40
0.0
 40
0.0
 40
0.0
 40
0.0
 40
0.2529935923
 40
0.5038123093
 40
0.7525355937
 40
1.0
 40
1.0
 40
1.0
 40
1.0
 10
-72.2136934695
 20
-7.4367982332
 30
0.0
 10
-72.3155660886
 20
-7.4001885821
 30
0.0
 10
-72.5085840122
 20
-7.2955527115
 30
0.0
 10
-72.735454006
 20
-7.0601944706
 30
0.0
 10
-72.8799223386
 20
-6.7696129197
 30
0.0
 10
-72.9129254116
 20
-6.5558852513
 30
0.0
 10
-72.9129292329
 20
-6.45
 30
0.0
 11
-72.2136934695
 21
-7.4367982332
 31
0.0
 11
-72.4990453785
 21
-7.281753202
 31
0.0
 11
-72.7224749113
 21
-7.0499376632
 31
0.0
 11
-72.8643463774
 21
-6.7639185949
 31
0.0
 11
-72.9129292329
 21
-6.45
 31
0.0
  0
SPLINE
  5
4D6
100
AcDbEntity
  8
ASSI
100
AcDbSpline
 62
7
  6
CONTINUOUS
 70
0
 71
3
 72
9
 73
5
 74
3
 42
0.0000001
 43
0.0000001
 44
0.0000000001
 12
0.0
 22
-2.2469010214
 32
0.0
 13
-0.1326408019
 23
-2.2429825273
 33
0.0
 40
0.0
 40
0.0
 40
0.0
 40
0.0
 40
0.5228692115
 40
1.0
 40
1.0
 40
1.0
 40
1.0
 10
-72.8525252916
 20
0.0000025967
 30
0.0
 10
-72.8525252916
 20
-0.3916091917
 30
0.0
 10
-72.8619441315
 20
-1.1406005407
 30
0.0
 10
-72.8915671008
 20
-1.8891308558
 30
0.0
 10
-72.912662771
 20
-2.2458628631
 30
0.0
 11
-72.8525252916
 21
0.0000025967
 31
0.0
 11
-72.867898586
 21
-1.1747321808
 31
0.0
 11
-72.912662771
 21
-2.2458628631
 31
0.0
  0
SPLINE
  5
4D7
100
AcDbEntity
  8
ASSI
100
AcDbSpline
 62
7
  6
CONTINUOUS
 70
0
 71
3
 72
9
 73
5
 74
3
 42
0.0000001
 43
0.0000001
 44
0.0000000001
 12
0.1326404954
 22
-2.2429773434
 32
0.0
 13
0.0000002543
 23
-2.2468958285
 33
0.0
 40
0.0
 40
0.0
 40
0.0
 40
0.0
 40
0.4771307863
 40
1.0
 40
1.0
 40
1.0
 40
1.0
 10
-72.912662771
 20
2.2458628631
 30
0.0
 10
-72.8915671497
 20
1.889131682
 30
0.0
 10
-72.8619442176
 20
1.1406030987
 30
0.0
 10
-72.8525253359
 20
0.3916134818
 30
0.0
 10
-72.8525252916
 20
0.0000025967
 30
0.0
 11
-72.912662771
 21
2.2458628631
 31
0.0
 11
-72.8678986525
 21
1.174734663
 31
0.0
 11
-72.8525252916
 21
0.0000025967
 31
0.0
  0
SPLINE
  5
4D8
100
AcDbEntity
  8
0
100
AcDbSpline
 62
253
  6
CONTINUOUS
 70
0
 71
3
 72
8
 73
4
 74
2
 42
0.0000001
 43
0.0000001
 44
0.0000000001
 12
0.0216462897
 22
0.0261586119
 32
0.0
 13
0.0
 23
0.0339534216
 33
0.0
 40
0.0
 40
0.0
 40
0.0
 40
0.0
 40
1.0
 40
1.0
 40
1.0
 40
1.0
 10
-73.3222116193
 20
-3.201286167
 30
0.0
 10
-73.3149961894
 20
-3.1925666297
 30
0.0
 10
-73.3107170651
 20
-3.1806554209
 30
0.0
 10
-73.3107170651
 20
-3.1693376137
 30
0.0
 11
-73.3222116193
 21
-3.201286167
 31
0.0
 11
-73.3107170651
 21
-3.1693376137
 31
0.0
  0
SPLINE
  5
4D9
100
AcDbEntity
  8
0
100
AcDbSpline
 62
253
  6
CONTINUOUS
 70
0
 71
3
 72
8
 73
4
 74
2
 42
0.0000001
 43
0.0000001
 44
0.0000000001
 12
0.0216462897
 22
-0.0261586119
 32
0.0
 13
0.0
 23
-0.0339534216
 33
0.0
 40
0.0
 40
0.0
 40
0.0
 40
0.0
 40
1.0
 40
1.0
 40
1.0
 40
1.0
 10
-73.1741658793
 20
-4.798713833
 30
0.0
 10
-73.1669504494
 20
-4.8074333703
 30
0.0
 10
-73.1626713251
 20
-4.8193445791
 30
0.0
 10
-73.1626713251
 20
-4.8306623863
 30
0.0
 11
-73.1741658793
 21
-4.798713833
 31
0.0
 11
-73.1626713251
 21
-4.8306623863
 31
0.0
  0
SPLINE
  5
4DA
100
AcDbEntity
  8
0
100
AcDbSpline
 62
253
  6
CONTINUOUS
 70
0
 71
3
 72
8
 73
4
 74
2
 42
0.0000001
 43
0.0000001
 44
0.0000000001
 12
0.0216462897
 22
-0.0261586119
 32
0.0
 13
0.0
 23
-0.0339534216
 33
0.0
 40
0.0
 40
0.0
 40
0.0
 40
0.0
 40
1.0
 40
1.0
 40
1.0
 40
1.0
 10
-73.3222116193
 20
-4.798713833
 30
0.0
 10
-73.3149961894
 20
-4.8074333703
 30
0.0
 10
-73.3107170651
 20
-4.8193445791
 30
0.0
 10
-73.3107170651
 20
-4.8306623863
 30
0.0
 11
-73.3222116193
 21
-4.798713833
 31
0.0
 11
-73.3107170651
 21
-4.8306623863
 31
0.0
  0
SPLINE
  5
4DB
100
AcDbEntity
  8
0
100
AcDbSpline
 62
253
  6
CONTINUOUS
 70
0
 71
3
 72
8
 73
4
 74
2
 42
0.0000001
 43
0.0000001
 44
0.0000000001
 12
0.0216462895
 22
0.0261586121
 32
0.0
 13
0.0000000003
 23
0.0339534216
 33
0.0
 40
0.0
 40
0.0
 40
0.0
 40
0.0
 40
1.0
 40
1.0
 40
1.0
 40
1.0
 10
-73.1741658793
 20
-3.201286167
 30
0.0
 10
-73.1669504494
 20
-3.1925666297
 30
0.0
 10
-73.1626713252
 20
-3.1806554209
 30
0.0
 10
-73.1626713251
 20
-3.1693376137
 30
0.0
 11
-73.1741658793
 21
-3.201286167
 31
0.0
 11
-73.1626713251
 21
-3.1693376137
 31
0.0
  0
SPLINE
  5
4DC
100
AcDbEntity
  8
0
100
AcDbSpline
 62
253
  6
CONTINUOUS
 70
0
 71
3
 72
25
 73
21
 74
19
 42
0.0000001
 43
0.0000001
 44
0.0000000001
 12
1.6168548173
 22
-0.0000000001
 32
0.0
 13
-1.6168548173
 23
-0.0
 33
0.0
 40
0.0
 40
0.0
 40
0.0
 40
0.0
 40
0.0048402336
 40
0.0130837987
 40
0.0423132146
 40
0.088550873
 40
0.1503256758
 40
0.2253794629
 40
0.3108877921
 40
0.4036044568
 40
0.4999977549
 40
0.5963911313
 40
0.6891080373
 40
0.7746167528
 40
0.8496711796
 40
0.9114469352
 40
0.9576856366
 40
0.9869158765
 40
0.9951596695
 40
1.0
 40
1.0
 40
1.0
 40
1.0
 10
-73.1741658793
 20
-3.201286167
 30
0.0
 10
-73.1715572276
 20
-3.201286167
 30
0.0
 10
-73.1652493983
 20
-3.2062211737
 30
0.0
 10
-73.1556633341
 20
-3.2266813224
 30
0.0
 10
-73.1447510341
 20
-3.2710291592
 30
0.0
 10
-73.1337525273
 20
-3.3439755839
 30
0.0
 10
-73.1237362386
 20
-3.4422531833
 30
0.0
 10
-73.1154532469
 20
-3.561774463
 30
0.0
 10
-73.1092447678
 20
-3.6981600056
 30
0.0
 10
-73.1054126406
 20
-3.8461212146
 30
0.0
 10
-73.1041158901
 20
-3.99999639
 30
0.0
 10
-73.105412519
 20
-4.1538716971
 30
0.0
 10
-73.1092445345
 20
-4.3018332877
 30
0.0
 10
-73.115452898
 20
-4.4382195247
 30
0.0
 10
-73.123735842
 20
-4.55774186
 30
0.0
 10
-73.1337520495
 20
-4.6560209397
 30
0.0
 10
-73.1447507382
 20
-4.7289687701
 30
0.0
 10
-73.1556629082
 20
-4.7733179698
 30
0.0
 10
-73.1652493004
 20
-4.7937785088
 30
0.0
 10
-73.1715571754
 20
-4.798713833
 30
0.0
 10
-73.1741658793
 20
-4.798713833
 30
0.0
 11
-73.1741658793
 21
-3.201286167
 31
0.0
 11
-73.1673477838
 21
-3.2051279305
 31
0.0
 11
-73.1605921246
 21
-3.2166176618
 31
0.0
 11
-73.1475366972
 21
-3.2620383303
 31
0.0
 11
-73.1355009231
 21
-3.3358227124
 31
0.0
 11
-73.1249497353
 21
-3.4351447348
 31
0.0
 11
-73.1162897491
 21
-3.556186416
 31
0.0
 11
-73.1098546055
 21
-3.694291125
 31
0.0
 11
-73.1058918054
 21
-3.8441481241
 31
0.0
 11
-73.104553686
 21
-3.9999963481
 31
0.0
 11
-73.1058916809
 21
-4.1558446997
 31
0.0
 11
-73.1098543613
 21
-4.3057020923
 31
0.0
 11
-73.1162893909
 21
-4.4438074318
 31
0.0
 11
-73.1249492955
 21
-4.5648501558
 31
0.0
 11
-73.1355004645
 21
-4.6641737294
 31
0.0
 11
-73.147536315
 21
-4.7379598078
 31
0.0
 11
-73.1605918837
 21
-4.7833818218
 31
0.0
 11
-73.1673477092
 21
-4.7948718829
 31
0.0
 11
-73.1741658793
 21
-4.798713833
 31
0.0
  0
SPLINE
  5
4DD
100
AcDbEntity
  8
0
100
AcDbSpline
 62
253
  6
CONTINUOUS
 70
0
 71
3
 72
8
 73
4
 74
2
 42
0.0000001
 43
0.0000001
 44
0.0000000001
 12
0.0
 22
-0.0339534216
 32
0.0
 13
-0.0216462897
 23
-0.0261586119
 33
0.0
 40
0.0
 40
0.0
 40
0.0
 40
0.0
 40
1.0
 40
1.0
 40
1.0
 40
1.0
 10
-73.3107170651
 20
4.8306623863
 30
0.0
 10
-73.3107170651
 20
4.8193445791
 30
0.0
 10
-73.3149961894
 20
4.8074333703
 30
0.0
 10
-73.3222116193
 20
4.798713833
 30
0.0
 11
-73.3107170651
 21
4.8306623863
 31
0.0
 11
-73.3222116193
 21
4.798713833
 31
0.0
  0
SPLINE
  5
4DE
100
AcDbEntity
  8
0
100
AcDbSpline
 62
253
  6
CONTINUOUS
 70
0
 71
3
 72
8
 73
4
 74
2
 42
0.0000001
 43
0.0000001
 44
0.0000000001
 12
0.0216462897
 22
-0.0261586119
 32
0.0
 13
0.0
 23
-0.0339534216
 33
0.0
 40
0.0
 40
0.0
 40
0.0
 40
0.0
 40
1.0
 40
1.0
 40
1.0
 40
1.0
 10
-73.1741658793
 20
3.201286167
 30
0.0
 10
-73.1669504494
 20
3.1925666297
 30
0.0
 10
-73.1626713251
 20
3.1806554209
 30
0.0
 10
-73.1626713251
 20
3.1693376137
 30
0.0
 11
-73.1741658793
 21
3.201286167
 31
0.0
 11
-73.1626713251
 21
3.1693376137
 31
0.0
  0
SPLINE
  5
4DF
100
AcDbEntity
  8
0
100
AcDbSpline
 62
7
  6
CONTINUOUS
 70
0
 71
3
 72
11
 73
7
 74
5
 42
0.0000001
 43
0.0000001
 44
0.0000000001
 12
-1.6482407839
 22
0.0
 32
0.0
 13
-0.0000594831
 23
-1.6482407828
 33
0.0
 40
0.0
 40
0.0
 40
0.0
 40
0.0
 40
0.253392008
 40
0.5047816047
 40
0.7533684233
 40
1.0
 40
1.0
 40
1.0
 40
1.0
 10
-71.8507884954
 20
7.5
 30
0.0
 10
-71.9900055094
 20
7.5
 30
0.0
 10
-72.2703821555
 20
7.4447754989
 30
0.0
 10
-72.6234772907
 20
7.2094918033
 30
0.0
 10
-72.8582394749
 20
6.8605525791
 30
0.0
 10
-72.9129243427
 20
6.585502741
 30
0.0
 10
-72.9129292329
 20
6.45
 30
0.0
 11
-71.8507884954
 21
7.5
 31
0.0
 11
-72.2604595229
 21
7.4187470488
 31
0.0
 11
-72.6052937877
 21
7.1890173427
 31
0.0
 11
-72.8333967406
 21
6.8486521269
 31
0.0
 11
-72.9129292329
 21
6.45
 31
0.0
  0
SPLINE
  5
4E0
100
AcDbEntity
  8
0
100
AcDbSpline
 62
253
  6
CONTINUOUS
 70
0
 71
3
 72
8
 73
4
 74
2
 42
0.0000001
 43
0.0000001
 44
0.0000000001
 12
0.0
 22
0.0339534216
 32
0.0
 13
-0.0216462897
 23
0.0261586119
 33
0.0
 40
0.0
 40
0.0
 40
0.0
 40
0.0
 40
1.0
 40
1.0
 40
1.0
 40
1.0
 10
-73.3107170651
 20
3.1693376137
 30
0.0
 10
-73.3107170651
 20
3.1806554209
 30
0.0
 10
-73.3149961894
 20
3.1925666297
 30
0.0
 10
-73.3222116193
 20
3.201286167
 30
0.0
 11
-73.3107170651
 21
3.1693376137
 31
0.0
 11
-73.3222116193
 21
3.201286167
 31
0.0
  0
SPLINE
  5
4E1
100
AcDbEntity
  8
0
100
AcDbSpline
 62
253
  6
CONTINUOUS
 70
0
 71
3
 72
25
 73
21
 74
19
 42
0.0000001
 43
0.0000001
 44
0.0000000001
 12
1.6168548173
 22
-0.0000000001
 32
0.0
 13
-1.6168548173
 23
-0.0
 33
0.0
 40
0.0
 40
0.0
 40
0.0
 40
0.0
 40
0.0048402336
 40
0.0130837987
 40
0.0423132146
 40
0.088550873
 40
0.1503256758
 40
0.2253794629
 40
0.3108877921
 40
0.4036044568
 40
0.4999977549
 40
0.5963911313
 40
0.6891080373
 40
0.7746167528
 40
0.8496711796
 40
0.9114469352
 40
0.9576856366
 40
0.9869158765
 40
0.9951596695
 40
1.0
 40
1.0
 40
1.0
 40
1.0
 10
-73.1741658793
 20
4.798713833
 30
0.0
 10
-73.1715572276
 20
4.798713833
 30
0.0
 10
-73.1652493983
 20
4.7937788263
 30
0.0
 10
-73.1556633341
 20
4.7733186776
 30
0.0
 10
-73.1447510341
 20
4.7289708408
 30
0.0
 10
-73.1337525273
 20
4.6560244161
 30
0.0
 10
-73.1237362386
 20
4.5577468167
 30
0.0
 10
-73.1154532469
 20
4.438225537
 30
0.0
 10
-73.1092447678
 20
4.3018399944
 30
0.0
 10
-73.1054126406
 20
4.1538787854
 30
0.0
 10
-73.1041158901
 20
4.00000361
 30
0.0
 10
-73.105412519
 20
3.8461283029
 30
0.0
 10
-73.1092445345
 20
3.6981667123
 30
0.0
 10
-73.115452898
 20
3.5617804753
 30
0.0
 10
-73.123735842
 20
3.44225814
 30
0.0
 10
-73.1337520495
 20
3.3439790603
 30
0.0
 10
-73.1447507382
 20
3.2710312299
 30
0.0
 10
-73.1556629082
 20
3.2266820302
 30
0.0
 10
-73.1652493004
 20
3.2062214912
 30
0.0
 10
-73.1715571754
 20
3.201286167
 30
0.0
 10
-73.1741658793
 20
3.201286167
 30
0.0
 11
-73.1741658793
 21
4.798713833
 31
0.0
 11
-73.1673477838
 21
4.7948720695
 31
0.0
 11
-73.1605921246
 21
4.7833823382
 31
0.0
 11
-73.1475366972
 21
4.7379616697
 31
0.0
 11
-73.1355009231
 21
4.6641772876
 31
0.0
 11
-73.1249497353
 21
4.5648552652
 31
0.0
 11
-73.1162897491
 21
4.443813584
 31
0.0
 11
-73.1098546055
 21
4.305708875
 31
0.0
 11
-73.1058918054
 21
4.1558518759
 31
0.0
 11
-73.104553686
 21
4.0000036519
 31
0.0
 11
-73.1058916809
 21
3.8441553003
 31
0.0
 11
-73.1098543613
 21
3.6942979077
 31
0.0
 11
-73.1162893909
 21
3.5561925682
 31
0.0
 11
-73.1249492955
 21
3.4351498442
 31
0.0
 11
-73.1355004645
 21
3.3358262706
 31
0.0
 11
-73.147536315
 21
3.2620401922
 31
0.0
 11
-73.1605918837
 21
3.2166181782
 31
0.0
 11
-73.1673477092
 21
3.2051281171
 31
0.0
 11
-73.1741658793
 21
3.201286167
 31
0.0
  0
SPLINE
  5
4E2
100
AcDbEntity
  8
0
100
AcDbSpline
 62
253
  6
CONTINUOUS
 70
0
 71
3
 72
8
 73
4
 74
2
 42
0.0000001
 43
0.0000001
 44
0.0000000001
 12
0.0216462895
 22
0.0261586121
 32
0.0
 13
0.0000000003
 23
0.0339534216
 33
0.0
 40
0.0
 40
0.0
 40
0.0
 40
0.0
 40
1.0
 40
1.0
 40
1.0
 40
1.0
 10
-73.1741658793
 20
4.798713833
 30
0.0
 10
-73.1669504494
 20
4.8074333703
 30
0.0
 10
-73.1626713252
 20
4.8193445791
 30
0.0
 10
-73.1626713251
 20
4.8306623863
 30
0.0
 11
-73.1741658793
 21
4.798713833
 31
0.0
 11
-73.1626713251
 21
4.8306623863
 31
0.0
  0
SPLINE
  5
4E3
100
AcDbEntity
  8
0
100
AcDbSpline
 62
253
  6
CONTINUOUS
 70
0
 71
3
 72
19
 73
15
 74
13
 42
0.0000001
 43
0.0000001
 44
0.0000000001
 12
-0.1028197187
 22
-0.585330564
 32
0.0
 13
-0.0918125078
 23
0.5871577532
 33
0.0
 40
0.0
 40
0.0
 40
0.0
 40
0.0
 40
0.1907576081
 40
0.2663869494
 40
0.3287229531
 40
0.377955601
 40
0.4147085055
 40
0.4408907068
 40
0.4618482377
 40
0.4865831143
 40
0.5212518963
 40
0.6280613315
 40
0.7882664663
 40
1.0
 40
1.0
 40
1.0
 40
1.0
 10
-73.1195638594
 20
-2.1050554649
 30
0.0
 10
-73.1261017406
 20
-2.1422742177
 30
0.0
 10
-73.1362654319
 20
-2.1941117054
 30
0.0
 10
-73.1531319752
 20
-2.2570472523
 30
0.0
 10
-73.164925443
 20
-2.2922154736
 30
0.0
 10
-73.1768208514
 20
-2.3192166811
 30
0.0
 10
-73.1887709222
 20
-2.3379374644
 30
0.0
 10
-73.2016144827
 20
-2.3495444901
 30
0.0
 10
-73.217002538
 20
-2.3506639125
 30
0.0
 10
-73.2303579328
 20
-2.3404882642
 30
0.0
 10
-73.2489286744
 20
-2.3132701933
 30
0.0
 10
-73.2693244687
 20
-2.2562925677
 30
0.0
 10
-73.291608467
 20
-2.1643175459
 30
0.0
 10
-73.3042371362
 20
-2.0915961978
 30
0.0
 10
-73.3107170651
 20
-2.0501558692
 30
0.0
 11
-73.1195638594
 21
-2.1050554649
 31
0.0
 11
-73.1424550525
 21
-2.2160861288
 31
0.0
 11
-73.1542987215
 21
-2.2594435622
 31
0.0
 11
-73.1663500112
 21
-2.2944744041
 31
0.0
 11
-73.1785641543
 21
-2.3210616276
 31
0.0
 11
-73.1908963665
 21
-2.3390890703
 31
0.0
 11
-73.2033014282
 21
-2.3484818666
 31
0.0
 11
-73.2157333493
 21
-2.3492381984
 31
0.0
 11
-73.2281460612
 21
-2.3413637207
 31
0.0
 11
-73.2404936703
 21
-2.3248701842
 31
0.0
 11
-73.2648147624
 21
-2.2662383236
 31
0.0
 11
-73.2883410403
 21
-2.1739820634
 31
0.0
 11
-73.3107170651
 21
-2.0501558692
 31
0.0
  0
SPLINE
  5
4E4
100
AcDbEntity
  8
RACCORDO
100
AcDbSpline
 62
253
  6
CONTINUOUS
 70
0
 71
3
 72
9
 73
5
 74
3
 42
0.0000001
 43
0.0000001
 44
0.0000000001
 12
0.4842072056
 22
0.0029468583
 32
0.0
 13
0.291366245
 23
0.3867441185
 33
0.0
 40
0.0
 40
0.0
 40
0.0
 40
0.0
 40
0.2750998585
 40
1.0
 40
1.0
 40
1.0
 40
1.0
 10
-68.3481620407
 20
-19.8712857673
 30
0.0
 10
-68.3037602628
 20
-19.8710155406
 30
0.0
 10
-68.1441955817
 20
-19.8553970224
 30
0.0
 10
-67.9802595126
 20
-19.7789160021
 30
0.0
 10
-67.9098557019
 20
-19.6854657133
 30
0.0
 11
-68.3481620407
 21
-19.8712857673
 31
0.0
 11
-68.2156369941
 21
-19.8578161663
 31
0.0
 11
-67.9098557019
 21
-19.6854657133
 31
0.0
  0
SPLINE
  5
4E5
100
AcDbEntity
  8
RACCORDO
100
AcDbSpline
 62
253
  6
CONTINUOUS
 70
0
 71
3
 72
8
 73
4
 74
2
 42
0.0000001
 43
0.0000001
 44
0.0000000001
 12
0.0374009537
 22
0.0496440446
 32
0.0
 13
0.0264841119
 23
0.0562312575
 33
0.0
 40
0.0
 40
0.0
 40
0.0
 40
0.0
 40
1.0
 40
1.0
 40
1.0
 40
1.0
 10
-67.9098557019
 20
-19.6854657133
 30
0.0
 10
-67.8973887173
 20
-19.6689176984
 30
0.0
 10
-67.8864575086
 20
-19.6510603119
 30
0.0
 10
-67.8776294712
 20
-19.6323165594
 30
0.0
 11
-67.9098557019
 21
-19.6854657133
 31
0.0
 11
-67.8776294712
 21
-19.6323165594
 31
0.0
  0
SPLINE
  5
4E6
100
AcDbEntity
  8
RACCORDO
100
AcDbSpline
 62
253
  6
CONTINUOUS
 70
0
 71
3
 72
8
 73
4
 74
2
 42
0.0000001
 43
0.0000001
 44
0.0000000001
 12
0.0300972467
 22
0.0639026912
 32
0.0
 13
0.0121286982
 23
0.0695865855
 33
0.0
 40
0.0
 40
0.0
 40
0.0
 40
0.0
 40
1.0
 40
1.0
 40
1.0
 40
1.0
 10
-67.8776294712
 20
-19.6323165594
 30
0.0
 10
-67.8675970557
 20
-19.6110156623
 30
0.0
 10
-67.8601574124
 20
-19.5882327837
 30
0.0
 10
-67.856114513
 20
-19.5650372552
 30
0.0
 11
-67.8776294712
 21
-19.6323165594
 31
0.0
 11
-67.856114513
 21
-19.5650372552
 31
0.0
  0
SPLINE
  5
4E7
100
AcDbEntity
  8
RACCORDO
100
AcDbSpline
 62
253
  6
CONTINUOUS
 70
0
 71
3
 72
9
 73
5
 74
3
 42
0.0000001
 43
0.0000001
 44
0.0000000001
 12
0.4875808203
 22
-0.0029513702
 32
0.0
 13
0.2890895197
 23
-0.3926461722
 33
0.0
 40
0.0
 40
0.0
 40
0.0
 40
0.0
 40
0.2755649281
 40
1.0
 40
1.0
 40
1.0
 40
1.0
 10
-68.3481620407
 20
19.8712858033
 30
0.0
 10
-68.3033753161
 20
19.8710147052
 30
0.0
 10
-68.1427569025
 20
19.85516434
 30
0.0
 10
-67.9774899695
 20
19.777373662
 30
0.0
 10
-67.9076811072
 20
19.6825581093
 30
0.0
 11
-68.3481620407
 21
19.8712858033
 31
0.0
 11
-68.2145007228
 21
19.8575755943
 31
0.0
 11
-67.9076811072
 21
19.6825581093
 31
0.0
  0
SPLINE
  5
4E8
100
AcDbEntity
  8
RACCORDO
100
AcDbSpline
 62
253
  6
CONTINUOUS
 70
0
 71
3
 72
8
 73
4
 74
2
 42
0.0000001
 43
0.0000001
 44
0.0000000001
 12
0.0362668622
 22
-0.0492582527
 32
0.0
 13
0.0255457112
 23
-0.0555794691
 33
0.0
 40
0.0
 40
0.0
 40
0.0
 40
0.0
 40
1.0
 40
1.0
 40
1.0
 40
1.0
 10
-67.9076811072
 20
19.6825581093
 30
0.0
 10
-67.8955921531
 20
19.6661386918
 30
0.0
 10
-67.8850184864
 20
19.6484575914
 30
0.0
 10
-67.8765032493
 20
19.6299311017
 30
0.0
 11
-67.9076811072
 21
19.6825581093
 31
0.0
 11
-67.8765032493
 21
19.6299311017
 31
0.0
  0
SPLINE
  5
4E9
100
AcDbEntity
  8
RACCORDO
100
AcDbSpline
 62
253
  6
CONTINUOUS
 70
0
 71
3
 72
8
 73
4
 74
2
 42
0.0000001
 43
0.0000001
 44
0.0000000001
 12
0.028400952
 22
-0.0617915792
 32
0.0
 13
0.0116693812
 23
-0.066997305
 33
0.0
 40
0.0
 40
0.0
 40
0.0
 40
0.0
 40
1.0
 40
1.0
 40
1.0
 40
1.0
 10
-67.8765032493
 20
19.6299311017
 30
0.0
 10
-67.8670362653
 20
19.6093339087
 30
0.0
 10
-67.860002574
 20
19.5873864059
 30
0.0
 10
-67.8561127802
 20
19.5650539709
 30
0.0
 11
-67.8765032493
 21
19.6299311017
 31
0.0
 11
-67.8561127802
 21
19.5650539709
 31
0.0
  0
SPLINE
  5
4EA
100
AcDbEntity
  8
0
100
AcDbSpline
 62
7
  6
CONTINUOUS
 70
0
 71
3
 72
13
 73
9
 74
7
 42
0.0000001
 43
0.0000001
 44
0.0000000001
 12
2.7384040249
 22
0.4979953593
 32
0.0
 13
2.7832839443
 23
0.0136552791
 33
0.0
 40
0.0
 40
0.0
 40
0.0
 40
0.0
 40
0.0602900843
 40
0.1437132924
 40
0.2485774695
 40
0.3725820837
 40
0.666657297
 40
1.0
 40
1.0
 40
1.0
 40
1.0
 10
-64.6317708768
 20
-8.3372743771
 30
0.0
 10
-64.576738007
 20
-8.3272663164
 30
0.0
 10
-64.4443963101
 20
-8.31009511
 30
0.0
 10
-64.2147347999
 20
-8.2890938111
 30
0.0
 10
-63.925601225
 20
-8.2699048949
 30
0.0
 10
-63.4410120611
 20
-8.2459149044
 30
0.0
 10
-62.7441055551
 20
-8.2252360443
 30
0.0
 10
-62.1620277175
 20
-8.217906306
 30
0.0
 10
-61.8527652532
 20
-8.2163890101
 30
0.0
 11
-64.6317708768
 21
-8.3372743771
 31
0.0
 11
-64.4656223404
 21
-8.3137442647
 31
0.0
 11
-64.234472454
 21
-8.2917568886
 31
0.0
 11
-63.9432832514
 21
-8.2718291083
 31
0.0
 11
-63.5985798002
 21
-8.2543919855
 31
0.0
 11
-62.7804847691
 21
-8.2284995974
 31
0.0
 11
-61.8527652532
 21
-8.2163890101
 31
0.0
  0
LINE
  5
4EB
100
AcDbEntity
  8
0
100
AcDbLine
 62
7
  6
CONTINUOUS
 10
-64.6336875989
 20
-8.337647751
 11
-64.6317708768
 21
-8.3372743771
  0
SPLINE
  5
4EC
100
AcDbEntity
  8
0
100
AcDbSpline
 62
7
  6
CONTINUOUS
 70
0
 71
3
 72
9
 73
5
 74
3
 42
0.0000001
 43
0.0000001
 44
0.0000000001
 12
0.2098117725
 22
0.00949666
 32
0.0
 13
0.2091980843
 23
0.0186367368
 33
0.0
 40
0.0
 40
0.0
 40
0.0
 40
0.0
 40
0.2859104698
 40
1.0
 40
1.0
 40
1.0
 40
1.0
 10
-64.9387821123
 20
-8.3622757805
 30
0.0
 10
-64.9187863182
 20
-8.3613707156
 30
0.0
 10
-64.848863624
 20
-8.3579397236
 30
0.0
 10
-64.7789728428
 20
-8.353530978
 30
0.0
 10
-64.7291774555
 20
-8.3490948784
 30
0.0
 11
-64.9387821123
 21
-8.3622757805
 31
0.0
 11
-64.8788056662
 21
-8.3593288763
 31
0.0
 11
-64.7291774555
 21
-8.3490948784
 31
0.0
  0
LINE
  5
4ED
100
AcDbEntity
  8
0
100
AcDbLine
 62
7
  6
CONTINUOUS
 10
-64.7291774555
 20
-8.3490948784
 11
-64.7263807292
 21
-8.3488441122
  0
LINE
  5
4EE
100
AcDbEntity
  8
0
100
AcDbLine
 62
7
  6
CONTINUOUS
 10
-65.2216183734
 20
-8.3712743604
 11
-65.201583339
 21
-8.3708389064
  0
LINE
  5
4EF
100
AcDbEntity
  8
0
100
AcDbLine
 62
7
  6
CONTINUOUS
 10
-65.171380436
 20
-8.3701318209
 11
-65.1452250857
 21
-8.3694686927
  0
LINE
  5
4F0
100
AcDbEntity
  8
0
100
AcDbLine
 62
7
  6
CONTINUOUS
 10
-65.1452250857
 20
-8.3694686927
 11
-65.1184009744
 21
-8.3687377069
  0
LINE
  5
4F1
100
AcDbEntity
  8
0
100
AcDbLine
 62
7
  6
CONTINUOUS
 10
-65.4986864186
 20
-8.3748183719
 11
-65.4804443006
 21
-8.3746370726
  0
LINE
  5
4F2
100
AcDbEntity
  8
0
100
AcDbLine
 62
7
  6
CONTINUOUS
 10
-65.4804443006
 20
-8.3746370726
 11
-65.4264825792
 21
-8.3742806591
  0
SPLINE
  5
4F3
100
AcDbEntity
  8
0
100
AcDbSpline
 62
7
  6
CONTINUOUS
 70
0
 71
3
 72
11
 73
7
 74
5
 42
0.0000001
 43
0.0000001
 44
0.0000000001
 12
-0.0024509653
 22
0.1070300836
 32
0.0
 13
-0.1049777455
 23
0.0210028325
 33
0.0
 40
0.0
 40
0.0
 40
0.0
 40
0.0
 40
0.0996637024
 40
0.2943517547
 40
0.5953600705
 40
1.0
 40
1.0
 40
1.0
 40
1.0
 10
-57.3687493406
 20
-6.4312566708
 30
0.0
 10
-57.3688307647
 20
-6.4277009993
 30
0.0
 10
-57.3782277095
 20
-6.4196410207
 30
0.0
 10
-57.3971182779
 20
-6.4122521909
 30
0.0
 10
-57.4284303555
 20
-6.4029263456
 30
0.0
 10
-57.4529181447
 20
-6.3976899137
 30
0.0
 10
-57.4670775406
 20
-6.3948570521
 30
0.0
 11
-57.3687493406
 21
-6.4312566708
 31
0.0
 11
-57.3751875679
 21
-6.4227481989
 31
0.0
 11
-57.3939778802
 21
-6.4137286441
 31
0.0
 11
-57.4248165197
 21
-6.404376951
 31
0.0
 11
-57.4670775406
 21
-6.3948570521
 31
0.0
  0
SPLINE
  5
4F4
100
AcDbEntity
  8
0
100
AcDbSpline
 62
7
  6
CONTINUOUS
 70
0
 71
3
 72
10
 73
6
 74
4
 42
0.0000001
 43
0.0000001
 44
0.0000000001
 12
-0.6694970985
 22
0.1339458696
 32
0.0
 13
-0.6818291595
 23
0.0357331522
 33
0.0
 40
0.0
 40
0.0
 40
0.0
 40
0.0
 40
0.1866389938
 40
0.4283285152
 40
1.0
 40
1.0
 40
1.0
 40
1.0
 10
-57.4670775406
 20
-6.3948570521
 30
0.0
 10
-57.5087289622
 20
-6.386523878
 30
0.0
 10
-57.6051984796
 20
-6.371955767
 30
0.0
 10
-57.8313896223
 20
-6.3467371133
 30
0.0
 10
-58.0161617553
 20
-6.3339530979
 30
0.0
 10
-58.1460891846
 20
-6.3271438899
 30
0.0
 11
-57.4670775406
 21
-6.3948570521
 31
0.0
 11
-57.5928785426
 21
-6.3745432074
 31
0.0
 11
-57.756821005
 21
-6.3557411652
 31
0.0
 11
-58.1460891846
 21
-6.3271438899
 31
0.0
  0
SPLINE
  5
4F5
100
AcDbEntity
  8
0
100
AcDbSpline
 62
7
  6
CONTINUOUS
 70
0
 71
3
 72
12
 73
8
 74
6
 42
0.0000001
 43
0.0000001
 44
0.0000000001
 12
0.2717706249
 22
-3.2236139167
 32
0.0
 13
-0.0000018574
 23
-3.2350496065
 33
0.0
 40
0.0
 40
0.0
 40
0.0
 40
0.0
 40
0.0717105725
 40
0.1634744417
 40
0.3988024897
 40
0.6858604025
 40
1.0
 40
1.0
 40
1.0
 40
1.0
 10
-59.9415621442
 20
0.959011374
 30
0.0
 10
-59.9350658685
 20
0.8819556408
 30
0.0
 10
-59.9234858261
 20
0.7060298199
 30
0.0
 10
-59.902849757
 20
0.2764692377
 30
0.0
 10
-59.8835728941
 20
-0.3855697061
 30
0.0
 10
-59.8693062421
 20
-1.2875340008
 30
0.0
 10
-59.8661117477
 20
-1.9358437501
 30
0.0
 10
-59.8661119422
 20
-2.2745961439
 30
0.0
 11
-59.9415621442
 21
0.959011374
 31
0.0
 11
-59.9255069158
 21
0.7275803515
 31
0.0
 11
-59.9108025707
 21
0.43108408
 31
0.0
 11
-59.8867160825
 21
-0.3298327009
 31
0.0
 11
-59.8713773872
 21
-1.2583526033
 31
0.0
 11
-59.8661119422
 21
-2.2745961439
 31
0.0
  0
LINE
  5
4F6
100
AcDbEntity
  8
0
100
AcDbLine
 62
7
  6
CONTINUOUS
 10
-55.067597586
 20
13.8727730184
 11
-55.0676047433
 21
13.9187210025
  0
SPLINE
  5
4F7
100
AcDbEntity
  8
0
100
AcDbSpline
 62
7
  6
CONTINUOUS
 70
0
 71
3
 72
12
 73
8
 74
6
 42
0.0000001
 43
0.0000001
 44
0.0000000001
 12
0.2717706296
 22
3.2236139728
 32
0.0
 13
0.0
 23
3.2350496628
 33
0.0
 40
0.0
 40
0.0
 40
0.0
 40
0.0
 40
0.0717099589
 40
0.1634730791
 40
0.3988015614
 40
0.6858611318
 40
1.0
 40
1.0
 40
1.0
 40
1.0
 10
-59.9415621442
 20
-5.5082037084
 30
0.0
 10
-59.935065924
 20
-5.4311486332
 30
0.0
 10
-59.9234858268
 20
-5.2552242866
 30
0.0
 10
-59.902849673
 20
-4.8256647014
 30
0.0
 10
-59.8835726614
 20
-4.163624302
 30
0.0
 10
-59.8693060271
 20
-3.2616585186
 30
0.0
 10
-59.8661119422
 20
-2.6133477571
 30
0.0
 10
-59.8661119422
 20
-2.2745961439
 30
0.0
 11
-59.9415621442
 21
-5.5082037084
 31
0.0
 11
-59.9255069388
 21
-5.27677467
 31
0.0
 11
-59.9108025918
 21
-4.9802808195
 31
0.0
 11
-59.8867159203
 21
-4.2193626257
 31
0.0
 11
-59.871377234
 21
-3.2908373434
 31
0.0
 11
-59.8661119422
 21
-2.2745961439
 31
0.0
  0
SPLINE
  5
4F8
100
AcDbEntity
  8
0
100
AcDbSpline
 62
7
  6
CONTINUOUS
 70
0
 71
3
 72
16
 73
12
 74
10
 42
0.0000001
 43
0.0000001
 44
0.0000000001
 12
0.7771602386
 22
0.0407252378
 32
0.0
 13
0.353331593
 23
0.6933926499
 33
0.0
 40
0.0
 40
0.0
 40
0.0
 40
0.0
 40
0.1864980727
 40
0.3665582837
 40
0.5336617654
 40
0.6821642629
 40
0.806781861
 40
0.9030650344
 40
0.9676877466
 40
0.9876722072
 40
1.0
 40
1.0
 40
1.0
 40
1.0
 10
-56.6072230217
 20
1.7085426077
 30
0.0
 10
-56.5589100595
 20
1.7110743338
 30
0.0
 10
-56.4639899087
 20
1.7168259358
 30
0.0
 10
-56.3259621647
 20
1.7275054139
 30
0.0
 10
-56.197952096
 20
1.7397936515
 30
0.0
 10
-56.0845662779
 20
1.7532356799
 30
0.0
 10
-55.9896640846
 20
1.7672315799
 30
0.0
 10
-55.917124817
 20
1.7813318627
 30
0.0
 10
-55.8713205466
 20
1.7934386124
 30
0.0
 10
-55.848657079
 20
1.8038242602
 30
0.0
 10
-55.8416435329
 20
1.8092182337
 30
0.0
 10
-55.8401916
 20
1.8120675673
 30
0.0
 11
-56.6072230217
 21
1.7085426077
 31
0.0
 11
-56.4623519507
 21
1.7173369448
 31
0.0
 11
-56.3226468737
 21
1.7282110733
 31
0.0
 11
-56.1932096745
 21
1.7407629302
 31
0.0
 11
-56.0784674665
 21
1.7545587354
 31
0.0
 11
-55.982585113
 21
1.7691132986
 31
0.0
 11
-55.9091297301
 21
1.7839062041
 31
0.0
 11
-55.8609757359
 21
1.7984109859
 31
0.0
 11
-55.8470739176
 21
1.8053836309
 31
0.0
 11
-55.8401916
 21
1.8120675673
 31
0.0
  0
LINE
  5
4F9
100
AcDbEntity
  8
0
100
AcDbLine
 62
7
  6
CONTINUOUS
 10
-55.0674876049
 20
12.0287417012
 11
-55.0676352007
 21
11.9802502816
  0
LINE
  5
4FA
100
AcDbEntity
  8
0
100
AcDbLine
 62
7
  6
CONTINUOUS
 10
-55.0676352007
 20
11.9802502816
 11
-55.0676587468
 21
11.9745562577
  0
LINE
  5
4FB
100
AcDbEntity
  8
0
100
AcDbLine
 62
7
  6
CONTINUOUS
 10
-55.0675849079
 20
12.9787246483
 11
-55.0675743949
 21
12.839389636
  0
LINE
  5
4FC
100
AcDbEntity
  8
0
100
AcDbLine
 62
7
  6
CONTINUOUS
 10
-55.0675743949
 20
12.839389636
 11
-55.0675663996
 21
12.7386209766
  0
LINE
  5
4FD
100
AcDbEntity
  8
0
100
AcDbLine
 62
7
  6
CONTINUOUS
 10
-55.0675663996
 20
12.7386209766
 11
-55.0675643426
 21
12.6819274391
  0
LINE
  5
4FE
100
AcDbEntity
  8
0
100
AcDbLine
 62
7
  6
CONTINUOUS
 10
-55.0675643426
 20
12.6819274391
 11
-55.0675685236
 21
12.4898099617
  0
LINE
  5
4FF
100
AcDbEntity
  8
0
100
AcDbLine
 62
7
  6
CONTINUOUS
 10
-55.0675685236
 20
12.4898099617
 11
-55.0675073065
 21
12.1193503852
  0
SPLINE
  5
500
100
AcDbEntity
  8
0
100
AcDbSpline
 62
7
  6
CONTINUOUS
 70
0
 71
3
 72
8
 73
4
 74
2
 42
0.0000001
 43
0.0000001
 44
0.0000000001
 12
0.0195572758
 22
-0.2415395824
 32
0.0
 13
0.001364647
 23
-0.2423262154
 33
0.0
 40
0.0
 40
0.0
 40
0.0
 40
0.0
 40
1.0
 40
1.0
 40
1.0
 40
1.0
 10
-55.077277637
 20
14.2106904452
 30
0.0
 10
-55.070758545
 20
14.1301772511
 30
0.0
 10
-55.0679169425
 20
14.0493346641
 30
0.0
 10
-55.0674620602
 20
13.968559259
 30
0.0
 11
-55.077277637
 21
14.2106904452
 31
0.0
 11
-55.0674620602
 21
13.968559259
 31
0.0
  0
SPLINE
  5
501
100
AcDbEntity
  8
0
100
AcDbSpline
 62
7
  6
CONTINUOUS
 70
0
 71
3
 72
10
 73
6
 74
4
 42
0.0000001
 43
0.0000001
 44
0.0000000001
 12
-0.0087900392
 22
0.5798157767
 32
0.0
 13
-0.5073141032
 23
0.2808843185
 33
0.0
 40
0.0
 40
0.0
 40
0.0
 40
0.0
 40
0.2301400864
 40
0.4699989648
 40
1.0
 40
1.0
 40
1.0
 40
1.0
 10
-55.6988892298
 20
-1.3159601009
 30
0.0
 10
-55.6995635432
 20
-1.2714804833
 30
0.0
 10
-55.7150627017
 20
-1.1802682397
 30
0.0
 10
-55.8028102343
 20
-1.0055584343
 30
0.0
 10
-55.9231006691
 20
-0.9056661661
 30
0.0
 10
-56.0127263357
 20
-0.8560431729
 30
0.0
 11
-55.6988892298
 21
-1.3159601009
 31
0.0
 11
-55.7209143279
 21
-1.1843359587
 31
0.0
 11
-55.782470206
 21
-1.0596087124
 31
0.0
 11
-56.0127263357
 21
-0.8560431729
 31
0.0
  0
LINE
  5
502
100
AcDbEntity
  8
0
100
AcDbLine
 62
7
  6
CONTINUOUS
 10
-61.7854050479
 20
-8.2159389061
 11
-61.7656438858
 21
-8.2157692187
  0
SPLINE
  5
503
100
AcDbEntity
  8
0
100
AcDbSpline
 62
7
  6
CONTINUOUS
 70
0
 71
3
 72
9
 73
5
 74
3
 42
0.0000001
 43
0.0000001
 44
0.0000000001
 12
0.1882864458
 22
0.0017505976
 32
0.0
 13
0.1882944059
 23
0.0002587786
 33
0.0
 40
0.0
 40
0.0
 40
0.0
 40
0.0
 40
0.7478595179
 40
1.0
 40
1.0
 40
1.0
 40
1.0
 10
-61.7656438858
 20
-8.2157692187
 30
0.0
 10
-61.7187066156
 20
-8.2153328184
 30
0.0
 10
-61.655948674
 20
-8.2144383221
 30
0.0
 10
-61.5931867142
 20
-8.2136961145
 30
0.0
 10
-61.5773611667
 20
-8.213674365
 30
0.0
 11
-61.7656438858
 21
-8.2157692187
 31
0.0
 11
-61.6248361203
 21
-8.2140800774
 31
0.0
 11
-61.5773611667
 21
-8.213674365
 31
0.0
  0
SPLINE
  5
504
100
AcDbEntity
  8
0
100
AcDbSpline
 62
7
  6
CONTINUOUS
 70
0
 71
3
 72
11
 73
7
 74
5
 42
0.0000001
 43
0.0000001
 44
0.0000000001
 12
-0.3616594531
 22
0.0154350534
 32
0.0
 13
0.3618669061
 23
0.009388459
 33
0.0
 40
0.0
 40
0.0
 40
0.0
 40
0.0
 40
0.1340926365
 40
0.265659246
 40
0.4789048949
 40
1.0
 40
1.0
 40
1.0
 40
1.0
 10
-61.5159450932
 20
-8.212672914
 30
0.0
 10
-61.532110383
 20
-8.211983005
 30
0.0
 10
-61.5652378389
 20
-8.2129876301
 30
0.0
 10
-61.6173998981
 20
-8.2137129002
 30
0.0
 10
-61.7738099028
 20
-8.2162414385
 30
0.0
 10
-61.5635481205
 20
-8.2127905625
 30
0.0
 10
-61.5006924293
 20
-8.2111598025
 30
0.0
 11
-61.5159450932
 21
-8.212672914
 31
0.0
 11
-61.5644848084
 21
-8.2128437301
 31
0.0
 11
-61.6121034394
 21
-8.2136597679
 31
0.0
 11
-61.6892864513
 21
-8.2148706595
 31
0.0
 11
-61.5006924293
 21
-8.2111598025
 31
0.0
  0
LINE
  5
505
100
AcDbEntity
  8
0
100
AcDbLine
 62
7
  6
CONTINUOUS
 10
-61.2519042913
 20
-8.2019906719
 11
-61.237294657
 21
-8.201257224
  0
LINE
  5
506
100
AcDbEntity
  8
0
100
AcDbLine
 62
7
  6
CONTINUOUS
 10
-64.6666479923
 20
-8.3424774077
 11
-64.6580431349
 21
-8.3414319263
  0
LINE
  5
507
100
AcDbEntity
  8
0
100
AcDbLine
 62
7
  6
CONTINUOUS
 10
-64.6580431349
 20
-8.3414319263
 11
-64.6530555154
 21
-8.3408290881
  0
LINE
  5
508
100
AcDbEntity
  8
0
100
AcDbLine
 62
7
  6
CONTINUOUS
 10
-64.6338347502
 20
-8.3376836924
 11
-64.6530562533
 21
-8.3408290767
  0
LINE
  5
509
100
AcDbEntity
  8
0
100
AcDbLine
 62
7
  6
CONTINUOUS
 10
-61.765646918
 20
-8.2157683844
 11
-61.8508002024
 21
-8.2164566975
  0
LINE
  5
50A
100
AcDbEntity
  8
0
100
AcDbLine
 62
7
  6
CONTINUOUS
 10
-64.6336875989
 20
-8.337647751
 11
-64.6506540628
 21
-8.3402867813
  0
LINE
  5
50B
100
AcDbEntity
  8
0
100
AcDbLine
 62
7
  6
CONTINUOUS
 10
-55.0680407378
 20
13.8845380178
 11
-55.067946901
 21
13.877873322
  0
LINE
  5
50C
100
AcDbEntity
  8
0
100
AcDbLine
 62
7
  6
CONTINUOUS
 10
-55.0673830077
 20
13.7839147132
 11
-55.0673980005
 21
13.7807005286
  0
LINE
  5
50D
100
AcDbEntity
  8
0
100
AcDbLine
 62
7
  6
CONTINUOUS
 10
-55.0673980005
 20
13.7807005286
 11
-55.0675300745
 21
13.7570060367
  0
SPLINE
  5
50E
100
AcDbEntity
  8
0
100
AcDbSpline
 62
7
  6
CONTINUOUS
 70
0
 71
3
 72
21
 73
17
 74
15
 42
0.0000001
 43
0.0000001
 44
0.0000000001
 12
-3.3763964719
 22
-0.1101498747
 32
0.0
 13
0.0488005424
 23
-3.3778402327
 33
0.0
 40
0.0
 40
0.0
 40
0.0
 40
0.0
 40
0.0021067463
 40
0.0060809379
 40
0.0207268086
 40
0.0445649291
 40
0.0774717389
 40
0.1192005659
 40
0.1693607467
 40
0.2274998053
 40
0.2930670724
 40
0.3654644119
 40
0.4440049603
 40
0.616539316
 40
0.80421363
 40
1.0
 40
1.0
 40
1.0
 40
1.0
 10
-59.7835348455
 20
1.096759152
 30
0.0
 10
-59.7859059158
 20
1.0966817994
 30
0.0
 10
-59.7913333959
 20
1.0908044917
 30
0.0
 10
-59.7989532233
 20
1.0694646953
 30
0.0
 10
-59.8081919608
 20
1.0216626042
 30
0.0
 10
-59.8173050701
 20
0.9422123815
 30
0.0
 10
-59.8262542687
 20
0.8314807069
 30
0.0
 10
-59.8343491932
 20
0.6912514003
 30
0.0
 10
-59.841628573
 20
0.5224372009
 30
0.0
 10
-59.8479117398
 20
0.3267587607
 30
0.0
 10
-59.8531526937
 20
0.1059908789
 30
0.0
 10
-59.8572762256
 20
-0.1377737068
 30
0.0
 10
-59.861359565
 20
-0.5020032266
 30
0.0
 10
-59.8631715909
 20
-0.9960668525
 30
0.0
 10
-59.8605760107
 20
-1.6221525276
 30
0.0
 10
-59.8557728272
 20
-2.0539312155
 30
0.0
 10
-59.8525880002
 20
-2.2743762413
 30
0.0
 11
-59.7835348455
 21
1.096759152
 31
0.0
 11
-59.789283504
 21
1.092563375
 31
0.0
 11
-59.7949027128
 21
1.0803703104
 31
0.0
 11
-59.8056904277
 21
1.0320841158
 31
0.0
 11
-59.8157791997
 21
0.9521888107
 31
0.0
 11
-59.8250751106
 21
0.8414126192
 31
0.0
 11
-59.8334925486
 21
0.7006961331
 31
0.0
 11
-59.8409537686
 21
0.5314097202
 31
0.0
 11
-59.8473861144
 21
0.3351101342
 31
0.0
 11
-59.8527308576
 21
0.1136757627
 31
0.0
 11
-59.8569362017
 21
-0.1308602458
 31
0.0
 11
-59.8599643629
 21
-0.3961680749
 31
0.0
 11
-59.8623819578
 21
-0.9790173674
 31
0.0
 11
-59.8598921504
 21
-1.613012482
 31
0.0
 11
-59.8525880002
 21
-2.2743762413
 31
0.0
  0
LINE
  5
50F
100
AcDbEntity
  8
0
100
AcDbLine
 62
7
  6
CONTINUOUS
 10
-59.8525880002
 20
-2.2743762413
 11
-59.851630497
 21
-2.3391729225
  0
SPLINE
  5
510
100
AcDbEntity
  8
0
100
AcDbSpline
 62
7
  6
CONTINUOUS
 70
0
 71
3
 72
21
 73
17
 74
15
 42
0.0000001
 43
0.0000001
 44
0.0000000001
 12
0.0521650528
 22
-3.4530526042
 32
0.0
 13
3.4534375157
 23
-0.0079249817
 33
0.0
 40
0.0
 40
0.0
 40
0.0
 40
0.0
 40
0.1946386563
 40
0.3818372965
 40
0.5543852189
 40
0.6330591826
 40
0.7056447632
 40
0.7714333108
 40
0.8298070101
 40
0.8801975709
 40
0.9221370017
 40
0.9552211221
 40
0.9791910903
 40
0.9939127702
 40
0.9979003649
 40
1.0
 40
1.0
 40
1.0
 40
1.0
 10
-59.851630497
 20
-2.3391729225
 30
0.0
 10
-59.8482460518
 20
-2.5632054288
 30
0.0
 10
-59.8401222398
 20
-3.0026861149
 30
0.0
 10
-59.823849969
 20
-3.6406635984
 30
0.0
 10
-59.8070384505
 20
-4.1450780666
 30
0.0
 10
-59.7918259524
 20
-4.5175200315
 30
0.0
 10
-59.7802143219
 20
-4.7671054474
 30
0.0
 10
-59.7681578664
 20
-4.9932753098
 30
0.0
 10
-59.7558002494
 20
-5.1938251223
 30
0.0
 10
-59.7432447077
 20
-5.3668841284
 30
0.0
 10
-59.7307334995
 20
-5.5106410282
 30
0.0
 10
-59.7182509915
 20
-5.6241302997
 30
0.0
 10
-59.7065763647
 20
-5.7054729139
 30
0.0
 10
-59.6957207224
 20
-5.7543395804
 30
0.0
 10
-59.6873620192
 20
-5.7760025696
 30
0.0
 10
-59.6816706831
 20
-5.7819140089
 30
0.0
 10
-59.6792536969
 20
-5.7819195554
 30
0.0
 11
-59.851630497
 21
-2.3391729225
 31
0.0
 11
-59.8391626509
 21
-3.01123149
 31
0.0
 11
-59.822543853
 21
-3.6574983576
 31
0.0
 11
-59.8024155106
 21
-4.2530433415
 31
0.0
 11
-59.7912732055
 21
-4.5245111046
 31
0.0
 11
-59.779554438
 21
-4.7749074575
 31
0.0
 11
-59.7673717389
 21
-5.0017778305
 31
0.0
 11
-59.7548429326
 21
-5.2029785765
 31
0.0
 11
-59.7420883207
 21
-5.3765316434
 31
0.0
 11
-59.7292326805
 21
-5.5207955657
 31
0.0
 11
-59.7164003622
 21
-5.6343268992
 31
0.0
 11
-59.7037103748
 21
-5.7161274368
 31
0.0
 11
-59.6912837431
 21
-5.7654259044
 31
0.0
 11
-59.6852106406
 21
-5.7777853686
 31
0.0
 11
-59.6792536969
 21
-5.7819195554
 31
0.0
  0
LINE
  5
511
100
AcDbEntity
  8
0
100
AcDbLine
 62
7
  6
CONTINUOUS
 10
-55.8465798148
 20
0.561187216
 11
-55.8290407114
 21
0.7198870744
  0
LINE
  5
512
100
AcDbEntity
  8
0
100
AcDbLine
 62
7
  6
CONTINUOUS
 10
-55.8290407114
 20
0.7198870744
 11
-55.8283127752
 21
0.7264813971
  0
SPLINE
  5
513
100
AcDbEntity
  8
0
100
AcDbSpline
 62
7
  6
CONTINUOUS
 70
0
 71
3
 72
11
 73
7
 74
5
 42
0.0000001
 43
0.0000001
 44
0.0000000001
 12
0.0
 22
-1.2934657488
 32
0.0
 13
-1.2463556351
 23
-0.3459064529
 33
0.0
 40
0.0
 40
0.0
 40
0.0
 40
0.0
 40
0.2499962093
 40
0.4999561965
 40
0.7499384149
 40
1.0
 40
1.0
 40
1.0
 40
1.0
 10
-70.1275473099
 20
-17.9822819681
 30
0.0
 10
-70.1275473099
 20
-18.0900691461
 30
0.0
 10
-70.1631365518
 20
-18.3072634897
 30
0.0
 10
-70.3178387449
 20
-18.5975246474
 30
0.0
 10
-70.5569283431
 20
-18.8234081029
 30
0.0
 10
-70.7568196067
 20
-18.9154298579
 30
0.0
 10
-70.860708162
 20
-18.9442624965
 30
0.0
 11
-70.1275473099
 21
-17.9822819681
 31
0.0
 11
-70.1800278239
 21
-18.3013563753
 31
0.0
 11
-70.3318935318
 21
-18.586784458
 31
0.0
 11
-70.5670210896
 21
-18.8087439364
 31
0.0
 11
-70.860708162
 21
-18.9442624965
 31
0.0
  0
SPLINE
  5
514
100
AcDbEntity
  8
0
100
AcDbSpline
 62
7
  6
CONTINUOUS
 70
0
 71
3
 72
11
 73
7
 74
5
 42
0.0000001
 43
0.0000001
 44
0.0000000001
 12
1.246355129
 22
-0.3459065615
 32
0.0
 13
0.0
 23
-1.2934652902
 33
0.0
 40
0.0
 40
0.0
 40
0.0
 40
0.0
 40
0.2500615656
 40
0.5000443281
 40
0.7500046167
 40
1.0
 40
1.0
 40
1.0
 40
1.0
 10
-70.8607077102
 20
18.9442624012
 30
0.0
 10
-70.7568192052
 20
18.9154297558
 30
0.0
 10
-70.5569278852
 20
18.823407771
 30
0.0
 10
-70.3178381691
 20
18.5975240533
 30
0.0
 10
-70.1631364351
 20
18.3072627542
 30
0.0
 10
-70.1275473099
 20
18.0900687518
 30
0.0
 10
-70.1275473099
 20
17.9822819681
 30
0.0
 11
-70.8607077102
 21
18.9442624012
 31
0.0
 11
-70.5670208307
 21
18.8087437568
 31
0.0
 11
-70.331892969
 21
18.5867837422
 31
0.0
 11
-70.1800274757
 21
18.3013552337
 31
0.0
 11
-70.1275473099
 21
17.9822819681
 31
0.0
  0
SPLINE
  5
515
100
AcDbEntity
  8
0
100
AcDbSpline
 62
7
  6
CONTINUOUS
 70
0
 71
3
 72
13
 73
9
 74
7
 42
0.0000001
 43
0.0000001
 44
0.0000000001
 12
0.0157080049
 22
0.0010426306
 32
0.0
 13
-0.015728252
 23
0.0006712569
 33
0.0
 40
0.0
 40
0.0
 40
0.0
 40
0.0
 40
0.3225562586
 40
0.4578084915
 40
0.4856578382
 40
0.5383960919
 40
0.6881149174
 40
1.0
 40
1.0
 40
1.0
 40
1.0
 10
-61.5151348876
 20
-8.2158062799
 30
0.0
 10
-61.5134459825
 20
-8.2156941776
 30
0.0
 10
-61.5112395308
 20
-8.2150989476
 30
0.0
 10
-61.5084272538
 20
-8.2148488248
 30
0.0
 10
-61.5078409306
 20
-8.213626853
 30
0.0
 10
-61.509420503
 20
-8.2131931088
 30
0.0
 10
-61.5117112112
 20
-8.2128915883
 30
0.0
 10
-61.5143099574
 20
-8.212742699
 30
0.0
 10
-61.5159450932
 20
-8.212672914
 30
0.0
 11
-61.5151348876
 21
-8.2158062799
 31
0.0
 11
-61.5101161161
 21
-8.2150338559
 31
0.0
 11
-61.5081501152
 21
-8.2142162935
 31
0.0
 11
-61.5080006922
 21
-8.2138041222
 31
0.0
 11
-61.5087223169
 21
-8.2133935752
 31
0.0
 11
-61.5110460915
 21
-8.2129994586
 31
0.0
 11
-61.5159450932
 21
-8.212672914
 31
0.0
  0
LINE
  5
516
100
AcDbEntity
  8
0
100
AcDbLine
 62
7
  6
CONTINUOUS
 10
-56.0201055917
 20
13.9794106916
 11
-55.271205679
 21
13.9914378419
  0
LINE
  5
517
100
AcDbEntity
  8
0
100
AcDbLine
 62
7
  6
CONTINUOUS
 10
-67.6774743921
 20
16.522202938
 11
-67.6578617568
 21
17.2711750891
  0
LINE
  5
518
100
AcDbEntity
  8
0
100
AcDbLine
 62
7
  6
CONTINUOUS
 10
-55.1288951346
 20
14.568826298
 11
-55.3320126901
 21
14.5688700193
  0
SPLINE
  5
519
100
AcDbEntity
  8
0
100
AcDbSpline
 62
253
  6
CONTINUOUS
 70
0
 71
3
 72
9
 73
5
 74
3
 42
0.0000001
 43
0.0000001
 44
0.0000000001
 12
-0.008352244
 22
0.1420930995
 32
0.0
 13
-0.0123375698
 23
0.1418026561
 33
0.0
 40
0.0
 40
0.0
 40
0.0
 40
0.0
 40
0.2400024544
 40
1.0
 40
1.0
 40
1.0
 40
1.0
 10
-55.0764203833
 20
14.1120250362
 30
0.0
 10
-55.0770885697
 20
14.1233926004
 30
0.0
 10
-55.0799917581
 20
14.1707496432
 30
0.0
 10
-55.0834851143
 20
14.2180725611
 30
0.0
 10
-55.0866106219
 20
14.2539957846
 30
0.0
 11
-55.0764203833
 21
14.1120250362
 31
0.0
 11
-55.0785161087
 21
14.1461222478
 31
0.0
 11
-55.0866106219
 21
14.2539957846
 31
0.0
  0
SPLINE
  5
51A
100
AcDbEntity
  8
0
100
AcDbSpline
 62
253
  6
CONTINUOUS
 70
0
 71
3
 72
9
 73
5
 74
3
 42
0.0000001
 43
0.0000001
 44
0.0000000001
 12
-0.013426751
 22
0.1543212305
 32
0.0
 13
-0.020113816
 23
0.1535928196
 33
0.0
 40
0.0
 40
0.0
 40
0.0
 40
0.0
 40
0.2436089369
 40
1.0
 40
1.0
 40
1.0
 40
1.0
 10
-55.0866106219
 20
14.2539957846
 30
0.0
 10
-55.087700914
 20
14.2665271282
 30
0.0
 10
-55.0924101751
 20
14.3179465388
 30
0.0
 10
-55.0981574972
 20
14.3692741665
 30
0.0
 10
-55.1032288008
 20
14.4079995785
 30
0.0
 11
-55.0866106219
 21
14.2539957846
 31
0.0
 11
-55.0900569543
 21
14.2915741372
 31
0.0
 11
-55.1032288008
 21
14.4079995785
 31
0.0
  0
SPLINE
  5
51B
100
AcDbEntity
  8
0
100
AcDbSpline
 62
253
  6
CONTINUOUS
 70
0
 71
3
 72
9
 73
5
 74
3
 42
0.0000001
 43
0.0000001
 44
0.0000000001
 12
-0.0211544904
 22
0.1615396014
 32
0.0
 13
-0.0305509654
 23
0.160028728
 33
0.0
 40
0.0
 40
0.0
 40
0.0
 40
0.0
 40
0.246628677
 40
1.0
 40
1.0
 40
1.0
 40
1.0
 10
-55.1032288008
 20
14.4079995785
 30
0.0
 10
-55.1049679021
 20
14.4212796779
 30
0.0
 10
-55.1123650008
 20
14.4750797494
 30
0.0
 10
-55.1212366652
 20
14.5286822642
 30
0.0
 10
-55.128908739
 20
14.5688692823
 30
0.0
 11
-55.1032288008
 21
14.4079995785
 31
0.0
 11
-55.1087062669
 21
14.4478049423
 31
0.0
 11
-55.128908739
 21
14.5688692823
 31
0.0
  0
SPLINE
  5
51C
100
AcDbEntity
  8
0
100
AcDbSpline
 62
7
  6
CONTINUOUS
 70
0
 71
3
 72
15
 73
11
 74
9
 42
0.0000001
 43
0.0000001
 44
0.0000000001
 12
-0.6326794194
 22
0.2525316021
 32
0.0
 13
-0.0061443556
 23
0.6811884502
 33
0.0
 40
0.0
 40
0.0
 40
0.0
 40
0.0
 40
0.0116054157
 40
0.0300848447
 40
0.0905865137
 40
0.1826622022
 40
0.3043138116
 40
0.4518473254
 40
0.6205843306
 40
1.0
 40
1.0
 40
1.0
 40
1.0
 10
-70.4662363595
 20
-8.1737011425
 30
0.0
 10
-70.468683862
 20
-8.1727242311
 30
0.0
 10
-70.4734938613
 20
-8.1672539764
 30
0.0
 10
-70.4820735963
 20
-8.1487175325
 30
0.0
 10
-70.491326299
 20
-8.1105633206
 30
0.0
 10
-70.5011540734
 20
-8.0492232644
 30
0.0
 10
-70.5100007261
 20
-7.9675718758
 30
0.0
 10
-70.5176154676
 20
-7.8684398895
 30
0.0
 10
-70.5259463794
 20
-7.710667116
 30
0.0
 10
-70.5288718481
 20
-7.5862027386
 30
0.0
 10
-70.5296489364
 20
-7.500051548
 30
0.0
 11
-70.4662363595
 21
-8.1737011425
 31
0.0
 11
-70.4721030882
 21
-8.1684017919
 31
0.0
 11
-70.4779179015
 21
-8.1572367609
 31
0.0
 11
-70.4891804982
 21
-8.1175907445
 31
0.0
 11
-70.4996439321
 21
-8.0557462026
 31
0.0
 11
-70.5089765872
 21
-7.9734023431
 31
0.0
 11
-70.5168742275
 21
-7.8732109149
 31
0.0
 11
-70.5230786826
 21
-7.758432111
 31
0.0
 11
-70.5296489364
 21
-7.500051548
 31
0.0
  0
SPLINE
  5
51D
100
AcDbEntity
  8
0
100
AcDbSpline
 62
7
  6
CONTINUOUS
 70
0
 71
3
 72
8
 73
4
 74
2
 42
0.0000001
 43
0.0000001
 44
0.0000000001
 12
0.0123278156
 22
-0.2859387689
 32
0.0
 13
0.0020504822
 23
-0.2861970478
 33
0.0
 40
0.0
 40
0.0
 40
0.0
 40
0.0
 40
1.0
 40
1.0
 40
1.0
 40
1.0
 10
-55.0736903527
 20
12.4054442735
 30
0.0
 10
-55.0695810809
 20
12.3101313505
 30
0.0
 10
-55.0680867606
 20
12.2147079592
 30
0.0
 10
-55.0674032666
 20
12.1193089433
 30
0.0
 11
-55.0736903527
 21
12.4054442735
 31
0.0
 11
-55.0674032666
 21
12.1193089433
 31
0.0
  0
SPLINE
  5
51E
100
AcDbEntity
  8
0
100
AcDbSpline
 62
7
  6
CONTINUOUS
 70
0
 71
3
 72
10
 73
6
 74
4
 42
0.0000001
 43
0.0000001
 44
0.0000000001
 12
0.0939609924
 22
-0.3648348186
 32
0.0
 13
0.0174947093
 23
-0.3763336925
 33
0.0
 40
0.0
 40
0.0
 40
0.0
 40
0.0
 40
0.2496457337
 40
0.5003361639
 40
1.0
 40
1.0
 40
1.0
 40
1.0
 10
-55.1163089199
 20
12.779283038
 30
0.0
 10
-55.1084899329
 20
12.7489232193
 30
0.0
 10
-55.097590252
 20
12.6869062334
 30
0.0
 10
-55.082114944
 20
12.5622874579
 30
0.0
 10
-55.0766041773
 20
12.4681243856
 30
0.0
 10
-55.0736903527
 20
12.4054442735
 30
0.0
 11
-55.1163089199
 21
12.779283038
 31
0.0
 11
-55.0983989243
 21
12.6869524993
 31
0.0
 11
-55.086648901
 21
12.5932411252
 31
0.0
 11
-55.0736903527
 21
12.4054442735
 31
0.0
  0
SPLINE
  5
51F
100
AcDbEntity
  8
0
100
AcDbSpline
 62
7
  6
CONTINUOUS
 70
0
 71
3
 72
9
 73
5
 74
3
 42
0.0000001
 43
0.0000001
 44
0.0000000001
 12
-0.1234700715
 22
0.3394280102
 32
0.0
 13
0.000917333
 23
0.3611860894
 33
0.0
 40
0.0
 40
0.0
 40
0.0
 40
0.0
 40
0.2406988129
 40
1.0
 40
1.0
 40
1.0
 40
1.0
 10
-74.5868260893
 20
-18.7503964238
 30
0.0
 10
-74.5967324558
 20
-18.7231631174
 30
0.0
 10
-74.6329428095
 20
-18.6082692121
 30
0.0
 10
-74.6482660632
 20
-18.4868974278
 30
0.0
 10
-74.6480338859
 20
-18.3954810856
 30
0.0
 11
-74.5868260893
 21
-18.7503964238
 31
0.0
 11
-74.6129539208
 21
-18.6674781623
 31
0.0
 11
-74.6480338859
 21
-18.3954810856
 31
0.0
  0
LINE
  5
520
100
AcDbEntity
  8
0
100
AcDbLine
 62
7
  6
CONTINUOUS
 10
-55.2665286966
 20
13.9915155979
 11
-55.2662120273
 21
13.9783886748
  0
LINE
  5
521
100
AcDbEntity
  8
0
100
AcDbLine
 62
7
  6
CONTINUOUS
 10
-55.2662120273
 20
13.9783886748
 11
-55.2370787998
 21
13.6888813767
  0
SPLINE
  5
522
100
AcDbEntity
  8
0
100
AcDbSpline
 62
7
  6
CONTINUOUS
 70
0
 71
3
 72
8
 73
4
 74
2
 42
0.0000001
 43
0.0000001
 44
0.0000000001
 12
0.0277945502
 22
-0.2267603464
 32
0.0
 13
0.031755476
 23
-0.2262396549
 33
0.0
 40
0.0
 40
0.0
 40
0.0
 40
0.0
 40
1.0
 40
1.0
 40
1.0
 40
1.0
 10
-55.1844063242
 20
13.2330770953
 30
0.0
 10
-55.1751414742
 20
13.1574903132
 30
0.0
 10
-55.1655484858
 20
13.0819381085
 30
0.0
 10
-55.1549633271
 20
13.0065248902
 30
0.0
 11
-55.1844063242
 21
13.2330770953
 31
0.0
 11
-55.1549633271
 21
13.0065248902
 31
0.0
  0
SPLINE
  5
523
100
AcDbEntity
  8
0
100
AcDbSpline
 62
7
  6
CONTINUOUS
 70
0
 71
3
 72
8
 73
4
 74
2
 42
0.0000001
 43
0.0000001
 44
0.0000000001
 12
0.0313934427
 22
-0.2283585217
 32
0.0
 13
0.0500973987
 23
-0.224996474
 33
0.0
 40
0.0
 40
0.0
 40
0.0
 40
0.0
 40
1.0
 40
1.0
 40
1.0
 40
1.0
 10
-55.1549737111
 20
13.0065234327
 30
0.0
 10
-55.1445092302
 20
12.9304039255
 30
0.0
 10
-55.1330080461
 20
12.8542818646
 30
0.0
 10
-55.1163089132
 20
12.77928304
 30
0.0
 11
-55.1549737111
 21
13.0065234327
 31
0.0
 11
-55.1163089132
 21
12.77928304
 31
0.0
  0
SPLINE
  5
524
100
AcDbEntity
  8
0
100
AcDbSpline
 62
253
  6
CONTINUOUS
 70
0
 71
3
 72
9
 73
5
 74
3
 42
0.0000001
 43
0.0000001
 44
0.0000000001
 12
-0.0995162674
 22
0.7087103146
 32
0.0
 13
-0.0788612668
 23
0.7113049262
 33
0.0
 40
0.0
 40
0.0
 40
0.0
 40
0.0
 40
0.4999901155
 40
1.0
 40
1.0
 40
1.0
 40
1.0
 10
-55.9009375836
 20
12.8991340493
 30
0.0
 10
-55.9175233003
 20
13.0172500999
 30
0.0
 10
-55.9466207582
 20
13.2540482149
 30
0.0
 10
-55.9734169946
 20
13.4910884915
 30
0.0
 10
-55.9865607989
 20
13.6096416561
 30
0.0
 11
-55.9009375836
 21
12.8991340493
 31
0.0
 11
-55.9460449003
 21
13.2541040716
 31
0.0
 11
-55.9865607989
 21
13.6096416561
 31
0.0
  0
LINE
  5
525
100
AcDbEntity
  8
0
100
AcDbLine
 62
7
  6
CONTINUOUS
 10
-55.1284630657
 20
14.5688698515
 11
-55.1288735289
 21
14.5687234752
  0
SPLINE
  5
526
100
AcDbEntity
  8
0
100
AcDbSpline
 62
253
  6
CONTINUOUS
 70
0
 71
3
 72
11
 73
7
 74
5
 42
0.0000001
 43
0.0000001
 44
0.0000000001
 12
-1.4743420204
 22
-0.1272026903
 32
0.0
 13
0.0
 23
-1.4769635057
 33
0.0
 40
0.0
 40
0.0
 40
0.0
 40
0.0
 40
0.2315334561
 40
0.4875680246
 40
0.7437217072
 40
1.0
 40
1.0
 40
1.0
 40
1.0
 10
-73.4156901235
 20
-16.8360833674
 30
0.0
 10
-73.5294766246
 20
-16.8459005936
 30
0.0
 10
-73.7676134273
 20
-16.9076239046
 30
0.0
 10
-74.0725525979
 20
-17.1257397333
 30
0.0
 10
-74.281990373
 20
-17.4514416838
 30
0.0
 10
-74.3308019112
 20
-17.7063287714
 30
0.0
 10
-74.3308019112
 20
-17.8325
 30
0.0
 11
-73.4156901235
 21
-16.8360833674
 31
0.0
 11
-73.7470266584
 21
-16.9228487532
 31
0.0
 11
-74.0549082956
 21
-17.1424145265
 31
0.0
 11
-74.2592558043
 21
-17.4608095846
 31
0.0
 11
-74.3308019112
 21
-17.8325
 31
0.0
  0
SPLINE
  5
527
100
AcDbEntity
  8
0
100
AcDbSpline
 62
7
  6
CONTINUOUS
 70
0
 71
3
 72
13
 73
9
 74
7
 42
0.0000001
 43
0.0000001
 44
0.0000000001
 12
-1.5035520828
 22
-0.1254438727
 32
0.0
 13
-0.0788553144
 23
-1.5067139312
 33
0.0
 40
0.0
 40
0.0
 40
0.0
 40
0.0
 40
0.1492673281
 40
0.291869691
 40
0.4257181266
 40
0.5513266385
 40
0.7830202591
 40
1.0
 40
1.0
 40
1.0
 40
1.0
 10
-73.4156983736
 20
-16.8359877447
 30
0.0
 10
-73.4905087743
 20
-16.8422293019
 30
0.0
 10
-73.6359126945
 20
-16.8709010951
 30
0.0
 10
-73.8338717936
 20
-16.9560539911
 30
0.0
 10
-74.0016010014
 20
-17.071209578
 30
0.0
 10
-74.177491046
 20
-17.2461661852
 30
0.0
 10
-74.328479548
 20
-17.4987413224
 30
0.0
 10
-74.3775063553
 20
-17.7235245338
 30
0.0
 10
-74.3832096905
 20
-17.8325
 30
0.0
 11
-73.4156983736
 21
-16.8359877447
 31
0.0
 11
-73.6367001178
 21
-16.8793260285
 31
0.0
 11
-73.8344244075
 21
-16.9641599209
 31
0.0
 11
-74.0009606368
 21
-17.078389512
 31
0.0
 11
-74.1352961856
 21
-17.2120679947
 31
0.0
 11
-74.3139649069
 21
-17.5125331544
 31
0.0
 11
-74.3832096905
 21
-17.8325
 31
0.0
  0
SPLINE
  5
528
100
AcDbEntity
  8
0
100
AcDbSpline
 62
253
  6
CONTINUOUS
 70
0
 71
3
 72
9
 73
5
 74
3
 42
0.0000001
 43
0.0000001
 44
0.0000000001
 12
0.2577323225
 22
2.1772229384
 32
0.0
 13
0.2213118238
 23
2.1812259741
 33
0.0
 40
0.0
 40
0.0
 40
0.0
 40
0.0
 40
0.4999935953
 40
1.0
 40
1.0
 40
1.0
 40
1.0
 10
-56.6072686413
 20
1.7085409679
 30
0.0
 10
-56.5643138044
 20
2.0714068095
 30
0.0
 10
-56.4798571535
 20
2.7973269185
 30
0.0
 10
-56.4029646327
 20
3.5240936232
 30
0.0
 10
-56.3660788563
 20
3.8876359423
 30
0.0
 11
-56.6072686413
 21
1.7085409679
 31
0.0
 11
-56.4817492194
 21
2.7975292634
 31
0.0
 11
-56.3660788563
 21
3.8876359423
 31
0.0
  0
LINE
  5
529
100
AcDbEntity
  8
0
100
AcDbLine
 62
7
  6
CONTINUOUS
 10
-55.0723362253
 20
11.9746405615
 11
-55.1060820544
 21
11.9752479711
  0
LINE
  5
52A
100
AcDbEntity
  8
0
100
AcDbLine
 62
7
  6
CONTINUOUS
 10
-55.1060820544
 20
11.9752479711
 11
-55.821269278
 21
11.9881716201
  0
SPLINE
  5
52B
100
AcDbEntity
  8
0
100
AcDbSpline
 62
253
  6
CONTINUOUS
 70
0
 71
3
 72
9
 73
5
 74
3
 42
0.0000001
 43
0.0000001
 44
0.0000000001
 12
0.6695020558
 22
0.0011698383
 32
0.0
 13
0.6679382765
 23
-0.0457474594
 33
0.0
 40
0.0
 40
0.0
 40
0.0
 40
0.0
 40
0.585685707
 40
1.0
 40
1.0
 40
1.0
 40
1.0
 10
-56.3653242156
 20
3.8875955678
 30
0.0
 10
-56.2346182873
 20
3.8878239536
 30
0.0
 10
-56.0114895416
 20
3.8852150044
 30
0.0
 10
-55.7882825168
 20
3.8796055643
 30
0.0
 10
-55.6960370586
 20
3.8732876222
 30
0.0
 11
-56.3653242156
 21
3.8875955678
 31
0.0
 11
-55.973224801
 21
3.8837386534
 31
0.0
 11
-55.6960370586
 21
3.8732876222
 31
0.0
  0
SPLINE
  5
52C
100
AcDbEntity
  8
0
100
AcDbSpline
 62
253
  6
CONTINUOUS
 70
0
 71
3
 72
11
 73
7
 74
5
 42
0.0000001
 43
0.0000001
 44
0.0000000001
 12
0.0817574609
 22
-0.0055996134
 32
0.0
 13
0.0666561644
 23
-0.0476717298
 33
0.0
 40
0.0
 40
0.0
 40
0.0
 40
0.0
 40
0.3945495176
 40
0.6942537079
 40
0.8961272418
 40
1.0
 40
1.0
 40
1.0
 40
1.0
 10
-55.6960370586
 20
3.8732876222
 30
0.0
 10
-55.685284603
 20
3.8725511806
 30
0.0
 10
-55.6664180313
 20
3.8710707138
 30
0.0
 10
-55.6419153408
 20
3.868729344
 30
0.0
 10
-55.6258429184
 20
3.8660111326
 30
0.0
 10
-55.6173111058
 20
3.8643494901
 30
0.0
 10
-55.6150031859
 20
3.862698892
 30
0.0
 11
-55.6960370586
 21
3.8732876222
 31
0.0
 11
-55.6638030112
 21
3.8707607631
 31
0.0
 11
-55.6393830338
 21
3.8681376373
 31
0.0
 11
-55.6230602729
 21
3.8654451734
 31
0.0
 11
-55.6150031859
 21
3.862698892
 31
0.0
  0
SPLINE
  5
52D
100
AcDbEntity
  8
0
100
AcDbSpline
 62
253
  6
CONTINUOUS
 70
0
 71
3
 72
8
 73
4
 74
2
 42
0.0000001
 43
0.0000001
 44
0.0000000001
 12
-0.0659768521
 22
0.2830114484
 32
0.0
 13
-0.040409286
 23
0.2877768486
 33
0.0
 40
0.0
 40
0.0
 40
0.0
 40
0.0
 40
1.0
 40
1.0
 40
1.0
 40
1.0
 10
-55.851364055
 20
12.6127935348
 30
0.0
 10
-55.873356339
 20
12.7071306843
 30
0.0
 10
-55.8874678216
 20
12.8032084331
 30
0.0
 10
-55.9009375836
 20
12.8991340493
 30
0.0
 11
-55.851364055
 21
12.6127935348
 31
0.0
 11
-55.9009375836
 21
12.8991340493
 31
0.0
  0
SPLINE
  5
52E
100
AcDbEntity
  8
0
100
AcDbSpline
 62
253
  6
CONTINUOUS
 70
0
 71
3
 72
13
 73
9
 74
7
 42
0.0000001
 43
0.0000001
 44
0.0000000001
 12
0.0109052531
 22
0.5427476334
 32
0.0
 13
-0.5386366183
 23
0.0675611685
 33
0.0
 40
0.0
 40
0.0
 40
0.0
 40
0.0
 40
0.0374754701
 40
0.1010395282
 40
0.1984135439
 40
0.3277145465
 40
0.6546703266
 40
1.0
 40
1.0
 40
1.0
 40
1.0
 10
-56.1328074151
 20
-1.7841173126
 30
0.0
 10
-56.1326711887
 20
-1.7773374051
 30
0.0
 10
-56.1430445817
 20
-1.7600682469
 30
0.0
 10
-56.172783129
 20
-1.7401273614
 30
0.0
 10
-56.2204592432
 20
-1.7174585596
 30
0.0
 10
-56.31509388
 20
-1.684442345
 30
0.0
 10
-56.4565250732
 20
-1.6507478473
 30
0.0
 10
-56.5766968488
 20
-1.63140438
 30
0.0
 10
-56.6386992513
 20
-1.6236274213
 30
0.0
 11
-56.1328074151
 21
-1.7841173126
 31
0.0
 11
-56.1410224228
 21
-1.7655058918
 31
0.0
 11
-56.1680767342
 21
-1.7440876181
 31
0.0
 11
-56.2154937429
 21
-1.7207246924
 31
0.0
 11
-56.2815095521
 21
-1.6968746052
 31
0.0
 11
-56.4536508336
 21
-1.65362899
 31
0.0
 11
-56.6386992513
 21
-1.6236274213
 31
0.0
  0
SPLINE
  5
52F
100
AcDbEntity
  8
0
100
AcDbSpline
 62
253
  6
CONTINUOUS
 70
0
 71
3
 72
21
 73
17
 74
15
 42
0.0000001
 43
0.0000001
 44
0.0000000001
 12
-0.0700975997
 22
-0.5036362109
 32
0.0
 13
-0.5036306668
 23
0.0701374208
 33
0.0
 40
0.0
 40
0.0
 40
0.0
 40
0.0
 40
0.0010347017
 40
0.0041318225
 40
0.0093763657
 40
0.0168438758
 40
0.0387453455
 40
0.070429543
 40
0.1122874411
 40
0.1639054323
 40
0.224668687
 40
0.2939623182
 40
0.454354322
 40
0.6335279835
 40
0.8190154609
 40
1.0
 40
1.0
 40
1.0
 40
1.0
 10
-56.2130274259
 20
-2.3719360536
 30
0.0
 10
-56.2130516026
 20
-2.372109758
 30
0.0
 10
-56.2141172092
 20
-2.37177958
 30
0.0
 10
-56.2153472815
 20
-2.3719529869
 30
0.0
 10
-56.218217601
 20
-2.3715118093
 30
0.0
 10
-56.223920559
 20
-2.370973358
 30
0.0
 10
-56.2342928092
 20
-2.3696498265
 30
0.0
 10
-56.250294506
 20
-2.3676729589
 30
0.0
 10
-56.2713538912
 20
-2.3649384443
 30
0.0
 10
-56.2972674363
 20
-2.3615430287
 30
0.0
 10
-56.3277953787
 20
-2.3574878696
 30
0.0
 10
-56.3765884849
 20
-2.3509506509
 30
0.0
 10
-56.4452616837
 20
-2.3416427168
 30
0.0
 10
-56.5334351573
 20
-2.3295805379
 30
0.0
 10
-56.6250533547
 20
-2.3169451103
 30
0.0
 10
-56.6865792642
 20
-2.3084041707
 30
0.0
 10
-56.7169623856
 20
-2.3041729077
 30
0.0
 11
-56.2130274259
 21
-2.3719360536
 31
0.0
 11
-56.2135524734
 21
-2.371969888
 31
0.0
 11
-56.2151234871
 21
-2.3718599161
 31
0.0
 11
-56.2177776493
 21
-2.371600567
 31
0.0
 11
-56.221552142
 21
-2.3711862696
 31
0.0
 11
-56.2326108475
 21
-2.3698705462
 31
0.0
 11
-56.2485970608
 21
-2.3678681778
 31
0.0
 11
-56.2697069626
 21
-2.3651485758
 31
0.0
 11
-56.2957315969
 21
-2.3617370736
 31
0.0
 11
-56.3263607162
 21
-2.3576729862
 31
0.0
 11
-56.3612840727
 21
-2.3529956286
 31
0.0
 11
-56.4421047556
 21
-2.3420545623
 31
0.0
 11
-56.5323726955
 21
-2.3297094249
 31
0.0
 11
-56.6258074808
 21
-2.3168268472
 31
0.0
 11
-56.7169623856
 21
-2.3041729077
 31
0.0
  0
SPLINE
  5
530
100
AcDbEntity
  8
0
100
AcDbSpline
 62
253
  6
CONTINUOUS
 70
0
 71
3
 72
10
 73
6
 74
4
 42
0.0000001
 43
0.0000001
 44
0.0000000001
 12
-0.000614305
 22
0.5564152546
 32
0.0
 13
-0.116435407
 23
0.5440965989
 33
0.0
 40
0.0
 40
0.0
 40
0.0
 40
0.0
 40
0.5002431135
 40
0.7503557649
 40
1.0
 40
1.0
 40
1.0
 40
1.0
 10
-55.820935553
 20
12.0578691767
 30
0.0
 10
-55.8210379869
 20
12.1506501432
 30
0.0
 10
-55.8224519552
 20
12.2898833279
 30
0.0
 10
-55.8312020094
 20
12.4750880829
 30
0.0
 10
-55.8416750571
 20
12.5675166443
 30
0.0
 10
-55.8513641998
 20
12.6127935041
 30
0.0
 11
-55.820935553
 21
12.0578691767
 31
0.0
 11
-55.8252129926
 21
12.336179377
 31
0.0
 11
-55.8327340052
 21
12.4751425779
 31
0.0
 11
-55.8513641998
 21
12.6127935041
 31
0.0
  0
LINE
  5
531
100
AcDbEntity
  8
0
100
AcDbLine
 62
253
  6
CONTINUOUS
 10
-55.8106367794
 20
12.0567187121
 11
-55.8210508178
 21
12.0571491205
  0
LINE
  5
532
100
AcDbEntity
  8
0
100
AcDbLine
 62
253
  6
CONTINUOUS
 10
-55.0721729357
 20
12.0261982754
 11
-55.1053137354
 21
12.0275679723
  0
LINE
  5
533
100
AcDbEntity
  8
0
100
AcDbLine
 62
253
  6
CONTINUOUS
 10
-55.1053137354
 20
12.0275679723
 11
-55.8106367794
 21
12.0567187121
  0
SPLINE
  5
534
100
AcDbEntity
  8
0
100
AcDbSpline
 62
7
  6
CONTINUOUS
 70
0
 71
3
 72
12
 73
8
 74
6
 42
0.0000001
 43
0.0000001
 44
0.0000000001
 12
-1.5353235615
 22
0.0729718913
 32
0.0
 13
-0.0803333894
 23
1.5349559869
 33
0.0
 40
0.0
 40
0.0
 40
0.0
 40
0.0
 40
0.2910724107
 40
0.4255156135
 40
0.551497455
 40
0.7833185049
 40
1.0
 40
1.0
 40
1.0
 40
1.0
 10
-73.3845801557
 20
16.8338704652
 30
0.0
 10
-73.5335435991
 20
16.8409505
 30
0.0
 10
-73.7519989834
 20
16.9036803977
 30
0.0
 10
-73.9884693965
 20
17.0602164733
 30
0.0
 10
-74.1706669476
 20
17.2364863811
 30
0.0
 10
-74.3267874533
 20
17.4927091062
 30
0.0
 10
-74.3774074375
 20
17.7216344806
 30
0.0
 10
-74.3832096905
 20
17.8325
 30
0.0
 11
-73.3845801557
 21
16.8338704652
 31
0.0
 11
-73.8155641743
 21
16.9539324701
 31
0.0
 11
-73.9880272431
 21
17.0677718355
 31
0.0
 11
-74.1271283139
 21
17.2024856804
 31
0.0
 11
-74.3118626568
 21
17.507180055
 31
0.0
 11
-74.3832096905
 21
17.8325
 31
0.0
  0
SPLINE
  5
535
100
AcDbEntity
  8
0
100
AcDbSpline
 62
253
  6
CONTINUOUS
 70
0
 71
3
 72
9
 73
5
 74
3
 42
0.0000001
 43
0.0000001
 44
0.0000000001
 12
0.12325579
 22
-0.5583576821
 32
0.0
 13
0.0080069862
 23
-0.5717439804
 33
0.0
 40
0.0
 40
0.0
 40
0.0
 40
0.0
 40
0.5818406477
 40
1.0
 40
1.0
 40
1.0
 40
1.0
 10
-55.1208685475
 20
12.7782390543
 30
0.0
 10
-55.0969634712
 20
12.6699473225
 30
0.0
 10
-55.0788685776
 20
12.4790827577
 30
0.0
 10
-55.0741173839
 20
12.2887150921
 30
0.0
 10
-55.0730013186
 20
12.2090217279
 30
0.0
 11
-55.1208685475
 21
12.7782390543
 31
0.0
 11
-55.0804241387
 21
12.448010018
 31
0.0
 11
-55.0730013186
 21
12.2090217279
 31
0.0
  0
SPLINE
  5
536
100
AcDbEntity
  8
0
100
AcDbSpline
 62
253
  6
CONTINUOUS
 70
0
 71
3
 72
11
 73
7
 74
5
 42
0.0000001
 43
0.0000001
 44
0.0000000001
 12
0.0
 22
-1.5129973608
 32
0.0
 13
1.5111071537
 23
-0.0756054489
 33
0.0
 40
0.0
 40
0.0
 40
0.0
 40
0.0
 40
0.2501747165
 40
0.5002277905
 40
0.7501645873
 40
1.0
 40
1.0
 40
1.0
 40
1.0
 10
-74.3308019112
 20
17.8325
 30
0.0
 10
-74.3308019112
 20
17.7063287714
 30
0.0
 10
-74.281990373
 20
17.4514416838
 30
0.0
 10
-74.0725525979
 20
17.1257397333
 30
0.0
 10
-73.7576101175
 20
16.900468772
 30
0.0
 10
-73.5055488166
 20
16.8399269753
 30
0.0
 10
-73.3797061234
 20
16.8336306691
 30
0.0
 11
-74.3308019112
 21
17.8325
 31
0.0
 11
-74.2592558043
 21
17.4608095846
 31
0.0
 11
-74.0549082956
 21
17.1424145265
 31
0.0
 11
-73.7470266584
 21
16.9228487532
 31
0.0
 11
-73.3797061234
 21
16.8336306691
 31
0.0
  0
SPLINE
  5
537
100
AcDbEntity
  8
0
100
AcDbSpline
 62
7
  6
CONTINUOUS
 70
0
 71
3
 72
9
 73
5
 74
3
 42
0.0000001
 43
0.0000001
 44
0.0000000001
 12
0.0622748748
 22
0.0000855862
 32
0.0
 13
0.0622554933
 23
0.0015559284
 33
0.0
 40
0.0
 40
0.0
 40
0.0
 40
0.0
 40
0.5900860507
 40
1.0
 40
1.0
 40
1.0
 40
1.0
 10
-61.5773611667
 20
-8.213674365
 30
0.0
 10
-61.5651119884
 20
-8.2136575306
 30
0.0
 10
-61.5443325695
 20
-8.2133437535
 30
0.0
 10
-61.5236413526
 20
-8.2160188788
 30
0.0
 10
-61.5151348876
 20
-8.2158062799
 30
0.0
 11
-61.5773611667
 21
-8.213674365
 31
0.0
 11
-61.54061941
 21
-8.2143279601
 31
0.0
 11
-61.5151348876
 21
-8.2158062799
 31
0.0
  0
SPLINE
  5
538
100
AcDbEntity
  8
0
100
AcDbSpline
 62
253
  6
CONTINUOUS
 70
0
 71
3
 72
14
 73
10
 74
8
 42
0.0000001
 43
0.0000001
 44
0.0000000001
 12
-0.4054172513
 22
-0.2528455772
 32
0.0
 13
0.2507310995
 23
-0.4067283483
 33
0.0
 40
0.0
 40
0.0
 40
0.0
 40
0.0
 40
0.0235294515
 40
0.0786095801
 40
0.170558648
 40
0.2980213166
 40
0.4548673176
 40
0.6314697656
 40
1.0
 40
1.0
 40
1.0
 40
1.0
 10
-74.8587954801
 20
18.8197584321
 30
0.0
 10
-74.8619752286
 20
18.8177753261
 30
0.0
 10
-74.8616524164
 20
18.8021549118
 30
0.0
 10
-74.8538661206
 20
18.7784165012
 30
0.0
 10
-74.8372949255
 20
18.7366166119
 30
0.0
 10
-74.8114534866
 20
18.6830937519
 30
0.0
 10
-74.7774955102
 20
18.6177942084
 30
0.0
 10
-74.7232193345
 20
18.5201253016
 30
0.0
 10
-74.6787915083
 20
18.4454701432
 30
0.0
 10
-74.6479908447
 20
18.3955062453
 30
0.0
 11
-74.8587954801
 21
18.8197584321
 31
0.0
 11
-74.8614893837
 21
18.8088435582
 31
0.0
 11
-74.855245543
 21
18.7832776124
 31
0.0
 11
-74.8391186977
 21
18.7424111629
 31
0.0
 11
-74.813186066
 21
18.6873064392
 31
0.0
 11
-74.7786823078
 21
18.6207806818
 31
0.0
 11
-74.7378198041
 21
18.5469539451
 31
0.0
 11
-74.6479908447
 21
18.3955062453
 31
0.0
  0
SPLINE
  5
539
100
AcDbEntity
  8
0
100
AcDbSpline
 62
253
  6
CONTINUOUS
 70
0
 71
3
 72
18
 73
14
 74
12
 42
0.0000001
 43
0.0000001
 44
0.0000000001
 12
0.6297384036
 22
3.156776042
 32
0.0
 13
0.3800194842
 23
3.1964653334
 33
0.0
 40
0.0
 40
0.0
 40
0.0
 40
0.0
 40
0.0047904391
 40
0.0190343917
 40
0.0426023796
 40
0.0755528193
 40
0.1170987005
 40
0.166918135
 40
0.2905635696
 40
0.4406185115
 40
0.6134986148
 40
0.8014743192
 40
1.0
 40
1.0
 40
1.0
 40
1.0
 10
-57.1632418183
 20
-5.7872335571
 30
0.0
 10
-57.1622362439
 20
-5.782192776
 30
0.0
 10
-57.1601446705
 20
-5.7618416821
 30
0.0
 10
-57.153163157
 20
-5.7166814373
 30
0.0
 10
-57.1431376676
 20
-5.6414057396
 30
0.0
 10
-57.1285789576
 20
-5.5372007653
 30
0.0
 10
-57.1105124133
 20
-5.4050379902
 30
0.0
 10
-57.079359142
 20
-5.1764472211
 30
0.0
 10
-57.0330629192
 20
-4.832413094
 30
0.0
 10
-56.9704957673
 20
-4.357337719
 30
0.0
 10
-56.9005953519
 20
-3.8136081142
 30
0.0
 10
-56.8262461172
 20
-3.2180176758
 30
0.0
 10
-56.776418056
 20
-2.8063077936
 30
0.0
 10
-56.7512701804
 20
-2.5947809748
 30
0.0
 11
-57.1632418183
 21
-5.7872335571
 31
0.0
 11
-57.1611183652
 21
-5.7719601543
 31
0.0
 11
-57.1548102527
 21
-5.726545219
 31
0.0
 11
-57.144400299
 21
-5.6513980418
 31
0.0
 11
-57.1299007049
 21
-5.546327113
 31
0.0
 11
-57.1117230315
 21
-5.4138330655
 31
0.0
 11
-57.0900815282
 21
-5.254932473
 31
0.0
 11
-57.0370096752
 21
-4.8604750418
 31
0.0
 11
-56.9739228496
 21
-4.3815893612
 31
0.0
 11
-56.9029838427
 21
-3.8296324523
 31
0.0
 11
-56.8280133538
 21
-3.2292055817
 31
0.0
 11
-56.7512701804
 21
-2.5947809748
 31
0.0
  0
LINE
  5
53A
100
AcDbEntity
  8
0
100
AcDbLine
 62
253
  6
CONTINUOUS
 10
-56.7512701804
 20
-2.5947809748
 11
-56.7440968729
 21
-2.5343390885
  0
LINE
  5
53B
100
AcDbEntity
  8
0
100
AcDbLine
 62
253
  6
CONTINUOUS
 10
-56.7440968729
 20
-2.5343390885
 11
-56.7169630724
 21
-2.3041728869
  0
LINE
  5
53C
100
AcDbEntity
  8
0
100
AcDbLine
 62
253
  6
CONTINUOUS
 10
-56.5653662645
 20
-0.9615305669
 11
-56.5427388111
 21
-0.7521298578
  0
LINE
  5
53D
100
AcDbEntity
  8
0
100
AcDbLine
 62
253
  6
CONTINUOUS
 10
-56.5427388111
 20
-0.7521298578
 11
-56.5409238774
 21
-0.7352288975
  0
LINE
  5
53E
100
AcDbEntity
  8
0
100
AcDbLine
 62
253
  6
CONTINUOUS
 10
-56.5031016427
 20
-0.3788142783
 11
-56.5005982161
 21
-0.3549698105
  0
LINE
  5
53F
100
AcDbEntity
  8
0
100
AcDbLine
 62
253
  6
CONTINUOUS
 10
-56.5005982161
 20
-0.3549698105
 11
-56.4811733538
 21
-0.1687937289
  0
LINE
  5
540
100
AcDbEntity
  8
0
100
AcDbLine
 62
253
  6
CONTINUOUS
 10
-56.4295681905
 20
0.3366128941
 11
-56.4275493342
 21
0.3567143755
  0
LINE
  5
541
100
AcDbEntity
  8
0
100
AcDbLine
 62
253
  6
CONTINUOUS
 10
-56.4275493342
 20
0.3567143755
 11
-56.3443022492
 21
1.2085023658
  0
SPLINE
  5
542
100
AcDbEntity
  8
0
100
AcDbSpline
 62
253
  6
CONTINUOUS
 70
0
 71
3
 72
9
 73
5
 74
3
 42
0.0000001
 43
0.0000001
 44
0.0000000001
 12
-0.014434912
 22
0.4780062836
 32
0.0
 13
-0.0059751956
 23
0.4781868577
 33
0.0
 40
0.0
 40
0.0
 40
0.0
 40
0.0
 40
0.2402099311
 40
1.0
 40
1.0
 40
1.0
 40
1.0
 10
-74.6008243837
 20
17.9397820262
 30
0.0
 10
-74.6019801868
 20
17.9780559784
 30
0.0
 10
-74.6067550329
 20
18.1373914952
 30
0.0
 10
-74.6106215776
 20
18.2967625797
 30
0.0
 10
-74.6121348757
 20
18.4178697882
 30
0.0
 11
-74.6008243837
 21
17.9397820262
 31
0.0
 11
-74.6042217079
 21
18.0546059777
 31
0.0
 11
-74.6121348757
 21
18.4178697882
 31
0.0
  0
SPLINE
  5
543
100
AcDbEntity
  8
0
100
AcDbSpline
 62
253
  6
CONTINUOUS
 70
0
 71
3
 72
13
 73
9
 74
7
 42
0.0000001
 43
0.0000001
 44
0.0000000001
 12
-0.0092956481
 22
0.591716646
 32
0.0
 13
-0.5887435935
 23
0.0599664851
 33
0.0
 40
0.0
 40
0.0
 40
0.0
 40
0.0
 40
0.1414662082
 40
0.2469581434
 40
0.3762288652
 40
0.5251061496
 40
0.6847515309
 40
1.0
 40
1.0
 40
1.0
 40
1.0
 10
-56.0573127299
 20
-1.2059829832
 30
0.0
 10
-56.05775107
 20
-1.1780803465
 30
0.0
 10
-56.087428123
 20
-1.1322723447
 30
0.0
 10
-56.1456056399
 20
-1.0875547191
 30
0.0
 10
-56.2122672648
 20
-1.0504859353
 30
0.0
 10
-56.292612764
 20
-1.0186337597
 30
0.0
 10
-56.4107198313
 20
-0.9836105034
 30
0.0
 10
-56.5035018754
 20
-0.9678317633
 30
0.0
 10
-56.5653687143
 20
-0.9615303158
 30
0.0
 11
-56.0573127299
 21
-1.2059829832
 31
0.0
 11
-56.0945439299
 21
-1.1309991099
 31
0.0
 11
-56.1428353603
 21
-1.0914349555
 31
0.0
 11
-56.2094469568
 21
-1.0538143513
 31
0.0
 11
-56.2910546605
 21
-1.020610375
 31
0.0
 11
-56.3815810392
 21
-0.9935774127
 31
0.0
 11
-56.5653687143
 21
-0.9615303158
 31
0.0
  0
SPLINE
  5
544
100
AcDbEntity
  8
0
100
AcDbSpline
 62
253
  6
CONTINUOUS
 70
0
 71
3
 72
9
 73
5
 74
3
 42
0.0000001
 43
0.0000001
 44
0.0000000001
 12
0.7309914236
 22
0.1632381398
 32
0.0
 13
0.7308470461
 23
0.1638833331
 33
0.0
 40
0.0
 40
0.0
 40
0.0
 40
0.0
 40
0.6892933508
 40
1.0
 40
1.0
 40
1.0
 40
1.0
 10
-55.851363208
 20
12.6127937242
 30
0.0
 10
-55.6834073654
 20
12.6503000457
 30
0.0
 10
-55.4398272282
 20
12.7050914804
 30
0.0
 10
-55.196561579
 20
12.7612658361
 30
0.0
 10
-55.1208685668
 20
12.7782390499
 30
0.0
 11
-55.851363208
 21
12.6127937242
 31
0.0
 11
-55.3477604487
 21
12.7264918497
 31
0.0
 11
-55.1208685668
 21
12.7782390499
 31
0.0
  0
SPLINE
  5
545
100
AcDbEntity
  8
0
100
AcDbSpline
 62
253
  6
CONTINUOUS
 70
0
 71
3
 72
11
 73
7
 74
5
 42
0.0000001
 43
0.0000001
 44
0.0000000001
 12
0.0380481248
 22
0.1735740023
 32
0.0
 13
0.1768855141
 23
0.0169442903
 33
0.0
 40
0.0
 40
0.0
 40
0.0
 40
0.0
 40
0.1206550379
 40
0.3362305087
 40
0.6422329472
 40
1.0
 40
1.0
 40
1.0
 40
1.0
 10
-74.6121348281
 20
18.4178700053
 30
0.0
 10
-74.6106045955
 20
18.4248508646
 30
0.0
 10
-74.5937932623
 20
18.4393819175
 30
0.0
 10
-74.5588150323
 20
18.4524196232
 30
0.0
 10
-74.5076202135
 20
18.4644066278
 30
0.0
 10
-74.4686671226
 20
18.4693617786
 30
0.0
 10
-74.4475725196
 20
18.4713824816
 30
0.0
 11
-74.6121348281
 21
18.4178700053
 31
0.0
 11
-74.5983459522
 21
18.4342874648
 31
0.0
 11
-74.5634053545
 21
18.4499897063
 31
0.0
 11
-74.5105682578
 21
18.4628310715
 31
0.0
 11
-74.4475725196
 21
18.4713824816
 31
0.0
  0
SPLINE
  5
546
100
AcDbEntity
  8
0
100
AcDbSpline
 62
7
  6
CONTINUOUS
 70
0
 71
3
 72
16
 73
12
 74
10
 42
0.0000001
 43
0.0000001
 44
0.0000000001
 12
0.2514125165
 22
-0.0296818521
 32
0.0
 13
0.0132492963
 23
0.2528116333
 33
0.0
 40
0.0
 40
0.0
 40
0.0
 40
0.0
 40
0.1935503148
 40
0.3801888365
 40
0.5523524234
 40
0.7039462667
 40
0.8291397076
 40
0.9225615264
 40
0.9799284961
 40
0.994310331
 40
1.0
 40
1.0
 40
1.0
 40
1.0
 10
-71.221725382
 20
18.9320750066
 30
0.0
 10
-71.205505058
 20
18.9301600293
 30
0.0
 10
-71.1737352395
 20
18.925584921
 30
0.0
 10
-71.1278942784
 20
18.9171374179
 30
0.0
 10
-71.0857695198
 20
18.9080398609
 30
0.0
 10
-71.0489858714
 20
18.8992250341
 30
0.0
 10
-71.0185007819
 20
18.8916509613
 30
0.0
 10
-70.99637592
 20
18.8858191504
 30
0.0
 10
-70.9819812852
 20
18.8829551893
 30
0.0
 10
-70.9762861757
 20
18.8818256657
 30
0.0
 10
-70.9739898977
 20
18.8823189923
 30
0.0
 10
-70.9739647696
 20
18.8827984638
 30
0.0
 11
-71.221725382
 21
18.9320750066
 31
0.0
 11
-71.1732139334
 21
18.9251805329
 31
0.0
 11
-71.126737508
 21
18.9166703402
 31
0.0
 11
-71.0841268521
 21
18.9075075291
 31
0.0
 11
-71.04678852
 21
18.8986382154
 31
0.0
 11
-71.0160406704
 21
18.8909527556
 31
0.0
 11
-70.9930813459
 21
18.8852767346
 31
0.0
 11
-70.9788592252
 21
18.8823361421
 31
0.0
 11
-70.9752258465
 21
18.8821024723
 31
0.0
 11
-70.9739647696
 21
18.8827984638
 31
0.0
  0
SPLINE
  5
547
100
AcDbEntity
  8
0
100
AcDbSpline
 62
253
  6
CONTINUOUS
 70
0
 71
3
 72
9
 73
5
 74
3
 42
0.0000001
 43
0.0000001
 44
0.0000000001
 12
0.0317538716
 22
-0.2261323314
 32
0.0
 13
0.0527463293
 23
-0.2221755261
 33
0.0
 40
0.0
 40
0.0
 40
0.0
 40
0.0
 40
0.3060695913
 40
1.0
 40
1.0
 40
1.0
 40
1.0
 10
-55.1592421919
 20
13.0032841338
 30
0.0
 10
-55.1560025604
 20
12.9802133904
 30
0.0
 10
-55.1455511416
 20
12.9048382938
 30
0.0
 10
-55.133064999
 20
12.8296122882
 30
0.0
 10
-55.1208642384
 20
12.7782208369
 30
0.0
 11
-55.1592421919
 21
13.0032841338
 31
0.0
 11
-55.1494142274
 21
12.934087307
 31
0.0
 11
-55.1208642384
 21
12.7782208369
 31
0.0
  0
SPLINE
  5
548
100
AcDbEntity
  8
0
100
AcDbSpline
 62
253
  6
CONTINUOUS
 70
0
 71
3
 72
11
 73
7
 74
5
 42
0.0000001
 43
0.0000001
 44
0.0000000001
 12
-0.1768857044
 22
0.0169442248
 32
0.0
 13
-0.0380482492
 23
0.1735741625
 33
0.0
 40
0.0
 40
0.0
 40
0.0
 40
0.0
 40
0.3577671133
 40
0.6637696403
 40
0.879345117
 40
1.0
 40
1.0
 40
1.0
 40
1.0
 10
-74.4475722905
 20
-18.4713828459
 30
0.0
 10
-74.4686669197
 20
-18.4693621505
 30
0.0
 10
-74.507620061
 20
-18.4644070144
 30
0.0
 10
-74.5588149537
 20
-18.4524200334
 30
0.0
 10
-74.5937932221
 20
-18.4393823559
 30
0.0
 10
-74.6106045982
 20
-18.424851323
 30
0.0
 10
-74.6121348339
 20
-18.4178704662
 30
0.0
 11
-74.4475722905
 21
-18.4713828459
 31
0.0
 11
-74.510568109
 21
-18.4628314605
 31
0.0
 11
-74.5634052856
 21
-18.4499901198
 31
0.0
 11
-74.5983459383
 21
-18.4342879021
 31
0.0
 11
-74.6121348339
 21
-18.4178704662
 31
0.0
  0
SPLINE
  5
549
100
AcDbEntity
  8
0
100
AcDbSpline
 62
253
  6
CONTINUOUS
 70
0
 71
3
 72
9
 73
5
 74
3
 42
0.0000001
 43
0.0000001
 44
0.0000000001
 12
-0.0709547967
 22
0.2580692159
 32
0.0
 13
0.0026187688
 23
0.2676330425
 33
0.0
 40
0.0
 40
0.0
 40
0.0
 40
0.0
 40
0.2527135808
 40
1.0
 40
1.0
 40
1.0
 40
1.0
 10
-74.5774476526
 20
-18.6827703811
 30
0.0
 10
-74.5834247328
 20
-18.6610311825
 30
0.0
 10
-74.6041152781
 20
-18.5742229903
 30
0.0
 10
-74.6127871573
 20
-18.4845366486
 30
0.0
 10
-74.6121348339
 20
-18.4178704693
 30
0.0
 11
-74.5774476526
 21
-18.6827703811
 31
0.0
 11
-74.5931147344
 21
-18.6169721537
 31
0.0
 11
-74.6121348339
 21
-18.4178704693
 31
0.0
  0
SPLINE
  5
54A
100
AcDbEntity
  8
0
100
AcDbSpline
 62
253
  6
CONTINUOUS
 70
0
 71
3
 72
9
 73
5
 74
3
 42
0.0000001
 43
0.0000001
 44
0.0000000001
 12
0.0760538001
 22
-0.6858756289
 32
0.0
 13
0.0959606068
 23
-0.6833748026
 33
0.0
 40
0.0
 40
0.0
 40
0.0
 40
0.0
 40
0.5076051056
 40
1.0
 40
1.0
 40
1.0
 40
1.0
 10
-55.2417315148
 20
13.6884012849
 30
0.0
 10
-55.2288630824
 20
13.5723499612
 30
0.0
 10
-55.2030013111
 20
13.3437863971
 30
0.0
 10
-55.1749923641
 20
13.1154475549
 30
0.0
 10
-55.1592421931
 20
13.0032841336
 30
0.0
 11
-55.2417315148
 21
13.6884012849
 31
0.0
 11
-55.2020547005
 21
13.3403677995
 31
0.0
 11
-55.1592421931
 21
13.0032841336
 31
0.0
  0
SPLINE
  5
54B
100
AcDbEntity
  8
0
100
AcDbSpline
 62
7
  6
CONTINUOUS
 70
0
 71
3
 72
16
 73
12
 74
10
 42
0.0000001
 43
0.0000001
 44
0.0000000001
 12
-0.0132492629
 22
0.2528109967
 32
0.0
 13
-0.2514118834
 23
-0.0296817773
 33
0.0
 40
0.0
 40
0.0
 40
0.0
 40
0.0
 40
0.0056887383
 40
0.020071501
 40
0.0774411449
 40
0.1708654864
 40
0.2960601413
 40
0.4476550751
 40
0.6198170829
 40
0.8064509682
 40
1.0
 40
1.0
 40
1.0
 40
1.0
 10
-70.9739647696
 20
-18.8827984638
 30
0.0
 10
-70.9739898935
 20
-18.882319072
 30
0.0
 10
-70.9762867663
 20
-18.8818267176
 30
0.0
 10
-70.9819809451
 20
-18.8829584574
 30
0.0
 10
-70.9963765525
 20
-18.8858234173
 30
0.0
 10
-71.0185018397
 20
-18.8916538824
 30
0.0
 10
-71.0489878892
 20
-18.8992261558
 30
0.0
 10
-71.0857715443
 20
-18.9080404812
 30
0.0
 10
-71.127895361
 20
-18.9171399197
 30
0.0
 10
-71.1737357687
 20
-18.9255865055
 30
0.0
 10
-71.2055052064
 20
-18.9301600469
 30
0.0
 10
-71.221725382
 20
-18.9320750066
 30
0.0
 11
-70.9739647696
 21
-18.8827984638
 31
0.0
 11
-70.975225917
 21
-18.8821030953
 31
0.0
 11
-70.9788594351
 21
-18.8823381113
 31
0.0
 11
-70.9930818219
 21
-18.885280579
 31
0.0
 11
-71.01604192
 21
-18.8909558835
 31
0.0
 11
-71.0467904149
 21
-18.8986396998
 31
0.0
 11
-71.0841290345
 21
-18.9075085793
 31
0.0
 11
-71.1267389518
 21
-18.9166724015
 31
0.0
 11
-71.1732141976
 21
-18.925181859
 31
0.0
 11
-71.221725382
 21
-18.9320750066
 31
0.0
  0
SPLINE
  5
54C
100
AcDbEntity
  8
0
100
AcDbSpline
 62
7
  6
CONTINUOUS
 70
0
 71
3
 72
9
 73
5
 74
3
 42
0.0000001
 43
0.0000001
 44
0.0000000001
 12
0.2615119626
 22
-0.1928050529
 32
0.0
 13
0.1163913321
 23
-0.3033403251
 33
0.0
 40
0.0
 40
0.0
 40
0.0
 40
0.0
 40
0.5199450981
 40
1.0
 40
1.0
 40
1.0
 40
1.0
 10
-55.9392234448
 20
-0.2495067952
 30
0.0
 10
-55.8938994904
 20
-0.2829228093
 30
0.0
 10
-55.8137249198
 20
-0.3577563521
 30
0.0
 10
-55.7577215395
 20
-0.4527352244
 30
0.0
 10
-55.7390967963
 20
-0.5012752277
 30
0.0
 11
-55.9392234448
 21
-0.2495067952
 31
0.0
 11
-55.8170612503
 21
-0.3661876237
 31
0.0
 11
-55.7390967963
 21
-0.5012752277
 31
0.0
  0
LINE
  5
54D
100
AcDbEntity
  8
0
100
AcDbLine
 62
253
  6
CONTINUOUS
 10
-55.9865608193
 20
13.6096416539
 11
-55.2417316083
 21
13.6884012786
  0
LINE
  5
54E
100
AcDbEntity
  8
0
100
AcDbLine
 62
7
  6
CONTINUOUS
 10
-56.0189498951
 20
13.93150348
 11
-55.2708838657
 21
13.9780976837
  0
SPLINE
  5
54F
100
AcDbEntity
  8
0
100
AcDbSpline
 62
253
  6
CONTINUOUS
 70
0
 71
3
 72
9
 73
5
 74
3
 42
0.0000001
 43
0.0000001
 44
0.0000000001
 12
0.0059752128
 22
0.4781893563
 32
0.0
 13
0.0144349874
 23
0.4780087811
 33
0.0
 40
0.0
 40
0.0
 40
0.0
 40
0.0
 40
0.2612226999
 40
1.0
 40
1.0
 40
1.0
 40
1.0
 10
-74.6121348815
 20
-18.417870249
 30
0.0
 10
-74.6116145944
 20
-18.3762322775
 30
0.0
 10
-74.6089974433
 20
-18.2168430326
 30
0.0
 10
-74.6043791307
 20
-18.0574960385
 30
0.0
 10
-74.6008243837
 20
-17.9397820262
 30
0.0
 11
-74.6121348815
 21
-18.417870249
 31
0.0
 11
-74.610110722
 21
-18.2929629828
 31
0.0
 11
-74.6008243837
 21
-17.9397820262
 31
0.0
  0
SPLINE
  5
550
100
AcDbEntity
  8
0
100
AcDbSpline
 62
253
  6
CONTINUOUS
 70
0
 71
3
 72
11
 73
7
 74
5
 42
0.0000001
 43
0.0000001
 44
0.0000000001
 12
-0.0023595428
 22
1.5569195092
 32
0.0
 13
-1.5569194829
 23
0.0023768792
 33
0.0
 40
0.0
 40
0.0
 40
0.0
 40
0.0
 40
0.2503890946
 40
0.5005968885
 40
0.7504552924
 40
1.0
 40
1.0
 40
1.0
 40
1.0
 10
-70.7913374257
 20
17.849847672
 30
0.0
 10
-70.7915343603
 20
17.9797928941
 30
0.0
 10
-70.8436490728
 20
18.2423234067
 30
0.0
 10
-71.0652677722
 20
18.5743495509
 30
0.0
 10
-71.3960943212
 20
18.7970587009
 30
0.0
 10
-71.6580251181
 20
18.8494976546
 30
0.0
 10
-71.7875321238
 20
18.8496953671
 30
0.0
 11
-70.7913374257
 21
17.849847672
 31
0.0
 11
-70.8676147133
 21
18.2321485629
 31
0.0
 11
-71.0836512227
 21
18.5563096698
 31
0.0
 11
-71.4066279897
 21
18.7731383745
 31
0.0
 11
-71.7875321238
 21
18.8496953671
 31
0.0
  0
SPLINE
  5
551
100
AcDbEntity
  8
0
100
AcDbSpline
 62
253
  6
CONTINUOUS
 70
0
 71
3
 72
11
 73
7
 74
5
 42
0.0000001
 43
0.0000001
 44
0.0000000001
 12
1.4708627651
 22
0.1317090184
 32
0.0
 13
0.0
 23
1.4703578959
 33
0.0
 40
0.0
 40
0.0
 40
0.0
 40
0.0
 40
0.2049739656
 40
0.4696210817
 40
0.7346545764
 40
1.0
 40
1.0
 40
1.0
 40
1.0
 10
-71.700054239
 20
16.8364256732
 30
0.0
 10
-71.5995580477
 20
16.8454246464
 30
0.0
 10
-71.3709991561
 20
16.9012825876
 30
0.0
 10
-71.0646680342
 20
17.1073041258
 30
0.0
 10
-70.8431154744
 20
17.4396694848
 30
0.0
 10
-70.7913374257
 20
17.7024490871
 30
0.0
 10
-70.7913374257
 20
17.8325
 30
0.0
 11
-71.700054239
 21
16.8364256732
 31
0.0
 11
-71.4062783499
 21
16.9086325574
 31
0.0
 11
-71.0831160974
 21
17.1253932188
 31
0.0
 11
-70.8671802757
 21
17.4497898986
 31
0.0
 11
-70.7913374257
 21
17.8325
 31
0.0
  0
SPLINE
  5
552
100
AcDbEntity
  8
0
100
AcDbSpline
 62
7
  6
CONTINUOUS
 70
0
 71
3
 72
13
 73
9
 74
7
 42
0.0000001
 43
0.0000001
 44
0.0000000001
 12
1.5163294473
 22
0.1321568192
 32
0.0
 13
0.1321568192
 23
1.5163294473
 33
0.0
 40
0.0
 40
0.0
 40
0.0
 40
0.0
 40
0.1482525177
 40
0.2907077661
 40
0.4249557974
 40
0.551170257
 40
0.7837335794
 40
1.0
 40
1.0
 40
1.0
 40
1.0
 10
-71.7000434603
 20
16.8363053019
 30
0.0
 10
-71.6251102409
 20
16.8428361623
 30
0.0
 10
-71.4791435296
 20
16.8721302861
 30
0.0
 10
-71.27976123
 20
16.9575884802
 30
0.0
 10
-71.1093845316
 20
17.0726716467
 30
0.0
 10
-70.9288309129
 20
17.2472387387
 30
0.0
 10
-70.7704519405
 20
17.498312215
 30
0.0
 10
-70.7133757896
 20
17.7231896193
 30
0.0
 10
-70.7038487622
 20
17.8325
 30
0.0
 11
-71.7000434603
 21
16.8363053019
 31
0.0
 11
-71.4787219088
 21
16.8802999196
 31
0.0
 11
-71.2793081253
 21
16.9654380644
 31
0.0
 11
-71.1099067793
 21
17.0797024779
 31
0.0
 11
-70.971808879
 21
17.2132484784
 31
0.0
 11
-70.7838286034
 21
17.5131899044
 31
0.0
 11
-70.7038487622
 21
17.8325
 31
0.0
  0
SPLINE
  5
553
100
AcDbEntity
  8
0
100
AcDbSpline
 62
253
  6
CONTINUOUS
 70
0
 71
3
 72
8
 73
4
 74
2
 42
0.0000001
 43
0.0000001
 44
0.0000000001
 12
-0.0874258432
 22
0.0078285835
 32
0.0
 13
-0.0873958346
 23
0.0
 33
0.0
 40
0.0
 40
0.0
 40
0.0
 40
0.0
 40
1.0
 40
1.0
 40
1.0
 40
1.0
 10
-71.700054239
 20
-16.8364256732
 30
0.0
 10
-71.7291961867
 20
-16.8338161453
 30
0.0
 10
-71.758400179
 20
-16.8325
 30
0.0
 10
-71.7875321238
 20
-16.8325
 30
0.0
 11
-71.700054239
 21
-16.8364256732
 31
0.0
 11
-71.7875321238
 21
-16.8325
 31
0.0
  0
SPLINE
  5
554
100
AcDbEntity
  8
0
100
AcDbSpline
 62
7
  6
CONTINUOUS
 70
0
 71
3
 72
13
 73
9
 74
7
 42
0.0000001
 43
0.0000001
 44
0.0000000001
 12
1.5163294473
 22
-0.1321568192
 32
0.0
 13
0.1321568192
 23
-1.5163294473
 33
0.0
 40
0.0
 40
0.0
 40
0.0
 40
0.0
 40
0.1482525177
 40
0.2907077661
 40
0.4249557974
 40
0.551170257
 40
0.7837335794
 40
1.0
 40
1.0
 40
1.0
 40
1.0
 10
-71.7000434603
 20
-16.8363053019
 30
0.0
 10
-71.6251102409
 20
-16.8428361623
 30
0.0
 10
-71.4791435296
 20
-16.8721302861
 30
0.0
 10
-71.27976123
 20
-16.9575884802
 30
0.0
 10
-71.1093845316
 20
-17.0726716467
 30
0.0
 10
-70.9288309129
 20
-17.2472387387
 30
0.0
 10
-70.7704519405
 20
-17.498312215
 30
0.0
 10
-70.7133757896
 20
-17.7231896193
 30
0.0
 10
-70.7038487622
 20
-17.8325
 30
0.0
 11
-71.7000434603
 21
-16.8363053019
 31
0.0
 11
-71.4787219088
 21
-16.8802999196
 31
0.0
 11
-71.2793081253
 21
-16.9654380644
 31
0.0
 11
-71.1099067793
 21
-17.0797024779
 31
0.0
 11
-70.971808879
 21
-17.2132484784
 31
0.0
 11
-70.7838286034
 21
-17.5131899044
 31
0.0
 11
-70.7038487622
 21
-17.8325
 31
0.0
  0
SPLINE
  5
555
100
AcDbEntity
  8
0
100
AcDbSpline
 62
253
  6
CONTINUOUS
 70
0
 71
3
 72
11
 73
7
 74
5
 42
0.0000001
 43
0.0000001
 44
0.0000000001
 12
1.5569194829
 22
0.0023768792
 32
0.0
 13
0.0023595428
 23
1.5569195092
 33
0.0
 40
0.0
 40
0.0
 40
0.0
 40
0.0
 40
0.2495447076
 40
0.4994031115
 40
0.7496109054
 40
1.0
 40
1.0
 40
1.0
 40
1.0
 10
-71.7875321238
 20
-18.8496953671
 30
0.0
 10
-71.6580251181
 20
-18.8494976546
 30
0.0
 10
-71.3960943212
 20
-18.7970587009
 30
0.0
 10
-71.0652677722
 20
-18.5743495509
 30
0.0
 10
-70.8436490728
 20
-18.2423234067
 30
0.0
 10
-70.7915343603
 20
-17.9797928941
 30
0.0
 10
-70.7913374257
 20
-17.849847672
 30
0.0
 11
-71.7875321238
 21
-18.8496953671
 31
0.0
 11
-71.4066279897
 21
-18.7731383745
 31
0.0
 11
-71.0836512227
 21
-18.5563096698
 31
0.0
 11
-70.8676147133
 21
-18.2321485629
 31
0.0
 11
-70.7913374257
 21
-17.849847672
 31
0.0
  0
SPLINE
  5
556
100
AcDbEntity
  8
0
100
AcDbSpline
 62
7
  6
CONTINUOUS
 70
0
 71
3
 72
22
 73
18
 74
16
 42
0.0000001
 43
0.0000001
 44
0.0000000001
 12
0.0
 22
-3.0236294541
 32
0.0
 13
-3.0236291702
 23
0.0013102386
 33
0.0
 40
0.0
 40
0.0
 40
0.0
 40
0.0
 40
0.1937866459
 40
0.380114014
 40
0.5518296425
 40
0.7023807852
 40
0.8260816067
 40
0.8763884532
 40
0.9183740844
 40
0.9361359917
 40
0.9516994631
 40
0.965044266
 40
0.976165642
 40
0.9850840838
 40
0.9887383881
 40
0.9918769255
 40
1.0
 40
1.0
 40
1.0
 40
1.0
 10
-86.2915446599
 20
0.0
 30
0.0
 10
-86.2915446599
 20
-0.1953130034
 30
0.0
 10
-86.2940548673
 20
-0.578426484
 30
0.0
 10
-86.3052699738
 20
-1.1345061944
 30
0.0
 10
-86.3233883307
 20
-1.6468135371
 30
0.0
 10
-86.3476664353
 20
-2.0956595169
 30
0.0
 10
-86.3733342648
 20
-2.4218384241
 30
0.0
 10
-86.3973751911
 20
-2.6382174364
 30
0.0
 10
-86.4127294371
 20
-2.7480991197
 30
0.0
 10
-86.4257521053
 20
-2.8228842621
 30
0.0
 10
-86.4351133858
 20
-2.8689914735
 30
0.0
 10
-86.4445706853
 20
-2.9082168785
 30
0.0
 10
-86.4541337751
 20
-2.9405206229
 30
0.0
 10
-86.4625270831
 20
-2.9628522085
 30
0.0
 10
-86.4696017499
 20
-2.9771618278
 30
0.0
 10
-86.4770905428
 20
-2.9897361309
 30
0.0
 10
-86.48659266
 20
-3.0000034597
 30
0.0
 10
-86.494779715
 20
-2.999999912
 30
0.0
 11
-86.2915446599
 21
0.0
 31
0.0
 11
-86.295459558
 21
-0.5859259316
 31
0.0
 11
-86.3070505976
 21
-1.1491916008
 31
0.0
 11
-86.3258637873
 21
-1.6680550762
 31
0.0
 11
-86.351165032
 21
-2.1225622627
 31
0.0
 11
-86.381971902
 21
-2.4953168363
 31
0.0
 11
-86.3990749591
 21
-2.6464615129
 31
0.0
 11
-86.417094548
 21
-2.7721251145
 31
0.0
 11
-86.4263941574
 21
-2.8250192545
 31
0.0
 11
-86.4358573228
 21
-2.8711161082
 31
0.0
 11
-86.4454613413
 21
-2.9103062125
 31
0.0
 11
-86.4551831697
 21
-2.9424971401
 31
0.0
 11
-86.4649995072
 21
-2.9676130332
 31
0.0
 11
-86.4699357796
 21
-2.9774983459
 31
0.0
 11
-86.4748868467
 21
-2.9855941935
 31
0.0
 11
-86.494779715
 21
-2.999999912
 31
0.0
  0
SPLINE
  5
557
100
AcDbEntity
  8
0
100
AcDbSpline
 62
7
  6
CONTINUOUS
 70
0
 71
3
 72
27
 73
23
 74
21
 42
0.0000001
 43
0.0000001
 44
0.0000000001
 12
0.6169753556
 22
0.0
 32
0.0
 13
-0.6169753556
 23
0.0
 33
0.0
 40
0.0
 40
0.0
 40
0.0
 40
0.0
 40
0.0047122208
 40
0.0130770749
 40
0.0427259962
 40
0.0893515242
 40
0.151392615
 40
0.2265893069
 40
0.3121650363
 40
0.4049376503
 40
0.5014285127
 40
0.5979802192
 40
0.6908908854
 40
0.7765644961
 40
0.8516710811
 40
0.9133106694
 40
0.9591746551
 40
0.9756888952
 40
0.9877963067
 40
0.9922249349
 40
0.9956302509
 40
1.0
 40
1.0
 40
1.0
 40
1.0
 10
-85.0585725305
 20
-31.212462
 30
0.0
 10
-85.0576034225
 20
-31.212462
 30
0.0
 10
-85.0552599171
 20
-31.2144262614
 30
0.0
 10
-85.0512899151
 20
-31.2220746815
 30
0.0
 10
-85.0460304609
 20
-31.2389468345
 30
0.0
 10
-85.0398237204
 20
-31.2665921454
 30
0.0
 10
-85.0331294216
 20
-31.3038679787
 30
0.0
 10
-85.0263507784
 20
-31.3491731852
 30
0.0
 10
-85.0197398258
 20
-31.400905397
 30
0.0
 10
-85.013572035
 20
-31.4570916584
 30
0.0
 10
-85.0080859658
 20
-31.5156183035
 30
0.0
 10
-85.0034974595
 20
-31.574249861
 30
0.0
 10
-84.9999823424
 20
-31.6307276105
 30
0.0
 10
-84.997679621
 20
-31.6828527813
 30
0.0
 10
-84.9966475012
 20
-31.7285910391
 30
0.0
 10
-84.9969503461
 20
-31.7661463227
 30
0.0
 10
-84.9982306254
 20
-31.7916447419
 30
0.0
 10
-85.0002112227
 20
-31.8068471996
 30
0.0
 10
-85.0015872172
 20
-31.8135076689
 30
0.0
 10
-85.0030094547
 20
-31.8173943446
 30
0.0
 10
-85.0041112839
 20
-31.8195822055
 30
0.0
 10
-85.0055241904
 20
-31.820852
 30
0.0
 10
-85.0064228662
 20
-31.820852
 30
0.0
 11
-85.0585725305
 21
-31.212462
 31
0.0
 11
-85.0560610156
 21
-31.2139265225
 31
0.0
 11
-85.0533242343
 21
-31.2183020234
 31
0.0
 11
-85.0472843686
 21
-31.2355687893
 31
0.0
 11
-85.0406848156
 21
-31.263568339
 31
0.0
 11
-85.0337762986
 21
-31.3012175648
 31
0.0
 11
-85.0268194937
 21
-31.3470875226
 31
0.0
 11
-85.020076638
 21
-31.399453303
 31
0.0
 11
-85.0138031347
 21
-31.4563468834
 31
0.0
 11
-85.0082389678
 21
-31.5156187714
 31
0.0
 11
-85.0035999508
 21
-31.5750078884
 31
0.0
 11
-85.0000686865
 21
-31.6322226093
 31
0.0
 11
-84.9977862397
 21
-31.6850318144
 31
0.0
 11
-84.9968448459
 21
-31.731361163
 31
0.0
 11
-84.9972827484
 21
-31.7693887487
 31
0.0
 11
-84.9990821645
 21
-31.7976284268
 31
0.0
 11
-85.0004717387
 21
-31.8077221051
 31
0.0
 11
-85.0021700871
 21
-31.8149964526
 31
0.0
 11
-85.0031299197
 21
-31.8175546712
 31
0.0
 11
-85.0041605818
 21
-31.8193854962
 31
0.0
 11
-85.0064228662
 21
-31.820852
 31
0.0
  0
SPLINE
  5
558
100
AcDbEntity
  8
0
100
AcDbSpline
 62
7
  6
CONTINUOUS
 70
0
 71
3
 72
22
 73
18
 74
16
 42
0.0000001
 43
0.0000001
 44
0.0000000001
 12
3.0236292037
 22
0.001319241
 32
0.0
 13
0.0
 23
-3.0236294915
 33
0.0
 40
0.0
 40
0.0
 40
0.0
 40
0.0
 40
0.0081230645
 40
0.0112615984
 40
0.0149158991
 40
0.0238343342
 40
0.0349557036
 40
0.0483005002
 40
0.0638639664
 40
0.0816258689
 40
0.1236114922
 40
0.1739183336
 40
0.2976191514
 40
0.4481703008
 40
0.6198859432
 40
0.8062133311
 40
1.0
 40
1.0
 40
1.0
 40
1.0
 10
-86.4947797563
 20
2.9999999121
 30
0.0
 10
-86.4865927113
 20
3.0000034842
 30
0.0
 10
-86.4770905786
 20
2.98973618
 30
0.0
 10
-86.4696017872
 20
2.9771618963
 30
0.0
 10
-86.4625271183
 20
2.962852293
 30
0.0
 10
-86.4541338094
 20
2.9405207257
 30
0.0
 10
-86.4445707178
 20
2.9082170019
 30
0.0
 10
-86.4351134171
 20
2.8689916156
 30
0.0
 10
-86.425752135
 20
2.8228844207
 30
0.0
 10
-86.412729464
 20
2.7480992961
 30
0.0
 10
-86.3973752151
 20
2.6382176299
 30
0.0
 10
-86.3733342833
 20
2.4218386324
 30
0.0
 10
-86.3476664484
 20
2.0956597236
 30
0.0
 10
-86.3233883384
 20
1.6468137214
 30
0.0
 10
-86.3052699772
 20
1.1345063318
 30
0.0
 10
-86.294054868
 20
0.5784265575
 30
0.0
 10
-86.2915446599
 20
0.1953130291
 30
0.0
 10
-86.2915446599
 20
-0.0
 30
0.0
 11
-86.4947797563
 21
2.9999999121
 31
0.0
 11
-86.4748868848
 21
2.985594249
 31
0.0
 11
-86.469935817
 21
2.9774984141
 31
0.0
 11
-86.4649995439
 21
2.9676131136
 31
0.0
 11
-86.4551832048
 21
2.9424972426
 31
0.0
 11
-86.4454613747
 21
2.9103063361
 31
0.0
 11
-86.4358573547
 21
2.8711162512
 31
0.0
 11
-86.4263941876
 21
2.8250194134
 31
0.0
 11
-86.4170945763
 21
2.7721252878
 31
0.0
 11
-86.399074984
 21
2.6464617091
 31
0.0
 11
-86.3819719234
 21
2.4953170467
 31
0.0
 11
-86.3511650467
 21
2.1225624801
 31
0.0
 11
-86.325863796
 21
1.668055268
 31
0.0
 11
-86.3070506016
 21
1.1491917443
 31
0.0
 11
-86.295459559
 21
0.5859260085
 31
0.0
 11
-86.2915446599
 21
-0.0
 31
0.0
  0
LINE
  5
559
100
AcDbEntity
  8
0
100
AcDbLine
 62
7
  6
CONTINUOUS
 10
-85.0297305994
 20
-33.250056
 11
-85.0856299212
 21
-32.758394
  0
SPLINE
  5
55A
100
AcDbEntity
  8
RACCORDO
100
AcDbSpline
 62
253
  6
CONTINUOUS
 70
0
 71
3
 72
17
 73
13
 74
11
 42
0.0000001
 43
0.0000001
 44
0.0000000001
 12
0.0537703308
 22
0.5035959653
 32
0.0
 13
-0.5063823027
 23
-0.0087811318
 33
0.0
 40
0.0
 40
0.0
 40
0.0
 40
0.0
 40
0.3794984242
 40
0.5510552991
 40
0.7013345001
 40
0.7666341394
 40
0.8245280911
 40
0.8745020977
 40
0.9161590068
 40
0.9492535874
 40
0.9737792866
 40
1.0
 40
1.0
 40
1.0
 40
1.0
 10
-83.1679189455
 20
38.9859871049
 30
0.0
 10
-83.1611170269
 20
39.04969173
 30
0.0
 10
-83.1529957666
 20
39.1424055881
 30
0.0
 10
-83.1469322998
 20
39.2606595803
 30
0.0
 10
-83.145486839
 20
39.3260122494
 30
0.0
 10
-83.1459406666
 20
39.372187218
 30
0.0
 10
-83.1469701211
 20
39.4013927246
 30
0.0
 10
-83.1487267772
 20
39.426624804
 30
0.0
 10
-83.1510474138
 20
39.4474329225
 30
0.0
 10
-83.1542486622
 20
39.4642609577
 30
0.0
 10
-83.1577533863
 20
39.4769992913
 30
0.0
 10
-83.1634930438
 20
39.4866641886
 30
0.0
 10
-83.1679189455
 20
39.4865874394
 30
0.0
 11
-83.1679189455
 21
38.9859871049
 31
0.0
 11
-83.1515233589
 21
39.1774866948
 31
0.0
 11
-83.1471975306
 21
39.2642653687
 31
0.0
 11
-83.1457345378
 21
39.3403614753
 31
0.0
 11
-83.146101283
 21
39.3734309948
 31
0.0
 11
-83.1471975294
 21
39.4027313745
 31
0.0
 11
-83.1490113952
 21
39.4279760511
 31
0.0
 11
-83.151523357
 21
39.4489234675
 31
0.0
 11
-83.1547066209
 21
39.4653794372
 31
0.0
 11
-83.1585276995
 21
39.4771983517
 31
0.0
 11
-83.1679189455
 21
39.4865874394
 31
0.0
  0
SPLINE
  5
55B
100
AcDbEntity
  8
RACCORDO
100
AcDbSpline
 62
253
  6
CONTINUOUS
 70
0
 71
3
 72
17
 73
13
 74
11
 42
0.0000001
 43
0.0000001
 44
0.0000000001
 12
0.5063822571
 22
-0.0087832969
 32
0.0
 13
-0.0537703056
 23
0.5035959599
 33
0.0
 40
0.0
 40
0.0
 40
0.0
 40
0.0
 40
0.026220743
 40
0.0507464251
 40
0.0838410103
 40
0.1254979135
 40
0.1754719166
 40
0.233365863
 40
0.2986654972
 40
0.4489446918
 40
0.6205015655
 40
1.0
 40
1.0
 40
1.0
 40
1.0
 10
-83.1679189455
 20
-39.4865874394
 30
0.0
 10
-83.1634930392
 20
-39.4866642076
 30
0.0
 10
-83.1577533997
 20
-39.4769992611
 30
0.0
 10
-83.1542486586
 20
-39.4642609456
 30
0.0
 10
-83.1510474182
 20
-39.4474329058
 30
0.0
 10
-83.1487267777
 20
-39.4266247916
 30
0.0
 10
-83.1469701226
 20
-39.401392714
 30
0.0
 10
-83.1459406671
 20
-39.3721872106
 30
0.0
 10
-83.1454868388
 20
-39.3260122454
 30
0.0
 10
-83.1469322987
 20
-39.2606595796
 30
0.0
 10
-83.1529957633
 20
-39.1424055886
 30
0.0
 10
-83.1611170299
 20
-39.0496917311
 30
0.0
 10
-83.1679189455
 20
-38.9859871049
 30
0.0
 11
-83.1679189455
 21
-39.4865874394
 31
0.0
 11
-83.1585277024
 21
-39.4771983279
 31
0.0
 11
-83.1547066226
 21
-39.4653794231
 31
0.0
 11
-83.1515233589
 21
-39.4489234513
 31
0.0
 11
-83.1490113967
 21
-39.4279760382
 31
0.0
 11
-83.1471975306
 21
-39.4027313639
 31
0.0
 11
-83.1461012837
 21
-39.3734309873
 31
0.0
 11
-83.1457345378
 21
-39.3403614709
 31
0.0
 11
-83.1471975294
 21
-39.2642653688
 31
0.0
 11
-83.151523357
 21
-39.1774866968
 31
0.0
 11
-83.1679189455
 21
-38.9859871049
 31
0.0
  0
SPLINE
  5
55C
100
AcDbEntity
  8
0
100
AcDbSpline
 62
7
  6
CONTINUOUS
 70
0
 71
3
 72
26
 73
22
 74
20
 42
0.0000001
 43
0.0000001
 44
0.0000000001
 12
0.1553567077
 22
1.4820589728
 32
0.0
 13
-1.4901793535
 23
0.0
 33
0.0
 40
0.0
 40
0.0
 40
0.0
 40
0.0
 40
0.0412667017
 40
0.0952498311
 40
0.1604212814
 40
0.2348699053
 40
0.4025556892
 40
0.4908422808
 40
0.5786660143
 40
0.6634884168
 40
0.7428812871
 40
0.814589755
 40
0.876588432
 40
0.9271402708
 40
0.9476778338
 40
0.9648707852
 40
0.9786263127
 40
0.9889119208
 40
0.9927807991
 40
0.9958474348
 40
1.0
 40
1.0
 40
1.0
 40
1.0
 10
-84.7403846111
 20
-32.2232416669
 30
0.0
 10
-84.7382475914
 20
-32.2028551051
 30
0.0
 10
-84.7355605371
 20
-32.1555776468
 30
0.0
 10
-84.7343792159
 20
-32.0758960759
 30
0.0
 10
-84.7357387923
 20
-31.9797244646
 30
0.0
 10
-84.7411422471
 20
-31.8271668346
 30
0.0
 10
-84.7512365129
 20
-31.6633167375
 30
0.0
 10
-84.765086112
 20
-31.493104407
 30
0.0
 10
-84.7773548888
 20
-31.364069524
 30
0.0
 10
-84.7909430491
 20
-31.2396102877
 30
0.0
 10
-84.8054524299
 20
-31.1233174432
 30
0.0
 10
-84.8204388975
 20
-31.0185230654
 30
0.0
 10
-84.8354620729
 20
-30.9282310655
 30
0.0
 10
-84.8483087154
 20
-30.8633601849
 30
0.0
 10
-84.858574041
 20
-30.82071964
 30
0.0
 10
-84.8654420382
 20
-30.796077265
 30
0.0
 10
-84.871997433
 20
-30.7766554646
 30
0.0
 10
-84.8774552092
 20
-30.7638943771
 30
0.0
 10
-84.8819078382
 20
-30.7565187569
 30
0.0
 10
-84.8852497828
 20
-30.7522564891
 30
0.0
 10
-84.888578112
 20
-30.7499411971
 30
0.0
 10
-84.890640801
 20
-30.7499411971
 30
0.0
 11
-84.7403846111
 21
-32.2232416669
 31
0.0
 11
-84.7362919869
 21
-32.1618832181
 31
0.0
 11
-84.7348134542
 21
-32.0814522618
 31
0.0
 11
-84.7359949094
 21
-31.9843422987
 31
0.0
 11
-84.7397996374
 21
-31.873465757
 31
0.0
 11
-84.7547314826
 21
-31.6240303936
 31
0.0
 11
-84.7654028262
 21
-31.4929010395
 31
0.0
 11
-84.7778039993
 21
-31.3626168003
 31
0.0
 11
-84.7915682002
 21
-31.2369678582
 31
0.0
 11
-84.8062931883
 21
-31.1195781653
 31
0.0
 11
-84.8215527446
 21
-31.0138148431
 31
0.0
 11
-84.8369074587
 21
-30.9227105759
 31
0.0
 11
-84.8519159131
 21
-30.8488894947
 31
0.0
 11
-84.8591542986
 21
-30.8191531445
 31
0.0
 11
-84.8661449408
 21
-30.7945047144
 31
0.0
 11
-84.8728368955
 21
-30.7751296256
 31
0.0
 11
-84.8791809243
 21
-30.7611767579
 31
0.0
 11
-84.8822077279
 21
-30.7562698847
 31
0.0
 11
-84.8851304408
 21
-30.7527568858
 31
0.0
 11
-84.890640801
 21
-30.7499411971
 31
0.0
  0
SPLINE
  5
55D
100
AcDbEntity
  8
0
100
AcDbSpline
 62
7
  6
CONTINUOUS
 70
0
 71
3
 72
22
 73
18
 74
16
 42
0.0000001
 43
0.0000001
 44
0.0000000001
 12
-3.023608379
 22
0.0013102296
 32
0.0
 13
0.0
 23
3.0236086628
 33
0.0
 40
0.0
 40
0.0
 40
0.0
 40
0.0
 40
0.0081257594
 40
0.0112651517
 40
0.0149204985
 40
0.0238407863
 40
0.0349640685
 40
0.0483106269
 40
0.0638755555
 40
0.0816387784
 40
0.1236264118
 40
0.1739341424
 40
0.2976339405
 40
0.44818143
 40
0.6198926511
 40
0.8062162238
 40
1.0
 40
1.0
 40
1.0
 40
1.0
 10
-86.494779715
 20
-2.999999912
 30
0.0
 10
-86.5029694197
 20
-2.9999963632
 30
0.0
 10
-86.512467039
 20
-2.9897226639
 30
0.0
 10
-86.5199557669
 20
-2.9771428322
 30
0.0
 10
-86.5270285541
 20
-2.9628282626
 30
0.0
 10
-86.5354204494
 20
-2.9404912003
 30
0.0
 10
-86.5449806391
 20
-2.9081810375
 30
0.0
 10
-86.5544348004
 20
-2.8689498752
 30
0.0
 10
-86.5637924677
 20
-2.8228376028
 30
0.0
 10
-86.5768091301
 20
-2.7480470644
 30
0.0
 10
-86.5921549943
 20
-2.6381607187
 30
0.0
 10
-86.6161803331
 20
-2.4217796024
 30
0.0
 10
-86.6418276242
 20
-2.0956052259
 30
0.0
 10
-86.6660829751
 20
-1.6467703147
 30
0.0
 10
-86.6841823052
 20
-1.1344778258
 30
0.0
 10
-86.6953848436
 20
-0.5784128851
 30
0.0
 10
-86.6978921401
 20
-0.1953087682
 30
0.0
 10
-86.6978921401
 20
0.0
 30
0.0
 11
-86.494779715
 21
-2.999999912
 31
0.0
 11
-86.514671237
 21
-2.9855787874
 31
0.0
 11
-86.5196216058
 21
-2.9774795596
 31
0.0
 11
-86.5245570294
 21
-2.9675903851
 31
0.0
 11
-86.5343712504
 21
-2.9424678715
 31
0.0
 11
-86.5440904044
 21
-2.9102703575
 31
0.0
 11
-86.5536912136
 21
-2.8710742876
 31
0.0
 11
-86.5631506808
 21
-2.8249725075
 31
0.0
 11
-86.5724461302
 21
-2.7720739722
 31
0.0
 11
-86.5904561854
 21
-2.6464037701
 31
0.0
 11
-86.6075484148
 21
-2.495256231
 31
0.0
 11
-86.6383316033
 21
-2.1225053866
 31
0.0
 11
-86.6636095846
 21
-1.6680111036
 31
0.0
 11
-86.6824034004
 21
-1.1491638336
 31
0.0
 11
-86.6939816842
 21
-0.5859132552
 31
0.0
 11
-86.6978921401
 21
0.0
 31
0.0
  0
SPLINE
  5
55E
100
AcDbEntity
  8
0
100
AcDbSpline
 62
7
  6
CONTINUOUS
 70
0
 71
3
 72
22
 73
18
 74
16
 42
0.0000001
 43
0.0000001
 44
0.0000000001
 12
0.0
 22
3.0236086255
 32
0.0
 13
3.0236083378
 23
0.0013192319
 33
0.0
 40
0.0
 40
0.0
 40
0.0
 40
0.0
 40
0.1937837433
 40
0.3801072889
 40
0.5518184934
 40
0.7023659791
 40
0.8260657861
 40
0.8763735256
 40
0.9183611688
 40
0.9361243973
 40
0.9516893324
 40
0.9650358981
 40
0.9761591878
 40
0.9850794834
 40
0.9887348341
 40
0.9918742301
 40
1.0
 40
1.0
 40
1.0
 40
1.0
 10
-86.6978921401
 20
0.0
 30
0.0
 10
-86.6978921401
 20
0.1953087326
 30
0.0
 10
-86.6953848445
 20
0.5784127844
 30
0.0
 10
-86.6841823099
 20
1.134477641
 30
0.0
 10
-86.6660829852
 20
1.6467700758
 30
0.0
 10
-86.6418276407
 20
2.0956049703
 30
0.0
 10
-86.6161803551
 20
2.4217793573
 30
0.0
 10
-86.5921550215
 20
2.6381604994
 30
0.0
 10
-86.5768091599
 20
2.7480468688
 30
0.0
 10
-86.5637925003
 20
2.8228374291
 30
0.0
 10
-86.5544348343
 20
2.868949721
 30
0.0
 10
-86.5449806741
 20
2.9081809051
 30
0.0
 10
-86.5354204856
 20
2.9404910916
 30
0.0
 10
-86.5270285908
 20
2.9628281744
 30
0.0
 10
-86.5199558054
 20
2.9771427619
 30
0.0
 10
-86.5124670756
 20
2.9897226138
 30
0.0
 10
-86.5029694715
 20
2.9999963388
 30
0.0
 10
-86.4947797563
 20
2.9999999121
 30
0.0
 11
-86.6978921401
 21
0.0
 31
0.0
 11
-86.6939816856
 21
0.5859131486
 31
0.0
 11
-86.6824034059
 21
1.149163638
 31
0.0
 11
-86.6636095961
 21
1.6680108516
 31
0.0
 11
-86.6383316215
 21
2.1225051181
 31
0.0
 11
-86.6075484398
 21
2.4952559852
 31
0.0
 11
-86.5904562133
 21
2.64640355
 31
0.0
 11
-86.5724461615
 21
2.7720737809
 31
0.0
 11
-86.563150714
 21
2.8249723329
 31
0.0
 11
-86.5536912482
 21
2.8710741328
 31
0.0
 11
-86.5440904401
 21
2.9102702252
 31
0.0
 11
-86.5343712874
 21
2.9424677629
 31
0.0
 11
-86.5245570675
 21
2.9675903019
 31
0.0
 11
-86.5196216443
 21
2.9774794897
 31
0.0
 11
-86.5146712759
 21
2.9855787307
 31
0.0
 11
-86.4947797563
 21
2.9999999121
 31
0.0
  0
SPLINE
  5
55F
100
AcDbEntity
  8
0
100
AcDbSpline
 62
7
  6
CONTINUOUS
 70
0
 71
3
 72
26
 73
22
 74
20
 42
0.0000001
 43
0.0000001
 44
0.0000000001
 12
0.155270712
 22
1.4820506905
 32
0.0
 13
-1.4901621533
 23
0.0
 33
0.0
 40
0.0
 40
0.0
 40
0.0
 40
0.0
 40
0.0412669132
 40
0.0952503806
 40
0.1604222268
 40
0.2348712938
 40
0.4025581662
 40
0.4908454081
 40
0.5786698321
 40
0.6634929053
 40
0.7428863441
 40
0.8145951846
 40
0.8765939455
 40
0.9271454931
 40
0.9476827396
 40
0.9648752407
 40
0.9786301543
 40
0.9889149339
 40
0.992783279
 40
0.9958492524
 40
1.0
 40
1.0
 40
1.0
 40
1.0
 10
-84.9418058417
 20
-32.2232416669
 30
0.0
 10
-84.9396699941
 20
-32.2028551146
 30
0.0
 10
-84.9369844253
 20
-32.1555778899
 30
0.0
 10
-84.9358037395
 20
-32.0758967655
 30
0.0
 10
-84.9371625407
 20
-31.9797256833
 30
0.0
 10
-84.9425629696
 20
-31.8271687581
 30
0.0
 10
-84.9526516285
 20
-31.6633191628
 30
0.0
 10
-84.9664935813
 20
-31.4931069798
 30
0.0
 10
-84.9787556144
 20
-31.3640719598
 30
0.0
 10
-84.9923363314
 20
-31.2396124052
 30
0.0
 10
-85.0068377856
 20
-31.1233191335
 30
0.0
 10
-85.0218160769
 20
-31.0185243156
 30
0.0
 10
-85.0368310594
 20
-30.9282319473
 30
0.0
 10
-85.0496706995
 20
-30.8633607492
 30
0.0
 10
-85.0599304567
 20
-30.8207199279
 30
0.0
 10
-85.0667946809
 20
-30.7960775367
 30
0.0
 10
-85.073346479
 20
-30.7766557541
 30
0.0
 10
-85.0788011842
 20
-30.7638946734
 30
0.0
 10
-85.0832514967
 20
-30.7565188922
 30
0.0
 10
-85.0865911966
 20
-30.7522570126
 30
0.0
 10
-85.0899178525
 20
-30.7499411971
 30
0.0
 10
-85.0919796149
 20
-30.7499411971
 30
0.0
 11
-84.9418058417
 21
-32.2232416669
 31
0.0
 11
-84.9377154698
 21
-32.1618834635
 31
0.0
 11
-84.9362377387
 21
-32.0814529173
 31
0.0
 11
-84.9374185172
 21
-31.984343477
 31
0.0
 11
-84.9412211135
 21
-31.8734674826
 31
0.0
 11
-84.9561446666
 21
-31.6240328876
 31
0.0
 11
-84.9668101226
 21
-31.4929036059
 31
0.0
 11
-84.9792044825
 21
-31.3626192021
 31
0.0
 11
-84.9929611497
 21
-31.2369698971
 31
0.0
 11
-85.0076781021
 21
-31.119579719
 31
0.0
 11
-85.0229293472
 21
-31.0138158831
 31
0.0
 11
-85.0382757054
 21
-30.9227111627
 31
0.0
 11
-85.0532759902
 21
-30.848889751
 31
0.0
 11
-85.0605104318
 21
-30.8191532901
 31
0.0
 11
-85.0674972636
 21
-30.7945047846
 31
0.0
 11
-85.0741855618
 21
-30.7751296512
 31
0.0
 11
-85.0805261344
 21
-30.761176763
 31
0.0
 11
-85.0835512912
 21
-30.7562698859
 31
0.0
 11
-85.0864723767
 21
-30.7527568857
 31
0.0
 11
-85.0919796149
 21
-30.7499411971
 31
0.0
  0
LINE
  5
560
100
AcDbEntity
  8
DRAFT
100
AcDbLine
 62
7
  6
CONTINUOUS
 10
-73.3525253085
 20
-11.815723851
 11
-78.8525253057
 21
-11.7955966155
  0
LINE
  5
561
100
AcDbEntity
  8
0
100
AcDbLine
 62
7
  6
CONTINUOUS
 10
-85.1434818386
 20
-32.758394
 11
-85.1107205672
 21
-33.250056
  0
LINE
  5
562
100
AcDbEntity
  8
0
100
AcDbLine
 62
7
  6
CONTINUOUS
 10
-85.6299346164
 20
-30.74995
 11
-85.6298515821
 21
-30.7512370866
  0
LINE
  5
563
100
AcDbEntity
  8
DRAFT
100
AcDbLine
 62
7
  6
CONTINUOUS
 10
-78.8525253057
 20
11.7955966155
 11
-73.3525253085
 21
11.815723851
  0
SPLINE
  5
564
100
AcDbEntity
  8
RACCORDO
100
AcDbSpline
 62
253
  6
CONTINUOUS
 70
0
 71
3
 72
23
 73
19
 74
17
 42
0.0000001
 43
0.0000001
 44
0.0000000001
 12
0.0448141098
 22
1.0018425549
 32
0.0
 13
-1.0026947308
 23
-0.0173229865
 33
0.0
 40
0.0
 40
0.0
 40
0.0
 40
0.0
 40
0.1946538724
 40
0.3818660225
 40
0.5544144701
 40
0.6330755217
 40
0.7056274142
 40
0.7713693741
 40
0.8296699701
 40
0.8799748602
 40
0.9218148111
 40
0.9548159969
 40
0.9679172677
 40
0.9787243626
 40
0.9872353652
 40
0.9934792227
 40
0.9975707667
 40
1.0
 40
1.0
 40
1.0
 40
1.0
 10
-82.6823000222
 20
38.9333033386
 30
0.0
 10
-82.6793922755
 20
38.9983075162
 30
0.0
 10
-82.6742371547
 20
39.125856096
 30
0.0
 10
-82.6684106458
 20
39.3110973272
 30
0.0
 10
-82.6652685541
 20
39.4576233993
 30
0.0
 10
-82.6639879642
 20
39.5658440156
 30
0.0
 10
-82.6636584948
 20
39.6383680107
 30
0.0
 10
-82.6639284845
 20
39.7040863823
 30
0.0
 10
-82.6647923228
 20
39.7623623199
 30
0.0
 10
-82.6662315136
 20
39.8126354517
 30
0.0
 10
-82.6682260309
 20
39.8544240008
 30
0.0
 10
-82.6704368159
 20
39.8837468606
 30
0.0
 10
-82.6725958836
 20
39.9026503783
 30
0.0
 10
-82.6742244135
 20
39.9133683528
 30
0.0
 10
-82.6759044687
 20
39.9217488798
 30
0.0
 10
-82.6777893237
 20
39.927790998
 30
0.0
 10
-82.6794976209
 20
39.9316756037
 30
0.0
 10
-82.6814880809
 20
39.9331650611
 30
0.0
 10
-82.6823000073
 20
39.9331510339
 30
0.0
 11
-82.6823000222
 21
38.9333033386
 31
0.0
 11
-82.6744334224
 21
39.1283523055
 31
0.0
 11
-82.6685821693
 21
39.3160057519
 31
0.0
 11
-82.6649762986
 21
39.4890074149
 31
0.0
 11
-82.6640635107
 21
39.5678869255
 31
0.0
 11
-82.663758227
 21
39.6406445413
 31
0.0
 11
-82.664063489
 21
39.7065727882
 31
0.0
 11
-82.6649762625
 21
39.7650320865
 31
0.0
 11
-82.6664874671
 21
39.8154574221
 31
0.0
 11
-82.6685821276
 21
39.8573640638
 31
0.0
 11
-82.6712394444
 21
39.8903522618
 31
0.0
 11
-82.6727711874
 21
39.9034012034
 31
0.0
 11
-82.6744334127
 21
39.9141108092
 31
0.0
 11
-82.676221802
 21
39.9224565561
 31
0.0
 11
-82.6781321472
 21
39.9284196452
 31
0.0
 11
-82.6801601697
 21
39.9319866083
 31
0.0
 11
-82.6823000073
 21
39.9331510339
 31
0.0
  0
SPLINE
  5
565
100
AcDbEntity
  8
RACCORDO
100
AcDbSpline
 62
253
  6
CONTINUOUS
 70
0
 71
3
 72
23
 73
19
 74
17
 42
0.0000001
 43
0.0000001
 44
0.0000000001
 12
1.0026990815
 22
-0.0173819991
 32
0.0
 13
-0.0448055361
 23
1.0018483149
 33
0.0
 40
0.0
 40
0.0
 40
0.0
 40
0.0
 40
0.0024293003
 40
0.0065208108
 40
0.0127646796
 40
0.0212756907
 40
0.0320827979
 40
0.0451840858
 40
0.0781853127
 40
0.1200253139
 40
0.1703302589
 40
0.2286309107
 40
0.2943729227
 40
0.3669248591
 40
0.4455859409
 40
0.6181343865
 40
0.8053464129
 40
1.0
 40
1.0
 40
1.0
 40
1.0
 10
-82.6823000222
 20
-39.9331510337
 30
0.0
 10
-82.6814880698
 20
-39.9331651091
 30
0.0
 10
-82.6794974901
 20
-39.9316756864
 30
0.0
 10
-82.6777894603
 20
-39.9277908882
 30
0.0
 10
-82.6759044584
 20
-39.92174882
 30
0.0
 10
-82.6742243942
 20
-39.9133682163
 30
0.0
 10
-82.6725958938
 20
-39.9026501734
 30
0.0
 10
-82.6704368395
 20
-39.8837465248
 30
0.0
 10
-82.6682260326
 20
-39.8544234748
 30
0.0
 10
-82.6662315315
 20
-39.8126346503
 30
0.0
 10
-82.6647923329
 20
-39.7623611961
 30
0.0
 10
-82.6639284926
 20
-39.7040848917
 30
0.0
 10
-82.6636584933
 20
-39.6383661175
 30
0.0
 10
-82.6639879602
 20
-39.5658416917
 30
0.0
 10
-82.6652685544
 20
-39.4576204715
 30
0.0
 10
-82.6684107542
 20
-39.3110936499
 30
0.0
 10
-82.6742370589
 20
-39.1258515523
 30
0.0
 10
-82.6793930597
 20
-38.9983024644
 30
0.0
 10
-82.6823002458
 20
-38.9332980083
 30
0.0
 11
-82.6823000222
 21
-39.9331510337
 31
0.0
 11
-82.6801600784
 21
-39.9319866353
 31
0.0
 11
-82.6781321955
 21
-39.9284196062
 31
0.0
 11
-82.6762218296
 21
-39.9224564766
 31
0.0
 11
-82.674433399
 21
-39.9141106831
 31
0.0
 11
-82.6727711923
 21
-39.9034010032
 31
0.0
 11
-82.6712394614
 21
-39.890351972
 31
0.0
 11
-82.6685821369
 21
-39.8573635554
 31
0.0
 11
-82.6664874804
 21
-39.8154566381
 31
0.0
 11
-82.6649762739
 21
-39.7650309772
 31
0.0
 11
-82.6640634962
 21
-39.7065713097
 31
0.0
 11
-82.663758227
 21
-39.6406426574
 31
0.0
 11
-82.6640635077
 21
-39.567884608
 31
0.0
 11
-82.6649763037
 21
-39.4890046446
 31
0.0
 11
-82.6685822246
 21
-39.3160020578
 31
0.0
 11
-82.6744335769
 21
-39.1283477324
 31
0.0
 11
-82.6823002458
 21
-38.9332980083
 31
0.0
  0
SPLINE
  5
566
100
AcDbEntity
  8
RACCORDO
100
AcDbSpline
 62
253
  6
CONTINUOUS
 70
0
 71
3
 72
11
 73
7
 74
5
 42
0.0000001
 43
0.0000001
 44
0.0000000001
 12
0.075964778
 22
-0.7130804832
 32
0.0
 13
0.7170061283
 23
-0.0125153885
 33
0.0
 40
0.0
 40
0.0
 40
0.0
 40
0.0
 40
0.2506424908
 40
0.5008710636
 40
0.750601731
 40
1.0
 40
1.0
 40
1.0
 40
1.0
 10
-83.1679189455
 20
-39.4865874394
 30
0.0
 10
-83.1615722785
 20
-39.5461635289
 30
0.0
 10
-83.1270439851
 20
-39.6640040209
 30
0.0
 10
-83.016606985
 20
-39.8102191611
 30
0.0
 10
-82.8619325652
 20
-39.9079516584
 30
0.0
 10
-82.741906718
 20
-39.932110595
 30
0.0
 10
-82.6823000222
 20
-39.9331510337
 30
0.0
 11
-83.1679189455
 21
-39.4865874394
 31
0.0
 11
-83.1172078833
 21
-39.6590249753
 31
0.0
 11
-83.0091098053
 21
-39.8022538345
 31
0.0
 11
-82.8576080542
 21
-39.8977467944
 31
0.0
 11
-82.6823000222
 21
-39.9331510337
 31
0.0
  0
SPLINE
  5
567
100
AcDbEntity
  8
RACCORDO
100
AcDbSpline
 62
253
  6
CONTINUOUS
 70
0
 71
3
 72
11
 73
7
 74
5
 42
0.0000001
 43
0.0000001
 44
0.0000000001
 12
0.4847405451
 22
0.0602382208
 32
0.0
 13
0.4857065506
 23
0.0518766418
 33
0.0
 40
0.0
 40
0.0
 40
0.0
 40
0.0
 40
0.1044783329
 40
0.3270946632
 40
0.6390528232
 40
1.0
 40
1.0
 40
1.0
 40
1.0
 10
-83.1679189455
 20
-38.9859871049
 30
0.0
 10
-83.1510373175
 20
-38.983889242
 30
0.0
 10
-83.0980778761
 20
-38.9782231835
 30
0.0
 10
-82.9946566188
 20
-38.9667987331
 30
0.0
 10
-82.8496768468
 20
-38.9512354473
 30
0.0
 10
-82.7407381583
 20
-38.9395449144
 30
0.0
 10
-82.6823000222
 20
-38.9333033386
 30
0.0
 11
-83.1679189455
 21
-38.9859871049
 31
0.0
 11
-83.1172078837
 21
-38.980251101
 31
0.0
 11
-83.0091098057
 21
-38.9684420922
 31
0.0
 11
-82.8576080545
 21
-38.9520876664
 31
0.0
 11
-82.6823000222
 21
-38.9333033386
 31
0.0
  0
SPLINE
  5
568
100
AcDbEntity
  8
RACCORDO
100
AcDbSpline
 62
253
  6
CONTINUOUS
 70
0
 71
3
 72
11
 73
7
 74
5
 42
0.0000001
 43
0.0000001
 44
0.0000000001
 12
0.4847405576
 22
-0.0602381202
 32
0.0
 13
0.4857065495
 23
-0.0518766526
 33
0.0
 40
0.0
 40
0.0
 40
0.0
 40
0.0
 40
0.1044783328
 40
0.3270946631
 40
0.6390528231
 40
1.0
 40
1.0
 40
1.0
 40
1.0
 10
-83.1679189455
 20
38.9859871049
 30
0.0
 10
-83.1510373171
 20
38.9838892455
 30
0.0
 10
-83.0980778759
 20
38.978223186
 30
0.0
 10
-82.9946566182
 20
38.9667987382
 30
0.0
 10
-82.8496768465
 20
38.9512354503
 30
0.0
 10
-82.7407381582
 20
38.9395449157
 30
0.0
 10
-82.6823000222
 20
38.9333033386
 30
0.0
 11
-83.1679189455
 21
38.9859871049
 31
0.0
 11
-83.1172078833
 21
38.980251104
 31
0.0
 11
-83.0091098053
 21
38.9684420964
 31
0.0
 11
-82.8576080542
 21
38.9520876695
 31
0.0
 11
-82.6823000222
 21
38.9333033386
 31
0.0
  0
SPLINE
  5
569
100
AcDbEntity
  8
RACCORDO
100
AcDbSpline
 62
253
  6
CONTINUOUS
 70
0
 71
3
 72
11
 73
7
 74
5
 42
0.0000001
 43
0.0000001
 44
0.0000000001
 12
0.0759647763
 22
0.7130804836
 32
0.0
 13
0.7170061286
 23
0.0125153885
 33
0.0
 40
0.0
 40
0.0
 40
0.0
 40
0.0
 40
0.2506424906
 40
0.5008710633
 40
0.7506017307
 40
1.0
 40
1.0
 40
1.0
 40
1.0
 10
-83.1679189455
 20
39.4865874394
 30
0.0
 10
-83.1615722786
 20
39.5461635289
 30
0.0
 10
-83.1270439855
 20
39.6640040209
 30
0.0
 10
-83.0166069854
 20
39.8102191612
 30
0.0
 10
-82.8619325655
 20
39.9079516584
 30
0.0
 10
-82.7419067181
 20
39.932110595
 30
0.0
 10
-82.6823000222
 20
39.9331510337
 30
0.0
 11
-83.1679189455
 21
39.4865874394
 31
0.0
 11
-83.1172078837
 21
39.6590249753
 31
0.0
 11
-83.0091098057
 21
39.8022538345
 31
0.0
 11
-82.8576080545
 21
39.8977467944
 31
0.0
 11
-82.6823000222
 21
39.9331510337
 31
0.0
  0
SPLINE
  5
56A
100
AcDbEntity
  8
0
100
AcDbSpline
 62
7
  6
CONTINUOUS
 70
0
 71
3
 72
9
 73
5
 74
3
 42
0.0000001
 43
0.0000001
 44
0.0000000001
 12
-0.0765310047
 22
0.3309558393
 32
0.0
 13
-0.0522410547
 23
0.3356480812
 33
0.0
 40
0.0
 40
0.0
 40
0.0
 40
0.0
 40
0.2515864558
 40
1.0
 40
1.0
 40
1.0
 40
1.0
 10
-78.7335788883
 20
10.0
 30
0.0
 10
-78.739996943
 20
10.0277546689
 30
0.0
 10
-78.7643876541
 20
10.1383305676
 30
0.0
 10
-78.7846168483
 20
10.249813491
 30
0.0
 10
-78.7976494859
 20
10.3335480144
 30
0.0
 11
-78.7335788883
 21
10.0
 31
0.0
 11
-78.7520062818
 21
10.0834508766
 31
0.0
 11
-78.7976494859
 21
10.3335480144
 31
0.0
  0
SPLINE
  5
56B
100
AcDbEntity
  8
0
100
AcDbSpline
 62
7
  6
CONTINUOUS
 70
0
 71
3
 72
14
 73
10
 74
8
 42
0.0000001
 43
0.0000001
 44
0.0000000001
 12
-1.3249724513
 22
0.0000008032
 32
0.0
 13
-0.393861615
 23
-1.2650790588
 33
0.0
 40
0.0
 40
0.0
 40
0.0
 40
0.0
 40
0.110437175
 40
0.2295261968
 40
0.3533131525
 40
0.4790897236
 40
0.7342533176
 40
0.8655529061
 40
1.0
 40
1.0
 40
1.0
 40
1.0
 10
-73.3137612489
 20
-6.4499244604
 30
0.0
 10
-73.3625366537
 20
-6.4499244308
 30
0.0
 10
-73.463964561
 20
-6.4589474838
 30
0.0
 10
-73.6165475985
 20
-6.4938071759
 30
0.0
 10
-73.7685602886
 20
-6.5541790212
 30
0.0
 10
-73.9607734541
 20
-6.6684755007
 30
0.0
 10
-74.1253751388
 20
-6.8304464158
 30
0.0
 10
-74.2457844468
 20
-7.0274538441
 30
0.0
 10
-74.28926058
 20
-7.1371872202
 30
0.0
 10
-74.3069117632
 20
-7.1938826212
 30
0.0
 11
-73.3137612489
 21
-6.4499244604
 31
0.0
 11
-73.4596079206
 21
-6.4617612414
 31
0.0
 11
-73.6133791003
 21
-6.4971449277
 31
0.0
 11
-73.7658044947
 21
-6.5577022705
 31
0.0
 11
-73.909029066
 21
-6.6429026729
 31
0.0
 11
-74.1499834695
 21
-6.8800571834
 31
0.0
 11
-74.2406746582
 21
-7.0285162377
 31
0.0
 11
-74.3069117632
 21
-7.1938826212
 31
0.0
  0
SPLINE
  5
56C
100
AcDbEntity
  8
ASSI
100
AcDbSpline
 62
7
  6
CONTINUOUS
 70
0
 71
3
 72
14
 73
10
 74
8
 42
0.0000001
 43
0.0000001
 44
0.0000000001
 12
0.5245452237
 22
0.0003244188
 32
0.0
 13
0.0563262467
 23
-0.5215123689
 33
0.0
 40
0.0
 40
0.0
 40
0.0
 40
0.0
 40
0.0352349065
 40
0.0910946933
 40
0.173770217
 40
0.2844986189
 40
0.4233021418
 40
0.5895236374
 40
1.0
 40
1.0
 40
1.0
 40
1.0
 10
-71.2182434405
 20
2.2499835267
 30
0.0
 10
-71.2120826732
 20
2.249987337
 30
0.0
 10
-71.1971759659
 20
2.2403781172
 30
0.0
 10
-71.1823354332
 20
2.213852046
 30
0.0
 10
-71.1664146776
 20
2.1731068519
 30
0.0
 10
-71.1511789031
 20
2.1170099902
 30
0.0
 10
-71.1360383081
 20
2.0458831536
 30
0.0
 10
-71.1151034289
 20
1.9225189368
 30
0.0
 10
-71.1027807229
 20
1.8223874988
 30
0.0
 10
-71.0950738586
 20
1.7510313321
 30
0.0
 11
-71.2182434405
 21
2.2499835267
 31
0.0
 11
-71.2016172735
 21
2.2419109693
 31
0.0
 11
-71.1851105629
 21
2.217701952
 31
0.0
 11
-71.1688429137
 21
2.1775016357
 31
0.0
 11
-71.1529305711
 21
2.1216417782
 31
0.0
 11
-71.1374889323
 21
2.0504893486
 31
0.0
 11
-71.1226281641
 21
1.964574407
 31
0.0
 11
-71.0950738586
 21
1.7510313321
 31
0.0
  0
SPLINE
  5
56D
100
AcDbEntity
  8
ASSI
100
AcDbSpline
 62
7
  6
CONTINUOUS
 70
0
 71
3
 72
14
 73
10
 74
8
 42
0.0000001
 43
0.0000001
 44
0.0000000001
 12
-0.0563262467
 22
-0.5215123689
 32
0.0
 13
-0.5245452237
 23
0.0003244188
 33
0.0
 40
0.0
 40
0.0
 40
0.0
 40
0.0
 40
0.4104763626
 40
0.5766978582
 40
0.7155013811
 40
0.826229783
 40
0.9089053067
 40
0.9647650935
 40
1.0
 40
1.0
 40
1.0
 40
1.0
 10
-71.0950738586
 20
-1.7510313321
 30
0.0
 10
-71.1027807229
 20
-1.8223874988
 30
0.0
 10
-71.1151034289
 20
-1.9225189368
 30
0.0
 10
-71.1360383081
 20
-2.0458831536
 30
0.0
 10
-71.1511789031
 20
-2.1170099902
 30
0.0
 10
-71.1664146776
 20
-2.1731068519
 30
0.0
 10
-71.1823354332
 20
-2.213852046
 30
0.0
 10
-71.1971759659
 20
-2.2403781172
 30
0.0
 10
-71.2120826732
 20
-2.249987337
 30
0.0
 10
-71.2182434405
 20
-2.2499835267
 30
0.0
 11
-71.0950738586
 21
-1.7510313321
 31
0.0
 11
-71.1226281641
 21
-1.964574407
 31
0.0
 11
-71.1374889323
 21
-2.0504893486
 31
0.0
 11
-71.1529305711
 21
-2.1216417782
 31
0.0
 11
-71.1688429137
 21
-2.1775016357
 31
0.0
 11
-71.1851105629
 21
-2.217701952
 31
0.0
 11
-71.2016172735
 21
-2.2419109693
 31
0.0
 11
-71.2182434405
 21
-2.2499835267
 31
0.0
  0
SPLINE
  5
56E
100
AcDbEntity
  8
0
100
AcDbSpline
 62
7
  6
CONTINUOUS
 70
0
 71
3
 72
9
 73
5
 74
3
 42
0.0000001
 43
0.0000001
 44
0.0000000001
 12
0.0524505572
 22
0.3380765983
 32
0.0
 13
0.0770789016
 23
0.3333252018
 33
0.0
 40
0.0
 40
0.0
 40
0.0
 40
0.0
 40
0.2474688769
 40
1.0
 40
1.0
 40
1.0
 40
1.0
 10
-78.798023453
 20
-10.3359546007
 30
0.0
 10
-78.7936968261
 20
-10.3080667887
 30
0.0
 10
-78.7752589524
 20
-10.1955264135
 30
0.0
 10
-78.7529136457
 20
-10.0836125295
 30
0.0
 10
-78.7335788883
 20
-10.0
 30
0.0
 11
-78.798023453
 21
-10.3359546007
 31
0.0
 11
-78.7843319318
 21
-10.252404675
 31
0.0
 11
-78.7335788883
 21
-10.0
 31
0.0
  0
SPLINE
  5
56F
100
AcDbEntity
  8
0
100
AcDbSpline
 62
7
  6
CONTINUOUS
 70
0
 71
3
 72
9
 73
5
 74
3
 42
0.0000001
 43
0.0000001
 44
0.0000000001
 12
-0.0524505572
 22
-0.3380765983
 32
0.0
 13
-0.0770789016
 23
-0.3333252018
 33
0.0
 40
0.0
 40
0.0
 40
0.0
 40
0.0
 40
0.2474688769
 40
1.0
 40
1.0
 40
1.0
 40
1.0
 10
-75.907027164
 20
10.3359546007
 30
0.0
 10
-75.9113537908
 20
10.3080667887
 30
0.0
 10
-75.9297916646
 20
10.1955264135
 30
0.0
 10
-75.9521369712
 20
10.0836125295
 30
0.0
 10
-75.9714717287
 20
10.0
 30
0.0
 11
-75.907027164
 21
10.3359546007
 31
0.0
 11
-75.9207186851
 21
10.252404675
 31
0.0
 11
-75.9714717287
 21
10.0
 31
0.0
  0
SPLINE
  5
570
100
AcDbEntity
  8
0
100
AcDbSpline
 62
7
  6
CONTINUOUS
 70
0
 71
3
 72
9
 73
5
 74
3
 42
0.0000001
 43
0.0000001
 44
0.0000000001
 12
0.0765310047
 22
-0.3309558393
 32
0.0
 13
0.0522410547
 23
-0.3356480812
 33
0.0
 40
0.0
 40
0.0
 40
0.0
 40
0.0
 40
0.2515864558
 40
1.0
 40
1.0
 40
1.0
 40
1.0
 10
-75.9714717287
 20
-10.0
 30
0.0
 10
-75.9650536739
 20
-10.0277546689
 30
0.0
 10
-75.9406629628
 20
-10.1383305676
 30
0.0
 10
-75.9204337687
 20
-10.249813491
 30
0.0
 10
-75.907401131
 20
-10.3335480144
 30
0.0
 11
-75.9714717287
 21
-10.0
 31
0.0
 11
-75.9530443351
 21
-10.0834508766
 31
0.0
 11
-75.907401131
 21
-10.3335480144
 31
0.0
  0
SPLINE
  5
571
100
AcDbEntity
  8
ASSI
100
AcDbSpline
 62
7
  6
CONTINUOUS
 70
0
 71
3
 72
9
 73
5
 74
3
 42
0.0000001
 43
0.0000001
 44
0.0000000001
 12
0.0
 22
-2.2469010214
 32
0.0
 13
-0.1326408019
 23
-2.2429825273
 33
0.0
 40
0.0
 40
0.0
 40
0.0
 40
0.0
 40
0.5228692115
 40
1.0
 40
1.0
 40
1.0
 40
1.0
 10
-71.8563305935
 20
0.0000025967
 30
0.0
 10
-71.8563305935
 20
-0.3916091917
 30
0.0
 10
-71.8657494334
 20
-1.1406005407
 30
0.0
 10
-71.8953724027
 20
-1.8891308558
 30
0.0
 10
-71.9164680729
 20
-2.2458628631
 30
0.0
 11
-71.8563305935
 21
0.0000025967
 31
0.0
 11
-71.8717038879
 21
-1.1747321808
 31
0.0
 11
-71.9164680729
 21
-2.2458628631
 31
0.0
  0
SPLINE
  5
572
100
AcDbEntity
  8
ASSI
100
AcDbSpline
 62
7
  6
CONTINUOUS
 70
0
 71
3
 72
9
 73
5
 74
3
 42
0.0000001
 43
0.0000001
 44
0.0000000001
 12
0.1326404954
 22
-2.2429773434
 32
0.0
 13
0.0000002543
 23
-2.2468958285
 33
0.0
 40
0.0
 40
0.0
 40
0.0
 40
0.0
 40
0.4771307863
 40
1.0
 40
1.0
 40
1.0
 40
1.0
 10
-71.9164680729
 20
2.2458628631
 30
0.0
 10
-71.8953724516
 20
1.889131682
 30
0.0
 10
-71.8657495195
 20
1.1406030987
 30
0.0
 10
-71.8563306378
 20
0.3916134818
 30
0.0
 10
-71.8563305935
 20
0.0000025967
 30
0.0
 11
-71.9164680729
 21
2.2458628631
 31
0.0
 11
-71.8717039544
 21
1.174734663
 31
0.0
 11
-71.8563305935
 21
0.0000025967
 31
0.0
  0
SPLINE
  5
573
100
AcDbEntity
  8
0
100
AcDbSpline
 62
7
  6
CONTINUOUS
 70
0
 71
3
 72
14
 73
10
 74
8
 42
0.0000001
 43
0.0000001
 44
0.0000000001
 12
0.3920374913
 22
-1.2652599085
 32
0.0
 13
1.3246041034
 23
0.0000009192
 33
0.0
 40
0.0
 40
0.0
 40
0.0
 40
0.0
 40
0.1340424942
 40
0.2659147105
 40
0.5216239553
 40
0.6471845499
 40
0.770746863
 40
0.8898621827
 40
1.0
 40
1.0
 40
1.0
 40
1.0
 10
-74.3069117632
 20
7.1938826212
 30
0.0
 10
-74.2893952021
 20
7.1373497565
 30
0.0
 10
-74.245862419
 20
7.0275874349
 30
0.0
 10
-74.1253280101
 20
6.8303624019
 30
0.0
 10
-73.9604149259
 20
6.6682036827
 30
0.0
 10
-73.7681765329
 20
6.5539823051
 30
0.0
 10
-73.6163475649
 20
6.4937727054
 30
0.0
 10
-73.464026056
 20
6.4589735854
 30
0.0
 10
-73.362750295
 20
6.449918974
 30
0.0
 10
-73.3141206268
 20
6.4499190077
 30
0.0
 11
-74.3069117632
 21
7.1938826212
 31
0.0
 11
-74.24095534
 21
7.0290345016
 31
0.0
 11
-74.1498918765
 21
6.8799707013
 31
0.0
 11
-73.9083978432
 21
6.6424681181
 31
0.0
 11
-73.7654211929
 21
6.5575011784
 31
0.0
 11
-73.6132922665
 21
6.4971270607
 31
0.0
 11
-73.4595292755
 21
6.461748065
 31
0.0
 11
-73.3141206268
 21
6.4499190077
 31
0.0
  0
SPLINE
  5
574
100
AcDbEntity
  8
0
100
AcDbSpline
 62
7
  6
CONTINUOUS
 70
0
 71
3
 72
10
 73
6
 74
4
 42
0.0000001
 43
0.0000001
 44
0.0000000001
 12
-0.0902694079
 22
0.0
 32
0.0
 13
-0.0000684121
 23
0.090269382
 33
0.0
 40
0.0
 40
0.0
 40
0.0
 40
0.0
 40
0.5442639927
 40
0.7827046589
 40
1.0
 40
1.0
 40
1.0
 40
1.0
 10
-71.8507884954
 20
-6.5
 30
0.0
 10
-71.8671652916
 20
-6.5
 30
0.0
 10
-71.8920440074
 20
-6.493156287
 30
0.0
 10
-71.9129148075
 20
-6.4704324051
 30
0.0
 10
-71.9167295796
 20
-6.4565383721
 30
0.0
 10
-71.9167345348
 20
-6.45
 30
0.0
 11
-71.8507884954
 21
-6.5
 31
0.0
 11
-71.8976339598
 21
-6.485191302
 31
0.0
 11
-71.9117966999
 21
-6.4689834346
 31
0.0
 11
-71.9167345348
 21
-6.45
 31
0.0
  0
SPLINE
  5
575
100
AcDbEntity
  8
0
100
AcDbSpline
 62
7
  6
CONTINUOUS
 70
0
 71
3
 72
10
 73
6
 74
4
 42
0.0000001
 43
0.0000001
 44
0.0000000001
 12
-0.0902694079
 22
0.0
 32
0.0
 13
-0.0000684121
 23
-0.090269382
 33
0.0
 40
0.0
 40
0.0
 40
0.0
 40
0.0
 40
0.5442639927
 40
0.7827046589
 40
1.0
 40
1.0
 40
1.0
 40
1.0
 10
-71.8507884954
 20
6.5
 30
0.0
 10
-71.8671652916
 20
6.5
 30
0.0
 10
-71.8920440074
 20
6.493156287
 30
0.0
 10
-71.9129148075
 20
6.4704324051
 30
0.0
 10
-71.9167295796
 20
6.4565383721
 30
0.0
 10
-71.9167345348
 20
6.45
 30
0.0
 11
-71.8507884954
 21
6.5
 31
0.0
 11
-71.8976339598
 21
6.485191302
 31
0.0
 11
-71.9117966999
 21
6.4689834346
 31
0.0
 11
-71.9167345348
 21
6.45
 31
0.0
  0
SPLINE
  5
576
100
AcDbEntity
  8
0
100
AcDbSpline
 62
253
  6
CONTINUOUS
 70
0
 71
3
 72
8
 73
4
 74
2
 42
0.0000001
 43
0.0000001
 44
0.0000000001
 12
-0.0359888375
 22
-0.0018006349
 32
0.0
 13
-0.035969898
 23
-0.0031033965
 33
0.0
 40
0.0
 40
0.0
 40
0.0
 40
0.0
 40
1.0
 40
1.0
 40
1.0
 40
1.0
 10
-73.3797061234
 20
-16.8336306691
 30
0.0
 10
-73.3917024026
 20
-16.8342308807
 30
0.0
 10
-73.4037001575
 20
-16.835048902
 30
0.0
 10
-73.4156901235
 20
-16.8360833674
 30
0.0
 11
-73.3797061234
 21
-16.8336306691
 31
0.0
 11
-73.4156901235
 21
-16.8360833674
 31
0.0
  0
SPLINE
  5
577
100
AcDbEntity
  8
0
100
AcDbSpline
 62
253
  6
CONTINUOUS
 70
0
 71
3
 72
8
 73
4
 74
2
 42
0.0000001
 43
0.0000001
 44
0.0000000001
 12
0.0873958346
 22
0.0
 32
0.0
 13
0.0874258432
 23
0.0078285835
 33
0.0
 40
0.0
 40
0.0
 40
0.0
 40
0.0
 40
1.0
 40
1.0
 40
1.0
 40
1.0
 10
-71.7875321238
 20
16.8325
 30
0.0
 10
-71.758400179
 20
16.8325
 30
0.0
 10
-71.7291961867
 20
16.8338161453
 30
0.0
 10
-71.700054239
 20
16.8364256732
 30
0.0
 11
-71.7875321238
 21
16.8325
 31
0.0
 11
-71.700054239
 21
16.8364256732
 31
0.0
  0
SPLINE
  5
578
100
AcDbEntity
  8
0
100
AcDbSpline
 62
253
  6
CONTINUOUS
 70
0
 71
3
 72
11
 73
7
 74
5
 42
0.0000001
 43
0.0000001
 44
0.0000000001
 12
0.0
 22
1.4703578959
 32
0.0
 13
-1.4708627651
 23
0.1317090184
 33
0.0
 40
0.0
 40
0.0
 40
0.0
 40
0.0
 40
0.2653454236
 40
0.5303789183
 40
0.7950260344
 40
1.0
 40
1.0
 40
1.0
 40
1.0
 10
-70.7913374257
 20
-17.8325
 30
0.0
 10
-70.7913374257
 20
-17.7024490871
 30
0.0
 10
-70.8431154744
 20
-17.4396694848
 30
0.0
 10
-71.0646680342
 20
-17.1073041258
 30
0.0
 10
-71.3709991561
 20
-16.9012825876
 30
0.0
 10
-71.5995580477
 20
-16.8454246464
 30
0.0
 10
-71.700054239
 20
-16.8364256732
 30
0.0
 11
-70.7913374257
 21
-17.8325
 31
0.0
 11
-70.8671802757
 21
-17.4497898986
 31
0.0
 11
-71.0831160974
 21
-17.1253932188
 31
0.0
 11
-71.4062783499
 21
-16.9086325574
 31
0.0
 11
-71.700054239
 21
-16.8364256732
 31
0.0
  0
ELLIPSE
  5
579
100
AcDbEntity
  8
RACCORDO
100
AcDbEllipse
 62
7
  6
CONTINUOUS
 10
-38.999847672
 20
38.999847672
 30
0.0
 11
0.7073221892
 21
-0.7073221892
 31
0.0
 40
0.9996954599
 41
2.3563467834
 42
3.9268385237
  0
ELLIPSE
  5
57A
100
AcDbEntity
  8
RACCORDO
100
AcDbEllipse
 62
7
  6
CONTINUOUS
 10
-38.999847672
 20
-38.999847672
 30
0.0
 11
0.7073221892
 21
0.7073221892
 31
0.0
 40
0.9996954599
 41
-3.9268385237
 42
-2.3563467834
  0
ELLIPSE
  5
57B
100
AcDbEntity
  8
RACCORDO
100
AcDbEllipse
 62
7
  6
CONTINUOUS
 10
38.999847672
 20
-38.999847672
 30
0.0
 11
0.7073221892
 21
-0.7073221892
 31
0.0
 40
0.9996954599
 41
-0.7852458702
 42
0.7852458701
  0
ELLIPSE
  5
57C
100
AcDbEntity
  8
RACCORDO
100
AcDbEllipse
 62
7
  6
CONTINUOUS
 10
38.999847672
 20
38.999847672
 30
0.0
 11
0.7073221892
 21
0.7073221892
 31
0.0
 40
0.9996954599
 41
-0.7852458702
 42
0.7852458701
  0
ELLIPSE
  5
57D
100
AcDbEntity
  8
0
100
AcDbEllipse
 62
7
  6
CONTINUOUS
 10
-59.9883347499
 20
-2.274567394
 30
0.0
 11
-0.0
 21
3.5000004375
 31
0.0
 40
0.0349207695
 41
-0.3926990817
 42
0.0
  0
ELLIPSE
  5
57E
100
AcDbEntity
  8
0
100
AcDbEllipse
 62
7
  6
CONTINUOUS
 10
-59.9883347499
 20
-2.2746249404
 30
0.0
 11
-0.0
 21
3.5000004375
 31
0.0
 40
0.0349207695
 41
-3.1415926536
 42
-2.7488935719
  0
ELLIPSE
  5
57F
100
AcDbEntity
  8
0
100
AcDbEllipse
 62
7
  6
CONTINUOUS
 10
-70.4643787062
 20
16.522202938
 30
0.0
 11
-0.0
 21
0.75
 31
0.0
 40
0.0874886635
 41
0.0523598776
 42
1.5707963323
  0
ELLIPSE
  5
580
100
AcDbEntity
  8
0
100
AcDbEllipse
 62
7
  6
CONTINUOUS
 10
-73.5994520377
 20
17.9388684987
 30
0.0
 11
0.9502067147
 21
-0.3164782047
 31
0.0
 40
0.9984778551
 41
2.0986616322
 42
2.7192442606
  0
ELLIPSE
  5
581
100
AcDbEntity
  8
0
100
AcDbEllipse
 62
7
  6
CONTINUOUS
 10
-74.6741952747
 20
-18.3456164691
 30
0.0
 11
-0.0007278894
 21
0.5894999259
 31
0.0
 40
0.0444338954
 41
-1.6555403855
 42
-1.5985778162
  0
ELLIPSE
  5
582
100
AcDbEntity
  8
0
100
AcDbEllipse
 62
7
  6
CONTINUOUS
 10
-71.3413399618
 20
-17.9388684987
 30
0.0
 11
-0.984567368
 21
0.1964333051
 31
0.0
 40
0.9960441251
 41
1.7684848362
 42
1.8864069756
  0
ELLIPSE
  5
583
100
AcDbEntity
  8
0
100
AcDbEllipse
 62
7
  6
CONTINUOUS
 10
-71.7875321238
 20
17.8325
 30
0.0
 11
1.0038198375
 21
0.0
 31
0.0
 40
0.9961946981
 41
-1.5707963268
 42
-1.4835298642
  0
ELLIPSE
  5
584
100
AcDbEntity
  8
0
100
AcDbEllipse
 62
7
  6
CONTINUOUS
 10
-71.7875321238
 20
-17.8325
 30
0.0
 11
-1.0038198375
 21
-0.0
 31
0.0
 40
0.9961946981
 41
-1.6580627894
 42
-1.5707963268
  0
ELLIPSE
  5
585
100
AcDbEntity
  8
0
100
AcDbEllipse
 62
7
  6
CONTINUOUS
 10
-73.5994520377
 20
-17.9388684987
 30
0.0
 11
-0.9502067147
 21
-0.3164782047
 31
0.0
 40
0.9984778551
 41
0.4223481236
 42
1.0429310262
  0
ENDSEC
  0
SECTION
  2
OBJECTS
  0
DICTIONARY
  5
C
100
AcDbDictionary
280
0
281
1
  3
ACAD_GROUP
350
D
  3
ACAD_MLINESTYLE
350
17
  3
ACAD_LAYOUT
350
1A
  3
ACAD_PLOTSETTINGS
350
19
  3
ACAD_PLOTSTYLENAME
350
E
  0
DICTIONARY
  5
D
102
{ACAD_REACTORS
330
C
102
}
100
AcDbDictionary
280
0
281
1
  0
ACDBDICTIONARYWDFLT
  5
E
102
{ACAD_REACTORS
330
C
102
}
100
AcDbDictionary
281
1
  3
Normal
350
F
100
AcDbDictionaryWithDefault
340
F
  0
DICTIONARY
  5
17
102
{ACAD_REACTORS
330
C
102
}
100
AcDbDictionary
280
0
281
1
  3
Standard
350
18
  0
DICTIONARY
  5
19
102
{ACAD_REACTORS
330
C
102
}
100
AcDbDictionary
281
1
  0
DICTIONARY
  5
1A
102
{ACAD_REACTORS
330
C
102
}
100
AcDbDictionary
281
1
  3
Model
350
586
  3
Layout1
350
587
  0
ACDBPLACEHOLDER
  5
F
102
{ACAD_REACTORS
330
E
102
}
  0
MLINESTYLE
  5
18
102
{ACAD_REACTORS
330
17
102
}
100
AcDbMlineStyle
  2
STANDARD
 70
0
  3

 62
256
 51
90.0
 52
90.0
 71
2
 49
0.5
 62
256
  6
BYLAYER
 49
-0.5
 62
256
  6
BYLAYER
  0
LAYOUT
  5
586
102
{ACAD_REACTORS
330
1A
102
}
100
AcDbPlotSettings
  1

  2
none_device
  4
ANSI_C_(22.00_x_17.00_Inches)
  6

 40
0.0
 41
0.0
 42
0.0
 43
0.0
 44
558.8
 45
431.8
 46
0.0
 47
0.0
 48
0.0
 49
0.0
140
0.0
141
0.0
142
1.0
143
1.0
 70
1024
 72
1
 73
0
 74
0
  7

 75
0
147
1.0
148
0.0
149
0.0
100
AcDbLayout
  1
Model
 70
0
 71
0
 10
0.0
 20
0.0
 11
558.8
 21
431.8
 12
0.0
 22
0.0
 32
0.0
 14
0.0
 24
0.0
 34
0.0
 15
0.0
 25
0.0
 35
0.0
146
0.0
 13
0.0
 23
0.0
 33
0.0
 16
1.0
 26
0.0
 36
0.0
 17
0.0
 27
1.0
 37
0.0
 76
0
330
212
345
0
346
0
  0
LAYOUT
  5
587
102
{ACAD_REACTORS
330
1A
102
}
100
AcDbPlotSettings
  1

  2
none_device
  4
ANSI_C_(22.00_x_17.00_Inches)
  6

 40
0.0
 41
0.0
 42
0.0
 43
0.0
 44
558.8
 45
431.8
 46
0.0
 47
0.0
 48
0.0
 49
0.0
140
0.0
141
0.0
142
1.0
143
1.0
 70
0
 72
1
 73
0
 74
0
  7

 75
0
147
1.0
148
0.0
149
0.0
100
AcDbLayout
  1
Layout1
 70
0
 71
1
 10
0.0
 20
0.0
 11
558.8
 21
431.8
 12
0.0
 22
0.0
 32
0.0
 14
0.0
 24
0.0
 34
0.0
 15
0.0
 25
0.0
 35
0.0
146
0.0
 13
0.0
 23
0.0
 33
0.0
 16
1.0
 26
0.0
 36
0.0
 17
0.0
 27
1.0
 37
0.0
 76
0
330
213
345
0
346
0
  0
ENDSEC
  0
EOF
