  0
SECTION
  2
HEADER
  9
$ACADVER
  1
AC1015
  9
$DWGCODEPAGE
  3
ANSI_1252
  9
$EXTMAX
 10
558.8
 20
431.8
 30
0.0
  9
$EXTMIN
 10
0.0
 20
0.0
 30
0.0
  9
$LIMMIN
 10
0.0
 20
0.0
  9
$LIMMAX
 10
558.8
 20
431.8
  9
$VIEWCTR
 10
279.4
 20
215.9
  9
$VIEWSIZE
 40
431.8
  9
$CLAYER
  8
0
  9
$LTSCALE
 40
30.734
  9
$CELTYPE
  6
BYLAYER
  9
$DIMSCALE
 40
1.0
  9
$DIMASZ
 40
3.0
  9
$DIMEXO
 40
3.4925
  9
$DIMDLI
 40
21.2344
  9
$DIMEXE
 40
10.0584
  9
$DIMCEN
 40
5.0292
  9
$DIMLFAC
 40
1.0
  9
$DIMBLK
  1
_FILLED
  9
$DIMTXT
 40
3.0
  9
$DIMTOL
 70
1
  9
$DIMLIM
 70
0
  9
$DIMTFAC
 40
1.0
  9
$DIMTP
 40
0.01
  9
$DIMTM
 40
0.01
  9
$PDMODE
 70
3
  9
$PDSIZE
 40
3.0
  9
$HANDSEED
  5
497
  9
$TILEMODE
 70
1
  9
$MEASUREMENT
 70
1
  9
$INSUNITS
 70
4
  0
ENDSEC
  0
SECTION
  2
CLASSES
  0
CLASS
  1
ACDBDICTIONARYWDFLT
  2
AcDbDictionaryWithDefault
  3
AutoCAD 2000
 90
0
280
0
281
0
  0
CLASS
  1
ACDBPLACEHOLDER
  2
AcDbPlaceHolder
  3
AutoCAD 2000
 90
0
280
0
281
0
  0
CLASS
  1
LAYOUT
  2
AcDbLayout
  3
AutoCAD 2000
 90
0
280
0
281
0
  0
ENDSEC
  0
SECTION
  2
TABLES
  0
TABLE
  2
VPORT
  5
8
100
AcDbSymbolTable
 70
2
  0
VPORT
  5
1F4
100
AcDbSymbolTableRecord
100
AcDbViewportTableRecord
  2
*ACTIVE
 70
0
 10
0.0
 20
0.0
 11
1.0
 21
1.0
 12
279.4
 22
215.9
 13
0.0
 23
0.0
 14
1.0
 24
1.0
 15
0.0
 25
0.0
 16
0.0
 26
0.0
 36
1.0
 17
0.0
 27
0.0
 37
0.0
 40
431.8
 41
1.2941176471
 42
50.0
 43
0.0
 44
0.0
 50
0.0
 51
0.0
 71
0
 72
100
 73
1
 74
1
 75
0
 76
0
 77
0
 78
0
  0
ENDTAB
  0
TABLE
  2
LTYPE
  5
5
100
AcDbSymbolTable
 70
6
  0
LTYPE
  5
14
100
AcDbSymbolTableRecord
100
AcDbLinetypeTableRecord
  2
BYBLOCK
 70
0
  3

 72
65
 73
0
 40
0.0
  0
LTYPE
  5
15
100
AcDbSymbolTableRecord
100
AcDbLinetypeTableRecord
  2
BYLAYER
 70
0
  3

 72
65
 73
0
 40
0.0
  0
LTYPE
  5
16
100
AcDbSymbolTableRecord
100
AcDbLinetypeTableRecord
  2
CONTINUOUS
 70
64
  3
Solid line
 72
65
 73
0
 40
0.0
  0
LTYPE
  5
1F5
100
AcDbSymbolTableRecord
100
AcDbLinetypeTableRecord
  2
CENTER
 70
64
  3
____ _ ____ _ ____ _ ____ _ ____ _ ____ _ ____
 72
65
 73
4
 40
0.6
 49
0.375
 74
0
 49
-0.075
 74
0
 49
0.075
 74
0
 49
-0.075
 74
0
  0
LTYPE
  5
1F6
100
AcDbSymbolTableRecord
100
AcDbLinetypeTableRecord
  2
HIDDEN
 70
64
  3
- - - - - - - - - - - - - - - - - - - -
 72
65
 73
2
 40
0.2
 49
0.1
 74
0
 49
-0.1
 74
0
  0
LTYPE
  5
1F7
100
AcDbSymbolTableRecord
100
AcDbLinetypeTableRecord
  2
PHANTOM
 70
64
  3
_____ _ _ _____ _ _ _____ _ _ _____
 72
65
 73
6
 40
0.8
 49
0.45
 74
0
 49
-0.05
 74
0
 49
0.1
 74
0
 49
-0.05
 74
0
 49
0.1
 74
0
 49
-0.05
 74
0
  0
LTYPE
  5
1F8
100
AcDbSymbolTableRecord
100
AcDbLinetypeTableRecord
  2
DOT
 70
64
  3
. . . . . . . . . . . . . . . . . . . .
 72
65
 73
2
 40
0.2
 49
0.1
 74
0
 49
-0.1
 74
0
  0
LTYPE
  5
1F9
100
AcDbSymbolTableRecord
100
AcDbLinetypeTableRecord
  2
DASHED
 70
64
  3
- - - - - - - - - - - - - - - - - - - -
 72
65
 73
2
 40
0.2
 49
0.1
 74
0
 49
-0.1
 74
0
  0
ENDTAB
  0
TABLE
  2
LAYER
  5
2
100
AcDbSymbolTable
 70
36
  0
LAYER
  5
10
100
AcDbSymbolTableRecord
100
AcDbLayerTableRecord
  2
0
 70
0
 62
7
  6
CONTINUOUS
370
-3
390
F
  0
LAYER
  5
1FA
100
AcDbSymbolTableRecord
100
AcDbLayerTableRecord
  2
DEFAULT_1
 70
0
 62
7
  6
CENTER
370
-3
390
F
  0
LAYER
  5
1FB
100
AcDbSymbolTableRecord
100
AcDbLayerTableRecord
  2
DEFAULT_2
 70
0
 62
7
  6
HIDDEN
370
-3
390
F
  0
LAYER
  5
1FC
100
AcDbSymbolTableRecord
100
AcDbLayerTableRecord
  2
DEFAULT_3
 70
0
 62
7
  6
PHANTOM
370
-3
390
F
  0
LAYER
  5
1FD
100
AcDbSymbolTableRecord
100
AcDbLayerTableRecord
  2
ASSI
 70
0
 62
7
  6
CONTINUOUS
370
-3
390
F
  0
LAYER
  5
1FE
100
AcDbSymbolTableRecord
100
AcDbLayerTableRecord
  2
COORDINATE
 70
0
 62
7
  6
CONTINUOUS
370
-3
390
F
  0
LAYER
  5
1FF
100
AcDbSymbolTableRecord
100
AcDbLayerTableRecord
  2
COORD_ORIGINE
 70
0
 62
7
  6
CONTINUOUS
370
-3
390
F
  0
LAYER
  5
200
100
AcDbSymbolTableRecord
100
AcDbLayerTableRecord
  2
COPY_PUBLISH
 70
0
 62
7
  6
CONTINUOUS
370
-3
390
F
  0
LAYER
  5
201
100
AcDbSymbolTableRecord
100
AcDbLayerTableRecord
  2
COSMETIC
 70
0
 62
7
  6
CONTINUOUS
370
-3
390
F
  0
LAYER
  5
202
100
AcDbSymbolTableRecord
100
AcDbLayerTableRecord
  2
COSMETICHE
 70
0
 62
7
  6
CONTINUOUS
370
-3
390
F
  0
LAYER
  5
203
100
AcDbSymbolTableRecord
100
AcDbLayerTableRecord
  2
COSMETICI
 70
0
 62
7
  6
CONTINUOUS
370
-3
390
F
  0
LAYER
  5
204
100
AcDbSymbolTableRecord
100
AcDbLayerTableRecord
  2
CURVE
 70
0
 62
7
  6
CONTINUOUS
370
-3
390
F
  0
LAYER
  5
205
100
AcDbSymbolTableRecord
100
AcDbLayerTableRecord
  2
DRAFT
 70
0
 62
7
  6
CONTINUOUS
370
-3
390
F
  0
LAYER
  5
206
100
AcDbSymbolTableRecord
100
AcDbLayerTableRecord
  2
IMPORT_IGES
 70
0
 62
7
  6
CONTINUOUS
370
-3
390
F
  0
LAYER
  5
207
100
AcDbSymbolTableRecord
100
AcDbLayerTableRecord
  2
NOTE
 70
0
 62
7
  6
CONTINUOUS
370
-3
390
F
  0
LAYER
  5
208
100
AcDbSymbolTableRecord
100
AcDbLayerTableRecord
  2
PIANI
 70
0
 62
7
  6
CONTINUOUS
370
-3
390
F
  0
LAYER
  5
209
100
AcDbSymbolTableRecord
100
AcDbLayerTableRecord
  2
PIANI_ORIGINE
 70
0
 62
7
  6
CONTINUOUS
370
-3
390
F
  0
LAYER
  5
20A
100
AcDbSymbolTableRecord
100
AcDbLayerTableRecord
  2
PUNTI
 70
0
 62
7
  6
CONTINUOUS
370
-3
390
F
  0
LAYER
  5
20B
100
AcDbSymbolTableRecord
100
AcDbLayerTableRecord
  2
RACCORDO
 70
0
 62
7
  6
CONTINUOUS
370
-3
390
F
  0
LAYER
  5
20C
100
AcDbSymbolTableRecord
100
AcDbLayerTableRecord
  2
SNAPLINE
 70
0
 62
7
  6
CONTINUOUS
370
-3
390
F
  0
LAYER
  5
20D
100
AcDbSymbolTableRecord
100
AcDbLayerTableRecord
  2
SUPERFICI
 70
0
 62
7
  6
CONTINUOUS
370
-3
390
F
  0
LAYER
  5
20E
100
AcDbSymbolTableRecord
100
AcDbLayerTableRecord
  2
TRASH
 70
0
 62
7
  6
CONTINUOUS
370
-3
390
F
  0
LAYER
  5
20F
100
AcDbSymbolTableRecord
100
AcDbLayerTableRecord
  2
XSEC_DATUMS
 70
0
 62
7
  6
CONTINUOUS
370
-3
390
F
  0
ENDTAB
  0
TABLE
  2
STYLE
  5
3
100
AcDbSymbolTable
 70
1
  0
STYLE
  5
11
100
AcDbSymbolTableRecord
100
AcDbTextStyleTableRecord
  2
STANDARD
 70
0
 40
0.0
 41
0.8
 50
0.0
 71
0
 42
0.2
  3
txt
  4

  0
STYLE
  5
210
100
AcDbSymbolTableRecord
100
AcDbTextStyleTableRecord
  2
TEXTSTYLE_1
 70
0
 40
0.0
 41
0.8
 50
0.0
 71
0
 42
0.2
  3
gdt
  4

  0
ENDTAB
  0
TABLE
  2
VIEW
  5
6
100
AcDbSymbolTable
 70
0
  0
ENDTAB
  0
TABLE
  2
UCS
  5
7
100
AcDbSymbolTable
 70
0
  0
ENDTAB
  0
TABLE
  2
APPID
  5
9
100
AcDbSymbolTable
 70
1
  0
APPID
  5
211
100
AcDbSymbolTableRecord
100
AcDbRegAppTableRecord
  2
ACAD
 70
0
  0
ENDTAB
  0
TABLE
  2
BLOCK_RECORD
  5
1
100
AcDbSymbolTable
 70
0
  0
BLOCK_RECORD
  5
212
100
AcDbSymbolTableRecord
100
AcDbBlockTableRecord
  2
*Model_Space
  0
BLOCK_RECORD
  5
213
100
AcDbSymbolTableRecord
100
AcDbBlockTableRecord
  2
*Paper_Space
  0
BLOCK_RECORD
  5
214
100
AcDbSymbolTableRecord
100
AcDbBlockTableRecord
  2
_FILLED
  0
BLOCK_RECORD
  5
215
100
AcDbSymbolTableRecord
100
AcDbBlockTableRecord
  2
*D0
  0
BLOCK_RECORD
  5
216
100
AcDbSymbolTableRecord
100
AcDbBlockTableRecord
  2
*D1
  0
BLOCK_RECORD
  5
217
100
AcDbSymbolTableRecord
100
AcDbBlockTableRecord
  2
*D2
  0
BLOCK_RECORD
  5
218
100
AcDbSymbolTableRecord
100
AcDbBlockTableRecord
  2
*D3
  0
ENDTAB
  0
TABLE
  2
DIMSTYLE
  5
A
100
AcDbSymbolTable
 70
1
100
AcDbDimStyleTable
 71
0
  0
DIMSTYLE
105
219
100
AcDbSymbolTableRecord
100
AcDbDimStyleTableRecord
  2
STANDARD
 70
0
  3

  4

 40
1.0
 41
3.0
 42
0.0625
 43
0.38
 44
0.18
 45
0.0
 46
0.0
 47
0.01
 48
0.01
140
3.0
141
0.09
142
0.0
143
25.4
144
1.0
145
0.0
146
1.0
147
0.09
 71
1.0
 72
0.0
 73
0
 74
0
 75
0
 76
0
 77
1
 78
8
170
0
171
2
172
0
173
0
174
0
175
0
176
0
177
0
178
0
270
2
271
2
272
2
273
2
274
2
275
0
280
0
281
0
282
0
283
1
284
8
285
0
286
0
287
3
288
0
340
11
341
214
342
214
343
214
344
214
  0
DIMSTYLE
105
21A
100
AcDbSymbolTableRecord
100
AcDbDimStyleTableRecord
  2
DIMSTYLE_1
 70
0
  3

  4

 40
1.0
 41
3.0
 42
0.0625
 43
0.38
 44
0.18
 45
0.0
 46
0.0
 47
0.0
 48
0.0
140
3.0
141
0.09
142
0.0
143
25.4
144
1.0
145
0.0
146
1.0
147
0.09
 71
0.0
 72
0.0
 73
0
 74
0
 75
0
 76
0
 77
1
 78
8
170
0
171
2
172
0
173
0
174
0
175
0
176
0
177
0
178
0
270
2
271
2
272
2
273
2
274
2
275
0
280
0
281
0
282
0
283
1
284
8
285
0
286
0
287
3
288
0
340
11
341
214
342
214
343
214
344
214
  0
DIMSTYLE
105
21B
100
AcDbSymbolTableRecord
100
AcDbDimStyleTableRecord
  2
DIMSTYLE_2
 70
0
  3

  4

 40
1.0
 41
3.0
 42
0.0625
 43
0.38
 44
0.18
 45
0.0
 46
0.0
 47
0.0
 48
0.0
140
3.0
141
0.09
142
0.0
143
25.4
144
1.0
145
0.0
146
1.0
147
0.09
 71
0.0
 72
0.0
 73
0
 74
0
 75
0
 76
0
 77
1
 78
8
170
0
171
2
172
0
173
0
174
0
175
0
176
0
177
0
178
0
270
2
271
1
272
1
273
2
274
2
275
0
280
0
281
0
282
0
283
1
284
8
285
0
286
0
287
3
288
0
340
11
341
214
342
214
343
214
344
214
  0
ENDTAB
  0
ENDSEC
  0
SECTION
  2
BLOCKS
  0
BLOCK
  5
20
100
AcDbEntity
  8
0
100
AcDbBlockBegin
  2
*Model_Space
 70
0
 10
0.0
 20
0.0
 30
0.0
  3
*Model_Space
  1

  0
ENDBLK
  5
21
100
AcDbEntity
  8
0
100
AcDbBlockEnd
  0
BLOCK
  5
1C
100
AcDbEntity
  8
0
100
AcDbBlockBegin
  2
*Paper_Space
 70
0
 10
0.0
 20
0.0
 30
0.0
  3
*Paper_Space
  1

  0
ENDBLK
  5
1D
100
AcDbEntity
  8
0
100
AcDbBlockEnd
  0
BLOCK
  5
21C
100
AcDbEntity
  8
0
100
AcDbBlockBegin
  2
_FILLED
 70
64
 10
0.0
 20
0.0
  3
_FILLED
  1

  0
SOLID
  5
21D
100
AcDbEntity
  8
0
  6
BYBLOCK
 62
0
100
AcDbTrace
 10
0.0
 20
0.0
 11
-1.0
 21
0.3166666667
 12
-1.0
 22
-0.3166666667
 13
-1.0
 23
-0.3166666667
  0
ENDBLK
  5
21E
100
AcDbEntity
  8
0
  6
BYBLOCK
 62
0
100
AcDbBlockEnd
  0
BLOCK
  5
21F
100
AcDbEntity
  8
0
100
AcDbBlockBegin
 62
7
  6
CONTINUOUS
  2
*D0
 70
65
 10
0.0
 20
0.0
  3
*D0
  1

  0
MTEXT
  5
220
100
AcDbEntity
  8
0
100
AcDbMText
 62
7
  6
CONTINUOUS
  7
STANDARD
 71
2
 72
1
 10
-0.0
 20
51.75
 30
0.0
 11
1.0
 21
0.0
 31
0.0
 44
0.9
  1
80
 40
3.0
 41
4.7142857143
  0
LINE
  5
221
100
AcDbEntity
  8
0
100
AcDbLine
 62
7
  6
CONTINUOUS
 10
40.0
 20
39.5001523048
 11
40.0
 21
49.5
  0
LINE
  5
222
100
AcDbEntity
  8
0
100
AcDbLine
 62
7
  6
CONTINUOUS
 10
-40.0
 20
39.5001523048
 11
-40.0
 21
49.5
  0
LINE
  5
223
100
AcDbEntity
  8
0
100
AcDbLine
 62
7
  6
CONTINUOUS
 10
40.0
 20
48.0
 11
-0.0
 21
48.0
  0
LINE
  5
224
100
AcDbEntity
  8
0
100
AcDbLine
 62
7
  6
CONTINUOUS
 10
-40.0
 20
48.0
 11
-0.0
 21
48.0
  0
INSERT
  5
225
100
AcDbEntity
  8
0
100
AcDbBlockReference
 62
7
  6
CONTINUOUS
  2
_FILLED
 10
40.0
 20
48.0
 41
3.0
 42
3.0
 43
3.0
  0
INSERT
  5
226
100
AcDbEntity
  8
0
100
AcDbBlockReference
 62
7
  6
CONTINUOUS
  2
_FILLED
 10
-40.0
 20
48.0
 41
3.0
 42
3.0
 43
3.0
 50
180.0
  0
ENDBLK
  5
227
100
AcDbEntity
  8
0
  6
BYBLOCK
 62
0
100
AcDbBlockEnd
  0
BLOCK
  5
228
100
AcDbEntity
  8
0
100
AcDbBlockBegin
 62
7
  6
CONTINUOUS
  2
*D1
 70
65
 10
0.0
 20
0.0
  3
*D1
  1

  0
MTEXT
  5
229
100
AcDbEntity
  8
0
100
AcDbMText
 62
7
  6
CONTINUOUS
  7
STANDARD
 71
2
 72
1
 10
44.25
 20
0.0
 30
0.0
 11
0.0
 21
1.0
 31
0.0
 44
0.9
  1
80
 40
3.0
 41
4.7142857143
  0
LINE
  5
22A
100
AcDbEntity
  8
0
100
AcDbLine
 62
7
  6
CONTINUOUS
 10
39.5001523048
 20
-40.0
 11
49.5
 21
-40.0
  0
LINE
  5
22B
100
AcDbEntity
  8
0
100
AcDbLine
 62
7
  6
CONTINUOUS
 10
39.5001523048
 20
40.0
 11
49.5
 21
40.0
  0
LINE
  5
22C
100
AcDbEntity
  8
0
100
AcDbLine
 62
7
  6
CONTINUOUS
 10
48.0
 20
-40.0
 11
48.0
 21
0.0
  0
LINE
  5
22D
100
AcDbEntity
  8
0
100
AcDbLine
 62
7
  6
CONTINUOUS
 10
48.0
 20
40.0
 11
48.0
 21
0.0
  0
INSERT
  5
22E
100
AcDbEntity
  8
0
100
AcDbBlockReference
 62
7
  6
CONTINUOUS
  2
_FILLED
 10
48.0
 20
-40.0
 41
3.0
 42
3.0
 43
3.0
 50
270.0
  0
INSERT
  5
22F
100
AcDbEntity
  8
0
100
AcDbBlockReference
 62
7
  6
CONTINUOUS
  2
_FILLED
 10
48.0
 20
40.0
 41
3.0
 42
3.0
 43
3.0
 50
90.0
  0
ENDBLK
  5
230
100
AcDbEntity
  8
0
  6
BYBLOCK
 62
0
100
AcDbBlockEnd
  0
BLOCK
  5
231
100
AcDbEntity
  8
0
100
AcDbBlockBegin
 62
7
  6
CONTINUOUS
  2
*D2
 70
65
 10
0.0
 20
0.0
  3
*D2
  1

  0
MTEXT
  5
232
100
AcDbEntity
  8
0
100
AcDbMText
 62
7
  6
CONTINUOUS
  7
STANDARD
 71
2
 72
1
 10
-71.6684076323
 20
51.75
 30
0.0
 11
1.0
 21
0.0
 31
0.0
 44
0.9
  1
23,6
 40
3.0
 41
8.5714285714
  0
LINE
  5
233
100
AcDbEntity
  8
0
100
AcDbLine
 62
7
  6
CONTINUOUS
 10
-83.4684076314
 20
39.5001523048
 11
-83.4684076314
 21
49.5
  0
LINE
  5
234
100
AcDbEntity
  8
0
100
AcDbLine
 62
7
  6
CONTINUOUS
 10
-59.8684076333
 20
14.6806895397
 11
-59.8684076333
 21
49.5
  0
LINE
  5
235
100
AcDbEntity
  8
0
100
AcDbLine
 62
7
  6
CONTINUOUS
 10
-83.4684076314
 20
48.0
 11
-71.6684076323
 21
48.0
  0
LINE
  5
236
100
AcDbEntity
  8
0
100
AcDbLine
 62
7
  6
CONTINUOUS
 10
-59.8684076333
 20
48.0
 11
-71.6684076323
 21
48.0
  0
INSERT
  5
237
100
AcDbEntity
  8
0
100
AcDbBlockReference
 62
7
  6
CONTINUOUS
  2
_FILLED
 10
-83.4684076314
 20
48.0
 41
3.0
 42
3.0
 43
3.0
 50
180.0
  0
INSERT
  5
238
100
AcDbEntity
  8
0
100
AcDbBlockReference
 62
7
  6
CONTINUOUS
  2
_FILLED
 10
-59.8684076333
 20
48.0
 41
3.0
 42
3.0
 43
3.0
  0
ENDBLK
  5
239
100
AcDbEntity
  8
0
  6
BYBLOCK
 62
0
100
AcDbBlockEnd
  0
BLOCK
  5
23A
100
AcDbEntity
  8
0
100
AcDbBlockBegin
 62
7
  6
CONTINUOUS
  2
*D3
 70
65
 10
0.0
 20
0.0
  3
*D3
  1

  0
MTEXT
  5
23B
100
AcDbEntity
  8
0
100
AcDbMText
 62
7
  6
CONTINUOUS
  7
STANDARD
 71
2
 72
1
 10
-75.8762882533
 20
61.75
 30
0.0
 11
1.0
 21
0.0
 31
0.0
 44
0.9
  1
32
 40
3.0
 41
4.5
  0
LINE
  5
23C
100
AcDbEntity
  8
0
100
AcDbLine
 62
7
  6
CONTINUOUS
 10
-59.8684076333
 20
11.9000000212
 11
-59.8684076333
 21
59.5
  0
LINE
  5
23D
100
AcDbEntity
  8
0
100
AcDbLine
 62
7
  6
CONTINUOUS
 10
-91.8841688732
 20
0.5
 11
-91.8841688732
 21
59.5
  0
LINE
  5
23E
100
AcDbEntity
  8
0
100
AcDbLine
 62
7
  6
CONTINUOUS
 10
-59.8684076333
 20
58.0
 11
-75.8762882533
 21
58.0
  0
LINE
  5
23F
100
AcDbEntity
  8
0
100
AcDbLine
 62
7
  6
CONTINUOUS
 10
-91.8841688732
 20
58.0
 11
-75.8762882533
 21
58.0
  0
INSERT
  5
240
100
AcDbEntity
  8
0
100
AcDbBlockReference
 62
7
  6
CONTINUOUS
  2
_FILLED
 10
-59.8684076333
 20
58.0
 41
3.0
 42
3.0
 43
3.0
  0
INSERT
  5
241
100
AcDbEntity
  8
0
100
AcDbBlockReference
 62
7
  6
CONTINUOUS
  2
_FILLED
 10
-91.8841688732
 20
58.0
 41
3.0
 42
3.0
 43
3.0
 50
180.0
  0
ENDBLK
  5
242
100
AcDbEntity
  8
0
  6
BYBLOCK
 62
0
100
AcDbBlockEnd
  0
ENDSEC
  0
SECTION
  2
ENTITIES
  0
DIMENSION
  5
243
100
AcDbEntity
  8
0
100
AcDbDimension
 62
7
  6
CONTINUOUS
  2
*D0
 10
-40.0
 20
48.0
 11
-2.3571428571
 21
50.25
 70
160
 71
2
 42
80.0
  3
DIMSTYLE_1
100
AcDbAlignedDimension
 13
40.0
 23
39.5001523048
 14
-40.0
 24
39.5001523048
 50
180.0
100
AcDbRotatedDimension
  0
DIMENSION
  5
244
100
AcDbEntity
  8
0
100
AcDbDimension
 62
7
  6
CONTINUOUS
  2
*D1
 10
48.0
 20
40.0
 11
46.8061735237
 21
-2.1072778499
 70
160
 71
2
 42
80.0
  3
DIMSTYLE_1
100
AcDbAlignedDimension
 13
39.5001523048
 23
-40.0
 14
39.5001523048
 24
40.0
 50
90.0
100
AcDbRotatedDimension
  0
DIMENSION
  5
245
100
AcDbEntity
  8
0
100
AcDbDimension
 62
7
  6
CONTINUOUS
  2
*D2
 10
-59.8684076333
 20
48.0
 11
-75.9541219181
 21
50.25
 70
160
 71
2
 42
23.5999999981
  3
DIMSTYLE_1
100
AcDbAlignedDimension
 13
-83.4684076314
 23
39.5001523048
 14
-59.8684076333
 24
14.6806895397
100
AcDbRotatedDimension
  0
DIMENSION
  5
246
100
AcDbEntity
  8
0
100
AcDbDimension
 62
7
  6
CONTINUOUS
  2
*D3
 10
-91.8841688732
 20
58.0
 11
-78.1262882533
 21
60.25
 70
160
 71
2
 42
32.01576124
  3
DIMSTYLE_2
100
AcDbAlignedDimension
 13
-59.8684076333
 23
11.9000000212
 14
-91.8841688732
 24
0.5
 50
180.0
100
AcDbRotatedDimension
  0
LINE
  5
247
100
AcDbEntity
  8
RACCORDO
100
AcDbLine
 62
7
  6
CONTINUOUS
 10
-40.0
 20
-39.0001523048
 11
-40.0
 21
39.0001523048
  0
LINE
  5
248
100
AcDbEntity
  8
RACCORDO
100
AcDbLine
 62
7
  6
CONTINUOUS
 10
-39.0001523048
 20
-40.0
 11
39.0001523048
 21
-40.0
  0
LINE
  5
249
100
AcDbEntity
  8
0
100
AcDbLine
 62
7
  6
CONTINUOUS
 10
26.389081
 20
-33.250056
 11
25.889063
 21
-33.250063
  0
LINE
  5
24A
100
AcDbEntity
  8
0
100
AcDbLine
 62
7
  6
CONTINUOUS
 10
24.582956
 20
-33.250056
 11
24.08295
 21
-33.250063
  0
LINE
  5
24B
100
AcDbEntity
  8
0
100
AcDbLine
 62
7
  6
CONTINUOUS
 10
30.328613
 20
-33.25005
 11
29.765419
 21
-33.250056
  0
LINE
  5
24C
100
AcDbEntity
  8
0
100
AcDbLine
 62
7
  6
CONTINUOUS
 10
22.610187
 20
-33.250063
 11
22.110169
 21
-33.250069
  0
LINE
  5
24D
100
AcDbEntity
  8
0
100
AcDbLine
 62
7
  6
CONTINUOUS
 10
20.974125
 20
-33.250063
 11
20.474087
 21
-33.250069
  0
LINE
  5
24E
100
AcDbEntity
  8
0
100
AcDbLine
 62
7
  6
CONTINUOUS
 10
25.555719
 20
-33.250063
 11
25.0557
 21
-33.250063
  0
LINE
  5
24F
100
AcDbEntity
  8
0
100
AcDbLine
 62
7
  6
CONTINUOUS
 10
23.610212
 20
-33.250063
 11
23.110194
 21
-33.250063
  0
LINE
  5
250
100
AcDbEntity
  8
0
100
AcDbLine
 62
7
  6
CONTINUOUS
 10
28.827875
 20
-33.250056
 11
28.32785
 21
-33.250056
  0
LINE
  5
251
100
AcDbEntity
  8
0
100
AcDbLine
 62
7
  6
CONTINUOUS
 10
27.994506
 20
-33.250063
 11
27.494481
 21
-33.250056
  0
LINE
  5
252
100
AcDbEntity
  8
0
100
AcDbLine
 62
7
  6
CONTINUOUS
 10
27.336631
 20
-32.758394
 11
26.546938
 21
-32.758394
  0
LINE
  5
253
100
AcDbEntity
  8
0
100
AcDbLine
 62
7
  6
CONTINUOUS
 10
26.699456
 20
-32.283375
 11
27.184106
 21
-32.283375
  0
LINE
  5
254
100
AcDbEntity
  8
0
100
AcDbLine
 62
7
  6
CONTINUOUS
 10
29.264338
 20
-32.283375
 11
28.827931
 21
-32.283369
  0
LINE
  5
255
100
AcDbEntity
  8
0
100
AcDbLine
 62
7
  6
CONTINUOUS
 10
28.820981
 20
-31.82085
 11
29.429323
 21
-31.82085
  0
LINE
  5
256
100
AcDbEntity
  8
0
100
AcDbLine
 62
7
  6
CONTINUOUS
 10
29.429323
 20
-31.212462
 11
28.820975
 21
-31.212462
  0
LINE
  5
257
100
AcDbEntity
  8
0
100
AcDbLine
 62
7
  6
CONTINUOUS
 10
19.671387
 20
-30.74995
 11
20.171412
 21
-30.74995
  0
LINE
  5
258
100
AcDbEntity
  8
0
100
AcDbLine
 62
7
  6
CONTINUOUS
 10
21.276806
 20
-30.74995
 11
21.776831
 21
-30.74995
  0
LINE
  5
259
100
AcDbEntity
  8
0
100
AcDbLine
 62
7
  6
CONTINUOUS
 10
22.110175
 20
-30.74995
 11
22.610194
 21
-30.74995
  0
LINE
  5
25A
100
AcDbEntity
  8
0
100
AcDbLine
 62
7
  6
CONTINUOUS
 10
23.110194
 20
-30.74995
 11
23.866087
 21
-30.74995
  0
LINE
  5
25B
100
AcDbEntity
  8
0
100
AcDbLine
 62
7
  6
CONTINUOUS
 10
24.799825
 20
-30.74995
 11
25.555719
 21
-30.74995
  0
LINE
  5
25C
100
AcDbEntity
  8
0
100
AcDbLine
 62
7
  6
CONTINUOUS
 10
26.691756
 20
-30.749944
 11
27.1918
 21
-30.749944
  0
LINE
  5
25D
100
AcDbEntity
  8
0
100
AcDbLine
 62
7
  6
CONTINUOUS
 10
28.32785
 20
-30.749944
 11
29.498725
 21
-30.749944
  0
LINE
  5
25E
100
AcDbEntity
  8
0
100
AcDbLine
 62
7
  6
CONTINUOUS
 10
-25.5
 20
2.4494897428
 11
-25.5
 21
-2.4494897428
  0
LINE
  5
25F
100
AcDbEntity
  8
0
100
AcDbLine
 62
7
  6
CONTINUOUS
 10
-24.5
 20
-2.4494897428
 11
-24.5
 21
2.4494897428
  0
LINE
  5
260
100
AcDbEntity
  8
RACCORDO
100
AcDbLine
 62
253
  6
CONTINUOUS
 10
38.9332980025
 20
39.933151024
 11
39.0001523048
 21
40.0
  0
LINE
  5
261
100
AcDbEntity
  8
RACCORDO
100
AcDbLine
 62
253
  6
CONTINUOUS
 10
-39.9331510337
 20
-38.9333033386
 11
-40.0
 21
-39.0001523048
  0
LINE
  5
262
100
AcDbEntity
  8
RACCORDO
100
AcDbLine
 62
253
  6
CONTINUOUS
 10
-39.9331510244
 20
38.9332980029
 11
-40.0
 21
39.0001523048
  0
LINE
  5
263
100
AcDbEntity
  8
RACCORDO
100
AcDbLine
 62
253
  6
CONTINUOUS
 10
38.9333033386
 20
-39.9331510337
 11
39.0001523048
 21
-40.0
  0
LINE
  5
264
100
AcDbEntity
  8
RACCORDO
100
AcDbLine
 62
253
  6
CONTINUOUS
 10
39.9331510337
 20
38.9333033386
 11
40.0
 21
39.0001523048
  0
LINE
  5
265
100
AcDbEntity
  8
RACCORDO
100
AcDbLine
 62
253
  6
CONTINUOUS
 10
-38.9332980025
 20
-39.933151024
 11
-39.0001523048
 21
-40.0
  0
LINE
  5
266
100
AcDbEntity
  8
RACCORDO
100
AcDbLine
 62
253
  6
CONTINUOUS
 10
-38.9333033386
 20
39.9331510337
 11
-39.0001523048
 21
40.0
  0
LINE
  5
267
100
AcDbEntity
  8
RACCORDO
100
AcDbLine
 62
253
  6
CONTINUOUS
 10
39.9331510244
 20
-38.9332980029
 11
40.0
 21
-39.0001523048
  0
LINE
  5
268
100
AcDbEntity
  8
0
100
AcDbLine
 62
7
  6
CONTINUOUS
 10
29.765419
 20
-33.250056
 11
29.264338
 21
-32.283375
  0
LINE
  5
269
100
AcDbEntity
  8
0
100
AcDbLine
 62
7
  6
CONTINUOUS
 10
29.7963677907
 20
-32.2232416669
 11
30.328613
 21
-33.25005
  0
LINE
  5
26A
100
AcDbEntity
  8
0
100
AcDbLine
 62
7
  6
CONTINUOUS
 10
20.474087
 20
-33.250069
 11
19.671387
 21
-30.74995
  0
LINE
  5
26B
100
AcDbEntity
  8
0
100
AcDbLine
 62
7
  6
CONTINUOUS
 10
20.171412
 20
-30.74995
 11
20.724112
 21
-32.471413
  0
LINE
  5
26C
100
AcDbEntity
  8
0
100
AcDbLine
 62
7
  6
CONTINUOUS
 10
24.08295
 20
-33.250063
 11
23.610212
 21
-31.601406
  0
LINE
  5
26D
100
AcDbEntity
  8
0
100
AcDbLine
 62
7
  6
CONTINUOUS
 10
23.866087
 20
-30.74995
 11
24.332956
 21
-32.378113
  0
LINE
  5
26E
100
AcDbEntity
  8
0
100
AcDbLine
 62
7
  6
CONTINUOUS
 10
27.184106
 20
-32.283375
 11
26.941775
 21
-31.5286
  0
LINE
  5
26F
100
AcDbEntity
  8
0
100
AcDbLine
 62
7
  6
CONTINUOUS
 10
27.494481
 20
-33.250056
 11
27.336631
 21
-32.758394
  0
LINE
  5
270
100
AcDbEntity
  8
0
100
AcDbLine
 62
7
  6
CONTINUOUS
 10
27.1918
 20
-30.749944
 11
27.994506
 21
-33.250063
  0
LINE
  5
271
100
AcDbEntity
  8
0
100
AcDbLine
 62
7
  6
CONTINUOUS
 10
22.110169
 20
-33.250069
 11
22.110175
 21
-30.74995
  0
LINE
  5
272
100
AcDbEntity
  8
0
100
AcDbLine
 62
7
  6
CONTINUOUS
 10
22.610194
 20
-30.74995
 11
22.610187
 21
-33.250063
  0
LINE
  5
273
100
AcDbEntity
  8
0
100
AcDbLine
 62
7
  6
CONTINUOUS
 10
23.110194
 20
-33.250063
 11
23.110194
 21
-30.74995
  0
LINE
  5
274
100
AcDbEntity
  8
0
100
AcDbLine
 62
7
  6
CONTINUOUS
 10
23.610212
 20
-31.601406
 11
23.610212
 21
-33.250063
  0
LINE
  5
275
100
AcDbEntity
  8
0
100
AcDbLine
 62
7
  6
CONTINUOUS
 10
24.5
 20
2.4494897428
 11
24.5
 21
-2.4494897428
  0
LINE
  5
276
100
AcDbEntity
  8
0
100
AcDbLine
 62
7
  6
CONTINUOUS
 10
25.0557
 20
-33.250063
 11
25.055694
 21
-31.601406
  0
LINE
  5
277
100
AcDbEntity
  8
0
100
AcDbLine
 62
7
  6
CONTINUOUS
 10
25.5
 20
-2.4494897428
 11
25.5
 21
2.4494897428
  0
LINE
  5
278
100
AcDbEntity
  8
0
100
AcDbLine
 62
7
  6
CONTINUOUS
 10
25.555719
 20
-30.74995
 11
25.555719
 21
-33.250063
  0
LINE
  5
279
100
AcDbEntity
  8
0
100
AcDbLine
 62
7
  6
CONTINUOUS
 10
28.32785
 20
-33.250056
 11
28.32785
 21
-30.749944
  0
LINE
  5
27A
100
AcDbEntity
  8
0
100
AcDbLine
 62
7
  6
CONTINUOUS
 10
28.820975
 20
-31.212462
 11
28.820981
 21
-31.82085
  0
LINE
  5
27B
100
AcDbEntity
  8
0
100
AcDbLine
 62
7
  6
CONTINUOUS
 10
28.827931
 20
-32.283369
 11
28.827875
 21
-33.250056
  0
LINE
  5
27C
100
AcDbEntity
  8
0
100
AcDbLine
 62
7
  6
CONTINUOUS
 10
20.724112
 20
-32.471413
 11
21.276806
 21
-30.74995
  0
LINE
  5
27D
100
AcDbEntity
  8
0
100
AcDbLine
 62
7
  6
CONTINUOUS
 10
21.776831
 20
-30.74995
 11
20.974125
 21
-33.250063
  0
LINE
  5
27E
100
AcDbEntity
  8
0
100
AcDbLine
 62
7
  6
CONTINUOUS
 10
24.332956
 20
-32.378113
 11
24.799825
 21
-30.74995
  0
LINE
  5
27F
100
AcDbEntity
  8
0
100
AcDbLine
 62
7
  6
CONTINUOUS
 10
25.055694
 20
-31.601406
 11
24.582956
 21
-33.250056
  0
LINE
  5
280
100
AcDbEntity
  8
0
100
AcDbLine
 62
7
  6
CONTINUOUS
 10
25.889063
 20
-33.250063
 11
26.691756
 21
-30.749944
  0
LINE
  5
281
100
AcDbEntity
  8
0
100
AcDbLine
 62
7
  6
CONTINUOUS
 10
26.941775
 20
-31.5286
 11
26.699456
 21
-32.283375
  0
LINE
  5
282
100
AcDbEntity
  8
0
100
AcDbLine
 62
7
  6
CONTINUOUS
 10
26.546938
 20
-32.758394
 11
26.389081
 21
-33.250056
  0
LINE
  5
283
100
AcDbEntity
  8
RACCORDO
100
AcDbLine
 62
7
  6
CONTINUOUS
 10
40.0
 20
-39.0001523048
 11
40.0
 21
39.0001523048
  0
LINE
  5
284
100
AcDbEntity
  8
RACCORDO
100
AcDbLine
 62
7
  6
CONTINUOUS
 10
-39.0001523048
 20
40.0
 11
39.0001523048
 21
40.0
  0
LINE
  5
285
100
AcDbEntity
  8
RACCORDO
100
AcDbLine
 62
7
  6
CONTINUOUS
 10
-89.3708225646
 20
-39.8969729641
 11
-83.4684076314
 21
-40.0
  0
LINE
  5
286
100
AcDbEntity
  8
RACCORDO
100
AcDbLine
 62
253
  6
CONTINUOUS
 10
-89.8592456024
 20
-39.4503654864
 11
-87.7838012685
 21
-39.4865874394
  0
LINE
  5
287
100
AcDbEntity
  8
RACCORDO
100
AcDbLine
 62
253
  6
CONTINUOUS
 10
-87.2981828766
 20
-38.9332980029
 11
-83.4684076314
 21
-39.0001523048
  0
LINE
  5
288
100
AcDbEntity
  8
0
100
AcDbLine
 62
7
  6
CONTINUOUS
 10
-89.7015122441
 20
-32.758394
 11
-89.7593641616
 21
-32.758394
  0
LINE
  5
289
100
AcDbEntity
  8
0
100
AcDbLine
 62
7
  6
CONTINUOUS
 10
-89.7903247977
 20
-32.283375
 11
-89.7548240195
 21
-32.283375
  0
LINE
  5
28A
100
AcDbEntity
  8
0
100
AcDbLine
 62
7
  6
CONTINUOUS
 10
-89.5576881647
 20
-32.2232416669
 11
-89.356266934
 21
-32.2232416669
  0
LINE
  5
28B
100
AcDbEntity
  8
0
100
AcDbLine
 62
7
  6
CONTINUOUS
 10
-89.6704943259
 20
-31.82085
 11
-89.6223051891
 21
-31.82085
  0
LINE
  5
28C
100
AcDbEntity
  8
0
100
AcDbLine
 62
7
  6
CONTINUOUS
 10
-89.2211944261
 20
-33.25005
 11
-90.1032805693
 21
-33.250069
  0
LINE
  5
28D
100
AcDbEntity
  8
0
100
AcDbLine
 62
7
  6
CONTINUOUS
 10
-89.5951507011
 20
-32.283375
 11
-89.6296300635
 21
-32.283369
  0
LINE
  5
28E
100
AcDbEntity
  8
0
100
AcDbLine
 62
7
  6
CONTINUOUS
 10
-89.6744548535
 20
-31.212462
 11
-89.7226375404
 21
-31.212462
  0
LINE
  5
28F
100
AcDbEntity
  8
0
100
AcDbLine
 62
7
  6
CONTINUOUS
 10
-90.3642777338
 20
-30.74995
 11
-89.5065228894
 21
-30.749944
  0
LINE
  5
290
100
AcDbEntity
  8
ASSI
100
AcDbLine
 62
7
  6
CONTINUOUS
 10
-89.7078619378
 20
-30.7499411971
 11
-89.5065231239
 21
-30.7499411971
  0
LINE
  5
291
100
AcDbEntity
  8
ASSI
100
AcDbLine
 62
7
  6
CONTINUOUS
 10
-80.4684076314
 20
-28.7
 11
-83.4684076314
 21
-28.7
  0
LINE
  5
292
100
AcDbEntity
  8
0
100
AcDbLine
 62
7
  6
CONTINUOUS
 10
-79.6684076314
 20
-28.2800090692
 11
-80.4684076314
 21
-28.35
  0
LINE
  5
293
100
AcDbEntity
  8
ASSI
100
AcDbLine
 62
7
  6
CONTINUOUS
 10
-80.4684076314
 20
-24.9714560971
 11
-83.4684076314
 21
-24.9714560971
  0
LINE
  5
294
100
AcDbEntity
  8
0
100
AcDbLine
 62
7
  6
CONTINUOUS
 10
-79.6684076314
 20
-22.4199909308
 11
-80.4684076314
 21
-22.35
  0
LINE
  5
295
100
AcDbEntity
  8
RACCORDO
100
AcDbLine
 62
7
  6
CONTINUOUS
 10
-72.8815835426
 20
-20.5030391186
 11
-80.4684076314
 21
-21.8408009033
  0
LINE
  5
296
100
AcDbEntity
  8
RACCORDO
100
AcDbLine
 62
7
  6
CONTINUOUS
 10
-80.4684076314
 20
-20.5
 11
-72.9640443637
 21
-20.4345104139
  0
LINE
  5
297
100
AcDbEntity
  8
RACCORDO
100
AcDbLine
 62
253
  6
CONTINUOUS
 10
-72.4684076314
 20
-19.8712857716
 11
-72.9640443637
 21
-19.8712857716
  0
LINE
  5
298
100
AcDbEntity
  8
0
100
AcDbLine
 62
7
  6
CONTINUOUS
 10
-76.4945756095
 20
-19.8462208151
 11
-75.4684076314
 21
-19.9
  0
LINE
  5
299
100
AcDbEntity
  8
0
100
AcDbLine
 62
253
  6
CONTINUOUS
 10
-76.4945756095
 20
-18.4669314929
 11
-75.4684076314
 21
-18.4169891609
  0
LINE
  5
29A
100
AcDbEntity
  8
0
100
AcDbLine
 62
253
  6
CONTINUOUS
 10
-75.4684076737
 20
-18.0622282529
 11
-76.5293423031
 21
-18.1138626349
  0
LINE
  5
29B
100
AcDbEntity
  8
0
100
AcDbLine
 62
7
  6
CONTINUOUS
 10
-74.068407629
 20
-17.4749999999
 11
-71.8029652611
 21
-17.4156773038
  0
LINE
  5
29C
100
AcDbEntity
  8
0
100
AcDbLine
 62
7
  6
CONTINUOUS
 10
-75.4684075558
 20
-17.505548107
 11
-74.068407629
 21
-17.4749999999
  0
LINE
  5
29D
100
AcDbEntity
  8
0
100
AcDbLine
 62
253
  6
CONTINUOUS
 10
-76.9684076314
 20
-18.1138626349
 11
-76.5293423031
 21
-18.1138626349
  0
LINE
  5
29E
100
AcDbEntity
  8
RACCORDO
100
AcDbLine
 62
253
  6
CONTINUOUS
 10
-83.4684076314
 20
-17.9857864376
 11
-80.4684076314
 21
-17.9857864376
  0
LINE
  5
29F
100
AcDbEntity
  8
0
100
AcDbLine
 62
253
  6
CONTINUOUS
 10
-78.6684076314
 20
-17.8831922438
 11
-77.7555647432
 21
-17.8831922438
  0
LINE
  5
2A0
100
AcDbEntity
  8
DRAFT
100
AcDbLine
 62
7
  6
CONTINUOUS
 10
-80.4684076314
 20
-18.9
 11
-76.9684076314
 21
-18.9305440373
  0
LINE
  5
2A1
100
AcDbEntity
  8
DRAFT
100
AcDbLine
 62
7
  6
CONTINUOUS
 10
-75.4684076314
 20
-18.943634339
 11
-72.9640443637
 21
-18.9654895861
  0
LINE
  5
2A2
100
AcDbEntity
  8
0
100
AcDbLine
 62
253
  6
CONTINUOUS
 10
-75.4684076314
 20
-19.7537540906
 11
-76.4945756095
 21
-19.6999749057
  0
LINE
  5
2A3
100
AcDbEntity
  8
0
100
AcDbLine
 62
7
  6
CONTINUOUS
 10
-77.7902769748
 20
-17.2204584009
 11
-76.9684081085
 21
-17.3213712087
  0
LINE
  5
2A4
100
AcDbEntity
  8
RACCORDO
100
AcDbLine
 62
7
  6
CONTINUOUS
 10
-91.8843510111
 20
-7.8778387218
 11
-91.8841688732
 21
-7.8949087949
  0
LINE
  5
2A5
100
AcDbEntity
  8
RACCORDO
100
AcDbLine
 62
7
  6
CONTINUOUS
 10
-91.8843510111
 20
7.8748475618
 11
-91.8843510111
 21
-7.8778387218
  0
LINE
  5
2A6
100
AcDbEntity
  8
RACCORDO
100
AcDbLine
 62
253
  6
CONTINUOUS
 10
-91.8841688732
 20
7.8949087949
 11
-91.8843510111
 21
7.8748475618
  0
LINE
  5
2A7
100
AcDbEntity
  8
RACCORDO
100
AcDbLine
 62
253
  6
CONTINUOUS
 10
-91.8843510111
 20
-7.8778387218
 11
-91.8841688732
 21
-7.8949087949
  0
LINE
  5
2A8
100
AcDbEntity
  8
RACCORDO
100
AcDbLine
 62
7
  6
CONTINUOUS
 10
-91.8843510111
 20
7.8778387218
 11
-91.8841688732
 21
7.8949087949
  0
LINE
  5
2A9
100
AcDbEntity
  8
0
100
AcDbLine
 62
253
  6
CONTINUOUS
 10
-77.3639278319
 20
18.6768353644
 11
-77.0337509318
 21
18.9299737949
  0
LINE
  5
2AA
100
AcDbEntity
  8
0
100
AcDbLine
 62
7
  6
CONTINUOUS
 10
-67.6579377824
 20
-15.7601106157
 11
-69.0867620519
 21
-15.8100062586
  0
LINE
  5
2AB
100
AcDbEntity
  8
0
100
AcDbLine
 62
253
  6
CONTINUOUS
 10
-71.8116892623
 20
-16.4160405963
 11
-74.0684075246
 21
-16.4752225241
  0
LINE
  5
2AC
100
AcDbEntity
  8
0
100
AcDbLine
 62
253
  6
CONTINUOUS
 10
-74.0684087856
 20
-16.4752225245
 11
-75.4684077841
 21
-16.5057861063
  0
LINE
  5
2AD
100
AcDbEntity
  8
RACCORDO
100
AcDbLine
 62
253
  6
CONTINUOUS
 10
-83.4684076314
 20
-16.5715728753
 11
-80.4684076314
 21
-16.5715728753
  0
LINE
  5
2AE
100
AcDbEntity
  8
0
100
AcDbLine
 62
253
  6
CONTINUOUS
 10
-78.6684076314
 20
-16.2279122492
 11
-77.7902769748
 21
-16.2279122492
  0
LINE
  5
2AF
100
AcDbEntity
  8
ASSI
100
AcDbLine
 62
7
  6
CONTINUOUS
 10
-80.4684076314
 20
-15.75
 11
-80.3184076314
 21
-15.75
  0
LINE
  5
2B0
100
AcDbEntity
  8
0
100
AcDbLine
 62
253
  6
CONTINUOUS
 10
-70.3508755317
 20
-14.9165339913
 11
-69.3684076314
 21
-14.9165339913
  0
LINE
  5
2B1
100
AcDbEntity
  8
0
100
AcDbLine
 62
253
  6
CONTINUOUS
 10
-76.5293423031
 20
-16.3827355592
 11
-77.7902769748
 21
-16.2279122492
  0
LINE
  5
2B2
100
AcDbEntity
  8
0
100
AcDbLine
 62
253
  6
CONTINUOUS
 10
-77.033750972
 20
-18.9299737946
 11
-77.3639278545
 21
-18.6768353847
  0
LINE
  5
2B3
100
AcDbEntity
  8
RACCORDO
100
AcDbLine
 62
7
  6
CONTINUOUS
 10
-83.4684076314
 20
-15.2999381673
 11
-77.9684076286
 21
-13.9795049917
  0
LINE
  5
2B4
100
AcDbEntity
  8
RACCORDO
100
AcDbLine
 62
253
  6
CONTINUOUS
 10
-83.4684076314
 20
-14.2715229736
 11
-82.2947713489
 21
-13.9897578313
  0
LINE
  5
2B5
100
AcDbEntity
  8
RACCORDO
100
AcDbLine
 62
7
  6
CONTINUOUS
 10
-83.4684076314
 20
-14.0
 11
-77.9684076314
 21
-13.9520022272
  0
LINE
  5
2B6
100
AcDbEntity
  8
RACCORDO
100
AcDbLine
 62
253
  6
CONTINUOUS
 10
-83.4684076314
 20
-13.5000190385
 11
-77.9684076314
 21
-13.4520212656
  0
LINE
  5
2B7
100
AcDbEntity
  8
0
100
AcDbLine
 62
253
  6
CONTINUOUS
 10
-69.3684075537
 20
-14.0
 11
-67.3684076314
 21
-14.0
  0
LINE
  5
2B8
100
AcDbEntity
  8
ASSI
100
AcDbLine
 62
7
  6
CONTINUOUS
 10
-78.9684076314
 20
-11.5
 11
-83.4684076314
 21
-11.5
  0
LINE
  5
2B9
100
AcDbEntity
  8
DRAFT
100
AcDbLine
 62
7
  6
CONTINUOUS
 10
-83.4684076314
 20
-11.50167211
 11
-82.041323114
 21
-11.5141260879
  0
LINE
  5
2BA
100
AcDbEntity
  8
DRAFT
100
AcDbLine
 62
7
  6
CONTINUOUS
 10
-80.7686268498
 20
-11.52523274
 11
-77.9684076314
 21
-11.5496698829
  0
LINE
  5
2BB
100
AcDbEntity
  8
0
100
AcDbLine
 62
7
  6
CONTINUOUS
 10
-65.144366742
 20
-8.0000021971
 11
-65.7684076247
 21
-8.0545986999
  0
LINE
  5
2BC
100
AcDbEntity
  8
0
100
AcDbLine
 62
7
  6
CONTINUOUS
 10
-69.6941534371
 20
-8.1588829294
 11
-65.1443441331
 21
-8.0000000874
  0
LINE
  5
2BD
100
AcDbEntity
  8
ASSI
100
AcDbLine
 62
7
  6
CONTINUOUS
 10
-78.9684076314
 20
-10.5
 11
-83.4684076314
 21
-10.5
  0
LINE
  5
2BE
100
AcDbEntity
  8
0
100
AcDbLine
 62
253
  6
CONTINUOUS
 10
-78.9684076314
 20
-10.0
 11
-80.5873540516
 21
-10.0
  0
LINE
  5
2BF
100
AcDbEntity
  8
0
100
AcDbLine
 62
253
  6
CONTINUOUS
 10
-83.3494612112
 20
-10.0
 11
-83.4684076314
 21
-10.0
  0
LINE
  5
2C0
100
AcDbEntity
  8
RACCORDO
100
AcDbLine
 62
7
  6
CONTINUOUS
 10
-83.4684076314
 20
-40.0
 11
-83.4684076314
 21
40.0
  0
LINE
  5
2C1
100
AcDbEntity
  8
RACCORDO
100
AcDbLine
 62
7
  6
CONTINUOUS
 10
-82.4684076314
 20
-5.116336506
 11
-82.4684076314
 21
-1.5
  0
LINE
  5
2C2
100
AcDbEntity
  8
RACCORDO
100
AcDbLine
 62
7
  6
CONTINUOUS
 10
-82.4684076314
 20
1.5
 11
-82.4684076314
 21
5.116336506
  0
LINE
  5
2C3
100
AcDbEntity
  8
ASSI
100
AcDbLine
 62
253
  6
CONTINUOUS
 10
-82.0411998375
 20
11.5
 11
-82.0411998375
 21
10.5
  0
LINE
  5
2C4
100
AcDbEntity
  8
ASSI
100
AcDbLine
 62
253
  6
CONTINUOUS
 10
-82.0411998375
 20
-11.5
 11
-82.0411998375
 21
-10.5
  0
LINE
  5
2C5
100
AcDbEntity
  8
DRAFT
100
AcDbLine
 62
7
  6
CONTINUOUS
 10
-81.8811015324
 20
11.5155243205
 11
-81.8811015324
 21
11.5
  0
LINE
  5
2C6
100
AcDbEntity
  8
DRAFT
100
AcDbLine
 62
7
  6
CONTINUOUS
 10
-81.8811015324
 20
10.5
 11
-81.8811015324
 21
9.088318948
  0
LINE
  5
2C7
100
AcDbEntity
  8
DRAFT
100
AcDbLine
 62
7
  6
CONTINUOUS
 10
-81.8811015324
 20
-11.5155243205
 11
-81.8811015324
 21
-11.5
  0
LINE
  5
2C8
100
AcDbEntity
  8
DRAFT
100
AcDbLine
 62
7
  6
CONTINUOUS
 10
-81.8811015324
 20
-10.5
 11
-81.8811015324
 21
-9.088318948
  0
LINE
  5
2C9
100
AcDbEntity
  8
0
100
AcDbLine
 62
253
  6
CONTINUOUS
 10
-65.1442883561
 20
-7.7506693966
 11
-70.3508755316
 21
-7.9318963079
  0
LINE
  5
2CA
100
AcDbEntity
  8
0
100
AcDbLine
 62
7
  6
CONTINUOUS
 10
-64.1684076314
 20
-7.5
 11
-60.9684076314
 21
-7.5
  0
LINE
  5
2CB
100
AcDbEntity
  8
RACCORDO
100
AcDbLine
 62
7
  6
CONTINUOUS
 10
-64.2123579701
 20
-7.5
 11
-76.4666708184
 21
-7.5
  0
LINE
  5
2CC
100
AcDbEntity
  8
0
100
AcDbLine
 62
7
  6
CONTINUOUS
 10
-76.4666708184
 20
-7.5
 11
-76.8494663379
 21
-7.5
  0
LINE
  5
2CD
100
AcDbEntity
  8
0
100
AcDbLine
 62
7
  6
CONTINUOUS
 10
-78.6684076314
 20
-7.5
 11
-78.9684076314
 21
-7.5
  0
LINE
  5
2CE
100
AcDbEntity
  8
RACCORDO
100
AcDbLine
 62
7
  6
CONTINUOUS
 10
-76.4666708184
 20
-6.5
 11
-64.1424123998
 21
-6.5
  0
LINE
  5
2CF
100
AcDbEntity
  8
0
100
AcDbLine
 62
7
  6
CONTINUOUS
 10
-64.1684076314
 20
-6.5
 11
-60.9684076314
 21
-6.5
  0
LINE
  5
2D0
100
AcDbEntity
  8
0
100
AcDbLine
 62
253
  6
CONTINUOUS
 10
-76.5323503958
 20
-6.45
 11
-77.8954707709
 21
-6.45
  0
LINE
  5
2D1
100
AcDbEntity
  8
0
100
AcDbLine
 62
7
  6
CONTINUOUS
 10
-77.8954707709
 20
-6.45
 11
-78.4206008588
 21
-6.45
  0
LINE
  5
2D2
100
AcDbEntity
  8
0
100
AcDbLine
 62
7
  6
CONTINUOUS
 10
-78.4206008588
 20
-6.45
 11
-78.42621916
 21
-6.4498879455
  0
LINE
  5
2D3
100
AcDbEntity
  8
DRAFT
100
AcDbLine
 62
7
  6
CONTINUOUS
 10
-80.9684076314
 20
10.5
 11
-80.9684076314
 21
9.4681583987
  0
LINE
  5
2D4
100
AcDbEntity
  8
DRAFT
100
AcDbLine
 62
7
  6
CONTINUOUS
 10
-80.9684076314
 20
-9.4681583987
 11
-80.9684076314
 21
-10.5
  0
LINE
  5
2D5
100
AcDbEntity
  8
ASSI
100
AcDbLine
 62
253
  6
CONTINUOUS
 10
-80.7684140912
 20
11.5
 11
-80.7684140912
 21
10.5
  0
LINE
  5
2D6
100
AcDbEntity
  8
ASSI
100
AcDbLine
 62
253
  6
CONTINUOUS
 10
-80.7684056724
 20
-11.5
 11
-80.7684056724
 21
-10.5
  0
LINE
  5
2D7
100
AcDbEntity
  8
ASSI
100
AcDbLine
 62
7
  6
CONTINUOUS
 10
-80.4684076314
 20
-28.6958722896
 11
-80.4684076314
 21
-24.9714560971
  0
LINE
  5
2D8
100
AcDbEntity
  8
RACCORDO
100
AcDbLine
 62
7
  6
CONTINUOUS
 10
-80.4684076314
 20
-24.9714560971
 11
-80.4684076314
 21
-14.5797018901
  0
LINE
  5
2D9
100
AcDbEntity
  8
RACCORDO
100
AcDbLine
 62
7
  6
CONTINUOUS
 10
-80.4684076314
 20
14.5797018901
 11
-80.4684076314
 21
24.9714560971
  0
LINE
  5
2DA
100
AcDbEntity
  8
ASSI
100
AcDbLine
 62
7
  6
CONTINUOUS
 10
-80.4684076314
 20
24.9714560971
 11
-80.4684076314
 21
28.6958722896
  0
LINE
  5
2DB
100
AcDbEntity
  8
0
100
AcDbLine
 62
7
  6
CONTINUOUS
 10
-80.3378699549
 20
-1.75
 11
-80.3378699549
 21
1.75
  0
LINE
  5
2DC
100
AcDbEntity
  8
ASSI
100
AcDbLine
 62
7
  6
CONTINUOUS
 10
-80.3184076314
 20
15.75
 11
-80.3184076314
 21
14.5436900762
  0
LINE
  5
2DD
100
AcDbEntity
  8
ASSI
100
AcDbLine
 62
7
  6
CONTINUOUS
 10
-80.3184076314
 20
-14.5436900762
 11
-80.3184076314
 21
-15.75
  0
LINE
  5
2DE
100
AcDbEntity
  8
0
100
AcDbLine
 62
253
  6
CONTINUOUS
 10
-80.2684076314
 20
-4.8306623863
 11
-80.2684076314
 21
-3.1693376137
  0
LINE
  5
2DF
100
AcDbEntity
  8
0
100
AcDbLine
 62
253
  6
CONTINUOUS
 10
-80.2684076314
 20
3.1693376137
 11
-80.2684076314
 21
4.8306623863
  0
LINE
  5
2E0
100
AcDbEntity
  8
0
100
AcDbLine
 62
7
  6
CONTINUOUS
 10
-79.6684076314
 20
-28.2799738109
 11
-79.6684076314
 21
-28.237031892
  0
LINE
  5
2E1
100
AcDbEntity
  8
0
100
AcDbLine
 62
7
  6
CONTINUOUS
 10
-79.6684076314
 20
-22.462968108
 11
-79.6684076314
 21
-22.4200261891
  0
LINE
  5
2E2
100
AcDbEntity
  8
0
100
AcDbLine
 62
7
  6
CONTINUOUS
 10
-79.6684076314
 20
22.4200261891
 11
-79.6684076314
 21
22.462968108
  0
LINE
  5
2E3
100
AcDbEntity
  8
0
100
AcDbLine
 62
7
  6
CONTINUOUS
 10
-79.6684076314
 20
28.237031892
 11
-79.6684076314
 21
28.2799738109
  0
LINE
  5
2E4
100
AcDbEntity
  8
ASSI
100
AcDbLine
 62
7
  6
CONTINUOUS
 10
-78.9684076314
 20
11.5
 11
-78.9684076314
 21
10.5
  0
LINE
  5
2E5
100
AcDbEntity
  8
ASSI
100
AcDbLine
 62
7
  6
CONTINUOUS
 10
-78.9684076314
 20
-11.5
 11
-78.9684076314
 21
-10.5
  0
LINE
  5
2E6
100
AcDbEntity
  8
0
100
AcDbLine
 62
7
  6
CONTINUOUS
 10
-78.9684076314
 20
-10.5
 11
-78.9684076314
 21
-10.0
  0
LINE
  5
2E7
100
AcDbEntity
  8
ASSI
100
AcDbLine
 62
7
  6
CONTINUOUS
 10
-78.9684076314
 20
-10.0
 11
-78.9684076314
 21
-7.5
  0
LINE
  5
2E8
100
AcDbEntity
  8
ASSI
100
AcDbLine
 62
7
  6
CONTINUOUS
 10
-78.9684076314
 20
7.5
 11
-78.9684076314
 21
10.0
  0
LINE
  5
2E9
100
AcDbEntity
  8
0
100
AcDbLine
 62
7
  6
CONTINUOUS
 10
-78.9684076314
 20
10.0
 11
-78.9684076314
 21
10.5
  0
LINE
  5
2EA
100
AcDbEntity
  8
0
100
AcDbLine
 62
253
  6
CONTINUOUS
 10
-78.9227940861
 20
-7.1938826212
 11
-78.9227940861
 21
-1.75
  0
LINE
  5
2EB
100
AcDbEntity
  8
0
100
AcDbLine
 62
253
  6
CONTINUOUS
 10
-78.9227940861
 20
1.75
 11
-78.9227940861
 21
7.1938826212
  0
LINE
  5
2EC
100
AcDbEntity
  8
0
100
AcDbLine
 62
7
  6
CONTINUOUS
 10
-78.6684076314
 20
-17.8831922438
 11
-78.6684076314
 21
-14.1475601237
  0
LINE
  5
2ED
100
AcDbEntity
  8
0
100
AcDbLine
 62
7
  6
CONTINUOUS
 10
-78.6684076314
 20
-11.5435610754
 11
-78.6684076314
 21
-6.7662598336
  0
LINE
  5
2EE
100
AcDbEntity
  8
0
100
AcDbLine
 62
7
  6
CONTINUOUS
 10
-78.6684076314
 20
6.7663248441
 11
-78.6684076314
 21
11.5435610754
  0
LINE
  5
2EF
100
AcDbEntity
  8
0
100
AcDbLine
 62
7
  6
CONTINUOUS
 10
-78.6684076314
 20
14.1475601237
 11
-78.6684076314
 21
17.8831922438
  0
LINE
  5
2F0
100
AcDbEntity
  8
0
100
AcDbLine
 62
253
  6
CONTINUOUS
 10
-78.6509764829
 20
28.1466506282
 11
-78.6509764829
 21
22.5533493718
  0
LINE
  5
2F1
100
AcDbEntity
  8
0
100
AcDbLine
 62
253
  6
CONTINUOUS
 10
-78.6509764829
 20
-22.5533493718
 11
-78.6509764829
 21
-28.1466506282
  0
LINE
  5
2F2
100
AcDbEntity
  8
0
100
AcDbLine
 62
7
  6
CONTINUOUS
 10
-78.4684076314
 20
27.944007918
 11
-78.4684076314
 21
22.755992082
  0
LINE
  5
2F3
100
AcDbEntity
  8
0
100
AcDbLine
 62
7
  6
CONTINUOUS
 10
-78.4684076314
 20
-27.944007918
 11
-78.4684076314
 21
-22.755992082
  0
LINE
  5
2F4
100
AcDbEntity
  8
RACCORDO
100
AcDbLine
 62
7
  6
CONTINUOUS
 10
-83.4684076314
 20
-5.7679491924
 11
-82.8389981089
 21
-5.5992994192
  0
LINE
  5
2F5
100
AcDbEntity
  8
0
100
AcDbLine
 62
253
  6
CONTINUOUS
 10
-77.778553648
 20
-4.8306623863
 11
-80.2684076314
 21
-4.8306623863
  0
LINE
  5
2F6
100
AcDbEntity
  8
0
100
AcDbLine
 62
253
  6
CONTINUOUS
 10
-77.7900482022
 20
-4.798713833
 11
-80.2684076314
 21
-4.798713833
  0
LINE
  5
2F7
100
AcDbEntity
  8
0
100
AcDbLine
 62
7
  6
CONTINUOUS
 10
-60.0484076314
 20
-4.15
 11
-60.9749563778
 21
-4.15
  0
LINE
  5
2F8
100
AcDbEntity
  8
0
100
AcDbLine
 62
253
  6
CONTINUOUS
 10
-80.2684076314
 20
-3.201286167
 11
-77.7900482022
 21
-3.201286167
  0
LINE
  5
2F9
100
AcDbEntity
  8
0
100
AcDbLine
 62
253
  6
CONTINUOUS
 10
-80.2684076314
 20
-3.1693376137
 11
-77.778553648
 21
-3.1693376137
  0
LINE
  5
2FA
100
AcDbEntity
  8
DRAFT
100
AcDbLine
 62
7
  6
CONTINUOUS
 10
-83.4684076314
 20
-4.0454397731
 11
-82.4684076314
 21
-4.0541666409
  0
LINE
  5
2FB
100
AcDbEntity
  8
RACCORDO
100
AcDbLine
 62
7
  6
CONTINUOUS
 10
-77.9684076314
 20
13.9795049924
 11
-77.9684076314
 21
11.815723851
  0
LINE
  5
2FC
100
AcDbEntity
  8
DRAFT
100
AcDbLine
 62
7
  6
CONTINUOUS
 10
-77.9684076314
 20
11.815723851
 11
-77.9684076314
 21
11.5496707107
  0
LINE
  5
2FD
100
AcDbEntity
  8
DRAFT
100
AcDbLine
 62
7
  6
CONTINUOUS
 10
-77.9684076314
 20
-11.5496707107
 11
-77.9684076314
 21
-11.815723851
  0
LINE
  5
2FE
100
AcDbEntity
  8
RACCORDO
100
AcDbLine
 62
7
  6
CONTINUOUS
 10
-77.9684076314
 20
-13.9795049924
 11
-77.9684076314
 21
-11.815723851
  0
LINE
  5
2FF
100
AcDbEntity
  8
0
100
AcDbLine
 62
253
  6
CONTINUOUS
 10
-77.926599388
 20
6.45
 11
-77.926599388
 21
4.8306623863
  0
LINE
  5
300
100
AcDbEntity
  8
0
100
AcDbLine
 62
253
  6
CONTINUOUS
 10
-77.926599388
 20
3.1693376137
 11
-77.926599388
 21
2.0501558692
  0
LINE
  5
301
100
AcDbEntity
  8
0
100
AcDbLine
 62
253
  6
CONTINUOUS
 10
-77.926599388
 20
-2.0501558692
 11
-77.926599388
 21
-3.1693376137
  0
LINE
  5
302
100
AcDbEntity
  8
0
100
AcDbLine
 62
253
  6
CONTINUOUS
 10
-77.926599388
 20
-4.8306623863
 11
-77.926599388
 21
-6.45
  0
LINE
  5
303
100
AcDbEntity
  8
0
100
AcDbLine
 62
253
  6
CONTINUOUS
 10
-77.7902769748
 20
16.2279122492
 11
-77.7902769748
 21
6.9074711475
  0
LINE
  5
304
100
AcDbEntity
  8
0
100
AcDbLine
 62
253
  6
CONTINUOUS
 10
-77.7902769748
 20
-6.9074711475
 11
-77.7902769748
 21
-16.2279122492
  0
LINE
  5
305
100
AcDbEntity
  8
0
100
AcDbLine
 62
253
  6
CONTINUOUS
 10
-77.7555647166
 20
17.883221261
 11
-77.7555647166
 21
17.2247205303
  0
LINE
  5
306
100
AcDbEntity
  8
0
100
AcDbLine
 62
253
  6
CONTINUOUS
 10
-77.7555647432
 20
-17.224720527
 11
-77.7555647432
 21
-17.8832212479
  0
LINE
  5
307
100
AcDbEntity
  8
ASSI
100
AcDbLine
 62
7
  6
CONTINUOUS
 10
-77.5285450939
 20
6.45
 11
-77.5285450939
 21
2.2458628631
  0
LINE
  5
308
100
AcDbEntity
  8
ASSI
100
AcDbLine
 62
7
  6
CONTINUOUS
 10
-77.5285450939
 20
-6.45
 11
-77.5285450939
 21
-2.2458628631
  0
LINE
  5
309
100
AcDbEntity
  8
0
100
AcDbLine
 62
7
  6
CONTINUOUS
 10
-76.9684076314
 20
-19.3469060477
 11
-76.9684076314
 21
-17.1562451654
  0
LINE
  5
30A
100
AcDbEntity
  8
0
100
AcDbLine
 62
7
  6
CONTINUOUS
 10
-76.9684076314
 20
17.1562402412
 11
-76.9684076314
 21
19.3469060478
  0
LINE
  5
30B
100
AcDbEntity
  8
ASSI
100
AcDbLine
 62
7
  6
CONTINUOUS
 10
-76.5323503958
 20
6.45
 11
-76.5323503958
 21
2.2458628631
  0
LINE
  5
30C
100
AcDbEntity
  8
ASSI
100
AcDbLine
 62
7
  6
CONTINUOUS
 10
-76.5323503958
 20
-6.45
 11
-76.5323503958
 21
-2.2458628631
  0
LINE
  5
30D
100
AcDbEntity
  8
0
100
AcDbLine
 62
253
  6
CONTINUOUS
 10
-76.5293450905
 20
18.1138632353
 11
-76.5293450905
 21
16.382735217
  0
LINE
  5
30E
100
AcDbEntity
  8
0
100
AcDbLine
 62
253
  6
CONTINUOUS
 10
-76.5293423031
 20
-16.3827355592
 11
-76.5293423031
 21
-18.1138626349
  0
LINE
  5
30F
100
AcDbEntity
  8
0
100
AcDbLine
 62
253
  6
CONTINUOUS
 10
-76.4945756095
 20
19.6999749057
 11
-76.4945756095
 21
18.4669314929
  0
LINE
  5
310
100
AcDbEntity
  8
0
100
AcDbLine
 62
253
  6
CONTINUOUS
 10
-76.4945756095
 20
-18.4669314929
 11
-76.4945756095
 21
-19.6999749057
  0
LINE
  5
311
100
AcDbEntity
  8
0
100
AcDbLine
 62
7
  6
CONTINUOUS
 10
-76.4666708184
 20
7.5
 11
-76.4666708184
 21
6.5
  0
LINE
  5
312
100
AcDbEntity
  8
0
100
AcDbLine
 62
7
  6
CONTINUOUS
 10
-76.4666708184
 20
-7.5
 11
-76.4666708184
 21
-6.5
  0
LINE
  5
313
100
AcDbEntity
  8
0
100
AcDbLine
 62
7
  6
CONTINUOUS
 10
-75.4684077841
 20
-6.5
 11
-75.4684077841
 21
-1.75
  0
LINE
  5
314
100
AcDbEntity
  8
0
100
AcDbLine
 62
7
  6
CONTINUOUS
 10
-75.4684077841
 20
1.75
 11
-75.4684077841
 21
6.5
  0
LINE
  5
315
100
AcDbEntity
  8
0
100
AcDbLine
 62
7
  6
CONTINUOUS
 10
-75.4684076314
 20
-20.9591659998
 11
-75.4684076314
 21
-21.0
  0
LINE
  5
316
100
AcDbEntity
  8
0
100
AcDbLine
 62
7
  6
CONTINUOUS
 10
-75.4684076314
 20
-19.9
 11
-75.4684077841
 21
-7.5
  0
LINE
  5
317
100
AcDbEntity
  8
0
100
AcDbLine
 62
7
  6
CONTINUOUS
 10
-75.4684077841
 20
7.5
 11
-75.4684076314
 21
19.9000000019
  0
LINE
  5
318
100
AcDbEntity
  8
0
100
AcDbLine
 62
7
  6
CONTINUOUS
 10
-59.2484076322
 20
-0.9080095867
 11
-59.8590502662
 21
-0.9492535352
  0
LINE
  5
319
100
AcDbEntity
  8
ASSI
100
AcDbLine
 62
7
  6
CONTINUOUS
 10
-75.8340999103
 20
-2.25
 11
-76.5323503958
 21
-2.25
  0
LINE
  5
31A
100
AcDbEntity
  8
ASSI
100
AcDbLine
 62
7
  6
CONTINUOUS
 10
-77.5285450939
 20
-2.2458628631
 11
-76.5323503958
 21
-2.2458628631
  0
LINE
  5
31B
100
AcDbEntity
  8
0
100
AcDbLine
 62
7
  6
CONTINUOUS
 10
-80.3378699549
 20
-1.75
 11
-77.7001060724
 21
-1.75
  0
LINE
  5
31C
100
AcDbEntity
  8
0
100
AcDbLine
 62
7
  6
CONTINUOUS
 10
-76.5073977615
 20
-1.75
 11
-68.2059309549
 21
-1.75
  0
LINE
  5
31D
100
AcDbEntity
  8
0
100
AcDbLine
 62
7
  6
CONTINUOUS
 10
-83.4684076314
 20
-1.5
 11
-80.3378699549
 21
-1.5
  0
LINE
  5
31E
100
AcDbEntity
  8
0
100
AcDbLine
 62
7
  6
CONTINUOUS
 10
-80.3378699549
 20
-1.381939
 11
-77.6674825906
 21
-1.381939
  0
LINE
  5
31F
100
AcDbEntity
  8
0
100
AcDbLine
 62
7
  6
CONTINUOUS
 10
-76.4937254221
 20
-1.381939
 11
-67.8378699549
 21
-1.381939
  0
LINE
  5
320
100
AcDbEntity
  8
ASSI
100
AcDbLine
 62
253
  6
CONTINUOUS
 10
-77.4684076314
 20
0.0
 11
-76.4722129333
 21
0.0
  0
LINE
  5
321
100
AcDbEntity
  8
0
100
AcDbLine
 62
7
  6
CONTINUOUS
 10
-59.2553801073
 20
-1.213977859
 11
-59.2484076322
 21
-1.214448793
  0
LINE
  5
322
100
AcDbEntity
  8
0
100
AcDbLine
 62
7
  6
CONTINUOUS
 10
-74.0684075246
 20
-16.4752225241
 11
-74.0684075246
 21
-7.5
  0
LINE
  5
323
100
AcDbEntity
  8
0
100
AcDbLine
 62
7
  6
CONTINUOUS
 10
-74.0684075246
 20
-6.5
 11
-74.0684075246
 21
-1.75
  0
LINE
  5
324
100
AcDbEntity
  8
0
100
AcDbLine
 62
7
  6
CONTINUOUS
 10
-74.0684075246
 20
1.75
 11
-74.0684075246
 21
6.5
  0
LINE
  5
325
100
AcDbEntity
  8
0
100
AcDbLine
 62
7
  6
CONTINUOUS
 10
-74.0684075246
 20
7.5
 11
-74.0684075246
 21
16.4751683849
  0
LINE
  5
326
100
AcDbEntity
  8
RACCORDO
100
AcDbLine
 62
253
  6
CONTINUOUS
 10
-72.9640443637
 20
-20.4345104139
 11
-72.9640443637
 21
-18.9654895865
  0
LINE
  5
327
100
AcDbEntity
  8
RACCORDO
100
AcDbLine
 62
253
  6
CONTINUOUS
 10
-72.9640443637
 20
18.9654923857
 11
-72.9640443637
 21
20.4345104139
  0
LINE
  5
328
100
AcDbEntity
  8
RACCORDO
100
AcDbLine
 62
7
  6
CONTINUOUS
 10
-72.4684076314
 20
-19.9345294524
 11
-72.4684076314
 21
-19.4655473316
  0
LINE
  5
329
100
AcDbEntity
  8
RACCORDO
100
AcDbLine
 62
7
  6
CONTINUOUS
 10
-72.4684076314
 20
19.4655648082
 11
-72.4684076314
 21
19.9345294524
  0
LINE
  5
32A
100
AcDbEntity
  8
0
100
AcDbLine
 62
7
  6
CONTINUOUS
 10
-60.0484076314
 20
1.15
 11
-60.3491284971
 21
1.15
  0
LINE
  5
32B
100
AcDbEntity
  8
0
100
AcDbLine
 62
7
  6
CONTINUOUS
 10
-80.3378699549
 20
1.381939
 11
-77.6674247748
 21
1.381939
  0
LINE
  5
32C
100
AcDbEntity
  8
0
100
AcDbLine
 62
7
  6
CONTINUOUS
 10
-76.493725418
 20
1.381939
 11
-67.8378699549
 21
1.381939
  0
LINE
  5
32D
100
AcDbEntity
  8
0
100
AcDbLine
 62
7
  6
CONTINUOUS
 10
-83.4684076314
 20
1.5
 11
-80.3378699549
 21
1.5
  0
LINE
  5
32E
100
AcDbEntity
  8
0
100
AcDbLine
 62
7
  6
CONTINUOUS
 10
-80.3378699549
 20
1.75
 11
-77.7001124201
 21
1.75
  0
LINE
  5
32F
100
AcDbEntity
  8
0
100
AcDbLine
 62
7
  6
CONTINUOUS
 10
-76.507397759
 20
1.75
 11
-68.2059309549
 21
1.75
  0
LINE
  5
330
100
AcDbEntity
  8
ASSI
100
AcDbLine
 62
7
  6
CONTINUOUS
 10
-77.5285450939
 20
2.2458628631
 11
-76.5323503958
 21
2.2458628631
  0
LINE
  5
331
100
AcDbEntity
  8
ASSI
100
AcDbLine
 62
7
  6
CONTINUOUS
 10
-75.8340999103
 20
2.25
 11
-76.5323503958
 21
2.25
  0
LINE
  5
332
100
AcDbEntity
  8
0
100
AcDbLine
 62
253
  6
CONTINUOUS
 10
-77.778553648
 20
3.1693376137
 11
-80.2684076314
 21
3.1693376137
  0
LINE
  5
333
100
AcDbEntity
  8
0
100
AcDbLine
 62
253
  6
CONTINUOUS
 10
-77.7900482022
 20
3.201286167
 11
-80.2684076314
 21
3.201286167
  0
LINE
  5
334
100
AcDbEntity
  8
0
100
AcDbLine
 62
253
  6
CONTINUOUS
 10
-70.3508755316
 20
-14.9158299302
 11
-70.3508755316
 21
-7.9318963079
  0
LINE
  5
335
100
AcDbEntity
  8
DRAFT
100
AcDbLine
 62
7
  6
CONTINUOUS
 10
-82.4684076314
 20
4.0541666409
 11
-83.4684076314
 21
4.0454397731
  0
LINE
  5
336
100
AcDbEntity
  8
0
100
AcDbLine
 62
253
  6
CONTINUOUS
 10
-80.2684076314
 20
4.798713833
 11
-77.7900482022
 21
4.798713833
  0
LINE
  5
337
100
AcDbEntity
  8
0
100
AcDbLine
 62
253
  6
CONTINUOUS
 10
-80.2684076314
 20
4.8306623863
 11
-77.778553648
 21
4.8306623863
  0
LINE
  5
338
100
AcDbEntity
  8
0
100
AcDbLine
 62
7
  6
CONTINUOUS
 10
-59.9721018191
 20
3.2243062185
 11
-60.1705095059
 21
3.2531511097
  0
LINE
  5
339
100
AcDbEntity
  8
RACCORDO
100
AcDbLine
 62
7
  6
CONTINUOUS
 10
-82.8389981089
 20
5.5992994192
 11
-83.4684076314
 21
5.7679491924
  0
LINE
  5
33A
100
AcDbEntity
  8
0
100
AcDbLine
 62
7
  6
CONTINUOUS
 10
-69.3684076314
 20
-8.1475094854
 11
-69.3684076314
 21
-14.9165339881
  0
LINE
  5
33B
100
AcDbEntity
  8
0
100
AcDbLine
 62
253
  6
CONTINUOUS
 10
-68.6444517253
 20
-8.1222264887
 11
-68.6445822539
 21
-14.6465054676
  0
LINE
  5
33C
100
AcDbEntity
  8
0
100
AcDbLine
 62
7
  6
CONTINUOUS
 10
-68.2059309549
 20
1.75
 11
-68.2059309549
 21
-1.75
  0
LINE
  5
33D
100
AcDbEntity
  8
0
100
AcDbLine
 62
7
  6
CONTINUOUS
 10
-67.8378699549
 20
1.381939
 11
-67.8378699549
 21
-1.381939
  0
LINE
  5
33E
100
AcDbEntity
  8
0
100
AcDbLine
 62
253
  6
CONTINUOUS
 10
-67.6579377824
 20
-15.7601106157
 11
-67.6579377824
 21
-8.0877767119
  0
LINE
  5
33F
100
AcDbEntity
  8
0
100
AcDbLine
 62
7
  6
CONTINUOUS
 10
-67.3684076314
 20
-15.4603180845
 11
-67.3684076314
 21
-8.0776660962
  0
LINE
  5
340
100
AcDbEntity
  8
0
100
AcDbLine
 62
7
  6
CONTINUOUS
 10
-67.8378699549
 20
-1.381939
 11
-68.2059309549
 21
-1.75
  0
LINE
  5
341
100
AcDbEntity
  8
0
100
AcDbLine
 62
7
  6
CONTINUOUS
 10
-78.4263989703
 20
6.449886513
 11
-78.4206008588
 21
6.45
  0
LINE
  5
342
100
AcDbEntity
  8
0
100
AcDbLine
 62
253
  6
CONTINUOUS
 10
-76.5323503958
 20
6.45
 11
-77.8954707709
 21
6.45
  0
LINE
  5
343
100
AcDbEntity
  8
0
100
AcDbLine
 62
7
  6
CONTINUOUS
 10
-77.8954707709
 20
6.45
 11
-78.4206008588
 21
6.45
  0
LINE
  5
344
100
AcDbEntity
  8
0
100
AcDbLine
 62
7
  6
CONTINUOUS
 10
-64.1684076314
 20
6.5
 11
-60.9684076314
 21
6.5
  0
LINE
  5
345
100
AcDbEntity
  8
RACCORDO
100
AcDbLine
 62
7
  6
CONTINUOUS
 10
-64.2123816797
 20
6.5
 11
-76.4666708184
 21
6.5
  0
LINE
  5
346
100
AcDbEntity
  8
0
100
AcDbLine
 62
7
  6
CONTINUOUS
 10
-76.8494663379
 20
7.5
 11
-76.4666708184
 21
7.5
  0
LINE
  5
347
100
AcDbEntity
  8
RACCORDO
100
AcDbLine
 62
7
  6
CONTINUOUS
 10
-76.4666708184
 20
7.5
 11
-64.1426499129
 21
7.5
  0
LINE
  5
348
100
AcDbEntity
  8
0
100
AcDbLine
 62
7
  6
CONTINUOUS
 10
-64.1684076314
 20
7.5
 11
-60.9684076314
 21
7.5
  0
LINE
  5
349
100
AcDbEntity
  8
0
100
AcDbLine
 62
7
  6
CONTINUOUS
 10
-78.6684076314
 20
7.5
 11
-78.9684076314
 21
7.5
  0
LINE
  5
34A
100
AcDbEntity
  8
0
100
AcDbLine
 62
7
  6
CONTINUOUS
 10
-59.9886442544
 20
6.2582493056
 11
-59.7897800282
 21
6.2293380508
  0
LINE
  5
34B
100
AcDbEntity
  8
0
100
AcDbLine
 62
7
  6
CONTINUOUS
 10
-67.8378699549
 20
1.381939
 11
-68.2059309549
 21
1.75
  0
LINE
  5
34C
100
AcDbEntity
  8
0
100
AcDbLine
 62
7
  6
CONTINUOUS
 10
-65.7684076314
 20
-8.021792865
 11
-65.7684076314
 21
-8.0545986235
  0
LINE
  5
34D
100
AcDbEntity
  8
RACCORDO
100
AcDbLine
 62
253
  6
CONTINUOUS
 10
-64.420345871
 20
7.5
 11
-64.420345871
 21
6.5
  0
LINE
  5
34E
100
AcDbEntity
  8
RACCORDO
100
AcDbLine
 62
253
  6
CONTINUOUS
 10
-64.420345871
 20
-7.5
 11
-64.420345871
 21
-6.5
  0
LINE
  5
34F
100
AcDbEntity
  8
0
100
AcDbLine
 62
7
  6
CONTINUOUS
 10
-64.1684076314
 20
7.5
 11
-64.1684076314
 21
6.5
  0
LINE
  5
350
100
AcDbEntity
  8
0
100
AcDbLine
 62
7
  6
CONTINUOUS
 10
-64.1684076314
 20
-7.5
 11
-64.1684076314
 21
-6.5
  0
LINE
  5
351
100
AcDbEntity
  8
DRAFT
100
AcDbLine
 62
7
  6
CONTINUOUS
 10
-83.4684076314
 20
11.50167211
 11
-82.041323114
 21
11.5141260879
  0
LINE
  5
352
100
AcDbEntity
  8
DRAFT
100
AcDbLine
 62
7
  6
CONTINUOUS
 10
-80.7686310062
 20
11.5252327037
 11
-77.9684076314
 21
11.5496698829
  0
LINE
  5
353
100
AcDbEntity
  8
0
100
AcDbLine
 62
253
  6
CONTINUOUS
 10
-78.9684076314
 20
10.0
 11
-80.5873540516
 21
10.0
  0
LINE
  5
354
100
AcDbEntity
  8
0
100
AcDbLine
 62
253
  6
CONTINUOUS
 10
-83.3494612112
 20
10.0
 11
-83.4684076314
 21
10.0
  0
LINE
  5
355
100
AcDbEntity
  8
ASSI
100
AcDbLine
 62
7
  6
CONTINUOUS
 10
-83.4684076314
 20
10.5
 11
-78.9684076314
 21
10.5
  0
LINE
  5
356
100
AcDbEntity
  8
0
100
AcDbLine
 62
253
  6
CONTINUOUS
 10
-60.1140300994
 20
11.4000000212
 11
-59.8684076333
 21
11.4000000212
  0
LINE
  5
357
100
AcDbEntity
  8
ASSI
100
AcDbLine
 62
7
  6
CONTINUOUS
 10
-83.4684076314
 20
11.5
 11
-78.9684076314
 21
11.5
  0
LINE
  5
358
100
AcDbEntity
  8
0
100
AcDbLine
 62
7
  6
CONTINUOUS
 10
-60.9684076314
 20
7.5
 11
-60.9684076314
 21
6.5
  0
LINE
  5
359
100
AcDbEntity
  8
0
100
AcDbLine
 62
7
  6
CONTINUOUS
 10
-60.9684076314
 20
-7.5
 11
-60.9684076314
 21
-6.5
  0
LINE
  5
35A
100
AcDbEntity
  8
0
100
AcDbLine
 62
7
  6
CONTINUOUS
 10
-69.7019351836
 20
-16.1646456674
 11
-69.6626189947
 21
-16.1067614223
  0
LINE
  5
35B
100
AcDbEntity
  8
0
100
AcDbLine
 62
253
  6
CONTINUOUS
 10
-60.1140300994
 20
14.1806895397
 11
-59.8684076333
 21
14.1806895397
  0
LINE
  5
35C
100
AcDbEntity
  8
0
100
AcDbLine
 62
253
  6
CONTINUOUS
 10
-59.8684076314
 20
14.2
 11
-59.8690195058
 21
14.2
  0
LINE
  5
35D
100
AcDbEntity
  8
RACCORDO
100
AcDbLine
 62
253
  6
CONTINUOUS
 10
-77.9684076314
 20
13.4520212656
 11
-83.4684076314
 21
13.5000190385
  0
LINE
  5
35E
100
AcDbEntity
  8
RACCORDO
100
AcDbLine
 62
7
  6
CONTINUOUS
 10
-77.9684076314
 20
13.9520022272
 11
-83.4684076314
 21
14.0
  0
LINE
  5
35F
100
AcDbEntity
  8
RACCORDO
100
AcDbLine
 62
253
  6
CONTINUOUS
 10
-82.2947713489
 20
13.9897578313
 11
-83.4684076314
 21
14.2715229736
  0
LINE
  5
360
100
AcDbEntity
  8
RACCORDO
100
AcDbLine
 62
7
  6
CONTINUOUS
 10
-77.9684076286
 20
13.9795049917
 11
-83.4684076314
 21
15.2999381673
  0
LINE
  5
361
100
AcDbEntity
  8
0
100
AcDbLine
 62
253
  6
CONTINUOUS
 10
-60.1139995144
 20
11.4000000322
 11
-60.1140300927
 21
14.1785873956
  0
LINE
  5
362
100
AcDbEntity
  8
0
100
AcDbLine
 62
253
  6
CONTINUOUS
 10
-60.0484076314
 20
-4.15
 11
-60.0484076314
 21
-0.9401307503
  0
LINE
  5
363
100
AcDbEntity
  8
0
100
AcDbLine
 62
7
  6
CONTINUOUS
 10
-60.0484076314
 20
-0.9401307503
 11
-60.0484076314
 21
-0.06258913
  0
LINE
  5
364
100
AcDbEntity
  8
0
100
AcDbLine
 62
253
  6
CONTINUOUS
 10
-60.0484076314
 20
-0.06258913
 11
-60.0484076314
 21
1.15
  0
LINE
  5
365
100
AcDbEntity
  8
0
100
AcDbLine
 62
7
  6
CONTINUOUS
 10
-59.8684076314
 20
14.2000000412
 11
-59.8684076314
 21
11.4000011727
  0
LINE
  5
366
100
AcDbEntity
  8
0
100
AcDbLine
 62
7
  6
CONTINUOUS
 10
-59.2484076314
 20
-3.3499598335
 11
-59.2484076314
 21
0.3500448143
  0
LINE
  5
367
100
AcDbEntity
  8
0
100
AcDbLine
 62
7
  6
CONTINUOUS
 10
-69.6626189947
 20
-16.1067614223
 11
-69.6188332869
 21
-16.0534229332
  0
LWPOLYLINE
  5
368
100
AcDbEntity
  8
0
100
AcDbPolyline
 62
7
  6
CONTINUOUS
 90
10
 70
0
 10
-69.6188332869
 20
-16.0534229332
 10
-69.5707856243
 20
-16.0050439864
 10
-69.5192681399
 20
-15.9620382067
 10
-69.4650716508
 20
-15.9243531764
 10
-69.4084033726
 20
-15.891764635
 10
-69.3482661286
 20
-15.8640746912
 10
-69.2842210686
 20
-15.8415859641
 10
-69.2166621779
 20
-15.8247014792
 10
-69.1455575199
 20
-15.8139273211
 10
-69.0905556307
 20
-15.8101387403
  0
LINE
  5
369
100
AcDbEntity
  8
0
100
AcDbLine
 62
253
  6
CONTINUOUS
 10
-77.7902769748
 20
16.2279122492
 11
-76.5293450905
 21
16.382735217
  0
LINE
  5
36A
100
AcDbEntity
  8
0
100
AcDbLine
 62
7
  6
CONTINUOUS
 10
-76.9684076314
 20
17.3213712673
 11
-77.7902769748
 21
17.2204584009
  0
LINE
  5
36B
100
AcDbEntity
  8
ASSI
100
AcDbLine
 62
7
  6
CONTINUOUS
 10
-80.4684076314
 20
15.75
 11
-80.3184076314
 21
15.75
  0
LINE
  5
36C
100
AcDbEntity
  8
0
100
AcDbLine
 62
253
  6
CONTINUOUS
 10
-77.7902769748
 20
16.2279122492
 11
-78.6684076314
 21
16.2279122492
  0
LINE
  5
36D
100
AcDbEntity
  8
RACCORDO
100
AcDbLine
 62
253
  6
CONTINUOUS
 10
-83.4684076314
 20
16.5715728753
 11
-80.4684076314
 21
16.5715728753
  0
LINE
  5
36E
100
AcDbEntity
  8
0
100
AcDbLine
 62
253
  6
CONTINUOUS
 10
-74.0684087856
 20
16.4753508643
 11
-74.081936293
 21
16.4754421043
  0
LINE
  5
36F
100
AcDbEntity
  8
0
100
AcDbLine
 62
7
  6
CONTINUOUS
 10
-74.0684076311
 20
17.475
 11
-75.4684073874
 21
17.5055481033
  0
LINE
  5
370
100
AcDbEntity
  8
0
100
AcDbLine
 62
253
  6
CONTINUOUS
 10
-74.0684075246
 20
16.4751683849
 11
-60.9251300312
 21
16.1309532285
  0
LINE
  5
371
100
AcDbEntity
  8
0
100
AcDbLine
 62
7
  6
CONTINUOUS
 10
-62.789876947
 20
17.1796612801
 11
-74.0684076311
 21
17.475
  0
LINE
  5
372
100
AcDbEntity
  8
0
100
AcDbLine
 62
7
  6
CONTINUOUS
 10
-75.4684077841
 20
16.512939088
 11
-74.081936293
 21
16.4754421043
  0
LINE
  5
373
100
AcDbEntity
  8
0
100
AcDbLine
 62
253
  6
CONTINUOUS
 10
-76.4945756095
 20
19.6999749057
 11
-75.4684074627
 21
19.7537540994
  0
LINE
  5
374
100
AcDbEntity
  8
0
100
AcDbLine
 62
7
  6
CONTINUOUS
 10
-75.4684075949
 20
19.9000000019
 11
-76.4945756095
 21
19.8462208151
  0
LINE
  5
375
100
AcDbEntity
  8
DRAFT
100
AcDbLine
 62
7
  6
CONTINUOUS
 10
-80.4684076314
 20
18.9
 11
-76.9684076314
 21
18.9305440373
  0
LINE
  5
376
100
AcDbEntity
  8
DRAFT
100
AcDbLine
 62
7
  6
CONTINUOUS
 10
-75.4684076314
 20
18.943634339
 11
-72.9640443637
 21
18.9654895861
  0
LINE
  5
377
100
AcDbEntity
  8
0
100
AcDbLine
 62
253
  6
CONTINUOUS
 10
-77.7555647166
 20
17.8831922438
 11
-78.6684076314
 21
17.8831922438
  0
LINE
  5
378
100
AcDbEntity
  8
RACCORDO
100
AcDbLine
 62
253
  6
CONTINUOUS
 10
-83.4684076314
 20
17.9857864376
 11
-80.4684076314
 21
17.9857864376
  0
LINE
  5
379
100
AcDbEntity
  8
0
100
AcDbLine
 62
253
  6
CONTINUOUS
 10
-76.5293450905
 20
18.1138626349
 11
-76.9684076314
 21
18.1138626349
  0
LINE
  5
37A
100
AcDbEntity
  8
RACCORDO
100
AcDbLine
 62
253
  6
CONTINUOUS
 10
-72.4684076314
 20
19.8712857716
 11
-72.9640443637
 21
19.8712857716
  0
LINE
  5
37B
100
AcDbEntity
  8
RACCORDO
100
AcDbLine
 62
7
  6
CONTINUOUS
 10
-80.4684076314
 20
20.5
 11
-72.9640443637
 21
20.4345104139
  0
LINE
  5
37C
100
AcDbEntity
  8
0
100
AcDbLine
 62
253
  6
CONTINUOUS
 10
-76.5293450905
 20
18.1138632353
 11
-75.4684088139
 21
18.0622181651
  0
LINE
  5
37D
100
AcDbEntity
  8
0
100
AcDbLine
 62
253
  6
CONTINUOUS
 10
-75.4684074627
 20
18.4169543778
 11
-76.4945756095
 21
18.4669314929
  0
LINE
  5
37E
100
AcDbEntity
  8
0
100
AcDbLine
 62
7
  6
CONTINUOUS
 10
-79.6684076314
 20
22.4199909308
 11
-80.4684076314
 21
22.35
  0
LINE
  5
37F
100
AcDbEntity
  8
RACCORDO
100
AcDbLine
 62
7
  6
CONTINUOUS
 10
-80.4684076314
 20
21.8408009033
 11
-72.8815835426
 21
20.5030391186
  0
LINE
  5
380
100
AcDbEntity
  8
ASSI
100
AcDbLine
 62
7
  6
CONTINUOUS
 10
-80.4684076314
 20
24.9714560971
 11
-83.4684076314
 21
24.9714560971
  0
LINE
  5
381
100
AcDbEntity
  8
ASSI
100
AcDbLine
 62
7
  6
CONTINUOUS
 10
-80.4684076314
 20
28.7
 11
-83.4684076314
 21
28.7
  0
LINE
  5
382
100
AcDbEntity
  8
0
100
AcDbLine
 62
7
  6
CONTINUOUS
 10
-79.6684076314
 20
28.2800090692
 11
-80.4684076314
 21
28.35
  0
LINE
  5
383
100
AcDbEntity
  8
RACCORDO
100
AcDbLine
 62
253
  6
CONTINUOUS
 10
-87.2981823452
 20
38.9333033386
 11
-83.4684076314
 21
39.0001523048
  0
LINE
  5
384
100
AcDbEntity
  8
RACCORDO
100
AcDbLine
 62
253
  6
CONTINUOUS
 10
-87.7838012685
 20
39.4865874394
 11
-89.8591663841
 21
39.4503659544
  0
LINE
  5
385
100
AcDbEntity
  8
RACCORDO
100
AcDbLine
 62
7
  6
CONTINUOUS
 10
-89.3708225677
 20
39.8969729641
 11
-83.4684076314
 21
40.0
  0
LINE
  5
386
100
AcDbEntity
  8
RACCORDO
100
AcDbLine
 62
253
  6
CONTINUOUS
 10
-89.8591663841
 20
39.4503659544
 11
-89.8592325284
 21
39.4503655636
  0
ARC
  5
387
100
AcDbEntity
  8
RACCORDO
100
AcDbCircle
 62
253
  6
CONTINUOUS
 10
-38.9344554022
 20
-38.9344554044
 40
0.998681957
100
AcDbArc
 50
179.933905305
 51
270.0664003655
  0
ARC
  5
388
100
AcDbEntity
  8
RACCORDO
100
AcDbCircle
 62
253
  6
CONTINUOUS
 10
-38.9873207816
 20
-38.9873207816
 40
0.4992529022
100
AcDbArc
 50
179.8469477988
 51
270.1530522011
  0
ARC
  5
389
100
AcDbEntity
  8
RACCORDO
100
AcDbCircle
 62
253
  6
CONTINUOUS
 10
-20989.0997194487
 20
-0.000000172
 40
20949.202746484
100
AcDbArc
 50
359.8935178935
 51
0.1064820929
  0
CIRCLE
  5
38A
100
AcDbEntity
  8
0
100
AcDbCircle
 62
7
  6
CONTINUOUS
 10
-25.0
 20
-0.0
 40
3.0
  0
CIRCLE
  5
38B
100
AcDbEntity
  8
0
100
AcDbCircle
 62
7
  6
CONTINUOUS
 10
-25.0
 20
0.0
 40
2.5
  0
ARC
  5
38C
100
AcDbEntity
  8
RACCORDO
100
AcDbCircle
 62
253
  6
CONTINUOUS
 10
-38.9344554044
 20
38.9344554022
 40
0.998681957
100
AcDbArc
 50
89.933905305
 51
180.0664003655
  0
ARC
  5
38D
100
AcDbEntity
  8
RACCORDO
100
AcDbCircle
 62
253
  6
CONTINUOUS
 10
-38.9873252246
 20
38.9873252246
 40
0.4992473615
100
AcDbArc
 50
89.8464365518
 51
180.1535634482
  0
ARC
  5
38E
100
AcDbEntity
  8
RACCORDO
100
AcDbCircle
 62
253
  6
CONTINUOUS
 10
0.0
 20
-21017.0009464192
 40
20977.5505860049
100
AcDbArc
 50
89.893517892
 51
90.106482108
  0
ARC
  5
38F
100
AcDbEntity
  8
RACCORDO
100
AcDbCircle
 62
253
  6
CONTINUOUS
 10
0.0000000536
 20
-20989.0994599399
 40
20949.2024869759
100
AcDbArc
 50
89.8935178919
 51
90.1064820938
  0
ARC
  5
390
100
AcDbEntity
  8
RACCORDO
100
AcDbCircle
 62
253
  6
CONTINUOUS
 10
38.9344552652
 20
-38.9344552629
 40
0.998681957
100
AcDbArc
 50
269.9339133048
 51
0.0663923657
  0
ARC
  5
391
100
AcDbEntity
  8
0
100
AcDbCircle
 62
7
  6
CONTINUOUS
 10
29.498725
 20
-31.516657
 40
0.7667158029
100
AcDbArc
 50
292.8428457417
 51
90.0
  0
ARC
  5
392
100
AcDbEntity
  8
RACCORDO
100
AcDbCircle
 62
253
  6
CONTINUOUS
 10
38.9873207816
 20
-38.9873207816
 40
0.4992529022
100
AcDbArc
 50
269.8469477988
 51
0.1530522011
  0
ARC
  5
393
100
AcDbEntity
  8
0
100
AcDbCircle
 62
7
  6
CONTINUOUS
 10
29.429323
 20
-31.516657
 40
0.304195
100
AcDbArc
 50
270.0
 51
90.0
  0
CIRCLE
  5
394
100
AcDbEntity
  8
RACCORDO
100
AcDbCircle
 62
253
  6
CONTINUOUS
 10
0.0
 20
0.0
 40
7.894908795
  0
CIRCLE
  5
395
100
AcDbEntity
  8
RACCORDO
100
AcDbCircle
 62
253
  6
CONTINUOUS
 10
0.0
 20
0.0
 40
7.0778691834
  0
CIRCLE
  5
396
100
AcDbEntity
  8
DRAFT
100
AcDbCircle
 62
7
  6
CONTINUOUS
 10
0.0
 20
0.0
 40
7.0
  0
CIRCLE
  5
397
100
AcDbEntity
  8
0
100
AcDbCircle
 62
7
  6
CONTINUOUS
 10
0.0
 20
0.0
 40
5.7
  0
CIRCLE
  5
398
100
AcDbEntity
  8
0
100
AcDbCircle
 62
7
  6
CONTINUOUS
 10
0.0
 20
0.0
 40
5.675
  0
CIRCLE
  5
399
100
AcDbEntity
  8
0
100
AcDbCircle
 62
253
  6
CONTINUOUS
 10
0.0
 20
0.0
 40
5.2125
  0
CIRCLE
  5
39A
100
AcDbEntity
  8
0
100
AcDbCircle
 62
7
  6
CONTINUOUS
 10
0.0
 20
0.0
 40
4.75
  0
CIRCLE
  5
39B
100
AcDbEntity
  8
0
100
AcDbCircle
 62
253
  6
CONTINUOUS
 10
0.0
 20
0.0
 40
4.5
  0
CIRCLE
  5
39C
100
AcDbEntity
  8
0
100
AcDbCircle
 62
253
  6
CONTINUOUS
 10
0.0
 20
0.0
 40
4.3544587245
  0
CIRCLE
  5
39D
100
AcDbEntity
  8
0
100
AcDbCircle
 62
7
  6
CONTINUOUS
 10
0.0
 20
0.0
 40
4.1044018482
  0
CIRCLE
  5
39E
100
AcDbEntity
  8
0
100
AcDbCircle
 62
253
  6
CONTINUOUS
 10
0.0
 20
0.0
 40
4.0120338141
  0
CIRCLE
  5
39F
100
AcDbEntity
  8
0
100
AcDbCircle
 62
253
  6
CONTINUOUS
 10
0.0
 20
0.0
 40
3.7414221937
  0
CIRCLE
  5
3A0
100
AcDbEntity
  8
0
100
AcDbCircle
 62
253
  6
CONTINUOUS
 10
0.0
 20
0.0
 40
3.4915744869
  0
CIRCLE
  5
3A1
100
AcDbEntity
  8
0
100
AcDbCircle
 62
7
  6
CONTINUOUS
 10
0.0
 20
0.0
 40
3.3952376915
  0
CIRCLE
  5
3A2
100
AcDbEntity
  8
0
100
AcDbCircle
 62
7
  6
CONTINUOUS
 10
0.0
 20
0.0
 40
2.5
  0
CIRCLE
  5
3A3
100
AcDbEntity
  8
0
100
AcDbCircle
 62
7
  6
CONTINUOUS
 10
0.0
 20
0.0
 40
1.1800001475
  0
CIRCLE
  5
3A4
100
AcDbEntity
  8
0
100
AcDbCircle
 62
253
  6
CONTINUOUS
 10
0.0
 20
0.0
 40
1.1412302763
  0
CIRCLE
  5
3A5
100
AcDbEntity
  8
0
100
AcDbCircle
 62
253
  6
CONTINUOUS
 10
0.0
 20
0.0
 40
0.6502371771
  0
CIRCLE
  5
3A6
100
AcDbEntity
  8
0
100
AcDbCircle
 62
253
  6
CONTINUOUS
 10
0.0
 20
0.0
 40
0.4196221102
  0
CIRCLE
  5
3A7
100
AcDbEntity
  8
0
100
AcDbCircle
 62
7
  6
CONTINUOUS
 10
25.0
 20
0.0
 40
3.0
  0
CIRCLE
  5
3A8
100
AcDbEntity
  8
0
100
AcDbCircle
 62
7
  6
CONTINUOUS
 10
25.0
 20
0.0
 40
2.5
  0
ARC
  5
3A9
100
AcDbEntity
  8
RACCORDO
100
AcDbCircle
 62
253
  6
CONTINUOUS
 10
38.9344552629
 20
38.9344552652
 40
0.998681957
100
AcDbArc
 50
359.9339133048
 51
90.0663923657
  0
ARC
  5
3AA
100
AcDbEntity
  8
RACCORDO
100
AcDbCircle
 62
253
  6
CONTINUOUS
 10
38.9873252246
 20
38.9873252246
 40
0.4992473615
100
AcDbArc
 50
359.8464365518
 51
90.1535634482
  0
ARC
  5
3AB
100
AcDbEntity
  8
RACCORDO
100
AcDbCircle
 62
253
  6
CONTINUOUS
 10
0.0
 20
21017.0009464561
 40
20977.5505860418
100
AcDbArc
 50
269.893517892
 51
270.106482108
  0
ARC
  5
3AC
100
AcDbEntity
  8
RACCORDO
100
AcDbCircle
 62
253
  6
CONTINUOUS
 10
-0.0000000537
 20
20989.0994599422
 40
20949.2024869781
100
AcDbArc
 50
269.8935178919
 51
270.1064820938
  0
ARC
  5
3AD
100
AcDbEntity
  8
RACCORDO
100
AcDbCircle
 62
253
  6
CONTINUOUS
 10
20989.0997194487
 20
0.000000172
 40
20949.202746484
100
AcDbArc
 50
179.8935178935
 51
180.1064820929
  0
ARC
  5
3AE
100
AcDbEntity
  8
RACCORDO
100
AcDbCircle
 62
7
  6
CONTINUOUS
 10
-89.3620963645
 20
-39.3970491165
 40
0.5
100
AcDbArc
 50
186.1206593041
 51
269.0
  0
ARC
  5
3AF
100
AcDbEntity
  8
0
100
AcDbCircle
 62
7
  6
CONTINUOUS
 10
-85.459669991
 20
-11.1019354554
 40
4.9958313925
100
AcDbArc
 50
7.4862726605
 51
8.8475384662
  0
ARC
  5
3B0
100
AcDbEntity
  8
0
100
AcDbCircle
 62
7
  6
CONTINUOUS
 10
-78.4773492689
 20
-11.1019077854
 40
4.9956255292
100
AcDbArc
 50
171.1803481117
 51
172.5137371536
  0
ARC
  5
3B1
100
AcDbEntity
  8
0
100
AcDbCircle
 62
7
  6
CONTINUOUS
 10
-76.6684076314
 20
-17.8831922438
 40
2.0
100
AcDbArc
 50
180.0
 51
211.1774149575
  0
ARC
  5
3B2
100
AcDbEntity
  8
ASSI
100
AcDbCircle
 62
7
  6
CONTINUOUS
 10
-81.9684076314
 20
-10.5853981634
 40
1.5
100
AcDbArc
 50
22.9710170001
 51
157.0289829999
  0
ARC
  5
3B3
100
AcDbEntity
  8
0
100
AcDbCircle
 62
7
  6
CONTINUOUS
 10
-80.7684076314
 20
-10.4
 40
1.5
100
AcDbArc
 50
227.1665719339
 51
228.1264738466
  0
ARC
  5
3B4
100
AcDbEntity
  8
0
100
AcDbCircle
 62
7
  6
CONTINUOUS
 10
-80.7684076314
 20
-10.4
 40
1.5
100
AcDbArc
 50
310.8673751594
 51
312.8334280661
  0
ARC
  5
3B5
100
AcDbEntity
  8
0
100
AcDbCircle
 62
253
  6
CONTINUOUS
 10
-76.9718057084
 20
-4.0
 40
1.2536750172
100
AcDbArc
 50
140.423569707
 51
219.576430293
  0
ARC
  5
3B6
100
AcDbEntity
  8
0
100
AcDbCircle
 62
253
  6
CONTINUOUS
 10
-76.8245049066
 20
-4.0002762655
 40
1.2529071812
100
AcDbArc
 50
179.9873663062
 51
219.5883963817
  0
ARC
  5
3B7
100
AcDbEntity
  8
0
100
AcDbCircle
 62
253
  6
CONTINUOUS
 10
-76.8245049066
 20
-3.9997237345
 40
1.2529071812
100
AcDbArc
 50
140.4116036183
 51
180.0126336938
  0
ARC
  5
3B8
100
AcDbEntity
  8
0
100
AcDbCircle
 62
7
  6
CONTINUOUS
 10
-77.9184076314
 20
-7.5
 40
1.05
100
AcDbArc
 50
163.049802301
 51
180.0
  0
ARC
  5
3B9
100
AcDbEntity
  8
0
100
AcDbCircle
 62
7
  6
CONTINUOUS
 10
-77.6684076314
 20
-16.2279122492
 40
1.0
100
AcDbArc
 50
180.0
 51
262.9999999999
  0
ARC
  5
3BA
100
AcDbEntity
  8
0
100
AcDbCircle
 62
253
  6
CONTINUOUS
 10
-76.7557311909
 20
-17.8832587014
 40
0.999833553
100
AcDbArc
 50
179.9978537118
 51
232.5334675164
  0
ARC
  5
3BB
100
AcDbEntity
  8
0
100
AcDbCircle
 62
253
  6
CONTINUOUS
 10
-80.2684076314
 20
-4.0
 40
0.8306623863
100
AcDbArc
 50
90.0000000001
 51
269.9999999994
  0
ARC
  5
3BC
100
AcDbEntity
  8
0
100
AcDbCircle
 62
253
  6
CONTINUOUS
 10
-80.2684076314
 20
-4.0
 40
0.7987138197
100
AcDbArc
 50
90.0000000001
 51
269.9999999997
  0
ARC
  5
3BD
100
AcDbEntity
  8
RACCORDO
100
AcDbCircle
 62
7
  6
CONTINUOUS
 10
-82.9684076314
 20
-5.116336506
 40
0.5
100
AcDbArc
 50
285.0
 51
360.0
  0
ARC
  5
3BE
100
AcDbEntity
  8
0
100
AcDbCircle
 62
7
  6
CONTINUOUS
 10
-76.4684076314
 20
-19.3469060477
 40
0.5
100
AcDbArc
 50
180.0
 51
267.0000000001
  0
ARC
  5
3BF
100
AcDbEntity
  8
0
100
AcDbCircle
 62
7
  6
CONTINUOUS
 10
-78.4260658163
 20
-6.6675451729
 40
0.2176207663
100
AcDbArc
 50
90.0403088408
 51
95.9655668014
  0
ARC
  5
3C0
100
AcDbEntity
  8
0
100
AcDbCircle
 62
253
  6
CONTINUOUS
 10
-66.5229783586
 20
-26.9273137596
 40
13.623459189
100
AcDbArc
 50
142.7271621683
 51
144.0309912503
  0
ARC
  5
3C1
100
AcDbEntity
  8
0
100
AcDbCircle
 62
7
  6
CONTINUOUS
 10
-71.8684076314
 20
-14.9165339913
 40
2.5
100
AcDbArc
 50
271.49999999
 51
0.0000000743
  0
ARC
  5
3C2
100
AcDbEntity
  8
RACCORDO
100
AcDbCircle
 62
7
  6
CONTINUOUS
 10
-72.9684076314
 20
-19.4654705476
 40
0.5
100
AcDbArc
 50
0.0
 51
89.5
  0
ARC
  5
3C3
100
AcDbEntity
  8
RACCORDO
100
AcDbCircle
 62
7
  6
CONTINUOUS
 10
-72.9684076314
 20
-19.9345294524
 40
0.5
100
AcDbArc
 50
270.5
 51
360.0
  0
ARC
  5
3C4
100
AcDbEntity
  8
RACCORDO
100
AcDbCircle
 62
7
  6
CONTINUOUS
 10
-72.9684076314
 20
-20.0106352421
 40
0.5
100
AcDbArc
 50
280.0
 51
2.3133205357
  0
ARC
  5
3C5
100
AcDbEntity
  8
0
100
AcDbCircle
 62
7
  6
CONTINUOUS
 10
-67.6684076314
 20
-15.4602933676
 40
0.3
100
AcDbArc
 50
272.0000000002
 51
359.9952794156
  0
ARC
  5
3C6
100
AcDbEntity
  8
RACCORDO
100
AcDbCircle
 62
253
  6
CONTINUOUS
 10
-72.7079521034
 20
-19.5237246218
 40
0.2395446137
100
AcDbArc
 50
350.0689336226
 51
359.9376933176
  0
ARC
  5
3C7
100
AcDbEntity
  8
0
100
AcDbCircle
 62
7
  6
CONTINUOUS
 10
-65.1443416294
 20
-3.825
 40
4.175
100
AcDbArc
 50
320.1374527574
 51
351.7281774087
  0
ARC
  5
3C8
100
AcDbEntity
  8
0
100
AcDbCircle
 62
7
  6
CONTINUOUS
 10
-65.1443416294
 20
-3.825
 40
4.175
100
AcDbArc
 50
269.9999815049
 51
298.2890063777
  0
ARC
  5
3C9
100
AcDbEntity
  8
0
100
AcDbCircle
 62
7
  6
CONTINUOUS
 10
-64.8797888561
 20
-8.8369491555
 40
0.894915357
100
AcDbArc
 50
75.29160646
 51
75.6618449159
  0
ARC
  5
3CA
100
AcDbEntity
  8
0
100
AcDbCircle
 62
7
  6
CONTINUOUS
 10
-60.0484076314
 20
-3.35
 40
0.8
100
AcDbArc
 50
270.0
 51
360.0
  0
ARC
  5
3CB
100
AcDbEntity
  8
0
100
AcDbCircle
 62
7
  6
CONTINUOUS
 10
-169.8684076306
 20
11.3999999999
 40
110.1999999992
100
AcDbArc
 50
355.7453399898
 51
357.3106540863
  0
ARC
  5
3CC
100
AcDbEntity
  8
0
100
AcDbCircle
 62
7
  6
CONTINUOUS
 10
-169.8684076314
 20
11.4
 40
110.0
100
AcDbArc
 50
351.7281746277
 51
0.0000006108
  0
ARC
  5
3CD
100
AcDbEntity
  8
0
100
AcDbCircle
 62
253
  6
CONTINUOUS
 10
-169.7497688642
 20
11.3912498646
 40
109.635769699
100
AcDbArc
 50
351.7237108665
 51
0.0045728477
  0
ARC
  5
3CE
100
AcDbEntity
  8
0
100
AcDbCircle
 62
7
  6
CONTINUOUS
 10
-80.6574269828
 20
0.0
 40
10.4880884817
100
AcDbArc
 50
169.1453889791
 51
190.8546123257
  0
ARC
  5
3CF
100
AcDbEntity
  8
0
100
AcDbCircle
 62
253
  6
CONTINUOUS
 10
-76.9718057084
 20
4.0
 40
1.2536750172
100
AcDbArc
 50
140.423569707
 51
219.576430293
  0
ARC
  5
3D0
100
AcDbEntity
  8
0
100
AcDbCircle
 62
253
  6
CONTINUOUS
 10
-76.8245049066
 20
4.0002762655
 40
1.2529071812
100
AcDbArc
 50
140.4116036183
 51
180.0126336938
  0
ARC
  5
3D1
100
AcDbEntity
  8
0
100
AcDbCircle
 62
253
  6
CONTINUOUS
 10
-76.8245049066
 20
3.9997237345
 40
1.2529071812
100
AcDbArc
 50
179.9873663062
 51
219.5883963817
  0
ARC
  5
3D2
100
AcDbEntity
  8
0
100
AcDbCircle
 62
7
  6
CONTINUOUS
 10
-76.4666507785
 20
6.4263826349
 40
1.0736173652
100
AcDbArc
 50
90.0010694686
 51
109.7574711551
  0
ARC
  5
3D3
100
AcDbEntity
  8
0
100
AcDbCircle
 62
7
  6
CONTINUOUS
 10
-77.9184076314
 20
7.5
 40
1.05
100
AcDbArc
 50
180.0
 51
196.950197699
  0
ARC
  5
3D4
100
AcDbEntity
  8
0
100
AcDbCircle
 62
253
  6
CONTINUOUS
 10
-80.2684076314
 20
4.0
 40
0.8306623863
100
AcDbArc
 50
90.0000000001
 51
269.9999999994
  0
ARC
  5
3D5
100
AcDbEntity
  8
0
100
AcDbCircle
 62
253
  6
CONTINUOUS
 10
-80.2684076314
 20
4.0
 40
0.7987138197
100
AcDbArc
 50
90.0000000001
 51
269.9999999997
  0
ARC
  5
3D6
100
AcDbEntity
  8
RACCORDO
100
AcDbCircle
 62
7
  6
CONTINUOUS
 10
-82.9684076314
 20
5.116336506
 40
0.5
100
AcDbArc
 50
0.0
 51
75.0
  0
ARC
  5
3D7
100
AcDbEntity
  8
0
100
AcDbCircle
 62
7
  6
CONTINUOUS
 10
-78.4771452716
 20
11.1019354555
 40
4.9958313928
100
AcDbArc
 50
187.4862726605
 51
188.8475384662
  0
ARC
  5
3D8
100
AcDbEntity
  8
0
100
AcDbCircle
 62
7
  6
CONTINUOUS
 10
-85.4594659939
 20
11.1019077854
 40
4.9956255292
100
AcDbArc
 50
351.1803481117
 51
352.5137371536
  0
ARC
  5
3D9
100
AcDbEntity
  8
0
100
AcDbCircle
 62
7
  6
CONTINUOUS
 10
-76.6684076314
 20
17.8831922438
 40
2.0
100
AcDbArc
 50
148.8225860901
 51
180.0
  0
ARC
  5
3DA
100
AcDbEntity
  8
ASSI
100
AcDbCircle
 62
7
  6
CONTINUOUS
 10
-81.9684076314
 20
10.5853981634
 40
1.5
100
AcDbArc
 50
202.9710170001
 51
337.0289829999
  0
ARC
  5
3DB
100
AcDbEntity
  8
0
100
AcDbCircle
 62
7
  6
CONTINUOUS
 10
-80.7684076314
 20
10.4
 40
1.5
100
AcDbArc
 50
131.8735261534
 51
132.8334280661
  0
ARC
  5
3DC
100
AcDbEntity
  8
0
100
AcDbCircle
 62
7
  6
CONTINUOUS
 10
-80.7684076314
 20
10.4
 40
1.5
100
AcDbArc
 50
47.1665719339
 51
49.1326248406
  0
ARC
  5
3DD
100
AcDbEntity
  8
0
100
AcDbCircle
 62
7
  6
CONTINUOUS
 10
-77.6684076314
 20
16.2279122492
 40
1.0
100
AcDbArc
 50
97.0
 51
180.0000000005
  0
ARC
  5
3DE
100
AcDbEntity
  8
0
100
AcDbCircle
 62
253
  6
CONTINUOUS
 10
-76.7557307224
 20
17.8832584662
 40
0.9998339949
100
AcDbArc
 50
127.4665452681
 51
180.0021320542
  0
ARC
  5
3DF
100
AcDbEntity
  8
RACCORDO
100
AcDbCircle
 62
7
  6
CONTINUOUS
 10
-72.9684076314
 20
19.4654705476
 40
0.5
100
AcDbArc
 50
270.5
 51
360.0
  0
ARC
  5
3E0
100
AcDbEntity
  8
0
100
AcDbCircle
 62
7
  6
CONTINUOUS
 10
-76.4684076314
 20
19.3469060477
 40
0.5
100
AcDbArc
 50
93.0000000005
 51
180.0
  0
ARC
  5
3E1
100
AcDbEntity
  8
0
100
AcDbCircle
 62
7
  6
CONTINUOUS
 10
-60.0484076314
 20
0.35
 40
0.8
100
AcDbArc
 50
0.0060863887
 51
90.0
  0
ARC
  5
3E2
100
AcDbEntity
  8
0
100
AcDbCircle
 62
7
  6
CONTINUOUS
 10
-62.8684076314
 20
14.2
 40
3.0
100
AcDbArc
 50
0.0000007876
 51
30.5993514267
  0
ARC
  5
3E3
100
AcDbEntity
  8
0
100
AcDbCircle
 62
7
  6
CONTINUOUS
 10
-62.8684076314
 20
14.1806893009
 40
3.0
100
AcDbArc
 50
0.0
 51
88.5000030674
  0
ARC
  5
3E4
100
AcDbEntity
  8
RACCORDO
100
AcDbCircle
 62
253
  6
CONTINUOUS
 10
-72.708208366
 20
19.5237290103
 40
0.2398008714
100
AcDbArc
 50
0.061191543
 51
9.9233364321
  0
ARC
  5
3E5
100
AcDbEntity
  8
0
100
AcDbCircle
 62
7
  6
CONTINUOUS
 10
-60.3721572044
 20
15.6760534563
 40
0.1
100
AcDbArc
 50
30.691472726
 51
58.3790856426
  0
ARC
  5
3E6
100
AcDbEntity
  8
0
100
AcDbCircle
 62
253
  6
CONTINUOUS
 10
-66.8889624441
 20
26.6552989019
 40
13.1674892211
100
AcDbArc
 50
215.9460118365
 51
217.2954009042
  0
ARC
  5
3E7
100
AcDbEntity
  8
RACCORDO
100
AcDbCircle
 62
7
  6
CONTINUOUS
 10
-72.9684076314
 20
19.9345294524
 40
0.5
100
AcDbArc
 50
0.0
 51
89.5
  0
ARC
  5
3E8
100
AcDbEntity
  8
RACCORDO
100
AcDbCircle
 62
7
  6
CONTINUOUS
 10
-72.9684076314
 20
20.0106352421
 40
0.5
100
AcDbArc
 50
357.6866794643
 51
80.0
  0
ARC
  5
3E9
100
AcDbEntity
  8
RACCORDO
100
AcDbCircle
 62
7
  6
CONTINUOUS
 10
-89.3620963645
 20
39.3970491165
 40
0.5
100
AcDbArc
 50
91.0
 51
173.8793406959
  0
ARC
  5
3EA
100
AcDbEntity
  8
0
100
AcDbCircle
 62
7
  6
CONTINUOUS
 10
278.0315923686
 20
-0.0000530621
 40
369.5391412262
100
AcDbArc
 50
184.7731855334
 51
185.1622827719
  0
ARC
  5
3EB
100
AcDbEntity
  8
0
100
AcDbCircle
 62
7
  6
CONTINUOUS
 10
278.0315923686
 20
-0.0000633059
 40
369.5088838364
100
AcDbArc
 50
184.7735757006
 51
185.1627041062
  0
ARC
  5
3EC
100
AcDbEntity
  8
0
100
AcDbCircle
 62
7
  6
CONTINUOUS
 10
278.0315923686
 20
-0.0016701051
 40
369.0757138682
100
AcDbArc
 50
185.0178636688
 51
185.1685283037
  0
ARC
  5
3ED
100
AcDbEntity
  8
RACCORDO
100
AcDbCircle
 62
253
  6
CONTINUOUS
 10
277.3424309911
 20
-0.0000125957
 40
367.2016771374
100
AcDbArc
 50
179.9999980347
 51
186.0946065058
  0
ARC
  5
3EE
100
AcDbEntity
  8
0
100
AcDbCircle
 62
7
  6
CONTINUOUS
 10
250.1846317046
 20
-8.8995836088
 40
340.9401373027
100
AcDbArc
 50
183.6745230219
 51
183.9487464301
  0
ARC
  5
3EF
100
AcDbEntity
  8
0
100
AcDbCircle
 62
7
  6
CONTINUOUS
 10
250.1997021179
 20
-9.0311881898
 40
340.9128073572
100
AcDbArc
 50
183.7960579929
 51
184.0737946524
  0
ARC
  5
3F0
100
AcDbEntity
  8
0
100
AcDbCircle
 62
7
  6
CONTINUOUS
 10
243.7619713972
 20
-9.0566890106
 40
334.7406831612
100
AcDbArc
 50
183.7157239286
 51
184.0110490208
  0
ARC
  5
3F1
100
AcDbEntity
  8
0
100
AcDbCircle
 62
7
  6
CONTINUOUS
 10
243.7695559772
 20
-9.2021003837
 40
334.7096938658
100
AcDbArc
 50
183.6913455285
 51
184.1200926179
  0
ARC
  5
3F2
100
AcDbEntity
  8
0
100
AcDbCircle
 62
7
  6
CONTINUOUS
 10
243.7830139517
 20
-10.634176362
 40
334.3110051977
100
AcDbArc
 50
183.4496178028
 51
183.8789786318
  0
ARC
  5
3F3
100
AcDbEntity
  8
0
100
AcDbCircle
 62
7
  6
CONTINUOUS
 10
243.7844407482
 20
-10.7795403492
 40
334.2671672685
100
AcDbArc
 50
183.5588249091
 51
183.6884579324
  0
ARC
  5
3F4
100
AcDbEntity
  8
0
100
AcDbCircle
 62
7
  6
CONTINUOUS
 10
278.0315923686
 20
0.0
 40
370.0
100
AcDbArc
 50
181.2226467176
 51
186.1216955627
  0
ARC
  5
3F5
100
AcDbEntity
  8
0
100
AcDbCircle
 62
7
  6
CONTINUOUS
 10
278.0315923686
 20
0.0
 40
370.0
100
AcDbArc
 50
173.8783044373
 51
178.7773532824
  0
ARC
  5
3F6
100
AcDbEntity
  8
0
100
AcDbCircle
 62
7
  6
CONTINUOUS
 10
278.0315923686
 20
0.0
 40
369.4779545971
100
AcDbArc
 50
184.7739860781
 51
185.1631473101
  0
ARC
  5
3F7
100
AcDbEntity
  8
0
100
AcDbCircle
 62
7
  6
CONTINUOUS
 10
278.0315923686
 20
0.0
 40
369.4463396615
100
AcDbArc
 50
184.9069167571
 51
185.1635903404
  0
ARC
  5
3F8
100
AcDbEntity
  8
0
100
AcDbCircle
 62
7
  6
CONTINUOUS
 10
278.0315923686
 20
0.0000911854
 40
369.351130987
100
AcDbArc
 50
184.9081989267
 51
185.164939193
  0
ARC
  5
3F9
100
AcDbEntity
  8
0
100
AcDbCircle
 62
7
  6
CONTINUOUS
 10
278.0315923686
 20
0.0
 40
369.3168629055
100
AcDbArc
 50
184.7760732705
 51
185.1654055345
  0
ARC
  5
3FA
100
AcDbEntity
  8
0
100
AcDbCircle
 62
7
  6
CONTINUOUS
 10
278.0315923686
 20
0.0
 40
369.1145796557
100
AcDbArc
 50
184.7786958179
 51
185.1682429046
  0
ARC
  5
3FB
100
AcDbEntity
  8
0
100
AcDbCircle
 62
7
  6
CONTINUOUS
 10
278.0315923686
 20
0.0002842331
 40
369.0764272389
100
AcDbArc
 50
184.8512912952
 51
184.9460842991
  0
ARC
  5
3FC
100
AcDbEntity
  8
RACCORDO
100
AcDbCircle
 62
253
  6
CONTINUOUS
 10
277.3424309911
 20
0.0000125957
 40
367.2016771374
100
AcDbArc
 50
173.9053934942
 51
180.0000019653
  0
ARC
  5
3FD
100
AcDbEntity
  8
RACCORDO
100
AcDbCircle
 62
253
  6
CONTINUOUS
 10
277.3348758191
 20
0.0000001791
 40
366.7056983483
100
AcDbArc
 50
173.9053955446
 51
186.0946036733
  0
ARC
  5
3FE
100
AcDbEntity
  8
0
100
AcDbCircle
 62
7
  6
CONTINUOUS
 10
250.3643766885
 20
3.8858973285
 40
342.2697676704
100
AcDbArc
 50
185.9512512835
 51
186.2288022495
  0
ARC
  5
3FF
100
AcDbEntity
  8
0
100
AcDbCircle
 62
7
  6
CONTINUOUS
 10
250.3475954753
 20
4.0165649321
 40
342.2344123607
100
AcDbArc
 50
185.8305555204
 51
186.1046227762
  0
ARC
  5
400
100
AcDbEntity
  8
0
100
AcDbCircle
 62
7
  6
CONTINUOUS
 10
243.9552076302
 20
2.8872810445
 40
336.007413023
100
AcDbArc
 50
185.7454240665
 51
186.1740605703
  0
ARC
  5
401
100
AcDbEntity
  8
0
100
AcDbCircle
 62
7
  6
CONTINUOUS
 10
243.9487171336
 20
3.03202477
 40
335.988573003
100
AcDbArc
 50
185.7705554881
 51
186.0656880766
  0
ARC
  5
402
100
AcDbEntity
  8
0
100
AcDbCircle
 62
7
  6
CONTINUOUS
 10
244.0338989273
 20
4.9368167918
 40
335.8574909742
100
AcDbArc
 50
186.2331238327
 51
186.3626668794
  0
ARC
  5
403
100
AcDbEntity
  8
0
100
AcDbCircle
 62
7
  6
CONTINUOUS
 10
244.0438894709
 20
5.0833050476
 40
335.8466163927
100
AcDbArc
 50
186.124847746
 51
186.5539957721
  0
ARC
  5
404
100
AcDbEntity
  8
0
100
AcDbCircle
 62
7
  6
CONTINUOUS
 10
201.2432461256
 20
5.4872046234
 40
293.2358455979
100
AcDbArc
 50
187.3887615306
 51
187.5911177635
  0
ARC
  5
405
100
AcDbEntity
  8
0
100
AcDbCircle
 62
7
  6
CONTINUOUS
 10
201.2227861833
 20
5.2549066234
 40
293.2306174343
100
AcDbArc
 50
187.3549735161
 51
187.5454663422
  0
ARC
  5
406
100
AcDbEntity
  8
0
100
AcDbCircle
 62
7
  6
CONTINUOUS
 10
201.2864700076
 20
5.4873535468
 40
293.0789817238
100
AcDbArc
 50
187.3927676426
 51
187.5952340695
  0
SPLINE
  5
407
100
AcDbEntity
  8
RACCORDO
100
AcDbSpline
 62
253
  6
CONTINUOUS
 70
0
 71
3
 72
17
 73
13
 74
11
 42
0.0000001
 43
0.0000001
 44
0.0000000001
 12
0.0060161222
 22
0.4544445223
 32
0.0
 13
0.4485340111
 23
0.073302513
 33
0.0
 40
0.0
 40
0.0
 40
0.0
 40
0.0
 40
0.1948503457
 40
0.379644211
 40
0.5484541141
 40
0.6958954714
 40
0.8173465437
 40
0.9091868592
 40
0.9432711551
 40
0.9693466936
 40
0.9877577961
 40
1.0
 40
1.0
 40
1.0
 40
1.0
 10
-38.9859871049
 20
39.4865874394
 30
0.0
 10
-38.9855963571
 20
39.5161036635
 30
0.0
 10
-38.984289712
 20
39.5736071918
 30
0.0
 10
-38.9806995391
 20
39.6566244332
 30
0.0
 10
-38.9756359715
 20
39.732367594
 30
0.0
 10
-38.9693024951
 20
39.7983917582
 30
0.0
 10
-38.9619217225
 20
39.8525452008
 30
0.0
 10
-38.954699165
 20
39.8893847209
 30
0.0
 10
-38.9481617016
 20
39.9114783606
 30
0.0
 10
-38.9436033215
 20
39.9225273316
 30
0.0
 10
-38.9391711564
 20
39.9298936037
 30
0.0
 10
-38.9351336868
 20
39.9328519056
 30
0.0
 10
-38.9333033386
 20
39.9331510337
 30
0.0
 11
-38.9859871049
 21
39.4865874394
 31
0.0
 11
-38.9839446594
 21
39.5751203143
 31
0.0
 11
-38.980251104
 21
39.6590249753
 31
0.0
 11
-38.9750268059
 21
39.7355683538
 31
0.0
 11
-38.9684420964
 21
39.8022538345
 31
0.0
 11
-38.9607117106
 21
39.856907447
 31
0.0
 11
-38.9520876695
 21
39.8977467944
 31
0.0
 11
-38.9475274591
 21
39.912551142
 31
0.0
 11
-38.9428512561
 21
39.9234404728
 31
0.0
 11
-38.9380966356
 21
39.9303259363
 31
0.0
 11
-38.9333033386
 21
39.9331510337
 31
0.0
  0
SPLINE
  5
408
100
AcDbEntity
  8
RACCORDO
100
AcDbSpline
 62
253
  6
CONTINUOUS
 70
0
 71
3
 72
9
 73
5
 74
3
 42
0.0000001
 43
0.0000001
 44
0.0000000001
 12
0.0
 22
-38.9860071018
 32
0.0
 13
-0.0726599451
 23
-38.985939392
 33
0.0
 40
0.0
 40
0.0
 40
0.0
 40
0.0
 40
0.250442544
 40
1.0
 40
1.0
 40
1.0
 40
1.0
 10
-39.4503604143
 20
-0.0
 30
0.0
 10
-39.4503604143
 20
-3.2545849326
 30
0.0
 10
-39.4533772359
 20
-16.2499204472
 30
0.0
 10
-39.4684331715
 20
-29.2452532544
 30
0.0
 10
-39.4865874394
 20
-38.9859871049
 30
0.0
 11
-39.4503604143
 21
-0.0
 31
0.0
 11
-39.4526266062
 21
-9.7637545349
 31
0.0
 11
-39.4865874394
 21
-38.9859871049
 31
0.0
  0
SPLINE
  5
409
100
AcDbEntity
  8
RACCORDO
100
AcDbSpline
 62
253
  6
CONTINUOUS
 70
0
 71
3
 72
9
 73
5
 74
3
 42
0.0000001
 43
0.0000001
 44
0.0000000001
 12
0.0
 22
38.9860071018
 32
0.0
 13
0.0726599451
 23
38.985939392
 33
0.0
 40
0.0
 40
0.0
 40
0.0
 40
0.0
 40
0.250442544
 40
1.0
 40
1.0
 40
1.0
 40
1.0
 10
39.4503604143
 20
0.0
 30
0.0
 10
39.4503604143
 20
3.2545849326
 30
0.0
 10
39.4533772359
 20
16.2499204472
 30
0.0
 10
39.4684331715
 20
29.2452532544
 30
0.0
 10
39.4865874394
 20
38.9859871049
 30
0.0
 11
39.4503604143
 21
0.0
 31
0.0
 11
39.4526266062
 21
9.7637545349
 31
0.0
 11
39.4865874394
 21
38.9859871049
 31
0.0
  0
SPLINE
  5
40A
100
AcDbEntity
  8
RACCORDO
100
AcDbSpline
 62
253
  6
CONTINUOUS
 70
0
 71
3
 72
9
 73
5
 74
3
 42
0.0000001
 43
0.0000001
 44
0.0000000001
 12
0.0726599452
 22
-38.985939401
 32
0.0
 13
0.0
 23
-38.9860071108
 33
0.0
 40
0.0
 40
0.0
 40
0.0
 40
0.0
 40
0.2493806543
 40
1.0
 40
1.0
 40
1.0
 40
1.0
 10
-39.4865874394
 20
38.9859871049
 30
0.0
 10
-39.4805474445
 20
35.7452074131
 30
0.0
 10
-39.4593829367
 20
22.7498887574
 30
0.0
 10
-39.4503604143
 20
9.7545503833
 30
0.0
 10
-39.4503604143
 20
0.0
 30
0.0
 11
-39.4865874394
 21
38.9859871049
 31
0.0
 11
-39.4707465256
 21
29.2636440491
 31
0.0
 11
-39.4503604143
 21
0.0
 31
0.0
  0
SPLINE
  5
40B
100
AcDbEntity
  8
RACCORDO
100
AcDbSpline
 62
253
  6
CONTINUOUS
 70
0
 71
3
 72
9
 73
5
 74
3
 42
0.0000001
 43
0.0000001
 44
0.0000000001
 12
-0.0726599452
 22
38.985939401
 32
0.0
 13
0.0
 23
38.9860071108
 33
0.0
 40
0.0
 40
0.0
 40
0.0
 40
0.0
 40
0.2493806543
 40
1.0
 40
1.0
 40
1.0
 40
1.0
 10
39.4865874394
 20
-38.9859871049
 30
0.0
 10
39.4805474445
 20
-35.7452074131
 30
0.0
 10
39.4593829367
 20
-22.7498887574
 30
0.0
 10
39.4503604143
 20
-9.7545503833
 30
0.0
 10
39.4503604143
 20
0.0
 30
0.0
 11
39.4865874394
 21
-38.9859871049
 31
0.0
 11
39.4707465256
 21
-29.2636440491
 31
0.0
 11
39.4503604143
 21
0.0
 31
0.0
  0
SPLINE
  5
40C
100
AcDbEntity
  8
RACCORDO
100
AcDbSpline
 62
253
  6
CONTINUOUS
 70
0
 71
3
 72
17
 73
13
 74
11
 42
0.0000001
 43
0.0000001
 44
0.0000000001
 12
-0.0060161322
 22
0.4544445204
 32
0.0
 13
-0.4485340069
 23
0.0733025277
 33
0.0
 40
0.0
 40
0.0
 40
0.0
 40
0.0
 40
0.1948503466
 40
0.3796442127
 40
0.5484541166
 40
0.6958954746
 40
0.8173465472
 40
0.9091868627
 40
0.9432711583
 40
0.9693466963
 40
0.9877577979
 40
1.0
 40
1.0
 40
1.0
 40
1.0
 10
38.9859871049
 20
39.4865874394
 30
0.0
 10
38.9855963564
 20
39.5161036635
 30
0.0
 10
38.9842897102
 20
39.5736071919
 30
0.0
 10
38.980699536
 20
39.6566244333
 30
0.0
 10
38.9756359676
 20
39.732367594
 30
0.0
 10
38.9693024908
 20
39.7983917581
 30
0.0
 10
38.9619217185
 20
39.8525452007
 30
0.0
 10
38.9546991616
 20
39.8893847208
 30
0.0
 10
38.948161699
 20
39.9114783605
 30
0.0
 10
38.9436033196
 20
39.9225273315
 30
0.0
 10
38.9391711555
 20
39.9298936034
 30
0.0
 10
38.9351336865
 20
39.9328519056
 30
0.0
 10
38.9333033386
 20
39.9331510337
 30
0.0
 11
38.9859871049
 21
39.4865874394
 31
0.0
 11
38.9839446576
 21
39.5751203143
 31
0.0
 11
38.980251101
 21
39.6590249753
 31
0.0
 11
38.9750268021
 21
39.7355683538
 31
0.0
 11
38.9684420922
 21
39.8022538345
 31
0.0
 11
38.9607117067
 21
39.856907447
 31
0.0
 11
38.9520876664
 21
39.8977467944
 31
0.0
 11
38.9475274566
 21
39.912551142
 31
0.0
 11
38.9428512544
 21
39.9234404728
 31
0.0
 11
38.9380966347
 21
39.9303259363
 31
0.0
 11
38.9333033386
 21
39.9331510337
 31
0.0
  0
SPLINE
  5
40D
100
AcDbEntity
  8
RACCORDO
100
AcDbSpline
 62
253
  6
CONTINUOUS
 70
0
 71
3
 72
17
 73
13
 74
11
 42
0.0000001
 43
0.0000001
 44
0.0000000001
 12
0.4544445223
 22
-0.0060161222
 32
0.0
 13
0.073302513
 23
-0.4485340111
 33
0.0
 40
0.0
 40
0.0
 40
0.0
 40
0.0
 40
0.1948503457
 40
0.379644211
 40
0.5484541141
 40
0.6958954714
 40
0.8173465437
 40
0.9091868592
 40
0.9432711551
 40
0.9693466936
 40
0.9877577961
 40
1.0
 40
1.0
 40
1.0
 40
1.0
 10
39.4865874394
 20
38.9859871049
 30
0.0
 10
39.5161036635
 20
38.9855963571
 30
0.0
 10
39.5736071918
 20
38.984289712
 30
0.0
 10
39.6566244332
 20
38.9806995391
 30
0.0
 10
39.732367594
 20
38.9756359715
 30
0.0
 10
39.7983917582
 20
38.9693024951
 30
0.0
 10
39.8525452008
 20
38.9619217225
 30
0.0
 10
39.8893847209
 20
38.954699165
 30
0.0
 10
39.9114783606
 20
38.9481617016
 30
0.0
 10
39.9225273316
 20
38.9436033215
 30
0.0
 10
39.9298936037
 20
38.9391711564
 30
0.0
 10
39.9328519056
 20
38.9351336868
 30
0.0
 10
39.9331510337
 20
38.9333033386
 30
0.0
 11
39.4865874394
 21
38.9859871049
 31
0.0
 11
39.5751203143
 21
38.9839446594
 31
0.0
 11
39.6590249753
 21
38.980251104
 31
0.0
 11
39.7355683538
 21
38.9750268059
 31
0.0
 11
39.8022538345
 21
38.9684420964
 31
0.0
 11
39.856907447
 21
38.9607117106
 31
0.0
 11
39.8977467944
 21
38.9520876695
 31
0.0
 11
39.912551142
 21
38.9475274591
 31
0.0
 11
39.9234404728
 21
38.9428512561
 31
0.0
 11
39.9303259363
 21
38.9380966356
 31
0.0
 11
39.9331510337
 21
38.9333033386
 31
0.0
  0
SPLINE
  5
40E
100
AcDbEntity
  8
RACCORDO
100
AcDbSpline
 62
253
  6
CONTINUOUS
 70
0
 71
3
 72
17
 73
13
 74
11
 42
0.0000001
 43
0.0000001
 44
0.0000000001
 12
0.4544445204
 22
0.0060161322
 32
0.0
 13
0.0733025277
 23
0.4485340069
 33
0.0
 40
0.0
 40
0.0
 40
0.0
 40
0.0
 40
0.1948503466
 40
0.3796442127
 40
0.5484541166
 40
0.6958954746
 40
0.8173465472
 40
0.9091868627
 40
0.9432711583
 40
0.9693466963
 40
0.9877577979
 40
1.0
 40
1.0
 40
1.0
 40
1.0
 10
39.4865874394
 20
-38.9859871049
 30
0.0
 10
39.5161036635
 20
-38.9855963564
 30
0.0
 10
39.5736071919
 20
-38.9842897102
 30
0.0
 10
39.6566244333
 20
-38.980699536
 30
0.0
 10
39.732367594
 20
-38.9756359676
 30
0.0
 10
39.7983917581
 20
-38.9693024908
 30
0.0
 10
39.8525452007
 20
-38.9619217185
 30
0.0
 10
39.8893847208
 20
-38.9546991616
 30
0.0
 10
39.9114783605
 20
-38.948161699
 30
0.0
 10
39.9225273315
 20
-38.9436033196
 30
0.0
 10
39.9298936034
 20
-38.9391711555
 30
0.0
 10
39.9328519056
 20
-38.9351336865
 30
0.0
 10
39.9331510337
 20
-38.9333033386
 30
0.0
 11
39.4865874394
 21
-38.9859871049
 31
0.0
 11
39.5751203143
 21
-38.9839446576
 31
0.0
 11
39.6590249753
 21
-38.980251101
 31
0.0
 11
39.7355683538
 21
-38.9750268021
 31
0.0
 11
39.8022538345
 21
-38.9684420922
 31
0.0
 11
39.856907447
 21
-38.9607117067
 31
0.0
 11
39.8977467944
 21
-38.9520876664
 31
0.0
 11
39.912551142
 21
-38.9475274566
 31
0.0
 11
39.9234404728
 21
-38.9428512544
 31
0.0
 11
39.9303259363
 21
-38.9380966347
 31
0.0
 11
39.9331510337
 21
-38.9333033386
 31
0.0
  0
SPLINE
  5
40F
100
AcDbEntity
  8
RACCORDO
100
AcDbSpline
 62
253
  6
CONTINUOUS
 70
0
 71
3
 72
17
 73
13
 74
11
 42
0.0000001
 43
0.0000001
 44
0.0000000001
 12
-0.0060161222
 22
-0.4544445223
 32
0.0
 13
-0.4485340111
 23
-0.073302513
 33
0.0
 40
0.0
 40
0.0
 40
0.0
 40
0.0
 40
0.1948503457
 40
0.379644211
 40
0.5484541141
 40
0.6958954714
 40
0.8173465437
 40
0.9091868592
 40
0.9432711551
 40
0.9693466936
 40
0.9877577961
 40
1.0
 40
1.0
 40
1.0
 40
1.0
 10
38.9859871049
 20
-39.4865874394
 30
0.0
 10
38.9855963571
 20
-39.5161036635
 30
0.0
 10
38.984289712
 20
-39.5736071918
 30
0.0
 10
38.9806995391
 20
-39.6566244332
 30
0.0
 10
38.9756359715
 20
-39.732367594
 30
0.0
 10
38.9693024951
 20
-39.7983917582
 30
0.0
 10
38.9619217225
 20
-39.8525452008
 30
0.0
 10
38.954699165
 20
-39.8893847209
 30
0.0
 10
38.9481617016
 20
-39.9114783606
 30
0.0
 10
38.9436033215
 20
-39.9225273316
 30
0.0
 10
38.9391711564
 20
-39.9298936037
 30
0.0
 10
38.9351336868
 20
-39.9328519056
 30
0.0
 10
38.9333033386
 20
-39.9331510337
 30
0.0
 11
38.9859871049
 21
-39.4865874394
 31
0.0
 11
38.9839446594
 21
-39.5751203143
 31
0.0
 11
38.980251104
 21
-39.6590249753
 31
0.0
 11
38.9750268059
 21
-39.7355683538
 31
0.0
 11
38.9684420964
 21
-39.8022538345
 31
0.0
 11
38.9607117106
 21
-39.856907447
 31
0.0
 11
38.9520876695
 21
-39.8977467944
 31
0.0
 11
38.9475274591
 21
-39.912551142
 31
0.0
 11
38.9428512561
 21
-39.9234404728
 31
0.0
 11
38.9380966356
 21
-39.9303259363
 31
0.0
 11
38.9333033386
 21
-39.9331510337
 31
0.0
  0
SPLINE
  5
410
100
AcDbEntity
  8
RACCORDO
100
AcDbSpline
 62
253
  6
CONTINUOUS
 70
0
 71
3
 72
17
 73
13
 74
11
 42
0.0000001
 43
0.0000001
 44
0.0000000001
 12
0.0060161322
 22
-0.4544445204
 32
0.0
 13
0.4485340069
 23
-0.0733025277
 33
0.0
 40
0.0
 40
0.0
 40
0.0
 40
0.0
 40
0.1948503466
 40
0.3796442127
 40
0.5484541166
 40
0.6958954746
 40
0.8173465472
 40
0.9091868627
 40
0.9432711583
 40
0.9693466963
 40
0.9877577979
 40
1.0
 40
1.0
 40
1.0
 40
1.0
 10
-38.9859871049
 20
-39.4865874394
 30
0.0
 10
-38.9855963564
 20
-39.5161036635
 30
0.0
 10
-38.9842897102
 20
-39.5736071919
 30
0.0
 10
-38.980699536
 20
-39.6566244333
 30
0.0
 10
-38.9756359676
 20
-39.732367594
 30
0.0
 10
-38.9693024908
 20
-39.7983917581
 30
0.0
 10
-38.9619217185
 20
-39.8525452007
 30
0.0
 10
-38.9546991616
 20
-39.8893847208
 30
0.0
 10
-38.948161699
 20
-39.9114783605
 30
0.0
 10
-38.9436033196
 20
-39.9225273315
 30
0.0
 10
-38.9391711555
 20
-39.9298936034
 30
0.0
 10
-38.9351336865
 20
-39.9328519056
 30
0.0
 10
-38.9333033386
 20
-39.9331510337
 30
0.0
 11
-38.9859871049
 21
-39.4865874394
 31
0.0
 11
-38.9839446576
 21
-39.5751203143
 31
0.0
 11
-38.980251101
 21
-39.6590249753
 31
0.0
 11
-38.9750268021
 21
-39.7355683538
 31
0.0
 11
-38.9684420922
 21
-39.8022538345
 31
0.0
 11
-38.9607117067
 21
-39.856907447
 31
0.0
 11
-38.9520876664
 21
-39.8977467944
 31
0.0
 11
-38.9475274566
 21
-39.912551142
 31
0.0
 11
-38.9428512544
 21
-39.9234404728
 31
0.0
 11
-38.9380966347
 21
-39.9303259363
 31
0.0
 11
-38.9333033386
 21
-39.9331510337
 31
0.0
  0
SPLINE
  5
411
100
AcDbEntity
  8
RACCORDO
100
AcDbSpline
 62
253
  6
CONTINUOUS
 70
0
 71
3
 72
17
 73
13
 74
11
 42
0.0000001
 43
0.0000001
 44
0.0000000001
 12
-0.4544445223
 22
0.0060161222
 32
0.0
 13
-0.073302513
 23
0.4485340111
 33
0.0
 40
0.0
 40
0.0
 40
0.0
 40
0.0
 40
0.1948503457
 40
0.379644211
 40
0.5484541141
 40
0.6958954714
 40
0.8173465437
 40
0.9091868592
 40
0.9432711551
 40
0.9693466936
 40
0.9877577961
 40
1.0
 40
1.0
 40
1.0
 40
1.0
 10
-39.4865874394
 20
-38.9859871049
 30
0.0
 10
-39.5161036635
 20
-38.9855963571
 30
0.0
 10
-39.5736071918
 20
-38.984289712
 30
0.0
 10
-39.6566244332
 20
-38.9806995391
 30
0.0
 10
-39.732367594
 20
-38.9756359715
 30
0.0
 10
-39.7983917582
 20
-38.9693024951
 30
0.0
 10
-39.8525452008
 20
-38.9619217225
 30
0.0
 10
-39.8893847209
 20
-38.954699165
 30
0.0
 10
-39.9114783606
 20
-38.9481617016
 30
0.0
 10
-39.9225273316
 20
-38.9436033215
 30
0.0
 10
-39.9298936037
 20
-38.9391711564
 30
0.0
 10
-39.9328519056
 20
-38.9351336868
 30
0.0
 10
-39.9331510337
 20
-38.9333033386
 30
0.0
 11
-39.4865874394
 21
-38.9859871049
 31
0.0
 11
-39.5751203143
 21
-38.9839446594
 31
0.0
 11
-39.6590249753
 21
-38.980251104
 31
0.0
 11
-39.7355683538
 21
-38.9750268059
 31
0.0
 11
-39.8022538345
 21
-38.9684420964
 31
0.0
 11
-39.856907447
 21
-38.9607117106
 31
0.0
 11
-39.8977467944
 21
-38.9520876695
 31
0.0
 11
-39.912551142
 21
-38.9475274591
 31
0.0
 11
-39.9234404728
 21
-38.9428512561
 31
0.0
 11
-39.9303259363
 21
-38.9380966356
 31
0.0
 11
-39.9331510337
 21
-38.9333033386
 31
0.0
  0
SPLINE
  5
412
100
AcDbEntity
  8
RACCORDO
100
AcDbSpline
 62
253
  6
CONTINUOUS
 70
0
 71
3
 72
17
 73
13
 74
11
 42
0.0000001
 43
0.0000001
 44
0.0000000001
 12
-0.4544445204
 22
-0.0060161322
 32
0.0
 13
-0.0733025277
 23
-0.4485340069
 33
0.0
 40
0.0
 40
0.0
 40
0.0
 40
0.0
 40
0.1948503466
 40
0.3796442127
 40
0.5484541166
 40
0.6958954746
 40
0.8173465472
 40
0.9091868627
 40
0.9432711583
 40
0.9693466963
 40
0.9877577979
 40
1.0
 40
1.0
 40
1.0
 40
1.0
 10
-39.4865874394
 20
38.9859871049
 30
0.0
 10
-39.5161036635
 20
38.9855963564
 30
0.0
 10
-39.5736071919
 20
38.9842897102
 30
0.0
 10
-39.6566244333
 20
38.980699536
 30
0.0
 10
-39.732367594
 20
38.9756359676
 30
0.0
 10
-39.7983917581
 20
38.9693024908
 30
0.0
 10
-39.8525452007
 20
38.9619217185
 30
0.0
 10
-39.8893847208
 20
38.9546991616
 30
0.0
 10
-39.9114783605
 20
38.948161699
 30
0.0
 10
-39.9225273315
 20
38.9436033196
 30
0.0
 10
-39.9298936034
 20
38.9391711555
 30
0.0
 10
-39.9328519056
 20
38.9351336865
 30
0.0
 10
-39.9331510337
 20
38.9333033386
 30
0.0
 11
-39.4865874394
 21
38.9859871049
 31
0.0
 11
-39.5751203143
 21
38.9839446576
 31
0.0
 11
-39.6590249753
 21
38.980251101
 31
0.0
 11
-39.7355683538
 21
38.9750268021
 31
0.0
 11
-39.8022538345
 21
38.9684420922
 31
0.0
 11
-39.856907447
 21
38.9607117067
 31
0.0
 11
-39.8977467944
 21
38.9520876664
 31
0.0
 11
-39.912551142
 21
38.9475274566
 31
0.0
 11
-39.9234404728
 21
38.9428512544
 31
0.0
 11
-39.9303259363
 21
38.9380966347
 31
0.0
 11
-39.9331510337
 21
38.9333033386
 31
0.0
  0
SPLINE
  5
413
100
AcDbEntity
  8
0
100
AcDbSpline
 62
7
  6
CONTINUOUS
 70
0
 71
3
 72
11
 73
7
 74
5
 42
0.0000001
 43
0.0000001
 44
0.0000000001
 12
0.2965440486
 22
0.0263556242
 32
0.0
 13
0.0
 23
0.297712935
 33
0.0
 40
0.0
 40
0.0
 40
0.0
 40
0.0
 40
0.2499494622
 40
0.4999301807
 40
0.7499492652
 40
1.0
 40
1.0
 40
1.0
 40
1.0
 10
-78.6509764829
 20
22.5533493718
 30
0.0
 10
-78.6262694744
 20
22.5555452298
 30
0.0
 10
-78.577203577
 20
22.569550006
 30
0.0
 10
-78.5169237684
 20
22.6160330955
 30
0.0
 10
-78.4774922795
 20
22.6810847942
 30
0.0
 10
-78.4684076314
 20
22.731177636
 30
0.0
 10
-78.4684076314
 20
22.755992082
 30
0.0
 11
-78.6509764829
 21
22.5533493718
 31
0.0
 11
-78.5794269299
 21
22.5737940293
 31
0.0
 11
-78.5204021599
 21
22.6191237551
 31
0.0
 11
-78.4817946266
 21
22.6827623138
 31
0.0
 11
-78.4684076314
 21
22.755992082
 31
0.0
  0
LINE
  5
414
100
AcDbEntity
  8
0
100
AcDbLine
 62
7
  6
CONTINUOUS
 10
-79.6684076314
 20
22.462968108
 11
-78.6509764829
 21
22.5533493718
  0
LINE
  5
415
100
AcDbEntity
  8
0
100
AcDbLine
 62
7
  6
CONTINUOUS
 10
-78.6509764829
 20
28.1466506282
 11
-79.6684076314
 21
28.237031892
  0
SPLINE
  5
416
100
AcDbEntity
  8
0
100
AcDbSpline
 62
7
  6
CONTINUOUS
 70
0
 71
3
 72
11
 73
7
 74
5
 42
0.0000001
 43
0.0000001
 44
0.0000000001
 12
0.0
 22
0.2977129349
 32
0.0
 13
-0.2965440485
 23
0.0263556242
 33
0.0
 40
0.0
 40
0.0
 40
0.0
 40
0.0
 40
0.2500529778
 40
0.500073741
 40
0.7500528708
 40
1.0
 40
1.0
 40
1.0
 40
1.0
 10
-78.4684076314
 20
27.944007918
 30
0.0
 10
-78.4684076314
 20
27.9688225866
 30
0.0
 10
-78.4774924218
 20
28.0189158326
 30
0.0
 10
-78.5169243607
 20
28.08396757
 30
0.0
 10
-78.5772041981
 20
28.1304502042
 30
0.0
 10
-78.626269705
 20
28.1444547907
 30
0.0
 10
-78.6509764829
 20
28.1466506282
 30
0.0
 11
-78.4684076314
 21
27.944007918
 31
0.0
 11
-78.4817948594
 21
28.0172383225
 31
0.0
 11
-78.5204029503
 21
28.0808771273
 31
0.0
 11
-78.5794275638
 21
28.1262062804
 31
0.0
 11
-78.6509764829
 21
28.1466506282
 31
0.0
  0
SPLINE
  5
417
100
AcDbEntity
  8
0
100
AcDbSpline
 62
7
  6
CONTINUOUS
 70
0
 71
3
 72
11
 73
7
 74
5
 42
0.0000001
 43
0.0000001
 44
0.0000000001
 12
0.2965440486
 22
0.0263556242
 32
0.0
 13
0.0
 23
0.297712935
 33
0.0
 40
0.0
 40
0.0
 40
0.0
 40
0.0
 40
0.2499494622
 40
0.4999301807
 40
0.7499492652
 40
1.0
 40
1.0
 40
1.0
 40
1.0
 10
-78.6509764829
 20
-28.1466506282
 30
0.0
 10
-78.6262694744
 20
-28.1444547702
 30
0.0
 10
-78.577203577
 20
-28.130449994
 30
0.0
 10
-78.5169237684
 20
-28.0839669045
 30
0.0
 10
-78.4774922795
 20
-28.0189152058
 30
0.0
 10
-78.4684076314
 20
-27.968822364
 30
0.0
 10
-78.4684076314
 20
-27.944007918
 30
0.0
 11
-78.6509764829
 21
-28.1466506282
 31
0.0
 11
-78.5794269299
 21
-28.1262059707
 31
0.0
 11
-78.5204021599
 21
-28.0808762449
 31
0.0
 11
-78.4817946266
 21
-28.0172376862
 31
0.0
 11
-78.4684076314
 21
-27.944007918
 31
0.0
  0
LINE
  5
418
100
AcDbEntity
  8
0
100
AcDbLine
 62
7
  6
CONTINUOUS
 10
-79.6684076314
 20
-28.237031892
 11
-78.6509764829
 21
-28.1466506282
  0
LINE
  5
419
100
AcDbEntity
  8
0
100
AcDbLine
 62
7
  6
CONTINUOUS
 10
-78.6509764829
 20
-22.5533493718
 11
-79.6684076314
 21
-22.462968108
  0
SPLINE
  5
41A
100
AcDbEntity
  8
0
100
AcDbSpline
 62
7
  6
CONTINUOUS
 70
0
 71
3
 72
11
 73
7
 74
5
 42
0.0000001
 43
0.0000001
 44
0.0000000001
 12
0.0
 22
0.2977129349
 32
0.0
 13
-0.2965440485
 23
0.0263556242
 33
0.0
 40
0.0
 40
0.0
 40
0.0
 40
0.0
 40
0.2500529778
 40
0.500073741
 40
0.7500528708
 40
1.0
 40
1.0
 40
1.0
 40
1.0
 10
-78.4684076314
 20
-22.755992082
 30
0.0
 10
-78.4684076314
 20
-22.7311774134
 30
0.0
 10
-78.4774924218
 20
-22.6810841674
 30
0.0
 10
-78.5169243607
 20
-22.61603243
 30
0.0
 10
-78.5772041981
 20
-22.5695497958
 30
0.0
 10
-78.626269705
 20
-22.5555452093
 30
0.0
 10
-78.6509764829
 20
-22.5533493718
 30
0.0
 11
-78.4684076314
 21
-22.755992082
 31
0.0
 11
-78.4817948594
 21
-22.6827616775
 31
0.0
 11
-78.5204029503
 21
-22.6191228727
 31
0.0
 11
-78.5794275638
 21
-22.5737937196
 31
0.0
 11
-78.6509764829
 21
-22.5533493718
 31
0.0
  0
SPLINE
  5
41B
100
AcDbEntity
  8
ASSI
100
AcDbSpline
 62
7
  6
CONTINUOUS
 70
0
 71
3
 72
14
 73
10
 74
8
 42
0.0000001
 43
0.0000001
 44
0.0000000001
 12
-0.0514127642
 22
-0.19977827
 32
0.0
 13
0.0237045307
 23
0.2049212647
 33
0.0
 40
0.0
 40
0.0
 40
0.0
 40
0.0
 40
0.0091638209
 40
0.0131242378
 40
0.0563846146
 40
0.1401755094
 40
0.2582801464
 40
0.5812462432
 40
1.0
 40
1.0
 40
1.0
 40
1.0
 10
-77.7299614121
 20
-1.9504560093
 30
0.0
 10
-77.7301184579
 20
-1.9510662534
 30
0.0
 10
-77.7306015675
 20
-1.953065851
 30
0.0
 10
-77.7294012983
 20
-1.94782983
 30
0.0
 10
-77.7279466795
 20
-1.9409372438
 30
0.0
 10
-77.7244432787
 20
-1.9230764863
 30
0.0
 10
-77.7184688992
 20
-1.8883212856
 30
0.0
 10
-77.7096577149
 20
-1.8292459071
 30
0.0
 10
-77.7034166732
 20
-1.7788262511
 30
0.0
 10
-77.7001078861
 20
-1.7502224013
 30
0.0
 11
-77.7299614121
 21
-1.9504560093
 31
0.0
 11
-77.7304213687
 21
-1.9522895826
 31
0.0
 11
-77.7302412663
 21
-1.951492696
 31
0.0
 11
-77.7283497364
 21
-1.9427713767
 31
0.0
 11
-77.7250347556
 21
-1.9258071998
 31
0.0
 11
-77.7208366879
 21
-1.9018080704
 31
0.0
 11
-77.7108971382
 21
-1.835929733
 31
0.0
 11
-77.7001078861
 21
-1.7502224013
 31
0.0
  0
SPLINE
  5
41C
100
AcDbEntity
  8
ASSI
100
AcDbSpline
 62
7
  6
CONTINUOUS
 70
0
 71
3
 72
9
 73
5
 74
3
 42
0.0000001
 43
0.0000001
 44
0.0000000001
 12
-0.0218270428
 22
0.1887655064
 32
0.0
 13
-0.0373376724
 23
0.1863189052
 33
0.0
 40
0.0
 40
0.0
 40
0.0
 40
0.0
 40
0.3329469779
 40
1.0
 40
1.0
 40
1.0
 40
1.0
 10
-77.7001119163
 20
1.7502604403
 30
0.0
 10
-77.7025343323
 20
1.7712100753
 30
0.0
 10
-77.7103100423
 20
1.8340602985
 30
0.0
 10
-77.7191321987
 20
1.8968577069
 30
0.0
 10
-77.7274342678
 20
1.9382859032
 30
0.0
 11
-77.7001119163
 21
1.7502604403
 31
0.0
 11
-77.707828133
 21
1.8130558043
 31
0.0
 11
-77.7274342678
 21
1.9382859032
 31
0.0
  0
SPLINE
  5
41D
100
AcDbEntity
  8
0
100
AcDbSpline
 62
7
  6
CONTINUOUS
 70
0
 71
3
 72
11
 73
7
 74
5
 42
0.0000001
 43
0.0000001
 44
0.0000000001
 12
0.0000731037
 22
-0.2783770176
 32
0.0
 13
-0.2783770272
 23
0.0
 33
0.0
 40
0.0
 40
0.0
 40
0.0
 40
0.0
 40
0.2857921927
 40
0.519547331
 40
0.7448381797
 40
1.0
 40
1.0
 40
1.0
 40
1.0
 10
-80.4684172801
 20
-10.3280128268
 30
0.0
 10
-80.468410316
 20
-10.3545321528
 30
0.0
 10
-80.4739187123
 20
-10.4035195561
 30
0.0
 10
-80.5115146744
 20
-10.4651491365
 30
0.0
 10
-80.5730568788
 20
-10.4962134522
 30
0.0
 10
-80.6180806523
 20
-10.5
 30
0.0
 10
-80.6417577153
 20
-10.5
 30
0.0
 11
-80.4684172801
 21
-10.3280128268
 31
0.0
 11
-80.4807387999
 21
-10.4066108706
 31
0.0
 11
-80.516190562
 21
-10.4611777618
 31
0.0
 11
-80.5712797648
 21
-10.4911519323
 31
0.0
 11
-80.6417577153
 21
-10.5
 31
0.0
  0
SPLINE
  5
41E
100
AcDbEntity
  8
0
100
AcDbSpline
 62
7
  6
CONTINUOUS
 70
0
 71
3
 72
11
 73
7
 74
5
 42
0.0000001
 43
0.0000001
 44
0.0000000001
 12
-0.0000731037
 22
0.2783770176
 32
0.0
 13
0.2783770272
 23
0.0
 33
0.0
 40
0.0
 40
0.0
 40
0.0
 40
0.0
 40
0.2857921927
 40
0.519547331
 40
0.7448381797
 40
1.0
 40
1.0
 40
1.0
 40
1.0
 10
-83.4683979827
 20
10.3280128268
 30
0.0
 10
-83.4684049469
 20
10.3545321528
 30
0.0
 10
-83.4628965505
 20
10.4035195561
 30
0.0
 10
-83.4253005884
 20
10.4651491365
 30
0.0
 10
-83.363758384
 20
10.4962134522
 30
0.0
 10
-83.3187346105
 20
10.5
 30
0.0
 10
-83.2950575475
 20
10.5
 30
0.0
 11
-83.4683979827
 21
10.3280128268
 31
0.0
 11
-83.4560764629
 21
10.4066108706
 31
0.0
 11
-83.4206247008
 21
10.4611777618
 31
0.0
 11
-83.365535498
 21
10.4911519323
 31
0.0
 11
-83.2950575475
 21
10.5
 31
0.0
  0
SPLINE
  5
41F
100
AcDbEntity
  8
0
100
AcDbSpline
 62
7
  6
CONTINUOUS
 70
0
 71
3
 72
11
 73
7
 74
5
 42
0.0000001
 43
0.0000001
 44
0.0000000001
 12
0.2783770272
 22
0.0
 32
0.0
 13
-0.0000731037
 23
-0.2783770176
 33
0.0
 40
0.0
 40
0.0
 40
0.0
 40
0.0
 40
0.2551618203
 40
0.480452669
 40
0.7142078073
 40
1.0
 40
1.0
 40
1.0
 40
1.0
 10
-80.6417577153
 20
10.5
 30
0.0
 10
-80.6180806523
 20
10.5
 30
0.0
 10
-80.5730568788
 20
10.4962134522
 30
0.0
 10
-80.5115146744
 20
10.4651491365
 30
0.0
 10
-80.4739187123
 20
10.4035195561
 30
0.0
 10
-80.468410316
 20
10.3545321528
 30
0.0
 10
-80.4684172801
 20
10.3280128268
 30
0.0
 11
-80.6417577153
 21
10.5
 31
0.0
 11
-80.5712797648
 21
10.4911519323
 31
0.0
 11
-80.516190562
 21
10.4611777618
 31
0.0
 11
-80.4807387999
 21
10.4066108706
 31
0.0
 11
-80.4684172801
 21
10.3280128268
 31
0.0
  0
SPLINE
  5
420
100
AcDbEntity
  8
0
100
AcDbSpline
 62
7
  6
CONTINUOUS
 70
0
 71
3
 72
11
 73
7
 74
5
 42
0.0000001
 43
0.0000001
 44
0.0000000001
 12
-0.2783770272
 22
0.0
 32
0.0
 13
0.0000731037
 23
0.2783770176
 33
0.0
 40
0.0
 40
0.0
 40
0.0
 40
0.0
 40
0.2551618203
 40
0.480452669
 40
0.7142078073
 40
1.0
 40
1.0
 40
1.0
 40
1.0
 10
-83.2950575475
 20
-10.5
 30
0.0
 10
-83.3187346105
 20
-10.5
 30
0.0
 10
-83.363758384
 20
-10.4962134522
 30
0.0
 10
-83.4253005884
 20
-10.4651491365
 30
0.0
 10
-83.4628965505
 20
-10.4035195561
 30
0.0
 10
-83.4684049469
 20
-10.3545321528
 30
0.0
 10
-83.4683979827
 20
-10.3280128268
 30
0.0
 11
-83.2950575475
 21
-10.5
 31
0.0
 11
-83.365535498
 21
-10.4911519323
 31
0.0
 11
-83.4206247008
 21
-10.4611777618
 31
0.0
 11
-83.4560764629
 21
-10.4066108706
 31
0.0
 11
-83.4683979827
 21
-10.3280128268
 31
0.0
  0
SPLINE
  5
421
100
AcDbEntity
  8
0
100
AcDbSpline
 62
7
  6
CONTINUOUS
 70
0
 71
3
 72
9
 73
5
 74
3
 42
0.0000001
 43
0.0000001
 44
0.0000000001
 12
0.015072714
 22
0.3086743374
 32
0.0
 13
0.1208861647
 23
0.2844179468
 33
0.0
 40
0.0
 40
0.0
 40
0.0
 40
0.0
 40
0.2473913171
 40
1.0
 40
1.0
 40
1.0
 40
1.0
 10
-77.926599388
 20
-2.0501558692
 30
0.0
 10
-77.9253564352
 20
-2.0247014189
 30
0.0
 10
-77.9156594521
 20
-1.9220748391
 30
0.0
 10
-77.8872804827
 20
-1.821347749
 30
0.0
 10
-77.8569538236
 20
-1.7499959435
 30
0.0
 11
-77.926599388
 21
-2.0501558692
 31
0.0
 11
-77.9194151527
 21
-1.9740398229
 31
0.0
 11
-77.8569538236
 21
-1.7499959435
 31
0.0
  0
SPLINE
  5
422
100
AcDbEntity
  8
0
100
AcDbSpline
 62
7
  6
CONTINUOUS
 70
0
 71
3
 72
9
 73
5
 74
3
 42
0.0000001
 43
0.0000001
 44
0.0000000001
 12
0.015072714
 22
-0.3086743374
 32
0.0
 13
0.1208861647
 23
-0.2844179468
 33
0.0
 40
0.0
 40
0.0
 40
0.0
 40
0.0
 40
0.2473913171
 40
1.0
 40
1.0
 40
1.0
 40
1.0
 10
-77.926599388
 20
2.0501558692
 30
0.0
 10
-77.9253564352
 20
2.0247014189
 30
0.0
 10
-77.9156594521
 20
1.9220748391
 30
0.0
 10
-77.8872804827
 20
1.821347749
 30
0.0
 10
-77.8569538236
 20
1.7499959435
 30
0.0
 11
-77.926599388
 21
2.0501558692
 31
0.0
 11
-77.9194151527
 21
1.9740398229
 31
0.0
 11
-77.8569538236
 21
1.7499959435
 31
0.0
  0
SPLINE
  5
423
100
AcDbEntity
  8
0
100
AcDbSpline
 62
7
  6
CONTINUOUS
 70
0
 71
3
 72
11
 73
7
 74
5
 42
0.0000001
 43
0.0000001
 44
0.0000000001
 12
0.0
 22
-1.635641417
 32
0.0
 13
1.635641417
 23
0.0
 33
0.0
 40
0.0
 40
0.0
 40
0.0
 40
0.0
 40
0.2504585489
 40
0.5006226691
 40
0.750422088
 40
1.0
 40
1.0
 40
1.0
 40
1.0
 10
-77.8954707709
 20
-6.45
 30
0.0
 10
-77.8954707709
 20
-6.5865534586
 30
0.0
 10
-77.8411038197
 20
-6.862472041
 30
0.0
 10
-77.608473632
 20
-7.2114556679
 30
0.0
 10
-77.2608025018
 20
-7.4452802319
 30
0.0
 10
-76.9855396611
 20
-7.5
 30
0.0
 10
-76.8494663379
 20
-7.5
 30
0.0
 11
-77.8954707709
 21
-6.45
 31
0.0
 11
-77.8158357784
 21
-6.8518456065
 31
0.0
 11
-77.5891031656
 21
-7.1924621202
 31
0.0
 11
-77.2497828005
 21
-7.4200608148
 31
0.0
 11
-76.8494663379
 21
-7.5
 31
0.0
  0
SPLINE
  5
424
100
AcDbEntity
  8
0
100
AcDbSpline
 62
7
  6
CONTINUOUS
 70
0
 71
3
 72
11
 73
7
 74
5
 42
0.0000001
 43
0.0000001
 44
0.0000000001
 12
0.0
 22
1.635641417
 32
0.0
 13
1.635641417
 23
-0.0
 33
0.0
 40
0.0
 40
0.0
 40
0.0
 40
0.0
 40
0.2504585489
 40
0.5006226691
 40
0.750422088
 40
1.0
 40
1.0
 40
1.0
 40
1.0
 10
-77.8954707709
 20
6.45
 30
0.0
 10
-77.8954707709
 20
6.5865534586
 30
0.0
 10
-77.8411038197
 20
6.862472041
 30
0.0
 10
-77.608473632
 20
7.2114556679
 30
0.0
 10
-77.2608025018
 20
7.4452802319
 30
0.0
 10
-76.9855396611
 20
7.5
 30
0.0
 10
-76.8494663379
 20
7.5
 30
0.0
 11
-77.8954707709
 21
6.45
 31
0.0
 11
-77.8158357784
 21
6.8518456065
 31
0.0
 11
-77.5891031656
 21
7.1924621202
 31
0.0
 11
-77.2497828005
 21
7.4200608148
 31
0.0
 11
-76.8494663379
 21
7.5
 31
0.0
  0
SPLINE
  5
425
100
AcDbEntity
  8
0
100
AcDbSpline
 62
253
  6
CONTINUOUS
 70
0
 71
3
 72
25
 73
21
 74
19
 42
0.0000001
 43
0.0000001
 44
0.0000000001
 12
1.6815066077
 22
0.0000000353
 32
0.0
 13
-1.6815066077
 23
0.0000000117
 33
0.0
 40
0.0
 40
0.0
 40
0.0
 40
0.0
 40
0.0048416328
 40
0.0130927687
 40
0.0423435097
 40
0.0885899227
 40
0.1503742357
 40
0.2254248225
 40
0.3109189932
 40
0.4036234
 40
0.5
 40
0.5963766
 40
0.6890810068
 40
0.7745751775
 40
0.8496257643
 40
0.9114100773
 40
0.9576564903
 40
0.9869072313
 40
0.9951583672
 40
1.0
 40
1.0
 40
1.0
 40
1.0
 10
-77.778553648
 20
3.1693376137
 30
0.0
 10
-77.7758399021
 20
3.1693376138
 30
0.0
 10
-77.7692908252
 20
3.1745005422
 30
0.0
 10
-77.7593001487
 20
3.1957675671
 30
0.0
 10
-77.7479509723
 20
3.2419312374
 30
0.0
 10
-77.7365148784
 20
3.3178058427
 30
0.0
 10
-77.7261013345
 20
3.4200266671
 30
0.0
 10
-77.7174894501
 20
3.5443211838
 30
0.0
 10
-77.7110334654
 20
3.6861442181
 30
0.0
 10
-77.7070499546
 20
3.8399975463
 30
0.0
 10
-77.7057032109
 20
4.0
 30
0.0
 10
-77.7070499546
 20
4.1600024537
 30
0.0
 10
-77.7110334654
 20
4.3138557818
 30
0.0
 10
-77.7174894501
 20
4.4556788162
 30
0.0
 10
-77.7261013345
 20
4.5799733329
 30
0.0
 10
-77.7365148784
 20
4.6821941573
 30
0.0
 10
-77.7479509723
 20
4.7580687626
 30
0.0
 10
-77.7593001487
 20
4.8042324329
 30
0.0
 10
-77.7692908251
 20
4.8254994578
 30
0.0
 10
-77.7758399021
 20
4.8306623863
 30
0.0
 10
-77.778553648
 20
4.8306623863
 30
0.0
 11
-77.778553648
 21
3.1693376137
 31
0.0
 11
-77.7714694152
 21
3.1733492711
 31
0.0
 11
-77.7644371875
 21
3.1853094163
 31
0.0
 11
-77.7508458549
 21
3.2325796057
 31
0.0
 11
-77.7383323877
 21
3.3093298385
 31
0.0
 11
-77.7273620904
 21
3.4126397436
 31
0.0
 11
-77.7183585745
 21
3.5385162165
 31
0.0
 11
-77.7116678383
 21
3.6821194472
 31
0.0
 11
-77.7075482083
 21
3.8379480741
 31
0.0
 11
-77.7061579004
 21
4.0
 31
0.0
 11
-77.7075482083
 21
4.1620519259
 31
0.0
 11
-77.7116678383
 21
4.3178805528
 31
0.0
 11
-77.7183585745
 21
4.4614837835
 31
0.0
 11
-77.7273620904
 21
4.5873602564
 31
0.0
 11
-77.7383323877
 21
4.6906701615
 31
0.0
 11
-77.7508458549
 21
4.7674203943
 31
0.0
 11
-77.7644371875
 21
4.8146905838
 31
0.0
 11
-77.7714694152
 21
4.826650729
 31
0.0
 11
-77.778553648
 21
4.8306623863
 31
0.0
  0
SPLINE
  5
426
100
AcDbEntity
  8
0
100
AcDbSpline
 62
253
  6
CONTINUOUS
 70
0
 71
3
 72
21
 73
17
 74
15
 42
0.0000001
 43
0.0000001
 44
0.0000000001
 12
0.1175393446
 22
0.7516855727
 32
0.0
 13
0.0962454105
 23
-0.7547075717
 33
0.0
 40
0.0
 40
0.0
 40
0.0
 40
0.0
 40
0.099268261
 40
0.1858273342
 40
0.2590910778
 40
0.3186556506
 40
0.3646739188
 40
0.397858858
 40
0.4204426459
 40
0.4392312346
 40
0.4643745389
 40
0.5010628782
 40
0.5508350403
 40
0.6141171043
 40
0.7810806616
 40
1.0
 40
1.0
 40
1.0
 40
1.0
 10
-77.926599388
 20
2.0501558692
 30
0.0
 10
-77.9227100792
 20
2.0750287091
 30
0.0
 10
-77.9149099877
 20
2.1215140128
 30
0.0
 10
-77.9020671822
 20
2.1859604365
 30
0.0
 10
-77.8889214467
 20
2.2400654585
 30
0.0
 10
-77.875603784
 20
2.2834089208
 30
0.0
 10
-77.8620292585
 20
2.3161150481
 30
0.0
 10
-77.8486734187
 20
2.3380108439
 30
0.0
 10
-77.8332625819
 20
2.3512145763
 30
0.0
 10
-77.814825563
 20
2.3487139443
 30
0.0
 10
-77.8006510311
 20
2.332763732
 30
0.0
 10
-77.7871049678
 20
2.3080600887
 30
0.0
 10
-77.7736682765
 20
2.2723458203
 30
0.0
 10
-77.7540708814
 20
2.2041042771
 30
0.0
 10
-77.7319273023
 20
2.0921715096
 30
0.0
 10
-77.7179560168
 20
1.9953166898
 30
0.0
 10
-77.7109326896
 20
1.9402433291
 30
0.0
 11
-77.926599388
 21
2.0501558692
 31
0.0
 11
-77.9139738334
 21
2.1246183386
 31
0.0
 11
-77.9009228729
 21
2.1891680541
 31
0.0
 11
-77.8875128695
 21
2.2432714322
 31
0.0
 11
-77.8738101721
 21
2.2864680579
 31
0.0
 11
-77.8598810728
 21
2.3185895904
 31
0.0
 11
-77.8457918498
 21
2.339540558
 31
0.0
 11
-77.8316091999
 21
2.3492400509
 31
0.0
 11
-77.8174014884
 21
2.3476651786
 31
0.0
 11
-77.8032374961
 21
2.3348074978
 31
0.0
 11
-77.7891856811
 21
2.3106891651
 31
0.0
 11
-77.775313218
 21
2.2754540514
 31
0.0
 11
-77.7616869625
 21
2.2292762862
 31
0.0
 11
-77.735434583
 21
2.1049894274
 31
0.0
 11
-77.7109326896
 21
1.9402433291
 31
0.0
  0
SPLINE
  5
427
100
AcDbEntity
  8
0
100
AcDbSpline
 62
253
  6
CONTINUOUS
 70
0
 71
3
 72
9
 73
5
 74
3
 42
0.0000001
 43
0.0000001
 44
0.0000000001
 12
0.0241620954
 22
-0.1894668664
 32
0.0
 13
0.0184973205
 23
-0.190103523
 33
0.0
 40
0.0
 40
0.0
 40
0.0
 40
0.0
 40
0.2345365932
 40
1.0
 40
1.0
 40
1.0
 40
1.0
 10
-77.7109326896
 20
1.9402433291
 30
0.0
 10
-77.7090437244
 20
1.9254310246
 30
0.0
 10
-77.7012751118
 20
1.8622390486
 30
0.0
 10
-77.694550967
 20
1.7989211
 30
0.0
 10
-77.689831293
 20
1.7504153366
 30
0.0
 11
-77.7109326896
 21
1.9402433291
 31
0.0
 11
-77.70545713
 21
1.8957824336
 31
0.0
 11
-77.689831293
 21
1.7504153366
 31
0.0
  0
SPLINE
  5
428
100
AcDbEntity
  8
0
100
AcDbSpline
 62
253
  6
CONTINUOUS
 70
0
 71
3
 72
9
 73
5
 74
3
 42
0.0000001
 43
0.0000001
 44
0.0000000001
 12
-0.0185355306
 22
-0.190496222
 32
0.0
 13
-0.0242271076
 23
-0.1898563239
 33
0.0
 40
0.0
 40
0.0
 40
0.0
 40
0.0
 40
0.2652641876
 40
1.0
 40
1.0
 40
1.0
 40
1.0
 10
-77.689831293
 20
-1.7504153366
 30
0.0
 10
-77.6914702305
 20
-1.7672592784
 30
0.0
 10
-77.6978491889
 20
-1.8307379868
 30
0.0
 10
-77.7050491524
 20
-1.8941369699
 30
0.0
 10
-77.7109826603
 20
-1.94063505
 30
0.0
 11
-77.689831293
 21
-1.7504153366
 31
0.0
 11
-77.694912219
 21
-1.8009309246
 31
0.0
 11
-77.7109826603
 21
-1.94063505
 31
0.0
  0
SPLINE
  5
429
100
AcDbEntity
  8
0
100
AcDbSpline
 62
253
  6
CONTINUOUS
 70
0
 71
3
 72
9
 73
5
 74
3
 42
0.0000001
 43
0.0000001
 44
0.0000000001
 12
-0.021042634
 22
-0.1649011183
 32
0.0
 13
-0.0287612082
 23
-0.1637313781
 33
0.0
 40
0.0
 40
0.0
 40
0.0
 40
0.0
 40
0.2714353176
 40
1.0
 40
1.0
 40
1.0
 40
1.0
 10
-77.7109826603
 20
-1.94063505
 30
0.0
 10
-77.712886565
 20
-1.9555550458
 30
0.0
 10
-77.7201539918
 20
-2.0104883253
 30
0.0
 10
-77.7284613822
 20
-2.0652924984
 30
0.0
 10
-77.7354461823
 20
-2.1050554649
 30
0.0
 11
-77.7109826603
 21
-1.94063505
 31
0.0
 11
-77.7169084591
 21
-1.9853671979
 31
0.0
 11
-77.7354461823
 21
-2.1050554649
 31
0.0
  0
SPLINE
  5
42A
100
AcDbEntity
  8
0
100
AcDbSpline
 62
253
  6
CONTINUOUS
 70
0
 71
3
 72
9
 73
5
 74
3
 42
0.0000001
 43
0.0000001
 44
0.0000000001
 12
-0.0362542465
 22
0.3080409885
 32
0.0
 13
-0.0980741848
 23
0.2942534201
 33
0.0
 40
0.0
 40
0.0
 40
0.0
 40
0.0
 40
0.4552236404
 40
1.0
 40
1.0
 40
1.0
 40
1.0
 10
-77.926599298
 20
-2.0501544741
 30
0.0
 10
-77.9321005613
 20
-2.0034119607
 30
0.0
 10
-77.9550130568
 20
-1.902153339
 30
0.0
 10
-77.9859677364
 20
-1.8035374987
 30
0.0
 10
-78.0037772355
 20
-1.7501033964
 30
0.0
 11
-77.926599298
 21
-2.0501544741
 31
0.0
 11
-77.9546277508
 21
-1.9117689837
 31
0.0
 11
-78.0037772355
 21
-1.7501033964
 31
0.0
  0
SPLINE
  5
42B
100
AcDbEntity
  8
0
100
AcDbSpline
 62
7
  6
CONTINUOUS
 70
0
 71
3
 72
9
 73
5
 74
3
 42
0.0000001
 43
0.0000001
 44
0.0000000001
 12
-0.1982681442
 22
0.2858013793
 32
0.0
 13
-0.0051668043
 23
0.3478016526
 33
0.0
 40
0.0
 40
0.0
 40
0.0
 40
0.0
 40
0.5318796097
 40
1.0
 40
1.0
 40
1.0
 40
1.0
 10
-83.3494612112
 20
10.0
 30
0.0
 10
-83.3846128056
 20
10.050670642
 30
0.0
 10
-83.4396983754
 20
10.1537864937
 30
0.0
 10
-83.4675556579
 20
10.2689924222
 30
0.0
 10
-83.4683618867
 20
10.3232634373
 30
0.0
 11
-83.3494612112
 21
10.0
 31
0.0
 11
-83.435507817
 21
10.1637813133
 31
0.0
 11
-83.4683618867
 21
10.3232634373
 31
0.0
  0
SPLINE
  5
42C
100
AcDbEntity
  8
0
100
AcDbSpline
 62
7
  6
CONTINUOUS
 70
0
 71
3
 72
9
 73
5
 74
3
 42
0.0000001
 43
0.0000001
 44
0.0000000001
 12
0.009689104
 22
0.3069204199
 32
0.0
 13
0.108225904
 23
0.2873694079
 33
0.0
 40
0.0
 40
0.0
 40
0.0
 40
0.0
 40
0.2590946759
 40
1.0
 40
1.0
 40
1.0
 40
1.0
 10
-77.926599388
 20
-2.0501558692
 30
0.0
 10
-77.9257625896
 20
-2.0236487203
 30
0.0
 10
-77.9183086789
 20
-1.9215162924
 30
0.0
 10
-77.8940761605
 20
-1.82062916
 30
0.0
 10
-77.8673477776
 20
-1.7496579852
 30
0.0
 11
-77.926599388
 21
-2.0501558692
 31
0.0
 11
-77.9207737037
 21
-1.9708083804
 31
0.0
 11
-77.8673477776
 21
-1.7496579852
 31
0.0
  0
SPLINE
  5
42D
100
AcDbEntity
  8
0
100
AcDbSpline
 62
7
  6
CONTINUOUS
 70
0
 71
3
 72
9
 73
5
 74
3
 42
0.0000001
 43
0.0000001
 44
0.0000000001
 12
0.0051668043
 22
0.3478016526
 32
0.0
 13
0.1982681442
 23
0.2858013792
 33
0.0
 40
0.0
 40
0.0
 40
0.0
 40
0.0
 40
0.4681203903
 40
1.0
 40
1.0
 40
1.0
 40
1.0
 10
-83.4683618867
 20
-10.3232634373
 30
0.0
 10
-83.4675556579
 20
-10.2689924222
 30
0.0
 10
-83.4396983754
 20
-10.1537864937
 30
0.0
 10
-83.3846128056
 20
-10.050670642
 30
0.0
 10
-83.3494612112
 20
-10.0
 30
0.0
 11
-83.4683618867
 21
-10.3232634373
 31
0.0
 11
-83.435507817
 21
-10.1637813133
 31
0.0
 11
-83.3494612112
 21
-10.0
 31
0.0
  0
SPLINE
  5
42E
100
AcDbEntity
  8
0
100
AcDbSpline
 62
7
  6
CONTINUOUS
 70
0
 71
3
 72
9
 73
5
 74
3
 42
0.0000001
 43
0.0000001
 44
0.0000000001
 12
0.2009307451
 22
-0.2896394895
 32
0.0
 13
0.0000925719
 23
-0.3525112617
 33
0.0
 40
0.0
 40
0.0
 40
0.0
 40
0.0
 40
0.5331873585
 40
1.0
 40
1.0
 40
1.0
 40
1.0
 10
-80.5873540516
 20
-10.0
 30
0.0
 10
-80.5516428072
 20
-10.0514773714
 30
0.0
 10
-80.4959959933
 20
-10.1560824021
 30
0.0
 10
-80.4684316847
 20
-10.273160589
 30
0.0
 10
-80.4684172801
 20
-10.3280128268
 30
0.0
 11
-80.5873540516
 21
-10.0
 31
0.0
 11
-80.5002859924
 21
-10.1665715095
 31
0.0
 11
-80.4684172801
 21
-10.3280128268
 31
0.0
  0
SPLINE
  5
42F
100
AcDbEntity
  8
0
100
AcDbSpline
 62
7
  6
CONTINUOUS
 70
0
 71
3
 72
9
 73
5
 74
3
 42
0.0000001
 43
0.0000001
 44
0.0000000001
 12
-0.0000925719
 22
-0.3525112617
 32
0.0
 13
-0.2009307451
 23
-0.2896394895
 33
0.0
 40
0.0
 40
0.0
 40
0.0
 40
0.0
 40
0.4668126415
 40
1.0
 40
1.0
 40
1.0
 40
1.0
 10
-80.4684172801
 20
10.3280128268
 30
0.0
 10
-80.4684316847
 20
10.273160589
 30
0.0
 10
-80.4959959933
 20
10.1560824021
 30
0.0
 10
-80.5516428072
 20
10.0514773714
 30
0.0
 10
-80.5873540516
 20
10.0
 30
0.0
 11
-80.4684172801
 21
10.3280128268
 31
0.0
 11
-80.5002859924
 21
10.1665715095
 31
0.0
 11
-80.5873540516
 21
10.0
 31
0.0
  0
SPLINE
  5
430
100
AcDbEntity
  8
0
100
AcDbSpline
 62
7
  6
CONTINUOUS
 70
0
 71
3
 72
11
 73
7
 74
5
 42
0.0000001
 43
0.0000001
 44
0.0000000001
 12
-0.9274067162
 22
-0.0963155433
 32
0.0
 13
-0.1434156662
 23
-0.9212990002
 33
0.0
 40
0.0
 40
0.0
 40
0.0
 40
0.0
 40
0.1680537367
 40
0.3877662224
 40
0.6655425407
 40
1.0
 40
1.0
 40
1.0
 40
1.0
 10
-78.4486833088
 20
-6.4511029243
 30
0.0
 10
-78.5006346969
 20
-6.4564983199
 30
0.0
 10
-78.6163772943
 20
-6.5082014882
 30
0.0
 10
-78.7537220708
 20
-6.6680647079
 30
0.0
 10
-78.8634971018
 20
-6.90460902
 30
0.0
 10
-78.906805273
 20
-7.0911708469
 30
0.0
 10
-78.9227940861
 20
-7.1938826212
 30
0.0
 11
-78.4486833088
 21
-6.4511029243
 31
0.0
 11
-78.5942485316
 21
-6.5090967086
 31
0.0
 11
-78.7345188523
 21
-6.6583995844
 31
0.0
 11
-78.8483035476
 21
-6.8910636717
 31
0.0
 11
-78.9227940861
 21
-7.1938826212
 31
0.0
  0
SPLINE
  5
431
100
AcDbEntity
  8
0
100
AcDbSpline
 62
253
  6
CONTINUOUS
 70
0
 71
3
 72
9
 73
5
 74
3
 42
0.0000001
 43
0.0000001
 44
0.0000000001
 12
0.0980741848
 22
0.2942534201
 32
0.0
 13
0.0362542465
 23
0.3080409885
 33
0.0
 40
0.0
 40
0.0
 40
0.0
 40
0.0
 40
0.5447763596
 40
1.0
 40
1.0
 40
1.0
 40
1.0
 10
-78.0037772355
 20
1.7501033964
 30
0.0
 10
-77.9859677364
 20
1.8035374987
 30
0.0
 10
-77.9550130568
 20
1.902153339
 30
0.0
 10
-77.9321005613
 20
2.0034119607
 30
0.0
 10
-77.926599298
 20
2.0501544741
 30
0.0
 11
-78.0037772355
 21
1.7501033964
 31
0.0
 11
-77.9546277508
 21
1.9117689837
 31
0.0
 11
-77.926599298
 21
2.0501544741
 31
0.0
  0
SPLINE
  5
432
100
AcDbEntity
  8
0
100
AcDbSpline
 62
7
  6
CONTINUOUS
 70
0
 71
3
 72
9
 73
5
 74
3
 42
0.0000001
 43
0.0000001
 44
0.0000000001
 12
0.009689104
 22
-0.3069204199
 32
0.0
 13
0.108225904
 23
-0.2873694079
 33
0.0
 40
0.0
 40
0.0
 40
0.0
 40
0.0
 40
0.2590946759
 40
1.0
 40
1.0
 40
1.0
 40
1.0
 10
-77.926599388
 20
2.0501558692
 30
0.0
 10
-77.9257625896
 20
2.0236487203
 30
0.0
 10
-77.9183086789
 20
1.9215162924
 30
0.0
 10
-77.8940761605
 20
1.82062916
 30
0.0
 10
-77.8673477776
 20
1.7496579852
 30
0.0
 11
-77.926599388
 21
2.0501558692
 31
0.0
 11
-77.9207737037
 21
1.9708083804
 31
0.0
 11
-77.8673477776
 21
1.7496579852
 31
0.0
  0
SPLINE
  5
433
100
AcDbEntity
  8
0
100
AcDbSpline
 62
7
  6
CONTINUOUS
 70
0
 71
3
 72
11
 73
7
 74
5
 42
0.0000001
 43
0.0000001
 44
0.0000000001
 12
0.1460527715
 22
-0.9427400207
 32
0.0
 13
0.9539864562
 23
0.0000005838
 33
0.0
 40
0.0
 40
0.0
 40
0.0
 40
0.0
 40
0.3391879071
 40
0.6184732201
 40
0.8355759989
 40
1.0
 40
1.0
 40
1.0
 40
1.0
 10
-78.9227940861
 20
7.1938826212
 30
0.0
 10
-78.9062809748
 20
7.0872939497
 30
0.0
 10
-78.8607976832
 20
6.894567875
 30
0.0
 10
-78.7449600546
 20
6.6524687754
 30
0.0
 10
-78.5995117934
 20
6.4947165015
 30
0.0
 10
-78.4786847698
 20
6.4499189757
 30
0.0
 10
-78.4263986797
 20
6.4499190077
 30
0.0
 11
-78.9227940861
 21
7.1938826212
 31
0.0
 11
-78.8442841721
 21
6.8799707816
 31
0.0
 11
-78.7235372045
 21
6.6424682289
 31
0.0
 11
-78.5759844709
 21
6.4971271426
 31
0.0
 11
-78.4263986797
 21
6.4499190077
 31
0.0
  0
SPLINE
  5
434
100
AcDbEntity
  8
0
100
AcDbSpline
 62
253
  6
CONTINUOUS
 70
0
 71
3
 72
25
 73
21
 74
19
 42
0.0000001
 43
0.0000001
 44
0.0000000001
 12
1.6815066077
 22
0.0000000352
 32
0.0
 13
-1.6815066077
 23
0.0000000117
 33
0.0
 40
0.0
 40
0.0
 40
0.0
 40
0.0
 40
0.0048416328
 40
0.0130927687
 40
0.0423435097
 40
0.0885899227
 40
0.1503742357
 40
0.2254248225
 40
0.3109189932
 40
0.4036234
 40
0.5
 40
0.5963766
 40
0.6890810068
 40
0.7745751775
 40
0.8496257643
 40
0.9114100773
 40
0.9576564903
 40
0.9869072313
 40
0.9951583672
 40
1.0
 40
1.0
 40
1.0
 40
1.0
 10
-77.778553648
 20
-4.8306623863
 30
0.0
 10
-77.7758399021
 20
-4.8306623862
 30
0.0
 10
-77.7692908252
 20
-4.8254994578
 30
0.0
 10
-77.7593001487
 20
-4.8042324329
 30
0.0
 10
-77.7479509723
 20
-4.7580687626
 30
0.0
 10
-77.7365148784
 20
-4.6821941573
 30
0.0
 10
-77.7261013345
 20
-4.5799733329
 30
0.0
 10
-77.7174894501
 20
-4.4556788162
 30
0.0
 10
-77.7110334654
 20
-4.3138557819
 30
0.0
 10
-77.7070499546
 20
-4.1600024537
 30
0.0
 10
-77.7057032109
 20
-4.0
 30
0.0
 10
-77.7070499546
 20
-3.8399975463
 30
0.0
 10
-77.7110334654
 20
-3.6861442182
 30
0.0
 10
-77.7174894501
 20
-3.5443211838
 30
0.0
 10
-77.7261013345
 20
-3.4200266671
 30
0.0
 10
-77.7365148784
 20
-3.3178058427
 30
0.0
 10
-77.7479509723
 20
-3.2419312374
 30
0.0
 10
-77.7593001487
 20
-3.1957675671
 30
0.0
 10
-77.7692908251
 20
-3.1745005422
 30
0.0
 10
-77.7758399021
 20
-3.1693376137
 30
0.0
 10
-77.778553648
 20
-3.1693376137
 30
0.0
 11
-77.778553648
 21
-4.8306623863
 31
0.0
 11
-77.7714694152
 21
-4.8266507289
 31
0.0
 11
-77.7644371875
 21
-4.8146905837
 31
0.0
 11
-77.7508458549
 21
-4.7674203943
 31
0.0
 11
-77.7383323877
 21
-4.6906701615
 31
0.0
 11
-77.7273620904
 21
-4.5873602564
 31
0.0
 11
-77.7183585745
 21
-4.4614837835
 31
0.0
 11
-77.7116678383
 21
-4.3178805528
 31
0.0
 11
-77.7075482083
 21
-4.1620519259
 31
0.0
 11
-77.7061579004
 21
-4.0
 31
0.0
 11
-77.7075482083
 21
-3.8379480741
 31
0.0
 11
-77.7116678383
 21
-3.6821194472
 31
0.0
 11
-77.7183585745
 21
-3.5385162165
 31
0.0
 11
-77.7273620904
 21
-3.4126397436
 31
0.0
 11
-77.7383323877
 21
-3.3093298385
 31
0.0
 11
-77.7508458549
 21
-3.2325796057
 31
0.0
 11
-77.7644371875
 21
-3.1853094162
 31
0.0
 11
-77.7714694152
 21
-3.173349271
 31
0.0
 11
-77.778553648
 21
-3.1693376137
 31
0.0
  0
SPLINE
  5
435
100
AcDbEntity
  8
0
100
AcDbSpline
 62
7
  6
CONTINUOUS
 70
0
 71
3
 72
11
 73
7
 74
5
 42
0.0000001
 43
0.0000001
 44
0.0000000001
 12
-1.2080063154
 22
-0.4341175295
 32
0.0
 13
-0.0000463252
 23
-1.2836421952
 33
0.0
 40
0.0
 40
0.0
 40
0.0
 40
0.0
 40
0.2529935923
 40
0.5038123093
 40
0.7525355937
 40
1.0
 40
1.0
 40
1.0
 40
1.0
 10
-76.8295757925
 20
7.4367982332
 30
0.0
 10
-76.9314484115
 20
7.4001885821
 30
0.0
 10
-77.1244663351
 20
7.2955527115
 30
0.0
 10
-77.351336329
 20
7.0601944706
 30
0.0
 10
-77.4958046615
 20
6.7696129197
 30
0.0
 10
-77.5288077345
 20
6.5558852513
 30
0.0
 10
-77.5288115558
 20
6.45
 30
0.0
 11
-76.8295757925
 21
7.4367982332
 31
0.0
 11
-77.1149277014
 21
7.281753202
 31
0.0
 11
-77.3383572343
 21
7.0499376632
 31
0.0
 11
-77.4802287004
 21
6.7639185949
 31
0.0
 11
-77.5288115558
 21
6.45
 31
0.0
  0
SPLINE
  5
436
100
AcDbEntity
  8
ASSI
100
AcDbSpline
 62
7
  6
CONTINUOUS
 70
0
 71
3
 72
9
 73
5
 74
3
 42
0.0000001
 43
0.0000001
 44
0.0000000001
 12
0.0
 22
-2.2469010214
 32
0.0
 13
-0.1326408019
 23
-2.2429825273
 33
0.0
 40
0.0
 40
0.0
 40
0.0
 40
0.0
 40
0.5228692115
 40
1.0
 40
1.0
 40
1.0
 40
1.0
 10
-77.4684076145
 20
0.0000025967
 30
0.0
 10
-77.4684076145
 20
-0.3916091917
 30
0.0
 10
-77.4778264545
 20
-1.1406005407
 30
0.0
 10
-77.5074494238
 20
-1.8891308558
 30
0.0
 10
-77.5285450939
 20
-2.2458628631
 30
0.0
 11
-77.4684076145
 21
0.0000025967
 31
0.0
 11
-77.483780909
 21
-1.1747321808
 31
0.0
 11
-77.5285450939
 21
-2.2458628631
 31
0.0
  0
SPLINE
  5
437
100
AcDbEntity
  8
ASSI
100
AcDbSpline
 62
7
  6
CONTINUOUS
 70
0
 71
3
 72
9
 73
5
 74
3
 42
0.0000001
 43
0.0000001
 44
0.0000000001
 12
0.1326404954
 22
-2.2429773434
 32
0.0
 13
0.0000002543
 23
-2.2468958285
 33
0.0
 40
0.0
 40
0.0
 40
0.0
 40
0.0
 40
0.4771307863
 40
1.0
 40
1.0
 40
1.0
 40
1.0
 10
-77.5285450939
 20
2.2458628631
 30
0.0
 10
-77.5074494726
 20
1.889131682
 30
0.0
 10
-77.4778265405
 20
1.1406030987
 30
0.0
 10
-77.4684076588
 20
0.3916134818
 30
0.0
 10
-77.4684076145
 20
0.0000025967
 30
0.0
 11
-77.5285450939
 21
2.2458628631
 31
0.0
 11
-77.4837809754
 21
1.174734663
 31
0.0
 11
-77.4684076145
 21
0.0000025967
 31
0.0
  0
SPLINE
  5
438
100
AcDbEntity
  8
0
100
AcDbSpline
 62
253
  6
CONTINUOUS
 70
0
 71
3
 72
8
 73
4
 74
2
 42
0.0000001
 43
0.0000001
 44
0.0000000001
 12
0.0216462897
 22
0.0261586119
 32
0.0
 13
0.0
 23
0.0339534216
 33
0.0
 40
0.0
 40
0.0
 40
0.0
 40
0.0
 40
1.0
 40
1.0
 40
1.0
 40
1.0
 10
-77.9380939422
 20
-3.201286167
 30
0.0
 10
-77.9308785123
 20
-3.1925666297
 30
0.0
 10
-77.926599388
 20
-3.1806554209
 30
0.0
 10
-77.926599388
 20
-3.1693376137
 30
0.0
 11
-77.9380939422
 21
-3.201286167
 31
0.0
 11
-77.926599388
 21
-3.1693376137
 31
0.0
  0
SPLINE
  5
439
100
AcDbEntity
  8
0
100
AcDbSpline
 62
253
  6
CONTINUOUS
 70
0
 71
3
 72
8
 73
4
 74
2
 42
0.0000001
 43
0.0000001
 44
0.0000000001
 12
0.0216462897
 22
-0.0261586119
 32
0.0
 13
0.0
 23
-0.0339534216
 33
0.0
 40
0.0
 40
0.0
 40
0.0
 40
0.0
 40
1.0
 40
1.0
 40
1.0
 40
1.0
 10
-77.7900482022
 20
-4.798713833
 30
0.0
 10
-77.7828327723
 20
-4.8074333703
 30
0.0
 10
-77.778553648
 20
-4.8193445791
 30
0.0
 10
-77.778553648
 20
-4.8306623863
 30
0.0
 11
-77.7900482022
 21
-4.798713833
 31
0.0
 11
-77.778553648
 21
-4.8306623863
 31
0.0
  0
SPLINE
  5
43A
100
AcDbEntity
  8
0
100
AcDbSpline
 62
253
  6
CONTINUOUS
 70
0
 71
3
 72
8
 73
4
 74
2
 42
0.0000001
 43
0.0000001
 44
0.0000000001
 12
0.0216462897
 22
-0.0261586119
 32
0.0
 13
0.0
 23
-0.0339534216
 33
0.0
 40
0.0
 40
0.0
 40
0.0
 40
0.0
 40
1.0
 40
1.0
 40
1.0
 40
1.0
 10
-77.9380939422
 20
-4.798713833
 30
0.0
 10
-77.9308785123
 20
-4.8074333703
 30
0.0
 10
-77.926599388
 20
-4.8193445791
 30
0.0
 10
-77.926599388
 20
-4.8306623863
 30
0.0
 11
-77.9380939422
 21
-4.798713833
 31
0.0
 11
-77.926599388
 21
-4.8306623863
 31
0.0
  0
SPLINE
  5
43B
100
AcDbEntity
  8
0
100
AcDbSpline
 62
253
  6
CONTINUOUS
 70
0
 71
3
 72
8
 73
4
 74
2
 42
0.0000001
 43
0.0000001
 44
0.0000000001
 12
0.0216462895
 22
0.0261586121
 32
0.0
 13
0.0000000003
 23
0.0339534216
 33
0.0
 40
0.0
 40
0.0
 40
0.0
 40
0.0
 40
1.0
 40
1.0
 40
1.0
 40
1.0
 10
-77.7900482022
 20
-3.201286167
 30
0.0
 10
-77.7828327724
 20
-3.1925666297
 30
0.0
 10
-77.7785536481
 20
-3.1806554209
 30
0.0
 10
-77.778553648
 20
-3.1693376137
 30
0.0
 11
-77.7900482022
 21
-3.201286167
 31
0.0
 11
-77.778553648
 21
-3.1693376137
 31
0.0
  0
SPLINE
  5
43C
100
AcDbEntity
  8
0
100
AcDbSpline
 62
253
  6
CONTINUOUS
 70
0
 71
3
 72
25
 73
21
 74
19
 42
0.0000001
 43
0.0000001
 44
0.0000000001
 12
1.6168548173
 22
-0.0000000001
 32
0.0
 13
-1.6168548173
 23
-0.0
 33
0.0
 40
0.0
 40
0.0
 40
0.0
 40
0.0
 40
0.0048402336
 40
0.0130837987
 40
0.0423132146
 40
0.088550873
 40
0.1503256758
 40
0.2253794629
 40
0.3108877921
 40
0.4036044568
 40
0.4999977549
 40
0.5963911313
 40
0.6891080373
 40
0.7746167528
 40
0.8496711796
 40
0.9114469352
 40
0.9576856366
 40
0.9869158765
 40
0.9951596695
 40
1.0
 40
1.0
 40
1.0
 40
1.0
 10
-77.7900482022
 20
-3.201286167
 30
0.0
 10
-77.7874395505
 20
-3.201286167
 30
0.0
 10
-77.7811317213
 20
-3.2062211737
 30
0.0
 10
-77.7715456571
 20
-3.2266813224
 30
0.0
 10
-77.7606333571
 20
-3.2710291592
 30
0.0
 10
-77.7496348502
 20
-3.3439755839
 30
0.0
 10
-77.7396185616
 20
-3.4422531833
 30
0.0
 10
-77.7313355698
 20
-3.561774463
 30
0.0
 10
-77.7251270907
 20
-3.6981600056
 30
0.0
 10
-77.7212949635
 20
-3.8461212146
 30
0.0
 10
-77.719998213
 20
-3.99999639
 30
0.0
 10
-77.721294842
 20
-4.1538716971
 30
0.0
 10
-77.7251268574
 20
-4.3018332877
 30
0.0
 10
-77.7313352209
 20
-4.4382195247
 30
0.0
 10
-77.739618165
 20
-4.55774186
 30
0.0
 10
-77.7496343724
 20
-4.6560209397
 30
0.0
 10
-77.7606330611
 20
-4.7289687701
 30
0.0
 10
-77.7715452312
 20
-4.7733179698
 30
0.0
 10
-77.7811316234
 20
-4.7937785088
 30
0.0
 10
-77.7874394983
 20
-4.798713833
 30
0.0
 10
-77.7900482022
 20
-4.798713833
 30
0.0
 11
-77.7900482022
 21
-3.201286167
 31
0.0
 11
-77.7832301068
 21
-3.2051279305
 31
0.0
 11
-77.7764744476
 21
-3.2166176618
 31
0.0
 11
-77.7634190201
 21
-3.2620383303
 31
0.0
 11
-77.751383246
 21
-3.3358227124
 31
0.0
 11
-77.7408320583
 21
-3.4351447348
 31
0.0
 11
-77.732172072
 21
-3.556186416
 31
0.0
 11
-77.7257369284
 21
-3.694291125
 31
0.0
 11
-77.7217741284
 21
-3.8441481241
 31
0.0
 11
-77.7204360089
 21
-3.9999963481
 31
0.0
 11
-77.7217740039
 21
-4.1558446997
 31
0.0
 11
-77.7257366842
 21
-4.3057020923
 31
0.0
 11
-77.7321717139
 21
-4.4438074318
 31
0.0
 11
-77.7408316184
 21
-4.5648501558
 31
0.0
 11
-77.7513827874
 21
-4.6641737294
 31
0.0
 11
-77.763418638
 21
-4.7379598078
 31
0.0
 11
-77.7764742066
 21
-4.7833818218
 31
0.0
 11
-77.7832300321
 21
-4.7948718829
 31
0.0
 11
-77.7900482022
 21
-4.798713833
 31
0.0
  0
SPLINE
  5
43D
100
AcDbEntity
  8
0
100
AcDbSpline
 62
7
  6
CONTINUOUS
 70
0
 71
3
 72
11
 73
7
 74
5
 42
0.0000001
 43
0.0000001
 44
0.0000000001
 12
-1.6482407839
 22
0.0
 32
0.0
 13
-0.0000594831
 23
1.6482407828
 33
0.0
 40
0.0
 40
0.0
 40
0.0
 40
0.0
 40
0.253392008
 40
0.5047816047
 40
0.7533684233
 40
1.0
 40
1.0
 40
1.0
 40
1.0
 10
-76.4666708184
 20
-7.5
 30
0.0
 10
-76.6058878323
 20
-7.5
 30
0.0
 10
-76.8862644784
 20
-7.4447754989
 30
0.0
 10
-77.2393596137
 20
-7.2094918033
 30
0.0
 10
-77.4741217978
 20
-6.8605525791
 30
0.0
 10
-77.5288066657
 20
-6.585502741
 30
0.0
 10
-77.5288115558
 20
-6.45
 30
0.0
 11
-76.4666708184
 21
-7.5
 31
0.0
 11
-76.8763418458
 21
-7.4187470488
 31
0.0
 11
-77.2211761107
 21
-7.1890173427
 31
0.0
 11
-77.4492790635
 21
-6.8486521269
 31
0.0
 11
-77.5288115558
 21
-6.45
 31
0.0
  0
SPLINE
  5
43E
100
AcDbEntity
  8
0
100
AcDbSpline
 62
253
  6
CONTINUOUS
 70
0
 71
3
 72
8
 73
4
 74
2
 42
0.0000001
 43
0.0000001
 44
0.0000000001
 12
0.0
 22
-0.0339534216
 32
0.0
 13
-0.0216462897
 23
-0.0261586119
 33
0.0
 40
0.0
 40
0.0
 40
0.0
 40
0.0
 40
1.0
 40
1.0
 40
1.0
 40
1.0
 10
-77.926599388
 20
4.8306623863
 30
0.0
 10
-77.926599388
 20
4.8193445791
 30
0.0
 10
-77.9308785123
 20
4.8074333703
 30
0.0
 10
-77.9380939422
 20
4.798713833
 30
0.0
 11
-77.926599388
 21
4.8306623863
 31
0.0
 11
-77.9380939422
 21
4.798713833
 31
0.0
  0
SPLINE
  5
43F
100
AcDbEntity
  8
0
100
AcDbSpline
 62
253
  6
CONTINUOUS
 70
0
 71
3
 72
8
 73
4
 74
2
 42
0.0000001
 43
0.0000001
 44
0.0000000001
 12
0.0216462897
 22
-0.0261586119
 32
0.0
 13
0.0
 23
-0.0339534216
 33
0.0
 40
0.0
 40
0.0
 40
0.0
 40
0.0
 40
1.0
 40
1.0
 40
1.0
 40
1.0
 10
-77.7900482022
 20
3.201286167
 30
0.0
 10
-77.7828327723
 20
3.1925666297
 30
0.0
 10
-77.778553648
 20
3.1806554209
 30
0.0
 10
-77.778553648
 20
3.1693376137
 30
0.0
 11
-77.7900482022
 21
3.201286167
 31
0.0
 11
-77.778553648
 21
3.1693376137
 31
0.0
  0
SPLINE
  5
440
100
AcDbEntity
  8
0
100
AcDbSpline
 62
253
  6
CONTINUOUS
 70
0
 71
3
 72
8
 73
4
 74
2
 42
0.0000001
 43
0.0000001
 44
0.0000000001
 12
0.0
 22
0.0339534216
 32
0.0
 13
-0.0216462897
 23
0.0261586119
 33
0.0
 40
0.0
 40
0.0
 40
0.0
 40
0.0
 40
1.0
 40
1.0
 40
1.0
 40
1.0
 10
-77.926599388
 20
3.1693376137
 30
0.0
 10
-77.926599388
 20
3.1806554209
 30
0.0
 10
-77.9308785123
 20
3.1925666297
 30
0.0
 10
-77.9380939422
 20
3.201286167
 30
0.0
 11
-77.926599388
 21
3.1693376137
 31
0.0
 11
-77.9380939422
 21
3.201286167
 31
0.0
  0
SPLINE
  5
441
100
AcDbEntity
  8
0
100
AcDbSpline
 62
253
  6
CONTINUOUS
 70
0
 71
3
 72
25
 73
21
 74
19
 42
0.0000001
 43
0.0000001
 44
0.0000000001
 12
1.6168548173
 22
-0.0000000001
 32
0.0
 13
-1.6168548173
 23
-0.0
 33
0.0
 40
0.0
 40
0.0
 40
0.0
 40
0.0
 40
0.0048402336
 40
0.0130837987
 40
0.0423132146
 40
0.088550873
 40
0.1503256758
 40
0.2253794629
 40
0.3108877921
 40
0.4036044568
 40
0.4999977549
 40
0.5963911313
 40
0.6891080373
 40
0.7746167528
 40
0.8496711796
 40
0.9114469352
 40
0.9576856366
 40
0.9869158765
 40
0.9951596695
 40
1.0
 40
1.0
 40
1.0
 40
1.0
 10
-77.7900482022
 20
4.798713833
 30
0.0
 10
-77.7874395505
 20
4.798713833
 30
0.0
 10
-77.7811317213
 20
4.7937788263
 30
0.0
 10
-77.7715456571
 20
4.7733186776
 30
0.0
 10
-77.7606333571
 20
4.7289708408
 30
0.0
 10
-77.7496348502
 20
4.6560244161
 30
0.0
 10
-77.7396185616
 20
4.5577468167
 30
0.0
 10
-77.7313355698
 20
4.438225537
 30
0.0
 10
-77.7251270907
 20
4.3018399944
 30
0.0
 10
-77.7212949635
 20
4.1538787854
 30
0.0
 10
-77.719998213
 20
4.00000361
 30
0.0
 10
-77.721294842
 20
3.8461283029
 30
0.0
 10
-77.7251268574
 20
3.6981667123
 30
0.0
 10
-77.7313352209
 20
3.5617804753
 30
0.0
 10
-77.739618165
 20
3.44225814
 30
0.0
 10
-77.7496343724
 20
3.3439790603
 30
0.0
 10
-77.7606330611
 20
3.2710312299
 30
0.0
 10
-77.7715452312
 20
3.2266820302
 30
0.0
 10
-77.7811316234
 20
3.2062214912
 30
0.0
 10
-77.7874394983
 20
3.201286167
 30
0.0
 10
-77.7900482022
 20
3.201286167
 30
0.0
 11
-77.7900482022
 21
4.798713833
 31
0.0
 11
-77.7832301068
 21
4.7948720695
 31
0.0
 11
-77.7764744476
 21
4.7833823382
 31
0.0
 11
-77.7634190201
 21
4.7379616697
 31
0.0
 11
-77.751383246
 21
4.6641772876
 31
0.0
 11
-77.7408320583
 21
4.5648552652
 31
0.0
 11
-77.732172072
 21
4.443813584
 31
0.0
 11
-77.7257369284
 21
4.305708875
 31
0.0
 11
-77.7217741284
 21
4.1558518759
 31
0.0
 11
-77.7204360089
 21
4.0000036519
 31
0.0
 11
-77.7217740039
 21
3.8441553003
 31
0.0
 11
-77.7257366842
 21
3.6942979077
 31
0.0
 11
-77.7321717139
 21
3.5561925682
 31
0.0
 11
-77.7408316184
 21
3.4351498442
 31
0.0
 11
-77.7513827874
 21
3.3358262706
 31
0.0
 11
-77.763418638
 21
3.2620401922
 31
0.0
 11
-77.7764742066
 21
3.2166181782
 31
0.0
 11
-77.7832300321
 21
3.2051281171
 31
0.0
 11
-77.7900482022
 21
3.201286167
 31
0.0
  0
SPLINE
  5
442
100
AcDbEntity
  8
0
100
AcDbSpline
 62
253
  6
CONTINUOUS
 70
0
 71
3
 72
8
 73
4
 74
2
 42
0.0000001
 43
0.0000001
 44
0.0000000001
 12
0.0216462895
 22
0.0261586121
 32
0.0
 13
0.0000000003
 23
0.0339534216
 33
0.0
 40
0.0
 40
0.0
 40
0.0
 40
0.0
 40
1.0
 40
1.0
 40
1.0
 40
1.0
 10
-77.7900482022
 20
4.798713833
 30
0.0
 10
-77.7828327724
 20
4.8074333703
 30
0.0
 10
-77.7785536481
 20
4.8193445791
 30
0.0
 10
-77.778553648
 20
4.8306623863
 30
0.0
 11
-77.7900482022
 21
4.798713833
 31
0.0
 11
-77.778553648
 21
4.8306623863
 31
0.0
  0
SPLINE
  5
443
100
AcDbEntity
  8
0
100
AcDbSpline
 62
253
  6
CONTINUOUS
 70
0
 71
3
 72
19
 73
15
 74
13
 42
0.0000001
 43
0.0000001
 44
0.0000000001
 12
-0.1028197187
 22
-0.585330564
 32
0.0
 13
-0.0918125078
 23
0.5871577532
 33
0.0
 40
0.0
 40
0.0
 40
0.0
 40
0.0
 40
0.1907576081
 40
0.2663869494
 40
0.3287229531
 40
0.377955601
 40
0.4147085055
 40
0.4408907068
 40
0.4618482377
 40
0.4865831143
 40
0.5212518963
 40
0.6280613315
 40
0.7882664663
 40
1.0
 40
1.0
 40
1.0
 40
1.0
 10
-77.7354461823
 20
-2.1050554649
 30
0.0
 10
-77.7419840635
 20
-2.1422742177
 30
0.0
 10
-77.7521477549
 20
-2.1941117054
 30
0.0
 10
-77.7690142981
 20
-2.2570472523
 30
0.0
 10
-77.780807766
 20
-2.2922154736
 30
0.0
 10
-77.7927031743
 20
-2.3192166811
 30
0.0
 10
-77.8046532452
 20
-2.3379374644
 30
0.0
 10
-77.8174968056
 20
-2.3495444901
 30
0.0
 10
-77.8328848609
 20
-2.3506639125
 30
0.0
 10
-77.8462402557
 20
-2.3404882642
 30
0.0
 10
-77.8648109973
 20
-2.3132701933
 30
0.0
 10
-77.8852067917
 20
-2.2562925677
 30
0.0
 10
-77.9074907899
 20
-2.1643175459
 30
0.0
 10
-77.9201194591
 20
-2.0915961978
 30
0.0
 10
-77.926599388
 20
-2.0501558692
 30
0.0
 11
-77.7354461823
 21
-2.1050554649
 31
0.0
 11
-77.7583373755
 21
-2.2160861288
 31
0.0
 11
-77.7701810444
 21
-2.2594435622
 31
0.0
 11
-77.7822323342
 21
-2.2944744041
 31
0.0
 11
-77.7944464773
 21
-2.3210616276
 31
0.0
 11
-77.8067786895
 21
-2.3390890703
 31
0.0
 11
-77.8191837511
 21
-2.3484818666
 31
0.0
 11
-77.8316156723
 21
-2.3492381984
 31
0.0
 11
-77.8440283841
 21
-2.3413637207
 31
0.0
 11
-77.8563759932
 21
-2.3248701842
 31
0.0
 11
-77.8806970854
 21
-2.2662383236
 31
0.0
 11
-77.9042233633
 21
-2.1739820634
 31
0.0
 11
-77.926599388
 21
-2.0501558692
 31
0.0
  0
LINE
  5
444
100
AcDbEntity
  8
RACCORDO
100
AcDbLine
 62
7
  6
CONTINUOUS
 10
-80.4684076314
 20
-19.8968626967
 11
-76.4944491648
 21
-19.8833201772
  0
LINE
  5
445
100
AcDbEntity
  8
RACCORDO
100
AcDbLine
 62
7
  6
CONTINUOUS
 10
-76.4944491648
 20
-19.8833201772
 11
-75.8299285154
 21
-19.8810732388
  0
LINE
  5
446
100
AcDbEntity
  8
RACCORDO
100
AcDbLine
 62
7
  6
CONTINUOUS
 10
-75.468476292
 20
-19.8798551246
 11
-72.9640443637
 21
-19.8712857716
  0
LINE
  5
447
100
AcDbEntity
  8
RACCORDO
100
AcDbLine
 62
7
  6
CONTINUOUS
 10
-80.4684076314
 20
19.8968626967
 11
-76.4944491648
 21
19.8833201772
  0
LINE
  5
448
100
AcDbEntity
  8
RACCORDO
100
AcDbLine
 62
7
  6
CONTINUOUS
 10
-76.4944491648
 20
19.8833201772
 11
-75.8299285156
 21
19.8810732388
  0
LINE
  5
449
100
AcDbEntity
  8
RACCORDO
100
AcDbLine
 62
7
  6
CONTINUOUS
 10
-75.4684762555
 20
19.8798551245
 11
-72.9640443637
 21
19.8712857716
  0
SPLINE
  5
44A
100
AcDbEntity
  8
RACCORDO
100
AcDbSpline
 62
253
  6
CONTINUOUS
 70
0
 71
3
 72
9
 73
5
 74
3
 42
0.0000001
 43
0.0000001
 44
0.0000000001
 12
0.4842072056
 22
0.0029468583
 32
0.0
 13
0.291366245
 23
0.3867441185
 33
0.0
 40
0.0
 40
0.0
 40
0.0
 40
0.0
 40
0.2750998585
 40
1.0
 40
1.0
 40
1.0
 40
1.0
 10
-72.9640443637
 20
-19.8712857673
 30
0.0
 10
-72.9196425857
 20
-19.8710155406
 30
0.0
 10
-72.7600779047
 20
-19.8553970224
 30
0.0
 10
-72.5961418356
 20
-19.7789160021
 30
0.0
 10
-72.5257380248
 20
-19.6854657133
 30
0.0
 11
-72.9640443637
 21
-19.8712857673
 31
0.0
 11
-72.831519317
 21
-19.8578161663
 31
0.0
 11
-72.5257380248
 21
-19.6854657133
 31
0.0
  0
SPLINE
  5
44B
100
AcDbEntity
  8
RACCORDO
100
AcDbSpline
 62
253
  6
CONTINUOUS
 70
0
 71
3
 72
8
 73
4
 74
2
 42
0.0000001
 43
0.0000001
 44
0.0000000001
 12
0.0374009537
 22
0.0496440446
 32
0.0
 13
0.0264841119
 23
0.0562312575
 33
0.0
 40
0.0
 40
0.0
 40
0.0
 40
0.0
 40
1.0
 40
1.0
 40
1.0
 40
1.0
 10
-72.5257380248
 20
-19.6854657133
 30
0.0
 10
-72.5132710403
 20
-19.6689176984
 30
0.0
 10
-72.5023398315
 20
-19.6510603119
 30
0.0
 10
-72.4935117942
 20
-19.6323165594
 30
0.0
 11
-72.5257380248
 21
-19.6854657133
 31
0.0
 11
-72.4935117942
 21
-19.6323165594
 31
0.0
  0
SPLINE
  5
44C
100
AcDbEntity
  8
RACCORDO
100
AcDbSpline
 62
253
  6
CONTINUOUS
 70
0
 71
3
 72
8
 73
4
 74
2
 42
0.0000001
 43
0.0000001
 44
0.0000000001
 12
0.0300972467
 22
0.0639026912
 32
0.0
 13
0.0121286982
 23
0.0695865855
 33
0.0
 40
0.0
 40
0.0
 40
0.0
 40
0.0
 40
1.0
 40
1.0
 40
1.0
 40
1.0
 10
-72.4935117942
 20
-19.6323165594
 30
0.0
 10
-72.4834793786
 20
-19.6110156623
 30
0.0
 10
-72.4760397353
 20
-19.5882327837
 30
0.0
 10
-72.4719968359
 20
-19.5650372552
 30
0.0
 11
-72.4935117942
 21
-19.6323165594
 31
0.0
 11
-72.4719968359
 21
-19.5650372552
 31
0.0
  0
SPLINE
  5
44D
100
AcDbEntity
  8
RACCORDO
100
AcDbSpline
 62
253
  6
CONTINUOUS
 70
0
 71
3
 72
9
 73
5
 74
3
 42
0.0000001
 43
0.0000001
 44
0.0000000001
 12
0.4875808203
 22
-0.0029513702
 32
0.0
 13
0.2890895197
 23
-0.3926461722
 33
0.0
 40
0.0
 40
0.0
 40
0.0
 40
0.0
 40
0.2755649281
 40
1.0
 40
1.0
 40
1.0
 40
1.0
 10
-72.9640443636
 20
19.8712858033
 30
0.0
 10
-72.919257639
 20
19.8710147052
 30
0.0
 10
-72.7586392254
 20
19.85516434
 30
0.0
 10
-72.5933722924
 20
19.777373662
 30
0.0
 10
-72.5235634301
 20
19.6825581093
 30
0.0
 11
-72.9640443636
 21
19.8712858033
 31
0.0
 11
-72.8303830458
 21
19.8575755943
 31
0.0
 11
-72.5235634301
 21
19.6825581093
 31
0.0
  0
SPLINE
  5
44E
100
AcDbEntity
  8
RACCORDO
100
AcDbSpline
 62
253
  6
CONTINUOUS
 70
0
 71
3
 72
8
 73
4
 74
2
 42
0.0000001
 43
0.0000001
 44
0.0000000001
 12
0.0362668622
 22
-0.0492582527
 32
0.0
 13
0.0255457112
 23
-0.0555794691
 33
0.0
 40
0.0
 40
0.0
 40
0.0
 40
0.0
 40
1.0
 40
1.0
 40
1.0
 40
1.0
 10
-72.5235634301
 20
19.6825581093
 30
0.0
 10
-72.5114744761
 20
19.6661386918
 30
0.0
 10
-72.5009008093
 20
19.6484575914
 30
0.0
 10
-72.4923855723
 20
19.6299311017
 30
0.0
 11
-72.5235634301
 21
19.6825581093
 31
0.0
 11
-72.4923855723
 21
19.6299311017
 31
0.0
  0
SPLINE
  5
44F
100
AcDbEntity
  8
RACCORDO
100
AcDbSpline
 62
253
  6
CONTINUOUS
 70
0
 71
3
 72
8
 73
4
 74
2
 42
0.0000001
 43
0.0000001
 44
0.0000000001
 12
0.028400952
 22
-0.0617915792
 32
0.0
 13
0.0116693812
 23
-0.066997305
 33
0.0
 40
0.0
 40
0.0
 40
0.0
 40
0.0
 40
1.0
 40
1.0
 40
1.0
 40
1.0
 10
-72.4923855723
 20
19.6299311017
 30
0.0
 10
-72.4829185883
 20
19.6093339087
 30
0.0
 10
-72.4758848969
 20
19.5873864059
 30
0.0
 10
-72.4719951032
 20
19.5650539709
 30
0.0
 11
-72.4923855723
 21
19.6299311017
 31
0.0
 11
-72.4719951032
 21
19.5650539709
 31
0.0
  0
SPLINE
  5
450
100
AcDbEntity
  8
0
100
AcDbSpline
 62
7
  6
CONTINUOUS
 70
0
 71
3
 72
14
 73
10
 74
8
 42
0.0000001
 43
0.0000001
 44
0.0000000001
 12
0.0
 22
0.9156970519
 32
0.0
 13
-0.9156970519
 23
0.0
 33
0.0
 40
0.0
 40
0.0
 40
0.0
 40
0.0
 40
0.0680364073
 40
0.148235742
 40
0.2472993607
 40
0.3665583806
 40
0.5056842008
 40
0.6609316112
 40
1.0
 40
1.0
 40
1.0
 40
1.0
 10
-59.2484076316
 20
-1.2538810671
 30
0.0
 10
-59.2484076316
 20
-1.2331141545
 30
0.0
 10
-59.2603012959
 20
-1.1874260347
 30
0.0
 10
-59.3094672281
 20
-1.1281954029
 30
0.0
 10
-59.3842824301
 20
-1.0751873069
 30
0.0
 10
-59.4832627925
 20
-1.0282571725
 30
0.0
 10
-59.6040013198
 20
-0.9903251238
 30
0.0
 10
-59.7935341963
 20
-0.9511068288
 30
0.0
 10
-59.9449129901
 20
-0.9401307503
 30
0.0
 10
-60.0484076314
 20
-0.9401307503
 30
0.0
 11
-59.2484076316
 21
-1.2538810671
 31
0.0
 11
-59.2630281937
 21
-1.1933201798
 31
0.0
 11
-59.3075756346
 21
-1.1349360331
 31
0.0
 11
-59.3804027889
 21
-1.0808535002
 31
0.0
 11
-59.4785866448
 21
-1.0330445939
 31
0.0
 11
-59.5997763116
 21
-0.9937624531
 31
0.0
 11
-59.7388755446
 21
-0.9644238413
 31
0.0
 11
-60.0484076314
 21
-0.9401307503
 31
0.0
  0
SPLINE
  5
451
100
AcDbEntity
  8
0
100
AcDbSpline
 62
253
  6
CONTINUOUS
 70
0
 71
3
 72
11
 73
7
 74
5
 42
0.0000001
 43
0.0000001
 44
0.0000000001
 12
-0.6447318546
 22
0.0238924061
 32
0.0
 13
-0.0
 23
0.6451744038
 33
0.0
 40
0.0
 40
0.0
 40
0.0
 40
0.0
 40
0.2882246335
 40
0.5546529692
 40
0.7895510406
 40
1.0
 40
1.0
 40
1.0
 40
1.0
 10
-76.4945756095
 20
-18.4669314929
 30
0.0
 10
-76.5565181437
 20
-18.4646360329
 30
0.0
 10
-76.6758814274
 20
-18.4446165422
 30
0.0
 10
-76.8309582366
 20
-18.369232872
 30
0.0
 10
-76.9402401621
 20
-18.2560344218
 30
0.0
 10
-76.9684076314
 20
-18.1591213956
 30
0.0
 10
-76.9684076314
 20
-18.1138626349
 30
0.0
 11
-76.4945756095
 21
-18.4669314929
 31
0.0
 11
-76.6777574619
 21
-18.4349357271
 31
0.0
 11
-76.8310800651
 21
-18.3572228303
 31
0.0
 11
-76.9328077949
 21
-18.2448887788
 31
0.0
 11
-76.9684076314
 21
-18.1138626349
 31
0.0
  0
SPLINE
  5
452
100
AcDbEntity
  8
0
100
AcDbSpline
 62
253
  6
CONTINUOUS
 70
0
 71
3
 72
11
 73
7
 74
5
 42
0.0000001
 43
0.0000001
 44
0.0000000001
 12
0.0
 22
-0.6451746371
 32
0.0
 13
0.6447320877
 23
-0.0238924147
 33
0.0
 40
0.0
 40
0.0
 40
0.0
 40
0.0
 40
0.2106665197
 40
0.4457065358
 40
0.712145759
 40
1.0
 40
1.0
 40
1.0
 40
1.0
 10
-76.9684076314
 20
-19.3469060477
 30
0.0
 10
-76.9684076314
 20
-19.3922116129
 30
0.0
 10
-76.9401825844
 20
-19.4892008101
 30
0.0
 10
-76.8307947594
 20
-19.6024123161
 30
0.0
 10
-76.6757190722
 20
-19.6776876789
 30
0.0
 10
-76.5564385648
 20
-19.6976823947
 30
0.0
 10
-76.4945756095
 20
-19.6999749057
 30
0.0
 11
-76.9684076314
 21
-19.3469060477
 31
0.0
 11
-76.9327369508
 21
-19.4780584424
 31
0.0
 11
-76.8308961403
 21
-19.5904136922
 31
0.0
 11
-76.6775275925
 21
-19.6680515681
 31
0.0
 11
-76.4945756095
 21
-19.6999749057
 31
0.0
  0
SPLINE
  5
453
100
AcDbEntity
  8
0
100
AcDbSpline
 62
253
  6
CONTINUOUS
 70
0
 71
3
 72
9
 73
5
 74
3
 42
0.0000001
 43
0.0000001
 44
0.0000000001
 12
-0.0033133688
 22
-0.1081017895
 32
0.0
 13
0.0
 23
-0.1081525557
 33
0.0
 40
0.0
 40
0.0
 40
0.0
 40
0.0
 40
0.3039435389
 40
1.0
 40
1.0
 40
1.0
 40
1.0
 10
-76.4945756095
 20
-19.6999749057
 30
0.0
 10
-76.4949113019
 20
-19.7109271858
 30
0.0
 10
-76.4959280366
 20
-19.7469627802
 30
0.0
 10
-76.4967249938
 20
-19.7830109565
 30
0.0
 10
-76.4967249938
 20
-19.8081043849
 30
0.0
 11
-76.4945756095
 21
-19.6999749057
 31
0.0
 11
-76.4955090584
 21
-19.7328339203
 31
0.0
 11
-76.4967249938
 21
-19.8081043849
 31
0.0
  0
SPLINE
  5
454
100
AcDbEntity
  8
0
100
AcDbSpline
 62
253
  6
CONTINUOUS
 70
0
 71
3
 72
10
 73
6
 74
4
 42
0.0000001
 43
0.0000001
 44
0.0000000001
 12
0.0
 22
-0.0377102666
 32
0.0
 13
0.0149845673
 23
-0.0346053023
 33
0.0
 40
0.0
 40
0.0
 40
0.0
 40
0.0
 40
0.6946472574
 40
0.896429314
 40
1.0
 40
1.0
 40
1.0
 40
1.0
 10
-76.4967249938
 20
-19.8081043849
 30
0.0
 10
-76.4967249938
 20
-19.8168361627
 30
0.0
 10
-76.4967886716
 20
-19.8281720107
 30
0.0
 10
-76.4958795518
 20
-19.8406162633
 30
0.0
 10
-76.4955394133
 20
-19.8445268319
 30
0.0
 10
-76.4950220926
 20
-19.8457215302
 30
0.0
 11
-76.4967249938
 21
-19.8081043849
 31
0.0
 11
-76.4962960793
 21
-19.8342962065
 31
0.0
 11
-76.4957629577
 21
-19.8418867628
 31
0.0
 11
-76.4950220926
 21
-19.8457215302
 31
0.0
  0
LINE
  5
455
100
AcDbEntity
  8
0
100
AcDbLine
 62
253
  6
CONTINUOUS
 10
-76.4950220926
 20
-19.8457215302
 11
-76.4945756095
 21
-19.8462208151
  0
SPLINE
  5
456
100
AcDbEntity
  8
0
100
AcDbSpline
 62
7
  6
CONTINUOUS
 70
0
 71
3
 72
23
 73
19
 74
17
 42
0.0000001
 43
0.0000001
 44
0.0000000001
 12
0.9994851266
 22
0.0261724391
 32
0.0
 13
0.0002567867
 23
0.9998277097
 33
0.0
 40
0.0
 40
0.0
 40
0.0
 40
0.0
 40
0.0012119143
 40
0.0048311001
 40
0.010842421
 40
0.0192302226
 40
0.0299787931
 40
0.0430710065
 40
0.0761399821
 40
0.1180886362
 40
0.168543657
 40
0.227005262
 40
0.2929028216
 40
0.3656280987
 40
0.4444497235
 40
0.6173165952
 40
0.8049994108
 40
1.0
 40
1.0
 40
1.0
 40
1.0
 10
-74.0684075338
 20
-17.4749999974
 30
0.0
 10
-74.0680037703
 20
-17.4749894245
 30
0.0
 10
-74.0688550922
 20
-17.4724272462
 30
0.0
 10
-74.0679400026
 20
-17.4697310719
 30
0.0
 10
-74.0683602724
 20
-17.4632056831
 30
0.0
 10
-74.0680670985
 20
-17.4550540933
 30
0.0
 10
-74.0680613553
 20
-17.4442250701
 30
0.0
 10
-74.0678777029
 20
-17.4253008039
 30
0.0
 10
-74.0677092625
 20
-17.3959094065
 30
0.0
 10
-74.0674829022
 20
-17.3541045933
 30
0.0
 10
-74.0673070522
 20
-17.3038210069
 30
0.0
 10
-74.0671865932
 20
-17.2455611284
 30
0.0
 10
-74.0671519797
 20
-17.1798771711
 30
0.0
 10
-74.0672210481
 20
-17.1074083204
 30
0.0
 10
-74.0674250578
 20
-16.9992891548
 30
0.0
 10
-74.0678288838
 20
-16.8528578537
 30
0.0
 10
-74.0682891866
 20
-16.6677068902
 30
0.0
 10
-74.0684244631
 20
-16.540167689
 30
0.0
 10
-74.0684077719
 20
-16.4751786915
 30
0.0
 11
-74.0684075338
 21
-17.4749999974
 31
0.0
 11
-74.0683516584
 21
-17.4737895809
 31
0.0
 11
-74.0682884119
 21
-17.4701715713
 31
0.0
 11
-74.0682170495
 21
-17.4641617095
 31
0.0
 11
-74.0681368265
 21
-17.4557757365
 31
0.0
 11
-74.0680469982
 21
-17.445029393
 31
0.0
 11
-74.0679470538
 21
-17.4319398163
 31
0.0
 11
-74.0677278071
 21
-17.3988772641
 31
0.0
 11
-74.0675104066
 21
-17.3569363994
 31
0.0
 11
-74.067327523
 21
-17.3064904013
 31
0.0
 11
-74.067205828
 21
-17.2480389935
 31
0.0
 11
-74.0671686308
 21
-17.1821527956
 31
0.0
 11
-74.0672299732
 21
-17.1094400719
 31
0.0
 11
-74.0673730814
 21
-17.0306321546
 31
0.0
 11
-74.0678077618
 21
-16.8577956071
 31
0.0
 11
-74.0682393958
 21
-16.6701456178
 31
0.0
 11
-74.0684077719
 21
-16.4751786915
 31
0.0
  0
SPLINE
  5
457
100
AcDbEntity
  8
0
100
AcDbSpline
 62
253
  6
CONTINUOUS
 70
0
 71
3
 72
13
 73
9
 74
7
 42
0.0000001
 43
0.0000001
 44
0.0000000001
 12
-1.3062271344
 22
1.7841977834
 32
0.0
 13
-2.2104842342
 23
0.0578835668
 33
0.0
 40
0.0
 40
0.0
 40
0.0
 40
0.0
 40
0.1381364012
 40
0.2733021353
 40
0.4038800952
 40
0.5297345525
 40
0.7691637756
 40
1.0
 40
1.0
 40
1.0
 40
1.0
 10
-60.925259107
 20
16.1309797716
 30
0.0
 10
-60.9854049455
 20
16.2131339919
 30
0.0
 10
-61.1151216394
 20
16.3679237768
 30
0.0
 10
-61.3277806128
 20
16.5768190415
 30
0.0
 10
-61.5539369231
 20
16.7571506261
 30
0.0
 10
-61.8635462702
 20
16.9524811593
 30
0.0
 10
-62.2729307007
 20
17.1234123456
 30
0.0
 10
-62.6197901749
 20
17.1752074012
 30
0.0
 10
-62.7898767865
 20
17.1796612759
 30
0.0
 11
-60.925259107
 21
16.1309797716
 31
0.0
 11
-61.1201560702
 21
16.3661748266
 31
0.0
 11
-61.3337012187
 21
16.5752924999
 31
0.0
 11
-61.5597809876
 21
16.7548987835
 31
0.0
 11
-61.7953358341
 21
16.9030940301
 31
0.0
 11
-62.2850286822
 21
17.1043484381
 31
0.0
 11
-62.7898767865
 21
17.1796612759
 31
0.0
  0
SPLINE
  5
458
100
AcDbEntity
  8
0
100
AcDbSpline
 62
253
  6
CONTINUOUS
 70
0
 71
3
 72
21
 73
17
 74
15
 42
0.0000001
 43
0.0000001
 44
0.0000000001
 12
0.9998028078
 22
0.0261807576
 32
0.0
 13
-0.0261716609
 23
0.9998030459
 33
0.0
 40
0.0
 40
0.0
 40
0.0
 40
0.0
 40
0.0015613857
 40
0.0054926
 40
0.0118695588
 40
0.0206564392
 40
0.0452539144
 40
0.0788477649
 40
0.1209829488
 40
0.1712003112
 40
0.2290391227
 40
0.2940379274
 40
0.4434126793
 40
0.6143516043
 40
0.8016243544
 40
1.0
 40
1.0
 40
1.0
 40
1.0
 10
-71.8029652582
 20
-17.4156773037
 30
0.0
 10
-71.802444899
 20
-17.4156636776
 30
0.0
 10
-71.8018290194
 20
-17.4132540999
 30
0.0
 10
-71.8011870985
 20
-17.4099233184
 30
0.0
 10
-71.8005397038
 20
-17.4032759253
 30
0.0
 10
-71.7996536363
 20
-17.3902329217
 30
0.0
 10
-71.7988381236
 20
-17.3677811178
 30
0.0
 10
-71.7981635609
 20
-17.3344036053
 30
0.0
 10
-71.7977691135
 20
-17.2923927202
 30
0.0
 10
-71.7976528424
 20
-17.2423298626
 30
0.0
 10
-71.7978244221
 20
-17.1846337613
 30
0.0
 10
-71.7984710038
 20
-17.0938863265
 30
0.0
 10
-71.8000557642
 20
-16.965438461
 30
0.0
 10
-71.8029344801
 20
-16.796242674
 30
0.0
 10
-71.8068147636
 20
-16.6107266424
 30
0.0
 10
-71.8099575078
 20
-16.4821965991
 30
0.0
 10
-71.8116881145
 20
-16.4160844076
 30
0.0
 11
-71.8029652582
 21
-17.4156773037
 31
0.0
 11
-71.8021205107
 21
-17.4143638973
 31
0.0
 11
-71.8013496185
 21
-17.4105084246
 31
0.0
 11
-71.8006525689
 21
-17.404168743
 31
0.0
 11
-71.8000293493
 21
-17.3954027097
 31
0.0
 11
-71.7990043492
 21
-17.3708230173
 31
0.0
 11
-71.7982745166
 21
-17.3372322054
 31
0.0
 11
-71.7978397502
 21
-17.2950931323
 31
0.0
 11
-71.7976999483
 21
-17.2448686562
 31
0.0
 11
-71.7978550094
 21
-17.1870216351
 31
0.0
 11
-71.7983048321
 21
-17.1220149273
 31
0.0
 11
-71.8000756335
 21
-16.9726289314
 31
0.0
 11
-71.8029479034
 21
-16.8016892587
 31
0.0
 11
-71.8068444583
 21
-16.6144297903
 31
0.0
 11
-71.8116881145
 21
-16.4160844076
 31
0.0
  0
SPLINE
  5
459
100
AcDbEntity
  8
0
100
AcDbSpline
 62
7
  6
CONTINUOUS
 70
0
 71
3
 72
11
 73
7
 74
5
 42
0.0000001
 43
0.0000001
 44
0.0000000001
 12
0.6337934198
 22
-0.2950069234
 32
0.0
 13
0.6986614608
 23
0.0243997337
 33
0.0
 40
0.0
 40
0.0
 40
0.0
 40
0.0
 40
0.2715280077
 40
0.5351769623
 40
0.7819287838
 40
1.0
 40
1.0
 40
1.0
 40
1.0
 10
-70.3508755317
 20
-7.9318567533
 30
0.0
 10
-70.2935113101
 20
-7.958557634
 30
0.0
 10
-70.1805161689
 20
-8.0112533318
 30
0.0
 10
-70.0131548852
 20
-8.0838056305
 30
0.0
 10
-69.8533196053
 20
-8.1403012472
 30
0.0
 10
-69.7450007747
 20
-8.160658565
 30
0.0
 10
-69.6942147898
 20
-8.1588849384
 30
0.0
 11
-70.3508755317
 21
-7.9318567533
 31
0.0
 11
-70.1784530435
 21
-8.0112469546
 31
0.0
 11
-70.0088062382
 21
-8.083298928
 31
0.0
 11
-69.8452425897
 21
-8.1381036558
 31
0.0
 11
-69.6942147898
 21
-8.1588849384
 31
0.0
  0
SPLINE
  5
45A
100
AcDbEntity
  8
0
100
AcDbSpline
 62
253
  6
CONTINUOUS
 70
0
 71
3
 72
13
 73
9
 74
7
 42
0.0000001
 43
0.0000001
 44
0.0000000001
 12
0.8453000635
 22
0.9474518512
 32
0.0
 13
-0.0009509167
 23
1.2697229239
 33
0.0
 40
0.0
 40
0.0
 40
0.0
 40
0.0
 40
0.072827049
 40
0.1685569368
 40
0.3059148821
 40
0.472814622
 40
0.6501015591
 40
1.0
 40
1.0
 40
1.0
 40
1.0
 10
-69.0905556109
 20
-15.810138718
 30
0.0
 10
-69.0700353745
 20
-15.7871386772
 30
0.0
 10
-69.0269019488
 20
-15.7301625204
 30
0.0
 10
-68.9515553353
 20
-15.6248933067
 30
0.0
 10
-68.8627085778
 20
-15.4805400455
 30
0.0
 10
-68.7726889106
 20
-15.2971295274
 30
0.0
 10
-68.6771122124
 20
-15.018849601
 30
0.0
 10
-68.6444713458
 20
-14.7945968247
 30
0.0
 10
-68.6445822539
 20
-14.6465054676
 30
0.0
 11
-69.0905556109
 21
-15.810138718
 31
0.0
 11
-69.0330647848
 21
-15.737712599
 31
0.0
 11
-68.9627587923
 21
-15.6385582573
 31
0.0
 11
-68.8714523186
 21
-15.4899622167
 31
0.0
 11
-68.7786155661
 21
-15.2994630459
 31
0.0
 11
-68.705399472
 21
-15.0865973071
 31
0.0
 11
-68.6445822539
 21
-14.6465054676
 31
0.0
  0
SPLINE
  5
45B
100
AcDbEntity
  8
0
100
AcDbSpline
 62
7
  6
CONTINUOUS
 70
0
 71
3
 72
17
 73
13
 74
11
 42
0.0000001
 43
0.0000001
 44
0.0000000001
 12
0.0054430451
 22
-0.2499452921
 32
0.0
 13
-0.2498511878
 23
-0.008755554
 33
0.0
 40
0.0
 40
0.0
 40
0.0
 40
0.0
 40
0.1947266115
 40
0.3823088396
 40
0.5549321685
 40
0.7062340476
 40
0.830502094
 40
0.9228374802
 40
0.9559315592
 40
0.9798481435
 40
0.994468396
 40
1.0
 40
1.0
 40
1.0
 40
1.0
 10
-65.1442930413
 20
-7.7502387288
 30
0.0
 10
-65.1439397394
 20
-7.7664623954
 30
0.0
 10
-65.1432936036
 20
-7.798314959
 30
0.0
 10
-65.1425349248
 20
-7.8445566367
 30
0.0
 10
-65.1420455255
 20
-7.8871721627
 30
0.0
 10
-65.1418051299
 20
-7.924546763
 30
0.0
 10
-65.1418648573
 20
-7.9551374242
 30
0.0
 10
-65.142130327
 20
-7.9760952715
 30
0.0
 10
-65.142651694
 20
-7.9883256215
 30
0.0
 10
-65.1430048538
 20
-7.9946310213
 30
0.0
 10
-65.1435563417
 20
-7.9976427698
 30
0.0
 10
-65.1438831189
 20
-7.999983932
 30
0.0
 10
-65.1443438116
 20
-8.0000000761
 30
0.0
 11
-65.1442930413
 21
-7.7502387288
 31
0.0
 11
-65.1433135583
 21
-7.7989114135
 31
0.0
 11
-65.1425545618
 21
-7.8458016819
 31
0.0
 11
-65.1420638005
 21
-7.8889555094
 31
0.0
 11
-65.1418486734
 21
-7.9267810561
 31
0.0
 11
-65.1419342646
 21
-7.9578485154
 31
0.0
 11
-65.1423583376
 21
-7.9809288866
 31
0.0
 11
-65.1427113821
 21
-7.9891950212
 31
0.0
 11
-65.1431632578
 21
-7.9951571767
 31
0.0
 11
-65.1437093411
 21
-7.9987712832
 31
0.0
 11
-65.1443438116
 21
-8.0000000761
 31
0.0
  0
SPLINE
  5
45C
100
AcDbEntity
  8
0
100
AcDbSpline
 62
7
  6
CONTINUOUS
 70
0
 71
3
 72
15
 73
11
 74
9
 42
0.0000001
 43
0.0000001
 44
0.0000000001
 12
0.2426480613
 22
-0.0353000355
 32
0.0
 13
-0.2395478486
 23
-0.0523545833
 33
0.0
 40
0.0
 40
0.0
 40
0.0
 40
0.0
 40
0.3857190961
 40
0.559106148
 40
0.7105960464
 40
0.8345458558
 40
0.9261570787
 40
0.9587271607
 40
0.9819960515
 40
1.0
 40
1.0
 40
1.0
 40
1.0
 10
-61.2556024229
 20
-4.3897096431
 30
0.0
 10
-61.2244044259
 20
-4.3942482757
 30
0.0
 10
-61.17921516
 20
-4.4008475157
 30
0.0
 10
-61.121679178
 20
-4.4092828352
 30
0.0
 10
-61.0855571409
 20
-4.4146375759
 30
0.0
 10
-61.0554127927
 20
-4.4190397824
 30
0.0
 10
-61.0363718224
 20
-4.4220546923
 30
0.0
 10
-61.0230629616
 20
-4.4238587751
 30
0.0
 10
-61.019542977
 20
-4.4248058403
 30
0.0
 10
-61.0116078747
 20
-4.4253033025
 30
0.0
 10
-61.0130454771
 20
-4.4256174989
 30
0.0
 11
-61.2556024229
 21
-4.3897096431
 31
0.0
 11
-61.1620151577
 21
-4.4033716929
 31
0.0
 11
-61.1199513164
 21
-4.4095483014
 31
0.0
 11
-61.083203647
 21
-4.4149713861
 31
0.0
 11
-61.0531409947
 21
-4.4194388249
 31
0.0
 11
-61.0309272515
 21
-4.4227777963
 31
0.0
 11
-61.0230325748
 21
-4.4239837895
 31
0.0
 11
-61.0173951739
 21
-4.4248632327
 31
0.0
 11
-61.0130454771
 21
-4.4256174989
 31
0.0
  0
SPLINE
  5
45D
100
AcDbEntity
  8
0
100
AcDbSpline
 62
253
  6
CONTINUOUS
 70
0
 71
3
 72
16
 73
12
 74
10
 42
0.0000001
 43
0.0000001
 44
0.0000000001
 12
-0.1207810186
 22
-0.9985125021
 32
0.0
 13
0.9982887962
 23
-0.1226162745
 33
0.0
 40
0.0
 40
0.0
 40
0.0
 40
0.0
 40
0.3760723373
 40
0.5457395142
 40
0.694721779
 40
0.8175752879
 40
0.867855832
 40
0.9101504704
 40
0.9442537441
 40
0.9701394548
 40
1.0
 40
1.0
 40
1.0
 40
1.0
 10
-77.7902769748
 20
-16.2279122492
 30
0.0
 10
-77.8054177748
 20
-16.353083226
 30
0.0
 10
-77.8234442104
 20
-16.5352632455
 30
0.0
 10
-77.8368747958
 20
-16.7678137959
 30
0.0
 10
-77.8404685999
 20
-16.9158357749
 30
0.0
 10
-77.8383953429
 20
-17.0238310991
 30
0.0
 10
-77.8328944982
 20
-17.0959491557
 30
0.0
 10
-77.827673137
 20
-17.1379359704
 30
0.0
 10
-77.8207316189
 20
-17.1720852695
 30
0.0
 10
-77.8122710257
 20
-17.1995242136
 30
0.0
 10
-77.8002134562
 20
-17.219237938
 30
0.0
 10
-77.7902769737
 20
-17.220458401
 30
0.0
 11
-77.7902769748
 21
-16.2279122492
 31
0.0
 11
-77.8267119056
 21
-16.6044034857
 31
0.0
 11
-77.836263557
 21
-16.7747856595
 31
0.0
 11
-77.8394911144
 21
-16.9245958973
 31
0.0
 11
-77.836263362
 21
-17.04811867
 31
0.0
 11
-77.8322622955
 21
-17.098531858
 31
0.0
 11
-77.8267115553
 21
-17.1407077225
 31
0.0
 11
-77.8196640674
 21
-17.1742766834
 31
0.0
 11
-77.8111773121
 21
-17.1988902579
 31
0.0
 11
-77.7902769737
 21
-17.220458401
 31
0.0
  0
SPLINE
  5
45E
100
AcDbEntity
  8
0
100
AcDbSpline
 62
7
  6
CONTINUOUS
 70
0
 71
3
 72
23
 73
19
 74
17
 42
0.0000001
 43
0.0000001
 44
0.0000000001
 12
0.0002509626
 22
0.9998610871
 32
0.0
 13
-0.9995184911
 23
0.0261733128
 33
0.0
 40
0.0
 40
0.0
 40
0.0
 40
0.0
 40
0.195005199
 40
0.3826693098
 40
0.5555207457
 40
0.6343526634
 40
0.7070888876
 40
0.7729897359
 40
0.8314498013
 40
0.8819032215
 40
0.9238550208
 40
0.9569292189
 40
0.9700234219
 40
0.9807727563
 40
0.9891603334
 40
0.9951708551
 40
0.9987890588
 40
1.0
 40
1.0
 40
1.0
 40
1.0
 10
-74.0684075271
 20
16.4751452253
 30
0.0
 10
-74.0683912141
 20
16.5401379287
 30
0.0
 10
-74.0682359163
 20
16.667676624
 30
0.0
 10
-74.0677806509
 20
16.8528239442
 30
0.0
 10
-74.067382862
 20
16.9992522002
 30
0.0
 10
-74.0671818603
 20
17.107376915
 30
0.0
 10
-74.0671135666
 20
17.1798563596
 30
0.0
 10
-74.0671467413
 20
17.2455467416
 30
0.0
 10
-74.0672670652
 20
17.3038086152
 30
0.0
 10
-74.0674492383
 20
17.3540938686
 30
0.0
 10
-74.0676906313
 20
17.3959022449
 30
0.0
 10
-74.0678735134
 20
17.425298009
 30
0.0
 10
-74.0680681167
 20
17.4442254313
 30
0.0
 10
-74.0680775527
 20
17.4550557177
 30
0.0
 10
-74.0683775359
 20
17.4632072277
 30
0.0
 10
-74.0679483836
 20
17.4697326267
 30
0.0
 10
-74.0688761556
 20
17.4724273738
 30
0.0
 10
-74.0680041788
 20
17.4749894352
 30
0.0
 10
-74.0684076315
 20
17.475
 30
0.0
 11
-74.0684075271
 21
16.4751452253
 31
0.0
 11
-74.0681918263
 21
16.6701232224
 31
0.0
 11
-74.0677601222
 21
16.8577607735
 31
0.0
 11
-74.0673316678
 21
17.0305876725
 31
0.0
 11
-74.0671906109
 21
17.1094085156
 31
0.0
 11
-74.0671298273
 21
17.1821346127
 31
0.0
 11
-74.0671661523
 21
17.2480262987
 31
0.0
 11
-74.0672888689
 21
17.3064781162
 31
0.0
 11
-74.067479235
 21
17.3569241702
 31
0.0
 11
-74.067711266
 21
17.3988695014
 31
0.0
 11
-74.0679468156
 21
17.4319382672
 31
0.0
 11
-74.068053653
 21
17.4450302158
 31
0.0
 11
-74.0681485033
 21
17.4557776388
 31
0.0
 11
-74.0682312153
 21
17.4641636431
 31
0.0
 11
-74.0683019
 21
17.4701729143
 31
0.0
 11
-74.0683606684
 21
17.4737901381
 31
0.0
 11
-74.0684076315
 21
17.475
 31
0.0
  0
SPLINE
  5
45F
100
AcDbEntity
  8
0
100
AcDbSpline
 62
253
  6
CONTINUOUS
 70
0
 71
3
 72
11
 73
7
 74
5
 42
0.0000001
 43
0.0000001
 44
0.0000000001
 12
-0.038274296
 22
-0.0020058709
 32
0.0
 13
-0.0
 23
-0.0383268215
 33
0.0
 40
0.0
 40
0.0
 40
0.0
 40
0.0
 40
0.0684864333
 40
0.2577723638
 40
0.5691731861
 40
1.0
 40
1.0
 40
1.0
 40
1.0
 10
-76.4945756095
 20
19.8462208151
 30
0.0
 10
-76.4954493662
 20
19.8461750235
 30
0.0
 10
-76.495508462
 20
19.8413531883
 30
0.0
 10
-76.4965238805
 20
19.8355452125
 30
0.0
 10
-76.4965773966
 20
19.8228222823
 30
0.0
 10
-76.4967249938
 20
19.813608459
 30
0.0
 10
-76.4967249938
 20
19.8081043849
 30
0.0
 11
-76.4945756095
 21
19.8462208151
 31
0.0
 11
-76.4955090584
 21
19.8437675312
 31
0.0
 11
-76.496182471
 21
19.8365441252
 31
0.0
 11
-76.4965890099
 21
19.8246160474
 31
0.0
 11
-76.4967249938
 21
19.8081043849
 31
0.0
  0
SPLINE
  5
460
100
AcDbEntity
  8
0
100
AcDbSpline
 62
253
  6
CONTINUOUS
 70
0
 71
3
 72
9
 73
5
 74
3
 42
0.0000001
 43
0.0000001
 44
0.0000000001
 12
0.0
 22
-0.1081531649
 32
0.0
 13
0.0033133874
 23
-0.1081023984
 33
0.0
 40
0.0
 40
0.0
 40
0.0
 40
0.0
 40
0.1936289123
 40
1.0
 40
1.0
 40
1.0
 40
1.0
 10
-76.4967249938
 20
19.8081043849
 30
0.0
 10
-76.4967249938
 20
19.8011238583
 30
0.0
 10
-76.496440661
 20
19.7650730118
 30
0.0
 10
-76.4954662161
 20
19.7290317885
 30
0.0
 10
-76.4945756095
 20
19.6999749057
 30
0.0
 11
-76.4967249938
 21
19.8081043849
 31
0.0
 11
-76.4965890099
 21
19.7871632467
 31
0.0
 11
-76.4945756095
 21
19.6999749057
 31
0.0
  0
LINE
  5
461
100
AcDbEntity
  8
0
100
AcDbLine
 62
253
  6
CONTINUOUS
 10
-76.4945756095
 20
19.6999749057
 11
-76.5022700419
 21
19.6996266301
  0
SPLINE
  5
462
100
AcDbEntity
  8
0
100
AcDbSpline
 62
253
  6
CONTINUOUS
 70
0
 71
3
 72
11
 73
7
 74
5
 42
0.0000001
 43
0.0000001
 44
0.0000000001
 12
-0.6368401864
 22
-0.0305699617
 32
0.0
 13
-0.0000000004
 23
-0.6375734825
 33
0.0
 40
0.0
 40
0.0
 40
0.0
 40
0.0
 40
0.2878923525
 40
0.5540651331
 40
0.7890381238
 40
1.0
 40
1.0
 40
1.0
 40
1.0
 10
-76.5022726262
 20
19.6996475694
 30
0.0
 10
-76.5633864327
 20
19.69671395
 30
0.0
 10
-76.6809926663
 20
19.675834074
 30
0.0
 10
-76.833551251
 20
19.6002189911
 30
0.0
 10
-76.9408279988
 20
19.4876332221
 30
0.0
 10
-76.9684076314
 20
19.391740614
 30
0.0
 10
-76.9684076314
 20
19.3469060479
 30
0.0
 11
-76.5022726262
 21
19.6996475694
 31
0.0
 11
-76.6827736839
 21
19.6663174125
 31
0.0
 11
-76.8335469685
 21
19.5884257946
 31
0.0
 11
-76.9334506426
 21
19.4767877392
 31
0.0
 11
-76.9684076314
 21
19.3469060479
 31
0.0
  0
SPLINE
  5
463
100
AcDbEntity
  8
0
100
AcDbSpline
 62
253
  6
CONTINUOUS
 70
0
 71
3
 72
11
 73
7
 74
5
 42
0.0000001
 43
0.0000001
 44
0.0000000001
 12
0.0000000001
 22
0.6451743984
 32
0.0
 13
0.6447319199
 23
0.0238904953
 33
0.0
 40
0.0
 40
0.0
 40
0.0
 40
0.0
 40
0.2104489953
 40
0.4453471322
 40
0.7117754826
 40
1.0
 40
1.0
 40
1.0
 40
1.0
 10
-76.9684076314
 20
18.1138626349
 30
0.0
 10
-76.9684076314
 20
18.1591214029
 30
0.0
 10
-76.9402401477
 20
18.2560344428
 30
0.0
 10
-76.8309582012
 20
18.3692329358
 30
0.0
 10
-76.6758813657
 20
18.4446164368
 30
0.0
 10
-76.556518125
 20
18.4646362174
 30
0.0
 10
-76.4945756095
 20
18.4669314929
 30
0.0
 11
-76.9684076314
 21
18.1138626349
 31
0.0
 11
-76.9328077831
 21
18.2448887984
 31
0.0
 11
-76.831080016
 21
18.3572228715
 31
0.0
 11
-76.677757385
 21
18.4349357311
 31
0.0
 11
-76.4945756095
 21
18.4669314929
 31
0.0
  0
SPLINE
  5
464
100
AcDbEntity
  8
0
100
AcDbSpline
 62
253
  6
CONTINUOUS
 70
0
 71
3
 72
9
 73
5
 74
3
 42
0.0000001
 43
0.0000001
 44
0.0000000001
 12
-0.0594467784
 22
-0.3498911976
 32
0.0
 13
-0.0169949512
 23
-0.3544981541
 33
0.0
 40
0.0
 40
0.0
 40
0.0
 40
0.0
 40
0.4602503042
 40
1.0
 40
1.0
 40
1.0
 40
1.0
 10
-76.4945747909
 20
18.4669140651
 30
0.0
 10
-76.5036949235
 20
18.4132348884
 30
0.0
 10
-76.5179130911
 20
18.2956759187
 30
0.0
 10
-76.5262811127
 20
18.1776377148
 30
0.0
 10
-76.529338786
 20
18.1138576245
 30
0.0
 11
-76.4945747909
 21
18.4669140651
 31
0.0
 11
-76.515543517
 21
18.3049202689
 31
0.0
 11
-76.529338786
 21
18.1138576245
 31
0.0
  0
SPLINE
  5
465
100
AcDbEntity
  8
0
100
AcDbSpline
 62
7
  6
CONTINUOUS
 70
0
 71
3
 72
14
 73
10
 74
8
 42
0.0000001
 43
0.0000001
 44
0.0000000001
 12
-0.5448877558
 22
0.7152152373
 32
0.0
 13
-0.0
 23
0.8991304144
 33
0.0
 40
0.0
 40
0.0
 40
0.0
 40
0.0
 40
0.2910821207
 40
0.4313444863
 40
0.5652809602
 40
0.6913898406
 40
0.808294801
 40
0.9119014446
 40
1.0
 40
1.0
 40
1.0
 40
1.0
 10
-76.5293450905
 20
16.3827391956
 30
0.0
 10
-76.5822141184
 20
16.4521346517
 30
0.0
 10
-76.659424422
 20
16.5558746896
 30
0.0
 10
-76.7556310311
 20
16.6953455025
 30
0.0
 10
-76.8219413346
 20
16.7953378262
 30
0.0
 10
-76.8805266999
 20
16.8920297831
 30
0.0
 10
-76.9260757969
 20
16.9856278605
 30
0.0
 10
-76.9579054538
 20
17.0725576298
 30
0.0
 10
-76.9684076314
 20
17.1298362109
 30
0.0
 10
-76.9684076314
 20
17.1562402412
 30
0.0
 11
-76.5293450905
 21
16.3827391956
 31
0.0
 11
-76.6846911531
 21
16.5933700851
 31
0.0
 11
-76.7563816065
 21
16.697125856
 31
0.0
 11
-76.8225323249
 21
16.7977568153
 31
0.0
 11
-76.880385878
 21
16.8952754277
 31
0.0
 11
-76.9260711862
 21
16.989940915
 31
0.0
 11
-76.9567973066
 21
17.0778836482
 31
0.0
 11
-76.9684076314
 21
17.1562402412
 31
0.0
  0
SPLINE
  5
466
100
AcDbEntity
  8
0
100
AcDbSpline
 62
7
  6
CONTINUOUS
 70
0
 71
3
 72
14
 73
10
 74
8
 42
0.0000001
 43
0.0000001
 44
0.0000000001
 12
0.9157070065
 22
0.0
 32
0.0
 13
0.0002454322
 23
-0.9157069736
 33
0.0
 40
0.0
 40
0.0
 40
0.0
 40
0.0
 40
0.3390869679
 40
0.4943241038
 40
0.6334375991
 40
0.7527378389
 40
0.8517868992
 40
0.9319661128
 40
1.0
 40
1.0
 40
1.0
 40
1.0
 10
-60.0484076314
 20
-0.06258913
 30
0.0
 10
-59.944906194
 20
-0.06258913
 30
0.0
 10
-59.793522323
 20
-0.0735427704
 30
0.0
 10
-59.6039869088
 20
-0.1127690586
 30
0.0
 10
-59.4832556606
 20
-0.1507366678
 30
0.0
 10
-59.384241009
 20
-0.1976034264
 30
0.0
 10
-59.3094220288
 20
-0.2506260597
 30
0.0
 10
-59.2603104706
 20
-0.3098832995
 30
0.0
 10
-59.2484131981
 20
-0.3555577863
 30
0.0
 10
-59.2484076322
 20
-0.3763241546
 30
0.0
 11
-60.0484076314
 21
-0.06258913
 31
0.0
 11
-59.7388538632
 21
-0.0868665381
 31
0.0
 11
-59.5997641586
 21
-0.116212224
 31
0.0
 11
-59.4785867731
 21
-0.1555001427
 31
0.0
 11
-59.3803502411
 21
-0.2032897821
 31
0.0
 11
-59.3075394134
 21
-0.2573735927
 31
0.0
 11
-59.263031551
 21
-0.3157657551
 31
0.0
 11
-59.2484076322
 21
-0.3763241546
 31
0.0
  0
SPLINE
  5
467
100
AcDbEntity
  8
0
100
AcDbSpline
 62
253
  6
CONTINUOUS
 70
0
 71
3
 72
14
 73
10
 74
8
 42
0.0000001
 43
0.0000001
 44
0.0000000001
 12
0.0000000003
 22
0.8183618726
 32
0.0
 13
0.81829712
 23
0.0102945635
 33
0.0
 40
0.0
 40
0.0
 40
0.0
 40
0.0
 40
0.0665004285
 40
0.1457935437
 40
0.2441779137
 40
0.3628736779
 40
0.5008248615
 40
0.6553193012
 40
1.0
 40
1.0
 40
1.0
 40
1.0
 10
-69.3684076314
 20
-14.9165339846
 30
0.0
 10
-69.3684076314
 20
-14.8983935128
 30
0.0
 10
-69.3559536585
 20
-14.8584580524
 30
0.0
 10
-69.3101749455
 20
-14.8085244073
 30
0.0
 10
-69.2422178661
 20
-14.7638420094
 30
0.0
 10
-69.1532123551
 20
-14.7248229823
 30
0.0
 10
-69.0455863542
 20
-14.6925466308
 30
0.0
 10
-68.8750175186
 20
-14.6583500556
 30
0.0
 10
-68.7385993283
 20
-14.6476882452
 30
0.0
 10
-68.6445822539
 20
-14.6465054661
 30
0.0
 11
-69.3684076314
 21
-14.9165339846
 31
0.0
 11
-69.3539507136
 21
-14.8640679197
 31
0.0
 11
-69.3122745164
 21
-14.8143299396
 31
0.0
 11
-69.2459208739
 21
-14.7687261994
 31
0.0
 11
-69.1574316205
 21
-14.7286628547
 31
0.0
 11
-69.0495302633
 21
-14.6954612003
 31
0.0
 11
-68.9256670016
 21
-14.6701030892
 31
0.0
 11
-68.6445822539
 21
-14.6465054661
 31
0.0
  0
SPLINE
  5
468
100
AcDbEntity
  8
0
100
AcDbSpline
 62
253
  6
CONTINUOUS
 70
0
 71
3
 72
16
 73
12
 74
10
 42
0.0000001
 43
0.0000001
 44
0.0000000001
 12
-0.99829375
 22
-0.1225750598
 32
0.0
 13
0.1207810058
 23
-0.9985123961
 33
0.0
 40
0.0
 40
0.0
 40
0.0
 40
0.0
 40
0.0298610309
 40
0.0557472196
 40
0.0898510597
 40
0.1321461108
 40
0.1824266693
 40
0.3052802048
 40
0.4542618538
 40
0.6239280984
 40
1.0
 40
1.0
 40
1.0
 40
1.0
 10
-77.7902769748
 20
17.2204584009
 30
0.0
 10
-77.8002136683
 20
17.2192383283
 30
0.0
 10
-77.8122709535
 20
17.199523314
 30
0.0
 10
-77.8207320395
 20
17.1720843232
 30
0.0
 10
-77.8276734197
 20
17.1379343681
 30
0.0
 10
-77.832894683
 20
17.0959472609
 30
0.0
 10
-77.8383954524
 20
17.0238290333
 30
0.0
 10
-77.8404685691
 20
16.915833924
 30
0.0
 10
-77.8368747323
 20
16.7678124685
 30
0.0
 10
-77.8234441575
 20
16.5352626104
 30
0.0
 10
-77.8054177557
 20
16.3530830678
 30
0.0
 10
-77.7902769748
 20
16.2279122492
 30
0.0
 11
-77.7902769748
 21
17.2204584009
 31
0.0
 11
-77.8111773801
 21
17.1988896469
 31
0.0
 11
-77.8196643729
 21
17.1742756486
 31
0.0
 11
-77.8267118776
 21
17.1407061129
 31
0.0
 11
-77.8322625143
 21
17.0985298207
 31
0.0
 11
-77.8362635001
 21
17.0481166171
 31
0.0
 11
-77.8394911147
 21
16.924593827
 31
0.0
 11
-77.8362635001
 21
16.7747842259
 31
0.0
 11
-77.8267118776
 21
16.6044030079
 31
0.0
 11
-77.7902769748
 21
16.2279122492
 31
0.0
  0
SPLINE
  5
469
100
AcDbEntity
  8
0
100
AcDbSpline
 62
7
  6
CONTINUOUS
 70
0
 71
3
 72
11
 73
7
 74
5
 42
0.0000001
 43
0.0000001
 44
0.0000000001
 12
0.0058229309
 22
-0.0098334854
 32
0.0
 13
-0.0097171145
 23
-0.0060151182
 33
0.0
 40
0.0
 40
0.0
 40
0.0
 40
0.0
 40
0.0674662407
 40
0.2574340875
 40
0.5695757615
 40
1.0
 40
1.0
 40
1.0
 40
1.0
 10
-60.2860801217
 20
15.7269526752
 30
0.0
 10
-60.2859491713
 20
15.7267315324
 30
0.0
 10
-60.2872117406
 20
15.72597775
 30
0.0
 10
-60.2885068395
 20
15.7248351384
 30
0.0
 10
-60.2917561395
 20
15.7228337325
 30
0.0
 10
-60.2940660366
 20
15.721354035
 30
0.0
 10
-60.2954601972
 20
15.7204910174
 30
0.0
 11
-60.2860801217
 21
15.7269526752
 31
0.0
 11
-60.2865644268
 21
15.7263527437
 31
0.0
 11
-60.2883160486
 21
15.725070157
 31
0.0
 11
-60.2912949674
 21
15.7231077343
 31
0.0
 11
-60.2954601972
 21
15.7204910174
 31
0.0
  0
SPLINE
  5
46A
100
AcDbEntity
  8
0
100
AcDbSpline
 62
253
  6
CONTINUOUS
 70
0
 71
3
 72
18
 73
14
 74
12
 42
0.0000001
 43
0.0000001
 44
0.0000000001
 12
0.1550888779
 22
-0.1922422357
 32
0.0
 13
-0.1741435111
 23
-0.175167562
 33
0.0
 40
0.0
 40
0.0
 40
0.0
 40
0.0
 40
0.0050673741
 40
0.0195605085
 40
0.0434097033
 40
0.0764551453
 40
0.1183517893
 40
0.1686878193
 40
0.2928396619
 40
0.44410048
 40
0.6168266547
 40
0.8046670188
 40
1.0
 40
1.0
 40
1.0
 40
1.0
 10
-60.7532148817
 20
16.3082453039
 30
0.0
 10
-60.7529529173
 20
16.3079205828
 30
0.0
 10
-60.7548893651
 20
16.3064445484
 30
0.0
 10
-60.7563362778
 20
16.3039293425
 30
0.0
 10
-60.7607931688
 20
16.2994779277
 30
0.0
 10
-60.7661229251
 20
16.2935748878
 30
0.0
 10
-60.7732968382
 20
16.2860670172
 30
0.0
 10
-60.7855715338
 20
16.2731987926
 30
0.0
 10
-60.8042418258
 20
16.253915722
 30
0.0
 10
-60.8299971634
 20
16.2275066502
 30
0.0
 10
-60.8595263845
 20
16.1974384246
 30
0.0
 10
-60.8916804495
 20
16.1648674158
 30
0.0
 10
-60.913897549
 20
16.1424687959
 30
0.0
 10
-60.9252362061
 20
16.1310634619
 30
0.0
 11
-60.7532148817
 21
16.3082453039
 31
0.0
 11
-60.7538700312
 21
16.3071788136
 31
0.0
 11
-60.7561838477
 21
16.3044472599
 31
0.0
 11
-60.7601342269
 21
16.300077384
 31
0.0
 11
-60.7656936984
 21
16.2941011916
 31
0.0
 11
-60.772803335
 21
16.2865815481
 31
0.0
 11
-60.7813927835
 21
16.277592529
 31
0.0
 11
-60.8026968479
 21
16.2555353336
 31
0.0
 11
-60.8287791838
 21
16.2287845918
 31
0.0
 11
-60.8586666195
 21
16.1983391828
 31
0.0
 11
-60.8912599888
 21
16.1653189395
 31
0.0
 11
-60.9252362061
 21
16.1310634619
 31
0.0
  0
SPLINE
  5
46B
100
AcDbEntity
  8
0
100
AcDbSpline
 62
253
  6
CONTINUOUS
 70
0
 71
3
 72
11
 73
7
 74
5
 42
0.0000001
 43
0.0000001
 44
0.0000000001
 12
1.5332740364
 22
-1.5304936079
 32
0.0
 13
0.0047680227
 23
-2.1664065225
 33
0.0
 40
0.0
 40
0.0
 40
0.0
 40
0.0
 40
0.2499907919
 40
0.4999884801
 40
0.749991757
 40
1.0
 40
1.0
 40
1.0
 40
1.0
 10
-60.9251300312
 20
16.1309532285
 30
0.0
 10
-60.797361901
 20
16.0034167922
 30
0.0
 10
-60.5655170865
 20
15.7230785326
 30
0.0
 10
-60.3081972476
 20
15.2426233865
 30
0.0
 10
-60.1493895934
 20
14.7212171476
 30
0.0
 10
-60.114427441
 20
14.359127225
 30
0.0
 10
-60.1140300927
 20
14.1785873956
 30
0.0
 11
-60.9251300312
 21
16.1309532285
 31
0.0
 11
-60.580594949
 21
15.7130923469
 31
0.0
 11
-60.3246183235
 21
15.2358038709
 31
0.0
 11
-60.1671179819
 21
14.7176001663
 31
0.0
 11
-60.1140300927
 21
14.1785873956
 31
0.0
  0
SPLINE
  5
46C
100
AcDbEntity
  8
0
100
AcDbSpline
 62
7
  6
CONTINUOUS
 70
0
 71
3
 72
10
 73
6
 74
4
 42
0.0000001
 43
0.0000001
 44
0.0000000001
 12
-0.344723373
 22
-2.3457078634
 32
0.0
 13
-1.615907497
 23
-1.7349416548
 33
0.0
 40
0.0
 40
0.0
 40
0.0
 40
0.0
 40
0.2503475864
 40
0.5007304136
 40
1.0
 40
1.0
 40
1.0
 40
1.0
 10
-61.2558070667
 20
-4.3904563477
 30
0.0
 10
-61.2845739549
 20
-4.5862037817
 30
0.0
 10
-61.3711779476
 20
-4.9742889305
 30
0.0
 10
-61.6584779518
 20
-5.7126205451
 30
0.0
 10
-61.998992206
 20
-6.2120078034
 30
0.0
 10
-62.2679166953
 20
-6.5007423375
 30
0.0
 11
-61.2558070667
 21
-4.3904563477
 31
0.0
 11
-61.3854838021
 21
-4.9696672508
 31
0.0
 11
-61.6009326834
 21
-5.5228239172
 31
0.0
 11
-62.2679166953
 21
-6.5007423375
 31
0.0
  0
SPLINE
  5
46D
100
AcDbEntity
  8
0
100
AcDbSpline
 62
7
  6
CONTINUOUS
 70
0
 71
3
 72
9
 73
5
 74
3
 42
0.0000001
 43
0.0000001
 44
0.0000000001
 12
-1.3218184354
 22
-0.4967191371
 32
0.0
 13
-1.4120672268
 23
-0.000155444
 33
0.0
 40
0.0
 40
0.0
 40
0.0
 40
0.0
 40
0.500000309
 40
1.0
 40
1.0
 40
1.0
 40
1.0
 10
-63.7604321861
 20
-7.500315563
 30
0.0
 10
-63.9807353949
 20
-7.583102137
 30
0.0
 10
-64.4372235754
 20
-7.7093542459
 30
0.0
 10
-64.9089439637
 20
-7.7506434892
 30
0.0
 10
-65.1442883561
 20
-7.7506693966
 30
0.0
 11
-63.7604321861
 21
-7.500315563
 31
0.0
 11
-64.4410319141
 21
-7.6881135813
 31
0.0
 11
-65.1442883561
 21
-7.7506693966
 31
0.0
  0
SPLINE
  5
46E
100
AcDbEntity
  8
0
100
AcDbSpline
 62
7
  6
CONTINUOUS
 70
0
 71
3
 72
13
 73
9
 74
7
 42
0.0000001
 43
0.0000001
 44
0.0000000001
 12
-0.5443971185
 22
-0.7145709843
 32
0.0
 13
0.0
 23
-0.8983206077
 33
0.0
 40
0.0
 40
0.0
 40
0.0
 40
0.0
 40
0.291306631
 40
0.4316319354
 40
0.5658842221
 40
0.6924708275
 40
0.8089906261
 40
1.0
 40
1.0
 40
1.0
 40
1.0
 10
-76.5293423031
 20
-16.3827355592
 30
0.0
 10
-76.5822044666
 20
-16.4521219812
 30
0.0
 10
-76.6590221588
 20
-16.5560638127
 30
0.0
 10
-76.7579587918
 20
-16.6936808939
 30
0.0
 10
-76.8226871882
 20
-16.7949200522
 30
0.0
 10
-76.8777781765
 20
-16.8938058236
 30
0.0
 10
-76.9380583994
 20
-17.0082140543
 30
0.0
 10
-76.9684050776
 20
-17.0990411672
 30
0.0
 10
-76.9684050776
 20
-17.1562370528
 30
0.0
 11
-76.5293423031
 21
-16.3827355592
 31
0.0
 11
-76.6852760349
 21
-16.5928893751
 31
0.0
 11
-76.7580535662
 21
-16.6958156915
 31
0.0
 11
-76.8228626742
 21
-16.7975237266
 31
0.0
 11
-76.878777637
 21
-16.8965424077
 31
0.0
 11
-76.9259411576
 21
-16.9899868213
 31
0.0
 11
-76.9684050776
 21
-17.1562370528
 31
0.0
  0
SPLINE
  5
46F
100
AcDbEntity
  8
0
100
AcDbSpline
 62
253
  6
CONTINUOUS
 70
0
 71
3
 72
13
 73
9
 74
7
 42
0.0000001
 43
0.0000001
 44
0.0000000001
 12
-0.0073645016
 22
-2.3085477388
 32
0.0
 13
-2.3075317653
 23
-0.0688770668
 33
0.0
 40
0.0
 40
0.0
 40
0.0
 40
0.0
 40
0.1266071389
 40
0.2514214353
 40
0.5000170045
 40
0.7486128706
 40
0.8734158524
 40
1.0
 40
1.0
 40
1.0
 40
1.0
 10
-70.3509513511
 20
-14.9158296882
 30
0.0
 10
-70.3512621505
 20
-15.0132558963
 30
0.0
 10
-70.3700132273
 20
-15.2072820435
 30
0.0
 10
-70.4805696113
 20
-15.5778421606
 30
0.0
 10
-70.7492608294
 20
-15.9893096973
 30
0.0
 10
-71.1534300268
 20
-16.2688431385
 30
0.0
 10
-71.5208928401
 20
-16.3892098755
 30
0.0
 10
-71.7143241859
 20
-16.413115219
 30
0.0
 10
-71.8116898331
 20
-16.4160214673
 30
0.0
 11
-70.3509513511
 21
-14.9158296882
 31
0.0
 11
-70.3794886349
 21
-15.2067133195
 31
0.0
 11
-70.4619983991
 21
-15.4827885014
 31
0.0
 11
-70.776335237
 21
-15.9629456378
 31
0.0
 11
-71.2479638033
 21
-16.2899407535
 31
0.0
 11
-71.5217217047
 21
-16.3797568238
 31
0.0
 11
-71.8116898331
 21
-16.4160214673
 31
0.0
  0
SPLINE
  5
470
100
AcDbEntity
  8
0
100
AcDbSpline
 62
253
  6
CONTINUOUS
 70
0
 71
3
 72
9
 73
5
 74
3
 42
0.0000001
 43
0.0000001
 44
0.0000000001
 12
0.0169973466
 22
-0.3545107045
 32
0.0
 13
0.059451065
 23
-0.3499033013
 33
0.0
 40
0.0
 40
0.0
 40
0.0
 40
0.0
 40
0.5397611339
 40
1.0
 40
1.0
 40
1.0
 40
1.0
 10
-76.5293423031
 20
-18.1138626349
 30
0.0
 10
-76.5262841341
 20
-18.1776463349
 30
0.0
 10
-76.5179161166
 20
-18.2956887785
 30
0.0
 10
-76.5036961731
 20
-18.4132517933
 30
0.0
 10
-76.4945756095
 20
-18.4669314929
 30
0.0
 11
-76.5293423031
 21
-18.1138626349
 31
0.0
 11
-76.5155457606
 21
-18.3049361035
 31
0.0
 11
-76.4945756095
 21
-18.4669314929
 31
0.0
  0
SPLINE
  5
471
100
AcDbEntity
  8
0
100
AcDbSpline
 62
7
  6
CONTINUOUS
 70
0
 71
3
 72
22
 73
18
 74
16
 42
0.0000001
 43
0.0000001
 44
0.0000000001
 12
0.0
 22
-3.0236294541
 32
0.0
 13
-3.0236291702
 23
0.0013102386
 33
0.0
 40
0.0
 40
0.0
 40
0.0
 40
0.0
 40
0.1937866459
 40
0.380114014
 40
0.5518296425
 40
0.7023807852
 40
0.8260816067
 40
0.8763884532
 40
0.9183740844
 40
0.9361359917
 40
0.9516994631
 40
0.965044266
 40
0.976165642
 40
0.9850840838
 40
0.9887383881
 40
0.9918769255
 40
1.0
 40
1.0
 40
1.0
 40
1.0
 10
-90.9074269828
 20
0.0
 30
0.0
 10
-90.9074269828
 20
-0.1953130034
 30
0.0
 10
-90.9099371903
 20
-0.578426484
 30
0.0
 10
-90.9211522968
 20
-1.1345061944
 30
0.0
 10
-90.9392706536
 20
-1.6468135371
 30
0.0
 10
-90.9635487582
 20
-2.0956595169
 30
0.0
 10
-90.9892165877
 20
-2.4218384241
 30
0.0
 10
-91.0132575141
 20
-2.6382174364
 30
0.0
 10
-91.0286117601
 20
-2.7480991197
 30
0.0
 10
-91.0416344282
 20
-2.8228842621
 30
0.0
 10
-91.0509957087
 20
-2.8689914735
 30
0.0
 10
-91.0604530082
 20
-2.9082168785
 30
0.0
 10
-91.0700160981
 20
-2.9405206229
 30
0.0
 10
-91.078409406
 20
-2.9628522085
 30
0.0
 10
-91.0854840729
 20
-2.9771618278
 30
0.0
 10
-91.0929728657
 20
-2.9897361309
 30
0.0
 10
-91.1024749829
 20
-3.0000034597
 30
0.0
 10
-91.1106620379
 20
-2.999999912
 30
0.0
 11
-90.9074269828
 21
0.0
 31
0.0
 11
-90.9113418809
 21
-0.5859259316
 31
0.0
 11
-90.9229329205
 21
-1.1491916008
 31
0.0
 11
-90.9417461102
 21
-1.6680550762
 31
0.0
 11
-90.9670473549
 21
-2.1225622627
 31
0.0
 11
-90.9978542249
 21
-2.4953168363
 31
0.0
 11
-91.014957282
 21
-2.6464615129
 31
0.0
 11
-91.0329768709
 21
-2.7721251145
 31
0.0
 11
-91.0422764803
 21
-2.8250192545
 31
0.0
 11
-91.0517396457
 21
-2.8711161082
 31
0.0
 11
-91.0613436642
 21
-2.9103062125
 31
0.0
 11
-91.0710654927
 21
-2.9424971401
 31
0.0
 11
-91.0808818301
 21
-2.9676130332
 31
0.0
 11
-91.0858181025
 21
-2.9774983459
 31
0.0
 11
-91.0907691696
 21
-2.9855941935
 31
0.0
 11
-91.1106620379
 21
-2.999999912
 31
0.0
  0
SPLINE
  5
472
100
AcDbEntity
  8
0
100
AcDbSpline
 62
7
  6
CONTINUOUS
 70
0
 71
3
 72
27
 73
23
 74
21
 42
0.0000001
 43
0.0000001
 44
0.0000000001
 12
0.6169753556
 22
0.0
 32
0.0
 13
-0.6169753556
 23
0.0
 33
0.0
 40
0.0
 40
0.0
 40
0.0
 40
0.0
 40
0.0047122208
 40
0.0130770749
 40
0.0427259962
 40
0.0893515242
 40
0.151392615
 40
0.2265893069
 40
0.3121650363
 40
0.4049376503
 40
0.5014285127
 40
0.5979802192
 40
0.6908908854
 40
0.7765644961
 40
0.8516710811
 40
0.9133106694
 40
0.9591746551
 40
0.9756888952
 40
0.9877963067
 40
0.9922249349
 40
0.9956302509
 40
1.0
 40
1.0
 40
1.0
 40
1.0
 10
-89.6744548535
 20
-31.212462
 30
0.0
 10
-89.6734857454
 20
-31.212462
 30
0.0
 10
-89.67114224
 20
-31.2144262614
 30
0.0
 10
-89.667172238
 20
-31.2220746815
 30
0.0
 10
-89.6619127838
 20
-31.2389468345
 30
0.0
 10
-89.6557060434
 20
-31.2665921454
 30
0.0
 10
-89.6490117445
 20
-31.3038679787
 30
0.0
 10
-89.6422331013
 20
-31.3491731852
 30
0.0
 10
-89.6356221487
 20
-31.400905397
 30
0.0
 10
-89.6294543579
 20
-31.4570916584
 30
0.0
 10
-89.6239682887
 20
-31.5156183035
 30
0.0
 10
-89.6193797824
 20
-31.574249861
 30
0.0
 10
-89.6158646653
 20
-31.6307276105
 30
0.0
 10
-89.6135619439
 20
-31.6828527813
 30
0.0
 10
-89.6125298241
 20
-31.7285910391
 30
0.0
 10
-89.612832669
 20
-31.7661463227
 30
0.0
 10
-89.6141129483
 20
-31.7916447419
 30
0.0
 10
-89.6160935456
 20
-31.8068471996
 30
0.0
 10
-89.6174695402
 20
-31.8135076689
 30
0.0
 10
-89.6188917776
 20
-31.8173943446
 30
0.0
 10
-89.6199936068
 20
-31.8195822055
 30
0.0
 10
-89.6214065133
 20
-31.820852
 30
0.0
 10
-89.6223051891
 20
-31.820852
 30
0.0
 11
-89.6744548535
 21
-31.212462
 31
0.0
 11
-89.6719433385
 21
-31.2139265225
 31
0.0
 11
-89.6692065572
 21
-31.2183020234
 31
0.0
 11
-89.6631666916
 21
-31.2355687893
 31
0.0
 11
-89.6565671386
 21
-31.263568339
 31
0.0
 11
-89.6496586216
 21
-31.3012175648
 31
0.0
 11
-89.6427018167
 21
-31.3470875226
 31
0.0
 11
-89.6359589609
 21
-31.399453303
 31
0.0
 11
-89.6296854576
 21
-31.4563468834
 31
0.0
 11
-89.6241212907
 21
-31.5156187714
 31
0.0
 11
-89.6194822738
 21
-31.5750078884
 31
0.0
 11
-89.6159510094
 21
-31.6322226093
 31
0.0
 11
-89.6136685627
 21
-31.6850318144
 31
0.0
 11
-89.6127271688
 21
-31.731361163
 31
0.0
 11
-89.6131650713
 21
-31.7693887487
 31
0.0
 11
-89.6149644875
 21
-31.7976284268
 31
0.0
 11
-89.6163540616
 21
-31.8077221051
 31
0.0
 11
-89.61805241
 21
-31.8149964526
 31
0.0
 11
-89.6190122426
 21
-31.8175546712
 31
0.0
 11
-89.6200429047
 21
-31.8193854962
 31
0.0
 11
-89.6223051891
 21
-31.820852
 31
0.0
  0
SPLINE
  5
473
100
AcDbEntity
  8
0
100
AcDbSpline
 62
7
  6
CONTINUOUS
 70
0
 71
3
 72
22
 73
18
 74
16
 42
0.0000001
 43
0.0000001
 44
0.0000000001
 12
3.0236292037
 22
0.001319241
 32
0.0
 13
0.0
 23
-3.0236294915
 33
0.0
 40
0.0
 40
0.0
 40
0.0
 40
0.0
 40
0.0081230645
 40
0.0112615984
 40
0.0149158991
 40
0.0238343342
 40
0.0349557036
 40
0.0483005002
 40
0.0638639664
 40
0.0816258689
 40
0.1236114922
 40
0.1739183336
 40
0.2976191514
 40
0.4481703008
 40
0.6198859432
 40
0.8062133311
 40
1.0
 40
1.0
 40
1.0
 40
1.0
 10
-91.1106620792
 20
2.9999999121
 30
0.0
 10
-91.1024750342
 20
3.0000034842
 30
0.0
 10
-91.0929729015
 20
2.98973618
 30
0.0
 10
-91.0854841102
 20
2.9771618963
 30
0.0
 10
-91.0784094413
 20
2.962852293
 30
0.0
 10
-91.0700161324
 20
2.9405207257
 30
0.0
 10
-91.0604530407
 20
2.9082170019
 30
0.0
 10
-91.0509957401
 20
2.8689916156
 30
0.0
 10
-91.0416344579
 20
2.8228844207
 30
0.0
 10
-91.0286117869
 20
2.7480992961
 30
0.0
 10
-91.013257538
 20
2.6382176299
 30
0.0
 10
-90.9892166062
 20
2.4218386324
 30
0.0
 10
-90.9635487714
 20
2.0956597236
 30
0.0
 10
-90.9392706614
 20
1.6468137214
 30
0.0
 10
-90.9211523002
 20
1.1345063318
 30
0.0
 10
-90.9099371909
 20
0.5784265575
 30
0.0
 10
-90.9074269828
 20
0.1953130291
 30
0.0
 10
-90.9074269828
 20
0.0
 30
0.0
 11
-91.1106620792
 21
2.9999999121
 31
0.0
 11
-91.0907692077
 21
2.985594249
 31
0.0
 11
-91.0858181399
 21
2.9774984141
 31
0.0
 11
-91.0808818668
 21
2.9676131136
 31
0.0
 11
-91.0710655277
 21
2.9424972426
 31
0.0
 11
-91.0613436976
 21
2.9103063361
 31
0.0
 11
-91.0517396777
 21
2.8711162512
 31
0.0
 11
-91.0422765105
 21
2.8250194134
 31
0.0
 11
-91.0329768992
 21
2.7721252878
 31
0.0
 11
-91.0149573069
 21
2.6464617091
 31
0.0
 11
-90.9978542463
 21
2.4953170467
 31
0.0
 11
-90.9670473697
 21
2.1225624801
 31
0.0
 11
-90.941746119
 21
1.668055268
 31
0.0
 11
-90.9229329246
 21
1.1491917443
 31
0.0
 11
-90.9113418819
 21
0.5859260085
 31
0.0
 11
-90.9074269828
 21
0.0
 31
0.0
  0
LINE
  5
474
100
AcDbEntity
  8
0
100
AcDbLine
 62
7
  6
CONTINUOUS
 10
-89.6456129223
 20
-33.250056
 11
-89.7015122441
 21
-32.758394
  0
SPLINE
  5
475
100
AcDbEntity
  8
RACCORDO
100
AcDbSpline
 62
253
  6
CONTINUOUS
 70
0
 71
3
 72
17
 73
13
 74
11
 42
0.0000001
 43
0.0000001
 44
0.0000000001
 12
0.0537703308
 22
0.5035959653
 32
0.0
 13
-0.5063823027
 23
-0.0087811318
 33
0.0
 40
0.0
 40
0.0
 40
0.0
 40
0.0
 40
0.3794984242
 40
0.5510552991
 40
0.7013345001
 40
0.7666341394
 40
0.8245280911
 40
0.8745020977
 40
0.9161590068
 40
0.9492535874
 40
0.9737792866
 40
1.0
 40
1.0
 40
1.0
 40
1.0
 10
-87.7838012685
 20
38.9859871049
 30
0.0
 10
-87.7769993499
 20
39.04969173
 30
0.0
 10
-87.7688780895
 20
39.1424055881
 30
0.0
 10
-87.7628146227
 20
39.2606595803
 30
0.0
 10
-87.7613691619
 20
39.3260122494
 30
0.0
 10
-87.7618229895
 20
39.372187218
 30
0.0
 10
-87.762852444
 20
39.4013927246
 30
0.0
 10
-87.7646091002
 20
39.426624804
 30
0.0
 10
-87.7669297367
 20
39.4474329225
 30
0.0
 10
-87.7701309851
 20
39.4642609577
 30
0.0
 10
-87.7736357092
 20
39.4769992913
 30
0.0
 10
-87.7793753667
 20
39.4866641886
 30
0.0
 10
-87.7838012685
 20
39.4865874394
 30
0.0
 11
-87.7838012685
 21
38.9859871049
 31
0.0
 11
-87.7674056819
 21
39.1774866948
 31
0.0
 11
-87.7630798535
 21
39.2642653687
 31
0.0
 11
-87.7616168608
 21
39.3403614753
 31
0.0
 11
-87.761983606
 21
39.3734309948
 31
0.0
 11
-87.7630798524
 21
39.4027313745
 31
0.0
 11
-87.7648937181
 21
39.4279760511
 31
0.0
 11
-87.7674056799
 21
39.4489234675
 31
0.0
 11
-87.7705889438
 21
39.4653794372
 31
0.0
 11
-87.7744100225
 21
39.4771983517
 31
0.0
 11
-87.7838012685
 21
39.4865874394
 31
0.0
  0
SPLINE
  5
476
100
AcDbEntity
  8
RACCORDO
100
AcDbSpline
 62
253
  6
CONTINUOUS
 70
0
 71
3
 72
17
 73
13
 74
11
 42
0.0000001
 43
0.0000001
 44
0.0000000001
 12
0.5063822571
 22
-0.0087832969
 32
0.0
 13
-0.0537703056
 23
0.5035959599
 33
0.0
 40
0.0
 40
0.0
 40
0.0
 40
0.0
 40
0.026220743
 40
0.0507464251
 40
0.0838410103
 40
0.1254979135
 40
0.1754719166
 40
0.233365863
 40
0.2986654972
 40
0.4489446918
 40
0.6205015655
 40
1.0
 40
1.0
 40
1.0
 40
1.0
 10
-87.7838012685
 20
-39.4865874394
 30
0.0
 10
-87.7793753621
 20
-39.4866642076
 30
0.0
 10
-87.7736357226
 20
-39.4769992611
 30
0.0
 10
-87.7701309816
 20
-39.4642609456
 30
0.0
 10
-87.7669297412
 20
-39.4474329058
 30
0.0
 10
-87.7646091007
 20
-39.4266247916
 30
0.0
 10
-87.7628524455
 20
-39.401392714
 30
0.0
 10
-87.76182299
 20
-39.3721872106
 30
0.0
 10
-87.7613691617
 20
-39.3260122454
 30
0.0
 10
-87.7628146216
 20
-39.2606595796
 30
0.0
 10
-87.7688780862
 20
-39.1424055886
 30
0.0
 10
-87.7769993529
 20
-39.0496917311
 30
0.0
 10
-87.7838012685
 20
-38.9859871049
 30
0.0
 11
-87.7838012685
 21
-39.4865874394
 31
0.0
 11
-87.7744100253
 21
-39.4771983279
 31
0.0
 11
-87.7705889455
 21
-39.4653794231
 31
0.0
 11
-87.7674056819
 21
-39.4489234513
 31
0.0
 11
-87.7648937196
 21
-39.4279760382
 31
0.0
 11
-87.7630798535
 21
-39.4027313639
 31
0.0
 11
-87.7619836066
 21
-39.3734309873
 31
0.0
 11
-87.7616168608
 21
-39.3403614709
 31
0.0
 11
-87.7630798524
 21
-39.2642653688
 31
0.0
 11
-87.7674056799
 21
-39.1774866968
 31
0.0
 11
-87.7838012685
 21
-38.9859871049
 31
0.0
  0
SPLINE
  5
477
100
AcDbEntity
  8
0
100
AcDbSpline
 62
7
  6
CONTINUOUS
 70
0
 71
3
 72
26
 73
22
 74
20
 42
0.0000001
 43
0.0000001
 44
0.0000000001
 12
0.1553567077
 22
1.4820589728
 32
0.0
 13
-1.4901793535
 23
0.0
 33
0.0
 40
0.0
 40
0.0
 40
0.0
 40
0.0
 40
0.0412667017
 40
0.0952498311
 40
0.1604212814
 40
0.2348699053
 40
0.4025556892
 40
0.4908422808
 40
0.5786660143
 40
0.6634884168
 40
0.7428812871
 40
0.814589755
 40
0.876588432
 40
0.9271402708
 40
0.9476778338
 40
0.9648707852
 40
0.9786263127
 40
0.9889119208
 40
0.9927807991
 40
0.9958474348
 40
1.0
 40
1.0
 40
1.0
 40
1.0
 10
-89.356266934
 20
-32.2232416669
 30
0.0
 10
-89.3541299144
 20
-32.2028551051
 30
0.0
 10
-89.3514428601
 20
-32.1555776468
 30
0.0
 10
-89.3502615389
 20
-32.0758960759
 30
0.0
 10
-89.3516211153
 20
-31.9797244646
 30
0.0
 10
-89.3570245701
 20
-31.8271668346
 30
0.0
 10
-89.3671188358
 20
-31.6633167375
 30
0.0
 10
-89.380968435
 20
-31.493104407
 30
0.0
 10
-89.3932372117
 20
-31.364069524
 30
0.0
 10
-89.406825372
 20
-31.2396102877
 30
0.0
 10
-89.4213347528
 20
-31.1233174432
 30
0.0
 10
-89.4363212205
 20
-31.0185230654
 30
0.0
 10
-89.4513443958
 20
-30.9282310655
 30
0.0
 10
-89.4641910383
 20
-30.8633601849
 30
0.0
 10
-89.474456364
 20
-30.82071964
 30
0.0
 10
-89.4813243611
 20
-30.796077265
 30
0.0
 10
-89.487879756
 20
-30.7766554646
 30
0.0
 10
-89.4933375321
 20
-30.7638943771
 30
0.0
 10
-89.4977901611
 20
-30.7565187569
 30
0.0
 10
-89.5011321058
 20
-30.7522564891
 30
0.0
 10
-89.5044604349
 20
-30.7499411971
 30
0.0
 10
-89.5065231239
 20
-30.7499411971
 30
0.0
 11
-89.356266934
 21
-32.2232416669
 31
0.0
 11
-89.3521743098
 21
-32.1618832181
 31
0.0
 11
-89.3506957771
 21
-32.0814522618
 31
0.0
 11
-89.3518772323
 21
-31.9843422987
 31
0.0
 11
-89.3556819604
 21
-31.873465757
 31
0.0
 11
-89.3706138055
 21
-31.6240303936
 31
0.0
 11
-89.3812851491
 21
-31.4929010395
 31
0.0
 11
-89.3936863222
 21
-31.3626168003
 31
0.0
 11
-89.4074505231
 21
-31.2369678582
 31
0.0
 11
-89.4221755113
 21
-31.1195781653
 31
0.0
 11
-89.4374350676
 21
-31.0138148431
 31
0.0
 11
-89.4527897816
 21
-30.9227105759
 31
0.0
 11
-89.4677982361
 21
-30.8488894947
 31
0.0
 11
-89.4750366215
 21
-30.8191531445
 31
0.0
 11
-89.4820272638
 21
-30.7945047144
 31
0.0
 11
-89.4887192185
 21
-30.7751296256
 31
0.0
 11
-89.4950632473
 21
-30.7611767579
 31
0.0
 11
-89.4980900508
 21
-30.7562698847
 31
0.0
 11
-89.5010127638
 21
-30.7527568858
 31
0.0
 11
-89.5065231239
 21
-30.7499411971
 31
0.0
  0
SPLINE
  5
478
100
AcDbEntity
  8
0
100
AcDbSpline
 62
7
  6
CONTINUOUS
 70
0
 71
3
 72
22
 73
18
 74
16
 42
0.0000001
 43
0.0000001
 44
0.0000000001
 12
-3.023608379
 22
0.0013102296
 32
0.0
 13
0.0
 23
3.0236086628
 33
0.0
 40
0.0
 40
0.0
 40
0.0
 40
0.0
 40
0.0081257594
 40
0.0112651517
 40
0.0149204985
 40
0.0238407863
 40
0.0349640685
 40
0.0483106269
 40
0.0638755555
 40
0.0816387784
 40
0.1236264118
 40
0.1739341424
 40
0.2976339405
 40
0.44818143
 40
0.6198926511
 40
0.8062162238
 40
1.0
 40
1.0
 40
1.0
 40
1.0
 10
-91.1106620379
 20
-2.999999912
 30
0.0
 10
-91.1188517426
 20
-2.9999963632
 30
0.0
 10
-91.128349362
 20
-2.9897226639
 30
0.0
 10
-91.1358380899
 20
-2.9771428322
 30
0.0
 10
-91.1429108771
 20
-2.9628282626
 30
0.0
 10
-91.1513027723
 20
-2.9404912003
 30
0.0
 10
-91.160862962
 20
-2.9081810375
 30
0.0
 10
-91.1703171233
 20
-2.8689498752
 30
0.0
 10
-91.1796747906
 20
-2.8228376028
 30
0.0
 10
-91.1926914531
 20
-2.7480470644
 30
0.0
 10
-91.2080373172
 20
-2.6381607187
 30
0.0
 10
-91.2320626561
 20
-2.4217796024
 30
0.0
 10
-91.2577099472
 20
-2.0956052259
 30
0.0
 10
-91.281965298
 20
-1.6467703147
 30
0.0
 10
-91.3000646282
 20
-1.1344778258
 30
0.0
 10
-91.3112671665
 20
-0.5784128851
 30
0.0
 10
-91.313774463
 20
-0.1953087682
 30
0.0
 10
-91.313774463
 20
0.0
 30
0.0
 11
-91.1106620379
 21
-2.999999912
 31
0.0
 11
-91.13055356
 21
-2.9855787874
 31
0.0
 11
-91.1355039288
 21
-2.9774795596
 31
0.0
 11
-91.1404393524
 21
-2.9675903851
 31
0.0
 11
-91.1502535734
 21
-2.9424678715
 31
0.0
 11
-91.1599727273
 21
-2.9102703575
 31
0.0
 11
-91.1695735366
 21
-2.8710742876
 31
0.0
 11
-91.1790330038
 21
-2.8249725075
 31
0.0
 11
-91.1883284531
 21
-2.7720739722
 31
0.0
 11
-91.2063385083
 21
-2.6464037701
 31
0.0
 11
-91.2234307378
 21
-2.495256231
 31
0.0
 11
-91.2542139262
 21
-2.1225053866
 31
0.0
 11
-91.2794919076
 21
-1.6680111036
 31
0.0
 11
-91.2982857234
 21
-1.1491638336
 31
0.0
 11
-91.3098640071
 21
-0.5859132552
 31
0.0
 11
-91.313774463
 21
0.0
 31
0.0
  0
SPLINE
  5
479
100
AcDbEntity
  8
0
100
AcDbSpline
 62
7
  6
CONTINUOUS
 70
0
 71
3
 72
22
 73
18
 74
16
 42
0.0000001
 43
0.0000001
 44
0.0000000001
 12
0.0
 22
3.0236086255
 32
0.0
 13
3.0236083377
 23
0.0013192319
 33
0.0
 40
0.0
 40
0.0
 40
0.0
 40
0.0
 40
0.1937837433
 40
0.3801072889
 40
0.5518184934
 40
0.7023659791
 40
0.8260657861
 40
0.8763735256
 40
0.9183611688
 40
0.9361243973
 40
0.9516893324
 40
0.9650358981
 40
0.9761591878
 40
0.9850794834
 40
0.9887348341
 40
0.9918742301
 40
1.0
 40
1.0
 40
1.0
 40
1.0
 10
-91.313774463
 20
0.0
 30
0.0
 10
-91.313774463
 20
0.1953087326
 30
0.0
 10
-91.3112671674
 20
0.5784127844
 30
0.0
 10
-91.3000646328
 20
1.134477641
 30
0.0
 10
-91.2819653081
 20
1.6467700758
 30
0.0
 10
-91.2577099636
 20
2.0956049703
 30
0.0
 10
-91.232062678
 20
2.4217793573
 30
0.0
 10
-91.2080373444
 20
2.6381604994
 30
0.0
 10
-91.1926914828
 20
2.7480468688
 30
0.0
 10
-91.1796748233
 20
2.8228374291
 30
0.0
 10
-91.1703171572
 20
2.868949721
 30
0.0
 10
-91.160862997
 20
2.9081809051
 30
0.0
 10
-91.1513028085
 20
2.9404910916
 30
0.0
 10
-91.1429109137
 20
2.9628281744
 30
0.0
 10
-91.1358381284
 20
2.9771427619
 30
0.0
 10
-91.1283493985
 20
2.9897226138
 30
0.0
 10
-91.1188517944
 20
2.9999963388
 30
0.0
 10
-91.1106620792
 20
2.9999999121
 30
0.0
 11
-91.313774463
 21
0.0
 31
0.0
 11
-91.3098640086
 21
0.5859131486
 31
0.0
 11
-91.2982857289
 21
1.149163638
 31
0.0
 11
-91.279491919
 21
1.6680108516
 31
0.0
 11
-91.2542139444
 21
2.1225051181
 31
0.0
 11
-91.2234307627
 21
2.4952559852
 31
0.0
 11
-91.2063385362
 21
2.64640355
 31
0.0
 11
-91.1883284844
 21
2.7720737809
 31
0.0
 11
-91.1790330369
 21
2.8249723329
 31
0.0
 11
-91.1695735711
 21
2.8710741328
 31
0.0
 11
-91.1599727631
 21
2.9102702252
 31
0.0
 11
-91.1502536104
 21
2.9424677629
 31
0.0
 11
-91.1404393904
 21
2.9675903019
 31
0.0
 11
-91.1355039672
 21
2.9774794897
 31
0.0
 11
-91.1305535989
 21
2.9855787307
 31
0.0
 11
-91.1106620792
 21
2.9999999121
 31
0.0
  0
SPLINE
  5
47A
100
AcDbEntity
  8
0
100
AcDbSpline
 62
7
  6
CONTINUOUS
 70
0
 71
3
 72
26
 73
22
 74
20
 42
0.0000001
 43
0.0000001
 44
0.0000000001
 12
0.155270712
 22
1.4820506905
 32
0.0
 13
-1.4901621533
 23
0.0
 33
0.0
 40
0.0
 40
0.0
 40
0.0
 40
0.0
 40
0.0412669132
 40
0.0952503806
 40
0.1604222268
 40
0.2348712938
 40
0.4025581662
 40
0.4908454081
 40
0.5786698321
 40
0.6634929053
 40
0.7428863441
 40
0.8145951846
 40
0.8765939455
 40
0.9271454931
 40
0.9476827396
 40
0.9648752407
 40
0.9786301543
 40
0.9889149339
 40
0.992783279
 40
0.9958492524
 40
1.0
 40
1.0
 40
1.0
 40
1.0
 10
-89.5576881647
 20
-32.2232416669
 30
0.0
 10
-89.555552317
 20
-32.2028551146
 30
0.0
 10
-89.5528667483
 20
-32.1555778899
 30
0.0
 10
-89.5516860624
 20
-32.0758967655
 30
0.0
 10
-89.5530448637
 20
-31.9797256833
 30
0.0
 10
-89.5584452926
 20
-31.8271687581
 30
0.0
 10
-89.5685339514
 20
-31.6633191628
 30
0.0
 10
-89.5823759042
 20
-31.4931069798
 30
0.0
 10
-89.5946379373
 20
-31.3640719598
 30
0.0
 10
-89.6082186543
 20
-31.2396124052
 30
0.0
 10
-89.6227201086
 20
-31.1233191335
 30
0.0
 10
-89.6376983998
 20
-31.0185243156
 30
0.0
 10
-89.6527133823
 20
-30.9282319473
 30
0.0
 10
-89.6655530225
 20
-30.8633607492
 30
0.0
 10
-89.6758127796
 20
-30.8207199279
 30
0.0
 10
-89.6826770039
 20
-30.7960775367
 30
0.0
 10
-89.6892288019
 20
-30.7766557541
 30
0.0
 10
-89.6946835071
 20
-30.7638946734
 30
0.0
 10
-89.6991338196
 20
-30.7565188922
 30
0.0
 10
-89.7024735196
 20
-30.7522570126
 30
0.0
 10
-89.7058001755
 20
-30.7499411971
 30
0.0
 10
-89.7078619378
 20
-30.7499411971
 30
0.0
 11
-89.5576881647
 21
-32.2232416669
 31
0.0
 11
-89.5535977927
 21
-32.1618834635
 31
0.0
 11
-89.5521200616
 21
-32.0814529173
 31
0.0
 11
-89.5533008401
 21
-31.984343477
 31
0.0
 11
-89.5571034364
 21
-31.8734674826
 31
0.0
 11
-89.5720269896
 21
-31.6240328876
 31
0.0
 11
-89.5826924455
 21
-31.4929036059
 31
0.0
 11
-89.5950868055
 21
-31.3626192021
 31
0.0
 11
-89.6088434726
 21
-31.2369698971
 31
0.0
 11
-89.623560425
 21
-31.119579719
 31
0.0
 11
-89.6388116702
 21
-31.0138158831
 31
0.0
 11
-89.6541580283
 21
-30.9227111627
 31
0.0
 11
-89.6691583131
 21
-30.848889751
 31
0.0
 11
-89.6763927547
 21
-30.8191532901
 31
0.0
 11
-89.6833795866
 21
-30.7945047846
 31
0.0
 11
-89.6900678848
 21
-30.7751296512
 31
0.0
 11
-89.6964084574
 21
-30.761176763
 31
0.0
 11
-89.6994336141
 21
-30.7562698859
 31
0.0
 11
-89.7023546996
 21
-30.7527568857
 31
0.0
 11
-89.7078619378
 21
-30.7499411971
 31
0.0
  0
LINE
  5
47B
100
AcDbEntity
  8
DRAFT
100
AcDbLine
 62
7
  6
CONTINUOUS
 10
-77.9684076314
 20
-11.815723851
 11
-83.4684076286
 21
-11.7955966155
  0
LINE
  5
47C
100
AcDbEntity
  8
0
100
AcDbLine
 62
7
  6
CONTINUOUS
 10
-89.7593641616
 20
-32.758394
 11
-89.7266028902
 21
-33.250056
  0
LINE
  5
47D
100
AcDbEntity
  8
0
100
AcDbLine
 62
7
  6
CONTINUOUS
 10
-90.2458169394
 20
-30.74995
 11
-90.2457339051
 21
-30.7512370866
  0
LINE
  5
47E
100
AcDbEntity
  8
DRAFT
100
AcDbLine
 62
7
  6
CONTINUOUS
 10
-83.4684076286
 20
11.7955966155
 11
-77.9684076314
 21
11.815723851
  0
SPLINE
  5
47F
100
AcDbEntity
  8
RACCORDO
100
AcDbSpline
 62
253
  6
CONTINUOUS
 70
0
 71
3
 72
23
 73
19
 74
17
 42
0.0000001
 43
0.0000001
 44
0.0000000001
 12
0.0448141098
 22
1.0018425549
 32
0.0
 13
-1.0026947309
 23
-0.0173229865
 33
0.0
 40
0.0
 40
0.0
 40
0.0
 40
0.0
 40
0.1946538724
 40
0.3818660225
 40
0.5544144701
 40
0.6330755217
 40
0.7056274142
 40
0.7713693741
 40
0.8296699701
 40
0.8799748602
 40
0.9218148111
 40
0.9548159969
 40
0.9679172677
 40
0.9787243626
 40
0.9872353652
 40
0.9934792227
 40
0.9975707667
 40
1.0
 40
1.0
 40
1.0
 40
1.0
 10
-87.2981823452
 20
38.9333033386
 30
0.0
 10
-87.2952745985
 20
38.9983075162
 30
0.0
 10
-87.2901194776
 20
39.125856096
 30
0.0
 10
-87.2842929688
 20
39.3110973272
 30
0.0
 10
-87.281150877
 20
39.4576233993
 30
0.0
 10
-87.2798702872
 20
39.5658440156
 30
0.0
 10
-87.2795408177
 20
39.6383680107
 30
0.0
 10
-87.2798108074
 20
39.7040863823
 30
0.0
 10
-87.2806746457
 20
39.7623623199
 30
0.0
 10
-87.2821138365
 20
39.8126354517
 30
0.0
 10
-87.2841083539
 20
39.8544240008
 30
0.0
 10
-87.2863191389
 20
39.8837468606
 30
0.0
 10
-87.2884782065
 20
39.9026503783
 30
0.0
 10
-87.2901067365
 20
39.9133683528
 30
0.0
 10
-87.2917867916
 20
39.9217488798
 30
0.0
 10
-87.2936716466
 20
39.927790998
 30
0.0
 10
-87.2953799439
 20
39.9316756037
 30
0.0
 10
-87.2973704038
 20
39.9331650611
 30
0.0
 10
-87.2981823303
 20
39.9331510339
 30
0.0
 11
-87.2981823452
 21
38.9333033386
 31
0.0
 11
-87.2903157454
 21
39.1283523055
 31
0.0
 11
-87.2844644922
 21
39.3160057519
 31
0.0
 11
-87.2808586216
 21
39.4890074149
 31
0.0
 11
-87.2799458336
 21
39.5678869255
 31
0.0
 11
-87.2796405499
 21
39.6406445413
 31
0.0
 11
-87.279945812
 21
39.7065727882
 31
0.0
 11
-87.2808585854
 21
39.7650320865
 31
0.0
 11
-87.28236979
 21
39.8154574221
 31
0.0
 11
-87.2844644505
 21
39.8573640638
 31
0.0
 11
-87.2871217673
 21
39.8903522618
 31
0.0
 11
-87.2886535103
 21
39.9034012034
 31
0.0
 11
-87.2903157356
 21
39.9141108092
 31
0.0
 11
-87.292104125
 21
39.9224565561
 31
0.0
 11
-87.2940144701
 21
39.9284196452
 31
0.0
 11
-87.2960424926
 21
39.9319866083
 31
0.0
 11
-87.2981823303
 21
39.9331510339
 31
0.0
  0
SPLINE
  5
480
100
AcDbEntity
  8
RACCORDO
100
AcDbSpline
 62
253
  6
CONTINUOUS
 70
0
 71
3
 72
23
 73
19
 74
17
 42
0.0000001
 43
0.0000001
 44
0.0000000001
 12
1.0026990816
 22
-0.0173819991
 32
0.0
 13
-0.0448055361
 23
1.0018483149
 33
0.0
 40
0.0
 40
0.0
 40
0.0
 40
0.0
 40
0.0024293003
 40
0.0065208108
 40
0.0127646796
 40
0.0212756907
 40
0.0320827979
 40
0.0451840858
 40
0.0781853127
 40
0.1200253139
 40
0.1703302589
 40
0.2286309107
 40
0.2943729227
 40
0.3669248591
 40
0.4455859409
 40
0.6181343865
 40
0.8053464129
 40
1.0
 40
1.0
 40
1.0
 40
1.0
 10
-87.2981823452
 20
-39.9331510337
 30
0.0
 10
-87.2973703928
 20
-39.9331651091
 30
0.0
 10
-87.295379813
 20
-39.9316756864
 30
0.0
 10
-87.2936717832
 20
-39.9277908882
 30
0.0
 10
-87.2917867813
 20
-39.92174882
 30
0.0
 10
-87.2901067172
 20
-39.9133682163
 30
0.0
 10
-87.2884782168
 20
-39.9026501734
 30
0.0
 10
-87.2863191624
 20
-39.8837465248
 30
0.0
 10
-87.2841083556
 20
-39.8544234748
 30
0.0
 10
-87.2821138545
 20
-39.8126346503
 30
0.0
 10
-87.2806746558
 20
-39.7623611961
 30
0.0
 10
-87.2798108156
 20
-39.7040848917
 30
0.0
 10
-87.2795408162
 20
-39.6383661175
 30
0.0
 10
-87.2798702831
 20
-39.5658416917
 30
0.0
 10
-87.2811508773
 20
-39.4576204715
 30
0.0
 10
-87.2842930771
 20
-39.3110936499
 30
0.0
 10
-87.2901193818
 20
-39.1258515523
 30
0.0
 10
-87.2952753826
 20
-38.9983024644
 30
0.0
 10
-87.2981825687
 20
-38.9332980083
 30
0.0
 11
-87.2981823452
 21
-39.9331510337
 31
0.0
 11
-87.2960424014
 21
-39.9319866353
 31
0.0
 11
-87.2940145184
 21
-39.9284196062
 31
0.0
 11
-87.2921041525
 21
-39.9224564766
 31
0.0
 11
-87.2903157219
 21
-39.9141106831
 31
0.0
 11
-87.2886535153
 21
-39.9034010032
 31
0.0
 11
-87.2871217844
 21
-39.890351972
 31
0.0
 11
-87.2844644599
 21
-39.8573635554
 31
0.0
 11
-87.2823698033
 21
-39.8154566381
 31
0.0
 11
-87.2808585968
 21
-39.7650309772
 31
0.0
 11
-87.2799458191
 21
-39.7065713097
 31
0.0
 11
-87.2796405499
 21
-39.6406426574
 31
0.0
 11
-87.2799458306
 21
-39.567884608
 31
0.0
 11
-87.2808586266
 21
-39.4890046446
 31
0.0
 11
-87.2844645475
 21
-39.3160020578
 31
0.0
 11
-87.2903158998
 21
-39.1283477324
 31
0.0
 11
-87.2981825687
 21
-38.9332980083
 31
0.0
  0
SPLINE
  5
481
100
AcDbEntity
  8
RACCORDO
100
AcDbSpline
 62
253
  6
CONTINUOUS
 70
0
 71
3
 72
11
 73
7
 74
5
 42
0.0000001
 43
0.0000001
 44
0.0000000001
 12
0.075964778
 22
-0.7130804832
 32
0.0
 13
0.7170061283
 23
-0.0125153885
 33
0.0
 40
0.0
 40
0.0
 40
0.0
 40
0.0
 40
0.2506424908
 40
0.5008710636
 40
0.750601731
 40
1.0
 40
1.0
 40
1.0
 40
1.0
 10
-87.7838012685
 20
-39.4865874394
 30
0.0
 10
-87.7774546014
 20
-39.5461635289
 30
0.0
 10
-87.7429263081
 20
-39.6640040209
 30
0.0
 10
-87.632489308
 20
-39.8102191611
 30
0.0
 10
-87.4778148882
 20
-39.9079516584
 30
0.0
 10
-87.3577890409
 20
-39.932110595
 30
0.0
 10
-87.2981823452
 20
-39.9331510337
 30
0.0
 11
-87.7838012685
 21
-39.4865874394
 31
0.0
 11
-87.7330902063
 21
-39.6590249753
 31
0.0
 11
-87.6249921282
 21
-39.8022538345
 31
0.0
 11
-87.4734903771
 21
-39.8977467944
 31
0.0
 11
-87.2981823452
 21
-39.9331510337
 31
0.0
  0
SPLINE
  5
482
100
AcDbEntity
  8
RACCORDO
100
AcDbSpline
 62
253
  6
CONTINUOUS
 70
0
 71
3
 72
11
 73
7
 74
5
 42
0.0000001
 43
0.0000001
 44
0.0000000001
 12
0.4847405451
 22
0.0602382208
 32
0.0
 13
0.4857065506
 23
0.0518766418
 33
0.0
 40
0.0
 40
0.0
 40
0.0
 40
0.0
 40
0.1044783329
 40
0.3270946632
 40
0.6390528232
 40
1.0
 40
1.0
 40
1.0
 40
1.0
 10
-87.7838012685
 20
-38.9859871049
 30
0.0
 10
-87.7669196405
 20
-38.983889242
 30
0.0
 10
-87.713960199
 20
-38.9782231835
 30
0.0
 10
-87.6105389417
 20
-38.9667987331
 30
0.0
 10
-87.4655591698
 20
-38.9512354473
 30
0.0
 10
-87.3566204812
 20
-38.9395449144
 30
0.0
 10
-87.2981823452
 20
-38.9333033386
 30
0.0
 11
-87.7838012685
 21
-38.9859871049
 31
0.0
 11
-87.7330902066
 21
-38.980251101
 31
0.0
 11
-87.6249921286
 21
-38.9684420922
 31
0.0
 11
-87.4734903774
 21
-38.9520876664
 31
0.0
 11
-87.2981823452
 21
-38.9333033386
 31
0.0
  0
SPLINE
  5
483
100
AcDbEntity
  8
RACCORDO
100
AcDbSpline
 62
253
  6
CONTINUOUS
 70
0
 71
3
 72
11
 73
7
 74
5
 42
0.0000001
 43
0.0000001
 44
0.0000000001
 12
0.4847405576
 22
-0.0602381202
 32
0.0
 13
0.4857065495
 23
-0.0518766526
 33
0.0
 40
0.0
 40
0.0
 40
0.0
 40
0.0
 40
0.1044783328
 40
0.3270946631
 40
0.6390528231
 40
1.0
 40
1.0
 40
1.0
 40
1.0
 10
-87.7838012685
 20
38.9859871049
 30
0.0
 10
-87.76691964
 20
38.9838892455
 30
0.0
 10
-87.7139601988
 20
38.978223186
 30
0.0
 10
-87.6105389411
 20
38.9667987382
 30
0.0
 10
-87.4655591695
 20
38.9512354503
 30
0.0
 10
-87.3566204811
 20
38.9395449157
 30
0.0
 10
-87.2981823452
 20
38.9333033386
 30
0.0
 11
-87.7838012685
 21
38.9859871049
 31
0.0
 11
-87.7330902063
 21
38.980251104
 31
0.0
 11
-87.6249921282
 21
38.9684420964
 31
0.0
 11
-87.4734903771
 21
38.9520876695
 31
0.0
 11
-87.2981823452
 21
38.9333033386
 31
0.0
  0
SPLINE
  5
484
100
AcDbEntity
  8
RACCORDO
100
AcDbSpline
 62
253
  6
CONTINUOUS
 70
0
 71
3
 72
11
 73
7
 74
5
 42
0.0000001
 43
0.0000001
 44
0.0000000001
 12
0.0759647763
 22
0.7130804836
 32
0.0
 13
0.7170061286
 23
0.0125153885
 33
0.0
 40
0.0
 40
0.0
 40
0.0
 40
0.0
 40
0.2506424906
 40
0.5008710633
 40
0.7506017307
 40
1.0
 40
1.0
 40
1.0
 40
1.0
 10
-87.7838012685
 20
39.4865874394
 30
0.0
 10
-87.7774546016
 20
39.5461635289
 30
0.0
 10
-87.7429263084
 20
39.6640040209
 30
0.0
 10
-87.6324893084
 20
39.8102191612
 30
0.0
 10
-87.4778148884
 20
39.9079516584
 30
0.0
 10
-87.357789041
 20
39.932110595
 30
0.0
 10
-87.2981823452
 20
39.9331510337
 30
0.0
 11
-87.7838012685
 21
39.4865874394
 31
0.0
 11
-87.7330902066
 21
39.6590249753
 31
0.0
 11
-87.6249921286
 21
39.8022538345
 31
0.0
 11
-87.4734903774
 21
39.8977467944
 31
0.0
 11
-87.2981823452
 21
39.9331510337
 31
0.0
  0
SPLINE
  5
485
100
AcDbEntity
  8
0
100
AcDbSpline
 62
7
  6
CONTINUOUS
 70
0
 71
3
 72
9
 73
5
 74
3
 42
0.0000001
 43
0.0000001
 44
0.0000000001
 12
-0.0765310047
 22
0.3309558393
 32
0.0
 13
-0.0522410547
 23
0.3356480812
 33
0.0
 40
0.0
 40
0.0
 40
0.0
 40
0.0
 40
0.2515864558
 40
1.0
 40
1.0
 40
1.0
 40
1.0
 10
-83.3494612112
 20
10.0
 30
0.0
 10
-83.355879266
 20
10.0277546689
 30
0.0
 10
-83.380269977
 20
10.1383305676
 30
0.0
 10
-83.4004991712
 20
10.249813491
 30
0.0
 10
-83.4135318088
 20
10.3335480144
 30
0.0
 11
-83.3494612112
 21
10.0
 31
0.0
 11
-83.3678886047
 21
10.0834508766
 31
0.0
 11
-83.4135318088
 21
10.3335480144
 31
0.0
  0
SPLINE
  5
486
100
AcDbEntity
  8
0
100
AcDbSpline
 62
7
  6
CONTINUOUS
 70
0
 71
3
 72
14
 73
10
 74
8
 42
0.0000001
 43
0.0000001
 44
0.0000000001
 12
-1.3249724513
 22
0.0000008032
 32
0.0
 13
-0.393861615
 23
-1.2650790588
 33
0.0
 40
0.0
 40
0.0
 40
0.0
 40
0.0
 40
0.110437175
 40
0.2295261968
 40
0.3533131525
 40
0.4790897236
 40
0.7342533176
 40
0.8655529061
 40
1.0
 40
1.0
 40
1.0
 40
1.0
 10
-77.9296435719
 20
-6.4499244604
 30
0.0
 10
-77.9784189767
 20
-6.4499244308
 30
0.0
 10
-78.079846884
 20
-6.4589474838
 30
0.0
 10
-78.2324299214
 20
-6.4938071759
 30
0.0
 10
-78.3844426115
 20
-6.5541790212
 30
0.0
 10
-78.576655777
 20
-6.6684755007
 30
0.0
 10
-78.7412574618
 20
-6.8304464158
 30
0.0
 10
-78.8616667698
 20
-7.0274538441
 30
0.0
 10
-78.9051429029
 20
-7.1371872202
 30
0.0
 10
-78.9227940861
 20
-7.1938826212
 30
0.0
 11
-77.9296435719
 21
-6.4499244604
 31
0.0
 11
-78.0754902436
 21
-6.4617612414
 31
0.0
 11
-78.2292614232
 21
-6.4971449277
 31
0.0
 11
-78.3816868176
 21
-6.5577022705
 31
0.0
 11
-78.524911389
 21
-6.6429026729
 31
0.0
 11
-78.7658657924
 21
-6.8800571834
 31
0.0
 11
-78.8565569812
 21
-7.0285162377
 31
0.0
 11
-78.9227940861
 21
-7.1938826212
 31
0.0
  0
SPLINE
  5
487
100
AcDbEntity
  8
ASSI
100
AcDbSpline
 62
7
  6
CONTINUOUS
 70
0
 71
3
 72
14
 73
10
 74
8
 42
0.0000001
 43
0.0000001
 44
0.0000000001
 12
0.5245452237
 22
0.0003244188
 32
0.0
 13
0.0563262467
 23
-0.5215123689
 33
0.0
 40
0.0
 40
0.0
 40
0.0
 40
0.0
 40
0.0352349065
 40
0.0910946933
 40
0.173770217
 40
0.2844986189
 40
0.4233021418
 40
0.5895236374
 40
1.0
 40
1.0
 40
1.0
 40
1.0
 10
-75.8341257635
 20
2.2499835267
 30
0.0
 10
-75.8279649962
 20
2.249987337
 30
0.0
 10
-75.8130582889
 20
2.2403781172
 30
0.0
 10
-75.7982177561
 20
2.213852046
 30
0.0
 10
-75.7822970005
 20
2.1731068519
 30
0.0
 10
-75.7670612261
 20
2.1170099902
 30
0.0
 10
-75.751920631
 20
2.0458831536
 30
0.0
 10
-75.7309857518
 20
1.9225189368
 30
0.0
 10
-75.7186630458
 20
1.8223874988
 30
0.0
 10
-75.7109561815
 20
1.7510313321
 30
0.0
 11
-75.8341257635
 21
2.2499835267
 31
0.0
 11
-75.8174995964
 21
2.2419109693
 31
0.0
 11
-75.8009928859
 21
2.217701952
 31
0.0
 11
-75.7847252366
 21
2.1775016357
 31
0.0
 11
-75.768812894
 21
2.1216417782
 31
0.0
 11
-75.7533712552
 21
2.0504893486
 31
0.0
 11
-75.738510487
 21
1.964574407
 31
0.0
 11
-75.7109561815
 21
1.7510313321
 31
0.0
  0
SPLINE
  5
488
100
AcDbEntity
  8
ASSI
100
AcDbSpline
 62
7
  6
CONTINUOUS
 70
0
 71
3
 72
14
 73
10
 74
8
 42
0.0000001
 43
0.0000001
 44
0.0000000001
 12
-0.0563262467
 22
-0.5215123689
 32
0.0
 13
-0.5245452237
 23
0.0003244188
 33
0.0
 40
0.0
 40
0.0
 40
0.0
 40
0.0
 40
0.4104763626
 40
0.5766978582
 40
0.7155013811
 40
0.826229783
 40
0.9089053067
 40
0.9647650935
 40
1.0
 40
1.0
 40
1.0
 40
1.0
 10
-75.7109561815
 20
-1.7510313321
 30
0.0
 10
-75.7186630458
 20
-1.8223874988
 30
0.0
 10
-75.7309857518
 20
-1.9225189368
 30
0.0
 10
-75.751920631
 20
-2.0458831536
 30
0.0
 10
-75.7670612261
 20
-2.1170099902
 30
0.0
 10
-75.7822970005
 20
-2.1731068519
 30
0.0
 10
-75.7982177561
 20
-2.213852046
 30
0.0
 10
-75.8130582889
 20
-2.2403781172
 30
0.0
 10
-75.8279649962
 20
-2.249987337
 30
0.0
 10
-75.8341257635
 20
-2.2499835267
 30
0.0
 11
-75.7109561815
 21
-1.7510313321
 31
0.0
 11
-75.738510487
 21
-1.964574407
 31
0.0
 11
-75.7533712552
 21
-2.0504893486
 31
0.0
 11
-75.768812894
 21
-2.1216417782
 31
0.0
 11
-75.7847252366
 21
-2.1775016357
 31
0.0
 11
-75.8009928859
 21
-2.217701952
 31
0.0
 11
-75.8174995964
 21
-2.2419109693
 31
0.0
 11
-75.8341257635
 21
-2.2499835267
 31
0.0
  0
SPLINE
  5
489
100
AcDbEntity
  8
0
100
AcDbSpline
 62
7
  6
CONTINUOUS
 70
0
 71
3
 72
9
 73
5
 74
3
 42
0.0000001
 43
0.0000001
 44
0.0000000001
 12
0.0524505572
 22
0.3380765983
 32
0.0
 13
0.0770789016
 23
0.3333252018
 33
0.0
 40
0.0
 40
0.0
 40
0.0
 40
0.0
 40
0.2474688769
 40
1.0
 40
1.0
 40
1.0
 40
1.0
 10
-83.4139057759
 20
-10.3359546007
 30
0.0
 10
-83.4095791491
 20
-10.3080667887
 30
0.0
 10
-83.3911412753
 20
-10.1955264135
 30
0.0
 10
-83.3687959687
 20
-10.0836125295
 30
0.0
 10
-83.3494612112
 20
-10.0
 30
0.0
 11
-83.4139057759
 21
-10.3359546007
 31
0.0
 11
-83.4002142548
 21
-10.252404675
 31
0.0
 11
-83.3494612112
 21
-10.0
 31
0.0
  0
SPLINE
  5
48A
100
AcDbEntity
  8
0
100
AcDbSpline
 62
7
  6
CONTINUOUS
 70
0
 71
3
 72
9
 73
5
 74
3
 42
0.0000001
 43
0.0000001
 44
0.0000000001
 12
-0.0524505572
 22
-0.3380765983
 32
0.0
 13
-0.0770789016
 23
-0.3333252018
 33
0.0
 40
0.0
 40
0.0
 40
0.0
 40
0.0
 40
0.2474688769
 40
1.0
 40
1.0
 40
1.0
 40
1.0
 10
-80.5229094869
 20
10.3359546007
 30
0.0
 10
-80.5272361137
 20
10.3080667887
 30
0.0
 10
-80.5456739875
 20
10.1955264135
 30
0.0
 10
-80.5680192941
 20
10.0836125295
 30
0.0
 10
-80.5873540516
 20
10.0
 30
0.0
 11
-80.5229094869
 21
10.3359546007
 31
0.0
 11
-80.5366010081
 21
10.252404675
 31
0.0
 11
-80.5873540516
 21
10.0
 31
0.0
  0
SPLINE
  5
48B
100
AcDbEntity
  8
0
100
AcDbSpline
 62
7
  6
CONTINUOUS
 70
0
 71
3
 72
9
 73
5
 74
3
 42
0.0000001
 43
0.0000001
 44
0.0000000001
 12
0.0765310047
 22
-0.3309558393
 32
0.0
 13
0.0522410547
 23
-0.3356480812
 33
0.0
 40
0.0
 40
0.0
 40
0.0
 40
0.0
 40
0.2515864558
 40
1.0
 40
1.0
 40
1.0
 40
1.0
 10
-80.5873540516
 20
-10.0
 30
0.0
 10
-80.5809359969
 20
-10.0277546689
 30
0.0
 10
-80.5565452858
 20
-10.1383305676
 30
0.0
 10
-80.5363160916
 20
-10.249813491
 30
0.0
 10
-80.523283454
 20
-10.3335480144
 30
0.0
 11
-80.5873540516
 21
-10.0
 31
0.0
 11
-80.5689266581
 21
-10.0834508766
 31
0.0
 11
-80.523283454
 21
-10.3335480144
 31
0.0
  0
SPLINE
  5
48C
100
AcDbEntity
  8
ASSI
100
AcDbSpline
 62
7
  6
CONTINUOUS
 70
0
 71
3
 72
9
 73
5
 74
3
 42
0.0000001
 43
0.0000001
 44
0.0000000001
 12
0.0
 22
-2.2469010214
 32
0.0
 13
-0.1326408019
 23
-2.2429825273
 33
0.0
 40
0.0
 40
0.0
 40
0.0
 40
0.0
 40
0.5228692115
 40
1.0
 40
1.0
 40
1.0
 40
1.0
 10
-76.4722129164
 20
0.0000025967
 30
0.0
 10
-76.4722129164
 20
-0.3916091917
 30
0.0
 10
-76.4816317564
 20
-1.1406005407
 30
0.0
 10
-76.5112547257
 20
-1.8891308558
 30
0.0
 10
-76.5323503958
 20
-2.2458628631
 30
0.0
 11
-76.4722129164
 21
0.0000025967
 31
0.0
 11
-76.4875862109
 21
-1.1747321808
 31
0.0
 11
-76.5323503958
 21
-2.2458628631
 31
0.0
  0
SPLINE
  5
48D
100
AcDbEntity
  8
ASSI
100
AcDbSpline
 62
7
  6
CONTINUOUS
 70
0
 71
3
 72
9
 73
5
 74
3
 42
0.0000001
 43
0.0000001
 44
0.0000000001
 12
0.1326404954
 22
-2.2429773434
 32
0.0
 13
0.0000002543
 23
-2.2468958285
 33
0.0
 40
0.0
 40
0.0
 40
0.0
 40
0.0
 40
0.4771307863
 40
1.0
 40
1.0
 40
1.0
 40
1.0
 10
-76.5323503958
 20
2.2458628631
 30
0.0
 10
-76.5112547745
 20
1.889131682
 30
0.0
 10
-76.4816318424
 20
1.1406030987
 30
0.0
 10
-76.4722129607
 20
0.3916134818
 30
0.0
 10
-76.4722129164
 20
0.0000025967
 30
0.0
 11
-76.5323503958
 21
2.2458628631
 31
0.0
 11
-76.4875862773
 21
1.174734663
 31
0.0
 11
-76.4722129164
 21
0.0000025967
 31
0.0
  0
SPLINE
  5
48E
100
AcDbEntity
  8
0
100
AcDbSpline
 62
7
  6
CONTINUOUS
 70
0
 71
3
 72
14
 73
10
 74
8
 42
0.0000001
 43
0.0000001
 44
0.0000000001
 12
0.3920374913
 22
-1.2652599085
 32
0.0
 13
1.3246041034
 23
0.0000009192
 33
0.0
 40
0.0
 40
0.0
 40
0.0
 40
0.0
 40
0.1340424942
 40
0.2659147105
 40
0.5216239553
 40
0.6471845499
 40
0.770746863
 40
0.8898621827
 40
1.0
 40
1.0
 40
1.0
 40
1.0
 10
-78.9227940861
 20
7.1938826212
 30
0.0
 10
-78.9052775251
 20
7.1373497565
 30
0.0
 10
-78.861744742
 20
7.0275874349
 30
0.0
 10
-78.741210333
 20
6.8303624019
 30
0.0
 10
-78.5762972488
 20
6.6682036827
 30
0.0
 10
-78.3840588558
 20
6.5539823051
 30
0.0
 10
-78.2322298878
 20
6.4937727054
 30
0.0
 10
-78.0799083789
 20
6.4589735854
 30
0.0
 10
-77.978632618
 20
6.449918974
 30
0.0
 10
-77.9300029497
 20
6.4499190077
 30
0.0
 11
-78.9227940861
 21
7.1938826212
 31
0.0
 11
-78.856837663
 21
7.0290345016
 31
0.0
 11
-78.7657741994
 21
6.8799707013
 31
0.0
 11
-78.5242801661
 21
6.6424681181
 31
0.0
 11
-78.3813035159
 21
6.5575011784
 31
0.0
 11
-78.2291745894
 21
6.4971270607
 31
0.0
 11
-78.0754115984
 21
6.461748065
 31
0.0
 11
-77.9300029497
 21
6.4499190077
 31
0.0
  0
SPLINE
  5
48F
100
AcDbEntity
  8
0
100
AcDbSpline
 62
7
  6
CONTINUOUS
 70
0
 71
3
 72
10
 73
6
 74
4
 42
0.0000001
 43
0.0000001
 44
0.0000000001
 12
-0.0902694079
 22
0.0
 32
0.0
 13
-0.0000684121
 23
0.090269382
 33
0.0
 40
0.0
 40
0.0
 40
0.0
 40
0.0
 40
0.5442639927
 40
0.7827046589
 40
1.0
 40
1.0
 40
1.0
 40
1.0
 10
-76.4666708184
 20
-6.5
 30
0.0
 10
-76.4830476145
 20
-6.5
 30
0.0
 10
-76.5079263303
 20
-6.493156287
 30
0.0
 10
-76.5287971304
 20
-6.4704324051
 30
0.0
 10
-76.5326119025
 20
-6.4565383721
 30
0.0
 10
-76.5326168577
 20
-6.45
 30
0.0
 11
-76.4666708184
 21
-6.5
 31
0.0
 11
-76.5135162827
 21
-6.485191302
 31
0.0
 11
-76.5276790229
 21
-6.4689834346
 31
0.0
 11
-76.5326168577
 21
-6.45
 31
0.0
  0
SPLINE
  5
490
100
AcDbEntity
  8
0
100
AcDbSpline
 62
7
  6
CONTINUOUS
 70
0
 71
3
 72
10
 73
6
 74
4
 42
0.0000001
 43
0.0000001
 44
0.0000000001
 12
-0.0902694079
 22
0.0
 32
0.0
 13
-0.0000684121
 23
-0.090269382
 33
0.0
 40
0.0
 40
0.0
 40
0.0
 40
0.0
 40
0.5442639927
 40
0.7827046589
 40
1.0
 40
1.0
 40
1.0
 40
1.0
 10
-76.4666708184
 20
6.5
 30
0.0
 10
-76.4830476145
 20
6.5
 30
0.0
 10
-76.5079263303
 20
6.493156287
 30
0.0
 10
-76.5287971304
 20
6.4704324051
 30
0.0
 10
-76.5326119025
 20
6.4565383721
 30
0.0
 10
-76.5326168577
 20
6.45
 30
0.0
 11
-76.4666708184
 21
6.5
 31
0.0
 11
-76.5135162827
 21
6.485191302
 31
0.0
 11
-76.5276790229
 21
6.4689834346
 31
0.0
 11
-76.5326168577
 21
6.45
 31
0.0
  0
ELLIPSE
  5
491
100
AcDbEntity
  8
RACCORDO
100
AcDbEllipse
 62
7
  6
CONTINUOUS
 10
-38.999847672
 20
38.999847672
 30
0.0
 11
0.7073221892
 21
-0.7073221892
 31
0.0
 40
0.9996954599
 41
2.3563467834
 42
3.9268385237
  0
ELLIPSE
  5
492
100
AcDbEntity
  8
RACCORDO
100
AcDbEllipse
 62
7
  6
CONTINUOUS
 10
-38.999847672
 20
-38.999847672
 30
0.0
 11
0.7073221892
 21
0.7073221892
 31
0.0
 40
0.9996954599
 41
-3.9268385237
 42
-2.3563467834
  0
ELLIPSE
  5
493
100
AcDbEntity
  8
RACCORDO
100
AcDbEllipse
 62
7
  6
CONTINUOUS
 10
38.999847672
 20
-38.999847672
 30
0.0
 11
0.7073221892
 21
-0.7073221892
 31
0.0
 40
0.9996954599
 41
-0.7852458701
 42
0.7852458702
  0
ELLIPSE
  5
494
100
AcDbEntity
  8
RACCORDO
100
AcDbEllipse
 62
7
  6
CONTINUOUS
 10
38.999847672
 20
38.999847672
 30
0.0
 11
0.7073221892
 21
0.7073221892
 31
0.0
 40
0.9996954599
 41
-0.7852458702
 42
0.7852458701
  0
ENDSEC
  0
SECTION
  2
OBJECTS
  0
DICTIONARY
  5
C
100
AcDbDictionary
280
0
281
1
  3
ACAD_GROUP
350
D
  3
ACAD_MLINESTYLE
350
17
  3
ACAD_LAYOUT
350
1A
  3
ACAD_PLOTSETTINGS
350
19
  3
ACAD_PLOTSTYLENAME
350
E
  0
DICTIONARY
  5
D
102
{ACAD_REACTORS
330
C
102
}
100
AcDbDictionary
280
0
281
1
  0
ACDBDICTIONARYWDFLT
  5
E
102
{ACAD_REACTORS
330
C
102
}
100
AcDbDictionary
281
1
  3
Normal
350
F
100
AcDbDictionaryWithDefault
340
F
  0
DICTIONARY
  5
17
102
{ACAD_REACTORS
330
C
102
}
100
AcDbDictionary
280
0
281
1
  3
Standard
350
18
  0
DICTIONARY
  5
19
102
{ACAD_REACTORS
330
C
102
}
100
AcDbDictionary
281
1
  0
DICTIONARY
  5
1A
102
{ACAD_REACTORS
330
C
102
}
100
AcDbDictionary
281
1
  3
Model
350
495
  3
Layout1
350
496
  0
ACDBPLACEHOLDER
  5
F
102
{ACAD_REACTORS
330
E
102
}
  0
MLINESTYLE
  5
18
102
{ACAD_REACTORS
330
17
102
}
100
AcDbMlineStyle
  2
STANDARD
 70
0
  3

 62
256
 51
90.0
 52
90.0
 71
2
 49
0.5
 62
256
  6
BYLAYER
 49
-0.5
 62
256
  6
BYLAYER
  0
LAYOUT
  5
495
102
{ACAD_REACTORS
330
1A
102
}
100
AcDbPlotSettings
  1

  2
none_device
  4
ANSI_C_(22.00_x_17.00_Inches)
  6

 40
0.0
 41
0.0
 42
0.0
 43
0.0
 44
558.8
 45
431.8
 46
0.0
 47
0.0
 48
0.0
 49
0.0
140
0.0
141
0.0
142
1.0
143
1.0
 70
1024
 72
1
 73
0
 74
0
  7

 75
0
147
1.0
148
0.0
149
0.0
100
AcDbLayout
  1
Model
 70
0
 71
0
 10
0.0
 20
0.0
 11
558.8
 21
431.8
 12
0.0
 22
0.0
 32
0.0
 14
0.0
 24
0.0
 34
0.0
 15
0.0
 25
0.0
 35
0.0
146
0.0
 13
0.0
 23
0.0
 33
0.0
 16
1.0
 26
0.0
 36
0.0
 17
0.0
 27
1.0
 37
0.0
 76
0
330
212
345
0
346
0
  0
LAYOUT
  5
496
102
{ACAD_REACTORS
330
1A
102
}
100
AcDbPlotSettings
  1

  2
none_device
  4
ANSI_C_(22.00_x_17.00_Inches)
  6

 40
0.0
 41
0.0
 42
0.0
 43
0.0
 44
558.8
 45
431.8
 46
0.0
 47
0.0
 48
0.0
 49
0.0
140
0.0
141
0.0
142
1.0
143
1.0
 70
0
 72
1
 73
0
 74
0
  7

 75
0
147
1.0
148
0.0
149
0.0
100
AcDbLayout
  1
Layout1
 70
0
 71
1
 10
0.0
 20
0.0
 11
558.8
 21
431.8
 12
0.0
 22
0.0
 32
0.0
 14
0.0
 24
0.0
 34
0.0
 15
0.0
 25
0.0
 35
0.0
146
0.0
 13
0.0
 23
0.0
 33
0.0
 16
1.0
 26
0.0
 36
0.0
 17
0.0
 27
1.0
 37
0.0
 76
0
330
213
345
0
346
0
  0
ENDSEC
  0
EOF
