  0
SECTION
  2
HEADER
  9
$ACADVER
  1
AC1024
  9
$DWGCODEPAGE
  3
ANSI_1252
  9
$EXTMAX
 10
297.0
 20
210.0
 30
0.0
  9
$EXTMIN
 10
0.0
 20
0.0
 30
0.0
  9
$LIMMIN
 10
0.0
 20
0.0
  9
$LIMMAX
 10
297.0
 20
210.0
  9
$VIEWCTR
 10
148.5
 20
105.0
  9
$VIEWSIZE
 40
210.0
  9
$CLAYER
  8
0
  9
$LTSCALE
 40
16.335
  9
$CELTYPE
  6
BYLAYER
  9
$DIMSCALE
 40
1.0
  9
$DIMASZ
 40
3.0
  9
$DIMEXO
 40
0.5
  9
$DIMDLI
 40
11.286
  9
$DIMEXE
 40
1.5
  9
$DIMCEN
 40
2.673
  9
$DIMLFAC
 40
1.0
  9
$DIMBLK
  1
_FILLED
  9
$DIMALT
 70
0
  9
$DIMALTF
 40
0.0393700787
  9
$DIMTXT
 40
3.0
  9
$DIMTOL
 70
1
  9
$DIMLIM
 70
0
  9
$DIMTFAC
 40
1.0
  9
$DIMTP
 40
0.01
  9
$DIMTM
 40
0.01
  9
$DIMGAP
 40
0.625
  9
$DIMDSEP
 70
44
  9
$AUNITS
 70
0
  9
$PDMODE
 70
3
  9
$PDSIZE
 40
3.0
  9
$HANDSEED
  5
621
  9
$TILEMODE
 70
1
  9
$MEASUREMENT
 70
1
  9
$INSUNITS
 70
4
  0
ENDSEC
  0
SECTION
  2
CLASSES
  0
CLASS
  1
ACDBDICTIONARYWDFLT
  2
AcDbDictionaryWithDefault
  3
AutoCAD 2000
 90
0
 91
1
280
0
281
0
  0
CLASS
  1
ACDBPLACEHOLDER
  2
AcDbPlaceHolder
  3
AutoCAD 2000
 90
0
 91
1
280
0
281
0
  0
CLASS
  1
LAYOUT
  2
AcDbLayout
  3
AutoCAD 2000
 90
0
 91
0
280
0
281
0
  0
ENDSEC
  0
SECTION
  2
TABLES
  0
TABLE
  2
VPORT
  5
8
100
AcDbSymbolTable
 70
2
  0
VPORT
  5
1F4
100
AcDbSymbolTableRecord
100
AcDbViewportTableRecord
  2
*ACTIVE
 70
0
 10
0.0
 20
0.0
 11
1.0
 21
1.0
 12
148.5
 22
105.0
 13
0.0
 23
0.0
 14
1.0
 24
1.0
 15
0.0
 25
0.0
 16
0.0
 26
0.0
 36
1.0
 17
0.0
 27
0.0
 37
0.0
 40
210.0
 41
1.4142857143
 42
50.0
 43
0.0
 44
0.0
 50
0.0
 51
0.0
 71
0
 72
100
 73
1
 74
1
 75
0
 76
0
 77
0
 78
0
  0
ENDTAB
  0
TABLE
  2
LTYPE
  5
5
100
AcDbSymbolTable
 70
6
  0
LTYPE
  5
14
100
AcDbSymbolTableRecord
100
AcDbLinetypeTableRecord
  2
BYBLOCK
 70
0
  3

 72
65
 73
0
 40
0.0
  0
LTYPE
  5
15
100
AcDbSymbolTableRecord
100
AcDbLinetypeTableRecord
  2
BYLAYER
 70
0
  3

 72
65
 73
0
 40
0.0
  0
LTYPE
  5
16
100
AcDbSymbolTableRecord
100
AcDbLinetypeTableRecord
  2
CONTINUOUS
 70
64
  3
Solid line
 72
65
 73
0
 40
0.0
  0
LTYPE
  5
1F5
100
AcDbSymbolTableRecord
100
AcDbLinetypeTableRecord
  2
CENTER
 70
64
  3
____ _ ____ _ ____ _ ____ _ ____ _ ____ _ ____
 72
65
 73
4
 40
0.6
 49
0.375
 74
0
 49
-0.075
 74
0
 49
0.075
 74
0
 49
-0.075
 74
0
  0
LTYPE
  5
1F6
100
AcDbSymbolTableRecord
100
AcDbLinetypeTableRecord
  2
HIDDEN
 70
64
  3
- - - - - - - - - - - - - - - - - - - -
 72
65
 73
2
 40
0.2
 49
0.1
 74
0
 49
-0.1
 74
0
  0
LTYPE
  5
1F7
100
AcDbSymbolTableRecord
100
AcDbLinetypeTableRecord
  2
PHANTOM
 70
64
  3
_____ _ _ _____ _ _ _____ _ _ _____
 72
65
 73
6
 40
0.8
 49
0.45
 74
0
 49
-0.05
 74
0
 49
0.1
 74
0
 49
-0.05
 74
0
 49
0.1
 74
0
 49
-0.05
 74
0
  0
LTYPE
  5
1F8
100
AcDbSymbolTableRecord
100
AcDbLinetypeTableRecord
  2
DOT
 70
64
  3
. . . . . . . . . . . . . . . . . . . .
 72
65
 73
2
 40
0.2
 49
0.1
 74
0
 49
-0.1
 74
0
  0
LTYPE
  5
1F9
100
AcDbSymbolTableRecord
100
AcDbLinetypeTableRecord
  2
DASHED
 70
64
  3
- - - - - - - - - - - - - - - - - - - -
 72
65
 73
2
 40
0.2
 49
0.1
 74
0
 49
-0.1
 74
0
  0
ENDTAB
  0
TABLE
  2
LAYER
  5
2
100
AcDbSymbolTable
 70
36
  0
LAYER
  5
10
100
AcDbSymbolTableRecord
100
AcDbLayerTableRecord
  2
0
 70
0
 62
7
  6
CONTINUOUS
370
-3
390
F
  0
LAYER
  5
1FA
100
AcDbSymbolTableRecord
100
AcDbLayerTableRecord
  2
DEFAULT_1
 70
0
 62
7
  6
CENTER
370
-3
390
F
  0
LAYER
  5
1FB
100
AcDbSymbolTableRecord
100
AcDbLayerTableRecord
  2
DEFAULT_2
 70
0
 62
7
  6
HIDDEN
370
-3
390
F
  0
LAYER
  5
1FC
100
AcDbSymbolTableRecord
100
AcDbLayerTableRecord
  2
DEFAULT_3
 70
0
 62
7
  6
PHANTOM
370
-3
390
F
  0
LAYER
  5
1FD
100
AcDbSymbolTableRecord
100
AcDbLayerTableRecord
  2
ASSI
 70
0
 62
7
  6
CONTINUOUS
370
-3
390
F
  0
LAYER
  5
1FE
100
AcDbSymbolTableRecord
100
AcDbLayerTableRecord
  2
COLOR17
 70
0
 62
7
  6
CONTINUOUS
370
-3
390
F
  0
LAYER
  5
1FF
100
AcDbSymbolTableRecord
100
AcDbLayerTableRecord
  2
COLOR3
 70
0
 62
7
  6
CONTINUOUS
370
-3
390
F
  0
LAYER
  5
200
100
AcDbSymbolTableRecord
100
AcDbLayerTableRecord
  2
COLOR5
 70
0
 62
7
  6
CONTINUOUS
370
-3
390
F
  0
LAYER
  5
201
100
AcDbSymbolTableRecord
100
AcDbLayerTableRecord
  2
COORDINATE
 70
0
 62
7
  6
CONTINUOUS
370
-3
390
F
  0
LAYER
  5
202
100
AcDbSymbolTableRecord
100
AcDbLayerTableRecord
  2
COORD_ORIGINE
 70
0
 62
7
  6
CONTINUOUS
370
-3
390
F
  0
LAYER
  5
203
100
AcDbSymbolTableRecord
100
AcDbLayerTableRecord
  2
COPY_PUBLISH
 70
0
 62
7
  6
CONTINUOUS
370
-3
390
F
  0
LAYER
  5
204
100
AcDbSymbolTableRecord
100
AcDbLayerTableRecord
  2
COSMETICI
 70
0
 62
7
  6
CONTINUOUS
370
-3
390
F
  0
LAYER
  5
205
100
AcDbSymbolTableRecord
100
AcDbLayerTableRecord
  2
CURVE
 70
0
 62
7
  6
CONTINUOUS
370
-3
390
F
  0
LAYER
  5
206
100
AcDbSymbolTableRecord
100
AcDbLayerTableRecord
  2
DRAFT
 70
0
 62
7
  6
CONTINUOUS
370
-3
390
F
  0
LAYER
  5
207
100
AcDbSymbolTableRecord
100
AcDbLayerTableRecord
  2
IGES
 70
0
 62
7
  6
CONTINUOUS
370
-3
390
F
  0
LAYER
  5
208
100
AcDbSymbolTableRecord
100
AcDbLayerTableRecord
  2
IMPORT_IGES
 70
0
 62
7
  6
CONTINUOUS
370
-3
390
F
  0
LAYER
  5
209
100
AcDbSymbolTableRecord
100
AcDbLayerTableRecord
  2
INC_LASER
 70
0
 62
7
  6
CONTINUOUS
370
-3
390
F
  0
LAYER
  5
20A
100
AcDbSymbolTableRecord
100
AcDbLayerTableRecord
  2
INTF_1
 70
0
 62
7
  6
CONTINUOUS
370
-3
390
F
  0
LAYER
  5
20B
100
AcDbSymbolTableRecord
100
AcDbLayerTableRecord
  2
INTF_11
 70
0
 62
7
  6
CONTINUOUS
370
-3
390
F
  0
LAYER
  5
20C
100
AcDbSymbolTableRecord
100
AcDbLayerTableRecord
  2
NOTE
 70
0
 62
7
  6
CONTINUOUS
370
-3
390
F
  0
LAYER
  5
20D
100
AcDbSymbolTableRecord
100
AcDbLayerTableRecord
  2
PIANI
 70
0
 62
7
  6
CONTINUOUS
370
-3
390
F
  0
LAYER
  5
20E
100
AcDbSymbolTableRecord
100
AcDbLayerTableRecord
  2
PIANI_AUSILIARI
 70
0
 62
7
  6
CONTINUOUS
370
-3
390
F
  0
LAYER
  5
20F
100
AcDbSymbolTableRecord
100
AcDbLayerTableRecord
  2
PIANI_ORIGINE
 70
0
 62
7
  6
CONTINUOUS
370
-3
390
F
  0
LAYER
  5
210
100
AcDbSymbolTableRecord
100
AcDbLayerTableRecord
  2
PUNTI
 70
0
 62
7
  6
CONTINUOUS
370
-3
390
F
  0
LAYER
  5
211
100
AcDbSymbolTableRecord
100
AcDbLayerTableRecord
  2
RACCORDO
 70
0
 62
7
  6
CONTINUOUS
370
-3
390
F
  0
LAYER
  5
212
100
AcDbSymbolTableRecord
100
AcDbLayerTableRecord
  2
SIMBOLI
 70
0
 62
7
  6
CONTINUOUS
370
-3
390
F
  0
LAYER
  5
213
100
AcDbSymbolTableRecord
100
AcDbLayerTableRecord
  2
SMUSSO
 70
0
 62
7
  6
CONTINUOUS
370
-3
390
F
  0
LAYER
  5
214
100
AcDbSymbolTableRecord
100
AcDbLayerTableRecord
  2
SNAPLINE
 70
0
 62
7
  6
CONTINUOUS
370
-3
390
F
  0
LAYER
  5
215
100
AcDbSymbolTableRecord
100
AcDbLayerTableRecord
  2
SUPERFICI
 70
0
 62
7
  6
CONTINUOUS
370
-3
390
F
  0
LAYER
  5
216
100
AcDbSymbolTableRecord
100
AcDbLayerTableRecord
  2
TRASH
 70
0
 62
7
  6
CONTINUOUS
370
-3
390
F
  0
LAYER
  5
217
100
AcDbSymbolTableRecord
100
AcDbLayerTableRecord
  2
XSEC_DATUMS
 70
0
 62
7
  6
CONTINUOUS
370
-3
390
F
  0
LAYER
  5
218
100
AcDbSymbolTableRecord
100
AcDbLayerTableRecord
  2
___SHELL
 70
0
 62
7
  6
CONTINUOUS
370
-3
390
F
  0
ENDTAB
  0
TABLE
  2
STYLE
  5
3
100
AcDbSymbolTable
 70
1
  0
STYLE
  5
11
100
AcDbSymbolTableRecord
100
AcDbTextStyleTableRecord
  2
STANDARD
 70
0
 40
0.0
 41
0.8
 50
0.0
 71
0
 42
0.2
  3
txt
  4

  0
STYLE
  5
219
100
AcDbSymbolTableRecord
100
AcDbTextStyleTableRecord
  2
TEXTSTYLE_1
 70
0
 40
0.0
 41
0.8
 50
0.0
 71
0
 42
0.2
  3
gdt
  4

  0
ENDTAB
  0
TABLE
  2
VIEW
  5
6
100
AcDbSymbolTable
 70
0
  0
ENDTAB
  0
TABLE
  2
UCS
  5
7
100
AcDbSymbolTable
 70
0
  0
ENDTAB
  0
TABLE
  2
APPID
  5
9
100
AcDbSymbolTable
 70
1
  0
APPID
  5
21A
100
AcDbSymbolTableRecord
100
AcDbRegAppTableRecord
  2
ACAD
 70
0
  0
ENDTAB
  0
TABLE
  2
BLOCK_RECORD
  5
1
100
AcDbSymbolTable
 70
0
  0
BLOCK_RECORD
  5
21B
100
AcDbSymbolTableRecord
100
AcDbBlockTableRecord
  2
*Model_Space
  0
BLOCK_RECORD
  5
21C
100
AcDbSymbolTableRecord
100
AcDbBlockTableRecord
  2
*Paper_Space
  0
BLOCK_RECORD
  5
21D
100
AcDbSymbolTableRecord
100
AcDbBlockTableRecord
  2
_FILLED
  0
BLOCK_RECORD
  5
21E
100
AcDbSymbolTableRecord
100
AcDbBlockTableRecord
  2
*D0
  0
BLOCK_RECORD
  5
21F
100
AcDbSymbolTableRecord
100
AcDbBlockTableRecord
  2
*D1
  0
BLOCK_RECORD
  5
220
100
AcDbSymbolTableRecord
100
AcDbBlockTableRecord
  2
*D2
  0
BLOCK_RECORD
  5
221
100
AcDbSymbolTableRecord
100
AcDbBlockTableRecord
  2
*D3
  0
ENDTAB
  0
TABLE
  2
DIMSTYLE
  5
A
100
AcDbSymbolTable
 70
1
100
AcDbDimStyleTable
 71
0
  0
DIMSTYLE
105
222
100
AcDbSymbolTableRecord
100
AcDbDimStyleTableRecord
  2
STANDARD
 70
0
  3

  4

 40
1.0
 41
3.0
 42
0.5
 43
0.38
 44
1.5
 45
0.0
 46
0.0
 47
0.01
 48
0.01
140
3.0
141
0.0
142
0.0
143
25.4
144
1.0
145
0.0
146
1.0
147
0.625
 71
1
 72
0
 73
0
 74
0
 75
0
 76
0
 77
1
 78
8
 79
2
170
0
171
1
172
0
173
0
174
0
175
0
176
0
177
0
178
0
270
2
179
1
271
2
272
2
273
2
274
2
275
0
280
0
281
0
282
0
283
1
284
8
285
0
286
0
287
3
288
0
340
11
278
44
341
21D
342
21D
343
21D
344
21D
  0
DIMSTYLE
105
223
100
AcDbSymbolTableRecord
100
AcDbDimStyleTableRecord
  2
DIMSTYLE_1
 70
0
  3

  4

 40
1.0
 41
3.0
 42
0.5
 43
0.38
 44
1.5
 45
0.0
 46
0.0
 47
0.0
 48
0.0
140
3.0
141
0.0
142
0.0
143
25.4
144
1.0
145
0.0
146
1.0
147
0.75
 71
0
 72
0
 73
0
 74
0
 75
0
 76
0
 77
1
 78
8
 79
2
170
0
171
1
172
0
173
0
174
0
175
0
176
0
177
0
178
0
270
2
179
1
271
1
272
2
273
2
274
2
275
0
280
0
281
0
282
0
283
1
284
8
285
0
286
0
287
3
288
0
340
11
278
44
341
21D
342
21D
343
21D
344
21D
  0
DIMSTYLE
105
224
100
AcDbSymbolTableRecord
100
AcDbDimStyleTableRecord
  2
DIMSTYLE_2
 70
0
  3

  4

 40
1.0
 41
3.0
 42
0.5
 43
0.38
 44
1.5
 45
0.0
 46
0.0
 47
0.0
 48
0.0
140
3.0
141
0.0
142
0.0
143
25.4
144
1.0
145
0.0
146
1.0
147
0.75
 71
0
 72
0
 73
0
 74
0
 75
0
 76
0
 77
1
 78
8
 79
2
170
0
171
1
172
0
173
0
174
0
175
0
176
0
177
0
178
0
270
2
179
2
271
2
272
2
273
2
274
2
275
0
280
0
281
0
282
0
283
1
284
8
285
0
286
0
287
3
288
0
340
11
278
44
341
21D
342
21D
343
21D
344
21D
  0
ENDTAB
  0
ENDSEC
  0
SECTION
  2
BLOCKS
  0
BLOCK
  5
20
100
AcDbEntity
  8
0
100
AcDbBlockBegin
  2
*Model_Space
 70
0
 10
0.0
 20
0.0
 30
0.0
  3
*Model_Space
  1

  0
ENDBLK
  5
21
100
AcDbEntity
  8
0
100
AcDbBlockEnd
  0
BLOCK
  5
1C
100
AcDbEntity
  8
0
100
AcDbBlockBegin
  2
*Paper_Space
 70
0
 10
0.0
 20
0.0
 30
0.0
  3
*Paper_Space
  1

  0
ENDBLK
  5
1D
100
AcDbEntity
  8
0
100
AcDbBlockEnd
  0
BLOCK
  5
225
100
AcDbEntity
  8
0
100
AcDbBlockBegin
  2
_FILLED
 70
64
 10
0.0
 20
0.0
 30
0.0
  3
_FILLED
  1

  0
SOLID
  5
226
100
AcDbEntity
  8
0
  6
BYBLOCK
 62
0
100
AcDbTrace
 10
0.0
 20
0.0
 30
0.0
 11
-1.0
 21
0.3166666667
 31
0.0
 12
-1.0
 22
-0.3166666667
 32
0.0
 13
-1.0
 23
-0.3166666667
 33
0.0
  0
ENDBLK
  5
227
100
AcDbEntity
  8
0
  6
BYBLOCK
 62
0
100
AcDbBlockEnd
  0
BLOCK
  5
228
100
AcDbEntity
  8
0
100
AcDbBlockBegin
 62
7
  6
CONTINUOUS
  2
*D0
 70
65
 10
0.0
 20
0.0
 30
0.0
  3
*D0
  1

  0
MTEXT
  5
229
100
AcDbEntity
  8
0
100
AcDbMText
 62
7
  6
CONTINUOUS
  7
STANDARD
 71
2
 72
1
 10
15.5742442434
 20
-0.6406504934
 30
0.0
 11
0.0
 21
1.0
 31
0.0
 73
2
 44
0.9
  1
{\ftxt;\W0.0001;\H0.0001;\~}{\ftxt;\W1.5;\H3.0; }{\ftxt;\W0.0001;\H0.0001;\~}
 40
3.0
 41
6.75
  0
LINE
  5
22A
100
AcDbEntity
  8
0
100
AcDbLine
 62
7
  6
CONTINUOUS
 10
2.8242442434
 20
24.3450377922
 30
0.0
 11
20.8242442434
 21
24.3450377922
 31
0.0
  0
LINE
  5
22B
100
AcDbEntity
  8
0
100
AcDbLine
 62
7
  6
CONTINUOUS
 10
2.8242442434
 20
-25.626338779
 30
0.0
 11
20.8242442434
 21
-25.626338779
 31
0.0
  0
LINE
  5
22C
100
AcDbEntity
  8
0
100
AcDbLine
 62
7
  6
CONTINUOUS
 10
19.3242442434
 20
24.3450377922
 30
0.0
 11
19.3242442434
 21
-0.6406504934
 31
0.0
  0
LINE
  5
22D
100
AcDbEntity
  8
0
100
AcDbLine
 62
7
  6
CONTINUOUS
 10
19.3242442434
 20
-25.626338779
 30
0.0
 11
19.3242442434
 21
-0.6406504934
 31
0.0
  0
INSERT
  5
22E
100
AcDbEntity
  8
0
100
AcDbBlockReference
 62
7
  6
CONTINUOUS
  2
_FILLED
 10
19.3242442434
 20
24.3450377922
 30
0.0
 41
3.0
 42
3.0
 43
3.0
 50
90.0
  0
INSERT
  5
22F
100
AcDbEntity
  8
0
100
AcDbBlockReference
 62
7
  6
CONTINUOUS
  2
_FILLED
 10
19.3242442434
 20
-25.626338779
 30
0.0
 41
3.0
 42
3.0
 43
3.0
 50
270.0
  0
ENDBLK
  5
230
100
AcDbEntity
  8
0
  6
BYBLOCK
 62
0
100
AcDbBlockEnd
  0
BLOCK
  5
231
100
AcDbEntity
  8
0
100
AcDbBlockBegin
 62
7
  6
CONTINUOUS
  2
*D1
 70
65
 10
0.0
 20
0.0
 30
0.0
  3
*D1
  1

  0
MTEXT
  5
232
100
AcDbEntity
  8
0
100
AcDbMText
 62
7
  6
CONTINUOUS
  7
STANDARD
 71
2
 72
1
 10
-3.6757557566
 20
36.0950377922
 30
0.0
 11
1.0
 21
0.0
 31
0.0
 73
2
 44
0.9
  1
{\ftxt;\W0.0001;\H0.0001;\~}{\ftxt;\W2.9285714286;\H3.0; }{\ftxt;\W0.0001;\H0.0001;\~}
 40
3.0
 41
13.1785714286
  0
LINE
  5
233
100
AcDbEntity
  8
0
100
AcDbLine
 62
7
  6
CONTINUOUS
 10
8.7242442434
 20
17.3593495066
 30
0.0
 11
8.7242442434
 21
33.8450377922
 31
0.0
  0
LINE
  5
234
100
AcDbEntity
  8
0
100
AcDbLine
 62
7
  6
CONTINUOUS
 10
-16.0757557566
 20
17.3593495066
 30
0.0
 11
-16.0757557566
 21
33.8450377922
 31
0.0
  0
LINE
  5
235
100
AcDbEntity
  8
0
100
AcDbLine
 62
7
  6
CONTINUOUS
 10
8.7242442434
 20
32.3450377922
 30
0.0
 11
-3.6757557566
 21
32.3450377922
 31
0.0
  0
LINE
  5
236
100
AcDbEntity
  8
0
100
AcDbLine
 62
7
  6
CONTINUOUS
 10
-16.0757557566
 20
32.3450377922
 30
0.0
 11
-3.6757557566
 21
32.3450377922
 31
0.0
  0
INSERT
  5
237
100
AcDbEntity
  8
0
100
AcDbBlockReference
 62
7
  6
CONTINUOUS
  2
_FILLED
 10
8.7242442434
 20
32.3450377922
 30
0.0
 41
3.0
 42
3.0
 43
3.0
  0
INSERT
  5
238
100
AcDbEntity
  8
0
100
AcDbBlockReference
 62
7
  6
CONTINUOUS
  2
_FILLED
 10
-16.0757557566
 20
32.3450377922
 30
0.0
 41
3.0
 42
3.0
 43
3.0
 50
180.0
  0
ENDBLK
  5
239
100
AcDbEntity
  8
0
  6
BYBLOCK
 62
0
100
AcDbBlockEnd
  0
BLOCK
  5
23A
100
AcDbEntity
  8
0
100
AcDbBlockBegin
 62
7
  6
CONTINUOUS
  2
*D2
 70
65
 10
0.0
 20
0.0
 30
0.0
  3
*D2
  1

  0
MTEXT
  5
23B
100
AcDbEntity
  8
0
100
AcDbMText
 62
7
  6
CONTINUOUS
  7
STANDARD
 71
2
 72
1
 10
-56.0217072368
 20
36.0950377922
 30
0.0
 11
1.0
 21
0.0
 31
0.0
 73
2
 44
0.9
  1
{\ftxt;\W0.0001;\H0.0001;\~}{\ftxt;\W2.6428571429;\H3.0; }{\ftxt;\W0.0001;\H0.0001;\~}
 40
3.0
 41
11.8928571429
  0
LINE
  5
23C
100
AcDbEntity
  8
0
100
AcDbLine
 62
7
  6
CONTINUOUS
 10
-71.0717072368
 20
23.8450377922
 30
0.0
 11
-71.0717072368
 21
33.8450377922
 31
0.0
  0
LINE
  5
23D
100
AcDbEntity
  8
0
100
AcDbLine
 62
7
  6
CONTINUOUS
 10
-40.9717072368
 20
-2.6065582064
 30
0.0
 11
-40.9717072368
 21
33.8450377922
 31
0.0
  0
LINE
  5
23E
100
AcDbEntity
  8
0
100
AcDbLine
 62
7
  6
CONTINUOUS
 10
-71.0717072368
 20
32.3450377922
 30
0.0
 11
-56.0217072368
 21
32.3450377922
 31
0.0
  0
LINE
  5
23F
100
AcDbEntity
  8
0
100
AcDbLine
 62
7
  6
CONTINUOUS
 10
-40.9717072368
 20
32.3450377922
 30
0.0
 11
-56.0217072368
 21
32.3450377922
 31
0.0
  0
INSERT
  5
240
100
AcDbEntity
  8
0
100
AcDbBlockReference
 62
7
  6
CONTINUOUS
  2
_FILLED
 10
-71.0717072368
 20
32.3450377922
 30
0.0
 41
3.0
 42
3.0
 43
3.0
 50
180.0
  0
INSERT
  5
241
100
AcDbEntity
  8
0
100
AcDbBlockReference
 62
7
  6
CONTINUOUS
  2
_FILLED
 10
-40.9717072368
 20
32.3450377922
 30
0.0
 41
3.0
 42
3.0
 43
3.0
  0
ENDBLK
  5
242
100
AcDbEntity
  8
0
  6
BYBLOCK
 62
0
100
AcDbBlockEnd
  0
BLOCK
  5
243
100
AcDbEntity
  8
0
100
AcDbBlockBegin
 62
7
  6
CONTINUOUS
  2
*D3
 70
65
 10
0.0
 20
0.0
 30
0.0
  3
*D3
  1

  0
MTEXT
  5
244
100
AcDbEntity
  8
0
100
AcDbMText
 62
7
  6
CONTINUOUS
  7
STANDARD
 71
2
 72
1
 10
-61.3217072368
 20
46.0950377922
 30
0.0
 11
1.0
 21
0.0
 31
0.0
 73
2
 44
0.9
  1
{\ftxt;\W0.0001;\H0.0001;\~}{\ftxt;\W2.9285714286;\H3.0; }{\ftxt;\W0.0001;\H0.0001;\~}
 40
3.0
 41
13.1785714286
  0
LINE
  5
245
100
AcDbEntity
  8
0
100
AcDbLine
 62
7
  6
CONTINUOUS
 10
-81.6717072368
 20
-12.2906504934
 30
0.0
 11
-81.6717072368
 21
43.8450377922
 31
0.0
  0
LINE
  5
246
100
AcDbEntity
  8
0
100
AcDbLine
 62
7
  6
CONTINUOUS
 10
-40.9717072368
 20
-2.6065582064
 30
0.0
 11
-40.9717072368
 21
43.8450377922
 31
0.0
  0
LINE
  5
247
100
AcDbEntity
  8
0
100
AcDbLine
 62
7
  6
CONTINUOUS
 10
-81.6717072368
 20
42.3450377922
 30
0.0
 11
-61.3217072368
 21
42.3450377922
 31
0.0
  0
LINE
  5
248
100
AcDbEntity
  8
0
100
AcDbLine
 62
7
  6
CONTINUOUS
 10
-40.9717072368
 20
42.3450377922
 30
0.0
 11
-61.3217072368
 21
42.3450377922
 31
0.0
  0
INSERT
  5
249
100
AcDbEntity
  8
0
100
AcDbBlockReference
 62
7
  6
CONTINUOUS
  2
_FILLED
 10
-81.6717072368
 20
42.3450377922
 30
0.0
 41
3.0
 42
3.0
 43
3.0
 50
180.0
  0
INSERT
  5
24A
100
AcDbEntity
  8
0
100
AcDbBlockReference
 62
7
  6
CONTINUOUS
  2
_FILLED
 10
-40.9717072368
 20
42.3450377922
 30
0.0
 41
3.0
 42
3.0
 43
3.0
  0
ENDBLK
  5
24B
100
AcDbEntity
  8
0
  6
BYBLOCK
 62
0
100
AcDbBlockEnd
  0
ENDSEC
  0
SECTION
  2
ENTITIES
  0
DIMENSION
  5
24C
100
AcDbEntity
  8
0
100
AcDbDimension
 62
7
  6
CONTINUOUS
  2
*D0
 10
19.3242442434
 20
-25.626338779
 30
0.0
 11
19.3242442434
 21
-1.0692221027
 31
0.0
 70
160
 71
2
 72
2
 41
0.9
 42
49.9713765712
  1
{\ftxt;\W0.0001;\H0.0001;\~}{\ftxt;\W1.5;\H3.0; }{\ftxt;\W0.0001;\H0.0001;\~}
  3
DIMSTYLE_1
100
AcDbAlignedDimension
 13
2.3242442434
 23
24.3450377922
 33
0.0
 14
2.3242442434
 24
-25.626338779
 34
0.0
 50
270.0
100
AcDbRotatedDimension
  0
DIMENSION
  5
24D
100
AcDbEntity
  8
0
100
AcDbDimension
 62
7
  6
CONTINUOUS
  2
*D1
 10
-16.0757557566
 20
32.3450377922
 30
0.0
 11
-4.1043272881
 21
32.3450377922
 31
0.0
 70
160
 71
2
 72
2
 41
0.9
 42
24.8
  1
{\ftxt;\W0.0001;\H0.0001;\~}{\ftxt;\W2.9285714286;\H3.0; }{\ftxt;\W0.0001;\H0.0001;\~}
  3
DIMSTYLE_2
100
AcDbAlignedDimension
 13
8.7242442434
 23
16.8593495066
 33
0.0
 14
-16.0757557566
 24
16.8593495066
 34
0.0
 50
180.0
100
AcDbRotatedDimension
  0
DIMENSION
  5
24E
100
AcDbEntity
  8
0
100
AcDbDimension
 62
7
  6
CONTINUOUS
  2
*D2
 10
-40.9717072368
 20
32.3450377922
 30
0.0
 11
-56.4502778091
 21
32.3450377922
 31
0.0
 70
160
 71
2
 72
2
 41
0.9
 42
30.1
  1
{\ftxt;\W0.0001;\H0.0001;\~}{\ftxt;\W2.6428571429;\H3.0; }{\ftxt;\W0.0001;\H0.0001;\~}
  3
DIMSTYLE_2
100
AcDbAlignedDimension
 13
-71.0717072368
 23
23.3450377922
 33
0.0
 14
-40.9717072368
 24
-3.1065582064
 34
0.0
100
AcDbRotatedDimension
  0
DIMENSION
  5
24F
100
AcDbEntity
  8
0
100
AcDbDimension
 62
7
  6
CONTINUOUS
  2
*D3
 10
-40.9717072368
 20
42.3450377922
 30
0.0
 11
-61.7502771606
 21
42.3450377922
 31
0.0
 70
160
 71
2
 72
2
 41
0.9
 42
40.7
  1
{\ftxt;\W0.0001;\H0.0001;\~}{\ftxt;\W2.9285714286;\H3.0; }{\ftxt;\W0.0001;\H0.0001;\~}
  3
DIMSTYLE_2
100
AcDbAlignedDimension
 13
-81.6717072368
 23
-12.7906504934
 33
0.0
 14
-40.9717072368
 24
-3.1065582064
 34
0.0
100
AcDbRotatedDimension
  0
LINE
  5
250
100
AcDbEntity
  8
RACCORDO
100
AcDbLine
 62
250
  6
CONTINUOUS
 10
-14.3788728575
 20
23.316851645
 30
0.0
 11
-14.325750045
 21
23.3593495066
 31
0.0
  0
LINE
  5
251
100
AcDbEntity
  8
RACCORDO
100
AcDbLine
 62
250
  6
CONTINUOUS
 10
-14.1288823768
 20
23.0668577373
 30
0.0
 11
-14.0757747954
 21
23.1093434141
 31
0.0
  0
LINE
  5
252
100
AcDbEntity
  8
0
100
AcDbLine
 62
7
  6
CONTINUOUS
 10
-9.6757557566
 20
-25.626338779
 30
0.0
 11
2.3242442434
 21
-25.626338779
 31
0.0
  0
LINE
  5
253
100
AcDbEntity
  8
RACCORDO
100
AcDbLine
 62
250
  6
CONTINUOUS
 10
-14.3788728575
 20
-24.5981526318
 30
0.0
 11
-14.325750045
 21
-24.6406504934
 31
0.0
  0
LINE
  5
254
100
AcDbEntity
  8
RACCORDO
100
AcDbLine
 62
250
  6
CONTINUOUS
 10
-14.1288823768
 20
-24.3481587241
 30
0.0
 11
-14.0757747954
 21
-24.3906444009
 31
0.0
  0
LINE
  5
255
100
AcDbEntity
  8
RACCORDO
100
AcDbLine
 62
7
  6
CONTINUOUS
 10
-14.0225218631
 20
21.8593495066
 30
0.0
 11
-14.1288823768
 21
21.7317154645
 31
0.0
  0
LINE
  5
256
100
AcDbEntity
  8
0
100
AcDbLine
 62
250
  6
CONTINUOUS
 10
-9.6757557566
 20
-24.926338779
 30
0.0
 11
2.3242442434
 21
-24.926338779
 31
0.0
  0
LINE
  5
257
100
AcDbEntity
  8
RACCORDO
100
AcDbLine
 62
7
  6
CONTINUOUS
 10
6.9742385319
 20
-24.6406504934
 30
0.0
 11
8.474236626
 21
-24.6406504934
 31
0.0
  0
LINE
  5
258
100
AcDbEntity
  8
RACCORDO
100
AcDbLine
 62
7
  6
CONTINUOUS
 10
-14.325750045
 20
-24.6406504934
 30
0.0
 11
-15.8257481392
 21
-24.6406504934
 31
0.0
  0
LINE
  5
259
100
AcDbEntity
  8
RACCORDO
100
AcDbLine
 62
7
  6
CONTINUOUS
 10
-9.6757557566
 20
-24.626338779
 30
0.0
 11
-7.6090219914
 21
-24.626338779
 31
0.0
  0
LINE
  5
25A
100
AcDbEntity
  8
RACCORDO
100
AcDbLine
 62
7
  6
CONTINUOUS
 10
0.2575104782
 20
-24.626338779
 30
0.0
 11
2.3242442434
 21
-24.626338779
 31
0.0
  0
LINE
  5
25B
100
AcDbEntity
  8
RACCORDO
100
AcDbLine
 62
7
  6
CONTINUOUS
 10
0.6242442434
 20
-24.4847482389
 30
0.0
 11
0.0663258583
 21
-24.4847482389
 31
0.0
  0
LINE
  5
25C
100
AcDbEntity
  8
RACCORDO
100
AcDbLine
 62
7
  6
CONTINUOUS
 10
-7.4178373715
 20
-24.4847482389
 30
0.0
 11
-7.9757557566
 21
-24.4847482389
 31
0.0
  0
LINE
  5
25D
100
AcDbEntity
  8
RACCORDO
100
AcDbLine
 62
7
  6
CONTINUOUS
 10
0.6242442434
 20
-24.1043256324
 30
0.0
 11
0.0285740109
 21
-24.1043256324
 31
0.0
  0
LINE
  5
25E
100
AcDbEntity
  8
RACCORDO
100
AcDbLine
 62
7
  6
CONTINUOUS
 10
-7.380085524
 20
-24.1043256324
 30
0.0
 11
-7.9757557566
 21
-24.1043256324
 31
0.0
  0
LINE
  5
25F
100
AcDbEntity
  8
DRAFT
100
AcDbLine
 62
7
  6
CONTINUOUS
 10
-9.8757557566
 20
-23.8906504934
 30
0.0
 11
-9.6757557566
 21
-23.8906504934
 31
0.0
  0
LINE
  5
260
100
AcDbEntity
  8
DRAFT
100
AcDbLine
 62
7
  6
CONTINUOUS
 10
2.3242442434
 20
-23.8906504934
 30
0.0
 11
2.5242442434
 21
-23.8906504934
 31
0.0
  0
LINE
  5
261
100
AcDbEntity
  8
RACCORDO
100
AcDbLine
 62
7
  6
CONTINUOUS
 10
-14.0225218631
 20
-23.1406504934
 30
0.0
 11
-14.1288823768
 21
-23.0130164513
 31
0.0
  0
LINE
  5
262
100
AcDbEntity
  8
DRAFT
100
AcDbLine
 62
7
  6
CONTINUOUS
 10
-14.0225218631
 20
-23.1406504934
 30
0.0
 11
-9.6757557566
 21
-23.1406504934
 31
0.0
  0
LINE
  5
263
100
AcDbEntity
  8
DRAFT
100
AcDbLine
 62
7
  6
CONTINUOUS
 10
2.3242442434
 20
-23.1406504934
 30
0.0
 11
6.6710103499
 21
-23.1406504934
 31
0.0
  0
LINE
  5
264
100
AcDbEntity
  8
DRAFT
100
AcDbLine
 62
7
  6
CONTINUOUS
 10
0.2265033242
 20
-23.0537299193
 30
0.0
 11
-7.5780148373
 21
-23.0537299193
 31
0.0
  0
LINE
  5
265
100
AcDbEntity
  8
RACCORDO
100
AcDbLine
 62
250
  6
CONTINUOUS
 10
8.29942703
 20
-22.971881028
 30
0.0
 11
-15.6509385432
 21
-22.971881028
 31
0.0
  0
LINE
  5
266
100
AcDbEntity
  8
RACCORDO
100
AcDbLine
 62
250
  6
CONTINUOUS
 10
8.5277986048
 20
-21.471963274
 30
0.0
 11
-15.8793101179
 21
-21.471963274
 31
0.0
  0
LINE
  5
267
100
AcDbEntity
  8
RACCORDO
100
AcDbLine
 62
250
  6
CONTINUOUS
 10
4.3242442434
 20
-20.9511303504
 30
0.0
 11
-11.6757557566
 21
-20.9511303504
 31
0.0
  0
LINE
  5
268
100
AcDbEntity
  8
RACCORDO
100
AcDbLine
 62
7
  6
CONTINUOUS
 10
4.3242442434
 20
-20.7511379658
 30
0.0
 11
-11.6757557566
 21
-20.7511379658
 31
0.0
  0
LINE
  5
269
100
AcDbEntity
  8
DRAFT
100
AcDbLine
 62
7
  6
CONTINUOUS
 10
4.3242442434
 20
-20.7406504934
 30
0.0
 11
-1.4266284434
 21
-20.7406504934
 31
0.0
  0
LINE
  5
26A
100
AcDbEntity
  8
DRAFT
100
AcDbLine
 62
7
  6
CONTINUOUS
 10
-5.9248830698
 20
-20.7406504934
 30
0.0
 11
-11.6757557566
 21
-20.7406504934
 31
0.0
  0
LINE
  5
26B
100
AcDbEntity
  8
RACCORDO
100
AcDbLine
 62
7
  6
CONTINUOUS
 10
-11.6257557566
 20
-20.6906504934
 30
0.0
 11
4.2742442434
 21
-20.6906504934
 31
0.0
  0
LINE
  5
26C
100
AcDbEntity
  8
RACCORDO
100
AcDbLine
 62
250
  6
CONTINUOUS
 10
-11.6257557566
 20
-19.9906504934
 30
0.0
 11
4.2742442434
 21
-19.9906504934
 31
0.0
  0
LINE
  5
26D
100
AcDbEntity
  8
RACCORDO
100
AcDbLine
 62
250
  6
CONTINUOUS
 10
-12.8862356136
 20
-19.7406504934
 30
0.0
 11
-12.6757557566
 21
-19.7406504934
 31
0.0
  0
LINE
  5
26E
100
AcDbEntity
  8
RACCORDO
100
AcDbLine
 62
250
  6
CONTINUOUS
 10
5.5347241004
 20
-19.7406504934
 30
0.0
 11
5.3242442434
 21
-19.7406504934
 31
0.0
  0
LINE
  5
26F
100
AcDbEntity
  8
RACCORDO
100
AcDbLine
 62
250
  6
CONTINUOUS
 10
4.5742442434
 20
-19.6906504934
 30
0.0
 11
5.2742442434
 21
-19.6906504934
 31
0.0
  0
LINE
  5
270
100
AcDbEntity
  8
RACCORDO
100
AcDbLine
 62
250
  6
CONTINUOUS
 10
-11.9257557566
 20
-19.6906504934
 30
0.0
 11
-12.6257557566
 21
-19.6906504928
 31
0.0
  0
LINE
  5
271
100
AcDbEntity
  8
RACCORDO
100
AcDbLine
 62
250
  6
CONTINUOUS
 10
8.3678808115
 20
23.3168108095
 30
0.0
 11
8.474236626
 21
23.3593495066
 31
0.0
  0
LINE
  5
272
100
AcDbEntity
  8
RACCORDO
100
AcDbLine
 62
250
  6
CONTINUOUS
 10
8.6178427353
 20
23.0668169018
 30
0.0
 11
8.7242442434
 21
23.1093738748
 31
0.0
  0
LINE
  5
273
100
AcDbEntity
  8
0
100
AcDbLine
 62
7
  6
CONTINUOUS
 10
5.2450646367
 20
-18.4906504934
 30
0.0
 11
5.2742442434
 21
-18.4906504934
 31
0.0
  0
LINE
  5
274
100
AcDbEntity
  8
0
100
AcDbLine
 62
7
  6
CONTINUOUS
 10
-12.5965761498
 20
-18.4906504934
 30
0.0
 11
-12.6257557566
 21
-18.4906504934
 31
0.0
  0
LINE
  5
275
100
AcDbEntity
  8
RACCORDO
100
AcDbLine
 62
250
  6
CONTINUOUS
 10
8.3678808115
 20
-24.5981117963
 30
0.0
 11
8.474236626
 21
-24.6406504934
 31
0.0
  0
LINE
  5
276
100
AcDbEntity
  8
RACCORDO
100
AcDbLine
 62
250
  6
CONTINUOUS
 10
8.6178427353
 20
-24.3481178886
 30
0.0
 11
8.7242442434
 21
-24.3906748616
 31
0.0
  0
LINE
  5
277
100
AcDbEntity
  8
DRAFT
100
AcDbLine
 62
7
  6
CONTINUOUS
 10
-5.9248830698
 20
-20.7406504934
 30
0.0
 11
-5.9179015756
 21
-20.7476319877
 31
0.0
  0
LINE
  5
278
100
AcDbEntity
  8
RACCORDO
100
AcDbLine
 62
7
  6
CONTINUOUS
 10
-16.0757557566
 20
-24.3906748616
 30
0.0
 11
-16.0757557566
 21
-18.1406504934
 31
0.0
  0
LINE
  5
279
100
AcDbEntity
  8
DRAFT
100
AcDbLine
 62
7
  6
CONTINUOUS
 10
-16.0757557566
 20
-18.1406504934
 30
0.0
 11
-16.0757557566
 21
16.8593495066
 31
0.0
  0
LINE
  5
27A
100
AcDbEntity
  8
RACCORDO
100
AcDbLine
 62
7
  6
CONTINUOUS
 10
-16.0757557566
 20
16.8593495066
 30
0.0
 11
-16.0757557566
 21
23.1093738748
 31
0.0
  0
LINE
  5
27B
100
AcDbEntity
  8
RACCORDO
100
AcDbLine
 62
250
  6
CONTINUOUS
 10
-15.9693542484
 20
-24.3481178886
 30
0.0
 11
-15.9693542484
 21
-22.7629643353
 31
0.0
  0
LINE
  5
27C
100
AcDbEntity
  8
RACCORDO
100
AcDbLine
 62
250
  6
CONTINUOUS
 10
-15.9693542484
 20
21.4816633485
 30
0.0
 11
-15.9693542484
 21
23.0668169018
 31
0.0
  0
LINE
  5
27D
100
AcDbEntity
  8
RACCORDO
100
AcDbLine
 62
250
  6
CONTINUOUS
 10
-15.8793101179
 20
20.1906622871
 30
0.0
 11
-15.8793101179
 21
-21.471963274
 31
0.0
  0
LINE
  5
27E
100
AcDbEntity
  8
RACCORDO
100
AcDbLine
 62
250
  6
CONTINUOUS
 10
-15.6293481941
 20
20.1906622871
 30
0.0
 11
-15.6293481941
 21
-21.471963274
 31
0.0
  0
LINE
  5
27F
100
AcDbEntity
  8
RACCORDO
100
AcDbLine
 62
250
  6
CONTINUOUS
 10
8.29942703
 20
21.6905800412
 30
0.0
 11
8.3569217793
 21
21.7250746488
 31
0.0
  0
LINE
  5
280
100
AcDbEntity
  8
RACCORDO
100
AcDbLine
 62
250
  6
CONTINUOUS
 10
8.5493889538
 20
21.4405937488
 30
0.0
 11
8.6178427353
 21
21.4816633485
 31
0.0
  0
LINE
  5
281
100
AcDbEntity
  8
0
100
AcDbLine
 62
7
  6
CONTINUOUS
 10
5.2450646367
 20
-13.9906504934
 30
0.0
 11
5.2742442434
 21
-13.9906504934
 31
0.0
  0
LINE
  5
282
100
AcDbEntity
  8
0
100
AcDbLine
 62
7
  6
CONTINUOUS
 10
-12.5965761498
 20
-13.9906504934
 30
0.0
 11
-12.6257557566
 21
-13.9906504934
 31
0.0
  0
LINE
  5
283
100
AcDbEntity
  8
RACCORDO
100
AcDbLine
 62
250
  6
CONTINUOUS
 10
8.3569217793
 20
-23.0063756357
 30
0.0
 11
8.29942703
 21
-22.971881028
 31
0.0
  0
LINE
  5
284
100
AcDbEntity
  8
RACCORDO
100
AcDbLine
 62
250
  6
CONTINUOUS
 10
8.6178427353
 20
-22.7629643353
 30
0.0
 11
8.5493889538
 21
-22.7218947357
 31
0.0
  0
LINE
  5
285
100
AcDbEntity
  8
RACCORDO
100
AcDbLine
 62
250
  6
CONTINUOUS
 10
-14.1288823768
 20
-23.0130164513
 30
0.0
 11
-14.1288823768
 21
-24.3481587241
 31
0.0
  0
LINE
  5
286
100
AcDbEntity
  8
RACCORDO
100
AcDbLine
 62
250
  6
CONTINUOUS
 10
-14.1288823768
 20
21.7317154645
 30
0.0
 11
-14.1288823768
 21
23.0668577373
 31
0.0
  0
LINE
  5
287
100
AcDbEntity
  8
RACCORDO
100
AcDbLine
 62
7
  6
CONTINUOUS
 10
-13.9972139465
 20
-24.3277962961
 30
0.0
 11
-13.9972139465
 21
-23.1406504934
 31
0.0
  0
LINE
  5
288
100
AcDbEntity
  8
RACCORDO
100
AcDbLine
 62
7
  6
CONTINUOUS
 10
-13.9972139465
 20
21.8593495066
 30
0.0
 11
-13.9972139465
 21
23.0464953093
 31
0.0
  0
LINE
  5
289
100
AcDbEntity
  8
DRAFT
100
AcDbLine
 62
7
  6
CONTINUOUS
 10
0.2989363268
 20
21.8593495066
 30
0.0
 11
0.2265033242
 21
21.7724289325
 31
0.0
  0
LINE
  5
28A
100
AcDbEntity
  8
RACCORDO
100
AcDbLine
 62
7
  6
CONTINUOUS
 10
6.8180925712
 20
23.3045706724
 30
0.0
 11
6.7395390622
 21
23.2417284396
 31
0.0
  0
LINE
  5
28B
100
AcDbEntity
  8
RACCORDO
100
AcDbLine
 62
250
  6
CONTINUOUS
 10
6.7242632823
 20
23.1093434141
 30
0.0
 11
6.6457024333
 21
23.0464953093
 31
0.0
  0
LINE
  5
28C
100
AcDbEntity
  8
RACCORDO
100
AcDbLine
 62
250
  6
CONTINUOUS
 10
4.5742442434
 20
-12.7906504934
 30
0.0
 11
5.2742442434
 21
-12.790650494
 31
0.0
  0
LINE
  5
28D
100
AcDbEntity
  8
RACCORDO
100
AcDbLine
 62
250
  6
CONTINUOUS
 10
-11.9257557566
 20
-12.7906504934
 30
0.0
 11
-12.6257557566
 21
-12.7906504934
 31
0.0
  0
LINE
  5
28E
100
AcDbEntity
  8
RACCORDO
100
AcDbLine
 62
250
  6
CONTINUOUS
 10
-12.8862356136
 20
-12.7406504934
 30
0.0
 11
-12.6757557566
 21
-12.7406504934
 31
0.0
  0
LINE
  5
28F
100
AcDbEntity
  8
RACCORDO
100
AcDbLine
 62
250
  6
CONTINUOUS
 10
5.5347241004
 20
-12.7406504934
 30
0.0
 11
5.3242442434
 21
-12.7406504934
 31
0.0
  0
LINE
  5
290
100
AcDbEntity
  8
RACCORDO
100
AcDbLine
 62
250
  6
CONTINUOUS
 10
4.2742442434
 20
-12.4906504934
 30
0.0
 11
-11.6257557566
 21
-12.4906504934
 31
0.0
  0
LINE
  5
291
100
AcDbEntity
  8
RACCORDO
100
AcDbLine
 62
7
  6
CONTINUOUS
 10
4.2742442434
 20
-11.7906504934
 30
0.0
 11
-11.6257557566
 21
-11.7906504934
 31
0.0
  0
LINE
  5
292
100
AcDbEntity
  8
RACCORDO
100
AcDbLine
 62
7
  6
CONTINUOUS
 10
6.8180925712
 20
-24.5858716593
 30
0.0
 11
6.7395390622
 21
-24.5230294264
 31
0.0
  0
LINE
  5
293
100
AcDbEntity
  8
RACCORDO
100
AcDbLine
 62
250
  6
CONTINUOUS
 10
6.7242632823
 20
-24.3906444009
 30
0.0
 11
6.6457024333
 21
-24.3277962961
 31
0.0
  0
LINE
  5
294
100
AcDbEntity
  8
DRAFT
100
AcDbLine
 62
7
  6
CONTINUOUS
 10
0.2989363268
 20
-23.1406504934
 30
0.0
 11
0.2265033242
 21
-23.0537299193
 31
0.0
  0
LINE
  5
295
100
AcDbEntity
  8
RACCORDO
100
AcDbLine
 62
250
  6
CONTINUOUS
 10
-12.8862356136
 20
-19.7406504934
 30
0.0
 11
-12.8862356136
 21
-12.7406504934
 31
0.0
  0
LINE
  5
296
100
AcDbEntity
  8
RACCORDO
100
AcDbLine
 62
7
  6
CONTINUOUS
 10
-12.686243229
 20
-19.7406504934
 30
0.0
 11
-12.686243229
 21
-12.7406504934
 31
0.0
  0
LINE
  5
297
100
AcDbEntity
  8
DRAFT
100
AcDbLine
 62
7
  6
CONTINUOUS
 10
-12.6757557566
 20
-19.7406504934
 30
0.0
 11
-12.6757557566
 21
-12.7406504934
 31
0.0
  0
LINE
  5
298
100
AcDbEntity
  8
0
100
AcDbLine
 62
7
  6
CONTINUOUS
 10
-12.6257557566
 20
-12.7906504934
 30
0.0
 11
-12.6257557566
 21
-13.9906504934
 31
0.0
  0
LINE
  5
299
100
AcDbEntity
  8
0
100
AcDbLine
 62
7
  6
CONTINUOUS
 10
-12.6257557566
 20
-18.4906504934
 30
0.0
 11
-12.6257557566
 21
-19.6906504934
 31
0.0
  0
LINE
  5
29A
100
AcDbEntity
  8
0
100
AcDbLine
 62
7
  6
CONTINUOUS
 10
-12.5965761498
 20
-13.9906504934
 30
0.0
 11
-12.5965761498
 21
-18.4906504934
 31
0.0
  0
LINE
  5
29B
100
AcDbEntity
  8
RACCORDO
100
AcDbLine
 62
250
  6
CONTINUOUS
 10
-11.9257557566
 20
-12.7906504934
 30
0.0
 11
-11.9257557566
 21
-19.6906504934
 31
0.0
  0
LINE
  5
29C
100
AcDbEntity
  8
RACCORDO
100
AcDbLine
 62
250
  6
CONTINUOUS
 10
-11.6757557566
 20
-11.5301706364
 30
0.0
 11
-11.6757557566
 21
-11.7406504934
 31
0.0
  0
LINE
  5
29D
100
AcDbEntity
  8
RACCORDO
100
AcDbLine
 62
250
  6
CONTINUOUS
 10
-11.6757557566
 20
-20.9511303504
 30
0.0
 11
-11.6757557566
 21
-20.7406504934
 31
0.0
  0
LINE
  5
29E
100
AcDbEntity
  8
RACCORDO
100
AcDbLine
 62
250
  6
CONTINUOUS
 10
-11.6257557566
 20
-19.9906504934
 30
0.0
 11
-11.6257557566
 21
-20.6906504934
 31
0.0
  0
LINE
  5
29F
100
AcDbEntity
  8
RACCORDO
100
AcDbLine
 62
250
  6
CONTINUOUS
 10
-11.6257557566
 20
-12.4906504934
 30
0.0
 11
-11.625755756
 21
-11.7906504934
 31
0.0
  0
LWPOLYLINE
  5
2A0
100
AcDbEntity
  8
0
100
AcDbPolyline
 62
7
  6
CONTINUOUS
 90
3
 70
0
 43
0.3500000006
 10
-2.6400414791
 20
33.3807539978
 10
-2.7114701128
 20
33.1664649811
 10
-2.8543270969
 20
32.8807538452
  0
LINE
  5
2A1
100
AcDbEntity
  8
DRAFT
100
AcDbLine
 62
7
  6
CONTINUOUS
 10
-11.6757557566
 20
-11.7406504934
 30
0.0
 11
-5.9248830698
 21
-11.7406504934
 31
0.0
  0
LINE
  5
2A2
100
AcDbEntity
  8
DRAFT
100
AcDbLine
 62
7
  6
CONTINUOUS
 10
-1.4266284434
 20
-11.7406504934
 30
0.0
 11
4.3242442434
 21
-11.7406504934
 31
0.0
  0
LINE
  5
2A3
100
AcDbEntity
  8
RACCORDO
100
AcDbLine
 62
7
  6
CONTINUOUS
 10
-11.6757557566
 20
-11.730163021
 30
0.0
 11
4.3242442434
 21
-11.730163021
 31
0.0
  0
LINE
  5
2A4
100
AcDbEntity
  8
RACCORDO
100
AcDbLine
 62
250
  6
CONTINUOUS
 10
-11.6757557566
 20
-11.5301706364
 30
0.0
 11
4.3242442434
 21
-11.5301706364
 31
0.0
  0
LINE
  5
2A5
100
AcDbEntity
  8
RACCORDO
100
AcDbLine
 62
250
  6
CONTINUOUS
 10
-10.6345016636
 20
-4.3493964004
 30
0.0
 11
-10.6345016636
 21
4.5680954136
 31
0.0
  0
LINE
  5
2A6
100
AcDbEntity
  8
RACCORDO
100
AcDbLine
 62
7
  6
CONTINUOUS
 10
-10.134520702
 20
-3.8494154389
 30
0.0
 11
-10.134520702
 21
4.068114452
 31
0.0
  0
LINE
  5
2A7
100
AcDbEntity
  8
DRAFT
100
AcDbLine
 62
7
  6
CONTINUOUS
 10
-10.1257557566
 20
4.0593495066
 30
0.0
 11
-10.1257557566
 21
-3.8406504934
 31
0.0
  0
LINE
  5
2A8
100
AcDbEntity
  8
IMPORT_IGES
100
AcDbLine
 62
250
  6
CONTINUOUS
 10
-9.9257557566
 20
-3.8406504934
 30
0.0
 11
-9.9257557566
 21
3.9159055451
 31
0.0
  0
LINE
  5
2A9
100
AcDbEntity
  8
DRAFT
100
AcDbLine
 62
7
  6
CONTINUOUS
 10
-9.8757557566
 20
-23.1406504934
 30
0.0
 11
-9.8757557566
 21
-23.8906504934
 31
0.0
  0
LINE
  5
2AA
100
AcDbEntity
  8
DRAFT
100
AcDbLine
 62
7
  6
CONTINUOUS
 10
-9.8757557566
 20
21.8593495066
 30
0.0
 11
-9.8757557566
 21
22.6093495066
 31
0.0
  0
LINE
  5
2AB
100
AcDbEntity
  8
0
100
AcDbLine
 62
7
  6
CONTINUOUS
 10
-9.6757557566
 20
23.3450377922
 30
0.0
 11
-9.6757557566
 21
21.7957866407
 31
0.0
  0
LINE
  5
2AC
100
AcDbEntity
  8
0
100
AcDbLine
 62
7
  6
CONTINUOUS
 10
-9.6757557566
 20
-24.626338779
 30
0.0
 11
-9.6757557566
 21
-23.0770876275
 31
0.0
  0
LINE
  5
2AD
100
AcDbEntity
  8
0
100
AcDbLine
 62
7
  6
CONTINUOUS
 10
-9.6757557566
 20
-24.626338779
 30
0.0
 11
-9.6757557566
 21
-25.626338779
 31
0.0
  0
LINE
  5
2AE
100
AcDbEntity
  8
0
100
AcDbLine
 62
7
  6
CONTINUOUS
 10
-9.6757557566
 20
23.3450377922
 30
0.0
 11
-9.6757557566
 21
24.3450377922
 31
0.0
  0
LINE
  5
2AF
100
AcDbEntity
  8
IMPORT_IGES
100
AcDbLine
 62
7
  6
CONTINUOUS
 10
-9.6257557566
 20
3.4576479756
 30
0.0
 11
-9.6257557566
 21
-3.5406504934
 31
0.0
  0
LINE
  5
2B0
100
AcDbEntity
  8
IMPORT_IGES
100
AcDbLine
 62
7
  6
CONTINUOUS
 10
-8.7757557566
 20
3.3593495066
 30
0.0
 11
-8.7757557566
 21
3.4122334662
 31
0.0
  0
LINE
  5
2B1
100
AcDbEntity
  8
RACCORDO
100
AcDbLine
 62
7
  6
CONTINUOUS
 10
-8.1757557566
 20
23.3450377922
 30
0.0
 11
-8.1757557566
 21
22.8848280444
 31
0.0
  0
LINE
  5
2B2
100
AcDbEntity
  8
RACCORDO
100
AcDbLine
 62
7
  6
CONTINUOUS
 10
-8.1757557566
 20
-24.1661290312
 30
0.0
 11
-8.1757557566
 21
-24.626338779
 31
0.0
  0
LINE
  5
2B3
100
AcDbEntity
  8
IMPORT_IGES
100
AcDbLine
 62
7
  6
CONTINUOUS
 10
-8.0757557566
 20
1.513312495
 30
0.0
 11
-8.0757557566
 21
2.823312495
 31
0.0
  0
LINE
  5
2B4
100
AcDbEntity
  8
RACCORDO
100
AcDbLine
 62
250
  6
CONTINUOUS
 10
-7.9757557566
 20
23.203447252
 30
0.0
 11
-7.9757557566
 21
22.8230246455
 31
0.0
  0
LINE
  5
2B5
100
AcDbEntity
  8
RACCORDO
100
AcDbLine
 62
250
  6
CONTINUOUS
 10
-7.9757557566
 20
-24.4847482389
 30
0.0
 11
-7.9757557566
 21
-24.1043256324
 31
0.0
  0
LINE
  5
2B6
100
AcDbEntity
  8
RACCORDO
100
AcDbLine
 62
250
  6
CONTINUOUS
 10
-7.8345016636
 20
-5.9493964004
 30
0.0
 11
-7.8345016636
 21
-4.3493964004
 31
0.0
  0
LINE
  5
2B7
100
AcDbEntity
  8
RACCORDO
100
AcDbLine
 62
250
  6
CONTINUOUS
 10
-0.6670098496
 20
-7.2993964004
 30
0.0
 11
-6.6845016636
 21
-7.2993964004
 31
0.0
  0
LINE
  5
2B8
100
AcDbEntity
  8
RACCORDO
100
AcDbLine
 62
7
  6
CONTINUOUS
 10
-1.1669908111
 20
-6.7994154389
 30
0.0
 11
-6.184520702
 21
-6.7994154389
 31
0.0
  0
LINE
  5
2B9
100
AcDbEntity
  8
DRAFT
100
AcDbLine
 62
7
  6
CONTINUOUS
 10
-6.1757557566
 20
-6.7906504934
 30
0.0
 11
-1.1757557566
 21
-6.7906504934
 31
0.0
  0
LINE
  5
2BA
100
AcDbEntity
  8
IMPORT_IGES
100
AcDbLine
 62
7
  6
CONTINUOUS
 10
-5.7007557566
 20
-6.3406504934
 30
0.0
 11
-1.6507557566
 21
-6.3406504934
 31
0.0
  0
LINE
  5
2BB
100
AcDbEntity
  8
0
100
AcDbLine
 62
7
  6
CONTINUOUS
 10
-5.7007557566
 20
-6.1406504934
 30
0.0
 11
-1.6507557566
 21
-6.1406504934
 31
0.0
  0
LINE
  5
2BC
100
AcDbEntity
  8
IMPORT_IGES
100
AcDbLine
 62
7
  6
CONTINUOUS
 10
-5.2196067167
 20
-6.1406504934
 30
0.0
 11
-5.0178351286
 21
-6.3406504934
 31
0.0
  0
LINE
  5
2BD
100
AcDbEntity
  8
IMPORT_IGES
100
AcDbLine
 62
7
  6
CONTINUOUS
 10
-4.958920145
 20
-6.3406504934
 30
0.0
 11
-5.1612681519
 21
-6.1400791356
 31
0.0
  0
LINE
  5
2BE
100
AcDbEntity
  8
DRAFT
100
AcDbLine
 62
7
  6
CONTINUOUS
 10
-1.4266284434
 20
-11.7406504934
 30
0.0
 11
-1.4336099376
 21
-11.7336689992
 31
0.0
  0
LINE
  5
2BF
100
AcDbEntity
  8
IMPORT_IGES
100
AcDbLine
 62
7
  6
CONTINUOUS
 10
-8.1293594577
 20
3.3593495066
 30
0.0
 11
-8.0757557566
 21
2.823312495
 31
0.0
  0
LINE
  5
2C0
100
AcDbEntity
  8
IMPORT_IGES
100
AcDbLine
 62
7
  6
CONTINUOUS
 10
-7.5000840091
 20
0.583312495
 30
0.0
 11
-7.5000840091
 21
1.313312495
 31
0.0
  0
LINE
  5
2C1
100
AcDbEntity
  8
0
100
AcDbLine
 62
7
  6
CONTINUOUS
 10
-7.3757557566
 20
3.4122334662
 30
0.0
 11
-7.3757557566
 21
0.3593495066
 31
0.0
  0
LINE
  5
2C2
100
AcDbEntity
  8
RACCORDO
100
AcDbLine
 62
7
  6
CONTINUOUS
 10
-7.334520702
 20
-5.4494154389
 30
0.0
 11
-7.334520702
 21
-3.8494154389
 31
0.0
  0
LINE
  5
2C3
100
AcDbEntity
  8
DRAFT
100
AcDbLine
 62
7
  6
CONTINUOUS
 10
-7.3257557566
 20
-3.8494154389
 30
0.0
 11
-7.3257557566
 21
-5.4406504934
 31
0.0
  0
LINE
  5
2C4
100
AcDbEntity
  8
IMPORT_IGES
100
AcDbLine
 62
250
  6
CONTINUOUS
 10
-7.1257557566
 20
-5.3906504934
 30
0.0
 11
-7.1257557566
 21
-3.8406504934
 31
0.0
  0
LINE
  5
2C5
100
AcDbEntity
  8
0
100
AcDbLine
 62
7
  6
CONTINUOUS
 10
-6.8757557566
 20
3.4122334662
 30
0.0
 11
-6.8757557566
 21
0.3593495066
 31
0.0
  0
LINE
  5
2C6
100
AcDbEntity
  8
IMPORT_IGES
100
AcDbLine
 62
7
  6
CONTINUOUS
 10
-6.8257557566
 20
-5.0906504934
 30
0.0
 11
-6.8257557566
 21
-1.5197792782
 31
0.0
  0
LINE
  5
2C7
100
AcDbEntity
  8
RACCORDO
100
AcDbLine
 62
250
  6
CONTINUOUS
 10
-6.6845016636
 20
-7.2993964004
 30
0.0
 11
-6.6845016636
 21
-5.9493964004
 31
0.0
  0
LINE
  5
2C8
100
AcDbEntity
  8
IMPORT_IGES
100
AcDbLine
 62
7
  6
CONTINUOUS
 10
-6.6306092589
 20
-0.0406504934
 30
0.0
 11
-6.6306092589
 21
0.583312495
 31
0.0
  0
LINE
  5
2C9
100
AcDbEntity
  8
0
100
AcDbLine
 62
7
  6
CONTINUOUS
 10
-6.3757557566
 20
3.4122334662
 30
0.0
 11
-6.3757557566
 21
0.3593495066
 31
0.0
  0
LINE
  5
2CA
100
AcDbEntity
  8
RACCORDO
100
AcDbLine
 62
7
  6
CONTINUOUS
 10
-6.184520702
 20
-6.7994154389
 30
0.0
 11
-6.184520702
 21
-5.4494154389
 31
0.0
  0
LINE
  5
2CB
100
AcDbEntity
  8
DRAFT
100
AcDbLine
 62
7
  6
CONTINUOUS
 10
-6.1757557566
 20
-5.4494154389
 30
0.0
 11
-6.1757557566
 21
-6.7906504934
 31
0.0
  0
LINE
  5
2CC
100
AcDbEntity
  8
IMPORT_IGES
100
AcDbLine
 62
250
  6
CONTINUOUS
 10
-6.0007557566
 20
-6.7906504934
 30
0.0
 11
-6.0007557566
 21
-5.3906504934
 31
0.0
  0
LINE
  5
2CD
100
AcDbEntity
  8
DRAFT
100
AcDbLine
 62
7
  6
CONTINUOUS
 10
-5.9248830698
 20
-11.7406504934
 30
0.0
 11
-5.9248830698
 21
-11.7906504934
 31
0.0
  0
LINE
  5
2CE
100
AcDbEntity
  8
DRAFT
100
AcDbLine
 62
7
  6
CONTINUOUS
 10
-5.9248830698
 20
-20.6906504934
 30
0.0
 11
-5.9248830698
 21
-20.7406504934
 31
0.0
  0
LINE
  5
2CF
100
AcDbEntity
  8
RACCORDO
100
AcDbLine
 62
250
  6
CONTINUOUS
 10
0.4829901504
 20
-5.9493964004
 30
0.0
 11
-0.6670098496
 21
-5.9493964004
 31
0.0
  0
LINE
  5
2D0
100
AcDbEntity
  8
RACCORDO
100
AcDbLine
 62
250
  6
CONTINUOUS
 10
-6.6845016636
 20
-5.9493964004
 30
0.0
 11
-7.8345016636
 21
-5.9493964004
 31
0.0
  0
LINE
  5
2D1
100
AcDbEntity
  8
RACCORDO
100
AcDbLine
 62
7
  6
CONTINUOUS
 10
-0.0169908111
 20
-5.4494154389
 30
0.0
 11
-1.1669908111
 21
-5.4494154389
 31
0.0
  0
LINE
  5
2D2
100
AcDbEntity
  8
RACCORDO
100
AcDbLine
 62
7
  6
CONTINUOUS
 10
-6.184520702
 20
-5.4494154389
 30
0.0
 11
-7.334520702
 21
-5.4494154389
 31
0.0
  0
LINE
  5
2D3
100
AcDbEntity
  8
DRAFT
100
AcDbLine
 62
7
  6
CONTINUOUS
 10
-7.3257557566
 20
-5.4406504934
 30
0.0
 11
-6.184520702
 21
-5.4406504934
 31
0.0
  0
LINE
  5
2D4
100
AcDbEntity
  8
DRAFT
100
AcDbLine
 62
7
  6
CONTINUOUS
 10
-1.1669908111
 20
-5.4406504934
 30
0.0
 11
-0.0257557566
 21
-5.4406504934
 31
0.0
  0
LINE
  5
2D5
100
AcDbEntity
  8
IMPORT_IGES
100
AcDbLine
 62
250
  6
CONTINUOUS
 10
-1.3507557566
 20
-5.3906504934
 30
0.0
 11
-0.2257557566
 21
-5.3906504934
 31
0.0
  0
LINE
  5
2D6
100
AcDbEntity
  8
IMPORT_IGES
100
AcDbLine
 62
250
  6
CONTINUOUS
 10
-6.0007557566
 20
-5.3906504934
 30
0.0
 11
-7.1257557566
 21
-5.3906504934
 31
0.0
  0
LINE
  5
2D7
100
AcDbEntity
  8
IMPORT_IGES
100
AcDbLine
 62
7
  6
CONTINUOUS
 10
-6.8257557566
 20
-5.0906504934
 30
0.0
 11
-5.7007557566
 21
-5.0906504934
 31
0.0
  0
LINE
  5
2D8
100
AcDbEntity
  8
IMPORT_IGES
100
AcDbLine
 62
7
  6
CONTINUOUS
 10
-5.1007557566
 20
-5.0906504934
 30
0.0
 11
-2.2507557566
 21
-5.0906504934
 31
0.0
  0
LINE
  5
2D9
100
AcDbEntity
  8
IMPORT_IGES
100
AcDbLine
 62
7
  6
CONTINUOUS
 10
-1.6507557566
 20
-5.0906504934
 30
0.0
 11
-0.5257557566
 21
-5.0906504934
 31
0.0
  0
LINE
  5
2DA
100
AcDbEntity
  8
RACCORDO
100
AcDbLine
 62
250
  6
CONTINUOUS
 10
3.2829901504
 20
-4.3493964004
 30
0.0
 11
0.4829901504
 21
-4.3493964004
 31
0.0
  0
LINE
  5
2DB
100
AcDbEntity
  8
RACCORDO
100
AcDbLine
 62
250
  6
CONTINUOUS
 10
-7.8345016636
 20
-4.3493964004
 30
0.0
 11
-10.6345016636
 21
-4.3493964004
 31
0.0
  0
LINE
  5
2DC
100
AcDbEntity
  8
IMPORT_IGES
100
AcDbLine
 62
7
  6
CONTINUOUS
 10
-6.8257557566
 20
-4.2906504934
 30
0.0
 11
-5.1007557566
 21
-4.2906504934
 31
0.0
  0
LINE
  5
2DD
100
AcDbEntity
  8
IMPORT_IGES
100
AcDbLine
 62
7
  6
CONTINUOUS
 10
-2.2507557566
 20
-4.2906504934
 30
0.0
 11
-0.5257557566
 21
-4.2906504934
 31
0.0
  0
LINE
  5
2DE
100
AcDbEntity
  8
IMPORT_IGES
100
AcDbLine
 62
7
  6
CONTINUOUS
 10
-2.6120826406
 20
-6.1406504934
 30
0.0
 11
-2.4138386739
 21
-6.3406504934
 31
0.0
  0
LINE
  5
2DF
100
AcDbEntity
  8
IMPORT_IGES
100
AcDbLine
 62
7
  6
CONTINUOUS
 10
-7.6000840091
 20
1.513312495
 30
0.0
 11
-7.5000840091
 21
1.313312495
 31
0.0
  0
LINE
  5
2E0
100
AcDbEntity
  8
RACCORDO
100
AcDbLine
 62
7
  6
CONTINUOUS
 10
-7.4097830518
 20
23.1624689407
 30
0.0
 11
-7.2881703092
 21
21.7724289325
 31
0.0
  0
LINE
  5
2E1
100
AcDbEntity
  8
0
100
AcDbLine
 62
7
  6
CONTINUOUS
 10
-5.8757557566
 20
3.4122334662
 30
0.0
 11
-5.8757557566
 21
0.3593495066
 31
0.0
  0
LINE
  5
2E2
100
AcDbEntity
  8
IMPORT_IGES
100
AcDbLine
 62
7
  6
CONTINUOUS
 10
-5.8306092589
 20
0.583312495
 30
0.0
 11
-5.8306092589
 21
-0.0406504934
 31
0.0
  0
LINE
  5
2E3
100
AcDbEntity
  8
IMPORT_IGES
100
AcDbLine
 62
7
  6
CONTINUOUS
 10
-5.7007557566
 20
-5.0906504934
 30
0.0
 11
-5.7007557566
 21
-6.7693692013
 31
0.0
  0
LINE
  5
2E4
100
AcDbEntity
  8
RACCORDO
100
AcDbLine
 62
7
  6
CONTINUOUS
 10
-5.4257557566
 20
-11.7336689992
 30
0.0
 11
-5.4257557566
 21
-11.7906504934
 31
0.0
  0
LINE
  5
2E5
100
AcDbEntity
  8
RACCORDO
100
AcDbLine
 62
7
  6
CONTINUOUS
 10
-5.4257557566
 20
-20.6906504934
 30
0.0
 11
-5.4257557566
 21
-20.7476319877
 31
0.0
  0
LINE
  5
2E6
100
AcDbEntity
  8
0
100
AcDbLine
 62
7
  6
CONTINUOUS
 10
-5.3757557566
 20
3.4122334662
 30
0.0
 11
-5.3757557566
 21
0.3593495066
 31
0.0
  0
LINE
  5
2E7
100
AcDbEntity
  8
IMPORT_IGES
100
AcDbLine
 62
7
  6
CONTINUOUS
 10
-5.1007557566
 20
-4.2906504934
 30
0.0
 11
-5.1007557566
 21
-5.0906504934
 31
0.0
  0
LINE
  5
2E8
100
AcDbEntity
  8
0
100
AcDbLine
 62
7
  6
CONTINUOUS
 10
-4.8757557566
 20
3.4122334662
 30
0.0
 11
-4.8757557566
 21
0.3593495066
 31
0.0
  0
LWPOLYLINE
  5
2E9
100
AcDbEntity
  8
0
100
AcDbPolyline
 62
7
  6
CONTINUOUS
 90
2
 70
0
 43
0.3500000006
 10
-4.7114701567
 20
33.0950383301
 10
-4.7114701567
 20
34.5950387878
  0
LINE
  5
2EA
100
AcDbEntity
  8
IMPORT_IGES
100
AcDbLine
 62
7
  6
CONTINUOUS
 10
-4.4400840091
 20
-0.0406504934
 30
0.0
 11
-4.4400840091
 21
1.5616980612
 31
0.0
  0
LINE
  5
2EB
100
AcDbEntity
  8
0
100
AcDbLine
 62
7
  6
CONTINUOUS
 10
-4.3757557566
 20
3.4122334662
 30
0.0
 11
-4.3757557566
 21
0.3593495066
 31
0.0
  0
LINE
  5
2EC
100
AcDbEntity
  8
RACCORDO
100
AcDbLine
 62
7
  6
CONTINUOUS
 10
-7.2881703092
 20
-23.0537299193
 30
0.0
 11
-7.4097830518
 21
-24.4437699276
 31
0.0
  0
LINE
  5
2ED
100
AcDbEntity
  8
IMPORT_IGES
100
AcDbLine
 62
7
  6
CONTINUOUS
 10
-4.8757557566
 20
1.7303545663
 30
0.0
 11
-4.8600840091
 21
1.7616980612
 31
0.0
  0
LINE
  5
2EE
100
AcDbEntity
  8
RACCORDO
100
AcDbLine
 62
7
  6
CONTINUOUS
 10
-10.1257557566
 20
-3.8406504934
 30
0.0
 11
-10.134520702
 21
-3.8494154389
 31
0.0
  0
LINE
  5
2EF
100
AcDbEntity
  8
RACCORDO
100
AcDbLine
 62
7
  6
CONTINUOUS
 10
2.7830091889
 20
-3.8494154389
 30
0.0
 11
-0.0169908111
 21
-3.8494154389
 31
0.0
  0
LINE
  5
2F0
100
AcDbEntity
  8
RACCORDO
100
AcDbLine
 62
7
  6
CONTINUOUS
 10
-7.334520702
 20
-3.8494154389
 30
0.0
 11
-10.134520702
 21
-3.8494154389
 31
0.0
  0
LINE
  5
2F1
100
AcDbEntity
  8
DRAFT
100
AcDbLine
 62
7
  6
CONTINUOUS
 10
-10.1257557566
 20
-3.8406504934
 30
0.0
 11
-7.334520702
 21
-3.8406504934
 31
0.0
  0
LINE
  5
2F2
100
AcDbEntity
  8
IMPORT_IGES
100
AcDbLine
 62
250
  6
CONTINUOUS
 10
-0.0257557566
 20
-3.8406504934
 30
0.0
 11
-0.2257557566
 21
-3.8406504934
 31
0.0
  0
LINE
  5
2F3
100
AcDbEntity
  8
DRAFT
100
AcDbLine
 62
7
  6
CONTINUOUS
 10
-0.0169908111
 20
-3.8406504934
 30
0.0
 11
2.7742442434
 21
-3.8406504934
 31
0.0
  0
LINE
  5
2F4
100
AcDbEntity
  8
IMPORT_IGES
100
AcDbLine
 62
250
  6
CONTINUOUS
 10
-7.1257557566
 20
-3.8406504934
 30
0.0
 11
-7.3257557566
 21
-3.8406504934
 31
0.0
  0
LINE
  5
2F5
100
AcDbEntity
  8
IMPORT_IGES
100
AcDbLine
 62
7
  6
CONTINUOUS
 10
-0.5257557566
 20
-3.5406504934
 30
0.0
 11
2.2742442434
 21
-3.5406504934
 31
0.0
  0
LINE
  5
2F6
100
AcDbEntity
  8
IMPORT_IGES
100
AcDbLine
 62
7
  6
CONTINUOUS
 10
-6.8257557566
 20
-3.5406504934
 30
0.0
 11
-9.6257557566
 21
-3.5406504934
 31
0.0
  0
LINE
  5
2F7
100
AcDbEntity
  8
IMPORT_IGES
100
AcDbLine
 62
7
  6
CONTINUOUS
 10
2.2742442434
 20
-2.2906504934
 30
0.0
 11
-0.5257557566
 21
-2.2906504934
 31
0.0
  0
LINE
  5
2F8
100
AcDbEntity
  8
IMPORT_IGES
100
AcDbLine
 62
7
  6
CONTINUOUS
 10
-6.8257557566
 20
-2.2906504934
 30
0.0
 11
-9.6257557566
 21
-2.2906504934
 31
0.0
  0
LINE
  5
2F9
100
AcDbEntity
  8
RACCORDO
100
AcDbLine
 62
7
  6
CONTINUOUS
 10
-1.1757557566
 20
-6.7906504934
 30
0.0
 11
-1.1669908111
 21
-6.7994154389
 31
0.0
  0
LINE
  5
2FA
100
AcDbEntity
  8
RACCORDO
100
AcDbLine
 62
7
  6
CONTINUOUS
 10
-1.1757557566
 20
-5.4406504934
 30
0.0
 11
-1.1669908111
 21
-5.4494154389
 31
0.0
  0
LINE
  5
2FB
100
AcDbEntity
  8
RACCORDO
100
AcDbLine
 62
7
  6
CONTINUOUS
 10
-10.1257557566
 20
4.0593495066
 30
0.0
 11
-10.134520702
 21
4.068114452
 31
0.0
  0
LINE
  5
2FC
100
AcDbEntity
  8
RACCORDO
100
AcDbLine
 62
7
  6
CONTINUOUS
 10
-0.0257557566
 20
-5.4406504934
 30
0.0
 11
-0.0169908111
 21
-5.4494154389
 31
0.0
  0
LINE
  5
2FD
100
AcDbEntity
  8
0
100
AcDbLine
 62
7
  6
CONTINUOUS
 10
-3.8757557566
 20
3.4122334662
 30
0.0
 11
-3.8757557566
 21
0.3593495066
 31
0.0
  0
LINE
  5
2FE
100
AcDbEntity
  8
0
100
AcDbLine
 62
7
  6
CONTINUOUS
 10
-3.3757557566
 20
3.4122334662
 30
0.0
 11
-3.3757557566
 21
0.3593495066
 31
0.0
  0
LINE
  5
2FF
100
AcDbEntity
  8
0
100
AcDbLine
 62
7
  6
CONTINUOUS
 10
-2.8757557566
 20
3.4122334662
 30
0.0
 11
-2.8757557566
 21
0.3593495066
 31
0.0
  0
LINE
  5
300
100
AcDbEntity
  8
0
100
AcDbLine
 62
7
  6
CONTINUOUS
 10
-2.3757557566
 20
3.4122334662
 30
0.0
 11
-2.3757557566
 21
0.3593495066
 31
0.0
  0
LINE
  5
301
100
AcDbEntity
  8
IMPORT_IGES
100
AcDbLine
 62
7
  6
CONTINUOUS
 10
-2.2507557566
 20
-5.0906504934
 30
0.0
 11
-2.2507557566
 21
-4.2906504934
 31
0.0
  0
LINE
  5
302
100
AcDbEntity
  8
IMPORT_IGES
100
AcDbLine
 62
7
  6
CONTINUOUS
 10
-1.8757557566
 20
1.6114050659
 30
0.0
 11
-1.8006092589
 21
1.7616980612
 31
0.0
  0
LINE
  5
303
100
AcDbEntity
  8
RACCORDO
100
AcDbLine
 62
7
  6
CONTINUOUS
 10
-7.3257557566
 20
-3.8406504934
 30
0.0
 11
-7.334520702
 21
-3.8494154389
 31
0.0
  0
LINE
  5
304
100
AcDbEntity
  8
RACCORDO
100
AcDbLine
 62
7
  6
CONTINUOUS
 10
-7.3257557566
 20
-5.4406504934
 30
0.0
 11
-7.334520702
 21
-5.4494154389
 31
0.0
  0
LINE
  5
305
100
AcDbEntity
  8
IMPORT_IGES
100
AcDbLine
 62
7
  6
CONTINUOUS
 10
2.2742442434
 20
-1.5197792782
 30
0.0
 11
-9.6257557566
 21
-1.5197792782
 31
0.0
  0
LWPOLYLINE
  5
306
100
AcDbEntity
  8
0
100
AcDbPolyline
 62
7
  6
CONTINUOUS
 90
13
 70
0
 43
0.3500000006
 10
17.7171018448
 20
-0.7477935333
 10
16.4313870049
 20
-0.7477935333
 10
16.0028157692
 20
-0.5335067825
 10
15.5742445335
 20
-0.1049355469
 10
15.5742445335
 20
0.109348938
 10
16.0028157692
 20
0.5379201736
 10
16.4313870049
 20
0.7522069244
 10
17.7171018448
 20
0.7522069244
 10
18.1456730804
 20
0.5379201736
 10
18.5742443161
 20
0.109348938
 10
18.5742443161
 20
-0.1049355469
 10
18.1456730804
 20
-0.5335067825
 10
17.7171018448
 20
-0.7477935333
  0
LINE
  5
307
100
AcDbEntity
  8
RACCORDO
100
AcDbLine
 62
7
  6
CONTINUOUS
 10
-0.0257557566
 20
-3.8406504934
 30
0.0
 11
-0.0169908111
 21
-3.8494154389
 31
0.0
  0
LINE
  5
308
100
AcDbEntity
  8
IMPORT_IGES
100
AcDbLine
 62
7
  6
CONTINUOUS
 10
-4.5400840091
 20
1.7616980612
 30
0.0
 11
-4.4400840091
 21
1.5616980612
 31
0.0
  0
LINE
  5
309
100
AcDbEntity
  8
RACCORDO
100
AcDbLine
 62
7
  6
CONTINUOUS
 10
0.0582715386
 20
-24.4437699276
 30
0.0
 11
-0.063341204
 21
-23.0537299193
 31
0.0
  0
LINE
  5
30A
100
AcDbEntity
  8
RACCORDO
100
AcDbLine
 62
7
  6
CONTINUOUS
 10
-1.9257557566
 20
-11.7336689992
 30
0.0
 11
-1.9257557566
 21
-11.7906504934
 31
0.0
  0
LINE
  5
30B
100
AcDbEntity
  8
RACCORDO
100
AcDbLine
 62
7
  6
CONTINUOUS
 10
-1.9257557566
 20
-20.6906504934
 30
0.0
 11
-1.9257557566
 21
-20.7476319877
 31
0.0
  0
LINE
  5
30C
100
AcDbEntity
  8
IMPORT_IGES
100
AcDbLine
 62
7
  6
CONTINUOUS
 10
-1.9006092589
 20
0.3593495066
 30
0.0
 11
-1.9006092589
 21
-0.0406504934
 31
0.0
  0
LINE
  5
30D
100
AcDbEntity
  8
0
100
AcDbLine
 62
7
  6
CONTINUOUS
 10
-1.8757557566
 20
3.4122334662
 30
0.0
 11
-1.8757557566
 21
0.3593495066
 31
0.0
  0
LINE
  5
30E
100
AcDbEntity
  8
IMPORT_IGES
100
AcDbLine
 62
7
  6
CONTINUOUS
 10
-1.6507557566
 20
-6.7693692013
 30
0.0
 11
-1.6507557566
 21
-5.0906504934
 31
0.0
  0
LWPOLYLINE
  5
30F
100
AcDbEntity
  8
0
100
AcDbPolyline
 62
7
  6
CONTINUOUS
 90
4
 70
0
 43
0.3500000006
 10
-1.6400414572
 20
33.5236072998
 10
-1.6400414572
 20
34.380754303
 10
-1.2114700799
 20
34.8093232727
 10
-0.5686129078
 20
34.8093232727
  0
LINE
  5
310
100
AcDbEntity
  8
DRAFT
100
AcDbLine
 62
7
  6
CONTINUOUS
 10
-1.4266284434
 20
-11.7406504934
 30
0.0
 11
-1.4266284434
 21
-11.7906504934
 31
0.0
  0
LINE
  5
311
100
AcDbEntity
  8
DRAFT
100
AcDbLine
 62
7
  6
CONTINUOUS
 10
-1.4266284434
 20
-20.6906504934
 30
0.0
 11
-1.4266284434
 21
-20.7406504934
 31
0.0
  0
LINE
  5
312
100
AcDbEntity
  8
0
100
AcDbLine
 62
7
  6
CONTINUOUS
 10
-1.3757557566
 20
3.4122334662
 30
0.0
 11
-1.3757557566
 21
0.3593495066
 31
0.0
  0
LINE
  5
313
100
AcDbEntity
  8
IMPORT_IGES
100
AcDbLine
 62
250
  6
CONTINUOUS
 10
-1.3507557566
 20
-6.7906504934
 30
0.0
 11
-1.3507557566
 21
-5.3906504934
 31
0.0
  0
LINE
  5
314
100
AcDbEntity
  8
DRAFT
100
AcDbLine
 62
7
  6
CONTINUOUS
 10
-1.1757557566
 20
-6.7906504934
 30
0.0
 11
-1.1757557566
 21
-5.4494154389
 31
0.0
  0
LINE
  5
315
100
AcDbEntity
  8
RACCORDO
100
AcDbLine
 62
7
  6
CONTINUOUS
 10
-1.1669908111
 20
-5.4494154389
 30
0.0
 11
-1.1669908111
 21
-6.7994154389
 31
0.0
  0
LINE
  5
316
100
AcDbEntity
  8
0
100
AcDbLine
 62
7
  6
CONTINUOUS
 10
-0.8757557566
 20
3.4122334662
 30
0.0
 11
-0.8757557566
 21
0.3593495066
 31
0.0
  0
LINE
  5
317
100
AcDbEntity
  8
RACCORDO
100
AcDbLine
 62
250
  6
CONTINUOUS
 10
-0.6670098496
 20
-5.9493964004
 30
0.0
 11
-0.6670098496
 21
-7.2993964004
 31
0.0
  0
LINE
  5
318
100
AcDbEntity
  8
IMPORT_IGES
100
AcDbLine
 62
7
  6
CONTINUOUS
 10
-0.5257557566
 20
-5.0906504934
 30
0.0
 11
-0.5257557566
 21
-1.5197792782
 31
0.0
  0
LINE
  5
319
100
AcDbEntity
  8
0
100
AcDbLine
 62
7
  6
CONTINUOUS
 10
-0.3757557566
 20
3.4122334662
 30
0.0
 11
-0.3757557566
 21
0.3593495066
 31
0.0
  0
LINE
  5
31A
100
AcDbEntity
  8
IMPORT_IGES
100
AcDbLine
 62
250
  6
CONTINUOUS
 10
-0.2257557566
 20
-3.8406504934
 30
0.0
 11
-0.2257557566
 21
-5.3906504934
 31
0.0
  0
LINE
  5
31B
100
AcDbEntity
  8
RACCORDO
100
AcDbLine
 62
7
  6
CONTINUOUS
 10
-0.063341204
 20
21.7724289325
 30
0.0
 11
0.0582715386
 21
23.1624689407
 31
0.0
  0
LINE
  5
31C
100
AcDbEntity
  8
IMPORT_IGES
100
AcDbLine
 62
7
  6
CONTINUOUS
 10
-0.8757557566
 20
1.5703545663
 30
0.0
 11
-0.7800840091
 21
1.7616980612
 31
0.0
  0
LINE
  5
31D
100
AcDbEntity
  8
IMPORT_IGES
100
AcDbLine
 62
7
  6
CONTINUOUS
 10
0.1399159909
 20
1.313312495
 30
0.0
 11
0.2399159909
 21
1.513312495
 31
0.0
  0
LINE
  5
31E
100
AcDbEntity
  8
RACCORDO
100
AcDbLine
 62
7
  6
CONTINUOUS
 10
2.7742442434
 20
4.0593495066
 30
0.0
 11
2.7830091889
 21
4.068114452
 31
0.0
  0
LINE
  5
31F
100
AcDbEntity
  8
RACCORDO
100
AcDbLine
 62
7
  6
CONTINUOUS
 10
-6.1757557566
 20
-5.4406504934
 30
0.0
 11
-6.184520702
 21
-5.4494154389
 31
0.0
  0
LINE
  5
320
100
AcDbEntity
  8
RACCORDO
100
AcDbLine
 62
7
  6
CONTINUOUS
 10
-6.1757557566
 20
-6.7906504934
 30
0.0
 11
-6.184520702
 21
-6.7994154389
 31
0.0
  0
LINE
  5
321
100
AcDbEntity
  8
IMPORT_IGES
100
AcDbLine
 62
7
  6
CONTINUOUS
 10
-6.6306092589
 20
-0.0406504934
 30
0.0
 11
-5.8306092589
 21
-0.0406504934
 31
0.0
  0
LINE
  5
322
100
AcDbEntity
  8
IMPORT_IGES
100
AcDbLine
 62
7
  6
CONTINUOUS
 10
-4.4400840091
 20
-0.0406504934
 30
0.0
 11
-1.9006092589
 21
-0.0406504934
 31
0.0
  0
LINE
  5
323
100
AcDbEntity
  8
0
100
AcDbLine
 62
7
  6
CONTINUOUS
 10
-7.3757557566
 20
0.3593495066
 30
0.0
 11
-6.8757557566
 21
0.3593495066
 31
0.0
  0
LINE
  5
324
100
AcDbEntity
  8
0
100
AcDbLine
 62
7
  6
CONTINUOUS
 10
-6.3757557566
 20
0.3593495066
 30
0.0
 11
-5.8757557566
 21
0.3593495066
 31
0.0
  0
LINE
  5
325
100
AcDbEntity
  8
0
100
AcDbLine
 62
7
  6
CONTINUOUS
 10
-5.3757557566
 20
0.3593495066
 30
0.0
 11
-4.8757557566
 21
0.3593495066
 31
0.0
  0
LINE
  5
326
100
AcDbEntity
  8
0
100
AcDbLine
 62
7
  6
CONTINUOUS
 10
-4.3757557566
 20
0.3593495066
 30
0.0
 11
-3.8757557566
 21
0.3593495066
 31
0.0
  0
LINE
  5
327
100
AcDbEntity
  8
0
100
AcDbLine
 62
7
  6
CONTINUOUS
 10
-3.3757557566
 20
0.3593495066
 30
0.0
 11
-2.8757557566
 21
0.3593495066
 31
0.0
  0
LINE
  5
328
100
AcDbEntity
  8
0
100
AcDbLine
 62
7
  6
CONTINUOUS
 10
-2.3757557566
 20
0.3593495066
 30
0.0
 11
-1.8757557566
 21
0.3593495066
 31
0.0
  0
LINE
  5
329
100
AcDbEntity
  8
0
100
AcDbLine
 62
7
  6
CONTINUOUS
 10
-1.3757557566
 20
0.3593495066
 30
0.0
 11
-0.8757557566
 21
0.3593495066
 31
0.0
  0
LINE
  5
32A
100
AcDbEntity
  8
0
100
AcDbLine
 62
7
  6
CONTINUOUS
 10
-0.3757557566
 20
0.3593495066
 30
0.0
 11
0.1242442434
 21
0.3593495066
 31
0.0
  0
LINE
  5
32B
100
AcDbEntity
  8
IMPORT_IGES
100
AcDbLine
 62
7
  6
CONTINUOUS
 10
0.1399159909
 20
0.583312495
 30
0.0
 11
0.1242442434
 21
0.583312495
 31
0.0
  0
LINE
  5
32C
100
AcDbEntity
  8
IMPORT_IGES
100
AcDbLine
 62
7
  6
CONTINUOUS
 10
-5.3757557566
 20
0.583312495
 30
0.0
 11
-5.8306092589
 21
0.583312495
 31
0.0
  0
LINE
  5
32D
100
AcDbEntity
  8
IMPORT_IGES
100
AcDbLine
 62
7
  6
CONTINUOUS
 10
-6.6306092589
 20
0.583312495
 30
0.0
 11
-6.8757557566
 21
0.583312495
 31
0.0
  0
LINE
  5
32E
100
AcDbEntity
  8
IMPORT_IGES
100
AcDbLine
 62
7
  6
CONTINUOUS
 10
-7.3757557566
 20
0.583312495
 30
0.0
 11
-7.5000840091
 21
0.583312495
 31
0.0
  0
LINE
  5
32F
100
AcDbEntity
  8
IMPORT_IGES
100
AcDbLine
 62
7
  6
CONTINUOUS
 10
0.7242442434
 20
1.513312495
 30
0.0
 11
0.2399159909
 21
1.513312495
 31
0.0
  0
LINE
  5
330
100
AcDbEntity
  8
IMPORT_IGES
100
AcDbLine
 62
7
  6
CONTINUOUS
 10
-7.6000840091
 20
1.513312495
 30
0.0
 11
-8.0757557566
 21
1.513312495
 31
0.0
  0
LINE
  5
331
100
AcDbEntity
  8
RACCORDO
100
AcDbLine
 62
7
  6
CONTINUOUS
 10
2.7742442434
 20
-3.8406504934
 30
0.0
 11
2.7830091889
 21
-3.8494154389
 31
0.0
  0
LINE
  5
332
100
AcDbEntity
  8
IMPORT_IGES
100
AcDbLine
 62
7
  6
CONTINUOUS
 10
-1.4800840091
 20
1.7616980612
 30
0.0
 11
-1.3800840091
 21
1.5616980612
 31
0.0
  0
LINE
  5
333
100
AcDbEntity
  8
DRAFT
100
AcDbLine
 62
7
  6
CONTINUOUS
 10
-0.0257557566
 20
-5.4406504934
 30
0.0
 11
-0.0257557566
 21
-3.8494154389
 31
0.0
  0
LINE
  5
334
100
AcDbEntity
  8
RACCORDO
100
AcDbLine
 62
7
  6
CONTINUOUS
 10
-0.0169908111
 20
-3.8494154389
 30
0.0
 11
-0.0169908111
 21
-5.4494154389
 31
0.0
  0
LINE
  5
335
100
AcDbEntity
  8
0
100
AcDbLine
 62
7
  6
CONTINUOUS
 10
0.1242442434
 20
3.4122334662
 30
0.0
 11
0.1242442434
 21
0.3593495066
 31
0.0
  0
LINE
  5
336
100
AcDbEntity
  8
IMPORT_IGES
100
AcDbLine
 62
7
  6
CONTINUOUS
 10
0.1399159909
 20
1.313312495
 30
0.0
 11
0.1399159909
 21
0.583312495
 31
0.0
  0
LINE
  5
337
100
AcDbEntity
  8
RACCORDO
100
AcDbLine
 62
250
  6
CONTINUOUS
 10
0.4829901504
 20
-4.3493964004
 30
0.0
 11
0.4829901504
 21
-5.9493964004
 31
0.0
  0
LINE
  5
338
100
AcDbEntity
  8
RACCORDO
100
AcDbLine
 62
250
  6
CONTINUOUS
 10
0.6242442434
 20
23.203447252
 30
0.0
 11
0.6242442434
 21
22.8230246455
 31
0.0
  0
LINE
  5
339
100
AcDbEntity
  8
RACCORDO
100
AcDbLine
 62
250
  6
CONTINUOUS
 10
0.6242442434
 20
-24.4847482389
 30
0.0
 11
0.6242442434
 21
-24.1043256324
 31
0.0
  0
LINE
  5
33A
100
AcDbEntity
  8
IMPORT_IGES
100
AcDbLine
 62
7
  6
CONTINUOUS
 10
0.7242442434
 20
2.823312495
 30
0.0
 11
0.7242442434
 21
1.513312495
 31
0.0
  0
LINE
  5
33B
100
AcDbEntity
  8
RACCORDO
100
AcDbLine
 62
7
  6
CONTINUOUS
 10
0.8242442434
 20
-24.626338779
 30
0.0
 11
0.8242442434
 21
-24.1661290312
 31
0.0
  0
LINE
  5
33C
100
AcDbEntity
  8
RACCORDO
100
AcDbLine
 62
7
  6
CONTINUOUS
 10
0.8242442434
 20
22.8848280444
 30
0.0
 11
0.8242442434
 21
23.3450377922
 31
0.0
  0
LINE
  5
33D
100
AcDbEntity
  8
IMPORT_IGES
100
AcDbLine
 62
7
  6
CONTINUOUS
 10
1.4242442434
 20
3.4122334662
 30
0.0
 11
1.4242442434
 21
3.3593495066
 31
0.0
  0
LINE
  5
33E
100
AcDbEntity
  8
IMPORT_IGES
100
AcDbLine
 62
7
  6
CONTINUOUS
 10
0.7242442434
 20
2.823312495
 30
0.0
 11
0.7778479446
 21
3.3593495066
 31
0.0
  0
LINE
  5
33F
100
AcDbEntity
  8
IMPORT_IGES
100
AcDbLine
 62
7
  6
CONTINUOUS
 10
-4.9376728393
 20
-6.3406504934
 30
0.0
 11
-4.7394288725
 21
-6.1406504934
 31
0.0
  0
LINE
  5
340
100
AcDbEntity
  8
IMPORT_IGES
100
AcDbLine
 62
7
  6
CONTINUOUS
 10
-2.1902433612
 20
-6.1400791356
 30
0.0
 11
-2.3925913682
 21
-6.3406504934
 31
0.0
  0
LINE
  5
341
100
AcDbEntity
  8
IMPORT_IGES
100
AcDbLine
 62
7
  6
CONTINUOUS
 10
-0.4606092589
 20
1.7616980612
 30
0.0
 11
-0.7800840091
 21
1.7616980612
 31
0.0
  0
LINE
  5
342
100
AcDbEntity
  8
IMPORT_IGES
100
AcDbLine
 62
7
  6
CONTINUOUS
 10
-1.4800840091
 20
1.7616980612
 30
0.0
 11
-1.8006092589
 21
1.7616980612
 31
0.0
  0
LINE
  5
343
100
AcDbEntity
  8
IMPORT_IGES
100
AcDbLine
 62
7
  6
CONTINUOUS
 10
-4.5400840091
 20
1.7616980612
 30
0.0
 11
-4.8600840091
 21
1.7616980612
 31
0.0
  0
LINE
  5
344
100
AcDbEntity
  8
IMPORT_IGES
100
AcDbLine
 62
7
  6
CONTINUOUS
 10
2.2742442434
 20
3.3593495066
 30
0.0
 11
0.7778479446
 21
3.3593495066
 31
0.0
  0
LINE
  5
345
100
AcDbEntity
  8
IMPORT_IGES
100
AcDbLine
 62
7
  6
CONTINUOUS
 10
-8.1293594577
 20
3.3593495066
 30
0.0
 11
-9.6257557566
 21
3.3593495066
 31
0.0
  0
LINE
  5
346
100
AcDbEntity
  8
IMPORT_IGES
100
AcDbLine
 62
7
  6
CONTINUOUS
 10
-0.4606092589
 20
1.7616980612
 30
0.0
 11
-0.3757557566
 21
1.5919910566
 31
0.0
  0
LINE
  5
347
100
AcDbEntity
  8
IMPORT_IGES
100
AcDbLine
 62
7
  6
CONTINUOUS
 10
2.2742442434
 20
-3.5406504934
 30
0.0
 11
2.2742442434
 21
3.4576479756
 31
0.0
  0
LINE
  5
348
100
AcDbEntity
  8
0
100
AcDbLine
 62
7
  6
CONTINUOUS
 10
2.3242442434
 20
23.3450377922
 30
0.0
 11
2.3242442434
 21
21.7957866407
 31
0.0
  0
LINE
  5
349
100
AcDbEntity
  8
0
100
AcDbLine
 62
7
  6
CONTINUOUS
 10
2.3242442434
 20
-24.626338779
 30
0.0
 11
2.3242442434
 21
-23.0770876275
 31
0.0
  0
LINE
  5
34A
100
AcDbEntity
  8
0
100
AcDbLine
 62
7
  6
CONTINUOUS
 10
2.3242442434
 20
-24.626338779
 30
0.0
 11
2.3242442434
 21
-25.626338779
 31
0.0
  0
LINE
  5
34B
100
AcDbEntity
  8
0
100
AcDbLine
 62
7
  6
CONTINUOUS
 10
2.3242442434
 20
23.3450377922
 30
0.0
 11
2.3242442434
 21
24.3450377922
 31
0.0
  0
LINE
  5
34C
100
AcDbEntity
  8
DRAFT
100
AcDbLine
 62
7
  6
CONTINUOUS
 10
2.5242442434
 20
-23.1406504934
 30
0.0
 11
2.5242442434
 21
-23.8906504934
 31
0.0
  0
LINE
  5
34D
100
AcDbEntity
  8
DRAFT
100
AcDbLine
 62
7
  6
CONTINUOUS
 10
2.5242442434
 20
21.8593495066
 30
0.0
 11
2.5242442434
 21
22.6093495066
 31
0.0
  0
LINE
  5
34E
100
AcDbEntity
  8
IMPORT_IGES
100
AcDbLine
 62
250
  6
CONTINUOUS
 10
2.5742442434
 20
3.9159055451
 30
0.0
 11
2.5742442434
 21
-3.8406504934
 31
0.0
  0
LINE
  5
34F
100
AcDbEntity
  8
DRAFT
100
AcDbLine
 62
7
  6
CONTINUOUS
 10
2.7742442434
 20
-3.8406504934
 30
0.0
 11
2.7742442434
 21
4.0593495066
 31
0.0
  0
LINE
  5
350
100
AcDbEntity
  8
RACCORDO
100
AcDbLine
 62
7
  6
CONTINUOUS
 10
2.7830091889
 20
4.068114452
 30
0.0
 11
2.7830091889
 21
-3.8494154389
 31
0.0
  0
LINE
  5
351
100
AcDbEntity
  8
RACCORDO
100
AcDbLine
 62
250
  6
CONTINUOUS
 10
3.2829901504
 20
4.5680954136
 30
0.0
 11
3.2829901504
 21
-4.3493964004
 31
0.0
  0
LINE
  5
352
100
AcDbEntity
  8
DRAFT
100
AcDbLine
 62
7
  6
CONTINUOUS
 10
-5.9248830698
 20
-11.7406504934
 30
0.0
 11
-5.9179015756
 21
-11.7336689992
 31
0.0
  0
LINE
  5
353
100
AcDbEntity
  8
IMPORT_IGES
100
AcDbLine
 62
7
  6
CONTINUOUS
 10
-2.3336763845
 20
-6.3406504934
 30
0.0
 11
-2.1319047965
 21
-6.1406504934
 31
0.0
  0
LINE
  5
354
100
AcDbEntity
  8
IMPORT_IGES
100
AcDbLine
 62
7
  6
CONTINUOUS
 10
2.2742442434
 20
3.415912399
 30
0.0
 11
-9.6257557566
 21
3.415912399
 31
0.0
  0
LINE
  5
355
100
AcDbEntity
  8
IMPORT_IGES
100
AcDbLine
 62
250
  6
CONTINUOUS
 10
-9.9257557566
 20
3.9159055451
 30
0.0
 11
2.5742442434
 21
3.9159055451
 31
0.0
  0
LINE
  5
356
100
AcDbEntity
  8
DRAFT
100
AcDbLine
 62
7
  6
CONTINUOUS
 10
2.7742442434
 20
4.0593495066
 30
0.0
 11
-10.1257557566
 21
4.0593495066
 31
0.0
  0
LINE
  5
357
100
AcDbEntity
  8
RACCORDO
100
AcDbLine
 62
7
  6
CONTINUOUS
 10
-10.134520702
 20
4.068114452
 30
0.0
 11
2.7830091889
 21
4.068114452
 31
0.0
  0
LINE
  5
358
100
AcDbEntity
  8
RACCORDO
100
AcDbLine
 62
250
  6
CONTINUOUS
 10
-10.6345016636
 20
4.5680954136
 30
0.0
 11
3.2829901504
 21
4.5680954136
 31
0.0
  0
LINE
  5
359
100
AcDbEntity
  8
RACCORDO
100
AcDbLine
 62
250
  6
CONTINUOUS
 10
4.2742442434
 20
-19.9906504934
 30
0.0
 11
4.2742442428
 21
-20.6906504934
 31
0.0
  0
LINE
  5
35A
100
AcDbEntity
  8
RACCORDO
100
AcDbLine
 62
250
  6
CONTINUOUS
 10
4.2742442434
 20
-12.4906504934
 30
0.0
 11
4.2742442434
 21
-11.7906504934
 31
0.0
  0
LINE
  5
35B
100
AcDbEntity
  8
RACCORDO
100
AcDbLine
 62
250
  6
CONTINUOUS
 10
4.3242442434
 20
-11.5301706364
 30
0.0
 11
4.3242442434
 21
-11.7406504934
 31
0.0
  0
LINE
  5
35C
100
AcDbEntity
  8
RACCORDO
100
AcDbLine
 62
250
  6
CONTINUOUS
 10
4.3242442434
 20
-20.9511303504
 30
0.0
 11
4.3242442434
 21
-20.7406504934
 31
0.0
  0
LINE
  5
35D
100
AcDbEntity
  8
RACCORDO
100
AcDbLine
 62
250
  6
CONTINUOUS
 10
4.5742442434
 20
-19.6906504934
 30
0.0
 11
4.5742442434
 21
-12.7906504934
 31
0.0
  0
LINE
  5
35E
100
AcDbEntity
  8
0
100
AcDbLine
 62
7
  6
CONTINUOUS
 10
5.2450646367
 20
-18.4906504934
 30
0.0
 11
5.2450646367
 21
-13.9906504934
 31
0.0
  0
LINE
  5
35F
100
AcDbEntity
  8
0
100
AcDbLine
 62
7
  6
CONTINUOUS
 10
5.2742442434
 20
-19.6906504934
 30
0.0
 11
5.2742442434
 21
-18.4906504934
 31
0.0
  0
LINE
  5
360
100
AcDbEntity
  8
0
100
AcDbLine
 62
7
  6
CONTINUOUS
 10
5.2742442434
 20
-13.9906504934
 30
0.0
 11
5.2742442434
 21
-12.7906504934
 31
0.0
  0
LINE
  5
361
100
AcDbEntity
  8
DRAFT
100
AcDbLine
 62
7
  6
CONTINUOUS
 10
5.3242442434
 20
-12.7406504934
 30
0.0
 11
5.3242442434
 21
-19.7406504934
 31
0.0
  0
LINE
  5
362
100
AcDbEntity
  8
RACCORDO
100
AcDbLine
 62
7
  6
CONTINUOUS
 10
5.3347317158
 20
-12.7406504934
 30
0.0
 11
5.3347317158
 21
-19.7406504934
 31
0.0
  0
LINE
  5
363
100
AcDbEntity
  8
RACCORDO
100
AcDbLine
 62
250
  6
CONTINUOUS
 10
5.5347241004
 20
-12.7406504934
 30
0.0
 11
5.5347241004
 21
-19.7406504934
 31
0.0
  0
LINE
  5
364
100
AcDbEntity
  8
RACCORDO
100
AcDbLine
 62
7
  6
CONTINUOUS
 10
6.6457024333
 20
23.0464953093
 30
0.0
 11
6.6457024333
 21
21.8593495066
 31
0.0
  0
LINE
  5
365
100
AcDbEntity
  8
RACCORDO
100
AcDbLine
 62
7
  6
CONTINUOUS
 10
6.6457024333
 20
-23.1406504934
 30
0.0
 11
6.6457024333
 21
-24.3277962961
 31
0.0
  0
LINE
  5
366
100
AcDbEntity
  8
RACCORDO
100
AcDbLine
 62
250
  6
CONTINUOUS
 10
6.7773708636
 20
-24.3481587241
 30
0.0
 11
6.7773708636
 21
-23.0130164513
 31
0.0
  0
LINE
  5
367
100
AcDbEntity
  8
RACCORDO
100
AcDbLine
 62
250
  6
CONTINUOUS
 10
6.7773708636
 20
21.7317154645
 30
0.0
 11
6.7773708636
 21
23.0668577373
 31
0.0
  0
LINE
  5
368
100
AcDbEntity
  8
RACCORDO
100
AcDbLine
 62
250
  6
CONTINUOUS
 10
8.277836681
 20
-21.471963274
 30
0.0
 11
8.277836681
 21
20.1906622871
 31
0.0
  0
LINE
  5
369
100
AcDbEntity
  8
RACCORDO
100
AcDbLine
 62
250
  6
CONTINUOUS
 10
8.5277986048
 20
-21.471963274
 30
0.0
 11
8.5277986048
 21
20.1906622871
 31
0.0
  0
LINE
  5
36A
100
AcDbEntity
  8
RACCORDO
100
AcDbLine
 62
250
  6
CONTINUOUS
 10
8.6178427353
 20
23.0668169018
 30
0.0
 11
8.6178427353
 21
21.4816633485
 31
0.0
  0
LINE
  5
36B
100
AcDbEntity
  8
RACCORDO
100
AcDbLine
 62
250
  6
CONTINUOUS
 10
8.6178427353
 20
-22.7629643353
 30
0.0
 11
8.6178427353
 21
-24.3481178886
 31
0.0
  0
LINE
  5
36C
100
AcDbEntity
  8
RACCORDO
100
AcDbLine
 62
7
  6
CONTINUOUS
 10
8.7242442434
 20
-24.3906748616
 30
0.0
 11
8.7242442434
 21
-18.1406504934
 31
0.0
  0
LINE
  5
36D
100
AcDbEntity
  8
DRAFT
100
AcDbLine
 62
7
  6
CONTINUOUS
 10
8.7242442434
 20
-18.1406504934
 30
0.0
 11
8.7242442434
 21
16.8593495066
 31
0.0
  0
LINE
  5
36E
100
AcDbEntity
  8
RACCORDO
100
AcDbLine
 62
7
  6
CONTINUOUS
 10
8.7242442434
 20
16.8593495066
 30
0.0
 11
8.7242442434
 21
23.1093738748
 31
0.0
  0
LINE
  5
36F
100
AcDbEntity
  8
DRAFT
100
AcDbLine
 62
7
  6
CONTINUOUS
 10
-7.65044784
 20
-23.1406504934
 30
0.0
 11
-7.5780148373
 21
-23.0537299193
 31
0.0
  0
LINE
  5
370
100
AcDbEntity
  8
RACCORDO
100
AcDbLine
 62
250
  6
CONTINUOUS
 10
-14.0757747954
 20
-24.3906444009
 30
0.0
 11
-13.9972139465
 21
-24.3277962961
 31
0.0
  0
LINE
  5
371
100
AcDbEntity
  8
RACCORDO
100
AcDbLine
 62
7
  6
CONTINUOUS
 10
-14.1696040844
 20
-24.5858716593
 30
0.0
 11
-14.0910505754
 21
-24.5230294264
 31
0.0
  0
LINE
  5
372
100
AcDbEntity
  8
RACCORDO
100
AcDbLine
 62
250
  6
CONTINUOUS
 10
-14.0757747954
 20
23.1093434141
 30
0.0
 11
-13.9972139465
 21
23.0464953093
 31
0.0
  0
LINE
  5
373
100
AcDbEntity
  8
RACCORDO
100
AcDbLine
 62
7
  6
CONTINUOUS
 10
-14.1696040844
 20
23.3045706724
 30
0.0
 11
-14.0910505754
 21
23.2417284396
 31
0.0
  0
LINE
  5
374
100
AcDbEntity
  8
DRAFT
100
AcDbLine
 62
7
  6
CONTINUOUS
 10
-7.65044784
 20
21.8593495066
 30
0.0
 11
-7.5780148373
 21
21.7724289325
 31
0.0
  0
LINE
  5
375
100
AcDbEntity
  8
RACCORDO
100
AcDbLine
 62
250
  6
CONTINUOUS
 10
-15.900900467
 20
-22.7218947357
 30
0.0
 11
-15.9693542484
 21
-22.7629643353
 31
0.0
  0
LINE
  5
376
100
AcDbEntity
  8
RACCORDO
100
AcDbLine
 62
250
  6
CONTINUOUS
 10
-15.6509385432
 20
-22.971881028
 30
0.0
 11
-15.7084332925
 21
-23.0063756357
 31
0.0
  0
LINE
  5
377
100
AcDbEntity
  8
RACCORDO
100
AcDbLine
 62
250
  6
CONTINUOUS
 10
-15.9693542484
 20
21.4816633485
 30
0.0
 11
-15.900900467
 21
21.4405937488
 31
0.0
  0
LINE
  5
378
100
AcDbEntity
  8
RACCORDO
100
AcDbLine
 62
250
  6
CONTINUOUS
 10
-15.7084332925
 20
21.7250746488
 30
0.0
 11
-15.6509385432
 21
21.6905800412
 31
0.0
  0
LINE
  5
379
100
AcDbEntity
  8
DRAFT
100
AcDbLine
 62
7
  6
CONTINUOUS
 10
-1.4266284434
 20
-20.7406504934
 30
0.0
 11
-1.4336099376
 21
-20.7476319877
 31
0.0
  0
LWPOLYLINE
  5
37A
100
AcDbEntity
  8
0
100
AcDbPolyline
 62
7
  6
CONTINUOUS
 90
10
 70
0
 43
0.3500000006
 10
-2.7114701128
 20
33.5950384827
 10
-2.6400414791
 20
33.4521806488
 10
-2.6400414791
 20
33.3807539978
 10
-2.7828987465
 20
33.2378961639
 10
-2.8543270969
 20
33.2378961639
 10
-2.9257557306
 20
33.3093228149
 10
-2.9257557306
 20
33.3807539978
 10
-2.8543270969
 20
33.5236072998
 10
-2.7828987465
 20
33.5950384827
 10
-2.7114701128
 20
33.5950384827
  0
LINE
  5
37B
100
AcDbEntity
  8
RACCORDO
100
AcDbLine
 62
250
  6
CONTINUOUS
 10
-16.0757557566
 20
-24.3906748616
 30
0.0
 11
-15.9693542484
 21
-24.3481178886
 31
0.0
  0
LINE
  5
37C
100
AcDbEntity
  8
RACCORDO
100
AcDbLine
 62
250
  6
CONTINUOUS
 10
-15.8257481392
 20
-24.6406504934
 30
0.0
 11
-15.7193923247
 21
-24.5981117963
 31
0.0
  0
LINE
  5
37D
100
AcDbEntity
  8
RACCORDO
100
AcDbLine
 62
250
  6
CONTINUOUS
 10
-16.0757557566
 20
23.1093738748
 30
0.0
 11
-15.9693542484
 21
23.0668169018
 31
0.0
  0
LINE
  5
37E
100
AcDbEntity
  8
RACCORDO
100
AcDbLine
 62
250
  6
CONTINUOUS
 10
-15.8257481392
 20
23.3593495066
 30
0.0
 11
-15.7193923247
 21
23.3168108095
 31
0.0
  0
LWPOLYLINE
  5
37F
100
AcDbEntity
  8
0
100
AcDbPolyline
 62
7
  6
CONTINUOUS
 90
8
 70
0
 43
0.3500000006
 10
18.5742443161
 20
-2.8906508446
 10
18.5742443161
 20
-2.0335072403
 10
18.1456730804
 20
-1.6049360046
 10
17.2885294762
 20
-1.6049360046
 10
16.8599582405
 20
-2.0335072403
 10
16.8599582405
 20
-2.8906508446
 10
15.5742445335
 20
-2.8906508446
 10
15.5742445335
 20
-1.6049360046
  0
LINE
  5
380
100
AcDbEntity
  8
RACCORDO
100
AcDbLine
 62
250
  6
CONTINUOUS
 10
8.5277986048
 20
20.1906622871
 30
0.0
 11
-15.8793101179
 21
20.1906622871
 31
0.0
  0
LINE
  5
381
100
AcDbEntity
  8
RACCORDO
100
AcDbLine
 62
7
  6
CONTINUOUS
 10
6.6710103499
 20
-23.1406504934
 30
0.0
 11
6.7773708636
 21
-23.0130164513
 31
0.0
  0
LINE
  5
382
100
AcDbEntity
  8
RACCORDO
100
AcDbLine
 62
250
  6
CONTINUOUS
 10
8.29942703
 20
21.6905800412
 30
0.0
 11
-15.6509385432
 21
21.6905800412
 31
0.0
  0
LINE
  5
383
100
AcDbEntity
  8
DRAFT
100
AcDbLine
 62
7
  6
CONTINUOUS
 10
0.2265033242
 20
21.7724289325
 30
0.0
 11
-7.5780148373
 21
21.7724289325
 31
0.0
  0
LINE
  5
384
100
AcDbEntity
  8
DRAFT
100
AcDbLine
 62
7
  6
CONTINUOUS
 10
-14.0225218631
 20
21.8593495066
 30
0.0
 11
-9.6757557566
 21
21.8593495066
 31
0.0
  0
LINE
  5
385
100
AcDbEntity
  8
DRAFT
100
AcDbLine
 62
7
  6
CONTINUOUS
 10
2.3242442434
 20
21.8593495066
 30
0.0
 11
6.6710103499
 21
21.8593495066
 31
0.0
  0
LINE
  5
386
100
AcDbEntity
  8
RACCORDO
100
AcDbLine
 62
7
  6
CONTINUOUS
 10
6.6710103499
 20
21.8593495066
 30
0.0
 11
6.7773708636
 21
21.7317154645
 31
0.0
  0
LINE
  5
387
100
AcDbEntity
  8
RACCORDO
100
AcDbLine
 62
250
  6
CONTINUOUS
 10
6.7242632823
 20
-24.3906444009
 30
0.0
 11
6.7773708636
 21
-24.3481587241
 31
0.0
  0
LINE
  5
388
100
AcDbEntity
  8
RACCORDO
100
AcDbLine
 62
250
  6
CONTINUOUS
 10
6.9742385319
 20
-24.6406504934
 30
0.0
 11
7.0273613444
 21
-24.5981526318
 31
0.0
  0
LINE
  5
389
100
AcDbEntity
  8
DRAFT
100
AcDbLine
 62
7
  6
CONTINUOUS
 10
-9.8757557566
 20
22.6093495066
 30
0.0
 11
-9.6757557566
 21
22.6093495066
 31
0.0
  0
LINE
  5
38A
100
AcDbEntity
  8
DRAFT
100
AcDbLine
 62
7
  6
CONTINUOUS
 10
2.3242442434
 20
22.6093495066
 30
0.0
 11
2.5242442434
 21
22.6093495066
 31
0.0
  0
LINE
  5
38B
100
AcDbEntity
  8
RACCORDO
100
AcDbLine
 62
7
  6
CONTINUOUS
 10
-7.9757557566
 20
22.8230246455
 30
0.0
 11
-7.380085524
 21
22.8230246455
 31
0.0
  0
LINE
  5
38C
100
AcDbEntity
  8
RACCORDO
100
AcDbLine
 62
7
  6
CONTINUOUS
 10
0.0285740109
 20
22.8230246455
 30
0.0
 11
0.6242442434
 21
22.8230246455
 31
0.0
  0
LINE
  5
38D
100
AcDbEntity
  8
RACCORDO
100
AcDbLine
 62
7
  6
CONTINUOUS
 10
-7.9757557566
 20
23.203447252
 30
0.0
 11
-7.4178373715
 21
23.203447252
 31
0.0
  0
LINE
  5
38E
100
AcDbEntity
  8
RACCORDO
100
AcDbLine
 62
7
  6
CONTINUOUS
 10
0.0663258583
 20
23.203447252
 30
0.0
 11
0.6242442434
 21
23.203447252
 31
0.0
  0
LINE
  5
38F
100
AcDbEntity
  8
RACCORDO
100
AcDbLine
 62
7
  6
CONTINUOUS
 10
2.3242442434
 20
23.3450377922
 30
0.0
 11
0.2575104782
 21
23.3450377922
 31
0.0
  0
LINE
  5
390
100
AcDbEntity
  8
RACCORDO
100
AcDbLine
 62
7
  6
CONTINUOUS
 10
-7.6090219914
 20
23.3450377922
 30
0.0
 11
-9.6757557566
 21
23.3450377922
 31
0.0
  0
LINE
  5
391
100
AcDbEntity
  8
RACCORDO
100
AcDbLine
 62
7
  6
CONTINUOUS
 10
6.9742385319
 20
23.3593495066
 30
0.0
 11
8.474236626
 21
23.3593495066
 31
0.0
  0
LINE
  5
392
100
AcDbEntity
  8
RACCORDO
100
AcDbLine
 62
7
  6
CONTINUOUS
 10
-14.325750045
 20
23.3593495066
 30
0.0
 11
-15.8257481392
 21
23.3593495066
 31
0.0
  0
LINE
  5
393
100
AcDbEntity
  8
0
100
AcDbLine
 62
250
  6
CONTINUOUS
 10
2.3242442434
 20
23.6450377922
 30
0.0
 11
-9.6757557566
 21
23.6450377922
 31
0.0
  0
LINE
  5
394
100
AcDbEntity
  8
RACCORDO
100
AcDbLine
 62
250
  6
CONTINUOUS
 10
6.7242632823
 20
23.1093434141
 30
0.0
 11
6.7773708636
 21
23.0668577373
 31
0.0
  0
LINE
  5
395
100
AcDbEntity
  8
RACCORDO
100
AcDbLine
 62
250
  6
CONTINUOUS
 10
6.9742385319
 20
23.3593495066
 30
0.0
 11
7.0273613444
 21
23.316851645
 31
0.0
  0
LINE
  5
396
100
AcDbEntity
  8
0
100
AcDbLine
 62
7
  6
CONTINUOUS
 10
2.3242442434
 20
24.3450377922
 30
0.0
 11
-9.6757557566
 21
24.3450377922
 31
0.0
  0
LWPOLYLINE
  5
397
100
AcDbEntity
  8
0
100
AcDbPolyline
 62
7
  6
CONTINUOUS
 90
7
 70
0
 43
0.3500000006
 10
-6.5686126499
 20
33.0950383301
 10
-8.0686131077
 20
33.0950383301
 10
-6.5686126499
 20
35.2378967743
 10
-6.5686126499
 20
35.666465744
 10
-6.9971844521
 20
36.0950392456
 10
-7.6400413055
 20
36.0950392456
 10
-8.0686131077
 20
35.4521812592
  0
LWPOLYLINE
  5
398
100
AcDbEntity
  8
0
100
AcDbPolyline
 62
7
  6
CONTINUOUS
 90
3
 70
0
 43
0.3500000006
 10
-4.2114700041
 20
33.7378963165
 10
-5.7114701786
 20
33.7378963165
 10
-5.0686127586
 20
36.0950392456
  0
LWPOLYLINE
  5
399
100
AcDbEntity
  8
0
100
AcDbPolyline
 62
7
  6
CONTINUOUS
 90
13
 70
0
 43
0.3500000006
 10
-1.2114700799
 20
34.8093232727
 10
-1.4971843314
 20
35.0236077576
 10
-1.4971843314
 20
35.666465744
 10
-1.2114700799
 20
36.0950392456
 10
-0.5686129078
 20
36.0950392456
 10
-0.2828986208
 20
35.666465744
 10
-0.2828986208
 20
35.0236077576
 10
-0.5686129078
 20
34.8093232727
 10
-0.1400414685
 20
34.380754303
 10
-0.1400414685
 20
33.5236072998
 10
-0.5686129078
 20
33.0950383301
 10
-1.2114700799
 20
33.0950383301
 10
-1.6400414572
 20
33.5236072998
  0
LWPOLYLINE
  5
39A
100
AcDbEntity
  8
0
100
AcDbPolyline
 62
7
  6
CONTINUOUS
 90
5
 70
0
 43
0.3500000006
 10
-59.1288497314
 20
34.8093232727
 10
-58.7717074127
 20
35.0236077576
 10
-58.7717074127
 20
35.666465744
 10
-59.1288497314
 20
36.0950392456
 10
-59.9859922028
 20
36.0950392456
  0
LINE
  5
39B
100
AcDbEntity
  8
RACCORDO
100
AcDbLine
 62
7
  6
CONTINUOUS
 10
-69.1717072368
 20
-24.6406504934
 30
0.0
 11
-60.1717072368
 21
-24.5778176195
 31
0.0
  0
LINE
  5
39C
100
AcDbEntity
  8
RACCORDO
100
AcDbLine
 62
250
  6
CONTINUOUS
 10
-69.1717072368
 20
-24.3906748616
 30
0.0
 11
-60.1717072368
 21
-24.3278419878
 31
0.0
  0
LINE
  5
39D
100
AcDbEntity
  8
0
100
AcDbLine
 62
7
  6
CONTINUOUS
 10
-70.3717072368
 20
-25.626338779
 30
0.0
 11
-69.8575442529
 21
-25.626338779
 31
0.0
  0
LINE
  5
39E
100
AcDbEntity
  8
0
100
AcDbLine
 62
7
  6
CONTINUOUS
 10
-70.3717072368
 20
-25.226338779
 30
0.0
 11
-69.8575442529
 21
-25.226338779
 31
0.0
  0
LINE
  5
39F
100
AcDbEntity
  8
0
100
AcDbLine
 62
250
  6
CONTINUOUS
 10
-70.6717072368
 20
-24.926338779
 30
0.0
 11
-71.0717072368
 21
-24.926338779
 31
0.0
  0
LINE
  5
3A0
100
AcDbEntity
  8
RACCORDO
100
AcDbLine
 62
7
  6
CONTINUOUS
 10
-75.9234521623
 20
-24.5935136559
 30
0.0
 11
-69.1717072368
 21
-24.6406504934
 31
0.0
  0
LINE
  5
3A1
100
AcDbEntity
  8
RACCORDO
100
AcDbLine
 62
250
  6
CONTINUOUS
 10
-75.2674455551
 20
-24.3481178886
 30
0.0
 11
-69.1717072368
 21
-24.3906748616
 31
0.0
  0
LINE
  5
3A2
100
AcDbEntity
  8
RACCORDO
100
AcDbLine
 62
7
  6
CONTINUOUS
 10
-75.8935429339
 20
-23.0063756357
 30
0.0
 11
-79.187414913
 21
-22.971881028
 31
0.0
  0
LINE
  5
3A3
100
AcDbEntity
  8
RACCORDO
100
AcDbLine
 62
250
  6
CONTINUOUS
 10
-75.2674455551
 20
-22.7629643353
 30
0.0
 11
-79.1891600686
 21
-22.7218947357
 31
0.0
  0
LINE
  5
3A4
100
AcDbEntity
  8
RACCORDO
100
AcDbLine
 62
7
  6
CONTINUOUS
 10
-81.6717072368
 20
-19.9906504934
 30
0.0
 11
-81.6717072368
 21
-12.4906504934
 31
0.0
  0
LINE
  5
3A5
100
AcDbEntity
  8
0
100
AcDbLine
 62
7
  6
CONTINUOUS
 10
-81.1717072368
 20
-18.4906504934
 30
0.0
 11
-81.1717072368
 21
-13.9906504934
 31
0.0
  0
LINE
  5
3A6
100
AcDbEntity
  8
RACCORDO
100
AcDbLine
 62
250
  6
CONTINUOUS
 10
-80.9717072368
 20
-13.9906504934
 30
0.0
 11
-80.9717072368
 21
-18.4906504934
 31
0.0
  0
LINE
  5
3A7
100
AcDbEntity
  8
RACCORDO
100
AcDbLine
 62
250
  6
CONTINUOUS
 10
-80.9717072368
 20
-20.6906504934
 30
0.0
 11
-80.9717072368
 21
-19.6906504934
 31
0.0
  0
LINE
  5
3A8
100
AcDbEntity
  8
0
100
AcDbLine
 62
250
  6
CONTINUOUS
 10
-80.9717072368
 20
-19.6906504934
 30
0.0
 11
-80.9717072368
 21
-18.4906504934
 31
0.0
  0
LINE
  5
3A9
100
AcDbEntity
  8
0
100
AcDbLine
 62
250
  6
CONTINUOUS
 10
-80.9717072368
 20
-13.9906504934
 30
0.0
 11
-80.9717072368
 21
-12.7906504934
 31
0.0
  0
LINE
  5
3AA
100
AcDbEntity
  8
RACCORDO
100
AcDbLine
 62
250
  6
CONTINUOUS
 10
-80.9717072368
 20
-12.7906504934
 30
0.0
 11
-80.9717072368
 21
-11.7906504934
 31
0.0
  0
LINE
  5
3AB
100
AcDbEntity
  8
RACCORDO
100
AcDbLine
 62
7
  6
CONTINUOUS
 10
-80.6717072368
 20
-21.471963274
 30
0.0
 11
-80.6717072368
 21
20.1906622871
 31
0.0
  0
LINE
  5
3AC
100
AcDbEntity
  8
RACCORDO
100
AcDbLine
 62
250
  6
CONTINUOUS
 10
-80.4260703385
 20
-21.471963274
 30
0.0
 11
-80.4260703385
 21
20.1906622871
 31
0.0
  0
LWPOLYLINE
  5
3AD
100
AcDbEntity
  8
0
100
AcDbPolyline
 62
7
  6
CONTINUOUS
 90
3
 70
0
 43
0.3500000006
 10
-53.7717058868
 20
35.2378967743
 10
-52.9145634155
 20
36.0950392456
 10
-52.9145634155
 20
33.0950383301
  0
LINE
  5
3AE
100
AcDbEntity
  8
DRAFT
100
AcDbLine
 62
7
  6
CONTINUOUS
 10
-60.1717072368
 20
20.135081615
 30
0.0
 11
-69.1717072368
 21
16.8593495066
 31
0.0
  0
LINE
  5
3AF
100
AcDbEntity
  8
RACCORDO
100
AcDbLine
 62
250
  6
CONTINUOUS
 10
-80.6717072368
 20
-21.471963274
 30
0.0
 11
-80.4260703385
 21
-21.471963274
 31
0.0
  0
LINE
  5
3B0
100
AcDbEntity
  8
RACCORDO
100
AcDbLine
 62
7
  6
CONTINUOUS
 10
-80.9717072368
 20
-20.6906504934
 30
0.0
 11
-80.6717072368
 21
-20.6906504934
 31
0.0
  0
LINE
  5
3B1
100
AcDbEntity
  8
RACCORDO
100
AcDbLine
 62
250
  6
CONTINUOUS
 10
-81.6717072368
 20
-19.6906504934
 30
0.0
 11
-80.6717072368
 21
-19.6906504934
 31
0.0
  0
LINE
  5
3B2
100
AcDbEntity
  8
RACCORDO
100
AcDbLine
 62
250
  6
CONTINUOUS
 10
-63.3112226452
 20
-20.2736924431
 30
0.0
 11
-60.1717072368
 21
-20.2901310576
 31
0.0
  0
LINE
  5
3B3
100
AcDbEntity
  8
RACCORDO
100
AcDbLine
 62
7
  6
CONTINUOUS
 10
-64.1474849497
 20
-19.9693178563
 30
0.0
 11
-60.1717072368
 21
-19.9901351699
 31
0.0
  0
LINE
  5
3B4
100
AcDbEntity
  8
DRAFT
100
AcDbLine
 62
7
  6
CONTINUOUS
 10
-69.1717072368
 20
-18.1406504934
 30
0.0
 11
-60.1717072368
 21
-21.4163826018
 31
0.0
  0
LINE
  5
3B5
100
AcDbEntity
  8
0
100
AcDbLine
 62
7
  6
CONTINUOUS
 10
-80.6717072368
 20
-18.4906504934
 30
0.0
 11
-81.1717072368
 21
-18.4906504934
 31
0.0
  0
LINE
  5
3B6
100
AcDbEntity
  8
RACCORDO
100
AcDbLine
 62
7
  6
CONTINUOUS
 10
-76.1717072368
 20
-24.3435223351
 30
0.0
 11
-76.1717072368
 21
-23.0034768032
 31
0.0
  0
LINE
  5
3B7
100
AcDbEntity
  8
RACCORDO
100
AcDbLine
 62
7
  6
CONTINUOUS
 10
-76.1717072368
 20
21.7221758164
 30
0.0
 11
-76.1717072368
 21
23.0622213576
 31
0.0
  0
LINE
  5
3B8
100
AcDbEntity
  8
0
100
AcDbLine
 62
250
  6
CONTINUOUS
 10
-69.7648391546
 20
23.9303547471
 30
0.0
 11
-69.6412323568
 21
24.3107773536
 31
0.0
  0
LINE
  5
3B9
100
AcDbEntity
  8
0
100
AcDbLine
 62
250
  6
CONTINUOUS
 10
-69.7648391546
 20
-25.2116557339
 30
0.0
 11
-69.6412323568
 21
-25.5920783404
 31
0.0
  0
LINE
  5
3BA
100
AcDbEntity
  8
RACCORDO
100
AcDbLine
 62
250
  6
CONTINUOUS
 10
-75.2674455551
 20
23.0668169018
 30
0.0
 11
-75.2674455551
 21
21.4816633485
 31
0.0
  0
LINE
  5
3BB
100
AcDbEntity
  8
RACCORDO
100
AcDbLine
 62
250
  6
CONTINUOUS
 10
-75.2674455551
 20
-22.7629643353
 30
0.0
 11
-75.2674455551
 21
-24.3481178886
 31
0.0
  0
LWPOLYLINE
  5
3BC
100
AcDbEntity
  8
0
100
AcDbPolyline
 62
7
  6
CONTINUOUS
 90
3
 70
0
 43
0.3500000006
 10
-60.2859922943
 20
43.3807525177
 10
-60.3574234772
 20
43.1664680328
 10
-60.5002767792
 20
42.8807523651
  0
LINE
  5
3BD
100
AcDbEntity
  8
0
100
AcDbLine
 62
7
  6
CONTINUOUS
 10
-80.6717072368
 20
-13.9906504934
 30
0.0
 11
-81.1717072368
 21
-13.9906504934
 31
0.0
  0
LINE
  5
3BE
100
AcDbEntity
  8
IMPORT_IGES
100
AcDbLine
 62
7
  6
CONTINUOUS
 10
-50.883110171
 20
-10.2868589911
 30
0.0
 11
-50.8550840595
 21
-10.2792881068
 31
0.0
  0
LWPOLYLINE
  5
3BF
100
AcDbEntity
  8
IMPORT_IGES
100
AcDbPolyline
 62
7
  6
CONTINUOUS
 90
10
 70
0
 10
-49.9569613155
 20
-10.0071870355
 10
-49.8950248188
 20
-10.0006247649
 10
-49.8326151907
 20
-9.9873925809
 10
-49.7701659689
 20
-9.9677795664
 10
-49.7083632273
 20
-9.9424120806
 10
-49.6472383157
 20
-9.9113914897
 10
-49.5869393906
 20
-9.8749081277
 10
-49.5282924356
 20
-9.8334006937
 10
-49.4715663029
 20
-9.7870793699
 10
-49.4182067473
 20
-9.7371643597
  0
LINE
  5
3C0
100
AcDbEntity
  8
RACCORDO
100
AcDbLine
 62
250
  6
CONTINUOUS
 10
-81.6717072368
 20
-12.7906504934
 30
0.0
 11
-80.6717072368
 21
-12.7906504934
 31
0.0
  0
LINE
  5
3C1
100
AcDbEntity
  8
RACCORDO
100
AcDbLine
 62
7
  6
CONTINUOUS
 10
-80.9717072368
 20
-11.7906504934
 30
0.0
 11
-80.6717072368
 21
-11.7906504934
 31
0.0
  0
LINE
  5
3C2
100
AcDbEntity
  8
0
100
AcDbLine
 62
7
  6
CONTINUOUS
 10
-71.0717072368
 20
-24.626338779
 30
0.0
 11
-71.0717072368
 21
-24.926338779
 31
0.0
  0
LINE
  5
3C3
100
AcDbEntity
  8
0
100
AcDbLine
 62
7
  6
CONTINUOUS
 10
-71.0717072368
 20
23.3450377922
 30
0.0
 11
-71.0717072368
 21
23.6450377922
 31
0.0
  0
LINE
  5
3C4
100
AcDbEntity
  8
0
100
AcDbLine
 62
7
  6
CONTINUOUS
 10
-70.6717072368
 20
-24.6301783478
 30
0.0
 11
-70.6717072368
 21
-24.926338779
 31
0.0
  0
LINE
  5
3C5
100
AcDbEntity
  8
0
100
AcDbLine
 62
7
  6
CONTINUOUS
 10
-70.6717072368
 20
23.3488773609
 30
0.0
 11
-70.6717072368
 21
23.6450377922
 31
0.0
  0
LINE
  5
3C6
100
AcDbEntity
  8
0
100
AcDbLine
 62
250
  6
CONTINUOUS
 10
-70.3717072368
 20
-25.226338779
 30
0.0
 11
-70.3717072368
 21
-25.626338779
 31
0.0
  0
LINE
  5
3C7
100
AcDbEntity
  8
0
100
AcDbLine
 62
250
  6
CONTINUOUS
 10
-70.3717072368
 20
23.9450377922
 30
0.0
 11
-70.3717072368
 21
24.3450377922
 31
0.0
  0
LINE
  5
3C8
100
AcDbEntity
  8
0
100
AcDbLine
 62
250
  6
CONTINUOUS
 10
-69.8575442529
 20
-25.226338779
 30
0.0
 11
-69.8575442529
 21
-25.626338779
 31
0.0
  0
LINE
  5
3C9
100
AcDbEntity
  8
0
100
AcDbLine
 62
250
  6
CONTINUOUS
 10
-69.8575442529
 20
23.9450377922
 30
0.0
 11
-69.8575442529
 21
24.3450377922
 31
0.0
  0
LINE
  5
3CA
100
AcDbEntity
  8
IMPORT_IGES
100
AcDbLine
 62
7
  6
CONTINUOUS
 10
-63.9681383312
 20
10.4629184122
 30
0.0
 11
-65.5822159373
 21
8.8488408061
 31
0.0
  0
LINE
  5
3CB
100
AcDbEntity
  8
IMPORT_IGES
100
AcDbLine
 62
250
  6
CONTINUOUS
 10
-64.9131263913
 20
9.0988976022
 30
0.0
 11
-63.7560206148
 21
10.2560053885
 31
0.0
  0
LINE
  5
3CC
100
AcDbEntity
  8
IMPORT_IGES
100
AcDbLine
 62
250
  6
CONTINUOUS
 10
-65.4585656135
 20
8.5492742566
 30
0.0
 11
-65.2717072368
 21
8.7361326333
 31
0.0
  0
LINE
  5
3CD
100
AcDbEntity
  8
IMPORT_IGES
100
AcDbLine
 62
7
  6
CONTINUOUS
 10
-67.6105965668
 20
6.6162764557
 30
0.0
 11
-68.7456989004
 21
5.7194054761
 31
0.0
  0
LINE
  5
3CE
100
AcDbEntity
  8
IMPORT_IGES
100
AcDbLine
 62
250
  6
CONTINUOUS
 10
-68.6217072368
 20
5.562478527
 30
0.0
 11
-67.4866049033
 21
6.4593495066
 31
0.0
  0
LWPOLYLINE
  5
3CF
100
AcDbEntity
  8
IMPORT_IGES
100
AcDbPolyline
 62
7
  6
CONTINUOUS
 90
3
 70
0
 10
-50.920094991
 20
-10.2906383555
 10
-50.9124438241
 20
-10.2904136751
 10
-50.883110171
 20
-10.2868589911
  0
LINE
  5
3D0
100
AcDbEntity
  8
IMPORT_IGES
100
AcDbLine
 62
7
  6
CONTINUOUS
 10
-49.9839057205
 20
-10.0078927781
 30
0.0
 11
-49.9569613155
 21
-10.0071870355
 31
0.0
  0
LINE
  5
3D1
100
AcDbEntity
  8
RACCORDO
100
AcDbLine
 62
7
  6
CONTINUOUS
 10
-69.119525603
 20
-10.1529264333
 30
0.0
 11
-69.1717072368
 21
-10.1533818155
 31
0.0
  0
LINE
  5
3D2
100
AcDbEntity
  8
IMPORT_IGES
100
AcDbLine
 62
7
  6
CONTINUOUS
 10
-50.9222543177
 20
-10.2906479026
 30
0.0
 11
-50.9200991659
 21
-10.2906358812
 31
0.0
  0
LINE
  5
3D3
100
AcDbEntity
  8
IMPORT_IGES
100
AcDbLine
 62
7
  6
CONTINUOUS
 10
-61.86480822
 20
-9.9923604496
 30
0.0
 11
-62.1547553357
 21
-9.9930355098
 31
0.0
  0
LINE
  5
3D4
100
AcDbEntity
  8
IMPORT_IGES
100
AcDbLine
 62
7
  6
CONTINUOUS
 10
-59.7217069452
 20
-10.4906504934
 30
0.0
 11
-59.2217097909
 21
-10.4906504934
 31
0.0
  0
LINE
  5
3D5
100
AcDbEntity
  8
IMPORT_IGES
100
AcDbLine
 62
7
  6
CONTINUOUS
 10
-53.0217069452
 20
-10.4906504934
 30
0.0
 11
-52.5217097909
 21
-10.4906504934
 31
0.0
  0
LINE
  5
3D6
100
AcDbEntity
  8
IMPORT_IGES
100
AcDbLine
 62
7
  6
CONTINUOUS
 10
-54.6348459047
 20
-10.4906504934
 30
0.0
 11
-57.6708675003
 21
-10.4906504934
 31
0.0
  0
LINE
  5
3D7
100
AcDbEntity
  8
IMPORT_IGES
100
AcDbLine
 62
250
  6
CONTINUOUS
 10
-59.8217072368
 20
-10.3906504934
 30
0.0
 11
-59.1217072368
 21
-10.3906504934
 31
0.0
  0
LINE
  5
3D8
100
AcDbEntity
  8
IMPORT_IGES
100
AcDbLine
 62
250
  6
CONTINUOUS
 10
-53.1217072368
 20
-10.3906504934
 30
0.0
 11
-52.4217072368
 21
-10.3906504934
 31
0.0
  0
LINE
  5
3D9
100
AcDbEntity
  8
IMPORT_IGES
100
AcDbLine
 62
7
  6
CONTINUOUS
 10
-50.1788140188
 20
-10.2906504934
 30
0.0
 11
-61.1655744842
 21
-10.2906504934
 31
0.0
  0
LINE
  5
3DA
100
AcDbEntity
  8
IMPORT_IGES
100
AcDbLine
 62
250
  6
CONTINUOUS
 10
-50.9015075819
 20
-10.2027823501
 30
0.0
 11
-61.3705997374
 21
-10.2027823501
 31
0.0
  0
LINE
  5
3DB
100
AcDbEntity
  8
IMPORT_IGES
100
AcDbLine
 62
250
  6
CONTINUOUS
 10
-50.178814018
 20
-10.0906504934
 30
0.0
 11
-50.5295155183
 21
-10.090650527
 31
0.0
  0
LINE
  5
3DC
100
AcDbEntity
  8
IMPORT_IGES
100
AcDbLine
 62
7
  6
CONTINUOUS
 10
-49.9838993479
 20
-10.0078678576
 30
0.0
 11
-50.5267496212
 21
-10.0078678576
 31
0.0
  0
LINE
  5
3DD
100
AcDbEntity
  8
IMPORT_IGES
100
AcDbLine
 62
250
  6
CONTINUOUS
 10
-49.9838993474
 20
-9.9492892136
 30
0.0
 11
-50.5267417317
 21
-9.9492892134
 31
0.0
  0
LINE
  5
3DE
100
AcDbEntity
  8
RACCORDO
100
AcDbLine
 62
250
  6
CONTINUOUS
 10
-68.8717072368
 20
-9.8481590579
 30
0.0
 11
-69.1203982459
 21
-9.8481590613
 31
0.0
  0
LINE
  5
3DF
100
AcDbEntity
  8
IMPORT_IGES
100
AcDbLine
 62
250
  6
CONTINUOUS
 10
-49.1596524979
 20
-9.1250263511
 30
0.0
 11
-63.5133478498
 21
-9.1250270546
 31
0.0
  0
LINE
  5
3E0
100
AcDbEntity
  8
RACCORDO
100
AcDbLine
 62
250
  6
CONTINUOUS
 10
-69.1203982459
 20
-9.8481590579
 30
0.0
 11
-69.1717072368
 21
-9.84761071
 31
0.0
  0
LINE
  5
3E1
100
AcDbEntity
  8
IMPORT_IGES
100
AcDbLine
 62
7
  6
CONTINUOUS
 10
-61.3705997374
 20
-10.2027825278
 30
0.0
 11
-61.1655744842
 21
-10.2906504934
 31
0.0
  0
LINE
  5
3E2
100
AcDbEntity
  8
IMPORT_IGES
100
AcDbLine
 62
7
  6
CONTINUOUS
 10
-67.0471624509
 20
-7.2250281442
 30
0.0
 11
-65.1883436951
 21
-8.2835842958
 31
0.0
  0
LINE
  5
3E3
100
AcDbEntity
  8
IMPORT_IGES
100
AcDbLine
 62
250
  6
CONTINUOUS
 10
-62.1547553357
 20
-9.9930355098
 30
0.0
 11
-63.5133478498
 21
-9.1250270546
 31
0.0
  0
LINE
  5
3E4
100
AcDbEntity
  8
IMPORT_IGES
100
AcDbLine
 62
7
  6
CONTINUOUS
 10
-65.1333156757
 20
-8.3291380022
 30
0.0
 11
-62.9770486386
 21
-9.7078542836
 31
0.0
  0
LINE
  5
3E5
100
AcDbEntity
  8
RACCORDO
100
AcDbLine
 62
7
  6
CONTINUOUS
 10
-69.1717072368
 20
-24.3906748616
 30
0.0
 11
-69.1717072368
 21
-18.1406504934
 31
0.0
  0
LINE
  5
3E6
100
AcDbEntity
  8
DRAFT
100
AcDbLine
 62
7
  6
CONTINUOUS
 10
-69.1717072368
 20
-18.1406504934
 30
0.0
 11
-69.1717072368
 21
16.8593495066
 31
0.0
  0
LINE
  5
3E7
100
AcDbEntity
  8
RACCORDO
100
AcDbLine
 62
7
  6
CONTINUOUS
 10
-69.1717072368
 20
16.8593495066
 30
0.0
 11
-69.1717072368
 21
23.1093738748
 31
0.0
  0
LINE
  5
3E8
100
AcDbEntity
  8
RACCORDO
100
AcDbLine
 62
250
  6
CONTINUOUS
 10
-69.1217072368
 20
12.7716444853
 30
0.0
 11
-69.1217072368
 21
11.9119716644
 31
0.0
  0
LINE
  5
3E9
100
AcDbEntity
  8
RACCORDO
100
AcDbLine
 62
250
  6
CONTINUOUS
 10
-69.1217072368
 20
8.7716444853
 30
0.0
 11
-69.1217072368
 21
7.9470545279
 31
0.0
  0
LINE
  5
3EA
100
AcDbEntity
  8
RACCORDO
100
AcDbLine
 62
250
  6
CONTINUOUS
 10
-69.1217072368
 20
1.7216444853
 30
0.0
 11
-69.1217072368
 21
0.8970545279
 31
0.0
  0
LINE
  5
3EB
100
AcDbEntity
  8
RACCORDO
100
AcDbLine
 62
250
  6
CONTINUOUS
 10
-69.1217072368
 20
-7.2406504934
 30
0.0
 11
-69.1217072368
 21
-8.1880283356
 31
0.0
  0
LINE
  5
3EC
100
AcDbEntity
  8
RACCORDO
100
AcDbLine
 62
250
  6
CONTINUOUS
 10
-69.1203982459
 20
-8.1880214817
 30
0.0
 11
-69.1203982459
 21
-9.8481590579
 31
0.0
  0
LINE
  5
3ED
100
AcDbEntity
  8
RACCORDO
100
AcDbLine
 62
250
  6
CONTINUOUS
 10
-69.119525603
 20
14.3668766766
 30
0.0
 11
-69.119525603
 21
12.7716254465
 31
0.0
  0
LINE
  5
3EE
100
AcDbEntity
  8
RACCORDO
100
AcDbLine
 62
250
  6
CONTINUOUS
 10
-69.119525603
 20
-5.5783650343
 30
0.0
 11
-69.119525603
 21
-7.2406504934
 31
0.0
  0
LINE
  5
3EF
100
AcDbEntity
  8
RACCORDO
100
AcDbLine
 62
7
  6
CONTINUOUS
 10
-68.8717072368
 20
14.4216349657
 30
0.0
 11
-68.8717072368
 21
12.1619750914
 31
0.0
  0
LINE
  5
3F0
100
AcDbEntity
  8
RACCORDO
100
AcDbLine
 62
7
  6
CONTINUOUS
 10
-68.8717072368
 20
8.5216349657
 30
0.0
 11
-68.8717072368
 21
8.1970640475
 31
0.0
  0
LINE
  5
3F1
100
AcDbEntity
  8
RACCORDO
100
AcDbLine
 62
7
  6
CONTINUOUS
 10
-68.8717072368
 20
1.4716349657
 30
0.0
 11
-68.8717072368
 21
1.1470640475
 31
0.0
  0
LINE
  5
3F2
100
AcDbEntity
  8
RACCORDO
100
AcDbLine
 62
7
  6
CONTINUOUS
 10
-68.8717072368
 20
-5.5783650343
 30
0.0
 11
-68.8717072368
 21
-9.9029359525
 31
0.0
  0
LINE
  5
3F3
100
AcDbEntity
  8
IMPORT_IGES
100
AcDbLine
 62
7
  6
CONTINUOUS
 10
-68.8217072368
 20
5.562478527
 30
0.0
 11
-68.8217072368
 21
-3.9437795138
 31
0.0
  0
LINE
  5
3F4
100
AcDbEntity
  8
ASSI
100
AcDbLine
 62
7
  6
CONTINUOUS
 10
-68.8217072368
 20
5.562478527
 30
0.0
 11
-68.8217072368
 21
-3.9437795138
 31
0.0
  0
LINE
  5
3F5
100
AcDbEntity
  8
ASSI
100
AcDbLine
 62
250
  6
CONTINUOUS
 10
-68.6217072368
 20
-3.9437795138
 30
0.0
 11
-68.6217072368
 21
5.562478527
 31
0.0
  0
LINE
  5
3F6
100
AcDbEntity
  8
IMPORT_IGES
100
AcDbLine
 62
250
  6
CONTINUOUS
 10
-67.4866049033
 20
6.6593495066
 30
0.0
 11
-67.4866049033
 21
6.4593495066
 31
0.0
  0
LINE
  5
3F7
100
AcDbEntity
  8
IMPORT_IGES
100
AcDbLine
 62
250
  6
CONTINUOUS
 10
-67.4866049033
 20
-4.8406504934
 30
0.0
 11
-67.4866049033
 21
-5.0406504934
 31
0.0
  0
LINE
  5
3F8
100
AcDbEntity
  8
RACCORDO
100
AcDbLine
 62
7
  6
CONTINUOUS
 10
-69.1717072368
 20
-8.1882901374
 30
0.0
 11
-69.1217072368
 21
-8.1880283356
 31
0.0
  0
LINE
  5
3F9
100
AcDbEntity
  8
IMPORT_IGES
100
AcDbLine
 62
250
  6
CONTINUOUS
 10
-63.513347848
 20
-8.9181307485
 30
0.0
 11
-49.159637195
 21
-8.9181307485
 31
0.0
  0
LINE
  5
3FA
100
AcDbEntity
  8
IMPORT_IGES
100
AcDbLine
 62
7
  6
CONTINUOUS
 10
-45.1217072368
 20
-7.586152665
 30
0.0
 11
-45.9016586725
 21
-7.586152665
 31
0.0
  0
LINE
  5
3FB
100
AcDbEntity
  8
RACCORDO
100
AcDbLine
 62
7
  6
CONTINUOUS
 10
-69.1717072368
 20
-7.2406504934
 30
0.0
 11
-69.1217072368
 21
-7.2406504934
 31
0.0
  0
LINE
  5
3FC
100
AcDbEntity
  8
IMPORT_IGES
100
AcDbLine
 62
7
  6
CONTINUOUS
 10
-41.7717072368
 20
-6.8217500674
 30
0.0
 11
-41.1717072368
 21
-6.8217500674
 31
0.0
  0
LINE
  5
3FD
100
AcDbEntity
  8
IMPORT_IGES
100
AcDbLine
 62
7
  6
CONTINUOUS
 10
-68.8717072368
 20
-7.2186592555
 30
0.0
 11
-67.0471624509
 21
-7.2250281442
 31
0.0
  0
LINE
  5
3FE
100
AcDbEntity
  8
IMPORT_IGES
100
AcDbLine
 62
250
  6
CONTINUOUS
 10
-66.9682899361
 20
-6.92530529
 30
0.0
 11
-68.8717072368
 21
-6.9186610832
 31
0.0
  0
LINE
  5
3FF
100
AcDbEntity
  8
IMPORT_IGES
100
AcDbLine
 62
250
  6
CONTINUOUS
 10
-65.2717072368
 20
-7.8914715973
 30
0.0
 11
-66.9682899361
 21
-6.92530529
 31
0.0
  0
LINE
  5
400
100
AcDbEntity
  8
IMPORT_IGES
100
AcDbLine
 62
250
  6
CONTINUOUS
 10
-63.8454420756
 20
-8.8017569212
 30
0.0
 11
-64.9717072368
 21
-8.0816234275
 31
0.0
  0
LINE
  5
401
100
AcDbEntity
  8
IMPORT_IGES
100
AcDbLine
 62
7
  6
CONTINUOUS
 10
-68.7456989004
 20
-4.100706463
 30
0.0
 11
-67.6105965668
 21
-4.9975774426
 31
0.0
  0
LINE
  5
402
100
AcDbEntity
  8
IMPORT_IGES
100
AcDbLine
 62
250
  6
CONTINUOUS
 10
-67.4866049033
 20
-4.8406504934
 30
0.0
 11
-68.6217072368
 21
-3.9437795138
 31
0.0
  0
LINE
  5
403
100
AcDbEntity
  8
IMPORT_IGES
100
AcDbLine
 62
7
  6
CONTINUOUS
 10
-66.0717072368
 20
-1.5406504934
 30
0.0
 11
-66.0717072368
 21
3.1593495066
 31
0.0
  0
LINE
  5
404
100
AcDbEntity
  8
IMPORT_IGES
100
AcDbLine
 62
7
  6
CONTINUOUS
 10
-65.9217072368
 20
3.1000312858
 30
0.0
 11
-65.9217072368
 21
-1.4812742727
 31
0.0
  0
LINE
  5
405
100
AcDbEntity
  8
IMPORT_IGES
100
AcDbLine
 62
250
  6
CONTINUOUS
 10
-65.7617072368
 20
-1.4840670831
 30
0.0
 11
-65.7617072368
 21
3.1028240962
 31
0.0
  0
LWPOLYLINE
  5
406
100
AcDbEntity
  8
0
100
AcDbPolyline
 62
7
  6
CONTINUOUS
 90
3
 70
0
 43
0.3500000006
 10
-54.771706192
 20
33.3807539978
 10
-54.8431373749
 20
33.1664649811
 10
-54.9859952087
 20
32.8807538452
  0
LINE
  5
407
100
AcDbEntity
  8
IMPORT_IGES
100
AcDbLine
 62
7
  6
CONTINUOUS
 10
-59.0367715024
 20
11.5507440243
 30
0.0
 11
-59.5808174648
 21
10.6084297527
 31
0.0
  0
LINE
  5
408
100
AcDbEntity
  8
IMPORT_IGES
100
AcDbLine
 62
250
  6
CONTINUOUS
 10
-41.1717072368
 20
-5.9416851905
 30
0.0
 11
-41.7717072368
 21
-5.9416851905
 31
0.0
  0
LINE
  5
409
100
AcDbEntity
  8
IMPORT_IGES
100
AcDbLine
 62
7
  6
CONTINUOUS
 10
-46.9019653833
 20
-5.7425494208
 30
0.0
 11
-45.1217070755
 21
-5.7425526769
 31
0.0
  0
LINE
  5
40A
100
AcDbEntity
  8
RACCORDO
100
AcDbLine
 62
250
  6
CONTINUOUS
 10
-68.8717072368
 20
-5.5783650343
 30
0.0
 11
-69.119525603
 21
-5.5783650343
 31
0.0
  0
LINE
  5
40B
100
AcDbEntity
  8
IMPORT_IGES
100
AcDbLine
 62
7
  6
CONTINUOUS
 10
-44.8217072368
 20
-5.4909482411
 30
0.0
 11
-42.1717072368
 21
-5.4909482411
 31
0.0
  0
LINE
  5
40C
100
AcDbEntity
  8
IMPORT_IGES
100
AcDbLine
 62
7
  6
CONTINUOUS
 10
-67.4866049033
 20
-5.0406504934
 30
0.0
 11
-65.3217072368
 21
-5.0406504934
 31
0.0
  0
LINE
  5
40D
100
AcDbEntity
  8
IMPORT_IGES
100
AcDbLine
 62
250
  6
CONTINUOUS
 10
-65.3217072368
 20
-4.8406504934
 30
0.0
 11
-67.4866049033
 21
-4.8406504934
 31
0.0
  0
LINE
  5
40E
100
AcDbEntity
  8
RACCORDO
100
AcDbLine
 62
250
  6
CONTINUOUS
 10
-69.119525603
 20
-5.5783650343
 30
0.0
 11
-69.1717072368
 21
-5.5779096521
 31
0.0
  0
LINE
  5
40F
100
AcDbEntity
  8
RACCORDO
100
AcDbLine
 62
7
  6
CONTINUOUS
 10
-69.119525603
 20
-5.3283745535
 30
0.0
 11
-69.1717072368
 21
-5.3279191713
 31
0.0
  0
LINE
  5
410
100
AcDbEntity
  8
IMPORT_IGES
100
AcDbLine
 62
7
  6
CONTINUOUS
 10
-65.3217072368
 20
-5.0406504934
 30
0.0
 11
-65.3217072368
 21
-2.6166299622
 31
0.0
  0
LINE
  5
411
100
AcDbEntity
  8
IMPORT_IGES
100
AcDbLine
 62
7
  6
CONTINUOUS
 10
-65.3217072368
 20
4.2353289753
 30
0.0
 11
-65.3217072368
 21
6.6593495066
 31
0.0
  0
LINE
  5
412
100
AcDbEntity
  8
IMPORT_IGES
100
AcDbLine
 62
7
  6
CONTINUOUS
 10
-65.2717072368
 20
8.9522432071
 30
0.0
 11
-65.2717072368
 21
4.4542066202
 31
0.0
  0
LINE
  5
413
100
AcDbEntity
  8
IMPORT_IGES
100
AcDbLine
 62
7
  6
CONTINUOUS
 10
-65.2717072368
 20
-2.8089876013
 30
0.0
 11
-65.2717072368
 21
-8.0763877056
 31
0.0
  0
LINE
  5
414
100
AcDbEntity
  8
IMPORT_IGES
100
AcDbLine
 62
7
  6
CONTINUOUS
 10
-65.1717072368
 20
-1.4943655714
 30
0.0
 11
-65.1717072368
 21
3.1131225845
 31
0.0
  0
LINE
  5
415
100
AcDbEntity
  8
IMPORT_IGES
100
AcDbLine
 62
250
  6
CONTINUOUS
 10
-64.9717071475
 20
4.4594423422
 30
0.0
 11
-64.9717069541
 21
8.9574784473
 31
0.0
  0
LINE
  5
416
100
AcDbEntity
  8
IMPORT_IGES
100
AcDbLine
 62
250
  6
CONTINUOUS
 10
-64.9717072368
 20
-2.8142233237
 30
0.0
 11
-64.9717072368
 21
-8.0816234275
 31
0.0
  0
LINE
  5
417
100
AcDbEntity
  8
IMPORT_IGES
100
AcDbLine
 62
7
  6
CONTINUOUS
 10
-64.7717072368
 20
3.2249660042
 30
0.0
 11
-64.7717072368
 21
-1.6062669911
 31
0.0
  0
LWPOLYLINE
  5
418
100
AcDbEntity
  8
0
100
AcDbPolyline
 62
7
  6
CONTINUOUS
 90
2
 70
0
 43
0.3500000006
 10
-64.7145624847
 20
43.09503685
 10
-64.7145624847
 20
44.5950373077
  0
LINE
  5
419
100
AcDbEntity
  8
IMPORT_IGES
100
AcDbLine
 62
250
  6
CONTINUOUS
 10
-63.6146005422
 20
10.6093495066
 30
0.0
 11
-63.6146004579
 21
10.3145843841
 31
0.0
  0
LINE
  5
41A
100
AcDbEntity
  8
IMPORT_IGES
100
AcDbLine
 62
7
  6
CONTINUOUS
 10
-63.5717072368
 20
3.264586067
 30
0.0
 11
-63.5717072368
 21
-1.6556509048
 31
0.0
  0
LINE
  5
41B
100
AcDbEntity
  8
IMPORT_IGES
100
AcDbLine
 62
250
  6
CONTINUOUS
 10
-63.5133478498
 20
-9.1250263512
 30
0.0
 11
-63.513347848
 21
-8.9181307485
 31
0.0
  0
LWPOLYLINE
  5
41C
100
AcDbEntity
  8
0
100
AcDbPolyline
 62
7
  6
CONTINUOUS
 90
13
 70
0
 43
0.3500000006
 10
-63.3574198608
 20
43.9521793213
 10
-63.3574198608
 20
45.2378952942
 10
-63.143135376
 20
45.6664642639
 10
-62.7145664063
 20
46.0950377655
 10
-62.5002773895
 20
46.0950377655
 10
-62.0717084198
 20
45.6664642639
 10
-61.8574194031
 20
45.2378952942
 10
-61.8574194031
 20
43.9521793213
 10
-62.0717084198
 20
43.5236103516
 10
-62.5002773895
 20
43.09503685
 10
-62.7145664063
 20
43.09503685
 10
-63.143135376
 20
43.5236103516
 10
-63.3574198608
 20
43.9521793213
  0
LINE
  5
41D
100
AcDbEntity
  8
IMPORT_IGES
100
AcDbLine
 62
250
  6
CONTINUOUS
 10
-63.2717072368
 20
3.4394423422
 30
0.0
 11
-63.2717072368
 21
0.7143495066
 31
0.0
  0
LINE
  5
41E
100
AcDbEntity
  8
IMPORT_IGES
100
AcDbLine
 62
250
  6
CONTINUOUS
 10
-63.2717072368
 20
0.6143495066
 30
0.0
 11
-63.2717072368
 21
-1.8342233237
 31
0.0
  0
LINE
  5
41F
100
AcDbEntity
  8
0
100
AcDbLine
 62
7
  6
CONTINUOUS
 10
-63.2217072368
 20
11.909378507
 30
0.0
 11
-63.2217072368
 21
12.009378507
 31
0.0
  0
LINE
  5
420
100
AcDbEntity
  8
IMPORT_IGES
100
AcDbLine
 62
250
  6
CONTINUOUS
 10
-68.6217072368
 20
-3.9437795138
 30
0.0
 11
-68.7456989004
 21
-4.100706463
 31
0.0
  0
LINE
  5
421
100
AcDbEntity
  8
IMPORT_IGES
100
AcDbLine
 62
250
  6
CONTINUOUS
 10
-67.6105965668
 20
-4.9975774426
 30
0.0
 11
-67.4866049033
 21
-4.8406504934
 31
0.0
  0
LINE
  5
422
100
AcDbEntity
  8
IMPORT_IGES
100
AcDbLine
 62
250
  6
CONTINUOUS
 10
-42.1717072368
 20
-4.4798247568
 30
0.0
 11
-44.8217072368
 21
-4.4798247672
 31
0.0
  0
LINE
  5
423
100
AcDbEntity
  8
IMPORT_IGES
100
AcDbLine
 62
250
  6
CONTINUOUS
 10
-68.8217072368
 20
-3.9437795138
 30
0.0
 11
-68.6217072368
 21
-3.9437795138
 31
0.0
  0
LINE
  5
424
100
AcDbEntity
  8
IMPORT_IGES
100
AcDbLine
 62
250
  6
CONTINUOUS
 10
-44.8217072368
 20
-3.2326056277
 30
0.0
 11
-41.9717072368
 21
-3.2326056278
 31
0.0
  0
LINE
  5
425
100
AcDbEntity
  8
IMPORT_IGES
100
AcDbLine
 62
250
  6
CONTINUOUS
 10
-41.7717072368
 20
-3.1329094227
 30
0.0
 11
-41.1717072368
 21
-3.1329094228
 31
0.0
  0
LINE
  5
426
100
AcDbEntity
  8
IMPORT_IGES
100
AcDbLine
 62
250
  6
CONTINUOUS
 10
-41.9797435439
 20
-2.6538557739
 30
0.0
 11
-44.8217072368
 21
-2.6538557738
 31
0.0
  0
LINE
  5
427
100
AcDbEntity
  8
IMPORT_IGES
100
AcDbLine
 62
7
  6
CONTINUOUS
 10
-66.0717072368
 20
-0.7262438463
 30
0.0
 11
-65.9217072368
 21
-0.799700277
 31
0.0
  0
LINE
  5
428
100
AcDbEntity
  8
IMPORT_IGES
100
AcDbLine
 62
250
  6
CONTINUOUS
 10
-68.7456989004
 20
5.7194054761
 30
0.0
 11
-68.6217072368
 21
5.562478527
 31
0.0
  0
LINE
  5
429
100
AcDbEntity
  8
0
100
AcDbLine
 62
250
  6
CONTINUOUS
 10
-63.0995720168
 20
11.909378507
 30
0.0
 11
-63.0995720168
 21
12.009378507
 31
0.0
  0
LINE
  5
42A
100
AcDbEntity
  8
0
100
AcDbLine
 62
250
  6
CONTINUOUS
 10
-62.804055965
 20
11.909378507
 30
0.0
 11
-62.804055965
 21
12.009378507
 31
0.0
  0
LINE
  5
42B
100
AcDbEntity
  8
0
100
AcDbLine
 62
250
  6
CONTINUOUS
 10
-62.5442176072
 20
11.909378507
 30
0.0
 11
-62.5442176072
 21
12.009378507
 31
0.0
  0
LINE
  5
42C
100
AcDbEntity
  8
0
100
AcDbLine
 62
7
  6
CONTINUOUS
 10
-62.4461912394
 20
11.909378507
 30
0.0
 11
-62.4461912394
 21
12.009378507
 31
0.0
  0
LINE
  5
42D
100
AcDbEntity
  8
0
100
AcDbLine
 62
250
  6
CONTINUOUS
 10
-62.2104616881
 20
11.909378507
 30
0.0
 11
-62.2104616881
 21
12.009378507
 31
0.0
  0
LINE
  5
42E
100
AcDbEntity
  8
0
100
AcDbLine
 62
7
  6
CONTINUOUS
 10
-62.0413513646
 20
11.909378507
 30
0.0
 11
-62.0413513646
 21
12.009378507
 31
0.0
  0
LINE
  5
42F
100
AcDbEntity
  8
0
100
AcDbLine
 62
7
  6
CONTINUOUS
 10
-62.0029172004
 20
11.909378507
 30
0.0
 11
-62.0029172004
 21
12.009378507
 31
0.0
  0
LINE
  5
430
100
AcDbEntity
  8
IMPORT_IGES
100
AcDbLine
 62
7
  6
CONTINUOUS
 10
-63.5717072368
 20
-1.6062669911
 30
0.0
 11
-65.3217072368
 21
-2.6166299622
 31
0.0
  0
LINE
  5
431
100
AcDbEntity
  8
IMPORT_IGES
100
AcDbLine
 62
7
  6
CONTINUOUS
 10
-63.571707237
 20
-1.6556504932
 30
0.0
 11
-65.1215357282
 21
-2.5490810351
 31
0.0
  0
LINE
  5
432
100
AcDbEntity
  8
IMPORT_IGES
100
AcDbLine
 62
250
  6
CONTINUOUS
 10
-64.9717072368
 20
-2.8142233237
 30
0.0
 11
-63.2717072368
 21
-1.8342233237
 31
0.0
  0
LINE
  5
433
100
AcDbEntity
  8
IMPORT_IGES
100
AcDbLine
 62
7
  6
CONTINUOUS
 10
-41.1717072368
 20
-2.4538557739
 30
0.0
 11
-44.7904927088
 21
-2.4538557739
 31
0.0
  0
LINE
  5
434
100
AcDbEntity
  8
IMPORT_IGES
100
AcDbLine
 62
7
  6
CONTINUOUS
 10
-44.5217072368
 20
-2.2856504934
 30
0.0
 11
-41.2717072368
 21
-2.2856504934
 31
0.0
  0
LINE
  5
435
100
AcDbEntity
  8
IMPORT_IGES
100
AcDbLine
 62
7
  6
CONTINUOUS
 10
-64.7717072368
 20
-1.6062669911
 30
0.0
 11
-65.3217072368
 21
-1.6062669911
 31
0.0
  0
LINE
  5
436
100
AcDbEntity
  8
IMPORT_IGES
100
AcDbLine
 62
250
  6
CONTINUOUS
 10
-44.8217072368
 20
-1.2856504934
 30
0.0
 11
-40.9717072368
 21
-1.2856504934
 31
0.0
  0
LINE
  5
437
100
AcDbEntity
  8
IMPORT_IGES
100
AcDbLine
 62
7
  6
CONTINUOUS
 10
-65.9217072368
 20
-1.2283019388
 30
0.0
 11
-66.0717072368
 21
-1.2283019388
 31
0.0
  0
LINE
  5
438
100
AcDbEntity
  8
IMPORT_IGES
100
AcDbLine
 62
7
  6
CONTINUOUS
 10
-64.7717072368
 20
-1.5013475973
 30
0.0
 11
-65.9217072368
 21
-1.4812742727
 31
0.0
  0
LINE
  5
439
100
AcDbEntity
  8
IMPORT_IGES
100
AcDbLine
 62
7
  6
CONTINUOUS
 10
-66.0717072368
 20
-1.5406504934
 30
0.0
 11
-65.3217072368
 21
-1.6062669911
 31
0.0
  0
LINE
  5
43A
100
AcDbEntity
  8
IMPORT_IGES
100
AcDbLine
 62
250
  6
CONTINUOUS
 10
-67.4866049033
 20
6.4593495066
 30
0.0
 11
-67.6105965668
 21
6.6162764557
 31
0.0
  0
LINE
  5
43B
100
AcDbEntity
  8
RACCORDO
100
AcDbLine
 62
7
  6
CONTINUOUS
 10
-60.1717072368
 20
-19.9901351699
 30
0.0
 11
-60.1717072368
 21
-24.5778176195
 31
0.0
  0
LINE
  5
43C
100
AcDbEntity
  8
RACCORDO
100
AcDbLine
 62
7
  6
CONTINUOUS
 10
-60.1717072368
 20
18.7088341831
 30
0.0
 11
-60.1717072368
 21
23.2965166327
 31
0.0
  0
LWPOLYLINE
  5
43D
100
AcDbEntity
  8
0
100
AcDbPolyline
 62
7
  6
CONTINUOUS
 90
4
 70
0
 43
0.3500000006
 10
-59.2859919891
 20
45.4521797791
 10
-59.2859919891
 20
46.0950377655
 10
-57.7859915314
 20
46.0950377655
 10
-58.6431340027
 20
43.09503685
  0
LINE
  5
43E
100
AcDbEntity
  8
RACCORDO
100
AcDbLine
 62
7
  6
CONTINUOUS
 10
-69.1717072368
 20
0.8966181845
 30
0.0
 11
-69.119525603
 21
0.8970735667
 31
0.0
  0
LINE
  5
43F
100
AcDbEntity
  8
IMPORT_IGES
100
AcDbLine
 62
250
  6
CONTINUOUS
 10
-44.8217072368
 20
0.1143495066
 30
0.0
 11
-42.5217072368
 21
0.1143495066
 31
0.0
  0
LINE
  5
440
100
AcDbEntity
  8
IMPORT_IGES
100
AcDbLine
 62
7
  6
CONTINUOUS
 10
-48.5717072368
 20
0.3143495066
 30
0.0
 11
-48.7117072368
 21
0.3143495066
 31
0.0
  0
LINE
  5
441
100
AcDbEntity
  8
0
100
AcDbLine
 62
7
  6
CONTINUOUS
 10
-66.0717072368
 20
0.3593495066
 30
0.0
 11
-65.9217072368
 21
0.3593495066
 31
0.0
  0
LINE
  5
442
100
AcDbEntity
  8
IMPORT_IGES
100
AcDbLine
 62
7
  6
CONTINUOUS
 10
-49.0117072368
 20
0.6143495066
 30
0.0
 11
-63.5717072368
 21
0.6143495066
 31
0.0
  0
LINE
  5
443
100
AcDbEntity
  8
IMPORT_IGES
100
AcDbLine
 62
7
  6
CONTINUOUS
 10
-63.5717072368
 20
0.7143495066
 30
0.0
 11
-45.1217070755
 21
0.7143495066
 31
0.0
  0
LINE
  5
444
100
AcDbEntity
  8
IMPORT_IGES
100
AcDbLine
 62
7
  6
CONTINUOUS
 10
-42.5217072368
 20
0.7143495066
 30
0.0
 11
-44.5232436183
 21
0.7143495066
 31
0.0
  0
LINE
  5
445
100
AcDbEntity
  8
0
100
AcDbLine
 62
7
  6
CONTINUOUS
 10
-65.9217072368
 20
0.8593495066
 30
0.0
 11
-66.0717072368
 21
0.8593495066
 31
0.0
  0
LINE
  5
446
100
AcDbEntity
  8
IMPORT_IGES
100
AcDbLine
 62
250
  6
CONTINUOUS
 10
-40.9717072368
 20
1.1143495066
 30
0.0
 11
-42.0217072368
 21
1.1143495067
 31
0.0
  0
LINE
  5
447
100
AcDbEntity
  8
IMPORT_IGES
100
AcDbLine
 62
7
  6
CONTINUOUS
 10
-42.0217072368
 20
1.7143495066
 30
0.0
 11
-41.2717072368
 21
1.7143495066
 31
0.0
  0
LINE
  5
448
100
AcDbEntity
  8
RACCORDO
100
AcDbLine
 62
7
  6
CONTINUOUS
 10
-69.1717072368
 20
1.7220808287
 30
0.0
 11
-69.1217072368
 21
1.7216444853
 31
0.0
  0
LINE
  5
449
100
AcDbEntity
  8
IMPORT_IGES
100
AcDbLine
 62
7
  6
CONTINUOUS
 10
-65.3217072368
 20
4.2353289753
 30
0.0
 11
-63.5717072368
 21
3.2249660042
 31
0.0
  0
LINE
  5
44A
100
AcDbEntity
  8
IMPORT_IGES
100
AcDbLine
 62
7
  6
CONTINUOUS
 10
-65.1260559635
 20
4.1969587426
 30
0.0
 11
-63.5717085458
 21
3.264350292
 31
0.0
  0
LINE
  5
44B
100
AcDbEntity
  8
IMPORT_IGES
100
AcDbLine
 62
250
  6
CONTINUOUS
 10
-49.9621417862
 20
-10.0073227253
 30
0.0
 11
-49.8252606276
 21
-10.1442038842
 31
0.0
  0
LWPOLYLINE
  5
44C
100
AcDbEntity
  8
0
100
AcDbPolyline
 62
7
  6
CONTINUOUS
 90
13
 70
0
 43
0.3500000006
 10
-57.8431337585
 20
33.9521808014
 10
-57.8431337585
 20
35.2378967743
 10
-57.6288492737
 20
35.666465744
 10
-57.200280304
 20
36.0950392456
 10
-56.9859912872
 20
36.0950392456
 10
-56.5574223175
 20
35.666465744
 10
-56.3431378326
 20
35.2378967743
 10
-56.3431378326
 20
33.9521808014
 10
-56.5574223175
 20
33.5236072998
 10
-56.9859912872
 20
33.0950383301
 10
-57.200280304
 20
33.0950383301
 10
-57.6288492737
 20
33.5236072998
 10
-57.8431337585
 20
33.9521808014
  0
LINE
  5
44D
100
AcDbEntity
  8
IMPORT_IGES
100
AcDbLine
 62
7
  6
CONTINUOUS
 10
-57.6702028975
 20
-10.2906504934
 30
0.0
 11
-57.6702028975
 21
-10.4906504934
 31
0.0
  0
LINE
  5
44E
100
AcDbEntity
  8
IMPORT_IGES
100
AcDbLine
 62
250
  6
CONTINUOUS
 10
-57.5678769698
 20
-10.4906504934
 30
0.0
 11
-57.5678770519
 21
-10.2906504934
 31
0.0
  0
LINE
  5
44F
100
AcDbEntity
  8
IMPORT_IGES
100
AcDbLine
 62
7
  6
CONTINUOUS
 10
-65.3217072368
 20
3.2249660042
 30
0.0
 11
-66.0717072368
 21
3.1593495066
 31
0.0
  0
LINE
  5
450
100
AcDbEntity
  8
IMPORT_IGES
100
AcDbLine
 62
7
  6
CONTINUOUS
 10
-65.9217072368
 20
3.1000312858
 30
0.0
 11
-64.7717072368
 21
3.1201046105
 31
0.0
  0
LINE
  5
451
100
AcDbEntity
  8
IMPORT_IGES
100
AcDbLine
 62
7
  6
CONTINUOUS
 10
-65.3217072368
 20
3.2249660042
 30
0.0
 11
-64.7717072368
 21
3.2249660042
 31
0.0
  0
LINE
  5
452
100
AcDbEntity
  8
IMPORT_IGES
100
AcDbLine
 62
250
  6
CONTINUOUS
 10
-63.2717072368
 20
3.4394423422
 30
0.0
 11
-64.9717071475
 21
4.4594423422
 31
0.0
  0
LINE
  5
453
100
AcDbEntity
  8
IMPORT_IGES
100
AcDbLine
 62
7
  6
CONTINUOUS
 10
-56.6799794326
 20
11.8093495066
 30
0.0
 11
-56.6799794326
 21
11.6093495066
 31
0.0
  0
LINE
  5
454
100
AcDbEntity
  8
IMPORT_IGES
100
AcDbLine
 62
7
  6
CONTINUOUS
 10
-56.6344872368
 20
11.8093495066
 30
0.0
 11
-56.6344872368
 21
11.6093495066
 31
0.0
  0
LINE
  5
455
100
AcDbEntity
  8
IMPORT_IGES
100
AcDbLine
 62
7
  6
CONTINUOUS
 10
-56.052777964
 20
-10.4906504934
 30
0.0
 11
-56.052777964
 21
-10.2906504934
 31
0.0
  0
LINE
  5
456
100
AcDbEntity
  8
IMPORT_IGES
100
AcDbLine
 62
7
  6
CONTINUOUS
 10
-56.0350213707
 20
-10.4906504934
 30
0.0
 11
-56.0350145558
 21
-10.2906504934
 31
0.0
  0
LINE
  5
457
100
AcDbEntity
  8
IMPORT_IGES
100
AcDbLine
 62
250
  6
CONTINUOUS
 10
-55.4467210527
 20
-10.4906504934
 30
0.0
 11
-55.4467210527
 21
-10.2906504934
 31
0.0
  0
LINE
  5
458
100
AcDbEntity
  8
IMPORT_IGES
100
AcDbLine
 62
7
  6
CONTINUOUS
 10
-54.6348477835
 20
-10.4906504934
 30
0.0
 11
-54.6348477835
 21
-10.2906504934
 31
0.0
  0
LINE
  5
459
100
AcDbEntity
  8
IMPORT_IGES
100
AcDbLine
 62
250
  6
CONTINUOUS
 10
-45.1739950064
 20
6.5917630173
 30
0.0
 11
-45.0325736502
 21
6.7331843736
 31
0.0
  0
LINE
  5
45A
100
AcDbEntity
  8
IMPORT_IGES
100
AcDbLine
 62
250
  6
CONTINUOUS
 10
-68.6217072368
 20
5.562478527
 30
0.0
 11
-68.8217072368
 21
5.562478527
 31
0.0
  0
LINE
  5
45B
100
AcDbEntity
  8
IMPORT_IGES
100
AcDbLine
 62
7
  6
CONTINUOUS
 10
-60.7994750261
 20
10.6093495066
 30
0.0
 11
-60.9502007343
 21
10.8806580803
 31
0.0
  0
LINE
  5
45C
100
AcDbEntity
  8
IMPORT_IGES
100
AcDbLine
 62
7
  6
CONTINUOUS
 10
-53.6348482368
 20
11.6093495066
 30
0.0
 11
-53.6348482368
 21
11.8093495066
 31
0.0
  0
LINE
  5
45D
100
AcDbEntity
  8
IMPORT_IGES
100
AcDbLine
 62
250
  6
CONTINUOUS
 10
-45.1447292862
 20
6.5232248422
 30
0.0
 11
-44.9447764894
 21
6.5275698481
 31
0.0
  0
LINE
  5
45E
100
AcDbEntity
  8
RACCORDO
100
AcDbLine
 62
7
  6
CONTINUOUS
 10
-69.1717072368
 20
7.9466181845
 30
0.0
 11
-69.119525603
 21
7.9470735667
 31
0.0
  0
LINE
  5
45F
100
AcDbEntity
  8
IMPORT_IGES
100
AcDbLine
 62
250
  6
CONTINUOUS
 10
-65.3217072368
 20
6.4593495066
 30
0.0
 11
-67.4866049033
 21
6.4593495066
 31
0.0
  0
LINE
  5
460
100
AcDbEntity
  8
IMPORT_IGES
100
AcDbLine
 62
7
  6
CONTINUOUS
 10
-65.3217072368
 20
6.6593495066
 30
0.0
 11
-67.4866049033
 21
6.6593495066
 31
0.0
  0
LINE
  5
461
100
AcDbEntity
  8
IMPORT_IGES
100
AcDbLine
 62
250
  6
CONTINUOUS
 10
-50.9071874767
 20
11.5691572445
 30
0.0
 11
-50.9071874767
 21
11.6093495066
 31
0.0
  0
LINE
  5
462
100
AcDbEntity
  8
IMPORT_IGES
100
AcDbLine
 62
250
  6
CONTINUOUS
 10
-50.5294935585
 20
-10.2906504934
 30
0.0
 11
-50.5295155183
 21
-10.0906504934
 31
0.0
  0
LINE
  5
463
100
AcDbEntity
  8
IMPORT_IGES
100
AcDbLine
 62
250
  6
CONTINUOUS
 10
-50.4982651769
 20
10.8896983078
 30
0.0
 11
-50.4982652373
 21
10.9164934894
 31
0.0
  0
LINE
  5
464
100
AcDbEntity
  8
IMPORT_IGES
100
AcDbLine
 62
250
  6
CONTINUOUS
 10
-50.5267378087
 20
-9.9492892135
 30
0.0
 11
-50.5267500648
 21
-10.0078678536
 31
0.0
  0
LINE
  5
465
100
AcDbEntity
  8
IMPORT_IGES
100
AcDbLine
 62
250
  6
CONTINUOUS
 10
-50.5072203043
 20
11.6093495066
 30
0.0
 11
-50.5072365194
 21
11.4113740602
 31
0.0
  0
LINE
  5
466
100
AcDbEntity
  8
IMPORT_IGES
100
AcDbLine
 62
250
  6
CONTINUOUS
 10
-68.8717621275
 20
8.5373599048
 30
0.0
 11
-65.4585656135
 21
8.5492742566
 31
0.0
  0
LINE
  5
467
100
AcDbEntity
  8
IMPORT_IGES
100
AcDbLine
 62
7
  6
CONTINUOUS
 10
-65.5822159373
 20
8.8488408061
 30
0.0
 11
-69.1717072368
 21
8.8363110669
 31
0.0
  0
LINE
  5
468
100
AcDbEntity
  8
IMPORT_IGES
100
AcDbLine
 62
250
  6
CONTINUOUS
 10
-49.5874947997
 20
10.3145852249
 30
0.0
 11
-63.6146004579
 21
10.3145839508
 31
0.0
  0
LINE
  5
469
100
AcDbEntity
  8
RACCORDO
100
AcDbLine
 62
7
  6
CONTINUOUS
 10
-69.1717072368
 20
8.7720808287
 30
0.0
 11
-69.1217072368
 21
8.7716444853
 31
0.0
  0
LINE
  5
46A
100
AcDbEntity
  8
IMPORT_IGES
100
AcDbLine
 62
7
  6
CONTINUOUS
 10
-46.9717072368
 20
-1.4256504934
 30
0.0
 11
-49.0117072368
 21
0.6143495066
 31
0.0
  0
LINE
  5
46B
100
AcDbEntity
  8
IMPORT_IGES
100
AcDbLine
 62
7
  6
CONTINUOUS
 10
-48.9717072368
 20
0.7143495066
 30
0.0
 11
-46.9717072074
 21
-1.2856505229
 31
0.0
  0
LINE
  5
46C
100
AcDbEntity
  8
IMPORT_IGES
100
AcDbLine
 62
7
  6
CONTINUOUS
 10
-45.8967462108
 20
-7.5860781891
 30
0.0
 11
-46.7773816947
 21
-6.0288645644
 31
0.0
  0
LINE
  5
46D
100
AcDbEntity
  8
IMPORT_IGES
100
AcDbLine
 62
250
  6
CONTINUOUS
 10
-50.178814018
 20
-10.2906504934
 30
0.0
 11
-50.178814018
 21
-10.0906504934
 31
0.0
  0
LINE
  5
46E
100
AcDbEntity
  8
IMPORT_IGES
100
AcDbLine
 62
250
  6
CONTINUOUS
 10
-50.0128814475
 20
10.9164934721
 30
0.0
 11
-50.0128814475
 21
10.8896986757
 31
0.0
  0
LINE
  5
46F
100
AcDbEntity
  8
IMPORT_IGES
100
AcDbLine
 62
250
  6
CONTINUOUS
 10
-49.9838993474
 20
-9.9492892134
 30
0.0
 11
-49.9838993479
 21
-10.0078678576
 31
0.0
  0
LINE
  5
470
100
AcDbEntity
  8
IMPORT_IGES
100
AcDbLine
 62
250
  6
CONTINUOUS
 10
-49.587494797
 20
10.5691730094
 30
0.0
 11
-49.587494797
 21
10.3145852285
 31
0.0
  0
LINE
  5
471
100
AcDbEntity
  8
IMPORT_IGES
100
AcDbLine
 62
250
  6
CONTINUOUS
 10
-49.159637195
 20
-8.9181307485
 30
0.0
 11
-49.1596506547
 21
-9.1250270476
 31
0.0
  0
LWPOLYLINE
  5
472
100
AcDbEntity
  8
IMPORT_IGES
100
AcDbPolyline
 62
7
  6
CONTINUOUS
 90
3
 70
0
 10
-50.8550840595
 20
-10.2792881068
 10
-50.8292331861
 20
-10.2682777839
 10
-50.806222911
 20
-10.2546571443
  0
LINE
  5
473
100
AcDbEntity
  8
RACCORDO
100
AcDbLine
 62
7
  6
CONTINUOUS
 10
-69.1717072368
 20
11.9117098626
 30
0.0
 11
-69.1203982459
 21
11.9119785183
 31
0.0
  0
LINE
  5
474
100
AcDbEntity
  8
IMPORT_IGES
100
AcDbLine
 62
7
  6
CONTINUOUS
 10
-69.1717072368
 20
10.5593785063
 30
0.0
 11
-63.8319117268
 21
10.5593785064
 31
0.0
  0
LINE
  5
475
100
AcDbEntity
  8
IMPORT_IGES
100
AcDbLine
 62
250
  6
CONTINUOUS
 10
-49.587494797
 20
10.5691571277
 30
0.0
 11
-59.5725333799
 21
10.5691730108
 31
0.0
  0
LINE
  5
476
100
AcDbEntity
  8
IMPORT_IGES
100
AcDbLine
 62
7
  6
CONTINUOUS
 10
-59.5764517502
 20
10.6093495066
 30
0.0
 11
-63.614600478
 21
10.6093495066
 31
0.0
  0
LINE
  5
477
100
AcDbEntity
  8
IMPORT_IGES
100
AcDbLine
 62
250
  6
CONTINUOUS
 10
-50.4982651769
 20
10.8896983078
 30
0.0
 11
-50.0128752652
 21
10.8896983078
 31
0.0
  0
LINE
  5
478
100
AcDbEntity
  8
IMPORT_IGES
100
AcDbLine
 62
7
  6
CONTINUOUS
 10
-50.4982652331
 20
10.9164935956
 30
0.0
 11
-50.0128814475
 21
10.9164935956
 31
0.0
  0
LINE
  5
479
100
AcDbEntity
  8
IMPORT_IGES
100
AcDbLine
 62
250
  6
CONTINUOUS
 10
-50.9071644089
 20
11.5691603733
 30
0.0
 11
-58.9518344294
 21
11.569163569
 31
0.0
  0
LINE
  5
47A
100
AcDbEntity
  8
IMPORT_IGES
100
AcDbLine
 62
7
  6
CONTINUOUS
 10
-50.449033674
 20
11.6093495066
 30
0.0
 11
-58.9352249086
 21
11.6093495066
 31
0.0
  0
LINE
  5
47B
100
AcDbEntity
  8
IMPORT_IGES
100
AcDbLine
 62
250
  6
CONTINUOUS
 10
-52.6348482369
 20
11.709347723
 30
0.0
 11
-51.9348482368
 21
11.7093495066
 31
0.0
  0
LINE
  5
47C
100
AcDbEntity
  8
IMPORT_IGES
100
AcDbLine
 62
250
  6
CONTINUOUS
 10
-57.6344872374
 20
11.7093495066
 30
0.0
 11
-58.3344872362
 21
11.7093495066
 31
0.0
  0
LINE
  5
47D
100
AcDbEntity
  8
IMPORT_IGES
100
AcDbLine
 62
7
  6
CONTINUOUS
 10
-58.2344872364
 20
11.8093495066
 30
0.0
 11
-57.7344872373
 21
11.8093495066
 31
0.0
  0
LINE
  5
47E
100
AcDbEntity
  8
IMPORT_IGES
100
AcDbLine
 62
7
  6
CONTINUOUS
 10
-52.5348482364
 20
11.8093495066
 30
0.0
 11
-52.0348482373
 21
11.8093495066
 31
0.0
  0
LINE
  5
47F
100
AcDbEntity
  8
IMPORT_IGES
100
AcDbLine
 62
7
  6
CONTINUOUS
 10
-53.6348482368
 20
11.8093495066
 30
0.0
 11
-56.6791934888
 21
11.8093495066
 31
0.0
  0
LINE
  5
480
100
AcDbEntity
  8
0
100
AcDbLine
 62
7
  6
CONTINUOUS
 10
-62.5442176072
 20
11.909378507
 30
0.0
 11
-62.0029172004
 21
11.909378507
 31
0.0
  0
LINE
  5
481
100
AcDbEntity
  8
IMPORT_IGES
100
AcDbLine
 62
7
  6
CONTINUOUS
 10
-62.6985187804
 20
11.909378507
 30
0.0
 11
-69.1203982459
 21
11.909378507
 31
0.0
  0
LINE
  5
482
100
AcDbEntity
  8
0
100
AcDbLine
 62
7
  6
CONTINUOUS
 10
-63.2217072368
 20
12.009378507
 30
0.0
 11
-62.0029172004
 21
12.009378507
 31
0.0
  0
LWPOLYLINE
  5
483
100
AcDbEntity
  8
IMPORT_IGES
100
AcDbPolyline
 62
7
  6
CONTINUOUS
 90
3
 70
0
 10
-50.4982652617
 20
10.9164939701
 10
-50.5206289703
 20
10.9170079796
 10
-50.5455314332
 20
10.9187771368
  0
LWPOLYLINE
  5
484
100
AcDbEntity
  8
IMPORT_IGES
100
AcDbPolyline
 62
7
  6
CONTINUOUS
 90
3
 70
0
 10
-50.5455314332
 20
10.9187771368
 10
-50.5700675388
 20
10.9218079142
 10
-50.5938584218
 20
10.9260609079
  0
LWPOLYLINE
  5
485
100
AcDbEntity
  8
IMPORT_IGES
100
AcDbPolyline
 62
7
  6
CONTINUOUS
 90
3
 70
0
 10
-49.9401862663
 20
10.9085197532
 10
-49.9853400781
 20
10.9153360093
 10
-50.0128886645
 20
10.9165005468
  0
LINE
  5
486
100
AcDbEntity
  8
IMPORT_IGES
100
AcDbLine
 62
250
  6
CONTINUOUS
 10
-47.2717072368
 20
-7.0887794342
 30
0.0
 11
-47.2717072368
 21
-1.1256504934
 31
0.0
  0
LINE
  5
487
100
AcDbEntity
  8
IMPORT_IGES
100
AcDbLine
 62
7
  6
CONTINUOUS
 10
-46.9717072368
 20
-7.0835437116
 30
0.0
 11
-46.9717072368
 21
-1.2856504934
 31
0.0
  0
LINE
  5
488
100
AcDbEntity
  8
IMPORT_IGES
100
AcDbLine
 62
7
  6
CONTINUOUS
 10
-50.7158171414
 20
-10.1356454545
 30
0.0
 11
-50.7157228583
 21
-10.1354084634
 31
0.0
  0
LWPOLYLINE
  5
489
100
AcDbEntity
  8
IMPORT_IGES
100
AcDbPolyline
 62
7
  6
CONTINUOUS
 90
17
 70
0
 10
-50.7158338043
 20
-10.1356788387
 10
-50.7135569698
 20
-10.1302338404
 10
-50.7073523273
 20
-10.1172790768
 10
-50.700195703
 20
-10.1047324485
 10
-50.6920828259
 20
-10.0926186938
 10
-50.6830608866
 20
-10.0810422099
 10
-50.6730459983
 20
-10.0699612246
 10
-50.6618308059
 20
-10.0592731669
 10
-50.6494371029
 20
-10.0491456026
 10
-50.6358566363
 20
-10.0397388177
 10
-50.6209372533
 20
-10.0311319214
 10
-50.6049228362
 20
-10.0236105603
 10
-50.5880217795
 20
-10.0174053973
 10
-50.5702724282
 20
-10.0126420236
 10
-50.5520616223
 20
-10.009463817
 10
-50.5338723566
 20
-10.0079669749
 10
-50.5267482915
 20
-10.0078460303
  0
LWPOLYLINE
  5
48A
100
AcDbEntity
  8
IMPORT_IGES
100
AcDbPolyline
 62
7
  6
CONTINUOUS
 90
4
 70
0
 10
-50.7425070206
 20
-10.1880850572
 10
-50.732057726
 20
-10.1703733416
 10
-50.7225168187
 20
-10.151268778
 10
-50.7157228583
 20
-10.1354084634
  0
LINE
  5
48B
100
AcDbEntity
  8
IMPORT_IGES
100
AcDbLine
 62
250
  6
CONTINUOUS
 10
-47.3302858806
 20
-7.2302007904
 30
0.0
 11
-48.8742821099
 21
-8.7741970197
 31
0.0
  0
LINE
  5
48C
100
AcDbEntity
  8
IMPORT_IGES
100
AcDbLine
 62
250
  6
CONTINUOUS
 10
-49.1596524979
 20
-9.1250263511
 30
0.0
 11
-49.9838993474
 21
-9.9492892136
 31
0.0
  0
LINE
  5
48D
100
AcDbEntity
  8
IMPORT_IGES
100
AcDbLine
 62
7
  6
CONTINUOUS
 10
-49.8252606275
 20
-10.1442038841
 30
0.0
 11
-47.118153846
 21
-7.4370971026
 31
0.0
  0
LWPOLYLINE
  5
48E
100
AcDbEntity
  8
IMPORT_IGES
100
AcDbPolyline
 62
7
  6
CONTINUOUS
 90
5
 70
0
 10
-50.806222911
 20
-10.2546571443
 10
-50.7861678404
 20
-10.2391722612
 10
-50.7690080031
 20
-10.2225169468
 10
-50.754568836
 20
-10.2053349841
 10
-50.7425070206
 20
-10.1880850572
  0
LINE
  5
48F
100
AcDbEntity
  8
RACCORDO
100
AcDbLine
 62
250
  6
CONTINUOUS
 10
-69.1717072368
 20
14.3663190335
 30
0.0
 11
-69.119525603
 21
14.3668766766
 31
0.0
  0
LINE
  5
490
100
AcDbEntity
  8
RACCORDO
100
AcDbLine
 62
250
  6
CONTINUOUS
 10
-68.8717072368
 20
14.3668766766
 30
0.0
 11
-69.119525603
 21
14.3668766766
 31
0.0
  0
LINE
  5
491
100
AcDbEntity
  8
RACCORDO
100
AcDbLine
 62
7
  6
CONTINUOUS
 10
-69.1717072368
 20
12.7720808287
 30
0.0
 11
-69.1217072368
 21
12.7716444853
 31
0.0
  0
LINE
  5
492
100
AcDbEntity
  8
RACCORDO
100
AcDbLine
 62
7
  6
CONTINUOUS
 10
-69.1717072368
 20
14.6720808287
 30
0.0
 11
-69.119525603
 21
14.6716254465
 31
0.0
  0
LWPOLYLINE
  5
493
100
AcDbEntity
  8
IMPORT_IGES
100
AcDbPolyline
 62
7
  6
CONTINUOUS
 90
8
 70
0
 10
-50.5938584218
 20
10.9260609079
 10
-50.6163708749
 20
10.9314038359
 10
-50.6373102984
 20
10.9377021393
 10
-50.6563882561
 20
10.9447902075
 10
-50.6730599738
 20
10.9523249601
 10
-50.6866994163
 20
10.9597579875
 10
-50.697277581
 20
10.9667006437
 10
-50.6983898762
 20
10.9675165665
  0
LINE
  5
494
100
AcDbEntity
  8
IMPORT_IGES
100
AcDbLine
 62
250
  6
CONTINUOUS
 10
-47.242744918
 20
8.4719583654
 30
0.0
 11
-46.8484081831
 21
5.3656396052
 31
0.0
  0
LINE
  5
495
100
AcDbEntity
  8
IMPORT_IGES
100
AcDbLine
 62
7
  6
CONTINUOUS
 10
-44.8248269484
 20
1.060966737
 30
0.0
 11
-44.8376005157
 21
1.5954394721
 31
0.0
  0
LINE
  5
496
100
AcDbEntity
  8
IMPORT_IGES
100
AcDbLine
 62
250
  6
CONTINUOUS
 10
-45.1565104253
 20
7.0674572038
 30
0.0
 11
-45.166216728
 21
7.5049156934
 31
0.0
  0
LINE
  5
497
100
AcDbEntity
  8
IMPORT_IGES
100
AcDbLine
 62
250
  6
CONTINUOUS
 10
-45.1447292862
 20
6.5232248422
 30
0.0
 11
-45.0431754399
 21
1.8498191121
 31
0.0
  0
LINE
  5
498
100
AcDbEntity
  8
IMPORT_IGES
100
AcDbLine
 62
7
  6
CONTINUOUS
 10
-44.8259857549
 20
1.0609398807
 30
0.0
 11
-44.966012975
 21
7.5048515371
 31
0.0
  0
LINE
  5
499
100
AcDbEntity
  8
IMPORT_IGES
100
AcDbLine
 62
250
  6
CONTINUOUS
 10
-45.1217072368
 20
-7.5861526642
 30
0.0
 11
-45.1217102106
 21
0.9356672027
 31
0.0
  0
LINE
  5
49A
100
AcDbEntity
  8
IMPORT_IGES
100
AcDbLine
 62
7
  6
CONTINUOUS
 10
-44.8217072368
 20
-7.2861203443
 30
0.0
 11
-44.8217072368
 21
0.9304316565
 31
0.0
  0
LINE
  5
49B
100
AcDbEntity
  8
IMPORT_IGES
100
AcDbLine
 62
250
  6
CONTINUOUS
 10
-44.5217072368
 20
-2.2856504934
 30
0.0
 11
-44.5217072368
 21
0.5250708286
 31
0.0
  0
LWPOLYLINE
  5
49C
100
AcDbEntity
  8
IMPORT_IGES
100
AcDbPolyline
 62
7
  6
CONTINUOUS
 90
5
 70
0
 10
-49.7940135974
 20
10.8406153711
 10
-49.8119084689
 20
10.8533296151
 10
-49.852651322
 20
10.8771600015
 10
-49.8955580596
 20
10.8956314705
 10
-49.9401862663
 20
10.9085197532
  0
LINE
  5
49D
100
AcDbEntity
  8
IMPORT_IGES
100
AcDbLine
 62
250
  6
CONTINUOUS
 10
-49.5874947997
 20
10.3145852249
 30
0.0
 11
-47.3207878896
 21
8.6064980714
 31
0.0
  0
LINE
  5
49E
100
AcDbEntity
  8
IMPORT_IGES
100
AcDbLine
 62
250
  6
CONTINUOUS
 10
-50.0128752652
 20
10.8896983078
 30
0.0
 11
-49.587494797
 21
10.5691571277
 31
0.0
  0
LINE
  5
49F
100
AcDbEntity
  8
IMPORT_IGES
100
AcDbLine
 62
7
  6
CONTINUOUS
 10
-47.1402420031
 20
8.8408529495
 30
0.0
 11
-49.7940148083
 21
10.840614195
 31
0.0
  0
LINE
  5
4A0
100
AcDbEntity
  8
IMPORT_IGES
100
AcDbLine
 62
250
  6
CONTINUOUS
 10
-47.0499718364
 20
8.9588461538
 30
0.0
 11
-47.2653495704
 21
9.1211325183
 31
0.0
  0
LINE
  5
4A1
100
AcDbEntity
  8
IMPORT_IGES
100
AcDbLine
 62
250
  6
CONTINUOUS
 10
-49.3657432892
 20
11.04929507
 30
0.0
 11
-45.4843249403
 21
8.124436553
 31
0.0
  0
LINE
  5
4A2
100
AcDbEntity
  8
IMPORT_IGES
100
AcDbLine
 62
7
  6
CONTINUOUS
 10
-45.3639628997
 20
8.2817627361
 30
0.0
 11
-49.245380308
 21
11.2066205443
 31
0.0
  0
LINE
  5
4A3
100
AcDbEntity
  8
IMPORT_IGES
100
AcDbLine
 62
250
  6
CONTINUOUS
 10
-46.9245412994
 20
8.3423093103
 30
0.0
 11
-45.1739950065
 21
6.5917630173
 31
0.0
  0
LINE
  5
4A4
100
AcDbEntity
  8
IMPORT_IGES
100
AcDbLine
 62
7
  6
CONTINUOUS
 10
-47.0418328047
 20
8.7424435281
 30
0.0
 11
-45.0325736502
 21
6.7331843736
 31
0.0
  0
LINE
  5
4A5
100
AcDbEntity
  8
IMPORT_IGES
100
AcDbLine
 62
250
  6
CONTINUOUS
 10
-45.1565104253
 20
7.0674572038
 30
0.0
 11
-46.9288376546
 21
8.8397791784
 31
0.0
  0
LINE
  5
4A6
100
AcDbEntity
  8
IMPORT_IGES
100
AcDbLine
 62
250
  6
CONTINUOUS
 10
-46.6630775644
 20
4.7098795273
 30
0.0
 11
-45.2720130206
 21
1.6329860922
 31
0.0
  0
LINE
  5
4A7
100
AcDbEntity
  8
IMPORT_IGES
100
AcDbLine
 62
7
  6
CONTINUOUS
 10
-44.9986515148
 20
1.7513367946
 30
0.0
 11
-46.3897167823
 21
4.828229297
 31
0.0
  0
LINE
  5
4A8
100
AcDbEntity
  8
IMPORT_IGES
100
AcDbLine
 62
7
  6
CONTINUOUS
 10
-46.5507976514
 20
5.3981919681
 30
0.0
 11
-46.9451311845
 21
8.5045034719
 31
0.0
  0
LINE
  5
4A9
100
AcDbEntity
  8
IMPORT_IGES
100
AcDbLine
 62
250
  6
CONTINUOUS
 10
-42.5217072368
 20
0.1143495066
 30
0.0
 11
-42.5217072368
 21
0.7143495066
 31
0.0
  0
LINE
  5
4AA
100
AcDbEntity
  8
IMPORT_IGES
100
AcDbLine
 62
250
  6
CONTINUOUS
 10
-42.1717072368
 20
-5.4909482411
 30
0.0
 11
-42.1717072368
 21
-2.4538557739
 31
0.0
  0
LINE
  5
4AB
100
AcDbEntity
  8
IMPORT_IGES
100
AcDbLine
 62
7
  6
CONTINUOUS
 10
-42.0217072368
 20
1.7143495066
 30
0.0
 11
-42.0217072368
 21
1.0363039523
 31
0.0
  0
LINE
  5
4AC
100
AcDbEntity
  8
IMPORT_IGES
100
AcDbLine
 62
7
  6
CONTINUOUS
 10
-41.9717072368
 20
-2.6699348068
 30
0.0
 11
-41.9717072368
 21
-6.6216940616
 31
0.0
  0
LINE
  5
4AD
100
AcDbEntity
  8
IMPORT_IGES
100
AcDbLine
 62
250
  6
CONTINUOUS
 10
-41.7717072368
 20
-6.8217500674
 30
0.0
 11
-41.7717072517
 21
-2.4779648413
 31
0.0
  0
LINE
  5
4AE
100
AcDbEntity
  8
RACCORDO
100
AcDbLine
 62
7
  6
CONTINUOUS
 10
-60.1717072368
 20
18.7088341831
 30
0.0
 11
-64.1474849497
 21
18.6880168694
 31
0.0
  0
LINE
  5
4AF
100
AcDbEntity
  8
IMPORT_IGES
100
AcDbLine
 62
250
  6
CONTINUOUS
 10
-41.2717072368
 20
-2.2856504934
 30
0.0
 11
-41.2717072368
 21
1.7143495066
 31
0.0
  0
LINE
  5
4B0
100
AcDbEntity
  8
IMPORT_IGES
100
AcDbLine
 62
250
  6
CONTINUOUS
 10
-41.1717072368
 20
-6.8217500674
 30
0.0
 11
-41.1717072368
 21
-2.4538557739
 31
0.0
  0
LINE
  5
4B1
100
AcDbEntity
  8
IMPORT_IGES
100
AcDbLine
 62
7
  6
CONTINUOUS
 10
-40.9717072368
 20
-6.6216939414
 30
0.0
 11
-40.9717072368
 21
-2.6538557739
 31
0.0
  0
LINE
  5
4B2
100
AcDbEntity
  8
IMPORT_IGES
100
AcDbLine
 62
7
  6
CONTINUOUS
 10
-40.9717072368
 20
-1.9856504934
 30
0.0
 11
-40.9717072368
 21
1.4143495066
 31
0.0
  0
LINE
  5
4B3
100
AcDbEntity
  8
0
100
AcDbLine
 62
7
  6
CONTINUOUS
 10
-69.7648391546
 20
-25.2116557339
 30
0.0
 11
-67.9819007912
 21
-24.6323439425
 31
0.0
  0
LINE
  5
4B4
100
AcDbEntity
  8
0
100
AcDbLine
 62
7
  6
CONTINUOUS
 10
-69.6412323568
 20
-25.5920783404
 30
0.0
 11
-66.6590499899
 21
-24.6231085517
 31
0.0
  0
LINE
  5
4B5
100
AcDbEntity
  8
RACCORDO
100
AcDbLine
 62
250
  6
CONTINUOUS
 10
-60.1717072368
 20
19.0088300708
 30
0.0
 11
-63.3112226452
 21
18.9923914563
 31
0.0
  0
LINE
  5
4B6
100
AcDbEntity
  8
RACCORDO
100
AcDbLine
 62
250
  6
CONTINUOUS
 10
-80.6717072368
 20
20.1906622871
 30
0.0
 11
-80.4260703385
 21
20.1906622871
 31
0.0
  0
LINE
  5
4B7
100
AcDbEntity
  8
0
100
AcDbLine
 62
7
  6
CONTINUOUS
 10
-69.7648391546
 20
23.9303547471
 30
0.0
 11
-67.9819007912
 21
23.3510429557
 31
0.0
  0
LINE
  5
4B8
100
AcDbEntity
  8
0
100
AcDbLine
 62
7
  6
CONTINUOUS
 10
-69.6412323568
 20
24.3107773536
 30
0.0
 11
-66.6590499899
 21
23.3418075648
 31
0.0
  0
LWPOLYLINE
  5
4B9
100
AcDbEntity
  8
0
100
AcDbPolyline
 62
7
  6
CONTINUOUS
 90
10
 70
0
 43
0.3500000006
 10
-60.3574234772
 20
43.5950370026
 10
-60.2859922943
 20
43.4521791687
 10
-60.2859922943
 20
43.3807525177
 10
-60.4288501282
 20
43.2378946838
 10
-60.5002767792
 20
43.2378946838
 10
-60.571707962
 20
43.3093213348
 10
-60.571707962
 20
43.3807525177
 10
-60.5002767792
 20
43.5236103516
 10
-60.4288501282
 20
43.5950370026
 10
-60.3574234772
 20
43.5950370026
  0
LWPOLYLINE
  5
4BA
100
AcDbEntity
  8
0
100
AcDbPolyline
 62
7
  6
CONTINUOUS
 90
10
 70
0
 43
0.3500000006
 10
-54.8431373749
 20
33.5950384827
 10
-54.771706192
 20
33.4521806488
 10
-54.771706192
 20
33.3807539978
 10
-54.9145640259
 20
33.2378961639
 10
-54.9859952087
 20
33.2378961639
 10
-55.0574218597
 20
33.3093228149
 10
-55.0574218597
 20
33.3807539978
 10
-54.9859952087
 20
33.5236072998
 10
-54.9145640259
 20
33.5950384827
 10
-54.8431373749
 20
33.5950384827
  0
LINE
  5
4BB
100
AcDbEntity
  8
RACCORDO
100
AcDbLine
 62
250
  6
CONTINUOUS
 10
-79.1891600686
 20
21.4405937488
 30
0.0
 11
-75.2674455551
 21
21.4816633485
 31
0.0
  0
LINE
  5
4BC
100
AcDbEntity
  8
RACCORDO
100
AcDbLine
 62
7
  6
CONTINUOUS
 10
-79.187414913
 20
21.6905800412
 30
0.0
 11
-75.8935429339
 21
21.7250746488
 31
0.0
  0
LINE
  5
4BD
100
AcDbEntity
  8
RACCORDO
100
AcDbLine
 62
250
  6
CONTINUOUS
 10
-75.2674455551
 20
23.0668169018
 30
0.0
 11
-69.1717072368
 21
23.1093738748
 31
0.0
  0
LINE
  5
4BE
100
AcDbEntity
  8
RACCORDO
100
AcDbLine
 62
250
  6
CONTINUOUS
 10
-69.1717072368
 20
23.1093738748
 30
0.0
 11
-60.1717072368
 21
23.0465410009
 31
0.0
  0
LINE
  5
4BF
100
AcDbEntity
  8
RACCORDO
100
AcDbLine
 62
7
  6
CONTINUOUS
 10
-75.9234516155
 20
23.3122126729
 30
0.0
 11
-69.1717072368
 21
23.3593495066
 31
0.0
  0
LINE
  5
4C0
100
AcDbEntity
  8
0
100
AcDbLine
 62
250
  6
CONTINUOUS
 10
-70.6717072368
 20
23.6450377922
 30
0.0
 11
-71.0717072368
 21
23.6450377922
 31
0.0
  0
LINE
  5
4C1
100
AcDbEntity
  8
0
100
AcDbLine
 62
7
  6
CONTINUOUS
 10
-70.3717072368
 20
23.9450377922
 30
0.0
 11
-69.8575442529
 21
23.9450377922
 31
0.0
  0
LINE
  5
4C2
100
AcDbEntity
  8
0
100
AcDbLine
 62
7
  6
CONTINUOUS
 10
-70.3717072368
 20
24.3450377922
 30
0.0
 11
-69.8575442529
 21
24.3450377922
 31
0.0
  0
LINE
  5
4C3
100
AcDbEntity
  8
RACCORDO
100
AcDbLine
 62
7
  6
CONTINUOUS
 10
-69.1717072368
 20
23.3593495066
 30
0.0
 11
-60.1717072368
 21
23.2965166327
 31
0.0
  0
LWPOLYLINE
  5
4C4
100
AcDbEntity
  8
0
100
AcDbPolyline
 62
7
  6
CONTINUOUS
 90
6
 70
0
 43
0.3500000006
 10
-59.9859922028
 20
33.0950383301
 10
-58.9145652466
 20
33.0950383301
 10
-58.7002807617
 20
33.3093228149
 10
-58.7002807617
 20
34.380754303
 10
-59.1288497314
 20
34.8093232727
 10
-59.557423233
 20
34.8093232727
  0
LWPOLYLINE
  5
4C5
100
AcDbEntity
  8
0
100
AcDbPolyline
 62
7
  6
CONTINUOUS
 90
3
 70
0
 43
0.3500000006
 10
-64.2145623322
 20
43.7378948364
 10
-65.7145627899
 20
43.7378948364
 10
-65.0717093353
 20
46.0950377655
  0
ARC
  5
4C6
100
AcDbEntity
  8
RACCORDO
100
AcDbCircle
 62
250
  6
CONTINUOUS
 10
-11.6757557566
 20
-12.7406504934
 30
0.0
 40
1.2104793071
100
AcDbArc
 50
90.0
 51
180.0
  0
ARC
  5
4C7
100
AcDbEntity
  8
RACCORDO
100
AcDbCircle
 62
250
  6
CONTINUOUS
 10
-11.6757557566
 20
-19.7406504934
 30
0.0
 40
1.2104793071
100
AcDbArc
 50
180.0
 51
270.0
  0
ARC
  5
4C8
100
AcDbEntity
  8
RACCORDO
100
AcDbCircle
 62
7
  6
CONTINUOUS
 10
-11.6757557566
 20
-19.7406504934
 30
0.0
 40
1.0104874724
100
AcDbArc
 50
180.0
 51
270.0
  0
ARC
  5
4C9
100
AcDbEntity
  8
RACCORDO
100
AcDbCircle
 62
7
  6
CONTINUOUS
 10
-11.6757557566
 20
-12.7406504934
 30
0.0
 40
1.0104874724
100
AcDbArc
 50
90.0
 51
180.0
  0
ARC
  5
4CA
100
AcDbEntity
  8
RACCORDO
100
AcDbCircle
 62
7
  6
CONTINUOUS
 10
-11.6257557566
 20
-19.6906504934
 30
0.0
 40
1.0
100
AcDbArc
 50
180.0
 51
270.0
  0
ARC
  5
4CB
100
AcDbEntity
  8
RACCORDO
100
AcDbCircle
 62
7
  6
CONTINUOUS
 10
-11.6257557566
 20
-12.7906504934
 30
0.0
 40
1.0
100
AcDbArc
 50
90.0
 51
180.0
  0
ARC
  5
4CC
100
AcDbEntity
  8
DRAFT
100
AcDbCircle
 62
7
  6
CONTINUOUS
 10
-11.6757557566
 20
-12.7406504934
 30
0.0
 40
1.0
100
AcDbArc
 50
90.0
 51
180.0
  0
ARC
  5
4CD
100
AcDbEntity
  8
DRAFT
100
AcDbCircle
 62
7
  6
CONTINUOUS
 10
-11.6757557566
 20
-19.7406504934
 30
0.0
 40
1.0
100
AcDbArc
 50
180.0
 51
270.0
  0
ARC
  5
4CE
100
AcDbEntity
  8
RACCORDO
100
AcDbCircle
 62
250
  6
CONTINUOUS
 10
-11.6257557566
 20
-19.6906504934
 30
0.0
 40
0.299999957
100
AcDbArc
 50
180.0
 51
270.0
  0
ARC
  5
4CF
100
AcDbEntity
  8
RACCORDO
100
AcDbCircle
 62
250
  6
CONTINUOUS
 10
-11.6257557566
 20
-12.7906504934
 30
0.0
 40
0.299999957
100
AcDbArc
 50
90.0
 51
180.0
  0
ARC
  5
4D0
100
AcDbEntity
  8
RACCORDO
100
AcDbCircle
 62
250
  6
CONTINUOUS
 10
-15.6508706345
 20
-22.7218528673
 30
0.0
 40
0.2500292685
100
AcDbArc
 50
180.0095943878
 51
269.9844382182
  0
ARC
  5
4D1
100
AcDbEntity
  8
RACCORDO
100
AcDbCircle
 62
250
  6
CONTINUOUS
 10
-15.7193386276
 20
-24.3480984014
 30
0.0
 40
0.2500146882
100
AcDbArc
 50
180.0044658671
 51
269.9876941966
  0
ARC
  5
4D2
100
AcDbEntity
  8
RACCORDO
100
AcDbCircle
 62
250
  6
CONTINUOUS
 10
-14.3788929562
 20
-24.3481420526
 30
0.0
 40
0.25001058
100
AcDbArc
 50
270.0046060831
 51
359.9961793314
  0
ARC
  5
4D3
100
AcDbEntity
  8
RACCORDO
100
AcDbCircle
 62
7
  6
CONTINUOUS
 10
-15.8257713706
 20
-24.3906638881
 30
0.0
 40
0.2499853193
100
AcDbArc
 50
180.002515101
 51
270.0053245382
  0
ARC
  5
4D4
100
AcDbEntity
  8
RACCORDO
100
AcDbCircle
 62
7
  6
CONTINUOUS
 10
-14.3257349906
 20
-24.3906633813
 30
0.0
 40
0.2499601959
100
AcDbArc
 50
270.0108270158
 51
0.0043506744
  0
ARC
  5
4D5
100
AcDbEntity
  8
RACCORDO
100
AcDbCircle
 62
7
  6
CONTINUOUS
 10
-7.6090219914
 20
-24.426338779
 30
0.0
 40
0.2
100
AcDbArc
 50
270.0
 51
355.0
  0
ARC
  5
4D6
100
AcDbEntity
  8
RACCORDO
100
AcDbCircle
 62
250
  6
CONTINUOUS
 10
-15.6508706345
 20
21.4405518804
 30
0.0
 40
0.2500292685
100
AcDbArc
 50
90.015561778
 51
179.990405616
  0
ARC
  5
4D7
100
AcDbEntity
  8
RACCORDO
100
AcDbCircle
 62
250
  6
CONTINUOUS
 10
-15.7193386273
 20
23.0667974147
 30
0.0
 40
0.2500146884
100
AcDbArc
 50
90.0123058799
 51
179.9955341638
  0
ARC
  5
4D8
100
AcDbEntity
  8
RACCORDO
100
AcDbCircle
 62
250
  6
CONTINUOUS
 10
-14.3788929562
 20
23.0668410657
 30
0.0
 40
0.25001058
100
AcDbArc
 50
0.0038206752
 51
89.9953939103
  0
ARC
  5
4D9
100
AcDbEntity
  8
RACCORDO
100
AcDbCircle
 62
7
  6
CONTINUOUS
 10
-15.8257713706
 20
23.1093629013
 30
0.0
 40
0.2499853193
100
AcDbArc
 50
89.9946754587
 51
179.9974849016
  0
ARC
  5
4DA
100
AcDbEntity
  8
RACCORDO
100
AcDbCircle
 62
7
  6
CONTINUOUS
 10
-14.3257349906
 20
23.1093623945
 30
0.0
 40
0.2499601959
100
AcDbArc
 50
359.9956493256
 51
89.9891729842
  0
ARC
  5
4DB
100
AcDbEntity
  8
RACCORDO
100
AcDbCircle
 62
7
  6
CONTINUOUS
 10
-7.6090219914
 20
23.1450377922
 30
0.0
 40
0.2
100
AcDbArc
 50
5.0
 51
90.0
  0
ARC
  5
4DC
100
AcDbEntity
  8
RACCORDO
100
AcDbCircle
 62
250
  6
CONTINUOUS
 10
4.3242442434
 20
-19.7406504934
 30
0.0
 40
1.2104793071
100
AcDbArc
 50
270.0
 51
360.0
  0
ARC
  5
4DD
100
AcDbEntity
  8
RACCORDO
100
AcDbCircle
 62
250
  6
CONTINUOUS
 10
4.3242442434
 20
-12.7406504934
 30
0.0
 40
1.2104793071
100
AcDbArc
 50
0.0
 51
90.0
  0
ARC
  5
4DE
100
AcDbEntity
  8
RACCORDO
100
AcDbCircle
 62
7
  6
CONTINUOUS
 10
4.3242442434
 20
-12.7406504934
 30
0.0
 40
1.0104874724
100
AcDbArc
 50
0.0
 51
90.0
  0
ARC
  5
4DF
100
AcDbEntity
  8
RACCORDO
100
AcDbCircle
 62
7
  6
CONTINUOUS
 10
4.3242442434
 20
-19.7406504934
 30
0.0
 40
1.0104874724
100
AcDbArc
 50
270.0
 51
360.0
  0
ARC
  5
4E0
100
AcDbEntity
  8
RACCORDO
100
AcDbCircle
 62
7
  6
CONTINUOUS
 10
4.2742442434
 20
-12.7906504934
 30
0.0
 40
1.0
100
AcDbArc
 50
0.0
 51
90.0
  0
ARC
  5
4E1
100
AcDbEntity
  8
RACCORDO
100
AcDbCircle
 62
7
  6
CONTINUOUS
 10
4.2742442434
 20
-19.6906504934
 30
0.0
 40
1.0
100
AcDbArc
 50
270.0
 51
360.0
  0
ARC
  5
4E2
100
AcDbEntity
  8
DRAFT
100
AcDbCircle
 62
7
  6
CONTINUOUS
 10
4.3242442434
 20
-19.7406504934
 30
0.0
 40
1.0
100
AcDbArc
 50
270.0
 51
360.0
  0
ARC
  5
4E3
100
AcDbEntity
  8
DRAFT
100
AcDbCircle
 62
7
  6
CONTINUOUS
 10
4.3242442434
 20
-12.7406504934
 30
0.0
 40
1.0
100
AcDbArc
 50
0.0
 51
90.0
  0
ARC
  5
4E4
100
AcDbEntity
  8
RACCORDO
100
AcDbCircle
 62
250
  6
CONTINUOUS
 10
4.2742442434
 20
-19.6906504934
 30
0.0
 40
0.299999957
100
AcDbArc
 50
270.0
 51
360.0
  0
ARC
  5
4E5
100
AcDbEntity
  8
RACCORDO
100
AcDbCircle
 62
250
  6
CONTINUOUS
 10
4.2742442434
 20
-12.7906504934
 30
0.0
 40
0.299999957
100
AcDbArc
 50
0.0
 51
90.0
  0
ARC
  5
4E6
100
AcDbEntity
  8
RACCORDO
100
AcDbCircle
 62
250
  6
CONTINUOUS
 10
8.299359102
 20
-22.721852848
 30
0.0
 40
0.2500292685
100
AcDbArc
 50
270.015566198
 51
359.990401196
  0
ARC
  5
4E7
100
AcDbEntity
  8
RACCORDO
100
AcDbCircle
 62
250
  6
CONTINUOUS
 10
8.3678271152
 20
-24.3480984006
 30
0.0
 40
0.2500146882
100
AcDbArc
 50
270.0123056295
 51
359.9955339372
  0
ARC
  5
4E8
100
AcDbEntity
  8
RACCORDO
100
AcDbCircle
 62
250
  6
CONTINUOUS
 10
7.027381443
 20
-24.3481420527
 30
0.0
 40
0.2500105799
100
AcDbArc
 50
180.0038206453
 51
269.9953939402
  0
ARC
  5
4E9
100
AcDbEntity
  8
RACCORDO
100
AcDbCircle
 62
7
  6
CONTINUOUS
 10
8.474259858
 20
-24.3906638876
 30
0.0
 40
0.2499853193
100
AcDbArc
 50
269.9946753366
 51
359.9974847738
  0
ARC
  5
4EA
100
AcDbEntity
  8
RACCORDO
100
AcDbCircle
 62
7
  6
CONTINUOUS
 10
6.9742219756
 20
-24.3906637795
 30
0.0
 40
0.2499586941
100
AcDbArc
 50
179.9955580396
 51
269.9829860381
  0
ARC
  5
4EB
100
AcDbEntity
  8
RACCORDO
100
AcDbCircle
 62
7
  6
CONTINUOUS
 10
0.2575104782
 20
-24.426338779
 30
0.0
 40
0.2
100
AcDbArc
 50
185.0
 51
270.0
  0
ARC
  5
4EC
100
AcDbEntity
  8
RACCORDO
100
AcDbCircle
 62
250
  6
CONTINUOUS
 10
8.299359102
 20
21.4405518611
 30
0.0
 40
0.2500292685
100
AcDbArc
 50
0.0095988083
 51
89.9844337976
  0
ARC
  5
4ED
100
AcDbEntity
  8
RACCORDO
100
AcDbCircle
 62
250
  6
CONTINUOUS
 10
8.3678271146
 20
23.0667974142
 30
0.0
 40
0.2500146883
100
AcDbArc
 50
0.0044659469
 51
89.987694233
  0
ARC
  5
4EE
100
AcDbEntity
  8
RACCORDO
100
AcDbCircle
 62
250
  6
CONTINUOUS
 10
7.0273814431
 20
23.0668410657
 30
0.0
 40
0.2500105801
100
AcDbArc
 50
90.0046060844
 51
179.9961793062
  0
ARC
  5
4EF
100
AcDbEntity
  8
RACCORDO
100
AcDbCircle
 62
7
  6
CONTINUOUS
 10
8.4742598585
 20
23.1093629003
 30
0.0
 40
0.2499853193
100
AcDbArc
 50
0.0025153363
 51
90.0053247791
  0
ARC
  5
4F0
100
AcDbEntity
  8
RACCORDO
100
AcDbCircle
 62
7
  6
CONTINUOUS
 10
6.9742219756
 20
23.1093627926
 30
0.0
 40
0.2499586941
100
AcDbArc
 50
90.0170139619
 51
180.0044419604
  0
ARC
  5
4F1
100
AcDbEntity
  8
RACCORDO
100
AcDbCircle
 62
7
  6
CONTINUOUS
 10
0.2575104782
 20
23.1450377922
 30
0.0
 40
0.2
100
AcDbArc
 50
90.0
 51
175.0
  0
ARC
  5
4F2
100
AcDbEntity
  8
RACCORDO
100
AcDbCircle
 62
7
  6
CONTINUOUS
 10
-79.1717072368
 20
-21.471963274
 30
0.0
 40
1.5
100
AcDbArc
 50
180.0
 51
269.4
  0
ARC
  5
4F3
100
AcDbEntity
  8
RACCORDO
100
AcDbCircle
 62
250
  6
CONTINUOUS
 10
-79.1760423453
 20
-21.4719355724
 30
0.0
 40
1.2500279935
100
AcDbArc
 50
180.0012697169
 51
269.3987302831
  0
ARC
  5
4F4
100
AcDbEntity
  8
RACCORDO
100
AcDbCircle
 62
7
  6
CONTINUOUS
 10
-80.9717072368
 20
-12.4906504934
 30
0.0
 40
0.7
100
AcDbArc
 50
90.0
 51
180.0
  0
ARC
  5
4F5
100
AcDbEntity
  8
RACCORDO
100
AcDbCircle
 62
7
  6
CONTINUOUS
 10
-80.9717072368
 20
-19.9906504934
 30
0.0
 40
0.7
100
AcDbArc
 50
180.0
 51
270.0
  0
ARC
  5
4F6
100
AcDbEntity
  8
RACCORDO
100
AcDbCircle
 62
7
  6
CONTINUOUS
 10
-75.9217070908
 20
-24.3435197466
 30
0.0
 40
0.25
100
AcDbArc
 50
180.0000001734
 51
269.6
  0
ARC
  5
4F7
100
AcDbEntity
  8
0
100
AcDbCircle
 62
7
  6
CONTINUOUS
 10
-69.8575442529
 20
-24.926338779
 30
0.0
 40
0.7
100
AcDbArc
 50
270.0
 51
288.0
  0
ARC
  5
4F8
100
AcDbEntity
  8
0
100
AcDbCircle
 62
7
  6
CONTINUOUS
 10
-70.3717072368
 20
-24.926338779
 30
0.0
 40
0.7
100
AcDbArc
 50
180.0
 51
270.0
  0
ARC
  5
4F9
100
AcDbEntity
  8
IMPORT_IGES
100
AcDbCircle
 62
7
  6
CONTINUOUS
 10
-64.9717072368
 20
-8.0763877056
 30
0.0
 40
0.3
100
AcDbArc
 50
180.0
 51
237.4051679367
  0
ARC
  5
4FA
100
AcDbEntity
  8
0
100
AcDbCircle
 62
7
  6
CONTINUOUS
 10
-69.8575442529
 20
-24.926338779
 30
0.0
 40
0.3
100
AcDbArc
 50
270.0
 51
288.0
  0
ARC
  5
4FB
100
AcDbEntity
  8
0
100
AcDbCircle
 62
7
  6
CONTINUOUS
 10
-70.3717072368
 20
-24.926338779
 30
0.0
 40
0.3
100
AcDbArc
 50
180.0
 51
270.0
  0
ARC
  5
4FC
100
AcDbEntity
  8
RACCORDO
100
AcDbCircle
 62
7
  6
CONTINUOUS
 10
-69.1217072368
 20
-7.9380249086
 30
0.0
 40
0.25
100
AcDbArc
 50
270.3
 51
360.0
  0
ARC
  5
4FD
100
AcDbEntity
  8
RACCORDO
100
AcDbCircle
 62
7
  6
CONTINUOUS
 10
-69.1217072368
 20
-7.4906504934
 30
0.0
 40
0.25
100
AcDbArc
 50
0.0
 51
90.0
  0
ARC
  5
4FE
100
AcDbEntity
  8
RACCORDO
100
AcDbCircle
 62
7
  6
CONTINUOUS
 10
-69.1217072368
 20
-9.9029359525
 30
0.0
 40
0.25
100
AcDbArc
 50
270.5
 51
360.0
  0
ARC
  5
4FF
100
AcDbEntity
  8
RACCORDO
100
AcDbCircle
 62
7
  6
CONTINUOUS
 10
-69.1217072368
 20
1.1470640475
 30
0.0
 40
0.25
100
AcDbArc
 50
270.5
 51
360.0
  0
ARC
  5
500
100
AcDbEntity
  8
RACCORDO
100
AcDbCircle
 62
7
  6
CONTINUOUS
 10
-69.1217072368
 20
1.4716349657
 30
0.0
 40
0.25
100
AcDbArc
 50
0.0
 51
90.0
  0
ARC
  5
501
100
AcDbEntity
  8
RACCORDO
100
AcDbCircle
 62
7
  6
CONTINUOUS
 10
-69.1217072368
 20
-5.5783650343
 30
0.0
 40
0.25
100
AcDbArc
 50
0.0
 51
89.5
  0
ARC
  5
502
100
AcDbEntity
  8
IMPORT_IGES
100
AcDbCircle
 62
7
  6
CONTINUOUS
 10
-67.4866049033
 20
-4.8406504934
 30
0.0
 40
0.2
100
AcDbArc
 50
231.6869093262
 51
270.0
  0
ARC
  5
503
100
AcDbEntity
  8
IMPORT_IGES
100
AcDbCircle
 62
7
  6
CONTINUOUS
 10
-68.6217072368
 20
-3.9437795138
 30
0.0
 40
0.2
100
AcDbArc
 50
180.0
 51
231.6869093257
  0
ARC
  5
504
100
AcDbEntity
  8
RACCORDO
100
AcDbCircle
 62
7
  6
CONTINUOUS
 10
-69.1217072368
 20
12.1619750914
 30
0.0
 40
0.25
100
AcDbArc
 50
270.3
 51
360.0
  0
ARC
  5
505
100
AcDbEntity
  8
RACCORDO
100
AcDbCircle
 62
7
  6
CONTINUOUS
 10
-69.1217072368
 20
12.5216349657
 30
0.0
 40
0.25
100
AcDbArc
 50
0.0
 51
90.0
  0
ARC
  5
506
100
AcDbEntity
  8
RACCORDO
100
AcDbCircle
 62
7
  6
CONTINUOUS
 10
-69.1217072368
 20
8.1970640475
 30
0.0
 40
0.25
100
AcDbArc
 50
270.5
 51
360.0
  0
ARC
  5
507
100
AcDbEntity
  8
RACCORDO
100
AcDbCircle
 62
7
  6
CONTINUOUS
 10
-69.1217072368
 20
8.5216349657
 30
0.0
 40
0.25
100
AcDbArc
 50
0.0
 51
89.5
  0
ARC
  5
508
100
AcDbEntity
  8
IMPORT_IGES
100
AcDbCircle
 62
7
  6
CONTINUOUS
 10
-67.4866049033
 20
6.4593495066
 30
0.0
 40
0.2
100
AcDbArc
 50
90.0
 51
128.3130906738
  0
ARC
  5
509
100
AcDbEntity
  8
IMPORT_IGES
100
AcDbCircle
 62
7
  6
CONTINUOUS
 10
-68.6217072368
 20
5.562478527
 30
0.0
 40
0.2
100
AcDbArc
 50
128.3130906738
 51
180.0
  0
ARC
  5
50A
100
AcDbEntity
  8
IMPORT_IGES
100
AcDbCircle
 62
7
  6
CONTINUOUS
 10
-64.9717072368
 20
-2.8089876017
 30
0.0
 40
0.3
100
AcDbArc
 50
119.9621840985
 51
180.0
  0
ARC
  5
50B
100
AcDbEntity
  8
IMPORT_IGES
100
AcDbCircle
 62
7
  6
CONTINUOUS
 10
-64.7717072368
 20
8.9522427254
 30
0.0
 40
0.5
100
AcDbArc
 50
135.0026207296
 51
179.9999449478
  0
ARC
  5
50C
100
AcDbEntity
  8
IMPORT_IGES
100
AcDbCircle
 62
7
  6
CONTINUOUS
 10
-63.6146004557
 20
10.1093495066
 30
0.0
 40
0.5
100
AcDbArc
 50
90.0000025555
 51
134.9974856792
  0
ARC
  5
50D
100
AcDbEntity
  8
IMPORT_IGES
100
AcDbCircle
 62
7
  6
CONTINUOUS
 10
-64.9717072368
 20
4.4542066203
 30
0.0
 40
0.3
100
AcDbArc
 50
180.0
 51
239.036243468
  0
ARC
  5
50E
100
AcDbEntity
  8
IMPORT_IGES
100
AcDbCircle
 62
250
  6
CONTINUOUS
 10
-139.965122545
 20
60.7379654314
 30
0.0
 40
94.7622956757
100
AcDbArc
 50
328.1095375459
 51
328.3413999646
  0
ARC
  5
50F
100
AcDbEntity
  8
RACCORDO
100
AcDbCircle
 62
7
  6
CONTINUOUS
 10
-79.1717072368
 20
20.1906622871
 30
0.0
 40
1.5
100
AcDbArc
 50
90.6
 51
180.0
  0
ARC
  5
510
100
AcDbEntity
  8
RACCORDO
100
AcDbCircle
 62
250
  6
CONTINUOUS
 10
-79.1760424192
 20
20.1906346587
 30
0.0
 40
1.2500279196
100
AcDbArc
 50
90.6012663661
 51
179.9987336339
  0
ARC
  5
511
100
AcDbEntity
  8
0
100
AcDbCircle
 62
7
  6
CONTINUOUS
 10
-69.8575442529
 20
23.6450377922
 30
0.0
 40
0.7
100
AcDbArc
 50
72.0
 51
90.0
  0
ARC
  5
512
100
AcDbEntity
  8
0
100
AcDbCircle
 62
7
  6
CONTINUOUS
 10
-70.3717072368
 20
23.6450377922
 30
0.0
 40
0.7
100
AcDbArc
 50
90.0
 51
180.0
  0
ARC
  5
513
100
AcDbEntity
  8
0
100
AcDbCircle
 62
7
  6
CONTINUOUS
 10
-69.8575442529
 20
23.6450377922
 30
0.0
 40
0.3
100
AcDbArc
 50
72.0
 51
90.0
  0
ARC
  5
514
100
AcDbEntity
  8
0
100
AcDbCircle
 62
7
  6
CONTINUOUS
 10
-70.3717072368
 20
23.6450377922
 30
0.0
 40
0.3
100
AcDbArc
 50
90.0
 51
180.0
  0
ARC
  5
515
100
AcDbEntity
  8
RACCORDO
100
AcDbCircle
 62
7
  6
CONTINUOUS
 10
-75.9217067439
 20
23.0622187621
 30
0.0
 40
0.25
100
AcDbArc
 50
90.4
 51
179.9999994144
  0
ARC
  5
516
100
AcDbEntity
  8
RACCORDO
100
AcDbCircle
 62
7
  6
CONTINUOUS
 10
-69.1217072368
 20
14.4216349657
 30
0.0
 40
0.25
100
AcDbArc
 50
0.0
 51
89.5
  0
ARC
  5
517
100
AcDbEntity
  8
IMPORT_IGES
100
AcDbCircle
 62
7
  6
CONTINUOUS
 10
-59.7217072368
 20
-10.3906504934
 30
0.0
 40
0.1
100
AcDbArc
 50
179.9999995539
 51
269.9985367325
  0
ARC
  5
518
100
AcDbEntity
  8
IMPORT_IGES
100
AcDbCircle
 62
7
  6
CONTINUOUS
 10
-53.0217072368
 20
-10.3906504934
 30
0.0
 40
0.1
100
AcDbArc
 50
179.9999995539
 51
269.9985367325
  0
ARC
  5
519
100
AcDbEntity
  8
IMPORT_IGES
100
AcDbCircle
 62
7
  6
CONTINUOUS
 10
-59.2217072368
 20
-10.3906504934
 30
0.0
 40
0.1
100
AcDbArc
 50
270.001296179
 51
360.0
  0
ARC
  5
51A
100
AcDbEntity
  8
IMPORT_IGES
100
AcDbCircle
 62
7
  6
CONTINUOUS
 10
-59.0217072368
 20
-10.3906504934
 30
0.0
 40
0.1
100
AcDbArc
 50
90.0000007302
 51
180.0000000001
  0
ARC
  5
51B
100
AcDbEntity
  8
IMPORT_IGES
100
AcDbCircle
 62
7
  6
CONTINUOUS
 10
-59.9217072368
 20
-10.3906504934
 30
0.0
 40
0.1
100
AcDbArc
 50
0.0000000008
 51
90.0000489297
  0
ARC
  5
51C
100
AcDbEntity
  8
IMPORT_IGES
100
AcDbCircle
 62
7
  6
CONTINUOUS
 10
-52.5217072368
 20
-10.3906504934
 30
0.0
 40
0.1
100
AcDbArc
 50
270.001296179
 51
360.0
  0
ARC
  5
51D
100
AcDbEntity
  8
IMPORT_IGES
100
AcDbCircle
 62
7
  6
CONTINUOUS
 10
-52.3217072368
 20
-10.3906504934
 30
0.0
 40
0.1
100
AcDbArc
 50
90.0000007302
 51
180.0000000001
  0
ARC
  5
51E
100
AcDbEntity
  8
IMPORT_IGES
100
AcDbCircle
 62
7
  6
CONTINUOUS
 10
-53.2217072368
 20
-10.3906504934
 30
0.0
 40
0.1
100
AcDbArc
 50
0.0000000008
 51
90.0000488725
  0
ARC
  5
51F
100
AcDbEntity
  8
IMPORT_IGES
100
AcDbCircle
 62
7
  6
CONTINUOUS
 10
-62.6985187804
 20
9.909378507
 30
0.0
 40
2.0
100
AcDbArc
 50
29.0543979959
 51
90.0
  0
ARC
  5
520
100
AcDbEntity
  8
IMPORT_IGES
100
AcDbCircle
 62
7
  6
CONTINUOUS
 10
-58.9349724642
 20
11.4907844429
 30
0.0
 40
0.1185765694
100
AcDbArc
 50
96.700938551
 51
103.3450187372
  0
ARC
  5
521
100
AcDbEntity
  8
IMPORT_IGES
100
AcDbCircle
 62
7
  6
CONTINUOUS
 10
-58.934764252
 20
11.4916641612
 30
0.0
 40
0.117880905
100
AcDbArc
 50
136.6911729188
 51
149.9217281628
  0
ARC
  5
522
100
AcDbEntity
  8
IMPORT_IGES
100
AcDbCircle
 62
7
  6
CONTINUOUS
 10
-58.9351853636
 20
11.4927375605
 30
0.0
 40
0.1166119526
100
AcDbArc
 50
90.0194299189
 51
96.7090251387
  0
ARC
  5
523
100
AcDbEntity
  8
IMPORT_IGES
100
AcDbCircle
 62
7
  6
CONTINUOUS
 10
-57.7344872373
 20
11.7093495066
 30
0.0
 40
0.1
100
AcDbArc
 50
359.9999998326
 51
89.9934060556
  0
ARC
  5
524
100
AcDbEntity
  8
IMPORT_IGES
100
AcDbCircle
 62
7
  6
CONTINUOUS
 10
-58.2344872368
 20
11.7093495066
 30
0.0
 40
0.1
100
AcDbArc
 50
90.0063659942
 51
180.0000000002
  0
ARC
  5
525
100
AcDbEntity
  8
IMPORT_IGES
100
AcDbCircle
 62
7
  6
CONTINUOUS
 10
-52.5348482368
 20
11.7093495066
 30
0.0
 40
0.1
100
AcDbArc
 50
90.0065541164
 51
180.0000000002
  0
ARC
  5
526
100
AcDbEntity
  8
IMPORT_IGES
100
AcDbCircle
 62
7
  6
CONTINUOUS
 10
-58.4344872368
 20
11.7093495066
 30
0.0
 40
0.1
100
AcDbArc
 50
270.0000000035
 51
359.9999998323
  0
ARC
  5
527
100
AcDbEntity
  8
IMPORT_IGES
100
AcDbCircle
 62
7
  6
CONTINUOUS
 10
-57.5344872368
 20
11.7093495066
 30
0.0
 40
0.1
100
AcDbArc
 50
180.0000001679
 51
269.9989146356
  0
ARC
  5
528
100
AcDbEntity
  8
IMPORT_IGES
100
AcDbCircle
 62
7
  6
CONTINUOUS
 10
-52.7348482368
 20
11.7093495066
 30
0.0
 40
0.1
100
AcDbArc
 50
270.0000000035
 51
359.9999998321
  0
ARC
  5
529
100
AcDbEntity
  8
IMPORT_IGES
100
AcDbCircle
 62
7
  6
CONTINUOUS
 10
-51.8348482368
 20
11.7093495066
 30
0.0
 40
0.1
100
AcDbArc
 50
180.0000001669
 51
269.9989146326
  0
ARC
  5
52A
100
AcDbEntity
  8
IMPORT_IGES
100
AcDbCircle
 62
7
  6
CONTINUOUS
 10
-52.0348482368
 20
11.7093495066
 30
0.0
 40
0.1
100
AcDbArc
 50
359.9999998329
 51
89.9934392114
  0
ARC
  5
52B
100
AcDbEntity
  8
IMPORT_IGES
100
AcDbCircle
 62
250
  6
CONTINUOUS
 10
-58.9805654919
 20
11.4873765751
 30
0.0
 40
0.0803595449
100
AcDbArc
 50
141.5811639842
 51
150.0032157245
  0
ARC
  5
52C
100
AcDbEntity
  8
IMPORT_IGES
100
AcDbCircle
 62
7
  6
CONTINUOUS
 10
-45.4717072368
 20
-6.9909482411
 30
0.0
 40
1.5
100
AcDbArc
 50
145.7316915939
 51
179.9988821068
  0
ARC
  5
52D
100
AcDbEntity
  8
IMPORT_IGES
100
AcDbCircle
 62
7
  6
CONTINUOUS
 10
-47.4717072368
 20
-7.0835437122
 30
0.0
 40
0.5
100
AcDbArc
 50
315.0000000296
 51
360.0
  0
ARC
  5
52E
100
AcDbEntity
  8
IMPORT_IGES
100
AcDbCircle
 62
7
  6
CONTINUOUS
 10
-50.178814018
 20
-9.7906504934
 30
0.0
 40
0.5
100
AcDbArc
 50
270.0
 51
314.9999999775
  0
ARC
  5
52F
100
AcDbEntity
  8
IMPORT_IGES
100
AcDbCircle
 62
250
  6
CONTINUOUS
 10
-50.5239936701
 20
-10.3697748538
 30
0.0
 40
0.4204946202
100
AcDbArc
 50
90.3744482014
 51
101.0486714639
  0
ARC
  5
530
100
AcDbEntity
  8
IMPORT_IGES
100
AcDbCircle
 62
250
  6
CONTINUOUS
 10
-50.178814018
 20
-9.7906504934
 30
0.0
 40
0.3
100
AcDbArc
 50
270.0
 51
313.6309534759
  0
ARC
  5
531
100
AcDbEntity
  8
IMPORT_IGES
100
AcDbCircle
 62
7
  6
CONTINUOUS
 10
-45.4717072368
 20
-5.2904783443
 30
0.0
 40
1.5
100
AcDbArc
 50
180.0
 51
209.489067492
  0
ARC
  5
532
100
AcDbEntity
  8
IMPORT_IGES
100
AcDbCircle
 62
250
  6
CONTINUOUS
 10
-39.915579066
 20
-6.8621532405
 30
0.0
 40
7.0741096203
100
AcDbArc
 50
170.91087175
 51
171.1608175135
  0
ARC
  5
533
100
AcDbEntity
  8
IMPORT_IGES
100
AcDbCircle
 62
250
  6
CONTINUOUS
 10
-42.2156452835
 20
-6.5848157679
 30
0.0
 40
4.7566331153
100
AcDbArc
 50
175.5519620997
 51
176.9409384138
  0
ARC
  5
534
100
AcDbEntity
  8
IMPORT_IGES
100
AcDbCircle
 62
250
  6
CONTINUOUS
 10
-44.5557241577
 20
-6.5992191374
 30
0.0
 40
2.4185256281
100
AcDbArc
 50
162.2567460543
 51
171.2651823566
  0
ARC
  5
535
100
AcDbEntity
  8
IMPORT_IGES
100
AcDbCircle
 62
250
  6
CONTINUOUS
 10
-44.6677000773
 20
-6.5790492056
 30
0.0
 40
2.3047872574
100
AcDbArc
 50
171.3380496302
 51
172.4828180327
  0
ARC
  5
536
100
AcDbEntity
  8
IMPORT_IGES
100
AcDbCircle
 62
250
  6
CONTINUOUS
 10
-44.7245830759
 20
-6.571861733
 30
0.0
 40
2.2474528617
100
AcDbArc
 50
172.4747637736
 51
175.4270026212
  0
ARC
  5
537
100
AcDbEntity
  8
IMPORT_IGES
100
AcDbCircle
 62
7
  6
CONTINUOUS
 10
-45.1217072368
 20
-7.286152665
 30
0.0
 40
0.3
100
AcDbArc
 50
270.0000000003
 51
0.0031980645
  0
ARC
  5
538
100
AcDbEntity
  8
IMPORT_IGES
100
AcDbCircle
 62
7
  6
CONTINUOUS
 10
-41.7717072368
 20
-6.6217500674
 30
0.0
 40
0.2
100
AcDbArc
 50
179.9839555172
 51
269.9999999999
  0
ARC
  5
539
100
AcDbEntity
  8
IMPORT_IGES
100
AcDbCircle
 62
7
  6
CONTINUOUS
 10
-41.1717072368
 20
-6.6217500674
 30
0.0
 40
0.2
100
AcDbArc
 50
269.9999999991
 51
0.0160444831
  0
ARC
  5
53A
100
AcDbEntity
  8
IMPORT_IGES
100
AcDbCircle
 62
7
  6
CONTINUOUS
 10
-41.2717072368
 20
-1.9856504934
 30
0.0
 40
0.3
100
AcDbArc
 50
270.0
 51
359.9999999999
  0
ARC
  5
53B
100
AcDbEntity
  8
IMPORT_IGES
100
AcDbCircle
 62
7
  6
CONTINUOUS
 10
-44.5217072368
 20
-2.5856504934
 30
0.0
 40
0.3
100
AcDbArc
 50
89.9999999995
 51
179.9999999983
  0
ARC
  5
53C
100
AcDbEntity
  8
IMPORT_IGES
100
AcDbCircle
 62
7
  6
CONTINUOUS
 10
-42.1717072368
 20
-5.6909482411
 30
0.0
 40
0.2
100
AcDbArc
 50
0.0005279882
 51
90.0000000006
  0
ARC
  5
53D
100
AcDbEntity
  8
IMPORT_IGES
100
AcDbCircle
 62
7
  6
CONTINUOUS
 10
-41.1717072368
 20
-2.6538557739
 30
0.0
 40
0.2
100
AcDbArc
 50
0.0
 51
90.0000000001
  0
ARC
  5
53E
100
AcDbEntity
  8
IMPORT_IGES
100
AcDbCircle
 62
7
  6
CONTINUOUS
 10
-46.8144102649
 20
0.9304314897
 30
0.0
 40
1.9927030281
100
AcDbArc
 50
0.0000047949
 51
24.3276976851
  0
ARC
  5
53F
100
AcDbEntity
  8
IMPORT_IGES
100
AcDbCircle
 62
250
  6
CONTINUOUS
 10
-46.8303349688
 20
0.9322414843
 30
0.0
 40
1.7086281923
100
AcDbArc
 50
0.1148753948
 51
24.2124472725
  0
ARC
  5
540
100
AcDbEntity
  8
IMPORT_IGES
100
AcDbCircle
 62
7
  6
CONTINUOUS
 10
-50.4490103309
 20
9.6093495066
 30
0.0
 40
2.0
100
AcDbArc
 50
53.0000001029
 51
90.0006687305
  0
ARC
  5
541
100
AcDbEntity
  8
IMPORT_IGES
100
AcDbCircle
 62
250
  6
CONTINUOUS
 10
-50.4839767493
 20
11.7638129532
 30
0.0
 40
0.8742314182
100
AcDbArc
 50
266.1839283476
 51
269.0635167819
  0
ARC
  5
542
100
AcDbEntity
  8
IMPORT_IGES
100
AcDbCircle
 62
250
  6
CONTINUOUS
 10
-50.4909667469
 20
11.6616626679
 30
0.0
 40
0.7718424258
100
AcDbArc
 50
263.0753037066
 51
266.196994122
  0
ARC
  5
543
100
AcDbEntity
  8
IMPORT_IGES
100
AcDbCircle
 62
250
  6
CONTINUOUS
 10
-50.5053688835
 20
11.5445607288
 30
0.0
 40
0.6538583252
100
AcDbArc
 50
259.560842482
 51
263.0909640269
  0
ARC
  5
544
100
AcDbEntity
  8
IMPORT_IGES
100
AcDbCircle
 62
7
  6
CONTINUOUS
 10
-47.4411504199
 20
8.4415358767
 30
0.0
 40
0.5
100
AcDbArc
 50
7.2347655619
 51
52.999663288
  0
ARC
  5
545
100
AcDbEntity
  8
IMPORT_IGES
100
AcDbCircle
 62
250
  6
CONTINUOUS
 10
-50.9069395453
 20
11.3389767786
 30
0.0
 40
0.2301804701
100
AcDbArc
 50
83.7352037812
 51
90.0559723781
  0
ARC
  5
546
100
AcDbEntity
  8
IMPORT_IGES
100
AcDbCircle
 62
7
  6
CONTINUOUS
 10
-50.9072026028
 20
11.4093495066
 30
0.0
 40
0.2
100
AcDbArc
 50
0.2527618433
 51
89.9988817169
  0
ARC
  5
547
100
AcDbEntity
  8
IMPORT_IGES
100
AcDbCircle
 62
250
  6
CONTINUOUS
 10
-44.5188679636
 20
1.005156352
 30
0.0
 40
0.313196016
100
AcDbArc
 50
215.2711674381
 51
221.5383241918
  0
ARC
  5
548
100
AcDbEntity
  8
IMPORT_IGES
100
AcDbCircle
 62
250
  6
CONTINUOUS
 10
-44.5227918703
 20
1.0137708599
 30
0.0
 40
0.3051434748
100
AcDbArc
 50
255.8344651005
 51
262.9582833625
  0
ARC
  5
549
100
AcDbEntity
  8
IMPORT_IGES
100
AcDbCircle
 62
250
  6
CONTINUOUS
 10
-44.5265847584
 20
0.9998374822
 30
0.0
 40
0.3038244631
100
AcDbArc
 50
208.7816715268
 51
215.2925833914
  0
ARC
  5
54A
100
AcDbEntity
  8
IMPORT_IGES
100
AcDbCircle
 62
250
  6
CONTINUOUS
 10
-44.521045169
 20
1.0101443789
 30
0.0
 40
0.3031325344
100
AcDbArc
 50
212.4618084941
 51
219.5897923421
  0
ARC
  5
54B
100
AcDbEntity
  8
IMPORT_IGES
100
AcDbCircle
 62
250
  6
CONTINUOUS
 10
-44.5230633602
 20
1.0102360924
 30
0.0
 40
0.3016021315
100
AcDbArc
 50
262.9271485699
 51
270.0167372905
  0
ARC
  5
54C
100
AcDbEntity
  8
IMPORT_IGES
100
AcDbCircle
 62
7
  6
CONTINUOUS
 10
-44.5232435444
 20
1.0143495066
 30
0.0
 40
0.3
100
AcDbArc
 50
182.0976211818
 51
269.9998766406
  0
ARC
  5
54D
100
AcDbEntity
  8
IMPORT_IGES
100
AcDbCircle
 62
250
  6
CONTINUOUS
 10
-44.5245131491
 20
1.0081018732
 30
0.0
 40
0.2991101712
100
AcDbArc
 50
205.0883015713
 51
212.4882489655
  0
ARC
  5
54E
100
AcDbEntity
  8
IMPORT_IGES
100
AcDbCircle
 62
250
  6
CONTINUOUS
 10
-44.5260575424
 20
1.0060431801
 30
0.0
 40
0.2969068416
100
AcDbArc
 50
189.5527149784
 51
197.211629743
  0
ARC
  5
54F
100
AcDbEntity
  8
IMPORT_IGES
100
AcDbCircle
 62
250
  6
CONTINUOUS
 10
-44.5278203819
 20
1.0058105375
 30
0.0
 40
0.2951298453
100
AcDbArc
 50
181.9241184974
 51
189.5649719152
  0
ARC
  5
550
100
AcDbEntity
  8
IMPORT_IGES
100
AcDbCircle
 62
250
  6
CONTINUOUS
 10
-44.5341839103
 20
0.9954055583
 30
0.0
 40
0.2950303379
100
AcDbArc
 50
201.9629791938
 51
208.7378557465
  0
ARC
  5
551
100
AcDbEntity
  8
IMPORT_IGES
100
AcDbCircle
 62
250
  6
CONTINUOUS
 10
-44.5326614808
 20
1.0040204601
 30
0.0
 40
0.2900001127
100
AcDbArc
 50
197.2159721653
 51
205.0406190752
  0
ARC
  5
552
100
AcDbEntity
  8
IMPORT_IGES
100
AcDbCircle
 62
250
  6
CONTINUOUS
 10
-44.5743398477
 20
5.6542667097
 30
0.0
 40
2.2923115843
100
AcDbArc
 50
187.2333644028
 51
204.3292941278
  0
ARC
  5
553
100
AcDbEntity
  8
IMPORT_IGES
100
AcDbCircle
 62
7
  6
CONTINUOUS
 10
-44.5739586397
 20
5.6491359456
 30
0.0
 40
1.992703028
100
AcDbArc
 50
187.2345488903
 51
204.3277884814
  0
ARC
  5
554
100
AcDbEntity
  8
IMPORT_IGES
100
AcDbCircle
 62
7
  6
CONTINUOUS
 10
-42.5217072368
 20
1.2143495066
 30
0.0
 40
0.5
100
AcDbArc
 50
270.0000000002
 51
353.9778369184
  0
ARC
  5
555
100
AcDbEntity
  8
IMPORT_IGES
100
AcDbCircle
 62
7
  6
CONTINUOUS
 10
-41.2717072368
 20
1.4143495066
 30
0.0
 40
0.3
100
AcDbArc
 50
0.0
 51
90.0000000003
  0
ARC
  5
556
100
AcDbEntity
  8
IMPORT_IGES
100
AcDbCircle
 62
7
  6
CONTINUOUS
 10
-45.9657769588
 20
7.4831264996
 30
0.0
 40
1.0
100
AcDbArc
 50
1.2448503125
 51
53.000289763
  0
ARC
  5
557
100
AcDbEntity
  8
IMPORT_IGES
100
AcDbCircle
 62
250
  6
CONTINUOUS
 10
-45.7151701317
 20
6.5109345308
 30
0.0
 40
0.7705732253
100
AcDbArc
 50
1.2380106591
 51
9.7633427504
  0
ARC
  5
558
100
AcDbEntity
  8
IMPORT_IGES
100
AcDbCircle
 62
250
  6
CONTINUOUS
 10
-45.5008787875
 20
6.5658343966
 30
0.0
 40
0.5489492685
100
AcDbArc
 50
22.6272139423
 51
26.0780483889
  0
ARC
  5
559
100
AcDbEntity
  8
IMPORT_IGES
100
AcDbCircle
 62
250
  6
CONTINUOUS
 10
-45.4942606915
 20
6.5690379878
 30
0.0
 40
0.5415966388
100
AcDbArc
 50
26.0814156391
 51
29.5055422743
  0
ARC
  5
55A
100
AcDbEntity
  8
IMPORT_IGES
100
AcDbCircle
 62
7
  6
CONTINUOUS
 10
-45.2447056845
 20
6.5210523392
 30
0.0
 40
0.3
100
AcDbArc
 50
1.2448504427
 51
45.0000000017
  0
ARC
  5
55B
100
AcDbEntity
  8
IMPORT_IGES
100
AcDbCircle
 62
250
  6
CONTINUOUS
 10
-45.2477406398
 20
6.5197564168
 30
0.0
 40
0.1030697286
100
AcDbArc
 50
1.9284387393
 51
44.3164117168
  0
ARC
  5
55C
100
AcDbEntity
  8
IMPORT_IGES
100
AcDbCircle
 62
250
  6
CONTINUOUS
 10
14.2739808871
 20
-34.2143099281
 30
0.0
 40
86.3608553284
100
AcDbArc
 50
148.0756549024
 51
148.3416247571
  0
ARC
  5
55D
100
AcDbEntity
  8
IMPORT_IGES
100
AcDbCircle
 62
250
  6
CONTINUOUS
 10
-9.4528797232
 20
11.5922049472
 30
0.0
 40
41.4537987577
100
AcDbArc
 50
180.0318518527
 51
180.6518024103
  0
ARC
  5
55E
100
AcDbEntity
  8
IMPORT_IGES
100
AcDbCircle
 62
7
  6
CONTINUOUS
 10
-9.452994586
 20
11.5922024257
 30
0.0
 40
41.2546112934
100
AcDbArc
 50
180.2527278577
 51
180.8911979751
  0
ARC
  5
55F
100
AcDbEntity
  8
IMPORT_IGES
100
AcDbCircle
 62
7
  6
CONTINUOUS
 10
-9.3239994117
 20
11.5925552333
 30
0.0
 40
41.1836356493
100
AcDbArc
 50
180.2520649206
 51
180.9406696752
  0
ARC
  5
560
100
AcDbEntity
  8
IMPORT_IGES
100
AcDbCircle
 62
250
  6
CONTINUOUS
 10
-9.4756935634
 20
-10.3487483427
 30
0.0
 40
41.0546112937
100
AcDbArc
 50
179.524200648
 51
179.6397967347
  0
ARC
  5
561
100
AcDbEntity
  8
IMPORT_IGES
100
AcDbCircle
 62
250
  6
CONTINUOUS
 10
-61.015657217
 20
19.4793813308
 30
0.0
 40
17.2152327385
100
AcDbArc
 50
322.7552103633
 51
323.0089078246
  0
SPLINE
  5
562
100
AcDbEntity
  8
RACCORDO
100
AcDbSpline
 62
7
  6
CONTINUOUS
 70
0
 71
3
 72
16
 73
12
 74
0
 42
0.0000001
 43
0.0000001
 44
0.0000000001
 40
0.0
 40
0.0
 40
0.0
 40
0.0
 40
0.057542313
 40
0.0919839327
 40
0.1317056684
 40
0.228777848
 40
0.3496265899
 40
0.491798094
 40
0.6511535049
 40
0.8225005993
 40
1.0
 40
1.0
 40
1.0
 40
1.0
 10
-8.1757557566
 20
23.2652506509
 30
0.0
 10
-8.1757557566
 20
23.2610323657
 30
0.0
 10
-8.1732667856
 20
23.2542627995
 30
0.0
 10
-8.1670360867
 20
23.2468775454
 30
0.0
 10
-8.1574064878
 20
23.2387284199
 30
0.0
 10
-8.1406843536
 20
23.2296340802
 30
0.0
 10
-8.1158314784
 20
23.2205973622
 30
0.0
 10
-8.0857213162
 20
23.2131664642
 30
0.0
 10
-8.0514715088
 20
23.2076280443
 30
0.0
 10
-8.0143478315
 20
23.2042123595
 30
0.0
 10
-7.9887678005
 20
23.203447252
 30
0.0
 10
-7.9757557566
 20
23.203447252
 30
0.0
  0
SPLINE
  5
563
100
AcDbEntity
  8
RACCORDO
100
AcDbSpline
 62
7
  6
CONTINUOUS
 70
0
 71
3
 72
16
 73
12
 74
0
 42
0.0000001
 43
0.0000001
 44
0.0000000001
 40
0.0
 40
0.0
 40
0.0
 40
0.0
 40
0.1774994007
 40
0.3488464951
 40
0.508201906
 40
0.6503734101
 40
0.771222152
 40
0.8682943316
 40
0.9080160673
 40
0.942457687
 40
1.0
 40
1.0
 40
1.0
 40
1.0
 10
0.6242442434
 20
23.203447252
 30
0.0
 10
0.6372562874
 20
23.203447252
 30
0.0
 10
0.6628363183
 20
23.2042123595
 30
0.0
 10
0.6999599956
 20
23.2076280443
 30
0.0
 10
0.734209803
 20
23.2131664642
 30
0.0
 10
0.7643199652
 20
23.2205973622
 30
0.0
 10
0.7891728405
 20
23.2296340802
 30
0.0
 10
0.8058949746
 20
23.2387284199
 30
0.0
 10
0.8155245736
 20
23.2468775454
 30
0.0
 10
0.8217552724
 20
23.2542627995
 30
0.0
 10
0.8242442434
 20
23.2610323657
 30
0.0
 10
0.8242442434
 20
23.2652506509
 30
0.0
  0
SPLINE
  5
564
100
AcDbEntity
  8
RACCORDO
100
AcDbSpline
 62
7
  6
CONTINUOUS
 70
0
 71
3
 72
16
 73
12
 74
0
 42
0.0000001
 43
0.0000001
 44
0.0000000001
 40
0.0
 40
0.0
 40
0.0
 40
0.0
 40
0.057542313
 40
0.0919839327
 40
0.1317056684
 40
0.228777848
 40
0.3496265899
 40
0.491798094
 40
0.6511535049
 40
0.8225005993
 40
1.0
 40
1.0
 40
1.0
 40
1.0
 10
0.8242442434
 20
-24.5465516378
 30
0.0
 10
0.8242442434
 20
-24.5423333525
 30
0.0
 10
0.8217552724
 20
-24.5355637863
 30
0.0
 10
0.8155245736
 20
-24.5281785322
 30
0.0
 10
0.8058949746
 20
-24.5200294067
 30
0.0
 10
0.7891728405
 20
-24.5109350671
 30
0.0
 10
0.7643199652
 20
-24.5018983491
 30
0.0
 10
0.734209803
 20
-24.494467451
 30
0.0
 10
0.6999599956
 20
-24.4889290311
 30
0.0
 10
0.6628363183
 20
-24.4855133464
 30
0.0
 10
0.6372562874
 20
-24.4847482389
 30
0.0
 10
0.6242442434
 20
-24.4847482389
 30
0.0
  0
SPLINE
  5
565
100
AcDbEntity
  8
RACCORDO
100
AcDbSpline
 62
7
  6
CONTINUOUS
 70
0
 71
3
 72
16
 73
12
 74
0
 42
0.0000001
 43
0.0000001
 44
0.0000000001
 40
0.0
 40
0.0
 40
0.0
 40
0.0
 40
0.1774994007
 40
0.3488464951
 40
0.508201906
 40
0.6503734101
 40
0.771222152
 40
0.8682943316
 40
0.9080160673
 40
0.942457687
 40
1.0
 40
1.0
 40
1.0
 40
1.0
 10
-7.9757557566
 20
-24.4847482389
 30
0.0
 10
-7.9887678005
 20
-24.4847482389
 30
0.0
 10
-8.0143478315
 20
-24.4855133464
 30
0.0
 10
-8.0514715088
 20
-24.4889290311
 30
0.0
 10
-8.0857213162
 20
-24.494467451
 30
0.0
 10
-8.1158314784
 20
-24.5018983491
 30
0.0
 10
-8.1406843536
 20
-24.5109350671
 30
0.0
 10
-8.1574064878
 20
-24.5200294067
 30
0.0
 10
-8.1670360867
 20
-24.5281785322
 30
0.0
 10
-8.1732667856
 20
-24.5355637863
 30
0.0
 10
-8.1757557566
 20
-24.5423333525
 30
0.0
 10
-8.1757557566
 20
-24.5465516378
 30
0.0
  0
LINE
  5
566
100
AcDbEntity
  8
IMPORT_IGES
100
AcDbLine
 62
7
  6
CONTINUOUS
 10
-6.8257557566
 20
-5.0906504934
 30
0.0
 11
-7.1257557566
 21
-5.3906504934
 31
0.0
  0
LINE
  5
567
100
AcDbEntity
  8
IMPORT_IGES
100
AcDbLine
 62
7
  6
CONTINUOUS
 10
-1.3507557566
 20
-5.3906504934
 30
0.0
 11
-1.6507557566
 21
-5.0906504934
 31
0.0
  0
LINE
  5
568
100
AcDbEntity
  8
IMPORT_IGES
100
AcDbLine
 62
7
  6
CONTINUOUS
 10
-7.1257557566
 20
-3.8406504934
 30
0.0
 11
-6.8257557566
 21
-3.5406504934
 31
0.0
  0
LINE
  5
569
100
AcDbEntity
  8
IMPORT_IGES
100
AcDbLine
 62
7
  6
CONTINUOUS
 10
-6.0007557566
 20
-5.3906504934
 30
0.0
 11
-5.7007557566
 21
-5.0906504934
 31
0.0
  0
LINE
  5
56A
100
AcDbEntity
  8
IMPORT_IGES
100
AcDbLine
 62
7
  6
CONTINUOUS
 10
-0.5257557566
 20
-3.5406504934
 30
0.0
 11
-0.2257557566
 21
-3.8406504934
 31
0.0
  0
LINE
  5
56B
100
AcDbEntity
  8
IMPORT_IGES
100
AcDbLine
 62
7
  6
CONTINUOUS
 10
-0.2257557566
 20
-5.3906504934
 30
0.0
 11
-0.5257557566
 21
-5.0906504934
 31
0.0
  0
SPLINE
  5
56C
100
AcDbEntity
  8
IMPORT_IGES
100
AcDbSpline
 62
7
  6
CONTINUOUS
 70
0
 71
3
 72
13
 73
9
 74
0
 42
0.0000001
 43
0.0000001
 44
0.0000000001
 40
0.0
 40
0.0
 40
0.0
 40
0.0
 40
0.0725858035
 40
0.170210022
 40
0.287017984
 40
0.4171653119
 40
0.7012589502
 40
1.0
 40
1.0
 40
1.0
 40
1.0
 10
2.2742442434
 20
3.4576479756
 30
0.0
 10
2.2742442434
 20
3.4709906003
 30
0.0
 10
2.2836473337
 20
3.5017426337
 30
0.0
 10
2.3075364278
 20
3.5485737946
 30
0.0
 10
2.3410868968
 20
3.6024649164
 30
0.0
 10
2.3964515374
 20
3.682834116
 30
0.0
 10
2.4750226065
 20
3.7877973434
 30
0.0
 10
2.5406163146
 20
3.8724920757
 30
0.0
 10
2.5742442434
 20
3.9159055451
 30
0.0
  0
LINE
  5
56D
100
AcDbEntity
  8
IMPORT_IGES
100
AcDbLine
 62
7
  6
CONTINUOUS
 10
2.2742442434
 20
-3.5406504934
 30
0.0
 11
2.5742442434
 21
-3.8406504934
 31
0.0
  0
LINE
  5
56E
100
AcDbEntity
  8
IMPORT_IGES
100
AcDbLine
 62
7
  6
CONTINUOUS
 10
-9.9257557566
 20
-3.8406504934
 30
0.0
 11
-9.6257557566
 21
-3.5406504934
 31
0.0
  0
SPLINE
  5
56F
100
AcDbEntity
  8
IMPORT_IGES
100
AcDbSpline
 62
7
  6
CONTINUOUS
 70
0
 71
3
 72
13
 73
9
 74
0
 42
0.0000001
 43
0.0000001
 44
0.0000000001
 40
0.0
 40
0.0
 40
0.0
 40
0.0
 40
0.2987408962
 40
0.582834497
 40
0.7129818611
 40
0.8297899091
 40
0.9274141419
 40
1.0
 40
1.0
 40
1.0
 40
1.0
 10
-9.9257557566
 20
3.9159055451
 30
0.0
 10
-9.8921278451
 20
3.872492098
 30
0.0
 10
-9.8265341577
 20
3.7877973942
 30
0.0
 10
-9.747963108
 20
3.682834188
 30
0.0
 10
-9.6925984526
 20
3.6024649799
 30
0.0
 10
-9.6590479659
 20
3.5485738394
 30
0.0
 10
-9.6351588557
 20
3.5017426555
 30
0.0
 10
-9.6257557566
 20
3.4709906104
 30
0.0
 10
-9.6257557566
 20
3.4576479756
 30
0.0
  0
LINE
  5
570
100
AcDbEntity
  8
RACCORDO
100
AcDbLine
 62
7
  6
CONTINUOUS
 10
-10.6345016636
 20
-4.3493964004
 30
0.0
 11
-10.134520702
 21
-3.8494154389
 31
0.0
  0
LINE
  5
571
100
AcDbEntity
  8
RACCORDO
100
AcDbLine
 62
7
  6
CONTINUOUS
 10
-7.8345016636
 20
-4.3493964004
 30
0.0
 11
-7.334520702
 21
-3.8494154389
 31
0.0
  0
LINE
  5
572
100
AcDbEntity
  8
RACCORDO
100
AcDbLine
 62
7
  6
CONTINUOUS
 10
-7.8345016636
 20
-5.9493964004
 30
0.0
 11
-7.334520702
 21
-5.4494154389
 31
0.0
  0
LINE
  5
573
100
AcDbEntity
  8
RACCORDO
100
AcDbLine
 62
7
  6
CONTINUOUS
 10
-6.6845016636
 20
-5.9493964004
 30
0.0
 11
-6.184520702
 21
-5.4494154389
 31
0.0
  0
SPLINE
  5
574
100
AcDbEntity
  8
RACCORDO
100
AcDbSpline
 62
250
  6
CONTINUOUS
 70
0
 71
3
 72
32
 73
28
 74
0
 42
0.0000001
 43
0.0000001
 44
0.0000000001
 40
0.0
 40
0.0
 40
0.0
 40
0.0
 40
0.0008179365
 40
0.0028124963
 40
0.0059802214
 40
0.0103142967
 40
0.0224513375
 40
0.0391187335
 40
0.0601427295
 40
0.0853384144
 40
0.1144615592
 40
0.1472302305
 40
0.2224604928
 40
0.3081782071
 40
0.4011440555
 40
0.4978489452
 40
0.5946362974
 40
0.6878463749
 40
0.7739607355
 40
0.8497253048
 40
0.9122691442
 40
0.9378268233
 40
0.9592324842
 40
0.9762985041
 40
0.9888481553
 40
0.99677038
 40
1.0
 40
1.0
 40
1.0
 40
1.0
 10
6.7773708636
 20
23.0668577373
 30
0.0
 10
6.7778060019
 20
23.0666077814
 30
0.0
 10
6.7796391525
 20
23.0666858987
 30
0.0
 10
6.7832057734
 20
23.0662799599
 30
0.0
 10
6.7890796451
 20
23.066177119
 30
0.0
 10
6.8010941046
 20
23.0657867313
 30
0.0
 10
6.8214439412
 20
23.0654621705
 30
0.0
 10
6.8520015765
 20
23.0650276756
 30
0.0
 10
6.8905859315
 20
23.0646370775
 30
0.0
 10
6.9368072785
 20
23.0642522836
 30
0.0
 10
6.9902364174
 20
23.0638942079
 30
0.0
 10
7.0743620167
 20
23.0634291139
 30
0.0
 10
7.193210144
 20
23.0629507188
 30
0.0
 10
7.3489906418
 20
23.0625364906
 30
0.0
 10
7.517946651
 20
23.062279434
 30
0.0
 10
7.6936942375
 20
23.0621898933
 30
0.0
 10
7.8695917146
 20
23.062271671
 30
0.0
 10
8.0389913827
 20
23.0625221341
 30
0.0
 10
8.1954933317
 20
23.0629272707
 30
0.0
 10
8.3331788412
 20
23.0634792809
 30
0.0
 10
8.4337151714
 20
23.064047609
 30
0.0
 10
8.5008931779
 20
23.0646107119
 30
0.0
 10
8.5401845697
 20
23.0649658984
 30
0.0
 10
8.571457475
 20
23.0654914279
 30
0.0
 10
8.5945479908
 20
23.0656304853
 30
0.0
 10
8.6089640075
 20
23.0665369733
 30
0.0
 10
8.615940298
 20
23.066262993
 30
0.0
 10
8.6178427353
 20
23.0668169018
 30
0.0
  0
SPLINE
  5
575
100
AcDbEntity
  8
RACCORDO
100
AcDbSpline
 62
250
  6
CONTINUOUS
 70
0
 71
3
 72
32
 73
28
 74
0
 42
0.0000001
 43
0.0000001
 44
0.0000000001
 40
0.0
 40
0.0
 40
0.0
 40
0.0
 40
0.0008280277
 40
0.002825887
 40
0.0059944253
 40
0.0103282806
 40
0.0224655587
 40
0.0391352994
 40
0.0601616155
 40
0.085357252
 40
0.1144777134
 40
0.1472433294
 40
0.2224702365
 40
0.3081852068
 40
0.4011477822
 40
0.4978497163
 40
0.5946338737
 40
0.6878401061
 40
0.773951364
 40
0.8497125523
 40
0.9122502901
 40
0.9378077374
 40
0.9592158925
 40
0.9762854024
 40
0.9888378681
 40
0.9967625281
 40
1.0
 40
1.0
 40
1.0
 40
1.0
 10
7.0273613444
 20
23.316851645
 30
0.0
 10
7.0276535751
 20
23.3166246599
 30
0.0
 10
7.0290342235
 20
23.3166536661
 30
0.0
 10
7.0315985768
 20
23.3162898224
 30
0.0
 10
7.0358955436
 20
23.3161642476
 30
0.0
 10
7.0446331018
 20
23.3157870111
 30
0.0
 10
7.0594628322
 20
23.3154527566
 30
0.0
 10
7.0817171608
 20
23.3150228032
 30
0.0
 10
7.1098237189
 20
23.3146304832
 30
0.0
 10
7.1434890199
 20
23.3142463
 30
0.0
 10
7.1824029018
 20
23.3138880243
 30
0.0
 10
7.2436739013
 20
23.3134230292
 30
0.0
 10
7.3302366415
 20
23.3129445954
 30
0.0
 10
7.4437005162
 20
23.3125304021
 30
0.0
 10
7.5667616843
 20
23.3122733537
 30
0.0
 10
7.6947696395
 20
23.3121837958
 30
0.0
 10
7.8228865457
 20
23.3122655633
 30
0.0
 10
7.9462702802
 20
23.3125159683
 30
0.0
 10
8.0602594719
 20
23.3129211965
 30
0.0
 10
8.1605407875
 20
23.3134728648
 30
0.0
 10
8.2337663502
 20
23.3140420337
 30
0.0
 10
8.2826922136
 20
23.3146038795
 30
0.0
 10
8.3113184927
 20
23.3149618077
 30
0.0
 10
8.3340843474
 20
23.3154800088
 30
0.0
 10
8.3509405452
 20
23.3156364383
 30
0.0
 10
8.3613761608
 20
23.3165107213
 30
0.0
 10
8.3665371826
 20
23.3162743646
 30
0.0
 10
8.3678808115
 20
23.3168108095
 30
0.0
  0
SPLINE
  5
576
100
AcDbEntity
  8
RACCORDO
100
AcDbSpline
 62
250
  6
CONTINUOUS
 70
0
 71
3
 72
32
 73
28
 74
0
 42
0.0000001
 43
0.0000001
 44
0.0000000001
 40
0.0
 40
0.0
 40
0.0
 40
0.0
 40
0.0032320243
 40
0.0111530544
 40
0.0237011064
 40
0.0407668293
 40
0.0621728671
 40
0.0877307952
 40
0.1502744054
 40
0.2260390386
 40
0.3121535402
 40
0.4053636644
 40
0.502151039
 40
0.5988559032
 40
0.691821702
 40
0.7775392734
 40
0.8527694706
 40
0.8855382806
 40
0.9146615144
 40
0.9398569488
 40
0.9608805659
 40
0.9775482572
 40
0.9896868966
 40
0.9940218184
 40
0.9971898917
 40
0.9991838993
 40
1.0
 40
1.0
 40
1.0
 40
1.0
 10
-15.9693542484
 20
23.0668169018
 30
0.0
 10
-15.9674494478
 20
23.0662658437
 30
0.0
 10
-15.9604743693
 20
23.066533681
 30
0.0
 10
-15.9460568744
 20
23.0656324921
 30
0.0
 10
-15.9229691711
 20
23.0654905228
 30
0.0
 10
-15.8916968117
 20
23.0649662292
 30
0.0
 10
-15.852405361
 20
23.0646106071
 30
0.0
 10
-15.7852270447
 20
23.0640476989
 30
0.0
 10
-15.6846907026
 20
23.0634791869
 30
0.0
 10
-15.5470051893
 20
23.0629272214
 30
0.0
 10
-15.3905030887
 20
23.0625220667
 30
0.0
 10
-15.2211032874
 20
23.0622716288
 30
0.0
 10
-15.045205781
 20
23.0621898934
 30
0.0
 10
-14.8694582239
 20
23.0622794783
 30
0.0
 10
-14.7005023455
 20
23.0625365537
 30
0.0
 10
-14.5447220041
 20
23.062950783
 30
0.0
 10
-14.4258739147
 20
23.0634291645
 30
0.0
 10
-14.3417482188
 20
23.0638942331
 30
0.0
 10
-14.2883190814
 20
23.0642522669
 30
0.0
 10
-14.2420980993
 20
23.0646371034
 30
0.0
 10
-14.2035138517
 20
23.0650275726
 30
0.0
 10
-14.1729555433
 20
23.0654624733
 30
0.0
 10
-14.1526034777
 20
23.0657861993
 30
0.0
 10
-14.1405880566
 20
23.0661776629
 30
0.0
 10
-14.1347125049
 20
23.0662785733
 30
0.0
 10
-14.1311495057
 20
23.0666879225
 30
0.0
 10
-14.1293151739
 20
23.0666059819
 30
0.0
 10
-14.1288823768
 20
23.0668577373
 30
0.0
  0
SPLINE
  5
577
100
AcDbEntity
  8
RACCORDO
100
AcDbSpline
 62
250
  6
CONTINUOUS
 70
0
 71
3
 72
32
 73
28
 74
0
 42
0.0000001
 43
0.0000001
 44
0.0000000001
 40
0.0
 40
0.0
 40
0.0
 40
0.0
 40
0.0032421652
 40
0.0111634674
 40
0.0237116403
 40
0.0407796351
 40
0.0621879471
 40
0.087745801
 40
0.1502836413
 40
0.2260449009
 40
0.3121566487
 40
0.4053634965
 40
0.5021479081
 40
0.5988495688
 40
0.6918115125
 40
0.7775259838
 40
0.8527528163
 40
0.8855184356
 40
0.9146387843
 40
0.9398340124
 40
0.9608601719
 40
0.9775314286
 40
0.9896729989
 40
0.9940090912
 40
0.997178749
 40
0.9991757125
 40
1.0
 40
1.0
 40
1.0
 40
1.0
 10
-15.7193923247
 20
23.3168108095
 30
0.0
 10
-15.718044354
 20
23.3162796221
 30
0.0
 10
-15.7128876864
 20
23.3165045453
 30
0.0
 10
-15.7024490427
 20
23.3156401278
 30
0.0
 10
-15.6855992586
 20
23.3154783357
 30
0.0
 10
-15.6628349541
 20
23.3149624077
 30
0.0
 10
-15.6342094606
 20
23.3146036581
 30
0.0
 10
-15.585283132
 20
23.3140421952
 30
0.0
 10
-15.5120574085
 20
23.3134727858
 30
0.0
 10
-15.4117757488
 20
23.312921204
 30
0.0
 10
-15.2977860382
 20
23.3125159455
 30
0.0
 10
-15.1744016848
 20
23.312265557
 30
0.0
 10
-15.0462845059
 20
23.3121837951
 30
0.0
 10
-14.9182768339
 20
23.3122733623
 30
0.0
 10
-14.7952162856
 20
23.3125304167
 30
0.0
 10
-14.681752945
 20
23.3129446135
 30
0.0
 10
-14.5951904491
 20
23.3134230324
 30
0.0
 10
-14.5339195377
 20
23.3138880364
 30
0.0
 10
-14.4950058618
 20
23.3142462862
 30
0.0
 10
-14.4613409316
 20
23.3146305444
 30
0.0
 10
-14.4332337477
 20
23.3150226692
 30
0.0
 10
-14.4109774192
 20
23.3154532019
 30
0.0
 10
-14.3961429675
 20
23.3157862763
 30
0.0
 10
-14.3874035387
 20
23.3161650741
 30
0.0
 10
-14.3831028234
 20
23.316287859
 30
0.0
 10
-14.3805449161
 20
23.3166565585
 30
0.0
 10
-14.3791608978
 20
23.3166220373
 30
0.0
 10
-14.3788728575
 20
23.316851645
 30
0.0
  0
SPLINE
  5
578
100
AcDbEntity
  8
RACCORDO
100
AcDbSpline
 62
250
  6
CONTINUOUS
 70
0
 71
3
 72
32
 73
28
 74
0
 42
0.0000001
 43
0.0000001
 44
0.0000000001
 40
0.0
 40
0.0
 40
0.0
 40
0.0
 40
0.0032422493
 40
0.0111636002
 40
0.0237118141
 40
0.0407799064
 40
0.0621883506
 40
0.0877463451
 40
0.1502844942
 40
0.2260459353
 40
0.3121576486
 40
0.4053644246
 40
0.5021489283
 40
0.5988508674
 40
0.6918132255
 40
0.7775280749
 40
0.8527551274
 40
0.8855208402
 40
0.9146413906
 40
0.9398370899
 40
0.9608635489
 40
0.9775336994
 40
0.9896717895
 40
0.9940060532
 40
0.9971748113
 40
0.9991725561
 40
1.0
 40
1.0
 40
1.0
 40
1.0
 10
-15.7193923247
 20
-24.5981117963
 30
0.0
 10
-15.7180442963
 20
-24.5975806532
 30
0.0
 10
-15.7128876141
 20
-24.5978054782
 30
0.0
 10
-15.7024488539
 20
-24.5969411454
 30
0.0
 10
-15.6855990086
 20
-24.5967793034
 30
0.0
 10
-15.6628345758
 20
-24.5962633955
 30
0.0
 10
-15.6342089221
 20
-24.5959046385
 30
0.0
 10
-15.5852823353
 20
-24.5953431796
 30
0.0
 10
-15.5120563357
 20
-24.5947737706
 30
0.0
 10
-15.4117744788
 20
-24.5942221921
 30
0.0
 10
-15.2977847424
 20
-24.5938169331
 30
0.0
 10
-15.1744004037
 20
-24.5935665427
 30
0.0
 10
-15.0462831
 20
-24.5934847767
 30
0.0
 10
-14.9182750858
 20
-24.5935743411
 30
0.0
 10
-14.7952140677
 20
-24.5938313927
 30
0.0
 10
-14.6817502806
 20
-24.5942455868
 30
0.0
 10
-14.5951874861
 20
-24.5947240152
 30
0.0
 10
-14.5339163406
 20
-24.5951890106
 30
0.0
 10
-14.4950023445
 20
-24.5955472819
 30
0.0
 10
-14.4613369229
 20
-24.5959314772
 30
0.0
 10
-14.4332300589
 20
-24.5963237663
 30
0.0
 10
-14.4109752027
 20
-24.5967538107
 30
0.0
 10
-14.3961445688
 20
-24.5970878803
 30
0.0
 10
-14.387406608
 20
-24.5974653635
 30
0.0
 10
-14.3831089992
 20
-24.5975904985
 30
0.0
 10
-14.3805456192
 20
-24.5979551091
 30
0.0
 10
-14.379164434
 20
-24.5979252309
 30
0.0
 10
-14.3788728575
 20
-24.5981526318
 30
0.0
  0
SPLINE
  5
579
100
AcDbEntity
  8
RACCORDO
100
AcDbSpline
 62
250
  6
CONTINUOUS
 70
0
 71
3
 72
32
 73
28
 74
0
 42
0.0000001
 43
0.0000001
 44
0.0000000001
 40
0.0
 40
0.0
 40
0.0
 40
0.0
 40
0.0032320416
 40
0.0111530682
 40
0.0237011168
 40
0.0407668529
 40
0.0621729064
 40
0.0877308406
 40
0.1502744496
 40
0.2260390537
 40
0.3121535379
 40
0.4053636613
 40
0.5021510488
 40
0.5988559454
 40
0.6918217805
 40
0.7775394485
 40
0.8527696687
 40
0.885538358
 40
0.9146615245
 40
0.9398571762
 40
0.9608811272
 40
0.9775485863
 40
0.9896858872
 40
0.9940200984
 40
0.9971878799
 40
0.9991823533
 40
1.0
 40
1.0
 40
1.0
 40
1.0
 10
-15.9693542484
 20
-24.3481178886
 30
0.0
 10
-15.9674494272
 20
-24.3475668635
 30
0.0
 10
-15.9604743612
 20
-24.3478346424
 30
0.0
 10
-15.9460568423
 20
-24.3469334988
 30
0.0
 10
-15.9229691454
 20
-24.3467914968
 30
0.0
 10
-15.891696767
 20
-24.3462672134
 30
0.0
 10
-15.852405297
 20
-24.3459115878
 30
0.0
 10
-15.7852269687
 20
-24.3453486862
 30
0.0
 10
-15.6846906438
 20
-24.3447801819
 30
0.0
 10
-15.5470051623
 20
-24.3442282224
 30
0.0
 10
-15.390503094
 20
-24.3438230707
 30
0.0
 10
-15.2211032992
 20
-24.3435726253
 30
0.0
 10
-15.0452057691
 20
-24.3434908704
 30
0.0
 10
-14.8694581654
 20
-24.3435804396
 30
0.0
 10
-14.7005021893
 20
-24.3438375075
 30
0.0
 10
-14.5447217545
 20
-24.3442517336
 30
0.0
 10
-14.4258736704
 20
-24.3447301219
 30
0.0
 10
-14.3417480736
 20
-24.3451952045
 30
0.0
 10
-14.288318929
 20
-24.3455532683
 30
0.0
 10
-14.2420976221
 20
-24.3459380666
 30
0.0
 10
-14.2035132615
 20
-24.3463286454
 30
0.0
 10
-14.1729554957
 20
-24.3467632058
 30
0.0
 10
-14.152605292
 20
-24.347087636
 30
0.0
 10
-14.1405906725
 20
-24.3474781918
 30
0.0
 10
-14.134716535
 20
-24.3475807292
 30
0.0
 10
-14.1311504806
 20
-24.3479872028
 30
0.0
 10
-14.1293171471
 20
-24.3479084851
 30
0.0
 10
-14.1288823768
 20
-24.3481587241
 30
0.0
  0
SPLINE
  5
57A
100
AcDbEntity
  8
RACCORDO
100
AcDbSpline
 62
250
  6
CONTINUOUS
 70
0
 71
3
 72
32
 73
28
 74
0
 42
0.0000001
 43
0.0000001
 44
0.0000000001
 40
0.0
 40
0.0
 40
0.0
 40
0.0
 40
0.0008176466
 40
0.0028121199
 40
0.0059799014
 40
0.0103141127
 40
0.0224514137
 40
0.0391188729
 40
0.0601428238
 40
0.0853384755
 40
0.114461642
 40
0.1472303313
 40
0.2224605515
 40
0.3081782195
 40
0.4011440547
 40
0.4978489512
 40
0.5946363387
 40
0.6878464621
 40
0.7739609463
 40
0.8497255504
 40
0.9122691593
 40
0.9378270936
 40
0.9592331471
 40
0.9762988832
 40
0.9888469318
 40
0.9967679583
 40
1.0
 40
1.0
 40
1.0
 40
1.0
 10
6.7773708636
 20
-24.3481587241
 30
0.0
 10
6.7778056337
 20
-24.3479084849
 30
0.0
 10
6.7796389674
 20
-24.347987203
 30
0.0
 10
6.7832050214
 20
-24.347580729
 30
0.0
 10
6.7890791591
 20
-24.3474781918
 30
0.0
 10
6.8010937787
 20
-24.347087636
 30
0.0
 10
6.8214439826
 20
-24.3467632059
 30
0.0
 10
6.8520017484
 20
-24.3463286454
 30
0.0
 10
6.890586109
 20
-24.3459380666
 30
0.0
 10
6.9368074158
 20
-24.3455532683
 30
0.0
 10
6.9902365604
 20
-24.3451952045
 30
0.0
 10
7.0743621572
 20
-24.3447301219
 30
0.0
 10
7.1932102414
 20
-24.3442517336
 30
0.0
 10
7.3489906761
 20
-24.3438375075
 30
0.0
 10
7.5179466523
 20
-24.3435804396
 30
0.0
 10
7.693694256
 20
-24.3434908704
 30
0.0
 10
7.8695917861
 20
-24.3435726253
 30
0.0
 10
8.0389915808
 20
-24.3438230707
 30
0.0
 10
8.1954936491
 20
-24.3442282224
 30
0.0
 10
8.3331791306
 20
-24.3447801819
 30
0.0
 10
8.4337154555
 20
-24.3453486862
 30
0.0
 10
8.5008937839
 20
-24.3459115878
 30
0.0
 10
8.5401852539
 20
-24.3462672134
 30
0.0
 10
8.5714576322
 20
-24.3467914968
 30
0.0
 10
8.5945453291
 20
-24.3469334989
 30
0.0
 10
8.608962848
 20
-24.3478346423
 30
0.0
 10
8.615937914
 20
-24.3475668636
 30
0.0
 10
8.6178427353
 20
-24.3481178886
 30
0.0
  0
SPLINE
  5
57B
100
AcDbEntity
  8
RACCORDO
100
AcDbSpline
 62
250
  6
CONTINUOUS
 70
0
 71
3
 72
32
 73
28
 74
0
 42
0.0000001
 43
0.0000001
 44
0.0000000001
 40
0.0
 40
0.0
 40
0.0
 40
0.0
 40
0.0008274436
 40
0.0028251882
 40
0.0059939461
 40
0.0103282098
 40
0.0224663
 40
0.0391364507
 40
0.0601629099
 40
0.0853586094
 40
0.1144791598
 40
0.1472448725
 40
0.2224719249
 40
0.3081867744
 40
0.4011491325
 40
0.4978510716
 40
0.5946355752
 40
0.6878423513
 40
0.7739540645
 40
0.8497155058
 40
0.9122536549
 40
0.9378116492
 40
0.9592200931
 40
0.9762881852
 40
0.9888363992
 40
0.9967577505
 40
1.0
 40
1.0
 40
1.0
 40
1.0
 10
7.0273613444
 20
-24.5981526318
 30
0.0
 10
7.0276529205
 20
-24.5979252307
 30
0.0
 10
7.0290341059
 20
-24.5979551093
 30
0.0
 10
7.0315974851
 20
-24.5975904984
 30
0.0
 10
7.035895094
 20
-24.5974653635
 30
0.0
 10
7.0446330546
 20
-24.5970878803
 30
0.0
 10
7.0594636888
 20
-24.5967538108
 30
0.0
 10
7.0817185452
 20
-24.5963237663
 30
0.0
 10
7.1098254094
 20
-24.5959314772
 30
0.0
 10
7.1434908312
 20
-24.5955472819
 30
0.0
 10
7.1824048274
 20
-24.5951890106
 30
0.0
 10
7.2436759728
 20
-24.5947240152
 30
0.0
 10
7.3302387672
 20
-24.5942455868
 30
0.0
 10
7.4437025543
 20
-24.5938313927
 30
0.0
 10
7.5667635724
 20
-24.5935743411
 30
0.0
 10
7.6947715866
 20
-24.5934847767
 30
0.0
 10
7.8228888903
 20
-24.5935665427
 30
0.0
 10
7.946273229
 20
-24.5938169331
 30
0.0
 10
8.0602629654
 20
-24.5942221921
 30
0.0
 10
8.1605448224
 20
-24.5947737706
 30
0.0
 10
8.233770822
 20
-24.5953431796
 30
0.0
 10
8.2826974086
 20
-24.5959046385
 30
0.0
 10
8.311323062
 20
-24.5962633955
 30
0.0
 10
8.3340874946
 20
-24.5967793034
 30
0.0
 10
8.35093734
 20
-24.5969411454
 30
0.0
 10
8.3613761006
 20
-24.5978054782
 30
0.0
 10
8.366532783
 20
-24.5975806532
 30
0.0
 10
8.3678808115
 20
-24.5981117963
 30
0.0
  0
SPLINE
  5
57C
100
AcDbEntity
  8
RACCORDO
100
AcDbSpline
 62
7
  6
CONTINUOUS
 70
0
 71
3
 72
11
 73
7
 74
0
 42
0.0000001
 43
0.0000001
 44
0.0000000001
 40
0.0
 40
0.0
 40
0.0
 40
0.0
 40
0.2170320738
 40
0.4467514785
 40
0.7016228432
 40
1.0
 40
1.0
 40
1.0
 40
1.0
 10
8.6178427353
 20
-22.7629643353
 30
0.0
 10
8.616873723
 20
-22.7913228975
 30
0.0
 10
8.6043295894
 20
-22.849812473
 30
0.0
 10
8.5540046251
 20
-22.9287950487
 30
0.0
 10
8.469530567
 20
-22.9908346149
 30
0.0
 10
8.3959298213
 20
-23.0067950219
 30
0.0
 10
8.3569217793
 20
-23.0063756357
 30
0.0
  0
SPLINE
  5
57D
100
AcDbEntity
  8
RACCORDO
100
AcDbSpline
 62
250
  6
CONTINUOUS
 70
0
 71
3
 72
23
 73
19
 74
0
 42
0.0000001
 43
0.0000001
 44
0.0000000001
 40
0.0
 40
0.0
 40
0.0
 40
0.0
 40
0.0018970801
 40
0.006049393
 40
0.0125297975
 40
0.0213423247
 40
0.0324695153
 40
0.0458891242
 40
0.0794907385
 40
0.1218286245
 40
0.172518138
 40
0.2310667872
 40
0.2969319103
 40
0.3694739419
 40
0.4480123449
 40
0.6200134866
 40
0.8063712874
 40
1.0
 40
1.0
 40
1.0
 40
1.0
 10
8.5493889538
 20
-22.7218947357
 30
0.0
 10
8.5487107033
 20
-22.7214879896
 30
0.0
 10
8.5480816198
 20
-22.7186786423
 30
0.0
 10
8.5470052695
 20
-22.7138527266
 30
0.0
 10
8.5460794571
 20
-22.7056419576
 30
0.0
 10
8.5450396978
 20
-22.6947424765
 30
0.0
 10
8.5440376612
 20
-22.6808457804
 30
0.0
 10
8.5425795265
 20
-22.6566598483
 30
0.0
 10
8.5408839485
 20
-22.6194368272
 30
0.0
 10
8.5390145029
 20
-22.5666831045
 30
0.0
 10
8.5372355742
 20
-22.503516745
 30
0.0
 10
8.5355606455
 20
-22.4305381977
 30
0.0
 10
8.5340136372
 20
-22.3484445403
 30
0.0
 10
8.5326084121
 20
-22.2580140153
 30
0.0
 10
8.5308940871
 20
-22.1233369133
 30
0.0
 10
8.5292497201
 20
-21.9412077494
 30
0.0
 10
8.5280638505
 20
-21.7110949955
 30
0.0
 10
8.5277986027
 20
-21.552684176
 30
0.0
 10
8.5277986048
 20
-21.471963274
 30
0.0
  0
SPLINE
  5
57E
100
AcDbEntity
  8
RACCORDO
100
AcDbSpline
 62
250
  6
CONTINUOUS
 70
0
 71
3
 72
23
 73
19
 74
0
 42
0.0000001
 43
0.0000001
 44
0.0000000001
 40
0.0
 40
0.0
 40
0.0
 40
0.0
 40
0.0018383932
 40
0.0059647035
 40
0.0124291992
 40
0.021230972
 40
0.0323506825
 40
0.0457651822
 40
0.0793619043
 40
0.1216999096
 40
0.1723930945
 40
0.2309482582
 40
0.2968222732
 40
0.3693750776
 40
0.4479256748
 40
0.6199540038
 40
0.8063410987
 40
1.0
 40
1.0
 40
1.0
 40
1.0
 10
8.29942703
 20
-22.971881028
 30
0.0
 10
8.2986807348
 20
-22.9713438531
 30
0.0
 10
8.2981775515
 20
-22.9679970118
 30
0.0
 10
8.297005691
 20
-22.9622151727
 30
0.0
 10
8.2961329129
 20
-22.9523736537
 30
0.0
 10
8.2950712098
 20
-22.9392950181
 30
0.0
 10
8.2940776567
 20
-22.9226209402
 30
0.0
 10
8.2926155339
 20
-22.8935955025
 30
0.0
 10
8.2909225221
 20
-22.848927154
 30
0.0
 10
8.2890520502
 20
-22.7856221963
 30
0.0
 10
8.2872735293
 20
-22.7098216295
 30
0.0
 10
8.2855984985
 20
-22.6222461086
 30
0.0
 10
8.2840515609
 20
-22.5237325106
 30
0.0
 10
8.2826463562
 20
-22.4152148885
 30
0.0
 10
8.2809320791
 20
-22.253601474
 30
0.0
 10
8.2792877658
 20
-22.0350477015
 30
0.0
 10
8.2781019356
 20
-21.7589161706
 30
0.0
 10
8.2778366794
 20
-21.5688265897
 30
0.0
 10
8.277836681
 20
-21.471963274
 30
0.0
  0
SPLINE
  5
57F
100
AcDbEntity
  8
RACCORDO
100
AcDbSpline
 62
250
  6
CONTINUOUS
 70
0
 71
3
 72
23
 73
19
 74
0
 42
0.0000001
 43
0.0000001
 44
0.0000000001
 40
0.0
 40
0.0
 40
0.0
 40
0.0
 40
0.193631889
 40
0.3799909029
 40
0.5519923773
 40
0.6305306229
 40
0.7030721235
 40
0.7689367116
 40
0.8274847251
 40
0.8781734944
 40
0.9205107916
 40
0.9541118031
 40
0.9675312233
 40
0.978658092
 40
0.9874703711
 40
0.9939506656
 40
0.9981028791
 40
1.0
 40
1.0
 40
1.0
 40
1.0
 10
8.5277986048
 20
20.1906622871
 30
0.0
 10
8.5277985982
 20
20.2713845129
 30
0.0
 10
8.5280638561
 20
20.4297971615
 30
0.0
 10
8.5292497552
 20
20.6599118826
 30
0.0
 10
8.5308941479
 20
20.8420416241
 30
0.0
 10
8.5326084861
 20
20.9767185769
 30
0.0
 10
8.5340137226
 20
21.0671485911
 30
0.0
 10
8.5355607383
 20
21.1492415383
 30
0.0
 10
8.5372356598
 20
21.2222192871
 30
0.0
 10
8.5390145978
 20
21.2853848243
 30
0.0
 10
8.5408840158
 20
21.3381377418
 30
0.0
 10
8.5425796068
 20
21.3753601825
 30
0.0
 10
8.5440377132
 20
21.3995456566
 30
0.0
 10
8.5450397515
 20
21.4134420236
 30
0.0
 10
8.5460794971
 20
21.4243412522
 30
0.0
 10
8.5470052983
 20
21.4325517584
 30
0.0
 10
8.5480816058
 20
21.4373777467
 30
0.0
 10
8.5487107483
 20
21.4401868946
 30
0.0
 10
8.5493889538
 20
21.4405937488
 30
0.0
  0
SPLINE
  5
580
100
AcDbEntity
  8
RACCORDO
100
AcDbSpline
 62
250
  6
CONTINUOUS
 70
0
 71
3
 72
23
 73
19
 74
0
 42
0.0000001
 43
0.0000001
 44
0.0000000001
 40
0.0
 40
0.0
 40
0.0
 40
0.0
 40
0.1936620339
 40
0.3800503334
 40
0.5520789813
 40
0.6306294315
 40
0.7031817141
 40
0.7690552091
 40
0.8276097672
 40
0.8783022281
 40
0.9206396386
 40
0.9542357644
 40
0.9676500892
 40
0.9787694969
 40
0.9875710372
 40
0.9940354271
 40
0.998161619
 40
1.0
 40
1.0
 40
1.0
 40
1.0
 10
8.277836681
 20
20.1906622871
 30
0.0
 10
8.2778366736
 20
20.2875271697
 30
0.0
 10
8.2781019415
 20
20.47761892
 30
0.0
 10
8.2792878035
 20
20.7537527796
 30
0.0
 10
8.2809321441
 20
20.9723072404
 30
0.0
 10
8.2826464363
 20
21.1339204798
 30
0.0
 10
8.2840516536
 20
21.2424375071
 30
0.0
 10
8.2855985994
 20
21.3409502808
 30
0.0
 10
8.287273623
 20
21.4285248767
 30
0.0
 10
8.2890521527
 20
21.5043244801
 30
0.0
 10
8.2909225974
 20
21.5676284815
 30
0.0
 10
8.2926156221
 20
21.6122961432
 30
0.0
 10
8.2940777149
 20
21.6413210483
 30
0.0
 10
8.2950712701
 20
21.6579947619
 30
0.0
 10
8.2961329543
 20
21.6710730993
 30
0.0
 10
8.2970057268
 20
21.680914339
 30
0.0
 10
8.2981775206
 20
21.686696164
 30
0.0
 10
8.2986807816
 20
21.6900428117
 30
0.0
 10
8.29942703
 20
21.6905800412
 30
0.0
  0
LINE
  5
581
100
AcDbEntity
  8
RACCORDO
100
AcDbLine
 62
7
  6
CONTINUOUS
 10
-6.6845016636
 20
-7.2993964004
 30
0.0
 11
-6.184520702
 21
-6.7994154389
 31
0.0
  0
LINE
  5
582
100
AcDbEntity
  8
RACCORDO
100
AcDbLine
 62
7
  6
CONTINUOUS
 10
-0.6670098496
 20
-7.2993964004
 30
0.0
 11
-1.1669908111
 21
-6.7994154389
 31
0.0
  0
LINE
  5
583
100
AcDbEntity
  8
RACCORDO
100
AcDbLine
 62
7
  6
CONTINUOUS
 10
-0.6670098496
 20
-5.9493964004
 30
0.0
 11
-1.1669908111
 21
-5.4494154389
 31
0.0
  0
LINE
  5
584
100
AcDbEntity
  8
RACCORDO
100
AcDbLine
 62
7
  6
CONTINUOUS
 10
0.4829901504
 20
-5.9493964004
 30
0.0
 11
-0.0169908111
 21
-5.4494154389
 31
0.0
  0
LINE
  5
585
100
AcDbEntity
  8
RACCORDO
100
AcDbLine
 62
7
  6
CONTINUOUS
 10
0.4829901504
 20
-4.3493964004
 30
0.0
 11
-0.0169908111
 21
-3.8494154389
 31
0.0
  0
SPLINE
  5
586
100
AcDbEntity
  8
RACCORDO
100
AcDbSpline
 62
7
  6
CONTINUOUS
 70
0
 71
3
 72
11
 73
7
 74
0
 42
0.0000001
 43
0.0000001
 44
0.0000000001
 40
0.0
 40
0.0
 40
0.0
 40
0.0
 40
0.2983771568
 40
0.5532485215
 40
0.7829679262
 40
1.0
 40
1.0
 40
1.0
 40
1.0
 10
8.3569217793
 20
21.7250746488
 30
0.0
 10
8.3959298213
 20
21.7254940351
 30
0.0
 10
8.469530567
 20
21.709533628
 30
0.0
 10
8.5540046251
 20
21.6474940619
 30
0.0
 10
8.6043295894
 20
21.5685114861
 30
0.0
 10
8.616873723
 20
21.5100219107
 30
0.0
 10
8.6178427353
 20
21.4816633485
 30
0.0
  0
SPLINE
  5
587
100
AcDbEntity
  8
RACCORDO
100
AcDbSpline
 62
7
  6
CONTINUOUS
 70
0
 71
3
 72
11
 73
7
 74
0
 42
0.0000001
 43
0.0000001
 44
0.0000000001
 40
0.0
 40
0.0
 40
0.0
 40
0.0
 40
0.2170320738
 40
0.4467514785
 40
0.7016228432
 40
1.0
 40
1.0
 40
1.0
 40
1.0
 10
-15.9693542484
 20
21.4816633485
 30
0.0
 10
-15.9683852362
 20
21.5100219107
 30
0.0
 10
-15.9558411026
 20
21.5685114861
 30
0.0
 10
-15.9055161382
 20
21.6474940619
 30
0.0
 10
-15.8210420802
 20
21.709533628
 30
0.0
 10
-15.7474413345
 20
21.7254940351
 30
0.0
 10
-15.7084332925
 20
21.7250746488
 30
0.0
  0
SPLINE
  5
588
100
AcDbEntity
  8
RACCORDO
100
AcDbSpline
 62
250
  6
CONTINUOUS
 70
0
 71
3
 72
23
 73
19
 74
0
 42
0.0000001
 43
0.0000001
 44
0.0000000001
 40
0.0
 40
0.0
 40
0.0
 40
0.0
 40
0.0018971186
 40
0.0060492814
 40
0.0125295378
 40
0.0213417933
 40
0.0324686469
 40
0.0458880709
 40
0.0794890434
 40
0.1218263009
 40
0.172515112
 40
0.2310632011
 40
0.2969278937
 40
0.3694694991
 40
0.4480078823
 40
0.6200095336
 40
0.8063685521
 40
1.0
 40
1.0
 40
1.0
 40
1.0
 10
-15.900900467
 20
21.4405937488
 30
0.0
 10
-15.900222278
 20
21.4401868689
 30
0.0
 10
-15.8995931111
 20
21.4373777977
 30
0.0
 10
-15.8985168187
 20
21.432551805
 30
0.0
 10
-15.8975910152
 20
21.4243413667
 30
0.0
 10
-15.8965512754
 20
21.4134421613
 30
0.0
 10
-15.8955492364
 20
21.399545812
 30
0.0
 10
-15.8940911335
 20
21.3753603574
 30
0.0
 10
-15.8923955378
 20
21.3381379491
 30
0.0
 10
-15.8905261175
 20
21.2853850466
 30
0.0
 10
-15.8887471787
 20
21.2222194771
 30
0.0
 10
-15.8870722542
 20
21.1492416358
 30
0.0
 10
-15.8855252365
 20
21.0671485698
 30
0.0
 10
-15.8841199966
 20
20.976718411
 30
0.0
 10
-15.8824056593
 20
20.8420412833
 30
0.0
 10
-15.8807612631
 20
20.6599114087
 30
0.0
 10
-15.8795753711
 20
20.4297967957
 30
0.0
 10
-15.8793101098
 20
20.2713843291
 30
0.0
 10
-15.8793101179
 20
20.1906622871
 30
0.0
  0
SPLINE
  5
589
100
AcDbEntity
  8
RACCORDO
100
AcDbSpline
 62
250
  6
CONTINUOUS
 70
0
 71
3
 72
23
 73
19
 74
0
 42
0.0000001
 43
0.0000001
 44
0.0000000001
 40
0.0
 40
0.0
 40
0.0
 40
0.0
 40
0.001838378
 40
0.0059645421
 40
0.0124289078
 40
0.0212304104
 40
0.0323497748
 40
0.0457640792
 40
0.079360171
 40
0.1216975693
 40
0.1723900656
 40
0.2309446837
 40
0.2968182882
 40
0.3693706855
 40
0.4479212693
 40
0.6199501048
 40
0.8063384118
 40
1.0
 40
1.0
 40
1.0
 40
1.0
 10
-15.6509385432
 20
21.6905800412
 30
0.0
 10
-15.6501923062
 20
21.6900427984
 30
0.0
 10
-15.6496890271
 20
21.686696197
 30
0.0
 10
-15.648517248
 20
21.6809143745
 30
0.0
 10
-15.6476444743
 20
21.6710731921
 30
0.0
 10
-15.6465827939
 20
21.6579949021
 30
0.0
 10
-15.6455892375
 20
21.6413212413
 30
0.0
 10
-15.6441271468
 20
21.6122963841
 30
0.0
 10
-15.6424341193
 20
21.5676287564
 30
0.0
 10
-15.6405636731
 20
21.5043247602
 30
0.0
 10
-15.638785142
 20
21.4285251154
 30
0.0
 10
-15.6371101151
 20
21.340950417
 30
0.0
 10
-15.6355631675
 20
21.2424375012
 30
0.0
 10
-15.634157947
 20
21.1339202949
 30
0.0
 10
-15.6324436558
 20
20.9723068375
 30
0.0
 10
-15.630799311
 20
20.7537522122
 30
0.0
 10
-15.6296134573
 20
20.4776184779
 30
0.0
 10
-15.629348185
 20
20.2875269468
 30
0.0
 10
-15.6293481941
 20
20.1906622871
 30
0.0
  0
SPLINE
  5
58A
100
AcDbEntity
  8
RACCORDO
100
AcDbSpline
 62
250
  6
CONTINUOUS
 70
0
 71
3
 72
23
 73
19
 74
0
 42
0.0000001
 43
0.0000001
 44
0.0000000001
 40
0.0
 40
0.0
 40
0.0
 40
0.0
 40
0.1936291682
 40
0.3799869696
 40
0.5519879358
 40
0.6305262024
 40
0.7030681258
 40
0.7689331411
 40
0.8274817129
 40
0.8781711796
 40
0.9205091049
 40
0.9541107504
 40
0.9675303557
 40
0.9786575607
 40
0.9874701111
 40
0.9939505549
 40
0.9981029183
 40
1.0
 40
1.0
 40
1.0
 40
1.0
 10
-15.8793101179
 20
-21.471963274
 30
0.0
 10
-15.8793101176
 20
-21.5526843659
 30
0.0
 10
-15.8795753619
 20
-21.7110953755
 30
0.0
 10
-15.8807612386
 20
-21.9412082463
 30
0.0
 10
-15.8824056025
 20
-22.1233372804
 30
0.0
 10
-15.8841199282
 20
-22.2580142072
 30
0.0
 10
-15.8855251499
 20
-22.3484445853
 30
0.0
 10
-15.8870721565
 20
-22.4305381204
 30
0.0
 10
-15.8887470819
 20
-22.5035165709
 30
0.0
 10
-15.8905260103
 20
-22.5666828952
 30
0.0
 10
-15.8923954527
 20
-22.6194366275
 30
0.0
 10
-15.8940910268
 20
-22.6566596776
 30
0.0
 10
-15.8955491646
 20
-22.6808456255
 30
0.0
 10
-15.8965512005
 20
-22.694742339
 30
0.0
 10
-15.8975909657
 20
-22.7056418433
 30
0.0
 10
-15.8985167754
 20
-22.7138526807
 30
0.0
 10
-15.8995931407
 20
-22.7186785919
 30
0.0
 10
-15.9002222
 20
-22.7214880158
 30
0.0
 10
-15.900900467
 20
-22.7218947357
 30
0.0
  0
SPLINE
  5
58B
100
AcDbEntity
  8
RACCORDO
100
AcDbSpline
 62
250
  6
CONTINUOUS
 70
0
 71
3
 72
23
 73
19
 74
0
 42
0.0000001
 43
0.0000001
 44
0.0000000001
 40
0.0
 40
0.0
 40
0.0
 40
0.0
 40
0.1936593615
 40
0.380046453
 40
0.5520745967
 40
0.6306250615
 40
0.7031777483
 40
0.7690516514
 40
0.8276067538
 40
0.8782998976
 40
0.9206379149
 40
0.9542346656
 40
0.9676491864
 40
0.9787689388
 40
0.9875707472
 40
0.9940352668
 40
0.9981616041
 40
1.0
 40
1.0
 40
1.0
 40
1.0
 10
-15.6293481941
 20
-21.471963274
 30
0.0
 10
-15.6293481945
 20
-21.5688268199
 30
0.0
 10
-15.6296134461
 20
-21.7589166293
 30
0.0
 10
-15.6307992848
 20
-22.0350482959
 30
0.0
 10
-15.6324435941
 20
-22.2536019078
 30
0.0
 10
-15.6341578722
 20
-22.4152151046
 30
0.0
 10
-15.6355630737
 20
-22.5237325456
 30
0.0
 10
-15.6371100098
 20
-22.6222459982
 30
0.0
 10
-15.638785037
 20
-22.7098214119
 30
0.0
 10
-15.640563557
 20
-22.7856219336
 30
0.0
 10
-15.6424340267
 20
-22.8489268909
 30
0.0
 10
-15.6441270362
 20
-22.8935952709
 30
0.0
 10
-15.6455891606
 20
-22.9226207536
 30
0.0
 10
-15.6465827125
 20
-22.9392948828
 30
0.0
 10
-15.6476444195
 20
-22.952373564
 30
0.0
 10
-15.6485171963
 20
-22.9622151383
 30
0.0
 10
-15.6496890713
 20
-22.96799698
 30
0.0
 10
-15.6501922369
 20
-22.9713438661
 30
0.0
 10
-15.6509385432
 20
-22.971881028
 30
0.0
  0
SPLINE
  5
58C
100
AcDbEntity
  8
RACCORDO
100
AcDbSpline
 62
7
  6
CONTINUOUS
 70
0
 71
3
 72
11
 73
7
 74
0
 42
0.0000001
 43
0.0000001
 44
0.0000000001
 40
0.0
 40
0.0
 40
0.0
 40
0.0
 40
0.2983771568
 40
0.5532485215
 40
0.7829679262
 40
1.0
 40
1.0
 40
1.0
 40
1.0
 10
-15.7084332925
 20
-23.0063756357
 30
0.0
 10
-15.7474413345
 20
-23.0067950219
 30
0.0
 10
-15.8210420802
 20
-22.9908346149
 30
0.0
 10
-15.9055161382
 20
-22.9287950487
 30
0.0
 10
-15.9558411026
 20
-22.849812473
 30
0.0
 10
-15.9683852362
 20
-22.7913228975
 30
0.0
 10
-15.9693542484
 20
-22.7629643353
 30
0.0
  0
LINE
  5
58D
100
AcDbEntity
  8
RACCORDO
100
AcDbLine
 62
7
  6
CONTINUOUS
 10
3.2829901504
 20
-4.3493964004
 30
0.0
 11
2.7830091889
 21
-3.8494154389
 31
0.0
  0
LINE
  5
58E
100
AcDbEntity
  8
RACCORDO
100
AcDbLine
 62
7
  6
CONTINUOUS
 10
3.2829901504
 20
4.5680954136
 30
0.0
 11
2.7830091889
 21
4.068114452
 31
0.0
  0
LINE
  5
58F
100
AcDbEntity
  8
RACCORDO
100
AcDbLine
 62
7
  6
CONTINUOUS
 10
-10.6345016636
 20
4.5680954136
 30
0.0
 11
-10.134520702
 21
4.068114452
 31
0.0
  0
SPLINE
  5
590
100
AcDbEntity
  8
RACCORDO
100
AcDbSpline
 62
7
  6
CONTINUOUS
 70
0
 71
3
 72
9
 73
5
 74
0
 42
0.0000001
 43
0.0000001
 44
0.0000000001
 40
0.0
 40
0.0
 40
0.0
 40
0.0
 40
0.2354709128
 40
1.0
 40
1.0
 40
1.0
 40
1.0
 10
0.1176956457
 20
21.77244596
 30
0.0
 10
0.1195932188
 20
21.7731834374
 30
0.0
 10
0.1277014103
 20
21.7761876119
 30
0.0
 10
0.135981532
 20
21.7787164272
 30
0.0
 10
0.142361357
 20
21.7804455449
 30
0.0
  0
SPLINE
  5
591
100
AcDbEntity
  8
RACCORDO
100
AcDbSpline
 62
7
  6
CONTINUOUS
 70
0
 71
3
 72
9
 73
5
 74
0
 42
0.0000001
 43
0.0000001
 44
0.0000000001
 40
0.0
 40
0.0
 40
0.0
 40
0.0
 40
0.4704394698
 40
1.0
 40
1.0
 40
1.0
 40
1.0
 10
0.142361357
 20
21.7804455449
 30
0.0
 10
0.1581368055
 20
21.7847211493
 30
0.0
 10
0.1923641444
 20
21.7912529486
 30
0.0
 10
0.2270207365
 20
21.7943130357
 30
0.0
 10
0.2454007806
 20
21.7951401523
 30
0.0
  0
SPLINE
  5
592
100
AcDbEntity
  8
RACCORDO
100
AcDbSpline
 62
7
  6
CONTINUOUS
 70
0
 71
3
 72
9
 73
5
 74
0
 42
0.0000001
 43
0.0000001
 44
0.0000000001
 40
0.0
 40
0.0
 40
0.0
 40
0.0
 40
0.260207837
 40
1.0
 40
1.0
 40
1.0
 40
1.0
 10
-7.5969122937
 20
21.7951401523
 30
0.0
 10
-7.5907075379
 20
21.7948609333
 30
0.0
 10
-7.5668815021
 20
21.7934320465
 30
0.0
 10
-7.5431238893
 20
21.7906051278
 30
0.0
 10
-7.5257399481
 20
21.7875034278
 30
0.0
  0
SPLINE
  5
593
100
AcDbEntity
  8
RACCORDO
100
AcDbSpline
 62
7
  6
CONTINUOUS
 70
0
 71
3
 72
9
 73
5
 74
0
 42
0.0000001
 43
0.0000001
 44
0.0000000001
 40
0.0
 40
0.0
 40
0.0
 40
0.0
 40
0.2611787875
 40
1.0
 40
1.0
 40
1.0
 40
1.0
 10
-7.5257399481
 20
21.7875034278
 30
0.0
 10
-7.5229420718
 20
21.7870042215
 30
0.0
 10
-7.5122487431
 20
21.7849891289
 30
0.0
 10
-7.501632532
 20
21.7825486385
 30
0.0
 10
-7.4938728701
 20
21.7804455449
 30
0.0
  0
SPLINE
  5
594
100
AcDbEntity
  8
RACCORDO
100
AcDbSpline
 62
7
  6
CONTINUOUS
 70
0
 71
3
 72
9
 73
5
 74
0
 42
0.0000001
 43
0.0000001
 44
0.0000000001
 40
0.0
 40
0.0
 40
0.0
 40
0.0
 40
0.2643016838
 40
1.0
 40
1.0
 40
1.0
 40
1.0
 10
-7.4938728701
 20
21.7804455449
 30
0.0
 10
-7.4916673749
 20
21.7798477917
 30
0.0
 10
-7.4833490127
 20
21.777492554
 30
0.0
 10
-7.4751357632
 20
21.774750067
 30
0.0
 10
-7.4692071588
 20
21.77244596
 30
0.0
  0
SPLINE
  5
595
100
AcDbEntity
  8
RACCORDO
100
AcDbSpline
 62
7
  6
CONTINUOUS
 70
0
 71
3
 72
16
 73
12
 74
0
 42
0.0000001
 43
0.0000001
 44
0.0000000001
 40
0.0
 40
0.0
 40
0.0
 40
0.0
 40
0.057542313
 40
0.0919839327
 40
0.1317056684
 40
0.228777848
 40
0.3496265899
 40
0.491798094
 40
0.6511535049
 40
0.8225005993
 40
1.0
 40
1.0
 40
1.0
 40
1.0
 10
0.8242442434
 20
22.8848280444
 30
0.0
 10
0.8242442434
 20
22.8806097591
 30
0.0
 10
0.8217552724
 20
22.873840193
 30
0.0
 10
0.8155245736
 20
22.8664549389
 30
0.0
 10
0.8058949746
 20
22.8583058133
 30
0.0
 10
0.7891728405
 20
22.8492114737
 30
0.0
 10
0.7643199652
 20
22.8401747557
 30
0.0
 10
0.734209803
 20
22.8327438577
 30
0.0
 10
0.6999599956
 20
22.8272054378
 30
0.0
 10
0.6628363183
 20
22.823789753
 30
0.0
 10
0.6372562874
 20
22.8230246455
 30
0.0
 10
0.6242442434
 20
22.8230246455
 30
0.0
  0
SPLINE
  5
596
100
AcDbEntity
  8
RACCORDO
100
AcDbSpline
 62
7
  6
CONTINUOUS
 70
0
 71
3
 72
16
 73
12
 74
0
 42
0.0000001
 43
0.0000001
 44
0.0000000001
 40
0.0
 40
0.0
 40
0.0
 40
0.0
 40
0.1774994007
 40
0.3488464951
 40
0.508201906
 40
0.6503734101
 40
0.771222152
 40
0.8682943316
 40
0.9080160673
 40
0.942457687
 40
1.0
 40
1.0
 40
1.0
 40
1.0
 10
-7.9757557566
 20
22.8230246455
 30
0.0
 10
-7.9887678005
 20
22.8230246455
 30
0.0
 10
-8.0143478315
 20
22.823789753
 30
0.0
 10
-8.0514715088
 20
22.8272054378
 30
0.0
 10
-8.0857213162
 20
22.8327438577
 30
0.0
 10
-8.1158314784
 20
22.8401747557
 30
0.0
 10
-8.1406843536
 20
22.8492114737
 30
0.0
 10
-8.1574064878
 20
22.8583058133
 30
0.0
 10
-8.1670360867
 20
22.8664549389
 30
0.0
 10
-8.1732667856
 20
22.873840193
 30
0.0
 10
-8.1757557566
 20
22.8806097591
 30
0.0
 10
-8.1757557566
 20
22.8848280444
 30
0.0
  0
SPLINE
  5
597
100
AcDbEntity
  8
RACCORDO
100
AcDbSpline
 62
7
  6
CONTINUOUS
 70
0
 71
3
 72
9
 73
5
 74
0
 42
0.0000001
 43
0.0000001
 44
0.0000000001
 40
0.0
 40
0.0
 40
0.0
 40
0.0
 40
0.2354709128
 40
1.0
 40
1.0
 40
1.0
 40
1.0
 10
-7.4692071588
 20
-23.0537469469
 30
0.0
 10
-7.471104732
 20
-23.0544844242
 30
0.0
 10
-7.4792129235
 20
-23.0574885988
 30
0.0
 10
-7.4874930452
 20
-23.060017414
 30
0.0
 10
-7.4938728701
 20
-23.0617465318
 30
0.0
  0
SPLINE
  5
598
100
AcDbEntity
  8
RACCORDO
100
AcDbSpline
 62
7
  6
CONTINUOUS
 70
0
 71
3
 72
9
 73
5
 74
0
 42
0.0000001
 43
0.0000001
 44
0.0000000001
 40
0.0
 40
0.0
 40
0.0
 40
0.0
 40
0.4704394698
 40
1.0
 40
1.0
 40
1.0
 40
1.0
 10
-7.4938728701
 20
-23.0617465318
 30
0.0
 10
-7.5096483186
 20
-23.0660221361
 30
0.0
 10
-7.5438756575
 20
-23.0725539355
 30
0.0
 10
-7.5785322497
 20
-23.0756140225
 30
0.0
 10
-7.5969122937
 20
-23.0764411391
 30
0.0
  0
SPLINE
  5
599
100
AcDbEntity
  8
RACCORDO
100
AcDbSpline
 62
7
  6
CONTINUOUS
 70
0
 71
3
 72
9
 73
5
 74
0
 42
0.0000001
 43
0.0000001
 44
0.0000000001
 40
0.0
 40
0.0
 40
0.0
 40
0.0
 40
0.260207837
 40
1.0
 40
1.0
 40
1.0
 40
1.0
 10
0.2454007806
 20
-23.0764411391
 30
0.0
 10
0.2391960247
 20
-23.0761619202
 30
0.0
 10
0.215369989
 20
-23.0747330334
 30
0.0
 10
0.1916123762
 20
-23.0719061146
 30
0.0
 10
0.1742284349
 20
-23.0688044146
 30
0.0
  0
SPLINE
  5
59A
100
AcDbEntity
  8
RACCORDO
100
AcDbSpline
 62
7
  6
CONTINUOUS
 70
0
 71
3
 72
9
 73
5
 74
0
 42
0.0000001
 43
0.0000001
 44
0.0000000001
 40
0.0
 40
0.0
 40
0.0
 40
0.0
 40
0.2611787875
 40
1.0
 40
1.0
 40
1.0
 40
1.0
 10
0.1742284349
 20
-23.0688044146
 30
0.0
 10
0.1714305586
 20
-23.0683052083
 30
0.0
 10
0.1607372299
 20
-23.0662901157
 30
0.0
 10
0.1501210188
 20
-23.0638496253
 30
0.0
 10
0.142361357
 20
-23.0617465318
 30
0.0
  0
SPLINE
  5
59B
100
AcDbEntity
  8
RACCORDO
100
AcDbSpline
 62
7
  6
CONTINUOUS
 70
0
 71
3
 72
9
 73
5
 74
0
 42
0.0000001
 43
0.0000001
 44
0.0000000001
 40
0.0
 40
0.0
 40
0.0
 40
0.0
 40
0.2643016838
 40
1.0
 40
1.0
 40
1.0
 40
1.0
 10
0.142361357
 20
-23.0617465318
 30
0.0
 10
0.1401558617
 20
-23.0611487785
 30
0.0
 10
0.1318374995
 20
-23.0587935409
 30
0.0
 10
0.1236242501
 20
-23.0560510538
 30
0.0
 10
0.1176956457
 20
-23.0537469469
 30
0.0
  0
SPLINE
  5
59C
100
AcDbEntity
  8
RACCORDO
100
AcDbSpline
 62
7
  6
CONTINUOUS
 70
0
 71
3
 72
16
 73
12
 74
0
 42
0.0000001
 43
0.0000001
 44
0.0000000001
 40
0.0
 40
0.0
 40
0.0
 40
0.0
 40
0.057542313
 40
0.0919839327
 40
0.1317056684
 40
0.228777848
 40
0.3496265899
 40
0.491798094
 40
0.6511535049
 40
0.8225005993
 40
1.0
 40
1.0
 40
1.0
 40
1.0
 10
-8.1757557566
 20
-24.1661290312
 30
0.0
 10
-8.1757557566
 20
-24.161910746
 30
0.0
 10
-8.1732667856
 20
-24.1551411798
 30
0.0
 10
-8.1670360867
 20
-24.1477559257
 30
0.0
 10
-8.1574064878
 20
-24.1396068002
 30
0.0
 10
-8.1406843536
 20
-24.1305124605
 30
0.0
 10
-8.1158314784
 20
-24.1214757426
 30
0.0
 10
-8.0857213162
 20
-24.1140448445
 30
0.0
 10
-8.0514715088
 20
-24.1085064246
 30
0.0
 10
-8.0143478315
 20
-24.1050907399
 30
0.0
 10
-7.9887678005
 20
-24.1043256324
 30
0.0
 10
-7.9757557566
 20
-24.1043256324
 30
0.0
  0
SPLINE
  5
59D
100
AcDbEntity
  8
RACCORDO
100
AcDbSpline
 62
7
  6
CONTINUOUS
 70
0
 71
3
 72
16
 73
12
 74
0
 42
0.0000001
 43
0.0000001
 44
0.0000000001
 40
0.0
 40
0.0
 40
0.0
 40
0.0
 40
0.1774994007
 40
0.3488464951
 40
0.508201906
 40
0.6503734101
 40
0.771222152
 40
0.8682943316
 40
0.9080160673
 40
0.942457687
 40
1.0
 40
1.0
 40
1.0
 40
1.0
 10
0.6242442434
 20
-24.1043256324
 30
0.0
 10
0.6372562874
 20
-24.1043256324
 30
0.0
 10
0.6628363183
 20
-24.1050907399
 30
0.0
 10
0.6999599956
 20
-24.1085064246
 30
0.0
 10
0.734209803
 20
-24.1140448445
 30
0.0
 10
0.7643199652
 20
-24.1214757426
 30
0.0
 10
0.7891728405
 20
-24.1305124605
 30
0.0
 10
0.8058949746
 20
-24.1396068002
 30
0.0
 10
0.8155245736
 20
-24.1477559257
 30
0.0
 10
0.8217552724
 20
-24.1551411798
 30
0.0
 10
0.8242442434
 20
-24.161910746
 30
0.0
 10
0.8242442434
 20
-24.1661290312
 30
0.0
  0
SPLINE
  5
59E
100
AcDbEntity
  8
IMPORT_IGES
100
AcDbSpline
 62
7
  6
CONTINUOUS
 70
0
 71
3
 72
8
 73
4
 74
0
 42
0.0000001
 43
0.0000001
 44
0.0000000001
 40
0.0
 40
0.0
 40
0.0
 40
0.0
 40
1.0
 40
1.0
 40
1.0
 40
1.0
 10
-61.3705997374
 20
-10.2027823501
 30
0.0
 10
-61.5351695971
 20
-10.1322524102
 30
0.0
 10
-61.7002383602
 20
-10.0628903895
 30
0.0
 10
-61.86480822
 20
-9.9923604496
 30
0.0
  0
SPLINE
  5
59F
100
AcDbEntity
  8
IMPORT_IGES
100
AcDbSpline
 62
7
  6
CONTINUOUS
 70
0
 71
3
 72
10
 73
6
 74
0
 42
0.0000001
 43
0.0000001
 44
0.0000000001
 40
0.0
 40
0.0
 40
0.0
 40
0.0
 40
0.2500009989
 40
0.5001796269
 40
1.0
 40
1.0
 40
1.0
 40
1.0
 10
-62.1547553357
 20
-9.9937105701
 30
0.0
 10
-62.2280739309
 20
-9.9937105705
 30
0.0
 10
-62.374826943
 20
-9.9739525888
 30
0.0
 10
-62.6558296959
 20
-9.8882816175
 30
0.0
 10
-62.853551537
 20
-9.786818281
 30
0.0
 10
-62.9770486386
 20
-9.7078542836
 30
0.0
  0
SPLINE
  5
5A0
100
AcDbEntity
  8
IMPORT_IGES
100
AcDbSpline
 62
250
  6
CONTINUOUS
 70
0
 71
3
 72
20
 73
16
 74
0
 42
0.0000001
 43
0.0000001
 44
0.0000000001
 40
0.0
 40
0.0
 40
0.0
 40
0.0
 40
0.0014835871
 40
0.0052119096
 40
0.0197246214
 40
0.0435840512
 40
0.076631481
 40
0.1186327716
 40
0.1691101171
 40
0.2275247627
 40
0.293337148
 40
0.4447203119
 40
0.6175689931
 40
0.8054427951
 40
1.0
 40
1.0
 40
1.0
 40
1.0
 10
-65.2717072368
 20
-8.0763877056
 30
0.0
 10
-65.2717072368
 20
-8.0765361634
 30
0.0
 10
-65.2710343942
 20
-8.0767394966
 30
0.0
 10
-65.2693435624
 20
-8.0771060035
 30
0.0
 10
-65.2648950781
 20
-8.0775148667
 30
0.0
 10
-65.2579101296
 20
-8.0779863632
 30
0.0
 10
-65.2479591805
 20
-8.0784487892
 30
0.0
 10
-65.2354307211
 20
-8.0789009404
 30
0.0
 10
-65.2203286912
 20
-8.0793319747
 30
0.0
 10
-65.2028541104
 20
-8.0797380972
 30
0.0
 10
-65.1752784319
 20
-8.0802633785
 30
0.0
 10
-65.1362521165
 20
-8.0808036724
 30
0.0
 10
-65.085009066
 20
-8.0812716427
 30
0.0
 10
-65.0294446713
 20
-8.0815576144
 30
0.0
 10
-64.9911759616
 20
-8.0816234275
 30
0.0
 10
-64.9717072368
 20
-8.0816234275
 30
0.0
  0
SPLINE
  5
5A1
100
AcDbEntity
  8
IMPORT_IGES
100
AcDbSpline
 62
250
  6
CONTINUOUS
 70
0
 71
3
 72
11
 73
7
 74
0
 42
0.0000001
 43
0.0000001
 44
0.0000000001
 40
0.0
 40
0.0
 40
0.0
 40
0.0
 40
0.2287820514
 40
0.4705284561
 40
0.7295036757
 40
1.0
 40
1.0
 40
1.0
 40
1.0
 10
-40.9717072368
 20
-5.7748951858
 30
0.0
 10
-40.9717072368
 20
-5.7967679427
 30
0.0
 10
-40.9829077438
 20
-5.8423341574
 30
0.0
 10
-41.0286833072
 20
-5.8975308846
 30
0.0
 10
-41.0948093618
 20
-5.9334587155
 30
0.0
 10
-41.145846378
 20
-5.9416851905
 30
0.0
 10
-41.1717072368
 20
-5.9416851905
 30
0.0
  0
SPLINE
  5
5A2
100
AcDbEntity
  8
IMPORT_IGES
100
AcDbSpline
 62
250
  6
CONTINUOUS
 70
0
 71
3
 72
13
 73
9
 74
0
 42
0.0000001
 43
0.0000001
 44
0.0000000001
 40
0.0
 40
0.0
 40
0.0
 40
0.0
 40
0.3972111836
 40
0.7019346415
 40
0.8161921222
 40
0.9038680461
 40
0.9646604328
 40
1.0
 40
1.0
 40
1.0
 40
1.0
 10
-50.9015075819
 20
-10.2027823501
 30
0.0
 10
-50.9031725758
 20
-10.2146339892
 30
0.0
 10
-50.906264836
 20
-10.2355505618
 30
0.0
 10
-50.9107879515
 20
-10.2597570515
 30
0.0
 10
-50.914495208
 20
-10.2745470628
 30
0.0
 10
-50.9168205734
 20
-10.282163525
 30
0.0
 10
-50.9188798753
 20
-10.2872179006
 30
0.0
 10
-50.9204839821
 20
-10.2898243911
 30
0.0
 10
-50.9213917519
 20
-10.2903809182
 30
0.0
  0
LINE
  5
5A3
100
AcDbEntity
  8
IMPORT_IGES
100
AcDbLine
 62
250
  6
CONTINUOUS
 10
-50.9213917519
 20
-10.2903809182
 30
0.0
 11
-50.9222539852
 21
-10.2906504934
 31
0.0
  0
SPLINE
  5
5A4
100
AcDbEntity
  8
IMPORT_IGES
100
AcDbSpline
 62
250
  6
CONTINUOUS
 70
0
 71
3
 72
9
 73
5
 74
0
 42
0.0000001
 43
0.0000001
 44
0.0000000001
 40
0.0
 40
0.0
 40
0.0
 40
0.0
 40
0.5191985576
 40
1.0
 40
1.0
 40
1.0
 40
1.0
 10
-50.604578435
 20
-9.9570742101
 30
0.0
 10
-50.6376833933
 20
-9.9635300743
 30
0.0
 10
-50.7001419964
 20
-9.984142737
 30
0.0
 10
-50.7556129636
 20
-10.0191552158
 30
0.0
 10
-50.7799798896
 20
-10.03869562
 30
0.0
  0
SPLINE
  5
5A5
100
AcDbEntity
  8
IMPORT_IGES
100
AcDbSpline
 62
250
  6
CONTINUOUS
 70
0
 71
3
 72
9
 73
5
 74
0
 42
0.0000001
 43
0.0000001
 44
0.0000000001
 40
0.0
 40
0.0
 40
0.0
 40
0.0
 40
0.517964488
 40
1.0
 40
1.0
 40
1.0
 40
1.0
 10
-50.7799798896
 20
-10.03869562
 30
0.0
 10
-50.8077029694
 20
-10.060927402
 30
0.0
 10
-50.8557104096
 20
-10.111415265
 30
0.0
 10
-50.8884920348
 20
-10.1723800473
 30
0.0
 10
-50.9015075819
 20
-10.2027823501
 30
0.0
  0
SPLINE
  5
5A6
100
AcDbEntity
  8
IMPORT_IGES
100
AcDbSpline
 62
250
  6
CONTINUOUS
 70
0
 71
3
 72
21
 73
17
 74
0
 42
0.0000001
 43
0.0000001
 44
0.0000000001
 40
0.0
 40
0.0
 40
0.0
 40
0.0
 40
0.0012920889
 40
0.0049636248
 40
0.0110284392
 40
0.0194688548
 40
0.0433899742
 40
0.0765477592
 40
0.1186965133
 40
0.1693445166
 40
0.2279391945
 40
0.2939277735
 40
0.4455954093
 40
0.618530784
 40
0.8061610791
 40
1.0
 40
1.0
 40
1.0
 40
1.0
 10
-65.1215357282
 20
-2.5490810351
 30
0.0
 10
-65.1216493809
 20
-2.5491465525
 30
0.0
 10
-65.1212514301
 20
-2.5497976596
 30
0.0
 10
-65.1210056053
 20
-2.5506549192
 30
0.0
 10
-65.1200696007
 20
-2.5524016513
 30
0.0
 10
-65.1183568436
 20
-2.5558159603
 30
0.0
 10
-65.1151661184
 20
-2.5617225109
 30
0.0
 10
-65.110365523
 20
-2.5705466155
 30
0.0
 10
-65.1041662097
 20
-2.5817444462
 30
0.0
 10
-65.096681887
 20
-2.5951653589
 30
0.0
 10
-65.087972432
 20
-2.6106803895
 30
0.0
 10
-65.0741937325
 20
-2.6351095356
 30
0.0
 10
-65.0546217173
 20
-2.6696001458
 30
0.0
 10
-65.0288488566
 20
-2.7147714305
 30
0.0
 10
-65.0008566687
 20
-2.7636060194
 30
0.0
 10
-64.9815383951
 20
-2.797174468
 30
0.0
 10
-64.9717072369
 20
-2.8142233237
 30
0.0
  0
SPLINE
  5
5A7
100
AcDbEntity
  8
IMPORT_IGES
100
AcDbSpline
 62
250
  6
CONTINUOUS
 70
0
 71
3
 72
10
 73
6
 74
0
 42
0.0000001
 43
0.0000001
 44
0.0000000001
 40
0.0
 40
0.0
 40
0.0
 40
0.0
 40
0.2563773645
 40
0.5076104123
 40
1.0
 40
1.0
 40
1.0
 40
1.0
 10
-63.5133478498
 20
-9.1250270547
 30
0.0
 10
-63.5553498768
 20
-9.1376189095
 30
0.0
 10
-63.6417264696
 20
-9.1536153272
 30
0.0
 10
-63.8135550858
 20
-9.1429115742
 30
0.0
 10
-63.9360190318
 20
-9.0946794621
 30
0.0
 10
-64.0069743048
 20
-9.0493202209
 30
0.0
  0
SPLINE
  5
5A8
100
AcDbEntity
  8
IMPORT_IGES
100
AcDbSpline
 62
250
  6
CONTINUOUS
 70
0
 71
3
 72
9
 73
5
 74
0
 42
0.0000001
 43
0.0000001
 44
0.0000000001
 40
0.0
 40
0.0
 40
0.0
 40
0.0
 40
0.4999896853
 40
1.0
 40
1.0
 40
1.0
 40
1.0
 10
-47.2717072368
 20
-7.0887794342
 30
0.0
 10
-47.2718189707
 20
-7.1147919156
 30
0.0
 10
-47.281932692
 20
-7.167386116
 30
0.0
 10
-47.3119711013
 20
-7.2117268528
 30
0.0
 10
-47.3302858806
 20
-7.2302007904
 30
0.0
  0
SPLINE
  5
5A9
100
AcDbEntity
  8
IMPORT_IGES
100
AcDbSpline
 62
250
  6
CONTINUOUS
 70
0
 71
3
 72
10
 73
6
 74
0
 42
0.0000001
 43
0.0000001
 44
0.0000000001
 40
0.0
 40
0.0
 40
0.0
 40
0.0
 40
0.5183224905
 40
0.7676113605
 40
1.0
 40
1.0
 40
1.0
 40
1.0
 10
-48.8743024554
 20
-8.7741766801
 30
0.0
 10
-48.9141398296
 20
-8.8140133209
 30
0.0
 10
-48.9816128766
 20
-8.8659130073
 30
0.0
 10
-49.081971402
 20
-8.9087777182
 30
0.0
 10
-49.1343781785
 20
-8.91808254
 30
0.0
 10
-49.1596372011
 20
-8.9180860094
 30
0.0
  0
SPLINE
  5
5AA
100
AcDbEntity
  8
IMPORT_IGES
100
AcDbSpline
 62
250
  6
CONTINUOUS
 70
0
 71
3
 72
10
 73
6
 74
0
 42
0.0000001
 43
0.0000001
 44
0.0000000001
 40
0.0
 40
0.0
 40
0.0
 40
0.0
 40
0.236405457
 40
0.4861991185
 40
1.0
 40
1.0
 40
1.0
 40
1.0
 10
-63.5133478477
 20
-8.9181258197
 30
0.0
 10
-63.5413716962
 20
-8.9181239088
 30
0.0
 10
-63.5990511136
 20
-8.9107324281
 30
0.0
 10
-63.712714227
 20
-8.8762464865
 30
0.0
 10
-63.7941273466
 20
-8.834565848
 30
0.0
 10
-63.8454412785
 20
-8.801755675
 30
0.0
  0
SPLINE
  5
5AB
100
AcDbEntity
  8
IMPORT_IGES
100
AcDbSpline
 62
7
  6
CONTINUOUS
 70
0
 71
3
 72
9
 73
5
 74
0
 42
0.0000001
 43
0.0000001
 44
0.0000000001
 40
0.0
 40
0.0
 40
0.0
 40
0.0
 40
0.0646766616
 40
1.0
 40
1.0
 40
1.0
 40
1.0
 10
-63.571707237
 20
-1.6556504932
 30
0.0
 10
-63.570964353
 20
-1.6561937642
 30
0.0
 10
-63.5594354984
 20
-1.664532893
 30
0.0
 10
-63.5472890186
 20
-1.6719918626
 30
0.0
 10
-63.53593292
 20
-1.6789310738
 30
0.0
  0
SPLINE
  5
5AC
100
AcDbEntity
  8
IMPORT_IGES
100
AcDbSpline
 62
7
  6
CONTINUOUS
 70
0
 71
3
 72
9
 73
5
 74
0
 42
0.0000001
 43
0.0000001
 44
0.0000000001
 40
0.0
 40
0.0
 40
0.0
 40
0.0
 40
0.4344875594
 40
1.0
 40
1.0
 40
1.0
 40
1.0
 10
-63.53593292
 20
-1.6789310738
 30
0.0
 10
-63.4980565989
 20
-1.7020756234
 30
0.0
 10
-63.4099492439
 20
-1.7538025103
 30
0.0
 10
-63.3217339668
 20
-1.8053249622
 30
0.0
 10
-63.2717072368
 20
-1.8342233237
 30
0.0
  0
SPLINE
  5
5AD
100
AcDbEntity
  8
IMPORT_IGES
100
AcDbSpline
 62
250
  6
CONTINUOUS
 70
0
 71
3
 72
20
 73
16
 74
0
 42
0.0000001
 43
0.0000001
 44
0.0000000001
 40
0.0
 40
0.0
 40
0.0
 40
0.0
 40
0.1945564266
 40
0.3824287156
 40
0.5552773475
 40
0.7066616808
 40
0.7724745201
 40
0.8308895543
 40
0.8813672118
 40
0.9233687267
 40
0.9564162231
 40
0.9802755687
 40
0.9947881525
 40
0.9985164284
 40
1.0
 40
1.0
 40
1.0
 40
1.0
 10
-64.9717072368
 20
-2.8142233237
 30
0.0
 10
-64.9911758839
 20
-2.8142233237
 30
0.0
 10
-65.0294443644
 20
-2.8141575148
 30
0.0
 10
-65.0850085252
 20
-2.8138715434
 30
0.0
 10
-65.1362515366
 20
-2.8134035723
 30
0.0
 10
-65.1752780098
 20
-2.8128632826
 30
0.0
 10
-65.2028538898
 20
-2.8123379973
 30
0.0
 10
-65.2203285861
 20
-2.8119318722
 30
0.0
 10
-65.2354307086
 20
-2.8115008354
 30
0.0
 10
-65.2479592286
 20
-2.8110486837
 30
0.0
 10
-65.2579101978
 20
-2.8105862577
 30
0.0
 10
-65.2648951343
 20
-2.8101147638
 30
0.0
 10
-65.2693435868
 20
-2.8097058974
 30
0.0
 10
-65.2710344061
 20
-2.8093393938
 30
0.0
 10
-65.2717072368
 20
-2.8091360576
 30
0.0
 10
-65.2717072368
 20
-2.8089876013
 30
0.0
  0
SPLINE
  5
5AE
100
AcDbEntity
  8
IMPORT_IGES
100
AcDbSpline
 62
250
  6
CONTINUOUS
 70
0
 71
3
 72
21
 73
17
 74
0
 42
0.0000001
 43
0.0000001
 44
0.0000000001
 40
0.0
 40
0.0
 40
0.0
 40
0.0
 40
0.1954268666
 40
0.3837033066
 40
0.5566183633
 40
0.7078486401
 40
0.7735367358
 40
0.8318110702
 40
0.8821425255
 40
0.9240022217
 40
0.956919817
 40
0.9806610767
 40
0.9890371314
 40
0.9950564471
 40
0.9987034826
 40
1.0
 40
1.0
 40
1.0
 40
1.0
 10
-64.9717072368
 20
-8.0816234275
 30
0.0
 10
-64.9820843489
 20
-8.0978479471
 30
0.0
 10
-65.0024880914
 20
-8.1296846724
 30
0.0
 10
-65.0321716475
 20
-8.1758140764
 30
0.0
 10
-65.0595893375
 20
-8.218221813
 30
0.0
 10
-65.0805299376
 20
-8.2504314564
 30
0.0
 10
-65.0953763392
 20
-8.2731264304
 30
0.0
 10
-65.1048121603
 20
-8.2874806787
 30
0.0
 10
-65.1129930574
 20
-8.2998436736
 30
0.0
 10
-65.1198387604
 20
-8.3101106208
 30
0.0
 10
-65.1252716603
 20
-8.3181245646
 30
0.0
 10
-65.1289240428
 20
-8.3234603151
 30
0.0
 10
-65.131094561
 20
-8.3264351619
 30
0.0
 10
-65.1321860766
 20
-8.3279959356
 30
0.0
 10
-65.1328113302
 20
-8.3285960646
 30
0.0
 10
-65.1332077919
 20
-8.3292065895
 30
0.0
 10
-65.1333156177
 20
-8.3291380392
 30
0.0
  0
SPLINE
  5
5AF
100
AcDbEntity
  8
IMPORT_IGES
100
AcDbSpline
 62
250
  6
CONTINUOUS
 70
0
 71
3
 72
21
 73
17
 74
0
 42
0.0000001
 43
0.0000001
 44
0.0000000001
 40
0.0
 40
0.0
 40
0.0
 40
0.0
 40
0.1830815603
 40
0.3693946529
 40
0.548309891
 40
0.7078536016
 40
0.7766735271
 40
0.8369898346
 40
0.8882196777
 40
0.9297804476
 40
0.9612805887
 40
0.9830934559
 40
0.9905448195
 40
0.9957890178
 40
0.9989029181
 40
1.0
 40
1.0
 40
1.0
 40
1.0
 10
-63.8454420795
 20
-8.8017569188
 30
0.0
 10
-63.855163694
 20
-8.8169565751
 30
0.0
 10
-63.8748047418
 20
-8.8476073983
 30
0.0
 10
-63.904038943
 20
-8.8930525173
 30
0.0
 10
-63.9321126287
 20
-8.9364856838
 30
0.0
 10
-63.9539853338
 20
-8.9701402007
 30
0.0
 10
-63.9695610811
 20
-8.9939464282
 30
0.0
 10
-63.9793291009
 20
-9.0087986298
 30
0.0
 10
-63.987658235
 20
-9.0213755074
 30
0.0
 10
-63.9944654527
 20
-9.0315714888
 30
0.0
 10
-63.9997048067
 20
-9.0392837875
 30
0.0
 10
-64.0031294029
 20
-9.044260198
 30
0.0
 10
-64.0051014156
 20
-9.0469476972
 30
0.0
 10
-64.0060694099
 20
-9.0483036539
 30
0.0
 10
-64.0066083824
 20
-9.0488281674
 30
0.0
 10
-64.0069594024
 20
-9.0493297141
 30
0.0
 10
-64.007050505
 20
-9.0492714927
 30
0.0
  0
LINE
  5
5B0
100
AcDbEntity
  8
IMPORT_IGES
100
AcDbLine
 62
250
  6
CONTINUOUS
 10
-50.5295155163
 20
-10.0906510634
 30
0.0
 11
-50.6294312797
 21
-10.0912760154
 31
0.0
  0
LINE
  5
5B1
100
AcDbEntity
  8
IMPORT_IGES
100
AcDbLine
 62
250
  6
CONTINUOUS
 10
-50.6294312797
 20
-10.0912760154
 30
0.0
 11
-50.6914984522
 21
-10.0916614336
 31
0.0
  0
SPLINE
  5
5B2
100
AcDbEntity
  8
IMPORT_IGES
100
AcDbSpline
 62
250
  6
CONTINUOUS
 70
0
 71
3
 72
9
 73
5
 74
0
 42
0.0000001
 43
0.0000001
 44
0.0000000001
 40
0.0
 40
0.0
 40
0.0
 40
0.0
 40
0.2507823313
 40
1.0
 40
1.0
 40
1.0
 40
1.0
 10
-46.957951796
 20
-6.2159153265
 30
0.0
 10
-46.9550791868
 20
-6.1789162756
 30
0.0
 10
-46.9419616971
 20
-6.0315114405
 30
0.0
 10
-46.9227080927
 20
-5.8846857443
 30
0.0
 10
-46.9056732283
 20
-5.7751341409
 30
0.0
  0
SPLINE
  5
5B3
100
AcDbEntity
  8
IMPORT_IGES
100
AcDbSpline
 62
250
  6
CONTINUOUS
 70
0
 71
3
 72
11
 73
7
 74
0
 42
0.0000001
 43
0.0000001
 44
0.0000000001
 40
0.0
 40
0.0
 40
0.0
 40
0.0
 40
0.2355198116
 40
0.4933167353
 40
0.7553391844
 40
1.0
 40
1.0
 40
1.0
 40
1.0
 10
-41.7877797743
 20
-2.4538889471
 30
0.0
 10
-41.8117931416
 20
-2.4538869028
 30
0.0
 10
-41.862611524
 20
-2.463982298
 30
0.0
 10
-41.9278118041
 20
-2.5089797841
 30
0.0
 10
-41.9703136356
 20
-2.5767806324
 30
0.0
 10
-41.9797490907
 20
-2.6289103984
 30
0.0
 10
-41.9797499878
 20
-2.6538557735
 30
0.0
  0
SPLINE
  5
5B4
100
AcDbEntity
  8
IMPORT_IGES
100
AcDbSpline
 62
250
  6
CONTINUOUS
 70
0
 71
3
 72
11
 73
7
 74
0
 42
0.0000001
 43
0.0000001
 44
0.0000000001
 40
0.0
 40
0.0
 40
0.0
 40
0.0
 40
0.190838361
 40
0.3937143497
 40
0.6591046613
 40
1.0
 40
1.0
 40
1.0
 40
1.0
 10
-41.9797435439
 20
-2.6538557739
 30
0.0
 10
-41.9784778429
 20
-2.6538413573
 30
0.0
 10
-41.9757414585
 20
-2.6545894795
 30
0.0
 10
-41.9731080952
 20
-2.6583617961
 30
0.0
 10
-41.9719026095
 20
-2.6636345959
 30
0.0
 10
-41.9717072368
 20
-2.6676655767
 30
0.0
 10
-41.9717072368
 20
-2.6699266502
 30
0.0
  0
SPLINE
  5
5B5
100
AcDbEntity
  8
IMPORT_IGES
100
AcDbSpline
 62
250
  6
CONTINUOUS
 70
0
 71
3
 72
13
 73
9
 74
0
 42
0.0000001
 43
0.0000001
 44
0.0000000001
 40
0.0
 40
0.0
 40
0.0
 40
0.0
 40
0.3739455391
 40
0.6920781578
 40
0.8150357436
 40
0.908085612
 40
0.9686589833
 40
1.0
 40
1.0
 40
1.0
 40
1.0
 10
-41.1717072368
 20
-3.1329094227
 30
0.0
 10
-41.1461862479
 20
-3.1329094227
 30
0.0
 10
-41.0989754925
 20
-3.1317676553
 30
0.0
 10
-41.0433867043
 20
-3.127308852
 30
0.0
 10
-41.0074471487
 20
-3.1219429449
 30
0.0
 10
-40.9888165246
 20
-3.1174157389
 30
0.0
 10
-40.9773497856
 20
-3.1135947204
 30
0.0
 10
-40.9717072368
 20
-3.1086971642
 30
0.0
 10
-40.9717072368
 20
-3.1065582064
 30
0.0
  0
SPLINE
  5
5B6
100
AcDbEntity
  8
IMPORT_IGES
100
AcDbSpline
 62
250
  6
CONTINUOUS
 70
0
 71
3
 72
11
 73
7
 74
0
 42
0.0000001
 43
0.0000001
 44
0.0000000001
 40
0.0
 40
0.0
 40
0.0
 40
0.0
 40
0.2704919178
 40
0.5294668366
 40
0.771216229
 40
1.0
 40
1.0
 40
1.0
 40
1.0
 10
-41.7717072368
 20
-5.9416851905
 30
0.0
 10
-41.7975635651
 20
-5.9416851905
 30
0.0
 10
-41.8485918677
 20
-5.933461544
 30
0.0
 10
-41.9147099452
 20
-5.8975458457
 30
0.0
 10
-41.9604879313
 20
-5.842366614
 30
0.0
 10
-41.9716997042
 20
-5.7968113029
 30
0.0
 10
-41.9717072288
 20
-5.7749418586
 30
0.0
  0
SPLINE
  5
5B7
100
AcDbEntity
  8
IMPORT_IGES
100
AcDbSpline
 62
250
  6
CONTINUOUS
 70
0
 71
3
 72
19
 73
15
 74
0
 42
0.0000001
 43
0.0000001
 44
0.0000000001
 40
0.0
 40
0.0
 40
0.0
 40
0.0
 40
0.1829062881
 40
0.3691387569
 40
0.5480552783
 40
0.7076473925
 40
0.776497476
 40
0.8368440159
 40
0.8881019362
 40
0.9296865687
 40
0.9612058866
 40
0.9830365109
 40
0.995754141
 40
1.0
 40
1.0
 40
1.0
 40
1.0
 10
-48.874282042
 20
-8.7741969518
 30
0.0
 10
-48.8615021985
 20
-8.7869729161
 30
0.0
 10
-48.8356811451
 20
-8.8127281189
 30
0.0
 10
-48.7972565156
 20
-8.8508782528
 30
0.0
 10
-48.7603628488
 20
-8.8872988204
 30
0.0
 10
-48.7316279769
 20
-8.9154821734
 30
0.0
 10
-48.7111798441
 20
-8.9353727795
 30
0.0
 10
-48.6983578866
 20
-8.9477780035
 30
0.0
 10
-48.6874467227
 20
-8.9582146114
 30
0.0
 10
-48.6784996033
 20
-8.9667775656
 30
0.0
 10
-48.6717211812
 20
-8.9729078993
 30
0.0
 10
-48.6667065373
 20
-8.9778694799
 30
0.0
 10
-48.6640986742
 20
-8.9793834466
 30
0.0
 10
-48.6624443374
 20
-8.9813923759
 30
0.0
 10
-48.6621477767
 20
-8.9810957019
 30
0.0
  0
SPLINE
  5
5B8
100
AcDbEntity
  8
IMPORT_IGES
100
AcDbSpline
 62
250
  6
CONTINUOUS
 70
0
 71
3
 72
11
 73
7
 74
0
 42
0.0000001
 43
0.0000001
 44
0.0000000001
 40
0.0
 40
0.0
 40
0.0
 40
0.0
 40
0.2573487241
 40
0.5088230862
 40
0.7554308586
 40
1.0
 40
1.0
 40
1.0
 40
1.0
 10
-49.1596469257
 20
-9.1250284337
 30
0.0
 10
-49.1147152694
 20
-9.1362726839
 30
0.0
 10
-49.022204379
 20
-9.1458364049
 30
0.0
 10
-48.8866986082
 20
-9.122775076
 30
0.0
 10
-48.7635564809
 20
-9.0674706799
 30
0.0
 10
-48.6932715744
 20
-9.012214831
 30
0.0
 10
-48.6621467197
 20
-8.9810899763
 30
0.0
  0
SPLINE
  5
5B9
100
AcDbEntity
  8
IMPORT_IGES
100
AcDbSpline
 62
250
  6
CONTINUOUS
 70
0
 71
3
 72
11
 73
7
 74
0
 42
0.0000001
 43
0.0000001
 44
0.0000000001
 40
0.0
 40
0.0
 40
0.0
 40
0.0
 40
0.2226681431
 40
0.4287410506
 40
0.6762661625
 40
1.0
 40
1.0
 40
1.0
 40
1.0
 10
-41.7877798521
 20
-2.4538557739
 30
0.0
 10
-41.7853492645
 20
-2.4538557739
 30
0.0
 10
-41.7804902456
 20
-2.4546157308
 30
0.0
 10
-41.7748155085
 20
-2.4599238957
 30
0.0
 10
-41.7721093332
 20
-2.4681838435
 30
0.0
 10
-41.7716947773
 20
-2.4744310688
 30
0.0
 10
-41.7717072517
 20
-2.4779648413
 30
0.0
  0
SPLINE
  5
5BA
100
AcDbEntity
  8
IMPORT_IGES
100
AcDbSpline
 62
250
  6
CONTINUOUS
 70
0
 71
3
 72
13
 73
9
 74
0
 42
0.0000001
 43
0.0000001
 44
0.0000000001
 40
0.0
 40
0.0
 40
0.0
 40
0.0
 40
0.0313410167
 40
0.091914388
 40
0.1849642564
 40
0.3079218422
 40
0.6260544609
 40
1.0
 40
1.0
 40
1.0
 40
1.0
 10
-41.9717072368
 20
-3.1065582064
 30
0.0
 10
-41.9717072368
 20
-3.1086971642
 30
0.0
 10
-41.9660646881
 20
-3.1135947204
 30
0.0
 10
-41.9545979491
 20
-3.1174157389
 30
0.0
 10
-41.9359673249
 20
-3.1219429449
 30
0.0
 10
-41.9000277694
 20
-3.127308852
 30
0.0
 10
-41.8444389812
 20
-3.1317676553
 30
0.0
 10
-41.7972282258
 20
-3.1329094227
 30
0.0
 10
-41.7717072368
 20
-3.1329094227
 30
0.0
  0
SPLINE
  5
5BB
100
AcDbEntity
  8
IMPORT_IGES
100
AcDbSpline
 62
250
  6
CONTINUOUS
 70
0
 71
3
 72
11
 73
7
 74
0
 42
0.0000001
 43
0.0000001
 44
0.0000000001
 40
0.0
 40
0.0
 40
0.0
 40
0.0
 40
0.2355076672
 40
0.4932981199
 40
0.7553261715
 40
1.0
 40
1.0
 40
1.0
 40
1.0
 10
-41.971708161
 20
-2.6699289132
 30
0.0
 10
-41.9717089061
 20
-2.6459157829
 30
0.0
 10
-41.9616089309
 20
-2.5950975953
 30
0.0
 10
-41.9166006524
 20
-2.5299019455
 30
0.0
 10
-41.8487895313
 20
-2.4874081878
 30
0.0
 10
-41.7966549795
 20
-2.4779779521
 30
0.0
 10
-41.7717072376
 20
-2.4779791496
 30
0.0
  0
SPLINE
  5
5BC
100
AcDbEntity
  8
IMPORT_IGES
100
AcDbSpline
 62
250
  6
CONTINUOUS
 70
0
 71
3
 72
11
 73
7
 74
0
 42
0.0000001
 43
0.0000001
 44
0.0000000001
 40
0.0
 40
0.0
 40
0.0
 40
0.0
 40
0.2284332448
 40
0.4700530404
 40
0.7291784083
 40
1.0
 40
1.0
 40
1.0
 40
1.0
 10
-41.9717072368
 20
-4.6461206406
 30
0.0
 10
-41.9717072368
 20
-4.6243091896
 30
0.0
 10
-41.9829230394
 20
-4.5788467058
 30
0.0
 10
-42.0287166627
 20
-4.5238229255
 30
0.0
 10
-42.0948330591
 20
-4.4880208907
 30
0.0
 10
-42.1458484268
 20
-4.4798247568
 30
0.0
 10
-42.1717072368
 20
-4.4798247568
 30
0.0
  0
SPLINE
  5
5BD
100
AcDbEntity
  8
IMPORT_IGES
100
AcDbSpline
 62
250
  6
CONTINUOUS
 70
0
 71
3
 72
11
 73
7
 74
0
 42
0.0000001
 43
0.0000001
 44
0.0000000001
 40
0.0
 40
0.0
 40
0.0
 40
0.0
 40
0.2484937578
 40
0.4976055518
 40
0.7478076724
 40
1.0
 40
1.0
 40
1.0
 40
1.0
 10
-49.4182139921
 20
-9.7371572487
 30
0.0
 10
-49.4547958079
 20
-9.7737390556
 30
0.0
 10
-49.535343101
 20
-9.8400739813
 30
0.0
 10
-49.6734356217
 20
-9.9142558561
 30
0.0
 10
-49.8256895214
 20
-9.9563274609
 30
0.0
 10
-49.9319069128
 20
-9.9566042703
 30
0.0
 10
-49.9838993474
 20
-9.9492892136
 30
0.0
  0
SPLINE
  5
5BE
100
AcDbEntity
  8
IMPORT_IGES
100
AcDbSpline
 62
250
  6
CONTINUOUS
 70
0
 71
3
 72
11
 73
7
 74
0
 42
0.0000001
 43
0.0000001
 44
0.0000000001
 40
0.0
 40
0.0
 40
0.0
 40
0.0
 40
0.2656566437
 40
0.5329099743
 40
0.7797251781
 40
1.0
 40
1.0
 40
1.0
 40
1.0
 10
-50.9015062481
 20
-10.2027801087
 30
0.0
 10
-50.8830657436
 20
-10.2064735092
 30
0.0
 10
-50.8451640447
 20
-10.2102520155
 30
0.0
 10
-50.7899407552
 20
-10.2018866359
 30
0.0
 10
-50.7422911281
 20
-10.177911078
 30
0.0
 10
-50.7217487793
 20
-10.1500688752
 30
0.0
 10
-50.7158811497
 20
-10.1356209027
 30
0.0
  0
SPLINE
  5
5BF
100
AcDbEntity
  8
IMPORT_IGES
100
AcDbSpline
 62
250
  6
CONTINUOUS
 70
0
 71
3
 72
21
 73
17
 74
0
 42
0.0000001
 43
0.0000001
 44
0.0000000001
 40
0.0
 40
0.0
 40
0.0
 40
0.0
 40
0.1952773985
 40
0.383479757
 40
0.5563737982
 40
0.7076187101
 40
0.7733230021
 40
0.8316171325
 40
0.881970177
 40
0.9238516195
 40
0.9567907092
 40
0.9805542967
 40
0.9889428351
 40
0.9949771066
 40
0.9986460835
 40
1.0
 40
1.0
 40
1.0
 40
1.0
 10
-47.3302858806
 20
-7.2302007904
 30
0.0
 10
-47.3166412769
 20
-7.2438412556
 30
0.0
 10
-47.2898141279
 20
-7.2705956865
 30
0.0
 10
-47.2507981154
 20
-7.3093183954
 30
0.0
 10
-47.2147696256
 20
-7.3448750242
 30
0.0
 10
-47.187264941
 20
-7.37183891
 30
0.0
 10
-47.1677757192
 20
-7.39080381
 30
0.0
 10
-47.1553940428
 20
-7.4027815675
 30
0.0
 10
-47.1446670087
 20
-7.4130781302
 30
0.0
 10
-47.1356960125
 20
-7.4216044971
 30
0.0
 10
-47.1285937955
 20
-7.4282350713
 30
0.0
 10
-47.1238140306
 20
-7.4326127221
 30
0.0
 10
-47.1210075989
 20
-7.4350327537
 30
0.0
 10
-47.1195667904
 20
-7.4362704048
 30
0.0
 10
-47.1188080972
 20
-7.4367505544
 30
0.0
 10
-47.1182484692
 20
-7.4371917258
 30
0.0
 10
-47.1181538815
 20
-7.4370971381
 30
0.0
  0
SPLINE
  5
5C0
100
AcDbEntity
  8
IMPORT_IGES
100
AcDbSpline
 62
250
  6
CONTINUOUS
 70
0
 71
3
 72
20
 73
16
 74
0
 42
0.0000001
 43
0.0000001
 44
0.0000000001
 40
0.0
 40
0.0
 40
0.0
 40
0.0
 40
0.194546167
 40
0.3823739722
 40
0.5551617998
 40
0.7065105111
 40
0.7723323226
 40
0.8307771971
 40
0.8812881142
 40
0.9233089709
 40
0.9563709514
 40
0.9802504577
 40
0.994780894
 40
0.998514687
 40
1.0
 40
1.0
 40
1.0
 40
1.0
 10
-47.2717072368
 20
-7.0887794332
 30
0.0
 10
-47.2522396274
 20
-7.0887794332
 30
0.0
 10
-47.2139766463
 20
-7.0887136639
 30
0.0
 10
-47.1584240794
 20
-7.0884277457
 30
0.0
 10
-47.1071951946
 20
-7.0879601213
 30
0.0
 10
-47.068177493
 20
-7.08742005
 30
0.0
 10
-47.0406013057
 20
-7.0868948805
 30
0.0
 10
-47.023119409
 20
-7.0864888432
 30
0.0
 10
-47.0080090214
 20
-7.086057887
 30
0.0
 10
-46.9954738463
 20
-7.0856054819
 30
0.0
 10
-46.9855173652
 20
-7.0851427508
 30
0.0
 10
-46.9785275385
 20
-7.0846708547
 30
0.0
 10
-46.9740739953
 20
-7.0842622632
 30
0.0
 10
-46.9723814282
 20
-7.083895369
 30
0.0
 10
-46.9717072368
 20
-7.0836923424
 30
0.0
 10
-46.9717072368
 20
-7.0835437119
 30
0.0
  0
SPLINE
  5
5C1
100
AcDbEntity
  8
IMPORT_IGES
100
AcDbSpline
 62
7
  6
CONTINUOUS
 70
0
 71
3
 72
22
 73
18
 74
0
 42
0.0000001
 43
0.0000001
 44
0.0000000001
 40
0.0
 40
0.0
 40
0.0
 40
0.0
 40
0.0012687718
 40
0.0050444125
 40
0.011296368
 40
0.0199929311
 40
0.0311022798
 40
0.0445925716
 40
0.0785884791
 40
0.1216356075
 40
0.1731419266
 40
0.2324733854
 40
0.2989957165
 40
0.450866489
 40
0.6228219329
 40
0.808427886
 40
1.0
 40
1.0
 40
1.0
 40
1.0
 10
-67.0471627763
 20
-7.2250279271
 30
0.0
 10
-67.0472894283
 20
-7.2249941559
 30
0.0
 10
-67.0468354915
 20
-7.2242500902
 30
0.0
 10
-67.0469013788
 20
-7.2233385142
 30
0.0
 10
-67.046261705
 20
-7.2213304763
 30
0.0
 10
-67.0457019438
 20
-7.2187718441
 30
0.0
 10
-67.0448396834
 20
-7.215412402
 30
0.0
 10
-67.0433769901
 20
-7.2095520533
 30
0.0
 10
-67.041051082
 20
-7.200483828
 30
0.0
 10
-67.037720425
 20
-7.1876316452
 30
0.0
 10
-67.0336977356
 20
-7.1722497463
 30
0.0
 10
-67.0290430618
 20
-7.1545281532
 30
0.0
 10
-67.021736573
 20
-7.1267820816
 30
0.0
 10
-67.0114476657
 20
-7.0877897986
 30
0.0
 10
-66.9979805644
 20
-7.0369123647
 30
0.0
 10
-66.9834170599
 20
-6.9820824086
 30
0.0
 10
-66.973388997
 20
-6.9444285135
 30
0.0
 10
-66.9682899361
 20
-6.92530529
 30
0.0
  0
SPLINE
  5
5C2
100
AcDbEntity
  8
IMPORT_IGES
100
AcDbSpline
 62
7
  6
CONTINUOUS
 70
0
 71
3
 72
22
 73
18
 74
0
 42
0.0000001
 43
0.0000001
 44
0.0000000001
 40
0.0
 40
0.0
 40
0.0
 40
0.0
 40
0.0013539602
 40
0.0053184344
 40
0.0118552878
 40
0.0209254548
 40
0.0324897741
 40
0.0465090666
 40
0.0817539516
 40
0.1261850941
 40
0.1790489703
 40
0.239563962
 40
0.3069485838
 40
0.4592422231
 40
0.6298137438
 40
0.8123501613
 40
1.0
 40
1.0
 40
1.0
 40
1.0
 10
-65.5822155428
 20
8.8488405814
 30
0.0
 10
-65.5823184787
 20
8.8487366678
 30
0.0
 10
-65.5817796593
 20
8.848107594
 30
0.0
 10
-65.581644801
 20
8.846997083
 30
0.0
 10
-65.5806919355
 20
8.8449803146
 30
0.0
 10
-65.5796909491
 20
8.842272099
 30
0.0
 10
-65.57827241
 20
8.8387873272
 30
0.0
 10
-65.5758362226
 20
8.8326938816
 30
0.0
 10
-65.5720218611
 20
8.8233121328
 30
0.0
 10
-65.5666046591
 20
8.8100610216
 30
0.0
 10
-65.5601235214
 20
8.7942921317
 30
0.0
 10
-65.5526832765
 20
8.7762377777
 30
0.0
 10
-65.5411329746
 20
8.7482591842
 30
0.0
 10
-65.5250212574
 20
8.7093013331
 30
0.0
 10
-65.5041178401
 20
8.6588635564
 30
0.0
 10
-65.4817139834
 20
8.6049131667
 30
0.0
 10
-65.4663558015
 20
8.5679891763
 30
0.0
 10
-65.4585656135
 20
8.5492742566
 30
0.0
  0
SPLINE
  5
5C3
100
AcDbEntity
  8
IMPORT_IGES
100
AcDbSpline
 62
7
  6
CONTINUOUS
 70
0
 71
3
 72
8
 73
4
 74
0
 42
0.0000001
 43
0.0000001
 44
0.0000000001
 40
0.0
 40
0.0
 40
0.0
 40
0.0
 40
1.0
 40
1.0
 40
1.0
 40
1.0
 10
-59.0205227293
 20
11.5725428263
 30
0.0
 10
-59.0113247375
 20
11.5823007896
 30
0.0
 10
-59.0002725917
 20
11.5905784672
 30
0.0
 10
-58.9883150041
 20
11.5966478163
 30
0.0
  0
SPLINE
  5
5C4
100
AcDbEntity
  8
IMPORT_IGES
100
AcDbSpline
 62
7
  6
CONTINUOUS
 70
0
 71
3
 72
8
 73
4
 74
0
 42
0.0000001
 43
0.0000001
 44
0.0000000001
 40
0.0
 40
0.0
 40
0.0
 40
0.0
 40
1.0
 40
1.0
 40
1.0
 40
1.0
 10
-59.0205423072
 20
11.5725222653
 30
0.0
 10
-59.0051766033
 20
11.5888311486
 30
0.0
 10
-58.9841437946
 20
11.6009871142
 30
0.0
 10
-58.9623416341
 20
11.606159186
 30
0.0
  0
SPLINE
  5
5C5
100
AcDbEntity
  8
IMPORT_IGES
100
AcDbSpline
 62
250
  6
CONTINUOUS
 70
0
 71
3
 72
18
 73
14
 74
0
 42
0.0000001
 43
0.0000001
 44
0.0000000001
 40
0.0
 40
0.0
 40
0.0
 40
0.0
 40
0.0042906493
 40
0.0171088328
 40
0.0390425639
 40
0.070658267
 40
0.112328193
 40
0.163656973
 40
0.2929409998
 40
0.4525336558
 40
0.6313529547
 40
0.817385482
 40
1.0
 40
1.0
 40
1.0
 40
1.0
 10
-47.1402427568
 20
8.840850675
 30
0.0
 10
-47.1400485987
 20
8.8407643337
 30
0.0
 10
-47.1395306027
 20
8.8419132121
 30
0.0
 10
-47.1382539722
 20
8.8429009484
 30
0.0
 10
-47.1362284361
 20
8.8457637942
 30
0.0
 10
-47.1333020634
 20
8.8493357736
 30
0.0
 10
-47.1295175454
 20
8.8542609484
 30
0.0
 10
-47.1227836771
 20
8.8629452562
 30
0.0
 10
-47.1125310896
 20
8.8763307445
 30
0.0
 10
-47.0984859195
 20
8.8947422818
 30
0.0
 10
-47.0827778402
 20
8.9154285205
 30
0.0
 10
-47.0664158135
 20
8.9370470473
 30
0.0
 10
-47.0554179338
 20
8.9516198122
 30
0.0
 10
-47.0499747255
 20
8.9588421465
 30
0.0
  0
SPLINE
  5
5C6
100
AcDbEntity
  8
IMPORT_IGES
100
AcDbSpline
 62
250
  6
CONTINUOUS
 70
0
 71
3
 72
12
 73
8
 74
0
 42
0.0000001
 43
0.0000001
 44
0.0000000001
 40
0.0
 40
0.0
 40
0.0
 40
0.0
 40
0.2496908945
 40
0.4998377455
 40
0.6246453625
 40
0.7497403808
 40
1.0
 40
1.0
 40
1.0
 40
1.0
 10
-47.6075017564
 20
9.1930518161
 30
0.0
 10
-47.5778777548
 20
9.1963419334
 30
0.0
 10
-47.5182522868
 20
9.2004403931
 30
0.0
 10
-47.4434181296
 20
9.1953035466
 30
0.0
 10
-47.3851928723
 20
9.1814812187
 30
0.0
 10
-47.3291871116
 20
9.1604463442
 30
0.0
 10
-47.2899758601
 20
9.1380441675
 30
0.0
 10
-47.2653495704
 20
9.1211325183
 30
0.0
  0
SPLINE
  5
5C7
100
AcDbEntity
  8
IMPORT_IGES
100
AcDbSpline
 62
250
  6
CONTINUOUS
 70
0
 71
3
 72
14
 73
10
 74
0
 42
0.0000001
 43
0.0000001
 44
0.0000000001
 40
0.0
 40
0.0
 40
0.0
 40
0.0
 40
0.016594006
 40
0.0662987439
 40
0.1484863415
 40
0.2624141344
 40
0.4066237815
 40
0.5790506154
 40
1.0
 40
1.0
 40
1.0
 40
1.0
 10
-47.3556338855
 20
9.0031625575
 30
0.0
 10
-47.3554225969
 20
9.0029346862
 30
0.0
 10
-47.3545067269
 20
9.0048857942
 30
0.0
 10
-47.3528432772
 20
9.0060626094
 30
0.0
 10
-47.3499303329
 20
9.0102227986
 30
0.0
 10
-47.3460312504
 20
9.0150053032
 30
0.0
 10
-47.3410879058
 20
9.0214736067
 30
0.0
 10
-47.3326700118
 20
9.0323791791
 30
0.0
 10
-47.3259204099
 20
9.0412267245
 30
0.0
 10
-47.3211398918
 20
9.0474948614
 30
0.0
  0
LINE
  5
5C8
100
AcDbEntity
  8
IMPORT_IGES
100
AcDbLine
 62
250
  6
CONTINUOUS
 10
-47.3211398918
 20
9.0474948614
 30
0.0
 11
-47.3113499406
 21
9.0603506505
 31
0.0
  0
SPLINE
  5
5C9
100
AcDbEntity
  8
IMPORT_IGES
100
AcDbSpline
 62
250
  6
CONTINUOUS
 70
0
 71
3
 72
9
 73
5
 74
0
 42
0.0000001
 43
0.0000001
 44
0.0000000001
 40
0.0
 40
0.0
 40
0.0
 40
0.0
 40
0.4961890697
 40
1.0
 40
1.0
 40
1.0
 40
1.0
 10
-49.794014809
 20
10.8406141954
 30
0.0
 10
-49.8142949814
 20
10.8558964013
 30
0.0
 10
-49.8598386767
 20
10.8809166467
 30
0.0
 10
-49.9105734036
 20
10.8921009704
 30
0.0
 10
-49.9362799919
 20
10.8940921816
 30
0.0
  0
SPLINE
  5
5CA
100
AcDbEntity
  8
IMPORT_IGES
100
AcDbSpline
 62
250
  6
CONTINUOUS
 70
0
 71
3
 72
9
 73
5
 74
0
 42
0.0000001
 43
0.0000001
 44
0.0000000001
 40
0.0
 40
0.0
 40
0.0
 40
0.0
 40
0.2478265157
 40
1.0
 40
1.0
 40
1.0
 40
1.0
 10
-49.9362799919
 20
10.8940921816
 30
0.0
 10
-49.9426094084
 20
10.894582453
 30
0.0
 10
-49.9682118465
 20
10.8956795458
 30
0.0
 10
-49.9939463756
 20
10.8932960756
 30
0.0
 10
-50.0128752652
 20
10.8896979411
 30
0.0
  0
SPLINE
  5
5CB
100
AcDbEntity
  8
IMPORT_IGES
100
AcDbSpline
 62
250
  6
CONTINUOUS
 70
0
 71
3
 72
9
 73
5
 74
0
 42
0.0000001
 43
0.0000001
 44
0.0000000001
 40
0.0
 40
0.0
 40
0.0
 40
0.0
 40
0.6154029738
 40
1.0
 40
1.0
 40
1.0
 40
1.0
 10
-44.5322531374
 20
0.6925252948
 30
0.0
 10
-44.5297756697
 20
0.6954815659
 30
0.0
 10
-44.5259652065
 20
0.70026291
 30
0.0
 10
-44.5228573154
 20
0.7062242394
 30
0.0
 10
-44.5229463563
 20
0.7086331082
 30
0.0
  0
LINE
  5
5CC
100
AcDbEntity
  8
IMPORT_IGES
100
AcDbLine
 62
250
  6
CONTINUOUS
 10
-44.5229671003
 20
0.7086341907
 30
0.0
 11
-44.5232515653
 21
0.7143361699
 31
0.0
  0
SPLINE
  5
5CD
100
AcDbEntity
  8
IMPORT_IGES
100
AcDbSpline
 62
7
  6
CONTINUOUS
 70
0
 71
3
 72
11
 73
7
 74
0
 42
0.0000001
 43
0.0000001
 44
0.0000000001
 40
0.0
 40
0.0
 40
0.0
 40
0.0
 40
0.3826010081
 40
0.6814010799
 40
0.8887211361
 40
1.0
 40
1.0
 40
1.0
 40
1.0
 10
-59.5725333799
 20
10.5691888881
 30
0.0
 10
-59.573567161
 20
10.5742173203
 30
0.0
 10
-59.5756227316
 20
10.5830830603
 30
0.0
 10
-59.5788722638
 20
10.5947209488
 30
0.0
 10
-59.5804911881
 20
10.6025155512
 30
0.0
 10
-59.581816054
 20
10.6070758718
 30
0.0
 10
-59.5811849494
 20
10.6084290349
 30
0.0
  0
SPLINE
  5
5CE
100
AcDbEntity
  8
IMPORT_IGES
100
AcDbSpline
 62
7
  6
CONTINUOUS
 70
0
 71
3
 72
18
 73
14
 74
0
 42
0.0000001
 43
0.0000001
 44
0.0000000001
 40
0.0
 40
0.0
 40
0.0
 40
0.0
 40
0.0057007348
 40
0.0204037618
 40
0.0443573144
 40
0.0774484117
 40
0.119460421
 40
0.1699248642
 40
0.29406671
 40
0.445302924
 40
0.6179717711
 40
0.8056509152
 40
1.0
 40
1.0
 40
1.0
 40
1.0
 10
-44.8217072408
 20
-5.7331186549
 30
0.0
 10
-44.8217077962
 20
-5.7336897528
 30
0.0
 10
-44.824459925
 20
-5.7343226604
 30
0.0
 10
-44.8281327112
 20
-5.7351169126
 30
0.0
 10
-44.8356645349
 20
-5.7359172331
 30
0.0
 10
-44.8453868282
 20
-5.7367391768
 30
0.0
 10
-44.8580052954
 20
-5.7375354257
 30
0.0
 10
-44.8796488989
 20
-5.7386398075
 30
0.0
 10
-44.9122897786
 20
-5.7398329713
 30
0.0
 10
-44.9571534994
 20
-5.7409714769
 30
0.0
 10
-45.0083995758
 20
-5.7418386909
 30
0.0
 10
-45.0639658261
 20
-5.742389127
 30
0.0
 10
-45.1022374116
 20
-5.7425457591
 30
0.0
 10
-45.1217072341
 20
-5.742571333
 30
0.0
  0
SPLINE
  5
5CF
100
AcDbEntity
  8
IMPORT_IGES
100
AcDbSpline
 62
250
  6
CONTINUOUS
 70
0
 71
3
 72
18
 73
14
 74
0
 42
0.0000001
 43
0.0000001
 44
0.0000000001
 40
0.0
 40
0.0
 40
0.0
 40
0.0
 40
0.1951832849
 40
0.3834225065
 40
0.5564207453
 40
0.7077669437
 40
0.8317998707
 40
0.8821454247
 40
0.9240240449
 40
0.9569649541
 40
0.9807203614
 40
0.9951157656
 40
1.0
 40
1.0
 40
1.0
 40
1.0
 10
-49.3657631686
 20
11.0492686928
 30
0.0
 10
-49.3580045255
 20
11.0595633128
 30
0.0
 10
-49.3427489608
 20
11.0797757619
 30
0.0
 10
-49.320568622
 20
11.1090751822
 30
0.0
 10
-49.3000913357
 20
11.1360368631
 30
0.0
 10
-49.282132453
 20
11.1595729479
 30
0.0
 10
-49.2690405882
 20
11.1766677529
 30
0.0
 10
-49.2603102468
 20
11.1879326665
 30
0.0
 10
-49.2552357314
 20
11.1945429628
 30
0.0
 10
-49.2512194968
 20
11.1994451244
 30
0.0
 10
-49.2482860139
 20
11.2036199433
 30
0.0
 10
-49.2464946199
 20
11.204923434
 30
0.0
 10
-49.245638049
 20
11.2068145231
 30
0.0
 10
-49.2453803083
 20
11.2066205445
 30
0.0
  0
SPLINE
  5
5D0
100
AcDbEntity
  8
IMPORT_IGES
100
AcDbSpline
 62
250
  6
CONTINUOUS
 70
0
 71
3
 72
21
 73
17
 74
0
 42
0.0000001
 43
0.0000001
 44
0.0000000001
 40
0.0
 40
0.0
 40
0.0
 40
0.0
 40
0.0013534119
 40
0.0050207771
 40
0.0110524159
 40
0.0194373655
 40
0.0431911518
 40
0.0761173316
 40
0.1179738953
 40
0.168290994
 40
0.2265512543
 40
0.2922367726
 40
0.4434691273
 40
0.6164107306
 40
0.8046928156
 40
1.0
 40
1.0
 40
1.0
 40
1.0
 10
-65.1252608841
 20
9.3057958594
 30
0.0
 10
-65.1251663308
 20
9.3058904126
 30
0.0
 10
-65.124606887
 20
9.305449566
 30
0.0
 10
-65.1238484919
 20
9.3049695716
 30
0.0
 10
-65.1224082526
 20
9.3037325396
 30
0.0
 10
-65.1196029332
 20
9.3013135264
 30
0.0
 10
-65.1148250207
 20
9.2969376696
 30
0.0
 10
-65.1077261845
 20
9.2903102233
 30
0.0
 10
-65.0987603336
 20
9.2817888829
 30
0.0
 10
-65.0880398564
 20
9.2714988189
 30
0.0
 10
-65.0756642916
 20
9.2595271306
 30
0.0
 10
-65.0561795263
 20
9.240566568
 30
0.0
 10
-65.0286733292
 20
9.2136014839
 30
0.0
 10
-64.9926364252
 20
9.1780366522
 30
0.0
 10
-64.9536089763
 20
9.1393027966
 30
0.0
 10
-64.9267737592
 20
9.1125406935
 30
0.0
 10
-64.9131268938
 20
9.0988981046
 30
0.0
  0
SPLINE
  5
5D1
100
AcDbEntity
  8
IMPORT_IGES
100
AcDbSpline
 62
250
  6
CONTINUOUS
 70
0
 71
3
 72
20
 73
16
 74
0
 42
0.0000001
 43
0.0000001
 44
0.0000000001
 40
0.0
 40
0.0
 40
0.0
 40
0.0
 40
0.1945393846
 40
0.382355833
 40
0.5551405118
 40
0.7064929548
 40
0.7723167417
 40
0.8307637585
 40
0.8812764176
 40
0.9232980825
 40
0.9563618574
 40
0.9802446495
 40
0.9947786146
 40
0.9985138473
 40
1.0
 40
1.0
 40
1.0
 40
1.0
 10
-64.9717069541
 20
8.9574784473
 30
0.0
 10
-64.9911738952
 20
8.9574784717
 30
0.0
 10
-65.0294350819
 20
8.95741277
 30
0.0
 10
-65.0849855487
 20
8.9571268962
 30
0.0
 10
-65.1362133828
 20
8.9566592902
 30
0.0
 10
-65.1752313621
 20
8.9561192487
 30
0.0
 10
-65.2028083493
 20
8.9555940914
 30
0.0
 10
-65.220290844
 20
8.9551880626
 30
0.0
 10
-65.2354017044
 20
8.9547571352
 30
0.0
 10
-65.2479373369
 20
8.9543046899
 30
0.0
 10
-65.2578943746
 20
8.953842041
 30
0.0
 10
-65.2648851422
 20
8.9533699736
 30
0.0
 10
-65.2693394242
 20
8.9529617592
 30
0.0
 10
-65.2710326516
 20
8.9525945681
 30
0.0
 10
-65.2717070862
 20
8.9523918291
 30
0.0
 10
-65.2717072368
 20
8.9522431146
 30
0.0
  0
SPLINE
  5
5D2
100
AcDbEntity
  8
IMPORT_IGES
100
AcDbSpline
 62
7
  6
CONTINUOUS
 70
0
 71
3
 72
9
 73
5
 74
0
 42
0.0000001
 43
0.0000001
 44
0.0000000001
 40
0.0
 40
0.0
 40
0.0
 40
0.0
 40
0.5000097291
 40
1.0
 40
1.0
 40
1.0
 40
1.0
 10
-64.9131263913
 20
9.0988976022
 30
0.0
 10
-64.9311820621
 20
9.0802163662
 30
0.0
 10
-64.9608217679
 20
9.0358136445
 30
0.0
 10
-64.9712750138
 20
8.9834545271
 30
0.0
 10
-64.9717069541
 20
8.9574784473
 30
0.0
  0
SPLINE
  5
5D3
100
AcDbEntity
  8
IMPORT_IGES
100
AcDbSpline
 62
250
  6
CONTINUOUS
 70
0
 71
3
 72
9
 73
5
 74
0
 42
0.0000001
 43
0.0000001
 44
0.0000000001
 40
0.0
 40
0.0
 40
0.0
 40
0.0
 40
0.2617029579
 40
1.0
 40
1.0
 40
1.0
 40
1.0
 10
-50.6238423254
 20
10.901525152
 30
0.0
 10
-50.6334257169
 20
10.9033002798
 30
0.0
 10
-50.669869494
 20
10.9109833112
 30
0.0
 10
-50.7056010912
 20
10.9221579224
 30
0.0
 10
-50.7310831656
 20
10.9324867869
 30
0.0
  0
SPLINE
  5
5D4
100
AcDbEntity
  8
IMPORT_IGES
100
AcDbSpline
 62
250
  6
CONTINUOUS
 70
0
 71
3
 72
11
 73
7
 74
0
 42
0.0000001
 43
0.0000001
 44
0.0000000001
 40
0.0
 40
0.0
 40
0.0
 40
0.0
 40
0.3103176296
 40
0.5724069938
 40
0.7960597084
 40
1.0
 40
1.0
 40
1.0
 40
1.0
 10
-50.7310831656
 20
10.9324867869
 30
0.0
 10
-50.7567551778
 20
10.9428926406
 30
0.0
 10
-50.8027708583
 20
10.9659827881
 30
0.0
 10
-50.8578636035
 20
11.0122298404
 30
0.0
 10
-50.8914930939
 20
11.0650744035
 30
0.0
 10
-50.9009886085
 20
11.1026079666
 30
0.0
 10
-50.9035037446
 20
11.1206383092
 30
0.0
  0
SPLINE
  5
5D5
100
AcDbEntity
  8
IMPORT_IGES
100
AcDbSpline
 62
250
  6
CONTINUOUS
 70
0
 71
3
 72
21
 73
17
 74
0
 42
0.0000001
 43
0.0000001
 44
0.0000000001
 40
0.0
 40
0.0
 40
0.0
 40
0.0
 40
0.0013477562
 40
0.0050139282
 40
0.0110456198
 40
0.0194311707
 40
0.043186457
 40
0.076112863
 40
0.1179691981
 40
0.1682865652
 40
0.2265467939
 40
0.2922312256
 40
0.4434594915
 40
0.6164011315
 40
0.8046885566
 40
1.0
 40
1.0
 40
1.0
 40
1.0
 10
-63.9681383317
 20
10.4629184118
 30
0.0
 10
-63.9680441752
 20
10.4630125696
 30
0.0
 10
-63.9674879913
 20
10.4625649314
 30
0.0
 10
-63.966731253
 20
10.4620875809
 30
0.0
 10
-63.9652934637
 20
10.4608455286
 30
0.0
 10
-63.962490654
 20
10.4584247421
 30
0.0
 10
-63.9577154189
 20
10.4540447553
 30
0.0
 10
-63.9506183853
 20
10.4474158013
 30
0.0
 10
-63.9416533033
 20
10.4388936387
 30
0.0
 10
-63.9309328025
 20
10.4286039011
 30
0.0
 10
-63.9185568692
 20
10.4166329686
 30
0.0
 10
-63.8990719229
 20
10.3976737699
 30
0.0
 10
-63.8715664245
 20
10.3707093005
 30
0.0
 10
-63.8355302364
 20
10.3351443647
 30
0.0
 10
-63.7965026189
 20
10.2964101932
 30
0.0
 10
-63.7696670627
 20
10.2696476824
 30
0.0
 10
-63.7560201123
 20
10.2560048861
 30
0.0
  0
LINE
  5
5D6
100
AcDbEntity
  8
IMPORT_IGES
100
AcDbLine
 62
250
  6
CONTINUOUS
 10
-59.572591576
 20
10.5691820772
 30
0.0
 11
-59.5567056223
 21
10.5945534337
 31
0.0
  0
LINE
  5
5D7
100
AcDbEntity
  8
IMPORT_IGES
100
AcDbLine
 62
250
  6
CONTINUOUS
 10
-59.5567056223
 20
10.5945534337
 30
0.0
 11
-59.5062818413
 21
10.675328322
 31
0.0
  0
LINE
  5
5D8
100
AcDbEntity
  8
IMPORT_IGES
100
AcDbLine
 62
250
  6
CONTINUOUS
 10
-59.3043495935
 20
11.0013351816
 30
0.0
 11
-59.2357430581
 21
11.1124792651
 31
0.0
  0
LINE
  5
5D9
100
AcDbEntity
  8
IMPORT_IGES
100
AcDbLine
 62
250
  6
CONTINUOUS
 10
-59.0245425914
 20
11.4532254656
 30
0.0
 11
-58.9983898256
 21
11.4951014842
 31
0.0
  0
LINE
  5
5DA
100
AcDbEntity
  8
IMPORT_IGES
100
AcDbLine
 62
250
  6
CONTINUOUS
 10
-58.9983898256
 20
11.4951014842
 30
0.0
 11
-58.9841867921
 21
11.5178016575
 31
0.0
  0
LINE
  5
5DB
100
AcDbEntity
  8
IMPORT_IGES
100
AcDbLine
 62
250
  6
CONTINUOUS
 10
-58.9841867921
 20
11.5178016575
 30
0.0
 11
-58.9519641425
 21
11.5691838177
 31
0.0
  0
SPLINE
  5
5DC
100
AcDbEntity
  8
IMPORT_IGES
100
AcDbSpline
 62
250
  6
CONTINUOUS
 70
0
 71
3
 72
9
 73
5
 74
0
 42
0.0000001
 43
0.0000001
 44
0.0000000001
 40
0.0
 40
0.0
 40
0.0
 40
0.0
 40
0.2488276355
 40
1.0
 40
1.0
 40
1.0
 40
1.0
 10
-44.9557574305
 20
6.6416075759
 30
0.0
 10
-44.9577434068
 20
6.6531266566
 30
0.0
 10
-44.9667672019
 20
6.6992236595
 30
0.0
 10
-44.9806045147
 20
6.7444636374
 30
0.0
 10
-44.9941834709
 20
6.7770337232
 30
0.0
  0
SPLINE
  5
5DD
100
AcDbEntity
  8
IMPORT_IGES
100
AcDbSpline
 62
250
  6
CONTINUOUS
 70
0
 71
3
 72
9
 73
5
 74
0
 42
0.0000001
 43
0.0000001
 44
0.0000000001
 40
0.0
 40
0.0
 40
0.0
 40
0.0
 40
0.2378259769
 40
1.0
 40
1.0
 40
1.0
 40
1.0
 10
-50.7026155188
 20
10.9505437397
 30
0.0
 10
-50.7026977175
 20
10.955830012
 30
0.0
 10
-50.7042346207
 20
10.9780234065
 30
0.0
 10
-50.7107280091
 20
10.9998700108
 30
0.0
 10
-50.7181456701
 20
11.0151032717
 30
0.0
  0
SPLINE
  5
5DE
100
AcDbEntity
  8
IMPORT_IGES
100
AcDbSpline
 62
250
  6
CONTINUOUS
 70
0
 71
3
 72
10
 73
6
 74
0
 42
0.0000001
 43
0.0000001
 44
0.0000000001
 40
0.0
 40
0.0
 40
0.0
 40
0.0
 40
0.2428228559
 40
0.4997528776
 40
1.0
 40
1.0
 40
1.0
 40
1.0
 10
-50.7181456701
 20
11.0151032717
 30
0.0
 10
-50.7260511953
 20
11.0313384335
 30
0.0
 10
-50.7481287989
 20
11.0622003402
 30
0.0
 10
-50.8084115887
 20
11.1071541029
 30
0.0
 10
-50.8663037433
 20
11.1209252919
 30
0.0
 10
-50.9035036893
 20
11.1206336541
 30
0.0
  0
SPLINE
  5
5DF
100
AcDbEntity
  8
IMPORT_IGES
100
AcDbSpline
 62
250
  6
CONTINUOUS
 70
0
 71
3
 72
9
 73
5
 74
0
 42
0.0000001
 43
0.0000001
 44
0.0000000001
 40
0.0
 40
0.0
 40
0.0
 40
0.0
 40
0.2440536613
 40
1.0
 40
1.0
 40
1.0
 40
1.0
 10
-50.8818214286
 20
11.5677826548
 30
0.0
 10
-50.8756727548
 20
11.567109043
 30
0.0
 10
-50.8506008658
 20
11.5633601578
 30
0.0
 10
-50.826140412
 20
11.5553093489
 30
0.0
 10
-50.8089262781
 20
11.5468980911
 30
0.0
  0
SPLINE
  5
5E0
100
AcDbEntity
  8
IMPORT_IGES
100
AcDbSpline
 62
250
  6
CONTINUOUS
 70
0
 71
3
 72
9
 73
5
 74
0
 42
0.0000001
 43
0.0000001
 44
0.0000000001
 40
0.0
 40
0.0
 40
0.0
 40
0.0
 40
0.2537282825
 40
1.0
 40
1.0
 40
1.0
 40
1.0
 10
-50.8089262781
 20
11.5468980911
 30
0.0
 10
-50.8034118421
 20
11.5442035993
 30
0.0
 10
-50.7821422218
 20
11.5326776318
 30
0.0
 10
-50.7628873841
 20
11.5172972565
 30
0.0
 10
-50.7506912103
 20
11.5039885078
 30
0.0
  0
SPLINE
  5
5E1
100
AcDbEntity
  8
IMPORT_IGES
100
AcDbSpline
 62
250
  6
CONTINUOUS
 70
0
 71
3
 72
9
 73
5
 74
0
 42
0.0000001
 43
0.0000001
 44
0.0000000001
 40
0.0
 40
0.0
 40
0.0
 40
0.0
 40
0.527235252
 40
1.0
 40
1.0
 40
1.0
 40
1.0
 10
-50.7506912103
 20
11.5039885078
 30
0.0
 10
-50.7367231853
 20
11.488746274
 30
0.0
 10
-50.7148481906
 20
11.4549459219
 30
0.0
 10
-50.7072312292
 20
11.4154362543
 30
0.0
 10
-50.7071435792
 20
11.3968979925
 30
0.0
  0
SPLINE
  5
5E2
100
AcDbEntity
  8
IMPORT_IGES
100
AcDbSpline
 62
7
  6
CONTINUOUS
 70
0
 71
3
 72
18
 73
14
 74
0
 42
0.0000001
 43
0.0000001
 44
0.0000000001
 40
0.0
 40
0.0
 40
0.0
 40
0.0
 40
0.0049629492
 40
0.0194671028
 40
0.0433500457
 40
0.0764266431
 40
0.1184515896
 40
0.1689435126
 40
0.293160885
 40
0.4444835005
 40
0.6172848021
 40
0.8052022594
 40
1.0
 40
1.0
 40
1.0
 40
1.0
 10
-47.0418328108
 20
8.7424435344
 30
0.0
 10
-47.0416581126
 20
8.7422692559
 30
0.0
 10
-47.0407429931
 20
8.7434968575
 30
0.0
 10
-47.0391674514
 20
8.7441966298
 30
0.0
 10
-47.0363349971
 20
8.7467827455
 30
0.0
 10
-47.0325684619
 20
8.7497611911
 30
0.0
 10
-47.027767561
 20
8.7538267811
 30
0.0
 10
-47.0195414347
 20
8.7607549621
 30
0.0
 10
-47.007216818
 20
8.7713063995
 30
0.0
 10
-46.9903492908
 20
8.7858727921
 30
0.0
 10
-46.971144964
 20
8.8025900615
 30
0.0
 10
-46.9503655931
 20
8.8207863978
 30
0.0
 10
-46.9360885655
 20
8.8333672966
 30
0.0
 10
-46.9288331668
 20
8.8397836656
 30
0.0
  0
SPLINE
  5
5E3
100
AcDbEntity
  8
IMPORT_IGES
100
AcDbSpline
 62
250
  6
CONTINUOUS
 70
0
 71
3
 72
18
 73
14
 74
0
 42
0.0000001
 43
0.0000001
 44
0.0000000001
 40
0.0
 40
0.0
 40
0.0
 40
0.0
 40
0.0041703895
 40
0.0168688181
 40
0.0387000735
 40
0.0702374625
 40
0.1118577847
 40
0.1631652834
 40
0.2924854248
 40
0.4521992586
 40
0.631169623
 40
0.8173258605
 40
1.0
 40
1.0
 40
1.0
 40
1.0
 10
-45.2625733066
 20
6.9631750409
 30
0.0
 10
-45.2624268426
 20
6.9630290504
 30
0.0
 10
-45.2616643647
 20
6.9641306054
 30
0.0
 10
-45.260351165
 20
6.9648517018
 30
0.0
 10
-45.2578908988
 20
6.9674212566
 30
0.0
 10
-45.2545120208
 20
6.9705180155
 30
0.0
 10
-45.2500572383
 20
6.9748636948
 30
0.0
 10
-45.2421596551
 20
6.9825145392
 30
0.0
 10
-45.2301031989
 20
6.994346775
 30
0.0
 10
-45.2135855992
 20
7.0106385434
 30
0.0
 10
-45.1951018248
 20
7.0289626958
 30
0.0
 10
-45.1758475045
 20
7.0481227402
 30
0.0
 10
-45.1629041715
 20
7.0610443886
 30
0.0
 10
-45.15649858
 20
7.0674490944
 30
0.0
  0
SPLINE
  5
5E4
100
AcDbEntity
  8
IMPORT_IGES
100
AcDbSpline
 62
250
  6
CONTINUOUS
 70
0
 71
3
 72
18
 73
14
 74
0
 42
0.0000001
 43
0.0000001
 44
0.0000000001
 40
0.0
 40
0.0
 40
0.0
 40
0.0
 40
0.0048883113
 40
0.0192970391
 40
0.0430748525
 40
0.076047282
 40
0.1179872864
 40
0.1684199975
 40
0.2925577545
 40
0.4438577414
 40
0.6167308672
 40
0.8048503329
 40
1.0
 40
1.0
 40
1.0
 40
1.0
 10
-45.3639628988
 20
8.2817627354
 30
0.0
 10
-45.3642208348
 20
8.281956902
 30
0.0
 10
-45.3650773739
 20
8.2800631887
 30
0.0
 10
-45.366870666
 20
8.2787589567
 30
0.0
 10
-45.3698064053
 20
8.2745796231
 30
0.0
 10
-45.37382734
 20
8.269671789
 30
0.0
 10
-45.3789089787
 20
8.2630518068
 30
0.0
 10
-45.387649393
 20
8.2517736147
 30
0.0
 10
-45.400747175
 20
8.2346712028
 30
0.0
 10
-45.4187033154
 20
8.2111385659
 30
0.0
 10
-45.4391688242
 20
8.1841921047
 30
0.0
 10
-45.4613380688
 20
8.1549073766
 30
0.0
 10
-45.476587511
 20
8.1347030133
 30
0.0
 10
-45.4843448197
 20
8.1244101758
 30
0.0
  0
SPLINE
  5
5E5
100
AcDbEntity
  8
IMPORT_IGES
100
AcDbSpline
 62
7
  6
CONTINUOUS
 70
0
 71
3
 72
9
 73
5
 74
0
 42
0.0000001
 43
0.0000001
 44
0.0000000001
 40
0.0
 40
0.0
 40
0.0
 40
0.0
 40
0.5000096742
 40
1.0
 40
1.0
 40
1.0
 40
1.0
 10
-63.6146004579
 20
10.3145839508
 30
0.0
 10
-63.6405772497
 20
10.3141354295
 30
0.0
 10
-63.6929309256
 20
10.303700827
 30
0.0
 10
-63.7373511991
 20
10.2740718095
 30
0.0
 10
-63.7560206148
 20
10.2560053885
 30
0.0
  0
SPLINE
  5
5E6
100
AcDbEntity
  8
IMPORT_IGES
100
AcDbSpline
 62
250
  6
CONTINUOUS
 70
0
 71
3
 72
21
 73
17
 74
0
 42
0.0000001
 43
0.0000001
 44
0.0000000001
 40
0.0
 40
0.0
 40
0.0
 40
0.0
 40
0.1938475841
 40
0.3814814592
 40
0.5544096002
 40
0.7060650261
 40
0.7720498443
 40
0.8306430305
 40
0.8812903324
 40
0.9234377092
 40
0.9565955007
 40
0.9805196609
 40
0.9889621772
 40
0.995029257
 40
0.9987032945
 40
1.0
 40
1.0
 40
1.0
 40
1.0
 10
-64.9717072368
 20
4.4594423422
 30
0.0
 10
-64.9818339616
 20
4.4425696083
 30
0.0
 10
-65.0017330804
 20
4.4093471516
 30
0.0
 10
-65.0305671381
 20
4.3610135827
 30
0.0
 10
-65.0571150115
 20
4.316303852
 30
0.0
 10
-65.0772758128
 20
4.2821633417
 30
0.0
 10
-65.0914696534
 20
4.2579797105
 30
0.0
 10
-65.1004420563
 20
4.2426188871
 30
0.0
 10
-65.1081529688
 20
4.2293297646
 30
0.0
 10
-65.1145398741
 20
4.218240322
 30
0.0
 10
-65.1194877646
 20
4.2094990826
 30
0.0
 10
-65.1227741594
 20
4.2036463654
 30
0.0
 10
-65.124543259
 20
4.2002598169
 30
0.0
 10
-65.1255037557
 20
4.1985274462
 30
0.0
 10
-65.1257669589
 20
4.1976729764
 30
0.0
 10
-65.1261688394
 20
4.1970264681
 30
0.0
 10
-65.1260559635
 20
4.1969587426
 30
0.0
  0
SPLINE
  5
5E7
100
AcDbEntity
  8
IMPORT_IGES
100
AcDbSpline
 62
250
  6
CONTINUOUS
 70
0
 71
3
 72
20
 73
16
 74
0
 42
0.0000001
 43
0.0000001
 44
0.0000000001
 40
0.0
 40
0.0
 40
0.0
 40
0.0
 40
0.0014839211
 40
0.0052132729
 40
0.0197290973
 40
0.0435914649
 40
0.0766397921
 40
0.1186412183
 40
0.1691195734
 40
0.2275346856
 40
0.2933455761
 40
0.4447211748
 40
0.6175650982
 40
0.8054407911
 40
1.0
 40
1.0
 40
1.0
 40
1.0
 10
-65.2717072368
 20
4.4542066203
 30
0.0
 10
-65.2717072368
 20
4.4543551117
 30
0.0
 10
-65.2710341364
 20
4.454558385
 30
0.0
 10
-65.2693429975
 20
4.4549249645
 30
0.0
 10
-65.2648936679
 20
4.4553337707
 30
0.0
 10
-65.2579080796
 20
4.4558053346
 30
0.0
 10
-65.2479567074
 20
4.4562677976
 30
0.0
 10
-65.23542804
 20
4.4567199732
 30
0.0
 10
-65.2203258329
 20
4.4571509807
 30
0.0
 10
-65.2028512395
 20
4.4575570744
 30
0.0
 10
-65.175276397
 20
4.4580823193
 30
0.0
 10
-65.1362514319
 20
4.4586226063
 30
0.0
 10
-65.0850093821
 20
4.4590905511
 30
0.0
 10
-65.0294450271
 20
4.4593765192
 30
0.0
 10
-64.9911758957
 20
4.4594423425
 30
0.0
 10
-64.9717069541
 20
4.4594423422
 30
0.0
  0
SPLINE
  5
5E8
100
AcDbEntity
  8
IMPORT_IGES
100
AcDbSpline
 62
250
  6
CONTINUOUS
 70
0
 71
3
 72
20
 73
16
 74
0
 42
0.0000001
 43
0.0000001
 44
0.0000000001
 40
0.0
 40
0.0
 40
0.0
 40
0.0
 40
0.0014835222
 40
0.0052112526
 40
0.019720609
 40
0.0435725964
 40
0.076607024
 40
0.1185819727
 40
0.1690220842
 40
0.2274011504
 40
0.293192037
 40
0.4445552352
 40
0.6174499833
 40
0.8054091975
 40
1.0
 40
1.0
 40
1.0
 40
1.0
 10
-44.8217072369
 20
0.9304312619
 30
0.0
 10
-44.8217072369
 20
0.9305797129
 30
0.0
 10
-44.8223799216
 20
0.9307831217
 30
0.0
 10
-44.8240704668
 20
0.9311496
 30
0.0
 10
-44.828517644
 20
0.9315585345
 30
0.0
 10
-44.8355002904
 20
0.9320299593
 30
0.0
 10
-44.8454464814
 20
0.9324922321
 30
0.0
 10
-44.8579672712
 20
0.9329442588
 30
0.0
 10
-44.8730593281
 20
0.9333752029
 30
0.0
 10
-44.8905244289
 20
0.9337812386
 30
0.0
 10
-44.9180923275
 20
0.934306365
 30
0.0
 10
-44.9571189973
 20
0.9348470371
 30
0.0
 10
-45.0083730741
 20
0.9353151828
 30
0.0
 10
-45.0639538436
 20
0.9356012249
 30
0.0
 10
-45.1022343632
 20
0.9356672121
 30
0.0
 10
-45.1217063998
 20
0.9356672116
 30
0.0
  0
SPLINE
  5
5E9
100
AcDbEntity
  8
IMPORT_IGES
100
AcDbSpline
 62
7
  6
CONTINUOUS
 70
0
 71
3
 72
21
 73
17
 74
0
 42
0.0000001
 43
0.0000001
 44
0.0000000001
 40
0.0
 40
0.0
 40
0.0
 40
0.0
 40
0.1812209228
 40
0.3585989015
 40
0.5264003802
 40
0.6786474298
 40
0.7470318527
 40
0.8091619725
 40
0.8640784658
 40
0.9108122227
 40
0.948402448
 40
0.9761063514
 40
0.9860965317
 40
0.9934349496
 40
0.9980709455
 40
1.0
 40
1.0
 40
1.0
 40
1.0
 10
-63.271707225
 20
3.4394423619
 30
0.0
 10
-63.2899710128
 20
3.4291039662
 30
0.0
 10
-63.3260949454
 20
3.4086175196
 30
0.0
 10
-63.3790492421
 20
3.3784155842
 30
0.0
 10
-63.428978275
 20
3.3496830064
 30
0.0
 10
-63.4678779202
 20
3.3270915296
 30
0.0
 10
-63.4961432405
 20
3.3105577757
 30
0.0
 10
-63.5146550828
 20
3.2996725106
 30
0.0
 10
-63.5309721052
 20
3.2900061584
 30
0.0
 10
-63.544816184
 20
3.2817274807
 30
0.0
 10
-63.5558843641
 20
3.2749858006
 30
0.0
 10
-63.5633205188
 20
3.2703759555
 30
0.0
 10
-63.5676372607
 20
3.2675227275
 30
0.0
 10
-63.5698253934
 20
3.2660921742
 30
0.0
 10
-63.5709463367
 20
3.2651151664
 30
0.0
 10
-63.5717083855
 20
3.2646124683
 30
0.0
 10
-63.5717092324
 20
3.2643890697
 30
0.0
  0
SPLINE
  5
5EA
100
AcDbEntity
  8
IMPORT_IGES
100
AcDbSpline
 62
250
  6
CONTINUOUS
 70
0
 71
3
 72
20
 73
16
 74
0
 42
0.0000001
 43
0.0000001
 44
0.0000000001
 40
0.0
 40
0.0
 40
0.0
 40
0.0
 40
0.0014407303
 40
0.0051456807
 40
0.019612576
 40
0.0434136883
 40
0.0763872279
 40
0.1182927957
 40
0.1686593956
 40
0.2269658635
 40
0.2926902443
 40
0.4439631737
 40
0.6168709765
 40
0.8050055892
 40
1.0
 40
1.0
 40
1.0
 40
1.0
 10
-44.9986515143
 20
1.7513367934
 30
0.0
 10
-44.998710472
 20
1.751467203
 30
0.0
 10
-44.9993996844
 20
1.7513415246
 30
0.0
 10
-45.0010484571
 20
1.7509815619
 30
0.0
 10
-45.0052287133
 20
1.7494772915
 30
0.0
 10
-45.0117020387
 20
1.7470324657
 30
0.0
 10
-45.0208601643
 20
1.743347131
 30
0.0
 10
-45.0323365277
 20
1.7386111582
 30
0.0
 10
-45.0461312797
 20
1.7328034468
 30
0.0
 10
-45.0620628343
 20
1.7260060921
 30
0.0
 10
-45.0871764948
 20
1.7151765125
 30
0.0
 10
-45.1226689672
 20
1.699671435
 30
0.0
 10
-45.1692170598
 20
1.6790973892
 30
0.0
 10
-45.2196558041
 20
1.6565843601
 30
0.0
 10
-45.25436149
 20
1.6409639305
 30
0.0
 10
-45.2720125451
 20
1.6329863071
 30
0.0
  0
SPLINE
  5
5EB
100
AcDbEntity
  8
IMPORT_IGES
100
AcDbSpline
 62
250
  6
CONTINUOUS
 70
0
 71
3
 72
19
 73
15
 74
0
 42
0.0000001
 43
0.0000001
 44
0.0000000001
 40
0.0
 40
0.0
 40
0.0
 40
0.0
 40
0.0043323776
 40
0.0170638891
 40
0.0388906626
 40
0.0704031319
 40
0.1119866717
 40
0.1632522131
 40
0.2236163711
 40
0.2924950887
 40
0.4521667129
 40
0.6311314889
 40
0.8173071658
 40
1.0
 40
1.0
 40
1.0
 40
1.0
 10
-46.3897139023
 20
4.8282317106
 30
0.0
 10
-46.3898911887
 20
4.8286238418
 30
0.0
 10
-46.3921993653
 20
4.8275208242
 30
0.0
 10
-46.3952242011
 20
4.8269592476
 30
0.0
 10
-46.4017367271
 20
4.8242405184
 30
0.0
 10
-46.4103229631
 20
4.8209290696
 30
0.0
 10
-46.4218144598
 20
4.8161507979
 30
0.0
 10
-46.4358201884
 20
4.8102828035
 30
0.0
 10
-46.4523234829
 20
4.8032432832
 30
0.0
 10
-46.4786743342
 20
4.7918869032
 30
0.0
 10
-46.5157667613
 20
4.7756700575
 30
0.0
 10
-46.5634431596
 20
4.754587124
 30
0.0
 10
-46.6131305829
 20
4.7323952039
 30
0.0
 10
-46.6465412762
 20
4.7173533043
 30
0.0
 10
-46.6630780395
 20
4.7098792951
 30
0.0
  0
SPLINE
  5
5EC
100
AcDbEntity
  8
IMPORT_IGES
100
AcDbSpline
 62
250
  6
CONTINUOUS
 70
0
 71
3
 72
19
 73
15
 74
0
 42
0.0000001
 43
0.0000001
 44
0.0000000001
 40
0.0
 40
0.0
 40
0.0
 40
0.0
 40
0.0043836597
 40
0.0171585776
 40
0.039043537
 40
0.0706339869
 40
0.1123161288
 40
0.163693032
 40
0.224171149
 40
0.2931561397
 40
0.4529737338
 40
0.6319166359
 40
0.8178248441
 40
1.0
 40
1.0
 40
1.0
 40
1.0
 10
-46.5507940496
 20
5.3981847818
 30
0.0
 10
-46.5508491637
 20
5.3986189662
 30
0.0
 10
-46.5533894104
 20
5.3983148289
 30
0.0
 10
-46.5564924224
 20
5.3986540942
 30
0.0
 10
-46.5635630537
 20
5.3980279323
 30
0.0
 10
-46.5728209936
 20
5.3974043057
 30
0.0
 10
-46.5853028361
 20
5.3962463943
 30
0.0
 10
-46.6005282484
 20
5.3947757342
 30
0.0
 10
-46.618499071
 20
5.3929179024
 30
0.0
 10
-46.6472108799
 20
5.3898299675
 30
0.0
 10
-46.6876647752
 20
5.3852467753
 30
0.0
 10
-46.739686801
 20
5.3791121304
 30
0.0
 10
-46.7939008516
 20
5.372498192
 30
0.0
 10
-46.8303655018
 20
5.3679293455
 30
0.0
 10
-46.8484093053
 20
5.3656394517
 30
0.0
  0
SPLINE
  5
5ED
100
AcDbEntity
  8
IMPORT_IGES
100
AcDbSpline
 62
7
  6
CONTINUOUS
 70
0
 71
3
 72
9
 73
5
 74
0
 42
0.0000001
 43
0.0000001
 44
0.0000000001
 40
0.0
 40
0.0
 40
0.0
 40
0.0
 40
0.4999873119
 40
1.0
 40
1.0
 40
1.0
 40
1.0
 10
-47.242744918
 20
8.4719583654
 30
0.0
 10
-47.2465405627
 20
8.4980974972
 30
0.0
 10
-47.2639614871
 20
8.5495524147
 30
0.0
 10
-47.2999721292
 20
8.5902365811
 30
0.0
 10
-47.3207878896
 20
8.6064980714
 30
0.0
  0
SPLINE
  5
5EE
100
AcDbEntity
  8
IMPORT_IGES
100
AcDbSpline
 62
250
  6
CONTINUOUS
 70
0
 71
3
 72
21
 73
17
 74
0
 42
0.0000001
 43
0.0000001
 44
0.0000000001
 40
0.0
 40
0.0
 40
0.0
 40
0.0
 40
0.1953607811
 40
0.3835581794
 40
0.5564042462
 40
0.7076085355
 40
0.7733123216
 40
0.8316237849
 40
0.8819959489
 40
0.9238822621
 40
0.9568226114
 40
0.9805937572
 40
0.9889850826
 40
0.9950189967
 40
0.9986804293
 40
1.0
 40
1.0
 40
1.0
 40
1.0
 10
-47.3207877291
 20
8.6064982844
 30
0.0
 10
-47.3091892449
 20
8.6218852284
 30
0.0
 10
-47.2863866406
 20
8.6520716102
 30
0.0
 10
-47.2532183533
 20
8.6957930993
 30
0.0
 10
-47.2225860606
 20
8.735971464
 30
0.0
 10
-47.199191916
 20
8.7664760308
 30
0.0
 10
-47.1826049519
 20
8.787963561
 30
0.0
 10
-47.1720601671
 20
8.8015536741
 30
0.0
 10
-47.1629189847
 20
8.8132534416
 30
0.0
 10
-47.1552706771
 20
8.8229610637
 30
0.0
 10
-47.1492064005
 20
8.8305303978
 30
0.0
 10
-47.1451251736
 20
8.8355581192
 30
0.0
 10
-47.1427118774
 20
8.838355837
 30
0.0
 10
-47.1414844338
 20
8.8398126865
 30
0.0
 10
-47.1408090163
 20
8.8403758438
 30
0.0
 10
-47.1403467435
 20
8.8409313093
 30
0.0
 10
-47.1402425281
 20
8.8408533449
 30
0.0
  0
SPLINE
  5
5EF
100
AcDbEntity
  8
IMPORT_IGES
100
AcDbSpline
 62
250
  6
CONTINUOUS
 70
0
 71
3
 72
20
 73
16
 74
0
 42
0.0000001
 43
0.0000001
 44
0.0000000001
 40
0.0
 40
0.0
 40
0.0
 40
0.0
 40
0.0014790946
 40
0.005202512
 40
0.0196998411
 40
0.0435358308
 40
0.0765520851
 40
0.1185064489
 40
0.1689239896
 40
0.2272808132
 40
0.2930521062
 40
0.4443904247
 40
0.6172872242
 40
0.8052925152
 40
1.0
 40
1.0
 40
1.0
 40
1.0
 10
-46.9451312011
 20
8.504503603
 30
0.0
 10
-46.9451497995
 20
8.5046501095
 30
0.0
 10
-46.9458413586
 20
8.5047643025
 30
0.0
 10
-46.9475575079
 20
8.504913696
 30
0.0
 10
-46.9520090208
 20
8.5047555082
 30
0.0
 10
-46.9589744462
 20
8.5043428209
 30
0.0
 10
-46.9688725029
 20
8.5035475942
 30
0.0
 10
-46.9813165755
 20
8.5024195248
 30
0.0
 10
-46.9963029784
 20
8.5009475825
 30
0.0
 10
-47.0136352655
 20
8.4991531133
 30
0.0
 10
-47.0409825524
 20
8.4962064385
 30
0.0
 10
-47.0796767227
 20
8.4918351653
 30
0.0
 10
-47.1304717635
 20
8.4858557765
 30
0.0
 10
-47.1855409328
 20
8.4791522896
 30
0.0
 10
-47.2234576395
 20
8.4744060897
 30
0.0
 10
-47.2427437958
 20
8.4719585078
 30
0.0
  0
SPLINE
  5
5F0
100
AcDbEntity
  8
IMPORT_IGES
100
AcDbSpline
 62
250
  6
CONTINUOUS
 70
0
 71
3
 72
10
 73
6
 74
0
 42
0.0000001
 43
0.0000001
 44
0.0000000001
 40
0.0
 40
0.0
 40
0.0
 40
0.0
 40
0.5255948042
 40
0.7668708499
 40
1.0
 40
1.0
 40
1.0
 40
1.0
 10
-49.587494797
 20
10.5691571277
 30
0.0
 10
-49.5562261438
 20
10.5795308538
 30
0.0
 10
-49.5066303467
 20
10.5868191479
 30
0.0
 10
-49.4450499616
 20
10.5722831265
 30
0.0
 10
-49.4185957213
 20
10.5577124101
 30
0.0
 10
-49.4069239979
 20
10.548920344
 30
0.0
  0
SPLINE
  5
5F1
100
AcDbEntity
  8
IMPORT_IGES
100
AcDbSpline
 62
250
  6
CONTINUOUS
 70
0
 71
3
 72
21
 73
17
 74
0
 42
0.0000001
 43
0.0000001
 44
0.0000000001
 40
0.0
 40
0.0
 40
0.0
 40
0.0
 40
0.0013148618
 40
0.0049660162
 40
0.0109859221
 40
0.0193611724
 40
0.0431005487
 40
0.0760205719
 40
0.1178824165
 40
0.1682119467
 40
0.2264847017
 40
0.2921759214
 40
0.4434178429
 40
0.6163436123
 40
0.804614886
 40
1.0
 40
1.0
 40
1.0
 40
1.0
 10
-49.4069502901
 20
10.5489401596
 30
0.0
 10
-49.4070538623
 20
10.5490182069
 30
0.0
 10
-49.4075159235
 20
10.5484645925
 30
0.0
 10
-49.4081888186
 20
10.5479031677
 30
0.0
 10
-49.4094142069
 20
10.5464496469
 30
0.0
 10
-49.411823446
 20
10.5436566572
 30
0.0
 10
-49.4159006823
 20
10.5386342001
 30
0.0
 10
-49.4219599903
 20
10.5310706726
 30
0.0
 10
-49.4296029901
 20
10.5213698234
 30
0.0
 10
-49.4387379262
 20
10.5096784504
 30
0.0
 10
-49.4492772196
 20
10.4960958159
 30
0.0
 10
-49.4658634666
 20
10.4746094668
 30
0.0
 10
-49.4892639937
 20
10.4440968169
 30
0.0
 10
-49.5199077949
 20
10.4039035719
 30
0.0
 10
-49.5530865968
 20
10.3601680988
 30
0.0
 10
-49.5758949939
 20
10.3299739987
 30
0.0
 10
-49.587494875
 20
10.314585125
 30
0.0
  0
SPLINE
  5
5F2
100
AcDbEntity
  8
IMPORT_IGES
100
AcDbSpline
 62
250
  6
CONTINUOUS
 70
0
 71
3
 72
14
 73
10
 74
0
 42
0.0000001
 43
0.0000001
 44
0.0000000001
 40
0.0
 40
0.0
 40
0.0
 40
0.0
 40
0.018777556
 40
0.0686128727
 40
0.1496177147
 40
0.2613875681
 40
0.4032292935
 40
0.5743856668
 40
1.0
 40
1.0
 40
1.0
 40
1.0
 10
-58.9352249086
 20
11.6093495065
 30
0.0
 10
-58.9354973118
 20
11.6093489761
 30
0.0
 10
-58.9358880944
 20
11.6080859028
 30
0.0
 10
-58.9369080034
 20
11.6064789024
 30
0.0
 10
-58.9382540096
 20
11.6030526233
 30
0.0
 10
-58.9401343409
 20
11.5986527358
 30
0.0
 10
-58.9424341196
 20
11.5929070017
 30
0.0
 10
-58.9463969183
 20
11.5829654409
 30
0.0
 10
-58.9495649541
 20
11.5749024894
 30
0.0
 10
-58.9518344294
 20
11.5691603733
 30
0.0
  0
SPLINE
  5
5F3
100
AcDbEntity
  8
IMPORT_IGES
100
AcDbSpline
 62
250
  6
CONTINUOUS
 70
0
 71
3
 72
8
 73
4
 74
0
 42
0.0000001
 43
0.0000001
 44
0.0000000001
 40
0.0
 40
0.0
 40
0.0
 40
0.0
 40
1.0
 40
1.0
 40
1.0
 40
1.0
 10
-58.9518344294
 20
11.5691635621
 30
0.0
 10
-58.9606322352
 20
11.5705352466
 30
0.0
 10
-58.9696482596
 20
11.5709215486
 30
0.0
 10
-58.9785254317
 20
11.5702296514
 30
0.0
  0
SPLINE
  5
5F4
100
AcDbEntity
  8
IMPORT_IGES
100
AcDbSpline
 62
250
  6
CONTINUOUS
 70
0
 71
3
 72
9
 73
5
 74
0
 42
0.0000001
 43
0.0000001
 44
0.0000000001
 40
0.0
 40
0.0
 40
0.0
 40
0.0
 40
0.2592860801
 40
1.0
 40
1.0
 40
1.0
 40
1.0
 10
-58.9785254317
 20
11.5702296514
 30
0.0
 10
-58.9828718366
 20
11.5698908876
 30
0.0
 10
-58.9995345136
 20
11.5676089462
 30
0.0
 10
-59.0156808844
 20
11.561000694
 30
0.0
 10
-59.0258937241
 20
11.5538728913
 30
0.0
  0
SPLINE
  5
5F5
100
AcDbEntity
  8
IMPORT_IGES
100
AcDbSpline
 62
250
  6
CONTINUOUS
 70
0
 71
3
 72
8
 73
4
 74
0
 42
0.0000001
 43
0.0000001
 44
0.0000000001
 40
0.0
 40
0.0
 40
0.0
 40
0.0
 40
1.0
 40
1.0
 40
1.0
 40
1.0
 10
-59.0258937241
 20
11.5538728913
 30
0.0
 10
-59.0325059103
 20
11.5492580771
 30
0.0
 10
-59.038517651
 20
11.5436315007
 30
0.0
 10
-59.0435263285
 20
11.5373124291
 30
0.0
  0
SPLINE
  5
5F6
100
AcDbEntity
  8
IMPORT_IGES
100
AcDbSpline
 62
250
  6
CONTINUOUS
 70
0
 71
3
 72
14
 73
10
 74
0
 42
0.0000001
 43
0.0000001
 44
0.0000000001
 40
0.0
 40
0.0
 40
0.0
 40
0.0
 40
0.1249701373
 40
0.2500230733
 40
0.3749848068
 40
0.500011945
 40
0.6250910973
 40
0.7501185045
 40
1.0
 40
1.0
 40
1.0
 40
1.0
 10
-50.5072365194
 20
11.4113740633
 30
0.0
 10
-50.4564767744
 20
11.4138897619
 30
0.0
 10
-50.3545817646
 20
11.4120603586
 30
0.0
 10
-50.2027266455
 20
11.3969203361
 30
0.0
 10
-50.0524589451
 20
11.369675773
 30
0.0
 10
-49.9051870662
 20
11.3292937565
 30
0.0
 10
-49.7615563897
 20
11.2773957864
 30
0.0
 10
-49.5764814366
 20
11.1926301085
 30
0.0
 10
-49.4473410641
 20
11.109862934
 30
0.0
 10
-49.3657432892
 20
11.04929507
 30
0.0
  0
LINE
  5
5F7
100
AcDbEntity
  8
IMPORT_IGES
100
AcDbLine
 62
7
  6
CONTINUOUS
 10
-45.1217070755
 20
0.7143495066
 30
0.0
 11
-44.8217070453
 21
0.7143438972
 31
0.0
  0
SPLINE
  5
5F8
100
AcDbEntity
  8
IMPORT_IGES
100
AcDbSpline
 62
7
  6
CONTINUOUS
 70
0
 71
3
 72
11
 73
7
 74
0
 42
0.0000001
 43
0.0000001
 44
0.0000000001
 40
0.0
 40
0.0
 40
0.0
 40
0.0
 40
0.2494409586
 40
0.4994061693
 40
0.749647873
 40
1.0
 40
1.0
 40
1.0
 40
1.0
 10
-42.0217072368
 20
1.0363039523
 30
0.0
 10
-42.0217072368
 20
0.9471256557
 30
0.0
 10
-42.0558883671
 20
0.76786774
 30
0.0
 10
-42.1778273541
 20
0.5269299147
 30
0.0
 10
-42.3406725741
 20
0.3126297627
 30
0.0
 10
-42.4613636181
 20
0.180452629
 30
0.0
 10
-42.5217072368
 20
0.1143495066
 30
0.0
  0
SPLINE
  5
5F9
100
AcDbEntity
  8
IMPORT_IGES
100
AcDbSpline
 62
250
  6
CONTINUOUS
 70
0
 71
3
 72
11
 73
7
 74
0
 42
0.0000001
 43
0.0000001
 44
0.0000000001
 40
0.0
 40
0.0
 40
0.0
 40
0.0
 40
0.2499322331
 40
0.5000056657
 40
0.7500784195
 40
1.0
 40
1.0
 40
1.0
 40
1.0
 10
-45.4843249403
 20
8.124436553
 30
0.0
 10
-45.4367056346
 20
8.0880959295
 30
0.0
 10
-45.3487510485
 20
8.0050834615
 30
0.0
 10
-45.2479160983
 20
7.8543925808
 30
0.0
 10
-45.184239424
 20
7.6846319199
 30
0.0
 10
-45.1680117794
 20
7.5647881503
 30
0.0
 10
-45.166216728
 20
7.5049156934
 30
0.0
  0
SPLINE
  5
5FA
100
AcDbEntity
  8
IMPORT_IGES
100
AcDbSpline
 62
250
  6
CONTINUOUS
 70
0
 71
3
 72
8
 73
4
 74
0
 42
0.0000001
 43
0.0000001
 44
0.0000000001
 40
0.0
 40
0.0
 40
0.0
 40
0.0
 40
1.0
 40
1.0
 40
1.0
 40
1.0
 10
-46.9288376546
 20
8.8397791784
 30
0.0
 10
-46.9635713248
 20
8.8844913244
 30
0.0
 10
-47.0048368755
 20
8.9246637146
 30
0.0
 10
-47.0499718364
 20
8.9588461538
 30
0.0
  0
SPLINE
  5
5FB
100
AcDbEntity
  8
IMPORT_IGES
100
AcDbSpline
 62
250
  6
CONTINUOUS
 70
0
 71
3
 72
11
 73
7
 74
0
 42
0.0000001
 43
0.0000001
 44
0.0000000001
 40
0.0
 40
0.0
 40
0.0
 40
0.0
 40
0.1952514639
 40
0.4273210711
 40
0.701577324
 40
1.0
 40
1.0
 40
1.0
 40
1.0
 10
-45.0325771653
 20
6.7331679779
 30
0.0
 10
-45.0376106199
 20
6.7382042571
 30
0.0
 10
-45.0449586232
 20
6.7529104963
 30
0.0
 10
-45.0455309177
 20
6.7789862317
 30
0.0
 10
-45.0375437518
 20
6.8075051081
 30
0.0
 10
-45.0283610232
 20
6.8263618878
 30
0.0
 10
-45.0228931544
 20
6.8357713343
 30
0.0
  0
SPLINE
  5
5FC
100
AcDbEntity
  8
IMPORT_IGES
100
AcDbSpline
 62
250
  6
CONTINUOUS
 70
0
 71
3
 72
9
 73
5
 74
0
 42
0.0000001
 43
0.0000001
 44
0.0000000001
 40
0.0
 40
0.0
 40
0.0
 40
0.0
 40
0.4927691889
 40
1.0
 40
1.0
 40
1.0
 40
1.0
 10
-44.5974678604
 20
0.7179059639
 30
0.0
 10
-44.627422846
 20
0.7254728326
 30
0.0
 10
-44.6860911373
 20
0.7505570594
 30
0.0
 10
-44.7343749453
 20
0.7924580906
 30
0.0
 10
-44.7546472217
 20
0.8169620442
 30
0.0
  0
SPLINE
  5
5FD
100
AcDbEntity
  8
IMPORT_IGES
100
AcDbSpline
 62
250
  6
CONTINUOUS
 70
0
 71
3
 72
18
 73
14
 74
0
 42
0.0000001
 43
0.0000001
 44
0.0000000001
 40
0.0
 40
0.0
 40
0.0
 40
0.0
 40
0.1946251264
 40
0.3825663393
 40
0.5554703393
 40
0.7068913785
 40
0.8311335342
 40
0.8816094329
 40
0.9236030059
 40
0.956637549
 40
0.9804777849
 40
0.9949575827
 40
1.0
 40
1.0
 40
1.0
 40
1.0
 10
-45.1660206583
 20
7.5049203232
 30
0.0
 10
-45.1530423949
 20
7.504841523
 30
0.0
 10
-45.1275310236
 20
7.5047437473
 30
0.0
 10
-45.0904903006
 20
7.504764422
 30
0.0
 10
-45.0563280453
 20
7.5049623747
 30
0.0
 10
-45.0264240691
 20
7.5052273286
 30
0.0
 10
-45.0046586807
 20
7.5054553334
 30
0.0
 10
-44.9902362563
 20
7.505529519
 30
0.0
 10
-44.9818048261
 20
7.5055694749
 30
0.0
 10
-44.975375126
 20
7.505419345
 30
0.0
 10
-44.9702437216
 20
7.505495128
 30
0.0
 10
-44.9680240245
 20
7.5049777013
 30
0.0
 10
-44.9660203004
 20
7.5051877176
 30
0.0
 10
-44.9660129752
 20
7.5048515458
 30
0.0
  0
LINE
  5
5FE
100
AcDbEntity
  8
IMPORT_IGES
100
AcDbLine
 62
250
  6
CONTINUOUS
 10
-45.0229010959
 20
6.8357820308
 30
0.0
 11
-45.1565109651
 21
7.0674605851
 31
0.0
  0
SPLINE
  5
5FF
100
AcDbEntity
  8
IMPORT_IGES
100
AcDbSpline
 62
250
  6
CONTINUOUS
 70
0
 71
3
 72
9
 73
5
 74
0
 42
0.0000001
 43
0.0000001
 44
0.0000000001
 40
0.0
 40
0.0
 40
0.0
 40
0.0
 40
0.5161792177
 40
1.0
 40
1.0
 40
1.0
 40
1.0
 10
-44.7532990457
 20
0.7974695393
 30
0.0
 10
-44.724805452
 20
0.7653054575
 30
0.0
 10
-44.6556414507
 20
0.7141683137
 30
0.0
 10
-44.5723980065
 20
0.6942097489
 30
0.0
 10
-44.5321517703
 20
0.6926565762
 30
0.0
  0
SPLINE
  5
600
100
AcDbEntity
  8
IMPORT_IGES
100
AcDbSpline
 62
250
  6
CONTINUOUS
 70
0
 71
3
 72
11
 73
7
 74
0
 42
0.0000001
 43
0.0000001
 44
0.0000000001
 40
0.0
 40
0.0
 40
0.0
 40
0.0
 40
0.2621717462
 40
0.5255680916
 40
0.7740921668
 40
1.0
 40
1.0
 40
1.0
 40
1.0
 10
-44.5396810776
 20
0.6132957825
 30
0.0
 10
-44.5687908357
 20
0.610842619
 30
0.0
 10
-44.6280493326
 20
0.6130838518
 30
0.0
 10
-44.7113559993
 20
0.6398180885
 30
0.0
 10
-44.779278999
 20
0.6887888886
 30
0.0
 10
-44.809575471
 20
0.7337266299
 30
0.0
 10
-44.819528348
 20
0.7568475845
 30
0.0
  0
SPLINE
  5
601
100
AcDbEntity
  8
IMPORT_IGES
100
AcDbSpline
 62
250
  6
CONTINUOUS
 70
0
 71
3
 72
18
 73
14
 74
0
 42
0.0000001
 43
0.0000001
 44
0.0000000001
 40
0.0
 40
0.0
 40
0.0
 40
0.0
 40
0.0059499058
 40
0.0208380974
 40
0.0450847593
 40
0.0786201191
 40
0.1212442671
 40
0.1725301458
 40
0.2989839371
 40
0.450686801
 40
0.6242328767
 40
0.8102855449
 40
1.0
 40
1.0
 40
1.0
 40
1.0
 10
-50.4490570143
 20
11.6093495066
 30
0.0
 10
-50.4494845157
 20
11.609349508
 30
0.0
 10
-50.4500252032
 20
11.6073690809
 30
0.0
 10
-50.4502635478
 20
11.6045990398
 30
0.0
 10
-50.4502657157
 20
11.5991189176
 30
0.0
 10
-50.4496852607
 20
11.5920326254
 30
0.0
 10
-50.4485966354
 20
11.5828990711
 30
0.0
 10
-50.4467348211
 20
11.5671954126
 30
0.0
 10
-50.4444167659
 20
11.5436169687
 30
0.0
 10
-50.4467769519
 20
11.5108689879
 30
0.0
 10
-50.460450541
 20
11.4763011824
 30
0.0
 10
-50.4810458239
 20
11.4425311857
 30
0.0
 10
-50.4981256302
 20
11.4215128956
 30
0.0
 10
-50.5072365194
 20
11.4113740602
 30
0.0
  0
SPLINE
  5
602
100
AcDbEntity
  8
IMPORT_IGES
100
AcDbSpline
 62
250
  6
CONTINUOUS
 70
0
 71
3
 72
11
 73
7
 74
0
 42
0.0000001
 43
0.0000001
 44
0.0000000001
 40
0.0
 40
0.0
 40
0.0
 40
0.0
 40
0.2144212872
 40
0.4352561977
 40
0.6909326209
 40
1.0
 40
1.0
 40
1.0
 40
1.0
 10
-44.5322531374
 20
0.6925252948
 30
0.0
 10
-44.5369282983
 20
0.6885862613
 30
0.0
 10
-44.5452403477
 20
0.6786501639
 30
0.0
 10
-44.5492587433
 20
0.6590277513
 30
0.0
 10
-44.5503848108
 20
0.6363089731
 30
0.0
 10
-44.5435551171
 20
0.6211607497
 30
0.0
 10
-44.5395621357
 20
0.6133055591
 30
0.0
  0
SPLINE
  5
603
100
AcDbEntity
  8
IMPORT_IGES
100
AcDbSpline
 62
250
  6
CONTINUOUS
 70
0
 71
3
 72
9
 73
5
 74
0
 42
0.0000001
 43
0.0000001
 44
0.0000000001
 40
0.0
 40
0.0
 40
0.0
 40
0.0
 40
0.2562891664
 40
1.0
 40
1.0
 40
1.0
 40
1.0
 10
-44.5217072372
 20
0.5250639654
 30
0.0
 10
-44.5459056529
 20
0.5250646057
 30
0.0
 10
-44.6394549362
 20
0.5325360504
 30
0.0
 10
-44.7359216184
 20
0.5740421783
 30
0.0
 10
-44.7813107841
 20
0.6276208242
 30
0.0
  0
SPLINE
  5
604
100
AcDbEntity
  8
IMPORT_IGES
100
AcDbSpline
 62
250
  6
CONTINUOUS
 70
0
 71
3
 72
9
 73
5
 74
0
 42
0.0000001
 43
0.0000001
 44
0.0000000001
 40
0.0
 40
0.0
 40
0.0
 40
0.0
 40
0.5297509075
 40
1.0
 40
1.0
 40
1.0
 40
1.0
 10
-44.7813107841
 20
0.6276208242
 30
0.0
 10
-44.7923203247
 20
0.6406167951
 30
0.0
 10
-44.810240719
 20
0.6679140418
 30
0.0
 10
-44.8190591216
 20
0.6994366803
 30
0.0
 10
-44.8207846546
 20
0.7144572747
 30
0.0
  0
SPLINE
  5
605
100
AcDbEntity
  8
IMPORT_IGES
100
AcDbSpline
 62
250
  6
CONTINUOUS
 70
0
 71
3
 72
9
 73
5
 74
0
 42
0.0000001
 43
0.0000001
 44
0.0000000001
 40
0.0
 40
0.0
 40
0.0
 40
0.0
 40
0.2305626395
 40
1.0
 40
1.0
 40
1.0
 40
1.0
 10
-44.5395621357
 20
0.6133055591
 30
0.0
 10
-44.5368616121
 20
0.6069100029
 30
0.0
 10
-44.5265602661
 20
0.5786005307
 30
0.0
 10
-44.5217954555
 20
0.5482387214
 30
0.0
 10
-44.5217072368
 20
0.5250708286
 30
0.0
  0
SPLINE
  5
606
100
AcDbEntity
  8
IMPORT_IGES
100
AcDbSpline
 62
250
  6
CONTINUOUS
 70
0
 71
3
 72
14
 73
10
 74
0
 42
0.0000001
 43
0.0000001
 44
0.0000000001
 40
0.0
 40
0.0
 40
0.0
 40
0.0
 40
0.0170241003
 40
0.0657519929
 40
0.1460946376
 40
0.257606482
 40
0.3997997073
 40
0.5718929059
 40
1.0
 40
1.0
 40
1.0
 40
1.0
 10
-50.7072042365
 20
11.4102317386
 30
0.0
 10
-50.7072043204
 20
11.4104669757
 30
0.0
 10
-50.7058105798
 20
11.4103772316
 30
0.0
 10
-50.7042622608
 20
11.4107555726
 30
0.0
 10
-50.7006809657
 20
11.4107950859
 30
0.0
 10
-50.6961814903
 20
11.4110021681
 30
0.0
 10
-50.6902558483
 20
11.4111232995
 30
0.0
 10
-50.680019956
 20
11.411318807
 30
0.0
 10
-50.6717177241
 20
11.4114169419
 30
0.0
 10
-50.6658025601
 20
11.4114833199
 30
0.0
  0
SPLINE
  5
607
100
AcDbEntity
  8
IMPORT_IGES
100
AcDbSpline
 62
250
  6
CONTINUOUS
 70
0
 71
3
 72
9
 73
5
 74
0
 42
0.0000001
 43
0.0000001
 44
0.0000000001
 40
0.0
 40
0.0
 40
0.0
 40
0.0
 40
0.2002961783
 40
1.0
 40
1.0
 40
1.0
 40
1.0
 10
-50.6658025601
 20
11.4114833199
 30
0.0
 10
-50.6552143059
 20
11.4116021377
 30
0.0
 10
-50.6023511322
 20
11.4121539736
 30
0.0
 10
-50.5494756643
 20
11.4117520611
 30
0.0
 10
-50.5072088074
 20
11.4108081978
 30
0.0
  0
LINE
  5
608
100
AcDbEntity
  8
RACCORDO
100
AcDbLine
 62
7
  6
CONTINUOUS
 10
-69.1717072368
 20
-24.3906748616
 30
0.0
 11
-69.1717072368
 21
-24.6406504934
 31
0.0
  0
SPLINE
  5
609
100
AcDbEntity
  8
RACCORDO
100
AcDbSpline
 62
250
  6
CONTINUOUS
 70
0
 71
3
 72
18
 73
14
 74
0
 42
0.0000001
 43
0.0000001
 44
0.0000000001
 40
0.0
 40
0.0
 40
0.0
 40
0.0
 40
0.1945787421
 40
0.3824693227
 40
0.5553301767
 40
0.7067221245
 40
0.8309560346
 40
0.8814363048
 40
0.9234397372
 40
0.9564889387
 40
0.9803501076
 40
0.9948641482
 40
1.0
 40
1.0
 40
1.0
 40
1.0
 10
-75.2674455551
 20
-24.3481178886
 30
0.0
 10
-75.2675587734
 20
-24.3643400031
 30
0.0
 10
-75.2677266256
 20
-24.3962272565
 30
0.0
 10
-75.2678109015
 20
-24.4425256222
 30
0.0
 10
-75.267720892
 20
-24.4852272197
 30
0.0
 10
-75.2674584943
 20
-24.5226091166
 30
0.0
 10
-75.2671064656
 20
-24.5498168676
 30
0.0
 10
-75.2667025316
 20
-24.5678468288
 30
0.0
 10
-75.2664309711
 20
-24.5783828471
 30
0.0
 10
-75.2660184552
 20
-24.5864281378
 30
0.0
 10
-75.2658616226
 20
-24.5928213019
 30
0.0
 10
-75.2651864993
 20
-24.5956328834
 30
0.0
 10
-75.2652559468
 20
-24.598108807
 30
0.0
 10
-75.2648277686
 20
-24.5981117963
 30
0.0
  0
SPLINE
  5
60A
100
AcDbEntity
  8
RACCORDO
100
AcDbSpline
 62
7
  6
CONTINUOUS
 70
0
 71
3
 72
12
 73
8
 74
0
 42
0.0000001
 43
0.0000001
 44
0.0000000001
 40
0.0
 40
0.0
 40
0.0
 40
0.0
 40
0.2726788448
 40
0.5371828906
 40
0.7838489608
 40
0.8968562403
 40
1.0
 40
1.0
 40
1.0
 40
1.0
 10
-75.2674455551
 20
-22.7629643353
 30
0.0
 10
-75.3221907961
 20
-22.7909298471
 30
0.0
 10
-75.430007982
 20
-22.8461245403
 30
0.0
 10
-75.5893721412
 20
-22.9224286248
 30
0.0
 10
-75.7203931827
 20
-22.9748368787
 30
0.0
 10
-75.8215084629
 20
-23.0011437317
 30
0.0
 10
-75.8702908148
 20
-23.0066191402
 30
0.0
 10
-75.8935429339
 20
-23.0063756357
 30
0.0
  0
SPLINE
  5
60B
100
AcDbEntity
  8
RACCORDO
100
AcDbSpline
 62
250
  6
CONTINUOUS
 70
0
 71
3
 72
18
 73
14
 74
0
 42
0.0000001
 43
0.0000001
 44
0.0000000001
 40
0.0
 40
0.0
 40
0.0
 40
0.0
 40
0.0051357693
 40
0.0196495734
 40
0.0435103687
 40
0.0765590763
 40
0.1185619176
 40
0.1690415432
 40
0.2932741935
 40
0.4446652598
 40
0.6175260854
 40
0.8054179993
 40
1.0
 40
1.0
 40
1.0
 40
1.0
 10
-79.187414913
 20
-22.971881028
 30
0.0
 10
-79.1878430452
 20
-22.9718765445
 30
0.0
 10
-79.1877649694
 20
-22.9694010721
 30
0.0
 10
-79.1884302216
 20
-22.9665873652
 30
0.0
 10
-79.1885647331
 20
-22.9601941824
 30
0.0
 10
-79.1889491375
 20
-22.9521481093
 30
0.0
 10
-79.1891839071
 20
-22.9416119946
 30
0.0
 10
-79.1895248866
 20
-22.9235820394
 30
0.0
 10
-79.1897819366
 20
-22.8963751155
 30
0.0
 10
-79.1899138587
 20
-22.8589949887
 30
0.0
 10
-79.1898548428
 20
-22.8162959031
 30
0.0
 10
-79.1896090041
 20
-22.7700005535
 30
0.0
 10
-79.1893298879
 20
-22.7381156397
 30
0.0
 10
-79.1891600686
 20
-22.7218947357
 30
0.0
  0
LINE
  5
60C
100
AcDbEntity
  8
RACCORDO
100
AcDbLine
 62
250
  6
CONTINUOUS
 10
-76.1717071891
 20
-24.3435197462
 30
0.0
 11
-75.2674455551
 21
-24.3481178886
 31
0.0
  0
LINE
  5
60D
100
AcDbEntity
  8
RACCORDO
100
AcDbLine
 62
250
  6
CONTINUOUS
 10
-76.1717071838
 20
23.0622187688
 30
0.0
 11
-75.2674455551
 21
23.0668169018
 31
0.0
  0
SPLINE
  5
60E
100
AcDbEntity
  8
RACCORDO
100
AcDbSpline
 62
250
  6
CONTINUOUS
 70
0
 71
3
 72
21
 73
17
 74
0
 42
0.0000001
 43
0.0000001
 44
0.0000000001
 40
0.0
 40
0.0
 40
0.0
 40
0.0
 40
0.1948887976
 40
0.3826559407
 40
0.5554776267
 40
0.7069394342
 40
0.772850633
 40
0.8313053389
 40
0.8817292423
 40
0.9236878597
 40
0.9567572009
 40
0.9805913481
 40
0.9889905883
 40
0.9950222977
 40
0.9986768553
 40
1.0
 40
1.0
 40
1.0
 40
1.0
 10
-69.1203982459
 20
-9.8481590579
 30
0.0
 10
-69.1205725621
 20
-9.8679616904
 30
0.0
 10
-69.1208690425
 20
-9.9068437337
 30
0.0
 10
-69.1211683604
 20
-9.9632872453
 30
0.0
 10
-69.1213090098
 20
-10.0153184405
 30
0.0
 10
-69.1212901575
 20
-10.0549680157
 30
0.0
 10
-69.1211802815
 20
-10.0829952465
 30
0.0
 10
-69.1210618121
 20
-10.1007571516
 30
0.0
 10
-69.1209030287
 20
-10.116079896
 30
0.0
 10
-69.1207123723
 20
-10.1288364409
 30
0.0
 10
-69.1204782876
 20
-10.1388528921
 30
0.0
 10
-69.1202650673
 20
-10.1455412407
 30
0.0
 10
-69.1200305459
 20
-10.1493477312
 30
0.0
 10
-69.1199151481
 20
-10.1513060575
 30
0.0
 10
-69.1197224494
 20
-10.1521900026
 30
0.0
 10
-69.1196600185
 20
-10.1529294701
 30
0.0
 10
-69.119525603
 20
-10.1529264333
 30
0.0
  0
SPLINE
  5
60F
100
AcDbEntity
  8
RACCORDO
100
AcDbSpline
 62
250
  6
CONTINUOUS
 70
0
 71
3
 72
21
 73
17
 74
0
 42
0.0000001
 43
0.0000001
 44
0.0000000001
 40
0.0
 40
0.0
 40
0.0
 40
0.0
 40
0.0012682196
 40
0.0049043541
 40
0.0109275726
 40
0.0193233617
 40
0.0431579271
 40
0.0762297752
 40
0.1181908106
 40
0.1686176909
 40
0.2270769631
 40
0.2929946924
 40
0.444472221
 40
0.617310138
 40
0.8050940357
 40
1.0
 40
1.0
 40
1.0
 40
1.0
 10
-69.119525603
 20
14.6716254465
 30
0.0
 10
-69.1196543288
 20
14.6716310404
 30
0.0
 10
-69.1196390087
 20
14.6708650212
 30
0.0
 10
-69.1198396914
 20
14.6700175804
 30
0.0
 10
-69.1198897395
 20
14.6680413496
 30
0.0
 10
-69.12007727
 20
14.6642451951
 30
0.0
 10
-69.1202079509
 20
14.6575477219
 30
0.0
 10
-69.1203692685
 20
14.6475349574
 30
0.0
 10
-69.1204828753
 20
14.6347773164
 30
0.0
 10
-69.1205707253
 20
14.619456082
 30
0.0
 10
-69.1206215459
 20
14.6016951993
 30
0.0
 10
-69.1206440216
 20
14.5736697632
 30
0.0
 10
-69.1205727541
 20
14.5340229091
 30
0.0
 10
-69.1203553992
 20
14.4819956863
 30
0.0
 10
-69.1200059509
 20
14.4255567308
 30
0.0
 10
-69.1196981522
 20
14.3866777895
 30
0.0
 10
-69.119525603
 20
14.3668766766
 30
0.0
  0
SPLINE
  5
610
100
AcDbEntity
  8
RACCORDO
100
AcDbSpline
 62
7
  6
CONTINUOUS
 70
0
 71
3
 72
12
 73
8
 74
0
 42
0.0000001
 43
0.0000001
 44
0.0000000001
 40
0.0
 40
0.0
 40
0.0
 40
0.0
 40
0.1031437597
 40
0.2161510392
 40
0.4628171094
 40
0.7273211552
 40
1.0
 40
1.0
 40
1.0
 40
1.0
 10
-75.8935429339
 20
21.7250746488
 30
0.0
 10
-75.8702908148
 20
21.7253181533
 30
0.0
 10
-75.8215084629
 20
21.7198427449
 30
0.0
 10
-75.7203931827
 20
21.6935358919
 30
0.0
 10
-75.5893721412
 20
21.641127638
 30
0.0
 10
-75.430007982
 20
21.5648235535
 30
0.0
 10
-75.3221907961
 20
21.5096288602
 30
0.0
 10
-75.2674455551
 20
21.4816633485
 30
0.0
  0
SPLINE
  5
611
100
AcDbEntity
  8
RACCORDO
100
AcDbSpline
 62
250
  6
CONTINUOUS
 70
0
 71
3
 72
18
 73
14
 74
0
 42
0.0000001
 43
0.0000001
 44
0.0000000001
 40
0.0
 40
0.0
 40
0.0
 40
0.0
 40
0.0051358518
 40
0.0196498925
 40
0.0435110614
 40
0.0765602629
 40
0.1185636953
 40
0.1690439655
 40
0.2932778756
 40
0.4446698234
 40
0.6175306774
 40
0.8054212579
 40
1.0
 40
1.0
 40
1.0
 40
1.0
 10
-75.2648277686
 20
23.3168108095
 30
0.0
 10
-75.2652559468
 20
23.3168078202
 30
0.0
 10
-75.2651864994
 20
23.3143318966
 30
0.0
 10
-75.2658616227
 20
23.3115203151
 30
0.0
 10
-75.2660184554
 20
23.305127151
 30
0.0
 10
-75.2664309714
 20
23.2970818603
 30
0.0
 10
-75.2667025321
 20
23.2865458419
 30
0.0
 10
-75.2671064663
 20
23.2685158808
 30
0.0
 10
-75.2674584955
 20
23.2413081297
 30
0.0
 10
-75.267720894
 20
23.2039262329
 30
0.0
 10
-75.2678109038
 20
23.1612246354
 30
0.0
 10
-75.2677266272
 20
23.1149262697
 30
0.0
 10
-75.267558774
 20
23.0830390162
 30
0.0
 10
-75.2674455551
 20
23.0668169018
 30
0.0
  0
LINE
  5
612
100
AcDbEntity
  8
RACCORDO
100
AcDbLine
 62
7
  6
CONTINUOUS
 10
-69.1717072368
 20
23.3593495066
 30
0.0
 11
-69.1717072368
 21
23.1093738748
 31
0.0
  0
SPLINE
  5
613
100
AcDbEntity
  8
RACCORDO
100
AcDbSpline
 62
250
  6
CONTINUOUS
 70
0
 71
3
 72
18
 73
14
 74
0
 42
0.0000001
 43
0.0000001
 44
0.0000000001
 40
0.0
 40
0.0
 40
0.0
 40
0.0
 40
0.0051357691
 40
0.0196495722
 40
0.0435103664
 40
0.0765590733
 40
0.1185619135
 40
0.1690415372
 40
0.2932741841
 40
0.4446652488
 40
0.617526077
 40
0.8054179968
 40
1.0
 40
1.0
 40
1.0
 40
1.0
 10
-79.187414913
 20
21.6905800412
 30
0.0
 10
-79.1878430452
 20
21.6905755576
 30
0.0
 10
-79.1877649696
 20
21.6881000854
 30
0.0
 10
-79.1884302217
 20
21.6852863787
 30
0.0
 10
-79.1885647333
 20
21.6788931961
 30
0.0
 10
-79.1889491377
 20
21.6708471233
 30
0.0
 10
-79.1891839074
 20
21.6603110089
 30
0.0
 10
-79.1895248869
 20
21.6422810543
 30
0.0
 10
-79.1897819369
 20
21.6150741309
 30
0.0
 10
-79.189913859
 20
21.5776940043
 30
0.0
 10
-79.1898548431
 20
21.5349949181
 30
0.0
 10
-79.1896090042
 20
21.4886995676
 30
0.0
 10
-79.189329888
 20
21.456814653
 30
0.0
 10
-79.1891600686
 20
21.4405937488
 30
0.0
  0
SPLINE
  5
614
100
AcDbEntity
  8
RACCORDO
100
AcDbSpline
 62
250
  6
CONTINUOUS
 70
0
 71
3
 72
19
 73
15
 74
0
 42
0.0000001
 43
0.0000001
 44
0.0000000001
 40
0.0
 40
0.0
 40
0.0
 40
0.0
 40
0.1946658802
 40
0.3826495626
 40
0.5555934672
 40
0.7070473749
 40
0.831312013
 40
0.881795162
 40
0.9237959878
 40
0.9568281525
 40
0.980646772
 40
0.9890478911
 40
0.995083155
 40
1.0
 40
1.0
 40
1.0
 40
1.0
 10
-69.119525603
 20
-5.5783650343
 30
0.0
 10
-69.11938404
 20
-5.5621422917
 30
0.0
 10
-69.119133224
 20
-5.5302534973
 30
0.0
 10
-69.1188482416
 20
-5.4839511746
 30
0.0
 10
-69.1186709042
 20
-5.4412507987
 30
0.0
 10
-69.1186025603
 20
-5.4038567273
 30
0.0
 10
-69.1186455589
 20
-5.3766779879
 30
0.0
 10
-69.1187382559
 20
-5.3586036501
 30
0.0
 10
-69.118851257
 20
-5.3481671741
 30
0.0
 10
-69.1189302523
 20
-5.3398679371
 30
0.0
 10
-69.1191498816
 20
-5.334561014
 30
0.0
 10
-69.1191508879
 20
-5.3311991387
 30
0.0
 10
-69.1194651205
 20
-5.3299017988
 30
0.0
 10
-69.1191158511
 20
-5.3283781294
 30
0.0
 10
-69.119525603
 20
-5.3283745535
 30
0.0
  0
ELLIPSE
  5
615
100
AcDbEntity
  8
IMPORT_IGES
100
AcDbEllipse
 62
7
  6
CONTINUOUS
 10
-6.0007557566
 20
-6.7693692013
 30
0.0
 11
0.3
 21
0.0
 31
0.0
 40
0.2679491924
 41
-0.2680195878
 42
-0.0
  0
ELLIPSE
  5
616
100
AcDbEntity
  8
IMPORT_IGES
100
AcDbEllipse
 62
7
  6
CONTINUOUS
 10
-1.3507557566
 20
-6.7693692013
 30
0.0
 11
0.3
 21
-0.0
 31
0.0
 40
0.2679491924
 41
-3.1415926536
 42
-2.8736031011
  0
ELLIPSE
  5
617
100
AcDbEntity
  8
RACCORDO
100
AcDbEllipse
 62
7
  6
CONTINUOUS
 10
-14.2472234661
 20
23.0465105402
 30
0.0
 11
0.1952300894
 21
-0.1561826442
 31
0.0
 40
0.9999375566
 41
0.6747060234
 42
1.570835933
  0
ELLIPSE
  5
618
100
AcDbEntity
  8
RACCORDO
100
AcDbEllipse
 62
7
  6
CONTINUOUS
 10
6.8957119529
 20
-24.3278115271
 30
0.0
 11
0.1952300894
 21
-0.1561826442
 31
0.0
 40
0.9999375566
 41
-2.4668866302
 42
-1.5707567206
  0
ELLIPSE
  5
619
100
AcDbEntity
  8
RACCORDO
100
AcDbEllipse
 62
7
  6
CONTINUOUS
 10
6.8957119529
 20
23.0465105402
 30
0.0
 11
0.1952300894
 21
0.1561826442
 31
0.0
 40
0.9999375566
 41
1.5707567198
 42
2.4668866302
  0
ELLIPSE
  5
61A
100
AcDbEntity
  8
RACCORDO
100
AcDbEllipse
 62
7
  6
CONTINUOUS
 10
-14.2472234661
 20
-24.3278115271
 30
0.0
 11
0.1952300894
 21
0.1561826442
 31
0.0
 40
0.9999375566
 41
-1.5708359338
 42
-0.6747060234
  0
ELLIPSE
  5
61B
100
AcDbEntity
  8
RACCORDO
100
AcDbEllipse
 62
7
  6
CONTINUOUS
 10
7.6976593628
 20
-23.0131005573
 30
0.0
 11
0.9203235423
 21
-0.0
 31
0.0
 40
0.0104723583
 41
0.7722570015
 42
3.1328660073
  0
ELLIPSE
  5
61C
100
AcDbEntity
  8
RACCORDO
100
AcDbEllipse
 62
7
  6
CONTINUOUS
 10
-15.0491708759
 20
-23.0131005573
 30
0.0
 11
0.9203235423
 21
-0.0
 31
0.0
 40
0.0104723583
 41
0.0087266463
 42
2.3693356521
  0
ELLIPSE
  5
61D
100
AcDbEntity
  8
RACCORDO
100
AcDbEllipse
 62
7
  6
CONTINUOUS
 10
-15.0491708759
 20
21.7317995705
 30
0.0
 11
0.9203235423
 21
-0.0
 31
0.0
 40
0.0104723583
 41
-2.3693356521
 42
-0.0087266463
  0
ELLIPSE
  5
61E
100
AcDbEntity
  8
RACCORDO
100
AcDbEllipse
 62
7
  6
CONTINUOUS
 10
7.6976593628
 20
21.7317995705
 30
0.0
 11
0.9203235423
 21
-0.0
 31
0.0
 40
0.0104723583
 41
-3.1328660073
 42
-0.7722570015
  0
ENDSEC
  0
SECTION
  2
OBJECTS
  0
DICTIONARY
  5
C
100
AcDbDictionary
280
0
281
1
  3
ACAD_GROUP
350
D
  3
ACAD_MLINESTYLE
350
17
  3
ACAD_LAYOUT
350
1A
  3
ACAD_PLOTSETTINGS
350
19
  3
ACAD_PLOTSTYLENAME
350
E
  0
DICTIONARY
  5
D
102
{ACAD_REACTORS
330
C
102
}
100
AcDbDictionary
280
0
281
1
  0
ACDBDICTIONARYWDFLT
  5
E
102
{ACAD_REACTORS
330
C
102
}
100
AcDbDictionary
281
1
  3
Normal
350
F
100
AcDbDictionaryWithDefault
340
F
  0
DICTIONARY
  5
17
102
{ACAD_REACTORS
330
C
102
}
100
AcDbDictionary
280
0
281
1
  3
Standard
350
18
  0
DICTIONARY
  5
19
102
{ACAD_REACTORS
330
C
102
}
100
AcDbDictionary
281
1
  0
DICTIONARY
  5
1A
102
{ACAD_REACTORS
330
C
102
}
100
AcDbDictionary
281
1
  3
Model
350
61F
  3
Layout1
350
620
  0
ACDBPLACEHOLDER
  5
F
102
{ACAD_REACTORS
330
E
102
}
  0
MLINESTYLE
  5
18
102
{ACAD_REACTORS
330
17
102
}
100
AcDbMlineStyle
  2
STANDARD
 70
0
  3

 62
256
 51
90.0
 52
90.0
 71
2
 49
0.5
 62
256
  6
BYLAYER
 49
-0.5
 62
256
  6
BYLAYER
  0
LAYOUT
  5
61F
102
{ACAD_REACTORS
330
1A
102
}
100
AcDbPlotSettings
  1

  2
none_device
  4
ISO_A4_(297.00_x_210.00_MM)
  6

 40
0.0
 41
0.0
 42
0.0
 43
0.0
 44
297.0
 45
210.0
 46
0.0
 47
0.0
 48
0.0
 49
0.0
140
0.0
141
0.0
142
1.0
143
1.0
 70
1024
 72
1
 73
0
 74
0
  7

 75
0
147
1.0
148
0.0
149
0.0
100
AcDbLayout
  1
Model
 70
0
 71
0
 10
0.0
 20
0.0
 11
297.0
 21
210.0
 12
0.0
 22
0.0
 32
0.0
 14
0.0
 24
0.0
 34
0.0
 15
0.0
 25
0.0
 35
0.0
146
0.0
 13
0.0
 23
0.0
 33
0.0
 16
1.0
 26
0.0
 36
0.0
 17
0.0
 27
1.0
 37
0.0
 76
0
330
21B
345
0
346
0
  0
LAYOUT
  5
620
102
{ACAD_REACTORS
330
1A
102
}
100
AcDbPlotSettings
  1

  2
none_device
  4
ISO_A4_(297.00_x_210.00_MM)
  6

 40
0.0
 41
0.0
 42
0.0
 43
0.0
 44
297.0
 45
210.0
 46
0.0
 47
0.0
 48
0.0
 49
0.0
140
0.0
141
0.0
142
1.0
143
1.0
 70
0
 72
1
 73
0
 74
0
  7

 75
0
147
1.0
148
0.0
149
0.0
100
AcDbLayout
  1
Layout1
 70
0
 71
1
 10
0.0
 20
0.0
 11
297.0
 21
210.0
 12
0.0
 22
0.0
 32
0.0
 14
0.0
 24
0.0
 34
0.0
 15
0.0
 25
0.0
 35
0.0
146
0.0
 13
0.0
 23
0.0
 33
0.0
 16
1.0
 26
0.0
 36
0.0
 17
0.0
 27
1.0
 37
0.0
 76
0
330
21C
345
0
346
0
  0
ENDSEC
  0
EOF
