0
SECTION
2
HEADER
9
$ACADVER
1
AC1014
9
$HANDSEED
5
       575
9
$EXTMAX
10
297.0000000000
20
210.0000000000
9
$EXTMIN
10
0.0000000000
20
0.0000000000
9
$LIMMIN
10
0.0000000000
20
0.0000000000
9
$LIMMAX
10
297.0000000000
20
210.0000000000
9
$VIEWCTR
10
148.5000000000
20
105.0000000000
9
$VIEWSIZE
40
210.0000000000
9
$CLAYER
8
0
9
$LTSCALE
40
16.3350000000
9
$CELTYPE
6
BYLAYER
9
$DIMSCALE
40
1
9
$DIMASZ
40
3.0000000000
9
$DIMEXO
40
1.8562500000
9
$DIMDLI
40
11.2860000000
9
$DIMEXE
40
5.3460000000
9
$DIMCEN
40
2.6730000000
9
$DIMLFAC
40
1.0000000000
9
$DIMTXT
40
3.0000000000
9
$DIMTOL
70
1
9
$DIMLIM
70
0
9
$DIMTFAC
40
1.0000000000
9
$DIMTP
40
0.0100000000
9
$DIMTM
40
0.0100000000
9
$MEASUREMENT
70
1
0
ENDSEC
0
SECTION
2
CLASSES
0
ENDSEC
0
SECTION
2
TABLES
0
TABLE
2
VPORT
5
8
100
AcDbSymbolTable
70
2
0
VPORT
5
1F4
100
AcDbSymbolTableRecord
100
AcDbViewportTableRecord
2
*ACTIVE
70
0
10
0.0
20
0.0
11
1.0
21
1.0
12
148.5000000000
22
105.0000000000
13
0.0
23
0.0
14
1.0
24
1.0
15
0.0
25
0.0
16
0.0
26
0.0
36
1.0
17
0.0
27
0.0
37
0.0
40
210.0000000000
41
1.4142857143
42
50.0
43
0.0
44
0.0
50
0.0
51
0.0
71
0
72
100
73
1
74
1
75
0
76
0
77
0
78
0
0
ENDTAB
0
TABLE
2
LTYPE
5
5
100
AcDbSymbolTable
70
6
0
LTYPE
5
14
100
AcDbSymbolTableRecord
100
AcDbLinetypeTableRecord
2
BYBLOCK
70
0
3

72
65
73
0
40
0.0
0
LTYPE
5
15
100
AcDbSymbolTableRecord
100
AcDbLinetypeTableRecord
2
BYLAYER
70
0
3

72
65
73
0
40
0.0
0
LTYPE
5
16
100
AcDbSymbolTableRecord
100
AcDbLinetypeTableRecord
2
CONTINUOUS
70
64
3
Solid line
72
65
73
0
40
0
0
LTYPE
5
1F5
100
AcDbSymbolTableRecord
100
AcDbLinetypeTableRecord
2
CENTER
70
64
3
____ _ ____ _ ____ _ ____ _ ____ _ ____ _ ____
72
65
73
4
40
0.6
49
0.375
74
0
49
-0.075
74
0
49
0.075
74
0
49
-0.075
74
0
0
LTYPE
5
1F6
100
AcDbSymbolTableRecord
100
AcDbLinetypeTableRecord
2
HIDDEN
70
64
3
- - - - - - - - - - - - - - - - - - - -
72
65
73
2
40
0.2
49
0.1
74
0
49
-0.1
74
0
0
LTYPE
5
1F7
100
AcDbSymbolTableRecord
100
AcDbLinetypeTableRecord
2
PHANTOM
70
64
3
_____ _ _ _____ _ _ _____ _ _ _____
72
65
73
6
40
0.8
49
0.45
74
0
49
-0.05
74
0
49
0.1
74
0
49
-0.05
74
0
49
0.1
74
0
49
-0.05
74
0
0
LTYPE
5
1F8
100
AcDbSymbolTableRecord
100
AcDbLinetypeTableRecord
2
DOT
70
64
3
. . . . . . . . . . . . . . . . . . . .
72
65
73
2
40
0.2
49
0.1
74
0
49
-0.1
74
0
0
LTYPE
5
1F9
100
AcDbSymbolTableRecord
100
AcDbLinetypeTableRecord
2
DASHED
70
64
3
- - - - - - - - - - - - - - - - - - - -
72
65
73
2
40
0.2
49
0.1
74
0
49
-0.1
74
0
0
ENDTAB
0
TABLE
2
LAYER
5
2
100
AcDbSymbolTable
70
36
0
LAYER
5
10
100
AcDbSymbolTableRecord
100
AcDbLayerTableRecord
2
0
70
0
62
7
6
CONTINUOUS
0
LAYER
5
1FA
100
AcDbSymbolTableRecord
100
AcDbLayerTableRecord
2
DEFAULT_1
70
0
62
7
6
CENTER
0
LAYER
5
1FB
100
AcDbSymbolTableRecord
100
AcDbLayerTableRecord
2
DEFAULT_2
70
0
62
8
6
HIDDEN
0
LAYER
5
1FC
100
AcDbSymbolTableRecord
100
AcDbLayerTableRecord
2
DEFAULT_3
70
0
62
7
6
PHANTOM
0
LAYER
5
1FD
100
AcDbSymbolTableRecord
100
AcDbLayerTableRecord
2
ASSI
70
0
62
7
6
CONTINUOUS
0
LAYER
5
1FE
100
AcDbSymbolTableRecord
100
AcDbLayerTableRecord
2
COORDINATE
70
0
62
7
6
CONTINUOUS
0
LAYER
5
1FF
100
AcDbSymbolTableRecord
100
AcDbLayerTableRecord
2
COORD_ORIGINE
70
0
62
7
6
CONTINUOUS
0
LAYER
5
200
100
AcDbSymbolTableRecord
100
AcDbLayerTableRecord
2
COSMETICI
70
0
62
7
6
CONTINUOUS
0
LAYER
5
201
100
AcDbSymbolTableRecord
100
AcDbLayerTableRecord
2
CURVE
70
0
62
7
6
CONTINUOUS
0
LAYER
5
202
100
AcDbSymbolTableRecord
100
AcDbLayerTableRecord
2
DRAFT
70
0
62
7
6
CONTINUOUS
0
LAYER
5
203
100
AcDbSymbolTableRecord
100
AcDbLayerTableRecord
2
IGES
70
0
62
7
6
CONTINUOUS
0
LAYER
5
204
100
AcDbSymbolTableRecord
100
AcDbLayerTableRecord
2
INC_LASER
70
0
62
7
6
CONTINUOUS
0
LAYER
5
205
100
AcDbSymbolTableRecord
100
AcDbLayerTableRecord
2
NOTE
70
0
62
7
6
CONTINUOUS
0
LAYER
5
206
100
AcDbSymbolTableRecord
100
AcDbLayerTableRecord
2
PIANI
70
0
62
7
6
CONTINUOUS
0
LAYER
5
207
100
AcDbSymbolTableRecord
100
AcDbLayerTableRecord
2
PIANI_AUSILIARI
70
0
62
7
6
CONTINUOUS
0
LAYER
5
208
100
AcDbSymbolTableRecord
100
AcDbLayerTableRecord
2
PIANI_ORIGINE
70
0
62
7
6
CONTINUOUS
0
LAYER
5
209
100
AcDbSymbolTableRecord
100
AcDbLayerTableRecord
2
PUNTI
70
0
62
7
6
CONTINUOUS
0
LAYER
5
20A
100
AcDbSymbolTableRecord
100
AcDbLayerTableRecord
2
RACCORDO
70
0
62
7
6
CONTINUOUS
0
LAYER
5
20B
100
AcDbSymbolTableRecord
100
AcDbLayerTableRecord
2
SMUSSO
70
0
62
7
6
CONTINUOUS
0
LAYER
5
20C
100
AcDbSymbolTableRecord
100
AcDbLayerTableRecord
2
SNAPLINE
70
0
62
7
6
CONTINUOUS
0
LAYER
5
20D
100
AcDbSymbolTableRecord
100
AcDbLayerTableRecord
2
SUPERFICI
70
0
62
7
6
CONTINUOUS
0
LAYER
5
20E
100
AcDbSymbolTableRecord
100
AcDbLayerTableRecord
2
TRASH
70
0
62
7
6
CONTINUOUS
0
LAYER
5
20F
100
AcDbSymbolTableRecord
100
AcDbLayerTableRecord
2
XSEC_DATUMS
70
0
62
7
6
CONTINUOUS
0
LAYER
5
210
100
AcDbSymbolTableRecord
100
AcDbLayerTableRecord
2
Z030080
70
0
62
7
6
CONTINUOUS
0
LAYER
5
211
100
AcDbSymbolTableRecord
100
AcDbLayerTableRecord
2
Z030090
70
0
62
7
6
CONTINUOUS
0
LAYER
5
212
100
AcDbSymbolTableRecord
100
AcDbLayerTableRecord
2
Z030100
70
0
62
7
6
CONTINUOUS
0
LAYER
5
213
100
AcDbSymbolTableRecord
100
AcDbLayerTableRecord
2
Z030110
70
0
62
7
6
CONTINUOUS
0
ENDTAB
0
TABLE
2
STYLE
5
3
100
AcDbSymbolTable
70
1
0
STYLE
5
11
100
AcDbSymbolTableRecord
100
AcDbTextStyleTableRecord
2
STANDARD
70
0
40
0.0
41
0.8000000000
50
0.0
71
0
42
0.2
3
txt
4

0
ENDTAB
0
TABLE
2
VIEW
5
6
100
AcDbSymbolTable
70
0
0
ENDTAB
0
TABLE
2
UCS
5
7
100
AcDbSymbolTable
70
0
0
ENDTAB
0
TABLE
2
APPID
5
9
100
AcDbSymbolTable
70
1
0
APPID
5
214
100
AcDbSymbolTableRecord
100
AcDbRegAppTableRecord
2
ACAD
70
0
0
ENDTAB
0
TABLE
2
DIMSTYLE
5
A
100
AcDbSymbolTable
70
1
0
DIMSTYLE
105
215
100
AcDbSymbolTableRecord
100
AcDbDimStyleTableRecord
2
STANDARD
70
0
3

4

5

6

7

40
1.0
41
3.0000000000
42
0.0625
43
0.38
44
0.18
45
0.0
46
0.0
47
0.0100000000
48
0.0100000000
140
3.0000000000
141
0.09
142
0.0
143
25.4
144
1.0000000000
145
0.0
146
1.0000000000
147
0.09
71
1
72
0
73
0
74
0
75
0
76
0
77
1
78
8
170
0
171
2
172
0
173
0
174
0
175
0
176
0
177
0
178
0
270
2
271
2
272
2
273
2
274
2
340
11
275
0
280
0
281
0
282
0
283
1
284
8
285
0
286
0
287
3
288
0
0
DIMSTYLE
105
216
100
AcDbSymbolTableRecord
100
AcDbDimStyleTableRecord
2
DIMSTYLE_1
70
0
3

4

5

6

7

40
1.0
41
3.0000000000
42
0.0625
43
0.38
44
0.18
45
0.0
46
0.0
47
0.0000000000
48
0.0000000000
140
3.0000000000
141
0.09
142
0.0
143
25.4
144
1.0000000000
145
0.0
146
1.0000000000
147
0.09
71
0
72
0
73
0
74
0
75
0
76
0
77
1
78
8
170
0
171
2
172
0
173
0
174
0
175
0
176
0
177
0
178
0
270
2
271
2
272
2
273
2
274
2
340
11
275
0
280
0
281
0
282
0
283
1
284
8
285
0
286
0
287
3
288
0
0
DIMSTYLE
105
217
100
AcDbSymbolTableRecord
100
AcDbDimStyleTableRecord
2
DIMSTYLE_2
70
0
3

4

5

6

7

40
1.0
41
3.0000000000
42
0.0625
43
0.38
44
0.18
45
0.0
46
0.0
47
0.0000000000
48
0.0000000000
140
3.0000000000
141
0.09
142
0.0
143
25.4
144
1.0000000000
145
0.0
146
1.0000000000
147
0.09
71
0
72
0
73
0
74
0
75
0
76
0
77
1
78
8
170
0
171
2
172
0
173
0
174
0
175
0
176
0
177
0
178
0
270
2
271
1
272
1
273
2
274
2
340
11
275
0
280
0
281
0
282
0
283
1
284
8
285
0
286
0
287
3
288
0
0
ENDTAB
0
TABLE
2
BLOCK_RECORD
5
1
100
AcDbSymbolTable
70
0
0
BLOCK_RECORD
5
1B
100
AcDbSymbolTableRecord
100
AcDbBlockTableRecord
2
*MODEL_SPACE
0
BLOCK_RECORD
5
1C
100
AcDbSymbolTableRecord
100
AcDbBlockTableRecord
2
*PAPER_SPACE
0
BLOCK_RECORD
5
218
100
AcDbSymbolTableRecord
100
AcDbBlockTableRecord
2
*D0
0
BLOCK_RECORD
5
219
100
AcDbSymbolTableRecord
100
AcDbBlockTableRecord
2
*D1
0
BLOCK_RECORD
5
21A
100
AcDbSymbolTableRecord
100
AcDbBlockTableRecord
2
*D2
0
BLOCK_RECORD
5
21B
100
AcDbSymbolTableRecord
100
AcDbBlockTableRecord
2
*D3
0
ENDTAB
0
ENDSEC
0
SECTION
2
BLOCKS
0
BLOCK
5
1E
100
AcDbEntity
8
0
100
AcDbBlockBegin
2
*MODEL_SPACE
70
0
10
0.0
20
0.0
30
0.0
3
*MODEL_SPACE
1

0
ENDBLK
5
1F
100
AcDbEntity
8
0
100
AcDbBlockEnd
0
BLOCK
5
20
100
AcDbEntity
8
0
100
AcDbBlockBegin
2
*PAPER_SPACE
70
0
10
0.0
20
0.0
30
0.0
3
*PAPER_SPACE
1

0
ENDBLK
5
21
100
AcDbEntity
8
0
100
AcDbBlockEnd
0
BLOCK
5
21C
100
AcDbEntity
8
0
100
AcDbBlockBegin
62
7
6
CONTINUOUS
2
*D0
70
65
10
0.0000000000
20
0.0000000000
3
*D0
1

0
TEXT
5
21D
100
AcDbEntity
8
0
100
AcDbText
62
7
6
CONTINUOUS
10
-54.0188290471
20
43.7344665539
7
STANDARD
40
3.0000000000
1
47,1
41
0.6785714286
72
0
100
AcDbText
0
LINE
5
21E
100
AcDbEntity
8
0
100
AcDbLine
62
7
6
CONTINUOUS
10
-73.4974004757
20
-11.6500000000
11
-73.4974004757
21
44.4844665539
0
LINE
5
21F
100
AcDbEntity
8
0
100
AcDbLine
62
7
6
CONTINUOUS
10
-26.3974004757
20
2.0000000000
11
-26.3974004757
21
44.4844665539
0
LINE
5
220
100
AcDbEntity
8
0
100
AcDbLine
62
7
6
CONTINUOUS
10
-73.4974004757
20
42.9844665539
11
-49.9474004757
21
42.9844665539
0
LINE
5
221
100
AcDbEntity
8
0
100
AcDbLine
62
7
6
CONTINUOUS
10
-26.3974004757
20
42.9844665539
11
-49.9474004757
21
42.9844665539
0
SOLID
5
222
100
AcDbEntity
8
0
100
AcDbTrace
62
7
6
CONTINUOUS
10
-70.4974004757
20
43.9344665539
11
-73.4974004757
21
42.9844665539
12
-70.4974004757
22
42.0344665539
13
-70.4974004757
23
42.0344665539
0
SOLID
5
223
100
AcDbEntity
8
0
100
AcDbTrace
62
7
6
CONTINUOUS
10
-29.3974004757
20
42.0344665539
11
-26.3974004757
21
42.9844665539
12
-29.3974004757
22
43.9344665539
13
-29.3974004757
23
43.9344665539
0
ENDBLK
5
224
100
AcDbEntity
8
0
100
AcDbBlockEnd
0
BLOCK
5
225
100
AcDbEntity
8
0
100
AcDbBlockBegin
62
7
6
CONTINUOUS
2
*D1
70
65
10
0.0000000000
20
0.0000000000
3
*D1
1

0
TEXT
5
226
100
AcDbEntity
8
0
100
AcDbText
62
7
6
CONTINUOUS
10
-48.4116861900
20
35.7344665539
7
STANDARD
40
3.0000000000
1
36,1
41
0.6607142857
72
0
100
AcDbText
0
LINE
5
227
100
AcDbEntity
8
0
100
AcDbLine
62
7
6
CONTINUOUS
10
-62.4974004757
20
24.4844665539
11
-62.4974004757
21
36.4844665539
0
LINE
5
228
100
AcDbEntity
8
0
100
AcDbLine
62
7
6
CONTINUOUS
10
-26.3974004757
20
2.0000000000
11
-26.3974004757
21
36.4844665539
0
LINE
5
229
100
AcDbEntity
8
0
100
AcDbLine
62
7
6
CONTINUOUS
10
-62.4974004757
20
34.9844665539
11
-44.4474004757
21
34.9844665539
0
LINE
5
22A
100
AcDbEntity
8
0
100
AcDbLine
62
7
6
CONTINUOUS
10
-26.3974004757
20
34.9844665539
11
-44.4474004757
21
34.9844665539
0
SOLID
5
22B
100
AcDbEntity
8
0
100
AcDbTrace
62
7
6
CONTINUOUS
10
-59.4974004757
20
35.9344665539
11
-62.4974004757
21
34.9844665539
12
-59.4974004757
22
34.0344665539
13
-59.4974004757
23
34.0344665539
0
SOLID
5
22C
100
AcDbEntity
8
0
100
AcDbTrace
62
7
6
CONTINUOUS
10
-29.3974004757
20
34.0344665539
11
-26.3974004757
21
34.9844665539
12
-29.3974004757
22
35.9344665539
13
-29.3974004757
23
35.9344665539
0
ENDBLK
5
22D
100
AcDbEntity
8
0
100
AcDbBlockEnd
0
BLOCK
5
22E
100
AcDbEntity
8
0
100
AcDbBlockBegin
62
7
6
CONTINUOUS
2
*D2
70
65
10
0.0000000000
20
0.0000000000
3
*D2
1

0
TEXT
5
22F
100
AcDbEntity
8
0
100
AcDbText
62
7
6
CONTINUOUS
10
22.9500000000
20
-2.2500000000
7
STANDARD
40
3.0000000000
1
50
50
90.0000000000
41
0.7500000000
72
0
100
AcDbText
0
LINE
5
230
100
AcDbEntity
8
0
100
AcDbLine
62
7
6
CONTINUOUS
10
5.2000000000
20
24.9844665539
11
25.2000000000
21
24.9844665539
0
LINE
5
231
100
AcDbEntity
8
0
100
AcDbLine
62
7
6
CONTINUOUS
10
5.2000000000
20
-24.9844665539
11
25.2000000000
21
-24.9844665539
0
LINE
5
232
100
AcDbEntity
8
0
100
AcDbLine
62
7
6
CONTINUOUS
10
23.7000000000
20
24.9844665539
11
23.7000000000
21
0.0000000000
0
LINE
5
233
100
AcDbEntity
8
0
100
AcDbLine
62
7
6
CONTINUOUS
10
23.7000000000
20
-24.9844665539
11
23.7000000000
21
0.0000000000
0
SOLID
5
234
100
AcDbEntity
8
0
100
AcDbTrace
62
7
6
CONTINUOUS
10
24.6500000000
20
21.9844665539
11
23.7000000000
21
24.9844665539
12
22.7500000000
22
21.9844665539
13
22.7500000000
23
21.9844665539
0
SOLID
5
235
100
AcDbEntity
8
0
100
AcDbTrace
62
7
6
CONTINUOUS
10
22.7500000000
20
-21.9844665539
11
23.7000000000
21
-24.9844665539
12
24.6500000000
22
-21.9844665539
13
24.6500000000
23
-21.9844665539
0
ENDBLK
5
236
100
AcDbEntity
8
0
100
AcDbBlockEnd
0
BLOCK
5
237
100
AcDbEntity
8
0
100
AcDbBlockBegin
62
7
6
CONTINUOUS
2
*D3
70
65
10
0.0000000000
20
0.0000000000
3
*D3
1

0
TEXT
5
238
100
AcDbEntity
8
0
100
AcDbText
62
7
6
CONTINUOUS
10
-5.6928571429
20
35.7344665539
7
STANDARD
40
3.0000000000
1
24,8
41
0.7321428571
72
0
100
AcDbText
0
LINE
5
239
100
AcDbEntity
8
0
100
AcDbLine
62
7
6
CONTINUOUS
10
-13.7000000000
20
18.0000000000
11
-13.7000000000
21
36.4844665539
0
LINE
5
23A
100
AcDbEntity
8
0
100
AcDbLine
62
7
6
CONTINUOUS
10
11.1000000000
20
18.0000000000
11
11.1000000000
21
36.4844665539
0
LINE
5
23B
100
AcDbEntity
8
0
100
AcDbLine
62
7
6
CONTINUOUS
10
-13.7000000000
20
34.9844665539
11
-1.3000000000
21
34.9844665539
0
LINE
5
23C
100
AcDbEntity
8
0
100
AcDbLine
62
7
6
CONTINUOUS
10
11.1000000000
20
34.9844665539
11
-1.3000000000
21
34.9844665539
0
SOLID
5
23D
100
AcDbEntity
8
0
100
AcDbTrace
62
7
6
CONTINUOUS
10
-10.7000000000
20
35.9344665539
11
-13.7000000000
21
34.9844665539
12
-10.7000000000
22
34.0344665539
13
-10.7000000000
23
34.0344665539
0
SOLID
5
23E
100
AcDbEntity
8
0
100
AcDbTrace
62
7
6
CONTINUOUS
10
8.1000000000
20
34.0344665539
11
11.1000000000
21
34.9844665539
12
8.1000000000
22
35.9344665539
13
8.1000000000
23
35.9344665539
0
ENDBLK
5
23F
100
AcDbEntity
8
0
100
AcDbBlockEnd
0
ENDSEC
0
SECTION
2
ENTITIES
0
DIMENSION
5
240
100
AcDbEntity
8
0
100
AcDbDimension
62
7
6
CONTINUOUS
2
*D0
10
-26.3974004757
20
42.9844665539
11
-49.9474004757
21
45.2344665539
70
160
3
DIMSTYLE_1
100
AcDbAlignedDimension
13
-73.4974004757
23
-11.6500000000
14
-26.3974004757
24
2.0000000000
100
AcDbRotatedDimension
0
DIMENSION
5
241
100
AcDbEntity
8
0
100
AcDbDimension
62
7
6
CONTINUOUS
2
*D1
10
-26.3974004757
20
34.9844665539
11
-44.4474004757
21
37.2344665539
70
160
3
DIMSTYLE_1
100
AcDbAlignedDimension
13
-62.4974004757
23
24.4844665539
14
-26.3974004757
24
2.0000000000
100
AcDbRotatedDimension
0
DIMENSION
5
242
100
AcDbEntity
8
0
100
AcDbDimension
62
7
6
CONTINUOUS
2
*D2
10
23.7000000000
20
-24.9844665539
11
21.4500000000
21
0.0000000000
70
160
3
DIMSTYLE_2
100
AcDbAlignedDimension
13
5.2000000000
23
24.9844665539
14
5.2000000000
24
-24.9844665539
50
270.000000
100
AcDbRotatedDimension
0
DIMENSION
5
243
100
AcDbEntity
8
0
100
AcDbDimension
62
7
6
CONTINUOUS
2
*D3
10
11.1000000000
20
34.9844665539
11
-1.3000000000
21
37.2344665539
70
160
3
DIMSTYLE_1
100
AcDbAlignedDimension
13
-13.7000000000
23
18.0000000000
14
11.1000000000
24
18.0000000000
100
AcDbRotatedDimension
0
LINE
5
244
100
AcDbEntity
8
0
100
AcDbLine
62
9
6
CONTINUOUS
10
-12.0568274021
20
23.9572757307
11
-11.9500076174
21
24.0000000000
0
LINE
5
245
100
AcDbEntity
8
0
100
AcDbLine
62
9
6
CONTINUOUS
10
-11.8068654783
20
23.7072818230
11
-11.7000761582
21
23.7499939075
0
LINE
5
246
100
AcDbEntity
8
0
100
AcDbLine
62
9
6
CONTINUOUS
10
-12.0568274021
20
-23.9572757307
11
-11.9500076174
21
-24.0000000000
0
LINE
5
247
100
AcDbEntity
8
0
100
AcDbLine
62
9
6
CONTINUOUS
10
-11.8068654783
20
-23.7072818230
11
-11.7000761582
21
-23.7499939075
0
LINE
5
248
100
AcDbEntity
8
0
100
AcDbLine
62
7
6
CONTINUOUS
10
-11.5935241039
20
22.5000000000
11
-11.8068654783
21
22.3720034943
0
LINE
5
249
100
AcDbEntity
8
0
100
AcDbLine
62
7
6
CONTINUOUS
10
-7.3000000000
20
-24.9844665539
11
4.7000000000
21
-24.9844665539
0
LINE
5
24A
100
AcDbEntity
8
0
100
AcDbLine
62
7
6
CONTINUOUS
10
-11.5935241039
20
-22.5000000000
11
-11.8068654783
21
-22.3720034943
0
LINE
5
24B
100
AcDbEntity
8
0
100
AcDbLine
62
9
6
CONTINUOUS
10
-7.3000000000
20
-24.2844665539
11
4.7000000000
21
-24.2844665539
0
LINE
5
24C
100
AcDbEntity
8
0
100
AcDbLine
62
7
6
CONTINUOUS
10
9.3500076174
20
-24.0000000000
11
10.8499923826
21
-24.0000000000
0
LINE
5
24D
100
AcDbEntity
8
0
100
AcDbLine
62
7
6
CONTINUOUS
10
-11.9500076174
20
-24.0000000000
11
-13.4499923826
21
-24.0000000000
0
LINE
5
24E
100
AcDbEntity
8
0
100
AcDbLine
62
7
6
CONTINUOUS
10
-7.3000000000
20
-23.9844665539
11
-5.2332662348
21
-23.9844665539
0
LINE
5
24F
100
AcDbEntity
8
0
100
AcDbLine
62
7
6
CONTINUOUS
10
2.6332662348
20
-23.9844665539
11
4.7000000000
21
-23.9844665539
0
LINE
5
250
100
AcDbEntity
8
0
100
AcDbLine
62
7
6
CONTINUOUS
10
3.0000000000
20
-23.8428760137
11
2.4420816149
21
-23.8428760137
0
LINE
5
251
100
AcDbEntity
8
0
100
AcDbLine
62
7
6
CONTINUOUS
10
-5.0420816149
20
-23.8428760137
11
-5.6000000000
21
-23.8428760137
0
LINE
5
252
100
AcDbEntity
8
0
100
AcDbLine
62
7
6
CONTINUOUS
10
3.0000000000
20
-23.4624534072
11
2.4043297675
21
-23.4624534072
0
LINE
5
253
100
AcDbEntity
8
0
100
AcDbLine
62
7
6
CONTINUOUS
10
-5.0043297675
20
-23.4624534072
11
-5.6000000000
21
-23.4624534072
0
LINE
5
254
100
AcDbEntity
8
0
100
AcDbLine
62
7
6
CONTINUOUS
10
-7.5000000000
20
-23.2500000000
11
-7.3000000000
21
-23.2500000000
0
LINE
5
255
100
AcDbEntity
8
0
100
AcDbLine
62
7
6
CONTINUOUS
10
4.7000000000
20
-23.2500000000
11
4.9000000000
21
-23.2500000000
0
LINE
5
256
100
AcDbEntity
8
0
100
AcDbLine
62
7
6
CONTINUOUS
10
-11.5935241039
20
-22.5000000000
11
-7.3000000000
21
-22.5000000000
0
LINE
5
257
100
AcDbEntity
8
0
100
AcDbLine
62
7
6
CONTINUOUS
10
4.7000000000
20
-22.5000000000
11
8.9935241039
21
-22.5000000000
0
LINE
5
258
100
AcDbEntity
8
0
100
AcDbLine
62
7
6
CONTINUOUS
10
2.6022590807
20
-22.4130794259
11
-5.2022590807
21
-22.4130794259
0
LINE
5
259
100
AcDbEntity
8
0
100
AcDbLine
62
9
6
CONTINUOUS
10
10.6751827866
20
-22.3312305346
11
-13.2751827866
21
-22.3312305346
0
LINE
5
25A
100
AcDbEntity
8
0
100
AcDbLine
62
9
6
CONTINUOUS
10
10.9035543613
20
-20.8313127805
11
-13.5035543613
21
-20.8313127805
0
LINE
5
25B
100
AcDbEntity
8
0
100
AcDbLine
62
7
6
CONTINUOUS
10
9.2572254499
20
23.9821270940
11
9.1001016506
21
23.9192829351
0
LINE
5
25C
100
AcDbEntity
8
0
100
AcDbLine
62
9
6
CONTINUOUS
10
6.7000000000
20
-20.3104798570
11
-9.3000000000
21
-20.3104798570
0
LINE
5
25D
100
AcDbEntity
8
0
100
AcDbLine
62
7
6
CONTINUOUS
10
6.7000000000
20
-20.1104874724
11
-9.3000000000
21
-20.1104874724
0
LINE
5
25E
100
AcDbEntity
8
0
100
AcDbLine
62
7
6
CONTINUOUS
10
-3.5421458190
20
-20.1069814942
11
0.9421458190
21
-20.1069814942
0
LINE
5
25F
100
AcDbEntity
8
0
100
AcDbLine
62
7
6
CONTINUOUS
10
6.7000000000
20
-20.1000000000
11
0.9491273132
21
-20.1000000000
0
LINE
5
260
100
AcDbEntity
8
0
100
AcDbLine
62
7
6
CONTINUOUS
10
-3.5491273132
20
-20.1000000000
11
-9.3000000000
21
-20.1000000000
0
LINE
5
261
100
AcDbEntity
8
0
100
AcDbLine
62
7
6
CONTINUOUS
10
-9.2500000000
20
-20.0500000000
11
6.6500000000
21
-20.0500000000
0
LINE
5
262
100
AcDbEntity
8
0
100
AcDbLine
62
9
6
CONTINUOUS
10
11.0912724675
20
-20.0000000000
11
11.0685808831
21
-20.0000000000
0
LINE
5
263
100
AcDbEntity
8
0
100
AcDbLine
62
9
6
CONTINUOUS
10
-9.2500000000
20
-19.3500000000
11
6.6500000000
21
-19.3500000000
0
LINE
5
264
100
AcDbEntity
8
0
100
AcDbLine
62
9
6
CONTINUOUS
10
11.0685808831
20
-19.2571428239
11
11.0912724675
21
-19.2571428239
0
LINE
5
265
100
AcDbEntity
8
0
100
AcDbLine
62
9
6
CONTINUOUS
10
-10.5104798570
20
-19.1000000000
11
-10.3000000000
21
-19.1000000000
0
LINE
5
266
100
AcDbEntity
8
0
100
AcDbLine
62
9
6
CONTINUOUS
10
7.9104798570
20
-19.1000000000
11
7.7000000000
21
-19.1000000000
0
LINE
5
267
100
AcDbEntity
8
0
100
AcDbLine
62
9
6
CONTINUOUS
10
6.9500000000
20
-19.0500000000
11
7.6500000000
21
-19.0500000000
0
LINE
5
268
100
AcDbEntity
8
0
100
AcDbLine
62
9
6
CONTINUOUS
10
-9.5500000000
20
-19.0500000000
11
-10.2500000000
21
-19.0499999994
0
LINE
5
269
100
AcDbEntity
8
0
100
AcDbLine
62
7
6
CONTINUOUS
10
9.2572254499
20
-23.9821270940
11
9.1001016506
21
-23.9192829351
0
LINE
5
26A
100
AcDbEntity
8
0
100
AcDbLine
62
9
6
CONTINUOUS
10
9.1000761582
20
23.7499939075
11
8.9429044156
21
23.6871305730
0
LINE
5
26B
100
AcDbEntity
8
0
100
AcDbLine
62
9
6
CONTINUOUS
10
10.7431725979
20
23.9572757307
11
10.8499923826
21
24.0000000000
0
LINE
5
26C
100
AcDbEntity
8
0
100
AcDbLine
62
9
6
CONTINUOUS
10
10.9931345217
20
23.7072818230
11
11.1000000000
21
23.7500243682
0
LINE
5
26D
100
AcDbEntity
8
0
100
AcDbLine
62
7
6
CONTINUOUS
10
7.6208203932
20
-17.8500000000
11
7.6500000000
21
-17.8500000000
0
LINE
5
26E
100
AcDbEntity
8
0
100
AcDbLine
62
7
6
CONTINUOUS
10
-10.2208203932
20
-17.8500000000
11
-10.2500000000
21
-17.8500000000
0
LINE
5
26F
100
AcDbEntity
8
0
100
AcDbLine
62
9
6
CONTINUOUS
10
11.0912724675
20
-17.7714285493
11
11.0685808831
21
-17.7714285493
0
LINE
5
270
100
AcDbEntity
8
0
100
AcDbLine
62
9
6
CONTINUOUS
10
11.0718225379
20
-17.1214287043
11
11.0880308125
21
-17.1214287043
0
LINE
5
271
100
AcDbEntity
8
0
100
AcDbLine
62
9
6
CONTINUOUS
10
11.0476348052
20
-17.1710140000
11
10.9970127081
21
-17.1710060000
0
LINE
5
272
100
AcDbEntity
8
0
100
AcDbLine
62
9
6
CONTINUOUS
10
9.1000761582
20
-23.7499939075
11
8.9429044156
21
-23.6871305730
0
LINE
5
273
100
AcDbEntity
8
0
100
AcDbLine
62
9
6
CONTINUOUS
10
10.7431725979
20
-23.9572757307
11
10.8499923826
21
-24.0000000000
0
LINE
5
274
100
AcDbEntity
8
0
100
AcDbLine
62
9
6
CONTINUOUS
10
10.9931345217
20
-23.7072818230
11
11.1000000000
21
-23.7500243682
0
LINE
5
275
100
AcDbEntity
8
0
100
AcDbLine
62
9
6
CONTINUOUS
10
11.0912724675
20
-16.5952380657
11
11.0685808831
21
-16.5952380657
0
LINE
5
276
100
AcDbEntity
8
0
100
AcDbLine
62
9
6
CONTINUOUS
10
11.0476346830
20
-16.0109850000
11
10.9970127081
21
-16.0109850000
0
LINE
5
277
100
AcDbEntity
8
0
100
AcDbLine
62
9
6
CONTINUOUS
10
11.0142528837
20
-15.4309630000
11
11.0476346830
21
-15.4309630000
0
LINE
5
278
100
AcDbEntity
8
0
100
AcDbLine
62
9
6
CONTINUOUS
10
10.9970127081
20
-16.5909850000
11
11.0476346830
21
-16.5909920000
0
LINE
5
279
100
AcDbEntity
8
0
100
AcDbLine
62
7
6
CONTINUOUS
10
-3.5491273132
20
-20.1000000000
11
-3.5421458190
21
-20.1069814942
0
LINE
5
27A
100
AcDbEntity
8
0
100
AcDbLine
62
7
6
CONTINUOUS
10
-13.7000000000
20
-23.7500243682
11
-13.7000000000
21
23.7500243682
0
LINE
5
27B
100
AcDbEntity
8
0
100
AcDbLine
62
9
6
CONTINUOUS
10
-13.5931345217
20
-23.7072818230
11
-13.5931345217
21
-22.1220354779
0
LINE
5
27C
100
AcDbEntity
8
0
100
AcDbLine
62
9
6
CONTINUOUS
10
-13.5931345217
20
22.1220354779
11
-13.5931345217
21
23.7072818230
0
LINE
5
27D
100
AcDbEntity
8
0
100
AcDbLine
62
9
6
CONTINUOUS
10
-13.5035543613
20
20.8313127805
11
-13.5035543613
21
-20.8313127805
0
LINE
5
27E
100
AcDbEntity
8
0
100
AcDbLine
62
9
6
CONTINUOUS
10
-13.2535924375
20
20.8313127805
11
-13.2535924375
21
-20.8313127805
0
LINE
5
27F
100
AcDbEntity
8
0
100
AcDbLine
62
9
6
CONTINUOUS
10
10.6751827866
20
22.3312305346
11
10.7324023425
21
22.3655600369
0
LINE
5
280
100
AcDbEntity
8
0
100
AcDbLine
62
9
6
CONTINUOUS
10
10.9251447104
20
22.0812442423
11
10.9931345217
21
22.1220354779
0
LINE
5
281
100
AcDbEntity
8
0
100
AcDbLine
62
9
6
CONTINUOUS
10
11.0476346830
20
-13.7541970000
11
11.0142528837
21
-13.7542050000
0
LINE
5
282
100
AcDbEntity
8
0
100
AcDbLine
62
9
6
CONTINUOUS
10
11.0685808831
20
-14.3976193428
11
11.0912724675
21
-14.3976193428
0
LINE
5
283
100
AcDbEntity
8
0
100
AcDbLine
62
9
6
CONTINUOUS
10
11.0912724675
20
-13.8095238686
11
11.0685808831
21
-13.8095238686
0
LINE
5
284
100
AcDbEntity
8
0
100
AcDbLine
62
7
6
CONTINUOUS
10
7.6208203932
20
-13.3500000000
11
7.6500000000
21
-13.3500000000
0
LINE
5
285
100
AcDbEntity
8
0
100
AcDbLine
62
7
6
CONTINUOUS
10
-10.2208203932
20
-13.3500000000
11
-10.2500000000
21
-13.3500000000
0
LINE
5
286
100
AcDbEntity
8
0
100
AcDbLine
62
9
6
CONTINUOUS
10
10.9970127081
20
-13.1741760000
11
11.0476346830
21
-13.1741760000
0
LINE
5
287
100
AcDbEntity
8
0
100
AcDbLine
62
9
6
CONTINUOUS
10
11.0912724675
20
-13.1595238686
11
11.0685808831
21
-13.1595238686
0
LINE
5
288
100
AcDbEntity
8
0
100
AcDbLine
62
9
6
CONTINUOUS
10
10.7324023425
20
-22.3655600369
11
10.6751827866
21
-22.3312305346
0
LINE
5
289
100
AcDbEntity
8
0
100
AcDbLine
62
9
6
CONTINUOUS
10
10.9931345217
20
-22.1220354779
11
10.9251447104
21
-22.0812442423
0
LINE
5
28A
100
AcDbEntity
8
0
100
AcDbLine
62
9
6
CONTINUOUS
10
-11.8068654783
20
-22.3720034943
11
-11.8068654783
21
-23.7072818230
0
LINE
5
28B
100
AcDbEntity
8
0
100
AcDbLine
62
9
6
CONTINUOUS
10
-11.8068654783
20
22.3720034943
11
-11.8068654783
21
23.7072818230
0
LINE
5
28C
100
AcDbEntity
8
0
100
AcDbLine
62
7
6
CONTINUOUS
10
-11.5429044156
20
-23.6871305730
11
-11.5429044156
21
-22.5000000000
0
LINE
5
28D
100
AcDbEntity
8
0
100
AcDbLine
62
7
6
CONTINUOUS
10
-11.5429044156
20
22.5000000000
11
-11.5429044156
21
23.6871305730
0
LINE
5
28E
100
AcDbEntity
8
0
100
AcDbLine
62
7
6
CONTINUOUS
10
2.6746920834
20
22.5000000000
11
2.6022590807
21
22.4130794259
0
LINE
5
28F
100
AcDbEntity
8
0
100
AcDbLine
62
9
6
CONTINUOUS
10
6.9500000000
20
-12.1500000000
11
7.6500000000
21
-12.1500000006
0
LINE
5
290
100
AcDbEntity
8
0
100
AcDbLine
62
9
6
CONTINUOUS
10
-9.5500000000
20
-12.1500000000
11
-10.2500000000
21
-12.1500000000
0
LINE
5
291
100
AcDbEntity
8
0
100
AcDbLine
62
9
6
CONTINUOUS
10
-10.5104798570
20
-12.1000000000
11
-10.3000000000
21
-12.1000000000
0
LINE
5
292
100
AcDbEntity
8
0
100
AcDbLine
62
9
6
CONTINUOUS
10
7.9104798570
20
-12.1000000000
11
7.7000000000
21
-12.1000000000
0
LINE
5
293
100
AcDbEntity
8
0
100
AcDbLine
62
9
6
CONTINUOUS
10
6.6500000000
20
-11.8500000000
11
-9.2500000000
21
-11.8500000000
0
LINE
5
294
100
AcDbEntity
8
0
100
AcDbLine
62
9
6
CONTINUOUS
10
11.0685808831
20
-11.5190477371
11
11.0912724675
21
-11.5190477371
0
LINE
5
295
100
AcDbEntity
8
0
100
AcDbLine
62
7
6
CONTINUOUS
10
6.6500000000
20
-11.1500000000
11
-9.2500000000
21
-11.1500000000
0
LINE
5
296
100
AcDbEntity
8
0
100
AcDbLine
62
7
6
CONTINUOUS
10
2.6746920834
20
-22.5000000000
11
2.6022590807
21
-22.4130794259
0
LINE
5
297
100
AcDbEntity
8
0
100
AcDbLine
62
9
6
CONTINUOUS
10
-10.5104798570
20
-19.1000000000
11
-10.5104798570
21
-12.1000000000
0
LINE
5
298
100
AcDbEntity
8
0
100
AcDbLine
62
7
6
CONTINUOUS
10
-10.3104874724
20
-19.1000000000
11
-10.3104874724
21
-12.1000000000
0
LINE
5
299
100
AcDbEntity
8
0
100
AcDbLine
62
7
6
CONTINUOUS
10
-10.3000000000
20
-19.1000000000
11
-10.3000000000
21
-12.1000000000
0
LINE
5
29A
100
AcDbEntity
8
0
100
AcDbLine
62
7
6
CONTINUOUS
10
-10.2500000000
20
-12.1500000000
11
-10.2500000000
21
-13.3500000000
0
LINE
5
29B
100
AcDbEntity
8
0
100
AcDbLine
62
7
6
CONTINUOUS
10
-10.2500000000
20
-17.8500000000
11
-10.2500000000
21
-19.0500000000
0
LINE
5
29C
100
AcDbEntity
8
0
100
AcDbLine
62
7
6
CONTINUOUS
10
-10.2208203932
20
-13.3500000000
11
-10.2208203932
21
-17.8500000000
0
LINE
5
29D
100
AcDbEntity
8
0
100
AcDbLine
62
9
6
CONTINUOUS
10
-9.5500000000
20
-12.1500000000
11
-9.5500000000
21
-19.0500000000
0
LINE
5
29E
100
AcDbEntity
8
0
100
AcDbLine
62
9
6
CONTINUOUS
10
-9.3000000000
20
-10.8895201430
11
-9.3000000000
21
-11.1000000000
0
LINE
5
29F
100
AcDbEntity
8
0
100
AcDbLine
62
9
6
CONTINUOUS
10
-9.3000000000
20
-20.3104798570
11
-9.3000000000
21
-20.1000000000
0
LINE
5
2A0
100
AcDbEntity
8
0
100
AcDbLine
62
9
6
CONTINUOUS
10
-9.2500000000
20
-19.3500000000
11
-9.2500000000
21
-20.0500000000
0
LINE
5
2A1
100
AcDbEntity
8
0
100
AcDbLine
62
9
6
CONTINUOUS
10
-9.2500000000
20
-11.8500000000
11
-9.2499999994
21
-11.1500000000
0
LINE
5
2A2
100
AcDbEntity
8
0
100
AcDbLine
62
9
6
CONTINUOUS
10
11.0063776123
20
-9.3864780000
11
11.0186961578
21
-9.3864710000
0
LINE
5
2A3
100
AcDbEntity
8
0
100
AcDbLine
62
7
6
CONTINUOUS
10
-9.3000000000
20
-11.1000000000
11
-3.5491273132
21
-11.1000000000
0
LINE
5
2A4
100
AcDbEntity
8
0
100
AcDbLine
62
7
6
CONTINUOUS
10
0.9491273132
20
-11.1000000000
11
6.7000000000
21
-11.1000000000
0
LINE
5
2A5
100
AcDbEntity
8
0
100
AcDbLine
62
7
6
CONTINUOUS
10
-3.5421458190
20
-11.0930185058
11
0.9421458190
21
-11.0930185058
0
LINE
5
2A6
100
AcDbEntity
8
0
100
AcDbLine
62
7
6
CONTINUOUS
10
-9.3000000000
20
-11.0895125276
11
6.7000000000
21
-11.0895125276
0
LINE
5
2A7
100
AcDbEntity
8
0
100
AcDbLine
62
9
6
CONTINUOUS
10
-9.3000000000
20
-10.8895201430
11
6.7000000000
21
-10.8895201430
0
LINE
5
2A8
100
AcDbEntity
8
0
100
AcDbLine
62
9
6
CONTINUOUS
10
11.0685808831
20
-10.5595238686
11
11.0912724675
21
-10.5595238686
0
LINE
5
2A9
100
AcDbEntity
8
0
100
AcDbLine
62
9
6
CONTINUOUS
10
11.0476345434
20
-9.9585030000
11
10.9970125859
21
-9.9585030000
0
LINE
5
2AA
100
AcDbEntity
8
0
100
AcDbLine
62
9
6
CONTINUOUS
10
11.0280611841
20
-9.3784090000
11
11.0476345434
21
-9.3784740000
0
LINE
5
2AB
100
AcDbEntity
8
0
100
AcDbLine
62
9
6
CONTINUOUS
10
-8.2587459070
20
-3.7087459070
11
-8.2587459070
21
5.2087459070
0
LINE
5
2AC
100
AcDbEntity
8
0
100
AcDbLine
62
7
6
CONTINUOUS
10
-7.7587649455
20
-3.2087649455
11
-7.7587649455
21
4.7087649455
0
LINE
5
2AD
100
AcDbEntity
8
0
100
AcDbLine
62
7
6
CONTINUOUS
10
-7.7500000000
20
4.7000000000
11
-7.7500000000
21
-3.2000000000
0
LINE
5
2AE
100
AcDbEntity
8
0
100
AcDbLine
62
7
6
CONTINUOUS
10
-7.5000000000
20
-22.5000000000
11
-7.5000000000
21
-23.2500000000
0
LINE
5
2AF
100
AcDbEntity
8
0
100
AcDbLine
62
7
6
CONTINUOUS
10
-7.5000000000
20
22.5000000000
11
-7.5000000000
21
23.2500000000
0
LINE
5
2B0
100
AcDbEntity
8
0
100
AcDbLine
62
9
6
CONTINUOUS
10
11.0912724675
20
-8.7023806572
11
11.0685808831
21
-8.7023806572
0
LINE
5
2B1
100
AcDbEntity
8
0
100
AcDbLine
62
9
6
CONTINUOUS
10
11.0783058473
20
-7.4952386856
11
11.0912724675
21
-7.4952386856
0
LINE
5
2B2
100
AcDbEntity
8
0
100
AcDbLine
62
7
6
CONTINUOUS
10
-7.3000000000
20
23.9844665539
11
-7.3000000000
21
22.4352154024
0
LINE
5
2B3
100
AcDbEntity
8
0
100
AcDbLine
62
7
6
CONTINUOUS
10
-7.3000000000
20
4.2000000000
11
-7.3000000000
21
-2.8000000000
0
LINE
5
2B4
100
AcDbEntity
8
0
100
AcDbLine
62
7
6
CONTINUOUS
10
-7.3000000000
20
-23.9844665539
11
-7.3000000000
21
-22.4352154024
0
LINE
5
2B5
100
AcDbEntity
8
0
100
AcDbLine
62
7
6
CONTINUOUS
10
-7.3000000000
20
-23.9844665539
11
-7.3000000000
21
-24.9844665539
0
LINE
5
2B6
100
AcDbEntity
8
0
100
AcDbLine
62
7
6
CONTINUOUS
10
-7.3000000000
20
23.9844665539
11
-7.3000000000
21
24.9844665539
0
LINE
5
2B7
100
AcDbEntity
8
0
100
AcDbLine
62
7
6
CONTINUOUS
10
-5.8000000000
20
23.9844665539
11
-5.8000000000
21
23.5242568061
0
LINE
5
2B8
100
AcDbEntity
8
0
100
AcDbLine
62
7
6
CONTINUOUS
10
-5.8000000000
20
-23.5242568061
11
-5.8000000000
21
-23.9844665539
0
LINE
5
2B9
100
AcDbEntity
8
0
100
AcDbLine
62
9
6
CONTINUOUS
10
-5.6000000000
20
23.8428760137
11
-5.6000000000
21
23.4624534072
0
LINE
5
2BA
100
AcDbEntity
8
0
100
AcDbLine
62
9
6
CONTINUOUS
10
-5.6000000000
20
-23.8428760137
11
-5.6000000000
21
-23.4624534072
0
LINE
5
2BB
100
AcDbEntity
8
0
100
AcDbLine
62
9
6
CONTINUOUS
10
-5.4587459070
20
-5.3087459070
11
-5.4587459070
21
-3.7087459070
0
LINE
5
2BC
100
AcDbEntity
8
0
100
AcDbLine
62
9
6
CONTINUOUS
10
1.7087459070
20
-6.6587459070
11
-4.3087459070
21
-6.6587459070
0
LINE
5
2BD
100
AcDbEntity
8
0
100
AcDbLine
62
7
6
CONTINUOUS
10
1.2087649455
20
-6.1587649455
11
-3.8087649455
21
-6.1587649455
0
LINE
5
2BE
100
AcDbEntity
8
0
100
AcDbLine
62
7
6
CONTINUOUS
10
-3.8000000000
20
-6.1500000000
11
1.2000000000
21
-6.1500000000
0
LINE
5
2BF
100
AcDbEntity
8
0
100
AcDbLine
62
7
6
CONTINUOUS
10
-3.3500000000
20
-5.6000000000
11
0.7500000000
21
-5.6000000000
0
LINE
5
2C0
100
AcDbEntity
8
0
100
AcDbLine
62
7
6
CONTINUOUS
10
0.9491273132
20
-11.1000000000
11
0.9421458190
21
-11.0930185058
0
LINE
5
2C1
100
AcDbEntity
8
0
100
AcDbLine
62
7
6
CONTINUOUS
10
-5.0000000000
20
4.2000000000
11
-5.0000000000
21
1.2000000000
0
LINE
5
2C2
100
AcDbEntity
8
0
100
AcDbLine
62
7
6
CONTINUOUS
10
-4.9587649455
20
-4.8087649455
11
-4.9587649455
21
-3.2087649455
0
LINE
5
2C3
100
AcDbEntity
8
0
100
AcDbLine
62
7
6
CONTINUOUS
10
-4.9500000000
20
-3.2087649455
11
-4.9500000000
21
-4.8000000000
0
LINE
5
2C4
100
AcDbEntity
8
0
100
AcDbLine
62
7
6
CONTINUOUS
10
-4.6000000000
20
4.2000000000
11
-4.6000000000
21
1.2000000000
0
LINE
5
2C5
100
AcDbEntity
8
0
100
AcDbLine
62
7
6
CONTINUOUS
10
-4.6000000000
20
-4.4000000000
11
-4.6000000000
21
-1.9000000000
0
LINE
5
2C6
100
AcDbEntity
8
0
100
AcDbLine
62
7
6
CONTINUOUS
10
-4.3500000000
20
-2.6500000000
11
-4.3500000000
21
-1.9000000000
0
LINE
5
2C7
100
AcDbEntity
8
0
100
AcDbLine
62
9
6
CONTINUOUS
10
-4.3087459070
20
-6.6587459070
11
-4.3087459070
21
-5.3087459070
0
LINE
5
2C8
100
AcDbEntity
8
0
100
AcDbLine
62
7
6
CONTINUOUS
10
-4.0000000000
20
4.2000000000
11
-4.0000000000
21
1.2000000000
0
LINE
5
2C9
100
AcDbEntity
8
0
100
AcDbLine
62
7
6
CONTINUOUS
10
-3.8087649455
20
-6.1587649455
11
-3.8087649455
21
-4.8087649455
0
LINE
5
2CA
100
AcDbEntity
8
0
100
AcDbLine
62
7
6
CONTINUOUS
10
-3.8000000000
20
-4.8087649455
11
-3.8000000000
21
-6.1500000000
0
LINE
5
2CB
100
AcDbEntity
8
0
100
AcDbLine
62
7
6
CONTINUOUS
10
-3.6000000000
20
4.2000000000
11
-3.6000000000
21
1.2000000000
0
LINE
5
2CC
100
AcDbEntity
8
0
100
AcDbLine
62
7
6
CONTINUOUS
10
-3.5491273132
20
-11.1000000000
11
-3.5491273132
21
-11.1500000000
0
LINE
5
2CD
100
AcDbEntity
8
0
100
AcDbLine
62
7
6
CONTINUOUS
10
-3.5491273132
20
-20.0500000000
11
-3.5491273132
21
-20.1000000000
0
LINE
5
2CE
100
AcDbEntity
8
0
100
AcDbLine
62
9
6
CONTINUOUS
10
2.8587459070
20
-5.3087459070
11
1.7087459070
21
-5.3087459070
0
LINE
5
2CF
100
AcDbEntity
8
0
100
AcDbLine
62
9
6
CONTINUOUS
10
-4.3087459070
20
-5.3087459070
11
-5.4587459070
21
-5.3087459070
0
LINE
5
2D0
100
AcDbEntity
8
0
100
AcDbLine
62
7
6
CONTINUOUS
10
2.3587649455
20
-4.8087649455
11
1.2087649455
21
-4.8087649455
0
LINE
5
2D1
100
AcDbEntity
8
0
100
AcDbLine
62
7
6
CONTINUOUS
10
-3.8087649455
20
-4.8087649455
11
-4.9587649455
21
-4.8087649455
0
LINE
5
2D2
100
AcDbEntity
8
0
100
AcDbLine
62
7
6
CONTINUOUS
10
-4.9500000000
20
-4.8000000000
11
-3.8087649455
21
-4.8000000000
0
LINE
5
2D3
100
AcDbEntity
8
0
100
AcDbLine
62
7
6
CONTINUOUS
10
1.2087649455
20
-4.8000000000
11
2.3500000000
21
-4.8000000000
0
LINE
5
2D4
100
AcDbEntity
8
0
100
AcDbLine
62
7
6
CONTINUOUS
10
-4.6000000000
20
-4.4000000000
11
-3.3500000000
21
-4.4000000000
0
LINE
5
2D5
100
AcDbEntity
8
0
100
AcDbLine
62
7
6
CONTINUOUS
10
0.7500000000
20
-4.4000000000
11
2.0000000000
21
-4.4000000000
0
LINE
5
2D6
100
AcDbEntity
8
0
100
AcDbLine
62
9
6
CONTINUOUS
10
5.6587459070
20
-3.7087459070
11
2.8587459070
21
-3.7087459070
0
LINE
5
2D7
100
AcDbEntity
8
0
100
AcDbLine
62
9
6
CONTINUOUS
10
-5.4587459070
20
-3.7087459070
11
-8.2587459070
21
-3.7087459070
0
LINE
5
2D8
100
AcDbEntity
8
0
100
AcDbLine
62
7
6
CONTINUOUS
10
-5.0340272952
20
23.8018977024
11
-4.9125214403
21
22.4130794259
0
LINE
5
2D9
100
AcDbEntity
8
0
100
AcDbLine
62
7
6
CONTINUOUS
10
-3.3500000000
20
-4.4000000000
11
-3.3500000000
21
-5.6000000000
0
LINE
5
2DA
100
AcDbEntity
8
0
100
AcDbLine
62
7
6
CONTINUOUS
10
-3.0500000000
20
-11.0930185058
11
-3.0500000000
21
-11.1500000000
0
LINE
5
2DB
100
AcDbEntity
8
0
100
AcDbLine
62
7
6
CONTINUOUS
10
-3.0500000000
20
-20.0500000000
11
-3.0500000000
21
-20.1069814942
0
LINE
5
2DC
100
AcDbEntity
8
0
100
AcDbLine
62
7
6
CONTINUOUS
10
-3.0000000000
20
4.2000000000
11
-3.0000000000
21
1.2000000000
0
LINE
5
2DD
100
AcDbEntity
8
0
100
AcDbLine
62
7
6
CONTINUOUS
10
-2.6000000000
20
4.2000000000
11
-2.6000000000
21
1.2000000000
0
LINE
5
2DE
100
AcDbEntity
8
0
100
AcDbLine
62
7
6
CONTINUOUS
10
-2.0000000000
20
4.2000000000
11
-2.0000000000
21
1.2000000000
0
LINE
5
2DF
100
AcDbEntity
8
0
100
AcDbLine
62
7
6
CONTINUOUS
10
-4.9125214403
20
-22.4130794259
11
-5.0340272952
21
-23.8018977024
0
LINE
5
2E0
100
AcDbEntity
8
0
100
AcDbLine
62
7
6
CONTINUOUS
10
-7.7500000000
20
-3.2000000000
11
-7.7587649455
21
-3.2087649455
0
LINE
5
2E1
100
AcDbEntity
8
0
100
AcDbLine
62
7
6
CONTINUOUS
10
5.1587649455
20
-3.2087649455
11
2.3587649455
21
-3.2087649455
0
LINE
5
2E2
100
AcDbEntity
8
0
100
AcDbLine
62
7
6
CONTINUOUS
10
-4.9587649455
20
-3.2087649455
11
-7.7587649455
21
-3.2087649455
0
LINE
5
2E3
100
AcDbEntity
8
0
100
AcDbLine
62
7
6
CONTINUOUS
10
-7.7500000000
20
-3.2000000000
11
-4.9587649455
21
-3.2000000000
0
LINE
5
2E4
100
AcDbEntity
8
0
100
AcDbLine
62
7
6
CONTINUOUS
10
2.3587649455
20
-3.2000000000
11
5.1500000000
21
-3.2000000000
0
LINE
5
2E5
100
AcDbEntity
8
0
100
AcDbLine
62
7
6
CONTINUOUS
10
-7.3000000000
20
-2.8000000000
11
-4.6000000000
21
-2.8000000000
0
LINE
5
2E6
100
AcDbEntity
8
0
100
AcDbLine
62
7
6
CONTINUOUS
10
2.0000000000
20
-2.8000000000
11
4.7000000000
21
-2.8000000000
0
LINE
5
2E7
100
AcDbEntity
8
0
100
AcDbLine
62
7
6
CONTINUOUS
10
-4.6000000000
20
-2.6500000000
11
-4.3500000000
21
-2.6500000000
0
LINE
5
2E8
100
AcDbEntity
8
0
100
AcDbLine
62
7
6
CONTINUOUS
10
1.7500000000
20
-2.6500000000
11
2.0000000000
21
-2.6500000000
0
LINE
5
2E9
100
AcDbEntity
8
0
100
AcDbLine
62
7
6
CONTINUOUS
10
-4.6000000000
20
-1.9000000000
11
2.0000000000
21
-1.9000000000
0
LINE
5
2EA
100
AcDbEntity
8
0
100
AcDbLine
62
7
6
CONTINUOUS
10
1.2000000000
20
-6.1500000000
11
1.2087649455
21
-6.1587649455
0
LINE
5
2EB
100
AcDbEntity
8
0
100
AcDbLine
62
7
6
CONTINUOUS
10
1.2000000000
20
-4.8000000000
11
1.2087649455
21
-4.8087649455
0
LINE
5
2EC
100
AcDbEntity
8
0
100
AcDbLine
62
7
6
CONTINUOUS
10
-7.7500000000
20
4.7000000000
11
-7.7587649455
21
4.7087649455
0
LINE
5
2ED
100
AcDbEntity
8
0
100
AcDbLine
62
7
6
CONTINUOUS
10
2.3500000000
20
-4.8000000000
11
2.3587649455
21
-4.8087649455
0
LINE
5
2EE
100
AcDbEntity
8
0
100
AcDbLine
62
7
6
CONTINUOUS
10
-1.6000000000
20
4.2000000000
11
-1.6000000000
21
1.2000000000
0
LINE
5
2EF
100
AcDbEntity
8
0
100
AcDbLine
62
7
6
CONTINUOUS
10
-1.0000000000
20
4.2000000000
11
-1.0000000000
21
1.2000000000
0
LINE
5
2F0
100
AcDbEntity
8
0
100
AcDbLine
62
7
6
CONTINUOUS
10
-0.6000000000
20
4.2000000000
11
-0.6000000000
21
1.2000000000
0
LINE
5
2F1
100
AcDbEntity
8
0
100
AcDbLine
62
7
6
CONTINUOUS
10
-0.0000000000
20
4.2000000000
11
-0.0000000000
21
1.2000000000
0
LINE
5
2F2
100
AcDbEntity
8
0
100
AcDbLine
62
7
6
CONTINUOUS
10
-4.9500000000
20
-3.2000000000
11
-4.9587649455
21
-3.2087649455
0
LINE
5
2F3
100
AcDbEntity
8
0
100
AcDbLine
62
7
6
CONTINUOUS
10
-4.9500000000
20
-4.8000000000
11
-4.9587649455
21
-4.8087649455
0
LINE
5
2F4
100
AcDbEntity
8
0
100
AcDbLine
62
7
6
CONTINUOUS
10
2.3500000000
20
-3.2000000000
11
2.3587649455
21
-3.2087649455
0
LINE
5
2F5
100
AcDbEntity
8
0
100
AcDbLine
62
7
6
CONTINUOUS
10
2.4340272952
20
-23.8018977024
11
2.3125214403
21
-22.4130794259
0
LINE
5
2F6
100
AcDbEntity
8
0
100
AcDbLine
62
7
6
CONTINUOUS
10
0.4000000000
20
4.2000000000
11
0.4000000000
21
1.2000000000
0
LINE
5
2F7
100
AcDbEntity
8
0
100
AcDbLine
62
7
6
CONTINUOUS
10
0.4500000000
20
-11.0930185058
11
0.4500000000
21
-11.1500000000
0
LINE
5
2F8
100
AcDbEntity
8
0
100
AcDbLine
62
7
6
CONTINUOUS
10
0.4500000000
20
-20.0500000000
11
0.4500000000
21
-20.1069814942
0
LINE
5
2F9
100
AcDbEntity
8
0
100
AcDbLine
62
7
6
CONTINUOUS
10
0.7500000000
20
-5.6000000000
11
0.7500000000
21
-4.4000000000
0
LINE
5
2FA
100
AcDbEntity
8
0
100
AcDbLine
62
7
6
CONTINUOUS
10
0.9491273132
20
-11.1000000000
11
0.9491273132
21
-11.1500000000
0
LINE
5
2FB
100
AcDbEntity
8
0
100
AcDbLine
62
7
6
CONTINUOUS
10
0.9491273132
20
-20.0500000000
11
0.9491273132
21
-20.1000000000
0
LINE
5
2FC
100
AcDbEntity
8
0
100
AcDbLine
62
7
6
CONTINUOUS
10
1.0000000000
20
4.2000000000
11
1.0000000000
21
1.2000000000
0
LINE
5
2FD
100
AcDbEntity
8
0
100
AcDbLine
62
7
6
CONTINUOUS
10
1.2000000000
20
-6.1500000000
11
1.2000000000
21
-4.8087649455
0
LINE
5
2FE
100
AcDbEntity
8
0
100
AcDbLine
62
7
6
CONTINUOUS
10
1.2087649455
20
-4.8087649455
11
1.2087649455
21
-6.1587649455
0
LINE
5
2FF
100
AcDbEntity
8
0
100
AcDbLine
62
7
6
CONTINUOUS
10
1.4000000000
20
4.2000000000
11
1.4000000000
21
1.2000000000
0
LINE
5
300
100
AcDbEntity
8
0
100
AcDbLine
62
9
6
CONTINUOUS
10
1.7087459070
20
-5.3087459070
11
1.7087459070
21
-6.6587459070
0
LINE
5
301
100
AcDbEntity
8
0
100
AcDbLine
62
7
6
CONTINUOUS
10
1.7500000000
20
-1.9000000000
11
1.7500000000
21
-2.6500000000
0
LINE
5
302
100
AcDbEntity
8
0
100
AcDbLine
62
7
6
CONTINUOUS
10
2.0000000000
20
4.2000000000
11
2.0000000000
21
1.2000000000
0
LINE
5
303
100
AcDbEntity
8
0
100
AcDbLine
62
7
6
CONTINUOUS
10
2.0000000000
20
-4.4000000000
11
2.0000000000
21
-1.9000000000
0
LINE
5
304
100
AcDbEntity
8
0
100
AcDbLine
62
7
6
CONTINUOUS
10
2.3125214403
20
22.4130794259
11
2.4340272952
21
23.8018977024
0
LINE
5
305
100
AcDbEntity
8
0
100
AcDbLine
62
7
6
CONTINUOUS
10
5.1500000000
20
4.7000000000
11
5.1587649455
21
4.7087649455
0
LINE
5
306
100
AcDbEntity
8
0
100
AcDbLine
62
7
6
CONTINUOUS
10
-3.8000000000
20
-4.8000000000
11
-3.8087649455
21
-4.8087649455
0
LINE
5
307
100
AcDbEntity
8
0
100
AcDbLine
62
7
6
CONTINUOUS
10
-3.8000000000
20
-6.1500000000
11
-3.8087649455
21
-6.1587649455
0
LINE
5
308
100
AcDbEntity
8
0
100
AcDbLine
62
7
6
CONTINUOUS
10
2.4000000000
20
1.2000000000
11
2.0000000000
21
1.2000000000
0
LINE
5
309
100
AcDbEntity
8
0
100
AcDbLine
62
7
6
CONTINUOUS
10
1.4000000000
20
1.2000000000
11
1.0000000000
21
1.2000000000
0
LINE
5
30A
100
AcDbEntity
8
0
100
AcDbLine
62
7
6
CONTINUOUS
10
0.4000000000
20
1.2000000000
11
-0.0000000000
21
1.2000000000
0
LINE
5
30B
100
AcDbEntity
8
0
100
AcDbLine
62
7
6
CONTINUOUS
10
-0.6000000000
20
1.2000000000
11
-1.0000000000
21
1.2000000000
0
LINE
5
30C
100
AcDbEntity
8
0
100
AcDbLine
62
7
6
CONTINUOUS
10
-1.6000000000
20
1.2000000000
11
-2.0000000000
21
1.2000000000
0
LINE
5
30D
100
AcDbEntity
8
0
100
AcDbLine
62
7
6
CONTINUOUS
10
-2.6000000000
20
1.2000000000
11
-3.0000000000
21
1.2000000000
0
LINE
5
30E
100
AcDbEntity
8
0
100
AcDbLine
62
7
6
CONTINUOUS
10
-3.6000000000
20
1.2000000000
11
-4.0000000000
21
1.2000000000
0
LINE
5
30F
100
AcDbEntity
8
0
100
AcDbLine
62
7
6
CONTINUOUS
10
-4.6000000000
20
1.2000000000
11
-5.0000000000
21
1.2000000000
0
LINE
5
310
100
AcDbEntity
8
0
100
AcDbLine
62
7
6
CONTINUOUS
10
5.1500000000
20
-3.2000000000
11
5.1587649455
21
-3.2087649455
0
LINE
5
311
100
AcDbEntity
8
0
100
AcDbLine
62
7
6
CONTINUOUS
10
2.3500000000
20
-4.8000000000
11
2.3500000000
21
-3.2087649455
0
LINE
5
312
100
AcDbEntity
8
0
100
AcDbLine
62
7
6
CONTINUOUS
10
2.3587649455
20
-3.2087649455
11
2.3587649455
21
-4.8087649455
0
LINE
5
313
100
AcDbEntity
8
0
100
AcDbLine
62
7
6
CONTINUOUS
10
2.4000000000
20
4.2000000000
11
2.4000000000
21
1.2000000000
0
LINE
5
314
100
AcDbEntity
8
0
100
AcDbLine
62
9
6
CONTINUOUS
10
2.8587459070
20
-3.7087459070
11
2.8587459070
21
-5.3087459070
0
LINE
5
315
100
AcDbEntity
8
0
100
AcDbLine
62
9
6
CONTINUOUS
10
3.0000000000
20
23.8428760137
11
3.0000000000
21
23.4624534072
0
LINE
5
316
100
AcDbEntity
8
0
100
AcDbLine
62
9
6
CONTINUOUS
10
3.0000000000
20
-23.8428760137
11
3.0000000000
21
-23.4624534072
0
LINE
5
317
100
AcDbEntity
8
0
100
AcDbLine
62
7
6
CONTINUOUS
10
3.2000000000
20
-23.9844665539
11
3.2000000000
21
-23.5242568061
0
LINE
5
318
100
AcDbEntity
8
0
100
AcDbLine
62
7
6
CONTINUOUS
10
3.2000000000
20
23.5242568061
11
3.2000000000
21
23.9844665539
0
LINE
5
319
100
AcDbEntity
8
0
100
AcDbLine
62
7
6
CONTINUOUS
10
4.7000000000
20
23.9844665539
11
4.7000000000
21
22.4352154024
0
LINE
5
31A
100
AcDbEntity
8
0
100
AcDbLine
62
7
6
CONTINUOUS
10
4.7000000000
20
-23.9844665539
11
4.7000000000
21
-22.4352154024
0
LINE
5
31B
100
AcDbEntity
8
0
100
AcDbLine
62
7
6
CONTINUOUS
10
4.7000000000
20
-23.9844665539
11
4.7000000000
21
-24.9844665539
0
LINE
5
31C
100
AcDbEntity
8
0
100
AcDbLine
62
7
6
CONTINUOUS
10
4.7000000000
20
-2.8000000000
11
4.7000000000
21
4.2000000000
0
LINE
5
31D
100
AcDbEntity
8
0
100
AcDbLine
62
7
6
CONTINUOUS
10
4.7000000000
20
23.9844665539
11
4.7000000000
21
24.9844665539
0
LINE
5
31E
100
AcDbEntity
8
0
100
AcDbLine
62
7
6
CONTINUOUS
10
4.9000000000
20
-22.5000000000
11
4.9000000000
21
-23.2500000000
0
LINE
5
31F
100
AcDbEntity
8
0
100
AcDbLine
62
7
6
CONTINUOUS
10
4.9000000000
20
22.5000000000
11
4.9000000000
21
23.2500000000
0
LINE
5
320
100
AcDbEntity
8
0
100
AcDbLine
62
7
6
CONTINUOUS
10
5.1500000000
20
-3.2000000000
11
5.1500000000
21
4.7000000000
0
LINE
5
321
100
AcDbEntity
8
0
100
AcDbLine
62
7
6
CONTINUOUS
10
5.1587649455
20
4.7087649455
11
5.1587649455
21
-3.2087649455
0
LINE
5
322
100
AcDbEntity
8
0
100
AcDbLine
62
9
6
CONTINUOUS
10
5.6587459070
20
5.2087459070
11
5.6587459070
21
-3.7087459070
0
LINE
5
323
100
AcDbEntity
8
0
100
AcDbLine
62
7
6
CONTINUOUS
10
-3.5491273132
20
-11.1000000000
11
-3.5421458190
21
-11.0930185058
0
LINE
5
324
100
AcDbEntity
8
0
100
AcDbLine
62
7
6
CONTINUOUS
10
4.7000000000
20
4.2000000000
11
-7.3000000000
21
4.2000000000
0
LINE
5
325
100
AcDbEntity
8
0
100
AcDbLine
62
7
6
CONTINUOUS
10
5.1500000000
20
4.7000000000
11
-7.7500000000
21
4.7000000000
0
LINE
5
326
100
AcDbEntity
8
0
100
AcDbLine
62
7
6
CONTINUOUS
10
-7.7587649455
20
4.7087649455
11
5.1587649455
21
4.7087649455
0
LINE
5
327
100
AcDbEntity
8
0
100
AcDbLine
62
9
6
CONTINUOUS
10
-8.2587459070
20
5.2087459070
11
5.6587459070
21
5.2087459070
0
LINE
5
328
100
AcDbEntity
8
0
100
AcDbLine
62
9
6
CONTINUOUS
10
6.6500000000
20
-19.3500000000
11
6.6499999994
21
-20.0500000000
0
LINE
5
329
100
AcDbEntity
8
0
100
AcDbLine
62
9
6
CONTINUOUS
10
6.6500000000
20
-11.8500000000
11
6.6500000000
21
-11.1500000000
0
LINE
5
32A
100
AcDbEntity
8
0
100
AcDbLine
62
9
6
CONTINUOUS
10
6.7000000000
20
-10.8895201430
11
6.7000000000
21
-11.1000000000
0
LINE
5
32B
100
AcDbEntity
8
0
100
AcDbLine
62
9
6
CONTINUOUS
10
6.7000000000
20
-20.3104798570
11
6.7000000000
21
-20.1000000000
0
LINE
5
32C
100
AcDbEntity
8
0
100
AcDbLine
62
9
6
CONTINUOUS
10
6.9500000000
20
-19.0500000000
11
6.9500000000
21
-12.1500000000
0
LINE
5
32D
100
AcDbEntity
8
0
100
AcDbLine
62
7
6
CONTINUOUS
10
7.6208203932
20
-17.8500000000
11
7.6208203932
21
-13.3500000000
0
LINE
5
32E
100
AcDbEntity
8
0
100
AcDbLine
62
7
6
CONTINUOUS
10
7.6500000000
20
-19.0500000000
11
7.6500000000
21
-17.8500000000
0
LINE
5
32F
100
AcDbEntity
8
0
100
AcDbLine
62
7
6
CONTINUOUS
10
7.6500000000
20
-13.3500000000
11
7.6500000000
21
-12.1500000000
0
LINE
5
330
100
AcDbEntity
8
0
100
AcDbLine
62
7
6
CONTINUOUS
10
7.7000000000
20
-12.1000000000
11
7.7000000000
21
-19.1000000000
0
LINE
5
331
100
AcDbEntity
8
0
100
AcDbLine
62
7
6
CONTINUOUS
10
7.7104874724
20
-12.1000000000
11
7.7104874724
21
-19.1000000000
0
LINE
5
332
100
AcDbEntity
8
0
100
AcDbLine
62
9
6
CONTINUOUS
10
7.9104798570
20
-12.1000000000
11
7.9104798570
21
-19.1000000000
0
LINE
5
333
100
AcDbEntity
8
0
100
AcDbLine
62
7
6
CONTINUOUS
10
8.9429044156
20
23.6871305730
11
8.9429044156
21
22.5000000000
0
LINE
5
334
100
AcDbEntity
8
0
100
AcDbLine
62
7
6
CONTINUOUS
10
8.9429044156
20
-22.5000000000
11
8.9429044156
21
-23.6871305730
0
LINE
5
335
100
AcDbEntity
8
0
100
AcDbLine
62
9
6
CONTINUOUS
10
9.2068654783
20
-23.7072818230
11
9.2068654783
21
-22.3720034943
0
LINE
5
336
100
AcDbEntity
8
0
100
AcDbLine
62
9
6
CONTINUOUS
10
9.2068654783
20
22.3720034943
11
9.2068654783
21
23.7072818230
0
LINE
5
337
100
AcDbEntity
8
0
100
AcDbLine
62
9
6
CONTINUOUS
10
11.0912724675
20
-18.8857142746
11
11.0685808831
21
-18.5142856479
0
LINE
5
338
100
AcDbEntity
8
0
100
AcDbLine
62
9
6
CONTINUOUS
10
11.0912724675
20
-9.8166664600
11
11.0685808831
21
-9.4452386856
0
LINE
5
339
100
AcDbEntity
8
0
100
AcDbLine
62
9
6
CONTINUOUS
10
11.0299795481
20
-14.5925800000
11
10.9970127081
21
-14.0510120000
0
LINE
5
33A
100
AcDbEntity
8
0
100
AcDbLine
62
9
6
CONTINUOUS
10
11.0142528837
20
-13.7542050000
11
11.0476345434
21
-14.3025800000
0
LINE
5
33B
100
AcDbEntity
8
0
100
AcDbLine
62
9
6
CONTINUOUS
10
11.0318686749
20
-18.7788390000
11
10.9970127081
21
-18.1377140000
0
LINE
5
33C
100
AcDbEntity
8
0
100
AcDbLine
62
9
6
CONTINUOUS
10
10.9970127081
20
-17.5576850000
11
11.0476346830
21
-18.4888240000
0
LINE
5
33D
100
AcDbEntity
8
0
100
AcDbLine
62
9
6
CONTINUOUS
10
11.0476346830
20
-12.7874970000
11
10.9970125859
21
-11.8563720000
0
LINE
5
33E
100
AcDbEntity
8
0
100
AcDbLine
62
9
6
CONTINUOUS
10
11.0127787162
20
-11.5663500000
11
11.0280613063
21
-11.8474400000
0
LINE
5
33F
100
AcDbEntity
8
0
100
AcDbLine
62
9
6
CONTINUOUS
10
11.0376794311
20
-12.0243620000
11
11.0476345434
21
-12.2074750000
0
LINE
5
340
100
AcDbEntity
8
0
100
AcDbLine
62
9
6
CONTINUOUS
10
11.0815475027
20
-19.6285714120
11
11.0685808831
21
-19.2571428239
0
LINE
5
341
100
AcDbEntity
8
0
100
AcDbLine
62
9
6
CONTINUOUS
10
11.0239457880
20
11.0000000000
11
11.0192079849
21
11.1357142918
0
LINE
5
342
100
AcDbEntity
8
0
100
AcDbLine
62
9
6
CONTINUOUS
10
11.0381591981
20
11.9500000000
11
11.0428970017
21
11.8142857224
0
LINE
5
343
100
AcDbEntity
8
0
100
AcDbLine
62
9
6
CONTINUOUS
10
11.0685808831
20
-7.1238090515
11
11.0783058473
21
-7.4952386856
0
LINE
5
344
100
AcDbEntity
8
0
100
AcDbLine
62
9
6
CONTINUOUS
10
11.0192079849
20
12.5833332956
11
11.0144701819
21
12.7642856658
0
LINE
5
345
100
AcDbEntity
8
0
100
AcDbLine
62
9
6
CONTINUOUS
10
11.0880308125
20
-17.1214287043
11
11.0912724675
21
-17.3071429014
0
LINE
5
346
100
AcDbEntity
8
0
100
AcDbLine
62
9
6
CONTINUOUS
10
11.0192079849
20
11.1357142918
11
11.0144701819
21
11.4071428612
0
LINE
5
347
100
AcDbEntity
8
0
100
AcDbLine
62
9
6
CONTINUOUS
10
11.0428970017
20
11.8142857224
11
11.0476348052
21
11.5428571671
0
LINE
5
348
100
AcDbEntity
8
0
100
AcDbLine
62
9
6
CONTINUOUS
10
11.0286835910
20
12.7642856658
11
11.0334213951
21
12.4928571105
0
LINE
5
349
100
AcDbEntity
8
0
100
AcDbLine
62
9
6
CONTINUOUS
10
11.0428970017
20
13.4428571105
11
11.0476348052
21
13.1714286685
0
LINE
5
34A
100
AcDbEntity
8
0
100
AcDbLine
62
9
6
CONTINUOUS
10
11.0192079849
20
16.8357142210
11
11.0144701819
21
17.1071426630
0
LINE
5
34B
100
AcDbEntity
8
0
100
AcDbLine
62
9
6
CONTINUOUS
10
11.0428970017
20
16.2928573370
11
11.0476348052
21
16.0214284420
0
LINE
5
34C
100
AcDbEntity
8
0
100
AcDbLine
62
9
6
CONTINUOUS
10
11.0381591981
20
17.6500000000
11
11.0476348052
21
17.1071426630
0
LINE
5
34D
100
AcDbEntity
8
0
100
AcDbLine
62
9
6
CONTINUOUS
10
11.0263146905
20
13.3523810387
11
11.0286835910
21
13.1714286685
0
LINE
5
34E
100
AcDbEntity
8
0
100
AcDbLine
62
9
6
CONTINUOUS
10
10.6535924375
20
-20.8313127805
11
10.6535924375
21
20.8313127805
0
LINE
5
34F
100
AcDbEntity
8
0
100
AcDbLine
62
9
6
CONTINUOUS
10
10.9035543613
20
-20.8313127805
11
10.9035543613
21
20.8313127805
0
LINE
5
350
100
AcDbEntity
8
0
100
AcDbLine
62
9
6
CONTINUOUS
10
10.9931345217
20
23.7072818230
11
10.9931345217
21
22.1220354779
0
LINE
5
351
100
AcDbEntity
8
0
100
AcDbLine
62
9
6
CONTINUOUS
10
10.9931345217
20
-22.1220354779
11
10.9931345217
21
-23.7072818230
0
LINE
5
352
100
AcDbEntity
8
0
100
AcDbLine
62
9
6
CONTINUOUS
10
10.9970127081
20
-20.0000000000
11
10.9970127081
21
-19.4199710000
0
LINE
5
353
100
AcDbEntity
8
0
100
AcDbLine
62
9
6
CONTINUOUS
10
10.9970127081
20
-18.1377140000
11
10.9970127081
21
-17.5576850000
0
LINE
5
354
100
AcDbEntity
8
0
100
AcDbLine
62
9
6
CONTINUOUS
10
10.9970127081
20
-17.1710060000
11
10.9970127081
21
-16.5909850000
0
LINE
5
355
100
AcDbEntity
8
0
100
AcDbLine
62
9
6
CONTINUOUS
10
10.9970127081
20
-16.0109850000
11
10.9970127081
21
-15.1341480000
0
LINE
5
356
100
AcDbEntity
8
0
100
AcDbLine
62
9
6
CONTINUOUS
10
10.9970127081
20
-14.0510120000
11
10.9970127081
21
-13.1741760000
0
LINE
5
357
100
AcDbEntity
8
0
100
AcDbLine
62
9
6
CONTINUOUS
10
10.9970125859
20
-11.8563720000
11
10.9970125859
21
-11.2763210000
0
LINE
5
358
100
AcDbEntity
8
0
100
AcDbLine
62
9
6
CONTINUOUS
10
10.9970125859
20
-9.9585030000
11
10.9970125859
21
-8.6002890000
0
LINE
5
359
100
AcDbEntity
8
0
100
AcDbLine
62
9
6
CONTINUOUS
10
11.0063776123
20
-8.6807950000
11
11.0063776123
21
-9.3864780000
0
LINE
5
35A
100
AcDbEntity
8
0
100
AcDbLine
62
9
6
CONTINUOUS
10
11.0144701819
20
16.2928573370
11
11.0144701819
21
15.4785715580
0
LINE
5
35B
100
AcDbEntity
8
0
100
AcDbLine
62
9
6
CONTINUOUS
10
11.0144701819
20
11.4071428612
11
11.0144701819
21
11.5428571671
0
LINE
5
35C
100
AcDbEntity
8
0
100
AcDbLine
62
9
6
CONTINUOUS
10
11.0144701819
20
12.7642856658
11
11.0144701819
21
13.1714286685
0
LINE
5
35D
100
AcDbEntity
8
0
100
AcDbLine
62
9
6
CONTINUOUS
10
11.0144701819
20
17.1071426630
11
11.0144701819
21
17.5142857790
0
LINE
5
35E
100
AcDbEntity
8
0
100
AcDbLine
62
9
6
CONTINUOUS
10
11.0186961578
20
-9.3864710000
11
11.0186961578
21
-8.6807950000
0
LINE
5
35F
100
AcDbEntity
8
0
100
AcDbLine
62
9
6
CONTINUOUS
10
11.0280613063
20
-11.8474400000
11
11.0280613063
21
-11.2852460000
0
LINE
5
360
100
AcDbEntity
8
0
100
AcDbLine
62
9
6
CONTINUOUS
10
11.0280613063
20
-8.8721780000
11
11.0280611841
21
-9.3784090000
0
LINE
5
361
100
AcDbEntity
8
0
100
AcDbLine
62
9
6
CONTINUOUS
10
11.0286835910
20
13.1714286685
11
11.0286835910
21
12.7642856658
0
LINE
5
362
100
AcDbEntity
8
0
100
AcDbLine
62
9
6
CONTINUOUS
10
11.0286835910
20
15.4785715580
11
11.0286835910
21
16.0214284420
0
LINE
5
363
100
AcDbEntity
8
0
100
AcDbLine
62
9
6
CONTINUOUS
10
11.0334213951
20
17.6952379227
11
11.0334213951
21
17.1071426630
0
LINE
5
364
100
AcDbEntity
8
0
100
AcDbLine
62
9
6
CONTINUOUS
10
11.0376794311
20
-11.1083170000
11
11.0376794311
21
-12.0243620000
0
LINE
5
365
100
AcDbEntity
8
0
100
AcDbLine
62
9
6
CONTINUOUS
10
11.0405281001
20
14.9357142210
11
11.0405281001
21
13.9857142210
0
LINE
5
366
100
AcDbEntity
8
0
100
AcDbLine
62
9
6
CONTINUOUS
10
11.0476345434
20
-14.3025800000
11
11.0476346830
21
-14.8825870000
0
LINE
5
367
100
AcDbEntity
8
0
100
AcDbLine
62
9
6
CONTINUOUS
10
11.0476346830
20
-16.5909920000
11
11.0476348052
21
-17.1710140000
0
LINE
5
368
100
AcDbEntity
8
0
100
AcDbLine
62
9
6
CONTINUOUS
10
11.0476346830
20
-18.4888240000
11
11.0476348052
21
-19.0688680000
0
LINE
5
369
100
AcDbEntity
8
0
100
AcDbLine
62
9
6
CONTINUOUS
10
11.0476345434
20
-12.2074750000
11
11.0476346830
21
-12.7874970000
0
LINE
5
36A
100
AcDbEntity
8
0
100
AcDbLine
62
9
6
CONTINUOUS
10
11.0476344212
20
-7.6376190000
11
11.0476345434
21
-8.2909240000
0
LINE
5
36B
100
AcDbEntity
8
0
100
AcDbLine
62
9
6
CONTINUOUS
10
11.0476348052
20
16.0214284420
11
11.0476348052
21
15.4785715580
0
LINE
5
36C
100
AcDbEntity
8
0
100
AcDbLine
62
9
6
CONTINUOUS
10
11.0476348052
20
13.1714286685
11
11.0476348052
21
12.7642856658
0
LINE
5
36D
100
AcDbEntity
8
0
100
AcDbLine
62
9
6
CONTINUOUS
10
11.0476348052
20
11.5428571671
11
11.0476348052
21
11.4071428612
0
LINE
5
36E
100
AcDbEntity
8
0
100
AcDbLine
62
9
6
CONTINUOUS
10
11.0476345434
20
-9.3784740000
11
11.0476345434
21
-9.9585030000
0
LINE
5
36F
100
AcDbEntity
8
0
100
AcDbLine
62
9
6
CONTINUOUS
10
11.0476346830
20
-13.1741760000
11
11.0476346830
21
-13.7541970000
0
LINE
5
370
100
AcDbEntity
8
0
100
AcDbLine
62
9
6
CONTINUOUS
10
11.0476346830
20
-15.4309630000
11
11.0476346830
21
-16.0109850000
0
LINE
5
371
100
AcDbEntity
8
0
100
AcDbLine
62
9
6
CONTINUOUS
10
11.0476346830
20
-10.3451820000
11
11.0476345434
21
-10.9252110000
0
LINE
5
372
100
AcDbEntity
8
0
100
AcDbLine
62
9
6
CONTINUOUS
10
11.0685808831
20
-10.1880954742
11
11.0685808831
21
-10.9309522629
0
LINE
5
373
100
AcDbEntity
8
0
100
AcDbLine
62
9
6
CONTINUOUS
10
11.0685808831
20
-17.7714285493
11
11.0685808831
21
-17.3071429014
0
LINE
5
374
100
AcDbEntity
8
0
100
AcDbLine
62
9
6
CONTINUOUS
10
11.0685808831
20
-16.5952380657
11
11.0685808831
21
-16.0380951643
0
LINE
5
375
100
AcDbEntity
8
0
100
AcDbLine
62
9
6
CONTINUOUS
10
11.0783058473
20
-16.5952380657
11
11.0783058473
21
-16.2238096714
0
LINE
5
376
100
AcDbEntity
8
0
100
AcDbLine
62
9
6
CONTINUOUS
10
11.0847891574
20
-9.1976193428
11
11.0847891574
21
-9.6928574085
0
LINE
5
377
100
AcDbEntity
8
0
100
AcDbLine
62
9
6
CONTINUOUS
10
11.0847891574
20
-18.2666666150
11
11.0847891574
21
-18.7619047582
0
LINE
5
378
100
AcDbEntity
8
0
100
AcDbLine
62
9
6
CONTINUOUS
10
11.0912724675
20
-8.2380954742
11
11.0912724675
21
-8.7023806572
0
LINE
5
379
100
AcDbEntity
8
0
100
AcDbLine
62
9
6
CONTINUOUS
10
11.0912724675
20
-16.0380951643
11
11.0912724675
21
-16.5952380657
0
LINE
5
37A
100
AcDbEntity
8
0
100
AcDbLine
62
9
6
CONTINUOUS
10
11.0912724675
20
-17.3071429014
11
11.0912724675
21
-17.7714285493
0
LINE
5
37B
100
AcDbEntity
8
0
100
AcDbLine
62
7
6
CONTINUOUS
10
11.1000000000
20
-23.7500243682
11
11.1000000000
21
23.7500243682
0
LINE
5
37C
100
AcDbEntity
8
0
100
AcDbLine
62
9
6
CONTINUOUS
10
11.0286835910
20
12.7642856658
11
11.0263146905
21
12.5833332956
0
LINE
5
37D
100
AcDbEntity
8
0
100
AcDbLine
62
9
6
CONTINUOUS
10
11.0144701819
20
17.5142857790
11
11.0192079849
21
17.7857142210
0
LINE
5
37E
100
AcDbEntity
8
0
100
AcDbLine
62
9
6
CONTINUOUS
10
11.0334213951
20
17.1071426630
11
11.0286835910
21
16.8357142210
0
LINE
5
37F
100
AcDbEntity
8
0
100
AcDbLine
62
9
6
CONTINUOUS
10
11.0286835910
20
16.0214284420
11
11.0334213951
21
16.2928573370
0
LINE
5
380
100
AcDbEntity
8
0
100
AcDbLine
62
9
6
CONTINUOUS
10
11.0286835910
20
13.1714286685
11
11.0334213951
21
13.4428571105
0
LINE
5
381
100
AcDbEntity
8
0
100
AcDbLine
62
9
6
CONTINUOUS
10
11.0144701819
20
11.5428571671
11
11.0192079849
21
11.8142857224
0
LINE
5
382
100
AcDbEntity
8
0
100
AcDbLine
62
9
6
CONTINUOUS
10
11.0476348052
20
12.7642856658
11
11.0428970017
21
12.4928571105
0
LINE
5
383
100
AcDbEntity
8
0
100
AcDbLine
62
9
6
CONTINUOUS
10
11.0476348052
20
11.4071428612
11
11.0428970017
21
11.1357142918
0
LINE
5
384
100
AcDbEntity
8
0
100
AcDbLine
62
9
6
CONTINUOUS
10
11.0685808831
20
-17.3071429014
11
11.0718225379
21
-17.1214287043
0
LINE
5
385
100
AcDbEntity
8
0
100
AcDbLine
62
9
6
CONTINUOUS
10
11.0144701819
20
13.1714286685
11
11.0192079849
21
13.3523810387
0
LINE
5
386
100
AcDbEntity
8
0
100
AcDbLine
62
9
6
CONTINUOUS
10
11.0685808831
20
-7.8666670799
11
11.0783058473
21
-7.4952386856
0
LINE
5
387
100
AcDbEntity
8
0
100
AcDbLine
62
9
6
CONTINUOUS
10
11.0268437399
20
-8.2550232093
11
11.0476344212
21
-7.6376190000
0
LINE
5
388
100
AcDbEntity
8
0
100
AcDbLine
62
9
6
CONTINUOUS
10
11.0476345434
20
-8.2909240000
11
11.0280613063
21
-8.8721780000
0
LINE
5
389
100
AcDbEntity
8
0
100
AcDbLine
62
9
6
CONTINUOUS
10
11.0192079849
20
11.8142857224
11
11.0239457880
21
11.9500000000
0
LINE
5
38A
100
AcDbEntity
8
0
100
AcDbLine
62
9
6
CONTINUOUS
10
11.0428970017
20
11.1357142918
11
11.0381591981
21
11.0000000000
0
LINE
5
38B
100
AcDbEntity
8
0
100
AcDbLine
62
9
6
CONTINUOUS
10
11.0685808831
20
-13.8095238686
11
11.0912724675
21
-13.1595238686
0
LINE
5
38C
100
AcDbEntity
8
0
100
AcDbLine
62
9
6
CONTINUOUS
10
10.9970125859
20
-11.2763210000
11
11.0476346830
21
-10.3451820000
0
LINE
5
38D
100
AcDbEntity
8
0
100
AcDbLine
62
9
6
CONTINUOUS
10
11.0280613063
20
-11.2852460000
11
11.0127787162
21
-11.5663500000
0
LINE
5
38E
100
AcDbEntity
8
0
100
AcDbLine
62
9
6
CONTINUOUS
10
11.0476345434
20
-10.9252110000
11
11.0376794311
21
-11.1083170000
0
LINE
5
38F
100
AcDbEntity
8
0
100
AcDbLine
62
9
6
CONTINUOUS
10
11.0685808831
20
-9.4452386856
11
11.0912724675
21
-9.0738090515
0
LINE
5
390
100
AcDbEntity
8
0
100
AcDbLine
62
7
6
CONTINUOUS
10
-5.2746920834
20
-22.5000000000
11
-5.2022590807
21
-22.4130794259
0
LINE
5
391
100
AcDbEntity
8
0
100
AcDbLine
62
9
6
CONTINUOUS
10
11.0381591981
20
11.0000000000
11
11.0239457880
21
11.0000000000
0
LINE
5
392
100
AcDbEntity
8
0
100
AcDbLine
62
7
6
CONTINUOUS
10
-5.2746920834
20
22.5000000000
11
-5.2022590807
21
22.4130794259
0
LINE
5
393
100
AcDbEntity
8
0
100
AcDbLine
62
9
6
CONTINUOUS
10
11.0286835910
20
17.7857142210
11
11.0381591981
21
17.6500000000
0
LINE
5
394
100
AcDbEntity
8
0
100
AcDbLine
62
9
6
CONTINUOUS
10
11.0405281001
20
13.9857142210
11
11.0144701819
21
14.3928571105
0
LINE
5
395
100
AcDbEntity
8
0
100
AcDbLine
62
9
6
CONTINUOUS
10
11.0685808831
20
-20.0000000000
11
11.0815475027
21
-19.6285714120
0
LINE
5
396
100
AcDbEntity
8
0
100
AcDbLine
62
9
6
CONTINUOUS
10
10.9970127081
20
-19.4199710000
11
11.0318686749
21
-18.7788390000
0
LINE
5
397
100
AcDbEntity
8
0
100
AcDbLine
62
9
6
CONTINUOUS
10
11.0476348052
20
-19.0688680000
11
10.9970127081
21
-20.0000000000
0
LINE
5
398
100
AcDbEntity
8
0
100
AcDbLine
62
9
6
CONTINUOUS
10
10.9970127081
20
-15.1341480000
11
11.0299795481
21
-14.5925800000
0
LINE
5
399
100
AcDbEntity
8
0
100
AcDbLine
62
9
6
CONTINUOUS
10
11.0476346830
20
-14.8825870000
11
11.0142528837
21
-15.4309630000
0
LINE
5
39A
100
AcDbEntity
8
0
100
AcDbLine
62
9
6
CONTINUOUS
10
11.0685808831
20
-18.5142856479
11
11.0912724675
21
-18.1428570986
0
LINE
5
39B
100
AcDbEntity
8
0
100
AcDbLine
62
9
6
CONTINUOUS
10
-13.5251447104
20
-22.0812442423
11
-13.5931345217
21
-22.1220354779
0
LINE
5
39C
100
AcDbEntity
8
0
100
AcDbLine
62
9
6
CONTINUOUS
10
-13.2751827866
20
-22.3312305346
11
-13.3324023425
21
-22.3655600369
0
LINE
5
39D
100
AcDbEntity
8
0
100
AcDbLine
62
9
6
CONTINUOUS
10
11.0239457880
20
11.9500000000
11
11.0381591981
21
11.9500000000
0
LINE
5
39E
100
AcDbEntity
8
0
100
AcDbLine
62
9
6
CONTINUOUS
10
11.0334213951
20
12.4928571105
11
11.0428970017
21
12.4928571105
0
LINE
5
39F
100
AcDbEntity
8
0
100
AcDbLine
62
9
6
CONTINUOUS
10
11.0263146905
20
12.5833332956
11
11.0192079849
21
12.5833332956
0
LINE
5
3A0
100
AcDbEntity
8
0
100
AcDbLine
62
9
6
CONTINUOUS
10
11.0192079849
20
13.3523810387
11
11.0263146905
21
13.3523810387
0
LINE
5
3A1
100
AcDbEntity
8
0
100
AcDbLine
62
9
6
CONTINUOUS
10
11.0334213951
20
13.4428571105
11
11.0428970017
21
13.4428571105
0
LINE
5
3A2
100
AcDbEntity
8
0
100
AcDbLine
62
9
6
CONTINUOUS
10
-13.5931345217
20
22.1220354779
11
-13.5251447104
21
22.0812442423
0
LINE
5
3A3
100
AcDbEntity
8
0
100
AcDbLine
62
9
6
CONTINUOUS
10
-13.3324023425
20
22.3655600369
11
-13.2751827866
21
22.3312305346
0
LINE
5
3A4
100
AcDbEntity
8
0
100
AcDbLine
62
7
6
CONTINUOUS
10
0.9491273132
20
-20.1000000000
11
0.9421458190
21
-20.1069814942
0
LINE
5
3A5
100
AcDbEntity
8
0
100
AcDbLine
62
9
6
CONTINUOUS
10
11.0310524935
20
14.6190476298
11
11.0476348052
21
14.6190476298
0
LINE
5
3A6
100
AcDbEntity
8
0
100
AcDbLine
62
9
6
CONTINUOUS
10
-13.7000000000
20
-23.7500243682
11
-13.5931345217
21
-23.7072818230
0
LINE
5
3A7
100
AcDbEntity
8
0
100
AcDbLine
62
9
6
CONTINUOUS
10
-13.4499923826
20
-24.0000000000
11
-13.3431725979
21
-23.9572757307
0
LINE
5
3A8
100
AcDbEntity
8
0
100
AcDbLine
62
9
6
CONTINUOUS
10
11.0144701819
20
15.4785715580
11
11.0286835910
21
15.4785715580
0
LINE
5
3A9
100
AcDbEntity
8
0
100
AcDbLine
62
9
6
CONTINUOUS
10
11.0334213951
20
16.2928573370
11
11.0428970017
21
16.2928573370
0
LINE
5
3AA
100
AcDbEntity
8
0
100
AcDbLine
62
9
6
CONTINUOUS
10
11.0286835910
20
16.8357142210
11
11.0192079849
21
16.8357142210
0
LINE
5
3AB
100
AcDbEntity
8
0
100
AcDbLine
62
9
6
CONTINUOUS
10
-13.7000000000
20
23.7500243682
11
-13.5931345217
21
23.7072818230
0
LINE
5
3AC
100
AcDbEntity
8
0
100
AcDbLine
62
9
6
CONTINUOUS
10
-13.4499923826
20
24.0000000000
11
-13.3431725979
21
23.9572757307
0
LINE
5
3AD
100
AcDbEntity
8
0
100
AcDbLine
62
9
6
CONTINUOUS
10
-11.7000761582
20
-23.7499939075
11
-11.5429044156
21
-23.6871305730
0
LINE
5
3AE
100
AcDbEntity
8
0
100
AcDbLine
62
7
6
CONTINUOUS
10
-11.8572254502
20
-23.9821270941
11
-11.7001016506
21
-23.9192829351
0
LINE
5
3AF
100
AcDbEntity
8
0
100
AcDbLine
62
9
6
CONTINUOUS
10
11.0192079849
20
17.7857142210
11
11.0286835910
21
17.7857142210
0
LINE
5
3B0
100
AcDbEntity
8
0
100
AcDbLine
62
9
6
CONTINUOUS
10
-11.7000761582
20
23.7499939075
11
-11.5429044156
21
23.6871305730
0
LINE
5
3B1
100
AcDbEntity
8
0
100
AcDbLine
62
7
6
CONTINUOUS
10
-11.8572254502
20
23.9821270941
11
-11.7001016506
21
23.9192829351
0
LINE
5
3B2
100
AcDbEntity
8
0
100
AcDbLine
62
9
6
CONTINUOUS
10
10.9035543613
20
20.8313127805
11
-13.5035543613
21
20.8313127805
0
LINE
5
3B3
100
AcDbEntity
8
0
100
AcDbLine
62
9
6
CONTINUOUS
10
10.6751827866
20
22.3312305346
11
-13.2751827866
21
22.3312305346
0
LINE
5
3B4
100
AcDbEntity
8
0
100
AcDbLine
62
7
6
CONTINUOUS
10
2.6022590807
20
22.4130794259
11
-5.2022590807
21
22.4130794259
0
LINE
5
3B5
100
AcDbEntity
8
0
100
AcDbLine
62
7
6
CONTINUOUS
10
-11.5935241039
20
22.5000000000
11
-7.3000000000
21
22.5000000000
0
LINE
5
3B6
100
AcDbEntity
8
0
100
AcDbLine
62
7
6
CONTINUOUS
10
4.7000000000
20
22.5000000000
11
8.9935241039
21
22.5000000000
0
LINE
5
3B7
100
AcDbEntity
8
0
100
AcDbLine
62
7
6
CONTINUOUS
10
8.9935241039
20
-22.5000000000
11
9.2068654783
21
-22.3720034943
0
LINE
5
3B8
100
AcDbEntity
8
0
100
AcDbLine
62
7
6
CONTINUOUS
10
-7.5000000000
20
23.2500000000
11
-7.3000000000
21
23.2500000000
0
LINE
5
3B9
100
AcDbEntity
8
0
100
AcDbLine
62
7
6
CONTINUOUS
10
4.7000000000
20
23.2500000000
11
4.9000000000
21
23.2500000000
0
LINE
5
3BA
100
AcDbEntity
8
0
100
AcDbLine
62
7
6
CONTINUOUS
10
-5.6000000000
20
23.4624534072
11
-5.0043297675
21
23.4624534072
0
LINE
5
3BB
100
AcDbEntity
8
0
100
AcDbLine
62
7
6
CONTINUOUS
10
2.4043297675
20
23.4624534072
11
3.0000000000
21
23.4624534072
0
LINE
5
3BC
100
AcDbEntity
8
0
100
AcDbLine
62
7
6
CONTINUOUS
10
-5.6000000000
20
23.8428760137
11
-5.0420816149
21
23.8428760137
0
LINE
5
3BD
100
AcDbEntity
8
0
100
AcDbLine
62
7
6
CONTINUOUS
10
2.4420816149
20
23.8428760137
11
3.0000000000
21
23.8428760137
0
LINE
5
3BE
100
AcDbEntity
8
0
100
AcDbLine
62
7
6
CONTINUOUS
10
4.7000000000
20
23.9844665539
11
2.6332662348
21
23.9844665539
0
LINE
5
3BF
100
AcDbEntity
8
0
100
AcDbLine
62
7
6
CONTINUOUS
10
-5.2332662348
20
23.9844665539
11
-7.3000000000
21
23.9844665539
0
LINE
5
3C0
100
AcDbEntity
8
0
100
AcDbLine
62
7
6
CONTINUOUS
10
9.3500076174
20
24.0000000000
11
10.8499923826
21
24.0000000000
0
LINE
5
3C1
100
AcDbEntity
8
0
100
AcDbLine
62
7
6
CONTINUOUS
10
-11.9500076174
20
24.0000000000
11
-13.4499923826
21
24.0000000000
0
LINE
5
3C2
100
AcDbEntity
8
0
100
AcDbLine
62
9
6
CONTINUOUS
10
4.7000000000
20
24.2844665539
11
-7.3000000000
21
24.2844665539
0
LINE
5
3C3
100
AcDbEntity
8
0
100
AcDbLine
62
7
6
CONTINUOUS
10
8.9935241039
20
22.5000000000
11
9.2068654783
21
22.3720034943
0
LINE
5
3C4
100
AcDbEntity
8
0
100
AcDbLine
62
9
6
CONTINUOUS
10
9.1000761582
20
-23.7499939075
11
9.2068654783
21
-23.7072818230
0
LINE
5
3C5
100
AcDbEntity
8
0
100
AcDbLine
62
9
6
CONTINUOUS
10
9.3500076174
20
-24.0000000000
11
9.4568274021
21
-23.9572757307
0
LINE
5
3C6
100
AcDbEntity
8
0
100
AcDbLine
62
7
6
CONTINUOUS
10
4.7000000000
20
24.9844665539
11
-7.3000000000
21
24.9844665539
0
LINE
5
3C7
100
AcDbEntity
8
0
100
AcDbLine
62
9
6
CONTINUOUS
10
9.1000761582
20
23.7499939075
11
9.2068654783
21
23.7072818230
0
LINE
5
3C8
100
AcDbEntity
8
0
100
AcDbLine
62
9
6
CONTINUOUS
10
9.3500076174
20
24.0000000000
11
9.4568274021
21
23.9572757307
0
LINE
5
3C9
100
AcDbEntity
8
0
100
AcDbLine
62
7
6
CONTINUOUS
10
-62.1974004757
20
-24.9844665539
11
-61.6832374917
21
-24.9844665539
0
LINE
5
3CA
100
AcDbEntity
8
0
100
AcDbLine
62
7
6
CONTINUOUS
10
-73.4974004757
20
-19.3500000000
11
-73.4974004757
21
-11.8500000000
0
LINE
5
3CB
100
AcDbEntity
8
0
100
AcDbLine
62
7
6
CONTINUOUS
10
-72.9974004757
20
-17.8500000000
11
-72.9974004757
21
-13.3500000000
0
LINE
5
3CC
100
AcDbEntity
8
0
100
AcDbLine
62
9
6
CONTINUOUS
10
-72.7974004757
20
-20.0500000000
11
-72.7974004757
21
-11.1500000000
0
LINE
5
3CD
100
AcDbEntity
8
0
100
AcDbLine
62
9
6
CONTINUOUS
10
-65.8974004757
20
17.5142857790
11
-65.6259719204
21
17.7857142210
0
LINE
5
3CE
100
AcDbEntity
8
0
100
AcDbLine
62
9
6
CONTINUOUS
10
-64.8116861981
20
17.1071426630
11
-65.0831148099
21
16.8357142210
0
LINE
5
3CF
100
AcDbEntity
8
0
100
AcDbLine
62
7
6
CONTINUOUS
10
-60.9974004757
20
-24.0000000000
11
-51.9974004757
21
-23.9371671261
0
LINE
5
3D0
100
AcDbEntity
8
0
100
AcDbLine
62
9
6
CONTINUOUS
10
-60.9974004757
20
-23.7500243682
11
-51.9974004757
21
-23.6871914943
0
LINE
5
3D1
100
AcDbEntity
8
0
100
AcDbLine
62
7
6
CONTINUOUS
10
-62.1974004757
20
-24.5844665539
11
-61.6832374917
21
-24.5844665539
0
LINE
5
3D2
100
AcDbEntity
8
0
100
AcDbLine
62
9
6
CONTINUOUS
10
-62.4974004757
20
-24.2844665539
11
-62.8974004757
21
-24.2844665539
0
LINE
5
3D3
100
AcDbEntity
8
0
100
AcDbLine
62
7
6
CONTINUOUS
10
-67.7490548624
20
-23.9528637946
11
-60.9974004757
21
-24.0000000000
0
LINE
5
3D4
100
AcDbEntity
8
0
100
AcDbLine
62
9
6
CONTINUOUS
10
-67.1197196256
20
-23.7072818230
11
-60.9974004757
21
-23.7500243682
0
LINE
5
3D5
100
AcDbEntity
8
0
100
AcDbLine
62
9
6
CONTINUOUS
10
-62.0545433384
20
-19.6285714120
11
-62.7974004757
21
-19.2571428239
0
LINE
5
3D6
100
AcDbEntity
8
0
100
AcDbLine
62
7
6
CONTINUOUS
10
-72.4974004757
20
-20.8313127805
11
-72.4974004757
21
20.8313127805
0
LINE
5
3D7
100
AcDbEntity
8
0
100
AcDbLine
62
9
6
CONTINUOUS
10
-72.2517635773
20
-20.8313127805
11
-72.2517635773
21
20.8313127805
0
LINE
5
3D8
100
AcDbEntity
8
0
100
AcDbLine
62
9
6
CONTINUOUS
10
-65.0831148099
20
16.0214284420
11
-64.8116861981
21
16.2928573370
0
LINE
5
3D9
100
AcDbEntity
8
0
100
AcDbLine
62
9
6
CONTINUOUS
10
-72.4974004757
20
-20.8313127805
11
-72.2517635773
21
-20.8313127805
0
LINE
5
3DA
100
AcDbEntity
8
0
100
AcDbLine
62
7
6
CONTINUOUS
10
-67.7350019918
20
-22.3655600369
11
-71.0131081519
21
-22.3312305346
0
LINE
5
3DB
100
AcDbEntity
8
0
100
AcDbLine
62
9
6
CONTINUOUS
10
-67.1197196256
20
-22.1220354779
11
-71.0148533074
21
-22.0812442423
0
LINE
5
3DC
100
AcDbEntity
8
0
100
AcDbLine
62
9
6
CONTINUOUS
10
-61.4974004757
20
-18.8857142746
11
-62.7974004757
21
-18.5142856479
0
LINE
5
3DD
100
AcDbEntity
8
0
100
AcDbLine
62
9
6
CONTINUOUS
10
-64.9006414757
20
-18.7788390000
11
-66.8975384757
21
-18.1377140000
0
LINE
5
3DE
100
AcDbEntity
8
0
100
AcDbLine
62
9
6
CONTINUOUS
10
-66.8975384757
20
-17.5576850000
11
-63.9974074757
21
-18.4888240000
0
LINE
5
3DF
100
AcDbEntity
8
0
100
AcDbLine
62
9
6
CONTINUOUS
10
-61.6831147697
20
-17.1214287043
11
-61.4974004757
21
-17.3071429014
0
LINE
5
3E0
100
AcDbEntity
8
0
100
AcDbLine
62
7
6
CONTINUOUS
10
-67.9974004757
20
-23.7029138293
11
-67.9974004757
21
-22.3628198486
0
LINE
5
3E1
100
AcDbEntity
8
0
100
AcDbLine
62
7
6
CONTINUOUS
10
-67.9974004757
20
22.3628198486
11
-67.9974004757
21
23.7028692620
0
LINE
5
3E2
100
AcDbEntity
8
0
100
AcDbLine
62
9
6
CONTINUOUS
10
-61.5905323934
20
24.5697835088
11
-61.4669255956
21
24.9502061153
0
LINE
5
3E3
100
AcDbEntity
8
0
100
AcDbLine
62
9
6
CONTINUOUS
10
-65.0831148099
20
12.7642856658
11
-65.2188290309
21
12.5833332956
0
LINE
5
3E4
100
AcDbEntity
8
0
100
AcDbLine
62
9
6
CONTINUOUS
10
-65.0831148099
20
13.1714286685
11
-64.8116861981
21
13.4428571105
0
LINE
5
3E5
100
AcDbEntity
8
0
100
AcDbLine
62
9
6
CONTINUOUS
10
-65.8974004757
20
11.5428571671
11
-65.6259719204
21
11.8142857224
0
LINE
5
3E6
100
AcDbEntity
8
0
100
AcDbLine
62
9
6
CONTINUOUS
10
-63.9974004757
20
12.7642856658
11
-64.2688290592
21
12.4928571105
0
LINE
5
3E7
100
AcDbEntity
8
0
100
AcDbLine
62
9
6
CONTINUOUS
10
-65.8974004757
20
13.1714286685
11
-65.6259719204
21
13.3523810387
0
LINE
5
3E8
100
AcDbEntity
8
0
100
AcDbLine
62
7
6
CONTINUOUS
10
-51.9974004757
20
20.7757321084
11
-60.9974004757
21
17.5000000000
0
LINE
5
3E9
100
AcDbEntity
8
0
100
AcDbLine
62
7
6
CONTINUOUS
10
-72.7974004757
20
-20.0500000000
11
-72.4974004757
21
-20.0500000000
0
LINE
5
3EA
100
AcDbEntity
8
0
100
AcDbLine
62
9
6
CONTINUOUS
10
-61.4974004757
20
-20.0000000000
11
-62.7974004757
21
-20.0000000000
0
LINE
5
3EB
100
AcDbEntity
8
0
100
AcDbLine
62
9
6
CONTINUOUS
10
-62.7974004757
20
-19.2571428239
11
-61.4974004757
21
-19.2571428239
0
LINE
5
3EC
100
AcDbEntity
8
0
100
AcDbLine
62
9
6
CONTINUOUS
10
-73.4974004757
20
-19.0500000000
11
-72.4974004757
21
-19.0500000000
0
LINE
5
3ED
100
AcDbEntity
8
0
100
AcDbLine
62
9
6
CONTINUOUS
10
-55.1369158841
20
-19.6330419497
11
-51.9974004757
21
-19.6494805642
0
LINE
5
3EE
100
AcDbEntity
8
0
100
AcDbLine
62
7
6
CONTINUOUS
10
-55.9731781886
20
-19.3286673628
11
-51.9974004757
21
-19.3494846765
0
LINE
5
3EF
100
AcDbEntity
8
0
100
AcDbLine
62
9
6
CONTINUOUS
10
-65.0088694757
20
-14.5925800000
11
-66.8975384757
21
-14.0510120000
0
LINE
5
3F0
100
AcDbEntity
8
0
100
AcDbLine
62
7
6
CONTINUOUS
10
-60.9974004757
20
-17.5000000000
11
-51.9974004757
21
-20.7757321084
0
LINE
5
3F1
100
AcDbEntity
8
0
100
AcDbLine
62
9
6
CONTINUOUS
10
-61.5905323934
20
-24.5697835088
11
-61.4669255956
21
-24.9502061153
0
LINE
5
3F2
100
AcDbEntity
8
0
100
AcDbLine
62
9
6
CONTINUOUS
10
-67.1197196256
20
23.7072818230
11
-67.1197196256
21
22.1220354779
0
LINE
5
3F3
100
AcDbEntity
8
0
100
AcDbLine
62
9
6
CONTINUOUS
10
-67.1197196256
20
-22.1220354779
11
-67.1197196256
21
-23.7072818230
0
LINE
5
3F4
100
AcDbEntity
8
0
100
AcDbLine
62
9
6
CONTINUOUS
10
-66.8975454757
20
-11.8563720000
11
-66.8975454757
21
-11.2763210000
0
LINE
5
3F5
100
AcDbEntity
8
0
100
AcDbLine
62
9
6
CONTINUOUS
10
-66.8975454757
20
-9.9585030000
11
-66.8975454757
21
-8.6002890000
0
LINE
5
3F6
100
AcDbEntity
8
0
100
AcDbLine
62
9
6
CONTINUOUS
10
-66.8975384757
20
-20.0000000000
11
-66.8975384757
21
-19.4199710000
0
LINE
5
3F7
100
AcDbEntity
8
0
100
AcDbLine
62
9
6
CONTINUOUS
10
-66.8975384757
20
-18.1377140000
11
-66.8975384757
21
-17.5576850000
0
LINE
5
3F8
100
AcDbEntity
8
0
100
AcDbLine
62
9
6
CONTINUOUS
10
-66.8975384757
20
-17.1710060000
11
-66.8975384757
21
-16.5909850000
0
LINE
5
3F9
100
AcDbEntity
8
0
100
AcDbLine
62
9
6
CONTINUOUS
10
-66.8975384757
20
-16.0109850000
11
-66.8975384757
21
-15.1341480000
0
LINE
5
3FA
100
AcDbEntity
8
0
100
AcDbLine
62
9
6
CONTINUOUS
10
-66.8975384757
20
-14.0510120000
11
-66.8975384757
21
-13.1741760000
0
LINE
5
3FB
100
AcDbEntity
8
0
100
AcDbLine
62
9
6
CONTINUOUS
10
-66.3610234757
20
-8.6807950000
11
-66.3610234757
21
-9.3864780000
0
LINE
5
3FC
100
AcDbEntity
8
0
100
AcDbLine
62
9
6
CONTINUOUS
10
-65.8974004757
20
16.2928573370
11
-65.8974004757
21
15.4785715580
0
LINE
5
3FD
100
AcDbEntity
8
0
100
AcDbLine
62
9
6
CONTINUOUS
10
-65.8974004757
20
11.4071428612
11
-65.8974004757
21
11.5428571671
0
LINE
5
3FE
100
AcDbEntity
8
0
100
AcDbLine
62
9
6
CONTINUOUS
10
-65.8974004757
20
12.7642856658
11
-65.8974004757
21
13.1714286685
0
LINE
5
3FF
100
AcDbEntity
8
0
100
AcDbLine
62
9
6
CONTINUOUS
10
-65.8974004757
20
17.1071426630
11
-65.8974004757
21
17.5142857790
0
LINE
5
400
100
AcDbEntity
8
0
100
AcDbLine
62
9
6
CONTINUOUS
10
-63.9974004757
20
11.4071428612
11
-64.2688290592
21
11.1357142918
0
LINE
5
401
100
AcDbEntity
8
0
100
AcDbLine
62
9
6
CONTINUOUS
10
-65.6259719204
20
11.8142857224
11
-65.3545433652
21
11.9500000000
0
LINE
5
402
100
AcDbEntity
8
0
100
AcDbLine
62
9
6
CONTINUOUS
10
-64.2688290592
20
11.1357142918
11
-64.5402576428
21
11.0000000000
0
LINE
5
403
100
AcDbEntity
8
0
100
AcDbLine
62
7
6
CONTINUOUS
10
-72.4974004757
20
-17.8500000000
11
-72.9974004757
21
-17.8500000000
0
LINE
5
404
100
AcDbEntity
8
0
100
AcDbLine
62
9
6
CONTINUOUS
10
-61.4974004757
20
-17.7714285493
11
-62.7974004757
21
-17.7714285493
0
LINE
5
405
100
AcDbEntity
8
0
100
AcDbLine
62
9
6
CONTINUOUS
10
-63.9974004757
20
-17.1710140000
11
-66.8975384757
21
-17.1710060000
0
LINE
5
406
100
AcDbEntity
8
0
100
AcDbLine
62
9
6
CONTINUOUS
10
-62.6116862010
20
-17.1214287043
11
-61.6831147697
21
-17.1214287043
0
LINE
5
407
100
AcDbEntity
8
0
100
AcDbLine
62
9
6
CONTINUOUS
10
-61.4974004757
20
-16.5952380657
11
-62.7974004757
21
-16.5952380657
0
LINE
5
408
100
AcDbEntity
8
0
100
AcDbLine
62
9
6
CONTINUOUS
10
-66.8975384757
20
-16.5909850000
11
-63.9974074757
21
-16.5909920000
0
LINE
5
409
100
AcDbEntity
8
0
100
AcDbLine
62
9
6
CONTINUOUS
10
-63.9974074757
20
-16.0109850000
11
-66.8975384757
21
-16.0109850000
0
LINE
5
40A
100
AcDbEntity
8
0
100
AcDbLine
62
9
6
CONTINUOUS
10
-65.9098494757
20
-13.7542050000
11
-63.9974154757
21
-14.3025800000
0
LINE
5
40B
100
AcDbEntity
8
0
100
AcDbLine
62
9
6
CONTINUOUS
10
-63.9974074757
20
-12.7874970000
11
-66.8975454757
21
-11.8563720000
0
LINE
5
40C
100
AcDbEntity
8
0
100
AcDbLine
62
9
6
CONTINUOUS
10
-64.5677434757
20
-12.0243620000
11
-63.9974154757
21
-12.2074750000
0
LINE
5
40D
100
AcDbEntity
8
0
100
AcDbLine
62
9
6
CONTINUOUS
10
-65.9943044757
20
-11.5663500000
11
-65.1187654757
21
-11.8474400000
0
LINE
5
40E
100
AcDbEntity
8
0
100
AcDbLine
62
9
6
CONTINUOUS
10
-65.6552944757
20
-9.3864710000
11
-65.6552944757
21
-8.6807950000
0
LINE
5
40F
100
AcDbEntity
8
0
100
AcDbLine
62
9
6
CONTINUOUS
10
-65.1187654757
20
-11.8474400000
11
-65.1187654757
21
-11.2852460000
0
LINE
5
410
100
AcDbEntity
8
0
100
AcDbLine
62
9
6
CONTINUOUS
10
-65.1187654757
20
-8.8721780000
11
-65.1187724757
21
-9.3784090000
0
LINE
5
411
100
AcDbEntity
8
0
100
AcDbLine
62
9
6
CONTINUOUS
10
-65.0831148099
20
13.1714286685
11
-65.0831148099
21
12.7642856658
0
LINE
5
412
100
AcDbEntity
8
0
100
AcDbLine
62
9
6
CONTINUOUS
10
-65.0831148099
20
15.4785715580
11
-65.0831148099
21
16.0214284420
0
LINE
5
413
100
AcDbEntity
8
0
100
AcDbLine
62
9
6
CONTINUOUS
10
-64.8116861981
20
17.6952379227
11
-64.8116861981
21
17.1071426630
0
LINE
5
414
100
AcDbEntity
8
0
100
AcDbLine
62
9
6
CONTINUOUS
10
-64.5677434757
20
-11.1083170000
11
-64.5677434757
21
-12.0243620000
0
LINE
5
415
100
AcDbEntity
8
0
100
AcDbLine
62
9
6
CONTINUOUS
10
-64.4045433369
20
14.9357142210
11
-64.4045433369
21
13.9857142210
0
LINE
5
416
100
AcDbEntity
8
0
100
AcDbLine
62
9
6
CONTINUOUS
10
-63.9974074757
20
-18.4888240000
11
-63.9974004757
21
-19.0688680000
0
LINE
5
417
100
AcDbEntity
8
0
100
AcDbLine
62
9
6
CONTINUOUS
10
-63.9974154757
20
-14.3025800000
11
-63.9974074757
21
-14.8825870000
0
LINE
5
418
100
AcDbEntity
8
0
100
AcDbLine
62
9
6
CONTINUOUS
10
-63.9974074757
20
-16.5909920000
11
-63.9974004757
21
-17.1710140000
0
LINE
5
419
100
AcDbEntity
8
0
100
AcDbLine
62
9
6
CONTINUOUS
10
-63.9974154757
20
-12.2074750000
11
-63.9974074757
21
-12.7874970000
0
LINE
5
41A
100
AcDbEntity
8
0
100
AcDbLine
62
9
6
CONTINUOUS
10
-63.9974224757
20
-7.6376190000
11
-63.9974154757
21
-8.2909240000
0
LINE
5
41B
100
AcDbEntity
8
0
100
AcDbLine
62
9
6
CONTINUOUS
10
-63.9974154757
20
-9.3784740000
11
-63.9974154757
21
-9.9585030000
0
LINE
5
41C
100
AcDbEntity
8
0
100
AcDbLine
62
9
6
CONTINUOUS
10
-63.9974074757
20
-13.1741760000
11
-63.9974074757
21
-13.7541970000
0
LINE
5
41D
100
AcDbEntity
8
0
100
AcDbLine
62
9
6
CONTINUOUS
10
-63.9974074757
20
-15.4309630000
11
-63.9974074757
21
-16.0109850000
0
LINE
5
41E
100
AcDbEntity
8
0
100
AcDbLine
62
9
6
CONTINUOUS
10
-63.9974004757
20
16.0214284420
11
-63.9974004757
21
15.4785715580
0
LINE
5
41F
100
AcDbEntity
8
0
100
AcDbLine
62
9
6
CONTINUOUS
10
-63.9974004757
20
13.1714286685
11
-63.9974004757
21
12.7642856658
0
LINE
5
420
100
AcDbEntity
8
0
100
AcDbLine
62
9
6
CONTINUOUS
10
-63.9974004757
20
11.5428571671
11
-63.9974004757
21
11.4071428612
0
LINE
5
421
100
AcDbEntity
8
0
100
AcDbLine
62
9
6
CONTINUOUS
10
-63.9974074757
20
-10.3451820000
11
-63.9974154757
21
-10.9252110000
0
LINE
5
422
100
AcDbEntity
8
0
100
AcDbLine
62
9
6
CONTINUOUS
10
-65.9098494757
20
-15.4309630000
11
-63.9974074757
21
-15.4309630000
0
LINE
5
423
100
AcDbEntity
8
0
100
AcDbLine
62
9
6
CONTINUOUS
10
-62.7974004757
20
-14.3976193428
11
-61.4974004757
21
-14.3976193428
0
LINE
5
424
100
AcDbEntity
8
0
100
AcDbLine
62
9
6
CONTINUOUS
10
-61.4974004757
20
-13.8095238686
11
-62.7974004757
21
-13.8095238686
0
LINE
5
425
100
AcDbEntity
8
0
100
AcDbLine
62
9
6
CONTINUOUS
10
-63.9974074757
20
-13.7541970000
11
-65.9098494757
21
-13.7542050000
0
LINE
5
426
100
AcDbEntity
8
0
100
AcDbLine
62
7
6
CONTINUOUS
10
-62.8974004757
20
-23.9867352822
11
-62.8974004757
21
-24.2844665539
0
LINE
5
427
100
AcDbEntity
8
0
100
AcDbLine
62
7
6
CONTINUOUS
10
-62.8974004757
20
23.9867352822
11
-62.8974004757
21
24.2844665539
0
LINE
5
428
100
AcDbEntity
8
0
100
AcDbLine
62
9
6
CONTINUOUS
10
-62.7974004757
20
-10.1880954742
11
-62.7974004757
21
-10.9309522629
0
LINE
5
429
100
AcDbEntity
8
0
100
AcDbLine
62
9
6
CONTINUOUS
10
-62.7974004757
20
-17.7714285493
11
-62.7974004757
21
-17.3071429014
0
LINE
5
42A
100
AcDbEntity
8
0
100
AcDbLine
62
9
6
CONTINUOUS
10
-62.7974004757
20
-16.5952380657
11
-62.7974004757
21
-16.0380951643
0
LINE
5
42B
100
AcDbEntity
8
0
100
AcDbLine
62
7
6
CONTINUOUS
10
-62.4974004757
20
-23.9895278544
11
-62.4974004757
21
-24.2844665539
0
LINE
5
42C
100
AcDbEntity
8
0
100
AcDbLine
62
7
6
CONTINUOUS
10
-62.4974004757
20
23.9895278544
11
-62.4974004757
21
24.2844665539
0
LINE
5
42D
100
AcDbEntity
8
0
100
AcDbLine
62
9
6
CONTINUOUS
10
-62.2402576517
20
-16.5952380657
11
-62.2402576517
21
-16.2238096714
0
LINE
5
42E
100
AcDbEntity
8
0
100
AcDbLine
62
9
6
CONTINUOUS
10
-62.1974004757
20
-24.5844665539
11
-62.1974004757
21
-24.9844665539
0
LINE
5
42F
100
AcDbEntity
8
0
100
AcDbLine
62
9
6
CONTINUOUS
10
-62.1974004757
20
24.5844665539
11
-62.1974004757
21
24.9844665539
0
LINE
5
430
100
AcDbEntity
8
0
100
AcDbLine
62
9
6
CONTINUOUS
10
-61.8688290637
20
-9.1976193428
11
-61.8688290637
21
-9.6928574085
0
LINE
5
431
100
AcDbEntity
8
0
100
AcDbLine
62
9
6
CONTINUOUS
10
-61.8688290637
20
-18.2666666150
11
-61.8688290637
21
-18.7619047582
0
LINE
5
432
100
AcDbEntity
8
0
100
AcDbLine
62
9
6
CONTINUOUS
10
-61.6832374917
20
-24.5844665539
11
-61.6832374917
21
-24.9844665539
0
LINE
5
433
100
AcDbEntity
8
0
100
AcDbLine
62
9
6
CONTINUOUS
10
-61.6832374917
20
24.5844665539
11
-61.6832374917
21
24.9844665539
0
LINE
5
434
100
AcDbEntity
8
0
100
AcDbLine
62
9
6
CONTINUOUS
10
-61.4974004757
20
-8.2380954742
11
-61.4974004757
21
-8.7023806572
0
LINE
5
435
100
AcDbEntity
8
0
100
AcDbLine
62
9
6
CONTINUOUS
10
-61.4974004757
20
-16.0380951643
11
-61.4974004757
21
-16.5952380657
0
LINE
5
436
100
AcDbEntity
8
0
100
AcDbLine
62
9
6
CONTINUOUS
10
-61.4974004757
20
-17.3071429014
11
-61.4974004757
21
-17.7714285493
0
LINE
5
437
100
AcDbEntity
8
0
100
AcDbLine
62
7
6
CONTINUOUS
10
-72.4974004757
20
-13.3500000000
11
-72.9974004757
21
-13.3500000000
0
LINE
5
438
100
AcDbEntity
8
0
100
AcDbLine
62
9
6
CONTINUOUS
10
-66.8975384757
20
-13.1741760000
11
-63.9974074757
21
-13.1741760000
0
LINE
5
439
100
AcDbEntity
8
0
100
AcDbLine
62
9
6
CONTINUOUS
10
-61.4974004757
20
-13.1595238686
11
-62.7974004757
21
-13.1595238686
0
LINE
5
43A
100
AcDbEntity
8
0
100
AcDbLine
62
9
6
CONTINUOUS
10
-73.4974004757
20
-12.1500000000
11
-72.4974004757
21
-12.1500000000
0
LINE
5
43B
100
AcDbEntity
8
0
100
AcDbLine
62
9
6
CONTINUOUS
10
-62.7974004757
20
-11.5190477371
11
-61.4974004757
21
-11.5190477371
0
LINE
5
43C
100
AcDbEntity
8
0
100
AcDbLine
62
7
6
CONTINUOUS
10
-72.7974004757
20
-11.1500000000
11
-72.4974004757
21
-11.1500000000
0
LINE
5
43D
100
AcDbEntity
8
0
100
AcDbLine
62
9
6
CONTINUOUS
10
-61.4974004757
20
-9.8166664600
11
-62.7974004757
21
-9.4452386856
0
LINE
5
43E
100
AcDbEntity
8
0
100
AcDbLine
62
9
6
CONTINUOUS
10
-62.7974004757
20
-7.1238090515
11
-62.2402576517
21
-7.4952386856
0
LINE
5
43F
100
AcDbEntity
8
0
100
AcDbLine
62
7
6
CONTINUOUS
10
-60.9974004757
20
-23.7500243682
11
-60.9974004757
21
23.7500243682
0
LINE
5
440
100
AcDbEntity
8
0
100
AcDbLine
62
9
6
CONTINUOUS
10
-60.9474004757
20
13.7122949787
11
-60.9474004757
21
12.8877050213
0
LINE
5
441
100
AcDbEntity
8
0
100
AcDbLine
62
9
6
CONTINUOUS
10
-60.9474004757
20
9.4122949787
11
-60.9474004757
21
8.5877050213
0
LINE
5
442
100
AcDbEntity
8
0
100
AcDbLine
62
9
6
CONTINUOUS
10
-60.9474004757
20
2.3622949787
11
-60.9474004757
21
1.5377050213
0
LINE
5
443
100
AcDbEntity
8
0
100
AcDbLine
62
9
6
CONTINUOUS
10
-60.9474004757
20
-6.6877050213
11
-60.9474004757
21
-7.5122949787
0
LINE
5
444
100
AcDbEntity
8
0
100
AcDbLine
62
9
6
CONTINUOUS
10
-60.9452188418
20
15.0075271701
11
-60.9452188418
21
13.7122759399
0
LINE
5
445
100
AcDbEntity
8
0
100
AcDbLine
62
9
6
CONTINUOUS
10
-60.9452188418
20
-4.9377145409
11
-60.9452188418
21
-6.6877240601
0
LINE
5
446
100
AcDbEntity
8
0
100
AcDbLine
62
9
6
CONTINUOUS
10
-60.9452188418
20
-9.2075271701
11
-60.9452188418
21
-7.5122759399
0
LINE
5
447
100
AcDbEntity
8
0
100
AcDbLine
62
7
6
CONTINUOUS
10
-60.6974004757
20
15.0622854591
11
-60.6974004757
21
13.1377145409
0
LINE
5
448
100
AcDbEntity
8
0
100
AcDbLine
62
7
6
CONTINUOUS
10
-60.6974004757
20
9.1622854591
11
-60.6974004757
21
8.8377145409
0
LINE
5
449
100
AcDbEntity
8
0
100
AcDbLine
62
7
6
CONTINUOUS
10
-60.6974004757
20
2.1122854591
11
-60.6974004757
21
1.7877145409
0
LINE
5
44A
100
AcDbEntity
8
0
100
AcDbLine
62
7
6
CONTINUOUS
10
-60.6974004757
20
-9.2622854591
11
-60.6974004757
21
-4.9377145409
0
LINE
5
44B
100
AcDbEntity
8
0
100
AcDbLine
62
7
6
CONTINUOUS
10
-60.4974004757
20
-6.6000000000
11
-60.4974004757
21
9.4000000000
0
LINE
5
44C
100
AcDbEntity
8
0
100
AcDbLine
62
7
6
CONTINUOUS
10
-60.1974004757
20
9.7000000000
11
-60.1974004757
21
-6.6000000000
0
LINE
5
44D
100
AcDbEntity
8
0
100
AcDbLine
62
7
6
CONTINUOUS
10
-60.0474004757
20
-6.2500000000
11
-60.0474004757
21
9.0500000000
0
LINE
5
44E
100
AcDbEntity
8
0
100
AcDbLine
62
7
6
CONTINUOUS
10
-59.9974004757
20
9.8500000000
11
-59.9974004757
21
-6.4500000000
0
LINE
5
44F
100
AcDbEntity
8
0
100
AcDbLine
62
7
6
CONTINUOUS
10
-60.9452188418
20
-9.5122759399
11
-60.9974004757
21
-9.5127313221
0
LINE
5
450
100
AcDbEntity
8
0
100
AcDbLine
62
7
6
CONTINUOUS
10
-42.8974004757
20
-10.9500000000
11
-58.3974004757
21
-10.9500000000
0
LINE
5
451
100
AcDbEntity
8
0
100
AcDbLine
62
9
6
CONTINUOUS
10
-42.5974004757
20
-10.6500000000
11
-58.6974004757
21
-10.6500000000
0
LINE
5
452
100
AcDbEntity
8
0
100
AcDbLine
62
9
6
CONTINUOUS
10
-62.7974004757
20
-10.5595238686
11
-61.4974004757
21
-10.5595238686
0
LINE
5
453
100
AcDbEntity
8
0
100
AcDbLine
62
9
6
CONTINUOUS
10
-63.9974154757
20
-9.9585030000
11
-66.8975454757
21
-9.9585030000
0
LINE
5
454
100
AcDbEntity
8
0
100
AcDbLine
62
9
6
CONTINUOUS
10
-66.3610234757
20
-9.3864780000
11
-65.6552944757
21
-9.3864710000
0
LINE
5
455
100
AcDbEntity
8
0
100
AcDbLine
62
9
6
CONTINUOUS
10
-60.9452188418
20
-9.2075271701
11
-60.6974004757
21
-9.2075271701
0
LINE
5
456
100
AcDbEntity
8
0
100
AcDbLine
62
9
6
CONTINUOUS
10
-65.1187724757
20
-9.3784090000
11
-63.9974154757
21
-9.3784740000
0
LINE
5
457
100
AcDbEntity
8
0
100
AcDbLine
62
9
6
CONTINUOUS
10
-60.9452188418
20
-9.2075271701
11
-60.9974004757
21
-9.2069695269
0
LINE
5
458
100
AcDbEntity
8
0
100
AcDbLine
62
7
6
CONTINUOUS
10
-58.6974004757
20
-10.6500000000
11
-58.6974004757
21
-6.7500000000
0
LINE
5
459
100
AcDbEntity
8
0
100
AcDbLine
62
7
6
CONTINUOUS
10
-57.7974004757
20
10.2270833333
11
-57.7974004757
21
9.8500000000
0
LINE
5
45A
100
AcDbEntity
8
0
100
AcDbLine
62
7
6
CONTINUOUS
10
-60.9974004757
20
-7.5127313221
11
-60.9474004757
21
-7.5122949787
0
LINE
5
45B
100
AcDbEntity
8
0
100
AcDbLine
62
9
6
CONTINUOUS
10
-61.4974004757
20
-8.7023806572
11
-62.7974004757
21
-8.7023806572
0
LINE
5
45C
100
AcDbEntity
8
0
100
AcDbLine
62
9
6
CONTINUOUS
10
-62.2402576517
20
-7.4952386856
11
-61.4974004757
21
-7.4952386856
0
LINE
5
45D
100
AcDbEntity
8
0
100
AcDbLine
62
7
6
CONTINUOUS
10
-60.1974004757
20
-6.6000000000
11
-60.6974004757
21
-6.6000000000
0
LINE
5
45E
100
AcDbEntity
8
0
100
AcDbLine
62
7
6
CONTINUOUS
10
-60.9974004757
20
-6.6872686779
11
-60.9474004757
21
-6.6877050213
0
LINE
5
45F
100
AcDbEntity
8
0
100
AcDbLine
62
7
6
CONTINUOUS
10
-54.2474004757
20
9.8500000000
11
-54.2474004757
21
11.3500000000
0
LINE
5
460
100
AcDbEntity
8
0
100
AcDbLine
62
7
6
CONTINUOUS
10
-58.9974004757
20
-6.4500000000
11
-59.9974004757
21
-6.4500000000
0
LINE
5
461
100
AcDbEntity
8
0
100
AcDbLine
62
7
6
CONTINUOUS
10
-60.1974004757
20
-6.2500000000
11
-59.9974004757
21
-6.2500000000
0
LINE
5
462
100
AcDbEntity
8
0
100
AcDbLine
62
9
6
CONTINUOUS
10
-60.6974004757
20
-4.9377145409
11
-60.9452188418
21
-4.9377145409
0
LINE
5
463
100
AcDbEntity
8
0
100
AcDbLine
62
9
6
CONTINUOUS
10
-60.9452188418
20
-4.9377145409
11
-60.9974004757
21
-4.9372591587
0
LINE
5
464
100
AcDbEntity
8
0
100
AcDbLine
62
7
6
CONTINUOUS
10
-60.9452188418
20
-4.6877240601
11
-60.9974004757
21
-4.6872686779
0
LINE
5
465
100
AcDbEntity
8
0
100
AcDbLine
62
7
6
CONTINUOUS
10
-57.8585867519
20
10.5207774593
11
-57.7974004757
21
10.2270833333
0
LINE
5
466
100
AcDbEntity
8
0
100
AcDbLine
62
7
6
CONTINUOUS
10
-53.8974004757
20
13.2000000000
11
-53.8974004757
21
13.5000000000
0
LINE
5
467
100
AcDbEntity
8
0
100
AcDbLine
62
7
6
CONTINUOUS
10
-52.3974004757
20
9.8500000000
11
-52.3974004757
21
13.5000000000
0
LINE
5
468
100
AcDbEntity
8
0
100
AcDbLine
62
7
6
CONTINUOUS
10
-52.0974004757
20
13.2000000000
11
-52.0974004757
21
9.8500000000
0
LINE
5
469
100
AcDbEntity
8
0
100
AcDbLine
62
7
6
CONTINUOUS
10
-51.9974004757
20
-19.3494846765
11
-51.9974004757
21
-23.9366131004
0
LINE
5
46A
100
AcDbEntity
8
0
100
AcDbLine
62
7
6
CONTINUOUS
10
-51.9974004757
20
19.3494846765
11
-51.9974004757
21
23.9371671261
0
LINE
5
46B
100
AcDbEntity
8
0
100
AcDbLine
62
9
6
CONTINUOUS
10
-65.6259719204
20
11.1357142918
11
-65.8974004757
21
11.4071428612
0
LINE
5
46C
100
AcDbEntity
8
0
100
AcDbLine
62
9
6
CONTINUOUS
10
-65.2188290309
20
13.3523810387
11
-65.0831148099
21
13.1714286685
0
LINE
5
46D
100
AcDbEntity
8
0
100
AcDbLine
62
9
6
CONTINUOUS
10
-62.7974004757
20
-7.8666670799
11
-62.2402576517
21
-7.4952386856
0
LINE
5
46E
100
AcDbEntity
8
0
100
AcDbLine
62
9
6
CONTINUOUS
10
-64.2688290592
20
11.8142857224
11
-63.9974004757
21
11.5428571671
0
LINE
5
46F
100
AcDbEntity
8
0
100
AcDbLine
62
9
6
CONTINUOUS
10
-65.0831148099
20
12.7642856658
11
-64.8116861981
21
12.4928571105
0
LINE
5
470
100
AcDbEntity
8
0
100
AcDbLine
62
9
6
CONTINUOUS
10
-64.2688290592
20
13.4428571105
11
-63.9974004757
21
13.1714286685
0
LINE
5
471
100
AcDbEntity
8
0
100
AcDbLine
62
9
6
CONTINUOUS
10
-65.1885198087
20
-8.2550232093
11
-63.9974224757
21
-7.6376190000
0
LINE
5
472
100
AcDbEntity
8
0
100
AcDbLine
62
9
6
CONTINUOUS
10
-63.9974154757
20
-8.2909240000
11
-65.1187654757
21
-8.8721780000
0
LINE
5
473
100
AcDbEntity
8
0
100
AcDbLine
62
7
6
CONTINUOUS
10
-60.9974004757
20
1.5372686779
11
-60.9452188418
21
1.5377240601
0
LINE
5
474
100
AcDbEntity
8
0
100
AcDbLine
62
7
6
CONTINUOUS
10
-41.3974004757
20
0.7500000000
11
-42.2974004757
21
0.7500000000
0
LINE
5
475
100
AcDbEntity
8
0
100
AcDbLine
62
7
6
CONTINUOUS
10
-40.4474004757
20
0.8500000000
11
-41.1738785362
21
0.8500000000
0
LINE
5
476
100
AcDbEntity
8
0
100
AcDbLine
62
7
6
CONTINUOUS
10
-26.3974004757
20
1.5000000000
11
-40.4474004757
21
1.5000000000
0
LINE
5
477
100
AcDbEntity
8
0
100
AcDbLine
62
7
6
CONTINUOUS
10
-26.3974004757
20
1.8000000000
11
-40.4474004757
21
1.8000000000
0
LINE
5
478
100
AcDbEntity
8
0
100
AcDbLine
62
7
6
CONTINUOUS
10
-60.9974004757
20
2.3627313221
11
-60.9474004757
21
2.3622949787
0
LINE
5
479
100
AcDbEntity
8
0
100
AcDbLine
62
9
6
CONTINUOUS
10
-65.6259719204
20
12.5833332956
11
-65.8974004757
21
12.7642856658
0
LINE
5
47A
100
AcDbEntity
8
0
100
AcDbLine
62
9
6
CONTINUOUS
10
-65.6259719204
20
16.8357142210
11
-65.8974004757
21
17.1071426630
0
LINE
5
47B
100
AcDbEntity
8
0
100
AcDbLine
62
9
6
CONTINUOUS
10
-64.2688290592
20
16.2928573370
11
-63.9974004757
21
16.0214284420
0
LINE
5
47C
100
AcDbEntity
8
0
100
AcDbLine
62
9
6
CONTINUOUS
10
-64.5402576428
20
17.6500000000
11
-63.9974004757
21
17.1071426630
0
LINE
5
47D
100
AcDbEntity
8
0
100
AcDbLine
62
9
6
CONTINUOUS
10
-62.7974004757
20
-17.3071429014
11
-62.6116862010
21
-17.1214287043
0
LINE
5
47E
100
AcDbEntity
8
0
100
AcDbLine
62
7
6
CONTINUOUS
10
-40.4474004757
20
3.1500000000
11
-41.0974004757
21
3.1500000000
0
LINE
5
47F
100
AcDbEntity
8
0
100
AcDbLine
62
9
6
CONTINUOUS
10
-65.3545433652
20
11.0000000000
11
-65.6259719204
21
11.1357142918
0
LINE
5
480
100
AcDbEntity
8
0
100
AcDbLine
62
9
6
CONTINUOUS
10
-64.5402576428
20
11.9500000000
11
-64.2688290592
21
11.8142857224
0
LINE
5
481
100
AcDbEntity
8
0
100
AcDbLine
62
9
6
CONTINUOUS
10
-62.7974004757
20
-13.8095238686
11
-61.4974004757
21
-13.1595238686
0
LINE
5
482
100
AcDbEntity
8
0
100
AcDbLine
62
9
6
CONTINUOUS
10
-66.8975454757
20
-11.2763210000
11
-63.9974074757
21
-10.3451820000
0
LINE
5
483
100
AcDbEntity
8
0
100
AcDbLine
62
9
6
CONTINUOUS
10
-65.1187654757
20
-11.2852460000
11
-65.9943044757
21
-11.5663500000
0
LINE
5
484
100
AcDbEntity
8
0
100
AcDbLine
62
9
6
CONTINUOUS
10
-63.9974154757
20
-10.9252110000
11
-64.5677434757
21
-11.1083170000
0
LINE
5
485
100
AcDbEntity
8
0
100
AcDbLine
62
9
6
CONTINUOUS
10
-62.7974004757
20
-9.4452386856
11
-61.4974004757
21
-9.0738090515
0
LINE
5
486
100
AcDbEntity
8
0
100
AcDbLine
62
7
6
CONTINUOUS
10
-40.9474004757
20
5.5000000000
11
-41.0974004757
21
5.5000000000
0
LINE
5
487
100
AcDbEntity
8
0
100
AcDbLine
62
7
6
CONTINUOUS
10
-42.5974004757
20
-10.6500000000
11
-42.5974004757
21
0.4500000000
0
LINE
5
488
100
AcDbEntity
8
0
100
AcDbLine
62
7
6
CONTINUOUS
10
-41.3974004757
20
13.0500000000
11
-41.3974004757
21
13.5000000000
0
LINE
5
489
100
AcDbEntity
8
0
100
AcDbLine
62
7
6
CONTINUOUS
10
-41.0974004757
20
1.0500000000
11
-41.0974004757
21
13.5000000000
0
LINE
5
48A
100
AcDbEntity
8
0
100
AcDbLine
62
7
6
CONTINUOUS
10
-41.0474004757
20
0.8500000000
11
-41.0474004757
21
3.1500000000
0
LINE
5
48B
100
AcDbEntity
8
0
100
AcDbLine
62
7
6
CONTINUOUS
10
-40.9474004757
20
5.9000000000
11
-40.9474004757
21
5.5000000000
0
LINE
5
48C
100
AcDbEntity
8
0
100
AcDbLine
62
7
6
CONTINUOUS
10
-60.9974004757
20
8.5872686779
11
-60.9452188418
21
8.5877240601
0
LINE
5
48D
100
AcDbEntity
8
0
100
AcDbLine
62
7
6
CONTINUOUS
10
-60.1974004757
20
9.0500000000
11
-59.9974004757
21
9.0500000000
0
LINE
5
48E
100
AcDbEntity
8
0
100
AcDbLine
62
7
6
CONTINUOUS
10
-60.8706278507
20
9.4000000000
11
-59.9974004757
21
9.4000000000
0
LINE
5
48F
100
AcDbEntity
8
0
100
AcDbLine
62
7
6
CONTINUOUS
10
-60.9974004757
20
9.4127313221
11
-60.9474004757
21
9.4122949787
0
LINE
5
490
100
AcDbEntity
8
0
100
AcDbLine
62
7
6
CONTINUOUS
10
-40.4474004757
20
0.8500000000
11
-40.4474004757
21
3.1500000000
0
LINE
5
491
100
AcDbEntity
8
0
100
AcDbLine
62
9
6
CONTINUOUS
10
-66.8975384757
20
-15.1341480000
11
-65.0088694757
21
-14.5925800000
0
LINE
5
492
100
AcDbEntity
8
0
100
AcDbLine
62
9
6
CONTINUOUS
10
-63.9974074757
20
-14.8825870000
11
-65.9098494757
21
-15.4309630000
0
LINE
5
493
100
AcDbEntity
8
0
100
AcDbLine
62
7
6
CONTINUOUS
10
-57.7974004757
20
10.2270833333
11
-56.2474004757
21
10.5500000000
0
LINE
5
494
100
AcDbEntity
8
0
100
AcDbLine
62
7
6
CONTINUOUS
10
-60.1974004757
20
9.7000000000
11
-59.9974004757
21
9.7000000000
0
LINE
5
495
100
AcDbEntity
8
0
100
AcDbLine
62
7
6
CONTINUOUS
10
-59.9974004757
20
9.8500000000
11
-52.0974004757
21
9.8500000000
0
LINE
5
496
100
AcDbEntity
8
0
100
AcDbLine
62
7
6
CONTINUOUS
10
-56.2474004757
20
10.5500000000
11
-54.2474004757
21
10.5500000000
0
LINE
5
497
100
AcDbEntity
8
0
100
AcDbLine
62
9
6
CONTINUOUS
10
-64.5402576428
20
11.0000000000
11
-65.3545433652
21
11.0000000000
0
LINE
5
498
100
AcDbEntity
8
0
100
AcDbLine
62
9
6
CONTINUOUS
10
-64.4045433369
20
13.9857142210
11
-65.8974004757
21
14.3928571105
0
LINE
5
499
100
AcDbEntity
8
0
100
AcDbLine
62
7
6
CONTINUOUS
10
-41.0974004757
20
6.2300000000
11
-40.9474004757
21
5.9000000000
0
LINE
5
49A
100
AcDbEntity
8
0
100
AcDbLine
62
7
6
CONTINUOUS
10
-38.0974004757
20
1.5000000000
11
-38.0974004757
21
1.8000000000
0
LINE
5
49B
100
AcDbEntity
8
0
100
AcDbLine
62
9
6
CONTINUOUS
10
-62.7974004757
20
-20.0000000000
11
-62.0545433384
21
-19.6285714120
0
LINE
5
49C
100
AcDbEntity
8
0
100
AcDbLine
62
9
6
CONTINUOUS
10
-66.8975384757
20
-19.4199710000
11
-64.9006414757
21
-18.7788390000
0
LINE
5
49D
100
AcDbEntity
8
0
100
AcDbLine
62
9
6
CONTINUOUS
10
-63.9974004757
20
-19.0688680000
11
-66.8975384757
21
-20.0000000000
0
LINE
5
49E
100
AcDbEntity
8
0
100
AcDbLine
62
7
6
CONTINUOUS
10
-60.9974004757
20
9.8668579335
11
-57.8585867519
21
10.5207774593
0
LINE
5
49F
100
AcDbEntity
8
0
100
AcDbLine
62
7
6
CONTINUOUS
10
-60.9974004757
20
12.8872686779
11
-60.9452188418
21
12.8877240601
0
LINE
5
4A0
100
AcDbEntity
8
0
100
AcDbLine
62
7
6
CONTINUOUS
10
-54.7474004757
20
11.8500000000
11
-60.9974004757
21
11.8500000000
0
LINE
5
4A1
100
AcDbEntity
8
0
100
AcDbLine
62
9
6
CONTINUOUS
10
-65.3545433652
20
11.9500000000
11
-64.5402576428
21
11.9500000000
0
LINE
5
4A2
100
AcDbEntity
8
0
100
AcDbLine
62
9
6
CONTINUOUS
10
-64.8116861981
20
12.4928571105
11
-64.2688290592
21
12.4928571105
0
LINE
5
4A3
100
AcDbEntity
8
0
100
AcDbLine
62
9
6
CONTINUOUS
10
-65.2188290309
20
12.5833332956
11
-65.6259719204
21
12.5833332956
0
LINE
5
4A4
100
AcDbEntity
8
0
100
AcDbLine
62
7
6
CONTINUOUS
10
-52.0974004757
20
13.0500000000
11
-41.0974004757
21
13.0500000000
0
LINE
5
4A5
100
AcDbEntity
8
0
100
AcDbLine
62
7
6
CONTINUOUS
10
-60.6974004757
20
13.1500000000
11
-52.7474004757
21
13.1500000000
0
LINE
5
4A6
100
AcDbEntity
8
0
100
AcDbLine
62
7
6
CONTINUOUS
10
-53.8974004757
20
13.2000000000
11
-52.3974004757
21
13.2000000000
0
LINE
5
4A7
100
AcDbEntity
8
0
100
AcDbLine
62
7
6
CONTINUOUS
10
-52.0974004757
20
13.2000000000
11
-41.3974004757
21
13.2000000000
0
LINE
5
4A8
100
AcDbEntity
8
0
100
AcDbLine
62
9
6
CONTINUOUS
10
-65.6259719204
20
13.3523810387
11
-65.2188290309
21
13.3523810387
0
LINE
5
4A9
100
AcDbEntity
8
0
100
AcDbLine
62
9
6
CONTINUOUS
10
-64.8116861981
20
13.4428571105
11
-64.2688290592
21
13.4428571105
0
LINE
5
4AA
100
AcDbEntity
8
0
100
AcDbLine
62
7
6
CONTINUOUS
10
-53.8974004757
20
13.5000000000
11
-41.0974004757
21
13.5000000000
0
LINE
5
4AB
100
AcDbEntity
8
0
100
AcDbLine
62
7
6
CONTINUOUS
10
-60.9974004757
20
13.7127313221
11
-60.9474004757
21
13.7122949787
0
LINE
5
4AC
100
AcDbEntity
8
0
100
AcDbLine
62
9
6
CONTINUOUS
10
-65.0831148099
20
17.7857142210
11
-64.5402576428
21
17.6500000000
0
LINE
5
4AD
100
AcDbEntity
8
0
100
AcDbLine
62
9
6
CONTINUOUS
10
-62.7974004757
20
-18.5142856479
11
-61.4974004757
21
-18.1428570986
0
LINE
5
4AE
100
AcDbEntity
8
0
100
AcDbLine
62
9
6
CONTINUOUS
10
-60.9974004757
20
15.0069695269
11
-60.9452188418
21
15.0075271701
0
LINE
5
4AF
100
AcDbEntity
8
0
100
AcDbLine
62
9
6
CONTINUOUS
10
-64.9474004757
20
14.6190476298
11
-63.9974004757
21
14.6190476298
0
LINE
5
4B0
100
AcDbEntity
8
0
100
AcDbLine
62
9
6
CONTINUOUS
10
-60.6974004757
20
15.0075271701
11
-60.9452188418
21
15.0075271701
0
LINE
5
4B1
100
AcDbEntity
8
0
100
AcDbLine
62
9
6
CONTINUOUS
10
-65.8974004757
20
15.4785715580
11
-65.0831148099
21
15.4785715580
0
LINE
5
4B2
100
AcDbEntity
8
0
100
AcDbLine
62
9
6
CONTINUOUS
10
-64.8116861981
20
16.2928573370
11
-64.2688290592
21
16.2928573370
0
LINE
5
4B3
100
AcDbEntity
8
0
100
AcDbLine
62
7
6
CONTINUOUS
10
-60.9974004757
20
15.3127313221
11
-60.9452188418
21
15.3122759399
0
LINE
5
4B4
100
AcDbEntity
8
0
100
AcDbLine
62
7
6
CONTINUOUS
10
-32.3974004757
20
1.5000000000
11
-32.3974004757
21
1.8000000000
0
LINE
5
4B5
100
AcDbEntity
8
0
100
AcDbLine
62
7
6
CONTINUOUS
10
-31.3974004757
20
1.5000000000
11
-31.3974004757
21
1.8000000000
0
LINE
5
4B6
100
AcDbEntity
8
0
100
AcDbLine
62
9
6
CONTINUOUS
10
-65.0831148099
20
16.8357142210
11
-65.6259719204
21
16.8357142210
0
LINE
5
4B7
100
AcDbEntity
8
0
100
AcDbLine
62
9
6
CONTINUOUS
10
-65.6259719204
20
17.7857142210
11
-65.0831148099
21
17.7857142210
0
LINE
5
4B8
100
AcDbEntity
8
0
100
AcDbLine
62
7
6
CONTINUOUS
10
-61.5905323934
20
-24.5697835088
11
-59.8114366997
21
-23.9917202764
0
LINE
5
4B9
100
AcDbEntity
8
0
100
AcDbLine
62
7
6
CONTINUOUS
10
-61.4669255956
20
-24.9502061153
11
-58.4885858983
21
-23.9824848856
0
LINE
5
4BA
100
AcDbEntity
8
0
100
AcDbLine
62
7
6
CONTINUOUS
10
-51.9974004757
20
19.3494846765
11
-55.9731781886
21
19.3286673628
0
LINE
5
4BB
100
AcDbEntity
8
0
100
AcDbLine
62
9
6
CONTINUOUS
10
-51.9974004757
20
19.6494805642
11
-55.1369158841
21
19.6330419497
0
LINE
5
4BC
100
AcDbEntity
8
0
100
AcDbLine
62
9
6
CONTINUOUS
10
-72.4974004757
20
20.8313127805
11
-72.2517635773
21
20.8313127805
0
LINE
5
4BD
100
AcDbEntity
8
0
100
AcDbLine
62
7
6
CONTINUOUS
10
-61.5905323934
20
24.5697835088
11
-59.8114366997
21
23.9917202764
0
LINE
5
4BE
100
AcDbEntity
8
0
100
AcDbLine
62
7
6
CONTINUOUS
10
-61.4669255956
20
24.9502061153
11
-58.4885858983
21
23.9824848856
0
LINE
5
4BF
100
AcDbEntity
8
0
100
AcDbLine
62
7
6
CONTINUOUS
10
-27.3974004757
20
1.5000000000
11
-27.3974004757
21
1.8000000000
0
LINE
5
4C0
100
AcDbEntity
8
0
100
AcDbLine
62
9
6
CONTINUOUS
10
-71.0148533074
20
22.0812442423
11
-67.1197196256
21
22.1220354779
0
LINE
5
4C1
100
AcDbEntity
8
0
100
AcDbLine
62
7
6
CONTINUOUS
10
-71.0131081519
20
22.3312305346
11
-67.7350019918
21
22.3655600369
0
LINE
5
4C2
100
AcDbEntity
8
0
100
AcDbLine
62
7
6
CONTINUOUS
10
-26.3974004757
20
1.5000000000
11
-26.3974004757
21
1.8000000000
0
LINE
5
4C3
100
AcDbEntity
8
0
100
AcDbLine
62
9
6
CONTINUOUS
10
-67.1197196256
20
23.7072818230
11
-60.9974004757
21
23.7500243682
0
LINE
5
4C4
100
AcDbEntity
8
0
100
AcDbLine
62
7
6
CONTINUOUS
10
-67.7491450108
20
23.9528631652
11
-60.9974004757
21
24.0000000000
0
LINE
5
4C5
100
AcDbEntity
8
0
100
AcDbLine
62
9
6
CONTINUOUS
10
-62.4974004757
20
24.2844665539
11
-62.8974004757
21
24.2844665539
0
LINE
5
4C6
100
AcDbEntity
8
0
100
AcDbLine
62
7
6
CONTINUOUS
10
-62.1974004757
20
24.5844665539
11
-61.6832374917
21
24.5844665539
0
LINE
5
4C7
100
AcDbEntity
8
0
100
AcDbLine
62
7
6
CONTINUOUS
10
-62.1974004757
20
24.9844665539
11
-61.6832374917
21
24.9844665539
0
LINE
5
4C8
100
AcDbEntity
8
0
100
AcDbLine
62
9
6
CONTINUOUS
10
-60.9974004757
20
23.7500243682
11
-51.9974004757
21
23.6871914943
0
LINE
5
4C9
100
AcDbEntity
8
0
100
AcDbLine
62
7
6
CONTINUOUS
10
-60.9974004757
20
24.0000000000
11
-51.9974004757
21
23.9371671261
0
ARC
5
4CA
100
AcDbEntity
8
0
100
AcDbCircle
62
7
6
CONTINUOUS
10
-5.2332662348
20
-23.7844665539
40
0.2000000000
100
AcDbArc
50
270.0000000000
51
355.0000000000
0
ARC
5
4CB
100
AcDbEntity
8
0
100
AcDbCircle
62
7
6
CONTINUOUS
10
2.6332662348
20
-23.7844665539
40
0.2000000000
100
AcDbArc
50
185.0000000000
51
270.0000000000
0
ARC
5
4CC
100
AcDbEntity
8
0
100
AcDbCircle
62
7
6
CONTINUOUS
10
2.6332662348
20
23.7844665539
40
0.2000000000
100
AcDbArc
50
90.0000000000
51
175.0000000000
0
ARC
5
4CD
100
AcDbEntity
8
0
100
AcDbCircle
62
7
6
CONTINUOUS
10
-5.2332662348
20
23.7844665539
40
0.2000000000
100
AcDbArc
50
5.0000000000
51
90.0000000000
0
ARC
5
4CE
100
AcDbEntity
8
0
100
AcDbCircle
62
7
6
CONTINUOUS
10
6.6500000000
20
-12.1500000000
40
1.0000000000
100
AcDbArc
50
0.0000000000
51
90.0000000000
0
ARC
5
4CF
100
AcDbEntity
8
0
100
AcDbCircle
62
7
6
CONTINUOUS
10
6.6500000000
20
-19.0500000000
40
1.0000000000
100
AcDbArc
50
270.0000000000
51
360.0000000000
0
ARC
5
4D0
100
AcDbEntity
8
0
100
AcDbCircle
62
7
6
CONTINUOUS
10
-9.2500000000
20
-19.0500000000
40
1.0000000000
100
AcDbArc
50
180.0000000000
51
270.0000000000
0
ARC
5
4D1
100
AcDbEntity
8
0
100
AcDbCircle
62
7
6
CONTINUOUS
10
-9.2500000000
20
-12.1500000000
40
1.0000000000
100
AcDbArc
50
90.0000000000
51
180.0000000000
0
ARC
5
4D2
100
AcDbEntity
8
0
100
AcDbCircle
62
9
6
CONTINUOUS
10
6.6500000000
20
-19.0500000000
40
0.2999999570
100
AcDbArc
50
270.0000000000
51
360.0000000000
0
ARC
5
4D3
100
AcDbEntity
8
0
100
AcDbCircle
62
9
6
CONTINUOUS
10
-9.2500000000
20
-19.0500000000
40
0.2999999570
100
AcDbArc
50
180.0000000000
51
270.0000000000
0
ARC
5
4D4
100
AcDbEntity
8
0
100
AcDbCircle
62
9
6
CONTINUOUS
10
6.6500000000
20
-12.1500000000
40
0.2999999570
100
AcDbArc
50
0.0000000000
51
90.0000000000
0
ARC
5
4D5
100
AcDbEntity
8
0
100
AcDbCircle
62
9
6
CONTINUOUS
10
-9.2500000000
20
-12.1500000000
40
0.2999999570
100
AcDbArc
50
90.0000000000
51
180.0000000000
0
ARC
5
4D6
100
AcDbEntity
8
0
100
AcDbCircle
62
7
6
CONTINUOUS
10
-9.3000000000
20
-19.1000000000
40
1.0104874724
100
AcDbArc
50
180.0000000000
51
270.0000000000
0
ARC
5
4D7
100
AcDbEntity
8
0
100
AcDbCircle
62
7
6
CONTINUOUS
10
-9.3000000000
20
-12.1000000000
40
1.0104874724
100
AcDbArc
50
90.0000000000
51
180.0000000000
0
ARC
5
4D8
100
AcDbEntity
8
0
100
AcDbCircle
62
7
6
CONTINUOUS
10
6.7000000000
20
-12.1000000000
40
1.0104874724
100
AcDbArc
50
0.0000000000
51
90.0000000000
0
ARC
5
4D9
100
AcDbEntity
8
0
100
AcDbCircle
62
7
6
CONTINUOUS
10
6.7000000000
20
-19.1000000000
40
1.0104874724
100
AcDbArc
50
270.0000000000
51
360.0000000000
0
ARC
5
4DA
100
AcDbEntity
8
0
100
AcDbCircle
62
9
6
CONTINUOUS
10
-9.3000000000
20
-12.1000000000
40
1.2104793071
100
AcDbArc
50
90.0000000000
51
180.0000000000
0
ARC
5
4DB
100
AcDbEntity
8
0
100
AcDbCircle
62
9
6
CONTINUOUS
10
-9.3000000000
20
-19.1000000000
40
1.2104793071
100
AcDbArc
50
180.0000000000
51
270.0000000000
0
ARC
5
4DC
100
AcDbEntity
8
0
100
AcDbCircle
62
9
6
CONTINUOUS
10
6.7000000000
20
-19.1000000000
40
1.2104793071
100
AcDbArc
50
270.0000000000
51
360.0000000000
0
ARC
5
4DD
100
AcDbEntity
8
0
100
AcDbCircle
62
9
6
CONTINUOUS
10
6.7000000000
20
-12.1000000000
40
1.2104793071
100
AcDbArc
50
0.0000000000
51
90.0000000000
0
ARC
5
4DE
100
AcDbEntity
8
0
100
AcDbCircle
62
7
6
CONTINUOUS
10
-9.3000000000
20
-12.1000000000
40
1.0000000000
100
AcDbArc
50
90.0000000000
51
180.0000000000
0
ARC
5
4DF
100
AcDbEntity
8
0
100
AcDbCircle
62
7
6
CONTINUOUS
10
-9.3000000000
20
-19.1000000000
40
1.0000000000
100
AcDbArc
50
180.0000000000
51
270.0000000000
0
ARC
5
4E0
100
AcDbEntity
8
0
100
AcDbCircle
62
7
6
CONTINUOUS
10
6.7000000000
20
-19.1000000000
40
1.0000000000
100
AcDbArc
50
270.0000000000
51
360.0000000000
0
ARC
5
4E1
100
AcDbEntity
8
0
100
AcDbCircle
62
7
6
CONTINUOUS
10
6.7000000000
20
-12.1000000000
40
1.0000000000
100
AcDbArc
50
0.0000000000
51
90.0000000000
0
ARC
5
4E2
100
AcDbEntity
8
0
100
AcDbCircle
62
7
6
CONTINUOUS
10
-72.7974004757
20
-11.8500000000
40
0.7000000000
100
AcDbArc
50
90.0000000000
51
180.0000000000
0
ARC
5
4E3
100
AcDbEntity
8
0
100
AcDbCircle
62
7
6
CONTINUOUS
10
-72.7974004757
20
-19.3500000000
40
0.7000000000
100
AcDbArc
50
180.0000000000
51
270.0000000000
0
ARC
5
4E4
100
AcDbEntity
8
0
100
AcDbCircle
62
7
6
CONTINUOUS
10
-61.6832374917
20
-24.2844665539
40
0.7000000000
100
AcDbArc
50
270.0000000000
51
288.0000000000
0
ARC
5
4E5
100
AcDbEntity
8
0
100
AcDbCircle
62
7
6
CONTINUOUS
10
-62.1974004757
20
-24.2844665539
40
0.7000000000
100
AcDbArc
50
180.0000000000
51
270.0000000000
0
ARC
5
4E6
100
AcDbEntity
8
0
100
AcDbCircle
62
7
6
CONTINUOUS
10
-61.6832374917
20
24.2844665539
40
0.7000000000
100
AcDbArc
50
72.0000000000
51
90.0000000000
0
ARC
5
4E7
100
AcDbEntity
8
0
100
AcDbCircle
62
7
6
CONTINUOUS
10
-62.1974004757
20
24.2844665539
40
0.7000000000
100
AcDbArc
50
90.0000000000
51
180.0000000000
0
ARC
5
4E8
100
AcDbEntity
8
0
100
AcDbCircle
62
7
6
CONTINUOUS
10
-58.3974004757
20
-10.6500000000
40
0.3000000000
100
AcDbArc
50
180.0000000000
51
270.0000000000
0
ARC
5
4E9
100
AcDbEntity
8
0
100
AcDbCircle
62
7
6
CONTINUOUS
10
-42.8974004757
20
-10.6500000000
40
0.3000000000
100
AcDbArc
50
270.0000000000
51
360.0000000000
0
ARC
5
4EA
100
AcDbEntity
8
0
100
AcDbCircle
62
7
6
CONTINUOUS
10
-58.9974004757
20
-6.7500000000
40
0.3000000000
100
AcDbArc
50
0.0000000000
51
90.0000000000
0
ARC
5
4EB
100
AcDbEntity
8
0
100
AcDbCircle
62
7
6
CONTINUOUS
10
-42.2974004757
20
0.4500000000
40
0.3000000000
100
AcDbArc
50
90.0000000000
51
180.0000000000
0
ARC
5
4EC
100
AcDbEntity
8
0
100
AcDbCircle
62
7
6
CONTINUOUS
10
-41.3974004757
20
1.0500000000
40
0.3000000000
100
AcDbArc
50
270.0000000000
51
360.0000000000
0
ARC
5
4ED
100
AcDbEntity
8
0
100
AcDbCircle
62
7
6
CONTINUOUS
10
-54.7474004757
20
11.3500000000
40
0.5000000000
100
AcDbArc
50
0.0000000000
51
90.0000000000
0
ARC
5
4EE
100
AcDbEntity
8
0
100
AcDbCircle
62
7
6
CONTINUOUS
10
-52.7474004757
20
12.6500000000
40
0.5000000000
100
AcDbArc
50
45.5479700582
51
90.0000000000
0
ARC
5
4EF
100
AcDbEntity
8
0
100
AcDbCircle
62
7
6
CONTINUOUS
10
-60.9474004757
20
13.1377145409
40
0.2500000000
100
AcDbArc
50
270.5000000000
51
360.0000000000
0
ARC
5
4F0
100
AcDbEntity
8
0
100
AcDbCircle
62
7
6
CONTINUOUS
10
-60.9474004757
20
13.4622854591
40
0.2500000000
100
AcDbArc
50
0.0000000000
51
89.5000000000
0
ARC
5
4F1
100
AcDbEntity
8
0
100
AcDbCircle
62
7
6
CONTINUOUS
10
-60.9474004757
20
-7.2622854591
40
0.2500000000
100
AcDbArc
50
270.5000000000
51
360.0000000000
0
ARC
5
4F2
100
AcDbEntity
8
0
100
AcDbCircle
62
7
6
CONTINUOUS
10
-60.9474004757
20
-6.9377145409
40
0.2500000000
100
AcDbArc
50
0.0000000000
51
89.5000000000
0
ARC
5
4F3
100
AcDbEntity
8
0
100
AcDbCircle
62
7
6
CONTINUOUS
10
-60.9474004757
20
8.8377145409
40
0.2500000000
100
AcDbArc
50
270.5000000000
51
360.0000000000
0
ARC
5
4F4
100
AcDbEntity
8
0
100
AcDbCircle
62
7
6
CONTINUOUS
10
-60.9474004757
20
9.1622854591
40
0.2500000000
100
AcDbArc
50
0.0000000000
51
89.5000000000
0
ARC
5
4F5
100
AcDbEntity
8
0
100
AcDbCircle
62
7
6
CONTINUOUS
10
-60.9474004757
20
1.7877145409
40
0.2500000000
100
AcDbArc
50
270.5000000000
51
360.0000000000
0
ARC
5
4F6
100
AcDbEntity
8
0
100
AcDbCircle
62
7
6
CONTINUOUS
10
-60.9474004757
20
2.1122854591
40
0.2500000000
100
AcDbArc
50
0.0000000000
51
90.0000000000
0
ARC
5
4F7
100
AcDbEntity
8
0
100
AcDbCircle
62
7
6
CONTINUOUS
10
-67.7473996918
20
23.7028692576
40
0.2500000000
100
AcDbArc
50
90.4000000000
51
179.9999990292
0
ARC
5
4F8
100
AcDbEntity
8
0
100
AcDbCircle
62
7
6
CONTINUOUS
10
-67.7473868569
20
-23.7028693472
40
0.2500000000
100
AcDbArc
50
180.0000169474
51
269.6000000000
0
ARC
5
4F9
100
AcDbEntity
8
0
100
AcDbCircle
62
7
6
CONTINUOUS
10
-60.9474004757
20
15.0622843089
40
0.2500000000
100
AcDbArc
50
0.0002636096
51
89.5000023004
0
ARC
5
4FA
100
AcDbEntity
8
0
100
AcDbCircle
62
7
6
CONTINUOUS
10
-60.9474004757
20
-9.2622821115
40
0.2500000000
100
AcDbArc
50
270.4999933050
51
359.9992327859
0
ARC
5
4FB
100
AcDbEntity
8
0
100
AcDbCircle
62
7
6
CONTINUOUS
10
-60.9474004757
20
-4.9377145409
40
0.2500000000
100
AcDbArc
50
0.0000000000
51
89.5000000000
0
ARC
5
4FC
100
AcDbEntity
8
0
100
AcDbCircle
62
7
6
CONTINUOUS
10
-70.9974004757
20
20.8313127805
40
1.5000000000
100
AcDbArc
50
90.6000000000
51
180.0000000000
0
ARC
5
4FD
100
AcDbEntity
8
0
100
AcDbCircle
62
7
6
CONTINUOUS
10
-70.9974004757
20
-20.8313127805
40
1.5000000000
100
AcDbArc
50
180.0000000000
51
269.4000000000
0
ARC
5
4FE
100
AcDbEntity
8
0
100
AcDbCircle
62
7
6
CONTINUOUS
10
-61.6832374917
20
-24.2844665539
40
0.3000000000
100
AcDbArc
50
270.0000000000
51
288.0000000000
0
ARC
5
4FF
100
AcDbEntity
8
0
100
AcDbCircle
62
7
6
CONTINUOUS
10
-62.1974004757
20
-24.2844665539
40
0.3000000000
100
AcDbArc
50
180.0000000000
51
270.0000000000
0
ARC
5
500
100
AcDbEntity
8
0
100
AcDbCircle
62
7
6
CONTINUOUS
10
-61.6832374917
20
24.2844665539
40
0.3000000000
100
AcDbArc
50
72.0000000000
51
90.0000000000
0
ARC
5
501
100
AcDbEntity
8
0
100
AcDbCircle
62
7
6
CONTINUOUS
10
-62.1974004757
20
24.2844665539
40
0.3000000000
100
AcDbArc
50
90.0000000000
51
180.0000000000
0
SPLINE
5
502
100
AcDbEntity
8
0
100
AcDbSpline
62
7
6
CONTINUOUS
70
0
71
3
72
15
73
11
74
9
42
0.0000001000
43
0.0000001000
44
0.0000000001
12
-0.2198589173
22
0.0000000000
32
0.0000000000
13
0.0000000000
23
-0.2198589173
33
0.0000000000
40
0.0000000000
40
0.0000000000
40
0.0000000000
40
0.0000000000
40
0.1775508236
40
0.3489475586
40
0.5083491360
40
0.6505618283
40
0.7714455810
40
0.8685458831
40
0.9424410166
40
1.0000000000
40
1.0000000000
40
1.0000000000
40
1.0000000000
10
-5.6000000000
20
-23.8428760137
30
0.0000000000
10
-5.6130120439
20
-23.8428760137
30
0.0000000000
10
-5.6385923832
20
-23.8436409768
30
0.0000000000
10
-5.6757147443
20
-23.8470572782
30
0.0000000000
10
-5.7099688610
20
-23.8525936792
30
0.0000000000
10
-5.7400655298
20
-23.8600308989
30
0.0000000000
10
-5.7649578504
20
-23.8690491367
30
0.0000000000
10
-5.7837898517
20
-23.8793989936
30
0.0000000000
10
-5.7964174353
20
-23.8908461568
30
0.0000000000
10
-5.8000000000
20
-23.9004611274
30
0.0000000000
10
-5.8000000000
20
-23.9046794126
30
0.0000000000
11
-5.6000000000
21
-23.8428760137
31
0.0000000000
11
-5.6390180644
21
-23.8440635487
31
0.0000000000
11
-5.6765366865
21
-23.8475805174
31
0.0000000000
11
-5.7111140466
21
-23.8532917645
31
0.0000000000
11
-5.7414213562
21
-23.8609778102
31
0.0000000000
11
-5.7662939225
21
-23.8703432839
31
0.0000000000
11
-5.7847759065
21
-23.8810282758
31
0.0000000000
11
-5.7961570561
21
-23.8926221676
31
0.0000000000
11
-5.8000000000
21
-23.9046794126
31
0.0000000000
0
SPLINE
5
503
100
AcDbEntity
8
0
100
AcDbSpline
62
7
6
CONTINUOUS
70
0
71
3
72
15
73
11
74
9
42
0.0000001000
43
0.0000001000
44
0.0000000001
12
0.0000000000
22
0.2198589173
32
0.0000000000
13
-0.2198589173
23
0.0000000000
33
0.0000000000
40
0.0000000000
40
0.0000000000
40
0.0000000000
40
0.0000000000
40
0.0575589834
40
0.1314541169
40
0.2285544190
40
0.3494381717
40
0.4916508640
40
0.6510524414
40
0.8224491764
40
1.0000000000
40
1.0000000000
40
1.0000000000
40
1.0000000000
10
3.2000000000
20
-23.9046794126
30
0.0000000000
10
3.2000000000
20
-23.9004611274
30
0.0000000000
10
3.1964174353
20
-23.8908461568
30
0.0000000000
10
3.1837898517
20
-23.8793989936
30
0.0000000000
10
3.1649578504
20
-23.8690491367
30
0.0000000000
10
3.1400655298
20
-23.8600308989
30
0.0000000000
10
3.1099688610
20
-23.8525936792
30
0.0000000000
10
3.0757147443
20
-23.8470572782
30
0.0000000000
10
3.0385923832
20
-23.8436409768
30
0.0000000000
10
3.0130120439
20
-23.8428760137
30
0.0000000000
10
3.0000000000
20
-23.8428760137
30
0.0000000000
11
3.2000000000
21
-23.9046794126
31
0.0000000000
11
3.1961570561
21
-23.8926221676
31
0.0000000000
11
3.1847759065
21
-23.8810282758
31
0.0000000000
11
3.1662939225
21
-23.8703432839
31
0.0000000000
11
3.1414213562
21
-23.8609778102
31
0.0000000000
11
3.1111140466
21
-23.8532917645
31
0.0000000000
11
3.0765366865
21
-23.8475805174
31
0.0000000000
11
3.0390180644
21
-23.8440635487
31
0.0000000000
11
3.0000000000
21
-23.8428760137
31
0.0000000000
0
SPLINE
5
504
100
AcDbEntity
8
0
100
AcDbSpline
62
7
6
CONTINUOUS
70
0
71
3
72
15
73
11
74
9
42
0.0000001000
43
0.0000001000
44
0.0000000001
12
0.2198589173
22
0.0000000000
32
0.0000000000
13
0.0000000000
23
0.2198589173
33
0.0000000000
40
0.0000000000
40
0.0000000000
40
0.0000000000
40
0.0000000000
40
0.1775508236
40
0.3489475586
40
0.5083491360
40
0.6505618283
40
0.7714455810
40
0.8685458831
40
0.9424410166
40
1.0000000000
40
1.0000000000
40
1.0000000000
40
1.0000000000
10
3.0000000000
20
23.8428760137
30
0.0000000000
10
3.0130120439
20
23.8428760137
30
0.0000000000
10
3.0385923832
20
23.8436409768
30
0.0000000000
10
3.0757147443
20
23.8470572782
30
0.0000000000
10
3.1099688610
20
23.8525936792
30
0.0000000000
10
3.1400655298
20
23.8600308989
30
0.0000000000
10
3.1649578504
20
23.8690491367
30
0.0000000000
10
3.1837898517
20
23.8793989936
30
0.0000000000
10
3.1964174353
20
23.8908461568
30
0.0000000000
10
3.2000000000
20
23.9004611274
30
0.0000000000
10
3.2000000000
20
23.9046794126
30
0.0000000000
11
3.0000000000
21
23.8428760137
31
0.0000000000
11
3.0390180644
21
23.8440635487
31
0.0000000000
11
3.0765366865
21
23.8475805174
31
0.0000000000
11
3.1111140466
21
23.8532917645
31
0.0000000000
11
3.1414213562
21
23.8609778102
31
0.0000000000
11
3.1662939225
21
23.8703432839
31
0.0000000000
11
3.1847759065
21
23.8810282758
31
0.0000000000
11
3.1961570561
21
23.8926221676
31
0.0000000000
11
3.2000000000
21
23.9046794126
31
0.0000000000
0
SPLINE
5
505
100
AcDbEntity
8
0
100
AcDbSpline
62
7
6
CONTINUOUS
70
0
71
3
72
15
73
11
74
9
42
0.0000001000
43
0.0000001000
44
0.0000000001
12
0.0000000000
22
-0.2198589173
32
0.0000000000
13
0.2198589173
23
0.0000000000
33
0.0000000000
40
0.0000000000
40
0.0000000000
40
0.0000000000
40
0.0000000000
40
0.0575589834
40
0.1314541169
40
0.2285544190
40
0.3494381717
40
0.4916508640
40
0.6510524414
40
0.8224491764
40
1.0000000000
40
1.0000000000
40
1.0000000000
40
1.0000000000
10
-5.8000000000
20
23.9046794126
30
0.0000000000
10
-5.8000000000
20
23.9004611274
30
0.0000000000
10
-5.7964174353
20
23.8908461568
30
0.0000000000
10
-5.7837898517
20
23.8793989936
30
0.0000000000
10
-5.7649578504
20
23.8690491367
30
0.0000000000
10
-5.7400655298
20
23.8600308989
30
0.0000000000
10
-5.7099688610
20
23.8525936792
30
0.0000000000
10
-5.6757147443
20
23.8470572782
30
0.0000000000
10
-5.6385923832
20
23.8436409768
30
0.0000000000
10
-5.6130120439
20
23.8428760137
30
0.0000000000
10
-5.6000000000
20
23.8428760137
30
0.0000000000
11
-5.8000000000
21
23.9046794126
31
0.0000000000
11
-5.7961570561
21
23.8926221676
31
0.0000000000
11
-5.7847759065
21
23.8810282758
31
0.0000000000
11
-5.7662939225
21
23.8703432839
31
0.0000000000
11
-5.7414213562
21
23.8609778102
31
0.0000000000
11
-5.7111140466
21
23.8532917645
31
0.0000000000
11
-5.6765366865
21
23.8475805174
31
0.0000000000
11
-5.6390180644
21
23.8440635487
31
0.0000000000
11
-5.6000000000
21
23.8428760137
31
0.0000000000
0
SPLINE
5
506
100
AcDbEntity
8
0
100
AcDbSpline
62
7
6
CONTINUOUS
70
0
71
3
72
9
73
5
74
3
42
0.0000001000
43
0.0000001000
44
0.0000000001
12
-0.0309689213
22
-0.0178967955
32
0.0000000000
13
-0.0332667541
23
-0.0132764426
33
0.0000000000
40
0.0000000000
40
0.0000000000
40
0.0000000000
40
0.0000000000
40
0.9144213140
40
1.0000000000
40
1.0000000000
40
1.0000000000
40
1.0000000000
10
-11.8250596044
20
-23.9665039925
30
0.0000000000
10
-11.8344991516
20
-23.9719590630
30
0.0000000000
10
-11.8452164529
20
-23.9772523416
30
0.0000000000
10
-11.8562770354
20
-23.9817463884
30
0.0000000000
10
-11.8572260104
20
-23.9821251152
30
0.0000000000
11
-11.8250596044
21
-23.9665039925
31
0.0000000000
11
-11.8543864493
21
-23.9809713458
31
0.0000000000
11
-11.8572260104
21
-23.9821251152
31
0.0000000000
0
SPLINE
5
507
100
AcDbEntity
8
0
100
AcDbSpline
62
7
6
CONTINUOUS
70
0
71
3
72
9
73
5
74
3
42
0.0000001000
43
0.0000001000
44
0.0000000001
12
0.0332667541
22
-0.0132764426
32
0.0000000000
13
0.0309689213
23
-0.0178967955
33
0.0000000000
40
0.0000000000
40
0.0000000000
40
0.0000000000
40
0.0000000000
40
0.0855786860
40
1.0000000000
40
1.0000000000
40
1.0000000000
40
1.0000000000
10
-11.8572260104
20
23.9821251152
30
0.0000000000
10
-11.8562770354
20
23.9817463884
30
0.0000000000
10
-11.8452164529
20
23.9772523416
30
0.0000000000
10
-11.8344991516
20
23.9719590630
30
0.0000000000
10
-11.8250596044
20
23.9665039925
30
0.0000000000
11
-11.8572260104
21
23.9821251152
31
0.0000000000
11
-11.8543864493
21
23.9809713458
31
0.0000000000
11
-11.8250596044
21
23.9665039925
31
0.0000000000
0
SPLINE
5
508
100
AcDbEntity
8
0
100
AcDbSpline
62
7
6
CONTINUOUS
70
0
71
3
72
9
73
5
74
3
42
0.0000001000
43
0.0000001000
44
0.0000000001
12
0.0309718209
22
-0.0178995529
32
0.0000000000
13
0.0332700761
23
-0.0132805993
33
0.0000000000
40
0.0000000000
40
0.0000000000
40
0.0000000000
40
0.0000000000
40
0.9141197659
40
1.0000000000
40
1.0000000000
40
1.0000000000
40
1.0000000000
10
9.2250551358
20
-23.9665003013
30
0.0000000000
10
9.2344924537
20
-23.9719544130
30
0.0000000000
10
9.2452106757
20
-23.9772489566
30
0.0000000000
10
9.2562722623
20
-23.9817446083
30
0.0000000000
10
9.2572246763
20
-23.9821247886
30
0.0000000000
11
9.2250551358
21
-23.9665003013
31
0.0000000000
11
9.2543748515
21
-23.9809665409
31
0.0000000000
11
9.2572246763
21
-23.9821247886
31
0.0000000000
0
SPLINE
5
509
100
AcDbEntity
8
0
100
AcDbSpline
62
7
6
CONTINUOUS
70
0
71
3
72
9
73
5
74
3
42
0.0000001000
43
0.0000001000
44
0.0000000001
12
-0.0332700761
22
-0.0132805993
32
0.0000000000
13
-0.0309718209
23
-0.0178995529
33
0.0000000000
40
0.0000000000
40
0.0000000000
40
0.0000000000
40
0.0000000000
40
0.0858802341
40
1.0000000000
40
1.0000000000
40
1.0000000000
40
1.0000000000
10
9.2572246763
20
23.9821247886
30
0.0000000000
10
9.2562722623
20
23.9817446083
30
0.0000000000
10
9.2452106757
20
23.9772489566
30
0.0000000000
10
9.2344924537
20
23.9719544130
30
0.0000000000
10
9.2250551358
20
23.9665003013
30
0.0000000000
11
9.2572246763
21
23.9821247886
31
0.0000000000
11
9.2543748515
21
23.9809665409
31
0.0000000000
11
9.2250551358
21
23.9665003013
31
0.0000000000
0
SPLINE
5
50A
100
AcDbEntity
8
0
100
AcDbSpline
62
7
6
CONTINUOUS
70
0
71
3
72
14
73
10
74
8
42
0.0000001000
43
0.0000001000
44
0.0000000001
12
0.2762842310
22
-0.1105300879
32
0.0000000000
13
0.0000000000
23
-0.2971353993
33
0.0000000000
40
0.0000000000
40
0.0000000000
40
0.0000000000
40
0.0000000000
40
0.0101768417
40
0.1751468980
40
0.3401168657
40
0.5050874774
40
0.6700581322
40
0.8350292301
40
1.0000000000
40
1.0000000000
40
1.0000000000
40
1.0000000000
10
-11.7000867043
20
23.9192770510
30
0.0000000000
10
-11.6991494706
20
23.9189021020
30
0.0000000000
10
-11.6830583783
20
23.9123512122
30
0.0000000000
10
-11.6531538600
20
23.8963709396
30
0.0000000000
10
-11.6150161367
20
23.8650766635
30
0.0000000000
10
-11.5837143913
20
23.8269449273
30
0.0000000000
10
-11.5604539062
20
23.7834338183
30
0.0000000000
10
-11.5461291909
20
23.7362398564
30
0.0000000000
10
-11.5429044156
20
23.7034701248
30
0.0000000000
10
-11.5429044156
20
23.6871305730
30
0.0000000000
11
-11.7000867043
21
23.9192770510
31
0.0000000000
11
-11.6972818718
21
23.9181351619
31
0.0000000000
11
-11.6540500050
21
23.8950307577
31
0.0000000000
11
-11.6161555184
21
23.8639371391
31
0.0000000000
11
-11.5850546144
21
23.8260483841
31
0.0000000000
11
-11.5619432196
21
23.7828200523
31
0.0000000000
11
-11.5477104446
21
23.7359130563
31
0.0000000000
11
-11.5429044156
21
23.6871305730
31
0.0000000000
0
SPLINE
5
50B
100
AcDbEntity
8
0
100
AcDbSpline
62
7
6
CONTINUOUS
70
0
71
3
72
8
73
4
74
2
42
0.0000001000
43
0.0000001000
44
0.0000000001
12
-0.0884918707
22
-0.0353162570
32
0.0000000000
13
-0.0945151939
23
0.0000000000
33
0.0000000000
40
0.0000000000
40
0.0000000000
40
0.0000000000
40
0.0000000000
40
1.0000000000
40
1.0000000000
40
1.0000000000
40
1.0000000000
10
-11.8572260104
20
-23.9821251152
30
0.0000000000
10
-11.8867233007
20
-23.9938972009
30
0.0000000000
10
-11.9185634820
20
-24.0000000000
30
0.0000000000
10
-11.9500685466
20
-24.0000000000
30
0.0000000000
11
-11.8572260104
21
-23.9821251152
31
0.0000000000
11
-11.9500685466
21
-24.0000000000
31
0.0000000000
0
SPLINE
5
50C
100
AcDbEntity
8
0
100
AcDbSpline
62
7
6
CONTINUOUS
70
0
71
3
72
14
73
10
74
8
42
0.0000001000
43
0.0000001000
44
0.0000000001
12
-0.2762842310
22
0.1105300879
32
0.0000000000
13
-0.0000000000
23
0.2971353993
33
0.0000000000
40
0.0000000000
40
0.0000000000
40
0.0000000000
40
0.0000000000
40
0.0101768417
40
0.1751468980
40
0.3401168657
40
0.5050874774
40
0.6700581322
40
0.8350292301
40
1.0000000000
40
1.0000000000
40
1.0000000000
40
1.0000000000
10
9.1000867043
20
-23.9192770510
30
0.0000000000
10
9.0991494706
20
-23.9189021020
30
0.0000000000
10
9.0830583783
20
-23.9123512122
30
0.0000000000
10
9.0531538600
20
-23.8963709396
30
0.0000000000
10
9.0150161367
20
-23.8650766635
30
0.0000000000
10
8.9837143913
20
-23.8269449273
30
0.0000000000
10
8.9604539062
20
-23.7834338183
30
0.0000000000
10
8.9461291909
20
-23.7362398564
30
0.0000000000
10
8.9429044156
20
-23.7034701248
30
0.0000000000
10
8.9429044156
20
-23.6871305730
30
0.0000000000
11
9.1000867043
21
-23.9192770510
31
0.0000000000
11
9.0972818718
21
-23.9181351619
31
0.0000000000
11
9.0540500050
21
-23.8950307577
31
0.0000000000
11
9.0161555184
21
-23.8639371391
31
0.0000000000
11
8.9850546144
21
-23.8260483841
31
0.0000000000
11
8.9619432196
21
-23.7828200523
31
0.0000000000
11
8.9477104446
21
-23.7359130563
31
0.0000000000
11
8.9429044156
21
-23.6871305730
31
0.0000000000
0
SPLINE
5
50D
100
AcDbEntity
8
0
100
AcDbSpline
62
7
6
CONTINUOUS
70
0
71
3
72
8
73
4
74
2
42
0.0000001000
43
0.0000001000
44
0.0000000001
12
0.0884364228
22
-0.0353016534
32
0.0000000000
13
0.0944567056
23
0.0000000000
33
0.0000000000
40
0.0000000000
40
0.0000000000
40
0.0000000000
40
0.0000000000
40
1.0000000000
40
1.0000000000
40
1.0000000000
40
1.0000000000
10
9.2572246763
20
-23.9821247886
30
0.0000000000
10
9.2867034839
20
-23.9938920064
30
0.0000000000
10
9.3185220489
20
-24.0000000000
30
0.0000000000
10
9.3500076174
20
-24.0000000000
30
0.0000000000
11
9.2572246763
21
-23.9821247886
31
0.0000000000
11
9.3500076174
21
-24.0000000000
31
0.0000000000
0
SPLINE
5
50E
100
AcDbEntity
8
0
100
AcDbSpline
62
7
6
CONTINUOUS
70
0
71
3
72
14
73
10
74
8
42
0.0000001000
43
0.0000001000
44
0.0000000001
12
0.0000000000
22
0.2971353994
32
0.0000000000
13
0.2762842294
23
0.1105300870
33
0.0000000000
40
0.0000000000
40
0.0000000000
40
0.0000000000
40
0.0000000000
40
0.1649709169
40
0.3299423337
40
0.4949133163
40
0.6598840660
40
0.8248538957
40
0.9898236240
40
1.0000000000
40
1.0000000000
40
1.0000000000
40
1.0000000000
10
8.9429044156
20
23.6871305730
30
0.0000000000
10
8.9429044156
20
23.7034701394
30
0.0000000000
10
8.9461291983
20
23.7362399173
30
0.0000000000
10
8.9604539543
20
23.7834339509
30
0.0000000000
10
8.9837145096
20
23.8269451126
30
0.0000000000
10
9.0150163154
20
23.8650768421
30
0.0000000000
10
9.0531540452
20
23.8963710579
30
0.0000000000
10
9.0830584929
20
23.9123512637
30
0.0000000000
10
9.0991495140
20
23.9189021193
30
0.0000000000
10
9.1000867047
20
23.9192770512
30
0.0000000000
11
8.9429044156
21
23.6871305730
31
0.0000000000
11
8.9477104532
21
23.7359130994
31
0.0000000000
11
8.9619432728
21
23.7828201808
31
0.0000000000
11
8.9850547461
21
23.8260485811
31
0.0000000000
11
9.0161557151
21
23.8639373358
31
0.0000000000
11
9.0540502021
21
23.8950308893
31
0.0000000000
11
9.0972820003
21
23.9181352152
31
0.0000000000
11
9.1000867047
21
23.9192770512
31
0.0000000000
0
SPLINE
5
50F
100
AcDbEntity
8
0
100
AcDbSpline
62
7
6
CONTINUOUS
70
0
71
3
72
8
73
4
74
2
42
0.0000001000
43
0.0000001000
44
0.0000000001
12
-0.0944567056
22
0.0000000000
32
0.0000000000
13
-0.0884364228
23
-0.0353016534
33
0.0000000000
40
0.0000000000
40
0.0000000000
40
0.0000000000
40
0.0000000000
40
1.0000000000
40
1.0000000000
40
1.0000000000
40
1.0000000000
10
9.3500076174
20
24.0000000000
30
0.0000000000
10
9.3185220489
20
24.0000000000
30
0.0000000000
10
9.2867034839
20
23.9938920064
30
0.0000000000
10
9.2572246763
20
23.9821247886
30
0.0000000000
11
9.3500076174
21
24.0000000000
31
0.0000000000
11
9.2572246763
21
23.9821247886
31
0.0000000000
0
SPLINE
5
510
100
AcDbEntity
8
0
100
AcDbSpline
62
7
6
CONTINUOUS
70
0
71
3
72
11
73
7
74
5
42
0.0000001000
43
0.0000001000
44
0.0000000001
12
0.3901697090
22
0.0000000000
32
0.0000000000
13
0.0000000000
23
-0.3901697090
33
0.0000000000
40
0.0000000000
40
0.0000000000
40
0.0000000000
40
0.0000000000
40
0.2499979982
40
0.4999986853
40
0.7499986747
40
1.0000000000
40
1.0000000000
40
1.0000000000
40
1.0000000000
10
10.8499923826
20
24.0000000000
30
0.0000000000
10
10.8825062646
20
24.0000000000
30
0.0000000000
10
10.9482460118
20
23.9869951143
30
0.0000000000
10
11.0313462500
20
23.9313693305
30
0.0000000000
10
11.0869893136
20
23.8482792332
30
0.0000000000
10
11.1000000000
20
23.7825386830
30
0.0000000000
10
11.1000000000
20
23.7500243682
30
0.0000000000
11
10.8499923826
21
24.0000000000
31
0.0000000000
11
10.9456607770
21
23.9809755145
31
0.0000000000
11
11.0267700633
21
23.9267919275
31
0.0000000000
11
11.0809680747
21
23.8456926065
31
0.0000000000
11
11.1000000000
21
23.7500243682
31
0.0000000000
0
SPLINE
5
511
100
AcDbEntity
8
0
100
AcDbSpline
62
7
6
CONTINUOUS
70
0
71
3
72
11
73
7
74
5
42
0.0000001000
43
0.0000001000
44
0.0000000001
12
-0.3901697090
22
0.0000000000
32
0.0000000000
13
0.0000000000
23
-0.3901697090
33
0.0000000000
40
0.0000000000
40
0.0000000000
40
0.0000000000
40
0.0000000000
40
0.2499979982
40
0.4999986853
40
0.7499986747
40
1.0000000000
40
1.0000000000
40
1.0000000000
40
1.0000000000
10
-13.4499923826
20
24.0000000000
30
0.0000000000
10
-13.4825062646
20
24.0000000000
30
0.0000000000
10
-13.5482460118
20
23.9869951143
30
0.0000000000
10
-13.6313462500
20
23.9313693305
30
0.0000000000
10
-13.6869893136
20
23.8482792332
30
0.0000000000
10
-13.7000000000
20
23.7825386830
30
0.0000000000
10
-13.7000000000
20
23.7500243682
30
0.0000000000
11
-13.4499923826
21
24.0000000000
31
0.0000000000
11
-13.5456607770
21
23.9809755145
31
0.0000000000
11
-13.6267700633
21
23.9267919275
31
0.0000000000
11
-13.6809680747
21
23.8456926065
31
0.0000000000
11
-13.7000000000
21
23.7500243682
31
0.0000000000
0
SPLINE
5
512
100
AcDbEntity
8
0
100
AcDbSpline
62
7
6
CONTINUOUS
70
0
71
3
72
8
73
4
74
2
42
0.0000001000
43
0.0000001000
44
0.0000000001
12
0.0945151939
22
0.0000000000
32
0.0000000000
13
0.0884918707
23
-0.0353162570
33
0.0000000000
40
0.0000000000
40
0.0000000000
40
0.0000000000
40
0.0000000000
40
1.0000000000
40
1.0000000000
40
1.0000000000
40
1.0000000000
10
-11.9500685466
20
24.0000000000
30
0.0000000000
10
-11.9185634820
20
24.0000000000
30
0.0000000000
10
-11.8867233007
20
23.9938972009
30
0.0000000000
10
-11.8572260104
20
23.9821251152
30
0.0000000000
11
-11.9500685466
21
24.0000000000
31
0.0000000000
11
-11.8572260104
21
23.9821251152
31
0.0000000000
0
SPLINE
5
513
100
AcDbEntity
8
0
100
AcDbSpline
62
7
6
CONTINUOUS
70
0
71
3
72
14
73
10
74
8
42
0.0000001000
43
0.0000001000
44
0.0000000001
12
0.0000000000
22
-0.2971353994
32
0.0000000000
13
-0.2762842294
23
-0.1105300870
33
0.0000000000
40
0.0000000000
40
0.0000000000
40
0.0000000000
40
0.0000000000
40
0.1649709169
40
0.3299423337
40
0.4949133163
40
0.6598840660
40
0.8248538957
40
0.9898236240
40
1.0000000000
40
1.0000000000
40
1.0000000000
40
1.0000000000
10
-11.5429044156
20
-23.6871305730
30
0.0000000000
10
-11.5429044156
20
-23.7034701394
30
0.0000000000
10
-11.5461291983
20
-23.7362399173
30
0.0000000000
10
-11.5604539543
20
-23.7834339509
30
0.0000000000
10
-11.5837145096
20
-23.8269451126
30
0.0000000000
10
-11.6150163154
20
-23.8650768421
30
0.0000000000
10
-11.6531540452
20
-23.8963710579
30
0.0000000000
10
-11.6830584929
20
-23.9123512637
30
0.0000000000
10
-11.6991495140
20
-23.9189021193
30
0.0000000000
10
-11.7000867047
20
-23.9192770512
30
0.0000000000
11
-11.5429044156
21
-23.6871305730
31
0.0000000000
11
-11.5477104532
21
-23.7359130994
31
0.0000000000
11
-11.5619432728
21
-23.7828201808
31
0.0000000000
11
-11.5850547461
21
-23.8260485811
31
0.0000000000
11
-11.6161557151
21
-23.8639373358
31
0.0000000000
11
-11.6540502021
21
-23.8950308893
31
0.0000000000
11
-11.6972820003
21
-23.9181352152
31
0.0000000000
11
-11.7000867047
21
-23.9192770512
31
0.0000000000
0
SPLINE
5
514
100
AcDbEntity
8
0
100
AcDbSpline
62
7
6
CONTINUOUS
70
0
71
3
72
11
73
7
74
5
42
0.0000001000
43
0.0000001000
44
0.0000000001
12
0.0000000000
22
-0.3901697090
32
0.0000000000
13
0.3901697090
23
0.0000000000
33
0.0000000000
40
0.0000000000
40
0.0000000000
40
0.0000000000
40
0.0000000000
40
0.2500013253
40
0.5000013147
40
0.7500020018
40
1.0000000000
40
1.0000000000
40
1.0000000000
40
1.0000000000
10
-13.7000000000
20
-23.7500243682
30
0.0000000000
10
-13.7000000000
20
-23.7825386830
30
0.0000000000
10
-13.6869893136
20
-23.8482792332
30
0.0000000000
10
-13.6313462500
20
-23.9313693305
30
0.0000000000
10
-13.5482460118
20
-23.9869951143
30
0.0000000000
10
-13.4825062646
20
-24.0000000000
30
0.0000000000
10
-13.4499923826
20
-24.0000000000
30
0.0000000000
11
-13.7000000000
21
-23.7500243682
31
0.0000000000
11
-13.6809680747
21
-23.8456926065
31
0.0000000000
11
-13.6267700633
21
-23.9267919275
31
0.0000000000
11
-13.5456607770
21
-23.9809755145
31
0.0000000000
11
-13.4499923826
21
-24.0000000000
31
0.0000000000
0
SPLINE
5
515
100
AcDbEntity
8
0
100
AcDbSpline
62
7
6
CONTINUOUS
70
0
71
3
72
11
73
7
74
5
42
0.0000001000
43
0.0000001000
44
0.0000000001
12
0.0000000000
22
-0.3901697090
32
0.0000000000
13
-0.3901697090
23
-0.0000000000
33
0.0000000000
40
0.0000000000
40
0.0000000000
40
0.0000000000
40
0.0000000000
40
0.2500013253
40
0.5000013147
40
0.7500020018
40
1.0000000000
40
1.0000000000
40
1.0000000000
40
1.0000000000
10
11.1000000000
20
-23.7500243682
30
0.0000000000
10
11.1000000000
20
-23.7825386830
30
0.0000000000
10
11.0869893136
20
-23.8482792332
30
0.0000000000
10
11.0313462500
20
-23.9313693305
30
0.0000000000
10
10.9482460118
20
-23.9869951143
30
0.0000000000
10
10.8825062646
20
-24.0000000000
30
0.0000000000
10
10.8499923826
20
-24.0000000000
30
0.0000000000
11
11.1000000000
21
-23.7500243682
31
0.0000000000
11
11.0809680747
21
-23.8456926065
31
0.0000000000
11
11.0267700633
21
-23.9267919275
31
0.0000000000
11
10.9456607770
21
-23.9809755145
31
0.0000000000
11
10.8499923826
21
-24.0000000000
31
0.0000000000
0
SPLINE
5
516
100
AcDbEntity
8
0
100
AcDbSpline
62
7
6
CONTINUOUS
70
0
71
3
72
16
73
12
74
10
42
0.0000001000
43
0.0000001000
44
0.0000000001
12
1.3082798167
22
0.7849168756
32
0.0000000000
13
1.5255930290
23
-0.0160153099
33
0.0000000000
40
0.0000000000
40
0.0000000000
40
0.0000000000
40
0.0000000000
40
0.0223499141
40
0.0827352720
40
0.1763126335
40
0.2981454769
40
0.4383600618
40
0.5893241114
40
0.7398707241
40
0.8794400952
40
1.0000000000
40
1.0000000000
40
1.0000000000
40
1.0000000000
10
9.2068654783
20
-22.3720034943
30
0.0000000000
10
9.2166121255
20
-22.3661558861
30
0.0000000000
10
9.2622055912
20
-22.3743138742
30
0.0000000000
10
9.3486970271
20
-22.3637063387
30
0.0000000000
10
9.4905910365
20
-22.3665473237
30
0.0000000000
10
9.6707886423
20
-22.3633819332
30
0.0000000000
10
9.8810478481
20
-22.3631371318
30
0.0000000000
10
10.1056252184
20
-22.3626710451
30
0.0000000000
10
10.3299583954
20
-22.3630325317
30
0.0000000000
10
10.5388053076
20
-22.3639033874
30
0.0000000000
10
10.6710938924
20
-22.3649164355
30
0.0000000000
10
10.7324023425
20
-22.3655600369
30
0.0000000000
11
9.2068654783
21
-22.3720034943
31
0.0000000000
11
9.2408797627
21
-22.3696048833
31
0.0000000000
11
9.3329812600
21
-22.3673721241
31
0.0000000000
11
9.4757375005
21
-22.3654756753
31
0.0000000000
11
9.6616093481
21
-22.3640161522
31
0.0000000000
11
9.8755296183
21
-22.3631122806
31
0.0000000000
11
10.1058518148
21
-22.3628123067
31
0.0000000000
11
10.3355370942
21
-22.3631431637
31
0.0000000000
11
10.5484728405
21
-22.3640765321
31
0.0000000000
11
10.7324023425
21
-22.3655600369
31
0.0000000000
0
SPLINE
5
517
100
AcDbEntity
8
0
100
AcDbSpline
62
7
6
CONTINUOUS
70
0
71
3
72
16
73
12
74
10
42
0.0000001000
43
0.0000001000
44
0.0000000001
12
1.5255930290
22
0.0160153099
32
0.0000000000
13
1.3082798167
23
-0.7849168756
33
0.0000000000
40
0.0000000000
40
0.0000000000
40
0.0000000000
40
0.0000000000
40
0.1205599048
40
0.2601292759
40
0.4106758886
40
0.5616399382
40
0.7018545231
40
0.8236873665
40
0.9172647280
40
0.9776500859
40
1.0000000000
40
1.0000000000
40
1.0000000000
40
1.0000000000
10
-13.3324023425
20
-22.3655600369
30
0.0000000000
10
-13.2710938924
20
-22.3649164355
30
0.0000000000
10
-13.1388053076
20
-22.3639033874
30
0.0000000000
10
-12.9299583954
20
-22.3630325317
30
0.0000000000
10
-12.7056252184
20
-22.3626710451
30
0.0000000000
10
-12.4810478481
20
-22.3631371318
30
0.0000000000
10
-12.2707886423
20
-22.3633819332
30
0.0000000000
10
-12.0905910365
20
-22.3665473237
30
0.0000000000
10
-11.9486970271
20
-22.3637063387
30
0.0000000000
10
-11.8622055912
20
-22.3743138742
30
0.0000000000
10
-11.8166121255
20
-22.3661558861
30
0.0000000000
10
-11.8068654783
20
-22.3720034943
30
0.0000000000
11
-13.3324023425
21
-22.3655600369
31
0.0000000000
11
-13.1484728405
21
-22.3640765321
31
0.0000000000
11
-12.9355370942
21
-22.3631431637
31
0.0000000000
11
-12.7058518148
21
-22.3628123067
31
0.0000000000
11
-12.4755296183
21
-22.3631122806
31
0.0000000000
11
-12.2616093481
21
-22.3640161522
31
0.0000000000
11
-12.0757375005
21
-22.3654756753
31
0.0000000000
11
-11.9329812600
21
-22.3673721241
31
0.0000000000
11
-11.8408797627
21
-22.3696048833
31
0.0000000000
11
-11.8068654783
21
-22.3720034943
31
0.0000000000
0
SPLINE
5
518
100
AcDbEntity
8
0
100
AcDbSpline
62
7
6
CONTINUOUS
70
0
71
3
72
16
73
12
74
10
42
0.0000001000
43
0.0000001000
44
0.0000000001
12
-1.3082798167
22
-0.7849168756
32
0.0000000000
13
-1.5255930290
23
0.0160153099
33
0.0000000000
40
0.0000000000
40
0.0000000000
40
0.0000000000
40
0.0000000000
40
0.0223499141
40
0.0827352720
40
0.1763126335
40
0.2981454769
40
0.4383600618
40
0.5893241114
40
0.7398707241
40
0.8794400952
40
1.0000000000
40
1.0000000000
40
1.0000000000
40
1.0000000000
10
-11.8068654783
20
22.3720034943
30
0.0000000000
10
-11.8166121255
20
22.3661558861
30
0.0000000000
10
-11.8622055912
20
22.3743138742
30
0.0000000000
10
-11.9486970271
20
22.3637063387
30
0.0000000000
10
-12.0905910365
20
22.3665473237
30
0.0000000000
10
-12.2707886423
20
22.3633819332
30
0.0000000000
10
-12.4810478481
20
22.3631371318
30
0.0000000000
10
-12.7056252184
20
22.3626710451
30
0.0000000000
10
-12.9299583954
20
22.3630325317
30
0.0000000000
10
-13.1388053076
20
22.3639033874
30
0.0000000000
10
-13.2710938924
20
22.3649164355
30
0.0000000000
10
-13.3324023425
20
22.3655600369
30
0.0000000000
11
-11.8068654783
21
22.3720034943
31
0.0000000000
11
-11.8408797627
21
22.3696048833
31
0.0000000000
11
-11.9329812600
21
22.3673721241
31
0.0000000000
11
-12.0757375005
21
22.3654756753
31
0.0000000000
11
-12.2616093481
21
22.3640161522
31
0.0000000000
11
-12.4755296183
21
22.3631122806
31
0.0000000000
11
-12.7058518148
21
22.3628123067
31
0.0000000000
11
-12.9355370942
21
22.3631431637
31
0.0000000000
11
-13.1484728405
21
22.3640765321
31
0.0000000000
11
-13.3324023425
21
22.3655600369
31
0.0000000000
0
SPLINE
5
519
100
AcDbEntity
8
0
100
AcDbSpline
62
7
6
CONTINUOUS
70
0
71
3
72
14
73
10
74
8
42
0.0000001000
43
0.0000001000
44
0.0000000001
12
0.4999809615
22
0.4999809615
32
0.0000000000
13
0.4999809615
23
0.4999809615
33
0.0000000000
40
0.0000000000
40
0.0000000000
40
0.0000000000
40
0.0000000000
40
0.1854507839
40
0.3721253642
40
0.5519494232
40
0.7167843406
40
0.8569246016
40
0.9584719540
40
1.0000000000
40
1.0000000000
40
1.0000000000
40
1.0000000000
10
-4.3087459070
20
-6.6587459070
30
0.0000000000
10
-4.2778386199
20
-6.6278386199
30
0.0000000000
10
-4.2158200874
20
-6.5658200874
30
0.0000000000
10
-4.1238320197
20
-6.4738320197
30
0.0000000000
10
-4.0352797988
20
-6.3852797988
30
0.0000000000
10
-3.9544830025
20
-6.3044830025
30
0.0000000000
10
-3.8867318272
20
-6.2367318272
30
0.0000000000
10
-3.8395310147
20
-6.1895310147
30
0.0000000000
10
-3.8156860229
20
-6.1656860229
30
0.0000000000
10
-3.8087649455
20
-6.1587649455
30
0.0000000000
11
-4.3087459070
21
-6.6587459070
31
0.0000000000
11
-4.2160240457
21
-6.5660240457
31
0.0000000000
11
-4.1226903096
21
-6.4726903096
31
0.0000000000
11
-4.0327817037
21
-6.3827817037
31
0.0000000000
11
-3.9503673832
21
-6.3003673832
31
0.0000000000
11
-3.8802999207
21
-6.2302999207
31
0.0000000000
11
-3.8295281778
21
-6.1795281778
31
0.0000000000
11
-3.8087649455
21
-6.1587649455
31
0.0000000000
0
SPLINE
5
51A
100
AcDbEntity
8
0
100
AcDbSpline
62
7
6
CONTINUOUS
70
0
71
3
72
16
73
12
74
10
42
0.0000001000
43
0.0000001000
44
0.0000000001
12
-1.5255930290
22
-0.0160153099
32
0.0000000000
13
-1.3082798167
23
0.7849168756
33
0.0000000000
40
0.0000000000
40
0.0000000000
40
0.0000000000
40
0.0000000000
40
0.1205599048
40
0.2601292759
40
0.4106758886
40
0.5616399382
40
0.7018545231
40
0.8236873665
40
0.9172647280
40
0.9776500859
40
1.0000000000
40
1.0000000000
40
1.0000000000
40
1.0000000000
10
10.7324023425
20
22.3655600369
30
0.0000000000
10
10.6710938924
20
22.3649164355
30
0.0000000000
10
10.5388053076
20
22.3639033874
30
0.0000000000
10
10.3299583954
20
22.3630325317
30
0.0000000000
10
10.1056252184
20
22.3626710451
30
0.0000000000
10
9.8810478481
20
22.3631371318
30
0.0000000000
10
9.6707886423
20
22.3633819332
30
0.0000000000
10
9.4905910365
20
22.3665473237
30
0.0000000000
10
9.3486970271
20
22.3637063387
30
0.0000000000
10
9.2622055912
20
22.3743138742
30
0.0000000000
10
9.2166121255
20
22.3661558861
30
0.0000000000
10
9.2068654783
20
22.3720034943
30
0.0000000000
11
10.7324023425
21
22.3655600369
31
0.0000000000
11
10.5484728405
21
22.3640765321
31
0.0000000000
11
10.3355370942
21
22.3631431637
31
0.0000000000
11
10.1058518148
21
22.3628123067
31
0.0000000000
11
9.8755296183
21
22.3631122806
31
0.0000000000
11
9.6616093481
21
22.3640161522
31
0.0000000000
11
9.4757375005
21
22.3654756753
31
0.0000000000
11
9.3329812600
21
22.3673721241
31
0.0000000000
11
9.2408797627
21
22.3696048833
31
0.0000000000
11
9.2068654783
21
22.3720034943
31
0.0000000000
0
SPLINE
5
51B
100
AcDbEntity
8
0
100
AcDbSpline
62
7
6
CONTINUOUS
70
0
71
3
72
14
73
10
74
8
42
0.0000001000
43
0.0000001000
44
0.0000000001
12
-0.4999809615
22
0.4999809615
32
0.0000000000
13
-0.4999809615
23
0.4999809615
33
0.0000000000
40
0.0000000000
40
0.0000000000
40
0.0000000000
40
0.0000000000
40
0.1854507839
40
0.3721253642
40
0.5519494232
40
0.7167843406
40
0.8569246016
40
0.9584719540
40
1.0000000000
40
1.0000000000
40
1.0000000000
40
1.0000000000
10
1.7087459070
20
-6.6587459070
30
0.0000000000
10
1.6778386199
20
-6.6278386199
30
0.0000000000
10
1.6158200874
20
-6.5658200874
30
0.0000000000
10
1.5238320197
20
-6.4738320197
30
0.0000000000
10
1.4352797988
20
-6.3852797988
30
0.0000000000
10
1.3544830025
20
-6.3044830025
30
0.0000000000
10
1.2867318272
20
-6.2367318272
30
0.0000000000
10
1.2395310147
20
-6.1895310147
30
0.0000000000
10
1.2156860229
20
-6.1656860229
30
0.0000000000
10
1.2087649455
20
-6.1587649455
30
0.0000000000
11
1.7087459070
21
-6.6587459070
31
0.0000000000
11
1.6160240457
21
-6.5660240457
31
0.0000000000
11
1.5226903096
21
-6.4726903096
31
0.0000000000
11
1.4327817037
21
-6.3827817037
31
0.0000000000
11
1.3503673832
21
-6.3003673832
31
0.0000000000
11
1.2802999207
21
-6.2302999207
31
0.0000000000
11
1.2295281778
21
-6.1795281778
31
0.0000000000
11
1.2087649455
21
-6.1587649455
31
0.0000000000
0
SPLINE
5
51C
100
AcDbEntity
8
0
100
AcDbSpline
62
7
6
CONTINUOUS
70
0
71
3
72
14
73
10
74
8
42
0.0000001000
43
0.0000001000
44
0.0000000001
12
-0.4999809615
22
0.4999809615
32
0.0000000000
13
-0.4999809615
23
0.4999809615
33
0.0000000000
40
0.0000000000
40
0.0000000000
40
0.0000000000
40
0.0000000000
40
0.1854507839
40
0.3721253642
40
0.5519494232
40
0.7167843406
40
0.8569246016
40
0.9584719540
40
1.0000000000
40
1.0000000000
40
1.0000000000
40
1.0000000000
10
1.7087459070
20
-5.3087459070
30
0.0000000000
10
1.6778386199
20
-5.2778386199
30
0.0000000000
10
1.6158200874
20
-5.2158200874
30
0.0000000000
10
1.5238320197
20
-5.1238320197
30
0.0000000000
10
1.4352797988
20
-5.0352797988
30
0.0000000000
10
1.3544830025
20
-4.9544830025
30
0.0000000000
10
1.2867318272
20
-4.8867318272
30
0.0000000000
10
1.2395310147
20
-4.8395310147
30
0.0000000000
10
1.2156860229
20
-4.8156860229
30
0.0000000000
10
1.2087649455
20
-4.8087649455
30
0.0000000000
11
1.7087459070
21
-5.3087459070
31
0.0000000000
11
1.6160240457
21
-5.2160240457
31
0.0000000000
11
1.5226903096
21
-5.1226903096
31
0.0000000000
11
1.4327817037
21
-5.0327817037
31
0.0000000000
11
1.3503673832
21
-4.9503673832
31
0.0000000000
11
1.2802999207
21
-4.8802999207
31
0.0000000000
11
1.2295281778
21
-4.8295281778
31
0.0000000000
11
1.2087649455
21
-4.8087649455
31
0.0000000000
0
SPLINE
5
51D
100
AcDbEntity
8
0
100
AcDbSpline
62
7
6
CONTINUOUS
70
0
71
3
72
14
73
10
74
8
42
0.0000001000
43
0.0000001000
44
0.0000000001
12
-0.4999809615
22
0.4999809615
32
0.0000000000
13
-0.4999809615
23
0.4999809615
33
0.0000000000
40
0.0000000000
40
0.0000000000
40
0.0000000000
40
0.0000000000
40
0.1854507839
40
0.3721253642
40
0.5519494232
40
0.7167843406
40
0.8569246016
40
0.9584719540
40
1.0000000000
40
1.0000000000
40
1.0000000000
40
1.0000000000
10
2.8587459070
20
-5.3087459070
30
0.0000000000
10
2.8278386199
20
-5.2778386199
30
0.0000000000
10
2.7658200874
20
-5.2158200874
30
0.0000000000
10
2.6738320197
20
-5.1238320197
30
0.0000000000
10
2.5852797988
20
-5.0352797988
30
0.0000000000
10
2.5044830025
20
-4.9544830025
30
0.0000000000
10
2.4367318272
20
-4.8867318272
30
0.0000000000
10
2.3895310147
20
-4.8395310147
30
0.0000000000
10
2.3656860229
20
-4.8156860229
30
0.0000000000
10
2.3587649455
20
-4.8087649455
30
0.0000000000
11
2.8587459070
21
-5.3087459070
31
0.0000000000
11
2.7660240457
21
-5.2160240457
31
0.0000000000
11
2.6726903096
21
-5.1226903096
31
0.0000000000
11
2.5827817037
21
-5.0327817037
31
0.0000000000
11
2.5003673832
21
-4.9503673832
31
0.0000000000
11
2.4302999207
21
-4.8802999207
31
0.0000000000
11
2.3795281778
21
-4.8295281778
31
0.0000000000
11
2.3587649455
21
-4.8087649455
31
0.0000000000
0
SPLINE
5
51E
100
AcDbEntity
8
0
100
AcDbSpline
62
7
6
CONTINUOUS
70
0
71
3
72
14
73
10
74
8
42
0.0000001000
43
0.0000001000
44
0.0000000001
12
-0.4999809615
22
0.4999809615
32
0.0000000000
13
-0.4999809615
23
0.4999809615
33
0.0000000000
40
0.0000000000
40
0.0000000000
40
0.0000000000
40
0.0000000000
40
0.1854507839
40
0.3721253642
40
0.5519494232
40
0.7167843406
40
0.8569246016
40
0.9584719540
40
1.0000000000
40
1.0000000000
40
1.0000000000
40
1.0000000000
10
2.8587459070
20
-3.7087459070
30
0.0000000000
10
2.8278386199
20
-3.6778386199
30
0.0000000000
10
2.7658200874
20
-3.6158200874
30
0.0000000000
10
2.6738320197
20
-3.5238320197
30
0.0000000000
10
2.5852797988
20
-3.4352797988
30
0.0000000000
10
2.5044830025
20
-3.3544830025
30
0.0000000000
10
2.4367318272
20
-3.2867318272
30
0.0000000000
10
2.3895310147
20
-3.2395310147
30
0.0000000000
10
2.3656860229
20
-3.2156860229
30
0.0000000000
10
2.3587649455
20
-3.2087649455
30
0.0000000000
11
2.8587459070
21
-3.7087459070
31
0.0000000000
11
2.7660240457
21
-3.6160240457
31
0.0000000000
11
2.6726903096
21
-3.5226903096
31
0.0000000000
11
2.5827817037
21
-3.4327817037
31
0.0000000000
11
2.5003673832
21
-3.3503673832
31
0.0000000000
11
2.4302999207
21
-3.2802999207
31
0.0000000000
11
2.3795281778
21
-3.2295281778
31
0.0000000000
11
2.3587649455
21
-3.2087649455
31
0.0000000000
0
SPLINE
5
51F
100
AcDbEntity
8
0
100
AcDbSpline
62
7
6
CONTINUOUS
70
0
71
3
72
14
73
10
74
8
42
0.0000001000
43
0.0000001000
44
0.0000000001
12
-0.4999809615
22
0.4999809615
32
0.0000000000
13
-0.4999809615
23
0.4999809615
33
0.0000000000
40
0.0000000000
40
0.0000000000
40
0.0000000000
40
0.0000000000
40
0.1854507839
40
0.3721253642
40
0.5519494232
40
0.7167843406
40
0.8569246016
40
0.9584719540
40
1.0000000000
40
1.0000000000
40
1.0000000000
40
1.0000000000
10
5.6587459070
20
-3.7087459070
30
0.0000000000
10
5.6278386199
20
-3.6778386199
30
0.0000000000
10
5.5658200874
20
-3.6158200874
30
0.0000000000
10
5.4738320197
20
-3.5238320197
30
0.0000000000
10
5.3852797988
20
-3.4352797988
30
0.0000000000
10
5.3044830025
20
-3.3544830025
30
0.0000000000
10
5.2367318272
20
-3.2867318272
30
0.0000000000
10
5.1895310147
20
-3.2395310147
30
0.0000000000
10
5.1656860229
20
-3.2156860229
30
0.0000000000
10
5.1587649455
20
-3.2087649455
30
0.0000000000
11
5.6587459070
21
-3.7087459070
31
0.0000000000
11
5.5660240457
21
-3.6160240457
31
0.0000000000
11
5.4726903096
21
-3.5226903096
31
0.0000000000
11
5.3827817037
21
-3.4327817037
31
0.0000000000
11
5.3003673832
21
-3.3503673832
31
0.0000000000
11
5.2302999207
21
-3.2802999207
31
0.0000000000
11
5.1795281778
21
-3.2295281778
31
0.0000000000
11
5.1587649455
21
-3.2087649455
31
0.0000000000
0
SPLINE
5
520
100
AcDbEntity
8
0
100
AcDbSpline
62
7
6
CONTINUOUS
70
0
71
3
72
14
73
10
74
8
42
0.0000001000
43
0.0000001000
44
0.0000000001
12
-0.4999809615
22
-0.4999809615
32
0.0000000000
13
-0.4999809615
23
-0.4999809615
33
0.0000000000
40
0.0000000000
40
0.0000000000
40
0.0000000000
40
0.0000000000
40
0.1854507839
40
0.3721253642
40
0.5519494232
40
0.7167843406
40
0.8569246016
40
0.9584719540
40
1.0000000000
40
1.0000000000
40
1.0000000000
40
1.0000000000
10
5.6587459070
20
5.2087459070
30
0.0000000000
10
5.6278386199
20
5.1778386199
30
0.0000000000
10
5.5658200874
20
5.1158200874
30
0.0000000000
10
5.4738320197
20
5.0238320197
30
0.0000000000
10
5.3852797988
20
4.9352797988
30
0.0000000000
10
5.3044830025
20
4.8544830025
30
0.0000000000
10
5.2367318272
20
4.7867318272
30
0.0000000000
10
5.1895310147
20
4.7395310147
30
0.0000000000
10
5.1656860229
20
4.7156860229
30
0.0000000000
10
5.1587649455
20
4.7087649455
30
0.0000000000
11
5.6587459070
21
5.2087459070
31
0.0000000000
11
5.5660240457
21
5.1160240457
31
0.0000000000
11
5.4726903096
21
5.0226903096
31
0.0000000000
11
5.3827817037
21
4.9327817037
31
0.0000000000
11
5.3003673832
21
4.8503673832
31
0.0000000000
11
5.2302999207
21
4.7802999207
31
0.0000000000
11
5.1795281778
21
4.7295281778
31
0.0000000000
11
5.1587649455
21
4.7087649455
31
0.0000000000
0
SPLINE
5
521
100
AcDbEntity
8
0
100
AcDbSpline
62
7
6
CONTINUOUS
70
0
71
3
72
14
73
10
74
8
42
0.0000001000
43
0.0000001000
44
0.0000000001
12
0.4999809615
22
-0.4999809615
32
0.0000000000
13
0.4999809615
23
-0.4999809615
33
0.0000000000
40
0.0000000000
40
0.0000000000
40
0.0000000000
40
0.0000000000
40
0.1854507839
40
0.3721253642
40
0.5519494232
40
0.7167843406
40
0.8569246016
40
0.9584719540
40
1.0000000000
40
1.0000000000
40
1.0000000000
40
1.0000000000
10
-8.2587459070
20
5.2087459070
30
0.0000000000
10
-8.2278386199
20
5.1778386199
30
0.0000000000
10
-8.1658200874
20
5.1158200874
30
0.0000000000
10
-8.0738320197
20
5.0238320197
30
0.0000000000
10
-7.9852797988
20
4.9352797988
30
0.0000000000
10
-7.9044830025
20
4.8544830025
30
0.0000000000
10
-7.8367318272
20
4.7867318272
30
0.0000000000
10
-7.7895310147
20
4.7395310147
30
0.0000000000
10
-7.7656860229
20
4.7156860229
30
0.0000000000
10
-7.7587649455
20
4.7087649455
30
0.0000000000
11
-8.2587459070
21
5.2087459070
31
0.0000000000
11
-8.1660240457
21
5.1160240457
31
0.0000000000
11
-8.0726903096
21
5.0226903096
31
0.0000000000
11
-7.9827817037
21
4.9327817037
31
0.0000000000
11
-7.9003673832
21
4.8503673832
31
0.0000000000
11
-7.8302999207
21
4.7802999207
31
0.0000000000
11
-7.7795281778
21
4.7295281778
31
0.0000000000
11
-7.7587649455
21
4.7087649455
31
0.0000000000
0
SPLINE
5
522
100
AcDbEntity
8
0
100
AcDbSpline
62
7
6
CONTINUOUS
70
0
71
3
72
14
73
10
74
8
42
0.0000001000
43
0.0000001000
44
0.0000000001
12
0.4999809615
22
0.4999809615
32
0.0000000000
13
0.4999809615
23
0.4999809615
33
0.0000000000
40
0.0000000000
40
0.0000000000
40
0.0000000000
40
0.0000000000
40
0.1854507839
40
0.3721253642
40
0.5519494232
40
0.7167843406
40
0.8569246016
40
0.9584719540
40
1.0000000000
40
1.0000000000
40
1.0000000000
40
1.0000000000
10
-8.2587459070
20
-3.7087459070
30
0.0000000000
10
-8.2278386199
20
-3.6778386199
30
0.0000000000
10
-8.1658200874
20
-3.6158200874
30
0.0000000000
10
-8.0738320197
20
-3.5238320197
30
0.0000000000
10
-7.9852797988
20
-3.4352797988
30
0.0000000000
10
-7.9044830025
20
-3.3544830025
30
0.0000000000
10
-7.8367318272
20
-3.2867318272
30
0.0000000000
10
-7.7895310147
20
-3.2395310147
30
0.0000000000
10
-7.7656860229
20
-3.2156860229
30
0.0000000000
10
-7.7587649455
20
-3.2087649455
30
0.0000000000
11
-8.2587459070
21
-3.7087459070
31
0.0000000000
11
-8.1660240457
21
-3.6160240457
31
0.0000000000
11
-8.0726903096
21
-3.5226903096
31
0.0000000000
11
-7.9827817037
21
-3.4327817037
31
0.0000000000
11
-7.9003673832
21
-3.3503673832
31
0.0000000000
11
-7.8302999207
21
-3.2802999207
31
0.0000000000
11
-7.7795281778
21
-3.2295281778
31
0.0000000000
11
-7.7587649455
21
-3.2087649455
31
0.0000000000
0
SPLINE
5
523
100
AcDbEntity
8
0
100
AcDbSpline
62
7
6
CONTINUOUS
70
0
71
3
72
14
73
10
74
8
42
0.0000001000
43
0.0000001000
44
0.0000000001
12
0.4999809615
22
0.4999809615
32
0.0000000000
13
0.4999809615
23
0.4999809615
33
0.0000000000
40
0.0000000000
40
0.0000000000
40
0.0000000000
40
0.0000000000
40
0.1854507839
40
0.3721253642
40
0.5519494232
40
0.7167843406
40
0.8569246016
40
0.9584719540
40
1.0000000000
40
1.0000000000
40
1.0000000000
40
1.0000000000
10
-5.4587459070
20
-3.7087459070
30
0.0000000000
10
-5.4278386199
20
-3.6778386199
30
0.0000000000
10
-5.3658200874
20
-3.6158200874
30
0.0000000000
10
-5.2738320197
20
-3.5238320197
30
0.0000000000
10
-5.1852797988
20
-3.4352797988
30
0.0000000000
10
-5.1044830025
20
-3.3544830025
30
0.0000000000
10
-5.0367318272
20
-3.2867318272
30
0.0000000000
10
-4.9895310147
20
-3.2395310147
30
0.0000000000
10
-4.9656860229
20
-3.2156860229
30
0.0000000000
10
-4.9587649455
20
-3.2087649455
30
0.0000000000
11
-5.4587459070
21
-3.7087459070
31
0.0000000000
11
-5.3660240457
21
-3.6160240457
31
0.0000000000
11
-5.2726903096
21
-3.5226903096
31
0.0000000000
11
-5.1827817037
21
-3.4327817037
31
0.0000000000
11
-5.1003673832
21
-3.3503673832
31
0.0000000000
11
-5.0302999207
21
-3.2802999207
31
0.0000000000
11
-4.9795281778
21
-3.2295281778
31
0.0000000000
11
-4.9587649455
21
-3.2087649455
31
0.0000000000
0
SPLINE
5
524
100
AcDbEntity
8
0
100
AcDbSpline
62
7
6
CONTINUOUS
70
0
71
3
72
14
73
10
74
8
42
0.0000001000
43
0.0000001000
44
0.0000000001
12
0.4999809615
22
0.4999809615
32
0.0000000000
13
0.4999809615
23
0.4999809615
33
0.0000000000
40
0.0000000000
40
0.0000000000
40
0.0000000000
40
0.0000000000
40
0.1854507839
40
0.3721253642
40
0.5519494232
40
0.7167843406
40
0.8569246016
40
0.9584719540
40
1.0000000000
40
1.0000000000
40
1.0000000000
40
1.0000000000
10
-5.4587459070
20
-5.3087459070
30
0.0000000000
10
-5.4278386199
20
-5.2778386199
30
0.0000000000
10
-5.3658200874
20
-5.2158200874
30
0.0000000000
10
-5.2738320197
20
-5.1238320197
30
0.0000000000
10
-5.1852797988
20
-5.0352797988
30
0.0000000000
10
-5.1044830025
20
-4.9544830025
30
0.0000000000
10
-5.0367318272
20
-4.8867318272
30
0.0000000000
10
-4.9895310147
20
-4.8395310147
30
0.0000000000
10
-4.9656860229
20
-4.8156860229
30
0.0000000000
10
-4.9587649455
20
-4.8087649455
30
0.0000000000
11
-5.4587459070
21
-5.3087459070
31
0.0000000000
11
-5.3660240457
21
-5.2160240457
31
0.0000000000
11
-5.2726903096
21
-5.1226903096
31
0.0000000000
11
-5.1827817037
21
-5.0327817037
31
0.0000000000
11
-5.1003673832
21
-4.9503673832
31
0.0000000000
11
-5.0302999207
21
-4.8802999207
31
0.0000000000
11
-4.9795281778
21
-4.8295281778
31
0.0000000000
11
-4.9587649455
21
-4.8087649455
31
0.0000000000
0
SPLINE
5
525
100
AcDbEntity
8
0
100
AcDbSpline
62
7
6
CONTINUOUS
70
0
71
3
72
14
73
10
74
8
42
0.0000001000
43
0.0000001000
44
0.0000000001
12
0.4999809615
22
0.4999809615
32
0.0000000000
13
0.4999809615
23
0.4999809615
33
0.0000000000
40
0.0000000000
40
0.0000000000
40
0.0000000000
40
0.0000000000
40
0.1854507839
40
0.3721253642
40
0.5519494232
40
0.7167843406
40
0.8569246016
40
0.9584719540
40
1.0000000000
40
1.0000000000
40
1.0000000000
40
1.0000000000
10
-4.3087459070
20
-5.3087459070
30
0.0000000000
10
-4.2778386199
20
-5.2778386199
30
0.0000000000
10
-4.2158200874
20
-5.2158200874
30
0.0000000000
10
-4.1238320197
20
-5.1238320197
30
0.0000000000
10
-4.0352797988
20
-5.0352797988
30
0.0000000000
10
-3.9544830025
20
-4.9544830025
30
0.0000000000
10
-3.8867318272
20
-4.8867318272
30
0.0000000000
10
-3.8395310147
20
-4.8395310147
30
0.0000000000
10
-3.8156860229
20
-4.8156860229
30
0.0000000000
10
-3.8087649455
20
-4.8087649455
30
0.0000000000
11
-4.3087459070
21
-5.3087459070
31
0.0000000000
11
-4.2160240457
21
-5.2160240457
31
0.0000000000
11
-4.1226903096
21
-5.1226903096
31
0.0000000000
11
-4.0327817037
21
-5.0327817037
31
0.0000000000
11
-3.9503673832
21
-4.9503673832
31
0.0000000000
11
-3.8802999207
21
-4.8802999207
31
0.0000000000
11
-3.8295281778
21
-4.8295281778
31
0.0000000000
11
-3.8087649455
21
-4.8087649455
31
0.0000000000
0
SPLINE
5
526
100
AcDbEntity
8
0
100
AcDbSpline
62
7
6
CONTINUOUS
70
0
71
3
72
9
73
5
74
3
42
0.0000001000
43
0.0000001000
44
0.0000000001
12
0.0332667541
22
-0.0132764426
32
0.0000000000
13
0.0309689213
23
-0.0178967955
33
0.0000000000
40
0.0000000000
40
0.0000000000
40
0.0000000000
40
0.0000000000
40
0.0855786860
40
1.0000000000
40
1.0000000000
40
1.0000000000
40
1.0000000000
10
-11.8572260104
20
23.9821251152
30
0.0000000000
10
-11.8562770354
20
23.9817463884
30
0.0000000000
10
-11.8452164529
20
23.9772523416
30
0.0000000000
10
-11.8344991516
20
23.9719590630
30
0.0000000000
10
-11.8250596044
20
23.9665039925
30
0.0000000000
11
-11.8572260104
21
23.9821251152
31
0.0000000000
11
-11.8543864493
21
23.9809713458
31
0.0000000000
11
-11.8250596044
21
23.9665039925
31
0.0000000000
0
SPLINE
5
527
100
AcDbEntity
8
0
100
AcDbSpline
62
7
6
CONTINUOUS
70
0
71
3
72
10
73
6
74
4
42
0.0000001000
43
0.0000001000
44
0.0000000001
12
0.2267374769
22
-0.1310305330
32
0.0000000000
13
0.0000000000
23
-0.2601392677
33
0.0000000000
40
0.0000000000
40
0.0000000000
40
0.0000000000
40
0.0000000000
40
0.2500653475
40
0.6250489190
40
1.0000000000
40
1.0000000000
40
1.0000000000
40
1.0000000000
10
-11.8250596044
20
23.9665039925
30
0.0000000000
10
-11.8061598757
20
23.9555819273
30
0.0000000000
10
-11.7625322439
20
23.9221216086
30
0.0000000000
10
-11.7130818748
20
23.8482478284
30
0.0000000000
10
-11.7000761582
20
23.7825070741
30
0.0000000000
10
-11.7000761582
20
23.7499939075
30
0.0000000000
11
-11.8250596044
21
23.9665039925
31
0.0000000000
11
-11.7732871220
21
23.9267737206
31
0.0000000000
11
-11.7191004970
21
23.8456601425
31
0.0000000000
11
-11.7000761582
21
23.7499939075
31
0.0000000000
0
SPLINE
5
528
100
AcDbEntity
8
0
100
AcDbSpline
62
7
6
CONTINUOUS
70
0
71
3
72
9
73
5
74
3
42
0.0000001000
43
0.0000001000
44
0.0000000001
12
-0.0332700761
22
-0.0132805993
32
0.0000000000
13
-0.0309718209
23
-0.0178995529
33
0.0000000000
40
0.0000000000
40
0.0000000000
40
0.0000000000
40
0.0000000000
40
0.0858802341
40
1.0000000000
40
1.0000000000
40
1.0000000000
40
1.0000000000
10
9.2572246763
20
23.9821247886
30
0.0000000000
10
9.2562722623
20
23.9817446083
30
0.0000000000
10
9.2452106757
20
23.9772489566
30
0.0000000000
10
9.2344924537
20
23.9719544130
30
0.0000000000
10
9.2250551358
20
23.9665003013
30
0.0000000000
11
9.2572246763
21
23.9821247886
31
0.0000000000
11
9.2543748515
21
23.9809665409
31
0.0000000000
11
9.2250551358
21
23.9665003013
31
0.0000000000
0
SPLINE
5
529
100
AcDbEntity
8
0
100
AcDbSpline
62
7
6
CONTINUOUS
70
0
71
3
72
10
73
6
74
4
42
0.0000001000
43
0.0000001000
44
0.0000000001
12
-0.2267298638
22
-0.1310340522
32
0.0000000000
13
0.0000000000
23
-0.2601341740
33
0.0000000000
40
0.0000000000
40
0.0000000000
40
0.0000000000
40
0.0000000000
40
0.2500506628
40
0.6249942404
40
1.0000000000
40
1.0000000000
40
1.0000000000
40
1.0000000000
10
9.2250551358
20
23.9665003013
30
0.0000000000
10
9.2061571516
20
23.9555785840
30
0.0000000000
10
9.1625345622
20
23.9221235255
30
0.0000000000
10
9.1130836985
20
23.8482519111
30
0.0000000000
10
9.1000761582
20
23.7825111787
30
0.0000000000
10
9.1000761582
20
23.7499939075
30
0.0000000000
11
9.2250551358
21
23.9665003013
31
0.0000000000
11
9.1732871220
21
23.9267737206
31
0.0000000000
11
9.1191053008
21
23.8456717422
31
0.0000000000
11
9.1000761582
21
23.7499939075
31
0.0000000000
0
SPLINE
5
52A
100
AcDbEntity
8
0
100
AcDbSpline
62
9
6
CONTINUOUS
70
0
71
3
72
11
73
7
74
5
42
0.0000001000
43
0.0000001000
44
0.0000000001
12
-0.3901318316
22
-0.0000475396
32
0.0000000000
13
-0.0000475273
23
-0.3901318316
33
0.0000000000
40
0.0000000000
40
0.0000000000
40
0.0000000000
40
0.0000000000
40
0.2499702337
40
0.4999658115
40
0.7499805391
40
1.0000000000
40
1.0000000000
40
1.0000000000
40
1.0000000000
10
9.4568274021
20
23.9572757307
30
0.0000000000
10
9.4243202870
20
23.9572717695
30
0.0000000000
10
9.3585929861
20
23.9442560367
30
0.0000000000
10
9.2755150373
20
23.8886201855
30
0.0000000000
10
9.2198841290
20
23.8055315118
30
0.0000000000
10
9.2068694391
20
23.7397953398
30
0.0000000000
10
9.2068654782
20
23.7072818230
30
0.0000000000
11
9.4568274021
21
23.9572757307
31
0.0000000000
11
9.3611821437
21
23.9382389914
31
0.0000000000
11
9.2800921364
21
23.8840471820
31
0.0000000000
11
9.2259027777
21
23.8029465517
31
0.0000000000
11
9.2068654782
21
23.7072818230
31
0.0000000000
0
SPLINE
5
52B
100
AcDbEntity
8
0
100
AcDbSpline
62
9
6
CONTINUOUS
70
0
71
3
72
19
73
15
74
13
42
0.0000001000
43
0.0000001000
44
0.0000000001
12
1.7173981690
22
-0.4914452058
32
0.0000000000
13
1.7165173604
23
0.4945129045
33
0.0000000000
40
0.0000000000
40
0.0000000000
40
0.0000000000
40
0.0000000000
40
0.0188588438
40
0.0697360942
40
0.1495038874
40
0.2526873289
40
0.3721368611
40
0.4999999364
40
0.6278561134
40
0.7472849217
40
0.8504449826
40
0.9302324248
40
0.9811440338
40
1.0000000000
40
1.0000000000
40
1.0000000000
40
1.0000000000
10
9.2068654783
20
23.7072818230
30
0.0000000000
10
9.2176615262
20
23.7041924602
30
0.0000000000
10
9.2601326746
20
23.7087635830
30
0.0000000000
10
9.3482974610
20
23.7030752733
30
0.0000000000
10
9.4879740581
20
23.7047685262
30
0.0000000000
10
9.6678582435
20
23.7031162642
30
0.0000000000
10
9.8766170675
20
23.7030469441
30
0.0000000000
10
10.0999958304
20
23.7027772331
30
0.0000000000
10
10.3233619539
20
23.7030475735
30
0.0000000000
10
10.5320912001
20
23.7031142051
30
0.0000000000
10
10.7119585105
20
23.7047741910
30
0.0000000000
10
10.8516593886
20
23.7030595912
30
0.0000000000
10
10.9398427864
20
23.7087901405
30
0.0000000000
10
10.9823456573
20
23.7041736501
30
0.0000000000
10
10.9931345217
20
23.7072818230
30
0.0000000000
11
9.2068654783
21
23.7072818230
31
0.0000000000
11
9.2405341207
21
23.7061364659
31
0.0000000000
11
9.3314114432
21
23.7050718240
31
0.0000000000
11
9.4739001090
21
23.7041570848
31
0.0000000000
11
9.6582184562
21
23.7034569732
31
0.0000000000
11
9.8715942882
21
23.7030185426
31
0.0000000000
11
10.0999998865
21
23.7028692619
31
0.0000000000
11
10.3283931621
21
23.7030185776
31
0.0000000000
11
10.5417319747
21
23.7034568949
31
0.0000000000
11
10.7260085573
21
23.7041566757
31
0.0000000000
11
10.8685323238
21
23.7050713379
31
0.0000000000
11
10.9594710198
21
23.7061365494
31
0.0000000000
11
10.9931345217
21
23.7072818230
31
0.0000000000
0
SPLINE
5
52C
100
AcDbEntity
8
0
100
AcDbSpline
62
9
6
CONTINUOUS
70
0
71
3
72
19
73
15
74
13
42
0.0000001000
43
0.0000001000
44
0.0000000001
12
1.1967227208
22
-0.4719710864
32
0.0000000000
13
1.1944787425
23
0.4776217233
33
0.0000000000
40
0.0000000000
40
0.0000000000
40
0.0000000000
40
0.0000000000
40
0.0186732398
40
0.0694359812
40
0.1491634697
40
0.2524155039
40
0.3720397020
40
0.5001061350
40
0.6281138145
40
0.7476221156
40
0.8507846282
40
0.9304996860
40
0.9813009401
40
1.0000000000
40
1.0000000000
40
1.0000000000
40
1.0000000000
10
9.4568274021
20
23.9572757307
30
0.0000000000
10
9.4642762988
20
23.9543379876
30
0.0000000000
10
9.4952728268
20
23.9585939099
30
0.0000000000
10
9.5581250366
20
23.9531658675
30
0.0000000000
10
9.6589342893
20
23.9547273177
30
0.0000000000
10
9.7884614958
20
23.9531239620
30
0.0000000000
10
9.9390251364
20
23.9530368184
30
0.0000000000
10
10.1001114679
20
23.9527730017
30
0.0000000000
10
10.2611473493
20
23.9530382355
30
0.0000000000
10
10.4115996559
20
23.9531208088
30
0.0000000000
10
10.5410277532
20
23.9547376341
30
0.0000000000
10
10.6418246116
20
23.9531385976
30
0.0000000000
10
10.7046698124
20
23.9586417085
30
0.0000000000
10
10.7357273881
20
23.9542987049
30
0.0000000000
10
10.7431725979
20
23.9572757307
30
0.0000000000
11
9.4568274021
21
23.9572757307
31
0.0000000000
11
9.4808221885
21
23.9561365186
31
0.0000000000
11
9.5461161957
21
23.9550704186
31
0.0000000000
11
9.6486759297
21
23.9541540420
31
0.0000000000
11
9.7815005835
21
23.9534522809
31
0.0000000000
11
9.9353881050
21
23.9530126919
31
0.0000000000
11
10.1001365301
21
23.9528631653
31
0.0000000000
11
10.2648093727
21
23.9530130749
31
0.0000000000
11
10.4185478006
21
23.9534525076
31
0.0000000000
11
10.5512572930
21
23.9541536249
31
0.0000000000
11
10.6538010395
21
23.9550695098
31
0.0000000000
11
10.7191445948
21
23.9561357500
31
0.0000000000
11
10.7431725979
21
23.9572757307
31
0.0000000000
0
SPLINE
5
52D
100
AcDbEntity
8
0
100
AcDbSpline
62
9
6
CONTINUOUS
70
0
71
3
72
11
73
7
74
5
42
0.0000001000
43
0.0000001000
44
0.0000000001
12
0.3901318315
22
-0.0000475397
32
0.0000000000
13
0.0000475275
23
-0.3901318315
33
0.0000000000
40
0.0000000000
40
0.0000000000
40
0.0000000000
40
0.0000000000
40
0.2499811037
40
0.4999791038
40
0.7499893441
40
1.0000000000
40
1.0000000000
40
1.0000000000
40
1.0000000000
10
10.7431725979
20
23.9572757307
30
0.0000000000
10
10.7756811265
20
23.9572717693
30
0.0000000000
10
10.8414102467
20
23.9442550867
30
0.0000000000
10
10.9244881220
20
23.8886169459
30
0.0000000000
10
10.9801167030
20
23.8055285647
30
0.0000000000
10
10.9931305609
20
23.7397941947
30
0.0000000000
10
10.9931345217
20
23.7072818230
30
0.0000000000
11
10.7431725979
21
23.9572757307
31
0.0000000000
11
10.8388218508
21
23.9382373363
31
0.0000000000
11
10.9199116020
21
23.8840434431
31
0.0000000000
11
10.9740985626
21
23.8029433159
31
0.0000000000
11
10.9931345217
21
23.7072818230
31
0.0000000000
0
SPLINE
5
52E
100
AcDbEntity
8
0
100
AcDbSpline
62
9
6
CONTINUOUS
70
0
71
3
72
11
73
7
74
5
42
0.0000001000
43
0.0000001000
44
0.0000000001
12
-0.3901318316
22
-0.0000475396
32
0.0000000000
13
-0.0000475273
23
-0.3901318316
33
0.0000000000
40
0.0000000000
40
0.0000000000
40
0.0000000000
40
0.0000000000
40
0.2499702337
40
0.4999658115
40
0.7499805391
40
1.0000000000
40
1.0000000000
40
1.0000000000
40
1.0000000000
10
-13.3431725979
20
23.9572757307
30
0.0000000000
10
-13.3756797130
20
23.9572717695
30
0.0000000000
10
-13.4414070139
20
23.9442560367
30
0.0000000000
10
-13.5244849627
20
23.8886201855
30
0.0000000000
10
-13.5801158710
20
23.8055315118
30
0.0000000000
10
-13.5931305609
20
23.7397953398
30
0.0000000000
10
-13.5931345218
20
23.7072818230
30
0.0000000000
11
-13.3431725979
21
23.9572757307
31
0.0000000000
11
-13.4388178563
21
23.9382389914
31
0.0000000000
11
-13.5199078636
21
23.8840471820
31
0.0000000000
11
-13.5740972223
21
23.8029465517
31
0.0000000000
11
-13.5931345218
21
23.7072818230
31
0.0000000000
0
SPLINE
5
52F
100
AcDbEntity
8
0
100
AcDbSpline
62
9
6
CONTINUOUS
70
0
71
3
72
19
73
15
74
13
42
0.0000001000
43
0.0000001000
44
0.0000000001
12
1.7173981690
22
-0.4914452058
32
0.0000000000
13
1.7165173604
23
0.4945129045
33
0.0000000000
40
0.0000000000
40
0.0000000000
40
0.0000000000
40
0.0000000000
40
0.0188588438
40
0.0697360942
40
0.1495038874
40
0.2526873289
40
0.3721368611
40
0.4999999364
40
0.6278561134
40
0.7472849217
40
0.8504449826
40
0.9302324248
40
0.9811440338
40
1.0000000000
40
1.0000000000
40
1.0000000000
40
1.0000000000
10
-13.5931345217
20
23.7072818230
30
0.0000000000
10
-13.5823384738
20
23.7041924602
30
0.0000000000
10
-13.5398673254
20
23.7087635830
30
0.0000000000
10
-13.4517025390
20
23.7030752733
30
0.0000000000
10
-13.3120259419
20
23.7047685262
30
0.0000000000
10
-13.1321417565
20
23.7031162642
30
0.0000000000
10
-12.9233829325
20
23.7030469441
30
0.0000000000
10
-12.7000041696
20
23.7027772331
30
0.0000000000
10
-12.4766380461
20
23.7030475735
30
0.0000000000
10
-12.2679087999
20
23.7031142051
30
0.0000000000
10
-12.0880414895
20
23.7047741910
30
0.0000000000
10
-11.9483406114
20
23.7030595912
30
0.0000000000
10
-11.8601572136
20
23.7087901405
30
0.0000000000
10
-11.8176543427
20
23.7041736501
30
0.0000000000
10
-11.8068654783
20
23.7072818230
30
0.0000000000
11
-13.5931345217
21
23.7072818230
31
0.0000000000
11
-13.5594658793
21
23.7061364659
31
0.0000000000
11
-13.4685885568
21
23.7050718240
31
0.0000000000
11
-13.3260998910
21
23.7041570848
31
0.0000000000
11
-13.1417815438
21
23.7034569732
31
0.0000000000
11
-12.9284057118
21
23.7030185426
31
0.0000000000
11
-12.7000001135
21
23.7028692619
31
0.0000000000
11
-12.4716068379
21
23.7030185776
31
0.0000000000
11
-12.2582680253
21
23.7034568949
31
0.0000000000
11
-12.0739914427
21
23.7041566757
31
0.0000000000
11
-11.9314676762
21
23.7050713379
31
0.0000000000
11
-11.8405289802
21
23.7061365494
31
0.0000000000
11
-11.8068654783
21
23.7072818230
31
0.0000000000
0
SPLINE
5
530
100
AcDbEntity
8
0
100
AcDbSpline
62
9
6
CONTINUOUS
70
0
71
3
72
19
73
15
74
13
42
0.0000001000
43
0.0000001000
44
0.0000000001
12
1.1967227208
22
-0.4719710864
32
0.0000000000
13
1.1944787425
23
0.4776217233
33
0.0000000000
40
0.0000000000
40
0.0000000000
40
0.0000000000
40
0.0000000000
40
0.0186732398
40
0.0694359812
40
0.1491634697
40
0.2524155039
40
0.3720397020
40
0.5001061350
40
0.6281138145
40
0.7476221156
40
0.8507846282
40
0.9304996860
40
0.9813009401
40
1.0000000000
40
1.0000000000
40
1.0000000000
40
1.0000000000
10
-13.3431725979
20
23.9572757307
30
0.0000000000
10
-13.3357237012
20
23.9543379876
30
0.0000000000
10
-13.3047271732
20
23.9585939099
30
0.0000000000
10
-13.2418749634
20
23.9531658675
30
0.0000000000
10
-13.1410657107
20
23.9547273177
30
0.0000000000
10
-13.0115385042
20
23.9531239620
30
0.0000000000
10
-12.8609748636
20
23.9530368184
30
0.0000000000
10
-12.6998885321
20
23.9527730017
30
0.0000000000
10
-12.5388526507
20
23.9530382355
30
0.0000000000
10
-12.3884003441
20
23.9531208088
30
0.0000000000
10
-12.2589722468
20
23.9547376341
30
0.0000000000
10
-12.1581753884
20
23.9531385976
30
0.0000000000
10
-12.0953301876
20
23.9586417085
30
0.0000000000
10
-12.0642726119
20
23.9542987049
30
0.0000000000
10
-12.0568274021
20
23.9572757307
30
0.0000000000
11
-13.3431725979
21
23.9572757307
31
0.0000000000
11
-13.3191778115
21
23.9561365186
31
0.0000000000
11
-13.2538838043
21
23.9550704186
31
0.0000000000
11
-13.1513240703
21
23.9541540420
31
0.0000000000
11
-13.0184994165
21
23.9534522809
31
0.0000000000
11
-12.8646118950
21
23.9530126919
31
0.0000000000
11
-12.6998634699
21
23.9528631653
31
0.0000000000
11
-12.5351906273
21
23.9530130749
31
0.0000000000
11
-12.3814521994
21
23.9534525076
31
0.0000000000
11
-12.2487427070
21
23.9541536249
31
0.0000000000
11
-12.1461989605
21
23.9550695098
31
0.0000000000
11
-12.0808554052
21
23.9561357500
31
0.0000000000
11
-12.0568274021
21
23.9572757307
31
0.0000000000
0
SPLINE
5
531
100
AcDbEntity
8
0
100
AcDbSpline
62
9
6
CONTINUOUS
70
0
71
3
72
11
73
7
74
5
42
0.0000001000
43
0.0000001000
44
0.0000000001
12
0.3901318315
22
-0.0000475397
32
0.0000000000
13
0.0000475275
23
-0.3901318315
33
0.0000000000
40
0.0000000000
40
0.0000000000
40
0.0000000000
40
0.0000000000
40
0.2499811037
40
0.4999791038
40
0.7499893441
40
1.0000000000
40
1.0000000000
40
1.0000000000
40
1.0000000000
10
-12.0568274021
20
23.9572757307
30
0.0000000000
10
-12.0243188735
20
23.9572717693
30
0.0000000000
10
-11.9585897533
20
23.9442550867
30
0.0000000000
10
-11.8755118780
20
23.8886169459
30
0.0000000000
10
-11.8198832970
20
23.8055285647
30
0.0000000000
10
-11.8068694391
20
23.7397941947
30
0.0000000000
10
-11.8068654783
20
23.7072818230
30
0.0000000000
11
-12.0568274021
21
23.9572757307
31
0.0000000000
11
-11.9611781492
21
23.9382373363
31
0.0000000000
11
-11.8800883980
21
23.8840434431
31
0.0000000000
11
-11.8259014374
21
23.8029433159
31
0.0000000000
11
-11.8068654783
21
23.7072818230
31
0.0000000000
0
SPLINE
5
532
100
AcDbEntity
8
0
100
AcDbSpline
62
7
6
CONTINUOUS
70
0
71
3
72
10
73
6
74
4
42
0.0000001000
43
0.0000001000
44
0.0000000001
12
0.0000000000
22
-0.2601392677
32
0.0000000000
13
-0.2267374769
23
-0.1310305330
33
0.0000000000
40
0.0000000000
40
0.0000000000
40
0.0000000000
40
0.0000000000
40
0.3749510810
40
0.7499346525
40
1.0000000000
40
1.0000000000
40
1.0000000000
40
1.0000000000
10
-11.7000761582
20
-23.7499939075
30
0.0000000000
10
-11.7000761582
20
-23.7825070741
30
0.0000000000
10
-11.7130818748
20
-23.8482478284
30
0.0000000000
10
-11.7625322439
20
-23.9221216086
30
0.0000000000
10
-11.8061598757
20
-23.9555819273
30
0.0000000000
10
-11.8250596044
20
-23.9665039925
30
0.0000000000
11
-11.7000761582
21
-23.7499939075
31
0.0000000000
11
-11.7191004970
21
-23.8456601425
31
0.0000000000
11
-11.7732871220
21
-23.9267737206
31
0.0000000000
11
-11.8250596044
21
-23.9665039925
31
0.0000000000
0
SPLINE
5
533
100
AcDbEntity
8
0
100
AcDbSpline
62
7
6
CONTINUOUS
70
0
71
3
72
9
73
5
74
3
42
0.0000001000
43
0.0000001000
44
0.0000000001
12
-0.0309689213
22
-0.0178967955
32
0.0000000000
13
-0.0332667541
23
-0.0132764426
33
0.0000000000
40
0.0000000000
40
0.0000000000
40
0.0000000000
40
0.0000000000
40
0.9144213140
40
1.0000000000
40
1.0000000000
40
1.0000000000
40
1.0000000000
10
-11.8250596044
20
-23.9665039925
30
0.0000000000
10
-11.8344991516
20
-23.9719590630
30
0.0000000000
10
-11.8452164529
20
-23.9772523416
30
0.0000000000
10
-11.8562770354
20
-23.9817463884
30
0.0000000000
10
-11.8572260104
20
-23.9821251152
30
0.0000000000
11
-11.8250596044
21
-23.9665039925
31
0.0000000000
11
-11.8543864493
21
-23.9809713458
31
0.0000000000
11
-11.8572260104
21
-23.9821251152
31
0.0000000000
0
SPLINE
5
534
100
AcDbEntity
8
0
100
AcDbSpline
62
9
6
CONTINUOUS
70
0
71
3
72
11
73
7
74
5
42
0.0000001000
43
0.0000001000
44
0.0000000001
12
-0.0000475270
22
-0.3901318316
32
0.0000000000
13
-0.3901318316
23
-0.0000475397
33
0.0000000000
40
0.0000000000
40
0.0000000000
40
0.0000000000
40
0.0000000000
40
0.2500106563
40
0.5000208967
40
0.7500188966
40
1.0000000000
40
1.0000000000
40
1.0000000000
40
1.0000000000
10
-11.8068654783
20
-23.7072818230
30
0.0000000000
10
-11.8068694390
20
-23.7397941947
30
0.0000000000
10
-11.8198832969
20
-23.8055285648
30
0.0000000000
10
-11.8755118781
20
-23.8886169460
30
0.0000000000
10
-11.9585897534
20
-23.9442550867
30
0.0000000000
10
-12.0243188735
20
-23.9572717693
30
0.0000000000
10
-12.0568274021
20
-23.9572757307
30
0.0000000000
11
-11.8068654783
21
-23.7072818230
31
0.0000000000
11
-11.8259014373
21
-23.8029433161
31
0.0000000000
11
-11.8800883981
21
-23.8840434432
31
0.0000000000
11
-11.9611781493
21
-23.9382373364
31
0.0000000000
11
-12.0568274021
21
-23.9572757307
31
0.0000000000
0
SPLINE
5
535
100
AcDbEntity
8
0
100
AcDbSpline
62
9
6
CONTINUOUS
70
0
71
3
72
11
73
7
74
5
42
0.0000001000
43
0.0000001000
44
0.0000000001
12
0.0000475266
22
-0.3901318315
32
0.0000000000
13
0.3901318315
23
-0.0000475398
33
0.0000000000
40
0.0000000000
40
0.0000000000
40
0.0000000000
40
0.0000000000
40
0.2500213371
40
0.5000370334
40
0.7500321009
40
1.0000000000
40
1.0000000000
40
1.0000000000
40
1.0000000000
10
-13.5931345217
20
-23.7072818230
30
0.0000000000
10
-13.5931305608
20
-23.7397955837
30
0.0000000000
10
-13.5801156934
20
-23.8055321415
30
0.0000000000
10
-13.5244842868
20
-23.8886208791
30
0.0000000000
10
-13.4414063209
20
-23.9442562405
30
0.0000000000
10
-13.3756794094
20
-23.9572717695
30
0.0000000000
10
-13.3431725979
20
-23.9572757307
30
0.0000000000
11
-13.5931345217
21
-23.7072818230
31
0.0000000000
11
-13.5740969367
21
-23.8029472411
31
0.0000000000
11
-13.5199070634
21
-23.8840479821
31
0.0000000000
11
-13.4388169984
21
-23.9382393468
31
0.0000000000
11
-13.3431725979
21
-23.9572757307
31
0.0000000000
0
SPLINE
5
536
100
AcDbEntity
8
0
100
AcDbSpline
62
9
6
CONTINUOUS
70
0
71
3
72
18
73
14
74
12
42
0.0000001000
43
0.0000001000
44
0.0000000001
12
1.1978182803
22
0.4691781008
32
0.0000000000
13
1.1974274188
23
-0.4701747544
33
0.0000000000
40
0.0000000000
40
0.0000000000
40
0.0000000000
40
0.0000000000
40
0.0219526827
40
0.0818422838
40
0.1752050010
40
0.2943220141
40
0.4296300592
40
0.5704450262
40
0.7057247034
40
0.8248154647
40
0.9181622121
40
0.9780505532
40
1.0000000000
40
1.0000000000
40
1.0000000000
40
1.0000000000
10
-13.3431725979
20
-23.9572757307
30
0.0000000000
10
-13.3344074897
20
-23.9538424914
30
0.0000000000
10
-13.2978815920
20
-23.9590267041
30
0.0000000000
10
-13.2240492856
20
-23.9526526207
30
0.0000000000
10
-13.1065841066
20
-23.9546268174
30
0.0000000000
10
-12.9577145340
20
-23.9529032621
30
0.0000000000
10
-12.7881396865
20
-23.9529087965
30
0.0000000000
10
-12.6117759497
20
-23.9529091771
30
0.0000000000
10
-12.4422241799
20
-23.9529027643
30
0.0000000000
10
-12.2933860018
20
-23.9546290779
30
0.0000000000
10
-12.1759365154
20
-23.9526475518
30
0.0000000000
10
-12.1021188023
20
-23.9590361608
30
0.0000000000
10
-12.0655883585
20
-23.9538357054
30
0.0000000000
10
-12.0568274021
20
-23.9572757307
30
0.0000000000
11
-13.3431725979
21
-23.9572757307
31
0.0000000000
11
-13.3149592611
21
-23.9560364113
31
0.0000000000
11
-13.2379241152
21
-23.9548915020
31
0.0000000000
11
-13.1178234847
21
-23.9539394971
31
0.0000000000
11
-12.9645895403
21
-23.9532606569
31
0.0000000000
11
-12.7905258545
21
-23.9529078523
31
0.0000000000
11
-12.6093775533
21
-23.9529079504
31
0.0000000000
11
-12.4353503610
21
-23.9532608531
31
0.0000000000
11
-12.2821501878
21
-23.9539396632
31
0.0000000000
11
-12.1620701013
21
-23.9548915834
31
0.0000000000
11
-12.0850365769
21
-23.9560365198
31
0.0000000000
11
-12.0568274021
21
-23.9572757307
31
0.0000000000
0
SPLINE
5
537
100
AcDbEntity
8
0
100
AcDbSpline
62
9
6
CONTINUOUS
70
0
71
3
72
18
73
14
74
12
42
0.0000001000
43
0.0000001000
44
0.0000000001
12
1.7178285016
22
0.4899334304
32
0.0000000000
13
1.7176718098
23
-0.4904824982
33
0.0000000000
40
0.0000000000
40
0.0000000000
40
0.0000000000
40
0.0000000000
40
0.0221992420
40
0.0822248966
40
0.1756168880
40
0.2946299030
40
0.4297227155
40
0.5702764756
40
0.7053652393
40
0.8243740030
40
0.9177672502
40
0.9778009438
40
1.0000000000
40
1.0000000000
40
1.0000000000
40
1.0000000000
10
-13.5931345217
20
-23.7072818230
30
0.0000000000
10
-13.5804230249
20
-23.7036564394
30
0.0000000000
10
-13.5303460345
20
-23.7092386610
30
0.0000000000
10
-13.4267821768
20
-23.7025393269
30
0.0000000000
10
-13.2640464292
20
-23.7046760661
30
0.0000000000
10
-13.0573359371
20
-23.7028936434
30
0.0000000000
10
-12.8222675593
20
-23.7029182720
30
0.0000000000
10
-12.5777363226
20
-23.7029184357
30
0.0000000000
10
-12.3426727454
20
-23.7028932340
30
0.0000000000
10
-12.1359669133
20
-23.7046772456
30
0.0000000000
10
-11.9732269244
20
-23.7025361237
30
0.0000000000
10
-11.8696601161
20
-23.7092443421
30
0.0000000000
10
-11.8195757093
20
-23.7036524068
30
0.0000000000
10
-11.8068654783
20
-23.7072818230
30
0.0000000000
11
-13.5931345217
21
-23.7072818230
31
0.0000000000
11
-13.5534989853
21
-23.7060351157
31
0.0000000000
11
-13.4462795378
21
-23.7048922779
31
0.0000000000
11
-13.2794534657
21
-23.7039424178
31
0.0000000000
11
-13.0668582022
21
-23.7032655125
31
0.0000000000
11
-12.8255383166
21
-23.7029138259
31
0.0000000000
11
-12.5744631285
21
-23.7029138326
31
0.0000000000
11
-12.3331504755
21
-23.7032655097
31
0.0000000000
11
-12.1205628061
21
-23.7039423636
31
0.0000000000
11
-11.9537344902
21
-23.7048921776
31
0.0000000000
11
-11.8465006830
21
-23.7060351256
31
0.0000000000
11
-11.8068654783
21
-23.7072818230
31
0.0000000000
0
SPLINE
5
538
100
AcDbEntity
8
0
100
AcDbSpline
62
7
6
CONTINUOUS
70
0
71
3
72
10
73
6
74
4
42
0.0000001000
43
0.0000001000
44
0.0000000001
12
0.0000000000
22
-0.2601341740
32
0.0000000000
13
0.2267298638
23
-0.1310340522
33
0.0000000000
40
0.0000000000
40
0.0000000000
40
0.0000000000
40
0.0000000000
40
0.3750057596
40
0.7499493372
40
1.0000000000
40
1.0000000000
40
1.0000000000
40
1.0000000000
10
9.1000761582
20
-23.7499939075
30
0.0000000000
10
9.1000761582
20
-23.7825111787
30
0.0000000000
10
9.1130836985
20
-23.8482519111
30
0.0000000000
10
9.1625345622
20
-23.9221235255
30
0.0000000000
10
9.2061571516
20
-23.9555785840
30
0.0000000000
10
9.2250551358
20
-23.9665003013
30
0.0000000000
11
9.1000761582
21
-23.7499939075
31
0.0000000000
11
9.1191053008
21
-23.8456717422
31
0.0000000000
11
9.1732871220
21
-23.9267737206
31
0.0000000000
11
9.2250551358
21
-23.9665003013
31
0.0000000000
0
SPLINE
5
539
100
AcDbEntity
8
0
100
AcDbSpline
62
7
6
CONTINUOUS
70
0
71
3
72
9
73
5
74
3
42
0.0000001000
43
0.0000001000
44
0.0000000001
12
0.0309718209
22
-0.0178995529
32
0.0000000000
13
0.0332700761
23
-0.0132805993
33
0.0000000000
40
0.0000000000
40
0.0000000000
40
0.0000000000
40
0.0000000000
40
0.9141197659
40
1.0000000000
40
1.0000000000
40
1.0000000000
40
1.0000000000
10
9.2250551358
20
-23.9665003013
30
0.0000000000
10
9.2344924537
20
-23.9719544130
30
0.0000000000
10
9.2452106757
20
-23.9772489566
30
0.0000000000
10
9.2562722623
20
-23.9817446083
30
0.0000000000
10
9.2572246763
20
-23.9821247886
30
0.0000000000
11
9.2250551358
21
-23.9665003013
31
0.0000000000
11
9.2543748515
21
-23.9809665409
31
0.0000000000
11
9.2572246763
21
-23.9821247886
31
0.0000000000
0
SPLINE
5
53A
100
AcDbEntity
8
0
100
AcDbSpline
62
9
6
CONTINUOUS
70
0
71
3
72
18
73
14
74
12
42
0.0000001000
43
0.0000001000
44
0.0000000001
12
1.7176717846
22
0.4904825865
32
0.0000000000
13
1.7178284694
23
-0.4899335433
33
0.0000000000
40
0.0000000000
40
0.0000000000
40
0.0000000000
40
0.0000000000
40
0.0221990562
40
0.0822327498
40
0.1756259970
40
0.2946347607
40
0.4297235244
40
0.5702772845
40
0.7053700970
40
0.8243831120
40
0.9177751034
40
0.9778007580
40
1.0000000000
40
1.0000000000
40
1.0000000000
40
1.0000000000
10
9.2068654783
20
-23.7072818230
30
0.0000000000
10
9.2195757091
20
-23.7036524062
30
0.0000000000
10
9.2696601164
20
-23.7092443429
30
0.0000000000
10
9.3732269243
20
-23.7025361232
30
0.0000000000
10
9.5359669134
20
-23.7046772458
30
0.0000000000
10
9.7426727454
20
-23.7028932339
30
0.0000000000
10
9.9777363226
20
-23.7029184358
30
0.0000000000
10
10.2222675593
20
-23.7029182720
30
0.0000000000
10
10.4573359371
20
-23.7028936434
30
0.0000000000
10
10.6640464291
20
-23.7046760663
30
0.0000000000
10
10.8267821770
20
-23.7025393262
30
0.0000000000
10
10.9303460342
20
-23.7092386621
30
0.0000000000
10
10.9804230251
20
-23.7036564386
30
0.0000000000
10
10.9931345217
20
-23.7072818230
30
0.0000000000
11
9.2068654783
21
-23.7072818230
31
0.0000000000
11
9.2465006830
21
-23.7060351256
31
0.0000000000
11
9.3537344902
21
-23.7048921776
31
0.0000000000
11
9.5205628061
21
-23.7039423636
31
0.0000000000
11
9.7331504755
21
-23.7032655097
31
0.0000000000
11
9.9744631285
21
-23.7029138326
31
0.0000000000
11
10.2255383166
21
-23.7029138259
31
0.0000000000
11
10.4668582022
21
-23.7032655125
31
0.0000000000
11
10.6794534657
21
-23.7039424178
31
0.0000000000
11
10.8462795378
21
-23.7048922779
31
0.0000000000
11
10.9534989853
21
-23.7060351157
31
0.0000000000
11
10.9931345217
21
-23.7072818230
31
0.0000000000
0
SPLINE
5
53B
100
AcDbEntity
8
0
100
AcDbSpline
62
9
6
CONTINUOUS
70
0
71
3
72
11
73
7
74
5
42
0.0000001000
43
0.0000001000
44
0.0000000001
12
0.0000475262
22
-0.3901318316
32
0.0000000000
13
0.3901318316
23
-0.0000475397
33
0.0000000000
40
0.0000000000
40
0.0000000000
40
0.0000000000
40
0.0000000000
40
0.2500222515
40
0.5000384034
40
0.7500332143
40
1.0000000000
40
1.0000000000
40
1.0000000000
40
1.0000000000
10
9.2068654783
20
-23.7072818230
30
0.0000000000
10
9.2068694391
20
-23.7397957026
30
0.0000000000
10
9.2198843926
20
-23.8055324462
30
0.0000000000
10
9.2755160390
20
-23.8886212127
30
0.0000000000
10
9.3585940113
20
-23.9442563381
30
0.0000000000
10
9.4243207354
20
-23.9572717696
30
0.0000000000
10
9.4568274021
20
-23.9572757307
30
0.0000000000
11
9.2068654783
21
-23.7072818230
31
0.0000000000
11
9.2259032024
21
-23.8029475772
31
0.0000000000
11
9.2800933218
21
-23.8840483676
31
0.0000000000
11
9.3611834107
21
-23.9382395164
31
0.0000000000
11
9.4568274021
21
-23.9572757307
31
0.0000000000
0
SPLINE
5
53C
100
AcDbEntity
8
0
100
AcDbSpline
62
9
6
CONTINUOUS
70
0
71
3
72
18
73
14
74
12
42
0.0000001000
43
0.0000001000
44
0.0000000001
12
1.1974274676
22
0.4701746301
32
0.0000000000
13
1.1978180336
23
-0.4691787307
33
0.0000000000
40
0.0000000000
40
0.0000000000
40
0.0000000000
40
0.0000000000
40
0.0219494452
40
0.0818377880
40
0.1751845353
40
0.2942752966
40
0.4295549738
40
0.5703699408
40
0.7056779859
40
0.8247949990
40
0.9181577164
40
0.9780473158
40
1.0000000000
40
1.0000000000
40
1.0000000000
40
1.0000000000
10
9.4568274021
20
-23.9572757307
30
0.0000000000
10
9.4655883582
20
-23.9538357066
30
0.0000000000
10
9.5021188012
20
-23.9590361596
30
0.0000000000
10
9.5759365151
20
-23.9526475525
30
0.0000000000
10
9.6933860018
20
-23.9546290776
30
0.0000000000
10
9.8422241799
20
-23.9529027644
30
0.0000000000
10
10.0117759497
20
-23.9529091770
30
0.0000000000
10
10.1881396865
20
-23.9529087967
30
0.0000000000
10
10.3577145341
20
-23.9529032616
30
0.0000000000
10
10.5065841061
20
-23.9546268189
30
0.0000000000
10
10.6240492864
20
-23.9526526171
30
0.0000000000
10
10.6978815890
20
-23.9590267102
30
0.0000000000
10
10.7344074909
20
-23.9538424865
30
0.0000000000
10
10.7431725979
20
-23.9572757307
30
0.0000000000
11
9.4568274021
21
-23.9572757307
31
0.0000000000
11
9.4850365748
21
-23.9560365198
31
0.0000000000
11
9.5620701015
21
-23.9548915834
31
0.0000000000
11
9.6821501878
21
-23.9539396632
31
0.0000000000
11
9.8353503610
21
-23.9532608531
31
0.0000000000
11
10.0093775533
21
-23.9529079504
31
0.0000000000
11
10.1905258545
21
-23.9529078523
31
0.0000000000
11
10.3645895403
21
-23.9532606569
31
0.0000000000
11
10.5178234847
21
-23.9539394971
31
0.0000000000
11
10.6379241155
21
-23.9548915020
31
0.0000000000
11
10.7149592591
21
-23.9560364113
31
0.0000000000
11
10.7431725979
21
-23.9572757307
31
0.0000000000
0
SPLINE
5
53D
100
AcDbEntity
8
0
100
AcDbSpline
62
9
6
CONTINUOUS
70
0
71
3
72
11
73
7
74
5
42
0.0000001000
43
0.0000001000
44
0.0000000001
12
-0.0000475269
22
-0.3901318316
32
0.0000000000
13
-0.3901318316
23
-0.0000475397
33
0.0000000000
40
0.0000000000
40
0.0000000000
40
0.0000000000
40
0.0000000000
40
0.2500106559
40
0.5000208962
40
0.7500188964
40
1.0000000000
40
1.0000000000
40
1.0000000000
40
1.0000000000
10
10.9931345217
20
-23.7072818230
30
0.0000000000
10
10.9931305610
20
-23.7397941947
30
0.0000000000
10
10.9801167031
20
-23.8055285647
30
0.0000000000
10
10.9244881220
20
-23.8886169459
30
0.0000000000
10
10.8414102467
20
-23.9442550867
30
0.0000000000
10
10.7756811265
20
-23.9572717693
30
0.0000000000
10
10.7431725979
20
-23.9572757307
30
0.0000000000
11
10.9931345217
21
-23.7072818230
31
0.0000000000
11
10.9740985627
21
-23.8029433159
31
0.0000000000
11
10.9199116020
21
-23.8840434431
31
0.0000000000
11
10.8388218508
21
-23.9382373363
31
0.0000000000
11
10.7431725979
21
-23.9572757307
31
0.0000000000
0
SPLINE
5
53E
100
AcDbEntity
8
0
100
AcDbSpline
62
7
6
CONTINUOUS
70
0
71
3
72
11
73
7
74
5
42
0.0000001000
43
0.0000001000
44
0.0000000001
12
-0.0131904588
22
-0.3919452433
32
0.0000000000
13
-0.3921455280
23
0.0041166497
33
0.0000000000
40
0.0000000000
40
0.0000000000
40
0.0000000000
40
0.0000000000
40
0.2160717426
40
0.4458319590
40
0.7001902875
40
1.0000000000
40
1.0000000000
40
1.0000000000
40
1.0000000000
10
10.9931345217
20
-22.1220354779
30
0.0000000000
10
10.9921844933
20
-22.1502649085
30
0.0000000000
10
10.9797556842
20
-22.2086287491
30
0.0000000000
10
10.9297129814
20
-22.2875531035
30
0.0000000000
10
10.8453162499
20
-22.3498650945
30
0.0000000000
10
10.7715920218
20
-22.3659714408
30
0.0000000000
10
10.7324023425
20
-22.3655600369
30
0.0000000000
11
10.9931345217
21
-22.1220354779
31
0.0000000000
11
10.9755723481
21
-22.2049317975
31
0.0000000000
11
10.9275248976
21
-22.2811567701
31
0.0000000000
11
10.8472467532
21
-22.3403655274
31
0.0000000000
11
10.7324023425
21
-22.3655600369
31
0.0000000000
0
SPLINE
5
53F
100
AcDbEntity
8
0
100
AcDbSpline
62
9
6
CONTINUOUS
70
0
71
3
72
11
73
7
74
5
42
0.0000001000
43
0.0000001000
44
0.0000000001
12
0.3901187161
22
0.0000713042
32
0.0000000000
13
0.0000712903
23
0.3901187161
33
0.0000000000
40
0.0000000000
40
0.0000000000
40
0.0000000000
40
0.0000000000
40
0.2499829699
40
0.4999847029
40
0.7499954370
40
1.0000000000
40
1.0000000000
40
1.0000000000
40
1.0000000000
10
10.6751827866
20
-22.3312305346
30
0.0000000000
10
10.7076904650
20
-22.3312245930
30
0.0000000000
10
10.7734171194
20
-22.3182050440
30
0.0000000000
10
10.8564920932
20
-22.2625681811
30
0.0000000000
10
10.9121214566
20
-22.1794852132
30
0.0000000000
10
10.9251387694
20
-22.1137547286
30
0.0000000000
10
10.9251447104
20
-22.0812442423
30
0.0000000000
11
10.6751827866
21
-22.3312305346
31
0.0000000000
11
10.7708286730
21
-22.3121882883
31
0.0000000000
11
10.8519165837
21
-22.2579949195
31
0.0000000000
11
10.9061044603
21
-22.1768991152
31
0.0000000000
11
10.9251447104
21
-22.0812442423
31
0.0000000000
0
SPLINE
5
540
100
AcDbEntity
8
0
100
AcDbSpline
62
9
6
CONTINUOUS
70
0
71
3
72
16
73
12
74
10
42
0.0000001000
43
0.0000001000
44
0.0000000001
12
-1.0724838292
22
0.6431672302
32
0.0000000000
13
0.0000000320
23
1.2505541371
33
0.0000000000
40
0.0000000000
40
0.0000000000
40
0.0000000000
40
0.0000000000
40
0.0109874470
40
0.0485990316
40
0.1213877688
40
0.2315655954
40
0.3740687431
40
0.5376737624
40
0.7071011272
40
0.8661215513
40
1.0000000000
40
1.0000000000
40
1.0000000000
40
1.0000000000
10
10.9251447104
20
-22.0812442423
30
0.0000000000
10
10.9212167573
20
-22.0788886536
30
0.0000000000
10
10.9240689689
20
-22.0535985905
30
0.0000000000
10
10.9151008525
20
-22.0087466770
30
0.0000000000
10
10.9155688074
20
-21.9131132963
30
0.0000000000
10
10.9103841254
20
-21.7792990314
30
0.0000000000
10
10.9082564018
20
-21.6050767607
30
0.0000000000
10
10.9058086643
20
-21.4070982398
30
0.0000000000
10
10.9044387748
20
-21.2019218837
30
0.0000000000
10
10.9036932320
20
-21.0092187462
30
0.0000000000
10
10.9035543599
20
-20.8871201965
30
0.0000000000
10
10.9035543613
20
-20.8313127805
30
0.0000000000
11
10.9251447104
21
-22.0812442423
31
0.0000000000
11
10.9221771230
21
-22.0678281346
31
0.0000000000
11
10.9186735925
21
-22.0209234776
31
0.0000000000
11
10.9149667705
21
-21.9299727280
31
0.0000000000
11
10.9114188055
21
-21.7922350794
31
0.0000000000
11
10.9083618615
21
-21.6140533995
31
0.0000000000
11
10.9060285778
21
-21.4094697710
31
0.0000000000
11
10.9045121829
21
-21.1975971054
31
0.0000000000
11
10.9037509776
21
-20.9987349130
31
0.0000000000
11
10.9035543613
21
-20.8313127805
31
0.0000000000
0
SPLINE
5
541
100
AcDbEntity
8
0
100
AcDbSpline
62
9
6
CONTINUOUS
70
0
71
3
72
16
73
12
74
10
42
0.0000001000
43
0.0000001000
44
0.0000000001
12
-1.2177787261
22
0.8765433206
32
0.0000000000
13
0.0000000245
23
1.5004376757
33
0.0000000000
40
0.0000000000
40
0.0000000000
40
0.0000000000
40
0.0000000000
40
0.0109190037
40
0.0485032227
40
0.1212772531
40
0.2314495611
40
0.3739544312
40
0.5375648439
40
0.7069956147
40
0.8660147520
40
1.0000000000
40
1.0000000000
40
1.0000000000
40
1.0000000000
10
10.6751827866
20
-22.3312305346
30
0.0000000000
10
10.6707504765
20
-22.3280402080
30
0.0000000000
10
10.6749430534
20
-22.2984712140
30
0.0000000000
10
10.6644902516
20
-22.2438480787
30
0.0000000000
10
10.6659468425
20
-22.1296544058
30
0.0000000000
10
10.6602818111
20
-21.9688314911
30
0.0000000000
10
10.6583433706
20
-21.7598916200
30
0.0000000000
10
10.6558329202
20
-21.5223092814
30
0.0000000000
10
10.6544809870
20
-21.2761394190
30
0.0000000000
10
10.6537305897
20
-21.0448733112
30
0.0000000000
10
10.6535924365
20
-20.8983249519
30
0.0000000000
10
10.6535924375
20
-20.8313127805
30
0.0000000000
11
10.6751827866
21
-22.3312305346
31
0.0000000000
11
10.6722138011
21
-22.3151185161
31
0.0000000000
11
10.6687109930
21
-22.2588346307
31
0.0000000000
11
10.6650047233
21
-22.1497046517
31
0.0000000000
11
10.6614571001
21
-21.9844360418
31
0.0000000000
11
10.6584003455
21
-21.7706382165
31
0.0000000000
11
10.6560671247
21
-21.5251620774
31
0.0000000000
11
10.6545506884
21
-21.2709462882
31
0.0000000000
11
10.6537893189
21
-21.0323491982
31
0.0000000000
11
10.6535924375
21
-20.8313127805
31
0.0000000000
0
SPLINE
5
542
100
AcDbEntity
8
0
100
AcDbSpline
62
9
6
CONTINUOUS
70
0
71
3
72
16
73
12
74
10
42
0.0000001000
43
0.0000001000
44
0.0000000001
12
-0.0000001013
22
1.2505552539
32
0.0000000000
13
1.0723904652
23
0.6433250604
33
0.0000000000
40
0.0000000000
40
0.0000000000
40
0.0000000000
40
0.0000000000
40
0.1354950074
40
0.2955060681
40
0.4653206259
40
0.6287439393
40
0.7706589130
40
0.8800540535
40
0.9520958924
40
0.9891969734
40
1.0000000000
40
1.0000000000
40
1.0000000000
40
1.0000000000
10
10.9035543613
20
20.8313127805
30
0.0000000000
10
10.9035543568
20
20.8877941117
30
0.0000000000
10
10.9036961643
20
21.0109796475
30
0.0000000000
10
10.9044540530
20
21.2049309259
30
0.0000000000
10
10.9058396232
20
21.4106064307
30
0.0000000000
10
10.9083013113
20
21.6084250129
30
0.0000000000
10
10.9104434203
20
21.7819982428
30
0.0000000000
10
10.9156077239
20
21.9149414568
30
0.0000000000
10
10.9151906359
20
22.0096848828
30
0.0000000000
10
10.9240343130
20
22.0540160192
30
0.0000000000
10
10.9212830228
20
22.0789276230
30
0.0000000000
10
10.9251447104
20
22.0812442423
30
0.0000000000
11
10.9035543613
21
20.8313127805
31
0.0000000000
11
10.9037557750
21
21.0007566542
31
0.0000000000
11
10.9045297112
21
21.2008578301
31
0.0000000000
11
10.9060628191
21
21.4132147836
31
0.0000000000
11
10.9084113597
21
21.6175711721
31
0.0000000000
11
10.9114773834
21
21.7950172017
31
0.0000000000
11
10.9150249831
21
21.9317758638
31
0.0000000000
11
10.9187207819
21
22.0217923268
31
0.0000000000
11
10.9222043843
21
22.0680583148
31
0.0000000000
11
10.9251447104
21
22.0812442423
31
0.0000000000
0
SPLINE
5
543
100
AcDbEntity
8
0
100
AcDbSpline
62
9
6
CONTINUOUS
70
0
71
3
72
16
73
12
74
10
42
0.0000001000
43
0.0000001000
44
0.0000000001
12
-0.0000001134
22
1.5004386023
32
0.0000000000
13
1.2177111604
23
0.8766387677
33
0.0000000000
40
0.0000000000
40
0.0000000000
40
0.0000000000
40
0.0000000000
40
0.1355775997
40
0.2955787061
40
0.4653915289
40
0.6288207742
40
0.7707436330
40
0.8801430238
40
0.9521801935
40
0.9892614027
40
1.0000000000
40
1.0000000000
40
1.0000000000
40
1.0000000000
10
10.6535924375
20
20.8313127805
30
0.0000000000
10
10.6535924324
20
20.8991214020
30
0.0000000000
10
10.6537334632
20
21.0469574558
30
0.0000000000
10
10.6544961112
20
21.2797020645
30
0.0000000000
10
10.6558633776
20
21.5264641108
30
0.0000000000
10
10.6583878054
20
21.7638552687
30
0.0000000000
10
10.6603405296
20
21.9720253457
30
0.0000000000
10
10.6659831798
20
22.1318133135
30
0.0000000000
10
10.6645851505
20
22.2449612889
30
0.0000000000
10
10.6748971728
20
22.2989543010
30
0.0000000000
10
10.6708239500
20
22.3280925777
30
0.0000000000
10
10.6751827866
20
22.3312305346
30
0.0000000000
11
10.6535924375
21
20.8313127805
31
0.0000000000
11
10.6537940462
21
21.0347385449
31
0.0000000000
11
10.6545679975
21
21.2748091337
31
0.0000000000
11
10.6561009310
21
21.5295982369
31
0.0000000000
11
10.6584491823
21
21.7748025412
31
0.0000000000
11
10.6615148499
21
21.9877270087
31
0.0000000000
11
10.6650620601
21
22.1518357458
31
0.0000000000
11
10.6687573956
21
22.2598599087
31
0.0000000000
11
10.6722404626
21
22.3153888554
31
0.0000000000
11
10.6751827866
21
22.3312305346
31
0.0000000000
0
SPLINE
5
544
100
AcDbEntity
8
0
100
AcDbSpline
62
9
6
CONTINUOUS
70
0
71
3
72
11
73
7
74
5
42
0.0000001000
43
0.0000001000
44
0.0000000001
12
0.3901187161
22
-0.0000713042
32
0.0000000000
13
0.0000712903
23
-0.3901187161
33
0.0000000000
40
0.0000000000
40
0.0000000000
40
0.0000000000
40
0.0000000000
40
0.2499825639
40
0.4999840817
40
0.7499949236
40
1.0000000000
40
1.0000000000
40
1.0000000000
40
1.0000000000
10
10.6751827866
20
22.3312305346
30
0.0000000000
10
10.7076904122
20
22.3312245930
30
0.0000000000
10
10.7734169825
20
22.3182050826
30
0.0000000000
10
10.8564919417
20
22.2625683286
30
0.0000000000
10
10.9121214119
20
22.1794853650
30
0.0000000000
10
10.9251387694
20
22.1137547954
30
0.0000000000
10
10.9251447104
20
22.0812442423
30
0.0000000000
11
10.6751827866
21
22.3312305346
31
0.0000000000
11
10.7708285238
21
22.3121883501
31
0.0000000000
11
10.8519164090
21
22.2579950942
31
0.0000000000
11
10.9061043821
21
22.1768993038
31
0.0000000000
11
10.9251447104
21
22.0812442423
31
0.0000000000
0
SPLINE
5
545
100
AcDbEntity
8
0
100
AcDbSpline
62
7
6
CONTINUOUS
70
0
71
3
72
11
73
7
74
5
42
0.0000001000
43
0.0000001000
44
0.0000000001
12
0.3921455280
22
0.0041166497
32
0.0000000000
13
0.0131904588
23
-0.3919452433
33
0.0000000000
40
0.0000000000
40
0.0000000000
40
0.0000000000
40
0.0000000000
40
0.2998097125
40
0.5541680410
40
0.7839282574
40
1.0000000000
40
1.0000000000
40
1.0000000000
40
1.0000000000
10
10.7324023425
20
22.3655600369
30
0.0000000000
10
10.7715920218
20
22.3659714408
30
0.0000000000
10
10.8453162499
20
22.3498650945
30
0.0000000000
10
10.9297129814
20
22.2875531035
30
0.0000000000
10
10.9797556842
20
22.2086287491
30
0.0000000000
10
10.9921844933
20
22.1502649085
30
0.0000000000
10
10.9931345217
20
22.1220354779
30
0.0000000000
11
10.7324023425
21
22.3655600369
31
0.0000000000
11
10.8472467532
21
22.3403655274
31
0.0000000000
11
10.9275248976
21
22.2811567701
31
0.0000000000
11
10.9755723481
21
22.2049317975
31
0.0000000000
11
10.9931345217
21
22.1220354779
31
0.0000000000
0
SPLINE
5
546
100
AcDbEntity
8
0
100
AcDbSpline
62
7
6
CONTINUOUS
70
0
71
3
72
11
73
7
74
5
42
0.0000001000
43
0.0000001000
44
0.0000000001
12
0.0131904588
22
0.3919452433
32
0.0000000000
13
0.3921455280
23
-0.0041166497
33
0.0000000000
40
0.0000000000
40
0.0000000000
40
0.0000000000
40
0.0000000000
40
0.2160717426
40
0.4458319590
40
0.7001902875
40
1.0000000000
40
1.0000000000
40
1.0000000000
40
1.0000000000
10
-13.5931345217
20
22.1220354779
30
0.0000000000
10
-13.5921844933
20
22.1502649085
30
0.0000000000
10
-13.5797556842
20
22.2086287491
30
0.0000000000
10
-13.5297129814
20
22.2875531035
30
0.0000000000
10
-13.4453162499
20
22.3498650945
30
0.0000000000
10
-13.3715920218
20
22.3659714408
30
0.0000000000
10
-13.3324023425
20
22.3655600369
30
0.0000000000
11
-13.5931345217
21
22.1220354779
31
0.0000000000
11
-13.5755723481
21
22.2049317975
31
0.0000000000
11
-13.5275248976
21
22.2811567701
31
0.0000000000
11
-13.4472467532
21
22.3403655274
31
0.0000000000
11
-13.3324023425
21
22.3655600369
31
0.0000000000
0
SPLINE
5
547
100
AcDbEntity
8
0
100
AcDbSpline
62
9
6
CONTINUOUS
70
0
71
3
72
11
73
7
74
5
42
0.0000001000
43
0.0000001000
44
0.0000000001
12
-0.3901187161
22
-0.0000713042
32
0.0000000000
13
-0.0000712903
23
-0.3901187161
33
0.0000000000
40
0.0000000000
40
0.0000000000
40
0.0000000000
40
0.0000000000
40
0.2499829753
40
0.4999847112
40
0.7499954439
40
1.0000000000
40
1.0000000000
40
1.0000000000
40
1.0000000000
10
-13.2751827866
20
22.3312305346
30
0.0000000000
10
-13.3076904657
20
22.3312245930
30
0.0000000000
10
-13.3734171213
20
22.3182050435
30
0.0000000000
10
-13.4564920953
20
22.2625681792
30
0.0000000000
10
-13.5121214572
20
22.1794852112
30
0.0000000000
10
-13.5251387694
20
22.1137547277
30
0.0000000000
10
-13.5251447104
20
22.0812442423
30
0.0000000000
11
-13.2751827866
21
22.3312305346
31
0.0000000000
11
-13.3708286750
21
22.3121882875
31
0.0000000000
11
-13.4519165860
21
22.2579949172
31
0.0000000000
11
-13.5061044614
21
22.1768991126
31
0.0000000000
11
-13.5251447104
21
22.0812442423
31
0.0000000000
0
SPLINE
5
548
100
AcDbEntity
8
0
100
AcDbSpline
62
9
6
CONTINUOUS
70
0
71
3
72
16
73
12
74
10
42
0.0000001000
43
0.0000001000
44
0.0000000001
12
1.0723657755
22
-0.6433665379
32
0.0000000000
13
-0.0000001264
23
-1.2505554201
33
0.0000000000
40
0.0000000000
40
0.0000000000
40
0.0000000000
40
0.0000000000
40
0.0107740692
40
0.0478279703
40
0.1198529674
40
0.2292905841
40
0.3713014562
40
0.5348349378
40
0.7047157124
40
0.8646904111
40
1.0000000000
40
1.0000000000
40
1.0000000000
40
1.0000000000
10
-13.5251447104
20
22.0812442423
30
0.0000000000
10
-13.5212934627
20
22.0789336837
30
0.0000000000
10
-13.5240301126
20
22.0540651276
30
0.0000000000
10
-13.5151973114
20
22.0097666761
30
0.0000000000
10
-13.5156099568
20
21.9150323694
30
0.0000000000
10
-13.5104438326
20
21.7820398364
30
0.0000000000
10
-13.5083003181
20
21.6083621845
30
0.0000000000
10
-13.5058379010
20
21.4104303454
30
0.0000000000
10
-13.5044527620
20
21.2046963875
30
0.0000000000
10
-13.5036958689
20
21.0108099252
30
0.0000000000
10
-13.5035543556
20
20.8877168271
30
0.0000000000
10
-13.5035543613
20
20.8313127805
30
0.0000000000
11
-13.5251447104
21
22.0812442423
31
0.0000000000
11
-13.5222086794
21
22.0680944580
31
0.0000000000
11
-13.5187259792
21
22.0218875640
31
0.0000000000
11
-13.5150287541
21
21.9318922269
31
0.0000000000
11
-13.5114787214
21
21.7950804731
31
0.0000000000
11
-13.5084105599
21
21.6175145128
31
0.0000000000
11
-13.5060610348
21
21.4130203279
31
0.0000000000
11
-13.5045282132
21
21.2005805343
31
0.0000000000
11
-13.5037552226
21
21.0005248011
31
0.0000000000
11
-13.5035543613
21
20.8313127805
31
0.0000000000
0
SPLINE
5
549
100
AcDbEntity
8
0
100
AcDbSpline
62
9
6
CONTINUOUS
70
0
71
3
72
16
73
12
74
10
42
0.0000001000
43
0.0000001000
44
0.0000000001
12
1.2176945805
22
-0.8766620394
32
0.0000000000
13
-0.0000001409
23
-1.5004387434
33
0.0000000000
40
0.0000000000
40
0.0000000000
40
0.0000000000
40
0.0000000000
40
0.0107094701
40
0.0477432039
40
0.1197635362
40
0.2292056922
40
0.3712250549
40
0.5347650924
40
0.7046445403
40
0.8646092827
40
1.0000000000
40
1.0000000000
40
1.0000000000
40
1.0000000000
10
-13.2751827866
20
22.3312305346
30
0.0000000000
10
-13.2708358320
20
22.3281010060
30
0.0000000000
10
-13.2748918534
20
22.2990124426
30
0.0000000000
10
-13.2645918401
20
22.2450603446
30
0.0000000000
10
-13.2659857507
20
22.1319228600
30
0.0000000000
10
-13.2603407311
20
21.9720752863
30
0.0000000000
10
-13.2583868813
20
21.7637791972
30
0.0000000000
10
-13.2558616252
20
21.5262513311
30
0.0000000000
10
-13.2544948122
20
21.2794186472
30
0.0000000000
10
-13.2537331675
20
21.0467523472
30
0.0000000000
10
-13.2535924312
20
20.8990279398
30
0.0000000000
10
-13.2535924375
20
20.8313127805
30
0.0000000000
11
-13.2751827866
21
22.3312305346
31
0.0000000000
11
-13.2722447876
21
22.3154325020
31
0.0000000000
11
-13.2687626201
21
22.2599748676
31
0.0000000000
11
-13.2650658479
21
22.1519760220
31
0.0000000000
11
-13.2615161910
21
21.9878031408
31
0.0000000000
11
-13.2584483745
21
21.7747338711
31
0.0000000000
11
-13.2560991348
21
21.5293633087
31
0.0000000000
11
-13.2545664894
21
21.2744742112
31
0.0000000000
11
-13.2537934896
21
21.0344581588
31
0.0000000000
11
-13.2535924375
21
20.8313127805
31
0.0000000000
0
SPLINE
5
54A
100
AcDbEntity
8
0
100
AcDbSpline
62
9
6
CONTINUOUS
70
0
71
3
72
16
73
12
74
10
42
0.0000001000
43
0.0000001000
44
0.0000000001
12
0.0000000052
22
-1.2505539817
32
0.0000000000
13
-1.0725087824
23
-0.6431253165
33
0.0000000000
40
0.0000000000
40
0.0000000000
40
0.0000000000
40
0.0000000000
40
0.1340749745
40
0.2931391110
40
0.4625038121
40
0.6259980284
40
0.7684011633
40
0.8785304791
40
0.9513301622
40
0.9889849674
40
1.0000000000
40
1.0000000000
40
1.0000000000
40
1.0000000000
10
-13.5035543613
20
-20.8313127805
30
0.0000000000
10
-13.5035543611
20
-20.8872021116
30
0.0000000000
10
-13.5036935452
20
-21.0094007947
30
0.0000000000
10
-13.5044401633
20
-21.2021779235
30
0.0000000000
10
-13.5058106015
20
-21.4073001123
30
0.0000000000
10
-13.5082577204
20
-21.6051648728
30
0.0000000000
10
-13.5103841842
20
-21.7792782151
30
0.0000000000
10
-13.5155668609
20
-21.9130365658
30
0.0000000000
10
-13.5150949383
20
-22.0086721197
30
0.0000000000
10
-13.5240729315
20
-22.0535526673
30
0.0000000000
10
-13.5212068040
20
-22.0788828935
30
0.0000000000
10
-13.5251447104
20
-22.0812442423
30
0.0000000000
11
-13.5035543613
21
-20.8313127805
31
0.0000000000
11
-13.5037515569
21
-20.9989806577
31
0.0000000000
11
-13.5045137912
21
-21.1978974866
31
0.0000000000
11
-13.5060305989
21
-21.4096917565
31
0.0000000000
11
-13.5083630304
21
-21.6141367953
31
0.0000000000
11
-13.5114179302
21
-21.7921933983
31
0.0000000000
11
-13.5149634799
21
-21.9298704065
31
0.0000000000
11
-13.5186688005
21
-22.0208349057
31
0.0000000000
11
-13.5221730728
21
-22.0677937016
31
0.0000000000
11
-13.5251447104
21
-22.0812442423
31
0.0000000000
0
SPLINE
5
54B
100
AcDbEntity
8
0
100
AcDbSpline
62
9
6
CONTINUOUS
70
0
71
3
72
16
73
12
74
10
42
0.0000001000
43
0.0000001000
44
0.0000000001
12
-0.0000000065
22
-1.5004375436
32
0.0000000000
13
-1.2177948024
23
-0.8765207594
33
0.0000000000
40
0.0000000000
40
0.0000000000
40
0.0000000000
40
0.0000000000
40
0.1341831529
40
0.2932458992
40
0.4626135139
40
0.6261124818
40
0.7685167880
40
0.8786403908
40
0.9514254509
40
0.9890532315
40
1.0000000000
40
1.0000000000
40
1.0000000000
40
1.0000000000
10
-13.2535924375
20
-20.8313127805
30
0.0000000000
10
-13.2535924378
20
-20.8984239273
30
0.0000000000
10
-13.2537309028
20
-21.0450930708
30
0.0000000000
10
-13.2544823829
20
-21.2764483583
30
0.0000000000
10
-13.2558348840
20
-21.5225526209
30
0.0000000000
10
-13.2583446171
20
-21.7599976231
30
0.0000000000
10
-13.2602820762
20
-21.9688061460
30
0.0000000000
10
-13.2659445364
20
-22.1295616382
30
0.0000000000
10
-13.2644843720
20
-22.2437576457
30
0.0000000000
10
-13.2749480362
20
-22.2984167973
30
0.0000000000
10
-13.2707391474
20
-22.3280321780
30
0.0000000000
10
-13.2751827866
20
-22.3312305346
30
0.0000000000
11
-13.2535924375
21
-20.8313127805
31
0.0000000000
11
-13.2537899021
21
-21.0326461240
31
0.0000000000
11
-13.2545523057
21
-21.2713086226
31
0.0000000000
11
-13.2560691548
21
-21.5254296234
31
0.0000000000
11
-13.2584015173
21
-21.7707385255
31
0.0000000000
11
-13.2614562153
21
-21.9843854562
31
0.0000000000
11
-13.2650014099
21
-22.1495810077
31
0.0000000000
11
-13.2687061695
21
-22.2587275874
31
0.0000000000
11
-13.2722097189
21
-22.3150769096
31
0.0000000000
11
-13.2751827866
21
-22.3312305346
31
0.0000000000
0
SPLINE
5
54C
100
AcDbEntity
8
0
100
AcDbSpline
62
9
6
CONTINUOUS
70
0
71
3
72
11
73
7
74
5
42
0.0000001000
43
0.0000001000
44
0.0000000001
12
-0.3901187161
22
0.0000713042
32
0.0000000000
13
-0.0000712903
23
0.3901187161
33
0.0000000000
40
0.0000000000
40
0.0000000000
40
0.0000000000
40
0.0000000000
40
0.2499825639
40
0.4999840817
40
0.7499949236
40
1.0000000000
40
1.0000000000
40
1.0000000000
40
1.0000000000
10
-13.2751827866
20
-22.3312305346
30
0.0000000000
10
-13.3076904122
20
-22.3312245930
30
0.0000000000
10
-13.3734169825
20
-22.3182050826
30
0.0000000000
10
-13.4564919417
20
-22.2625683286
30
0.0000000000
10
-13.5121214119
20
-22.1794853650
30
0.0000000000
10
-13.5251387694
20
-22.1137547954
30
0.0000000000
10
-13.5251447104
20
-22.0812442423
30
0.0000000000
11
-13.2751827866
21
-22.3312305346
31
0.0000000000
11
-13.3708285238
21
-22.3121883501
31
0.0000000000
11
-13.4519164090
21
-22.2579950942
31
0.0000000000
11
-13.5061043821
21
-22.1768993038
31
0.0000000000
11
-13.5251447104
21
-22.0812442423
31
0.0000000000
0
SPLINE
5
54D
100
AcDbEntity
8
0
100
AcDbSpline
62
7
6
CONTINUOUS
70
0
71
3
72
11
73
7
74
5
42
0.0000001000
43
0.0000001000
44
0.0000000001
12
-0.3921455280
22
-0.0041166497
32
0.0000000000
13
-0.0131904588
23
0.3919452433
33
0.0000000000
40
0.0000000000
40
0.0000000000
40
0.0000000000
40
0.0000000000
40
0.2998097125
40
0.5541680410
40
0.7839282574
40
1.0000000000
40
1.0000000000
40
1.0000000000
40
1.0000000000
10
-13.3324023425
20
-22.3655600369
30
0.0000000000
10
-13.3715920218
20
-22.3659714408
30
0.0000000000
10
-13.4453162499
20
-22.3498650945
30
0.0000000000
10
-13.5297129814
20
-22.2875531035
30
0.0000000000
10
-13.5797556842
20
-22.2086287491
30
0.0000000000
10
-13.5921844933
20
-22.1502649085
30
0.0000000000
10
-13.5931345217
20
-22.1220354779
30
0.0000000000
11
-13.3324023425
21
-22.3655600369
31
0.0000000000
11
-13.4472467532
21
-22.3403655274
31
0.0000000000
11
-13.5275248976
21
-22.2811567701
31
0.0000000000
11
-13.5755723481
21
-22.2049317975
31
0.0000000000
11
-13.5931345217
21
-22.1220354779
31
0.0000000000
0
SPLINE
5
54E
100
AcDbEntity
8
0
100
AcDbSpline
62
9
6
CONTINUOUS
70
0
71
3
72
11
73
7
74
5
42
0.0000001000
43
0.0000001000
44
0.0000000001
12
0.0000000000
22
1.1085580917
32
0.0000000000
13
0.0000000000
23
-1.1085580917
33
0.0000000000
40
0.0000000000
40
0.0000000000
40
0.0000000000
40
0.0000000000
40
0.2500000000
40
0.5000000000
40
0.7500000000
40
1.0000000000
40
1.0000000000
40
1.0000000000
40
1.0000000000
10
11.0186961927
20
-8.6807950000
30
15.7078920000
10
11.0186961927
20
-8.5884151590
30
15.7078920000
10
11.0173633958
20
-8.4043909518
30
15.7842478840
10
11.0125369112
20
-8.2896995241
30
16.0607570000
10
11.0077104267
20
-8.4043909518
30
16.3372661160
10
11.0063776297
20
-8.5884151590
30
16.4136220000
10
11.0063776297
20
-8.6807950000
30
16.4136220000
11
11.0186961927
21
-8.6807950000
31
15.7078920000
11
11.0168921809
21
-8.4312817657
31
15.8112437657
11
11.0125369112
21
-8.3279300000
31
16.0607570000
11
11.0081816415
21
-8.4312817657
31
16.3102702343
11
11.0063776297
21
-8.6807950000
31
16.4136220000
0
SPLINE
5
54F
100
AcDbEntity
8
0
100
AcDbSpline
62
9
6
CONTINUOUS
70
0
71
3
72
15
73
11
74
9
42
0.0000001000
43
0.0000001000
44
0.0000000001
12
0.0000000000
22
2.4395158702
32
0.0000000000
13
0.0165305186
23
-2.2481918507
33
-0.9470327783
40
0.0000000000
40
0.0000000000
40
0.0000000000
40
0.0000000000
40
0.1250000000
40
0.2500000000
40
0.3750000000
40
0.5000000000
40
0.6250000000
40
0.7500000000
40
0.8750000000
40
1.0000000000
40
1.0000000000
40
1.0000000000
40
1.0000000000
10
10.9970125530
20
-8.6002890000
30
16.9501468871
10
10.9970125530
20
-8.4986425054
30
16.9501468871
10
10.9976268600
20
-8.2953769316
30
16.9149532650
10
11.0002839755
20
-8.0259512780
30
16.7627272200
10
11.0043674357
20
-7.8233891738
30
16.5287859376
10
11.0094018908
20
-7.7112630763
30
16.2403622016
10
11.0148012913
20
-7.7026278575
30
15.9310307512
10
11.0199370885
20
-7.7984863891
30
15.6368011274
10
11.0242114822
20
-7.9876868409
30
15.3919212779
10
11.0261549683
20
-8.1613485489
30
15.2805790322
10
11.0268437399
20
-8.2550232093
30
15.2411193331
11
10.9970125530
21
-8.6002890000
31
16.9501468871
11
10.9979161358
21
-8.3012890495
31
16.8983806630
11
11.0005216996
21
-8.0370952029
31
16.7491080138
11
11.0045259349
21
-7.8384618416
31
16.5197055287
11
11.0094627150
21
-7.7285115561
31
16.2368775826
11
11.0147573574
21
-7.7200434826
31
15.9335477223
11
11.0197935213
21
-7.8140433758
31
15.6450260898
11
11.0239849548
21
-7.9995688592
31
15.4048990247
11
11.0268437399
21
-8.2550232093
31
15.2411193331
0
SPLINE
5
550
100
AcDbEntity
8
0
100
AcDbSpline
62
7
6
CONTINUOUS
70
0
71
3
72
10
73
6
74
4
42
0.0000001000
43
0.0000001000
44
0.0000000001
12
-0.0704975293
22
0.0032969751
32
0.0000000000
13
-0.0694760213
23
0.0124064081
33
0.0000000000
40
0.0000000000
40
0.0000000000
40
0.0000000000
40
0.0000000000
40
0.1294183897
40
0.6634789391
40
1.0000000000
40
1.0000000000
40
1.0000000000
40
1.0000000000
10
2.6201021794
20
-22.4345212068
30
0.0000000000
10
2.6170609538
20
-22.4343789771
30
0.0000000000
10
2.6014749739
20
-22.4335363568
30
0.0000000000
10
2.5780388628
20
-22.4313795754
30
0.0000000000
10
2.5577793304
20
-22.4283257352
30
0.0000000000
10
2.5499859489
20
-22.4269340627
30
0.0000000000
11
2.6201021794
21
-22.4345212068
31
0.0000000000
11
2.6109819356
21
-22.4340278674
31
0.0000000000
11
2.5734633135
21
-22.4305108988
31
0.0000000000
11
2.5499859489
21
-22.4269340627
31
0.0000000000
0
SPLINE
5
551
100
AcDbEntity
8
0
100
AcDbSpline
62
7
6
CONTINUOUS
70
0
71
3
72
9
73
5
74
3
42
0.0000001000
43
0.0000001000
44
0.0000000001
12
-0.0321385410
22
0.0057390140
32
0.0000000000
13
-0.0315126896
23
0.0085485875
33
0.0000000000
40
0.0000000000
40
0.0000000000
40
0.0000000000
40
0.0000000000
40
0.3462358598
40
1.0000000000
40
1.0000000000
40
1.0000000000
40
1.0000000000
10
2.5499859489
20
-22.4269340627
30
0.0000000000
10
2.5462767771
20
-22.4262717119
30
0.0000000000
10
2.5355887177
20
-22.4242205218
30
0.0000000000
10
2.5249870384
20
-22.4217383220
30
0.0000000000
10
2.5181197496
20
-22.4198754020
30
0.0000000000
11
2.5499859489
21
-22.4269340627
31
0.0000000000
11
2.5388859534
21
-22.4247996516
31
0.0000000000
11
2.5181197496
21
-22.4198754020
31
0.0000000000
0
SPLINE
5
552
100
AcDbEntity
8
0
100
AcDbSpline
62
7
6
CONTINUOUS
70
0
71
3
72
9
73
5
74
3
42
0.0000001000
43
0.0000001000
44
0.0000000001
12
-0.0216292107
22
0.0058674522
32
0.0000000000
13
-0.0210382106
23
0.0077487957
33
0.0000000000
40
0.0000000000
40
0.0000000000
40
0.0000000000
40
0.0000000000
40
0.4431588448
40
1.0000000000
40
1.0000000000
40
1.0000000000
40
1.0000000000
10
2.5181197496
20
-22.4198754020
30
0.0000000000
10
2.5149246909
20
-22.4190086642
30
0.0000000000
10
2.5077460732
20
-22.4169355451
30
0.0000000000
10
2.5006514147
20
-22.4145690497
30
0.0000000000
10
2.4967464342
20
-22.4131307669
30
0.0000000000
11
2.5181197496
21
-22.4198754020
31
0.0000000000
11
2.5085786438
21
-22.4171136060
31
0.0000000000
11
2.4967464342
21
-22.4131307669
31
0.0000000000
0
SPLINE
5
553
100
AcDbEntity
8
0
100
AcDbSpline
62
7
6
CONTINUOUS
70
0
71
3
72
9
73
5
74
3
42
0.0000001000
43
0.0000001000
44
0.0000000001
12
-0.0210382106
22
-0.0077487957
32
0.0000000000
13
-0.0216292107
23
-0.0058674522
33
0.0000000000
40
0.0000000000
40
0.0000000000
40
0.0000000000
40
0.0000000000
40
0.5568411552
40
1.0000000000
40
1.0000000000
40
1.0000000000
40
1.0000000000
10
-5.0967464342
20
-22.4131307669
30
0.0000000000
10
-5.1006514147
20
-22.4145690497
30
0.0000000000
10
-5.1077460732
20
-22.4169355451
30
0.0000000000
10
-5.1149246909
20
-22.4190086642
30
0.0000000000
10
-5.1181197496
20
-22.4198754020
30
0.0000000000
11
-5.0967464342
21
-22.4131307669
31
0.0000000000
11
-5.1085786438
21
-22.4171136060
31
0.0000000000
11
-5.1181197496
21
-22.4198754020
31
0.0000000000
0
SPLINE
5
554
100
AcDbEntity
8
0
100
AcDbSpline
62
7
6
CONTINUOUS
70
0
71
3
72
11
73
7
74
5
42
0.0000001000
43
0.0000001000
44
0.0000000001
12
-0.0996357662
22
-0.0270286377
32
0.0000000000
13
-0.1031086042
23
-0.0048221052
33
0.0000000000
40
0.0000000000
40
0.0000000000
40
0.0000000000
40
0.0000000000
40
0.2067717970
40
0.5463654438
40
0.9115139150
40
1.0000000000
40
1.0000000000
40
1.0000000000
40
1.0000000000
10
-5.1181197496
20
-22.4198754020
30
0.0000000000
10
-5.1249870384
20
-22.4217383220
30
0.0000000000
10
-5.1433012268
20
-22.4260262725
30
0.0000000000
10
-5.1742852557
20
-22.4310341380
30
0.0000000000
10
-5.2014749739
20
-22.4335363568
30
0.0000000000
10
-5.2170609538
20
-22.4343789771
30
0.0000000000
10
-5.2201021794
20
-22.4345212068
30
0.0000000000
11
-5.1181197496
21
-22.4198754020
31
0.0000000000
11
-5.1388859534
21
-22.4247996516
31
0.0000000000
11
-5.1734633135
21
-22.4305108988
31
0.0000000000
11
-5.2109819356
21
-22.4340278674
31
0.0000000000
11
-5.2201021794
21
-22.4345212068
31
0.0000000000
0
SPLINE
5
555
100
AcDbEntity
8
0
100
AcDbSpline
62
7
6
CONTINUOUS
70
0
71
3
72
15
73
11
74
9
42
0.0000001000
43
0.0000001000
44
0.0000000001
12
0.0000000000
22
0.2198589173
32
0.0000000000
13
0.2198589173
23
0.0000000000
33
0.0000000000
40
0.0000000000
40
0.0000000000
40
0.0000000000
40
0.0000000000
40
0.0575589834
40
0.1314541169
40
0.2285544190
40
0.3494381717
40
0.4916508640
40
0.6510524414
40
0.8224491764
40
1.0000000000
40
1.0000000000
40
1.0000000000
40
1.0000000000
10
-5.8000000000
20
-23.5242568061
30
0.0000000000
10
-5.8000000000
20
-23.5200385208
30
0.0000000000
10
-5.7964174353
20
-23.5104235503
30
0.0000000000
10
-5.7837898517
20
-23.4989763870
30
0.0000000000
10
-5.7649578504
20
-23.4886265302
30
0.0000000000
10
-5.7400655298
20
-23.4796082924
30
0.0000000000
10
-5.7099688610
20
-23.4721710727
30
0.0000000000
10
-5.6757147443
20
-23.4666346717
30
0.0000000000
10
-5.6385923832
20
-23.4632183703
30
0.0000000000
10
-5.6130120439
20
-23.4624534072
30
0.0000000000
10
-5.6000000000
20
-23.4624534072
30
0.0000000000
11
-5.8000000000
21
-23.5242568061
31
0.0000000000
11
-5.7961570561
21
-23.5121995611
31
0.0000000000
11
-5.7847759065
21
-23.5006056693
31
0.0000000000
11
-5.7662939225
21
-23.4899206774
31
0.0000000000
11
-5.7414213562
21
-23.4805552037
31
0.0000000000
11
-5.7111140466
21
-23.4728691580
31
0.0000000000
11
-5.6765366865
21
-23.4671579108
31
0.0000000000
11
-5.6390180644
21
-23.4636409422
31
0.0000000000
11
-5.6000000000
21
-23.4624534072
31
0.0000000000
0
SPLINE
5
556
100
AcDbEntity
8
0
100
AcDbSpline
62
7
6
CONTINUOUS
70
0
71
3
72
15
73
11
74
9
42
0.0000001000
43
0.0000001000
44
0.0000000001
12
0.2198589173
22
0.0000000000
32
0.0000000000
13
0.0000000000
23
-0.2198589173
33
0.0000000000
40
0.0000000000
40
0.0000000000
40
0.0000000000
40
0.0000000000
40
0.1775508236
40
0.3489475586
40
0.5083491360
40
0.6505618283
40
0.7714455810
40
0.8685458831
40
0.9424410166
40
1.0000000000
40
1.0000000000
40
1.0000000000
40
1.0000000000
10
3.0000000000
20
-23.4624534072
30
0.0000000000
10
3.0130120439
20
-23.4624534072
30
0.0000000000
10
3.0385923832
20
-23.4632183703
30
0.0000000000
10
3.0757147443
20
-23.4666346717
30
0.0000000000
10
3.1099688610
20
-23.4721710727
30
0.0000000000
10
3.1400655298
20
-23.4796082924
30
0.0000000000
10
3.1649578504
20
-23.4886265302
30
0.0000000000
10
3.1837898517
20
-23.4989763870
30
0.0000000000
10
3.1964174353
20
-23.5104235503
30
0.0000000000
10
3.2000000000
20
-23.5200385208
30
0.0000000000
10
3.2000000000
20
-23.5242568061
30
0.0000000000
11
3.0000000000
21
-23.4624534072
31
0.0000000000
11
3.0390180644
21
-23.4636409422
31
0.0000000000
11
3.0765366865
21
-23.4671579108
31
0.0000000000
11
3.1111140466
21
-23.4728691580
31
0.0000000000
11
3.1414213562
21
-23.4805552037
31
0.0000000000
11
3.1662939225
21
-23.4899206774
31
0.0000000000
11
3.1847759065
21
-23.5006056693
31
0.0000000000
11
3.1961570561
21
-23.5121995611
31
0.0000000000
11
3.2000000000
21
-23.5242568061
31
0.0000000000
0
SPLINE
5
557
100
AcDbEntity
8
0
100
AcDbSpline
62
7
6
CONTINUOUS
70
0
71
3
72
10
73
6
74
4
42
0.0000001000
43
0.0000001000
44
0.0000000001
12
0.0704975293
22
-0.0032969751
32
0.0000000000
13
0.0694760213
23
-0.0124064081
33
0.0000000000
40
0.0000000000
40
0.0000000000
40
0.0000000000
40
0.0000000000
40
0.1294183897
40
0.6634789391
40
1.0000000000
40
1.0000000000
40
1.0000000000
40
1.0000000000
10
-5.2201021794
20
22.4345212068
30
0.0000000000
10
-5.2170609538
20
22.4343789771
30
0.0000000000
10
-5.2014749739
20
22.4335363568
30
0.0000000000
10
-5.1780388628
20
22.4313795754
30
0.0000000000
10
-5.1577793304
20
22.4283257352
30
0.0000000000
10
-5.1499859489
20
22.4269340627
30
0.0000000000
11
-5.2201021794
21
22.4345212068
31
0.0000000000
11
-5.2109819356
21
22.4340278674
31
0.0000000000
11
-5.1734633135
21
22.4305108988
31
0.0000000000
11
-5.1499859489
21
22.4269340627
31
0.0000000000
0
SPLINE
5
558
100
AcDbEntity
8
0
100
AcDbSpline
62
7
6
CONTINUOUS
70
0
71
3
72
9
73
5
74
3
42
0.0000001000
43
0.0000001000
44
0.0000000001
12
0.0321385410
22
-0.0057390140
32
0.0000000000
13
0.0315126896
23
-0.0085485875
33
0.0000000000
40
0.0000000000
40
0.0000000000
40
0.0000000000
40
0.0000000000
40
0.3462358598
40
1.0000000000
40
1.0000000000
40
1.0000000000
40
1.0000000000
10
-5.1499859489
20
22.4269340627
30
0.0000000000
10
-5.1462767771
20
22.4262717119
30
0.0000000000
10
-5.1355887177
20
22.4242205218
30
0.0000000000
10
-5.1249870384
20
22.4217383220
30
0.0000000000
10
-5.1181197496
20
22.4198754020
30
0.0000000000
11
-5.1499859489
21
22.4269340627
31
0.0000000000
11
-5.1388859534
21
22.4247996516
31
0.0000000000
11
-5.1181197496
21
22.4198754020
31
0.0000000000
0
SPLINE
5
559
100
AcDbEntity
8
0
100
AcDbSpline
62
7
6
CONTINUOUS
70
0
71
3
72
9
73
5
74
3
42
0.0000001000
43
0.0000001000
44
0.0000000001
12
0.0216292107
22
-0.0058674522
32
0.0000000000
13
0.0210382106
23
-0.0077487957
33
0.0000000000
40
0.0000000000
40
0.0000000000
40
0.0000000000
40
0.0000000000
40
0.4431588448
40
1.0000000000
40
1.0000000000
40
1.0000000000
40
1.0000000000
10
-5.1181197496
20
22.4198754020
30
0.0000000000
10
-5.1149246909
20
22.4190086642
30
0.0000000000
10
-5.1077460732
20
22.4169355451
30
0.0000000000
10
-5.1006514147
20
22.4145690497
30
0.0000000000
10
-5.0967464342
20
22.4131307669
30
0.0000000000
11
-5.1181197496
21
22.4198754020
31
0.0000000000
11
-5.1085786438
21
22.4171136060
31
0.0000000000
11
-5.0967464342
21
22.4131307669
31
0.0000000000
0
SPLINE
5
55A
100
AcDbEntity
8
0
100
AcDbSpline
62
7
6
CONTINUOUS
70
0
71
3
72
9
73
5
74
3
42
0.0000001000
43
0.0000001000
44
0.0000000001
12
0.0210382106
22
0.0077487957
32
0.0000000000
13
0.0216292107
23
0.0058674522
33
0.0000000000
40
0.0000000000
40
0.0000000000
40
0.0000000000
40
0.0000000000
40
0.5568411552
40
1.0000000000
40
1.0000000000
40
1.0000000000
40
1.0000000000
10
2.4967464342
20
22.4131307669
30
0.0000000000
10
2.5006514147
20
22.4145690497
30
0.0000000000
10
2.5077460732
20
22.4169355451
30
0.0000000000
10
2.5149246909
20
22.4190086642
30
0.0000000000
10
2.5181197496
20
22.4198754020
30
0.0000000000
11
2.4967464342
21
22.4131307669
31
0.0000000000
11
2.5085786438
21
22.4171136060
31
0.0000000000
11
2.5181197496
21
22.4198754020
31
0.0000000000
0
SPLINE
5
55B
100
AcDbEntity
8
0
100
AcDbSpline
62
7
6
CONTINUOUS
70
0
71
3
72
11
73
7
74
5
42
0.0000001000
43
0.0000001000
44
0.0000000001
12
0.0996357662
22
0.0270286377
32
0.0000000000
13
0.1031086042
23
0.0048221052
33
0.0000000000
40
0.0000000000
40
0.0000000000
40
0.0000000000
40
0.0000000000
40
0.2067717970
40
0.5463654438
40
0.9115139150
40
1.0000000000
40
1.0000000000
40
1.0000000000
40
1.0000000000
10
2.5181197496
20
22.4198754020
30
0.0000000000
10
2.5249870384
20
22.4217383220
30
0.0000000000
10
2.5433012268
20
22.4260262725
30
0.0000000000
10
2.5742852557
20
22.4310341380
30
0.0000000000
10
2.6014749739
20
22.4335363568
30
0.0000000000
10
2.6170609538
20
22.4343789771
30
0.0000000000
10
2.6201021794
20
22.4345212068
30
0.0000000000
11
2.5181197496
21
22.4198754020
31
0.0000000000
11
2.5388859534
21
22.4247996516
31
0.0000000000
11
2.5734633135
21
22.4305108988
31
0.0000000000
11
2.6109819356
21
22.4340278674
31
0.0000000000
11
2.6201021794
21
22.4345212068
31
0.0000000000
0
SPLINE
5
55C
100
AcDbEntity
8
0
100
AcDbSpline
62
7
6
CONTINUOUS
70
0
71
3
72
15
73
11
74
9
42
0.0000001000
43
0.0000001000
44
0.0000000001
12
0.0000000000
22
-0.2198589173
32
0.0000000000
13
-0.2198589173
23
-0.0000000000
33
0.0000000000
40
0.0000000000
40
0.0000000000
40
0.0000000000
40
0.0000000000
40
0.0575589834
40
0.1314541169
40
0.2285544190
40
0.3494381717
40
0.4916508640
40
0.6510524414
40
0.8224491764
40
1.0000000000
40
1.0000000000
40
1.0000000000
40
1.0000000000
10
3.2000000000
20
23.5242568061
30
0.0000000000
10
3.2000000000
20
23.5200385208
30
0.0000000000
10
3.1964174353
20
23.5104235503
30
0.0000000000
10
3.1837898517
20
23.4989763870
30
0.0000000000
10
3.1649578504
20
23.4886265302
30
0.0000000000
10
3.1400655298
20
23.4796082924
30
0.0000000000
10
3.1099688610
20
23.4721710727
30
0.0000000000
10
3.0757147443
20
23.4666346717
30
0.0000000000
10
3.0385923832
20
23.4632183703
30
0.0000000000
10
3.0130120439
20
23.4624534072
30
0.0000000000
10
3.0000000000
20
23.4624534072
30
0.0000000000
11
3.2000000000
21
23.5242568061
31
0.0000000000
11
3.1961570561
21
23.5121995611
31
0.0000000000
11
3.1847759065
21
23.5006056693
31
0.0000000000
11
3.1662939225
21
23.4899206774
31
0.0000000000
11
3.1414213562
21
23.4805552037
31
0.0000000000
11
3.1111140466
21
23.4728691580
31
0.0000000000
11
3.0765366865
21
23.4671579108
31
0.0000000000
11
3.0390180644
21
23.4636409422
31
0.0000000000
11
3.0000000000
21
23.4624534072
31
0.0000000000
0
SPLINE
5
55D
100
AcDbEntity
8
0
100
AcDbSpline
62
7
6
CONTINUOUS
70
0
71
3
72
15
73
11
74
9
42
0.0000001000
43
0.0000001000
44
0.0000000001
12
-0.2198589173
22
0.0000000000
32
0.0000000000
13
0.0000000000
23
0.2198589173
33
0.0000000000
40
0.0000000000
40
0.0000000000
40
0.0000000000
40
0.0000000000
40
0.1775508236
40
0.3489475586
40
0.5083491360
40
0.6505618283
40
0.7714455810
40
0.8685458831
40
0.9424410166
40
1.0000000000
40
1.0000000000
40
1.0000000000
40
1.0000000000
10
-5.6000000000
20
23.4624534072
30
0.0000000000
10
-5.6130120439
20
23.4624534072
30
0.0000000000
10
-5.6385923832
20
23.4632183703
30
0.0000000000
10
-5.6757147443
20
23.4666346717
30
0.0000000000
10
-5.7099688610
20
23.4721710727
30
0.0000000000
10
-5.7400655298
20
23.4796082924
30
0.0000000000
10
-5.7649578504
20
23.4886265302
30
0.0000000000
10
-5.7837898517
20
23.4989763870
30
0.0000000000
10
-5.7964174353
20
23.5104235503
30
0.0000000000
10
-5.8000000000
20
23.5200385208
30
0.0000000000
10
-5.8000000000
20
23.5242568061
30
0.0000000000
11
-5.6000000000
21
23.4624534072
31
0.0000000000
11
-5.6390180644
21
23.4636409422
31
0.0000000000
11
-5.6765366865
21
23.4671579108
31
0.0000000000
11
-5.7111140466
21
23.4728691580
31
0.0000000000
11
-5.7414213562
21
23.4805552037
31
0.0000000000
11
-5.7662939225
21
23.4899206774
31
0.0000000000
11
-5.7847759065
21
23.5006056693
31
0.0000000000
11
-5.7961570561
21
23.5121995611
31
0.0000000000
11
-5.8000000000
21
23.5242568061
31
0.0000000000
0
SPLINE
5
55E
100
AcDbEntity
8
0
100
AcDbSpline
62
9
6
CONTINUOUS
70
0
71
3
72
12
73
8
74
6
42
0.0000001000
43
0.0000001000
44
0.0000000001
12
-0.8688162100
22
0.0043702744
32
0.0000000000
13
0.0000000006
23
0.0000001242
33
0.0000000000
40
0.0000000000
40
0.0000000000
40
0.0000000000
40
0.0000000000
40
0.2854277192
40
0.5471217598
40
0.7645484124
40
0.9194989320
40
1.0000000000
40
1.0000000000
40
1.0000000000
40
1.0000000000
10
-67.1197196256
20
-23.7072818230
30
0.0000000000
10
-67.2023810353
20
-23.7068660238
30
0.0000000000
10
-67.3621258316
20
-23.7060632099
30
0.0000000000
10
-67.5784137472
20
-23.7049759687
30
0.0000000000
10
-67.7761156830
20
-23.7039818291
30
0.0000000000
10
-67.8758561690
20
-23.7034804228
30
0.0000000000
10
-67.9885352455
20
-23.7029138359
30
0.0000000000
10
-67.9885352455
20
-23.7029138326
30
0.0000000000
11
-67.1197196256
21
-23.7072818230
31
0.0000000000
11
-67.3677038583
21
-23.7060351256
31
0.0000000000
11
-67.5950678866
21
-23.7048921776
31
0.0000000000
11
-67.7839716888
21
-23.7039423636
31
0.0000000000
11
-67.9185952136
21
-23.7032655097
31
0.0000000000
11
-67.9885352455
21
-23.7029138326
31
0.0000000000
0
SPLINE
5
55F
100
AcDbEntity
8
0
100
AcDbSpline
62
9
6
CONTINUOUS
70
0
71
3
72
13
73
9
74
7
42
0.0000001000
43
0.0000001000
44
0.0000000001
12
-0.8776802796
22
-0.0044146438
32
0.0000000000
13
-0.0000000057
23
0.0000008570
33
0.0000000000
40
0.0000000000
40
0.0000000000
40
0.0000000000
40
0.0000000000
40
0.2595762719
40
0.5008735894
40
0.7081594741
40
0.8668160538
40
0.9661673824
40
1.0000000000
40
1.0000000000
40
1.0000000000
40
1.0000000000
10
-67.1197196256
20
23.7072818230
30
0.0000000000
10
-67.1956612839
20
23.7068998441
30
0.0000000000
10
-67.3417802458
20
23.7061654883
30
0.0000000000
10
-67.5506437877
20
23.7051155196
30
0.0000000000
10
-67.7234330689
20
23.7042466776
30
0.0000000000
10
-67.8716305013
20
23.7035016227
30
0.0000000000
10
-67.9346322816
20
23.7031848146
30
0.0000000000
10
-67.9974004756
20
23.7028692523
30
0.0000000000
10
-67.9974004757
20
23.7028692619
30
0.0000000000
11
-67.1197196256
21
23.7072818230
31
0.0000000000
11
-67.3475446034
21
23.7061364659
31
0.0000000000
11
-67.5593265035
21
23.7050718240
31
0.0000000000
11
-67.7412572385
21
23.7041570848
31
0.0000000000
11
-67.8805069913
21
23.7034569732
31
0.0000000000
11
-67.9677056940
21
23.7030185426
31
0.0000000000
11
-67.9974004757
21
23.7028692619
31
0.0000000000
0
SPLINE
5
560
100
AcDbEntity
8
0
100
AcDbSpline
62
7
6
CONTINUOUS
70
0
71
3
72
11
73
7
74
5
42
0.0000001000
43
0.0000001000
44
0.0000000001
12
0.0000000000
22
-0.2499756318
32
0.0000000000
13
-0.0000000000
23
-0.2499756318
33
0.0000000000
40
0.0000000000
40
0.0000000000
40
0.0000000000
40
0.0000000000
40
0.3827102569
40
0.7071391641
40
0.9238946396
40
1.0000000000
40
1.0000000000
40
1.0000000000
40
1.0000000000
10
-60.9974004757
20
-23.7500243682
30
0.0000000000
10
-60.9974004757
20
-23.7819137810
30
0.0000000000
10
-60.9974004757
20
-23.8408363007
30
0.0000000000
10
-60.9974004757
20
-23.9178200162
30
0.0000000000
10
-60.9974004757
20
-23.9692558140
30
0.0000000000
10
-60.9974004757
20
-23.9936585048
30
0.0000000000
10
-60.9974004757
20
-24.0000000000
30
0.0000000000
11
-60.9974004757
21
-23.7500243682
31
0.0000000000
11
-60.9974004757
21
-23.8456926065
31
0.0000000000
11
-60.9974004757
21
-23.9267919275
31
0.0000000000
11
-60.9974004757
21
-23.9809755145
31
0.0000000000
11
-60.9974004757
21
-24.0000000000
31
0.0000000000
0
SPLINE
5
561
100
AcDbEntity
8
0
100
AcDbSpline
62
9
6
CONTINUOUS
70
0
71
3
72
13
73
9
74
7
42
0.0000001000
43
0.0000001000
44
0.0000000001
12
-0.8776802796
22
-0.0044146438
32
0.0000000000
13
-0.0000000057
23
0.0000008570
33
0.0000000000
40
0.0000000000
40
0.0000000000
40
0.0000000000
40
0.0000000000
40
0.2595762719
40
0.5008735894
40
0.7081594741
40
0.8668160538
40
0.9661673824
40
1.0000000000
40
1.0000000000
40
1.0000000000
40
1.0000000000
10
-67.1197196256
20
23.7072818230
30
0.0000000000
10
-67.1956612839
20
23.7068998441
30
0.0000000000
10
-67.3417802458
20
23.7061654883
30
0.0000000000
10
-67.5506437877
20
23.7051155196
30
0.0000000000
10
-67.7234330689
20
23.7042466776
30
0.0000000000
10
-67.8716305013
20
23.7035016227
30
0.0000000000
10
-67.9346322816
20
23.7031848146
30
0.0000000000
10
-67.9974004756
20
23.7028692523
30
0.0000000000
10
-67.9974004757
20
23.7028692619
30
0.0000000000
11
-67.1197196256
21
23.7072818230
31
0.0000000000
11
-67.3475446034
21
23.7061364659
31
0.0000000000
11
-67.5593265035
21
23.7050718240
31
0.0000000000
11
-67.7412572385
21
23.7041570848
31
0.0000000000
11
-67.8805069913
21
23.7034569732
31
0.0000000000
11
-67.9677056940
21
23.7030185426
31
0.0000000000
11
-67.9974004757
21
23.7028692619
31
0.0000000000
0
SPLINE
5
562
100
AcDbEntity
8
0
100
AcDbSpline
62
9
6
CONTINUOUS
70
0
71
3
72
11
73
7
74
5
42
0.0000001000
43
0.0000001000
44
0.0000000001
12
-0.0017452321
22
-0.2500611299
32
0.0000000000
13
0.2500611260
23
-0.0017457844
33
0.0000000000
40
0.0000000000
40
0.0000000000
40
0.0000000000
40
0.0000000000
40
0.3825454673
40
0.7068623280
40
0.9236193073
40
1.0000000000
40
1.0000000000
40
1.0000000000
40
1.0000000000
10
-67.1197196256
20
-23.7072818230
30
0.0000000000
10
-67.1199421691
20
-23.7391684069
30
0.0000000000
10
-67.1185469973
20
-23.7961718835
30
0.0000000000
10
-67.1239652872
20
-23.8799156340
30
0.0000000000
10
-67.1119578109
20
-23.9180343940
30
0.0000000000
10
-67.1234684531
20
-23.9572312826
30
0.0000000000
10
-67.1171018391
20
-23.9572757307
30
0.0000000000
11
-67.1197196256
21
-23.7072818230
31
0.0000000000
11
-67.1200552010
21
-23.8029433159
31
0.0000000000
11
-67.1196755611
21
-23.8840434431
31
0.0000000000
11
-67.1186384870
21
-23.9382373363
31
0.0000000000
11
-67.1171018391
21
-23.9572757307
31
0.0000000000
0
SPLINE
5
563
100
AcDbEntity
8
0
100
AcDbSpline
62
7
6
CONTINUOUS
70
0
71
3
72
11
73
7
74
5
42
0.0000001000
43
0.0000001000
44
0.0000000001
12
0.0000000000
22
-0.2499756318
32
0.0000000000
13
0.0000000000
23
-0.2499756318
33
0.0000000000
40
0.0000000000
40
0.0000000000
40
0.0000000000
40
0.0000000000
40
0.0761053604
40
0.2928608359
40
0.6172897431
40
1.0000000000
40
1.0000000000
40
1.0000000000
40
1.0000000000
10
-60.9974004757
20
24.0000000000
30
0.0000000000
10
-60.9974004757
20
23.9936585048
30
0.0000000000
10
-60.9974004757
20
23.9692558140
30
0.0000000000
10
-60.9974004757
20
23.9178200162
30
0.0000000000
10
-60.9974004757
20
23.8408363007
30
0.0000000000
10
-60.9974004757
20
23.7819137810
30
0.0000000000
10
-60.9974004757
20
23.7500243682
30
0.0000000000
11
-60.9974004757
21
24.0000000000
31
0.0000000000
11
-60.9974004757
21
23.9809755145
31
0.0000000000
11
-60.9974004757
21
23.9267919275
31
0.0000000000
11
-60.9974004757
21
23.8456926065
31
0.0000000000
11
-60.9974004757
21
23.7500243682
31
0.0000000000
0
SPLINE
5
564
100
AcDbEntity
8
0
100
AcDbSpline
62
9
6
CONTINUOUS
70
0
71
3
72
11
73
7
74
5
42
0.0000001000
43
0.0000001000
44
0.0000000001
12
-0.2500611261
22
-0.0017457844
32
0.0000000000
13
0.0017452518
23
-0.2500611299
33
0.0000000000
40
0.0000000000
40
0.0000000000
40
0.0000000000
40
0.0000000000
40
0.0763806929
40
0.2931376724
40
0.6174545330
40
1.0000000000
40
1.0000000000
40
1.0000000000
40
1.0000000000
10
-67.1171018391
20
23.9572757307
30
0.0000000000
10
-67.1234684531
20
23.9572312826
30
0.0000000000
10
-67.1119578123
20
23.9180343940
30
0.0000000000
10
-67.1239652898
20
23.8799156339
30
0.0000000000
10
-67.1185470033
20
23.7961718835
30
0.0000000000
10
-67.1199421716
20
23.7391684069
30
0.0000000000
10
-67.1197196256
20
23.7072818230
30
0.0000000000
11
-67.1171018391
21
23.9572757307
31
0.0000000000
11
-67.1186384877
21
23.9382373363
31
0.0000000000
11
-67.1196755636
21
23.8840434431
31
0.0000000000
11
-67.1200552056
21
23.8029433159
31
0.0000000000
11
-67.1197196256
21
23.7072818230
31
0.0000000000
0
SPLINE
5
565
100
AcDbEntity
8
0
100
AcDbSpline
62
7
6
CONTINUOUS
70
0
71
3
72
11
73
7
74
5
42
0.0000001000
43
0.0000001000
44
0.0000000001
12
-0.5911163240
22
-0.3065913644
32
0.0000000000
13
-0.6658589557
23
0.0069731136
33
0.0000000000
40
0.0000000000
40
0.0000000000
40
0.0000000000
40
0.0000000000
40
0.2724050940
40
0.5377736615
40
0.7842671739
40
1.0000000000
40
1.0000000000
40
1.0000000000
40
1.0000000000
10
-67.1197196256
20
-22.1220354779
30
0.0000000000
10
-67.1733939915
20
-22.1498744944
30
0.0000000000
10
-67.2792764928
20
-22.2048959056
30
0.0000000000
10
-67.4359717596
20
-22.2812489998
30
0.0000000000
10
-67.5852692013
20
-22.3418785471
30
0.0000000000
10
-67.6871194470
20
-22.3660614801
30
0.0000000000
10
-67.7350019918
20
-22.3655600369
30
0.0000000000
11
-67.1197196256
21
-22.1220354779
31
0.0000000000
11
-67.2810631590
21
-22.2049317975
31
0.0000000000
11
-67.4404851590
21
-22.2811567701
31
0.0000000000
11
-67.5935730608
21
-22.3403655274
31
0.0000000000
11
-67.7350019918
21
-22.3655600369
31
0.0000000000
0
SPLINE
5
566
100
AcDbEntity
8
0
100
AcDbSpline
62
9
6
CONTINUOUS
70
0
71
3
72
11
73
7
74
5
42
0.0000001000
43
0.0000001000
44
0.0000000001
12
-0.2500382756
22
0.0026184904
32
0.0000000000
13
0.0026176921
23
0.2500382840
33
0.0000000000
40
0.0000000000
40
0.0000000000
40
0.0000000000
40
0.0000000000
40
0.0763797509
40
0.2931346812
40
0.6174506888
40
1.0000000000
40
1.0000000000
40
1.0000000000
40
1.0000000000
10
-71.0131081519
20
-22.3312305346
30
0.0000000000
10
-71.0194741056
20
-22.3311638680
30
0.0000000000
10
-71.0078275737
20
-22.2920101923
30
0.0000000000
10
-71.0197011219
20
-22.2538523042
30
0.0000000000
10
-71.0139909330
20
-22.1701329836
30
0.0000000000
10
-71.0151871062
20
-22.1131282334
30
0.0000000000
10
-71.0148533074
20
-22.0812442423
30
0.0000000000
11
-71.0131081519
21
-22.3312305346
31
0.0000000000
11
-71.0145782396
21
-22.3121882883
31
0.0000000000
11
-71.0154261018
21
-22.2579949195
31
0.0000000000
11
-71.0155226905
21
-22.1768991152
31
0.0000000000
11
-71.0148533074
21
-22.0812442423
31
0.0000000000
0
SPLINE
5
567
100
AcDbEntity
8
0
100
AcDbSpline
62
9
6
CONTINUOUS
70
0
71
3
72
12
73
8
74
6
42
0.0000001000
43
0.0000001000
44
0.0000000001
12
-0.3044824668
22
0.0132314530
32
0.0000000000
13
0.0026556990
23
-0.3047582504
33
0.0000000000
40
0.0000000000
40
0.0000000000
40
0.0000000000
40
0.0000000000
40
0.0489918087
40
0.1910593376
40
0.4123429545
40
0.6910219908
40
1.0000000000
40
1.0000000000
40
1.0000000000
40
1.0000000000
10
-60.9452188418
20
15.3122759399
30
0.0000000000
10
-60.9501912241
20
15.3124920175
30
0.0000000000
10
-60.9399354244
20
15.2807234459
30
0.0000000000
10
-60.9500274747
20
15.2502742733
30
0.0000000000
10
-60.9448202111
20
15.1790608747
30
0.0000000000
10
-60.9464607301
20
15.0992192082
30
0.0000000000
10
-60.9454923593
20
15.0389150359
30
0.0000000000
10
-60.9452188418
20
15.0075271701
30
0.0000000000
11
-60.9452188418
21
15.3122759399
31
0.0000000000
11
-60.9459134090
21
15.2973608787
31
0.0000000000
11
-60.9462786312
21
15.2540645237
31
0.0000000000
11
-60.9462787006
21
15.1866239553
31
0.0000000000
11
-60.9459135032
21
15.1016917804
31
0.0000000000
11
-60.9452188418
21
15.0075271701
31
0.0000000000
0
SPLINE
5
568
100
AcDbEntity
8
0
100
AcDbSpline
62
9
6
CONTINUOUS
70
0
71
3
72
16
73
12
74
10
42
0.0000001000
43
0.0000001000
44
0.0000000001
12
-1.9477178356
22
0.0203882836
32
0.0000000000
13
0.0000028520
23
1.9478245427
33
0.0000000000
40
0.0000000000
40
0.0000000000
40
0.0000000000
40
0.0000000000
40
0.0875548543
40
0.1933779135
40
0.3119821762
40
0.4380381695
40
0.5663043175
40
0.6917689848
40
0.8093317313
40
0.9138522872
40
1.0000000000
40
1.0000000000
40
1.0000000000
40
1.0000000000
10
-71.0148533074
20
-22.0812442423
30
0.0000000000
10
-71.0716973579
20
-22.0806492112
30
0.0000000000
10
-71.1973071585
20
-22.0707444803
30
0.0000000000
10
-71.3954344942
20
-22.0244492739
30
0.0000000000
10
-71.6058309713
20
-21.9343540612
30
0.0000000000
10
-71.8075786918
20
-21.7976472544
30
0.0000000000
10
-71.9815926979
20
-21.6206028384
30
0.0000000000
10
-72.1142989107
20
-21.4174924936
30
0.0000000000
10
-72.2003819878
20
-21.2075181416
30
0.0000000000
10
-72.2434321692
20
-21.0111864314
30
0.0000000000
10
-72.2517636592
20
-20.8872463237
30
0.0000000000
10
-72.2517635773
20
-20.8313127805
30
0.0000000000
11
-71.0148533074
21
-22.0812442423
31
0.0000000000
11
-71.1848662754
21
-22.0678281346
31
0.0000000000
11
-71.3855834059
21
-22.0209234776
31
0.0000000000
11
-71.5979470970
21
-21.9299727280
31
0.0000000000
11
-71.8012098714
21
-21.7922350794
31
0.0000000000
11
-71.9763420790
21
-21.6140533995
31
0.0000000000
11
-72.1100158121
21
-21.4094697710
31
0.0000000000
11
-72.1968900190
21
-21.1975971054
31
0.0000000000
11
-72.2404994400
21
-20.9987349130
31
0.0000000000
11
-72.2517635773
21
-20.8313127805
31
0.0000000000
0
SPLINE
5
569
100
AcDbEntity
8
0
100
AcDbSpline
62
9
6
CONTINUOUS
70
0
71
3
72
12
73
8
74
6
42
0.0000001000
43
0.0000001000
44
0.0000000001
12
-0.3046083642
22
-0.0099193030
32
0.0000000000
13
0.0026571076
23
0.3047582450
33
0.0000000000
40
0.0000000000
40
0.0000000000
40
0.0000000000
40
0.0000000000
40
0.0489709490
40
0.1909898608
40
0.4122747487
40
0.6910000400
40
1.0000000000
40
1.0000000000
40
1.0000000000
40
1.0000000000
10
-60.9452188418
20
-9.5122759399
30
0.0000000000
10
-60.9501911620
20
-9.5124378591
30
0.0000000000
10
-60.9399350159
20
-9.4808101359
30
0.0000000000
10
-60.9500292192
20
-9.4502460757
30
0.0000000000
10
-60.9448190451
20
-9.3790946340
30
0.0000000000
10
-60.9464610488
20
-9.2992222124
30
0.0000000000
10
-60.9454925239
20
-9.2389172652
30
0.0000000000
10
-60.9452188418
20
-9.2075271701
30
0.0000000000
11
-60.9452188418
21
-9.5122759399
31
0.0000000000
11
-60.9459134015
21
-9.4973672423
31
0.0000000000
11
-60.9462786555
21
-9.4540857042
31
0.0000000000
11
-60.9462786856
21
-9.3866447469
31
0.0000000000
11
-60.9459134870
21
-9.3016984728
31
0.0000000000
11
-60.9452188418
21
-9.2075271701
31
0.0000000000
0
SPLINE
5
56A
100
AcDbEntity
8
0
100
AcDbSpline
62
9
6
CONTINUOUS
70
0
71
3
72
12
73
8
74
6
42
0.0000001000
43
0.0000001000
44
0.0000000001
12
-0.8688162100
22
0.0043702744
32
0.0000000000
13
0.0000000006
23
0.0000001242
33
0.0000000000
40
0.0000000000
40
0.0000000000
40
0.0000000000
40
0.0000000000
40
0.2854277192
40
0.5471217598
40
0.7645484124
40
0.9194989320
40
1.0000000000
40
1.0000000000
40
1.0000000000
40
1.0000000000
10
-67.1197196256
20
-23.7072818230
30
0.0000000000
10
-67.2023810353
20
-23.7068660238
30
0.0000000000
10
-67.3621258316
20
-23.7060632099
30
0.0000000000
10
-67.5784137472
20
-23.7049759687
30
0.0000000000
10
-67.7761156830
20
-23.7039818291
30
0.0000000000
10
-67.8758561690
20
-23.7034804228
30
0.0000000000
10
-67.9885352455
20
-23.7029138359
30
0.0000000000
10
-67.9885352455
20
-23.7029138326
30
0.0000000000
11
-67.1197196256
21
-23.7072818230
31
0.0000000000
11
-67.3677038583
21
-23.7060351256
31
0.0000000000
11
-67.5950678866
21
-23.7048921776
31
0.0000000000
11
-67.7839716888
21
-23.7039423636
31
0.0000000000
11
-67.9185952136
21
-23.7032655097
31
0.0000000000
11
-67.9885352455
21
-23.7029138326
31
0.0000000000
0
SPLINE
5
56B
100
AcDbEntity
8
0
100
AcDbSpline
62
9
6
CONTINUOUS
70
0
71
3
72
16
73
12
74
10
42
0.0000001000
43
0.0000001000
44
0.0000000001
12
-0.0000090377
22
1.9478259870
32
0.0000000000
13
1.9477192089
23
0.0203950766
33
0.0000000000
40
0.0000000000
40
0.0000000000
40
0.0000000000
40
0.0000000000
40
0.0871927563
40
0.1924150134
40
0.3103947559
40
0.4360078894
40
0.5641925945
40
0.6899583233
40
0.8080760438
40
0.9132538214
40
1.0000000000
40
1.0000000000
40
1.0000000000
40
1.0000000000
10
-72.2517635773
20
20.8313127805
30
0.0000000000
10
-72.2517638400
20
20.8879248861
30
0.0000000000
10
-72.2432532667
20
21.0130046019
30
0.0000000000
10
-72.1994670124
20
21.2106306361
30
0.0000000000
10
-72.1124229206
20
21.4211143823
30
0.0000000000
10
-71.9788306218
20
21.6240263199
30
0.0000000000
10
-71.8042929166
20
21.8003464752
30
0.0000000000
10
-71.6025715504
20
21.9360775139
30
0.0000000000
10
-71.3928014282
20
22.0252469275
30
0.0000000000
10
-71.1958355974
20
22.0709036086
30
0.0000000000
10
-71.0711723735
20
22.0806545106
30
0.0000000000
10
-71.0148533074
20
22.0812442423
30
0.0000000000
11
-72.2517635773
21
20.8313127805
31
0.0000000000
11
-72.2402245939
21
21.0007566542
31
0.0000000000
11
-72.1958858231
21
21.2008578301
31
0.0000000000
11
-72.1080541282
21
21.4132147836
31
0.0000000000
11
-71.9735063253
21
21.6175711721
31
0.0000000000
11
-71.7978539474
21
21.7950172017
31
0.0000000000
11
-71.5946120983
21
21.9317758638
31
0.0000000000
11
-71.3828799236
21
22.0217923268
31
0.0000000000
11
-71.1833044761
21
22.0680583148
31
0.0000000000
11
-71.0148533074
21
22.0812442423
31
0.0000000000
0
SPLINE
5
56C
100
AcDbEntity
8
0
100
AcDbSpline
62
7
6
CONTINUOUS
70
0
71
3
72
11
73
7
74
5
42
0.0000001000
43
0.0000001000
44
0.0000000001
12
0.6658589557
22
0.0069731136
32
0.0000000000
13
0.5911163240
23
-0.3065913644
33
0.0000000000
40
0.0000000000
40
0.0000000000
40
0.0000000000
40
0.0000000000
40
0.2157328261
40
0.4622263385
40
0.7275949060
40
1.0000000000
40
1.0000000000
40
1.0000000000
40
1.0000000000
10
-67.7350019918
20
22.3655600369
30
0.0000000000
10
-67.6871194470
20
22.3660614801
30
0.0000000000
10
-67.5852692013
20
22.3418785471
30
0.0000000000
10
-67.4359717596
20
22.2812489998
30
0.0000000000
10
-67.2792764928
20
22.2048959056
30
0.0000000000
10
-67.1733939915
20
22.1498744944
30
0.0000000000
10
-67.1197196256
20
22.1220354779
30
0.0000000000
11
-67.7350019918
21
22.3655600369
31
0.0000000000
11
-67.5935730608
21
22.3403655274
31
0.0000000000
11
-67.4404851590
21
22.2811567701
31
0.0000000000
11
-67.2810631590
21
22.2049317975
31
0.0000000000
11
-67.1197196256
21
22.1220354779
31
0.0000000000
0
SPLINE
5
56D
100
AcDbEntity
8
0
100
AcDbSpline
62
9
6
CONTINUOUS
70
0
71
3
72
11
73
7
74
5
42
0.0000001000
43
0.0000001000
44
0.0000000001
12
-0.2500382757
22
-0.0026184904
32
0.0000000000
13
0.0026176929
23
-0.2500382840
33
0.0000000000
40
0.0000000000
40
0.0000000000
40
0.0000000000
40
0.0000000000
40
0.0763795038
40
0.2931339828
40
0.6174499345
40
1.0000000000
40
1.0000000000
40
1.0000000000
40
1.0000000000
10
-71.0131081519
20
22.3312305346
30
0.0000000000
10
-71.0194740850
20
22.3311638683
30
0.0000000000
10
-71.0078275900
20
22.2920102890
30
0.0000000000
10
-71.0197011206
20
22.2538524465
30
0.0000000000
10
-71.0139909297
20
22.1701330990
30
0.0000000000
10
-71.0151871070
20
22.1131282962
30
0.0000000000
10
-71.0148533074
20
22.0812442423
30
0.0000000000
11
-71.0131081519
21
22.3312305346
31
0.0000000000
11
-71.0145782378
21
22.3121883501
31
0.0000000000
11
-71.0154261009
21
22.2579950942
31
0.0000000000
11
-71.0155226914
21
22.1768993038
31
0.0000000000
11
-71.0148533074
21
22.0812442423
31
0.0000000000
0
SPLINE
5
56E
100
AcDbEntity
8
0
100
AcDbSpline
62
9
6
CONTINUOUS
70
0
71
3
72
11
73
7
74
5
42
0.0000001000
43
0.0000001000
44
0.0000000001
12
0.0021815146
22
0.2499958502
32
0.0000000000
13
-0.2499958487
23
0.0021816807
33
0.0000000000
40
0.0000000000
40
0.0000000000
40
0.0000000000
40
0.0000000000
40
0.3772112803
40
0.7043648617
40
0.9231599060
40
1.0000000000
40
1.0000000000
40
1.0000000000
40
1.0000000000
10
-60.9452188418
20
-4.9377145409
30
0.0000000000
10
-60.9449445445
20
-4.9062807893
30
0.0000000000
10
-60.9462927583
20
-4.8494841650
30
0.0000000000
10
-60.9396902068
20
-4.7657418844
30
0.0000000000
10
-60.9523909738
20
-4.7273860244
30
0.0000000000
10
-60.9388156070
20
-4.6877799403
30
0.0000000000
10
-60.9452188418
20
-4.6877240601
30
0.0000000000
11
-60.9452188418
21
-4.9377145409
31
0.0000000000
11
-60.9445571139
21
-4.8434120176
31
0.0000000000
11
-60.9443153191
21
-4.7616222234
31
0.0000000000
11
-60.9445481061
21
-4.7069227831
31
0.0000000000
11
-60.9452188418
21
-4.6877240601
31
0.0000000000
0
SPLINE
5
56F
100
AcDbEntity
8
0
100
AcDbSpline
62
9
6
CONTINUOUS
70
0
71
3
72
11
73
7
74
5
42
0.0000001000
43
0.0000001000
44
0.0000000001
12
0.0000000000
22
1.1085580917
32
0.0000000000
13
0.0000000000
23
-1.1085580917
33
0.0000000000
40
0.0000000000
40
0.0000000000
40
0.0000000000
40
0.0000000000
40
0.2500000000
40
0.5000000000
40
0.7500000000
40
1.0000000000
40
1.0000000000
40
1.0000000000
40
1.0000000000
10
-65.6552924757
20
-8.6807950000
30
11.0186961927
10
-65.6552924757
20
-8.5884151590
30
11.0186961927
10
-65.7316483597
20
-8.4043909518
30
11.0173633958
10
-66.0081574757
20
-8.2896995241
30
11.0125369112
10
-66.2846665917
20
-8.4043909518
30
11.0077104267
10
-66.3610224757
20
-8.5884151590
30
11.0063776297
10
-66.3610224757
20
-8.6807950000
30
11.0063776297
11
-65.6552924757
21
-8.6807950000
31
11.0186961927
11
-65.7586442413
21
-8.4312817657
31
11.0168921809
11
-66.0081574757
21
-8.3279300000
31
11.0125369112
11
-66.2576707100
21
-8.4312817657
31
11.0081816415
11
-66.3610224757
21
-8.6807950000
31
11.0063776297
0
SPLINE
5
570
100
AcDbEntity
8
0
100
AcDbSpline
62
9
6
CONTINUOUS
70
0
71
3
72
15
73
11
74
9
42
0.0000001000
43
0.0000001000
44
0.0000000001
12
0.0000000000
22
2.4395158702
32
0.0000000000
13
0.9470327783
23
-2.2481918507
33
0.0165305186
40
0.0000000000
40
0.0000000000
40
0.0000000000
40
0.0000000000
40
0.1250000000
40
0.2500000000
40
0.3750000000
40
0.5000000000
40
0.6250000000
40
0.7500000000
40
0.8750000000
40
1.0000000000
40
1.0000000000
40
1.0000000000
40
1.0000000000
10
-66.8975473628
20
-8.6002890000
30
10.9970125530
10
-66.8975473628
20
-8.4986425054
30
10.9970125530
10
-66.8623537407
20
-8.2953769316
30
10.9976268600
10
-66.7101276957
20
-8.0259512780
30
11.0002839755
10
-66.4761864133
20
-7.8233891738
30
11.0043674357
10
-66.1877626773
20
-7.7112630763
30
11.0094018908
10
-65.8784312269
20
-7.7026278575
30
11.0148012913
10
-65.5842016031
20
-7.7984863891
30
11.0199370885
10
-65.3393217536
20
-7.9876868409
30
11.0242114822
10
-65.2279795078
20
-8.1613485489
30
11.0261549683
10
-65.1885198087
20
-8.2550232093
30
11.0268437399
11
-66.8975473628
21
-8.6002890000
31
10.9970125530
11
-66.8457811387
21
-8.3012890495
31
10.9979161358
11
-66.6965084895
21
-8.0370952029
31
11.0005216996
11
-66.4671060044
21
-7.8384618416
31
11.0045259349
11
-66.1842780583
21
-7.7285115561
31
11.0094627150
11
-65.8809481980
21
-7.7200434826
31
11.0147573574
11
-65.5924265655
21
-7.8140433758
31
11.0197935213
11
-65.3522995004
21
-7.9995688592
31
11.0239849548
11
-65.1885198087
21
-8.2550232093
31
11.0268437399
0
ENDSEC
0
SECTION
2
OBJECTS
0
DICTIONARY
5
571
100
AcDbDictionary
3
ACAD_GROUP
350
572
3
ACAD_MLINESTYLE
350
573
0
DICTIONARY
5
572
102
{ACAD_REACTORS
330
571
102
}
100
AcDbDictionary
0
DICTIONARY
5
573
102
{ACAD_REACTORS
330
571
102
}
100
AcDbDictionary
3
STANDARD
350
574
0
MLINESTYLE
5
574
102
{ACAD_REACTORS
330
573
102
}
100
AcDbMlineStyle
2
STANDARD
70
0
3

62
256
51
90.0
52
90.0
71
2
49
0.5
62
256
6
BYLAYER
49
-0.5
62
256
6
BYLAYER
0
ENDSEC
0
EOF
