0
SECTION
2
HEADER
9
$ACADVER
1
AC1015
9
$DWGCODEPAGE
3
ANSI_1252
9
$EXTMAX
10
431.8000000000
20
558.8000000000
30
0.0000000000
9
$EXTMIN
10
0.0000000000
20
0.0000000000
30
0.0000000000
9
$LIMMIN
10
0.0000000000
20
0.0000000000
9
$LIMMAX
10
431.8000000000
20
558.8000000000
9
$VIEWCTR
10
215.9000000000
20
279.4000000000
9
$VIEWSIZE
40
558.8000000000
9
$CLAYER
8
0
9
$LTSCALE
40
36.4254814815
9
$CELTYPE
6
BYLAYER
9
$DIMSCALE
40
1
9
$DIMASZ
40
3.0000000000
9
$DIMEXO
40
4.1392592593
9
$DIMDLI
40
25.1666962963
9
$DIMEXE
40
11.9210666667
9
$DIMCEN
40
5.9605333333
9
$DIMLFAC
40
1.0000000000
9
$DIMBLK
1
_FILLED
9
$DIMTXT
40
3.0000000000
9
$DIMTOL
70
1
9
$DIMLIM
70
0
9
$DIMTFAC
40
1.0000000000
9
$DIMTP
40
0.0100000000
9
$DIMTM
40
0.0100000000
9
$PDMODE
70
3
9
$PDSIZE
40
3.0000000000
9
$HANDSEED
5
630
9
$MEASUREMENT
70
1
9
$INSUNITS
70
4
0
ENDSEC
0
SECTION
2
CLASSES
0
CLASS
1
ACDBDICTIONARYWDFLT
2
AcDbDictionaryWithDefault
3
AutoCAD 2000
90
0
280
0
281
0
0
CLASS
1
ACDBPLACEHOLDER
2
AcDbPlaceHolder
3
AutoCAD 2000
90
0
280
0
281
0
0
CLASS
1
LAYOUT
2
AcDbLayout
3
AutoCAD 2000
90
0
280
0
281
0
0
ENDSEC
0
SECTION
2
TABLES
0
TABLE
2
VPORT
5
8
100
AcDbSymbolTable
70
2
0
VPORT
5
1F4
100
AcDbSymbolTableRecord
100
AcDbViewportTableRecord
2
*ACTIVE
70
0
10
0.0
20
0.0
11
1.0
21
1.0
12
215.9000000000
22
279.4000000000
13
0.0
23
0.0
14
1.0
24
1.0
15
0.0
25
0.0
16
0.0
26
0.0
36
1.0
17
0.0
27
0.0
37
0.0
40
558.8000000000
41
0.7727272727
42
50.0
43
0.0
44
0.0
50
0.0
51
0.0
71
0
72
100
73
1
74
1
75
0
76
0
77
0
78
0
0
ENDTAB
0
TABLE
2
LTYPE
5
5
100
AcDbSymbolTable
70
6
0
LTYPE
5
14
100
AcDbSymbolTableRecord
100
AcDbLinetypeTableRecord
2
BYBLOCK
70
0
3

72
65
73
0
40
0.0
0
LTYPE
5
15
100
AcDbSymbolTableRecord
100
AcDbLinetypeTableRecord
2
BYLAYER
70
0
3

72
65
73
0
40
0.0
0
LTYPE
5
16
100
AcDbSymbolTableRecord
100
AcDbLinetypeTableRecord
2
CONTINUOUS
70
64
3
Solid line
72
65
73
0
40
0
0
LTYPE
5
1F5
100
AcDbSymbolTableRecord
100
AcDbLinetypeTableRecord
2
CENTER
70
64
3
____ _ ____ _ ____ _ ____ _ ____ _ ____ _ ____
72
65
73
4
40
0.6
49
0.375
74
0
49
-0.075
74
0
49
0.075
74
0
49
-0.075
74
0
0
LTYPE
5
1F6
100
AcDbSymbolTableRecord
100
AcDbLinetypeTableRecord
2
HIDDEN
70
64
3
- - - - - - - - - - - - - - - - - - - -
72
65
73
2
40
0.2
49
0.1
74
0
49
-0.1
74
0
0
LTYPE
5
1F7
100
AcDbSymbolTableRecord
100
AcDbLinetypeTableRecord
2
PHANTOM
70
64
3
_____ _ _ _____ _ _ _____ _ _ _____
72
65
73
6
40
0.8
49
0.45
74
0
49
-0.05
74
0
49
0.1
74
0
49
-0.05
74
0
49
0.1
74
0
49
-0.05
74
0
0
LTYPE
5
1F8
100
AcDbSymbolTableRecord
100
AcDbLinetypeTableRecord
2
DOT
70
64
3
. . . . . . . . . . . . . . . . . . . .
72
65
73
2
40
0.2
49
0.1
74
0
49
-0.1
74
0
0
LTYPE
5
1F9
100
AcDbSymbolTableRecord
100
AcDbLinetypeTableRecord
2
DASHED
70
64
3
- - - - - - - - - - - - - - - - - - - -
72
65
73
2
40
0.2
49
0.1
74
0
49
-0.1
74
0
0
ENDTAB
0
TABLE
2
LAYER
5
2
100
AcDbSymbolTable
70
36
0
LAYER
5
10
100
AcDbSymbolTableRecord
100
AcDbLayerTableRecord
2
0
70
0
62
7
6
CONTINUOUS
370
-3
390
F
0
LAYER
5
1FA
100
AcDbSymbolTableRecord
100
AcDbLayerTableRecord
2
DEFAULT_1
70
0
62
7
6
CENTER
370
-3
390
F
0
LAYER
5
1FB
100
AcDbSymbolTableRecord
100
AcDbLayerTableRecord
2
DEFAULT_2
70
0
62
8
6
HIDDEN
370
-3
390
F
0
LAYER
5
1FC
100
AcDbSymbolTableRecord
100
AcDbLayerTableRecord
2
DEFAULT_3
70
0
62
7
6
PHANTOM
370
-3
390
F
0
LAYER
5
1FD
100
AcDbSymbolTableRecord
100
AcDbLayerTableRecord
2
_2D_DELETED_OBJS
70
0
62
7
6
CONTINUOUS
370
-3
390
F
0
LAYER
5
1FE
100
AcDbSymbolTableRecord
100
AcDbLayerTableRecord
2
_BLACK_HOLE
70
0
62
7
6
CONTINUOUS
370
-3
390
F
0
LAYER
5
1FF
100
AcDbSymbolTableRecord
100
AcDbLayerTableRecord
2
ASSI
70
0
62
7
6
CONTINUOUS
370
-3
390
F
0
LAYER
5
200
100
AcDbSymbolTableRecord
100
AcDbLayerTableRecord
2
COORDINATE
70
0
62
7
6
CONTINUOUS
370
-3
390
F
0
LAYER
5
201
100
AcDbSymbolTableRecord
100
AcDbLayerTableRecord
2
COORD_ORIGINE
70
0
62
7
6
CONTINUOUS
370
-3
390
F
0
LAYER
5
202
100
AcDbSymbolTableRecord
100
AcDbLayerTableRecord
2
COSMETICI
70
0
62
7
6
CONTINUOUS
370
-3
390
F
0
LAYER
5
203
100
AcDbSymbolTableRecord
100
AcDbLayerTableRecord
2
CURVE
70
0
62
7
6
CONTINUOUS
370
-3
390
F
0
LAYER
5
204
100
AcDbSymbolTableRecord
100
AcDbLayerTableRecord
2
DRAFT
70
0
62
7
6
CONTINUOUS
370
-3
390
F
0
LAYER
5
205
100
AcDbSymbolTableRecord
100
AcDbLayerTableRecord
2
IGES
70
0
62
7
6
CONTINUOUS
370
-3
390
F
0
LAYER
5
206
100
AcDbSymbolTableRecord
100
AcDbLayerTableRecord
2
INC_LASER
70
0
62
7
6
CONTINUOUS
370
-3
390
F
0
LAYER
5
207
100
AcDbSymbolTableRecord
100
AcDbLayerTableRecord
2
NOTE
70
0
62
7
6
CONTINUOUS
370
-3
390
F
0
LAYER
5
208
100
AcDbSymbolTableRecord
100
AcDbLayerTableRecord
2
PIANI
70
0
62
7
6
CONTINUOUS
370
-3
390
F
0
LAYER
5
209
100
AcDbSymbolTableRecord
100
AcDbLayerTableRecord
2
PIANI_AUSILIARI
70
0
62
7
6
CONTINUOUS
370
-3
390
F
0
LAYER
5
20A
100
AcDbSymbolTableRecord
100
AcDbLayerTableRecord
2
PIANI_ORIGINE
70
0
62
7
6
CONTINUOUS
370
-3
390
F
0
LAYER
5
20B
100
AcDbSymbolTableRecord
100
AcDbLayerTableRecord
2
PUNTI
70
0
62
7
6
CONTINUOUS
370
-3
390
F
0
LAYER
5
20C
100
AcDbSymbolTableRecord
100
AcDbLayerTableRecord
2
RACCORDO
70
0
62
7
6
CONTINUOUS
370
-3
390
F
0
LAYER
5
20D
100
AcDbSymbolTableRecord
100
AcDbLayerTableRecord
2
SMUSSO
70
0
62
7
6
CONTINUOUS
370
-3
390
F
0
LAYER
5
20E
100
AcDbSymbolTableRecord
100
AcDbLayerTableRecord
2
SNAPLINE
70
0
62
7
6
CONTINUOUS
370
-3
390
F
0
LAYER
5
20F
100
AcDbSymbolTableRecord
100
AcDbLayerTableRecord
2
SUPERFICI
70
0
62
7
6
CONTINUOUS
370
-3
390
F
0
LAYER
5
210
100
AcDbSymbolTableRecord
100
AcDbLayerTableRecord
2
TRASH
70
0
62
7
6
CONTINUOUS
370
-3
390
F
0
LAYER
5
211
100
AcDbSymbolTableRecord
100
AcDbLayerTableRecord
2
XSEC_DATUMS
70
0
62
7
6
CONTINUOUS
370
-3
390
F
0
LAYER
5
212
100
AcDbSymbolTableRecord
100
AcDbLayerTableRecord
2
Z030080
70
0
62
7
6
CONTINUOUS
370
-3
390
F
0
LAYER
5
213
100
AcDbSymbolTableRecord
100
AcDbLayerTableRecord
2
Z030090
70
0
62
7
6
CONTINUOUS
370
-3
390
F
0
LAYER
5
214
100
AcDbSymbolTableRecord
100
AcDbLayerTableRecord
2
Z030100
70
0
62
7
6
CONTINUOUS
370
-3
390
F
0
LAYER
5
215
100
AcDbSymbolTableRecord
100
AcDbLayerTableRecord
2
Z030110
70
0
62
7
6
CONTINUOUS
370
-3
390
F
0
ENDTAB
0
TABLE
2
STYLE
5
3
100
AcDbSymbolTable
70
1
0
STYLE
5
11
100
AcDbSymbolTableRecord
100
AcDbTextStyleTableRecord
2
STANDARD
70
0
40
0.0
41
0.8000000000
50
0.0
71
0
42
0.2
3
txt
4

0
ENDTAB
0
TABLE
2
VIEW
5
6
100
AcDbSymbolTable
70
0
0
ENDTAB
0
TABLE
2
UCS
5
7
100
AcDbSymbolTable
70
0
0
ENDTAB
0
TABLE
2
APPID
5
9
100
AcDbSymbolTable
70
1
0
APPID
5
216
100
AcDbSymbolTableRecord
100
AcDbRegAppTableRecord
2
ACAD
70
0
0
ENDTAB
0
TABLE
2
BLOCK_RECORD
5
1
100
AcDbSymbolTable
70
0
0
BLOCK_RECORD
5
1F
100
AcDbSymbolTableRecord
100
AcDbBlockTableRecord
2
*MODEL_SPACE
0
BLOCK_RECORD
5
1B
100
AcDbSymbolTableRecord
100
AcDbBlockTableRecord
2
*PAPER_SPACE
0
BLOCK_RECORD
5
217
100
AcDbSymbolTableRecord
100
AcDbBlockTableRecord
2
_FILLED
0
BLOCK_RECORD
5
218
100
AcDbSymbolTableRecord
100
AcDbBlockTableRecord
2
*D0
0
BLOCK_RECORD
5
219
100
AcDbSymbolTableRecord
100
AcDbBlockTableRecord
2
*D1
0
BLOCK_RECORD
5
21A
100
AcDbSymbolTableRecord
100
AcDbBlockTableRecord
2
*D2
0
BLOCK_RECORD
5
21B
100
AcDbSymbolTableRecord
100
AcDbBlockTableRecord
2
*D3
0
ENDTAB
0
TABLE
2
DIMSTYLE
5
A
100
AcDbSymbolTable
70
1
100
AcDbDimStyleTable
71
0
0
DIMSTYLE
105
21C
100
AcDbSymbolTableRecord
100
AcDbDimStyleTableRecord
2
STANDARD
70
0
3

4

40
1.0
41
3.0000000000
42
0.0625
43
0.38
44
0.18
45
0.0
46
0.0
47
0.0100000000
48
0.0100000000
140
3.0000000000
141
0.09
142
0.0
143
25.4
144
1.0000000000
145
0.0
146
1.0000000000
147
0.09
71
1
72
0
73
0
74
0
75
0
76
0
77
1
78
8
170
0
171
2
172
0
173
0
174
0
175
0
176
0
177
0
178
0
270
2
271
2
272
2
273
2
274
2
275
0
280
0
281
0
282
0
283
1
284
8
285
0
286
0
287
3
288
0
340
11
341
217
342
217
343
217
344
217
0
DIMSTYLE
105
21D
100
AcDbSymbolTableRecord
100
AcDbDimStyleTableRecord
2
DIMSTYLE_1
70
0
3

4

40
1.0
41
3.0000000000
42
0.0625
43
0.38
44
0.18
45
0.0
46
0.0
47
0.0000000000
48
0.0000000000
140
3.0000000000
141
0.09
142
0.0
143
25.4
144
1.0000000000
145
0.0
146
1.0000000000
147
0.09
71
0
72
0
73
0
74
0
75
0
76
0
77
1
78
8
170
0
171
2
172
0
173
0
174
0
175
0
176
0
177
0
178
0
270
2
271
2
272
2
273
2
274
2
275
0
280
0
281
0
282
0
283
1
284
8
285
0
286
0
287
3
288
0
340
11
341
217
342
217
343
217
344
217
0
DIMSTYLE
105
21E
100
AcDbSymbolTableRecord
100
AcDbDimStyleTableRecord
2
DIMSTYLE_2
70
0
3

4

40
1.0
41
3.0000000000
42
0.0625
43
0.38
44
0.18
45
0.0
46
0.0
47
0.0000000000
48
0.0000000000
140
3.0000000000
141
0.09
142
0.0
143
25.4
144
1.0000000000
145
0.0
146
1.0000000000
147
0.09
71
0
72
0
73
0
74
0
75
0
76
0
77
1
78
8
170
0
171
2
172
0
173
0
174
0
175
0
176
0
177
0
178
0
270
2
271
0
272
0
273
2
274
2
275
0
280
0
281
0
282
0
283
1
284
8
285
0
286
0
287
3
288
0
340
11
341
217
342
217
343
217
344
217
0
ENDTAB
0
ENDSEC
0
SECTION
2
BLOCKS
0
BLOCK
5
20
100
AcDbEntity
8
0
100
AcDbBlockBegin
2
*MODEL_SPACE
70
0
10
0.0
20
0.0
30
0.0
3
*MODEL_SPACE
1

0
ENDBLK
5
21
100
AcDbEntity
8
0
100
AcDbBlockEnd
0
BLOCK
5
1C
100
AcDbEntity
8
0
100
AcDbBlockBegin
2
*PAPER_SPACE
70
0
10
0.0
20
0.0
30
0.0
3
*PAPER_SPACE
1

0
ENDBLK
5
1D
100
AcDbEntity
8
0
100
AcDbBlockEnd
0
BLOCK
5
21F
100
AcDbEntity
8
0
100
AcDbBlockBegin
62
2
6
CONTINUOUS
2
*D0
70
65
10
0.0000000000
20
0.0000000000
3
*D0
1

0
TEXT
5
220
100
AcDbEntity
8
0
100
AcDbText
62
2
6
CONTINUOUS
10
-18.3248368320
20
41.3975985563
7
STANDARD
40
3.0000000000
1
24,1
41
0.6785714286
72
0
100
AcDbText
0
LINE
5
221
100
AcDbEntity
8
0
100
AcDbLine
62
2
6
CONTINUOUS
10
-2.2034082606
20
11.3131320024
11
-2.2034082606
21
42.1475985563
0
LINE
5
222
100
AcDbEntity
8
0
100
AcDbLine
62
2
6
CONTINUOUS
10
-26.3034082606
20
32.1475985563
11
-26.3034082606
21
42.1475985563
0
LINE
5
223
100
AcDbEntity
8
0
100
AcDbLine
62
2
6
CONTINUOUS
10
-2.2034082606
20
40.6475985563
11
-14.2534082606
21
40.6475985563
0
LINE
5
224
100
AcDbEntity
8
0
100
AcDbLine
62
2
6
CONTINUOUS
10
-26.3034082606
20
40.6475985563
11
-14.2534082606
21
40.6475985563
0
INSERT
5
225
100
AcDbEntity
8
0
100
AcDbBlockReference
62
2
6
CONTINUOUS
2
_FILLED
10
-2.2034082606
20
40.6475985563
41
  3.000000
42
  3.000000
43
  3.000000
0
INSERT
5
226
100
AcDbEntity
8
0
100
AcDbBlockReference
62
2
6
CONTINUOUS
2
_FILLED
10
-26.3034082606
20
40.6475985563
41
  3.000000
42
  3.000000
43
  3.000000
50
180.000000
0
ENDBLK
5
227
100
AcDbEntity
8
0
6
BYBLOCK
62
0
100
AcDbBlockEnd
0
BLOCK
5
228
100
AcDbEntity
8
0
100
AcDbBlockBegin
62
2
6
CONTINUOUS
2
*D1
70
65
10
0.0000000000
20
0.0000000000
3
*D1
1

0
TEXT
5
229
100
AcDbEntity
8
0
100
AcDbText
62
2
6
CONTINUOUS
10
-23.6105511178
20
51.3975985563
7
STANDARD
40
3.0000000000
1
35,1
41
0.6428571429
72
0
100
AcDbText
0
LINE
5
22A
100
AcDbEntity
8
0
100
AcDbLine
62
2
6
CONTINUOUS
10
-37.3034082606
20
-3.9868679976
11
-37.3034082606
21
52.1475985563
0
LINE
5
22B
100
AcDbEntity
8
0
100
AcDbLine
62
2
6
CONTINUOUS
10
-2.2034082606
20
11.3131320024
11
-2.2034082606
21
52.1475985563
0
LINE
5
22C
100
AcDbEntity
8
0
100
AcDbLine
62
2
6
CONTINUOUS
10
-37.3034082606
20
50.6475985563
11
-19.7534082606
21
50.6475985563
0
LINE
5
22D
100
AcDbEntity
8
0
100
AcDbLine
62
2
6
CONTINUOUS
10
-2.2034082606
20
50.6475985563
11
-19.7534082606
21
50.6475985563
0
INSERT
5
22E
100
AcDbEntity
8
0
100
AcDbBlockReference
62
2
6
CONTINUOUS
2
_FILLED
10
-37.3034082606
20
50.6475985563
41
  3.000000
42
  3.000000
43
  3.000000
50
180.000000
0
INSERT
5
22F
100
AcDbEntity
8
0
100
AcDbBlockReference
62
2
6
CONTINUOUS
2
_FILLED
10
-2.2034082606
20
50.6475985563
41
  3.000000
42
  3.000000
43
  3.000000
0
ENDBLK
5
230
100
AcDbEntity
8
0
6
BYBLOCK
62
0
100
AcDbBlockEnd
0
BLOCK
5
231
100
AcDbEntity
8
0
100
AcDbBlockBegin
62
2
6
CONTINUOUS
2
*D2
70
65
10
0.0000000000
20
0.0000000000
3
*D2
1

0
TEXT
5
232
100
AcDbEntity
8
0
100
AcDbText
62
2
6
CONTINUOUS
10
12.9219398336
20
41.3975985563
7
STANDARD
40
3.0000000000
1
24,8
41
0.7321428571
72
0
100
AcDbText
0
LINE
5
233
100
AcDbEntity
8
0
100
AcDbLine
62
2
6
CONTINUOUS
10
29.9806528910
20
25.6631320024
11
29.9806528910
21
42.1475985563
0
LINE
5
234
100
AcDbEntity
8
0
100
AcDbLine
62
2
6
CONTINUOUS
10
5.1806528910
20
25.6631320024
11
5.1806528910
21
42.1475985563
0
LINE
5
235
100
AcDbEntity
8
0
100
AcDbLine
62
2
6
CONTINUOUS
10
29.9806528910
20
40.6475985563
11
17.5806528910
21
40.6475985563
0
LINE
5
236
100
AcDbEntity
8
0
100
AcDbLine
62
2
6
CONTINUOUS
10
5.1806528910
20
40.6475985563
11
17.5806528910
21
40.6475985563
0
INSERT
5
237
100
AcDbEntity
8
0
100
AcDbBlockReference
62
2
6
CONTINUOUS
2
_FILLED
10
29.9806528910
20
40.6475985563
41
  3.000000
42
  3.000000
43
  3.000000
0
INSERT
5
238
100
AcDbEntity
8
0
100
AcDbBlockReference
62
2
6
CONTINUOUS
2
_FILLED
10
5.1806528910
20
40.6475985563
41
  3.000000
42
  3.000000
43
  3.000000
50
180.000000
0
ENDBLK
5
239
100
AcDbEntity
8
0
6
BYBLOCK
62
0
100
AcDbBlockEnd
0
BLOCK
5
23A
100
AcDbEntity
8
0
100
AcDbBlockBegin
62
2
6
CONTINUOUS
2
*D3
70
65
10
0.0000000000
20
0.0000000000
3
*D3
1

0
TEXT
5
23B
100
AcDbEntity
8
0
100
AcDbText
62
2
6
CONTINUOUS
10
39.8306528910
20
5.9875695028
7
STANDARD
40
3.0000000000
1
50
50
90.0000000000
41
0.7500000000
72
0
100
AcDbText
0
LINE
5
23C
100
AcDbEntity
8
0
100
AcDbLine
62
2
6
CONTINUOUS
10
24.0806528910
20
-17.3213345515
11
42.0806528910
21
-17.3213345515
0
LINE
5
23D
100
AcDbEntity
8
0
100
AcDbLine
62
2
6
CONTINUOUS
10
24.0806528910
20
32.6475985563
11
42.0806528910
21
32.6475985563
0
LINE
5
23E
100
AcDbEntity
8
0
100
AcDbLine
62
2
6
CONTINUOUS
10
40.5806528910
20
-17.3213345515
11
40.5806528910
21
7.6631320024
0
LINE
5
23F
100
AcDbEntity
8
0
100
AcDbLine
62
2
6
CONTINUOUS
10
40.5806528910
20
32.6475985563
11
40.5806528910
21
7.6631320024
0
INSERT
5
240
100
AcDbEntity
8
0
100
AcDbBlockReference
62
2
6
CONTINUOUS
2
_FILLED
10
40.5806528910
20
-17.3213345515
41
  3.000000
42
  3.000000
43
  3.000000
50
270.000000
0
INSERT
5
241
100
AcDbEntity
8
0
100
AcDbBlockReference
62
2
6
CONTINUOUS
2
_FILLED
10
40.5806528910
20
32.6475985563
41
  3.000000
42
  3.000000
43
  3.000000
50
 90.000000
0
ENDBLK
5
242
100
AcDbEntity
8
0
6
BYBLOCK
62
0
100
AcDbBlockEnd
0
BLOCK
5
243
100
AcDbEntity
8
0
100
AcDbBlockBegin
2
_FILLED
70
64
10
0.0000000000
20
0.0000000000
3
_FILLED
1

0
SOLID
5
244
100
AcDbEntity
8
0
6
BYBLOCK
62
0
100
AcDbTrace
10
0.0000000000
20
0.0000000000
11
-1.0000000000
21
0.3166666667
12
-1.0000000000
22
-0.3166666667
13
-1.0000000000
23
-0.3166666667
0
ENDBLK
5
245
100
AcDbEntity
8
0
6
BYBLOCK
62
0
100
AcDbBlockEnd
0
ENDSEC
0
SECTION
2
ENTITIES
0
SPLINE
5
246
100
AcDbEntity
8
CURVE
100
AcDbSpline
62
4
6
CONTINUOUS
70
0
71
3
72
8
73
4
74
0
42
0.0000001000
43
0.0000001000
44
0.0000000001
40
0.0000000000
40
0.0000000000
40
0.0000000000
40
0.0000000000
40
1.0000000000
40
1.0000000000
40
1.0000000000
40
1.0000000000
10
-20.5107752427
20
12.8262288714
30
7.6000000000
10
-20.4944041624
20
12.7934867108
30
7.6000000000
10
-20.4862186268
20
12.7600624228
30
7.6000000000
10
-20.4862186268
20
12.7245917583
30
7.6000000000
0
SPLINE
5
247
100
AcDbEntity
8
CURVE
100
AcDbSpline
62
4
6
CONTINUOUS
70
0
71
3
72
8
73
4
74
0
42
0.0000001000
43
0.0000001000
44
0.0000000001
40
0.0000000000
40
0.0000000000
40
0.0000000000
40
0.0000000000
40
1.0000000000
40
1.0000000000
40
1.0000000000
40
1.0000000000
10
-20.5851272283
20
12.9026272293
30
7.6000000000
10
-20.5523850724
20
12.8848918939
30
7.6000000000
10
-20.5271463200
20
12.8589710260
30
7.6000000000
10
-20.5107752427
20
12.8262288714
30
7.6000000000
0
SPLINE
5
248
100
AcDbEntity
8
CURVE
100
AcDbSpline
62
4
6
CONTINUOUS
70
0
71
3
72
8
73
4
74
0
42
0.0000001000
43
0.0000001000
44
0.0000000001
40
0.0000000000
40
0.0000000000
40
0.0000000000
40
0.0000000000
40
1.0000000000
40
1.0000000000
40
1.0000000000
40
1.0000000000
10
-20.6908571079
20
12.9292302320
30
7.6000000000
10
-20.6526579216
20
12.9292302320
30
7.6000000000
10
-20.6178693726
20
12.9203625584
30
7.6000000000
10
-20.5851272283
20
12.9026272293
30
7.6000000000
0
SPLINE
5
249
100
AcDbEntity
8
CURVE
100
AcDbSpline
62
4
6
CONTINUOUS
70
0
71
3
72
8
73
4
74
0
42
0.0000001000
43
0.0000001000
44
0.0000000001
40
0.0000000000
40
0.0000000000
40
0.0000000000
40
0.0000000000
40
1.0000000000
40
1.0000000000
40
1.0000000000
40
1.0000000000
10
-20.8363213204
20
12.8727852756
30
7.6000000000
10
-20.7979512468
20
12.9108127693
30
7.6000000000
10
-20.7495201185
20
12.9292302320
30
7.6000000000
10
-20.6908571079
20
12.9292302320
30
7.6000000000
0
SPLINE
5
24A
100
AcDbEntity
8
CURVE
100
AcDbSpline
62
4
6
CONTINUOUS
70
0
71
3
72
8
73
4
74
0
42
0.0000001000
43
0.0000001000
44
0.0000000001
40
0.0000000000
40
0.0000000000
40
0.0000000000
40
0.0000000000
40
1.0000000000
40
1.0000000000
40
1.0000000000
40
1.0000000000
10
-20.8934491828
20
12.7286845410
30
7.6000000000
10
-20.8934491828
20
12.7873475516
30
7.6000000000
10
-20.8743495896
20
12.8350965345
30
7.6000000000
10
-20.8363213204
20
12.8727852756
30
7.6000000000
0
SPLINE
5
24B
100
AcDbEntity
8
CURVE
100
AcDbSpline
62
4
6
CONTINUOUS
70
0
71
3
72
8
73
4
74
0
42
0.0000001000
43
0.0000001000
44
0.0000000001
40
0.0000000000
40
0.0000000000
40
0.0000000000
40
0.0000000000
40
1.0000000000
40
1.0000000000
40
1.0000000000
40
1.0000000000
10
-20.8339331863
20
12.5822015905
30
7.6000000000
10
-20.8736674741
20
12.6209082568
30
7.6000000000
10
-20.8934491828
20
12.6700215006
30
7.6000000000
10
-20.8934491828
20
12.7286845410
30
7.6000000000
0
SPLINE
5
24C
100
AcDbEntity
8
CURVE
100
AcDbSpline
62
4
6
CONTINUOUS
70
0
71
3
72
8
73
4
74
0
42
0.0000001000
43
0.0000001000
44
0.0000000001
40
0.0000000000
40
0.0000000000
40
0.0000000000
40
0.0000000000
40
1.0000000000
40
1.0000000000
40
1.0000000000
40
1.0000000000
10
-20.6867643252
20
12.5240460599
30
7.6000000000
10
-20.7454273656
20
12.5240460599
30
7.6000000000
10
-20.7945405796
20
12.5438277686
30
7.6000000000
10
-20.8339331863
20
12.5822015905
30
7.6000000000
0
SPLINE
5
24D
100
AcDbEntity
8
CURVE
100
AcDbSpline
62
4
6
CONTINUOUS
70
0
71
3
72
8
73
4
74
0
42
0.0000001000
43
0.0000001000
44
0.0000000001
40
0.0000000000
40
0.0000000000
40
0.0000000000
40
0.0000000000
40
1.0000000000
40
1.0000000000
40
1.0000000000
40
1.0000000000
10
-20.5428352646
20
12.5813448282
30
7.6000000000
10
-20.5810344472
20
12.5431456530
30
7.6000000000
10
-20.6287834301
20
12.5240460599
30
7.6000000000
10
-20.6867643252
20
12.5240460599
30
7.6000000000
0
SPLINE
5
24E
100
AcDbEntity
8
CURVE
100
AcDbSpline
62
4
6
CONTINUOUS
70
0
71
3
72
8
73
4
74
0
42
0.0000001000
43
0.0000001000
44
0.0000000001
40
0.0000000000
40
0.0000000000
40
0.0000000000
40
0.0000000000
40
1.0000000000
40
1.0000000000
40
1.0000000000
40
1.0000000000
10
-20.4862186268
20
12.7245917583
30
7.6000000000
10
-20.4862186268
20
12.6672929788
30
7.6000000000
10
-20.5046360895
20
12.6195439959
30
7.6000000000
10
-20.5428352646
20
12.5813448282
30
7.6000000000
0
SPLINE
5
24F
100
AcDbEntity
8
CURVE
100
AcDbSpline
62
4
6
CONTINUOUS
70
0
71
3
72
8
73
4
74
0
42
0.0000001000
43
0.0000001000
44
0.0000000001
40
0.0000000000
40
0.0000000000
40
0.0000000000
40
0.0000000000
40
1.0000000000
40
1.0000000000
40
1.0000000000
40
1.0000000000
10
-20.5713165249
20
12.3789237236
30
7.6000000000
10
-20.5407888844
20
12.3487391138
30
7.6000000000
10
-20.5257820740
20
12.3105399275
30
7.6000000000
10
-20.5257820740
20
12.2627909446
30
7.6000000000
0
SPLINE
5
250
100
AcDbEntity
8
CURVE
100
AcDbSpline
62
4
6
CONTINUOUS
70
0
71
3
72
8
73
4
74
0
42
0.0000001000
43
0.0000001000
44
0.0000000001
40
0.0000000000
40
0.0000000000
40
0.0000000000
40
0.0000000000
40
1.0000000000
40
1.0000000000
40
1.0000000000
40
1.0000000000
10
-20.6901749625
20
12.4237731958
30
7.6000000000
10
-20.6410617485
20
12.4237731958
30
7.6000000000
10
-20.6014983013
20
12.4087663556
30
7.6000000000
10
-20.5713165249
20
12.3789237236
30
7.6000000000
0
SPLINE
5
251
100
AcDbEntity
8
CURVE
100
AcDbSpline
62
4
6
CONTINUOUS
70
0
71
3
72
8
73
4
74
0
42
0.0000001000
43
0.0000001000
44
0.0000000001
40
0.0000000000
40
0.0000000000
40
0.0000000000
40
0.0000000000
40
1.0000000000
40
1.0000000000
40
1.0000000000
40
1.0000000000
10
-20.8061367899
20
12.3794348577
30
7.6000000000
10
-20.7761231318
20
12.4094485307
30
7.6000000000
10
-20.7372418299
20
12.4237731958
30
7.6000000000
10
-20.6901749625
20
12.4237731958
30
7.6000000000
0
SPLINE
5
252
100
AcDbEntity
8
CURVE
100
AcDbSpline
62
4
6
CONTINUOUS
70
0
71
3
72
8
73
4
74
0
42
0.0000001000
43
0.0000001000
44
0.0000000001
40
0.0000000000
40
0.0000000000
40
0.0000000000
40
0.0000000000
40
1.0000000000
40
1.0000000000
40
1.0000000000
40
1.0000000000
10
-20.8518393591
20
12.2696122194
30
7.6000000000
10
-20.8518393591
20
12.3132684493
30
7.6000000000
10
-20.8361504033
20
12.3494212294
30
7.6000000000
10
-20.8061367899
20
12.3794348577
30
7.6000000000
0
SPLINE
5
253
100
AcDbEntity
8
CURVE
100
AcDbSpline
62
4
6
CONTINUOUS
70
0
71
3
72
8
73
4
74
0
42
0.0000001000
43
0.0000001000
44
0.0000000001
40
0.0000000000
40
0.0000000000
40
0.0000000000
40
0.0000000000
40
1.0000000000
40
1.0000000000
40
1.0000000000
40
1.0000000000
10
-20.8047725139
20
12.1563789284
30
7.6000000000
10
-20.8361504033
20
12.1870746875
30
7.6000000000
10
-20.8518393591
20
12.2245917583
30
7.6000000000
10
-20.8518393591
20
12.2696122194
30
7.6000000000
0
SPLINE
5
254
100
AcDbEntity
8
CURVE
100
AcDbSpline
62
4
6
CONTINUOUS
70
0
71
3
72
8
73
4
74
0
42
0.0000001000
43
0.0000001000
44
0.0000000001
40
0.0000000000
40
0.0000000000
40
0.0000000000
40
0.0000000000
40
1.0000000000
40
1.0000000000
40
1.0000000000
40
1.0000000000
10
-20.6888107016
20
12.1099941993
30
7.6000000000
10
-20.7351954236
20
12.1099941993
30
7.6000000000
10
-20.7733946100
20
12.1256831551
30
7.6000000000
10
-20.8047725139
20
12.1563789284
30
7.6000000000
0
SPLINE
5
255
100
AcDbEntity
8
CURVE
100
AcDbSpline
62
4
6
CONTINUOUS
70
0
71
3
72
8
73
4
74
0
42
0.0000001000
43
0.0000001000
44
0.0000000001
40
0.0000000000
40
0.0000000000
40
0.0000000000
40
0.0000000000
40
1.0000000000
40
1.0000000000
40
1.0000000000
40
1.0000000000
10
-20.5720015186
20
12.1548446903
30
7.6000000000
10
-20.6028625622
20
12.1250010395
30
7.6000000000
10
-20.6417438641
20
12.1099941993
30
7.6000000000
10
-20.6888107016
20
12.1099941993
30
7.6000000000
0
SPLINE
5
256
100
AcDbEntity
8
CURVE
100
AcDbSpline
62
4
6
CONTINUOUS
70
0
71
3
72
8
73
4
74
0
42
0.0000001000
43
0.0000001000
44
0.0000000001
40
0.0000000000
40
0.0000000000
40
0.0000000000
40
0.0000000000
40
1.0000000000
40
1.0000000000
40
1.0000000000
40
1.0000000000
10
-20.5257820740
20
12.2627909446
30
7.6000000000
10
-20.5257820740
20
12.2211811209
30
7.6000000000
10
-20.5407888844
20
12.1850283409
30
7.6000000000
10
-20.5720015186
20
12.1548446903
30
7.6000000000
0
SPLINE
5
257
100
AcDbEntity
8
CURVE
100
AcDbSpline
62
4
6
CONTINUOUS
70
0
71
3
72
8
73
4
74
0
42
0.0000001000
43
0.0000001000
44
0.0000000001
40
0.0000000000
40
0.0000000000
40
0.0000000000
40
0.0000000000
40
1.0000000000
40
1.0000000000
40
1.0000000000
40
1.0000000000
10
-20.4369439236
20
12.3911455983
30
7.6000000000
10
-20.4616620198
20
12.4258196021
30
7.6000000000
10
-20.4991790607
20
12.4524225855
30
7.6000000000
10
-20.5503386810
20
12.4708400631
30
7.6000000000
0
SPLINE
5
258
100
AcDbEntity
8
CURVE
100
AcDbSpline
62
4
6
CONTINUOUS
70
0
71
3
72
8
73
4
74
0
42
0.0000001000
43
0.0000001000
44
0.0000000001
40
0.0000000000
40
0.0000000000
40
0.0000000000
40
0.0000000000
40
1.0000000000
40
1.0000000000
40
1.0000000000
40
1.0000000000
10
-20.4002704724
20
12.2668836975
30
7.6000000000
10
-20.4002704724
20
12.3153147960
30
7.6000000000
10
-20.4125487759
20
12.3569246197
30
7.6000000000
10
-20.4369439236
20
12.3911455983
30
7.6000000000
0
SPLINE
5
259
100
AcDbEntity
8
CURVE
100
AcDbSpline
62
4
6
CONTINUOUS
70
0
71
3
72
8
73
4
74
0
42
0.0000001000
43
0.0000001000
44
0.0000000001
40
0.0000000000
40
0.0000000000
40
0.0000000000
40
0.0000000000
40
1.0000000000
40
1.0000000000
40
1.0000000000
40
1.0000000000
10
-20.4787241191
20
12.0834006026
30
7.6000000000
10
-20.4261913404
20
12.1331865454
30
7.6000000000
10
-20.4002704724
20
12.1945781374
30
7.6000000000
10
-20.4002704724
20
12.2668836975
30
7.6000000000
0
SPLINE
5
25A
100
AcDbEntity
8
CURVE
100
AcDbSpline
62
4
6
CONTINUOUS
70
0
71
3
72
8
73
4
74
0
42
0.0000001000
43
0.0000001000
44
0.0000000001
40
0.0000000000
40
0.0000000000
40
0.0000000000
40
0.0000000000
40
1.0000000000
40
1.0000000000
40
1.0000000000
40
1.0000000000
10
-20.6874464705
20
12.0090391899
30
7.6000000000
10
-20.6001340404
20
12.0090391899
30
7.6000000000
10
-20.5305569574
20
12.0342780018
30
7.6000000000
10
-20.4787241191
20
12.0834006026
30
7.6000000000
0
SPLINE
5
25B
100
AcDbEntity
8
CURVE
100
AcDbSpline
62
4
6
CONTINUOUS
70
0
71
3
72
8
73
4
74
0
42
0.0000001000
43
0.0000001000
44
0.0000000001
40
0.0000000000
40
0.0000000000
40
0.0000000000
40
0.0000000000
40
1.0000000000
40
1.0000000000
40
1.0000000000
40
1.0000000000
10
-20.8982241116
20
12.0854376213
30
7.6000000000
10
-20.8450180843
20
12.0349601174
30
7.6000000000
10
-20.7747588709
20
12.0090391899
30
7.6000000000
10
-20.6874464705
20
12.0090391899
30
7.6000000000
0
SPLINE
5
25C
100
AcDbEntity
8
CURVE
100
AcDbSpline
62
4
6
CONTINUOUS
70
0
71
3
72
8
73
4
74
0
42
0.0000001000
43
0.0000001000
44
0.0000000001
40
0.0000000000
40
0.0000000000
40
0.0000000000
40
0.0000000000
40
1.0000000000
40
1.0000000000
40
1.0000000000
40
1.0000000000
10
-20.9780330613
20
12.2702943349
30
7.6000000000
10
-20.9780330613
20
12.1979887748
30
7.6000000000
10
-20.9514300778
20
12.1359150672
30
7.6000000000
10
-20.8982241116
20
12.0854376213
30
7.6000000000
0
SPLINE
5
25D
100
AcDbEntity
8
CURVE
100
AcDbSpline
62
4
6
CONTINUOUS
70
0
71
3
72
8
73
4
74
0
42
0.0000001000
43
0.0000001000
44
0.0000000001
40
0.0000000000
40
0.0000000000
40
0.0000000000
40
0.0000000000
40
1.0000000000
40
1.0000000000
40
1.0000000000
40
1.0000000000
10
-20.9411981657
20
12.3917131687
30
7.6000000000
10
-20.9657548025
20
12.3576067353
30
7.6000000000
10
-20.9780330613
20
12.3166790867
30
7.6000000000
10
-20.9780330613
20
12.2702943349
30
7.6000000000
0
SPLINE
5
25E
100
AcDbEntity
8
CURVE
100
AcDbSpline
62
4
6
CONTINUOUS
70
0
71
3
72
8
73
4
74
0
42
0.0000001000
43
0.0000001000
44
0.0000000001
40
0.0000000000
40
0.0000000000
40
0.0000000000
40
0.0000000000
40
1.0000000000
40
1.0000000000
40
1.0000000000
40
1.0000000000
10
-20.8306934192
20
12.4708400631
30
7.6000000000
10
-20.8798066333
20
12.4524225855
30
7.6000000000
10
-20.9166415289
20
12.4258196021
30
7.6000000000
10
-20.9411981657
20
12.3917131687
30
7.6000000000
0
SPLINE
5
25F
100
AcDbEntity
8
CURVE
100
AcDbSpline
62
4
6
CONTINUOUS
70
0
71
3
72
8
73
4
74
0
42
0.0000001000
43
0.0000001000
44
0.0000000001
40
0.0000000000
40
0.0000000000
40
0.0000000000
40
0.0000000000
40
1.0000000000
40
1.0000000000
40
1.0000000000
40
1.0000000000
10
-20.9703683328
20
12.5678184741
30
7.6000000000
10
-20.9384696439
20
12.5233639145
30
7.6000000000
10
-20.8920849517
20
12.4913038874
30
7.6000000000
10
-20.8306934192
20
12.4708400631
30
7.6000000000
0
SPLINE
5
260
100
AcDbEntity
8
CURVE
100
AcDbSpline
62
4
6
CONTINUOUS
70
0
71
3
72
8
73
4
74
0
42
0.0000001000
43
0.0000001000
44
0.0000000001
40
0.0000000000
40
0.0000000000
40
0.0000000000
40
0.0000000000
40
1.0000000000
40
1.0000000000
40
1.0000000000
40
1.0000000000
10
-21.0189607694
20
12.7273202801
30
7.6000000000
10
-21.0189607694
20
12.6659287179
30
7.6000000000
10
-21.0025896981
20
12.6127227211
30
7.6000000000
10
-20.9703683328
20
12.5678184741
30
7.6000000000
0
SPLINE
5
261
100
AcDbEntity
8
CURVE
100
AcDbSpline
62
4
6
CONTINUOUS
70
0
71
3
72
8
73
4
74
0
42
0.0000001000
43
0.0000001000
44
0.0000000001
40
0.0000000000
40
0.0000000000
40
0.0000000000
40
0.0000000000
40
1.0000000000
40
1.0000000000
40
1.0000000000
40
1.0000000000
10
-20.9282435105
20
12.9428787786
30
7.6000000000
10
-20.9882650330
20
12.8848918939
30
7.6000000000
10
-21.0189607694
20
12.8132684344
30
7.6000000000
10
-21.0189607694
20
12.7273202801
30
7.6000000000
0
SPLINE
5
262
100
AcDbEntity
8
CURVE
100
AcDbSpline
62
4
6
CONTINUOUS
70
0
71
3
72
8
73
4
74
0
42
0.0000001000
43
0.0000001000
44
0.0000000001
40
0.0000000000
40
0.0000000000
40
0.0000000000
40
0.0000000000
40
1.0000000000
40
1.0000000000
40
1.0000000000
40
1.0000000000
10
-20.6894928470
20
13.0301852079
30
7.6000000000
10
-20.7877193048
20
13.0301852079
30
7.6000000000
10
-20.8675283149
20
13.0015358219
30
7.6000000000
10
-20.9282435105
20
12.9428787786
30
7.6000000000
0
SPLINE
5
263
100
AcDbEntity
8
CURVE
100
AcDbSpline
62
4
6
CONTINUOUS
70
0
71
3
72
8
73
4
74
0
42
0.0000001000
43
0.0000001000
44
0.0000000001
40
0.0000000000
40
0.0000000000
40
0.0000000000
40
0.0000000000
40
1.0000000000
40
1.0000000000
40
1.0000000000
40
1.0000000000
10
-20.4505820755
20
12.9430430226
30
7.6000000000
10
-20.5107752487
20
13.0015358219
30
7.6000000000
10
-20.5905842438
20
13.0301852079
30
7.6000000000
10
-20.6894928470
20
13.0301852079
30
7.6000000000
0
SPLINE
5
264
100
AcDbEntity
8
CURVE
100
AcDbSpline
62
4
6
CONTINUOUS
70
0
71
3
72
8
73
4
74
0
42
0.0000001000
43
0.0000001000
44
0.0000000001
40
0.0000000000
40
0.0000000000
40
0.0000000000
40
0.0000000000
40
1.0000000000
40
1.0000000000
40
1.0000000000
40
1.0000000000
10
-20.3600249059
20
12.7239096427
30
7.6000000000
10
-20.3600249059
20
12.8112220431
30
7.6000000000
10
-20.3900385454
20
12.8842097634
30
7.6000000000
10
-20.4505820755
20
12.9430430226
30
7.6000000000
0
SPLINE
5
265
100
AcDbEntity
8
CURVE
100
AcDbSpline
62
4
6
CONTINUOUS
70
0
71
3
72
8
73
4
74
0
42
0.0000001000
43
0.0000001000
44
0.0000000001
40
0.0000000000
40
0.0000000000
40
0.0000000000
40
0.0000000000
40
1.0000000000
40
1.0000000000
40
1.0000000000
40
1.0000000000
10
-20.4091381386
20
12.5608809853
30
7.6000000000
10
-20.3763959810
20
12.6045371855
30
7.6000000000
10
-20.3600249059
20
12.6591074431
30
7.6000000000
10
-20.3600249059
20
12.7239096427
30
7.6000000000
0
SPLINE
5
266
100
AcDbEntity
8
CURVE
100
AcDbSpline
62
4
6
CONTINUOUS
70
0
71
3
72
8
73
4
74
0
42
0.0000001000
43
0.0000001000
44
0.0000000001
40
0.0000000000
40
0.0000000000
40
0.0000000000
40
0.0000000000
40
1.0000000000
40
1.0000000000
40
1.0000000000
40
1.0000000000
10
-20.5503386810
20
12.4708400631
30
7.6000000000
10
-20.4889471486
20
12.4872111345
30
7.6000000000
10
-20.4418802961
20
12.5172247851
30
7.6000000000
10
-20.4091381386
20
12.5608809853
30
7.6000000000
0
SPLINE
5
267
100
AcDbEntity
8
CURVE
100
AcDbSpline
62
4
6
CONTINUOUS
70
0
71
3
72
8
73
4
74
0
42
0.0000001000
43
0.0000001000
44
0.0000000001
40
0.0000000000
40
0.0000000000
40
0.0000000000
40
0.0000000000
40
1.0000000000
40
1.0000000000
40
1.0000000000
40
1.0000000000
10
-17.7274279892
20
12.3917945360
30
7.6000000000
10
-17.7900385454
20
12.2798441315
30
7.6000000000
10
-17.8527943685
20
12.1898032093
30
7.6000000000
10
-17.9169144228
20
12.1215904022
30
7.6000000000
0
SPLINE
5
268
100
AcDbEntity
8
CURVE
100
AcDbSpline
62
4
6
CONTINUOUS
70
0
71
3
72
8
73
4
74
0
42
0.0000001000
43
0.0000001000
44
0.0000000001
40
0.0000000000
40
0.0000000000
40
0.0000000000
40
0.0000000000
40
1.0000000000
40
1.0000000000
40
1.0000000000
40
1.0000000000
10
-17.5824299180
20
12.7381646005
30
7.6000000000
10
-17.6167779758
20
12.6195439959
30
7.6000000000
10
-17.6645269587
20
12.5042643214
30
7.6000000000
10
-17.7274279892
20
12.3917945360
30
7.6000000000
0
SPLINE
5
269
100
AcDbEntity
8
CURVE
100
AcDbSpline
62
4
6
CONTINUOUS
70
0
71
3
72
8
73
4
74
0
42
0.0000001000
43
0.0000001000
44
0.0000000001
40
0.0000000000
40
0.0000000000
40
0.0000000000
40
0.0000000000
40
1.0000000000
40
1.0000000000
40
1.0000000000
40
1.0000000000
10
-17.5356047049
20
13.0131320024
30
7.6000000000
10
-17.5424260094
20
12.9135412762
30
7.6000000000
10
-17.5581149354
20
12.8221361006
30
7.6000000000
10
-17.5824299180
20
12.7381646005
30
7.6000000000
0
SPLINE
5
26A
100
AcDbEntity
8
CURVE
100
AcDbSpline
62
4
6
CONTINUOUS
70
0
71
3
72
8
73
4
74
0
42
0.0000001000
43
0.0000001000
44
0.0000000001
40
0.0000000000
40
0.0000000000
40
0.0000000000
40
0.0000000000
40
1.0000000000
40
1.0000000000
40
1.0000000000
40
1.0000000000
10
-17.4555620073
20
12.7279399605
30
7.6000000000
10
-17.4257820740
20
12.8398714328
30
7.6000000000
10
-17.4107752487
20
12.9346872533
30
7.6000000000
10
-17.4094109878
20
13.0131320024
30
7.6000000000
0
SPLINE
5
26B
100
AcDbEntity
8
CURVE
100
AcDbSpline
62
4
6
CONTINUOUS
70
0
71
3
72
8
73
4
74
0
42
0.0000001000
43
0.0000001000
44
0.0000000001
40
0.0000000000
40
0.0000000000
40
0.0000000000
40
0.0000000000
40
1.0000000000
40
1.0000000000
40
1.0000000000
40
1.0000000000
10
-17.5826715483
20
12.4060378806
30
7.6000000000
10
-17.5274191692
20
12.5097213650
30
7.6000000000
10
-17.4851272300
20
12.6168155039
30
7.6000000000
10
-17.4555620073
20
12.7279399605
30
7.6000000000
0
SPLINE
5
26C
100
AcDbEntity
8
CURVE
100
AcDbSpline
62
4
6
CONTINUOUS
70
0
71
3
72
8
73
4
74
0
42
0.0000001000
43
0.0000001000
44
0.0000000001
40
0.0000000000
40
0.0000000000
40
0.0000000000
40
0.0000000000
40
1.0000000000
40
1.0000000000
40
1.0000000000
40
1.0000000000
10
-17.7593427494
20
12.1441006327
30
7.6000000000
10
-17.6965869859
20
12.2150419617
30
7.6000000000
10
-17.6379239455
20
12.3023543621
30
7.6000000000
10
-17.5826715483
20
12.4060378806
30
7.6000000000
0
SPLINE
5
26D
100
AcDbEntity
8
CURVE
100
AcDbSpline
62
4
6
CONTINUOUS
70
0
71
3
72
8
73
4
74
0
42
0.0000001000
43
0.0000001000
44
0.0000000001
40
0.0000000000
40
0.0000000000
40
0.0000000000
40
0.0000000000
40
1.0000000000
40
1.0000000000
40
1.0000000000
40
1.0000000000
10
-9.5564778458
20
12.8821633808
30
7.6000000000
10
-9.5216892913
20
12.8507854754
30
7.6000000000
10
-9.4998611912
20
12.8030365074
30
7.6000000000
10
-9.4903113946
20
12.7402807141
30
7.6000000000
0
SPLINE
5
26E
100
AcDbEntity
8
CURVE
100
AcDbSpline
62
4
6
CONTINUOUS
70
0
71
3
72
8
73
4
74
0
42
0.0000001000
43
0.0000001000
44
0.0000000001
40
0.0000000000
40
0.0000000000
40
0.0000000000
40
0.0000000000
40
1.0000000000
40
1.0000000000
40
1.0000000000
40
1.0000000000
10
-9.6826715722
20
12.9292302320
30
7.6000000000
10
-9.6335583284
20
12.9292302320
30
7.6000000000
10
-9.5912663892
20
12.9135412762
30
7.6000000000
10
-9.5564778458
20
12.8821633808
30
7.6000000000
0
SPLINE
5
26F
100
AcDbEntity
8
CURVE
100
AcDbSpline
62
4
6
CONTINUOUS
70
0
71
3
72
8
73
4
74
0
42
0.0000001000
43
0.0000001000
44
0.0000000001
40
0.0000000000
40
0.0000000000
40
0.0000000000
40
0.0000000000
40
1.0000000000
40
1.0000000000
40
1.0000000000
40
1.0000000000
10
-9.8329099475
20
12.8625369633
30
7.6000000000
10
-9.7918120876
20
12.9074021244
30
7.6000000000
10
-9.7413345828
20
12.9292302320
30
7.6000000000
10
-9.6826715722
20
12.9292302320
30
7.6000000000
0
SPLINE
5
270
100
AcDbEntity
8
CURVE
100
AcDbSpline
62
4
6
CONTINUOUS
70
0
71
3
72
8
73
4
74
0
42
0.0000001000
43
0.0000001000
44
0.0000000001
40
0.0000000000
40
0.0000000000
40
0.0000000000
40
0.0000000000
40
1.0000000000
40
1.0000000000
40
1.0000000000
40
1.0000000000
10
-9.8941312983
20
12.6850283111
30
7.6000000000
10
-9.8941312983
20
12.7586981619
30
7.6000000000
10
-9.8736674741
20
12.8180433327
30
7.6000000000
10
-9.8329099475
20
12.8625369633
30
7.6000000000
0
SPLINE
5
271
100
AcDbEntity
8
CURVE
100
AcDbSpline
62
4
6
CONTINUOUS
70
0
71
3
72
8
73
4
74
0
42
0.0000001000
43
0.0000001000
44
0.0000000001
40
0.0000000000
40
0.0000000000
40
0.0000000000
40
0.0000000000
40
1.0000000000
40
1.0000000000
40
1.0000000000
40
1.0000000000
10
-9.8346153512
20
12.5194369809
30
7.6000000000
10
-9.8743495896
20
12.5601988399
30
7.6000000000
10
-9.8941312983
20
12.6154512430
30
7.6000000000
10
-9.8941312983
20
12.6850283111
30
7.6000000000
0
SPLINE
5
272
100
AcDbEntity
8
CURVE
100
AcDbSpline
62
4
6
CONTINUOUS
70
0
71
3
72
8
73
4
74
0
42
0.0000001000
43
0.0000001000
44
0.0000000001
40
0.0000000000
40
0.0000000000
40
0.0000000000
40
0.0000000000
40
1.0000000000
40
1.0000000000
40
1.0000000000
40
1.0000000000
10
-9.6806251660
20
12.4585617447
30
7.6000000000
10
-9.7440631047
20
12.4585617447
30
7.6000000000
10
-9.7952227249
20
12.4790255690
30
7.6000000000
10
-9.8346153512
20
12.5194369809
30
7.6000000000
0
SPLINE
5
273
100
AcDbEntity
8
CURVE
100
AcDbSpline
62
4
6
CONTINUOUS
70
0
71
3
72
8
73
4
74
0
42
0.0000001000
43
0.0000001000
44
0.0000000001
40
0.0000000000
40
0.0000000000
40
0.0000000000
40
0.0000000000
40
1.0000000000
40
1.0000000000
40
1.0000000000
40
1.0000000000
10
-9.5734494975
20
12.4857017652
30
7.6000000000
10
-9.6049089387
20
12.4681115413
30
7.6000000000
10
-9.6410617485
20
12.4585617447
30
7.6000000000
10
-9.6806251660
20
12.4585617447
30
7.6000000000
0
SPLINE
5
274
100
AcDbEntity
8
CURVE
100
AcDbSpline
62
4
6
CONTINUOUS
70
0
71
3
72
8
73
4
74
0
42
0.0000001000
43
0.0000001000
44
0.0000000001
40
0.0000000000
40
0.0000000000
40
0.0000000000
40
0.0000000000
40
1.0000000000
40
1.0000000000
40
1.0000000000
40
1.0000000000
10
-9.4984969303
20
12.5554239417
30
7.6000000000
10
-9.5162322774
20
12.5267745817
30
7.6000000000
10
-9.5414710149
20
12.5035822058
30
7.6000000000
10
-9.5734494975
20
12.4857017652
30
7.6000000000
0
SPLINE
5
275
100
AcDbEntity
8
CURVE
100
AcDbSpline
62
4
6
CONTINUOUS
70
0
71
3
72
8
73
4
74
0
42
0.0000001000
43
0.0000001000
44
0.0000000001
40
0.0000000000
40
0.0000000000
40
0.0000000000
40
0.0000000000
40
1.0000000000
40
1.0000000000
40
1.0000000000
40
1.0000000000
10
-9.7133673384
20
12.3501033450
30
7.6000000000
10
-9.6472009077
20
12.3501033450
30
7.6000000000
10
-9.5844450846
20
12.3712493444
30
7.6000000000
10
-9.5244178131
20
12.4128591681
30
7.6000000000
0
SPLINE
5
276
100
AcDbEntity
8
CURVE
100
AcDbSpline
62
4
6
CONTINUOUS
70
0
71
3
72
8
73
4
74
0
42
0.0000001000
43
0.0000001000
44
0.0000000001
40
0.0000000000
40
0.0000000000
40
0.0000000000
40
0.0000000000
40
1.0000000000
40
1.0000000000
40
1.0000000000
40
1.0000000000
10
-9.9342065901
20
12.4409962019
30
7.6000000000
10
-9.8743495896
20
12.3807991410
30
7.6000000000
10
-9.8006797388
20
12.3501033450
30
7.6000000000
10
-9.7133673384
20
12.3501033450
30
7.6000000000
0
SPLINE
5
277
100
AcDbEntity
8
CURVE
100
AcDbSpline
62
4
6
CONTINUOUS
70
0
71
3
72
8
73
4
74
0
42
0.0000001000
43
0.0000001000
44
0.0000000001
40
0.0000000000
40
0.0000000000
40
0.0000000000
40
0.0000000000
40
1.0000000000
40
1.0000000000
40
1.0000000000
40
1.0000000000
10
-10.0244178131
20
12.6741142536
30
7.6000000000
10
-10.0244178131
20
12.5792984331
30
7.6000000000
10
-9.9944041922
20
12.5015357995
30
7.6000000000
10
-9.9342065901
20
12.4409962019
30
7.6000000000
0
SPLINE
5
278
100
AcDbEntity
8
CURVE
100
AcDbSpline
62
4
6
CONTINUOUS
70
0
71
3
72
8
73
4
74
0
42
0.0000001000
43
0.0000001000
44
0.0000000001
40
0.0000000000
40
0.0000000000
40
0.0000000000
40
0.0000000000
40
1.0000000000
40
1.0000000000
40
1.0000000000
40
1.0000000000
10
-9.9455606142
20
12.9089817942
30
7.6000000000
10
-9.9978148296
20
12.8432820702
30
7.6000000000
10
-10.0244178131
20
12.7648373211
30
7.6000000000
10
-10.0244178131
20
12.6741142536
30
7.6000000000
0
SPLINE
5
279
100
AcDbEntity
8
CURVE
100
AcDbSpline
62
4
6
CONTINUOUS
70
0
71
3
72
8
73
4
74
0
42
0.0000001000
43
0.0000001000
44
0.0000000001
40
0.0000000000
40
0.0000000000
40
0.0000000000
40
0.0000000000
40
1.0000000000
40
1.0000000000
40
1.0000000000
40
1.0000000000
10
-9.6826715722
20
13.0301852079
30
7.6000000000
10
-9.7931763485
20
13.0301852079
30
7.6000000000
10
-9.8811708644
20
12.9899396414
30
7.6000000000
10
-9.9455606142
20
12.9089817942
30
7.6000000000
0
SPLINE
5
27A
100
AcDbEntity
8
CURVE
100
AcDbSpline
62
4
6
CONTINUOUS
70
0
71
3
72
8
73
4
74
0
42
0.0000001000
43
0.0000001000
44
0.0000000001
40
0.0000000000
40
0.0000000000
40
0.0000000000
40
0.0000000000
40
1.0000000000
40
1.0000000000
40
1.0000000000
40
1.0000000000
10
-9.4594459986
20
12.9539774681
30
7.6000000000
10
-9.5169143930
20
13.0049464639
30
7.6000000000
10
-9.5912663892
20
13.0301852079
30
7.6000000000
10
-9.6826715722
20
13.0301852079
30
7.6000000000
0
SPLINE
5
27B
100
AcDbEntity
8
CURVE
100
AcDbSpline
62
4
6
CONTINUOUS
70
0
71
3
72
8
73
4
74
0
42
0.0000001000
43
0.0000001000
44
0.0000000001
40
0.0000000000
40
0.0000000000
40
0.0000000000
40
0.0000000000
40
1.0000000000
40
1.0000000000
40
1.0000000000
40
1.0000000000
10
-9.3613891594
20
12.7511947716
30
7.6000000000
10
-9.3695746988
20
12.8357786650
30
7.6000000000
10
-9.4023168563
20
12.9033093566
30
7.6000000000
10
-9.4594459986
20
12.9539774681
30
7.6000000000
0
SPLINE
5
27C
100
AcDbEntity
8
CURVE
100
AcDbSpline
62
4
6
CONTINUOUS
70
0
71
3
72
8
73
4
74
0
42
0.0000001000
43
0.0000001000
44
0.0000000001
40
0.0000000000
40
0.0000000000
40
0.0000000000
40
0.0000000000
40
1.0000000000
40
1.0000000000
40
1.0000000000
40
1.0000000000
10
-15.3770994624
20
14.7904618855
30
7.6000000000
10
-15.3593427494
20
14.7937595600
30
7.6000000000
10
-15.3293291285
20
14.7951238135
30
7.6000000000
10
-15.2870371893
20
14.7951238135
30
7.6000000000
0
SPLINE
5
27D
100
AcDbEntity
8
CURVE
100
AcDbSpline
62
4
6
CONTINUOUS
70
0
71
3
72
8
73
4
74
0
42
0.0000001000
43
0.0000001000
44
0.0000000001
40
0.0000000000
40
0.0000000000
40
0.0000000000
40
0.0000000000
40
1.0000000000
40
1.0000000000
40
1.0000000000
40
1.0000000000
10
-15.4536303308
20
14.7633099611
30
7.6000000000
10
-15.4330126002
20
14.7760242278
30
7.6000000000
10
-15.4070917323
20
14.7848918939
30
7.6000000000
10
-15.3770994624
20
14.7904618855
30
7.6000000000
0
SPLINE
5
27E
100
AcDbEntity
8
CURVE
100
AcDbSpline
62
4
6
CONTINUOUS
70
0
71
3
72
8
73
4
74
0
42
0.0000001000
43
0.0000001000
44
0.0000000001
40
0.0000000000
40
0.0000000000
40
0.0000000000
40
0.0000000000
40
1.0000000000
40
1.0000000000
40
1.0000000000
40
1.0000000000
10
-15.5036910351
20
14.7076671513
30
7.6000000000
10
-15.4903113797
20
14.7323680127
30
7.6000000000
10
-15.4739403084
20
14.7507854754
30
7.6000000000
10
-15.4536303308
20
14.7633099611
30
7.6000000000
0
SPLINE
5
27F
100
AcDbEntity
8
CURVE
100
AcDbSpline
62
4
6
CONTINUOUS
70
0
71
3
72
8
73
4
74
0
42
0.0000001000
43
0.0000001000
44
0.0000000001
40
0.0000000000
40
0.0000000000
40
0.0000000000
40
0.0000000000
40
1.0000000000
40
1.0000000000
40
1.0000000000
40
1.0000000000
10
-15.5237356975
20
14.6232274974
30
7.6000000000
10
-15.5237356975
20
14.6552875245
30
7.6000000000
10
-15.5169144228
20
14.6832547838
30
7.6000000000
10
-15.5036910351
20
14.7076671513
30
7.6000000000
0
SPLINE
5
280
100
AcDbEntity
8
CURVE
100
AcDbSpline
62
4
6
CONTINUOUS
70
0
71
3
72
8
73
4
74
0
42
0.0000001000
43
0.0000001000
44
0.0000000001
40
0.0000000000
40
0.0000000000
40
0.0000000000
40
0.0000000000
40
1.0000000000
40
1.0000000000
40
1.0000000000
40
1.0000000000
10
-15.4950863078
20
14.5263653005
30
7.6000000000
10
-15.5141859010
20
14.5536504293
30
7.6000000000
10
-15.5237356975
20
14.5863925720
30
7.6000000000
10
-15.5237356975
20
14.6232274974
30
7.6000000000
0
SPLINE
5
281
100
AcDbEntity
8
CURVE
100
AcDbSpline
62
4
6
CONTINUOUS
70
0
71
3
72
8
73
4
74
0
42
0.0000001000
43
0.0000001000
44
0.0000000001
40
0.0000000000
40
0.0000000000
40
0.0000000000
40
0.0000000000
40
1.0000000000
40
1.0000000000
40
1.0000000000
40
1.0000000000
10
-15.4152772934
20
14.4683843891
30
7.6000000000
10
-15.4493837312
20
14.4792984331
30
7.6000000000
10
-15.4759867146
20
14.4990801716
30
7.6000000000
10
-15.4950863078
20
14.5263653005
30
7.6000000000
0
SPLINE
5
282
100
AcDbEntity
8
CURVE
100
AcDbSpline
62
4
6
CONTINUOUS
70
0
71
3
72
8
73
4
74
0
42
0.0000001000
43
0.0000001000
44
0.0000000001
40
0.0000000000
40
0.0000000000
40
0.0000000000
40
0.0000000000
40
1.0000000000
40
1.0000000000
40
1.0000000000
40
1.0000000000
10
-15.2693018570
20
14.4513311887
30
7.6000000000
10
-15.3327397659
20
14.4513311887
30
7.6000000000
10
-15.3811708644
20
14.4574703479
30
7.6000000000
10
-15.4152772934
20
14.4683843891
30
7.6000000000
0
SPLINE
5
283
100
AcDbEntity
8
CURVE
100
AcDbSpline
62
4
6
CONTINUOUS
70
0
71
3
72
8
73
4
74
0
42
0.0000001000
43
0.0000001000
44
0.0000000001
40
0.0000000000
40
0.0000000000
40
0.0000000000
40
0.0000000000
40
1.0000000000
40
1.0000000000
40
1.0000000000
40
1.0000000000
10
-15.3806123372
20
14.3221289642
30
7.6000000000
10
-15.3545678809
20
14.3299123550
30
7.6000000000
10
-15.3129580572
20
14.3333229924
30
7.6000000000
10
-15.2542950168
20
14.3333229924
30
7.6000000000
0
SPLINE
5
284
100
AcDbEntity
8
CURVE
100
AcDbSpline
62
4
6
CONTINUOUS
70
0
71
3
72
8
73
4
74
0
42
0.0000001000
43
0.0000001000
44
0.0000000001
40
0.0000000000
40
0.0000000000
40
0.0000000000
40
0.0000000000
40
1.0000000000
40
1.0000000000
40
1.0000000000
40
1.0000000000
10
-15.4562049866
20
14.2719314457
30
7.6000000000
10
-15.4391517594
20
14.2951238060
30
7.6000000000
10
-15.4139130070
20
14.3121770525
30
7.6000000000
10
-15.3806123372
20
14.3221289642
30
7.6000000000
0
SPLINE
5
285
100
AcDbEntity
8
CURVE
100
AcDbSpline
62
4
6
CONTINUOUS
70
0
71
3
72
8
73
4
74
0
42
0.0000001000
43
0.0000001000
44
0.0000000001
40
0.0000000000
40
0.0000000000
40
0.0000000000
40
0.0000000000
40
1.0000000000
40
1.0000000000
40
1.0000000000
40
1.0000000000
10
-15.4821258738
20
14.1846190596
30
7.6000000000
10
-15.4821258738
20
14.2200897241
30
7.6000000000
10
-15.4732581928
20
14.2487391138
30
7.6000000000
10
-15.4562049866
20
14.2719314457
30
7.6000000000
0
SPLINE
5
286
100
AcDbEntity
8
CURVE
100
AcDbSpline
62
4
6
CONTINUOUS
70
0
71
3
72
8
73
4
74
0
42
0.0000001000
43
0.0000001000
44
0.0000000001
40
0.0000000000
40
0.0000000000
40
0.0000000000
40
0.0000000000
40
1.0000000000
40
1.0000000000
40
1.0000000000
40
1.0000000000
10
-15.4580075684
20
14.0974597834
30
7.6000000000
10
-15.4739403084
20
14.1225453520
30
7.6000000000
10
-15.4821258738
20
14.1518768573
30
7.6000000000
10
-15.4821258738
20
14.1846190596
30
7.6000000000
0
SPLINE
5
287
100
AcDbEntity
8
CURVE
100
AcDbSpline
62
4
6
CONTINUOUS
70
0
71
3
72
8
73
4
74
0
42
0.0000001000
43
0.0000001000
44
0.0000000001
40
0.0000000000
40
0.0000000000
40
0.0000000000
40
0.0000000000
40
1.0000000000
40
1.0000000000
40
1.0000000000
40
1.0000000000
10
-15.3900063657
20
14.0455642729
30
7.6000000000
10
-15.4193700507
20
14.0550146604
30
7.6000000000
10
-15.4418802812
20
14.0720679069
30
7.6000000000
10
-15.4580075684
20
14.0974597834
30
7.6000000000
0
SPLINE
5
288
100
AcDbEntity
8
CURVE
100
AcDbSpline
62
4
6
CONTINUOUS
70
0
71
3
72
8
73
4
74
0
42
0.0000001000
43
0.0000001000
44
0.0000000001
40
0.0000000000
40
0.0000000000
40
0.0000000000
40
0.0000000000
40
1.0000000000
40
1.0000000000
40
1.0000000000
40
1.0000000000
10
-15.2379239455
20
14.0311401987
30
7.6000000000
10
-15.3095474198
20
14.0311401987
30
7.6000000000
10
-15.3600249245
20
14.0359150672
30
7.6000000000
10
-15.3900063657
20
14.0455642729
30
7.6000000000
0
SPLINE
5
289
100
AcDbEntity
8
CURVE
100
AcDbSpline
62
4
6
CONTINUOUS
70
0
71
3
72
8
73
4
74
0
42
0.0000001000
43
0.0000001000
44
0.0000000001
40
0.0000000000
40
0.0000000000
40
0.0000000000
40
0.0000000000
40
1.0000000000
40
1.0000000000
40
1.0000000000
40
1.0000000000
10
-15.4643905276
20
13.9438277625
30
7.6000000000
10
-15.4180058196
20
13.9233639145
30
7.6000000000
10
-15.3572964027
20
13.9131320024
30
7.6000000000
10
-15.2808980301
20
13.9131320024
30
7.6000000000
0
SPLINE
5
28A
100
AcDbEntity
8
CURVE
100
AcDbSpline
62
4
6
CONTINUOUS
70
0
71
3
72
8
73
4
74
0
42
0.0000001000
43
0.0000001000
44
0.0000000001
40
0.0000000000
40
0.0000000000
40
0.0000000000
40
0.0000000000
40
1.0000000000
40
1.0000000000
40
1.0000000000
40
1.0000000000
10
-15.5728489115
20
14.0372793579
30
7.6000000000
10
-15.5469280436
20
13.9949874187
30
7.6000000000
10
-15.5107752636
20
13.9642916227
30
7.6000000000
10
-15.4643905276
20
13.9438277625
30
7.6000000000
0
SPLINE
5
28B
100
AcDbEntity
8
CURVE
100
AcDbSpline
62
4
6
CONTINUOUS
70
0
71
3
72
8
73
4
74
0
42
0.0000001000
43
0.0000001000
44
0.0000000001
40
0.0000000000
40
0.0000000000
40
0.0000000000
40
0.0000000000
40
1.0000000000
40
1.0000000000
40
1.0000000000
40
1.0000000000
10
-15.6124123290
20
14.1689301038
30
7.6000000000
10
-15.6124123290
20
14.1232275272
30
7.6000000000
10
-15.5987697795
20
14.0795712972
30
7.6000000000
10
-15.5728489115
20
14.0372793579
30
7.6000000000
0
SPLINE
5
28C
100
AcDbEntity
8
CURVE
100
AcDbSpline
62
4
6
CONTINUOUS
70
0
71
3
72
8
73
4
74
0
42
0.0000001000
43
0.0000001000
44
0.0000000001
40
0.0000000000
40
0.0000000000
40
0.0000000000
40
0.0000000000
40
1.0000000000
40
1.0000000000
40
1.0000000000
40
1.0000000000
10
-15.5777755645
20
14.2897601330
30
7.6000000000
10
-15.6008161857
20
14.2521497512
30
7.6000000000
10
-15.6124123290
20
14.2119041586
30
7.6000000000
10
-15.6124123290
20
14.1689301038
30
7.6000000000
0
SPLINE
5
28D
100
AcDbEntity
8
CURVE
100
AcDbSpline
62
4
6
CONTINUOUS
70
0
71
3
72
8
73
4
74
0
42
0.0000001000
43
0.0000001000
44
0.0000000001
40
0.0000000000
40
0.0000000000
40
0.0000000000
40
0.0000000000
40
1.0000000000
40
1.0000000000
40
1.0000000000
40
1.0000000000
10
-15.4725760772
20
14.3810719753
30
7.6000000000
10
-15.5189607694
20
14.3578796292
30
7.6000000000
10
-15.5544314339
20
14.3278659487
30
7.6000000000
10
-15.5777755645
20
14.2897601330
30
7.6000000000
0
SPLINE
5
28E
100
AcDbEntity
8
CURVE
100
AcDbSpline
62
4
6
CONTINUOUS
70
0
71
3
72
8
73
4
74
0
42
0.0000001000
43
0.0000001000
44
0.0000000001
40
0.0000000000
40
0.0000000000
40
0.0000000000
40
0.0000000000
40
1.0000000000
40
1.0000000000
40
1.0000000000
40
1.0000000000
10
-15.6115657108
20
14.4719218894
30
7.6000000000
10
-15.5789880708
20
14.4295030737
30
7.6000000000
10
-15.5326033786
20
14.3988073373
30
7.6000000000
10
-15.4725760772
20
14.3810719753
30
7.6000000000
0
SPLINE
5
28F
100
AcDbEntity
8
CURVE
100
AcDbSpline
62
4
6
CONTINUOUS
70
0
71
3
72
8
73
4
74
0
42
0.0000001000
43
0.0000001000
44
0.0000000001
40
0.0000000000
40
0.0000000000
40
0.0000000000
40
0.0000000000
40
1.0000000000
40
1.0000000000
40
1.0000000000
40
1.0000000000
10
-15.6608434870
20
14.6232274974
30
7.6000000000
10
-15.6608434870
20
14.5652466023
30
7.6000000000
10
-15.6444723561
20
14.5147690976
30
7.6000000000
10
-15.6115657108
20
14.4719218894
30
7.6000000000
0
SPLINE
5
290
100
AcDbEntity
8
CURVE
100
AcDbSpline
62
4
6
CONTINUOUS
70
0
71
3
72
8
73
4
74
0
42
0.0000001000
43
0.0000001000
44
0.0000000001
40
0.0000000000
40
0.0000000000
40
0.0000000000
40
0.0000000000
40
1.0000000000
40
1.0000000000
40
1.0000000000
40
1.0000000000
10
-15.6308298036
20
14.7541961262
30
7.6000000000
10
-15.6506115153
20
14.7139505500
30
7.6000000000
10
-15.6608434870
20
14.6702943498
30
7.6000000000
10
-15.6608434870
20
14.6232274974
30
7.6000000000
0
SPLINE
5
291
100
AcDbEntity
8
CURVE
100
AcDbSpline
62
4
6
CONTINUOUS
70
0
71
3
72
8
73
4
74
0
42
0.0000001000
43
0.0000001000
44
0.0000000001
40
0.0000000000
40
0.0000000000
40
0.0000000000
40
0.0000000000
40
1.0000000000
40
1.0000000000
40
1.0000000000
40
1.0000000000
10
-15.5577182071
20
14.8468020284
30
7.6000000000
10
-15.5864914611
20
14.8251374567
30
7.6000000000
10
-15.6110480979
20
14.7944416905
30
7.6000000000
10
-15.6308298036
20
14.7541961262
30
7.6000000000
0
SPLINE
5
292
100
AcDbEntity
8
CURVE
100
AcDbSpline
62
4
6
CONTINUOUS
70
0
71
3
72
8
73
4
74
0
42
0.0000001000
43
0.0000001000
44
0.0000000001
40
0.0000000000
40
0.0000000000
40
0.0000000000
40
0.0000000000
40
1.0000000000
40
1.0000000000
40
1.0000000000
40
1.0000000000
10
-15.4480194403
20
14.8967609250
30
7.6000000000
10
-15.4916756704
20
14.8858468736
30
7.6000000000
10
-15.5285105660
20
14.8687936680
30
7.6000000000
10
-15.5577182071
20
14.8468020284
30
7.6000000000
0
SPLINE
5
293
100
AcDbEntity
8
CURVE
100
AcDbSpline
62
4
6
CONTINUOUS
70
0
71
3
72
8
73
4
74
0
42
0.0000001000
43
0.0000001000
44
0.0000000001
40
0.0000000000
40
0.0000000000
40
0.0000000000
40
0.0000000000
40
1.0000000000
40
1.0000000000
40
1.0000000000
40
1.0000000000
10
-15.2870371893
20
14.9131320024
30
7.6000000000
10
-15.3504751280
20
14.9131320024
30
7.6000000000
10
-15.4043632105
20
14.9076749764
30
7.6000000000
10
-15.4480194403
20
14.8967609250
30
7.6000000000
0
SPLINE
5
294
100
AcDbEntity
8
CURVE
100
AcDbSpline
62
4
6
CONTINUOUS
70
0
71
3
72
8
73
4
74
0
42
0.0000001000
43
0.0000001000
44
0.0000000001
40
0.0000000000
40
0.0000000000
40
0.0000000000
40
0.0000000000
40
1.0000000000
40
1.0000000000
40
1.0000000000
40
1.0000000000
10
-15.2536129012
20
10.2181797648
30
7.6000000000
10
-15.2686197117
20
10.2727500225
30
7.6000000000
10
-15.2928808322
20
10.3414982278
30
7.6000000000
10
-15.3245542600
20
10.4255467081
30
7.6000000000
0
SPLINE
5
295
100
AcDbEntity
8
CURVE
100
AcDbSpline
62
4
6
CONTINUOUS
70
0
71
3
72
8
73
4
74
0
42
0.0000001000
43
0.0000001000
44
0.0000000001
40
0.0000000000
40
0.0000000000
40
0.0000000000
40
0.0000000000
40
1.0000000000
40
1.0000000000
40
1.0000000000
40
1.0000000000
10
-15.1997247591
20
10.4091756368
30
7.6000000000
10
-15.2229171350
20
10.3464198733
30
7.6000000000
10
-15.2406524673
20
10.2822998190
30
7.6000000000
10
-15.2536129012
20
10.2181797648
30
7.6000000000
0
DIMENSION
5
296
100
AcDbEntity
8
0
100
AcDbDimension
62
2
6
CONTINUOUS
2
*D0
10
-26.3034082606
20
40.6475985563
11
-14.2534082606
21
42.8975985563
70
160
3
DIMSTYLE_1
100
AcDbAlignedDimension
13
-2.2034082606
23
11.3131320024
14
-26.3034082606
24
32.1475985563
50
180.000000
100
AcDbRotatedDimension
0
DIMENSION
5
297
100
AcDbEntity
8
0
100
AcDbDimension
62
2
6
CONTINUOUS
2
*D1
10
-2.2034082606
20
50.6475985563
11
-19.7534082606
21
52.8975985563
70
160
3
DIMSTYLE_1
100
AcDbAlignedDimension
13
-37.3034082606
23
-3.9868679976
14
-2.2034082606
24
11.3131320024
100
AcDbRotatedDimension
0
DIMENSION
5
298
100
AcDbEntity
8
0
100
AcDbDimension
62
2
6
CONTINUOUS
2
*D2
10
5.1806528910
20
40.6475985563
11
17.3147969765
21
42.8975985563
70
160
3
DIMSTYLE_1
100
AcDbAlignedDimension
13
29.9806528910
23
25.6631320024
14
5.1806528910
24
25.6631320024
50
180.000000
100
AcDbRotatedDimension
0
DIMENSION
5
299
100
AcDbEntity
8
0
100
AcDbDimension
62
2
6
CONTINUOUS
2
*D3
10
40.5806528910
20
32.6475985563
11
38.3306528910
21
8.2375695028
70
160
3
DIMSTYLE_2
100
AcDbAlignedDimension
13
24.0806528910
23
-17.3213345515
14
24.0806528910
24
32.6475985563
50
90.000000
100
AcDbRotatedDimension
0
LINE
5
29A
100
AcDbEntity
8
0
100
AcDbLine
62
9
6
CONTINUOUS
10
6.8775357900
20
31.6206341408
11
6.9306586025
21
31.6631320024
0
LINE
5
29B
100
AcDbEntity
8
0
100
AcDbLine
62
9
6
CONTINUOUS
10
7.1275262708
20
31.3706402331
11
7.1806338522
21
31.4131259099
0
LINE
5
29C
100
AcDbEntity
8
0
100
AcDbLine
62
7
6
CONTINUOUS
10
11.5806528910
20
-17.3213345515
11
23.5806528910
21
-17.3213345515
0
LINE
5
29D
100
AcDbEntity
8
0
100
AcDbLine
62
9
6
CONTINUOUS
10
6.8775357900
20
-16.2943701360
11
6.9306586025
21
-16.3368679976
0
LINE
5
29E
100
AcDbEntity
8
0
100
AcDbLine
62
9
6
CONTINUOUS
10
7.1275262708
20
-16.0443762283
11
7.1806338522
21
-16.0868619051
0
LINE
5
29F
100
AcDbEntity
8
0
100
AcDbLine
62
7
6
CONTINUOUS
10
7.2338867845
20
30.1631320024
11
7.1275262708
21
30.0354979603
0
LINE
5
2A0
100
AcDbEntity
8
0
100
AcDbLine
62
9
6
CONTINUOUS
10
11.5806528910
20
-16.6213345515
11
23.5806528910
21
-16.6213345515
0
LINE
5
2A1
100
AcDbEntity
8
0
100
AcDbLine
62
7
6
CONTINUOUS
10
6.9306586025
20
-16.3368679976
11
5.4306605084
21
-16.3368679976
0
LINE
5
2A2
100
AcDbEntity
8
0
100
AcDbLine
62
7
6
CONTINUOUS
10
28.2306471795
20
-16.3368679976
11
29.7306452736
21
-16.3368679976
0
LINE
5
2A3
100
AcDbEntity
8
0
100
AcDbLine
62
7
6
CONTINUOUS
10
11.5806528910
20
-16.3213345515
11
13.6473866562
21
-16.3213345515
0
LINE
5
2A4
100
AcDbEntity
8
0
100
AcDbLine
62
7
6
CONTINUOUS
10
21.5139191258
20
-16.3213345515
11
23.5806528910
21
-16.3213345515
0
LINE
5
2A5
100
AcDbEntity
8
0
100
AcDbLine
62
7
6
CONTINUOUS
10
21.8806528910
20
-16.1797440114
11
21.3227345059
21
-16.1797440114
0
LINE
5
2A6
100
AcDbEntity
8
0
100
AcDbLine
62
7
6
CONTINUOUS
10
13.8385712761
20
-16.1797440114
11
13.2806528910
21
-16.1797440114
0
LINE
5
2A7
100
AcDbEntity
8
CURVE
100
AcDbLine
62
40
6
CONTINUOUS
10
13.2806528910
20
-16.1797440114
11
13.8385712761
21
-16.1797440114
0
LINE
5
2A8
100
AcDbEntity
8
CURVE
100
AcDbLine
62
40
6
CONTINUOUS
10
21.3227345059
20
-16.1797440114
11
21.8806528910
21
-16.1797440114
0
LINE
5
2A9
100
AcDbEntity
8
0
100
AcDbLine
62
3
6
CONTINUOUS
10
21.8806528910
20
-15.7993214048
11
21.2849826585
21
-15.7993214048
0
LINE
5
2AA
100
AcDbEntity
8
0
100
AcDbLine
62
3
6
CONTINUOUS
10
13.8763231235
20
-15.7993214048
11
13.2806528910
21
-15.7993214048
0
LINE
5
2AB
100
AcDbEntity
8
0
100
AcDbLine
62
7
6
CONTINUOUS
10
11.3806528910
20
-15.5868679976
11
11.5806528910
21
-15.5868679976
0
LINE
5
2AC
100
AcDbEntity
8
0
100
AcDbLine
62
7
6
CONTINUOUS
10
23.5806528910
20
-15.5868679976
11
23.7806528910
21
-15.5868679976
0
LINE
5
2AD
100
AcDbEntity
8
0
100
AcDbLine
62
7
6
CONTINUOUS
10
7.2338867845
20
-14.8368679976
11
7.1275262708
21
-14.7092339555
0
LINE
5
2AE
100
AcDbEntity
8
0
100
AcDbLine
62
7
6
CONTINUOUS
10
7.2338867845
20
-14.8368679976
11
11.5806528910
21
-14.8368679976
0
LINE
5
2AF
100
AcDbEntity
8
0
100
AcDbLine
62
7
6
CONTINUOUS
10
23.5806528910
20
-14.8368679976
11
27.9274189975
21
-14.8368679976
0
LINE
5
2B0
100
AcDbEntity
8
0
100
AcDbLine
62
7
6
CONTINUOUS
10
21.4829119717
20
-14.7499474235
11
13.6783938103
21
-14.7499474235
0
LINE
5
2B1
100
AcDbEntity
8
0
100
AcDbLine
62
9
6
CONTINUOUS
10
29.5558356776
20
-14.6680985322
11
5.6054701044
21
-14.6680985322
0
LINE
5
2B2
100
AcDbEntity
8
0
100
AcDbLine
62
9
6
CONTINUOUS
10
5.3770985297
20
-13.1681807782
11
29.7842072523
21
-13.1681807782
0
LINE
5
2B3
100
AcDbEntity
8
0
100
AcDbLine
62
9
6
CONTINUOUS
10
25.5806528910
20
-12.6473478546
11
9.5806528910
21
-12.6473478546
0
LINE
5
2B4
100
AcDbEntity
8
0
100
AcDbLine
62
7
6
CONTINUOUS
10
25.5806528910
20
-12.4473554700
11
9.5806528910
21
-12.4473554700
0
LINE
5
2B5
100
AcDbEntity
8
0
100
AcDbLine
62
7
6
CONTINUOUS
10
25.5806528910
20
-12.4368679976
11
19.8297802042
21
-12.4368679976
0
LINE
5
2B6
100
AcDbEntity
8
0
100
AcDbLine
62
7
6
CONTINUOUS
10
15.3315255778
20
-12.4368679976
11
9.5806528910
21
-12.4368679976
0
LINE
5
2B7
100
AcDbEntity
8
DEFAULT_3
100
AcDbLine
62
8
6
PHANTOM
10
9.6306528910
20
-12.3868679976
11
25.5306528910
21
-12.3868679976
0
LINE
5
2B8
100
AcDbEntity
8
INC_LASER
100
AcDbLine
62
9
6
CONTINUOUS
10
29.9719253585
20
-12.3368679976
11
29.9492337741
21
-12.3368679976
0
LINE
5
2B9
100
AcDbEntity
8
0
100
AcDbLine
62
7
6
CONTINUOUS
10
9.6806528910
20
-12.3368679976
11
25.4806528910
21
-12.3368679976
0
LINE
5
2BA
100
AcDbEntity
8
DEFAULT_3
100
AcDbLine
62
9
6
PHANTOM
10
9.6306528910
20
-11.6868679976
11
25.5306528910
21
-11.6868679976
0
LINE
5
2BB
100
AcDbEntity
8
INC_LASER
100
AcDbLine
62
9
6
CONTINUOUS
10
29.9492337741
20
-11.5940108215
11
29.9719253585
21
-11.5940108215
0
LINE
5
2BC
100
AcDbEntity
8
0
100
AcDbLine
62
9
6
CONTINUOUS
10
26.7911327480
20
-11.4368679976
11
26.5806528910
21
-11.4368679976
0
LINE
5
2BD
100
AcDbEntity
8
0
100
AcDbLine
62
9
6
CONTINUOUS
10
8.3701730340
20
-11.4368679976
11
8.5806528910
21
-11.4368679976
0
LINE
5
2BE
100
AcDbEntity
8
DEFAULT_3
100
AcDbLine
62
9
6
PHANTOM
10
9.3306528910
20
-11.3868679976
11
8.6306528910
21
-11.3868679970
0
LINE
5
2BF
100
AcDbEntity
8
DEFAULT_3
100
AcDbLine
62
9
6
PHANTOM
10
25.8306528910
20
-11.3868679976
11
26.5306528910
21
-11.3868679976
0
LINE
5
2C0
100
AcDbEntity
8
0
100
AcDbLine
62
9
6
CONTINUOUS
10
29.6242894591
20
31.6205933053
11
29.7306452736
21
31.6631320024
0
LINE
5
2C1
100
AcDbEntity
8
0
100
AcDbLine
62
9
6
CONTINUOUS
10
29.8742513829
20
31.3705993976
11
29.9806528910
21
31.4131563706
0
LINE
5
2C2
100
AcDbEntity
8
DEFAULT_3
100
AcDbLine
62
8
6
PHANTOM
10
8.6598324978
20
-10.1868679976
11
8.6306528910
21
-10.1868679976
0
LINE
5
2C3
100
AcDbEntity
8
DEFAULT_3
100
AcDbLine
62
8
6
PHANTOM
10
26.5014732843
20
-10.1868679976
11
26.5306528910
21
-10.1868679976
0
LINE
5
2C4
100
AcDbEntity
8
INC_LASER
100
AcDbLine
62
9
6
CONTINUOUS
10
29.9719253585
20
-10.1082965469
11
29.9492337741
21
-10.1082965469
0
LINE
5
2C5
100
AcDbEntity
8
INC_LASER
100
AcDbLine
62
9
6
CONTINUOUS
10
29.9524754289
20
-9.4582967019
11
29.9686837035
21
-9.4582967019
0
LINE
5
2C6
100
AcDbEntity
8
INC_LASER
100
AcDbLine
62
9
6
CONTINUOUS
10
29.9282876962
20
-9.5078819976
11
29.8776655991
21
-9.5078739976
0
LINE
5
2C7
100
AcDbEntity
8
0
100
AcDbLine
62
9
6
CONTINUOUS
10
29.6242894591
20
-16.2943293005
11
29.7306452736
21
-16.3368679976
0
LINE
5
2C8
100
AcDbEntity
8
0
100
AcDbLine
62
9
6
CONTINUOUS
10
29.8742513829
20
-16.0443353928
11
29.9806528910
21
-16.0868923658
0
LINE
5
2C9
100
AcDbEntity
8
INC_LASER
100
AcDbLine
62
9
6
CONTINUOUS
10
29.9719253585
20
-8.9321060633
11
29.9492337741
21
-8.9321060633
0
LINE
5
2CA
100
AcDbEntity
8
INC_LASER
100
AcDbLine
62
9
6
CONTINUOUS
10
29.9282875740
20
-8.3478529976
11
29.8776655991
21
-8.3478529976
0
LINE
5
2CB
100
AcDbEntity
8
INC_LASER
100
AcDbLine
62
9
6
CONTINUOUS
10
29.8949057748
20
-7.7678309976
11
29.9282875740
21
-7.7678309976
0
LINE
5
2CC
100
AcDbEntity
8
INC_LASER
100
AcDbLine
62
9
6
CONTINUOUS
10
29.8776655991
20
-8.9278529976
11
29.9282875740
21
-8.9278599976
0
LINE
5
2CD
100
AcDbEntity
8
0
100
AcDbLine
62
7
6
CONTINUOUS
10
15.3315255778
20
-12.4368679976
11
15.3385070720
21
-12.4438494918
0
LINE
5
2CE
100
AcDbEntity
8
0
100
AcDbLine
62
7
6
CONTINUOUS
10
5.1806528910
20
-16.0868923658
11
5.1806528910
21
31.4131563706
0
LINE
5
2CF
100
AcDbEntity
8
0
100
AcDbLine
62
9
6
CONTINUOUS
10
5.2870543991
20
-16.0443353928
11
5.2870543991
21
-14.4591818395
0
LINE
5
2D0
100
AcDbEntity
8
0
100
AcDbLine
62
9
6
CONTINUOUS
10
5.2870543991
20
29.7854458443
11
5.2870543991
21
31.3705993976
0
LINE
5
2D1
100
AcDbEntity
8
0
100
AcDbLine
62
9
6
CONTINUOUS
10
5.3770985297
20
28.4944447829
11
5.3770985297
21
-13.1681807782
0
LINE
5
2D2
100
AcDbEntity
8
0
100
AcDbLine
62
9
6
CONTINUOUS
10
5.6270604535
20
28.4944447829
11
5.6270604535
21
-13.1681807782
0
LINE
5
2D3
100
AcDbEntity
8
0
100
AcDbLine
62
9
6
CONTINUOUS
10
29.5558356776
20
29.9943625370
11
29.6133304269
21
30.0288571446
0
LINE
5
2D4
100
AcDbEntity
8
0
100
AcDbLine
62
9
6
CONTINUOUS
10
29.8057976014
20
29.7443762446
11
29.8742513829
21
29.7854458443
0
LINE
5
2D5
100
AcDbEntity
8
INC_LASER
100
AcDbLine
62
9
6
CONTINUOUS
10
29.9282875740
20
-6.0910649976
11
29.8949057748
21
-6.0910729976
0
LINE
5
2D6
100
AcDbEntity
8
INC_LASER
100
AcDbLine
62
9
6
CONTINUOUS
10
29.9492337741
20
-6.7344873404
11
29.9719253585
21
-6.7344873404
0
LINE
5
2D7
100
AcDbEntity
8
INC_LASER
100
AcDbLine
62
9
6
CONTINUOUS
10
29.9719253585
20
-6.1463918662
11
29.9492337741
21
-6.1463918662
0
LINE
5
2D8
100
AcDbEntity
8
DEFAULT_3
100
AcDbLine
62
8
6
PHANTOM
10
8.6598324978
20
-5.6868679976
11
8.6306528910
21
-5.6868679976
0
LINE
5
2D9
100
AcDbEntity
8
DEFAULT_3
100
AcDbLine
62
8
6
PHANTOM
10
26.5014732843
20
-5.6868679976
11
26.5306528910
21
-5.6868679976
0
LINE
5
2DA
100
AcDbEntity
8
INC_LASER
100
AcDbLine
62
9
6
CONTINUOUS
10
29.8776655991
20
-5.5110439976
11
29.9282875740
21
-5.5110439976
0
LINE
5
2DB
100
AcDbEntity
8
INC_LASER
100
AcDbLine
62
9
6
CONTINUOUS
10
29.9719253585
20
-5.4963918662
11
29.9492337741
21
-5.4963918662
0
LINE
5
2DC
100
AcDbEntity
8
0
100
AcDbLine
62
9
6
CONTINUOUS
10
29.6133304269
20
-14.7025931398
11
29.5558356776
21
-14.6680985322
0
LINE
5
2DD
100
AcDbEntity
8
0
100
AcDbLine
62
9
6
CONTINUOUS
10
29.8742513829
20
-14.4591818395
11
29.8057976014
21
-14.4181122399
0
LINE
5
2DE
100
AcDbEntity
8
0
100
AcDbLine
62
9
6
CONTINUOUS
10
7.1275262708
20
-14.7092339555
11
7.1275262708
21
-16.0443762283
0
LINE
5
2DF
100
AcDbEntity
8
0
100
AcDbLine
62
9
6
CONTINUOUS
10
7.1275262708
20
30.0354979603
11
7.1275262708
21
31.3706402331
0
LINE
5
2E0
100
AcDbEntity
8
0
100
AcDbLine
62
7
6
CONTINUOUS
10
7.2591947011
20
-16.0240138003
11
7.2591947011
21
-14.8368679976
0
LINE
5
2E1
100
AcDbEntity
8
0
100
AcDbLine
62
7
6
CONTINUOUS
10
7.2591947011
20
30.1631320024
11
7.2591947011
21
31.3502778051
0
LINE
5
2E2
100
AcDbEntity
8
0
100
AcDbLine
62
7
6
CONTINUOUS
10
21.5553449744
20
30.1631320024
11
21.4829119717
21
30.0762114283
0
LINE
5
2E3
100
AcDbEntity
8
0
100
AcDbLine
62
7
6
CONTINUOUS
10
28.0745012188
20
31.6083531683
11
27.9959477098
21
31.5455109354
0
LINE
5
2E4
100
AcDbEntity
8
0
100
AcDbLine
62
9
6
CONTINUOUS
10
27.9806719298
20
31.4131259099
11
27.9021110809
21
31.3502778051
0
LINE
5
2E5
100
AcDbEntity
8
DEFAULT_3
100
AcDbLine
62
9
6
PHANTOM
10
9.3306528910
20
-4.4868679976
11
8.6306528910
21
-4.4868679976
0
LINE
5
2E6
100
AcDbEntity
8
DEFAULT_3
100
AcDbLine
62
9
6
PHANTOM
10
25.8306528910
20
-4.4868679976
11
26.5306528910
21
-4.4868679982
0
LINE
5
2E7
100
AcDbEntity
8
0
100
AcDbLine
62
9
6
CONTINUOUS
10
26.7911327480
20
-4.4368679976
11
26.5806528910
21
-4.4368679976
0
LINE
5
2E8
100
AcDbEntity
8
0
100
AcDbLine
62
9
6
CONTINUOUS
10
8.3701730340
20
-4.4368679976
11
8.5806528910
21
-4.4368679976
0
LINE
5
2E9
100
AcDbEntity
8
DEFAULT_3
100
AcDbLine
62
9
6
PHANTOM
10
25.5306528910
20
-4.1868679976
11
9.6306528910
21
-4.1868679976
0
LINE
5
2EA
100
AcDbEntity
8
INC_LASER
100
AcDbLine
62
9
6
CONTINUOUS
10
29.9492337741
20
-3.8559157347
11
29.9719253585
21
-3.8559157347
0
LINE
5
2EB
100
AcDbEntity
8
0
100
AcDbLine
62
7
6
CONTINUOUS
10
25.4806528910
20
-3.5368679976
11
9.6806528910
21
-3.5368679976
0
LINE
5
2EC
100
AcDbEntity
8
DEFAULT_3
100
AcDbLine
62
8
6
PHANTOM
10
25.5306528910
20
-3.4868679976
11
9.6306528910
21
-3.4868679976
0
LINE
5
2ED
100
AcDbEntity
8
0
100
AcDbLine
62
7
6
CONTINUOUS
10
28.0745012188
20
-16.2820891635
11
27.9959477098
21
-16.2192469306
0
LINE
5
2EE
100
AcDbEntity
8
0
100
AcDbLine
62
9
6
CONTINUOUS
10
27.9806719298
20
-16.0868619051
11
27.9021110809
21
-16.0240138003
0
LINE
5
2EF
100
AcDbEntity
8
0
100
AcDbLine
62
7
6
CONTINUOUS
10
21.5553449744
20
-14.8368679976
11
21.4829119717
21
-14.7499474235
0
LINE
5
2F0
100
AcDbEntity
8
0
100
AcDbLine
62
9
6
CONTINUOUS
10
8.3701730340
20
-11.4368679976
11
8.3701730340
21
-4.4368679976
0
LINE
5
2F1
100
AcDbEntity
8
0
100
AcDbLine
62
7
6
CONTINUOUS
10
8.5701654186
20
-11.4368679976
11
8.5701654186
21
-4.4368679976
0
LINE
5
2F2
100
AcDbEntity
8
0
100
AcDbLine
62
7
6
CONTINUOUS
10
8.5806528910
20
-11.4368679976
11
8.5806528910
21
-4.4368679976
0
LINE
5
2F3
100
AcDbEntity
8
DEFAULT_3
100
AcDbLine
62
8
6
PHANTOM
10
8.6306528910
20
-4.4868679976
11
8.6306528910
21
-5.6868679976
0
LINE
5
2F4
100
AcDbEntity
8
DEFAULT_3
100
AcDbLine
62
8
6
PHANTOM
10
8.6306528910
20
-10.1868679976
11
8.6306528910
21
-11.3868679976
0
LINE
5
2F5
100
AcDbEntity
8
DEFAULT_3
100
AcDbLine
62
8
6
PHANTOM
10
8.6598324978
20
-5.6868679976
11
8.6598324978
21
-10.1868679976
0
LINE
5
2F6
100
AcDbEntity
8
0
100
AcDbLine
62
7
6
CONTINUOUS
10
8.6806528910
20
-4.5368679976
11
8.6806528910
21
-11.3368679976
0
LINE
5
2F7
100
AcDbEntity
8
DEFAULT_3
100
AcDbLine
62
9
6
PHANTOM
10
9.3306528910
20
-4.4868679976
11
9.3306528910
21
-11.3868679976
0
LINE
5
2F8
100
AcDbEntity
8
0
100
AcDbLine
62
9
6
CONTINUOUS
10
9.5806528910
20
-12.6473478546
11
9.5806528910
21
-12.4368679976
0
LINE
5
2F9
100
AcDbEntity
8
0
100
AcDbLine
62
9
6
CONTINUOUS
10
9.5806528910
20
-3.2263881406
11
9.5806528910
21
-3.4368679976
0
LINE
5
2FA
100
AcDbEntity
8
DEFAULT_3
100
AcDbLine
62
9
6
PHANTOM
10
9.6306528910
20
-4.1868679976
11
9.6306528916
21
-3.4868679976
0
LINE
5
2FB
100
AcDbEntity
8
DEFAULT_3
100
AcDbLine
62
9
6
PHANTOM
10
9.6306528910
20
-11.6868679976
11
9.6306528910
21
-12.3868679976
0
LINE
5
2FC
100
AcDbEntity
8
INC_LASER
100
AcDbLine
62
9
6
CONTINUOUS
10
29.8870305033
20
-1.7233459976
11
29.8993490488
21
-1.7233389976
0
LINE
5
2FD
100
AcDbEntity
8
0
100
AcDbLine
62
7
6
CONTINUOUS
10
9.5806528910
20
-3.4368679976
11
15.3315255778
21
-3.4368679976
0
LINE
5
2FE
100
AcDbEntity
8
0
100
AcDbLine
62
7
6
CONTINUOUS
10
19.8297802042
20
-3.4368679976
11
25.5806528910
21
-3.4368679976
0
LINE
5
2FF
100
AcDbEntity
8
0
100
AcDbLine
62
7
6
CONTINUOUS
10
9.5806528910
20
-3.4263805252
11
25.5806528910
21
-3.4263805252
0
LINE
5
300
100
AcDbEntity
8
0
100
AcDbLine
62
9
6
CONTINUOUS
10
9.5806528910
20
-3.2263881406
11
25.5806528910
21
-3.2263881406
0
LINE
5
301
100
AcDbEntity
8
INC_LASER
100
AcDbLine
62
9
6
CONTINUOUS
10
29.9492337741
20
-2.8963918662
11
29.9719253585
21
-2.8963918662
0
LINE
5
302
100
AcDbEntity
8
INC_LASER
100
AcDbLine
62
9
6
CONTINUOUS
10
29.9282874344
20
-2.2953709976
11
29.8776654769
21
-2.2953709976
0
LINE
5
303
100
AcDbEntity
8
INC_LASER
100
AcDbLine
62
9
6
CONTINUOUS
10
29.9087140751
20
-1.7152769976
11
29.9282874344
21
-1.7153419976
0
LINE
5
304
100
AcDbEntity
8
0
100
AcDbLine
62
9
6
CONTINUOUS
10
10.6219069840
20
3.9543860954
11
10.6219069840
21
12.8718779094
0
LINE
5
305
100
AcDbEntity
8
0
100
AcDbLine
62
7
6
CONTINUOUS
10
11.1218879456
20
4.4543670569
11
11.1218879456
21
12.3718969478
0
LINE
5
306
100
AcDbEntity
8
0
100
AcDbLine
62
7
6
CONTINUOUS
10
11.1306528910
20
12.3631320024
11
11.1306528910
21
4.4631320024
0
LINE
5
307
100
AcDbEntity
8
0
100
AcDbLine
62
7
6
CONTINUOUS
10
11.3806528910
20
-14.8368679976
11
11.3806528910
21
-15.5868679976
0
LINE
5
308
100
AcDbEntity
8
0
100
AcDbLine
62
7
6
CONTINUOUS
10
11.3806528910
20
30.1631320024
11
11.3806528910
21
30.9131320024
0
LINE
5
309
100
AcDbEntity
8
INC_LASER
100
AcDbLine
62
9
6
CONTINUOUS
10
29.9719253585
20
-1.0392486548
11
29.9492337741
21
-1.0392486548
0
LINE
5
30A
100
AcDbEntity
8
INC_LASER
100
AcDbLine
62
9
6
CONTINUOUS
10
29.9589587383
20
0.1678933168
11
29.9719253585
21
0.1678933168
0
LINE
5
30B
100
AcDbEntity
8
0
100
AcDbLine
62
3
6
CONTINUOUS
10
11.5806528910
20
31.6475985563
11
11.5806528910
21
30.0983474048
0
LINE
5
30C
100
AcDbEntity
8
0
100
AcDbLine
62
3
6
CONTINUOUS
10
11.5806528910
20
-16.3213345515
11
11.5806528910
21
-14.7720834000
0
LINE
5
30D
100
AcDbEntity
8
0
100
AcDbLine
62
7
6
CONTINUOUS
10
11.5806528910
20
12.0631320024
11
11.5806528910
21
5.0631320024
0
LINE
5
30E
100
AcDbEntity
8
CURVE
100
AcDbLine
62
40
6
CONTINUOUS
10
11.5806528910
20
12.0631320024
11
11.5806528910
21
5.0631320024
0
LINE
5
30F
100
AcDbEntity
8
0
100
AcDbLine
62
7
6
CONTINUOUS
10
11.5806528910
20
-16.3213345515
11
11.5806528910
21
-17.3213345515
0
LINE
5
310
100
AcDbEntity
8
0
100
AcDbLine
62
7
6
CONTINUOUS
10
11.5806528910
20
31.6475985563
11
11.5806528910
21
32.6475985563
0
LINE
5
311
100
AcDbEntity
8
0
100
AcDbLine
62
3
6
CONTINUOUS
10
13.0806528910
20
31.6475985563
11
13.0806528910
21
31.1873888085
0
LINE
5
312
100
AcDbEntity
8
0
100
AcDbLine
62
3
6
CONTINUOUS
10
13.0806528910
20
-15.8611248037
11
13.0806528910
21
-16.3213345515
0
LINE
5
313
100
AcDbEntity
8
0
100
AcDbLine
62
9
6
CONTINUOUS
10
13.2806528910
20
31.5060080161
11
13.2806528910
21
31.1255854096
0
LINE
5
314
100
AcDbEntity
8
0
100
AcDbLine
62
9
6
CONTINUOUS
10
13.2806528910
20
-16.1797440114
11
13.2806528910
21
-15.7993214048
0
LINE
5
315
100
AcDbEntity
8
0
100
AcDbLine
62
9
6
CONTINUOUS
10
13.4219069840
20
2.3543860954
11
13.4219069840
21
3.9543860954
0
LINE
5
316
100
AcDbEntity
8
0
100
AcDbLine
62
9
6
CONTINUOUS
10
20.5893987980
20
1.0043860954
11
14.5719069840
21
1.0043860954
0
LINE
5
317
100
AcDbEntity
8
0
100
AcDbLine
62
7
6
CONTINUOUS
10
20.0894178365
20
1.5043670569
11
15.0718879456
21
1.5043670569
0
LINE
5
318
100
AcDbEntity
8
0
100
AcDbLine
62
7
6
CONTINUOUS
10
15.0806528910
20
1.5131320024
11
20.0806528910
21
1.5131320024
0
LINE
5
319
100
AcDbEntity
8
0
100
AcDbLine
62
7
6
CONTINUOUS
10
19.6306528910
20
1.5631320024
11
15.5306528910
21
1.5631320024
0
LINE
5
31A
100
AcDbEntity
8
0
100
AcDbLine
62
7
6
CONTINUOUS
10
19.6306528910
20
2.0631320024
11
15.5306528910
21
2.0631320024
0
LINE
5
31B
100
AcDbEntity
8
CURVE
100
AcDbLine
62
40
6
CONTINUOUS
10
19.6306528910
20
2.0631320024
11
15.5306528910
21
2.0631320024
0
LINE
5
31C
100
AcDbEntity
8
0
100
AcDbLine
62
7
6
CONTINUOUS
10
19.8297802042
20
-3.4368679976
11
19.8227987100
21
-3.4298865034
0
LINE
5
31D
100
AcDbEntity
8
0
100
AcDbLine
62
7
6
CONTINUOUS
10
13.8806528910
20
9.0631320024
11
13.8806528910
21
12.0631320024
0
LINE
5
31E
100
AcDbEntity
8
0
100
AcDbLine
62
7
6
CONTINUOUS
10
13.9218879456
20
2.8543670569
11
13.9218879456
21
4.4543670569
0
LINE
5
31F
100
AcDbEntity
8
0
100
AcDbLine
62
7
6
CONTINUOUS
10
13.9306528910
20
4.4543670569
11
13.9306528910
21
2.8631320024
0
LINE
5
320
100
AcDbEntity
8
CURVE
100
AcDbLine
62
40
6
CONTINUOUS
10
14.2306528910
20
5.0631320024
11
14.2306528910
21
3.4631320024
0
LINE
5
321
100
AcDbEntity
8
0
100
AcDbLine
62
7
6
CONTINUOUS
10
14.2306528910
20
3.4631320024
11
14.2306528910
21
5.7631320024
0
LINE
5
322
100
AcDbEntity
8
0
100
AcDbLine
62
7
6
CONTINUOUS
10
14.2806528910
20
9.0631320024
11
14.2806528910
21
12.0631320024
0
LINE
5
323
100
AcDbEntity
8
0
100
AcDbLine
62
9
6
CONTINUOUS
10
14.5719069840
20
1.0043860954
11
14.5719069840
21
2.3543860954
0
LINE
5
324
100
AcDbEntity
8
0
100
AcDbLine
62
7
6
CONTINUOUS
10
14.7306528910
20
4.7131320024
11
14.7306528910
21
5.7631320024
0
LINE
5
325
100
AcDbEntity
8
0
100
AcDbLine
62
7
6
CONTINUOUS
10
14.8806528910
20
9.0631320024
11
14.8806528910
21
12.0631320024
0
LINE
5
326
100
AcDbEntity
8
0
100
AcDbLine
62
7
6
CONTINUOUS
10
15.0718879456
20
1.5043670569
11
15.0718879456
21
2.8543670569
0
LINE
5
327
100
AcDbEntity
8
0
100
AcDbLine
62
7
6
CONTINUOUS
10
15.0806528910
20
2.8543670569
11
15.0806528910
21
1.5131320024
0
LINE
5
328
100
AcDbEntity
8
0
100
AcDbLine
62
7
6
CONTINUOUS
10
15.2806528910
20
9.0631320024
11
15.2806528910
21
12.0631320024
0
LINE
5
329
100
AcDbEntity
8
0
100
AcDbLine
62
7
6
CONTINUOUS
10
15.3315255778
20
-3.4368679976
11
15.3315255778
21
-3.5368679976
0
LINE
5
32A
100
AcDbEntity
8
0
100
AcDbLine
62
7
6
CONTINUOUS
10
15.3315255778
20
-12.3368679976
11
15.3315255778
21
-12.4368679976
0
LINE
5
32B
100
AcDbEntity
8
0
100
AcDbLine
62
9
6
CONTINUOUS
10
21.7393987980
20
2.3543860954
11
20.5893987980
21
2.3543860954
0
LINE
5
32C
100
AcDbEntity
8
0
100
AcDbLine
62
9
6
CONTINUOUS
10
14.5719069840
20
2.3543860954
11
13.4219069840
21
2.3543860954
0
LINE
5
32D
100
AcDbEntity
8
0
100
AcDbLine
62
7
6
CONTINUOUS
10
21.2394178365
20
2.8543670569
11
20.0894178365
21
2.8543670569
0
LINE
5
32E
100
AcDbEntity
8
0
100
AcDbLine
62
7
6
CONTINUOUS
10
15.0718879456
20
2.8543670569
11
13.9218879456
21
2.8543670569
0
LINE
5
32F
100
AcDbEntity
8
0
100
AcDbLine
62
7
6
CONTINUOUS
10
13.9306528910
20
2.8631320024
11
15.0718879456
21
2.8631320024
0
LINE
5
330
100
AcDbEntity
8
0
100
AcDbLine
62
7
6
CONTINUOUS
10
20.0894178365
20
2.8631320024
11
21.2306528910
21
2.8631320024
0
LINE
5
331
100
AcDbEntity
8
CURVE
100
AcDbLine
62
40
6
CONTINUOUS
10
20.9306528910
20
3.4631320024
11
19.6306528910
21
3.4631320024
0
LINE
5
332
100
AcDbEntity
8
0
100
AcDbLine
62
7
6
CONTINUOUS
10
14.2306528910
20
3.4631320024
11
15.5306528910
21
3.4631320024
0
LINE
5
333
100
AcDbEntity
8
CURVE
100
AcDbLine
62
40
6
CONTINUOUS
10
14.2306528910
20
3.4631320024
11
15.5306528910
21
3.4631320024
0
LINE
5
334
100
AcDbEntity
8
0
100
AcDbLine
62
7
6
CONTINUOUS
10
19.6306528910
20
3.4631320024
11
20.9306528910
21
3.4631320024
0
LINE
5
335
100
AcDbEntity
8
0
100
AcDbLine
62
9
6
CONTINUOUS
10
24.5393987980
20
3.9543860954
11
21.7393987980
21
3.9543860954
0
LINE
5
336
100
AcDbEntity
8
0
100
AcDbLine
62
9
6
CONTINUOUS
10
13.4219069840
20
3.9543860954
11
10.6219069840
21
3.9543860954
0
LINE
5
337
100
AcDbEntity
8
0
100
AcDbLine
62
7
6
CONTINUOUS
10
13.8466255958
20
31.4650297048
11
13.9681314507
21
30.0762114283
0
LINE
5
338
100
AcDbEntity
8
CURVE
100
AcDbLine
62
40
6
CONTINUOUS
10
15.5306528910
20
3.4631320024
11
15.5306528910
21
2.0631320024
0
LINE
5
339
100
AcDbEntity
8
0
100
AcDbLine
62
7
6
CONTINUOUS
10
15.5306528910
20
1.5631320024
11
15.5306528910
21
3.4631320024
0
LINE
5
33A
100
AcDbEntity
8
DEFAULT_3
100
AcDbLine
62
8
6
PHANTOM
10
15.8306528910
20
-3.4298865034
11
15.8306528910
21
-3.4868679976
0
LINE
5
33B
100
AcDbEntity
8
DEFAULT_3
100
AcDbLine
62
8
6
PHANTOM
10
15.8306528910
20
-12.3868679976
11
15.8306528910
21
-12.4438494918
0
LINE
5
33C
100
AcDbEntity
8
0
100
AcDbLine
62
7
6
CONTINUOUS
10
15.8806528910
20
9.0631320024
11
15.8806528910
21
12.0631320024
0
LINE
5
33D
100
AcDbEntity
8
0
100
AcDbLine
62
7
6
CONTINUOUS
10
16.2806528910
20
9.0631320024
11
16.2806528910
21
12.0631320024
0
LINE
5
33E
100
AcDbEntity
8
0
100
AcDbLine
62
7
6
CONTINUOUS
10
16.8806528910
20
9.0631320024
11
16.8806528910
21
12.0631320024
0
LINE
5
33F
100
AcDbEntity
8
0
100
AcDbLine
62
7
6
CONTINUOUS
10
13.9681314507
20
-14.7499474235
11
13.8466255958
21
-16.1387657000
0
LINE
5
340
100
AcDbEntity
8
0
100
AcDbLine
62
7
6
CONTINUOUS
10
24.0394178365
20
4.4543670569
11
21.2394178365
21
4.4543670569
0
LINE
5
341
100
AcDbEntity
8
0
100
AcDbLine
62
7
6
CONTINUOUS
10
13.9218879456
20
4.4543670569
11
11.1218879456
21
4.4543670569
0
LINE
5
342
100
AcDbEntity
8
0
100
AcDbLine
62
7
6
CONTINUOUS
10
11.1306528910
20
4.4631320024
11
13.9218879456
21
4.4631320024
0
LINE
5
343
100
AcDbEntity
8
0
100
AcDbLine
62
7
6
CONTINUOUS
10
21.2394178365
20
4.4631320024
11
24.0306528910
21
4.4631320024
0
LINE
5
344
100
AcDbEntity
8
0
100
AcDbLine
62
7
6
CONTINUOUS
10
14.2306528910
20
4.7131320024
11
14.7306528910
21
4.7131320024
0
LINE
5
345
100
AcDbEntity
8
0
100
AcDbLine
62
7
6
CONTINUOUS
10
20.4306528910
20
4.7131320024
11
20.9306528910
21
4.7131320024
0
LINE
5
346
100
AcDbEntity
8
CURVE
100
AcDbLine
62
40
6
CONTINUOUS
10
23.5806528910
20
5.0631320024
11
20.9306528910
21
5.0631320024
0
LINE
5
347
100
AcDbEntity
8
0
100
AcDbLine
62
7
6
CONTINUOUS
10
11.5806528910
20
5.0631320024
11
14.2306528910
21
5.0631320024
0
LINE
5
348
100
AcDbEntity
8
CURVE
100
AcDbLine
62
40
6
CONTINUOUS
10
11.5806528910
20
5.0631320024
11
14.2306528910
21
5.0631320024
0
LINE
5
349
100
AcDbEntity
8
0
100
AcDbLine
62
7
6
CONTINUOUS
10
20.9306528910
20
5.0631320024
11
23.5806528910
21
5.0631320024
0
LINE
5
34A
100
AcDbEntity
8
0
100
AcDbLine
62
7
6
CONTINUOUS
10
14.2306528910
20
5.7631320024
11
20.9306528910
21
5.7631320024
0
LINE
5
34B
100
AcDbEntity
8
0
100
AcDbLine
62
7
6
CONTINUOUS
10
17.2806528910
20
9.0631320024
11
17.2806528910
21
12.0631320024
0
LINE
5
34C
100
AcDbEntity
8
0
100
AcDbLine
62
7
6
CONTINUOUS
10
17.8806528910
20
9.0631320024
11
17.8806528910
21
12.0631320024
0
LINE
5
34D
100
AcDbEntity
8
0
100
AcDbLine
62
7
6
CONTINUOUS
10
18.2806528910
20
9.0631320024
11
18.2806528910
21
12.0631320024
0
LINE
5
34E
100
AcDbEntity
8
0
100
AcDbLine
62
7
6
CONTINUOUS
10
18.8806528910
20
9.0631320024
11
18.8806528910
21
12.0631320024
0
LINE
5
34F
100
AcDbEntity
8
0
100
AcDbLine
62
7
6
CONTINUOUS
10
21.3146801862
20
-16.1387657000
11
21.1931743313
21
-14.7499474235
0
LINE
5
350
100
AcDbEntity
8
0
100
AcDbLine
62
7
6
CONTINUOUS
10
19.2806528910
20
9.0631320024
11
19.2806528910
21
12.0631320024
0
LINE
5
351
100
AcDbEntity
8
DEFAULT_3
100
AcDbLine
62
8
6
PHANTOM
10
19.3306528910
20
-3.4298865034
11
19.3306528910
21
-3.4868679976
0
LINE
5
352
100
AcDbEntity
8
DEFAULT_3
100
AcDbLine
62
8
6
PHANTOM
10
19.3306528910
20
-12.3868679976
11
19.3306528910
21
-12.4438494918
0
LINE
5
353
100
AcDbEntity
8
CURVE
100
AcDbLine
62
40
6
CONTINUOUS
10
19.6306528910
20
3.4631320024
11
19.6306528910
21
2.0631320024
0
LINE
5
354
100
AcDbEntity
8
0
100
AcDbLine
62
7
6
CONTINUOUS
10
19.6306528910
20
3.4631320024
11
19.6306528910
21
1.5631320024
0
LINE
5
355
100
AcDbEntity
8
0
100
AcDbLine
62
7
6
CONTINUOUS
10
19.8297802042
20
-3.4368679976
11
19.8297802042
21
-3.5368679976
0
LINE
5
356
100
AcDbEntity
8
0
100
AcDbLine
62
7
6
CONTINUOUS
10
19.8297802042
20
-12.3368679976
11
19.8297802042
21
-12.4368679976
0
LINE
5
357
100
AcDbEntity
8
0
100
AcDbLine
62
7
6
CONTINUOUS
10
19.8806528910
20
9.0631320024
11
19.8806528910
21
12.0631320024
0
LINE
5
358
100
AcDbEntity
8
0
100
AcDbLine
62
7
6
CONTINUOUS
10
20.0806528910
20
1.5131320024
11
20.0806528910
21
2.8543670569
0
LINE
5
359
100
AcDbEntity
8
0
100
AcDbLine
62
7
6
CONTINUOUS
10
20.0894178365
20
2.8543670569
11
20.0894178365
21
1.5043670569
0
LINE
5
35A
100
AcDbEntity
8
0
100
AcDbLine
62
7
6
CONTINUOUS
10
20.2806528910
20
9.0631320024
11
20.2806528910
21
12.0631320024
0
LINE
5
35B
100
AcDbEntity
8
0
100
AcDbLine
62
7
6
CONTINUOUS
10
20.4306528910
20
5.7631320024
11
20.4306528910
21
4.7131320024
0
LINE
5
35C
100
AcDbEntity
8
0
100
AcDbLine
62
9
6
CONTINUOUS
10
20.5893987980
20
2.3543860954
11
20.5893987980
21
1.0043860954
0
LINE
5
35D
100
AcDbEntity
8
0
100
AcDbLine
62
7
6
CONTINUOUS
10
20.8806528910
20
9.0631320024
11
20.8806528910
21
12.0631320024
0
LINE
5
35E
100
AcDbEntity
8
CURVE
100
AcDbLine
62
40
6
CONTINUOUS
10
20.9306528910
20
5.0631320024
11
20.9306528910
21
3.4631320024
0
LINE
5
35F
100
AcDbEntity
8
0
100
AcDbLine
62
7
6
CONTINUOUS
10
20.9306528910
20
3.4631320024
11
20.9306528910
21
5.7631320024
0
LINE
5
360
100
AcDbEntity
8
0
100
AcDbLine
62
7
6
CONTINUOUS
10
21.1931743313
20
30.0762114283
11
21.3146801862
21
31.4650297048
0
LINE
5
361
100
AcDbEntity
8
0
100
AcDbLine
62
7
6
CONTINUOUS
10
21.2806528910
20
9.0631320024
11
20.8806528910
21
9.0631320024
0
LINE
5
362
100
AcDbEntity
8
0
100
AcDbLine
62
7
6
CONTINUOUS
10
20.2806528910
20
9.0631320024
11
19.8806528910
21
9.0631320024
0
LINE
5
363
100
AcDbEntity
8
0
100
AcDbLine
62
7
6
CONTINUOUS
10
19.2806528910
20
9.0631320024
11
18.8806528910
21
9.0631320024
0
LINE
5
364
100
AcDbEntity
8
0
100
AcDbLine
62
7
6
CONTINUOUS
10
18.2806528910
20
9.0631320024
11
17.8806528910
21
9.0631320024
0
LINE
5
365
100
AcDbEntity
8
0
100
AcDbLine
62
7
6
CONTINUOUS
10
17.2806528910
20
9.0631320024
11
16.8806528910
21
9.0631320024
0
LINE
5
366
100
AcDbEntity
8
0
100
AcDbLine
62
7
6
CONTINUOUS
10
16.2806528910
20
9.0631320024
11
15.8806528910
21
9.0631320024
0
LINE
5
367
100
AcDbEntity
8
0
100
AcDbLine
62
7
6
CONTINUOUS
10
15.2806528910
20
9.0631320024
11
14.8806528910
21
9.0631320024
0
LINE
5
368
100
AcDbEntity
8
0
100
AcDbLine
62
7
6
CONTINUOUS
10
14.2806528910
20
9.0631320024
11
13.8806528910
21
9.0631320024
0
LINE
5
369
100
AcDbEntity
8
0
100
AcDbLine
62
7
6
CONTINUOUS
10
21.2306528910
20
2.8631320024
11
21.2306528910
21
4.4543670569
0
LINE
5
36A
100
AcDbEntity
8
0
100
AcDbLine
62
7
6
CONTINUOUS
10
21.2394178365
20
4.4543670569
11
21.2394178365
21
2.8543670569
0
LINE
5
36B
100
AcDbEntity
8
0
100
AcDbLine
62
7
6
CONTINUOUS
10
21.2806528910
20
9.0631320024
11
21.2806528910
21
12.0631320024
0
LINE
5
36C
100
AcDbEntity
8
0
100
AcDbLine
62
9
6
CONTINUOUS
10
21.7393987980
20
3.9543860954
11
21.7393987980
21
2.3543860954
0
LINE
5
36D
100
AcDbEntity
8
0
100
AcDbLine
62
9
6
CONTINUOUS
10
21.8806528910
20
31.5060080161
11
21.8806528910
21
31.1255854096
0
LINE
5
36E
100
AcDbEntity
8
0
100
AcDbLine
62
9
6
CONTINUOUS
10
21.8806528910
20
-16.1797440114
11
21.8806528910
21
-15.7993214048
0
LINE
5
36F
100
AcDbEntity
8
0
100
AcDbLine
62
3
6
CONTINUOUS
10
22.0806528910
20
-16.3213345515
11
22.0806528910
21
-15.8611248037
0
LINE
5
370
100
AcDbEntity
8
0
100
AcDbLine
62
3
6
CONTINUOUS
10
22.0806528910
20
31.1873888085
11
22.0806528910
21
31.6475985563
0
LINE
5
371
100
AcDbEntity
8
0
100
AcDbLine
62
3
6
CONTINUOUS
10
23.5806528910
20
31.6475985563
11
23.5806528910
21
30.0983474048
0
LINE
5
372
100
AcDbEntity
8
0
100
AcDbLine
62
3
6
CONTINUOUS
10
23.5806528910
20
-16.3213345515
11
23.5806528910
21
-14.7720834000
0
LINE
5
373
100
AcDbEntity
8
CURVE
100
AcDbLine
62
40
6
CONTINUOUS
10
23.5806528910
20
12.0631320024
11
23.5806528910
21
5.0631320024
0
LINE
5
374
100
AcDbEntity
8
0
100
AcDbLine
62
7
6
CONTINUOUS
10
23.5806528910
20
5.0631320024
11
23.5806528910
21
12.0631320024
0
LINE
5
375
100
AcDbEntity
8
0
100
AcDbLine
62
7
6
CONTINUOUS
10
23.5806528910
20
-16.3213345515
11
23.5806528910
21
-17.3213345515
0
LINE
5
376
100
AcDbEntity
8
0
100
AcDbLine
62
7
6
CONTINUOUS
10
23.5806528910
20
31.6475985563
11
23.5806528910
21
32.6475985563
0
LINE
5
377
100
AcDbEntity
8
0
100
AcDbLine
62
7
6
CONTINUOUS
10
23.7806528910
20
-14.8368679976
11
23.7806528910
21
-15.5868679976
0
LINE
5
378
100
AcDbEntity
8
0
100
AcDbLine
62
7
6
CONTINUOUS
10
23.7806528910
20
30.1631320024
11
23.7806528910
21
30.9131320024
0
LINE
5
379
100
AcDbEntity
8
0
100
AcDbLine
62
7
6
CONTINUOUS
10
24.0306528910
20
4.4631320024
11
24.0306528910
21
12.3631320024
0
LINE
5
37A
100
AcDbEntity
8
0
100
AcDbLine
62
7
6
CONTINUOUS
10
24.0394178365
20
12.3718969478
11
24.0394178365
21
4.4543670569
0
LINE
5
37B
100
AcDbEntity
8
0
100
AcDbLine
62
9
6
CONTINUOUS
10
24.5393987980
20
12.8718779094
11
24.5393987980
21
3.9543860954
0
LINE
5
37C
100
AcDbEntity
8
0
100
AcDbLine
62
7
6
CONTINUOUS
10
15.3315255778
20
-3.4368679976
11
15.3385070720
21
-3.4298865034
0
LINE
5
37D
100
AcDbEntity
8
0
100
AcDbLine
62
7
6
CONTINUOUS
10
23.5806528910
20
12.0631320024
11
11.5806528910
21
12.0631320024
0
LINE
5
37E
100
AcDbEntity
8
CURVE
100
AcDbLine
62
40
6
CONTINUOUS
10
11.5806528910
20
12.0631320024
11
23.5806528910
21
12.0631320024
0
LINE
5
37F
100
AcDbEntity
8
0
100
AcDbLine
62
7
6
CONTINUOUS
10
24.0306528910
20
12.3631320024
11
11.1306528910
21
12.3631320024
0
LINE
5
380
100
AcDbEntity
8
0
100
AcDbLine
62
7
6
CONTINUOUS
10
11.1218879456
20
12.3718969478
11
24.0394178365
21
12.3718969478
0
LINE
5
381
100
AcDbEntity
8
0
100
AcDbLine
62
9
6
CONTINUOUS
10
10.6219069840
20
12.8718779094
11
24.5393987980
21
12.8718779094
0
LINE
5
382
100
AcDbEntity
8
DEFAULT_3
100
AcDbLine
62
9
6
PHANTOM
10
25.5306528910
20
-4.1868679976
11
25.5306528910
21
-3.4868679976
0
LINE
5
383
100
AcDbEntity
8
DEFAULT_3
100
AcDbLine
62
9
6
PHANTOM
10
25.5306528910
20
-11.6868679976
11
25.5306528904
21
-12.3868679976
0
LINE
5
384
100
AcDbEntity
8
0
100
AcDbLine
62
9
6
CONTINUOUS
10
25.5806528910
20
-12.6473478546
11
25.5806528910
21
-12.4368679976
0
LINE
5
385
100
AcDbEntity
8
0
100
AcDbLine
62
9
6
CONTINUOUS
10
25.5806528910
20
-3.2263881406
11
25.5806528910
21
-3.4368679976
0
LINE
5
386
100
AcDbEntity
8
DEFAULT_3
100
AcDbLine
62
9
6
PHANTOM
10
25.8306528910
20
-11.3868679976
11
25.8306528910
21
-4.4868679976
0
LINE
5
387
100
AcDbEntity
8
0
100
AcDbLine
62
7
6
CONTINUOUS
10
26.4806528910
20
-11.3368679976
11
26.4806528910
21
-4.5368679976
0
LINE
5
388
100
AcDbEntity
8
DEFAULT_3
100
AcDbLine
62
8
6
PHANTOM
10
26.5014732843
20
-10.1868679976
11
26.5014732843
21
-5.6868679976
0
LINE
5
389
100
AcDbEntity
8
DEFAULT_3
100
AcDbLine
62
8
6
PHANTOM
10
26.5306528910
20
-11.3868679976
11
26.5306528910
21
-10.1868679976
0
LINE
5
38A
100
AcDbEntity
8
DEFAULT_3
100
AcDbLine
62
8
6
PHANTOM
10
26.5306528910
20
-5.6868679976
11
26.5306528910
21
-4.4868679976
0
LINE
5
38B
100
AcDbEntity
8
0
100
AcDbLine
62
7
6
CONTINUOUS
10
26.5806528910
20
-4.4368679976
11
26.5806528910
21
-11.4368679976
0
LINE
5
38C
100
AcDbEntity
8
0
100
AcDbLine
62
7
6
CONTINUOUS
10
26.5911403634
20
-4.4368679976
11
26.5911403634
21
-11.4368679976
0
LINE
5
38D
100
AcDbEntity
8
0
100
AcDbLine
62
9
6
CONTINUOUS
10
26.7911327480
20
-4.4368679976
11
26.7911327480
21
-11.4368679976
0
LINE
5
38E
100
AcDbEntity
8
0
100
AcDbLine
62
7
6
CONTINUOUS
10
27.9021110809
20
31.3502778051
11
27.9021110809
21
30.1631320024
0
LINE
5
38F
100
AcDbEntity
8
0
100
AcDbLine
62
7
6
CONTINUOUS
10
27.9021110809
20
-14.8368679976
11
27.9021110809
21
-16.0240138003
0
LINE
5
390
100
AcDbEntity
8
0
100
AcDbLine
62
9
6
CONTINUOUS
10
28.0337795112
20
-16.0443762283
11
28.0337795112
21
-14.7092339555
0
LINE
5
391
100
AcDbEntity
8
0
100
AcDbLine
62
9
6
CONTINUOUS
10
28.0337795112
20
30.0354979603
11
28.0337795112
21
31.3706402331
0
LINE
5
392
100
AcDbEntity
8
INC_LASER
100
AcDbLine
62
9
6
CONTINUOUS
10
29.9719253585
20
-11.2225822723
11
29.9492337741
21
-10.8511536455
0
LINE
5
393
100
AcDbEntity
8
INC_LASER
100
AcDbLine
62
9
6
CONTINUOUS
10
29.9719253585
20
-2.1535344576
11
29.9492337741
21
-1.7821066832
0
LINE
5
394
100
AcDbEntity
8
INC_LASER
100
AcDbLine
62
9
6
CONTINUOUS
10
29.9106324391
20
-6.9294479976
11
29.8776655991
21
-6.3878799976
0
LINE
5
395
100
AcDbEntity
8
INC_LASER
100
AcDbLine
62
9
6
CONTINUOUS
10
29.8949057748
20
-6.0910729976
11
29.9282874344
21
-6.6394479976
0
LINE
5
396
100
AcDbEntity
8
INC_LASER
100
AcDbLine
62
9
6
CONTINUOUS
10
29.9125215659
20
-11.1157069976
11
29.8776655991
21
-10.4745819976
0
LINE
5
397
100
AcDbEntity
8
INC_LASER
100
AcDbLine
62
9
6
CONTINUOUS
10
29.8776655991
20
-9.8945529976
11
29.9282875740
21
-10.8256919976
0
LINE
5
398
100
AcDbEntity
8
INC_LASER
100
AcDbLine
62
9
6
CONTINUOUS
10
29.9282875740
20
-5.1243649976
11
29.8776654769
21
-4.1932399976
0
LINE
5
399
100
AcDbEntity
8
INC_LASER
100
AcDbLine
62
9
6
CONTINUOUS
10
29.8934316072
20
-3.9032179976
11
29.9087141973
21
-4.1843079976
0
LINE
5
39A
100
AcDbEntity
8
INC_LASER
100
AcDbLine
62
9
6
CONTINUOUS
10
29.9183323221
20
-4.3612299976
11
29.9282874344
21
-4.5443429976
0
LINE
5
39B
100
AcDbEntity
8
INC_LASER
100
AcDbLine
62
9
6
CONTINUOUS
10
29.9622003937
20
-11.9654394096
11
29.9492337741
21
-11.5940108215
0
LINE
5
39C
100
AcDbEntity
8
INC_LASER
100
AcDbLine
62
9
6
CONTINUOUS
10
29.9045986790
20
18.6631320024
11
29.8998608759
21
18.7988462942
0
LINE
5
39D
100
AcDbEntity
8
INC_LASER
100
AcDbLine
62
9
6
CONTINUOUS
10
29.9188120891
20
19.6131320024
11
29.9235498927
21
19.4774177248
0
LINE
5
39E
100
AcDbEntity
8
INC_LASER
100
AcDbLine
62
9
6
CONTINUOUS
10
29.9492337741
20
0.5393229509
11
29.9589587383
21
0.1678933168
0
LINE
5
39F
100
AcDbEntity
8
INC_LASER
100
AcDbLine
62
9
6
CONTINUOUS
10
29.8998608759
20
20.2464652980
11
29.8951230729
21
20.4274176681
0
LINE
5
3A0
100
AcDbEntity
8
INC_LASER
100
AcDbLine
62
9
6
CONTINUOUS
10
29.9686837035
20
-9.4582967019
11
29.9719253585
21
-9.6440108990
0
LINE
5
3A1
100
AcDbEntity
8
INC_LASER
100
AcDbLine
62
9
6
CONTINUOUS
10
29.8998608759
20
18.7988462942
11
29.8951230729
21
19.0702748636
0
LINE
5
3A2
100
AcDbEntity
8
INC_LASER
100
AcDbLine
62
9
6
CONTINUOUS
10
29.9235498927
20
19.4774177248
11
29.9282876962
21
19.2059891695
0
LINE
5
3A3
100
AcDbEntity
8
INC_LASER
100
AcDbLine
62
9
6
CONTINUOUS
10
29.9093364820
20
20.4274176681
11
29.9140742861
21
20.1559891129
0
LINE
5
3A4
100
AcDbEntity
8
INC_LASER
100
AcDbLine
62
9
6
CONTINUOUS
10
29.9235498927
20
21.1059891129
11
29.9282876962
21
20.8345606709
0
LINE
5
3A5
100
AcDbEntity
8
INC_LASER
100
AcDbLine
62
9
6
CONTINUOUS
10
29.8998608759
20
24.4988462234
11
29.8951230729
21
24.7702746654
0
LINE
5
3A6
100
AcDbEntity
8
INC_LASER
100
AcDbLine
62
9
6
CONTINUOUS
10
29.9235498927
20
23.9559893394
11
29.9282876962
21
23.6845604444
0
LINE
5
3A7
100
AcDbEntity
8
INC_LASER
100
AcDbLine
62
9
6
CONTINUOUS
10
29.9188120891
20
25.3131320024
11
29.9282876962
21
24.7702746654
0
LINE
5
3A8
100
AcDbEntity
8
INC_LASER
100
AcDbLine
62
9
6
CONTINUOUS
10
29.9069675815
20
21.0155130411
11
29.9093364820
21
20.8345606709
0
LINE
5
3A9
100
AcDbEntity
8
0
100
AcDbLine
62
9
6
CONTINUOUS
10
29.5342453285
20
-13.1681807782
11
29.5342453285
21
28.4944447829
0
LINE
5
3AA
100
AcDbEntity
8
0
100
AcDbLine
62
9
6
CONTINUOUS
10
29.7842072523
20
-13.1681807782
11
29.7842072523
21
28.4944447829
0
LINE
5
3AB
100
AcDbEntity
8
0
100
AcDbLine
62
9
6
CONTINUOUS
10
29.8742513829
20
31.3705993976
11
29.8742513829
21
29.7854458443
0
LINE
5
3AC
100
AcDbEntity
8
0
100
AcDbLine
62
9
6
CONTINUOUS
10
29.8742513829
20
-14.4591818395
11
29.8742513829
21
-16.0443353928
0
LINE
5
3AD
100
AcDbEntity
8
INC_LASER
100
AcDbLine
62
9
6
CONTINUOUS
10
29.8776655991
20
-12.3368679976
11
29.8776655991
21
-11.7568389976
0
LINE
5
3AE
100
AcDbEntity
8
INC_LASER
100
AcDbLine
62
9
6
CONTINUOUS
10
29.8776655991
20
-10.4745819976
11
29.8776655991
21
-9.8945529976
0
LINE
5
3AF
100
AcDbEntity
8
INC_LASER
100
AcDbLine
62
9
6
CONTINUOUS
10
29.8776655991
20
-9.5078739976
11
29.8776655991
21
-8.9278529976
0
LINE
5
3B0
100
AcDbEntity
8
INC_LASER
100
AcDbLine
62
9
6
CONTINUOUS
10
29.8776655991
20
-8.3478529976
11
29.8776655991
21
-7.4710159976
0
LINE
5
3B1
100
AcDbEntity
8
INC_LASER
100
AcDbLine
62
9
6
CONTINUOUS
10
29.8776655991
20
-6.3878799976
11
29.8776655991
21
-5.5110439976
0
LINE
5
3B2
100
AcDbEntity
8
INC_LASER
100
AcDbLine
62
9
6
CONTINUOUS
10
29.8776654769
20
-4.1932399976
11
29.8776654769
21
-3.6131889976
0
LINE
5
3B3
100
AcDbEntity
8
INC_LASER
100
AcDbLine
62
9
6
CONTINUOUS
10
29.8776654769
20
-2.2953709976
11
29.8776654769
21
-0.9371569976
0
LINE
5
3B4
100
AcDbEntity
8
INC_LASER
100
AcDbLine
62
9
6
CONTINUOUS
10
29.8870305033
20
-1.0176629976
11
29.8870305033
21
-1.7233459976
0
LINE
5
3B5
100
AcDbEntity
8
INC_LASER
100
AcDbLine
62
9
6
CONTINUOUS
10
29.8951230729
20
23.9559893394
11
29.8951230729
21
23.1417035604
0
LINE
5
3B6
100
AcDbEntity
8
INC_LASER
100
AcDbLine
62
9
6
CONTINUOUS
10
29.8951230729
20
19.0702748636
11
29.8951230729
21
19.2059891695
0
LINE
5
3B7
100
AcDbEntity
8
INC_LASER
100
AcDbLine
62
9
6
CONTINUOUS
10
29.8951230729
20
20.4274176681
11
29.8951230729
21
20.8345606709
0
LINE
5
3B8
100
AcDbEntity
8
INC_LASER
100
AcDbLine
62
9
6
CONTINUOUS
10
29.8951230729
20
24.7702746654
11
29.8951230729
21
25.1774177814
0
LINE
5
3B9
100
AcDbEntity
8
INC_LASER
100
AcDbLine
62
9
6
CONTINUOUS
10
29.8993490488
20
-1.7233389976
11
29.8993490488
21
-1.0176629976
0
LINE
5
3BA
100
AcDbEntity
8
INC_LASER
100
AcDbLine
62
9
6
CONTINUOUS
10
29.9087141973
20
-4.1843079976
11
29.9087141973
21
-3.6221139976
0
LINE
5
3BB
100
AcDbEntity
8
INC_LASER
100
AcDbLine
62
9
6
CONTINUOUS
10
29.9087141973
20
-1.2090459976
11
29.9087140751
21
-1.7152769976
0
LINE
5
3BC
100
AcDbEntity
8
INC_LASER
100
AcDbLine
62
9
6
CONTINUOUS
10
29.9093364820
20
20.8345606709
11
29.9093364820
21
20.4274176681
0
LINE
5
3BD
100
AcDbEntity
8
INC_LASER
100
AcDbLine
62
9
6
CONTINUOUS
10
29.9093364820
20
23.1417035604
11
29.9093364820
21
23.6845604444
0
LINE
5
3BE
100
AcDbEntity
8
INC_LASER
100
AcDbLine
62
9
6
CONTINUOUS
10
29.9140742861
20
25.3583699251
11
29.9140742861
21
24.7702746654
0
LINE
5
3BF
100
AcDbEntity
8
INC_LASER
100
AcDbLine
62
9
6
CONTINUOUS
10
29.9183323221
20
-3.4451849976
11
29.9183323221
21
-4.3612299976
0
LINE
5
3C0
100
AcDbEntity
8
INC_LASER
100
AcDbLine
62
9
6
CONTINUOUS
10
29.9211809911
20
22.5988462234
11
29.9211809911
21
21.6488462234
0
LINE
5
3C1
100
AcDbEntity
8
INC_LASER
100
AcDbLine
62
9
6
CONTINUOUS
10
29.9282874344
20
-6.6394479976
11
29.9282875740
21
-7.2194549976
0
LINE
5
3C2
100
AcDbEntity
8
INC_LASER
100
AcDbLine
62
9
6
CONTINUOUS
10
29.9282875740
20
-8.9278599976
11
29.9282876962
21
-9.5078819976
0
LINE
5
3C3
100
AcDbEntity
8
INC_LASER
100
AcDbLine
62
9
6
CONTINUOUS
10
29.9282875740
20
-10.8256919976
11
29.9282876962
21
-11.4057359976
0
LINE
5
3C4
100
AcDbEntity
8
INC_LASER
100
AcDbLine
62
9
6
CONTINUOUS
10
29.9282874344
20
-4.5443429976
11
29.9282875740
21
-5.1243649976
0
LINE
5
3C5
100
AcDbEntity
8
INC_LASER
100
AcDbLine
62
9
6
CONTINUOUS
10
29.9282873122
20
0.0255130024
11
29.9282874344
21
-0.6277919976
0
LINE
5
3C6
100
AcDbEntity
8
INC_LASER
100
AcDbLine
62
9
6
CONTINUOUS
10
29.9282876962
20
23.6845604444
11
29.9282876962
21
23.1417035604
0
LINE
5
3C7
100
AcDbEntity
8
INC_LASER
100
AcDbLine
62
9
6
CONTINUOUS
10
29.9282876962
20
20.8345606709
11
29.9282876962
21
20.4274176681
0
LINE
5
3C8
100
AcDbEntity
8
INC_LASER
100
AcDbLine
62
9
6
CONTINUOUS
10
29.9282876962
20
19.2059891695
11
29.9282876962
21
19.0702748636
0
LINE
5
3C9
100
AcDbEntity
8
INC_LASER
100
AcDbLine
62
9
6
CONTINUOUS
10
29.9282874344
20
-1.7153419976
11
29.9282874344
21
-2.2953709976
0
LINE
5
3CA
100
AcDbEntity
8
INC_LASER
100
AcDbLine
62
9
6
CONTINUOUS
10
29.9282875740
20
-5.5110439976
11
29.9282875740
21
-6.0910649976
0
LINE
5
3CB
100
AcDbEntity
8
INC_LASER
100
AcDbLine
62
9
6
CONTINUOUS
10
29.9282875740
20
-7.7678309976
11
29.9282875740
21
-8.3478529976
0
LINE
5
3CC
100
AcDbEntity
8
INC_LASER
100
AcDbLine
62
9
6
CONTINUOUS
10
29.9282875740
20
-2.6820499976
11
29.9282874344
21
-3.2620789976
0
LINE
5
3CD
100
AcDbEntity
8
INC_LASER
100
AcDbLine
62
9
6
CONTINUOUS
10
29.9492337741
20
-10.1082965469
11
29.9492337741
21
-9.6440108990
0
LINE
5
3CE
100
AcDbEntity
8
INC_LASER
100
AcDbLine
62
9
6
CONTINUOUS
10
29.9492337741
20
-8.9321060633
11
29.9492337741
21
-8.3749631619
0
LINE
5
3CF
100
AcDbEntity
8
INC_LASER
100
AcDbLine
62
9
6
CONTINUOUS
10
29.9492337741
20
-2.5249634719
11
29.9492337741
21
-3.2678202605
0
LINE
5
3D0
100
AcDbEntity
8
INC_LASER
100
AcDbLine
62
9
6
CONTINUOUS
10
29.9589587383
20
-8.9321060633
11
29.9589587383
21
-8.5606776690
0
LINE
5
3D1
100
AcDbEntity
8
INC_LASER
100
AcDbLine
62
9
6
CONTINUOUS
10
29.9654420484
20
-1.5344873404
11
29.9654420484
21
-2.0297254061
0
LINE
5
3D2
100
AcDbEntity
8
INC_LASER
100
AcDbLine
62
9
6
CONTINUOUS
10
29.9654420484
20
-10.6035346126
11
29.9654420484
21
-11.0987727558
0
LINE
5
3D3
100
AcDbEntity
8
INC_LASER
100
AcDbLine
62
9
6
CONTINUOUS
10
29.9719253585
20
-0.5749634719
11
29.9719253585
21
-1.0392486548
0
LINE
5
3D4
100
AcDbEntity
8
INC_LASER
100
AcDbLine
62
9
6
CONTINUOUS
10
29.9719253585
20
-8.3749631619
11
29.9719253585
21
-8.9321060633
0
LINE
5
3D5
100
AcDbEntity
8
INC_LASER
100
AcDbLine
62
9
6
CONTINUOUS
10
29.9719253585
20
-9.6440108990
11
29.9719253585
21
-10.1082965469
0
LINE
5
3D6
100
AcDbEntity
8
0
100
AcDbLine
62
7
6
CONTINUOUS
10
29.9806528910
20
-16.0868923658
11
29.9806528910
21
31.4131563706
0
LINE
5
3D7
100
AcDbEntity
8
INC_LASER
100
AcDbLine
62
9
6
CONTINUOUS
10
29.9093364820
20
20.4274176681
11
29.9069675815
21
20.2464652980
0
LINE
5
3D8
100
AcDbEntity
8
INC_LASER
100
AcDbLine
62
9
6
CONTINUOUS
10
29.8951230729
20
25.1774177814
11
29.8998608759
21
25.4488462234
0
LINE
5
3D9
100
AcDbEntity
8
INC_LASER
100
AcDbLine
62
9
6
CONTINUOUS
10
29.9140742861
20
24.7702746654
11
29.9093364820
21
24.4988462234
0
LINE
5
3DA
100
AcDbEntity
8
INC_LASER
100
AcDbLine
62
9
6
CONTINUOUS
10
29.9093364820
20
23.6845604444
11
29.9140742861
21
23.9559893394
0
LINE
5
3DB
100
AcDbEntity
8
INC_LASER
100
AcDbLine
62
9
6
CONTINUOUS
10
29.9093364820
20
20.8345606709
11
29.9140742861
21
21.1059891129
0
LINE
5
3DC
100
AcDbEntity
8
INC_LASER
100
AcDbLine
62
9
6
CONTINUOUS
10
29.8951230729
20
19.2059891695
11
29.8998608759
21
19.4774177248
0
LINE
5
3DD
100
AcDbEntity
8
INC_LASER
100
AcDbLine
62
9
6
CONTINUOUS
10
29.9282876962
20
20.4274176681
11
29.9235498927
21
20.1559891129
0
LINE
5
3DE
100
AcDbEntity
8
INC_LASER
100
AcDbLine
62
9
6
CONTINUOUS
10
29.9282876962
20
19.0702748636
11
29.9235498927
21
18.7988462942
0
LINE
5
3DF
100
AcDbEntity
8
INC_LASER
100
AcDbLine
62
9
6
CONTINUOUS
10
29.9492337741
20
-9.6440108990
11
29.9524754289
21
-9.4582967019
0
LINE
5
3E0
100
AcDbEntity
8
INC_LASER
100
AcDbLine
62
9
6
CONTINUOUS
10
29.8951230729
20
20.8345606709
11
29.8998608759
21
21.0155130411
0
LINE
5
3E1
100
AcDbEntity
8
INC_LASER
100
AcDbLine
62
9
6
CONTINUOUS
10
29.9492337741
20
-0.2035350775
11
29.9589587383
21
0.1678933168
0
LINE
5
3E2
100
AcDbEntity
8
INC_LASER
100
AcDbLine
62
9
6
CONTINUOUS
10
29.9074966309
20
-0.5918912069
11
29.9282873122
21
0.0255130024
0
LINE
5
3E3
100
AcDbEntity
8
INC_LASER
100
AcDbLine
62
9
6
CONTINUOUS
10
29.9282874344
20
-0.6277919976
11
29.9087141973
21
-1.2090459976
0
LINE
5
3E4
100
AcDbEntity
8
INC_LASER
100
AcDbLine
62
9
6
CONTINUOUS
10
29.8998608759
20
19.4774177248
11
29.9045986790
21
19.6131320024
0
LINE
5
3E5
100
AcDbEntity
8
INC_LASER
100
AcDbLine
62
9
6
CONTINUOUS
10
29.9235498927
20
18.7988462942
11
29.9188120891
21
18.6631320024
0
LINE
5
3E6
100
AcDbEntity
8
INC_LASER
100
AcDbLine
62
9
6
CONTINUOUS
10
29.9492337741
20
-6.1463918662
11
29.9719253585
21
-5.4963918662
0
LINE
5
3E7
100
AcDbEntity
8
INC_LASER
100
AcDbLine
62
9
6
CONTINUOUS
10
29.8776654769
20
-3.6131889976
11
29.9282875740
21
-2.6820499976
0
LINE
5
3E8
100
AcDbEntity
8
INC_LASER
100
AcDbLine
62
9
6
CONTINUOUS
10
29.9087141973
20
-3.6221139976
11
29.8934316072
21
-3.9032179976
0
LINE
5
3E9
100
AcDbEntity
8
INC_LASER
100
AcDbLine
62
9
6
CONTINUOUS
10
29.9282874344
20
-3.2620789976
11
29.9183323221
21
-3.4451849976
0
LINE
5
3EA
100
AcDbEntity
8
INC_LASER
100
AcDbLine
62
9
6
CONTINUOUS
10
29.9492337741
20
-1.7821066832
11
29.9719253585
21
-1.4106770491
0
LINE
5
3EB
100
AcDbEntity
8
0
100
AcDbLine
62
7
6
CONTINUOUS
10
13.6059608076
20
-14.8368679976
11
13.6783938103
21
-14.7499474235
0
LINE
5
3EC
100
AcDbEntity
8
0
100
AcDbLine
62
9
6
CONTINUOUS
10
7.1806338522
20
-16.0868619051
11
7.2591947011
21
-16.0240138003
0
LINE
5
3ED
100
AcDbEntity
8
0
100
AcDbLine
62
7
6
CONTINUOUS
10
7.0868045632
20
-16.2820891635
11
7.1653580722
21
-16.2192469306
0
LINE
5
3EE
100
AcDbEntity
8
INC_LASER
100
AcDbLine
62
9
6
CONTINUOUS
10
29.9188120891
20
18.6631320024
11
29.9045986790
21
18.6631320024
0
LINE
5
3EF
100
AcDbEntity
8
0
100
AcDbLine
62
9
6
CONTINUOUS
10
7.1806338522
20
31.4131259099
11
7.2591947011
21
31.3502778051
0
LINE
5
3F0
100
AcDbEntity
8
0
100
AcDbLine
62
7
6
CONTINUOUS
10
7.0868045632
20
31.6083531682
11
7.1653580722
21
31.5455109354
0
LINE
5
3F1
100
AcDbEntity
8
0
100
AcDbLine
62
7
6
CONTINUOUS
10
13.6059608076
20
30.1631320024
11
13.6783938103
21
30.0762114283
0
LINE
5
3F2
100
AcDbEntity
8
INC_LASER
100
AcDbLine
62
9
6
CONTINUOUS
10
29.9093364820
20
25.4488462234
11
29.9188120891
21
25.3131320024
0
LINE
5
3F3
100
AcDbEntity
8
INC_LASER
100
AcDbLine
62
9
6
CONTINUOUS
10
29.9211809911
20
21.6488462234
11
29.8951230729
21
22.0559891129
0
LINE
5
3F4
100
AcDbEntity
8
INC_LASER
100
AcDbLine
62
9
6
CONTINUOUS
10
29.9492337741
20
-12.3368679976
11
29.9622003937
21
-11.9654394096
0
LINE
5
3F5
100
AcDbEntity
8
INC_LASER
100
AcDbLine
62
9
6
CONTINUOUS
10
29.8776655991
20
-11.7568389976
11
29.9125215659
21
-11.1157069976
0
LINE
5
3F6
100
AcDbEntity
8
INC_LASER
100
AcDbLine
62
9
6
CONTINUOUS
10
29.9282876962
20
-11.4057359976
11
29.8776655991
21
-12.3368679976
0
LINE
5
3F7
100
AcDbEntity
8
INC_LASER
100
AcDbLine
62
9
6
CONTINUOUS
10
29.8776655991
20
-7.4710159976
11
29.9106324391
21
-6.9294479976
0
LINE
5
3F8
100
AcDbEntity
8
INC_LASER
100
AcDbLine
62
9
6
CONTINUOUS
10
29.9282875740
20
-7.2194549976
11
29.8949057748
21
-7.7678309976
0
LINE
5
3F9
100
AcDbEntity
8
INC_LASER
100
AcDbLine
62
9
6
CONTINUOUS
10
29.9492337741
20
-10.8511536455
11
29.9719253585
21
-10.4797250962
0
LINE
5
3FA
100
AcDbEntity
8
0
100
AcDbLine
62
9
6
CONTINUOUS
10
5.3555081806
20
-14.4181122399
11
5.2870543991
21
-14.4591818395
0
LINE
5
3FB
100
AcDbEntity
8
0
100
AcDbLine
62
9
6
CONTINUOUS
10
5.6054701044
20
-14.6680985322
11
5.5479753551
21
-14.7025931398
0
LINE
5
3FC
100
AcDbEntity
8
INC_LASER
100
AcDbLine
62
9
6
CONTINUOUS
10
29.9045986790
20
19.6131320024
11
29.9188120891
21
19.6131320024
0
LINE
5
3FD
100
AcDbEntity
8
INC_LASER
100
AcDbLine
62
9
6
CONTINUOUS
10
29.9140742861
20
20.1559891129
11
29.9235498927
21
20.1559891129
0
LINE
5
3FE
100
AcDbEntity
8
INC_LASER
100
AcDbLine
62
9
6
CONTINUOUS
10
29.9069675815
20
20.2464652980
11
29.8998608759
21
20.2464652980
0
LINE
5
3FF
100
AcDbEntity
8
INC_LASER
100
AcDbLine
62
9
6
CONTINUOUS
10
29.8998608759
20
21.0155130411
11
29.9069675815
21
21.0155130411
0
LINE
5
400
100
AcDbEntity
8
INC_LASER
100
AcDbLine
62
9
6
CONTINUOUS
10
29.9140742861
20
21.1059891129
11
29.9235498927
21
21.1059891129
0
LINE
5
401
100
AcDbEntity
8
0
100
AcDbLine
62
9
6
CONTINUOUS
10
5.2870543991
20
29.7854458443
11
5.3555081806
21
29.7443762446
0
LINE
5
402
100
AcDbEntity
8
0
100
AcDbLine
62
9
6
CONTINUOUS
10
5.5479753551
20
30.0288571446
11
5.6054701044
21
29.9943625370
0
LINE
5
403
100
AcDbEntity
8
0
100
AcDbLine
62
7
6
CONTINUOUS
10
19.8297802042
20
-12.4368679976
11
19.8227987100
21
-12.4438494918
0
LINE
5
404
100
AcDbEntity
8
INC_LASER
100
AcDbLine
62
9
6
CONTINUOUS
10
29.9117053845
20
22.2821796322
11
29.9282876962
21
22.2821796322
0
LINE
5
405
100
AcDbEntity
8
0
100
AcDbLine
62
9
6
CONTINUOUS
10
5.1806528910
20
-16.0868923658
11
5.2870543991
21
-16.0443353928
0
LINE
5
406
100
AcDbEntity
8
0
100
AcDbLine
62
9
6
CONTINUOUS
10
5.4306605084
20
-16.3368679976
11
5.5370163229
21
-16.2943293005
0
LINE
5
407
100
AcDbEntity
8
INC_LASER
100
AcDbLine
62
9
6
CONTINUOUS
10
29.8951230729
20
23.1417035604
11
29.9093364820
21
23.1417035604
0
LINE
5
408
100
AcDbEntity
8
INC_LASER
100
AcDbLine
62
9
6
CONTINUOUS
10
29.9140742861
20
23.9559893394
11
29.9235498927
21
23.9559893394
0
LINE
5
409
100
AcDbEntity
8
INC_LASER
100
AcDbLine
62
9
6
CONTINUOUS
10
29.9093364820
20
24.4988462234
11
29.8998608759
21
24.4988462234
0
LINE
5
40A
100
AcDbEntity
8
0
100
AcDbLine
62
9
6
CONTINUOUS
10
5.1806528910
20
31.4131563706
11
5.2870543991
21
31.3705993976
0
LINE
5
40B
100
AcDbEntity
8
0
100
AcDbLine
62
9
6
CONTINUOUS
10
5.4306605084
20
31.6631320024
11
5.5370163229
21
31.6205933053
0
LINE
5
40C
100
AcDbEntity
8
INC_LASER
100
AcDbLine
62
9
6
CONTINUOUS
10
29.8998608759
20
25.4488462234
11
29.9093364820
21
25.4488462234
0
LINE
5
40D
100
AcDbEntity
8
0
100
AcDbLine
62
9
6
CONTINUOUS
10
5.3770985297
20
28.4944447829
11
29.7842072523
21
28.4944447829
0
LINE
5
40E
100
AcDbEntity
8
0
100
AcDbLine
62
7
6
CONTINUOUS
10
27.9274189975
20
-14.8368679976
11
28.0337795112
21
-14.7092339555
0
LINE
5
40F
100
AcDbEntity
8
0
100
AcDbLine
62
9
6
CONTINUOUS
10
29.5558356776
20
29.9943625370
11
5.6054701044
21
29.9943625370
0
LINE
5
410
100
AcDbEntity
8
0
100
AcDbLine
62
7
6
CONTINUOUS
10
21.4829119717
20
30.0762114283
11
13.6783938103
21
30.0762114283
0
LINE
5
411
100
AcDbEntity
8
0
100
AcDbLine
62
7
6
CONTINUOUS
10
7.2338867845
20
30.1631320024
11
11.5806528910
21
30.1631320024
0
LINE
5
412
100
AcDbEntity
8
0
100
AcDbLine
62
7
6
CONTINUOUS
10
23.5806528910
20
30.1631320024
11
27.9274189975
21
30.1631320024
0
LINE
5
413
100
AcDbEntity
8
0
100
AcDbLine
62
7
6
CONTINUOUS
10
27.9274189975
20
30.1631320024
11
28.0337795112
21
30.0354979603
0
LINE
5
414
100
AcDbEntity
8
0
100
AcDbLine
62
9
6
CONTINUOUS
10
27.9806719298
20
-16.0868619051
11
28.0337795112
21
-16.0443762283
0
LINE
5
415
100
AcDbEntity
8
0
100
AcDbLine
62
9
6
CONTINUOUS
10
28.2306471795
20
-16.3368679976
11
28.2837699920
21
-16.2943701360
0
LINE
5
416
100
AcDbEntity
8
0
100
AcDbLine
62
7
6
CONTINUOUS
10
11.3806528910
20
30.9131320024
11
11.5806528910
21
30.9131320024
0
LINE
5
417
100
AcDbEntity
8
0
100
AcDbLine
62
7
6
CONTINUOUS
10
23.5806528910
20
30.9131320024
11
23.7806528910
21
30.9131320024
0
LINE
5
418
100
AcDbEntity
8
0
100
AcDbLine
62
3
6
CONTINUOUS
10
13.2806528910
20
31.1255854096
11
13.8763231235
21
31.1255854096
0
LINE
5
419
100
AcDbEntity
8
0
100
AcDbLine
62
3
6
CONTINUOUS
10
21.2849826585
20
31.1255854096
11
21.8806528910
21
31.1255854096
0
LINE
5
41A
100
AcDbEntity
8
CURVE
100
AcDbLine
62
40
6
CONTINUOUS
10
21.8806528910
20
31.5060080161
11
21.3227345059
21
31.5060080161
0
LINE
5
41B
100
AcDbEntity
8
CURVE
100
AcDbLine
62
40
6
CONTINUOUS
10
13.8385712761
20
31.5060080161
11
13.2806528910
21
31.5060080161
0
LINE
5
41C
100
AcDbEntity
8
0
100
AcDbLine
62
7
6
CONTINUOUS
10
13.2806528910
20
31.5060080161
11
13.8385712761
21
31.5060080161
0
LINE
5
41D
100
AcDbEntity
8
0
100
AcDbLine
62
7
6
CONTINUOUS
10
21.3227345059
20
31.5060080161
11
21.8806528910
21
31.5060080161
0
LINE
5
41E
100
AcDbEntity
8
0
100
AcDbLine
62
7
6
CONTINUOUS
10
23.5806528910
20
31.6475985563
11
21.5139191258
21
31.6475985563
0
LINE
5
41F
100
AcDbEntity
8
0
100
AcDbLine
62
7
6
CONTINUOUS
10
13.6473866562
20
31.6475985563
11
11.5806528910
21
31.6475985563
0
LINE
5
420
100
AcDbEntity
8
0
100
AcDbLine
62
7
6
CONTINUOUS
10
6.9306586025
20
31.6631320024
11
5.4306605084
21
31.6631320024
0
LINE
5
421
100
AcDbEntity
8
0
100
AcDbLine
62
7
6
CONTINUOUS
10
28.2306471795
20
31.6631320024
11
29.7306452736
21
31.6631320024
0
LINE
5
422
100
AcDbEntity
8
0
100
AcDbLine
62
9
6
CONTINUOUS
10
23.5806528910
20
31.9475985563
11
11.5806528910
21
31.9475985563
0
LINE
5
423
100
AcDbEntity
8
0
100
AcDbLine
62
9
6
CONTINUOUS
10
27.9806719298
20
31.4131259099
11
28.0337795112
21
31.3706402331
0
LINE
5
424
100
AcDbEntity
8
0
100
AcDbLine
62
9
6
CONTINUOUS
10
28.2306471795
20
31.6631320024
11
28.2837699920
21
31.6206341408
0
LINE
5
425
100
AcDbEntity
8
0
100
AcDbLine
62
7
6
CONTINUOUS
10
23.5806528910
20
32.6475985563
11
11.5806528910
21
32.6475985563
0
LINE
5
426
100
AcDbEntity
8
0
100
AcDbLine
62
7
6
CONTINUOUS
10
-26.0034082606
20
-17.3213345515
11
-25.4892452766
21
-17.3213345515
0
LINE
5
427
100
AcDbEntity
8
0
100
AcDbLine
62
3
6
CONTINUOUS
10
-26.0034082606
20
-16.9213345515
11
-25.4892452766
21
-16.9213345515
0
LINE
5
428
100
AcDbEntity
8
0
100
AcDbLine
62
9
6
CONTINUOUS
10
-26.3034082606
20
-16.6213345515
11
-26.7034082606
21
-16.6213345515
0
LINE
5
429
100
AcDbEntity
8
0
100
AcDbLine
62
7
6
CONTINUOUS
10
-24.8034082606
20
-16.3368679976
11
-15.8034082606
21
-16.2740351237
0
LINE
5
42A
100
AcDbEntity
8
0
100
AcDbLine
62
9
6
CONTINUOUS
10
-24.8034082606
20
-16.0868923658
11
-15.8034082606
21
-16.0240594920
0
LINE
5
42B
100
AcDbEntity
8
0
100
AcDbLine
62
7
6
CONTINUOUS
10
-31.5551531861
20
-16.2897311601
11
-24.8034082606
21
-16.3368679976
0
LINE
5
42C
100
AcDbEntity
8
0
100
AcDbLine
62
9
6
CONTINUOUS
10
-30.8991465789
20
-16.0443353928
11
-24.8034082606
21
-16.0868923658
0
LINE
5
42D
100
AcDbEntity
8
0
100
AcDbLine
62
7
6
CONTINUOUS
10
-31.5252439576
20
-14.7025931398
11
-34.8191159368
21
-14.6680985322
0
LINE
5
42E
100
AcDbEntity
8
0
100
AcDbLine
62
9
6
CONTINUOUS
10
-30.8991465789
20
-14.4591818395
11
-34.8208610924
21
-14.4181122399
0
LINE
5
42F
100
AcDbEntity
8
0
100
AcDbLine
62
9
6
CONTINUOUS
10
-36.3034082606
20
-13.1681807782
11
-36.0577713622
21
-13.1681807782
0
LINE
5
430
100
AcDbEntity
8
INC_LASER
100
AcDbLine
62
9
6
CONTINUOUS
10
-28.7066492606
20
-11.1157069976
11
-30.7035462606
21
-10.4745819976
0
LINE
5
431
100
AcDbEntity
8
INC_LASER
100
AcDbLine
62
9
6
CONTINUOUS
10
-25.8605511233
20
-11.9654394096
11
-26.6034082606
21
-11.5940108215
0
LINE
5
432
100
AcDbEntity
8
INC_LASER
100
AcDbLine
62
9
6
CONTINUOUS
10
-29.7034082606
20
25.1774177814
11
-29.4319797054
21
25.4488462234
0
LINE
5
433
100
AcDbEntity
8
INC_LASER
100
AcDbLine
62
9
6
CONTINUOUS
10
-28.6176939830
20
24.7702746654
11
-28.8891225949
21
24.4988462234
0
LINE
5
434
100
AcDbEntity
8
0
100
AcDbLine
62
7
6
CONTINUOUS
10
-15.8034082606
20
28.4388641108
11
-24.8034082606
21
25.1631320024
0
LINE
5
435
100
AcDbEntity
8
DEFAULT_3
100
AcDbLine
62
8
6
PHANTOM
10
-36.6034082606
20
-12.3868679976
11
-36.3034082606
21
-12.3868679976
0
LINE
5
436
100
AcDbEntity
8
INC_LASER
100
AcDbLine
62
9
6
CONTINUOUS
10
-25.3034082606
20
-12.3368679976
11
-26.6034082606
21
-12.3368679976
0
LINE
5
437
100
AcDbEntity
8
INC_LASER
100
AcDbLine
62
9
6
CONTINUOUS
10
-26.6034082606
20
-11.5940108215
11
-25.3034082606
21
-11.5940108215
0
LINE
5
438
100
AcDbEntity
8
DEFAULT_3
100
AcDbLine
62
9
6
PHANTOM
10
-37.3034082606
20
-11.3868679976
11
-36.3034082606
21
-11.3868679976
0
LINE
5
439
100
AcDbEntity
8
0
100
AcDbLine
62
9
6
CONTINUOUS
10
-18.9429236690
20
-11.9699099473
11
-15.8034082606
21
-11.9863485618
0
LINE
5
43A
100
AcDbEntity
8
0
100
AcDbLine
62
7
6
CONTINUOUS
10
-19.7791859735
20
-11.6655353605
11
-15.8034082606
21
-11.6863526741
0
LINE
5
43B
100
AcDbEntity
8
INC_LASER
100
AcDbLine
62
9
6
CONTINUOUS
10
-25.3034082606
20
-11.2225822723
11
-26.6034082606
21
-10.8511536455
0
LINE
5
43C
100
AcDbEntity
8
INC_LASER
100
AcDbLine
62
9
6
CONTINUOUS
10
-30.7035462606
20
-9.8945529976
11
-27.8034152606
21
-10.8256919976
0
LINE
5
43D
100
AcDbEntity
8
0
100
AcDbLine
62
7
6
CONTINUOUS
10
-24.8034082606
20
-9.8368679976
11
-15.8034082606
21
-13.1126001060
0
LINE
5
43E
100
AcDbEntity
8
DEFAULT_3
100
AcDbLine
62
8
6
PHANTOM
10
-37.3034082606
20
-11.6868679976
11
-37.3034082606
21
-4.1868679976
0
LINE
5
43F
100
AcDbEntity
8
DEFAULT_3
100
AcDbLine
62
8
6
PHANTOM
10
-36.8034082606
20
-10.1868679976
11
-36.8034082606
21
-5.6868679976
0
LINE
5
440
100
AcDbEntity
8
DEFAULT_3
100
AcDbLine
62
9
6
PHANTOM
10
-36.6034082606
20
-3.4868679976
11
-36.6034082606
21
-12.3868679976
0
LINE
5
441
100
AcDbEntity
8
0
100
AcDbLine
62
7
6
CONTINUOUS
10
-36.3034082606
20
-13.1681807782
11
-36.3034082606
21
28.4944447829
0
LINE
5
442
100
AcDbEntity
8
0
100
AcDbLine
62
9
6
CONTINUOUS
10
-36.0577713622
20
-13.1681807782
11
-36.0577713622
21
28.4944447829
0
LINE
5
443
100
AcDbEntity
8
INC_LASER
100
AcDbLine
62
9
6
CONTINUOUS
10
-28.8891225949
20
23.6845604444
11
-28.6176939830
21
23.9559893394
0
LINE
5
444
100
AcDbEntity
8
INC_LASER
100
AcDbLine
62
9
6
CONTINUOUS
10
-29.7034082606
20
20.8345606709
11
-29.4319797054
21
21.0155130411
0
LINE
5
445
100
AcDbEntity
8
DEFAULT_3
100
AcDbLine
62
8
6
PHANTOM
10
-36.8034082606
20
-10.1868679976
11
-36.3034082606
21
-10.1868679976
0
LINE
5
446
100
AcDbEntity
8
INC_LASER
100
AcDbLine
62
9
6
CONTINUOUS
10
-25.3034082606
20
-10.1082965469
11
-26.6034082606
21
-10.1082965469
0
LINE
5
447
100
AcDbEntity
8
INC_LASER
100
AcDbLine
62
9
6
CONTINUOUS
10
-27.8034082606
20
-9.5078819976
11
-30.7035462606
21
-9.5078739976
0
LINE
5
448
100
AcDbEntity
8
INC_LASER
100
AcDbLine
62
9
6
CONTINUOUS
10
-26.4176939860
20
-9.4582967019
11
-25.4891225546
21
-9.4582967019
0
LINE
5
449
100
AcDbEntity
8
INC_LASER
100
AcDbLine
62
9
6
CONTINUOUS
10
-25.3034082606
20
-8.9321060633
11
-26.6034082606
21
-8.9321060633
0
LINE
5
44A
100
AcDbEntity
8
INC_LASER
100
AcDbLine
62
9
6
CONTINUOUS
10
-30.7035462606
20
-8.9278529976
11
-27.8034152606
21
-8.9278599976
0
LINE
5
44B
100
AcDbEntity
8
INC_LASER
100
AcDbLine
62
9
6
CONTINUOUS
10
-27.8034152606
20
-8.3478529976
11
-30.7035462606
21
-8.3478529976
0
LINE
5
44C
100
AcDbEntity
8
INC_LASER
100
AcDbLine
62
9
6
CONTINUOUS
10
-28.8148772606
20
-6.9294479976
11
-30.7035462606
21
-6.3878799976
0
LINE
5
44D
100
AcDbEntity
8
INC_LASER
100
AcDbLine
62
9
6
CONTINUOUS
10
-25.4891225546
20
-9.4582967019
11
-25.3034082606
21
-9.6440108990
0
LINE
5
44E
100
AcDbEntity
8
INC_LASER
100
AcDbLine
62
9
6
CONTINUOUS
10
-28.8891225949
20
20.4274176681
11
-29.0248368159
21
20.2464652980
0
LINE
5
44F
100
AcDbEntity
8
INC_LASER
100
AcDbLine
62
9
6
CONTINUOUS
10
-28.8891225949
20
20.8345606709
11
-28.6176939830
21
21.1059891129
0
LINE
5
450
100
AcDbEntity
8
INC_LASER
100
AcDbLine
62
9
6
CONTINUOUS
10
-29.7034082606
20
19.2059891695
11
-29.4319797054
21
19.4774177248
0
LINE
5
451
100
AcDbEntity
8
INC_LASER
100
AcDbLine
62
9
6
CONTINUOUS
10
-27.8034082606
20
20.4274176681
11
-28.0748368442
21
20.1559891129
0
LINE
5
452
100
AcDbEntity
8
INC_LASER
100
AcDbLine
62
9
6
CONTINUOUS
10
-29.4319797054
20
19.4774177248
11
-29.1605511501
21
19.6131320024
0
LINE
5
453
100
AcDbEntity
8
INC_LASER
100
AcDbLine
62
9
6
CONTINUOUS
10
-29.7158572606
20
-7.7678309976
11
-27.8034152606
21
-7.7678309976
0
LINE
5
454
100
AcDbEntity
8
INC_LASER
100
AcDbLine
62
9
6
CONTINUOUS
10
-26.6034082606
20
-6.7344873404
11
-25.3034082606
21
-6.7344873404
0
LINE
5
455
100
AcDbEntity
8
INC_LASER
100
AcDbLine
62
9
6
CONTINUOUS
10
-29.7158572606
20
-6.0910729976
11
-27.8034232606
21
-6.6394479976
0
LINE
5
456
100
AcDbEntity
8
INC_LASER
100
AcDbLine
62
9
6
CONTINUOUS
10
-27.8034152606
20
-5.1243649976
11
-30.7035532606
21
-4.1932399976
0
LINE
5
457
100
AcDbEntity
8
INC_LASER
100
AcDbLine
62
9
6
CONTINUOUS
10
-28.3737512606
20
-4.3612299976
11
-27.8034232606
21
-4.5443429976
0
LINE
5
458
100
AcDbEntity
8
INC_LASER
100
AcDbLine
62
9
6
CONTINUOUS
10
-29.8003122606
20
-3.9032179976
11
-28.9247732606
21
-4.1843079976
0
LINE
5
459
100
AcDbEntity
8
0
100
AcDbLine
62
7
6
CONTINUOUS
10
-31.8034082606
20
-16.0397398393
11
-31.8034082606
21
-14.6996943074
0
LINE
5
45A
100
AcDbEntity
8
0
100
AcDbLine
62
7
6
CONTINUOUS
10
-31.8034082606
20
30.0259583122
11
-31.8034082606
21
31.3660038534
0
LINE
5
45B
100
AcDbEntity
8
0
100
AcDbLine
62
9
6
CONTINUOUS
10
-25.3965401783
20
32.2329155112
11
-25.2729333806
21
32.6133381177
0
LINE
5
45C
100
AcDbEntity
8
INC_LASER
100
AcDbLine
62
9
6
CONTINUOUS
10
-27.8034082606
20
19.0702748636
11
-28.0748368442
21
18.7988462942
0
LINE
5
45D
100
AcDbEntity
8
INC_LASER
100
AcDbLine
62
9
6
CONTINUOUS
10
-28.0748368442
20
18.7988462942
11
-28.3462654277
21
18.6631320024
0
LINE
5
45E
100
AcDbEntity
8
INC_LASER
100
AcDbLine
62
9
6
CONTINUOUS
10
-25.3034082606
20
-6.1463918662
11
-26.6034082606
21
-6.1463918662
0
LINE
5
45F
100
AcDbEntity
8
INC_LASER
100
AcDbLine
62
9
6
CONTINUOUS
10
-27.8034152606
20
-6.0910649976
11
-29.7158572606
21
-6.0910729976
0
LINE
5
460
100
AcDbEntity
8
DEFAULT_3
100
AcDbLine
62
8
6
PHANTOM
10
-36.8034082606
20
-5.6868679976
11
-36.3034082606
21
-5.6868679976
0
LINE
5
461
100
AcDbEntity
8
INC_LASER
100
AcDbLine
62
9
6
CONTINUOUS
10
-30.7035462606
20
-5.5110439976
11
-27.8034152606
21
-5.5110439976
0
LINE
5
462
100
AcDbEntity
8
INC_LASER
100
AcDbLine
62
9
6
CONTINUOUS
10
-25.3034082606
20
-5.4963918662
11
-26.6034082606
21
-5.4963918662
0
LINE
5
463
100
AcDbEntity
8
DEFAULT_3
100
AcDbLine
62
9
6
PHANTOM
10
-37.3034082606
20
-4.4868679976
11
-36.3034082606
21
-4.4868679976
0
LINE
5
464
100
AcDbEntity
8
0
100
AcDbLine
62
9
6
CONTINUOUS
10
-25.3965401783
20
-16.9066515064
11
-25.2729333806
21
-17.2870741129
0
LINE
5
465
100
AcDbEntity
8
0
100
AcDbLine
62
9
6
CONTINUOUS
10
-30.8991465789
20
31.3705993976
11
-30.8991465789
21
29.7854458443
0
LINE
5
466
100
AcDbEntity
8
0
100
AcDbLine
62
9
6
CONTINUOUS
10
-30.8991465789
20
-14.4591818395
11
-30.8991465789
21
-16.0443353928
0
LINE
5
467
100
AcDbEntity
8
INC_LASER
100
AcDbLine
62
9
6
CONTINUOUS
10
-30.7035532606
20
-4.1932399976
11
-30.7035532606
21
-3.6131889976
0
LINE
5
468
100
AcDbEntity
8
INC_LASER
100
AcDbLine
62
9
6
CONTINUOUS
10
-30.7035532606
20
-2.2953709976
11
-30.7035532606
21
-0.9371569976
0
LINE
5
469
100
AcDbEntity
8
INC_LASER
100
AcDbLine
62
9
6
CONTINUOUS
10
-30.7035462606
20
-12.3368679976
11
-30.7035462606
21
-11.7568389976
0
LINE
5
46A
100
AcDbEntity
8
INC_LASER
100
AcDbLine
62
9
6
CONTINUOUS
10
-30.7035462606
20
-10.4745819976
11
-30.7035462606
21
-9.8945529976
0
LINE
5
46B
100
AcDbEntity
8
INC_LASER
100
AcDbLine
62
9
6
CONTINUOUS
10
-30.7035462606
20
-9.5078739976
11
-30.7035462606
21
-8.9278529976
0
LINE
5
46C
100
AcDbEntity
8
INC_LASER
100
AcDbLine
62
9
6
CONTINUOUS
10
-30.7035462606
20
-8.3478529976
11
-30.7035462606
21
-7.4710159976
0
LINE
5
46D
100
AcDbEntity
8
INC_LASER
100
AcDbLine
62
9
6
CONTINUOUS
10
-30.7035462606
20
-6.3878799976
11
-30.7035462606
21
-5.5110439976
0
LINE
5
46E
100
AcDbEntity
8
INC_LASER
100
AcDbLine
62
9
6
CONTINUOUS
10
-30.1670312606
20
-1.0176629976
11
-30.1670312606
21
-1.7233459976
0
LINE
5
46F
100
AcDbEntity
8
INC_LASER
100
AcDbLine
62
9
6
CONTINUOUS
10
-29.7034082606
20
23.9559893394
11
-29.7034082606
21
23.1417035604
0
LINE
5
470
100
AcDbEntity
8
INC_LASER
100
AcDbLine
62
9
6
CONTINUOUS
10
-29.7034082606
20
19.0702748636
11
-29.7034082606
21
19.2059891695
0
LINE
5
471
100
AcDbEntity
8
INC_LASER
100
AcDbLine
62
9
6
CONTINUOUS
10
-29.7034082606
20
20.4274176681
11
-29.7034082606
21
20.8345606709
0
LINE
5
472
100
AcDbEntity
8
INC_LASER
100
AcDbLine
62
9
6
CONTINUOUS
10
-29.7034082606
20
24.7702746654
11
-29.7034082606
21
25.1774177814
0
LINE
5
473
100
AcDbEntity
8
INC_LASER
100
AcDbLine
62
9
6
CONTINUOUS
10
-26.6034082606
20
-3.8559157347
11
-25.3034082606
21
-3.8559157347
0
LINE
5
474
100
AcDbEntity
8
DEFAULT_3
100
AcDbLine
62
8
6
PHANTOM
10
-36.6034082606
20
-3.4868679976
11
-36.3034082606
21
-3.4868679976
0
LINE
5
475
100
AcDbEntity
8
INC_LASER
100
AcDbLine
62
9
6
CONTINUOUS
10
-26.6034082606
20
-2.8963918662
11
-25.3034082606
21
-2.8963918662
0
LINE
5
476
100
AcDbEntity
8
0
100
AcDbLine
62
7
6
CONTINUOUS
10
-8.0034082606
20
-2.5868679976
11
-14.8034082606
21
-2.5868679976
0
LINE
5
477
100
AcDbEntity
8
0
100
AcDbLine
62
7
6
CONTINUOUS
10
-15.6034082606
20
-2.5868679976
11
-22.4034082606
21
-2.5868679976
0
LINE
5
478
100
AcDbEntity
8
INC_LASER
100
AcDbLine
62
9
6
CONTINUOUS
10
-27.8034232606
20
-2.2953709976
11
-30.7035532606
21
-2.2953709976
0
LINE
5
479
100
AcDbEntity
8
0
100
AcDbLine
62
9
6
CONTINUOUS
10
-22.7034082606
20
-2.2868679976
11
-15.3034082606
21
-2.2868679976
0
LINE
5
47A
100
AcDbEntity
8
0
100
AcDbLine
62
9
6
CONTINUOUS
10
-15.1034082606
20
-2.2868679976
11
-7.7034082606
21
-2.2868679976
0
LINE
5
47B
100
AcDbEntity
8
INC_LASER
100
AcDbLine
62
9
6
CONTINUOUS
10
-25.3034082606
20
-2.1535344576
11
-26.6034082606
21
-1.7821066832
0
LINE
5
47C
100
AcDbEntity
8
INC_LASER
100
AcDbLine
62
9
6
CONTINUOUS
10
-29.4613022606
20
-1.7233389976
11
-29.4613022606
21
-1.0176629976
0
LINE
5
47D
100
AcDbEntity
8
INC_LASER
100
AcDbLine
62
9
6
CONTINUOUS
10
-28.9247732606
20
-4.1843079976
11
-28.9247732606
21
-3.6221139976
0
LINE
5
47E
100
AcDbEntity
8
INC_LASER
100
AcDbLine
62
9
6
CONTINUOUS
10
-28.9247732606
20
-1.2090459976
11
-28.9247802606
21
-1.7152769976
0
LINE
5
47F
100
AcDbEntity
8
INC_LASER
100
AcDbLine
62
9
6
CONTINUOUS
10
-28.8891225949
20
20.8345606709
11
-28.8891225949
21
20.4274176681
0
LINE
5
480
100
AcDbEntity
8
INC_LASER
100
AcDbLine
62
9
6
CONTINUOUS
10
-28.8891225949
20
23.1417035604
11
-28.8891225949
21
23.6845604444
0
LINE
5
481
100
AcDbEntity
8
INC_LASER
100
AcDbLine
62
9
6
CONTINUOUS
10
-28.6176939830
20
25.3583699251
11
-28.6176939830
21
24.7702746654
0
LINE
5
482
100
AcDbEntity
8
INC_LASER
100
AcDbLine
62
9
6
CONTINUOUS
10
-28.3737512606
20
-3.4451849976
11
-28.3737512606
21
-4.3612299976
0
LINE
5
483
100
AcDbEntity
8
INC_LASER
100
AcDbLine
62
9
6
CONTINUOUS
10
-28.2105511218
20
22.5988462234
11
-28.2105511218
21
21.6488462234
0
LINE
5
484
100
AcDbEntity
8
INC_LASER
100
AcDbLine
62
9
6
CONTINUOUS
10
-27.8034152606
20
-10.8256919976
11
-27.8034082606
21
-11.4057359976
0
LINE
5
485
100
AcDbEntity
8
INC_LASER
100
AcDbLine
62
9
6
CONTINUOUS
10
-27.8034232606
20
-6.6394479976
11
-27.8034152606
21
-7.2194549976
0
LINE
5
486
100
AcDbEntity
8
INC_LASER
100
AcDbLine
62
9
6
CONTINUOUS
10
-27.8034152606
20
-8.9278599976
11
-27.8034082606
21
-9.5078819976
0
LINE
5
487
100
AcDbEntity
8
INC_LASER
100
AcDbLine
62
9
6
CONTINUOUS
10
-27.8034232606
20
-4.5443429976
11
-27.8034152606
21
-5.1243649976
0
LINE
5
488
100
AcDbEntity
8
INC_LASER
100
AcDbLine
62
9
6
CONTINUOUS
10
-27.8034302606
20
0.0255130024
11
-27.8034232606
21
-0.6277919976
0
LINE
5
489
100
AcDbEntity
8
INC_LASER
100
AcDbLine
62
9
6
CONTINUOUS
10
-27.8034232606
20
-1.7153419976
11
-27.8034232606
21
-2.2953709976
0
LINE
5
48A
100
AcDbEntity
8
INC_LASER
100
AcDbLine
62
9
6
CONTINUOUS
10
-27.8034152606
20
-5.5110439976
11
-27.8034152606
21
-6.0910649976
0
LINE
5
48B
100
AcDbEntity
8
INC_LASER
100
AcDbLine
62
9
6
CONTINUOUS
10
-27.8034152606
20
-7.7678309976
11
-27.8034152606
21
-8.3478529976
0
LINE
5
48C
100
AcDbEntity
8
INC_LASER
100
AcDbLine
62
9
6
CONTINUOUS
10
-27.8034082606
20
23.6845604444
11
-27.8034082606
21
23.1417035604
0
LINE
5
48D
100
AcDbEntity
8
INC_LASER
100
AcDbLine
62
9
6
CONTINUOUS
10
-27.8034082606
20
20.8345606709
11
-27.8034082606
21
20.4274176681
0
LINE
5
48E
100
AcDbEntity
8
INC_LASER
100
AcDbLine
62
9
6
CONTINUOUS
10
-27.8034082606
20
19.2059891695
11
-27.8034082606
21
19.0702748636
0
LINE
5
48F
100
AcDbEntity
8
INC_LASER
100
AcDbLine
62
9
6
CONTINUOUS
10
-27.8034152606
20
-2.6820499976
11
-27.8034232606
21
-3.2620789976
0
LINE
5
490
100
AcDbEntity
8
0
100
AcDbLine
62
7
6
CONTINUOUS
10
-24.7512266267
20
-1.8491439375
11
-24.8034082606
21
-1.8495993197
0
LINE
5
491
100
AcDbEntity
8
INC_LASER
100
AcDbLine
62
9
6
CONTINUOUS
10
-30.1670312606
20
-1.7233459976
11
-29.4613022606
21
-1.7233389976
0
LINE
5
492
100
AcDbEntity
8
0
100
AcDbLine
62
9
6
CONTINUOUS
10
-24.5034082606
20
-1.5443765621
11
-24.7520992697
21
-1.5443765654
0
LINE
5
493
100
AcDbEntity
8
INC_LASER
100
AcDbLine
62
9
6
CONTINUOUS
10
-25.3034082606
20
-1.0392486548
11
-26.6034082606
21
-1.0392486548
0
LINE
5
494
100
AcDbEntity
8
0
100
AcDbLine
62
7
6
CONTINUOUS
10
-7.6034082606
20
-0.8868679976
11
-7.7034082606
21
-0.8868679976
0
LINE
5
495
100
AcDbEntity
8
0
100
AcDbLine
62
7
6
CONTINUOUS
10
-15.1034082606
20
-0.8868679976
11
-15.3034082606
21
-0.8868679976
0
LINE
5
496
100
AcDbEntity
8
0
100
AcDbLine
62
7
6
CONTINUOUS
10
-22.7034082606
20
-0.8868679976
11
-22.8034082606
21
-0.8868679976
0
LINE
5
497
100
AcDbEntity
8
INC_LASER
100
AcDbLine
62
9
6
CONTINUOUS
10
-28.9247802606
20
-1.7152769976
11
-27.8034232606
21
-1.7153419976
0
LINE
5
498
100
AcDbEntity
8
0
100
AcDbLine
62
9
6
CONTINUOUS
10
-24.7520992697
20
-1.5443765621
11
-24.8034082606
21
-1.5438282142
0
LINE
5
499
100
AcDbEntity
8
INC_LASER
100
AcDbLine
62
9
6
CONTINUOUS
10
-26.6034082606
20
0.5393229509
11
-26.0462654367
21
0.1678933168
0
LINE
5
49A
100
AcDbEntity
8
0
100
AcDbLine
62
7
6
CONTINUOUS
10
-26.7034082606
20
-16.3236032798
11
-26.7034082606
21
-16.6213345515
0
LINE
5
49B
100
AcDbEntity
8
0
100
AcDbLine
62
7
6
CONTINUOUS
10
-26.7034082606
20
31.6498672846
11
-26.7034082606
21
31.9475985563
0
LINE
5
49C
100
AcDbEntity
8
INC_LASER
100
AcDbLine
62
9
6
CONTINUOUS
10
-26.6034082606
20
-10.1082965469
11
-26.6034082606
21
-9.6440108990
0
LINE
5
49D
100
AcDbEntity
8
INC_LASER
100
AcDbLine
62
9
6
CONTINUOUS
10
-26.6034082606
20
-8.9321060633
11
-26.6034082606
21
-8.3749631619
0
LINE
5
49E
100
AcDbEntity
8
INC_LASER
100
AcDbLine
62
9
6
CONTINUOUS
10
-26.6034082606
20
-2.5249634719
11
-26.6034082606
21
-3.2678202605
0
LINE
5
49F
100
AcDbEntity
8
0
100
AcDbLine
62
3
6
CONTINUOUS
10
-26.3034082606
20
-16.3263958520
11
-26.3034082606
21
-16.6213345515
0
LINE
5
4A0
100
AcDbEntity
8
0
100
AcDbLine
62
3
6
CONTINUOUS
10
-26.3034082606
20
31.6526598567
11
-26.3034082606
21
31.9475985563
0
LINE
5
4A1
100
AcDbEntity
8
INC_LASER
100
AcDbLine
62
9
6
CONTINUOUS
10
-26.0462654367
20
-8.9321060633
11
-26.0462654367
21
-8.5606776690
0
LINE
5
4A2
100
AcDbEntity
8
0
100
AcDbLine
62
9
6
CONTINUOUS
10
-26.0034082606
20
-16.9213345515
11
-26.0034082606
21
-17.3213345515
0
LINE
5
4A3
100
AcDbEntity
8
0
100
AcDbLine
62
9
6
CONTINUOUS
10
-26.0034082606
20
32.2475985563
11
-26.0034082606
21
32.6475985563
0
LINE
5
4A4
100
AcDbEntity
8
INC_LASER
100
AcDbLine
62
9
6
CONTINUOUS
10
-25.6748368486
20
-1.5344873404
11
-25.6748368486
21
-2.0297254061
0
LINE
5
4A5
100
AcDbEntity
8
INC_LASER
100
AcDbLine
62
9
6
CONTINUOUS
10
-25.6748368486
20
-10.6035346126
11
-25.6748368486
21
-11.0987727558
0
LINE
5
4A6
100
AcDbEntity
8
0
100
AcDbLine
62
7
6
CONTINUOUS
10
-24.8034082606
20
0.1154923584
11
-24.7534082606
21
0.1157541602
0
LINE
5
4A7
100
AcDbEntity
8
0
100
AcDbLine
62
7
6
CONTINUOUS
10
-7.6034082606
20
-0.1868679976
11
-7.7034082606
21
-0.1868679976
0
LINE
5
4A8
100
AcDbEntity
8
0
100
AcDbLine
62
7
6
CONTINUOUS
10
-15.1034082606
20
-0.1868679976
11
-15.3034082606
21
-0.1868679976
0
LINE
5
4A9
100
AcDbEntity
8
0
100
AcDbLine
62
7
6
CONTINUOUS
10
-22.7034082606
20
-0.1868679976
11
-22.8034082606
21
-0.1868679976
0
LINE
5
4AA
100
AcDbEntity
8
INC_LASER
100
AcDbLine
62
9
6
CONTINUOUS
10
-26.0462654367
20
0.1678933168
11
-25.3034082606
21
0.1678933168
0
LINE
5
4AB
100
AcDbEntity
8
0
100
AcDbLine
62
7
6
CONTINUOUS
10
-24.5034082606
20
1.0131320024
11
-23.0034082606
21
1.0131320024
0
LINE
5
4AC
100
AcDbEntity
8
0
100
AcDbLine
62
7
6
CONTINUOUS
10
-24.8034082606
20
1.0631320024
11
-24.7534082606
21
1.0631320024
0
LINE
5
4AD
100
AcDbEntity
8
0
100
AcDbLine
62
9
6
CONTINUOUS
10
-25.4892452766
20
-16.9213345515
11
-25.4892452766
21
-17.3213345515
0
LINE
5
4AE
100
AcDbEntity
8
0
100
AcDbLine
62
9
6
CONTINUOUS
10
-25.4892452766
20
32.2475985563
11
-25.4892452766
21
32.6475985563
0
LINE
5
4AF
100
AcDbEntity
8
INC_LASER
100
AcDbLine
62
9
6
CONTINUOUS
10
-25.3034082606
20
-0.5749634719
11
-25.3034082606
21
-1.0392486548
0
LINE
5
4B0
100
AcDbEntity
8
INC_LASER
100
AcDbLine
62
9
6
CONTINUOUS
10
-25.3034082606
20
-8.3749631619
11
-25.3034082606
21
-8.9321060633
0
LINE
5
4B1
100
AcDbEntity
8
INC_LASER
100
AcDbLine
62
9
6
CONTINUOUS
10
-25.3034082606
20
-9.6440108990
11
-25.3034082606
21
-10.1082965469
0
LINE
5
4B2
100
AcDbEntity
8
0
100
AcDbLine
62
7
6
CONTINUOUS
10
-24.8034082606
20
-16.0868923658
11
-24.8034082606
21
31.4131563706
0
LINE
5
4B3
100
AcDbEntity
8
0
100
AcDbLine
62
9
6
CONTINUOUS
10
-24.7534082606
20
21.0754269811
11
-24.7534082606
21
20.2157541602
0
LINE
5
4B4
100
AcDbEntity
8
0
100
AcDbLine
62
9
6
CONTINUOUS
10
-24.7534082606
20
17.0754269811
11
-24.7534082606
21
16.2508370237
0
LINE
5
4B5
100
AcDbEntity
8
0
100
AcDbLine
62
9
6
CONTINUOUS
10
-24.7534082606
20
10.0254269811
11
-24.7534082606
21
9.2008370237
0
LINE
5
4B6
100
AcDbEntity
8
0
100
AcDbLine
62
9
6
CONTINUOUS
10
-24.7534082606
20
1.0631320024
11
-24.7534082606
21
0.1157541602
0
LINE
5
4B7
100
AcDbEntity
8
0
100
AcDbLine
62
9
6
CONTINUOUS
10
-24.7520992697
20
0.1157610142
11
-24.7520992697
21
-1.5443765621
0
LINE
5
4B8
100
AcDbEntity
8
0
100
AcDbLine
62
9
6
CONTINUOUS
10
-24.7512266267
20
22.6706591725
11
-24.7512266267
21
21.0754079423
0
LINE
5
4B9
100
AcDbEntity
8
0
100
AcDbLine
62
9
6
CONTINUOUS
10
-24.7512266267
20
2.7254174615
11
-24.7512266267
21
1.0631320024
0
LINE
5
4BA
100
AcDbEntity
8
0
100
AcDbLine
62
7
6
CONTINUOUS
10
-24.5034082606
20
22.7254174615
11
-24.5034082606
21
20.4657575872
0
LINE
5
4BB
100
AcDbEntity
8
0
100
AcDbLine
62
7
6
CONTINUOUS
10
-24.5034082606
20
9.7754174615
11
-24.5034082606
21
9.4508465433
0
LINE
5
4BC
100
AcDbEntity
8
0
100
AcDbLine
62
7
6
CONTINUOUS
10
-24.5034082606
20
-1.5991534567
11
-24.5034082606
21
2.7254174615
0
LINE
5
4BD
100
AcDbEntity
8
0
100
AcDbLine
62
7
6
CONTINUOUS
10
-24.5034082606
20
15.6131320024
11
-24.5034082606
21
17.1131320024
0
LINE
5
4BE
100
AcDbEntity
8
0
100
AcDbLine
62
7
6
CONTINUOUS
10
-24.0034082606
20
15.6131320024
11
-24.0034082606
21
2.5131320024
0
LINE
5
4BF
100
AcDbEntity
8
0
100
AcDbLine
62
7
6
CONTINUOUS
10
-24.5034082606
20
2.5131320024
11
-24.0034082606
21
2.5131320024
0
LINE
5
4C0
100
AcDbEntity
8
0
100
AcDbLine
62
9
6
CONTINUOUS
10
-24.5034082606
20
2.7254174615
11
-24.7512266267
21
2.7254174615
0
LINE
5
4C1
100
AcDbEntity
8
0
100
AcDbLine
62
9
6
CONTINUOUS
10
-24.7512266267
20
2.7254174615
11
-24.8034082606
21
2.7258728437
0
LINE
5
4C2
100
AcDbEntity
8
0
100
AcDbLine
62
7
6
CONTINUOUS
10
-24.7512266267
20
2.9754079423
11
-24.8034082606
21
2.9758633245
0
LINE
5
4C3
100
AcDbEntity
8
0
100
AcDbLine
62
7
6
CONTINUOUS
10
-23.0034082606
20
15.7131320024
11
-23.0034082606
21
1.0131320024
0
LINE
5
4C4
100
AcDbEntity
8
0
100
AcDbLine
62
7
6
CONTINUOUS
10
-22.8034082606
20
-0.8868679976
11
-22.8034082606
21
15.7131320024
0
LINE
5
4C5
100
AcDbEntity
8
0
100
AcDbLine
62
7
6
CONTINUOUS
10
-22.7034082606
20
-2.2868679976
11
-22.7034082606
21
4.3131320024
0
LINE
5
4C6
100
AcDbEntity
8
0
100
AcDbLine
62
9
6
CONTINUOUS
10
-22.4034082606
20
-2.5868679976
11
-22.4034082606
21
4.6131320024
0
LINE
5
4C7
100
AcDbEntity
8
0
100
AcDbLine
62
7
6
CONTINUOUS
10
-10.2284082606
20
4.6131320024
11
-12.5784082606
21
4.6131320024
0
LINE
5
4C8
100
AcDbEntity
8
0
100
AcDbLine
62
7
6
CONTINUOUS
10
-17.8284082606
20
4.6131320024
11
-20.1784082606
21
4.6131320024
0
LINE
5
4C9
100
AcDbEntity
8
0
100
AcDbLine
62
7
6
CONTINUOUS
10
-22.6862509731
20
4.6131320024
11
-21.6784082606
21
4.6131320024
0
LINE
5
4CA
100
AcDbEntity
8
0
100
AcDbLine
62
7
6
CONTINUOUS
10
-20.9534082606
20
4.6131320024
11
-20.2534082606
21
4.6131320024
0
LINE
5
4CB
100
AcDbEntity
8
0
100
AcDbLine
62
7
6
CONTINUOUS
10
-17.3534082606
20
4.6131320024
11
-16.6534082606
21
4.6131320024
0
LINE
5
4CC
100
AcDbEntity
8
0
100
AcDbLine
62
7
6
CONTINUOUS
10
-16.3284082606
20
4.6131320024
11
-15.3205655481
21
4.6131320024
0
LINE
5
4CD
100
AcDbEntity
8
0
100
AcDbLine
62
7
6
CONTINUOUS
10
-15.0862509731
20
4.6131320024
11
-14.0784082606
21
4.6131320024
0
LINE
5
4CE
100
AcDbEntity
8
0
100
AcDbLine
62
7
6
CONTINUOUS
10
-13.7534082606
20
4.6131320024
11
-13.0534082606
21
4.6131320024
0
LINE
5
4CF
100
AcDbEntity
8
0
100
AcDbLine
62
7
6
CONTINUOUS
10
-10.1534082606
20
4.6131320024
11
-9.4534082606
21
4.6131320024
0
LINE
5
4D0
100
AcDbEntity
8
0
100
AcDbLine
62
7
6
CONTINUOUS
10
-8.7284082606
20
4.6131320024
11
-7.7205655481
21
4.6131320024
0
LINE
5
4D1
100
AcDbEntity
8
0
100
AcDbLine
62
7
6
CONTINUOUS
10
-7.6034082606
20
4.7131320024
11
-22.8034082606
21
4.7131320024
0
LINE
5
4D2
100
AcDbEntity
8
0
100
AcDbLine
62
7
6
CONTINUOUS
10
-21.6784082606
20
4.6131320024
11
-21.4200012286
21
3.2218283670
0
LINE
5
4D3
100
AcDbEntity
8
0
100
AcDbLine
62
7
6
CONTINUOUS
10
-20.9534082606
20
2.8139398605
11
-20.9534082606
21
4.6131320024
0
LINE
5
4D4
100
AcDbEntity
8
0
100
AcDbLine
62
7
6
CONTINUOUS
10
-20.7834082606
20
4.6131320024
11
-20.7834082606
21
2.8346618489
0
LINE
5
4D5
100
AcDbEntity
8
0
100
AcDbLine
62
7
6
CONTINUOUS
10
-20.6434082606
20
4.6131320024
11
-20.6434082606
21
2.9027542607
0
LINE
5
4D6
100
AcDbEntity
8
0
100
AcDbLine
62
7
6
CONTINUOUS
10
-20.2534082606
20
4.2093203420
11
-20.2534082606
21
4.6131320024
0
LINE
5
4D7
100
AcDbEntity
8
0
100
AcDbLine
62
7
6
CONTINUOUS
10
-20.4368152926
20
3.2218283670
11
-20.1784082606
21
4.6131320024
0
LINE
5
4D8
100
AcDbEntity
8
0
100
AcDbLine
62
7
6
CONTINUOUS
10
-18.5176034136
20
19.0131320024
11
-18.5176034136
21
17.1131320024
0
LINE
5
4D9
100
AcDbEntity
8
CURVE
100
AcDbLine
62
4
6
CONTINUOUS
10
-17.9169144228
20
12.1215904022
11
-17.9169144228
21
12.0260924364
0
LINE
5
4DA
100
AcDbEntity
8
0
100
AcDbLine
62
7
6
CONTINUOUS
10
-24.8034082606
20
9.2004006803
11
-24.7512266267
21
9.2008560625
0
LINE
5
4DB
100
AcDbEntity
8
0
100
AcDbLine
62
7
6
CONTINUOUS
10
-7.6034082606
20
8.3131320024
11
-22.8034082606
21
8.3131320024
0
LINE
5
4DC
100
AcDbEntity
8
0
100
AcDbLine
62
7
6
CONTINUOUS
10
-2.2034082606
20
8.4131320024
11
-7.6034082606
21
8.4131320024
0
LINE
5
4DD
100
AcDbEntity
8
0
100
AcDbLine
62
7
6
CONTINUOUS
10
-22.8034082606
20
8.4131320024
11
-23.0034082606
21
8.4131320024
0
LINE
5
4DE
100
AcDbEntity
8
0
100
AcDbLine
62
7
6
CONTINUOUS
10
-7.6034082606
20
8.8131320024
11
-22.8034082606
21
8.8131320024
0
LINE
5
4DF
100
AcDbEntity
8
0
100
AcDbLine
62
7
6
CONTINUOUS
10
-7.6034082606
20
9.3131320024
11
-22.8034082606
21
9.3131320024
0
LINE
5
4E0
100
AcDbEntity
8
INC_LASER
100
AcDbLine
62
9
6
CONTINUOUS
10
-29.4319797054
20
18.7988462942
11
-29.7034082606
21
19.0702748636
0
LINE
5
4E1
100
AcDbEntity
8
INC_LASER
100
AcDbLine
62
9
6
CONTINUOUS
10
-29.0248368159
20
21.0155130411
11
-28.8891225949
21
20.8345606709
0
LINE
5
4E2
100
AcDbEntity
8
0
100
AcDbLine
62
7
6
CONTINUOUS
10
-17.8284082606
20
4.6131320024
11
-17.5700012286
21
3.2218283670
0
LINE
5
4E3
100
AcDbEntity
8
0
100
AcDbLine
62
7
6
CONTINUOUS
10
-16.5771713167
20
20.2408670122
11
-16.4034082606
21
17.1131320024
0
LINE
5
4E4
100
AcDbEntity
8
0
100
AcDbLine
62
7
6
CONTINUOUS
10
-17.3534082606
20
2.8960919143
11
-17.3534082606
21
4.6131320024
0
LINE
5
4E5
100
AcDbEntity
8
CURVE
100
AcDbLine
62
4
6
CONTINUOUS
10
-17.2695746988
20
12.0260924364
11
-17.2695746988
21
12.1441006327
0
LINE
5
4E6
100
AcDbEntity
8
0
100
AcDbLine
62
7
6
CONTINUOUS
10
-17.1834082606
20
4.6131320024
11
-17.1834082606
21
2.8243539267
0
LINE
5
4E7
100
AcDbEntity
8
0
100
AcDbLine
62
7
6
CONTINUOUS
10
-17.0434082606
20
4.6131320024
11
-17.0434082606
21
2.8131320024
0
LINE
5
4E8
100
AcDbEntity
8
0
100
AcDbLine
62
7
6
CONTINUOUS
10
-16.6534082606
20
3.0506233319
11
-16.6534082606
21
4.6131320024
0
LINE
5
4E9
100
AcDbEntity
8
0
100
AcDbLine
62
7
6
CONTINUOUS
10
-15.8034082606
20
-11.6863526741
11
-15.8034082606
21
-16.2734810980
0
LINE
5
4EA
100
AcDbEntity
8
0
100
AcDbLine
62
7
6
CONTINUOUS
10
-15.8034082606
20
27.0126166789
11
-15.8034082606
21
31.6002991285
0
LINE
5
4EB
100
AcDbEntity
8
0
100
AcDbLine
62
9
6
CONTINUOUS
10
-15.6034082606
20
-2.5868679976
11
-15.6034082606
21
4.6131320024
0
LINE
5
4EC
100
AcDbEntity
8
0
100
AcDbLine
62
7
6
CONTINUOUS
10
-16.5868152926
20
3.2218283670
11
-16.3284082606
21
4.6131320024
0
LINE
5
4ED
100
AcDbEntity
8
CURVE
100
AcDbLine
62
4
6
CONTINUOUS
10
-14.9418802961
20
11.1131320024
11
-15.0517029419
21
10.8102670634
0
LINE
5
4EE
100
AcDbEntity
8
CURVE
100
AcDbLine
62
4
6
CONTINUOUS
10
-15.0899021282
20
10.7024908090
11
-15.1997247591
21
10.4091756368
0
LINE
5
4EF
100
AcDbEntity
8
CURVE
100
AcDbLine
62
4
6
CONTINUOUS
10
-15.1854000643
20
10.1131320024
11
-14.8013618760
21
11.1131320024
0
LINE
5
4F0
100
AcDbEntity
8
CURVE
100
AcDbLine
62
4
6
CONTINUOUS
10
-12.6418802961
20
12.6611538196
11
-12.9549771621
21
12.2102670932
0
LINE
5
4F1
100
AcDbEntity
8
CURVE
100
AcDbLine
62
4
6
CONTINUOUS
10
-12.9774873927
20
12.0131320024
11
-12.5211435947
21
12.6611538196
0
LINE
5
4F2
100
AcDbEntity
8
INC_LASER
100
AcDbLine
62
9
6
CONTINUOUS
10
-26.6034082606
20
-0.2035350775
11
-26.0462654367
21
0.1678933168
0
LINE
5
4F3
100
AcDbEntity
8
INC_LASER
100
AcDbLine
62
9
6
CONTINUOUS
10
-28.9945275937
20
-0.5918912069
11
-27.8034302606
21
0.0255130024
0
LINE
5
4F4
100
AcDbEntity
8
INC_LASER
100
AcDbLine
62
9
6
CONTINUOUS
10
-27.8034232606
20
-0.6277919976
11
-28.9247732606
21
-1.2090459976
0
LINE
5
4F5
100
AcDbEntity
8
CURVE
100
AcDbLine
62
4
6
CONTINUOUS
10
-9.4903113946
20
12.7402807141
11
-9.3613891594
21
12.7511947716
0
LINE
5
4F6
100
AcDbEntity
8
CURVE
100
AcDbLine
62
4
6
CONTINUOUS
10
-15.3279648974
20
10.1131320024
11
-15.1854000643
21
10.1131320024
0
LINE
5
4F7
100
AcDbEntity
8
CURVE
100
AcDbLine
62
4
6
CONTINUOUS
10
-15.4289198473
20
10.7024908090
11
-15.0899021282
21
10.7024908090
0
LINE
5
4F8
100
AcDbEntity
8
CURVE
100
AcDbLine
62
4
6
CONTINUOUS
10
-15.0517029419
20
10.8102670634
11
-15.4698475554
21
10.8102670634
0
LINE
5
4F9
100
AcDbEntity
8
0
100
AcDbLine
62
7
6
CONTINUOUS
10
-5.9034082606
20
10.8131320024
11
-2.2034082606
21
10.8131320024
0
LINE
5
4FA
100
AcDbEntity
8
CURVE
100
AcDbLine
62
4
6
CONTINUOUS
10
-14.8013618760
20
11.1131320024
11
-14.9418802961
21
11.1131320024
0
LINE
5
4FB
100
AcDbEntity
8
CURVE
100
AcDbLine
62
4
6
CONTINUOUS
10
-15.5864914611
20
11.1131320024
11
-15.7372418001
21
11.1131320024
0
LINE
5
4FC
100
AcDbEntity
8
0
100
AcDbLine
62
7
6
CONTINUOUS
10
-24.8034082606
20
10.0258633245
11
-24.7534082606
21
10.0254269811
0
LINE
5
4FD
100
AcDbEntity
8
INC_LASER
100
AcDbLine
62
9
6
CONTINUOUS
10
-28.0748368442
20
19.4774177248
11
-27.8034082606
21
19.2059891695
0
LINE
5
4FE
100
AcDbEntity
8
INC_LASER
100
AcDbLine
62
9
6
CONTINUOUS
10
-28.8891225949
20
20.4274176681
11
-28.6176939830
21
20.1559891129
0
LINE
5
4FF
100
AcDbEntity
8
INC_LASER
100
AcDbLine
62
9
6
CONTINUOUS
10
-28.0748368442
20
21.1059891129
11
-27.8034082606
21
20.8345606709
0
LINE
5
500
100
AcDbEntity
8
0
100
AcDbLine
62
7
6
CONTINUOUS
10
-15.3034082606
20
-2.2868679976
11
-15.3034082606
21
4.3131320024
0
LINE
5
501
100
AcDbEntity
8
0
100
AcDbLine
62
7
6
CONTINUOUS
10
-15.1034082606
20
-2.2868679976
11
-15.1034082606
21
4.3131320024
0
LINE
5
502
100
AcDbEntity
8
CURVE
100
AcDbLine
62
4
6
CONTINUOUS
10
-15.0380603775
20
14.7951238135
11
-15.0380603775
21
14.4513311887
0
LINE
5
503
100
AcDbEntity
8
CURVE
100
AcDbLine
62
4
6
CONTINUOUS
10
-15.0380603775
20
14.3333229924
11
-15.0380603775
21
14.0311401987
0
LINE
5
504
100
AcDbEntity
8
CURVE
100
AcDbLine
62
4
6
CONTINUOUS
10
-14.9057274937
20
13.9131320024
11
-14.9057274937
21
14.9131320024
0
LINE
5
505
100
AcDbEntity
8
0
100
AcDbLine
62
9
6
CONTINUOUS
10
-14.8034082606
20
-2.5868679976
11
-14.8034082606
21
4.6131320024
0
LINE
5
506
100
AcDbEntity
8
0
100
AcDbLine
62
7
6
CONTINUOUS
10
-13.7534082606
20
3.0506233319
11
-13.7534082606
21
4.6131320024
0
LINE
5
507
100
AcDbEntity
8
0
100
AcDbLine
62
7
6
CONTINUOUS
10
-13.5834082606
20
4.6131320024
11
-13.5834082606
21
2.8833263693
0
LINE
5
508
100
AcDbEntity
8
0
100
AcDbLine
62
7
6
CONTINUOUS
10
-13.4434082606
20
4.6131320024
11
-13.4434082606
21
2.8269309073
0
LINE
5
509
100
AcDbEntity
8
CURVE
100
AcDbLine
62
4
6
CONTINUOUS
10
-13.0777602270
20
12.0131320024
11
-12.9774873927
21
12.0131320024
0
LINE
5
50A
100
AcDbEntity
8
CURVE
100
AcDbLine
62
4
6
CONTINUOUS
10
-17.9169144228
20
12.0260924364
11
-17.2695746988
21
12.0260924364
0
LINE
5
50B
100
AcDbEntity
8
CURVE
100
AcDbLine
62
4
6
CONTINUOUS
10
-9.9773509457
20
12.0267745519
11
-9.4800794676
21
12.0267745519
0
LINE
5
50C
100
AcDbEntity
8
CURVE
100
AcDbLine
62
4
6
CONTINUOUS
10
-9.5783059552
20
12.1441006327
11
-9.9773509457
21
12.1441006327
0
LINE
5
50D
100
AcDbEntity
8
CURVE
100
AcDbLine
62
4
6
CONTINUOUS
10
-17.2695746988
20
12.1441006327
11
-17.7593427494
21
12.1441006327
0
LINE
5
50E
100
AcDbEntity
8
CURVE
100
AcDbLine
62
4
6
CONTINUOUS
10
-12.9549771621
20
12.6611538196
11
-12.6418802961
21
12.6611538196
0
LINE
5
50F
100
AcDbEntity
8
CURVE
100
AcDbLine
62
4
6
CONTINUOUS
10
-13.2128216102
20
12.6611538196
11
-13.0777602270
21
12.6611538196
0
LINE
5
510
100
AcDbEntity
8
CURVE
100
AcDbLine
62
4
6
CONTINUOUS
10
-12.5211435947
20
12.7737049872
11
-12.9549771621
21
12.7737049872
0
LINE
5
511
100
AcDbEntity
8
CURVE
100
AcDbLine
62
4
6
CONTINUOUS
10
-13.0777602270
20
12.7737049872
11
-13.2128216102
21
12.7737049872
0
LINE
5
512
100
AcDbEntity
8
CURVE
100
AcDbLine
62
4
6
CONTINUOUS
10
-12.9549771621
20
13.0131320024
11
-13.0777602270
21
13.0131320024
0
LINE
5
513
100
AcDbEntity
8
CURVE
100
AcDbLine
62
4
6
CONTINUOUS
10
-17.4094109878
20
13.0131320024
11
-17.5356047049
21
13.0131320024
0
LINE
5
514
100
AcDbEntity
8
CURVE
100
AcDbLine
62
4
6
CONTINUOUS
10
-15.2808980301
20
13.9131320024
11
-14.9057274937
21
13.9131320024
0
LINE
5
515
100
AcDbEntity
8
CURVE
100
AcDbLine
62
4
6
CONTINUOUS
10
-15.0380603775
20
14.0311401987
11
-15.2379239455
21
14.0311401987
0
LINE
5
516
100
AcDbEntity
8
CURVE
100
AcDbLine
62
4
6
CONTINUOUS
10
-9.3832172632
20
12.5404171312
11
-9.4984969303
21
12.5554239417
0
LINE
5
517
100
AcDbEntity
8
INC_LASER
100
AcDbLine
62
9
6
CONTINUOUS
10
-29.1605511501
20
18.6631320024
11
-29.4319797054
21
18.7988462942
0
LINE
5
518
100
AcDbEntity
8
INC_LASER
100
AcDbLine
62
9
6
CONTINUOUS
10
-29.4319797054
20
20.2464652980
11
-29.7034082606
21
20.4274176681
0
LINE
5
519
100
AcDbEntity
8
INC_LASER
100
AcDbLine
62
9
6
CONTINUOUS
10
-29.4319797054
20
24.4988462234
11
-29.7034082606
21
24.7702746654
0
LINE
5
51A
100
AcDbEntity
8
INC_LASER
100
AcDbLine
62
9
6
CONTINUOUS
10
-28.0748368442
20
23.9559893394
11
-27.8034082606
21
23.6845604444
0
LINE
5
51B
100
AcDbEntity
8
CURVE
100
AcDbLine
62
4
6
CONTINUOUS
10
-15.7372418001
20
11.1131320024
11
-15.3279648974
21
10.1131320024
0
LINE
5
51C
100
AcDbEntity
8
CURVE
100
AcDbLine
62
4
6
CONTINUOUS
10
-15.4698475554
20
10.8102670634
11
-15.5864914611
21
11.1131320024
0
LINE
5
51D
100
AcDbEntity
8
CURVE
100
AcDbLine
62
4
6
CONTINUOUS
10
-15.3245542600
20
10.4255467081
11
-15.4289198473
21
10.7024908090
0
LINE
5
51E
100
AcDbEntity
8
0
100
AcDbLine
62
7
6
CONTINUOUS
10
-14.0784082606
20
4.6131320024
11
-13.8200012286
21
3.2218283670
0
LINE
5
51F
100
AcDbEntity
8
CURVE
100
AcDbLine
62
4
6
CONTINUOUS
10
-13.2128216102
20
12.7737049872
11
-13.2128216102
21
12.6611538196
0
LINE
5
520
100
AcDbEntity
8
CURVE
100
AcDbLine
62
4
6
CONTINUOUS
10
-13.0777602270
20
12.6611538196
11
-13.0777602270
21
12.0131320024
0
LINE
5
521
100
AcDbEntity
8
CURVE
100
AcDbLine
62
4
6
CONTINUOUS
10
-13.0777602270
20
13.0131320024
11
-13.0777602270
21
12.7737049872
0
LINE
5
522
100
AcDbEntity
8
0
100
AcDbLine
62
7
6
CONTINUOUS
10
-13.0534082606
20
2.8960919143
11
-13.0534082606
21
4.6131320024
0
LINE
5
523
100
AcDbEntity
8
CURVE
100
AcDbLine
62
4
6
CONTINUOUS
10
-12.9549771621
20
12.2102670932
11
-12.9549771621
21
12.6611538196
0
LINE
5
524
100
AcDbEntity
8
CURVE
100
AcDbLine
62
4
6
CONTINUOUS
10
-12.9549771621
20
12.7737049872
11
-12.9549771621
21
13.0131320024
0
LINE
5
525
100
AcDbEntity
8
0
100
AcDbLine
62
7
6
CONTINUOUS
10
-12.7034082606
20
17.1131320024
11
-12.7034082606
21
19.1631320024
0
LINE
5
526
100
AcDbEntity
8
CURVE
100
AcDbLine
62
4
6
CONTINUOUS
10
-12.5211435947
20
12.6611538196
11
-12.5211435947
21
12.7737049872
0
LINE
5
527
100
AcDbEntity
8
0
100
AcDbLine
62
7
6
CONTINUOUS
10
-12.8368152926
20
3.2218283670
11
-12.5784082606
21
4.6131320024
0
LINE
5
528
100
AcDbEntity
8
INC_LASER
100
AcDbLine
62
9
6
CONTINUOUS
10
-26.6034082606
20
-9.6440108990
11
-26.4176939860
21
-9.4582967019
0
LINE
5
529
100
AcDbEntity
8
INC_LASER
100
AcDbLine
62
9
6
CONTINUOUS
10
-30.7035532606
20
-3.6131889976
11
-27.8034152606
21
-2.6820499976
0
LINE
5
52A
100
AcDbEntity
8
INC_LASER
100
AcDbLine
62
9
6
CONTINUOUS
10
-28.9247732606
20
-3.6221139976
11
-29.8003122606
21
-3.9032179976
0
LINE
5
52B
100
AcDbEntity
8
INC_LASER
100
AcDbLine
62
9
6
CONTINUOUS
10
-27.8034232606
20
-3.2620789976
11
-28.3737512606
21
-3.4451849976
0
LINE
5
52C
100
AcDbEntity
8
INC_LASER
100
AcDbLine
62
9
6
CONTINUOUS
10
-26.6034082606
20
-1.7821066832
11
-25.3034082606
21
-1.4106770491
0
LINE
5
52D
100
AcDbEntity
8
CURVE
100
AcDbLine
62
4
6
CONTINUOUS
10
-15.2542950168
20
14.3333229924
11
-15.0380603775
21
14.3333229924
0
LINE
5
52E
100
AcDbEntity
8
CURVE
100
AcDbLine
62
4
6
CONTINUOUS
10
-15.0380603775
20
14.4513311887
11
-15.2693018570
21
14.4513311887
0
LINE
5
52F
100
AcDbEntity
8
CURVE
100
AcDbLine
62
4
6
CONTINUOUS
10
-15.2870371893
20
14.7951238135
11
-15.0380603775
21
14.7951238135
0
LINE
5
530
100
AcDbEntity
8
CURVE
100
AcDbLine
62
4
6
CONTINUOUS
10
-14.9057274937
20
14.9131320024
11
-15.2870371893
21
14.9131320024
0
LINE
5
531
100
AcDbEntity
8
0
100
AcDbLine
62
7
6
CONTINUOUS
10
-24.0034082606
20
15.6131320024
11
-24.5034082606
21
15.6131320024
0
LINE
5
532
100
AcDbEntity
8
0
100
AcDbLine
62
7
6
CONTINUOUS
10
-7.4034082606
20
15.7131320024
11
-23.0034082606
21
15.7131320024
0
LINE
5
533
100
AcDbEntity
8
INC_LASER
100
AcDbLine
62
9
6
CONTINUOUS
10
-28.3462654277
20
19.6131320024
11
-28.0748368442
21
19.4774177248
0
LINE
5
534
100
AcDbEntity
8
INC_LASER
100
AcDbLine
62
9
6
CONTINUOUS
10
-28.3462654277
20
25.3131320024
11
-27.8034082606
21
24.7702746654
0
LINE
5
535
100
AcDbEntity
8
0
100
AcDbLine
62
7
6
CONTINUOUS
10
-10.1534082606
20
4.2093203420
11
-10.1534082606
21
4.6131320024
0
LINE
5
536
100
AcDbEntity
8
0
100
AcDbLine
62
7
6
CONTINUOUS
10
-9.9834082606
20
4.6131320024
11
-9.9834082606
21
3.2940139118
0
LINE
5
537
100
AcDbEntity
8
CURVE
100
AcDbLine
62
4
6
CONTINUOUS
10
-9.9773509457
20
12.1441006327
11
-9.9773509457
21
12.0267745519
0
LINE
5
538
100
AcDbEntity
8
0
100
AcDbLine
62
7
6
CONTINUOUS
10
-9.8434082606
20
4.6131320024
11
-9.8434082606
21
2.9719205233
0
LINE
5
539
100
AcDbEntity
8
0
100
AcDbLine
62
7
6
CONTINUOUS
10
-9.4534082606
20
2.8139398605
11
-9.4534082606
21
4.6131320024
0
LINE
5
53A
100
AcDbEntity
8
CURVE
100
AcDbLine
62
4
6
CONTINUOUS
10
-9.4800794676
20
12.0267745519
11
-9.3832172632
21
12.5404171312
0
LINE
5
53B
100
AcDbEntity
8
CURVE
100
AcDbLine
62
4
6
CONTINUOUS
10
-9.5244178131
20
12.4128591681
11
-9.5783059552
21
12.1441006327
0
LINE
5
53C
100
AcDbEntity
8
INC_LASER
100
AcDbLine
62
9
6
CONTINUOUS
10
-26.6034082606
20
-6.1463918662
11
-25.3034082606
21
-5.4963918662
0
LINE
5
53D
100
AcDbEntity
8
0
100
AcDbLine
62
7
6
CONTINUOUS
10
-24.8034082606
20
16.2504006803
11
-24.7512266267
21
16.2508560625
0
LINE
5
53E
100
AcDbEntity
8
0
100
AcDbLine
62
7
6
CONTINUOUS
10
-24.8034082606
20
17.1131320024
11
-7.4034082606
21
17.1131320024
0
LINE
5
53F
100
AcDbEntity
8
0
100
AcDbLine
62
7
6
CONTINUOUS
10
-24.8034082606
20
17.0758633245
11
-24.7534082606
21
17.0754269811
0
LINE
5
540
100
AcDbEntity
8
0
100
AcDbLine
62
7
6
CONTINUOUS
10
-10.2284082606
20
4.6131320024
11
-9.9700012286
21
3.2218283670
0
LINE
5
541
100
AcDbEntity
8
0
100
AcDbLine
62
9
6
CONTINUOUS
10
-8.0034082606
20
-2.5868679976
11
-8.0034082606
21
4.6131320024
0
LINE
5
542
100
AcDbEntity
8
0
100
AcDbLine
62
7
6
CONTINUOUS
10
-7.7034082606
20
-2.2868679976
11
-7.7034082606
21
4.3131320024
0
LINE
5
543
100
AcDbEntity
8
0
100
AcDbLine
62
7
6
CONTINUOUS
10
-7.6034082606
20
-0.8868679976
11
-7.6034082606
21
15.7131320024
0
LINE
5
544
100
AcDbEntity
8
0
100
AcDbLine
62
7
6
CONTINUOUS
10
-7.4034082606
20
8.4131320024
11
-7.4034082606
21
15.7131320024
0
LINE
5
545
100
AcDbEntity
8
0
100
AcDbLine
62
7
6
CONTINUOUS
10
-7.4034082606
20
17.1131320024
11
-7.4034082606
21
18.9131320024
0
LINE
5
546
100
AcDbEntity
8
0
100
AcDbLine
62
7
6
CONTINUOUS
10
-8.9868152926
20
3.2218283670
11
-8.7284082606
21
4.6131320024
0
LINE
5
547
100
AcDbEntity
8
INC_LASER
100
AcDbLine
62
9
6
CONTINUOUS
10
-30.7035462606
20
-7.4710159976
11
-28.8148772606
21
-6.9294479976
0
LINE
5
548
100
AcDbEntity
8
INC_LASER
100
AcDbLine
62
9
6
CONTINUOUS
10
-27.8034152606
20
-7.2194549976
11
-29.7158572606
21
-7.7678309976
0
LINE
5
549
100
AcDbEntity
8
0
100
AcDbLine
62
7
6
CONTINUOUS
10
-24.8034082606
20
17.5189244436
11
-18.5272142235
21
19.1106945062
0
LINE
5
54A
100
AcDbEntity
8
INC_LASER
100
AcDbLine
62
9
6
CONTINUOUS
10
-28.3462654277
20
18.6631320024
11
-29.1605511501
21
18.6631320024
0
LINE
5
54B
100
AcDbEntity
8
0
100
AcDbLine
62
7
6
CONTINUOUS
10
-12.7034082606
20
18.9131320024
11
-5.9034082606
21
18.9131320024
0
LINE
5
54C
100
AcDbEntity
8
0
100
AcDbLine
62
7
6
CONTINUOUS
10
-19.0176034136
20
19.5131320024
11
-24.8034082606
21
19.5131320024
0
LINE
5
54D
100
AcDbEntity
8
INC_LASER
100
AcDbLine
62
9
6
CONTINUOUS
10
-29.1605511501
20
19.6131320024
11
-28.3462654277
21
19.6131320024
0
LINE
5
54E
100
AcDbEntity
8
0
100
AcDbLine
62
7
6
CONTINUOUS
10
-6.9034082606
20
19.9631320024
11
-11.9034082606
21
19.9631320024
0
LINE
5
54F
100
AcDbEntity
8
INC_LASER
100
AcDbLine
62
9
6
CONTINUOUS
10
-28.2105511218
20
21.6488462234
11
-29.7034082606
21
22.0559891129
0
LINE
5
550
100
AcDbEntity
8
0
100
AcDbLine
62
9
6
CONTINUOUS
10
-6.7034082606
20
8.4131320024
11
-6.7034082606
21
18.9131320024
0
LINE
5
551
100
AcDbEntity
8
0
100
AcDbLine
62
7
6
CONTINUOUS
10
-5.9034082606
20
8.4131320024
11
-5.9034082606
21
18.9631320024
0
LINE
5
552
100
AcDbEntity
8
0
100
AcDbLine
62
7
6
CONTINUOUS
10
-24.8034082606
20
20.2154923584
11
-24.7520992697
21
20.2157610142
0
LINE
5
553
100
AcDbEntity
8
INC_LASER
100
AcDbLine
62
9
6
CONTINUOUS
10
-28.6176939830
20
20.1559891129
11
-28.0748368442
21
20.1559891129
0
LINE
5
554
100
AcDbEntity
8
INC_LASER
100
AcDbLine
62
9
6
CONTINUOUS
10
-29.0248368159
20
20.2464652980
11
-29.4319797054
21
20.2464652980
0
LINE
5
555
100
AcDbEntity
8
0
100
AcDbLine
62
7
6
CONTINUOUS
10
-24.5034082606
20
20.7131320024
11
-17.0764014933
21
20.7131320024
0
LINE
5
556
100
AcDbEntity
8
INC_LASER
100
AcDbLine
62
9
6
CONTINUOUS
10
-29.4319797054
20
21.0155130411
11
-29.0248368159
21
21.0155130411
0
LINE
5
557
100
AcDbEntity
8
INC_LASER
100
AcDbLine
62
9
6
CONTINUOUS
10
-28.6176939830
20
21.1059891129
11
-28.0748368442
21
21.1059891129
0
LINE
5
558
100
AcDbEntity
8
0
100
AcDbLine
62
7
6
CONTINUOUS
10
-24.8034082606
20
21.0758633245
11
-24.7534082606
21
21.0754269811
0
LINE
5
559
100
AcDbEntity
8
INC_LASER
100
AcDbLine
62
9
6
CONTINUOUS
10
-26.6034082606
20
-12.3368679976
11
-25.8605511233
21
-11.9654394096
0
LINE
5
55A
100
AcDbEntity
8
INC_LASER
100
AcDbLine
62
9
6
CONTINUOUS
10
-30.7035462606
20
-11.7568389976
11
-28.7066492606
21
-11.1157069976
0
LINE
5
55B
100
AcDbEntity
8
INC_LASER
100
AcDbLine
62
9
6
CONTINUOUS
10
-27.8034082606
20
-11.4057359976
11
-30.7035462606
21
-12.3368679976
0
LINE
5
55C
100
AcDbEntity
8
INC_LASER
100
AcDbLine
62
9
6
CONTINUOUS
10
-26.6034082606
20
-10.8511536455
11
-25.3034082606
21
-10.4797250962
0
LINE
5
55D
100
AcDbEntity
8
0
100
AcDbLine
62
9
6
CONTINUOUS
10
-24.8034082606
20
22.6701015293
11
-24.7512266267
21
22.6706591725
0
LINE
5
55E
100
AcDbEntity
8
INC_LASER
100
AcDbLine
62
9
6
CONTINUOUS
10
-28.7534082606
20
22.2821796322
11
-27.8034082606
21
22.2821796322
0
LINE
5
55F
100
AcDbEntity
8
0
100
AcDbLine
62
9
6
CONTINUOUS
10
-24.5034082606
20
22.6706591725
11
-24.7512266267
21
22.6706591725
0
LINE
5
560
100
AcDbEntity
8
INC_LASER
100
AcDbLine
62
9
6
CONTINUOUS
10
-29.7034082606
20
23.1417035604
11
-28.8891225949
21
23.1417035604
0
LINE
5
561
100
AcDbEntity
8
INC_LASER
100
AcDbLine
62
9
6
CONTINUOUS
10
-28.6176939830
20
23.9559893394
11
-28.0748368442
21
23.9559893394
0
LINE
5
562
100
AcDbEntity
8
0
100
AcDbLine
62
7
6
CONTINUOUS
10
-24.7512266267
20
22.9754079423
11
-24.8034082606
21
22.9758633245
0
LINE
5
563
100
AcDbEntity
8
INC_LASER
100
AcDbLine
62
9
6
CONTINUOUS
10
-28.8891225949
20
25.4488462234
11
-28.3462654277
21
25.3131320024
0
LINE
5
564
100
AcDbEntity
8
0
100
AcDbLine
62
9
6
CONTINUOUS
10
-2.7034082606
20
8.4131320024
11
-2.7034082606
21
10.8131320024
0
LINE
5
565
100
AcDbEntity
8
0
100
AcDbLine
62
7
6
CONTINUOUS
10
-2.2034082606
20
8.4131320024
11
-2.2034082606
21
10.8131320024
0
LINE
5
566
100
AcDbEntity
8
INC_LASER
100
AcDbLine
62
9
6
CONTINUOUS
10
-28.8891225949
20
24.4988462234
11
-29.4319797054
21
24.4988462234
0
LINE
5
567
100
AcDbEntity
8
INC_LASER
100
AcDbLine
62
9
6
CONTINUOUS
10
-29.4319797054
20
25.4488462234
11
-28.8891225949
21
25.4488462234
0
LINE
5
568
100
AcDbEntity
8
0
100
AcDbLine
62
7
6
CONTINUOUS
10
-15.8034082606
20
27.0126166789
11
-19.7791859735
21
26.9917993652
0
LINE
5
569
100
AcDbEntity
8
0
100
AcDbLine
62
9
6
CONTINUOUS
10
-15.8034082606
20
27.3126125666
11
-18.9429236690
21
27.2961739521
0
LINE
5
56A
100
AcDbEntity
8
0
100
AcDbLine
62
3
6
CONTINUOUS
10
-25.3965401783
20
-16.9066515064
11
-23.6174444846
21
-16.3285882740
0
LINE
5
56B
100
AcDbEntity
8
0
100
AcDbLine
62
7
6
CONTINUOUS
10
-25.2729333806
20
-17.2870741129
11
-22.2945936833
21
-16.3193528832
0
LINE
5
56C
100
AcDbEntity
8
0
100
AcDbLine
62
9
6
CONTINUOUS
10
-34.8208610924
20
29.7443762446
11
-30.8991465789
21
29.7854458443
0
LINE
5
56D
100
AcDbEntity
8
0
100
AcDbLine
62
7
6
CONTINUOUS
10
-34.8191159368
20
29.9943625370
11
-31.5252439576
21
30.0288571446
0
LINE
5
56E
100
AcDbEntity
8
0
100
AcDbLine
62
9
6
CONTINUOUS
10
-36.3034082606
20
28.4944447829
11
-36.0577713622
21
28.4944447829
0
LINE
5
56F
100
AcDbEntity
8
0
100
AcDbLine
62
3
6
CONTINUOUS
10
-25.3965401783
20
32.2329155112
11
-23.6174444846
21
31.6548522788
0
LINE
5
570
100
AcDbEntity
8
0
100
AcDbLine
62
7
6
CONTINUOUS
10
-25.2729333806
20
32.6133381177
11
-22.2945936833
21
31.6456168880
0
LINE
5
571
100
AcDbEntity
8
0
100
AcDbLine
62
9
6
CONTINUOUS
10
-30.8991465789
20
31.3705993976
11
-24.8034082606
21
31.4131563706
0
LINE
5
572
100
AcDbEntity
8
0
100
AcDbLine
62
7
6
CONTINUOUS
10
-31.5551526393
20
31.6159951687
11
-24.8034082606
21
31.6631320024
0
LINE
5
573
100
AcDbEntity
8
0
100
AcDbLine
62
9
6
CONTINUOUS
10
-26.3034082606
20
31.9475985563
11
-26.7034082606
21
31.9475985563
0
LINE
5
574
100
AcDbEntity
8
0
100
AcDbLine
62
3
6
CONTINUOUS
10
-26.0034082606
20
32.2475985563
11
-25.4892452766
21
32.2475985563
0
LINE
5
575
100
AcDbEntity
8
0
100
AcDbLine
62
9
6
CONTINUOUS
10
-24.8034082606
20
31.4131563706
11
-15.8034082606
21
31.3503234967
0
LINE
5
576
100
AcDbEntity
8
0
100
AcDbLine
62
7
6
CONTINUOUS
10
-24.8034082606
20
31.6631320024
11
-15.8034082606
21
31.6002991285
0
LINE
5
577
100
AcDbEntity
8
0
100
AcDbLine
62
7
6
CONTINUOUS
10
-26.0034082606
20
32.6475985563
11
-25.4892452766
21
32.6475985563
0
ARC
5
578
100
AcDbEntity
8
0
100
AcDbCircle
62
7
6
CONTINUOUS
10
13.6473866562
20
-16.1213345515
40
0.2000000000
100
AcDbArc
50
270.0000000000
51
355.0000000000
0
ARC
5
579
100
AcDbEntity
8
0
100
AcDbCircle
62
7
6
CONTINUOUS
10
21.5139191258
20
-16.1213345515
40
0.2000000000
100
AcDbArc
50
185.0000000000
51
270.0000000000
0
ARC
5
57A
100
AcDbEntity
8
0
100
AcDbCircle
62
7
6
CONTINUOUS
10
21.5139191258
20
31.4475985563
40
0.2000000000
100
AcDbArc
50
90.0000000000
51
175.0000000000
0
ARC
5
57B
100
AcDbEntity
8
0
100
AcDbCircle
62
7
6
CONTINUOUS
10
13.6473866562
20
31.4475985563
40
0.2000000000
100
AcDbArc
50
5.0000000000
51
90.0000000000
0
ARC
5
57C
100
AcDbEntity
8
0
100
AcDbCircle
62
7
6
CONTINUOUS
10
9.6806528910
20
-4.5368679976
40
1.0000000000
100
AcDbArc
50
90.0000000000
51
180.0000000000
0
ARC
5
57D
100
AcDbEntity
8
0
100
AcDbCircle
62
7
6
CONTINUOUS
10
9.6806528910
20
-11.3368679976
40
1.0000000000
100
AcDbArc
50
180.0000000000
51
270.0000000000
0
ARC
5
57E
100
AcDbEntity
8
0
100
AcDbCircle
62
7
6
CONTINUOUS
10
25.4806528910
20
-4.5368679976
40
1.0000000000
100
AcDbArc
50
0.0000000000
51
90.0000000000
0
ARC
5
57F
100
AcDbEntity
8
0
100
AcDbCircle
62
7
6
CONTINUOUS
10
25.4806528910
20
-11.3368679976
40
1.0000000000
100
AcDbArc
50
270.0000000000
51
360.0000000000
0
ARC
5
580
100
AcDbEntity
8
DEFAULT_3
100
AcDbCircle
62
8
6
PHANTOM
10
25.5306528910
20
-4.4868679976
40
1.0000000000
100
AcDbArc
50
0.0000000000
51
90.0000000000
0
ARC
5
581
100
AcDbEntity
8
DEFAULT_3
100
AcDbCircle
62
8
6
PHANTOM
10
25.5306528910
20
-11.3868679976
40
1.0000000000
100
AcDbArc
50
270.0000000000
51
360.0000000000
0
ARC
5
582
100
AcDbEntity
8
DEFAULT_3
100
AcDbCircle
62
8
6
PHANTOM
10
9.6306528910
20
-11.3868679976
40
1.0000000000
100
AcDbArc
50
180.0000000000
51
270.0000000000
0
ARC
5
583
100
AcDbEntity
8
DEFAULT_3
100
AcDbCircle
62
8
6
PHANTOM
10
9.6306528910
20
-4.4868679976
40
1.0000000000
100
AcDbArc
50
90.0000000000
51
180.0000000000
0
ARC
5
584
100
AcDbEntity
8
DEFAULT_3
100
AcDbCircle
62
9
6
PHANTOM
10
25.5306528910
20
-11.3868679976
40
0.2999999570
100
AcDbArc
50
270.0000000000
51
360.0000000000
0
ARC
5
585
100
AcDbEntity
8
DEFAULT_3
100
AcDbCircle
62
9
6
PHANTOM
10
9.6306528910
20
-11.3868679976
40
0.2999999570
100
AcDbArc
50
180.0000000000
51
270.0000000000
0
ARC
5
586
100
AcDbEntity
8
DEFAULT_3
100
AcDbCircle
62
9
6
PHANTOM
10
25.5306528910
20
-4.4868679976
40
0.2999999570
100
AcDbArc
50
0.0000000000
51
90.0000000000
0
ARC
5
587
100
AcDbEntity
8
DEFAULT_3
100
AcDbCircle
62
9
6
PHANTOM
10
9.6306528910
20
-4.4868679976
40
0.2999999570
100
AcDbArc
50
90.0000000000
51
180.0000000000
0
ARC
5
588
100
AcDbEntity
8
0
100
AcDbCircle
62
7
6
CONTINUOUS
10
9.5806528910
20
-11.4368679976
40
1.0104874724
100
AcDbArc
50
180.0000000000
51
270.0000000000
0
ARC
5
589
100
AcDbEntity
8
0
100
AcDbCircle
62
7
6
CONTINUOUS
10
9.5806528910
20
-4.4368679976
40
1.0104874724
100
AcDbArc
50
90.0000000000
51
180.0000000000
0
ARC
5
58A
100
AcDbEntity
8
0
100
AcDbCircle
62
7
6
CONTINUOUS
10
25.5806528910
20
-4.4368679976
40
1.0104874724
100
AcDbArc
50
0.0000000000
51
90.0000000000
0
ARC
5
58B
100
AcDbEntity
8
0
100
AcDbCircle
62
7
6
CONTINUOUS
10
25.5806528910
20
-11.4368679976
40
1.0104874724
100
AcDbArc
50
270.0000000000
51
360.0000000000
0
ARC
5
58C
100
AcDbEntity
8
0
100
AcDbCircle
62
9
6
CONTINUOUS
10
9.5806528910
20
-4.4368679976
40
1.2104793071
100
AcDbArc
50
90.0000000000
51
180.0000000000
0
ARC
5
58D
100
AcDbEntity
8
0
100
AcDbCircle
62
9
6
CONTINUOUS
10
9.5806528910
20
-11.4368679976
40
1.2104793071
100
AcDbArc
50
180.0000000000
51
270.0000000000
0
ARC
5
58E
100
AcDbEntity
8
0
100
AcDbCircle
62
9
6
CONTINUOUS
10
25.5806528910
20
-11.4368679976
40
1.2104793071
100
AcDbArc
50
270.0000000000
51
360.0000000000
0
ARC
5
58F
100
AcDbEntity
8
0
100
AcDbCircle
62
9
6
CONTINUOUS
10
25.5806528910
20
-4.4368679976
40
1.2104793071
100
AcDbArc
50
0.0000000000
51
90.0000000000
0
ARC
5
590
100
AcDbEntity
8
0
100
AcDbCircle
62
7
6
CONTINUOUS
10
9.5806528910
20
-4.4368679976
40
1.0000000000
100
AcDbArc
50
90.0000000000
51
180.0000000000
0
ARC
5
591
100
AcDbEntity
8
0
100
AcDbCircle
62
7
6
CONTINUOUS
10
9.5806528910
20
-11.4368679976
40
1.0000000000
100
AcDbArc
50
180.0000000000
51
270.0000000000
0
ARC
5
592
100
AcDbEntity
8
0
100
AcDbCircle
62
7
6
CONTINUOUS
10
25.5806528910
20
-11.4368679976
40
1.0000000000
100
AcDbArc
50
270.0000000000
51
360.0000000000
0
ARC
5
593
100
AcDbEntity
8
0
100
AcDbCircle
62
7
6
CONTINUOUS
10
25.5806528910
20
-4.4368679976
40
1.0000000000
100
AcDbArc
50
0.0000000000
51
90.0000000000
0
ARC
5
594
100
AcDbEntity
8
DEFAULT_3
100
AcDbCircle
62
8
6
PHANTOM
10
-36.6034082606
20
-4.1868679976
40
0.7000000000
100
AcDbArc
50
90.0000000000
51
180.0000000000
0
ARC
5
595
100
AcDbEntity
8
DEFAULT_3
100
AcDbCircle
62
8
6
PHANTOM
10
-36.6034082606
20
-11.6868679976
40
0.7000000000
100
AcDbArc
50
180.0000000000
51
270.0000000000
0
ARC
5
596
100
AcDbEntity
8
0
100
AcDbCircle
62
7
6
CONTINUOUS
10
-25.4892452766
20
-16.6213345515
40
0.7000000000
100
AcDbArc
50
270.0000000000
51
288.0000000000
0
ARC
5
597
100
AcDbEntity
8
0
100
AcDbCircle
62
7
6
CONTINUOUS
10
-26.0034082606
20
-16.6213345515
40
0.7000000000
100
AcDbArc
50
180.0000000000
51
270.0000000000
0
ARC
5
598
100
AcDbEntity
8
0
100
AcDbCircle
62
7
6
CONTINUOUS
10
-25.4892452766
20
31.9475985563
40
0.7000000000
100
AcDbArc
50
72.0000000000
51
90.0000000000
0
ARC
5
599
100
AcDbEntity
8
0
100
AcDbCircle
62
7
6
CONTINUOUS
10
-26.0034082606
20
31.9475985563
40
0.7000000000
100
AcDbArc
50
90.0000000000
51
180.0000000000
0
ARC
5
59A
100
AcDbEntity
8
0
100
AcDbCircle
62
7
6
CONTINUOUS
10
-15.6034082606
20
-2.2868679976
40
0.3000000000
100
AcDbArc
50
270.0000000000
51
360.0000000000
0
ARC
5
59B
100
AcDbEntity
8
0
100
AcDbCircle
62
7
6
CONTINUOUS
10
-22.4034082606
20
-2.2868679976
40
0.3000000000
100
AcDbArc
50
180.0000000000
51
270.0000000000
0
ARC
5
59C
100
AcDbEntity
8
0
100
AcDbCircle
62
7
6
CONTINUOUS
10
-20.9284082606
20
3.3131320024
40
0.5000000000
100
AcDbArc
50
190.5216629287
51
349.4783370713
0
ARC
5
59D
100
AcDbEntity
8
0
100
AcDbCircle
62
7
6
CONTINUOUS
10
-17.0784082606
20
3.3131320024
40
0.5000000000
100
AcDbArc
50
190.5216629287
51
349.4783370713
0
ARC
5
59E
100
AcDbEntity
8
0
100
AcDbCircle
62
7
6
CONTINUOUS
10
-8.0034082606
20
-2.2868679976
40
0.3000000000
100
AcDbArc
50
270.0000000000
51
360.0000000000
0
ARC
5
59F
100
AcDbEntity
8
0
100
AcDbCircle
62
7
6
CONTINUOUS
10
-14.8034082606
20
-2.2868679976
40
0.3000000000
100
AcDbArc
50
180.0000000000
51
270.0000000000
0
ARC
5
5A0
100
AcDbEntity
8
0
100
AcDbCircle
62
7
6
CONTINUOUS
10
-13.3284082606
20
3.3131320024
40
0.5000000000
100
AcDbArc
50
190.5216629287
51
349.4783370713
0
ARC
5
5A1
100
AcDbEntity
8
0
100
AcDbCircle
62
7
6
CONTINUOUS
10
-9.4784082606
20
3.3131320024
40
0.5000000000
100
AcDbArc
50
190.5216629287
51
349.4783370713
0
ARC
5
5A2
100
AcDbEntity
8
0
100
AcDbCircle
62
7
6
CONTINUOUS
10
-19.0176034136
20
19.0131320024
40
0.5000000000
100
AcDbArc
50
0.0000000000
51
90.0000000000
0
ARC
5
5A3
100
AcDbEntity
8
0
100
AcDbCircle
62
7
6
CONTINUOUS
10
-17.0764014933
20
20.2131320024
40
0.5000000000
100
AcDbArc
50
3.1798301199
51
90.0000000000
0
ARC
5
5A4
100
AcDbEntity
8
0
100
AcDbCircle
62
7
6
CONTINUOUS
10
-6.9034082606
20
18.9631320024
40
1.0000000000
100
AcDbArc
50
0.0000000000
51
90.0000000000
0
ARC
5
5A5
100
AcDbEntity
8
0
100
AcDbCircle
62
7
6
CONTINUOUS
10
-11.9034082606
20
19.1631320024
40
0.8000000000
100
AcDbArc
50
90.0000000000
51
180.0000000000
0
ARC
5
5A6
100
AcDbEntity
8
0
100
AcDbCircle
62
7
6
CONTINUOUS
10
-24.7534082606
20
0.3657575872
40
0.2500000000
100
AcDbArc
50
270.3000000000
51
360.0000000000
0
ARC
5
5A7
100
AcDbEntity
8
0
100
AcDbCircle
62
7
6
CONTINUOUS
10
-24.7534082606
20
0.8131320024
40
0.2500000000
100
AcDbArc
50
0.0000000000
51
90.0000000000
0
ARC
5
5A8
100
AcDbEntity
8
0
100
AcDbCircle
62
7
6
CONTINUOUS
10
-24.7534082606
20
20.4657575872
40
0.2500000000
100
AcDbArc
50
270.3000000000
51
360.0000000000
0
ARC
5
5A9
100
AcDbEntity
8
0
100
AcDbCircle
62
7
6
CONTINUOUS
10
-24.7534082606
20
20.8254174615
40
0.2500000000
100
AcDbArc
50
0.0000000000
51
90.0000000000
0
ARC
5
5AA
100
AcDbEntity
8
0
100
AcDbCircle
62
7
6
CONTINUOUS
10
-24.7534082606
20
16.5008465433
40
0.2500000000
100
AcDbArc
50
270.5000000000
51
360.0000000000
0
ARC
5
5AB
100
AcDbEntity
8
0
100
AcDbCircle
62
7
6
CONTINUOUS
10
-24.7534082606
20
16.8254174615
40
0.2500000000
100
AcDbArc
50
0.0000000000
51
89.5000000000
0
ARC
5
5AC
100
AcDbEntity
8
0
100
AcDbCircle
62
7
6
CONTINUOUS
10
-24.7534082606
20
9.4508465433
40
0.2500000000
100
AcDbArc
50
270.5000000000
51
360.0000000000
0
ARC
5
5AD
100
AcDbEntity
8
0
100
AcDbCircle
62
7
6
CONTINUOUS
10
-24.7534082606
20
9.7754174615
40
0.2500000000
100
AcDbArc
50
0.0000000000
51
90.0000000000
0
ARC
5
5AE
100
AcDbEntity
8
0
100
AcDbCircle
62
7
6
CONTINUOUS
10
-31.5534077677
20
31.3660012580
40
0.2500000000
100
AcDbArc
50
90.4000000000
51
179.9999994144
0
ARC
5
5AF
100
AcDbEntity
8
0
100
AcDbCircle
62
7
6
CONTINUOUS
10
-31.5534081145
20
-16.0397372507
40
0.2500000000
100
AcDbArc
50
180.0000001734
51
269.6000000000
0
ARC
5
5B0
100
AcDbEntity
8
0
100
AcDbCircle
62
7
6
CONTINUOUS
10
-24.7534082606
20
2.7254174615
40
0.2500000000
100
AcDbArc
50
0.0000000000
51
89.5000000000
0
ARC
5
5B1
100
AcDbEntity
8
0
100
AcDbCircle
62
7
6
CONTINUOUS
10
-24.7534082606
20
-1.5991534567
40
0.2500000000
100
AcDbArc
50
270.5000000000
51
360.0000000000
0
ARC
5
5B2
100
AcDbEntity
8
0
100
AcDbCircle
62
7
6
CONTINUOUS
10
-24.7534082606
20
22.7254174615
40
0.2500000000
100
AcDbArc
50
0.0000000000
51
89.5000000000
0
ARC
5
5B3
100
AcDbEntity
8
0
100
AcDbCircle
62
7
6
CONTINUOUS
10
-34.8034082606
20
28.4944447829
40
1.5000000000
100
AcDbArc
50
90.6000000000
51
180.0000000000
0
ARC
5
5B4
100
AcDbEntity
8
0
100
AcDbCircle
62
7
6
CONTINUOUS
10
-34.8034082606
20
-13.1681807782
40
1.5000000000
100
AcDbArc
50
180.0000000000
51
269.4000000000
0
ARC
5
5B5
100
AcDbEntity
8
0
100
AcDbCircle
62
3
6
CONTINUOUS
10
-25.4892452766
20
-16.6213345515
40
0.3000000000
100
AcDbArc
50
270.0000000000
51
288.0000000000
0
ARC
5
5B6
100
AcDbEntity
8
0
100
AcDbCircle
62
3
6
CONTINUOUS
10
-26.0034082606
20
-16.6213345515
40
0.3000000000
100
AcDbArc
50
180.0000000000
51
270.0000000000
0
ARC
5
5B7
100
AcDbEntity
8
0
100
AcDbCircle
62
3
6
CONTINUOUS
10
-25.4892452766
20
31.9475985563
40
0.3000000000
100
AcDbArc
50
72.0000000000
51
90.0000000000
0
ARC
5
5B8
100
AcDbEntity
8
0
100
AcDbCircle
62
3
6
CONTINUOUS
10
-26.0034082606
20
31.9475985563
40
0.3000000000
100
AcDbArc
50
90.0000000000
51
180.0000000000
0
SPLINE
5
5B9
100
AcDbEntity
8
0
100
AcDbSpline
62
7
6
CONTINUOUS
70
0
71
3
72
15
73
11
74
9
42
0.0000001000
43
0.0000001000
44
0.0000000001
12
-0.2198589173
22
0.0000000000
32
0.0000000000
13
0.0000000000
23
-0.2198589173
33
0.0000000000
40
0.0000000000
40
0.0000000000
40
0.0000000000
40
0.0000000000
40
0.1775508236
40
0.3489475586
40
0.5083491360
40
0.6505618283
40
0.7714455810
40
0.8685458831
40
0.9424410166
40
1.0000000000
40
1.0000000000
40
1.0000000000
40
1.0000000000
10
13.2806528910
20
-16.1797440114
30
0.0000000000
10
13.2676408471
20
-16.1797440114
30
0.0000000000
10
13.2420605078
20
-16.1805089744
30
0.0000000000
10
13.2049381467
20
-16.1839252758
30
0.0000000000
10
13.1706840300
20
-16.1894616768
30
0.0000000000
10
13.1405873612
20
-16.1968988965
30
0.0000000000
10
13.1156950406
20
-16.2059171343
30
0.0000000000
10
13.0968630393
20
-16.2162669912
30
0.0000000000
10
13.0842354557
20
-16.2277141544
30
0.0000000000
10
13.0806528910
20
-16.2373291250
30
0.0000000000
10
13.0806528910
20
-16.2415474102
30
0.0000000000
11
13.2806528910
21
-16.1797440114
31
0.0000000000
11
13.2416348266
21
-16.1809315463
31
0.0000000000
11
13.2041162045
21
-16.1844485150
31
0.0000000000
11
13.1695388444
21
-16.1901597621
31
0.0000000000
11
13.1392315348
21
-16.1978458078
31
0.0000000000
11
13.1143589685
21
-16.2072112815
31
0.0000000000
11
13.0958769845
21
-16.2178962734
31
0.0000000000
11
13.0844958349
21
-16.2294901652
31
0.0000000000
11
13.0806528910
21
-16.2415474102
31
0.0000000000
0
SPLINE
5
5BA
100
AcDbEntity
8
0
100
AcDbSpline
62
7
6
CONTINUOUS
70
0
71
3
72
15
73
11
74
9
42
0.0000001000
43
0.0000001000
44
0.0000000001
12
0.0000000000
22
0.2198589173
32
0.0000000000
13
-0.2198589173
23
0.0000000000
33
0.0000000000
40
0.0000000000
40
0.0000000000
40
0.0000000000
40
0.0000000000
40
0.0575589834
40
0.1314541169
40
0.2285544190
40
0.3494381717
40
0.4916508640
40
0.6510524414
40
0.8224491764
40
1.0000000000
40
1.0000000000
40
1.0000000000
40
1.0000000000
10
22.0806528910
20
-16.2415474102
30
0.0000000000
10
22.0806528910
20
-16.2373291250
30
0.0000000000
10
22.0770703263
20
-16.2277141544
30
0.0000000000
10
22.0644427427
20
-16.2162669912
30
0.0000000000
10
22.0456107414
20
-16.2059171343
30
0.0000000000
10
22.0207184208
20
-16.1968988965
30
0.0000000000
10
21.9906217520
20
-16.1894616768
30
0.0000000000
10
21.9563676353
20
-16.1839252758
30
0.0000000000
10
21.9192452742
20
-16.1805089744
30
0.0000000000
10
21.8936649349
20
-16.1797440114
30
0.0000000000
10
21.8806528910
20
-16.1797440114
30
0.0000000000
11
22.0806528910
21
-16.2415474102
31
0.0000000000
11
22.0768099471
21
-16.2294901652
31
0.0000000000
11
22.0654287975
21
-16.2178962734
31
0.0000000000
11
22.0469468135
21
-16.2072112815
31
0.0000000000
11
22.0220742472
21
-16.1978458078
31
0.0000000000
11
21.9917669376
21
-16.1901597621
31
0.0000000000
11
21.9571895775
21
-16.1844485150
31
0.0000000000
11
21.9196709554
21
-16.1809315463
31
0.0000000000
11
21.8806528910
21
-16.1797440114
31
0.0000000000
0
SPLINE
5
5BB
100
AcDbEntity
8
0
100
AcDbSpline
62
7
6
CONTINUOUS
70
0
71
3
72
15
73
11
74
9
42
0.0000001000
43
0.0000001000
44
0.0000000001
12
0.2198589173
22
0.0000000000
32
0.0000000000
13
-0.0000000000
23
0.2198589173
33
0.0000000000
40
0.0000000000
40
0.0000000000
40
0.0000000000
40
0.0000000000
40
0.1775508236
40
0.3489475586
40
0.5083491360
40
0.6505618283
40
0.7714455810
40
0.8685458831
40
0.9424410166
40
1.0000000000
40
1.0000000000
40
1.0000000000
40
1.0000000000
10
21.8806528910
20
31.5060080161
30
0.0000000000
10
21.8936649349
20
31.5060080161
30
0.0000000000
10
21.9192452742
20
31.5067729792
30
0.0000000000
10
21.9563676353
20
31.5101892806
30
0.0000000000
10
21.9906217520
20
31.5157256816
30
0.0000000000
10
22.0207184208
20
31.5231629013
30
0.0000000000
10
22.0456107414
20
31.5321811391
30
0.0000000000
10
22.0644427427
20
31.5425309960
30
0.0000000000
10
22.0770703263
20
31.5539781592
30
0.0000000000
10
22.0806528910
20
31.5635931298
30
0.0000000000
10
22.0806528910
20
31.5678114150
30
0.0000000000
11
21.8806528910
21
31.5060080161
31
0.0000000000
11
21.9196709554
21
31.5071955511
31
0.0000000000
11
21.9571895775
21
31.5107125198
31
0.0000000000
11
21.9917669376
21
31.5164237669
31
0.0000000000
11
22.0220742472
21
31.5241098126
31
0.0000000000
11
22.0469468135
21
31.5334752863
31
0.0000000000
11
22.0654287975
21
31.5441602782
31
0.0000000000
11
22.0768099471
21
31.5557541700
31
0.0000000000
11
22.0806528910
21
31.5678114150
31
0.0000000000
0
SPLINE
5
5BC
100
AcDbEntity
8
0
100
AcDbSpline
62
7
6
CONTINUOUS
70
0
71
3
72
15
73
11
74
9
42
0.0000001000
43
0.0000001000
44
0.0000000001
12
0.0000000000
22
-0.2198589173
32
0.0000000000
13
0.2198589173
23
0.0000000000
33
0.0000000000
40
0.0000000000
40
0.0000000000
40
0.0000000000
40
0.0000000000
40
0.0575589834
40
0.1314541169
40
0.2285544190
40
0.3494381717
40
0.4916508640
40
0.6510524414
40
0.8224491764
40
1.0000000000
40
1.0000000000
40
1.0000000000
40
1.0000000000
10
13.0806528910
20
31.5678114150
30
0.0000000000
10
13.0806528910
20
31.5635931298
30
0.0000000000
10
13.0842354557
20
31.5539781592
30
0.0000000000
10
13.0968630393
20
31.5425309960
30
0.0000000000
10
13.1156950406
20
31.5321811391
30
0.0000000000
10
13.1405873612
20
31.5231629013
30
0.0000000000
10
13.1706840300
20
31.5157256816
30
0.0000000000
10
13.2049381467
20
31.5101892806
30
0.0000000000
10
13.2420605078
20
31.5067729792
30
0.0000000000
10
13.2676408471
20
31.5060080161
30
0.0000000000
10
13.2806528910
20
31.5060080161
30
0.0000000000
11
13.0806528910
21
31.5678114150
31
0.0000000000
11
13.0844958349
21
31.5557541700
31
0.0000000000
11
13.0958769845
21
31.5441602782
31
0.0000000000
11
13.1143589685
21
31.5334752863
31
0.0000000000
11
13.1392315348
21
31.5241098126
31
0.0000000000
11
13.1695388444
21
31.5164237669
31
0.0000000000
11
13.2041162045
21
31.5107125198
31
0.0000000000
11
13.2416348266
21
31.5071955511
31
0.0000000000
11
13.2806528910
21
31.5060080161
31
0.0000000000
0
SPLINE
5
5BD
100
AcDbEntity
8
0
100
AcDbSpline
62
9
6
CONTINUOUS
70
0
71
3
72
19
73
15
74
13
42
0.0000001000
43
0.0000001000
44
0.0000000001
12
1.0587497766
22
-0.8223649489
32
0.0000000000
13
1.2450465437
23
0.4970858103
33
0.0000000000
40
0.0000000000
40
0.0000000000
40
0.0000000000
40
0.0000000000
40
0.0176619750
40
0.0676538931
40
0.1468928980
40
0.2499427169
40
0.3696229995
40
0.4979573749
40
0.6263815715
40
0.7463788466
40
0.8500253815
40
0.9301433916
40
0.9812081161
40
1.0000000000
40
1.0000000000
40
1.0000000000
40
1.0000000000
10
28.2837699920
20
31.6206341408
30
0.0000000000
10
28.2900031960
20
31.6157926111
30
0.0000000000
10
28.3240697962
20
31.6245030681
30
0.0000000000
10
28.3861693776
20
31.6147965474
30
0.0000000000
10
28.4918509725
20
31.6186104735
30
0.0000000000
10
28.6260363846
20
31.6160496939
30
0.0000000000
10
28.7831698199
20
31.6162523919
30
0.0000000000
10
28.9513191119
20
31.6158813387
30
0.0000000000
10
29.1196758598
20
31.6161782658
30
0.0000000000
10
29.2770822586
20
31.6162550398
30
0.0000000000
10
29.4125766120
20
31.6179442264
30
0.0000000000
10
29.5181341130
20
31.6162685287
30
0.0000000000
10
29.5839624817
20
31.6220253419
30
0.0000000000
10
29.6164905357
20
31.6174795790
30
0.0000000000
10
29.6242894591
20
31.6205933053
30
0.0000000000
11
28.2837699920
21
31.6206341408
31
0.0000000000
11
28.3074177944
21
31.6194422413
31
0.0000000000
11
28.3744281404
21
31.6183245954
31
0.0000000000
11
28.4806523808
21
31.6173618573
31
0.0000000000
11
28.6188000215
21
31.6166225730
31
0.0000000000
11
28.7792439312
21
31.6161571243
31
0.0000000000
11
28.9512902033
21
31.6159952077
31
0.0000000000
11
29.1234568998
21
31.6161470614
31
0.0000000000
11
29.2843258030
21
31.6166026041
31
0.0000000000
11
29.4232734664
21
31.6173328353
31
0.0000000000
11
29.5306762201
21
31.6182885986
31
0.0000000000
11
29.5991250419
21
31.6194022641
31
0.0000000000
11
29.6242894591
21
31.6205933053
31
0.0000000000
0
SPLINE
5
5BE
100
AcDbEntity
8
0
100
AcDbSpline
62
9
6
CONTINUOUS
70
0
71
3
72
19
73
15
74
13
42
0.0000001000
43
0.0000001000
44
0.0000000001
12
1.7680369557
22
-0.5114924166
32
0.0000000000
13
1.5909518316
23
0.9254466157
33
0.0000000000
40
0.0000000000
40
0.0000000000
40
0.0000000000
40
0.0000000000
40
0.0189572991
40
0.0701020047
40
0.1502731070
40
0.2539379328
40
0.3738739646
40
0.5021526562
40
0.6302787738
40
0.7497663620
40
0.8527252450
40
0.9320227815
40
0.9821613803
40
1.0000000000
40
1.0000000000
40
1.0000000000
40
1.0000000000
10
5.2870543991
20
31.3705993976
30
0.0000000000
10
5.2982268009
20
31.3673672260
30
0.0000000000
10
5.3422369198
20
31.3721529715
30
0.0000000000
10
5.4335259844
20
31.3662018136
30
0.0000000000
10
5.5781598231
20
31.3679762472
30
0.0000000000
10
5.7643400432
20
31.3662497351
30
0.0000000000
10
5.9802808812
20
31.3661882682
30
0.0000000000
10
6.2111702257
20
31.3658808032
30
0.0000000000
10
6.4417222767
20
31.3662802447
30
0.0000000000
10
6.6570270755
20
31.3659843029
30
0.0000000000
10
6.8414825839
20
31.3688173571
30
0.0000000000
10
6.9857291902
20
31.3643061320
30
0.0000000000
10
7.0729349577
20
31.3753475906
30
0.0000000000
10
7.1180661426
20
31.3651373364
30
0.0000000000
10
7.1275262708
20
31.3706402331
30
0.0000000000
11
5.2870543991
21
31.3705993976
31
0.0000000000
11
5.3219254919
21
31.3694025911
31
0.0000000000
11
5.4160526847
21
31.3682906158
31
0.0000000000
11
5.5636075368
21
31.3673361055
31
0.0000000000
11
5.7544051677
21
31.3666069748
31
0.0000000000
11
5.9751514927
21
31.3661525024
31
0.0000000000
11
6.2112532173
21
31.3660013088
31
0.0000000000
11
6.4470741166
21
31.3661630063
31
0.0000000000
11
6.6669950423
21
31.3666271411
31
0.0000000000
11
6.8564933181
21
31.3673643777
31
0.0000000000
11
7.0024402631
21
31.3683253301
31
0.0000000000
11
7.0947154897
21
31.3694420134
31
0.0000000000
11
7.1275262708
21
31.3706402331
31
0.0000000000
0
SPLINE
5
5BF
100
AcDbEntity
8
0
100
AcDbSpline
62
9
6
CONTINUOUS
70
0
71
3
72
19
73
15
74
13
42
0.0000001000
43
0.0000001000
44
0.0000000001
12
1.2472615828
22
-0.4915015148
32
0.0000000000
13
1.0483026728
23
0.8356414908
33
0.0000000000
40
0.0000000000
40
0.0000000000
40
0.0000000000
40
0.0000000000
40
0.0187712333
40
0.0698031247
40
0.1499366615
40
0.2536717948
40
0.3737814608
40
0.5022619059
40
0.6305396392
40
0.7501076412
40
0.8530694328
40
0.9322933464
40
0.9823179613
40
1.0000000000
40
1.0000000000
40
1.0000000000
40
1.0000000000
10
5.5370163229
20
31.6205933053
30
0.0000000000
10
5.5448205357
20
31.6175179421
30
0.0000000000
10
5.5772916736
20
31.6219780705
30
0.0000000000
10
5.6431320508
20
31.6162954143
30
0.0000000000
10
5.7487067215
20
31.6179339062
30
0.0000000000
10
5.8843035103
20
31.6162580676
30
0.0000000000
10
6.0418227758
20
31.6161769473
30
0.0000000000
10
6.2102309396
20
31.6158808785
30
0.0000000000
10
6.3783269006
20
31.6162554444
30
0.0000000000
10
6.5353547621
20
31.6160415679
30
0.0000000000
10
6.6694166026
20
31.6186355102
30
0.0000000000
10
6.7751365295
20
31.6147333887
30
0.0000000000
10
6.8371187184
20
31.6246125013
30
0.0000000000
10
6.8713570806
20
31.6157088591
30
0.0000000000
10
6.8775357900
20
31.6206341408
30
0.0000000000
11
5.5370163229
21
31.6205933053
31
0.0000000000
11
5.5621530545
21
31.6194028920
31
0.0000000000
11
5.6305578563
21
31.6182893712
31
0.0000000000
11
5.7379814219
21
31.6173331415
31
0.0000000000
11
5.8770478593
21
31.6166023017
31
0.0000000000
11
6.0380674350
21
31.6161466455
31
0.0000000000
11
6.2103095390
21
31.6159952166
31
0.0000000000
11
6.3822798756
21
31.6161575535
31
0.0000000000
11
6.5425732604
21
31.6166228795
31
0.0000000000
11
6.6806028922
21
31.6173615481
31
0.0000000000
11
6.7868069044
21
31.6183238184
31
0.0000000000
11
6.8538610877
21
31.6194416118
31
0.0000000000
11
6.8775357900
21
31.6206341408
31
0.0000000000
0
SPLINE
5
5C0
100
AcDbEntity
8
0
100
AcDbSpline
62
9
6
CONTINUOUS
70
0
71
3
72
19
73
15
74
13
42
0.0000001000
43
0.0000001000
44
0.0000000001
12
1.2472827388
22
0.4914478337
32
0.0000000000
13
1.0571246325
23
-0.8244529793
33
0.0000000000
40
0.0000000000
40
0.0000000000
40
0.0000000000
40
0.0000000000
40
0.0187811648
40
0.0698234333
40
0.1499512062
40
0.2536551565
40
0.3737159983
40
0.5021848262
40
0.6304896481
40
0.7500988022
40
0.8530985009
40
0.9323254209
40
0.9823292713
40
1.0000000000
40
1.0000000000
40
1.0000000000
40
1.0000000000
10
5.5370163229
20
-16.2943293005
30
0.0000000000
10
5.5448247971
20
-16.2912526463
30
0.0000000000
10
5.5773051753
20
-16.2957142204
30
0.0000000000
10
5.6431522255
20
-16.2900316005
30
0.0000000000
10
5.7487147442
20
-16.2916694727
30
0.0000000000
10
5.8842733531
20
-16.2899944540
30
0.0000000000
10
6.0417517691
20
-16.2899128826
30
0.0000000000
10
6.2101443822
20
-16.2896175255
30
0.0000000000
10
6.3782680465
20
-16.2899889486
30
0.0000000000
10
6.5353354057
20
-16.2897850007
30
0.0000000000
10
6.6694573899
20
-16.2923498481
30
0.0000000000
10
6.7751268811
20
-16.2885230002
30
0.0000000000
10
6.8372093448
20
-16.2982570256
30
0.0000000000
10
6.8713090692
20
-16.2895139077
30
0.0000000000
10
6.8775357900
20
-16.2943701360
30
0.0000000000
11
5.5370163229
21
-16.2943293005
31
0.0000000000
11
5.5621663681
21
-16.2931385598
31
0.0000000000
11
5.6305850838
21
-16.2920250482
31
0.0000000000
11
5.7380009239
21
-16.2910690085
31
0.0000000000
11
5.8770255581
21
-16.2903383910
31
0.0000000000
11
6.0379796799
21
-16.2898828023
31
0.0000000000
11
6.2102062101
21
-16.2897312035
31
0.0000000000
11
6.3822128623
21
-16.2898934095
31
0.0000000000
11
6.5425614165
21
-16.2903588051
31
0.0000000000
11
6.6806418664
21
-16.2910977858
31
0.0000000000
11
6.7868499075
21
-16.2920602763
31
0.0000000000
11
6.8538762519
21
-16.2931779504
31
0.0000000000
11
6.8775357900
21
-16.2943701360
31
0.0000000000
0
SPLINE
5
5C1
100
AcDbEntity
8
0
100
AcDbSpline
62
9
6
CONTINUOUS
70
0
71
3
72
19
73
15
74
13
42
0.0000001000
43
0.0000001000
44
0.0000000001
12
1.0571238143
22
0.8244540285
32
0.0000000000
13
1.2472827653
23
-0.4914477664
33
0.0000000000
40
0.0000000000
40
0.0000000000
40
0.0000000000
40
0.0000000000
40
0.0176707280
40
0.0676745790
40
0.1469014991
40
0.2499011978
40
0.3695103519
40
0.4978151738
40
0.6262840017
40
0.7463448435
40
0.8500487938
40
0.9301765666
40
0.9812188346
40
1.0000000000
40
1.0000000000
40
1.0000000000
40
1.0000000000
10
28.2837699920
20
-16.2943701360
30
0.0000000000
10
28.2899967077
20
-16.2895139017
30
0.0000000000
10
28.3240964435
20
-16.2982570340
30
0.0000000000
10
28.3861788967
20
-16.2885229952
30
0.0000000000
10
28.4918483937
20
-16.2923498502
30
0.0000000000
10
28.6259703757
20
-16.2897850000
30
0.0000000000
10
28.7830377357
20
-16.2899889488
30
0.0000000000
10
28.9511613998
20
-16.2896175254
30
0.0000000000
10
29.1195540129
20
-16.2899128826
30
0.0000000000
10
29.2770324289
20
-16.2899944540
30
0.0000000000
10
29.4125910379
20
-16.2916694726
30
0.0000000000
10
29.5181535560
20
-16.2900316008
30
0.0000000000
10
29.5840006066
20
-16.2957142199
30
0.0000000000
10
29.6164809844
20
-16.2912526466
30
0.0000000000
10
29.6242894591
20
-16.2943293005
30
0.0000000000
11
28.2837699920
21
-16.2943701360
31
0.0000000000
11
28.3074295292
21
-16.2931779504
31
0.0000000000
11
28.3744558745
21
-16.2920602763
31
0.0000000000
11
28.4806639157
21
-16.2910977858
31
0.0000000000
11
28.6187443655
21
-16.2903588051
31
0.0000000000
11
28.7790929197
21
-16.2898934095
31
0.0000000000
11
28.9510995719
21
-16.2897312035
31
0.0000000000
11
29.1233261021
21
-16.2898828023
31
0.0000000000
11
29.2842802238
21
-16.2903383910
31
0.0000000000
11
29.4233048581
21
-16.2910690085
31
0.0000000000
11
29.5307206981
21
-16.2920250482
31
0.0000000000
11
29.5991394130
21
-16.2931385598
31
0.0000000000
11
29.6242894591
21
-16.2943293005
31
0.0000000000
0
SPLINE
5
5C2
100
AcDbEntity
8
0
100
AcDbSpline
62
9
6
CONTINUOUS
70
0
71
3
72
16
73
12
74
10
42
0.0000001000
43
0.0000001000
44
0.0000000001
12
-1.0724838292
22
0.6431672302
32
0.0000000000
13
0.0000000320
23
1.2505541371
33
0.0000000000
40
0.0000000000
40
0.0000000000
40
0.0000000000
40
0.0000000000
40
0.0109874470
40
0.0485990316
40
0.1213877688
40
0.2315655954
40
0.3740687431
40
0.5376737624
40
0.7071011272
40
0.8661215513
40
1.0000000000
40
1.0000000000
40
1.0000000000
40
1.0000000000
10
29.8057976014
20
-14.4181122399
30
0.0000000000
10
29.8018696483
20
-14.4157566512
30
0.0000000000
10
29.8047218599
20
-14.3904665881
30
0.0000000000
10
29.7957537435
20
-14.3456146746
30
0.0000000000
10
29.7962216984
20
-14.2499812939
30
0.0000000000
10
29.7910370164
20
-14.1161670290
30
0.0000000000
10
29.7889092928
20
-13.9419447583
30
0.0000000000
10
29.7864615553
20
-13.7439662374
30
0.0000000000
10
29.7850916658
20
-13.5387898813
30
0.0000000000
10
29.7843461230
20
-13.3460867438
30
0.0000000000
10
29.7842072509
20
-13.2239881941
30
0.0000000000
10
29.7842072523
20
-13.1681807782
30
0.0000000000
11
29.8057976014
21
-14.4181122399
31
0.0000000000
11
29.8028300140
21
-14.4046961322
31
0.0000000000
11
29.7993264835
21
-14.3577914752
31
0.0000000000
11
29.7956196615
21
-14.2668407256
31
0.0000000000
11
29.7920716965
21
-14.1291030770
31
0.0000000000
11
29.7890147525
21
-13.9509213971
31
0.0000000000
11
29.7866814688
21
-13.7463377686
31
0.0000000000
11
29.7851650739
21
-13.5344651030
31
0.0000000000
11
29.7844038686
21
-13.3356029106
31
0.0000000000
11
29.7842072523
21
-13.1681807782
31
0.0000000000
0
SPLINE
5
5C3
100
AcDbEntity
8
0
100
AcDbSpline
62
9
6
CONTINUOUS
70
0
71
3
72
16
73
12
74
10
42
0.0000001000
43
0.0000001000
44
0.0000000001
12
1.2176945805
22
-0.8766620394
32
0.0000000000
13
-0.0000001409
23
-1.5004387434
33
0.0000000000
40
0.0000000000
40
0.0000000000
40
0.0000000000
40
0.0000000000
40
0.0107094701
40
0.0477432039
40
0.1197635362
40
0.2292056922
40
0.3712250549
40
0.5347650924
40
0.7046445403
40
0.8646092827
40
1.0000000000
40
1.0000000000
40
1.0000000000
40
1.0000000000
10
5.6054701044
20
29.9943625370
30
0.0000000000
10
5.6098170590
20
29.9912330083
30
0.0000000000
10
5.6057610376
20
29.9621444450
30
0.0000000000
10
5.6160610509
20
29.9081923470
30
0.0000000000
10
5.6146671403
20
29.7950548624
30
0.0000000000
10
5.6203121599
20
29.6352072887
30
0.0000000000
10
5.6222660097
20
29.4269111995
30
0.0000000000
10
5.6247912658
20
29.1893833335
30
0.0000000000
10
5.6261580788
20
28.9425506496
30
0.0000000000
10
5.6269197235
20
28.7098843496
30
0.0000000000
10
5.6270604598
20
28.5621599422
30
0.0000000000
10
5.6270604535
20
28.4944447829
30
0.0000000000
11
5.6054701044
21
29.9943625370
31
0.0000000000
11
5.6084081034
21
29.9785645044
31
0.0000000000
11
5.6118902709
21
29.9231068700
31
0.0000000000
11
5.6155870431
21
29.8151080244
31
0.0000000000
11
5.6191367000
21
29.6509351432
31
0.0000000000
11
5.6222045165
21
29.4378658735
31
0.0000000000
11
5.6245537562
21
29.1924953110
31
0.0000000000
11
5.6260864016
21
28.9376062136
31
0.0000000000
11
5.6268594014
21
28.6975901612
31
0.0000000000
11
5.6270604535
21
28.4944447829
31
0.0000000000
0
SPLINE
5
5C4
100
AcDbEntity
8
0
100
AcDbSpline
62
9
6
CONTINUOUS
70
0
71
3
72
16
73
12
74
10
42
0.0000001000
43
0.0000001000
44
0.0000000001
12
0.0000000052
22
-1.2505539817
32
0.0000000000
13
-1.0725087824
23
-0.6431253165
33
0.0000000000
40
0.0000000000
40
0.0000000000
40
0.0000000000
40
0.0000000000
40
0.1340749745
40
0.2931391110
40
0.4625038121
40
0.6259980284
40
0.7684011633
40
0.8785304791
40
0.9513301622
40
0.9889849674
40
1.0000000000
40
1.0000000000
40
1.0000000000
40
1.0000000000
10
5.3770985297
20
-13.1681807782
30
0.0000000000
10
5.3770985299
20
-13.2240701092
30
0.0000000000
10
5.3769593458
20
-13.3462687923
30
0.0000000000
10
5.3762127277
20
-13.5390459211
30
0.0000000000
10
5.3748422895
20
-13.7441681099
30
0.0000000000
10
5.3723951706
20
-13.9420328704
30
0.0000000000
10
5.3702687068
20
-14.1161462127
30
0.0000000000
10
5.3650860301
20
-14.2499045635
30
0.0000000000
10
5.3655579527
20
-14.3455401173
30
0.0000000000
10
5.3565799595
20
-14.3904206649
30
0.0000000000
10
5.3594460870
20
-14.4157508911
30
0.0000000000
10
5.3555081806
20
-14.4181122399
30
0.0000000000
11
5.3770985297
21
-13.1681807782
31
0.0000000000
11
5.3769013341
21
-13.3358486553
31
0.0000000000
11
5.3761390998
21
-13.5347654842
31
0.0000000000
11
5.3746222921
21
-13.7465597541
31
0.0000000000
11
5.3722898606
21
-13.9510047929
31
0.0000000000
11
5.3692349608
21
-14.1290613959
31
0.0000000000
11
5.3656894111
21
-14.2667384041
31
0.0000000000
11
5.3619840905
21
-14.3577029033
31
0.0000000000
11
5.3584798182
21
-14.4046616992
31
0.0000000000
11
5.3555081806
21
-14.4181122399
31
0.0000000000
0
SPLINE
5
5C5
100
AcDbEntity
8
0
100
AcDbSpline
62
7
6
CONTINUOUS
70
0
71
3
72
12
73
8
74
6
42
0.0000001000
43
0.0000001000
44
0.0000000001
12
0.1749519272
22
-0.1399553532
32
0.0000000000
13
-0.0000000000
23
-0.2236837610
33
0.0000000000
40
0.0000000000
40
0.0000000000
40
0.0000000000
40
0.0000000000
40
0.1235311801
40
0.3426483270
40
0.5617654708
40
0.7808827885
40
1.0000000000
40
1.0000000000
40
1.0000000000
40
1.0000000000
10
7.1653498206
20
31.5455164698
30
0.0000000000
10
7.1725538266
20
31.5397535198
30
0.0000000000
10
7.1916525296
20
31.5226641283
30
0.0000000000
10
7.2183966709
20
31.4900784707
30
0.0000000000
10
7.2416508447
20
31.4465705524
30
0.0000000000
10
7.2559710617
20
31.3993813271
30
0.0000000000
10
7.2591947011
20
31.3666154591
30
0.0000000000
10
7.2591947011
20
31.3502778051
30
0.0000000000
11
7.1653498206
21
31.5455164698
31
0.0000000000
11
7.1859625862
21
31.5270692912
31
0.0000000000
11
7.2170565770
21
31.4891821857
31
0.0000000000
11
7.2401618465
21
31.4459570139
31
0.0000000000
11
7.2543902698
21
31.3990547247
31
0.0000000000
11
7.2591947011
21
31.3502778051
31
0.0000000000
0
SPLINE
5
5C6
100
AcDbEntity
8
0
100
AcDbSpline
62
7
6
CONTINUOUS
70
0
71
3
72
9
73
5
74
3
42
0.0000001000
43
0.0000001000
44
0.0000000001
12
-0.1316619659
22
-0.1052813196
32
0.0000000000
13
-0.1675865957
23
0.0000000000
33
0.0000000000
40
0.0000000000
40
0.0000000000
40
0.0000000000
40
0.0000000000
40
0.4178844987
40
1.0000000000
40
1.0000000000
40
1.0000000000
40
1.0000000000
10
7.0868008979
20
-16.2820844022
30
0.0000000000
10
7.0684610664
20
-16.2967495460
30
0.0000000000
10
7.0196209592
20
-16.3256959103
30
0.0000000000
10
6.9631463920
20
-16.3368679976
30
0.0000000000
10
6.9306281403
20
-16.3368679976
30
0.0000000000
11
7.0868008979
21
-16.2820844022
31
0.0000000000
11
7.0263088327
21
-16.3178381431
31
0.0000000000
11
6.9306281403
21
-16.3368679976
31
0.0000000000
0
SPLINE
5
5C7
100
AcDbEntity
8
0
100
AcDbSpline
62
7
6
CONTINUOUS
70
0
71
3
72
12
73
8
74
6
42
0.0000001000
43
0.0000001000
44
0.0000000001
12
-0.1749519272
22
0.1399553532
32
0.0000000000
13
0.0000000000
23
0.2236837610
33
0.0000000000
40
0.0000000000
40
0.0000000000
40
0.0000000000
40
0.0000000000
40
0.1235311801
40
0.3426483270
40
0.5617654708
40
0.7808827885
40
1.0000000000
40
1.0000000000
40
1.0000000000
40
1.0000000000
10
27.9959559614
20
-16.2192524650
30
0.0000000000
10
27.9887519554
20
-16.2134895150
30
0.0000000000
10
27.9696532524
20
-16.1964001235
30
0.0000000000
10
27.9429091111
20
-16.1638144659
30
0.0000000000
10
27.9196549373
20
-16.1203065476
30
0.0000000000
10
27.9053347203
20
-16.0731173223
30
0.0000000000
10
27.9021110809
20
-16.0403514543
30
0.0000000000
10
27.9021110809
20
-16.0240138003
30
0.0000000000
11
27.9959559614
21
-16.2192524650
31
0.0000000000
11
27.9753431958
21
-16.2008052864
31
0.0000000000
11
27.9442492050
21
-16.1629181810
31
0.0000000000
11
27.9211439355
21
-16.1196930092
31
0.0000000000
11
27.9069155122
21
-16.0727907199
31
0.0000000000
11
27.9021110809
21
-16.0240138003
31
0.0000000000
0
SPLINE
5
5C8
100
AcDbEntity
8
0
100
AcDbSpline
62
7
6
CONTINUOUS
70
0
71
3
72
9
73
5
74
3
42
0.0000001000
43
0.0000001000
44
0.0000000001
12
0.1316382222
22
-0.1052596914
32
0.0000000000
13
0.1675559903
23
0.0000000000
33
0.0000000000
40
0.0000000000
40
0.0000000000
40
0.0000000000
40
0.0000000000
40
0.4179197340
40
1.0000000000
40
1.0000000000
40
1.0000000000
40
1.0000000000
10
28.0745054565
20
-16.2820845364
30
0.0000000000
10
28.0928435268
20
-16.2967479038
30
0.0000000000
10
28.1416742908
20
-16.3256889989
30
0.0000000000
10
28.1981368343
20
-16.3368679976
30
0.0000000000
10
28.2306471795
20
-16.3368679976
30
0.0000000000
11
28.0745054565
21
-16.2820845364
31
0.0000000000
11
28.1349911496
21
-16.3178357406
31
0.0000000000
11
28.2306471795
21
-16.3368679976
31
0.0000000000
0
SPLINE
5
5C9
100
AcDbEntity
8
0
100
AcDbSpline
62
7
6
CONTINUOUS
70
0
71
3
72
12
73
8
74
6
42
0.0000001000
43
0.0000001000
44
0.0000000001
12
0.0000000000
22
0.2236837612
32
0.0000000000
13
0.1749519275
23
0.1399553532
33
0.0000000000
40
0.0000000000
40
0.0000000000
40
0.0000000000
40
0.0000000000
40
0.2191172168
40
0.4382345463
40
0.6573517021
40
0.8764688540
40
1.0000000000
40
1.0000000000
40
1.0000000000
40
1.0000000000
10
27.9021110809
20
31.3502778051
30
0.0000000000
10
27.9021110809
20
31.3666154595
30
0.0000000000
10
27.9053347205
20
31.3993813288
30
0.0000000000
10
27.9196549387
20
31.4465705561
30
0.0000000000
10
27.9429091145
20
31.4900784759
30
0.0000000000
10
27.9696532559
20
31.5226641318
30
0.0000000000
10
27.9887519576
20
31.5397535215
30
0.0000000000
10
27.9959559616
20
31.5455164699
30
0.0000000000
11
27.9021110809
21
31.3502778051
31
0.0000000000
11
27.9069155124
21
31.3990547259
31
0.0000000000
11
27.9211439370
21
31.4459570176
31
0.0000000000
11
27.9442492087
21
31.4891821913
31
0.0000000000
11
27.9753432013
21
31.5270692967
31
0.0000000000
11
27.9959559616
21
31.5455164699
31
0.0000000000
0
SPLINE
5
5CA
100
AcDbEntity
8
0
100
AcDbSpline
62
7
6
CONTINUOUS
70
0
71
3
72
9
73
5
74
3
42
0.0000001000
43
0.0000001000
44
0.0000000001
12
-0.1675559903
22
0.0000000000
32
0.0000000000
13
-0.1316382222
23
-0.1052596914
33
0.0000000000
40
0.0000000000
40
0.0000000000
40
0.0000000000
40
0.0000000000
40
0.5820802660
40
1.0000000000
40
1.0000000000
40
1.0000000000
40
1.0000000000
10
28.2306471795
20
31.6631320024
30
0.0000000000
10
28.1981368343
20
31.6631320024
30
0.0000000000
10
28.1416742908
20
31.6519530037
30
0.0000000000
10
28.0928435268
20
31.6230119086
30
0.0000000000
10
28.0745054565
20
31.6083485412
30
0.0000000000
11
28.2306471795
21
31.6631320024
31
0.0000000000
11
28.1349911496
21
31.6440997454
31
0.0000000000
11
28.0745054565
21
31.6083485412
31
0.0000000000
0
SPLINE
5
5CB
100
AcDbEntity
8
0
100
AcDbSpline
62
7
6
CONTINUOUS
70
0
71
3
72
11
73
7
74
5
42
0.0000001000
43
0.0000001000
44
0.0000000001
12
0.3901697090
22
0.0000000000
32
0.0000000000
13
-0.0000000000
23
-0.3901697090
33
0.0000000000
40
0.0000000000
40
0.0000000000
40
0.0000000000
40
0.0000000000
40
0.2499979982
40
0.4999986853
40
0.7499986747
40
1.0000000000
40
1.0000000000
40
1.0000000000
40
1.0000000000
10
29.7306452736
20
31.6631320024
30
0.0000000000
10
29.7631591556
20
31.6631320024
30
0.0000000000
10
29.8288989028
20
31.6501271167
30
0.0000000000
10
29.9119991410
20
31.5945013329
30
0.0000000000
10
29.9676422046
20
31.5114112356
30
0.0000000000
10
29.9806528910
20
31.4456706854
30
0.0000000000
10
29.9806528910
20
31.4131563706
30
0.0000000000
11
29.7306452736
21
31.6631320024
31
0.0000000000
11
29.8263136680
21
31.6441075169
31
0.0000000000
11
29.9074229543
21
31.5899239299
31
0.0000000000
11
29.9616209657
21
31.5088246089
31
0.0000000000
11
29.9806528910
21
31.4131563706
31
0.0000000000
0
SPLINE
5
5CC
100
AcDbEntity
8
0
100
AcDbSpline
62
7
6
CONTINUOUS
70
0
71
3
72
11
73
7
74
5
42
0.0000001000
43
0.0000001000
44
0.0000000001
12
-0.3901697090
22
0.0000000000
32
0.0000000000
13
-0.0000000000
23
-0.3901697090
33
0.0000000000
40
0.0000000000
40
0.0000000000
40
0.0000000000
40
0.0000000000
40
0.2499979982
40
0.4999986853
40
0.7499986747
40
1.0000000000
40
1.0000000000
40
1.0000000000
40
1.0000000000
10
5.4306605084
20
31.6631320024
30
0.0000000000
10
5.3981466264
20
31.6631320024
30
0.0000000000
10
5.3324068792
20
31.6501271167
30
0.0000000000
10
5.2493066410
20
31.5945013329
30
0.0000000000
10
5.1936635775
20
31.5114112356
30
0.0000000000
10
5.1806528910
20
31.4456706854
30
0.0000000000
10
5.1806528910
20
31.4131563706
30
0.0000000000
11
5.4306605084
21
31.6631320024
31
0.0000000000
11
5.3349921140
21
31.6441075169
31
0.0000000000
11
5.2538828277
21
31.5899239299
31
0.0000000000
11
5.1996848163
21
31.5088246089
31
0.0000000000
11
5.1806528910
21
31.4131563706
31
0.0000000000
0
SPLINE
5
5CD
100
AcDbEntity
8
0
100
AcDbSpline
62
7
6
CONTINUOUS
70
0
71
3
72
9
73
5
74
3
42
0.0000001000
43
0.0000001000
44
0.0000000001
12
0.1675865957
22
0.0000000000
32
0.0000000000
13
0.1316619659
23
-0.1052813196
33
0.0000000000
40
0.0000000000
40
0.0000000000
40
0.0000000000
40
0.0000000000
40
0.5821155013
40
1.0000000000
40
1.0000000000
40
1.0000000000
40
1.0000000000
10
6.9306281403
20
31.6631320024
30
0.0000000000
10
6.9631463920
20
31.6631320024
30
0.0000000000
10
7.0196209592
20
31.6519599151
30
0.0000000000
10
7.0684610664
20
31.6230135508
30
0.0000000000
10
7.0868008979
20
31.6083484069
30
0.0000000000
11
6.9306281403
21
31.6631320024
31
0.0000000000
11
7.0263088327
21
31.6441021479
31
0.0000000000
11
7.0868008979
21
31.6083484069
31
0.0000000000
0
SPLINE
5
5CE
100
AcDbEntity
8
0
100
AcDbSpline
62
7
6
CONTINUOUS
70
0
71
3
72
12
73
8
74
6
42
0.0000001000
43
0.0000001000
44
0.0000000001
12
0.0000000000
22
-0.2236837612
32
0.0000000000
13
-0.1749519275
23
-0.1399553532
33
0.0000000000
40
0.0000000000
40
0.0000000000
40
0.0000000000
40
0.0000000000
40
0.2191172168
40
0.4382345463
40
0.6573517021
40
0.8764688540
40
1.0000000000
40
1.0000000000
40
1.0000000000
40
1.0000000000
10
7.2591947011
20
-16.0240138003
30
0.0000000000
10
7.2591947011
20
-16.0403514547
30
0.0000000000
10
7.2559710615
20
-16.0731173241
30
0.0000000000
10
7.2416508433
20
-16.1203065514
30
0.0000000000
10
7.2183966675
20
-16.1638144711
30
0.0000000000
10
7.1916525261
20
-16.1964001270
30
0.0000000000
10
7.1725538244
20
-16.2134895167
30
0.0000000000
10
7.1653498204
20
-16.2192524651
30
0.0000000000
11
7.2591947011
21
-16.0240138003
31
0.0000000000
11
7.2543902696
21
-16.0727907211
31
0.0000000000
11
7.2401618450
21
-16.1196930128
31
0.0000000000
11
7.2170565733
21
-16.1629181865
31
0.0000000000
11
7.1859625807
21
-16.2008052920
31
0.0000000000
11
7.1653498204
21
-16.2192524651
31
0.0000000000
0
SPLINE
5
5CF
100
AcDbEntity
8
0
100
AcDbSpline
62
7
6
CONTINUOUS
70
0
71
3
72
11
73
7
74
5
42
0.0000001000
43
0.0000001000
44
0.0000000001
12
0.0000000000
22
-0.3901697090
32
0.0000000000
13
0.3901697090
23
0.0000000000
33
0.0000000000
40
0.0000000000
40
0.0000000000
40
0.0000000000
40
0.0000000000
40
0.2500013253
40
0.5000013147
40
0.7500020018
40
1.0000000000
40
1.0000000000
40
1.0000000000
40
1.0000000000
10
5.1806528910
20
-16.0868923658
30
0.0000000000
10
5.1806528910
20
-16.1194066806
30
0.0000000000
10
5.1936635775
20
-16.1851472308
30
0.0000000000
10
5.2493066410
20
-16.2682373281
30
0.0000000000
10
5.3324068792
20
-16.3238631119
30
0.0000000000
10
5.3981466264
20
-16.3368679976
30
0.0000000000
10
5.4306605084
20
-16.3368679976
30
0.0000000000
11
5.1806528910
21
-16.0868923658
31
0.0000000000
11
5.1996848163
21
-16.1825606041
31
0.0000000000
11
5.2538828277
21
-16.2636599251
31
0.0000000000
11
5.3349921140
21
-16.3178435121
31
0.0000000000
11
5.4306605084
21
-16.3368679976
31
0.0000000000
0
SPLINE
5
5D0
100
AcDbEntity
8
0
100
AcDbSpline
62
7
6
CONTINUOUS
70
0
71
3
72
11
73
7
74
5
42
0.0000001000
43
0.0000001000
44
0.0000000001
12
0.0000000000
22
-0.3901697090
32
0.0000000000
13
-0.3901697090
23
0.0000000000
33
0.0000000000
40
0.0000000000
40
0.0000000000
40
0.0000000000
40
0.0000000000
40
0.2500013253
40
0.5000013147
40
0.7500020018
40
1.0000000000
40
1.0000000000
40
1.0000000000
40
1.0000000000
10
29.9806528910
20
-16.0868923658
30
0.0000000000
10
29.9806528910
20
-16.1194066806
30
0.0000000000
10
29.9676422046
20
-16.1851472308
30
0.0000000000
10
29.9119991410
20
-16.2682373281
30
0.0000000000
10
29.8288989028
20
-16.3238631119
30
0.0000000000
10
29.7631591556
20
-16.3368679976
30
0.0000000000
10
29.7306452736
20
-16.3368679976
30
0.0000000000
11
29.9806528910
21
-16.0868923658
31
0.0000000000
11
29.9616209657
21
-16.1825606041
31
0.0000000000
11
29.9074229543
21
-16.2636599251
31
0.0000000000
11
29.8263136680
21
-16.3178435121
31
0.0000000000
11
29.7306452736
21
-16.3368679976
31
0.0000000000
0
SPLINE
5
5D1
100
AcDbEntity
8
0
100
AcDbSpline
62
7
6
CONTINUOUS
70
0
71
3
72
16
73
12
74
10
42
0.0000001000
43
0.0000001000
44
0.0000000001
12
1.0112942254
22
1.2135666256
32
0.0000000000
13
1.5796112016
23
-0.0169828386
33
0.0000000000
40
0.0000000000
40
0.0000000000
40
0.0000000000
40
0.0000000000
40
0.0212920193
40
0.0811665261
40
0.1747373785
40
0.2970070710
40
0.4377997429
40
0.5895289355
40
0.7403967187
40
0.8800879988
40
1.0000000000
40
1.0000000000
40
1.0000000000
40
1.0000000000
10
28.0337795112
20
-14.7092339555
30
0.0000000000
10
28.0409570099
20
-14.7006208608
30
0.0000000000
10
28.0929374265
20
-14.7152203767
30
0.0000000000
10
28.1764770208
20
-14.6984081115
30
0.0000000000
10
28.3261116844
20
-14.7044788620
30
0.0000000000
10
28.5121157026
20
-14.6999340519
30
0.0000000000
10
28.7311304447
20
-14.7001077996
30
0.0000000000
10
28.9644246256
20
-14.6995055946
30
0.0000000000
10
29.1973679742
20
-14.6999300743
30
0.0000000000
10
29.4134949949
20
-14.7008442164
30
0.0000000000
10
29.5501923134
20
-14.7019143245
30
0.0000000000
10
29.6133304269
20
-14.7025931398
30
0.0000000000
11
28.0337795112
21
-14.7092339555
31
0.0000000000
11
28.0673218636
21
-14.7067384432
31
0.0000000000
11
28.1618771672
21
-14.7044124676
31
0.0000000000
11
28.3096780728
21
-14.7024368611
31
0.0000000000
11
28.5028218399
21
-14.7009181313
31
0.0000000000
11
28.7252304080
21
-14.6999827968
31
0.0000000000
11
28.9649172013
21
-14.6996807733
31
0.0000000000
11
29.2032431437
21
-14.7000400770
31
0.0000000000
11
29.4239115834
21
-14.7010307103
31
0.0000000000
11
29.6133304269
21
-14.7025931398
31
0.0000000000
0
SPLINE
5
5D2
100
AcDbEntity
8
0
100
AcDbSpline
62
7
6
CONTINUOUS
70
0
71
3
72
16
73
12
74
10
42
0.0000001000
43
0.0000001000
44
0.0000000001
12
1.5796112016
22
0.0169828386
32
0.0000000000
13
1.0112942254
23
-1.2135666256
33
0.0000000000
40
0.0000000000
40
0.0000000000
40
0.0000000000
40
0.0000000000
40
0.1199120012
40
0.2596032813
40
0.4104710645
40
0.5622002571
40
0.7029929290
40
0.8252626215
40
0.9188334739
40
0.9787079807
40
1.0000000000
40
1.0000000000
40
1.0000000000
40
1.0000000000
10
5.5479753551
20
-14.7025931398
30
0.0000000000
10
5.6111134686
20
-14.7019143245
30
0.0000000000
10
5.7478107871
20
-14.7008442164
30
0.0000000000
10
5.9639378078
20
-14.6999300743
30
0.0000000000
10
6.1968811564
20
-14.6995055946
30
0.0000000000
10
6.4301753373
20
-14.7001077996
30
0.0000000000
10
6.6491900794
20
-14.6999340519
30
0.0000000000
10
6.8351940976
20
-14.7044788620
30
0.0000000000
10
6.9848287612
20
-14.6984081115
30
0.0000000000
10
7.0683683555
20
-14.7152203767
30
0.0000000000
10
7.1203487721
20
-14.7006208608
30
0.0000000000
10
7.1275262708
20
-14.7092339555
30
0.0000000000
11
5.5479753551
21
-14.7025931398
31
0.0000000000
11
5.7373941986
21
-14.7010307103
31
0.0000000000
11
5.9580626383
21
-14.7000400770
31
0.0000000000
11
6.1963885807
21
-14.6996807733
31
0.0000000000
11
6.4360753740
21
-14.6999827968
31
0.0000000000
11
6.6584839421
21
-14.7009181313
31
0.0000000000
11
6.8516277092
21
-14.7024368611
31
0.0000000000
11
6.9994286148
21
-14.7044124676
31
0.0000000000
11
7.0939839184
21
-14.7067384432
31
0.0000000000
11
7.1275262708
21
-14.7092339555
31
0.0000000000
0
SPLINE
5
5D3
100
AcDbEntity
8
0
100
AcDbSpline
62
7
6
CONTINUOUS
70
0
71
3
72
16
73
12
74
10
42
0.0000001000
43
0.0000001000
44
0.0000000001
12
-1.0112942254
22
-1.2135666256
32
0.0000000000
13
-1.5796112016
23
0.0169828386
33
0.0000000000
40
0.0000000000
40
0.0000000000
40
0.0000000000
40
0.0000000000
40
0.0212920193
40
0.0811665261
40
0.1747373785
40
0.2970070710
40
0.4377997429
40
0.5895289355
40
0.7403967187
40
0.8800879988
40
1.0000000000
40
1.0000000000
40
1.0000000000
40
1.0000000000
10
7.1275262708
20
30.0354979603
30
0.0000000000
10
7.1203487721
20
30.0268848656
30
0.0000000000
10
7.0683683555
20
30.0414843815
30
0.0000000000
10
6.9848287612
20
30.0246721163
30
0.0000000000
10
6.8351940976
20
30.0307428668
30
0.0000000000
10
6.6491900794
20
30.0261980567
30
0.0000000000
10
6.4301753373
20
30.0263718044
30
0.0000000000
10
6.1968811564
20
30.0257695994
30
0.0000000000
10
5.9639378078
20
30.0261940791
30
0.0000000000
10
5.7478107871
20
30.0271082211
30
0.0000000000
10
5.6111134686
20
30.0281783292
30
0.0000000000
10
5.5479753551
20
30.0288571446
30
0.0000000000
11
7.1275262708
21
30.0354979603
31
0.0000000000
11
7.0939839184
21
30.0330024480
31
0.0000000000
11
6.9994286148
21
30.0306764724
31
0.0000000000
11
6.8516277092
21
30.0287008659
31
0.0000000000
11
6.6584839421
21
30.0271821361
31
0.0000000000
11
6.4360753740
21
30.0262468016
31
0.0000000000
11
6.1963885807
21
30.0259447781
31
0.0000000000
11
5.9580626383
21
30.0263040818
31
0.0000000000
11
5.7373941986
21
30.0272947151
31
0.0000000000
11
5.5479753551
21
30.0288571446
31
0.0000000000
0
SPLINE
5
5D4
100
AcDbEntity
8
0
100
AcDbSpline
62
7
6
CONTINUOUS
70
0
71
3
72
16
73
12
74
10
42
0.0000001000
43
0.0000001000
44
0.0000000001
12
-1.5796112016
22
-0.0169828386
32
0.0000000000
13
-1.0112942254
23
1.2135666256
33
0.0000000000
40
0.0000000000
40
0.0000000000
40
0.0000000000
40
0.0000000000
40
0.1199120012
40
0.2596032813
40
0.4104710645
40
0.5622002571
40
0.7029929290
40
0.8252626215
40
0.9188334739
40
0.9787079807
40
1.0000000000
40
1.0000000000
40
1.0000000000
40
1.0000000000
10
29.6133304269
20
30.0288571446
30
0.0000000000
10
29.5501923134
20
30.0281783292
30
0.0000000000
10
29.4134949949
20
30.0271082211
30
0.0000000000
10
29.1973679742
20
30.0261940791
30
0.0000000000
10
28.9644246256
20
30.0257695994
30
0.0000000000
10
28.7311304447
20
30.0263718044
30
0.0000000000
10
28.5121157026
20
30.0261980567
30
0.0000000000
10
28.3261116844
20
30.0307428668
30
0.0000000000
10
28.1764770208
20
30.0246721163
30
0.0000000000
10
28.0929374265
20
30.0414843815
30
0.0000000000
10
28.0409570099
20
30.0268848656
30
0.0000000000
10
28.0337795112
20
30.0354979603
30
0.0000000000
11
29.6133304269
21
30.0288571446
31
0.0000000000
11
29.4239115834
21
30.0272947151
31
0.0000000000
11
29.2032431437
21
30.0263040818
31
0.0000000000
11
28.9649172013
21
30.0259447781
31
0.0000000000
11
28.7252304080
21
30.0262468016
31
0.0000000000
11
28.5028218399
21
30.0271821361
31
0.0000000000
11
28.3096780728
21
30.0287008659
31
0.0000000000
11
28.1618771672
21
30.0306764724
31
0.0000000000
11
28.0673218636
21
30.0330024480
31
0.0000000000
11
28.0337795112
21
30.0354979603
31
0.0000000000
0
SPLINE
5
5D5
100
AcDbEntity
8
0
100
AcDbSpline
62
7
6
CONTINUOUS
70
0
71
3
72
14
73
10
74
8
42
0.0000001000
43
0.0000001000
44
0.0000000001
12
-0.4999809615
22
0.4999809615
32
0.0000000000
13
-0.4999809615
23
0.4999809615
33
0.0000000000
40
0.0000000000
40
0.0000000000
40
0.0000000000
40
0.0000000000
40
0.1854507839
40
0.3721253642
40
0.5519494232
40
0.7167843406
40
0.8569246016
40
0.9584719540
40
1.0000000000
40
1.0000000000
40
1.0000000000
40
1.0000000000
10
20.5893987980
20
1.0043860954
30
0.0000000000
10
20.5584915109
20
1.0352933825
30
0.0000000000
10
20.4964729784
20
1.0973119150
30
0.0000000000
10
20.4044849107
20
1.1892999827
30
0.0000000000
10
20.3159326898
20
1.2778522036
30
0.0000000000
10
20.2351358935
20
1.3586489999
30
0.0000000000
10
20.1673847182
20
1.4264001752
30
0.0000000000
10
20.1201839057
20
1.4736009877
30
0.0000000000
10
20.0963389139
20
1.4974459795
30
0.0000000000
10
20.0894178365
20
1.5043670569
30
0.0000000000
11
20.5893987980
21
1.0043860954
31
0.0000000000
11
20.4966769367
21
1.0971079567
31
0.0000000000
11
20.4033432006
21
1.1904416928
31
0.0000000000
11
20.3134345947
21
1.2803502987
31
0.0000000000
11
20.2310202742
21
1.3627646192
31
0.0000000000
11
20.1609528117
21
1.4328320817
31
0.0000000000
11
20.1101810688
21
1.4836038246
31
0.0000000000
11
20.0894178365
21
1.5043670569
31
0.0000000000
0
SPLINE
5
5D6
100
AcDbEntity
8
0
100
AcDbSpline
62
7
6
CONTINUOUS
70
0
71
3
72
14
73
10
74
8
42
0.0000001000
43
0.0000001000
44
0.0000000001
12
-0.4999809615
22
0.4999809615
32
0.0000000000
13
-0.4999809615
23
0.4999809615
33
0.0000000000
40
0.0000000000
40
0.0000000000
40
0.0000000000
40
0.0000000000
40
0.1854507839
40
0.3721253642
40
0.5519494232
40
0.7167843406
40
0.8569246016
40
0.9584719540
40
1.0000000000
40
1.0000000000
40
1.0000000000
40
1.0000000000
10
20.5893987980
20
2.3543860954
30
0.0000000000
10
20.5584915109
20
2.3852933825
30
0.0000000000
10
20.4964729784
20
2.4473119150
30
0.0000000000
10
20.4044849107
20
2.5392999827
30
0.0000000000
10
20.3159326898
20
2.6278522036
30
0.0000000000
10
20.2351358935
20
2.7086489999
30
0.0000000000
10
20.1673847182
20
2.7764001752
30
0.0000000000
10
20.1201839057
20
2.8236009877
30
0.0000000000
10
20.0963389139
20
2.8474459795
30
0.0000000000
10
20.0894178365
20
2.8543670569
30
0.0000000000
11
20.5893987980
21
2.3543860954
31
0.0000000000
11
20.4966769367
21
2.4471079567
31
0.0000000000
11
20.4033432006
21
2.5404416928
31
0.0000000000
11
20.3134345947
21
2.6303502987
31
0.0000000000
11
20.2310202742
21
2.7127646192
31
0.0000000000
11
20.1609528117
21
2.7828320817
31
0.0000000000
11
20.1101810688
21
2.8336038246
31
0.0000000000
11
20.0894178365
21
2.8543670569
31
0.0000000000
0
SPLINE
5
5D7
100
AcDbEntity
8
0
100
AcDbSpline
62
7
6
CONTINUOUS
70
0
71
3
72
14
73
10
74
8
42
0.0000001000
43
0.0000001000
44
0.0000000001
12
-0.4999809615
22
0.4999809615
32
0.0000000000
13
-0.4999809615
23
0.4999809615
33
0.0000000000
40
0.0000000000
40
0.0000000000
40
0.0000000000
40
0.0000000000
40
0.1854507839
40
0.3721253642
40
0.5519494232
40
0.7167843406
40
0.8569246016
40
0.9584719540
40
1.0000000000
40
1.0000000000
40
1.0000000000
40
1.0000000000
10
21.7393987980
20
2.3543860954
30
0.0000000000
10
21.7084915109
20
2.3852933825
30
0.0000000000
10
21.6464729784
20
2.4473119150
30
0.0000000000
10
21.5544849107
20
2.5392999827
30
0.0000000000
10
21.4659326898
20
2.6278522036
30
0.0000000000
10
21.3851358935
20
2.7086489999
30
0.0000000000
10
21.3173847182
20
2.7764001752
30
0.0000000000
10
21.2701839057
20
2.8236009877
30
0.0000000000
10
21.2463389139
20
2.8474459795
30
0.0000000000
10
21.2394178365
20
2.8543670569
30
0.0000000000
11
21.7393987980
21
2.3543860954
31
0.0000000000
11
21.6466769367
21
2.4471079567
31
0.0000000000
11
21.5533432006
21
2.5404416928
31
0.0000000000
11
21.4634345947
21
2.6303502987
31
0.0000000000
11
21.3810202742
21
2.7127646192
31
0.0000000000
11
21.3109528117
21
2.7828320817
31
0.0000000000
11
21.2601810688
21
2.8336038246
31
0.0000000000
11
21.2394178365
21
2.8543670569
31
0.0000000000
0
SPLINE
5
5D8
100
AcDbEntity
8
0
100
AcDbSpline
62
7
6
CONTINUOUS
70
0
71
3
72
14
73
10
74
8
42
0.0000001000
43
0.0000001000
44
0.0000000001
12
-0.4999809615
22
0.4999809615
32
0.0000000000
13
-0.4999809615
23
0.4999809615
33
0.0000000000
40
0.0000000000
40
0.0000000000
40
0.0000000000
40
0.0000000000
40
0.1854507839
40
0.3721253642
40
0.5519494232
40
0.7167843406
40
0.8569246016
40
0.9584719540
40
1.0000000000
40
1.0000000000
40
1.0000000000
40
1.0000000000
10
21.7393987980
20
3.9543860954
30
0.0000000000
10
21.7084915109
20
3.9852933825
30
0.0000000000
10
21.6464729784
20
4.0473119150
30
0.0000000000
10
21.5544849107
20
4.1392999827
30
0.0000000000
10
21.4659326898
20
4.2278522036
30
0.0000000000
10
21.3851358935
20
4.3086489999
30
0.0000000000
10
21.3173847182
20
4.3764001752
30
0.0000000000
10
21.2701839057
20
4.4236009877
30
0.0000000000
10
21.2463389139
20
4.4474459795
30
0.0000000000
10
21.2394178365
20
4.4543670569
30
0.0000000000
11
21.7393987980
21
3.9543860954
31
0.0000000000
11
21.6466769367
21
4.0471079567
31
0.0000000000
11
21.5533432006
21
4.1404416928
31
0.0000000000
11
21.4634345947
21
4.2303502987
31
0.0000000000
11
21.3810202742
21
4.3127646192
31
0.0000000000
11
21.3109528117
21
4.3828320817
31
0.0000000000
11
21.2601810688
21
4.4336038246
31
0.0000000000
11
21.2394178365
21
4.4543670569
31
0.0000000000
0
SPLINE
5
5D9
100
AcDbEntity
8
0
100
AcDbSpline
62
7
6
CONTINUOUS
70
0
71
3
72
14
73
10
74
8
42
0.0000001000
43
0.0000001000
44
0.0000000001
12
-0.4999809615
22
0.4999809615
32
0.0000000000
13
-0.4999809615
23
0.4999809615
33
0.0000000000
40
0.0000000000
40
0.0000000000
40
0.0000000000
40
0.0000000000
40
0.1854507839
40
0.3721253642
40
0.5519494232
40
0.7167843406
40
0.8569246016
40
0.9584719540
40
1.0000000000
40
1.0000000000
40
1.0000000000
40
1.0000000000
10
24.5393987980
20
3.9543860954
30
0.0000000000
10
24.5084915109
20
3.9852933825
30
0.0000000000
10
24.4464729784
20
4.0473119150
30
0.0000000000
10
24.3544849107
20
4.1392999827
30
0.0000000000
10
24.2659326898
20
4.2278522036
30
0.0000000000
10
24.1851358935
20
4.3086489999
30
0.0000000000
10
24.1173847182
20
4.3764001752
30
0.0000000000
10
24.0701839057
20
4.4236009877
30
0.0000000000
10
24.0463389139
20
4.4474459795
30
0.0000000000
10
24.0394178365
20
4.4543670569
30
0.0000000000
11
24.5393987980
21
3.9543860954
31
0.0000000000
11
24.4466769367
21
4.0471079567
31
0.0000000000
11
24.3533432006
21
4.1404416928
31
0.0000000000
11
24.2634345947
21
4.2303502987
31
0.0000000000
11
24.1810202742
21
4.3127646192
31
0.0000000000
11
24.1109528117
21
4.3828320817
31
0.0000000000
11
24.0601810688
21
4.4336038246
31
0.0000000000
11
24.0394178365
21
4.4543670569
31
0.0000000000
0
SPLINE
5
5DA
100
AcDbEntity
8
0
100
AcDbSpline
62
7
6
CONTINUOUS
70
0
71
3
72
14
73
10
74
8
42
0.0000001000
43
0.0000001000
44
0.0000000001
12
-0.4999809615
22
-0.4999809615
32
0.0000000000
13
-0.4999809615
23
-0.4999809615
33
0.0000000000
40
0.0000000000
40
0.0000000000
40
0.0000000000
40
0.0000000000
40
0.1854507839
40
0.3721253642
40
0.5519494232
40
0.7167843406
40
0.8569246016
40
0.9584719540
40
1.0000000000
40
1.0000000000
40
1.0000000000
40
1.0000000000
10
24.5393987980
20
12.8718779094
30
0.0000000000
10
24.5084915109
20
12.8409706223
30
0.0000000000
10
24.4464729784
20
12.7789520898
30
0.0000000000
10
24.3544849107
20
12.6869640221
30
0.0000000000
10
24.2659326898
20
12.5984118012
30
0.0000000000
10
24.1851358935
20
12.5176150049
30
0.0000000000
10
24.1173847182
20
12.4498638296
30
0.0000000000
10
24.0701839057
20
12.4026630171
30
0.0000000000
10
24.0463389139
20
12.3788180253
30
0.0000000000
10
24.0394178365
20
12.3718969478
30
0.0000000000
11
24.5393987980
21
12.8718779094
31
0.0000000000
11
24.4466769367
21
12.7791560481
31
0.0000000000
11
24.3533432006
21
12.6858223120
31
0.0000000000
11
24.2634345947
21
12.5959137060
31
0.0000000000
11
24.1810202742
21
12.5134993856
31
0.0000000000
11
24.1109528117
21
12.4434319231
31
0.0000000000
11
24.0601810688
21
12.3926601802
31
0.0000000000
11
24.0394178365
21
12.3718969478
31
0.0000000000
0
SPLINE
5
5DB
100
AcDbEntity
8
0
100
AcDbSpline
62
7
6
CONTINUOUS
70
0
71
3
72
14
73
10
74
8
42
0.0000001000
43
0.0000001000
44
0.0000000001
12
0.4999809615
22
-0.4999809615
32
0.0000000000
13
0.4999809615
23
-0.4999809615
33
0.0000000000
40
0.0000000000
40
0.0000000000
40
0.0000000000
40
0.0000000000
40
0.1854507839
40
0.3721253642
40
0.5519494232
40
0.7167843406
40
0.8569246016
40
0.9584719540
40
1.0000000000
40
1.0000000000
40
1.0000000000
40
1.0000000000
10
10.6219069840
20
12.8718779094
30
0.0000000000
10
10.6528142711
20
12.8409706223
30
0.0000000000
10
10.7148328036
20
12.7789520898
30
0.0000000000
10
10.8068208713
20
12.6869640221
30
0.0000000000
10
10.8953730922
20
12.5984118012
30
0.0000000000
10
10.9761698885
20
12.5176150049
30
0.0000000000
10
11.0439210638
20
12.4498638296
30
0.0000000000
10
11.0911218763
20
12.4026630171
30
0.0000000000
10
11.1149668681
20
12.3788180253
30
0.0000000000
10
11.1218879456
20
12.3718969478
30
0.0000000000
11
10.6219069840
21
12.8718779094
31
0.0000000000
11
10.7146288453
21
12.7791560481
31
0.0000000000
11
10.8079625814
21
12.6858223120
31
0.0000000000
11
10.8978711873
21
12.5959137060
31
0.0000000000
11
10.9802855078
21
12.5134993856
31
0.0000000000
11
11.0503529703
21
12.4434319231
31
0.0000000000
11
11.1011247132
21
12.3926601802
31
0.0000000000
11
11.1218879456
21
12.3718969478
31
0.0000000000
0
SPLINE
5
5DC
100
AcDbEntity
8
0
100
AcDbSpline
62
7
6
CONTINUOUS
70
0
71
3
72
14
73
10
74
8
42
0.0000001000
43
0.0000001000
44
0.0000000001
12
0.4999809615
22
0.4999809615
32
0.0000000000
13
0.4999809615
23
0.4999809615
33
0.0000000000
40
0.0000000000
40
0.0000000000
40
0.0000000000
40
0.0000000000
40
0.1854507839
40
0.3721253642
40
0.5519494232
40
0.7167843406
40
0.8569246016
40
0.9584719540
40
1.0000000000
40
1.0000000000
40
1.0000000000
40
1.0000000000
10
10.6219069840
20
3.9543860954
30
0.0000000000
10
10.6528142711
20
3.9852933825
30
0.0000000000
10
10.7148328036
20
4.0473119150
30
0.0000000000
10
10.8068208713
20
4.1392999827
30
0.0000000000
10
10.8953730922
20
4.2278522036
30
0.0000000000
10
10.9761698885
20
4.3086489999
30
0.0000000000
10
11.0439210638
20
4.3764001752
30
0.0000000000
10
11.0911218763
20
4.4236009877
30
0.0000000000
10
11.1149668681
20
4.4474459795
30
0.0000000000
10
11.1218879456
20
4.4543670569
30
0.0000000000
11
10.6219069840
21
3.9543860954
31
0.0000000000
11
10.7146288453
21
4.0471079567
31
0.0000000000
11
10.8079625814
21
4.1404416928
31
0.0000000000
11
10.8978711873
21
4.2303502987
31
0.0000000000
11
10.9802855078
21
4.3127646192
31
0.0000000000
11
11.0503529703
21
4.3828320817
31
0.0000000000
11
11.1011247132
21
4.4336038246
31
0.0000000000
11
11.1218879456
21
4.4543670569
31
0.0000000000
0
SPLINE
5
5DD
100
AcDbEntity
8
0
100
AcDbSpline
62
7
6
CONTINUOUS
70
0
71
3
72
14
73
10
74
8
42
0.0000001000
43
0.0000001000
44
0.0000000001
12
0.4999809615
22
0.4999809615
32
0.0000000000
13
0.4999809615
23
0.4999809615
33
0.0000000000
40
0.0000000000
40
0.0000000000
40
0.0000000000
40
0.0000000000
40
0.1854507839
40
0.3721253642
40
0.5519494232
40
0.7167843406
40
0.8569246016
40
0.9584719540
40
1.0000000000
40
1.0000000000
40
1.0000000000
40
1.0000000000
10
13.4219069840
20
3.9543860954
30
0.0000000000
10
13.4528142711
20
3.9852933825
30
0.0000000000
10
13.5148328036
20
4.0473119150
30
0.0000000000
10
13.6068208713
20
4.1392999827
30
0.0000000000
10
13.6953730922
20
4.2278522036
30
0.0000000000
10
13.7761698885
20
4.3086489999
30
0.0000000000
10
13.8439210638
20
4.3764001752
30
0.0000000000
10
13.8911218763
20
4.4236009877
30
0.0000000000
10
13.9149668681
20
4.4474459795
30
0.0000000000
10
13.9218879456
20
4.4543670569
30
0.0000000000
11
13.4219069840
21
3.9543860954
31
0.0000000000
11
13.5146288453
21
4.0471079567
31
0.0000000000
11
13.6079625814
21
4.1404416928
31
0.0000000000
11
13.6978711873
21
4.2303502987
31
0.0000000000
11
13.7802855078
21
4.3127646192
31
0.0000000000
11
13.8503529703
21
4.3828320817
31
0.0000000000
11
13.9011247132
21
4.4336038246
31
0.0000000000
11
13.9218879456
21
4.4543670569
31
0.0000000000
0
SPLINE
5
5DE
100
AcDbEntity
8
0
100
AcDbSpline
62
7
6
CONTINUOUS
70
0
71
3
72
14
73
10
74
8
42
0.0000001000
43
0.0000001000
44
0.0000000001
12
0.4999809615
22
0.4999809615
32
0.0000000000
13
0.4999809615
23
0.4999809615
33
0.0000000000
40
0.0000000000
40
0.0000000000
40
0.0000000000
40
0.0000000000
40
0.1854507839
40
0.3721253642
40
0.5519494232
40
0.7167843406
40
0.8569246016
40
0.9584719540
40
1.0000000000
40
1.0000000000
40
1.0000000000
40
1.0000000000
10
13.4219069840
20
2.3543860954
30
0.0000000000
10
13.4528142711
20
2.3852933825
30
0.0000000000
10
13.5148328036
20
2.4473119150
30
0.0000000000
10
13.6068208713
20
2.5392999827
30
0.0000000000
10
13.6953730922
20
2.6278522036
30
0.0000000000
10
13.7761698885
20
2.7086489999
30
0.0000000000
10
13.8439210638
20
2.7764001752
30
0.0000000000
10
13.8911218763
20
2.8236009877
30
0.0000000000
10
13.9149668681
20
2.8474459795
30
0.0000000000
10
13.9218879456
20
2.8543670569
30
0.0000000000
11
13.4219069840
21
2.3543860954
31
0.0000000000
11
13.5146288453
21
2.4471079567
31
0.0000000000
11
13.6079625814
21
2.5404416928
31
0.0000000000
11
13.6978711873
21
2.6303502987
31
0.0000000000
11
13.7802855078
21
2.7127646192
31
0.0000000000
11
13.8503529703
21
2.7828320817
31
0.0000000000
11
13.9011247132
21
2.8336038246
31
0.0000000000
11
13.9218879456
21
2.8543670569
31
0.0000000000
0
SPLINE
5
5DF
100
AcDbEntity
8
0
100
AcDbSpline
62
7
6
CONTINUOUS
70
0
71
3
72
14
73
10
74
8
42
0.0000001000
43
0.0000001000
44
0.0000000001
12
0.4999809615
22
0.4999809615
32
0.0000000000
13
0.4999809615
23
0.4999809615
33
0.0000000000
40
0.0000000000
40
0.0000000000
40
0.0000000000
40
0.0000000000
40
0.1854507839
40
0.3721253642
40
0.5519494232
40
0.7167843406
40
0.8569246016
40
0.9584719540
40
1.0000000000
40
1.0000000000
40
1.0000000000
40
1.0000000000
10
14.5719069840
20
2.3543860954
30
0.0000000000
10
14.6028142711
20
2.3852933825
30
0.0000000000
10
14.6648328036
20
2.4473119150
30
0.0000000000
10
14.7568208713
20
2.5392999827
30
0.0000000000
10
14.8453730922
20
2.6278522036
30
0.0000000000
10
14.9261698885
20
2.7086489999
30
0.0000000000
10
14.9939210638
20
2.7764001752
30
0.0000000000
10
15.0411218763
20
2.8236009877
30
0.0000000000
10
15.0649668681
20
2.8474459795
30
0.0000000000
10
15.0718879456
20
2.8543670569
30
0.0000000000
11
14.5719069840
21
2.3543860954
31
0.0000000000
11
14.6646288453
21
2.4471079567
31
0.0000000000
11
14.7579625814
21
2.5404416928
31
0.0000000000
11
14.8478711873
21
2.6303502987
31
0.0000000000
11
14.9302855078
21
2.7127646192
31
0.0000000000
11
15.0003529703
21
2.7828320817
31
0.0000000000
11
15.0511247132
21
2.8336038246
31
0.0000000000
11
15.0718879456
21
2.8543670569
31
0.0000000000
0
SPLINE
5
5E0
100
AcDbEntity
8
0
100
AcDbSpline
62
9
6
CONTINUOUS
70
0
71
3
72
11
73
7
74
5
42
0.0000001000
43
0.0000001000
44
0.0000000001
12
-0.3901612881
22
-0.0000237698
32
0.0000000000
13
-0.0000237691
23
-0.3901612881
33
0.0000000000
40
0.0000000000
40
0.0000000000
40
0.0000000000
40
0.0000000000
40
0.2499853870
40
0.4999843611
40
0.7499916122
40
1.0000000000
40
1.0000000000
40
1.0000000000
40
1.0000000000
10
28.2837699920
20
31.6206341408
30
0.0000000000
10
28.2512584518
20
31.6206321601
30
0.0000000000
10
28.1855228936
20
31.6076203158
30
0.0000000000
10
28.1024326043
20
31.5519861720
30
0.0000000000
10
28.0467948299
20
31.4688945364
30
0.0000000000
10
28.0337814920
20
31.4031547647
30
0.0000000000
10
28.0337795111
20
31.3706402331
30
0.0000000000
11
28.2837699920
21
31.6206341408
31
0.0000000000
11
28.1881103257
21
31.6016017866
31
0.0000000000
11
28.1070091815
21
31.5474110054
31
0.0000000000
11
28.0528146241
21
31.4663085004
31
0.0000000000
11
28.0337795111
21
31.3706402331
31
0.0000000000
0
SPLINE
5
5E1
100
AcDbEntity
8
0
100
AcDbSpline
62
9
6
CONTINUOUS
70
0
71
3
72
19
73
15
74
13
42
0.0000001000
43
0.0000001000
44
0.0000000001
12
1.5959677025
22
-0.9167694701
32
0.0000000000
13
1.7671579251
23
0.5145211719
33
0.0000000000
40
0.0000000000
40
0.0000000000
40
0.0000000000
40
0.0000000000
40
0.0178413516
40
0.0679473050
40
0.1472254826
40
0.2502065741
40
0.3697143409
40
0.4978471722
40
0.6261191340
40
0.7460348681
40
0.8496771944
40
0.9298676349
40
0.9810455196
40
1.0000000000
40
1.0000000000
40
1.0000000000
40
1.0000000000
10
28.0337795112
20
31.3706402331
30
0.0000000000
10
28.0432709182
20
31.3651880976
30
0.0000000000
10
28.0883127849
20
31.3752744586
30
0.0000000000
10
28.1755541213
20
31.3643494456
30
0.0000000000
10
28.3197480493
20
31.3688005441
30
0.0000000000
10
28.5042311096
20
31.3659902317
30
0.0000000000
10
28.7195614884
20
31.3662784145
30
0.0000000000
10
28.9501273430
20
31.3658811423
30
0.0000000000
10
29.1810036156
20
31.3661888029
30
0.0000000000
10
29.3969149368
20
31.3662477136
30
0.0000000000
10
29.5830784294
20
31.3679818577
30
0.0000000000
10
29.7277367529
20
31.3661862334
30
0.0000000000
10
29.8190444288
20
31.3721793592
30
0.0000000000
10
29.8630861961
20
31.3673485705
30
0.0000000000
10
29.8742513829
20
31.3705993976
30
0.0000000000
11
28.0337795112
21
31.3706402331
31
0.0000000000
11
28.0665953206
21
31.3694419248
31
0.0000000000
11
28.1588104646
21
31.3683258147
31
0.0000000000
11
28.3047217777
21
31.3673647935
31
0.0000000000
11
28.4942609279
21
31.3666272242
31
0.0000000000
11
28.7142189928
21
31.3661629733
31
0.0000000000
11
28.9500522490
21
31.3660013084
31
0.0000000000
11
29.1861415872
21
31.3661525353
31
0.0000000000
11
29.4068505536
21
31.3666068939
31
0.0000000000
11
29.5976067743
21
31.3673356940
31
0.0000000000
11
29.7451972203
21
31.3682901343
31
0.0000000000
11
29.8393854781
21
31.3694026796
31
0.0000000000
11
29.8742513829
21
31.3705993976
31
0.0000000000
0
SPLINE
5
5E2
100
AcDbEntity
8
0
100
AcDbSpline
62
9
6
CONTINUOUS
70
0
71
3
72
19
73
15
74
13
42
0.0000001000
43
0.0000001000
44
0.0000000001
12
1.0587497766
22
-0.8223649489
32
0.0000000000
13
1.2450465437
23
0.4970858103
33
0.0000000000
40
0.0000000000
40
0.0000000000
40
0.0000000000
40
0.0000000000
40
0.0176619750
40
0.0676538931
40
0.1468928980
40
0.2499427169
40
0.3696229995
40
0.4979573749
40
0.6263815715
40
0.7463788466
40
0.8500253815
40
0.9301433916
40
0.9812081161
40
1.0000000000
40
1.0000000000
40
1.0000000000
40
1.0000000000
10
28.2837699920
20
31.6206341408
30
0.0000000000
10
28.2900031960
20
31.6157926111
30
0.0000000000
10
28.3240697962
20
31.6245030681
30
0.0000000000
10
28.3861693776
20
31.6147965474
30
0.0000000000
10
28.4918509725
20
31.6186104735
30
0.0000000000
10
28.6260363846
20
31.6160496939
30
0.0000000000
10
28.7831698199
20
31.6162523919
30
0.0000000000
10
28.9513191119
20
31.6158813387
30
0.0000000000
10
29.1196758598
20
31.6161782658
30
0.0000000000
10
29.2770822586
20
31.6162550398
30
0.0000000000
10
29.4125766120
20
31.6179442264
30
0.0000000000
10
29.5181341130
20
31.6162685287
30
0.0000000000
10
29.5839624817
20
31.6220253419
30
0.0000000000
10
29.6164905357
20
31.6174795790
30
0.0000000000
10
29.6242894591
20
31.6205933053
30
0.0000000000
11
28.2837699920
21
31.6206341408
31
0.0000000000
11
28.3074177944
21
31.6194422413
31
0.0000000000
11
28.3744281404
21
31.6183245954
31
0.0000000000
11
28.4806523808
21
31.6173618573
31
0.0000000000
11
28.6188000215
21
31.6166225730
31
0.0000000000
11
28.7792439312
21
31.6161571243
31
0.0000000000
11
28.9512902033
21
31.6159952077
31
0.0000000000
11
29.1234568998
21
31.6161470614
31
0.0000000000
11
29.2843258030
21
31.6166026041
31
0.0000000000
11
29.4232734664
21
31.6173328353
31
0.0000000000
11
29.5306762201
21
31.6182885986
31
0.0000000000
11
29.5991250419
21
31.6194022641
31
0.0000000000
11
29.6242894591
21
31.6205933053
31
0.0000000000
0
SPLINE
5
5E3
100
AcDbEntity
8
0
100
AcDbSpline
62
9
6
CONTINUOUS
70
0
71
3
72
11
73
7
74
5
42
0.0000001000
43
0.0000001000
44
0.0000000001
12
0.3901318315
22
-0.0000475397
32
0.0000000000
13
0.0000475274
23
-0.3901318315
33
0.0000000000
40
0.0000000000
40
0.0000000000
40
0.0000000000
40
0.0000000000
40
0.2499811036
40
0.4999791037
40
0.7499893440
40
1.0000000000
40
1.0000000000
40
1.0000000000
40
1.0000000000
10
29.6242894591
20
31.6205933053
30
0.0000000000
10
29.6567979877
20
31.6205893440
30
0.0000000000
10
29.7225271078
20
31.6075726613
30
0.0000000000
10
29.8056049831
20
31.5519345205
30
0.0000000000
10
29.8612335642
20
31.4688461393
30
0.0000000000
10
29.8742474221
20
31.4031117693
30
0.0000000000
10
29.8742513829
20
31.3705993976
30
0.0000000000
11
29.6242894591
21
31.6205933053
31
0.0000000000
11
29.7199387119
21
31.6015549110
31
0.0000000000
11
29.8010284631
21
31.5473610177
31
0.0000000000
11
29.8552154238
21
31.4662608905
31
0.0000000000
11
29.8742513829
21
31.3705993976
31
0.0000000000
0
SPLINE
5
5E4
100
AcDbEntity
8
0
100
AcDbSpline
62
7
6
CONTINUOUS
70
0
71
3
72
9
73
5
74
3
42
0.0000001000
43
0.0000001000
44
0.0000000001
12
0.0982541672
22
-0.0785673243
32
0.0000000000
13
0.0481716205
23
-0.1164869099
33
0.0000000000
40
0.0000000000
40
0.0000000000
40
0.0000000000
40
0.0000000000
40
0.2200085572
40
1.0000000000
40
1.0000000000
40
1.0000000000
40
1.0000000000
10
7.0868008979
20
31.6083484069
30
0.0000000000
10
7.0940064838
20
31.6025865791
30
0.0000000000
10
7.1253057141
20
31.5745950480
30
0.0000000000
10
7.1490816555
20
31.5390813086
30
0.0000000000
10
7.1616061394
20
31.5087950443
30
0.0000000000
11
7.0868008979
21
31.6083484069
31
0.0000000000
11
7.1074145253
21
31.5899057231
31
0.0000000000
11
7.1616061394
21
31.5087950443
31
0.0000000000
0
SPLINE
5
5E5
100
AcDbEntity
8
0
100
AcDbSpline
62
7
6
CONTINUOUS
70
0
71
3
72
8
73
4
74
2
42
0.0000001000
43
0.0000001000
44
0.0000000001
12
0.0375714061
22
-0.0908538461
32
0.0000000000
13
0.0000000000
23
-0.0975430014
33
0.0000000000
40
0.0000000000
40
0.0000000000
40
0.0000000000
40
0.0000000000
40
1.0000000000
40
1.0000000000
40
1.0000000000
40
1.0000000000
10
7.1616061394
20
31.5087950443
30
0.0000000000
10
7.1741299414
20
31.4785104289
30
0.0000000000
10
7.1806338522
20
31.4456402437
30
0.0000000000
10
7.1806338522
20
31.4131259099
30
0.0000000000
11
7.1616061394
21
31.5087950443
31
0.0000000000
11
7.1806338522
21
31.4131259099
31
0.0000000000
0
SPLINE
5
5E6
100
AcDbEntity
8
0
100
AcDbSpline
62
9
6
CONTINUOUS
70
0
71
3
72
11
73
7
74
5
42
0.0000001000
43
0.0000001000
44
0.0000000001
12
-0.3901318316
22
-0.0000475397
32
0.0000000000
13
-0.0000475274
23
-0.3901318316
33
0.0000000000
40
0.0000000000
40
0.0000000000
40
0.0000000000
40
0.0000000000
40
0.2499701361
40
0.4999657058
40
0.7499804803
40
1.0000000000
40
1.0000000000
40
1.0000000000
40
1.0000000000
10
5.5370163229
20
31.6205933053
30
0.0000000000
10
5.5045092206
20
31.6205893441
30
0.0000000000
10
5.4387819342
20
31.6075736195
30
0.0000000000
10
5.3557039828
20
31.5519377863
30
0.0000000000
10
5.3000730558
20
31.4688491083
30
0.0000000000
10
5.2870583599
20
31.4031129220
30
0.0000000000
10
5.2870543990
20
31.3705993977
30
0.0000000000
11
5.5370163229
21
31.6205933053
31
0.0000000000
11
5.4413711004
21
31.6015565809
31
0.0000000000
11
5.3602810870
21
31.5473647863
31
0.0000000000
11
5.3060917075
21
31.4662641479
31
0.0000000000
11
5.2870543990
21
31.3705993977
31
0.0000000000
0
SPLINE
5
5E7
100
AcDbEntity
8
0
100
AcDbSpline
62
9
6
CONTINUOUS
70
0
71
3
72
19
73
15
74
13
42
0.0000001000
43
0.0000001000
44
0.0000000001
12
1.7680369557
22
-0.5114924166
32
0.0000000000
13
1.5909518316
23
0.9254466157
33
0.0000000000
40
0.0000000000
40
0.0000000000
40
0.0000000000
40
0.0000000000
40
0.0189572991
40
0.0701020047
40
0.1502731070
40
0.2539379328
40
0.3738739646
40
0.5021526562
40
0.6302787738
40
0.7497663620
40
0.8527252450
40
0.9320227815
40
0.9821613803
40
1.0000000000
40
1.0000000000
40
1.0000000000
40
1.0000000000
10
5.2870543991
20
31.3705993976
30
0.0000000000
10
5.2982268009
20
31.3673672260
30
0.0000000000
10
5.3422369198
20
31.3721529715
30
0.0000000000
10
5.4335259844
20
31.3662018136
30
0.0000000000
10
5.5781598231
20
31.3679762472
30
0.0000000000
10
5.7643400432
20
31.3662497351
30
0.0000000000
10
5.9802808812
20
31.3661882682
30
0.0000000000
10
6.2111702257
20
31.3658808032
30
0.0000000000
10
6.4417222767
20
31.3662802447
30
0.0000000000
10
6.6570270755
20
31.3659843029
30
0.0000000000
10
6.8414825839
20
31.3688173571
30
0.0000000000
10
6.9857291902
20
31.3643061320
30
0.0000000000
10
7.0729349577
20
31.3753475906
30
0.0000000000
10
7.1180661426
20
31.3651373364
30
0.0000000000
10
7.1275262708
20
31.3706402331
30
0.0000000000
11
5.2870543991
21
31.3705993976
31
0.0000000000
11
5.3219254919
21
31.3694025911
31
0.0000000000
11
5.4160526847
21
31.3682906158
31
0.0000000000
11
5.5636075368
21
31.3673361055
31
0.0000000000
11
5.7544051677
21
31.3666069748
31
0.0000000000
11
5.9751514927
21
31.3661525024
31
0.0000000000
11
6.2112532173
21
31.3660013088
31
0.0000000000
11
6.4470741166
21
31.3661630063
31
0.0000000000
11
6.6669950423
21
31.3666271411
31
0.0000000000
11
6.8564933181
21
31.3673643777
31
0.0000000000
11
7.0024402631
21
31.3683253301
31
0.0000000000
11
7.0947154897
21
31.3694420134
31
0.0000000000
11
7.1275262708
21
31.3706402331
31
0.0000000000
0
SPLINE
5
5E8
100
AcDbEntity
8
0
100
AcDbSpline
62
9
6
CONTINUOUS
70
0
71
3
72
19
73
15
74
13
42
0.0000001000
43
0.0000001000
44
0.0000000001
12
1.2472615828
22
-0.4915015148
32
0.0000000000
13
1.0483026728
23
0.8356414908
33
0.0000000000
40
0.0000000000
40
0.0000000000
40
0.0000000000
40
0.0000000000
40
0.0187712333
40
0.0698031247
40
0.1499366615
40
0.2536717948
40
0.3737814608
40
0.5022619059
40
0.6305396392
40
0.7501076412
40
0.8530694328
40
0.9322933464
40
0.9823179613
40
1.0000000000
40
1.0000000000
40
1.0000000000
40
1.0000000000
10
5.5370163229
20
31.6205933053
30
0.0000000000
10
5.5448205357
20
31.6175179421
30
0.0000000000
10
5.5772916736
20
31.6219780705
30
0.0000000000
10
5.6431320508
20
31.6162954143
30
0.0000000000
10
5.7487067215
20
31.6179339062
30
0.0000000000
10
5.8843035103
20
31.6162580676
30
0.0000000000
10
6.0418227758
20
31.6161769473
30
0.0000000000
10
6.2102309396
20
31.6158808785
30
0.0000000000
10
6.3783269006
20
31.6162554444
30
0.0000000000
10
6.5353547621
20
31.6160415679
30
0.0000000000
10
6.6694166026
20
31.6186355102
30
0.0000000000
10
6.7751365295
20
31.6147333887
30
0.0000000000
10
6.8371187184
20
31.6246125013
30
0.0000000000
10
6.8713570806
20
31.6157088591
30
0.0000000000
10
6.8775357900
20
31.6206341408
30
0.0000000000
11
5.5370163229
21
31.6205933053
31
0.0000000000
11
5.5621530545
21
31.6194028920
31
0.0000000000
11
5.6305578563
21
31.6182893712
31
0.0000000000
11
5.7379814219
21
31.6173331415
31
0.0000000000
11
5.8770478593
21
31.6166023017
31
0.0000000000
11
6.0380674350
21
31.6161466455
31
0.0000000000
11
6.2103095390
21
31.6159952166
31
0.0000000000
11
6.3822798756
21
31.6161575535
31
0.0000000000
11
6.5425732604
21
31.6166228795
31
0.0000000000
11
6.6806028922
21
31.6173615481
31
0.0000000000
11
6.7868069044
21
31.6183238184
31
0.0000000000
11
6.8538610877
21
31.6194416118
31
0.0000000000
11
6.8775357900
21
31.6206341408
31
0.0000000000
0
SPLINE
5
5E9
100
AcDbEntity
8
0
100
AcDbSpline
62
9
6
CONTINUOUS
70
0
71
3
72
11
73
7
74
5
42
0.0000001000
43
0.0000001000
44
0.0000000001
12
0.3901612881
22
-0.0000237698
32
0.0000000000
13
0.0000237691
23
-0.3901612881
33
0.0000000000
40
0.0000000000
40
0.0000000000
40
0.0000000000
40
0.0000000000
40
0.2499963551
40
0.4999977588
40
0.7500004754
40
1.0000000000
40
1.0000000000
40
1.0000000000
40
1.0000000000
10
6.8775357900
20
31.6206341408
30
0.0000000000
10
6.9100487567
20
31.6206321600
30
0.0000000000
10
6.9757861488
20
31.6076193578
30
0.0000000000
10
7.0588763621
20
31.5519829062
30
0.0000000000
10
7.1145117902
20
31.4688915672
30
0.0000000000
10
7.1275242901
20
31.4031536119
30
0.0000000000
10
7.1275262708
20
31.3706402331
30
0.0000000000
11
6.8775357900
21
31.6206341408
31
0.0000000000
11
6.9731994873
21
31.6016001168
31
0.0000000000
11
7.0543003691
21
31.5474072368
31
0.0000000000
11
7.1084925072
21
31.4663052430
31
0.0000000000
11
7.1275262708
21
31.3706402331
31
0.0000000000
0
SPLINE
5
5EA
100
AcDbEntity
8
0
100
AcDbSpline
62
7
6
CONTINUOUS
70
0
71
3
72
9
73
5
74
3
42
0.0000001000
43
0.0000001000
44
0.0000000001
12
0.0000000000
22
-0.1950913139
32
0.0000000000
13
-0.1387288196
23
-0.1387402331
33
0.0000000000
40
0.0000000000
40
0.0000000000
40
0.0000000000
40
0.0000000000
40
0.4999863883
40
1.0000000000
40
1.0000000000
40
1.0000000000
40
1.0000000000
10
7.1806338522
20
-16.0868619051
30
0.0000000000
10
7.1806338522
20
-16.1193762389
30
0.0000000000
10
7.1676256766
20
-16.1851183991
30
0.0000000000
10
7.1305366247
20
-16.2405177167
30
0.0000000000
10
7.1074145253
20
-16.2636417184
30
0.0000000000
11
7.1806338522
21
-16.0868619051
31
0.0000000000
11
7.1616061394
21
-16.1825310395
31
0.0000000000
11
7.1074145253
21
-16.2636417184
31
0.0000000000
0
SPLINE
5
5EB
100
AcDbEntity
8
0
100
AcDbSpline
62
7
6
CONTINUOUS
70
0
71
3
72
8
73
4
74
2
42
0.0000001000
43
0.0000001000
44
0.0000000001
12
-0.0195658290
22
-0.0195674387
32
0.0000000000
13
-0.0216167576
23
-0.0172854837
33
0.0000000000
40
0.0000000000
40
0.0000000000
40
0.0000000000
40
0.0000000000
40
1.0000000000
40
1.0000000000
40
1.0000000000
40
1.0000000000
10
7.1074145253
20
-16.2636417184
30
0.0000000000
10
7.1008925823
20
-16.2701641979
30
0.0000000000
10
7.0940064838
20
-16.2763225743
30
0.0000000000
10
7.0868008979
20
-16.2820844022
30
0.0000000000
11
7.1074145253
21
-16.2636417184
31
0.0000000000
11
7.0868008979
21
-16.2820844022
31
0.0000000000
0
SPLINE
5
5EC
100
AcDbEntity
8
0
100
AcDbSpline
62
9
6
CONTINUOUS
70
0
71
3
72
11
73
7
74
5
42
0.0000001000
43
0.0000001000
44
0.0000000001
12
-0.0000237690
22
-0.3901612881
32
0.0000000000
13
-0.3901612881
23
-0.0000237698
33
0.0000000000
40
0.0000000000
40
0.0000000000
40
0.0000000000
40
0.0000000000
40
0.2499995239
40
0.5000022404
40
0.7500036444
40
1.0000000000
40
1.0000000000
40
1.0000000000
40
1.0000000000
10
7.1275262708
20
-16.0443762283
30
0.0000000000
10
7.1275242901
20
-16.0768896071
30
0.0000000000
10
7.1145117903
20
-16.1426275622
30
0.0000000000
10
7.0588763623
20
-16.2257189012
30
0.0000000000
10
6.9757861490
20
-16.2813553530
30
0.0000000000
10
6.9100487567
20
-16.2943681552
30
0.0000000000
10
6.8775357900
20
-16.2943701360
30
0.0000000000
11
7.1275262708
21
-16.0443762283
31
0.0000000000
11
7.1084925074
21
-16.1400412379
31
0.0000000000
11
7.0543003694
21
-16.2211432317
31
0.0000000000
11
6.9731994874
21
-16.2753361120
31
0.0000000000
11
6.8775357900
21
-16.2943701360
31
0.0000000000
0
SPLINE
5
5ED
100
AcDbEntity
8
0
100
AcDbSpline
62
9
6
CONTINUOUS
70
0
71
3
72
11
73
7
74
5
42
0.0000001000
43
0.0000001000
44
0.0000000001
12
0.0000475269
22
-0.3901318316
32
0.0000000000
13
0.3901318316
23
-0.0000475397
33
0.0000000000
40
0.0000000000
40
0.0000000000
40
0.0000000000
40
0.0000000000
40
0.2500188977
40
0.5000333565
40
0.7500290981
40
1.0000000000
40
1.0000000000
40
1.0000000000
40
1.0000000000
10
5.2870543991
20
-16.0443353928
30
0.0000000000
10
5.2870583600
20
-16.0768488363
30
0.0000000000
10
5.3000729971
20
-16.1425848955
30
0.0000000000
10
5.3557037600
20
-16.2256735530
30
0.0000000000
10
5.4387817063
20
-16.2813095478
30
0.0000000000
10
5.5045091210
20
-16.2943253393
30
0.0000000000
10
5.5370163229
20
-16.2943293005
30
0.0000000000
11
5.2870543991
21
-16.0443353928
31
0.0000000000
11
5.3060916128
21
-16.1399999145
31
0.0000000000
11
5.3602808233
21
-16.2211005178
31
0.0000000000
11
5.4413708190
21
-16.2752924595
31
0.0000000000
11
5.5370163229
21
-16.2943293005
31
0.0000000000
0
SPLINE
5
5EE
100
AcDbEntity
8
0
100
AcDbSpline
62
9
6
CONTINUOUS
70
0
71
3
72
19
73
15
74
13
42
0.0000001000
43
0.0000001000
44
0.0000000001
12
1.2472827388
22
0.4914478337
32
0.0000000000
13
1.0571246325
23
-0.8244529793
33
0.0000000000
40
0.0000000000
40
0.0000000000
40
0.0000000000
40
0.0000000000
40
0.0187811648
40
0.0698234333
40
0.1499512062
40
0.2536551565
40
0.3737159983
40
0.5021848262
40
0.6304896481
40
0.7500988022
40
0.8530985009
40
0.9323254209
40
0.9823292713
40
1.0000000000
40
1.0000000000
40
1.0000000000
40
1.0000000000
10
5.5370163229
20
-16.2943293005
30
0.0000000000
10
5.5448247971
20
-16.2912526463
30
0.0000000000
10
5.5773051753
20
-16.2957142204
30
0.0000000000
10
5.6431522255
20
-16.2900316005
30
0.0000000000
10
5.7487147442
20
-16.2916694727
30
0.0000000000
10
5.8842733531
20
-16.2899944540
30
0.0000000000
10
6.0417517691
20
-16.2899128826
30
0.0000000000
10
6.2101443822
20
-16.2896175255
30
0.0000000000
10
6.3782680465
20
-16.2899889486
30
0.0000000000
10
6.5353354057
20
-16.2897850007
30
0.0000000000
10
6.6694573899
20
-16.2923498481
30
0.0000000000
10
6.7751268811
20
-16.2885230002
30
0.0000000000
10
6.8372093448
20
-16.2982570256
30
0.0000000000
10
6.8713090692
20
-16.2895139077
30
0.0000000000
10
6.8775357900
20
-16.2943701360
30
0.0000000000
11
5.5370163229
21
-16.2943293005
31
0.0000000000
11
5.5621663681
21
-16.2931385598
31
0.0000000000
11
5.6305850838
21
-16.2920250482
31
0.0000000000
11
5.7380009239
21
-16.2910690085
31
0.0000000000
11
5.8770255581
21
-16.2903383910
31
0.0000000000
11
6.0379796799
21
-16.2898828023
31
0.0000000000
11
6.2102062101
21
-16.2897312035
31
0.0000000000
11
6.3822128623
21
-16.2898934095
31
0.0000000000
11
6.5425614165
21
-16.2903588051
31
0.0000000000
11
6.6806418664
21
-16.2910977858
31
0.0000000000
11
6.7868499075
21
-16.2920602763
31
0.0000000000
11
6.8538762519
21
-16.2931779504
31
0.0000000000
11
6.8775357900
21
-16.2943701360
31
0.0000000000
0
SPLINE
5
5EF
100
AcDbEntity
8
0
100
AcDbSpline
62
9
6
CONTINUOUS
70
0
71
3
72
19
73
15
74
13
42
0.0000001000
43
0.0000001000
44
0.0000000001
12
1.7680465814
22
0.5114591386
32
0.0000000000
13
1.5951833990
23
-0.9181334805
33
0.0000000000
40
0.0000000000
40
0.0000000000
40
0.0000000000
40
0.0000000000
40
0.0189589951
40
0.0701092036
40
0.1502804643
40
0.2539383700
40
0.3738719852
40
0.5021526943
40
0.6302861971
40
0.7497872874
40
0.8527573701
40
0.9320399324
40
0.9821575559
40
1.0000000000
40
1.0000000000
40
1.0000000000
40
1.0000000000
10
5.2870543991
20
-16.0443353928
30
0.0000000000
10
5.2982278613
20
-16.0411031424
30
0.0000000000
10
5.3422423627
20
-16.0458889979
30
0.0000000000
10
5.4335359993
20
-16.0399378623
30
0.0000000000
10
5.5781689910
20
-16.0417120718
30
0.0000000000
10
5.7643436073
20
-16.0399858070
30
0.0000000000
10
5.9802800191
20
-16.0399241635
30
0.0000000000
10
6.2111733376
20
-16.0396172179
30
0.0000000000
10
6.4417405969
20
-16.0400146740
30
0.0000000000
10
6.6570612435
20
-16.0397253609
30
0.0000000000
10
6.8415341115
20
-16.0425389815
30
0.0000000000
10
6.9857364880
20
-16.0380784303
30
0.0000000000
10
7.0729777705
20
-16.0490227345
30
0.0000000000
10
7.1180389473
20
-16.0389156465
30
0.0000000000
10
7.1275262708
20
-16.0443762283
30
0.0000000000
11
5.2870543991
21
-16.0443353928
31
0.0000000000
11
5.3219286132
21
-16.0431385292
31
0.0000000000
11
5.4160659343
21
-16.0420264941
31
0.0000000000
11
5.5636210783
21
-16.0410720406
31
0.0000000000
11
5.7544059726
21
-16.0403429825
31
0.0000000000
11
5.9751478495
21
-16.0398885143
31
0.0000000000
11
6.2112532872
21
-16.0397372948
31
0.0000000000
11
6.4470877793
21
-16.0398989921
31
0.0000000000
11
6.6670335557
21
-16.0403632144
31
0.0000000000
11
6.8565524441
21
-16.0411006468
31
0.0000000000
11
7.0024718279
21
-16.0420616038
31
0.0000000000
11
7.0947084506
21
-16.0431778836
31
0.0000000000
11
7.1275262708
21
-16.0443762283
31
0.0000000000
0
SPLINE
5
5F0
100
AcDbEntity
8
0
100
AcDbSpline
62
7
6
CONTINUOUS
70
0
71
3
72
9
73
5
74
3
42
0.0000001000
43
0.0000001000
44
0.0000000001
12
0.0000000000
22
-0.1950913139
32
0.0000000000
13
0.1387288133
23
-0.1387383614
33
0.0000000000
40
0.0000000000
40
0.0000000000
40
0.0000000000
40
0.0000000000
40
0.5000179492
40
1.0000000000
40
1.0000000000
40
1.0000000000
40
1.0000000000
10
27.9806719298
20
-16.0868619051
30
0.0000000000
10
27.9806719298
20
-16.1193782914
30
0.0000000000
10
27.9936810174
20
-16.1851204406
30
0.0000000000
10
28.0307706179
20
-16.2405194882
30
0.0000000000
10
28.0538912567
20
-16.2636417184
30
0.0000000000
11
27.9806719298
21
-16.0868619051
31
0.0000000000
11
27.9997020449
21
-16.1825368396
31
0.0000000000
11
28.0538912567
21
-16.2636417184
31
0.0000000000
0
SPLINE
5
5F1
100
AcDbEntity
8
0
100
AcDbSpline
62
7
6
CONTINUOUS
70
0
71
3
72
8
73
4
74
2
42
0.0000001000
43
0.0000001000
44
0.0000000001
12
0.0195663462
22
-0.0195676928
32
0.0000000000
13
0.0216173794
23
-0.0172855471
33
0.0000000000
40
0.0000000000
40
0.0000000000
40
0.0000000000
40
0.0000000000
40
1.0000000000
40
1.0000000000
40
1.0000000000
40
1.0000000000
10
28.0538912567
20
-16.2636417184
30
0.0000000000
10
28.0604133721
20
-16.2701642826
30
0.0000000000
10
28.0672996634
20
-16.2763226874
30
0.0000000000
10
28.0745054565
20
-16.2820845364
30
0.0000000000
11
28.0538912567
21
-16.2636417184
31
0.0000000000
11
28.0745054565
21
-16.2820845364
31
0.0000000000
0
SPLINE
5
5F2
100
AcDbEntity
8
0
100
AcDbSpline
62
9
6
CONTINUOUS
70
0
71
3
72
19
73
15
74
13
42
0.0000001000
43
0.0000001000
44
0.0000000001
12
1.5951829088
22
0.9181343323
32
0.0000000000
13
1.7680466341
23
-0.5114589564
33
0.0000000000
40
0.0000000000
40
0.0000000000
40
0.0000000000
40
0.0000000000
40
0.0178424441
40
0.0679600676
40
0.1472426299
40
0.2502127126
40
0.3697138029
40
0.4978473057
40
0.6261280148
40
0.7460616300
40
0.8497195357
40
0.9298907964
40
0.9810410049
40
1.0000000000
40
1.0000000000
40
1.0000000000
40
1.0000000000
10
28.0337795112
20
-16.0443762283
30
0.0000000000
10
28.0432668318
20
-16.0389156415
30
0.0000000000
10
28.0883280154
20
-16.0490227413
30
0.0000000000
10
28.1755692917
20
-16.0380784262
30
0.0000000000
10
28.3197716715
20
-16.0425389832
30
0.0000000000
10
28.5042445381
20
-16.0397253603
30
0.0000000000
10
28.7195651853
20
-16.0400146742
30
0.0000000000
10
28.9501324443
20
-16.0396172178
30
0.0000000000
10
29.1810257629
20
-16.0399241635
30
0.0000000000
10
29.3969621747
20
-16.0399858072
30
0.0000000000
10
29.5831367911
20
-16.0417120715
30
0.0000000000
10
29.7277697824
20
-16.0399378632
30
0.0000000000
10
29.8190634197
20
-16.0458889965
30
0.0000000000
10
29.8630779204
20
-16.0411031436
30
0.0000000000
10
29.8742513829
20
-16.0443353928
30
0.0000000000
11
28.0337795112
21
-16.0443762283
31
0.0000000000
11
28.0665973314
21
-16.0431778836
31
0.0000000000
11
28.1588339541
21
-16.0420616038
31
0.0000000000
11
28.3047533379
21
-16.0411006468
31
0.0000000000
11
28.4942722263
21
-16.0403632144
31
0.0000000000
11
28.7142180027
21
-16.0398989921
31
0.0000000000
11
28.9500524948
21
-16.0397372948
31
0.0000000000
11
29.1861579325
21
-16.0398885143
31
0.0000000000
11
29.4068998095
21
-16.0403429825
31
0.0000000000
11
29.5976847037
21
-16.0410720406
31
0.0000000000
11
29.7452398477
21
-16.0420264942
31
0.0000000000
11
29.8393771688
21
-16.0431385292
31
0.0000000000
11
29.8742513829
21
-16.0443353928
31
0.0000000000
0
SPLINE
5
5F3
100
AcDbEntity
8
0
100
AcDbSpline
62
9
6
CONTINUOUS
70
0
71
3
72
11
73
7
74
5
42
0.0000001000
43
0.0000001000
44
0.0000000001
12
0.0000237687
22
-0.3901612881
32
0.0000000000
13
0.3901612881
23
-0.0000237698
33
0.0000000000
40
0.0000000000
40
0.0000000000
40
0.0000000000
40
0.0000000000
40
0.2500084135
40
0.5000156723
40
0.7500146368
40
1.0000000000
40
1.0000000000
40
1.0000000000
40
1.0000000000
10
28.0337795112
20
-16.0443762283
30
0.0000000000
10
28.0337814920
20
-16.0768907632
30
0.0000000000
10
28.0467948321
20
-16.1426305395
30
0.0000000000
10
28.1024326124
20
-16.2257221752
30
0.0000000000
10
28.1855229013
20
-16.2813563133
30
0.0000000000
10
28.2512584549
20
-16.2943681553
30
0.0000000000
10
28.2837699920
20
-16.2943701360
30
0.0000000000
11
28.0337795112
21
-16.0443762283
31
0.0000000000
11
28.0528146280
21
-16.1400445050
31
0.0000000000
11
28.1070091909
21
-16.2211470100
31
0.0000000000
11
28.1881103344
21
-16.2753377855
31
0.0000000000
11
28.2837699920
21
-16.2943701360
31
0.0000000000
0
SPLINE
5
5F4
100
AcDbEntity
8
0
100
AcDbSpline
62
9
6
CONTINUOUS
70
0
71
3
72
19
73
15
74
13
42
0.0000001000
43
0.0000001000
44
0.0000000001
12
1.0571238143
22
0.8244540285
32
0.0000000000
13
1.2472827653
23
-0.4914477664
33
0.0000000000
40
0.0000000000
40
0.0000000000
40
0.0000000000
40
0.0000000000
40
0.0176707280
40
0.0676745790
40
0.1469014991
40
0.2499011978
40
0.3695103519
40
0.4978151738
40
0.6262840017
40
0.7463448435
40
0.8500487938
40
0.9301765666
40
0.9812188346
40
1.0000000000
40
1.0000000000
40
1.0000000000
40
1.0000000000
10
28.2837699920
20
-16.2943701360
30
0.0000000000
10
28.2899967077
20
-16.2895139017
30
0.0000000000
10
28.3240964435
20
-16.2982570340
30
0.0000000000
10
28.3861788967
20
-16.2885229952
30
0.0000000000
10
28.4918483937
20
-16.2923498502
30
0.0000000000
10
28.6259703757
20
-16.2897850000
30
0.0000000000
10
28.7830377357
20
-16.2899889488
30
0.0000000000
10
28.9511613998
20
-16.2896175254
30
0.0000000000
10
29.1195540129
20
-16.2899128826
30
0.0000000000
10
29.2770324289
20
-16.2899944540
30
0.0000000000
10
29.4125910379
20
-16.2916694726
30
0.0000000000
10
29.5181535560
20
-16.2900316008
30
0.0000000000
10
29.5840006066
20
-16.2957142199
30
0.0000000000
10
29.6164809844
20
-16.2912526466
30
0.0000000000
10
29.6242894591
20
-16.2943293005
30
0.0000000000
11
28.2837699920
21
-16.2943701360
31
0.0000000000
11
28.3074295292
21
-16.2931779504
31
0.0000000000
11
28.3744558745
21
-16.2920602763
31
0.0000000000
11
28.4806639157
21
-16.2910977858
31
0.0000000000
11
28.6187443655
21
-16.2903588051
31
0.0000000000
11
28.7790929197
21
-16.2898934095
31
0.0000000000
11
28.9510995719
21
-16.2897312035
31
0.0000000000
11
29.1233261021
21
-16.2898828023
31
0.0000000000
11
29.2842802238
21
-16.2903383910
31
0.0000000000
11
29.4233048581
21
-16.2910690085
31
0.0000000000
11
29.5307206981
21
-16.2920250482
31
0.0000000000
11
29.5991394130
21
-16.2931385598
31
0.0000000000
11
29.6242894591
21
-16.2943293005
31
0.0000000000
0
SPLINE
5
5F5
100
AcDbEntity
8
0
100
AcDbSpline
62
9
6
CONTINUOUS
70
0
71
3
72
11
73
7
74
5
42
0.0000001000
43
0.0000001000
44
0.0000000001
12
-0.0000475272
22
-0.3901318315
32
0.0000000000
13
-0.3901318315
23
-0.0000475397
33
0.0000000000
40
0.0000000000
40
0.0000000000
40
0.0000000000
40
0.0000000000
40
0.2500106551
40
0.5000208953
40
0.7500188958
40
1.0000000000
40
1.0000000000
40
1.0000000000
40
1.0000000000
10
29.8742513829
20
-16.0443353928
30
0.0000000000
10
29.8742474221
20
-16.0768477644
30
0.0000000000
10
29.8612335643
20
-16.1425821343
30
0.0000000000
10
29.8056049834
20
-16.2256705155
30
0.0000000000
10
29.7225271081
20
-16.2813086565
30
0.0000000000
10
29.6567979878
20
-16.2943253392
30
0.0000000000
10
29.6242894591
20
-16.2943293005
30
0.0000000000
11
29.8742513829
21
-16.0443353928
31
0.0000000000
11
29.8552154239
21
-16.1399968855
31
0.0000000000
11
29.8010284635
21
-16.2210970127
31
0.0000000000
11
29.7199387121
21
-16.2752909061
31
0.0000000000
11
29.6242894591
21
-16.2943293005
31
0.0000000000
0
SPLINE
5
5F6
100
AcDbEntity
8
0
100
AcDbSpline
62
7
6
CONTINUOUS
70
0
71
3
72
11
73
7
74
5
42
0.0000001000
43
0.0000001000
44
0.0000000001
12
-0.0133943381
22
-0.3919910847
32
0.0000000000
13
-0.3921971939
23
0.0042166209
33
0.0000000000
40
0.0000000000
40
0.0000000000
40
0.0000000000
40
0.0000000000
40
0.2161504924
40
0.4459540027
40
0.7003099843
40
1.0000000000
40
1.0000000000
40
1.0000000000
40
1.0000000000
10
29.8742513829
20
-14.4591818395
30
0.0000000000
10
29.8732863186
20
-14.4874248615
30
0.0000000000
10
29.8608108517
20
-14.5458062191
30
0.0000000000
10
29.8106817190
20
-14.6247104410
30
0.0000000000
10
29.7262292466
20
-14.6869502408
30
0.0000000000
10
29.6525096213
20
-14.7030143662
30
0.0000000000
10
29.6133304269
20
-14.7025931398
30
0.0000000000
11
29.8742513829
21
-14.4591818395
31
0.0000000000
11
29.8566242853
21
-14.5421076026
31
0.0000000000
11
29.8084951430
21
-14.6183154343
31
0.0000000000
11
29.7281573472
21
-14.6774642976
31
0.0000000000
11
29.6133304269
21
-14.7025931398
31
0.0000000000
0
SPLINE
5
5F7
100
AcDbEntity
8
0
100
AcDbSpline
62
9
6
CONTINUOUS
70
0
71
3
72
11
73
7
74
5
42
0.0000001000
43
0.0000001000
44
0.0000000001
12
0.3901187161
22
0.0000713042
32
0.0000000000
13
0.0000712903
23
0.3901187161
33
0.0000000000
40
0.0000000000
40
0.0000000000
40
0.0000000000
40
0.0000000000
40
0.2499829699
40
0.4999847029
40
0.7499954370
40
1.0000000000
40
1.0000000000
40
1.0000000000
40
1.0000000000
10
29.5558356776
20
-14.6680985322
30
0.0000000000
10
29.5883433560
20
-14.6680925906
30
0.0000000000
10
29.6540700104
20
-14.6550730416
30
0.0000000000
10
29.7371449842
20
-14.5994361788
30
0.0000000000
10
29.7927743476
20
-14.5163532108
30
0.0000000000
10
29.8057916604
20
-14.4506227262
30
0.0000000000
10
29.8057976014
20
-14.4181122399
30
0.0000000000
11
29.5558356776
21
-14.6680985322
31
0.0000000000
11
29.6514815640
21
-14.6490562859
31
0.0000000000
11
29.7325694747
21
-14.5948629171
31
0.0000000000
11
29.7867573513
21
-14.5137671128
31
0.0000000000
11
29.8057976014
21
-14.4181122399
31
0.0000000000
0
SPLINE
5
5F8
100
AcDbEntity
8
0
100
AcDbSpline
62
9
6
CONTINUOUS
70
0
71
3
72
16
73
12
74
10
42
0.0000001000
43
0.0000001000
44
0.0000000001
12
-1.0724838292
22
0.6431672302
32
0.0000000000
13
0.0000000320
23
1.2505541371
33
0.0000000000
40
0.0000000000
40
0.0000000000
40
0.0000000000
40
0.0000000000
40
0.0109874470
40
0.0485990316
40
0.1213877688
40
0.2315655954
40
0.3740687431
40
0.5376737624
40
0.7071011272
40
0.8661215513
40
1.0000000000
40
1.0000000000
40
1.0000000000
40
1.0000000000
10
29.8057976014
20
-14.4181122399
30
0.0000000000
10
29.8018696483
20
-14.4157566512
30
0.0000000000
10
29.8047218599
20
-14.3904665881
30
0.0000000000
10
29.7957537435
20
-14.3456146746
30
0.0000000000
10
29.7962216984
20
-14.2499812939
30
0.0000000000
10
29.7910370164
20
-14.1161670290
30
0.0000000000
10
29.7889092928
20
-13.9419447583
30
0.0000000000
10
29.7864615553
20
-13.7439662374
30
0.0000000000
10
29.7850916658
20
-13.5387898813
30
0.0000000000
10
29.7843461230
20
-13.3460867438
30
0.0000000000
10
29.7842072509
20
-13.2239881941
30
0.0000000000
10
29.7842072523
20
-13.1681807782
30
0.0000000000
11
29.8057976014
21
-14.4181122399
31
0.0000000000
11
29.8028300140
21
-14.4046961322
31
0.0000000000
11
29.7993264835
21
-14.3577914752
31
0.0000000000
11
29.7956196615
21
-14.2668407256
31
0.0000000000
11
29.7920716965
21
-14.1291030770
31
0.0000000000
11
29.7890147525
21
-13.9509213971
31
0.0000000000
11
29.7866814688
21
-13.7463377686
31
0.0000000000
11
29.7851650739
21
-13.5344651030
31
0.0000000000
11
29.7844038686
21
-13.3356029106
31
0.0000000000
11
29.7842072523
21
-13.1681807782
31
0.0000000000
0
SPLINE
5
5F9
100
AcDbEntity
8
0
100
AcDbSpline
62
9
6
CONTINUOUS
70
0
71
3
72
16
73
12
74
10
42
0.0000001000
43
0.0000001000
44
0.0000000001
12
-1.2177787261
22
0.8765433206
32
0.0000000000
13
0.0000000245
23
1.5004376757
33
0.0000000000
40
0.0000000000
40
0.0000000000
40
0.0000000000
40
0.0000000000
40
0.0109190037
40
0.0485032227
40
0.1212772531
40
0.2314495611
40
0.3739544312
40
0.5375648439
40
0.7069956147
40
0.8660147520
40
1.0000000000
40
1.0000000000
40
1.0000000000
40
1.0000000000
10
29.5558356776
20
-14.6680985322
30
0.0000000000
10
29.5514033675
20
-14.6649082056
30
0.0000000000
10
29.5555959444
20
-14.6353392116
30
0.0000000000
10
29.5451431426
20
-14.5807160763
30
0.0000000000
10
29.5465997335
20
-14.4665224034
30
0.0000000000
10
29.5409347021
20
-14.3056994888
30
0.0000000000
10
29.5389962616
20
-14.0967596176
30
0.0000000000
10
29.5364858112
20
-13.8591772790
30
0.0000000000
10
29.5351338780
20
-13.6130074166
30
0.0000000000
10
29.5343834807
20
-13.3817413088
30
0.0000000000
10
29.5342453275
20
-13.2351929495
30
0.0000000000
10
29.5342453285
20
-13.1681807782
30
0.0000000000
11
29.5558356776
21
-14.6680985322
31
0.0000000000
11
29.5528666921
21
-14.6519865137
31
0.0000000000
11
29.5493638840
21
-14.5957026283
31
0.0000000000
11
29.5456576143
21
-14.4865726493
31
0.0000000000
11
29.5421099911
21
-14.3213040394
31
0.0000000000
11
29.5390532365
21
-14.1075062141
31
0.0000000000
11
29.5367200157
21
-13.8620300750
31
0.0000000000
11
29.5352035794
21
-13.6078142858
31
0.0000000000
11
29.5344422099
21
-13.3692171958
31
0.0000000000
11
29.5342453285
21
-13.1681807782
31
0.0000000000
0
SPLINE
5
5FA
100
AcDbEntity
8
0
100
AcDbSpline
62
9
6
CONTINUOUS
70
0
71
3
72
16
73
12
74
10
42
0.0000001000
43
0.0000001000
44
0.0000000001
12
-0.0000001013
22
1.2505552539
32
0.0000000000
13
1.0723904652
23
0.6433250604
33
0.0000000000
40
0.0000000000
40
0.0000000000
40
0.0000000000
40
0.0000000000
40
0.1354950074
40
0.2955060681
40
0.4653206259
40
0.6287439393
40
0.7706589130
40
0.8800540535
40
0.9520958924
40
0.9891969734
40
1.0000000000
40
1.0000000000
40
1.0000000000
40
1.0000000000
10
29.7842072523
20
28.4944447829
30
0.0000000000
10
29.7842072478
20
28.5509261141
30
0.0000000000
10
29.7843490553
20
28.6741116499
30
0.0000000000
10
29.7851069440
20
28.8680629282
30
0.0000000000
10
29.7864925142
20
29.0737384331
30
0.0000000000
10
29.7889542023
20
29.2715570153
30
0.0000000000
10
29.7910963113
20
29.4451302452
30
0.0000000000
10
29.7962606149
20
29.5780734592
30
0.0000000000
10
29.7958435269
20
29.6728168852
30
0.0000000000
10
29.8046872040
20
29.7171480216
30
0.0000000000
10
29.8019359138
20
29.7420596254
30
0.0000000000
10
29.8057976014
20
29.7443762446
30
0.0000000000
11
29.7842072523
21
28.4944447829
31
0.0000000000
11
29.7844086660
21
28.6638886566
31
0.0000000000
11
29.7851826022
21
28.8639898325
31
0.0000000000
11
29.7867157101
21
29.0763467860
31
0.0000000000
11
29.7890642507
21
29.2807031745
31
0.0000000000
11
29.7921302744
21
29.4581492041
31
0.0000000000
11
29.7956778741
21
29.5949078662
31
0.0000000000
11
29.7993736729
21
29.6849243292
31
0.0000000000
11
29.8028572753
21
29.7311903172
31
0.0000000000
11
29.8057976014
21
29.7443762446
31
0.0000000000
0
SPLINE
5
5FB
100
AcDbEntity
8
0
100
AcDbSpline
62
9
6
CONTINUOUS
70
0
71
3
72
16
73
12
74
10
42
0.0000001000
43
0.0000001000
44
0.0000000001
12
-0.0000001134
22
1.5004386023
32
0.0000000000
13
1.2177111604
23
0.8766387677
33
0.0000000000
40
0.0000000000
40
0.0000000000
40
0.0000000000
40
0.0000000000
40
0.1355775997
40
0.2955787061
40
0.4653915289
40
0.6288207742
40
0.7707436330
40
0.8801430238
40
0.9521801935
40
0.9892614027
40
1.0000000000
40
1.0000000000
40
1.0000000000
40
1.0000000000
10
29.5342453285
20
28.4944447829
30
0.0000000000
10
29.5342453234
20
28.5622534044
30
0.0000000000
10
29.5343863542
20
28.7100894582
30
0.0000000000
10
29.5351490022
20
28.9428340669
30
0.0000000000
10
29.5365162686
20
29.1895961132
30
0.0000000000
10
29.5390406964
20
29.4269872711
30
0.0000000000
10
29.5409934206
20
29.6351573481
30
0.0000000000
10
29.5466360708
20
29.7949453159
30
0.0000000000
10
29.5452380415
20
29.9080932913
30
0.0000000000
10
29.5555500638
20
29.9620863034
30
0.0000000000
10
29.5514768410
20
29.9912245801
30
0.0000000000
10
29.5558356776
20
29.9943625370
30
0.0000000000
11
29.5342453285
21
28.4944447829
31
0.0000000000
11
29.5344469372
21
28.6978705473
31
0.0000000000
11
29.5352208885
21
28.9379411361
31
0.0000000000
11
29.5367538220
21
29.1927302393
31
0.0000000000
11
29.5391020733
21
29.4379345436
31
0.0000000000
11
29.5421677409
21
29.6508590111
31
0.0000000000
11
29.5457149511
21
29.8149677481
31
0.0000000000
11
29.5494102866
21
29.9229919111
31
0.0000000000
11
29.5528933537
21
29.9785208578
31
0.0000000000
11
29.5558356776
21
29.9943625370
31
0.0000000000
0
SPLINE
5
5FC
100
AcDbEntity
8
0
100
AcDbSpline
62
9
6
CONTINUOUS
70
0
71
3
72
11
73
7
74
5
42
0.0000001000
43
0.0000001000
44
0.0000000001
12
0.3901187161
22
-0.0000713042
32
0.0000000000
13
0.0000712903
23
-0.3901187161
33
0.0000000000
40
0.0000000000
40
0.0000000000
40
0.0000000000
40
0.0000000000
40
0.2499825639
40
0.4999840817
40
0.7499949236
40
1.0000000000
40
1.0000000000
40
1.0000000000
40
1.0000000000
10
29.5558356776
20
29.9943625370
30
0.0000000000
10
29.5883433032
20
29.9943565954
30
0.0000000000
10
29.6540698735
20
29.9813370850
30
0.0000000000
10
29.7371448327
20
29.9257003310
30
0.0000000000
10
29.7927743029
20
29.8426173674
30
0.0000000000
10
29.8057916604
20
29.7768867978
30
0.0000000000
10
29.8057976014
20
29.7443762446
30
0.0000000000
11
29.5558356776
21
29.9943625370
31
0.0000000000
11
29.6514814148
21
29.9753203525
31
0.0000000000
11
29.7325693000
21
29.9211270966
31
0.0000000000
11
29.7867572732
21
29.8400313062
31
0.0000000000
11
29.8057976014
21
29.7443762446
31
0.0000000000
0
SPLINE
5
5FD
100
AcDbEntity
8
0
100
AcDbSpline
62
7
6
CONTINUOUS
70
0
71
3
72
11
73
7
74
5
42
0.0000001000
43
0.0000001000
44
0.0000000001
12
0.3921971939
22
0.0042166209
32
0.0000000000
13
0.0133943381
23
-0.3919910847
33
0.0000000000
40
0.0000000000
40
0.0000000000
40
0.0000000000
40
0.0000000000
40
0.2996900157
40
0.5540459973
40
0.7838495076
40
1.0000000000
40
1.0000000000
40
1.0000000000
40
1.0000000000
10
29.6133304269
20
30.0288571446
30
0.0000000000
10
29.6525096213
20
30.0292783710
30
0.0000000000
10
29.7262292466
20
30.0132142456
30
0.0000000000
10
29.8106817190
20
29.9509744458
30
0.0000000000
10
29.8608108517
20
29.8720702239
30
0.0000000000
10
29.8732863186
20
29.8136888663
30
0.0000000000
10
29.8742513829
20
29.7854458443
30
0.0000000000
11
29.6133304269
21
30.0288571446
31
0.0000000000
11
29.7281573472
21
30.0037283024
31
0.0000000000
11
29.8084951430
21
29.9445794391
31
0.0000000000
11
29.8566242853
21
29.8683716074
31
0.0000000000
11
29.8742513829
21
29.7854458443
31
0.0000000000
0
SPLINE
5
5FE
100
AcDbEntity
8
0
100
AcDbSpline
62
7
6
CONTINUOUS
70
0
71
3
72
11
73
7
74
5
42
0.0000001000
43
0.0000001000
44
0.0000000001
12
0.0133943381
22
0.3919910847
32
0.0000000000
13
0.3921971939
23
-0.0042166209
33
0.0000000000
40
0.0000000000
40
0.0000000000
40
0.0000000000
40
0.0000000000
40
0.2161504924
40
0.4459540027
40
0.7003099843
40
1.0000000000
40
1.0000000000
40
1.0000000000
40
1.0000000000
10
5.2870543991
20
29.7854458443
30
0.0000000000
10
5.2880194634
20
29.8136888663
30
0.0000000000
10
5.3004949303
20
29.8720702239
30
0.0000000000
10
5.3506240630
20
29.9509744458
30
0.0000000000
10
5.4350765354
20
30.0132142456
30
0.0000000000
10
5.5087961607
20
30.0292783710
30
0.0000000000
10
5.5479753551
20
30.0288571446
30
0.0000000000
11
5.2870543991
21
29.7854458443
31
0.0000000000
11
5.3046814967
21
29.8683716074
31
0.0000000000
11
5.3528106390
21
29.9445794391
31
0.0000000000
11
5.4331484348
21
30.0037283024
31
0.0000000000
11
5.5479753551
21
30.0288571446
31
0.0000000000
0
SPLINE
5
5FF
100
AcDbEntity
8
0
100
AcDbSpline
62
9
6
CONTINUOUS
70
0
71
3
72
11
73
7
74
5
42
0.0000001000
43
0.0000001000
44
0.0000000001
12
-0.3901187161
22
-0.0000713042
32
0.0000000000
13
-0.0000712903
23
-0.3901187161
33
0.0000000000
40
0.0000000000
40
0.0000000000
40
0.0000000000
40
0.0000000000
40
0.2499829753
40
0.4999847112
40
0.7499954439
40
1.0000000000
40
1.0000000000
40
1.0000000000
40
1.0000000000
10
5.6054701044
20
29.9943625370
30
0.0000000000
10
5.5729624253
20
29.9943565954
30
0.0000000000
10
5.5072357697
20
29.9813370459
30
0.0000000000
10
5.4241607957
20
29.9257001816
30
0.0000000000
10
5.3685314338
20
29.8426172136
30
0.0000000000
10
5.3555141216
20
29.7768867301
30
0.0000000000
10
5.3555081806
20
29.7443762446
30
0.0000000000
11
5.6054701044
21
29.9943625370
31
0.0000000000
11
5.5098242160
21
29.9753202899
31
0.0000000000
11
5.4287363050
21
29.9211269196
31
0.0000000000
11
5.3745484296
21
29.8400311150
31
0.0000000000
11
5.3555081806
21
29.7443762446
31
0.0000000000
0
SPLINE
5
600
100
AcDbEntity
8
0
100
AcDbSpline
62
9
6
CONTINUOUS
70
0
71
3
72
16
73
12
74
10
42
0.0000001000
43
0.0000001000
44
0.0000000001
12
1.0723657755
22
-0.6433665379
32
0.0000000000
13
-0.0000001264
23
-1.2505554201
33
0.0000000000
40
0.0000000000
40
0.0000000000
40
0.0000000000
40
0.0000000000
40
0.0107740692
40
0.0478279703
40
0.1198529674
40
0.2292905841
40
0.3713014562
40
0.5348349378
40
0.7047157124
40
0.8646904111
40
1.0000000000
40
1.0000000000
40
1.0000000000
40
1.0000000000
10
5.3555081806
20
29.7443762446
30
0.0000000000
10
5.3593594283
20
29.7420656861
30
0.0000000000
10
5.3566227784
20
29.7171971299
30
0.0000000000
10
5.3654555796
20
29.6728986785
30
0.0000000000
10
5.3650429342
20
29.5781643718
30
0.0000000000
10
5.3702090584
20
29.4451718388
30
0.0000000000
10
5.3723525729
20
29.2714941869
30
0.0000000000
10
5.3748149900
20
29.0735623478
30
0.0000000000
10
5.3762001290
20
28.8678283899
30
0.0000000000
10
5.3769570221
20
28.6739419276
30
0.0000000000
10
5.3770985354
20
28.5508488295
30
0.0000000000
10
5.3770985297
20
28.4944447829
30
0.0000000000
11
5.3555081806
21
29.7443762446
31
0.0000000000
11
5.3584442116
21
29.7312264603
31
0.0000000000
11
5.3619269118
21
29.6850195664
31
0.0000000000
11
5.3656241369
21
29.5950242293
31
0.0000000000
11
5.3691741696
21
29.4582124755
31
0.0000000000
11
5.3722423311
21
29.2806465152
31
0.0000000000
11
5.3745918562
21
29.0761523303
31
0.0000000000
11
5.3761246779
21
28.8637125367
31
0.0000000000
11
5.3768976684
21
28.6636568035
31
0.0000000000
11
5.3770985297
21
28.4944447829
31
0.0000000000
0
SPLINE
5
601
100
AcDbEntity
8
0
100
AcDbSpline
62
9
6
CONTINUOUS
70
0
71
3
72
16
73
12
74
10
42
0.0000001000
43
0.0000001000
44
0.0000000001
12
1.2176945805
22
-0.8766620394
32
0.0000000000
13
-0.0000001409
23
-1.5004387434
33
0.0000000000
40
0.0000000000
40
0.0000000000
40
0.0000000000
40
0.0000000000
40
0.0107094701
40
0.0477432039
40
0.1197635362
40
0.2292056922
40
0.3712250549
40
0.5347650924
40
0.7046445403
40
0.8646092827
40
1.0000000000
40
1.0000000000
40
1.0000000000
40
1.0000000000
10
5.6054701044
20
29.9943625370
30
0.0000000000
10
5.6098170590
20
29.9912330083
30
0.0000000000
10
5.6057610376
20
29.9621444450
30
0.0000000000
10
5.6160610509
20
29.9081923470
30
0.0000000000
10
5.6146671403
20
29.7950548624
30
0.0000000000
10
5.6203121599
20
29.6352072887
30
0.0000000000
10
5.6222660097
20
29.4269111995
30
0.0000000000
10
5.6247912658
20
29.1893833335
30
0.0000000000
10
5.6261580788
20
28.9425506496
30
0.0000000000
10
5.6269197235
20
28.7098843496
30
0.0000000000
10
5.6270604598
20
28.5621599422
30
0.0000000000
10
5.6270604535
20
28.4944447829
30
0.0000000000
11
5.6054701044
21
29.9943625370
31
0.0000000000
11
5.6084081034
21
29.9785645044
31
0.0000000000
11
5.6118902709
21
29.9231068700
31
0.0000000000
11
5.6155870431
21
29.8151080244
31
0.0000000000
11
5.6191367000
21
29.6509351432
31
0.0000000000
11
5.6222045165
21
29.4378658735
31
0.0000000000
11
5.6245537562
21
29.1924953110
31
0.0000000000
11
5.6260864016
21
28.9376062136
31
0.0000000000
11
5.6268594014
21
28.6975901612
31
0.0000000000
11
5.6270604535
21
28.4944447829
31
0.0000000000
0
SPLINE
5
602
100
AcDbEntity
8
0
100
AcDbSpline
62
9
6
CONTINUOUS
70
0
71
3
72
16
73
12
74
10
42
0.0000001000
43
0.0000001000
44
0.0000000001
12
0.0000000052
22
-1.2505539817
32
0.0000000000
13
-1.0725087824
23
-0.6431253165
33
0.0000000000
40
0.0000000000
40
0.0000000000
40
0.0000000000
40
0.0000000000
40
0.1340749745
40
0.2931391110
40
0.4625038121
40
0.6259980284
40
0.7684011633
40
0.8785304791
40
0.9513301622
40
0.9889849674
40
1.0000000000
40
1.0000000000
40
1.0000000000
40
1.0000000000
10
5.3770985297
20
-13.1681807782
30
0.0000000000
10
5.3770985299
20
-13.2240701092
30
0.0000000000
10
5.3769593458
20
-13.3462687923
30
0.0000000000
10
5.3762127277
20
-13.5390459211
30
0.0000000000
10
5.3748422895
20
-13.7441681099
30
0.0000000000
10
5.3723951706
20
-13.9420328704
30
0.0000000000
10
5.3702687068
20
-14.1161462127
30
0.0000000000
10
5.3650860301
20
-14.2499045635
30
0.0000000000
10
5.3655579527
20
-14.3455401173
30
0.0000000000
10
5.3565799595
20
-14.3904206649
30
0.0000000000
10
5.3594460870
20
-14.4157508911
30
0.0000000000
10
5.3555081806
20
-14.4181122399
30
0.0000000000
11
5.3770985297
21
-13.1681807782
31
0.0000000000
11
5.3769013341
21
-13.3358486553
31
0.0000000000
11
5.3761390998
21
-13.5347654842
31
0.0000000000
11
5.3746222921
21
-13.7465597541
31
0.0000000000
11
5.3722898606
21
-13.9510047929
31
0.0000000000
11
5.3692349608
21
-14.1290613959
31
0.0000000000
11
5.3656894111
21
-14.2667384041
31
0.0000000000
11
5.3619840905
21
-14.3577029033
31
0.0000000000
11
5.3584798182
21
-14.4046616992
31
0.0000000000
11
5.3555081806
21
-14.4181122399
31
0.0000000000
0
SPLINE
5
603
100
AcDbEntity
8
0
100
AcDbSpline
62
9
6
CONTINUOUS
70
0
71
3
72
16
73
12
74
10
42
0.0000001000
43
0.0000001000
44
0.0000000001
12
-0.0000000065
22
-1.5004375436
32
0.0000000000
13
-1.2177948024
23
-0.8765207594
33
0.0000000000
40
0.0000000000
40
0.0000000000
40
0.0000000000
40
0.0000000000
40
0.1341831529
40
0.2932458992
40
0.4626135139
40
0.6261124818
40
0.7685167880
40
0.8786403908
40
0.9514254509
40
0.9890532315
40
1.0000000000
40
1.0000000000
40
1.0000000000
40
1.0000000000
10
5.6270604535
20
-13.1681807782
30
0.0000000000
10
5.6270604532
20
-13.2352919249
30
0.0000000000
10
5.6269219882
20
-13.3819610684
30
0.0000000000
10
5.6261705081
20
-13.6133163559
30
0.0000000000
10
5.6248180070
20
-13.8594206185
30
0.0000000000
10
5.6223082739
20
-14.0968656207
30
0.0000000000
10
5.6203708148
20
-14.3056741436
30
0.0000000000
10
5.6147083546
20
-14.4664296358
30
0.0000000000
10
5.6161685190
20
-14.5806256433
30
0.0000000000
10
5.6057048548
20
-14.6352847949
30
0.0000000000
10
5.6099137436
20
-14.6649001756
30
0.0000000000
10
5.6054701044
20
-14.6680985322
30
0.0000000000
11
5.6270604535
21
-13.1681807782
31
0.0000000000
11
5.6268629889
21
-13.3695141217
31
0.0000000000
11
5.6261005853
21
-13.6081766202
31
0.0000000000
11
5.6245837362
21
-13.8622976211
31
0.0000000000
11
5.6222513737
21
-14.1076065231
31
0.0000000000
11
5.6191966757
21
-14.3212534538
31
0.0000000000
11
5.6156514812
21
-14.4864490053
31
0.0000000000
11
5.6119467215
21
-14.5955955850
31
0.0000000000
11
5.6084431721
21
-14.6519449072
31
0.0000000000
11
5.6054701044
21
-14.6680985322
31
0.0000000000
0
SPLINE
5
604
100
AcDbEntity
8
0
100
AcDbSpline
62
9
6
CONTINUOUS
70
0
71
3
72
11
73
7
74
5
42
0.0000001000
43
0.0000001000
44
0.0000000001
12
-0.3901187161
22
0.0000713042
32
0.0000000000
13
-0.0000712903
23
0.3901187161
33
0.0000000000
40
0.0000000000
40
0.0000000000
40
0.0000000000
40
0.0000000000
40
0.2499825639
40
0.4999840817
40
0.7499949236
40
1.0000000000
40
1.0000000000
40
1.0000000000
40
1.0000000000
10
5.6054701044
20
-14.6680985322
30
0.0000000000
10
5.5729624788
20
-14.6680925906
30
0.0000000000
10
5.5072359085
20
-14.6550730802
30
0.0000000000
10
5.4241609493
20
-14.5994363262
30
0.0000000000
10
5.3685314791
20
-14.5163533626
30
0.0000000000
10
5.3555141216
20
-14.4506227930
30
0.0000000000
10
5.3555081806
20
-14.4181122399
30
0.0000000000
11
5.6054701044
21
-14.6680985322
31
0.0000000000
11
5.5098243672
21
-14.6490563477
31
0.0000000000
11
5.4287364820
21
-14.5948630918
31
0.0000000000
11
5.3745485089
21
-14.5137673014
31
0.0000000000
11
5.3555081806
21
-14.4181122399
31
0.0000000000
0
SPLINE
5
605
100
AcDbEntity
8
0
100
AcDbSpline
62
7
6
CONTINUOUS
70
0
71
3
72
11
73
7
74
5
42
0.0000001000
43
0.0000001000
44
0.0000000001
12
-0.3921971939
22
-0.0042166209
32
0.0000000000
13
-0.0133943381
23
0.3919910847
33
0.0000000000
40
0.0000000000
40
0.0000000000
40
0.0000000000
40
0.0000000000
40
0.2996900157
40
0.5540459973
40
0.7838495076
40
1.0000000000
40
1.0000000000
40
1.0000000000
40
1.0000000000
10
5.5479753551
20
-14.7025931398
30
0.0000000000
10
5.5087961607
20
-14.7030143662
30
0.0000000000
10
5.4350765354
20
-14.6869502408
30
0.0000000000
10
5.3506240630
20
-14.6247104410
30
0.0000000000
10
5.3004949303
20
-14.5458062191
30
0.0000000000
10
5.2880194634
20
-14.4874248615
30
0.0000000000
10
5.2870543991
20
-14.4591818395
30
0.0000000000
11
5.5479753551
21
-14.7025931398
31
0.0000000000
11
5.4331484348
21
-14.6774642976
31
0.0000000000
11
5.3528106390
21
-14.6183154343
31
0.0000000000
11
5.3046814967
21
-14.5421076026
31
0.0000000000
11
5.2870543991
21
-14.4591818395
31
0.0000000000
0
SPLINE
5
606
100
AcDbEntity
8
0
100
AcDbSpline
62
7
6
CONTINUOUS
70
0
71
3
72
14
73
10
74
8
42
0.0000001000
43
0.0000001000
44
0.0000000001
12
0.4999809615
22
0.4999809615
32
0.0000000000
13
0.4999809615
23
0.4999809615
33
0.0000000000
40
0.0000000000
40
0.0000000000
40
0.0000000000
40
0.0000000000
40
0.1854507839
40
0.3721253642
40
0.5519494232
40
0.7167843406
40
0.8569246016
40
0.9584719540
40
1.0000000000
40
1.0000000000
40
1.0000000000
40
1.0000000000
10
14.5719069840
20
1.0043860954
30
0.0000000000
10
14.6028142711
20
1.0352933825
30
0.0000000000
10
14.6648328036
20
1.0973119150
30
0.0000000000
10
14.7568208713
20
1.1892999827
30
0.0000000000
10
14.8453730922
20
1.2778522036
30
0.0000000000
10
14.9261698885
20
1.3586489999
30
0.0000000000
10
14.9939210638
20
1.4264001752
30
0.0000000000
10
15.0411218763
20
1.4736009877
30
0.0000000000
10
15.0649668681
20
1.4974459795
30
0.0000000000
10
15.0718879456
20
1.5043670569
30
0.0000000000
11
14.5719069840
21
1.0043860954
31
0.0000000000
11
14.6646288453
21
1.0971079567
31
0.0000000000
11
14.7579625814
21
1.1904416928
31
0.0000000000
11
14.8478711873
21
1.2803502987
31
0.0000000000
11
14.9302855078
21
1.3627646192
31
0.0000000000
11
15.0003529703
21
1.4328320817
31
0.0000000000
11
15.0511247132
21
1.4836038246
31
0.0000000000
11
15.0718879456
21
1.5043670569
31
0.0000000000
0
SPLINE
5
607
100
AcDbEntity
8
0
100
AcDbSpline
62
7
6
CONTINUOUS
70
0
71
3
72
9
73
5
74
3
42
0.0000001000
43
0.0000001000
44
0.0000000001
12
-0.0982501269
22
-0.0785621217
32
0.0000000000
13
-0.0481723954
23
-0.1164809556
33
0.0000000000
40
0.0000000000
40
0.0000000000
40
0.0000000000
40
0.0000000000
40
0.2200239336
40
1.0000000000
40
1.0000000000
40
1.0000000000
40
1.0000000000
10
28.0745054565
20
31.6083485412
30
0.0000000000
10
28.0672996634
20
31.6025866921
30
0.0000000000
10
28.0360017443
20
31.5745969884
30
0.0000000000
10
28.0122264834
20
31.5390849636
30
0.0000000000
10
27.9997020449
20
31.5088008444
30
0.0000000000
11
28.0745054565
21
31.6083485412
31
0.0000000000
11
28.0538912567
21
31.5899057231
31
0.0000000000
11
27.9997020449
21
31.5088008444
31
0.0000000000
0
SPLINE
5
608
100
AcDbEntity
8
0
100
AcDbSpline
62
7
6
CONTINUOUS
70
0
71
3
72
8
73
4
74
2
42
0.0000001000
43
0.0000001000
44
0.0000000001
12
-0.0375760132
22
-0.0908588807
32
0.0000000000
13
0.0000000000
23
-0.0975491587
33
0.0000000000
40
0.0000000000
40
0.0000000000
40
0.0000000000
40
0.0000000000
40
1.0000000000
40
1.0000000000
40
1.0000000000
40
1.0000000000
10
27.9997020449
20
31.5088008444
30
0.0000000000
10
27.9871767071
20
31.4785145508
30
0.0000000000
10
27.9806719298
20
31.4456422961
30
0.0000000000
10
27.9806719298
20
31.4131259099
30
0.0000000000
11
27.9997020449
21
31.5088008444
31
0.0000000000
11
27.9806719298
21
31.4131259099
31
0.0000000000
0
SPLINE
5
609
100
AcDbEntity
8
INC_LASER
100
AcDbSpline
62
9
6
CONTINUOUS
70
0
71
3
72
15
73
11
74
9
42
0.0000001000
43
0.0000001000
44
0.0000000001
12
0.0000000000
22
1.1085580917
32
0.0000000000
13
0.0000000000
23
-1.1085580917
33
0.0000000000
40
0.0000000000
40
0.0000000000
40
0.0000000000
40
0.0000000000
40
0.1250000000
40
0.2500000000
40
0.3750000000
40
0.5000000000
40
0.6250000000
40
0.7500000000
40
0.8750000000
40
1.0000000000
40
1.0000000000
40
1.0000000000
40
1.0000000000
10
29.8993490837
20
-1.0176629976
30
9.7078920000
10
29.8993490837
20
-0.9714730771
30
9.7078920000
10
29.8990283815
20
-0.8791147689
30
9.7262650201
10
29.8976584573
20
-0.7616531427
30
9.8047479221
10
29.8956082209
20
-0.6831712397
30
9.9222058854
10
29.8931898022
20
-0.6556113765
30
10.0607570000
10
29.8907713835
20
-0.6831712397
30
10.1993081146
10
29.8887211472
20
-0.7616531427
30
10.3167660779
10
29.8873512230
20
-0.8791147689
30
10.3952489799
10
29.8870305207
20
-0.9714730771
30
10.4136220000
10
29.8870305207
20
-1.0176629976
30
10.4136220000
11
29.8993490837
21
-1.0176629976
31
9.7078920000
11
29.8988802363
21
-0.8826274082
31
9.7347522488
11
29.8975450719
21
-0.7681497633
31
9.8112437657
11
29.8955468572
21
-0.6916582464
31
9.9257214106
11
29.8931898022
21
-0.6647979976
31
10.0607570000
11
29.8908327472
21
-0.6916582464
31
10.1957925894
11
29.8888345325
21
-0.7681497633
31
10.3102702343
11
29.8874993681
21
-0.8826274082
31
10.3867617512
11
29.8870305207
21
-1.0176629976
31
10.4136220000
0
SPLINE
5
60A
100
AcDbEntity
8
INC_LASER
100
AcDbSpline
62
9
6
CONTINUOUS
70
0
71
3
72
15
73
11
74
9
42
0.0000001000
43
0.0000001000
44
0.0000000001
12
0.0000000000
22
2.4395158702
32
0.0000000000
13
0.0165305186
23
-2.2481918507
33
-0.9470327783
40
0.0000000000
40
0.0000000000
40
0.0000000000
40
0.0000000000
40
0.1250000000
40
0.2500000000
40
0.3750000000
40
0.5000000000
40
0.6250000000
40
0.7500000000
40
0.8750000000
40
1.0000000000
40
1.0000000000
40
1.0000000000
40
1.0000000000
10
29.8776654440
20
-0.9371569976
30
10.9501468871
10
29.8776654440
20
-0.8355105030
30
10.9501468871
10
29.8782797510
20
-0.6322449292
30
10.9149532650
10
29.8809368665
20
-0.3628192756
30
10.7627272200
10
29.8850203267
20
-0.1602571714
30
10.5287859376
10
29.8900547818
20
-0.0481310740
30
10.2403622016
10
29.8954541823
20
-0.0394958551
30
9.9310307512
10
29.9005899795
20
-0.1353543867
30
9.6368011274
10
29.9048643732
20
-0.3245548385
30
9.3919212779
10
29.9068078593
20
-0.4982165465
30
9.2805790322
10
29.9074966309
20
-0.5918912069
30
9.2411193331
11
29.8776654440
21
-0.9371569976
31
10.9501468871
11
29.8785690268
21
-0.6381570471
31
10.8983806630
11
29.8811745906
21
-0.3739632005
31
10.7491080138
11
29.8851788259
21
-0.1753298392
31
10.5197055287
11
29.8901156060
21
-0.0653795537
31
10.2368775826
11
29.8954102484
21
-0.0569114802
31
9.9335477223
11
29.9004464123
21
-0.1509113734
31
9.6450260898
11
29.9046378458
21
-0.3364368568
31
9.4048990247
11
29.9074966309
21
-0.5918912069
31
9.2411193331
0
SPLINE
5
60B
100
AcDbEntity
8
0
100
AcDbSpline
62
3
6
CONTINUOUS
70
0
71
3
72
10
73
6
74
4
42
0.0000001000
43
0.0000001000
44
0.0000000001
12
-0.0704975293
22
0.0032969751
32
0.0000000000
13
-0.0694760213
23
0.0124064081
33
0.0000000000
40
0.0000000000
40
0.0000000000
40
0.0000000000
40
0.0000000000
40
0.1294183897
40
0.6634789391
40
1.0000000000
40
1.0000000000
40
1.0000000000
40
1.0000000000
10
21.5007550704
20
-14.7713892045
30
0.0000000000
10
21.4977138448
20
-14.7712469747
30
0.0000000000
10
21.4821278649
20
-14.7704043544
30
0.0000000000
10
21.4586917538
20
-14.7682475730
30
0.0000000000
10
21.4384322214
20
-14.7651937328
30
0.0000000000
10
21.4306388399
20
-14.7638020603
30
0.0000000000
11
21.5007550704
21
-14.7713892045
31
0.0000000000
11
21.4916348266
21
-14.7708958650
31
0.0000000000
11
21.4541162045
21
-14.7673788964
31
0.0000000000
11
21.4306388399
21
-14.7638020603
31
0.0000000000
0
SPLINE
5
60C
100
AcDbEntity
8
0
100
AcDbSpline
62
3
6
CONTINUOUS
70
0
71
3
72
9
73
5
74
3
42
0.0000001000
43
0.0000001000
44
0.0000000001
12
-0.0321385410
22
0.0057390140
32
0.0000000000
13
-0.0315126896
23
0.0085485875
33
0.0000000000
40
0.0000000000
40
0.0000000000
40
0.0000000000
40
0.0000000000
40
0.3462358598
40
1.0000000000
40
1.0000000000
40
1.0000000000
40
1.0000000000
10
21.4306388399
20
-14.7638020603
30
0.0000000000
10
21.4269296681
20
-14.7631397095
30
0.0000000000
10
21.4162416087
20
-14.7610885194
30
0.0000000000
10
21.4056399294
20
-14.7586063196
30
0.0000000000
10
21.3987726406
20
-14.7567433996
30
0.0000000000
11
21.4306388399
21
-14.7638020603
31
0.0000000000
11
21.4195388444
21
-14.7616676492
31
0.0000000000
11
21.3987726406
21
-14.7567433996
31
0.0000000000
0
SPLINE
5
60D
100
AcDbEntity
8
0
100
AcDbSpline
62
3
6
CONTINUOUS
70
0
71
3
72
9
73
5
74
3
42
0.0000001000
43
0.0000001000
44
0.0000000001
12
-0.0216292107
22
0.0058674522
32
0.0000000000
13
-0.0210382106
23
0.0077487957
33
0.0000000000
40
0.0000000000
40
0.0000000000
40
0.0000000000
40
0.0000000000
40
0.4431588448
40
1.0000000000
40
1.0000000000
40
1.0000000000
40
1.0000000000
10
21.3987726406
20
-14.7567433996
30
0.0000000000
10
21.3955775819
20
-14.7558766618
30
0.0000000000
10
21.3883989642
20
-14.7538035427
30
0.0000000000
10
21.3813043057
20
-14.7514370473
30
0.0000000000
10
21.3773993252
20
-14.7499987645
30
0.0000000000
11
21.3987726406
21
-14.7567433996
31
0.0000000000
11
21.3892315348
21
-14.7539816036
31
0.0000000000
11
21.3773993252
21
-14.7499987645
31
0.0000000000
0
SPLINE
5
60E
100
AcDbEntity
8
0
100
AcDbSpline
62
3
6
CONTINUOUS
70
0
71
3
72
9
73
5
74
3
42
0.0000001000
43
0.0000001000
44
0.0000000001
12
-0.0210382106
22
-0.0077487957
32
0.0000000000
13
-0.0216292107
23
-0.0058674522
33
0.0000000000
40
0.0000000000
40
0.0000000000
40
0.0000000000
40
0.0000000000
40
0.5568411552
40
1.0000000000
40
1.0000000000
40
1.0000000000
40
1.0000000000
10
13.7839064568
20
-14.7499987645
30
0.0000000000
10
13.7800014763
20
-14.7514370473
30
0.0000000000
10
13.7729068178
20
-14.7538035427
30
0.0000000000
10
13.7657282001
20
-14.7558766618
30
0.0000000000
10
13.7625331414
20
-14.7567433996
30
0.0000000000
11
13.7839064568
21
-14.7499987645
31
0.0000000000
11
13.7720742472
21
-14.7539816036
31
0.0000000000
11
13.7625331414
21
-14.7567433996
31
0.0000000000
0
SPLINE
5
60F
100
AcDbEntity
8
0
100
AcDbSpline
62
3
6
CONTINUOUS
70
0
71
3
72
11
73
7
74
5
42
0.0000001000
43
0.0000001000
44
0.0000000001
12
-0.0996357662
22
-0.0270286377
32
0.0000000000
13
-0.1031086042
23
-0.0048221052
33
0.0000000000
40
0.0000000000
40
0.0000000000
40
0.0000000000
40
0.0000000000
40
0.2067717970
40
0.5463654438
40
0.9115139150
40
1.0000000000
40
1.0000000000
40
1.0000000000
40
1.0000000000
10
13.7625331414
20
-14.7567433996
30
0.0000000000
10
13.7556658526
20
-14.7586063196
30
0.0000000000
10
13.7373516642
20
-14.7628942701
30
0.0000000000
10
13.7063676353
20
-14.7679021356
30
0.0000000000
10
13.6791779171
20
-14.7704043544
30
0.0000000000
10
13.6635919372
20
-14.7712469747
30
0.0000000000
10
13.6605507116
20
-14.7713892045
30
0.0000000000
11
13.7625331414
21
-14.7567433996
31
0.0000000000
11
13.7417669376
21
-14.7616676492
31
0.0000000000
11
13.7071895775
21
-14.7673788964
31
0.0000000000
11
13.6696709554
21
-14.7708958650
31
0.0000000000
11
13.6605507116
21
-14.7713892045
31
0.0000000000
0
SPLINE
5
610
100
AcDbEntity
8
0
100
AcDbSpline
62
3
6
CONTINUOUS
70
0
71
3
72
15
73
11
74
9
42
0.0000001000
43
0.0000001000
44
0.0000000001
12
0.2198589173
22
0.0000000000
32
0.0000000000
13
0.0000000000
23
-0.2198589173
33
0.0000000000
40
0.0000000000
40
0.0000000000
40
0.0000000000
40
0.0000000000
40
0.1775508236
40
0.3489475586
40
0.5083491360
40
0.6505618283
40
0.7714455810
40
0.8685458831
40
0.9424410166
40
1.0000000000
40
1.0000000000
40
1.0000000000
40
1.0000000000
10
21.8806528910
20
-15.7993214048
30
0.0000000000
10
21.8936649349
20
-15.7993214048
30
0.0000000000
10
21.9192452742
20
-15.8000863679
30
0.0000000000
10
21.9563676353
20
-15.8035026693
30
0.0000000000
10
21.9906217520
20
-15.8090390703
30
0.0000000000
10
22.0207184208
20
-15.8164762900
30
0.0000000000
10
22.0456107414
20
-15.8254945278
30
0.0000000000
10
22.0644427427
20
-15.8358443846
30
0.0000000000
10
22.0770703263
20
-15.8472915479
30
0.0000000000
10
22.0806528910
20
-15.8569065185
30
0.0000000000
10
22.0806528910
20
-15.8611248037
30
0.0000000000
11
21.8806528910
21
-15.7993214048
31
0.0000000000
11
21.9196709554
21
-15.8005089398
31
0.0000000000
11
21.9571895775
21
-15.8040259085
31
0.0000000000
11
21.9917669376
21
-15.8097371556
31
0.0000000000
11
22.0220742472
21
-15.8174232013
31
0.0000000000
11
22.0469468135
21
-15.8267886750
31
0.0000000000
11
22.0654287975
21
-15.8374736669
31
0.0000000000
11
22.0768099471
21
-15.8490675587
31
0.0000000000
11
22.0806528910
21
-15.8611248037
31
0.0000000000
0
SPLINE
5
611
100
AcDbEntity
8
0
100
AcDbSpline
62
3
6
CONTINUOUS
70
0
71
3
72
15
73
11
74
9
42
0.0000001000
43
0.0000001000
44
0.0000000001
12
0.0000000000
22
0.2198589173
32
0.0000000000
13
0.2198589173
23
0.0000000000
33
0.0000000000
40
0.0000000000
40
0.0000000000
40
0.0000000000
40
0.0000000000
40
0.0575589834
40
0.1314541169
40
0.2285544190
40
0.3494381717
40
0.4916508640
40
0.6510524414
40
0.8224491764
40
1.0000000000
40
1.0000000000
40
1.0000000000
40
1.0000000000
10
13.0806528910
20
-15.8611248037
30
0.0000000000
10
13.0806528910
20
-15.8569065185
30
0.0000000000
10
13.0842354557
20
-15.8472915479
30
0.0000000000
10
13.0968630393
20
-15.8358443846
30
0.0000000000
10
13.1156950406
20
-15.8254945278
30
0.0000000000
10
13.1405873612
20
-15.8164762900
30
0.0000000000
10
13.1706840300
20
-15.8090390703
30
0.0000000000
10
13.2049381467
20
-15.8035026693
30
0.0000000000
10
13.2420605078
20
-15.8000863679
30
0.0000000000
10
13.2676408471
20
-15.7993214048
30
0.0000000000
10
13.2806528910
20
-15.7993214048
30
0.0000000000
11
13.0806528910
21
-15.8611248037
31
0.0000000000
11
13.0844958349
21
-15.8490675587
31
0.0000000000
11
13.0958769845
21
-15.8374736669
31
0.0000000000
11
13.1143589685
21
-15.8267886750
31
0.0000000000
11
13.1392315348
21
-15.8174232013
31
0.0000000000
11
13.1695388444
21
-15.8097371556
31
0.0000000000
11
13.2041162045
21
-15.8040259085
31
0.0000000000
11
13.2416348266
21
-15.8005089398
31
0.0000000000
11
13.2806528910
21
-15.7993214048
31
0.0000000000
0
SPLINE
5
612
100
AcDbEntity
8
0
100
AcDbSpline
62
3
6
CONTINUOUS
70
0
71
3
72
10
73
6
74
4
42
0.0000001000
43
0.0000001000
44
0.0000000001
12
0.0704975293
22
-0.0032969751
32
0.0000000000
13
0.0694760213
23
-0.0124064081
33
0.0000000000
40
0.0000000000
40
0.0000000000
40
0.0000000000
40
0.0000000000
40
0.1294183897
40
0.6634789391
40
1.0000000000
40
1.0000000000
40
1.0000000000
40
1.0000000000
10
13.6605507116
20
30.0976532092
30
0.0000000000
10
13.6635919372
20
30.0975109795
30
0.0000000000
10
13.6791779171
20
30.0966683592
30
0.0000000000
10
13.7026140282
20
30.0945115778
30
0.0000000000
10
13.7228735606
20
30.0914577376
30
0.0000000000
10
13.7306669421
20
30.0900660651
30
0.0000000000
11
13.6605507116
21
30.0976532092
31
0.0000000000
11
13.6696709554
21
30.0971598698
31
0.0000000000
11
13.7071895775
21
30.0936429012
31
0.0000000000
11
13.7306669421
21
30.0900660651
31
0.0000000000
0
SPLINE
5
613
100
AcDbEntity
8
0
100
AcDbSpline
62
3
6
CONTINUOUS
70
0
71
3
72
9
73
5
74
3
42
0.0000001000
43
0.0000001000
44
0.0000000001
12
0.0321385410
22
-0.0057390140
32
0.0000000000
13
0.0315126896
23
-0.0085485875
33
0.0000000000
40
0.0000000000
40
0.0000000000
40
0.0000000000
40
0.0000000000
40
0.3462358598
40
1.0000000000
40
1.0000000000
40
1.0000000000
40
1.0000000000
10
13.7306669421
20
30.0900660651
30
0.0000000000
10
13.7343761139
20
30.0894037142
30
0.0000000000
10
13.7450641733
20
30.0873525242
30
0.0000000000
10
13.7556658526
20
30.0848703244
30
0.0000000000
10
13.7625331414
20
30.0830074044
30
0.0000000000
11
13.7306669421
21
30.0900660651
31
0.0000000000
11
13.7417669376
21
30.0879316540
31
0.0000000000
11
13.7625331414
21
30.0830074044
31
0.0000000000
0
SPLINE
5
614
100
AcDbEntity
8
0
100
AcDbSpline
62
3
6
CONTINUOUS
70
0
71
3
72
9
73
5
74
3
42
0.0000001000
43
0.0000001000
44
0.0000000001
12
0.0216292107
22
-0.0058674522
32
0.0000000000
13
0.0210382106
23
-0.0077487957
33
0.0000000000
40
0.0000000000
40
0.0000000000
40
0.0000000000
40
0.0000000000
40
0.4431588448
40
1.0000000000
40
1.0000000000
40
1.0000000000
40
1.0000000000
10
13.7625331414
20
30.0830074044
30
0.0000000000
10
13.7657282001
20
30.0821406666
30
0.0000000000
10
13.7729068178
20
30.0800675475
30
0.0000000000
10
13.7800014763
20
30.0777010521
30
0.0000000000
10
13.7839064568
20
30.0762627693
30
0.0000000000
11
13.7625331414
21
30.0830074044
31
0.0000000000
11
13.7720742472
21
30.0802456084
31
0.0000000000
11
13.7839064568
21
30.0762627693
31
0.0000000000
0
SPLINE
5
615
100
AcDbEntity
8
0
100
AcDbSpline
62
3
6
CONTINUOUS
70
0
71
3
72
9
73
5
74
3
42
0.0000001000
43
0.0000001000
44
0.0000000001
12
0.0210382106
22
0.0077487957
32
0.0000000000
13
0.0216292107
23
0.0058674522
33
0.0000000000
40
0.0000000000
40
0.0000000000
40
0.0000000000
40
0.0000000000
40
0.5568411552
40
1.0000000000
40
1.0000000000
40
1.0000000000
40
1.0000000000
10
21.3773993252
20
30.0762627693
30
0.0000000000
10
21.3813043057
20
30.0777010521
30
0.0000000000
10
21.3883989642
20
30.0800675475
30
0.0000000000
10
21.3955775819
20
30.0821406666
30
0.0000000000
10
21.3987726406
20
30.0830074044
30
0.0000000000
11
21.3773993252
21
30.0762627693
31
0.0000000000
11
21.3892315348
21
30.0802456084
31
0.0000000000
11
21.3987726406
21
30.0830074044
31
0.0000000000
0
SPLINE
5
616
100
AcDbEntity
8
0
100
AcDbSpline
62
3
6
CONTINUOUS
70
0
71
3
72
11
73
7
74
5
42
0.0000001000
43
0.0000001000
44
0.0000000001
12
0.0996357662
22
0.0270286377
32
0.0000000000
13
0.1031086042
23
0.0048221052
33
0.0000000000
40
0.0000000000
40
0.0000000000
40
0.0000000000
40
0.0000000000
40
0.2067717970
40
0.5463654438
40
0.9115139150
40
1.0000000000
40
1.0000000000
40
1.0000000000
40
1.0000000000
10
21.3987726406
20
30.0830074044
30
0.0000000000
10
21.4056399294
20
30.0848703244
30
0.0000000000
10
21.4239541178
20
30.0891582748
30
0.0000000000
10
21.4549381467
20
30.0941661403
30
0.0000000000
10
21.4821278649
20
30.0966683592
30
0.0000000000
10
21.4977138448
20
30.0975109795
30
0.0000000000
10
21.5007550704
20
30.0976532092
30
0.0000000000
11
21.3987726406
21
30.0830074044
31
0.0000000000
11
21.4195388444
21
30.0879316540
31
0.0000000000
11
21.4541162045
21
30.0936429012
31
0.0000000000
11
21.4916348266
21
30.0971598698
31
0.0000000000
11
21.5007550704
21
30.0976532092
31
0.0000000000
0
SPLINE
5
617
100
AcDbEntity
8
0
100
AcDbSpline
62
3
6
CONTINUOUS
70
0
71
3
72
15
73
11
74
9
42
0.0000001000
43
0.0000001000
44
0.0000000001
12
-0.2198589173
22
0.0000000000
32
0.0000000000
13
0.0000000000
23
0.2198589173
33
0.0000000000
40
0.0000000000
40
0.0000000000
40
0.0000000000
40
0.0000000000
40
0.1775508236
40
0.3489475586
40
0.5083491360
40
0.6505618283
40
0.7714455810
40
0.8685458831
40
0.9424410166
40
1.0000000000
40
1.0000000000
40
1.0000000000
40
1.0000000000
10
13.2806528910
20
31.1255854096
30
0.0000000000
10
13.2676408471
20
31.1255854096
30
0.0000000000
10
13.2420605078
20
31.1263503727
30
0.0000000000
10
13.2049381467
20
31.1297666741
30
0.0000000000
10
13.1706840300
20
31.1353030751
30
0.0000000000
10
13.1405873612
20
31.1427402948
30
0.0000000000
10
13.1156950406
20
31.1517585326
30
0.0000000000
10
13.0968630393
20
31.1621083894
30
0.0000000000
10
13.0842354557
20
31.1735555527
30
0.0000000000
10
13.0806528910
20
31.1831705232
30
0.0000000000
10
13.0806528910
20
31.1873888085
30
0.0000000000
11
13.2806528910
21
31.1255854096
31
0.0000000000
11
13.2416348266
21
31.1267729446
31
0.0000000000
11
13.2041162045
21
31.1302899132
31
0.0000000000
11
13.1695388444
21
31.1360011604
31
0.0000000000
11
13.1392315348
21
31.1436872061
31
0.0000000000
11
13.1143589685
21
31.1530526798
31
0.0000000000
11
13.0958769845
21
31.1637376717
31
0.0000000000
11
13.0844958349
21
31.1753315635
31
0.0000000000
11
13.0806528910
21
31.1873888085
31
0.0000000000
0
SPLINE
5
618
100
AcDbEntity
8
0
100
AcDbSpline
62
3
6
CONTINUOUS
70
0
71
3
72
15
73
11
74
9
42
0.0000001000
43
0.0000001000
44
0.0000000001
12
0.0000000000
22
-0.2198589173
32
0.0000000000
13
-0.2198589173
23
0.0000000000
33
0.0000000000
40
0.0000000000
40
0.0000000000
40
0.0000000000
40
0.0000000000
40
0.0575589834
40
0.1314541169
40
0.2285544190
40
0.3494381717
40
0.4916508640
40
0.6510524414
40
0.8224491764
40
1.0000000000
40
1.0000000000
40
1.0000000000
40
1.0000000000
10
22.0806528910
20
31.1873888085
30
0.0000000000
10
22.0806528910
20
31.1831705232
30
0.0000000000
10
22.0770703263
20
31.1735555527
30
0.0000000000
10
22.0644427427
20
31.1621083894
30
0.0000000000
10
22.0456107414
20
31.1517585326
30
0.0000000000
10
22.0207184208
20
31.1427402948
30
0.0000000000
10
21.9906217520
20
31.1353030751
30
0.0000000000
10
21.9563676353
20
31.1297666741
30
0.0000000000
10
21.9192452742
20
31.1263503727
30
0.0000000000
10
21.8936649349
20
31.1255854096
30
0.0000000000
10
21.8806528910
20
31.1255854096
30
0.0000000000
11
22.0806528910
21
31.1873888085
31
0.0000000000
11
22.0768099471
21
31.1753315635
31
0.0000000000
11
22.0654287975
21
31.1637376717
31
0.0000000000
11
22.0469468135
21
31.1530526798
31
0.0000000000
11
22.0220742472
21
31.1436872061
31
0.0000000000
11
21.9917669376
21
31.1360011604
31
0.0000000000
11
21.9571895775
21
31.1302899132
31
0.0000000000
11
21.9196709554
21
31.1267729446
31
0.0000000000
11
21.8806528910
21
31.1255854096
31
0.0000000000
0
SPLINE
5
619
100
AcDbEntity
8
0
100
AcDbSpline
62
7
6
CONTINUOUS
70
0
71
3
72
10
73
6
74
4
42
0.0000001000
43
0.0000001000
44
0.0000000001
12
0.0000000000
22
0.3006414589
32
0.0000000000
13
0.0351874212
23
0.2985751701
33
0.0000000000
40
0.0000000000
40
0.0000000000
40
0.0000000000
40
0.0000000000
40
0.3614684972
40
0.6938247029
40
1.0000000000
40
1.0000000000
40
1.0000000000
40
1.0000000000
10
-22.7034082606
20
4.3131320024
30
0.0000000000
10
-22.7034082606
20
4.3493561412
30
0.0000000000
10
-22.7020132307
20
4.4188959421
30
0.0000000000
10
-22.6960701521
20
4.5189553985
30
0.0000000000
10
-22.6898421461
20
4.5826598886
30
0.0000000000
10
-22.6862509731
20
4.6131320024
30
0.0000000000
11
-22.7034082606
21
4.3131320024
31
0.0000000000
11
-22.7012141482
21
4.4217822668
31
0.0000000000
11
-22.6952553616
21
4.5215244853
31
0.0000000000
11
-22.6862509731
21
4.6131320024
31
0.0000000000
0
SPLINE
5
61A
100
AcDbEntity
8
0
100
AcDbSpline
62
7
6
CONTINUOUS
70
0
71
3
72
10
73
6
74
4
42
0.0000001000
43
0.0000001000
44
0.0000000001
12
0.0351874211
22
-0.2985751689
32
0.0000000000
13
0.0000000000
23
-0.3006414577
33
0.0000000000
40
0.0000000000
40
0.0000000000
40
0.0000000000
40
0.0000000000
40
0.3061016381
40
0.6384033244
40
1.0000000000
40
1.0000000000
40
1.0000000000
40
1.0000000000
10
-15.3205655481
20
4.6131320024
30
0.0000000000
10
-15.3169752391
20
4.5826672196
30
0.0000000000
10
-15.3107481818
20
4.5189755554
30
0.0000000000
10
-15.3048039293
20
4.4189161785
30
0.0000000000
10
-15.3034082606
20
4.3493689863
30
0.0000000000
10
-15.3034082606
20
4.3131320024
30
0.0000000000
11
-15.3205655481
21
4.6131320024
31
0.0000000000
11
-15.3115629115
21
4.5215465652
31
0.0000000000
11
-15.3056039345
21
4.4218207784
31
0.0000000000
11
-15.3034082606
21
4.3131320024
31
0.0000000000
0
SPLINE
5
61B
100
AcDbEntity
8
0
100
AcDbSpline
62
7
6
CONTINUOUS
70
0
71
3
72
10
73
6
74
4
42
0.0000001000
43
0.0000001000
44
0.0000000001
12
0.0000000000
22
0.3006414589
32
0.0000000000
13
0.0351874212
23
0.2985751701
33
0.0000000000
40
0.0000000000
40
0.0000000000
40
0.0000000000
40
0.0000000000
40
0.3614684972
40
0.6938247029
40
1.0000000000
40
1.0000000000
40
1.0000000000
40
1.0000000000
10
-15.1034082606
20
4.3131320024
30
0.0000000000
10
-15.1034082606
20
4.3493561412
30
0.0000000000
10
-15.1020132307
20
4.4188959421
30
0.0000000000
10
-15.0960701521
20
4.5189553985
30
0.0000000000
10
-15.0898421461
20
4.5826598886
30
0.0000000000
10
-15.0862509731
20
4.6131320024
30
0.0000000000
11
-15.1034082606
21
4.3131320024
31
0.0000000000
11
-15.1012141482
21
4.4217822668
31
0.0000000000
11
-15.0952553616
21
4.5215244853
31
0.0000000000
11
-15.0862509731
21
4.6131320024
31
0.0000000000
0
SPLINE
5
61C
100
AcDbEntity
8
0
100
AcDbSpline
62
7
6
CONTINUOUS
70
0
71
3
72
10
73
6
74
4
42
0.0000001000
43
0.0000001000
44
0.0000000001
12
0.0351874211
22
-0.2985751689
32
0.0000000000
13
0.0000000000
23
-0.3006414577
33
0.0000000000
40
0.0000000000
40
0.0000000000
40
0.0000000000
40
0.0000000000
40
0.3061016381
40
0.6384033244
40
1.0000000000
40
1.0000000000
40
1.0000000000
40
1.0000000000
10
-7.7205655481
20
4.6131320024
30
0.0000000000
10
-7.7169752391
20
4.5826672196
30
0.0000000000
10
-7.7107481818
20
4.5189755554
30
0.0000000000
10
-7.7048039293
20
4.4189161785
30
0.0000000000
10
-7.7034082606
20
4.3493689863
30
0.0000000000
10
-7.7034082606
20
4.3131320024
30
0.0000000000
11
-7.7205655481
21
4.6131320024
31
0.0000000000
11
-7.7115629115
21
4.5215465652
31
0.0000000000
11
-7.7056039345
21
4.4218207784
31
0.0000000000
11
-7.7034082606
21
4.3131320024
31
0.0000000000
0
SPLINE
5
61D
100
AcDbEntity
8
0
100
AcDbSpline
62
9
6
CONTINUOUS
70
0
71
3
72
13
73
9
74
7
42
0.0000001000
43
0.0000001000
44
0.0000000001
12
-0.9037729596
22
0.0045974848
32
0.0000000000
13
0.0000000007
23
0.0000001527
33
0.0000000000
40
0.0000000000
40
0.0000000000
40
0.0000000000
40
0.0000000000
40
0.2518306419
40
0.4947047820
40
0.7037541302
40
0.8641831138
40
0.9651685052
40
1.0000000000
40
1.0000000000
40
1.0000000000
40
1.0000000000
10
-30.8991465788
20
-16.0443353755
30
0.0000000000
10
-30.9750124870
20
-16.0439494463
30
0.0000000000
10
-31.1236705171
20
-16.0431937818
30
0.0000000000
10
-31.3374857257
20
-16.0421066216
30
0.0000000000
10
-31.5168214639
20
-16.0411946002
30
0.0000000000
10
-31.6714690289
20
-16.0404082292
30
0.0000000000
10
-31.7366848467
20
-16.0400765788
30
0.0000000000
10
-31.8034044734
20
-16.0397372713
30
0.0000000000
10
-31.8034044734
20
-16.0397372695
30
0.0000000000
11
-30.8991465788
21
-16.0443353755
31
0.0000000000
11
-31.1267878502
21
-16.0431778836
31
0.0000000000
11
-31.3463321881
21
-16.0420616038
31
0.0000000000
11
-31.5353008471
21
-16.0411006468
31
0.0000000000
11
-31.6803194764
21
-16.0403632144
31
0.0000000000
11
-31.7716044966
21
-16.0398989921
31
0.0000000000
11
-31.8034044734
21
-16.0397372695
31
0.0000000000
0
SPLINE
5
61E
100
AcDbEntity
8
0
100
AcDbSpline
62
9
6
CONTINUOUS
70
0
71
3
72
13
73
9
74
7
42
0.0000001000
43
0.0000001000
44
0.0000000001
12
-0.9037722650
22
-0.0045973584
32
0.0000000000
13
-0.0000000036
23
0.0000008369
33
0.0000000000
40
0.0000000000
40
0.0000000000
40
0.0000000000
40
0.0000000000
40
0.2518227313
40
0.4946605450
40
0.7037199017
40
0.8641765582
40
0.9651695302
40
1.0000000000
40
1.0000000000
40
1.0000000000
40
1.0000000000
10
-30.8991465788
20
31.3705993815
30
0.0000000000
10
-30.9750100455
20
31.3702134750
30
0.0000000000
10
-31.1236546536
20
31.3694578577
30
0.0000000000
10
-31.3374592405
20
31.3683707722
30
0.0000000000
10
-31.5167947281
20
31.3674587177
30
0.0000000000
10
-31.6714589234
20
31.3666722678
30
0.0000000000
10
-31.7366803990
20
31.3663405582
30
0.0000000000
10
-31.8034044945
20
31.3660012730
30
0.0000000000
10
-31.8034044945
20
31.3660012827
30
0.0000000000
11
-30.8991465788
21
31.3705993815
31
0.0000000000
11
-31.1267805275
21
31.3694419248
31
0.0000000000
11
-31.3462918625
21
31.3683258147
31
0.0000000000
11
-31.5352694258
21
31.3673647935
31
0.0000000000
11
-31.6803129601
21
31.3666272242
31
0.0000000000
11
-31.7716047638
21
31.3661629733
31
0.0000000000
11
-31.8034044945
21
31.3660012827
31
0.0000000000
0
SPLINE
5
61F
100
AcDbEntity
8
0
100
AcDbSpline
62
9
6
CONTINUOUS
70
0
71
3
72
12
73
8
74
6
42
0.0000001000
43
0.0000001000
44
0.0000000001
12
-0.0026830029
22
-0.3047938852
32
0.0000000000
13
0.3047279337
23
0.0068845774
33
0.0000000000
40
0.0000000000
40
0.0000000000
40
0.0000000000
40
0.0000000000
40
0.3090431567
40
0.5878136443
40
0.8090358540
40
0.9509934276
40
1.0000000000
40
1.0000000000
40
1.0000000000
40
1.0000000000
10
-24.7520992697
20
-1.5443765621
30
0.0000000000
10
-24.7523756575
20
-1.5757747169
30
0.0000000000
10
-24.7532936660
20
-1.6360887429
30
0.0000000000
10
-24.7516208719
20
-1.7160020685
30
0.0000000000
10
-24.7564508438
20
-1.7870788705
30
0.0000000000
10
-24.7465591083
20
-1.8177809415
30
0.0000000000
10
-24.7562045172
20
-1.8492564007
30
0.0000000000
10
-24.7512266267
20
-1.8491439375
30
0.0000000000
11
-24.7520992697
21
-1.5443765621
31
0.0000000000
11
-24.7527512451
21
-1.6385724196
31
0.0000000000
11
-24.7529926794
21
-1.7235429085
31
0.0000000000
11
-24.7527995496
21
-1.7909724211
31
0.0000000000
11
-24.7521910044
21
-1.8342376182
31
0.0000000000
11
-24.7512266267
21
-1.8491439375
31
0.0000000000
0
SPLINE
5
620
100
AcDbEntity
8
0
100
AcDbSpline
62
9
6
CONTINUOUS
70
0
71
3
72
13
73
9
74
7
42
0.0000001000
43
0.0000001000
44
0.0000000001
12
-0.9037722650
22
-0.0045973584
32
0.0000000000
13
-0.0000000036
23
0.0000008369
33
0.0000000000
40
0.0000000000
40
0.0000000000
40
0.0000000000
40
0.0000000000
40
0.2518227313
40
0.4946605450
40
0.7037199017
40
0.8641765582
40
0.9651695302
40
1.0000000000
40
1.0000000000
40
1.0000000000
40
1.0000000000
10
-30.8991465788
20
31.3705993815
30
0.0000000000
10
-30.9750100455
20
31.3702134750
30
0.0000000000
10
-31.1236546536
20
31.3694578577
30
0.0000000000
10
-31.3374592405
20
31.3683707722
30
0.0000000000
10
-31.5167947281
20
31.3674587177
30
0.0000000000
10
-31.6714589234
20
31.3666722678
30
0.0000000000
10
-31.7366803990
20
31.3663405582
30
0.0000000000
10
-31.8034044945
20
31.3660012730
30
0.0000000000
10
-31.8034044945
20
31.3660012827
30
0.0000000000
11
-30.8991465788
21
31.3705993815
31
0.0000000000
11
-31.1267805275
21
31.3694419248
31
0.0000000000
11
-31.3462918625
21
31.3683258147
31
0.0000000000
11
-31.5352694258
21
31.3673647935
31
0.0000000000
11
-31.6803129601
21
31.3666272242
31
0.0000000000
11
-31.7716047638
21
31.3661629733
31
0.0000000000
11
-31.8034044945
21
31.3660012827
31
0.0000000000
0
SPLINE
5
621
100
AcDbEntity
8
0
100
AcDbSpline
62
7
6
CONTINUOUS
70
0
71
3
72
11
73
7
74
5
42
0.0000001000
43
0.0000001000
44
0.0000000001
12
-0.0000000000
22
-0.2499756318
32
0.0000000000
13
-0.0000000000
23
-0.2499756318
33
0.0000000000
40
0.0000000000
40
0.0000000000
40
0.0000000000
40
0.0000000000
40
0.3827102569
40
0.7071391641
40
0.9238946396
40
1.0000000000
40
1.0000000000
40
1.0000000000
40
1.0000000000
10
-24.8034082606
20
-16.0868923658
30
0.0000000000
10
-24.8034082606
20
-16.1187817786
30
0.0000000000
10
-24.8034082606
20
-16.1777042984
30
0.0000000000
10
-24.8034082606
20
-16.2546880138
30
0.0000000000
10
-24.8034082606
20
-16.3061238116
30
0.0000000000
10
-24.8034082606
20
-16.3305265024
30
0.0000000000
10
-24.8034082606
20
-16.3368679976
30
0.0000000000
11
-24.8034082606
21
-16.0868923658
31
0.0000000000
11
-24.8034082606
21
-16.1825606041
31
0.0000000000
11
-24.8034082606
21
-16.2636599251
31
0.0000000000
11
-24.8034082606
21
-16.3178435121
31
0.0000000000
11
-24.8034082606
21
-16.3368679976
31
0.0000000000
0
SPLINE
5
622
100
AcDbEntity
8
0
100
AcDbSpline
62
9
6
CONTINUOUS
70
0
71
3
72
11
73
7
74
5
42
0.0000001000
43
0.0000001000
44
0.0000000001
12
-0.0017452412
22
-0.2500611299
32
0.0000000000
13
0.2500611261
23
-0.0017457844
33
0.0000000000
40
0.0000000000
40
0.0000000000
40
0.0000000000
40
0.0000000000
40
0.3825454660
40
0.7068623267
40
0.9236193069
40
1.0000000000
40
1.0000000000
40
1.0000000000
40
1.0000000000
10
-30.8991465789
20
-16.0443353928
30
0.0000000000
10
-30.8993691236
20
-16.0762219766
30
0.0000000000
10
-30.8979739534
20
-16.1332254532
30
0.0000000000
10
-30.9033922417
20
-16.2169692036
30
0.0000000000
10
-30.8913847648
20
-16.2550879637
30
0.0000000000
10
-30.9028954064
20
-16.2942848524
30
0.0000000000
10
-30.8965287923
20
-16.2943293005
30
0.0000000000
11
-30.8991465789
21
-16.0443353928
31
0.0000000000
11
-30.8994821564
21
-16.1399968855
31
0.0000000000
11
-30.8991025155
21
-16.2210970127
31
0.0000000000
11
-30.8980654406
21
-16.2752909061
31
0.0000000000
11
-30.8965287923
21
-16.2943293005
31
0.0000000000
0
SPLINE
5
623
100
AcDbEntity
8
0
100
AcDbSpline
62
9
6
CONTINUOUS
70
0
71
3
72
12
73
8
74
6
42
0.0000001000
43
0.0000001000
44
0.0000000001
12
-0.3044824618
22
0.0132315667
32
0.0000000000
13
0.0026556987
23
-0.3047582504
33
0.0000000000
40
0.0000000000
40
0.0000000000
40
0.0000000000
40
0.0000000000
40
0.0489918087
40
0.1910593377
40
0.4123429548
40
0.6910219892
40
1.0000000000
40
1.0000000000
40
1.0000000000
40
1.0000000000
10
-24.7512266267
20
22.9754079423
30
0.0000000000
10
-24.7561990089
20
22.9756240217
30
0.0000000000
10
-24.7459432094
20
22.9438554457
30
0.0000000000
10
-24.7560352595
20
22.9134062772
30
0.0000000000
10
-24.7508279961
20
22.8421928767
30
0.0000000000
10
-24.7524685151
20
22.7623512110
30
0.0000000000
10
-24.7515001442
20
22.7020470384
30
0.0000000000
10
-24.7512266267
20
22.6706591725
30
0.0000000000
11
-24.7512266267
21
22.9754079423
31
0.0000000000
11
-24.7519211939
21
22.9604928811
31
0.0000000000
11
-24.7522864161
21
22.9171965261
31
0.0000000000
11
-24.7522864855
21
22.8497559576
31
0.0000000000
11
-24.7519212881
21
22.7648237833
31
0.0000000000
11
-24.7512266267
21
22.6706591725
31
0.0000000000
0
SPLINE
5
624
100
AcDbEntity
8
0
100
AcDbSpline
62
7
6
CONTINUOUS
70
0
71
3
72
11
73
7
74
5
42
0.0000001000
43
0.0000001000
44
0.0000000001
12
-0.6019402967
22
-0.3074891654
32
0.0000000000
13
-0.6758931918
23
0.0070781957
33
0.0000000000
40
0.0000000000
40
0.0000000000
40
0.0000000000
40
0.0000000000
40
0.2717551026
40
0.5366374132
40
0.7831825143
40
1.0000000000
40
1.0000000000
40
1.0000000000
40
1.0000000000
10
-30.8991465789
20
-14.4591818395
30
0.0000000000
10
-30.9536733612
20
-14.4870357561
30
0.0000000000
10
-31.0612704950
20
-14.5421027249
30
0.0000000000
10
-31.2205868598
20
-14.6184830619
30
0.0000000000
10
-31.3726917462
20
-14.6791226726
30
0.0000000000
10
-31.4763954701
20
-14.7031046987
30
0.0000000000
10
-31.5252439576
20
-14.7025931398
30
0.0000000000
11
-30.8991465789
21
-14.4591818395
31
0.0000000000
11
-31.0630502511
21
-14.5421076026
31
0.0000000000
11
-31.2250638075
21
-14.6183154343
31
0.0000000000
11
-31.3808608939
21
-14.6774642976
31
0.0000000000
11
-31.5252439576
21
-14.7025931398
31
0.0000000000
0
SPLINE
5
625
100
AcDbEntity
8
0
100
AcDbSpline
62
9
6
CONTINUOUS
70
0
71
3
72
11
73
7
74
5
42
0.0000001000
43
0.0000001000
44
0.0000000001
12
-0.2500382756
22
0.0026184904
32
0.0000000000
13
0.0026176921
23
0.2500382840
33
0.0000000000
40
0.0000000000
40
0.0000000000
40
0.0000000000
40
0.0000000000
40
0.0763797509
40
0.2931346812
40
0.6174506888
40
1.0000000000
40
1.0000000000
40
1.0000000000
40
1.0000000000
10
-34.8191159368
20
-14.6680985322
30
0.0000000000
10
-34.8254818905
20
-14.6680318657
30
0.0000000000
10
-34.8138353586
20
-14.6288781899
30
0.0000000000
10
-34.8257089068
20
-14.5907203019
30
0.0000000000
10
-34.8199987179
20
-14.5070009812
30
0.0000000000
10
-34.8211948911
20
-14.4499962310
30
0.0000000000
10
-34.8208610924
20
-14.4181122399
30
0.0000000000
11
-34.8191159368
21
-14.6680985322
31
0.0000000000
11
-34.8205860245
21
-14.6490562859
31
0.0000000000
11
-34.8214338868
21
-14.5948629171
31
0.0000000000
11
-34.8215304754
21
-14.5137671128
31
0.0000000000
11
-34.8208610924
21
-14.4181122399
31
0.0000000000
0
SPLINE
5
626
100
AcDbEntity
8
0
100
AcDbSpline
62
9
6
CONTINUOUS
70
0
71
3
72
16
73
12
74
10
42
0.0000001000
43
0.0000001000
44
0.0000000001
12
-1.9477178356
22
0.0203882836
32
0.0000000000
13
0.0000028520
23
1.9478245427
33
0.0000000000
40
0.0000000000
40
0.0000000000
40
0.0000000000
40
0.0000000000
40
0.0875548543
40
0.1933779135
40
0.3119821762
40
0.4380381695
40
0.5663043175
40
0.6917689848
40
0.8093317313
40
0.9138522872
40
1.0000000000
40
1.0000000000
40
1.0000000000
40
1.0000000000
10
-34.8208610924
20
-14.4181122399
30
0.0000000000
10
-34.8777051428
20
-14.4175172088
30
0.0000000000
10
-35.0033149435
20
-14.4076124779
30
0.0000000000
10
-35.2014422791
20
-14.3613172716
30
0.0000000000
10
-35.4118387563
20
-14.2712220588
30
0.0000000000
10
-35.6135864767
20
-14.1345152520
30
0.0000000000
10
-35.7876004828
20
-13.9574708360
30
0.0000000000
10
-35.9203066956
20
-13.7543604912
30
0.0000000000
10
-36.0063897727
20
-13.5443861392
30
0.0000000000
10
-36.0494399541
20
-13.3480544291
30
0.0000000000
10
-36.0577714441
20
-13.2241143213
30
0.0000000000
10
-36.0577713622
20
-13.1681807782
30
0.0000000000
11
-34.8208610924
21
-14.4181122399
31
0.0000000000
11
-34.9908740603
21
-14.4046961322
31
0.0000000000
11
-35.1915911908
21
-14.3577914752
31
0.0000000000
11
-35.4039548819
21
-14.2668407256
31
0.0000000000
11
-35.6072176563
21
-14.1291030770
31
0.0000000000
11
-35.7823498639
21
-13.9509213971
31
0.0000000000
11
-35.9160235970
21
-13.7463377686
31
0.0000000000
11
-36.0028978039
21
-13.5344651030
31
0.0000000000
11
-36.0465072250
21
-13.3356029106
31
0.0000000000
11
-36.0577713622
21
-13.1681807782
31
0.0000000000
0
SPLINE
5
627
100
AcDbEntity
8
0
100
AcDbSpline
62
7
6
CONTINUOUS
70
0
71
3
72
11
73
7
74
5
42
0.0000001000
43
0.0000001000
44
0.0000000001
12
0.6758931918
22
0.0070781957
32
0.0000000000
13
0.6019402967
23
-0.3074891654
33
0.0000000000
40
0.0000000000
40
0.0000000000
40
0.0000000000
40
0.0000000000
40
0.2168174857
40
0.4633625868
40
0.7282448974
40
1.0000000000
40
1.0000000000
40
1.0000000000
40
1.0000000000
10
-31.5252439576
20
30.0288571446
30
0.0000000000
10
-31.4763954701
20
30.0293687035
30
0.0000000000
10
-31.3726917462
20
30.0053866773
30
0.0000000000
10
-31.2205868598
20
29.9447470667
30
0.0000000000
10
-31.0612704950
20
29.8683667297
30
0.0000000000
10
-30.9536733612
20
29.8132997608
30
0.0000000000
10
-30.8991465789
20
29.7854458443
30
0.0000000000
11
-31.5252439576
21
30.0288571446
31
0.0000000000
11
-31.3808608939
21
30.0037283024
31
0.0000000000
11
-31.2250638075
21
29.9445794391
31
0.0000000000
11
-31.0630502511
21
29.8683716074
31
0.0000000000
11
-30.8991465789
21
29.7854458443
31
0.0000000000
0
SPLINE
5
628
100
AcDbEntity
8
0
100
AcDbSpline
62
9
6
CONTINUOUS
70
0
71
3
72
11
73
7
74
5
42
0.0000001000
43
0.0000001000
44
0.0000000001
12
-0.2500382757
22
-0.0026184904
32
0.0000000000
13
0.0026176929
23
-0.2500382840
33
0.0000000000
40
0.0000000000
40
0.0000000000
40
0.0000000000
40
0.0000000000
40
0.0763795038
40
0.2931339828
40
0.6174499345
40
1.0000000000
40
1.0000000000
40
1.0000000000
40
1.0000000000
10
-34.8191159368
20
29.9943625370
30
0.0000000000
10
-34.8254818699
20
29.9942958707
30
0.0000000000
10
-34.8138353749
20
29.9551422914
30
0.0000000000
10
-34.8257089055
20
29.9169844489
30
0.0000000000
10
-34.8199987146
20
29.8332651014
30
0.0000000000
10
-34.8211948919
20
29.7762602986
30
0.0000000000
10
-34.8208610924
20
29.7443762446
30
0.0000000000
11
-34.8191159368
21
29.9943625370
31
0.0000000000
11
-34.8205860228
21
29.9753203525
31
0.0000000000
11
-34.8214338859
21
29.9211270966
31
0.0000000000
11
-34.8215304763
21
29.8400313062
31
0.0000000000
11
-34.8208610924
21
29.7443762446
31
0.0000000000
0
SPLINE
5
629
100
AcDbEntity
8
0
100
AcDbSpline
62
9
6
CONTINUOUS
70
0
71
3
72
16
73
12
74
10
42
0.0000001000
43
0.0000001000
44
0.0000000001
12
-0.0000090377
22
1.9478259870
32
0.0000000000
13
1.9477192089
23
0.0203950766
33
0.0000000000
40
0.0000000000
40
0.0000000000
40
0.0000000000
40
0.0000000000
40
0.0871927563
40
0.1924150134
40
0.3103947559
40
0.4360078894
40
0.5641925945
40
0.6899583233
40
0.8080760438
40
0.9132538214
40
1.0000000000
40
1.0000000000
40
1.0000000000
40
1.0000000000
10
-36.0577713622
20
28.4944447829
30
0.0000000000
10
-36.0577716249
20
28.5510568885
30
0.0000000000
10
-36.0492610516
20
28.6761366043
30
0.0000000000
10
-36.0054747973
20
28.8737626385
30
0.0000000000
10
-35.9184307055
20
29.0842463847
30
0.0000000000
10
-35.7848384067
20
29.2871583223
30
0.0000000000
10
-35.6103007015
20
29.4634784776
30
0.0000000000
10
-35.4085793353
20
29.5992095163
30
0.0000000000
10
-35.1988092132
20
29.6883789299
30
0.0000000000
10
-35.0018433823
20
29.7340356110
30
0.0000000000
10
-34.8771801585
20
29.7437865130
30
0.0000000000
10
-34.8208610924
20
29.7443762446
30
0.0000000000
11
-36.0577713622
21
28.4944447829
31
0.0000000000
11
-36.0462323788
21
28.6638886566
31
0.0000000000
11
-36.0018936080
21
28.8639898325
31
0.0000000000
11
-35.9140619131
21
29.0763467860
31
0.0000000000
11
-35.7795141103
21
29.2807031745
31
0.0000000000
11
-35.6038617323
21
29.4581492041
31
0.0000000000
11
-35.4006198833
21
29.5949078662
31
0.0000000000
11
-35.1888877085
21
29.6849243292
31
0.0000000000
11
-34.9893122611
21
29.7311903172
31
0.0000000000
11
-34.8208610924
21
29.7443762446
31
0.0000000000
0
SPLINE
5
62A
100
AcDbEntity
8
0
100
AcDbSpline
62
9
6
CONTINUOUS
70
0
71
3
72
13
73
9
74
7
42
0.0000001000
43
0.0000001000
44
0.0000000001
12
-0.9037729596
22
0.0045974848
32
0.0000000000
13
0.0000000007
23
0.0000001527
33
0.0000000000
40
0.0000000000
40
0.0000000000
40
0.0000000000
40
0.0000000000
40
0.2518306419
40
0.4947047820
40
0.7037541302
40
0.8641831138
40
0.9651685052
40
1.0000000000
40
1.0000000000
40
1.0000000000
40
1.0000000000
10
-30.8991465788
20
-16.0443353755
30
0.0000000000
10
-30.9750124870
20
-16.0439494463
30
0.0000000000
10
-31.1236705171
20
-16.0431937818
30
0.0000000000
10
-31.3374857257
20
-16.0421066216
30
0.0000000000
10
-31.5168214639
20
-16.0411946002
30
0.0000000000
10
-31.6714690289
20
-16.0404082292
30
0.0000000000
10
-31.7366848467
20
-16.0400765788
30
0.0000000000
10
-31.8034044734
20
-16.0397372713
30
0.0000000000
10
-31.8034044734
20
-16.0397372695
30
0.0000000000
11
-30.8991465788
21
-16.0443353755
31
0.0000000000
11
-31.1267878502
21
-16.0431778836
31
0.0000000000
11
-31.3463321881
21
-16.0420616038
31
0.0000000000
11
-31.5353008471
21
-16.0411006468
31
0.0000000000
11
-31.6803194764
21
-16.0403632144
31
0.0000000000
11
-31.7716044966
21
-16.0398989921
31
0.0000000000
11
-31.8034044734
21
-16.0397372695
31
0.0000000000
0
SPLINE
5
62B
100
AcDbEntity
8
0
100
AcDbSpline
62
9
6
CONTINUOUS
70
0
71
3
72
11
73
7
74
5
42
0.0000001000
43
0.0000001000
44
0.0000000001
12
-0.2500611261
22
-0.0017457844
32
0.0000000000
13
0.0017452503
23
-0.2500611299
33
0.0000000000
40
0.0000000000
40
0.0000000000
40
0.0000000000
40
0.0000000000
40
0.0763806928
40
0.2931376722
40
0.6174545328
40
1.0000000000
40
1.0000000000
40
1.0000000000
40
1.0000000000
10
-30.8965287923
20
31.6205933053
30
0.0000000000
10
-30.9028954064
20
31.6205488572
30
0.0000000000
10
-30.8913847655
20
31.5813519687
30
0.0000000000
10
-30.9033922428
20
31.5432332086
30
0.0000000000
10
-30.8979739562
20
31.4594894582
30
0.0000000000
10
-30.8993691247
20
31.4024859815
30
0.0000000000
10
-30.8991465789
20
31.3705993976
30
0.0000000000
11
-30.8965287923
21
31.6205933053
31
0.0000000000
11
-30.8980654410
21
31.6015549110
31
0.0000000000
11
-30.8991025167
21
31.5473610177
31
0.0000000000
11
-30.8994821585
21
31.4662608905
31
0.0000000000
11
-30.8991465789
21
31.3705993976
31
0.0000000000
0
SPLINE
5
62C
100
AcDbEntity
8
0
100
AcDbSpline
62
7
6
CONTINUOUS
70
0
71
3
72
11
73
7
74
5
42
0.0000001000
43
0.0000001000
44
0.0000000001
12
0.0000000000
22
-0.2499756318
32
0.0000000000
13
-0.0000000000
23
-0.2499756318
33
0.0000000000
40
0.0000000000
40
0.0000000000
40
0.0000000000
40
0.0000000000
40
0.0761053604
40
0.2928608359
40
0.6172897431
40
1.0000000000
40
1.0000000000
40
1.0000000000
40
1.0000000000
10
-24.8034082606
20
31.6631320024
30
0.0000000000
10
-24.8034082606
20
31.6567905072
30
0.0000000000
10
-24.8034082606
20
31.6323878164
30
0.0000000000
10
-24.8034082606
20
31.5809520186
30
0.0000000000
10
-24.8034082606
20
31.5039683031
30
0.0000000000
10
-24.8034082606
20
31.4450457834
30
0.0000000000
10
-24.8034082606
20
31.4131563706
30
0.0000000000
11
-24.8034082606
21
31.6631320024
31
0.0000000000
11
-24.8034082606
21
31.6441075169
31
0.0000000000
11
-24.8034082606
21
31.5899239299
31
0.0000000000
11
-24.8034082606
21
31.5088246089
31
0.0000000000
11
-24.8034082606
21
31.4131563706
31
0.0000000000
0
SPLINE
5
62D
100
AcDbEntity
8
0
100
AcDbSpline
62
9
6
CONTINUOUS
70
0
71
3
72
11
73
7
74
5
42
0.0000001000
43
0.0000001000
44
0.0000000001
12
0.0021815161
22
0.2499960242
32
0.0000000000
13
-0.2499960228
23
0.0021816822
33
0.0000000000
40
0.0000000000
40
0.0000000000
40
0.0000000000
40
0.0000000000
40
0.3842305412
40
0.7097214196
40
0.9260502075
40
1.0000000000
40
1.0000000000
40
1.0000000000
40
1.0000000000
10
-24.7512266267
20
2.7254174615
30
0.0000000000
10
-24.7509472250
20
2.7574361641
30
0.0000000000
10
-24.7523394272
20
2.8146262983
30
0.0000000000
10
-24.7457030207
20
2.8986653118
30
0.0000000000
10
-24.7583031702
20
2.9365246689
30
0.0000000000
10
-24.7450642421
20
2.9753541639
30
0.0000000000
10
-24.7512266267
20
2.9754079423
30
0.0000000000
11
-24.7512266267
21
2.7254174615
31
0.0000000000
11
-24.7505558910
21
2.8214748846
31
0.0000000000
11
-24.7503231040
21
2.9028490751
31
0.0000000000
11
-24.7505648988
21
2.9569319306
31
0.0000000000
11
-24.7512266267
21
2.9754079423
31
0.0000000000
0
SPLINE
5
62E
100
AcDbEntity
8
INC_LASER
100
AcDbSpline
62
9
6
CONTINUOUS
70
0
71
3
72
15
73
11
74
9
42
0.0000001000
43
0.0000001000
44
0.0000000001
12
0.0000000000
22
1.1085580917
32
0.0000000000
13
0.0000000000
23
-1.1085580917
33
0.0000000000
40
0.0000000000
40
0.0000000000
40
0.0000000000
40
0.0000000000
40
0.1250000000
40
0.2500000000
40
0.3750000000
40
0.5000000000
40
0.6250000000
40
0.7500000000
40
0.8750000000
40
1.0000000000
40
1.0000000000
40
1.0000000000
40
1.0000000000
10
-29.4613002606
20
-1.0176629976
30
11.0186961927
10
-29.4613002606
20
-0.9714730771
30
11.0186961927
10
-29.4796732807
20
-0.8791147689
30
11.0183754905
10
-29.5581561827
20
-0.7616531427
30
11.0170055663
10
-29.6756141460
20
-0.6831712397
30
11.0149553299
10
-29.8141652606
20
-0.6556113765
30
11.0125369112
10
-29.9527163752
20
-0.6831712397
30
11.0101184925
10
-30.0701743385
20
-0.7616531427
30
11.0080682561
10
-30.1486572405
20
-0.8791147689
30
11.0066983320
10
-30.1670302606
20
-0.9714730771
30
11.0063776297
10
-30.1670302606
20
-1.0176629976
30
11.0063776297
11
-29.4613002606
21
-1.0176629976
31
11.0186961927
11
-29.4881605094
21
-0.8826274082
31
11.0182273453
11
-29.5646520263
21
-0.7681497633
31
11.0168921809
11
-29.6791296712
21
-0.6916582464
31
11.0148939662
11
-29.8141652606
21
-0.6647979976
31
11.0125369112
11
-29.9492008500
21
-0.6916582464
31
11.0101798562
11
-30.0636784950
21
-0.7681497633
31
11.0081816415
11
-30.1401700118
21
-0.8826274082
31
11.0068464771
11
-30.1670302606
21
-1.0176629976
31
11.0063776297
0
SPLINE
5
62F
100
AcDbEntity
8
INC_LASER
100
AcDbSpline
62
9
6
CONTINUOUS
70
0
71
3
72
15
73
11
74
9
42
0.0000001000
43
0.0000001000
44
0.0000000001
12
0.0000000000
22
2.4395158702
32
0.0000000000
13
0.9470327783
23
-2.2481918507
33
0.0165305186
40
0.0000000000
40
0.0000000000
40
0.0000000000
40
0.0000000000
40
0.1250000000
40
0.2500000000
40
0.3750000000
40
0.5000000000
40
0.6250000000
40
0.7500000000
40
0.8750000000
40
1.0000000000
40
1.0000000000
40
1.0000000000
40
1.0000000000
10
-30.7035551477
20
-0.9371569976
30
10.9970125530
10
-30.7035551477
20
-0.8355105030
30
10.9970125530
10
-30.6683615256
20
-0.6322449292
30
10.9976268600
10
-30.5161354806
20
-0.3628192756
30
11.0002839755
10
-30.2821941982
20
-0.1602571714
30
11.0043674357
10
-29.9937704622
20
-0.0481310740
30
11.0094018908
10
-29.6844390119
20
-0.0394958551
30
11.0148012913
10
-29.3902093880
20
-0.1353543867
30
11.0199370885
10
-29.1453295385
20
-0.3245548385
30
11.0242114822
10
-29.0339872928
20
-0.4982165465
30
11.0261549683
10
-28.9945275937
20
-0.5918912069
30
11.0268437399
11
-30.7035551477
21
-0.9371569976
31
10.9970125530
11
-30.6517889236
21
-0.6381570471
31
10.9979161358
11
-30.5025162744
21
-0.3739632005
31
11.0005216996
11
-30.2731137893
21
-0.1753298392
31
11.0045259349
11
-29.9902858432
21
-0.0653795537
31
11.0094627150
11
-29.6869559829
21
-0.0569114802
31
11.0147573574
11
-29.3984343504
21
-0.1509113734
31
11.0197935213
11
-29.1583072853
21
-0.3364368568
31
11.0239849548
11
-28.9945275937
21
-0.5918912069
31
11.0268437399
0
ENDSEC
0
SECTION
2
OBJECTS
0
DICTIONARY
5
C
100
AcDbDictionary
280
0
281
1
3
ACAD_GROUP
350
D
3
ACAD_MLINESTYLE
350
17
3
ACAD_LAYOUT
350
1A
3
ACAD_PLOTSETTINGS
350
19
3
ACAD_PLOTSTYLENAME
350
E
0
DICTIONARY
5
D
102
{ACAD_REACTORS
330
C
102
}
100
AcDbDictionary
280
0
281
1
0
ACDBDICTIONARYWDFLT
5
E
102
{ACAD_REACTORS
330
C
102
}
100
AcDbDictionary
281
1
3
Normal
350
F
100
AcDbDictionaryWithDefault
340
F
0
DICTIONARY
5
17
102
{ACAD_REACTORS
330
C
102
}
100
AcDbDictionary
280
0
281
1
3
Standard
350
18
0
DICTIONARY
5
19
102
{ACAD_REACTORS
330
C
102
}
100
AcDbDictionary
281
1
0
DICTIONARY
5
1A
102
{ACAD_REACTORS
330
C
102
}
100
AcDbDictionary
281
1
3
Layout1
350
1E
3
Model
350
22
0
ACDBPLACEHOLDER
5
F
102
{ACAD_REACTORS
330
E
102
}
0
MLINESTYLE
5
18
102
{ACAD_REACTORS
330
17
102
}
100
AcDbMlineStyle
2
STANDARD
70
0
3

62
256
51
90.0
52
90.0
71
2
49
0.5
62
256
6
BYLAYER
49
-0.5
62
256
6
BYLAYER
0
LAYOUT
5
1E
102
{ACAD_REACTORS
330
1A
102
}
100
AcDbPlotSettings
1

2

4

6

40
0.0
41
0.0
42
0.0
43
0.0
44
0.0
45
0.0
46
0.0
47
0.0
48
0.0
49
0.0
140
0.0
141
0.0
142
1.0
143
1.0
70
0
72
0
73
0
74
0
7

75
0
147
1.0
148
0.0
149
0.0
100
AcDbLayout
1
Layout1
70
0
71
0
10
0.0
20
0.0
11
0.0
21
0.0
12
0.0
22
0.0
32
0.0
14
0.0
24
0.0
34
0.0
15
0.0
25
0.0
35
0.0
146
0.0
13
0.0
23
0.0
33
0.0
16
0.0
26
0.0
36
0.0
17
0.0
27
0.0
37
0.0
76
0
330
1B
331
0
345
0
346
0
0
LAYOUT
5
22
102
{ACAD_REACTORS
330
1A
102
}
100
AcDbPlotSettings
1

2

4

6

40
0.0
41
0.0
42
0.0
43
0.0
44
0.0
45
0.0
46
0.0
47
0.0
48
0.0
49
0.0
140
0.0
141
0.0
142
1.0
143
1.0
70
0
72
0
73
0
74
0
7

75
0
147
1.0
148
0.0
149
0.0
100
AcDbLayout
1
Model
70
0
71
0
10
0.0
20
0.0
11
0.0
21
0.0
12
0.0
22
0.0
32
0.0
14
0.0
24
0.0
34
0.0
15
0.0
25
0.0
35
0.0
146
0.0
13
0.0
23
0.0
33
0.0
16
0.0
26
0.0
36
0.0
17
0.0
27
0.0
37
0.0
76
0
330
1F
331
0
345
0
346
0
0
ENDSEC
0
EOF
