0
SECTION
2
HEADER
9
$ACADVER
1
AC1015
9
$DWGCODEPAGE
3
ANSI_1252
9
$EXTMAX
10
297.0000000000
20
210.0000000000
30
0.0000000000
9
$EXTMIN
10
0.0000000000
20
0.0000000000
30
0.0000000000
9
$LIMMIN
10
0.0000000000
20
0.0000000000
9
$LIMMAX
10
297.0000000000
20
210.0000000000
9
$VIEWCTR
10
148.5000000000
20
105.0000000000
9
$VIEWSIZE
40
210.0000000000
9
$CLAYER
8
0
9
$LTSCALE
40
16.3350000000
9
$CELTYPE
6
BYLAYER
9
$DIMSCALE
40
1
9
$DIMASZ
40
3.0000000000
9
$DIMEXO
40
1.8562500000
9
$DIMDLI
40
11.2860000000
9
$DIMEXE
40
5.3460000000
9
$DIMCEN
40
2.6730000000
9
$DIMLFAC
40
1.0000000000
9
$DIMBLK
1
_FILLED
9
$DIMTXT
40
3.0000000000
9
$DIMTOL
70
1
9
$DIMLIM
70
0
9
$DIMTFAC
40
1.0000000000
9
$DIMTP
40
0.0100000000
9
$DIMTM
40
0.0100000000
9
$PDMODE
70
3
9
$PDSIZE
40
3.0000000000
9
$HANDSEED
5
58B
9
$MEASUREMENT
70
1
9
$INSUNITS
70
4
0
ENDSEC
0
SECTION
2
CLASSES
0
CLASS
1
ACDBDICTIONARYWDFLT
2
AcDbDictionaryWithDefault
3
AutoCAD 2000
90
0
280
0
281
0
0
CLASS
1
ACDBPLACEHOLDER
2
AcDbPlaceHolder
3
AutoCAD 2000
90
0
280
0
281
0
0
CLASS
1
LAYOUT
2
AcDbLayout
3
AutoCAD 2000
90
0
280
0
281
0
0
ENDSEC
0
SECTION
2
TABLES
0
TABLE
2
VPORT
5
8
100
AcDbSymbolTable
70
2
0
VPORT
5
1F4
100
AcDbSymbolTableRecord
100
AcDbViewportTableRecord
2
*ACTIVE
70
0
10
0.0
20
0.0
11
1.0
21
1.0
12
148.5000000000
22
105.0000000000
13
0.0
23
0.0
14
1.0
24
1.0
15
0.0
25
0.0
16
0.0
26
0.0
36
1.0
17
0.0
27
0.0
37
0.0
40
210.0000000000
41
1.4142857143
42
50.0
43
0.0
44
0.0
50
0.0
51
0.0
71
0
72
100
73
1
74
1
75
0
76
0
77
0
78
0
0
ENDTAB
0
TABLE
2
LTYPE
5
5
100
AcDbSymbolTable
70
6
0
LTYPE
5
14
100
AcDbSymbolTableRecord
100
AcDbLinetypeTableRecord
2
BYBLOCK
70
0
3

72
65
73
0
40
0.0
0
LTYPE
5
15
100
AcDbSymbolTableRecord
100
AcDbLinetypeTableRecord
2
BYLAYER
70
0
3

72
65
73
0
40
0.0
0
LTYPE
5
16
100
AcDbSymbolTableRecord
100
AcDbLinetypeTableRecord
2
CONTINUOUS
70
64
3
Solid line
72
65
73
0
40
0
0
LTYPE
5
1F5
100
AcDbSymbolTableRecord
100
AcDbLinetypeTableRecord
2
CENTER
70
64
3
____ _ ____ _ ____ _ ____ _ ____ _ ____ _ ____
72
65
73
4
40
0.6
49
0.375
74
0
49
-0.075
74
0
49
0.075
74
0
49
-0.075
74
0
0
LTYPE
5
1F6
100
AcDbSymbolTableRecord
100
AcDbLinetypeTableRecord
2
HIDDEN
70
64
3
- - - - - - - - - - - - - - - - - - - -
72
65
73
2
40
0.2
49
0.1
74
0
49
-0.1
74
0
0
LTYPE
5
1F7
100
AcDbSymbolTableRecord
100
AcDbLinetypeTableRecord
2
PHANTOM
70
64
3
_____ _ _ _____ _ _ _____ _ _ _____
72
65
73
6
40
0.8
49
0.45
74
0
49
-0.05
74
0
49
0.1
74
0
49
-0.05
74
0
49
0.1
74
0
49
-0.05
74
0
0
LTYPE
5
1F8
100
AcDbSymbolTableRecord
100
AcDbLinetypeTableRecord
2
DOT
70
64
3
. . . . . . . . . . . . . . . . . . . .
72
65
73
2
40
0.2
49
0.1
74
0
49
-0.1
74
0
0
LTYPE
5
1F9
100
AcDbSymbolTableRecord
100
AcDbLinetypeTableRecord
2
DASHED
70
64
3
- - - - - - - - - - - - - - - - - - - -
72
65
73
2
40
0.2
49
0.1
74
0
49
-0.1
74
0
0
ENDTAB
0
TABLE
2
LAYER
5
2
100
AcDbSymbolTable
70
36
0
LAYER
5
10
100
AcDbSymbolTableRecord
100
AcDbLayerTableRecord
2
0
70
0
62
7
6
CONTINUOUS
370
-3
390
F
0
LAYER
5
1FA
100
AcDbSymbolTableRecord
100
AcDbLayerTableRecord
2
DEFAULT_1
70
0
62
7
6
CENTER
370
-3
390
F
0
LAYER
5
1FB
100
AcDbSymbolTableRecord
100
AcDbLayerTableRecord
2
DEFAULT_2
70
0
62
8
6
HIDDEN
370
-3
390
F
0
LAYER
5
1FC
100
AcDbSymbolTableRecord
100
AcDbLayerTableRecord
2
DEFAULT_3
70
0
62
7
6
PHANTOM
370
-3
390
F
0
LAYER
5
1FD
100
AcDbSymbolTableRecord
100
AcDbLayerTableRecord
2
_BLACK_HOLE
70
0
62
7
6
CONTINUOUS
370
-3
390
F
0
LAYER
5
1FE
100
AcDbSymbolTableRecord
100
AcDbLayerTableRecord
2
ASSI
70
0
62
7
6
CONTINUOUS
370
-3
390
F
0
LAYER
5
1FF
100
AcDbSymbolTableRecord
100
AcDbLayerTableRecord
2
COORDINATE
70
0
62
7
6
CONTINUOUS
370
-3
390
F
0
LAYER
5
200
100
AcDbSymbolTableRecord
100
AcDbLayerTableRecord
2
COORD_ORIGINE
70
0
62
7
6
CONTINUOUS
370
-3
390
F
0
LAYER
5
201
100
AcDbSymbolTableRecord
100
AcDbLayerTableRecord
2
COPY_PUBLISH
70
0
62
7
6
CONTINUOUS
370
-3
390
F
0
LAYER
5
202
100
AcDbSymbolTableRecord
100
AcDbLayerTableRecord
2
COSMETIC
70
0
62
7
6
CONTINUOUS
370
-3
390
F
0
LAYER
5
203
100
AcDbSymbolTableRecord
100
AcDbLayerTableRecord
2
COSMETICHE
70
0
62
7
6
CONTINUOUS
370
-3
390
F
0
LAYER
5
204
100
AcDbSymbolTableRecord
100
AcDbLayerTableRecord
2
COSMETICI
70
0
62
7
6
CONTINUOUS
370
-3
390
F
0
LAYER
5
205
100
AcDbSymbolTableRecord
100
AcDbLayerTableRecord
2
CURVE
70
0
62
7
6
CONTINUOUS
370
-3
390
F
0
LAYER
5
206
100
AcDbSymbolTableRecord
100
AcDbLayerTableRecord
2
DRAFT
70
0
62
7
6
CONTINUOUS
370
-3
390
F
0
LAYER
5
207
100
AcDbSymbolTableRecord
100
AcDbLayerTableRecord
2
ESTENSIONE
70
0
62
7
6
CONTINUOUS
370
-3
390
F
0
LAYER
5
208
100
AcDbSymbolTableRecord
100
AcDbLayerTableRecord
2
IMPORT_FEATURES
70
0
62
7
6
CONTINUOUS
370
-3
390
F
0
LAYER
5
209
100
AcDbSymbolTableRecord
100
AcDbLayerTableRecord
2
IMPORT_IGES
70
0
62
7
6
CONTINUOUS
370
-3
390
F
0
LAYER
5
20A
100
AcDbSymbolTableRecord
100
AcDbLayerTableRecord
2
INTFCLR_1
70
0
62
7
6
CONTINUOUS
370
-3
390
F
0
LAYER
5
20B
100
AcDbSymbolTableRecord
100
AcDbLayerTableRecord
2
INTF_1
70
0
62
7
6
CONTINUOUS
370
-3
390
F
0
LAYER
5
20C
100
AcDbSymbolTableRecord
100
AcDbLayerTableRecord
2
INTF_7
70
0
62
7
6
CONTINUOUS
370
-3
390
F
0
LAYER
5
20D
100
AcDbSymbolTableRecord
100
AcDbLayerTableRecord
2
NOTE
70
0
62
7
6
CONTINUOUS
370
-3
390
F
0
LAYER
5
20E
100
AcDbSymbolTableRecord
100
AcDbLayerTableRecord
2
PIANI
70
0
62
7
6
CONTINUOUS
370
-3
390
F
0
LAYER
5
20F
100
AcDbSymbolTableRecord
100
AcDbLayerTableRecord
2
PIANI_ORIGINE
70
0
62
7
6
CONTINUOUS
370
-3
390
F
0
LAYER
5
210
100
AcDbSymbolTableRecord
100
AcDbLayerTableRecord
2
PUNTI
70
0
62
7
6
CONTINUOUS
370
-3
390
F
0
LAYER
5
211
100
AcDbSymbolTableRecord
100
AcDbLayerTableRecord
2
RACCORDO
70
0
62
7
6
CONTINUOUS
370
-3
390
F
0
LAYER
5
212
100
AcDbSymbolTableRecord
100
AcDbLayerTableRecord
2
RGB__255__255__255__
70
0
62
7
6
CONTINUOUS
370
-3
390
F
0
LAYER
5
213
100
AcDbSymbolTableRecord
100
AcDbLayerTableRecord
2
RGB____0____0____0__
70
0
62
7
6
CONTINUOUS
370
-3
390
F
0
LAYER
5
214
100
AcDbSymbolTableRecord
100
AcDbLayerTableRecord
2
SMUSSO
70
0
62
7
6
CONTINUOUS
370
-3
390
F
0
LAYER
5
215
100
AcDbSymbolTableRecord
100
AcDbLayerTableRecord
2
SNAPLINE
70
0
62
7
6
CONTINUOUS
370
-3
390
F
0
LAYER
5
216
100
AcDbSymbolTableRecord
100
AcDbLayerTableRecord
2
SUPERFICI
70
0
62
7
6
CONTINUOUS
370
-3
390
F
0
LAYER
5
217
100
AcDbSymbolTableRecord
100
AcDbLayerTableRecord
2
TRASH
70
0
62
7
6
CONTINUOUS
370
-3
390
F
0
LAYER
5
218
100
AcDbSymbolTableRecord
100
AcDbLayerTableRecord
2
XSEC_DATUMS
70
0
62
7
6
CONTINUOUS
370
-3
390
F
0
ENDTAB
0
TABLE
2
STYLE
5
3
100
AcDbSymbolTable
70
1
0
STYLE
5
11
100
AcDbSymbolTableRecord
100
AcDbTextStyleTableRecord
2
STANDARD
70
0
40
0.0
41
0.8000000000
50
0.0
71
0
42
0.2
3
txt
4

0
ENDTAB
0
TABLE
2
VIEW
5
6
100
AcDbSymbolTable
70
0
0
ENDTAB
0
TABLE
2
UCS
5
7
100
AcDbSymbolTable
70
0
0
ENDTAB
0
TABLE
2
APPID
5
9
100
AcDbSymbolTable
70
1
0
APPID
5
219
100
AcDbSymbolTableRecord
100
AcDbRegAppTableRecord
2
ACAD
70
0
0
ENDTAB
0
TABLE
2
BLOCK_RECORD
5
1
100
AcDbSymbolTable
70
0
0
BLOCK_RECORD
5
1F
100
AcDbSymbolTableRecord
100
AcDbBlockTableRecord
2
*MODEL_SPACE
0
BLOCK_RECORD
5
1B
100
AcDbSymbolTableRecord
100
AcDbBlockTableRecord
2
*PAPER_SPACE
0
BLOCK_RECORD
5
21A
100
AcDbSymbolTableRecord
100
AcDbBlockTableRecord
2
_FILLED
0
BLOCK_RECORD
5
21B
100
AcDbSymbolTableRecord
100
AcDbBlockTableRecord
2
*D0
0
BLOCK_RECORD
5
21C
100
AcDbSymbolTableRecord
100
AcDbBlockTableRecord
2
*D1
0
BLOCK_RECORD
5
21D
100
AcDbSymbolTableRecord
100
AcDbBlockTableRecord
2
*D2
0
BLOCK_RECORD
5
21E
100
AcDbSymbolTableRecord
100
AcDbBlockTableRecord
2
*D3
0
ENDTAB
0
TABLE
2
DIMSTYLE
5
A
100
AcDbSymbolTable
70
1
100
AcDbDimStyleTable
71
0
0
DIMSTYLE
105
21F
100
AcDbSymbolTableRecord
100
AcDbDimStyleTableRecord
2
STANDARD
70
0
3

4

40
1.0
41
3.0000000000
42
0.0625
43
0.38
44
0.18
45
0.0
46
0.0
47
0.0100000000
48
0.0100000000
140
3.0000000000
141
0.09
142
0.0
143
25.4
144
1.0000000000
145
0.0
146
1.0000000000
147
0.09
71
1
72
0
73
0
74
0
75
0
76
0
77
1
78
8
170
0
171
2
172
0
173
0
174
0
175
0
176
0
177
0
178
0
270
2
271
2
272
2
273
2
274
2
275
0
280
0
281
0
282
0
283
1
284
8
285
0
286
0
287
3
288
0
340
11
341
21A
342
21A
343
21A
344
21A
0
DIMSTYLE
105
220
100
AcDbSymbolTableRecord
100
AcDbDimStyleTableRecord
2
DIMSTYLE_1
70
0
3

4

40
1.0
41
3.0000000000
42
0.0625
43
0.38
44
0.18
45
0.0
46
0.0
47
0.0000000000
48
0.0000000000
140
3.0000000000
141
0.09
142
0.0
143
25.4
144
1.0000000000
145
0.0
146
1.0000000000
147
0.09
71
0
72
0
73
0
74
0
75
0
76
0
77
1
78
8
170
0
171
2
172
0
173
0
174
0
175
0
176
0
177
0
178
0
270
2
271
2
272
2
273
2
274
2
275
0
280
0
281
0
282
0
283
1
284
8
285
0
286
0
287
3
288
0
340
11
341
21A
342
21A
343
21A
344
21A
0
DIMSTYLE
105
221
100
AcDbSymbolTableRecord
100
AcDbDimStyleTableRecord
2
DIMSTYLE_2
70
0
3

4

40
1.0
41
3.0000000000
42
0.0625
43
0.38
44
0.18
45
0.0
46
0.0
47
0.0000000000
48
0.0000000000
140
3.0000000000
141
0.09
142
0.0
143
25.4
144
1.0000000000
145
0.0
146
1.0000000000
147
0.09
71
0
72
0
73
0
74
0
75
0
76
0
77
1
78
8
170
0
171
2
172
0
173
0
174
0
175
0
176
0
177
0
178
0
270
2
271
1
272
1
273
2
274
2
275
0
280
0
281
0
282
0
283
1
284
8
285
0
286
0
287
3
288
0
340
11
341
21A
342
21A
343
21A
344
21A
0
ENDTAB
0
ENDSEC
0
SECTION
2
BLOCKS
0
BLOCK
5
20
100
AcDbEntity
8
0
100
AcDbBlockBegin
2
*MODEL_SPACE
70
0
10
0.0
20
0.0
30
0.0
3
*MODEL_SPACE
1

0
ENDBLK
5
21
100
AcDbEntity
8
0
100
AcDbBlockEnd
0
BLOCK
5
1C
100
AcDbEntity
8
0
100
AcDbBlockBegin
2
*PAPER_SPACE
70
0
10
0.0
20
0.0
30
0.0
3
*PAPER_SPACE
1

0
ENDBLK
5
1D
100
AcDbEntity
8
0
100
AcDbBlockEnd
0
BLOCK
5
222
100
AcDbEntity
8
0
100
AcDbBlockBegin
62
2
6
CONTINUOUS
2
*D0
70
65
10
0.0000000000
20
0.0000000000
3
*D0
1

0
TEXT
5
223
100
AcDbEntity
8
0
100
AcDbText
62
2
6
CONTINUOUS
10
-0.8679573168
20
39.7693129320
7
STANDARD
40
3.0000000000
1
44,8
41
0.7321428571
72
0
100
AcDbText
0
LINE
5
224
100
AcDbEntity
8
0
100
AcDbLine
62
2
6
CONTINUOUS
10
-18.8751001739
20
27.8655985412
11
-18.8751001739
21
40.5193129320
0
LINE
5
225
100
AcDbEntity
8
0
100
AcDbLine
62
2
6
CONTINUOUS
10
25.9248998261
20
27.8655985412
11
25.9248998261
21
40.5193129320
0
LINE
5
226
100
AcDbEntity
8
0
100
AcDbLine
62
2
6
CONTINUOUS
10
-18.8751001739
20
39.0193129320
11
3.5248998261
21
39.0193129320
0
LINE
5
227
100
AcDbEntity
8
0
100
AcDbLine
62
2
6
CONTINUOUS
10
25.9248998261
20
39.0193129320
11
3.5248998261
21
39.0193129320
0
INSERT
5
228
100
AcDbEntity
8
0
100
AcDbBlockReference
62
2
6
CONTINUOUS
2
_FILLED
10
-18.8751001739
20
39.0193129320
41
  3.000000
42
  3.000000
43
  3.000000
50
180.000000
0
INSERT
5
229
100
AcDbEntity
8
0
100
AcDbBlockReference
62
2
6
CONTINUOUS
2
_FILLED
10
25.9248998261
20
39.0193129320
41
  3.000000
42
  3.000000
43
  3.000000
50
360.000000
0
ENDBLK
5
22A
100
AcDbEntity
8
0
6
BYBLOCK
62
0
100
AcDbBlockEnd
0
BLOCK
5
22B
100
AcDbEntity
8
0
100
AcDbBlockBegin
62
2
6
CONTINUOUS
2
*D1
70
65
10
0.0000000000
20
0.0000000000
3
*D1
1

0
TEXT
5
22C
100
AcDbEntity
8
0
100
AcDbText
62
2
6
CONTINUOUS
10
33.3248998261
20
3.1621700748
7
STANDARD
40
3.0000000000
1
47
50
90.0000000000
41
0.7857142857
72
0
100
AcDbText
0
LINE
5
22D
100
AcDbEntity
8
0
100
AcDbLine
62
2
6
CONTINUOUS
10
18.9497575927
20
29.0193129320
11
35.5748998261
21
29.0193129320
0
LINE
5
22E
100
AcDbEntity
8
0
100
AcDbLine
62
2
6
CONTINUOUS
10
18.9497574901
20
-17.9806870680
11
35.5748998261
21
-17.9806870680
0
LINE
5
22F
100
AcDbEntity
8
0
100
AcDbLine
62
2
6
CONTINUOUS
10
34.0748998261
20
29.0193129320
11
34.0748998261
21
5.5193129320
0
LINE
5
230
100
AcDbEntity
8
0
100
AcDbLine
62
2
6
CONTINUOUS
10
34.0748998261
20
-17.9806870680
11
34.0748998261
21
5.5193129320
0
INSERT
5
231
100
AcDbEntity
8
0
100
AcDbBlockReference
62
2
6
CONTINUOUS
2
_FILLED
10
34.0748998261
20
29.0193129320
41
  3.000000
42
  3.000000
43
  3.000000
50
 90.000000
0
INSERT
5
232
100
AcDbEntity
8
0
100
AcDbBlockReference
62
2
6
CONTINUOUS
2
_FILLED
10
34.0748998261
20
-17.9806870680
41
  3.000000
42
  3.000000
43
  3.000000
50
270.000000
0
ENDBLK
5
233
100
AcDbEntity
8
0
6
BYBLOCK
62
0
100
AcDbBlockEnd
0
BLOCK
5
234
100
AcDbEntity
8
0
100
AcDbBlockBegin
62
2
6
CONTINUOUS
2
*D2
70
65
10
0.0000000000
20
0.0000000000
3
*D2
1

0
TEXT
5
235
100
AcDbEntity
8
0
100
AcDbText
62
2
6
CONTINUOUS
10
-48.3283792502
20
39.7693129320
7
STANDARD
40
3.0000000000
1
23,1
41
0.6607142857
72
0
100
AcDbText
0
LINE
5
236
100
AcDbEntity
8
0
100
AcDbLine
62
2
6
CONTINUOUS
10
-55.9140935359
20
28.6824795539
11
-55.9140935359
21
40.5193129320
0
LINE
5
237
100
AcDbEntity
8
0
100
AcDbLine
62
2
6
CONTINUOUS
10
-32.8140935359
20
-3.3773500689
11
-32.8140935359
21
40.5193129320
0
LINE
5
238
100
AcDbEntity
8
0
100
AcDbLine
62
2
6
CONTINUOUS
10
-55.9140935359
20
39.0193129320
11
-44.3640935359
21
39.0193129320
0
LINE
5
239
100
AcDbEntity
8
0
100
AcDbLine
62
2
6
CONTINUOUS
10
-32.8140935359
20
39.0193129320
11
-44.3640935359
21
39.0193129320
0
INSERT
5
23A
100
AcDbEntity
8
0
100
AcDbBlockReference
62
2
6
CONTINUOUS
2
_FILLED
10
-55.9140935359
20
39.0193129320
41
  3.000000
42
  3.000000
43
  3.000000
50
180.000000
0
INSERT
5
23B
100
AcDbEntity
8
0
100
AcDbBlockReference
62
2
6
CONTINUOUS
2
_FILLED
10
-32.8140935359
20
39.0193129320
41
  3.000000
42
  3.000000
43
  3.000000
0
ENDBLK
5
23C
100
AcDbEntity
8
0
6
BYBLOCK
62
0
100
AcDbBlockEnd
0
BLOCK
5
23D
100
AcDbEntity
8
0
100
AcDbBlockBegin
62
2
6
CONTINUOUS
2
*D3
70
65
10
0.0000000000
20
0.0000000000
3
*D3
1

0
TEXT
5
23E
100
AcDbEntity
8
0
100
AcDbText
62
2
6
CONTINUOUS
10
-54.6815721087
20
49.7693129320
7
STANDARD
40
3.0000000000
1
35,4
41
0.6964285714
72
0
100
AcDbText
0
LINE
5
23F
100
AcDbEntity
8
0
100
AcDbLine
62
2
6
CONTINUOUS
10
-32.8140935359
20
-3.3773500689
11
-32.8140935359
21
50.5193129320
0
LINE
5
240
100
AcDbEntity
8
0
100
AcDbLine
62
2
6
CONTINUOUS
10
-68.1919078244
20
26.4976087390
11
-68.1919078244
21
50.5193129320
0
LINE
5
241
100
AcDbEntity
8
0
100
AcDbLine
62
2
6
CONTINUOUS
10
-32.8140935359
20
49.0193129320
11
-50.5030006801
21
49.0193129320
0
LINE
5
242
100
AcDbEntity
8
0
100
AcDbLine
62
2
6
CONTINUOUS
10
-68.1919078244
20
49.0193129320
11
-50.5030006801
21
49.0193129320
0
INSERT
5
243
100
AcDbEntity
8
0
100
AcDbBlockReference
62
2
6
CONTINUOUS
2
_FILLED
10
-32.8140935359
20
49.0193129320
41
  3.000000
42
  3.000000
43
  3.000000
0
INSERT
5
244
100
AcDbEntity
8
0
100
AcDbBlockReference
62
2
6
CONTINUOUS
2
_FILLED
10
-68.1919078244
20
49.0193129320
41
  3.000000
42
  3.000000
43
  3.000000
50
180.000000
0
ENDBLK
5
245
100
AcDbEntity
8
0
6
BYBLOCK
62
0
100
AcDbBlockEnd
0
BLOCK
5
246
100
AcDbEntity
8
0
100
AcDbBlockBegin
2
_FILLED
70
64
10
0.0000000000
20
0.0000000000
3
_FILLED
1

0
SOLID
5
247
100
AcDbEntity
8
0
6
BYBLOCK
62
0
100
AcDbTrace
10
0.0000000000
20
0.0000000000
11
-1.0000000000
21
0.3166666667
12
-1.0000000000
22
-0.3166666667
13
-1.0000000000
23
-0.3166666667
0
ENDBLK
5
248
100
AcDbEntity
8
0
6
BYBLOCK
62
0
100
AcDbBlockEnd
0
ENDSEC
0
SECTION
2
ENTITIES
0
DIMENSION
5
249
100
AcDbEntity
8
0
100
AcDbDimension
62
2
6
CONTINUOUS
2
*D0
10
25.9248998261
20
39.0193129320
11
3.5248998261
21
41.2693129320
70
160
3
DIMSTYLE_1
100
AcDbAlignedDimension
13
-18.8751001739
23
27.8655985412
14
25.9248998261
24
27.8655985412
100
AcDbRotatedDimension
0
DIMENSION
5
24A
100
AcDbEntity
8
0
100
AcDbDimension
62
2
6
CONTINUOUS
2
*D1
10
34.0748998261
20
-17.9806870680
11
31.8248998261
21
5.5193129320
70
160
3
DIMSTYLE_1
100
AcDbAlignedDimension
13
18.9497575927
23
29.0193129320
14
18.9497574901
24
-17.9806870680
50
270.000000
100
AcDbRotatedDimension
0
DIMENSION
5
24B
100
AcDbEntity
8
0
100
AcDbDimension
62
2
6
CONTINUOUS
2
*D2
10
-32.8140935359
20
39.0193129320
11
-44.3640935359
21
41.2693129320
70
160
3
DIMSTYLE_1
100
AcDbAlignedDimension
13
-55.9140935359
23
28.6824795539
14
-32.8140935359
24
-3.3773500689
100
AcDbRotatedDimension
0
DIMENSION
5
24C
100
AcDbEntity
8
0
100
AcDbDimension
62
2
6
CONTINUOUS
2
*D3
10
-68.1919078244
20
49.0193129320
11
-50.5030006801
21
51.2693129320
70
160
3
DIMSTYLE_2
100
AcDbAlignedDimension
13
-32.8140935359
23
-3.3773500689
14
-68.1919078244
24
26.4976087390
50
180.000000
100
AcDbRotatedDimension
0
LWPOLYLINE
5
24D
100
AcDbEntity
8
0
100
AcDbPolyline
62
7
6
CONTINUOUS
90
22
70
0
10
-18.7165875133
20
-16.2038180534
10
-18.7058691096
20
-16.2242247356
10
-18.6936089240
20
-16.2451119380
10
-18.6801549435
20
-16.2656705100
10
-18.6655003316
20
-16.2858169251
10
-18.6496572987
20
-16.3054502468
10
-18.6326251510
20
-16.3244942573
10
-18.6144146697
20
-16.3428633744
10
-18.5950718191
20
-16.3604460153
10
-18.5746274342
20
-16.3771569079
10
-18.5531043248
20
-16.3929221367
10
-18.5305512958
20
-16.4076530684
10
-18.5070108625
20
-16.4212720216
10
-18.4825314306
20
-16.4337022571
10
-18.4571822758
20
-16.4448623275
10
-18.4310241253
20
-16.4546813982
10
-18.4041250244
20
-16.4630904439
10
-18.3765761209
20
-16.4700196605
10
-18.3484569503
20
-16.4754096740
10
-18.3198524326
20
-16.4792050306
10
-18.2908711413
20
-16.4813538339
10
-18.2683919978
20
-16.4818591369
0
LINE
5
24E
100
AcDbEntity
8
0
100
AcDbLine
62
7
6
CONTINUOUS
10
-18.7160108726
20
-16.2050074686
11
-18.8226713081
21
-15.9914589114
0
LINE
5
24F
100
AcDbEntity
8
0
100
AcDbLine
62
9
6
CONTINUOUS
10
-18.7686257809
20
-15.9823519988
11
-18.8751001739
21
-15.7691759237
0
LINE
5
250
100
AcDbEntity
8
0
100
AcDbLine
62
7
6
CONTINUOUS
10
-18.8751001739
20
27.3655985412
11
-18.8751001739
21
-15.7691759237
0
LWPOLYLINE
5
251
100
AcDbEntity
8
0
100
AcDbPolyline
62
7
6
CONTINUOUS
90
23
70
0
10
25.3181920297
20
-16.4818759483
10
25.3262127365
20
-16.4818116637
10
25.3559474648
20
-16.4804490443
10
25.3853635261
20
-16.4773451351
10
25.4143615245
20
-16.4725436925
10
25.4428035504
20
-16.4661048348
10
25.4706018220
20
-16.4580898664
10
25.4976744600
20
-16.4485641234
10
25.5239050054
20
-16.4376147816
10
25.5492267419
20
-16.4253206067
10
25.5735799437
20
-16.4117623286
10
25.5968748710
20
-16.3970468222
10
25.6190700656
20
-16.3812626385
10
25.6401290270
20
-16.3644996873
10
25.6599883036
20
-16.3468792976
10
25.6786318623
20
-16.3284937164
10
25.6960482320
20
-16.3094350944
10
25.7122015392
20
-16.2898328151
10
25.7271002283
20
-16.2697767807
10
25.7407572796
20
-16.2493545520
10
25.7531652071
20
-16.2286952003
10
25.7643697440
20
-16.2078502351
10
25.8724709602
20
-15.9914589114
0
LINE
5
252
100
AcDbEntity
8
0
100
AcDbLine
62
7
6
CONTINUOUS
10
-11.5137171316
20
-17.9806870680
11
-10.9228485375
21
-17.9806870680
0
LINE
5
253
100
AcDbEntity
8
0
100
AcDbLine
62
7
6
CONTINUOUS
10
-4.5273518103
20
-17.9806870680
11
-3.9364832162
21
-17.9806870680
0
LINE
5
254
100
AcDbEntity
8
0
100
AcDbLine
62
7
6
CONTINUOUS
10
11.1000421621
20
-17.9806870680
11
18.4497574901
21
-17.9806870680
0
LINE
5
255
100
AcDbEntity
8
0
100
AcDbLine
62
7
6
CONTINUOUS
10
11.3050795664
20
-16.9806870680
11
18.2447200858
21
-16.9806870680
0
LINE
5
256
100
AcDbEntity
8
0
100
AcDbLine
62
7
6
CONTINUOUS
10
18.0050582871
20
-16.9155971979
11
17.3215841972
21
-16.9155971979
0
LINE
5
257
100
AcDbEntity
8
0
100
AcDbLine
62
7
6
CONTINUOUS
10
16.8282154550
20
-16.9155971979
11
12.7215841972
21
-16.9155971979
0
LINE
5
258
100
AcDbEntity
8
0
100
AcDbLine
62
7
6
CONTINUOUS
10
12.2282154550
20
-16.9155971979
11
11.5447413651
21
-16.9155971979
0
LINE
5
259
100
AcDbEntity
8
0
100
AcDbLine
62
7
6
CONTINUOUS
10
20.1666746682
20
-16.8806870680
11
18.0748998261
21
-16.8806870680
0
LINE
5
25A
100
AcDbEntity
8
0
100
AcDbLine
62
7
6
CONTINUOUS
10
11.4748998261
20
-16.8806870680
11
9.3923758773
21
-16.8806870680
0
LINE
5
25B
100
AcDbEntity
8
0
100
AcDbLine
62
7
6
CONTINUOUS
10
-2.3428748444
20
-16.8806870680
11
-4.5273518103
21
-16.8806870680
0
LINE
5
25C
100
AcDbEntity
8
0
100
AcDbLine
62
7
6
CONTINUOUS
10
12.1748998261
20
-16.8806870680
11
12.7748998261
21
-16.8806870680
0
LINE
5
25D
100
AcDbEntity
8
0
100
AcDbLine
62
7
6
CONTINUOUS
10
-10.9228485375
20
-16.8806870680
11
-13.1073255037
21
-16.8806870680
0
LINE
5
25E
100
AcDbEntity
8
0
100
AcDbLine
62
7
6
CONTINUOUS
10
16.7748998261
20
-16.8806870680
11
17.3748998261
21
-16.8806870680
0
LINE
5
25F
100
AcDbEntity
8
0
100
AcDbLine
62
9
6
CONTINUOUS
10
9.3969477937
20
-16.8671099148
11
20.1621226472
21
-16.8671099148
0
LINE
5
260
100
AcDbEntity
8
0
100
AcDbLine
62
9
6
CONTINUOUS
10
-13.1388937936
20
-16.8393799800
11
-10.9366063787
21
-16.8393799800
0
LINE
5
261
100
AcDbEntity
8
0
100
AcDbLine
62
9
6
CONTINUOUS
10
-2.3113065543
20
-16.8393799800
11
-4.5135939692
21
-16.8393799800
0
LINE
5
262
100
AcDbEntity
8
0
100
AcDbLine
62
9
6
CONTINUOUS
10
9.3969477937
20
-16.6915142444
11
20.1621226472
21
-16.6915142444
0
LINE
5
263
100
AcDbEntity
8
0
100
AcDbLine
62
7
6
CONTINUOUS
10
-4.6251001739
20
-16.6806870680
11
-10.8251001739
21
-16.6806870680
0
LINE
5
264
100
AcDbEntity
8
0
100
AcDbLine
62
9
6
CONTINUOUS
10
-13.1388937937
20
-16.6640279418
11
-10.9398886647
21
-16.6640279418
0
LINE
5
265
100
AcDbEntity
8
0
100
AcDbLine
62
9
6
CONTINUOUS
10
-2.3113065541
20
-16.6640279418
11
-4.5103116832
21
-16.6640279418
0
LINE
5
266
100
AcDbEntity
8
0
100
AcDbLine
62
7
6
CONTINUOUS
10
-4.5971720700
20
-17.9108668083
11
-4.5273518103
21
-17.9806870680
0
LINE
5
267
100
AcDbEntity
8
0
100
AcDbLine
62
9
6
CONTINUOUS
10
-18.2604387724
20
25.9756224848
11
-18.2604387724
21
-15.6105619998
0
LINE
5
268
100
AcDbEntity
8
0
100
AcDbLine
62
7
6
CONTINUOUS
10
-10.9366063787
20
27.8780058440
11
-10.9228485375
21
27.9193129320
0
LINE
5
269
100
AcDbEntity
8
0
100
AcDbLine
62
7
6
CONTINUOUS
10
-4.5971720700
20
28.9494926723
11
-4.5273518103
21
29.0193129320
0
LINE
5
26A
100
AcDbEntity
8
0
100
AcDbLine
62
7
6
CONTINUOUS
10
25.3182023831
20
-16.4818960466
11
-18.2684044592
21
-16.4818960466
0
LINE
5
26B
100
AcDbEntity
8
0
100
AcDbLine
62
9
6
CONTINUOUS
10
25.3102384246
20
-15.6105619998
11
-18.2604387724
21
-15.6105619998
0
LINE
5
26C
100
AcDbEntity
8
0
100
AcDbLine
62
7
6
CONTINUOUS
10
-10.9228485375
20
-16.8806870680
11
-10.9366063787
21
-16.8393799800
0
LINE
5
26D
100
AcDbEntity
8
0
100
AcDbLine
62
9
6
CONTINUOUS
10
-18.8751001739
20
27.3655985412
11
-18.7686257809
21
26.5154895647
0
LINE
5
26E
100
AcDbEntity
8
0
100
AcDbLine
62
9
6
CONTINUOUS
10
-18.3754807736
20
27.8639238715
11
-18.2687019333
21
27.0113841377
0
LINE
5
26F
100
AcDbEntity
8
0
100
AcDbLine
62
9
6
CONTINUOUS
10
-13.1388937937
20
-16.6640279418
11
-13.1388937937
21
-16.8393799800
0
LINE
5
270
100
AcDbEntity
8
0
100
AcDbLine
62
9
6
CONTINUOUS
10
-13.1388937527
20
27.8639238715
11
-13.1388937962
21
27.8780058440
0
LINE
5
271
100
AcDbEntity
8
0
100
AcDbLine
62
7
6
CONTINUOUS
10
11.4748998261
20
27.9193129320
11
11.5447413651
21
27.9542230618
0
LINE
5
272
100
AcDbEntity
8
0
100
AcDbLine
62
9
6
CONTINUOUS
10
22.0041449278
20
-11.3806870680
11
20.2747051692
21
-11.3806870680
0
LINE
5
273
100
AcDbEntity
8
0
100
AcDbLine
62
9
6
CONTINUOUS
10
19.2750750495
20
-11.3806870680
11
17.5456547244
21
-11.3806870680
0
LINE
5
274
100
AcDbEntity
8
0
100
AcDbLine
62
9
6
CONTINUOUS
10
22.2033838674
20
-11.1981182166
11
20.2748998261
21
-11.1981182166
0
LINE
5
275
100
AcDbEntity
8
0
100
AcDbLine
62
9
6
CONTINUOUS
10
19.2748998261
20
-11.1981182166
11
17.3464157848
21
-11.1981182166
0
LINE
5
276
100
AcDbEntity
8
0
100
AcDbLine
62
9
6
CONTINUOUS
10
12.0041449278
20
-10.5056870680
11
10.2747246027
21
-10.5056870680
0
LINE
5
277
100
AcDbEntity
8
0
100
AcDbLine
62
9
6
CONTINUOUS
10
9.2750944830
20
-10.5056870680
11
7.5456547244
21
-10.5056870680
0
LINE
5
278
100
AcDbEntity
8
0
100
AcDbLine
62
6
6
CONTINUOUS
10
16.2748998261
20
-10.3806870680
11
23.2748998261
21
-10.3806870680
0
LINE
5
279
100
AcDbEntity
8
0
100
AcDbLine
62
9
6
CONTINUOUS
10
12.2033838674
20
-10.3231182166
11
10.2748998261
21
-10.3231182166
0
LINE
5
27A
100
AcDbEntity
8
0
100
AcDbLine
62
9
6
CONTINUOUS
10
9.2748998261
20
-10.3231182166
11
7.3464157848
21
-10.3231182166
0
LINE
5
27B
100
AcDbEntity
8
0
100
AcDbLine
62
7
6
CONTINUOUS
10
11.5447413651
20
-16.9155971979
11
11.4748998261
21
-16.8806870680
0
LINE
5
27C
100
AcDbEntity
8
0
100
AcDbLine
62
7
6
CONTINUOUS
10
-10.9398886647
20
-16.6640279418
11
-10.9402790120
21
-16.4818960466
0
LINE
5
27D
100
AcDbEntity
8
0
100
AcDbLine
62
7
6
CONTINUOUS
10
-10.9228485375
20
29.0193129320
11
-10.9228485375
21
27.9193129320
0
LINE
5
27E
100
AcDbEntity
8
0
100
AcDbLine
62
7
6
CONTINUOUS
10
-10.9228485375
20
-17.9806870680
11
-10.9228485375
21
-16.8806870680
0
LINE
5
27F
100
AcDbEntity
8
0
100
AcDbLine
62
7
6
CONTINUOUS
10
-10.8530282778
20
28.9494926723
11
-10.8530282778
21
27.8639238715
0
LINE
5
280
100
AcDbEntity
8
0
100
AcDbLine
62
7
6
CONTINUOUS
10
-10.8530282778
20
-17.9108668083
11
-10.8530282778
21
-16.4818960466
0
LINE
5
281
100
AcDbEntity
8
0
100
AcDbLine
62
7
6
CONTINUOUS
10
-10.8251001739
20
-16.4818960466
11
-10.8251001739
21
-16.6806870680
0
LINE
5
282
100
AcDbEntity
8
0
100
AcDbLine
62
9
6
CONTINUOUS
10
16.2748998261
20
-9.5806870680
11
23.2748998261
21
-9.5806870680
0
LINE
5
283
100
AcDbEntity
8
0
100
AcDbLine
62
6
6
CONTINUOUS
10
6.2748998261
20
-9.5056870680
11
13.2748998261
21
-9.5056870680
0
LINE
5
284
100
AcDbEntity
8
0
100
AcDbLine
62
6
6
CONTINUOUS
10
18.6298998261
20
-9.4806870680
11
20.9198998261
21
-9.4806870680
0
LINE
5
285
100
AcDbEntity
8
0
100
AcDbLine
62
9
6
CONTINUOUS
10
23.0748998265
20
-9.3806870680
11
16.4748998257
21
-9.3806870680
0
LINE
5
286
100
AcDbEntity
8
0
100
AcDbLine
62
6
6
CONTINUOUS
10
21.3998998261
20
-9.2056870680
11
18.1498998261
21
-9.2056870680
0
LINE
5
287
100
AcDbEntity
8
0
100
AcDbLine
62
6
6
CONTINUOUS
10
21.5248998261
20
-9.0806870680
11
18.0248998261
21
-9.0806870680
0
LINE
5
288
100
AcDbEntity
8
0
100
AcDbLine
62
9
6
CONTINUOUS
10
6.2748998261
20
-8.7056870680
11
13.2748998261
21
-8.7056870680
0
LINE
5
289
100
AcDbEntity
8
0
100
AcDbLine
62
6
6
CONTINUOUS
10
8.6298998261
20
-8.6056870680
11
10.9198998261
21
-8.6056870680
0
LINE
5
28A
100
AcDbEntity
8
0
100
AcDbLine
62
9
6
CONTINUOUS
10
13.0748998265
20
-8.5056870680
11
6.4748998257
21
-8.5056870680
0
LINE
5
28B
100
AcDbEntity
8
0
100
AcDbLine
62
6
6
CONTINUOUS
10
11.3998998261
20
-8.3306870680
11
8.1498998261
21
-8.3306870680
0
LINE
5
28C
100
AcDbEntity
8
0
100
AcDbLine
62
6
6
CONTINUOUS
10
11.5248998261
20
-8.2056870680
11
8.0248998261
21
-8.2056870680
0
LINE
5
28D
100
AcDbEntity
8
0
100
AcDbLine
62
7
6
CONTINUOUS
10
26.0748998261
20
-4.9806870680
11
25.9248998261
21
-4.9806870680
0
LINE
5
28E
100
AcDbEntity
8
0
100
AcDbLine
62
6
6
CONTINUOUS
10
21.5248998261
20
-4.0987480680
11
18.0248998261
21
-4.0987480680
0
LINE
5
28F
100
AcDbEntity
8
0
100
AcDbLine
62
6
6
CONTINUOUS
10
21.1568388261
20
-3.7306870680
11
18.3929608261
21
-3.7306870680
0
LINE
5
290
100
AcDbEntity
8
0
100
AcDbLine
62
6
6
CONTINUOUS
10
11.5248998261
20
-3.2237480680
11
8.0248998261
21
-3.2237480680
0
LINE
5
291
100
AcDbEntity
8
0
100
AcDbLine
62
7
6
CONTINUOUS
10
-4.6251001739
20
-16.4818960466
11
-4.6251001739
21
-16.6806870680
0
LINE
5
292
100
AcDbEntity
8
0
100
AcDbLine
62
7
6
CONTINUOUS
10
-4.5971720700
20
28.9494926723
11
-4.5971720700
21
27.8639238715
0
LINE
5
293
100
AcDbEntity
8
0
100
AcDbLine
62
7
6
CONTINUOUS
10
-4.5971720700
20
-17.9108668083
11
-4.5971720700
21
-16.4818960466
0
LINE
5
294
100
AcDbEntity
8
0
100
AcDbLine
62
7
6
CONTINUOUS
10
-4.5273518103
20
29.0193129320
11
-4.5273518103
21
27.9193129320
0
LINE
5
295
100
AcDbEntity
8
0
100
AcDbLine
62
7
6
CONTINUOUS
10
-4.5273518103
20
-17.9806870680
11
-4.5273518103
21
-16.8806870680
0
LINE
5
296
100
AcDbEntity
8
0
100
AcDbLine
62
7
6
CONTINUOUS
10
-4.5103116832
20
-16.6640279418
11
-4.5099213358
21
-16.4818960466
0
LINE
5
297
100
AcDbEntity
8
0
100
AcDbLine
62
9
6
CONTINUOUS
10
26.0479738412
20
21.4773442895
11
26.0748998261
21
21.4866136622
0
LINE
5
298
100
AcDbEntity
8
0
100
AcDbLine
62
9
6
CONTINUOUS
10
21.0248998261
20
-2.8806870680
11
18.5248998261
21
-2.8806870680
0
LINE
5
299
100
AcDbEntity
8
0
100
AcDbLine
62
6
6
CONTINUOUS
10
11.1568388261
20
-2.8556870680
11
8.3929608261
21
-2.8556870680
0
LINE
5
29A
100
AcDbEntity
8
0
100
AcDbLine
62
9
6
CONTINUOUS
10
20.8248998261
20
-2.6806870680
11
18.7248998261
21
-2.6806870680
0
LINE
5
29B
100
AcDbEntity
8
0
100
AcDbLine
62
9
6
CONTINUOUS
10
11.0248998261
20
-2.0056870680
11
8.5248998261
21
-2.0056870680
0
LINE
5
29C
100
AcDbEntity
8
0
100
AcDbLine
62
9
6
CONTINUOUS
10
10.8248998261
20
-1.8056870680
11
8.7248998261
21
-1.8056870680
0
LINE
5
29D
100
AcDbEntity
8
0
100
AcDbLine
62
9
6
CONTINUOUS
10
26.0479738412
20
-10.4387184256
11
26.0748998261
21
-10.4479877983
0
LINE
5
29E
100
AcDbEntity
8
0
100
AcDbLine
62
6
6
CONTINUOUS
10
8.0248998261
20
-8.2056870680
11
8.1498998261
21
-8.3306870680
0
LINE
5
29F
100
AcDbEntity
8
0
100
AcDbLine
62
9
6
CONTINUOUS
10
-2.3113065541
20
27.8780058440
11
-2.3113066225
21
27.8639238715
0
LINE
5
2A0
100
AcDbEntity
8
0
100
AcDbLine
62
9
6
CONTINUOUS
10
-2.3113065541
20
-16.8393799800
11
-2.3113065541
21
-16.6640279418
0
LINE
5
2A1
100
AcDbEntity
8
0
100
AcDbLine
62
6
6
CONTINUOUS
10
11.3998998261
20
-8.3306870680
11
11.5748998261
21
-8.5056870680
0
LINE
5
2A2
100
AcDbEntity
8
0
100
AcDbLine
62
7
6
CONTINUOUS
10
-4.5273518103
20
-16.8806870680
11
-4.5135939692
21
-16.8393799800
0
LINE
5
2A3
100
AcDbEntity
8
0
100
AcDbLine
62
6
6
CONTINUOUS
10
11.1568388261
20
-2.8556870680
11
11.5248998261
21
-3.2237480680
0
LINE
5
2A4
100
AcDbEntity
8
0
100
AcDbLine
62
6
6
CONTINUOUS
10
18.0248998261
20
-9.0806870680
11
18.1498998261
21
-9.2056870680
0
LINE
5
2A5
100
AcDbEntity
8
0
100
AcDbLine
62
6
6
CONTINUOUS
10
10.9175947708
20
-8.6056870680
11
11.8648998261
21
-10.5056870680
0
LINE
5
2A6
100
AcDbEntity
8
0
100
AcDbLine
62
7
6
CONTINUOUS
10
-4.5135939692
20
27.8780058440
11
-4.5273518103
21
27.9193129320
0
LINE
5
2A7
100
AcDbEntity
8
0
100
AcDbLine
62
6
6
CONTINUOUS
10
7.2748998261
20
-9.5056870680
11
7.3464157848
21
-10.3231182166
0
LINE
5
2A8
100
AcDbEntity
8
0
100
AcDbLine
62
6
6
CONTINUOUS
10
21.3998998261
20
-9.2056870680
11
21.5748998261
21
-9.3806870680
0
LINE
5
2A9
100
AcDbEntity
8
0
100
AcDbLine
62
6
6
CONTINUOUS
10
6.2748998261
20
-9.5056870680
11
6.2748998261
21
-8.7056870680
0
LINE
5
2AA
100
AcDbEntity
8
0
100
AcDbLine
62
6
6
CONTINUOUS
10
8.0248998261
20
-8.2056870680
11
8.0248998261
21
-3.2237480680
0
LINE
5
2AB
100
AcDbEntity
8
0
100
AcDbLine
62
7
6
CONTINUOUS
10
11.3900275490
20
27.9193129320
11
11.4068393925
21
27.9974061647
0
LINE
5
2AC
100
AcDbEntity
8
0
100
AcDbLine
62
7
6
CONTINUOUS
10
11.3900275490
20
-16.8806870680
11
11.4068393925
21
-16.9587803008
0
LINE
5
2AD
100
AcDbEntity
8
0
100
AcDbLine
62
6
6
CONTINUOUS
10
8.5248998261
20
-2.8556870680
11
8.5248998261
21
-2.0056870680
0
LINE
5
2AE
100
AcDbEntity
8
0
100
AcDbLine
62
6
6
CONTINUOUS
10
8.6847048894
20
-8.6056870680
11
8.6847048894
21
-10.5056870680
0
LINE
5
2AF
100
AcDbEntity
8
0
100
AcDbLine
62
6
6
CONTINUOUS
10
9.2551763419
20
-10.5056870680
11
9.2551763419
21
-8.6056870680
0
LINE
5
2B0
100
AcDbEntity
8
0
100
AcDbLine
62
6
6
CONTINUOUS
10
9.2748998261
20
-9.5056870680
11
9.2748998261
21
-10.5056870680
0
LINE
5
2B1
100
AcDbEntity
8
0
100
AcDbLine
62
9
6
CONTINUOUS
10
9.3969477710
20
27.8639238715
11
9.3969477912
21
27.9057357787
0
LINE
5
2B2
100
AcDbEntity
8
0
100
AcDbLine
62
9
6
CONTINUOUS
10
9.3969477937
20
-16.6915142444
11
9.3969477937
21
-16.8671099148
0
LINE
5
2B3
100
AcDbEntity
8
0
100
AcDbLine
62
6
6
CONTINUOUS
10
9.4248998261
20
-8.6056870680
11
9.4248998261
21
-9.5056870680
0
LINE
5
2B4
100
AcDbEntity
8
0
100
AcDbLine
62
6
6
CONTINUOUS
10
10.1248998261
20
-8.6056870680
11
10.1248998261
21
-9.5056870680
0
LINE
5
2B5
100
AcDbEntity
8
0
100
AcDbLine
62
6
6
CONTINUOUS
10
10.2748998261
20
-10.5056870680
11
10.2748998261
21
-9.5056870680
0
LINE
5
2B6
100
AcDbEntity
8
0
100
AcDbLine
62
6
6
CONTINUOUS
10
10.2946233103
20
-10.5056870680
11
10.2946233103
21
-8.6056870680
0
LINE
5
2B7
100
AcDbEntity
8
0
100
AcDbLine
62
7
6
CONTINUOUS
10
-10.8530282778
20
-17.9108668083
11
-10.9228485375
21
-17.9806870680
0
LINE
5
2B8
100
AcDbEntity
8
0
100
AcDbLine
62
6
6
CONTINUOUS
10
21.1568388261
20
-3.7306870680
11
21.5248998261
21
-4.0987480680
0
LINE
5
2B9
100
AcDbEntity
8
0
100
AcDbLine
62
7
6
CONTINUOUS
10
-10.8530282778
20
28.9494926723
11
-10.9228485375
21
29.0193129320
0
LINE
5
2BA
100
AcDbEntity
8
0
100
AcDbLine
62
6
6
CONTINUOUS
10
10.8650947628
20
-8.6056870680
11
10.8650947628
21
-10.5056870680
0
LINE
5
2BB
100
AcDbEntity
8
0
100
AcDbLine
62
6
6
CONTINUOUS
10
11.0248998261
20
-2.8556870680
11
11.0248998261
21
-2.0056870680
0
LINE
5
2BC
100
AcDbEntity
8
0
100
AcDbLine
62
7
6
CONTINUOUS
10
11.3050795664
20
28.0193129320
11
11.3050795664
21
27.9193129320
0
LINE
5
2BD
100
AcDbEntity
8
0
100
AcDbLine
62
7
6
CONTINUOUS
10
11.3050795664
20
-16.9806870680
11
11.3050795664
21
-16.8806870680
0
LINE
5
2BE
100
AcDbEntity
8
0
100
AcDbLine
62
6
6
CONTINUOUS
10
11.5248998261
20
-8.2056870680
11
11.5248998261
21
-3.2237480680
0
LINE
5
2BF
100
AcDbEntity
8
0
100
AcDbLine
62
7
6
CONTINUOUS
10
11.5447413651
20
-16.9806870680
11
11.5447413651
21
-16.9155971979
0
LINE
5
2C0
100
AcDbEntity
8
0
100
AcDbLine
62
7
6
CONTINUOUS
10
11.5447413651
20
27.9542230618
11
11.5447413651
21
28.0193129320
0
LINE
5
2C1
100
AcDbEntity
8
0
100
AcDbLine
62
9
6
CONTINUOUS
10
20.1621226472
20
27.9057357787
11
20.1666746682
21
27.9193129320
0
LINE
5
2C2
100
AcDbEntity
8
0
100
AcDbLine
62
6
6
CONTINUOUS
10
21.8648998261
20
-11.3806870680
11
20.9175947708
21
-9.4806870680
0
LINE
5
2C3
100
AcDbEntity
8
0
100
AcDbLine
62
9
6
CONTINUOUS
10
20.4679879111
20
-16.7796794811
11
20.4634590316
21
-16.7659216226
0
LINE
5
2C4
100
AcDbEntity
8
0
100
AcDbLine
62
6
6
CONTINUOUS
10
13.2748998261
20
-9.5056870680
11
13.2748998261
21
-8.7056870680
0
LINE
5
2C5
100
AcDbEntity
8
0
100
AcDbLine
62
6
6
CONTINUOUS
10
12.2748998261
20
-9.5056870680
11
12.2033838674
21
-10.3231182166
0
LINE
5
2C6
100
AcDbEntity
8
0
100
AcDbLine
62
7
6
CONTINUOUS
10
18.1900275490
20
27.9193129320
11
18.2083083323
21
28.0042295840
0
LINE
5
2C7
100
AcDbEntity
8
0
100
AcDbLine
62
6
6
CONTINUOUS
10
7.6848998261
20
-10.5056870680
11
8.6322048814
21
-8.6056870680
0
LINE
5
2C8
100
AcDbEntity
8
0
100
AcDbLine
62
6
6
CONTINUOUS
10
8.3929608261
20
-2.8556870680
11
8.0248998261
21
-3.2237480680
0
LINE
5
2C9
100
AcDbEntity
8
0
100
AcDbLine
62
7
6
CONTINUOUS
10
25.9248998261
20
16.0193129320
11
26.0748998261
21
16.0193129320
0
LINE
5
2CA
100
AcDbEntity
8
0
100
AcDbLine
62
7
6
CONTINUOUS
10
18.1900275490
20
-16.8806870680
11
18.2083083323
21
-16.9656037201
0
LINE
5
2CB
100
AcDbEntity
8
0
100
AcDbLine
62
6
6
CONTINUOUS
10
17.2748998261
20
-10.3806870680
11
17.3464157848
21
-11.1981182166
0
LINE
5
2CC
100
AcDbEntity
8
0
100
AcDbLine
62
6
6
CONTINUOUS
10
16.2748998261
20
-10.3806870680
11
16.2748998261
21
-9.5806870680
0
LINE
5
2CD
100
AcDbEntity
8
0
100
AcDbLine
62
7
6
CONTINUOUS
10
11.3597721031
20
-16.8806870680
11
11.3414913198
21
-16.9656037201
0
LINE
5
2CE
100
AcDbEntity
8
0
100
AcDbLine
62
9
6
CONTINUOUS
10
9.0945625278
20
-16.7651254928
11
9.0900132467
21
-16.7788846755
0
LINE
5
2CF
100
AcDbEntity
8
0
100
AcDbLine
62
9
6
CONTINUOUS
10
9.3969477937
20
-16.8671099148
11
9.3923758773
21
-16.8806870680
0
LINE
5
2D0
100
AcDbEntity
8
0
100
AcDbLine
62
6
6
CONTINUOUS
10
8.1498998261
20
-8.3306870680
11
7.9748998261
21
-8.5056870680
0
LINE
5
2D1
100
AcDbEntity
8
0
100
AcDbLine
62
7
6
CONTINUOUS
10
11.3597721031
20
27.9193129320
11
11.3414913198
21
28.0042295840
0
LINE
5
2D2
100
AcDbEntity
8
0
100
AcDbLine
62
7
6
CONTINUOUS
10
18.0050582871
20
-16.9806870680
11
18.0050582871
21
-16.9155971979
0
LINE
5
2D3
100
AcDbEntity
8
0
100
AcDbLine
62
7
6
CONTINUOUS
10
18.0050582871
20
27.9542230618
11
18.0050582871
21
28.0193129320
0
LINE
5
2D4
100
AcDbEntity
8
0
100
AcDbLine
62
6
6
CONTINUOUS
10
18.0248998261
20
-9.0806870680
11
18.0248998261
21
-4.0987480680
0
LINE
5
2D5
100
AcDbEntity
8
0
100
AcDbLine
62
7
6
CONTINUOUS
10
18.2447200858
20
-16.8806870680
11
18.2447200858
21
-16.9806870680
0
LINE
5
2D6
100
AcDbEntity
8
0
100
AcDbLine
62
7
6
CONTINUOUS
10
18.2447200858
20
27.9193129320
11
18.2447200858
21
28.0193129320
0
LINE
5
2D7
100
AcDbEntity
8
0
100
AcDbLine
62
6
6
CONTINUOUS
10
18.5248998261
20
-3.7306870680
11
18.5248998261
21
-2.8806870680
0
LINE
5
2D8
100
AcDbEntity
8
0
100
AcDbLine
62
6
6
CONTINUOUS
10
18.6847048894
20
-9.4806870680
11
18.6847048894
21
-11.3806870680
0
LINE
5
2D9
100
AcDbEntity
8
0
100
AcDbLine
62
6
6
CONTINUOUS
10
19.2551763419
20
-11.3806870680
11
19.2551763419
21
-9.4806870680
0
LINE
5
2DA
100
AcDbEntity
8
0
100
AcDbLine
62
6
6
CONTINUOUS
10
19.2748998261
20
-10.3806870680
11
19.2748998261
21
-11.3806870680
0
LINE
5
2DB
100
AcDbEntity
8
0
100
AcDbLine
62
6
6
CONTINUOUS
10
19.4248998261
20
-9.4806870680
11
19.4248998261
21
-10.3806870680
0
LINE
5
2DC
100
AcDbEntity
8
0
100
AcDbLine
62
6
6
CONTINUOUS
10
11.5248998261
20
-8.2056870680
11
11.3998998261
21
-8.3306870680
0
LINE
5
2DD
100
AcDbEntity
8
0
100
AcDbLine
62
6
6
CONTINUOUS
10
20.1248998261
20
-9.4806870680
11
20.1248998261
21
-10.3806870680
0
LINE
5
2DE
100
AcDbEntity
8
0
100
AcDbLine
62
9
6
CONTINUOUS
10
20.1621226472
20
-16.6915142444
11
20.1621226497
21
-16.8671099148
0
LINE
5
2DF
100
AcDbEntity
8
0
100
AcDbLine
62
9
6
CONTINUOUS
10
20.1621226479
20
27.8639238715
11
20.1621226472
21
27.9057357787
0
LINE
5
2E0
100
AcDbEntity
8
0
100
AcDbLine
62
6
6
CONTINUOUS
10
20.2748998261
20
-11.3806870680
11
20.2748998261
21
-10.3806870680
0
LINE
5
2E1
100
AcDbEntity
8
0
100
AcDbLine
62
6
6
CONTINUOUS
10
20.2946233103
20
-11.3806870680
11
20.2946233103
21
-9.4806870680
0
LINE
5
2E2
100
AcDbEntity
8
0
100
AcDbLine
62
6
6
CONTINUOUS
10
20.8650947628
20
-9.4806870680
11
20.8650947628
21
-11.3806870680
0
LINE
5
2E3
100
AcDbEntity
8
0
100
AcDbLine
62
6
6
CONTINUOUS
10
21.0248998261
20
-3.7306870680
11
21.0248998261
21
-2.8806870680
0
LINE
5
2E4
100
AcDbEntity
8
0
100
AcDbLine
62
6
6
CONTINUOUS
10
21.5248998261
20
-9.0806870680
11
21.5248998261
21
-4.0987480680
0
LINE
5
2E5
100
AcDbEntity
8
0
100
AcDbLine
62
6
6
CONTINUOUS
10
18.3929608261
20
-3.7306870680
11
18.0248998261
21
-4.0987480680
0
LINE
5
2E6
100
AcDbEntity
8
0
100
AcDbLine
62
6
6
CONTINUOUS
10
23.2748998261
20
-10.3806870680
11
23.2748998261
21
-9.5806870680
0
LINE
5
2E7
100
AcDbEntity
8
0
100
AcDbLine
62
6
6
CONTINUOUS
10
22.2748998261
20
-10.3806870680
11
22.2033838674
21
-11.1981182166
0
LINE
5
2E8
100
AcDbEntity
8
0
100
AcDbLine
62
9
6
CONTINUOUS
10
25.4252804258
20
27.8639238715
11
25.3185015855
21
27.0113841377
0
LINE
5
2E9
100
AcDbEntity
8
0
100
AcDbLine
62
9
6
CONTINUOUS
10
25.9248998261
20
27.3655985412
11
25.8184254331
21
26.5154895647
0
LINE
5
2EA
100
AcDbEntity
8
0
100
AcDbLine
62
7
6
CONTINUOUS
10
18.1597721031
20
-16.8806870680
11
18.1429602596
21
-16.9587803008
0
LINE
5
2EB
100
AcDbEntity
8
0
100
AcDbLine
62
6
6
CONTINUOUS
10
18.6322048814
20
-9.4806870680
11
17.6848998261
21
-11.3806870680
0
LINE
5
2EC
100
AcDbEntity
8
0
100
AcDbLine
62
9
6
CONTINUOUS
10
-18.2604387724
20
25.9756224848
11
25.3102384246
21
25.9756224848
0
LINE
5
2ED
100
AcDbEntity
8
0
100
AcDbLine
62
7
6
CONTINUOUS
10
18.1597721031
20
27.9193129320
11
18.1429602596
21
27.9974061647
0
LINE
5
2EE
100
AcDbEntity
8
0
100
AcDbLine
62
9
6
CONTINUOUS
10
26.0479738412
20
-10.4387184256
11
26.0363587220
21
-5.0192281721
0
LINE
5
2EF
100
AcDbEntity
8
0
100
AcDbLine
62
9
6
CONTINUOUS
10
25.3102384246
20
25.9756224848
11
25.3102384246
21
-15.6105619998
0
LINE
5
2F0
100
AcDbEntity
8
0
100
AcDbLine
62
7
6
CONTINUOUS
10
25.9248998261
20
27.3655985412
11
25.9248998261
21
-15.7691759237
0
LINE
5
2F1
100
AcDbEntity
8
0
100
AcDbLine
62
7
6
CONTINUOUS
10
26.0748998261
20
-10.4479877983
11
26.0748998261
21
-4.9806870680
0
LINE
5
2F2
100
AcDbEntity
8
0
100
AcDbLine
62
7
6
CONTINUOUS
10
26.0748998261
20
16.0193129320
11
26.0748998261
21
21.4866136622
0
LINE
5
2F3
100
AcDbEntity
8
0
100
AcDbLine
62
9
6
CONTINUOUS
10
26.0363587220
20
16.0578540361
11
26.0479738412
21
21.4773442895
0
LINE
5
2F4
100
AcDbEntity
8
0
100
AcDbLine
62
6
6
CONTINUOUS
10
18.1498998261
20
-9.2056870680
11
17.9748998261
21
-9.3806870680
0
LINE
5
2F5
100
AcDbEntity
8
0
100
AcDbLine
62
9
6
CONTINUOUS
10
-18.2687019333
20
27.0113841377
11
25.3185015855
21
27.0113841377
0
LINE
5
2F6
100
AcDbEntity
8
0
100
AcDbLine
62
7
6
CONTINUOUS
10
25.4252804258
20
27.8639238715
11
-18.3754807736
21
27.8639238715
0
LINE
5
2F7
100
AcDbEntity
8
0
100
AcDbLine
62
9
6
CONTINUOUS
10
-4.5135939692
20
27.8780058440
11
-2.3113065543
21
27.8780058440
0
LINE
5
2F8
100
AcDbEntity
8
0
100
AcDbLine
62
9
6
CONTINUOUS
10
-10.9366063787
20
27.8780058440
11
-13.1388937936
21
27.8780058440
0
LINE
5
2F9
100
AcDbEntity
8
0
100
AcDbLine
62
9
6
CONTINUOUS
10
20.1621226472
20
27.9057357787
11
9.3969477937
21
27.9057357787
0
LINE
5
2FA
100
AcDbEntity
8
0
100
AcDbLine
62
7
6
CONTINUOUS
10
20.1666746682
20
27.9193129320
11
18.0748998261
21
27.9193129320
0
LINE
5
2FB
100
AcDbEntity
8
0
100
AcDbLine
62
7
6
CONTINUOUS
10
11.4748998261
20
27.9193129320
11
9.3923758773
21
27.9193129320
0
LINE
5
2FC
100
AcDbEntity
8
0
100
AcDbLine
62
7
6
CONTINUOUS
10
-2.3428748441
20
27.9193129320
11
-4.5273518103
21
27.9193129320
0
LINE
5
2FD
100
AcDbEntity
8
0
100
AcDbLine
62
7
6
CONTINUOUS
10
12.1748998261
20
27.9193129320
11
12.7748998261
21
27.9193129320
0
LINE
5
2FE
100
AcDbEntity
8
0
100
AcDbLine
62
7
6
CONTINUOUS
10
-10.9228485375
20
27.9193129320
11
-13.1073255034
21
27.9193129320
0
LINE
5
2FF
100
AcDbEntity
8
0
100
AcDbLine
62
7
6
CONTINUOUS
10
16.7748998261
20
27.9193129320
11
17.3748998261
21
27.9193129320
0
LINE
5
300
100
AcDbEntity
8
0
100
AcDbLine
62
7
6
CONTINUOUS
10
18.0050582871
20
27.9542230618
11
17.3215841972
21
27.9542230618
0
LINE
5
301
100
AcDbEntity
8
0
100
AcDbLine
62
7
6
CONTINUOUS
10
16.8282154550
20
27.9542230618
11
12.7215841972
21
27.9542230618
0
LINE
5
302
100
AcDbEntity
8
0
100
AcDbLine
62
7
6
CONTINUOUS
10
12.2282154550
20
27.9542230618
11
11.5447413651
21
27.9542230618
0
LINE
5
303
100
AcDbEntity
8
0
100
AcDbLine
62
7
6
CONTINUOUS
10
11.3050795664
20
28.0193129320
11
18.2447200858
21
28.0193129320
0
LINE
5
304
100
AcDbEntity
8
0
100
AcDbLine
62
6
6
CONTINUOUS
10
21.5248998261
20
-9.0806870680
11
21.3998998261
21
-9.2056870680
0
LINE
5
305
100
AcDbEntity
8
0
100
AcDbLine
62
7
6
CONTINUOUS
10
26.0748998261
20
-4.9806870680
11
26.0363587220
21
-5.0192281721
0
LINE
5
306
100
AcDbEntity
8
0
100
AcDbLine
62
7
6
CONTINUOUS
10
-3.9364832162
20
29.0193129320
11
-4.5273518103
21
29.0193129320
0
LINE
5
307
100
AcDbEntity
8
0
100
AcDbLine
62
7
6
CONTINUOUS
10
11.1000420595
20
29.0193129320
11
18.4497575927
21
29.0193129320
0
LINE
5
308
100
AcDbEntity
8
0
100
AcDbLine
62
7
6
CONTINUOUS
10
-10.9228485375
20
29.0193129320
11
-11.5137171316
21
29.0193129320
0
LINE
5
309
100
AcDbEntity
8
0
100
AcDbLine
62
7
6
CONTINUOUS
10
26.0748998261
20
16.0193129320
11
26.0363587220
21
16.0578540361
0
LINE
5
30A
100
AcDbEntity
8
0
100
AcDbLine
62
7
6
CONTINUOUS
10
18.0050582871
20
-16.9155971979
11
18.0748998261
21
-16.8806870680
0
LINE
5
30B
100
AcDbEntity
8
0
100
AcDbLine
62
7
6
CONTINUOUS
10
18.0748998261
20
27.9193129320
11
18.0050582871
21
27.9542230618
0
LINE
5
30C
100
AcDbEntity
8
0
100
AcDbLine
62
9
6
CONTINUOUS
10
25.8184254331
20
-15.9823519988
11
25.9248998261
21
-15.7691759237
0
LINE
5
30D
100
AcDbEntity
8
0
100
AcDbLine
62
7
6
CONTINUOUS
10
-51.9140935359
20
-17.9108668083
11
-55.9140935359
21
-17.9806870680
0
LINE
5
30E
100
AcDbEntity
8
0
100
AcDbLine
62
9
6
CONTINUOUS
10
-51.9140935359
20
-17.7437944298
11
-55.9140935359
21
-17.8140467255
0
LINE
5
30F
100
AcDbEntity
8
0
100
AcDbLine
62
7
6
CONTINUOUS
10
-49.7645980520
20
-16.6806870680
11
-50.3140935359
21
-16.6806870680
0
LINE
5
310
100
AcDbEntity
8
0
100
AcDbLine
62
7
6
CONTINUOUS
10
-56.6919281247
20
-16.8671099148
11
-55.9140935359
21
-16.8806870680
0
LINE
5
311
100
AcDbEntity
8
0
100
AcDbLine
62
9
6
CONTINUOUS
10
-55.9140935359
20
-16.7796794811
11
-56.6993891369
21
-16.7659216226
0
LINE
5
312
100
AcDbEntity
8
0
100
AcDbLine
62
7
6
CONTINUOUS
10
-56.9391959639
20
-16.2659795537
11
-57.5489558330
21
-16.2126324777
0
LINE
5
313
100
AcDbEntity
8
0
100
AcDbLine
62
7
6
CONTINUOUS
10
-61.7567702038
20
27.8639238715
11
-57.8957708001
21
-16.2675012540
0
LINE
5
314
100
AcDbEntity
8
0
100
AcDbLine
62
9
6
CONTINUOUS
10
-59.8451442130
20
6.0139388124
11
-57.9210119069
21
21.6847388864
0
LINE
5
315
100
AcDbEntity
8
0
100
AcDbLine
62
7
6
CONTINUOUS
10
-59.5991298621
20
5.6411822754
11
-56.8869468737
21
27.7301401084
0
LINE
5
316
100
AcDbEntity
8
0
100
AcDbLine
62
9
6
CONTINUOUS
10
-59.4041111130
20
5.6168084067
11
-57.4566821790
21
21.4773442895
0
LINE
5
317
100
AcDbEntity
8
CURVE
100
AcDbLine
62
2
6
CONTINUOUS
10
-54.2135450253
20
21.2544655643
11
-54.0622753667
21
21.4057352229
0
LINE
5
318
100
AcDbEntity
8
CURVE
100
AcDbLine
62
2
6
CONTINUOUS
10
-54.2135450253
20
20.8344441363
11
-54.0119267210
21
21.0360624406
0
LINE
5
319
100
AcDbEntity
8
CURVE
100
AcDbLine
62
2
6
CONTINUOUS
10
-54.2135450253
20
20.4144227083
11
-54.0119267210
21
20.6160410126
0
LINE
5
31A
100
AcDbEntity
8
CURVE
100
AcDbLine
62
2
6
CONTINUOUS
10
-53.4398226503
20
21.1881450833
11
-53.2902464436
21
21.3377212900
0
LINE
5
31B
100
AcDbEntity
8
CURVE
100
AcDbLine
62
2
6
CONTINUOUS
10
-54.0450481854
20
20.1628981202
11
-53.8055531713
21
20.4023931343
0
LINE
5
31C
100
AcDbEntity
8
CURVE
100
AcDbLine
62
2
6
CONTINUOUS
10
-53.4398226503
20
20.7681236553
11
-53.2382043460
21
20.9697419596
0
LINE
5
31D
100
AcDbEntity
8
CURVE
100
AcDbLine
62
2
6
CONTINUOUS
10
-54.1881731531
20
19.5997517245
11
-54.0044496412
21
19.7834752363
0
LINE
5
31E
100
AcDbEntity
8
CURVE
100
AcDbLine
62
2
6
CONTINUOUS
10
-53.6250267574
20
20.1628981202
11
-53.2382043460
21
20.5497205316
0
LINE
5
31F
100
AcDbEntity
8
CURVE
100
AcDbLine
62
2
6
CONTINUOUS
10
-52.6157118402
20
21.1722130374
11
-52.4140935359
21
21.3738313417
0
LINE
5
320
100
AcDbEntity
8
CURVE
100
AcDbLine
62
2
6
CONTINUOUS
10
-53.8738134400
20
19.4940900095
11
-53.6946681301
21
19.6732353194
0
LINE
5
321
100
AcDbEntity
8
CURVE
100
AcDbLine
62
2
6
CONTINUOUS
10
-53.2050053293
20
20.1628981202
11
-52.9655103152
21
20.4023931343
0
LINE
5
322
100
AcDbEntity
8
CURVE
100
AcDbLine
62
2
6
CONTINUOUS
10
-52.6157118402
20
20.7521916093
11
-52.4140935359
21
20.9538099137
0
LINE
5
323
100
AcDbEntity
8
CURVE
100
AcDbLine
62
2
6
CONTINUOUS
10
-53.5594537270
20
19.3884282945
11
-53.3848866190
21
19.5629954025
0
LINE
5
324
100
AcDbEntity
8
CURVE
100
AcDbLine
62
2
6
CONTINUOUS
10
-52.7849839013
20
20.1628981202
11
-52.4140935359
21
20.5337884856
0
LINE
5
325
100
AcDbEntity
8
CURVE
100
AcDbLine
62
2
6
CONTINUOUS
10
-54.2135450253
20
18.3143155682
11
-53.8326808513
21
18.6951797422
0
LINE
5
326
100
AcDbEntity
8
CURVE
100
AcDbLine
62
2
6
CONTINUOUS
10
-53.2450940140
20
19.2827665795
11
-53.0751051079
21
19.4527554856
0
LINE
5
327
100
AcDbEntity
8
0
100
AcDbLine
62
7
6
CONTINUOUS
10
-64.0177899525
20
-16.4812868736
11
-57.8957708001
21
-16.2675012540
0
LINE
5
328
100
AcDbEntity
8
0
100
AcDbLine
62
9
6
CONTINUOUS
10
-64.0439326983
20
-15.9823519988
11
-57.9393686173
21
-15.7691759237
0
LINE
5
329
100
AcDbEntity
8
0
100
AcDbLine
62
7
6
CONTINUOUS
10
-47.9432387379
20
-15.6113755397
11
-51.7175840172
21
-15.6772569816
0
LINE
5
32A
100
AcDbEntity
8
0
100
AcDbLine
62
7
6
CONTINUOUS
10
-35.3053673327
20
-13.6937655569
11
-45.7313182524
21
-13.8757512071
0
LINE
5
32B
100
AcDbEntity
8
0
100
AcDbLine
62
9
6
CONTINUOUS
10
-57.8266648943
20
-11.4145077775
11
-59.5440668194
21
2.5726084565
0
LINE
5
32C
100
AcDbEntity
8
0
100
AcDbLine
62
7
6
CONTINUOUS
10
-56.8869468737
20
-16.6915142444
11
-59.5991298621
21
5.3974435886
0
LINE
5
32D
100
AcDbEntity
8
0
100
AcDbLine
62
9
6
CONTINUOUS
10
-57.4566821790
20
-10.4387184256
11
-59.4041111130
21
5.4218174572
0
LINE
5
32E
100
AcDbEntity
8
0
100
AcDbLine
62
7
6
CONTINUOUS
10
-57.9140935359
20
-15.8141545984
11
-57.9140935359
21
-15.5472195376
0
LINE
5
32F
100
AcDbEntity
8
0
100
AcDbLine
62
7
6
CONTINUOUS
10
-57.9140935359
20
26.5858454016
11
-57.9140935359
21
26.8527804624
0
LINE
5
330
100
AcDbEntity
8
0
100
AcDbLine
62
9
6
CONTINUOUS
10
-57.5489558330
20
-16.2126324777
11
-57.5489558330
21
-15.1487416584
0
LINE
5
331
100
AcDbEntity
8
0
100
AcDbLine
62
9
6
CONTINUOUS
10
-57.5489558330
20
26.1873675223
11
-57.5489558330
21
27.2512583416
0
LINE
5
332
100
AcDbEntity
8
CURVE
100
AcDbLine
62
9
6
CONTINUOUS
10
-51.2160760282
20
19.0978845138
11
-51.4302964612
21
18.8835985441
0
LINE
5
333
100
AcDbEntity
8
CURVE
100
AcDbLine
62
9
6
CONTINUOUS
10
-51.2160760282
20
17.9193129320
11
-51.4302964612
21
17.7050271411
0
LINE
5
334
100
AcDbEntity
8
CURVE
100
AcDbLine
62
9
6
CONTINUOUS
10
-50.1449737962
20
18.5621701259
11
-49.9307533409
21
18.7764557380
0
LINE
5
335
100
AcDbEntity
8
CURVE
100
AcDbLine
62
2
6
CONTINUOUS
10
-54.2135450253
20
17.8942941401
11
-54.0119267210
21
18.0959124444
0
LINE
5
336
100
AcDbEntity
8
CURVE
100
AcDbLine
62
2
6
CONTINUOUS
10
-53.5710121243
20
18.5368270411
11
-53.2060830721
21
18.9017560933
0
LINE
5
337
100
AcDbEntity
8
CURVE
100
AcDbLine
62
2
6
CONTINUOUS
10
-52.9307343010
20
19.1771048644
11
-52.7653235968
21
19.3425155687
0
LINE
5
338
100
AcDbEntity
8
CURVE
100
AcDbLine
62
2
6
CONTINUOUS
10
-54.2135450253
20
17.4742727121
11
-54.0119267210
21
17.6758910164
0
LINE
5
339
100
AcDbEntity
8
CURVE
100
AcDbLine
62
2
6
CONTINUOUS
10
-52.9217843720
20
18.7660333654
11
-52.4555420857
21
19.2322756518
0
LINE
5
33A
100
AcDbEntity
8
CURVE
100
AcDbLine
62
2
6
CONTINUOUS
10
-54.2135450253
20
17.0542512841
11
-54.0119267210
21
17.2558695884
0
LINE
5
33B
100
AcDbEntity
8
CURVE
100
AcDbLine
62
2
6
CONTINUOUS
10
-53.4398226503
20
17.8279736591
11
-53.2382043460
21
18.0295919634
0
LINE
5
33C
100
AcDbEntity
8
CURVE
100
AcDbLine
62
2
6
CONTINUOUS
10
-53.9923676375
20
16.8554072439
11
-53.7528736821
21
17.0949011992
0
LINE
5
33D
100
AcDbEntity
8
CURVE
100
AcDbLine
62
2
6
CONTINUOUS
10
-53.4398226503
20
17.4079522311
11
-53.2382043460
21
17.6095705354
0
LINE
5
33E
100
AcDbEntity
8
CURVE
100
AcDbLine
62
2
6
CONTINUOUS
10
-54.2135450253
20
16.2142084280
11
-54.0739690808
21
16.3537843726
0
LINE
5
33F
100
AcDbEntity
8
CURVE
100
AcDbLine
62
2
6
CONTINUOUS
10
-53.5723462094
20
16.8554072439
11
-53.2382043460
21
17.1895491074
0
LINE
5
340
100
AcDbEntity
8
CURVE
100
AcDbLine
62
2
6
CONTINUOUS
10
-52.6157118402
20
17.8120416132
11
-52.4140935359
21
18.0136599175
0
LINE
5
341
100
AcDbEntity
8
CURVE
100
AcDbLine
62
2
6
CONTINUOUS
10
-53.8819979086
20
16.1257341168
11
-53.6539476527
21
16.3537843726
0
LINE
5
342
100
AcDbEntity
8
CURVE
100
AcDbLine
62
2
6
CONTINUOUS
10
-53.1523247814
20
16.8554072439
11
-52.9128308261
21
17.0949011992
0
LINE
5
343
100
AcDbEntity
8
CURVE
100
AcDbLine
62
2
6
CONTINUOUS
10
-52.6157118402
20
17.3920201851
11
-52.4140935359
21
17.5936384895
0
LINE
5
344
100
AcDbEntity
8
CURVE
100
AcDbLine
62
2
6
CONTINUOUS
10
-53.4634217922
20
16.1242888051
11
-53.2339262247
21
16.3537843726
0
LINE
5
345
100
AcDbEntity
8
CURVE
100
AcDbLine
62
2
6
CONTINUOUS
10
-52.7323033534
20
16.8554072439
11
-52.4140935359
21
17.1736170614
0
LINE
5
346
100
AcDbEntity
8
CURVE
100
AcDbLine
62
2
6
CONTINUOUS
10
-54.2135450253
20
14.9541441440
11
-53.5862860938
21
15.5814030755
0
LINE
5
347
100
AcDbEntity
8
CURVE
100
AcDbLine
62
2
6
CONTINUOUS
10
-53.0448456758
20
16.1228434935
11
-52.8139047967
21
16.3537843726
0
LINE
5
348
100
AcDbEntity
8
CURVE
100
AcDbLine
62
2
6
CONTINUOUS
10
-53.8283548093
20
14.9193129320
11
-53.5973229602
21
15.1503447810
0
LINE
5
349
100
AcDbEntity
8
CURVE
100
AcDbLine
62
2
6
CONTINUOUS
10
-53.1077684249
20
15.6398993163
11
-52.4140935359
21
16.3335742054
0
LINE
5
34A
100
AcDbEntity
8
CURVE
100
AcDbLine
62
9
6
CONTINUOUS
10
-51.0018555952
20
19.2050273199
11
-51.2160760282
21
19.0978845138
0
LINE
5
34B
100
AcDbEntity
8
CURVE
100
AcDbLine
62
9
6
CONTINUOUS
10
-52.4140935359
20
18.9452708518
11
-54.2135450253
21
18.3099842976
0
LINE
5
34C
100
AcDbEntity
8
CURVE
100
AcDbLine
62
9
6
CONTINUOUS
10
-54.2135450253
20
18.5696166873
11
-52.6535145446
21
19.0839265286
0
LINE
5
34D
100
AcDbEntity
8
0
100
AcDbLine
62
9
6
CONTINUOUS
10
-64.5572264424
20
-15.5469895619
11
-65.0443644883
21
-15.6105603231
0
LINE
5
34E
100
AcDbEntity
8
0
100
AcDbLine
62
7
6
CONTINUOUS
10
-57.0813981531
20
-15.1078356619
11
-57.5489558330
21
-15.1487416584
0
LINE
5
34F
100
AcDbEntity
8
0
100
AcDbLine
62
6
6
CONTINUOUS
10
-42.6873442507
20
-11.3806870680
11
-42.6865826419
21
-11.3806870680
0
LINE
5
350
100
AcDbEntity
8
0
100
AcDbLine
62
9
6
CONTINUOUS
10
-38.3416450380
20
-11.3806870680
11
-42.6865826419
21
-11.3806870680
0
LINE
5
351
100
AcDbEntity
8
0
100
AcDbLine
62
9
6
CONTINUOUS
10
-38.1376392992
20
-11.1981182166
11
-42.8905477725
21
-11.1981182166
0
LINE
5
352
100
AcDbEntity
8
0
100
AcDbLine
62
9
6
CONTINUOUS
10
-57.3205310687
20
-11.6706961748
11
-55.9140935359
21
-11.6786336334
0
LINE
5
353
100
AcDbEntity
8
0
100
AcDbLine
62
7
6
CONTINUOUS
10
-57.4998033530
20
-12.4773405439
11
-58.2295965385
21
-12.4518556043
0
LINE
5
354
100
AcDbEntity
8
0
100
AcDbLine
62
7
6
CONTINUOUS
10
-58.2341623202
20
-12.3996684808
11
-57.6664552654
21
-12.4194932480
0
LINE
5
355
100
AcDbEntity
8
0
100
AcDbLine
62
9
6
CONTINUOUS
10
-58.3218656366
20
-11.3972149865
11
-57.8266648943
21
-11.4145077775
0
LINE
5
356
100
AcDbEntity
8
0
100
AcDbLine
62
7
6
CONTINUOUS
10
-55.9140935359
20
-17.9806870680
11
-55.9140935359
21
-17.1874042453
0
LINE
5
357
100
AcDbEntity
8
0
100
AcDbLine
62
7
6
CONTINUOUS
10
-55.9140935359
20
-17.1438536900
11
-55.9140935359
21
29.0193129320
0
LINE
5
358
100
AcDbEntity
8
CURVE
100
AcDbLine
62
9
6
CONTINUOUS
10
-54.2135450253
20
14.9193129320
11
-54.2135450253
21
15.1739395639
0
LINE
5
359
100
AcDbEntity
8
CURVE
100
AcDbLine
62
9
6
CONTINUOUS
10
-54.2135450253
20
16.1268789238
11
-54.2135450253
21
16.3537843726
0
LINE
5
35A
100
AcDbEntity
8
CURVE
100
AcDbLine
62
9
6
CONTINUOUS
10
-54.2135450253
20
16.8554072439
11
-54.2135450253
21
18.0982602278
0
LINE
5
35B
100
AcDbEntity
8
CURVE
100
AcDbLine
62
9
6
CONTINUOUS
10
-54.2135450253
20
18.3099842976
11
-54.2135450253
21
18.5696166873
0
LINE
5
35C
100
AcDbEntity
8
CURVE
100
AcDbLine
62
9
6
CONTINUOUS
10
-54.2135450253
20
19.6082796479
11
-54.2135450253
21
19.8578846408
0
LINE
5
35D
100
AcDbEntity
8
CURVE
100
AcDbLine
62
9
6
CONTINUOUS
10
-54.2135450253
20
20.1628981202
11
-54.2135450253
21
21.4057352229
0
LINE
5
35E
100
AcDbEntity
8
CURVE
100
AcDbLine
62
9
6
CONTINUOUS
10
-54.0119267210
20
21.4057352229
11
-54.0119267210
21
20.4023931343
0
LINE
5
35F
100
AcDbEntity
8
CURVE
100
AcDbLine
62
9
6
CONTINUOUS
10
-54.0119267210
20
18.0982602278
11
-54.0119267210
21
17.0949011992
0
LINE
5
360
100
AcDbEntity
8
CURVE
100
AcDbLine
62
9
6
CONTINUOUS
10
-53.4398226503
20
17.0949011992
11
-53.4398226503
21
18.0301965338
0
LINE
5
361
100
AcDbEntity
8
CURVE
100
AcDbLine
62
9
6
CONTINUOUS
10
-53.4398226503
20
20.4023931343
11
-53.4398226503
21
21.3377212900
0
LINE
5
362
100
AcDbEntity
8
CURVE
100
AcDbLine
62
9
6
CONTINUOUS
10
-53.3833953924
20
3.9395699320
11
-53.3833953924
21
3.4990559320
0
LINE
5
363
100
AcDbEntity
8
CURVE
100
AcDbLine
62
9
6
CONTINUOUS
10
-53.2382043460
20
21.3377212900
11
-53.2382043460
21
20.4023931343
0
LINE
5
364
100
AcDbEntity
8
CURVE
100
AcDbLine
62
9
6
CONTINUOUS
10
-53.2382043460
20
18.0301965338
11
-53.2382043460
21
17.0949011992
0
LINE
5
365
100
AcDbEntity
8
CURVE
100
AcDbLine
62
9
6
CONTINUOUS
10
-51.4302964612
20
16.6335987229
11
-51.2160760282
21
16.8478843350
0
LINE
5
366
100
AcDbEntity
8
CURVE
100
AcDbLine
62
9
6
CONTINUOUS
10
-50.1449737962
20
17.3835987229
11
-49.9307533409
21
17.5978843350
0
LINE
5
367
100
AcDbEntity
8
CURVE
100
AcDbLine
62
9
6
CONTINUOUS
10
-50.5734146846
20
16.3121700365
11
-50.7876351622
21
16.0978843350
0
LINE
5
368
100
AcDbEntity
8
CURVE
100
AcDbLine
62
9
6
CONTINUOUS
10
-51.2160760282
20
15.5621700812
11
-51.4302964612
21
15.3478843797
0
LINE
5
369
100
AcDbEntity
8
CURVE
100
AcDbLine
62
9
6
CONTINUOUS
10
-50.1449737962
20
15.0264557939
11
-49.9307533409
21
15.2407415066
0
LINE
5
36A
100
AcDbEntity
8
CURVE
100
AcDbLine
62
2
6
CONTINUOUS
10
-53.4083333813
20
14.9193129320
11
-53.1787668248
21
15.1488794884
0
LINE
5
36B
100
AcDbEntity
8
CURVE
100
AcDbLine
62
2
6
CONTINUOUS
10
-52.9883119532
20
14.9193129320
11
-52.7602106894
21
15.1474141958
0
LINE
5
36C
100
AcDbEntity
8
CURVE
100
AcDbLine
62
2
6
CONTINUOUS
10
-52.5682905252
20
14.9193129320
11
-52.4140935359
21
15.0735099213
0
LINE
5
36D
100
AcDbEntity
8
CURVE
100
AcDbLine
62
9
6
CONTINUOUS
10
-52.4140935359
20
16.0915919318
11
-53.8581862679
21
15.1512580184
0
LINE
5
36E
100
AcDbEntity
8
CURVE
100
AcDbLine
62
9
6
CONTINUOUS
10
-54.2135450253
20
15.1739395639
11
-52.7543242260
21
16.1218403450
0
LINE
5
36F
100
AcDbEntity
8
CURVE
100
AcDbLine
62
9
6
CONTINUOUS
10
-50.3591942516
20
18.4550273199
11
-50.1449737962
21
18.5621701259
0
LINE
5
370
100
AcDbEntity
8
CURVE
100
AcDbLine
62
9
6
CONTINUOUS
10
-51.0018555952
20
18.0264557380
11
-51.2160760282
21
17.9193129320
0
LINE
5
371
100
AcDbEntity
8
CURVE
100
AcDbLine
62
9
6
CONTINUOUS
10
-50.3591942516
20
17.2764557380
11
-50.1449737962
21
17.3835987229
0
LINE
5
372
100
AcDbEntity
8
CURVE
100
AcDbLine
62
9
6
CONTINUOUS
10
-51.0018555952
20
15.6693129320
11
-51.2160760282
21
15.5621700812
0
LINE
5
373
100
AcDbEntity
8
0
100
AcDbLine
62
7
6
CONTINUOUS
10
-34.6245605756
20
-10.4207540665
11
-33.0983924760
21
-10.3407709856
0
LINE
5
374
100
AcDbEntity
8
0
100
AcDbLine
62
6
6
CONTINUOUS
10
-38.1408428211
20
-10.5056870680
11
-38.1416044298
21
-10.5056870680
0
LINE
5
375
100
AcDbEntity
8
0
100
AcDbLine
62
9
6
CONTINUOUS
10
-38.1416044298
20
-10.5056870680
11
-42.4865420338
21
-10.5056870680
0
LINE
5
376
100
AcDbEntity
8
0
100
AcDbLine
62
9
6
CONTINUOUS
10
-34.8140935359
20
-10.4748883023
11
-35.3053673327
21
-10.4748883007
0
LINE
5
377
100
AcDbEntity
8
0
100
AcDbLine
62
6
6
CONTINUOUS
10
-44.0140935359
20
-10.3806870680
11
-37.0140935359
21
-10.3806870680
0
LINE
5
378
100
AcDbEntity
8
0
100
AcDbLine
62
9
6
CONTINUOUS
10
-37.9376392992
20
-10.3231182166
11
-42.6905477725
21
-10.3231182166
0
LINE
5
379
100
AcDbEntity
8
CURVE
100
AcDbLine
62
9
6
CONTINUOUS
10
-51.1803726078
20
-9.6806870680
11
-52.6799157281
21
-9.6806870680
0
LINE
5
37A
100
AcDbEntity
8
0
100
AcDbLine
62
9
6
CONTINUOUS
10
-44.0140935359
20
-9.5806870680
11
-37.0140935359
21
-9.5806870680
0
LINE
5
37B
100
AcDbEntity
8
0
100
AcDbLine
62
6
6
CONTINUOUS
10
-43.8140935359
20
-9.5056870680
11
-36.8140935359
21
-9.5056870680
0
LINE
5
37C
100
AcDbEntity
8
0
100
AcDbLine
62
6
6
CONTINUOUS
10
-39.3690935359
20
-9.4806870680
11
-41.6590935359
21
-9.4806870680
0
LINE
5
37D
100
AcDbEntity
8
0
100
AcDbLine
62
9
6
CONTINUOUS
10
-37.2140935355
20
-9.3806870680
11
-43.8140935363
21
-9.3806870680
0
LINE
5
37E
100
AcDbEntity
8
0
100
AcDbLine
62
6
6
CONTINUOUS
10
-38.8890935359
20
-9.2056870680
11
-42.1390935359
21
-9.2056870680
0
LINE
5
37F
100
AcDbEntity
8
0
100
AcDbLine
62
6
6
CONTINUOUS
10
-38.7640935359
20
-9.0806870680
11
-42.2640935359
21
-9.0806870680
0
LINE
5
380
100
AcDbEntity
8
0
100
AcDbLine
62
9
6
CONTINUOUS
10
-43.8140935359
20
-8.7056870680
11
-36.8140935359
21
-8.7056870680
0
LINE
5
381
100
AcDbEntity
8
0
100
AcDbLine
62
6
6
CONTINUOUS
10
-39.1690935359
20
-8.6056870680
11
-41.4590935359
21
-8.6056870680
0
LINE
5
382
100
AcDbEntity
8
0
100
AcDbLine
62
9
6
CONTINUOUS
10
-37.0140935355
20
-8.5056870680
11
-43.6140935363
21
-8.5056870680
0
LINE
5
383
100
AcDbEntity
8
0
100
AcDbLine
62
6
6
CONTINUOUS
10
-38.6890935359
20
-8.3306870680
11
-41.9390935359
21
-8.3306870680
0
LINE
5
384
100
AcDbEntity
8
0
100
AcDbLine
62
6
6
CONTINUOUS
10
-38.5640935359
20
-8.2056870680
11
-42.0640935359
21
-8.2056870680
0
LINE
5
385
100
AcDbEntity
8
0
100
AcDbLine
62
9
6
CONTINUOUS
10
-57.4566821790
20
-10.4387184256
11
-55.9140935359
21
-10.4479877983
0
LINE
5
386
100
AcDbEntity
8
CURVE
100
AcDbLine
62
9
6
CONTINUOUS
10
-53.4296872882
20
-2.9639266873
11
-51.9301441679
21
-6.1806870680
0
LINE
5
387
100
AcDbEntity
8
CURVE
100
AcDbLine
62
9
6
CONTINUOUS
10
-52.6157118402
20
17.0949011992
11
-52.6157118402
21
18.1058260367
0
LINE
5
388
100
AcDbEntity
8
CURVE
100
AcDbLine
62
9
6
CONTINUOUS
10
-52.6157118402
20
20.4023931343
11
-52.6157118402
21
21.4133507930
0
LINE
5
389
100
AcDbEntity
8
CURVE
100
AcDbLine
62
9
6
CONTINUOUS
10
-52.4140935359
20
21.4133507930
11
-52.4140935359
21
20.1628981202
0
LINE
5
38A
100
AcDbEntity
8
CURVE
100
AcDbLine
62
9
6
CONTINUOUS
10
-52.4140935359
20
19.2175256279
11
-52.4140935359
21
18.9452708518
0
LINE
5
38B
100
AcDbEntity
8
CURVE
100
AcDbLine
62
9
6
CONTINUOUS
10
-52.4140935359
20
18.1058260367
11
-52.4140935359
21
16.8554072439
0
LINE
5
38C
100
AcDbEntity
8
CURVE
100
AcDbLine
62
9
6
CONTINUOUS
10
-52.4140935359
20
16.3537843726
11
-52.4140935359
21
16.0915919318
0
LINE
5
38D
100
AcDbEntity
8
CURVE
100
AcDbLine
62
9
6
CONTINUOUS
10
-52.4140935359
20
15.1462024995
11
-52.4140935359
21
14.9193129320
0
LINE
5
38E
100
AcDbEntity
8
CURVE
100
AcDbLine
62
9
6
CONTINUOUS
10
-52.3050299480
20
13.6368689320
11
-52.3050299480
21
12.1763689320
0
LINE
5
38F
100
AcDbEntity
8
CURVE
100
AcDbLine
62
9
6
CONTINUOUS
10
-51.9301441679
20
-1.1806870680
11
-51.9301441679
21
-3.1806870680
0
LINE
5
390
100
AcDbEntity
8
CURVE
100
AcDbLine
62
9
6
CONTINUOUS
10
-51.9301441679
20
-6.1806870680
11
-51.9301441679
21
-8.1806870680
0
LINE
5
391
100
AcDbEntity
8
0
100
AcDbLine
62
7
6
CONTINUOUS
10
-51.9140935359
20
-17.9108668083
11
-51.9140935359
21
-15.8772265207
0
LINE
5
392
100
AcDbEntity
8
0
100
AcDbLine
62
7
6
CONTINUOUS
10
-51.9140935359
20
26.9158523846
11
-51.9140935359
21
28.9494926723
0
LINE
5
393
100
AcDbEntity
8
CURVE
100
AcDbLine
62
9
6
CONTINUOUS
10
-51.5552583879
20
12.1763689320
11
-51.5552583879
21
13.6368689320
0
LINE
5
394
100
AcDbEntity
8
CURVE
100
AcDbLine
62
9
6
CONTINUOUS
10
-51.4302964612
20
18.8835985441
11
-51.4302964612
21
18.7764557380
0
LINE
5
395
100
AcDbEntity
8
CURVE
100
AcDbLine
62
9
6
CONTINUOUS
10
-51.4302964612
20
17.7050271411
11
-51.4302964612
21
17.5978843350
0
LINE
5
396
100
AcDbEntity
8
CURVE
100
AcDbLine
62
9
6
CONTINUOUS
10
-51.4302964612
20
15.3478843797
11
-51.4302964612
21
15.2407415066
0
LINE
5
397
100
AcDbEntity
8
CURVE
100
AcDbLine
62
9
6
CONTINUOUS
10
-51.4302964612
20
16.3121700365
11
-51.4302964612
21
16.6335987229
0
LINE
5
398
100
AcDbEntity
8
CURVE
100
AcDbLine
62
9
6
CONTINUOUS
10
-51.1803726078
20
-9.1449727695
11
-51.1803726078
21
-9.6806870680
0
LINE
5
399
100
AcDbEntity
8
CURVE
100
AcDbLine
62
9
6
CONTINUOUS
10
-50.5734146846
20
16.7764558572
11
-50.5734146846
21
16.3121700365
0
LINE
5
39A
100
AcDbEntity
8
CURVE
100
AcDbLine
62
9
6
CONTINUOUS
10
-50.4768929435
20
3.9395699320
11
-50.4768929435
21
3.4990559320
0
LINE
5
39B
100
AcDbEntity
8
CURVE
100
AcDbLine
62
9
6
CONTINUOUS
10
-50.3591942516
20
14.9193129320
11
-50.1449737962
21
15.0264557939
0
LINE
5
39C
100
AcDbEntity
8
0
100
AcDbLine
62
9
6
CONTINUOUS
10
-32.8140935359
20
-7.6806870680
11
-34.8140935359
21
-7.6806870680
0
LINE
5
39D
100
AcDbEntity
8
0
100
AcDbLine
62
9
6
CONTINUOUS
10
-32.8140935359
20
-5.5806870680
11
-34.8140935359
21
-5.5806870680
0
LINE
5
39E
100
AcDbEntity
8
0
100
AcDbLine
62
6
6
CONTINUOUS
10
-42.2640935359
20
-9.0806870680
11
-42.1390935359
21
-9.2056870680
0
LINE
5
39F
100
AcDbEntity
8
0
100
AcDbLine
62
6
6
CONTINUOUS
10
-42.0640935359
20
-8.2056870680
11
-41.9390935359
21
-8.3306870680
0
LINE
5
3A0
100
AcDbEntity
8
CURVE
100
AcDbLine
62
9
6
CONTINUOUS
10
-52.6799157281
20
0.2478843797
11
-52.2514748621
21
-0.1806870680
0
LINE
5
3A1
100
AcDbEntity
8
CURVE
100
AcDbLine
62
9
6
CONTINUOUS
10
-52.8482564381
20
4.9024439320
11
-51.9301441679
21
3.7193129320
0
LINE
5
3A2
100
AcDbEntity
8
0
100
AcDbLine
62
7
6
CONTINUOUS
10
-50.3140935359
20
27.7193129320
11
-50.3140935359
21
26.6913848281
0
LINE
5
3A3
100
AcDbEntity
8
0
100
AcDbLine
62
7
6
CONTINUOUS
10
-50.3140935359
20
-16.6806870680
11
-50.3140935359
21
-15.6527589641
0
LINE
5
3A4
100
AcDbEntity
8
CURVE
100
AcDbLine
62
9
6
CONTINUOUS
10
-49.9308223199
20
3.7193129320
11
-49.9308223199
21
4.1950669320
0
LINE
5
3A5
100
AcDbEntity
8
CURVE
100
AcDbLine
62
9
6
CONTINUOUS
10
-49.9307533409
20
15.2407415066
11
-49.9307533409
21
15.3478843797
0
LINE
5
3A6
100
AcDbEntity
8
CURVE
100
AcDbLine
62
9
6
CONTINUOUS
10
-49.9307533409
20
17.5978843350
11
-49.9307533409
21
17.7050271411
0
LINE
5
3A7
100
AcDbEntity
8
CURVE
100
AcDbLine
62
9
6
CONTINUOUS
10
-49.9307533409
20
18.7764557380
11
-49.9307533409
21
18.8835985441
0
LINE
5
3A8
100
AcDbEntity
8
CURVE
100
AcDbLine
62
9
6
CONTINUOUS
10
-51.9301441679
20
3.7193129320
11
-52.8482564381
21
2.5361819320
0
LINE
5
3A9
100
AcDbEntity
8
0
100
AcDbLine
62
7
6
CONTINUOUS
10
-55.9140935359
20
-4.9806870680
11
-58.3196999208
21
-5.0226770837
0
LINE
5
3AA
100
AcDbEntity
8
0
100
AcDbLine
62
6
6
CONTINUOUS
10
-38.7640935359
20
-4.0987480680
11
-42.2640935359
21
-4.0987480680
0
LINE
5
3AB
100
AcDbEntity
8
0
100
AcDbLine
62
6
6
CONTINUOUS
10
-39.1321545359
20
-3.7306870680
11
-41.8960325359
21
-3.7306870680
0
LINE
5
3AC
100
AcDbEntity
8
0
100
AcDbLine
62
6
6
CONTINUOUS
10
-38.5640935359
20
-3.2237480680
11
-42.0640935359
21
-3.2237480680
0
LINE
5
3AD
100
AcDbEntity
8
0
100
AcDbLine
62
9
6
CONTINUOUS
10
-39.2640935359
20
-2.8806870680
11
-41.7640935359
21
-2.8806870680
0
LINE
5
3AE
100
AcDbEntity
8
0
100
AcDbLine
62
6
6
CONTINUOUS
10
-38.9321545359
20
-2.8556870680
11
-41.6960325359
21
-2.8556870680
0
LINE
5
3AF
100
AcDbEntity
8
0
100
AcDbLine
62
9
6
CONTINUOUS
10
-39.4640935359
20
-2.6806870680
11
-41.5640935359
21
-2.6806870680
0
LINE
5
3B0
100
AcDbEntity
8
0
100
AcDbLine
62
7
6
CONTINUOUS
10
-34.6245607046
20
-2.8406200628
11
-33.0983924231
21
-2.9206031533
0
LINE
5
3B1
100
AcDbEntity
8
0
100
AcDbLine
62
6
6
CONTINUOUS
10
-38.8890935359
20
-9.2056870680
11
-38.7140935359
21
-9.3806870680
0
LINE
5
3B2
100
AcDbEntity
8
0
100
AcDbLine
62
6
6
CONTINUOUS
10
-38.6890935359
20
-8.3306870680
11
-38.5140935359
21
-8.5056870680
0
LINE
5
3B3
100
AcDbEntity
8
0
100
AcDbLine
62
9
6
CONTINUOUS
10
-39.0640935359
20
-2.0056870680
11
-41.5640935359
21
-2.0056870680
0
LINE
5
3B4
100
AcDbEntity
8
0
100
AcDbLine
62
9
6
CONTINUOUS
10
-39.2640935359
20
-1.8056870680
11
-41.3640935359
21
-1.8056870680
0
LINE
5
3B5
100
AcDbEntity
8
0
100
AcDbLine
62
7
6
CONTINUOUS
10
-34.8140935359
20
-0.9902070680
11
-34.7140935359
21
-0.9902070680
0
LINE
5
3B6
100
AcDbEntity
8
0
100
AcDbLine
62
7
6
CONTINUOUS
10
-34.8140935359
20
-0.2556870680
11
-34.7140935359
21
-0.2556870680
0
LINE
5
3B7
100
AcDbEntity
8
CURVE
100
AcDbLine
62
9
6
CONTINUOUS
10
-51.1803726078
20
0.2478843797
11
-52.6799157281
21
0.2478843797
0
LINE
5
3B8
100
AcDbEntity
8
0
100
AcDbLine
62
7
6
CONTINUOUS
10
-34.8140935359
20
0.3205548377
11
-34.7140935359
21
0.3205549320
0
LINE
5
3B9
100
AcDbEntity
8
0
100
AcDbLine
62
6
6
CONTINUOUS
10
-39.1321545359
20
-3.7306870680
11
-38.7640935359
21
-4.0987480680
0
LINE
5
3BA
100
AcDbEntity
8
0
100
AcDbLine
62
6
6
CONTINUOUS
10
-38.9321545359
20
-2.8556870680
11
-38.5640935359
21
-3.2237480680
0
LINE
5
3BB
100
AcDbEntity
8
0
100
AcDbLine
62
6
6
CONTINUOUS
10
-39.3713985912
20
-9.4806870680
11
-38.9226751439
21
-10.3806870680
0
LINE
5
3BC
100
AcDbEntity
8
0
100
AcDbLine
62
6
6
CONTINUOUS
10
-38.7226751439
20
-9.5056870680
11
-39.1713985912
21
-8.6056870680
0
LINE
5
3BD
100
AcDbEntity
8
0
100
AcDbLine
62
9
6
CONTINUOUS
10
-44.7053673327
20
24.9643565084
11
-44.7053673326
21
22.8147513000
0
LINE
5
3BE
100
AcDbEntity
8
0
100
AcDbLine
62
9
6
CONTINUOUS
10
-44.7053673327
20
21.5708593485
11
-44.7053673327
21
15.3606615635
0
LINE
5
3BF
100
AcDbEntity
8
0
100
AcDbLine
62
7
6
CONTINUOUS
10
-44.2140935359
20
24.6147334951
11
-44.2140935359
21
15.3606615635
0
LINE
5
3C0
100
AcDbEntity
8
0
100
AcDbLine
62
6
6
CONTINUOUS
10
-44.0140935359
20
-10.3806870680
11
-44.0140935359
21
-9.5806870680
0
LINE
5
3C1
100
AcDbEntity
8
0
100
AcDbLine
62
6
6
CONTINUOUS
10
-43.8140935359
20
-9.5056870680
11
-43.8140935359
21
-8.7056870680
0
LINE
5
3C2
100
AcDbEntity
8
0
100
AcDbLine
62
6
6
CONTINUOUS
10
-42.2640935359
20
-9.0806870680
11
-42.2640935359
21
-4.0987480680
0
LINE
5
3C3
100
AcDbEntity
8
0
100
AcDbLine
62
6
6
CONTINUOUS
10
-42.0640935359
20
-8.2056870680
11
-42.0640935359
21
-3.2237480680
0
LINE
5
3C4
100
AcDbEntity
8
0
100
AcDbLine
62
7
6
CONTINUOUS
10
-34.8140935359
20
0.4782329320
11
-34.7140935359
21
0.4782329320
0
LINE
5
3C5
100
AcDbEntity
8
0
100
AcDbLine
62
7
6
CONTINUOUS
10
-34.8140935359
20
1.0953929319
11
-34.7140935359
21
1.0953929315
0
LINE
5
3C6
100
AcDbEntity
8
0
100
AcDbLine
62
7
6
CONTINUOUS
10
-34.8140935359
20
2.3769729320
11
-34.7140935359
21
2.3769729320
0
LINE
5
3C7
100
AcDbEntity
8
0
100
AcDbLine
62
7
6
CONTINUOUS
10
-34.7140935359
20
2.4103329346
11
-34.8140935359
21
2.4103329346
0
LINE
5
3C8
100
AcDbEntity
8
0
100
AcDbLine
62
7
6
CONTINUOUS
10
-34.8140935359
20
2.4662939320
11
-34.7140935359
21
2.4662939320
0
LINE
5
3C9
100
AcDbEntity
8
0
100
AcDbLine
62
7
6
CONTINUOUS
10
-34.8140935359
20
2.5311759320
11
-34.7140935359
21
2.5311759320
0
LINE
5
3CA
100
AcDbEntity
8
0
100
AcDbLine
62
7
6
CONTINUOUS
10
-34.8140935359
20
2.6229159320
11
-34.7140935359
21
2.6229159320
0
LINE
5
3CB
100
AcDbEntity
8
0
100
AcDbLine
62
7
6
CONTINUOUS
10
-34.8140935359
20
2.9363606001
11
-34.7140935359
21
2.9363609320
0
LINE
5
3CC
100
AcDbEntity
8
0
100
AcDbLine
62
6
6
CONTINUOUS
10
-41.7640935359
20
-3.7306870680
11
-41.7640935359
21
-2.8806870680
0
LINE
5
3CD
100
AcDbEntity
8
0
100
AcDbLine
62
6
6
CONTINUOUS
10
-41.6042884726
20
-9.4806870680
11
-41.6042884726
21
-10.3806870680
0
LINE
5
3CE
100
AcDbEntity
8
0
100
AcDbLine
62
6
6
CONTINUOUS
10
-41.5640935359
20
-2.8556870680
11
-41.5640935359
21
-2.0056870680
0
LINE
5
3CF
100
AcDbEntity
8
0
100
AcDbLine
62
6
6
CONTINUOUS
10
-41.4042884726
20
-9.5056870680
11
-41.4042884726
21
-8.6056870680
0
LINE
5
3D0
100
AcDbEntity
8
0
100
AcDbLine
62
6
6
CONTINUOUS
10
-41.1001112322
20
-11.3806870680
11
-41.1001112322
21
-10.3806870680
0
LINE
5
3D1
100
AcDbEntity
8
0
100
AcDbLine
62
6
6
CONTINUOUS
10
-41.0338170200
20
-11.3806870680
11
-41.0338170200
21
-9.4806870680
0
LINE
5
3D2
100
AcDbEntity
8
0
100
AcDbLine
62
6
6
CONTINUOUS
10
-40.9001112322
20
-10.5056870680
11
-40.9001112322
21
-9.5056870680
0
LINE
5
3D3
100
AcDbEntity
8
0
100
AcDbLine
62
6
6
CONTINUOUS
10
-40.8640935359
20
-9.4806870680
11
-40.8640935359
21
-11.3806870680
0
LINE
5
3D4
100
AcDbEntity
8
0
100
AcDbLine
62
6
6
CONTINUOUS
10
-40.8338170200
20
-10.5056870680
11
-40.8338170200
21
-8.6056870680
0
LINE
5
3D5
100
AcDbEntity
8
0
100
AcDbLine
62
6
6
CONTINUOUS
10
-40.6640935359
20
-8.6056870680
11
-40.6640935359
21
-10.5056870680
0
LINE
5
3D6
100
AcDbEntity
8
0
100
AcDbLine
62
6
6
CONTINUOUS
10
-40.1640935359
20
-9.4806870680
11
-40.1640935359
21
-11.3806870680
0
LINE
5
3D7
100
AcDbEntity
8
0
100
AcDbLine
62
6
6
CONTINUOUS
10
-39.9943700517
20
-11.3806870680
11
-39.9943700517
21
-9.4806870680
0
LINE
5
3D8
100
AcDbEntity
8
0
100
AcDbLine
62
6
6
CONTINUOUS
10
-39.9640935359
20
-8.6056870680
11
-39.9640935359
21
-10.5056870680
0
LINE
5
3D9
100
AcDbEntity
8
0
100
AcDbLine
62
6
6
CONTINUOUS
10
-39.9280758396
20
-11.3806870680
11
-39.9280758396
21
-10.3806870680
0
LINE
5
3DA
100
AcDbEntity
8
0
100
AcDbLine
62
6
6
CONTINUOUS
10
-39.7943700517
20
-10.5056870680
11
-39.7943700517
21
-8.6056870680
0
LINE
5
3DB
100
AcDbEntity
8
0
100
AcDbLine
62
6
6
CONTINUOUS
10
-39.7280758396
20
-10.5056870680
11
-39.7280758396
21
-9.5056870680
0
LINE
5
3DC
100
AcDbEntity
8
0
100
AcDbLine
62
6
6
CONTINUOUS
10
-39.4238985992
20
-10.3806870680
11
-39.4238985992
21
-9.4806870680
0
LINE
5
3DD
100
AcDbEntity
8
0
100
AcDbLine
62
6
6
CONTINUOUS
10
-39.2640935359
20
-3.7306870680
11
-39.2640935359
21
-2.8806870680
0
LINE
5
3DE
100
AcDbEntity
8
0
100
AcDbLine
62
6
6
CONTINUOUS
10
-39.2238985992
20
-8.6056870680
11
-39.2238985992
21
-9.5056870680
0
LINE
5
3DF
100
AcDbEntity
8
0
100
AcDbLine
62
7
6
CONTINUOUS
10
-34.8140935359
20
3.4573936504
11
-34.7140935359
21
3.4573936504
0
LINE
5
3E0
100
AcDbEntity
8
CURVE
100
AcDbLine
62
9
6
CONTINUOUS
10
-50.4768929435
20
3.7193129320
11
-53.3833953924
21
3.7193129320
0
LINE
5
3E1
100
AcDbEntity
8
0
100
AcDbLine
62
7
6
CONTINUOUS
10
-34.8140935359
20
4.0133504170
11
-34.7140935359
21
4.0133499320
0
LINE
5
3E2
100
AcDbEntity
8
0
100
AcDbLine
62
7
6
CONTINUOUS
10
-34.8140935359
20
4.3020359320
11
-34.7140935359
21
4.3020359320
0
LINE
5
3E3
100
AcDbEntity
8
0
100
AcDbLine
62
7
6
CONTINUOUS
10
-34.8140935359
20
4.3548559320
11
-34.7140935359
21
4.3548559320
0
LINE
5
3E4
100
AcDbEntity
8
0
100
AcDbLine
62
7
6
CONTINUOUS
10
-34.8140935359
20
4.3732299320
11
-34.7140935359
21
4.3732299320
0
LINE
5
3E5
100
AcDbEntity
8
0
100
AcDbLine
62
7
6
CONTINUOUS
10
-34.8140935359
20
4.9514699320
11
-34.7140935359
21
4.9514699320
0
LINE
5
3E6
100
AcDbEntity
8
0
100
AcDbLine
62
7
6
CONTINUOUS
10
-34.8140935359
20
5.1482419320
11
-34.7140935359
21
5.1482419320
0
LINE
5
3E7
100
AcDbEntity
8
0
100
AcDbLine
62
7
6
CONTINUOUS
10
-34.8140935359
20
5.2264713680
11
-34.7140935359
21
5.2264713680
0
LINE
5
3E8
100
AcDbEntity
8
0
100
AcDbLine
62
7
6
CONTINUOUS
10
-34.8140935359
20
5.2739499167
11
-34.7140935359
21
5.2739499320
0
LINE
5
3E9
100
AcDbEntity
8
CURVE
100
AcDbLine
62
9
6
CONTINUOUS
10
-51.4302964612
20
15.2407415066
11
-51.2160760282
21
15.0264557939
0
LINE
5
3EA
100
AcDbEntity
8
CURVE
100
AcDbLine
62
9
6
CONTINUOUS
10
-51.2160760282
20
16.0978843350
11
-51.4302964612
21
16.3121700365
0
LINE
5
3EB
100
AcDbEntity
8
CURVE
100
AcDbLine
62
9
6
CONTINUOUS
10
-49.9307533409
20
15.3478843797
11
-50.1449737962
21
15.5621700812
0
LINE
5
3EC
100
AcDbEntity
8
CURVE
100
AcDbLine
62
9
6
CONTINUOUS
10
-51.4302964612
20
17.5978843350
11
-51.2160760282
21
17.3835987229
0
LINE
5
3ED
100
AcDbEntity
8
CURVE
100
AcDbLine
62
9
6
CONTINUOUS
10
-50.3591942516
20
16.7407415289
11
-49.9307533409
21
16.3121700365
0
LINE
5
3EE
100
AcDbEntity
8
0
100
AcDbLine
62
6
6
CONTINUOUS
10
-39.0640935359
20
-2.8556870680
11
-39.0640935359
21
-2.0056870680
0
LINE
5
3EF
100
AcDbEntity
8
0
100
AcDbLine
62
6
6
CONTINUOUS
10
-38.7640935359
20
-9.0806870680
11
-38.7640935359
21
-4.0987480680
0
LINE
5
3F0
100
AcDbEntity
8
0
100
AcDbLine
62
6
6
CONTINUOUS
10
-38.5640935359
20
-8.2056870680
11
-38.5640935359
21
-3.2237480680
0
LINE
5
3F1
100
AcDbEntity
8
0
100
AcDbLine
62
6
6
CONTINUOUS
10
-37.0140935359
20
-10.3806870680
11
-37.0140935359
21
-9.5806870680
0
LINE
5
3F2
100
AcDbEntity
8
0
100
AcDbLine
62
6
6
CONTINUOUS
10
-36.8140935359
20
-9.5056870680
11
-36.8140935359
21
-8.7056870680
0
LINE
5
3F3
100
AcDbEntity
8
0
100
AcDbLine
62
7
6
CONTINUOUS
10
-34.7140935359
20
6.5416298759
11
-34.8140935359
21
6.5416298758
0
LINE
5
3F4
100
AcDbEntity
8
0
100
AcDbLine
62
7
6
CONTINUOUS
10
-34.8140935359
20
6.5444099320
11
-34.7140935359
21
6.5444099320
0
LINE
5
3F5
100
AcDbEntity
8
0
100
AcDbLine
62
7
6
CONTINUOUS
10
-34.8140935359
20
6.8085098539
11
-34.7140935359
21
6.8085099320
0
LINE
5
3F6
100
AcDbEntity
8
0
100
AcDbLine
62
7
6
CONTINUOUS
10
-34.8140935359
20
6.8529899320
11
-34.7140935359
21
6.8529899320
0
LINE
5
3F7
100
AcDbEntity
8
0
100
AcDbLine
62
7
6
CONTINUOUS
10
-34.8140935359
20
7.0448099320
11
-34.7140935359
21
7.0448099320
0
LINE
5
3F8
100
AcDbEntity
8
0
100
AcDbLine
62
7
6
CONTINUOUS
10
-34.8140935359
20
8.0317099320
11
-34.7140935359
21
8.0317099320
0
LINE
5
3F9
100
AcDbEntity
8
0
100
AcDbLine
62
7
6
CONTINUOUS
10
-34.7140935359
20
8.1262298475
11
-34.8140935359
21
8.1262298475
0
LINE
5
3FA
100
AcDbEntity
8
0
100
AcDbLine
62
7
6
CONTINUOUS
10
-34.8140935359
20
8.2481499320
11
-34.7140935359
21
8.2481499320
0
LINE
5
3FB
100
AcDbEntity
8
0
100
AcDbLine
62
7
6
CONTINUOUS
10
-34.8140935359
20
8.3541885222
11
-34.7140935359
21
8.3541885222
0
LINE
5
3FC
100
AcDbEntity
8
CURVE
100
AcDbLine
62
9
6
CONTINUOUS
10
-51.2160760282
20
15.0264557939
11
-51.0018555952
21
14.9193129320
0
LINE
5
3FD
100
AcDbEntity
8
CURVE
100
AcDbLine
62
9
6
CONTINUOUS
10
-51.4302964612
20
18.7764557380
11
-51.2160760282
21
18.5621701259
0
LINE
5
3FE
100
AcDbEntity
8
CURVE
100
AcDbLine
62
9
6
CONTINUOUS
10
-49.9307533409
20
17.7050271411
11
-50.1449737962
21
17.9193129320
0
LINE
5
3FF
100
AcDbEntity
8
CURVE
100
AcDbLine
62
9
6
CONTINUOUS
10
-51.4302964612
20
20.0621701259
11
-51.0018555952
21
19.6335985441
0
LINE
5
400
100
AcDbEntity
8
CURVE
100
AcDbLine
62
9
6
CONTINUOUS
10
-49.9307533409
20
18.8835985441
11
-50.1449737962
21
19.0978845138
0
LINE
5
401
100
AcDbEntity
8
0
100
AcDbLine
62
9
6
CONTINUOUS
10
-35.3053673327
20
14.2138866901
11
-35.3053673327
21
-10.4748883023
0
LINE
5
402
100
AcDbEntity
8
0
100
AcDbLine
62
9
6
CONTINUOUS
10
-35.3053673327
20
-11.7222677697
11
-35.3053673327
21
-13.5068025901
0
LINE
5
403
100
AcDbEntity
8
0
100
AcDbLine
62
7
6
CONTINUOUS
10
-34.8140935359
20
14.2138866901
11
-34.8140935359
21
-13.1938417093
0
LINE
5
404
100
AcDbEntity
8
0
100
AcDbLine
62
7
6
CONTINUOUS
10
-34.7140935359
20
11.2898699320
11
-34.7140935359
21
9.8998699320
0
LINE
5
405
100
AcDbEntity
8
0
100
AcDbLine
62
7
6
CONTINUOUS
10
-34.7140935359
20
9.8887749320
11
-34.7140935359
21
9.6496698786
0
LINE
5
406
100
AcDbEntity
8
0
100
AcDbLine
62
7
6
CONTINUOUS
10
-34.7140935359
20
9.6490644327
11
-34.7140935359
21
8.2481499320
0
LINE
5
407
100
AcDbEntity
8
0
100
AcDbLine
62
7
6
CONTINUOUS
10
-34.7140935359
20
8.2451086056
11
-34.7140935359
21
1.0954232052
0
LINE
5
408
100
AcDbEntity
8
0
100
AcDbLine
62
7
6
CONTINUOUS
10
-34.7140935359
20
0.4782329320
11
-34.7140935359
21
-0.2556870680
0
LINE
5
409
100
AcDbEntity
8
0
100
AcDbLine
62
7
6
CONTINUOUS
10
-34.7140935359
20
-0.9902070680
11
-34.7140935359
21
-2.8135746062
0
LINE
5
40A
100
AcDbEntity
8
0
100
AcDbLine
62
9
6
CONTINUOUS
10
-34.6245607046
20
-2.8406200628
11
-34.6245605738
21
-10.4207540664
0
LINE
5
40B
100
AcDbEntity
8
0
100
AcDbLine
62
6
6
CONTINUOUS
10
-41.4567884806
20
-8.6056870680
11
-41.9055119278
21
-9.5056870680
0
LINE
5
40C
100
AcDbEntity
8
0
100
AcDbLine
62
6
6
CONTINUOUS
10
-42.1055119278
20
-10.3806870680
11
-41.6567884806
21
-9.4806870680
0
LINE
5
40D
100
AcDbEntity
8
0
100
AcDbLine
62
6
6
CONTINUOUS
10
-41.6960325359
20
-2.8556870680
11
-42.0640935359
21
-3.2237480680
0
LINE
5
40E
100
AcDbEntity
8
0
100
AcDbLine
62
6
6
CONTINUOUS
10
-41.8960325359
20
-3.7306870680
11
-42.2640935359
21
-4.0987480680
0
LINE
5
40F
100
AcDbEntity
8
0
100
AcDbLine
62
7
6
CONTINUOUS
10
-34.7140935359
20
9.6496698786
11
-34.8140935359
21
9.6496698786
0
LINE
5
410
100
AcDbEntity
8
CURVE
100
AcDbLine
62
9
6
CONTINUOUS
10
-49.3828802665
20
9.6517589320
11
-50.1334715769
21
9.6517589320
0
LINE
5
411
100
AcDbEntity
8
CURVE
100
AcDbLine
62
9
6
CONTINUOUS
10
-53.7268167590
20
9.6517589320
11
-54.4774080694
21
9.6517589320
0
LINE
5
412
100
AcDbEntity
8
0
100
AcDbLine
62
7
6
CONTINUOUS
10
-34.8140935359
20
9.8369743842
11
-34.7140935359
21
9.8369743842
0
LINE
5
413
100
AcDbEntity
8
0
100
AcDbLine
62
7
6
CONTINUOUS
10
-34.8140935359
20
9.8887749320
11
-34.7140935359
21
9.8887749320
0
LINE
5
414
100
AcDbEntity
8
0
100
AcDbLine
62
7
6
CONTINUOUS
10
-34.8140935359
20
9.8998699320
11
-34.7140935359
21
9.8998699320
0
LINE
5
415
100
AcDbEntity
8
0
100
AcDbLine
62
7
6
CONTINUOUS
10
-34.8140935359
20
11.2898699320
11
-34.7140935359
21
11.2898699320
0
LINE
5
416
100
AcDbEntity
8
CURVE
100
AcDbLine
62
9
6
CONTINUOUS
10
-50.1449737962
20
15.5621700812
11
-50.3591942516
21
15.6693129320
0
LINE
5
417
100
AcDbEntity
8
CURVE
100
AcDbLine
62
9
6
CONTINUOUS
10
-51.2160760282
20
17.3835987229
11
-51.0018555952
21
17.2764557380
0
LINE
5
418
100
AcDbEntity
8
0
100
AcDbLine
62
9
6
CONTINUOUS
10
-33.0983924242
20
-2.9206053464
11
-33.0983924800
21
-10.3407662278
0
LINE
5
419
100
AcDbEntity
8
0
100
AcDbLine
62
7
6
CONTINUOUS
10
-32.8140935359
20
-3.2198379119
11
-32.8140935359
21
-10.0415126204
0
LINE
5
41A
100
AcDbEntity
8
0
100
AcDbLine
62
6
6
CONTINUOUS
10
-41.9390935359
20
-8.3306870680
11
-42.1140935359
21
-8.5056870680
0
LINE
5
41B
100
AcDbEntity
8
0
100
AcDbLine
62
6
6
CONTINUOUS
10
-42.1390935359
20
-9.2056870680
11
-42.3140935359
21
-9.3806870680
0
LINE
5
41C
100
AcDbEntity
8
CURVE
100
AcDbLine
62
9
6
CONTINUOUS
10
-51.5552583879
20
13.6368689320
11
-52.3050299480
21
13.6368689320
0
LINE
5
41D
100
AcDbEntity
8
CURVE
100
AcDbLine
62
9
6
CONTINUOUS
10
-49.3828802665
20
14.0368689320
11
-50.1334715769
21
14.0368689320
0
LINE
5
41E
100
AcDbEntity
8
CURVE
100
AcDbLine
62
9
6
CONTINUOUS
10
-53.7268167590
20
14.0368689320
11
-54.4774080694
21
14.0368689320
0
LINE
5
41F
100
AcDbEntity
8
0
100
AcDbLine
62
9
6
CONTINUOUS
10
-34.8140935359
20
14.2138866901
11
-35.3053673327
21
14.2138866901
0
LINE
5
420
100
AcDbEntity
8
0
100
AcDbLine
62
9
6
CONTINUOUS
10
-43.7228197391
20
14.3608138684
11
-35.3053673327
21
14.2138866901
0
LINE
5
421
100
AcDbEntity
8
CURVE
100
AcDbLine
62
9
6
CONTINUOUS
10
-50.7876351622
20
16.8478843350
11
-50.3591942516
21
16.7407415289
0
LINE
5
422
100
AcDbEntity
8
CURVE
100
AcDbLine
62
9
6
CONTINUOUS
10
-52.6535145446
20
19.0889809887
11
-54.2135450253
21
19.6082796479
0
LINE
5
423
100
AcDbEntity
8
CURVE
100
AcDbLine
62
9
6
CONTINUOUS
10
-54.2135450253
20
19.8578846408
11
-52.4140935359
21
19.2175256279
0
LINE
5
424
100
AcDbEntity
8
CURVE
100
AcDbLine
62
9
6
CONTINUOUS
10
-50.1449737962
20
17.9193129320
11
-50.3591942516
21
18.0264557380
0
LINE
5
425
100
AcDbEntity
8
CURVE
100
AcDbLine
62
9
6
CONTINUOUS
10
-51.2160760282
20
18.5621701259
11
-51.0018555952
21
18.4550273199
0
LINE
5
426
100
AcDbEntity
8
CURVE
100
AcDbLine
62
9
6
CONTINUOUS
10
-50.1449737962
20
19.0978845138
11
-50.3591942516
21
19.2050273199
0
LINE
5
427
100
AcDbEntity
8
0
100
AcDbLine
62
7
6
CONTINUOUS
10
-46.2140763147
20
-14.0806698469
11
-48.2701640375
21
-16.1367575697
0
LINE
5
428
100
AcDbEntity
8
0
100
AcDbLine
62
6
6
CONTINUOUS
10
-38.5640935359
20
-8.2056870680
11
-38.6890935359
21
-8.3306870680
0
LINE
5
429
100
AcDbEntity
8
0
100
AcDbLine
62
6
6
CONTINUOUS
10
-38.7640935359
20
-9.0806870680
11
-38.8890935359
21
-9.2056870680
0
LINE
5
42A
100
AcDbEntity
8
CURVE
100
AcDbLine
62
9
6
CONTINUOUS
10
-51.0018555952
20
14.9193129320
11
-50.3591942516
21
14.9193129320
0
LINE
5
42B
100
AcDbEntity
8
CURVE
100
AcDbLine
62
9
6
CONTINUOUS
10
-52.4140935359
20
14.9193129320
11
-54.2135450253
21
14.9193129320
0
LINE
5
42C
100
AcDbEntity
8
CURVE
100
AcDbLine
62
9
6
CONTINUOUS
10
-53.8581862679
20
15.1462024995
11
-52.4140935359
21
15.1462024995
0
LINE
5
42D
100
AcDbEntity
8
0
100
AcDbLine
62
9
6
CONTINUOUS
10
-44.2140935359
20
15.3606615635
11
-44.7053673326
21
15.3606615635
0
LINE
5
42E
100
AcDbEntity
8
CURVE
100
AcDbLine
62
9
6
CONTINUOUS
10
-50.3591942516
20
15.6693129320
11
-51.0018555952
21
15.6693129320
0
LINE
5
42F
100
AcDbEntity
8
CURVE
100
AcDbLine
62
9
6
CONTINUOUS
10
-50.7876351622
20
16.0978843350
11
-51.2160760282
21
16.0978843350
0
LINE
5
430
100
AcDbEntity
8
CURVE
100
AcDbLine
62
9
6
CONTINUOUS
10
-52.7543242260
20
16.1268789238
11
-54.2135450253
21
16.1268789238
0
LINE
5
431
100
AcDbEntity
8
CURVE
100
AcDbLine
62
9
6
CONTINUOUS
10
-54.2135450253
20
16.3537843726
11
-52.4140935359
21
16.3537843726
0
LINE
5
432
100
AcDbEntity
8
CURVE
100
AcDbLine
62
9
6
CONTINUOUS
10
-51.2160760282
20
16.8478843350
11
-50.7876351622
21
16.8478843350
0
LINE
5
433
100
AcDbEntity
8
CURVE
100
AcDbLine
62
9
6
CONTINUOUS
10
-52.4140935359
20
16.8554072439
11
-54.2135450253
21
16.8554072439
0
LINE
5
434
100
AcDbEntity
8
CURVE
100
AcDbLine
62
9
6
CONTINUOUS
10
-54.0119267210
20
17.0949011992
11
-53.4398226503
21
17.0949011992
0
LINE
5
435
100
AcDbEntity
8
CURVE
100
AcDbLine
62
9
6
CONTINUOUS
10
-53.2382043460
20
17.0949011992
11
-52.6157118402
21
17.0949011992
0
LINE
5
436
100
AcDbEntity
8
0
100
AcDbLine
62
7
6
CONTINUOUS
10
-43.7228197391
20
14.8607377160
11
-35.3053673327
21
14.7138105377
0
LINE
5
437
100
AcDbEntity
8
0
100
AcDbLine
62
7
6
CONTINUOUS
10
-55.9140935359
20
16.0193129320
11
-58.3196999208
21
16.0613029476
0
LINE
5
438
100
AcDbEntity
8
0
100
AcDbLine
62
7
6
CONTINUOUS
10
-48.2701640375
20
27.1753834336
11
-46.4840831216
21
25.3893025177
0
LINE
5
439
100
AcDbEntity
8
CURVE
100
AcDbLine
62
9
6
CONTINUOUS
10
-51.0018555952
20
17.2764557380
11
-50.3591942516
21
17.2764557380
0
LINE
5
43A
100
AcDbEntity
8
CURVE
100
AcDbLine
62
9
6
CONTINUOUS
10
-50.3591942516
20
18.0264557380
11
-51.0018555952
21
18.0264557380
0
LINE
5
43B
100
AcDbEntity
8
CURVE
100
AcDbLine
62
9
6
CONTINUOUS
10
-53.4398226503
20
18.0301965338
11
-53.2382043460
21
18.0301965338
0
LINE
5
43C
100
AcDbEntity
8
CURVE
100
AcDbLine
62
9
6
CONTINUOUS
10
-54.2135450253
20
18.0982602278
11
-54.0119267210
21
18.0982602278
0
LINE
5
43D
100
AcDbEntity
8
CURVE
100
AcDbLine
62
9
6
CONTINUOUS
10
-52.6157118402
20
18.1058260367
11
-52.4140935359
21
18.1058260367
0
LINE
5
43E
100
AcDbEntity
8
CURVE
100
AcDbLine
62
9
6
CONTINUOUS
10
-51.0018555952
20
18.4550273199
11
-50.3591942516
21
18.4550273199
0
LINE
5
43F
100
AcDbEntity
8
CURVE
100
AcDbLine
62
9
6
CONTINUOUS
10
-50.3591942516
20
19.2050273199
11
-51.0018555952
21
19.2050273199
0
LINE
5
440
100
AcDbEntity
8
CURVE
100
AcDbLine
62
9
6
CONTINUOUS
10
-49.9307533409
20
20.0621701259
11
-51.4302964612
21
20.0621701259
0
LINE
5
441
100
AcDbEntity
8
0
100
AcDbLine
62
9
6
CONTINUOUS
10
-57.9210119069
20
21.6847388864
11
-61.2111371508
21
21.6273095367
0
LINE
5
442
100
AcDbEntity
8
0
100
AcDbLine
62
9
6
CONTINUOUS
10
-57.4566821790
20
21.4773442895
11
-55.9140935359
21
21.4866136622
0
LINE
5
443
100
AcDbEntity
8
0
100
AcDbLine
62
9
6
CONTINUOUS
10
-57.3205310687
20
22.7093220387
11
-55.9140935359
21
22.7172594974
0
LINE
5
444
100
AcDbEntity
8
CURVE
100
AcDbLine
62
9
6
CONTINUOUS
10
-52.4140935359
20
20.1628981202
11
-54.2135450253
21
20.1628981202
0
LINE
5
445
100
AcDbEntity
8
CURVE
100
AcDbLine
62
9
6
CONTINUOUS
10
-54.0119267210
20
20.4023931343
11
-53.4398226503
21
20.4023931343
0
LINE
5
446
100
AcDbEntity
8
CURVE
100
AcDbLine
62
9
6
CONTINUOUS
10
-53.2382043460
20
20.4023931343
11
-52.6157118402
21
20.4023931343
0
LINE
5
447
100
AcDbEntity
8
CURVE
100
AcDbLine
62
9
6
CONTINUOUS
10
-53.4398226503
20
21.3377212900
11
-53.2382043460
21
21.3377212900
0
LINE
5
448
100
AcDbEntity
8
CURVE
100
AcDbLine
62
9
6
CONTINUOUS
10
-54.2135450253
20
21.4057352229
11
-54.0119267210
21
21.4057352229
0
LINE
5
449
100
AcDbEntity
8
CURVE
100
AcDbLine
62
9
6
CONTINUOUS
10
-52.6157118402
20
21.4133507930
11
-52.4140935359
21
21.4133507930
0
LINE
5
44A
100
AcDbEntity
8
0
100
AcDbLine
62
9
6
CONTINUOUS
10
-44.2140935359
20
21.5708593485
11
-44.7053673327
21
21.5708593485
0
LINE
5
44B
100
AcDbEntity
8
0
100
AcDbLine
62
7
6
CONTINUOUS
10
-48.2701640375
20
27.1753834336
11
-49.7645980520
21
27.7193129320
0
LINE
5
44C
100
AcDbEntity
8
0
100
AcDbLine
62
7
6
CONTINUOUS
10
-48.2701640375
20
-16.1367575697
11
-49.7645980520
21
-16.6806870680
0
LINE
5
44D
100
AcDbEntity
8
0
100
AcDbLine
62
7
6
CONTINUOUS
10
-57.7663563488
20
22.6869815643
11
-61.2984525045
21
22.6253285966
0
LINE
5
44E
100
AcDbEntity
8
0
100
AcDbLine
62
7
6
CONTINUOUS
10
-45.7595239339
20
25.0965616037
11
-44.7228197391
21
25.1146573427
0
LINE
5
44F
100
AcDbEntity
8
0
100
AcDbLine
62
7
6
CONTINUOUS
10
-57.0813981531
20
26.1464615258
11
-57.5489558330
21
26.1873675223
0
LINE
5
450
100
AcDbEntity
8
0
100
AcDbLine
62
9
6
CONTINUOUS
10
-68.1919078244
20
25.9976087382
11
-68.6826971282
21
25.9756224854
0
LINE
5
451
100
AcDbEntity
8
0
100
AcDbLine
62
7
6
CONTINUOUS
10
-57.4114039218
20
25.5931772820
11
-61.5517827629
21
25.5209067005
0
LINE
5
452
100
AcDbEntity
8
0
100
AcDbLine
62
9
6
CONTINUOUS
10
-56.6993891369
20
27.8045474865
11
-55.9140935359
21
27.8183053451
0
LINE
5
453
100
AcDbEntity
8
0
100
AcDbLine
62
7
6
CONTINUOUS
10
-56.6919281247
20
27.9057357787
11
-55.9140935359
21
27.9193129320
0
LINE
5
454
100
AcDbEntity
8
0
100
AcDbLine
62
7
6
CONTINUOUS
10
-49.7645980520
20
27.7193129320
11
-50.3140935359
21
27.7193129320
0
LINE
5
455
100
AcDbEntity
8
0
100
AcDbLine
62
7
6
CONTINUOUS
10
-51.7175840172
20
26.7158828456
11
-47.9432387379
21
26.6500014037
0
LINE
5
456
100
AcDbEntity
8
0
100
AcDbLine
62
9
6
CONTINUOUS
10
-61.7131723867
20
27.3655985412
11
-67.7620120594
21
26.5154895647
0
LINE
5
457
100
AcDbEntity
8
0
100
AcDbLine
62
7
6
CONTINUOUS
10
-61.7567702038
20
27.8639238715
11
-67.8229056140
21
27.0113841375
0
LINE
5
458
100
AcDbEntity
8
0
100
AcDbLine
62
7
6
CONTINUOUS
10
-56.9391959639
20
27.3046054176
11
-57.5489558330
21
27.2512583416
0
LINE
5
459
100
AcDbEntity
8
0
100
AcDbLine
62
7
6
CONTINUOUS
10
-51.9140935359
20
28.9494926723
11
-55.9140935359
21
29.0193129320
0
LINE
5
45A
100
AcDbEntity
8
0
100
AcDbLine
62
9
6
CONTINUOUS
10
-51.9140935359
20
28.7824202938
11
-55.9140935359
21
28.8526725895
0
ARC
5
45B
100
AcDbEntity
8
0
100
AcDbCircle
62
7
6
CONTINUOUS
10
3.5248998261
20
5.5193129320
40
28.0000000000
100
AcDbArc
50
305.9627651514
51
307.0435233072
0
ARC
5
45C
100
AcDbEntity
8
0
100
AcDbCircle
62
7
6
CONTINUOUS
10
19.7248998261
20
-17.5806870680
40
0.5000000000
100
AcDbArc
50
60.8875772240
51
189.1962815790
0
ARC
5
45D
100
AcDbEntity
8
0
100
AcDbCircle
62
7
6
CONTINUOUS
10
3.5248998261
20
5.5193129320
40
28.0000000000
100
AcDbArc
50
303.5572117410
51
304.1210936517
0
ARC
5
45E
100
AcDbEntity
8
0
100
AcDbCircle
62
7
6
CONTINUOUS
10
26.0248998261
20
5.5193129320
40
28.0000000000
100
AcDbArc
50
235.8789063483
51
236.4427882590
0
ARC
5
45F
100
AcDbEntity
8
0
100
AcDbCircle
62
7
6
CONTINUOUS
10
9.8248998261
20
-17.5806870680
40
0.5000000000
100
AcDbArc
50
350.8037184210
51
119.1124227760
0
ARC
5
460
100
AcDbEntity
8
0
100
AcDbCircle
62
7
6
CONTINUOUS
10
26.0248998261
20
5.5193129320
40
28.0000000000
100
AcDbArc
50
125.9627651514
51
127.0504413394
0
ARC
5
461
100
AcDbEntity
8
0
100
AcDbCircle
62
7
6
CONTINUOUS
10
9.8248998261
20
28.6193129320
40
0.5000000000
100
AcDbArc
50
240.8875772240
51
9.1962815790
0
ARC
5
462
100
AcDbEntity
8
0
100
AcDbCircle
62
7
6
CONTINUOUS
10
26.0248998261
20
5.5193129320
40
28.0000000000
100
AcDbArc
50
123.5572119323
51
124.1210936517
0
ARC
5
463
100
AcDbEntity
8
0
100
AcDbCircle
62
7
6
CONTINUOUS
10
3.5248998261
20
5.5193129320
40
28.0000000000
100
AcDbArc
50
55.8789063483
51
56.4427880677
0
ARC
5
464
100
AcDbEntity
8
0
100
AcDbCircle
62
7
6
CONTINUOUS
10
19.7248998261
20
28.6193129320
40
0.5000000000
100
AcDbArc
50
170.8037184210
51
299.1124227760
0
ARC
5
465
100
AcDbEntity
8
0
100
AcDbCircle
62
7
6
CONTINUOUS
10
3.5248998261
20
5.5193129320
40
28.0000000000
100
AcDbArc
50
52.9495586606
51
54.0372348486
0
ARC
5
466
100
AcDbEntity
8
0
100
AcDbCircle
62
7
6
CONTINUOUS
10
-18.9751001739
20
5.5193129320
40
28.0000000000
100
AcDbArc
50
307.2167524546
51
308.2026770534
0
ARC
5
467
100
AcDbEntity
8
0
100
AcDbCircle
62
7
6
CONTINUOUS
10
3.5248998261
20
5.5193129320
40
28.0000000000
100
AcDbArc
50
231.7973229630
51
232.7832476643
0
ARC
5
468
100
AcDbEntity
8
0
100
AcDbCircle
62
7
6
CONTINUOUS
10
-18.9751001739
20
5.5193129320
40
27.9000000000
100
AcDbArc
50
55.7520965189
51
57.3831491754
0
ARC
5
469
100
AcDbEntity
8
0
100
AcDbCircle
62
7
6
CONTINUOUS
10
-18.9751001739
20
5.5193129320
40
27.9000000000
100
AcDbArc
50
53.4047963402
51
54.1640446780
0
ARC
5
46A
100
AcDbEntity
8
0
100
AcDbCircle
62
7
6
CONTINUOUS
10
3.5248998261
20
5.5193129320
40
27.9000000000
100
AcDbArc
50
125.8359553220
51
126.5952036598
0
ARC
5
46B
100
AcDbEntity
8
0
100
AcDbCircle
62
7
6
CONTINUOUS
10
3.5248998261
20
5.5193129320
40
27.9000000000
100
AcDbArc
50
122.6168508246
51
124.2479034811
0
ARC
5
46C
100
AcDbEntity
8
0
100
AcDbCircle
62
7
6
CONTINUOUS
10
-18.9751001739
20
5.5193129320
40
27.9000000000
100
AcDbArc
50
305.8359553220
51
306.5952036598
0
ARC
5
46D
100
AcDbEntity
8
0
100
AcDbCircle
62
7
6
CONTINUOUS
10
-18.9751001739
20
5.5193129320
40
27.9000000000
100
AcDbArc
50
302.6168508246
51
304.2479034811
0
ARC
5
46E
100
AcDbEntity
8
0
100
AcDbCircle
62
7
6
CONTINUOUS
10
3.5248998261
20
5.5193129320
40
27.9000000000
100
AcDbArc
50
235.7520965189
51
237.3831491754
0
ARC
5
46F
100
AcDbEntity
8
0
100
AcDbCircle
62
7
6
CONTINUOUS
10
3.5248998261
20
5.5193129320
40
27.9000000000
100
AcDbArc
50
233.4047963402
51
234.1640446780
0
ARC
5
470
100
AcDbEntity
8
0
100
AcDbCircle
62
7
6
CONTINUOUS
10
-2.7751001739
20
-17.5806870680
40
0.5000000000
100
AcDbArc
50
74.3932919591
51
175.6905668440
0
ARC
5
471
100
AcDbEntity
8
0
100
AcDbCircle
62
7
6
CONTINUOUS
10
-12.6751001739
20
-17.5806870680
40
0.5000000000
100
AcDbArc
50
4.3094331560
51
105.6067080409
0
ARC
5
472
100
AcDbEntity
8
0
100
AcDbCircle
62
7
6
CONTINUOUS
10
-2.7751001739
20
28.6193129320
40
0.5000000000
100
AcDbArc
50
184.3094331560
51
285.6067080409
0
ARC
5
473
100
AcDbEntity
8
0
100
AcDbCircle
62
7
6
CONTINUOUS
10
-12.6751001739
20
28.6193129320
40
0.5000000000
100
AcDbArc
50
254.3932919591
51
355.6905668440
0
ARC
5
474
100
AcDbEntity
8
0
100
AcDbCircle
62
7
6
CONTINUOUS
10
26.0248998261
20
5.5193129320
40
28.0000000000
100
AcDbArc
50
231.7974271806
51
234.0372348486
0
ARC
5
475
100
AcDbEntity
8
0
100
AcDbCircle
62
7
6
CONTINUOUS
10
3.6248998261
20
5.5193129320
40
27.9452085138
100
AcDbArc
50
307.0648293780
51
308.0591780874
0
ARC
5
476
100
AcDbEntity
8
0
100
AcDbCircle
62
7
6
CONTINUOUS
10
17.0748998261
20
-16.4806870680
40
0.5000000000
100
AcDbArc
50
233.1301023542
51
306.8698976458
0
ARC
5
477
100
AcDbEntity
8
0
100
AcDbCircle
62
7
6
CONTINUOUS
10
12.4748998261
20
-16.4806870680
40
0.5000000000
100
AcDbArc
50
233.1301023542
51
306.8698976458
0
ARC
5
478
100
AcDbEntity
8
0
100
AcDbCircle
62
7
6
CONTINUOUS
10
17.0748998261
20
27.5193129320
40
0.5000000000
100
AcDbArc
50
53.1301023542
51
126.8698976458
0
ARC
5
479
100
AcDbEntity
8
0
100
AcDbCircle
62
7
6
CONTINUOUS
10
12.4748998261
20
27.5193129320
40
0.5000000000
100
AcDbArc
50
53.1301023542
51
126.8698976458
0
ARC
5
47A
100
AcDbEntity
8
0
100
AcDbCircle
62
6
6
CONTINUOUS
10
17.5456547244
20
-11.1806870680
40
0.2000000000
100
AcDbArc
50
185.0000000000
51
270.0000000000
0
ARC
5
47B
100
AcDbEntity
8
0
100
AcDbCircle
62
6
6
CONTINUOUS
10
22.0041449278
20
-11.1806870680
40
0.2000000000
100
AcDbArc
50
270.0000000000
51
355.0000000000
0
ARC
5
47C
100
AcDbEntity
8
0
100
AcDbCircle
62
6
6
CONTINUOUS
10
23.0748998261
20
-9.5806870680
40
0.2000000000
100
AcDbArc
50
0.0000000000
51
90.0000000000
0
ARC
5
47D
100
AcDbEntity
8
0
100
AcDbCircle
62
6
6
CONTINUOUS
10
16.4748998261
20
-9.5806870680
40
0.2000000000
100
AcDbArc
50
90.0000000000
51
180.0000000000
0
ARC
5
47E
100
AcDbEntity
8
0
100
AcDbCircle
62
6
6
CONTINUOUS
10
20.8248998261
20
-2.8806870680
40
0.2000000000
100
AcDbArc
50
0.0000000000
51
90.0000000000
0
ARC
5
47F
100
AcDbEntity
8
0
100
AcDbCircle
62
6
6
CONTINUOUS
10
18.7248998261
20
-2.8806870680
40
0.2000000000
100
AcDbArc
50
90.0000000000
51
180.0000000000
0
ARC
5
480
100
AcDbEntity
8
0
100
AcDbCircle
62
6
6
CONTINUOUS
10
12.0041449278
20
-10.3056870680
40
0.2000000000
100
AcDbArc
50
270.0000000000
51
355.0000000000
0
ARC
5
481
100
AcDbEntity
8
0
100
AcDbCircle
62
6
6
CONTINUOUS
10
7.5456547244
20
-10.3056870680
40
0.2000000000
100
AcDbArc
50
185.0000000000
51
270.0000000000
0
ARC
5
482
100
AcDbEntity
8
0
100
AcDbCircle
62
6
6
CONTINUOUS
10
13.0748998261
20
-8.7056870680
40
0.2000000000
100
AcDbArc
50
0.0000000000
51
90.0000000000
0
ARC
5
483
100
AcDbEntity
8
0
100
AcDbCircle
62
6
6
CONTINUOUS
10
6.4748998261
20
-8.7056870680
40
0.2000000000
100
AcDbArc
50
90.0000000000
51
180.0000000000
0
ARC
5
484
100
AcDbEntity
8
0
100
AcDbCircle
62
6
6
CONTINUOUS
10
10.8248998261
20
-2.0056870680
40
0.2000000000
100
AcDbArc
50
0.0000000000
51
90.0000000000
0
ARC
5
485
100
AcDbEntity
8
0
100
AcDbCircle
62
6
6
CONTINUOUS
10
8.7248998261
20
-2.0056870680
40
0.2000000000
100
AcDbArc
50
90.0000000000
51
180.0000000000
0
ARC
5
486
100
AcDbEntity
8
0
100
AcDbCircle
62
7
6
CONTINUOUS
10
430.7996183082
20
48.7224146120
40
500.0000000000
100
AcDbArc
50
182.6074903398
51
187.3925096602
0
ARC
5
487
100
AcDbEntity
8
0
100
AcDbCircle
62
7
6
CONTINUOUS
10
-64.0526894492
20
-15.4818960466
40
1.0000000000
100
AcDbArc
50
187.3925096602
51
272.0000000000
0
ARC
5
488
100
AcDbEntity
8
0
100
AcDbCircle
62
7
6
CONTINUOUS
10
-67.6837325115
20
26.0211160690
40
1.0000000000
100
AcDbArc
50
98.0000000000
51
182.6074903398
0
ARC
5
489
100
AcDbEntity
8
0
100
AcDbCircle
62
7
6
CONTINUOUS
10
-57.4147521005
20
25.8931642091
40
0.2999999662
100
AcDbArc
50
271.0000000161
51
352.9659199143
0
ARC
5
48A
100
AcDbEntity
8
0
100
AcDbCircle
62
7
6
CONTINUOUS
10
-57.5140935359
20
26.5858454016
40
0.4000000000
100
AcDbArc
50
180.0000000000
51
264.9999999564
0
ARC
5
48B
100
AcDbEntity
8
0
100
AcDbCircle
62
7
6
CONTINUOUS
10
-57.5140935359
20
26.8527804624
40
0.4000000000
100
AcDbArc
50
95.0000000365
51
180.0000000000
0
ARC
5
48C
100
AcDbEntity
8
0
100
AcDbCircle
62
7
6
CONTINUOUS
10
-57.5140935359
20
-15.8141545984
40
0.4000000000
100
AcDbArc
50
180.0000000000
51
264.9999999564
0
ARC
5
48D
100
AcDbEntity
8
0
100
AcDbCircle
62
7
6
CONTINUOUS
10
-57.5140935359
20
-15.5472195376
40
0.4000000000
100
AcDbArc
50
95.0000000365
51
180.0000000000
0
ARC
5
48E
100
AcDbEntity
8
0
100
AcDbCircle
62
7
6
CONTINUOUS
10
-58.6065837104
20
5.5193129320
40
1.0000000000
100
AcDbArc
50
173.0000000000
51
187.0000000000
0
ARC
5
48F
100
AcDbEntity
8
0
100
AcDbCircle
62
7
6
CONTINUOUS
10
-56.6884376434
20
27.7057662397
40
0.2000000000
100
AcDbArc
50
91.0000000000
51
173.0000000000
0
ARC
5
490
100
AcDbEntity
8
0
100
AcDbCircle
62
7
6
CONTINUOUS
10
-56.6884376434
20
-16.6671403757
40
0.2000000000
100
AcDbArc
50
187.0000000000
51
269.0000000000
0
ARC
5
491
100
AcDbEntity
8
0
100
AcDbCircle
62
7
6
CONTINUOUS
10
-57.6769251197
20
-12.7193104528
40
0.2999999901
100
AcDbArc
50
6.9999916633
51
87.9999986959
0
ARC
5
492
100
AcDbEntity
8
0
100
AcDbCircle
62
7
6
CONTINUOUS
10
-57.7715920707
20
22.9869358729
40
0.3000000000
100
AcDbArc
50
271.0000000000
51
353.0000000000
0
ARC
5
493
100
AcDbEntity
8
0
100
AcDbCircle
62
7
6
CONTINUOUS
10
-34.6140935359
20
-10.6204799814
40
0.2000000000
100
AcDbArc
50
92.9999565401
51
179.9991795507
0
ARC
5
494
100
AcDbEntity
8
0
100
AcDbCircle
62
7
6
CONTINUOUS
10
-34.6140935359
20
-2.6408941547
40
0.2000000000
100
AcDbArc
50
180.0001204285
51
267.0000064695
0
ARC
5
495
100
AcDbEntity
8
0
100
AcDbCircle
62
7
6
CONTINUOUS
10
-33.1140935359
20
-10.0411821394
40
0.3000000000
100
AcDbArc
50
273.0000522121
51
360.0000000000
0
ARC
5
496
100
AcDbEntity
8
0
100
AcDbCircle
62
7
6
CONTINUOUS
10
-33.1140935359
20
-3.2201919966
40
0.3000000000
100
AcDbArc
50
0.0000000000
51
86.9999376692
0
ARC
5
497
100
AcDbEntity
8
0
100
AcDbCircle
62
7
6
CONTINUOUS
10
-51.7140935359
20
-15.8772265207
40
0.2000000000
100
AcDbArc
50
169.2157049554
51
180.0000000000
0
ARC
5
498
100
AcDbEntity
8
0
100
AcDbCircle
62
7
6
CONTINUOUS
10
-51.7140935359
20
-15.8772265207
40
0.2000000000
100
AcDbArc
50
91.0000000000
51
128.2214923363
0
ARC
5
499
100
AcDbEntity
8
0
100
AcDbCircle
62
7
6
CONTINUOUS
10
-51.7140935359
20
26.9158523846
40
0.2000000000
100
AcDbArc
50
180.0000000000
51
190.7842950387
0
ARC
5
49A
100
AcDbEntity
8
0
100
AcDbCircle
62
7
6
CONTINUOUS
10
-51.7140935359
20
26.9158523846
40
0.2000000000
100
AcDbArc
50
261.3316317648
51
269.0000000000
0
ARC
5
49B
100
AcDbEntity
8
0
100
AcDbCircle
62
7
6
CONTINUOUS
10
-47.9519699996
20
-15.1114517804
40
0.5000000000
100
AcDbArc
50
271.0005797400
51
315.0004170272
0
ARC
5
49C
100
AcDbEntity
8
0
100
AcDbCircle
62
7
6
CONTINUOUS
10
-47.9519649412
20
26.1500775561
40
0.5000000000
100
AcDbArc
50
45.0000000000
51
89.0000000000
0
ARC
5
49D
100
AcDbEntity
8
0
100
AcDbCircle
62
7
6
CONTINUOUS
10
-45.7769763404
20
26.0964092988
40
1.0000000000
100
AcDbArc
50
225.0000000000
51
271.0000000000
0
ARC
5
49E
100
AcDbEntity
8
0
100
AcDbCircle
62
7
6
CONTINUOUS
10
-44.7140935359
20
24.6147334951
40
0.5000000000
100
AcDbArc
50
0.0000000000
51
91.0000000000
0
ARC
5
49F
100
AcDbEntity
8
0
100
AcDbCircle
62
7
6
CONTINUOUS
10
-43.7140935359
20
15.3606615635
40
0.5000000000
100
AcDbArc
50
180.0000000000
51
269.0000000000
0
ARC
5
4A0
100
AcDbEntity
8
0
100
AcDbCircle
62
7
6
CONTINUOUS
10
-35.3140935359
20
14.2138866901
40
0.5000000000
100
AcDbArc
50
0.0000000000
51
89.0000000000
0
ARC
5
4A1
100
AcDbEntity
8
0
100
AcDbCircle
62
7
6
CONTINUOUS
10
-35.3140935359
20
-13.1938417093
40
0.5000000000
100
AcDbArc
50
271.0000000000
51
360.0000000000
0
ARC
5
4A2
100
AcDbEntity
8
0
100
AcDbCircle
62
7
6
CONTINUOUS
10
-45.7191015679
20
-14.5756445937
40
0.7000000000
100
AcDbArc
50
91.0000000000
51
135.0000000000
0
ARC
5
4A3
100
AcDbEntity
8
0
100
AcDbCircle
62
6
6
CONTINUOUS
10
-43.8140935359
20
-9.5806870680
40
0.2000000000
100
AcDbArc
50
90.0000000000
51
180.0000000000
0
ARC
5
4A4
100
AcDbEntity
8
0
100
AcDbCircle
62
6
6
CONTINUOUS
10
-37.2140935359
20
-9.5806870680
40
0.2000000000
100
AcDbArc
50
0.0000000000
51
90.0000000000
0
ARC
5
4A5
100
AcDbEntity
8
0
100
AcDbCircle
62
6
6
CONTINUOUS
10
-41.5640935359
20
-2.8806870680
40
0.2000000000
100
AcDbArc
50
90.0000000000
51
180.0000000000
0
ARC
5
4A6
100
AcDbEntity
8
0
100
AcDbCircle
62
6
6
CONTINUOUS
10
-39.4640935359
20
-2.8806870680
40
0.2000000000
100
AcDbArc
50
0.0000000000
51
90.0000000000
0
ARC
5
4A7
100
AcDbEntity
8
0
100
AcDbCircle
62
6
6
CONTINUOUS
10
-37.0140935359
20
-8.7056870680
40
0.2000000000
100
AcDbArc
50
0.0000000000
51
90.0000000000
0
ARC
5
4A8
100
AcDbEntity
8
0
100
AcDbCircle
62
6
6
CONTINUOUS
10
-43.6140935359
20
-8.7056870680
40
0.2000000000
100
AcDbArc
50
90.0000000000
51
180.0000000000
0
ARC
5
4A9
100
AcDbEntity
8
0
100
AcDbCircle
62
6
6
CONTINUOUS
10
-39.2640935359
20
-2.0056870680
40
0.2000000000
100
AcDbArc
50
0.0000000000
51
90.0000000000
0
ARC
5
4AA
100
AcDbEntity
8
0
100
AcDbCircle
62
6
6
CONTINUOUS
10
-41.3640935359
20
-2.0056870680
40
0.2000000000
100
AcDbArc
50
90.0000000000
51
180.0000000000
0
SPLINE
5
4AB
100
AcDbEntity
8
0
100
AcDbSpline
62
7
6
CONTINUOUS
70
0
71
3
72
10
73
6
74
4
42
0.0000001000
43
0.0000001000
44
0.0000000001
12
0.5846646811
22
0.0000000000
32
0.0000000000
13
0.4872211172
23
0.3231847339
33
0.0000000000
40
0.0000000000
40
0.0000000000
40
0.0000000000
40
0.0000000000
40
0.3324081770
40
0.6679000849
40
1.0000000000
40
1.0000000000
40
1.0000000000
40
1.0000000000
10
18.4497574901
20
-17.9806870680
30
0.0000000000
10
18.5145399303
20
-17.9806870680
30
0.0000000000
10
18.6450697053
20
-17.9679500828
30
0.0000000000
10
18.8327520768
20
-17.9113432465
30
0.0000000000
10
18.9485068992
20
-17.8498234217
30
0.0000000000
10
19.0024422631
20
-17.8140468808
30
0.0000000000
11
18.4497574901
21
-17.9806870680
31
0.0000000000
11
18.6431847895
21
-17.9617989516
31
0.0000000000
11
18.8309792968
21
-17.9051584082
31
0.0000000000
11
19.0024422631
21
-17.8140468808
31
0.0000000000
0
SPLINE
5
4AC
100
AcDbEntity
8
0
100
AcDbSpline
62
7
6
CONTINUOUS
70
0
71
3
72
10
73
6
74
4
42
0.0000001000
43
0.0000001000
44
0.0000000001
12
0.4872211172
22
-0.3231847339
32
0.0000000000
13
0.5846646811
23
-0.0000000000
33
0.0000000000
40
0.0000000000
40
0.0000000000
40
0.0000000000
40
0.0000000000
40
0.3320999151
40
0.6675918230
40
1.0000000000
40
1.0000000000
40
1.0000000000
40
1.0000000000
10
10.5473573891
20
-17.8140468808
30
0.0000000000
10
10.6012927530
20
-17.8498234217
30
0.0000000000
10
10.7170475754
20
-17.9113432465
30
0.0000000000
10
10.9047299468
20
-17.9679500828
30
0.0000000000
10
11.0352597219
20
-17.9806870680
30
0.0000000000
10
11.1000421621
20
-17.9806870680
30
0.0000000000
11
10.5473573891
21
-17.8140468808
31
0.0000000000
11
10.7188203553
21
-17.9051584082
31
0.0000000000
11
10.9066148627
21
-17.9617989516
31
0.0000000000
11
11.1000421621
21
-17.9806870680
31
0.0000000000
0
SPLINE
5
4AD
100
AcDbEntity
8
0
100
AcDbSpline
62
7
6
CONTINUOUS
70
0
71
3
72
10
73
6
74
4
42
0.0000001000
43
0.0000001000
44
0.0000000001
12
-0.5846646711
22
0.0000000000
32
0.0000000000
13
-0.4872211089
23
-0.3231847284
33
0.0000000000
40
0.0000000000
40
0.0000000000
40
0.0000000000
40
0.0000000000
40
0.3320970604
40
0.6676052029
40
1.0000000000
40
1.0000000000
40
1.0000000000
40
1.0000000000
10
11.1000420595
20
29.0193129320
30
0.0000000000
10
11.0353202533
20
29.0193129320
30
0.0000000000
10
10.9048489269
20
29.0065936521
30
0.0000000000
10
10.7171562759
20
28.9500203709
30
0.0000000000
10
10.6013405652
20
28.8884810002
30
0.0000000000
10
10.5473573114
20
28.8526726928
30
0.0000000000
11
11.1000420595
21
29.0193129320
31
0.0000000000
11
10.9067940792
21
29.0004601365
31
0.0000000000
11
10.7189804122
21
28.9438502693
31
0.0000000000
11
10.5473573114
21
28.8526726928
31
0.0000000000
0
SPLINE
5
4AE
100
AcDbEntity
8
0
100
AcDbSpline
62
7
6
CONTINUOUS
70
0
71
3
72
10
73
6
74
4
42
0.0000001000
43
0.0000001000
44
0.0000000001
12
-0.4872211089
22
0.3231847284
32
0.0000000000
13
-0.5846646711
23
0.0000000000
33
0.0000000000
40
0.0000000000
40
0.0000000000
40
0.0000000000
40
0.0000000000
40
0.3323947971
40
0.6679029396
40
1.0000000000
40
1.0000000000
40
1.0000000000
40
1.0000000000
10
19.0024423408
20
28.8526726928
30
0.0000000000
10
18.9484590869
20
28.8884810002
30
0.0000000000
10
18.8326433762
20
28.9500203709
30
0.0000000000
10
18.6449507253
20
29.0065936521
30
0.0000000000
10
18.5144793989
20
29.0193129320
30
0.0000000000
10
18.4497575927
20
29.0193129320
30
0.0000000000
11
19.0024423408
21
28.8526726928
31
0.0000000000
11
18.8308192399
21
28.9438502693
31
0.0000000000
11
18.6430055730
21
29.0004601365
31
0.0000000000
11
18.4497575927
21
29.0193129320
31
0.0000000000
0
SPLINE
5
4AF
100
AcDbEntity
8
0
100
AcDbSpline
62
7
6
CONTINUOUS
70
0
71
3
72
9
73
5
74
3
42
0.0000001000
43
0.0000001000
44
0.0000000001
12
0.2342483304
22
0.0000000000
32
0.0000000000
13
0.2097817105
23
-0.1069838161
33
0.0000000000
40
0.0000000000
40
0.0000000000
40
0.0000000000
40
0.0000000000
40
0.6883412561
40
1.0000000000
40
1.0000000000
40
1.0000000000
40
1.0000000000
10
-2.3421563891
20
27.9191951195
30
0.0000000000
10
-2.2884087925
20
27.9191951195
30
0.0000000000
10
-2.2098057770
20
27.9063637053
30
0.0000000000
10
-2.1371994728
20
27.8757458739
30
0.0000000000
10
-2.1154060380
20
27.8646317266
30
0.0000000000
11
-2.3421563891
21
27.9191951195
31
0.0000000000
11
-2.1830387196
21
27.8931028881
31
0.0000000000
11
-2.1154060380
21
27.8646317266
31
0.0000000000
0
SPLINE
5
4B0
100
AcDbEntity
8
0
100
AcDbSpline
62
7
6
CONTINUOUS
70
0
71
3
72
9
73
5
74
3
42
0.0000001000
43
0.0000001000
44
0.0000000001
12
-0.2574971065
22
-0.1955696327
32
0.0000000000
13
-0.3233453898
23
0.0000000000
33
0.0000000000
40
0.0000000000
40
0.0000000000
40
0.0000000000
40
0.0000000000
40
0.5013295533
40
1.0000000000
40
1.0000000000
40
1.0000000000
40
1.0000000000
10
-2.0398046496
20
-16.7785740988
30
0.0000000000
10
-2.0828349527
20
-16.8112557110
30
0.0000000000
10
-2.1799088833
20
-16.8628573727
30
0.0000000000
10
-2.2884087925
20
-16.8805692555
30
0.0000000000
10
-2.3421563891
20
-16.8805692555
30
0.0000000000
11
-2.0398046496
21
-16.7785740988
31
0.0000000000
11
-2.1830387196
21
-16.8544770241
31
0.0000000000
11
-2.3421563891
21
-16.8805692555
31
0.0000000000
0
SPLINE
5
4B1
100
AcDbEntity
8
0
100
AcDbSpline
62
7
6
CONTINUOUS
70
0
71
3
72
9
73
5
74
3
42
0.0000001000
43
0.0000001000
44
0.0000000001
12
0.2097817162
22
0.1069838058
32
0.0000000000
13
0.2342483305
23
-0.0000000000
33
0.0000000000
40
0.0000000000
40
0.0000000000
40
0.0000000000
40
0.0000000000
40
0.3116587442
40
1.0000000000
40
1.0000000000
40
1.0000000000
40
1.0000000000
10
-13.3347943108
20
27.8646317287
30
0.0000000000
10
-13.3130008754
20
27.8757458748
30
0.0000000000
10
-13.2403945705
20
27.9063637042
30
0.0000000000
10
-13.1617915553
20
27.9191951195
30
0.0000000000
10
-13.1080439587
20
27.9191951195
30
0.0000000000
11
-13.3347943108
21
27.8646317287
31
0.0000000000
11
-13.2671616283
21
27.8931028881
31
0.0000000000
11
-13.1080439587
21
27.9191951195
31
0.0000000000
0
SPLINE
5
4B2
100
AcDbEntity
8
0
100
AcDbSpline
62
7
6
CONTINUOUS
70
0
71
3
72
9
73
5
74
3
42
0.0000001000
43
0.0000001000
44
0.0000000001
12
-0.3233453309
22
0.0000000000
32
0.0000000000
13
-0.2574970596
23
0.1955695971
33
0.0000000000
40
0.0000000000
40
0.0000000000
40
0.0000000000
40
0.0000000000
40
0.4986705375
40
1.0000000000
40
1.0000000000
40
1.0000000000
40
1.0000000000
10
-13.1080439587
20
-16.8805692555
30
0.0000000000
10
-13.1617915553
20
-16.8805692555
30
0.0000000000
10
-13.2702914452
20
-16.8628573775
30
0.0000000000
10
-13.3673653587
20
-16.8112557267
30
0.0000000000
10
-13.4103956462
20
-16.7785741264
30
0.0000000000
11
-13.1080439587
21
-16.8805692555
31
0.0000000000
11
-13.2671616283
21
-16.8544770241
31
0.0000000000
11
-13.4103956462
21
-16.7785741264
31
0.0000000000
0
SPLINE
5
4B3
100
AcDbEntity
8
0
100
AcDbSpline
62
7
6
CONTINUOUS
70
0
71
3
72
8
73
4
74
2
42
0.0000001000
43
0.0000001000
44
0.0000000001
12
-0.3236757496
22
-0.2550840792
32
0.0000000000
13
-0.3273516072
23
-0.2502387618
33
0.0000000000
40
0.0000000000
40
0.0000000000
40
0.0000000000
40
0.0000000000
40
1.0000000000
40
1.0000000000
40
1.0000000000
40
1.0000000000
10
-1.6819677228
20
-16.4840141261
30
0.0000000000
10
-1.7898596394
20
-16.5690421524
30
0.0000000000
10
-1.8983711167
20
-16.6532683293
30
0.0000000000
10
-2.0074883191
20
-16.7366812499
30
0.0000000000
11
-1.6819677228
21
-16.4840141261
31
0.0000000000
11
-2.0074883191
21
-16.7366812499
31
0.0000000000
0
SPLINE
5
4B4
100
AcDbEntity
8
0
100
AcDbSpline
62
7
6
CONTINUOUS
70
0
71
3
72
8
73
4
74
2
42
0.0000001000
43
0.0000001000
44
0.0000000001
12
0.3236756919
22
-0.2550841455
32
0.0000000000
13
0.3273514866
23
-0.2502389104
33
0.0000000000
40
0.0000000000
40
0.0000000000
40
0.0000000000
40
0.0000000000
40
1.0000000000
40
1.0000000000
40
1.0000000000
40
1.0000000000
10
-13.7682325372
20
-16.4840140203
30
0.0000000000
10
-13.6603406399
20
-16.5690420688
30
0.0000000000
10
-13.5518291910
20
-16.6532682798
30
0.0000000000
10
-13.4427120288
20
-16.7366812499
30
0.0000000000
11
-13.7682325372
21
-16.4840140203
31
0.0000000000
11
-13.4427120288
21
-16.7366812499
31
0.0000000000
0
SPLINE
5
4B5
100
AcDbEntity
8
0
100
AcDbSpline
62
9
6
CONTINUOUS
70
0
71
3
72
10
73
6
74
4
42
0.0000001000
43
0.0000001000
44
0.0000000001
12
0.0315206205
22
-0.0413434880
32
0.0000000000
13
0.0316159343
23
-0.0412706459
33
0.0000000000
40
0.0000000000
40
0.0000000000
40
0.0000000000
40
0.0000000000
40
0.3332342386
40
0.6665681207
40
1.0000000000
40
1.0000000000
40
1.0000000000
40
1.0000000000
10
-13.1388937936
20
-16.8393799800
30
0.0000000000
10
-13.1353925437
20
-16.8439723353
30
0.0000000000
10
-13.1283854654
20
-16.8531557273
30
0.0000000000
10
-13.1178627038
20
-16.8669247641
30
0.0000000000
10
-13.1108394238
20
-16.8761000850
30
0.0000000000
10
-13.1073255037
20
-16.8806870680
30
0.0000000000
11
-13.1388937936
21
-16.8393799800
31
0.0000000000
11
-13.1283847486
21
-16.8531530071
31
0.0000000000
11
-13.1178619698
21
-16.8669220648
31
0.0000000000
11
-13.1073255037
21
-16.8806870680
31
0.0000000000
0
SPLINE
5
4B6
100
AcDbEntity
8
0
100
AcDbSpline
62
9
6
CONTINUOUS
70
0
71
3
72
10
73
6
74
4
42
0.0000001000
43
0.0000001000
44
0.0000000001
12
0.0316159344
22
0.0412706460
32
0.0000000000
13
0.0315206206
23
0.0413434881
33
0.0000000000
40
0.0000000000
40
0.0000000000
40
0.0000000000
40
0.0000000000
40
0.3334331566
40
0.6667683116
40
1.0000000000
40
1.0000000000
40
1.0000000000
40
1.0000000000
10
-2.3428748444
20
-16.8806870680
30
0.0000000000
10
-2.3393609108
20
-16.8761000674
30
0.0000000000
10
-2.3323376038
20
-16.8669247116
30
0.0000000000
10
-2.3218148423
20
-16.8531556746
30
0.0000000000
10
-2.3148077775
20
-16.8439723001
30
0.0000000000
10
-2.3113065543
20
-16.8393799800
30
0.0000000000
11
-2.3428748444
21
-16.8806870680
31
0.0000000000
11
-2.3323383378
21
-16.8669220122
31
0.0000000000
11
-2.3218155188
21
-16.8531529018
31
0.0000000000
11
-2.3113065543
21
-16.8393799800
31
0.0000000000
0
SPLINE
5
4B7
100
AcDbEntity
8
0
100
AcDbSpline
62
9
6
CONTINUOUS
70
0
71
3
72
10
73
6
74
4
42
0.0000001000
43
0.0000001000
44
0.0000000001
12
0.0323645382
22
0.0418557011
32
0.0000000000
13
0.0322682064
23
0.0419300120
33
0.0000000000
40
0.0000000000
40
0.0000000000
40
0.0000000000
40
0.0000000000
40
0.3334318961
40
0.6667661491
40
1.0000000000
40
1.0000000000
40
1.0000000000
40
1.0000000000
10
-2.0398047038
20
-16.7785741280
30
0.0000000000
10
-2.0362075807
20
-16.7739221194
30
0.0000000000
10
-2.0290179537
20
-16.7646167066
30
0.0000000000
10
-2.0182458268
20
-16.7506524066
30
0.0000000000
10
-2.0110726053
20
-16.7413387497
30
0.0000000000
10
-2.0074883191
20
-16.7366812499
30
0.0000000000
11
-2.0398047038
21
-16.7785741280
31
0.0000000000
11
-2.0290186857
21
-16.7646139661
31
0.0000000000
11
-2.0182465295
21
-16.7506496292
31
0.0000000000
11
-2.0074883191
21
-16.7366812499
31
0.0000000000
0
SPLINE
5
4B8
100
AcDbEntity
8
0
100
AcDbSpline
62
9
6
CONTINUOUS
70
0
71
3
72
10
73
6
74
4
42
0.0000001000
43
0.0000001000
44
0.0000000001
12
0.0322682062
22
-0.0419300118
32
0.0000000000
13
0.0323645380
23
-0.0418557009
33
0.0000000000
40
0.0000000000
40
0.0000000000
40
0.0000000000
40
0.0000000000
40
0.3332358079
40
0.6665690855
40
1.0000000000
40
1.0000000000
40
1.0000000000
40
1.0000000000
10
-13.4427120288
20
-16.7366812499
30
0.0000000000
10
-13.4391277215
20
-16.7413387770
30
0.0000000000
10
-13.4319544895
20
-16.7506524475
30
0.0000000000
10
-13.4211823626
20
-16.7646167474
30
0.0000000000
10
-13.4139927568
20
-16.7739221329
30
0.0000000000
10
-13.4103956443
20
-16.7785741278
30
0.0000000000
11
-13.4427120288
21
-16.7366812499
31
0.0000000000
11
-13.4319537552
21
-16.7506497111
31
0.0000000000
11
-13.4211816305
21
-16.7646140070
31
0.0000000000
11
-13.4103956443
21
-16.7785741278
31
0.0000000000
0
SPLINE
5
4B9
100
AcDbEntity
8
0
100
AcDbSpline
62
9
6
CONTINUOUS
70
0
71
3
72
10
73
6
74
4
42
0.0000001000
43
0.0000001000
44
0.0000000001
12
-0.1658279881
22
-0.0744221258
32
0.0000000000
13
-0.1114294938
23
0.1436002867
33
0.0000000000
40
0.0000000000
40
0.0000000000
40
0.0000000000
40
0.0000000000
40
0.1412625562
40
0.5012066926
40
1.0000000000
40
1.0000000000
40
1.0000000000
40
1.0000000000
10
-2.0075078730
20
-16.7366555957
30
0.0000000000
10
-2.0153163015
20
-16.7401599490
30
0.0000000000
10
-2.0383358903
20
-16.7037003303
30
0.0000000000
10
-2.0773022152
20
-16.6710637031
30
0.0000000000
10
-2.1101999445
20
-16.6259053638
30
0.0000000000
10
-2.1287267064
20
-16.6020297432
30
0.0000000000
11
-2.0075078730
21
-16.7366555957
31
0.0000000000
11
-2.0280150231
21
-16.7212048604
31
0.0000000000
11
-2.0717926638
21
-16.6725853263
31
0.0000000000
11
-2.1287267064
21
-16.6020297432
31
0.0000000000
0
SPLINE
5
4BA
100
AcDbEntity
8
0
100
AcDbSpline
62
9
6
CONTINUOUS
70
0
71
3
72
10
73
6
74
4
42
0.0000001000
43
0.0000001000
44
0.0000000001
12
-0.1114475588
22
-0.1436235642
32
0.0000000000
13
-0.1658783151
23
0.0743819275
33
0.0000000000
40
0.0000000000
40
0.0000000000
40
0.0000000000
40
0.0000000000
40
0.4987811298
40
0.8587291876
40
1.0000000000
40
1.0000000000
40
1.0000000000
40
1.0000000000
10
-13.3214736414
20
-16.6020297433
30
0.0000000000
10
-13.3400029545
20
-16.6259086512
30
0.0000000000
10
-13.3729044280
20
-16.6710728861
30
0.0000000000
10
-13.4118801032
20
-16.7037178085
30
0.0000000000
10
-13.4348992654
20
-16.7401819373
30
0.0000000000
10
-13.4427105202
20
-16.7366792722
30
0.0000000000
11
-13.3214736414
21
-16.6020297433
31
0.0000000000
11
-13.3784153507
21
-16.6725951804
31
0.0000000000
11
-13.4221999163
21
-16.7212237100
31
0.0000000000
11
-13.4427105202
21
-16.7366792722
31
0.0000000000
0
SPLINE
5
4BB
100
AcDbEntity
8
0
100
AcDbSpline
62
9
6
CONTINUOUS
70
0
71
3
72
10
73
6
74
4
42
0.0000001000
43
0.0000001000
44
0.0000000001
12
0.2590201609
22
-0.1976631525
32
0.0000000000
13
0.3258252203
23
0.0003023573
33
0.0000000000
40
0.0000000000
40
0.0000000000
40
0.0000000000
40
0.0000000000
40
0.3341293940
40
0.6673063544
40
1.0000000000
40
1.0000000000
40
1.0000000000
40
1.0000000000
10
-13.4427120288
20
-16.7366812499
30
0.0000000000
10
-13.4138632790
20
-16.7586962730
30
0.0000000000
10
-13.3512352168
20
-16.7965139898
30
0.0000000000
10
-13.2476062822
20
-16.8315310745
30
0.0000000000
10
-13.1750271205
20
-16.8394135108
30
0.0000000000
10
-13.1388937937
20
-16.8393799800
30
0.0000000000
11
-13.4427120288
21
-16.7366812499
31
0.0000000000
11
-13.3495101236
21
-16.7929449980
31
0.0000000000
11
-13.2466609736
21
-16.8276837925
31
0.0000000000
11
-13.1388937937
21
-16.8393799800
31
0.0000000000
0
SPLINE
5
4BC
100
AcDbEntity
8
0
100
AcDbSpline
62
9
6
CONTINUOUS
70
0
71
3
72
9
73
5
74
3
42
0.0000001000
43
0.0000001000
44
0.0000000001
12
-0.2584159958
22
-0.1971312267
32
0.0000000000
13
-0.3250222679
23
0.0002697731
33
0.0000000000
40
0.0000000000
40
0.0000000000
40
0.0000000000
40
0.0000000000
40
0.5008540138
40
1.0000000000
40
1.0000000000
40
1.0000000000
40
1.0000000000
10
-2.0074883191
20
-16.7366812499
30
0.0000000000
10
-2.0506312153
20
-16.7695925720
30
0.0000000000
10
-2.1481396236
20
-16.8216254263
30
0.0000000000
10
-2.2572287007
20
-16.8394248654
30
0.0000000000
10
-2.3113065541
20
-16.8393799800
30
0.0000000000
11
-2.0074883191
21
-16.7366812499
31
0.0000000000
11
-2.1512112363
21
-16.8131266853
31
0.0000000000
11
-2.3113065541
21
-16.8393799800
31
0.0000000000
0
SPLINE
5
4BD
100
AcDbEntity
8
0
100
AcDbSpline
62
9
6
CONTINUOUS
70
0
71
3
72
9
73
5
74
3
42
0.0000001000
43
0.0000001000
44
0.0000000001
12
-0.1179010979
22
0.0001094083
32
0.0000000000
13
-0.1148835833
23
-0.0276201190
33
0.0000000000
40
0.0000000000
40
0.0000000000
40
0.0000000000
40
0.0000000000
40
0.9194147848
40
1.0000000000
40
1.0000000000
40
1.0000000000
40
1.0000000000
10
-13.1388937937
20
27.8780058440
30
0.0000000000
10
-13.1750271312
20
27.8780393745
30
0.0000000000
10
-13.2144687978
20
27.8737558241
30
0.0000000000
10
-13.2528545033
20
27.8649142487
30
0.0000000000
10
-13.2559404760
20
27.8641723243
30
0.0000000000
11
-13.1388937937
21
27.8780058440
31
0.0000000000
11
-13.2466610052
21
27.8663096495
31
0.0000000000
11
-13.2559404760
21
27.8641723243
31
0.0000000000
0
SPLINE
5
4BE
100
AcDbEntity
8
0
100
AcDbSpline
62
9
6
CONTINUOUS
70
0
71
3
72
8
73
4
74
2
42
0.0000001000
43
0.0000001000
44
0.0000000001
12
0.1170638321
22
0.0000971606
32
0.0000000000
13
0.1145576812
23
-0.0273474289
33
0.0000000000
40
0.0000000000
40
0.0000000000
40
0.0000000000
40
0.0000000000
40
1.0000000000
40
1.0000000000
40
1.0000000000
40
1.0000000000
10
-2.3113065541
20
27.8780058440
30
0.0000000000
10
-2.2722852768
20
27.8780382308
30
0.0000000000
10
-2.2330695168
20
27.8734213314
30
0.0000000000
10
-2.1948836231
20
27.8643055217
30
0.0000000000
11
-2.3113065541
21
27.8780058440
31
0.0000000000
11
-2.1948836231
21
27.8643055217
31
0.0000000000
0
SPLINE
5
4BF
100
AcDbEntity
8
0
100
AcDbSpline
62
9
6
CONTINUOUS
70
0
71
3
72
10
73
6
74
4
42
0.0000001000
43
0.0000001000
44
0.0000000001
12
-0.0316159344
22
-0.0412706461
32
0.0000000000
13
-0.0315206206
23
-0.0413434881
33
0.0000000000
40
0.0000000000
40
0.0000000000
40
0.0000000000
40
0.0000000000
40
0.3334318816
40
0.6667657626
40
1.0000000000
40
1.0000000000
40
1.0000000000
40
1.0000000000
10
-13.1073255034
20
27.9193129320
30
0.0000000000
10
-13.1108394236
20
27.9147259489
30
0.0000000000
10
-13.1178627038
20
27.9055506282
30
0.0000000000
10
-13.1283854653
20
27.8917815912
30
0.0000000000
10
-13.1353925437
20
27.8825981992
30
0.0000000000
10
-13.1388937936
20
27.8780058440
30
0.0000000000
11
-13.1073255034
21
27.9193129320
31
0.0000000000
11
-13.1178619698
21
27.9055479288
31
0.0000000000
11
-13.1283847486
21
27.8917788711
31
0.0000000000
11
-13.1388937936
21
27.8780058440
31
0.0000000000
0
SPLINE
5
4C0
100
AcDbEntity
8
0
100
AcDbSpline
62
9
6
CONTINUOUS
70
0
71
3
72
10
73
6
74
4
42
0.0000001000
43
0.0000001000
44
0.0000000001
12
-0.0315206205
22
0.0413434879
32
0.0000000000
13
-0.0316159342
23
0.0412706459
33
0.0000000000
40
0.0000000000
40
0.0000000000
40
0.0000000000
40
0.0000000000
40
0.3332316871
40
0.6665668446
40
1.0000000000
40
1.0000000000
40
1.0000000000
40
1.0000000000
10
-2.3113065543
20
27.8780058440
30
0.0000000000
10
-2.3148077775
20
27.8825981640
30
0.0000000000
10
-2.3218148422
20
27.8917815385
30
0.0000000000
10
-2.3323376038
20
27.9055505754
30
0.0000000000
10
-2.3393609105
20
27.9147259314
30
0.0000000000
10
-2.3428748441
20
27.9193129320
30
0.0000000000
11
-2.3113065543
21
27.8780058440
31
0.0000000000
11
-2.3218155188
21
27.8917787657
31
0.0000000000
11
-2.3323383377
21
27.9055478761
31
0.0000000000
11
-2.3428748441
21
27.9193129320
31
0.0000000000
0
SPLINE
5
4C1
100
AcDbEntity
8
0
100
AcDbSpline
62
7
6
CONTINUOUS
70
0
71
3
72
11
73
7
74
5
42
0.0000001000
43
0.0000001000
44
0.0000000001
12
0.0554308687
22
0.1664278388
32
0.0000000000
13
0.0003759531
23
0.1754156931
33
0.0000000000
40
0.0000000000
40
0.0000000000
40
0.0000000000
40
0.0000000000
40
0.0887086314
40
0.3042381336
40
0.6212797859
40
1.0000000000
40
1.0000000000
40
1.0000000000
40
1.0000000000
10
-4.5135939692
20
-16.8393799800
30
0.0000000000
10
-4.5119549037
20
-16.8344587848
30
0.0000000000
10
-4.5130871597
20
-16.8161904316
30
0.0000000000
10
-4.5106414632
20
-16.7802799504
30
0.0000000000
10
-4.5107887611
20
-16.7267975802
30
0.0000000000
10
-4.5103591435
20
-16.6861724314
30
0.0000000000
10
-4.5103116832
20
-16.6640279418
30
0.0000000000
11
-4.5135939692
21
-16.8393799800
31
0.0000000000
11
-4.5124171009
21
-16.8238636252
31
0.0000000000
11
-4.5113985302
21
-16.7860700045
31
0.0000000000
11
-4.5106662344
21
-16.7304606171
31
0.0000000000
11
-4.5103116832
21
-16.6640279418
31
0.0000000000
0
SPLINE
5
4C2
100
AcDbEntity
8
0
100
AcDbSpline
62
7
6
CONTINUOUS
70
0
71
3
72
11
73
7
74
5
42
0.0000001000
43
0.0000001000
44
0.0000000001
12
0.0003759530
22
-0.1754156304
32
0.0000000000
13
0.0554308489
23
-0.1664277793
33
0.0000000000
40
0.0000000000
40
0.0000000000
40
0.0000000000
40
0.0000000000
40
0.3772011303
40
0.6940741599
40
0.9106328018
40
1.0000000000
40
1.0000000000
40
1.0000000000
40
1.0000000000
10
-10.9398886647
20
-16.6640279418
30
0.0000000000
10
-10.9398413947
20
-16.6860835998
30
0.0000000000
10
-10.9394136945
20
-16.7266103832
30
0.0000000000
10
-10.9395631303
20
-16.7800538601
30
0.0000000000
10
-10.9371102526
20
-16.8160517063
30
0.0000000000
10
-10.9382576119
20
-16.8344222519
30
0.0000000000
10
-10.9366063787
20
-16.8393799800
30
0.0000000000
11
-10.9398886647
21
-16.6640279418
31
0.0000000000
11
-10.9395364794
21
-16.7301941305
31
0.0000000000
11
-10.9388073589
21
-16.7857739582
31
0.0000000000
11
-10.9377880046
21
-16.8237481371
31
0.0000000000
11
-10.9366063787
21
-16.8393799800
31
0.0000000000
0
SPLINE
5
4C3
100
AcDbEntity
8
0
100
AcDbSpline
62
7
6
CONTINUOUS
70
0
71
3
72
8
73
4
74
2
42
0.0000001000
43
0.0000001000
44
0.0000000001
12
-0.0044729757
22
-0.0134298398
32
0.0000000000
13
0.0004139206
23
-0.0143968189
33
0.0000000000
40
0.0000000000
40
0.0000000000
40
0.0000000000
40
0.0000000000
40
1.0000000000
40
1.0000000000
40
1.0000000000
40
1.0000000000
10
-10.9366063787
20
27.8780058440
30
0.0000000000
10
-10.9380973706
20
27.8735292307
30
0.0000000000
10
-10.9379687839
20
27.8687194035
30
0.0000000000
10
-10.9378308104
20
27.8639204639
30
0.0000000000
11
-10.9366063787
21
27.8780058440
31
0.0000000000
11
-10.9378308104
21
27.8639204639
31
0.0000000000
0
SPLINE
5
4C4
100
AcDbEntity
8
0
100
AcDbSpline
62
7
6
CONTINUOUS
70
0
71
3
72
8
73
4
74
2
42
0.0000001000
43
0.0000001000
44
0.0000000001
12
0.0004094549
22
0.0143935611
32
0.0000000000
13
-0.0044722118
23
0.0134275462
33
0.0000000000
40
0.0000000000
40
0.0000000000
40
0.0000000000
40
0.0000000000
40
1.0000000000
40
1.0000000000
40
1.0000000000
40
1.0000000000
10
-4.5123785585
20
27.8639207773
30
0.0000000000
10
-4.5122420735
20
27.8687186310
30
0.0000000000
10
-4.5121032319
20
27.8735299952
30
0.0000000000
10
-4.5135939692
20
27.8780058440
30
0.0000000000
11
-4.5123785585
21
27.8639207773
31
0.0000000000
11
-4.5135939692
21
27.8780058440
31
0.0000000000
0
SPLINE
5
4C5
100
AcDbEntity
8
0
100
AcDbSpline
62
9
6
CONTINUOUS
70
0
71
3
72
8
73
4
74
2
42
0.0000001000
43
0.0000001000
44
0.0000000001
12
-0.1535171560
22
-0.1190707689
32
0.0000000000
13
-0.1543351579
23
-0.1179820928
33
0.0000000000
40
0.0000000000
40
0.0000000000
40
0.0000000000
40
0.0000000000
40
1.0000000000
40
1.0000000000
40
1.0000000000
40
1.0000000000
10
-1.9747998130
20
-16.4835027074
30
0.0000000000
10
-2.0259721983
20
-16.5231929637
30
0.0000000000
10
-2.0772816538
20
-16.5627023790
30
0.0000000000
10
-2.1287267064
20
-16.6020297433
30
0.0000000000
11
-1.9747998130
21
-16.4835027074
31
0.0000000000
11
-2.1287267064
21
-16.6020297433
31
0.0000000000
0
SPLINE
5
4C6
100
AcDbEntity
8
0
100
AcDbSpline
62
9
6
CONTINUOUS
70
0
71
3
72
9
73
5
74
3
42
0.0000001000
43
0.0000001000
44
0.0000000001
12
-0.1552630641
22
-0.1186630013
32
0.0000000000
13
-0.1954162914
23
0.0000033326
33
0.0000000000
40
0.0000000000
40
0.0000000000
40
0.0000000000
40
0.0000000000
40
0.5010908537
40
1.0000000000
40
1.0000000000
40
1.0000000000
40
1.0000000000
10
-2.1287267064
20
-16.6020297433
30
0.0000000000
10
-2.1546603402
20
-16.6218500582
30
0.0000000000
10
-2.2132270577
20
-16.6532335671
30
0.0000000000
10
-2.2788082291
20
-16.6640284960
30
0.0000000000
10
-2.3113065541
20
-16.6640279418
30
0.0000000000
11
-2.1287267064
21
-16.6020297433
31
0.0000000000
11
-2.2151161067
21
-16.6481324081
31
0.0000000000
11
-2.3113065541
21
-16.6640279418
31
0.0000000000
0
SPLINE
5
4C7
100
AcDbEntity
8
0
100
AcDbSpline
62
9
6
CONTINUOUS
70
0
71
3
72
10
73
6
74
4
42
0.0000001000
43
0.0000001000
44
0.0000000001
12
0.1555984187
22
-0.1190161755
32
0.0000000000
13
0.1958972087
23
0.0000394892
33
0.0000000000
40
0.0000000000
40
0.0000000000
40
0.0000000000
40
0.0000000000
40
0.3350727552
40
0.6686945144
40
1.0000000000
40
1.0000000000
40
1.0000000000
40
1.0000000000
10
-13.3214736414
20
-16.6020297433
30
0.0000000000
10
-13.3040947112
20
-16.6153227693
30
0.0000000000
10
-13.2663834441
20
-16.6381437895
30
0.0000000000
10
-13.2040977680
20
-16.6592563856
30
0.0000000000
10
-13.1605277336
20
-16.6640323028
30
0.0000000000
10
-13.1388937937
20
-16.6640279418
30
0.0000000000
11
-13.3214736414
21
-16.6020297433
31
0.0000000000
11
-13.2653126309
21
-16.6360080702
31
0.0000000000
11
-13.2034110902
21
-16.6569735214
31
0.0000000000
11
-13.1388937937
21
-16.6640279418
31
0.0000000000
0
SPLINE
5
4C8
100
AcDbEntity
8
0
100
AcDbSpline
62
9
6
CONTINUOUS
70
0
71
3
72
8
73
4
74
2
42
0.0000001000
43
0.0000001000
44
0.0000000001
12
0.1535175811
22
-0.1190712618
32
0.0000000000
13
0.1543355550
23
-0.1179826229
33
0.0000000000
40
0.0000000000
40
0.0000000000
40
0.0000000000
40
0.0000000000
40
1.0000000000
40
1.0000000000
40
1.0000000000
40
1.0000000000
10
-13.4754009463
20
-16.4835021964
30
0.0000000000
10
-13.4242284193
20
-16.5231926170
30
0.0000000000
10
-13.3729188264
20
-16.5627022024
30
0.0000000000
10
-13.3214736414
20
-16.6020297433
30
0.0000000000
11
-13.4754009463
21
-16.4835021964
31
0.0000000000
11
-13.3214736414
21
-16.6020297433
31
0.0000000000
0
SPLINE
5
4C9
100
AcDbEntity
8
0
100
AcDbSpline
62
7
6
CONTINUOUS
70
0
71
3
72
9
73
5
74
3
42
0.0000001000
43
0.0000001000
44
0.0000000001
12
0.2941717047
22
-0.7188234137
32
0.0000000000
13
0.0000000000
23
-0.7751361416
33
0.0000000000
40
0.0000000000
40
0.0000000000
40
0.0000000000
40
0.0000000000
40
0.4310936623
40
1.0000000000
40
1.0000000000
40
1.0000000000
40
1.0000000000
10
25.9259584622
20
22.2439347322
30
0.0000000000
10
25.9682303147
20
22.1406413262
30
0.0000000000
10
26.0461572150
20
21.8929197215
30
0.0000000000
10
26.0748998261
20
21.6336069501
30
0.0000000000
10
26.0748998261
20
21.4866136622
30
0.0000000000
11
25.9259584622
21
22.2439347322
31
0.0000000000
11
26.0262774062
21
21.9249047759
31
0.0000000000
11
26.0748998261
21
21.4866136622
31
0.0000000000
0
SPLINE
5
4CA
100
AcDbEntity
8
0
100
AcDbSpline
62
7
6
CONTINUOUS
70
0
71
3
72
9
73
5
74
3
42
0.0000001000
43
0.0000001000
44
0.0000000001
12
0.0000000000
22
-0.7751361416
32
0.0000000000
13
-0.2941717047
23
-0.7188234137
33
0.0000000000
40
0.0000000000
40
0.0000000000
40
0.0000000000
40
0.0000000000
40
0.5689063377
40
1.0000000000
40
1.0000000000
40
1.0000000000
40
1.0000000000
10
26.0748998261
20
-10.4479877983
30
0.0000000000
10
26.0748998261
20
-10.5949810861
30
0.0000000000
10
26.0461572150
20
-10.8542938575
30
0.0000000000
10
25.9682303147
20
-11.1020154622
30
0.0000000000
10
25.9259584622
20
-11.2053088682
30
0.0000000000
11
26.0748998261
21
-10.4479877983
31
0.0000000000
11
26.0262774062
21
-10.8862789120
31
0.0000000000
11
25.9259584622
21
-11.2053088682
31
0.0000000000
0
SPLINE
5
4CB
100
AcDbEntity
8
0
100
AcDbSpline
62
7
6
CONTINUOUS
70
0
71
3
72
9
73
5
74
3
42
0.0000001000
43
0.0000001000
44
0.0000000001
12
0.0502612152
22
0.0257934777
32
0.0000000000
13
0.0528115021
23
0.0199384429
33
0.0000000000
40
0.0000000000
40
0.0000000000
40
0.0000000000
40
0.0000000000
40
0.3620998020
40
1.0000000000
40
1.0000000000
40
1.0000000000
40
1.0000000000
10
9.1642158454
20
27.8642068459
30
0.0000000000
10
9.1702823708
20
27.8673201169
30
0.0000000000
10
9.1872107707
20
27.8755752260
30
0.0000000000
10
9.2045772002
20
27.8828566399
30
0.0000000000
10
9.2158066894
20
27.8870962188
30
0.0000000000
11
9.1642158454
21
27.8642068459
31
0.0000000000
11
9.1825993441
21
27.8731707964
31
0.0000000000
11
9.2158066894
21
27.8870962188
31
0.0000000000
0
SPLINE
5
4CC
100
AcDbEntity
8
0
100
AcDbSpline
62
7
6
CONTINUOUS
70
0
71
3
72
8
73
4
74
2
42
0.0000001000
43
0.0000001000
44
0.0000000001
12
0.0675615626
22
0.0255071775
32
0.0000000000
13
0.0705675484
23
0.0155097751
33
0.0000000000
40
0.0000000000
40
0.0000000000
40
0.0000000000
40
0.0000000000
40
1.0000000000
40
1.0000000000
40
1.0000000000
40
1.0000000000
10
9.2158066894
20
27.8870962188
30
0.0000000000
10
9.2383272103
20
27.8955986113
30
0.0000000000
10
9.2614568171
20
27.9024711623
30
0.0000000000
10
9.2849793332
20
27.9076410873
30
0.0000000000
11
9.2158066894
21
27.8870962188
31
0.0000000000
11
9.2849793332
21
27.9076410873
31
0.0000000000
0
SPLINE
5
4CD
100
AcDbEntity
8
0
100
AcDbSpline
62
7
6
CONTINUOUS
70
0
71
3
72
8
73
4
74
2
42
0.0000001000
43
0.0000001000
44
0.0000000001
12
0.1057566531
22
0.0232438555
32
0.0000000000
13
0.1080289296
23
0.0000000000
33
0.0000000000
40
0.0000000000
40
0.0000000000
40
0.0000000000
40
0.0000000000
40
1.0000000000
40
1.0000000000
40
1.0000000000
40
1.0000000000
10
9.2849793332
20
27.9076410873
30
0.0000000000
10
9.3202315509
20
27.9153890391
30
0.0000000000
10
9.3563662341
20
27.9193129320
30
0.0000000000
10
9.3923758773
20
27.9193129320
30
0.0000000000
11
9.2849793332
21
27.9076410873
31
0.0000000000
11
9.3923758773
21
27.9193129320
31
0.0000000000
0
SPLINE
5
4CE
100
AcDbEntity
8
0
100
AcDbSpline
62
7
6
CONTINUOUS
70
0
71
3
72
8
73
4
74
2
42
0.0000001000
43
0.0000001000
44
0.0000000001
12
0.1075926774
22
0.0000000000
32
0.0000000000
13
0.1053478370
23
-0.0230573058
33
0.0000000000
40
0.0000000000
40
0.0000000000
40
0.0000000000
40
0.0000000000
40
1.0000000000
40
1.0000000000
40
1.0000000000
40
1.0000000000
10
20.1666746682
20
27.9193129320
30
0.0000000000
10
20.2025388940
20
27.9193129320
30
0.0000000000
10
20.2385266593
20
27.9154209326
30
0.0000000000
10
20.2736426050
20
27.9077351640
30
0.0000000000
11
20.1666746682
21
27.9193129320
31
0.0000000000
11
20.2736426050
21
27.9077351640
31
0.0000000000
0
SPLINE
5
4CF
100
AcDbEntity
8
0
100
AcDbSpline
62
7
6
CONTINUOUS
70
0
71
3
72
8
73
4
74
2
42
0.0000001000
43
0.0000001000
44
0.0000000001
12
0.0702942512
22
-0.0153851858
32
0.0000000000
13
0.0673243694
23
-0.0253050321
33
0.0000000000
40
0.0000000000
40
0.0000000000
40
0.0000000000
40
0.0000000000
40
1.0000000000
40
1.0000000000
40
1.0000000000
40
1.0000000000
10
20.2736426050
20
27.9077351640
30
0.0000000000
10
20.2970740221
20
27.9026067687
30
0.0000000000
10
20.3201172753
20
27.8957892582
30
0.0000000000
10
20.3425587318
20
27.8873542475
30
0.0000000000
11
20.2736426050
21
27.9077351640
31
0.0000000000
11
20.3425587318
21
27.8873542475
31
0.0000000000
0
SPLINE
5
4D0
100
AcDbEntity
8
0
100
AcDbSpline
62
7
6
CONTINUOUS
70
0
71
3
72
9
73
5
74
3
42
0.0000001000
43
0.0000001000
44
0.0000000001
12
0.0535403313
22
-0.0201240622
32
0.0000000000
13
0.0509260188
23
-0.0261363206
33
0.0000000000
40
0.0000000000
40
0.0000000000
40
0.0000000000
40
0.0000000000
40
0.6270215160
40
1.0000000000
40
1.0000000000
40
1.0000000000
40
1.0000000000
10
20.3425587318
20
27.8873542475
30
0.0000000000
10
20.3537490450
20
27.8831481742
30
0.0000000000
10
20.3713571785
20
27.8757987308
30
0.0000000000
10
20.3885173415
20
27.8674489044
30
0.0000000000
10
20.3948487780
20
27.8641994760
30
0.0000000000
11
20.3425587318
21
27.8873542475
31
0.0000000000
11
20.3756542798
21
27.8735383493
31
0.0000000000
11
20.3948487780
21
27.8641994760
31
0.0000000000
0
SPLINE
5
4D1
100
AcDbEntity
8
0
100
AcDbSpline
62
7
6
CONTINUOUS
70
0
71
3
72
8
73
4
74
2
42
0.0000001000
43
0.0000001000
44
0.0000000001
12
-0.1080289296
22
0.0000000000
32
0.0000000000
13
-0.1057566531
23
0.0232438555
33
0.0000000000
40
0.0000000000
40
0.0000000000
40
0.0000000000
40
0.0000000000
40
1.0000000000
40
1.0000000000
40
1.0000000000
40
1.0000000000
10
9.3923758773
20
-16.8806870680
30
0.0000000000
10
9.3563662341
20
-16.8806870680
30
0.0000000000
10
9.3202315509
20
-16.8767631752
30
0.0000000000
10
9.2849793332
20
-16.8690152233
30
0.0000000000
11
9.3923758773
21
-16.8806870680
31
0.0000000000
11
9.2849793332
21
-16.8690152233
31
0.0000000000
0
SPLINE
5
4D2
100
AcDbEntity
8
0
100
AcDbSpline
62
7
6
CONTINUOUS
70
0
71
3
72
8
73
4
74
2
42
0.0000001000
43
0.0000001000
44
0.0000000001
12
-0.0705675484
22
0.0155097751
32
0.0000000000
13
-0.0675615626
23
0.0255071775
33
0.0000000000
40
0.0000000000
40
0.0000000000
40
0.0000000000
40
0.0000000000
40
1.0000000000
40
1.0000000000
40
1.0000000000
40
1.0000000000
10
9.2849793332
20
-16.8690152233
30
0.0000000000
10
9.2614568171
20
-16.8638452983
30
0.0000000000
10
9.2383272103
20
-16.8569727474
30
0.0000000000
10
9.2158066894
20
-16.8484703549
30
0.0000000000
11
9.2849793332
21
-16.8690152233
31
0.0000000000
11
9.2158066894
21
-16.8484703549
31
0.0000000000
0
SPLINE
5
4D3
100
AcDbEntity
8
0
100
AcDbSpline
62
7
6
CONTINUOUS
70
0
71
3
72
9
73
5
74
3
42
0.0000001000
43
0.0000001000
44
0.0000000001
12
-0.0866637684
22
0.0327190201
32
0.0000000000
13
-0.0791868079
23
0.0481485283
33
0.0000000000
40
0.0000000000
40
0.0000000000
40
0.0000000000
40
0.0000000000
40
0.3887260876
40
1.0000000000
40
1.0000000000
40
1.0000000000
40
1.0000000000
10
9.2158066894
20
-16.8484703549
30
0.0000000000
10
9.2045772002
20
-16.8442307760
30
0.0000000000
10
9.1760788587
20
-16.8322819629
30
0.0000000000
10
9.1487600811
20
-16.8177110988
30
0.0000000000
10
9.1326251378
20
-16.8079004524
30
0.0000000000
11
9.2158066894
21
-16.8484703549
31
0.0000000000
11
9.1825993441
21
-16.8345449324
31
0.0000000000
11
9.1326251378
21
-16.8079004524
31
0.0000000000
0
SPLINE
5
4D4
100
AcDbEntity
8
0
100
AcDbSpline
62
7
6
CONTINUOUS
70
0
71
3
72
8
73
4
74
2
42
0.0000001000
43
0.0000001000
44
0.0000000001
12
-0.0441113348
22
0.0268213344
32
0.0000000000
13
-0.0410189350
23
0.0311527875
33
0.0000000000
40
0.0000000000
40
0.0000000000
40
0.0000000000
40
0.0000000000
40
1.0000000000
40
1.0000000000
40
1.0000000000
40
1.0000000000
10
9.1326251378
20
-16.8079004524
30
0.0000000000
10
9.1179213595
20
-16.7989600076
30
0.0000000000
10
9.1036862250
20
-16.7892689380
30
0.0000000000
10
9.0900132467
20
-16.7788846755
30
0.0000000000
11
9.1326251378
21
-16.8079004524
31
0.0000000000
11
9.0900132467
21
-16.7788846755
31
0.0000000000
0
SPLINE
5
4D5
100
AcDbEntity
8
0
100
AcDbSpline
62
7
6
CONTINUOUS
70
0
71
3
72
8
73
4
74
2
42
0.0000001000
43
0.0000001000
44
0.0000000001
12
-0.0288896471
22
-0.0218212044
32
0.0000000000
13
-0.0304527474
23
-0.0197022604
33
0.0000000000
40
0.0000000000
40
0.0000000000
40
0.0000000000
40
0.0000000000
40
1.0000000000
40
1.0000000000
40
1.0000000000
40
1.0000000000
10
20.4679879111
20
-16.7796794811
30
0.0000000000
10
20.4583580287
20
-16.7869532159
30
0.0000000000
10
20.4484513705
20
-16.7938837292
30
0.0000000000
10
20.4383004547
20
-16.8004511493
30
0.0000000000
11
20.4679879111
21
-16.7796794811
31
0.0000000000
11
20.4383004547
21
-16.8004511493
31
0.0000000000
0
SPLINE
5
4D6
100
AcDbEntity
8
0
100
AcDbSpline
62
7
6
CONTINUOUS
70
0
71
3
72
8
73
4
74
2
42
0.0000001000
43
0.0000001000
44
0.0000000001
12
-0.0459130078
22
-0.0297047101
32
0.0000000000
13
-0.0489100099
23
-0.0245483233
33
0.0000000000
40
0.0000000000
40
0.0000000000
40
0.0000000000
40
0.0000000000
40
1.0000000000
40
1.0000000000
40
1.0000000000
40
1.0000000000
10
20.4383004547
20
-16.8004511493
30
0.0000000000
10
20.4229961188
20
-16.8103527193
30
0.0000000000
10
20.4071365609
20
-16.8194289425
30
0.0000000000
10
20.3908332242
20
-16.8276117169
30
0.0000000000
11
20.4383004547
21
-16.8004511493
31
0.0000000000
11
20.3908332242
21
-16.8276117169
31
0.0000000000
0
SPLINE
5
4D7
100
AcDbEntity
8
0
100
AcDbSpline
62
7
6
CONTINUOUS
70
0
71
3
72
9
73
5
74
3
42
0.0000001000
43
0.0000001000
44
0.0000000001
12
-0.0471329263
22
-0.0236563909
32
0.0000000000
13
-0.0493282450
23
-0.0185408765
33
0.0000000000
40
0.0000000000
40
0.0000000000
40
0.0000000000
40
0.0000000000
40
0.3194377844
40
1.0000000000
40
1.0000000000
40
1.0000000000
40
1.0000000000
10
20.3908332242
20
-16.8276117169
30
0.0000000000
10
20.3858145450
20
-16.8301306320
30
0.0000000000
10
20.3699719241
20
-16.8377510569
30
0.0000000000
10
20.3537490450
20
-16.8445223103
30
0.0000000000
10
20.3425587318
20
-16.8487283836
30
0.0000000000
11
20.3908332242
21
-16.8276117169
31
0.0000000000
11
20.3756542798
21
-16.8349124854
31
0.0000000000
11
20.3425587318
21
-16.8487283836
31
0.0000000000
0
SPLINE
5
4D8
100
AcDbEntity
8
0
100
AcDbSpline
62
7
6
CONTINUOUS
70
0
71
3
72
8
73
4
74
2
42
0.0000001000
43
0.0000001000
44
0.0000000001
12
-0.0673243694
22
-0.0253050321
32
0.0000000000
13
-0.0702942512
23
-0.0153851858
33
0.0000000000
40
0.0000000000
40
0.0000000000
40
0.0000000000
40
0.0000000000
40
1.0000000000
40
1.0000000000
40
1.0000000000
40
1.0000000000
10
20.3425587318
20
-16.8487283836
30
0.0000000000
10
20.3201172753
20
-16.8571633943
30
0.0000000000
10
20.2970740221
20
-16.8639809048
30
0.0000000000
10
20.2736426050
20
-16.8691093000
30
0.0000000000
11
20.3425587318
21
-16.8487283836
31
0.0000000000
11
20.2736426050
21
-16.8691093000
31
0.0000000000
0
SPLINE
5
4D9
100
AcDbEntity
8
0
100
AcDbSpline
62
7
6
CONTINUOUS
70
0
71
3
72
8
73
4
74
2
42
0.0000001000
43
0.0000001000
44
0.0000000001
12
-0.1053478370
22
-0.0230573058
32
0.0000000000
13
-0.1075926774
23
0.0000000000
33
0.0000000000
40
0.0000000000
40
0.0000000000
40
0.0000000000
40
0.0000000000
40
1.0000000000
40
1.0000000000
40
1.0000000000
40
1.0000000000
10
20.2736426050
20
-16.8691093000
30
0.0000000000
10
20.2385266593
20
-16.8767950686
30
0.0000000000
10
20.2025388940
20
-16.8806870680
30
0.0000000000
10
20.1666746682
20
-16.8806870680
30
0.0000000000
11
20.2736426050
21
-16.8691093000
31
0.0000000000
11
20.1666746682
21
-16.8806870680
31
0.0000000000
0
SPLINE
5
4DA
100
AcDbEntity
8
0
100
AcDbSpline
62
7
6
CONTINUOUS
70
0
71
3
72
9
73
5
74
3
42
0.0000001000
43
0.0000001000
44
0.0000000001
12
-0.2047215014
22
0.0000116600
32
0.0000000000
13
-0.1880799501
23
-0.0819500564
33
0.0000000000
40
0.0000000000
40
0.0000000000
40
0.0000000000
40
0.0000000000
40
0.5277597308
40
1.0000000000
40
1.0000000000
40
1.0000000000
40
1.0000000000
10
9.3969477912
20
27.9057229663
30
0.0000000000
10
9.3609332031
20
27.9057250176
30
0.0000000000
10
9.2924537114
20
27.8982827990
30
0.0000000000
10
9.2271554016
20
27.8770817043
30
0.0000000000
10
9.1975490928
20
27.8641816654
30
0.0000000000
11
9.3969477912
21
27.9057229663
31
0.0000000000
11
9.2895378225
21
27.8940373467
31
0.0000000000
11
9.1975490928
21
27.8641816654
31
0.0000000000
0
SPLINE
5
4DB
100
AcDbEntity
8
0
100
AcDbSpline
62
7
6
CONTINUOUS
70
0
71
3
72
9
73
5
74
3
42
0.0000001000
43
0.0000001000
44
0.0000000001
12
-0.1881072813
22
0.0819773291
32
0.0000000000
13
-0.2047579698
23
-0.0000117528
33
0.0000000000
40
0.0000000000
40
0.0000000000
40
0.0000000000
40
0.0000000000
40
0.4744638264
40
1.0000000000
40
1.0000000000
40
1.0000000000
40
1.0000000000
10
20.3615520064
20
27.8641683310
30
0.0000000000
10
20.3318019729
20
27.8771334234
30
0.0000000000
10
20.2664816601
20
27.8983120919
30
0.0000000000
10
20.1979918897
20
27.9057251929
30
0.0000000000
10
20.1621226497
20
27.9057231340
30
0.0000000000
11
20.3615520064
21
27.8641683310
31
0.0000000000
11
20.2691042264
21
27.8941315992
31
0.0000000000
11
20.1621226497
21
27.9057231340
31
0.0000000000
0
SPLINE
5
4DC
100
AcDbEntity
8
0
100
AcDbSpline
62
7
6
CONTINUOUS
70
0
71
3
72
10
73
6
74
4
42
0.0000001000
43
0.0000001000
44
0.0000000001
12
0.0013243918
22
0.7065252010
32
0.0000000000
13
-0.2436415953
23
0.6639437088
33
0.0000000000
40
0.0000000000
40
0.0000000000
40
0.0000000000
40
0.0000000000
40
0.4697579454
40
0.9388011539
40
1.0000000000
40
1.0000000000
40
1.0000000000
40
1.0000000000
10
26.0479617078
20
21.4773442884
30
0.0000000000
10
26.0481690890
20
21.5879762307
30
0.0000000000
10
26.0302165065
20
21.8095449371
30
0.0000000000
10
25.9723457760
20
22.0389115505
30
0.0000000000
10
25.9305540705
20
22.1567272638
30
0.0000000000
10
25.9255838757
20
22.1702714601
30
0.0000000000
11
26.0479617078
21
21.4773442884
31
0.0000000000
11
26.0210948546
21
21.8081514817
31
0.0000000000
11
25.9400530548
21
22.1294807617
31
0.0000000000
11
25.9255838757
21
22.1702714601
31
0.0000000000
0
SPLINE
5
4DD
100
AcDbEntity
8
0
100
AcDbSpline
62
7
6
CONTINUOUS
70
0
71
3
72
10
73
6
74
4
42
0.0000001000
43
0.0000001000
44
0.0000000001
12
0.2436420061
22
0.6639452668
32
0.0000000000
13
-0.0013158906
23
0.7065267997
33
0.0000000000
40
0.0000000000
40
0.0000000000
40
0.0000000000
40
0.0000000000
40
0.0611839390
40
0.5302447056
40
1.0000000000
40
1.0000000000
40
1.0000000000
40
1.0000000000
10
25.9255835092
20
-11.1316467844
30
0.0000000000
10
25.9305525017
20
-11.1181058555
30
0.0000000000
10
25.9723447792
20
-11.0002893856
30
0.0000000000
10
26.0302160252
20
-10.7709223635
30
0.0000000000
10
26.0481714259
20
-10.5493499929
30
0.0000000000
10
26.0479653770
20
-10.4387184246
30
0.0000000000
11
25.9255835092
21
-11.1316467844
31
0.0000000000
11
25.9400492916
21
-11.0908659634
31
0.0000000000
11
26.0210955184
21
-10.7695242406
31
0.0000000000
11
26.0479653770
21
-10.4387184246
31
0.0000000000
0
SPLINE
5
4DE
100
AcDbEntity
8
0
100
AcDbSpline
62
7
6
CONTINUOUS
70
0
71
3
72
8
73
4
74
2
42
0.0000001000
43
0.0000001000
44
0.0000000001
12
0.3678765964
22
0.2787096239
32
0.0000000000
13
0.3632780997
23
0.2848184044
33
0.0000000000
40
0.0000000000
40
0.0000000000
40
0.0000000000
40
0.0000000000
40
1.0000000000
40
1.0000000000
40
1.0000000000
40
1.0000000000
10
20.4634590316
20
-16.7659216226
30
0.0000000000
10
20.5860845637
20
-16.6730184146
30
0.0000000000
10
20.7079534594
20
-16.5790890524
30
0.0000000000
10
20.8290461593
20
-16.4841495843
30
0.0000000000
11
20.4634590316
21
-16.7659216226
31
0.0000000000
11
20.8290461593
21
-16.4841495843
31
0.0000000000
0
SPLINE
5
4DF
100
AcDbEntity
8
0
100
AcDbSpline
62
7
6
CONTINUOUS
70
0
71
3
72
10
73
6
74
4
42
0.0000001000
43
0.0000001000
44
0.0000000001
12
0.3228677829
22
-0.0000185326
32
0.0000000000
13
0.2574331939
23
0.1948634297
33
0.0000000000
40
0.0000000000
40
0.0000000000
40
0.0000000000
40
0.0000000000
40
0.3332872729
40
0.6664614835
40
1.0000000000
40
1.0000000000
40
1.0000000000
40
1.0000000000
10
20.1621226497
20
-16.8670972702
30
0.0000000000
10
20.1979918906
20
-16.8670993291
30
0.0000000000
10
20.2699673853
20
-16.8593089417
30
0.0000000000
10
20.3727118317
20
-16.8248091609
30
0.0000000000
10
20.4348364091
20
-16.7875846866
30
0.0000000000
10
20.4634577043
20
-16.7659198668
30
0.0000000000
11
20.1621226497
21
-16.8670972702
31
0.0000000000
11
20.2691042291
21
-16.8555057335
31
0.0000000000
11
20.3710820298
21
-16.8212698563
31
0.0000000000
11
20.4634577043
21
-16.7659198668
31
0.0000000000
0
SPLINE
5
4E0
100
AcDbEntity
8
0
100
AcDbSpline
62
7
6
CONTINUOUS
70
0
71
3
72
10
73
6
74
4
42
0.0000001000
43
0.0000001000
44
0.0000000001
12
0.2579598528
22
-0.1963346871
32
0.0000000000
13
0.3241767954
23
0.0000184633
33
0.0000000000
40
0.0000000000
40
0.0000000000
40
0.0000000000
40
0.0000000000
40
0.3335403422
40
0.6667134628
40
1.0000000000
40
1.0000000000
40
1.0000000000
40
1.0000000000
10
9.0945639187
20
-16.7651236630
30
0.0000000000
10
9.1232439245
20
-16.7869521759
30
0.0000000000
10
9.1855428705
20
-16.8244674161
30
0.0000000000
10
9.2886640677
20
-16.8592450872
30
0.0000000000
10
9.3609332040
20
-16.8670991535
30
0.0000000000
10
9.3969477912
20
-16.8670971023
30
0.0000000000
11
9.0945639187
21
-16.7651236630
31
0.0000000000
11
9.1871922982
21
-16.8209020075
31
0.0000000000
11
9.2895378252
21
-16.8554114845
31
0.0000000000
11
9.3969477912
21
-16.8670971023
31
0.0000000000
0
SPLINE
5
4E1
100
AcDbEntity
8
0
100
AcDbSpline
62
7
6
CONTINUOUS
70
0
71
3
72
8
73
4
74
2
42
0.0000001000
43
0.0000001000
44
0.0000000001
12
0.3603075078
22
-0.2839485852
32
0.0000000000
13
0.3648550975
23
-0.2779388945
33
0.0000000000
40
0.0000000000
40
0.0000000000
40
0.0000000000
40
0.0000000000
40
1.0000000000
40
1.0000000000
40
1.0000000000
40
1.0000000000
10
8.7319716838
20
-16.4841738851
30
0.0000000000
10
8.8520741864
20
-16.5788234135
30
0.0000000000
10
8.9729441619
20
-16.6724791946
30
0.0000000000
10
9.0945625278
20
-16.7651254928
30
0.0000000000
11
8.7319716838
21
-16.4841738851
31
0.0000000000
11
9.0945625278
21
-16.7651254928
31
0.0000000000
0
SPLINE
5
4E2
100
AcDbEntity
8
0
100
AcDbSpline
62
7
6
CONTINUOUS
70
0
71
3
72
10
73
6
74
4
42
0.0000001000
43
0.0000001000
44
0.0000000001
12
-0.0789718949
22
-0.0789718949
32
0.0000000000
13
-0.1130733766
23
0.0017196699
33
0.0000000000
40
0.0000000000
40
0.0000000000
40
0.0000000000
40
0.0000000000
40
0.1465917473
40
0.5386748960
40
1.0000000000
40
1.0000000000
40
1.0000000000
40
1.0000000000
10
26.0363587220
20
-5.0192281721
30
0.0000000000
10
26.0324998460
20
-5.0230870481
30
0.0000000000
10
26.0089270523
20
-5.0171879982
30
0.0000000000
10
25.9744648106
20
-5.0232842997
30
0.0000000000
10
25.9422832090
20
-5.0228643565
30
0.0000000000
10
25.9248953466
20
-5.0225999143
30
0.0000000000
11
26.0363587220
21
-5.0192281721
31
0.0000000000
11
26.0200408692
21
-5.0205564469
31
0.0000000000
11
25.9762660962
21
-5.0216753783
31
0.0000000000
11
25.9248953466
21
-5.0225999143
31
0.0000000000
0
SPLINE
5
4E3
100
AcDbEntity
8
0
100
AcDbSpline
62
7
6
CONTINUOUS
70
0
71
3
72
10
73
6
74
4
42
0.0000001000
43
0.0000001000
44
0.0000000001
12
0.1130733652
22
0.0017197034
32
0.0000000000
13
0.0789718699
23
-0.0789718699
33
0.0000000000
40
0.0000000000
40
0.0000000000
40
0.0000000000
40
0.0000000000
40
0.4613513589
40
0.8534154791
40
1.0000000000
40
1.0000000000
40
1.0000000000
40
1.0000000000
10
25.9248953476
20
16.0612257091
30
0.0000000000
10
25.9422841978
20
16.0614901716
30
0.0000000000
10
25.9744661540
20
16.0619102872
30
0.0000000000
10
26.0089284082
20
16.0558140347
30
0.0000000000
10
26.0325000374
20
16.0617127206
30
0.0000000000
10
26.0363587220
20
16.0578540361
30
0.0000000000
11
25.9248953476
21
16.0612257091
31
0.0000000000
11
25.9762690477
21
16.0603011916
31
0.0000000000
11
26.0200416814
21
16.0591822778
31
0.0000000000
11
26.0363587220
21
16.0578540361
31
0.0000000000
0
SPLINE
5
4E4
100
AcDbEntity
8
0
100
AcDbSpline
62
9
6
CONTINUOUS
70
0
71
3
72
10
73
6
74
4
42
0.0000001000
43
0.0000001000
44
0.0000000001
12
0.1285525498
22
-0.0063204064
32
0.0000000000
13
0.0177929767
23
-0.1251997240
33
0.0000000000
40
0.0000000000
40
0.0000000000
40
0.0000000000
40
0.0000000000
40
0.5023775270
40
0.8525221024
40
1.0000000000
40
1.0000000000
40
1.0000000000
40
1.0000000000
10
25.9249005442
20
21.4996864004
30
0.0000000000
10
25.9464278482
20
21.4986279903
30
0.0000000000
10
25.9838447811
20
21.4961288611
30
0.0000000000
10
26.0198537160
20
21.4889733399
30
0.0000000000
10
26.0470991509
20
21.4834990191
30
0.0000000000
10
26.0479738412
20
21.4773442884
30
0.0000000000
11
25.9249005442
21
21.4996864004
31
0.0000000000
11
25.9881931956
21
21.4944320918
31
0.0000000000
11
26.0317691371
21
21.4865757402
31
0.0000000000
11
26.0479738412
21
21.4773442884
31
0.0000000000
0
SPLINE
5
4E5
100
AcDbEntity
8
0
100
AcDbSpline
62
9
6
CONTINUOUS
70
0
71
3
72
10
73
6
74
4
42
0.0000001000
43
0.0000001000
44
0.0000000001
12
0.1285523396
22
0.0063204875
32
0.0000000000
13
0.0177929848
23
0.1251997055
33
0.0000000000
40
0.0000000000
40
0.0000000000
40
0.0000000000
40
0.0000000000
40
0.5023926250
40
0.8525276446
40
1.0000000000
40
1.0000000000
40
1.0000000000
40
1.0000000000
10
25.9249005430
20
-10.4610605263
30
0.0000000000
10
25.9464284588
20
-10.4600020708
30
0.0000000000
10
25.9838457341
20
-10.4575028982
30
0.0000000000
10
26.0198547647
20
-10.4503473631
30
0.0000000000
10
26.0470991834
20
-10.4448729240
30
0.0000000000
10
26.0479738412
20
-10.4387184256
30
0.0000000000
11
25.9249005430
21
-10.4610605263
31
0.0000000000
11
25.9881951172
21
-10.4558059900
31
0.0000000000
11
26.0317698313
21
-10.4479496749
31
0.0000000000
11
26.0479738412
21
-10.4387184256
31
0.0000000000
0
SPLINE
5
4E6
100
AcDbEntity
8
0
100
AcDbSpline
62
9
6
CONTINUOUS
70
0
71
3
72
8
73
4
74
2
42
0.0000001000
43
0.0000001000
44
0.0000000001
12
0.1927780628
22
0.1460555475
32
0.0000000000
13
0.1915139009
23
0.1477513249
33
0.0000000000
40
0.0000000000
40
0.0000000000
40
0.0000000000
40
0.0000000000
40
1.0000000000
40
1.0000000000
40
1.0000000000
40
1.0000000000
10
20.3429070101
20
-16.6307491761
30
0.0000000000
10
20.4071663644
20
-16.5820639936
30
0.0000000000
10
20.4712164538
20
-16.5330950117
30
0.0000000000
10
20.5350544208
20
-16.4838445701
30
0.0000000000
11
20.3429070101
21
-16.6307491761
31
0.0000000000
11
20.5350544208
21
-16.4838445701
31
0.0000000000
0
SPLINE
5
4E7
100
AcDbEntity
8
0
100
AcDbSpline
62
9
6
CONTINUOUS
70
0
71
3
72
10
73
6
74
4
42
0.0000001000
43
0.0000001000
44
0.0000000001
12
0.1107786384
22
-0.1440460792
32
0.0000000000
13
0.1662234539
23
0.0734230415
33
0.0000000000
40
0.0000000000
40
0.0000000000
40
0.0000000000
40
0.0000000000
40
0.4988348360
40
0.8587829762
40
1.0000000000
40
1.0000000000
40
1.0000000000
40
1.0000000000
10
20.3429070101
20
-16.6307491761
30
0.0000000000
10
20.3613270914
20
-16.6547009102
30
0.0000000000
10
20.3940060662
20
-16.7000016871
30
0.0000000000
10
20.4328403052
20
-16.7327950860
30
0.0000000000
10
20.4556343268
20
-16.7693775820
30
0.0000000000
10
20.4634588540
20
-16.7659213875
30
0.0000000000
11
20.3429070101
21
-16.6307491761
31
0.0000000000
11
20.3995175407
21
-16.7015454506
31
0.0000000000
11
20.4430531742
21
-16.7503610281
31
0.0000000000
11
20.4634588540
21
-16.7659213875
31
0.0000000000
0
SPLINE
5
4E8
100
AcDbEntity
8
0
100
AcDbSpline
62
9
6
CONTINUOUS
70
0
71
3
72
10
73
6
74
4
42
0.0000001000
43
0.0000001000
44
0.0000000001
12
0.1937276908
22
-0.0000410113
32
0.0000000000
13
0.1543819954
23
0.1170325568
33
0.0000000000
40
0.0000000000
40
0.0000000000
40
0.0000000000
40
0.0000000000
40
0.3322019877
40
0.6657762001
40
1.0000000000
40
1.0000000000
40
1.0000000000
40
1.0000000000
10
20.1621226472
20
-16.6915142444
30
0.0000000000
10
20.1835748885
20
-16.6915187858
30
0.0000000000
10
20.2267158804
20
-16.6868486130
30
0.0000000000
10
20.2883716032
20
-16.6661669471
30
0.0000000000
10
20.3257076311
20
-16.6437875314
30
0.0000000000
10
20.3429070101
20
-16.6307491761
30
0.0000000000
11
20.1621226472
21
-16.6915142444
31
0.0000000000
11
20.2261060969
21
-16.6845928091
31
0.0000000000
11
20.2873740326
21
-16.6640424869
31
0.0000000000
11
20.3429070101
21
-16.6307491761
31
0.0000000000
0
SPLINE
5
4E9
100
AcDbEntity
8
0
100
AcDbSpline
62
9
6
CONTINUOUS
70
0
71
3
72
10
73
6
74
4
42
0.0000001000
43
0.0000001000
44
0.0000000001
12
0.1546969232
22
-0.1179162682
32
0.0000000000
13
0.1945131940
23
0.0000410956
33
0.0000000000
40
0.0000000000
40
0.0000000000
40
0.0000000000
40
0.0000000000
40
0.3342212023
40
0.6678027775
40
1.0000000000
40
1.0000000000
40
1.0000000000
40
1.0000000000
10
9.2155343162
20
-16.6302710884
30
0.0000000000
10
9.2327686468
20
-16.6434077940
30
0.0000000000
10
9.2702097124
20
-16.6659621257
30
0.0000000000
10
9.3320915994
20
-16.6868104518
30
0.0000000000
10
9.3754088795
20
-16.6915187950
30
0.0000000000
10
9.3969477937
20
-16.6915142444
30
0.0000000000
11
9.2155343162
21
-16.6302710884
31
0.0000000000
11
9.2712183922
21
-16.6638216523
31
0.0000000000
11
9.3327088776
21
-16.6845367601
31
0.0000000000
11
9.3969477937
21
-16.6915142444
31
0.0000000000
0
SPLINE
5
4EA
100
AcDbEntity
8
0
100
AcDbSpline
62
9
6
CONTINUOUS
70
0
71
3
72
10
73
6
74
4
42
0.0000001000
43
0.0000001000
44
0.0000000001
12
-0.1111872535
22
-0.1437876371
32
0.0000000000
13
-0.1660118314
23
0.0740105517
33
0.0000000000
40
0.0000000000
40
0.0000000000
40
0.0000000000
40
0.0000000000
40
0.4988022965
40
0.8587503076
40
1.0000000000
40
1.0000000000
40
1.0000000000
40
1.0000000000
10
9.2155343162
20
-16.6302710884
30
0.0000000000
10
9.1970474971
20
-16.6541782896
30
0.0000000000
10
9.1642325399
20
-16.6993956038
30
0.0000000000
10
9.1253120280
20
-16.7320981008
30
0.0000000000
10
9.1023802921
20
-16.7686083188
30
0.0000000000
10
9.0945639187
20
-16.7651236630
30
0.0000000000
11
9.2155343162
21
-16.6302710884
31
0.0000000000
11
9.1587214331
21
-16.7009262160
31
0.0000000000
11
9.1150337133
21
-16.7496273995
31
0.0000000000
11
9.0945639187
21
-16.7651236630
31
0.0000000000
0
SPLINE
5
4EB
100
AcDbEntity
8
0
100
AcDbSpline
62
9
6
CONTINUOUS
70
0
71
3
72
8
73
4
74
2
42
0.0000001000
43
0.0000001000
44
0.0000000001
12
0.1898677633
22
-0.1472594263
32
0.0000000000
13
0.1911169530
23
-0.1455926079
33
0.0000000000
40
0.0000000000
40
0.0000000000
40
0.0000000000
40
0.0000000000
40
1.0000000000
40
1.0000000000
40
1.0000000000
40
1.0000000000
10
9.0250405652
20
-16.4838439264
30
0.0000000000
10
9.0883298196
20
-16.5329304019
30
0.0000000000
10
9.1518286652
20
-16.5817402191
30
0.0000000000
10
9.2155343162
20
-16.6302710884
30
0.0000000000
11
9.0250405652
21
-16.4838439264
31
0.0000000000
11
9.2155343162
21
-16.6302710884
31
0.0000000000
0
SPLINE
5
4EC
100
AcDbEntity
8
0
100
AcDbSpline
62
7
6
CONTINUOUS
70
0
71
3
72
10
73
6
74
4
42
0.0000001000
43
0.0000001000
44
0.0000000001
12
-0.1029370865
22
0.2061153525
32
0.0000000000
13
-0.0000000000
23
0.2300200817
33
0.0000000000
40
0.0000000000
40
0.0000000000
40
0.0000000000
40
0.0000000000
40
0.1509497128
40
0.5755210102
40
1.0000000000
40
1.0000000000
40
1.0000000000
40
1.0000000000
10
-18.8226906116
20
-15.9914146807
30
0.0000000000
10
-18.8278700528
20
-15.9810436630
30
0.0000000000
10
-18.8462376604
20
-15.9408152685
30
0.0000000000
10
-18.8686702310
20
-15.8670026674
30
0.0000000000
10
-18.8751001739
20
-15.8017221543
30
0.0000000000
10
-18.8751001739
20
-15.7691759237
30
0.0000000000
11
-18.8226906116
21
-15.9914146807
31
0.0000000000
11
-18.8371296818
21
-15.9597862258
31
0.0000000000
11
-18.8655175064
21
-15.8663432363
31
0.0000000000
11
-18.8751001739
21
-15.7691759237
31
0.0000000000
0
SPLINE
5
4ED
100
AcDbEntity
8
0
100
AcDbSpline
62
7
6
CONTINUOUS
70
0
71
3
72
10
73
6
74
4
42
0.0000001000
43
0.0000001000
44
0.0000000001
12
0.0000000000
22
-0.2300201048
32
0.0000000000
13
-0.1029371246
23
-0.2061153795
33
0.0000000000
40
0.0000000000
40
0.0000000000
40
0.0000000000
40
0.0000000000
40
0.4244838572
40
0.8490657677
40
1.0000000000
40
1.0000000000
40
1.0000000000
40
1.0000000000
10
25.9248998261
20
-15.7691759237
30
0.0000000000
10
25.9248998261
20
-15.8017225308
30
0.0000000000
10
25.9184696904
20
-15.8670042435
30
0.0000000000
10
25.8960367592
20
-15.9408167696
30
0.0000000000
10
25.8776691588
20
-15.9810447590
30
0.0000000000
10
25.8724902469
20
-15.9914147145
30
0.0000000000
11
25.9248998261
21
-15.7691759237
31
0.0000000000
11
25.9153169369
21
-15.8663443493
31
0.0000000000
11
25.8869279553
21
-15.9597895489
31
0.0000000000
11
25.8724902469
21
-15.9914147145
31
0.0000000000
0
SPLINE
5
4EE
100
AcDbEntity
8
0
100
AcDbSpline
62
7
6
CONTINUOUS
70
0
71
3
72
15
73
11
74
9
42
0.0000001000
43
0.0000001000
44
0.0000000001
12
0.7825580376
22
0.0000000000
32
0.0000000000
13
0.0000000000
23
-0.7825580376
33
0.0000000000
40
0.0000000000
40
0.0000000000
40
0.0000000000
40
0.0000000000
40
0.1252363087
40
0.2504399304
40
0.3755773808
40
0.5006260707
40
0.6255742037
40
0.7504356136
40
0.8752313730
40
1.0000000000
40
1.0000000000
40
1.0000000000
40
1.0000000000
10
25.4252804258
20
27.8639238715
30
0.0000000000
10
25.4579486525
20
27.8639238715
30
0.0000000000
10
25.5234568775
20
27.8574983658
30
0.0000000000
10
25.6178010294
20
27.8289447587
30
0.0000000000
10
25.7047696429
20
27.7825735273
30
0.0000000000
10
25.7809637319
20
27.7201745068
30
0.0000000000
10
25.8434702252
20
27.6441611783
30
0.0000000000
10
25.8898942667
20
27.5574510931
30
0.0000000000
10
25.9184698831
20
27.4634252849
30
0.0000000000
10
25.9248998261
20
27.3981447719
30
0.0000000000
10
25.9248998261
20
27.3655985412
30
0.0000000000
11
25.4252804258
21
27.8639238715
31
0.0000000000
11
25.5228156816
21
27.8543431003
31
0.0000000000
11
25.6165952075
21
27.8259652101
31
0.0000000000
11
25.7030023596
21
27.7798830703
31
0.0000000000
11
25.7787095757
21
27.7178784117
31
0.0000000000
11
25.8408086716
21
27.6423504861
31
0.0000000000
11
25.8869293340
21
27.5562088433
31
0.0000000000
11
25.9153171586
21
27.4627658539
31
0.0000000000
11
25.9248998261
21
27.3655985412
31
0.0000000000
0
SPLINE
5
4EF
100
AcDbEntity
8
0
100
AcDbSpline
62
7
6
CONTINUOUS
70
0
71
3
72
15
73
11
74
9
42
0.0000001000
43
0.0000001000
44
0.0000000001
12
0.0000000000
22
0.7825580375
32
0.0000000000
13
0.7825580375
23
-0.0000000000
33
0.0000000000
40
0.0000000000
40
0.0000000000
40
0.0000000000
40
0.0000000000
40
0.1247700702
40
0.2495689617
40
0.3744335968
40
0.4993830920
40
0.6244304316
40
0.7495646574
40
0.8747651397
40
1.0000000000
40
1.0000000000
40
1.0000000000
40
1.0000000000
10
-18.8751001739
20
27.3655985412
30
0.0000000000
10
-18.8751001739
20
27.3981451483
30
0.0000000000
10
-18.8686700382
20
27.4634268610
30
0.0000000000
10
-18.8400933699
20
27.5574545231
30
0.0000000000
10
-18.7936675078
20
27.6441659710
30
0.0000000000
10
-18.7311594475
20
27.7201791294
30
0.0000000000
10
-18.6549651870
20
27.7825765868
30
0.0000000000
10
-18.5679979384
20
27.8289460012
30
0.0000000000
10
-18.4736556446
20
27.8574985583
30
0.0000000000
10
-18.4081486225
20
27.8639238715
30
0.0000000000
10
-18.3754807736
20
27.8639238715
30
0.0000000000
11
-18.8751001739
21
27.3655985412
31
0.0000000000
11
-18.8655172847
21
27.4627669669
31
0.0000000000
11
-18.8371283032
21
27.5562121664
31
0.0000000000
11
-18.7910056075
21
27.6423555835
31
0.0000000000
11
-18.7289048238
21
27.7178835015
31
0.0000000000
11
-18.6531975962
21
27.7798864782
31
0.0000000000
11
-18.5667922212
21
27.8259665879
31
0.0000000000
11
-18.4730149123
21
27.8543433219
31
0.0000000000
11
-18.3754807736
21
27.8639238715
31
0.0000000000
0
SPLINE
5
4F0
100
AcDbEntity
8
0
100
AcDbSpline
62
9
6
CONTINUOUS
70
0
71
3
72
8
73
4
74
2
42
0.0000001000
43
0.0000001000
44
0.0000000001
12
-0.0001188206
22
-0.1300280518
32
0.0000000000
13
-0.0339723214
23
-0.1266570761
33
0.0000000000
40
0.0000000000
40
0.0000000000
40
0.0000000000
40
0.0000000000
40
1.0000000000
40
1.0000000000
40
1.0000000000
40
1.0000000000
10
25.8184254331
20
-15.9823519988
30
0.0000000000
10
25.8183858262
20
-16.0256946827
30
0.0000000000
10
25.8125601957
20
-16.0693490384
30
0.0000000000
10
25.8012360885
20
-16.1115680638
30
0.0000000000
11
25.8184254331
21
-15.9823519988
31
0.0000000000
11
25.8012360885
21
-16.1115680638
31
0.0000000000
0
SPLINE
5
4F1
100
AcDbEntity
8
0
100
AcDbSpline
62
9
6
CONTINUOUS
70
0
71
3
72
9
73
5
74
3
42
0.0000001000
43
0.0000001000
44
0.0000000001
12
-0.0257253065
22
-0.0959101989
32
0.0000000000
13
-0.0441812300
23
-0.0887823165
33
0.0000000000
40
0.0000000000
40
0.0000000000
40
0.0000000000
40
0.0000000000
40
0.6582388840
40
1.0000000000
40
1.0000000000
40
1.0000000000
40
1.0000000000
10
25.8012360885
20
-16.1115680638
30
0.0000000000
10
25.7955916229
20
-16.1326120046
30
0.0000000000
10
25.7849411457
20
-16.1640403120
30
0.0000000000
10
25.7712199339
20
-16.1941462518
30
0.0000000000
10
25.7661867917
20
-16.2042603664
30
0.0000000000
11
25.8012360885
21
-16.1115680638
31
0.0000000000
11
25.7802400234
21
-16.1734137192
31
0.0000000000
11
25.7661867917
21
-16.2042603664
31
0.0000000000
0
SPLINE
5
4F2
100
AcDbEntity
8
0
100
AcDbSpline
62
9
6
CONTINUOUS
70
0
71
3
72
11
73
7
74
5
42
0.0000001000
43
0.0000001000
44
0.0000000001
12
-0.0684459165
22
-0.5046068047
32
0.0000000000
13
-0.5092275870
23
-0.0003680140
33
0.0000000000
40
0.0000000000
40
0.0000000000
40
0.0000000000
40
0.0000000000
40
0.0927982892
40
0.3105117655
40
0.6280867864
40
1.0000000000
40
1.0000000000
40
1.0000000000
40
1.0000000000
10
25.8101622721
20
-15.5469895619
30
0.0000000000
10
25.8080450508
20
-15.5625984447
30
0.0000000000
10
25.7404453578
20
-15.5781299562
30
0.0000000000
10
25.6488731658
20
-15.5961622428
30
0.0000000000
10
25.4885426548
20
-15.6075016508
30
0.0000000000
10
25.3733679141
20
-15.6105147000
30
0.0000000000
10
25.3102384246
20
-15.6105603231
30
0.0000000000
11
25.8101622721
21
-15.5469895619
31
0.0000000000
11
25.7696341762
21
-15.5712908388
31
0.0000000000
11
25.6606932326
21
-15.5918598073
31
0.0000000000
11
25.4995628437
21
-15.6056333520
31
0.0000000000
11
25.3102384246
21
-15.6105603231
31
0.0000000000
0
SPLINE
5
4F3
100
AcDbEntity
8
0
100
AcDbSpline
62
9
6
CONTINUOUS
70
0
71
3
72
13
73
9
74
7
42
0.0000001000
43
0.0000001000
44
0.0000000001
12
0.0003133868
22
-0.8668050899
32
0.0000000000
13
0.1460792258
23
-0.0677575401
33
0.0000000000
40
0.0000000000
40
0.0000000000
40
0.0000000000
40
0.0000000000
40
0.2742357830
40
0.5230963464
40
0.7313514002
40
0.8866700506
40
0.9796323107
40
1.0000000000
40
1.0000000000
40
1.0000000000
40
1.0000000000
10
25.3102384246
20
-15.6105619998
30
0.0000000000
10
25.3102670719
20
-15.6897983240
30
0.0000000000
10
25.3104940007
20
-15.8400111522
30
0.0000000000
10
25.3112435891
20
-16.0549753238
30
0.0000000000
10
25.3126009603
20
-16.2217520083
30
0.0000000000
10
25.3137515905
20
-16.3779433051
30
0.0000000000
10
25.3158891457
20
-16.4141083117
30
0.0000000000
10
25.3166796023
20
-16.4825563336
30
0.0000000000
10
25.3176713678
20
-16.4830163551
30
0.0000000000
11
25.3102384246
21
-15.6105619998
31
0.0000000000
11
25.3105899936
21
-15.8482707279
31
0.0000000000
11
25.3114466245
21
-16.0639826442
31
0.0000000000
11
25.3127545493
21
-16.2444944582
31
0.0000000000
11
25.3144369658
21
-16.3791149512
31
0.0000000000
11
25.3163918861
21
-16.4596713995
31
0.0000000000
11
25.3176713678
21
-16.4830163551
31
0.0000000000
0
SPLINE
5
4F4
100
AcDbEntity
8
0
100
AcDbSpline
62
9
6
CONTINUOUS
70
0
71
3
72
13
73
9
74
7
42
0.0000001000
43
0.0000001000
44
0.0000000001
12
0.0003176892
22
-0.4356486422
32
0.0000000000
13
0.1943030325
23
0.3899181605
33
0.0000000000
40
0.0000000000
40
0.0000000000
40
0.0000000000
40
0.0000000000
40
0.2728012850
40
0.5205922442
40
0.7279034456
40
0.8824461456
40
0.9749083869
40
1.0000000000
40
1.0000000000
40
1.0000000000
40
1.0000000000
10
25.8101622722
20
-15.5469895619
30
0.0000000000
10
25.8101911609
20
-15.5866047317
30
0.0000000000
10
25.8104099347
20
-15.6617663941
30
0.0000000000
10
25.8111906109
20
-15.7691874277
30
0.0000000000
10
25.8124628120
20
-15.8529193289
30
0.0000000000
10
25.8138227302
20
-15.9303102712
30
0.0000000000
10
25.8156402930
20
-15.9499448279
30
0.0000000000
10
25.8168003076
20
-15.9856132240
30
0.0000000000
10
25.8184254331
20
-15.9823519988
30
0.0000000000
11
25.8101622722
21
-15.5469895619
31
0.0000000000
11
25.8105136879
21
-15.6658345834
31
0.0000000000
11
25.8113708690
21
-15.7737810037
31
0.0000000000
11
25.8126805999
21
-15.8640863739
31
0.0000000000
11
25.8143650147
21
-15.9313916350
31
0.0000000000
11
25.8163221771
21
-15.9716251205
31
0.0000000000
11
25.8184254331
21
-15.9823519988
31
0.0000000000
0
SPLINE
5
4F5
100
AcDbEntity
8
0
100
AcDbSpline
62
9
6
CONTINUOUS
70
0
71
3
72
11
73
7
74
5
42
0.0000001000
43
0.0000001000
44
0.0000000001
12
-0.1794210542
22
-0.4679065764
32
0.0000000000
13
-0.5011270756
23
0.0003647676
33
0.0000000000
40
0.0000000000
40
0.0000000000
40
0.0000000000
40
0.0000000000
40
0.0826512481
40
0.3005119078
40
0.6221869300
40
1.0000000000
40
1.0000000000
40
1.0000000000
40
1.0000000000
10
25.8101622722
20
25.9976087382
30
0.0000000000
10
25.8052191475
20
25.9847177173
30
0.0000000000
10
25.7369913201
20
25.9953976604
30
0.0000000000
10
25.6490232055
20
25.9754556071
30
0.0000000000
10
25.4879838967
20
25.9784539215
30
0.0000000000
10
25.3733492109
20
25.9755765474
30
0.0000000000
10
25.3102384246
20
25.9756224854
30
0.0000000000
11
25.8101622722
21
25.9976087382
31
0.0000000000
11
25.7696361561
21
25.9890559601
31
0.0000000000
11
25.6606956720
21
25.9818901391
31
0.0000000000
11
25.4995644402
21
25.9771784224
31
0.0000000000
11
25.3102384246
21
25.9756224854
31
0.0000000000
0
SPLINE
5
4F6
100
AcDbEntity
8
0
100
AcDbSpline
62
9
6
CONTINUOUS
70
0
71
3
72
10
73
6
74
4
42
0.0000001000
43
0.0000001000
44
0.0000000001
12
-0.0303032869
22
-41.5445905443
32
0.0000000000
13
0.0305256509
23
-41.5445903815
33
0.0000000000
40
0.0000000000
40
0.0000000000
40
0.0000000000
40
0.0000000000
40
0.3341013941
40
0.6675219244
40
1.0000000000
40
1.0000000000
40
1.0000000000
40
1.0000000000
10
25.8101622722
20
25.9976087382
30
0.0000000000
10
25.8067874820
20
21.3709068652
30
0.0000000000
10
25.8022845879
20
12.1269300570
30
0.0000000000
10
25.8022763631
20
-1.7212709686
30
0.0000000000
10
25.8067792356
20
-10.9427677415
30
0.0000000000
10
25.8101622722
20
-15.5469895619
30
0.0000000000
11
25.8101622722
21
25.9976087382
31
0.0000000000
11
25.8034066408
21
12.1175010710
31
0.0000000000
11
25.8034066353
21
-1.7343220241
31
0.0000000000
11
25.8101622722
21
-15.5469895619
31
0.0000000000
0
SPLINE
5
4F7
100
AcDbEntity
8
0
100
AcDbSpline
62
9
6
CONTINUOUS
70
0
71
3
72
11
73
7
74
5
42
0.0000001000
43
0.0000001000
44
0.0000000001
12
-0.0007162708
22
0.7766816559
32
0.0000000000
13
-0.7766797007
23
0.0018841609
33
0.0000000000
40
0.0000000000
40
0.0000000000
40
0.0000000000
40
0.0000000000
40
0.2488014531
40
0.4984238193
40
0.7489684585
40
1.0000000000
40
1.0000000000
40
1.0000000000
40
1.0000000000
10
25.8184254331
20
26.5154895647
30
0.0000000000
10
25.8183660300
20
26.5799027395
30
0.0000000000
10
25.7921434556
20
26.7103367603
30
0.0000000000
10
25.6807044236
20
26.8749605231
30
0.0000000000
10
25.5146764326
20
26.9852271865
30
0.0000000000
10
25.3834919530
20
27.0112264763
30
0.0000000000
10
25.3185015855
20
27.0113841375
30
0.0000000000
11
25.8184254331
21
26.5154895647
31
0.0000000000
11
25.7802416105
21
26.7049190801
31
0.0000000000
11
25.6718434797
21
26.8656617690
31
0.0000000000
11
25.5097120609
21
26.9732723466
31
0.0000000000
11
25.3185015855
21
27.0113841375
31
0.0000000000
0
SPLINE
5
4F8
100
AcDbEntity
8
0
100
AcDbSpline
62
9
6
CONTINUOUS
70
0
71
3
72
13
73
9
74
7
42
0.0000001000
43
0.0000001000
44
0.0000000001
12
-0.0649176002
22
-1.0337906381
32
0.0000000000
13
-0.0003717765
23
-1.0358268389
33
0.0000000000
40
0.0000000000
40
0.0000000000
40
0.0000000000
40
0.0000000000
40
0.0615821851
40
0.1770676343
40
0.3394801823
40
0.5389762350
40
0.7637361100
40
1.0000000000
40
1.0000000000
40
1.0000000000
40
1.0000000000
10
25.3185015855
20
27.0113841377
30
0.0000000000
10
25.3171689963
20
26.9901631089
30
0.0000000000
10
25.3160388336
20
26.9290101034
30
0.0000000000
10
25.3140148002
20
26.8118309675
30
0.0000000000
10
25.3125847977
20
26.6469949785
30
0.0000000000
10
25.3112997202
20
26.4444399794
30
0.0000000000
10
25.3104975976
20
26.2163785974
30
0.0000000000
10
25.3102677037
20
26.0571986442
30
0.0000000000
10
25.3102384246
20
25.9756224848
30
0.0000000000
11
25.3185015855
21
27.0113841377
31
0.0000000000
11
25.3163918861
21
26.9476305504
31
0.0000000000
11
25.3144369657
21
26.8280235900
31
0.0000000000
11
25.3127545493
21
26.6598007159
31
0.0000000000
11
25.3114466246
21
26.4531614762
31
0.0000000000
11
25.3105899935
21
26.2203507263
31
0.0000000000
11
25.3102384246
21
25.9756224848
31
0.0000000000
0
SPLINE
5
4F9
100
AcDbEntity
8
0
100
AcDbSpline
62
9
6
CONTINUOUS
70
0
71
3
72
13
73
9
74
7
42
0.0000001000
43
0.0000001000
44
0.0000000001
12
-0.0644135725
22
-0.5139908572
32
0.0000000000
13
-0.0003750199
23
-0.5180111669
33
0.0000000000
40
0.0000000000
40
0.0000000000
40
0.0000000000
40
0.0000000000
40
0.0613891062
40
0.1768505315
40
0.3392855798
40
0.5388816674
40
0.7637988453
40
1.0000000000
40
1.0000000000
40
1.0000000000
40
1.0000000000
10
25.8184254331
20
26.5154895647
30
0.0000000000
10
25.8171073359
20
26.5049717515
30
0.0000000000
10
25.8159592634
20
26.4744053251
30
0.0000000000
10
25.8139459901
20
26.4158895967
30
0.0000000000
10
25.8125089888
20
26.3334344654
30
0.0000000000
10
25.8112239906
20
26.2321003062
30
0.0000000000
10
25.8104213000
20
26.1180145625
30
0.0000000000
10
25.8101917989
20
26.0383936834
30
0.0000000000
10
25.8101622722
20
25.9976087382
30
0.0000000000
11
25.8184254331
21
26.5154895647
31
0.0000000000
11
25.8163221771
21
26.4837589443
31
0.0000000000
11
25.8143650147
21
26.4239806515
31
0.0000000000
11
25.8126805999
21
26.3398543219
31
0.0000000000
11
25.8113708690
21
26.2364695884
31
0.0000000000
11
25.8105136878
21
26.1199631013
31
0.0000000000
11
25.8101622722
21
25.9976087382
31
0.0000000000
0
SPLINE
5
4FA
100
AcDbEntity
8
0
100
AcDbSpline
62
9
6
CONTINUOUS
70
0
71
3
72
11
73
7
74
5
42
0.0000001000
43
0.0000001000
44
0.0000000001
12
-0.5092260125
22
0.0003679994
32
0.0000000000
13
-0.0685688393
23
0.5045885270
33
0.0000000000
40
0.0000000000
40
0.0000000000
40
0.0000000000
40
0.0000000000
40
0.3719073515
40
0.6894795278
40
0.9071952209
40
1.0000000000
40
1.0000000000
40
1.0000000000
40
1.0000000000
10
-18.2604387725
20
-15.6105567201
30
0.0000000000
10
-18.3235670717
20
-15.6105110995
30
0.0000000000
10
-18.4387405753
20
-15.6074978446
30
0.0000000000
10
-18.5990674548
20
-15.5961604398
30
0.0000000000
10
-18.6906443941
20
-15.5781261610
30
0.0000000000
10
-18.7582414475
20
-15.5625989709
30
0.0000000000
10
-18.7603626195
20
-15.5469895619
30
0.0000000000
11
-18.2604387725
21
-15.6105567201
31
0.0000000000
11
-18.4497596278
21
-15.6056300666
31
0.0000000000
11
-18.6108881348
21
-15.5918573840
31
0.0000000000
11
-18.7198301040
21
-15.5712896102
31
0.0000000000
11
-18.7603626195
21
-15.5469895619
31
0.0000000000
0
SPLINE
5
4FB
100
AcDbEntity
8
0
100
AcDbSpline
62
9
6
CONTINUOUS
70
0
71
3
72
13
73
9
74
7
42
0.0000001000
43
0.0000001000
44
0.0000000001
12
-0.0003205213
22
-0.4356489874
32
0.0000000000
13
-0.1944984406
23
0.3898211123
33
0.0000000000
40
0.0000000000
40
0.0000000000
40
0.0000000000
40
0.0000000000
40
0.2713418850
40
0.5195202417
40
0.7276784066
40
0.8826122404
40
0.9750357333
40
1.0000000000
40
1.0000000000
40
1.0000000000
40
1.0000000000
10
-18.7603626200
20
-15.5469895619
30
0.0000000000
10
-18.7603916103
20
-15.5863928344
30
0.0000000000
10
-18.7606085343
20
-15.6614008394
30
0.0000000000
10
-18.7613870498
20
-15.7687922892
30
0.0000000000
10
-18.7626578782
20
-15.8527347498
30
0.0000000000
10
-18.7640264883
20
-15.9303460923
30
0.0000000000
10
-18.7658364250
20
-15.9499949901
30
0.0000000000
10
-18.7670072772
20
-15.9855958649
30
0.0000000000
10
-18.7686257809
20
-15.9823519988
30
0.0000000000
11
-18.7603626200
21
-15.5469895619
31
0.0000000000
11
-18.7607106523
21
-15.6651988990
31
0.0000000000
11
-18.7615660703
21
-15.7733141941
31
0.0000000000
11
-18.7628789807
21
-15.8639886078
31
0.0000000000
11
-18.7645677157
21
-15.9314642650
31
0.0000000000
11
-18.7665269466
21
-15.9716807812
31
0.0000000000
11
-18.7686257809
21
-15.9823519988
31
0.0000000000
0
SPLINE
5
4FC
100
AcDbEntity
8
0
100
AcDbSpline
62
9
6
CONTINUOUS
70
0
71
3
72
12
73
8
74
6
42
0.0000001000
43
0.0000001000
44
0.0000000001
12
-0.0003222255
22
-0.8701354620
32
0.0000000000
13
-0.2018933993
23
0.7273111305
33
0.0000000000
40
0.0000000000
40
0.0000000000
40
0.0000000000
40
0.0000000000
40
0.3253531251
40
0.6096845975
40
0.8284060797
40
0.9626503012
40
1.0000000000
40
1.0000000000
40
1.0000000000
40
1.0000000000
10
-18.2604387724
20
-15.6105619998
30
0.0000000000
10
-18.2604737181
20
-15.7049290971
30
0.0000000000
10
-18.2606094345
20
-15.8854522802
30
0.0000000000
10
-18.2622441871
20
-16.1119593186
30
0.0000000000
10
-18.2624948622
20
-16.3305005877
30
0.0000000000
10
-18.2666724522
20
-16.3834421627
30
0.0000000000
10
-18.2660177234
20
-16.4909904762
30
0.0000000000
10
-18.2685312760
20
-16.4819355257
30
0.0000000000
11
-18.2604387724
21
-15.6105619998
31
0.0000000000
11
-18.2609225381
21
-15.8936628977
31
0.0000000000
11
-18.2621197372
21
-16.1410669151
31
0.0000000000
11
-18.2639254221
21
-16.3313756800
31
0.0000000000
11
-18.2661847123
21
-16.4481644947
31
0.0000000000
11
-18.2685312760
21
-16.4819355257
31
0.0000000000
0
SPLINE
5
4FD
100
AcDbEntity
8
0
100
AcDbSpline
62
9
6
CONTINUOUS
70
0
71
3
72
11
73
7
74
5
42
0.0000001000
43
0.0000001000
44
0.0000000001
12
-0.5011270758
22
-0.0003647798
32
0.0000000000
13
-0.1794209515
23
0.4679066161
33
0.0000000000
40
0.0000000000
40
0.0000000000
40
0.0000000000
40
0.0000000000
40
0.3778130738
40
0.6994880970
40
0.9173487552
40
1.0000000000
40
1.0000000000
40
1.0000000000
40
1.0000000000
10
-18.2604387724
20
25.9756224851
30
0.0000000000
10
-18.3235495594
20
25.9755765456
30
0.0000000000
10
-18.4381842453
20
25.9784539178
30
0.0000000000
10
-18.5992235574
20
25.9754556049
30
0.0000000000
10
-18.6871916661
20
25.9953976605
30
0.0000000000
10
-18.7554194984
20
25.9847177167
30
0.0000000000
10
-18.7603626200
20
25.9976087382
30
0.0000000000
11
-18.2604387724
21
25.9756224851
31
0.0000000000
11
-18.4497647900
21
25.9771784195
31
0.0000000000
11
-18.6108960224
21
25.9818901375
31
0.0000000000
11
-18.7198365056
21
25.9890559597
31
0.0000000000
11
-18.7603626200
21
25.9976087382
31
0.0000000000
0
SPLINE
5
4FE
100
AcDbEntity
8
0
100
AcDbSpline
62
9
6
CONTINUOUS
70
0
71
3
72
10
73
6
74
4
42
0.0000001000
43
0.0000001000
44
0.0000000001
12
0.0303032983
22
-41.5445905443
32
0.0000000000
13
-0.0305256500
23
-41.5445903815
33
0.0000000000
40
0.0000000000
40
0.0000000000
40
0.0000000000
40
0.0000000000
40
0.3341018316
40
0.6675221741
40
1.0000000000
40
1.0000000000
40
1.0000000000
40
1.0000000000
10
-18.7603626200
20
25.9976087382
30
0.0000000000
10
-18.7569878242
20
21.3709008075
30
0.0000000000
10
-18.7524849336
20
12.1269205413
30
0.0000000000
10
-18.7524767141
20
-1.7212804844
30
0.0000000000
10
-18.7569795861
20
-10.9427711995
30
0.0000000000
10
-18.7603626200
20
-15.5469895619
30
0.0000000000
11
-18.7603626200
21
25.9976087382
31
0.0000000000
11
-18.7536069844
21
12.1174828977
31
0.0000000000
11
-18.7536069855
21
-1.7343323981
31
0.0000000000
11
-18.7603626200
21
-15.5469895619
31
0.0000000000
0
SPLINE
5
4FF
100
AcDbEntity
8
0
100
AcDbSpline
62
9
6
CONTINUOUS
70
0
71
3
72
11
73
7
74
5
42
0.0000001000
43
0.0000001000
44
0.0000000001
12
-0.7766797065
22
-0.0018841368
32
0.0000000000
13
-0.0007162677
23
-0.7766816615
33
0.0000000000
40
0.0000000000
40
0.0000000000
40
0.0000000000
40
0.0000000000
40
0.2510344288
40
0.5015803869
40
0.7512018818
40
1.0000000000
40
1.0000000000
40
1.0000000000
40
1.0000000000
10
-18.2687019333
20
27.0113841377
30
0.0000000000
10
-18.3336930488
20
27.0112264767
30
0.0000000000
10
-18.4648786653
20
26.9852266587
30
0.0000000000
10
-18.6309068177
20
26.8749585417
30
0.0000000000
10
-18.7423444014
20
26.7103347549
30
0.0000000000
10
-18.7685663789
20
26.5799018766
30
0.0000000000
10
-18.7686257809
20
26.5154895647
30
0.0000000000
11
-18.2687019333
21
27.0113841377
31
0.0000000000
11
-18.4599145239
21
26.9732714792
31
0.0000000000
11
-18.6220461953
21
26.8656594273
31
0.0000000000
11
-18.7304429801
21
26.7049166452
31
0.0000000000
11
-18.7686257809
21
26.5154895647
31
0.0000000000
0
SPLINE
5
500
100
AcDbEntity
8
0
100
AcDbSpline
62
9
6
CONTINUOUS
70
0
71
3
72
13
73
9
74
7
42
0.0000001000
43
0.0000001000
44
0.0000000001
12
0.0643935699
22
-0.5139933835
32
0.0000000000
13
0.0003783381
23
-0.5180111842
33
0.0000000000
40
0.0000000000
40
0.0000000000
40
0.0000000000
40
0.0000000000
40
0.0611962676
40
0.1766649345
40
0.3395122902
40
0.5398821035
40
0.7650912566
40
1.0000000000
40
1.0000000000
40
1.0000000000
40
1.0000000000
10
-18.7686257809
20
26.5154895647
30
0.0000000000
10
-18.7673122322
20
26.5050047391
30
0.0000000000
10
-18.7661608390
20
26.4744707754
30
0.0000000000
10
-18.7641466039
20
26.4159158097
30
0.0000000000
10
-18.7627058634
20
26.3332546524
30
0.0000000000
10
-18.7614198587
20
26.2316652808
30
0.0000000000
10
-18.7606199629
20
26.1176186642
30
0.0000000000
10
-18.7603922450
20
26.0381705236
30
0.0000000000
10
-18.7603626200
20
25.9976087382
30
0.0000000000
11
-18.7686257809
21
26.5154895647
31
0.0000000000
11
-18.7665269466
21
26.4838587618
31
0.0000000000
11
-18.7645677157
21
26.4240767813
31
0.0000000000
11
-18.7628789807
21
26.3397369122
31
0.0000000000
11
-18.7615660703
21
26.2359513842
31
0.0000000000
11
-18.7607106523
21
26.1192936293
31
0.0000000000
11
-18.7603626200
21
25.9976087382
31
0.0000000000
0
SPLINE
5
501
100
AcDbEntity
8
0
100
AcDbSpline
62
9
6
CONTINUOUS
70
0
71
3
72
12
73
8
74
6
42
0.0000001000
43
0.0000001000
44
0.0000000001
12
0.0649533063
22
-1.0337871238
32
0.0000000000
13
0.0003807868
23
-1.0358255666
33
0.0000000000
40
0.0000000000
40
0.0000000000
40
0.0000000000
40
0.0000000000
40
0.0805523727
40
0.2368817382
40
0.4554383100
40
0.7173641519
40
1.0000000000
40
1.0000000000
40
1.0000000000
40
1.0000000000
10
-18.2687019333
20
27.0113841377
30
0.0000000000
10
-18.2669578857
20
26.9836261358
30
0.0000000000
10
-18.2658515661
20
26.9018018802
30
0.0000000000
10
-18.2633793678
20
26.7445989174
30
0.0000000000
10
-18.2619571751
20
26.5247125380
30
0.0000000000
10
-18.2607572650
20
26.2612347912
30
0.0000000000
10
-18.2604746471
20
26.0732096306
30
0.0000000000
10
-18.2604387724
20
25.9756224848
30
0.0000000000
11
-18.2687019333
21
27.0113841377
31
0.0000000000
11
-18.2661847123
21
26.9279839042
31
0.0000000000
11
-18.2639254221
21
26.7660697016
31
0.0000000000
11
-18.2621197372
21
26.5396904028
31
0.0000000000
11
-18.2609225381
21
26.2683835423
31
0.0000000000
11
-18.2604387724
21
25.9756224848
31
0.0000000000
0
SPLINE
5
502
100
AcDbEntity
8
0
100
AcDbSpline
62
9
6
CONTINUOUS
70
0
71
3
72
9
73
5
74
3
42
0.0000001000
43
0.0000001000
44
0.0000000001
12
-0.0438790450
22
0.0883916252
32
0.0000000000
13
-0.0255994341
23
0.0954409160
33
0.0000000000
40
0.0000000000
40
0.0000000000
40
0.0000000000
40
0.0000000000
40
0.3385245564
40
1.0000000000
40
1.0000000000
40
1.0000000000
40
1.0000000000
10
-18.7166031043
20
-16.2038258520
30
0.0000000000
10
-18.7215544824
20
-16.1938516068
30
0.0000000000
10
-18.7351936057
20
-16.1638865350
30
0.0000000000
10
-18.7457919707
20
-16.1326120044
30
0.0000000000
10
-18.7514364364
20
-16.1115680637
30
0.0000000000
11
-18.7166031043
21
-16.2038258520
31
0.0000000000
11
-18.7304403713
21
-16.1734137190
31
0.0000000000
11
-18.7514364364
21
-16.1115680637
31
0.0000000000
0
SPLINE
5
503
100
AcDbEntity
8
0
100
AcDbSpline
62
9
6
CONTINUOUS
70
0
71
3
72
8
73
4
74
2
42
0.0000001000
43
0.0000001000
44
0.0000000001
12
-0.0339723214
22
0.1266570760
32
0.0000000000
13
-0.0001188206
23
0.1300280516
33
0.0000000000
40
0.0000000000
40
0.0000000000
40
0.0000000000
40
0.0000000000
40
1.0000000000
40
1.0000000000
40
1.0000000000
40
1.0000000000
10
-18.7514364364
20
-16.1115680637
30
0.0000000000
10
-18.7627605435
20
-16.0693490383
30
0.0000000000
10
-18.7685861740
20
-16.0256946827
30
0.0000000000
10
-18.7686257809
20
-15.9823519988
30
0.0000000000
11
-18.7514364364
21
-16.1115680637
31
0.0000000000
11
-18.7686257809
21
-15.9823519988
31
0.0000000000
0
SPLINE
5
504
100
AcDbEntity
8
0
100
AcDbSpline
62
6
6
CONTINUOUS
70
0
71
3
72
10
73
6
74
4
42
0.0000001000
43
0.0000001000
44
0.0000000001
12
-0.1444144255
22
-0.0184070312
32
0.0000000000
13
-0.1444144255
23
0.0184070312
33
0.0000000000
40
0.0000000000
40
0.0000000000
40
0.0000000000
40
0.0000000000
40
0.3341228435
40
0.6658799625
40
1.0000000000
40
1.0000000000
40
1.0000000000
40
1.0000000000
10
19.8475170648
20
-9.4806870680
30
0.0000000000
10
19.8314330120
20
-9.4827371379
30
0.0000000000
10
19.7991897271
20
-9.4854804340
30
0.0000000000
10
19.7506096523
20
-9.4854804165
30
0.0000000000
10
19.7183665051
20
-9.4827371207
30
0.0000000000
10
19.7022825874
20
-9.4806870680
30
0.0000000000
11
19.8475170648
21
-9.4806870680
31
0.0000000000
11
19.7990486832
21
-9.4847994716
31
0.0000000000
11
19.7507505604
21
-9.4847994543
31
0.0000000000
11
19.7022825874
21
-9.4806870680
31
0.0000000000
0
SPLINE
5
505
100
AcDbEntity
8
0
100
AcDbSpline
62
6
6
CONTINUOUS
70
0
71
3
72
10
73
6
74
4
42
0.0000001000
43
0.0000001000
44
0.0000000001
12
0.1444144255
22
-0.0184070312
32
0.0000000000
13
0.1444144255
23
0.0184070312
33
0.0000000000
40
0.0000000000
40
0.0000000000
40
0.0000000000
40
0.0000000000
40
0.3341228435
40
0.6658799625
40
1.0000000000
40
1.0000000000
40
1.0000000000
40
1.0000000000
10
9.7022825874
20
-8.6056870680
30
0.0000000000
10
9.7183666402
20
-8.6077371379
30
0.0000000000
10
9.7506099250
20
-8.6104804340
30
0.0000000000
10
9.7991899999
20
-8.6104804165
30
0.0000000000
10
9.8314331471
20
-8.6077371207
30
0.0000000000
10
9.8475170648
20
-8.6056870680
30
0.0000000000
11
9.7022825874
21
-8.6056870680
31
0.0000000000
11
9.7507509689
21
-8.6097994716
31
0.0000000000
11
9.7990490917
21
-8.6097994543
31
0.0000000000
11
9.8475170648
21
-8.6056870680
31
0.0000000000
0
SPLINE
5
506
100
AcDbEntity
8
0
100
AcDbSpline
62
9
6
CONTINUOUS
70
0
71
3
72
11
73
7
74
5
42
0.0000001000
43
0.0000001000
44
0.0000000001
12
0.0174485615
22
-0.4994334767
32
0.0000000000
13
0.4994337544
23
0.0174406110
33
0.0000000000
40
0.0000000000
40
0.0000000000
40
0.0000000000
40
0.0000000000
40
0.3826055132
40
0.7069107629
40
0.9236352598
40
1.0000000000
40
1.0000000000
40
1.0000000000
40
1.0000000000
10
-64.0439326983
20
-15.9823519988
30
0.0000000000
10
-64.0417073930
20
-16.0460473327
30
0.0000000000
10
-64.0341489509
20
-16.1597543507
30
0.0000000000
10
-64.0379621409
20
-16.3274193997
30
0.0000000000
10
-64.0107975914
20
-16.4025172096
30
0.0000000000
10
-64.0305029955
20
-16.4817308229
30
0.0000000000
10
-64.0177899525
20
-16.4812868736
30
0.0000000000
11
-64.0439326983
21
-15.9823519988
31
0.0000000000
11
-64.0365946550
21
-16.1734137192
31
0.0000000000
11
-64.0290505691
21
-16.3353057550
31
0.0000000000
11
-64.0224476412
21
-16.4434097973
31
0.0000000000
11
-64.0177899525
21
-16.4812868736
31
0.0000000000
0
SPLINE
5
507
100
AcDbEntity
8
0
100
AcDbSpline
62
9
6
CONTINUOUS
70
0
71
3
72
13
73
9
74
7
42
0.0000001000
43
0.0000001000
44
0.0000000001
12
0.0945302038
22
-0.7303805968
32
0.0000000000
13
0.7360218063
23
0.0257619150
33
0.0000000000
40
0.0000000000
40
0.0000000000
40
0.0000000000
40
0.0000000000
40
0.1666362131
40
0.3335036800
40
0.5002504221
40
0.6670419633
40
0.8338494843
40
1.0000000000
40
1.0000000000
40
1.0000000000
40
1.0000000000
10
-64.5572264424
20
-15.5469895619
30
0.0000000000
10
-64.5519757240
20
-15.5875588475
30
0.0000000000
10
-64.5313142651
20
-15.6677956381
30
0.0000000000
10
-64.4720280456
20
-15.7767013349
30
0.0000000000
10
-64.3879385522
20
-15.8679745050
30
0.0000000000
10
-64.2841242031
20
-15.9359489406
30
0.0000000000
10
-64.1670901531
20
-15.9765444003
30
0.0000000000
10
-64.0846961658
20
-15.9837787840
30
0.0000000000
10
-64.0439326983
20
-15.9823519988
30
0.0000000000
11
-64.5572264424
21
-15.5469895619
31
0.0000000000
11
-64.5266193570
21
-15.6658345834
31
0.0000000000
11
-64.4678798085
21
-15.7737810037
31
0.0000000000
11
-64.3846580612
21
-15.8640863739
31
0.0000000000
11
-64.2819009423
21
-15.9313916350
31
0.0000000000
11
-64.1658269069
21
-15.9716251205
31
0.0000000000
11
-64.0439326983
21
-15.9823519988
31
0.0000000000
0
SPLINE
5
508
100
AcDbEntity
8
0
100
AcDbSpline
62
9
6
CONTINUOUS
70
0
71
3
72
10
73
6
74
4
42
0.0000001000
43
0.0000001000
44
0.0000000001
12
1.8977262350
22
-41.6708771776
32
0.0000000000
13
5.3671769561
23
-41.3673395463
33
0.0000000000
40
0.0000000000
40
0.0000000000
40
0.0000000000
40
0.0000000000
40
0.3333324993
40
0.6666669317
40
1.0000000000
40
1.0000000000
40
1.0000000000
40
1.0000000000
10
-68.1919078244
20
25.9976087382
30
0.0000000000
10
-67.9810498814
20
21.3675228593
30
0.0000000000
10
-67.4304026775
20
12.1126566049
30
0.0000000000
10
-66.2183885315
20
-1.7407313220
30
0.0000000000
10
-65.1535789634
20
-10.9506221552
30
0.0000000000
10
-64.5572264424
20
-15.5469895619
30
0.0000000000
11
-68.1919078244
21
25.9976087382
31
0.0000000000
11
-67.3660640103
21
12.1175010710
31
0.0000000000
11
-66.1541868339
21
-1.7343220241
31
0.0000000000
11
-64.5572264424
21
-15.5469895619
31
0.0000000000
0
SPLINE
5
509
100
AcDbEntity
8
0
100
AcDbSpline
62
9
6
CONTINUOUS
70
0
71
3
72
11
73
7
74
5
42
0.0000001000
43
0.0000001000
44
0.0000000001
12
-0.0695421304
22
0.4948758814
32
0.0000000000
13
0.4948747597
23
0.0695501118
33
0.0000000000
40
0.0000000000
40
0.0000000000
40
0.0000000000
40
0.0000000000
40
0.3825978651
40
0.7069034074
40
0.9236325374
40
1.0000000000
40
1.0000000000
40
1.0000000000
40
1.0000000000
10
-67.7620120594
20
26.5154895647
30
0.0000000000
10
-67.7708809496
20
26.5786023832
30
0.0000000000
10
-67.7831822725
20
26.6918933398
30
0.0000000000
10
-67.8160521462
20
26.8563484398
30
0.0000000000
10
-67.8023406155
20
26.9350233897
30
0.0000000000
10
-67.8355030572
20
27.0096136823
30
0.0000000000
10
-67.8229056140
20
27.0113841375
30
0.0000000000
11
-67.7620120594
21
26.5154895647
31
0.0000000000
11
-67.7879624817
21
26.7049190801
31
0.0000000000
11
-67.8086453104
21
26.8656617690
31
0.0000000000
11
-67.8209150925
21
26.9732723466
31
0.0000000000
11
-67.8229056140
21
27.0113841375
31
0.0000000000
0
SPLINE
5
50A
100
AcDbEntity
8
0
100
AcDbSpline
62
9
6
CONTINUOUS
70
0
71
3
72
13
73
9
74
7
42
0.0000001000
43
0.0000001000
44
0.0000000001
12
-0.7293134957
22
-0.1024382772
32
0.0000000000
13
0.0337351570
23
-0.7356994732
33
0.0000000000
40
0.0000000000
40
0.0000000000
40
0.0000000000
40
0.0000000000
40
0.1661505156
40
0.3329580366
40
0.4997495779
40
0.6664963199
40
0.8333637869
40
1.0000000000
40
1.0000000000
40
1.0000000000
40
1.0000000000
10
-67.7620120594
20
26.5154895647
30
0.0000000000
10
-67.8024039972
20
26.5098161738
30
0.0000000000
10
-67.8822899965
20
26.4883841276
30
0.0000000000
10
-67.9904967094
20
26.4280826567
30
0.0000000000
10
-68.0809302480
20
26.3431137322
30
0.0000000000
10
-68.1478928130
20
26.2386252194
30
0.0000000000
10
-68.1873670674
20
26.1210791010
30
0.0000000000
10
-68.1937816573
20
26.0384734629
30
0.0000000000
10
-68.1919078244
20
25.9976087382
30
0.0000000000
11
-67.7620120594
21
26.5154895647
31
0.0000000000
11
-67.8801917182
21
26.4837589443
31
0.0000000000
11
-67.9875158569
21
26.4239806515
31
0.0000000000
11
-68.0770244282
21
26.3398543219
31
0.0000000000
11
-68.1433004870
21
26.2364695884
31
0.0000000000
11
-68.1824029510
21
26.1199631013
31
0.0000000000
11
-68.1919078244
21
25.9976087382
31
0.0000000000
0
SPLINE
5
50B
100
AcDbEntity
8
0
100
AcDbSpline
62
9
6
CONTINUOUS
70
0
71
3
72
11
73
7
74
5
42
0.0000001000
43
0.0000001000
44
0.0000000001
12
-0.1950708665
22
-0.0239589883
32
0.0000000000
13
0.0239517991
23
-0.1950717494
33
0.0000000000
40
0.0000000000
40
0.0000000000
40
0.0000000000
40
0.0000000000
40
0.3839811200
40
0.7081454953
40
0.9242114398
40
1.0000000000
40
1.0000000000
40
1.0000000000
40
1.0000000000
10
-59.4041111130
20
5.4218174572
30
0.0000000000
10
-59.4290789563
20
5.4187508575
30
0.0000000000
10
-59.4734106995
20
5.4117699042
30
0.0000000000
10
-59.5395045996
20
5.4088999453
30
0.0000000000
10
-59.5677223742
20
5.3948437126
30
0.0000000000
10
-59.5997349528
20
5.4023716576
30
0.0000000000
10
-59.5991298621
20
5.3974435886
30
0.0000000000
11
-59.4041111130
21
5.4218174572
31
0.0000000000
11
-59.4790107732
21
5.4125862067
31
0.0000000000
11
-59.5422347215
21
5.4047298921
31
0.0000000000
11
-59.5843661539
21
5.3994186614
31
0.0000000000
11
-59.5991298621
21
5.3974435886
31
0.0000000000
0
SPLINE
5
50C
100
AcDbEntity
8
0
100
AcDbSpline
62
9
6
CONTINUOUS
70
0
71
3
72
12
73
8
74
6
42
0.0000001000
43
0.0000001000
44
0.0000000001
12
-0.0238203240
22
-0.1940005060
32
0.0000000000
13
0.0238201852
23
-0.1940005231
33
0.0000000000
40
0.0000000000
40
0.0000000000
40
0.0000000000
40
0.0000000000
40
0.2004719354
40
0.4004365848
40
0.6001639691
40
0.7999274831
40
1.0000000000
40
1.0000000000
40
1.0000000000
40
1.0000000000
10
-59.4041111130
20
5.6168084067
30
0.0000000000
10
-59.4057028818
20
5.6038445211
30
0.0000000000
10
-59.4082484885
20
5.5778671524
30
0.0000000000
10
-59.4101549754
20
5.5387967341
30
0.0000000000
10
-59.4101520969
20
5.4997248095
30
0.0000000000
10
-59.4082427739
20
5.4606937466
30
0.0000000000
10
-59.4056997011
20
5.4347555149
30
0.0000000000
10
-59.4041111130
20
5.4218174572
30
0.0000000000
11
-59.4041111130
21
5.6168084067
31
0.0000000000
11
-59.4079325122
21
5.5778114653
31
0.0000000000
11
-59.4098374554
21
5.5387733404
31
0.0000000000
11
-59.4098345872
21
5.4997351407
31
0.0000000000
11
-59.4079268019
21
5.4607365149
31
0.0000000000
11
-59.4041111130
21
5.4218174572
31
0.0000000000
0
SPLINE
5
50D
100
AcDbEntity
8
0
100
AcDbSpline
62
9
6
CONTINUOUS
70
0
71
3
72
11
73
7
74
5
42
0.0000001000
43
0.0000001000
44
0.0000000001
12
-0.1950708665
22
0.0239589883
32
0.0000000000
13
0.0239517991
23
0.1950717494
33
0.0000000000
40
0.0000000000
40
0.0000000000
40
0.0000000000
40
0.0000000000
40
0.3839811182
40
0.7081454934
40
0.9242114391
40
1.0000000000
40
1.0000000000
40
1.0000000000
40
1.0000000000
10
-59.4041111130
20
5.6168084067
30
0.0000000000
10
-59.4290789562
20
5.6198750064
30
0.0000000000
10
-59.4734106992
20
5.6268559597
30
0.0000000000
10
-59.5395045993
20
5.6297259186
30
0.0000000000
10
-59.5677223740
20
5.6437821514
30
0.0000000000
10
-59.5997349528
20
5.6362542063
30
0.0000000000
10
-59.5991298621
20
5.6411822754
30
0.0000000000
11
-59.4041111130
21
5.6168084067
31
0.0000000000
11
-59.4790107728
21
5.6260396572
31
0.0000000000
11
-59.5422347212
21
5.6338959718
31
0.0000000000
11
-59.5843661538
21
5.6392072025
31
0.0000000000
11
-59.5991298621
21
5.6411822754
31
0.0000000000
0
SPLINE
5
50E
100
AcDbEntity
8
0
100
AcDbSpline
62
9
6
CONTINUOUS
70
0
71
3
72
10
73
6
74
4
42
0.0000001000
43
0.0000001000
44
0.0000000001
12
0.0070665669
22
0.1012072389
32
0.0000000000
13
0.1014222376
23
-0.0025241393
33
0.0000000000
40
0.0000000000
40
0.0000000000
40
0.0000000000
40
0.0000000000
40
0.5469299649
40
0.8852992039
40
1.0000000000
40
1.0000000000
40
1.0000000000
40
1.0000000000
10
-56.6993890985
20
27.8045457315
30
0.0000000000
10
-56.6981007927
20
27.8229968220
30
0.0000000000
10
-56.6991955603
20
27.8565246079
30
0.0000000000
10
-56.6886646787
20
27.8809970860
30
0.0000000000
10
-56.6958056413
20
27.9058196410
30
0.0000000000
10
-56.6919279041
20
27.9057231340
30
0.0000000000
11
-56.6993890985
21
27.8045457315
31
0.0000000000
11
-56.6954773692
21
27.8598957147
31
0.0000000000
11
-56.6929534522
21
27.8941315992
31
0.0000000000
11
-56.6919279041
21
27.9057231340
31
0.0000000000
0
SPLINE
5
50F
100
AcDbEntity
8
0
100
AcDbSpline
62
9
6
CONTINUOUS
70
0
71
3
72
10
73
6
74
4
42
0.0000001000
43
0.0000001000
44
0.0000000001
12
0.0313586432
22
0.2553755288
32
0.0000000000
13
0.2571717936
23
-0.0079179387
33
0.0000000000
40
0.0000000000
40
0.0000000000
40
0.0000000000
40
0.0000000000
40
0.3018982448
40
0.6349480388
40
1.0000000000
40
1.0000000000
40
1.0000000000
40
1.0000000000
10
-56.8944078860
20
27.6693750401
30
0.0000000000
10
-56.8912521795
20
27.6950741814
30
0.0000000000
10
-56.8662947346
20
27.7477119084
30
0.0000000000
10
-56.7916397686
20
27.7960674085
30
0.0000000000
10
-56.7306827877
20
27.8055092178
30
0.0000000000
10
-56.6993890985
20
27.8045457315
30
0.0000000000
11
-56.8944078860
21
27.6693750401
31
0.0000000000
11
-56.8624451182
21
27.7401706656
31
0.0000000000
11
-56.7920168157
21
27.7889856669
31
0.0000000000
11
-56.6993890985
21
27.8045457315
31
0.0000000000
0
SPLINE
5
510
100
AcDbEntity
8
0
100
AcDbSpline
62
9
6
CONTINUOUS
70
0
71
3
72
10
73
6
74
4
42
0.0000001000
43
0.0000001000
44
0.0000000001
12
0.6211386715
22
5.0952258453
32
0.0000000000
13
0.6211466193
23
5.0952248764
33
0.0000000000
40
0.0000000000
40
0.0000000000
40
0.0000000000
40
0.0000000000
40
0.3624472038
40
0.6965849222
40
1.0000000000
40
1.0000000000
40
1.0000000000
40
1.0000000000
10
-57.3205310687
20
22.7093220387
30
0.0000000000
10
-57.2454877438
20
23.3249054921
30
0.0000000000
10
-57.1012617368
20
24.5079912362
30
0.0000000000
10
-56.8942142111
20
26.2063996926
30
0.0000000000
10
-56.7622108869
20
27.2892248024
30
0.0000000000
10
-56.6993891369
20
27.8045474865
30
0.0000000000
11
-57.3205310687
21
22.7093220387
31
0.0000000000
11
-57.0954002870
21
24.5560723006
31
0.0000000000
11
-56.8878532755
21
26.2585792988
31
0.0000000000
11
-56.6993891369
21
27.8045474865
31
0.0000000000
0
SPLINE
5
511
100
AcDbEntity
8
0
100
AcDbSpline
62
9
6
CONTINUOUS
70
0
71
3
72
10
73
6
74
4
42
0.0000001000
43
0.0000001000
44
0.0000000001
12
0.0287402279
22
0.2340653657
32
0.0000000000
13
0.2353171378
23
-0.0154415284
33
0.0000000000
40
0.0000000000
40
0.0000000000
40
0.0000000000
40
0.0000000000
40
0.2652697774
40
0.6008648228
40
1.0000000000
40
1.0000000000
40
1.0000000000
40
1.0000000000
10
-57.5155498177
20
22.6105799670
30
0.0000000000
10
-57.5130085131
20
22.6312767894
30
0.0000000000
10
-57.4848054417
20
22.6750374342
30
0.0000000000
10
-57.4103288711
20
22.7067738131
30
0.0000000000
10
-57.3518388457
20
22.7113762640
30
0.0000000000
10
-57.3205310632
20
22.7093218450
30
0.0000000000
11
-57.5155498177
21
22.6105799670
31
0.0000000000
11
-57.4848811913
21
22.6651032241
31
0.0000000000
11
-57.4142746236
21
22.7008527352
31
0.0000000000
11
-57.3205310632
21
22.7093218450
31
0.0000000000
0
SPLINE
5
512
100
AcDbEntity
8
0
100
AcDbSpline
62
9
6
CONTINUOUS
70
0
71
3
72
11
73
7
74
5
42
0.0000001000
43
0.0000001000
44
0.0000000001
12
0.1354219408
22
1.2320528481
32
0.0000000000
13
0.1370876751
23
1.2318686180
33
0.0000000000
40
0.0000000000
40
0.0000000000
40
0.0000000000
40
0.0000000000
40
0.2685049789
40
0.5293255489
40
0.7753810930
40
1.0000000000
40
1.0000000000
40
1.0000000000
40
1.0000000000
10
-57.4566819673
20
21.4773442884
30
0.0000000000
10
-57.4445614789
20
21.5876150631
30
0.0000000000
10
-57.4206376039
20
21.8049974749
30
0.0000000000
10
-57.3854991986
20
22.1234191973
30
0.0000000000
10
-57.3522552966
20
22.4238080330
30
0.0000000000
10
-57.3307950783
20
22.6170830340
30
0.0000000000
10
-57.3205309171
20
22.7093166949
30
0.0000000000
11
-57.4566819673
21
21.4773442884
31
0.0000000000
11
-57.4202738541
21
21.8081514817
31
0.0000000000
11
-57.3848127803
21
22.1294807617
31
0.0000000000
11
-57.3512620268
21
22.4326088892
31
0.0000000000
11
-57.3205309171
21
22.7093166949
31
0.0000000000
0
SPLINE
5
513
100
AcDbEntity
8
0
100
AcDbSpline
62
9
6
CONTINUOUS
70
0
71
3
72
11
73
7
74
5
42
0.0000001000
43
0.0000001000
44
0.0000000001
12
-0.1370872559
22
1.2318663238
32
0.0000000000
13
-0.1354196597
23
1.2320507583
33
0.0000000000
40
0.0000000000
40
0.0000000000
40
0.0000000000
40
0.0000000000
40
0.2246231718
40
0.4706644635
40
0.7314956224
40
1.0000000000
40
1.0000000000
40
1.0000000000
40
1.0000000000
10
-57.3205308503
20
-11.6706884759
30
0.0000000000
10
-57.3307951751
20
-11.5784532356
30
0.0000000000
10
-57.3522553055
20
-11.3851827439
30
0.0000000000
10
-57.3854990224
20
-11.0847942084
30
0.0000000000
10
-57.4206370341
20
-10.7663748203
30
0.0000000000
10
-57.4445617742
20
-10.5489887653
30
0.0000000000
10
-57.4566820313
20
-10.4387184246
30
0.0000000000
11
-57.3205308503
21
-11.6706884759
31
0.0000000000
11
-57.3512627475
21
-11.3939759649
31
0.0000000000
11
-57.3848114849
21
-11.0908659634
31
0.0000000000
11
-57.4202739261
21
-10.7695242406
31
0.0000000000
11
-57.4566820313
21
-10.4387184246
31
0.0000000000
0
SPLINE
5
514
100
AcDbEntity
8
0
100
AcDbSpline
62
9
6
CONTINUOUS
70
0
71
3
72
10
73
6
74
4
42
0.0000001000
43
0.0000001000
44
0.0000000001
12
0.0287613243
22
-0.2340569177
32
0.0000000000
13
0.2353112757
23
0.0154420855
33
0.0000000000
40
0.0000000000
40
0.0000000000
40
0.0000000000
40
0.0000000000
40
0.2652710082
40
0.6008674508
40
1.0000000000
40
1.0000000000
40
1.0000000000
40
1.0000000000
10
-57.5155498174
20
-11.5719541030
30
0.0000000000
10
-57.5130066355
20
-11.5926502745
30
0.0000000000
10
-57.4848011649
20
-11.6364074234
30
0.0000000000
10
-57.4103261779
20
-11.6681411517
30
0.0000000000
10
-57.3518376468
20
-11.6727429555
30
0.0000000000
10
-57.3205308503
20
-11.6706884759
30
0.0000000000
11
-57.5155498174
21
-11.5719541030
31
0.0000000000
11
-57.4848778018
21
-11.6264740173
31
0.0000000000
11
-57.4142715707
21
-11.6622206038
31
0.0000000000
11
-57.3205308503
21
-11.6706884759
31
0.0000000000
0
SPLINE
5
515
100
AcDbEntity
8
0
100
AcDbSpline
62
9
6
CONTINUOUS
70
0
71
3
72
10
73
6
74
4
42
0.0000001000
43
0.0000001000
44
0.0000000001
12
-0.6211460200
22
5.0952249494
32
0.0000000000
13
-0.6211383170
23
5.0952258885
33
0.0000000000
40
0.0000000000
40
0.0000000000
40
0.0000000000
40
0.0000000000
40
0.3034157619
40
0.6375535862
40
1.0000000000
40
1.0000000000
40
1.0000000000
40
1.0000000000
10
-56.6993891369
20
-16.7659216226
30
0.0000000000
10
-56.7622109679
20
-16.2505977691
30
0.0000000000
10
-56.8942146313
20
-15.1677713389
30
0.0000000000
10
-57.1012619344
20
-13.4693628554
30
0.0000000000
10
-57.2454879502
20
-12.2862782916
30
0.0000000000
10
-57.3205310687
20
-11.6706961748
30
0.0000000000
11
-56.6993891369
21
-16.7659216226
31
0.0000000000
11
-56.8878537351
21
-15.2199499532
31
0.0000000000
11
-57.0954007467
21
-13.5174424075
31
0.0000000000
11
-57.3205310687
21
-11.6706961748
31
0.0000000000
0
SPLINE
5
516
100
AcDbEntity
8
0
100
AcDbSpline
62
9
6
CONTINUOUS
70
0
71
3
72
10
73
6
74
4
42
0.0000001000
43
0.0000001000
44
0.0000000001
12
0.0313568231
22
-0.2553768853
32
0.0000000000
13
0.2571729277
23
0.0079176503
33
0.0000000000
40
0.0000000000
40
0.0000000000
40
0.0000000000
40
0.0000000000
40
0.3018986858
40
0.6349483877
40
1.0000000000
40
1.0000000000
40
1.0000000000
40
1.0000000000
10
-56.8944078860
20
-16.6307491761
30
0.0000000000
10
-56.8912523581
20
-16.6564484915
30
0.0000000000
10
-56.8662952005
20
-16.7090866900
30
0.0000000000
10
-56.7916401401
20
-16.7574428358
30
0.0000000000
10
-56.7306829291
20
-16.7668848379
30
0.0000000000
10
-56.6993891318
20
-16.7659213875
30
0.0000000000
11
-56.8944078860
21
-16.6307491761
31
0.0000000000
11
-56.8624454547
21
-16.7015454506
31
0.0000000000
11
-56.7920171248
21
-16.7503610281
31
0.0000000000
11
-56.6993891318
21
-16.7659213875
31
0.0000000000
0
SPLINE
5
517
100
AcDbEntity
8
0
100
AcDbSpline
62
9
6
CONTINUOUS
70
0
71
3
72
10
73
6
74
4
42
0.0000001000
43
0.0000001000
44
0.0000000001
12
-0.1014222371
22
-0.0025241928
32
0.0000000000
13
-0.0070665701
23
0.1012072394
33
0.0000000000
40
0.0000000000
40
0.0000000000
40
0.0000000000
40
0.0000000000
40
0.1147008129
40
0.4530699769
40
1.0000000000
40
1.0000000000
40
1.0000000000
40
1.0000000000
10
-56.6919279041
20
-16.8670972702
30
0.0000000000
10
-56.6958056418
20
-16.8671937792
30
0.0000000000
10
-56.6886646799
20
-16.8423712218
30
0.0000000000
10
-56.6991955603
20
-16.8178987470
30
0.0000000000
10
-56.6981007920
20
-16.7843709594
30
0.0000000000
10
-56.6993890985
20
-16.7659198668
30
0.0000000000
11
-56.6919279041
21
-16.8670972702
31
0.0000000000
11
-56.6929534525
21
-16.8555057335
31
0.0000000000
11
-56.6954773688
21
-16.8212698563
31
0.0000000000
11
-56.6993890985
21
-16.7659198668
31
0.0000000000
0
SPLINE
5
518
100
AcDbEntity
8
0
100
AcDbSpline
62
9
6
CONTINUOUS
70
0
71
3
72
10
73
6
74
4
42
0.0000001000
43
0.0000001000
44
0.0000000001
12
3.5592226649
22
0.0552603612
32
0.0000000000
13
3.5592180845
23
0.0555545739
33
0.0000000000
40
0.0000000000
40
0.0000000000
40
0.0000000000
40
0.0000000000
40
0.0094467609
40
0.5061155264
40
1.0000000000
40
1.0000000000
40
1.0000000000
40
1.0000000000
10
-61.3255377312
20
22.9349140519
30
0.0000000000
10
-61.3143300227
20
22.9350880624
30
0.0000000000
10
-60.7138707422
20
22.9444110135
30
0.0000000000
10
-59.5274635925
20
22.9628572365
30
0.0000000000
10
-58.3522648962
20
22.9811772918
30
0.0000000000
10
-57.7663173796
20
22.9903231390
30
0.0000000000
11
-61.3255377312
21
22.9349140519
31
0.0000000000
11
-61.2919146059
21
22.9354360969
31
0.0000000000
11
-59.5241604768
21
22.9629206862
31
0.0000000000
11
-57.7663173796
21
22.9903231390
31
0.0000000000
0
SPLINE
5
519
100
AcDbEntity
8
0
100
AcDbSpline
62
9
6
CONTINUOUS
70
0
71
3
72
11
73
7
74
5
42
0.0000001000
43
0.0000001000
44
0.0000000001
12
0.0352952186
22
0.2874564871
32
0.0000000000
13
-0.2874512777
23
0.0353376203
33
0.0000000000
40
0.0000000000
40
0.0000000000
40
0.0000000000
40
0.0000000000
40
0.0754713904
40
0.2908423338
40
0.6147467772
40
1.0000000000
40
1.0000000000
40
1.0000000000
40
1.0000000000
10
-57.6337179104
20
21.6481780834
30
0.0000000000
10
-57.6328299840
20
21.6554096637
30
0.0000000000
10
-57.6797606769
20
21.6449010648
30
0.0000000000
10
-57.7212892876
20
21.6653840796
30
0.0000000000
10
-57.8186824159
20
21.6699105465
30
0.0000000000
10
-57.8840980632
20
21.6802009091
30
0.0000000000
10
-57.9210119069
20
21.6847388864
30
0.0000000000
11
-57.6337179104
21
21.6481780834
31
0.0000000000
11
-57.6553491595
21
21.6513160063
31
0.0000000000
11
-57.7172078026
21
21.6593230203
31
0.0000000000
11
-57.8102817680
21
21.6710326026
31
0.0000000000
11
-57.9210119069
21
21.6847388864
31
0.0000000000
0
SPLINE
5
51A
100
AcDbEntity
8
0
100
AcDbSpline
62
9
6
CONTINUOUS
70
0
71
3
72
11
73
7
74
5
42
0.0000001000
43
0.0000001000
44
0.0000000001
12
0.0264528891
22
0.2154414927
32
0.0000000000
13
-0.2151527058
23
0.0269088843
33
0.0000000000
40
0.0000000000
40
0.0000000000
40
0.0000000000
40
0.0000000000
40
0.1006977355
40
0.3880585198
40
0.8202339305
40
1.0000000000
40
1.0000000000
40
1.0000000000
40
1.0000000000
10
-59.5991298621
20
5.6411822754
30
0.0000000000
10
-59.5982419467
20
5.6484137655
30
0.0000000000
10
-59.6451722764
20
5.6379052661
30
0.0000000000
10
-59.6867007540
20
5.6583882237
30
0.0000000000
10
-59.7577028251
20
5.6616881183
30
0.0000000000
10
-59.8021316047
20
5.6667854314
30
0.0000000000
10
-59.8150239901
20
5.6683978662
30
0.0000000000
11
-59.5991298621
21
5.6411822754
31
0.0000000000
11
-59.6207608411
21
5.6443201626
31
0.0000000000
11
-59.6826191457
21
5.6523271353
31
0.0000000000
11
-59.7756931931
21
5.6640367292
31
0.0000000000
11
-59.8150239901
21
5.6683978662
31
0.0000000000
0
SPLINE
5
51B
100
AcDbEntity
8
0
100
AcDbSpline
62
9
6
CONTINUOUS
70
0
71
3
72
11
73
7
74
5
42
0.0000001000
43
0.0000001000
44
0.0000000001
12
-0.0239517991
22
0.1950717494
32
0.0000000000
13
0.1950708672
23
0.0239589832
33
0.0000000000
40
0.0000000000
40
0.0000000000
40
0.0000000000
40
0.0000000000
40
0.0757885599
40
0.2918545038
40
0.6160188791
40
1.0000000000
40
1.0000000000
40
1.0000000000
40
1.0000000000
10
-57.6517009280
20
-10.4630922942
30
0.0000000000
10
-57.6523060188
20
-10.4581642252
30
0.0000000000
10
-57.6202934403
20
-10.4656921698
30
0.0000000000
10
-57.5920756658
20
-10.4516359369
30
0.0000000000
10
-57.5259817657
20
-10.4487659770
30
0.0000000000
10
-57.4816500224
20
-10.4417850246
30
0.0000000000
10
-57.4566821790
20
-10.4387184256
30
0.0000000000
11
-57.6517009280
21
-10.4630922942
31
0.0000000000
11
-57.6369372199
21
-10.4611172212
31
0.0000000000
11
-57.5948057877
21
-10.4558059900
31
0.0000000000
11
-57.5315818395
21
-10.4479496749
31
0.0000000000
11
-57.4566821790
21
-10.4387184256
31
0.0000000000
0
SPLINE
5
51C
100
AcDbEntity
8
0
100
AcDbSpline
62
9
6
CONTINUOUS
70
0
71
3
72
17
73
13
74
11
42
0.0000001000
43
0.0000001000
44
0.0000000001
12
1.0172203353
22
-0.0351567351
32
0.0000000000
13
-0.1703632514
23
1.0034687683
33
0.0000000000
40
0.0000000000
40
0.0000000000
40
0.0000000000
40
0.0000000000
40
0.0054700931
40
0.0231215339
40
0.0572824264
40
0.1126069809
40
0.1948591966
40
0.3104322750
40
0.4611122428
40
0.6381479252
40
0.8235540733
40
1.0000000000
40
1.0000000000
40
1.0000000000
40
1.0000000000
10
-57.6664552654
20
-12.4194932480
30
0.0000000000
10
-57.6646005021
20
-12.4195573515
30
0.0000000000
10
-57.6687746583
20
-12.4068256298
30
0.0000000000
10
-57.6671284351
20
-12.3927438146
30
0.0000000000
10
-57.6746771079
20
-12.3532112090
30
0.0000000000
10
-57.6817641950
20
-12.2974508904
30
0.0000000000
10
-57.6954940698
20
-12.2116666171
30
0.0000000000
10
-57.7137073287
20
-12.0952733798
30
0.0000000000
10
-57.7378568847
20
-11.9466565093
30
0.0000000000
10
-57.7660998159
20
-11.7749311114
30
0.0000000000
10
-57.7962106599
20
-11.5945785547
30
0.0000000000
10
-57.8166449270
20
-11.4735271031
30
0.0000000000
10
-57.8266648943
20
-11.4145077775
30
0.0000000000
11
-57.6664552654
21
-12.4194932480
31
0.0000000000
11
-57.6663047269
21
-12.4139276713
31
0.0000000000
11
-57.6681994159
21
-12.3960617314
31
0.0000000000
11
-57.6728052752
21
-12.3615982411
31
0.0000000000
11
-57.6809415120
21
-12.3058782715
31
0.0000000000
11
-57.6936193284
21
-12.2231251807
31
0.0000000000
11
-57.7119838300
21
-12.1069340426
31
0.0000000000
11
-57.7364600938
21
-11.9555335235
31
0.0000000000
11
-57.7657112588
21
-11.7777317766
31
0.0000000000
11
-57.7967678842
21
-11.5915933320
31
0.0000000000
11
-57.8266648943
21
-11.4145077775
31
0.0000000000
0
SPLINE
5
51D
100
AcDbEntity
8
0
100
AcDbSpline
62
9
6
CONTINUOUS
70
0
71
3
72
11
73
7
74
5
42
0.0000001000
43
0.0000001000
44
0.0000000001
12
0.0352952186
22
-0.2874564871
32
0.0000000000
13
-0.2874512778
23
-0.0353376193
33
0.0000000000
40
0.0000000000
40
0.0000000000
40
0.0000000000
40
0.0000000000
40
0.0754704501
40
0.2908402158
40
0.6147449449
40
1.0000000000
40
1.0000000000
40
1.0000000000
40
1.0000000000
10
-57.5393708978
20
-11.3779469744
30
0.0000000000
10
-57.5384829825
20
-11.3851784646
30
0.0000000000
10
-57.5854133121
20
-11.3746699651
30
0.0000000000
10
-57.6269417897
20
-11.3951529228
30
0.0000000000
10
-57.7243350471
20
-11.3996793749
30
0.0000000000
10
-57.7897508750
20
-11.4099697786
30
0.0000000000
10
-57.8266648943
20
-11.4145077775
30
0.0000000000
11
-57.5393708978
21
-11.3779469744
31
0.0000000000
11
-57.5610018769
21
-11.3810848617
31
0.0000000000
11
-57.6228601814
21
-11.3890918343
31
0.0000000000
11
-57.7159342288
21
-11.4008014282
31
0.0000000000
11
-57.8266648943
21
-11.4145077775
31
0.0000000000
0
SPLINE
5
51E
100
AcDbEntity
8
0
100
AcDbSpline
62
9
6
CONTINUOUS
70
0
71
3
72
11
73
7
74
5
42
0.0000001000
43
0.0000001000
44
0.0000000001
12
0.0232973697
22
-0.1897418499
32
0.0000000000
13
-0.1937321641
23
-0.0206068891
33
0.0000000000
40
0.0000000000
40
0.0000000000
40
0.0000000000
40
0.0000000000
40
0.1143367696
40
0.4406192206
40
0.9313307616
40
1.0000000000
40
1.0000000000
40
1.0000000000
40
1.0000000000
10
-59.5991298621
20
5.3974435886
30
0.0000000000
10
-59.5982419467
20
5.3902120985
30
0.0000000000
10
-59.6451722759
20
5.4007205979
30
0.0000000000
10
-59.6867007533
20
5.3802376403
30
0.0000000000
10
-59.7482847295
20
5.3773754614
30
0.0000000000
10
-59.7846625899
20
5.3737193443
30
0.0000000000
10
-59.7890970699
20
5.3732476579
30
0.0000000000
11
-59.5991298621
21
5.3974435886
31
0.0000000000
11
-59.6207608408
21
5.3943057014
31
0.0000000000
11
-59.6826191449
21
5.3862987288
31
0.0000000000
11
-59.7756931923
21
5.3745891349
31
0.0000000000
11
-59.7890970699
21
5.3732476579
31
0.0000000000
0
SPLINE
5
51F
100
AcDbEntity
8
0
100
AcDbSpline
62
9
6
CONTINUOUS
70
0
71
3
72
17
73
13
74
11
42
0.0000001000
43
0.0000001000
44
0.0000000001
12
0.1648624073
22
1.0007679818
32
0.0000000000
13
-1.0141105373
23
-0.0172042096
33
0.0000000000
40
0.0000000000
40
0.0000000000
40
0.0000000000
40
0.0000000000
40
0.1598628866
40
0.3341909747
40
0.5065721727
40
0.6596521380
40
0.7825150969
40
0.8730203912
40
0.9353142771
40
0.9741203078
40
0.9939971447
40
1.0000000000
40
1.0000000000
40
1.0000000000
40
1.0000000000
10
-57.9210119069
20
21.6847388864
30
0.0000000000
10
-57.9122267801
20
21.7380674392
30
0.0000000000
10
-57.8939568831
20
21.8495625995
30
0.0000000000
10
-57.8665423852
20
22.0186339384
30
0.0000000000
10
-57.8398860824
20
22.1854368207
30
0.0000000000
10
-57.8162052287
20
22.3353118084
30
0.0000000000
10
-57.7976335307
20
22.4573594830
30
0.0000000000
10
-57.7830861722
20
22.5504844504
30
0.0000000000
10
-57.7754736686
20
22.6125284468
30
0.0000000000
10
-57.7670366454
20
22.6569990002
30
0.0000000000
10
-57.7690202357
20
22.6729262516
30
0.0000000000
10
-57.7643271625
20
22.6870159891
30
0.0000000000
10
-57.7663563488
20
22.6869815643
30
0.0000000000
11
-57.9210119069
21
21.6847388864
31
0.0000000000
11
-57.8947898464
21
21.8447464503
31
0.0000000000
11
-57.8665056189
21
22.0192829141
31
0.0000000000
11
-57.8389036018
21
22.1919291273
31
0.0000000000
11
-57.8147909202
21
22.3453076589
31
0.0000000000
11
-57.7958456211
21
22.4684736512
31
0.0000000000
11
-57.7822965537
21
22.5592638003
31
0.0000000000
11
-57.7733885884
21
22.6218146618
31
0.0000000000
11
-57.7682931033
21
22.6608427024
31
0.0000000000
11
-57.7662091077
21
22.6808949102
31
0.0000000000
11
-57.7663563488
21
22.6869815643
31
0.0000000000
0
SPLINE
5
520
100
AcDbEntity
8
0
100
AcDbSpline
62
9
6
CONTINUOUS
70
0
71
3
72
11
73
7
74
5
42
0.0000001000
43
0.0000001000
44
0.0000000001
12
-0.0359888257
22
-0.2931052964
32
0.0000000000
13
-0.2943798569
23
0.0233754191
33
0.0000000000
40
0.0000000000
40
0.0000000000
40
0.0000000000
40
0.0000000000
40
0.0741788970
40
0.2897508939
40
0.6145451762
40
1.0000000000
40
1.0000000000
40
1.0000000000
40
1.0000000000
10
-57.4738282277
20
22.9503750494
30
0.0000000000
10
-57.4747180982
20
22.9431276402
30
0.0000000000
10
-57.5175646239
20
22.9700916860
30
0.0000000000
10
-57.5639905054
20
22.9581382535
30
0.0000000000
10
-57.6613186938
20
22.9796665378
30
0.0000000000
10
-57.7285329710
20
22.9873191559
30
0.0000000000
10
-57.7663563496
20
22.9903225453
30
0.0000000000
11
-57.4738282277
21
22.9503750494
31
0.0000000000
11
-57.4952827544
21
22.9547971042
31
0.0000000000
11
-57.5582832707
21
22.9639352514
31
0.0000000000
11
-57.6533833918
21
22.9764025719
31
0.0000000000
11
-57.7663563496
21
22.9903225453
31
0.0000000000
0
SPLINE
5
521
100
AcDbEntity
8
0
100
AcDbSpline
62
9
6
CONTINUOUS
70
0
71
3
72
16
73
12
74
10
42
0.0000001000
43
0.0000001000
44
0.0000000001
12
0.3576746616
22
2.6082624693
32
0.0000000000
13
0.0000330392
23
-0.0000044089
33
0.0000000000
40
0.0000000000
40
0.0000000000
40
0.0000000000
40
0.0000000000
40
0.2060550793
40
0.4034107722
40
0.5833700194
40
0.7380161743
40
0.8606920034
40
0.9462640713
40
0.9912326490
40
0.9937800234
40
1.0000000000
40
1.0000000000
40
1.0000000000
40
1.0000000000
10
-57.7663173796
20
22.9903231390
30
0.0000000000
10
-57.7417504860
20
23.1694717156
30
0.0000000000
10
-57.6937156270
20
23.5201993409
30
0.0000000000
10
-57.6241460967
20
24.0274524193
30
0.0000000000
10
-57.5607717270
20
24.4897623034
30
0.0000000000
10
-57.5061931241
20
24.8878995314
30
0.0000000000
10
-57.4631496518
20
25.2019259686
30
0.0000000000
10
-57.4325311102
20
25.4253044744
30
0.0000000000
10
-57.4173119002
20
25.5363566234
30
0.0000000000
10
-57.4104759590
20
25.5862239275
30
0.0000000000
10
-57.4100667583
20
25.5892085377
30
0.0000000000
10
-57.4100666898
20
25.5892085286
30
0.0000000000
11
-57.7663173796
21
22.9903231390
31
0.0000000000
11
-57.6926605438
21
23.5277748795
31
0.0000000000
11
-57.6220839906
21
24.0425320511
31
0.0000000000
11
-57.5577346911
21
24.5119154099
31
0.0000000000
11
-57.5024413843
21
24.9152758732
31
0.0000000000
11
-57.4585820105
21
25.2352491927
31
0.0000000000
11
-57.4279896005
21
25.4584456007
31
0.0000000000
11
-57.4119135899
21
25.5757365660
31
0.0000000000
11
-57.4110027756
21
25.5823808307
31
0.0000000000
11
-57.4100666898
21
25.5892085286
31
0.0000000000
0
SPLINE
5
522
100
AcDbEntity
8
0
100
AcDbSpline
62
9
6
CONTINUOUS
70
0
71
3
72
11
73
7
74
5
42
0.0000001000
43
0.0000001000
44
0.0000000001
12
0.3033680821
22
0.0052953096
32
0.0000000000
13
-0.0053541112
23
0.3033670501
33
0.0000000000
40
0.0000000000
40
0.0000000000
40
0.0000000000
40
0.0000000000
40
0.0766017268
40
0.2938170111
40
0.6182989025
40
1.0000000000
40
1.0000000000
40
1.0000000000
40
1.0000000000
10
-57.7663563490
20
22.6869815643
30
0.0000000000
10
-57.7586101760
20
22.6871167743
30
0.0000000000
10
-57.7730908708
20
22.7346375745
30
0.0000000000
10
-57.7589959003
20
22.7811012628
30
0.0000000000
10
-57.7666273810
20
22.8826075917
30
0.0000000000
10
-57.7656751263
20
22.9517240333
30
0.0000000000
10
-57.7663563496
20
22.9903225453
30
0.0000000000
11
-57.7663563490
21
22.6869815643
31
0.0000000000
11
-57.7647212352
21
22.7101660354
31
0.0000000000
11
-57.7641466342
21
22.7760697526
31
0.0000000000
11
-57.7647212352
21
22.8745205197
31
0.0000000000
11
-57.7663563496
21
22.9903225453
31
0.0000000000
0
SPLINE
5
523
100
AcDbEntity
8
0
100
AcDbSpline
62
9
6
CONTINUOUS
70
0
71
3
72
11
73
7
74
5
42
0.0000001000
43
0.0000001000
44
0.0000000001
12
-0.0239517991
22
-0.1950717494
32
0.0000000000
13
0.1950708654
23
-0.0239589975
33
0.0000000000
40
0.0000000000
40
0.0000000000
40
0.0000000000
40
0.0000000000
40
0.0757843074
40
0.2918448943
40
0.6160106555
40
1.0000000000
40
1.0000000000
40
1.0000000000
40
1.0000000000
10
-57.6517009280
20
21.5017181582
30
0.0000000000
10
-57.6523059848
20
21.4967903657
30
0.0000000000
10
-57.6202945235
20
21.5043180096
30
0.0000000000
10
-57.5920771546
20
21.4902619438
30
0.0000000000
10
-57.5259828562
20
21.4873920393
30
0.0000000000
10
-57.4816505570
20
21.4804109550
30
0.0000000000
10
-57.4566821791
20
21.4773442884
30
0.0000000000
11
-57.6517009280
21
21.5017181582
31
0.0000000000
11
-57.6369380486
21
21.4997431936
31
0.0000000000
11
-57.5948076613
21
21.4944320918
31
0.0000000000
11
-57.5315834431
21
21.4865757402
31
0.0000000000
11
-57.4566821791
21
21.4773442884
31
0.0000000000
0
SPLINE
5
524
100
AcDbEntity
8
0
100
AcDbSpline
62
9
6
CONTINUOUS
70
0
71
3
72
10
73
6
74
4
42
0.0000001000
43
0.0000001000
44
0.0000000001
12
-3.9999999803
22
-0.0702534154
32
0.0000000000
13
-4.0000000196
23
-0.0702511788
33
0.0000000000
40
0.0000000000
40
0.0000000000
40
0.0000000000
40
0.0000000000
40
0.3334720350
40
0.6668053684
40
1.0000000000
40
1.0000000000
40
1.0000000000
40
1.0000000000
10
-51.9140935359
20
-17.7437944298
30
0.0000000000
10
-52.3587229137
20
-17.7516036130
30
0.0000000000
10
-53.2477967353
20
-17.7672186479
30
0.0000000000
10
-54.5811300686
20
-17.7906360794
30
0.0000000000
10
-55.4698340248
20
-17.8062442870
30
0.0000000000
10
-55.9140935359
20
-17.8140467255
30
0.0000000000
11
-51.9140935359
21
-17.7437944298
31
0.0000000000
11
-53.2479816716
21
-17.7672218545
31
0.0000000000
11
-54.5813150049
21
-17.7906392861
31
0.0000000000
11
-55.9140935359
21
-17.8140467255
31
0.0000000000
0
SPLINE
5
525
100
AcDbEntity
8
0
100
AcDbSpline
62
9
6
CONTINUOUS
70
0
71
3
72
10
73
6
74
4
42
0.0000001000
43
0.0000001000
44
0.0000000001
12
0.1517489923
22
0.0026487885
32
0.0000000000
13
0.0139152625
23
-0.1511328496
33
0.0000000000
40
0.0000000000
40
0.0000000000
40
0.0000000000
40
0.0000000000
40
0.1197415736
40
0.4600609008
40
1.0000000000
40
1.0000000000
40
1.0000000000
40
1.0000000000
10
-44.7228197391
20
25.1146573427
30
0.0000000000
10
-44.7167628514
20
25.1147630661
30
0.0000000000
10
-44.7182594787
20
25.0790647962
30
0.0000000000
10
-44.7075233445
20
25.0407779558
30
0.0000000000
10
-44.7078717974
20
24.9915573547
30
0.0000000000
10
-44.7053673327
20
24.9643565098
30
0.0000000000
11
-44.7228197391
21
25.1146573427
31
0.0000000000
11
-44.7171059335
21
25.0974055016
31
0.0000000000
11
-44.7111311455
21
25.0461012541
31
0.0000000000
11
-44.7053673327
21
24.9643565098
31
0.0000000000
0
SPLINE
5
526
100
AcDbEntity
8
0
100
AcDbSpline
62
9
6
CONTINUOUS
70
0
71
3
72
10
73
6
74
4
42
0.0000001000
43
0.0000001000
44
0.0000000001
12
-0.2574047128
22
0.2574048128
32
0.0000000000
13
-0.3351230860
23
-0.1421511206
33
0.0000000000
40
0.0000000000
40
0.0000000000
40
0.0000000000
40
0.0000000000
40
0.2874463144
40
0.6158311253
40
1.0000000000
40
1.0000000000
40
1.0000000000
40
1.0000000000
10
-47.5984115506
20
26.5036309467
30
0.0000000000
10
-47.6230748959
20
26.5282943016
30
0.0000000000
10
-47.6920342339
20
26.5660566277
30
0.0000000000
10
-47.8162042075
20
26.5700412395
30
0.0000000000
10
-47.9003241183
20
26.5452346751
30
0.0000000000
10
-47.9432387379
20
26.5270313297
30
0.0000000000
11
-47.5984115506
21
26.5036309467
31
0.0000000000
11
-47.6890858634
21
26.5558537779
31
0.0000000000
11
-47.8083519422
21
26.5639473094
31
0.0000000000
11
-47.9432387379
21
26.5270313297
31
0.0000000000
0
SPLINE
5
527
100
AcDbEntity
8
0
100
AcDbSpline
62
7
6
CONTINUOUS
70
0
71
3
72
8
73
4
74
2
42
0.0000001000
43
0.0000001000
44
0.0000000001
12
0.0039574156
22
0.0132718814
32
0.0000000000
13
0.0046443919
23
0.0130624760
33
0.0000000000
40
0.0000000000
40
0.0000000000
40
0.0000000000
40
0.0000000000
40
1.0000000000
40
1.0000000000
40
1.0000000000
40
1.0000000000
10
-51.9049035555
20
-15.8167212206
30
0.0000000000
10
-51.9035844170
20
-15.8122972601
30
0.0000000000
10
-51.9021439878
20
-15.8079062860
30
0.0000000000
10
-51.9005958571
20
-15.8035521273
30
0.0000000000
11
-51.9049035555
21
-15.8167212206
31
0.0000000000
11
-51.9005958571
21
-15.8035521273
31
0.0000000000
0
SPLINE
5
528
100
AcDbEntity
8
0
100
AcDbSpline
62
7
6
CONTINUOUS
70
0
71
3
72
8
73
4
74
2
42
0.0000001000
43
0.0000001000
44
0.0000000001
12
0.0192556744
22
0.0383648620
32
0.0000000000
13
0.0229400879
23
0.0362626834
33
0.0000000000
40
0.0000000000
40
0.0000000000
40
0.0000000000
40
0.0000000000
40
1.0000000000
40
1.0000000000
40
1.0000000000
40
1.0000000000
10
-51.8847896829
20
-15.7668061501
30
0.0000000000
10
-51.8783711247
20
-15.7540178628
30
0.0000000000
10
-51.8712167947
20
-15.7416088161
30
0.0000000000
10
-51.8635700987
20
-15.7295212550
30
0.0000000000
11
-51.8847896829
21
-15.7668061501
31
0.0000000000
11
-51.8635700987
21
-15.7295212550
31
0.0000000000
0
SPLINE
5
529
100
AcDbEntity
8
0
100
AcDbSpline
62
9
6
CONTINUOUS
70
0
71
3
72
12
73
8
74
6
42
0.0000001000
43
0.0000001000
44
0.0000000001
12
-0.1226564172
22
-0.0023410604
32
0.0000000000
13
0.0004869837
23
0.1226777897
33
0.0000000000
40
0.0000000000
40
0.0000000000
40
0.0000000000
40
0.0000000000
40
0.0286379551
40
0.1247223660
40
0.3055998023
40
0.5907140282
40
1.0000000000
40
1.0000000000
40
1.0000000000
40
1.0000000000
10
-51.7175840174
20
-15.6772569702
30
0.0000000000
10
-51.7187548937
20
-15.6772793179
30
0.0000000000
10
-51.7160316417
20
-15.6690726013
30
0.0000000000
10
-51.7191010197
20
-15.6599104648
30
0.0000000000
10
-51.7171280491
20
-15.6347334178
30
0.0000000000
10
-51.7180974522
20
-15.6000972794
30
0.0000000000
10
-51.7176504803
20
-15.5713180368
30
0.0000000000
10
-51.7175840417
20
-15.5545812707
30
0.0000000000
11
-51.7175840174
21
-15.6772569702
31
0.0000000000
11
-51.7177139231
21
-15.6737461040
31
0.0000000000
11
-51.7177975718
21
-15.6619588848
31
0.0000000000
11
-51.7178181373
21
-15.6397690754
31
0.0000000000
11
-51.7177549205
21
-15.6047916739
31
0.0000000000
11
-51.7175840417
21
-15.5545812707
31
0.0000000000
0
SPLINE
5
52A
100
AcDbEntity
8
0
100
AcDbSpline
62
7
6
CONTINUOUS
70
0
71
3
72
8
73
4
74
2
42
0.0000001000
43
0.0000001000
44
0.0000000001
12
-0.0016181389
22
0.0050539449
32
0.0000000000
13
-0.0015141482
23
0.0050849349
33
0.0000000000
40
0.0000000000
40
0.0000000000
40
0.0000000000
40
0.0000000000
40
1.0000000000
40
1.0000000000
40
1.0000000000
40
1.0000000000
10
-51.9033605704
20
26.8503560220
30
0.0000000000
10
-51.9038999500
20
26.8520406703
30
0.0000000000
10
-51.9044223951
20
26.8537306204
30
0.0000000000
10
-51.9049271111
20
26.8554255987
30
0.0000000000
11
-51.9033605704
21
26.8503560220
31
0.0000000000
11
-51.9049271111
21
26.8554255987
31
0.0000000000
0
SPLINE
5
52B
100
AcDbEntity
8
0
100
AcDbSpline
62
9
6
CONTINUOUS
70
0
71
3
72
12
73
8
74
6
42
0.0000001000
43
0.0000001000
44
0.0000000001
12
-0.0004870014
22
0.1226778224
32
0.0000000000
13
0.1226563902
23
-0.0023441932
33
0.0000000000
40
0.0000000000
40
0.0000000000
40
0.0000000000
40
0.0000000000
40
0.4092867091
40
0.6944006353
40
0.8752784927
40
0.9713622367
40
1.0000000000
40
1.0000000000
40
1.0000000000
40
1.0000000000
10
-51.7175840426
20
26.5932071007
30
0.0000000000
10
-51.7176504836
20
26.6099439015
30
0.0000000000
10
-51.7180974521
20
26.6387231807
30
0.0000000000
10
-51.7171280482
20
26.6733593318
30
0.0000000000
10
-51.7191010231
20
26.6985364235
30
0.0000000000
10
-51.7160316544
20
26.7076984704
30
0.0000000000
10
-51.7187548856
20
26.7159052105
30
0.0000000000
10
-51.7175840174
20
26.7158828330
30
0.0000000000
11
-51.7175840426
21
26.5932071007
31
0.0000000000
11
-51.7177549205
21
26.6434176078
31
0.0000000000
11
-51.7178181372
21
26.6783949819
31
0.0000000000
11
-51.7177975717
21
26.7005848489
31
0.0000000000
11
-51.7177139228
21
26.7123719894
31
0.0000000000
11
-51.7175840174
21
26.7158828330
31
0.0000000000
0
SPLINE
5
52C
100
AcDbEntity
8
0
100
AcDbSpline
62
9
6
CONTINUOUS
70
0
71
3
72
12
73
8
74
6
42
0.0000001000
43
0.0000001000
44
0.0000000001
12
0.4999839784
22
-0.0087272528
32
0.0000000000
13
-0.0087245954
23
-0.4999840248
33
0.0000000000
40
0.0000000000
40
0.0000000000
40
0.0000000000
40
0.0000000000
40
0.0495138601
40
0.1924050561
40
0.4144910785
40
0.6941018443
40
1.0000000000
40
1.0000000000
40
1.0000000000
40
1.0000000000
10
-35.3053673327
20
14.7138105377
30
0.0000000000
10
-35.2971152871
20
14.7136664977
30
0.0000000000
10
-35.3114892502
20
14.6625397909
30
0.0000000000
10
-35.2962724447
20
14.6110445367
30
0.0000000000
10
-35.3039833616
20
14.4944082410
30
0.0000000000
10
-35.3022774445
20
14.3633703470
30
0.0000000000
10
-35.3044777201
20
14.2648680871
30
0.0000000000
10
-35.3053673327
20
14.2138866901
30
0.0000000000
11
-35.3053673327
21
14.7138105377
31
0.0000000000
11
-35.3030936329
21
14.6891552477
31
0.0000000000
11
-35.3019028450
21
14.6177109792
31
0.0000000000
11
-35.3019115051
21
14.5066546121
31
0.0000000000
11
-35.3031168157
21
14.3668376085
31
0.0000000000
11
-35.3053673327
21
14.2138866901
31
0.0000000000
0
SPLINE
5
52D
100
AcDbEntity
8
0
100
AcDbSpline
62
9
6
CONTINUOUS
70
0
71
3
72
12
73
8
74
6
42
0.0000001000
43
0.0000001000
44
0.0000000001
12
0.4999842083
22
-0.0087272568
32
0.0000000000
13
-0.0087245995
23
-0.4999842547
33
0.0000000000
40
0.0000000000
40
0.0000000000
40
0.0000000000
40
0.0000000000
40
0.0492148676
40
0.1912677328
40
0.4124302269
40
0.6910919715
40
1.0000000000
40
1.0000000000
40
1.0000000000
40
1.0000000000
10
-43.7228197391
20
14.8607377160
30
0.0000000000
10
-43.7146175202
20
14.8605945457
30
0.0000000000
10
-43.7288869985
20
14.8097726469
30
0.0000000000
10
-43.7137541013
20
14.7585277098
30
0.0000000000
10
-43.7214219905
20
14.6423787715
30
0.0000000000
10
-43.7197104606
20
14.5111529984
30
0.0000000000
10
-43.7219213728
20
14.4122969185
30
0.0000000000
10
-43.7228197391
20
14.3608138684
30
0.0000000000
11
-43.7228197391
21
14.8607377160
31
0.0000000000
11
-43.7205514471
21
14.8362320660
31
0.0000000000
11
-43.7193589591
21
14.7652070677
31
0.0000000000
11
-43.7193589591
21
14.6546124691
31
0.0000000000
11
-43.7205514471
21
14.5152698766
31
0.0000000000
11
-43.7228197391
21
14.3608138684
31
0.0000000000
0
SPLINE
5
52E
100
AcDbEntity
8
0
100
AcDbSpline
62
9
6
CONTINUOUS
70
0
71
3
72
11
73
7
74
5
42
0.0000001000
43
0.0000001000
44
0.0000000001
12
-0.3032335765
22
-0.3028279659
32
0.0000000000
13
-0.4099370829
23
0.1249278467
33
0.0000000000
40
0.0000000000
40
0.0000000000
40
0.0000000000
40
0.0000000000
40
0.1870125982
40
0.4171190867
40
0.6879030421
40
1.0000000000
40
1.0000000000
40
1.0000000000
40
1.0000000000
10
-47.5983279053
20
-15.4650888113
30
0.0000000000
10
-47.6172307383
20
-15.4839663596
30
0.0000000000
10
-47.6706281780
20
-15.5147345160
30
0.0000000000
10
-47.7684749861
20
-15.5325523938
30
0.0000000000
10
-47.8852980718
20
-15.5240697485
30
0.0000000000
10
-47.9660185201
20
-15.5025512794
30
0.0000000000
10
-48.0086652257
20
-15.4895547457
30
0.0000000000
11
-47.5983279053
21
-15.4650888113
31
0.0000000000
11
-47.6663041759
21
-15.5075427503
31
0.0000000000
11
-47.7628430536
21
-15.5276577454
31
0.0000000000
11
-47.8787060669
21
-15.5211692908
31
0.0000000000
11
-48.0086652257
21
-15.4895547457
31
0.0000000000
0
SPLINE
5
52F
100
AcDbEntity
8
0
100
AcDbSpline
62
9
6
CONTINUOUS
70
0
71
3
72
10
73
6
74
4
42
0.0000001000
43
0.0000001000
44
0.0000000001
12
0.0987221930
22
0.0017277727
32
0.0000000000
13
-0.0044028537
23
0.1025633353
33
0.0000000000
40
0.0000000000
40
0.0000000000
40
0.0000000000
40
0.0000000000
40
0.1439559464
40
0.5670879592
40
1.0000000000
40
1.0000000000
40
1.0000000000
40
1.0000000000
10
-48.0086651760
20
-15.6125175624
30
0.0000000000
10
-48.0039279604
20
-15.6124346547
30
0.0000000000
10
-48.0140848826
20
-15.5825757456
30
0.0000000000
10
-48.0061452177
20
-15.5583335527
30
0.0000000000
10
-48.0071954290
20
-15.5292473772
30
0.0000000000
10
-48.0078307784
20
-15.5144470763
30
0.0000000000
11
-48.0086651760
21
-15.6125175624
31
0.0000000000
11
-48.0081399951
21
-15.5983134450
31
0.0000000000
11
-48.0081400282
21
-15.5565345279
31
0.0000000000
11
-48.0078307784
21
-15.5144470763
31
0.0000000000
0
SPLINE
5
530
100
AcDbEntity
8
0
100
AcDbSpline
62
9
6
CONTINUOUS
70
0
71
3
72
11
73
7
74
5
42
0.0000001000
43
0.0000001000
44
0.0000000001
12
-0.0000000005
22
0.6328953804
32
0.0000000000
13
-0.6328580775
23
0.0068714083
33
0.0000000000
40
0.0000000000
40
0.0000000000
40
0.0000000000
40
0.0000000000
40
0.1951515903
40
0.4258186589
40
0.6992796764
40
1.0000000000
40
1.0000000000
40
1.0000000000
40
1.0000000000
10
-44.2140935359
20
22.5037783122
30
0.0000000000
10
-44.2140935359
20
22.5449484922
30
0.0000000000
10
-44.2459678873
20
22.6354629941
30
0.0000000000
10
-44.3609629947
20
22.7343077118
30
0.0000000000
10
-44.5203197559
20
22.7986251433
30
0.0000000000
10
-44.6419295707
20
22.8140625106
30
0.0000000000
10
-44.7053673326
20
22.8147513013
30
0.0000000000
11
-44.2140935359
21
22.5037783122
31
0.0000000000
11
-44.2513224319
21
22.6215444482
31
0.0000000000
11
-44.3574663862
21
22.7217741482
31
0.0000000000
11
-44.5167199386
21
22.7895406411
31
0.0000000000
11
-44.7053673326
21
22.8147513013
31
0.0000000000
0
SPLINE
5
531
100
AcDbEntity
8
0
100
AcDbSpline
62
9
6
CONTINUOUS
70
0
71
3
72
8
73
4
74
2
42
0.0000001000
43
0.0000001000
44
0.0000000001
12
-0.0000000000
22
-0.1355332545
32
0.0000000000
13
-0.0693495635
23
-0.1183656608
33
0.0000000000
40
0.0000000000
40
0.0000000000
40
0.0000000000
40
0.0000000000
40
1.0000000000
40
1.0000000000
40
1.0000000000
40
1.0000000000
10
-34.8140935359
20
-13.1626812148
30
0.0000000000
10
-34.8140935359
20
-13.2078589663
30
0.0000000000
10
-34.8282061516
20
-13.2535458106
30
0.0000000000
10
-34.8513226728
20
-13.2930010308
30
0.0000000000
11
-34.8140935359
21
-13.1626812148
31
0.0000000000
11
-34.8513226728
21
-13.2930010308
31
0.0000000000
0
SPLINE
5
532
100
AcDbEntity
8
0
100
AcDbSpline
62
9
6
CONTINUOUS
70
0
71
3
72
10
73
6
74
4
42
0.0000001000
43
0.0000001000
44
0.0000000001
12
-0.3140033425
22
-0.2845580040
32
0.0000000000
13
-0.4203542886
23
-0.0050508696
33
0.0000000000
40
0.0000000000
40
0.0000000000
40
0.0000000000
40
0.0000000000
40
0.1276447242
40
0.5463705890
40
1.0000000000
40
1.0000000000
40
1.0000000000
40
1.0000000000
10
-34.9151381393
20
-13.3702906447
30
0.0000000000
10
-34.9284984293
20
-13.3823980873
30
0.0000000000
10
-34.9893235074
20
-13.4303225245
30
0.0000000000
10
-35.1190295106
20
-13.4886633363
30
0.0000000000
10
-35.2418056432
20
-13.5060388526
30
0.0000000000
10
-35.3053673326
20
-13.5068025936
30
0.0000000000
11
-34.9151381393
21
-13.3702906447
31
0.0000000000
11
-34.9574668159
21
-13.4039146518
31
0.0000000000
11
-35.1167201880
21
-13.4789045682
31
0.0000000000
11
-35.3053673326
21
-13.5068025936
31
0.0000000000
0
SPLINE
5
533
100
AcDbEntity
8
0
100
AcDbSpline
62
9
6
CONTINUOUS
70
0
71
3
72
10
73
6
74
4
42
0.0000001000
43
0.0000001000
44
0.0000000001
12
0.0016099428
22
-0.1869472130
32
0.0000000000
13
-0.1869534959
23
-0.0004926854
33
0.0000000000
40
0.0000000000
40
0.0000000000
40
0.0000000000
40
0.0000000000
40
0.5416924424
40
0.8831589242
40
1.0000000000
40
1.0000000000
40
1.0000000000
40
1.0000000000
10
-35.3053675147
20
-13.5067954155
30
0.0000000000
10
-35.3050768167
20
-13.5405513796
30
0.0000000000
10
-35.2986365443
20
-13.6021034210
30
0.0000000000
10
-35.3139373483
20
-13.6477401925
30
0.0000000000
10
-35.2980865573
20
-13.6937173075
30
0.0000000000
10
-35.3053678399
20
-13.6937364962
30
0.0000000000
11
-35.3053675147
21
-13.5067954155
31
0.0000000000
11
-35.3046830266
21
-13.6080647497
31
0.0000000000
11
-35.3046825808
21
-13.6719033239
31
0.0000000000
11
-35.3053678399
21
-13.6937364962
31
0.0000000000
0
SPLINE
5
534
100
AcDbEntity
8
0
100
AcDbSpline
62
9
6
CONTINUOUS
70
0
71
3
72
11
73
7
74
5
42
0.0000001000
43
0.0000001000
44
0.0000000001
12
-0.0000000004
22
-0.6334871461
32
0.0000000000
13
-0.6334495985
23
-0.0068971257
33
0.0000000000
40
0.0000000000
40
0.0000000000
40
0.0000000000
40
0.0000000000
40
0.1954686554
40
0.4262261650
40
0.6995484654
40
1.0000000000
40
1.0000000000
40
1.0000000000
40
1.0000000000
10
-34.8140935359
20
-11.4104229029
30
0.0000000000
10
-34.8140935359
20
-11.4516985298
30
0.0000000000
10
-34.8459166379
20
-11.5423967831
30
0.0000000000
10
-34.9608996984
20
-11.6415695283
30
0.0000000000
10
-35.1202887443
20
-11.7060896119
30
0.0000000000
10
-35.2419270313
20
-11.7215770190
30
0.0000000000
10
-35.3053673327
20
-11.7222677697
30
0.0000000000
11
-34.8140935359
21
-11.4104229029
31
0.0000000000
11
-34.8513232739
21
-11.5285205022
31
0.0000000000
11
-34.9574682892
21
-11.6290311403
31
0.0000000000
11
-35.1167215889
21
-11.6969868659
31
0.0000000000
11
-35.3053673327
21
-11.7222677697
31
0.0000000000
0
SPLINE
5
535
100
AcDbEntity
8
0
100
AcDbSpline
62
9
6
CONTINUOUS
70
0
71
3
72
10
73
6
74
4
42
0.0000001000
43
0.0000001000
44
0.0000000001
12
0.1857034163
22
0.0032340081
32
0.0000000000
13
-0.0019175554
23
0.1857216752
33
0.0000000000
40
0.0000000000
40
0.0000000000
40
0.0000000000
40
0.0000000000
40
0.1168063832
40
0.4583262497
40
1.0000000000
40
1.0000000000
40
1.0000000000
40
1.0000000000
10
-45.7313182541
20
-13.8757511084
30
0.0000000000
10
-45.7240878060
20
-13.8756251908
30
0.0000000000
10
-45.7395107861
20
-13.8302158349
30
0.0000000000
10
-45.7245939299
20
-13.7846229249
30
0.0000000000
10
-45.7309720218
20
-13.7235716686
30
0.0000000000
10
-45.7313182516
20
-13.6900381498
30
0.0000000000
11
-45.7313182541
21
-13.8757511084
31
0.0000000000
11
-45.7305032425
21
-13.8540717893
31
0.0000000000
11
-45.7305032361
21
-13.7906407669
31
0.0000000000
11
-45.7313182516
21
-13.6900381498
31
0.0000000000
0
SPLINE
5
536
100
AcDbEntity
8
0
100
AcDbSpline
62
9
6
CONTINUOUS
70
0
71
3
72
15
73
11
74
9
42
0.0000001000
43
0.0000001000
44
0.0000000001
12
-0.9346982672
22
-0.0649450851
32
0.0000000000
13
-0.6547746644
23
-0.6690103759
33
0.0000000000
40
0.0000000000
40
0.0000000000
40
0.0000000000
40
0.0000000000
40
0.1322302430
40
0.3122176350
40
0.4686401731
40
0.6045076886
40
0.7229610624
40
0.8267077957
40
0.9182711412
40
1.0000000000
40
1.0000000000
40
1.0000000000
40
1.0000000000
10
-45.7970123840
20
-13.6928973505
30
0.0000000000
10
-45.8382108437
20
-13.6957599186
30
0.0000000000
10
-45.9352155773
20
-13.7072561233
30
0.0000000000
10
-46.0778902897
20
-13.7410891724
30
0.0000000000
10
-46.2163263854
20
-13.7925615866
30
0.0000000000
10
-46.3312093874
20
-13.8498488074
30
0.0000000000
10
-46.4262980763
20
-13.9087755288
30
0.0000000000
10
-46.5051953418
20
-13.9669021225
30
0.0000000000
10
-46.5710748109
20
-14.0229664627
30
0.0000000000
10
-46.6100309442
20
-14.0605193024
30
0.0000000000
10
-46.6278689396
20
-14.0787451205
30
0.0000000000
11
-45.7970123840
21
-13.6928973505
31
0.0000000000
11
-45.9200275121
21
-13.7074786107
31
0.0000000000
11
-46.0839744251
21
-13.7463335476
31
0.0000000000
11
-46.2212273873
21
-13.7973537200
31
0.0000000000
11
-46.3350540761
21
-13.8540992442
31
0.0000000000
11
-46.4293128288
21
-13.9125021227
31
0.0000000000
11
-46.5075063386
21
-13.9701022971
31
0.0000000000
11
-46.5727845812
21
-14.0256500718
31
0.0000000000
11
-46.6278689396
21
-14.0787451205
31
0.0000000000
0
SPLINE
5
537
100
AcDbEntity
8
0
100
AcDbSpline
62
9
6
CONTINUOUS
70
0
71
3
72
9
73
5
74
3
42
0.0000001000
43
0.0000001000
44
0.0000000001
12
-1.3807830375
22
-1.4108205674
32
0.0000000000
13
-1.3808089463
23
-1.4107952098
33
0.0000000000
40
0.0000000000
40
0.0000000000
40
0.0000000000
40
0.0000000000
40
0.5273675957
40
1.0000000000
40
1.0000000000
40
1.0000000000
40
1.0000000000
10
-46.6278689396
20
-14.0787451205
30
0.0000000000
10
-46.8705956831
20
-14.3267521374
30
0.0000000000
10
-47.3308588835
20
-14.7970235186
30
0.0000000000
10
-47.7911269550
20
-15.2672901322
30
0.0000000000
10
-48.0086653058
20
-15.4895526429
30
0.0000000000
11
-46.6278689396
21
-14.0787451205
31
0.0000000000
11
-47.3560528326
21
-14.8227625867
31
0.0000000000
11
-48.0086653058
21
-15.4895526429
31
0.0000000000
0
SPLINE
5
538
100
AcDbEntity
8
0
100
AcDbSpline
62
9
6
CONTINUOUS
70
0
71
3
72
11
73
7
74
5
42
0.0000001000
43
0.0000001000
44
0.0000000001
12
0.0000000000
22
0.6596484715
32
0.0000000000
13
-0.6595993271
23
0.0080519358
33
0.0000000000
40
0.0000000000
40
0.0000000000
40
0.0000000000
40
0.0000000000
40
0.2085035462
40
0.4431841000
40
0.7108109530
40
1.0000000000
40
1.0000000000
40
1.0000000000
40
1.0000000000
10
-44.2140935359
20
24.6147334951
30
0.0000000000
10
-44.2140935359
20
24.6605798437
30
0.0000000000
10
-44.2439334711
20
24.7591612807
30
0.0000000000
10
-44.3581127211
20
24.8723427586
30
0.0000000000
10
-44.5188043961
20
24.9458771547
30
0.0000000000
10
-44.6417843657
20
24.9635803326
30
0.0000000000
10
-44.7053673327
20
24.9643565098
30
0.0000000000
11
-44.2140935359
21
24.6147334951
31
0.0000000000
11
-44.2513232839
21
24.7471379321
31
0.0000000000
11
-44.3574683113
21
24.8598248337
31
0.0000000000
11
-44.5167216077
21
24.9360129803
31
0.0000000000
11
-44.7053673327
21
24.9643565098
31
0.0000000000
0
SPLINE
5
539
100
AcDbEntity
8
0
100
AcDbSpline
62
9
6
CONTINUOUS
70
0
71
3
72
10
73
6
74
4
42
0.0000001000
43
0.0000001000
44
0.0000000001
12
-3.9999999803
22
0.0702534154
32
0.0000000000
13
-4.0000000196
23
0.0702511788
33
0.0000000000
40
0.0000000000
40
0.0000000000
40
0.0000000000
40
0.0000000000
40
0.3334720350
40
0.6668053684
40
1.0000000000
40
1.0000000000
40
1.0000000000
40
1.0000000000
10
-51.9140935359
20
28.7824202938
30
0.0000000000
10
-52.3587229137
20
28.7902294769
30
0.0000000000
10
-53.2477967353
20
28.8058445119
30
0.0000000000
10
-54.5811300686
20
28.8292619434
30
0.0000000000
10
-55.4698340248
20
28.8448701509
30
0.0000000000
10
-55.9140935359
20
28.8526725895
30
0.0000000000
11
-51.9140935359
21
28.7824202938
31
0.0000000000
11
-53.2479816716
21
28.8058477185
31
0.0000000000
11
-54.5813150049
21
28.8292651500
31
0.0000000000
11
-55.9140935359
21
28.8526725895
31
0.0000000000
0
SPLINE
5
53A
100
AcDbEntity
8
0
100
AcDbSpline
62
9
6
CONTINUOUS
70
0
71
3
72
10
73
6
74
4
42
0.0000001000
43
0.0000001000
44
0.0000000001
12
0.1523042534
22
0.0026584806
32
0.0000000000
13
0.0087873243
23
-0.1520737849
33
0.0000000000
40
0.0000000000
40
0.0000000000
40
0.0000000000
40
0.0000000000
40
0.1210065469
40
0.4613293509
40
1.0000000000
40
1.0000000000
40
1.0000000000
40
1.0000000000
10
-45.7595239388
20
25.0965616036
30
0.0000000000
10
-45.7533806682
20
25.0966688348
30
0.0000000000
10
-45.7549804923
20
25.0606867924
30
0.0000000000
10
-45.7444746780
20
25.0222396064
30
0.0000000000
10
-45.7436493578
20
24.9730040096
30
0.0000000000
10
-45.7420715332
20
24.9456981148
30
0.0000000000
11
-45.7595239388
21
25.0965616036
31
0.0000000000
11
-45.7537764109
21
25.0790479697
31
0.0000000000
11
-45.7478190526
21
25.0275509022
31
0.0000000000
11
-45.7420715332
21
24.9456981148
31
0.0000000000
0
SPLINE
5
53B
100
AcDbEntity
8
0
100
AcDbSpline
62
9
6
CONTINUOUS
70
0
71
3
72
10
73
6
74
4
42
0.0000001000
43
0.0000001000
44
0.0000000001
12
-0.2575826679
22
0.2575826754
32
0.0000000000
13
-0.3278436204
23
-0.1587961776
33
0.0000000000
40
0.0000000000
40
0.0000000000
40
0.0000000000
40
0.0000000000
40
0.2768405022
40
0.6051002265
40
1.0000000000
40
1.0000000000
40
1.0000000000
40
1.0000000000
10
-46.4840831248
20
25.3893025145
30
0.0000000000
10
-46.5078528965
20
25.4130722869
30
0.0000000000
10
-46.5777227865
20
25.4478619995
30
0.0000000000
10
-46.7020341905
20
25.4433986383
30
0.0000000000
10
-46.7857551850
20
25.4134990570
30
0.0000000000
10
-46.8289103089
20
25.3925961988
30
0.0000000000
11
-46.4840831248
21
25.3893025145
31
0.0000000000
11
-46.5729055458
21
25.4370582961
31
0.0000000000
11
-46.6924775286
21
25.4382004113
31
0.0000000000
11
-46.8289103089
21
25.3925961988
31
0.0000000000
0
SPLINE
5
53C
100
AcDbEntity
8
0
100
AcDbSpline
62
9
6
CONTINUOUS
70
0
71
3
72
13
73
9
74
7
42
0.0000001000
43
0.0000001000
44
0.0000000001
12
0.7575434056
22
-0.5217894848
32
0.0000000000
13
0.9194506690
23
0.0169093800
33
0.0000000000
40
0.0000000000
40
0.0000000000
40
0.0000000000
40
0.0000000000
40
0.0208971058
40
0.1648849739
40
0.3314376584
40
0.5248724255
40
0.7490745710
40
1.0000000000
40
1.0000000000
40
1.0000000000
40
1.0000000000
10
-46.6088531692
20
25.2076525757
30
0.0000000000
10
-46.6035763476
20
25.2040179457
30
0.0000000000
10
-46.5617562472
20
25.1756064798
30
0.0000000000
10
-46.4748218141
20
25.1227721139
30
0.0000000000
10
-46.3354918841
20
25.0554163548
30
0.0000000000
10
-46.1661759129
20
24.9957647621
30
0.0000000000
10
-45.9650696485
20
24.9532085464
30
0.0000000000
10
-45.8189760454
20
24.9442837837
30
0.0000000000
10
-45.7420715275
20
24.9456981149
30
0.0000000000
11
-46.6088531692
21
25.2076525757
31
0.0000000000
11
-46.5929530560
21
25.1968505186
31
0.0000000000
11
-46.4797946369
21
25.1280890187
31
0.0000000000
11
-46.3418935923
21
25.0614394333
31
0.0000000000
11
-46.1741100942
21
25.0023518357
31
0.0000000000
11
-45.9724015259
21
24.9596565753
31
0.0000000000
11
-45.7420715275
21
24.9456981149
31
0.0000000000
0
SPLINE
5
53D
100
AcDbEntity
8
0
100
AcDbSpline
62
7
6
CONTINUOUS
70
0
71
3
72
10
73
6
74
4
42
0.0000001000
43
0.0000001000
44
0.0000000001
12
-4.0000360299
22
-0.0287443498
32
0.0000000000
13
-3.9999639243
23
-0.0374577365
33
0.0000000000
40
0.0000000000
40
0.0000000000
40
0.0000000000
40
0.0000000000
40
0.3303029973
40
0.6636439357
40
1.0000000000
40
1.0000000000
40
1.0000000000
40
1.0000000000
10
-51.9140935359
20
-17.1105536707
30
0.0000000000
10
-52.3545014992
20
-17.1137184523
30
0.0000000000
10
-53.2393654469
20
-17.1204442136
30
0.0000000000
10
-54.5726988236
20
-17.1315792003
30
0.0000000000
10
-55.4656228282
20
-17.1396539777
30
0.0000000000
10
-55.9140935359
20
-17.1438536900
30
0.0000000000
11
-51.9140935359
21
-17.1105536707
31
0.0000000000
11
-53.2353135119
21
-17.1205778855
31
0.0000000000
11
-54.5686773273
21
-17.1316986671
31
0.0000000000
11
-55.9140935359
21
-17.1438536900
31
0.0000000000
0
SPLINE
5
53E
100
AcDbEntity
8
0
100
AcDbSpline
62
7
6
CONTINUOUS
70
0
71
3
72
10
73
6
74
4
42
0.0000001000
43
0.0000001000
44
0.0000000001
12
-4.0000360299
22
0.0287443498
32
0.0000000000
13
-3.9999639243
23
0.0374577365
33
0.0000000000
40
0.0000000000
40
0.0000000000
40
0.0000000000
40
0.0000000000
40
0.3303029973
40
0.6636439357
40
1.0000000000
40
1.0000000000
40
1.0000000000
40
1.0000000000
10
-51.9140935359
20
28.1491795346
30
0.0000000000
10
-52.3545014992
20
28.1523443162
30
0.0000000000
10
-53.2393654469
20
28.1590700776
30
0.0000000000
10
-54.5726988236
20
28.1702050642
30
0.0000000000
10
-55.4656228282
20
28.1782798417
30
0.0000000000
10
-55.9140935359
20
28.1824795539
30
0.0000000000
11
-51.9140935359
21
28.1491795346
31
0.0000000000
11
-53.2353135119
21
28.1592037495
31
0.0000000000
11
-54.5686773273
21
28.1703245310
31
0.0000000000
11
-55.9140935359
21
28.1824795539
31
0.0000000000
0
SPLINE
5
53F
100
AcDbEntity
8
0
100
AcDbSpline
62
9
6
CONTINUOUS
70
0
71
3
72
10
73
6
74
4
42
0.0000001000
43
0.0000001000
44
0.0000000001
12
0.1523042534
22
0.0026584806
32
0.0000000000
13
0.0087873243
23
-0.1520737849
33
0.0000000000
40
0.0000000000
40
0.0000000000
40
0.0000000000
40
0.0000000000
40
0.1210065469
40
0.4613293509
40
1.0000000000
40
1.0000000000
40
1.0000000000
40
1.0000000000
10
-45.7595239388
20
25.0965616036
30
0.0000000000
10
-45.7533806682
20
25.0966688348
30
0.0000000000
10
-45.7549804923
20
25.0606867924
30
0.0000000000
10
-45.7444746780
20
25.0222396064
30
0.0000000000
10
-45.7436493578
20
24.9730040096
30
0.0000000000
10
-45.7420715332
20
24.9456981148
30
0.0000000000
11
-45.7595239388
21
25.0965616036
31
0.0000000000
11
-45.7537764109
21
25.0790479697
31
0.0000000000
11
-45.7478190526
21
25.0275509022
31
0.0000000000
11
-45.7420715332
21
24.9456981148
31
0.0000000000
0
SPLINE
5
540
100
AcDbEntity
8
0
100
AcDbSpline
62
9
6
CONTINUOUS
70
0
71
3
72
9
73
5
74
3
42
0.0000001000
43
0.0000001000
44
0.0000000001
12
1.0367042015
22
0.0186580224
32
0.0000000000
13
1.0367041881
23
0.0186587677
33
0.0000000000
40
0.0000000000
40
0.0000000000
40
0.0000000000
40
0.0000000000
40
0.4999597940
40
1.0000000000
40
1.0000000000
40
1.0000000000
40
1.0000000000
10
-45.7420715275
20
24.9456981149
30
0.0000000000
10
-45.5693013878
20
24.9488075352
30
0.0000000000
10
-45.2237333218
20
24.9550269388
30
0.0000000000
10
-44.8781652579
20
24.9612464637
30
0.0000000000
10
-44.7053673327
20
24.9643565084
30
0.0000000000
11
-45.7420715275
21
24.9456981149
31
0.0000000000
11
-45.2237611102
21
24.9550264690
31
0.0000000000
11
-44.7053673327
21
24.9643565084
31
0.0000000000
0
SPLINE
5
541
100
AcDbEntity
8
0
100
AcDbSpline
62
9
6
CONTINUOUS
70
0
71
3
72
10
73
6
74
4
42
0.0000001000
43
0.0000001000
44
0.0000000001
12
-0.2575826679
22
0.2575826754
32
0.0000000000
13
-0.3278436204
23
-0.1587961776
33
0.0000000000
40
0.0000000000
40
0.0000000000
40
0.0000000000
40
0.0000000000
40
0.2768405022
40
0.6051002265
40
1.0000000000
40
1.0000000000
40
1.0000000000
40
1.0000000000
10
-46.4840831248
20
25.3893025145
30
0.0000000000
10
-46.5078528965
20
25.4130722869
30
0.0000000000
10
-46.5777227865
20
25.4478619995
30
0.0000000000
10
-46.7020341905
20
25.4433986383
30
0.0000000000
10
-46.7857551850
20
25.4134990570
30
0.0000000000
10
-46.8289103089
20
25.3925961988
30
0.0000000000
11
-46.4840831248
21
25.3893025145
31
0.0000000000
11
-46.5729055458
21
25.4370582961
31
0.0000000000
11
-46.6924775286
21
25.4382004113
31
0.0000000000
11
-46.8289103089
21
25.3925961988
31
0.0000000000
0
SPLINE
5
542
100
AcDbEntity
8
0
100
AcDbSpline
62
9
6
CONTINUOUS
70
0
71
3
72
11
73
7
74
5
42
0.0000001000
43
0.0000001000
44
0.0000000001
12
0.2755251967
22
-0.2804979775
32
0.0000000000
13
0.3388171773
23
-0.1997528128
33
0.0000000000
40
0.0000000000
40
0.0000000000
40
0.0000000000
40
0.0000000000
40
0.2302995122
40
0.4879769255
40
0.7809403734
40
1.0000000000
40
1.0000000000
40
1.0000000000
40
1.0000000000
10
-46.8289103089
20
25.3925961957
30
0.0000000000
10
-46.8077592028
20
25.3710633465
30
0.0000000000
10
-46.7615663262
20
25.3267676085
30
0.0000000000
10
-46.6832818028
20
25.2607186540
30
0.0000000000
10
-46.6016184066
20
25.2013256086
30
0.0000000000
10
-46.5447759853
20
25.1655657889
30
0.0000000000
10
-46.5200355972
20
25.1509798634
30
0.0000000000
11
-46.8289103089
21
25.3925961957
31
0.0000000000
11
-46.7635512796
21
25.3299264803
31
0.0000000000
11
-46.6861131583
21
25.2645968107
31
0.0000000000
11
-46.5929530560
21
25.1968505186
31
0.0000000000
11
-46.5200355972
21
25.1509798634
31
0.0000000000
0
SPLINE
5
543
100
AcDbEntity
8
0
100
AcDbSpline
62
9
6
CONTINUOUS
70
0
71
3
72
8
73
4
74
2
42
0.0000001000
43
0.0000001000
44
0.0000000001
12
0.1810436878
22
-0.1843081655
32
0.0000000000
13
0.1810433880
23
-0.1843084600
33
0.0000000000
40
0.0000000000
40
0.0000000000
40
0.0000000000
40
0.0000000000
40
1.0000000000
40
1.0000000000
40
1.0000000000
40
1.0000000000
10
-47.9432389005
20
26.5270313210
30
0.0000000000
10
-47.8828910045
20
26.4655952658
30
0.0000000000
10
-47.8225431542
20
26.4041591659
30
0.0000000000
10
-47.7621953582
20
26.3427230125
30
0.0000000000
11
-47.9432389005
21
26.5270313210
31
0.0000000000
11
-47.7621953582
21
26.3427230125
31
0.0000000000
0
SPLINE
5
544
100
AcDbEntity
8
0
100
AcDbSpline
62
9
6
CONTINUOUS
70
0
71
3
72
9
73
5
74
3
42
0.0000001000
43
0.0000001000
44
0.0000000001
12
0.9332901515
22
-0.9501218050
32
0.0000000000
13
0.9332799638
23
-0.9501318122
33
0.0000000000
40
0.0000000000
40
0.0000000000
40
0.0000000000
40
0.0000000000
40
0.3773621792
40
1.0000000000
40
1.0000000000
40
1.0000000000
40
1.0000000000
10
-47.7621953582
20
26.3427230125
30
0.0000000000
10
-47.6447992230
20
26.2232096676
30
0.0000000000
10
-47.3337030509
20
25.9065018638
30
0.0000000000
10
-47.0226087766
20
25.5897921960
30
0.0000000000
10
-46.8289103089
20
25.3925961957
30
0.0000000000
11
-47.7621953582
21
26.3427230125
31
0.0000000000
11
-47.4100076344
21
25.9841823081
31
0.0000000000
11
-46.8289103089
21
25.3925961957
31
0.0000000000
0
SPLINE
5
545
100
AcDbEntity
8
0
100
AcDbSpline
62
9
6
CONTINUOUS
70
0
71
3
72
9
73
5
74
3
42
0.0000001000
43
0.0000001000
44
0.0000000001
12
11.2087270770
22
-0.0679688521
32
0.0000000000
13
11.2087253244
23
-0.0682572588
33
0.0000000000
40
0.0000000000
40
0.0000000000
40
0.0000000000
40
0.0000000000
40
0.4995508636
40
1.0000000000
40
1.0000000000
40
1.0000000000
40
1.0000000000
10
-55.9140935359
20
21.6389720980
30
0.0000000000
10
-54.0476504388
20
21.6276541317
30
0.0000000000
10
-50.3114082245
20
21.6049739887
30
0.0000000000
10
-46.5751663022
20
21.5822457773
30
0.0000000000
10
-44.7053673327
20
21.5708593485
30
0.0000000000
11
-55.9140935359
21
21.6389720980
31
0.0000000000
11
-50.3147644621
21
21.6049823661
31
0.0000000000
11
-44.7053673327
21
21.5708593485
31
0.0000000000
0
SPLINE
5
546
100
AcDbEntity
8
0
100
AcDbSpline
62
9
6
CONTINUOUS
70
0
71
3
72
9
73
5
74
3
42
0.0000001000
43
0.0000001000
44
0.0000000001
12
11.2087269104
22
-0.0638672486
32
0.0000000000
13
11.2087254922
23
-0.0641156626
33
0.0000000000
40
0.0000000000
40
0.0000000000
40
0.0000000000
40
0.0000000000
40
0.4995508638
40
1.0000000000
40
1.0000000000
40
1.0000000000
40
1.0000000000
10
-55.9140935359
20
22.8787425011
30
0.0000000000
10
-54.0476504657
20
22.8681075214
30
0.0000000000
10
-50.3114082793
20
22.8467978829
30
0.0000000000
10
-46.5751663293
20
22.8254468427
30
0.0000000000
10
-44.7053673326
20
22.8147513000
30
0.0000000000
11
-55.9140935359
21
22.8787425011
31
0.0000000000
11
-50.3147645013
21
22.8468066929
31
0.0000000000
11
-44.7053673326
21
22.8147513000
31
0.0000000000
0
SPLINE
5
547
100
AcDbEntity
8
0
100
AcDbSpline
62
7
6
CONTINUOUS
70
0
71
3
72
8
73
4
74
2
42
0.0000001000
43
0.0000001000
44
0.0000000001
12
0.0044449008
22
0.0233363178
32
0.0000000000
13
0.0068015019
23
0.0228100191
33
0.0000000000
40
0.0000000000
40
0.0000000000
40
0.0000000000
40
0.0000000000
40
1.0000000000
40
1.0000000000
40
1.0000000000
40
1.0000000000
10
-51.9105612510
20
-15.8398041088
30
0.0000000000
10
-51.9090796174
20
-15.8320253361
30
0.0000000000
10
-51.9071707228
20
-15.8243245603
30
0.0000000000
10
-51.9049035555
20
-15.8167212206
30
0.0000000000
11
-51.9105612510
21
-15.8398041088
31
0.0000000000
11
-51.9049035555
21
-15.8167212206
31
0.0000000000
0
SPLINE
5
548
100
AcDbEntity
8
0
100
AcDbSpline
62
7
6
CONTINUOUS
70
0
71
3
72
8
73
4
74
2
42
0.0000001000
43
0.0000001000
44
0.0000000001
12
0.0039574156
22
0.0132718814
32
0.0000000000
13
0.0046443919
23
0.0130624760
33
0.0000000000
40
0.0000000000
40
0.0000000000
40
0.0000000000
40
0.0000000000
40
1.0000000000
40
1.0000000000
40
1.0000000000
40
1.0000000000
10
-51.9049035555
20
-15.8167212206
30
0.0000000000
10
-51.9035844170
20
-15.8122972601
30
0.0000000000
10
-51.9021439878
20
-15.8079062860
30
0.0000000000
10
-51.9005958571
20
-15.8035521273
30
0.0000000000
11
-51.9049035555
21
-15.8167212206
31
0.0000000000
11
-51.9005958571
21
-15.8035521273
31
0.0000000000
0
SPLINE
5
549
100
AcDbEntity
8
0
100
AcDbSpline
62
7
6
CONTINUOUS
70
0
71
3
72
9
73
5
74
3
42
0.0000001000
43
0.0000001000
44
0.0000000001
12
0.0134192595
22
0.0377420252
32
0.0000000000
13
0.0179327112
23
0.0357289999
33
0.0000000000
40
0.0000000000
40
0.0000000000
40
0.0000000000
40
0.0000000000
40
0.4907552772
40
1.0000000000
40
1.0000000000
40
1.0000000000
40
1.0000000000
10
-51.9005958571
20
-15.8035521273
30
0.0000000000
10
-51.8984006663
20
-15.7973780946
30
0.0000000000
10
-51.8934863288
20
-15.7849482520
30
0.0000000000
10
-51.8878337291
20
-15.7728710850
30
0.0000000000
10
-51.8847896829
20
-15.7668061501
30
0.0000000000
11
-51.9005958571
21
-15.8035521273
31
0.0000000000
11
-51.8933993886
21
-15.7852630116
31
0.0000000000
11
-51.8847896829
21
-15.7668061501
31
0.0000000000
0
SPLINE
5
54A
100
AcDbEntity
8
0
100
AcDbSpline
62
7
6
CONTINUOUS
70
0
71
3
72
11
73
7
74
5
42
0.0000001000
43
0.0000001000
44
0.0000000001
12
0.1090518586
22
0.2172741088
32
0.0000000000
13
0.1661271783
23
0.1771638509
33
0.0000000000
40
0.0000000000
40
0.0000000000
40
0.0000000000
40
0.0000000000
40
0.1765735557
40
0.4634488558
40
0.7767418665
40
1.0000000000
40
1.0000000000
40
1.0000000000
40
1.0000000000
10
-51.8847896829
20
-15.7668061501
30
0.0000000000
10
-51.8783711247
20
-15.7540178628
30
0.0000000000
10
-51.8595933068
20
-15.7214481020
30
0.0000000000
10
-51.8224368200
20
-15.6705729060
30
0.0000000000
10
-51.7787984941
20
-15.6201331287
30
0.0000000000
10
-51.7492654035
20
-15.5882799340
30
0.0000000000
10
-51.7369023222
20
-15.5750955104
30
0.0000000000
11
-51.8847896829
21
-15.7668061501
31
0.0000000000
11
-51.8635700987
21
-15.7295212550
31
0.0000000000
11
-51.8229930305
21
-15.6728849315
31
0.0000000000
11
-51.7736526457
21
-15.6149635884
31
0.0000000000
11
-51.7369023222
21
-15.5750955104
31
0.0000000000
0
SPLINE
5
54B
100
AcDbEntity
8
0
100
AcDbSpline
62
7
6
CONTINUOUS
70
0
71
3
72
8
73
4
74
2
42
0.0000001000
43
0.0000001000
44
0.0000000001
12
0.0192742946
22
0.0205547839
32
0.0000000000
13
0.0193461456
23
0.0204865137
33
0.0000000000
40
0.0000000000
40
0.0000000000
40
0.0000000000
40
0.0000000000
40
1.0000000000
40
1.0000000000
40
1.0000000000
40
1.0000000000
10
-51.7369023222
20
-15.5750955104
30
0.0000000000
10
-51.7304775574
20
-15.5682439157
30
0.0000000000
10
-51.7240326983
20
-15.5614111290
30
0.0000000000
10
-51.7175839831
20
-15.5545822911
30
0.0000000000
11
-51.7369023222
21
-15.5750955104
31
0.0000000000
11
-51.7175839831
21
-15.5545822911
31
0.0000000000
0
SPLINE
5
54C
100
AcDbEntity
8
0
100
AcDbSpline
62
9
6
CONTINUOUS
70
0
71
3
72
11
73
7
74
5
42
0.0000001000
43
0.0000001000
44
0.0000000001
12
-0.1226552086
22
-0.0023410373
32
0.0000000000
13
0.0004869789
23
0.1226765809
33
0.0000000000
40
0.0000000000
40
0.0000000000
40
0.0000000000
40
0.0000000000
40
0.1247137414
40
0.3055929599
40
0.5907099952
40
1.0000000000
40
1.0000000000
40
1.0000000000
40
1.0000000000
10
-51.7175840174
20
-15.6772569702
30
0.0000000000
10
-51.7226829473
20
-15.6773542901
30
0.0000000000
10
-51.7144994510
20
-15.6561614975
30
0.0000000000
10
-51.7195029720
20
-15.6372746373
30
0.0000000000
10
-51.7169197746
20
-15.5988371387
30
0.0000000000
10
-51.7176504803
20
-15.5713180368
30
0.0000000000
10
-51.7175840417
20
-15.5545812707
30
0.0000000000
11
-51.7175840174
21
-15.6772569702
31
0.0000000000
11
-51.7177975718
21
-15.6619588848
31
0.0000000000
11
-51.7178181373
21
-15.6397690754
31
0.0000000000
11
-51.7177549205
21
-15.6047916739
31
0.0000000000
11
-51.7175840417
21
-15.5545812707
31
0.0000000000
0
SPLINE
5
54D
100
AcDbEntity
8
0
100
AcDbSpline
62
7
6
CONTINUOUS
70
0
71
3
72
10
73
6
74
4
42
0.0000001000
43
0.0000001000
44
0.0000000001
12
-0.0718704769
22
0.0761115844
32
0.0000000000
13
-0.0689895073
23
0.0787389396
33
0.0000000000
40
0.0000000000
40
0.0000000000
40
0.0000000000
40
0.0000000000
40
0.4326752294
40
0.8590573577
40
1.0000000000
40
1.0000000000
40
1.0000000000
40
1.0000000000
10
-51.7175839820
20
26.5932081550
30
0.0000000000
10
-51.7279495070
20
26.6041853541
30
0.0000000000
10
-51.7485385664
20
26.6259724631
30
0.0000000000
10
-51.7720911960
20
26.6517215324
30
0.0000000000
10
-51.7852125291
20
26.6665462769
30
0.0000000000
10
-51.7884537169
20
26.6702455017
30
0.0000000000
11
-51.7175839820
21
26.5932081550
31
0.0000000000
11
-51.7485990847
21
26.6262164946
31
0.0000000000
11
-51.7786781109
21
26.6591937141
31
0.0000000000
11
-51.7884537169
21
26.6702455017
31
0.0000000000
0
SPLINE
5
54E
100
AcDbEntity
8
0
100
AcDbSpline
62
7
6
CONTINUOUS
70
0
71
3
72
9
73
5
74
3
42
0.0000001000
43
0.0000001000
44
0.0000000001
12
-0.0479398985
22
0.0547146504
32
0.0000000000
13
-0.0438329503
23
0.0580656785
33
0.0000000000
40
0.0000000000
40
0.0000000000
40
0.0000000000
40
0.0000000000
40
0.4029322357
40
1.0000000000
40
1.0000000000
40
1.0000000000
40
1.0000000000
10
-51.7884537169
20
26.6702455017
30
0.0000000000
10
-51.7948925604
20
26.6775942671
30
0.0000000000
10
-51.8106904039
20
26.6959917133
30
0.0000000000
10
-51.8258555818
20
26.7149236585
30
0.0000000000
10
-51.8345793290
20
26.7264800401
30
0.0000000000
11
-51.7884537169
21
26.6702455017
31
0.0000000000
11
-51.8075207652
21
26.6925068937
31
0.0000000000
11
-51.8345793290
21
26.7264800401
31
0.0000000000
0
SPLINE
5
54F
100
AcDbEntity
8
0
100
AcDbSpline
62
7
6
CONTINUOUS
70
0
71
3
72
11
73
7
74
5
42
0.0000001000
43
0.0000001000
44
0.0000000001
12
-0.0857319990
22
0.1135695102
32
0.0000000000
13
-0.0434630397
23
0.1357484233
33
0.0000000000
40
0.0000000000
40
0.0000000000
40
0.0000000000
40
0.0000000000
40
0.3010672295
40
0.5998171620
40
0.8995037888
40
1.0000000000
40
1.0000000000
40
1.0000000000
40
1.0000000000
10
-51.8345793290
20
26.7264800401
30
0.0000000000
10
-51.8431830275
20
26.7378773927
30
0.0000000000
10
-51.8596829846
20
26.7610741204
30
0.0000000000
10
-51.8816469043
20
26.7977155593
30
0.0000000000
10
-51.8956155416
20
26.8278543867
30
0.0000000000
10
-51.9019046135
20
26.8458086212
30
0.0000000000
10
-51.9033605704
20
26.8503560220
30
0.0000000000
11
-51.8345793290
21
26.7264800401
31
0.0000000000
11
-51.8592797091
21
26.7614753626
31
0.0000000000
11
-51.8809630161
21
26.7980332599
31
0.0000000000
11
-51.8986381507
21
26.8368350907
31
0.0000000000
11
-51.9033605704
21
26.8503560220
31
0.0000000000
0
SPLINE
5
550
100
AcDbEntity
8
0
100
AcDbSpline
62
7
6
CONTINUOUS
70
0
71
3
72
8
73
4
74
2
42
0.0000001000
43
0.0000001000
44
0.0000000001
12
-0.0088505175
22
0.0276428847
32
0.0000000000
13
-0.0054208616
23
0.0284602578
33
0.0000000000
40
0.0000000000
40
0.0000000000
40
0.0000000000
40
0.0000000000
40
1.0000000000
40
1.0000000000
40
1.0000000000
40
1.0000000000
10
-51.9033605704
20
26.8503560220
30
0.0000000000
10
-51.9063107429
20
26.8595703169
30
0.0000000000
10
-51.9087542971
20
26.8689432201
30
0.0000000000
10
-51.9105612510
20
26.8784299727
30
0.0000000000
11
-51.9033605704
21
26.8503560220
31
0.0000000000
11
-51.9105612510
21
26.8784299727
31
0.0000000000
0
SPLINE
5
551
100
AcDbEntity
8
0
100
AcDbSpline
62
9
6
CONTINUOUS
70
0
71
3
72
11
73
7
74
5
42
0.0000001000
43
0.0000001000
44
0.0000000001
12
-0.0004869966
22
0.1226766136
32
0.0000000000
13
0.1226551816
23
-0.0023441701
33
0.0000000000
40
0.0000000000
40
0.0000000000
40
0.0000000000
40
0.0000000000
40
0.4092907420
40
0.6944074777
40
0.8752871174
40
1.0000000000
40
1.0000000000
40
1.0000000000
40
1.0000000000
10
-51.7175840426
20
26.5932071007
30
0.0000000000
10
-51.7176504836
20
26.6099439015
30
0.0000000000
10
-51.7169197705
20
26.6374630032
30
0.0000000000
10
-51.7195029747
20
26.6759006205
30
0.0000000000
10
-51.7144994430
20
26.6947873100
30
0.0000000000
10
-51.7226829111
20
26.7159802825
30
0.0000000000
10
-51.7175840174
20
26.7158828330
30
0.0000000000
11
-51.7175840426
21
26.5932071007
31
0.0000000000
11
-51.7177549205
21
26.6434176078
31
0.0000000000
11
-51.7178181372
21
26.6783949819
31
0.0000000000
11
-51.7177975717
21
26.7005848489
31
0.0000000000
11
-51.7175840174
21
26.7158828330
31
0.0000000000
0
SPLINE
5
552
100
AcDbEntity
8
0
100
AcDbSpline
62
7
6
CONTINUOUS
70
0
71
3
72
10
73
6
74
4
42
0.0000001000
43
0.0000001000
44
0.0000000001
12
-3.9999099472
22
-0.0844306542
32
0.0000000000
13
-4.0000789575
23
-0.0760029924
33
0.0000000000
40
0.0000000000
40
0.0000000000
40
0.0000000000
40
0.0000000000
40
0.3303097417
40
0.6636505372
40
1.0000000000
40
1.0000000000
40
1.0000000000
40
1.0000000000
10
-51.9140935359
20
-17.5805775428
30
0.0000000000
10
-52.3544966097
20
-17.5898736320
30
0.0000000000
10
-53.2393516308
20
-17.6081945130
30
0.0000000000
10
-54.5726859819
20
-17.6348319732
30
0.0000000000
10
-55.4656187330
20
-17.6520744412
30
0.0000000000
10
-55.9140935359
20
-17.6605956298
30
0.0000000000
11
-51.9140935359
21
-17.5805775428
31
0.0000000000
11
-53.2353135119
21
-17.6079515729
31
0.0000000000
11
-54.5686773273
21
-17.6346040717
31
0.0000000000
11
-55.9140935359
21
-17.6605956298
31
0.0000000000
0
SPLINE
5
553
100
AcDbEntity
8
0
100
AcDbSpline
62
9
6
CONTINUOUS
70
0
71
3
72
9
73
5
74
3
42
0.0000001000
43
0.0000001000
44
0.0000000001
12
-0.1006279277
22
0.1006279668
32
0.0000000000
13
-0.1417217164
23
0.0194083480
33
0.0000000000
40
0.0000000000
40
0.0000000000
40
0.0000000000
40
0.0000000000
40
0.7352833128
40
1.0000000000
40
1.0000000000
40
1.0000000000
40
1.0000000000
10
-47.5984115506
20
26.5036309467
30
0.0000000000
10
-47.6230748959
20
26.5282943016
30
0.0000000000
10
-47.6668506346
20
26.5522660184
30
0.0000000000
10
-47.7136520882
20
26.5620092129
30
0.0000000000
10
-47.7261574559
20
26.5637217841
30
0.0000000000
11
-47.5984115506
21
26.5036309467
31
0.0000000000
11
-47.6890858634
21
26.5558537779
31
0.0000000000
11
-47.7261574559
21
26.5637217841
31
0.0000000000
0
SPLINE
5
554
100
AcDbEntity
8
0
100
AcDbSpline
62
9
6
CONTINUOUS
70
0
71
3
72
8
73
4
74
2
42
0.0000001000
43
0.0000001000
44
0.0000000001
12
-0.0397806290
22
0.0054478333
32
0.0000000000
13
-0.0402222270
23
0.0000680496
33
0.0000000000
40
0.0000000000
40
0.0000000000
40
0.0000000000
40
0.0000000000
40
1.0000000000
40
1.0000000000
40
1.0000000000
40
1.0000000000
10
-47.7261574559
20
26.5637217841
30
0.0000000000
10
-47.7394176656
20
26.5655377285
30
0.0000000000
10
-47.7528085739
20
26.5663792802
30
0.0000000000
10
-47.7662159829
20
26.5664019634
30
0.0000000000
11
-47.7261574559
21
26.5637217841
31
0.0000000000
11
-47.7662159829
21
26.5664019634
31
0.0000000000
0
SPLINE
5
555
100
AcDbEntity
8
0
100
AcDbSpline
62
9
6
CONTINUOUS
70
0
71
3
72
9
73
5
74
3
42
0.0000001000
43
0.0000001000
44
0.0000000001
12
-0.1410314589
22
0.0002386027
32
0.0000000000
13
-0.1329976897
23
-0.0451819473
33
0.0000000000
40
0.0000000000
40
0.0000000000
40
0.0000000000
40
0.0000000000
40
0.2993193607
40
1.0000000000
40
1.0000000000
40
1.0000000000
40
1.0000000000
10
-47.7662159829
20
26.5664019634
30
0.0000000000
10
-47.7802871316
20
26.5664257696
30
0.0000000000
10
-47.8273583388
20
26.5634919595
30
0.0000000000
10
-47.8731589351
20
26.5524975280
30
0.0000000000
10
-47.9042219039
20
26.5419448227
30
0.0000000000
11
-47.7662159829
21
26.5664019634
31
0.0000000000
11
-47.8083519422
21
26.5639473094
31
0.0000000000
11
-47.9042219039
21
26.5419448227
31
0.0000000000
0
SPLINE
5
556
100
AcDbEntity
8
0
100
AcDbSpline
62
9
6
CONTINUOUS
70
0
71
3
72
8
73
4
74
2
42
0.0000001000
43
0.0000001000
44
0.0000000001
12
-0.0396052947
22
-0.0134547024
32
0.0000000000
13
-0.0383972977
23
-0.0162872065
33
0.0000000000
40
0.0000000000
40
0.0000000000
40
0.0000000000
40
0.0000000000
40
1.0000000000
40
1.0000000000
40
1.0000000000
40
1.0000000000
10
-47.9042219039
20
26.5419448227
30
0.0000000000
10
-47.9174236688
20
26.5374599219
30
0.0000000000
10
-47.9304396387
20
26.5324603986
30
0.0000000000
10
-47.9432387379
20
26.5270313297
30
0.0000000000
11
-47.9042219039
21
26.5419448227
31
0.0000000000
11
-47.9432387379
21
26.5270313297
31
0.0000000000
0
SPLINE
5
557
100
AcDbEntity
8
0
100
AcDbSpline
62
9
6
CONTINUOUS
70
0
71
3
72
10
73
6
74
4
42
0.0000001000
43
0.0000001000
44
0.0000000001
12
0.1229631136
22
-0.0021463291
32
0.0000000000
13
-0.0004143186
23
-0.1229811464
33
0.0000000000
40
0.0000000000
40
0.0000000000
40
0.0000000000
40
0.0000000000
40
0.1154847084
40
0.4552180529
40
1.0000000000
40
1.0000000000
40
1.0000000000
40
1.0000000000
10
-47.9432387379
20
26.6500014037
30
0.0000000000
10
-47.9385052848
20
26.6499187809
30
0.0000000000
10
-47.9486615993
20
26.6200656545
30
0.0000000000
10
-47.9387241272
20
26.5898728261
30
0.0000000000
10
-47.9431635002
20
26.5493639659
30
0.0000000000
10
-47.9432387379
20
26.5270313297
30
0.0000000000
11
-47.9432387379
21
26.6500014037
31
0.0000000000
11
-47.9427136216
21
26.6358085922
31
0.0000000000
11
-47.9427134327
21
26.5940275589
31
0.0000000000
11
-47.9432387379
21
26.5270313297
31
0.0000000000
0
SPLINE
5
558
100
AcDbEntity
8
0
100
AcDbSpline
62
9
6
CONTINUOUS
70
0
71
3
72
11
73
7
74
5
42
0.0000001000
43
0.0000001000
44
0.0000000001
12
0.0000000000
22
0.6596484715
32
0.0000000000
13
-0.6595993271
23
0.0080519358
33
0.0000000000
40
0.0000000000
40
0.0000000000
40
0.0000000000
40
0.0000000000
40
0.2085035462
40
0.4431841000
40
0.7108109530
40
1.0000000000
40
1.0000000000
40
1.0000000000
40
1.0000000000
10
-44.2140935359
20
24.6147334951
30
0.0000000000
10
-44.2140935359
20
24.6605798437
30
0.0000000000
10
-44.2439334711
20
24.7591612807
30
0.0000000000
10
-44.3581127211
20
24.8723427586
30
0.0000000000
10
-44.5188043961
20
24.9458771547
30
0.0000000000
10
-44.6417843657
20
24.9635803326
30
0.0000000000
10
-44.7053673327
20
24.9643565098
30
0.0000000000
11
-44.2140935359
21
24.6147334951
31
0.0000000000
11
-44.2513232839
21
24.7471379321
31
0.0000000000
11
-44.3574683113
21
24.8598248337
31
0.0000000000
11
-44.5167216077
21
24.9360129803
31
0.0000000000
11
-44.7053673327
21
24.9643565098
31
0.0000000000
0
SPLINE
5
559
100
AcDbEntity
8
0
100
AcDbSpline
62
9
6
CONTINUOUS
70
0
71
3
72
10
73
6
74
4
42
0.0000001000
43
0.0000001000
44
0.0000000001
12
0.1517489923
22
0.0026487885
32
0.0000000000
13
0.0139152625
23
-0.1511328496
33
0.0000000000
40
0.0000000000
40
0.0000000000
40
0.0000000000
40
0.0000000000
40
0.1197415736
40
0.4600609008
40
1.0000000000
40
1.0000000000
40
1.0000000000
40
1.0000000000
10
-44.7228197391
20
25.1146573427
30
0.0000000000
10
-44.7167628514
20
25.1147630661
30
0.0000000000
10
-44.7182594787
20
25.0790647962
30
0.0000000000
10
-44.7075233445
20
25.0407779558
30
0.0000000000
10
-44.7078717974
20
24.9915573547
30
0.0000000000
10
-44.7053673327
20
24.9643565098
30
0.0000000000
11
-44.7228197391
21
25.1146573427
31
0.0000000000
11
-44.7171059335
21
25.0974055016
31
0.0000000000
11
-44.7111311455
21
25.0461012541
31
0.0000000000
11
-44.7053673327
21
24.9643565098
31
0.0000000000
0
SPLINE
5
55A
100
AcDbEntity
8
0
100
AcDbSpline
62
9
6
CONTINUOUS
70
0
71
3
72
12
73
8
74
6
42
0.0000001000
43
0.0000001000
44
0.0000000001
12
0.4999839784
22
-0.0087272528
32
0.0000000000
13
-0.0087245954
23
-0.4999840248
33
0.0000000000
40
0.0000000000
40
0.0000000000
40
0.0000000000
40
0.0000000000
40
0.0495138601
40
0.1924050561
40
0.4144910785
40
0.6941018443
40
1.0000000000
40
1.0000000000
40
1.0000000000
40
1.0000000000
10
-35.3053673327
20
14.7138105377
30
0.0000000000
10
-35.2971152871
20
14.7136664977
30
0.0000000000
10
-35.3114892502
20
14.6625397909
30
0.0000000000
10
-35.2962724447
20
14.6110445367
30
0.0000000000
10
-35.3039833616
20
14.4944082410
30
0.0000000000
10
-35.3022774445
20
14.3633703470
30
0.0000000000
10
-35.3044777201
20
14.2648680871
30
0.0000000000
10
-35.3053673327
20
14.2138866901
30
0.0000000000
11
-35.3053673327
21
14.7138105377
31
0.0000000000
11
-35.3030936329
21
14.6891552477
31
0.0000000000
11
-35.3019028450
21
14.6177109792
31
0.0000000000
11
-35.3019115051
21
14.5066546121
31
0.0000000000
11
-35.3031168157
21
14.3668376085
31
0.0000000000
11
-35.3053673327
21
14.2138866901
31
0.0000000000
0
SPLINE
5
55B
100
AcDbEntity
8
0
100
AcDbSpline
62
9
6
CONTINUOUS
70
0
71
3
72
12
73
8
74
6
42
0.0000001000
43
0.0000001000
44
0.0000000001
12
0.4999842083
22
-0.0087272568
32
0.0000000000
13
-0.0087245995
23
-0.4999842547
33
0.0000000000
40
0.0000000000
40
0.0000000000
40
0.0000000000
40
0.0000000000
40
0.0492148676
40
0.1912677328
40
0.4124302269
40
0.6910919715
40
1.0000000000
40
1.0000000000
40
1.0000000000
40
1.0000000000
10
-43.7228197391
20
14.8607377160
30
0.0000000000
10
-43.7146175202
20
14.8605945457
30
0.0000000000
10
-43.7288869985
20
14.8097726469
30
0.0000000000
10
-43.7137541013
20
14.7585277098
30
0.0000000000
10
-43.7214219905
20
14.6423787715
30
0.0000000000
10
-43.7197104606
20
14.5111529984
30
0.0000000000
10
-43.7219213728
20
14.4122969185
30
0.0000000000
10
-43.7228197391
20
14.3608138684
30
0.0000000000
11
-43.7228197391
21
14.8607377160
31
0.0000000000
11
-43.7205514471
21
14.8362320660
31
0.0000000000
11
-43.7193589591
21
14.7652070677
31
0.0000000000
11
-43.7193589591
21
14.6546124691
31
0.0000000000
11
-43.7205514471
21
14.5152698766
31
0.0000000000
11
-43.7228197391
21
14.3608138684
31
0.0000000000
0
SPLINE
5
55C
100
AcDbEntity
8
0
100
AcDbSpline
62
9
6
CONTINUOUS
70
0
71
3
72
9
73
5
74
3
42
0.0000001000
43
0.0000001000
44
0.0000000001
12
20.6087286044
22
0.1174283934
32
0.0000000000
13
20.6087237773
23
0.1182725166
33
0.0000000000
40
0.0000000000
40
0.0000000000
40
0.0000000000
40
0.0000000000
40
0.4991766728
40
1.0000000000
40
1.0000000000
40
1.0000000000
40
1.0000000000
10
-55.9140935359
20
-11.8401166372
30
0.0000000000
10
-52.4849613441
20
-11.8205774656
30
0.0000000000
10
-45.6153855381
20
-11.7813652301
30
0.0000000000
10
-38.7458105365
20
-11.7420123148
30
0.0000000000
10
-35.3053673327
20
-11.7222677697
30
0.0000000000
11
-55.9140935359
21
-11.8401166372
31
0.0000000000
11
-45.6266975557
21
-11.7813947449
31
0.0000000000
11
-35.3053673327
21
-11.7222677697
31
0.0000000000
0
SPLINE
5
55D
100
AcDbEntity
8
0
100
AcDbSpline
62
9
6
CONTINUOUS
70
0
71
3
72
9
73
5
74
3
42
0.0000001000
43
0.0000001000
44
0.0000000001
12
20.6087291708
22
0.1249697361
32
0.0000000000
13
20.6087232035
23
0.1259499577
33
0.0000000000
40
0.0000000000
40
0.0000000000
40
0.0000000000
40
0.0000000000
40
0.4991766659
40
1.0000000000
40
1.0000000000
40
1.0000000000
40
1.0000000000
10
-55.9140935359
20
-10.6003462340
30
0.0000000000
10
-52.4849612971
20
-10.5795522420
30
0.0000000000
10
-45.6153853953
20
-10.5378150651
30
0.0000000000
10
-38.7458104879
20
-10.4959145282
30
0.0000000000
10
-35.3053673327
20
-10.4748883023
30
0.0000000000
11
-55.9140935359
21
-10.6003462340
31
0.0000000000
11
-45.6266975550
21
-10.5378430868
31
0.0000000000
11
-35.3053673327
21
-10.4748883023
31
0.0000000000
0
SPLINE
5
55E
100
AcDbEntity
8
0
100
AcDbSpline
62
9
6
CONTINUOUS
70
0
71
3
72
11
73
7
74
5
42
0.0000001000
43
0.0000001000
44
0.0000000001
12
-0.0000000005
22
0.6328953804
32
0.0000000000
13
-0.6328580775
23
0.0068714083
33
0.0000000000
40
0.0000000000
40
0.0000000000
40
0.0000000000
40
0.0000000000
40
0.1951515903
40
0.4258186589
40
0.6992796764
40
1.0000000000
40
1.0000000000
40
1.0000000000
40
1.0000000000
10
-44.2140935359
20
22.5037783122
30
0.0000000000
10
-44.2140935359
20
22.5449484922
30
0.0000000000
10
-44.2459678873
20
22.6354629941
30
0.0000000000
10
-44.3609629947
20
22.7343077118
30
0.0000000000
10
-44.5203197559
20
22.7986251433
30
0.0000000000
10
-44.6419295707
20
22.8140625106
30
0.0000000000
10
-44.7053673326
20
22.8147513013
30
0.0000000000
11
-44.2140935359
21
22.5037783122
31
0.0000000000
11
-44.2513224319
21
22.6215444482
31
0.0000000000
11
-44.3574663862
21
22.7217741482
31
0.0000000000
11
-44.5167199386
21
22.7895406411
31
0.0000000000
11
-44.7053673326
21
22.8147513013
31
0.0000000000
0
SPLINE
5
55F
100
AcDbEntity
8
0
100
AcDbSpline
62
9
6
CONTINUOUS
70
0
71
3
72
11
73
7
74
5
42
0.0000001000
43
0.0000001000
44
0.0000000001
12
0.0024186183
22
-1.2438817956
32
0.0000000000
13
-0.0018926208
23
-1.2438827072
33
0.0000000000
40
0.0000000000
40
0.0000000000
40
0.0000000000
40
0.0000000000
40
0.2243715334
40
0.4704478699
40
0.7313847233
40
1.0000000000
40
1.0000000000
40
1.0000000000
40
1.0000000000
10
-44.7053675669
20
22.8147429507
30
0.0000000000
10
-44.7051866772
20
22.7217123954
30
0.0000000000
10
-44.7049280886
20
22.5266516406
30
0.0000000000
10
-44.7048093112
20
22.2233990095
30
0.0000000000
10
-44.7049429292
20
21.9018016877
30
0.0000000000
10
-44.7051981841
20
21.6822346466
30
0.0000000000
10
-44.7053676464
20
21.5708593474
30
0.0000000000
11
-44.7053675669
21
22.8147429507
31
0.0000000000
11
-44.7049814601
21
22.5356510243
31
0.0000000000
11
-44.7048516950
21
22.2295605979
31
0.0000000000
11
-44.7049814330
21
21.9049854085
31
0.0000000000
11
-44.7053676464
21
21.5708593474
31
0.0000000000
0
SPLINE
5
560
100
AcDbEntity
8
0
100
AcDbSpline
62
9
6
CONTINUOUS
70
0
71
3
72
14
73
10
74
8
42
0.0000001000
43
0.0000001000
44
0.0000000001
12
-0.0000223261
22
-1.5500901613
32
0.0000000000
13
1.5498539382
23
-0.0270606540
33
0.0000000000
40
0.0000000000
40
0.0000000000
40
0.0000000000
40
0.0000000000
40
0.1273578543
40
0.2705521359
40
0.4230538758
40
0.5785595642
40
0.7310300424
40
0.8737713831
40
1.0000000000
40
1.0000000000
40
1.0000000000
40
1.0000000000
10
-44.7053673327
20
15.3606615635
30
0.0000000000
10
-44.7053682805
20
15.2948561779
30
0.0000000000
10
-44.6914792169
20
15.1546949438
30
0.0000000000
10
-44.6244791411
20
14.9447800655
30
0.0000000000
10
-44.5037642199
20
14.7427455879
30
0.0000000000
10
-44.3351527268
20
14.5715963126
30
0.0000000000
10
-44.1351623517
20
14.4480053395
30
0.0000000000
10
-43.9271055780
20
14.3780642244
30
0.0000000000
10
-43.7880317121
20
14.3619524780
30
0.0000000000
10
-43.7228197391
20
14.3608138684
30
0.0000000000
11
-44.7053673327
21
15.3606615635
31
0.0000000000
11
-44.6858751936
21
15.1642100541
31
0.0000000000
11
-44.6183830597
21
14.9527559218
31
0.0000000000
11
-44.4971209719
21
14.7498361789
31
0.0000000000
11
-44.3279522346
21
14.5781213036
31
0.0000000000
11
-44.1269107877
21
14.4538621203
31
0.0000000000
11
-43.9171824232
21
14.3833577749
31
0.0000000000
11
-43.7228197391
21
14.3608138684
31
0.0000000000
0
SPLINE
5
561
100
AcDbEntity
8
0
100
AcDbSpline
62
9
6
CONTINUOUS
70
0
71
3
72
9
73
5
74
3
42
0.0000001000
43
0.0000001000
44
0.0000000001
12
-0.2032227991
22
-0.0130960972
32
0.0000000000
13
-0.1963062703
23
0.0528941305
33
0.0000000000
40
0.0000000000
40
0.0000000000
40
0.0000000000
40
0.0000000000
40
0.5712547247
40
1.0000000000
40
1.0000000000
40
1.0000000000
40
1.0000000000
10
-47.7628430536
20
-15.5276577454
30
0.0000000000
10
-47.8015403816
20
-15.5301514812
30
0.0000000000
10
-47.8696546319
20
-15.5252056348
30
0.0000000000
10
-47.9357602243
20
-15.5100508153
30
0.0000000000
10
-47.9638153530
20
-15.5024914458
30
0.0000000000
11
-47.7628430536
21
-15.5276577454
31
0.0000000000
11
-47.8787060669
21
-15.5211692908
31
0.0000000000
11
-47.9638153530
21
-15.5024914458
31
0.0000000000
0
SPLINE
5
562
100
AcDbEntity
8
0
100
AcDbSpline
62
9
6
CONTINUOUS
70
0
71
3
72
8
73
4
74
2
42
0.0000001000
43
0.0000001000
44
0.0000000001
12
-0.0450846239
22
0.0121479155
32
0.0000000000
13
-0.0446277106
23
0.0136002426
33
0.0000000000
40
0.0000000000
40
0.0000000000
40
0.0000000000
40
0.0000000000
40
1.0000000000
40
1.0000000000
40
1.0000000000
40
1.0000000000
10
-47.9638153530
20
-15.5024914458
30
0.0000000000
10
-47.9788435609
20
-15.4984421406
30
0.0000000000
10
-47.9937893221
20
-15.4940881599
30
0.0000000000
10
-48.0086652257
20
-15.4895547457
30
0.0000000000
11
-47.9638153530
21
-15.5024914458
31
0.0000000000
11
-48.0086652257
21
-15.4895547457
31
0.0000000000
0
SPLINE
5
563
100
AcDbEntity
8
0
100
AcDbSpline
62
9
6
CONTINUOUS
70
0
71
3
72
10
73
6
74
4
42
0.0000001000
43
0.0000001000
44
0.0000000001
12
0.0768298871
22
0.0013446276
32
0.0000000000
13
-0.0001581811
23
0.0764288925
33
0.0000000000
40
0.0000000000
40
0.0000000000
40
0.0000000000
40
0.0000000000
40
0.1849754990
40
0.7286769383
40
1.0000000000
40
1.0000000000
40
1.0000000000
40
1.0000000000
10
-48.0086651760
20
-15.6125175624
30
0.0000000000
10
-48.0039279604
20
-15.6124346547
30
0.0000000000
10
-48.0140848826
20
-15.5825757456
30
0.0000000000
10
-48.0079058914
20
-15.5637094209
30
0.0000000000
10
-48.0071778931
20
-15.5437575735
30
0.0000000000
10
-48.0071921992
20
-15.5368452665
30
0.0000000000
11
-48.0086651760
21
-15.6125175624
31
0.0000000000
11
-48.0081399951
21
-15.5983134450
31
0.0000000000
11
-48.0081400282
21
-15.5565345279
31
0.0000000000
11
-48.0071921992
21
-15.5368452665
31
0.0000000000
0
SPLINE
5
564
100
AcDbEntity
8
0
100
AcDbSpline
62
9
6
CONTINUOUS
70
0
71
3
72
8
73
4
74
2
42
0.0000001000
43
0.0000001000
44
0.0000000001
12
-0.0000450729
22
0.0217780443
32
0.0000000000
13
-0.0009763622
23
0.0227441048
33
0.0000000000
40
0.0000000000
40
0.0000000000
40
0.0000000000
40
0.0000000000
40
1.0000000000
40
1.0000000000
40
1.0000000000
40
1.0000000000
10
-48.0071921992
20
-15.5368452665
30
0.0000000000
10
-48.0072072235
20
-15.5295859184
30
0.0000000000
10
-48.0075053244
20
-15.5220284445
30
0.0000000000
10
-48.0078307784
20
-15.5144470763
30
0.0000000000
11
-48.0071921992
21
-15.5368452665
31
0.0000000000
11
-48.0078307784
21
-15.5144470763
31
0.0000000000
0
SPLINE
5
565
100
AcDbEntity
8
0
100
AcDbSpline
62
9
6
CONTINUOUS
70
0
71
3
72
8
73
4
74
2
42
0.0000001000
43
0.0000001000
44
0.0000000001
12
-0.0010808722
22
0.0251786385
32
0.0000000000
13
-0.0002411714
23
0.0242381743
33
0.0000000000
40
0.0000000000
40
0.0000000000
40
0.0000000000
40
0.0000000000
40
1.0000000000
40
1.0000000000
40
1.0000000000
40
1.0000000000
10
-48.0078307784
20
-15.5144470763
30
0.0000000000
10
-48.0081910692
20
-15.5060541968
30
0.0000000000
10
-48.0085848823
20
-15.4976320338
30
0.0000000000
10
-48.0086652728
20
-15.4895526423
30
0.0000000000
11
-48.0078307784
21
-15.5144470763
31
0.0000000000
11
-48.0086652728
21
-15.4895526423
31
0.0000000000
0
SPLINE
5
566
100
AcDbEntity
8
0
100
AcDbSpline
62
9
6
CONTINUOUS
70
0
71
3
72
9
73
5
74
3
42
0.0000001000
43
0.0000001000
44
0.0000000001
12
-3.7089186650
22
-0.0650303544
32
0.0000000000
13
-3.7089186890
23
-0.0650289829
33
0.0000000000
40
0.0000000000
40
0.0000000000
40
0.0000000000
40
0.0000000000
40
0.5001458146
40
1.0000000000
40
1.0000000000
40
1.0000000000
40
1.0000000000
10
-48.0086653058
20
-15.4895526429
30
0.0000000000
10
-48.6269986881
20
-15.5003941961
30
0.0000000000
10
-49.8633049122
20
-15.5220708367
30
0.0000000000
10
-51.0996111398
20
-15.5437472880
30
0.0000000000
10
-51.7175839831
20
-15.5545822911
30
0.0000000000
11
-48.0086653058
21
-15.4895526429
31
0.0000000000
11
-49.8636654560
21
-15.5220771109
31
0.0000000000
11
-51.7175839831
21
-15.5545822911
31
0.0000000000
0
SPLINE
5
567
100
AcDbEntity
8
0
100
AcDbSpline
62
9
6
CONTINUOUS
70
0
71
3
72
11
73
7
74
5
42
0.0000001000
43
0.0000001000
44
0.0000000001
12
0.0019060089
22
-1.2473672353
32
0.0000000000
13
-0.0024368520
23
-1.2473663113
33
0.0000000000
40
0.0000000000
40
0.0000000000
40
0.0000000000
40
0.0000000000
40
0.2687412823
40
0.5297681142
40
0.7758028123
40
1.0000000000
40
1.0000000000
40
1.0000000000
40
1.0000000000
10
-35.3053675684
20
-10.4748883007
30
0.0000000000
10
-35.3051968273
20
-10.5866279908
30
0.0000000000
10
-35.3049401178
20
-10.8068999175
30
0.0000000000
10
-35.3048054299
20
-11.1294706343
30
0.0000000000
10
-35.3049248253
20
-11.4335203881
30
0.0000000000
10
-35.3051855379
20
-11.6290377693
30
0.0000000000
10
-35.3053676497
20
-11.7222564423
30
0.0000000000
11
-35.3053675684
21
-10.4748883007
31
0.0000000000
11
-35.3049787718
21
-10.8101075368
31
0.0000000000
11
-35.3048480951
21
-11.1357042084
31
0.0000000000
11
-35.3049787450
21
-11.4426001601
31
0.0000000000
11
-35.3053676497
21
-11.7222564423
31
0.0000000000
0
SPLINE
5
568
100
AcDbEntity
8
0
100
AcDbSpline
62
9
6
CONTINUOUS
70
0
71
3
72
9
73
5
74
3
42
0.0000001000
43
0.0000001000
44
0.0000000001
12
3.7743450942
22
-0.0661761131
32
0.0000000000
13
3.7743450692
23
-0.0661775335
33
0.0000000000
40
0.0000000000
40
0.0000000000
40
0.0000000000
40
0.0000000000
40
0.4998524914
40
1.0000000000
40
1.0000000000
40
1.0000000000
40
1.0000000000
10
-51.7175839820
20
26.5932081550
30
0.0000000000
10
-51.0887120490
20
26.5821820567
30
0.0000000000
10
-49.8305970196
20
26.5601232402
30
0.0000000000
10
-48.5724819947
20
26.5380641638
30
0.0000000000
10
-47.9432389005
20
26.5270313210
30
0.0000000000
11
-51.7175839820
21
26.5932081550
31
0.0000000000
11
-49.8309681862
21
26.5601296830
31
0.0000000000
11
-47.9432389005
21
26.5270313210
31
0.0000000000
0
SPLINE
5
569
100
AcDbEntity
8
0
100
AcDbSpline
62
9
6
CONTINUOUS
70
0
71
3
72
8
73
4
74
2
42
0.0000001000
43
0.0000001000
44
0.0000000001
12
-0.0000000000
22
-0.0892795871
32
0.0000000000
13
-0.0323619463
23
-0.0848247842
33
0.0000000000
40
0.0000000000
40
0.0000000000
40
0.0000000000
40
0.0000000000
40
1.0000000000
40
1.0000000000
40
1.0000000000
40
1.0000000000
10
-34.8140935359
20
-13.1626812148
30
0.0000000000
10
-34.8140935359
20
-13.1924410772
30
0.0000000000
10
-34.8202173236
20
-13.2224218465
30
0.0000000000
10
-34.8310046390
20
-13.2506967746
30
0.0000000000
11
-34.8140935359
21
-13.1626812148
31
0.0000000000
11
-34.8310046390
21
-13.2506967746
31
0.0000000000
0
SPLINE
5
56A
100
AcDbEntity
8
0
100
AcDbSpline
62
9
6
CONTINUOUS
70
0
71
3
72
9
73
5
74
3
42
0.0000001000
43
0.0000001000
44
0.0000000001
12
-0.0529631554
22
-0.1388231777
32
0.0000000000
13
-0.1091387136
23
-0.0989043436
33
0.0000000000
40
0.0000000000
40
0.0000000000
40
0.0000000000
40
0.0000000000
40
0.3165590854
40
1.0000000000
40
1.0000000000
40
1.0000000000
40
1.0000000000
10
-34.8310046390
20
-13.2506967746
30
0.0000000000
10
-34.8365932950
20
-13.2653453540
30
0.0000000000
10
-34.8582017814
20
-13.3101734017
30
0.0000000000
10
-34.8902748519
20
-13.3477588863
30
0.0000000000
10
-34.9151381393
20
-13.3702906447
30
0.0000000000
11
-34.8310046390
21
-13.2506967746
31
0.0000000000
11
-34.8513226728
21
-13.2930010308
31
0.0000000000
11
-34.9151381393
21
-13.3702906447
31
0.0000000000
0
SPLINE
5
56B
100
AcDbEntity
8
0
100
AcDbSpline
62
9
6
CONTINUOUS
70
0
71
3
72
9
73
5
74
3
42
0.0000001000
43
0.0000001000
44
0.0000000001
12
-0.0821933208
22
-0.0744857272
32
0.0000000000
13
-0.0971714896
23
-0.0524950493
33
0.0000000000
40
0.0000000000
40
0.0000000000
40
0.0000000000
40
0.0000000000
40
0.4876414487
40
1.0000000000
40
1.0000000000
40
1.0000000000
40
1.0000000000
10
-34.9151381393
20
-13.3702906447
30
0.0000000000
10
-34.9284984293
20
-13.3823980873
30
0.0000000000
10
-34.9576389708
20
-13.4053580916
30
0.0000000000
10
-34.9890845091
20
-13.4246345112
30
0.0000000000
10
-35.0056800570
20
-13.4335999404
30
0.0000000000
11
-34.9151381393
21
-13.3702906447
31
0.0000000000
11
-34.9574668159
21
-13.4039146518
31
0.0000000000
11
-35.0056800570
21
-13.4335999404
31
0.0000000000
0
SPLINE
5
56C
100
AcDbEntity
8
0
100
AcDbSpline
62
9
6
CONTINUOUS
70
0
71
3
72
10
73
6
74
4
42
0.0000001000
43
0.0000001000
44
0.0000000001
12
0.0016099428
22
-0.1869472130
32
0.0000000000
13
-0.1869534959
23
-0.0004926854
33
0.0000000000
40
0.0000000000
40
0.0000000000
40
0.0000000000
40
0.0000000000
40
0.5416924424
40
0.8831589242
40
1.0000000000
40
1.0000000000
40
1.0000000000
40
1.0000000000
10
-35.3053675147
20
-13.5067954155
30
0.0000000000
10
-35.3050768167
20
-13.5405513796
30
0.0000000000
10
-35.2986365443
20
-13.6021034210
30
0.0000000000
10
-35.3139373483
20
-13.6477401925
30
0.0000000000
10
-35.2980865573
20
-13.6937173075
30
0.0000000000
10
-35.3053678399
20
-13.6937364962
30
0.0000000000
11
-35.3053675147
21
-13.5067954155
31
0.0000000000
11
-35.3046830266
21
-13.6080647497
31
0.0000000000
11
-35.3046825808
21
-13.6719033239
31
0.0000000000
11
-35.3053678399
21
-13.6937364962
31
0.0000000000
0
SPLINE
5
56D
100
AcDbEntity
8
0
100
AcDbSpline
62
9
6
CONTINUOUS
70
0
71
3
72
11
73
7
74
5
42
0.0000001000
43
0.0000001000
44
0.0000000001
12
-0.0000000004
22
-0.6334871461
32
0.0000000000
13
-0.6334495985
23
-0.0068971257
33
0.0000000000
40
0.0000000000
40
0.0000000000
40
0.0000000000
40
0.0000000000
40
0.1954686554
40
0.4262261650
40
0.6995484654
40
1.0000000000
40
1.0000000000
40
1.0000000000
40
1.0000000000
10
-34.8140935359
20
-11.4104229029
30
0.0000000000
10
-34.8140935359
20
-11.4516985298
30
0.0000000000
10
-34.8459166379
20
-11.5423967831
30
0.0000000000
10
-34.9608996984
20
-11.6415695283
30
0.0000000000
10
-35.1202887443
20
-11.7060896119
30
0.0000000000
10
-35.2419270313
20
-11.7215770190
30
0.0000000000
10
-35.3053673327
20
-11.7222677697
30
0.0000000000
11
-34.8140935359
21
-11.4104229029
31
0.0000000000
11
-34.8513232739
21
-11.5285205022
31
0.0000000000
11
-34.9574682892
21
-11.6290311403
31
0.0000000000
11
-35.1167215889
21
-11.6969868659
31
0.0000000000
11
-35.3053673327
21
-11.7222677697
31
0.0000000000
0
SPLINE
5
56E
100
AcDbEntity
8
0
100
AcDbSpline
62
9
6
CONTINUOUS
70
0
71
3
72
10
73
6
74
4
42
0.0000001000
43
0.0000001000
44
0.0000000001
12
-10.4259507719
22
-0.1832439360
32
0.0000000000
13
-10.4259510665
23
-0.1832271737
33
0.0000000000
40
0.0000000000
40
0.0000000000
40
0.0000000000
40
0.0000000000
40
0.3336979928
40
0.6670313315
40
1.0000000000
40
1.0000000000
40
1.0000000000
40
1.0000000000
10
-35.3053673327
20
-13.5068025901
30
0.0000000000
10
-36.4650736146
20
-13.5271853013
30
0.0000000000
10
-38.7832189008
20
-13.5679278220
30
0.0000000000
10
-42.2585358742
20
-13.6290063227
30
0.0000000000
10
-44.5741465709
20
-13.6697018142
30
0.0000000000
10
-45.7313182524
20
-13.6900381168
30
0.0000000000
11
-35.3053673327
21
-13.5068025901
31
0.0000000000
11
-38.7844861951
21
-13.5679497831
31
0.0000000000
11
-42.2598032241
21
-13.6290282868
31
0.0000000000
11
-45.7313182524
21
-13.6900381168
31
0.0000000000
0
SPLINE
5
56F
100
AcDbEntity
8
0
100
AcDbSpline
62
9
6
CONTINUOUS
70
0
71
3
72
10
73
6
74
4
42
0.0000001000
43
0.0000001000
44
0.0000000001
12
0.1857034163
22
0.0032340081
32
0.0000000000
13
-0.0019175554
23
0.1857216752
33
0.0000000000
40
0.0000000000
40
0.0000000000
40
0.0000000000
40
0.0000000000
40
0.1168063832
40
0.4583262497
40
1.0000000000
40
1.0000000000
40
1.0000000000
40
1.0000000000
10
-45.7313182541
20
-13.8757511084
30
0.0000000000
10
-45.7240878060
20
-13.8756251908
30
0.0000000000
10
-45.7395107861
20
-13.8302158349
30
0.0000000000
10
-45.7245939299
20
-13.7846229249
30
0.0000000000
10
-45.7309720218
20
-13.7235716686
30
0.0000000000
10
-45.7313182516
20
-13.6900381498
30
0.0000000000
11
-45.7313182541
21
-13.8757511084
31
0.0000000000
11
-45.7305032425
21
-13.8540717893
31
0.0000000000
11
-45.7305032361
21
-13.7906407669
31
0.0000000000
11
-45.7313182516
21
-13.6900381498
31
0.0000000000
0
SPLINE
5
570
100
AcDbEntity
8
0
100
AcDbSpline
62
9
6
CONTINUOUS
70
0
71
3
72
8
73
4
74
2
42
0.0000001000
43
0.0000001000
44
0.0000000001
12
-0.0657210813
22
-0.0011544048
32
0.0000000000
13
-0.0656319857
23
-0.0045602683
33
0.0000000000
40
0.0000000000
40
0.0000000000
40
0.0000000000
40
0.0000000000
40
1.0000000000
40
1.0000000000
40
1.0000000000
40
1.0000000000
10
-45.7313182524
20
-13.6900381168
30
0.0000000000
10
-45.7532252795
20
-13.6904229184
30
0.0000000000
10
-45.7751350555
20
-13.6913772611
30
0.0000000000
10
-45.7970123840
20
-13.6928973505
30
0.0000000000
11
-45.7313182524
21
-13.6900381168
31
0.0000000000
11
-45.7970123840
21
-13.6928973505
31
0.0000000000
0
SPLINE
5
571
100
AcDbEntity
8
0
100
AcDbSpline
62
7
6
CONTINUOUS
70
0
71
3
72
10
73
6
74
4
42
0.0000001000
43
0.0000001000
44
0.0000000001
12
-3.9999099472
22
0.0844306542
32
0.0000000000
13
-4.0000789575
23
0.0760029924
33
0.0000000000
40
0.0000000000
40
0.0000000000
40
0.0000000000
40
0.0000000000
40
0.3303097417
40
0.6636505372
40
1.0000000000
40
1.0000000000
40
1.0000000000
40
1.0000000000
10
-51.9140935359
20
28.6192034068
30
0.0000000000
10
-52.3544966097
20
28.6284994960
30
0.0000000000
10
-53.2393516308
20
28.6468203770
30
0.0000000000
10
-54.5726859819
20
28.6734578372
30
0.0000000000
10
-55.4656187330
20
28.6907003052
30
0.0000000000
10
-55.9140935359
20
28.6992214937
30
0.0000000000
11
-51.9140935359
21
28.6192034068
31
0.0000000000
11
-53.2353135119
21
28.6465774368
31
0.0000000000
11
-54.5686773273
21
28.6732299357
31
0.0000000000
11
-55.9140935359
21
28.6992214937
31
0.0000000000
0
SPLINE
5
572
100
AcDbEntity
8
0
100
AcDbSpline
62
9
6
CONTINUOUS
70
0
71
3
72
8
73
4
74
2
42
0.0000001000
43
0.0000001000
44
0.0000000001
12
-0.2130155607
22
-0.2176425265
32
0.0000000000
13
-0.2130160730
23
-0.2176420251
33
0.0000000000
40
0.0000000000
40
0.0000000000
40
0.0000000000
40
0.0000000000
40
1.0000000000
40
1.0000000000
40
1.0000000000
40
1.0000000000
10
-47.7956494829
20
-15.2719103729
30
0.0000000000
10
-47.8666546698
20
-15.3444578817
30
0.0000000000
10
-47.9376599481
20
-15.4170053012
30
0.0000000000
10
-48.0086653058
20
-15.4895526429
30
0.0000000000
11
-47.7956494829
21
-15.2719103729
31
0.0000000000
11
-48.0086653058
21
-15.4895526429
31
0.0000000000
0
SPLINE
5
573
100
AcDbEntity
8
0
100
AcDbSpline
62
9
6
CONTINUOUS
70
0
71
3
72
10
73
6
74
4
42
0.0000001000
43
0.0000001000
44
0.0000000001
12
-0.3092602758
22
-0.3092602250
32
0.0000000000
13
-0.3914185306
23
0.1951290314
33
0.0000000000
40
0.0000000000
40
0.0000000000
40
0.0000000000
40
0.0000000000
40
0.2741647266
40
0.6024485989
40
1.0000000000
40
1.0000000000
40
1.0000000000
40
1.0000000000
10
-46.2140763147
20
-14.0806698469
30
0.0000000000
10
-46.2423390677
20
-14.1089325952
30
0.0000000000
10
-46.3264922637
20
-14.1497572079
30
0.0000000000
10
-46.4756323186
20
-14.1419121021
30
0.0000000000
10
-46.5759992782
20
-14.1046030466
30
0.0000000000
10
-46.6278689399
20
-14.0787451067
30
0.0000000000
11
-46.2140763147
21
-14.0806698469
31
0.0000000000
11
-46.3201122704
21
-14.1366561975
31
0.0000000000
11
-46.4636889649
21
-14.1359883561
31
0.0000000000
11
-46.6278689399
21
-14.0787451067
31
0.0000000000
0
SPLINE
5
574
100
AcDbEntity
8
CURVE
100
AcDbSpline
62
9
6
CONTINUOUS
70
0
71
3
72
14
73
10
74
8
42
0.0000001000
43
0.0000001000
44
0.0000000001
12
0.1432886936
22
-2.5759218292
32
-0.0025011135
13
-2.5174756958
23
-0.5364047049
33
0.0439427017
40
0.0000000000
40
0.0000000000
40
0.0000000000
40
0.0000000000
40
0.1428571429
40
0.2857142857
40
0.4285714286
40
0.5714285714
40
0.7142857143
40
0.8571428571
40
1.0000000000
40
1.0000000000
40
1.0000000000
40
1.0000000000
10
-50.1334747782
20
14.0368716981
30
22.2240989243
10
-50.1266515071
20
13.9142087539
30
22.2239798236
10
-50.1379540023
20
13.6730307107
30
22.2241771094
10
-50.2275793267
20
13.3168336995
30
22.2257415253
10
-50.3870310675
20
12.9873386857
30
22.2285247658
10
-50.6095260657
20
12.6962488779
30
22.2324084304
10
-50.8855649490
20
12.4559274502
30
22.2372267070
10
-51.2059926824
20
12.2759054821
30
22.2428197939
10
-51.4353785928
20
12.2019110132
30
22.2468237399
10
-51.5552583879
20
12.1763679320
30
22.2489162495
11
-50.1334747782
21
14.0368716981
31
22.2240989243
11
-50.1500659326
21
13.6739590530
31
22.2243885239
11
-50.2392170628
21
13.3212840324
31
22.2259446627
11
-50.3975382771
21
12.9937395533
31
22.2287081698
11
-50.6184500465
21
12.7047102746
31
22.2325641991
11
-50.8929630907
21
12.4659773602
31
22.2373558421
11
-51.2099345378
21
12.2874105262
31
22.2428885993
11
-51.5552583879
21
12.1763679320
31
22.2489162495
0
SPLINE
5
575
100
AcDbEntity
8
CURVE
100
AcDbSpline
62
9
6
CONTINUOUS
70
0
71
3
72
22
73
18
74
16
42
0.0000001000
43
0.0000001000
44
0.0000000001
12
-0.3181992323
22
-8.1103044631
32
0.0055541883
13
0.2567167317
23
8.0020516164
33
-0.0044810072
40
0.0000000000
40
0.0000000000
40
0.0000000000
40
0.0000000000
40
0.0681818182
40
0.1363636364
40
0.2045454545
40
0.2727272727
40
0.3409090909
40
0.4090909091
40
0.4772727273
40
0.5454545455
40
0.6136363636
40
0.6818181818
40
0.7500000000
40
0.8181818182
40
0.8863636364
40
0.9545454545
40
1.0000000000
40
1.0000000000
40
1.0000000000
40
1.0000000000
10
-54.4774050703
20
9.6517589320
30
22.2999225096
10
-54.4846368710
20
9.4674338305
30
22.3000487411
10
-54.4595988888
20
9.1063853098
30
22.2996117015
10
-54.3075136281
20
8.5778954776
30
22.2969570434
10
-54.0444093055
20
8.0922427976
30
22.2923645404
10
-53.6862863612
20
7.6763047672
30
22.2861134811
10
-53.2439877879
20
7.3437582637
30
22.2783931308
10
-52.7465759719
20
7.1152047261
30
22.2697107753
10
-52.2045926072
20
6.9968804041
30
22.2602504204
10
-51.6579047909
20
6.9966033242
30
22.2507079491
10
-51.1153352165
20
7.1146702737
30
22.2412373620
10
-50.6180887540
20
7.3426661823
30
22.2325578927
10
-50.1748091870
20
7.6755044506
30
22.2248204190
10
-49.8168951832
20
8.0908872999
30
22.2185730069
10
-49.5533400831
20
8.5762380201
30
22.2139726355
10
-49.4174992506
20
9.0478436353
30
22.2116015249
10
-49.3860858870
20
9.3475647268
30
22.2110532026
10
-49.3821962395
20
9.4688079331
30
22.2109853086
11
-54.4774050703
21
9.6517589320
31
22.2999225096
11
-54.4405108409
21
9.1085658013
31
22.2992785184
11
-54.2890104511
21
8.5850350030
31
22.2966340692
11
-54.0285728685
21
8.1038619058
31
22.2920881143
11
-53.6722570897
21
7.6902033550
31
22.2858685993
11
-53.2348022474
21
7.3610904247
31
22.2782327966
11
-52.7391473804
21
7.1335762620
31
22.2695811087
11
-52.2038085319
21
7.0165549444
31
22.2602367344
11
-51.6585911645
21
7.0163273291
31
22.2507199298
11
-51.1228890685
21
7.1329917669
31
22.2413692149
11
-50.6270832366
21
7.3601399089
31
22.2327148919
11
-50.1890367809
21
7.6892618808
31
22.2250687626
11
-49.8326216671
21
8.1025486117
31
22.2188475137
11
-49.5717957770
21
8.5837722862
31
22.2142947808
11
-49.4197745230
21
9.1085826667
31
22.2116412400
11
-49.3821962395
21
9.4688079331
31
22.2109853086
0
SPLINE
5
576
100
AcDbEntity
8
CURVE
100
AcDbSpline
62
9
6
CONTINUOUS
70
0
71
3
72
21
73
17
74
15
42
0.0000001000
43
0.0000001000
44
0.0000000001
12
0.3016905807
22
-5.4237014737
32
-0.0052660287
13
-0.2974714752
23
5.3364721605
33
0.0051923839
40
0.0000000000
40
0.0000000000
40
0.0000000000
40
0.0000000000
40
0.0740740741
40
0.1481481481
40
0.2222222222
40
0.2962962963
40
0.3703703704
40
0.4444444444
40
0.5185185185
40
0.5925925926
40
0.6666666667
40
0.7407407407
40
0.8148148148
40
0.8888888889
40
0.9629629630
40
1.0000000000
40
1.0000000000
40
1.0000000000
40
1.0000000000
10
-50.1334715707
20
9.6517588210
30
22.2240988683
10
-50.1260224206
20
9.5178402661
30
22.2239688429
10
-50.1409235550
20
9.2558464122
30
22.2242289431
10
-50.2472170540
20
8.8749785905
30
22.2260843031
10
-50.4349686384
20
8.5234661927
30
22.2293615192
10
-50.7071533001
20
8.2085049119
30
22.2341125201
10
-51.0681969224
20
7.9500560222
30
22.2404145600
10
-51.4947277029
20
7.7861289595
30
22.2478596824
10
-51.9335027338
20
7.7340427495
30
22.2555185291
10
-52.3777784174
20
7.7887795057
30
22.2632733900
10
-52.8023528111
20
7.9560461466
30
22.2706843636
10
-53.1569473786
20
8.2127361713
30
22.2768738348
10
-53.4252212327
20
8.5236532083
30
22.2815565724
10
-53.6128784264
20
8.8746823533
30
22.2848321408
10
-53.7012771434
20
9.1905076902
30
22.2863751462
10
-53.7231775880
20
9.3859488990
30
22.2867574199
10
-53.7268500753
20
9.4518312714
30
22.2868215234
11
-50.1334715707
21
9.6517588210
31
22.2240988683
11
-50.1549138545
21
9.2578669054
31
22.2244731447
11
-50.2607934015
21
8.8798711611
31
22.2263212791
11
-50.4490408180
21
8.5295580455
31
22.2296071500
11
-50.7219631269
21
8.2179236437
31
22.2343710266
11
-51.0791114487
21
7.9658096600
31
22.2406050737
11
-51.4967684113
21
7.8047691016
31
22.2478953031
11
-51.9344195093
21
7.7518465772
31
22.2555345315
11
-52.3744948691
21
7.8075344865
31
22.2632160755
11
-52.7906895068
21
7.9709500439
31
22.2704807799
11
-53.1425605931
21
8.2217740067
31
22.2766227125
11
-53.4117851226
21
8.5303385597
31
22.2813220442
11
-53.5992819708
21
8.8793425632
31
22.2845948138
11
-53.7051174265
21
9.2563154272
31
22.2864421786
11
-53.7268500753
21
9.4518312714
31
22.2868215234
0
SPLINE
5
577
100
AcDbEntity
8
CURVE
100
AcDbSpline
62
9
6
CONTINUOUS
70
0
71
3
72
12
73
8
74
6
42
0.0000001000
43
0.0000001000
44
0.0000000001
12
0.0000000000
22
0.7192036468
32
0.0000000000
13
0.5205562781
23
0.4963912927
33
-0.0090863436
40
0.0000000000
40
0.0000000000
40
0.0000000000
40
0.0000000000
40
0.2000000000
40
0.4000000000
40
0.6000000000
40
0.8000000000
40
1.0000000000
40
1.0000000000
40
1.0000000000
40
1.0000000000
10
-49.9308231778
20
4.1950669320
30
22.2205616274
10
-49.9308231778
20
4.2430138418
30
22.2205616274
10
-49.9230979175
20
4.3374774814
30
22.2204267825
10
-49.8887217369
20
4.4765883567
30
22.2198267440
10
-49.8324605089
20
4.6079980175
30
22.2188447006
10
-49.7555251618
20
4.7288795486
30
22.2175017892
10
-49.6924912598
20
4.7996701791
30
22.2164015283
10
-49.6577875079
20
4.8327629320
30
22.2157957721
11
-49.9308231778
21
4.1950669320
31
22.2205616274
11
-49.9192998692
21
4.3370467174
31
22.2203604873
11
-49.8850742290
21
4.4753048209
31
22.2197630765
11
-49.8290148224
21
4.6062433292
31
22.2187845560
11
-49.7525892441
21
4.7264302844
31
22.2174505425
11
-49.6577875079
21
4.8327629320
31
22.2157957721
0
SPLINE
5
578
100
AcDbEntity
8
CURVE
100
AcDbSpline
62
9
6
CONTINUOUS
70
0
71
3
72
14
73
10
74
8
42
0.0000001000
43
0.0000001000
44
0.0000000001
12
1.8329460446
22
-1.4232370462
32
-0.0319941922
13
1.4962291850
23
1.7635691723
33
-0.0261167776
40
0.0000000000
40
0.0000000000
40
0.0000000000
40
0.0000000000
40
0.1428571429
40
0.2857142857
40
0.4285714286
40
0.5714285714
40
0.7142857143
40
0.8571428571
40
1.0000000000
40
1.0000000000
40
1.0000000000
40
1.0000000000
10
-52.8482564381
20
2.5361819320
30
22.2714856144
10
-52.7609732932
20
2.4684087393
30
22.2699620814
10
-52.5763189178
20
2.3553472662
30
22.2667389273
10
-52.2647683597
20
2.2470855382
30
22.2613007921
10
-51.9383612887
20
2.2097438160
30
22.2556033355
10
-51.6112543703
20
2.2438178892
30
22.2498936630
10
-51.2995653151
20
2.3475707879
30
22.2444531103
10
-51.0167853706
20
2.5178836320
30
22.2395171680
10
-50.8597993445
20
2.6662038940
30
22.2367769667
10
-50.7885503356
20
2.7501833784
30
22.2355333106
11
-52.8482564381
21
2.5361819320
31
22.2714856144
11
-52.5705574186
21
2.3655690131
31
22.2666383600
11
-52.2622922742
21
2.2589055391
31
22.2612575719
11
-51.9382446474
21
2.2216464486
31
22.2556012995
11
-51.6138240141
21
2.2554310268
31
22.2499385163
11
-51.3043835002
21
2.3586641122
31
22.2445372120
11
-51.0246688548
21
2.5265782235
31
22.2396547747
11
-50.7885503356
21
2.7501833784
31
22.2355333106
0
SPLINE
5
579
100
AcDbEntity
8
CURVE
100
AcDbSpline
62
9
6
CONTINUOUS
70
0
71
3
72
14
73
10
74
8
42
0.0000001000
43
0.0000001000
44
0.0000000001
12
-1.5013799198
22
1.7696402189
32
0.0262066840
13
-1.8266147168
23
-1.4183209275
33
0.0318836785
40
0.0000000000
40
0.0000000000
40
0.0000000000
40
0.0000000000
40
0.1428571429
40
0.2857142857
40
0.4285714286
40
0.5714285714
40
0.7142857143
40
0.8571428571
40
1.0000000000
40
1.0000000000
40
1.0000000000
40
1.0000000000
10
-50.7885509877
20
4.6884419320
30
22.2355333220
10
-50.8600452696
20
4.7727105138
30
22.2367812594
10
-51.0175261853
20
4.9213179782
30
22.2395300990
10
-51.3001807037
20
5.0913174974
30
22.2444638519
10
-51.6119478408
20
5.1949665472
30
22.2499057676
10
-51.9390747349
20
5.2288679797
30
22.2556157887
10
-52.2654292941
20
5.1914073394
30
22.2613123288
10
-52.5771667858
20
5.0828632050
30
22.2667537269
10
-52.7612742605
20
4.9699823479
30
22.2699673348
10
-52.8482559137
20
4.9024432562
30
22.2714856052
11
-50.7885509877
21
4.6884419320
31
22.2355333220
11
-51.0252650428
21
4.9124993653
31
22.2396651812
11
-51.3050328068
21
5.0802590858
31
22.2445485457
11
-51.6145078003
21
5.1833419443
31
22.2499504518
11
-51.9389460124
21
5.2169743009
31
22.2556135419
11
-52.2629931162
21
5.1795600904
31
22.2612698051
11
-52.5712374059
21
5.0727336798
31
22.2666502292
11
-52.8482559137
21
4.9024432562
31
22.2714856052
0
SPLINE
5
57A
100
AcDbEntity
8
CURVE
100
AcDbSpline
62
9
6
CONTINUOUS
70
0
71
3
72
21
73
17
74
15
42
0.0000001000
43
0.0000001000
44
0.0000000001
12
6.0456030379
22
0.0000000000
32
-0.1055263936
13
-6.0874314014
23
0.0000000000
33
0.1062565104
40
0.0000000000
40
0.0000000000
40
0.0000000000
40
0.0000000000
40
0.0714285714
40
0.1428571429
40
0.2142857143
40
0.2857142857
40
0.3571428571
40
0.4285714286
40
0.5000000000
40
0.5714285714
40
0.6428571429
40
0.7142857143
40
0.7857142857
40
0.8571428571
40
0.9285714286
40
1.0000000000
40
1.0000000000
40
1.0000000000
40
1.0000000000
10
-51.9301441679
20
5.7192439320
30
22.2554599051
10
-51.7862012385
20
5.7192439320
30
22.2529473719
10
-51.5059354792
20
5.6886172368
30
22.2480553149
10
-51.1035902954
20
5.5566957282
30
22.2410323536
10
-50.7336807547
20
5.3410346466
30
22.2345755585
10
-50.4050906564
20
5.0393058146
30
22.2288399970
10
-50.1369891562
20
4.6472669310
30
22.2241602680
10
-49.9669090599
20
4.1887127407
30
22.2211915088
10
-49.9124199768
20
3.7170832483
30
22.2202403983
10
-49.9688364126
20
3.2404774851
30
22.2212251509
10
-50.1414119603
20
2.7835990709
30
22.2242374683
10
-50.4074948770
20
2.3972672681
30
22.2288819629
10
-50.7322385415
20
2.0989499161
30
22.2345503846
10
-51.1005273637
20
1.8833077628
30
22.2409788899
10
-51.5035275299
20
1.7504162163
30
22.2480132840
10
-51.7852053250
20
1.7193819320
30
22.2529299882
10
-51.9301441679
20
1.7193819320
30
22.2554599051
11
-51.9301441679
21
5.7192439320
31
22.2554599051
11
-51.5089443884
21
5.6742869925
31
22.2481078356
11
-51.1089962359
21
5.5427391327
31
22.2411267146
11
-50.7405673284
21
5.3266900215
31
22.2346957641
11
-50.4151720894
21
5.0242541393
31
22.2290159691
11
-50.1533260568
21
4.6361810465
31
22.2244454296
11
-49.9861742288
21
4.1865335237
31
22.2215277836
11
-49.9309042300
21
3.7162538698
31
22.2205630422
11
-49.9881962646
21
3.2437653766
31
22.2215630784
11
-50.1569965218
21
2.7953568394
31
22.2245094978
11
-50.4172716683
21
2.4119363433
31
22.2290526174
11
-50.7394960678
21
2.1127291159
31
22.2346770652
11
-51.1063125877
21
1.8970995306
31
22.2410798714
11
-51.5067802843
21
1.7648062363
31
22.2480700610
11
-51.9301441679
21
1.7193819320
31
22.2554599051
0
SPLINE
5
57B
100
AcDbEntity
8
CURVE
100
AcDbSpline
62
9
6
CONTINUOUS
70
0
71
3
72
21
73
17
74
15
42
0.0000001000
43
0.0000001000
44
0.0000000001
12
-6.0456030379
22
0.0000000000
32
0.1055263936
13
6.0874314014
23
-0.0000000000
33
-0.1062565104
40
0.0000000000
40
0.0000000000
40
0.0000000000
40
0.0000000000
40
0.0714285714
40
0.1428571429
40
0.2142857143
40
0.2857142857
40
0.3571428571
40
0.4285714286
40
0.5000000000
40
0.5714285714
40
0.6428571429
40
0.7142857143
40
0.7857142857
40
0.8571428571
40
0.9285714286
40
1.0000000000
40
1.0000000000
40
1.0000000000
40
1.0000000000
10
-51.9301441679
20
1.7193819320
30
22.2554599051
10
-52.0740870974
20
1.7193819320
30
22.2579724383
10
-52.3543528567
20
1.7500086271
30
22.2628644953
10
-52.7566980404
20
1.8819301357
30
22.2698874566
10
-53.1266075812
20
2.0975912174
30
22.2763442517
10
-53.4551976794
20
2.3993200494
30
22.2820798132
10
-53.7232991797
20
2.7913589329
30
22.2867595423
10
-53.8933792759
20
3.2499131233
30
22.2897283014
10
-53.9478683591
20
3.7215426156
30
22.2906794119
10
-53.8914519233
20
4.1981483789
30
22.2896946593
10
-53.7188763755
20
4.6550267931
30
22.2866823419
10
-53.4527934589
20
5.0413585958
30
22.2820378473
10
-53.1280497944
20
5.3396759479
30
22.2763694256
10
-52.7597609721
20
5.5553181011
30
22.2699409203
10
-52.3567608060
20
5.6882096476
30
22.2629065262
10
-52.0750830108
20
5.7192439320
30
22.2579898220
10
-51.9301441679
20
5.7192439320
30
22.2554599051
11
-51.9301441679
21
1.7193819320
31
22.2554599051
11
-52.3513439475
21
1.7643388714
31
22.2628119746
11
-52.7512920999
21
1.8958867312
31
22.2697930956
11
-53.1197210074
21
2.1119358424
31
22.2762240461
11
-53.4451162464
21
2.4143717246
31
22.2819038411
11
-53.7069622790
21
2.8024448174
31
22.2864743806
11
-53.8741141071
21
3.2520923403
31
22.2893920266
11
-53.9293841059
21
3.7223719941
31
22.2903567680
11
-53.8720920713
21
4.1948604874
31
22.2893567319
11
-53.7032918140
21
4.6432690245
31
22.2864103124
11
-53.4430166676
21
5.0266895207
31
22.2818671928
11
-53.1207922681
21
5.3258967481
31
22.2762427450
11
-52.7539757482
21
5.5415263333
31
22.2698399388
11
-52.3535080516
21
5.6738196276
31
22.2628497492
11
-51.9301441679
21
5.7192439320
31
22.2554599051
0
SPLINE
5
57C
100
AcDbEntity
8
CURVE
100
AcDbSpline
62
9
6
CONTINUOUS
70
0
71
3
72
22
73
18
74
16
42
0.0000001000
43
0.0000001000
44
0.0000000001
12
-0.3182088904
22
-8.1103073191
32
0.0055543568
13
0.2567170423
23
8.0020548696
33
-0.0044810126
40
0.0000000000
40
0.0000000000
40
0.0000000000
40
0.0000000000
40
0.0681818182
40
0.1363636364
40
0.2045454545
40
0.2727272727
40
0.3409090909
40
0.4090909091
40
0.4772727273
40
0.5454545455
40
0.6136363636
40
0.6818181818
40
0.7500000000
40
0.8181818182
40
0.8863636364
40
0.9545454545
40
1.0000000000
40
1.0000000000
40
1.0000000000
40
1.0000000000
10
-54.4774050703
20
14.0368719320
30
22.2999225096
10
-54.4846370905
20
13.8525467656
30
22.3000487449
10
-54.4595995114
20
13.4914980743
30
22.2996117124
10
-54.3075147342
20
12.9630078253
30
22.2969570627
10
-54.0444107786
20
12.4773547006
30
22.2923645661
10
-53.6862880589
20
12.0614161753
30
22.2861135108
10
-53.2439895731
20
11.7288691725
30
22.2783931620
10
-52.7465777231
20
11.5003151729
30
22.2697108058
10
-52.2045942101
20
11.3819904429
30
22.2602504484
10
-51.6579061710
20
11.3817130436
30
22.2507079732
10
-51.1153363100
20
11.4997797676
30
22.2412373810
10
-50.6180895468
20
11.7277755567
30
22.2325579065
10
-50.1748096783
20
12.0606138087
30
22.2248204276
10
-49.8168954150
20
12.4759967309
30
22.2185730109
10
-49.5533401109
20
12.9613476014
30
22.2139726360
10
-49.4174991683
20
13.4329533963
30
22.2116015235
10
-49.3860857762
20
13.7326746068
30
22.2110532007
10
-49.3821961240
20
13.8539178624
30
22.2109853066
11
-54.4774050703
21
14.0368719320
31
22.2999225096
11
-54.4405114433
21
13.4936785390
31
22.2992785289
11
-54.2890115378
21
12.9701473460
31
22.2966340882
11
-54.0285743179
21
12.4889738005
31
22.2920881396
11
-53.6722587646
21
12.0753147623
31
22.2858686285
11
-53.2348040124
21
11.7462013397
31
22.2782328274
11
-52.7391491126
21
11.5186867178
31
22.2695811389
11
-52.2038101224
21
11.4016649980
31
22.2602367621
11
-51.6585925340
21
11.4014370641
31
22.2507199537
11
-51.1228901596
21
11.5181012785
31
22.2413692340
11
-50.6270840293
21
11.7452493005
31
22.2327149058
11
-50.1890372792
21
12.0743712537
31
22.2250687713
11
-49.8326219082
21
12.4876580556
31
22.2188475179
11
-49.5717958182
21
12.9688818762
31
22.2142947815
11
-49.4197744414
21
13.4936924526
31
22.2116412385
11
-49.3821961240
21
13.8539178624
31
22.2109853066
0
SPLINE
5
57D
100
AcDbEntity
8
CURVE
100
AcDbSpline
62
9
6
CONTINUOUS
70
0
71
3
72
14
73
10
74
8
42
0.0000001000
43
0.0000001000
44
0.0000000001
12
-2.5239368032
22
0.5377796493
32
0.0440554808
13
0.1431046109
23
2.5726882945
33
-0.0024979003
40
0.0000000000
40
0.0000000000
40
0.0000000000
40
0.0000000000
40
0.1428571429
40
0.2857142857
40
0.4285714286
40
0.5714285714
40
0.7142857143
40
0.8571428571
40
1.0000000000
40
1.0000000000
40
1.0000000000
40
1.0000000000
10
-52.3050294219
20
12.1763647079
30
22.2620035516
10
-52.4252168887
20
12.2019732626
30
22.2641014316
10
-52.6550205585
20
12.2762073231
30
22.2681126696
10
-52.9752358488
20
12.4562915604
30
22.2737020483
10
-53.2512754483
20
12.6967906767
30
22.2785203374
10
-53.4736631718
20
12.9879446137
30
22.2824021295
10
-53.6331191208
20
13.3179798192
30
22.2851854435
10
-53.7223414033
20
13.6734297347
30
22.2867428242
10
-53.7336312643
20
13.9143599656
30
22.2869398895
10
-53.7268167590
20
14.0368689320
30
22.2868209418
11
-52.3050294219
21
12.1763647079
31
22.2620035516
11
-52.6509388561
21
12.2876628475
31
22.2680414232
11
-52.9678732337
21
12.4663607069
31
22.2735735333
11
-53.2423334690
21
12.7052331468
31
22.2783642546
11
-53.4631745427
21
12.9944248251
31
22.2822190498
11
-53.6214135097
21
13.3222156042
31
22.2849811213
11
-53.7102934881
21
13.6744206399
31
22.2865325271
11
-53.7268167590
21
14.0368689320
31
22.2868209418
0
SPLINE
5
57E
100
AcDbEntity
8
CURVE
100
AcDbSpline
62
9
6
CONTINUOUS
70
0
71
3
72
8
73
4
74
2
42
0.0000001000
43
0.0000001000
44
0.0000000001
12
0.0058344782
22
0.1818648834
32
-0.0001018412
13
-0.0072232362
23
0.1841070245
33
0.0001260821
40
0.0000000000
40
0.0000000000
40
0.0000000000
40
0.0000000000
40
1.0000000000
40
1.0000000000
40
1.0000000000
40
1.0000000000
10
-49.3821961240
20
13.8539178624
30
22.2109853066
10
-49.3802512980
20
13.9145394902
30
22.2109513595
10
-49.3804753980
20
13.9754998109
30
22.2109552712
10
-49.3828831434
20
14.0368688190
30
22.2109972985
11
-49.3821961240
21
13.8539178624
31
22.2109853066
11
-49.3828831434
21
14.0368688190
31
22.2109972985
0
SPLINE
5
57F
100
AcDbEntity
8
CURVE
100
AcDbSpline
62
9
6
CONTINUOUS
70
0
71
3
72
8
73
4
74
2
42
0.0000001000
43
0.0000001000
44
0.0000000001
12
0.0058344712
22
0.1818648095
32
-0.0001018411
13
-0.0072232332
23
0.1841069478
33
0.0001260820
40
0.0000000000
40
0.0000000000
40
0.0000000000
40
0.0000000000
40
1.0000000000
40
1.0000000000
40
1.0000000000
40
1.0000000000
10
-49.3821962395
20
9.4688079331
30
22.2109853086
10
-49.3802514158
20
9.5294295362
30
22.2109513616
10
-49.3804755166
20
9.5903898318
30
22.2109552733
10
-49.3828832610
20
9.6517588144
30
22.2109973006
11
-49.3821962395
21
9.4688079331
31
22.2109853086
11
-49.3828832610
21
9.6517588144
31
22.2109973006
0
SPLINE
5
580
100
AcDbEntity
8
CURVE
100
AcDbSpline
62
9
6
CONTINUOUS
70
0
71
3
72
8
73
4
74
2
42
0.0000001000
43
0.0000001000
44
0.0000000001
12
-0.0110174620
22
0.1976471171
32
0.0001923105
13
0.0112518905
23
0.2022828395
33
-0.0001964025
40
0.0000000000
40
0.0000000000
40
0.0000000000
40
0.0000000000
40
1.0000000000
40
1.0000000000
40
1.0000000000
40
1.0000000000
10
-53.7268500753
20
9.4518312714
30
22.2868215234
10
-53.7305225627
20
9.5177136437
30
22.2868856269
10
-53.7305673892
20
9.5843313188
30
22.2868864093
10
-53.7268167590
20
9.6517589320
30
22.2868209418
11
-53.7268500753
21
9.4518312714
31
22.2868215234
11
-53.7268167590
21
9.6517589320
31
22.2868209418
0
SPLINE
5
581
100
AcDbEntity
8
0
100
AcDbSpline
62
6
6
CONTINUOUS
70
0
71
3
72
10
73
6
74
4
42
0.0000001000
43
0.0000001000
44
0.0000000001
12
-0.1444144255
22
-0.0184070312
32
0.0000000000
13
-0.1444144255
23
0.0184070312
33
0.0000000000
40
0.0000000000
40
0.0000000000
40
0.0000000000
40
0.0000000000
40
0.3341228435
40
0.6658799625
40
1.0000000000
40
1.0000000000
40
1.0000000000
40
1.0000000000
10
-40.4414762971
20
-9.4806870680
30
0.0000000000
10
-40.4575603500
20
-9.4827371379
30
0.0000000000
10
-40.4898036348
20
-9.4854804340
30
0.0000000000
10
-40.5383837097
20
-9.4854804165
30
0.0000000000
10
-40.5706268569
20
-9.4827371207
30
0.0000000000
10
-40.5867107746
20
-9.4806870680
30
0.0000000000
11
-40.4414762971
21
-9.4806870680
31
0.0000000000
11
-40.4899446787
21
-9.4847994716
31
0.0000000000
11
-40.5382428015
21
-9.4847994543
31
0.0000000000
11
-40.5867107746
21
-9.4806870680
31
0.0000000000
0
SPLINE
5
582
100
AcDbEntity
8
0
100
AcDbSpline
62
6
6
CONTINUOUS
70
0
71
3
72
10
73
6
74
4
42
0.0000001000
43
0.0000001000
44
0.0000000001
12
0.0730813542
22
0.8174270512
32
0.0000000000
13
0.0729910245
23
0.8174351220
33
0.0000000000
40
0.0000000000
40
0.0000000000
40
0.0000000000
40
0.0000000000
40
0.3318014206
40
0.6651349907
40
1.0000000000
40
1.0000000000
40
1.0000000000
40
1.0000000000
10
-38.1376392992
20
-11.1981182166
30
0.0000000000
10
-38.1295564669
20
-11.1077103976
30
0.0000000000
10
-38.1133569543
20
-10.9264769755
30
0.0000000000
10
-38.0890118913
20
-10.6539999163
30
0.0000000000
10
-38.0727511731
20
-10.4719305413
30
0.0000000000
10
-38.0646037931
20
-10.3806870680
30
0.0000000000
11
-38.1376392992
21
-11.1981182166
31
0.0000000000
11
-38.1133959522
21
-10.9268942993
31
0.0000000000
11
-38.0890508213
21
-10.6544170512
31
0.0000000000
11
-38.0646037931
21
-10.3806870680
31
0.0000000000
0
SPLINE
5
583
100
AcDbEntity
8
0
100
AcDbSpline
62
6
6
CONTINUOUS
70
0
71
3
72
10
73
6
74
4
42
0.0000001000
43
0.0000001000
44
0.0000000001
12
0.0729910245
22
-0.8174351220
32
0.0000000000
13
0.0730813542
23
-0.8174270512
33
0.0000000000
40
0.0000000000
40
0.0000000000
40
0.0000000000
40
0.0000000000
40
0.3348560004
40
0.6681895866
40
1.0000000000
40
1.0000000000
40
1.0000000000
40
1.0000000000
10
-42.9635832787
20
-10.3806870680
30
0.0000000000
10
-42.9554361178
20
-10.4719280866
30
0.0000000000
10
-42.9391756186
20
-10.6539950113
30
0.0000000000
10
-42.9148305558
20
-10.9264720705
30
0.0000000000
10
-42.8986308240
20
-11.1077079473
30
0.0000000000
10
-42.8905477725
20
-11.1981182166
30
0.0000000000
11
-42.9635832787
21
-10.3806870680
31
0.0000000000
11
-42.9391369083
21
-10.6544096871
31
0.0000000000
11
-42.9147917765
21
-10.9268869484
31
0.0000000000
11
-42.8905477725
21
-11.1981182166
31
0.0000000000
0
SPLINE
5
584
100
AcDbEntity
8
0
100
AcDbSpline
62
6
6
CONTINUOUS
70
0
71
3
72
13
73
9
74
7
42
0.0000001000
43
0.0000001000
44
0.0000000001
12
-0.2997588982
22
0.0000000000
32
0.0000000000
13
-0.0266932150
23
0.2985680313
33
0.0000000000
40
0.0000000000
40
0.0000000000
40
0.0000000000
40
0.0000000000
40
0.1685365238
40
0.3393730266
40
0.5063576095
40
0.6722318972
40
0.8387144259
40
1.0000000000
40
1.0000000000
40
1.0000000000
40
1.0000000000
10
-42.6865423208
20
-11.3806870680
30
0.0000000000
10
-42.7033824284
20
-11.3806870680
30
0.0000000000
10
-42.7374335295
20
-11.3765841380
30
0.0000000000
10
-42.7851763884
20
-11.3583864608
30
0.0000000000
10
-42.8268420574
20
-11.3292548217
30
0.0000000000
10
-42.8598411229
20
-11.2911443464
30
0.0000000000
10
-42.8821144593
20
-11.2465657055
30
0.0000000000
10
-42.8891126957
20
-11.2141697887
30
0.0000000000
10
-42.8905477725
20
-11.1981182166
30
0.0000000000
11
-42.6865423208
21
-11.3806870680
31
0.0000000000
11
-42.7366965198
21
-11.3746158794
31
0.0000000000
11
-42.7845402868
21
-11.3563562609
31
0.0000000000
11
-42.8255403909
21
-11.3276420491
31
0.0000000000
11
-42.8580653494
21
-11.2900330932
31
0.0000000000
11
-42.8803389975
21
-11.2453748841
31
0.0000000000
11
-42.8905477725
21
-11.1981182166
31
0.0000000000
0
SPLINE
5
585
100
AcDbEntity
8
0
100
AcDbSpline
62
6
6
CONTINUOUS
70
0
71
3
72
13
73
9
74
7
42
0.0000001000
43
0.0000001000
44
0.0000000001
12
-0.0266932150
22
-0.2985680313
32
0.0000000000
13
-0.2997588982
23
0.0000000000
33
0.0000000000
40
0.0000000000
40
0.0000000000
40
0.0000000000
40
0.0000000000
40
0.1612855741
40
0.3277681028
40
0.4936423905
40
0.6606269734
40
0.8314634762
40
1.0000000000
40
1.0000000000
40
1.0000000000
40
1.0000000000
10
-38.1376392992
20
-11.1981182166
30
0.0000000000
10
-38.1390743761
20
-11.2141697887
30
0.0000000000
10
-38.1460726125
20
-11.2465657055
30
0.0000000000
10
-38.1683459489
20
-11.2911443464
30
0.0000000000
10
-38.2013450143
20
-11.3292548217
30
0.0000000000
10
-38.2430106833
20
-11.3583864608
30
0.0000000000
10
-38.2907535422
20
-11.3765841380
30
0.0000000000
10
-38.3248046433
20
-11.3806870680
30
0.0000000000
10
-38.3416447509
20
-11.3806870680
30
0.0000000000
11
-38.1376392992
21
-11.1981182166
31
0.0000000000
11
-38.1478480742
21
-11.2453748841
31
0.0000000000
11
-38.1701217223
21
-11.2900330932
31
0.0000000000
11
-38.2026466809
21
-11.3276420491
31
0.0000000000
11
-38.2436467850
21
-11.3563562609
31
0.0000000000
11
-38.2914905519
21
-11.3746158794
31
0.0000000000
11
-38.3416447509
21
-11.3806870680
31
0.0000000000
0
SPLINE
5
586
100
AcDbEntity
8
0
100
AcDbSpline
62
6
6
CONTINUOUS
70
0
71
3
72
10
73
6
74
4
42
0.0000001000
43
0.0000001000
44
0.0000000001
12
0.1444144255
22
-0.0184070312
32
0.0000000000
13
0.1444144255
23
0.0184070312
33
0.0000000000
40
0.0000000000
40
0.0000000000
40
0.0000000000
40
0.0000000000
40
0.3341228435
40
0.6658799625
40
1.0000000000
40
1.0000000000
40
1.0000000000
40
1.0000000000
10
-40.3867107746
20
-8.6056870680
30
0.0000000000
10
-40.3706267218
20
-8.6077371379
30
0.0000000000
10
-40.3383834369
20
-8.6104804340
30
0.0000000000
10
-40.2898033621
20
-8.6104804165
30
0.0000000000
10
-40.2575602149
20
-8.6077371207
30
0.0000000000
10
-40.2414762971
20
-8.6056870680
30
0.0000000000
11
-40.3867107746
21
-8.6056870680
31
0.0000000000
11
-40.3382423930
21
-8.6097994716
31
0.0000000000
11
-40.2899442702
21
-8.6097994543
31
0.0000000000
11
-40.2414762971
21
-8.6056870680
31
0.0000000000
0
SPLINE
5
587
100
AcDbEntity
8
0
100
AcDbSpline
62
6
6
CONTINUOUS
70
0
71
3
72
10
73
6
74
4
42
0.0000001000
43
0.0000001000
44
0.0000000001
12
-0.0730813542
22
0.8174270512
32
0.0000000000
13
-0.0729910245
23
0.8174351220
33
0.0000000000
40
0.0000000000
40
0.0000000000
40
0.0000000000
40
0.0000000000
40
0.3318014206
40
0.6651349907
40
1.0000000000
40
1.0000000000
40
1.0000000000
40
1.0000000000
10
-42.6905477725
20
-10.3231182166
30
0.0000000000
10
-42.6986306049
20
-10.2327103976
30
0.0000000000
10
-42.7148301175
20
-10.0514769755
30
0.0000000000
10
-42.7391751805
20
-9.7789999163
30
0.0000000000
10
-42.7554358986
20
-9.5969305413
30
0.0000000000
10
-42.7635832787
20
-9.5056870680
30
0.0000000000
11
-42.6905477725
21
-10.3231182166
31
0.0000000000
11
-42.7147911196
21
-10.0518942993
31
0.0000000000
11
-42.7391362505
21
-9.7794170512
31
0.0000000000
11
-42.7635832787
21
-9.5056870680
31
0.0000000000
0
SPLINE
5
588
100
AcDbEntity
8
0
100
AcDbSpline
62
6
6
CONTINUOUS
70
0
71
3
72
10
73
6
74
4
42
0.0000001000
43
0.0000001000
44
0.0000000001
12
-0.0729910245
22
-0.8174351220
32
0.0000000000
13
-0.0730813542
23
-0.8174270512
33
0.0000000000
40
0.0000000000
40
0.0000000000
40
0.0000000000
40
0.0000000000
40
0.3348560004
40
0.6681895866
40
1.0000000000
40
1.0000000000
40
1.0000000000
40
1.0000000000
10
-37.8646037931
20
-9.5056870680
30
0.0000000000
10
-37.8727509539
20
-9.5969280866
30
0.0000000000
10
-37.8890114531
20
-9.7789950113
30
0.0000000000
10
-37.9133565159
20
-10.0514720705
30
0.0000000000
10
-37.9295562478
20
-10.2327079473
30
0.0000000000
10
-37.9376392992
20
-10.3231182166
30
0.0000000000
11
-37.8646037931
21
-9.5056870680
31
0.0000000000
11
-37.8890501634
21
-9.7794096871
31
0.0000000000
11
-37.9133952953
21
-10.0518869484
31
0.0000000000
11
-37.9376392992
21
-10.3231182166
31
0.0000000000
0
SPLINE
5
589
100
AcDbEntity
8
0
100
AcDbSpline
62
6
6
CONTINUOUS
70
0
71
3
72
13
73
9
74
7
42
0.0000001000
43
0.0000001000
44
0.0000000001
12
0.2997588982
22
0.0000000000
32
0.0000000000
13
0.0266932150
23
0.2985680313
33
0.0000000000
40
0.0000000000
40
0.0000000000
40
0.0000000000
40
0.0000000000
40
0.1685365238
40
0.3393730266
40
0.5063576095
40
0.6722318972
40
0.8387144259
40
1.0000000000
40
1.0000000000
40
1.0000000000
40
1.0000000000
10
-38.1416447509
20
-10.5056870680
30
0.0000000000
10
-38.1248046433
20
-10.5056870680
30
0.0000000000
10
-38.0907535422
20
-10.5015841380
30
0.0000000000
10
-38.0430106833
20
-10.4833864608
30
0.0000000000
10
-38.0013450143
20
-10.4542548217
30
0.0000000000
10
-37.9683459489
20
-10.4161443464
30
0.0000000000
10
-37.9460726125
20
-10.3715657055
30
0.0000000000
10
-37.9390743761
20
-10.3391697887
30
0.0000000000
10
-37.9376392992
20
-10.3231182166
30
0.0000000000
11
-38.1416447509
21
-10.5056870680
31
0.0000000000
11
-38.0914905519
21
-10.4996158794
31
0.0000000000
11
-38.0436467850
21
-10.4813562609
31
0.0000000000
11
-38.0026466809
21
-10.4526420491
31
0.0000000000
11
-37.9701217223
21
-10.4150330932
31
0.0000000000
11
-37.9478480742
21
-10.3703748841
31
0.0000000000
11
-37.9376392992
21
-10.3231182166
31
0.0000000000
0
SPLINE
5
58A
100
AcDbEntity
8
0
100
AcDbSpline
62
6
6
CONTINUOUS
70
0
71
3
72
13
73
9
74
7
42
0.0000001000
43
0.0000001000
44
0.0000000001
12
0.0266932150
22
-0.2985680313
32
0.0000000000
13
0.2997588982
23
0.0000000000
33
0.0000000000
40
0.0000000000
40
0.0000000000
40
0.0000000000
40
0.0000000000
40
0.1612855741
40
0.3277681028
40
0.4936423905
40
0.6606269734
40
0.8314634762
40
1.0000000000
40
1.0000000000
40
1.0000000000
40
1.0000000000
10
-42.6905477725
20
-10.3231182166
30
0.0000000000
10
-42.6891126957
20
-10.3391697887
30
0.0000000000
10
-42.6821144593
20
-10.3715657055
30
0.0000000000
10
-42.6598411229
20
-10.4161443464
30
0.0000000000
10
-42.6268420574
20
-10.4542548217
30
0.0000000000
10
-42.5851763884
20
-10.4833864608
30
0.0000000000
10
-42.5374335295
20
-10.5015841380
30
0.0000000000
10
-42.5033824284
20
-10.5056870680
30
0.0000000000
10
-42.4865423208
20
-10.5056870680
30
0.0000000000
11
-42.6905477725
21
-10.3231182166
31
0.0000000000
11
-42.6803389975
21
-10.3703748841
31
0.0000000000
11
-42.6580653494
21
-10.4150330932
31
0.0000000000
11
-42.6255403909
21
-10.4526420491
31
0.0000000000
11
-42.5845402868
21
-10.4813562609
31
0.0000000000
11
-42.5366965198
21
-10.4996158794
31
0.0000000000
11
-42.4865423208
21
-10.5056870680
31
0.0000000000
0
ENDSEC
0
SECTION
2
OBJECTS
0
DICTIONARY
5
C
100
AcDbDictionary
280
0
281
1
3
ACAD_GROUP
350
D
3
ACAD_MLINESTYLE
350
17
3
ACAD_LAYOUT
350
1A
3
ACAD_PLOTSETTINGS
350
19
3
ACAD_PLOTSTYLENAME
350
E
0
DICTIONARY
5
D
102
{ACAD_REACTORS
330
C
102
}
100
AcDbDictionary
280
0
281
1
0
ACDBDICTIONARYWDFLT
5
E
102
{ACAD_REACTORS
330
C
102
}
100
AcDbDictionary
281
1
3
Normal
350
F
100
AcDbDictionaryWithDefault
340
F
0
DICTIONARY
5
17
102
{ACAD_REACTORS
330
C
102
}
100
AcDbDictionary
280
0
281
1
3
Standard
350
18
0
DICTIONARY
5
19
102
{ACAD_REACTORS
330
C
102
}
100
AcDbDictionary
281
1
0
DICTIONARY
5
1A
102
{ACAD_REACTORS
330
C
102
}
100
AcDbDictionary
281
1
3
Layout1
350
1E
3
Model
350
22
0
ACDBPLACEHOLDER
5
F
102
{ACAD_REACTORS
330
E
102
}
0
MLINESTYLE
5
18
102
{ACAD_REACTORS
330
17
102
}
100
AcDbMlineStyle
2
STANDARD
70
0
3

62
256
51
90.0
52
90.0
71
2
49
0.5
62
256
6
BYLAYER
49
-0.5
62
256
6
BYLAYER
0
LAYOUT
5
1E
102
{ACAD_REACTORS
330
1A
102
}
100
AcDbPlotSettings
1

2

4

6

40
0.0
41
0.0
42
0.0
43
0.0
44
0.0
45
0.0
46
0.0
47
0.0
48
0.0
49
0.0
140
0.0
141
0.0
142
1.0
143
1.0
70
0
72
0
73
0
74
0
7

75
0
147
1.0
148
0.0
149
0.0
100
AcDbLayout
1
Layout1
70
0
71
0
10
0.0
20
0.0
11
0.0
21
0.0
12
0.0
22
0.0
32
0.0
14
0.0
24
0.0
34
0.0
15
0.0
25
0.0
35
0.0
146
0.0
13
0.0
23
0.0
33
0.0
16
0.0
26
0.0
36
0.0
17
0.0
27
0.0
37
0.0
76
0
330
1B
331
0
345
0
346
0
0
LAYOUT
5
22
102
{ACAD_REACTORS
330
1A
102
}
100
AcDbPlotSettings
1

2

4

6

40
0.0
41
0.0
42
0.0
43
0.0
44
0.0
45
0.0
46
0.0
47
0.0
48
0.0
49
0.0
140
0.0
141
0.0
142
1.0
143
1.0
70
0
72
0
73
0
74
0
7

75
0
147
1.0
148
0.0
149
0.0
100
AcDbLayout
1
Model
70
0
71
0
10
0.0
20
0.0
11
0.0
21
0.0
12
0.0
22
0.0
32
0.0
14
0.0
24
0.0
34
0.0
15
0.0
25
0.0
35
0.0
146
0.0
13
0.0
23
0.0
33
0.0
16
0.0
26
0.0
36
0.0
17
0.0
27
0.0
37
0.0
76
0
330
1F
331
0
345
0
346
0
0
ENDSEC
0
EOF
