0
SECTION
2
HEADER
9
$ACADVER
1
AC1015
9
$DWGCODEPAGE
3
ANSI_1252
9
$EXTMAX
10
297.0000000000
20
210.0000000000
30
0.0000000000
9
$EXTMIN
10
0.0000000000
20
0.0000000000
30
0.0000000000
9
$LIMMIN
10
0.0000000000
20
0.0000000000
9
$LIMMAX
10
297.0000000000
20
210.0000000000
9
$VIEWCTR
10
148.5000000000
20
105.0000000000
9
$VIEWSIZE
40
210.0000000000
9
$CLAYER
8
0
9
$LTSCALE
40
16.3350000000
9
$CELTYPE
6
BYLAYER
9
$DIMSCALE
40
1
9
$DIMASZ
40
3.0000000000
9
$DIMEXO
40
1.8562500000
9
$DIMDLI
40
11.2860000000
9
$DIMEXE
40
5.3460000000
9
$DIMCEN
40
2.6730000000
9
$DIMLFAC
40
1.0000000000
9
$DIMBLK
1
_FILLED
9
$DIMTXT
40
3.0000000000
9
$DIMTOL
70
1
9
$DIMLIM
70
0
9
$DIMTFAC
40
1.0000000000
9
$DIMTP
40
0.0100000000
9
$DIMTM
40
0.0100000000
9
$PDMODE
70
3
9
$PDSIZE
40
3.0000000000
9
$HANDSEED
5
607
9
$MEASUREMENT
70
1
9
$INSUNITS
70
4
0
ENDSEC
0
SECTION
2
CLASSES
0
CLASS
1
ACDBDICTIONARYWDFLT
2
AcDbDictionaryWithDefault
3
AutoCAD 2000
90
0
280
0
281
0
0
CLASS
1
ACDBPLACEHOLDER
2
AcDbPlaceHolder
3
AutoCAD 2000
90
0
280
0
281
0
0
CLASS
1
LAYOUT
2
AcDbLayout
3
AutoCAD 2000
90
0
280
0
281
0
0
ENDSEC
0
SECTION
2
TABLES
0
TABLE
2
VPORT
5
8
100
AcDbSymbolTable
70
2
0
VPORT
5
1F4
100
AcDbSymbolTableRecord
100
AcDbViewportTableRecord
2
*ACTIVE
70
0
10
0.0
20
0.0
11
1.0
21
1.0
12
148.5000000000
22
105.0000000000
13
0.0
23
0.0
14
1.0
24
1.0
15
0.0
25
0.0
16
0.0
26
0.0
36
1.0
17
0.0
27
0.0
37
0.0
40
210.0000000000
41
1.4142857143
42
50.0
43
0.0
44
0.0
50
0.0
51
0.0
71
0
72
100
73
1
74
1
75
0
76
0
77
0
78
0
0
ENDTAB
0
TABLE
2
LTYPE
5
5
100
AcDbSymbolTable
70
6
0
LTYPE
5
14
100
AcDbSymbolTableRecord
100
AcDbLinetypeTableRecord
2
BYBLOCK
70
0
3

72
65
73
0
40
0.0
0
LTYPE
5
15
100
AcDbSymbolTableRecord
100
AcDbLinetypeTableRecord
2
BYLAYER
70
0
3

72
65
73
0
40
0.0
0
LTYPE
5
16
100
AcDbSymbolTableRecord
100
AcDbLinetypeTableRecord
2
CONTINUOUS
70
64
3
Solid line
72
65
73
0
40
0
0
LTYPE
5
1F5
100
AcDbSymbolTableRecord
100
AcDbLinetypeTableRecord
2
CENTER
70
64
3
____ _ ____ _ ____ _ ____ _ ____ _ ____ _ ____
72
65
73
4
40
0.6
49
0.375
74
0
49
-0.075
74
0
49
0.075
74
0
49
-0.075
74
0
0
LTYPE
5
1F6
100
AcDbSymbolTableRecord
100
AcDbLinetypeTableRecord
2
HIDDEN
70
64
3
- - - - - - - - - - - - - - - - - - - -
72
65
73
2
40
0.2
49
0.1
74
0
49
-0.1
74
0
0
LTYPE
5
1F7
100
AcDbSymbolTableRecord
100
AcDbLinetypeTableRecord
2
PHANTOM
70
64
3
_____ _ _ _____ _ _ _____ _ _ _____
72
65
73
6
40
0.8
49
0.45
74
0
49
-0.05
74
0
49
0.1
74
0
49
-0.05
74
0
49
0.1
74
0
49
-0.05
74
0
0
LTYPE
5
1F8
100
AcDbSymbolTableRecord
100
AcDbLinetypeTableRecord
2
DOT
70
64
3
. . . . . . . . . . . . . . . . . . . .
72
65
73
2
40
0.2
49
0.1
74
0
49
-0.1
74
0
0
LTYPE
5
1F9
100
AcDbSymbolTableRecord
100
AcDbLinetypeTableRecord
2
DASHED
70
64
3
- - - - - - - - - - - - - - - - - - - -
72
65
73
2
40
0.2
49
0.1
74
0
49
-0.1
74
0
0
ENDTAB
0
TABLE
2
LAYER
5
2
100
AcDbSymbolTable
70
36
0
LAYER
5
10
100
AcDbSymbolTableRecord
100
AcDbLayerTableRecord
2
0
70
0
62
7
6
CONTINUOUS
370
-3
390
F
0
LAYER
5
1FA
100
AcDbSymbolTableRecord
100
AcDbLayerTableRecord
2
DEFAULT_1
70
0
62
7
6
CENTER
370
-3
390
F
0
LAYER
5
1FB
100
AcDbSymbolTableRecord
100
AcDbLayerTableRecord
2
DEFAULT_2
70
0
62
8
6
HIDDEN
370
-3
390
F
0
LAYER
5
1FC
100
AcDbSymbolTableRecord
100
AcDbLayerTableRecord
2
DEFAULT_3
70
0
62
7
6
PHANTOM
370
-3
390
F
0
LAYER
5
1FD
100
AcDbSymbolTableRecord
100
AcDbLayerTableRecord
2
_BLACK_HOLE
70
0
62
7
6
CONTINUOUS
370
-3
390
F
0
LAYER
5
1FE
100
AcDbSymbolTableRecord
100
AcDbLayerTableRecord
2
ASSI
70
0
62
7
6
CONTINUOUS
370
-3
390
F
0
LAYER
5
1FF
100
AcDbSymbolTableRecord
100
AcDbLayerTableRecord
2
COORDINATE
70
0
62
7
6
CONTINUOUS
370
-3
390
F
0
LAYER
5
200
100
AcDbSymbolTableRecord
100
AcDbLayerTableRecord
2
COORD_ORIGINE
70
0
62
7
6
CONTINUOUS
370
-3
390
F
0
LAYER
5
201
100
AcDbSymbolTableRecord
100
AcDbLayerTableRecord
2
COPY_PUBLISH
70
0
62
7
6
CONTINUOUS
370
-3
390
F
0
LAYER
5
202
100
AcDbSymbolTableRecord
100
AcDbLayerTableRecord
2
COSMETIC
70
0
62
7
6
CONTINUOUS
370
-3
390
F
0
LAYER
5
203
100
AcDbSymbolTableRecord
100
AcDbLayerTableRecord
2
COSMETICHE
70
0
62
7
6
CONTINUOUS
370
-3
390
F
0
LAYER
5
204
100
AcDbSymbolTableRecord
100
AcDbLayerTableRecord
2
COSMETICI
70
0
62
7
6
CONTINUOUS
370
-3
390
F
0
LAYER
5
205
100
AcDbSymbolTableRecord
100
AcDbLayerTableRecord
2
CURVE
70
0
62
7
6
CONTINUOUS
370
-3
390
F
0
LAYER
5
206
100
AcDbSymbolTableRecord
100
AcDbLayerTableRecord
2
DRAFT
70
0
62
7
6
CONTINUOUS
370
-3
390
F
0
LAYER
5
207
100
AcDbSymbolTableRecord
100
AcDbLayerTableRecord
2
ESTENSIONE
70
0
62
7
6
CONTINUOUS
370
-3
390
F
0
LAYER
5
208
100
AcDbSymbolTableRecord
100
AcDbLayerTableRecord
2
IMPORT_FEATURES
70
0
62
7
6
CONTINUOUS
370
-3
390
F
0
LAYER
5
209
100
AcDbSymbolTableRecord
100
AcDbLayerTableRecord
2
IMPORT_IGES
70
0
62
7
6
CONTINUOUS
370
-3
390
F
0
LAYER
5
20A
100
AcDbSymbolTableRecord
100
AcDbLayerTableRecord
2
INTFCLR_1
70
0
62
7
6
CONTINUOUS
370
-3
390
F
0
LAYER
5
20B
100
AcDbSymbolTableRecord
100
AcDbLayerTableRecord
2
INTF_1
70
0
62
7
6
CONTINUOUS
370
-3
390
F
0
LAYER
5
20C
100
AcDbSymbolTableRecord
100
AcDbLayerTableRecord
2
INTF_7
70
0
62
7
6
CONTINUOUS
370
-3
390
F
0
LAYER
5
20D
100
AcDbSymbolTableRecord
100
AcDbLayerTableRecord
2
NOTE
70
0
62
7
6
CONTINUOUS
370
-3
390
F
0
LAYER
5
20E
100
AcDbSymbolTableRecord
100
AcDbLayerTableRecord
2
PIANI
70
0
62
7
6
CONTINUOUS
370
-3
390
F
0
LAYER
5
20F
100
AcDbSymbolTableRecord
100
AcDbLayerTableRecord
2
PIANI_ORIGINE
70
0
62
7
6
CONTINUOUS
370
-3
390
F
0
LAYER
5
210
100
AcDbSymbolTableRecord
100
AcDbLayerTableRecord
2
PUNTI
70
0
62
7
6
CONTINUOUS
370
-3
390
F
0
LAYER
5
211
100
AcDbSymbolTableRecord
100
AcDbLayerTableRecord
2
RACCORDO
70
0
62
7
6
CONTINUOUS
370
-3
390
F
0
LAYER
5
212
100
AcDbSymbolTableRecord
100
AcDbLayerTableRecord
2
RGB__255__255__255__
70
0
62
7
6
CONTINUOUS
370
-3
390
F
0
LAYER
5
213
100
AcDbSymbolTableRecord
100
AcDbLayerTableRecord
2
RGB____0____0____0__
70
0
62
7
6
CONTINUOUS
370
-3
390
F
0
LAYER
5
214
100
AcDbSymbolTableRecord
100
AcDbLayerTableRecord
2
SMUSSO
70
0
62
7
6
CONTINUOUS
370
-3
390
F
0
LAYER
5
215
100
AcDbSymbolTableRecord
100
AcDbLayerTableRecord
2
SNAPLINE
70
0
62
7
6
CONTINUOUS
370
-3
390
F
0
LAYER
5
216
100
AcDbSymbolTableRecord
100
AcDbLayerTableRecord
2
SUPERFICI
70
0
62
7
6
CONTINUOUS
370
-3
390
F
0
LAYER
5
217
100
AcDbSymbolTableRecord
100
AcDbLayerTableRecord
2
TRASH
70
0
62
7
6
CONTINUOUS
370
-3
390
F
0
LAYER
5
218
100
AcDbSymbolTableRecord
100
AcDbLayerTableRecord
2
XSEC_DATUMS
70
0
62
7
6
CONTINUOUS
370
-3
390
F
0
ENDTAB
0
TABLE
2
STYLE
5
3
100
AcDbSymbolTable
70
1
0
STYLE
5
11
100
AcDbSymbolTableRecord
100
AcDbTextStyleTableRecord
2
STANDARD
70
0
40
0.0
41
0.8000000000
50
0.0
71
0
42
0.2
3
txt
4

0
ENDTAB
0
TABLE
2
VIEW
5
6
100
AcDbSymbolTable
70
0
0
ENDTAB
0
TABLE
2
UCS
5
7
100
AcDbSymbolTable
70
0
0
ENDTAB
0
TABLE
2
APPID
5
9
100
AcDbSymbolTable
70
1
0
APPID
5
219
100
AcDbSymbolTableRecord
100
AcDbRegAppTableRecord
2
ACAD
70
0
0
ENDTAB
0
TABLE
2
BLOCK_RECORD
5
1
100
AcDbSymbolTable
70
0
0
BLOCK_RECORD
5
1F
100
AcDbSymbolTableRecord
100
AcDbBlockTableRecord
2
*MODEL_SPACE
0
BLOCK_RECORD
5
1B
100
AcDbSymbolTableRecord
100
AcDbBlockTableRecord
2
*PAPER_SPACE
0
BLOCK_RECORD
5
21A
100
AcDbSymbolTableRecord
100
AcDbBlockTableRecord
2
_FILLED
0
BLOCK_RECORD
5
21B
100
AcDbSymbolTableRecord
100
AcDbBlockTableRecord
2
*D0
0
BLOCK_RECORD
5
21C
100
AcDbSymbolTableRecord
100
AcDbBlockTableRecord
2
*D1
0
BLOCK_RECORD
5
21D
100
AcDbSymbolTableRecord
100
AcDbBlockTableRecord
2
*D2
0
BLOCK_RECORD
5
21E
100
AcDbSymbolTableRecord
100
AcDbBlockTableRecord
2
*D3
0
ENDTAB
0
TABLE
2
DIMSTYLE
5
A
100
AcDbSymbolTable
70
1
100
AcDbDimStyleTable
71
0
0
DIMSTYLE
105
21F
100
AcDbSymbolTableRecord
100
AcDbDimStyleTableRecord
2
STANDARD
70
0
3

4

40
1.0
41
3.0000000000
42
0.0625
43
0.38
44
0.18
45
0.0
46
0.0
47
0.0100000000
48
0.0100000000
140
3.0000000000
141
0.09
142
0.0
143
25.4
144
1.0000000000
145
0.0
146
1.0000000000
147
0.09
71
1
72
0
73
0
74
0
75
0
76
0
77
1
78
8
170
0
171
2
172
0
173
0
174
0
175
0
176
0
177
0
178
0
270
2
271
2
272
2
273
2
274
2
275
0
280
0
281
0
282
0
283
1
284
8
285
0
286
0
287
3
288
0
340
11
341
21A
342
21A
343
21A
344
21A
0
DIMSTYLE
105
220
100
AcDbSymbolTableRecord
100
AcDbDimStyleTableRecord
2
DIMSTYLE_1
70
0
3

4

40
1.0
41
3.0000000000
42
0.0625
43
0.38
44
0.18
45
0.0
46
0.0
47
0.0000000000
48
0.0000000000
140
3.0000000000
141
0.09
142
0.0
143
25.4
144
1.0000000000
145
0.0
146
1.0000000000
147
0.09
71
0
72
0
73
0
74
0
75
0
76
0
77
1
78
8
170
0
171
2
172
0
173
0
174
0
175
0
176
0
177
0
178
0
270
2
271
2
272
2
273
2
274
2
275
0
280
0
281
0
282
0
283
1
284
8
285
0
286
0
287
3
288
0
340
11
341
21A
342
21A
343
21A
344
21A
0
DIMSTYLE
105
221
100
AcDbSymbolTableRecord
100
AcDbDimStyleTableRecord
2
DIMSTYLE_2
70
0
3

4

40
1.0
41
3.0000000000
42
0.0625
43
0.38
44
0.18
45
0.0
46
0.0
47
0.0000000000
48
0.0000000000
140
3.0000000000
141
0.09
142
0.0
143
25.4
144
1.0000000000
145
0.0
146
1.0000000000
147
0.09
71
0
72
0
73
0
74
0
75
0
76
0
77
1
78
8
170
0
171
2
172
0
173
0
174
0
175
0
176
0
177
0
178
0
270
2
271
1
272
1
273
2
274
2
275
0
280
0
281
0
282
0
283
1
284
8
285
0
286
0
287
3
288
0
340
11
341
21A
342
21A
343
21A
344
21A
0
ENDTAB
0
ENDSEC
0
SECTION
2
BLOCKS
0
BLOCK
5
20
100
AcDbEntity
8
0
100
AcDbBlockBegin
2
*MODEL_SPACE
70
0
10
0.0
20
0.0
30
0.0
3
*MODEL_SPACE
1

0
ENDBLK
5
21
100
AcDbEntity
8
0
100
AcDbBlockEnd
0
BLOCK
5
1C
100
AcDbEntity
8
0
100
AcDbBlockBegin
2
*PAPER_SPACE
70
0
10
0.0
20
0.0
30
0.0
3
*PAPER_SPACE
1

0
ENDBLK
5
1D
100
AcDbEntity
8
0
100
AcDbBlockEnd
0
BLOCK
5
222
100
AcDbEntity
8
0
100
AcDbBlockBegin
62
2
6
CONTINUOUS
2
*D0
70
65
10
0.0000000000
20
0.0000000000
3
*D0
1

0
TEXT
5
223
100
AcDbEntity
8
0
100
AcDbText
62
2
6
CONTINUOUS
10
3.8583480745
20
39.9019473668
7
STANDARD
40
3.0000000000
1
44,8
41
0.7321428571
72
0
100
AcDbText
0
LINE
5
224
100
AcDbEntity
8
0
100
AcDbLine
62
2
6
CONTINUOUS
10
-14.1487947826
20
27.9982329760
11
-14.1487947826
21
40.6519473668
0
LINE
5
225
100
AcDbEntity
8
0
100
AcDbLine
62
2
6
CONTINUOUS
10
30.6512052174
20
27.9982329760
11
30.6512052174
21
40.6519473668
0
LINE
5
226
100
AcDbEntity
8
0
100
AcDbLine
62
2
6
CONTINUOUS
10
-14.1487947826
20
39.1519473668
11
8.2512052174
21
39.1519473668
0
LINE
5
227
100
AcDbEntity
8
0
100
AcDbLine
62
2
6
CONTINUOUS
10
30.6512052174
20
39.1519473668
11
8.2512052174
21
39.1519473668
0
INSERT
5
228
100
AcDbEntity
8
0
100
AcDbBlockReference
62
2
6
CONTINUOUS
2
_FILLED
10
-14.1487947826
20
39.1519473668
41
  3.000000
42
  3.000000
43
  3.000000
50
180.000000
0
INSERT
5
229
100
AcDbEntity
8
0
100
AcDbBlockReference
62
2
6
CONTINUOUS
2
_FILLED
10
30.6512052174
20
39.1519473668
41
  3.000000
42
  3.000000
43
  3.000000
50
360.000000
0
ENDBLK
5
22A
100
AcDbEntity
8
0
6
BYBLOCK
62
0
100
AcDbBlockEnd
0
BLOCK
5
22B
100
AcDbEntity
8
0
100
AcDbBlockBegin
62
2
6
CONTINUOUS
2
*D1
70
65
10
0.0000000000
20
0.0000000000
3
*D1
1

0
TEXT
5
22C
100
AcDbEntity
8
0
100
AcDbText
62
2
6
CONTINUOUS
10
38.0512052174
20
3.2948045096
7
STANDARD
40
3.0000000000
1
47
50
90.0000000000
41
0.7857142857
72
0
100
AcDbText
0
LINE
5
22D
100
AcDbEntity
8
0
100
AcDbLine
62
2
6
CONTINUOUS
10
23.6760629840
20
29.1519473668
11
40.3012052174
21
29.1519473668
0
LINE
5
22E
100
AcDbEntity
8
0
100
AcDbLine
62
2
6
CONTINUOUS
10
23.6760628814
20
-17.8480526332
11
40.3012052174
21
-17.8480526332
0
LINE
5
22F
100
AcDbEntity
8
0
100
AcDbLine
62
2
6
CONTINUOUS
10
38.8012052174
20
29.1519473668
11
38.8012052174
21
5.6519473668
0
LINE
5
230
100
AcDbEntity
8
0
100
AcDbLine
62
2
6
CONTINUOUS
10
38.8012052174
20
-17.8480526332
11
38.8012052174
21
5.6519473668
0
INSERT
5
231
100
AcDbEntity
8
0
100
AcDbBlockReference
62
2
6
CONTINUOUS
2
_FILLED
10
38.8012052174
20
29.1519473668
41
  3.000000
42
  3.000000
43
  3.000000
50
 90.000000
0
INSERT
5
232
100
AcDbEntity
8
0
100
AcDbBlockReference
62
2
6
CONTINUOUS
2
_FILLED
10
38.8012052174
20
-17.8480526332
41
  3.000000
42
  3.000000
43
  3.000000
50
270.000000
0
ENDBLK
5
233
100
AcDbEntity
8
0
6
BYBLOCK
62
0
100
AcDbBlockEnd
0
BLOCK
5
234
100
AcDbEntity
8
0
100
AcDbBlockBegin
62
2
6
CONTINUOUS
2
*D2
70
65
10
0.0000000000
20
0.0000000000
3
*D2
1

0
TEXT
5
235
100
AcDbEntity
8
0
100
AcDbText
62
2
6
CONTINUOUS
10
-41.9733169893
20
39.9019473668
7
STANDARD
40
3.0000000000
1
23,1
41
0.6607142857
72
0
100
AcDbText
0
LINE
5
236
100
AcDbEntity
8
0
100
AcDbLine
62
2
6
CONTINUOUS
10
-49.5590312750
20
28.8151139887
11
-49.5590312750
21
40.6519473668
0
LINE
5
237
100
AcDbEntity
8
0
100
AcDbLine
62
2
6
CONTINUOUS
10
-26.4590312750
20
21.4980716620
11
-26.4590312750
21
40.6519473668
0
LINE
5
238
100
AcDbEntity
8
0
100
AcDbLine
62
2
6
CONTINUOUS
10
-49.5590312750
20
39.1519473668
11
-38.0090312750
21
39.1519473668
0
LINE
5
239
100
AcDbEntity
8
0
100
AcDbLine
62
2
6
CONTINUOUS
10
-26.4590312750
20
39.1519473668
11
-38.0090312750
21
39.1519473668
0
INSERT
5
23A
100
AcDbEntity
8
0
100
AcDbBlockReference
62
2
6
CONTINUOUS
2
_FILLED
10
-49.5590312750
20
39.1519473668
41
  3.000000
42
  3.000000
43
  3.000000
50
180.000000
0
INSERT
5
23B
100
AcDbEntity
8
0
100
AcDbBlockReference
62
2
6
CONTINUOUS
2
_FILLED
10
-26.4590312750
20
39.1519473668
41
  3.000000
42
  3.000000
43
  3.000000
0
ENDBLK
5
23C
100
AcDbEntity
8
0
6
BYBLOCK
62
0
100
AcDbBlockEnd
0
BLOCK
5
23D
100
AcDbEntity
8
0
100
AcDbBlockBegin
62
2
6
CONTINUOUS
2
*D3
70
65
10
0.0000000000
20
0.0000000000
3
*D3
1

0
TEXT
5
23E
100
AcDbEntity
8
0
100
AcDbText
62
2
6
CONTINUOUS
10
-48.5724221914
20
49.9019473668
7
STANDARD
40
3.0000000000
1
35,9
41
0.6964285714
72
0
100
AcDbText
0
LINE
5
23F
100
AcDbEntity
8
0
100
AcDbLine
62
2
6
CONTINUOUS
10
-26.4590312750
20
21.0552843658
11
-26.4590312750
21
50.6519473668
0
LINE
5
240
100
AcDbEntity
8
0
100
AcDbLine
62
2
6
CONTINUOUS
10
-62.3286702507
20
26.6537505038
11
-62.3286702507
21
50.6519473668
0
LINE
5
241
100
AcDbEntity
8
0
100
AcDbLine
62
2
6
CONTINUOUS
10
-26.4590312750
20
49.1519473668
11
-44.3938507628
21
49.1519473668
0
LINE
5
242
100
AcDbEntity
8
0
100
AcDbLine
62
2
6
CONTINUOUS
10
-62.3286702507
20
49.1519473668
11
-44.3938507628
21
49.1519473668
0
INSERT
5
243
100
AcDbEntity
8
0
100
AcDbBlockReference
62
2
6
CONTINUOUS
2
_FILLED
10
-26.4590312750
20
49.1519473668
41
  3.000000
42
  3.000000
43
  3.000000
0
INSERT
5
244
100
AcDbEntity
8
0
100
AcDbBlockReference
62
2
6
CONTINUOUS
2
_FILLED
10
-62.3286702507
20
49.1519473668
41
  3.000000
42
  3.000000
43
  3.000000
50
180.000000
0
ENDBLK
5
245
100
AcDbEntity
8
0
6
BYBLOCK
62
0
100
AcDbBlockEnd
0
BLOCK
5
246
100
AcDbEntity
8
0
100
AcDbBlockBegin
2
_FILLED
70
64
10
0.0000000000
20
0.0000000000
3
_FILLED
1

0
SOLID
5
247
100
AcDbEntity
8
0
6
BYBLOCK
62
0
100
AcDbTrace
10
0.0000000000
20
0.0000000000
11
-1.0000000000
21
0.3166666667
12
-1.0000000000
22
-0.3166666667
13
-1.0000000000
23
-0.3166666667
0
ENDBLK
5
248
100
AcDbEntity
8
0
6
BYBLOCK
62
0
100
AcDbBlockEnd
0
ENDSEC
0
SECTION
2
ENTITIES
0
DIMENSION
5
249
100
AcDbEntity
8
0
100
AcDbDimension
62
2
6
CONTINUOUS
2
*D0
10
30.6512052174
20
39.1519473668
11
8.2512052174
21
41.4019473668
70
160
3
DIMSTYLE_1
100
AcDbAlignedDimension
13
-14.1487947826
23
27.9982329760
14
30.6512052174
24
27.9982329760
100
AcDbRotatedDimension
0
DIMENSION
5
24A
100
AcDbEntity
8
0
100
AcDbDimension
62
2
6
CONTINUOUS
2
*D1
10
38.8012052174
20
-17.8480526332
11
36.5512052174
21
5.6519473668
70
160
3
DIMSTYLE_1
100
AcDbAlignedDimension
13
23.6760629840
23
29.1519473668
14
23.6760628814
24
-17.8480526332
50
270.000000
100
AcDbRotatedDimension
0
DIMENSION
5
24B
100
AcDbEntity
8
0
100
AcDbDimension
62
2
6
CONTINUOUS
2
*D2
10
-26.4590312750
20
39.1519473668
11
-38.0090312750
21
41.4019473668
70
160
3
DIMSTYLE_1
100
AcDbAlignedDimension
13
-49.5590312750
23
28.8151139887
14
-26.4590312750
24
21.4980716620
100
AcDbRotatedDimension
0
DIMENSION
5
24C
100
AcDbEntity
8
0
100
AcDbDimension
62
2
6
CONTINUOUS
2
*D3
10
-62.3286702507
20
49.1519473668
11
-44.3938507628
21
51.4019473668
70
160
3
DIMSTYLE_2
100
AcDbAlignedDimension
13
-26.4590312750
23
21.0552843658
14
-62.3286702507
24
26.6537505038
50
180.000000
100
AcDbRotatedDimension
0
LWPOLYLINE
5
24D
100
AcDbEntity
8
0
100
AcDbPolyline
62
7
6
CONTINUOUS
90
22
70
0
10
-13.9902821220
20
-16.0711836186
10
-13.9795637183
20
-16.0915903008
10
-13.9673035327
20
-16.1124775032
10
-13.9538495522
20
-16.1330360752
10
-13.9391949403
20
-16.1531824904
10
-13.9233519074
20
-16.1728158120
10
-13.9063197597
20
-16.1918598225
10
-13.8881092784
20
-16.2102289396
10
-13.8687664278
20
-16.2278115805
10
-13.8483220429
20
-16.2445224731
10
-13.8267989335
20
-16.2602877019
10
-13.8042459045
20
-16.2750186336
10
-13.7807054712
20
-16.2886375868
10
-13.7562260393
20
-16.3010678223
10
-13.7308768845
20
-16.3122278927
10
-13.7047187340
20
-16.3220469635
10
-13.6778196331
20
-16.3304560092
10
-13.6502707296
20
-16.3373852257
10
-13.6221515590
20
-16.3427752392
10
-13.5935470413
20
-16.3465705958
10
-13.5645657500
20
-16.3487193991
10
-13.5420866065
20
-16.3492247022
0
LINE
5
24E
100
AcDbEntity
8
0
100
AcDbLine
62
7
6
CONTINUOUS
10
-13.9897054813
20
-16.0723730338
11
-14.0963659168
21
-15.8588244766
0
LINE
5
24F
100
AcDbEntity
8
0
100
AcDbLine
62
9
6
CONTINUOUS
10
-14.0423203896
20
-15.8497175640
11
-14.1487947826
21
-15.6365414889
0
LINE
5
250
100
AcDbEntity
8
0
100
AcDbLine
62
7
6
CONTINUOUS
10
-14.1487947826
20
27.4982329760
11
-14.1487947826
21
-15.6365414889
0
LWPOLYLINE
5
251
100
AcDbEntity
8
0
100
AcDbPolyline
62
7
6
CONTINUOUS
90
23
70
0
10
30.0444974210
20
-16.3492415135
10
30.0525181278
20
-16.3491772289
10
30.0822528561
20
-16.3478146095
10
30.1116689174
20
-16.3447107003
10
30.1406669158
20
-16.3399092578
10
30.1691089417
20
-16.3334704000
10
30.1969072133
20
-16.3254554316
10
30.2239798513
20
-16.3159296886
10
30.2502103967
20
-16.3049803469
10
30.2755321332
20
-16.2926861719
10
30.2998853350
20
-16.2791278938
10
30.3231802623
20
-16.2644123874
10
30.3453754569
20
-16.2486282037
10
30.3664344183
20
-16.2318652526
10
30.3862936949
20
-16.2142448628
10
30.4049372536
20
-16.1958592817
10
30.4223536233
20
-16.1768006596
10
30.4385069305
20
-16.1571983803
10
30.4534056196
20
-16.1371423459
10
30.4670626709
20
-16.1167201172
10
30.4794705984
20
-16.0960607655
10
30.4906751353
20
-16.0752158003
10
30.5987763515
20
-15.8588244766
0
LINE
5
252
100
AcDbEntity
8
0
100
AcDbLine
62
7
6
CONTINUOUS
10
-6.7874117403
20
-17.8480526332
11
-6.1965431462
21
-17.8480526332
0
LINE
5
253
100
AcDbEntity
8
0
100
AcDbLine
62
7
6
CONTINUOUS
10
0.1989535810
20
-17.8480526332
11
0.7898221751
21
-17.8480526332
0
LINE
5
254
100
AcDbEntity
8
0
100
AcDbLine
62
7
6
CONTINUOUS
10
15.8263475534
20
-17.8480526332
11
23.1760628814
21
-17.8480526332
0
LINE
5
255
100
AcDbEntity
8
0
100
AcDbLine
62
7
6
CONTINUOUS
10
16.0313849577
20
-16.8480526332
11
22.9710254771
21
-16.8480526332
0
LINE
5
256
100
AcDbEntity
8
0
100
AcDbLine
62
7
6
CONTINUOUS
10
22.7313636784
20
-16.7829627631
11
22.0478895885
21
-16.7829627631
0
LINE
5
257
100
AcDbEntity
8
0
100
AcDbLine
62
7
6
CONTINUOUS
10
21.5545208463
20
-16.7829627631
11
17.4478895885
21
-16.7829627631
0
LINE
5
258
100
AcDbEntity
8
0
100
AcDbLine
62
7
6
CONTINUOUS
10
16.9545208463
20
-16.7829627631
11
16.2710467564
21
-16.7829627631
0
LINE
5
259
100
AcDbEntity
8
0
100
AcDbLine
62
7
6
CONTINUOUS
10
24.8929800595
20
-16.7480526332
11
22.8012052174
21
-16.7480526332
0
LINE
5
25A
100
AcDbEntity
8
0
100
AcDbLine
62
7
6
CONTINUOUS
10
16.2012052174
20
-16.7480526332
11
14.1186812686
21
-16.7480526332
0
LINE
5
25B
100
AcDbEntity
8
0
100
AcDbLine
62
7
6
CONTINUOUS
10
2.3834305469
20
-16.7480526332
11
0.1989535810
21
-16.7480526332
0
LINE
5
25C
100
AcDbEntity
8
0
100
AcDbLine
62
7
6
CONTINUOUS
10
-6.1965431462
20
-16.7480526332
11
-8.3810201124
21
-16.7480526332
0
LINE
5
25D
100
AcDbEntity
8
0
100
AcDbLine
62
7
6
CONTINUOUS
10
16.9012052174
20
-16.7480526332
11
17.5012052174
21
-16.7480526332
0
LINE
5
25E
100
AcDbEntity
8
0
100
AcDbLine
62
7
6
CONTINUOUS
10
21.5012052174
20
-16.7480526332
11
22.1012052174
21
-16.7480526332
0
LINE
5
25F
100
AcDbEntity
8
0
100
AcDbLine
62
9
6
CONTINUOUS
10
14.1232531850
20
-16.7344754800
11
24.8884280385
21
-16.7344754800
0
LINE
5
260
100
AcDbEntity
8
0
100
AcDbLine
62
9
6
CONTINUOUS
10
-8.4125884023
20
-16.7067455452
11
-6.2103009874
21
-16.7067455452
0
LINE
5
261
100
AcDbEntity
8
0
100
AcDbLine
62
9
6
CONTINUOUS
10
2.4149988370
20
-16.7067455452
11
0.2127114222
21
-16.7067455452
0
LINE
5
262
100
AcDbEntity
8
0
100
AcDbLine
62
9
6
CONTINUOUS
10
14.1232531850
20
-16.5588798096
11
24.8884280385
21
-16.5588798096
0
LINE
5
263
100
AcDbEntity
8
0
100
AcDbLine
62
7
6
CONTINUOUS
10
0.1012052174
20
-16.5480526332
11
-6.0987947826
21
-16.5480526332
0
LINE
5
264
100
AcDbEntity
8
0
100
AcDbLine
62
9
6
CONTINUOUS
10
-8.4125884024
20
-16.5313935070
11
-6.2135832734
21
-16.5313935070
0
LINE
5
265
100
AcDbEntity
8
0
100
AcDbLine
62
9
6
CONTINUOUS
10
2.4149988372
20
-16.5313935070
11
0.2159937082
21
-16.5313935070
0
LINE
5
266
100
AcDbEntity
8
0
100
AcDbLine
62
7
6
CONTINUOUS
10
0.1291333213
20
-17.7782323735
11
0.1989535810
21
-17.8480526332
0
LINE
5
267
100
AcDbEntity
8
0
100
AcDbLine
62
9
6
CONTINUOUS
10
-13.5341333811
20
26.1082569195
11
-13.5341333811
21
-15.4779275650
0
LINE
5
268
100
AcDbEntity
8
0
100
AcDbLine
62
7
6
CONTINUOUS
10
-6.2103009874
20
28.0106402788
11
-6.1965431462
21
28.0519473668
0
LINE
5
269
100
AcDbEntity
8
0
100
AcDbLine
62
7
6
CONTINUOUS
10
0.1291333213
20
29.0821271070
11
0.1989535810
21
29.1519473668
0
LINE
5
26A
100
AcDbEntity
8
0
100
AcDbLine
62
7
6
CONTINUOUS
10
30.0445077744
20
-16.3492616118
11
-13.5420990679
21
-16.3492616118
0
LINE
5
26B
100
AcDbEntity
8
0
100
AcDbLine
62
9
6
CONTINUOUS
10
30.0365438159
20
-15.4779275650
11
-13.5341333811
21
-15.4779275650
0
LINE
5
26C
100
AcDbEntity
8
0
100
AcDbLine
62
7
6
CONTINUOUS
10
-6.1965431462
20
-16.7480526332
11
-6.2103009874
21
-16.7067455452
0
LINE
5
26D
100
AcDbEntity
8
0
100
AcDbLine
62
9
6
CONTINUOUS
10
-14.1487947826
20
27.4982329760
11
-14.0423203896
21
26.6481239994
0
LINE
5
26E
100
AcDbEntity
8
0
100
AcDbLine
62
9
6
CONTINUOUS
10
-13.6491753823
20
27.9965583063
11
-13.5423965420
21
27.1440185725
0
LINE
5
26F
100
AcDbEntity
8
0
100
AcDbLine
62
9
6
CONTINUOUS
10
-8.4125884024
20
-16.5313935070
11
-8.4125884024
21
-16.7067455452
0
LINE
5
270
100
AcDbEntity
8
0
100
AcDbLine
62
9
6
CONTINUOUS
10
-8.4125883614
20
27.9965583063
11
-8.4125884049
21
28.0106402788
0
LINE
5
271
100
AcDbEntity
8
0
100
AcDbLine
62
7
6
CONTINUOUS
10
16.2012052174
20
28.0519473668
11
16.2710467564
21
28.0868574966
0
LINE
5
272
100
AcDbEntity
8
0
100
AcDbLine
62
9
6
CONTINUOUS
10
26.7304503191
20
-11.2480526332
11
25.0010105605
21
-11.2480526332
0
LINE
5
273
100
AcDbEntity
8
0
100
AcDbLine
62
9
6
CONTINUOUS
10
24.0013804408
20
-11.2480526332
11
22.2719601157
21
-11.2480526332
0
LINE
5
274
100
AcDbEntity
8
0
100
AcDbLine
62
9
6
CONTINUOUS
10
26.9296892587
20
-11.0654837818
11
25.0012052174
21
-11.0654837818
0
LINE
5
275
100
AcDbEntity
8
0
100
AcDbLine
62
9
6
CONTINUOUS
10
24.0012052174
20
-11.0654837818
11
22.0727211761
21
-11.0654837818
0
LINE
5
276
100
AcDbEntity
8
0
100
AcDbLine
62
9
6
CONTINUOUS
10
16.7304503191
20
-10.3730526332
11
15.0010299940
21
-10.3730526332
0
LINE
5
277
100
AcDbEntity
8
0
100
AcDbLine
62
9
6
CONTINUOUS
10
14.0013998743
20
-10.3730526332
11
12.2719601157
21
-10.3730526332
0
LINE
5
278
100
AcDbEntity
8
0
100
AcDbLine
62
6
6
CONTINUOUS
10
21.0012052174
20
-10.2480526332
11
28.0012052174
21
-10.2480526332
0
LINE
5
279
100
AcDbEntity
8
0
100
AcDbLine
62
9
6
CONTINUOUS
10
16.9296892587
20
-10.1904837818
11
15.0012052174
21
-10.1904837818
0
LINE
5
27A
100
AcDbEntity
8
0
100
AcDbLine
62
9
6
CONTINUOUS
10
14.0012052174
20
-10.1904837818
11
12.0727211761
21
-10.1904837818
0
LINE
5
27B
100
AcDbEntity
8
0
100
AcDbLine
62
7
6
CONTINUOUS
10
16.2710467564
20
-16.7829627631
11
16.2012052174
21
-16.7480526332
0
LINE
5
27C
100
AcDbEntity
8
0
100
AcDbLine
62
7
6
CONTINUOUS
10
-6.2135832734
20
-16.5313935070
11
-6.2139736207
21
-16.3492616118
0
LINE
5
27D
100
AcDbEntity
8
0
100
AcDbLine
62
7
6
CONTINUOUS
10
-6.1965431462
20
29.1519473668
11
-6.1965431462
21
28.0519473668
0
LINE
5
27E
100
AcDbEntity
8
0
100
AcDbLine
62
7
6
CONTINUOUS
10
-6.1965431462
20
-17.8480526332
11
-6.1965431462
21
-16.7480526332
0
LINE
5
27F
100
AcDbEntity
8
0
100
AcDbLine
62
7
6
CONTINUOUS
10
-6.1267228865
20
29.0821271070
11
-6.1267228865
21
27.9965583063
0
LINE
5
280
100
AcDbEntity
8
0
100
AcDbLine
62
7
6
CONTINUOUS
10
-6.1267228865
20
-17.7782323735
11
-6.1267228865
21
-16.3492616118
0
LINE
5
281
100
AcDbEntity
8
0
100
AcDbLine
62
7
6
CONTINUOUS
10
-6.0987947826
20
-16.3492616118
11
-6.0987947826
21
-16.5480526332
0
LINE
5
282
100
AcDbEntity
8
0
100
AcDbLine
62
9
6
CONTINUOUS
10
21.0012052174
20
-9.4480526332
11
28.0012052174
21
-9.4480526332
0
LINE
5
283
100
AcDbEntity
8
0
100
AcDbLine
62
6
6
CONTINUOUS
10
11.0012052174
20
-9.3730526332
11
18.0012052174
21
-9.3730526332
0
LINE
5
284
100
AcDbEntity
8
0
100
AcDbLine
62
6
6
CONTINUOUS
10
23.3562052174
20
-9.3480526332
11
25.6462052174
21
-9.3480526332
0
LINE
5
285
100
AcDbEntity
8
0
100
AcDbLine
62
9
6
CONTINUOUS
10
27.8012052178
20
-9.2480526332
11
21.2012052170
21
-9.2480526332
0
LINE
5
286
100
AcDbEntity
8
0
100
AcDbLine
62
6
6
CONTINUOUS
10
26.1262052174
20
-9.0730526332
11
22.8762052174
21
-9.0730526332
0
LINE
5
287
100
AcDbEntity
8
0
100
AcDbLine
62
6
6
CONTINUOUS
10
26.2512052174
20
-8.9480526332
11
22.7512052174
21
-8.9480526332
0
LINE
5
288
100
AcDbEntity
8
0
100
AcDbLine
62
9
6
CONTINUOUS
10
11.0012052174
20
-8.5730526332
11
18.0012052174
21
-8.5730526332
0
LINE
5
289
100
AcDbEntity
8
0
100
AcDbLine
62
6
6
CONTINUOUS
10
13.3562052174
20
-8.4730526332
11
15.6462052174
21
-8.4730526332
0
LINE
5
28A
100
AcDbEntity
8
0
100
AcDbLine
62
9
6
CONTINUOUS
10
17.8012052178
20
-8.3730526332
11
11.2012052170
21
-8.3730526332
0
LINE
5
28B
100
AcDbEntity
8
0
100
AcDbLine
62
6
6
CONTINUOUS
10
16.1262052174
20
-8.1980526332
11
12.8762052174
21
-8.1980526332
0
LINE
5
28C
100
AcDbEntity
8
0
100
AcDbLine
62
6
6
CONTINUOUS
10
16.2512052174
20
-8.0730526332
11
12.7512052174
21
-8.0730526332
0
LINE
5
28D
100
AcDbEntity
8
0
100
AcDbLine
62
7
6
CONTINUOUS
10
30.8012052174
20
-4.8480526332
11
30.6512052174
21
-4.8480526332
0
LINE
5
28E
100
AcDbEntity
8
0
100
AcDbLine
62
6
6
CONTINUOUS
10
26.2512052174
20
-3.9661136332
11
22.7512052174
21
-3.9661136332
0
LINE
5
28F
100
AcDbEntity
8
0
100
AcDbLine
62
6
6
CONTINUOUS
10
25.8831442174
20
-3.5980526332
11
23.1192662174
21
-3.5980526332
0
LINE
5
290
100
AcDbEntity
8
0
100
AcDbLine
62
6
6
CONTINUOUS
10
16.2512052174
20
-3.0911136332
11
12.7512052174
21
-3.0911136332
0
LINE
5
291
100
AcDbEntity
8
0
100
AcDbLine
62
7
6
CONTINUOUS
10
0.1012052174
20
-16.3492616118
11
0.1012052174
21
-16.5480526332
0
LINE
5
292
100
AcDbEntity
8
0
100
AcDbLine
62
7
6
CONTINUOUS
10
0.1291333213
20
29.0821271070
11
0.1291333213
21
27.9965583063
0
LINE
5
293
100
AcDbEntity
8
0
100
AcDbLine
62
7
6
CONTINUOUS
10
0.1291333213
20
-17.7782323735
11
0.1291333213
21
-16.3492616118
0
LINE
5
294
100
AcDbEntity
8
0
100
AcDbLine
62
7
6
CONTINUOUS
10
0.1989535810
20
29.1519473668
11
0.1989535810
21
28.0519473668
0
LINE
5
295
100
AcDbEntity
8
0
100
AcDbLine
62
7
6
CONTINUOUS
10
0.1989535810
20
-17.8480526332
11
0.1989535810
21
-16.7480526332
0
LINE
5
296
100
AcDbEntity
8
0
100
AcDbLine
62
7
6
CONTINUOUS
10
0.2159937082
20
-16.5313935070
11
0.2163840555
21
-16.3492616118
0
LINE
5
297
100
AcDbEntity
8
0
100
AcDbLine
62
9
6
CONTINUOUS
10
30.7742792325
20
21.6099787243
11
30.8012052174
21
21.6192480970
0
LINE
5
298
100
AcDbEntity
8
0
100
AcDbLine
62
9
6
CONTINUOUS
10
25.7512052174
20
-2.7480526332
11
23.2512052174
21
-2.7480526332
0
LINE
5
299
100
AcDbEntity
8
0
100
AcDbLine
62
6
6
CONTINUOUS
10
15.8831442174
20
-2.7230526332
11
13.1192662174
21
-2.7230526332
0
LINE
5
29A
100
AcDbEntity
8
0
100
AcDbLine
62
9
6
CONTINUOUS
10
25.5512052174
20
-2.5480526332
11
23.4512052174
21
-2.5480526332
0
LINE
5
29B
100
AcDbEntity
8
0
100
AcDbLine
62
9
6
CONTINUOUS
10
15.7512052174
20
-1.8730526332
11
13.2512052174
21
-1.8730526332
0
LINE
5
29C
100
AcDbEntity
8
0
100
AcDbLine
62
9
6
CONTINUOUS
10
15.5512052174
20
-1.6730526332
11
13.4512052174
21
-1.6730526332
0
LINE
5
29D
100
AcDbEntity
8
0
100
AcDbLine
62
9
6
CONTINUOUS
10
30.7742792325
20
-10.3060839908
11
30.8012052174
21
-10.3153533635
0
LINE
5
29E
100
AcDbEntity
8
0
100
AcDbLine
62
6
6
CONTINUOUS
10
12.7512052174
20
-8.0730526332
11
12.8762052174
21
-8.1980526332
0
LINE
5
29F
100
AcDbEntity
8
0
100
AcDbLine
62
9
6
CONTINUOUS
10
2.4149988372
20
28.0106402788
11
2.4149987688
21
27.9965583063
0
LINE
5
2A0
100
AcDbEntity
8
0
100
AcDbLine
62
9
6
CONTINUOUS
10
2.4149988372
20
-16.7067455452
11
2.4149988372
21
-16.5313935070
0
LINE
5
2A1
100
AcDbEntity
8
0
100
AcDbLine
62
6
6
CONTINUOUS
10
16.1262052174
20
-8.1980526332
11
16.3012052174
21
-8.3730526332
0
LINE
5
2A2
100
AcDbEntity
8
0
100
AcDbLine
62
7
6
CONTINUOUS
10
0.1989535810
20
-16.7480526332
11
0.2127114222
21
-16.7067455452
0
LINE
5
2A3
100
AcDbEntity
8
0
100
AcDbLine
62
6
6
CONTINUOUS
10
15.8831442174
20
-2.7230526332
11
16.2512052174
21
-3.0911136332
0
LINE
5
2A4
100
AcDbEntity
8
0
100
AcDbLine
62
6
6
CONTINUOUS
10
22.7512052174
20
-8.9480526332
11
22.8762052174
21
-9.0730526332
0
LINE
5
2A5
100
AcDbEntity
8
0
100
AcDbLine
62
6
6
CONTINUOUS
10
15.6439001621
20
-8.4730526332
11
16.5912052174
21
-10.3730526332
0
LINE
5
2A6
100
AcDbEntity
8
0
100
AcDbLine
62
7
6
CONTINUOUS
10
0.2127114222
20
28.0106402788
11
0.1989535810
21
28.0519473668
0
LINE
5
2A7
100
AcDbEntity
8
0
100
AcDbLine
62
6
6
CONTINUOUS
10
12.0012052174
20
-9.3730526332
11
12.0727211761
21
-10.1904837818
0
LINE
5
2A8
100
AcDbEntity
8
0
100
AcDbLine
62
6
6
CONTINUOUS
10
22.7512052174
20
19.3769473668
11
22.8762052174
21
19.5019473668
0
LINE
5
2A9
100
AcDbEntity
8
0
100
AcDbLine
62
6
6
CONTINUOUS
10
26.1262052174
20
-9.0730526332
11
26.3012052174
21
-9.2480526332
0
LINE
5
2AA
100
AcDbEntity
8
0
100
AcDbLine
62
6
6
CONTINUOUS
10
11.0012052174
20
-9.3730526332
11
11.0012052174
21
-8.5730526332
0
LINE
5
2AB
100
AcDbEntity
8
0
100
AcDbLine
62
6
6
CONTINUOUS
10
12.7512052174
20
-8.0730526332
11
12.7512052174
21
-3.0911136332
0
LINE
5
2AC
100
AcDbEntity
8
0
100
AcDbLine
62
7
6
CONTINUOUS
10
16.1163329403
20
28.0519473668
11
16.1331447839
21
28.1300405995
0
LINE
5
2AD
100
AcDbEntity
8
0
100
AcDbLine
62
6
6
CONTINUOUS
10
26.1262052174
20
19.5019473668
11
26.3012052174
21
19.6769473668
0
LINE
5
2AE
100
AcDbEntity
8
0
100
AcDbLine
62
7
6
CONTINUOUS
10
16.1163329403
20
-16.7480526332
11
16.1331447839
21
-16.8261458660
0
LINE
5
2AF
100
AcDbEntity
8
0
100
AcDbLine
62
6
6
CONTINUOUS
10
13.2512052174
20
-2.7230526332
11
13.2512052174
21
-1.8730526332
0
LINE
5
2B0
100
AcDbEntity
8
0
100
AcDbLine
62
6
6
CONTINUOUS
10
13.4110102807
20
-8.4730526332
11
13.4110102807
21
-10.3730526332
0
LINE
5
2B1
100
AcDbEntity
8
0
100
AcDbLine
62
6
6
CONTINUOUS
10
13.9814817332
20
-10.3730526332
11
13.9814817332
21
-8.4730526332
0
LINE
5
2B2
100
AcDbEntity
8
0
100
AcDbLine
62
6
6
CONTINUOUS
10
14.0012052174
20
-9.3730526332
11
14.0012052174
21
-10.3730526332
0
LINE
5
2B3
100
AcDbEntity
8
0
100
AcDbLine
62
9
6
CONTINUOUS
10
14.1232531623
20
27.9965583063
11
14.1232531825
21
28.0383702135
0
LINE
5
2B4
100
AcDbEntity
8
0
100
AcDbLine
62
9
6
CONTINUOUS
10
14.1232531850
20
-16.5588798096
11
14.1232531850
21
-16.7344754800
0
LINE
5
2B5
100
AcDbEntity
8
0
100
AcDbLine
62
6
6
CONTINUOUS
10
14.1512052174
20
-8.4730526332
11
14.1512052174
21
-9.3730526332
0
LINE
5
2B6
100
AcDbEntity
8
0
100
AcDbLine
62
6
6
CONTINUOUS
10
14.8512052174
20
-8.4730526332
11
14.8512052174
21
-9.3730526332
0
LINE
5
2B7
100
AcDbEntity
8
0
100
AcDbLine
62
6
6
CONTINUOUS
10
15.0012052174
20
-10.3730526332
11
15.0012052174
21
-9.3730526332
0
LINE
5
2B8
100
AcDbEntity
8
0
100
AcDbLine
62
6
6
CONTINUOUS
10
15.0209287016
20
-10.3730526332
11
15.0209287016
21
-8.4730526332
0
LINE
5
2B9
100
AcDbEntity
8
0
100
AcDbLine
62
7
6
CONTINUOUS
10
-6.1267228865
20
-17.7782323735
11
-6.1965431462
21
-17.8480526332
0
LINE
5
2BA
100
AcDbEntity
8
0
100
AcDbLine
62
6
6
CONTINUOUS
10
25.8831442174
20
14.0269473668
11
26.2512052174
21
14.3950083668
0
LINE
5
2BB
100
AcDbEntity
8
0
100
AcDbLine
62
6
6
CONTINUOUS
10
25.8831442174
20
-3.5980526332
11
26.2512052174
21
-3.9661136332
0
LINE
5
2BC
100
AcDbEntity
8
0
100
AcDbLine
62
7
6
CONTINUOUS
10
-6.1267228865
20
29.0821271070
11
-6.1965431462
21
29.1519473668
0
LINE
5
2BD
100
AcDbEntity
8
0
100
AcDbLine
62
6
6
CONTINUOUS
10
15.5914001541
20
-8.4730526332
11
15.5914001541
21
-10.3730526332
0
LINE
5
2BE
100
AcDbEntity
8
0
100
AcDbLine
62
6
6
CONTINUOUS
10
15.7512052174
20
-2.7230526332
11
15.7512052174
21
-1.8730526332
0
LINE
5
2BF
100
AcDbEntity
8
0
100
AcDbLine
62
7
6
CONTINUOUS
10
16.0313849577
20
28.1519473668
11
16.0313849577
21
28.0519473668
0
LINE
5
2C0
100
AcDbEntity
8
0
100
AcDbLine
62
7
6
CONTINUOUS
10
16.0313849577
20
-16.8480526332
11
16.0313849577
21
-16.7480526332
0
LINE
5
2C1
100
AcDbEntity
8
0
100
AcDbLine
62
6
6
CONTINUOUS
10
16.2512052174
20
-8.0730526332
11
16.2512052174
21
-3.0911136332
0
LINE
5
2C2
100
AcDbEntity
8
0
100
AcDbLine
62
7
6
CONTINUOUS
10
16.2710467564
20
-16.8480526332
11
16.2710467564
21
-16.7829627631
0
LINE
5
2C3
100
AcDbEntity
8
0
100
AcDbLine
62
7
6
CONTINUOUS
10
16.2710467564
20
28.0868574966
11
16.2710467564
21
28.1519473668
0
LINE
5
2C4
100
AcDbEntity
8
0
100
AcDbLine
62
9
6
CONTINUOUS
10
24.8884280385
20
28.0383702135
11
24.8929800595
21
28.0519473668
0
LINE
5
2C5
100
AcDbEntity
8
0
100
AcDbLine
62
6
6
CONTINUOUS
10
26.5912052174
20
21.6769473668
11
25.6439001621
21
19.7769473668
0
LINE
5
2C6
100
AcDbEntity
8
0
100
AcDbLine
62
9
6
CONTINUOUS
10
23.4512052174
20
12.9769473668
11
25.5512052174
21
12.9769473668
0
LINE
5
2C7
100
AcDbEntity
8
0
100
AcDbLine
62
9
6
CONTINUOUS
10
25.7512052174
20
13.1769473668
11
23.2512052174
21
13.1769473668
0
LINE
5
2C8
100
AcDbEntity
8
0
100
AcDbLine
62
6
6
CONTINUOUS
10
23.1192662174
20
14.0269473668
11
25.8831442174
21
14.0269473668
0
LINE
5
2C9
100
AcDbEntity
8
0
100
AcDbLine
62
6
6
CONTINUOUS
10
22.7512052174
20
14.3950083668
11
26.2512052174
21
14.3950083668
0
LINE
5
2CA
100
AcDbEntity
8
0
100
AcDbLine
62
6
6
CONTINUOUS
10
26.5912052174
20
-11.2480526332
11
25.6439001621
21
-9.3480526332
0
LINE
5
2CB
100
AcDbEntity
8
0
100
AcDbLine
62
9
6
CONTINUOUS
10
25.1942933024
20
-16.6470450463
11
25.1897644229
21
-16.6332871878
0
LINE
5
2CC
100
AcDbEntity
8
0
100
AcDbLine
62
6
6
CONTINUOUS
10
18.0012052174
20
-9.3730526332
11
18.0012052174
21
-8.5730526332
0
LINE
5
2CD
100
AcDbEntity
8
0
100
AcDbLine
62
6
6
CONTINUOUS
10
17.0012052174
20
-9.3730526332
11
16.9296892587
21
-10.1904837818
0
LINE
5
2CE
100
AcDbEntity
8
0
100
AcDbLine
62
7
6
CONTINUOUS
10
22.9163329403
20
28.0519473668
11
22.9346137237
21
28.1368640188
0
LINE
5
2CF
100
AcDbEntity
8
0
100
AcDbLine
62
6
6
CONTINUOUS
10
12.4112052174
20
-10.3730526332
11
13.3585102727
21
-8.4730526332
0
LINE
5
2D0
100
AcDbEntity
8
0
100
AcDbLine
62
6
6
CONTINUOUS
10
13.1192662174
20
-2.7230526332
11
12.7512052174
21
-3.0911136332
0
LINE
5
2D1
100
AcDbEntity
8
0
100
AcDbLine
62
7
6
CONTINUOUS
10
30.6512052174
20
16.1519473668
11
30.8012052174
21
16.1519473668
0
LINE
5
2D2
100
AcDbEntity
8
0
100
AcDbLine
62
7
6
CONTINUOUS
10
22.9163329403
20
-16.7480526332
11
22.9346137237
21
-16.8329692853
0
LINE
5
2D3
100
AcDbEntity
8
0
100
AcDbLine
62
6
6
CONTINUOUS
10
22.0012052174
20
-10.2480526332
11
22.0727211761
21
-11.0654837818
0
LINE
5
2D4
100
AcDbEntity
8
0
100
AcDbLine
62
6
6
CONTINUOUS
10
21.0012052174
20
20.6769473668
11
21.0012052174
21
19.8769473668
0
LINE
5
2D5
100
AcDbEntity
8
0
100
AcDbLine
62
6
6
CONTINUOUS
10
21.0012052174
20
-10.2480526332
11
21.0012052174
21
-9.4480526332
0
LINE
5
2D6
100
AcDbEntity
8
0
100
AcDbLine
62
6
6
CONTINUOUS
10
22.0012052174
20
20.6769473668
11
22.0727211761
21
21.4943785153
0
LINE
5
2D7
100
AcDbEntity
8
0
100
AcDbLine
62
7
6
CONTINUOUS
10
16.0860774945
20
-16.7480526332
11
16.0677967111
21
-16.8329692853
0
LINE
5
2D8
100
AcDbEntity
8
0
100
AcDbLine
62
9
6
CONTINUOUS
10
13.8208679191
20
-16.6324910580
11
13.8163186380
21
-16.6462502407
0
LINE
5
2D9
100
AcDbEntity
8
0
100
AcDbLine
62
9
6
CONTINUOUS
10
14.1232531850
20
-16.7344754800
11
14.1186812686
21
-16.7480526332
0
LINE
5
2DA
100
AcDbEntity
8
0
100
AcDbLine
62
6
6
CONTINUOUS
10
12.8762052174
20
-8.1980526332
11
12.7012052174
21
-8.3730526332
0
LINE
5
2DB
100
AcDbEntity
8
0
100
AcDbLine
62
6
6
CONTINUOUS
10
26.2512052174
20
19.3769473668
11
22.7512052174
21
19.3769473668
0
LINE
5
2DC
100
AcDbEntity
8
0
100
AcDbLine
62
6
6
CONTINUOUS
10
26.1262052174
20
19.5019473668
11
22.8762052174
21
19.5019473668
0
LINE
5
2DD
100
AcDbEntity
8
0
100
AcDbLine
62
7
6
CONTINUOUS
10
16.0860774945
20
28.0519473668
11
16.0677967111
21
28.1368640188
0
LINE
5
2DE
100
AcDbEntity
8
0
100
AcDbLine
62
7
6
CONTINUOUS
10
22.7313636784
20
-16.8480526332
11
22.7313636784
21
-16.7829627631
0
LINE
5
2DF
100
AcDbEntity
8
0
100
AcDbLine
62
7
6
CONTINUOUS
10
22.7313636784
20
28.0868574966
11
22.7313636784
21
28.1519473668
0
LINE
5
2E0
100
AcDbEntity
8
0
100
AcDbLine
62
6
6
CONTINUOUS
10
22.7512052174
20
19.3769473668
11
22.7512052174
21
14.3950083668
0
LINE
5
2E1
100
AcDbEntity
8
0
100
AcDbLine
62
6
6
CONTINUOUS
10
22.7512052174
20
-8.9480526332
11
22.7512052174
21
-3.9661136332
0
LINE
5
2E2
100
AcDbEntity
8
0
100
AcDbLine
62
7
6
CONTINUOUS
10
22.9710254771
20
-16.7480526332
11
22.9710254771
21
-16.8480526332
0
LINE
5
2E3
100
AcDbEntity
8
0
100
AcDbLine
62
7
6
CONTINUOUS
10
22.9710254771
20
28.0519473668
11
22.9710254771
21
28.1519473668
0
LINE
5
2E4
100
AcDbEntity
8
0
100
AcDbLine
62
6
6
CONTINUOUS
10
23.2512052174
20
14.0269473668
11
23.2512052174
21
13.1769473668
0
LINE
5
2E5
100
AcDbEntity
8
0
100
AcDbLine
62
6
6
CONTINUOUS
10
23.2512052174
20
-3.5980526332
11
23.2512052174
21
-2.7480526332
0
LINE
5
2E6
100
AcDbEntity
8
0
100
AcDbLine
62
6
6
CONTINUOUS
10
23.4110102807
20
21.6769473668
11
23.4110102807
21
19.7769473668
0
LINE
5
2E7
100
AcDbEntity
8
0
100
AcDbLine
62
6
6
CONTINUOUS
10
23.4110102807
20
-9.3480526332
11
23.4110102807
21
-11.2480526332
0
LINE
5
2E8
100
AcDbEntity
8
0
100
AcDbLine
62
6
6
CONTINUOUS
10
23.9814817332
20
21.6769473668
11
23.9814817332
21
19.7769473668
0
LINE
5
2E9
100
AcDbEntity
8
0
100
AcDbLine
62
6
6
CONTINUOUS
10
23.9814817332
20
-11.2480526332
11
23.9814817332
21
-9.3480526332
0
LINE
5
2EA
100
AcDbEntity
8
0
100
AcDbLine
62
6
6
CONTINUOUS
10
24.0012052174
20
21.6769473668
11
24.0012052174
21
20.6769473668
0
LINE
5
2EB
100
AcDbEntity
8
0
100
AcDbLine
62
6
6
CONTINUOUS
10
24.0012052174
20
-10.2480526332
11
24.0012052174
21
-11.2480526332
0
LINE
5
2EC
100
AcDbEntity
8
0
100
AcDbLine
62
6
6
CONTINUOUS
10
24.1512052174
20
20.6769473668
11
24.1512052174
21
19.7769473668
0
LINE
5
2ED
100
AcDbEntity
8
0
100
AcDbLine
62
6
6
CONTINUOUS
10
24.1512052174
20
-9.3480526332
11
24.1512052174
21
-10.2480526332
0
LINE
5
2EE
100
AcDbEntity
8
0
100
AcDbLine
62
6
6
CONTINUOUS
10
16.2512052174
20
-8.0730526332
11
16.1262052174
21
-8.1980526332
0
LINE
5
2EF
100
AcDbEntity
8
0
100
AcDbLine
62
9
6
CONTINUOUS
10
21.2012052170
20
19.6769473668
11
27.8012052178
21
19.6769473668
0
LINE
5
2F0
100
AcDbEntity
8
0
100
AcDbLine
62
6
6
CONTINUOUS
10
23.3562052174
20
19.7769473668
11
25.6462052174
21
19.7769473668
0
LINE
5
2F1
100
AcDbEntity
8
0
100
AcDbLine
62
9
6
CONTINUOUS
10
28.0012052174
20
19.8769473668
11
21.0012052174
21
19.8769473668
0
LINE
5
2F2
100
AcDbEntity
8
0
100
AcDbLine
62
6
6
CONTINUOUS
10
28.0012052174
20
20.6769473668
11
21.0012052174
21
20.6769473668
0
LINE
5
2F3
100
AcDbEntity
8
0
100
AcDbLine
62
9
6
CONTINUOUS
10
22.0727211761
20
21.4943785153
11
24.0012052174
21
21.4943785153
0
LINE
5
2F4
100
AcDbEntity
8
0
100
AcDbLine
62
9
6
CONTINUOUS
10
25.0012052174
20
21.4943785153
11
26.9296892587
21
21.4943785153
0
LINE
5
2F5
100
AcDbEntity
8
0
100
AcDbLine
62
9
6
CONTINUOUS
10
22.2719601157
20
21.6769473668
11
24.0013804408
21
21.6769473668
0
LINE
5
2F6
100
AcDbEntity
8
0
100
AcDbLine
62
9
6
CONTINUOUS
10
25.0010105605
20
21.6769473668
11
26.7304503191
21
21.6769473668
0
LINE
5
2F7
100
AcDbEntity
8
0
100
AcDbLine
62
6
6
CONTINUOUS
10
24.8512052174
20
20.6769473668
11
24.8512052174
21
19.7769473668
0
LINE
5
2F8
100
AcDbEntity
8
0
100
AcDbLine
62
6
6
CONTINUOUS
10
24.8512052174
20
-9.3480526332
11
24.8512052174
21
-10.2480526332
0
LINE
5
2F9
100
AcDbEntity
8
0
100
AcDbLine
62
9
6
CONTINUOUS
10
24.8884280385
20
-16.5588798096
11
24.8884280410
21
-16.7344754800
0
LINE
5
2FA
100
AcDbEntity
8
0
100
AcDbLine
62
9
6
CONTINUOUS
10
24.8884280392
20
27.9965583063
11
24.8884280385
21
28.0383702135
0
LINE
5
2FB
100
AcDbEntity
8
0
100
AcDbLine
62
6
6
CONTINUOUS
10
25.0012052174
20
21.6769473668
11
25.0012052174
21
20.6769473668
0
LINE
5
2FC
100
AcDbEntity
8
0
100
AcDbLine
62
6
6
CONTINUOUS
10
25.0012052174
20
-11.2480526332
11
25.0012052174
21
-10.2480526332
0
LINE
5
2FD
100
AcDbEntity
8
0
100
AcDbLine
62
6
6
CONTINUOUS
10
25.0209287016
20
21.6769473668
11
25.0209287016
21
19.7769473668
0
LINE
5
2FE
100
AcDbEntity
8
0
100
AcDbLine
62
6
6
CONTINUOUS
10
25.0209287016
20
-11.2480526332
11
25.0209287016
21
-9.3480526332
0
LINE
5
2FF
100
AcDbEntity
8
0
100
AcDbLine
62
6
6
CONTINUOUS
10
25.5914001541
20
21.6769473668
11
25.5914001541
21
19.7769473668
0
LINE
5
300
100
AcDbEntity
8
0
100
AcDbLine
62
6
6
CONTINUOUS
10
25.5914001541
20
-9.3480526332
11
25.5914001541
21
-11.2480526332
0
LINE
5
301
100
AcDbEntity
8
0
100
AcDbLine
62
6
6
CONTINUOUS
10
25.7512052174
20
14.0269473668
11
25.7512052174
21
13.1769473668
0
LINE
5
302
100
AcDbEntity
8
0
100
AcDbLine
62
6
6
CONTINUOUS
10
25.7512052174
20
-3.5980526332
11
25.7512052174
21
-2.7480526332
0
LINE
5
303
100
AcDbEntity
8
0
100
AcDbLine
62
6
6
CONTINUOUS
10
26.2512052174
20
19.3769473668
11
26.2512052174
21
14.3950083668
0
LINE
5
304
100
AcDbEntity
8
0
100
AcDbLine
62
6
6
CONTINUOUS
10
26.2512052174
20
-8.9480526332
11
26.2512052174
21
-3.9661136332
0
LINE
5
305
100
AcDbEntity
8
0
100
AcDbLine
62
6
6
CONTINUOUS
10
23.1192662174
20
-3.5980526332
11
22.7512052174
21
-3.9661136332
0
LINE
5
306
100
AcDbEntity
8
0
100
AcDbLine
62
6
6
CONTINUOUS
10
23.1192662174
20
14.0269473668
11
22.7512052174
21
14.3950083668
0
LINE
5
307
100
AcDbEntity
8
0
100
AcDbLine
62
6
6
CONTINUOUS
10
27.0012052174
20
20.6769473668
11
26.9296892587
21
21.4943785153
0
LINE
5
308
100
AcDbEntity
8
0
100
AcDbLine
62
6
6
CONTINUOUS
10
28.0012052174
20
20.6769473668
11
28.0012052174
21
19.8769473668
0
LINE
5
309
100
AcDbEntity
8
0
100
AcDbLine
62
6
6
CONTINUOUS
10
28.0012052174
20
-10.2480526332
11
28.0012052174
21
-9.4480526332
0
LINE
5
30A
100
AcDbEntity
8
0
100
AcDbLine
62
6
6
CONTINUOUS
10
27.0012052174
20
-10.2480526332
11
26.9296892587
21
-11.0654837818
0
LINE
5
30B
100
AcDbEntity
8
0
100
AcDbLine
62
9
6
CONTINUOUS
10
30.1515858171
20
27.9965583063
11
30.0448069768
21
27.1440185725
0
LINE
5
30C
100
AcDbEntity
8
0
100
AcDbLine
62
9
6
CONTINUOUS
10
30.6512052174
20
27.4982329760
11
30.5447308244
21
26.6481239994
0
LINE
5
30D
100
AcDbEntity
8
0
100
AcDbLine
62
7
6
CONTINUOUS
10
22.8860774945
20
-16.7480526332
11
22.8692656509
21
-16.8261458660
0
LINE
5
30E
100
AcDbEntity
8
0
100
AcDbLine
62
6
6
CONTINUOUS
10
23.3585102727
20
-9.3480526332
11
22.4112052174
21
-11.2480526332
0
LINE
5
30F
100
AcDbEntity
8
0
100
AcDbLine
62
9
6
CONTINUOUS
10
-13.5341333811
20
26.1082569195
11
30.0365438159
21
26.1082569195
0
LINE
5
310
100
AcDbEntity
8
0
100
AcDbLine
62
6
6
CONTINUOUS
10
22.8762052174
20
19.5019473668
11
22.7012052174
21
19.6769473668
0
LINE
5
311
100
AcDbEntity
8
0
100
AcDbLine
62
6
6
CONTINUOUS
10
23.3585102727
20
19.7769473668
11
22.4112052174
21
21.6769473668
0
LINE
5
312
100
AcDbEntity
8
0
100
AcDbLine
62
7
6
CONTINUOUS
10
22.8860774945
20
28.0519473668
11
22.8692656509
21
28.1300405995
0
LINE
5
313
100
AcDbEntity
8
0
100
AcDbLine
62
9
6
CONTINUOUS
10
30.7742792325
20
-10.3060839908
11
30.7626641133
21
-4.8865937373
0
LINE
5
314
100
AcDbEntity
8
0
100
AcDbLine
62
9
6
CONTINUOUS
10
30.0365438159
20
26.1082569195
11
30.0365438159
21
-15.4779275650
0
LINE
5
315
100
AcDbEntity
8
0
100
AcDbLine
62
7
6
CONTINUOUS
10
30.6512052174
20
27.4982329760
11
30.6512052174
21
-15.6365414889
0
LINE
5
316
100
AcDbEntity
8
0
100
AcDbLine
62
7
6
CONTINUOUS
10
30.8012052174
20
-10.3153533635
11
30.8012052174
21
-4.8480526332
0
LINE
5
317
100
AcDbEntity
8
0
100
AcDbLine
62
7
6
CONTINUOUS
10
30.8012052174
20
16.1519473668
11
30.8012052174
21
21.6192480970
0
LINE
5
318
100
AcDbEntity
8
0
100
AcDbLine
62
9
6
CONTINUOUS
10
30.7626641133
20
16.1904884708
11
30.7742792325
21
21.6099787243
0
LINE
5
319
100
AcDbEntity
8
0
100
AcDbLine
62
6
6
CONTINUOUS
10
22.8762052174
20
-9.0730526332
11
22.7012052174
21
-9.2480526332
0
LINE
5
31A
100
AcDbEntity
8
0
100
AcDbLine
62
9
6
CONTINUOUS
10
-13.5423965420
20
27.1440185725
11
30.0448069768
21
27.1440185725
0
LINE
5
31B
100
AcDbEntity
8
0
100
AcDbLine
62
7
6
CONTINUOUS
10
30.1515858171
20
27.9965583063
11
-13.6491753823
21
27.9965583063
0
LINE
5
31C
100
AcDbEntity
8
0
100
AcDbLine
62
9
6
CONTINUOUS
10
0.2127114222
20
28.0106402788
11
2.4149988370
21
28.0106402788
0
LINE
5
31D
100
AcDbEntity
8
0
100
AcDbLine
62
9
6
CONTINUOUS
10
-6.2103009874
20
28.0106402788
11
-8.4125884023
21
28.0106402788
0
LINE
5
31E
100
AcDbEntity
8
0
100
AcDbLine
62
9
6
CONTINUOUS
10
24.8884280385
20
28.0383702135
11
14.1232531850
21
28.0383702135
0
LINE
5
31F
100
AcDbEntity
8
0
100
AcDbLine
62
7
6
CONTINUOUS
10
24.8929800595
20
28.0519473668
11
22.8012052174
21
28.0519473668
0
LINE
5
320
100
AcDbEntity
8
0
100
AcDbLine
62
7
6
CONTINUOUS
10
16.2012052174
20
28.0519473668
11
14.1186812686
21
28.0519473668
0
LINE
5
321
100
AcDbEntity
8
0
100
AcDbLine
62
7
6
CONTINUOUS
10
2.3834305472
20
28.0519473668
11
0.1989535810
21
28.0519473668
0
LINE
5
322
100
AcDbEntity
8
0
100
AcDbLine
62
7
6
CONTINUOUS
10
-6.1965431462
20
28.0519473668
11
-8.3810201121
21
28.0519473668
0
LINE
5
323
100
AcDbEntity
8
0
100
AcDbLine
62
7
6
CONTINUOUS
10
16.9012052174
20
28.0519473668
11
17.5012052174
21
28.0519473668
0
LINE
5
324
100
AcDbEntity
8
0
100
AcDbLine
62
7
6
CONTINUOUS
10
21.5012052174
20
28.0519473668
11
22.1012052174
21
28.0519473668
0
LINE
5
325
100
AcDbEntity
8
0
100
AcDbLine
62
7
6
CONTINUOUS
10
22.7313636784
20
28.0868574966
11
22.0478895885
21
28.0868574966
0
LINE
5
326
100
AcDbEntity
8
0
100
AcDbLine
62
7
6
CONTINUOUS
10
21.5545208463
20
28.0868574966
11
17.4478895885
21
28.0868574966
0
LINE
5
327
100
AcDbEntity
8
0
100
AcDbLine
62
7
6
CONTINUOUS
10
16.9545208463
20
28.0868574966
11
16.2710467564
21
28.0868574966
0
LINE
5
328
100
AcDbEntity
8
0
100
AcDbLine
62
7
6
CONTINUOUS
10
16.0313849577
20
28.1519473668
11
22.9710254771
21
28.1519473668
0
LINE
5
329
100
AcDbEntity
8
0
100
AcDbLine
62
6
6
CONTINUOUS
10
26.2512052174
20
19.3769473668
11
26.1262052174
21
19.5019473668
0
LINE
5
32A
100
AcDbEntity
8
0
100
AcDbLine
62
6
6
CONTINUOUS
10
26.2512052174
20
-8.9480526332
11
26.1262052174
21
-9.0730526332
0
LINE
5
32B
100
AcDbEntity
8
0
100
AcDbLine
62
7
6
CONTINUOUS
10
30.8012052174
20
-4.8480526332
11
30.7626641133
21
-4.8865937373
0
LINE
5
32C
100
AcDbEntity
8
0
100
AcDbLine
62
7
6
CONTINUOUS
10
0.7898221751
20
29.1519473668
11
0.1989535810
21
29.1519473668
0
LINE
5
32D
100
AcDbEntity
8
0
100
AcDbLine
62
7
6
CONTINUOUS
10
-6.1965431462
20
29.1519473668
11
-6.7874117403
21
29.1519473668
0
LINE
5
32E
100
AcDbEntity
8
0
100
AcDbLine
62
7
6
CONTINUOUS
10
15.8263474508
20
29.1519473668
11
23.1760629840
21
29.1519473668
0
LINE
5
32F
100
AcDbEntity
8
0
100
AcDbLine
62
7
6
CONTINUOUS
10
30.8012052174
20
16.1519473668
11
30.7626641133
21
16.1904884708
0
LINE
5
330
100
AcDbEntity
8
0
100
AcDbLine
62
7
6
CONTINUOUS
10
22.7313636784
20
-16.7829627631
11
22.8012052174
21
-16.7480526332
0
LINE
5
331
100
AcDbEntity
8
0
100
AcDbLine
62
7
6
CONTINUOUS
10
22.8012052174
20
28.0519473668
11
22.7313636784
21
28.0868574966
0
LINE
5
332
100
AcDbEntity
8
0
100
AcDbLine
62
9
6
CONTINUOUS
10
30.5447308244
20
-15.8497175640
11
30.6512052174
21
-15.6365414889
0
LINE
5
333
100
AcDbEntity
8
0
100
AcDbLine
62
7
6
CONTINUOUS
10
-45.5590312750
20
-17.7782323735
11
-49.5590312750
21
-17.8480526332
0
LINE
5
334
100
AcDbEntity
8
0
100
AcDbLine
62
9
6
CONTINUOUS
10
-45.5590312750
20
-17.6111599950
11
-49.5590312750
21
-17.6814122907
0
LINE
5
335
100
AcDbEntity
8
0
100
AcDbLine
62
7
6
CONTINUOUS
10
-43.4095357911
20
-16.5480526332
11
-43.9590312750
21
-16.5480526332
0
LINE
5
336
100
AcDbEntity
8
0
100
AcDbLine
62
7
6
CONTINUOUS
10
-50.3368658638
20
-16.7344754800
11
-49.5590312750
21
-16.7480526332
0
LINE
5
337
100
AcDbEntity
8
0
100
AcDbLine
62
9
6
CONTINUOUS
10
-49.5590312750
20
-16.6470450463
11
-50.3443268760
21
-16.6332871878
0
LINE
5
338
100
AcDbEntity
8
0
100
AcDbLine
62
7
6
CONTINUOUS
10
-50.5841337030
20
-16.1333451189
11
-51.1938935721
21
-16.0799980429
0
LINE
5
339
100
AcDbEntity
8
0
100
AcDbLine
62
7
6
CONTINUOUS
10
-55.4017079430
20
27.9965583063
11
-51.5407085392
21
-16.1348668192
0
LINE
5
33A
100
AcDbEntity
8
0
100
AcDbLine
62
9
6
CONTINUOUS
10
-53.4900819521
20
6.1465732472
11
-51.5659496460
21
21.8173733212
0
LINE
5
33B
100
AcDbEntity
8
0
100
AcDbLine
62
7
6
CONTINUOUS
10
-53.2440676012
20
5.7738167102
11
-50.5318846129
21
27.8627745432
0
LINE
5
33C
100
AcDbEntity
8
0
100
AcDbLine
62
9
6
CONTINUOUS
10
-53.0490488521
20
5.7494428415
11
-51.1016199181
21
21.6099787243
0
LINE
5
33D
100
AcDbEntity
8
CURVE
100
AcDbLine
62
2
6
CONTINUOUS
10
-47.8584827645
20
21.3092064048
11
-47.6568644601
21
21.5108247091
0
LINE
5
33E
100
AcDbEntity
8
CURVE
100
AcDbLine
62
2
6
CONTINUOUS
10
-47.8584827645
20
20.8891849768
11
-47.6568644601
21
21.0908032811
0
LINE
5
33F
100
AcDbEntity
8
CURVE
100
AcDbLine
62
2
6
CONTINUOUS
10
-47.8584827645
20
20.4691635488
11
-47.6568644601
21
20.6707818531
0
LINE
5
340
100
AcDbEntity
8
CURVE
100
AcDbLine
62
2
6
CONTINUOUS
10
-47.0847603894
20
21.2428859238
11
-46.8831420851
21
21.4445042281
0
LINE
5
341
100
AcDbEntity
8
CURVE
100
AcDbLine
62
2
6
CONTINUOUS
10
-47.6120923302
20
20.2955325550
11
-47.3725973161
21
20.5350275691
0
LINE
5
342
100
AcDbEntity
8
CURVE
100
AcDbLine
62
2
6
CONTINUOUS
10
-47.0847603894
20
20.8228644958
11
-46.8831420851
21
21.0244828001
0
LINE
5
343
100
AcDbEntity
8
CURVE
100
AcDbLine
62
2
6
CONTINUOUS
10
-47.7748124190
20
19.7127910381
11
-47.5919379415
21
19.8956655157
0
LINE
5
344
100
AcDbEntity
8
CURVE
100
AcDbLine
62
2
6
CONTINUOUS
10
-47.1920709022
20
20.2955325550
11
-46.8831420851
21
20.6044613721
0
LINE
5
345
100
AcDbEntity
8
CURVE
100
AcDbLine
62
2
6
CONTINUOUS
10
-46.2606495793
20
21.2269538779
11
-46.0590312750
21
21.4285721822
0
LINE
5
346
100
AcDbEntity
8
CURVE
100
AcDbLine
62
2
6
CONTINUOUS
10
-47.4604527060
20
19.6071293231
11
-47.2821564304
21
19.7854255988
0
LINE
5
347
100
AcDbEntity
8
CURVE
100
AcDbLine
62
2
6
CONTINUOUS
10
-46.7720494742
20
20.2955325550
11
-46.5325544601
21
20.5350275691
0
LINE
5
348
100
AcDbEntity
8
CURVE
100
AcDbLine
62
2
6
CONTINUOUS
10
-46.2606495793
20
20.8069324498
11
-46.0590312750
21
21.0085507542
0
LINE
5
349
100
AcDbEntity
8
CURVE
100
AcDbLine
62
2
6
CONTINUOUS
10
-47.1460929930
20
19.5014676081
11
-46.9723749193
21
19.6751856819
0
LINE
5
34A
100
AcDbEntity
8
CURVE
100
AcDbLine
62
2
6
CONTINUOUS
10
-46.3520280461
20
20.2955325550
11
-46.0590312750
21
20.5885293261
0
LINE
5
34B
100
AcDbEntity
8
CURVE
100
AcDbLine
62
2
6
CONTINUOUS
10
-47.7447773701
20
18.4827618030
11
-47.3614151067
21
18.8661240664
0
LINE
5
34C
100
AcDbEntity
8
CURVE
100
AcDbLine
62
2
6
CONTINUOUS
10
-46.8317332800
20
19.3958058931
11
-46.6625934082
21
19.5649457649
0
LINE
5
34D
100
AcDbEntity
8
0
100
AcDbLine
62
7
6
CONTINUOUS
10
-57.6627276917
20
-16.3486524388
11
-51.5407085392
21
-16.1348668192
0
LINE
5
34E
100
AcDbEntity
8
0
100
AcDbLine
62
9
6
CONTINUOUS
10
-57.6888704374
20
-15.8497175640
11
-51.5843063564
21
-15.6365414889
0
LINE
5
34F
100
AcDbEntity
8
0
100
AcDbLine
62
7
6
CONTINUOUS
10
-41.5881764771
20
-15.4787411049
11
-45.3625217563
21
-15.5446225468
0
LINE
5
350
100
AcDbEntity
8
0
100
AcDbLine
62
7
6
CONTINUOUS
10
-28.6555407937
20
-13.5559859925
11
-39.3762559915
21
-13.7431167723
0
LINE
5
351
100
AcDbEntity
8
0
100
AcDbLine
62
9
6
CONTINUOUS
10
-51.4716026334
20
-11.2818733427
11
-53.1890045585
21
2.7052428913
0
LINE
5
352
100
AcDbEntity
8
0
100
AcDbLine
62
7
6
CONTINUOUS
10
-50.5318846129
20
-16.5588798096
11
-53.2440676012
21
5.5300780233
0
LINE
5
353
100
AcDbEntity
8
0
100
AcDbLine
62
9
6
CONTINUOUS
10
-51.1016199181
20
-10.3060839908
11
-53.0490488521
21
5.5544518920
0
LINE
5
354
100
AcDbEntity
8
0
100
AcDbLine
62
7
6
CONTINUOUS
10
-51.5590312750
20
-15.6815201636
11
-51.5590312750
21
-15.4145851029
0
LINE
5
355
100
AcDbEntity
8
0
100
AcDbLine
62
7
6
CONTINUOUS
10
-51.5590312750
20
26.7184798364
11
-51.5590312750
21
26.9854148971
0
LINE
5
356
100
AcDbEntity
8
0
100
AcDbLine
62
9
6
CONTINUOUS
10
-51.1938935721
20
-16.0799980429
11
-51.1938935721
21
-15.0161072236
0
LINE
5
357
100
AcDbEntity
8
0
100
AcDbLine
62
9
6
CONTINUOUS
10
-51.1938935721
20
26.3200019571
11
-51.1938935721
21
27.3838927764
0
LINE
5
358
100
AcDbEntity
8
CURVE
100
AcDbLine
62
9
6
CONTINUOUS
10
-44.4325729014
20
20.1948045607
11
-44.2183524237
21
20.4090901728
0
LINE
5
359
100
AcDbEntity
8
CURVE
100
AcDbLine
62
9
6
CONTINUOUS
10
-44.8610137673
20
19.2305189486
11
-45.0752342003
21
19.0162329789
0
LINE
5
35A
100
AcDbEntity
8
CURVE
100
AcDbLine
62
9
6
CONTINUOUS
10
-44.8610137673
20
18.0519473668
11
-45.0752342003
21
17.8376615758
0
LINE
5
35B
100
AcDbEntity
8
CURVE
100
AcDbLine
62
9
6
CONTINUOUS
10
-43.7899115354
20
18.6948045607
11
-43.5756910800
21
18.9090901728
0
LINE
5
35C
100
AcDbEntity
8
CURVE
100
AcDbLine
62
2
6
CONTINUOUS
10
-47.8584827645
20
17.9490349806
11
-47.6568644601
21
18.1506532849
0
LINE
5
35D
100
AcDbEntity
8
CURVE
100
AcDbLine
62
2
6
CONTINUOUS
10
-47.0955496178
20
18.7119681273
11
-46.7348173275
21
19.0727004176
0
LINE
5
35E
100
AcDbEntity
8
CURVE
100
AcDbLine
62
2
6
CONTINUOUS
10
-46.5173735670
20
19.2901441781
11
-46.3528118971
21
19.4547058480
0
LINE
5
35F
100
AcDbEntity
8
CURVE
100
AcDbLine
62
2
6
CONTINUOUS
10
-47.8584827645
20
17.5290135526
11
-47.6568644601
21
17.7306318569
0
LINE
5
360
100
AcDbEntity
8
CURVE
100
AcDbLine
62
2
6
CONTINUOUS
10
-46.4463218655
20
18.9411744516
11
-46.0590312750
21
19.3284650421
0
LINE
5
361
100
AcDbEntity
8
CURVE
100
AcDbLine
62
2
6
CONTINUOUS
10
-47.8584827645
20
17.1089921246
11
-47.6568644601
21
17.3106104289
0
LINE
5
362
100
AcDbEntity
8
CURVE
100
AcDbLine
62
2
6
CONTINUOUS
10
-47.0847603894
20
17.8827144996
11
-46.8831420851
21
18.0843328039
0
LINE
5
363
100
AcDbEntity
8
CURVE
100
AcDbLine
62
2
6
CONTINUOUS
10
-47.5594117823
20
16.9880416787
11
-47.3199178270
21
17.2275356340
0
LINE
5
364
100
AcDbEntity
8
CURVE
100
AcDbLine
62
2
6
CONTINUOUS
10
-47.0847603894
20
17.4626930716
11
-46.8831420851
21
17.6643113759
0
LINE
5
365
100
AcDbEntity
8
CURVE
100
AcDbLine
62
2
6
CONTINUOUS
10
-47.8584827645
20
16.2689492685
11
-47.6410132256
21
16.4864188074
0
LINE
5
366
100
AcDbEntity
8
CURVE
100
AcDbLine
62
2
6
CONTINUOUS
10
-47.1393903543
20
16.9880416787
11
-46.8831420851
21
17.2442899479
0
LINE
5
367
100
AcDbEntity
8
CURVE
100
AcDbLine
62
2
6
CONTINUOUS
10
-46.2606495793
20
17.8667824537
11
-46.0590312750
21
18.0684007580
0
LINE
5
368
100
AcDbEntity
8
CURVE
100
AcDbLine
62
2
6
CONTINUOUS
10
-47.4493100886
20
16.2581005164
11
-47.2209917976
21
16.4864188074
0
LINE
5
369
100
AcDbEntity
8
CURVE
100
AcDbLine
62
2
6
CONTINUOUS
10
-46.7193689263
20
16.9880416787
11
-46.4798749709
21
17.2275356340
0
LINE
5
36A
100
AcDbEntity
8
CURVE
100
AcDbLine
62
2
6
CONTINUOUS
10
-46.2606495793
20
17.4467610256
11
-46.0590312750
21
17.6483793300
0
LINE
5
36B
100
AcDbEntity
8
CURVE
100
AcDbLine
62
2
6
CONTINUOUS
10
-47.0307339722
20
16.2566552048
11
-46.8009703696
21
16.4864188074
0
LINE
5
36C
100
AcDbEntity
8
CURVE
100
AcDbLine
62
2
6
CONTINUOUS
10
-46.2993474982
20
16.9880416787
11
-46.0590312750
21
17.2283579019
0
LINE
5
36D
100
AcDbEntity
8
CURVE
100
AcDbLine
62
2
6
CONTINUOUS
10
-47.8154203822
20
15.0519473668
11
-47.0089286971
21
15.8584390519
0
LINE
5
36E
100
AcDbEntity
8
CURVE
100
AcDbLine
62
2
6
CONTINUOUS
10
-46.6121578558
20
16.2552098931
11
-46.3809489415
21
16.4864188074
0
LINE
5
36F
100
AcDbEntity
8
CURVE
100
AcDbLine
62
2
6
CONTINUOUS
10
-47.3953989541
20
15.0519473668
11
-47.1646388457
21
15.2827074751
0
LINE
5
370
100
AcDbEntity
8
CURVE
100
AcDbLine
62
2
6
CONTINUOUS
10
-46.5294136494
20
15.9179326715
11
-46.0590312750
21
16.3883150459
0
LINE
5
371
100
AcDbEntity
8
CURVE
100
AcDbLine
62
9
6
CONTINUOUS
10
-44.6467933343
20
19.3376617546
11
-44.8610137673
21
19.2305189486
0
LINE
5
372
100
AcDbEntity
8
CURVE
100
AcDbLine
62
9
6
CONTINUOUS
10
-46.0590312750
20
19.0779052866
11
-47.8584827645
21
18.4426187324
0
LINE
5
373
100
AcDbEntity
8
CURVE
100
AcDbLine
62
9
6
CONTINUOUS
10
-47.8584827645
20
18.7022511220
11
-46.2984522837
21
19.2165609634
0
LINE
5
374
100
AcDbEntity
8
0
100
AcDbLine
62
9
6
CONTINUOUS
10
-58.2021641815
20
-15.4143551271
11
-58.6893022274
21
-15.4779258883
0
LINE
5
375
100
AcDbEntity
8
0
100
AcDbLine
62
7
6
CONTINUOUS
10
-50.7263358922
20
-14.9752012271
11
-51.1938935721
21
-15.0161072236
0
LINE
5
376
100
AcDbEntity
8
0
100
AcDbLine
62
6
6
CONTINUOUS
10
-36.3322819898
20
-11.2480526332
11
-36.3315203811
21
-11.2480526332
0
LINE
5
377
100
AcDbEntity
8
0
100
AcDbLine
62
9
6
CONTINUOUS
10
-31.9865827771
20
-11.2480526332
11
-36.3315203811
21
-11.2480526332
0
LINE
5
378
100
AcDbEntity
8
0
100
AcDbLine
62
9
6
CONTINUOUS
10
-31.7825770384
20
-11.0654837818
11
-36.5354855116
21
-11.0654837818
0
LINE
5
379
100
AcDbEntity
8
0
100
AcDbLine
62
9
6
CONTINUOUS
10
-50.9654688078
20
-11.5380617400
11
-49.5590312750
21
-11.5459991987
0
LINE
5
37A
100
AcDbEntity
8
0
100
AcDbLine
62
7
6
CONTINUOUS
10
-51.1447410921
20
-12.3447061091
11
-51.8745342776
21
-12.3192211695
0
LINE
5
37B
100
AcDbEntity
8
0
100
AcDbLine
62
7
6
CONTINUOUS
10
-51.8791000593
20
-12.2670340460
11
-51.3113930045
21
-12.2868588132
0
LINE
5
37C
100
AcDbEntity
8
0
100
AcDbLine
62
9
6
CONTINUOUS
10
-51.9668033758
20
-11.2645805517
11
-51.4716026334
21
-11.2818733427
0
LINE
5
37D
100
AcDbEntity
8
0
100
AcDbLine
62
7
6
CONTINUOUS
10
-49.5590312750
20
-17.8480526332
11
-49.5590312750
21
-17.0547698105
0
LINE
5
37E
100
AcDbEntity
8
0
100
AcDbLine
62
7
6
CONTINUOUS
10
-49.5590312750
20
-17.0112192552
11
-49.5590312750
21
29.1519473668
0
LINE
5
37F
100
AcDbEntity
8
CURVE
100
AcDbLine
62
9
6
CONTINUOUS
10
-48.8240920010
20
0.1662330906
11
-48.8240920010
21
0.4876616652
0
LINE
5
380
100
AcDbEntity
8
CURVE
100
AcDbLine
62
9
6
CONTINUOUS
10
-48.0743204408
20
-1.0480526332
11
-48.0743204408
21
-3.0480526332
0
LINE
5
381
100
AcDbEntity
8
CURVE
100
AcDbLine
62
9
6
CONTINUOUS
10
-47.8584827645
20
15.0519473668
11
-47.8584827645
21
15.3065739987
0
LINE
5
382
100
AcDbEntity
8
CURVE
100
AcDbLine
62
9
6
CONTINUOUS
10
-47.8584827645
20
16.2595133586
11
-47.8584827645
21
16.4864188074
0
LINE
5
383
100
AcDbEntity
8
CURVE
100
AcDbLine
62
9
6
CONTINUOUS
10
-47.8584827645
20
16.9880416787
11
-47.8584827645
21
18.2308946626
0
LINE
5
384
100
AcDbEntity
8
CURVE
100
AcDbLine
62
9
6
CONTINUOUS
10
-47.8584827645
20
18.4426187324
11
-47.8584827645
21
18.7022511220
0
LINE
5
385
100
AcDbEntity
8
CURVE
100
AcDbLine
62
9
6
CONTINUOUS
10
-47.8584827645
20
19.7409140826
11
-47.8584827645
21
19.9905190756
0
LINE
5
386
100
AcDbEntity
8
CURVE
100
AcDbLine
62
9
6
CONTINUOUS
10
-47.8584827645
20
20.2955325550
11
-47.8584827645
21
21.5383696577
0
LINE
5
387
100
AcDbEntity
8
CURVE
100
AcDbLine
62
9
6
CONTINUOUS
10
-47.6568644601
20
21.5383696577
11
-47.6568644601
21
20.5350275691
0
LINE
5
388
100
AcDbEntity
8
CURVE
100
AcDbLine
62
9
6
CONTINUOUS
10
-47.6568644601
20
18.2308946626
11
-47.6568644601
21
17.2275356340
0
LINE
5
389
100
AcDbEntity
8
CURVE
100
AcDbLine
62
9
6
CONTINUOUS
10
-47.3245488807
20
-0.0480526332
11
-47.3245488807
21
0.7019473668
0
LINE
5
38A
100
AcDbEntity
8
CURVE
100
AcDbLine
62
9
6
CONTINUOUS
10
-47.0847603894
20
17.2275356340
11
-47.0847603894
21
18.1628309686
0
LINE
5
38B
100
AcDbEntity
8
CURVE
100
AcDbLine
62
9
6
CONTINUOUS
10
-47.0847603894
20
20.5350275691
11
-47.0847603894
21
21.4703557248
0
LINE
5
38C
100
AcDbEntity
8
CURVE
100
AcDbLine
62
9
6
CONTINUOUS
10
-47.0283331315
20
4.0722043668
11
-47.0283331315
21
3.6316903668
0
LINE
5
38D
100
AcDbEntity
8
CURVE
100
AcDbLine
62
9
6
CONTINUOUS
10
-46.8831420851
20
21.4703557248
11
-46.8831420851
21
20.5350275691
0
LINE
5
38E
100
AcDbEntity
8
CURVE
100
AcDbLine
62
9
6
CONTINUOUS
10
-46.8831420851
20
18.1628309686
11
-46.8831420851
21
17.2275356340
0
LINE
5
38F
100
AcDbEntity
8
CURVE
100
AcDbLine
62
9
6
CONTINUOUS
10
-45.0752342003
20
16.7662331577
11
-44.8610137673
21
16.9805187698
0
LINE
5
390
100
AcDbEntity
8
CURVE
100
AcDbLine
62
9
6
CONTINUOUS
10
-43.7899115354
20
17.5162331577
11
-43.5756910800
21
17.7305187698
0
LINE
5
391
100
AcDbEntity
8
CURVE
100
AcDbLine
62
9
6
CONTINUOUS
10
-44.2183524237
20
16.4448044713
11
-44.4325729014
21
16.2305187698
0
LINE
5
392
100
AcDbEntity
8
CURVE
100
AcDbLine
62
9
6
CONTINUOUS
10
-44.8610137673
20
15.6948045160
11
-45.0752342003
21
15.4805188145
0
LINE
5
393
100
AcDbEntity
8
CURVE
100
AcDbLine
62
9
6
CONTINUOUS
10
-43.7899115354
20
15.1590902287
11
-43.5756910800
21
15.3733759414
0
LINE
5
394
100
AcDbEntity
8
CURVE
100
AcDbLine
62
2
6
CONTINUOUS
10
-46.9753775261
20
15.0519473668
11
-46.7460827103
21
15.2812421825
0
LINE
5
395
100
AcDbEntity
8
CURVE
100
AcDbLine
62
2
6
CONTINUOUS
10
-46.5553560981
20
15.0519473668
11
-46.3275265749
21
15.2797768899
0
LINE
5
396
100
AcDbEntity
8
CURVE
100
AcDbLine
62
2
6
CONTINUOUS
10
-46.1353346701
20
15.0519473668
11
-46.0590312750
21
15.1282507618
0
LINE
5
397
100
AcDbEntity
8
CURVE
100
AcDbLine
62
9
6
CONTINUOUS
10
-46.0590312750
20
16.2242263666
11
-47.5031240070
21
15.2838924531
0
LINE
5
398
100
AcDbEntity
8
CURVE
100
AcDbLine
62
9
6
CONTINUOUS
10
-47.8584827645
20
15.3065739987
11
-46.3992619651
21
16.2544747798
0
LINE
5
399
100
AcDbEntity
8
CURVE
100
AcDbLine
62
9
6
CONTINUOUS
10
-44.0041319907
20
18.5876617546
11
-43.7899115354
21
18.6948045607
0
LINE
5
39A
100
AcDbEntity
8
CURVE
100
AcDbLine
62
9
6
CONTINUOUS
10
-44.6467933343
20
18.1590901728
11
-44.8610137673
21
18.0519473668
0
LINE
5
39B
100
AcDbEntity
8
CURVE
100
AcDbLine
62
9
6
CONTINUOUS
10
-44.0041319907
20
17.4090901728
11
-43.7899115354
21
17.5162331577
0
LINE
5
39C
100
AcDbEntity
8
CURVE
100
AcDbLine
62
9
6
CONTINUOUS
10
-44.6467933343
20
15.8019473668
11
-44.8610137673
21
15.6948045160
0
LINE
5
39D
100
AcDbEntity
8
0
100
AcDbLine
62
7
6
CONTINUOUS
10
-28.2694983148
20
-10.2881196317
11
-26.7433302151
21
-10.2081365508
0
LINE
5
39E
100
AcDbEntity
8
0
100
AcDbLine
62
6
6
CONTINUOUS
10
-31.7857805602
20
-10.3730526332
11
-31.7865421689
21
-10.3730526332
0
LINE
5
39F
100
AcDbEntity
8
0
100
AcDbLine
62
9
6
CONTINUOUS
10
-31.7865421689
20
-10.3730526332
11
-36.1314797729
21
-10.3730526332
0
LINE
5
3A0
100
AcDbEntity
8
0
100
AcDbLine
62
9
6
CONTINUOUS
10
-28.4590312750
20
-10.3422538675
11
-28.9503050718
21
-10.3422538659
0
LINE
5
3A1
100
AcDbEntity
8
0
100
AcDbLine
62
6
6
CONTINUOUS
10
-37.6590312750
20
-10.2480526332
11
-30.6590312750
21
-10.2480526332
0
LINE
5
3A2
100
AcDbEntity
8
0
100
AcDbLine
62
9
6
CONTINUOUS
10
-31.5825770384
20
-10.1904837818
11
-36.3354855116
21
-10.1904837818
0
LINE
5
3A3
100
AcDbEntity
8
CURVE
100
AcDbLine
62
9
6
CONTINUOUS
10
-44.8253103469
20
-9.5480526332
11
-46.3248534672
21
-9.5480526332
0
LINE
5
3A4
100
AcDbEntity
8
0
100
AcDbLine
62
9
6
CONTINUOUS
10
-37.6590312750
20
-9.4480526332
11
-30.6590312750
21
-9.4480526332
0
LINE
5
3A5
100
AcDbEntity
8
0
100
AcDbLine
62
6
6
CONTINUOUS
10
-37.4590312750
20
-9.3730526332
11
-30.4590312750
21
-9.3730526332
0
LINE
5
3A6
100
AcDbEntity
8
0
100
AcDbLine
62
6
6
CONTINUOUS
10
-33.0140312750
20
-9.3480526332
11
-35.3040312750
21
-9.3480526332
0
LINE
5
3A7
100
AcDbEntity
8
0
100
AcDbLine
62
9
6
CONTINUOUS
10
-30.8590312746
20
-9.2480526332
11
-37.4590312754
21
-9.2480526332
0
LINE
5
3A8
100
AcDbEntity
8
0
100
AcDbLine
62
6
6
CONTINUOUS
10
-32.5340312750
20
-9.0730526332
11
-35.7840312750
21
-9.0730526332
0
LINE
5
3A9
100
AcDbEntity
8
0
100
AcDbLine
62
6
6
CONTINUOUS
10
-32.4090312750
20
-8.9480526332
11
-35.9090312750
21
-8.9480526332
0
LINE
5
3AA
100
AcDbEntity
8
0
100
AcDbLine
62
9
6
CONTINUOUS
10
-37.4590312750
20
-8.5730526332
11
-30.4590312750
21
-8.5730526332
0
LINE
5
3AB
100
AcDbEntity
8
0
100
AcDbLine
62
6
6
CONTINUOUS
10
-32.8140312750
20
-8.4730526332
11
-35.1040312750
21
-8.4730526332
0
LINE
5
3AC
100
AcDbEntity
8
0
100
AcDbLine
62
9
6
CONTINUOUS
10
-30.6590312746
20
-8.3730526332
11
-37.2590312754
21
-8.3730526332
0
LINE
5
3AD
100
AcDbEntity
8
0
100
AcDbLine
62
6
6
CONTINUOUS
10
-32.3340312750
20
-8.1980526332
11
-35.5840312750
21
-8.1980526332
0
LINE
5
3AE
100
AcDbEntity
8
0
100
AcDbLine
62
6
6
CONTINUOUS
10
-32.2090312750
20
-8.0730526332
11
-35.7090312750
21
-8.0730526332
0
LINE
5
3AF
100
AcDbEntity
8
0
100
AcDbLine
62
9
6
CONTINUOUS
10
-51.1016199181
20
-10.3060839908
11
-49.5590312750
21
-10.3153533635
0
LINE
5
3B0
100
AcDbEntity
8
CURVE
100
AcDbLine
62
9
6
CONTINUOUS
10
-47.0746250273
20
-2.8312922525
11
-45.5750819071
21
-6.0480526332
0
LINE
5
3B1
100
AcDbEntity
8
CURVE
100
AcDbLine
62
9
6
CONTINUOUS
10
-46.2606495793
20
17.2275356340
11
-46.2606495793
21
18.2384604715
0
LINE
5
3B2
100
AcDbEntity
8
CURVE
100
AcDbLine
62
9
6
CONTINUOUS
10
-46.2606495793
20
20.5350275691
11
-46.2606495793
21
21.5459852277
0
LINE
5
3B3
100
AcDbEntity
8
CURVE
100
AcDbLine
62
9
6
CONTINUOUS
10
-46.0590312750
20
21.5459852277
11
-46.0590312750
21
20.2955325550
0
LINE
5
3B4
100
AcDbEntity
8
CURVE
100
AcDbLine
62
9
6
CONTINUOUS
10
-46.0590312750
20
19.3501600627
11
-46.0590312750
21
19.0779052866
0
LINE
5
3B5
100
AcDbEntity
8
CURVE
100
AcDbLine
62
9
6
CONTINUOUS
10
-46.0590312750
20
18.2384604715
11
-46.0590312750
21
16.9880416787
0
LINE
5
3B6
100
AcDbEntity
8
CURVE
100
AcDbLine
62
9
6
CONTINUOUS
10
-46.0590312750
20
16.4864188074
11
-46.0590312750
21
16.2242263666
0
LINE
5
3B7
100
AcDbEntity
8
CURVE
100
AcDbLine
62
9
6
CONTINUOUS
10
-46.0590312750
20
15.2788369343
11
-46.0590312750
21
15.0519473668
0
LINE
5
3B8
100
AcDbEntity
8
CURVE
100
AcDbLine
62
9
6
CONTINUOUS
10
-45.9499676871
20
13.7695033668
11
-45.9499676871
21
12.3090033668
0
LINE
5
3B9
100
AcDbEntity
8
CURVE
100
AcDbLine
62
9
6
CONTINUOUS
10
-45.5750819071
20
-6.0480526332
11
-45.5750819071
21
-8.0480526332
0
LINE
5
3BA
100
AcDbEntity
8
CURVE
100
AcDbLine
62
9
6
CONTINUOUS
10
-45.5750819071
20
-3.0480526332
11
-45.5750819071
21
-1.0480526332
0
LINE
5
3BB
100
AcDbEntity
8
0
100
AcDbLine
62
7
6
CONTINUOUS
10
-45.5590312750
20
-17.7782323735
11
-45.5590312750
21
-15.7445920859
0
LINE
5
3BC
100
AcDbEntity
8
0
100
AcDbLine
62
7
6
CONTINUOUS
10
-45.5590312750
20
27.0484868194
11
-45.5590312750
21
29.0821271070
0
LINE
5
3BD
100
AcDbEntity
8
CURVE
100
AcDbLine
62
9
6
CONTINUOUS
10
-45.2001961270
20
12.3090033668
11
-45.2001961270
21
13.7695033668
0
LINE
5
3BE
100
AcDbEntity
8
CURVE
100
AcDbLine
62
9
6
CONTINUOUS
10
-45.0752342003
20
20.4090901728
11
-45.0752342003
21
19.7662329789
0
LINE
5
3BF
100
AcDbEntity
8
CURVE
100
AcDbLine
62
9
6
CONTINUOUS
10
-45.0752342003
20
19.0162329789
11
-45.0752342003
21
18.9090901728
0
LINE
5
3C0
100
AcDbEntity
8
CURVE
100
AcDbLine
62
9
6
CONTINUOUS
10
-45.0752342003
20
17.8376615758
11
-45.0752342003
21
17.7305187698
0
LINE
5
3C1
100
AcDbEntity
8
CURVE
100
AcDbLine
62
9
6
CONTINUOUS
10
-45.0752342003
20
15.4805188145
11
-45.0752342003
21
15.3733759414
0
LINE
5
3C2
100
AcDbEntity
8
CURVE
100
AcDbLine
62
9
6
CONTINUOUS
10
-45.0752342003
20
16.4448044713
11
-45.0752342003
21
16.7662331577
0
LINE
5
3C3
100
AcDbEntity
8
CURVE
100
AcDbLine
62
9
6
CONTINUOUS
10
-44.8253103469
20
-9.0123383348
11
-44.8253103469
21
-9.5480526332
0
LINE
5
3C4
100
AcDbEntity
8
CURVE
100
AcDbLine
62
9
6
CONTINUOUS
10
-44.4325729014
20
19.7662329789
11
-44.4325729014
21
20.1948045607
0
LINE
5
3C5
100
AcDbEntity
8
CURVE
100
AcDbLine
62
9
6
CONTINUOUS
10
-44.2183524237
20
16.9090902920
11
-44.2183524237
21
16.4448044713
0
LINE
5
3C6
100
AcDbEntity
8
CURVE
100
AcDbLine
62
9
6
CONTINUOUS
10
-44.1218306826
20
4.0722043668
11
-44.1218306826
21
3.6316903668
0
LINE
5
3C7
100
AcDbEntity
8
0
100
AcDbLine
62
6
6
CONTINUOUS
10
-35.7090312750
20
19.3769473668
11
-35.5840312750
21
19.5019473668
0
LINE
5
3C8
100
AcDbEntity
8
CURVE
100
AcDbLine
62
9
6
CONTINUOUS
10
-44.0041319907
20
15.0519473668
11
-43.7899115354
21
15.1590902287
0
LINE
5
3C9
100
AcDbEntity
8
0
100
AcDbLine
62
9
6
CONTINUOUS
10
-26.4590312750
20
-7.5480526332
11
-28.4590312750
21
-7.5480526332
0
LINE
5
3CA
100
AcDbEntity
8
0
100
AcDbLine
62
9
6
CONTINUOUS
10
-26.4590312750
20
-5.4480526332
11
-28.4590312750
21
-5.4480526332
0
LINE
5
3CB
100
AcDbEntity
8
CURVE
100
AcDbLine
62
9
6
CONTINUOUS
10
-48.5027613068
20
-0.0480526332
11
-48.8240920010
21
0.1662330906
0
LINE
5
3CC
100
AcDbEntity
8
CURVE
100
AcDbLine
62
9
6
CONTINUOUS
10
-48.3956511350
20
0.7019473668
11
-47.3245488807
21
-0.0480526332
0
LINE
5
3CD
100
AcDbEntity
8
0
100
AcDbLine
62
6
6
CONTINUOUS
10
-35.9090312750
20
-8.9480526332
11
-35.7840312750
21
-9.0730526332
0
LINE
5
3CE
100
AcDbEntity
8
0
100
AcDbLine
62
6
6
CONTINUOUS
10
-35.7090312750
20
-8.0730526332
11
-35.5840312750
21
-8.1980526332
0
LINE
5
3CF
100
AcDbEntity
8
CURVE
100
AcDbLine
62
9
6
CONTINUOUS
10
-46.3248534672
20
0.3805188145
11
-45.8964126012
21
-0.0480526332
0
LINE
5
3D0
100
AcDbEntity
8
CURVE
100
AcDbLine
62
9
6
CONTINUOUS
10
-45.5750819071
20
3.8519473668
11
-46.4931941773
21
5.0350783668
0
LINE
5
3D1
100
AcDbEntity
8
0
100
AcDbLine
62
7
6
CONTINUOUS
10
-43.9590312750
20
27.8519473668
11
-43.9590312750
21
26.8240192629
0
LINE
5
3D2
100
AcDbEntity
8
0
100
AcDbLine
62
7
6
CONTINUOUS
10
-43.9590312750
20
-16.5480526332
11
-43.9590312750
21
-15.5201245294
0
LINE
5
3D3
100
AcDbEntity
8
CURVE
100
AcDbLine
62
9
6
CONTINUOUS
10
-43.5757600590
20
3.8519473668
11
-43.5757600590
21
4.3277013668
0
LINE
5
3D4
100
AcDbEntity
8
CURVE
100
AcDbLine
62
9
6
CONTINUOUS
10
-43.5756910800
20
20.1948045607
11
-43.5756910800
21
19.7662329789
0
LINE
5
3D5
100
AcDbEntity
8
CURVE
100
AcDbLine
62
9
6
CONTINUOUS
10
-43.5756910800
20
15.3733759414
11
-43.5756910800
21
15.4805188145
0
LINE
5
3D6
100
AcDbEntity
8
CURVE
100
AcDbLine
62
9
6
CONTINUOUS
10
-43.5756910800
20
17.7305187698
11
-43.5756910800
21
17.8376615758
0
LINE
5
3D7
100
AcDbEntity
8
CURVE
100
AcDbLine
62
9
6
CONTINUOUS
10
-43.5756910800
20
18.9090901728
11
-43.5756910800
21
19.0162329789
0
LINE
5
3D8
100
AcDbEntity
8
CURVE
100
AcDbLine
62
9
6
CONTINUOUS
10
-46.4931941773
20
2.6688163668
11
-45.5750819071
21
3.8519473668
0
LINE
5
3D9
100
AcDbEntity
8
0
100
AcDbLine
62
6
6
CONTINUOUS
10
-32.3340312750
20
19.5019473668
11
-32.1590312750
21
19.6769473668
0
LINE
5
3DA
100
AcDbEntity
8
0
100
AcDbLine
62
7
6
CONTINUOUS
10
-49.5590312750
20
-4.8480526332
11
-51.9646376599
21
-4.8900426489
0
LINE
5
3DB
100
AcDbEntity
8
0
100
AcDbLine
62
6
6
CONTINUOUS
10
-32.4090312750
20
-3.9661136332
11
-35.9090312750
21
-3.9661136332
0
LINE
5
3DC
100
AcDbEntity
8
0
100
AcDbLine
62
6
6
CONTINUOUS
10
-32.7770922750
20
-3.5980526332
11
-35.5409702750
21
-3.5980526332
0
LINE
5
3DD
100
AcDbEntity
8
0
100
AcDbLine
62
6
6
CONTINUOUS
10
-32.2090312750
20
-3.0911136332
11
-35.7090312750
21
-3.0911136332
0
LINE
5
3DE
100
AcDbEntity
8
CURVE
100
AcDbLine
62
9
6
CONTINUOUS
10
-48.0743204408
20
-3.0480526332
11
-46.5747773206
21
-3.0480526332
0
LINE
5
3DF
100
AcDbEntity
8
0
100
AcDbLine
62
9
6
CONTINUOUS
10
-32.9090312750
20
-2.7480526332
11
-35.4090312750
21
-2.7480526332
0
LINE
5
3E0
100
AcDbEntity
8
0
100
AcDbLine
62
6
6
CONTINUOUS
10
-32.5770922750
20
-2.7230526332
11
-35.3409702750
21
-2.7230526332
0
LINE
5
3E1
100
AcDbEntity
8
0
100
AcDbLine
62
9
6
CONTINUOUS
10
-33.1090312750
20
-2.5480526332
11
-35.2090312750
21
-2.5480526332
0
LINE
5
3E2
100
AcDbEntity
8
0
100
AcDbLine
62
7
6
CONTINUOUS
10
-28.2694984437
20
-2.7079856280
11
-26.7433301622
21
-2.7879687185
0
LINE
5
3E3
100
AcDbEntity
8
0
100
AcDbLine
62
6
6
CONTINUOUS
10
-32.5340312750
20
-9.0730526332
11
-32.3590312750
21
-9.2480526332
0
LINE
5
3E4
100
AcDbEntity
8
0
100
AcDbLine
62
6
6
CONTINUOUS
10
-32.3340312750
20
-8.1980526332
11
-32.1590312750
21
-8.3730526332
0
LINE
5
3E5
100
AcDbEntity
8
0
100
AcDbLine
62
6
6
CONTINUOUS
10
-32.3676128831
20
20.6769473668
11
-32.8163363303
21
19.7769473668
0
LINE
5
3E6
100
AcDbEntity
8
CURVE
100
AcDbLine
62
9
6
CONTINUOUS
10
-48.8240920010
20
0.4876616652
11
-48.6098715680
21
0.7019473668
0
LINE
5
3E7
100
AcDbEntity
8
0
100
AcDbLine
62
6
6
CONTINUOUS
10
-32.5770922750
20
14.0269473668
11
-32.2090312750
21
14.3950083668
0
LINE
5
3E8
100
AcDbEntity
8
0
100
AcDbLine
62
9
6
CONTINUOUS
10
-32.7090312750
20
-1.8730526332
11
-35.2090312750
21
-1.8730526332
0
LINE
5
3E9
100
AcDbEntity
8
0
100
AcDbLine
62
9
6
CONTINUOUS
10
-32.9090312750
20
-1.6730526332
11
-35.0090312750
21
-1.6730526332
0
LINE
5
3EA
100
AcDbEntity
8
0
100
AcDbLine
62
7
6
CONTINUOUS
10
-28.4590312750
20
-0.8575726332
11
-28.3590312750
21
-0.8575726332
0
LINE
5
3EB
100
AcDbEntity
8
0
100
AcDbLine
62
7
6
CONTINUOUS
10
-28.4590312750
20
-0.1230526332
11
-28.3590312750
21
-0.1230526332
0
LINE
5
3EC
100
AcDbEntity
8
CURVE
100
AcDbLine
62
9
6
CONTINUOUS
10
-44.8253103469
20
0.3805188145
11
-46.3248534672
21
0.3805188145
0
LINE
5
3ED
100
AcDbEntity
8
0
100
AcDbLine
62
7
6
CONTINUOUS
10
-28.4590312750
20
0.4531892725
11
-28.3590312750
21
0.4531893668
0
LINE
5
3EE
100
AcDbEntity
8
0
100
AcDbLine
62
6
6
CONTINUOUS
10
-32.7770922750
20
-3.5980526332
11
-32.4090312750
21
-3.9661136332
0
LINE
5
3EF
100
AcDbEntity
8
0
100
AcDbLine
62
6
6
CONTINUOUS
10
-32.5770922750
20
-2.7230526332
11
-32.2090312750
21
-3.0911136332
0
LINE
5
3F0
100
AcDbEntity
8
0
100
AcDbLine
62
6
6
CONTINUOUS
10
-33.0163363303
20
-9.3480526332
11
-32.5676128831
21
-10.2480526332
0
LINE
5
3F1
100
AcDbEntity
8
0
100
AcDbLine
62
6
6
CONTINUOUS
10
-32.3676128831
20
-9.3730526332
11
-32.8163363303
21
-8.4730526332
0
LINE
5
3F2
100
AcDbEntity
8
0
100
AcDbLine
62
9
6
CONTINUOUS
10
-38.3503050718
20
24.2616080042
11
-38.3503050718
21
23.4811691814
0
LINE
5
3F3
100
AcDbEntity
8
0
100
AcDbLine
62
7
6
CONTINUOUS
10
-37.8590312750
20
23.9270108222
11
-37.8590312750
21
23.8484868194
0
LINE
5
3F4
100
AcDbEntity
8
0
100
AcDbLine
62
6
6
CONTINUOUS
10
-37.6590312750
20
-10.2480526332
11
-37.6590312750
21
-9.4480526332
0
LINE
5
3F5
100
AcDbEntity
8
0
100
AcDbLine
62
6
6
CONTINUOUS
10
-37.4590312750
20
20.6769473668
11
-37.4590312750
21
19.8769473668
0
LINE
5
3F6
100
AcDbEntity
8
0
100
AcDbLine
62
6
6
CONTINUOUS
10
-37.4590312750
20
-9.3730526332
11
-37.4590312750
21
-8.5730526332
0
LINE
5
3F7
100
AcDbEntity
8
0
100
AcDbLine
62
6
6
CONTINUOUS
10
-35.9090312750
20
-8.9480526332
11
-35.9090312750
21
-3.9661136332
0
LINE
5
3F8
100
AcDbEntity
8
0
100
AcDbLine
62
6
6
CONTINUOUS
10
-35.7090312750
20
19.3769473668
11
-35.7090312750
21
14.3950083668
0
LINE
5
3F9
100
AcDbEntity
8
0
100
AcDbLine
62
6
6
CONTINUOUS
10
-35.7090312750
20
-8.0730526332
11
-35.7090312750
21
-3.0911136332
0
LINE
5
3FA
100
AcDbEntity
8
0
100
AcDbLine
62
7
6
CONTINUOUS
10
-28.4590312750
20
0.6108673668
11
-28.3590312750
21
0.6108673668
0
LINE
5
3FB
100
AcDbEntity
8
CURVE
100
AcDbLine
62
9
6
CONTINUOUS
10
-48.6098715680
20
0.7019473668
11
-48.3956511350
21
0.7019473668
0
LINE
5
3FC
100
AcDbEntity
8
0
100
AcDbLine
62
7
6
CONTINUOUS
10
-28.4590312750
20
1.2280273673
11
-28.3590312750
21
1.2280273673
0
LINE
5
3FD
100
AcDbEntity
8
0
100
AcDbLine
62
7
6
CONTINUOUS
10
-28.4590312750
20
2.5096073668
11
-28.3590312750
21
2.5096073668
0
LINE
5
3FE
100
AcDbEntity
8
0
100
AcDbLine
62
7
6
CONTINUOUS
10
-28.3590312750
20
2.5429673666
11
-28.4590312750
21
2.5429673662
0
LINE
5
3FF
100
AcDbEntity
8
0
100
AcDbLine
62
7
6
CONTINUOUS
10
-28.4590312750
20
2.5989283668
11
-28.3590312750
21
2.5989283668
0
LINE
5
400
100
AcDbEntity
8
0
100
AcDbLine
62
7
6
CONTINUOUS
10
-28.4590312750
20
2.6638103668
11
-28.3590312750
21
2.6638103668
0
LINE
5
401
100
AcDbEntity
8
0
100
AcDbLine
62
7
6
CONTINUOUS
10
-28.4590312750
20
2.7555503668
11
-28.3590312750
21
2.7555503668
0
LINE
5
402
100
AcDbEntity
8
0
100
AcDbLine
62
7
6
CONTINUOUS
10
-28.4590312750
20
3.0689950349
11
-28.3590312750
21
3.0689953668
0
LINE
5
403
100
AcDbEntity
8
0
100
AcDbLine
62
6
6
CONTINUOUS
10
-35.4090312750
20
-3.5980526332
11
-35.4090312750
21
-2.7480526332
0
LINE
5
404
100
AcDbEntity
8
0
100
AcDbLine
62
6
6
CONTINUOUS
10
-35.2492262117
20
-9.3480526332
11
-35.2492262117
21
-10.2480526332
0
LINE
5
405
100
AcDbEntity
8
0
100
AcDbLine
62
6
6
CONTINUOUS
10
-35.2090312750
20
14.0269473668
11
-35.2090312750
21
13.1769473668
0
LINE
5
406
100
AcDbEntity
8
0
100
AcDbLine
62
6
6
CONTINUOUS
10
-35.2090312750
20
-2.7230526332
11
-35.2090312750
21
-1.8730526332
0
LINE
5
407
100
AcDbEntity
8
0
100
AcDbLine
62
6
6
CONTINUOUS
10
-35.0492262117
20
20.6769473668
11
-35.0492262117
21
19.7769473668
0
LINE
5
408
100
AcDbEntity
8
0
100
AcDbLine
62
6
6
CONTINUOUS
10
-35.0492262117
20
-9.3730526332
11
-35.0492262117
21
-8.4730526332
0
LINE
5
409
100
AcDbEntity
8
0
100
AcDbLine
62
6
6
CONTINUOUS
10
-34.7450489713
20
-11.2480526332
11
-34.7450489713
21
-10.2480526332
0
LINE
5
40A
100
AcDbEntity
8
0
100
AcDbLine
62
6
6
CONTINUOUS
10
-34.6787547592
20
-11.2480526332
11
-34.6787547592
21
-9.3480526332
0
LINE
5
40B
100
AcDbEntity
8
0
100
AcDbLine
62
6
6
CONTINUOUS
10
-34.5450489713
20
21.6769473668
11
-34.5450489713
21
20.6769473668
0
LINE
5
40C
100
AcDbEntity
8
0
100
AcDbLine
62
6
6
CONTINUOUS
10
-34.5450489713
20
-10.3730526332
11
-34.5450489713
21
-9.3730526332
0
LINE
5
40D
100
AcDbEntity
8
0
100
AcDbLine
62
6
6
CONTINUOUS
10
-34.5090312750
20
-9.3480526332
11
-34.5090312750
21
-11.2480526332
0
LINE
5
40E
100
AcDbEntity
8
0
100
AcDbLine
62
6
6
CONTINUOUS
10
-34.4787547592
20
21.6769473668
11
-34.4787547592
21
19.7769473668
0
LINE
5
40F
100
AcDbEntity
8
0
100
AcDbLine
62
6
6
CONTINUOUS
10
-34.4787547592
20
-10.3730526332
11
-34.4787547592
21
-8.4730526332
0
LINE
5
410
100
AcDbEntity
8
0
100
AcDbLine
62
6
6
CONTINUOUS
10
-34.3090312750
20
21.6769473668
11
-34.3090312750
21
19.7769473668
0
LINE
5
411
100
AcDbEntity
8
0
100
AcDbLine
62
6
6
CONTINUOUS
10
-34.3090312750
20
-8.4730526332
11
-34.3090312750
21
-10.3730526332
0
LINE
5
412
100
AcDbEntity
8
0
100
AcDbLine
62
6
6
CONTINUOUS
10
-33.8090312750
20
-9.3480526332
11
-33.8090312750
21
-11.2480526332
0
LINE
5
413
100
AcDbEntity
8
0
100
AcDbLine
62
6
6
CONTINUOUS
10
-33.6393077908
20
-11.2480526332
11
-33.6393077908
21
-9.3480526332
0
LINE
5
414
100
AcDbEntity
8
0
100
AcDbLine
62
6
6
CONTINUOUS
10
-33.6090312750
20
21.6769473668
11
-33.6090312750
21
19.7769473668
0
LINE
5
415
100
AcDbEntity
8
0
100
AcDbLine
62
6
6
CONTINUOUS
10
-33.6090312750
20
-8.4730526332
11
-33.6090312750
21
-10.3730526332
0
LINE
5
416
100
AcDbEntity
8
0
100
AcDbLine
62
6
6
CONTINUOUS
10
-33.5730135787
20
-11.2480526332
11
-33.5730135787
21
-10.2480526332
0
LINE
5
417
100
AcDbEntity
8
0
100
AcDbLine
62
6
6
CONTINUOUS
10
-33.4393077908
20
21.6769473668
11
-33.4393077908
21
19.7769473668
0
LINE
5
418
100
AcDbEntity
8
0
100
AcDbLine
62
6
6
CONTINUOUS
10
-33.4393077908
20
-10.3730526332
11
-33.4393077908
21
-8.4730526332
0
LINE
5
419
100
AcDbEntity
8
0
100
AcDbLine
62
6
6
CONTINUOUS
10
-33.3730135787
20
21.6769473668
11
-33.3730135787
21
20.6769473668
0
LINE
5
41A
100
AcDbEntity
8
0
100
AcDbLine
62
6
6
CONTINUOUS
10
-33.3730135787
20
-10.3730526332
11
-33.3730135787
21
-9.3730526332
0
LINE
5
41B
100
AcDbEntity
8
0
100
AcDbLine
62
6
6
CONTINUOUS
10
-33.0688363383
20
-10.2480526332
11
-33.0688363383
21
-9.3480526332
0
LINE
5
41C
100
AcDbEntity
8
0
100
AcDbLine
62
6
6
CONTINUOUS
10
-32.9090312750
20
-3.5980526332
11
-32.9090312750
21
-2.7480526332
0
LINE
5
41D
100
AcDbEntity
8
0
100
AcDbLine
62
6
6
CONTINUOUS
10
-32.8688363383
20
20.6769473668
11
-32.8688363383
21
19.7769473668
0
LINE
5
41E
100
AcDbEntity
8
0
100
AcDbLine
62
6
6
CONTINUOUS
10
-32.8688363383
20
-8.4730526332
11
-32.8688363383
21
-9.3730526332
0
LINE
5
41F
100
AcDbEntity
8
0
100
AcDbLine
62
7
6
CONTINUOUS
10
-28.4590312750
20
3.5900280852
11
-28.3590312750
21
3.5900280852
0
LINE
5
420
100
AcDbEntity
8
CURVE
100
AcDbLine
62
9
6
CONTINUOUS
10
-44.1218306826
20
3.8519473668
11
-47.0283331315
21
3.8519473668
0
LINE
5
421
100
AcDbEntity
8
0
100
AcDbLine
62
7
6
CONTINUOUS
10
-28.4590312750
20
4.1459848518
11
-28.3590312750
21
4.1459843668
0
LINE
5
422
100
AcDbEntity
8
0
100
AcDbLine
62
7
6
CONTINUOUS
10
-28.4590312750
20
4.4346703668
11
-28.3590312750
21
4.4346703668
0
LINE
5
423
100
AcDbEntity
8
0
100
AcDbLine
62
7
6
CONTINUOUS
10
-28.4590312750
20
4.4874903668
11
-28.3590312750
21
4.4874903668
0
LINE
5
424
100
AcDbEntity
8
0
100
AcDbLine
62
7
6
CONTINUOUS
10
-28.4590312750
20
4.5058643668
11
-28.3590312750
21
4.5058643668
0
LINE
5
425
100
AcDbEntity
8
0
100
AcDbLine
62
7
6
CONTINUOUS
10
-28.4590312750
20
5.0841043668
11
-28.3590312750
21
5.0841043668
0
LINE
5
426
100
AcDbEntity
8
0
100
AcDbLine
62
7
6
CONTINUOUS
10
-28.4590312750
20
5.2808763668
11
-28.3590312750
21
5.2808763668
0
LINE
5
427
100
AcDbEntity
8
0
100
AcDbLine
62
7
6
CONTINUOUS
10
-28.4590312750
20
5.3591058514
11
-28.3590312750
21
5.3591058514
0
LINE
5
428
100
AcDbEntity
8
0
100
AcDbLine
62
7
6
CONTINUOUS
10
-28.4590312750
20
5.4065843515
11
-28.3590312750
21
5.4065843668
0
LINE
5
429
100
AcDbEntity
8
CURVE
100
AcDbLine
62
9
6
CONTINUOUS
10
-45.0752342003
20
15.3733759414
11
-44.8610137673
21
15.1590902287
0
LINE
5
42A
100
AcDbEntity
8
CURVE
100
AcDbLine
62
9
6
CONTINUOUS
10
-44.8610137673
20
16.2305187698
11
-45.0752342003
21
16.4448044713
0
LINE
5
42B
100
AcDbEntity
8
CURVE
100
AcDbLine
62
9
6
CONTINUOUS
10
-43.5756910800
20
15.4805188145
11
-43.7899115354
21
15.6948045160
0
LINE
5
42C
100
AcDbEntity
8
CURVE
100
AcDbLine
62
9
6
CONTINUOUS
10
-45.0752342003
20
17.7305187698
11
-44.8610137673
21
17.5162331577
0
LINE
5
42D
100
AcDbEntity
8
CURVE
100
AcDbLine
62
9
6
CONTINUOUS
10
-44.0041319907
20
16.8733759637
11
-43.5756910800
21
16.4448044713
0
LINE
5
42E
100
AcDbEntity
8
0
100
AcDbLine
62
6
6
CONTINUOUS
10
-32.7090312750
20
14.0269473668
11
-32.7090312750
21
13.1769473668
0
LINE
5
42F
100
AcDbEntity
8
0
100
AcDbLine
62
6
6
CONTINUOUS
10
-32.7090312750
20
-2.7230526332
11
-32.7090312750
21
-1.8730526332
0
LINE
5
430
100
AcDbEntity
8
0
100
AcDbLine
62
6
6
CONTINUOUS
10
-32.4090312750
20
-8.9480526332
11
-32.4090312750
21
-3.9661136332
0
LINE
5
431
100
AcDbEntity
8
0
100
AcDbLine
62
6
6
CONTINUOUS
10
-32.2090312750
20
19.3769473668
11
-32.2090312750
21
14.3950083668
0
LINE
5
432
100
AcDbEntity
8
0
100
AcDbLine
62
6
6
CONTINUOUS
10
-32.2090312750
20
-8.0730526332
11
-32.2090312750
21
-3.0911136332
0
LINE
5
433
100
AcDbEntity
8
0
100
AcDbLine
62
6
6
CONTINUOUS
10
-30.6590312750
20
-10.2480526332
11
-30.6590312750
21
-9.4480526332
0
LINE
5
434
100
AcDbEntity
8
0
100
AcDbLine
62
6
6
CONTINUOUS
10
-30.4590312750
20
20.6769473668
11
-30.4590312750
21
19.8769473668
0
LINE
5
435
100
AcDbEntity
8
0
100
AcDbLine
62
6
6
CONTINUOUS
10
-30.4590312750
20
-9.3730526332
11
-30.4590312750
21
-8.5730526332
0
LINE
5
436
100
AcDbEntity
8
0
100
AcDbLine
62
7
6
CONTINUOUS
10
-28.3590312750
20
6.6742643116
11
-28.4437947338
21
6.6742643110
0
LINE
5
437
100
AcDbEntity
8
0
100
AcDbLine
62
7
6
CONTINUOUS
10
-28.4590312750
20
6.6770443668
11
-28.3590312750
21
6.6770443668
0
LINE
5
438
100
AcDbEntity
8
0
100
AcDbLine
62
7
6
CONTINUOUS
10
-28.4590312750
20
6.9411442887
11
-28.3590312750
21
6.9411443668
0
LINE
5
439
100
AcDbEntity
8
0
100
AcDbLine
62
7
6
CONTINUOUS
10
-28.4590312750
20
6.9856243668
11
-28.3590312750
21
6.9856243668
0
LINE
5
43A
100
AcDbEntity
8
0
100
AcDbLine
62
7
6
CONTINUOUS
10
-28.4590312750
20
7.1774443668
11
-28.3590312750
21
7.1774443668
0
LINE
5
43B
100
AcDbEntity
8
0
100
AcDbLine
62
7
6
CONTINUOUS
10
-28.4590312750
20
8.1643443668
11
-28.3590312750
21
8.1643443668
0
LINE
5
43C
100
AcDbEntity
8
0
100
AcDbLine
62
7
6
CONTINUOUS
10
-28.3590312750
20
8.2588643046
11
-28.4590312750
21
8.2588643046
0
LINE
5
43D
100
AcDbEntity
8
0
100
AcDbLine
62
7
6
CONTINUOUS
10
-28.4590312750
20
8.3807843668
11
-28.3590312750
21
8.3807843668
0
LINE
5
43E
100
AcDbEntity
8
0
100
AcDbLine
62
7
6
CONTINUOUS
10
-28.4590312750
20
8.4868243067
11
-28.3590312750
21
8.4868243048
0
LINE
5
43F
100
AcDbEntity
8
CURVE
100
AcDbLine
62
9
6
CONTINUOUS
10
-44.8610137673
20
15.1590902287
11
-44.6467933343
21
15.0519473668
0
LINE
5
440
100
AcDbEntity
8
CURVE
100
AcDbLine
62
9
6
CONTINUOUS
10
-45.0752342003
20
18.9090901728
11
-44.8610137673
21
18.6948045607
0
LINE
5
441
100
AcDbEntity
8
CURVE
100
AcDbLine
62
9
6
CONTINUOUS
10
-43.5756910800
20
17.8376615758
11
-43.7899115354
21
18.0519473668
0
LINE
5
442
100
AcDbEntity
8
CURVE
100
AcDbLine
62
9
6
CONTINUOUS
10
-43.5756910800
20
19.0162329789
11
-43.7899115354
21
19.2305189486
0
LINE
5
443
100
AcDbEntity
8
CURVE
100
AcDbLine
62
9
6
CONTINUOUS
10
-43.7899115354
20
20.4090901728
11
-43.5756910800
21
20.1948045607
0
LINE
5
444
100
AcDbEntity
8
0
100
AcDbLine
62
9
6
CONTINUOUS
10
-28.9503050718
20
23.3160072851
11
-28.9503050718
21
22.8935280684
0
LINE
5
445
100
AcDbEntity
8
0
100
AcDbLine
62
9
6
CONTINUOUS
10
-28.9503050718
20
21.6461486010
11
-28.9503050718
21
-10.3422538675
0
LINE
5
446
100
AcDbEntity
8
0
100
AcDbLine
62
9
6
CONTINUOUS
10
-28.9503050718
20
-11.5896333349
11
-28.9503050718
21
-13.3741681553
0
LINE
5
447
100
AcDbEntity
8
0
100
AcDbLine
62
7
6
CONTINUOUS
10
-28.4590312750
20
-13.3560164534
11
-28.4590312750
21
22.9965211249
0
LINE
5
448
100
AcDbEntity
8
0
100
AcDbLine
62
7
6
CONTINUOUS
10
-28.3590312750
20
13.9848349049
11
-28.3590312750
21
12.1531152400
0
LINE
5
449
100
AcDbEntity
8
0
100
AcDbLine
62
7
6
CONTINUOUS
10
-28.3590312750
20
11.4225043668
11
-28.3590312750
21
10.0325043668
0
LINE
5
44A
100
AcDbEntity
8
0
100
AcDbLine
62
7
6
CONTINUOUS
10
-28.3590312750
20
10.0214093668
11
-28.3590312750
21
8.3807843668
0
LINE
5
44B
100
AcDbEntity
8
0
100
AcDbLine
62
7
6
CONTINUOUS
10
-28.3590312750
20
8.3777429973
11
-28.3590312750
21
1.2280306851
0
LINE
5
44C
100
AcDbEntity
8
0
100
AcDbLine
62
7
6
CONTINUOUS
10
-28.3590312750
20
0.6108673668
11
-28.3590312750
21
-0.1230526332
0
LINE
5
44D
100
AcDbEntity
8
0
100
AcDbLine
62
7
6
CONTINUOUS
10
-28.3590312750
20
-0.8575726332
11
-28.3590312750
21
-2.6809401714
0
LINE
5
44E
100
AcDbEntity
8
0
100
AcDbLine
62
9
6
CONTINUOUS
10
-28.2694984438
20
-2.7079856280
11
-28.2694983129
21
-10.2881196316
0
LINE
5
44F
100
AcDbEntity
8
0
100
AcDbLine
62
9
6
CONTINUOUS
10
-28.2694984438
20
21.5920143720
11
-28.2694983129
21
14.0118803684
0
LINE
5
450
100
AcDbEntity
8
0
100
AcDbLine
62
6
6
CONTINUOUS
10
-35.1017262197
20
-8.4730526332
11
-35.5504496669
21
-9.3730526332
0
LINE
5
451
100
AcDbEntity
8
0
100
AcDbLine
62
6
6
CONTINUOUS
10
-35.7504496669
20
-10.2480526332
11
-35.3017262197
21
-9.3480526332
0
LINE
5
452
100
AcDbEntity
8
0
100
AcDbLine
62
6
6
CONTINUOUS
10
-35.3409702750
20
-2.7230526332
11
-35.7090312750
21
-3.0911136332
0
LINE
5
453
100
AcDbEntity
8
0
100
AcDbLine
62
6
6
CONTINUOUS
10
-35.5409702750
20
-3.5980526332
11
-35.9090312750
21
-3.9661136332
0
LINE
5
454
100
AcDbEntity
8
0
100
AcDbLine
62
7
6
CONTINUOUS
10
-28.3590312570
20
9.7823043118
11
-28.4590312750
21
9.7823043118
0
LINE
5
455
100
AcDbEntity
8
CURVE
100
AcDbLine
62
9
6
CONTINUOUS
10
-43.0278180056
20
9.7843933668
11
-43.7784093160
21
9.7843933668
0
LINE
5
456
100
AcDbEntity
8
CURVE
100
AcDbLine
62
9
6
CONTINUOUS
10
-47.3717544981
20
9.7843933668
11
-48.1223458085
21
9.7843933668
0
LINE
5
457
100
AcDbEntity
8
0
100
AcDbLine
62
7
6
CONTINUOUS
10
-28.4590312750
20
9.9696088190
11
-28.3590312750
21
9.9696088190
0
LINE
5
458
100
AcDbEntity
8
0
100
AcDbLine
62
7
6
CONTINUOUS
10
-28.4590312750
20
10.0214093668
11
-28.3590312750
21
10.0214093668
0
LINE
5
459
100
AcDbEntity
8
0
100
AcDbLine
62
7
6
CONTINUOUS
10
-28.4590312750
20
10.0325043668
11
-28.3590312750
21
10.0325043668
0
LINE
5
45A
100
AcDbEntity
8
0
100
AcDbLine
62
7
6
CONTINUOUS
10
-28.4590312750
20
11.4225043668
11
-28.3590312750
21
11.4225043668
0
LINE
5
45B
100
AcDbEntity
8
CURVE
100
AcDbLine
62
9
6
CONTINUOUS
10
-43.7899115354
20
15.6948045160
11
-44.0041319907
21
15.8019473668
0
LINE
5
45C
100
AcDbEntity
8
CURVE
100
AcDbLine
62
9
6
CONTINUOUS
10
-44.8610137673
20
17.5162331577
11
-44.6467933343
21
17.4090901728
0
LINE
5
45D
100
AcDbEntity
8
0
100
AcDbLine
62
6
6
CONTINUOUS
10
-35.3409702750
20
14.0269473668
11
-35.7090312750
21
14.3950083668
0
LINE
5
45E
100
AcDbEntity
8
0
100
AcDbLine
62
6
6
CONTINUOUS
10
-35.1017262197
20
19.7769473668
11
-35.5504496669
21
20.6769473668
0
LINE
5
45F
100
AcDbEntity
8
0
100
AcDbLine
62
9
6
CONTINUOUS
10
-26.7433301633
20
21.5120290884
11
-26.7433302192
21
14.0918682070
0
LINE
5
460
100
AcDbEntity
8
0
100
AcDbLine
62
9
6
CONTINUOUS
10
-26.7433301633
20
-2.7879709116
11
-26.7433302192
21
-10.2081317930
0
LINE
5
461
100
AcDbEntity
8
0
100
AcDbLine
62
7
6
CONTINUOUS
10
-26.4590312750
20
21.2127965229
11
-26.4590312750
21
14.3911218144
0
LINE
5
462
100
AcDbEntity
8
0
100
AcDbLine
62
7
6
CONTINUOUS
10
-26.4590312750
20
-3.0872034771
11
-26.4590312750
21
-9.9088781856
0
LINE
5
463
100
AcDbEntity
8
0
100
AcDbLine
62
6
6
CONTINUOUS
10
-35.5840312750
20
-8.1980526332
11
-35.7590312750
21
-8.3730526332
0
LINE
5
464
100
AcDbEntity
8
0
100
AcDbLine
62
6
6
CONTINUOUS
10
-35.7840312750
20
-9.0730526332
11
-35.9590312750
21
-9.2480526332
0
LINE
5
465
100
AcDbEntity
8
0
100
AcDbLine
62
7
6
CONTINUOUS
10
-28.2694983148
20
14.0118803683
11
-26.7433302151
21
14.0918634492
0
LINE
5
466
100
AcDbEntity
8
0
100
AcDbLine
62
7
6
CONTINUOUS
10
-28.4590312750
20
12.1531268433
11
-28.3590312750
21
12.1531268373
0
LINE
5
467
100
AcDbEntity
8
0
100
AcDbLine
62
9
6
CONTINUOUS
10
-35.0090312750
20
12.9769473668
11
-32.9090312750
21
12.9769473668
0
LINE
5
468
100
AcDbEntity
8
0
100
AcDbLine
62
9
6
CONTINUOUS
10
-32.7090312750
20
13.1769473668
11
-35.2090312750
21
13.1769473668
0
LINE
5
469
100
AcDbEntity
8
0
100
AcDbLine
62
9
6
CONTINUOUS
10
-28.4590312750
20
13.5353085823
11
-28.3590312750
21
13.5353085823
0
LINE
5
46A
100
AcDbEntity
8
CURVE
100
AcDbLine
62
9
6
CONTINUOUS
10
-45.2001961270
20
13.7695033668
11
-45.9499676871
21
13.7695033668
0
LINE
5
46B
100
AcDbEntity
8
0
100
AcDbLine
62
9
6
CONTINUOUS
10
-28.4590312750
20
13.7859864021
11
-28.3590312750
21
13.7859864021
0
LINE
5
46C
100
AcDbEntity
8
0
100
AcDbLine
62
7
6
CONTINUOUS
10
-28.4277141224
20
13.9184273668
11
-28.3590312750
21
13.9184273668
0
LINE
5
46D
100
AcDbEntity
8
0
100
AcDbLine
62
6
6
CONTINUOUS
10
-35.3409702750
20
14.0269473668
11
-32.5770922750
21
14.0269473668
0
LINE
5
46E
100
AcDbEntity
8
CURVE
100
AcDbLine
62
9
6
CONTINUOUS
10
-43.0278180056
20
14.1695033668
11
-43.7784093160
21
14.1695033668
0
LINE
5
46F
100
AcDbEntity
8
CURVE
100
AcDbLine
62
9
6
CONTINUOUS
10
-47.3717544981
20
14.1695033668
11
-48.1223458085
21
14.1695033668
0
LINE
5
470
100
AcDbEntity
8
0
100
AcDbLine
62
6
6
CONTINUOUS
10
-35.7090312750
20
14.3950083668
11
-32.2090312750
21
14.3950083668
0
LINE
5
471
100
AcDbEntity
8
CURVE
100
AcDbLine
62
9
6
CONTINUOUS
10
-44.4325729014
20
16.9805187698
11
-44.0041319907
21
16.8733759637
0
LINE
5
472
100
AcDbEntity
8
CURVE
100
AcDbLine
62
9
6
CONTINUOUS
10
-46.2984522837
20
19.2216154235
11
-47.8584827645
21
19.7409140826
0
LINE
5
473
100
AcDbEntity
8
CURVE
100
AcDbLine
62
9
6
CONTINUOUS
10
-47.8584827645
20
19.9905190756
11
-46.0590312750
21
19.3501600627
0
LINE
5
474
100
AcDbEntity
8
CURVE
100
AcDbLine
62
9
6
CONTINUOUS
10
-43.7899115354
20
18.0519473668
11
-44.0041319907
21
18.1590901728
0
LINE
5
475
100
AcDbEntity
8
CURVE
100
AcDbLine
62
9
6
CONTINUOUS
10
-44.8610137673
20
18.6948045607
11
-44.6467933343
21
18.5876617546
0
LINE
5
476
100
AcDbEntity
8
CURVE
100
AcDbLine
62
9
6
CONTINUOUS
10
-43.7899115354
20
19.2305189486
11
-44.0041319907
21
19.3376617546
0
LINE
5
477
100
AcDbEntity
8
0
100
AcDbLine
62
6
6
CONTINUOUS
10
-35.5840312750
20
19.5019473668
11
-35.7590312750
21
19.6769473668
0
LINE
5
478
100
AcDbEntity
8
0
100
AcDbLine
62
7
6
CONTINUOUS
10
-39.8590140538
20
-13.9480354121
11
-41.9151017767
21
-16.0041231349
0
LINE
5
479
100
AcDbEntity
8
0
100
AcDbLine
62
6
6
CONTINUOUS
10
-32.2090312750
20
-8.0730526332
11
-32.3340312750
21
-8.1980526332
0
LINE
5
47A
100
AcDbEntity
8
0
100
AcDbLine
62
6
6
CONTINUOUS
10
-32.4090312750
20
-8.9480526332
11
-32.5340312750
21
-9.0730526332
0
LINE
5
47B
100
AcDbEntity
8
CURVE
100
AcDbLine
62
9
6
CONTINUOUS
10
-44.6467933343
20
15.0519473668
11
-44.0041319907
21
15.0519473668
0
LINE
5
47C
100
AcDbEntity
8
CURVE
100
AcDbLine
62
9
6
CONTINUOUS
10
-46.0590312750
20
15.0519473668
11
-47.8584827645
21
15.0519473668
0
LINE
5
47D
100
AcDbEntity
8
CURVE
100
AcDbLine
62
9
6
CONTINUOUS
10
-47.5031240070
20
15.2788369343
11
-46.0590312750
21
15.2788369343
0
LINE
5
47E
100
AcDbEntity
8
CURVE
100
AcDbLine
62
9
6
CONTINUOUS
10
-44.0041319907
20
15.8019473668
11
-44.6467933343
21
15.8019473668
0
LINE
5
47F
100
AcDbEntity
8
CURVE
100
AcDbLine
62
9
6
CONTINUOUS
10
-44.4325729014
20
16.2305187698
11
-44.8610137673
21
16.2305187698
0
LINE
5
480
100
AcDbEntity
8
CURVE
100
AcDbLine
62
9
6
CONTINUOUS
10
-46.3992619651
20
16.2595133586
11
-47.8584827645
21
16.2595133586
0
LINE
5
481
100
AcDbEntity
8
CURVE
100
AcDbLine
62
9
6
CONTINUOUS
10
-47.8584827645
20
16.4864188074
11
-46.0590312750
21
16.4864188074
0
LINE
5
482
100
AcDbEntity
8
0
100
AcDbLine
62
9
6
CONTINUOUS
10
-26.4590312750
20
16.7519473668
11
-28.4590312750
21
16.7519473668
0
LINE
5
483
100
AcDbEntity
8
CURVE
100
AcDbLine
62
9
6
CONTINUOUS
10
-44.8610137673
20
16.9805187698
11
-44.4325729014
21
16.9805187698
0
LINE
5
484
100
AcDbEntity
8
CURVE
100
AcDbLine
62
9
6
CONTINUOUS
10
-46.0590312750
20
16.9880416787
11
-47.8584827645
21
16.9880416787
0
LINE
5
485
100
AcDbEntity
8
CURVE
100
AcDbLine
62
9
6
CONTINUOUS
10
-47.6568644601
20
17.2275356340
11
-47.0847603894
21
17.2275356340
0
LINE
5
486
100
AcDbEntity
8
CURVE
100
AcDbLine
62
9
6
CONTINUOUS
10
-46.8831420851
20
17.2275356340
11
-46.2606495793
21
17.2275356340
0
LINE
5
487
100
AcDbEntity
8
0
100
AcDbLine
62
7
6
CONTINUOUS
10
-49.5590312750
20
16.1519473668
11
-51.9646376599
21
16.1939373824
0
LINE
5
488
100
AcDbEntity
8
0
100
AcDbLine
62
7
6
CONTINUOUS
10
-41.9151017767
20
27.3080178684
11
-39.7246782396
21
25.1175943314
0
LINE
5
489
100
AcDbEntity
8
0
100
AcDbLine
62
6
6
CONTINUOUS
10
-32.2090312750
20
19.3769473668
11
-32.3340312750
21
19.5019473668
0
LINE
5
48A
100
AcDbEntity
8
CURVE
100
AcDbLine
62
9
6
CONTINUOUS
10
-44.6467933343
20
17.4090901728
11
-44.0041319907
21
17.4090901728
0
LINE
5
48B
100
AcDbEntity
8
CURVE
100
AcDbLine
62
9
6
CONTINUOUS
10
-44.0041319907
20
18.1590901728
11
-44.6467933343
21
18.1590901728
0
LINE
5
48C
100
AcDbEntity
8
CURVE
100
AcDbLine
62
9
6
CONTINUOUS
10
-47.0847603894
20
18.1628309686
11
-46.8831420851
21
18.1628309686
0
LINE
5
48D
100
AcDbEntity
8
CURVE
100
AcDbLine
62
9
6
CONTINUOUS
10
-47.8584827645
20
18.2308946626
11
-47.6568644601
21
18.2308946626
0
LINE
5
48E
100
AcDbEntity
8
CURVE
100
AcDbLine
62
9
6
CONTINUOUS
10
-46.2606495793
20
18.2384604715
11
-46.0590312750
21
18.2384604715
0
LINE
5
48F
100
AcDbEntity
8
CURVE
100
AcDbLine
62
9
6
CONTINUOUS
10
-44.6467933343
20
18.5876617546
11
-44.0041319907
21
18.5876617546
0
LINE
5
490
100
AcDbEntity
8
0
100
AcDbLine
62
9
6
CONTINUOUS
10
-26.4590312750
20
18.8519473668
11
-28.4590312750
21
18.8519473668
0
LINE
5
491
100
AcDbEntity
8
CURVE
100
AcDbLine
62
9
6
CONTINUOUS
10
-44.0041319907
20
19.3376617546
11
-44.6467933343
21
19.3376617546
0
LINE
5
492
100
AcDbEntity
8
0
100
AcDbLine
62
6
6
CONTINUOUS
10
-32.2090312750
20
19.3769473668
11
-35.7090312750
21
19.3769473668
0
LINE
5
493
100
AcDbEntity
8
0
100
AcDbLine
62
6
6
CONTINUOUS
10
-32.3340312750
20
19.5019473668
11
-35.5840312750
21
19.5019473668
0
LINE
5
494
100
AcDbEntity
8
0
100
AcDbLine
62
9
6
CONTINUOUS
10
-37.2590312754
20
19.6769473668
11
-30.6590312746
21
19.6769473668
0
LINE
5
495
100
AcDbEntity
8
CURVE
100
AcDbLine
62
9
6
CONTINUOUS
10
-45.0752342003
20
19.7662329789
11
-44.4325729014
21
19.7662329789
0
LINE
5
496
100
AcDbEntity
8
0
100
AcDbLine
62
6
6
CONTINUOUS
10
-32.8140312750
20
19.7769473668
11
-35.1040312750
21
19.7769473668
0
LINE
5
497
100
AcDbEntity
8
0
100
AcDbLine
62
9
6
CONTINUOUS
10
-30.4590312750
20
19.8769473668
11
-37.4590312750
21
19.8769473668
0
LINE
5
498
100
AcDbEntity
8
0
100
AcDbLine
62
9
6
CONTINUOUS
10
-51.5659496460
20
21.8173733212
11
-54.8560748899
21
21.7599439715
0
LINE
5
499
100
AcDbEntity
8
0
100
AcDbLine
62
9
6
CONTINUOUS
10
-51.1016199181
20
21.6099787243
11
-49.5590312750
21
21.6192480970
0
LINE
5
49A
100
AcDbEntity
8
0
100
AcDbLine
62
9
6
CONTINUOUS
10
-50.9654688078
20
22.8419564735
11
-49.5590312750
21
22.8498939322
0
LINE
5
49B
100
AcDbEntity
8
CURVE
100
AcDbLine
62
9
6
CONTINUOUS
10
-46.0590312750
20
20.2955325550
11
-47.8584827645
21
20.2955325550
0
LINE
5
49C
100
AcDbEntity
8
CURVE
100
AcDbLine
62
9
6
CONTINUOUS
10
-44.2183524237
20
20.4090901728
11
-43.7899115354
21
20.4090901728
0
LINE
5
49D
100
AcDbEntity
8
CURVE
100
AcDbLine
62
9
6
CONTINUOUS
10
-47.6568644601
20
20.5350275691
11
-47.0847603894
21
20.5350275691
0
LINE
5
49E
100
AcDbEntity
8
CURVE
100
AcDbLine
62
9
6
CONTINUOUS
10
-46.8831420851
20
20.5350275691
11
-46.2606495793
21
20.5350275691
0
LINE
5
49F
100
AcDbEntity
8
0
100
AcDbLine
62
6
6
CONTINUOUS
10
-30.4590312750
20
20.6769473668
11
-37.4590312750
21
20.6769473668
0
LINE
5
4A0
100
AcDbEntity
8
CURVE
100
AcDbLine
62
9
6
CONTINUOUS
10
-47.0847603894
20
21.4703557248
11
-46.8831420851
21
21.4703557248
0
LINE
5
4A1
100
AcDbEntity
8
0
100
AcDbLine
62
9
6
CONTINUOUS
10
-36.3354855116
20
21.4943785153
11
-31.5825770384
21
21.4943785153
0
LINE
5
4A2
100
AcDbEntity
8
CURVE
100
AcDbLine
62
9
6
CONTINUOUS
10
-47.8584827645
20
21.5383696577
11
-47.6568644601
21
21.5383696577
0
LINE
5
4A3
100
AcDbEntity
8
CURVE
100
AcDbLine
62
9
6
CONTINUOUS
10
-46.2606495793
20
21.5459852277
11
-46.0590312750
21
21.5459852277
0
LINE
5
4A4
100
AcDbEntity
8
0
100
AcDbLine
62
9
6
CONTINUOUS
10
-28.4590312750
20
21.6461486010
11
-28.9503050718
21
21.6461486010
0
LINE
5
4A5
100
AcDbEntity
8
0
100
AcDbLine
62
9
6
CONTINUOUS
10
-36.1314797729
20
21.6769473668
11
-31.7865421689
21
21.6769473668
0
LINE
5
4A6
100
AcDbEntity
8
0
100
AcDbLine
62
6
6
CONTINUOUS
10
-31.7857805602
20
21.6769473668
11
-31.7865421689
21
21.6769473668
0
LINE
5
4A7
100
AcDbEntity
8
0
100
AcDbLine
62
7
6
CONTINUOUS
10
-28.2694984437
20
21.5920143720
11
-26.7433301622
21
21.5120312815
0
LINE
5
4A8
100
AcDbEntity
8
0
100
AcDbLine
62
7
6
CONTINUOUS
10
-41.9151017767
20
27.3080178684
11
-43.4095357911
21
27.8519473668
0
LINE
5
4A9
100
AcDbEntity
8
0
100
AcDbLine
62
7
6
CONTINUOUS
10
-39.5741940821
20
25.0142419477
11
-38.1559620420
21
24.3839165965
0
LINE
5
4AA
100
AcDbEntity
8
0
100
AcDbLine
62
7
6
CONTINUOUS
10
-41.9151017767
20
-16.0041231349
11
-43.4095357911
21
-16.5480526332
0
LINE
5
4AB
100
AcDbEntity
8
0
100
AcDbLine
62
7
6
CONTINUOUS
10
-51.4112940879
20
22.8196159991
11
-54.9433902436
21
22.7579630314
0
LINE
5
4AC
100
AcDbEntity
8
0
100
AcDbLine
62
7
6
CONTINUOUS
10
-28.9503050718
20
23.4964449724
11
-37.8219192838
21
23.6512995745
0
LINE
5
4AD
100
AcDbEntity
8
0
100
AcDbLine
62
7
6
CONTINUOUS
10
-50.7263358922
20
26.2790959606
11
-51.1938935721
21
26.3200019571
0
LINE
5
4AE
100
AcDbEntity
8
0
100
AcDbLine
62
9
6
CONTINUOUS
10
-61.8368455635
20
26.1302431729
11
-62.3276348673
21
26.1082569202
0
LINE
5
4AF
100
AcDbEntity
8
0
100
AcDbLine
62
7
6
CONTINUOUS
10
-51.0563416609
20
25.7258117168
11
-55.1967205021
21
25.6535411353
0
LINE
5
4B0
100
AcDbEntity
8
0
100
AcDbLine
62
9
6
CONTINUOUS
10
-50.3443268760
20
27.9371819213
11
-49.5590312750
21
27.9509397799
0
LINE
5
4B1
100
AcDbEntity
8
0
100
AcDbLine
62
7
6
CONTINUOUS
10
-50.3368658638
20
28.0383702135
11
-49.5590312750
21
28.0519473668
0
LINE
5
4B2
100
AcDbEntity
8
0
100
AcDbLine
62
7
6
CONTINUOUS
10
-43.4095357911
20
27.8519473668
11
-43.9590312750
21
27.8519473668
0
LINE
5
4B3
100
AcDbEntity
8
0
100
AcDbLine
62
7
6
CONTINUOUS
10
-45.3625217563
20
26.8485172803
11
-41.5881764771
21
26.7826358384
0
LINE
5
4B4
100
AcDbEntity
8
0
100
AcDbLine
62
9
6
CONTINUOUS
10
-55.3581101258
20
27.4982329760
11
-61.4069497985
21
26.6481239994
0
LINE
5
4B5
100
AcDbEntity
8
0
100
AcDbLine
62
7
6
CONTINUOUS
10
-55.4017079430
20
27.9965583063
11
-61.4678433531
21
27.1440185723
0
LINE
5
4B6
100
AcDbEntity
8
0
100
AcDbLine
62
7
6
CONTINUOUS
10
-50.5841337030
20
27.4372398524
11
-51.1938935721
21
27.3838927764
0
LINE
5
4B7
100
AcDbEntity
8
0
100
AcDbLine
62
7
6
CONTINUOUS
10
-45.5590312750
20
29.0821271070
11
-49.5590312750
21
29.1519473668
0
LINE
5
4B8
100
AcDbEntity
8
0
100
AcDbLine
62
9
6
CONTINUOUS
10
-45.5590312750
20
28.9150547286
11
-49.5590312750
21
28.9853070242
0
ARC
5
4B9
100
AcDbEntity
8
0
100
AcDbCircle
62
7
6
CONTINUOUS
10
8.2512052174
20
5.6519473668
40
28.0000000000
100
AcDbArc
50
305.9627651514
51
307.0435233072
0
ARC
5
4BA
100
AcDbEntity
8
0
100
AcDbCircle
62
7
6
CONTINUOUS
10
24.4512052174
20
-17.4480526332
40
0.5000000000
100
AcDbArc
50
60.8875772240
51
189.1962815790
0
ARC
5
4BB
100
AcDbEntity
8
0
100
AcDbCircle
62
7
6
CONTINUOUS
10
8.2512052174
20
5.6519473668
40
28.0000000000
100
AcDbArc
50
303.5572117410
51
304.1210936517
0
ARC
5
4BC
100
AcDbEntity
8
0
100
AcDbCircle
62
7
6
CONTINUOUS
10
30.7512052174
20
5.6519473668
40
28.0000000000
100
AcDbArc
50
235.8789063483
51
236.4427882590
0
ARC
5
4BD
100
AcDbEntity
8
0
100
AcDbCircle
62
7
6
CONTINUOUS
10
14.5512052174
20
-17.4480526332
40
0.5000000000
100
AcDbArc
50
350.8037184210
51
119.1124227760
0
ARC
5
4BE
100
AcDbEntity
8
0
100
AcDbCircle
62
7
6
CONTINUOUS
10
30.7512052174
20
5.6519473668
40
28.0000000000
100
AcDbArc
50
125.9627651514
51
127.0504413394
0
ARC
5
4BF
100
AcDbEntity
8
0
100
AcDbCircle
62
7
6
CONTINUOUS
10
14.5512052174
20
28.7519473668
40
0.5000000000
100
AcDbArc
50
240.8875772240
51
9.1962815790
0
ARC
5
4C0
100
AcDbEntity
8
0
100
AcDbCircle
62
7
6
CONTINUOUS
10
30.7512052174
20
5.6519473668
40
28.0000000000
100
AcDbArc
50
123.5572119323
51
124.1210936517
0
ARC
5
4C1
100
AcDbEntity
8
0
100
AcDbCircle
62
7
6
CONTINUOUS
10
8.2512052174
20
5.6519473668
40
28.0000000000
100
AcDbArc
50
55.8789063483
51
56.4427880677
0
ARC
5
4C2
100
AcDbEntity
8
0
100
AcDbCircle
62
7
6
CONTINUOUS
10
24.4512052174
20
28.7519473668
40
0.5000000000
100
AcDbArc
50
170.8037184210
51
299.1124227760
0
ARC
5
4C3
100
AcDbEntity
8
0
100
AcDbCircle
62
7
6
CONTINUOUS
10
8.2512052174
20
5.6519473668
40
28.0000000000
100
AcDbArc
50
52.9495586606
51
54.0372348486
0
ARC
5
4C4
100
AcDbEntity
8
0
100
AcDbCircle
62
7
6
CONTINUOUS
10
-14.2487947826
20
5.6519473668
40
28.0000000000
100
AcDbArc
50
307.2167524546
51
308.2026770534
0
ARC
5
4C5
100
AcDbEntity
8
0
100
AcDbCircle
62
7
6
CONTINUOUS
10
8.2512052174
20
5.6519473668
40
28.0000000000
100
AcDbArc
50
231.7973229630
51
232.7832476643
0
ARC
5
4C6
100
AcDbEntity
8
0
100
AcDbCircle
62
7
6
CONTINUOUS
10
-14.2487947826
20
5.6519473668
40
27.9000000000
100
AcDbArc
50
55.7520965189
51
57.3831491754
0
ARC
5
4C7
100
AcDbEntity
8
0
100
AcDbCircle
62
7
6
CONTINUOUS
10
-14.2487947826
20
5.6519473668
40
27.9000000000
100
AcDbArc
50
53.4047963402
51
54.1640446780
0
ARC
5
4C8
100
AcDbEntity
8
0
100
AcDbCircle
62
7
6
CONTINUOUS
10
8.2512052174
20
5.6519473668
40
27.9000000000
100
AcDbArc
50
125.8359553220
51
126.5952036598
0
ARC
5
4C9
100
AcDbEntity
8
0
100
AcDbCircle
62
7
6
CONTINUOUS
10
8.2512052174
20
5.6519473668
40
27.9000000000
100
AcDbArc
50
122.6168508246
51
124.2479034811
0
ARC
5
4CA
100
AcDbEntity
8
0
100
AcDbCircle
62
7
6
CONTINUOUS
10
-14.2487947826
20
5.6519473668
40
27.9000000000
100
AcDbArc
50
305.8359553220
51
306.5952036598
0
ARC
5
4CB
100
AcDbEntity
8
0
100
AcDbCircle
62
7
6
CONTINUOUS
10
-14.2487947826
20
5.6519473668
40
27.9000000000
100
AcDbArc
50
302.6168508246
51
304.2479034811
0
ARC
5
4CC
100
AcDbEntity
8
0
100
AcDbCircle
62
7
6
CONTINUOUS
10
8.2512052174
20
5.6519473668
40
27.9000000000
100
AcDbArc
50
235.7520965189
51
237.3831491754
0
ARC
5
4CD
100
AcDbEntity
8
0
100
AcDbCircle
62
7
6
CONTINUOUS
10
8.2512052174
20
5.6519473668
40
27.9000000000
100
AcDbArc
50
233.4047963402
51
234.1640446780
0
ARC
5
4CE
100
AcDbEntity
8
0
100
AcDbCircle
62
7
6
CONTINUOUS
10
1.9512052174
20
-17.4480526332
40
0.5000000000
100
AcDbArc
50
74.3932919591
51
175.6905668440
0
ARC
5
4CF
100
AcDbEntity
8
0
100
AcDbCircle
62
7
6
CONTINUOUS
10
-7.9487947826
20
-17.4480526332
40
0.5000000000
100
AcDbArc
50
4.3094331560
51
105.6067080409
0
ARC
5
4D0
100
AcDbEntity
8
0
100
AcDbCircle
62
7
6
CONTINUOUS
10
1.9512052174
20
28.7519473668
40
0.5000000000
100
AcDbArc
50
184.3094331560
51
285.6067080409
0
ARC
5
4D1
100
AcDbEntity
8
0
100
AcDbCircle
62
7
6
CONTINUOUS
10
-7.9487947826
20
28.7519473668
40
0.5000000000
100
AcDbArc
50
254.3932919591
51
355.6905668440
0
ARC
5
4D2
100
AcDbEntity
8
0
100
AcDbCircle
62
7
6
CONTINUOUS
10
30.7512052174
20
5.6519473668
40
28.0000000000
100
AcDbArc
50
231.7974271806
51
234.0372348486
0
ARC
5
4D3
100
AcDbEntity
8
0
100
AcDbCircle
62
7
6
CONTINUOUS
10
8.3512052174
20
5.6519473668
40
27.9452085138
100
AcDbArc
50
307.0648293780
51
308.0591780874
0
ARC
5
4D4
100
AcDbEntity
8
0
100
AcDbCircle
62
7
6
CONTINUOUS
10
21.8012052174
20
-16.3480526332
40
0.5000000000
100
AcDbArc
50
233.1301023542
51
306.8698976458
0
ARC
5
4D5
100
AcDbEntity
8
0
100
AcDbCircle
62
7
6
CONTINUOUS
10
17.2012052174
20
-16.3480526332
40
0.5000000000
100
AcDbArc
50
233.1301023542
51
306.8698976458
0
ARC
5
4D6
100
AcDbEntity
8
0
100
AcDbCircle
62
7
6
CONTINUOUS
10
21.8012052174
20
27.6519473668
40
0.5000000000
100
AcDbArc
50
53.1301023542
51
126.8698976458
0
ARC
5
4D7
100
AcDbEntity
8
0
100
AcDbCircle
62
7
6
CONTINUOUS
10
17.2012052174
20
27.6519473668
40
0.5000000000
100
AcDbArc
50
53.1301023542
51
126.8698976458
0
ARC
5
4D8
100
AcDbEntity
8
0
100
AcDbCircle
62
6
6
CONTINUOUS
10
22.2719601157
20
-11.0480526332
40
0.2000000000
100
AcDbArc
50
185.0000000000
51
270.0000000000
0
ARC
5
4D9
100
AcDbEntity
8
0
100
AcDbCircle
62
6
6
CONTINUOUS
10
26.7304503191
20
-11.0480526332
40
0.2000000000
100
AcDbArc
50
270.0000000000
51
355.0000000000
0
ARC
5
4DA
100
AcDbEntity
8
0
100
AcDbCircle
62
6
6
CONTINUOUS
10
27.8012052174
20
-9.4480526332
40
0.2000000000
100
AcDbArc
50
0.0000000000
51
90.0000000000
0
ARC
5
4DB
100
AcDbEntity
8
0
100
AcDbCircle
62
6
6
CONTINUOUS
10
21.2012052174
20
-9.4480526332
40
0.2000000000
100
AcDbArc
50
90.0000000000
51
180.0000000000
0
ARC
5
4DC
100
AcDbEntity
8
0
100
AcDbCircle
62
6
6
CONTINUOUS
10
25.5512052174
20
-2.7480526332
40
0.2000000000
100
AcDbArc
50
0.0000000000
51
90.0000000000
0
ARC
5
4DD
100
AcDbEntity
8
0
100
AcDbCircle
62
6
6
CONTINUOUS
10
23.4512052174
20
-2.7480526332
40
0.2000000000
100
AcDbArc
50
90.0000000000
51
180.0000000000
0
ARC
5
4DE
100
AcDbEntity
8
0
100
AcDbCircle
62
6
6
CONTINUOUS
10
16.7304503191
20
-10.1730526332
40
0.2000000000
100
AcDbArc
50
270.0000000000
51
355.0000000000
0
ARC
5
4DF
100
AcDbEntity
8
0
100
AcDbCircle
62
6
6
CONTINUOUS
10
12.2719601157
20
-10.1730526332
40
0.2000000000
100
AcDbArc
50
185.0000000000
51
270.0000000000
0
ARC
5
4E0
100
AcDbEntity
8
0
100
AcDbCircle
62
6
6
CONTINUOUS
10
17.8012052174
20
-8.5730526332
40
0.2000000000
100
AcDbArc
50
0.0000000000
51
90.0000000000
0
ARC
5
4E1
100
AcDbEntity
8
0
100
AcDbCircle
62
6
6
CONTINUOUS
10
11.2012052174
20
-8.5730526332
40
0.2000000000
100
AcDbArc
50
90.0000000000
51
180.0000000000
0
ARC
5
4E2
100
AcDbEntity
8
0
100
AcDbCircle
62
6
6
CONTINUOUS
10
15.5512052174
20
-1.8730526332
40
0.2000000000
100
AcDbArc
50
0.0000000000
51
90.0000000000
0
ARC
5
4E3
100
AcDbEntity
8
0
100
AcDbCircle
62
6
6
CONTINUOUS
10
13.4512052174
20
-1.8730526332
40
0.2000000000
100
AcDbArc
50
90.0000000000
51
180.0000000000
0
ARC
5
4E4
100
AcDbEntity
8
0
100
AcDbCircle
62
6
6
CONTINUOUS
10
22.2719601157
20
21.4769473668
40
0.2000000000
100
AcDbArc
50
90.0000000000
51
175.0000000000
0
ARC
5
4E5
100
AcDbEntity
8
0
100
AcDbCircle
62
6
6
CONTINUOUS
10
26.7304503191
20
21.4769473668
40
0.2000000000
100
AcDbArc
50
5.0000000000
51
90.0000000000
0
ARC
5
4E6
100
AcDbEntity
8
0
100
AcDbCircle
62
6
6
CONTINUOUS
10
21.2012052174
20
19.8769473668
40
0.2000000000
100
AcDbArc
50
180.0000000000
51
270.0000000000
0
ARC
5
4E7
100
AcDbEntity
8
0
100
AcDbCircle
62
6
6
CONTINUOUS
10
27.8012052174
20
19.8769473668
40
0.2000000000
100
AcDbArc
50
270.0000000000
51
360.0000000000
0
ARC
5
4E8
100
AcDbEntity
8
0
100
AcDbCircle
62
6
6
CONTINUOUS
10
23.4512052174
20
13.1769473668
40
0.2000000000
100
AcDbArc
50
180.0000000000
51
270.0000000000
0
ARC
5
4E9
100
AcDbEntity
8
0
100
AcDbCircle
62
6
6
CONTINUOUS
10
25.5512052174
20
13.1769473668
40
0.2000000000
100
AcDbArc
50
270.0000000000
51
360.0000000000
0
ARC
5
4EA
100
AcDbEntity
8
0
100
AcDbCircle
62
7
6
CONTINUOUS
10
437.1546805691
20
48.8550490468
40
500.0000000000
100
AcDbArc
50
182.6074903398
51
187.3925096602
0
ARC
5
4EB
100
AcDbEntity
8
0
100
AcDbCircle
62
7
6
CONTINUOUS
10
-57.6976271884
20
-15.3492616118
40
1.0000000000
100
AcDbArc
50
187.3925096602
51
272.0000000000
0
ARC
5
4EC
100
AcDbEntity
8
0
100
AcDbCircle
62
7
6
CONTINUOUS
10
-61.3286702507
20
26.1537505038
40
1.0000000000
100
AcDbArc
50
98.0000000000
51
182.6074903398
0
ARC
5
4ED
100
AcDbEntity
8
0
100
AcDbCircle
62
7
6
CONTINUOUS
10
-51.0596898397
20
26.0257986439
40
0.2999999662
100
AcDbArc
50
271.0000000161
51
352.9659199143
0
ARC
5
4EE
100
AcDbEntity
8
0
100
AcDbCircle
62
7
6
CONTINUOUS
10
-51.1590312750
20
26.7184798364
40
0.4000000000
100
AcDbArc
50
180.0000000000
51
264.9999999564
0
ARC
5
4EF
100
AcDbEntity
8
0
100
AcDbCircle
62
7
6
CONTINUOUS
10
-51.1590312750
20
26.9854148971
40
0.4000000000
100
AcDbArc
50
95.0000000365
51
180.0000000000
0
ARC
5
4F0
100
AcDbEntity
8
0
100
AcDbCircle
62
7
6
CONTINUOUS
10
-51.1590312750
20
-15.6815201636
40
0.4000000000
100
AcDbArc
50
180.0000000000
51
264.9999999564
0
ARC
5
4F1
100
AcDbEntity
8
0
100
AcDbCircle
62
7
6
CONTINUOUS
10
-51.1590312750
20
-15.4145851029
40
0.4000000000
100
AcDbArc
50
95.0000000365
51
180.0000000000
0
ARC
5
4F2
100
AcDbEntity
8
0
100
AcDbCircle
62
7
6
CONTINUOUS
10
-52.2515214495
20
5.6519473668
40
1.0000000000
100
AcDbArc
50
173.0000000000
51
187.0000000000
0
ARC
5
4F3
100
AcDbEntity
8
0
100
AcDbCircle
62
7
6
CONTINUOUS
10
-50.3333753825
20
27.8384006745
40
0.2000000000
100
AcDbArc
50
91.0000000000
51
173.0000000000
0
ARC
5
4F4
100
AcDbEntity
8
0
100
AcDbCircle
62
7
6
CONTINUOUS
10
-50.3333753825
20
-16.5345059410
40
0.2000000000
100
AcDbArc
50
187.0000000000
51
269.0000000000
0
ARC
5
4F5
100
AcDbEntity
8
0
100
AcDbCircle
62
7
6
CONTINUOUS
10
-51.3218628589
20
-12.5866760180
40
0.2999999901
100
AcDbArc
50
6.9999916633
51
87.9999986959
0
ARC
5
4F6
100
AcDbEntity
8
0
100
AcDbCircle
62
7
6
CONTINUOUS
10
-51.4165298098
20
23.1195703076
40
0.3000000000
100
AcDbArc
50
271.0000000000
51
353.0000000000
0
ARC
5
4F7
100
AcDbEntity
8
0
100
AcDbCircle
62
7
6
CONTINUOUS
10
-28.2590312750
20
13.8121544534
40
0.2000000000
100
AcDbArc
50
92.9999565401
51
179.9991795507
0
ARC
5
4F8
100
AcDbEntity
8
0
100
AcDbCircle
62
7
6
CONTINUOUS
10
-28.2590312750
20
21.7917402801
40
0.2000000000
100
AcDbArc
50
180.0001204285
51
267.0000064695
0
ARC
5
4F9
100
AcDbEntity
8
0
100
AcDbCircle
62
7
6
CONTINUOUS
10
-28.2590312750
20
-10.4878455466
40
0.2000000000
100
AcDbArc
50
92.9999565401
51
179.9991795507
0
ARC
5
4FA
100
AcDbEntity
8
0
100
AcDbCircle
62
7
6
CONTINUOUS
10
-28.2590312750
20
-2.5082597199
40
0.2000000000
100
AcDbArc
50
180.0001204285
51
267.0000064695
0
ARC
5
4FB
100
AcDbEntity
8
0
100
AcDbCircle
62
7
6
CONTINUOUS
10
-26.7590312750
20
14.3914522953
40
0.3000000000
100
AcDbArc
50
273.0000522121
51
360.0000000000
0
ARC
5
4FC
100
AcDbEntity
8
0
100
AcDbCircle
62
7
6
CONTINUOUS
10
-26.7590312750
20
21.2124424382
40
0.3000000000
100
AcDbArc
50
0.0000000000
51
86.9999376692
0
ARC
5
4FD
100
AcDbEntity
8
0
100
AcDbCircle
62
7
6
CONTINUOUS
10
-26.7590312750
20
-9.9085477047
40
0.3000000000
100
AcDbArc
50
273.0000522121
51
360.0000000000
0
ARC
5
4FE
100
AcDbEntity
8
0
100
AcDbCircle
62
7
6
CONTINUOUS
10
-26.7590312750
20
-3.0875575618
40
0.3000000000
100
AcDbArc
50
0.0000000000
51
86.9999376692
0
ARC
5
4FF
100
AcDbEntity
8
0
100
AcDbCircle
62
7
6
CONTINUOUS
10
-45.3590312750
20
-15.7445920859
40
0.2000000000
100
AcDbArc
50
169.2157049554
51
180.0000000000
0
ARC
5
500
100
AcDbEntity
8
0
100
AcDbCircle
62
7
6
CONTINUOUS
10
-45.3590312750
20
-15.7445920859
40
0.2000000000
100
AcDbArc
50
91.0000000000
51
128.2214923363
0
ARC
5
501
100
AcDbEntity
8
0
100
AcDbCircle
62
7
6
CONTINUOUS
10
-45.3590312750
20
27.0484868194
40
0.2000000000
100
AcDbArc
50
180.0000000000
51
190.7842950448
0
ARC
5
502
100
AcDbEntity
8
0
100
AcDbCircle
62
7
6
CONTINUOUS
10
-45.3590312750
20
27.0484868194
40
0.2000000000
100
AcDbArc
50
261.3316317648
51
269.0000000000
0
ARC
5
503
100
AcDbEntity
8
0
100
AcDbCircle
62
7
6
CONTINUOUS
10
-41.5969026803
20
26.2827119909
40
0.5000000000
100
AcDbArc
50
45.0000000000
51
89.0000000000
0
ARC
5
504
100
AcDbEntity
8
0
100
AcDbCircle
62
7
6
CONTINUOUS
10
-41.5969077388
20
-14.9788173456
40
0.5000000000
100
AcDbArc
50
271.0005797537
51
315.0004170370
0
ARC
5
505
100
AcDbEntity
8
0
100
AcDbCircle
62
7
6
CONTINUOUS
10
-37.6590302309
20
23.8484868012
40
0.2000002983
100
AcDbArc
50
179.9999947788
51
268.9997008301
0
ARC
5
506
100
AcDbEntity
8
0
100
AcDbCircle
62
7
6
CONTINUOUS
10
-28.6590312750
20
-13.3560164534
40
0.2000000000
100
AcDbArc
50
271.0000000000
51
360.0000000000
0
ARC
5
507
100
AcDbEntity
8
0
100
AcDbCircle
62
7
6
CONTINUOUS
10
-28.9590312750
20
22.9965211249
40
0.5000000000
100
AcDbArc
50
0.0000000000
51
89.0000000000
0
ARC
5
508
100
AcDbEntity
8
0
100
AcDbCircle
62
7
6
CONTINUOUS
10
-28.9590312750
20
-13.0612072745
40
0.5000000000
100
AcDbArc
50
271.0000000000
51
360.0000000000
0
ARC
5
509
100
AcDbEntity
8
0
100
AcDbCircle
62
7
6
CONTINUOUS
10
-38.3590312750
20
23.9270108222
40
0.5000000000
100
AcDbArc
50
0.0000000000
51
66.0375110254
0
ARC
5
50A
100
AcDbEntity
8
0
100
AcDbCircle
62
7
6
CONTINUOUS
10
-39.3711248490
20
25.4711477220
40
0.5000000000
100
AcDbArc
50
225.0000000000
51
246.0375110254
0
ARC
5
50B
100
AcDbEntity
8
0
100
AcDbCircle
62
7
6
CONTINUOUS
10
-39.3640393070
20
-14.4430101589
40
0.7000000000
100
AcDbArc
50
91.0000000000
51
135.0000000000
0
ARC
5
50C
100
AcDbEntity
8
0
100
AcDbCircle
62
6
6
CONTINUOUS
10
-37.4590312750
20
-9.4480526332
40
0.2000000000
100
AcDbArc
50
90.0000000000
51
180.0000000000
0
ARC
5
50D
100
AcDbEntity
8
0
100
AcDbCircle
62
6
6
CONTINUOUS
10
-30.8590312750
20
-9.4480526332
40
0.2000000000
100
AcDbArc
50
0.0000000000
51
90.0000000000
0
ARC
5
50E
100
AcDbEntity
8
0
100
AcDbCircle
62
6
6
CONTINUOUS
10
-35.2090312750
20
-2.7480526332
40
0.2000000000
100
AcDbArc
50
90.0000000000
51
180.0000000000
0
ARC
5
50F
100
AcDbEntity
8
0
100
AcDbCircle
62
6
6
CONTINUOUS
10
-33.1090312750
20
-2.7480526332
40
0.2000000000
100
AcDbArc
50
0.0000000000
51
90.0000000000
0
ARC
5
510
100
AcDbEntity
8
0
100
AcDbCircle
62
6
6
CONTINUOUS
10
-30.6590312750
20
-8.5730526332
40
0.2000000000
100
AcDbArc
50
0.0000000000
51
90.0000000000
0
ARC
5
511
100
AcDbEntity
8
0
100
AcDbCircle
62
6
6
CONTINUOUS
10
-37.2590312750
20
-8.5730526332
40
0.2000000000
100
AcDbArc
50
90.0000000000
51
180.0000000000
0
ARC
5
512
100
AcDbEntity
8
0
100
AcDbCircle
62
6
6
CONTINUOUS
10
-32.9090312750
20
-1.8730526332
40
0.2000000000
100
AcDbArc
50
0.0000000000
51
90.0000000000
0
ARC
5
513
100
AcDbEntity
8
0
100
AcDbCircle
62
6
6
CONTINUOUS
10
-35.0090312750
20
-1.8730526332
40
0.2000000000
100
AcDbArc
50
90.0000000000
51
180.0000000000
0
ARC
5
514
100
AcDbEntity
8
0
100
AcDbCircle
62
6
6
CONTINUOUS
10
-30.6590312750
20
19.8769473668
40
0.2000000000
100
AcDbArc
50
270.0000000000
51
360.0000000000
0
ARC
5
515
100
AcDbEntity
8
0
100
AcDbCircle
62
6
6
CONTINUOUS
10
-37.2590312750
20
19.8769473668
40
0.2000000000
100
AcDbArc
50
180.0000000000
51
270.0000000000
0
ARC
5
516
100
AcDbEntity
8
0
100
AcDbCircle
62
6
6
CONTINUOUS
10
-32.9090312750
20
13.1769473668
40
0.2000000000
100
AcDbArc
50
270.0000000000
51
360.0000000000
0
ARC
5
517
100
AcDbEntity
8
0
100
AcDbCircle
62
6
6
CONTINUOUS
10
-35.0090312750
20
13.1769473668
40
0.2000000000
100
AcDbArc
50
180.0000000000
51
270.0000000000
0
SPLINE
5
518
100
AcDbEntity
8
0
100
AcDbSpline
62
7
6
CONTINUOUS
70
0
71
3
72
10
73
6
74
4
42
0.0000001000
43
0.0000001000
44
0.0000000001
12
0.5846646811
22
0.0000000000
32
0.0000000000
13
0.4872211172
23
0.3231847339
33
0.0000000000
40
0.0000000000
40
0.0000000000
40
0.0000000000
40
0.0000000000
40
0.3324081770
40
0.6679000849
40
1.0000000000
40
1.0000000000
40
1.0000000000
40
1.0000000000
10
23.1760628814
20
-17.8480526332
30
0.0000000000
10
23.2408453216
20
-17.8480526332
30
0.0000000000
10
23.3713750966
20
-17.8353156480
30
0.0000000000
10
23.5590574681
20
-17.7787088117
30
0.0000000000
10
23.6748122905
20
-17.7171889869
30
0.0000000000
10
23.7287476544
20
-17.6814124460
30
0.0000000000
11
23.1760628814
21
-17.8480526332
31
0.0000000000
11
23.3694901808
21
-17.8291645168
31
0.0000000000
11
23.5572846881
21
-17.7725239734
31
0.0000000000
11
23.7287476544
21
-17.6814124460
31
0.0000000000
0
SPLINE
5
519
100
AcDbEntity
8
0
100
AcDbSpline
62
7
6
CONTINUOUS
70
0
71
3
72
10
73
6
74
4
42
0.0000001000
43
0.0000001000
44
0.0000000001
12
0.4872211172
22
-0.3231847339
32
0.0000000000
13
0.5846646811
23
-0.0000000000
33
0.0000000000
40
0.0000000000
40
0.0000000000
40
0.0000000000
40
0.0000000000
40
0.3320999151
40
0.6675918230
40
1.0000000000
40
1.0000000000
40
1.0000000000
40
1.0000000000
10
15.2736627804
20
-17.6814124460
30
0.0000000000
10
15.3275981443
20
-17.7171889869
30
0.0000000000
10
15.4433529667
20
-17.7787088117
30
0.0000000000
10
15.6310353381
20
-17.8353156480
30
0.0000000000
10
15.7615651132
20
-17.8480526332
30
0.0000000000
10
15.8263475534
20
-17.8480526332
30
0.0000000000
11
15.2736627804
21
-17.6814124460
31
0.0000000000
11
15.4451257466
21
-17.7725239734
31
0.0000000000
11
15.6329202540
21
-17.8291645168
31
0.0000000000
11
15.8263475534
21
-17.8480526332
31
0.0000000000
0
SPLINE
5
51A
100
AcDbEntity
8
0
100
AcDbSpline
62
7
6
CONTINUOUS
70
0
71
3
72
10
73
6
74
4
42
0.0000001000
43
0.0000001000
44
0.0000000001
12
-0.5846646711
22
0.0000000000
32
0.0000000000
13
-0.4872211089
23
-0.3231847284
33
0.0000000000
40
0.0000000000
40
0.0000000000
40
0.0000000000
40
0.0000000000
40
0.3320970604
40
0.6676052029
40
1.0000000000
40
1.0000000000
40
1.0000000000
40
1.0000000000
10
15.8263474508
20
29.1519473668
30
0.0000000000
10
15.7616256446
20
29.1519473668
30
0.0000000000
10
15.6311543182
20
29.1392280869
30
0.0000000000
10
15.4434616672
20
29.0826548056
30
0.0000000000
10
15.3276459565
20
29.0211154350
30
0.0000000000
10
15.2736627027
20
28.9853071276
30
0.0000000000
11
15.8263474508
21
29.1519473668
31
0.0000000000
11
15.6330994705
21
29.1330945713
31
0.0000000000
11
15.4452858035
21
29.0764847041
31
0.0000000000
11
15.2736627027
21
28.9853071276
31
0.0000000000
0
SPLINE
5
51B
100
AcDbEntity
8
0
100
AcDbSpline
62
7
6
CONTINUOUS
70
0
71
3
72
10
73
6
74
4
42
0.0000001000
43
0.0000001000
44
0.0000000001
12
-0.4872211089
22
0.3231847284
32
0.0000000000
13
-0.5846646711
23
-0.0000000000
33
0.0000000000
40
0.0000000000
40
0.0000000000
40
0.0000000000
40
0.0000000000
40
0.3323947971
40
0.6679029396
40
1.0000000000
40
1.0000000000
40
1.0000000000
40
1.0000000000
10
23.7287477321
20
28.9853071276
30
0.0000000000
10
23.6747644782
20
29.0211154350
30
0.0000000000
10
23.5589487675
20
29.0826548056
30
0.0000000000
10
23.3712561166
20
29.1392280869
30
0.0000000000
10
23.2407847902
20
29.1519473668
30
0.0000000000
10
23.1760629840
20
29.1519473668
30
0.0000000000
11
23.7287477321
21
28.9853071276
31
0.0000000000
11
23.5571246312
21
29.0764847041
31
0.0000000000
11
23.3693109643
21
29.1330945713
31
0.0000000000
11
23.1760629840
21
29.1519473668
31
0.0000000000
0
SPLINE
5
51C
100
AcDbEntity
8
0
100
AcDbSpline
62
7
6
CONTINUOUS
70
0
71
3
72
9
73
5
74
3
42
0.0000001000
43
0.0000001000
44
0.0000000001
12
0.2342483304
22
0.0000000000
32
0.0000000000
13
0.2097817105
23
-0.1069838161
33
0.0000000000
40
0.0000000000
40
0.0000000000
40
0.0000000000
40
0.0000000000
40
0.6883412561
40
1.0000000000
40
1.0000000000
40
1.0000000000
40
1.0000000000
10
2.3841490022
20
28.0518295542
30
0.0000000000
10
2.4378965988
20
28.0518295542
30
0.0000000000
10
2.5164996143
20
28.0389981401
30
0.0000000000
10
2.5891059185
20
28.0083803086
30
0.0000000000
10
2.6108993533
20
27.9972661614
30
0.0000000000
11
2.3841490022
21
28.0518295542
31
0.0000000000
11
2.5432666718
21
28.0257373228
31
0.0000000000
11
2.6108993533
21
27.9972661614
31
0.0000000000
0
SPLINE
5
51D
100
AcDbEntity
8
0
100
AcDbSpline
62
7
6
CONTINUOUS
70
0
71
3
72
9
73
5
74
3
42
0.0000001000
43
0.0000001000
44
0.0000000001
12
-0.2574971065
22
-0.1955696327
32
0.0000000000
13
-0.3233453898
23
0.0000000000
33
0.0000000000
40
0.0000000000
40
0.0000000000
40
0.0000000000
40
0.0000000000
40
0.5013295533
40
1.0000000000
40
1.0000000000
40
1.0000000000
40
1.0000000000
10
2.6865007417
20
-16.6459396640
30
0.0000000000
10
2.6434704386
20
-16.6786212762
30
0.0000000000
10
2.5463965080
20
-16.7302229379
30
0.0000000000
10
2.4378965988
20
-16.7479348207
30
0.0000000000
10
2.3841490022
20
-16.7479348207
30
0.0000000000
11
2.6865007417
21
-16.6459396640
31
0.0000000000
11
2.5432666718
21
-16.7218425893
31
0.0000000000
11
2.3841490022
21
-16.7479348207
31
0.0000000000
0
SPLINE
5
51E
100
AcDbEntity
8
0
100
AcDbSpline
62
7
6
CONTINUOUS
70
0
71
3
72
9
73
5
74
3
42
0.0000001000
43
0.0000001000
44
0.0000000001
12
0.2097817162
22
0.1069838058
32
0.0000000000
13
0.2342483305
23
0.0000000000
33
0.0000000000
40
0.0000000000
40
0.0000000000
40
0.0000000000
40
0.0000000000
40
0.3116587442
40
1.0000000000
40
1.0000000000
40
1.0000000000
40
1.0000000000
10
-8.6084889195
20
27.9972661634
30
0.0000000000
10
-8.5866954841
20
28.0083803096
30
0.0000000000
10
-8.5140891792
20
28.0389981389
30
0.0000000000
10
-8.4354861640
20
28.0518295542
30
0.0000000000
10
-8.3817385674
20
28.0518295542
30
0.0000000000
11
-8.6084889195
21
27.9972661634
31
0.0000000000
11
-8.5408562370
21
28.0257373228
31
0.0000000000
11
-8.3817385674
21
28.0518295542
31
0.0000000000
0
SPLINE
5
51F
100
AcDbEntity
8
0
100
AcDbSpline
62
7
6
CONTINUOUS
70
0
71
3
72
9
73
5
74
3
42
0.0000001000
43
0.0000001000
44
0.0000000001
12
-0.3233453309
22
0.0000000000
32
0.0000000000
13
-0.2574970596
23
0.1955695971
33
0.0000000000
40
0.0000000000
40
0.0000000000
40
0.0000000000
40
0.0000000000
40
0.4986705375
40
1.0000000000
40
1.0000000000
40
1.0000000000
40
1.0000000000
10
-8.3817385674
20
-16.7479348207
30
0.0000000000
10
-8.4354861640
20
-16.7479348207
30
0.0000000000
10
-8.5439860539
20
-16.7302229427
30
0.0000000000
10
-8.6410599674
20
-16.6786212919
30
0.0000000000
10
-8.6840902549
20
-16.6459396916
30
0.0000000000
11
-8.3817385674
21
-16.7479348207
31
0.0000000000
11
-8.5408562370
21
-16.7218425893
31
0.0000000000
11
-8.6840902549
21
-16.6459396916
31
0.0000000000
0
SPLINE
5
520
100
AcDbEntity
8
0
100
AcDbSpline
62
7
6
CONTINUOUS
70
0
71
3
72
8
73
4
74
2
42
0.0000001000
43
0.0000001000
44
0.0000000001
12
-0.3236757496
22
-0.2550840792
32
0.0000000000
13
-0.3273516072
23
-0.2502387618
33
0.0000000000
40
0.0000000000
40
0.0000000000
40
0.0000000000
40
0.0000000000
40
1.0000000000
40
1.0000000000
40
1.0000000000
40
1.0000000000
10
3.0443376685
20
-16.3513796913
30
0.0000000000
10
2.9364457519
20
-16.4364077177
30
0.0000000000
10
2.8279342746
20
-16.5206338945
30
0.0000000000
10
2.7188170722
20
-16.6040468152
30
0.0000000000
11
3.0443376685
21
-16.3513796913
31
0.0000000000
11
2.7188170722
21
-16.6040468152
31
0.0000000000
0
SPLINE
5
521
100
AcDbEntity
8
0
100
AcDbSpline
62
7
6
CONTINUOUS
70
0
71
3
72
8
73
4
74
2
42
0.0000001000
43
0.0000001000
44
0.0000000001
12
0.3236756919
22
-0.2550841455
32
0.0000000000
13
0.3273514866
23
-0.2502389104
33
0.0000000000
40
0.0000000000
40
0.0000000000
40
0.0000000000
40
0.0000000000
40
1.0000000000
40
1.0000000000
40
1.0000000000
40
1.0000000000
10
-9.0419271459
20
-16.3513795855
30
0.0000000000
10
-8.9340352485
20
-16.4364076340
30
0.0000000000
10
-8.8255237997
20
-16.5206338450
30
0.0000000000
10
-8.7164066375
20
-16.6040468151
30
0.0000000000
11
-9.0419271459
21
-16.3513795855
31
0.0000000000
11
-8.7164066375
21
-16.6040468151
31
0.0000000000
0
SPLINE
5
522
100
AcDbEntity
8
0
100
AcDbSpline
62
9
6
CONTINUOUS
70
0
71
3
72
10
73
6
74
4
42
0.0000001000
43
0.0000001000
44
0.0000000001
12
0.0315206205
22
-0.0413434880
32
0.0000000000
13
0.0316159343
23
-0.0412706459
33
0.0000000000
40
0.0000000000
40
0.0000000000
40
0.0000000000
40
0.0000000000
40
0.3332342386
40
0.6665681207
40
1.0000000000
40
1.0000000000
40
1.0000000000
40
1.0000000000
10
-8.4125884023
20
-16.7067455452
30
0.0000000000
10
-8.4090871523
20
-16.7113379005
30
0.0000000000
10
-8.4020800741
20
-16.7205212925
30
0.0000000000
10
-8.3915573125
20
-16.7342903294
30
0.0000000000
10
-8.3845340325
20
-16.7434656502
30
0.0000000000
10
-8.3810201124
20
-16.7480526332
30
0.0000000000
11
-8.4125884023
21
-16.7067455452
31
0.0000000000
11
-8.4020793573
21
-16.7205185723
31
0.0000000000
11
-8.3915565785
21
-16.7342876301
31
0.0000000000
11
-8.3810201124
21
-16.7480526332
31
0.0000000000
0
SPLINE
5
523
100
AcDbEntity
8
0
100
AcDbSpline
62
9
6
CONTINUOUS
70
0
71
3
72
10
73
6
74
4
42
0.0000001000
43
0.0000001000
44
0.0000000001
12
0.0316159344
22
0.0412706460
32
0.0000000000
13
0.0315206206
23
0.0413434881
33
0.0000000000
40
0.0000000000
40
0.0000000000
40
0.0000000000
40
0.0000000000
40
0.3334331566
40
0.6667683116
40
1.0000000000
40
1.0000000000
40
1.0000000000
40
1.0000000000
10
2.3834305469
20
-16.7480526332
30
0.0000000000
10
2.3869444805
20
-16.7434656327
30
0.0000000000
10
2.3939677875
20
-16.7342902769
30
0.0000000000
10
2.4044905490
20
-16.7205212398
30
0.0000000000
10
2.4114976138
20
-16.7113378654
30
0.0000000000
10
2.4149988370
20
-16.7067455452
30
0.0000000000
11
2.3834305469
21
-16.7480526332
31
0.0000000000
11
2.3939670535
21
-16.7342875774
31
0.0000000000
11
2.4044898725
21
-16.7205184671
31
0.0000000000
11
2.4149988370
21
-16.7067455452
31
0.0000000000
0
SPLINE
5
524
100
AcDbEntity
8
0
100
AcDbSpline
62
9
6
CONTINUOUS
70
0
71
3
72
10
73
6
74
4
42
0.0000001000
43
0.0000001000
44
0.0000000001
12
0.0323645382
22
0.0418557011
32
0.0000000000
13
0.0322682064
23
0.0419300120
33
0.0000000000
40
0.0000000000
40
0.0000000000
40
0.0000000000
40
0.0000000000
40
0.3334318961
40
0.6667661491
40
1.0000000000
40
1.0000000000
40
1.0000000000
40
1.0000000000
10
2.6865006875
20
-16.6459396932
30
0.0000000000
10
2.6900978106
20
-16.6412876846
30
0.0000000000
10
2.6972874376
20
-16.6319822718
30
0.0000000000
10
2.7080595645
20
-16.6180179718
30
0.0000000000
10
2.7152327860
20
-16.6087043149
30
0.0000000000
10
2.7188170722
20
-16.6040468152
30
0.0000000000
11
2.6865006875
21
-16.6459396932
31
0.0000000000
11
2.6972867056
21
-16.6319795313
31
0.0000000000
11
2.7080588618
21
-16.6180151944
31
0.0000000000
11
2.7188170722
21
-16.6040468152
31
0.0000000000
0
SPLINE
5
525
100
AcDbEntity
8
0
100
AcDbSpline
62
9
6
CONTINUOUS
70
0
71
3
72
10
73
6
74
4
42
0.0000001000
43
0.0000001000
44
0.0000000001
12
0.0322682062
22
-0.0419300118
32
0.0000000000
13
0.0323645380
23
-0.0418557009
33
0.0000000000
40
0.0000000000
40
0.0000000000
40
0.0000000000
40
0.0000000000
40
0.3332358079
40
0.6665690855
40
1.0000000000
40
1.0000000000
40
1.0000000000
40
1.0000000000
10
-8.7164066375
20
-16.6040468151
30
0.0000000000
10
-8.7128223302
20
-16.6087043422
30
0.0000000000
10
-8.7056490982
20
-16.6180180127
30
0.0000000000
10
-8.6948769713
20
-16.6319823127
30
0.0000000000
10
-8.6876873655
20
-16.6412876982
30
0.0000000000
10
-8.6840902530
20
-16.6459396930
30
0.0000000000
11
-8.7164066375
21
-16.6040468151
31
0.0000000000
11
-8.7056483639
21
-16.6180152763
31
0.0000000000
11
-8.6948762392
21
-16.6319795722
31
0.0000000000
11
-8.6840902530
21
-16.6459396930
31
0.0000000000
0
SPLINE
5
526
100
AcDbEntity
8
0
100
AcDbSpline
62
9
6
CONTINUOUS
70
0
71
3
72
10
73
6
74
4
42
0.0000001000
43
0.0000001000
44
0.0000000001
12
-0.1658279881
22
-0.0744221258
32
0.0000000000
13
-0.1114294938
23
0.1436002867
33
0.0000000000
40
0.0000000000
40
0.0000000000
40
0.0000000000
40
0.0000000000
40
0.1412625562
40
0.5012066926
40
1.0000000000
40
1.0000000000
40
1.0000000000
40
1.0000000000
10
2.7187975183
20
-16.6040211609
30
0.0000000000
10
2.7109890898
20
-16.6075255142
30
0.0000000000
10
2.6879695010
20
-16.5710658955
30
0.0000000000
10
2.6490031761
20
-16.5384292683
30
0.0000000000
10
2.6161054468
20
-16.4932709290
30
0.0000000000
10
2.5975786849
20
-16.4693953084
30
0.0000000000
11
2.7187975183
21
-16.6040211609
31
0.0000000000
11
2.6982903682
21
-16.5885704256
31
0.0000000000
11
2.6545127275
21
-16.5399508915
31
0.0000000000
11
2.5975786849
21
-16.4693953084
31
0.0000000000
0
SPLINE
5
527
100
AcDbEntity
8
0
100
AcDbSpline
62
9
6
CONTINUOUS
70
0
71
3
72
10
73
6
74
4
42
0.0000001000
43
0.0000001000
44
0.0000000001
12
-0.1114475588
22
-0.1436235642
32
0.0000000000
13
-0.1658783151
23
0.0743819275
33
0.0000000000
40
0.0000000000
40
0.0000000000
40
0.0000000000
40
0.0000000000
40
0.4987811298
40
0.8587291876
40
1.0000000000
40
1.0000000000
40
1.0000000000
40
1.0000000000
10
-8.5951682501
20
-16.4693953085
30
0.0000000000
10
-8.6136975632
20
-16.4932742164
30
0.0000000000
10
-8.6465990367
20
-16.5384384513
30
0.0000000000
10
-8.6855747119
20
-16.5710833738
30
0.0000000000
10
-8.7085938741
20
-16.6075475025
30
0.0000000000
10
-8.7164051289
20
-16.6040448374
30
0.0000000000
11
-8.5951682501
21
-16.4693953085
31
0.0000000000
11
-8.6521099594
21
-16.5399607456
31
0.0000000000
11
-8.6958945250
21
-16.5885892752
31
0.0000000000
11
-8.7164051289
21
-16.6040448374
31
0.0000000000
0
SPLINE
5
528
100
AcDbEntity
8
0
100
AcDbSpline
62
9
6
CONTINUOUS
70
0
71
3
72
10
73
6
74
4
42
0.0000001000
43
0.0000001000
44
0.0000000001
12
0.2590201609
22
-0.1976631525
32
0.0000000000
13
0.3258252203
23
0.0003023573
33
0.0000000000
40
0.0000000000
40
0.0000000000
40
0.0000000000
40
0.0000000000
40
0.3341293940
40
0.6673063544
40
1.0000000000
40
1.0000000000
40
1.0000000000
40
1.0000000000
10
-8.7164066375
20
-16.6040468151
30
0.0000000000
10
-8.6875578877
20
-16.6260618383
30
0.0000000000
10
-8.6249298255
20
-16.6638795550
30
0.0000000000
10
-8.5213008909
20
-16.6988966397
30
0.0000000000
10
-8.4487217292
20
-16.7067790760
30
0.0000000000
10
-8.4125884024
20
-16.7067455452
30
0.0000000000
11
-8.7164066375
21
-16.6040468151
31
0.0000000000
11
-8.6232047323
21
-16.6603105632
31
0.0000000000
11
-8.5203555823
21
-16.6950493578
31
0.0000000000
11
-8.4125884024
21
-16.7067455452
31
0.0000000000
0
SPLINE
5
529
100
AcDbEntity
8
0
100
AcDbSpline
62
9
6
CONTINUOUS
70
0
71
3
72
9
73
5
74
3
42
0.0000001000
43
0.0000001000
44
0.0000000001
12
-0.2584159958
22
-0.1971312267
32
0.0000000000
13
-0.3250222679
23
0.0002697731
33
0.0000000000
40
0.0000000000
40
0.0000000000
40
0.0000000000
40
0.0000000000
40
0.5008540138
40
1.0000000000
40
1.0000000000
40
1.0000000000
40
1.0000000000
10
2.7188170722
20
-16.6040468151
30
0.0000000000
10
2.6756741760
20
-16.6369581372
30
0.0000000000
10
2.5781657677
20
-16.6889909916
30
0.0000000000
10
2.4690766907
20
-16.7067904306
30
0.0000000000
10
2.4149988372
20
-16.7067455452
30
0.0000000000
11
2.7188170722
21
-16.6040468151
31
0.0000000000
11
2.5750941550
21
-16.6804922505
31
0.0000000000
11
2.4149988372
21
-16.7067455452
31
0.0000000000
0
SPLINE
5
52A
100
AcDbEntity
8
0
100
AcDbSpline
62
9
6
CONTINUOUS
70
0
71
3
72
9
73
5
74
3
42
0.0000001000
43
0.0000001000
44
0.0000000001
12
-0.1179010979
22
0.0001094083
32
0.0000000000
13
-0.1148835833
23
-0.0276201190
33
0.0000000000
40
0.0000000000
40
0.0000000000
40
0.0000000000
40
0.0000000000
40
0.9194147848
40
1.0000000000
40
1.0000000000
40
1.0000000000
40
1.0000000000
10
-8.4125884024
20
28.0106402788
30
0.0000000000
10
-8.4487217399
20
28.0106738093
30
0.0000000000
10
-8.4881634065
20
28.0063902589
30
0.0000000000
10
-8.5265491120
20
27.9975486835
30
0.0000000000
10
-8.5296350847
20
27.9968067591
30
0.0000000000
11
-8.4125884024
21
28.0106402788
31
0.0000000000
11
-8.5203556139
21
27.9989440843
31
0.0000000000
11
-8.5296350847
21
27.9968067591
31
0.0000000000
0
SPLINE
5
52B
100
AcDbEntity
8
0
100
AcDbSpline
62
9
6
CONTINUOUS
70
0
71
3
72
8
73
4
74
2
42
0.0000001000
43
0.0000001000
44
0.0000000001
12
0.1170638321
22
0.0000971606
32
0.0000000000
13
0.1145576812
23
-0.0273474289
33
0.0000000000
40
0.0000000000
40
0.0000000000
40
0.0000000000
40
0.0000000000
40
1.0000000000
40
1.0000000000
40
1.0000000000
40
1.0000000000
10
2.4149988372
20
28.0106402788
30
0.0000000000
10
2.4540201145
20
28.0106726656
30
0.0000000000
10
2.4932358745
20
28.0060557661
30
0.0000000000
10
2.5314217682
20
27.9969399565
30
0.0000000000
11
2.4149988372
21
28.0106402788
31
0.0000000000
11
2.5314217682
21
27.9969399565
31
0.0000000000
0
SPLINE
5
52C
100
AcDbEntity
8
0
100
AcDbSpline
62
9
6
CONTINUOUS
70
0
71
3
72
10
73
6
74
4
42
0.0000001000
43
0.0000001000
44
0.0000000001
12
-0.0316159344
22
-0.0412706461
32
0.0000000000
13
-0.0315206206
23
-0.0413434881
33
0.0000000000
40
0.0000000000
40
0.0000000000
40
0.0000000000
40
0.0000000000
40
0.3334318816
40
0.6667657626
40
1.0000000000
40
1.0000000000
40
1.0000000000
40
1.0000000000
10
-8.3810201121
20
28.0519473668
30
0.0000000000
10
-8.3845340323
20
28.0473603837
30
0.0000000000
10
-8.3915573125
20
28.0381850630
30
0.0000000000
10
-8.4020800740
20
28.0244160260
30
0.0000000000
10
-8.4090871523
20
28.0152326340
30
0.0000000000
10
-8.4125884023
20
28.0106402788
30
0.0000000000
11
-8.3810201121
21
28.0519473668
31
0.0000000000
11
-8.3915565785
21
28.0381823636
31
0.0000000000
11
-8.4020793573
21
28.0244133059
31
0.0000000000
11
-8.4125884023
21
28.0106402788
31
0.0000000000
0
SPLINE
5
52D
100
AcDbEntity
8
0
100
AcDbSpline
62
9
6
CONTINUOUS
70
0
71
3
72
10
73
6
74
4
42
0.0000001000
43
0.0000001000
44
0.0000000001
12
-0.0315206205
22
0.0413434879
32
0.0000000000
13
-0.0316159342
23
0.0412706459
33
0.0000000000
40
0.0000000000
40
0.0000000000
40
0.0000000000
40
0.0000000000
40
0.3332316871
40
0.6665668446
40
1.0000000000
40
1.0000000000
40
1.0000000000
40
1.0000000000
10
2.4149988370
20
28.0106402788
30
0.0000000000
10
2.4114976138
20
28.0152325988
30
0.0000000000
10
2.4044905491
20
28.0244159733
30
0.0000000000
10
2.3939677875
20
28.0381850102
30
0.0000000000
10
2.3869444808
20
28.0473603662
30
0.0000000000
10
2.3834305472
20
28.0519473668
30
0.0000000000
11
2.4149988370
21
28.0106402788
31
0.0000000000
11
2.4044898725
21
28.0244132005
31
0.0000000000
11
2.3939670536
21
28.0381823109
31
0.0000000000
11
2.3834305472
21
28.0519473668
31
0.0000000000
0
SPLINE
5
52E
100
AcDbEntity
8
0
100
AcDbSpline
62
7
6
CONTINUOUS
70
0
71
3
72
11
73
7
74
5
42
0.0000001000
43
0.0000001000
44
0.0000000001
12
0.0554308687
22
0.1664278388
32
0.0000000000
13
0.0003759531
23
0.1754156931
33
0.0000000000
40
0.0000000000
40
0.0000000000
40
0.0000000000
40
0.0000000000
40
0.0887086314
40
0.3042381336
40
0.6212797859
40
1.0000000000
40
1.0000000000
40
1.0000000000
40
1.0000000000
10
0.2127114222
20
-16.7067455452
30
0.0000000000
10
0.2143504877
20
-16.7018243500
30
0.0000000000
10
0.2132182317
20
-16.6835559968
30
0.0000000000
10
0.2156639281
20
-16.6476455156
30
0.0000000000
10
0.2155166302
20
-16.5941631454
30
0.0000000000
10
0.2159462478
20
-16.5535379966
30
0.0000000000
10
0.2159937082
20
-16.5313935070
30
0.0000000000
11
0.2127114222
21
-16.7067455452
31
0.0000000000
11
0.2138882904
21
-16.6912291904
31
0.0000000000
11
0.2149068612
21
-16.6534355697
31
0.0000000000
11
0.2156391569
21
-16.5978261823
31
0.0000000000
11
0.2159937082
21
-16.5313935070
31
0.0000000000
0
SPLINE
5
52F
100
AcDbEntity
8
0
100
AcDbSpline
62
7
6
CONTINUOUS
70
0
71
3
72
11
73
7
74
5
42
0.0000001000
43
0.0000001000
44
0.0000000001
12
0.0003759530
22
-0.1754156304
32
0.0000000000
13
0.0554308489
23
-0.1664277793
33
0.0000000000
40
0.0000000000
40
0.0000000000
40
0.0000000000
40
0.0000000000
40
0.3772011303
40
0.6940741599
40
0.9106328018
40
1.0000000000
40
1.0000000000
40
1.0000000000
40
1.0000000000
10
-6.2135832734
20
-16.5313935070
30
0.0000000000
10
-6.2135360034
20
-16.5534491650
30
0.0000000000
10
-6.2131083032
20
-16.5939759485
30
0.0000000000
10
-6.2132577389
20
-16.6474194253
30
0.0000000000
10
-6.2108048613
20
-16.6834172716
30
0.0000000000
10
-6.2119522206
20
-16.7017878171
30
0.0000000000
10
-6.2103009874
20
-16.7067455452
30
0.0000000000
11
-6.2135832734
21
-16.5313935070
31
0.0000000000
11
-6.2132310881
21
-16.5975596957
31
0.0000000000
11
-6.2125019676
21
-16.6531395234
31
0.0000000000
11
-6.2114826133
21
-16.6911137023
31
0.0000000000
11
-6.2103009874
21
-16.7067455452
31
0.0000000000
0
SPLINE
5
530
100
AcDbEntity
8
0
100
AcDbSpline
62
7
6
CONTINUOUS
70
0
71
3
72
8
73
4
74
2
42
0.0000001000
43
0.0000001000
44
0.0000000001
12
-0.0044729757
22
-0.0134298398
32
0.0000000000
13
0.0004139206
23
-0.0143968189
33
0.0000000000
40
0.0000000000
40
0.0000000000
40
0.0000000000
40
0.0000000000
40
1.0000000000
40
1.0000000000
40
1.0000000000
40
1.0000000000
10
-6.2103009874
20
28.0106402788
30
0.0000000000
10
-6.2117919793
20
28.0061636655
30
0.0000000000
10
-6.2116633926
20
28.0013538383
30
0.0000000000
10
-6.2115254191
20
27.9965548986
30
0.0000000000
11
-6.2103009874
21
28.0106402788
31
0.0000000000
11
-6.2115254191
21
27.9965548986
31
0.0000000000
0
SPLINE
5
531
100
AcDbEntity
8
0
100
AcDbSpline
62
7
6
CONTINUOUS
70
0
71
3
72
8
73
4
74
2
42
0.0000001000
43
0.0000001000
44
0.0000000001
12
0.0004094549
22
0.0143935611
32
0.0000000000
13
-0.0044722118
23
0.0134275462
33
0.0000000000
40
0.0000000000
40
0.0000000000
40
0.0000000000
40
0.0000000000
40
1.0000000000
40
1.0000000000
40
1.0000000000
40
1.0000000000
10
0.2139268328
20
27.9965552121
30
0.0000000000
10
0.2140633178
20
28.0013530658
30
0.0000000000
10
0.2142021594
20
28.0061644300
30
0.0000000000
10
0.2127114222
20
28.0106402788
30
0.0000000000
11
0.2139268328
21
27.9965552121
31
0.0000000000
11
0.2127114222
21
28.0106402788
31
0.0000000000
0
SPLINE
5
532
100
AcDbEntity
8
0
100
AcDbSpline
62
9
6
CONTINUOUS
70
0
71
3
72
8
73
4
74
2
42
0.0000001000
43
0.0000001000
44
0.0000000001
12
-0.1535171560
22
-0.1190707689
32
0.0000000000
13
-0.1543351579
23
-0.1179820928
33
0.0000000000
40
0.0000000000
40
0.0000000000
40
0.0000000000
40
0.0000000000
40
1.0000000000
40
1.0000000000
40
1.0000000000
40
1.0000000000
10
2.7515055783
20
-16.3508682727
30
0.0000000000
10
2.7003331930
20
-16.3905585290
30
0.0000000000
10
2.6490237376
20
-16.4300679443
30
0.0000000000
10
2.5975786849
20
-16.4693953085
30
0.0000000000
11
2.7515055783
21
-16.3508682727
31
0.0000000000
11
2.5975786849
21
-16.4693953085
31
0.0000000000
0
SPLINE
5
533
100
AcDbEntity
8
0
100
AcDbSpline
62
9
6
CONTINUOUS
70
0
71
3
72
9
73
5
74
3
42
0.0000001000
43
0.0000001000
44
0.0000000001
12
-0.1552630641
22
-0.1186630013
32
0.0000000000
13
-0.1954162914
23
0.0000033326
33
0.0000000000
40
0.0000000000
40
0.0000000000
40
0.0000000000
40
0.0000000000
40
0.5010908537
40
1.0000000000
40
1.0000000000
40
1.0000000000
40
1.0000000000
10
2.5975786849
20
-16.4693953085
30
0.0000000000
10
2.5716450511
20
-16.4892156234
30
0.0000000000
10
2.5130783336
20
-16.5205991323
30
0.0000000000
10
2.4474971622
20
-16.5313940612
30
0.0000000000
10
2.4149988372
20
-16.5313935070
30
0.0000000000
11
2.5975786849
21
-16.4693953085
31
0.0000000000
11
2.5111892846
21
-16.5154979733
31
0.0000000000
11
2.4149988372
21
-16.5313935070
31
0.0000000000
0
SPLINE
5
534
100
AcDbEntity
8
0
100
AcDbSpline
62
9
6
CONTINUOUS
70
0
71
3
72
10
73
6
74
4
42
0.0000001000
43
0.0000001000
44
0.0000000001
12
0.1555984187
22
-0.1190161755
32
0.0000000000
13
0.1958972087
23
0.0000394892
33
0.0000000000
40
0.0000000000
40
0.0000000000
40
0.0000000000
40
0.0000000000
40
0.3350727552
40
0.6686945144
40
1.0000000000
40
1.0000000000
40
1.0000000000
40
1.0000000000
10
-8.5951682501
20
-16.4693953085
30
0.0000000000
10
-8.5777893199
20
-16.4826883345
30
0.0000000000
10
-8.5400780528
20
-16.5055093547
30
0.0000000000
10
-8.4777923767
20
-16.5266219508
30
0.0000000000
10
-8.4342223423
20
-16.5313978680
30
0.0000000000
10
-8.4125884024
20
-16.5313935070
30
0.0000000000
11
-8.5951682501
21
-16.4693953085
31
0.0000000000
11
-8.5390072395
21
-16.5033736354
31
0.0000000000
11
-8.4771056989
21
-16.5243390867
31
0.0000000000
11
-8.4125884024
21
-16.5313935070
31
0.0000000000
0
SPLINE
5
535
100
AcDbEntity
8
0
100
AcDbSpline
62
9
6
CONTINUOUS
70
0
71
3
72
8
73
4
74
2
42
0.0000001000
43
0.0000001000
44
0.0000000001
12
0.1535175811
22
-0.1190712618
32
0.0000000000
13
0.1543355550
23
-0.1179826229
33
0.0000000000
40
0.0000000000
40
0.0000000000
40
0.0000000000
40
0.0000000000
40
1.0000000000
40
1.0000000000
40
1.0000000000
40
1.0000000000
10
-8.7490955550
20
-16.3508677616
30
0.0000000000
10
-8.6979230280
20
-16.3905581822
30
0.0000000000
10
-8.6466134351
20
-16.4300677676
30
0.0000000000
10
-8.5951682501
20
-16.4693953085
30
0.0000000000
11
-8.7490955550
21
-16.3508677616
31
0.0000000000
11
-8.5951682501
21
-16.4693953085
31
0.0000000000
0
SPLINE
5
536
100
AcDbEntity
8
0
100
AcDbSpline
62
7
6
CONTINUOUS
70
0
71
3
72
9
73
5
74
3
42
0.0000001000
43
0.0000001000
44
0.0000000001
12
0.2941717047
22
-0.7188234137
32
0.0000000000
13
0.0000000000
23
-0.7751361416
33
0.0000000000
40
0.0000000000
40
0.0000000000
40
0.0000000000
40
0.0000000000
40
0.4310936623
40
1.0000000000
40
1.0000000000
40
1.0000000000
40
1.0000000000
10
30.6522638535
20
22.3765691670
30
0.0000000000
10
30.6945357060
20
22.2732757610
30
0.0000000000
10
30.7724626063
20
22.0255541562
30
0.0000000000
10
30.8012052174
20
21.7662413849
30
0.0000000000
10
30.8012052174
20
21.6192480970
30
0.0000000000
11
30.6522638535
21
22.3765691670
31
0.0000000000
11
30.7525827975
21
22.0575392107
31
0.0000000000
11
30.8012052174
21
21.6192480970
31
0.0000000000
0
SPLINE
5
537
100
AcDbEntity
8
0
100
AcDbSpline
62
7
6
CONTINUOUS
70
0
71
3
72
9
73
5
74
3
42
0.0000001000
43
0.0000001000
44
0.0000000001
12
0.0000000000
22
-0.7751361416
32
0.0000000000
13
-0.2941717047
23
-0.7188234137
33
0.0000000000
40
0.0000000000
40
0.0000000000
40
0.0000000000
40
0.0000000000
40
0.5689063377
40
1.0000000000
40
1.0000000000
40
1.0000000000
40
1.0000000000
10
30.8012052174
20
-10.3153533635
30
0.0000000000
10
30.8012052174
20
-10.4623466514
30
0.0000000000
10
30.7724626063
20
-10.7216594227
30
0.0000000000
10
30.6945357060
20
-10.9693810275
30
0.0000000000
10
30.6522638535
20
-11.0726744335
30
0.0000000000
11
30.8012052174
21
-10.3153533635
31
0.0000000000
11
30.7525827975
21
-10.7536444772
31
0.0000000000
11
30.6522638535
21
-11.0726744335
31
0.0000000000
0
SPLINE
5
538
100
AcDbEntity
8
0
100
AcDbSpline
62
7
6
CONTINUOUS
70
0
71
3
72
9
73
5
74
3
42
0.0000001000
43
0.0000001000
44
0.0000000001
12
0.0502612152
22
0.0257934777
32
0.0000000000
13
0.0528115021
23
0.0199384429
33
0.0000000000
40
0.0000000000
40
0.0000000000
40
0.0000000000
40
0.0000000000
40
0.3620998020
40
1.0000000000
40
1.0000000000
40
1.0000000000
40
1.0000000000
10
13.8905212367
20
27.9968412807
30
0.0000000000
10
13.8965877621
20
27.9999545517
30
0.0000000000
10
13.9135161620
20
28.0082096608
30
0.0000000000
10
13.9308825915
20
28.0154910747
30
0.0000000000
10
13.9421120808
20
28.0197306536
30
0.0000000000
11
13.8905212367
21
27.9968412807
31
0.0000000000
11
13.9089047354
21
28.0058052312
31
0.0000000000
11
13.9421120808
21
28.0197306536
31
0.0000000000
0
SPLINE
5
539
100
AcDbEntity
8
0
100
AcDbSpline
62
7
6
CONTINUOUS
70
0
71
3
72
8
73
4
74
2
42
0.0000001000
43
0.0000001000
44
0.0000000001
12
0.0675615626
22
0.0255071775
32
0.0000000000
13
0.0705675484
23
0.0155097751
33
0.0000000000
40
0.0000000000
40
0.0000000000
40
0.0000000000
40
0.0000000000
40
1.0000000000
40
1.0000000000
40
1.0000000000
40
1.0000000000
10
13.9421120808
20
28.0197306536
30
0.0000000000
10
13.9646326016
20
28.0282330461
30
0.0000000000
10
13.9877622084
20
28.0351055971
30
0.0000000000
10
14.0112847245
20
28.0402755221
30
0.0000000000
11
13.9421120808
21
28.0197306536
31
0.0000000000
11
14.0112847245
21
28.0402755221
31
0.0000000000
0
SPLINE
5
53A
100
AcDbEntity
8
0
100
AcDbSpline
62
7
6
CONTINUOUS
70
0
71
3
72
8
73
4
74
2
42
0.0000001000
43
0.0000001000
44
0.0000000001
12
0.1057566531
22
0.0232438555
32
0.0000000000
13
0.1080289296
23
0.0000000000
33
0.0000000000
40
0.0000000000
40
0.0000000000
40
0.0000000000
40
0.0000000000
40
1.0000000000
40
1.0000000000
40
1.0000000000
40
1.0000000000
10
14.0112847245
20
28.0402755221
30
0.0000000000
10
14.0465369422
20
28.0480234739
30
0.0000000000
10
14.0826716254
20
28.0519473668
30
0.0000000000
10
14.1186812686
20
28.0519473668
30
0.0000000000
11
14.0112847245
21
28.0402755221
31
0.0000000000
11
14.1186812686
21
28.0519473668
31
0.0000000000
0
SPLINE
5
53B
100
AcDbEntity
8
0
100
AcDbSpline
62
7
6
CONTINUOUS
70
0
71
3
72
8
73
4
74
2
42
0.0000001000
43
0.0000001000
44
0.0000000001
12
0.1075926774
22
0.0000000000
32
0.0000000000
13
0.1053478370
23
-0.0230573058
33
0.0000000000
40
0.0000000000
40
0.0000000000
40
0.0000000000
40
0.0000000000
40
1.0000000000
40
1.0000000000
40
1.0000000000
40
1.0000000000
10
24.8929800595
20
28.0519473668
30
0.0000000000
10
24.9288442853
20
28.0519473668
30
0.0000000000
10
24.9648320506
20
28.0480553673
30
0.0000000000
10
24.9999479963
20
28.0403695987
30
0.0000000000
11
24.8929800595
21
28.0519473668
31
0.0000000000
11
24.9999479963
21
28.0403695987
31
0.0000000000
0
SPLINE
5
53C
100
AcDbEntity
8
0
100
AcDbSpline
62
7
6
CONTINUOUS
70
0
71
3
72
8
73
4
74
2
42
0.0000001000
43
0.0000001000
44
0.0000000001
12
0.0702942512
22
-0.0153851858
32
0.0000000000
13
0.0673243694
23
-0.0253050321
33
0.0000000000
40
0.0000000000
40
0.0000000000
40
0.0000000000
40
0.0000000000
40
1.0000000000
40
1.0000000000
40
1.0000000000
40
1.0000000000
10
24.9999479963
20
28.0403695987
30
0.0000000000
10
25.0233794134
20
28.0352412035
30
0.0000000000
10
25.0464226666
20
28.0284236930
30
0.0000000000
10
25.0688641231
20
28.0199886823
30
0.0000000000
11
24.9999479963
21
28.0403695987
31
0.0000000000
11
25.0688641231
21
28.0199886823
31
0.0000000000
0
SPLINE
5
53D
100
AcDbEntity
8
0
100
AcDbSpline
62
7
6
CONTINUOUS
70
0
71
3
72
9
73
5
74
3
42
0.0000001000
43
0.0000001000
44
0.0000000001
12
0.0535403313
22
-0.0201240622
32
0.0000000000
13
0.0509260188
23
-0.0261363206
33
0.0000000000
40
0.0000000000
40
0.0000000000
40
0.0000000000
40
0.0000000000
40
0.6270215160
40
1.0000000000
40
1.0000000000
40
1.0000000000
40
1.0000000000
10
25.0688641231
20
28.0199886823
30
0.0000000000
10
25.0800544363
20
28.0157826090
30
0.0000000000
10
25.0976625698
20
28.0084331656
30
0.0000000000
10
25.1148227328
20
28.0000833392
30
0.0000000000
10
25.1211541693
20
27.9968339108
30
0.0000000000
11
25.0688641231
21
28.0199886823
31
0.0000000000
11
25.1019596711
21
28.0061727841
31
0.0000000000
11
25.1211541693
21
27.9968339108
31
0.0000000000
0
SPLINE
5
53E
100
AcDbEntity
8
0
100
AcDbSpline
62
7
6
CONTINUOUS
70
0
71
3
72
8
73
4
74
2
42
0.0000001000
43
0.0000001000
44
0.0000000001
12
-0.1080289296
22
0.0000000000
32
0.0000000000
13
-0.1057566531
23
0.0232438555
33
0.0000000000
40
0.0000000000
40
0.0000000000
40
0.0000000000
40
0.0000000000
40
1.0000000000
40
1.0000000000
40
1.0000000000
40
1.0000000000
10
14.1186812686
20
-16.7480526332
30
0.0000000000
10
14.0826716254
20
-16.7480526332
30
0.0000000000
10
14.0465369422
20
-16.7441287404
30
0.0000000000
10
14.0112847245
20
-16.7363807886
30
0.0000000000
11
14.1186812686
21
-16.7480526332
31
0.0000000000
11
14.0112847245
21
-16.7363807886
31
0.0000000000
0
SPLINE
5
53F
100
AcDbEntity
8
0
100
AcDbSpline
62
7
6
CONTINUOUS
70
0
71
3
72
8
73
4
74
2
42
0.0000001000
43
0.0000001000
44
0.0000000001
12
-0.0705675484
22
0.0155097751
32
0.0000000000
13
-0.0675615626
23
0.0255071775
33
0.0000000000
40
0.0000000000
40
0.0000000000
40
0.0000000000
40
0.0000000000
40
1.0000000000
40
1.0000000000
40
1.0000000000
40
1.0000000000
10
14.0112847245
20
-16.7363807886
30
0.0000000000
10
13.9877622084
20
-16.7312108635
30
0.0000000000
10
13.9646326016
20
-16.7243383126
30
0.0000000000
10
13.9421120808
20
-16.7158359201
30
0.0000000000
11
14.0112847245
21
-16.7363807886
31
0.0000000000
11
13.9421120808
21
-16.7158359201
31
0.0000000000
0
SPLINE
5
540
100
AcDbEntity
8
0
100
AcDbSpline
62
7
6
CONTINUOUS
70
0
71
3
72
9
73
5
74
3
42
0.0000001000
43
0.0000001000
44
0.0000000001
12
-0.0866637684
22
0.0327190201
32
0.0000000000
13
-0.0791868079
23
0.0481485283
33
0.0000000000
40
0.0000000000
40
0.0000000000
40
0.0000000000
40
0.0000000000
40
0.3887260876
40
1.0000000000
40
1.0000000000
40
1.0000000000
40
1.0000000000
10
13.9421120808
20
-16.7158359201
30
0.0000000000
10
13.9308825915
20
-16.7115963412
30
0.0000000000
10
13.9023842500
20
-16.6996475281
30
0.0000000000
10
13.8750654724
20
-16.6850766641
30
0.0000000000
10
13.8589305291
20
-16.6752660176
30
0.0000000000
11
13.9421120808
21
-16.7158359201
31
0.0000000000
11
13.9089047354
21
-16.7019104977
31
0.0000000000
11
13.8589305291
21
-16.6752660176
31
0.0000000000
0
SPLINE
5
541
100
AcDbEntity
8
0
100
AcDbSpline
62
7
6
CONTINUOUS
70
0
71
3
72
8
73
4
74
2
42
0.0000001000
43
0.0000001000
44
0.0000000001
12
-0.0441113348
22
0.0268213344
32
0.0000000000
13
-0.0410189350
23
0.0311527875
33
0.0000000000
40
0.0000000000
40
0.0000000000
40
0.0000000000
40
0.0000000000
40
1.0000000000
40
1.0000000000
40
1.0000000000
40
1.0000000000
10
13.8589305291
20
-16.6752660176
30
0.0000000000
10
13.8442267508
20
-16.6663255728
30
0.0000000000
10
13.8299916163
20
-16.6566345033
30
0.0000000000
10
13.8163186380
20
-16.6462502407
30
0.0000000000
11
13.8589305291
21
-16.6752660176
31
0.0000000000
11
13.8163186380
21
-16.6462502407
31
0.0000000000
0
SPLINE
5
542
100
AcDbEntity
8
0
100
AcDbSpline
62
7
6
CONTINUOUS
70
0
71
3
72
8
73
4
74
2
42
0.0000001000
43
0.0000001000
44
0.0000000001
12
-0.0288896471
22
-0.0218212044
32
0.0000000000
13
-0.0304527474
23
-0.0197022604
33
0.0000000000
40
0.0000000000
40
0.0000000000
40
0.0000000000
40
0.0000000000
40
1.0000000000
40
1.0000000000
40
1.0000000000
40
1.0000000000
10
25.1942933024
20
-16.6470450463
30
0.0000000000
10
25.1846634200
20
-16.6543187812
30
0.0000000000
10
25.1747567618
20
-16.6612492944
30
0.0000000000
10
25.1646058460
20
-16.6678167145
30
0.0000000000
11
25.1942933024
21
-16.6470450463
31
0.0000000000
11
25.1646058460
21
-16.6678167145
31
0.0000000000
0
SPLINE
5
543
100
AcDbEntity
8
0
100
AcDbSpline
62
7
6
CONTINUOUS
70
0
71
3
72
8
73
4
74
2
42
0.0000001000
43
0.0000001000
44
0.0000000001
12
-0.0459130078
22
-0.0297047101
32
0.0000000000
13
-0.0489100099
23
-0.0245483233
33
0.0000000000
40
0.0000000000
40
0.0000000000
40
0.0000000000
40
0.0000000000
40
1.0000000000
40
1.0000000000
40
1.0000000000
40
1.0000000000
10
25.1646058460
20
-16.6678167145
30
0.0000000000
10
25.1493015101
20
-16.6777182845
30
0.0000000000
10
25.1334419522
20
-16.6867945077
30
0.0000000000
10
25.1171386155
20
-16.6949772821
30
0.0000000000
11
25.1646058460
21
-16.6678167145
31
0.0000000000
11
25.1171386155
21
-16.6949772821
31
0.0000000000
0
SPLINE
5
544
100
AcDbEntity
8
0
100
AcDbSpline
62
7
6
CONTINUOUS
70
0
71
3
72
9
73
5
74
3
42
0.0000001000
43
0.0000001000
44
0.0000000001
12
-0.0471329263
22
-0.0236563909
32
0.0000000000
13
-0.0493282450
23
-0.0185408765
33
0.0000000000
40
0.0000000000
40
0.0000000000
40
0.0000000000
40
0.0000000000
40
0.3194377844
40
1.0000000000
40
1.0000000000
40
1.0000000000
40
1.0000000000
10
25.1171386155
20
-16.6949772821
30
0.0000000000
10
25.1121199363
20
-16.6974961972
30
0.0000000000
10
25.0962773154
20
-16.7051166222
30
0.0000000000
10
25.0800544363
20
-16.7118878755
30
0.0000000000
10
25.0688641231
20
-16.7160939488
30
0.0000000000
11
25.1171386155
21
-16.6949772821
31
0.0000000000
11
25.1019596711
21
-16.7022780506
31
0.0000000000
11
25.0688641231
21
-16.7160939488
31
0.0000000000
0
SPLINE
5
545
100
AcDbEntity
8
0
100
AcDbSpline
62
7
6
CONTINUOUS
70
0
71
3
72
8
73
4
74
2
42
0.0000001000
43
0.0000001000
44
0.0000000001
12
-0.0673243694
22
-0.0253050321
32
0.0000000000
13
-0.0702942512
23
-0.0153851858
33
0.0000000000
40
0.0000000000
40
0.0000000000
40
0.0000000000
40
0.0000000000
40
1.0000000000
40
1.0000000000
40
1.0000000000
40
1.0000000000
10
25.0688641231
20
-16.7160939488
30
0.0000000000
10
25.0464226666
20
-16.7245289595
30
0.0000000000
10
25.0233794134
20
-16.7313464700
30
0.0000000000
10
24.9999479963
20
-16.7364748652
30
0.0000000000
11
25.0688641231
21
-16.7160939488
31
0.0000000000
11
24.9999479963
21
-16.7364748652
31
0.0000000000
0
SPLINE
5
546
100
AcDbEntity
8
0
100
AcDbSpline
62
7
6
CONTINUOUS
70
0
71
3
72
8
73
4
74
2
42
0.0000001000
43
0.0000001000
44
0.0000000001
12
-0.1053478370
22
-0.0230573058
32
0.0000000000
13
-0.1075926774
23
0.0000000000
33
0.0000000000
40
0.0000000000
40
0.0000000000
40
0.0000000000
40
0.0000000000
40
1.0000000000
40
1.0000000000
40
1.0000000000
40
1.0000000000
10
24.9999479963
20
-16.7364748652
30
0.0000000000
10
24.9648320506
20
-16.7441606338
30
0.0000000000
10
24.9288442853
20
-16.7480526332
30
0.0000000000
10
24.8929800595
20
-16.7480526332
30
0.0000000000
11
24.9999479963
21
-16.7364748652
31
0.0000000000
11
24.8929800595
21
-16.7480526332
31
0.0000000000
0
SPLINE
5
547
100
AcDbEntity
8
0
100
AcDbSpline
62
7
6
CONTINUOUS
70
0
71
3
72
9
73
5
74
3
42
0.0000001000
43
0.0000001000
44
0.0000000001
12
-0.2047215014
22
0.0000116600
32
0.0000000000
13
-0.1880799501
23
-0.0819500564
33
0.0000000000
40
0.0000000000
40
0.0000000000
40
0.0000000000
40
0.0000000000
40
0.5277597308
40
1.0000000000
40
1.0000000000
40
1.0000000000
40
1.0000000000
10
14.1232531825
20
28.0383574011
30
0.0000000000
10
14.0872385944
20
28.0383594523
30
0.0000000000
10
14.0187591027
20
28.0309172338
30
0.0000000000
10
13.9534607929
20
28.0097161391
30
0.0000000000
10
13.9238544841
20
27.9968161002
30
0.0000000000
11
14.1232531825
21
28.0383574011
31
0.0000000000
11
14.0158432138
21
28.0266717815
31
0.0000000000
11
13.9238544841
21
27.9968161002
31
0.0000000000
0
SPLINE
5
548
100
AcDbEntity
8
0
100
AcDbSpline
62
7
6
CONTINUOUS
70
0
71
3
72
9
73
5
74
3
42
0.0000001000
43
0.0000001000
44
0.0000000001
12
-0.1881072813
22
0.0819773291
32
0.0000000000
13
-0.2047579698
23
-0.0000117528
33
0.0000000000
40
0.0000000000
40
0.0000000000
40
0.0000000000
40
0.0000000000
40
0.4744638264
40
1.0000000000
40
1.0000000000
40
1.0000000000
40
1.0000000000
10
25.0878573977
20
27.9968027658
30
0.0000000000
10
25.0581073642
20
28.0097678582
30
0.0000000000
10
24.9927870514
20
28.0309465267
30
0.0000000000
10
24.9242972810
20
28.0383596277
30
0.0000000000
10
24.8884280410
20
28.0383575688
30
0.0000000000
11
25.0878573977
21
27.9968027658
31
0.0000000000
11
24.9954096177
21
28.0267660340
31
0.0000000000
11
24.8884280410
21
28.0383575688
31
0.0000000000
0
SPLINE
5
549
100
AcDbEntity
8
0
100
AcDbSpline
62
7
6
CONTINUOUS
70
0
71
3
72
10
73
6
74
4
42
0.0000001000
43
0.0000001000
44
0.0000000001
12
0.0013243918
22
0.7065252010
32
0.0000000000
13
-0.2436415953
23
0.6639437088
33
0.0000000000
40
0.0000000000
40
0.0000000000
40
0.0000000000
40
0.0000000000
40
0.4697579454
40
0.9388011539
40
1.0000000000
40
1.0000000000
40
1.0000000000
40
1.0000000000
10
30.7742670991
20
21.6099787232
30
0.0000000000
10
30.7744744803
20
21.7206106655
30
0.0000000000
10
30.7565218978
20
21.9421793719
30
0.0000000000
10
30.6986511673
20
22.1715459852
30
0.0000000000
10
30.6568594618
20
22.2893616986
30
0.0000000000
10
30.6518892670
20
22.3029058949
30
0.0000000000
11
30.7742670991
21
21.6099787232
31
0.0000000000
11
30.7474002459
21
21.9407859165
31
0.0000000000
11
30.6663584461
21
22.2621151965
31
0.0000000000
11
30.6518892670
21
22.3029058949
31
0.0000000000
0
SPLINE
5
54A
100
AcDbEntity
8
0
100
AcDbSpline
62
7
6
CONTINUOUS
70
0
71
3
72
10
73
6
74
4
42
0.0000001000
43
0.0000001000
44
0.0000000001
12
0.2436420061
22
0.6639452668
32
0.0000000000
13
-0.0013158906
23
0.7065267997
33
0.0000000000
40
0.0000000000
40
0.0000000000
40
0.0000000000
40
0.0000000000
40
0.0611839390
40
0.5302447056
40
1.0000000000
40
1.0000000000
40
1.0000000000
40
1.0000000000
10
30.6518889005
20
-10.9990123496
30
0.0000000000
10
30.6568578930
20
-10.9854714207
30
0.0000000000
10
30.6986501705
20
-10.8676549508
30
0.0000000000
10
30.7565214165
20
-10.6382879287
30
0.0000000000
10
30.7744768172
20
-10.4167155581
30
0.0000000000
10
30.7742707683
20
-10.3060839898
30
0.0000000000
11
30.6518889005
21
-10.9990123496
31
0.0000000000
11
30.6663546829
21
-10.9582315286
31
0.0000000000
11
30.7474009097
21
-10.6368898058
31
0.0000000000
11
30.7742707683
21
-10.3060839898
31
0.0000000000
0
SPLINE
5
54B
100
AcDbEntity
8
0
100
AcDbSpline
62
7
6
CONTINUOUS
70
0
71
3
72
8
73
4
74
2
42
0.0000001000
43
0.0000001000
44
0.0000000001
12
0.3678765964
22
0.2787096239
32
0.0000000000
13
0.3632780997
23
0.2848184044
33
0.0000000000
40
0.0000000000
40
0.0000000000
40
0.0000000000
40
0.0000000000
40
1.0000000000
40
1.0000000000
40
1.0000000000
40
1.0000000000
10
25.1897644229
20
-16.6332871878
30
0.0000000000
10
25.3123899550
20
-16.5403839798
30
0.0000000000
10
25.4342588507
20
-16.4464546177
30
0.0000000000
10
25.5553515506
20
-16.3515151495
30
0.0000000000
11
25.1897644229
21
-16.6332871878
31
0.0000000000
11
25.5553515506
21
-16.3515151495
31
0.0000000000
0
SPLINE
5
54C
100
AcDbEntity
8
0
100
AcDbSpline
62
7
6
CONTINUOUS
70
0
71
3
72
10
73
6
74
4
42
0.0000001000
43
0.0000001000
44
0.0000000001
12
0.3228677829
22
-0.0000185326
32
0.0000000000
13
0.2574331939
23
0.1948634297
33
0.0000000000
40
0.0000000000
40
0.0000000000
40
0.0000000000
40
0.0000000000
40
0.3332872729
40
0.6664614835
40
1.0000000000
40
1.0000000000
40
1.0000000000
40
1.0000000000
10
24.8884280410
20
-16.7344628354
30
0.0000000000
10
24.9242972819
20
-16.7344648943
30
0.0000000000
10
24.9962727766
20
-16.7266745069
30
0.0000000000
10
25.0990172230
20
-16.6921747261
30
0.0000000000
10
25.1611418005
20
-16.6549502518
30
0.0000000000
10
25.1897630957
20
-16.6332854321
30
0.0000000000
11
24.8884280410
21
-16.7344628354
31
0.0000000000
11
24.9954096204
21
-16.7228712987
31
0.0000000000
11
25.0973874211
21
-16.6886354215
31
0.0000000000
11
25.1897630957
21
-16.6332854321
31
0.0000000000
0
SPLINE
5
54D
100
AcDbEntity
8
0
100
AcDbSpline
62
7
6
CONTINUOUS
70
0
71
3
72
10
73
6
74
4
42
0.0000001000
43
0.0000001000
44
0.0000000001
12
0.2579598528
22
-0.1963346871
32
0.0000000000
13
0.3241767954
23
0.0000184633
33
0.0000000000
40
0.0000000000
40
0.0000000000
40
0.0000000000
40
0.0000000000
40
0.3335403422
40
0.6667134628
40
1.0000000000
40
1.0000000000
40
1.0000000000
40
1.0000000000
10
13.8208693100
20
-16.6324892282
30
0.0000000000
10
13.8495493158
20
-16.6543177411
30
0.0000000000
10
13.9118482618
20
-16.6918329813
30
0.0000000000
10
14.0149694590
20
-16.7266106524
30
0.0000000000
10
14.0872385953
20
-16.7344647187
30
0.0000000000
10
14.1232531825
20
-16.7344626675
30
0.0000000000
11
13.8208693100
21
-16.6324892282
31
0.0000000000
11
13.9134976895
21
-16.6882675727
31
0.0000000000
11
14.0158432165
21
-16.7227770497
31
0.0000000000
11
14.1232531825
21
-16.7344626675
31
0.0000000000
0
SPLINE
5
54E
100
AcDbEntity
8
0
100
AcDbSpline
62
7
6
CONTINUOUS
70
0
71
3
72
8
73
4
74
2
42
0.0000001000
43
0.0000001000
44
0.0000000001
12
0.3603075078
22
-0.2839485852
32
0.0000000000
13
0.3648550975
23
-0.2779388945
33
0.0000000000
40
0.0000000000
40
0.0000000000
40
0.0000000000
40
0.0000000000
40
1.0000000000
40
1.0000000000
40
1.0000000000
40
1.0000000000
10
13.4582770751
20
-16.3515394503
30
0.0000000000
10
13.5783795777
20
-16.4461889787
30
0.0000000000
10
13.6992495532
20
-16.5398447598
30
0.0000000000
10
13.8208679191
20
-16.6324910580
30
0.0000000000
11
13.4582770751
21
-16.3515394503
31
0.0000000000
11
13.8208679191
21
-16.6324910580
31
0.0000000000
0
SPLINE
5
54F
100
AcDbEntity
8
0
100
AcDbSpline
62
7
6
CONTINUOUS
70
0
71
3
72
10
73
6
74
4
42
0.0000001000
43
0.0000001000
44
0.0000000001
12
-0.0789718949
22
-0.0789718949
32
0.0000000000
13
-0.1130733766
23
0.0017196699
33
0.0000000000
40
0.0000000000
40
0.0000000000
40
0.0000000000
40
0.0000000000
40
0.1465917473
40
0.5386748960
40
1.0000000000
40
1.0000000000
40
1.0000000000
40
1.0000000000
10
30.7626641133
20
-4.8865937373
30
0.0000000000
10
30.7588052373
20
-4.8904526133
30
0.0000000000
10
30.7352324436
20
-4.8845535634
30
0.0000000000
10
30.7007702019
20
-4.8906498649
30
0.0000000000
10
30.6685886003
20
-4.8902299218
30
0.0000000000
10
30.6512007379
20
-4.8899654795
30
0.0000000000
11
30.7626641133
21
-4.8865937373
31
0.0000000000
11
30.7463462605
21
-4.8879220121
31
0.0000000000
11
30.7025714875
21
-4.8890409436
31
0.0000000000
11
30.6512007379
21
-4.8899654795
31
0.0000000000
0
SPLINE
5
550
100
AcDbEntity
8
0
100
AcDbSpline
62
7
6
CONTINUOUS
70
0
71
3
72
10
73
6
74
4
42
0.0000001000
43
0.0000001000
44
0.0000000001
12
0.1130733652
22
0.0017197034
32
0.0000000000
13
0.0789718699
23
-0.0789718699
33
0.0000000000
40
0.0000000000
40
0.0000000000
40
0.0000000000
40
0.0000000000
40
0.4613513589
40
0.8534154791
40
1.0000000000
40
1.0000000000
40
1.0000000000
40
1.0000000000
10
30.6512007389
20
16.1938601439
30
0.0000000000
10
30.6685895891
20
16.1941246064
30
0.0000000000
10
30.7007715453
20
16.1945447220
30
0.0000000000
10
30.7352337995
20
16.1884484695
30
0.0000000000
10
30.7588054287
20
16.1943471554
30
0.0000000000
10
30.7626641133
20
16.1904884708
30
0.0000000000
11
30.6512007389
21
16.1938601439
31
0.0000000000
11
30.7025744390
21
16.1929356264
31
0.0000000000
11
30.7463470727
21
16.1918167125
31
0.0000000000
11
30.7626641133
21
16.1904884708
31
0.0000000000
0
SPLINE
5
551
100
AcDbEntity
8
0
100
AcDbSpline
62
9
6
CONTINUOUS
70
0
71
3
72
10
73
6
74
4
42
0.0000001000
43
0.0000001000
44
0.0000000001
12
0.1285525498
22
-0.0063204064
32
0.0000000000
13
0.0177929767
23
-0.1251997240
33
0.0000000000
40
0.0000000000
40
0.0000000000
40
0.0000000000
40
0.0000000000
40
0.5023775270
40
0.8525221024
40
1.0000000000
40
1.0000000000
40
1.0000000000
40
1.0000000000
10
30.6512059355
20
21.6323208351
30
0.0000000000
10
30.6727332395
20
21.6312624251
30
0.0000000000
10
30.7101501724
20
21.6287632959
30
0.0000000000
10
30.7461591073
20
21.6216077747
30
0.0000000000
10
30.7734045422
20
21.6161334539
30
0.0000000000
10
30.7742792325
20
21.6099787232
30
0.0000000000
11
30.6512059355
21
21.6323208351
31
0.0000000000
11
30.7144985869
21
21.6270665266
31
0.0000000000
11
30.7580745284
21
21.6192101750
31
0.0000000000
11
30.7742792325
21
21.6099787232
31
0.0000000000
0
SPLINE
5
552
100
AcDbEntity
8
0
100
AcDbSpline
62
9
6
CONTINUOUS
70
0
71
3
72
10
73
6
74
4
42
0.0000001000
43
0.0000001000
44
0.0000000001
12
0.1285523396
22
0.0063204875
32
0.0000000000
13
0.0177929848
23
0.1251997055
33
0.0000000000
40
0.0000000000
40
0.0000000000
40
0.0000000000
40
0.0000000000
40
0.5023926250
40
0.8525276446
40
1.0000000000
40
1.0000000000
40
1.0000000000
40
1.0000000000
10
30.6512059343
20
-10.3284260915
30
0.0000000000
10
30.6727338501
20
-10.3273676360
30
0.0000000000
10
30.7101511254
20
-10.3248684634
30
0.0000000000
10
30.7461601560
20
-10.3177129283
30
0.0000000000
10
30.7734045747
20
-10.3122384893
30
0.0000000000
10
30.7742792325
20
-10.3060839908
30
0.0000000000
11
30.6512059343
21
-10.3284260915
31
0.0000000000
11
30.7145005085
21
-10.3231715552
31
0.0000000000
11
30.7580752226
21
-10.3153152401
31
0.0000000000
11
30.7742792325
21
-10.3060839908
31
0.0000000000
0
SPLINE
5
553
100
AcDbEntity
8
0
100
AcDbSpline
62
9
6
CONTINUOUS
70
0
71
3
72
8
73
4
74
2
42
0.0000001000
43
0.0000001000
44
0.0000000001
12
0.1927780628
22
0.1460555475
32
0.0000000000
13
0.1915139009
23
0.1477513249
33
0.0000000000
40
0.0000000000
40
0.0000000000
40
0.0000000000
40
0.0000000000
40
1.0000000000
40
1.0000000000
40
1.0000000000
40
1.0000000000
10
25.0692124015
20
-16.4981147413
30
0.0000000000
10
25.1334717557
20
-16.4494295588
30
0.0000000000
10
25.1975218452
20
-16.4004605770
30
0.0000000000
10
25.2613598121
20
-16.3512101353
30
0.0000000000
11
25.0692124015
21
-16.4981147413
31
0.0000000000
11
25.2613598121
21
-16.3512101353
31
0.0000000000
0
SPLINE
5
554
100
AcDbEntity
8
0
100
AcDbSpline
62
9
6
CONTINUOUS
70
0
71
3
72
10
73
6
74
4
42
0.0000001000
43
0.0000001000
44
0.0000000001
12
0.1107786384
22
-0.1440460792
32
0.0000000000
13
0.1662234539
23
0.0734230415
33
0.0000000000
40
0.0000000000
40
0.0000000000
40
0.0000000000
40
0.0000000000
40
0.4988348360
40
0.8587829762
40
1.0000000000
40
1.0000000000
40
1.0000000000
40
1.0000000000
10
25.0692124015
20
-16.4981147413
30
0.0000000000
10
25.0876324828
20
-16.5220664754
30
0.0000000000
10
25.1203114575
20
-16.5673672523
30
0.0000000000
10
25.1591456965
20
-16.6001606512
30
0.0000000000
10
25.1819397181
20
-16.6367431472
30
0.0000000000
10
25.1897642453
20
-16.6332869527
30
0.0000000000
11
25.0692124015
21
-16.4981147413
31
0.0000000000
11
25.1258229320
21
-16.5689110158
31
0.0000000000
11
25.1693585656
21
-16.6177265934
31
0.0000000000
11
25.1897642453
21
-16.6332869527
31
0.0000000000
0
SPLINE
5
555
100
AcDbEntity
8
0
100
AcDbSpline
62
9
6
CONTINUOUS
70
0
71
3
72
10
73
6
74
4
42
0.0000001000
43
0.0000001000
44
0.0000000001
12
0.1937276908
22
-0.0000410113
32
0.0000000000
13
0.1543819954
23
0.1170325568
33
0.0000000000
40
0.0000000000
40
0.0000000000
40
0.0000000000
40
0.0000000000
40
0.3322019877
40
0.6657762001
40
1.0000000000
40
1.0000000000
40
1.0000000000
40
1.0000000000
10
24.8884280385
20
-16.5588798096
30
0.0000000000
10
24.9098802798
20
-16.5588843510
30
0.0000000000
10
24.9530212717
20
-16.5542141782
30
0.0000000000
10
25.0146769945
20
-16.5335325124
30
0.0000000000
10
25.0520130224
20
-16.5111530966
30
0.0000000000
10
25.0692124015
20
-16.4981147413
30
0.0000000000
11
24.8884280385
21
-16.5588798096
31
0.0000000000
11
24.9524114882
21
-16.5519583743
31
0.0000000000
11
25.0136794239
21
-16.5314080521
31
0.0000000000
11
25.0692124015
21
-16.4981147413
31
0.0000000000
0
SPLINE
5
556
100
AcDbEntity
8
0
100
AcDbSpline
62
9
6
CONTINUOUS
70
0
71
3
72
10
73
6
74
4
42
0.0000001000
43
0.0000001000
44
0.0000000001
12
0.1546969232
22
-0.1179162682
32
0.0000000000
13
0.1945131940
23
0.0000410956
33
0.0000000000
40
0.0000000000
40
0.0000000000
40
0.0000000000
40
0.0000000000
40
0.3342212023
40
0.6678027775
40
1.0000000000
40
1.0000000000
40
1.0000000000
40
1.0000000000
10
13.9418397075
20
-16.4976366536
30
0.0000000000
10
13.9590740381
20
-16.5107733592
30
0.0000000000
10
13.9965151037
20
-16.5333276909
30
0.0000000000
10
14.0583969907
20
-16.5541760171
30
0.0000000000
10
14.1017142708
20
-16.5588843603
30
0.0000000000
10
14.1232531850
20
-16.5588798096
30
0.0000000000
11
13.9418397075
21
-16.4976366536
31
0.0000000000
11
13.9975237835
21
-16.5311872175
31
0.0000000000
11
14.0590142689
21
-16.5519023253
31
0.0000000000
11
14.1232531850
21
-16.5588798096
31
0.0000000000
0
SPLINE
5
557
100
AcDbEntity
8
0
100
AcDbSpline
62
9
6
CONTINUOUS
70
0
71
3
72
10
73
6
74
4
42
0.0000001000
43
0.0000001000
44
0.0000000001
12
-0.1111872535
22
-0.1437876371
32
0.0000000000
13
-0.1660118314
23
0.0740105517
33
0.0000000000
40
0.0000000000
40
0.0000000000
40
0.0000000000
40
0.0000000000
40
0.4988022965
40
0.8587503076
40
1.0000000000
40
1.0000000000
40
1.0000000000
40
1.0000000000
10
13.9418397075
20
-16.4976366536
30
0.0000000000
10
13.9233528884
20
-16.5215438548
30
0.0000000000
10
13.8905379312
20
-16.5667611690
30
0.0000000000
10
13.8516174194
20
-16.5994636660
30
0.0000000000
10
13.8286856834
20
-16.6359738841
30
0.0000000000
10
13.8208693100
20
-16.6324892282
30
0.0000000000
11
13.9418397075
21
-16.4976366536
31
0.0000000000
11
13.8850268244
21
-16.5682917813
31
0.0000000000
11
13.8413391046
21
-16.6169929647
31
0.0000000000
11
13.8208693100
21
-16.6324892282
31
0.0000000000
0
SPLINE
5
558
100
AcDbEntity
8
0
100
AcDbSpline
62
9
6
CONTINUOUS
70
0
71
3
72
8
73
4
74
2
42
0.0000001000
43
0.0000001000
44
0.0000000001
12
0.1898677633
22
-0.1472594263
32
0.0000000000
13
0.1911169530
23
-0.1455926079
33
0.0000000000
40
0.0000000000
40
0.0000000000
40
0.0000000000
40
0.0000000000
40
1.0000000000
40
1.0000000000
40
1.0000000000
40
1.0000000000
10
13.7513459565
20
-16.3512094916
30
0.0000000000
10
13.8146352109
20
-16.4002959671
30
0.0000000000
10
13.8781340565
20
-16.4491057843
30
0.0000000000
10
13.9418397075
20
-16.4976366536
30
0.0000000000
11
13.7513459565
21
-16.3512094916
31
0.0000000000
11
13.9418397075
21
-16.4976366536
31
0.0000000000
0
SPLINE
5
559
100
AcDbEntity
8
0
100
AcDbSpline
62
7
6
CONTINUOUS
70
0
71
3
72
10
73
6
74
4
42
0.0000001000
43
0.0000001000
44
0.0000000001
12
-0.1029370865
22
0.2061153525
32
0.0000000000
13
-0.0000000000
23
0.2300200817
33
0.0000000000
40
0.0000000000
40
0.0000000000
40
0.0000000000
40
0.0000000000
40
0.1509497128
40
0.5755210102
40
1.0000000000
40
1.0000000000
40
1.0000000000
40
1.0000000000
10
-14.0963852203
20
-15.8587802459
30
0.0000000000
10
-14.1015646615
20
-15.8484092282
30
0.0000000000
10
-14.1199322691
20
-15.8081808338
30
0.0000000000
10
-14.1423648397
20
-15.7343682326
30
0.0000000000
10
-14.1487947826
20
-15.6690877196
30
0.0000000000
10
-14.1487947826
20
-15.6365414889
30
0.0000000000
11
-14.0963852203
21
-15.8587802459
31
0.0000000000
11
-14.1108242905
21
-15.8271517910
31
0.0000000000
11
-14.1392121151
21
-15.7337088016
31
0.0000000000
11
-14.1487947826
21
-15.6365414889
31
0.0000000000
0
SPLINE
5
55A
100
AcDbEntity
8
0
100
AcDbSpline
62
7
6
CONTINUOUS
70
0
71
3
72
10
73
6
74
4
42
0.0000001000
43
0.0000001000
44
0.0000000001
12
0.0000000000
22
-0.2300201048
32
0.0000000000
13
-0.1029371246
23
-0.2061153795
33
0.0000000000
40
0.0000000000
40
0.0000000000
40
0.0000000000
40
0.0000000000
40
0.4244838572
40
0.8490657677
40
1.0000000000
40
1.0000000000
40
1.0000000000
40
1.0000000000
10
30.6512052174
20
-15.6365414889
30
0.0000000000
10
30.6512052174
20
-15.6690880960
30
0.0000000000
10
30.6447750817
20
-15.7343698087
30
0.0000000000
10
30.6223421505
20
-15.8081823349
30
0.0000000000
10
30.6039745501
20
-15.8484103242
30
0.0000000000
10
30.5987956382
20
-15.8587802797
30
0.0000000000
11
30.6512052174
21
-15.6365414889
31
0.0000000000
11
30.6416223282
21
-15.7337099146
31
0.0000000000
11
30.6132333466
21
-15.8271551141
31
0.0000000000
11
30.5987956382
21
-15.8587802797
31
0.0000000000
0
SPLINE
5
55B
100
AcDbEntity
8
0
100
AcDbSpline
62
7
6
CONTINUOUS
70
0
71
3
72
15
73
11
74
9
42
0.0000001000
43
0.0000001000
44
0.0000000001
12
0.7825580376
22
0.0000000000
32
0.0000000000
13
0.0000000000
23
-0.7825580376
33
0.0000000000
40
0.0000000000
40
0.0000000000
40
0.0000000000
40
0.0000000000
40
0.1252363087
40
0.2504399304
40
0.3755773808
40
0.5006260707
40
0.6255742037
40
0.7504356136
40
0.8752313730
40
1.0000000000
40
1.0000000000
40
1.0000000000
40
1.0000000000
10
30.1515858171
20
27.9965583063
30
0.0000000000
10
30.1842540438
20
27.9965583063
30
0.0000000000
10
30.2497622688
20
27.9901328006
30
0.0000000000
10
30.3441064207
20
27.9615791934
30
0.0000000000
10
30.4310750342
20
27.9152079621
30
0.0000000000
10
30.5072691232
20
27.8528089415
30
0.0000000000
10
30.5697756165
20
27.7767956131
30
0.0000000000
10
30.6161996580
20
27.6900855279
30
0.0000000000
10
30.6447752744
20
27.5960597197
30
0.0000000000
10
30.6512052174
20
27.5307792067
30
0.0000000000
10
30.6512052174
20
27.4982329760
30
0.0000000000
11
30.1515858171
21
27.9965583063
31
0.0000000000
11
30.2491210729
21
27.9869775350
31
0.0000000000
11
30.3429005988
21
27.9585996449
31
0.0000000000
11
30.4293077509
21
27.9125175051
31
0.0000000000
11
30.5050149670
21
27.8505128465
31
0.0000000000
11
30.5671140629
21
27.7749849209
31
0.0000000000
11
30.6132347253
21
27.6888432781
31
0.0000000000
11
30.6416225499
21
27.5954002887
31
0.0000000000
11
30.6512052174
21
27.4982329760
31
0.0000000000
0
SPLINE
5
55C
100
AcDbEntity
8
0
100
AcDbSpline
62
7
6
CONTINUOUS
70
0
71
3
72
15
73
11
74
9
42
0.0000001000
43
0.0000001000
44
0.0000000001
12
0.0000000000
22
0.7825580375
32
0.0000000000
13
0.7825580375
23
-0.0000000000
33
0.0000000000
40
0.0000000000
40
0.0000000000
40
0.0000000000
40
0.0000000000
40
0.1247700702
40
0.2495689617
40
0.3744335968
40
0.4993830920
40
0.6244304316
40
0.7495646574
40
0.8747651397
40
1.0000000000
40
1.0000000000
40
1.0000000000
40
1.0000000000
10
-14.1487947826
20
27.4982329760
30
0.0000000000
10
-14.1487947826
20
27.5307795831
30
0.0000000000
10
-14.1423646469
20
27.5960612958
30
0.0000000000
10
-14.1137879786
20
27.6900889579
30
0.0000000000
10
-14.0673621165
20
27.7768004057
30
0.0000000000
10
-14.0048540562
20
27.8528135642
30
0.0000000000
10
-13.9286597957
20
27.9152110216
30
0.0000000000
10
-13.8416925471
20
27.9615804360
30
0.0000000000
10
-13.7473502533
20
27.9901329931
30
0.0000000000
10
-13.6818432312
20
27.9965583063
30
0.0000000000
10
-13.6491753823
20
27.9965583063
30
0.0000000000
11
-14.1487947826
21
27.4982329760
31
0.0000000000
11
-14.1392118934
21
27.5954014017
31
0.0000000000
11
-14.1108229119
21
27.6888466012
31
0.0000000000
11
-14.0647002162
21
27.7749900183
31
0.0000000000
11
-14.0025994325
21
27.8505179363
31
0.0000000000
11
-13.9268922049
21
27.9125209130
31
0.0000000000
11
-13.8404868299
21
27.9586010226
31
0.0000000000
11
-13.7467095210
21
27.9869777567
31
0.0000000000
11
-13.6491753823
21
27.9965583063
31
0.0000000000
0
SPLINE
5
55D
100
AcDbEntity
8
0
100
AcDbSpline
62
9
6
CONTINUOUS
70
0
71
3
72
8
73
4
74
2
42
0.0000001000
43
0.0000001000
44
0.0000000001
12
-0.0001188206
22
-0.1300280518
32
0.0000000000
13
-0.0339723214
23
-0.1266570761
33
0.0000000000
40
0.0000000000
40
0.0000000000
40
0.0000000000
40
0.0000000000
40
1.0000000000
40
1.0000000000
40
1.0000000000
40
1.0000000000
10
30.5447308244
20
-15.8497175640
30
0.0000000000
10
30.5446912175
20
-15.8930602480
30
0.0000000000
10
30.5388655870
20
-15.9367146037
30
0.0000000000
10
30.5275414798
20
-15.9789336290
30
0.0000000000
11
30.5447308244
21
-15.8497175640
31
0.0000000000
11
30.5275414798
21
-15.9789336290
31
0.0000000000
0
SPLINE
5
55E
100
AcDbEntity
8
0
100
AcDbSpline
62
9
6
CONTINUOUS
70
0
71
3
72
9
73
5
74
3
42
0.0000001000
43
0.0000001000
44
0.0000000001
12
-0.0257253065
22
-0.0959101989
32
0.0000000000
13
-0.0441812300
23
-0.0887823165
33
0.0000000000
40
0.0000000000
40
0.0000000000
40
0.0000000000
40
0.0000000000
40
0.6582388840
40
1.0000000000
40
1.0000000000
40
1.0000000000
40
1.0000000000
10
30.5275414798
20
-15.9789336290
30
0.0000000000
10
30.5218970142
20
-15.9999775698
30
0.0000000000
10
30.5112465370
20
-16.0314058772
30
0.0000000000
10
30.4975253252
20
-16.0615118170
30
0.0000000000
10
30.4924921830
20
-16.0716259316
30
0.0000000000
11
30.5275414798
21
-15.9789336290
31
0.0000000000
11
30.5065454147
21
-16.0407792845
31
0.0000000000
11
30.4924921830
21
-16.0716259316
31
0.0000000000
0
SPLINE
5
55F
100
AcDbEntity
8
0
100
AcDbSpline
62
9
6
CONTINUOUS
70
0
71
3
72
11
73
7
74
5
42
0.0000001000
43
0.0000001000
44
0.0000000001
12
-0.0684459165
22
-0.5046068047
32
0.0000000000
13
-0.5092275870
23
-0.0003680140
33
0.0000000000
40
0.0000000000
40
0.0000000000
40
0.0000000000
40
0.0000000000
40
0.0927982892
40
0.3105117655
40
0.6280867864
40
1.0000000000
40
1.0000000000
40
1.0000000000
40
1.0000000000
10
30.5364676634
20
-15.4143551271
30
0.0000000000
10
30.5343504421
20
-15.4299640099
30
0.0000000000
10
30.4667507491
20
-15.4454955214
30
0.0000000000
10
30.3751785571
20
-15.4635278080
30
0.0000000000
10
30.2148480461
20
-15.4748672160
30
0.0000000000
10
30.0996733054
20
-15.4778802652
30
0.0000000000
10
30.0365438159
20
-15.4779258883
30
0.0000000000
11
30.5364676634
21
-15.4143551271
31
0.0000000000
11
30.4959395675
21
-15.4386564040
31
0.0000000000
11
30.3869986239
21
-15.4592253726
31
0.0000000000
11
30.2258682350
21
-15.4729989172
31
0.0000000000
11
30.0365438159
21
-15.4779258883
31
0.0000000000
0
SPLINE
5
560
100
AcDbEntity
8
0
100
AcDbSpline
62
9
6
CONTINUOUS
70
0
71
3
72
13
73
9
74
7
42
0.0000001000
43
0.0000001000
44
0.0000000001
12
0.0003133868
22
-0.8668050899
32
0.0000000000
13
0.1460792258
23
-0.0677575401
33
0.0000000000
40
0.0000000000
40
0.0000000000
40
0.0000000000
40
0.0000000000
40
0.2742357830
40
0.5230963464
40
0.7313514002
40
0.8866700506
40
0.9796323107
40
1.0000000000
40
1.0000000000
40
1.0000000000
40
1.0000000000
10
30.0365438159
20
-15.4779275650
30
0.0000000000
10
30.0365724632
20
-15.5571638892
30
0.0000000000
10
30.0367993920
20
-15.7073767174
30
0.0000000000
10
30.0375489804
20
-15.9223408890
30
0.0000000000
10
30.0389063516
20
-16.0891175735
30
0.0000000000
10
30.0400569818
20
-16.2453088703
30
0.0000000000
10
30.0421945370
20
-16.2814738769
30
0.0000000000
10
30.0429849936
20
-16.3499218988
30
0.0000000000
10
30.0439767591
20
-16.3503819203
30
0.0000000000
11
30.0365438159
21
-15.4779275650
31
0.0000000000
11
30.0368953849
21
-15.7156362931
31
0.0000000000
11
30.0377520158
21
-15.9313482094
31
0.0000000000
11
30.0390599406
21
-16.1118600235
31
0.0000000000
11
30.0407423571
21
-16.2464805164
31
0.0000000000
11
30.0426972774
21
-16.3270369647
31
0.0000000000
11
30.0439767591
21
-16.3503819203
31
0.0000000000
0
SPLINE
5
561
100
AcDbEntity
8
0
100
AcDbSpline
62
9
6
CONTINUOUS
70
0
71
3
72
13
73
9
74
7
42
0.0000001000
43
0.0000001000
44
0.0000000001
12
0.0003176892
22
-0.4356486422
32
0.0000000000
13
0.1943030325
23
0.3899181605
33
0.0000000000
40
0.0000000000
40
0.0000000000
40
0.0000000000
40
0.0000000000
40
0.2728012850
40
0.5205922442
40
0.7279034456
40
0.8824461456
40
0.9749083869
40
1.0000000000
40
1.0000000000
40
1.0000000000
40
1.0000000000
10
30.5364676635
20
-15.4143551271
30
0.0000000000
10
30.5364965522
20
-15.4539702969
30
0.0000000000
10
30.5367153260
20
-15.5291319594
30
0.0000000000
10
30.5374960022
20
-15.6365529929
30
0.0000000000
10
30.5387682033
20
-15.7202848941
30
0.0000000000
10
30.5401281215
20
-15.7976758364
30
0.0000000000
10
30.5419456843
20
-15.8173103931
30
0.0000000000
10
30.5431056989
20
-15.8529787893
30
0.0000000000
10
30.5447308244
20
-15.8497175640
30
0.0000000000
11
30.5364676635
21
-15.4143551271
31
0.0000000000
11
30.5368190792
21
-15.5332001486
31
0.0000000000
11
30.5376762603
21
-15.6411465689
31
0.0000000000
11
30.5389859912
21
-15.7314519391
31
0.0000000000
11
30.5406704060
21
-15.7987572002
31
0.0000000000
11
30.5426275684
21
-15.8389906857
31
0.0000000000
11
30.5447308244
21
-15.8497175640
31
0.0000000000
0
SPLINE
5
562
100
AcDbEntity
8
0
100
AcDbSpline
62
9
6
CONTINUOUS
70
0
71
3
72
11
73
7
74
5
42
0.0000001000
43
0.0000001000
44
0.0000000001
12
-0.1794210542
22
-0.4679065764
32
0.0000000000
13
-0.5011270756
23
0.0003647676
33
0.0000000000
40
0.0000000000
40
0.0000000000
40
0.0000000000
40
0.0000000000
40
0.0826512481
40
0.3005119078
40
0.6221869300
40
1.0000000000
40
1.0000000000
40
1.0000000000
40
1.0000000000
10
30.5364676635
20
26.1302431729
30
0.0000000000
10
30.5315245388
20
26.1173521521
30
0.0000000000
10
30.4632967114
20
26.1280320952
30
0.0000000000
10
30.3753285968
20
26.1080900419
30
0.0000000000
10
30.2142892880
20
26.1110883563
30
0.0000000000
10
30.0996546022
20
26.1082109822
30
0.0000000000
10
30.0365438159
20
26.1082569202
30
0.0000000000
11
30.5364676635
21
26.1302431729
31
0.0000000000
11
30.4959415474
21
26.1216903949
31
0.0000000000
11
30.3870010633
21
26.1145245739
31
0.0000000000
11
30.2258698315
21
26.1098128572
31
0.0000000000
11
30.0365438159
21
26.1082569202
31
0.0000000000
0
SPLINE
5
563
100
AcDbEntity
8
0
100
AcDbSpline
62
9
6
CONTINUOUS
70
0
71
3
72
10
73
6
74
4
42
0.0000001000
43
0.0000001000
44
0.0000000001
12
-0.0303032869
22
-41.5445905443
32
0.0000000000
13
0.0305256509
23
-41.5445903815
33
0.0000000000
40
0.0000000000
40
0.0000000000
40
0.0000000000
40
0.0000000000
40
0.3341013941
40
0.6675219244
40
1.0000000000
40
1.0000000000
40
1.0000000000
40
1.0000000000
10
30.5364676635
20
26.1302431729
30
0.0000000000
10
30.5330928734
20
21.5035413000
30
0.0000000000
10
30.5285899792
20
12.2595644918
30
0.0000000000
10
30.5285817544
20
-1.5886365338
30
0.0000000000
10
30.5330846269
20
-10.8101333067
30
0.0000000000
10
30.5364676635
20
-15.4143551271
30
0.0000000000
11
30.5364676635
21
26.1302431729
31
0.0000000000
11
30.5297120321
21
12.2501355058
31
0.0000000000
11
30.5297120266
21
-1.6016875893
31
0.0000000000
11
30.5364676635
21
-15.4143551271
31
0.0000000000
0
SPLINE
5
564
100
AcDbEntity
8
0
100
AcDbSpline
62
9
6
CONTINUOUS
70
0
71
3
72
11
73
7
74
5
42
0.0000001000
43
0.0000001000
44
0.0000000001
12
-0.0007162708
22
0.7766816559
32
0.0000000000
13
-0.7766797007
23
0.0018841609
33
0.0000000000
40
0.0000000000
40
0.0000000000
40
0.0000000000
40
0.0000000000
40
0.2488014531
40
0.4984238193
40
0.7489684585
40
1.0000000000
40
1.0000000000
40
1.0000000000
40
1.0000000000
10
30.5447308244
20
26.6481239994
30
0.0000000000
10
30.5446714213
20
26.7125371743
30
0.0000000000
10
30.5184488469
20
26.8429711951
30
0.0000000000
10
30.4070098149
20
27.0075949579
30
0.0000000000
10
30.2409818239
20
27.1178616213
30
0.0000000000
10
30.1097973443
20
27.1438609111
30
0.0000000000
10
30.0448069768
20
27.1440185723
30
0.0000000000
11
30.5447308244
21
26.6481239994
31
0.0000000000
11
30.5065470018
21
26.8375535149
31
0.0000000000
11
30.3981488710
21
26.9982962038
31
0.0000000000
11
30.2360174522
21
27.1059067813
31
0.0000000000
11
30.0448069768
21
27.1440185723
31
0.0000000000
0
SPLINE
5
565
100
AcDbEntity
8
0
100
AcDbSpline
62
9
6
CONTINUOUS
70
0
71
3
72
13
73
9
74
7
42
0.0000001000
43
0.0000001000
44
0.0000000001
12
-0.0649176002
22
-1.0337906381
32
0.0000000000
13
-0.0003717765
23
-1.0358268389
33
0.0000000000
40
0.0000000000
40
0.0000000000
40
0.0000000000
40
0.0000000000
40
0.0615821851
40
0.1770676343
40
0.3394801823
40
0.5389762350
40
0.7637361100
40
1.0000000000
40
1.0000000000
40
1.0000000000
40
1.0000000000
10
30.0448069768
20
27.1440185725
30
0.0000000000
10
30.0434743876
20
27.1227975437
30
0.0000000000
10
30.0423442249
20
27.0616445382
30
0.0000000000
10
30.0403201915
20
26.9444654022
30
0.0000000000
10
30.0388901890
20
26.7796294133
30
0.0000000000
10
30.0376051115
20
26.5770744142
30
0.0000000000
10
30.0368029889
20
26.3490130322
30
0.0000000000
10
30.0365730950
20
26.1898330790
30
0.0000000000
10
30.0365438159
20
26.1082569195
30
0.0000000000
11
30.0448069768
21
27.1440185725
31
0.0000000000
11
30.0426972774
21
27.0802649852
31
0.0000000000
11
30.0407423571
21
26.9606580248
31
0.0000000000
11
30.0390599406
21
26.7924351507
31
0.0000000000
11
30.0377520159
21
26.5857959110
31
0.0000000000
11
30.0368953848
21
26.3529851611
31
0.0000000000
11
30.0365438159
21
26.1082569195
31
0.0000000000
0
SPLINE
5
566
100
AcDbEntity
8
0
100
AcDbSpline
62
9
6
CONTINUOUS
70
0
71
3
72
13
73
9
74
7
42
0.0000001000
43
0.0000001000
44
0.0000000001
12
-0.0644135725
22
-0.5139908572
32
0.0000000000
13
-0.0003750199
23
-0.5180111669
33
0.0000000000
40
0.0000000000
40
0.0000000000
40
0.0000000000
40
0.0000000000
40
0.0613891062
40
0.1768505315
40
0.3392855798
40
0.5388816674
40
0.7637988453
40
1.0000000000
40
1.0000000000
40
1.0000000000
40
1.0000000000
10
30.5447308244
20
26.6481239994
30
0.0000000000
10
30.5434127272
20
26.6376061863
30
0.0000000000
10
30.5422646547
20
26.6070397599
30
0.0000000000
10
30.5402513814
20
26.5485240315
30
0.0000000000
10
30.5388143801
20
26.4660689002
30
0.0000000000
10
30.5375293819
20
26.3647347410
30
0.0000000000
10
30.5367266913
20
26.2506489973
30
0.0000000000
10
30.5364971902
20
26.1710281182
30
0.0000000000
10
30.5364676635
20
26.1302431729
30
0.0000000000
11
30.5447308244
21
26.6481239994
31
0.0000000000
11
30.5426275684
21
26.6163933791
31
0.0000000000
11
30.5406704060
21
26.5566150863
31
0.0000000000
11
30.5389859912
21
26.4724887567
31
0.0000000000
11
30.5376762603
21
26.3691040232
31
0.0000000000
11
30.5368190792
21
26.2525975361
31
0.0000000000
11
30.5364676635
21
26.1302431729
31
0.0000000000
0
SPLINE
5
567
100
AcDbEntity
8
0
100
AcDbSpline
62
9
6
CONTINUOUS
70
0
71
3
72
11
73
7
74
5
42
0.0000001000
43
0.0000001000
44
0.0000000001
12
-0.5092260125
22
0.0003679994
32
0.0000000000
13
-0.0685688393
23
0.5045885270
33
0.0000000000
40
0.0000000000
40
0.0000000000
40
0.0000000000
40
0.0000000000
40
0.3719073515
40
0.6894795278
40
0.9071952209
40
1.0000000000
40
1.0000000000
40
1.0000000000
40
1.0000000000
10
-13.5341333812
20
-15.4779222853
30
0.0000000000
10
-13.5972616804
20
-15.4778766647
30
0.0000000000
10
-13.7124351840
20
-15.4748634099
30
0.0000000000
10
-13.8727620634
20
-15.4635260051
30
0.0000000000
10
-13.9643390028
20
-15.4454917263
30
0.0000000000
10
-14.0319360562
20
-15.4299645361
30
0.0000000000
10
-14.0340572282
20
-15.4143551271
30
0.0000000000
11
-13.5341333812
21
-15.4779222853
31
0.0000000000
11
-13.7234542365
21
-15.4729956318
31
0.0000000000
11
-13.8845827435
21
-15.4592229493
31
0.0000000000
11
-13.9935247127
21
-15.4386551754
31
0.0000000000
11
-14.0340572282
21
-15.4143551271
31
0.0000000000
0
SPLINE
5
568
100
AcDbEntity
8
0
100
AcDbSpline
62
9
6
CONTINUOUS
70
0
71
3
72
13
73
9
74
7
42
0.0000001000
43
0.0000001000
44
0.0000000001
12
-0.0003205213
22
-0.4356489874
32
0.0000000000
13
-0.1944984406
23
0.3898211123
33
0.0000000000
40
0.0000000000
40
0.0000000000
40
0.0000000000
40
0.0000000000
40
0.2713418850
40
0.5195202417
40
0.7276784066
40
0.8826122404
40
0.9750357333
40
1.0000000000
40
1.0000000000
40
1.0000000000
40
1.0000000000
10
-14.0340572287
20
-15.4143551271
30
0.0000000000
10
-14.0340862190
20
-15.4537583996
30
0.0000000000
10
-14.0343031430
20
-15.5287664046
30
0.0000000000
10
-14.0350816585
20
-15.6361578544
30
0.0000000000
10
-14.0363524869
20
-15.7201003150
30
0.0000000000
10
-14.0377210970
20
-15.7977116576
30
0.0000000000
10
-14.0395310337
20
-15.8173605553
30
0.0000000000
10
-14.0407018859
20
-15.8529614301
30
0.0000000000
10
-14.0423203896
20
-15.8497175640
30
0.0000000000
11
-14.0340572287
21
-15.4143551271
31
0.0000000000
11
-14.0344052610
21
-15.5325644642
31
0.0000000000
11
-14.0352606790
21
-15.6406797593
31
0.0000000000
11
-14.0365735894
21
-15.7313541730
31
0.0000000000
11
-14.0382623244
21
-15.7988298302
31
0.0000000000
11
-14.0402215553
21
-15.8390463464
31
0.0000000000
11
-14.0423203896
21
-15.8497175640
31
0.0000000000
0
SPLINE
5
569
100
AcDbEntity
8
0
100
AcDbSpline
62
9
6
CONTINUOUS
70
0
71
3
72
12
73
8
74
6
42
0.0000001000
43
0.0000001000
44
0.0000000001
12
-0.0003222255
22
-0.8701354620
32
0.0000000000
13
-0.2018933993
23
0.7273111305
33
0.0000000000
40
0.0000000000
40
0.0000000000
40
0.0000000000
40
0.0000000000
40
0.3253531251
40
0.6096845975
40
0.8284060797
40
0.9626503012
40
1.0000000000
40
1.0000000000
40
1.0000000000
40
1.0000000000
10
-13.5341333811
20
-15.4779275650
30
0.0000000000
10
-13.5341683268
20
-15.5722946623
30
0.0000000000
10
-13.5343040432
20
-15.7528178454
30
0.0000000000
10
-13.5359387958
20
-15.9793248839
30
0.0000000000
10
-13.5361894709
20
-16.1978661529
30
0.0000000000
10
-13.5403670609
20
-16.2508077279
30
0.0000000000
10
-13.5397123321
20
-16.3583560414
30
0.0000000000
10
-13.5422258847
20
-16.3493010909
30
0.0000000000
11
-13.5341333811
21
-15.4779275650
31
0.0000000000
11
-13.5346171468
21
-15.7610284629
31
0.0000000000
11
-13.5358143459
21
-16.0084324803
31
0.0000000000
11
-13.5376200308
21
-16.1987412452
31
0.0000000000
11
-13.5398793210
21
-16.3155300599
31
0.0000000000
11
-13.5422258847
21
-16.3493010909
31
0.0000000000
0
SPLINE
5
56A
100
AcDbEntity
8
0
100
AcDbSpline
62
9
6
CONTINUOUS
70
0
71
3
72
11
73
7
74
5
42
0.0000001000
43
0.0000001000
44
0.0000000001
12
-0.5011270758
22
-0.0003647798
32
0.0000000000
13
-0.1794209515
23
0.4679066161
33
0.0000000000
40
0.0000000000
40
0.0000000000
40
0.0000000000
40
0.0000000000
40
0.3778130738
40
0.6994880970
40
0.9173487552
40
1.0000000000
40
1.0000000000
40
1.0000000000
40
1.0000000000
10
-13.5341333811
20
26.1082569199
30
0.0000000000
10
-13.5972441681
20
26.1082109804
30
0.0000000000
10
-13.7118788540
20
26.1110883526
30
0.0000000000
10
-13.8729181661
20
26.1080900397
30
0.0000000000
10
-13.9608862748
20
26.1280320953
30
0.0000000000
10
-14.0291141070
20
26.1173521515
30
0.0000000000
10
-14.0340572287
20
26.1302431729
30
0.0000000000
11
-13.5341333811
21
26.1082569199
31
0.0000000000
11
-13.7234593987
21
26.1098128542
31
0.0000000000
11
-13.8845906311
21
26.1145245723
31
0.0000000000
11
-13.9935311143
21
26.1216903945
31
0.0000000000
11
-14.0340572287
21
26.1302431729
31
0.0000000000
0
SPLINE
5
56B
100
AcDbEntity
8
0
100
AcDbSpline
62
9
6
CONTINUOUS
70
0
71
3
72
10
73
6
74
4
42
0.0000001000
43
0.0000001000
44
0.0000000001
12
0.0303032983
22
-41.5445905443
32
0.0000000000
13
-0.0305256500
23
-41.5445903815
33
0.0000000000
40
0.0000000000
40
0.0000000000
40
0.0000000000
40
0.0000000000
40
0.3341018316
40
0.6675221741
40
1.0000000000
40
1.0000000000
40
1.0000000000
40
1.0000000000
10
-14.0340572287
20
26.1302431729
30
0.0000000000
10
-14.0306824329
20
21.5035352423
30
0.0000000000
10
-14.0261795423
20
12.2595549761
30
0.0000000000
10
-14.0261713228
20
-1.5886460496
30
0.0000000000
10
-14.0306741948
20
-10.8101367647
30
0.0000000000
10
-14.0340572287
20
-15.4143551271
30
0.0000000000
11
-14.0340572287
21
26.1302431729
31
0.0000000000
11
-14.0273015931
21
12.2501173325
31
0.0000000000
11
-14.0273015942
21
-1.6016979633
31
0.0000000000
11
-14.0340572287
21
-15.4143551271
31
0.0000000000
0
SPLINE
5
56C
100
AcDbEntity
8
0
100
AcDbSpline
62
9
6
CONTINUOUS
70
0
71
3
72
11
73
7
74
5
42
0.0000001000
43
0.0000001000
44
0.0000000001
12
-0.7766797065
22
-0.0018841368
32
0.0000000000
13
-0.0007162677
23
-0.7766816615
33
0.0000000000
40
0.0000000000
40
0.0000000000
40
0.0000000000
40
0.0000000000
40
0.2510344288
40
0.5015803869
40
0.7512018818
40
1.0000000000
40
1.0000000000
40
1.0000000000
40
1.0000000000
10
-13.5423965420
20
27.1440185725
30
0.0000000000
10
-13.6073876575
20
27.1438609115
30
0.0000000000
10
-13.7385732740
20
27.1178610935
30
0.0000000000
10
-13.9046014264
20
27.0075929765
30
0.0000000000
10
-14.0160390101
20
26.8429691897
30
0.0000000000
10
-14.0422609876
20
26.7125363114
30
0.0000000000
10
-14.0423203896
20
26.6481239994
30
0.0000000000
11
-13.5423965420
21
27.1440185725
31
0.0000000000
11
-13.7336091326
21
27.1059059140
31
0.0000000000
11
-13.8957408040
21
26.9982938621
31
0.0000000000
11
-14.0041375888
21
26.8375510800
31
0.0000000000
11
-14.0423203896
21
26.6481239994
31
0.0000000000
0
SPLINE
5
56D
100
AcDbEntity
8
0
100
AcDbSpline
62
9
6
CONTINUOUS
70
0
71
3
72
13
73
9
74
7
42
0.0000001000
43
0.0000001000
44
0.0000000001
12
0.0643935699
22
-0.5139933835
32
0.0000000000
13
0.0003783381
23
-0.5180111842
33
0.0000000000
40
0.0000000000
40
0.0000000000
40
0.0000000000
40
0.0000000000
40
0.0611962676
40
0.1766649345
40
0.3395122902
40
0.5398821035
40
0.7650912566
40
1.0000000000
40
1.0000000000
40
1.0000000000
40
1.0000000000
10
-14.0423203896
20
26.6481239994
30
0.0000000000
10
-14.0410068409
20
26.6376391739
30
0.0000000000
10
-14.0398554476
20
26.6071052101
30
0.0000000000
10
-14.0378412126
20
26.5485502445
30
0.0000000000
10
-14.0364004721
20
26.4658890872
30
0.0000000000
10
-14.0351144674
20
26.3642997156
30
0.0000000000
10
-14.0343145716
20
26.2502530990
30
0.0000000000
10
-14.0340868537
20
26.1708049584
30
0.0000000000
10
-14.0340572287
20
26.1302431729
30
0.0000000000
11
-14.0423203896
21
26.6481239994
31
0.0000000000
11
-14.0402215553
21
26.6164931966
31
0.0000000000
11
-14.0382623244
21
26.5567112160
31
0.0000000000
11
-14.0365735894
21
26.4723713470
31
0.0000000000
11
-14.0352606790
21
26.3685858190
31
0.0000000000
11
-14.0344052610
21
26.2519280640
31
0.0000000000
11
-14.0340572287
21
26.1302431729
31
0.0000000000
0
SPLINE
5
56E
100
AcDbEntity
8
0
100
AcDbSpline
62
9
6
CONTINUOUS
70
0
71
3
72
12
73
8
74
6
42
0.0000001000
43
0.0000001000
44
0.0000000001
12
0.0649533063
22
-1.0337871238
32
0.0000000000
13
0.0003807868
23
-1.0358255666
33
0.0000000000
40
0.0000000000
40
0.0000000000
40
0.0000000000
40
0.0000000000
40
0.0805523727
40
0.2368817382
40
0.4554383100
40
0.7173641519
40
1.0000000000
40
1.0000000000
40
1.0000000000
40
1.0000000000
10
-13.5423965420
20
27.1440185725
30
0.0000000000
10
-13.5406524944
20
27.1162605706
30
0.0000000000
10
-13.5395461748
20
27.0344363150
30
0.0000000000
10
-13.5370739765
20
26.8772333522
30
0.0000000000
10
-13.5356517838
20
26.6573469727
30
0.0000000000
10
-13.5344518737
20
26.3938692259
30
0.0000000000
10
-13.5341692558
20
26.2058440654
30
0.0000000000
10
-13.5341333811
20
26.1082569195
30
0.0000000000
11
-13.5423965420
21
27.1440185725
31
0.0000000000
11
-13.5398793210
21
27.0606183390
31
0.0000000000
11
-13.5376200308
21
26.8987041364
31
0.0000000000
11
-13.5358143459
21
26.6723248376
31
0.0000000000
11
-13.5346171468
21
26.4010179771
31
0.0000000000
11
-13.5341333811
21
26.1082569195
31
0.0000000000
0
SPLINE
5
56F
100
AcDbEntity
8
0
100
AcDbSpline
62
9
6
CONTINUOUS
70
0
71
3
72
9
73
5
74
3
42
0.0000001000
43
0.0000001000
44
0.0000000001
12
-0.0438790450
22
0.0883916252
32
0.0000000000
13
-0.0255994341
23
0.0954409160
33
0.0000000000
40
0.0000000000
40
0.0000000000
40
0.0000000000
40
0.0000000000
40
0.3385245564
40
1.0000000000
40
1.0000000000
40
1.0000000000
40
1.0000000000
10
-13.9902977130
20
-16.0711914173
30
0.0000000000
10
-13.9952490911
20
-16.0612171720
30
0.0000000000
10
-14.0088882144
20
-16.0312521002
30
0.0000000000
10
-14.0194865794
20
-15.9999775696
30
0.0000000000
10
-14.0251310451
20
-15.9789336289
30
0.0000000000
11
-13.9902977130
21
-16.0711914173
31
0.0000000000
11
-14.0041349800
21
-16.0407792842
31
0.0000000000
11
-14.0251310451
21
-15.9789336289
31
0.0000000000
0
SPLINE
5
570
100
AcDbEntity
8
0
100
AcDbSpline
62
9
6
CONTINUOUS
70
0
71
3
72
8
73
4
74
2
42
0.0000001000
43
0.0000001000
44
0.0000000001
12
-0.0339723214
22
0.1266570760
32
0.0000000000
13
-0.0001188206
23
0.1300280516
33
0.0000000000
40
0.0000000000
40
0.0000000000
40
0.0000000000
40
0.0000000000
40
1.0000000000
40
1.0000000000
40
1.0000000000
40
1.0000000000
10
-14.0251310451
20
-15.9789336289
30
0.0000000000
10
-14.0364551522
20
-15.9367146036
30
0.0000000000
10
-14.0422807827
20
-15.8930602479
30
0.0000000000
10
-14.0423203896
20
-15.8497175640
30
0.0000000000
11
-14.0251310451
21
-15.9789336289
31
0.0000000000
11
-14.0423203896
21
-15.8497175640
31
0.0000000000
0
SPLINE
5
571
100
AcDbEntity
8
0
100
AcDbSpline
62
6
6
CONTINUOUS
70
0
71
3
72
10
73
6
74
4
42
0.0000001000
43
0.0000001000
44
0.0000000001
12
-0.1444144255
22
-0.0184070312
32
0.0000000000
13
-0.1444144255
23
0.0184070312
33
0.0000000000
40
0.0000000000
40
0.0000000000
40
0.0000000000
40
0.0000000000
40
0.3341228435
40
0.6658799625
40
1.0000000000
40
1.0000000000
40
1.0000000000
40
1.0000000000
10
24.5738224561
20
-9.3480526332
30
0.0000000000
10
24.5577384033
20
-9.3501027031
30
0.0000000000
10
24.5254951184
20
-9.3528459992
30
0.0000000000
10
24.4769150436
20
-9.3528459818
30
0.0000000000
10
24.4446718964
20
-9.3501026859
30
0.0000000000
10
24.4285879787
20
-9.3480526332
30
0.0000000000
11
24.5738224561
21
-9.3480526332
31
0.0000000000
11
24.5253540745
21
-9.3521650368
31
0.0000000000
11
24.4770559517
21
-9.3521650195
31
0.0000000000
11
24.4285879787
21
-9.3480526332
31
0.0000000000
0
SPLINE
5
572
100
AcDbEntity
8
0
100
AcDbSpline
62
6
6
CONTINUOUS
70
0
71
3
72
10
73
6
74
4
42
0.0000001000
43
0.0000001000
44
0.0000000001
12
0.1444144255
22
-0.0184070312
32
0.0000000000
13
0.1444144255
23
0.0184070312
33
0.0000000000
40
0.0000000000
40
0.0000000000
40
0.0000000000
40
0.0000000000
40
0.3341228435
40
0.6658799625
40
1.0000000000
40
1.0000000000
40
1.0000000000
40
1.0000000000
10
14.4285879787
20
-8.4730526332
30
0.0000000000
10
14.4446720315
20
-8.4751027031
30
0.0000000000
10
14.4769153164
20
-8.4778459992
30
0.0000000000
10
14.5254953912
20
-8.4778459818
30
0.0000000000
10
14.5577385384
20
-8.4751026859
30
0.0000000000
10
14.5738224561
20
-8.4730526332
30
0.0000000000
11
14.4285879787
21
-8.4730526332
31
0.0000000000
11
14.4770563602
21
-8.4771650368
31
0.0000000000
11
14.5253544831
21
-8.4771650195
31
0.0000000000
11
14.5738224561
21
-8.4730526332
31
0.0000000000
0
SPLINE
5
573
100
AcDbEntity
8
0
100
AcDbSpline
62
6
6
CONTINUOUS
70
0
71
3
72
10
73
6
74
4
42
0.0000001000
43
0.0000001000
44
0.0000000001
12
-0.1444144255
22
0.0184070312
32
0.0000000000
13
-0.1444144255
23
-0.0184070312
33
0.0000000000
40
0.0000000000
40
0.0000000000
40
0.0000000000
40
0.0000000000
40
0.3341228435
40
0.6658799625
40
1.0000000000
40
1.0000000000
40
1.0000000000
40
1.0000000000
10
24.5738224561
20
19.7769473668
30
0.0000000000
10
24.5577384033
20
19.7789974366
30
0.0000000000
10
24.5254951184
20
19.7817407327
30
0.0000000000
10
24.4769150436
20
19.7817407153
30
0.0000000000
10
24.4446718964
20
19.7789974194
30
0.0000000000
10
24.4285879787
20
19.7769473668
30
0.0000000000
11
24.5738224561
21
19.7769473668
31
0.0000000000
11
24.5253540745
21
19.7810597703
31
0.0000000000
11
24.4770559517
21
19.7810597530
31
0.0000000000
11
24.4285879787
21
19.7769473668
31
0.0000000000
0
SPLINE
5
574
100
AcDbEntity
8
0
100
AcDbSpline
62
9
6
CONTINUOUS
70
0
71
3
72
11
73
7
74
5
42
0.0000001000
43
0.0000001000
44
0.0000000001
12
0.0174485615
22
-0.4994334767
32
0.0000000000
13
0.4994337544
23
0.0174406110
33
0.0000000000
40
0.0000000000
40
0.0000000000
40
0.0000000000
40
0.0000000000
40
0.3826055132
40
0.7069107629
40
0.9236352598
40
1.0000000000
40
1.0000000000
40
1.0000000000
40
1.0000000000
10
-57.6888704374
20
-15.8497175640
30
0.0000000000
10
-57.6866451321
20
-15.9134128979
30
0.0000000000
10
-57.6790866901
20
-16.0271199159
30
0.0000000000
10
-57.6828998800
20
-16.1947849649
30
0.0000000000
10
-57.6557353306
20
-16.2698827748
30
0.0000000000
10
-57.6754407346
20
-16.3490963881
30
0.0000000000
10
-57.6627276917
20
-16.3486524388
30
0.0000000000
11
-57.6888704374
21
-15.8497175640
31
0.0000000000
11
-57.6815323941
21
-16.0407792845
31
0.0000000000
11
-57.6739883083
21
-16.2026713202
31
0.0000000000
11
-57.6673853803
21
-16.3107753626
31
0.0000000000
11
-57.6627276917
21
-16.3486524388
31
0.0000000000
0
SPLINE
5
575
100
AcDbEntity
8
0
100
AcDbSpline
62
9
6
CONTINUOUS
70
0
71
3
72
13
73
9
74
7
42
0.0000001000
43
0.0000001000
44
0.0000000001
12
0.0945302038
22
-0.7303805968
32
0.0000000000
13
0.7360218063
23
0.0257619150
33
0.0000000000
40
0.0000000000
40
0.0000000000
40
0.0000000000
40
0.0000000000
40
0.1666362131
40
0.3335036800
40
0.5002504221
40
0.6670419633
40
0.8338494843
40
1.0000000000
40
1.0000000000
40
1.0000000000
40
1.0000000000
10
-58.2021641815
20
-15.4143551271
30
0.0000000000
10
-58.1969134631
20
-15.4549244127
30
0.0000000000
10
-58.1762520042
20
-15.5351612033
30
0.0000000000
10
-58.1169657848
20
-15.6440669001
30
0.0000000000
10
-58.0328762913
20
-15.7353400703
30
0.0000000000
10
-57.9290619422
20
-15.8033145058
30
0.0000000000
10
-57.8120278922
20
-15.8439099655
30
0.0000000000
10
-57.7296339049
20
-15.8511443492
30
0.0000000000
10
-57.6888704374
20
-15.8497175640
30
0.0000000000
11
-58.2021641815
21
-15.4143551271
31
0.0000000000
11
-58.1715570961
21
-15.5332001486
31
0.0000000000
11
-58.1128175476
21
-15.6411465689
31
0.0000000000
11
-58.0295958004
21
-15.7314519391
31
0.0000000000
11
-57.9268386814
21
-15.7987572002
31
0.0000000000
11
-57.8107646461
21
-15.8389906857
31
0.0000000000
11
-57.6888704374
21
-15.8497175640
31
0.0000000000
0
SPLINE
5
576
100
AcDbEntity
8
0
100
AcDbSpline
62
9
6
CONTINUOUS
70
0
71
3
72
10
73
6
74
4
42
0.0000001000
43
0.0000001000
44
0.0000000001
12
1.8977262350
22
-41.6708771776
32
0.0000000000
13
5.3671769561
23
-41.3673395463
33
0.0000000000
40
0.0000000000
40
0.0000000000
40
0.0000000000
40
0.0000000000
40
0.3333324993
40
0.6666669317
40
1.0000000000
40
1.0000000000
40
1.0000000000
40
1.0000000000
10
-61.8368455635
20
26.1302431729
30
0.0000000000
10
-61.6259876205
20
21.5001572941
30
0.0000000000
10
-61.0753404166
20
12.2452910396
30
0.0000000000
10
-59.8633262706
20
-1.6080968872
30
0.0000000000
10
-58.7985167025
20
-10.8179877204
30
0.0000000000
10
-58.2021641815
20
-15.4143551271
30
0.0000000000
11
-61.8368455635
21
26.1302431729
31
0.0000000000
11
-61.0110017495
21
12.2501355058
31
0.0000000000
11
-59.7991245730
21
-1.6016875893
31
0.0000000000
11
-58.2021641815
21
-15.4143551271
31
0.0000000000
0
SPLINE
5
577
100
AcDbEntity
8
0
100
AcDbSpline
62
9
6
CONTINUOUS
70
0
71
3
72
11
73
7
74
5
42
0.0000001000
43
0.0000001000
44
0.0000000001
12
-0.0695421304
22
0.4948758814
32
0.0000000000
13
0.4948747597
23
0.0695501118
33
0.0000000000
40
0.0000000000
40
0.0000000000
40
0.0000000000
40
0.0000000000
40
0.3825978651
40
0.7069034074
40
0.9236325374
40
1.0000000000
40
1.0000000000
40
1.0000000000
40
1.0000000000
10
-61.4069497985
20
26.6481239994
30
0.0000000000
10
-61.4158186887
20
26.7112368180
30
0.0000000000
10
-61.4281200116
20
26.8245277746
30
0.0000000000
10
-61.4609898854
20
26.9889828746
30
0.0000000000
10
-61.4472783546
20
27.0676578245
30
0.0000000000
10
-61.4804407964
20
27.1422481171
30
0.0000000000
10
-61.4678433531
20
27.1440185723
30
0.0000000000
11
-61.4069497985
21
26.6481239994
31
0.0000000000
11
-61.4329002208
21
26.8375535149
31
0.0000000000
11
-61.4535830495
21
26.9982962038
31
0.0000000000
11
-61.4658528316
21
27.1059067813
31
0.0000000000
11
-61.4678433531
21
27.1440185723
31
0.0000000000
0
SPLINE
5
578
100
AcDbEntity
8
0
100
AcDbSpline
62
9
6
CONTINUOUS
70
0
71
3
72
13
73
9
74
7
42
0.0000001000
43
0.0000001000
44
0.0000000001
12
-0.7293134957
22
-0.1024382772
32
0.0000000000
13
0.0337351570
23
-0.7356994732
33
0.0000000000
40
0.0000000000
40
0.0000000000
40
0.0000000000
40
0.0000000000
40
0.1661505156
40
0.3329580366
40
0.4997495779
40
0.6664963199
40
0.8333637869
40
1.0000000000
40
1.0000000000
40
1.0000000000
40
1.0000000000
10
-61.4069497985
20
26.6481239994
30
0.0000000000
10
-61.4473417363
20
26.6424506086
30
0.0000000000
10
-61.5272277356
20
26.6210185624
30
0.0000000000
10
-61.6354344485
20
26.5607170915
30
0.0000000000
10
-61.7258679872
20
26.4757481670
30
0.0000000000
10
-61.7928305521
20
26.3712596542
30
0.0000000000
10
-61.8323048065
20
26.2537135358
30
0.0000000000
10
-61.8387193964
20
26.1711078977
30
0.0000000000
10
-61.8368455635
20
26.1302431729
30
0.0000000000
11
-61.4069497985
21
26.6481239994
31
0.0000000000
11
-61.5251294573
21
26.6163933791
31
0.0000000000
11
-61.6324535961
21
26.5566150863
31
0.0000000000
11
-61.7219621673
21
26.4724887567
31
0.0000000000
11
-61.7882382262
21
26.3691040232
31
0.0000000000
11
-61.8273406901
21
26.2525975361
31
0.0000000000
11
-61.8368455635
21
26.1302431729
31
0.0000000000
0
SPLINE
5
579
100
AcDbEntity
8
0
100
AcDbSpline
62
9
6
CONTINUOUS
70
0
71
3
72
11
73
7
74
5
42
0.0000001000
43
0.0000001000
44
0.0000000001
12
-0.1950708665
22
-0.0239589883
32
0.0000000000
13
0.0239517991
23
-0.1950717494
33
0.0000000000
40
0.0000000000
40
0.0000000000
40
0.0000000000
40
0.0000000000
40
0.3839811200
40
0.7081454953
40
0.9242114398
40
1.0000000000
40
1.0000000000
40
1.0000000000
40
1.0000000000
10
-53.0490488521
20
5.5544518920
30
0.0000000000
10
-53.0740166954
20
5.5513852923
30
0.0000000000
10
-53.1183484386
20
5.5444043390
30
0.0000000000
10
-53.1844423387
20
5.5415343800
30
0.0000000000
10
-53.2126601133
20
5.5274781474
30
0.0000000000
10
-53.2446726920
20
5.5350060924
30
0.0000000000
10
-53.2440676012
20
5.5300780233
30
0.0000000000
11
-53.0490488521
21
5.5544518920
31
0.0000000000
11
-53.1239485123
21
5.5452206415
31
0.0000000000
11
-53.1871724607
21
5.5373643269
31
0.0000000000
11
-53.2293038930
21
5.5320530962
31
0.0000000000
11
-53.2440676012
21
5.5300780233
31
0.0000000000
0
SPLINE
5
57A
100
AcDbEntity
8
0
100
AcDbSpline
62
9
6
CONTINUOUS
70
0
71
3
72
12
73
8
74
6
42
0.0000001000
43
0.0000001000
44
0.0000000001
12
-0.0238203240
22
-0.1940005060
32
0.0000000000
13
0.0238201852
23
-0.1940005231
33
0.0000000000
40
0.0000000000
40
0.0000000000
40
0.0000000000
40
0.0000000000
40
0.2004719354
40
0.4004365848
40
0.6001639691
40
0.7999274831
40
1.0000000000
40
1.0000000000
40
1.0000000000
40
1.0000000000
10
-53.0490488521
20
5.7494428415
30
0.0000000000
10
-53.0506406210
20
5.7364789558
30
0.0000000000
10
-53.0531862276
20
5.7105015872
30
0.0000000000
10
-53.0550927146
20
5.6714311689
30
0.0000000000
10
-53.0550898361
20
5.6323592443
30
0.0000000000
10
-53.0531805130
20
5.5933281814
30
0.0000000000
10
-53.0506374403
20
5.5673899497
30
0.0000000000
10
-53.0490488521
20
5.5544518920
30
0.0000000000
11
-53.0490488521
21
5.7494428415
31
0.0000000000
11
-53.0528702513
21
5.7104459001
31
0.0000000000
11
-53.0547751945
21
5.6714077752
31
0.0000000000
11
-53.0547723263
21
5.6323695754
31
0.0000000000
11
-53.0528645410
21
5.5933709497
31
0.0000000000
11
-53.0490488521
21
5.5544518920
31
0.0000000000
0
SPLINE
5
57B
100
AcDbEntity
8
0
100
AcDbSpline
62
9
6
CONTINUOUS
70
0
71
3
72
11
73
7
74
5
42
0.0000001000
43
0.0000001000
44
0.0000000001
12
-0.1950708665
22
0.0239589883
32
0.0000000000
13
0.0239517991
23
0.1950717494
33
0.0000000000
40
0.0000000000
40
0.0000000000
40
0.0000000000
40
0.0000000000
40
0.3839811182
40
0.7081454934
40
0.9242114391
40
1.0000000000
40
1.0000000000
40
1.0000000000
40
1.0000000000
10
-53.0490488521
20
5.7494428415
30
0.0000000000
10
-53.0740166953
20
5.7525094412
30
0.0000000000
10
-53.1183484384
20
5.7594903945
30
0.0000000000
10
-53.1844423384
20
5.7623603534
30
0.0000000000
10
-53.2126601131
20
5.7764165862
30
0.0000000000
10
-53.2446726920
20
5.7688886411
30
0.0000000000
10
-53.2440676012
20
5.7738167102
30
0.0000000000
11
-53.0490488521
21
5.7494428415
31
0.0000000000
11
-53.1239485120
21
5.7586740920
31
0.0000000000
11
-53.1871724603
21
5.7665304066
31
0.0000000000
11
-53.2293038929
21
5.7718416373
31
0.0000000000
11
-53.2440676012
21
5.7738167102
31
0.0000000000
0
SPLINE
5
57C
100
AcDbEntity
8
0
100
AcDbSpline
62
9
6
CONTINUOUS
70
0
71
3
72
10
73
6
74
4
42
0.0000001000
43
0.0000001000
44
0.0000000001
12
0.0070665669
22
0.1012072389
32
0.0000000000
13
0.1014222376
23
-0.0025241393
33
0.0000000000
40
0.0000000000
40
0.0000000000
40
0.0000000000
40
0.0000000000
40
0.5469299649
40
0.8852992039
40
1.0000000000
40
1.0000000000
40
1.0000000000
40
1.0000000000
10
-50.3443268376
20
27.9371801663
30
0.0000000000
10
-50.3430385319
20
27.9556312568
30
0.0000000000
10
-50.3441332994
20
27.9891590427
30
0.0000000000
10
-50.3336024178
20
28.0136315208
30
0.0000000000
10
-50.3407433804
20
28.0384540758
30
0.0000000000
10
-50.3368656433
20
28.0383575688
30
0.0000000000
11
-50.3443268376
21
27.9371801663
31
0.0000000000
11
-50.3404151084
21
27.9925301494
31
0.0000000000
11
-50.3378911914
21
28.0267660340
31
0.0000000000
11
-50.3368656433
21
28.0383575688
31
0.0000000000
0
SPLINE
5
57D
100
AcDbEntity
8
0
100
AcDbSpline
62
9
6
CONTINUOUS
70
0
71
3
72
10
73
6
74
4
42
0.0000001000
43
0.0000001000
44
0.0000000001
12
0.0313586432
22
0.2553755288
32
0.0000000000
13
0.2571717936
23
-0.0079179387
33
0.0000000000
40
0.0000000000
40
0.0000000000
40
0.0000000000
40
0.0000000000
40
0.3018982448
40
0.6349480388
40
1.0000000000
40
1.0000000000
40
1.0000000000
40
1.0000000000
10
-50.5393456251
20
27.8020094749
30
0.0000000000
10
-50.5361899186
20
27.8277086161
30
0.0000000000
10
-50.5112324737
20
27.8803463431
30
0.0000000000
10
-50.4365775077
20
27.9287018432
30
0.0000000000
10
-50.3756205268
20
27.9381436526
30
0.0000000000
10
-50.3443268376
20
27.9371801663
30
0.0000000000
11
-50.5393456251
21
27.8020094749
31
0.0000000000
11
-50.5073828573
21
27.8728051004
31
0.0000000000
11
-50.4369545549
21
27.9216201017
31
0.0000000000
11
-50.3443268376
21
27.9371801663
31
0.0000000000
0
SPLINE
5
57E
100
AcDbEntity
8
0
100
AcDbSpline
62
9
6
CONTINUOUS
70
0
71
3
72
10
73
6
74
4
42
0.0000001000
43
0.0000001000
44
0.0000000001
12
0.6211386715
22
5.0952258453
32
0.0000000000
13
0.6211466193
23
5.0952248764
33
0.0000000000
40
0.0000000000
40
0.0000000000
40
0.0000000000
40
0.0000000000
40
0.3624472038
40
0.6965849222
40
1.0000000000
40
1.0000000000
40
1.0000000000
40
1.0000000000
10
-50.9654688078
20
22.8419564735
30
0.0000000000
10
-50.8904254829
20
23.4575399269
30
0.0000000000
10
-50.7461994759
20
24.6406256710
30
0.0000000000
10
-50.5391519502
20
26.3390341274
30
0.0000000000
10
-50.4071486260
20
27.4218592372
30
0.0000000000
10
-50.3443268760
20
27.9371819213
30
0.0000000000
11
-50.9654688078
21
22.8419564735
31
0.0000000000
11
-50.7403380262
21
24.6887067354
31
0.0000000000
11
-50.5327910147
21
26.3912137336
31
0.0000000000
11
-50.3443268760
21
27.9371819213
31
0.0000000000
0
SPLINE
5
57F
100
AcDbEntity
8
0
100
AcDbSpline
62
9
6
CONTINUOUS
70
0
71
3
72
10
73
6
74
4
42
0.0000001000
43
0.0000001000
44
0.0000000001
12
0.0287402279
22
0.2340653657
32
0.0000000000
13
0.2353171378
23
-0.0154415284
33
0.0000000000
40
0.0000000000
40
0.0000000000
40
0.0000000000
40
0.0000000000
40
0.2652697774
40
0.6008648228
40
1.0000000000
40
1.0000000000
40
1.0000000000
40
1.0000000000
10
-51.1604875568
20
22.7432144017
30
0.0000000000
10
-51.1579462522
20
22.7639112242
30
0.0000000000
10
-51.1297431809
20
22.8076718689
30
0.0000000000
10
-51.0552666103
20
22.8394082479
30
0.0000000000
10
-50.9967765848
20
22.8440106988
30
0.0000000000
10
-50.9654688023
20
22.8419562798
30
0.0000000000
11
-51.1604875568
21
22.7432144017
31
0.0000000000
11
-51.1298189304
21
22.7977376588
31
0.0000000000
11
-51.0592123627
21
22.8334871700
31
0.0000000000
11
-50.9654688023
21
22.8419562798
31
0.0000000000
0
SPLINE
5
580
100
AcDbEntity
8
0
100
AcDbSpline
62
9
6
CONTINUOUS
70
0
71
3
72
11
73
7
74
5
42
0.0000001000
43
0.0000001000
44
0.0000000001
12
0.1354219408
22
1.2320528481
32
0.0000000000
13
0.1370876751
23
1.2318686180
33
0.0000000000
40
0.0000000000
40
0.0000000000
40
0.0000000000
40
0.0000000000
40
0.2685049789
40
0.5293255489
40
0.7753810930
40
1.0000000000
40
1.0000000000
40
1.0000000000
40
1.0000000000
10
-51.1016197064
20
21.6099787232
30
0.0000000000
10
-51.0894992180
20
21.7202494979
30
0.0000000000
10
-51.0655753430
20
21.9376319097
30
0.0000000000
10
-51.0304369377
20
22.2560536321
30
0.0000000000
10
-50.9971930357
20
22.5564424678
30
0.0000000000
10
-50.9757328175
20
22.7497174688
30
0.0000000000
10
-50.9654686562
20
22.8419511297
30
0.0000000000
11
-51.1016197064
21
21.6099787232
31
0.0000000000
11
-51.0652115932
21
21.9407859165
31
0.0000000000
11
-51.0297505194
21
22.2621151965
31
0.0000000000
11
-50.9961997660
21
22.5652433240
31
0.0000000000
11
-50.9654686562
21
22.8419511297
31
0.0000000000
0
SPLINE
5
581
100
AcDbEntity
8
0
100
AcDbSpline
62
9
6
CONTINUOUS
70
0
71
3
72
11
73
7
74
5
42
0.0000001000
43
0.0000001000
44
0.0000000001
12
-0.1370872559
22
1.2318663238
32
0.0000000000
13
-0.1354196597
23
1.2320507583
33
0.0000000000
40
0.0000000000
40
0.0000000000
40
0.0000000000
40
0.0000000000
40
0.2246231718
40
0.4706644635
40
0.7314956224
40
1.0000000000
40
1.0000000000
40
1.0000000000
40
1.0000000000
10
-50.9654685895
20
-11.5380540411
30
0.0000000000
10
-50.9757329142
20
-11.4458188008
30
0.0000000000
10
-50.9971930446
20
-11.2525483091
30
0.0000000000
10
-51.0304367615
20
-10.9521597736
30
0.0000000000
10
-51.0655747733
20
-10.6337403855
30
0.0000000000
10
-51.0894995133
20
-10.4163543305
30
0.0000000000
10
-51.1016197705
20
-10.3060839898
30
0.0000000000
11
-50.9654685895
21
-11.5380540411
31
0.0000000000
11
-50.9962004867
21
-11.2613415301
31
0.0000000000
11
-51.0297492241
21
-10.9582315286
31
0.0000000000
11
-51.0652116652
21
-10.6368898058
31
0.0000000000
11
-51.1016197705
21
-10.3060839898
31
0.0000000000
0
SPLINE
5
582
100
AcDbEntity
8
0
100
AcDbSpline
62
9
6
CONTINUOUS
70
0
71
3
72
10
73
6
74
4
42
0.0000001000
43
0.0000001000
44
0.0000000001
12
0.0287613243
22
-0.2340569177
32
0.0000000000
13
0.2353112757
23
0.0154420855
33
0.0000000000
40
0.0000000000
40
0.0000000000
40
0.0000000000
40
0.0000000000
40
0.2652710082
40
0.6008674508
40
1.0000000000
40
1.0000000000
40
1.0000000000
40
1.0000000000
10
-51.1604875565
20
-11.4393196682
30
0.0000000000
10
-51.1579443747
20
-11.4600158397
30
0.0000000000
10
-51.1297389040
20
-11.5037729886
30
0.0000000000
10
-51.0552639171
20
-11.5355067169
30
0.0000000000
10
-50.9967753859
20
-11.5401085207
30
0.0000000000
10
-50.9654685895
20
-11.5380540411
30
0.0000000000
11
-51.1604875565
21
-11.4393196682
31
0.0000000000
11
-51.1298155410
21
-11.4938395826
31
0.0000000000
11
-51.0592093098
21
-11.5295861691
31
0.0000000000
11
-50.9654685895
21
-11.5380540411
31
0.0000000000
0
SPLINE
5
583
100
AcDbEntity
8
0
100
AcDbSpline
62
9
6
CONTINUOUS
70
0
71
3
72
10
73
6
74
4
42
0.0000001000
43
0.0000001000
44
0.0000000001
12
-0.6211460200
22
5.0952249494
32
0.0000000000
13
-0.6211383170
23
5.0952258885
33
0.0000000000
40
0.0000000000
40
0.0000000000
40
0.0000000000
40
0.0000000000
40
0.3034157619
40
0.6375535862
40
1.0000000000
40
1.0000000000
40
1.0000000000
40
1.0000000000
10
-50.3443268760
20
-16.6332871878
30
0.0000000000
10
-50.4071487070
20
-16.1179633344
30
0.0000000000
10
-50.5391523705
20
-15.0351369042
30
0.0000000000
10
-50.7461996735
20
-13.3367284206
30
0.0000000000
10
-50.8904256893
20
-12.1536438568
30
0.0000000000
10
-50.9654688078
20
-11.5380617400
30
0.0000000000
11
-50.3443268760
21
-16.6332871878
31
0.0000000000
11
-50.5327914742
21
-15.0873155184
31
0.0000000000
11
-50.7403384859
21
-13.3848079727
31
0.0000000000
11
-50.9654688078
21
-11.5380617400
31
0.0000000000
0
SPLINE
5
584
100
AcDbEntity
8
0
100
AcDbSpline
62
9
6
CONTINUOUS
70
0
71
3
72
10
73
6
74
4
42
0.0000001000
43
0.0000001000
44
0.0000000001
12
0.0313568231
22
-0.2553768853
32
0.0000000000
13
0.2571729277
23
0.0079176503
33
0.0000000000
40
0.0000000000
40
0.0000000000
40
0.0000000000
40
0.0000000000
40
0.3018986858
40
0.6349483877
40
1.0000000000
40
1.0000000000
40
1.0000000000
40
1.0000000000
10
-50.5393456251
20
-16.4981147413
30
0.0000000000
10
-50.5361900972
20
-16.5238140567
30
0.0000000000
10
-50.5112329396
20
-16.5764522553
30
0.0000000000
10
-50.4365778792
20
-16.6248084010
30
0.0000000000
10
-50.3756206682
20
-16.6342504031
30
0.0000000000
10
-50.3443268709
20
-16.6332869527
30
0.0000000000
11
-50.5393456251
21
-16.4981147413
31
0.0000000000
11
-50.5073831938
21
-16.5689110158
31
0.0000000000
11
-50.4369548639
21
-16.6177265934
31
0.0000000000
11
-50.3443268709
21
-16.6332869527
31
0.0000000000
0
SPLINE
5
585
100
AcDbEntity
8
0
100
AcDbSpline
62
9
6
CONTINUOUS
70
0
71
3
72
10
73
6
74
4
42
0.0000001000
43
0.0000001000
44
0.0000000001
12
-0.1014222371
22
-0.0025241928
32
0.0000000000
13
-0.0070665701
23
0.1012072394
33
0.0000000000
40
0.0000000000
40
0.0000000000
40
0.0000000000
40
0.0000000000
40
0.1147008129
40
0.4530699769
40
1.0000000000
40
1.0000000000
40
1.0000000000
40
1.0000000000
10
-50.3368656433
20
-16.7344628354
30
0.0000000000
10
-50.3407433809
20
-16.7345593444
30
0.0000000000
10
-50.3336024191
20
-16.7097367870
30
0.0000000000
10
-50.3441332994
20
-16.6852643123
30
0.0000000000
10
-50.3430385311
20
-16.6517365247
30
0.0000000000
10
-50.3443268376
20
-16.6332854321
30
0.0000000000
11
-50.3368656433
21
-16.7344628354
31
0.0000000000
11
-50.3378911916
21
-16.7228712987
31
0.0000000000
11
-50.3404151079
21
-16.6886354215
31
0.0000000000
11
-50.3443268376
21
-16.6332854321
31
0.0000000000
0
SPLINE
5
586
100
AcDbEntity
8
0
100
AcDbSpline
62
9
6
CONTINUOUS
70
0
71
3
72
10
73
6
74
4
42
0.0000001000
43
0.0000001000
44
0.0000000001
12
3.5592226649
22
0.0552603612
32
0.0000000000
13
3.5592180845
23
0.0555545739
33
0.0000000000
40
0.0000000000
40
0.0000000000
40
0.0000000000
40
0.0000000000
40
0.0094467609
40
0.5061155264
40
1.0000000000
40
1.0000000000
40
1.0000000000
40
1.0000000000
10
-54.9704754703
20
23.0675484867
30
0.0000000000
10
-54.9592677618
20
23.0677224971
30
0.0000000000
10
-54.3588084813
20
23.0770454483
30
0.0000000000
10
-53.1724013317
20
23.0954916713
30
0.0000000000
10
-51.9972026353
20
23.1138117266
30
0.0000000000
10
-51.4112551187
20
23.1229575738
30
0.0000000000
11
-54.9704754703
21
23.0675484867
31
0.0000000000
11
-54.9368523450
21
23.0680705316
31
0.0000000000
11
-53.1690982159
21
23.0955551210
31
0.0000000000
11
-51.4112551187
21
23.1229575738
31
0.0000000000
0
SPLINE
5
587
100
AcDbEntity
8
0
100
AcDbSpline
62
9
6
CONTINUOUS
70
0
71
3
72
11
73
7
74
5
42
0.0000001000
43
0.0000001000
44
0.0000000001
12
0.0352952186
22
0.2874564871
32
0.0000000000
13
-0.2874512777
23
0.0353376203
33
0.0000000000
40
0.0000000000
40
0.0000000000
40
0.0000000000
40
0.0000000000
40
0.0754713904
40
0.2908423338
40
0.6147467772
40
1.0000000000
40
1.0000000000
40
1.0000000000
40
1.0000000000
10
-51.2786556495
20
21.7808125182
30
0.0000000000
10
-51.2777677231
20
21.7880440985
30
0.0000000000
10
-51.3246984160
20
21.7775354996
30
0.0000000000
10
-51.3662270267
20
21.7980185144
30
0.0000000000
10
-51.4636201550
20
21.8025449813
30
0.0000000000
10
-51.5290358023
20
21.8128353439
30
0.0000000000
10
-51.5659496460
20
21.8173733212
30
0.0000000000
11
-51.2786556495
21
21.7808125182
31
0.0000000000
11
-51.3002868986
21
21.7839504411
31
0.0000000000
11
-51.3621455417
21
21.7919574551
31
0.0000000000
11
-51.4552195072
21
21.8036670373
31
0.0000000000
11
-51.5659496460
21
21.8173733212
31
0.0000000000
0
SPLINE
5
588
100
AcDbEntity
8
0
100
AcDbSpline
62
9
6
CONTINUOUS
70
0
71
3
72
11
73
7
74
5
42
0.0000001000
43
0.0000001000
44
0.0000000001
12
0.0264528891
22
0.2154414927
32
0.0000000000
13
-0.2151527058
23
0.0269088843
33
0.0000000000
40
0.0000000000
40
0.0000000000
40
0.0000000000
40
0.0000000000
40
0.1006977355
40
0.3880585198
40
0.8202339305
40
1.0000000000
40
1.0000000000
40
1.0000000000
40
1.0000000000
10
-53.2440676012
20
5.7738167102
30
0.0000000000
10
-53.2431796858
20
5.7810482003
30
0.0000000000
10
-53.2901100155
20
5.7705397009
30
0.0000000000
10
-53.3316384931
20
5.7910226585
30
0.0000000000
10
-53.4026405642
20
5.7943225531
30
0.0000000000
10
-53.4470693438
20
5.7994198662
30
0.0000000000
10
-53.4599617293
20
5.8010323010
30
0.0000000000
11
-53.2440676012
21
5.7738167102
31
0.0000000000
11
-53.2656985802
21
5.7769545974
31
0.0000000000
11
-53.3275568848
21
5.7849615701
31
0.0000000000
11
-53.4206309322
21
5.7966711640
31
0.0000000000
11
-53.4599617293
21
5.8010323010
31
0.0000000000
0
SPLINE
5
589
100
AcDbEntity
8
0
100
AcDbSpline
62
9
6
CONTINUOUS
70
0
71
3
72
11
73
7
74
5
42
0.0000001000
43
0.0000001000
44
0.0000000001
12
-0.0239517991
22
0.1950717494
32
0.0000000000
13
0.1950708672
23
0.0239589832
33
0.0000000000
40
0.0000000000
40
0.0000000000
40
0.0000000000
40
0.0000000000
40
0.0757885599
40
0.2918545038
40
0.6160188791
40
1.0000000000
40
1.0000000000
40
1.0000000000
40
1.0000000000
10
-51.2966386671
20
-10.3304578595
30
0.0000000000
10
-51.2972437579
20
-10.3255297905
30
0.0000000000
10
-51.2652311794
20
-10.3330577350
30
0.0000000000
10
-51.2370134049
20
-10.3190015021
30
0.0000000000
10
-51.1709195049
20
-10.3161315423
30
0.0000000000
10
-51.1265877615
20
-10.3091505898
30
0.0000000000
10
-51.1016199181
20
-10.3060839908
30
0.0000000000
11
-51.2966386671
21
-10.3304578595
31
0.0000000000
11
-51.2818749591
21
-10.3284827864
31
0.0000000000
11
-51.2397435269
21
-10.3231715552
31
0.0000000000
11
-51.1765195786
21
-10.3153152401
31
0.0000000000
11
-51.1016199181
21
-10.3060839908
31
0.0000000000
0
SPLINE
5
58A
100
AcDbEntity
8
0
100
AcDbSpline
62
9
6
CONTINUOUS
70
0
71
3
72
17
73
13
74
11
42
0.0000001000
43
0.0000001000
44
0.0000000001
12
1.0172203353
22
-0.0351567351
32
0.0000000000
13
-0.1703632514
23
1.0034687683
33
0.0000000000
40
0.0000000000
40
0.0000000000
40
0.0000000000
40
0.0000000000
40
0.0054700931
40
0.0231215339
40
0.0572824264
40
0.1126069809
40
0.1948591966
40
0.3104322750
40
0.4611122428
40
0.6381479252
40
0.8235540733
40
1.0000000000
40
1.0000000000
40
1.0000000000
40
1.0000000000
10
-51.3113930045
20
-12.2868588132
30
0.0000000000
10
-51.3095382412
20
-12.2869229168
30
0.0000000000
10
-51.3137123974
20
-12.2741911950
30
0.0000000000
10
-51.3120661742
20
-12.2601093798
30
0.0000000000
10
-51.3196148470
20
-12.2205767742
30
0.0000000000
10
-51.3267019342
20
-12.1648164556
30
0.0000000000
10
-51.3404318089
20
-12.0790321823
30
0.0000000000
10
-51.3586450678
20
-11.9626389451
30
0.0000000000
10
-51.3827946238
20
-11.8140220745
30
0.0000000000
10
-51.4110375550
20
-11.6422966766
30
0.0000000000
10
-51.4411483990
20
-11.4619441199
30
0.0000000000
10
-51.4615826662
20
-11.3408926683
30
0.0000000000
10
-51.4716026334
20
-11.2818733427
30
0.0000000000
11
-51.3113930045
21
-12.2868588132
31
0.0000000000
11
-51.3112424660
21
-12.2812932365
31
0.0000000000
11
-51.3131371551
21
-12.2634272966
31
0.0000000000
11
-51.3177430143
21
-12.2289638063
31
0.0000000000
11
-51.3258792512
21
-12.1732438368
31
0.0000000000
11
-51.3385570675
21
-12.0904907459
31
0.0000000000
11
-51.3569215691
21
-11.9742996078
31
0.0000000000
11
-51.3813978329
21
-11.8228990887
31
0.0000000000
11
-51.4106489980
21
-11.6450973418
31
0.0000000000
11
-51.4417056233
21
-11.4589588972
31
0.0000000000
11
-51.4716026334
21
-11.2818733427
31
0.0000000000
0
SPLINE
5
58B
100
AcDbEntity
8
0
100
AcDbSpline
62
9
6
CONTINUOUS
70
0
71
3
72
11
73
7
74
5
42
0.0000001000
43
0.0000001000
44
0.0000000001
12
0.0352952186
22
-0.2874564871
32
0.0000000000
13
-0.2874512778
23
-0.0353376193
33
0.0000000000
40
0.0000000000
40
0.0000000000
40
0.0000000000
40
0.0000000000
40
0.0754704501
40
0.2908402158
40
0.6147449449
40
1.0000000000
40
1.0000000000
40
1.0000000000
40
1.0000000000
10
-51.1843086369
20
-11.2453125397
30
0.0000000000
10
-51.1834207216
20
-11.2525440298
30
0.0000000000
10
-51.2303510512
20
-11.2420355304
30
0.0000000000
10
-51.2718795288
20
-11.2625184880
30
0.0000000000
10
-51.3692727862
20
-11.2670449402
30
0.0000000000
10
-51.4346886141
20
-11.2773353439
30
0.0000000000
10
-51.4716026334
20
-11.2818733427
30
0.0000000000
11
-51.1843086369
21
-11.2453125397
31
0.0000000000
11
-51.2059396160
21
-11.2484504269
31
0.0000000000
11
-51.2677979205
21
-11.2564573996
31
0.0000000000
11
-51.3608719680
21
-11.2681669934
31
0.0000000000
11
-51.4716026334
21
-11.2818733427
31
0.0000000000
0
SPLINE
5
58C
100
AcDbEntity
8
0
100
AcDbSpline
62
9
6
CONTINUOUS
70
0
71
3
72
11
73
7
74
5
42
0.0000001000
43
0.0000001000
44
0.0000000001
12
0.0232973697
22
-0.1897418499
32
0.0000000000
13
-0.1937321641
23
-0.0206068891
33
0.0000000000
40
0.0000000000
40
0.0000000000
40
0.0000000000
40
0.0000000000
40
0.1143367696
40
0.4406192206
40
0.9313307616
40
1.0000000000
40
1.0000000000
40
1.0000000000
40
1.0000000000
10
-53.2440676012
20
5.5300780233
30
0.0000000000
10
-53.2431796859
20
5.5228465333
30
0.0000000000
10
-53.2901100151
20
5.5333550326
30
0.0000000000
10
-53.3316384925
20
5.5128720751
30
0.0000000000
10
-53.3932224687
20
5.5100098962
30
0.0000000000
10
-53.4296003290
20
5.5063537791
30
0.0000000000
10
-53.4340348091
20
5.5058820927
30
0.0000000000
11
-53.2440676012
21
5.5300780233
31
0.0000000000
11
-53.2656985800
21
5.5269401361
31
0.0000000000
11
-53.3275568840
21
5.5189331636
31
0.0000000000
11
-53.4206309314
21
5.5072235697
31
0.0000000000
11
-53.4340348091
21
5.5058820927
31
0.0000000000
0
SPLINE
5
58D
100
AcDbEntity
8
0
100
AcDbSpline
62
9
6
CONTINUOUS
70
0
71
3
72
17
73
13
74
11
42
0.0000001000
43
0.0000001000
44
0.0000000001
12
0.1648624073
22
1.0007679818
32
0.0000000000
13
-1.0141105373
23
-0.0172042096
33
0.0000000000
40
0.0000000000
40
0.0000000000
40
0.0000000000
40
0.0000000000
40
0.1598628866
40
0.3341909747
40
0.5065721727
40
0.6596521380
40
0.7825150969
40
0.8730203912
40
0.9353142771
40
0.9741203078
40
0.9939971447
40
1.0000000000
40
1.0000000000
40
1.0000000000
40
1.0000000000
10
-51.5659496460
20
21.8173733212
30
0.0000000000
10
-51.5571645192
20
21.8707018740
30
0.0000000000
10
-51.5388946222
20
21.9821970343
30
0.0000000000
10
-51.5114801244
20
22.1512683732
30
0.0000000000
10
-51.4848238215
20
22.3180712555
30
0.0000000000
10
-51.4611429679
20
22.4679462432
30
0.0000000000
10
-51.4425712698
20
22.5899939178
30
0.0000000000
10
-51.4280239114
20
22.6831188852
30
0.0000000000
10
-51.4204114078
20
22.7451628815
30
0.0000000000
10
-51.4119743845
20
22.7896334350
30
0.0000000000
10
-51.4139579748
20
22.8055606864
30
0.0000000000
10
-51.4092649016
20
22.8196504239
30
0.0000000000
10
-51.4112940879
20
22.8196159991
30
0.0000000000
11
-51.5659496460
21
21.8173733212
31
0.0000000000
11
-51.5397275855
21
21.9773808851
31
0.0000000000
11
-51.5114433581
21
22.1519173489
31
0.0000000000
11
-51.4838413410
21
22.3245635621
31
0.0000000000
11
-51.4597286594
21
22.4779420937
31
0.0000000000
11
-51.4407833602
21
22.6011080859
31
0.0000000000
11
-51.4272342929
21
22.6918982351
31
0.0000000000
11
-51.4183263275
21
22.7544490965
31
0.0000000000
11
-51.4132308424
21
22.7934771372
31
0.0000000000
11
-51.4111468468
21
22.8135293450
31
0.0000000000
11
-51.4112940879
21
22.8196159991
31
0.0000000000
0
SPLINE
5
58E
100
AcDbEntity
8
0
100
AcDbSpline
62
9
6
CONTINUOUS
70
0
71
3
72
11
73
7
74
5
42
0.0000001000
43
0.0000001000
44
0.0000000001
12
-0.0359888257
22
-0.2931052964
32
0.0000000000
13
-0.2943798569
23
0.0233754191
33
0.0000000000
40
0.0000000000
40
0.0000000000
40
0.0000000000
40
0.0000000000
40
0.0741788970
40
0.2897508939
40
0.6145451762
40
1.0000000000
40
1.0000000000
40
1.0000000000
40
1.0000000000
10
-51.1187659668
20
23.0830094842
30
0.0000000000
10
-51.1196558373
20
23.0757620750
30
0.0000000000
10
-51.1625023630
20
23.1027261207
30
0.0000000000
10
-51.2089282445
20
23.0907726883
30
0.0000000000
10
-51.3062564329
20
23.1123009726
30
0.0000000000
10
-51.3734707101
20
23.1199535907
30
0.0000000000
10
-51.4112940888
20
23.1229569801
30
0.0000000000
11
-51.1187659668
21
23.0830094842
31
0.0000000000
11
-51.1402204936
21
23.0874315390
31
0.0000000000
11
-51.2032210099
21
23.0965696862
31
0.0000000000
11
-51.2983211309
21
23.1090370067
31
0.0000000000
11
-51.4112940888
21
23.1229569801
31
0.0000000000
0
SPLINE
5
58F
100
AcDbEntity
8
0
100
AcDbSpline
62
9
6
CONTINUOUS
70
0
71
3
72
16
73
12
74
10
42
0.0000001000
43
0.0000001000
44
0.0000000001
12
0.3576746616
22
2.6082624693
32
0.0000000000
13
0.0000330392
23
-0.0000044089
33
0.0000000000
40
0.0000000000
40
0.0000000000
40
0.0000000000
40
0.0000000000
40
0.2060550793
40
0.4034107722
40
0.5833700194
40
0.7380161743
40
0.8606920034
40
0.9462640713
40
0.9912326490
40
0.9937800234
40
1.0000000000
40
1.0000000000
40
1.0000000000
40
1.0000000000
10
-51.4112551187
20
23.1229575738
30
0.0000000000
10
-51.3866882251
20
23.3021061504
30
0.0000000000
10
-51.3386533661
20
23.6528337756
30
0.0000000000
10
-51.2690838358
20
24.1600868541
30
0.0000000000
10
-51.2057094661
20
24.6223967381
30
0.0000000000
10
-51.1511308633
20
25.0205339662
30
0.0000000000
10
-51.1080873909
20
25.3345604034
30
0.0000000000
10
-51.0774688493
20
25.5579389091
30
0.0000000000
10
-51.0622496394
20
25.6689910582
30
0.0000000000
10
-51.0554136982
20
25.7188583623
30
0.0000000000
10
-51.0550044975
20
25.7218429725
30
0.0000000000
10
-51.0550044290
20
25.7218429634
30
0.0000000000
11
-51.4112551187
21
23.1229575738
31
0.0000000000
11
-51.3375982829
21
23.6604093143
31
0.0000000000
11
-51.2670217298
21
24.1751664859
31
0.0000000000
11
-51.2026724303
21
24.6445498447
31
0.0000000000
11
-51.1473791234
21
25.0479103080
31
0.0000000000
11
-51.1035197497
21
25.3678836275
31
0.0000000000
11
-51.0729273396
21
25.5910800355
31
0.0000000000
11
-51.0568513291
21
25.7083710008
31
0.0000000000
11
-51.0559405147
21
25.7150152655
31
0.0000000000
11
-51.0550044290
21
25.7218429634
31
0.0000000000
0
SPLINE
5
590
100
AcDbEntity
8
0
100
AcDbSpline
62
9
6
CONTINUOUS
70
0
71
3
72
11
73
7
74
5
42
0.0000001000
43
0.0000001000
44
0.0000000001
12
0.3033680821
22
0.0052953096
32
0.0000000000
13
-0.0053541112
23
0.3033670501
33
0.0000000000
40
0.0000000000
40
0.0000000000
40
0.0000000000
40
0.0000000000
40
0.0766017268
40
0.2938170111
40
0.6182989025
40
1.0000000000
40
1.0000000000
40
1.0000000000
40
1.0000000000
10
-51.4112940881
20
22.8196159991
30
0.0000000000
10
-51.4035479151
20
22.8197512090
30
0.0000000000
10
-51.4180286099
20
22.8672720093
30
0.0000000000
10
-51.4039336394
20
22.9137356976
30
0.0000000000
10
-51.4115651201
20
23.0152420265
30
0.0000000000
10
-51.4106128654
20
23.0843584681
30
0.0000000000
10
-51.4112940888
20
23.1229569801
30
0.0000000000
11
-51.4112940881
21
22.8196159991
31
0.0000000000
11
-51.4096589743
21
22.8428004702
31
0.0000000000
11
-51.4090843733
21
22.9087041874
31
0.0000000000
11
-51.4096589743
21
23.0071549545
31
0.0000000000
11
-51.4112940888
21
23.1229569801
31
0.0000000000
0
SPLINE
5
591
100
AcDbEntity
8
0
100
AcDbSpline
62
9
6
CONTINUOUS
70
0
71
3
72
11
73
7
74
5
42
0.0000001000
43
0.0000001000
44
0.0000000001
12
-0.0239517991
22
-0.1950717494
32
0.0000000000
13
0.1950708654
23
-0.0239589975
33
0.0000000000
40
0.0000000000
40
0.0000000000
40
0.0000000000
40
0.0000000000
40
0.0757843074
40
0.2918448943
40
0.6160106555
40
1.0000000000
40
1.0000000000
40
1.0000000000
40
1.0000000000
10
-51.2966386671
20
21.6343525930
30
0.0000000000
10
-51.2972437240
20
21.6294248005
30
0.0000000000
10
-51.2652322627
20
21.6369524444
30
0.0000000000
10
-51.2370148937
20
21.6228963786
30
0.0000000000
10
-51.1709205953
20
21.6200264741
30
0.0000000000
10
-51.1265882961
20
21.6130453898
30
0.0000000000
10
-51.1016199182
20
21.6099787232
30
0.0000000000
11
-51.2966386671
21
21.6343525930
31
0.0000000000
11
-51.2818757878
21
21.6323776284
31
0.0000000000
11
-51.2397454005
21
21.6270665266
31
0.0000000000
11
-51.1765211823
21
21.6192101750
31
0.0000000000
11
-51.1016199182
21
21.6099787232
31
0.0000000000
0
SPLINE
5
592
100
AcDbEntity
8
0
100
AcDbSpline
62
7
6
CONTINUOUS
70
0
71
3
72
8
73
4
74
2
42
0.0000001000
43
0.0000001000
44
0.0000000001
12
0.0039574218
22
0.0132718988
32
0.0000000000
13
0.0046443998
23
0.0130624928
33
0.0000000000
40
0.0000000000
40
0.0000000000
40
0.0000000000
40
0.0000000000
40
1.0000000000
40
1.0000000000
40
1.0000000000
40
1.0000000000
10
-45.5498412895
20
-15.6840867686
30
0.0000000000
10
-45.5485221489
20
-15.6796628024
30
0.0000000000
10
-45.5470817173
20
-15.6752718225
30
0.0000000000
10
-45.5455335841
20
-15.6709176583
30
0.0000000000
11
-45.5498412895
21
-15.6840867686
31
0.0000000000
11
-45.5455335841
21
-15.6709176583
31
0.0000000000
0
SPLINE
5
593
100
AcDbEntity
8
0
100
AcDbSpline
62
7
6
CONTINUOUS
70
0
71
3
72
8
73
4
74
2
42
0.0000001000
43
0.0000001000
44
0.0000000001
12
0.0192556902
22
0.0383648768
32
0.0000000000
13
0.0229401048
23
0.0362626967
33
0.0000000000
40
0.0000000000
40
0.0000000000
40
0.0000000000
40
0.0000000000
40
1.0000000000
40
1.0000000000
40
1.0000000000
40
1.0000000000
10
-45.5297273930
20
-15.6341716574
30
0.0000000000
10
-45.5233088296
20
-15.6213833651
30
0.0000000000
10
-45.5161544940
20
-15.6089743139
30
0.0000000000
10
-45.5085077924
20
-15.5968867483
30
0.0000000000
11
-45.5297273930
21
-15.6341716574
31
0.0000000000
11
-45.5085077924
21
-15.5968867483
31
0.0000000000
0
SPLINE
5
594
100
AcDbEntity
8
0
100
AcDbSpline
62
9
6
CONTINUOUS
70
0
71
3
72
12
73
8
74
6
42
0.0000001000
43
0.0000001000
44
0.0000000001
12
-0.1226564172
22
-0.0023410620
32
0.0000000000
13
0.0004869837
23
0.1226777897
33
0.0000000000
40
0.0000000000
40
0.0000000000
40
0.0000000000
40
0.0000000000
40
0.0286379810
40
0.1247224557
40
0.3055999553
40
0.5907141800
40
1.0000000000
40
1.0000000000
40
1.0000000000
40
1.0000000000
10
-45.3625217565
20
-15.5446225354
30
0.0000000000
10
-45.3636926339
20
-15.5446448832
30
0.0000000000
10
-45.3609693797
20
-15.5364381605
30
0.0000000000
10
-45.3640387593
20
-15.5272760194
30
0.0000000000
10
-45.3620657883
20
-15.5020989670
30
0.0000000000
10
-45.3630351911
20
-15.4674628319
30
0.0000000000
10
-45.3625882194
20
-15.4386835958
30
0.0000000000
10
-45.3625217809
20
-15.4219468359
30
0.0000000000
11
-45.3625217565
21
-15.5446225354
31
0.0000000000
11
-45.3626516623
21
-15.5411116660
31
0.0000000000
11
-45.3627353110
21
-15.5293244390
31
0.0000000000
11
-45.3627558764
21
-15.5071346218
31
0.0000000000
11
-45.3626926596
21
-15.4721572205
31
0.0000000000
11
-45.3625217809
21
-15.4219468359
31
0.0000000000
0
SPLINE
5
595
100
AcDbEntity
8
0
100
AcDbSpline
62
7
6
CONTINUOUS
70
0
71
3
72
8
73
4
74
2
42
0.0000001000
43
0.0000001000
44
0.0000000001
12
-0.0016181394
22
0.0050539462
32
0.0000000000
13
-0.0015141486
23
0.0050849361
33
0.0000000000
40
0.0000000000
40
0.0000000000
40
0.0000000000
40
0.0000000000
40
1.0000000000
40
1.0000000000
40
1.0000000000
40
1.0000000000
10
-45.5482983089
20
26.9829904547
30
0.0000000000
10
-45.5488376887
20
26.9846751035
30
0.0000000000
10
-45.5493601338
20
26.9863650539
30
0.0000000000
10
-45.5498648500
20
26.9880600327
30
0.0000000000
11
-45.5482983089
21
26.9829904547
31
0.0000000000
11
-45.5498648500
21
26.9880600327
31
0.0000000000
0
SPLINE
5
596
100
AcDbEntity
8
0
100
AcDbSpline
62
9
6
CONTINUOUS
70
0
71
3
72
12
73
8
74
6
42
0.0000001000
43
0.0000001000
44
0.0000000001
12
-0.0004870014
22
0.1226778224
32
0.0000000000
13
0.1226563901
23
-0.0023441946
33
0.0000000000
40
0.0000000000
40
0.0000000000
40
0.0000000000
40
0.0000000000
40
0.4092865651
40
0.6944004905
40
0.8752784080
40
0.9713622123
40
1.0000000000
40
1.0000000000
40
1.0000000000
40
1.0000000000
10
-45.3625217817
20
26.7258415355
30
0.0000000000
10
-45.3625882227
20
26.7425783304
30
0.0000000000
10
-45.3630351910
20
26.7713576034
30
0.0000000000
10
-45.3620657874
20
26.8059937515
30
0.0000000000
10
-45.3640387626
20
26.8311708483
30
0.0000000000
10
-45.3609693924
20
26.8403328995
30
0.0000000000
10
-45.3636926257
20
26.8485396453
30
0.0000000000
10
-45.3625217565
20
26.8485172678
30
0.0000000000
11
-45.3625217817
21
26.7258415355
31
0.0000000000
11
-45.3626926595
21
26.7760520249
31
0.0000000000
11
-45.3627558763
21
26.8110293989
31
0.0000000000
11
-45.3627353108
21
26.8332192733
31
0.0000000000
11
-45.3626516619
21
26.8450064212
31
0.0000000000
11
-45.3625217565
21
26.8485172678
31
0.0000000000
0
SPLINE
5
597
100
AcDbEntity
8
0
100
AcDbSpline
62
9
6
CONTINUOUS
70
0
71
3
72
10
73
6
74
4
42
0.0000001000
43
0.0000001000
44
0.0000000001
12
0.0019218592
22
0.1804462501
32
0.0000000000
13
-0.1804289999
23
0.0031493999
33
0.0000000000
40
0.0000000000
40
0.0000000000
40
0.0000000000
40
0.0000000000
40
0.5391609746
40
0.8821692487
40
1.0000000000
40
1.0000000000
40
1.0000000000
40
1.0000000000
10
-28.9503050718
20
23.3160072851
30
0.0000000000
10
-28.9499596746
20
23.3484371438
30
0.0000000000
10
-28.9437918509
20
23.4076564406
30
0.0000000000
10
-28.9582701564
20
23.4519495364
30
0.0000000000
10
-28.9432183769
20
23.4963212737
30
0.0000000000
10
-28.9503050718
20
23.4964449724
30
0.0000000000
11
-28.9503050718
21
23.3160072851
31
0.0000000000
11
-28.9494952526
21
23.4132990088
31
0.0000000000
11
-28.9494952526
21
23.4751970760
31
0.0000000000
11
-28.9503050718
21
23.4964449724
31
0.0000000000
0
SPLINE
5
598
100
AcDbEntity
8
0
100
AcDbSpline
62
9
6
CONTINUOUS
70
0
71
3
72
12
73
8
74
6
42
0.0000001000
43
0.0000001000
44
0.0000000001
12
0.0000000000
22
0.6401589585
32
0.0000000000
13
-0.6401191334
23
0.0071405304
33
0.0000000000
40
0.0000000000
40
0.0000000000
40
0.0000000000
40
0.0000000000
40
0.1571017152
40
0.3326856260
40
0.5347470867
40
0.7604474724
40
1.0000000000
40
1.0000000000
40
1.0000000000
40
1.0000000000
10
-28.4590312750
20
22.9965211249
30
0.0000000000
10
-28.4590312750
20
23.0300444817
30
0.0000000000
10
-28.4778180347
20
23.1017550428
30
0.0000000000
10
-28.5526494260
20
23.1912887767
30
0.0000000000
10
-28.6632186486
20
23.2603370098
30
0.0000000000
10
-28.7997191662
20
23.3046681047
30
0.0000000000
10
-28.8991910196
20
23.3154371077
30
0.0000000000
10
-28.9503050718
20
23.3160072851
30
0.0000000000
11
-28.4590312750
21
22.9965211249
31
0.0000000000
11
-28.4829665786
21
23.0942014212
31
0.0000000000
11
-28.5524808945
21
23.1825296874
31
0.0000000000
11
-28.6609188375
21
23.2530492678
31
0.0000000000
11
-28.7978984274
21
23.2990085323
31
0.0000000000
11
-28.9503050718
21
23.3160072851
31
0.0000000000
0
SPLINE
5
599
100
AcDbEntity
8
0
100
AcDbSpline
62
9
6
CONTINUOUS
70
0
71
3
72
11
73
7
74
5
42
0.0000001000
43
0.0000001000
44
0.0000000001
12
-0.0000000004
22
0.6334871811
32
0.0000000000
13
-0.6334496337
23
0.0068971147
33
0.0000000000
40
0.0000000000
40
0.0000000000
40
0.0000000000
40
0.0000000000
40
0.1954662971
40
0.4262226524
40
0.6995457855
40
1.0000000000
40
1.0000000000
40
1.0000000000
40
1.0000000000
10
-28.4590312750
20
22.5816832016
30
0.0000000000
10
-28.4590312750
20
22.6229583328
30
0.0000000000
10
-28.4908536864
20
22.7136558659
30
0.0000000000
10
-28.6058357887
20
22.8128289130
30
0.0000000000
10
-28.7652251523
20
22.8773496854
30
0.0000000000
10
-28.8868642011
20
22.8928373140
30
0.0000000000
10
-28.9503050718
20
22.8935280697
30
0.0000000000
11
-28.4590312750
21
22.5816832016
31
0.0000000000
11
-28.4962601640
21
22.6997795094
31
0.0000000000
11
-28.6024041096
21
22.8002902254
31
0.0000000000
11
-28.7616576641
21
22.8682467224
31
0.0000000000
11
-28.9503050718
21
22.8935280697
31
0.0000000000
0
SPLINE
5
59A
100
AcDbEntity
8
0
100
AcDbSpline
62
9
6
CONTINUOUS
70
0
71
3
72
8
73
4
74
2
42
0.0000001000
43
0.0000001000
44
0.0000000001
12
-0.0000000000
22
-0.1355332545
32
0.0000000000
13
-0.0693495635
23
-0.1183656608
33
0.0000000000
40
0.0000000000
40
0.0000000000
40
0.0000000000
40
0.0000000000
40
1.0000000000
40
1.0000000000
40
1.0000000000
40
1.0000000000
10
-28.4590312750
20
-13.0300467800
30
0.0000000000
10
-28.4590312750
20
-13.0752245315
30
0.0000000000
10
-28.4731438907
20
-13.1209113758
30
0.0000000000
10
-28.4962604119
20
-13.1603665960
30
0.0000000000
11
-28.4590312750
21
-13.0300467800
31
0.0000000000
11
-28.4962604119
21
-13.1603665960
31
0.0000000000
0
SPLINE
5
59B
100
AcDbEntity
8
0
100
AcDbSpline
62
9
6
CONTINUOUS
70
0
71
3
72
10
73
6
74
4
42
0.0000001000
43
0.0000001000
44
0.0000000001
12
-0.3140033425
22
-0.2845580040
32
0.0000000000
13
-0.4203542886
23
-0.0050508696
33
0.0000000000
40
0.0000000000
40
0.0000000000
40
0.0000000000
40
0.0000000000
40
0.1276447242
40
0.5463705890
40
1.0000000000
40
1.0000000000
40
1.0000000000
40
1.0000000000
10
-28.5600758784
20
-13.2376562099
30
0.0000000000
10
-28.5734361684
20
-13.2497636526
30
0.0000000000
10
-28.6342612465
20
-13.2976880897
30
0.0000000000
10
-28.7639672498
20
-13.3560289015
30
0.0000000000
10
-28.8867433823
20
-13.3734044179
30
0.0000000000
10
-28.9503050718
20
-13.3741681589
30
0.0000000000
11
-28.5600758784
21
-13.2376562099
31
0.0000000000
11
-28.6024045550
21
-13.2712802170
31
0.0000000000
11
-28.7616579272
21
-13.3462701334
31
0.0000000000
11
-28.9503050718
21
-13.3741681589
31
0.0000000000
0
SPLINE
5
59C
100
AcDbEntity
8
0
100
AcDbSpline
62
9
6
CONTINUOUS
70
0
71
3
72
10
73
6
74
4
42
0.0000001000
43
0.0000001000
44
0.0000000001
12
0.0016099428
22
-0.1869472130
32
0.0000000000
13
-0.1869534959
23
-0.0004926854
33
0.0000000000
40
0.0000000000
40
0.0000000000
40
0.0000000000
40
0.0000000000
40
0.5416924424
40
0.8831589242
40
1.0000000000
40
1.0000000000
40
1.0000000000
40
1.0000000000
10
-28.9503052538
20
-13.3741609807
30
0.0000000000
10
-28.9500145558
20
-13.4079169448
30
0.0000000000
10
-28.9435742835
20
-13.4694689863
30
0.0000000000
10
-28.9588750874
20
-13.5151057577
30
0.0000000000
10
-28.9430242965
20
-13.5610828727
30
0.0000000000
10
-28.9503055790
20
-13.5611020614
30
0.0000000000
11
-28.9503052538
21
-13.3741609807
31
0.0000000000
11
-28.9496207658
21
-13.4754303149
31
0.0000000000
11
-28.9496203199
21
-13.5392688891
31
0.0000000000
11
-28.9503055790
21
-13.5611020614
31
0.0000000000
0
SPLINE
5
59D
100
AcDbEntity
8
0
100
AcDbSpline
62
9
6
CONTINUOUS
70
0
71
3
72
11
73
7
74
5
42
0.0000001000
43
0.0000001000
44
0.0000000001
12
-0.0000000004
22
-0.6334871461
32
0.0000000000
13
-0.6334495985
23
-0.0068971257
33
0.0000000000
40
0.0000000000
40
0.0000000000
40
0.0000000000
40
0.0000000000
40
0.1954686554
40
0.4262261650
40
0.6995484654
40
1.0000000000
40
1.0000000000
40
1.0000000000
40
1.0000000000
10
-28.4590312750
20
-11.2777884681
30
0.0000000000
10
-28.4590312750
20
-11.3190640950
30
0.0000000000
10
-28.4908543770
20
-11.4097623483
30
0.0000000000
10
-28.6058374375
20
-11.5089350935
30
0.0000000000
10
-28.7652264834
20
-11.5734551771
30
0.0000000000
10
-28.8868647705
20
-11.5889425842
30
0.0000000000
10
-28.9503050718
20
-11.5896333349
30
0.0000000000
11
-28.4590312750
21
-11.2777884681
31
0.0000000000
11
-28.4962610131
21
-11.3958860675
31
0.0000000000
11
-28.6024060283
21
-11.4963967055
31
0.0000000000
11
-28.7616593281
21
-11.5643524311
31
0.0000000000
11
-28.9503050718
21
-11.5896333349
31
0.0000000000
0
SPLINE
5
59E
100
AcDbEntity
8
0
100
AcDbSpline
62
9
6
CONTINUOUS
70
0
71
3
72
12
73
8
74
6
42
0.0000001000
43
0.0000001000
44
0.0000000001
12
0.0000000000
22
0.6506133292
32
0.0000000000
13
-0.6505689333
23
0.0076004721
33
0.0000000000
40
0.0000000000
40
0.0000000000
40
0.0000000000
40
0.0000000000
40
0.1614858414
40
0.3393406442
40
0.5409970788
40
0.7641564845
40
1.0000000000
40
1.0000000000
40
1.0000000000
40
1.0000000000
10
-37.8590312750
20
23.9270108222
30
0.0000000000
10
-37.8590312750
20
23.9620324358
30
0.0000000000
10
-37.8774467510
20
24.0363837599
30
0.0000000000
10
-37.9519180241
20
24.1303902048
30
0.0000000000
10
-38.0626393821
20
24.2030544422
30
0.0000000000
10
-38.1994045764
20
24.2496856591
30
0.0000000000
10
-38.2991609170
20
24.2610161982
30
0.0000000000
10
-38.3503050718
20
24.2616137055
30
0.0000000000
11
-37.8590312750
21
23.9270108222
31
0.0000000000
11
-37.8829665786
21
24.0293129338
31
0.0000000000
11
-37.9524808945
21
24.1218205169
31
0.0000000000
11
-38.0609188375
21
24.1956767833
31
0.0000000000
11
-38.1978984274
21
24.2438106443
31
0.0000000000
11
-38.3503050718
21
24.2616137055
31
0.0000000000
0
SPLINE
5
59F
100
AcDbEntity
8
0
100
AcDbSpline
62
9
6
CONTINUOUS
70
0
71
3
72
10
73
6
74
4
42
0.0000001000
43
0.0000001000
44
0.0000000001
12
-0.2147734674
22
0.0954628608
32
0.0000000000
13
-0.1508847455
23
-0.1802070855
33
0.0000000000
40
0.0000000000
40
0.0000000000
40
0.0000000000
40
0.0000000000
40
0.2298107710
40
0.5565246948
40
1.0000000000
40
1.0000000000
40
1.0000000000
40
1.0000000000
10
-39.5741940815
20
25.0142419474
30
0.0000000000
10
-39.5906465002
20
25.0215547453
30
0.0000000000
10
-39.6384592607
20
25.0180473692
30
0.0000000000
10
-39.7040120539
20
24.9733139440
30
0.0000000000
10
-39.7462324824
20
24.9298082674
30
0.0000000000
10
-39.7685370353
20
24.9031691366
30
0.0000000000
11
-39.5741940815
21
25.0142419474
31
0.0000000000
11
-39.6282018618
21
25.0150110480
31
0.0000000000
11
-39.6948702990
21
24.9769081307
31
0.0000000000
11
-39.7685370353
21
24.9031691366
31
0.0000000000
0
SPLINE
5
5A0
100
AcDbEntity
8
0
100
AcDbSpline
62
9
6
CONTINUOUS
70
0
71
3
72
9
73
5
74
3
42
0.0000001000
43
0.0000001000
44
0.0000000001
12
1.4182323738
22
-0.6415575623
32
0.0000000000
13
1.4182237797
23
-0.6415765600
33
0.0000000000
40
0.0000000000
40
0.0000000000
40
0.0000000000
40
0.0000000000
40
0.4952597084
40
1.0000000000
40
1.0000000000
40
1.0000000000
40
1.0000000000
10
-39.7685371119
20
24.9031663032
30
0.0000000000
10
-39.5344059946
20
24.7972537661
30
0.0000000000
10
-39.0616764865
20
24.5833689346
30
0.0000000000
10
-38.5889166332
20
24.3695511842
30
0.0000000000
10
-38.3503050718
20
24.2616080042
30
0.0000000000
11
-39.7685371119
21
24.9031663032
31
0.0000000000
11
-39.0661507948
21
24.5854131413
31
0.0000000000
11
-38.3503050718
21
24.2616080042
31
0.0000000000
0
SPLINE
5
5A1
100
AcDbEntity
8
0
100
AcDbSpline
62
9
6
CONTINUOUS
70
0
71
3
72
10
73
6
74
4
42
0.0000001000
43
0.0000001000
44
0.0000000001
12
-0.2201083481
22
0.0978259329
32
0.0000000000
13
-0.1579663235
23
-0.1818357464
33
0.0000000000
40
0.0000000000
40
0.0000000000
40
0.0000000000
40
0.0000000000
40
0.2212814798
40
0.5497139282
40
1.0000000000
40
1.0000000000
40
1.0000000000
40
1.0000000000
10
-38.1559620412
20
24.3839165962
30
0.0000000000
10
-38.1721973415
20
24.3911322852
30
0.0000000000
10
-38.2208059296
20
24.3851369380
30
0.0000000000
10
-38.2859037488
20
24.3366857091
30
0.0000000000
10
-38.3265950618
20
24.2889064068
30
0.0000000000
10
-38.3503050736
20
24.2616137055
30
0.0000000000
11
-38.1559620412
21
24.3839165962
31
0.0000000000
11
-38.2092532004
21
24.3829612636
31
0.0000000000
11
-38.2761922490
21
24.3408020573
31
0.0000000000
11
-38.3503050736
21
24.2616137055
31
0.0000000000
0
SPLINE
5
5A2
100
AcDbEntity
8
0
100
AcDbSpline
62
9
6
CONTINUOUS
70
0
71
3
72
10
73
6
74
4
42
0.0000001000
43
0.0000001000
44
0.0000000001
12
-0.2574050420
22
0.2574050902
32
0.0000000000
13
-0.3351234442
23
-0.1421513744
33
0.0000000000
40
0.0000000000
40
0.0000000000
40
0.0000000000
40
0.0000000000
40
0.2874483728
40
0.6158327943
40
1.0000000000
40
1.0000000000
40
1.0000000000
40
1.0000000000
10
-41.2433492897
20
26.6362653815
30
0.0000000000
10
-41.2680128432
20
26.6609289396
30
0.0000000000
10
-41.3369722354
20
26.6986917002
30
0.0000000000
10
-41.4611425350
20
26.7026765989
30
0.0000000000
10
-41.5452619980
20
26.6778690633
30
0.0000000000
10
-41.5881764771
20
26.6596657645
30
0.0000000000
11
-41.2433492897
21
26.6362653815
31
0.0000000000
11
-41.3340242395
21
26.6884888552
31
0.0000000000
11
-41.4532903171
21
26.6965823900
31
0.0000000000
11
-41.5881764771
21
26.6596657645
31
0.0000000000
0
SPLINE
5
5A3
100
AcDbEntity
8
0
100
AcDbSpline
62
9
6
CONTINUOUS
70
0
71
3
72
10
73
6
74
4
42
0.0000001000
43
0.0000001000
44
0.0000000001
12
0.1857034163
22
0.0032340081
32
0.0000000000
13
-0.0019175554
23
0.1857216752
33
0.0000000000
40
0.0000000000
40
0.0000000000
40
0.0000000000
40
0.0000000000
40
0.1168063832
40
0.4583262497
40
1.0000000000
40
1.0000000000
40
1.0000000000
40
1.0000000000
10
-39.3762559932
20
-13.7431166736
30
0.0000000000
10
-39.3690255451
20
-13.7429907560
30
0.0000000000
10
-39.3844485253
20
-13.6975814001
30
0.0000000000
10
-39.3695316690
20
-13.6519884901
30
0.0000000000
10
-39.3759097609
20
-13.5909372338
30
0.0000000000
10
-39.3762559907
20
-13.5574037151
30
0.0000000000
11
-39.3762559932
21
-13.7431166736
31
0.0000000000
11
-39.3754409816
21
-13.7214373545
31
0.0000000000
11
-39.3754409752
21
-13.6580063321
31
0.0000000000
11
-39.3762559907
21
-13.5574037151
31
0.0000000000
0
SPLINE
5
5A4
100
AcDbEntity
8
0
100
AcDbSpline
62
9
6
CONTINUOUS
70
0
71
3
72
15
73
11
74
9
42
0.0000001000
43
0.0000001000
44
0.0000000001
12
-0.9346982672
22
-0.0649450851
32
0.0000000000
13
-0.6547746644
23
-0.6690103759
33
0.0000000000
40
0.0000000000
40
0.0000000000
40
0.0000000000
40
0.0000000000
40
0.1322302430
40
0.3122176350
40
0.4686401731
40
0.6045076886
40
0.7229610624
40
0.8267077958
40
0.9182711412
40
1.0000000000
40
1.0000000000
40
1.0000000000
40
1.0000000000
10
-39.4419501231
20
-13.5602629157
30
0.0000000000
10
-39.4831485828
20
-13.5631254839
30
0.0000000000
10
-39.5801533164
20
-13.5746216885
30
0.0000000000
10
-39.7228280288
20
-13.6084547377
30
0.0000000000
10
-39.8612641245
20
-13.6599271518
30
0.0000000000
10
-39.9761471265
20
-13.7172143726
30
0.0000000000
10
-40.0712358154
20
-13.7761410941
30
0.0000000000
10
-40.1501330810
20
-13.8342676877
30
0.0000000000
10
-40.2160125500
20
-13.8903320279
30
0.0000000000
10
-40.2549686833
20
-13.9278848676
30
0.0000000000
10
-40.2728066787
20
-13.9461106857
30
0.0000000000
11
-39.4419501231
21
-13.5602629157
31
0.0000000000
11
-39.5649652512
21
-13.5748441760
31
0.0000000000
11
-39.7289121643
21
-13.6136991129
31
0.0000000000
11
-39.8661651265
21
-13.6647192852
31
0.0000000000
11
-39.9799918152
21
-13.7214648094
31
0.0000000000
11
-40.0742505680
21
-13.7798676879
31
0.0000000000
11
-40.1524440777
21
-13.8374678623
31
0.0000000000
11
-40.2177223204
21
-13.8930156370
31
0.0000000000
11
-40.2728066787
21
-13.9461106857
31
0.0000000000
0
SPLINE
5
5A5
100
AcDbEntity
8
0
100
AcDbSpline
62
9
6
CONTINUOUS
70
0
71
3
72
9
73
5
74
3
42
0.0000001000
43
0.0000001000
44
0.0000000001
12
-1.3807831006
22
-1.4108205172
32
0.0000000000
13
-1.3808089210
23
-1.4107952461
33
0.0000000000
40
0.0000000000
40
0.0000000000
40
0.0000000000
40
0.0000000000
40
0.5236650952
40
1.0000000000
40
1.0000000000
40
1.0000000000
40
1.0000000000
10
-40.2728066787
20
-13.9461106857
30
0.0000000000
10
-40.5138293166
20
-14.1923765059
30
0.0000000000
10
-40.9740925286
20
-14.6626478797
30
0.0000000000
10
-41.4343605379
20
-15.1329145581
30
0.0000000000
10
-41.6536030332
20
-15.3569182312
30
0.0000000000
11
-40.2728066787
21
-13.9461106857
31
0.0000000000
11
-40.9958781896
21
-14.6849046257
31
0.0000000000
11
-41.6536030332
21
-15.3569182312
31
0.0000000000
0
SPLINE
5
5A6
100
AcDbEntity
8
0
100
AcDbSpline
62
9
6
CONTINUOUS
70
0
71
3
72
10
73
6
74
4
42
0.0000001000
43
0.0000001000
44
0.0000000001
12
-3.9999999803
22
-0.0702534154
32
0.0000000000
13
-4.0000000196
23
-0.0702511788
33
0.0000000000
40
0.0000000000
40
0.0000000000
40
0.0000000000
40
0.0000000000
40
0.3334720350
40
0.6668053684
40
1.0000000000
40
1.0000000000
40
1.0000000000
40
1.0000000000
10
-45.5590312750
20
-17.6111599950
30
0.0000000000
10
-46.0036606528
20
-17.6189691782
30
0.0000000000
10
-46.8927344744
20
-17.6345842132
30
0.0000000000
10
-48.2260678077
20
-17.6580016446
30
0.0000000000
10
-49.1147717640
20
-17.6736098522
30
0.0000000000
10
-49.5590312750
20
-17.6814122907
30
0.0000000000
11
-45.5590312750
21
-17.6111599950
31
0.0000000000
11
-46.8929194107
21
-17.6345874197
31
0.0000000000
11
-48.2262527440
21
-17.6580048513
31
0.0000000000
11
-49.5590312750
21
-17.6814122907
31
0.0000000000
0
SPLINE
5
5A7
100
AcDbEntity
8
0
100
AcDbSpline
62
9
6
CONTINUOUS
70
0
71
3
72
11
73
7
74
5
42
0.0000001000
43
0.0000001000
44
0.0000000001
12
-0.3032335704
22
-0.3028279650
32
0.0000000000
13
-0.4099370709
23
0.1249278692
33
0.0000000000
40
0.0000000000
40
0.0000000000
40
0.0000000000
40
0.0000000000
40
0.1870130037
40
0.4171193929
40
0.6879030630
40
1.0000000000
40
1.0000000000
40
1.0000000000
40
1.0000000000
10
-41.2432656432
20
-15.3324543778
30
0.0000000000
10
-41.2621685168
20
-15.3513319669
30
0.0000000000
10
-41.3155660158
20
-15.3821001240
30
0.0000000000
10
-41.4134128257
20
-15.3999179609
30
0.0000000000
10
-41.5302358524
20
-15.3914353306
30
0.0000000000
10
-41.6109562520
20
-15.3699168472
30
0.0000000000
10
-41.6536029534
20
-15.3569203121
30
0.0000000000
11
-41.2432656432
21
-15.3324543778
31
0.0000000000
11
-41.3112420764
21
-15.3749083827
31
0.0000000000
11
-41.4077809198
21
-15.3950233278
31
0.0000000000
11
-41.5236438094
21
-15.3885348732
31
0.0000000000
11
-41.6536029534
21
-15.3569203121
31
0.0000000000
0
SPLINE
5
5A8
100
AcDbEntity
8
0
100
AcDbSpline
62
9
6
CONTINUOUS
70
0
71
3
72
10
73
6
74
4
42
0.0000001000
43
0.0000001000
44
0.0000000001
12
0.0987221946
22
0.0017268326
32
0.0000000000
13
-0.0044028586
23
0.1025633578
33
0.0000000000
40
0.0000000000
40
0.0000000000
40
0.0000000000
40
0.0000000000
40
0.1439558887
40
0.5670878843
40
1.0000000000
40
1.0000000000
40
1.0000000000
40
1.0000000000
10
-41.6536028961
20
-15.4798831273
30
0.0000000000
10
-41.6488656823
20
-15.4798002647
30
0.0000000000
10
-41.6590226077
20
-15.4499412557
30
0.0000000000
10
-41.6510829413
20
-15.4256991514
30
0.0000000000
10
-41.6521331545
20
-15.3966129687
30
0.0000000000
10
-41.6527685048
20
-15.3818126620
30
0.0000000000
11
-41.6536028961
21
-15.4798831273
31
0.0000000000
11
-41.6530777176
21
-15.4656790177
31
0.0000000000
11
-41.6530777530
21
-15.4239001085
31
0.0000000000
11
-41.6527685048
21
-15.3818126620
31
0.0000000000
0
SPLINE
5
5A9
100
AcDbEntity
8
0
100
AcDbSpline
62
9
6
CONTINUOUS
70
0
71
3
72
10
73
6
74
4
42
0.0000001000
43
0.0000001000
44
0.0000000001
12
-3.9999999803
22
0.0702534154
32
0.0000000000
13
-4.0000000196
23
0.0702511788
33
0.0000000000
40
0.0000000000
40
0.0000000000
40
0.0000000000
40
0.0000000000
40
0.3334720350
40
0.6668053684
40
1.0000000000
40
1.0000000000
40
1.0000000000
40
1.0000000000
10
-45.5590312750
20
28.9150547286
30
0.0000000000
10
-46.0036606528
20
28.9228639117
30
0.0000000000
10
-46.8927344744
20
28.9384789467
30
0.0000000000
10
-48.2260678077
20
28.9618963781
30
0.0000000000
10
-49.1147717640
20
28.9775045857
30
0.0000000000
10
-49.5590312750
20
28.9853070242
30
0.0000000000
11
-45.5590312750
21
28.9150547286
31
0.0000000000
11
-46.8929194107
21
28.9384821532
31
0.0000000000
11
-48.2262527440
21
28.9618995848
31
0.0000000000
11
-49.5590312750
21
28.9853070242
31
0.0000000000
0
SPLINE
5
5AA
100
AcDbEntity
8
0
100
AcDbSpline
62
9
6
CONTINUOUS
70
0
71
3
72
12
73
8
74
6
42
0.0000001000
43
0.0000001000
44
0.0000000001
12
0.0000211407
22
-0.1469271212
32
0.0000000000
13
-0.1411297426
23
-0.0408653295
33
0.0000000000
40
0.0000000000
40
0.0000000000
40
0.0000000000
40
0.0000000000
40
0.1426224158
40
0.3074851270
40
0.5066103532
40
0.7390795678
40
1.0000000000
40
1.0000000000
40
1.0000000000
40
1.0000000000
10
-37.8590312750
20
23.8484868194
30
0.0000000000
10
-37.8590302700
20
23.8415017857
30
0.0000000000
10
-37.8640196442
20
23.8263722184
30
0.0000000000
10
-37.8816640099
20
23.8083422088
30
0.0000000000
10
-37.9064852827
20
23.7926829723
30
0.0000000000
10
-37.9376156732
20
23.7790080675
30
0.0000000000
10
-37.9606121073
20
23.7714945179
30
0.0000000000
10
-37.9728866518
20
23.7679403181
30
0.0000000000
11
-37.8590312750
21
23.8484868194
31
0.0000000000
11
-37.8648893404
21
23.8283671937
31
0.0000000000
11
-37.8809774473
21
23.8102587140
31
0.0000000000
11
-37.9054043674
21
23.7941561809
31
0.0000000000
11
-37.9365181445
21
23.7800647844
31
0.0000000000
11
-37.9728866518
21
23.7679403181
31
0.0000000000
0
SPLINE
5
5AB
100
AcDbEntity
8
0
100
AcDbSpline
62
7
6
CONTINUOUS
70
0
71
3
72
10
73
6
74
4
42
0.0000001000
43
0.0000001000
44
0.0000000001
12
-4.0000360299
22
-0.0287443498
32
0.0000000000
13
-3.9999639243
23
-0.0374577365
33
0.0000000000
40
0.0000000000
40
0.0000000000
40
0.0000000000
40
0.0000000000
40
0.3303029973
40
0.6636439357
40
1.0000000000
40
1.0000000000
40
1.0000000000
40
1.0000000000
10
-45.5590312750
20
-16.9779192359
30
0.0000000000
10
-45.9994392383
20
-16.9810840175
30
0.0000000000
10
-46.8843031861
20
-16.9878097789
30
0.0000000000
10
-48.2176365627
20
-16.9989447655
30
0.0000000000
10
-49.1105605673
20
-17.0070195429
30
0.0000000000
10
-49.5590312750
20
-17.0112192552
30
0.0000000000
11
-45.5590312750
21
-16.9779192359
31
0.0000000000
11
-46.8802512510
21
-16.9879434507
31
0.0000000000
11
-48.2136150664
21
-16.9990642323
31
0.0000000000
11
-49.5590312750
21
-17.0112192552
31
0.0000000000
0
SPLINE
5
5AC
100
AcDbEntity
8
0
100
AcDbSpline
62
7
6
CONTINUOUS
70
0
71
3
72
10
73
6
74
4
42
0.0000001000
43
0.0000001000
44
0.0000000001
12
-4.0000360299
22
0.0287443498
32
0.0000000000
13
-3.9999639243
23
0.0374577365
33
0.0000000000
40
0.0000000000
40
0.0000000000
40
0.0000000000
40
0.0000000000
40
0.3303029973
40
0.6636439357
40
1.0000000000
40
1.0000000000
40
1.0000000000
40
1.0000000000
10
-45.5590312750
20
28.2818139694
30
0.0000000000
10
-45.9994392383
20
28.2849787510
30
0.0000000000
10
-46.8843031861
20
28.2917045124
30
0.0000000000
10
-48.2176365627
20
28.3028394990
30
0.0000000000
10
-49.1105605673
20
28.3109142764
30
0.0000000000
10
-49.5590312750
20
28.3151139887
30
0.0000000000
11
-45.5590312750
21
28.2818139694
31
0.0000000000
11
-46.8802512510
21
28.2918381842
31
0.0000000000
11
-48.2136150664
21
28.3029589658
31
0.0000000000
11
-49.5590312750
21
28.3151139887
31
0.0000000000
0
SPLINE
5
5AD
100
AcDbEntity
8
0
100
AcDbSpline
62
9
6
CONTINUOUS
70
0
71
3
72
9
73
5
74
3
42
0.0000001000
43
0.0000001000
44
0.0000000001
12
3.7743452275
22
-0.0661761155
32
0.0000000000
13
3.7743452026
23
-0.0661775359
33
0.0000000000
40
0.0000000000
40
0.0000000000
40
0.0000000000
40
0.0000000000
40
0.4998516033
40
1.0000000000
40
1.0000000000
40
1.0000000000
40
1.0000000000
10
-45.3625217211
20
26.7258425898
30
0.0000000000
10
-44.7336508833
20
26.7148165107
30
0.0000000000
10
-43.4755358091
20
26.6927577171
30
0.0000000000
10
-42.2174207410
20
26.6706985689
30
0.0000000000
10
-41.5881765071
20
26.6596657061
30
0.0000000000
11
-45.3625217211
21
26.7258425898
31
0.0000000000
11
-43.4759092109
21
26.6927641754
31
0.0000000000
11
-41.5881765071
21
26.6596657061
31
0.0000000000
0
SPLINE
5
5AE
100
AcDbEntity
8
0
100
AcDbSpline
62
9
6
CONTINUOUS
70
0
71
3
72
10
73
6
74
4
42
0.0000001000
43
0.0000001000
44
0.0000000001
12
0.1229631134
22
-0.0021463291
32
0.0000000000
13
-0.0004143126
23
-0.1229811463
33
0.0000000000
40
0.0000000000
40
0.0000000000
40
0.0000000000
40
0.0000000000
40
0.1154847072
40
0.4552180521
40
1.0000000000
40
1.0000000000
40
1.0000000000
40
1.0000000000
10
-41.5881764771
20
26.7826358384
30
0.0000000000
10
-41.5834430240
20
26.7825532157
30
0.0000000000
10
-41.5935993445
20
26.7527000892
30
0.0000000000
10
-41.5836618670
20
26.7225072610
30
0.0000000000
10
-41.5881012404
20
26.6819984007
30
0.0000000000
10
-41.5881764771
20
26.6596657645
30
0.0000000000
11
-41.5881764771
21
26.7826358384
31
0.0000000000
11
-41.5876513633
21
26.7684430271
31
0.0000000000
11
-41.5876511743
21
26.7266619938
31
0.0000000000
11
-41.5881764771
21
26.6596657645
31
0.0000000000
0
SPLINE
5
5AF
100
AcDbEntity
8
0
100
AcDbSpline
62
9
6
CONTINUOUS
70
0
71
3
72
9
73
5
74
3
42
0.0000001000
43
0.0000001000
44
0.0000000001
12
20.6087286044
22
0.1174283934
32
0.0000000000
13
20.6087237773
23
0.1182725166
33
0.0000000000
40
0.0000000000
40
0.0000000000
40
0.0000000000
40
0.0000000000
40
0.4991766728
40
1.0000000000
40
1.0000000000
40
1.0000000000
40
1.0000000000
10
-49.5590312750
20
-11.7074822024
30
0.0000000000
10
-46.1298990832
20
-11.6879430308
30
0.0000000000
10
-39.2603232772
20
-11.6487307953
30
0.0000000000
10
-32.3907482756
20
-11.6093778800
30
0.0000000000
10
-28.9503050718
20
-11.5896333349
30
0.0000000000
11
-49.5590312750
21
-11.7074822024
31
0.0000000000
11
-39.2716352949
21
-11.6487603101
31
0.0000000000
11
-28.9503050718
21
-11.5896333349
31
0.0000000000
0
SPLINE
5
5B0
100
AcDbEntity
8
0
100
AcDbSpline
62
9
6
CONTINUOUS
70
0
71
3
72
9
73
5
74
3
42
0.0000001000
43
0.0000001000
44
0.0000000001
12
20.6087291708
22
0.1249697361
32
0.0000000000
13
20.6087232035
23
0.1259499577
33
0.0000000000
40
0.0000000000
40
0.0000000000
40
0.0000000000
40
0.0000000000
40
0.4991766659
40
1.0000000000
40
1.0000000000
40
1.0000000000
40
1.0000000000
10
-49.5590312750
20
-10.4677117993
30
0.0000000000
10
-46.1298990362
20
-10.4469178072
30
0.0000000000
10
-39.2603231344
20
-10.4051806303
30
0.0000000000
10
-32.3907482271
20
-10.3632800934
30
0.0000000000
10
-28.9503050718
20
-10.3422538675
30
0.0000000000
11
-49.5590312750
21
-10.4677117993
31
0.0000000000
11
-39.2716352941
21
-10.4052086520
31
0.0000000000
11
-28.9503050718
21
-10.3422538675
31
0.0000000000
0
SPLINE
5
5B1
100
AcDbEntity
8
0
100
AcDbSpline
62
9
6
CONTINUOUS
70
0
71
3
72
9
73
5
74
3
42
0.0000001000
43
0.0000001000
44
0.0000000001
12
-0.2032226540
22
-0.0130960423
32
0.0000000000
13
-0.1963061222
23
0.0528941246
33
0.0000000000
40
0.0000000000
40
0.0000000000
40
0.0000000000
40
0.0000000000
40
0.5712545264
40
1.0000000000
40
1.0000000000
40
1.0000000000
40
1.0000000000
10
-41.4077809198
20
-15.3950233278
30
0.0000000000
10
-41.4464782068
20
-15.3975170523
30
0.0000000000
10
-41.5145924085
20
-15.3925712158
30
0.0000000000
10
-41.5806979503
20
-15.3774163931
30
0.0000000000
10
-41.6087530707
20
-15.3698570209
30
0.0000000000
11
-41.4077809198
21
-15.3950233278
31
0.0000000000
11
-41.5236438094
21
-15.3885348732
31
0.0000000000
11
-41.6087530707
21
-15.3698570209
31
0.0000000000
0
SPLINE
5
5B2
100
AcDbEntity
8
0
100
AcDbSpline
62
9
6
CONTINUOUS
70
0
71
3
72
8
73
4
74
2
42
0.0000001000
43
0.0000001000
44
0.0000000001
12
-0.0450846336
22
0.0121479259
32
0.0000000000
13
-0.0446277210
23
0.0136002487
33
0.0000000000
40
0.0000000000
40
0.0000000000
40
0.0000000000
40
0.0000000000
40
1.0000000000
40
1.0000000000
40
1.0000000000
40
1.0000000000
10
-41.6087530707
20
-15.3698570209
30
0.0000000000
10
-41.6237812819
20
-15.3658077123
30
0.0000000000
10
-41.6387270464
20
-15.3614537283
30
0.0000000000
10
-41.6536029534
20
-15.3569203121
30
0.0000000000
11
-41.6087530707
21
-15.3698570209
31
0.0000000000
11
-41.6536029534
21
-15.3569203121
31
0.0000000000
0
SPLINE
5
5B3
100
AcDbEntity
8
0
100
AcDbSpline
62
9
6
CONTINUOUS
70
0
71
3
72
10
73
6
74
4
42
0.0000001000
43
0.0000001000
44
0.0000000001
12
0.0768298930
22
0.0013438960
32
0.0000000000
13
-0.0001581868
23
0.0764288847
33
0.0000000000
40
0.0000000000
40
0.0000000000
40
0.0000000000
40
0.0000000000
40
0.1849754141
40
0.7286767992
40
1.0000000000
40
1.0000000000
40
1.0000000000
40
1.0000000000
10
-41.6536028961
20
-15.4798831273
30
0.0000000000
10
-41.6488656823
20
-15.4798002647
30
0.0000000000
10
-41.6590226077
20
-15.4499412557
30
0.0000000000
10
-41.6528436150
20
-15.4310749989
30
0.0000000000
10
-41.6521156177
20
-15.4111231595
30
0.0000000000
10
-41.6521299243
20
-15.4042108496
30
0.0000000000
11
-41.6536028961
21
-15.4798831273
31
0.0000000000
11
-41.6530777176
21
-15.4656790177
31
0.0000000000
11
-41.6530777530
21
-15.4239001085
31
0.0000000000
11
-41.6521299243
21
-15.4042108496
31
0.0000000000
0
SPLINE
5
5B4
100
AcDbEntity
8
0
100
AcDbSpline
62
9
6
CONTINUOUS
70
0
71
3
72
8
73
4
74
2
42
0.0000001000
43
0.0000001000
44
0.0000000001
12
-0.0000450745
22
0.0217780363
32
0.0000000000
13
-0.0009763631
23
0.0227441051
33
0.0000000000
40
0.0000000000
40
0.0000000000
40
0.0000000000
40
0.0000000000
40
1.0000000000
40
1.0000000000
40
1.0000000000
40
1.0000000000
10
-41.6521299243
20
-15.4042108496
30
0.0000000000
10
-41.6521449492
20
-15.3969515042
30
0.0000000000
10
-41.6524430504
20
-15.3893940304
30
0.0000000000
10
-41.6527685048
20
-15.3818126620
30
0.0000000000
11
-41.6521299243
21
-15.4042108496
31
0.0000000000
11
-41.6527685048
21
-15.3818126620
31
0.0000000000
0
SPLINE
5
5B5
100
AcDbEntity
8
0
100
AcDbSpline
62
9
6
CONTINUOUS
70
0
71
3
72
8
73
4
74
2
42
0.0000001000
43
0.0000001000
44
0.0000000001
12
-0.0010808732
22
0.0251786388
32
0.0000000000
13
-0.0002411721
23
0.0242381657
33
0.0000000000
40
0.0000000000
40
0.0000000000
40
0.0000000000
40
0.0000000000
40
1.0000000000
40
1.0000000000
40
1.0000000000
40
1.0000000000
10
-41.6527685048
20
-15.3818126620
30
0.0000000000
10
-41.6531287959
20
-15.3734197824
30
0.0000000000
10
-41.6535226092
20
-15.3649976191
30
0.0000000000
10
-41.6536029999
20
-15.3569182306
30
0.0000000000
11
-41.6527685048
21
-15.3818126620
31
0.0000000000
11
-41.6536029999
21
-15.3569182306
31
0.0000000000
0
SPLINE
5
5B6
100
AcDbEntity
8
0
100
AcDbSpline
62
9
6
CONTINUOUS
70
0
71
3
72
9
73
5
74
3
42
0.0000001000
43
0.0000001000
44
0.0000000001
12
-3.7089186763
22
-0.0650303545
32
0.0000000000
13
-3.7089187003
23
-0.0650289831
33
0.0000000000
40
0.0000000000
40
0.0000000000
40
0.0000000000
40
0.0000000000
40
0.5001458145
40
1.0000000000
40
1.0000000000
40
1.0000000000
40
1.0000000000
10
-41.6536030332
20
-15.3569182312
30
0.0000000000
10
-42.2719364173
20
-15.3677597844
30
0.0000000000
10
-43.5082426459
20
-15.3894363902
30
0.0000000000
10
-44.7445488769
20
-15.4111128532
30
0.0000000000
10
-45.3625217222
20
-15.4219478563
30
0.0000000000
11
-41.6536030332
21
-15.3569182312
31
0.0000000000
11
-43.5086031893
21
-15.3894426760
31
0.0000000000
11
-45.3625217222
21
-15.4219478563
31
0.0000000000
0
SPLINE
5
5B7
100
AcDbEntity
8
0
100
AcDbSpline
62
9
6
CONTINUOUS
70
0
71
3
72
9
73
5
74
3
42
0.0000001000
43
0.0000001000
44
0.0000000001
12
0.0000065004
22
-0.0451779045
32
0.0000000000
13
-0.0349629010
23
-0.0289291384
33
0.0000000000
40
0.0000000000
40
0.0000000000
40
0.0000000000
40
0.0000000000
40
0.4638351688
40
1.0000000000
40
1.0000000000
40
1.0000000000
40
1.0000000000
10
-37.8590312750
20
23.8484868194
30
0.0000000000
10
-37.8590302700
20
23.8415017857
30
0.0000000000
10
-37.8640196442
20
23.8263722184
30
0.0000000000
10
-37.8747288214
20
23.8154289762
30
0.0000000000
10
-37.8809774473
20
23.8102587140
30
0.0000000000
11
-37.8590312750
21
23.8484868194
31
0.0000000000
11
-37.8648893404
21
23.8283671937
31
0.0000000000
11
-37.8809774473
21
23.8102587140
31
0.0000000000
0
SPLINE
5
5B8
100
AcDbEntity
8
0
100
AcDbSpline
62
9
6
CONTINUOUS
70
0
71
3
72
9
73
5
74
3
42
0.0000001000
43
0.0000001000
44
0.0000000001
12
-0.0462168130
22
-0.0197584754
32
0.0000000000
13
-0.0482440450
23
-0.0139694777
33
0.0000000000
40
0.0000000000
40
0.0000000000
40
0.0000000000
40
0.0000000000
40
0.2367216843
40
1.0000000000
40
1.0000000000
40
1.0000000000
40
1.0000000000
10
-37.9254917159
20
23.7845351594
30
0.0000000000
10
-37.9291385565
20
23.7829760729
30
0.0000000000
10
-37.9446791779
20
23.7767002317
30
0.0000000000
10
-37.9606121073
20
23.7714945179
30
0.0000000000
10
-37.9728866518
20
23.7679403181
30
0.0000000000
11
-37.9254917159
21
23.7845351594
31
0.0000000000
11
-37.9365181445
21
23.7800647844
31
0.0000000000
11
-37.9728866518
21
23.7679403181
31
0.0000000000
0
SPLINE
5
5B9
100
AcDbEntity
8
0
100
AcDbSpline
62
9
6
CONTINUOUS
70
0
71
3
72
13
73
9
74
7
42
0.0000001000
43
0.0000001000
44
0.0000000001
12
-0.5599969198
22
0.0097568115
32
0.0000000000
13
-0.4931083128
23
-0.2655860264
33
0.0000000000
40
0.0000000000
40
0.0000000000
40
0.0000000000
40
0.0000000000
40
0.1123393629
40
0.2442818618
40
0.3970784209
40
0.5725846320
40
0.7728739945
40
1.0000000000
40
1.0000000000
40
1.0000000000
40
1.0000000000
10
-37.8219192507
20
23.6513014689
30
0.0000000000
10
-37.8428891498
20
23.6516668269
30
0.0000000000
10
-37.8885621458
20
23.6488848280
30
0.0000000000
10
-37.9617060631
20
23.6362002987
30
0.0000000000
10
-38.0448156099
20
23.6139954102
30
0.0000000000
10
-38.1380368744
20
23.5813705319
30
0.0000000000
10
-38.2416295494
20
23.5371499265
30
0.0000000000
10
-38.3129724794
20
23.5012763553
30
0.0000000000
10
-38.3503050532
20
23.4811691909
30
0.0000000000
11
-37.8219192507
21
23.6513014689
31
0.0000000000
11
-37.8847542248
21
23.6480461016
31
0.0000000000
11
-37.9576427870
21
23.6358698304
31
0.0000000000
11
-38.0404147490
21
23.6141328311
31
0.0000000000
11
-38.1332940656
21
23.5819474210
31
0.0000000000
11
-38.2365585686
21
23.5381245188
31
0.0000000000
11
-38.3503050532
21
23.4811691909
31
0.0000000000
0
SPLINE
5
5BA
100
AcDbEntity
8
0
100
AcDbSpline
62
9
6
CONTINUOUS
70
0
71
3
72
10
73
6
74
4
42
0.0000001000
43
0.0000001000
44
0.0000000001
12
0.0720482876
22
-0.1878886640
32
0.0000000000
13
0.2011983050
23
-0.0035139538
33
0.0000000000
40
0.0000000000
40
0.0000000000
40
0.0000000000
40
0.0000000000
40
0.3521773298
40
0.6835833098
40
1.0000000000
40
1.0000000000
40
1.0000000000
40
1.0000000000
10
-37.9728871043
20
23.7679400739
30
0.0000000000
10
-37.9644291798
20
23.7458833646
30
0.0000000000
10
-37.9407802668
20
23.7053040518
30
0.0000000000
10
-37.8869372098
20
23.6625530044
30
0.0000000000
10
-37.8431400846
20
23.6516720934
30
0.0000000000
10
-37.8219192507
20
23.6513014689
30
0.0000000000
11
-37.9728871043
21
23.7679400739
31
0.0000000000
11
-37.9365694100
21
23.7070850059
31
0.0000000000
11
-37.8837967009
21
23.6663125166
31
0.0000000000
11
-37.8219192507
21
23.6513014689
31
0.0000000000
0
SPLINE
5
5BB
100
AcDbEntity
8
0
100
AcDbSpline
62
9
6
CONTINUOUS
70
0
71
3
72
13
73
9
74
7
42
0.0000001000
43
0.0000001000
44
0.0000000001
12
-0.4592769023
22
-0.1330552787
32
0.0000000000
13
-0.3280104998
23
-0.3479196635
33
0.0000000000
40
0.0000000000
40
0.0000000000
40
0.0000000000
40
0.0000000000
40
0.1002989809
40
0.2240837425
40
0.3733177401
40
0.5504610460
40
0.7583728189
40
1.0000000000
40
1.0000000000
40
1.0000000000
40
1.0000000000
10
-37.9728866518
20
23.7679403181
30
0.0000000000
10
-37.9882416535
20
23.7634918818
30
0.0000000000
10
-38.0215371153
20
23.7500916832
30
0.0000000000
10
-38.0735991378
20
23.7211000696
30
0.0000000000
10
-38.1328486803
20
23.6804793943
30
0.0000000000
10
-38.1994058015
20
23.6272581270
30
0.0000000000
10
-38.2734624097
20
23.5601511858
30
0.0000000000
10
-38.3238863210
20
23.5091916411
30
0.0000000000
10
-38.3503050718
20
23.4811693586
30
0.0000000000
11
-37.9728866518
21
23.7679403181
31
0.0000000000
11
-38.0176377300
21
23.7506943627
31
0.0000000000
11
-38.0696100737
21
23.7223706184
31
0.0000000000
11
-38.1286944529
21
23.6823580460
31
0.0000000000
11
-38.1950514608
21
23.6297141316
31
0.0000000000
11
-38.2689007935
21
23.5631579668
31
0.0000000000
11
-38.3503050718
21
23.4811693586
31
0.0000000000
0
SPLINE
5
5BC
100
AcDbEntity
8
0
100
AcDbSpline
62
7
6
CONTINUOUS
70
0
71
3
72
8
73
4
74
2
42
0.0000001000
43
0.0000001000
44
0.0000000001
12
0.0044449042
22
0.0233363354
32
0.0000000000
13
0.0068015086
23
0.0228100359
33
0.0000000000
40
0.0000000000
40
0.0000000000
40
0.0000000000
40
0.0000000000
40
1.0000000000
40
1.0000000000
40
1.0000000000
40
1.0000000000
10
-45.5554989901
20
-15.7071696740
30
0.0000000000
10
-45.5540173554
20
-15.6993908955
30
0.0000000000
10
-45.5521084591
20
-15.6916901139
30
0.0000000000
10
-45.5498412895
20
-15.6840867686
30
0.0000000000
11
-45.5554989901
21
-15.7071696740
31
0.0000000000
11
-45.5498412895
21
-15.6840867686
31
0.0000000000
0
SPLINE
5
5BD
100
AcDbEntity
8
0
100
AcDbSpline
62
7
6
CONTINUOUS
70
0
71
3
72
8
73
4
74
2
42
0.0000001000
43
0.0000001000
44
0.0000000001
12
0.0039574218
22
0.0132718988
32
0.0000000000
13
0.0046443998
23
0.0130624928
33
0.0000000000
40
0.0000000000
40
0.0000000000
40
0.0000000000
40
0.0000000000
40
1.0000000000
40
1.0000000000
40
1.0000000000
40
1.0000000000
10
-45.5498412895
20
-15.6840867686
30
0.0000000000
10
-45.5485221489
20
-15.6796628024
30
0.0000000000
10
-45.5470817173
20
-15.6752718225
30
0.0000000000
10
-45.5455335841
20
-15.6709176583
30
0.0000000000
11
-45.5498412895
21
-15.6840867686
31
0.0000000000
11
-45.5455335841
21
-15.6709176583
31
0.0000000000
0
SPLINE
5
5BE
100
AcDbEntity
8
0
100
AcDbSpline
62
7
6
CONTINUOUS
70
0
71
3
72
9
73
5
74
3
42
0.0000001000
43
0.0000001000
44
0.0000000001
12
0.0134192739
22
0.0377420503
32
0.0000000000
13
0.0179327301
23
0.0357290221
33
0.0000000000
40
0.0000000000
40
0.0000000000
40
0.0000000000
40
0.0000000000
40
0.4907553030
40
1.0000000000
40
1.0000000000
40
1.0000000000
40
1.0000000000
10
-45.5455335841
20
-15.6709176583
30
0.0000000000
10
-45.5433383908
20
-15.6647436212
30
0.0000000000
10
-45.5384240479
20
-15.6523137704
30
0.0000000000
10
-45.5327714422
20
-15.6402365957
30
0.0000000000
10
-45.5297273930
20
-15.6341716574
30
0.0000000000
11
-45.5455335841
21
-15.6709176583
31
0.0000000000
11
-45.5383371074
21
-15.6526285296
31
0.0000000000
11
-45.5297273930
21
-15.6341716574
31
0.0000000000
0
SPLINE
5
5BF
100
AcDbEntity
8
0
100
AcDbSpline
62
7
6
CONTINUOUS
70
0
71
3
72
11
73
7
74
5
42
0.0000001000
43
0.0000001000
44
0.0000000001
12
0.1090518783
22
0.2172740546
32
0.0000000000
13
0.1661271520
23
0.1771638212
33
0.0000000000
40
0.0000000000
40
0.0000000000
40
0.0000000000
40
0.0000000000
40
0.1765736680
40
0.4634490418
40
0.7767419876
40
1.0000000000
40
1.0000000000
40
1.0000000000
40
1.0000000000
10
-45.5297273930
20
-15.6341716574
30
0.0000000000
10
-45.5233088296
20
-15.6213833651
30
0.0000000000
10
-45.5045310015
20
-15.5888135999
30
0.0000000000
10
-45.4673745084
20
-15.5379384093
30
0.0000000000
10
-45.4237361928
20
-15.4874986496
30
0.0000000000
10
-45.3942031168
20
-15.4556454715
30
0.0000000000
10
-45.3818400442
20
-15.4424610573
30
0.0000000000
11
-45.5297273930
21
-15.6341716574
31
0.0000000000
11
-45.5085077924
21
-15.5968867483
31
0.0000000000
11
-45.4679307127
21
-15.5402504250
31
0.0000000000
11
-45.4185903424
21
-15.4823291065
31
0.0000000000
11
-45.3818400442
21
-15.4424610573
31
0.0000000000
0
SPLINE
5
5C0
100
AcDbEntity
8
0
100
AcDbSpline
62
7
6
CONTINUOUS
70
0
71
3
72
8
73
4
74
2
42
0.0000001000
43
0.0000001000
44
0.0000000001
12
0.0192742776
22
0.0205547656
32
0.0000000000
13
0.0193461284
23
0.0204864956
33
0.0000000000
40
0.0000000000
40
0.0000000000
40
0.0000000000
40
0.0000000000
40
1.0000000000
40
1.0000000000
40
1.0000000000
40
1.0000000000
10
-45.3818400442
20
-15.4424610573
30
0.0000000000
10
-45.3754152850
20
-15.4356094688
30
0.0000000000
10
-45.3689704317
20
-15.4287766882
30
0.0000000000
10
-45.3625217222
20
-15.4219478563
30
0.0000000000
11
-45.3818400442
21
-15.4424610573
31
0.0000000000
11
-45.3625217222
21
-15.4219478563
31
0.0000000000
0
SPLINE
5
5C1
100
AcDbEntity
8
0
100
AcDbSpline
62
9
6
CONTINUOUS
70
0
71
3
72
11
73
7
74
5
42
0.0000001000
43
0.0000001000
44
0.0000000001
12
-0.1226552086
22
-0.0023410389
32
0.0000000000
13
0.0004869789
23
0.1226765809
33
0.0000000000
40
0.0000000000
40
0.0000000000
40
0.0000000000
40
0.0000000000
40
0.1247138311
40
0.3055931129
40
0.5907101470
40
1.0000000000
40
1.0000000000
40
1.0000000000
40
1.0000000000
10
-45.3625217565
20
-15.5446225354
30
0.0000000000
10
-45.3676206901
20
-15.5447198554
30
0.0000000000
10
-45.3594371889
20
-15.5235270516
30
0.0000000000
10
-45.3644407109
20
-15.5046401861
30
0.0000000000
10
-45.3618575143
20
-15.4662026920
30
0.0000000000
10
-45.3625882194
20
-15.4386835958
30
0.0000000000
10
-45.3625217809
20
-15.4219468359
30
0.0000000000
11
-45.3625217565
21
-15.5446225354
31
0.0000000000
11
-45.3627353110
21
-15.5293244390
31
0.0000000000
11
-45.3627558764
21
-15.5071346218
31
0.0000000000
11
-45.3626926596
21
-15.4721572205
31
0.0000000000
11
-45.3625217809
21
-15.4219468359
31
0.0000000000
0
SPLINE
5
5C2
100
AcDbEntity
8
0
100
AcDbSpline
62
7
6
CONTINUOUS
70
0
71
3
72
10
73
6
74
4
42
0.0000001000
43
0.0000001000
44
0.0000000001
12
-3.9999099472
22
-0.0844306542
32
0.0000000000
13
-4.0000789575
23
-0.0760029924
33
0.0000000000
40
0.0000000000
40
0.0000000000
40
0.0000000000
40
0.0000000000
40
0.3303097417
40
0.6636505372
40
1.0000000000
40
1.0000000000
40
1.0000000000
40
1.0000000000
10
-45.5590312750
20
-17.4479431081
30
0.0000000000
10
-45.9994343488
20
-17.4572391972
30
0.0000000000
10
-46.8842893699
20
-17.4755600783
30
0.0000000000
10
-48.2176237210
20
-17.5021975385
30
0.0000000000
10
-49.1105564721
20
-17.5194400064
30
0.0000000000
10
-49.5590312750
20
-17.5279611950
30
0.0000000000
11
-45.5590312750
21
-17.4479431081
31
0.0000000000
11
-46.8802512510
21
-17.4753171381
31
0.0000000000
11
-48.2136150664
21
-17.5019696369
31
0.0000000000
11
-49.5590312750
21
-17.5279611950
31
0.0000000000
0
SPLINE
5
5C3
100
AcDbEntity
8
0
100
AcDbSpline
62
7
6
CONTINUOUS
70
0
71
3
72
10
73
6
74
4
42
0.0000001000
43
0.0000001000
44
0.0000000001
12
-3.9999099472
22
0.0844306542
32
0.0000000000
13
-4.0000789575
23
0.0760029924
33
0.0000000000
40
0.0000000000
40
0.0000000000
40
0.0000000000
40
0.0000000000
40
0.3303097417
40
0.6636505372
40
1.0000000000
40
1.0000000000
40
1.0000000000
40
1.0000000000
10
-45.5590312750
20
28.7518378416
30
0.0000000000
10
-45.9994343488
20
28.7611339308
30
0.0000000000
10
-46.8842893699
20
28.7794548118
30
0.0000000000
10
-48.2176237210
20
28.8060922720
30
0.0000000000
10
-49.1105564721
20
28.8233347399
30
0.0000000000
10
-49.5590312750
20
28.8318559285
30
0.0000000000
11
-45.5590312750
21
28.7518378416
31
0.0000000000
11
-46.8802512510
21
28.7792118716
31
0.0000000000
11
-48.2136150664
21
28.8058643705
31
0.0000000000
11
-49.5590312750
21
28.8318559285
31
0.0000000000
0
SPLINE
5
5C4
100
AcDbEntity
8
0
100
AcDbSpline
62
7
6
CONTINUOUS
70
0
71
3
72
10
73
6
74
4
42
0.0000001000
43
0.0000001000
44
0.0000000001
12
-0.0718704743
22
0.0761115819
32
0.0000000000
13
-0.0689895052
23
0.0787389367
33
0.0000000000
40
0.0000000000
40
0.0000000000
40
0.0000000000
40
0.0000000000
40
0.4326752360
40
0.8590573601
40
1.0000000000
40
1.0000000000
40
1.0000000000
40
1.0000000000
10
-45.3625217211
20
26.7258425898
30
0.0000000000
10
-45.3728872459
20
26.7368197887
30
0.0000000000
10
-45.3934763045
20
26.7586068971
30
0.0000000000
10
-45.4170289335
20
26.7843559654
30
0.0000000000
10
-45.4301502660
20
26.7991807092
30
0.0000000000
10
-45.4333914537
20
26.8028799337
30
0.0000000000
11
-45.3625217211
21
26.7258425898
31
0.0000000000
11
-45.3935368232
21
26.7588509289
31
0.0000000000
11
-45.4236158481
21
26.7918281468
31
0.0000000000
11
-45.4333914537
21
26.8028799337
31
0.0000000000
0
SPLINE
5
5C5
100
AcDbEntity
8
0
100
AcDbSpline
62
7
6
CONTINUOUS
70
0
71
3
72
9
73
5
74
3
42
0.0000001000
43
0.0000001000
44
0.0000000001
12
-0.0479398966
22
0.0547146479
32
0.0000000000
13
-0.0438329489
23
0.0580656756
33
0.0000000000
40
0.0000000000
40
0.0000000000
40
0.0000000000
40
0.0000000000
40
0.4029322322
40
1.0000000000
40
1.0000000000
40
1.0000000000
40
1.0000000000
10
-45.4333914537
20
26.8028799337
30
0.0000000000
10
-45.4398302969
20
26.8102286988
30
0.0000000000
10
-45.4556281397
20
26.8286261442
30
0.0000000000
10
-45.4707933171
20
26.8475580884
30
0.0000000000
10
-45.4795170641
20
26.8591144695
30
0.0000000000
11
-45.4333914537
21
26.8028799337
31
0.0000000000
11
-45.4524585010
21
26.8251413245
31
0.0000000000
11
-45.4795170641
21
26.8591144695
31
0.0000000000
0
SPLINE
5
5C6
100
AcDbEntity
8
0
100
AcDbSpline
62
7
6
CONTINUOUS
70
0
71
3
72
11
73
7
74
5
42
0.0000001000
43
0.0000001000
44
0.0000000001
12
-0.0857320028
22
0.1135695131
32
0.0000000000
13
-0.0434630422
23
0.1357484274
33
0.0000000000
40
0.0000000000
40
0.0000000000
40
0.0000000000
40
0.0000000000
40
0.3010672181
40
0.5998171505
40
0.8995037854
40
1.0000000000
40
1.0000000000
40
1.0000000000
40
1.0000000000
10
-45.4795170641
20
26.8591144695
30
0.0000000000
10
-45.4881207626
20
26.8705118220
30
0.0000000000
10
-45.5046207202
20
26.8937085498
30
0.0000000000
10
-45.5265846410
20
26.9303499894
30
0.0000000000
10
-45.5405532794
20
26.9604888181
30
0.0000000000
10
-45.5468423518
20
26.9784430537
30
0.0000000000
10
-45.5482983089
20
26.9829904547
30
0.0000000000
11
-45.4795170641
21
26.8591144695
31
0.0000000000
11
-45.5042174444
21
26.8941097916
31
0.0000000000
11
-45.5259007526
21
26.9306676898
31
0.0000000000
11
-45.5435758888
21
26.9694695226
31
0.0000000000
11
-45.5482983089
21
26.9829904547
31
0.0000000000
0
SPLINE
5
5C7
100
AcDbEntity
8
0
100
AcDbSpline
62
7
6
CONTINUOUS
70
0
71
3
72
8
73
4
74
2
42
0.0000001000
43
0.0000001000
44
0.0000000001
12
-0.0088505184
22
0.0276428867
32
0.0000000000
13
-0.0054208620
23
0.0284602599
33
0.0000000000
40
0.0000000000
40
0.0000000000
40
0.0000000000
40
0.0000000000
40
1.0000000000
40
1.0000000000
40
1.0000000000
40
1.0000000000
10
-45.5482983089
20
26.9829904547
30
0.0000000000
10
-45.5512484817
20
26.9922047503
30
0.0000000000
10
-45.5536920361
20
27.0015776542
30
0.0000000000
10
-45.5554989901
20
27.0110644075
30
0.0000000000
11
-45.5482983089
21
26.9829904547
31
0.0000000000
11
-45.5554989901
21
27.0110644075
31
0.0000000000
0
SPLINE
5
5C8
100
AcDbEntity
8
0
100
AcDbSpline
62
9
6
CONTINUOUS
70
0
71
3
72
11
73
7
74
5
42
0.0000001000
43
0.0000001000
44
0.0000000001
12
-0.0004869966
22
0.1226766136
32
0.0000000000
13
0.1226551815
23
-0.0023441715
33
0.0000000000
40
0.0000000000
40
0.0000000000
40
0.0000000000
40
0.0000000000
40
0.4092905981
40
0.6944073329
40
0.8752870327
40
1.0000000000
40
1.0000000000
40
1.0000000000
40
1.0000000000
10
-45.3625217817
20
26.7258415355
30
0.0000000000
10
-45.3625882227
20
26.7425783304
30
0.0000000000
10
-45.3618575100
20
26.7700974267
30
0.0000000000
10
-45.3644407136
20
26.8085350397
30
0.0000000000
10
-45.3594371810
20
26.8274217342
30
0.0000000000
10
-45.3676206537
20
26.8486147174
30
0.0000000000
10
-45.3625217565
20
26.8485172678
30
0.0000000000
11
-45.3625217817
21
26.7258415355
31
0.0000000000
11
-45.3626926595
21
26.7760520249
31
0.0000000000
11
-45.3627558763
21
26.8110293989
31
0.0000000000
11
-45.3627353108
21
26.8332192733
31
0.0000000000
11
-45.3625217565
21
26.8485172678
31
0.0000000000
0
SPLINE
5
5C9
100
AcDbEntity
8
0
100
AcDbSpline
62
9
6
CONTINUOUS
70
0
71
3
72
10
73
6
74
4
42
0.0000001000
43
0.0000001000
44
0.0000000001
12
0.0019218592
22
0.1804462501
32
0.0000000000
13
-0.1804289999
23
0.0031493999
33
0.0000000000
40
0.0000000000
40
0.0000000000
40
0.0000000000
40
0.0000000000
40
0.5391609746
40
0.8821692487
40
1.0000000000
40
1.0000000000
40
1.0000000000
40
1.0000000000
10
-28.9503050718
20
23.3160072851
30
0.0000000000
10
-28.9499596746
20
23.3484371438
30
0.0000000000
10
-28.9437918509
20
23.4076564406
30
0.0000000000
10
-28.9582701564
20
23.4519495364
30
0.0000000000
10
-28.9432183769
20
23.4963212737
30
0.0000000000
10
-28.9503050718
20
23.4964449724
30
0.0000000000
11
-28.9503050718
21
23.3160072851
31
0.0000000000
11
-28.9494952526
21
23.4132990088
31
0.0000000000
11
-28.9494952526
21
23.4751970760
31
0.0000000000
11
-28.9503050718
21
23.4964449724
31
0.0000000000
0
SPLINE
5
5CA
100
AcDbEntity
8
0
100
AcDbSpline
62
9
6
CONTINUOUS
70
0
71
3
72
12
73
8
74
6
42
0.0000001000
43
0.0000001000
44
0.0000000001
12
0.0000000000
22
0.6401589585
32
0.0000000000
13
-0.6401191334
23
0.0071405304
33
0.0000000000
40
0.0000000000
40
0.0000000000
40
0.0000000000
40
0.0000000000
40
0.1571017152
40
0.3326856260
40
0.5347470867
40
0.7604474724
40
1.0000000000
40
1.0000000000
40
1.0000000000
40
1.0000000000
10
-28.4590312750
20
22.9965211249
30
0.0000000000
10
-28.4590312750
20
23.0300444817
30
0.0000000000
10
-28.4778180347
20
23.1017550428
30
0.0000000000
10
-28.5526494260
20
23.1912887767
30
0.0000000000
10
-28.6632186486
20
23.2603370098
30
0.0000000000
10
-28.7997191662
20
23.3046681047
30
0.0000000000
10
-28.8991910196
20
23.3154371077
30
0.0000000000
10
-28.9503050718
20
23.3160072851
30
0.0000000000
11
-28.4590312750
21
22.9965211249
31
0.0000000000
11
-28.4829665786
21
23.0942014212
31
0.0000000000
11
-28.5524808945
21
23.1825296874
31
0.0000000000
11
-28.6609188375
21
23.2530492678
31
0.0000000000
11
-28.7978984274
21
23.2990085323
31
0.0000000000
11
-28.9503050718
21
23.3160072851
31
0.0000000000
0
SPLINE
5
5CB
100
AcDbEntity
8
0
100
AcDbSpline
62
9
6
CONTINUOUS
70
0
71
3
72
9
73
5
74
3
42
0.0000001000
43
0.0000001000
44
0.0000000001
12
20.6087291708
22
-0.1249697361
32
0.0000000000
13
20.6087232035
23
-0.1259499577
33
0.0000000000
40
0.0000000000
40
0.0000000000
40
0.0000000000
40
0.0000000000
40
0.4991766671
40
1.0000000000
40
1.0000000000
40
1.0000000000
40
1.0000000000
10
-49.5590312750
20
21.7716065328
30
0.0000000000
10
-46.1298990279
20
21.7508125406
30
0.0000000000
10
-39.2603231261
20
21.7090753638
30
0.0000000000
10
-32.3907482187
20
21.6671748269
30
0.0000000000
10
-28.9503050718
20
21.6461486010
30
0.0000000000
11
-49.5590312750
21
21.7716065328
31
0.0000000000
11
-39.2716352691
21
21.7091033853
31
0.0000000000
11
-28.9503050718
21
21.6461486010
31
0.0000000000
0
SPLINE
5
5CC
100
AcDbEntity
8
0
100
AcDbSpline
62
9
6
CONTINUOUS
70
0
71
3
72
11
73
7
74
5
42
0.0000001000
43
0.0000001000
44
0.0000000001
12
-0.0000000004
22
0.6334871811
32
0.0000000000
13
-0.6334496337
23
0.0068971147
33
0.0000000000
40
0.0000000000
40
0.0000000000
40
0.0000000000
40
0.0000000000
40
0.1954662971
40
0.4262226524
40
0.6995457855
40
1.0000000000
40
1.0000000000
40
1.0000000000
40
1.0000000000
10
-28.4590312750
20
22.5816832016
30
0.0000000000
10
-28.4590312750
20
22.6229583328
30
0.0000000000
10
-28.4908536864
20
22.7136558659
30
0.0000000000
10
-28.6058357887
20
22.8128289130
30
0.0000000000
10
-28.7652251523
20
22.8773496854
30
0.0000000000
10
-28.8868642011
20
22.8928373140
30
0.0000000000
10
-28.9503050718
20
22.8935280697
30
0.0000000000
11
-28.4590312750
21
22.5816832016
31
0.0000000000
11
-28.4962601640
21
22.6997795094
31
0.0000000000
11
-28.6024041096
21
22.8002902254
31
0.0000000000
11
-28.7616576641
21
22.8682467224
31
0.0000000000
11
-28.9503050718
21
22.8935280697
31
0.0000000000
0
SPLINE
5
5CD
100
AcDbEntity
8
0
100
AcDbSpline
62
9
6
CONTINUOUS
70
0
71
3
72
11
73
7
74
5
42
0.0000001000
43
0.0000001000
44
0.0000000001
12
0.0024384320
22
-1.2473691936
32
0.0000000000
13
-0.0019047398
23
-1.2473701227
33
0.0000000000
40
0.0000000000
40
0.0000000000
40
0.0000000000
40
0.0000000000
40
0.2241937313
40
0.4702414934
40
0.7312542324
40
1.0000000000
40
1.0000000000
40
1.0000000000
40
1.0000000000
10
-28.9503053081
20
22.8935196270
30
0.0000000000
10
-28.9501230810
20
22.8003021757
30
0.0000000000
10
-28.9498626968
20
22.6047803469
30
0.0000000000
10
-28.9497431590
20
22.3007317550
30
0.0000000000
10
-28.9498777427
20
21.9781588547
30
0.0000000000
10
-28.9501347582
20
21.7578904136
30
0.0000000000
10
-28.9503053885
20
21.6461485999
30
0.0000000000
11
-28.9503053081
21
22.8935196270
31
0.0000000000
11
-28.9499165112
21
22.6138670091
31
0.0000000000
11
-28.9497858343
21
22.3069540518
31
0.0000000000
11
-28.9499164837
21
21.9813742062
31
0.0000000000
11
-28.9503053885
21
21.6461485999
31
0.0000000000
0
SPLINE
5
5CE
100
AcDbEntity
8
0
100
AcDbSpline
62
9
6
CONTINUOUS
70
0
71
3
72
11
73
7
74
5
42
0.0000001000
43
0.0000001000
44
0.0000000001
12
0.0019060089
22
-1.2473672353
32
0.0000000000
13
-0.0024368520
23
-1.2473663113
33
0.0000000000
40
0.0000000000
40
0.0000000000
40
0.0000000000
40
0.0000000000
40
0.2687412823
40
0.5297681142
40
0.7758028123
40
1.0000000000
40
1.0000000000
40
1.0000000000
40
1.0000000000
10
-28.9503053075
20
-10.3422538659
30
0.0000000000
10
-28.9501345664
20
-10.4539935560
30
0.0000000000
10
-28.9498778569
20
-10.6742654828
30
0.0000000000
10
-28.9497431691
20
-10.9968361995
30
0.0000000000
10
-28.9498625644
20
-11.3008859533
30
0.0000000000
10
-28.9501232770
20
-11.4964033345
30
0.0000000000
10
-28.9503053888
20
-11.5896220075
30
0.0000000000
11
-28.9503053075
21
-10.3422538659
31
0.0000000000
11
-28.9499165109
21
-10.6774731020
31
0.0000000000
11
-28.9497858342
21
-11.0030697736
31
0.0000000000
11
-28.9499164841
21
-11.3099657253
31
0.0000000000
11
-28.9503053888
21
-11.5896220075
31
0.0000000000
0
SPLINE
5
5CF
100
AcDbEntity
8
0
100
AcDbSpline
62
9
6
CONTINUOUS
70
0
71
3
72
9
73
5
74
3
42
0.0000001000
43
0.0000001000
44
0.0000000001
12
20.6087286044
22
-0.1174283934
32
0.0000000000
13
20.6087237773
23
-0.1182725166
33
0.0000000000
40
0.0000000000
40
0.0000000000
40
0.0000000000
40
0.0000000000
40
0.4991766716
40
1.0000000000
40
1.0000000000
40
1.0000000000
40
1.0000000000
10
-49.5590312750
20
23.0113769359
30
0.0000000000
10
-46.1298990915
20
22.9918377644
30
0.0000000000
10
-39.2603232855
20
22.9526255289
30
0.0000000000
10
-32.3907482839
20
22.9132726136
30
0.0000000000
10
-28.9503050718
20
22.8935280684
30
0.0000000000
11
-49.5590312750
21
23.0113769359
31
0.0000000000
11
-39.2716353198
21
22.9526550437
31
0.0000000000
11
-28.9503050718
21
22.8935280684
31
0.0000000000
0
SPLINE
5
5D0
100
AcDbEntity
8
0
100
AcDbSpline
62
9
6
CONTINUOUS
70
0
71
3
72
8
73
4
74
2
42
0.0000001000
43
0.0000001000
44
0.0000000001
12
-0.0000000000
22
-0.0892795871
32
0.0000000000
13
-0.0323619463
23
-0.0848247842
33
0.0000000000
40
0.0000000000
40
0.0000000000
40
0.0000000000
40
0.0000000000
40
1.0000000000
40
1.0000000000
40
1.0000000000
40
1.0000000000
10
-28.4590312750
20
-13.0300467800
30
0.0000000000
10
-28.4590312750
20
-13.0598066424
30
0.0000000000
10
-28.4651550627
20
-13.0897874118
30
0.0000000000
10
-28.4759423782
20
-13.1180623398
30
0.0000000000
11
-28.4590312750
21
-13.0300467800
31
0.0000000000
11
-28.4759423782
21
-13.1180623398
31
0.0000000000
0
SPLINE
5
5D1
100
AcDbEntity
8
0
100
AcDbSpline
62
9
6
CONTINUOUS
70
0
71
3
72
9
73
5
74
3
42
0.0000001000
43
0.0000001000
44
0.0000000001
12
-0.0529631554
22
-0.1388231777
32
0.0000000000
13
-0.1091387136
23
-0.0989043436
33
0.0000000000
40
0.0000000000
40
0.0000000000
40
0.0000000000
40
0.0000000000
40
0.3165590854
40
1.0000000000
40
1.0000000000
40
1.0000000000
40
1.0000000000
10
-28.4759423782
20
-13.1180623398
30
0.0000000000
10
-28.4815310342
20
-13.1327109192
30
0.0000000000
10
-28.5031395205
20
-13.1775389669
30
0.0000000000
10
-28.5352125910
20
-13.2151244516
30
0.0000000000
10
-28.5600758784
20
-13.2376562099
30
0.0000000000
11
-28.4759423782
21
-13.1180623398
31
0.0000000000
11
-28.4962604119
21
-13.1603665960
31
0.0000000000
11
-28.5600758784
21
-13.2376562099
31
0.0000000000
0
SPLINE
5
5D2
100
AcDbEntity
8
0
100
AcDbSpline
62
9
6
CONTINUOUS
70
0
71
3
72
9
73
5
74
3
42
0.0000001000
43
0.0000001000
44
0.0000000001
12
-0.0821933208
22
-0.0744857272
32
0.0000000000
13
-0.0971714896
23
-0.0524950493
33
0.0000000000
40
0.0000000000
40
0.0000000000
40
0.0000000000
40
0.0000000000
40
0.4876414487
40
1.0000000000
40
1.0000000000
40
1.0000000000
40
1.0000000000
10
-28.5600758784
20
-13.2376562099
30
0.0000000000
10
-28.5734361684
20
-13.2497636526
30
0.0000000000
10
-28.6025767100
20
-13.2727236568
30
0.0000000000
10
-28.6340222482
20
-13.2920000765
30
0.0000000000
10
-28.6506177961
20
-13.3009655056
30
0.0000000000
11
-28.5600758784
21
-13.2376562099
31
0.0000000000
11
-28.6024045550
21
-13.2712802170
31
0.0000000000
11
-28.6506177961
21
-13.3009655056
31
0.0000000000
0
SPLINE
5
5D3
100
AcDbEntity
8
0
100
AcDbSpline
62
9
6
CONTINUOUS
70
0
71
3
72
10
73
6
74
4
42
0.0000001000
43
0.0000001000
44
0.0000000001
12
0.0016099428
22
-0.1869472130
32
0.0000000000
13
-0.1869534959
23
-0.0004926854
33
0.0000000000
40
0.0000000000
40
0.0000000000
40
0.0000000000
40
0.0000000000
40
0.5416924424
40
0.8831589242
40
1.0000000000
40
1.0000000000
40
1.0000000000
40
1.0000000000
10
-28.9503052538
20
-13.3741609807
30
0.0000000000
10
-28.9500145558
20
-13.4079169448
30
0.0000000000
10
-28.9435742835
20
-13.4694689863
30
0.0000000000
10
-28.9588750874
20
-13.5151057577
30
0.0000000000
10
-28.9430242965
20
-13.5610828727
30
0.0000000000
10
-28.9503055790
20
-13.5611020614
30
0.0000000000
11
-28.9503052538
21
-13.3741609807
31
0.0000000000
11
-28.9496207658
21
-13.4754303149
31
0.0000000000
11
-28.9496203199
21
-13.5392688891
31
0.0000000000
11
-28.9503055790
21
-13.5611020614
31
0.0000000000
0
SPLINE
5
5D4
100
AcDbEntity
8
0
100
AcDbSpline
62
9
6
CONTINUOUS
70
0
71
3
72
11
73
7
74
5
42
0.0000001000
43
0.0000001000
44
0.0000000001
12
-0.0000000004
22
-0.6334871461
32
0.0000000000
13
-0.6334495985
23
-0.0068971257
33
0.0000000000
40
0.0000000000
40
0.0000000000
40
0.0000000000
40
0.0000000000
40
0.1954686554
40
0.4262261650
40
0.6995484654
40
1.0000000000
40
1.0000000000
40
1.0000000000
40
1.0000000000
10
-28.4590312750
20
-11.2777884681
30
0.0000000000
10
-28.4590312750
20
-11.3190640950
30
0.0000000000
10
-28.4908543770
20
-11.4097623483
30
0.0000000000
10
-28.6058374375
20
-11.5089350935
30
0.0000000000
10
-28.7652264834
20
-11.5734551771
30
0.0000000000
10
-28.8868647705
20
-11.5889425842
30
0.0000000000
10
-28.9503050718
20
-11.5896333349
30
0.0000000000
11
-28.4590312750
21
-11.2777884681
31
0.0000000000
11
-28.4962610131
21
-11.3958860675
31
0.0000000000
11
-28.6024060283
21
-11.4963967055
31
0.0000000000
11
-28.7616593281
21
-11.5643524311
31
0.0000000000
11
-28.9503050718
21
-11.5896333349
31
0.0000000000
0
SPLINE
5
5D5
100
AcDbEntity
8
0
100
AcDbSpline
62
9
6
CONTINUOUS
70
0
71
3
72
9
73
5
74
3
42
0.0000001000
43
0.0000001000
44
0.0000000001
12
9.4000001145
22
-0.1651553818
32
0.0000000000
13
9.3999998849
23
-0.1651684485
33
0.0000000000
40
0.0000000000
40
0.0000000000
40
0.0000000000
40
0.0000000000
40
0.4996325785
40
1.0000000000
40
1.0000000000
40
1.0000000000
40
1.0000000000
10
-38.3503050718
20
23.4811691814
30
0.0000000000
10
-36.7847896400
20
23.4536635116
30
0.0000000000
10
-33.6514562875
20
23.3986106381
30
0.0000000000
10
-30.5181229732
20
23.3435555886
30
0.0000000000
10
-28.9503050718
20
23.3160072851
30
0.0000000000
11
-38.3503050718
21
23.4811691814
31
0.0000000000
11
-33.6537588049
21
23.3986505501
31
0.0000000000
11
-28.9503050718
21
23.3160072851
31
0.0000000000
0
SPLINE
5
5D6
100
AcDbEntity
8
0
100
AcDbSpline
62
9
6
CONTINUOUS
70
0
71
3
72
8
73
4
74
2
42
0.0000001000
43
0.0000001000
44
0.0000000001
12
0.0000000000
22
0.0345995054
32
0.0000000000
13
-0.0054500354
23
0.0344222968
33
0.0000000000
40
0.0000000000
40
0.0000000000
40
0.0000000000
40
0.0000000000
40
1.0000000000
40
1.0000000000
40
1.0000000000
40
1.0000000000
10
-37.8590312750
20
23.9270108222
30
0.0000000000
10
-37.8590312750
20
23.9385439907
30
0.0000000000
10
-37.8599816751
20
23.9501162859
30
0.0000000000
10
-37.8617983536
20
23.9615903849
30
0.0000000000
11
-37.8590312750
21
23.9270108222
31
0.0000000000
11
-37.8617983536
21
23.9615903849
31
0.0000000000
0
SPLINE
5
5D7
100
AcDbEntity
8
0
100
AcDbSpline
62
9
6
CONTINUOUS
70
0
71
3
72
8
73
4
74
2
42
0.0000001000
43
0.0000001000
44
0.0000000001
12
-0.0054845412
22
0.0346402342
32
0.0000000000
13
-0.0104910464
23
0.0336237286
33
0.0000000000
40
0.0000000000
40
0.0000000000
40
0.0000000000
40
0.0000000000
40
1.0000000000
40
1.0000000000
40
1.0000000000
40
1.0000000000
10
-37.8617983536
20
23.9615903849
30
0.0000000000
10
-37.8636265340
20
23.9731371296
30
0.0000000000
10
-37.8663319968
20
23.9845844307
30
0.0000000000
10
-37.8698290122
20
23.9957923402
30
0.0000000000
11
-37.8617983536
21
23.9615903849
31
0.0000000000
11
-37.8698290122
21
23.9957923402
31
0.0000000000
0
SPLINE
5
5D8
100
AcDbEntity
8
0
100
AcDbSpline
62
9
6
CONTINUOUS
70
0
71
3
72
12
73
8
74
6
42
0.0000001000
43
0.0000001000
44
0.0000000001
12
-0.1751176842
22
0.5612509254
32
0.0000000000
13
-0.5811556001
23
0.0067895294
33
0.0000000000
40
0.0000000000
40
0.0000000000
40
0.0000000000
40
0.0000000000
40
0.0613335539
40
0.2604313676
40
0.4861736843
40
0.7359872910
40
1.0000000000
40
1.0000000000
40
1.0000000000
40
1.0000000000
10
-37.8698290122
20
23.9957923402
30
0.0000000000
10
-37.8734092089
20
24.0072668449
30
0.0000000000
10
-37.8921341008
20
24.0549238691
30
0.0000000000
10
-37.9519180241
20
24.1303902048
30
0.0000000000
10
-38.0626393821
20
24.2030544422
30
0.0000000000
10
-38.1994045764
20
24.2496856591
30
0.0000000000
10
-38.2991609170
20
24.2610161982
30
0.0000000000
10
-38.3503050718
20
24.2616137055
30
0.0000000000
11
-37.8698290122
21
23.9957923402
31
0.0000000000
11
-37.8829665786
21
24.0293129338
31
0.0000000000
11
-37.9524808945
21
24.1218205169
31
0.0000000000
11
-38.0609188375
21
24.1956767833
31
0.0000000000
11
-38.1978984274
21
24.2438106443
31
0.0000000000
11
-38.3503050718
21
24.2616137055
31
0.0000000000
0
SPLINE
5
5D9
100
AcDbEntity
8
0
100
AcDbSpline
62
9
6
CONTINUOUS
70
0
71
3
72
8
73
4
74
2
42
0.0000001000
43
0.0000001000
44
0.0000000001
12
0.1810348382
22
-0.1842990855
32
0.0000000000
13
0.1810344756
23
-0.1842994416
33
0.0000000000
40
0.0000000000
40
0.0000000000
40
0.0000000000
40
0.0000000000
40
1.0000000000
40
1.0000000000
40
1.0000000000
40
1.0000000000
10
-41.5881765071
20
26.6596657061
30
0.0000000000
10
-41.5278315610
20
26.5982326776
30
0.0000000000
10
-41.4674866747
20
26.5367995904
30
0.0000000000
10
-41.4071418495
20
26.4753664431
30
0.0000000000
11
-41.5881765071
21
26.6596657061
31
0.0000000000
11
-41.4071418495
21
26.4753664431
31
0.0000000000
0
SPLINE
5
5DA
100
AcDbEntity
8
0
100
AcDbSpline
62
9
6
CONTINUOUS
70
0
71
3
72
10
73
6
74
4
42
0.0000001000
43
0.0000001000
44
0.0000000001
12
1.3376467299
22
-1.3617712567
32
0.0000000000
13
1.3376260885
23
-1.3617915321
33
0.0000000000
40
0.0000000000
40
0.0000000000
40
0.0000000000
40
0.0000000000
40
0.2235257997
40
0.6018105326
40
1.0000000000
40
1.0000000000
40
1.0000000000
40
1.0000000000
10
-41.4071418495
20
26.4753664431
30
0.0000000000
10
-41.3074756645
20
26.3739027734
30
0.0000000000
10
-41.0391394826
20
26.1007262379
30
0.0000000000
10
-40.5932600594
20
25.6467997155
30
0.0000000000
10
-40.2470483003
20
25.2943354100
30
0.0000000000
10
-40.0695054270
20
25.1135850617
30
0.0000000000
11
-41.4071418495
21
26.4753664431
31
0.0000000000
11
-41.1081437999
21
26.1709749376
31
0.0000000000
11
-40.6021356716
21
25.6558345106
31
0.0000000000
11
-40.0695054270
21
25.1135850617
31
0.0000000000
0
SPLINE
5
5DB
100
AcDbEntity
8
0
100
AcDbSpline
62
9
6
CONTINUOUS
70
0
71
3
72
9
73
5
74
3
42
0.0000001000
43
0.0000001000
44
0.0000000001
12
0.2202177623
22
-0.2243076157
32
0.0000000000
13
0.2791449970
23
-0.1452438493
33
0.0000000000
40
0.0000000000
40
0.0000000000
40
0.0000000000
40
0.0000000000
40
0.5938844060
40
1.0000000000
40
1.0000000000
40
1.0000000000
40
1.0000000000
10
-40.0695054270
20
25.1135850617
30
0.0000000000
10
-40.0259107954
20
25.0691807967
30
0.0000000000
10
-39.9453562057
20
25.0011065540
30
0.0000000000
10
-39.8553363547
20
24.9466328222
30
0.0000000000
10
-39.8175479759
20
24.9269708915
30
0.0000000000
11
-40.0695054270
21
25.1135850617
31
0.0000000000
11
-39.9268921808
21
24.9931212167
31
0.0000000000
11
-39.8175479759
21
24.9269708915
31
0.0000000000
0
SPLINE
5
5DC
100
AcDbEntity
8
0
100
AcDbSpline
62
9
6
CONTINUOUS
70
0
71
3
72
8
73
4
74
2
42
0.0000001000
43
0.0000001000
44
0.0000000001
12
0.0483649996
22
-0.0251651249
32
0.0000000000
13
0.0496310107
23
-0.0224271567
33
0.0000000000
40
0.0000000000
40
0.0000000000
40
0.0000000000
40
0.0000000000
40
1.0000000000
40
1.0000000000
40
1.0000000000
40
1.0000000000
10
-39.8175479759
20
24.9269708915
30
0.0000000000
10
-39.8014263094
20
24.9185825165
30
0.0000000000
10
-39.7850807821
20
24.9106420221
30
0.0000000000
10
-39.7685371119
20
24.9031663032
30
0.0000000000
11
-39.8175479759
21
24.9269708915
31
0.0000000000
11
-39.7685371119
21
24.9031663032
31
0.0000000000
0
SPLINE
5
5DD
100
AcDbEntity
8
0
100
AcDbSpline
62
9
6
CONTINUOUS
70
0
71
3
72
10
73
6
74
4
42
0.0000001000
43
0.0000001000
44
0.0000000001
12
-0.2577943511
22
0.2577955082
32
0.0000000000
13
-0.3253845036
23
-0.1644426231
33
0.0000000000
40
0.0000000000
40
0.0000000000
40
0.0000000000
40
0.0000000000
40
0.2728406508
40
0.6011445749
40
1.0000000000
40
1.0000000000
40
1.0000000000
40
1.0000000000
10
-39.7246787494
20
25.1175938217
30
0.0000000000
10
-39.7481243423
20
25.1410395197
30
0.0000000000
10
-39.8183832349
20
25.1746757465
30
0.0000000000
10
-39.9426431043
20
25.1671199794
30
0.0000000000
10
-40.0262448704
20
25.1354519849
30
0.0000000000
10
-40.0695053286
20
25.1135890408
30
0.0000000000
11
-39.7246787494
21
25.1175938217
31
0.0000000000
11
-39.8128154254
21
25.1637077630
31
0.0000000000
11
-39.9324994418
21
25.1623177497
31
0.0000000000
11
-40.0695053286
21
25.1135890408
31
0.0000000000
0
SPLINE
5
5DE
100
AcDbEntity
8
0
100
AcDbSpline
62
9
6
CONTINUOUS
70
0
71
3
72
9
73
5
74
3
42
0.0000001000
43
0.0000001000
44
0.0000000001
12
-0.0793149091
22
0.0352540201
32
0.0000000000
13
-0.0760543973
23
-0.0423577303
33
0.0000000000
40
0.0000000000
40
0.0000000000
40
0.0000000000
40
0.0000000000
40
0.6222948078
40
1.0000000000
40
1.0000000000
40
1.0000000000
40
1.0000000000
10
-39.5741940815
20
25.0142419474
30
0.0000000000
10
-39.5906465002
20
25.0215547453
30
0.0000000000
10
-39.6223738343
20
25.0192273396
30
0.0000000000
10
-39.6491117693
20
25.0074821817
30
0.0000000000
10
-39.6586871496
20
25.0021492701
30
0.0000000000
11
-39.5741940815
21
25.0142419474
31
0.0000000000
11
-39.6282018618
21
25.0150110480
31
0.0000000000
11
-39.6586871496
21
25.0021492701
31
0.0000000000
0
SPLINE
5
5DF
100
AcDbEntity
8
0
100
AcDbSpline
62
9
6
CONTINUOUS
70
0
71
3
72
8
73
4
74
2
42
0.0000001000
43
0.0000001000
44
0.0000000001
12
-0.0530730088
22
-0.0495257156
32
0.0000000000
13
-0.0465157983
23
-0.0555554932
33
0.0000000000
40
0.0000000000
40
0.0000000000
40
0.0000000000
40
0.0000000000
40
1.0000000000
40
1.0000000000
40
1.0000000000
40
1.0000000000
10
-39.7188661070
20
24.9559470416
30
0.0000000000
10
-39.7365571099
20
24.9394384697
30
0.0000000000
10
-39.7530317692
20
24.9216876343
30
0.0000000000
10
-39.7685370353
20
24.9031691366
30
0.0000000000
11
-39.7188661070
21
24.9559470416
31
0.0000000000
11
-39.7685370353
21
24.9031691366
31
0.0000000000
0
SPLINE
5
5E0
100
AcDbEntity
8
0
100
AcDbSpline
62
9
6
CONTINUOUS
70
0
71
3
72
8
73
4
74
2
42
0.0000001000
43
0.0000001000
44
0.0000000001
12
0.1196129396
22
-0.0541086125
32
0.0000000000
13
0.1196118975
23
-0.0541109160
33
0.0000000000
40
0.0000000000
40
0.0000000000
40
0.0000000000
40
0.0000000000
40
1.0000000000
40
1.0000000000
40
1.0000000000
40
1.0000000000
10
-39.7685371119
20
24.9031663032
30
0.0000000000
10
-39.7286661320
20
24.8851300990
30
0.0000000000
10
-39.6887953621
20
24.8670934308
30
0.0000000000
10
-39.6489247296
20
24.8490564588
30
0.0000000000
11
-39.7685371119
21
24.9031663032
31
0.0000000000
11
-39.6489247296
21
24.8490564588
31
0.0000000000
0
SPLINE
5
5E1
100
AcDbEntity
8
0
100
AcDbSpline
62
9
6
CONTINUOUS
70
0
71
3
72
8
73
4
74
2
42
0.0000001000
43
0.0000001000
44
0.0000000001
12
0.1130228729
22
-0.0511301242
32
0.0000000000
13
0.1130223202
23
-0.0511313460
33
0.0000000000
40
0.0000000000
40
0.0000000000
40
0.0000000000
40
0.0000000000
40
1.0000000000
40
1.0000000000
40
1.0000000000
40
1.0000000000
10
-39.6489247296
20
24.8490564588
30
0.0000000000
10
-39.6112504386
20
24.8320130841
30
0.0000000000
10
-39.5735762704
20
24.8149694381
30
0.0000000000
10
-39.5359021636
20
24.7979256561
30
0.0000000000
11
-39.6489247296
21
24.8490564588
31
0.0000000000
11
-39.5359021636
21
24.7979256561
31
0.0000000000
0
SPLINE
5
5E2
100
AcDbEntity
8
0
100
AcDbSpline
62
9
6
CONTINUOUS
70
0
71
3
72
10
73
6
74
4
42
0.0000001000
43
0.0000001000
44
0.0000000001
12
-0.2201083481
22
0.0978259329
32
0.0000000000
13
-0.1579663235
23
-0.1818357464
33
0.0000000000
40
0.0000000000
40
0.0000000000
40
0.0000000000
40
0.0000000000
40
0.2212814798
40
0.5497139282
40
1.0000000000
40
1.0000000000
40
1.0000000000
40
1.0000000000
10
-38.1559620412
20
24.3839165962
30
0.0000000000
10
-38.1721973415
20
24.3911322852
30
0.0000000000
10
-38.2208059296
20
24.3851369380
30
0.0000000000
10
-38.2859037488
20
24.3366857091
30
0.0000000000
10
-38.3265950618
20
24.2889064068
30
0.0000000000
10
-38.3503050736
20
24.2616137055
30
0.0000000000
11
-38.1559620412
21
24.3839165962
31
0.0000000000
11
-38.2092532004
21
24.3829612636
31
0.0000000000
11
-38.2761922490
21
24.3408020573
31
0.0000000000
11
-38.3503050736
21
24.2616137055
31
0.0000000000
0
SPLINE
5
5E3
100
AcDbEntity
8
0
100
AcDbSpline
62
9
6
CONTINUOUS
70
0
71
3
72
10
73
6
74
4
42
0.0000001000
43
0.0000001000
44
0.0000000001
12
-10.4259507719
22
-0.1832439360
32
0.0000000000
13
-10.4259510665
23
-0.1832271737
33
0.0000000000
40
0.0000000000
40
0.0000000000
40
0.0000000000
40
0.0000000000
40
0.3336979928
40
0.6670313315
40
1.0000000000
40
1.0000000000
40
1.0000000000
40
1.0000000000
10
-28.9503050718
20
-13.3741681553
30
0.0000000000
10
-30.1100113538
20
-13.3945508665
30
0.0000000000
10
-32.4281566400
20
-13.4352933873
30
0.0000000000
10
-35.9034736134
20
-13.4963718879
30
0.0000000000
10
-38.2190843100
20
-13.5370673794
30
0.0000000000
10
-39.3762559915
20
-13.5574036821
30
0.0000000000
11
-28.9503050718
21
-13.3741681553
31
0.0000000000
11
-32.4294239342
21
-13.4353153483
31
0.0000000000
11
-35.9047409632
21
-13.4963938520
31
0.0000000000
11
-39.3762559915
21
-13.5574036821
31
0.0000000000
0
SPLINE
5
5E4
100
AcDbEntity
8
0
100
AcDbSpline
62
9
6
CONTINUOUS
70
0
71
3
72
10
73
6
74
4
42
0.0000001000
43
0.0000001000
44
0.0000000001
12
0.1857034163
22
0.0032340081
32
0.0000000000
13
-0.0019175554
23
0.1857216752
33
0.0000000000
40
0.0000000000
40
0.0000000000
40
0.0000000000
40
0.0000000000
40
0.1168063832
40
0.4583262497
40
1.0000000000
40
1.0000000000
40
1.0000000000
40
1.0000000000
10
-39.3762559932
20
-13.7431166736
30
0.0000000000
10
-39.3690255451
20
-13.7429907560
30
0.0000000000
10
-39.3844485253
20
-13.6975814001
30
0.0000000000
10
-39.3695316690
20
-13.6519884901
30
0.0000000000
10
-39.3759097609
20
-13.5909372338
30
0.0000000000
10
-39.3762559907
20
-13.5574037151
30
0.0000000000
11
-39.3762559932
21
-13.7431166736
31
0.0000000000
11
-39.3754409816
21
-13.7214373545
31
0.0000000000
11
-39.3754409752
21
-13.6580063321
31
0.0000000000
11
-39.3762559907
21
-13.5574037151
31
0.0000000000
0
SPLINE
5
5E5
100
AcDbEntity
8
0
100
AcDbSpline
62
9
6
CONTINUOUS
70
0
71
3
72
8
73
4
74
2
42
0.0000001000
43
0.0000001000
44
0.0000000001
12
-0.0657210813
22
-0.0011544048
32
0.0000000000
13
-0.0656319857
23
-0.0045602683
33
0.0000000000
40
0.0000000000
40
0.0000000000
40
0.0000000000
40
0.0000000000
40
1.0000000000
40
1.0000000000
40
1.0000000000
40
1.0000000000
10
-39.3762559915
20
-13.5574036821
30
0.0000000000
10
-39.3981630186
20
-13.5577884837
30
0.0000000000
10
-39.4200727946
20
-13.5587428263
30
0.0000000000
10
-39.4419501231
20
-13.5602629157
30
0.0000000000
11
-39.3762559915
21
-13.5574036821
31
0.0000000000
11
-39.4419501231
21
-13.5602629157
31
0.0000000000
0
SPLINE
5
5E6
100
AcDbEntity
8
0
100
AcDbSpline
62
9
6
CONTINUOUS
70
0
71
3
72
10
73
6
74
4
42
0.0000001000
43
0.0000001000
44
0.0000000001
12
-0.3092602754
22
-0.3092602251
32
0.0000000000
13
-0.3914185319
23
0.1951290283
33
0.0000000000
40
0.0000000000
40
0.0000000000
40
0.0000000000
40
0.0000000000
40
0.2741647286
40
0.6024486010
40
1.0000000000
40
1.0000000000
40
1.0000000000
40
1.0000000000
10
-39.8590140538
20
-13.9480354121
30
0.0000000000
10
-39.8872768070
20
-13.9762981607
30
0.0000000000
10
-39.9714300027
20
-14.0171227741
30
0.0000000000
10
-40.1205700576
20
-14.0092776702
30
0.0000000000
10
-40.2209370173
20
-13.9719686157
30
0.0000000000
10
-40.2728066789
20
-13.9461106763
30
0.0000000000
11
-39.8590140538
21
-13.9480354121
31
0.0000000000
11
-39.9650500099
21
-14.0040217638
31
0.0000000000
11
-40.1086267043
21
-14.0033539239
31
0.0000000000
11
-40.2728066789
21
-13.9461106763
31
0.0000000000
0
SPLINE
5
5E7
100
AcDbEntity
8
0
100
AcDbSpline
62
9
6
CONTINUOUS
70
0
71
3
72
8
73
4
74
2
42
0.0000001000
43
0.0000001000
44
0.0000000001
12
-0.2130092220
22
-0.2176360765
32
0.0000000000
13
-0.2130097426
23
-0.2176355669
33
0.0000000000
40
0.0000000000
40
0.0000000000
40
0.0000000000
40
0.0000000000
40
1.0000000000
40
1.0000000000
40
1.0000000000
40
1.0000000000
10
-41.4405935456
20
-15.1392824146
30
0.0000000000
10
-41.5115966196
20
-15.2118277735
30
0.0000000000
10
-41.5825997856
20
-15.2843730422
30
0.0000000000
10
-41.6536030332
20
-15.3569182312
30
0.0000000000
11
-41.4405935456
21
-15.1392824146
31
0.0000000000
11
-41.6536030332
21
-15.3569182312
31
0.0000000000
0
SPLINE
5
5E8
100
AcDbEntity
8
0
100
AcDbSpline
62
9
6
CONTINUOUS
70
0
71
3
72
9
73
5
74
3
42
0.0000001000
43
0.0000001000
44
0.0000000001
12
-0.1288743966
22
0.1288744208
32
0.0000000000
13
-0.1835181601
23
0.0003103499
33
0.0000000000
40
0.0000000000
40
0.0000000000
40
0.0000000000
40
0.0000000000
40
0.5741300243
40
1.0000000000
40
1.0000000000
40
1.0000000000
40
1.0000000000
10
-41.2433492897
20
26.6362653815
30
0.0000000000
10
-41.2680128432
20
26.6609289396
30
0.0000000000
10
-41.3240763434
20
26.6916297980
30
0.0000000000
10
-41.3851028088
20
26.6989930853
30
0.0000000000
10
-41.4111544336
20
26.6990371415
30
0.0000000000
11
-41.2433492897
21
26.6362653815
31
0.0000000000
11
-41.3340242395
21
26.6884888552
31
0.0000000000
11
-41.4111544336
21
26.6990371415
31
0.0000000000
0
SPLINE
5
5E9
100
AcDbEntity
8
0
100
AcDbSpline
62
9
6
CONTINUOUS
70
0
71
3
72
9
73
5
74
3
42
0.0000001000
43
0.0000001000
44
0.0000000001
12
-0.1410301327
22
0.0002384978
32
0.0000000000
13
-0.1329962710
23
-0.0451820281
33
0.0000000000
40
0.0000000000
40
0.0000000000
40
0.0000000000
40
0.0000000000
40
0.2993217752
40
1.0000000000
40
1.0000000000
40
1.0000000000
40
1.0000000000
10
-41.4111544336
20
26.6990371415
30
0.0000000000
10
-41.4252255635
20
26.6990609373
30
0.0000000000
10
-41.4722963144
20
26.6961270565
30
0.0000000000
10
-41.5180963508
20
26.6851323416
30
0.0000000000
10
-41.5491588812
20
26.6745796539
30
0.0000000000
11
-41.4111544336
21
26.6990371415
31
0.0000000000
11
-41.4532903171
21
26.6965823900
31
0.0000000000
11
-41.5491588812
21
26.6745796539
31
0.0000000000
0
SPLINE
5
5EA
100
AcDbEntity
8
0
100
AcDbSpline
62
9
6
CONTINUOUS
70
0
71
3
72
8
73
4
74
2
42
0.0000001000
43
0.0000001000
44
0.0000000001
12
-0.0396060532
22
-0.0134551277
32
0.0000000000
13
-0.0383980683
23
-0.0162875450
33
0.0000000000
40
0.0000000000
40
0.0000000000
40
0.0000000000
40
0.0000000000
40
1.0000000000
40
1.0000000000
40
1.0000000000
40
1.0000000000
10
-41.5491588812
20
26.6745796539
30
0.0000000000
10
-41.5623608989
20
26.6700946113
30
0.0000000000
10
-41.5753771210
20
26.6650949462
30
0.0000000000
10
-41.5881764771
20
26.6596657645
30
0.0000000000
11
-41.5491588812
21
26.6745796539
31
0.0000000000
11
-41.5881764771
21
26.6596657645
31
0.0000000000
0
SPLINE
5
5EB
100
AcDbEntity
8
CURVE
100
AcDbSpline
62
9
6
CONTINUOUS
70
0
71
3
72
14
73
10
74
8
42
0.0000001000
43
0.0000001000
44
0.0000000001
12
1.8329450050
22
1.4232362389
32
-0.0319941741
13
1.4962283319
23
-1.7635681668
33
-0.0261167627
40
0.0000000000
40
0.0000000000
40
0.0000000000
40
0.0000000000
40
0.1428571429
40
0.2857142857
40
0.4285714286
40
0.5714285714
40
0.7142857143
40
0.8571428571
40
1.0000000000
40
1.0000000000
40
1.0000000000
40
1.0000000000
10
-46.4931936528
20
5.0350776909
30
22.2714856052
10
-46.4059105574
20
5.1028508452
30
22.2699620731
10
-46.2212562869
20
5.2159122539
30
22.2667389209
10
-45.9097059073
20
5.3241739196
30
22.2613007888
10
-45.5832990231
20
5.3615156204
30
22.2556033354
10
-45.2561922917
20
5.3274415667
30
22.2498936662
10
-44.9445034146
20
5.2236887273
30
22.2444531166
10
-44.6617236317
20
5.0533759807
30
22.2395171771
10
-44.5047376950
20
4.9050558033
30
22.2367769774
10
-44.4334887269
20
4.8210763668
30
22.2355333220
11
-46.4931936528
21
5.0350776909
31
22.2714856052
11
-46.2154947913
21
5.2056905127
31
22.2666383536
11
-45.9072298232
21
5.3123539255
31
22.2612575686
11
-45.5831823819
21
5.3496129947
31
22.2556012994
11
-45.2587619341
21
5.3158284358
31
22.2499385194
11
-44.9493215970
21
5.2125954095
31
22.2445372183
11
-44.6696071114
21
5.0446813941
31
22.2396547838
11
-44.4334887269
21
4.8210763668
31
22.2355333220
0
SPLINE
5
5EC
100
AcDbEntity
8
CURVE
100
AcDbSpline
62
9
6
CONTINUOUS
70
0
71
3
72
14
73
10
74
8
42
0.0000001000
43
0.0000001000
44
0.0000000001
12
-1.5013807696
22
-1.7696412206
32
0.0262066988
13
-1.8266157599
23
1.4183217374
33
0.0318836967
40
0.0000000000
40
0.0000000000
40
0.0000000000
40
0.0000000000
40
0.1428571429
40
0.2857142857
40
0.4285714286
40
0.5714285714
40
0.7142857143
40
0.8571428571
40
1.0000000000
40
1.0000000000
40
1.0000000000
40
1.0000000000
10
-44.4334880748
20
2.8828178132
30
22.2355333106
10
-44.5049823971
20
2.7985491836
30
22.2367812487
10
-44.6624634020
20
2.6499416348
30
22.2395300899
10
-44.9451180818
20
2.4799420182
30
22.2444638456
10
-45.2568853969
20
2.3762929089
30
22.2499057644
10
-45.5840124781
20
2.3423914567
30
22.2556157888
10
-45.9103672241
20
2.3798521183
30
22.2613123321
10
-46.2221048945
20
2.4883963148
30
22.2667537334
10
-46.4062124744
20
2.6012772364
30
22.2699673431
10
-46.4931941773
20
2.6688163668
30
22.2714856144
11
-44.4334880748
21
2.8828178132
31
22.2355333106
11
-44.6702022641
21
2.6587602526
31
22.2396651722
11
-44.9499701877
21
2.4910004361
31
22.2445485395
11
-45.2594453579
21
2.3879175184
31
22.2499504487
11
-45.5838837555
21
2.3542851424
31
22.2556135419
11
-45.9079310448
21
2.3916993741
31
22.2612698084
11
-46.2161755111
21
2.4985258458
31
22.2666502356
11
-46.4931941773
21
2.6688163668
31
22.2714856144
0
SPLINE
5
5ED
100
AcDbEntity
8
CURVE
100
AcDbSpline
62
9
6
CONTINUOUS
70
0
71
3
72
12
73
8
74
6
42
0.0000001000
43
0.0000001000
44
0.0000000001
12
0.0000000000
22
0.7192036472
32
0.0000000000
13
0.5205562779
23
0.4963912925
33
-0.0090863436
40
0.0000000000
40
0.0000000000
40
0.0000000000
40
0.0000000000
40
0.2000000000
40
0.4000000000
40
0.6000000000
40
0.8000000000
40
1.0000000000
40
1.0000000000
40
1.0000000000
40
1.0000000000
10
-43.5757609170
20
4.3277013668
30
22.2205616274
10
-43.5757609170
20
4.3756482766
30
22.2205616274
10
-43.5680356567
20
4.4701119163
30
22.2204267825
10
-43.5336594760
20
4.6092227916
30
22.2198267440
10
-43.4773982480
20
4.7406324523
30
22.2188447006
10
-43.4004629009
20
4.8615139834
30
22.2175017892
10
-43.3374289989
20
4.9323046139
30
22.2164015283
10
-43.3027252471
20
4.9653973668
30
22.2157957721
11
-43.5757609170
21
4.3277013668
31
22.2205616274
11
-43.5642376083
21
4.4696811522
31
22.2203604873
11
-43.5300119681
21
4.6079392558
31
22.2197630765
11
-43.4739525615
21
4.7388777641
31
22.2187845560
11
-43.3975269833
21
4.8590647192
31
22.2174505425
11
-43.3027252471
21
4.9653973668
31
22.2157957721
0
SPLINE
5
5EE
100
AcDbEntity
8
CURVE
100
AcDbSpline
62
9
6
CONTINUOUS
70
0
71
3
72
21
73
17
74
15
42
0.0000001000
43
0.0000001000
44
0.0000000001
12
6.0456026761
22
0.0000000000
32
-0.1055263872
13
-6.0874311114
23
0.0000000000
33
0.1062565053
40
0.0000000000
40
0.0000000000
40
0.0000000000
40
0.0000000000
40
0.0714285714
40
0.1428571429
40
0.2142857143
40
0.2857142857
40
0.3571428571
40
0.4285714286
40
0.5000000000
40
0.5714285714
40
0.6428571429
40
0.7142857143
40
0.7857142857
40
0.8571428571
40
0.9285714286
40
1.0000000000
40
1.0000000000
40
1.0000000000
40
1.0000000000
10
-45.5750819071
20
5.8518783668
30
22.2554599051
10
-45.4311389862
20
5.8518783668
30
22.2529473721
10
-45.1508732441
20
5.8212516747
30
22.2480553154
10
-44.7485280959
20
5.6893301877
30
22.2410323547
10
-44.3786185702
20
5.4736691360
30
22.2345755599
10
-44.0500284615
20
5.1719403263
30
22.2288399982
10
-43.7819269304
20
4.7799014395
30
22.2241602686
10
-43.6118468050
20
4.3213472159
30
22.2211915089
10
-43.5573577122
20
3.8497176774
30
22.2202403983
10
-43.6137741607
20
3.3731118682
30
22.2212251511
10
-43.7863497393
20
2.9162334246
30
22.2242374690
10
-44.0524326841
20
2.5299016246
30
22.2288819641
10
-44.3771763559
20
2.2315842972
30
22.2345503859
10
-44.7454651594
20
2.0159421750
30
22.2409788909
10
-45.1484652907
20
1.8830506487
30
22.2480132844
10
-45.4301430711
20
1.8520163668
30
22.2529299883
10
-45.5750819071
20
1.8520163668
30
22.2554599051
11
-45.5750819071
21
5.8518783668
31
22.2554599051
11
-45.1538821549
21
5.8069214332
31
22.2481078361
11
-44.7539340330
21
5.6753735936
31
22.2411267157
11
-44.3855051397
21
5.4593245097
31
22.2346957654
11
-44.0601098911
21
5.1568886468
31
22.2290159702
11
-43.7982638314
21
4.7688155500
31
22.2244454302
11
-43.6311119771
21
4.3191679967
31
22.2215277838
11
-43.5758419691
21
3.8488882990
31
22.2205630422
11
-43.6331340157
21
3.3763997625
31
22.2215630786
11
-43.8019343003
21
2.9279911985
31
22.2245094985
11
-44.0622094719
21
2.5445707034
31
22.2290526185
11
-44.3844338778
21
2.2453634981
31
22.2346770665
11
-44.7512503807
21
2.0297339410
31
22.2410798723
11
-45.1517180473
21
1.8974406660
31
22.2480700615
11
-45.5750819071
21
1.8520163668
31
22.2554599051
0
SPLINE
5
5EF
100
AcDbEntity
8
CURVE
100
AcDbSpline
62
9
6
CONTINUOUS
70
0
71
3
72
21
73
17
74
15
42
0.0000001000
43
0.0000001000
44
0.0000000001
12
-6.0456026761
22
0.0000000000
32
0.1055263872
13
6.0874311114
23
-0.0000000000
33
-0.1062565053
40
0.0000000000
40
0.0000000000
40
0.0000000000
40
0.0000000000
40
0.0714285714
40
0.1428571429
40
0.2142857143
40
0.2857142857
40
0.3571428571
40
0.4285714286
40
0.5000000000
40
0.5714285714
40
0.6428571429
40
0.7142857143
40
0.7857142857
40
0.8571428571
40
0.9285714286
40
1.0000000000
40
1.0000000000
40
1.0000000000
40
1.0000000000
10
-45.5750819071
20
1.8520163668
30
22.2554599051
10
-45.7190248279
20
1.8520163668
30
22.2579724381
10
-45.9992905700
20
1.8826430589
30
22.2628644949
10
-46.4016357182
20
2.0145645458
30
22.2698874556
10
-46.7715452439
20
2.2302255975
30
22.2763442503
10
-47.1001353526
20
2.5319544072
30
22.2820798120
10
-47.3682368837
20
2.9239932940
30
22.2867595417
10
-47.5383170091
20
3.3825475176
30
22.2897283013
10
-47.5928061019
20
3.8541770561
30
22.2906794119
10
-47.5363896534
20
4.3307828653
30
22.2896946592
10
-47.3638140748
20
4.7876613089
30
22.2866823412
10
-47.0977311301
20
5.1739931089
30
22.2820378462
10
-46.7729874582
20
5.4723104363
30
22.2763694243
10
-46.4046986547
20
5.6879525585
30
22.2699409193
10
-46.0016985234
20
5.8208440848
30
22.2629065258
10
-45.7200207430
20
5.8518783668
30
22.2579898219
10
-45.5750819071
20
5.8518783668
30
22.2554599051
11
-45.5750819071
21
1.8520163668
31
22.2554599051
11
-45.9962816592
21
1.8969733003
31
22.2628119741
11
-46.3962297811
21
2.0285211399
31
22.2697930946
11
-46.7646586744
21
2.2445702238
31
22.2762240448
11
-47.0900539230
21
2.5470060867
31
22.2819038400
11
-47.3518999828
21
2.9350791835
31
22.2864743800
11
-47.5190518370
21
3.3847267368
31
22.2893920265
11
-47.5743218450
21
3.8550064345
31
22.2903567680
11
-47.5170297984
21
4.3274949711
31
22.2893567316
11
-47.3482295138
21
4.7759035350
31
22.2864103117
11
-47.0879543422
21
5.1593240302
31
22.2818671917
11
-46.7657299363
21
5.4585312354
31
22.2762427438
11
-46.3989134334
21
5.6741607925
31
22.2698399379
11
-45.9984457669
21
5.8064540676
31
22.2628497488
11
-45.5750819071
21
5.8518783668
31
22.2554599051
0
SPLINE
5
5F0
100
AcDbEntity
8
CURVE
100
AcDbSpline
62
9
6
CONTINUOUS
70
0
71
3
72
22
73
18
74
16
42
0.0000001000
43
0.0000001000
44
0.0000000001
12
-0.3182088907
22
-8.1103073274
32
0.0055543568
13
0.2567170425
23
8.0020548716
33
-0.0044810126
40
0.0000000000
40
0.0000000000
40
0.0000000000
40
0.0000000000
40
0.0681818182
40
0.1363636364
40
0.2045454545
40
0.2727272727
40
0.3409090909
40
0.4090909091
40
0.4772727273
40
0.5454545455
40
0.6136363636
40
0.6818181818
40
0.7500000000
40
0.8181818182
40
0.8863636364
40
0.9545454545
40
1.0000000000
40
1.0000000000
40
1.0000000000
40
1.0000000000
10
-48.1223428094
20
14.1695063668
30
22.2999225096
10
-48.1295748297
20
13.9851812002
30
22.3000487449
10
-48.1045372504
20
13.6241325085
30
22.2996117124
10
-47.9524524728
20
13.0956422585
30
22.2969570627
10
-47.6893485163
20
12.6099891333
30
22.2923645661
10
-47.3312257962
20
12.1940506084
30
22.2861135107
10
-46.8889273107
20
11.8615036064
30
22.2783931619
10
-46.3915154613
20
11.6329496074
30
22.2697108058
10
-45.8495319487
20
11.5146248776
30
22.2602504484
10
-45.3028439098
20
11.5143474784
30
22.2507079732
10
-44.7602740491
20
11.6324142024
30
22.2412373810
10
-44.2630272863
20
11.8604099913
30
22.2325579065
10
-43.8197474180
20
12.1932482430
30
22.2248204276
10
-43.4618331546
20
12.6086311650
30
22.2185730109
10
-43.1982778502
20
13.0939820357
30
22.2139726360
10
-43.0624369074
20
13.5655878310
30
22.2116015235
10
-43.0310235153
20
13.8653090415
30
22.2110532007
10
-43.0271338632
20
13.9865522972
30
22.2109853066
11
-48.1223428094
21
14.1695063668
31
22.2999225096
11
-48.0854491823
21
13.6263129731
31
22.2992785289
11
-47.9339492763
21
13.1027817793
31
22.2966340882
11
-47.6735120557
21
12.6216082334
31
22.2920881396
11
-47.3171965020
21
12.2079491955
31
22.2858686285
11
-46.8797417500
21
11.8788357736
31
22.2782328274
11
-46.3840868507
21
11.6513211523
31
22.2695811389
11
-45.8487478610
21
11.5342994327
31
22.2602367621
11
-45.3035302728
21
11.5340714989
31
22.2507199537
11
-44.7678278988
21
11.6507357132
31
22.2413692340
11
-44.2720217687
21
11.8778837351
31
22.2327149058
11
-43.8339750188
21
12.2070056880
31
22.2250687713
11
-43.4775596477
21
12.6202924898
31
22.2188475179
11
-43.2167335575
21
13.1015163105
31
22.2142947815
11
-43.0647121805
21
13.6263268872
31
22.2116412385
11
-43.0271338632
21
13.9865522972
31
22.2109853066
0
SPLINE
5
5F1
100
AcDbEntity
8
CURVE
100
AcDbSpline
62
9
6
CONTINUOUS
70
0
71
3
72
14
73
10
74
8
42
0.0000001000
43
0.0000001000
44
0.0000000001
12
-2.5239368021
22
0.5377796491
32
0.0440554808
13
0.1431046110
23
2.5726882954
33
-0.0024979003
40
0.0000000000
40
0.0000000000
40
0.0000000000
40
0.0000000000
40
0.1428571429
40
0.2857142857
40
0.4285714286
40
0.5714285714
40
0.7142857143
40
0.8571428571
40
1.0000000000
40
1.0000000000
40
1.0000000000
40
1.0000000000
10
-45.9499671610
20
12.3089991427
30
22.2620035516
10
-46.0701546278
20
12.3346076974
30
22.2641014316
10
-46.2999582975
20
12.4088417578
30
22.2681126696
10
-46.6201735876
20
12.5889259950
30
22.2737020483
10
-46.8962131870
20
12.8294251111
30
22.2785203374
10
-47.1186009106
20
13.1205790480
30
22.2824021295
10
-47.2780568598
20
13.4506142536
30
22.2851854435
10
-47.3672791424
20
13.8060641694
30
22.2867428242
10
-47.3785690034
20
14.0469944003
30
22.2869398895
10
-47.3717544981
20
14.1695033668
30
22.2868209418
11
-45.9499671610
21
12.3089991427
31
22.2620035516
11
-46.2958765951
21
12.4202972822
31
22.2680414232
11
-46.6128109725
21
12.5989951415
31
22.2735735333
11
-46.8872712077
21
12.8378675812
31
22.2783642546
11
-47.1081122815
21
13.1270592595
31
22.2822190498
11
-47.2663512487
21
13.4548500387
31
22.2849811213
11
-47.3552312272
21
13.8070550745
31
22.2865325271
11
-47.3717544981
21
14.1695033668
31
22.2868209418
0
SPLINE
5
5F2
100
AcDbEntity
8
CURVE
100
AcDbSpline
62
9
6
CONTINUOUS
70
0
71
3
72
14
73
10
74
8
42
0.0000001000
43
0.0000001000
44
0.0000000001
12
0.1432886935
22
-2.5759218280
32
-0.0025011134
13
-2.5174756967
23
-0.5364047051
33
0.0439427017
40
0.0000000000
40
0.0000000000
40
0.0000000000
40
0.0000000000
40
0.1428571429
40
0.2857142857
40
0.4285714286
40
0.5714285714
40
0.7142857143
40
0.8571428571
40
1.0000000000
40
1.0000000000
40
1.0000000000
40
1.0000000000
10
-43.7784125174
20
14.1695061329
30
22.2240989243
10
-43.7715892462
20
14.0468431887
30
22.2239798236
10
-43.7828917414
20
13.8056651457
30
22.2241771094
10
-43.8725170657
20
13.4494681347
30
22.2257415253
10
-44.0319688063
20
13.1199731210
30
22.2285247657
10
-44.2544638044
20
12.8288833131
30
22.2324084304
10
-44.5305026878
20
12.5885618852
30
22.2372267070
10
-44.8509304214
20
12.4085399169
30
22.2428197939
10
-45.0803163319
20
12.3345454480
30
22.2468237399
10
-45.2001961270
20
12.3090023668
30
22.2489162495
11
-43.7784125174
21
14.1695061329
31
22.2240989243
11
-43.7950036717
21
13.8065934879
31
22.2243885239
11
-43.8841548017
21
13.4539184676
31
22.2259446627
11
-44.0424760159
21
13.1263739886
31
22.2287081698
11
-44.2633877853
21
12.8373447098
31
22.2325641991
11
-44.5379008295
21
12.5986117952
31
22.2373558421
11
-44.8548722768
21
12.4200449611
31
22.2428885993
11
-45.2001961270
21
12.3090023668
31
22.2489162495
0
SPLINE
5
5F3
100
AcDbEntity
8
CURVE
100
AcDbSpline
62
9
6
CONTINUOUS
70
0
71
3
72
22
73
18
74
16
42
0.0000001000
43
0.0000001000
44
0.0000000001
12
-0.3181992327
22
-8.1103044713
32
0.0055541883
13
0.2567167319
23
8.0020516184
33
-0.0044810072
40
0.0000000000
40
0.0000000000
40
0.0000000000
40
0.0000000000
40
0.0681818182
40
0.1363636364
40
0.2045454545
40
0.2727272727
40
0.3409090909
40
0.4090909091
40
0.4772727273
40
0.5454545455
40
0.6136363636
40
0.6818181818
40
0.7500000000
40
0.8181818182
40
0.8863636364
40
0.9545454545
40
1.0000000000
40
1.0000000000
40
1.0000000000
40
1.0000000000
10
-48.1223428094
20
9.7843933668
30
22.2999225096
10
-48.1295746102
20
9.6000682651
30
22.3000487411
10
-48.1045366279
20
9.2390197440
30
22.2996117015
10
-47.9524513667
20
8.7105299109
30
22.2969570434
10
-47.6893470432
20
8.2248772303
30
22.2923645403
10
-47.3312240985
20
7.8089392003
30
22.2861134811
10
-46.8889255254
20
7.4763926977
30
22.2783931308
10
-46.3915137100
20
7.2478391606
30
22.2697107752
10
-45.8495303457
20
7.1295148388
30
22.2602504204
10
-45.3028425297
20
7.1292377591
30
22.2507079491
10
-44.7602729557
20
7.2473047085
30
22.2412373620
10
-44.2630264934
20
7.4753006169
30
22.2325578927
10
-43.8197469267
20
7.8081388849
30
22.2248204191
10
-43.4618329227
20
8.2235217341
30
22.2185730069
10
-43.1982778224
20
8.7088724544
30
22.2139726355
10
-43.0624369898
20
9.1804780699
30
22.2116015249
10
-43.0310236261
20
9.4801991615
30
22.2110532026
10
-43.0271339786
20
9.6014423678
30
22.2109853086
11
-48.1223428094
21
9.7843933668
31
22.2999225096
11
-48.0854485799
21
9.2412002354
31
22.2992785184
11
-47.9339481897
21
8.7176694363
31
22.2966340692
11
-47.6735106064
21
8.2364963387
31
22.2920881143
11
-47.3171948271
21
7.8228377882
31
22.2858685992
11
-46.8797399850
21
7.4937248586
31
22.2782327966
11
-46.3840851185
21
7.2662106965
31
22.2695811087
11
-45.8487462704
21
7.1491893792
31
22.2602367343
11
-45.3035289034
21
7.1489617639
31
22.2507199298
11
-44.7678268077
21
7.2656262017
31
22.2413692149
11
-44.2720209760
21
7.4927743435
31
22.2327148920
11
-43.8339745205
21
7.8218963151
31
22.2250687626
11
-43.4775594067
21
8.2351830459
31
22.2188475137
11
-43.2167335163
21
8.7164067206
31
22.2142947808
11
-43.0647122621
21
9.2412171013
31
22.2116412400
11
-43.0271339786
21
9.6014423678
31
22.2109853086
0
SPLINE
5
5F4
100
AcDbEntity
8
CURVE
100
AcDbSpline
62
9
6
CONTINUOUS
70
0
71
3
72
21
73
17
74
15
42
0.0000001000
43
0.0000001000
44
0.0000000001
12
0.3016905618
22
-5.4237011350
32
-0.0052660283
13
-0.2974714284
23
5.3364718562
33
0.0051923831
40
0.0000000000
40
0.0000000000
40
0.0000000000
40
0.0000000000
40
0.0740740741
40
0.1481481481
40
0.2222222222
40
0.2962962963
40
0.3703703704
40
0.4444444444
40
0.5185185185
40
0.5925925926
40
0.6666666667
40
0.7407407407
40
0.8148148148
40
0.8888888889
40
0.9629629630
40
1.0000000000
40
1.0000000000
40
1.0000000000
40
1.0000000000
10
-43.7784093098
20
9.7843932558
30
22.2240988683
10
-43.7709601601
20
9.6504747093
30
22.2239688429
10
-43.7858612924
20
9.3884808719
30
22.2242289431
10
-43.8921547720
20
9.0076130845
30
22.2260843027
10
-44.0799063287
20
8.6561007009
30
22.2293615183
10
-44.3520909687
20
8.3411394103
30
22.2341125189
10
-44.7131345933
20
8.0826904908
30
22.2404145588
10
-45.1396654049
20
7.9187633998
30
22.2478596818
10
-45.5784404788
20
7.8666771807
30
22.2555185292
10
-46.0227162055
20
7.9214139493
30
22.2632733909
10
-46.4472906260
20
8.0886806204
30
22.2706843649
10
-46.8018851896
20
8.3453706719
30
22.2768738361
10
-47.0701590197
20
8.6562877156
30
22.2815565732
10
-47.2578161845
20
9.0073168424
30
22.2848321412
10
-47.3462148867
20
9.3231421515
30
22.2863751463
10
-47.3681153282
20
9.5185833481
30
22.2867574199
10
-47.3717878150
20
9.5844657167
30
22.2868215234
11
-43.7784093098
21
9.7843932558
31
22.2240988683
11
-43.7998515893
21
9.3905013666
31
22.2244731447
11
-43.9057311182
21
9.0125056518
31
22.2263212787
11
-44.0939785092
21
8.6621925497
31
22.2296071491
11
-44.3669007995
21
8.3505581388
31
22.2343710254
11
-44.7240491244
21
8.0984441289
31
22.2406050726
11
-45.1417061153
21
7.9374035451
31
22.2478953025
11
-45.5793572543
21
7.8844810120
31
22.2555345316
11
-46.0194326545
21
7.9401689330
31
22.2632160763
11
-46.4356273165
21
8.1035845171
31
22.2704807811
11
-46.7874984007
21
8.3544085039
31
22.2766227137
11
-47.0567229088
21
8.6629730628
31
22.2813220450
11
-47.2442197308
21
9.0119770497
31
22.2845948142
11
-47.3500551694
21
9.3889498849
31
22.2864421787
11
-47.3717878150
21
9.5844657167
31
22.2868215234
0
SPLINE
5
5F5
100
AcDbEntity
8
CURVE
100
AcDbSpline
62
9
6
CONTINUOUS
70
0
71
3
72
8
73
4
74
2
42
0.0000001000
43
0.0000001000
44
0.0000000001
12
0.0058344782
22
0.1818648834
32
-0.0001018412
13
-0.0072232362
23
0.1841070245
33
0.0001260821
40
0.0000000000
40
0.0000000000
40
0.0000000000
40
0.0000000000
40
1.0000000000
40
1.0000000000
40
1.0000000000
40
1.0000000000
10
-43.0271338632
20
13.9865522972
30
22.2109853066
10
-43.0251890371
20
14.0471739250
30
22.2109513595
10
-43.0254131372
20
14.1081342456
30
22.2109552712
10
-43.0278208826
20
14.1695032538
30
22.2109972985
11
-43.0271338632
21
13.9865522972
31
22.2109853066
11
-43.0278208826
21
14.1695032538
31
22.2109972985
0
SPLINE
5
5F6
100
AcDbEntity
8
CURVE
100
AcDbSpline
62
9
6
CONTINUOUS
70
0
71
3
72
8
73
4
74
2
42
0.0000001000
43
0.0000001000
44
0.0000000001
12
0.0058344712
22
0.1818648095
32
-0.0001018411
13
-0.0072232332
23
0.1841069478
33
0.0001260820
40
0.0000000000
40
0.0000000000
40
0.0000000000
40
0.0000000000
40
1.0000000000
40
1.0000000000
40
1.0000000000
40
1.0000000000
10
-43.0271339786
20
9.6014423678
30
22.2109853086
10
-43.0251891549
20
9.6620639710
30
22.2109513616
10
-43.0254132557
20
9.7230242666
30
22.2109552733
10
-43.0278210001
20
9.7843932492
30
22.2109973006
11
-43.0271339786
21
9.6014423678
31
22.2109853086
11
-43.0278210001
21
9.7843932492
31
22.2109973006
0
SPLINE
5
5F7
100
AcDbEntity
8
CURVE
100
AcDbSpline
62
9
6
CONTINUOUS
70
0
71
3
72
8
73
4
74
2
42
0.0000001000
43
0.0000001000
44
0.0000000001
12
-0.0110174603
22
0.1976471058
32
0.0001923105
13
0.0112518900
23
0.2022828294
33
-0.0001964025
40
0.0000000000
40
0.0000000000
40
0.0000000000
40
0.0000000000
40
1.0000000000
40
1.0000000000
40
1.0000000000
40
1.0000000000
10
-47.3717878150
20
9.5844657167
30
22.2868215234
10
-47.3754603017
20
9.6503480853
30
22.2868856269
10
-47.3755051281
20
9.7169657569
30
22.2868864093
10
-47.3717544981
20
9.7843933668
30
22.2868209418
11
-47.3717878150
21
9.5844657167
31
22.2868215234
11
-47.3717544981
21
9.7843933668
31
22.2868209418
0
SPLINE
5
5F8
100
AcDbEntity
8
0
100
AcDbSpline
62
6
6
CONTINUOUS
70
0
71
3
72
10
73
6
74
4
42
0.0000001000
43
0.0000001000
44
0.0000000001
12
-0.1444144255
22
-0.0184070312
32
0.0000000000
13
-0.1444144255
23
0.0184070312
33
0.0000000000
40
0.0000000000
40
0.0000000000
40
0.0000000000
40
0.0000000000
40
0.3341228435
40
0.6658799625
40
1.0000000000
40
1.0000000000
40
1.0000000000
40
1.0000000000
10
-34.0864140363
20
-9.3480526332
30
0.0000000000
10
-34.1024980891
20
-9.3501027031
30
0.0000000000
10
-34.1347413740
20
-9.3528459992
30
0.0000000000
10
-34.1833214488
20
-9.3528459818
30
0.0000000000
10
-34.2155645960
20
-9.3501026859
30
0.0000000000
10
-34.2316485137
20
-9.3480526332
30
0.0000000000
11
-34.0864140363
21
-9.3480526332
31
0.0000000000
11
-34.1348824179
21
-9.3521650368
31
0.0000000000
11
-34.1831805407
21
-9.3521650195
31
0.0000000000
11
-34.2316485137
21
-9.3480526332
31
0.0000000000
0
SPLINE
5
5F9
100
AcDbEntity
8
0
100
AcDbSpline
62
6
6
CONTINUOUS
70
0
71
3
72
10
73
6
74
4
42
0.0000001000
43
0.0000001000
44
0.0000000001
12
0.0730813542
22
0.8174270512
32
0.0000000000
13
0.0729910245
23
0.8174351220
33
0.0000000000
40
0.0000000000
40
0.0000000000
40
0.0000000000
40
0.0000000000
40
0.3318014206
40
0.6651349907
40
1.0000000000
40
1.0000000000
40
1.0000000000
40
1.0000000000
10
-31.7825770384
20
-11.0654837818
30
0.0000000000
10
-31.7744942060
20
-10.9750759628
30
0.0000000000
10
-31.7582946934
20
-10.7938425407
30
0.0000000000
10
-31.7339496304
20
-10.5213654815
30
0.0000000000
10
-31.7176889123
20
-10.3392961065
30
0.0000000000
10
-31.7095415322
20
-10.2480526332
30
0.0000000000
11
-31.7825770384
21
-11.0654837818
31
0.0000000000
11
-31.7583336913
21
-10.7942598646
31
0.0000000000
11
-31.7339885604
21
-10.5217826164
31
0.0000000000
11
-31.7095415322
21
-10.2480526332
31
0.0000000000
0
SPLINE
5
5FA
100
AcDbEntity
8
0
100
AcDbSpline
62
6
6
CONTINUOUS
70
0
71
3
72
10
73
6
74
4
42
0.0000001000
43
0.0000001000
44
0.0000000001
12
0.0729910245
22
-0.8174351220
32
0.0000000000
13
0.0730813542
23
-0.8174270512
33
0.0000000000
40
0.0000000000
40
0.0000000000
40
0.0000000000
40
0.0000000000
40
0.3348560004
40
0.6681895866
40
1.0000000000
40
1.0000000000
40
1.0000000000
40
1.0000000000
10
-36.6085210178
20
-10.2480526332
30
0.0000000000
10
-36.6003738569
20
-10.3392936518
30
0.0000000000
10
-36.5841133577
20
-10.5213605765
30
0.0000000000
10
-36.5597682950
20
-10.7938376357
30
0.0000000000
10
-36.5435685631
20
-10.9750735125
30
0.0000000000
10
-36.5354855116
20
-11.0654837818
30
0.0000000000
11
-36.6085210178
21
-10.2480526332
31
0.0000000000
11
-36.5840746474
21
-10.5217752523
31
0.0000000000
11
-36.5597295156
21
-10.7942525136
31
0.0000000000
11
-36.5354855116
21
-11.0654837818
31
0.0000000000
0
SPLINE
5
5FB
100
AcDbEntity
8
0
100
AcDbSpline
62
6
6
CONTINUOUS
70
0
71
3
72
13
73
9
74
7
42
0.0000001000
43
0.0000001000
44
0.0000000001
12
-0.2997588982
22
0.0000000000
32
0.0000000000
13
-0.0266932150
23
0.2985680313
33
0.0000000000
40
0.0000000000
40
0.0000000000
40
0.0000000000
40
0.0000000000
40
0.1685365238
40
0.3393730266
40
0.5063576095
40
0.6722318972
40
0.8387144259
40
1.0000000000
40
1.0000000000
40
1.0000000000
40
1.0000000000
10
-36.3314800600
20
-11.2480526332
30
0.0000000000
10
-36.3483201675
20
-11.2480526332
30
0.0000000000
10
-36.3823712686
20
-11.2439497032
30
0.0000000000
10
-36.4301141276
20
-11.2257520260
30
0.0000000000
10
-36.4717797965
20
-11.1966203869
30
0.0000000000
10
-36.5047788620
20
-11.1585099116
30
0.0000000000
10
-36.5270521984
20
-11.1139312707
30
0.0000000000
10
-36.5340504348
20
-11.0815353539
30
0.0000000000
10
-36.5354855116
20
-11.0654837818
30
0.0000000000
11
-36.3314800600
21
-11.2480526332
31
0.0000000000
11
-36.3816342589
21
-11.2419814446
31
0.0000000000
11
-36.4294780259
21
-11.2237218261
31
0.0000000000
11
-36.4704781300
21
-11.1950076143
31
0.0000000000
11
-36.5030030886
21
-11.1573986584
31
0.0000000000
11
-36.5252767367
21
-11.1127404494
31
0.0000000000
11
-36.5354855116
21
-11.0654837818
31
0.0000000000
0
SPLINE
5
5FC
100
AcDbEntity
8
0
100
AcDbSpline
62
6
6
CONTINUOUS
70
0
71
3
72
13
73
9
74
7
42
0.0000001000
43
0.0000001000
44
0.0000000001
12
-0.0266932150
22
-0.2985680313
32
0.0000000000
13
-0.2997588982
23
-0.0000000000
33
0.0000000000
40
0.0000000000
40
0.0000000000
40
0.0000000000
40
0.0000000000
40
0.1612855741
40
0.3277681028
40
0.4936423905
40
0.6606269734
40
0.8314634762
40
1.0000000000
40
1.0000000000
40
1.0000000000
40
1.0000000000
10
-31.7825770384
20
-11.0654837818
30
0.0000000000
10
-31.7840121152
20
-11.0815353539
30
0.0000000000
10
-31.7910103516
20
-11.1139312707
30
0.0000000000
10
-31.8132836880
20
-11.1585099116
30
0.0000000000
10
-31.8462827535
20
-11.1966203869
30
0.0000000000
10
-31.8879484224
20
-11.2257520260
30
0.0000000000
10
-31.9356912814
20
-11.2439497032
30
0.0000000000
10
-31.9697423825
20
-11.2480526332
30
0.0000000000
10
-31.9865824900
20
-11.2480526332
30
0.0000000000
11
-31.7825770384
21
-11.0654837818
31
0.0000000000
11
-31.7927858133
21
-11.1127404494
31
0.0000000000
11
-31.8150594615
21
-11.1573986584
31
0.0000000000
11
-31.8475844200
21
-11.1950076143
31
0.0000000000
11
-31.8885845241
21
-11.2237218261
31
0.0000000000
11
-31.9364282911
21
-11.2419814446
31
0.0000000000
11
-31.9865824900
21
-11.2480526332
31
0.0000000000
0
SPLINE
5
5FD
100
AcDbEntity
8
0
100
AcDbSpline
62
6
6
CONTINUOUS
70
0
71
3
72
10
73
6
74
4
42
0.0000001000
43
0.0000001000
44
0.0000000001
12
0.1444144255
22
-0.0184070312
32
0.0000000000
13
0.1444144255
23
0.0184070312
33
0.0000000000
40
0.0000000000
40
0.0000000000
40
0.0000000000
40
0.0000000000
40
0.3341228435
40
0.6658799625
40
1.0000000000
40
1.0000000000
40
1.0000000000
40
1.0000000000
10
-34.0316485137
20
-8.4730526332
30
0.0000000000
10
-34.0155644609
20
-8.4751027031
30
0.0000000000
10
-33.9833211760
20
-8.4778459992
30
0.0000000000
10
-33.9347411012
20
-8.4778459818
30
0.0000000000
10
-33.9024979540
20
-8.4751026859
30
0.0000000000
10
-33.8864140363
20
-8.4730526332
30
0.0000000000
11
-34.0316485137
21
-8.4730526332
31
0.0000000000
11
-33.9831801322
21
-8.4771650368
31
0.0000000000
11
-33.9348820093
21
-8.4771650195
31
0.0000000000
11
-33.8864140363
21
-8.4730526332
31
0.0000000000
0
SPLINE
5
5FE
100
AcDbEntity
8
0
100
AcDbSpline
62
6
6
CONTINUOUS
70
0
71
3
72
10
73
6
74
4
42
0.0000001000
43
0.0000001000
44
0.0000000001
12
-0.0730813542
22
0.8174270512
32
0.0000000000
13
-0.0729910245
23
0.8174351220
33
0.0000000000
40
0.0000000000
40
0.0000000000
40
0.0000000000
40
0.0000000000
40
0.3318014206
40
0.6651349907
40
1.0000000000
40
1.0000000000
40
1.0000000000
40
1.0000000000
10
-36.3354855116
20
-10.1904837818
30
0.0000000000
10
-36.3435683440
20
-10.1000759628
30
0.0000000000
10
-36.3597678566
20
-9.9188425407
30
0.0000000000
10
-36.3841129196
20
-9.6463654815
30
0.0000000000
10
-36.4003736378
20
-9.4642961065
30
0.0000000000
10
-36.4085210178
20
-9.3730526332
30
0.0000000000
11
-36.3354855116
21
-10.1904837818
31
0.0000000000
11
-36.3597288587
21
-9.9192598646
31
0.0000000000
11
-36.3840739896
21
-9.6467826164
31
0.0000000000
11
-36.4085210178
21
-9.3730526332
31
0.0000000000
0
SPLINE
5
5FF
100
AcDbEntity
8
0
100
AcDbSpline
62
6
6
CONTINUOUS
70
0
71
3
72
10
73
6
74
4
42
0.0000001000
43
0.0000001000
44
0.0000000001
12
-0.0729910245
22
-0.8174351220
32
0.0000000000
13
-0.0730813542
23
-0.8174270512
33
0.0000000000
40
0.0000000000
40
0.0000000000
40
0.0000000000
40
0.0000000000
40
0.3348560004
40
0.6681895866
40
1.0000000000
40
1.0000000000
40
1.0000000000
40
1.0000000000
10
-31.5095415322
20
-9.3730526332
30
0.0000000000
10
-31.5176886931
20
-9.4642936518
30
0.0000000000
10
-31.5339491923
20
-9.6463605765
30
0.0000000000
10
-31.5582942550
20
-9.9188376357
30
0.0000000000
10
-31.5744939869
20
-10.1000735125
30
0.0000000000
10
-31.5825770384
20
-10.1904837818
30
0.0000000000
11
-31.5095415322
21
-9.3730526332
31
0.0000000000
11
-31.5339879026
21
-9.6467752523
31
0.0000000000
11
-31.5583330344
21
-9.9192525136
31
0.0000000000
11
-31.5825770384
21
-10.1904837818
31
0.0000000000
0
SPLINE
5
600
100
AcDbEntity
8
0
100
AcDbSpline
62
6
6
CONTINUOUS
70
0
71
3
72
13
73
9
74
7
42
0.0000001000
43
0.0000001000
44
0.0000000001
12
0.2997588982
22
0.0000000000
32
0.0000000000
13
0.0266932150
23
0.2985680313
33
0.0000000000
40
0.0000000000
40
0.0000000000
40
0.0000000000
40
0.0000000000
40
0.1685365238
40
0.3393730266
40
0.5063576095
40
0.6722318972
40
0.8387144259
40
1.0000000000
40
1.0000000000
40
1.0000000000
40
1.0000000000
10
-31.7865824900
20
-10.3730526332
30
0.0000000000
10
-31.7697423825
20
-10.3730526332
30
0.0000000000
10
-31.7356912814
20
-10.3689497032
30
0.0000000000
10
-31.6879484224
20
-10.3507520260
30
0.0000000000
10
-31.6462827535
20
-10.3216203869
30
0.0000000000
10
-31.6132836880
20
-10.2835099116
30
0.0000000000
10
-31.5910103516
20
-10.2389312707
30
0.0000000000
10
-31.5840121152
20
-10.2065353539
30
0.0000000000
10
-31.5825770384
20
-10.1904837818
30
0.0000000000
11
-31.7865824900
21
-10.3730526332
31
0.0000000000
11
-31.7364282911
21
-10.3669814446
31
0.0000000000
11
-31.6885845241
21
-10.3487218261
31
0.0000000000
11
-31.6475844200
21
-10.3200076143
31
0.0000000000
11
-31.6150594615
21
-10.2823986584
31
0.0000000000
11
-31.5927858133
21
-10.2377404494
31
0.0000000000
11
-31.5825770384
21
-10.1904837818
31
0.0000000000
0
SPLINE
5
601
100
AcDbEntity
8
0
100
AcDbSpline
62
6
6
CONTINUOUS
70
0
71
3
72
13
73
9
74
7
42
0.0000001000
43
0.0000001000
44
0.0000000001
12
0.0266932150
22
-0.2985680313
32
0.0000000000
13
0.2997588982
23
0.0000000000
33
0.0000000000
40
0.0000000000
40
0.0000000000
40
0.0000000000
40
0.0000000000
40
0.1612855741
40
0.3277681028
40
0.4936423905
40
0.6606269734
40
0.8314634762
40
1.0000000000
40
1.0000000000
40
1.0000000000
40
1.0000000000
10
-36.3354855116
20
-10.1904837818
30
0.0000000000
10
-36.3340504348
20
-10.2065353539
30
0.0000000000
10
-36.3270521984
20
-10.2389312707
30
0.0000000000
10
-36.3047788620
20
-10.2835099116
30
0.0000000000
10
-36.2717797965
20
-10.3216203869
30
0.0000000000
10
-36.2301141276
20
-10.3507520260
30
0.0000000000
10
-36.1823712686
20
-10.3689497032
30
0.0000000000
10
-36.1483201675
20
-10.3730526332
30
0.0000000000
10
-36.1314800600
20
-10.3730526332
30
0.0000000000
11
-36.3354855116
21
-10.1904837818
31
0.0000000000
11
-36.3252767367
21
-10.2377404494
31
0.0000000000
11
-36.3030030886
21
-10.2823986584
31
0.0000000000
11
-36.2704781300
21
-10.3200076143
31
0.0000000000
11
-36.2294780259
21
-10.3487218261
31
0.0000000000
11
-36.1816342589
21
-10.3669814446
31
0.0000000000
11
-36.1314800600
21
-10.3730526332
31
0.0000000000
0
SPLINE
5
602
100
AcDbEntity
8
0
100
AcDbSpline
62
6
6
CONTINUOUS
70
0
71
3
72
10
73
6
74
4
42
0.0000001000
43
0.0000001000
44
0.0000000001
12
0.1444144255
22
0.0184070312
32
0.0000000000
13
0.1444144255
23
-0.0184070312
33
0.0000000000
40
0.0000000000
40
0.0000000000
40
0.0000000000
40
0.0000000000
40
0.3341228435
40
0.6658799625
40
1.0000000000
40
1.0000000000
40
1.0000000000
40
1.0000000000
10
-34.0316485137
20
19.7769473668
30
0.0000000000
10
-34.0155644609
20
19.7789974366
30
0.0000000000
10
-33.9833211760
20
19.7817407327
30
0.0000000000
10
-33.9347411012
20
19.7817407153
30
0.0000000000
10
-33.9024979540
20
19.7789974194
30
0.0000000000
10
-33.8864140363
20
19.7769473668
30
0.0000000000
11
-34.0316485137
21
19.7769473668
31
0.0000000000
11
-33.9831801322
21
19.7810597703
31
0.0000000000
11
-33.9348820093
21
19.7810597530
31
0.0000000000
11
-33.8864140363
21
19.7769473668
31
0.0000000000
0
SPLINE
5
603
100
AcDbEntity
8
0
100
AcDbSpline
62
6
6
CONTINUOUS
70
0
71
3
72
10
73
6
74
4
42
0.0000001000
43
0.0000001000
44
0.0000000001
12
-0.0730813542
22
-0.8174270512
32
0.0000000000
13
-0.0729910245
23
-0.8174351220
33
0.0000000000
40
0.0000000000
40
0.0000000000
40
0.0000000000
40
0.0000000000
40
0.3318014206
40
0.6651349907
40
1.0000000000
40
1.0000000000
40
1.0000000000
40
1.0000000000
10
-36.3354855116
20
21.4943785153
30
0.0000000000
10
-36.3435683440
20
21.4039706964
30
0.0000000000
10
-36.3597678566
20
21.2227372742
30
0.0000000000
10
-36.3841129196
20
20.9502602150
30
0.0000000000
10
-36.4003736378
20
20.7681908400
30
0.0000000000
10
-36.4085210178
20
20.6769473668
30
0.0000000000
11
-36.3354855116
21
21.4943785153
31
0.0000000000
11
-36.3597288587
21
21.2231545981
31
0.0000000000
11
-36.3840739896
21
20.9506773500
31
0.0000000000
11
-36.4085210178
21
20.6769473668
31
0.0000000000
0
SPLINE
5
604
100
AcDbEntity
8
0
100
AcDbSpline
62
6
6
CONTINUOUS
70
0
71
3
72
10
73
6
74
4
42
0.0000001000
43
0.0000001000
44
0.0000000001
12
-0.0729910245
22
0.8174351220
32
0.0000000000
13
-0.0730813542
23
0.8174270512
33
0.0000000000
40
0.0000000000
40
0.0000000000
40
0.0000000000
40
0.0000000000
40
0.3348560004
40
0.6681895866
40
1.0000000000
40
1.0000000000
40
1.0000000000
40
1.0000000000
10
-31.5095415322
20
20.6769473668
30
0.0000000000
10
-31.5176886931
20
20.7681883853
30
0.0000000000
10
-31.5339491923
20
20.9502553100
30
0.0000000000
10
-31.5582942550
20
21.2227323692
30
0.0000000000
10
-31.5744939869
20
21.4039682461
30
0.0000000000
10
-31.5825770384
20
21.4943785153
30
0.0000000000
11
-31.5095415322
21
20.6769473668
31
0.0000000000
11
-31.5339879026
21
20.9506699858
31
0.0000000000
11
-31.5583330344
21
21.2231472471
31
0.0000000000
11
-31.5825770384
21
21.4943785153
31
0.0000000000
0
SPLINE
5
605
100
AcDbEntity
8
0
100
AcDbSpline
62
6
6
CONTINUOUS
70
0
71
3
72
13
73
9
74
7
42
0.0000001000
43
0.0000001000
44
0.0000000001
12
0.2997588982
22
0.0000000000
32
0.0000000000
13
0.0266932150
23
-0.2985680313
33
0.0000000000
40
0.0000000000
40
0.0000000000
40
0.0000000000
40
0.0000000000
40
0.1685365238
40
0.3393730266
40
0.5063576095
40
0.6722318972
40
0.8387144259
40
1.0000000000
40
1.0000000000
40
1.0000000000
40
1.0000000000
10
-31.7865824900
20
21.6769473668
30
0.0000000000
10
-31.7697423825
20
21.6769473668
30
0.0000000000
10
-31.7356912814
20
21.6728444367
30
0.0000000000
10
-31.6879484224
20
21.6546467596
30
0.0000000000
10
-31.6462827535
20
21.6255151204
30
0.0000000000
10
-31.6132836880
20
21.5874046451
30
0.0000000000
10
-31.5910103516
20
21.5428260042
30
0.0000000000
10
-31.5840121152
20
21.5104300874
30
0.0000000000
10
-31.5825770384
20
21.4943785153
30
0.0000000000
11
-31.7865824900
21
21.6769473668
31
0.0000000000
11
-31.7364282911
21
21.6708761781
31
0.0000000000
11
-31.6885845241
21
21.6526165596
31
0.0000000000
11
-31.6475844200
21
21.6239023478
31
0.0000000000
11
-31.6150594615
21
21.5862933919
31
0.0000000000
11
-31.5927858133
21
21.5416351829
31
0.0000000000
11
-31.5825770384
21
21.4943785153
31
0.0000000000
0
SPLINE
5
606
100
AcDbEntity
8
0
100
AcDbSpline
62
6
6
CONTINUOUS
70
0
71
3
72
13
73
9
74
7
42
0.0000001000
43
0.0000001000
44
0.0000000001
12
0.0266932150
22
0.2985680313
32
0.0000000000
13
0.2997588982
23
-0.0000000000
33
0.0000000000
40
0.0000000000
40
0.0000000000
40
0.0000000000
40
0.0000000000
40
0.1612855741
40
0.3277681028
40
0.4936423905
40
0.6606269734
40
0.8314634762
40
1.0000000000
40
1.0000000000
40
1.0000000000
40
1.0000000000
10
-36.3354855116
20
21.4943785153
30
0.0000000000
10
-36.3340504348
20
21.5104300874
30
0.0000000000
10
-36.3270521984
20
21.5428260042
30
0.0000000000
10
-36.3047788620
20
21.5874046451
30
0.0000000000
10
-36.2717797965
20
21.6255151204
30
0.0000000000
10
-36.2301141276
20
21.6546467596
30
0.0000000000
10
-36.1823712686
20
21.6728444367
30
0.0000000000
10
-36.1483201675
20
21.6769473668
30
0.0000000000
10
-36.1314800600
20
21.6769473668
30
0.0000000000
11
-36.3354855116
21
21.4943785153
31
0.0000000000
11
-36.3252767367
21
21.5416351829
31
0.0000000000
11
-36.3030030886
21
21.5862933919
31
0.0000000000
11
-36.2704781300
21
21.6239023478
31
0.0000000000
11
-36.2294780259
21
21.6526165596
31
0.0000000000
11
-36.1816342589
21
21.6708761781
31
0.0000000000
11
-36.1314800600
21
21.6769473668
31
0.0000000000
0
ENDSEC
0
SECTION
2
OBJECTS
0
DICTIONARY
5
C
100
AcDbDictionary
280
0
281
1
3
ACAD_GROUP
350
D
3
ACAD_MLINESTYLE
350
17
3
ACAD_LAYOUT
350
1A
3
ACAD_PLOTSETTINGS
350
19
3
ACAD_PLOTSTYLENAME
350
E
0
DICTIONARY
5
D
102
{ACAD_REACTORS
330
C
102
}
100
AcDbDictionary
280
0
281
1
0
ACDBDICTIONARYWDFLT
5
E
102
{ACAD_REACTORS
330
C
102
}
100
AcDbDictionary
281
1
3
Normal
350
F
100
AcDbDictionaryWithDefault
340
F
0
DICTIONARY
5
17
102
{ACAD_REACTORS
330
C
102
}
100
AcDbDictionary
280
0
281
1
3
Standard
350
18
0
DICTIONARY
5
19
102
{ACAD_REACTORS
330
C
102
}
100
AcDbDictionary
281
1
0
DICTIONARY
5
1A
102
{ACAD_REACTORS
330
C
102
}
100
AcDbDictionary
281
1
3
Layout1
350
1E
3
Model
350
22
0
ACDBPLACEHOLDER
5
F
102
{ACAD_REACTORS
330
E
102
}
0
MLINESTYLE
5
18
102
{ACAD_REACTORS
330
17
102
}
100
AcDbMlineStyle
2
STANDARD
70
0
3

62
256
51
90.0
52
90.0
71
2
49
0.5
62
256
6
BYLAYER
49
-0.5
62
256
6
BYLAYER
0
LAYOUT
5
1E
102
{ACAD_REACTORS
330
1A
102
}
100
AcDbPlotSettings
1

2

4

6

40
0.0
41
0.0
42
0.0
43
0.0
44
0.0
45
0.0
46
0.0
47
0.0
48
0.0
49
0.0
140
0.0
141
0.0
142
1.0
143
1.0
70
0
72
0
73
0
74
0
7

75
0
147
1.0
148
0.0
149
0.0
100
AcDbLayout
1
Layout1
70
0
71
0
10
0.0
20
0.0
11
0.0
21
0.0
12
0.0
22
0.0
32
0.0
14
0.0
24
0.0
34
0.0
15
0.0
25
0.0
35
0.0
146
0.0
13
0.0
23
0.0
33
0.0
16
0.0
26
0.0
36
0.0
17
0.0
27
0.0
37
0.0
76
0
330
1B
331
0
345
0
346
0
0
LAYOUT
5
22
102
{ACAD_REACTORS
330
1A
102
}
100
AcDbPlotSettings
1

2

4

6

40
0.0
41
0.0
42
0.0
43
0.0
44
0.0
45
0.0
46
0.0
47
0.0
48
0.0
49
0.0
140
0.0
141
0.0
142
1.0
143
1.0
70
0
72
0
73
0
74
0
7

75
0
147
1.0
148
0.0
149
0.0
100
AcDbLayout
1
Model
70
0
71
0
10
0.0
20
0.0
11
0.0
21
0.0
12
0.0
22
0.0
32
0.0
14
0.0
24
0.0
34
0.0
15
0.0
25
0.0
35
0.0
146
0.0
13
0.0
23
0.0
33
0.0
16
0.0
26
0.0
36
0.0
17
0.0
27
0.0
37
0.0
76
0
330
1F
331
0
345
0
346
0
0
ENDSEC
0
EOF
