0
SECTION
2
HEADER
9
$ACADVER
1
AC1015
9
$DWGCODEPAGE
3
ANSI_1252
9
$EXTMAX
10
297.0000000000
20
210.0000000000
30
0.0000000000
9
$EXTMIN
10
0.0000000000
20
0.0000000000
30
0.0000000000
9
$LIMMIN
10
0.0000000000
20
0.0000000000
9
$LIMMAX
10
297.0000000000
20
210.0000000000
9
$VIEWCTR
10
148.5000000000
20
105.0000000000
9
$VIEWSIZE
40
210.0000000000
9
$CLAYER
8
0
9
$LTSCALE
40
16.3350000000
9
$CELTYPE
6
BYLAYER
9
$DIMSCALE
40
1
9
$DIMASZ
40
3.0000000000
9
$DIMEXO
40
1.8562500000
9
$DIMDLI
40
11.2860000000
9
$DIMEXE
40
5.3460000000
9
$DIMCEN
40
2.6730000000
9
$DIMLFAC
40
1.0000000000
9
$DIMBLK
1
_FILLED
9
$DIMTXT
40
3.0000000000
9
$DIMTOL
70
1
9
$DIMLIM
70
0
9
$DIMTFAC
40
1.0000000000
9
$DIMTP
40
0.0100000000
9
$DIMTM
40
0.0100000000
9
$PDMODE
70
3
9
$PDSIZE
40
3.0000000000
9
$HANDSEED
5
594
9
$MEASUREMENT
70
1
9
$INSUNITS
70
4
0
ENDSEC
0
SECTION
2
CLASSES
0
CLASS
1
ACDBDICTIONARYWDFLT
2
AcDbDictionaryWithDefault
3
AutoCAD 2000
90
0
280
0
281
0
0
CLASS
1
ACDBPLACEHOLDER
2
AcDbPlaceHolder
3
AutoCAD 2000
90
0
280
0
281
0
0
CLASS
1
LAYOUT
2
AcDbLayout
3
AutoCAD 2000
90
0
280
0
281
0
0
ENDSEC
0
SECTION
2
TABLES
0
TABLE
2
VPORT
5
8
100
AcDbSymbolTable
70
2
0
VPORT
5
1F4
100
AcDbSymbolTableRecord
100
AcDbViewportTableRecord
2
*ACTIVE
70
0
10
0.0
20
0.0
11
1.0
21
1.0
12
148.5000000000
22
105.0000000000
13
0.0
23
0.0
14
1.0
24
1.0
15
0.0
25
0.0
16
0.0
26
0.0
36
1.0
17
0.0
27
0.0
37
0.0
40
210.0000000000
41
1.4142857143
42
50.0
43
0.0
44
0.0
50
0.0
51
0.0
71
0
72
100
73
1
74
1
75
0
76
0
77
0
78
0
0
ENDTAB
0
TABLE
2
LTYPE
5
5
100
AcDbSymbolTable
70
6
0
LTYPE
5
14
100
AcDbSymbolTableRecord
100
AcDbLinetypeTableRecord
2
BYBLOCK
70
0
3

72
65
73
0
40
0.0
0
LTYPE
5
15
100
AcDbSymbolTableRecord
100
AcDbLinetypeTableRecord
2
BYLAYER
70
0
3

72
65
73
0
40
0.0
0
LTYPE
5
16
100
AcDbSymbolTableRecord
100
AcDbLinetypeTableRecord
2
CONTINUOUS
70
64
3
Solid line
72
65
73
0
40
0
0
LTYPE
5
1F5
100
AcDbSymbolTableRecord
100
AcDbLinetypeTableRecord
2
CENTER
70
64
3
____ _ ____ _ ____ _ ____ _ ____ _ ____ _ ____
72
65
73
4
40
0.6
49
0.375
74
0
49
-0.075
74
0
49
0.075
74
0
49
-0.075
74
0
0
LTYPE
5
1F6
100
AcDbSymbolTableRecord
100
AcDbLinetypeTableRecord
2
HIDDEN
70
64
3
- - - - - - - - - - - - - - - - - - - -
72
65
73
2
40
0.2
49
0.1
74
0
49
-0.1
74
0
0
LTYPE
5
1F7
100
AcDbSymbolTableRecord
100
AcDbLinetypeTableRecord
2
PHANTOM
70
64
3
_____ _ _ _____ _ _ _____ _ _ _____
72
65
73
6
40
0.8
49
0.45
74
0
49
-0.05
74
0
49
0.1
74
0
49
-0.05
74
0
49
0.1
74
0
49
-0.05
74
0
0
LTYPE
5
1F8
100
AcDbSymbolTableRecord
100
AcDbLinetypeTableRecord
2
DOT
70
64
3
. . . . . . . . . . . . . . . . . . . .
72
65
73
2
40
0.2
49
0.1
74
0
49
-0.1
74
0
0
LTYPE
5
1F9
100
AcDbSymbolTableRecord
100
AcDbLinetypeTableRecord
2
DASHED
70
64
3
- - - - - - - - - - - - - - - - - - - -
72
65
73
2
40
0.2
49
0.1
74
0
49
-0.1
74
0
0
ENDTAB
0
TABLE
2
LAYER
5
2
100
AcDbSymbolTable
70
36
0
LAYER
5
10
100
AcDbSymbolTableRecord
100
AcDbLayerTableRecord
2
0
70
0
62
7
6
CONTINUOUS
370
-3
390
F
0
LAYER
5
1FA
100
AcDbSymbolTableRecord
100
AcDbLayerTableRecord
2
DEFAULT_1
70
0
62
7
6
CENTER
370
-3
390
F
0
LAYER
5
1FB
100
AcDbSymbolTableRecord
100
AcDbLayerTableRecord
2
DEFAULT_2
70
0
62
8
6
HIDDEN
370
-3
390
F
0
LAYER
5
1FC
100
AcDbSymbolTableRecord
100
AcDbLayerTableRecord
2
DEFAULT_3
70
0
62
7
6
PHANTOM
370
-3
390
F
0
LAYER
5
1FD
100
AcDbSymbolTableRecord
100
AcDbLayerTableRecord
2
_BLACK_HOLE
70
0
62
7
6
CONTINUOUS
370
-3
390
F
0
LAYER
5
1FE
100
AcDbSymbolTableRecord
100
AcDbLayerTableRecord
2
ASSI
70
0
62
7
6
CONTINUOUS
370
-3
390
F
0
LAYER
5
1FF
100
AcDbSymbolTableRecord
100
AcDbLayerTableRecord
2
COORDINATE
70
0
62
7
6
CONTINUOUS
370
-3
390
F
0
LAYER
5
200
100
AcDbSymbolTableRecord
100
AcDbLayerTableRecord
2
COORD_ORIGINE
70
0
62
7
6
CONTINUOUS
370
-3
390
F
0
LAYER
5
201
100
AcDbSymbolTableRecord
100
AcDbLayerTableRecord
2
COPY_PUBLISH
70
0
62
7
6
CONTINUOUS
370
-3
390
F
0
LAYER
5
202
100
AcDbSymbolTableRecord
100
AcDbLayerTableRecord
2
COSMETIC
70
0
62
7
6
CONTINUOUS
370
-3
390
F
0
LAYER
5
203
100
AcDbSymbolTableRecord
100
AcDbLayerTableRecord
2
COSMETICHE
70
0
62
7
6
CONTINUOUS
370
-3
390
F
0
LAYER
5
204
100
AcDbSymbolTableRecord
100
AcDbLayerTableRecord
2
COSMETICI
70
0
62
7
6
CONTINUOUS
370
-3
390
F
0
LAYER
5
205
100
AcDbSymbolTableRecord
100
AcDbLayerTableRecord
2
CURVE
70
0
62
7
6
CONTINUOUS
370
-3
390
F
0
LAYER
5
206
100
AcDbSymbolTableRecord
100
AcDbLayerTableRecord
2
DRAFT
70
0
62
7
6
CONTINUOUS
370
-3
390
F
0
LAYER
5
207
100
AcDbSymbolTableRecord
100
AcDbLayerTableRecord
2
ESTENSIONE
70
0
62
7
6
CONTINUOUS
370
-3
390
F
0
LAYER
5
208
100
AcDbSymbolTableRecord
100
AcDbLayerTableRecord
2
IMPORT_FEATURES
70
0
62
7
6
CONTINUOUS
370
-3
390
F
0
LAYER
5
209
100
AcDbSymbolTableRecord
100
AcDbLayerTableRecord
2
IMPORT_IGES
70
0
62
7
6
CONTINUOUS
370
-3
390
F
0
LAYER
5
20A
100
AcDbSymbolTableRecord
100
AcDbLayerTableRecord
2
INTFCLR_1
70
0
62
7
6
CONTINUOUS
370
-3
390
F
0
LAYER
5
20B
100
AcDbSymbolTableRecord
100
AcDbLayerTableRecord
2
INTF_1
70
0
62
7
6
CONTINUOUS
370
-3
390
F
0
LAYER
5
20C
100
AcDbSymbolTableRecord
100
AcDbLayerTableRecord
2
INTF_7
70
0
62
7
6
CONTINUOUS
370
-3
390
F
0
LAYER
5
20D
100
AcDbSymbolTableRecord
100
AcDbLayerTableRecord
2
NOTE
70
0
62
7
6
CONTINUOUS
370
-3
390
F
0
LAYER
5
20E
100
AcDbSymbolTableRecord
100
AcDbLayerTableRecord
2
PIANI
70
0
62
7
6
CONTINUOUS
370
-3
390
F
0
LAYER
5
20F
100
AcDbSymbolTableRecord
100
AcDbLayerTableRecord
2
PIANI_ORIGINE
70
0
62
7
6
CONTINUOUS
370
-3
390
F
0
LAYER
5
210
100
AcDbSymbolTableRecord
100
AcDbLayerTableRecord
2
PUNTI
70
0
62
7
6
CONTINUOUS
370
-3
390
F
0
LAYER
5
211
100
AcDbSymbolTableRecord
100
AcDbLayerTableRecord
2
RACCORDO
70
0
62
7
6
CONTINUOUS
370
-3
390
F
0
LAYER
5
212
100
AcDbSymbolTableRecord
100
AcDbLayerTableRecord
2
RGB__255__255__255__
70
0
62
7
6
CONTINUOUS
370
-3
390
F
0
LAYER
5
213
100
AcDbSymbolTableRecord
100
AcDbLayerTableRecord
2
RGB____0____0____0__
70
0
62
7
6
CONTINUOUS
370
-3
390
F
0
LAYER
5
214
100
AcDbSymbolTableRecord
100
AcDbLayerTableRecord
2
SMUSSO
70
0
62
7
6
CONTINUOUS
370
-3
390
F
0
LAYER
5
215
100
AcDbSymbolTableRecord
100
AcDbLayerTableRecord
2
SNAPLINE
70
0
62
7
6
CONTINUOUS
370
-3
390
F
0
LAYER
5
216
100
AcDbSymbolTableRecord
100
AcDbLayerTableRecord
2
SUPERFICI
70
0
62
7
6
CONTINUOUS
370
-3
390
F
0
LAYER
5
217
100
AcDbSymbolTableRecord
100
AcDbLayerTableRecord
2
TRASH
70
0
62
7
6
CONTINUOUS
370
-3
390
F
0
LAYER
5
218
100
AcDbSymbolTableRecord
100
AcDbLayerTableRecord
2
XSEC_DATUMS
70
0
62
7
6
CONTINUOUS
370
-3
390
F
0
ENDTAB
0
TABLE
2
STYLE
5
3
100
AcDbSymbolTable
70
1
0
STYLE
5
11
100
AcDbSymbolTableRecord
100
AcDbTextStyleTableRecord
2
STANDARD
70
0
40
0.0
41
0.8000000000
50
0.0
71
0
42
0.2
3
txt
4

0
ENDTAB
0
TABLE
2
VIEW
5
6
100
AcDbSymbolTable
70
0
0
ENDTAB
0
TABLE
2
UCS
5
7
100
AcDbSymbolTable
70
0
0
ENDTAB
0
TABLE
2
APPID
5
9
100
AcDbSymbolTable
70
1
0
APPID
5
219
100
AcDbSymbolTableRecord
100
AcDbRegAppTableRecord
2
ACAD
70
0
0
ENDTAB
0
TABLE
2
BLOCK_RECORD
5
1
100
AcDbSymbolTable
70
0
0
BLOCK_RECORD
5
1F
100
AcDbSymbolTableRecord
100
AcDbBlockTableRecord
2
*MODEL_SPACE
0
BLOCK_RECORD
5
1B
100
AcDbSymbolTableRecord
100
AcDbBlockTableRecord
2
*PAPER_SPACE
0
BLOCK_RECORD
5
21A
100
AcDbSymbolTableRecord
100
AcDbBlockTableRecord
2
_FILLED
0
BLOCK_RECORD
5
21B
100
AcDbSymbolTableRecord
100
AcDbBlockTableRecord
2
*D0
0
BLOCK_RECORD
5
21C
100
AcDbSymbolTableRecord
100
AcDbBlockTableRecord
2
*D1
0
BLOCK_RECORD
5
21D
100
AcDbSymbolTableRecord
100
AcDbBlockTableRecord
2
*D2
0
BLOCK_RECORD
5
21E
100
AcDbSymbolTableRecord
100
AcDbBlockTableRecord
2
*D3
0
ENDTAB
0
TABLE
2
DIMSTYLE
5
A
100
AcDbSymbolTable
70
1
100
AcDbDimStyleTable
71
0
0
DIMSTYLE
105
21F
100
AcDbSymbolTableRecord
100
AcDbDimStyleTableRecord
2
STANDARD
70
0
3

4

40
1.0
41
3.0000000000
42
0.0625
43
0.38
44
0.18
45
0.0
46
0.0
47
0.0100000000
48
0.0100000000
140
3.0000000000
141
0.09
142
0.0
143
25.4
144
1.0000000000
145
0.0
146
1.0000000000
147
0.09
71
1
72
0
73
0
74
0
75
0
76
0
77
1
78
8
170
0
171
2
172
0
173
0
174
0
175
0
176
0
177
0
178
0
270
2
271
2
272
2
273
2
274
2
275
0
280
0
281
0
282
0
283
1
284
8
285
0
286
0
287
3
288
0
340
11
341
21A
342
21A
343
21A
344
21A
0
DIMSTYLE
105
220
100
AcDbSymbolTableRecord
100
AcDbDimStyleTableRecord
2
DIMSTYLE_1
70
0
3

4

40
1.0
41
3.0000000000
42
0.0625
43
0.38
44
0.18
45
0.0
46
0.0
47
0.0000000000
48
0.0000000000
140
3.0000000000
141
0.09
142
0.0
143
25.4
144
1.0000000000
145
0.0
146
1.0000000000
147
0.09
71
0
72
0
73
0
74
0
75
0
76
0
77
1
78
8
170
0
171
2
172
0
173
0
174
0
175
0
176
0
177
0
178
0
270
2
271
2
272
2
273
2
274
2
275
0
280
0
281
0
282
0
283
1
284
8
285
0
286
0
287
3
288
0
340
11
341
21A
342
21A
343
21A
344
21A
0
DIMSTYLE
105
221
100
AcDbSymbolTableRecord
100
AcDbDimStyleTableRecord
2
DIMSTYLE_2
70
0
3

4

40
1.0
41
3.0000000000
42
0.0625
43
0.38
44
0.18
45
0.0
46
0.0
47
0.0000000000
48
0.0000000000
140
3.0000000000
141
0.09
142
0.0
143
25.4
144
1.0000000000
145
0.0
146
1.0000000000
147
0.09
71
0
72
0
73
0
74
0
75
0
76
0
77
1
78
8
170
0
171
2
172
0
173
0
174
0
175
0
176
0
177
0
178
0
270
2
271
1
272
1
273
2
274
2
275
0
280
0
281
0
282
0
283
1
284
8
285
0
286
0
287
3
288
0
340
11
341
21A
342
21A
343
21A
344
21A
0
ENDTAB
0
ENDSEC
0
SECTION
2
BLOCKS
0
BLOCK
5
20
100
AcDbEntity
8
0
100
AcDbBlockBegin
2
*MODEL_SPACE
70
0
10
0.0
20
0.0
30
0.0
3
*MODEL_SPACE
1

0
ENDBLK
5
21
100
AcDbEntity
8
0
100
AcDbBlockEnd
0
BLOCK
5
1C
100
AcDbEntity
8
0
100
AcDbBlockBegin
2
*PAPER_SPACE
70
0
10
0.0
20
0.0
30
0.0
3
*PAPER_SPACE
1

0
ENDBLK
5
1D
100
AcDbEntity
8
0
100
AcDbBlockEnd
0
BLOCK
5
222
100
AcDbEntity
8
0
100
AcDbBlockBegin
62
2
6
CONTINUOUS
2
*D0
70
65
10
0.0000000000
20
0.0000000000
3
*D0
1

0
TEXT
5
223
100
AcDbEntity
8
0
100
AcDbText
62
2
6
CONTINUOUS
10
4.1807544745
20
39.2871383233
7
STANDARD
40
3.0000000000
1
44,8
41
0.7321428571
72
0
100
AcDbText
0
LINE
5
224
100
AcDbEntity
8
0
100
AcDbLine
62
2
6
CONTINUOUS
10
30.9736116174
20
27.3834239325
11
30.9736116174
21
40.0371383233
0
LINE
5
225
100
AcDbEntity
8
0
100
AcDbLine
62
2
6
CONTINUOUS
10
-13.8263883826
20
27.3834239325
11
-13.8263883826
21
40.0371383233
0
LINE
5
226
100
AcDbEntity
8
0
100
AcDbLine
62
2
6
CONTINUOUS
10
30.9736116174
20
38.5371383233
11
8.5736116174
21
38.5371383233
0
LINE
5
227
100
AcDbEntity
8
0
100
AcDbLine
62
2
6
CONTINUOUS
10
-13.8263883826
20
38.5371383233
11
8.5736116174
21
38.5371383233
0
INSERT
5
228
100
AcDbEntity
8
0
100
AcDbBlockReference
62
2
6
CONTINUOUS
2
_FILLED
10
30.9736116174
20
38.5371383233
41
  3.000000
42
  3.000000
43
  3.000000
0
INSERT
5
229
100
AcDbEntity
8
0
100
AcDbBlockReference
62
2
6
CONTINUOUS
2
_FILLED
10
-13.8263883826
20
38.5371383233
41
  3.000000
42
  3.000000
43
  3.000000
50
180.000000
0
ENDBLK
5
22A
100
AcDbEntity
8
0
6
BYBLOCK
62
0
100
AcDbBlockEnd
0
BLOCK
5
22B
100
AcDbEntity
8
0
100
AcDbBlockBegin
62
2
6
CONTINUOUS
2
*D1
70
65
10
0.0000000000
20
0.0000000000
3
*D1
1

0
TEXT
5
22C
100
AcDbEntity
8
0
100
AcDbText
62
2
6
CONTINUOUS
10
38.3736116174
20
2.6799954661
7
STANDARD
40
3.0000000000
1
47
50
90.0000000000
41
0.7857142857
72
0
100
AcDbText
0
LINE
5
22D
100
AcDbEntity
8
0
100
AcDbLine
62
2
6
CONTINUOUS
10
23.9984693840
20
28.5371383233
11
40.6236116174
21
28.5371383233
0
LINE
5
22E
100
AcDbEntity
8
0
100
AcDbLine
62
2
6
CONTINUOUS
10
23.9984692814
20
-18.4628616767
11
40.6236116174
21
-18.4628616767
0
LINE
5
22F
100
AcDbEntity
8
0
100
AcDbLine
62
2
6
CONTINUOUS
10
39.1236116174
20
28.5371383233
11
39.1236116174
21
5.0371383233
0
LINE
5
230
100
AcDbEntity
8
0
100
AcDbLine
62
2
6
CONTINUOUS
10
39.1236116174
20
-18.4628616767
11
39.1236116174
21
5.0371383233
0
INSERT
5
231
100
AcDbEntity
8
0
100
AcDbBlockReference
62
2
6
CONTINUOUS
2
_FILLED
10
39.1236116174
20
28.5371383233
41
  3.000000
42
  3.000000
43
  3.000000
50
 90.000000
0
INSERT
5
232
100
AcDbEntity
8
0
100
AcDbBlockReference
62
2
6
CONTINUOUS
2
_FILLED
10
39.1236116174
20
-18.4628616767
41
  3.000000
42
  3.000000
43
  3.000000
50
270.000000
0
ENDBLK
5
233
100
AcDbEntity
8
0
6
BYBLOCK
62
0
100
AcDbBlockEnd
0
BLOCK
5
234
100
AcDbEntity
8
0
100
AcDbBlockBegin
62
2
6
CONTINUOUS
2
*D2
70
65
10
0.0000000000
20
0.0000000000
3
*D2
1

0
TEXT
5
235
100
AcDbEntity
8
0
100
AcDbText
62
2
6
CONTINUOUS
10
-36.2319835632
20
39.2871383233
7
STANDARD
40
3.0000000000
1
23,1
41
0.6607142857
72
0
100
AcDbText
0
LINE
5
236
100
AcDbEntity
8
0
100
AcDbLine
62
2
6
CONTINUOUS
10
-20.7176978489
20
-3.8595246776
11
-20.7176978489
21
40.0371383233
0
LINE
5
237
100
AcDbEntity
8
0
100
AcDbLine
62
2
6
CONTINUOUS
10
-43.8176978489
20
27.8361307364
11
-43.8176978489
21
40.0371383233
0
LINE
5
238
100
AcDbEntity
8
0
100
AcDbLine
62
2
6
CONTINUOUS
10
-20.7176978489
20
38.5371383233
11
-32.2676978489
21
38.5371383233
0
LINE
5
239
100
AcDbEntity
8
0
100
AcDbLine
62
2
6
CONTINUOUS
10
-43.8176978489
20
38.5371383233
11
-32.2676978489
21
38.5371383233
0
INSERT
5
23A
100
AcDbEntity
8
0
100
AcDbBlockReference
62
2
6
CONTINUOUS
2
_FILLED
10
-20.7176978489
20
38.5371383233
41
  3.000000
42
  3.000000
43
  3.000000
0
INSERT
5
23B
100
AcDbEntity
8
0
100
AcDbBlockReference
62
2
6
CONTINUOUS
2
_FILLED
10
-43.8176978489
20
38.5371383233
41
  3.000000
42
  3.000000
43
  3.000000
50
180.000000
0
ENDBLK
5
23C
100
AcDbEntity
8
0
6
BYBLOCK
62
0
100
AcDbBlockEnd
0
BLOCK
5
23D
100
AcDbEntity
8
0
100
AcDbBlockBegin
62
2
6
CONTINUOUS
2
*D3
70
65
10
0.0000000000
20
0.0000000000
3
*D3
1

0
TEXT
5
23E
100
AcDbEntity
8
0
100
AcDbText
62
2
6
CONTINUOUS
10
-42.4382316225
20
49.2871383233
7
STANDARD
40
3.0000000000
1
34,9
41
0.7142857143
72
0
100
AcDbText
0
LINE
5
23F
100
AcDbEntity
8
0
100
AcDbLine
62
2
6
CONTINUOUS
10
-55.5873368246
20
26.0389414603
11
-55.5873368246
21
50.0371383233
0
LINE
5
240
100
AcDbEntity
8
0
100
AcDbLine
62
2
6
CONTINUOUS
10
-20.7176978489
20
-5.5628616767
11
-20.7176978489
21
50.0371383233
0
LINE
5
241
100
AcDbEntity
8
0
100
AcDbLine
62
2
6
CONTINUOUS
10
-55.5873368246
20
48.5371383233
11
-38.1525173367
21
48.5371383233
0
LINE
5
242
100
AcDbEntity
8
0
100
AcDbLine
62
2
6
CONTINUOUS
10
-20.7176978489
20
48.5371383233
11
-38.1525173367
21
48.5371383233
0
INSERT
5
243
100
AcDbEntity
8
0
100
AcDbBlockReference
62
2
6
CONTINUOUS
2
_FILLED
10
-55.5873368246
20
48.5371383233
41
  3.000000
42
  3.000000
43
  3.000000
50
180.000000
0
INSERT
5
244
100
AcDbEntity
8
0
100
AcDbBlockReference
62
2
6
CONTINUOUS
2
_FILLED
10
-20.7176978489
20
48.5371383233
41
  3.000000
42
  3.000000
43
  3.000000
0
ENDBLK
5
245
100
AcDbEntity
8
0
6
BYBLOCK
62
0
100
AcDbBlockEnd
0
BLOCK
5
246
100
AcDbEntity
8
0
100
AcDbBlockBegin
2
_FILLED
70
64
10
0.0000000000
20
0.0000000000
3
_FILLED
1

0
SOLID
5
247
100
AcDbEntity
8
0
6
BYBLOCK
62
0
100
AcDbTrace
10
0.0000000000
20
0.0000000000
11
-1.0000000000
21
0.3166666667
12
-1.0000000000
22
-0.3166666667
13
-1.0000000000
23
-0.3166666667
0
ENDBLK
5
248
100
AcDbEntity
8
0
6
BYBLOCK
62
0
100
AcDbBlockEnd
0
ENDSEC
0
SECTION
2
ENTITIES
0
DIMENSION
5
249
100
AcDbEntity
8
0
100
AcDbDimension
62
2
6
CONTINUOUS
2
*D0
10
-13.8263883826
20
38.5371383233
11
8.5736116174
21
40.7871383233
70
160
3
DIMSTYLE_1
100
AcDbAlignedDimension
13
30.9736116174
23
27.3834239325
14
-13.8263883826
24
27.3834239325
50
180.000000
100
AcDbRotatedDimension
0
DIMENSION
5
24A
100
AcDbEntity
8
0
100
AcDbDimension
62
2
6
CONTINUOUS
2
*D1
10
39.1236116174
20
-18.4628616767
11
36.8736116174
21
5.0371383233
70
160
3
DIMSTYLE_1
100
AcDbAlignedDimension
13
23.9984693840
23
28.5371383233
14
23.9984692814
24
-18.4628616767
50
270.000000
100
AcDbRotatedDimension
0
DIMENSION
5
24B
100
AcDbEntity
8
0
100
AcDbDimension
62
2
6
CONTINUOUS
2
*D2
10
-43.8176978489
20
38.5371383233
11
-32.2676978489
21
40.7871383233
70
160
3
DIMSTYLE_1
100
AcDbAlignedDimension
13
-20.7176978489
23
-3.8595246776
14
-43.8176978489
24
27.8361307364
50
180.000000
100
AcDbRotatedDimension
0
DIMENSION
5
24C
100
AcDbEntity
8
0
100
AcDbDimension
62
2
6
CONTINUOUS
2
*D3
10
-20.7176978489
20
48.5371383233
11
-38.1525173367
21
50.7871383233
70
160
3
DIMSTYLE_2
100
AcDbAlignedDimension
13
-55.5873368246
23
26.0389414603
14
-20.7176978489
24
-5.5628616767
100
AcDbRotatedDimension
0
LWPOLYLINE
5
24D
100
AcDbEntity
8
0
100
AcDbPolyline
62
7
6
CONTINUOUS
90
22
70
0
10
-13.6678757220
20
-16.6859926621
10
-13.6571573183
20
-16.7063993443
10
-13.6448971327
20
-16.7272865467
10
-13.6314431522
20
-16.7478451187
10
-13.6167885403
20
-16.7679915338
10
-13.6009455074
20
-16.7876248555
10
-13.5839133597
20
-16.8066688660
10
-13.5657028784
20
-16.8250379831
10
-13.5463600278
20
-16.8426206240
10
-13.5259156429
20
-16.8593315166
10
-13.5043925335
20
-16.8750967453
10
-13.4818395045
20
-16.8898276771
10
-13.4582990712
20
-16.9034466303
10
-13.4338196393
20
-16.9158768658
10
-13.4084704845
20
-16.9270369362
10
-13.3823123340
20
-16.9368560069
10
-13.3554132331
20
-16.9452650526
10
-13.3278643296
20
-16.9521942692
10
-13.2997451590
20
-16.9575842827
10
-13.2711406413
20
-16.9613796393
10
-13.2421593500
20
-16.9635284426
10
-13.2196802065
20
-16.9640337456
0
LINE
5
24E
100
AcDbEntity
8
0
100
AcDbLine
62
7
6
CONTINUOUS
10
-13.6672990813
20
-16.6871820773
11
-13.7739595168
21
-16.4736335201
0
LINE
5
24F
100
AcDbEntity
8
0
100
AcDbLine
62
9
6
CONTINUOUS
10
-13.7199139896
20
-16.4645266075
11
-13.8263883826
21
-16.2513505324
0
LINE
5
250
100
AcDbEntity
8
0
100
AcDbLine
62
7
6
CONTINUOUS
10
-13.8263883826
20
26.8834239325
11
-13.8263883826
21
-16.2513505324
0
LWPOLYLINE
5
251
100
AcDbEntity
8
0
100
AcDbPolyline
62
7
6
CONTINUOUS
90
23
70
0
10
30.3669038210
20
-16.9640505570
10
30.3749245278
20
-16.9639862724
10
30.4046592561
20
-16.9626236530
10
30.4340753174
20
-16.9595197438
10
30.4630733158
20
-16.9547183012
10
30.4915153417
20
-16.9482794435
10
30.5193136133
20
-16.9402644751
10
30.5463862513
20
-16.9307387321
10
30.5726167967
20
-16.9197893903
10
30.5979385332
20
-16.9074952154
10
30.6222917350
20
-16.8939369373
10
30.6455866623
20
-16.8792214309
10
30.6677818569
20
-16.8634372472
10
30.6888408183
20
-16.8466742960
10
30.7087000949
20
-16.8290539063
10
30.7273436536
20
-16.8106683251
10
30.7447600233
20
-16.7916097031
10
30.7609133305
20
-16.7720074238
10
30.7758120196
20
-16.7519513894
10
30.7894690709
20
-16.7315291607
10
30.8018769984
20
-16.7108698090
10
30.8130815353
20
-16.6900248437
10
30.9211827515
20
-16.4736335201
0
LINE
5
252
100
AcDbEntity
8
0
100
AcDbLine
62
7
6
CONTINUOUS
10
-6.4650053403
20
-18.4628616767
11
-5.8741367462
21
-18.4628616767
0
LINE
5
253
100
AcDbEntity
8
0
100
AcDbLine
62
7
6
CONTINUOUS
10
0.5213599810
20
-18.4628616767
11
1.1122285751
21
-18.4628616767
0
LINE
5
254
100
AcDbEntity
8
0
100
AcDbLine
62
7
6
CONTINUOUS
10
16.1487539534
20
-18.4628616767
11
23.4984692814
21
-18.4628616767
0
LINE
5
255
100
AcDbEntity
8
0
100
AcDbLine
62
7
6
CONTINUOUS
10
16.3537913577
20
-17.4628616767
11
23.2934318771
21
-17.4628616767
0
LINE
5
256
100
AcDbEntity
8
0
100
AcDbLine
62
7
6
CONTINUOUS
10
23.0537700784
20
-17.3977718066
11
22.3702959885
21
-17.3977718066
0
LINE
5
257
100
AcDbEntity
8
0
100
AcDbLine
62
7
6
CONTINUOUS
10
21.8769272463
20
-17.3977718066
11
17.7702959885
21
-17.3977718066
0
LINE
5
258
100
AcDbEntity
8
0
100
AcDbLine
62
7
6
CONTINUOUS
10
17.2769272463
20
-17.3977718066
11
16.5934531564
21
-17.3977718066
0
LINE
5
259
100
AcDbEntity
8
0
100
AcDbLine
62
7
6
CONTINUOUS
10
25.2153864595
20
-17.3628616767
11
23.1236116174
21
-17.3628616767
0
LINE
5
25A
100
AcDbEntity
8
0
100
AcDbLine
62
7
6
CONTINUOUS
10
16.5236116174
20
-17.3628616767
11
14.4410876686
21
-17.3628616767
0
LINE
5
25B
100
AcDbEntity
8
0
100
AcDbLine
62
7
6
CONTINUOUS
10
2.7058369469
20
-17.3628616767
11
0.5213599810
21
-17.3628616767
0
LINE
5
25C
100
AcDbEntity
8
0
100
AcDbLine
62
7
6
CONTINUOUS
10
-5.8741367462
20
-17.3628616767
11
-8.0586137124
21
-17.3628616767
0
LINE
5
25D
100
AcDbEntity
8
0
100
AcDbLine
62
7
6
CONTINUOUS
10
17.2236116174
20
-17.3628616767
11
17.8236116174
21
-17.3628616767
0
LINE
5
25E
100
AcDbEntity
8
0
100
AcDbLine
62
7
6
CONTINUOUS
10
21.8236116174
20
-17.3628616767
11
22.4236116174
21
-17.3628616767
0
LINE
5
25F
100
AcDbEntity
8
0
100
AcDbLine
62
9
6
CONTINUOUS
10
14.4456595850
20
-17.3492845235
11
25.2108344385
21
-17.3492845235
0
LINE
5
260
100
AcDbEntity
8
0
100
AcDbLine
62
9
6
CONTINUOUS
10
-8.0901820023
20
-17.3215545887
11
-5.8878945874
21
-17.3215545887
0
LINE
5
261
100
AcDbEntity
8
0
100
AcDbLine
62
9
6
CONTINUOUS
10
2.7374052370
20
-17.3215545887
11
0.5351178222
21
-17.3215545887
0
LINE
5
262
100
AcDbEntity
8
0
100
AcDbLine
62
9
6
CONTINUOUS
10
14.4456595850
20
-17.1736888531
11
25.2108344385
21
-17.1736888531
0
LINE
5
263
100
AcDbEntity
8
0
100
AcDbLine
62
7
6
CONTINUOUS
10
0.4236116174
20
-17.1628616767
11
-5.7763883826
21
-17.1628616767
0
LINE
5
264
100
AcDbEntity
8
0
100
AcDbLine
62
9
6
CONTINUOUS
10
-8.0901820024
20
-17.1462025504
11
-5.8911768734
21
-17.1462025504
0
LINE
5
265
100
AcDbEntity
8
0
100
AcDbLine
62
9
6
CONTINUOUS
10
2.7374052372
20
-17.1462025504
11
0.5384001082
21
-17.1462025504
0
LINE
5
266
100
AcDbEntity
8
0
100
AcDbLine
62
7
6
CONTINUOUS
10
0.4515397213
20
-18.3930414170
11
0.5213599810
21
-18.4628616767
0
LINE
5
267
100
AcDbEntity
8
0
100
AcDbLine
62
9
6
CONTINUOUS
10
-13.2117269811
20
25.4934478761
11
-13.2117269811
21
-16.0927366085
0
LINE
5
268
100
AcDbEntity
8
0
100
AcDbLine
62
7
6
CONTINUOUS
10
-5.8878945874
20
27.3958312353
11
-5.8741367462
21
27.4371383233
0
LINE
5
269
100
AcDbEntity
8
0
100
AcDbLine
62
7
6
CONTINUOUS
10
0.4515397213
20
28.4673180636
11
0.5213599810
21
28.5371383233
0
LINE
5
26A
100
AcDbEntity
8
0
100
AcDbLine
62
7
6
CONTINUOUS
10
30.3669141744
20
-16.9640706553
11
-13.2196926679
21
-16.9640706553
0
LINE
5
26B
100
AcDbEntity
8
0
100
AcDbLine
62
9
6
CONTINUOUS
10
30.3589502159
20
-16.0927366085
11
-13.2117269811
21
-16.0927366085
0
LINE
5
26C
100
AcDbEntity
8
0
100
AcDbLine
62
7
6
CONTINUOUS
10
-5.8741367462
20
-17.3628616767
11
-5.8878945874
21
-17.3215545887
0
LINE
5
26D
100
AcDbEntity
8
0
100
AcDbLine
62
9
6
CONTINUOUS
10
-13.8263883826
20
26.8834239325
11
-13.7199139896
21
26.0333149560
0
LINE
5
26E
100
AcDbEntity
8
0
100
AcDbLine
62
9
6
CONTINUOUS
10
-13.3267689823
20
27.3817492628
11
-13.2199901420
21
26.5292095291
0
LINE
5
26F
100
AcDbEntity
8
0
100
AcDbLine
62
9
6
CONTINUOUS
10
-8.0901820024
20
-17.1462025504
11
-8.0901820024
21
-17.3215545887
0
LINE
5
270
100
AcDbEntity
8
0
100
AcDbLine
62
9
6
CONTINUOUS
10
-8.0901819614
20
27.3817492628
11
-8.0901820049
21
27.3958312353
0
LINE
5
271
100
AcDbEntity
8
0
100
AcDbLine
62
7
6
CONTINUOUS
10
16.5236116174
20
27.4371383233
11
16.5934531564
21
27.4720484531
0
LINE
5
272
100
AcDbEntity
8
0
100
AcDbLine
62
9
6
CONTINUOUS
10
27.0528567191
20
-11.8628616767
11
25.3234169605
21
-11.8628616767
0
LINE
5
273
100
AcDbEntity
8
0
100
AcDbLine
62
9
6
CONTINUOUS
10
24.3237868408
20
-11.8628616767
11
22.5943665157
21
-11.8628616767
0
LINE
5
274
100
AcDbEntity
8
0
100
AcDbLine
62
9
6
CONTINUOUS
10
27.2520956587
20
-11.6802928253
11
25.3236116174
21
-11.6802928253
0
LINE
5
275
100
AcDbEntity
8
0
100
AcDbLine
62
9
6
CONTINUOUS
10
24.3236116174
20
-11.6802928253
11
22.3951275761
21
-11.6802928253
0
LINE
5
276
100
AcDbEntity
8
0
100
AcDbLine
62
9
6
CONTINUOUS
10
17.0528567191
20
-10.9878616767
11
15.3234363940
21
-10.9878616767
0
LINE
5
277
100
AcDbEntity
8
0
100
AcDbLine
62
9
6
CONTINUOUS
10
14.3238062743
20
-10.9878616767
11
12.5943665157
21
-10.9878616767
0
LINE
5
278
100
AcDbEntity
8
0
100
AcDbLine
62
6
6
CONTINUOUS
10
21.3236116174
20
-10.8628616767
11
28.3236116174
21
-10.8628616767
0
LINE
5
279
100
AcDbEntity
8
0
100
AcDbLine
62
9
6
CONTINUOUS
10
17.2520956587
20
-10.8052928253
11
15.3236116174
21
-10.8052928253
0
LINE
5
27A
100
AcDbEntity
8
0
100
AcDbLine
62
9
6
CONTINUOUS
10
14.3236116174
20
-10.8052928253
11
12.3951275761
21
-10.8052928253
0
LINE
5
27B
100
AcDbEntity
8
0
100
AcDbLine
62
7
6
CONTINUOUS
10
16.5934531564
20
-17.3977718066
11
16.5236116174
21
-17.3628616767
0
LINE
5
27C
100
AcDbEntity
8
0
100
AcDbLine
62
7
6
CONTINUOUS
10
-5.8911768734
20
-17.1462025504
11
-5.8915672207
21
-16.9640706553
0
LINE
5
27D
100
AcDbEntity
8
0
100
AcDbLine
62
7
6
CONTINUOUS
10
-5.8741367462
20
28.5371383233
11
-5.8741367462
21
27.4371383233
0
LINE
5
27E
100
AcDbEntity
8
0
100
AcDbLine
62
7
6
CONTINUOUS
10
-5.8741367462
20
-18.4628616767
11
-5.8741367462
21
-17.3628616767
0
LINE
5
27F
100
AcDbEntity
8
0
100
AcDbLine
62
7
6
CONTINUOUS
10
-5.8043164865
20
28.4673180636
11
-5.8043164865
21
27.3817492628
0
LINE
5
280
100
AcDbEntity
8
0
100
AcDbLine
62
7
6
CONTINUOUS
10
-5.8043164865
20
-18.3930414170
11
-5.8043164865
21
-16.9640706553
0
LINE
5
281
100
AcDbEntity
8
0
100
AcDbLine
62
7
6
CONTINUOUS
10
-5.7763883826
20
-16.9640706553
11
-5.7763883826
21
-17.1628616767
0
LINE
5
282
100
AcDbEntity
8
0
100
AcDbLine
62
9
6
CONTINUOUS
10
21.3236116174
20
-10.0628616767
11
28.3236116174
21
-10.0628616767
0
LINE
5
283
100
AcDbEntity
8
0
100
AcDbLine
62
6
6
CONTINUOUS
10
11.3236116174
20
-9.9878616767
11
18.3236116174
21
-9.9878616767
0
LINE
5
284
100
AcDbEntity
8
0
100
AcDbLine
62
6
6
CONTINUOUS
10
23.6786116174
20
-9.9628616767
11
25.9686116174
21
-9.9628616767
0
LINE
5
285
100
AcDbEntity
8
0
100
AcDbLine
62
9
6
CONTINUOUS
10
28.1236116178
20
-9.8628616767
11
21.5236116170
21
-9.8628616767
0
LINE
5
286
100
AcDbEntity
8
0
100
AcDbLine
62
6
6
CONTINUOUS
10
26.4486116174
20
-9.6878616767
11
23.1986116174
21
-9.6878616767
0
LINE
5
287
100
AcDbEntity
8
0
100
AcDbLine
62
6
6
CONTINUOUS
10
26.5736116174
20
-9.5628616767
11
23.0736116174
21
-9.5628616767
0
LINE
5
288
100
AcDbEntity
8
0
100
AcDbLine
62
9
6
CONTINUOUS
10
11.3236116174
20
-9.1878616767
11
18.3236116174
21
-9.1878616767
0
LINE
5
289
100
AcDbEntity
8
0
100
AcDbLine
62
6
6
CONTINUOUS
10
13.6786116174
20
-9.0878616767
11
15.9686116174
21
-9.0878616767
0
LINE
5
28A
100
AcDbEntity
8
0
100
AcDbLine
62
9
6
CONTINUOUS
10
18.1236116178
20
-8.9878616767
11
11.5236116170
21
-8.9878616767
0
LINE
5
28B
100
AcDbEntity
8
0
100
AcDbLine
62
6
6
CONTINUOUS
10
16.4486116174
20
-8.8128616767
11
13.1986116174
21
-8.8128616767
0
LINE
5
28C
100
AcDbEntity
8
0
100
AcDbLine
62
6
6
CONTINUOUS
10
16.5736116174
20
-8.6878616767
11
13.0736116174
21
-8.6878616767
0
LINE
5
28D
100
AcDbEntity
8
0
100
AcDbLine
62
7
6
CONTINUOUS
10
31.1236116174
20
-5.4628616767
11
30.9736116174
21
-5.4628616767
0
LINE
5
28E
100
AcDbEntity
8
0
100
AcDbLine
62
6
6
CONTINUOUS
10
26.5736116174
20
-4.5809226767
11
23.0736116174
21
-4.5809226767
0
LINE
5
28F
100
AcDbEntity
8
0
100
AcDbLine
62
6
6
CONTINUOUS
10
26.2055506174
20
-4.2128616767
11
23.4416726174
21
-4.2128616767
0
LINE
5
290
100
AcDbEntity
8
0
100
AcDbLine
62
6
6
CONTINUOUS
10
16.5736116174
20
-3.7059226767
11
13.0736116174
21
-3.7059226767
0
LINE
5
291
100
AcDbEntity
8
0
100
AcDbLine
62
7
6
CONTINUOUS
10
0.4236116174
20
-16.9640706553
11
0.4236116174
21
-17.1628616767
0
LINE
5
292
100
AcDbEntity
8
0
100
AcDbLine
62
7
6
CONTINUOUS
10
0.4515397213
20
28.4673180636
11
0.4515397213
21
27.3817492628
0
LINE
5
293
100
AcDbEntity
8
0
100
AcDbLine
62
7
6
CONTINUOUS
10
0.4515397213
20
-18.3930414170
11
0.4515397213
21
-16.9640706553
0
LINE
5
294
100
AcDbEntity
8
0
100
AcDbLine
62
7
6
CONTINUOUS
10
0.5213599810
20
28.5371383233
11
0.5213599810
21
27.4371383233
0
LINE
5
295
100
AcDbEntity
8
0
100
AcDbLine
62
7
6
CONTINUOUS
10
0.5213599810
20
-18.4628616767
11
0.5213599810
21
-17.3628616767
0
LINE
5
296
100
AcDbEntity
8
0
100
AcDbLine
62
7
6
CONTINUOUS
10
0.5384001082
20
-17.1462025504
11
0.5387904555
21
-16.9640706553
0
LINE
5
297
100
AcDbEntity
8
0
100
AcDbLine
62
9
6
CONTINUOUS
10
31.0966856325
20
20.9951696808
11
31.1236116174
21
21.0044390535
0
LINE
5
298
100
AcDbEntity
8
0
100
AcDbLine
62
9
6
CONTINUOUS
10
26.0736116174
20
-3.3628616767
11
23.5736116174
21
-3.3628616767
0
LINE
5
299
100
AcDbEntity
8
0
100
AcDbLine
62
6
6
CONTINUOUS
10
16.2055506174
20
-3.3378616767
11
13.4416726174
21
-3.3378616767
0
LINE
5
29A
100
AcDbEntity
8
0
100
AcDbLine
62
9
6
CONTINUOUS
10
25.8736116174
20
-3.1628616767
11
23.7736116174
21
-3.1628616767
0
LINE
5
29B
100
AcDbEntity
8
0
100
AcDbLine
62
9
6
CONTINUOUS
10
16.0736116174
20
-2.4878616767
11
13.5736116174
21
-2.4878616767
0
LINE
5
29C
100
AcDbEntity
8
0
100
AcDbLine
62
9
6
CONTINUOUS
10
15.8736116174
20
-2.2878616767
11
13.7736116174
21
-2.2878616767
0
LINE
5
29D
100
AcDbEntity
8
0
100
AcDbLine
62
9
6
CONTINUOUS
10
31.0966856325
20
-10.9208930342
11
31.1236116174
21
-10.9301624070
0
LINE
5
29E
100
AcDbEntity
8
0
100
AcDbLine
62
6
6
CONTINUOUS
10
13.0736116174
20
-8.6878616767
11
13.1986116174
21
-8.8128616767
0
LINE
5
29F
100
AcDbEntity
8
0
100
AcDbLine
62
9
6
CONTINUOUS
10
2.7374052372
20
27.3958312353
11
2.7374051688
21
27.3817492628
0
LINE
5
2A0
100
AcDbEntity
8
0
100
AcDbLine
62
9
6
CONTINUOUS
10
2.7374052372
20
-17.3215545887
11
2.7374052372
21
-17.1462025504
0
LINE
5
2A1
100
AcDbEntity
8
0
100
AcDbLine
62
6
6
CONTINUOUS
10
16.4486116174
20
-8.8128616767
11
16.6236116174
21
-8.9878616767
0
LINE
5
2A2
100
AcDbEntity
8
0
100
AcDbLine
62
7
6
CONTINUOUS
10
0.5213599810
20
-17.3628616767
11
0.5351178222
21
-17.3215545887
0
LINE
5
2A3
100
AcDbEntity
8
0
100
AcDbLine
62
6
6
CONTINUOUS
10
16.2055506174
20
-3.3378616767
11
16.5736116174
21
-3.7059226767
0
LINE
5
2A4
100
AcDbEntity
8
0
100
AcDbLine
62
6
6
CONTINUOUS
10
23.0736116174
20
-9.5628616767
11
23.1986116174
21
-9.6878616767
0
LINE
5
2A5
100
AcDbEntity
8
0
100
AcDbLine
62
6
6
CONTINUOUS
10
15.9663065621
20
-9.0878616767
11
16.9136116174
21
-10.9878616767
0
LINE
5
2A6
100
AcDbEntity
8
0
100
AcDbLine
62
7
6
CONTINUOUS
10
0.5351178222
20
27.3958312353
11
0.5213599810
21
27.4371383233
0
LINE
5
2A7
100
AcDbEntity
8
0
100
AcDbLine
62
6
6
CONTINUOUS
10
12.3236116174
20
-9.9878616767
11
12.3951275761
21
-10.8052928253
0
LINE
5
2A8
100
AcDbEntity
8
0
100
AcDbLine
62
6
6
CONTINUOUS
10
26.4486116174
20
-9.6878616767
11
26.6236116174
21
-9.8628616767
0
LINE
5
2A9
100
AcDbEntity
8
0
100
AcDbLine
62
6
6
CONTINUOUS
10
11.3236116174
20
-9.9878616767
11
11.3236116174
21
-9.1878616767
0
LINE
5
2AA
100
AcDbEntity
8
0
100
AcDbLine
62
6
6
CONTINUOUS
10
13.0736116174
20
-8.6878616767
11
13.0736116174
21
-3.7059226767
0
LINE
5
2AB
100
AcDbEntity
8
0
100
AcDbLine
62
7
6
CONTINUOUS
10
16.4387393403
20
27.4371383233
11
16.4555511839
21
27.5152315560
0
LINE
5
2AC
100
AcDbEntity
8
0
100
AcDbLine
62
7
6
CONTINUOUS
10
16.4387393403
20
-17.3628616767
11
16.4555511839
21
-17.4409549095
0
LINE
5
2AD
100
AcDbEntity
8
0
100
AcDbLine
62
6
6
CONTINUOUS
10
13.5736116174
20
-3.3378616767
11
13.5736116174
21
-2.4878616767
0
LINE
5
2AE
100
AcDbEntity
8
0
100
AcDbLine
62
6
6
CONTINUOUS
10
13.7334166807
20
-9.0878616767
11
13.7334166807
21
-10.9878616767
0
LINE
5
2AF
100
AcDbEntity
8
0
100
AcDbLine
62
6
6
CONTINUOUS
10
14.3038881332
20
-10.9878616767
11
14.3038881332
21
-9.0878616767
0
LINE
5
2B0
100
AcDbEntity
8
0
100
AcDbLine
62
6
6
CONTINUOUS
10
14.3236116174
20
-9.9878616767
11
14.3236116174
21
-10.9878616767
0
LINE
5
2B1
100
AcDbEntity
8
0
100
AcDbLine
62
9
6
CONTINUOUS
10
14.4456595623
20
27.3817492628
11
14.4456595825
21
27.4235611700
0
LINE
5
2B2
100
AcDbEntity
8
0
100
AcDbLine
62
9
6
CONTINUOUS
10
14.4456595850
20
-17.1736888531
11
14.4456595850
21
-17.3492845235
0
LINE
5
2B3
100
AcDbEntity
8
0
100
AcDbLine
62
6
6
CONTINUOUS
10
14.4736116174
20
-9.0878616767
11
14.4736116174
21
-9.9878616767
0
LINE
5
2B4
100
AcDbEntity
8
0
100
AcDbLine
62
6
6
CONTINUOUS
10
15.1736116174
20
-9.0878616767
11
15.1736116174
21
-9.9878616767
0
LINE
5
2B5
100
AcDbEntity
8
0
100
AcDbLine
62
6
6
CONTINUOUS
10
15.3236116174
20
-10.9878616767
11
15.3236116174
21
-9.9878616767
0
LINE
5
2B6
100
AcDbEntity
8
0
100
AcDbLine
62
6
6
CONTINUOUS
10
15.3433351016
20
-10.9878616767
11
15.3433351016
21
-9.0878616767
0
LINE
5
2B7
100
AcDbEntity
8
0
100
AcDbLine
62
7
6
CONTINUOUS
10
-5.8043164865
20
-18.3930414170
11
-5.8741367462
21
-18.4628616767
0
LINE
5
2B8
100
AcDbEntity
8
0
100
AcDbLine
62
6
6
CONTINUOUS
10
26.2055506174
20
-4.2128616767
11
26.5736116174
21
-4.5809226767
0
LINE
5
2B9
100
AcDbEntity
8
0
100
AcDbLine
62
7
6
CONTINUOUS
10
-5.8043164865
20
28.4673180636
11
-5.8741367462
21
28.5371383233
0
LINE
5
2BA
100
AcDbEntity
8
0
100
AcDbLine
62
6
6
CONTINUOUS
10
15.9138065541
20
-9.0878616767
11
15.9138065541
21
-10.9878616767
0
LINE
5
2BB
100
AcDbEntity
8
0
100
AcDbLine
62
6
6
CONTINUOUS
10
16.0736116174
20
-3.3378616767
11
16.0736116174
21
-2.4878616767
0
LINE
5
2BC
100
AcDbEntity
8
0
100
AcDbLine
62
7
6
CONTINUOUS
10
16.3537913577
20
27.5371383233
11
16.3537913577
21
27.4371383233
0
LINE
5
2BD
100
AcDbEntity
8
0
100
AcDbLine
62
7
6
CONTINUOUS
10
16.3537913577
20
-17.4628616767
11
16.3537913577
21
-17.3628616767
0
LINE
5
2BE
100
AcDbEntity
8
0
100
AcDbLine
62
6
6
CONTINUOUS
10
16.5736116174
20
-8.6878616767
11
16.5736116174
21
-3.7059226767
0
LINE
5
2BF
100
AcDbEntity
8
0
100
AcDbLine
62
7
6
CONTINUOUS
10
16.5934531564
20
-17.4628616767
11
16.5934531564
21
-17.3977718066
0
LINE
5
2C0
100
AcDbEntity
8
0
100
AcDbLine
62
7
6
CONTINUOUS
10
16.5934531564
20
27.4720484531
11
16.5934531564
21
27.5371383233
0
LINE
5
2C1
100
AcDbEntity
8
0
100
AcDbLine
62
9
6
CONTINUOUS
10
25.2108344385
20
27.4235611700
11
25.2153864595
21
27.4371383233
0
LINE
5
2C2
100
AcDbEntity
8
0
100
AcDbLine
62
6
6
CONTINUOUS
10
26.9136116174
20
-11.8628616767
11
25.9663065621
21
-9.9628616767
0
LINE
5
2C3
100
AcDbEntity
8
0
100
AcDbLine
62
9
6
CONTINUOUS
10
25.5166997024
20
-17.2618540898
11
25.5121708229
21
-17.2480962313
0
LINE
5
2C4
100
AcDbEntity
8
0
100
AcDbLine
62
6
6
CONTINUOUS
10
18.3236116174
20
-9.9878616767
11
18.3236116174
21
-9.1878616767
0
LINE
5
2C5
100
AcDbEntity
8
0
100
AcDbLine
62
6
6
CONTINUOUS
10
17.3236116174
20
-9.9878616767
11
17.2520956587
21
-10.8052928253
0
LINE
5
2C6
100
AcDbEntity
8
0
100
AcDbLine
62
7
6
CONTINUOUS
10
23.2387393403
20
27.4371383233
11
23.2570201237
21
27.5220549753
0
LINE
5
2C7
100
AcDbEntity
8
0
100
AcDbLine
62
6
6
CONTINUOUS
10
12.7336116174
20
-10.9878616767
11
13.6809166727
21
-9.0878616767
0
LINE
5
2C8
100
AcDbEntity
8
0
100
AcDbLine
62
6
6
CONTINUOUS
10
13.4416726174
20
-3.3378616767
11
13.0736116174
21
-3.7059226767
0
LINE
5
2C9
100
AcDbEntity
8
0
100
AcDbLine
62
7
6
CONTINUOUS
10
30.9736116174
20
15.5371383233
11
31.1236116174
21
15.5371383233
0
LINE
5
2CA
100
AcDbEntity
8
0
100
AcDbLine
62
7
6
CONTINUOUS
10
23.2387393403
20
-17.3628616767
11
23.2570201237
21
-17.4477783288
0
LINE
5
2CB
100
AcDbEntity
8
0
100
AcDbLine
62
6
6
CONTINUOUS
10
22.3236116174
20
-10.8628616767
11
22.3951275761
21
-11.6802928253
0
LINE
5
2CC
100
AcDbEntity
8
0
100
AcDbLine
62
6
6
CONTINUOUS
10
21.3236116174
20
-10.8628616767
11
21.3236116174
21
-10.0628616767
0
LINE
5
2CD
100
AcDbEntity
8
0
100
AcDbLine
62
7
6
CONTINUOUS
10
16.4084838945
20
-17.3628616767
11
16.3902031111
21
-17.4477783288
0
LINE
5
2CE
100
AcDbEntity
8
0
100
AcDbLine
62
9
6
CONTINUOUS
10
14.1432743191
20
-17.2473001015
11
14.1387250380
21
-17.2610592842
0
LINE
5
2CF
100
AcDbEntity
8
0
100
AcDbLine
62
9
6
CONTINUOUS
10
14.4456595850
20
-17.3492845235
11
14.4410876686
21
-17.3628616767
0
LINE
5
2D0
100
AcDbEntity
8
0
100
AcDbLine
62
6
6
CONTINUOUS
10
13.1986116174
20
-8.8128616767
11
13.0236116174
21
-8.9878616767
0
LINE
5
2D1
100
AcDbEntity
8
0
100
AcDbLine
62
7
6
CONTINUOUS
10
16.4084838945
20
27.4371383233
11
16.3902031111
21
27.5220549753
0
LINE
5
2D2
100
AcDbEntity
8
0
100
AcDbLine
62
7
6
CONTINUOUS
10
23.0537700784
20
-17.4628616767
11
23.0537700784
21
-17.3977718066
0
LINE
5
2D3
100
AcDbEntity
8
0
100
AcDbLine
62
7
6
CONTINUOUS
10
23.0537700784
20
27.4720484531
11
23.0537700784
21
27.5371383233
0
LINE
5
2D4
100
AcDbEntity
8
0
100
AcDbLine
62
6
6
CONTINUOUS
10
23.0736116174
20
-9.5628616767
11
23.0736116174
21
-4.5809226767
0
LINE
5
2D5
100
AcDbEntity
8
0
100
AcDbLine
62
7
6
CONTINUOUS
10
23.2934318771
20
-17.3628616767
11
23.2934318771
21
-17.4628616767
0
LINE
5
2D6
100
AcDbEntity
8
0
100
AcDbLine
62
7
6
CONTINUOUS
10
23.2934318771
20
27.4371383233
11
23.2934318771
21
27.5371383233
0
LINE
5
2D7
100
AcDbEntity
8
0
100
AcDbLine
62
6
6
CONTINUOUS
10
23.5736116174
20
-4.2128616767
11
23.5736116174
21
-3.3628616767
0
LINE
5
2D8
100
AcDbEntity
8
0
100
AcDbLine
62
6
6
CONTINUOUS
10
23.7334166807
20
-9.9628616767
11
23.7334166807
21
-11.8628616767
0
LINE
5
2D9
100
AcDbEntity
8
0
100
AcDbLine
62
6
6
CONTINUOUS
10
24.3038881332
20
-11.8628616767
11
24.3038881332
21
-9.9628616767
0
LINE
5
2DA
100
AcDbEntity
8
0
100
AcDbLine
62
6
6
CONTINUOUS
10
24.3236116174
20
-10.8628616767
11
24.3236116174
21
-11.8628616767
0
LINE
5
2DB
100
AcDbEntity
8
0
100
AcDbLine
62
6
6
CONTINUOUS
10
24.4736116174
20
-9.9628616767
11
24.4736116174
21
-10.8628616767
0
LINE
5
2DC
100
AcDbEntity
8
0
100
AcDbLine
62
6
6
CONTINUOUS
10
16.5736116174
20
-8.6878616767
11
16.4486116174
21
-8.8128616767
0
LINE
5
2DD
100
AcDbEntity
8
0
100
AcDbLine
62
6
6
CONTINUOUS
10
25.1736116174
20
-9.9628616767
11
25.1736116174
21
-10.8628616767
0
LINE
5
2DE
100
AcDbEntity
8
0
100
AcDbLine
62
9
6
CONTINUOUS
10
25.2108344385
20
-17.1736888531
11
25.2108344410
21
-17.3492845235
0
LINE
5
2DF
100
AcDbEntity
8
0
100
AcDbLine
62
9
6
CONTINUOUS
10
25.2108344392
20
27.3817492628
11
25.2108344385
21
27.4235611700
0
LINE
5
2E0
100
AcDbEntity
8
0
100
AcDbLine
62
6
6
CONTINUOUS
10
25.3236116174
20
-11.8628616767
11
25.3236116174
21
-10.8628616767
0
LINE
5
2E1
100
AcDbEntity
8
0
100
AcDbLine
62
6
6
CONTINUOUS
10
25.3433351016
20
-11.8628616767
11
25.3433351016
21
-9.9628616767
0
LINE
5
2E2
100
AcDbEntity
8
0
100
AcDbLine
62
6
6
CONTINUOUS
10
25.9138065541
20
-9.9628616767
11
25.9138065541
21
-11.8628616767
0
LINE
5
2E3
100
AcDbEntity
8
0
100
AcDbLine
62
6
6
CONTINUOUS
10
26.0736116174
20
-4.2128616767
11
26.0736116174
21
-3.3628616767
0
LINE
5
2E4
100
AcDbEntity
8
0
100
AcDbLine
62
6
6
CONTINUOUS
10
26.5736116174
20
-9.5628616767
11
26.5736116174
21
-4.5809226767
0
LINE
5
2E5
100
AcDbEntity
8
0
100
AcDbLine
62
6
6
CONTINUOUS
10
23.4416726174
20
-4.2128616767
11
23.0736116174
21
-4.5809226767
0
LINE
5
2E6
100
AcDbEntity
8
0
100
AcDbLine
62
6
6
CONTINUOUS
10
28.3236116174
20
-10.8628616767
11
28.3236116174
21
-10.0628616767
0
LINE
5
2E7
100
AcDbEntity
8
0
100
AcDbLine
62
6
6
CONTINUOUS
10
27.3236116174
20
-10.8628616767
11
27.2520956587
21
-11.6802928253
0
LINE
5
2E8
100
AcDbEntity
8
0
100
AcDbLine
62
9
6
CONTINUOUS
10
30.4739922171
20
27.3817492628
11
30.3672133768
21
26.5292095291
0
LINE
5
2E9
100
AcDbEntity
8
0
100
AcDbLine
62
9
6
CONTINUOUS
10
30.9736116174
20
26.8834239325
11
30.8671372244
21
26.0333149560
0
LINE
5
2EA
100
AcDbEntity
8
0
100
AcDbLine
62
7
6
CONTINUOUS
10
23.2084838945
20
-17.3628616767
11
23.1916720509
21
-17.4409549095
0
LINE
5
2EB
100
AcDbEntity
8
0
100
AcDbLine
62
6
6
CONTINUOUS
10
23.6809166727
20
-9.9628616767
11
22.7336116174
21
-11.8628616767
0
LINE
5
2EC
100
AcDbEntity
8
0
100
AcDbLine
62
9
6
CONTINUOUS
10
-13.2117269811
20
25.4934478761
11
30.3589502159
21
25.4934478761
0
LINE
5
2ED
100
AcDbEntity
8
0
100
AcDbLine
62
7
6
CONTINUOUS
10
23.2084838945
20
27.4371383233
11
23.1916720509
21
27.5152315560
0
LINE
5
2EE
100
AcDbEntity
8
0
100
AcDbLine
62
9
6
CONTINUOUS
10
31.0966856325
20
-10.9208930342
11
31.0850705133
21
-5.5014027808
0
LINE
5
2EF
100
AcDbEntity
8
0
100
AcDbLine
62
9
6
CONTINUOUS
10
30.3589502159
20
25.4934478761
11
30.3589502159
21
-16.0927366085
0
LINE
5
2F0
100
AcDbEntity
8
0
100
AcDbLine
62
7
6
CONTINUOUS
10
30.9736116174
20
26.8834239325
11
30.9736116174
21
-16.2513505324
0
LINE
5
2F1
100
AcDbEntity
8
0
100
AcDbLine
62
7
6
CONTINUOUS
10
31.1236116174
20
-10.9301624070
11
31.1236116174
21
-5.4628616767
0
LINE
5
2F2
100
AcDbEntity
8
0
100
AcDbLine
62
7
6
CONTINUOUS
10
31.1236116174
20
15.5371383233
11
31.1236116174
21
21.0044390535
0
LINE
5
2F3
100
AcDbEntity
8
0
100
AcDbLine
62
9
6
CONTINUOUS
10
31.0850705133
20
15.5756794274
11
31.0966856325
21
20.9951696808
0
LINE
5
2F4
100
AcDbEntity
8
0
100
AcDbLine
62
6
6
CONTINUOUS
10
23.1986116174
20
-9.6878616767
11
23.0236116174
21
-9.8628616767
0
LINE
5
2F5
100
AcDbEntity
8
0
100
AcDbLine
62
9
6
CONTINUOUS
10
-13.2199901420
20
26.5292095291
11
30.3672133768
21
26.5292095291
0
LINE
5
2F6
100
AcDbEntity
8
0
100
AcDbLine
62
7
6
CONTINUOUS
10
30.4739922171
20
27.3817492628
11
-13.3267689823
21
27.3817492628
0
LINE
5
2F7
100
AcDbEntity
8
0
100
AcDbLine
62
9
6
CONTINUOUS
10
0.5351178222
20
27.3958312353
11
2.7374052370
21
27.3958312353
0
LINE
5
2F8
100
AcDbEntity
8
0
100
AcDbLine
62
9
6
CONTINUOUS
10
-5.8878945874
20
27.3958312353
11
-8.0901820023
21
27.3958312353
0
LINE
5
2F9
100
AcDbEntity
8
0
100
AcDbLine
62
9
6
CONTINUOUS
10
25.2108344385
20
27.4235611700
11
14.4456595850
21
27.4235611700
0
LINE
5
2FA
100
AcDbEntity
8
0
100
AcDbLine
62
7
6
CONTINUOUS
10
25.2153864595
20
27.4371383233
11
23.1236116174
21
27.4371383233
0
LINE
5
2FB
100
AcDbEntity
8
0
100
AcDbLine
62
7
6
CONTINUOUS
10
16.5236116174
20
27.4371383233
11
14.4410876686
21
27.4371383233
0
LINE
5
2FC
100
AcDbEntity
8
0
100
AcDbLine
62
7
6
CONTINUOUS
10
2.7058369472
20
27.4371383233
11
0.5213599810
21
27.4371383233
0
LINE
5
2FD
100
AcDbEntity
8
0
100
AcDbLine
62
7
6
CONTINUOUS
10
-5.8741367462
20
27.4371383233
11
-8.0586137121
21
27.4371383233
0
LINE
5
2FE
100
AcDbEntity
8
0
100
AcDbLine
62
7
6
CONTINUOUS
10
17.2236116174
20
27.4371383233
11
17.8236116174
21
27.4371383233
0
LINE
5
2FF
100
AcDbEntity
8
0
100
AcDbLine
62
7
6
CONTINUOUS
10
21.8236116174
20
27.4371383233
11
22.4236116174
21
27.4371383233
0
LINE
5
300
100
AcDbEntity
8
0
100
AcDbLine
62
7
6
CONTINUOUS
10
23.0537700784
20
27.4720484531
11
22.3702959885
21
27.4720484531
0
LINE
5
301
100
AcDbEntity
8
0
100
AcDbLine
62
7
6
CONTINUOUS
10
21.8769272463
20
27.4720484531
11
17.7702959885
21
27.4720484531
0
LINE
5
302
100
AcDbEntity
8
0
100
AcDbLine
62
7
6
CONTINUOUS
10
17.2769272463
20
27.4720484531
11
16.5934531564
21
27.4720484531
0
LINE
5
303
100
AcDbEntity
8
0
100
AcDbLine
62
7
6
CONTINUOUS
10
16.3537913577
20
27.5371383233
11
23.2934318771
21
27.5371383233
0
LINE
5
304
100
AcDbEntity
8
0
100
AcDbLine
62
6
6
CONTINUOUS
10
26.5736116174
20
-9.5628616767
11
26.4486116174
21
-9.6878616767
0
LINE
5
305
100
AcDbEntity
8
0
100
AcDbLine
62
7
6
CONTINUOUS
10
31.1236116174
20
-5.4628616767
11
31.0850705133
21
-5.5014027808
0
LINE
5
306
100
AcDbEntity
8
0
100
AcDbLine
62
7
6
CONTINUOUS
10
1.1122285751
20
28.5371383233
11
0.5213599810
21
28.5371383233
0
LINE
5
307
100
AcDbEntity
8
0
100
AcDbLine
62
7
6
CONTINUOUS
10
-5.8741367462
20
28.5371383233
11
-6.4650053403
21
28.5371383233
0
LINE
5
308
100
AcDbEntity
8
0
100
AcDbLine
62
7
6
CONTINUOUS
10
16.1487538508
20
28.5371383233
11
23.4984693840
21
28.5371383233
0
LINE
5
309
100
AcDbEntity
8
0
100
AcDbLine
62
7
6
CONTINUOUS
10
31.1236116174
20
15.5371383233
11
31.0850705133
21
15.5756794274
0
LINE
5
30A
100
AcDbEntity
8
0
100
AcDbLine
62
7
6
CONTINUOUS
10
23.0537700784
20
-17.3977718066
11
23.1236116174
21
-17.3628616767
0
LINE
5
30B
100
AcDbEntity
8
0
100
AcDbLine
62
7
6
CONTINUOUS
10
23.1236116174
20
27.4371383233
11
23.0537700784
21
27.4720484531
0
LINE
5
30C
100
AcDbEntity
8
0
100
AcDbLine
62
9
6
CONTINUOUS
10
30.8671372244
20
-16.4645266075
11
30.9736116174
21
-16.2513505324
0
LINE
5
30D
100
AcDbEntity
8
0
100
AcDbLine
62
7
6
CONTINUOUS
10
-39.8176978489
20
-18.3930414170
11
-43.8176978489
21
-18.4628616767
0
LINE
5
30E
100
AcDbEntity
8
0
100
AcDbLine
62
9
6
CONTINUOUS
10
-39.8176978489
20
-18.2259690385
11
-43.8176978489
21
-18.2962213342
0
LINE
5
30F
100
AcDbEntity
8
0
100
AcDbLine
62
7
6
CONTINUOUS
10
-37.6682023650
20
-17.1628616767
11
-38.2176978489
21
-17.1628616767
0
LINE
5
310
100
AcDbEntity
8
0
100
AcDbLine
62
7
6
CONTINUOUS
10
-44.5955324377
20
-17.3492845235
11
-43.8176978489
21
-17.3628616767
0
LINE
5
311
100
AcDbEntity
8
0
100
AcDbLine
62
9
6
CONTINUOUS
10
-43.8176978489
20
-17.2618540898
11
-44.6029934500
21
-17.2480962313
0
LINE
5
312
100
AcDbEntity
8
0
100
AcDbLine
62
7
6
CONTINUOUS
10
-44.8428002769
20
-16.7481541624
11
-45.4525601460
21
-16.6948070864
0
LINE
5
313
100
AcDbEntity
8
0
100
AcDbLine
62
7
6
CONTINUOUS
10
-49.6603745169
20
27.3817492628
11
-45.7993751132
21
-16.7496758627
0
LINE
5
314
100
AcDbEntity
8
0
100
AcDbLine
62
9
6
CONTINUOUS
10
-47.7487485260
20
5.5317642037
11
-45.8246162199
21
21.2025642777
0
LINE
5
315
100
AcDbEntity
8
0
100
AcDbLine
62
7
6
CONTINUOUS
10
-47.5027341751
20
5.1590076667
11
-44.7905511868
21
27.2479654997
0
LINE
5
316
100
AcDbEntity
8
0
100
AcDbLine
62
9
6
CONTINUOUS
10
-47.3077154261
20
5.1346337980
11
-45.3602864920
21
20.9951696808
0
LINE
5
317
100
AcDbEntity
8
CURVE
100
AcDbLine
62
2
6
CONTINUOUS
10
-42.1171493384
20
20.7502184105
11
-41.9438071347
21
20.9235606142
0
LINE
5
318
100
AcDbEntity
8
CURVE
100
AcDbLine
62
2
6
CONTINUOUS
10
-42.1171493384
20
20.3301969825
11
-41.9155310341
21
20.5318152868
0
LINE
5
319
100
AcDbEntity
8
CURVE
100
AcDbLine
62
2
6
CONTINUOUS
10
-42.1171493384
20
19.9101755545
11
-41.9155310341
21
20.1117938588
0
LINE
5
31A
100
AcDbEntity
8
CURVE
100
AcDbLine
62
2
6
CONTINUOUS
10
-41.3434269634
20
20.6838979295
11
-41.1717782115
21
20.8555466813
0
LINE
5
31B
100
AcDbEntity
8
CURVE
100
AcDbLine
62
2
6
CONTINUOUS
10
-41.9265799533
20
19.6807235115
11
-41.6870849392
21
19.9202185256
0
LINE
5
31C
100
AcDbEntity
8
CURVE
100
AcDbLine
62
2
6
CONTINUOUS
10
-41.3434269634
20
20.2638765015
11
-41.1418086590
21
20.4654948058
0
LINE
5
31D
100
AcDbEntity
8
CURVE
100
AcDbLine
62
2
6
CONTINUOUS
10
-42.0752575496
20
19.1120244873
11
-41.8917746268
21
19.2955074100
0
LINE
5
31E
100
AcDbEntity
8
CURVE
100
AcDbLine
62
2
6
CONTINUOUS
10
-41.5065585253
20
19.6807235115
11
-41.1418086590
21
20.0454733778
0
LINE
5
31F
100
AcDbEntity
8
CURVE
100
AcDbLine
62
2
6
CONTINUOUS
10
-40.5193161532
20
20.6679658836
11
-40.3176978489
21
20.8695841879
0
LINE
5
320
100
AcDbEntity
8
CURVE
100
AcDbLine
62
2
6
CONTINUOUS
10
-41.7608978365
20
19.0063627722
11
-41.5819931157
21
19.1852674931
0
LINE
5
321
100
AcDbEntity
8
CURVE
100
AcDbLine
62
2
6
CONTINUOUS
10
-41.0865370973
20
19.6807235115
11
-40.8470420832
21
19.9202185256
0
LINE
5
322
100
AcDbEntity
8
CURVE
100
AcDbLine
62
2
6
CONTINUOUS
10
-40.5193161532
20
20.2479444556
11
-40.3176978489
21
20.4495627599
0
LINE
5
323
100
AcDbEntity
8
CURVE
100
AcDbLine
62
2
6
CONTINUOUS
10
-41.4465381235
20
18.9007010572
11
-41.2722116046
21
19.0750275762
0
LINE
5
324
100
AcDbEntity
8
CURVE
100
AcDbLine
62
2
6
CONTINUOUS
10
-40.6665156693
20
19.6807235115
11
-40.3176978489
21
20.0295413318
0
LINE
5
325
100
AcDbEntity
8
CURVE
100
AcDbLine
62
2
6
CONTINUOUS
10
-42.0897266236
20
17.8374911291
11
-41.7033568259
21
18.2238609268
0
LINE
5
326
100
AcDbEntity
8
CURVE
100
AcDbLine
62
2
6
CONTINUOUS
10
-41.1321784105
20
18.7950393422
11
-40.9624300935
21
18.9647876593
0
LINE
5
327
100
AcDbEntity
8
0
100
AcDbLine
62
7
6
CONTINUOUS
10
-51.9213942656
20
-16.9634614823
11
-45.7993751132
21
-16.7496758627
0
LINE
5
328
100
AcDbEntity
8
0
100
AcDbLine
62
9
6
CONTINUOUS
10
-51.9475370113
20
-16.4645266075
11
-45.8429729303
21
-16.2513505324
0
LINE
5
329
100
AcDbEntity
8
0
100
AcDbLine
62
7
6
CONTINUOUS
10
-35.8468430510
20
-16.0935501484
11
-39.6211883302
21
-16.1594315903
0
LINE
5
32A
100
AcDbEntity
8
0
100
AcDbLine
62
7
6
CONTINUOUS
10
-23.2089716457
20
-14.1759401655
11
-33.6349225654
21
-14.3579258158
0
LINE
5
32B
100
AcDbEntity
8
0
100
AcDbLine
62
9
6
CONTINUOUS
10
-45.7302692073
20
-11.8966823862
11
-47.4476711324
21
2.0904338478
0
LINE
5
32C
100
AcDbEntity
8
0
100
AcDbLine
62
7
6
CONTINUOUS
10
-44.7905511868
20
-17.1736888531
11
-47.5027341751
21
4.9152689799
0
LINE
5
32D
100
AcDbEntity
8
0
100
AcDbLine
62
9
6
CONTINUOUS
10
-45.3602864920
20
-10.9208930342
11
-47.3077154261
21
4.9396428486
0
LINE
5
32E
100
AcDbEntity
8
0
100
AcDbLine
62
7
6
CONTINUOUS
10
-45.8176978489
20
-16.2963292071
11
-45.8176978489
21
-16.0293941463
0
LINE
5
32F
100
AcDbEntity
8
0
100
AcDbLine
62
7
6
CONTINUOUS
10
-45.8176978489
20
26.1036707929
11
-45.8176978489
21
26.3706058537
0
LINE
5
330
100
AcDbEntity
8
0
100
AcDbLine
62
9
6
CONTINUOUS
10
-45.4525601460
20
-16.6948070864
11
-45.4525601460
21
-15.6309162671
0
LINE
5
331
100
AcDbEntity
8
0
100
AcDbLine
62
9
6
CONTINUOUS
10
-45.4525601460
20
25.7051929136
11
-45.4525601460
21
26.7690837329
0
LINE
5
332
100
AcDbEntity
8
CURVE
100
AcDbLine
62
9
6
CONTINUOUS
10
-38.7983496471
20
19.2228525920
11
-38.6912394753
21
19.3657099051
0
LINE
5
333
100
AcDbEntity
8
CURVE
100
AcDbLine
62
9
6
CONTINUOUS
10
-38.4770189976
20
19.9014239354
11
-38.6912394753
21
19.6871383233
0
LINE
5
334
100
AcDbEntity
8
CURVE
100
AcDbLine
62
9
6
CONTINUOUS
10
-39.1196803412
20
18.6157099051
11
-39.3339007742
21
18.4014239354
0
LINE
5
335
100
AcDbEntity
8
CURVE
100
AcDbLine
62
9
6
CONTINUOUS
10
-38.0485781093
20
19.1514239354
11
-37.8343576540
21
19.3657099051
0
LINE
5
336
100
AcDbEntity
8
CURVE
100
AcDbLine
62
9
6
CONTINUOUS
10
-39.1196803412
20
17.4371383233
11
-39.3339007742
21
17.2228525324
0
LINE
5
337
100
AcDbEntity
8
CURVE
100
AcDbLine
62
9
6
CONTINUOUS
10
-38.0485781093
20
18.0799955172
11
-37.8343576540
21
18.2942811293
0
LINE
5
338
100
AcDbEntity
8
CURVE
100
AcDbLine
62
2
6
CONTINUOUS
10
-42.1171493384
20
17.3900469863
11
-41.9155310341
21
17.5916652907
0
LINE
5
339
100
AcDbEntity
8
CURVE
100
AcDbLine
62
2
6
CONTINUOUS
10
-41.4404988713
20
18.0666974534
11
-41.0767590467
21
18.4304372780
0
LINE
5
33A
100
AcDbEntity
8
CURVE
100
AcDbLine
62
2
6
CONTINUOUS
10
-40.8178186975
20
18.6893776272
11
-40.6526485823
21
18.8545477424
0
LINE
5
33B
100
AcDbEntity
8
CURVE
100
AcDbLine
62
2
6
CONTINUOUS
10
-42.1171493384
20
16.9700255583
11
-41.9155310341
21
17.1716438626
0
LINE
5
33C
100
AcDbEntity
8
CURVE
100
AcDbLine
62
2
6
CONTINUOUS
10
-40.7912711190
20
18.2959037777
11
-40.3428670712
21
18.7443078255
0
LINE
5
33D
100
AcDbEntity
8
CURVE
100
AcDbLine
62
2
6
CONTINUOUS
10
-42.1171493384
20
16.5500041303
11
-41.9155310341
21
16.7516224346
0
LINE
5
33E
100
AcDbEntity
8
CURVE
100
AcDbLine
62
2
6
CONTINUOUS
10
-41.3434269634
20
17.3237265053
11
-41.1418086590
21
17.5253448096
0
LINE
5
33F
100
AcDbEntity
8
CURVE
100
AcDbLine
62
2
6
CONTINUOUS
10
-41.8738994054
20
16.3732326352
11
-41.6344054501
21
16.6127265906
0
LINE
5
340
100
AcDbEntity
8
CURVE
100
AcDbLine
62
2
6
CONTINUOUS
10
-41.3434269634
20
16.9037050773
11
-41.1418086590
21
17.1053233816
0
LINE
5
341
100
AcDbEntity
8
CURVE
100
AcDbLine
62
2
6
CONTINUOUS
10
-42.1171493384
20
15.7099612742
11
-41.9555008487
21
15.8716097639
0
LINE
5
342
100
AcDbEntity
8
CURVE
100
AcDbLine
62
2
6
CONTINUOUS
10
-41.4538779774
20
16.3732326352
11
-41.1418086590
21
16.6853019536
0
LINE
5
343
100
AcDbEntity
8
CURVE
100
AcDbLine
62
2
6
CONTINUOUS
10
-40.5193161532
20
17.3077944594
11
-40.3176978489
21
17.5094127637
0
LINE
5
344
100
AcDbEntity
8
CURVE
100
AcDbLine
62
2
6
CONTINUOUS
10
-41.7636056291
20
15.6434835555
11
-41.5354794207
21
15.8716097639
0
LINE
5
345
100
AcDbEntity
8
CURVE
100
AcDbLine
62
2
6
CONTINUOUS
10
-41.0338565494
20
16.3732326352
11
-40.7943625940
21
16.6127265906
0
LINE
5
346
100
AcDbEntity
8
CURVE
100
AcDbLine
62
2
6
CONTINUOUS
10
-40.5193161532
20
16.8877730314
11
-40.3176978489
21
17.0893913357
0
LINE
5
347
100
AcDbEntity
8
CURVE
100
AcDbLine
62
2
6
CONTINUOUS
10
-41.3450295127
20
15.6420382439
11
-41.1154579927
21
15.8716097639
0
LINE
5
348
100
AcDbEntity
8
CURVE
100
AcDbLine
62
2
6
CONTINUOUS
10
-40.6138351213
20
16.3732326352
11
-40.3176978489
21
16.6693699076
0
LINE
5
349
100
AcDbEntity
8
CURVE
100
AcDbLine
62
2
6
CONTINUOUS
10
-42.1171493384
20
14.4498969902
11
-41.4268990985
21
15.1401472300
0
LINE
5
34A
100
AcDbEntity
8
CURVE
100
AcDbLine
62
2
6
CONTINUOUS
10
-40.9264533963
20
15.6405929323
11
-40.6954365646
21
15.8716097639
0
LINE
5
34B
100
AcDbEntity
8
CURVE
100
AcDbLine
62
2
6
CONTINUOUS
10
-41.7098865772
20
14.4371383233
11
-41.4789317308
21
14.6680931698
0
LINE
5
34C
100
AcDbEntity
8
CURVE
100
AcDbLine
62
2
6
CONTINUOUS
10
-40.9480988045
20
15.1989260960
11
-40.3176978489
21
15.8293270516
0
LINE
5
34D
100
AcDbEntity
8
CURVE
100
AcDbLine
62
9
6
CONTINUOUS
10
-39.1196803412
20
19.8299956364
11
-39.3339007742
21
19.6871383233
0
LINE
5
34E
100
AcDbEntity
8
CURVE
100
AcDbLine
62
9
6
CONTINUOUS
10
-38.9054599083
20
18.7228527112
11
-39.1196803412
21
18.6157099051
0
LINE
5
34F
100
AcDbEntity
8
CURVE
100
AcDbLine
62
9
6
CONTINUOUS
10
-40.3176978489
20
18.4630962431
11
-42.1171493384
21
17.8278096890
0
LINE
5
350
100
AcDbEntity
8
CURVE
100
AcDbLine
62
9
6
CONTINUOUS
10
-42.1171493384
20
18.0874420786
11
-40.5571188576
21
18.6017519199
0
LINE
5
351
100
AcDbEntity
8
0
100
AcDbLine
62
9
6
CONTINUOUS
10
-52.4608307554
20
-16.0291641706
11
-52.9479688013
21
-16.0927349318
0
LINE
5
352
100
AcDbEntity
8
0
100
AcDbLine
62
7
6
CONTINUOUS
10
-44.9850024661
20
-15.5900102706
11
-45.4525601460
21
-15.6309162671
0
LINE
5
353
100
AcDbEntity
8
0
100
AcDbLine
62
6
6
CONTINUOUS
10
-30.5910375370
20
-11.8628616767
11
-30.5901869550
21
-11.8628616767
0
LINE
5
354
100
AcDbEntity
8
0
100
AcDbLine
62
9
6
CONTINUOUS
10
-26.2452493510
20
-11.8628616767
11
-30.5901869550
21
-11.8628616767
0
LINE
5
355
100
AcDbEntity
8
0
100
AcDbLine
62
9
6
CONTINUOUS
10
-26.0412436123
20
-11.6802928253
11
-30.7941520855
21
-11.6802928253
0
LINE
5
356
100
AcDbEntity
8
0
100
AcDbLine
62
9
6
CONTINUOUS
10
-45.2241353817
20
-12.1528707835
11
-43.8176978489
21
-12.1608082421
0
LINE
5
357
100
AcDbEntity
8
0
100
AcDbLine
62
7
6
CONTINUOUS
10
-45.4034076660
20
-12.9595151526
11
-46.1332008515
21
-12.9340302130
0
LINE
5
358
100
AcDbEntity
8
0
100
AcDbLine
62
7
6
CONTINUOUS
10
-46.1377666332
20
-12.8818430895
11
-45.5700595785
21
-12.9016678567
0
LINE
5
359
100
AcDbEntity
8
0
100
AcDbLine
62
9
6
CONTINUOUS
10
-46.2254699497
20
-11.8793895952
11
-45.7302692073
21
-11.8966823862
0
LINE
5
35A
100
AcDbEntity
8
0
100
AcDbLine
62
7
6
CONTINUOUS
10
-43.8176978489
20
-18.4628616767
11
-43.8176978489
21
-17.6695788540
0
LINE
5
35B
100
AcDbEntity
8
0
100
AcDbLine
62
7
6
CONTINUOUS
10
-43.8176978489
20
-17.6260282987
11
-43.8176978489
21
28.5371383233
0
LINE
5
35C
100
AcDbEntity
8
CURVE
100
AcDbLine
62
9
6
CONTINUOUS
10
-42.1171493384
20
14.4371383233
11
-42.1171493384
21
14.6917649552
0
LINE
5
35D
100
AcDbEntity
8
CURVE
100
AcDbLine
62
9
6
CONTINUOUS
10
-42.1171493384
20
15.6447043151
11
-42.1171493384
21
15.8716097639
0
LINE
5
35E
100
AcDbEntity
8
CURVE
100
AcDbLine
62
9
6
CONTINUOUS
10
-42.1171493384
20
16.3732326352
11
-42.1171493384
21
17.6160856191
0
LINE
5
35F
100
AcDbEntity
8
CURVE
100
AcDbLine
62
9
6
CONTINUOUS
10
-42.1171493384
20
17.8278096890
11
-42.1171493384
21
18.0874420786
0
LINE
5
360
100
AcDbEntity
8
CURVE
100
AcDbLine
62
9
6
CONTINUOUS
10
-42.1171493384
20
19.1261050392
11
-42.1171493384
21
19.3757100321
0
LINE
5
361
100
AcDbEntity
8
CURVE
100
AcDbLine
62
9
6
CONTINUOUS
10
-42.1171493384
20
19.6807235115
11
-42.1171493384
21
20.9235606142
0
LINE
5
362
100
AcDbEntity
8
CURVE
100
AcDbLine
62
9
6
CONTINUOUS
10
-42.0330783907
20
-4.4044814863
11
-42.0330783907
21
-5.7044814863
0
LINE
5
363
100
AcDbEntity
8
CURVE
100
AcDbLine
62
9
6
CONTINUOUS
10
-41.9155310341
20
20.9235606142
11
-41.9155310341
21
19.9202185256
0
LINE
5
364
100
AcDbEntity
8
CURVE
100
AcDbLine
62
9
6
CONTINUOUS
10
-41.9155310341
20
17.6160856191
11
-41.9155310341
21
16.6127265906
0
LINE
5
365
100
AcDbEntity
8
CURVE
100
AcDbLine
62
9
6
CONTINUOUS
10
-41.3434269634
20
16.6127265906
11
-41.3434269634
21
17.5480219251
0
LINE
5
366
100
AcDbEntity
8
CURVE
100
AcDbLine
62
9
6
CONTINUOUS
10
-41.3434269634
20
19.9202185256
11
-41.3434269634
21
20.8555466813
0
LINE
5
367
100
AcDbEntity
8
CURVE
100
AcDbLine
62
9
6
CONTINUOUS
10
-41.2869997054
20
3.4573953233
11
-41.2869997054
21
3.0168813233
0
LINE
5
368
100
AcDbEntity
8
CURVE
100
AcDbLine
62
9
6
CONTINUOUS
10
-41.1418086590
20
20.8555466813
11
-41.1418086590
21
19.9202185256
0
LINE
5
369
100
AcDbEntity
8
CURVE
100
AcDbLine
62
9
6
CONTINUOUS
10
-41.1418086590
20
17.5480219251
11
-41.1418086590
21
16.6127265906
0
LINE
5
36A
100
AcDbEntity
8
CURVE
100
AcDbLine
62
9
6
CONTINUOUS
10
-39.3339007742
20
16.1514241142
11
-39.1196803412
21
16.3657097263
0
LINE
5
36B
100
AcDbEntity
8
CURVE
100
AcDbLine
62
9
6
CONTINUOUS
10
-38.0485781093
20
16.9014241142
11
-37.8343576540
21
17.1157097263
0
LINE
5
36C
100
AcDbEntity
8
CURVE
100
AcDbLine
62
9
6
CONTINUOUS
10
-38.4770189976
20
15.8299954278
11
-38.6912394753
21
15.6157097263
0
LINE
5
36D
100
AcDbEntity
8
CURVE
100
AcDbLine
62
9
6
CONTINUOUS
10
-39.1196803412
20
15.0799954725
11
-39.3339007742
21
14.8657097710
0
LINE
5
36E
100
AcDbEntity
8
CURVE
100
AcDbLine
62
9
6
CONTINUOUS
10
-38.0485781093
20
14.5442811852
11
-37.8343576540
21
14.7585668979
0
LINE
5
36F
100
AcDbEntity
8
CURVE
100
AcDbLine
62
2
6
CONTINUOUS
10
-41.2898651492
20
14.4371383233
11
-41.0603755954
21
14.6666278771
0
LINE
5
370
100
AcDbEntity
8
CURVE
100
AcDbLine
62
2
6
CONTINUOUS
10
-40.8698437212
20
14.4371383233
11
-40.6418194599
21
14.6651625845
0
LINE
5
371
100
AcDbEntity
8
CURVE
100
AcDbLine
62
2
6
CONTINUOUS
10
-40.4498222932
20
14.4371383233
11
-40.3176978489
21
14.5692627675
0
LINE
5
372
100
AcDbEntity
8
CURVE
100
AcDbLine
62
9
6
CONTINUOUS
10
-40.3176978489
20
15.6094173231
11
-41.7617905809
21
14.6690834097
0
LINE
5
373
100
AcDbEntity
8
CURVE
100
AcDbLine
62
9
6
CONTINUOUS
10
-42.1171493384
20
14.6917649552
11
-40.6579285390
21
15.6396657363
0
LINE
5
374
100
AcDbEntity
8
CURVE
100
AcDbLine
62
9
6
CONTINUOUS
10
-38.2627985646
20
17.9728527112
11
-38.0485781093
21
18.0799955172
0
LINE
5
375
100
AcDbEntity
8
CURVE
100
AcDbLine
62
9
6
CONTINUOUS
10
-38.9054599083
20
17.5442811293
11
-39.1196803412
21
17.4371383233
0
LINE
5
376
100
AcDbEntity
8
CURVE
100
AcDbLine
62
9
6
CONTINUOUS
10
-38.2627985646
20
16.7942811293
11
-38.0485781093
21
16.9014241142
0
LINE
5
377
100
AcDbEntity
8
CURVE
100
AcDbLine
62
9
6
CONTINUOUS
10
-38.9054599083
20
15.1871383233
11
-39.1196803412
21
15.0799954725
0
LINE
5
378
100
AcDbEntity
8
0
100
AcDbLine
62
7
6
CONTINUOUS
10
-22.5281648887
20
-10.9029286752
11
-21.0019967890
21
-10.8229455943
0
LINE
5
379
100
AcDbEntity
8
0
100
AcDbLine
62
6
6
CONTINUOUS
10
-26.0444471341
20
-10.9878616767
11
-26.0452087428
21
-10.9878616767
0
LINE
5
37A
100
AcDbEntity
8
0
100
AcDbLine
62
9
6
CONTINUOUS
10
-26.0452087428
20
-10.9878616767
11
-30.3901463468
21
-10.9878616767
0
LINE
5
37B
100
AcDbEntity
8
0
100
AcDbLine
62
9
6
CONTINUOUS
10
-22.7176978489
20
-10.9570629110
11
-23.2089716457
21
-10.9570629094
0
LINE
5
37C
100
AcDbEntity
8
0
100
AcDbLine
62
6
6
CONTINUOUS
10
-31.9176978489
20
-10.8628616767
11
-24.9176978489
21
-10.8628616767
0
LINE
5
37D
100
AcDbEntity
8
0
100
AcDbLine
62
9
6
CONTINUOUS
10
-25.8412436123
20
-10.8052928253
11
-30.5941520855
21
-10.8052928253
0
LINE
5
37E
100
AcDbEntity
8
CURVE
100
AcDbLine
62
9
6
CONTINUOUS
10
-39.0839769208
20
-10.1628616767
11
-40.5835200411
21
-10.1628616767
0
LINE
5
37F
100
AcDbEntity
8
0
100
AcDbLine
62
9
6
CONTINUOUS
10
-31.9176978489
20
-10.0628616767
11
-24.9176978489
21
-10.0628616767
0
LINE
5
380
100
AcDbEntity
8
0
100
AcDbLine
62
6
6
CONTINUOUS
10
-31.7176978489
20
-9.9878616767
11
-24.7176978489
21
-9.9878616767
0
LINE
5
381
100
AcDbEntity
8
0
100
AcDbLine
62
6
6
CONTINUOUS
10
-27.2726978489
20
-9.9628616767
11
-29.5626978489
21
-9.9628616767
0
LINE
5
382
100
AcDbEntity
8
0
100
AcDbLine
62
9
6
CONTINUOUS
10
-25.1176978485
20
-9.8628616767
11
-31.7176978493
21
-9.8628616767
0
LINE
5
383
100
AcDbEntity
8
0
100
AcDbLine
62
6
6
CONTINUOUS
10
-26.7926978489
20
-9.6878616767
11
-30.0426978489
21
-9.6878616767
0
LINE
5
384
100
AcDbEntity
8
0
100
AcDbLine
62
6
6
CONTINUOUS
10
-26.6676978489
20
-9.5628616767
11
-30.1676978489
21
-9.5628616767
0
LINE
5
385
100
AcDbEntity
8
0
100
AcDbLine
62
9
6
CONTINUOUS
10
-31.7176978489
20
-9.1878616767
11
-24.7176978489
21
-9.1878616767
0
LINE
5
386
100
AcDbEntity
8
0
100
AcDbLine
62
6
6
CONTINUOUS
10
-27.0726978489
20
-9.0878616767
11
-29.3626978489
21
-9.0878616767
0
LINE
5
387
100
AcDbEntity
8
0
100
AcDbLine
62
9
6
CONTINUOUS
10
-24.9176978485
20
-8.9878616767
11
-31.5176978493
21
-8.9878616767
0
LINE
5
388
100
AcDbEntity
8
0
100
AcDbLine
62
6
6
CONTINUOUS
10
-26.5926978489
20
-8.8128616767
11
-29.8426978489
21
-8.8128616767
0
LINE
5
389
100
AcDbEntity
8
0
100
AcDbLine
62
6
6
CONTINUOUS
10
-26.4676978489
20
-8.6878616767
11
-29.9676978489
21
-8.6878616767
0
LINE
5
38A
100
AcDbEntity
8
0
100
AcDbLine
62
9
6
CONTINUOUS
10
-45.3602864920
20
-10.9208930342
11
-43.8176978489
21
-10.9301624070
0
LINE
5
38B
100
AcDbEntity
8
CURVE
100
AcDbLine
62
9
6
CONTINUOUS
10
-41.3332916012
20
-3.4461012960
11
-39.8337484810
21
-6.6628616767
0
LINE
5
38C
100
AcDbEntity
8
CURVE
100
AcDbLine
62
9
6
CONTINUOUS
10
-40.5193161532
20
16.6127265906
11
-40.5193161532
21
17.6236514280
0
LINE
5
38D
100
AcDbEntity
8
CURVE
100
AcDbLine
62
9
6
CONTINUOUS
10
-40.5193161532
20
19.9202185256
11
-40.5193161532
21
20.9311761843
0
LINE
5
38E
100
AcDbEntity
8
CURVE
100
AcDbLine
62
9
6
CONTINUOUS
10
-40.3176978489
20
20.9311761843
11
-40.3176978489
21
19.6807235115
0
LINE
5
38F
100
AcDbEntity
8
CURVE
100
AcDbLine
62
9
6
CONTINUOUS
10
-40.3176978489
20
18.7353510192
11
-40.3176978489
21
18.4630962431
0
LINE
5
390
100
AcDbEntity
8
CURVE
100
AcDbLine
62
9
6
CONTINUOUS
10
-40.3176978489
20
17.6236514280
11
-40.3176978489
21
16.3732326352
0
LINE
5
391
100
AcDbEntity
8
CURVE
100
AcDbLine
62
9
6
CONTINUOUS
10
-40.3176978489
20
15.8716097639
11
-40.3176978489
21
15.6094173231
0
LINE
5
392
100
AcDbEntity
8
CURVE
100
AcDbLine
62
9
6
CONTINUOUS
10
-40.3176978489
20
14.6640278908
11
-40.3176978489
21
14.4371383233
0
LINE
5
393
100
AcDbEntity
8
CURVE
100
AcDbLine
62
9
6
CONTINUOUS
10
-40.2086342610
20
13.1546943233
11
-40.2086342610
21
11.6941943233
0
LINE
5
394
100
AcDbEntity
8
CURVE
100
AcDbLine
62
9
6
CONTINUOUS
10
-39.8337484810
20
-1.6628616767
11
-39.8337484810
21
-3.6628616767
0
LINE
5
395
100
AcDbEntity
8
CURVE
100
AcDbLine
62
9
6
CONTINUOUS
10
-39.8337484810
20
-6.6628616767
11
-39.8337484810
21
-8.6628616767
0
LINE
5
396
100
AcDbEntity
8
0
100
AcDbLine
62
7
6
CONTINUOUS
10
-39.8176978489
20
-18.3930414170
11
-39.8176978489
21
-16.3594011293
0
LINE
5
397
100
AcDbEntity
8
0
100
AcDbLine
62
7
6
CONTINUOUS
10
-39.8176978489
20
26.4336777759
11
-39.8176978489
21
28.4673180636
0
LINE
5
398
100
AcDbEntity
8
CURVE
100
AcDbLine
62
9
6
CONTINUOUS
10
-39.4588627009
20
11.6941943233
11
-39.4588627009
21
13.1546943233
0
LINE
5
399
100
AcDbEntity
8
CURVE
100
AcDbLine
62
9
6
CONTINUOUS
10
-39.3339007742
20
19.6871383233
11
-39.3339007742
21
19.3657099051
0
LINE
5
39A
100
AcDbEntity
8
CURVE
100
AcDbLine
62
9
6
CONTINUOUS
10
-39.3339007742
20
18.4014239354
11
-39.3339007742
21
18.2942811293
0
LINE
5
39B
100
AcDbEntity
8
CURVE
100
AcDbLine
62
9
6
CONTINUOUS
10
-39.3339007742
20
17.2228525324
11
-39.3339007742
21
17.1157097263
0
LINE
5
39C
100
AcDbEntity
8
CURVE
100
AcDbLine
62
9
6
CONTINUOUS
10
-39.3339007742
20
14.8657097710
11
-39.3339007742
21
14.7585668979
0
LINE
5
39D
100
AcDbEntity
8
CURVE
100
AcDbLine
62
9
6
CONTINUOUS
10
-39.3339007742
20
15.8299954278
11
-39.3339007742
21
16.1514241142
0
LINE
5
39E
100
AcDbEntity
8
CURVE
100
AcDbLine
62
9
6
CONTINUOUS
10
-39.0839769208
20
-9.6271473782
11
-39.0839769208
21
-10.1628616767
0
LINE
5
39F
100
AcDbEntity
8
CURVE
100
AcDbLine
62
9
6
CONTINUOUS
10
-38.6912394753
20
19.6871383233
11
-38.6912394753
21
19.3657099051
0
LINE
5
3A0
100
AcDbEntity
8
CURVE
100
AcDbLine
62
9
6
CONTINUOUS
10
-38.4770189976
20
16.2942812485
11
-38.4770189976
21
15.8299954278
0
LINE
5
3A1
100
AcDbEntity
8
CURVE
100
AcDbLine
62
9
6
CONTINUOUS
10
-38.3804972565
20
3.4573953233
11
-38.3804972565
21
3.0168813233
0
LINE
5
3A2
100
AcDbEntity
8
CURVE
100
AcDbLine
62
9
6
CONTINUOUS
10
-38.2627985646
20
14.4371383233
11
-38.0485781093
21
14.5442811852
0
LINE
5
3A3
100
AcDbEntity
8
0
100
AcDbLine
62
9
6
CONTINUOUS
10
-20.7176978489
20
-8.1628616767
11
-22.7176978489
21
-8.1628616767
0
LINE
5
3A4
100
AcDbEntity
8
0
100
AcDbLine
62
9
6
CONTINUOUS
10
-20.7176978489
20
-6.0628616767
11
-22.7176978489
21
-6.0628616767
0
LINE
5
3A5
100
AcDbEntity
8
CURVE
100
AcDbLine
62
9
6
CONTINUOUS
10
-42.0330783907
20
-5.7044814863
11
-41.2333220599
21
-5.7044814863
0
LINE
5
3A6
100
AcDbEntity
8
0
100
AcDbLine
62
6
6
CONTINUOUS
10
-30.1676978489
20
-9.5628616767
11
-30.0426978489
21
-9.6878616767
0
LINE
5
3A7
100
AcDbEntity
8
0
100
AcDbLine
62
6
6
CONTINUOUS
10
-29.9676978489
20
-8.6878616767
11
-29.8426978489
21
-8.8128616767
0
LINE
5
3A8
100
AcDbEntity
8
CURVE
100
AcDbLine
62
9
6
CONTINUOUS
10
-40.5835200411
20
-0.2342902290
11
-40.1550791751
21
-0.6628616767
0
LINE
5
3A9
100
AcDbEntity
8
CURVE
100
AcDbLine
62
9
6
CONTINUOUS
10
-39.8337484810
20
3.2371383233
11
-40.7518607512
21
4.4202693233
0
LINE
5
3AA
100
AcDbEntity
8
0
100
AcDbLine
62
7
6
CONTINUOUS
10
-38.2176978489
20
27.2371383233
11
-38.2176978489
21
26.2092102194
0
LINE
5
3AB
100
AcDbEntity
8
0
100
AcDbLine
62
7
6
CONTINUOUS
10
-38.2176978489
20
-17.1628616767
11
-38.2176978489
21
-16.1349335728
0
LINE
5
3AC
100
AcDbEntity
8
CURVE
100
AcDbLine
62
9
6
CONTINUOUS
10
-37.8344266329
20
3.2371383233
11
-37.8344266329
21
3.7128923233
0
LINE
5
3AD
100
AcDbEntity
8
CURVE
100
AcDbLine
62
9
6
CONTINUOUS
10
-37.8343576540
20
14.7585668979
11
-37.8343576540
21
14.8657097710
0
LINE
5
3AE
100
AcDbEntity
8
CURVE
100
AcDbLine
62
9
6
CONTINUOUS
10
-37.8343576540
20
17.1157097263
11
-37.8343576540
21
17.2228525324
0
LINE
5
3AF
100
AcDbEntity
8
CURVE
100
AcDbLine
62
9
6
CONTINUOUS
10
-37.8343576540
20
18.2942811293
11
-37.8343576540
21
18.4014239354
0
LINE
5
3B0
100
AcDbEntity
8
CURVE
100
AcDbLine
62
9
6
CONTINUOUS
10
-37.8343576540
20
19.3657099051
11
-37.8343576540
21
19.6871383233
0
LINE
5
3B1
100
AcDbEntity
8
CURVE
100
AcDbLine
62
9
6
CONTINUOUS
10
-40.7518607512
20
2.0540073233
11
-39.8337484810
21
3.2371383233
0
LINE
5
3B2
100
AcDbEntity
8
0
100
AcDbLine
62
7
6
CONTINUOUS
10
-43.8176978489
20
-5.4628616767
11
-46.2233042338
21
-5.5048516924
0
LINE
5
3B3
100
AcDbEntity
8
CURVE
100
AcDbLine
62
9
6
CONTINUOUS
10
-42.0330783907
20
-5.0544814863
11
-41.5332306839
21
-5.0544814863
0
LINE
5
3B4
100
AcDbEntity
8
CURVE
100
AcDbLine
62
9
6
CONTINUOUS
10
-41.2833068306
20
-5.0544814863
11
-40.5835200411
21
-5.0544814863
0
LINE
5
3B5
100
AcDbEntity
8
0
100
AcDbLine
62
6
6
CONTINUOUS
10
-26.6676978489
20
-4.5809226767
11
-30.1676978489
21
-4.5809226767
0
LINE
5
3B6
100
AcDbEntity
8
CURVE
100
AcDbLine
62
9
6
CONTINUOUS
10
-41.2333220599
20
-4.4044814863
11
-42.0330783907
21
-4.4044814863
0
LINE
5
3B7
100
AcDbEntity
8
0
100
AcDbLine
62
6
6
CONTINUOUS
10
-27.0357588489
20
-4.2128616767
11
-29.7996368489
21
-4.2128616767
0
LINE
5
3B8
100
AcDbEntity
8
0
100
AcDbLine
62
6
6
CONTINUOUS
10
-26.4676978489
20
-3.7059226767
11
-29.9676978489
21
-3.7059226767
0
LINE
5
3B9
100
AcDbEntity
8
0
100
AcDbLine
62
9
6
CONTINUOUS
10
-27.1676978489
20
-3.3628616767
11
-29.6676978489
21
-3.3628616767
0
LINE
5
3BA
100
AcDbEntity
8
0
100
AcDbLine
62
6
6
CONTINUOUS
10
-26.8357588489
20
-3.3378616767
11
-29.5996368489
21
-3.3378616767
0
LINE
5
3BB
100
AcDbEntity
8
0
100
AcDbLine
62
9
6
CONTINUOUS
10
-27.3676978489
20
-3.1628616767
11
-29.4676978489
21
-3.1628616767
0
LINE
5
3BC
100
AcDbEntity
8
0
100
AcDbLine
62
7
6
CONTINUOUS
10
-22.5281650176
20
-3.3227946715
11
-21.0019967361
21
-3.4027777620
0
LINE
5
3BD
100
AcDbEntity
8
0
100
AcDbLine
62
6
6
CONTINUOUS
10
-26.7926978489
20
-9.6878616767
11
-26.6176978489
21
-9.8628616767
0
LINE
5
3BE
100
AcDbEntity
8
0
100
AcDbLine
62
6
6
CONTINUOUS
10
-26.5926978489
20
-8.8128616767
11
-26.4176978489
21
-8.9878616767
0
LINE
5
3BF
100
AcDbEntity
8
0
100
AcDbLine
62
9
6
CONTINUOUS
10
-26.9676978489
20
-2.4878616767
11
-29.4676978489
21
-2.4878616767
0
LINE
5
3C0
100
AcDbEntity
8
0
100
AcDbLine
62
9
6
CONTINUOUS
10
-27.1676978489
20
-2.2878616767
11
-29.2676978489
21
-2.2878616767
0
LINE
5
3C1
100
AcDbEntity
8
0
100
AcDbLine
62
7
6
CONTINUOUS
10
-22.7176978489
20
-1.4723816767
11
-22.6176978489
21
-1.4723816767
0
LINE
5
3C2
100
AcDbEntity
8
CURVE
100
AcDbLine
62
9
6
CONTINUOUS
10
-39.0839769208
20
-0.2342902290
11
-40.5835200411
21
-0.2342902290
0
LINE
5
3C3
100
AcDbEntity
8
0
100
AcDbLine
62
6
6
CONTINUOUS
10
-27.0357588489
20
-4.2128616767
11
-26.6676978489
21
-4.5809226767
0
LINE
5
3C4
100
AcDbEntity
8
0
100
AcDbLine
62
6
6
CONTINUOUS
10
-26.8357588489
20
-3.3378616767
11
-26.4676978489
21
-3.7059226767
0
LINE
5
3C5
100
AcDbEntity
8
0
100
AcDbLine
62
6
6
CONTINUOUS
10
-27.2750029042
20
-9.9628616767
11
-26.8262794570
21
-10.8628616767
0
LINE
5
3C6
100
AcDbEntity
8
0
100
AcDbLine
62
6
6
CONTINUOUS
10
-26.6262794570
20
-9.9878616767
11
-27.0750029042
21
-9.0878616767
0
LINE
5
3C7
100
AcDbEntity
8
0
100
AcDbLine
62
9
6
CONTINUOUS
10
-32.6089716457
20
24.4821818997
11
-32.6089716457
21
22.3325766913
0
LINE
5
3C8
100
AcDbEntity
8
0
100
AcDbLine
62
9
6
CONTINUOUS
10
-32.6089716457
20
21.0886847398
11
-32.6089716457
21
14.8784869548
0
LINE
5
3C9
100
AcDbEntity
8
0
100
AcDbLine
62
7
6
CONTINUOUS
10
-32.1176978489
20
24.1325588865
11
-32.1176978489
21
14.8784869548
0
LINE
5
3CA
100
AcDbEntity
8
0
100
AcDbLine
62
6
6
CONTINUOUS
10
-31.9176978489
20
-10.8628616767
11
-31.9176978489
21
-10.0628616767
0
LINE
5
3CB
100
AcDbEntity
8
0
100
AcDbLine
62
6
6
CONTINUOUS
10
-31.7176978489
20
-9.9878616767
11
-31.7176978489
21
-9.1878616767
0
LINE
5
3CC
100
AcDbEntity
8
0
100
AcDbLine
62
6
6
CONTINUOUS
10
-30.1676978489
20
-9.5628616767
11
-30.1676978489
21
-4.5809226767
0
LINE
5
3CD
100
AcDbEntity
8
0
100
AcDbLine
62
6
6
CONTINUOUS
10
-29.9676978489
20
-8.6878616767
11
-29.9676978489
21
-3.7059226767
0
LINE
5
3CE
100
AcDbEntity
8
0
100
AcDbLine
62
7
6
CONTINUOUS
10
-22.7176978489
20
0.3323783233
11
-22.6176978489
21
0.3323783233
0
LINE
5
3CF
100
AcDbEntity
8
0
100
AcDbLine
62
7
6
CONTINUOUS
10
-22.7176978489
20
0.9086202102
11
-22.6176978489
21
0.9086202102
0
LINE
5
3D0
100
AcDbEntity
8
0
100
AcDbLine
62
7
6
CONTINUOUS
10
-22.7176978489
20
1.0662983233
11
-22.6176978489
21
1.0662983233
0
LINE
5
3D1
100
AcDbEntity
8
0
100
AcDbLine
62
7
6
CONTINUOUS
10
-22.7176978489
20
1.5309103233
11
-22.6176978489
21
1.5309103233
0
LINE
5
3D2
100
AcDbEntity
8
0
100
AcDbLine
62
7
6
CONTINUOUS
10
-22.7176978489
20
1.6945761705
11
-22.6176978489
21
1.6945761705
0
LINE
5
3D3
100
AcDbEntity
8
0
100
AcDbLine
62
6
6
CONTINUOUS
10
-29.6676978489
20
-4.2128616767
11
-29.6676978489
21
-3.3628616767
0
LINE
5
3D4
100
AcDbEntity
8
0
100
AcDbLine
62
6
6
CONTINUOUS
10
-29.5078927856
20
-9.9628616767
11
-29.5078927856
21
-10.8628616767
0
LINE
5
3D5
100
AcDbEntity
8
0
100
AcDbLine
62
6
6
CONTINUOUS
10
-29.4676978489
20
-3.3378616767
11
-29.4676978489
21
-2.4878616767
0
LINE
5
3D6
100
AcDbEntity
8
0
100
AcDbLine
62
6
6
CONTINUOUS
10
-29.3078927856
20
-9.9878616767
11
-29.3078927856
21
-9.0878616767
0
LINE
5
3D7
100
AcDbEntity
8
0
100
AcDbLine
62
6
6
CONTINUOUS
10
-29.0037155452
20
-11.8628616767
11
-29.0037155452
21
-10.8628616767
0
LINE
5
3D8
100
AcDbEntity
8
0
100
AcDbLine
62
6
6
CONTINUOUS
10
-28.9374213331
20
-11.8628616767
11
-28.9374213331
21
-9.9628616767
0
LINE
5
3D9
100
AcDbEntity
8
0
100
AcDbLine
62
6
6
CONTINUOUS
10
-28.8037155452
20
-10.9878616767
11
-28.8037155452
21
-9.9878616767
0
LINE
5
3DA
100
AcDbEntity
8
0
100
AcDbLine
62
6
6
CONTINUOUS
10
-28.7676978489
20
-9.9628616767
11
-28.7676978489
21
-11.8628616767
0
LINE
5
3DB
100
AcDbEntity
8
0
100
AcDbLine
62
6
6
CONTINUOUS
10
-28.7374213331
20
-10.9878616767
11
-28.7374213331
21
-9.0878616767
0
LINE
5
3DC
100
AcDbEntity
8
0
100
AcDbLine
62
6
6
CONTINUOUS
10
-28.5676978489
20
-9.0878616767
11
-28.5676978489
21
-10.9878616767
0
LINE
5
3DD
100
AcDbEntity
8
0
100
AcDbLine
62
6
6
CONTINUOUS
10
-28.0676978489
20
-9.9628616767
11
-28.0676978489
21
-11.8628616767
0
LINE
5
3DE
100
AcDbEntity
8
0
100
AcDbLine
62
6
6
CONTINUOUS
10
-27.8979743647
20
-11.8628616767
11
-27.8979743647
21
-9.9628616767
0
LINE
5
3DF
100
AcDbEntity
8
0
100
AcDbLine
62
6
6
CONTINUOUS
10
-27.8676978489
20
-9.0878616767
11
-27.8676978489
21
-10.9878616767
0
LINE
5
3E0
100
AcDbEntity
8
0
100
AcDbLine
62
6
6
CONTINUOUS
10
-27.8316801526
20
-11.8628616767
11
-27.8316801526
21
-10.8628616767
0
LINE
5
3E1
100
AcDbEntity
8
0
100
AcDbLine
62
6
6
CONTINUOUS
10
-27.6979743647
20
-10.9878616767
11
-27.6979743647
21
-9.0878616767
0
LINE
5
3E2
100
AcDbEntity
8
0
100
AcDbLine
62
6
6
CONTINUOUS
10
-27.6316801526
20
-10.9878616767
11
-27.6316801526
21
-9.9878616767
0
LINE
5
3E3
100
AcDbEntity
8
0
100
AcDbLine
62
6
6
CONTINUOUS
10
-27.3275029122
20
-10.8628616767
11
-27.3275029122
21
-9.9628616767
0
LINE
5
3E4
100
AcDbEntity
8
0
100
AcDbLine
62
6
6
CONTINUOUS
10
-27.1676978489
20
-4.2128616767
11
-27.1676978489
21
-3.3628616767
0
LINE
5
3E5
100
AcDbEntity
8
0
100
AcDbLine
62
6
6
CONTINUOUS
10
-27.1275029122
20
-9.0878616767
11
-27.1275029122
21
-9.9878616767
0
LINE
5
3E6
100
AcDbEntity
8
0
100
AcDbLine
62
7
6
CONTINUOUS
10
-22.6176978489
20
2.9900595827
11
-22.7176978489
21
2.9900595827
0
LINE
5
3E7
100
AcDbEntity
8
0
100
AcDbLine
62
7
6
CONTINUOUS
10
-22.7176978489
20
3.0774973233
11
-22.6176978489
21
3.0774973233
0
LINE
5
3E8
100
AcDbEntity
8
0
100
AcDbLine
62
7
6
CONTINUOUS
10
-22.7176978489
20
3.1234983233
11
-22.6176978489
21
3.1234983233
0
LINE
5
3E9
100
AcDbEntity
8
CURVE
100
AcDbLine
62
9
6
CONTINUOUS
10
-38.3804972565
20
3.2371383233
11
-41.2869997054
21
3.2371383233
0
LINE
5
3EA
100
AcDbEntity
8
0
100
AcDbLine
62
7
6
CONTINUOUS
10
-22.7176978489
20
3.7017383233
11
-22.6176978489
21
3.7017383233
0
LINE
5
3EB
100
AcDbEntity
8
0
100
AcDbLine
62
7
6
CONTINUOUS
10
-22.7176978489
20
3.8985102314
11
-22.6176978489
21
3.8985102314
0
LINE
5
3EC
100
AcDbEntity
8
0
100
AcDbLine
62
7
6
CONTINUOUS
10
-22.7176978489
20
3.9767578756
11
-22.6176978489
21
3.9767578756
0
LINE
5
3ED
100
AcDbEntity
8
0
100
AcDbLine
62
7
6
CONTINUOUS
10
-22.7176978489
20
4.0242183233
11
-22.6176978489
21
4.0242183233
0
LINE
5
3EE
100
AcDbEntity
8
0
100
AcDbLine
62
7
6
CONTINUOUS
10
-22.6176978489
20
5.2919107614
11
-22.7176978489
21
5.2919107614
0
LINE
5
3EF
100
AcDbEntity
8
0
100
AcDbLine
62
7
6
CONTINUOUS
10
-22.7176978489
20
5.2946783233
11
-22.6176978489
21
5.2946783233
0
LINE
5
3F0
100
AcDbEntity
8
0
100
AcDbLine
62
7
6
CONTINUOUS
10
-22.7176978489
20
5.4928273233
11
-22.6176978489
21
5.4928273233
0
LINE
5
3F1
100
AcDbEntity
8
0
100
AcDbLine
62
7
6
CONTINUOUS
10
-22.7176978489
20
5.5059383233
11
-22.6176978489
21
5.5059383233
0
LINE
5
3F2
100
AcDbEntity
8
0
100
AcDbLine
62
7
6
CONTINUOUS
10
-22.7176978489
20
5.5587783233
11
-22.6176978489
21
5.5587783233
0
LINE
5
3F3
100
AcDbEntity
8
CURVE
100
AcDbLine
62
9
6
CONTINUOUS
10
-39.3339007742
20
14.7585668979
11
-39.1196803412
21
14.5442811852
0
LINE
5
3F4
100
AcDbEntity
8
CURVE
100
AcDbLine
62
9
6
CONTINUOUS
10
-39.1196803412
20
15.6157097263
11
-39.3339007742
21
15.8299954278
0
LINE
5
3F5
100
AcDbEntity
8
CURVE
100
AcDbLine
62
9
6
CONTINUOUS
10
-37.8343576540
20
14.8657097710
11
-38.0485781093
21
15.0799954725
0
LINE
5
3F6
100
AcDbEntity
8
CURVE
100
AcDbLine
62
9
6
CONTINUOUS
10
-39.3339007742
20
17.1157097263
11
-39.1196803412
21
16.9014241142
0
LINE
5
3F7
100
AcDbEntity
8
CURVE
100
AcDbLine
62
9
6
CONTINUOUS
10
-38.2627985646
20
16.2585669202
11
-37.8343576540
21
15.8299954278
0
LINE
5
3F8
100
AcDbEntity
8
CURVE
100
AcDbLine
62
9
6
CONTINUOUS
10
-38.6912394753
20
19.6871383233
11
-38.7983496471
21
19.8299956364
0
LINE
5
3F9
100
AcDbEntity
8
0
100
AcDbLine
62
6
6
CONTINUOUS
10
-26.9676978489
20
-3.3378616767
11
-26.9676978489
21
-2.4878616767
0
LINE
5
3FA
100
AcDbEntity
8
0
100
AcDbLine
62
6
6
CONTINUOUS
10
-26.6676978489
20
-9.5628616767
11
-26.6676978489
21
-4.5809226767
0
LINE
5
3FB
100
AcDbEntity
8
0
100
AcDbLine
62
6
6
CONTINUOUS
10
-26.4676978489
20
-8.6878616767
11
-26.4676978489
21
-3.7059226767
0
LINE
5
3FC
100
AcDbEntity
8
0
100
AcDbLine
62
6
6
CONTINUOUS
10
-24.9176978489
20
-10.8628616767
11
-24.9176978489
21
-10.0628616767
0
LINE
5
3FD
100
AcDbEntity
8
0
100
AcDbLine
62
6
6
CONTINUOUS
10
-24.7176978489
20
-9.9878616767
11
-24.7176978489
21
-9.1878616767
0
LINE
5
3FE
100
AcDbEntity
8
0
100
AcDbLine
62
7
6
CONTINUOUS
10
-22.7176978489
20
5.6032583233
11
-22.6176978489
21
5.6032583233
0
LINE
5
3FF
100
AcDbEntity
8
0
100
AcDbLine
62
7
6
CONTINUOUS
10
-22.7176978489
20
5.7950783233
11
-22.6176978489
21
5.7950783233
0
LINE
5
400
100
AcDbEntity
8
0
100
AcDbLine
62
7
6
CONTINUOUS
10
-22.7176978489
20
6.7819783233
11
-22.6176978489
21
6.7819783233
0
LINE
5
401
100
AcDbEntity
8
0
100
AcDbLine
62
7
6
CONTINUOUS
10
-22.6176978489
20
6.8764985061
11
-22.7176978489
21
6.8764985061
0
LINE
5
402
100
AcDbEntity
8
0
100
AcDbLine
62
7
6
CONTINUOUS
10
-22.7176978489
20
7.1044561705
11
-22.6176978489
21
7.1044561705
0
LINE
5
403
100
AcDbEntity
8
CURVE
100
AcDbLine
62
9
6
CONTINUOUS
10
-39.1196803412
20
14.5442811852
11
-38.9054599083
21
14.4371383233
0
LINE
5
404
100
AcDbEntity
8
CURVE
100
AcDbLine
62
9
6
CONTINUOUS
10
-39.3339007742
20
18.2942811293
11
-39.1196803412
21
18.0799955172
0
LINE
5
405
100
AcDbEntity
8
CURVE
100
AcDbLine
62
9
6
CONTINUOUS
10
-37.8343576540
20
17.2228525324
11
-38.0485781093
21
17.4371383233
0
LINE
5
406
100
AcDbEntity
8
CURVE
100
AcDbLine
62
9
6
CONTINUOUS
10
-37.8343576540
20
18.4014239354
11
-38.0485781093
21
18.6157099051
0
LINE
5
407
100
AcDbEntity
8
CURVE
100
AcDbLine
62
9
6
CONTINUOUS
10
-38.6912394753
20
19.3657099051
11
-38.4770189976
21
19.1514239354
0
LINE
5
408
100
AcDbEntity
8
CURVE
100
AcDbLine
62
9
6
CONTINUOUS
10
-37.8343576540
20
19.6871383233
11
-38.0485781093
21
19.9014239354
0
LINE
5
409
100
AcDbEntity
8
0
100
AcDbLine
62
9
6
CONTINUOUS
10
-23.2089716457
20
13.7317120814
11
-23.2089716457
21
-10.9570629110
0
LINE
5
40A
100
AcDbEntity
8
0
100
AcDbLine
62
9
6
CONTINUOUS
10
-23.2089716457
20
-12.2044423784
11
-23.2089716457
21
-13.9889771988
0
LINE
5
40B
100
AcDbEntity
8
0
100
AcDbLine
62
7
6
CONTINUOUS
10
-22.7176978489
20
13.7317120814
11
-22.7176978489
21
-13.6760163180
0
LINE
5
40C
100
AcDbEntity
8
0
100
AcDbLine
62
7
6
CONTINUOUS
10
-22.6176978489
20
10.0401383233
11
-22.6176978489
21
5.5059383233
0
LINE
5
40D
100
AcDbEntity
8
0
100
AcDbLine
62
7
6
CONTINUOUS
10
-22.6176978489
20
5.4928273233
11
-22.6176978489
21
1.0776963233
0
LINE
5
40E
100
AcDbEntity
8
0
100
AcDbLine
62
7
6
CONTINUOUS
10
-22.6176978489
20
1.0662983233
11
-22.6176978489
21
0.3323783233
0
LINE
5
40F
100
AcDbEntity
8
0
100
AcDbLine
62
7
6
CONTINUOUS
10
-22.6176978489
20
-1.4723816767
11
-22.6176978489
21
-3.2957492149
0
LINE
5
410
100
AcDbEntity
8
0
100
AcDbLine
62
9
6
CONTINUOUS
10
-22.5281650177
20
-3.3227946715
11
-22.5281648868
21
-10.9029286751
0
LINE
5
411
100
AcDbEntity
8
0
100
AcDbLine
62
6
6
CONTINUOUS
10
-29.3603927936
20
-9.0878616767
11
-29.8091162409
21
-9.9878616767
0
LINE
5
412
100
AcDbEntity
8
0
100
AcDbLine
62
6
6
CONTINUOUS
10
-30.0091162409
20
-10.8628616767
11
-29.5603927936
21
-9.9628616767
0
LINE
5
413
100
AcDbEntity
8
0
100
AcDbLine
62
6
6
CONTINUOUS
10
-29.5996368489
20
-3.3378616767
11
-29.9676978489
21
-3.7059226767
0
LINE
5
414
100
AcDbEntity
8
0
100
AcDbLine
62
6
6
CONTINUOUS
10
-29.7996368489
20
-4.2128616767
11
-30.1676978489
21
-4.5809226767
0
LINE
5
415
100
AcDbEntity
8
0
100
AcDbLine
62
7
6
CONTINUOUS
10
-22.6176978489
20
8.3999395827
11
-22.7176978489
21
8.3999395827
0
LINE
5
416
100
AcDbEntity
8
0
100
AcDbLine
62
7
6
CONTINUOUS
10
-22.7176978489
20
8.6501383233
11
-22.6176978489
21
8.6501383233
0
LINE
5
417
100
AcDbEntity
8
CURVE
100
AcDbLine
62
9
6
CONTINUOUS
10
-37.2864845795
20
9.1695843233
11
-38.0370758899
21
9.1695843233
0
LINE
5
418
100
AcDbEntity
8
CURVE
100
AcDbLine
62
9
6
CONTINUOUS
10
-41.6304210720
20
9.1695843233
11
-42.3810123824
21
9.1695843233
0
LINE
5
419
100
AcDbEntity
8
0
100
AcDbLine
62
9
6
CONTINUOUS
10
-22.7176978489
20
9.4545139629
11
-22.6176978489
21
9.4545139629
0
LINE
5
41A
100
AcDbEntity
8
0
100
AcDbLine
62
7
6
CONTINUOUS
10
-22.7176978489
20
10.0401383233
11
-22.6176978489
21
10.0401383233
0
LINE
5
41B
100
AcDbEntity
8
CURVE
100
AcDbLine
62
9
6
CONTINUOUS
10
-38.0485781093
20
15.0799954725
11
-38.2627985646
21
15.1871383233
0
LINE
5
41C
100
AcDbEntity
8
CURVE
100
AcDbLine
62
9
6
CONTINUOUS
10
-39.1196803412
20
16.9014241142
11
-38.9054599083
21
16.7942811293
0
LINE
5
41D
100
AcDbEntity
8
CURVE
100
AcDbLine
62
9
6
CONTINUOUS
10
-39.3339007742
20
19.3657099051
11
-39.1196803412
21
19.2228525920
0
LINE
5
41E
100
AcDbEntity
8
0
100
AcDbLine
62
9
6
CONTINUOUS
10
-21.0019967373
20
-3.4027799551
11
-21.0019967931
21
-10.8229408365
0
LINE
5
41F
100
AcDbEntity
8
0
100
AcDbLine
62
7
6
CONTINUOUS
10
-20.7176978489
20
-3.7020125206
11
-20.7176978489
21
-10.5236872291
0
LINE
5
420
100
AcDbEntity
8
0
100
AcDbLine
62
6
6
CONTINUOUS
10
-29.8426978489
20
-8.8128616767
11
-30.0176978489
21
-8.9878616767
0
LINE
5
421
100
AcDbEntity
8
0
100
AcDbLine
62
6
6
CONTINUOUS
10
-30.0426978489
20
-9.6878616767
11
-30.2176978489
21
-9.8628616767
0
LINE
5
422
100
AcDbEntity
8
CURVE
100
AcDbLine
62
9
6
CONTINUOUS
10
-39.4588627009
20
13.1546943233
11
-40.2086342610
21
13.1546943233
0
LINE
5
423
100
AcDbEntity
8
CURVE
100
AcDbLine
62
9
6
CONTINUOUS
10
-37.2864845795
20
13.5546943233
11
-38.0370758899
21
13.5546943233
0
LINE
5
424
100
AcDbEntity
8
CURVE
100
AcDbLine
62
9
6
CONTINUOUS
10
-41.6304210720
20
13.5546943233
11
-42.3810123824
21
13.5546943233
0
LINE
5
425
100
AcDbEntity
8
0
100
AcDbLine
62
9
6
CONTINUOUS
10
-22.7176978489
20
13.7317120814
11
-23.2089716457
21
13.7317120814
0
LINE
5
426
100
AcDbEntity
8
0
100
AcDbLine
62
9
6
CONTINUOUS
10
-31.6264240521
20
13.8786392597
11
-23.2089716457
21
13.7317120814
0
LINE
5
427
100
AcDbEntity
8
CURVE
100
AcDbLine
62
9
6
CONTINUOUS
10
-38.6912394753
20
16.3657097263
11
-38.2627985646
21
16.2585669202
0
LINE
5
428
100
AcDbEntity
8
CURVE
100
AcDbLine
62
9
6
CONTINUOUS
10
-40.5571188576
20
18.6068063800
11
-42.1171493384
21
19.1261050392
0
LINE
5
429
100
AcDbEntity
8
CURVE
100
AcDbLine
62
9
6
CONTINUOUS
10
-42.1171493384
20
19.3757100321
11
-40.3176978489
21
18.7353510192
0
LINE
5
42A
100
AcDbEntity
8
CURVE
100
AcDbLine
62
9
6
CONTINUOUS
10
-38.0485781093
20
17.4371383233
11
-38.2627985646
21
17.5442811293
0
LINE
5
42B
100
AcDbEntity
8
CURVE
100
AcDbLine
62
9
6
CONTINUOUS
10
-39.1196803412
20
18.0799955172
11
-38.9054599083
21
17.9728527112
0
LINE
5
42C
100
AcDbEntity
8
CURVE
100
AcDbLine
62
9
6
CONTINUOUS
10
-38.0485781093
20
18.6157099051
11
-38.2627985646
21
18.7228527112
0
LINE
5
42D
100
AcDbEntity
8
0
100
AcDbLine
62
7
6
CONTINUOUS
10
-34.1176806278
20
-14.5628444556
11
-36.1737683506
21
-16.6189321784
0
LINE
5
42E
100
AcDbEntity
8
0
100
AcDbLine
62
6
6
CONTINUOUS
10
-26.4676978489
20
-8.6878616767
11
-26.5926978489
21
-8.8128616767
0
LINE
5
42F
100
AcDbEntity
8
0
100
AcDbLine
62
6
6
CONTINUOUS
10
-26.6676978489
20
-9.5628616767
11
-26.7926978489
21
-9.6878616767
0
LINE
5
430
100
AcDbEntity
8
CURVE
100
AcDbLine
62
9
6
CONTINUOUS
10
-38.9054599083
20
14.4371383233
11
-38.2627985646
21
14.4371383233
0
LINE
5
431
100
AcDbEntity
8
CURVE
100
AcDbLine
62
9
6
CONTINUOUS
10
-40.3176978489
20
14.4371383233
11
-42.1171493384
21
14.4371383233
0
LINE
5
432
100
AcDbEntity
8
CURVE
100
AcDbLine
62
9
6
CONTINUOUS
10
-41.7617905809
20
14.6640278908
11
-40.3176978489
21
14.6640278908
0
LINE
5
433
100
AcDbEntity
8
0
100
AcDbLine
62
9
6
CONTINUOUS
10
-32.1176978489
20
14.8784869548
11
-32.6089716457
21
14.8784869548
0
LINE
5
434
100
AcDbEntity
8
CURVE
100
AcDbLine
62
9
6
CONTINUOUS
10
-38.2627985646
20
15.1871383233
11
-38.9054599083
21
15.1871383233
0
LINE
5
435
100
AcDbEntity
8
CURVE
100
AcDbLine
62
9
6
CONTINUOUS
10
-38.6912394753
20
15.6157097263
11
-39.1196803412
21
15.6157097263
0
LINE
5
436
100
AcDbEntity
8
CURVE
100
AcDbLine
62
9
6
CONTINUOUS
10
-40.6579285390
20
15.6447043151
11
-42.1171493384
21
15.6447043151
0
LINE
5
437
100
AcDbEntity
8
CURVE
100
AcDbLine
62
9
6
CONTINUOUS
10
-42.1171493384
20
15.8716097639
11
-40.3176978489
21
15.8716097639
0
LINE
5
438
100
AcDbEntity
8
CURVE
100
AcDbLine
62
9
6
CONTINUOUS
10
-39.1196803412
20
16.3657097263
11
-38.6912394753
21
16.3657097263
0
LINE
5
439
100
AcDbEntity
8
CURVE
100
AcDbLine
62
9
6
CONTINUOUS
10
-40.3176978489
20
16.3732326352
11
-42.1171493384
21
16.3732326352
0
LINE
5
43A
100
AcDbEntity
8
CURVE
100
AcDbLine
62
9
6
CONTINUOUS
10
-41.9155310341
20
16.6127265906
11
-41.3434269634
21
16.6127265906
0
LINE
5
43B
100
AcDbEntity
8
CURVE
100
AcDbLine
62
9
6
CONTINUOUS
10
-41.1418086590
20
16.6127265906
11
-40.5193161532
21
16.6127265906
0
LINE
5
43C
100
AcDbEntity
8
0
100
AcDbLine
62
7
6
CONTINUOUS
10
-31.6264240521
20
14.3785631073
11
-23.2089716457
21
14.2316359290
0
LINE
5
43D
100
AcDbEntity
8
0
100
AcDbLine
62
7
6
CONTINUOUS
10
-43.8176978489
20
15.5371383233
11
-46.2233042338
21
15.5791283389
0
LINE
5
43E
100
AcDbEntity
8
0
100
AcDbLine
62
7
6
CONTINUOUS
10
-36.1737683506
20
26.6932088249
11
-34.3876874346
21
24.9071279090
0
LINE
5
43F
100
AcDbEntity
8
CURVE
100
AcDbLine
62
9
6
CONTINUOUS
10
-38.9054599083
20
16.7942811293
11
-38.2627985646
21
16.7942811293
0
LINE
5
440
100
AcDbEntity
8
CURVE
100
AcDbLine
62
9
6
CONTINUOUS
10
-38.2627985646
20
17.5442811293
11
-38.9054599083
21
17.5442811293
0
LINE
5
441
100
AcDbEntity
8
CURVE
100
AcDbLine
62
9
6
CONTINUOUS
10
-41.3434269634
20
17.5480219251
11
-41.1418086590
21
17.5480219251
0
LINE
5
442
100
AcDbEntity
8
CURVE
100
AcDbLine
62
9
6
CONTINUOUS
10
-42.1171493384
20
17.6160856191
11
-41.9155310341
21
17.6160856191
0
LINE
5
443
100
AcDbEntity
8
CURVE
100
AcDbLine
62
9
6
CONTINUOUS
10
-40.5193161532
20
17.6236514280
11
-40.3176978489
21
17.6236514280
0
LINE
5
444
100
AcDbEntity
8
CURVE
100
AcDbLine
62
9
6
CONTINUOUS
10
-38.9054599083
20
17.9728527112
11
-38.2627985646
21
17.9728527112
0
LINE
5
445
100
AcDbEntity
8
CURVE
100
AcDbLine
62
9
6
CONTINUOUS
10
-38.2627985646
20
18.7228527112
11
-38.9054599083
21
18.7228527112
0
LINE
5
446
100
AcDbEntity
8
CURVE
100
AcDbLine
62
9
6
CONTINUOUS
10
-38.4770189976
20
19.1514239354
11
-38.0485781093
21
19.1514239354
0
LINE
5
447
100
AcDbEntity
8
CURVE
100
AcDbLine
62
9
6
CONTINUOUS
10
-39.1196803412
20
19.2228525920
11
-38.7983496471
21
19.2228525920
0
LINE
5
448
100
AcDbEntity
8
0
100
AcDbLine
62
9
6
CONTINUOUS
10
-45.8246162199
20
21.2025642777
11
-49.1147414638
21
21.1451349280
0
LINE
5
449
100
AcDbEntity
8
0
100
AcDbLine
62
9
6
CONTINUOUS
10
-45.3602864920
20
20.9951696808
11
-43.8176978489
21
21.0044390535
0
LINE
5
44A
100
AcDbEntity
8
0
100
AcDbLine
62
9
6
CONTINUOUS
10
-45.2241353817
20
22.2271474300
11
-43.8176978489
21
22.2350848887
0
LINE
5
44B
100
AcDbEntity
8
CURVE
100
AcDbLine
62
9
6
CONTINUOUS
10
-40.3176978489
20
19.6807235115
11
-42.1171493384
21
19.6807235115
0
LINE
5
44C
100
AcDbEntity
8
CURVE
100
AcDbLine
62
9
6
CONTINUOUS
10
-38.7983496471
20
19.8299956364
11
-39.1196803412
21
19.8299956364
0
LINE
5
44D
100
AcDbEntity
8
CURVE
100
AcDbLine
62
9
6
CONTINUOUS
10
-38.0485781093
20
19.9014239354
11
-38.4770189976
21
19.9014239354
0
LINE
5
44E
100
AcDbEntity
8
CURVE
100
AcDbLine
62
9
6
CONTINUOUS
10
-41.9155310341
20
19.9202185256
11
-41.3434269634
21
19.9202185256
0
LINE
5
44F
100
AcDbEntity
8
CURVE
100
AcDbLine
62
9
6
CONTINUOUS
10
-41.1418086590
20
19.9202185256
11
-40.5193161532
21
19.9202185256
0
LINE
5
450
100
AcDbEntity
8
CURVE
100
AcDbLine
62
9
6
CONTINUOUS
10
-41.3434269634
20
20.8555466813
11
-41.1418086590
21
20.8555466813
0
LINE
5
451
100
AcDbEntity
8
CURVE
100
AcDbLine
62
9
6
CONTINUOUS
10
-42.1171493384
20
20.9235606142
11
-41.9155310341
21
20.9235606142
0
LINE
5
452
100
AcDbEntity
8
CURVE
100
AcDbLine
62
9
6
CONTINUOUS
10
-40.5193161532
20
20.9311761843
11
-40.3176978489
21
20.9311761843
0
LINE
5
453
100
AcDbEntity
8
0
100
AcDbLine
62
9
6
CONTINUOUS
10
-32.1176978489
20
21.0886847398
11
-32.6089716457
21
21.0886847398
0
LINE
5
454
100
AcDbEntity
8
0
100
AcDbLine
62
7
6
CONTINUOUS
10
-36.1737683506
20
26.6932088249
11
-37.6682023650
21
27.2371383233
0
LINE
5
455
100
AcDbEntity
8
0
100
AcDbLine
62
7
6
CONTINUOUS
10
-36.1737683506
20
-16.6189321784
11
-37.6682023650
21
-17.1628616767
0
LINE
5
456
100
AcDbEntity
8
0
100
AcDbLine
62
7
6
CONTINUOUS
10
-45.6699606618
20
22.2048069556
11
-49.2020568175
21
22.1431539879
0
LINE
5
457
100
AcDbEntity
8
0
100
AcDbLine
62
7
6
CONTINUOUS
10
-33.6631282470
20
24.6143869950
11
-32.6264240521
21
24.6324827340
0
LINE
5
458
100
AcDbEntity
8
0
100
AcDbLine
62
7
6
CONTINUOUS
10
-44.9850024661
20
25.6642869171
11
-45.4525601460
21
25.7051929136
0
LINE
5
459
100
AcDbEntity
8
0
100
AcDbLine
62
9
6
CONTINUOUS
10
-56.0955121374
20
25.5154341295
11
-56.5863014413
21
25.4934478767
0
LINE
5
45A
100
AcDbEntity
8
0
100
AcDbLine
62
7
6
CONTINUOUS
10
-45.3150082348
20
25.1110026733
11
-49.4553870760
21
25.0387320918
0
LINE
5
45B
100
AcDbEntity
8
0
100
AcDbLine
62
9
6
CONTINUOUS
10
-44.6029934500
20
27.3223728778
11
-43.8176978489
21
27.3361307364
0
LINE
5
45C
100
AcDbEntity
8
0
100
AcDbLine
62
7
6
CONTINUOUS
10
-44.5955324377
20
27.4235611700
11
-43.8176978489
21
27.4371383233
0
LINE
5
45D
100
AcDbEntity
8
0
100
AcDbLine
62
7
6
CONTINUOUS
10
-37.6682023650
20
27.2371383233
11
-38.2176978489
21
27.2371383233
0
LINE
5
45E
100
AcDbEntity
8
0
100
AcDbLine
62
7
6
CONTINUOUS
10
-39.6211883302
20
26.2337082369
11
-35.8468430510
21
26.1678267950
0
LINE
5
45F
100
AcDbEntity
8
0
100
AcDbLine
62
9
6
CONTINUOUS
10
-49.6167766997
20
26.8834239325
11
-55.6656163724
21
26.0333149560
0
LINE
5
460
100
AcDbEntity
8
0
100
AcDbLine
62
7
6
CONTINUOUS
10
-49.6603745169
20
27.3817492628
11
-55.7265099270
21
26.5292095288
0
LINE
5
461
100
AcDbEntity
8
0
100
AcDbLine
62
7
6
CONTINUOUS
10
-44.8428002769
20
26.8224308089
11
-45.4525601460
21
26.7690837329
0
LINE
5
462
100
AcDbEntity
8
0
100
AcDbLine
62
7
6
CONTINUOUS
10
-39.8176978489
20
28.4673180636
11
-43.8176978489
21
28.5371383233
0
LINE
5
463
100
AcDbEntity
8
0
100
AcDbLine
62
9
6
CONTINUOUS
10
-39.8176978489
20
28.3002456851
11
-43.8176978489
21
28.3704979808
0
ARC
5
464
100
AcDbEntity
8
0
100
AcDbCircle
62
7
6
CONTINUOUS
10
8.5736116174
20
5.0371383233
40
28.0000000000
100
AcDbArc
50
305.9627651514
51
307.0435233072
0
ARC
5
465
100
AcDbEntity
8
0
100
AcDbCircle
62
7
6
CONTINUOUS
10
24.7736116174
20
-18.0628616767
40
0.5000000000
100
AcDbArc
50
60.8875772240
51
189.1962815790
0
ARC
5
466
100
AcDbEntity
8
0
100
AcDbCircle
62
7
6
CONTINUOUS
10
8.5736116174
20
5.0371383233
40
28.0000000000
100
AcDbArc
50
303.5572117410
51
304.1210936517
0
ARC
5
467
100
AcDbEntity
8
0
100
AcDbCircle
62
7
6
CONTINUOUS
10
31.0736116174
20
5.0371383233
40
28.0000000000
100
AcDbArc
50
235.8789063483
51
236.4427882590
0
ARC
5
468
100
AcDbEntity
8
0
100
AcDbCircle
62
7
6
CONTINUOUS
10
14.8736116174
20
-18.0628616767
40
0.5000000000
100
AcDbArc
50
350.8037184210
51
119.1124227760
0
ARC
5
469
100
AcDbEntity
8
0
100
AcDbCircle
62
7
6
CONTINUOUS
10
31.0736116174
20
5.0371383233
40
28.0000000000
100
AcDbArc
50
125.9627651514
51
127.0504413394
0
ARC
5
46A
100
AcDbEntity
8
0
100
AcDbCircle
62
7
6
CONTINUOUS
10
14.8736116174
20
28.1371383233
40
0.5000000000
100
AcDbArc
50
240.8875772240
51
9.1962815790
0
ARC
5
46B
100
AcDbEntity
8
0
100
AcDbCircle
62
7
6
CONTINUOUS
10
31.0736116174
20
5.0371383233
40
28.0000000000
100
AcDbArc
50
123.5572119323
51
124.1210936517
0
ARC
5
46C
100
AcDbEntity
8
0
100
AcDbCircle
62
7
6
CONTINUOUS
10
8.5736116174
20
5.0371383233
40
28.0000000000
100
AcDbArc
50
55.8789063483
51
56.4427880677
0
ARC
5
46D
100
AcDbEntity
8
0
100
AcDbCircle
62
7
6
CONTINUOUS
10
24.7736116174
20
28.1371383233
40
0.5000000000
100
AcDbArc
50
170.8037184210
51
299.1124227760
0
ARC
5
46E
100
AcDbEntity
8
0
100
AcDbCircle
62
7
6
CONTINUOUS
10
8.5736116174
20
5.0371383233
40
28.0000000000
100
AcDbArc
50
52.9495586606
51
54.0372348486
0
ARC
5
46F
100
AcDbEntity
8
0
100
AcDbCircle
62
7
6
CONTINUOUS
10
-13.9263883826
20
5.0371383233
40
28.0000000000
100
AcDbArc
50
307.2167524546
51
308.2026770534
0
ARC
5
470
100
AcDbEntity
8
0
100
AcDbCircle
62
7
6
CONTINUOUS
10
8.5736116174
20
5.0371383233
40
28.0000000000
100
AcDbArc
50
231.7973229630
51
232.7832476643
0
ARC
5
471
100
AcDbEntity
8
0
100
AcDbCircle
62
7
6
CONTINUOUS
10
-13.9263883826
20
5.0371383233
40
27.9000000000
100
AcDbArc
50
55.7520965189
51
57.3831491754
0
ARC
5
472
100
AcDbEntity
8
0
100
AcDbCircle
62
7
6
CONTINUOUS
10
-13.9263883826
20
5.0371383233
40
27.9000000000
100
AcDbArc
50
53.4047963402
51
54.1640446780
0
ARC
5
473
100
AcDbEntity
8
0
100
AcDbCircle
62
7
6
CONTINUOUS
10
8.5736116174
20
5.0371383233
40
27.9000000000
100
AcDbArc
50
125.8359553220
51
126.5952036598
0
ARC
5
474
100
AcDbEntity
8
0
100
AcDbCircle
62
7
6
CONTINUOUS
10
8.5736116174
20
5.0371383233
40
27.9000000000
100
AcDbArc
50
122.6168508246
51
124.2479034811
0
ARC
5
475
100
AcDbEntity
8
0
100
AcDbCircle
62
7
6
CONTINUOUS
10
-13.9263883826
20
5.0371383233
40
27.9000000000
100
AcDbArc
50
305.8359553220
51
306.5952036598
0
ARC
5
476
100
AcDbEntity
8
0
100
AcDbCircle
62
7
6
CONTINUOUS
10
-13.9263883826
20
5.0371383233
40
27.9000000000
100
AcDbArc
50
302.6168508246
51
304.2479034811
0
ARC
5
477
100
AcDbEntity
8
0
100
AcDbCircle
62
7
6
CONTINUOUS
10
8.5736116174
20
5.0371383233
40
27.9000000000
100
AcDbArc
50
235.7520965189
51
237.3831491754
0
ARC
5
478
100
AcDbEntity
8
0
100
AcDbCircle
62
7
6
CONTINUOUS
10
8.5736116174
20
5.0371383233
40
27.9000000000
100
AcDbArc
50
233.4047963402
51
234.1640446780
0
ARC
5
479
100
AcDbEntity
8
0
100
AcDbCircle
62
7
6
CONTINUOUS
10
2.2736116174
20
-18.0628616767
40
0.5000000000
100
AcDbArc
50
74.3932919591
51
175.6905668440
0
ARC
5
47A
100
AcDbEntity
8
0
100
AcDbCircle
62
7
6
CONTINUOUS
10
-7.6263883826
20
-18.0628616767
40
0.5000000000
100
AcDbArc
50
4.3094331560
51
105.6067080409
0
ARC
5
47B
100
AcDbEntity
8
0
100
AcDbCircle
62
7
6
CONTINUOUS
10
2.2736116174
20
28.1371383233
40
0.5000000000
100
AcDbArc
50
184.3094331560
51
285.6067080409
0
ARC
5
47C
100
AcDbEntity
8
0
100
AcDbCircle
62
7
6
CONTINUOUS
10
-7.6263883826
20
28.1371383233
40
0.5000000000
100
AcDbArc
50
254.3932919591
51
355.6905668440
0
ARC
5
47D
100
AcDbEntity
8
0
100
AcDbCircle
62
7
6
CONTINUOUS
10
31.0736116174
20
5.0371383233
40
28.0000000000
100
AcDbArc
50
231.7974271806
51
234.0372348486
0
ARC
5
47E
100
AcDbEntity
8
0
100
AcDbCircle
62
7
6
CONTINUOUS
10
8.6736116174
20
5.0371383233
40
27.9452085138
100
AcDbArc
50
307.0648293780
51
308.0591780874
0
ARC
5
47F
100
AcDbEntity
8
0
100
AcDbCircle
62
7
6
CONTINUOUS
10
22.1236116174
20
-16.9628616767
40
0.5000000000
100
AcDbArc
50
233.1301023542
51
306.8698976458
0
ARC
5
480
100
AcDbEntity
8
0
100
AcDbCircle
62
7
6
CONTINUOUS
10
17.5236116174
20
-16.9628616767
40
0.5000000000
100
AcDbArc
50
233.1301023542
51
306.8698976458
0
ARC
5
481
100
AcDbEntity
8
0
100
AcDbCircle
62
7
6
CONTINUOUS
10
22.1236116174
20
27.0371383233
40
0.5000000000
100
AcDbArc
50
53.1301023542
51
126.8698976458
0
ARC
5
482
100
AcDbEntity
8
0
100
AcDbCircle
62
7
6
CONTINUOUS
10
17.5236116174
20
27.0371383233
40
0.5000000000
100
AcDbArc
50
53.1301023542
51
126.8698976458
0
ARC
5
483
100
AcDbEntity
8
0
100
AcDbCircle
62
6
6
CONTINUOUS
10
22.5943665157
20
-11.6628616767
40
0.2000000000
100
AcDbArc
50
185.0000000000
51
270.0000000000
0
ARC
5
484
100
AcDbEntity
8
0
100
AcDbCircle
62
6
6
CONTINUOUS
10
27.0528567191
20
-11.6628616767
40
0.2000000000
100
AcDbArc
50
270.0000000000
51
355.0000000000
0
ARC
5
485
100
AcDbEntity
8
0
100
AcDbCircle
62
6
6
CONTINUOUS
10
28.1236116174
20
-10.0628616767
40
0.2000000000
100
AcDbArc
50
0.0000000000
51
90.0000000000
0
ARC
5
486
100
AcDbEntity
8
0
100
AcDbCircle
62
6
6
CONTINUOUS
10
21.5236116174
20
-10.0628616767
40
0.2000000000
100
AcDbArc
50
90.0000000000
51
180.0000000000
0
ARC
5
487
100
AcDbEntity
8
0
100
AcDbCircle
62
6
6
CONTINUOUS
10
25.8736116174
20
-3.3628616767
40
0.2000000000
100
AcDbArc
50
0.0000000000
51
90.0000000000
0
ARC
5
488
100
AcDbEntity
8
0
100
AcDbCircle
62
6
6
CONTINUOUS
10
23.7736116174
20
-3.3628616767
40
0.2000000000
100
AcDbArc
50
90.0000000000
51
180.0000000000
0
ARC
5
489
100
AcDbEntity
8
0
100
AcDbCircle
62
6
6
CONTINUOUS
10
17.0528567191
20
-10.7878616767
40
0.2000000000
100
AcDbArc
50
270.0000000000
51
355.0000000000
0
ARC
5
48A
100
AcDbEntity
8
0
100
AcDbCircle
62
6
6
CONTINUOUS
10
12.5943665157
20
-10.7878616767
40
0.2000000000
100
AcDbArc
50
185.0000000000
51
270.0000000000
0
ARC
5
48B
100
AcDbEntity
8
0
100
AcDbCircle
62
6
6
CONTINUOUS
10
18.1236116174
20
-9.1878616767
40
0.2000000000
100
AcDbArc
50
0.0000000000
51
90.0000000000
0
ARC
5
48C
100
AcDbEntity
8
0
100
AcDbCircle
62
6
6
CONTINUOUS
10
11.5236116174
20
-9.1878616767
40
0.2000000000
100
AcDbArc
50
90.0000000000
51
180.0000000000
0
ARC
5
48D
100
AcDbEntity
8
0
100
AcDbCircle
62
6
6
CONTINUOUS
10
15.8736116174
20
-2.4878616767
40
0.2000000000
100
AcDbArc
50
0.0000000000
51
90.0000000000
0
ARC
5
48E
100
AcDbEntity
8
0
100
AcDbCircle
62
6
6
CONTINUOUS
10
13.7736116174
20
-2.4878616767
40
0.2000000000
100
AcDbArc
50
90.0000000000
51
180.0000000000
0
ARC
5
48F
100
AcDbEntity
8
0
100
AcDbCircle
62
7
6
CONTINUOUS
10
442.8960139952
20
48.2402400033
40
500.0000000000
100
AcDbArc
50
182.6074903398
51
187.3925096602
0
ARC
5
490
100
AcDbEntity
8
0
100
AcDbCircle
62
7
6
CONTINUOUS
10
-51.9562937623
20
-15.9640706553
40
1.0000000000
100
AcDbArc
50
187.3925096602
51
272.0000000000
0
ARC
5
491
100
AcDbEntity
8
0
100
AcDbCircle
62
7
6
CONTINUOUS
10
-55.5873368246
20
25.5389414603
40
1.0000000000
100
AcDbArc
50
98.0000000000
51
182.6074903398
0
ARC
5
492
100
AcDbEntity
8
0
100
AcDbCircle
62
7
6
CONTINUOUS
10
-45.3183564136
20
25.4109896004
40
0.2999999662
100
AcDbArc
50
271.0000000161
51
352.9659199143
0
ARC
5
493
100
AcDbEntity
8
0
100
AcDbCircle
62
7
6
CONTINUOUS
10
-45.4176978489
20
26.1036707929
40
0.4000000000
100
AcDbArc
50
180.0000000000
51
264.9999999564
0
ARC
5
494
100
AcDbEntity
8
0
100
AcDbCircle
62
7
6
CONTINUOUS
10
-45.4176978489
20
26.3706058537
40
0.4000000000
100
AcDbArc
50
95.0000000365
51
180.0000000000
0
ARC
5
495
100
AcDbEntity
8
0
100
AcDbCircle
62
7
6
CONTINUOUS
10
-45.4176978489
20
-16.2963292071
40
0.4000000000
100
AcDbArc
50
180.0000000000
51
264.9999999564
0
ARC
5
496
100
AcDbEntity
8
0
100
AcDbCircle
62
7
6
CONTINUOUS
10
-45.4176978489
20
-16.0293941463
40
0.4000000000
100
AcDbArc
50
95.0000000365
51
180.0000000000
0
ARC
5
497
100
AcDbEntity
8
0
100
AcDbCircle
62
7
6
CONTINUOUS
10
-46.5101880235
20
5.0371383233
40
1.0000000000
100
AcDbArc
50
173.0000000000
51
187.0000000000
0
ARC
5
498
100
AcDbEntity
8
0
100
AcDbCircle
62
7
6
CONTINUOUS
10
-44.5920419564
20
27.2235916310
40
0.2000000000
100
AcDbArc
50
91.0000000000
51
173.0000000000
0
ARC
5
499
100
AcDbEntity
8
0
100
AcDbCircle
62
7
6
CONTINUOUS
10
-44.5920419564
20
-17.1493149844
40
0.2000000000
100
AcDbArc
50
187.0000000000
51
269.0000000000
0
ARC
5
49A
100
AcDbEntity
8
0
100
AcDbCircle
62
7
6
CONTINUOUS
10
-45.5805294328
20
-13.2014850615
40
0.2999999901
100
AcDbArc
50
6.9999916633
51
87.9999986959
0
ARC
5
49B
100
AcDbEntity
8
0
100
AcDbCircle
62
7
6
CONTINUOUS
10
-45.6751963837
20
22.5047612642
40
0.3000000000
100
AcDbArc
50
271.0000000000
51
353.0000000000
0
ARC
5
49C
100
AcDbEntity
8
0
100
AcDbCircle
62
7
6
CONTINUOUS
10
-22.5176978489
20
-11.1026545901
40
0.2000000000
100
AcDbArc
50
92.9999565401
51
179.9991795507
0
ARC
5
49D
100
AcDbEntity
8
0
100
AcDbCircle
62
7
6
CONTINUOUS
10
-22.5176978489
20
-3.1230687634
40
0.2000000000
100
AcDbArc
50
180.0001204285
51
267.0000064695
0
ARC
5
49E
100
AcDbEntity
8
0
100
AcDbCircle
62
7
6
CONTINUOUS
10
-21.0176978489
20
-10.5233567481
40
0.3000000000
100
AcDbArc
50
273.0000522121
51
360.0000000000
0
ARC
5
49F
100
AcDbEntity
8
0
100
AcDbCircle
62
7
6
CONTINUOUS
10
-21.0176978489
20
-3.7023666053
40
0.3000000000
100
AcDbArc
50
0.0000000000
51
86.9999376692
0
ARC
5
4A0
100
AcDbEntity
8
0
100
AcDbCircle
62
7
6
CONTINUOUS
10
-39.6176978489
20
-16.3594011293
40
0.2000000000
100
AcDbArc
50
169.2157049554
51
180.0000000000
0
ARC
5
4A1
100
AcDbEntity
8
0
100
AcDbCircle
62
7
6
CONTINUOUS
10
-39.6176978489
20
-16.3594011293
40
0.2000000000
100
AcDbArc
50
91.0000000000
51
128.2214923363
0
ARC
5
4A2
100
AcDbEntity
8
0
100
AcDbCircle
62
7
6
CONTINUOUS
10
-39.6176978489
20
26.4336777759
40
0.2000000000
100
AcDbArc
50
180.0000000000
51
190.7842950387
0
ARC
5
4A3
100
AcDbEntity
8
0
100
AcDbCircle
62
7
6
CONTINUOUS
10
-39.6176978489
20
26.4336777759
40
0.2000000000
100
AcDbArc
50
261.3316317648
51
269.0000000000
0
ARC
5
4A4
100
AcDbEntity
8
0
100
AcDbCircle
62
7
6
CONTINUOUS
10
-35.8555743126
20
-15.5936263891
40
0.5000000000
100
AcDbArc
50
271.0005797400
51
315.0004170272
0
ARC
5
4A5
100
AcDbEntity
8
0
100
AcDbCircle
62
7
6
CONTINUOUS
10
-35.8555692542
20
25.6679029474
40
0.5000000000
100
AcDbArc
50
45.0000000000
51
89.0000000000
0
ARC
5
4A6
100
AcDbEntity
8
0
100
AcDbCircle
62
7
6
CONTINUOUS
10
-33.6805806534
20
25.6142346902
40
1.0000000000
100
AcDbArc
50
225.0000000000
51
271.0000000000
0
ARC
5
4A7
100
AcDbEntity
8
0
100
AcDbCircle
62
7
6
CONTINUOUS
10
-32.6176978489
20
24.1325588865
40
0.5000000000
100
AcDbArc
50
0.0000000000
51
91.0000000000
0
ARC
5
4A8
100
AcDbEntity
8
0
100
AcDbCircle
62
7
6
CONTINUOUS
10
-31.6176978489
20
14.8784869548
40
0.5000000000
100
AcDbArc
50
180.0000000000
51
269.0000000000
0
ARC
5
4A9
100
AcDbEntity
8
0
100
AcDbCircle
62
7
6
CONTINUOUS
10
-23.2176978489
20
13.7317120814
40
0.5000000000
100
AcDbArc
50
0.0000000000
51
89.0000000000
0
ARC
5
4AA
100
AcDbEntity
8
0
100
AcDbCircle
62
7
6
CONTINUOUS
10
-33.6227058809
20
-15.0578192024
40
0.7000000000
100
AcDbArc
50
91.0000000000
51
135.0000000000
0
ARC
5
4AB
100
AcDbEntity
8
0
100
AcDbCircle
62
7
6
CONTINUOUS
10
-23.2176978489
20
-13.6760163180
40
0.5000000000
100
AcDbArc
50
271.0000000000
51
360.0000000000
0
ARC
5
4AC
100
AcDbEntity
8
0
100
AcDbCircle
62
6
6
CONTINUOUS
10
-31.7176978489
20
-10.0628616767
40
0.2000000000
100
AcDbArc
50
90.0000000000
51
180.0000000000
0
ARC
5
4AD
100
AcDbEntity
8
0
100
AcDbCircle
62
6
6
CONTINUOUS
10
-25.1176978489
20
-10.0628616767
40
0.2000000000
100
AcDbArc
50
0.0000000000
51
90.0000000000
0
ARC
5
4AE
100
AcDbEntity
8
0
100
AcDbCircle
62
6
6
CONTINUOUS
10
-29.4676978489
20
-3.3628616767
40
0.2000000000
100
AcDbArc
50
90.0000000000
51
180.0000000000
0
ARC
5
4AF
100
AcDbEntity
8
0
100
AcDbCircle
62
6
6
CONTINUOUS
10
-27.3676978489
20
-3.3628616767
40
0.2000000000
100
AcDbArc
50
0.0000000000
51
90.0000000000
0
ARC
5
4B0
100
AcDbEntity
8
0
100
AcDbCircle
62
6
6
CONTINUOUS
10
-24.9176978489
20
-9.1878616767
40
0.2000000000
100
AcDbArc
50
0.0000000000
51
90.0000000000
0
ARC
5
4B1
100
AcDbEntity
8
0
100
AcDbCircle
62
6
6
CONTINUOUS
10
-31.5176978489
20
-9.1878616767
40
0.2000000000
100
AcDbArc
50
90.0000000000
51
180.0000000000
0
ARC
5
4B2
100
AcDbEntity
8
0
100
AcDbCircle
62
6
6
CONTINUOUS
10
-27.1676978489
20
-2.4878616767
40
0.2000000000
100
AcDbArc
50
0.0000000000
51
90.0000000000
0
ARC
5
4B3
100
AcDbEntity
8
0
100
AcDbCircle
62
6
6
CONTINUOUS
10
-29.2676978489
20
-2.4878616767
40
0.2000000000
100
AcDbArc
50
90.0000000000
51
180.0000000000
0
SPLINE
5
4B4
100
AcDbEntity
8
0
100
AcDbSpline
62
7
6
CONTINUOUS
70
0
71
3
72
10
73
6
74
4
42
0.0000001000
43
0.0000001000
44
0.0000000001
12
0.5846646811
22
0.0000000000
32
0.0000000000
13
0.4872211172
23
0.3231847339
33
0.0000000000
40
0.0000000000
40
0.0000000000
40
0.0000000000
40
0.0000000000
40
0.3324081770
40
0.6679000849
40
1.0000000000
40
1.0000000000
40
1.0000000000
40
1.0000000000
10
23.4984692814
20
-18.4628616767
30
0.0000000000
10
23.5632517216
20
-18.4628616767
30
0.0000000000
10
23.6937814966
20
-18.4501246915
30
0.0000000000
10
23.8814638681
20
-18.3935178552
30
0.0000000000
10
23.9972186905
20
-18.3319980304
30
0.0000000000
10
24.0511540544
20
-18.2962214894
30
0.0000000000
11
23.4984692814
21
-18.4628616767
31
0.0000000000
11
23.6918965808
21
-18.4439735603
31
0.0000000000
11
23.8796910881
21
-18.3873330169
31
0.0000000000
11
24.0511540544
21
-18.2962214894
31
0.0000000000
0
SPLINE
5
4B5
100
AcDbEntity
8
0
100
AcDbSpline
62
7
6
CONTINUOUS
70
0
71
3
72
10
73
6
74
4
42
0.0000001000
43
0.0000001000
44
0.0000000001
12
0.4872211172
22
-0.3231847339
32
0.0000000000
13
0.5846646811
23
0.0000000000
33
0.0000000000
40
0.0000000000
40
0.0000000000
40
0.0000000000
40
0.0000000000
40
0.3320999151
40
0.6675918230
40
1.0000000000
40
1.0000000000
40
1.0000000000
40
1.0000000000
10
15.5960691804
20
-18.2962214894
30
0.0000000000
10
15.6500045443
20
-18.3319980304
30
0.0000000000
10
15.7657593667
20
-18.3935178552
30
0.0000000000
10
15.9534417381
20
-18.4501246915
30
0.0000000000
10
16.0839715132
20
-18.4628616767
30
0.0000000000
10
16.1487539534
20
-18.4628616767
30
0.0000000000
11
15.5960691804
21
-18.2962214894
31
0.0000000000
11
15.7675321466
21
-18.3873330169
31
0.0000000000
11
15.9553266540
21
-18.4439735603
31
0.0000000000
11
16.1487539534
21
-18.4628616767
31
0.0000000000
0
SPLINE
5
4B6
100
AcDbEntity
8
0
100
AcDbSpline
62
7
6
CONTINUOUS
70
0
71
3
72
10
73
6
74
4
42
0.0000001000
43
0.0000001000
44
0.0000000001
12
-0.5846646711
22
0.0000000000
32
0.0000000000
13
-0.4872211089
23
-0.3231847284
33
0.0000000000
40
0.0000000000
40
0.0000000000
40
0.0000000000
40
0.0000000000
40
0.3320970604
40
0.6676052029
40
1.0000000000
40
1.0000000000
40
1.0000000000
40
1.0000000000
10
16.1487538508
20
28.5371383233
30
0.0000000000
10
16.0840320446
20
28.5371383233
30
0.0000000000
10
15.9535607182
20
28.5244190434
30
0.0000000000
10
15.7658680672
20
28.4678457622
30
0.0000000000
10
15.6500523565
20
28.4063063916
30
0.0000000000
10
15.5960691027
20
28.3704980841
30
0.0000000000
11
16.1487538508
21
28.5371383233
31
0.0000000000
11
15.9555058705
21
28.5182855278
31
0.0000000000
11
15.7676922035
21
28.4616756606
31
0.0000000000
11
15.5960691027
21
28.3704980841
31
0.0000000000
0
SPLINE
5
4B7
100
AcDbEntity
8
0
100
AcDbSpline
62
7
6
CONTINUOUS
70
0
71
3
72
10
73
6
74
4
42
0.0000001000
43
0.0000001000
44
0.0000000001
12
-0.4872211089
22
0.3231847284
32
0.0000000000
13
-0.5846646711
23
-0.0000000000
33
0.0000000000
40
0.0000000000
40
0.0000000000
40
0.0000000000
40
0.0000000000
40
0.3323947971
40
0.6679029396
40
1.0000000000
40
1.0000000000
40
1.0000000000
40
1.0000000000
10
24.0511541321
20
28.3704980841
30
0.0000000000
10
23.9971708782
20
28.4063063916
30
0.0000000000
10
23.8813551675
20
28.4678457622
30
0.0000000000
10
23.6936625166
20
28.5244190434
30
0.0000000000
10
23.5631911902
20
28.5371383233
30
0.0000000000
10
23.4984693840
20
28.5371383233
30
0.0000000000
11
24.0511541321
21
28.3704980841
31
0.0000000000
11
23.8795310312
21
28.4616756606
31
0.0000000000
11
23.6917173643
21
28.5182855278
31
0.0000000000
11
23.4984693840
21
28.5371383233
31
0.0000000000
0
SPLINE
5
4B8
100
AcDbEntity
8
0
100
AcDbSpline
62
7
6
CONTINUOUS
70
0
71
3
72
9
73
5
74
3
42
0.0000001000
43
0.0000001000
44
0.0000000001
12
0.2342483304
22
0.0000000000
32
0.0000000000
13
0.2097817105
23
-0.1069838161
33
0.0000000000
40
0.0000000000
40
0.0000000000
40
0.0000000000
40
0.0000000000
40
0.6883412561
40
1.0000000000
40
1.0000000000
40
1.0000000000
40
1.0000000000
10
2.7065554022
20
27.4370205108
30
0.0000000000
10
2.7603029988
20
27.4370205108
30
0.0000000000
10
2.8389060143
20
27.4241890966
30
0.0000000000
10
2.9115123185
20
27.3935712652
30
0.0000000000
10
2.9333057533
20
27.3824571179
30
0.0000000000
11
2.7065554022
21
27.4370205108
31
0.0000000000
11
2.8656730718
21
27.4109282794
31
0.0000000000
11
2.9333057533
21
27.3824571179
31
0.0000000000
0
SPLINE
5
4B9
100
AcDbEntity
8
0
100
AcDbSpline
62
7
6
CONTINUOUS
70
0
71
3
72
9
73
5
74
3
42
0.0000001000
43
0.0000001000
44
0.0000000001
12
-0.2574971065
22
-0.1955696327
32
0.0000000000
13
-0.3233453898
23
0.0000000000
33
0.0000000000
40
0.0000000000
40
0.0000000000
40
0.0000000000
40
0.0000000000
40
0.5013295533
40
1.0000000000
40
1.0000000000
40
1.0000000000
40
1.0000000000
10
3.0089071417
20
-17.2607487075
30
0.0000000000
10
2.9658768386
20
-17.2934303197
30
0.0000000000
10
2.8688029080
20
-17.3450319814
30
0.0000000000
10
2.7603029988
20
-17.3627438642
30
0.0000000000
10
2.7065554022
20
-17.3627438642
30
0.0000000000
11
3.0089071417
21
-17.2607487075
31
0.0000000000
11
2.8656730718
21
-17.3366516328
31
0.0000000000
11
2.7065554022
21
-17.3627438642
31
0.0000000000
0
SPLINE
5
4BA
100
AcDbEntity
8
0
100
AcDbSpline
62
7
6
CONTINUOUS
70
0
71
3
72
9
73
5
74
3
42
0.0000001000
43
0.0000001000
44
0.0000000001
12
0.2097817162
22
0.1069838058
32
0.0000000000
13
0.2342483305
23
0.0000000000
33
0.0000000000
40
0.0000000000
40
0.0000000000
40
0.0000000000
40
0.0000000000
40
0.3116587442
40
1.0000000000
40
1.0000000000
40
1.0000000000
40
1.0000000000
10
-8.2860825195
20
27.3824571200
30
0.0000000000
10
-8.2642890841
20
27.3935712661
30
0.0000000000
10
-8.1916827792
20
27.4241890955
30
0.0000000000
10
-8.1130797640
20
27.4370205108
30
0.0000000000
10
-8.0593321674
20
27.4370205108
30
0.0000000000
11
-8.2860825195
21
27.3824571200
31
0.0000000000
11
-8.2184498370
21
27.4109282794
31
0.0000000000
11
-8.0593321674
21
27.4370205108
31
0.0000000000
0
SPLINE
5
4BB
100
AcDbEntity
8
0
100
AcDbSpline
62
7
6
CONTINUOUS
70
0
71
3
72
9
73
5
74
3
42
0.0000001000
43
0.0000001000
44
0.0000000001
12
-0.3233453309
22
0.0000000000
32
0.0000000000
13
-0.2574970596
23
0.1955695971
33
0.0000000000
40
0.0000000000
40
0.0000000000
40
0.0000000000
40
0.0000000000
40
0.4986705375
40
1.0000000000
40
1.0000000000
40
1.0000000000
40
1.0000000000
10
-8.0593321674
20
-17.3627438642
30
0.0000000000
10
-8.1130797640
20
-17.3627438642
30
0.0000000000
10
-8.2215796539
20
-17.3450319862
30
0.0000000000
10
-8.3186535674
20
-17.2934303354
30
0.0000000000
10
-8.3616838549
20
-17.2607487351
30
0.0000000000
11
-8.0593321674
21
-17.3627438642
31
0.0000000000
11
-8.2184498370
21
-17.3366516328
31
0.0000000000
11
-8.3616838549
21
-17.2607487351
31
0.0000000000
0
SPLINE
5
4BC
100
AcDbEntity
8
0
100
AcDbSpline
62
7
6
CONTINUOUS
70
0
71
3
72
8
73
4
74
2
42
0.0000001000
43
0.0000001000
44
0.0000000001
12
-0.3236757496
22
-0.2550840792
32
0.0000000000
13
-0.3273516072
23
-0.2502387618
33
0.0000000000
40
0.0000000000
40
0.0000000000
40
0.0000000000
40
0.0000000000
40
1.0000000000
40
1.0000000000
40
1.0000000000
40
1.0000000000
10
3.3667440685
20
-16.9661887347
30
0.0000000000
10
3.2588521519
20
-17.0512167611
30
0.0000000000
10
3.1503406746
20
-17.1354429380
30
0.0000000000
10
3.0412234722
20
-17.2188558586
30
0.0000000000
11
3.3667440685
21
-16.9661887347
31
0.0000000000
11
3.0412234722
21
-17.2188558586
31
0.0000000000
0
SPLINE
5
4BD
100
AcDbEntity
8
0
100
AcDbSpline
62
7
6
CONTINUOUS
70
0
71
3
72
8
73
4
74
2
42
0.0000001000
43
0.0000001000
44
0.0000000001
12
0.3236756919
22
-0.2550841455
32
0.0000000000
13
0.3273514866
23
-0.2502389104
33
0.0000000000
40
0.0000000000
40
0.0000000000
40
0.0000000000
40
0.0000000000
40
1.0000000000
40
1.0000000000
40
1.0000000000
40
1.0000000000
10
-8.7195207459
20
-16.9661886290
30
0.0000000000
10
-8.6116288485
20
-17.0512166775
30
0.0000000000
10
-8.5031173997
20
-17.1354428885
30
0.0000000000
10
-8.3940002375
20
-17.2188558586
30
0.0000000000
11
-8.7195207459
21
-16.9661886290
31
0.0000000000
11
-8.3940002375
21
-17.2188558586
31
0.0000000000
0
SPLINE
5
4BE
100
AcDbEntity
8
0
100
AcDbSpline
62
9
6
CONTINUOUS
70
0
71
3
72
10
73
6
74
4
42
0.0000001000
43
0.0000001000
44
0.0000000001
12
0.0315206205
22
-0.0413434880
32
0.0000000000
13
0.0316159343
23
-0.0412706459
33
0.0000000000
40
0.0000000000
40
0.0000000000
40
0.0000000000
40
0.0000000000
40
0.3332342386
40
0.6665681207
40
1.0000000000
40
1.0000000000
40
1.0000000000
40
1.0000000000
10
-8.0901820023
20
-17.3215545887
30
0.0000000000
10
-8.0866807523
20
-17.3261469440
30
0.0000000000
10
-8.0796736741
20
-17.3353303360
30
0.0000000000
10
-8.0691509125
20
-17.3490993728
30
0.0000000000
10
-8.0621276325
20
-17.3582746937
30
0.0000000000
10
-8.0586137124
20
-17.3628616767
30
0.0000000000
11
-8.0901820023
21
-17.3215545887
31
0.0000000000
11
-8.0796729573
21
-17.3353276158
31
0.0000000000
11
-8.0691501785
21
-17.3490966735
31
0.0000000000
11
-8.0586137124
21
-17.3628616767
31
0.0000000000
0
SPLINE
5
4BF
100
AcDbEntity
8
0
100
AcDbSpline
62
9
6
CONTINUOUS
70
0
71
3
72
10
73
6
74
4
42
0.0000001000
43
0.0000001000
44
0.0000000001
12
0.0316159344
22
0.0412706460
32
0.0000000000
13
0.0315206206
23
0.0413434881
33
0.0000000000
40
0.0000000000
40
0.0000000000
40
0.0000000000
40
0.0000000000
40
0.3334331566
40
0.6667683116
40
1.0000000000
40
1.0000000000
40
1.0000000000
40
1.0000000000
10
2.7058369469
20
-17.3628616767
30
0.0000000000
10
2.7093508805
20
-17.3582746761
30
0.0000000000
10
2.7163741875
20
-17.3490993203
30
0.0000000000
10
2.7268969490
20
-17.3353302833
30
0.0000000000
10
2.7339040138
20
-17.3261469088
30
0.0000000000
10
2.7374052370
20
-17.3215545887
30
0.0000000000
11
2.7058369469
21
-17.3628616767
31
0.0000000000
11
2.7163734535
21
-17.3490966209
31
0.0000000000
11
2.7268962725
21
-17.3353275105
31
0.0000000000
11
2.7374052370
21
-17.3215545887
31
0.0000000000
0
SPLINE
5
4C0
100
AcDbEntity
8
0
100
AcDbSpline
62
9
6
CONTINUOUS
70
0
71
3
72
10
73
6
74
4
42
0.0000001000
43
0.0000001000
44
0.0000000001
12
0.0323645382
22
0.0418557011
32
0.0000000000
13
0.0322682064
23
0.0419300120
33
0.0000000000
40
0.0000000000
40
0.0000000000
40
0.0000000000
40
0.0000000000
40
0.3334318961
40
0.6667661491
40
1.0000000000
40
1.0000000000
40
1.0000000000
40
1.0000000000
10
3.0089070875
20
-17.2607487367
30
0.0000000000
10
3.0125042106
20
-17.2560967281
30
0.0000000000
10
3.0196938376
20
-17.2467913153
30
0.0000000000
10
3.0304659645
20
-17.2328270153
30
0.0000000000
10
3.0376391860
20
-17.2235133584
30
0.0000000000
10
3.0412234722
20
-17.2188558586
30
0.0000000000
11
3.0089070875
21
-17.2607487367
31
0.0000000000
11
3.0196931056
21
-17.2467885748
31
0.0000000000
11
3.0304652618
21
-17.2328242378
31
0.0000000000
11
3.0412234722
21
-17.2188558586
31
0.0000000000
0
SPLINE
5
4C1
100
AcDbEntity
8
0
100
AcDbSpline
62
9
6
CONTINUOUS
70
0
71
3
72
10
73
6
74
4
42
0.0000001000
43
0.0000001000
44
0.0000000001
12
0.0322682062
22
-0.0419300118
32
0.0000000000
13
0.0323645380
23
-0.0418557009
33
0.0000000000
40
0.0000000000
40
0.0000000000
40
0.0000000000
40
0.0000000000
40
0.3332358079
40
0.6665690855
40
1.0000000000
40
1.0000000000
40
1.0000000000
40
1.0000000000
10
-8.3940002375
20
-17.2188558586
30
0.0000000000
10
-8.3904159302
20
-17.2235133857
30
0.0000000000
10
-8.3832426982
20
-17.2328270562
30
0.0000000000
10
-8.3724705713
20
-17.2467913561
30
0.0000000000
10
-8.3652809655
20
-17.2560967416
30
0.0000000000
10
-8.3616838530
20
-17.2607487365
30
0.0000000000
11
-8.3940002375
21
-17.2188558586
31
0.0000000000
11
-8.3832419639
21
-17.2328243198
31
0.0000000000
11
-8.3724698392
21
-17.2467886157
31
0.0000000000
11
-8.3616838530
21
-17.2607487365
31
0.0000000000
0
SPLINE
5
4C2
100
AcDbEntity
8
0
100
AcDbSpline
62
9
6
CONTINUOUS
70
0
71
3
72
10
73
6
74
4
42
0.0000001000
43
0.0000001000
44
0.0000000001
12
-0.1658279881
22
-0.0744221258
32
0.0000000000
13
-0.1114294938
23
0.1436002867
33
0.0000000000
40
0.0000000000
40
0.0000000000
40
0.0000000000
40
0.0000000000
40
0.1412625562
40
0.5012066926
40
1.0000000000
40
1.0000000000
40
1.0000000000
40
1.0000000000
10
3.0412039183
20
-17.2188302044
30
0.0000000000
10
3.0333954898
20
-17.2223345577
30
0.0000000000
10
3.0103759010
20
-17.1858749390
30
0.0000000000
10
2.9714095761
20
-17.1532383118
30
0.0000000000
10
2.9385118468
20
-17.1080799725
30
0.0000000000
10
2.9199850849
20
-17.0842043519
30
0.0000000000
11
3.0412039183
21
-17.2188302044
31
0.0000000000
11
3.0206967682
21
-17.2033794691
31
0.0000000000
11
2.9769191275
21
-17.1547599350
31
0.0000000000
11
2.9199850849
21
-17.0842043519
31
0.0000000000
0
SPLINE
5
4C3
100
AcDbEntity
8
0
100
AcDbSpline
62
9
6
CONTINUOUS
70
0
71
3
72
10
73
6
74
4
42
0.0000001000
43
0.0000001000
44
0.0000000001
12
-0.1114475588
22
-0.1436235642
32
0.0000000000
13
-0.1658783151
23
0.0743819275
33
0.0000000000
40
0.0000000000
40
0.0000000000
40
0.0000000000
40
0.0000000000
40
0.4987811298
40
0.8587291876
40
1.0000000000
40
1.0000000000
40
1.0000000000
40
1.0000000000
10
-8.2727618501
20
-17.0842043520
30
0.0000000000
10
-8.2912911632
20
-17.1080832599
30
0.0000000000
10
-8.3241926367
20
-17.1532474948
30
0.0000000000
10
-8.3631683119
20
-17.1858924172
30
0.0000000000
10
-8.3861874741
20
-17.2223565460
30
0.0000000000
10
-8.3939987289
20
-17.2188538809
30
0.0000000000
11
-8.2727618501
21
-17.0842043520
31
0.0000000000
11
-8.3297035594
21
-17.1547697891
31
0.0000000000
11
-8.3734881250
21
-17.2033983187
31
0.0000000000
11
-8.3939987289
21
-17.2188538809
31
0.0000000000
0
SPLINE
5
4C4
100
AcDbEntity
8
0
100
AcDbSpline
62
9
6
CONTINUOUS
70
0
71
3
72
10
73
6
74
4
42
0.0000001000
43
0.0000001000
44
0.0000000001
12
0.2590201609
22
-0.1976631525
32
0.0000000000
13
0.3258252203
23
0.0003023573
33
0.0000000000
40
0.0000000000
40
0.0000000000
40
0.0000000000
40
0.0000000000
40
0.3341293940
40
0.6673063544
40
1.0000000000
40
1.0000000000
40
1.0000000000
40
1.0000000000
10
-8.3940002375
20
-17.2188558586
30
0.0000000000
10
-8.3651514877
20
-17.2408708817
30
0.0000000000
10
-8.3025234255
20
-17.2786885985
30
0.0000000000
10
-8.1988944909
20
-17.3137056832
30
0.0000000000
10
-8.1263153292
20
-17.3215881195
30
0.0000000000
10
-8.0901820024
20
-17.3215545887
30
0.0000000000
11
-8.3940002375
21
-17.2188558586
31
0.0000000000
11
-8.3007983323
21
-17.2751196067
31
0.0000000000
11
-8.1979491823
21
-17.3098584012
31
0.0000000000
11
-8.0901820024
21
-17.3215545887
31
0.0000000000
0
SPLINE
5
4C5
100
AcDbEntity
8
0
100
AcDbSpline
62
9
6
CONTINUOUS
70
0
71
3
72
9
73
5
74
3
42
0.0000001000
43
0.0000001000
44
0.0000000001
12
-0.2584159958
22
-0.1971312267
32
0.0000000000
13
-0.3250222679
23
0.0002697731
33
0.0000000000
40
0.0000000000
40
0.0000000000
40
0.0000000000
40
0.0000000000
40
0.5008540138
40
1.0000000000
40
1.0000000000
40
1.0000000000
40
1.0000000000
10
3.0412234722
20
-17.2188558586
30
0.0000000000
10
2.9980805760
20
-17.2517671807
30
0.0000000000
10
2.9005721677
20
-17.3038000350
30
0.0000000000
10
2.7914830907
20
-17.3215994741
30
0.0000000000
10
2.7374052372
20
-17.3215545887
30
0.0000000000
11
3.0412234722
21
-17.2188558586
31
0.0000000000
11
2.8975005550
21
-17.2953012940
31
0.0000000000
11
2.7374052372
21
-17.3215545887
31
0.0000000000
0
SPLINE
5
4C6
100
AcDbEntity
8
0
100
AcDbSpline
62
9
6
CONTINUOUS
70
0
71
3
72
9
73
5
74
3
42
0.0000001000
43
0.0000001000
44
0.0000000001
12
-0.1179010979
22
0.0001094083
32
0.0000000000
13
-0.1148835833
23
-0.0276201190
33
0.0000000000
40
0.0000000000
40
0.0000000000
40
0.0000000000
40
0.0000000000
40
0.9194147848
40
1.0000000000
40
1.0000000000
40
1.0000000000
40
1.0000000000
10
-8.0901820024
20
27.3958312353
30
0.0000000000
10
-8.1263153399
20
27.3958647658
30
0.0000000000
10
-8.1657570065
20
27.3915812154
30
0.0000000000
10
-8.2041427120
20
27.3827396400
30
0.0000000000
10
-8.2072286847
20
27.3819977156
30
0.0000000000
11
-8.0901820024
21
27.3958312353
31
0.0000000000
11
-8.1979492139
21
27.3841350408
31
0.0000000000
11
-8.2072286847
21
27.3819977156
31
0.0000000000
0
SPLINE
5
4C7
100
AcDbEntity
8
0
100
AcDbSpline
62
9
6
CONTINUOUS
70
0
71
3
72
8
73
4
74
2
42
0.0000001000
43
0.0000001000
44
0.0000000001
12
0.1170638321
22
0.0000971606
32
0.0000000000
13
0.1145576812
23
-0.0273474289
33
0.0000000000
40
0.0000000000
40
0.0000000000
40
0.0000000000
40
0.0000000000
40
1.0000000000
40
1.0000000000
40
1.0000000000
40
1.0000000000
10
2.7374052372
20
27.3958312353
30
0.0000000000
10
2.7764265145
20
27.3958636221
30
0.0000000000
10
2.8156422745
20
27.3912467227
30
0.0000000000
10
2.8538281682
20
27.3821309130
30
0.0000000000
11
2.7374052372
21
27.3958312353
31
0.0000000000
11
2.8538281682
21
27.3821309130
31
0.0000000000
0
SPLINE
5
4C8
100
AcDbEntity
8
0
100
AcDbSpline
62
9
6
CONTINUOUS
70
0
71
3
72
10
73
6
74
4
42
0.0000001000
43
0.0000001000
44
0.0000000001
12
-0.0316159344
22
-0.0412706461
32
0.0000000000
13
-0.0315206206
23
-0.0413434881
33
0.0000000000
40
0.0000000000
40
0.0000000000
40
0.0000000000
40
0.0000000000
40
0.3334318816
40
0.6667657626
40
1.0000000000
40
1.0000000000
40
1.0000000000
40
1.0000000000
10
-8.0586137121
20
27.4371383233
30
0.0000000000
10
-8.0621276323
20
27.4325513402
30
0.0000000000
10
-8.0691509125
20
27.4233760195
30
0.0000000000
10
-8.0796736740
20
27.4096069825
30
0.0000000000
10
-8.0866807523
20
27.4004235905
30
0.0000000000
10
-8.0901820023
20
27.3958312353
30
0.0000000000
11
-8.0586137121
21
27.4371383233
31
0.0000000000
11
-8.0691501785
21
27.4233733201
31
0.0000000000
11
-8.0796729573
21
27.4096042624
31
0.0000000000
11
-8.0901820023
21
27.3958312353
31
0.0000000000
0
SPLINE
5
4C9
100
AcDbEntity
8
0
100
AcDbSpline
62
9
6
CONTINUOUS
70
0
71
3
72
10
73
6
74
4
42
0.0000001000
43
0.0000001000
44
0.0000000001
12
-0.0315206205
22
0.0413434879
32
0.0000000000
13
-0.0316159342
23
0.0412706459
33
0.0000000000
40
0.0000000000
40
0.0000000000
40
0.0000000000
40
0.0000000000
40
0.3332316871
40
0.6665668446
40
1.0000000000
40
1.0000000000
40
1.0000000000
40
1.0000000000
10
2.7374052370
20
27.3958312353
30
0.0000000000
10
2.7339040138
20
27.4004235554
30
0.0000000000
10
2.7268969491
20
27.4096069298
30
0.0000000000
10
2.7163741875
20
27.4233759667
30
0.0000000000
10
2.7093508808
20
27.4325513227
30
0.0000000000
10
2.7058369472
20
27.4371383233
30
0.0000000000
11
2.7374052370
21
27.3958312353
31
0.0000000000
11
2.7268962725
21
27.4096041570
31
0.0000000000
11
2.7163734536
21
27.4233732674
31
0.0000000000
11
2.7058369472
21
27.4371383233
31
0.0000000000
0
SPLINE
5
4CA
100
AcDbEntity
8
0
100
AcDbSpline
62
7
6
CONTINUOUS
70
0
71
3
72
11
73
7
74
5
42
0.0000001000
43
0.0000001000
44
0.0000000001
12
0.0554308687
22
0.1664278388
32
0.0000000000
13
0.0003759531
23
0.1754156931
33
0.0000000000
40
0.0000000000
40
0.0000000000
40
0.0000000000
40
0.0000000000
40
0.0887086314
40
0.3042381336
40
0.6212797859
40
1.0000000000
40
1.0000000000
40
1.0000000000
40
1.0000000000
10
0.5351178222
20
-17.3215545887
30
0.0000000000
10
0.5367568877
20
-17.3166333935
30
0.0000000000
10
0.5356246317
20
-17.2983650403
30
0.0000000000
10
0.5380703281
20
-17.2624545591
30
0.0000000000
10
0.5379230302
20
-17.2089721889
30
0.0000000000
10
0.5383526478
20
-17.1683470401
30
0.0000000000
10
0.5384001082
20
-17.1462025504
30
0.0000000000
11
0.5351178222
21
-17.3215545887
31
0.0000000000
11
0.5362946904
21
-17.3060382339
31
0.0000000000
11
0.5373132612
21
-17.2682446132
31
0.0000000000
11
0.5380455569
21
-17.2126352257
31
0.0000000000
11
0.5384001082
21
-17.1462025504
31
0.0000000000
0
SPLINE
5
4CB
100
AcDbEntity
8
0
100
AcDbSpline
62
7
6
CONTINUOUS
70
0
71
3
72
11
73
7
74
5
42
0.0000001000
43
0.0000001000
44
0.0000000001
12
0.0003759530
22
-0.1754156304
32
0.0000000000
13
0.0554308489
23
-0.1664277793
33
0.0000000000
40
0.0000000000
40
0.0000000000
40
0.0000000000
40
0.0000000000
40
0.3772011303
40
0.6940741599
40
0.9106328018
40
1.0000000000
40
1.0000000000
40
1.0000000000
40
1.0000000000
10
-5.8911768734
20
-17.1462025504
30
0.0000000000
10
-5.8911296034
20
-17.1682582085
30
0.0000000000
10
-5.8907019032
20
-17.2087849919
30
0.0000000000
10
-5.8908513389
20
-17.2622284688
30
0.0000000000
10
-5.8883984613
20
-17.2982263150
30
0.0000000000
10
-5.8895458206
20
-17.3165968606
30
0.0000000000
10
-5.8878945874
20
-17.3215545887
30
0.0000000000
11
-5.8911768734
21
-17.1462025504
31
0.0000000000
11
-5.8908246881
21
-17.2123687392
31
0.0000000000
11
-5.8900955676
21
-17.2679485669
31
0.0000000000
11
-5.8890762133
21
-17.3059227458
31
0.0000000000
11
-5.8878945874
21
-17.3215545887
31
0.0000000000
0
SPLINE
5
4CC
100
AcDbEntity
8
0
100
AcDbSpline
62
7
6
CONTINUOUS
70
0
71
3
72
8
73
4
74
2
42
0.0000001000
43
0.0000001000
44
0.0000000001
12
-0.0044729757
22
-0.0134298398
32
0.0000000000
13
0.0004139206
23
-0.0143968189
33
0.0000000000
40
0.0000000000
40
0.0000000000
40
0.0000000000
40
0.0000000000
40
1.0000000000
40
1.0000000000
40
1.0000000000
40
1.0000000000
10
-5.8878945874
20
27.3958312353
30
0.0000000000
10
-5.8893855793
20
27.3913546220
30
0.0000000000
10
-5.8892569926
20
27.3865447948
30
0.0000000000
10
-5.8891190191
20
27.3817458552
30
0.0000000000
11
-5.8878945874
21
27.3958312353
31
0.0000000000
11
-5.8891190191
21
27.3817458552
31
0.0000000000
0
SPLINE
5
4CD
100
AcDbEntity
8
0
100
AcDbSpline
62
7
6
CONTINUOUS
70
0
71
3
72
8
73
4
74
2
42
0.0000001000
43
0.0000001000
44
0.0000000001
12
0.0004094549
22
0.0143935611
32
0.0000000000
13
-0.0044722118
23
0.0134275462
33
0.0000000000
40
0.0000000000
40
0.0000000000
40
0.0000000000
40
0.0000000000
40
1.0000000000
40
1.0000000000
40
1.0000000000
40
1.0000000000
10
0.5363332328
20
27.3817461686
30
0.0000000000
10
0.5364697178
20
27.3865440223
30
0.0000000000
10
0.5366085594
20
27.3913553865
30
0.0000000000
10
0.5351178222
20
27.3958312353
30
0.0000000000
11
0.5363332328
21
27.3817461686
31
0.0000000000
11
0.5351178222
21
27.3958312353
31
0.0000000000
0
SPLINE
5
4CE
100
AcDbEntity
8
0
100
AcDbSpline
62
9
6
CONTINUOUS
70
0
71
3
72
8
73
4
74
2
42
0.0000001000
43
0.0000001000
44
0.0000000001
12
-0.1535171560
22
-0.1190707689
32
0.0000000000
13
-0.1543351579
23
-0.1179820928
33
0.0000000000
40
0.0000000000
40
0.0000000000
40
0.0000000000
40
0.0000000000
40
1.0000000000
40
1.0000000000
40
1.0000000000
40
1.0000000000
10
3.0739119783
20
-16.9656773161
30
0.0000000000
10
3.0227395930
20
-17.0053675724
30
0.0000000000
10
2.9714301376
20
-17.0448769877
30
0.0000000000
10
2.9199850849
20
-17.0842043520
30
0.0000000000
11
3.0739119783
21
-16.9656773161
31
0.0000000000
11
2.9199850849
21
-17.0842043520
31
0.0000000000
0
SPLINE
5
4CF
100
AcDbEntity
8
0
100
AcDbSpline
62
9
6
CONTINUOUS
70
0
71
3
72
9
73
5
74
3
42
0.0000001000
43
0.0000001000
44
0.0000000001
12
-0.1552630641
22
-0.1186630013
32
0.0000000000
13
-0.1954162914
23
0.0000033326
33
0.0000000000
40
0.0000000000
40
0.0000000000
40
0.0000000000
40
0.0000000000
40
0.5010908537
40
1.0000000000
40
1.0000000000
40
1.0000000000
40
1.0000000000
10
2.9199850849
20
-17.0842043520
30
0.0000000000
10
2.8940514511
20
-17.1040246669
30
0.0000000000
10
2.8354847336
20
-17.1354081758
30
0.0000000000
10
2.7699035622
20
-17.1462031047
30
0.0000000000
10
2.7374052372
20
-17.1462025504
30
0.0000000000
11
2.9199850849
21
-17.0842043520
31
0.0000000000
11
2.8335956846
21
-17.1303070168
31
0.0000000000
11
2.7374052372
21
-17.1462025504
31
0.0000000000
0
SPLINE
5
4D0
100
AcDbEntity
8
0
100
AcDbSpline
62
9
6
CONTINUOUS
70
0
71
3
72
10
73
6
74
4
42
0.0000001000
43
0.0000001000
44
0.0000000001
12
0.1555984187
22
-0.1190161755
32
0.0000000000
13
0.1958972087
23
0.0000394892
33
0.0000000000
40
0.0000000000
40
0.0000000000
40
0.0000000000
40
0.0000000000
40
0.3350727552
40
0.6686945144
40
1.0000000000
40
1.0000000000
40
1.0000000000
40
1.0000000000
10
-8.2727618501
20
-17.0842043520
30
0.0000000000
10
-8.2553829199
20
-17.0974973780
30
0.0000000000
10
-8.2176716528
20
-17.1203183982
30
0.0000000000
10
-8.1553859767
20
-17.1414309943
30
0.0000000000
10
-8.1118159423
20
-17.1462069114
30
0.0000000000
10
-8.0901820024
20
-17.1462025504
30
0.0000000000
11
-8.2727618501
21
-17.0842043520
31
0.0000000000
11
-8.2166008395
21
-17.1181826789
31
0.0000000000
11
-8.1546992989
21
-17.1391481301
31
0.0000000000
11
-8.0901820024
21
-17.1462025504
31
0.0000000000
0
SPLINE
5
4D1
100
AcDbEntity
8
0
100
AcDbSpline
62
9
6
CONTINUOUS
70
0
71
3
72
8
73
4
74
2
42
0.0000001000
43
0.0000001000
44
0.0000000001
12
0.1535175811
22
-0.1190712618
32
0.0000000000
13
0.1543355550
23
-0.1179826229
33
0.0000000000
40
0.0000000000
40
0.0000000000
40
0.0000000000
40
0.0000000000
40
1.0000000000
40
1.0000000000
40
1.0000000000
40
1.0000000000
10
-8.4266891550
20
-16.9656768051
30
0.0000000000
10
-8.3755166280
20
-17.0053672257
30
0.0000000000
10
-8.3242070351
20
-17.0448768111
30
0.0000000000
10
-8.2727618501
20
-17.0842043520
30
0.0000000000
11
-8.4266891550
21
-16.9656768051
31
0.0000000000
11
-8.2727618501
21
-17.0842043520
31
0.0000000000
0
SPLINE
5
4D2
100
AcDbEntity
8
0
100
AcDbSpline
62
7
6
CONTINUOUS
70
0
71
3
72
9
73
5
74
3
42
0.0000001000
43
0.0000001000
44
0.0000000001
12
0.2941717047
22
-0.7188234137
32
0.0000000000
13
-0.0000000000
23
-0.7751361416
33
0.0000000000
40
0.0000000000
40
0.0000000000
40
0.0000000000
40
0.0000000000
40
0.4310936623
40
1.0000000000
40
1.0000000000
40
1.0000000000
40
1.0000000000
10
30.9746702535
20
21.7617601235
30
0.0000000000
10
31.0169421060
20
21.6584667175
30
0.0000000000
10
31.0948690063
20
21.4107451128
30
0.0000000000
10
31.1236116174
20
21.1514323414
30
0.0000000000
10
31.1236116174
20
21.0044390535
30
0.0000000000
11
30.9746702535
21
21.7617601235
31
0.0000000000
11
31.0749891975
21
21.4427301672
31
0.0000000000
11
31.1236116174
21
21.0044390535
31
0.0000000000
0
SPLINE
5
4D3
100
AcDbEntity
8
0
100
AcDbSpline
62
7
6
CONTINUOUS
70
0
71
3
72
9
73
5
74
3
42
0.0000001000
43
0.0000001000
44
0.0000000001
12
0.0000000000
22
-0.7751361416
32
0.0000000000
13
-0.2941717047
23
-0.7188234137
33
0.0000000000
40
0.0000000000
40
0.0000000000
40
0.0000000000
40
0.0000000000
40
0.5689063377
40
1.0000000000
40
1.0000000000
40
1.0000000000
40
1.0000000000
10
31.1236116174
20
-10.9301624070
30
0.0000000000
10
31.1236116174
20
-11.0771556948
30
0.0000000000
10
31.0948690063
20
-11.3364684662
30
0.0000000000
10
31.0169421060
20
-11.5841900709
30
0.0000000000
10
30.9746702535
20
-11.6874834769
30
0.0000000000
11
31.1236116174
21
-10.9301624070
31
0.0000000000
11
31.0749891975
21
-11.3684535207
31
0.0000000000
11
30.9746702535
21
-11.6874834769
31
0.0000000000
0
SPLINE
5
4D4
100
AcDbEntity
8
0
100
AcDbSpline
62
7
6
CONTINUOUS
70
0
71
3
72
9
73
5
74
3
42
0.0000001000
43
0.0000001000
44
0.0000000001
12
0.0502612152
22
0.0257934777
32
0.0000000000
13
0.0528115021
23
0.0199384429
33
0.0000000000
40
0.0000000000
40
0.0000000000
40
0.0000000000
40
0.0000000000
40
0.3620998020
40
1.0000000000
40
1.0000000000
40
1.0000000000
40
1.0000000000
10
14.2129276367
20
27.3820322372
30
0.0000000000
10
14.2189941621
20
27.3851455082
30
0.0000000000
10
14.2359225620
20
27.3934006173
30
0.0000000000
10
14.2532889915
20
27.4006820312
30
0.0000000000
10
14.2645184808
20
27.4049216101
30
0.0000000000
11
14.2129276367
21
27.3820322372
31
0.0000000000
11
14.2313111354
21
27.3909961877
31
0.0000000000
11
14.2645184808
21
27.4049216101
31
0.0000000000
0
SPLINE
5
4D5
100
AcDbEntity
8
0
100
AcDbSpline
62
7
6
CONTINUOUS
70
0
71
3
72
8
73
4
74
2
42
0.0000001000
43
0.0000001000
44
0.0000000001
12
0.0675615626
22
0.0255071775
32
0.0000000000
13
0.0705675484
23
0.0155097751
33
0.0000000000
40
0.0000000000
40
0.0000000000
40
0.0000000000
40
0.0000000000
40
1.0000000000
40
1.0000000000
40
1.0000000000
40
1.0000000000
10
14.2645184808
20
27.4049216101
30
0.0000000000
10
14.2870390016
20
27.4134240026
30
0.0000000000
10
14.3101686084
20
27.4202965536
30
0.0000000000
10
14.3336911245
20
27.4254664786
30
0.0000000000
11
14.2645184808
21
27.4049216101
31
0.0000000000
11
14.3336911245
21
27.4254664786
31
0.0000000000
0
SPLINE
5
4D6
100
AcDbEntity
8
0
100
AcDbSpline
62
7
6
CONTINUOUS
70
0
71
3
72
8
73
4
74
2
42
0.0000001000
43
0.0000001000
44
0.0000000001
12
0.1057566531
22
0.0232438555
32
0.0000000000
13
0.1080289296
23
0.0000000000
33
0.0000000000
40
0.0000000000
40
0.0000000000
40
0.0000000000
40
0.0000000000
40
1.0000000000
40
1.0000000000
40
1.0000000000
40
1.0000000000
10
14.3336911245
20
27.4254664786
30
0.0000000000
10
14.3689433422
20
27.4332144304
30
0.0000000000
10
14.4050780254
20
27.4371383233
30
0.0000000000
10
14.4410876686
20
27.4371383233
30
0.0000000000
11
14.3336911245
21
27.4254664786
31
0.0000000000
11
14.4410876686
21
27.4371383233
31
0.0000000000
0
SPLINE
5
4D7
100
AcDbEntity
8
0
100
AcDbSpline
62
7
6
CONTINUOUS
70
0
71
3
72
8
73
4
74
2
42
0.0000001000
43
0.0000001000
44
0.0000000001
12
0.1075926774
22
0.0000000000
32
0.0000000000
13
0.1053478370
23
-0.0230573058
33
0.0000000000
40
0.0000000000
40
0.0000000000
40
0.0000000000
40
0.0000000000
40
1.0000000000
40
1.0000000000
40
1.0000000000
40
1.0000000000
10
25.2153864595
20
27.4371383233
30
0.0000000000
10
25.2512506853
20
27.4371383233
30
0.0000000000
10
25.2872384506
20
27.4332463239
30
0.0000000000
10
25.3223543963
20
27.4255605553
30
0.0000000000
11
25.2153864595
21
27.4371383233
31
0.0000000000
11
25.3223543963
21
27.4255605553
31
0.0000000000
0
SPLINE
5
4D8
100
AcDbEntity
8
0
100
AcDbSpline
62
7
6
CONTINUOUS
70
0
71
3
72
8
73
4
74
2
42
0.0000001000
43
0.0000001000
44
0.0000000001
12
0.0702942512
22
-0.0153851858
32
0.0000000000
13
0.0673243694
23
-0.0253050321
33
0.0000000000
40
0.0000000000
40
0.0000000000
40
0.0000000000
40
0.0000000000
40
1.0000000000
40
1.0000000000
40
1.0000000000
40
1.0000000000
10
25.3223543963
20
27.4255605553
30
0.0000000000
10
25.3457858134
20
27.4204321600
30
0.0000000000
10
25.3688290666
20
27.4136146495
30
0.0000000000
10
25.3912705231
20
27.4051796388
30
0.0000000000
11
25.3223543963
21
27.4255605553
31
0.0000000000
11
25.3912705231
21
27.4051796388
31
0.0000000000
0
SPLINE
5
4D9
100
AcDbEntity
8
0
100
AcDbSpline
62
7
6
CONTINUOUS
70
0
71
3
72
9
73
5
74
3
42
0.0000001000
43
0.0000001000
44
0.0000000001
12
0.0535403313
22
-0.0201240622
32
0.0000000000
13
0.0509260188
23
-0.0261363206
33
0.0000000000
40
0.0000000000
40
0.0000000000
40
0.0000000000
40
0.0000000000
40
0.6270215160
40
1.0000000000
40
1.0000000000
40
1.0000000000
40
1.0000000000
10
25.3912705231
20
27.4051796388
30
0.0000000000
10
25.4024608363
20
27.4009735655
30
0.0000000000
10
25.4200689698
20
27.3936241221
30
0.0000000000
10
25.4372291328
20
27.3852742957
30
0.0000000000
10
25.4435605693
20
27.3820248673
30
0.0000000000
11
25.3912705231
21
27.4051796388
31
0.0000000000
11
25.4243660711
21
27.3913637407
31
0.0000000000
11
25.4435605693
21
27.3820248673
31
0.0000000000
0
SPLINE
5
4DA
100
AcDbEntity
8
0
100
AcDbSpline
62
7
6
CONTINUOUS
70
0
71
3
72
8
73
4
74
2
42
0.0000001000
43
0.0000001000
44
0.0000000001
12
-0.1080289296
22
0.0000000000
32
0.0000000000
13
-0.1057566531
23
0.0232438555
33
0.0000000000
40
0.0000000000
40
0.0000000000
40
0.0000000000
40
0.0000000000
40
1.0000000000
40
1.0000000000
40
1.0000000000
40
1.0000000000
10
14.4410876686
20
-17.3628616767
30
0.0000000000
10
14.4050780254
20
-17.3628616767
30
0.0000000000
10
14.3689433422
20
-17.3589377839
30
0.0000000000
10
14.3336911245
20
-17.3511898320
30
0.0000000000
11
14.4410876686
21
-17.3628616767
31
0.0000000000
11
14.3336911245
21
-17.3511898320
31
0.0000000000
0
SPLINE
5
4DB
100
AcDbEntity
8
0
100
AcDbSpline
62
7
6
CONTINUOUS
70
0
71
3
72
8
73
4
74
2
42
0.0000001000
43
0.0000001000
44
0.0000000001
12
-0.0705675484
22
0.0155097751
32
0.0000000000
13
-0.0675615626
23
0.0255071775
33
0.0000000000
40
0.0000000000
40
0.0000000000
40
0.0000000000
40
0.0000000000
40
1.0000000000
40
1.0000000000
40
1.0000000000
40
1.0000000000
10
14.3336911245
20
-17.3511898320
30
0.0000000000
10
14.3101686084
20
-17.3460199070
30
0.0000000000
10
14.2870390016
20
-17.3391473561
30
0.0000000000
10
14.2645184808
20
-17.3306449635
30
0.0000000000
11
14.3336911245
21
-17.3511898320
31
0.0000000000
11
14.2645184808
21
-17.3306449635
31
0.0000000000
0
SPLINE
5
4DC
100
AcDbEntity
8
0
100
AcDbSpline
62
7
6
CONTINUOUS
70
0
71
3
72
9
73
5
74
3
42
0.0000001000
43
0.0000001000
44
0.0000000001
12
-0.0866637684
22
0.0327190201
32
0.0000000000
13
-0.0791868079
23
0.0481485283
33
0.0000000000
40
0.0000000000
40
0.0000000000
40
0.0000000000
40
0.0000000000
40
0.3887260876
40
1.0000000000
40
1.0000000000
40
1.0000000000
40
1.0000000000
10
14.2645184808
20
-17.3306449635
30
0.0000000000
10
14.2532889915
20
-17.3264053847
30
0.0000000000
10
14.2247906500
20
-17.3144565716
30
0.0000000000
10
14.1974718724
20
-17.2998857075
30
0.0000000000
10
14.1813369291
20
-17.2900750611
30
0.0000000000
11
14.2645184808
21
-17.3306449635
31
0.0000000000
11
14.2313111354
21
-17.3167195411
31
0.0000000000
11
14.1813369291
21
-17.2900750611
31
0.0000000000
0
SPLINE
5
4DD
100
AcDbEntity
8
0
100
AcDbSpline
62
7
6
CONTINUOUS
70
0
71
3
72
8
73
4
74
2
42
0.0000001000
43
0.0000001000
44
0.0000000001
12
-0.0441113348
22
0.0268213344
32
0.0000000000
13
-0.0410189350
23
0.0311527875
33
0.0000000000
40
0.0000000000
40
0.0000000000
40
0.0000000000
40
0.0000000000
40
1.0000000000
40
1.0000000000
40
1.0000000000
40
1.0000000000
10
14.1813369291
20
-17.2900750611
30
0.0000000000
10
14.1666331508
20
-17.2811346163
30
0.0000000000
10
14.1523980163
20
-17.2714435467
30
0.0000000000
10
14.1387250380
20
-17.2610592842
30
0.0000000000
11
14.1813369291
21
-17.2900750611
31
0.0000000000
11
14.1387250380
21
-17.2610592842
31
0.0000000000
0
SPLINE
5
4DE
100
AcDbEntity
8
0
100
AcDbSpline
62
7
6
CONTINUOUS
70
0
71
3
72
8
73
4
74
2
42
0.0000001000
43
0.0000001000
44
0.0000000001
12
-0.0288896471
22
-0.0218212044
32
0.0000000000
13
-0.0304527474
23
-0.0197022604
33
0.0000000000
40
0.0000000000
40
0.0000000000
40
0.0000000000
40
0.0000000000
40
1.0000000000
40
1.0000000000
40
1.0000000000
40
1.0000000000
10
25.5166997024
20
-17.2618540898
30
0.0000000000
10
25.5070698200
20
-17.2691278246
30
0.0000000000
10
25.4971631618
20
-17.2760583378
30
0.0000000000
10
25.4870122460
20
-17.2826257580
30
0.0000000000
11
25.5166997024
21
-17.2618540898
31
0.0000000000
11
25.4870122460
21
-17.2826257580
31
0.0000000000
0
SPLINE
5
4DF
100
AcDbEntity
8
0
100
AcDbSpline
62
7
6
CONTINUOUS
70
0
71
3
72
8
73
4
74
2
42
0.0000001000
43
0.0000001000
44
0.0000000001
12
-0.0459130078
22
-0.0297047101
32
0.0000000000
13
-0.0489100099
23
-0.0245483233
33
0.0000000000
40
0.0000000000
40
0.0000000000
40
0.0000000000
40
0.0000000000
40
1.0000000000
40
1.0000000000
40
1.0000000000
40
1.0000000000
10
25.4870122460
20
-17.2826257580
30
0.0000000000
10
25.4717079101
20
-17.2925273280
30
0.0000000000
10
25.4558483522
20
-17.3016035512
30
0.0000000000
10
25.4395450155
20
-17.3097863256
30
0.0000000000
11
25.4870122460
21
-17.2826257580
31
0.0000000000
11
25.4395450155
21
-17.3097863256
31
0.0000000000
0
SPLINE
5
4E0
100
AcDbEntity
8
0
100
AcDbSpline
62
7
6
CONTINUOUS
70
0
71
3
72
9
73
5
74
3
42
0.0000001000
43
0.0000001000
44
0.0000000001
12
-0.0471329263
22
-0.0236563909
32
0.0000000000
13
-0.0493282450
23
-0.0185408765
33
0.0000000000
40
0.0000000000
40
0.0000000000
40
0.0000000000
40
0.0000000000
40
0.3194377844
40
1.0000000000
40
1.0000000000
40
1.0000000000
40
1.0000000000
10
25.4395450155
20
-17.3097863256
30
0.0000000000
10
25.4345263363
20
-17.3123052407
30
0.0000000000
10
25.4186837154
20
-17.3199256656
30
0.0000000000
10
25.4024608363
20
-17.3266969189
30
0.0000000000
10
25.3912705231
20
-17.3309029923
30
0.0000000000
11
25.4395450155
21
-17.3097863256
31
0.0000000000
11
25.4243660711
21
-17.3170870941
31
0.0000000000
11
25.3912705231
21
-17.3309029923
31
0.0000000000
0
SPLINE
5
4E1
100
AcDbEntity
8
0
100
AcDbSpline
62
7
6
CONTINUOUS
70
0
71
3
72
8
73
4
74
2
42
0.0000001000
43
0.0000001000
44
0.0000000001
12
-0.0673243694
22
-0.0253050321
32
0.0000000000
13
-0.0702942512
23
-0.0153851858
33
0.0000000000
40
0.0000000000
40
0.0000000000
40
0.0000000000
40
0.0000000000
40
1.0000000000
40
1.0000000000
40
1.0000000000
40
1.0000000000
10
25.3912705231
20
-17.3309029923
30
0.0000000000
10
25.3688290666
20
-17.3393380030
30
0.0000000000
10
25.3457858134
20
-17.3461555135
30
0.0000000000
10
25.3223543963
20
-17.3512839087
30
0.0000000000
11
25.3912705231
21
-17.3309029923
31
0.0000000000
11
25.3223543963
21
-17.3512839087
31
0.0000000000
0
SPLINE
5
4E2
100
AcDbEntity
8
0
100
AcDbSpline
62
7
6
CONTINUOUS
70
0
71
3
72
8
73
4
74
2
42
0.0000001000
43
0.0000001000
44
0.0000000001
12
-0.1053478370
22
-0.0230573058
32
0.0000000000
13
-0.1075926774
23
0.0000000000
33
0.0000000000
40
0.0000000000
40
0.0000000000
40
0.0000000000
40
0.0000000000
40
1.0000000000
40
1.0000000000
40
1.0000000000
40
1.0000000000
10
25.3223543963
20
-17.3512839087
30
0.0000000000
10
25.2872384506
20
-17.3589696773
30
0.0000000000
10
25.2512506853
20
-17.3628616767
30
0.0000000000
10
25.2153864595
20
-17.3628616767
30
0.0000000000
11
25.3223543963
21
-17.3512839087
31
0.0000000000
11
25.2153864595
21
-17.3628616767
31
0.0000000000
0
SPLINE
5
4E3
100
AcDbEntity
8
0
100
AcDbSpline
62
7
6
CONTINUOUS
70
0
71
3
72
9
73
5
74
3
42
0.0000001000
43
0.0000001000
44
0.0000000001
12
-0.2047215014
22
0.0000116600
32
0.0000000000
13
-0.1880799501
23
-0.0819500564
33
0.0000000000
40
0.0000000000
40
0.0000000000
40
0.0000000000
40
0.0000000000
40
0.5277597308
40
1.0000000000
40
1.0000000000
40
1.0000000000
40
1.0000000000
10
14.4456595825
20
27.4235483576
30
0.0000000000
10
14.4096449944
20
27.4235504089
30
0.0000000000
10
14.3411655027
20
27.4161081903
30
0.0000000000
10
14.2758671929
20
27.3949070956
30
0.0000000000
10
14.2462608841
20
27.3820070567
30
0.0000000000
11
14.4456595825
21
27.4235483576
31
0.0000000000
11
14.3382496138
21
27.4118627380
31
0.0000000000
11
14.2462608841
21
27.3820070567
31
0.0000000000
0
SPLINE
5
4E4
100
AcDbEntity
8
0
100
AcDbSpline
62
7
6
CONTINUOUS
70
0
71
3
72
9
73
5
74
3
42
0.0000001000
43
0.0000001000
44
0.0000000001
12
-0.1881072813
22
0.0819773291
32
0.0000000000
13
-0.2047579698
23
-0.0000117528
33
0.0000000000
40
0.0000000000
40
0.0000000000
40
0.0000000000
40
0.0000000000
40
0.4744638264
40
1.0000000000
40
1.0000000000
40
1.0000000000
40
1.0000000000
10
25.4102637977
20
27.3819937223
30
0.0000000000
10
25.3805137642
20
27.3949588147
30
0.0000000000
10
25.3151934514
20
27.4161374832
30
0.0000000000
10
25.2467036810
20
27.4235505842
30
0.0000000000
10
25.2108344410
20
27.4235485253
30
0.0000000000
11
25.4102637977
21
27.3819937223
31
0.0000000000
11
25.3178160177
21
27.4119569905
31
0.0000000000
11
25.2108344410
21
27.4235485253
31
0.0000000000
0
SPLINE
5
4E5
100
AcDbEntity
8
0
100
AcDbSpline
62
7
6
CONTINUOUS
70
0
71
3
72
10
73
6
74
4
42
0.0000001000
43
0.0000001000
44
0.0000000001
12
0.0013243918
22
0.7065252010
32
0.0000000000
13
-0.2436415953
23
0.6639437088
33
0.0000000000
40
0.0000000000
40
0.0000000000
40
0.0000000000
40
0.0000000000
40
0.4697579454
40
0.9388011539
40
1.0000000000
40
1.0000000000
40
1.0000000000
40
1.0000000000
10
31.0966734991
20
20.9951696797
30
0.0000000000
10
31.0968808803
20
21.1058016220
30
0.0000000000
10
31.0789282978
20
21.3273703284
30
0.0000000000
10
31.0210575673
20
21.5567369418
30
0.0000000000
10
30.9792658618
20
21.6745526551
30
0.0000000000
10
30.9742956670
20
21.6880968514
30
0.0000000000
11
31.0966734991
21
20.9951696797
31
0.0000000000
11
31.0698066459
21
21.3259768730
31
0.0000000000
11
30.9887648461
21
21.6473061530
31
0.0000000000
11
30.9742956670
21
21.6880968514
31
0.0000000000
0
SPLINE
5
4E6
100
AcDbEntity
8
0
100
AcDbSpline
62
7
6
CONTINUOUS
70
0
71
3
72
10
73
6
74
4
42
0.0000001000
43
0.0000001000
44
0.0000000001
12
0.2436420061
22
0.6639452668
32
0.0000000000
13
-0.0013158906
23
0.7065267997
33
0.0000000000
40
0.0000000000
40
0.0000000000
40
0.0000000000
40
0.0000000000
40
0.0611839390
40
0.5302447056
40
1.0000000000
40
1.0000000000
40
1.0000000000
40
1.0000000000
10
30.9742953005
20
-11.6138213931
30
0.0000000000
10
30.9792642930
20
-11.6002804642
30
0.0000000000
10
31.0210565705
20
-11.4824639943
30
0.0000000000
10
31.0789278165
20
-11.2530969722
30
0.0000000000
10
31.0968832172
20
-11.0315246016
30
0.0000000000
10
31.0966771683
20
-10.9208930333
30
0.0000000000
11
30.9742953005
21
-11.6138213931
31
0.0000000000
11
30.9887610829
21
-11.5730405721
31
0.0000000000
11
31.0698073097
21
-11.2516988493
31
0.0000000000
11
31.0966771683
21
-10.9208930333
31
0.0000000000
0
SPLINE
5
4E7
100
AcDbEntity
8
0
100
AcDbSpline
62
7
6
CONTINUOUS
70
0
71
3
72
8
73
4
74
2
42
0.0000001000
43
0.0000001000
44
0.0000000001
12
0.3678765964
22
0.2787096239
32
0.0000000000
13
0.3632780997
23
0.2848184044
33
0.0000000000
40
0.0000000000
40
0.0000000000
40
0.0000000000
40
0.0000000000
40
1.0000000000
40
1.0000000000
40
1.0000000000
40
1.0000000000
10
25.5121708229
20
-17.2480962313
30
0.0000000000
10
25.6347963550
20
-17.1551930233
30
0.0000000000
10
25.7566652507
20
-17.0612636611
30
0.0000000000
10
25.8777579506
20
-16.9663241930
30
0.0000000000
11
25.5121708229
21
-17.2480962313
31
0.0000000000
11
25.8777579506
21
-16.9663241930
31
0.0000000000
0
SPLINE
5
4E8
100
AcDbEntity
8
0
100
AcDbSpline
62
7
6
CONTINUOUS
70
0
71
3
72
10
73
6
74
4
42
0.0000001000
43
0.0000001000
44
0.0000000001
12
0.3228677829
22
-0.0000185326
32
0.0000000000
13
0.2574331939
23
0.1948634297
33
0.0000000000
40
0.0000000000
40
0.0000000000
40
0.0000000000
40
0.0000000000
40
0.3332872729
40
0.6664614835
40
1.0000000000
40
1.0000000000
40
1.0000000000
40
1.0000000000
10
25.2108344410
20
-17.3492718789
30
0.0000000000
10
25.2467036819
20
-17.3492739378
30
0.0000000000
10
25.3186791766
20
-17.3414835504
30
0.0000000000
10
25.4214236230
20
-17.3069837695
30
0.0000000000
10
25.4835482005
20
-17.2697592953
30
0.0000000000
10
25.5121694957
20
-17.2480944755
30
0.0000000000
11
25.2108344410
21
-17.3492718789
31
0.0000000000
11
25.3178160204
21
-17.3376803422
31
0.0000000000
11
25.4197938211
21
-17.3034444650
31
0.0000000000
11
25.5121694957
21
-17.2480944755
31
0.0000000000
0
SPLINE
5
4E9
100
AcDbEntity
8
0
100
AcDbSpline
62
7
6
CONTINUOUS
70
0
71
3
72
10
73
6
74
4
42
0.0000001000
43
0.0000001000
44
0.0000000001
12
0.2579598528
22
-0.1963346871
32
0.0000000000
13
0.3241767954
23
0.0000184633
33
0.0000000000
40
0.0000000000
40
0.0000000000
40
0.0000000000
40
0.0000000000
40
0.3335403422
40
0.6667134628
40
1.0000000000
40
1.0000000000
40
1.0000000000
40
1.0000000000
10
14.1432757100
20
-17.2472982716
30
0.0000000000
10
14.1719557158
20
-17.2691267846
30
0.0000000000
10
14.2342546618
20
-17.3066420248
30
0.0000000000
10
14.3373758590
20
-17.3414196959
30
0.0000000000
10
14.4096449953
20
-17.3492737622
30
0.0000000000
10
14.4456595825
20
-17.3492717110
30
0.0000000000
11
14.1432757100
21
-17.2472982716
31
0.0000000000
11
14.2359040895
21
-17.3030766162
31
0.0000000000
11
14.3382496165
21
-17.3375860932
31
0.0000000000
11
14.4456595825
21
-17.3492717110
31
0.0000000000
0
SPLINE
5
4EA
100
AcDbEntity
8
0
100
AcDbSpline
62
7
6
CONTINUOUS
70
0
71
3
72
8
73
4
74
2
42
0.0000001000
43
0.0000001000
44
0.0000000001
12
0.3603075078
22
-0.2839485852
32
0.0000000000
13
0.3648550975
23
-0.2779388945
33
0.0000000000
40
0.0000000000
40
0.0000000000
40
0.0000000000
40
0.0000000000
40
1.0000000000
40
1.0000000000
40
1.0000000000
40
1.0000000000
10
13.7806834751
20
-16.9663484938
30
0.0000000000
10
13.9007859777
20
-17.0609980222
30
0.0000000000
10
14.0216559532
20
-17.1546538033
30
0.0000000000
10
14.1432743191
20
-17.2473001015
30
0.0000000000
11
13.7806834751
21
-16.9663484938
31
0.0000000000
11
14.1432743191
21
-17.2473001015
31
0.0000000000
0
SPLINE
5
4EB
100
AcDbEntity
8
0
100
AcDbSpline
62
7
6
CONTINUOUS
70
0
71
3
72
10
73
6
74
4
42
0.0000001000
43
0.0000001000
44
0.0000000001
12
-0.0789718949
22
-0.0789718949
32
0.0000000000
13
-0.1130733766
23
0.0017196699
33
0.0000000000
40
0.0000000000
40
0.0000000000
40
0.0000000000
40
0.0000000000
40
0.1465917473
40
0.5386748960
40
1.0000000000
40
1.0000000000
40
1.0000000000
40
1.0000000000
10
31.0850705133
20
-5.5014027808
30
0.0000000000
10
31.0812116373
20
-5.5052616568
30
0.0000000000
10
31.0576388436
20
-5.4993626069
30
0.0000000000
10
31.0231766019
20
-5.5054589084
30
0.0000000000
10
30.9909950003
20
-5.5050389652
30
0.0000000000
10
30.9736071379
20
-5.5047745229
30
0.0000000000
11
31.0850705133
21
-5.5014027808
31
0.0000000000
11
31.0687526605
21
-5.5027310556
31
0.0000000000
11
31.0249778875
21
-5.5038499870
31
0.0000000000
11
30.9736071379
21
-5.5047745229
31
0.0000000000
0
SPLINE
5
4EC
100
AcDbEntity
8
0
100
AcDbSpline
62
7
6
CONTINUOUS
70
0
71
3
72
10
73
6
74
4
42
0.0000001000
43
0.0000001000
44
0.0000000001
12
0.1130733652
22
0.0017197034
32
0.0000000000
13
0.0789718699
23
-0.0789718699
33
0.0000000000
40
0.0000000000
40
0.0000000000
40
0.0000000000
40
0.0000000000
40
0.4613513589
40
0.8534154791
40
1.0000000000
40
1.0000000000
40
1.0000000000
40
1.0000000000
10
30.9736071389
20
15.5790511004
30
0.0000000000
10
30.9909959891
20
15.5793155629
30
0.0000000000
10
31.0231779453
20
15.5797356785
30
0.0000000000
10
31.0576401995
20
15.5736394261
30
0.0000000000
10
31.0812118287
20
15.5795381119
30
0.0000000000
10
31.0850705133
20
15.5756794274
30
0.0000000000
11
30.9736071389
21
15.5790511004
31
0.0000000000
11
31.0249808390
21
15.5781265829
31
0.0000000000
11
31.0687534727
21
15.5770076691
31
0.0000000000
11
31.0850705133
21
15.5756794274
31
0.0000000000
0
SPLINE
5
4ED
100
AcDbEntity
8
0
100
AcDbSpline
62
9
6
CONTINUOUS
70
0
71
3
72
10
73
6
74
4
42
0.0000001000
43
0.0000001000
44
0.0000000001
12
0.1285525498
22
-0.0063204064
32
0.0000000000
13
0.0177929767
23
-0.1251997240
33
0.0000000000
40
0.0000000000
40
0.0000000000
40
0.0000000000
40
0.0000000000
40
0.5023775270
40
0.8525221024
40
1.0000000000
40
1.0000000000
40
1.0000000000
40
1.0000000000
10
30.9736123355
20
21.0175117917
30
0.0000000000
10
30.9951396395
20
21.0164533816
30
0.0000000000
10
31.0325565724
20
21.0139542524
30
0.0000000000
10
31.0685655073
20
21.0067987312
30
0.0000000000
10
31.0958109422
20
21.0013244104
30
0.0000000000
10
31.0966856325
20
20.9951696797
30
0.0000000000
11
30.9736123355
21
21.0175117917
31
0.0000000000
11
31.0369049869
21
21.0122574831
31
0.0000000000
11
31.0804809284
21
21.0044011315
31
0.0000000000
11
31.0966856325
21
20.9951696797
31
0.0000000000
0
SPLINE
5
4EE
100
AcDbEntity
8
0
100
AcDbSpline
62
9
6
CONTINUOUS
70
0
71
3
72
10
73
6
74
4
42
0.0000001000
43
0.0000001000
44
0.0000000001
12
0.1285523396
22
0.0063204875
32
0.0000000000
13
0.0177929848
23
0.1251997055
33
0.0000000000
40
0.0000000000
40
0.0000000000
40
0.0000000000
40
0.0000000000
40
0.5023926250
40
0.8525276446
40
1.0000000000
40
1.0000000000
40
1.0000000000
40
1.0000000000
10
30.9736123343
20
-10.9432351350
30
0.0000000000
10
30.9951402501
20
-10.9421766795
30
0.0000000000
10
31.0325575254
20
-10.9396775069
30
0.0000000000
10
31.0685665560
20
-10.9325219718
30
0.0000000000
10
31.0958109747
20
-10.9270475327
30
0.0000000000
10
31.0966856325
20
-10.9208930342
30
0.0000000000
11
30.9736123343
21
-10.9432351350
31
0.0000000000
11
31.0369069085
21
-10.9379805987
31
0.0000000000
11
31.0804816226
21
-10.9301242836
31
0.0000000000
11
31.0966856325
21
-10.9208930342
31
0.0000000000
0
SPLINE
5
4EF
100
AcDbEntity
8
0
100
AcDbSpline
62
9
6
CONTINUOUS
70
0
71
3
72
8
73
4
74
2
42
0.0000001000
43
0.0000001000
44
0.0000000001
12
0.1927780628
22
0.1460555475
32
0.0000000000
13
0.1915139009
23
0.1477513249
33
0.0000000000
40
0.0000000000
40
0.0000000000
40
0.0000000000
40
0.0000000000
40
1.0000000000
40
1.0000000000
40
1.0000000000
40
1.0000000000
10
25.3916188015
20
-17.1129237848
30
0.0000000000
10
25.4558781557
20
-17.0642386023
30
0.0000000000
10
25.5199282452
20
-17.0152696204
30
0.0000000000
10
25.5837662121
20
-16.9660191788
30
0.0000000000
11
25.3916188015
21
-17.1129237848
31
0.0000000000
11
25.5837662121
21
-16.9660191788
31
0.0000000000
0
SPLINE
5
4F0
100
AcDbEntity
8
0
100
AcDbSpline
62
9
6
CONTINUOUS
70
0
71
3
72
10
73
6
74
4
42
0.0000001000
43
0.0000001000
44
0.0000000001
12
0.1107786384
22
-0.1440460792
32
0.0000000000
13
0.1662234539
23
0.0734230415
33
0.0000000000
40
0.0000000000
40
0.0000000000
40
0.0000000000
40
0.0000000000
40
0.4988348360
40
0.8587829762
40
1.0000000000
40
1.0000000000
40
1.0000000000
40
1.0000000000
10
25.3916188015
20
-17.1129237848
30
0.0000000000
10
25.4100388828
20
-17.1368755189
30
0.0000000000
10
25.4427178575
20
-17.1821762958
30
0.0000000000
10
25.4815520965
20
-17.2149696947
30
0.0000000000
10
25.5043461181
20
-17.2515521907
30
0.0000000000
10
25.5121706453
20
-17.2480959962
30
0.0000000000
11
25.3916188015
21
-17.1129237848
31
0.0000000000
11
25.4482293320
21
-17.1837200593
31
0.0000000000
11
25.4917649656
21
-17.2325356368
31
0.0000000000
11
25.5121706453
21
-17.2480959962
31
0.0000000000
0
SPLINE
5
4F1
100
AcDbEntity
8
0
100
AcDbSpline
62
9
6
CONTINUOUS
70
0
71
3
72
10
73
6
74
4
42
0.0000001000
43
0.0000001000
44
0.0000000001
12
0.1937276908
22
-0.0000410113
32
0.0000000000
13
0.1543819954
23
0.1170325568
33
0.0000000000
40
0.0000000000
40
0.0000000000
40
0.0000000000
40
0.0000000000
40
0.3322019877
40
0.6657762001
40
1.0000000000
40
1.0000000000
40
1.0000000000
40
1.0000000000
10
25.2108344385
20
-17.1736888531
30
0.0000000000
10
25.2322866798
20
-17.1736933945
30
0.0000000000
10
25.2754276717
20
-17.1690232217
30
0.0000000000
10
25.3370833945
20
-17.1483415558
30
0.0000000000
10
25.3744194224
20
-17.1259621401
30
0.0000000000
10
25.3916188015
20
-17.1129237848
30
0.0000000000
11
25.2108344385
21
-17.1736888531
31
0.0000000000
11
25.2748178882
21
-17.1667674178
31
0.0000000000
11
25.3360858239
21
-17.1462170956
31
0.0000000000
11
25.3916188015
21
-17.1129237848
31
0.0000000000
0
SPLINE
5
4F2
100
AcDbEntity
8
0
100
AcDbSpline
62
9
6
CONTINUOUS
70
0
71
3
72
10
73
6
74
4
42
0.0000001000
43
0.0000001000
44
0.0000000001
12
0.1546969232
22
-0.1179162682
32
0.0000000000
13
0.1945131940
23
0.0000410956
33
0.0000000000
40
0.0000000000
40
0.0000000000
40
0.0000000000
40
0.0000000000
40
0.3342212023
40
0.6678027775
40
1.0000000000
40
1.0000000000
40
1.0000000000
40
1.0000000000
10
14.2642461075
20
-17.1124456971
30
0.0000000000
10
14.2814804381
20
-17.1255824027
30
0.0000000000
10
14.3189215037
20
-17.1481367344
30
0.0000000000
10
14.3808033907
20
-17.1689850605
30
0.0000000000
10
14.4241206708
20
-17.1736934037
30
0.0000000000
10
14.4456595850
20
-17.1736888531
30
0.0000000000
11
14.2642461075
21
-17.1124456971
31
0.0000000000
11
14.3199301835
21
-17.1459962610
31
0.0000000000
11
14.3814206689
21
-17.1667113688
31
0.0000000000
11
14.4456595850
21
-17.1736888531
31
0.0000000000
0
SPLINE
5
4F3
100
AcDbEntity
8
0
100
AcDbSpline
62
9
6
CONTINUOUS
70
0
71
3
72
10
73
6
74
4
42
0.0000001000
43
0.0000001000
44
0.0000000001
12
-0.1111872535
22
-0.1437876371
32
0.0000000000
13
-0.1660118314
23
0.0740105517
33
0.0000000000
40
0.0000000000
40
0.0000000000
40
0.0000000000
40
0.0000000000
40
0.4988022965
40
0.8587503076
40
1.0000000000
40
1.0000000000
40
1.0000000000
40
1.0000000000
10
14.2642461075
20
-17.1124456971
30
0.0000000000
10
14.2457592884
20
-17.1363528983
30
0.0000000000
10
14.2129443312
20
-17.1815702125
30
0.0000000000
10
14.1740238194
20
-17.2142727095
30
0.0000000000
10
14.1510920834
20
-17.2507829275
30
0.0000000000
10
14.1432757100
20
-17.2472982716
30
0.0000000000
11
14.2642461075
21
-17.1124456971
31
0.0000000000
11
14.2074332244
21
-17.1831008247
31
0.0000000000
11
14.1637455046
21
-17.2318020082
31
0.0000000000
11
14.1432757100
21
-17.2472982716
31
0.0000000000
0
SPLINE
5
4F4
100
AcDbEntity
8
0
100
AcDbSpline
62
9
6
CONTINUOUS
70
0
71
3
72
8
73
4
74
2
42
0.0000001000
43
0.0000001000
44
0.0000000001
12
0.1898677633
22
-0.1472594263
32
0.0000000000
13
0.1911169530
23
-0.1455926079
33
0.0000000000
40
0.0000000000
40
0.0000000000
40
0.0000000000
40
0.0000000000
40
1.0000000000
40
1.0000000000
40
1.0000000000
40
1.0000000000
10
14.0737523565
20
-16.9660185351
30
0.0000000000
10
14.1370416109
20
-17.0151050106
30
0.0000000000
10
14.2005404565
20
-17.0639148278
30
0.0000000000
10
14.2642461075
20
-17.1124456971
30
0.0000000000
11
14.0737523565
21
-16.9660185351
31
0.0000000000
11
14.2642461075
21
-17.1124456971
31
0.0000000000
0
SPLINE
5
4F5
100
AcDbEntity
8
0
100
AcDbSpline
62
7
6
CONTINUOUS
70
0
71
3
72
10
73
6
74
4
42
0.0000001000
43
0.0000001000
44
0.0000000001
12
-0.1029370865
22
0.2061153525
32
0.0000000000
13
-0.0000000000
23
0.2300200817
33
0.0000000000
40
0.0000000000
40
0.0000000000
40
0.0000000000
40
0.0000000000
40
0.1509497128
40
0.5755210102
40
1.0000000000
40
1.0000000000
40
1.0000000000
40
1.0000000000
10
-13.7739788203
20
-16.4735892894
30
0.0000000000
10
-13.7791582615
20
-16.4632182717
30
0.0000000000
10
-13.7975258691
20
-16.4229898772
30
0.0000000000
10
-13.8199584397
20
-16.3491772761
30
0.0000000000
10
-13.8263883826
20
-16.2838967630
30
0.0000000000
10
-13.8263883826
20
-16.2513505324
30
0.0000000000
11
-13.7739788203
21
-16.4735892894
31
0.0000000000
11
-13.7884178905
21
-16.4419608345
31
0.0000000000
11
-13.8168057151
21
-16.3485178450
31
0.0000000000
11
-13.8263883826
21
-16.2513505324
31
0.0000000000
0
SPLINE
5
4F6
100
AcDbEntity
8
0
100
AcDbSpline
62
7
6
CONTINUOUS
70
0
71
3
72
10
73
6
74
4
42
0.0000001000
43
0.0000001000
44
0.0000000001
12
0.0000000000
22
-0.2300201048
32
0.0000000000
13
-0.1029371246
23
-0.2061153795
33
0.0000000000
40
0.0000000000
40
0.0000000000
40
0.0000000000
40
0.0000000000
40
0.4244838572
40
0.8490657677
40
1.0000000000
40
1.0000000000
40
1.0000000000
40
1.0000000000
10
30.9736116174
20
-16.2513505324
30
0.0000000000
10
30.9736116174
20
-16.2838971395
30
0.0000000000
10
30.9671814817
20
-16.3491788522
30
0.0000000000
10
30.9447485505
20
-16.4229913783
30
0.0000000000
10
30.9263809501
20
-16.4632193677
30
0.0000000000
10
30.9212020382
20
-16.4735893232
30
0.0000000000
11
30.9736116174
21
-16.2513505324
31
0.0000000000
11
30.9640287282
21
-16.3485189580
31
0.0000000000
11
30.9356397466
21
-16.4419641576
31
0.0000000000
11
30.9212020382
21
-16.4735893232
31
0.0000000000
0
SPLINE
5
4F7
100
AcDbEntity
8
0
100
AcDbSpline
62
7
6
CONTINUOUS
70
0
71
3
72
15
73
11
74
9
42
0.0000001000
43
0.0000001000
44
0.0000000001
12
0.7825580376
22
0.0000000000
32
0.0000000000
13
0.0000000000
23
-0.7825580376
33
0.0000000000
40
0.0000000000
40
0.0000000000
40
0.0000000000
40
0.0000000000
40
0.1252363087
40
0.2504399304
40
0.3755773808
40
0.5006260707
40
0.6255742037
40
0.7504356136
40
0.8752313730
40
1.0000000000
40
1.0000000000
40
1.0000000000
40
1.0000000000
10
30.4739922171
20
27.3817492628
30
0.0000000000
10
30.5066604438
20
27.3817492628
30
0.0000000000
10
30.5721686688
20
27.3753237571
30
0.0000000000
10
30.6665128207
20
27.3467701500
30
0.0000000000
10
30.7534814342
20
27.3003989186
30
0.0000000000
10
30.8296755232
20
27.2379998981
30
0.0000000000
10
30.8921820165
20
27.1619865696
30
0.0000000000
10
30.9386060580
20
27.0752764844
30
0.0000000000
10
30.9671816744
20
26.9812506762
30
0.0000000000
10
30.9736116174
20
26.9159701632
30
0.0000000000
10
30.9736116174
20
26.8834239325
30
0.0000000000
11
30.4739922171
21
27.3817492628
31
0.0000000000
11
30.5715274729
21
27.3721684916
31
0.0000000000
11
30.6653069988
21
27.3437906014
31
0.0000000000
11
30.7517141509
21
27.2977084616
31
0.0000000000
11
30.8274213670
21
27.2357038030
31
0.0000000000
11
30.8895204629
21
27.1601758774
31
0.0000000000
11
30.9356411253
21
27.0740342346
31
0.0000000000
11
30.9640289499
21
26.9805912452
31
0.0000000000
11
30.9736116174
21
26.8834239325
31
0.0000000000
0
SPLINE
5
4F8
100
AcDbEntity
8
0
100
AcDbSpline
62
7
6
CONTINUOUS
70
0
71
3
72
15
73
11
74
9
42
0.0000001000
43
0.0000001000
44
0.0000000001
12
0.0000000000
22
0.7825580375
32
0.0000000000
13
0.7825580375
23
0.0000000000
33
0.0000000000
40
0.0000000000
40
0.0000000000
40
0.0000000000
40
0.0000000000
40
0.1247700702
40
0.2495689617
40
0.3744335968
40
0.4993830920
40
0.6244304316
40
0.7495646574
40
0.8747651397
40
1.0000000000
40
1.0000000000
40
1.0000000000
40
1.0000000000
10
-13.8263883826
20
26.8834239325
30
0.0000000000
10
-13.8263883826
20
26.9159705396
30
0.0000000000
10
-13.8199582469
20
26.9812522523
30
0.0000000000
10
-13.7913815786
20
27.0752799144
30
0.0000000000
10
-13.7449557165
20
27.1619913623
30
0.0000000000
10
-13.6824476562
20
27.2380045207
30
0.0000000000
10
-13.6062533957
20
27.3004019781
30
0.0000000000
10
-13.5192861471
20
27.3467713925
30
0.0000000000
10
-13.4249438533
20
27.3753239496
30
0.0000000000
10
-13.3594368312
20
27.3817492628
30
0.0000000000
10
-13.3267689823
20
27.3817492628
30
0.0000000000
11
-13.8263883826
21
26.8834239325
31
0.0000000000
11
-13.8168054934
21
26.9805923582
31
0.0000000000
11
-13.7884165119
21
27.0740375578
31
0.0000000000
11
-13.7422938162
21
27.1601809748
31
0.0000000000
11
-13.6801930325
21
27.2357088928
31
0.0000000000
11
-13.6044858049
21
27.2977118695
31
0.0000000000
11
-13.5180804299
21
27.3437919792
31
0.0000000000
11
-13.4243031210
21
27.3721687132
31
0.0000000000
11
-13.3267689823
21
27.3817492628
31
0.0000000000
0
SPLINE
5
4F9
100
AcDbEntity
8
0
100
AcDbSpline
62
9
6
CONTINUOUS
70
0
71
3
72
8
73
4
74
2
42
0.0000001000
43
0.0000001000
44
0.0000000001
12
-0.0001188206
22
-0.1300280518
32
0.0000000000
13
-0.0339723214
23
-0.1266570761
33
0.0000000000
40
0.0000000000
40
0.0000000000
40
0.0000000000
40
0.0000000000
40
1.0000000000
40
1.0000000000
40
1.0000000000
40
1.0000000000
10
30.8671372244
20
-16.4645266075
30
0.0000000000
10
30.8670976175
20
-16.5078692914
30
0.0000000000
10
30.8612719870
20
-16.5515236471
30
0.0000000000
10
30.8499478798
20
-16.5937426725
30
0.0000000000
11
30.8671372244
21
-16.4645266075
31
0.0000000000
11
30.8499478798
21
-16.5937426725
31
0.0000000000
0
SPLINE
5
4FA
100
AcDbEntity
8
0
100
AcDbSpline
62
9
6
CONTINUOUS
70
0
71
3
72
9
73
5
74
3
42
0.0000001000
43
0.0000001000
44
0.0000000001
12
-0.0257253065
22
-0.0959101989
32
0.0000000000
13
-0.0441812300
23
-0.0887823165
33
0.0000000000
40
0.0000000000
40
0.0000000000
40
0.0000000000
40
0.0000000000
40
0.6582388840
40
1.0000000000
40
1.0000000000
40
1.0000000000
40
1.0000000000
10
30.8499478798
20
-16.5937426725
30
0.0000000000
10
30.8443034142
20
-16.6147866133
30
0.0000000000
10
30.8336529370
20
-16.6462149207
30
0.0000000000
10
30.8199317252
20
-16.6763208605
30
0.0000000000
10
30.8148985830
20
-16.6864349750
30
0.0000000000
11
30.8499478798
21
-16.5937426725
31
0.0000000000
11
30.8289518147
21
-16.6555883279
31
0.0000000000
11
30.8148985830
21
-16.6864349750
31
0.0000000000
0
SPLINE
5
4FB
100
AcDbEntity
8
0
100
AcDbSpline
62
9
6
CONTINUOUS
70
0
71
3
72
11
73
7
74
5
42
0.0000001000
43
0.0000001000
44
0.0000000001
12
-0.0684459165
22
-0.5046068047
32
0.0000000000
13
-0.5092275870
23
-0.0003680140
33
0.0000000000
40
0.0000000000
40
0.0000000000
40
0.0000000000
40
0.0000000000
40
0.0927982892
40
0.3105117655
40
0.6280867864
40
1.0000000000
40
1.0000000000
40
1.0000000000
40
1.0000000000
10
30.8588740634
20
-16.0291641706
30
0.0000000000
10
30.8567568421
20
-16.0447730534
30
0.0000000000
10
30.7891571491
20
-16.0603045649
30
0.0000000000
10
30.6975849571
20
-16.0783368515
30
0.0000000000
10
30.5372544461
20
-16.0896762595
30
0.0000000000
10
30.4220797054
20
-16.0926893087
30
0.0000000000
10
30.3589502159
20
-16.0927349318
30
0.0000000000
11
30.8588740634
21
-16.0291641706
31
0.0000000000
11
30.8183459675
21
-16.0534654475
31
0.0000000000
11
30.7094050239
21
-16.0740344160
31
0.0000000000
11
30.5482746350
21
-16.0878079607
31
0.0000000000
11
30.3589502159
21
-16.0927349318
31
0.0000000000
0
SPLINE
5
4FC
100
AcDbEntity
8
0
100
AcDbSpline
62
9
6
CONTINUOUS
70
0
71
3
72
13
73
9
74
7
42
0.0000001000
43
0.0000001000
44
0.0000000001
12
0.0003133868
22
-0.8668050899
32
0.0000000000
13
0.1460792258
23
-0.0677575401
33
0.0000000000
40
0.0000000000
40
0.0000000000
40
0.0000000000
40
0.0000000000
40
0.2742357830
40
0.5230963464
40
0.7313514002
40
0.8866700506
40
0.9796323107
40
1.0000000000
40
1.0000000000
40
1.0000000000
40
1.0000000000
10
30.3589502159
20
-16.0927366085
30
0.0000000000
10
30.3589788632
20
-16.1719729327
30
0.0000000000
10
30.3592057920
20
-16.3221857609
30
0.0000000000
10
30.3599553804
20
-16.5371499324
30
0.0000000000
10
30.3613127516
20
-16.7039266170
30
0.0000000000
10
30.3624633818
20
-16.8601179138
30
0.0000000000
10
30.3646009370
20
-16.8962829204
30
0.0000000000
10
30.3653913936
20
-16.9647309423
30
0.0000000000
10
30.3663831591
20
-16.9651909638
30
0.0000000000
11
30.3589502159
21
-16.0927366085
31
0.0000000000
11
30.3593017849
21
-16.3304453366
31
0.0000000000
11
30.3601584158
21
-16.5461572528
31
0.0000000000
11
30.3614663406
21
-16.7266690669
31
0.0000000000
11
30.3631487571
21
-16.8612895599
31
0.0000000000
11
30.3651036774
21
-16.9418460082
31
0.0000000000
11
30.3663831591
21
-16.9651909638
31
0.0000000000
0
SPLINE
5
4FD
100
AcDbEntity
8
0
100
AcDbSpline
62
9
6
CONTINUOUS
70
0
71
3
72
13
73
9
74
7
42
0.0000001000
43
0.0000001000
44
0.0000000001
12
0.0003176892
22
-0.4356486422
32
0.0000000000
13
0.1943030325
23
0.3899181605
33
0.0000000000
40
0.0000000000
40
0.0000000000
40
0.0000000000
40
0.0000000000
40
0.2728012850
40
0.5205922442
40
0.7279034456
40
0.8824461456
40
0.9749083869
40
1.0000000000
40
1.0000000000
40
1.0000000000
40
1.0000000000
10
30.8588740635
20
-16.0291641706
30
0.0000000000
10
30.8589029522
20
-16.0687793404
30
0.0000000000
10
30.8591217260
20
-16.1439410028
30
0.0000000000
10
30.8599024022
20
-16.2513620364
30
0.0000000000
10
30.8611746033
20
-16.3350939376
30
0.0000000000
10
30.8625345215
20
-16.4124848799
30
0.0000000000
10
30.8643520843
20
-16.4321194366
30
0.0000000000
10
30.8655120989
20
-16.4677878327
30
0.0000000000
10
30.8671372244
20
-16.4645266075
30
0.0000000000
11
30.8588740635
21
-16.0291641706
31
0.0000000000
11
30.8592254792
21
-16.1480091921
31
0.0000000000
11
30.8600826603
21
-16.2559556124
31
0.0000000000
11
30.8613923912
21
-16.3462609825
31
0.0000000000
11
30.8630768060
21
-16.4135662436
31
0.0000000000
11
30.8650339684
21
-16.4537997292
31
0.0000000000
11
30.8671372244
21
-16.4645266075
31
0.0000000000
0
SPLINE
5
4FE
100
AcDbEntity
8
0
100
AcDbSpline
62
9
6
CONTINUOUS
70
0
71
3
72
11
73
7
74
5
42
0.0000001000
43
0.0000001000
44
0.0000000001
12
-0.1794210542
22
-0.4679065764
32
0.0000000000
13
-0.5011270756
23
0.0003647676
33
0.0000000000
40
0.0000000000
40
0.0000000000
40
0.0000000000
40
0.0000000000
40
0.0826512481
40
0.3005119078
40
0.6221869300
40
1.0000000000
40
1.0000000000
40
1.0000000000
40
1.0000000000
10
30.8588740635
20
25.5154341295
30
0.0000000000
10
30.8539309388
20
25.5025431086
30
0.0000000000
10
30.7857031114
20
25.5132230517
30
0.0000000000
10
30.6977349968
20
25.4932809984
30
0.0000000000
10
30.5366956880
20
25.4962793128
30
0.0000000000
10
30.4220610022
20
25.4934019387
30
0.0000000000
10
30.3589502159
20
25.4934478767
30
0.0000000000
11
30.8588740635
21
25.5154341295
31
0.0000000000
11
30.8183479474
21
25.5068813514
31
0.0000000000
11
30.7094074633
21
25.4997155304
31
0.0000000000
11
30.5482762315
21
25.4950038137
31
0.0000000000
11
30.3589502159
21
25.4934478767
31
0.0000000000
0
SPLINE
5
4FF
100
AcDbEntity
8
0
100
AcDbSpline
62
9
6
CONTINUOUS
70
0
71
3
72
10
73
6
74
4
42
0.0000001000
43
0.0000001000
44
0.0000000001
12
-0.0303032869
22
-41.5445905443
32
0.0000000000
13
0.0305256509
23
-41.5445903815
33
0.0000000000
40
0.0000000000
40
0.0000000000
40
0.0000000000
40
0.0000000000
40
0.3341013941
40
0.6675219244
40
1.0000000000
40
1.0000000000
40
1.0000000000
40
1.0000000000
10
30.8588740635
20
25.5154341295
30
0.0000000000
10
30.8554992734
20
20.8887322566
30
0.0000000000
10
30.8509963792
20
11.6447554484
30
0.0000000000
10
30.8509881544
20
-2.2034455773
30
0.0000000000
10
30.8554910269
20
-11.4249423502
30
0.0000000000
10
30.8588740635
20
-16.0291641706
30
0.0000000000
11
30.8588740635
21
25.5154341295
31
0.0000000000
11
30.8521184321
21
11.6353264623
31
0.0000000000
11
30.8521184266
21
-2.2164966328
31
0.0000000000
11
30.8588740635
21
-16.0291641706
31
0.0000000000
0
SPLINE
5
500
100
AcDbEntity
8
0
100
AcDbSpline
62
9
6
CONTINUOUS
70
0
71
3
72
11
73
7
74
5
42
0.0000001000
43
0.0000001000
44
0.0000000001
12
-0.0007162708
22
0.7766816559
32
0.0000000000
13
-0.7766797007
23
0.0018841609
33
0.0000000000
40
0.0000000000
40
0.0000000000
40
0.0000000000
40
0.0000000000
40
0.2488014531
40
0.4984238193
40
0.7489684585
40
1.0000000000
40
1.0000000000
40
1.0000000000
40
1.0000000000
10
30.8671372244
20
26.0333149560
30
0.0000000000
10
30.8670778213
20
26.0977281308
30
0.0000000000
10
30.8408552469
20
26.2281621517
30
0.0000000000
10
30.7294162149
20
26.3927859144
30
0.0000000000
10
30.5633882239
20
26.5030525778
30
0.0000000000
10
30.4322037443
20
26.5290518676
30
0.0000000000
10
30.3672133768
20
26.5292095288
30
0.0000000000
11
30.8671372244
21
26.0333149560
31
0.0000000000
11
30.8289534018
21
26.2227444714
31
0.0000000000
11
30.7205552710
21
26.3834871603
31
0.0000000000
11
30.5584238522
21
26.4910977379
31
0.0000000000
11
30.3672133768
21
26.5292095288
31
0.0000000000
0
SPLINE
5
501
100
AcDbEntity
8
0
100
AcDbSpline
62
9
6
CONTINUOUS
70
0
71
3
72
13
73
9
74
7
42
0.0000001000
43
0.0000001000
44
0.0000000001
12
-0.0649176002
22
-1.0337906381
32
0.0000000000
13
-0.0003717765
23
-1.0358268389
33
0.0000000000
40
0.0000000000
40
0.0000000000
40
0.0000000000
40
0.0000000000
40
0.0615821851
40
0.1770676343
40
0.3394801823
40
0.5389762350
40
0.7637361100
40
1.0000000000
40
1.0000000000
40
1.0000000000
40
1.0000000000
10
30.3672133768
20
26.5292095291
30
0.0000000000
10
30.3658807876
20
26.5079885002
30
0.0000000000
10
30.3647506249
20
26.4468354947
30
0.0000000000
10
30.3627265915
20
26.3296563588
30
0.0000000000
10
30.3612965890
20
26.1648203698
30
0.0000000000
10
30.3600115115
20
25.9622653707
30
0.0000000000
10
30.3592093889
20
25.7342039887
30
0.0000000000
10
30.3589794950
20
25.5750240355
30
0.0000000000
10
30.3589502159
20
25.4934478761
30
0.0000000000
11
30.3672133768
21
26.5292095291
31
0.0000000000
11
30.3651036774
21
26.4654559417
31
0.0000000000
11
30.3631487571
21
26.3458489813
31
0.0000000000
11
30.3614663406
21
26.1776261072
31
0.0000000000
11
30.3601584159
21
25.9709868675
31
0.0000000000
11
30.3593017848
21
25.7381761176
31
0.0000000000
11
30.3589502159
21
25.4934478761
31
0.0000000000
0
SPLINE
5
502
100
AcDbEntity
8
0
100
AcDbSpline
62
9
6
CONTINUOUS
70
0
71
3
72
13
73
9
74
7
42
0.0000001000
43
0.0000001000
44
0.0000000001
12
-0.0644135725
22
-0.5139908572
32
0.0000000000
13
-0.0003750199
23
-0.5180111669
33
0.0000000000
40
0.0000000000
40
0.0000000000
40
0.0000000000
40
0.0000000000
40
0.0613891062
40
0.1768505315
40
0.3392855798
40
0.5388816674
40
0.7637988453
40
1.0000000000
40
1.0000000000
40
1.0000000000
40
1.0000000000
10
30.8671372244
20
26.0333149560
30
0.0000000000
10
30.8658191272
20
26.0227971429
30
0.0000000000
10
30.8646710547
20
25.9922307164
30
0.0000000000
10
30.8626577814
20
25.9337149880
30
0.0000000000
10
30.8612207801
20
25.8512598567
30
0.0000000000
10
30.8599357819
20
25.7499256975
30
0.0000000000
10
30.8591330913
20
25.6358399538
30
0.0000000000
10
30.8589035902
20
25.5562190747
30
0.0000000000
10
30.8588740635
20
25.5154341295
30
0.0000000000
11
30.8671372244
21
26.0333149560
31
0.0000000000
11
30.8650339684
21
26.0015843356
31
0.0000000000
11
30.8630768060
21
25.9418060428
31
0.0000000000
11
30.8613923912
21
25.8576797132
31
0.0000000000
11
30.8600826603
21
25.7542949797
31
0.0000000000
11
30.8592254792
21
25.6377884926
31
0.0000000000
11
30.8588740635
21
25.5154341295
31
0.0000000000
0
SPLINE
5
503
100
AcDbEntity
8
0
100
AcDbSpline
62
9
6
CONTINUOUS
70
0
71
3
72
11
73
7
74
5
42
0.0000001000
43
0.0000001000
44
0.0000000001
12
-0.5092260125
22
0.0003679994
32
0.0000000000
13
-0.0685688393
23
0.5045885270
33
0.0000000000
40
0.0000000000
40
0.0000000000
40
0.0000000000
40
0.0000000000
40
0.3719073515
40
0.6894795278
40
0.9071952209
40
1.0000000000
40
1.0000000000
40
1.0000000000
40
1.0000000000
10
-13.2117269812
20
-16.0927313288
30
0.0000000000
10
-13.2748552804
20
-16.0926857082
30
0.0000000000
10
-13.3900287840
20
-16.0896724533
30
0.0000000000
10
-13.5503556634
20
-16.0783350485
30
0.0000000000
10
-13.6419326028
20
-16.0603007697
30
0.0000000000
10
-13.7095296562
20
-16.0447735796
30
0.0000000000
10
-13.7116508282
20
-16.0291641706
30
0.0000000000
11
-13.2117269812
21
-16.0927313288
31
0.0000000000
11
-13.4010478365
21
-16.0878046753
31
0.0000000000
11
-13.5621763435
21
-16.0740319927
31
0.0000000000
11
-13.6711183127
21
-16.0534642189
31
0.0000000000
11
-13.7116508282
21
-16.0291641706
31
0.0000000000
0
SPLINE
5
504
100
AcDbEntity
8
0
100
AcDbSpline
62
9
6
CONTINUOUS
70
0
71
3
72
13
73
9
74
7
42
0.0000001000
43
0.0000001000
44
0.0000000001
12
-0.0003205213
22
-0.4356489874
32
0.0000000000
13
-0.1944984406
23
0.3898211123
33
0.0000000000
40
0.0000000000
40
0.0000000000
40
0.0000000000
40
0.0000000000
40
0.2713418850
40
0.5195202417
40
0.7276784066
40
0.8826122404
40
0.9750357333
40
1.0000000000
40
1.0000000000
40
1.0000000000
40
1.0000000000
10
-13.7116508287
20
-16.0291641706
30
0.0000000000
10
-13.7116798190
20
-16.0685674431
30
0.0000000000
10
-13.7118967430
20
-16.1435754481
30
0.0000000000
10
-13.7126752585
20
-16.2509668979
30
0.0000000000
10
-13.7139460869
20
-16.3349093585
30
0.0000000000
10
-13.7153146970
20
-16.4125207010
30
0.0000000000
10
-13.7171246337
20
-16.4321695988
30
0.0000000000
10
-13.7182954859
20
-16.4677704736
30
0.0000000000
10
-13.7199139896
20
-16.4645266075
30
0.0000000000
11
-13.7116508287
21
-16.0291641706
31
0.0000000000
11
-13.7119988610
21
-16.1473735077
31
0.0000000000
11
-13.7128542790
21
-16.2554888028
31
0.0000000000
11
-13.7141671894
21
-16.3461632165
31
0.0000000000
11
-13.7158559244
21
-16.4136388737
31
0.0000000000
11
-13.7178151553
21
-16.4538553899
31
0.0000000000
11
-13.7199139896
21
-16.4645266075
31
0.0000000000
0
SPLINE
5
505
100
AcDbEntity
8
0
100
AcDbSpline
62
9
6
CONTINUOUS
70
0
71
3
72
12
73
8
74
6
42
0.0000001000
43
0.0000001000
44
0.0000000001
12
-0.0003222255
22
-0.8701354620
32
0.0000000000
13
-0.2018933993
23
0.7273111305
33
0.0000000000
40
0.0000000000
40
0.0000000000
40
0.0000000000
40
0.0000000000
40
0.3253531251
40
0.6096845975
40
0.8284060797
40
0.9626503012
40
1.0000000000
40
1.0000000000
40
1.0000000000
40
1.0000000000
10
-13.2117269811
20
-16.0927366085
30
0.0000000000
10
-13.2117619268
20
-16.1871037058
30
0.0000000000
10
-13.2118976432
20
-16.3676268889
30
0.0000000000
10
-13.2135323958
20
-16.5941339273
30
0.0000000000
10
-13.2137830709
20
-16.8126751964
30
0.0000000000
10
-13.2179606609
20
-16.8656167714
30
0.0000000000
10
-13.2173059321
20
-16.9731650849
30
0.0000000000
10
-13.2198194847
20
-16.9641101344
30
0.0000000000
11
-13.2117269811
21
-16.0927366085
31
0.0000000000
11
-13.2122107468
21
-16.3758375064
31
0.0000000000
11
-13.2134079459
21
-16.6232415238
31
0.0000000000
11
-13.2152136308
21
-16.8135502887
31
0.0000000000
11
-13.2174729210
21
-16.9303391034
31
0.0000000000
11
-13.2198194847
21
-16.9641101344
31
0.0000000000
0
SPLINE
5
506
100
AcDbEntity
8
0
100
AcDbSpline
62
9
6
CONTINUOUS
70
0
71
3
72
11
73
7
74
5
42
0.0000001000
43
0.0000001000
44
0.0000000001
12
-0.5011270758
22
-0.0003647798
32
0.0000000000
13
-0.1794209515
23
0.4679066161
33
0.0000000000
40
0.0000000000
40
0.0000000000
40
0.0000000000
40
0.0000000000
40
0.3778130738
40
0.6994880970
40
0.9173487552
40
1.0000000000
40
1.0000000000
40
1.0000000000
40
1.0000000000
10
-13.2117269811
20
25.4934478764
30
0.0000000000
10
-13.2748377681
20
25.4934019369
30
0.0000000000
10
-13.3894724540
20
25.4962793091
30
0.0000000000
10
-13.5505117661
20
25.4932809962
30
0.0000000000
10
-13.6384798748
20
25.5132230518
30
0.0000000000
10
-13.7067077070
20
25.5025431080
30
0.0000000000
10
-13.7116508287
20
25.5154341295
30
0.0000000000
11
-13.2117269811
21
25.4934478764
31
0.0000000000
11
-13.4010529987
21
25.4950038108
31
0.0000000000
11
-13.5621842311
21
25.4997155288
31
0.0000000000
11
-13.6711247143
21
25.5068813510
31
0.0000000000
11
-13.7116508287
21
25.5154341295
31
0.0000000000
0
SPLINE
5
507
100
AcDbEntity
8
0
100
AcDbSpline
62
9
6
CONTINUOUS
70
0
71
3
72
10
73
6
74
4
42
0.0000001000
43
0.0000001000
44
0.0000000001
12
0.0303032983
22
-41.5445905443
32
0.0000000000
13
-0.0305256500
23
-41.5445903815
33
0.0000000000
40
0.0000000000
40
0.0000000000
40
0.0000000000
40
0.0000000000
40
0.3341018316
40
0.6675221741
40
1.0000000000
40
1.0000000000
40
1.0000000000
40
1.0000000000
10
-13.7116508287
20
25.5154341295
30
0.0000000000
10
-13.7082760329
20
20.8887261988
30
0.0000000000
10
-13.7037731423
20
11.6447459326
30
0.0000000000
10
-13.7037649228
20
-2.2034550931
30
0.0000000000
10
-13.7082677948
20
-11.4249458082
30
0.0000000000
10
-13.7116508287
20
-16.0291641706
30
0.0000000000
11
-13.7116508287
21
25.5154341295
31
0.0000000000
11
-13.7048951931
21
11.6353082890
31
0.0000000000
11
-13.7048951942
21
-2.2165070068
31
0.0000000000
11
-13.7116508287
21
-16.0291641706
31
0.0000000000
0
SPLINE
5
508
100
AcDbEntity
8
0
100
AcDbSpline
62
9
6
CONTINUOUS
70
0
71
3
72
11
73
7
74
5
42
0.0000001000
43
0.0000001000
44
0.0000000001
12
-0.7766797065
22
-0.0018841368
32
0.0000000000
13
-0.0007162677
23
-0.7766816615
33
0.0000000000
40
0.0000000000
40
0.0000000000
40
0.0000000000
40
0.0000000000
40
0.2510344288
40
0.5015803869
40
0.7512018818
40
1.0000000000
40
1.0000000000
40
1.0000000000
40
1.0000000000
10
-13.2199901420
20
26.5292095291
30
0.0000000000
10
-13.2849812575
20
26.5290518680
30
0.0000000000
10
-13.4161668740
20
26.5030520500
30
0.0000000000
10
-13.5821950264
20
26.3927839330
30
0.0000000000
10
-13.6936326101
20
26.2281601462
30
0.0000000000
10
-13.7198545876
20
26.0977272679
30
0.0000000000
10
-13.7199139896
20
26.0333149560
30
0.0000000000
11
-13.2199901420
21
26.5292095291
31
0.0000000000
11
-13.4112027326
21
26.4910968705
31
0.0000000000
11
-13.5733344040
21
26.3834848186
31
0.0000000000
11
-13.6817311888
21
26.2227420365
31
0.0000000000
11
-13.7199139896
21
26.0333149560
31
0.0000000000
0
SPLINE
5
509
100
AcDbEntity
8
0
100
AcDbSpline
62
9
6
CONTINUOUS
70
0
71
3
72
13
73
9
74
7
42
0.0000001000
43
0.0000001000
44
0.0000000001
12
0.0643935699
22
-0.5139933835
32
0.0000000000
13
0.0003783381
23
-0.5180111842
33
0.0000000000
40
0.0000000000
40
0.0000000000
40
0.0000000000
40
0.0000000000
40
0.0611962676
40
0.1766649345
40
0.3395122902
40
0.5398821035
40
0.7650912566
40
1.0000000000
40
1.0000000000
40
1.0000000000
40
1.0000000000
10
-13.7199139896
20
26.0333149560
30
0.0000000000
10
-13.7186004409
20
26.0228301304
30
0.0000000000
10
-13.7174490476
20
25.9922961667
30
0.0000000000
10
-13.7154348126
20
25.9337412010
30
0.0000000000
10
-13.7139940721
20
25.8510800437
30
0.0000000000
10
-13.7127080674
20
25.7494906721
30
0.0000000000
10
-13.7119081716
20
25.6354440555
30
0.0000000000
10
-13.7116804537
20
25.5559959149
30
0.0000000000
10
-13.7116508287
20
25.5154341295
30
0.0000000000
11
-13.7199139896
21
26.0333149560
31
0.0000000000
11
-13.7178151553
21
26.0016841531
31
0.0000000000
11
-13.7158559244
21
25.9419021726
31
0.0000000000
11
-13.7141671894
21
25.8575623035
31
0.0000000000
11
-13.7128542790
21
25.7537767755
31
0.0000000000
11
-13.7119988610
21
25.6371190206
31
0.0000000000
11
-13.7116508287
21
25.5154341295
31
0.0000000000
0
SPLINE
5
50A
100
AcDbEntity
8
0
100
AcDbSpline
62
9
6
CONTINUOUS
70
0
71
3
72
12
73
8
74
6
42
0.0000001000
43
0.0000001000
44
0.0000000001
12
0.0649533063
22
-1.0337871238
32
0.0000000000
13
0.0003807868
23
-1.0358255666
33
0.0000000000
40
0.0000000000
40
0.0000000000
40
0.0000000000
40
0.0000000000
40
0.0805523727
40
0.2368817382
40
0.4554383100
40
0.7173641519
40
1.0000000000
40
1.0000000000
40
1.0000000000
40
1.0000000000
10
-13.2199901420
20
26.5292095291
30
0.0000000000
10
-13.2182460944
20
26.5014515271
30
0.0000000000
10
-13.2171397748
20
26.4196272716
30
0.0000000000
10
-13.2146675765
20
26.2624243087
30
0.0000000000
10
-13.2132453838
20
26.0425379293
30
0.0000000000
10
-13.2120454737
20
25.7790601825
30
0.0000000000
10
-13.2117628558
20
25.5910350219
30
0.0000000000
10
-13.2117269811
20
25.4934478761
30
0.0000000000
11
-13.2199901420
21
26.5292095291
31
0.0000000000
11
-13.2174729210
21
26.4458092955
31
0.0000000000
11
-13.2152136308
21
26.2838950929
31
0.0000000000
11
-13.2134079459
21
26.0575157942
31
0.0000000000
11
-13.2122107468
21
25.7862089336
31
0.0000000000
11
-13.2117269811
21
25.4934478761
31
0.0000000000
0
SPLINE
5
50B
100
AcDbEntity
8
0
100
AcDbSpline
62
9
6
CONTINUOUS
70
0
71
3
72
9
73
5
74
3
42
0.0000001000
43
0.0000001000
44
0.0000000001
12
-0.0438790450
22
0.0883916252
32
0.0000000000
13
-0.0255994341
23
0.0954409160
33
0.0000000000
40
0.0000000000
40
0.0000000000
40
0.0000000000
40
0.0000000000
40
0.3385245564
40
1.0000000000
40
1.0000000000
40
1.0000000000
40
1.0000000000
10
-13.6678913130
20
-16.6860004607
30
0.0000000000
10
-13.6728426911
20
-16.6760262155
30
0.0000000000
10
-13.6864818144
20
-16.6460611437
30
0.0000000000
10
-13.6970801794
20
-16.6147866131
30
0.0000000000
10
-13.7027246451
20
-16.5937426724
30
0.0000000000
11
-13.6678913130
21
-16.6860004607
31
0.0000000000
11
-13.6817285800
21
-16.6555883277
31
0.0000000000
11
-13.7027246451
21
-16.5937426724
31
0.0000000000
0
SPLINE
5
50C
100
AcDbEntity
8
0
100
AcDbSpline
62
9
6
CONTINUOUS
70
0
71
3
72
8
73
4
74
2
42
0.0000001000
43
0.0000001000
44
0.0000000001
12
-0.0339723214
22
0.1266570760
32
0.0000000000
13
-0.0001188206
23
0.1300280516
33
0.0000000000
40
0.0000000000
40
0.0000000000
40
0.0000000000
40
0.0000000000
40
1.0000000000
40
1.0000000000
40
1.0000000000
40
1.0000000000
10
-13.7027246451
20
-16.5937426724
30
0.0000000000
10
-13.7140487522
20
-16.5515236470
30
0.0000000000
10
-13.7198743827
20
-16.5078692914
30
0.0000000000
10
-13.7199139896
20
-16.4645266075
30
0.0000000000
11
-13.7027246451
21
-16.5937426724
31
0.0000000000
11
-13.7199139896
21
-16.4645266075
31
0.0000000000
0
SPLINE
5
50D
100
AcDbEntity
8
0
100
AcDbSpline
62
6
6
CONTINUOUS
70
0
71
3
72
10
73
6
74
4
42
0.0000001000
43
0.0000001000
44
0.0000000001
12
-0.1444144255
22
-0.0184070312
32
0.0000000000
13
-0.1444144255
23
0.0184070312
33
0.0000000000
40
0.0000000000
40
0.0000000000
40
0.0000000000
40
0.0000000000
40
0.3341228435
40
0.6658799625
40
1.0000000000
40
1.0000000000
40
1.0000000000
40
1.0000000000
10
24.8962288561
20
-9.9628616767
30
0.0000000000
10
24.8801448033
20
-9.9649117466
30
0.0000000000
10
24.8479015184
20
-9.9676550427
30
0.0000000000
10
24.7993214436
20
-9.9676550252
30
0.0000000000
10
24.7670782964
20
-9.9649117294
30
0.0000000000
10
24.7509943787
20
-9.9628616767
30
0.0000000000
11
24.8962288561
21
-9.9628616767
31
0.0000000000
11
24.8477604745
21
-9.9669740803
31
0.0000000000
11
24.7994623517
21
-9.9669740630
31
0.0000000000
11
24.7509943787
21
-9.9628616767
31
0.0000000000
0
SPLINE
5
50E
100
AcDbEntity
8
0
100
AcDbSpline
62
6
6
CONTINUOUS
70
0
71
3
72
10
73
6
74
4
42
0.0000001000
43
0.0000001000
44
0.0000000001
12
0.1444144255
22
-0.0184070312
32
0.0000000000
13
0.1444144255
23
0.0184070312
33
0.0000000000
40
0.0000000000
40
0.0000000000
40
0.0000000000
40
0.0000000000
40
0.3341228435
40
0.6658799625
40
1.0000000000
40
1.0000000000
40
1.0000000000
40
1.0000000000
10
14.7509943787
20
-9.0878616767
30
0.0000000000
10
14.7670784315
20
-9.0899117466
30
0.0000000000
10
14.7993217164
20
-9.0926550427
30
0.0000000000
10
14.8479017912
20
-9.0926550252
30
0.0000000000
10
14.8801449384
20
-9.0899117294
30
0.0000000000
10
14.8962288561
20
-9.0878616767
30
0.0000000000
11
14.7509943787
21
-9.0878616767
31
0.0000000000
11
14.7994627602
21
-9.0919740803
31
0.0000000000
11
14.8477608831
21
-9.0919740630
31
0.0000000000
11
14.8962288561
21
-9.0878616767
31
0.0000000000
0
SPLINE
5
50F
100
AcDbEntity
8
0
100
AcDbSpline
62
9
6
CONTINUOUS
70
0
71
3
72
11
73
7
74
5
42
0.0000001000
43
0.0000001000
44
0.0000000001
12
0.0174485615
22
-0.4994334767
32
0.0000000000
13
0.4994337544
23
0.0174406110
33
0.0000000000
40
0.0000000000
40
0.0000000000
40
0.0000000000
40
0.0000000000
40
0.3826055132
40
0.7069107629
40
0.9236352598
40
1.0000000000
40
1.0000000000
40
1.0000000000
40
1.0000000000
10
-51.9475370113
20
-16.4645266075
30
0.0000000000
10
-51.9453117060
20
-16.5282219414
30
0.0000000000
10
-51.9377532640
20
-16.6419289593
30
0.0000000000
10
-51.9415664540
20
-16.8095940084
30
0.0000000000
10
-51.9144019045
20
-16.8846918183
30
0.0000000000
10
-51.9341073085
20
-16.9639054316
30
0.0000000000
10
-51.9213942656
20
-16.9634614823
30
0.0000000000
11
-51.9475370113
21
-16.4645266075
31
0.0000000000
11
-51.9401989680
21
-16.6555883279
31
0.0000000000
11
-51.9326548822
21
-16.8174803637
31
0.0000000000
11
-51.9260519543
21
-16.9255844060
31
0.0000000000
11
-51.9213942656
21
-16.9634614823
31
0.0000000000
0
SPLINE
5
510
100
AcDbEntity
8
0
100
AcDbSpline
62
9
6
CONTINUOUS
70
0
71
3
72
13
73
9
74
7
42
0.0000001000
43
0.0000001000
44
0.0000000001
12
0.0945302038
22
-0.7303805968
32
0.0000000000
13
0.7360218063
23
0.0257619150
33
0.0000000000
40
0.0000000000
40
0.0000000000
40
0.0000000000
40
0.0000000000
40
0.1666362131
40
0.3335036800
40
0.5002504221
40
0.6670419633
40
0.8338494843
40
1.0000000000
40
1.0000000000
40
1.0000000000
40
1.0000000000
10
-52.4608307554
20
-16.0291641706
30
0.0000000000
10
-52.4555800370
20
-16.0697334562
30
0.0000000000
10
-52.4349185781
20
-16.1499702468
30
0.0000000000
10
-52.3756323587
20
-16.2588759436
30
0.0000000000
10
-52.2915428652
20
-16.3501491137
30
0.0000000000
10
-52.1877285161
20
-16.4181235493
30
0.0000000000
10
-52.0706944661
20
-16.4587190090
30
0.0000000000
10
-51.9883004789
20
-16.4659533927
30
0.0000000000
10
-51.9475370113
20
-16.4645266075
30
0.0000000000
11
-52.4608307554
21
-16.0291641706
31
0.0000000000
11
-52.4302236700
21
-16.1480091921
31
0.0000000000
11
-52.3714841215
21
-16.2559556124
31
0.0000000000
11
-52.2882623743
21
-16.3462609825
31
0.0000000000
11
-52.1855052554
21
-16.4135662436
31
0.0000000000
11
-52.0694312200
21
-16.4537997292
31
0.0000000000
11
-51.9475370113
21
-16.4645266075
31
0.0000000000
0
SPLINE
5
511
100
AcDbEntity
8
0
100
AcDbSpline
62
9
6
CONTINUOUS
70
0
71
3
72
10
73
6
74
4
42
0.0000001000
43
0.0000001000
44
0.0000000001
12
1.8977262350
22
-41.6708771776
32
0.0000000000
13
5.3671769561
23
-41.3673395463
33
0.0000000000
40
0.0000000000
40
0.0000000000
40
0.0000000000
40
0.0000000000
40
0.3333324993
40
0.6666669317
40
1.0000000000
40
1.0000000000
40
1.0000000000
40
1.0000000000
10
-56.0955121374
20
25.5154341295
30
0.0000000000
10
-55.8846541944
20
20.8853482506
30
0.0000000000
10
-55.3340069905
20
11.6304819962
30
0.0000000000
10
-54.1219928445
20
-2.2229059307
30
0.0000000000
10
-53.0571832764
20
-11.4327967639
30
0.0000000000
10
-52.4608307554
20
-16.0291641706
30
0.0000000000
11
-56.0955121374
21
25.5154341295
31
0.0000000000
11
-55.2696683234
21
11.6353264623
31
0.0000000000
11
-54.0577911469
21
-2.2164966328
31
0.0000000000
11
-52.4608307554
21
-16.0291641706
31
0.0000000000
0
SPLINE
5
512
100
AcDbEntity
8
0
100
AcDbSpline
62
9
6
CONTINUOUS
70
0
71
3
72
11
73
7
74
5
42
0.0000001000
43
0.0000001000
44
0.0000000001
12
-0.0695421304
22
0.4948758814
32
0.0000000000
13
0.4948747597
23
0.0695501118
33
0.0000000000
40
0.0000000000
40
0.0000000000
40
0.0000000000
40
0.0000000000
40
0.3825978651
40
0.7069034074
40
0.9236325374
40
1.0000000000
40
1.0000000000
40
1.0000000000
40
1.0000000000
10
-55.6656163724
20
26.0333149560
30
0.0000000000
10
-55.6744852626
20
26.0964277745
30
0.0000000000
10
-55.6867865856
20
26.2097187311
30
0.0000000000
10
-55.7196564593
20
26.3741738311
30
0.0000000000
10
-55.7059449285
20
26.4528487810
30
0.0000000000
10
-55.7391073703
20
26.5274390737
30
0.0000000000
10
-55.7265099270
20
26.5292095288
30
0.0000000000
11
-55.6656163724
21
26.0333149560
31
0.0000000000
11
-55.6915667947
21
26.2227444714
31
0.0000000000
11
-55.7122496234
21
26.3834871603
31
0.0000000000
11
-55.7245194055
21
26.4910977379
31
0.0000000000
11
-55.7265099270
21
26.5292095288
31
0.0000000000
0
SPLINE
5
513
100
AcDbEntity
8
0
100
AcDbSpline
62
9
6
CONTINUOUS
70
0
71
3
72
13
73
9
74
7
42
0.0000001000
43
0.0000001000
44
0.0000000001
12
-0.7293134957
22
-0.1024382772
32
0.0000000000
13
0.0337351570
23
-0.7356994732
33
0.0000000000
40
0.0000000000
40
0.0000000000
40
0.0000000000
40
0.0000000000
40
0.1661505156
40
0.3329580366
40
0.4997495779
40
0.6664963199
40
0.8333637869
40
1.0000000000
40
1.0000000000
40
1.0000000000
40
1.0000000000
10
-55.6656163724
20
26.0333149560
30
0.0000000000
10
-55.7060083102
20
26.0276415651
30
0.0000000000
10
-55.7858943095
20
26.0062095189
30
0.0000000000
10
-55.8941010224
20
25.9459080480
30
0.0000000000
10
-55.9845345611
20
25.8609391235
30
0.0000000000
10
-56.0514971260
20
25.7564506107
30
0.0000000000
10
-56.0909713804
20
25.6389044923
30
0.0000000000
10
-56.0973859703
20
25.5562988542
30
0.0000000000
10
-56.0955121374
20
25.5154341295
30
0.0000000000
11
-55.6656163724
21
26.0333149560
31
0.0000000000
11
-55.7837960312
21
26.0015843356
31
0.0000000000
11
-55.8911201700
21
25.9418060428
31
0.0000000000
11
-55.9806287413
21
25.8576797132
31
0.0000000000
11
-56.0469048001
21
25.7542949797
31
0.0000000000
11
-56.0860072640
21
25.6377884926
31
0.0000000000
11
-56.0955121374
21
25.5154341295
31
0.0000000000
0
SPLINE
5
514
100
AcDbEntity
8
0
100
AcDbSpline
62
9
6
CONTINUOUS
70
0
71
3
72
11
73
7
74
5
42
0.0000001000
43
0.0000001000
44
0.0000000001
12
-0.1950708665
22
-0.0239589883
32
0.0000000000
13
0.0239517991
23
-0.1950717494
33
0.0000000000
40
0.0000000000
40
0.0000000000
40
0.0000000000
40
0.0000000000
40
0.3839811200
40
0.7081454953
40
0.9242114398
40
1.0000000000
40
1.0000000000
40
1.0000000000
40
1.0000000000
10
-47.3077154261
20
4.9396428486
30
0.0000000000
10
-47.3326832693
20
4.9365762488
30
0.0000000000
10
-47.3770150125
20
4.9295952955
30
0.0000000000
10
-47.4431089126
20
4.9267253366
30
0.0000000000
10
-47.4713266872
20
4.9126691039
30
0.0000000000
10
-47.5033392659
20
4.9201970489
30
0.0000000000
10
-47.5027341751
20
4.9152689799
30
0.0000000000
11
-47.3077154261
21
4.9396428486
31
0.0000000000
11
-47.3826150862
21
4.9304115980
31
0.0000000000
11
-47.4458390346
21
4.9225552834
31
0.0000000000
11
-47.4879704669
21
4.9172440527
31
0.0000000000
11
-47.5027341751
21
4.9152689799
31
0.0000000000
0
SPLINE
5
515
100
AcDbEntity
8
0
100
AcDbSpline
62
9
6
CONTINUOUS
70
0
71
3
72
12
73
8
74
6
42
0.0000001000
43
0.0000001000
44
0.0000000001
12
-0.0238203240
22
-0.1940005060
32
0.0000000000
13
0.0238201852
23
-0.1940005231
33
0.0000000000
40
0.0000000000
40
0.0000000000
40
0.0000000000
40
0.0000000000
40
0.2004719354
40
0.4004365848
40
0.6001639691
40
0.7999274831
40
1.0000000000
40
1.0000000000
40
1.0000000000
40
1.0000000000
10
-47.3077154261
20
5.1346337980
30
0.0000000000
10
-47.3093071949
20
5.1216699124
30
0.0000000000
10
-47.3118528015
20
5.0956925437
30
0.0000000000
10
-47.3137592885
20
5.0566221254
30
0.0000000000
10
-47.3137564100
20
5.0175502008
30
0.0000000000
10
-47.3118470869
20
4.9785191379
30
0.0000000000
10
-47.3093040142
20
4.9525809062
30
0.0000000000
10
-47.3077154261
20
4.9396428486
30
0.0000000000
11
-47.3077154261
21
5.1346337980
31
0.0000000000
11
-47.3115368252
21
5.0956368566
31
0.0000000000
11
-47.3134417684
21
5.0565987317
31
0.0000000000
11
-47.3134389003
21
5.0175605320
31
0.0000000000
11
-47.3115311149
21
4.9785619062
31
0.0000000000
11
-47.3077154261
21
4.9396428486
31
0.0000000000
0
SPLINE
5
516
100
AcDbEntity
8
0
100
AcDbSpline
62
9
6
CONTINUOUS
70
0
71
3
72
11
73
7
74
5
42
0.0000001000
43
0.0000001000
44
0.0000000001
12
-0.1950708665
22
0.0239589883
32
0.0000000000
13
0.0239517991
23
0.1950717494
33
0.0000000000
40
0.0000000000
40
0.0000000000
40
0.0000000000
40
0.0000000000
40
0.3839811182
40
0.7081454934
40
0.9242114391
40
1.0000000000
40
1.0000000000
40
1.0000000000
40
1.0000000000
10
-47.3077154261
20
5.1346337980
30
0.0000000000
10
-47.3326832692
20
5.1377003977
30
0.0000000000
10
-47.3770150123
20
5.1446813510
30
0.0000000000
10
-47.4431089123
20
5.1475513099
30
0.0000000000
10
-47.4713266870
20
5.1616075427
30
0.0000000000
10
-47.5033392659
20
5.1540795976
30
0.0000000000
10
-47.5027341751
20
5.1590076667
30
0.0000000000
11
-47.3077154261
21
5.1346337980
31
0.0000000000
11
-47.3826150859
21
5.1438650485
31
0.0000000000
11
-47.4458390342
21
5.1517213631
31
0.0000000000
11
-47.4879704668
21
5.1570325938
31
0.0000000000
11
-47.5027341751
21
5.1590076667
31
0.0000000000
0
SPLINE
5
517
100
AcDbEntity
8
0
100
AcDbSpline
62
9
6
CONTINUOUS
70
0
71
3
72
10
73
6
74
4
42
0.0000001000
43
0.0000001000
44
0.0000000001
12
0.0070665669
22
0.1012072389
32
0.0000000000
13
0.1014222376
23
-0.0025241393
33
0.0000000000
40
0.0000000000
40
0.0000000000
40
0.0000000000
40
0.0000000000
40
0.5469299649
40
0.8852992039
40
1.0000000000
40
1.0000000000
40
1.0000000000
40
1.0000000000
10
-44.6029934115
20
27.3223711228
30
0.0000000000
10
-44.6017051058
20
27.3408222133
30
0.0000000000
10
-44.6027998733
20
27.3743499992
30
0.0000000000
10
-44.5922689917
20
27.3988224773
30
0.0000000000
10
-44.5994099543
20
27.4236450323
30
0.0000000000
10
-44.5955322172
20
27.4235485253
30
0.0000000000
11
-44.6029934115
21
27.3223711228
31
0.0000000000
11
-44.5990816823
21
27.3777211060
31
0.0000000000
11
-44.5965577653
21
27.4119569905
31
0.0000000000
11
-44.5955322172
21
27.4235485253
31
0.0000000000
0
SPLINE
5
518
100
AcDbEntity
8
0
100
AcDbSpline
62
9
6
CONTINUOUS
70
0
71
3
72
10
73
6
74
4
42
0.0000001000
43
0.0000001000
44
0.0000000001
12
0.0313586432
22
0.2553755288
32
0.0000000000
13
0.2571717936
23
-0.0079179387
33
0.0000000000
40
0.0000000000
40
0.0000000000
40
0.0000000000
40
0.0000000000
40
0.3018982448
40
0.6349480388
40
1.0000000000
40
1.0000000000
40
1.0000000000
40
1.0000000000
10
-44.7980121990
20
27.1872004314
30
0.0000000000
10
-44.7948564925
20
27.2128995727
30
0.0000000000
10
-44.7698990476
20
27.2655372997
30
0.0000000000
10
-44.6952440817
20
27.3138927998
30
0.0000000000
10
-44.6342871007
20
27.3233346092
30
0.0000000000
10
-44.6029934115
20
27.3223711228
30
0.0000000000
11
-44.7980121990
21
27.1872004314
31
0.0000000000
11
-44.7660494312
21
27.2579960569
31
0.0000000000
11
-44.6956211288
21
27.3068110582
31
0.0000000000
11
-44.6029934115
21
27.3223711228
31
0.0000000000
0
SPLINE
5
519
100
AcDbEntity
8
0
100
AcDbSpline
62
9
6
CONTINUOUS
70
0
71
3
72
10
73
6
74
4
42
0.0000001000
43
0.0000001000
44
0.0000000001
12
0.6211386715
22
5.0952258453
32
0.0000000000
13
0.6211466193
23
5.0952248764
33
0.0000000000
40
0.0000000000
40
0.0000000000
40
0.0000000000
40
0.0000000000
40
0.3624472038
40
0.6965849222
40
1.0000000000
40
1.0000000000
40
1.0000000000
40
1.0000000000
10
-45.2241353817
20
22.2271474300
30
0.0000000000
10
-45.1490920568
20
22.8427308834
30
0.0000000000
10
-45.0048660498
20
24.0258166276
30
0.0000000000
10
-44.7978185242
20
25.7242250839
30
0.0000000000
10
-44.6658151999
20
26.8070501937
30
0.0000000000
10
-44.6029934500
20
27.3223728778
30
0.0000000000
11
-45.2241353817
21
22.2271474300
31
0.0000000000
11
-44.9990046001
21
24.0738976919
31
0.0000000000
11
-44.7914575886
21
25.7764046901
31
0.0000000000
11
-44.6029934500
21
27.3223728778
31
0.0000000000
0
SPLINE
5
51A
100
AcDbEntity
8
0
100
AcDbSpline
62
9
6
CONTINUOUS
70
0
71
3
72
10
73
6
74
4
42
0.0000001000
43
0.0000001000
44
0.0000000001
12
0.0287402279
22
0.2340653657
32
0.0000000000
13
0.2353171378
23
-0.0154415284
33
0.0000000000
40
0.0000000000
40
0.0000000000
40
0.0000000000
40
0.0000000000
40
0.2652697774
40
0.6008648228
40
1.0000000000
40
1.0000000000
40
1.0000000000
40
1.0000000000
10
-45.4191541308
20
22.1284053583
30
0.0000000000
10
-45.4166128261
20
22.1491021807
30
0.0000000000
10
-45.3884097548
20
22.1928628255
30
0.0000000000
10
-45.3139331842
20
22.2245992044
30
0.0000000000
10
-45.2554431587
20
22.2292016553
30
0.0000000000
10
-45.2241353762
20
22.2271472363
30
0.0000000000
11
-45.4191541308
21
22.1284053583
31
0.0000000000
11
-45.3884855043
21
22.1829286154
31
0.0000000000
11
-45.3178789366
21
22.2186781265
31
0.0000000000
11
-45.2241353762
21
22.2271472363
31
0.0000000000
0
SPLINE
5
51B
100
AcDbEntity
8
0
100
AcDbSpline
62
9
6
CONTINUOUS
70
0
71
3
72
11
73
7
74
5
42
0.0000001000
43
0.0000001000
44
0.0000000001
12
0.1354219408
22
1.2320528481
32
0.0000000000
13
0.1370876751
23
1.2318686180
33
0.0000000000
40
0.0000000000
40
0.0000000000
40
0.0000000000
40
0.0000000000
40
0.2685049789
40
0.5293255489
40
0.7753810930
40
1.0000000000
40
1.0000000000
40
1.0000000000
40
1.0000000000
10
-45.3602862804
20
20.9951696797
30
0.0000000000
10
-45.3481657919
20
21.1054404544
30
0.0000000000
10
-45.3242419170
20
21.3228228662
30
0.0000000000
10
-45.2891035116
20
21.6412445886
30
0.0000000000
10
-45.2558596096
20
21.9416334243
30
0.0000000000
10
-45.2343993914
20
22.1349084253
30
0.0000000000
10
-45.2241352301
20
22.2271420862
30
0.0000000000
11
-45.3602862804
21
20.9951696797
31
0.0000000000
11
-45.3238781671
21
21.3259768730
31
0.0000000000
11
-45.2884170933
21
21.6473061530
31
0.0000000000
11
-45.2548663399
21
21.9504342805
31
0.0000000000
11
-45.2241352301
21
22.2271420862
31
0.0000000000
0
SPLINE
5
51C
100
AcDbEntity
8
0
100
AcDbSpline
62
9
6
CONTINUOUS
70
0
71
3
72
11
73
7
74
5
42
0.0000001000
43
0.0000001000
44
0.0000000001
12
-0.1370872559
22
1.2318663238
32
0.0000000000
13
-0.1354196597
23
1.2320507583
33
0.0000000000
40
0.0000000000
40
0.0000000000
40
0.0000000000
40
0.0000000000
40
0.2246231718
40
0.4706644635
40
0.7314956224
40
1.0000000000
40
1.0000000000
40
1.0000000000
40
1.0000000000
10
-45.2241351634
20
-12.1528630846
30
0.0000000000
10
-45.2343994881
20
-12.0606278443
30
0.0000000000
10
-45.2558596186
20
-11.8673573526
30
0.0000000000
10
-45.2891033354
20
-11.5669688171
30
0.0000000000
10
-45.3242413472
20
-11.2485494290
30
0.0000000000
10
-45.3481660872
20
-11.0311633740
30
0.0000000000
10
-45.3602863444
20
-10.9208930333
30
0.0000000000
11
-45.2241351634
21
-12.1528630846
31
0.0000000000
11
-45.2548670606
21
-11.8761505736
31
0.0000000000
11
-45.2884157980
21
-11.5730405721
31
0.0000000000
11
-45.3238782391
21
-11.2516988493
31
0.0000000000
11
-45.3602863444
21
-10.9208930333
31
0.0000000000
0
SPLINE
5
51D
100
AcDbEntity
8
0
100
AcDbSpline
62
9
6
CONTINUOUS
70
0
71
3
72
10
73
6
74
4
42
0.0000001000
43
0.0000001000
44
0.0000000001
12
0.0287613243
22
-0.2340569177
32
0.0000000000
13
0.2353112757
23
0.0154420855
33
0.0000000000
40
0.0000000000
40
0.0000000000
40
0.0000000000
40
0.0000000000
40
0.2652710082
40
0.6008674508
40
1.0000000000
40
1.0000000000
40
1.0000000000
40
1.0000000000
10
-45.4191541304
20
-12.0541287117
30
0.0000000000
10
-45.4166109486
20
-12.0748248832
30
0.0000000000
10
-45.3884054779
20
-12.1185820321
30
0.0000000000
10
-45.3139304910
20
-12.1503157604
30
0.0000000000
10
-45.2554419598
20
-12.1549175642
30
0.0000000000
10
-45.2241351634
20
-12.1528630846
30
0.0000000000
11
-45.4191541304
21
-12.0541287117
31
0.0000000000
11
-45.3884821149
21
-12.1086486260
31
0.0000000000
11
-45.3178758837
21
-12.1443952125
31
0.0000000000
11
-45.2241351634
21
-12.1528630846
31
0.0000000000
0
SPLINE
5
51E
100
AcDbEntity
8
0
100
AcDbSpline
62
9
6
CONTINUOUS
70
0
71
3
72
10
73
6
74
4
42
0.0000001000
43
0.0000001000
44
0.0000000001
12
-0.6211460200
22
5.0952249494
32
0.0000000000
13
-0.6211383170
23
5.0952258885
33
0.0000000000
40
0.0000000000
40
0.0000000000
40
0.0000000000
40
0.0000000000
40
0.3034157619
40
0.6375535862
40
1.0000000000
40
1.0000000000
40
1.0000000000
40
1.0000000000
10
-44.6029934500
20
-17.2480962313
30
0.0000000000
10
-44.6658152809
20
-16.7327723778
30
0.0000000000
10
-44.7978189444
20
-15.6499459476
30
0.0000000000
10
-45.0048662474
20
-13.9515374641
30
0.0000000000
10
-45.1490922632
20
-12.7684529003
30
0.0000000000
10
-45.2241353817
20
-12.1528707835
30
0.0000000000
11
-44.6029934500
21
-17.2480962313
31
0.0000000000
11
-44.7914580482
21
-15.7021245619
31
0.0000000000
11
-44.9990050598
21
-13.9996170162
31
0.0000000000
11
-45.2241353817
21
-12.1528707835
31
0.0000000000
0
SPLINE
5
51F
100
AcDbEntity
8
0
100
AcDbSpline
62
9
6
CONTINUOUS
70
0
71
3
72
10
73
6
74
4
42
0.0000001000
43
0.0000001000
44
0.0000000001
12
0.0313568231
22
-0.2553768853
32
0.0000000000
13
0.2571729277
23
0.0079176503
33
0.0000000000
40
0.0000000000
40
0.0000000000
40
0.0000000000
40
0.0000000000
40
0.3018986858
40
0.6349483877
40
1.0000000000
40
1.0000000000
40
1.0000000000
40
1.0000000000
10
-44.7980121990
20
-17.1129237848
30
0.0000000000
10
-44.7948566711
20
-17.1386231002
30
0.0000000000
10
-44.7698995135
20
-17.1912612987
30
0.0000000000
10
-44.6952444532
20
-17.2396174445
30
0.0000000000
10
-44.6342872421
20
-17.2490594465
30
0.0000000000
10
-44.6029934448
20
-17.2480959962
30
0.0000000000
11
-44.7980121990
21
-17.1129237848
31
0.0000000000
11
-44.7660497678
21
-17.1837200593
31
0.0000000000
11
-44.6956214378
21
-17.2325356368
31
0.0000000000
11
-44.6029934448
21
-17.2480959962
31
0.0000000000
0
SPLINE
5
520
100
AcDbEntity
8
0
100
AcDbSpline
62
9
6
CONTINUOUS
70
0
71
3
72
10
73
6
74
4
42
0.0000001000
43
0.0000001000
44
0.0000000001
12
-0.1014222371
22
-0.0025241928
32
0.0000000000
13
-0.0070665701
23
0.1012072394
33
0.0000000000
40
0.0000000000
40
0.0000000000
40
0.0000000000
40
0.0000000000
40
0.1147008129
40
0.4530699769
40
1.0000000000
40
1.0000000000
40
1.0000000000
40
1.0000000000
10
-44.5955322172
20
-17.3492718789
30
0.0000000000
10
-44.5994099549
20
-17.3493683879
30
0.0000000000
10
-44.5922689930
20
-17.3245458305
30
0.0000000000
10
-44.6027998733
20
-17.3000733557
30
0.0000000000
10
-44.6017051051
20
-17.2665455681
30
0.0000000000
10
-44.6029934115
20
-17.2480944755
30
0.0000000000
11
-44.5955322172
21
-17.3492718789
31
0.0000000000
11
-44.5965577655
21
-17.3376803422
31
0.0000000000
11
-44.5990816819
21
-17.3034444650
31
0.0000000000
11
-44.6029934115
21
-17.2480944755
31
0.0000000000
0
SPLINE
5
521
100
AcDbEntity
8
0
100
AcDbSpline
62
9
6
CONTINUOUS
70
0
71
3
72
10
73
6
74
4
42
0.0000001000
43
0.0000001000
44
0.0000000001
12
3.5592226649
22
0.0552603612
32
0.0000000000
13
3.5592180845
23
0.0555545739
33
0.0000000000
40
0.0000000000
40
0.0000000000
40
0.0000000000
40
0.0000000000
40
0.0094467609
40
0.5061155264
40
1.0000000000
40
1.0000000000
40
1.0000000000
40
1.0000000000
10
-49.2291420442
20
22.4527394432
30
0.0000000000
10
-49.2179343357
20
22.4529134537
30
0.0000000000
10
-48.6174750552
20
22.4622364048
30
0.0000000000
10
-47.4310679056
20
22.4806826278
30
0.0000000000
10
-46.2558692092
20
22.4990026831
30
0.0000000000
10
-45.6699216926
20
22.5081485303
30
0.0000000000
11
-49.2291420442
21
22.4527394432
31
0.0000000000
11
-49.1955189189
21
22.4532614882
31
0.0000000000
11
-47.4277647899
21
22.4807460775
31
0.0000000000
11
-45.6699216926
21
22.5081485303
31
0.0000000000
0
SPLINE
5
522
100
AcDbEntity
8
0
100
AcDbSpline
62
9
6
CONTINUOUS
70
0
71
3
72
11
73
7
74
5
42
0.0000001000
43
0.0000001000
44
0.0000000001
12
0.0352952186
22
0.2874564871
32
0.0000000000
13
-0.2874512777
23
0.0353376203
33
0.0000000000
40
0.0000000000
40
0.0000000000
40
0.0000000000
40
0.0000000000
40
0.0754713904
40
0.2908423338
40
0.6147467772
40
1.0000000000
40
1.0000000000
40
1.0000000000
40
1.0000000000
10
-45.5373222234
20
21.1660034747
30
0.0000000000
10
-45.5364342970
20
21.1732350550
30
0.0000000000
10
-45.5833649899
20
21.1627264561
30
0.0000000000
10
-45.6248936006
20
21.1832094709
30
0.0000000000
10
-45.7222867289
20
21.1877359378
30
0.0000000000
10
-45.7877023762
20
21.1980263004
30
0.0000000000
10
-45.8246162199
20
21.2025642777
30
0.0000000000
11
-45.5373222234
21
21.1660034747
31
0.0000000000
11
-45.5589534725
21
21.1691413977
31
0.0000000000
11
-45.6208121156
21
21.1771484116
31
0.0000000000
11
-45.7138860811
21
21.1888579939
31
0.0000000000
11
-45.8246162199
21
21.2025642777
31
0.0000000000
0
SPLINE
5
523
100
AcDbEntity
8
0
100
AcDbSpline
62
9
6
CONTINUOUS
70
0
71
3
72
11
73
7
74
5
42
0.0000001000
43
0.0000001000
44
0.0000000001
12
0.0264528891
22
0.2154414927
32
0.0000000000
13
-0.2151527058
23
0.0269088843
33
0.0000000000
40
0.0000000000
40
0.0000000000
40
0.0000000000
40
0.0000000000
40
0.1006977355
40
0.3880585198
40
0.8202339305
40
1.0000000000
40
1.0000000000
40
1.0000000000
40
1.0000000000
10
-47.5027341751
20
5.1590076667
30
0.0000000000
10
-47.5018462598
20
5.1662391568
30
0.0000000000
10
-47.5487765894
20
5.1557306574
30
0.0000000000
10
-47.5903050670
20
5.1762136150
30
0.0000000000
10
-47.6613071381
20
5.1795135096
30
0.0000000000
10
-47.7057359177
20
5.1846108227
30
0.0000000000
10
-47.7186283032
20
5.1862232575
30
0.0000000000
11
-47.5027341751
21
5.1590076667
31
0.0000000000
11
-47.5243651542
21
5.1621455539
31
0.0000000000
11
-47.5862234587
21
5.1701525266
31
0.0000000000
11
-47.6792975061
21
5.1818621205
31
0.0000000000
11
-47.7186283032
21
5.1862232575
31
0.0000000000
0
SPLINE
5
524
100
AcDbEntity
8
0
100
AcDbSpline
62
9
6
CONTINUOUS
70
0
71
3
72
11
73
7
74
5
42
0.0000001000
43
0.0000001000
44
0.0000000001
12
-0.0239517991
22
0.1950717494
32
0.0000000000
13
0.1950708672
23
0.0239589832
33
0.0000000000
40
0.0000000000
40
0.0000000000
40
0.0000000000
40
0.0000000000
40
0.0757885599
40
0.2918545038
40
0.6160188791
40
1.0000000000
40
1.0000000000
40
1.0000000000
40
1.0000000000
10
-45.5553052410
20
-10.9452669029
30
0.0000000000
10
-45.5559103318
20
-10.9403388339
30
0.0000000000
10
-45.5238977534
20
-10.9478667785
30
0.0000000000
10
-45.4956799788
20
-10.9338105456
30
0.0000000000
10
-45.4295860788
20
-10.9309405857
30
0.0000000000
10
-45.3852543354
20
-10.9239596333
30
0.0000000000
10
-45.3602864920
20
-10.9208930342
30
0.0000000000
11
-45.5553052410
21
-10.9452669029
31
0.0000000000
11
-45.5405415330
21
-10.9432918299
31
0.0000000000
11
-45.4984101008
21
-10.9379805987
31
0.0000000000
11
-45.4351861525
21
-10.9301242836
31
0.0000000000
11
-45.3602864920
21
-10.9208930342
31
0.0000000000
0
SPLINE
5
525
100
AcDbEntity
8
0
100
AcDbSpline
62
9
6
CONTINUOUS
70
0
71
3
72
17
73
13
74
11
42
0.0000001000
43
0.0000001000
44
0.0000000001
12
1.0172203353
22
-0.0351567351
32
0.0000000000
13
-0.1703632514
23
1.0034687683
33
0.0000000000
40
0.0000000000
40
0.0000000000
40
0.0000000000
40
0.0000000000
40
0.0054700931
40
0.0231215339
40
0.0572824264
40
0.1126069809
40
0.1948591966
40
0.3104322750
40
0.4611122428
40
0.6381479252
40
0.8235540733
40
1.0000000000
40
1.0000000000
40
1.0000000000
40
1.0000000000
10
-45.5700595785
20
-12.9016678567
30
0.0000000000
10
-45.5682048151
20
-12.9017319602
30
0.0000000000
10
-45.5723789713
20
-12.8890002385
30
0.0000000000
10
-45.5707327481
20
-12.8749184232
30
0.0000000000
10
-45.5782814209
20
-12.8353858177
30
0.0000000000
10
-45.5853685081
20
-12.7796254991
30
0.0000000000
10
-45.5990983828
20
-12.6938412258
30
0.0000000000
10
-45.6173116417
20
-12.5774479885
30
0.0000000000
10
-45.6414611977
20
-12.4288311179
30
0.0000000000
10
-45.6697041289
20
-12.2571057201
30
0.0000000000
10
-45.6998149729
20
-12.0767531634
30
0.0000000000
10
-45.7202492401
20
-11.9557017118
30
0.0000000000
10
-45.7302692073
20
-11.8966823862
30
0.0000000000
11
-45.5700595785
21
-12.9016678567
31
0.0000000000
11
-45.5699090399
21
-12.8961022800
31
0.0000000000
11
-45.5718037290
21
-12.8782363401
31
0.0000000000
11
-45.5764095882
21
-12.8437728498
31
0.0000000000
11
-45.5845458251
21
-12.7880528802
31
0.0000000000
11
-45.5972236414
21
-12.7052997894
31
0.0000000000
11
-45.6155881430
21
-12.5891086513
31
0.0000000000
11
-45.6400644069
21
-12.4377081322
31
0.0000000000
11
-45.6693155719
21
-12.2599063853
31
0.0000000000
11
-45.7003721973
21
-12.0737679407
31
0.0000000000
11
-45.7302692073
21
-11.8966823862
31
0.0000000000
0
SPLINE
5
526
100
AcDbEntity
8
0
100
AcDbSpline
62
9
6
CONTINUOUS
70
0
71
3
72
11
73
7
74
5
42
0.0000001000
43
0.0000001000
44
0.0000000001
12
0.0352952186
22
-0.2874564871
32
0.0000000000
13
-0.2874512778
23
-0.0353376193
33
0.0000000000
40
0.0000000000
40
0.0000000000
40
0.0000000000
40
0.0000000000
40
0.0754704501
40
0.2908402158
40
0.6147449449
40
1.0000000000
40
1.0000000000
40
1.0000000000
40
1.0000000000
10
-45.4429752108
20
-11.8601215831
30
0.0000000000
10
-45.4420872955
20
-11.8673530733
30
0.0000000000
10
-45.4890176251
20
-11.8568445738
30
0.0000000000
10
-45.5305461027
20
-11.8773275315
30
0.0000000000
10
-45.6279393602
20
-11.8818539836
30
0.0000000000
10
-45.6933551880
20
-11.8921443873
30
0.0000000000
10
-45.7302692073
20
-11.8966823862
30
0.0000000000
11
-45.4429752108
21
-11.8601215831
31
0.0000000000
11
-45.4646061899
21
-11.8632594704
31
0.0000000000
11
-45.5264644945
21
-11.8712664430
31
0.0000000000
11
-45.6195385419
21
-11.8829760369
31
0.0000000000
11
-45.7302692073
21
-11.8966823862
31
0.0000000000
0
SPLINE
5
527
100
AcDbEntity
8
0
100
AcDbSpline
62
9
6
CONTINUOUS
70
0
71
3
72
11
73
7
74
5
42
0.0000001000
43
0.0000001000
44
0.0000000001
12
0.0232973697
22
-0.1897418499
32
0.0000000000
13
-0.1937321641
23
-0.0206068891
33
0.0000000000
40
0.0000000000
40
0.0000000000
40
0.0000000000
40
0.0000000000
40
0.1143367696
40
0.4406192206
40
0.9313307616
40
1.0000000000
40
1.0000000000
40
1.0000000000
40
1.0000000000
10
-47.5027341751
20
4.9152689799
30
0.0000000000
10
-47.5018462598
20
4.9080374898
30
0.0000000000
10
-47.5487765890
20
4.9185459892
30
0.0000000000
10
-47.5903050664
20
4.8980630316
30
0.0000000000
10
-47.6518890426
20
4.8952008528
30
0.0000000000
10
-47.6882669029
20
4.8915447356
30
0.0000000000
10
-47.6927013830
20
4.8910730492
30
0.0000000000
11
-47.5027341751
21
4.9152689799
31
0.0000000000
11
-47.5243651539
21
4.9121310927
31
0.0000000000
11
-47.5862234580
21
4.9041241201
31
0.0000000000
11
-47.6792975053
21
4.8924145262
31
0.0000000000
11
-47.6927013830
21
4.8910730492
31
0.0000000000
0
SPLINE
5
528
100
AcDbEntity
8
0
100
AcDbSpline
62
9
6
CONTINUOUS
70
0
71
3
72
17
73
13
74
11
42
0.0000001000
43
0.0000001000
44
0.0000000001
12
0.1648624073
22
1.0007679818
32
0.0000000000
13
-1.0141105373
23
-0.0172042096
33
0.0000000000
40
0.0000000000
40
0.0000000000
40
0.0000000000
40
0.0000000000
40
0.1598628866
40
0.3341909747
40
0.5065721727
40
0.6596521380
40
0.7825150969
40
0.8730203912
40
0.9353142771
40
0.9741203078
40
0.9939971447
40
1.0000000000
40
1.0000000000
40
1.0000000000
40
1.0000000000
10
-45.8246162199
20
21.2025642777
30
0.0000000000
10
-45.8158310931
20
21.2558928305
30
0.0000000000
10
-45.7975611961
20
21.3673879908
30
0.0000000000
10
-45.7701466983
20
21.5364593297
30
0.0000000000
10
-45.7434903954
20
21.7032622120
30
0.0000000000
10
-45.7198095418
20
21.8531371997
30
0.0000000000
10
-45.7012378437
20
21.9751848743
30
0.0000000000
10
-45.6866904853
20
22.0683098417
30
0.0000000000
10
-45.6790779817
20
22.1303538381
30
0.0000000000
10
-45.6706409584
20
22.1748243915
30
0.0000000000
10
-45.6726245487
20
22.1907516429
30
0.0000000000
10
-45.6679314755
20
22.2048413804
30
0.0000000000
10
-45.6699606618
20
22.2048069556
30
0.0000000000
11
-45.8246162199
21
21.2025642777
31
0.0000000000
11
-45.7983941594
21
21.3625718416
31
0.0000000000
11
-45.7701099320
21
21.5371083055
31
0.0000000000
11
-45.7425079149
21
21.7097545186
31
0.0000000000
11
-45.7183952333
21
21.8631330502
31
0.0000000000
11
-45.6994499341
21
21.9862990425
31
0.0000000000
11
-45.6859008668
21
22.0770891916
31
0.0000000000
11
-45.6769929014
21
22.1396400531
31
0.0000000000
11
-45.6718974163
21
22.1786680937
31
0.0000000000
11
-45.6698134207
21
22.1987203015
31
0.0000000000
11
-45.6699606618
21
22.2048069556
31
0.0000000000
0
SPLINE
5
529
100
AcDbEntity
8
0
100
AcDbSpline
62
9
6
CONTINUOUS
70
0
71
3
72
11
73
7
74
5
42
0.0000001000
43
0.0000001000
44
0.0000000001
12
-0.0359888257
22
-0.2931052964
32
0.0000000000
13
-0.2943798569
23
0.0233754191
33
0.0000000000
40
0.0000000000
40
0.0000000000
40
0.0000000000
40
0.0000000000
40
0.0741788970
40
0.2897508939
40
0.6145451762
40
1.0000000000
40
1.0000000000
40
1.0000000000
40
1.0000000000
10
-45.3774325408
20
22.4682004407
30
0.0000000000
10
-45.3783224112
20
22.4609530315
30
0.0000000000
10
-45.4211689370
20
22.4879170773
30
0.0000000000
10
-45.4675948184
20
22.4759636448
30
0.0000000000
10
-45.5649230068
20
22.4974919291
30
0.0000000000
10
-45.6321372841
20
22.5051445473
30
0.0000000000
10
-45.6699606627
20
22.5081479366
30
0.0000000000
11
-45.3774325408
21
22.4682004407
31
0.0000000000
11
-45.3988870675
21
22.4726224955
31
0.0000000000
11
-45.4618875838
21
22.4817606427
31
0.0000000000
11
-45.5569877048
21
22.4942279632
31
0.0000000000
11
-45.6699606627
21
22.5081479366
31
0.0000000000
0
SPLINE
5
52A
100
AcDbEntity
8
0
100
AcDbSpline
62
9
6
CONTINUOUS
70
0
71
3
72
16
73
12
74
10
42
0.0000001000
43
0.0000001000
44
0.0000000001
12
0.3576746616
22
2.6082624693
32
0.0000000000
13
0.0000330392
23
-0.0000044089
33
0.0000000000
40
0.0000000000
40
0.0000000000
40
0.0000000000
40
0.0000000000
40
0.2060550793
40
0.4034107722
40
0.5833700194
40
0.7380161743
40
0.8606920034
40
0.9462640713
40
0.9912326490
40
0.9937800234
40
1.0000000000
40
1.0000000000
40
1.0000000000
40
1.0000000000
10
-45.6699216926
20
22.5081485303
30
0.0000000000
10
-45.6453547990
20
22.6872971069
30
0.0000000000
10
-45.5973199400
20
23.0380247322
30
0.0000000000
10
-45.5277504097
20
23.5452778106
30
0.0000000000
10
-45.4643760400
20
24.0075876947
30
0.0000000000
10
-45.4097974372
20
24.4057249227
30
0.0000000000
10
-45.3667539649
20
24.7197513599
30
0.0000000000
10
-45.3361354232
20
24.9431298657
30
0.0000000000
10
-45.3209162133
20
25.0541820147
30
0.0000000000
10
-45.3140802721
20
25.1040493189
30
0.0000000000
10
-45.3136710714
20
25.1070339290
30
0.0000000000
10
-45.3136710029
20
25.1070339199
30
0.0000000000
11
-45.6699216926
21
22.5081485303
31
0.0000000000
11
-45.5962648569
21
23.0456002708
31
0.0000000000
11
-45.5256883037
21
23.5603574424
31
0.0000000000
11
-45.4613390042
21
24.0297408012
31
0.0000000000
11
-45.4060456973
21
24.4331012645
31
0.0000000000
11
-45.3621863236
21
24.7530745840
31
0.0000000000
11
-45.3315939135
21
24.9762709920
31
0.0000000000
11
-45.3155179030
21
25.0935619573
31
0.0000000000
11
-45.3146070886
21
25.1002062220
31
0.0000000000
11
-45.3136710029
21
25.1070339199
31
0.0000000000
0
SPLINE
5
52B
100
AcDbEntity
8
0
100
AcDbSpline
62
9
6
CONTINUOUS
70
0
71
3
72
11
73
7
74
5
42
0.0000001000
43
0.0000001000
44
0.0000000001
12
0.3033680821
22
0.0052953096
32
0.0000000000
13
-0.0053541112
23
0.3033670501
33
0.0000000000
40
0.0000000000
40
0.0000000000
40
0.0000000000
40
0.0000000000
40
0.0766017268
40
0.2938170111
40
0.6182989025
40
1.0000000000
40
1.0000000000
40
1.0000000000
40
1.0000000000
10
-45.6699606620
20
22.2048069556
30
0.0000000000
10
-45.6622144890
20
22.2049421656
30
0.0000000000
10
-45.6766951838
20
22.2524629658
30
0.0000000000
10
-45.6626002133
20
22.2989266541
30
0.0000000000
10
-45.6702316940
20
22.4004329830
30
0.0000000000
10
-45.6692794393
20
22.4695494246
30
0.0000000000
10
-45.6699606627
20
22.5081479366
30
0.0000000000
11
-45.6699606620
21
22.2048069556
31
0.0000000000
11
-45.6683255482
21
22.2279914267
31
0.0000000000
11
-45.6677509472
21
22.2938951439
31
0.0000000000
11
-45.6683255482
21
22.3923459110
31
0.0000000000
11
-45.6699606627
21
22.5081479366
31
0.0000000000
0
SPLINE
5
52C
100
AcDbEntity
8
0
100
AcDbSpline
62
9
6
CONTINUOUS
70
0
71
3
72
11
73
7
74
5
42
0.0000001000
43
0.0000001000
44
0.0000000001
12
-0.0239517991
22
-0.1950717494
32
0.0000000000
13
0.1950708654
23
-0.0239589975
33
0.0000000000
40
0.0000000000
40
0.0000000000
40
0.0000000000
40
0.0000000000
40
0.0757843074
40
0.2918448943
40
0.6160106555
40
1.0000000000
40
1.0000000000
40
1.0000000000
40
1.0000000000
10
-45.5553052410
20
21.0195435495
30
0.0000000000
10
-45.5559102979
20
21.0146157570
30
0.0000000000
10
-45.5238988366
20
21.0221434009
30
0.0000000000
10
-45.4956814676
20
21.0080873351
30
0.0000000000
10
-45.4295871692
20
21.0052174306
30
0.0000000000
10
-45.3852548700
20
20.9982363463
30
0.0000000000
10
-45.3602864921
20
20.9951696797
30
0.0000000000
11
-45.5553052410
21
21.0195435495
31
0.0000000000
11
-45.5405423617
21
21.0175685849
31
0.0000000000
11
-45.4984119744
21
21.0122574831
31
0.0000000000
11
-45.4351877562
21
21.0044011315
31
0.0000000000
11
-45.3602864921
21
20.9951696797
31
0.0000000000
0
SPLINE
5
52D
100
AcDbEntity
8
0
100
AcDbSpline
62
9
6
CONTINUOUS
70
0
71
3
72
11
73
7
74
5
42
0.0000001000
43
0.0000001000
44
0.0000000001
12
0.0000000000
22
0.6596484715
32
0.0000000000
13
-0.6595993271
23
0.0080519358
33
0.0000000000
40
0.0000000000
40
0.0000000000
40
0.0000000000
40
0.0000000000
40
0.2085035462
40
0.4431841000
40
0.7108109530
40
1.0000000000
40
1.0000000000
40
1.0000000000
40
1.0000000000
10
-32.1176978489
20
24.1325588865
30
0.0000000000
10
-32.1176978489
20
24.1784052350
30
0.0000000000
10
-32.1475377841
20
24.2769866720
30
0.0000000000
10
-32.2617170341
20
24.3901681500
30
0.0000000000
10
-32.4224087091
20
24.4637025460
30
0.0000000000
10
-32.5453886788
20
24.4814057239
30
0.0000000000
10
-32.6089716457
20
24.4821819011
30
0.0000000000
11
-32.1176978489
21
24.1325588865
31
0.0000000000
11
-32.1549275969
21
24.2649633234
31
0.0000000000
11
-32.2610726243
21
24.3776502250
31
0.0000000000
11
-32.4203259207
21
24.4538383716
31
0.0000000000
11
-32.6089716457
21
24.4821819011
31
0.0000000000
0
SPLINE
5
52E
100
AcDbEntity
8
0
100
AcDbSpline
62
9
6
CONTINUOUS
70
0
71
3
72
10
73
6
74
4
42
0.0000001000
43
0.0000001000
44
0.0000000001
12
-3.9999999803
22
-0.0702534154
32
0.0000000000
13
-4.0000000196
23
-0.0702511788
33
0.0000000000
40
0.0000000000
40
0.0000000000
40
0.0000000000
40
0.0000000000
40
0.3334720350
40
0.6668053684
40
1.0000000000
40
1.0000000000
40
1.0000000000
40
1.0000000000
10
-39.8176978489
20
-18.2259690385
30
0.0000000000
10
-40.2623272267
20
-18.2337782217
30
0.0000000000
10
-41.1514010483
20
-18.2493932566
30
0.0000000000
10
-42.4847343816
20
-18.2728106881
30
0.0000000000
10
-43.3734383379
20
-18.2884188957
30
0.0000000000
10
-43.8176978489
20
-18.2962213342
30
0.0000000000
11
-39.8176978489
21
-18.2259690385
31
0.0000000000
11
-41.1515859846
21
-18.2493964632
31
0.0000000000
11
-42.4849193180
21
-18.2728138948
31
0.0000000000
11
-43.8176978489
21
-18.2962213342
31
0.0000000000
0
SPLINE
5
52F
100
AcDbEntity
8
0
100
AcDbSpline
62
7
6
CONTINUOUS
70
0
71
3
72
8
73
4
74
2
42
0.0000001000
43
0.0000001000
44
0.0000000001
12
0.0039574156
22
0.0132718814
32
0.0000000000
13
0.0046443919
23
0.0130624760
33
0.0000000000
40
0.0000000000
40
0.0000000000
40
0.0000000000
40
0.0000000000
40
1.0000000000
40
1.0000000000
40
1.0000000000
40
1.0000000000
10
-39.8085078686
20
-16.2988958293
30
0.0000000000
10
-39.8071887300
20
-16.2944718688
30
0.0000000000
10
-39.8057483008
20
-16.2900808947
30
0.0000000000
10
-39.8042001702
20
-16.2857267360
30
0.0000000000
11
-39.8085078686
21
-16.2988958293
31
0.0000000000
11
-39.8042001702
21
-16.2857267360
31
0.0000000000
0
SPLINE
5
530
100
AcDbEntity
8
0
100
AcDbSpline
62
7
6
CONTINUOUS
70
0
71
3
72
8
73
4
74
2
42
0.0000001000
43
0.0000001000
44
0.0000000001
12
0.0192556744
22
0.0383648620
32
0.0000000000
13
0.0229400879
23
0.0362626834
33
0.0000000000
40
0.0000000000
40
0.0000000000
40
0.0000000000
40
0.0000000000
40
1.0000000000
40
1.0000000000
40
1.0000000000
40
1.0000000000
10
-39.7883939959
20
-16.2489807588
30
0.0000000000
10
-39.7819754378
20
-16.2361924715
30
0.0000000000
10
-39.7748211077
20
-16.2237834248
30
0.0000000000
10
-39.7671744118
20
-16.2116958637
30
0.0000000000
11
-39.7883939959
21
-16.2489807588
31
0.0000000000
11
-39.7671744118
21
-16.2116958637
31
0.0000000000
0
SPLINE
5
531
100
AcDbEntity
8
0
100
AcDbSpline
62
9
6
CONTINUOUS
70
0
71
3
72
12
73
8
74
6
42
0.0000001000
43
0.0000001000
44
0.0000000001
12
-0.1226564172
22
-0.0023410604
32
0.0000000000
13
0.0004869837
23
0.1226777897
33
0.0000000000
40
0.0000000000
40
0.0000000000
40
0.0000000000
40
0.0000000000
40
0.0286379551
40
0.1247223660
40
0.3055998023
40
0.5907140282
40
1.0000000000
40
1.0000000000
40
1.0000000000
40
1.0000000000
10
-39.6211883304
20
-16.1594315789
30
0.0000000000
10
-39.6223592067
20
-16.1594539266
30
0.0000000000
10
-39.6196359548
20
-16.1512472100
30
0.0000000000
10
-39.6227053328
20
-16.1420850735
30
0.0000000000
10
-39.6207323621
20
-16.1169080265
30
0.0000000000
10
-39.6217017652
20
-16.0822718881
30
0.0000000000
10
-39.6212547933
20
-16.0534926455
30
0.0000000000
10
-39.6211883548
20
-16.0367558793
30
0.0000000000
11
-39.6211883304
21
-16.1594315789
31
0.0000000000
11
-39.6213182362
21
-16.1559207127
31
0.0000000000
11
-39.6214018849
21
-16.1441334935
31
0.0000000000
11
-39.6214224503
21
-16.1219436841
31
0.0000000000
11
-39.6213592335
21
-16.0869662826
31
0.0000000000
11
-39.6211883548
21
-16.0367558793
31
0.0000000000
0
SPLINE
5
532
100
AcDbEntity
8
0
100
AcDbSpline
62
9
6
CONTINUOUS
70
0
71
3
72
10
73
6
74
4
42
0.0000001000
43
0.0000001000
44
0.0000000001
12
0.1517489923
22
0.0026487885
32
0.0000000000
13
0.0139152625
23
-0.1511328496
33
0.0000000000
40
0.0000000000
40
0.0000000000
40
0.0000000000
40
0.0000000000
40
0.1197415736
40
0.4600609008
40
1.0000000000
40
1.0000000000
40
1.0000000000
40
1.0000000000
10
-32.6264240521
20
24.6324827340
30
0.0000000000
10
-32.6203671644
20
24.6325884574
30
0.0000000000
10
-32.6218637917
20
24.5968901875
30
0.0000000000
10
-32.6111276576
20
24.5586033471
30
0.0000000000
10
-32.6114761105
20
24.5093827460
30
0.0000000000
10
-32.6089716457
20
24.4821819011
30
0.0000000000
11
-32.6264240521
21
24.6324827340
31
0.0000000000
11
-32.6207102465
21
24.6152308929
31
0.0000000000
11
-32.6147354585
21
24.5639266454
31
0.0000000000
11
-32.6089716457
21
24.4821819011
31
0.0000000000
0
SPLINE
5
533
100
AcDbEntity
8
0
100
AcDbSpline
62
7
6
CONTINUOUS
70
0
71
3
72
8
73
4
74
2
42
0.0000001000
43
0.0000001000
44
0.0000000001
12
-0.0016181389
22
0.0050539449
32
0.0000000000
13
-0.0015141482
23
0.0050849349
33
0.0000000000
40
0.0000000000
40
0.0000000000
40
0.0000000000
40
0.0000000000
40
1.0000000000
40
1.0000000000
40
1.0000000000
40
1.0000000000
10
-39.8069648834
20
26.3681814133
30
0.0000000000
10
-39.8075042631
20
26.3698660616
30
0.0000000000
10
-39.8080267081
20
26.3715560117
30
0.0000000000
10
-39.8085314242
20
26.3732509900
30
0.0000000000
11
-39.8069648834
21
26.3681814133
31
0.0000000000
11
-39.8085314242
21
26.3732509900
31
0.0000000000
0
SPLINE
5
534
100
AcDbEntity
8
0
100
AcDbSpline
62
9
6
CONTINUOUS
70
0
71
3
72
12
73
8
74
6
42
0.0000001000
43
0.0000001000
44
0.0000000001
12
-0.0004870014
22
0.1226778224
32
0.0000000000
13
0.1226563902
23
-0.0023441932
33
0.0000000000
40
0.0000000000
40
0.0000000000
40
0.0000000000
40
0.0000000000
40
0.4092867091
40
0.6944006353
40
0.8752784927
40
0.9713622367
40
1.0000000000
40
1.0000000000
40
1.0000000000
40
1.0000000000
10
-39.6211883556
20
26.1110324920
30
0.0000000000
10
-39.6212547967
20
26.1277692928
30
0.0000000000
10
-39.6217017651
20
26.1565485720
30
0.0000000000
10
-39.6207323612
20
26.1911847231
30
0.0000000000
10
-39.6227053361
20
26.2163618148
30
0.0000000000
10
-39.6196359674
20
26.2255238617
30
0.0000000000
10
-39.6223591986
20
26.2337306018
30
0.0000000000
10
-39.6211883304
20
26.2337082244
30
0.0000000000
11
-39.6211883556
21
26.1110324920
31
0.0000000000
11
-39.6213592335
21
26.1612429991
31
0.0000000000
11
-39.6214224502
21
26.1962203732
31
0.0000000000
11
-39.6214018847
21
26.2184102402
31
0.0000000000
11
-39.6213182358
21
26.2301973807
31
0.0000000000
11
-39.6211883304
21
26.2337082244
31
0.0000000000
0
SPLINE
5
535
100
AcDbEntity
8
0
100
AcDbSpline
62
9
6
CONTINUOUS
70
0
71
3
72
11
73
7
74
5
42
0.0000001000
43
0.0000001000
44
0.0000000001
12
-0.3032335765
22
-0.3028279659
32
0.0000000000
13
-0.4099370829
23
0.1249278467
33
0.0000000000
40
0.0000000000
40
0.0000000000
40
0.0000000000
40
0.0000000000
40
0.1870125982
40
0.4171190867
40
0.6879030421
40
1.0000000000
40
1.0000000000
40
1.0000000000
40
1.0000000000
10
-35.5019322183
20
-15.9472634200
30
0.0000000000
10
-35.5208350513
20
-15.9661409682
30
0.0000000000
10
-35.5742324910
20
-15.9969091247
30
0.0000000000
10
-35.6720792991
20
-16.0147270025
30
0.0000000000
10
-35.7889023849
20
-16.0062443572
30
0.0000000000
10
-35.8696228332
20
-15.9847258881
30
0.0000000000
10
-35.9122695387
20
-15.9717293544
30
0.0000000000
11
-35.5019322183
21
-15.9472634200
31
0.0000000000
11
-35.5699084890
21
-15.9897173590
31
0.0000000000
11
-35.6664473666
21
-16.0098323541
31
0.0000000000
11
-35.7823103800
21
-16.0033438995
31
0.0000000000
11
-35.9122695387
21
-15.9717293544
31
0.0000000000
0
SPLINE
5
536
100
AcDbEntity
8
0
100
AcDbSpline
62
9
6
CONTINUOUS
70
0
71
3
72
10
73
6
74
4
42
0.0000001000
43
0.0000001000
44
0.0000000001
12
0.0987221930
22
0.0017277727
32
0.0000000000
13
-0.0044028537
23
0.1025633353
33
0.0000000000
40
0.0000000000
40
0.0000000000
40
0.0000000000
40
0.0000000000
40
0.1439559464
40
0.5670879592
40
1.0000000000
40
1.0000000000
40
1.0000000000
40
1.0000000000
10
-35.9122694890
20
-16.0946921711
30
0.0000000000
10
-35.9075322734
20
-16.0946092634
30
0.0000000000
10
-35.9176891956
20
-16.0647503543
30
0.0000000000
10
-35.9097495307
20
-16.0405081614
30
0.0000000000
10
-35.9107997420
20
-16.0114219859
30
0.0000000000
10
-35.9114350915
20
-15.9966216850
30
0.0000000000
11
-35.9122694890
21
-16.0946921711
31
0.0000000000
11
-35.9117443082
21
-16.0804880537
31
0.0000000000
11
-35.9117443413
21
-16.0387091366
31
0.0000000000
11
-35.9114350915
21
-15.9966216850
31
0.0000000000
0
SPLINE
5
537
100
AcDbEntity
8
0
100
AcDbSpline
62
9
6
CONTINUOUS
70
0
71
3
72
11
73
7
74
5
42
0.0000001000
43
0.0000001000
44
0.0000000001
12
-0.0000000005
22
0.6328953804
32
0.0000000000
13
-0.6328580775
23
0.0068714083
33
0.0000000000
40
0.0000000000
40
0.0000000000
40
0.0000000000
40
0.0000000000
40
0.1951515903
40
0.4258186589
40
0.6992796764
40
1.0000000000
40
1.0000000000
40
1.0000000000
40
1.0000000000
10
-32.1176978489
20
22.0216037035
30
0.0000000000
10
-32.1176978489
20
22.0627738835
30
0.0000000000
10
-32.1495722003
20
22.1532883854
30
0.0000000000
10
-32.2645673078
20
22.2521331032
30
0.0000000000
10
-32.4239240689
20
22.3164505346
30
0.0000000000
10
-32.5455338837
20
22.3318879019
30
0.0000000000
10
-32.6089716457
20
22.3325766926
30
0.0000000000
11
-32.1176978489
21
22.0216037035
31
0.0000000000
11
-32.1549267450
21
22.1393698395
31
0.0000000000
11
-32.2610706993
21
22.2395995395
31
0.0000000000
11
-32.4203242516
21
22.3073660324
31
0.0000000000
11
-32.6089716457
21
22.3325766926
31
0.0000000000
0
SPLINE
5
538
100
AcDbEntity
8
0
100
AcDbSpline
62
9
6
CONTINUOUS
70
0
71
3
72
10
73
6
74
4
42
0.0000001000
43
0.0000001000
44
0.0000000001
12
-0.2574047128
22
0.2574048128
32
0.0000000000
13
-0.3351230860
23
-0.1421511206
33
0.0000000000
40
0.0000000000
40
0.0000000000
40
0.0000000000
40
0.0000000000
40
0.2874463144
40
0.6158311253
40
1.0000000000
40
1.0000000000
40
1.0000000000
40
1.0000000000
10
-35.5020158636
20
26.0214563380
30
0.0000000000
10
-35.5266792090
20
26.0461196929
30
0.0000000000
10
-35.5956385470
20
26.0838820190
30
0.0000000000
10
-35.7198085205
20
26.0878666308
30
0.0000000000
10
-35.8039284314
20
26.0630600664
30
0.0000000000
10
-35.8468430510
20
26.0448567210
30
0.0000000000
11
-35.5020158636
21
26.0214563380
31
0.0000000000
11
-35.5926901765
21
26.0736791692
31
0.0000000000
11
-35.7119562553
21
26.0817727007
31
0.0000000000
11
-35.8468430510
21
26.0448567210
31
0.0000000000
0
SPLINE
5
539
100
AcDbEntity
8
0
100
AcDbSpline
62
9
6
CONTINUOUS
70
0
71
3
72
8
73
4
74
2
42
0.0000001000
43
0.0000001000
44
0.0000000001
12
-0.0000000000
22
-0.1355332545
32
0.0000000000
13
-0.0693495635
23
-0.1183656608
33
0.0000000000
40
0.0000000000
40
0.0000000000
40
0.0000000000
40
0.0000000000
40
1.0000000000
40
1.0000000000
40
1.0000000000
40
1.0000000000
10
-22.7176978489
20
-13.6448558235
30
0.0000000000
10
-22.7176978489
20
-13.6900335750
30
0.0000000000
10
-22.7318104646
20
-13.7357204192
30
0.0000000000
10
-22.7549269858
20
-13.7751756395
30
0.0000000000
11
-22.7176978489
21
-13.6448558235
31
0.0000000000
11
-22.7549269858
21
-13.7751756395
31
0.0000000000
0
SPLINE
5
53A
100
AcDbEntity
8
0
100
AcDbSpline
62
9
6
CONTINUOUS
70
0
71
3
72
10
73
6
74
4
42
0.0000001000
43
0.0000001000
44
0.0000000001
12
-0.3140033425
22
-0.2845580040
32
0.0000000000
13
-0.4203542886
23
-0.0050508696
33
0.0000000000
40
0.0000000000
40
0.0000000000
40
0.0000000000
40
0.0000000000
40
0.1276447242
40
0.5463705890
40
1.0000000000
40
1.0000000000
40
1.0000000000
40
1.0000000000
10
-22.8187424523
20
-13.8524652534
30
0.0000000000
10
-22.8321027423
20
-13.8645726960
30
0.0000000000
10
-22.8929278204
20
-13.9124971332
30
0.0000000000
10
-23.0226338237
20
-13.9708379449
30
0.0000000000
10
-23.1454099562
20
-13.9882134613
30
0.0000000000
10
-23.2089716457
20
-13.9889772023
30
0.0000000000
11
-22.8187424523
21
-13.8524652534
31
0.0000000000
11
-22.8610711289
21
-13.8860892605
31
0.0000000000
11
-23.0203245011
21
-13.9610791769
31
0.0000000000
11
-23.2089716457
21
-13.9889772023
31
0.0000000000
0
SPLINE
5
53B
100
AcDbEntity
8
0
100
AcDbSpline
62
9
6
CONTINUOUS
70
0
71
3
72
10
73
6
74
4
42
0.0000001000
43
0.0000001000
44
0.0000000001
12
0.0016099428
22
-0.1869472130
32
0.0000000000
13
-0.1869534959
23
-0.0004926854
33
0.0000000000
40
0.0000000000
40
0.0000000000
40
0.0000000000
40
0.0000000000
40
0.5416924424
40
0.8831589242
40
1.0000000000
40
1.0000000000
40
1.0000000000
40
1.0000000000
10
-23.2089718277
20
-13.9889700242
30
0.0000000000
10
-23.2086811298
20
-14.0227259883
30
0.0000000000
10
-23.2022408574
20
-14.0842780297
30
0.0000000000
10
-23.2175416613
20
-14.1299148012
30
0.0000000000
10
-23.2016908704
20
-14.1758919162
30
0.0000000000
10
-23.2089721529
20
-14.1759111049
30
0.0000000000
11
-23.2089718277
21
-13.9889700242
31
0.0000000000
11
-23.2082873397
21
-14.0902393584
31
0.0000000000
11
-23.2082868938
21
-14.1540779326
31
0.0000000000
11
-23.2089721529
21
-14.1759111049
31
0.0000000000
0
SPLINE
5
53C
100
AcDbEntity
8
0
100
AcDbSpline
62
9
6
CONTINUOUS
70
0
71
3
72
11
73
7
74
5
42
0.0000001000
43
0.0000001000
44
0.0000000001
12
-0.0000000004
22
-0.6334871461
32
0.0000000000
13
-0.6334495985
23
-0.0068971257
33
0.0000000000
40
0.0000000000
40
0.0000000000
40
0.0000000000
40
0.0000000000
40
0.1954686554
40
0.4262261650
40
0.6995484654
40
1.0000000000
40
1.0000000000
40
1.0000000000
40
1.0000000000
10
-22.7176978489
20
-11.8925975116
30
0.0000000000
10
-22.7176978489
20
-11.9338731385
30
0.0000000000
10
-22.7495209509
20
-12.0245713918
30
0.0000000000
10
-22.8645040114
20
-12.1237441370
30
0.0000000000
10
-23.0238930573
20
-12.1882642206
30
0.0000000000
10
-23.1455313444
20
-12.2037516277
30
0.0000000000
10
-23.2089716457
20
-12.2044423784
30
0.0000000000
11
-22.7176978489
21
-11.8925975116
31
0.0000000000
11
-22.7549275870
21
-12.0106951109
31
0.0000000000
11
-22.8610726022
21
-12.1112057490
31
0.0000000000
11
-23.0203259020
21
-12.1791614746
31
0.0000000000
11
-23.2089716457
21
-12.2044423784
31
0.0000000000
0
SPLINE
5
53D
100
AcDbEntity
8
0
100
AcDbSpline
62
9
6
CONTINUOUS
70
0
71
3
72
12
73
8
74
6
42
0.0000001000
43
0.0000001000
44
0.0000000001
12
0.4999839784
22
-0.0087272528
32
0.0000000000
13
-0.0087245954
23
-0.4999840248
33
0.0000000000
40
0.0000000000
40
0.0000000000
40
0.0000000000
40
0.0000000000
40
0.0495138601
40
0.1924050561
40
0.4144910785
40
0.6941018443
40
1.0000000000
40
1.0000000000
40
1.0000000000
40
1.0000000000
10
-23.2089716457
20
14.2316359290
30
0.0000000000
10
-23.2007196001
20
14.2314918890
30
0.0000000000
10
-23.2150935633
20
14.1803651822
30
0.0000000000
10
-23.1998767578
20
14.1288699280
30
0.0000000000
10
-23.2075876746
20
14.0122336323
30
0.0000000000
10
-23.2058817575
20
13.8811957383
30
0.0000000000
10
-23.2080820331
20
13.7826934784
30
0.0000000000
10
-23.2089716457
20
13.7317120814
30
0.0000000000
11
-23.2089716457
21
14.2316359290
31
0.0000000000
11
-23.2066979459
21
14.2069806390
31
0.0000000000
11
-23.2055071581
21
14.1355363705
31
0.0000000000
11
-23.2055158182
21
14.0244800034
31
0.0000000000
11
-23.2067211288
21
13.8846629998
31
0.0000000000
11
-23.2089716457
21
13.7317120814
31
0.0000000000
0
SPLINE
5
53E
100
AcDbEntity
8
0
100
AcDbSpline
62
9
6
CONTINUOUS
70
0
71
3
72
10
73
6
74
4
42
0.0000001000
43
0.0000001000
44
0.0000000001
12
0.1857034163
22
0.0032340081
32
0.0000000000
13
-0.0019175554
23
0.1857216752
33
0.0000000000
40
0.0000000000
40
0.0000000000
40
0.0000000000
40
0.0000000000
40
0.1168063832
40
0.4583262497
40
1.0000000000
40
1.0000000000
40
1.0000000000
40
1.0000000000
10
-33.6349225672
20
-14.3579257171
30
0.0000000000
10
-33.6276921190
20
-14.3577997995
30
0.0000000000
10
-33.6431150992
20
-14.3123904436
30
0.0000000000
10
-33.6281982430
20
-14.2667975336
30
0.0000000000
10
-33.6345763348
20
-14.2057462773
30
0.0000000000
10
-33.6349225646
20
-14.1722127585
30
0.0000000000
11
-33.6349225672
21
-14.3579257171
31
0.0000000000
11
-33.6341075555
21
-14.3362463980
31
0.0000000000
11
-33.6341075491
21
-14.2728153756
31
0.0000000000
11
-33.6349225646
21
-14.1722127585
31
0.0000000000
0
SPLINE
5
53F
100
AcDbEntity
8
0
100
AcDbSpline
62
9
6
CONTINUOUS
70
0
71
3
72
15
73
11
74
9
42
0.0000001000
43
0.0000001000
44
0.0000000001
12
-0.9346982672
22
-0.0649450851
32
0.0000000000
13
-0.6547746644
23
-0.6690103759
33
0.0000000000
40
0.0000000000
40
0.0000000000
40
0.0000000000
40
0.0000000000
40
0.1322302430
40
0.3122176350
40
0.4686401731
40
0.6045076886
40
0.7229610624
40
0.8267077957
40
0.9182711412
40
1.0000000000
40
1.0000000000
40
1.0000000000
40
1.0000000000
10
-33.7006166971
20
-14.1750719592
30
0.0000000000
10
-33.7418151567
20
-14.1779345273
30
0.0000000000
10
-33.8388198903
20
-14.1894307320
30
0.0000000000
10
-33.9814946027
20
-14.2232637811
30
0.0000000000
10
-34.1199306984
20
-14.2747361953
30
0.0000000000
10
-34.2348137004
20
-14.3320234161
30
0.0000000000
10
-34.3299023893
20
-14.3909501375
30
0.0000000000
10
-34.4087996549
20
-14.4490767312
30
0.0000000000
10
-34.4746791239
20
-14.5051410714
30
0.0000000000
10
-34.5136352573
20
-14.5426939110
30
0.0000000000
10
-34.5314732526
20
-14.5609197292
30
0.0000000000
11
-33.7006166971
21
-14.1750719592
31
0.0000000000
11
-33.8236318251
21
-14.1896532194
31
0.0000000000
11
-33.9875787382
21
-14.2285081563
31
0.0000000000
11
-34.1248317004
21
-14.2795283286
31
0.0000000000
11
-34.2386583892
21
-14.3362738529
31
0.0000000000
11
-34.3329171419
21
-14.3946767314
31
0.0000000000
11
-34.4111106516
21
-14.4522769058
31
0.0000000000
11
-34.4763888943
21
-14.5078246804
31
0.0000000000
11
-34.5314732526
21
-14.5609197292
31
0.0000000000
0
SPLINE
5
540
100
AcDbEntity
8
0
100
AcDbSpline
62
9
6
CONTINUOUS
70
0
71
3
72
9
73
5
74
3
42
0.0000001000
43
0.0000001000
44
0.0000000001
12
-1.3807830375
22
-1.4108205674
32
0.0000000000
13
-1.3808089463
23
-1.4107952098
33
0.0000000000
40
0.0000000000
40
0.0000000000
40
0.0000000000
40
0.0000000000
40
0.5273675957
40
1.0000000000
40
1.0000000000
40
1.0000000000
40
1.0000000000
10
-34.5314732526
20
-14.5609197292
30
0.0000000000
10
-34.7741999962
20
-14.8089267461
30
0.0000000000
10
-35.2344631965
20
-15.2791981273
30
0.0000000000
10
-35.6947312681
20
-15.7494647409
30
0.0000000000
10
-35.9122696188
20
-15.9717272516
30
0.0000000000
11
-34.5314732526
21
-14.5609197292
31
0.0000000000
11
-35.2596571456
21
-15.3049371954
31
0.0000000000
11
-35.9122696188
21
-15.9717272516
31
0.0000000000
0
SPLINE
5
541
100
AcDbEntity
8
0
100
AcDbSpline
62
9
6
CONTINUOUS
70
0
71
3
72
12
73
8
74
6
42
0.0000001000
43
0.0000001000
44
0.0000000001
12
0.4999842083
22
-0.0087272568
32
0.0000000000
13
-0.0087245995
23
-0.4999842547
33
0.0000000000
40
0.0000000000
40
0.0000000000
40
0.0000000000
40
0.0000000000
40
0.0492148676
40
0.1912677328
40
0.4124302269
40
0.6910919715
40
1.0000000000
40
1.0000000000
40
1.0000000000
40
1.0000000000
10
-31.6264240521
20
14.3785631073
30
0.0000000000
10
-31.6182218333
20
14.3784199370
30
0.0000000000
10
-31.6324913115
20
14.3275980382
30
0.0000000000
10
-31.6173584144
20
14.2763531011
30
0.0000000000
10
-31.6250263036
20
14.1602041628
30
0.0000000000
10
-31.6233147736
20
14.0289783897
30
0.0000000000
10
-31.6255256859
20
13.9301223098
30
0.0000000000
10
-31.6264240521
20
13.8786392597
30
0.0000000000
11
-31.6264240521
21
14.3785631073
31
0.0000000000
11
-31.6241557602
21
14.3540574573
31
0.0000000000
11
-31.6229632722
21
14.2830324590
31
0.0000000000
11
-31.6229632721
21
14.1724378604
31
0.0000000000
11
-31.6241557602
21
14.0330952679
31
0.0000000000
11
-31.6264240521
21
13.8786392597
31
0.0000000000
0
SPLINE
5
542
100
AcDbEntity
8
0
100
AcDbSpline
62
9
6
CONTINUOUS
70
0
71
3
72
10
73
6
74
4
42
0.0000001000
43
0.0000001000
44
0.0000000001
12
-3.9999999803
22
0.0702534154
32
0.0000000000
13
-4.0000000196
23
0.0702511788
33
0.0000000000
40
0.0000000000
40
0.0000000000
40
0.0000000000
40
0.0000000000
40
0.3334720350
40
0.6668053684
40
1.0000000000
40
1.0000000000
40
1.0000000000
40
1.0000000000
10
-39.8176978489
20
28.3002456851
30
0.0000000000
10
-40.2623272267
20
28.3080548682
30
0.0000000000
10
-41.1514010483
20
28.3236699032
30
0.0000000000
10
-42.4847343816
20
28.3470873347
30
0.0000000000
10
-43.3734383379
20
28.3626955422
30
0.0000000000
10
-43.8176978489
20
28.3704979808
30
0.0000000000
11
-39.8176978489
21
28.3002456851
31
0.0000000000
11
-41.1515859846
21
28.3236731098
31
0.0000000000
11
-42.4849193180
21
28.3470905413
31
0.0000000000
11
-43.8176978489
21
28.3704979808
31
0.0000000000
0
SPLINE
5
543
100
AcDbEntity
8
0
100
AcDbSpline
62
9
6
CONTINUOUS
70
0
71
3
72
10
73
6
74
4
42
0.0000001000
43
0.0000001000
44
0.0000000001
12
0.1523042534
22
0.0026584806
32
0.0000000000
13
0.0087873243
23
-0.1520737849
33
0.0000000000
40
0.0000000000
40
0.0000000000
40
0.0000000000
40
0.0000000000
40
0.1210065469
40
0.4613293509
40
1.0000000000
40
1.0000000000
40
1.0000000000
40
1.0000000000
10
-33.6631282518
20
24.6143869949
30
0.0000000000
10
-33.6569849812
20
24.6144942261
30
0.0000000000
10
-33.6585848053
20
24.5785121838
30
0.0000000000
10
-33.6480789910
20
24.5400649977
30
0.0000000000
10
-33.6472536708
20
24.4908294009
30
0.0000000000
10
-33.6456758462
20
24.4635235061
30
0.0000000000
11
-33.6631282518
21
24.6143869949
31
0.0000000000
11
-33.6573807239
21
24.5968733610
31
0.0000000000
11
-33.6514233657
21
24.5453762935
31
0.0000000000
11
-33.6456758462
21
24.4635235061
31
0.0000000000
0
SPLINE
5
544
100
AcDbEntity
8
0
100
AcDbSpline
62
9
6
CONTINUOUS
70
0
71
3
72
10
73
6
74
4
42
0.0000001000
43
0.0000001000
44
0.0000000001
12
-0.2575826679
22
0.2575826754
32
0.0000000000
13
-0.3278436204
23
-0.1587961776
33
0.0000000000
40
0.0000000000
40
0.0000000000
40
0.0000000000
40
0.0000000000
40
0.2768405022
40
0.6051002265
40
1.0000000000
40
1.0000000000
40
1.0000000000
40
1.0000000000
10
-34.3876874378
20
24.9071279058
30
0.0000000000
10
-34.4114572095
20
24.9308976782
30
0.0000000000
10
-34.4813270996
20
24.9656873908
30
0.0000000000
10
-34.6056385035
20
24.9612240296
30
0.0000000000
10
-34.6893594981
20
24.9313244483
30
0.0000000000
10
-34.7325146219
20
24.9104215901
30
0.0000000000
11
-34.3876874378
21
24.9071279058
31
0.0000000000
11
-34.4765098588
21
24.9548836874
31
0.0000000000
11
-34.5960818416
21
24.9560258026
31
0.0000000000
11
-34.7325146219
21
24.9104215901
31
0.0000000000
0
SPLINE
5
545
100
AcDbEntity
8
0
100
AcDbSpline
62
9
6
CONTINUOUS
70
0
71
3
72
13
73
9
74
7
42
0.0000001000
43
0.0000001000
44
0.0000000001
12
0.7575434056
22
-0.5217894848
32
0.0000000000
13
0.9194506690
23
0.0169093800
33
0.0000000000
40
0.0000000000
40
0.0000000000
40
0.0000000000
40
0.0000000000
40
0.0208971058
40
0.1648849739
40
0.3314376584
40
0.5248724255
40
0.7490745710
40
1.0000000000
40
1.0000000000
40
1.0000000000
40
1.0000000000
10
-34.5124574822
20
24.7254779670
30
0.0000000000
10
-34.5071806607
20
24.7218433370
30
0.0000000000
10
-34.4653605602
20
24.6934318711
30
0.0000000000
10
-34.3784261272
20
24.6405975052
30
0.0000000000
10
-34.2390961972
20
24.5732417461
30
0.0000000000
10
-34.0697802260
20
24.5135901534
30
0.0000000000
10
-33.8686739616
20
24.4710339377
30
0.0000000000
10
-33.7225803584
20
24.4621091750
30
0.0000000000
10
-33.6456758405
20
24.4635235062
30
0.0000000000
11
-34.5124574822
21
24.7254779670
31
0.0000000000
11
-34.4965573690
21
24.7146759099
31
0.0000000000
11
-34.3833989499
21
24.6459144100
31
0.0000000000
11
-34.2454979053
21
24.5792648246
31
0.0000000000
11
-34.0777144073
21
24.5201772270
31
0.0000000000
11
-33.8760058390
21
24.4774819666
31
0.0000000000
11
-33.6456758405
21
24.4635235062
31
0.0000000000
0
SPLINE
5
546
100
AcDbEntity
8
0
100
AcDbSpline
62
7
6
CONTINUOUS
70
0
71
3
72
10
73
6
74
4
42
0.0000001000
43
0.0000001000
44
0.0000000001
12
-4.0000360299
22
-0.0287443498
32
0.0000000000
13
-3.9999639243
23
-0.0374577365
33
0.0000000000
40
0.0000000000
40
0.0000000000
40
0.0000000000
40
0.0000000000
40
0.3303029973
40
0.6636439357
40
1.0000000000
40
1.0000000000
40
1.0000000000
40
1.0000000000
10
-39.8176978489
20
-17.5927282794
30
0.0000000000
10
-40.2581058122
20
-17.5958930610
30
0.0000000000
10
-41.1429697600
20
-17.6026188223
30
0.0000000000
10
-42.4763031366
20
-17.6137538090
30
0.0000000000
10
-43.3692271413
20
-17.6218285864
30
0.0000000000
10
-43.8176978489
20
-17.6260282987
30
0.0000000000
11
-39.8176978489
21
-17.5927282794
31
0.0000000000
11
-41.1389178249
21
-17.6027524942
31
0.0000000000
11
-42.4722816403
21
-17.6138732758
31
0.0000000000
11
-43.8176978489
21
-17.6260282987
31
0.0000000000
0
SPLINE
5
547
100
AcDbEntity
8
0
100
AcDbSpline
62
7
6
CONTINUOUS
70
0
71
3
72
10
73
6
74
4
42
0.0000001000
43
0.0000001000
44
0.0000000001
12
-4.0000360299
22
0.0287443498
32
0.0000000000
13
-3.9999639243
23
0.0374577365
33
0.0000000000
40
0.0000000000
40
0.0000000000
40
0.0000000000
40
0.0000000000
40
0.3303029973
40
0.6636439357
40
1.0000000000
40
1.0000000000
40
1.0000000000
40
1.0000000000
10
-39.8176978489
20
27.6670049259
30
0.0000000000
10
-40.2581058122
20
27.6701697076
30
0.0000000000
10
-41.1429697600
20
27.6768954689
30
0.0000000000
10
-42.4763031366
20
27.6880304555
30
0.0000000000
10
-43.3692271413
20
27.6961052330
30
0.0000000000
10
-43.8176978489
20
27.7003049452
30
0.0000000000
11
-39.8176978489
21
27.6670049259
31
0.0000000000
11
-41.1389178249
21
27.6770291408
31
0.0000000000
11
-42.4722816403
21
27.6881499223
31
0.0000000000
11
-43.8176978489
21
27.7003049452
31
0.0000000000
0
SPLINE
5
548
100
AcDbEntity
8
0
100
AcDbSpline
62
9
6
CONTINUOUS
70
0
71
3
72
9
73
5
74
3
42
0.0000001000
43
0.0000001000
44
0.0000000001
12
3.7743450942
22
-0.0661761131
32
0.0000000000
13
3.7743450692
23
-0.0661775335
33
0.0000000000
40
0.0000000000
40
0.0000000000
40
0.0000000000
40
0.0000000000
40
0.4998524914
40
1.0000000000
40
1.0000000000
40
1.0000000000
40
1.0000000000
10
-39.6211882950
20
26.1110335464
30
0.0000000000
10
-38.9923163621
20
26.1000074480
30
0.0000000000
10
-37.7342013326
20
26.0779486315
30
0.0000000000
10
-36.4760863078
20
26.0558895551
30
0.0000000000
10
-35.8468432135
20
26.0448567123
30
0.0000000000
11
-39.6211882950
21
26.1110335464
31
0.0000000000
11
-37.7345724993
21
26.0779550743
31
0.0000000000
11
-35.8468432135
21
26.0448567123
31
0.0000000000
0
SPLINE
5
549
100
AcDbEntity
8
0
100
AcDbSpline
62
7
6
CONTINUOUS
70
0
71
3
72
10
73
6
74
4
42
0.0000001000
43
0.0000001000
44
0.0000000001
12
-3.9999099472
22
-0.0844306542
32
0.0000000000
13
-4.0000789575
23
-0.0760029924
33
0.0000000000
40
0.0000000000
40
0.0000000000
40
0.0000000000
40
0.0000000000
40
0.3303097417
40
0.6636505372
40
1.0000000000
40
1.0000000000
40
1.0000000000
40
1.0000000000
10
-39.8176978489
20
-18.0627521515
30
0.0000000000
10
-40.2581009228
20
-18.0720482407
30
0.0000000000
10
-41.1429559438
20
-18.0903691217
30
0.0000000000
10
-42.4762902949
20
-18.1170065819
30
0.0000000000
10
-43.3692230460
20
-18.1342490499
30
0.0000000000
10
-43.8176978489
20
-18.1427702385
30
0.0000000000
11
-39.8176978489
21
-18.0627521515
31
0.0000000000
11
-41.1389178249
21
-18.0901261816
31
0.0000000000
11
-42.4722816403
21
-18.1167786804
31
0.0000000000
11
-43.8176978489
21
-18.1427702385
31
0.0000000000
0
SPLINE
5
54A
100
AcDbEntity
8
0
100
AcDbSpline
62
9
6
CONTINUOUS
70
0
71
3
72
12
73
8
74
6
42
0.0000001000
43
0.0000001000
44
0.0000000001
12
0.4999839784
22
-0.0087272528
32
0.0000000000
13
-0.0087245954
23
-0.4999840248
33
0.0000000000
40
0.0000000000
40
0.0000000000
40
0.0000000000
40
0.0000000000
40
0.0495138601
40
0.1924050561
40
0.4144910785
40
0.6941018443
40
1.0000000000
40
1.0000000000
40
1.0000000000
40
1.0000000000
10
-23.2089716457
20
14.2316359290
30
0.0000000000
10
-23.2007196001
20
14.2314918890
30
0.0000000000
10
-23.2150935633
20
14.1803651822
30
0.0000000000
10
-23.1998767578
20
14.1288699280
30
0.0000000000
10
-23.2075876746
20
14.0122336323
30
0.0000000000
10
-23.2058817575
20
13.8811957383
30
0.0000000000
10
-23.2080820331
20
13.7826934784
30
0.0000000000
10
-23.2089716457
20
13.7317120814
30
0.0000000000
11
-23.2089716457
21
14.2316359290
31
0.0000000000
11
-23.2066979459
21
14.2069806390
31
0.0000000000
11
-23.2055071581
21
14.1355363705
31
0.0000000000
11
-23.2055158182
21
14.0244800034
31
0.0000000000
11
-23.2067211288
21
13.8846629998
31
0.0000000000
11
-23.2089716457
21
13.7317120814
31
0.0000000000
0
SPLINE
5
54B
100
AcDbEntity
8
0
100
AcDbSpline
62
9
6
CONTINUOUS
70
0
71
3
72
9
73
5
74
3
42
0.0000001000
43
0.0000001000
44
0.0000000001
12
20.6087286044
22
0.1174283934
32
0.0000000000
13
20.6087237773
23
0.1182725166
33
0.0000000000
40
0.0000000000
40
0.0000000000
40
0.0000000000
40
0.0000000000
40
0.4991766728
40
1.0000000000
40
1.0000000000
40
1.0000000000
40
1.0000000000
10
-43.8176978489
20
-12.3222912459
30
0.0000000000
10
-40.3885656571
20
-12.3027520743
30
0.0000000000
10
-33.5189898511
20
-12.2635398388
30
0.0000000000
10
-26.6494148496
20
-12.2241869235
30
0.0000000000
10
-23.2089716457
20
-12.2044423784
30
0.0000000000
11
-43.8176978489
21
-12.3222912459
31
0.0000000000
11
-33.5303018688
21
-12.2635693536
31
0.0000000000
11
-23.2089716457
21
-12.2044423784
31
0.0000000000
0
SPLINE
5
54C
100
AcDbEntity
8
0
100
AcDbSpline
62
9
6
CONTINUOUS
70
0
71
3
72
9
73
5
74
3
42
0.0000001000
43
0.0000001000
44
0.0000000001
12
20.6087291708
22
0.1249697361
32
0.0000000000
13
20.6087232035
23
0.1259499577
33
0.0000000000
40
0.0000000000
40
0.0000000000
40
0.0000000000
40
0.0000000000
40
0.4991766659
40
1.0000000000
40
1.0000000000
40
1.0000000000
40
1.0000000000
10
-43.8176978489
20
-11.0825208427
30
0.0000000000
10
-40.3885656101
20
-11.0617268507
30
0.0000000000
10
-33.5189897083
20
-11.0199896738
30
0.0000000000
10
-26.6494148010
20
-10.9780891369
30
0.0000000000
10
-23.2089716457
20
-10.9570629110
30
0.0000000000
11
-43.8176978489
21
-11.0825208427
31
0.0000000000
11
-33.5303018680
21
-11.0200176955
31
0.0000000000
11
-23.2089716457
21
-10.9570629110
31
0.0000000000
0
SPLINE
5
54D
100
AcDbEntity
8
0
100
AcDbSpline
62
9
6
CONTINUOUS
70
0
71
3
72
9
73
5
74
3
42
0.0000001000
43
0.0000001000
44
0.0000000001
12
11.2087270770
22
-0.0679688521
32
0.0000000000
13
11.2087253244
23
-0.0682572588
33
0.0000000000
40
0.0000000000
40
0.0000000000
40
0.0000000000
40
0.0000000000
40
0.4995508636
40
1.0000000000
40
1.0000000000
40
1.0000000000
40
1.0000000000
10
-43.8176978489
20
21.1567974893
30
0.0000000000
10
-41.9512547519
20
21.1454795230
30
0.0000000000
10
-38.2150125375
20
21.1227993800
30
0.0000000000
10
-34.4787706153
20
21.1000711686
30
0.0000000000
10
-32.6089716457
20
21.0886847398
30
0.0000000000
11
-43.8176978489
21
21.1567974893
31
0.0000000000
11
-38.2183687751
21
21.1228077575
31
0.0000000000
11
-32.6089716457
21
21.0886847398
31
0.0000000000
0
SPLINE
5
54E
100
AcDbEntity
8
0
100
AcDbSpline
62
9
6
CONTINUOUS
70
0
71
3
72
9
73
5
74
3
42
0.0000001000
43
0.0000001000
44
0.0000000001
12
11.2087269104
22
-0.0638672486
32
0.0000000000
13
11.2087254922
23
-0.0641156626
33
0.0000000000
40
0.0000000000
40
0.0000000000
40
0.0000000000
40
0.0000000000
40
0.4995508638
40
1.0000000000
40
1.0000000000
40
1.0000000000
40
1.0000000000
10
-43.8176978489
20
22.3965678924
30
0.0000000000
10
-41.9512547787
20
22.3859329127
30
0.0000000000
10
-38.2150125924
20
22.3646232742
30
0.0000000000
10
-34.4787706424
20
22.3432722340
30
0.0000000000
10
-32.6089716457
20
22.3325766913
30
0.0000000000
11
-43.8176978489
21
22.3965678924
31
0.0000000000
11
-38.2183688143
21
22.3646320842
31
0.0000000000
11
-32.6089716457
21
22.3325766913
31
0.0000000000
0
SPLINE
5
54F
100
AcDbEntity
8
0
100
AcDbSpline
62
9
6
CONTINUOUS
70
0
71
3
72
12
73
8
74
6
42
0.0000001000
43
0.0000001000
44
0.0000000001
12
0.4999842083
22
-0.0087272568
32
0.0000000000
13
-0.0087245995
23
-0.4999842547
33
0.0000000000
40
0.0000000000
40
0.0000000000
40
0.0000000000
40
0.0000000000
40
0.0492148676
40
0.1912677328
40
0.4124302269
40
0.6910919715
40
1.0000000000
40
1.0000000000
40
1.0000000000
40
1.0000000000
10
-31.6264240521
20
14.3785631073
30
0.0000000000
10
-31.6182218333
20
14.3784199370
30
0.0000000000
10
-31.6324913115
20
14.3275980382
30
0.0000000000
10
-31.6173584144
20
14.2763531011
30
0.0000000000
10
-31.6250263036
20
14.1602041628
30
0.0000000000
10
-31.6233147736
20
14.0289783897
30
0.0000000000
10
-31.6255256859
20
13.9301223098
30
0.0000000000
10
-31.6264240521
20
13.8786392597
30
0.0000000000
11
-31.6264240521
21
14.3785631073
31
0.0000000000
11
-31.6241557602
21
14.3540574573
31
0.0000000000
11
-31.6229632722
21
14.2830324590
31
0.0000000000
11
-31.6229632721
21
14.1724378604
31
0.0000000000
11
-31.6241557602
21
14.0330952679
31
0.0000000000
11
-31.6264240521
21
13.8786392597
31
0.0000000000
0
SPLINE
5
550
100
AcDbEntity
8
0
100
AcDbSpline
62
9
6
CONTINUOUS
70
0
71
3
72
10
73
6
74
4
42
0.0000001000
43
0.0000001000
44
0.0000000001
12
0.1523042534
22
0.0026584806
32
0.0000000000
13
0.0087873243
23
-0.1520737849
33
0.0000000000
40
0.0000000000
40
0.0000000000
40
0.0000000000
40
0.0000000000
40
0.1210065469
40
0.4613293509
40
1.0000000000
40
1.0000000000
40
1.0000000000
40
1.0000000000
10
-33.6631282518
20
24.6143869949
30
0.0000000000
10
-33.6569849812
20
24.6144942261
30
0.0000000000
10
-33.6585848053
20
24.5785121838
30
0.0000000000
10
-33.6480789910
20
24.5400649977
30
0.0000000000
10
-33.6472536708
20
24.4908294009
30
0.0000000000
10
-33.6456758462
20
24.4635235061
30
0.0000000000
11
-33.6631282518
21
24.6143869949
31
0.0000000000
11
-33.6573807239
21
24.5968733610
31
0.0000000000
11
-33.6514233657
21
24.5453762935
31
0.0000000000
11
-33.6456758462
21
24.4635235061
31
0.0000000000
0
SPLINE
5
551
100
AcDbEntity
8
0
100
AcDbSpline
62
9
6
CONTINUOUS
70
0
71
3
72
9
73
5
74
3
42
0.0000001000
43
0.0000001000
44
0.0000000001
12
1.0367042015
22
0.0186580224
32
0.0000000000
13
1.0367041881
23
0.0186587677
33
0.0000000000
40
0.0000000000
40
0.0000000000
40
0.0000000000
40
0.0000000000
40
0.4999597940
40
1.0000000000
40
1.0000000000
40
1.0000000000
40
1.0000000000
10
-33.6456758405
20
24.4635235062
30
0.0000000000
10
-33.4729057009
20
24.4666329265
30
0.0000000000
10
-33.1273376348
20
24.4728523301
30
0.0000000000
10
-32.7817695710
20
24.4790718550
30
0.0000000000
10
-32.6089716457
20
24.4821818997
30
0.0000000000
11
-33.6456758405
21
24.4635235062
31
0.0000000000
11
-33.1273654232
21
24.4728518603
31
0.0000000000
11
-32.6089716457
21
24.4821818997
31
0.0000000000
0
SPLINE
5
552
100
AcDbEntity
8
0
100
AcDbSpline
62
9
6
CONTINUOUS
70
0
71
3
72
10
73
6
74
4
42
0.0000001000
43
0.0000001000
44
0.0000000001
12
-0.2575826679
22
0.2575826754
32
0.0000000000
13
-0.3278436204
23
-0.1587961776
33
0.0000000000
40
0.0000000000
40
0.0000000000
40
0.0000000000
40
0.0000000000
40
0.2768405022
40
0.6051002265
40
1.0000000000
40
1.0000000000
40
1.0000000000
40
1.0000000000
10
-34.3876874378
20
24.9071279058
30
0.0000000000
10
-34.4114572095
20
24.9308976782
30
0.0000000000
10
-34.4813270996
20
24.9656873908
30
0.0000000000
10
-34.6056385035
20
24.9612240296
30
0.0000000000
10
-34.6893594981
20
24.9313244483
30
0.0000000000
10
-34.7325146219
20
24.9104215901
30
0.0000000000
11
-34.3876874378
21
24.9071279058
31
0.0000000000
11
-34.4765098588
21
24.9548836874
31
0.0000000000
11
-34.5960818416
21
24.9560258026
31
0.0000000000
11
-34.7325146219
21
24.9104215901
31
0.0000000000
0
SPLINE
5
553
100
AcDbEntity
8
0
100
AcDbSpline
62
9
6
CONTINUOUS
70
0
71
3
72
11
73
7
74
5
42
0.0000001000
43
0.0000001000
44
0.0000000001
12
0.2755251967
22
-0.2804979775
32
0.0000000000
13
0.3388171773
23
-0.1997528128
33
0.0000000000
40
0.0000000000
40
0.0000000000
40
0.0000000000
40
0.0000000000
40
0.2302995122
40
0.4879769255
40
0.7809403734
40
1.0000000000
40
1.0000000000
40
1.0000000000
40
1.0000000000
10
-34.7325146220
20
24.9104215870
30
0.0000000000
10
-34.7113635159
20
24.8888887378
30
0.0000000000
10
-34.6651706392
20
24.8445929998
30
0.0000000000
10
-34.5868861159
20
24.7785440453
30
0.0000000000
10
-34.5052227197
20
24.7191509999
30
0.0000000000
10
-34.4483802984
20
24.6833911802
30
0.0000000000
10
-34.4236399103
20
24.6688052547
30
0.0000000000
11
-34.7325146220
21
24.9104215870
31
0.0000000000
11
-34.6671555927
21
24.8477518716
31
0.0000000000
11
-34.5897174714
21
24.7824222020
31
0.0000000000
11
-34.4965573690
21
24.7146759099
31
0.0000000000
11
-34.4236399103
21
24.6688052547
31
0.0000000000
0
SPLINE
5
554
100
AcDbEntity
8
0
100
AcDbSpline
62
9
6
CONTINUOUS
70
0
71
3
72
8
73
4
74
2
42
0.0000001000
43
0.0000001000
44
0.0000000001
12
0.1810436878
22
-0.1843081655
32
0.0000000000
13
0.1810433880
23
-0.1843084600
33
0.0000000000
40
0.0000000000
40
0.0000000000
40
0.0000000000
40
0.0000000000
40
1.0000000000
40
1.0000000000
40
1.0000000000
40
1.0000000000
10
-35.8468432135
20
26.0448567123
30
0.0000000000
10
-35.7864953176
20
25.9834206571
30
0.0000000000
10
-35.7261474672
20
25.9219845572
30
0.0000000000
10
-35.6657996712
20
25.8605484038
30
0.0000000000
11
-35.8468432135
21
26.0448567123
31
0.0000000000
11
-35.6657996712
21
25.8605484038
31
0.0000000000
0
SPLINE
5
555
100
AcDbEntity
8
0
100
AcDbSpline
62
9
6
CONTINUOUS
70
0
71
3
72
9
73
5
74
3
42
0.0000001000
43
0.0000001000
44
0.0000000001
12
0.9332901515
22
-0.9501218050
32
0.0000000000
13
0.9332799638
23
-0.9501318122
33
0.0000000000
40
0.0000000000
40
0.0000000000
40
0.0000000000
40
0.0000000000
40
0.3773621792
40
1.0000000000
40
1.0000000000
40
1.0000000000
40
1.0000000000
10
-35.6657996712
20
25.8605484038
30
0.0000000000
10
-35.5484035361
20
25.7410350589
30
0.0000000000
10
-35.2373073640
20
25.4243272551
30
0.0000000000
10
-34.9262130896
20
25.1076175873
30
0.0000000000
10
-34.7325146220
20
24.9104215870
30
0.0000000000
11
-35.6657996712
21
25.8605484038
31
0.0000000000
11
-35.3136119474
21
25.5020076995
31
0.0000000000
11
-34.7325146220
21
24.9104215870
31
0.0000000000
0
SPLINE
5
556
100
AcDbEntity
8
0
100
AcDbSpline
62
7
6
CONTINUOUS
70
0
71
3
72
10
73
6
74
4
42
0.0000001000
43
0.0000001000
44
0.0000000001
12
-3.9999099472
22
0.0844306542
32
0.0000000000
13
-4.0000789575
23
0.0760029924
33
0.0000000000
40
0.0000000000
40
0.0000000000
40
0.0000000000
40
0.0000000000
40
0.3303097417
40
0.6636505372
40
1.0000000000
40
1.0000000000
40
1.0000000000
40
1.0000000000
10
-39.8176978489
20
28.1370287981
30
0.0000000000
10
-40.2581009228
20
28.1463248873
30
0.0000000000
10
-41.1429559438
20
28.1646457683
30
0.0000000000
10
-42.4762902949
20
28.1912832285
30
0.0000000000
10
-43.3692230460
20
28.2085256965
30
0.0000000000
10
-43.8176978489
20
28.2170468850
30
0.0000000000
11
-39.8176978489
21
28.1370287981
31
0.0000000000
11
-41.1389178249
21
28.1644028281
31
0.0000000000
11
-42.4722816403
21
28.1910553270
31
0.0000000000
11
-43.8176978489
21
28.2170468850
31
0.0000000000
0
SPLINE
5
557
100
AcDbEntity
8
0
100
AcDbSpline
62
7
6
CONTINUOUS
70
0
71
3
72
8
73
4
74
2
42
0.0000001000
43
0.0000001000
44
0.0000000001
12
0.0044449008
22
0.0233363178
32
0.0000000000
13
0.0068015019
23
0.0228100191
33
0.0000000000
40
0.0000000000
40
0.0000000000
40
0.0000000000
40
0.0000000000
40
1.0000000000
40
1.0000000000
40
1.0000000000
40
1.0000000000
10
-39.8141655640
20
-16.3219787174
30
0.0000000000
10
-39.8126839304
20
-16.3141999448
30
0.0000000000
10
-39.8107750358
20
-16.3064991690
30
0.0000000000
10
-39.8085078686
20
-16.2988958293
30
0.0000000000
11
-39.8141655640
21
-16.3219787174
31
0.0000000000
11
-39.8085078686
21
-16.2988958293
31
0.0000000000
0
SPLINE
5
558
100
AcDbEntity
8
0
100
AcDbSpline
62
7
6
CONTINUOUS
70
0
71
3
72
8
73
4
74
2
42
0.0000001000
43
0.0000001000
44
0.0000000001
12
0.0039574156
22
0.0132718814
32
0.0000000000
13
0.0046443919
23
0.0130624760
33
0.0000000000
40
0.0000000000
40
0.0000000000
40
0.0000000000
40
0.0000000000
40
1.0000000000
40
1.0000000000
40
1.0000000000
40
1.0000000000
10
-39.8085078686
20
-16.2988958293
30
0.0000000000
10
-39.8071887300
20
-16.2944718688
30
0.0000000000
10
-39.8057483008
20
-16.2900808947
30
0.0000000000
10
-39.8042001702
20
-16.2857267360
30
0.0000000000
11
-39.8085078686
21
-16.2988958293
31
0.0000000000
11
-39.8042001702
21
-16.2857267360
31
0.0000000000
0
SPLINE
5
559
100
AcDbEntity
8
0
100
AcDbSpline
62
7
6
CONTINUOUS
70
0
71
3
72
9
73
5
74
3
42
0.0000001000
43
0.0000001000
44
0.0000000001
12
0.0134192595
22
0.0377420252
32
0.0000000000
13
0.0179327112
23
0.0357289999
33
0.0000000000
40
0.0000000000
40
0.0000000000
40
0.0000000000
40
0.0000000000
40
0.4907552772
40
1.0000000000
40
1.0000000000
40
1.0000000000
40
1.0000000000
10
-39.8042001702
20
-16.2857267360
30
0.0000000000
10
-39.8020049794
20
-16.2795527033
30
0.0000000000
10
-39.7970906418
20
-16.2671228607
30
0.0000000000
10
-39.7914380421
20
-16.2550456937
30
0.0000000000
10
-39.7883939959
20
-16.2489807588
30
0.0000000000
11
-39.8042001702
21
-16.2857267360
31
0.0000000000
11
-39.7970037016
21
-16.2674376203
31
0.0000000000
11
-39.7883939959
21
-16.2489807588
31
0.0000000000
0
SPLINE
5
55A
100
AcDbEntity
8
0
100
AcDbSpline
62
7
6
CONTINUOUS
70
0
71
3
72
11
73
7
74
5
42
0.0000001000
43
0.0000001000
44
0.0000000001
12
0.1090518586
22
0.2172741088
32
0.0000000000
13
0.1661271783
23
0.1771638509
33
0.0000000000
40
0.0000000000
40
0.0000000000
40
0.0000000000
40
0.0000000000
40
0.1765735557
40
0.4634488558
40
0.7767418665
40
1.0000000000
40
1.0000000000
40
1.0000000000
40
1.0000000000
10
-39.7883939959
20
-16.2489807588
30
0.0000000000
10
-39.7819754378
20
-16.2361924715
30
0.0000000000
10
-39.7631976199
20
-16.2036227107
30
0.0000000000
10
-39.7260411330
20
-16.1527475147
30
0.0000000000
10
-39.6824028071
20
-16.1023077374
30
0.0000000000
10
-39.6528697165
20
-16.0704545426
30
0.0000000000
10
-39.6405066353
20
-16.0572701191
30
0.0000000000
11
-39.7883939959
21
-16.2489807588
31
0.0000000000
11
-39.7671744118
21
-16.2116958637
31
0.0000000000
11
-39.7265973435
21
-16.1550595402
31
0.0000000000
11
-39.6772569587
21
-16.0971381971
31
0.0000000000
11
-39.6405066353
21
-16.0572701191
31
0.0000000000
0
SPLINE
5
55B
100
AcDbEntity
8
0
100
AcDbSpline
62
7
6
CONTINUOUS
70
0
71
3
72
8
73
4
74
2
42
0.0000001000
43
0.0000001000
44
0.0000000001
12
0.0192742946
22
0.0205547839
32
0.0000000000
13
0.0193461456
23
0.0204865137
33
0.0000000000
40
0.0000000000
40
0.0000000000
40
0.0000000000
40
0.0000000000
40
1.0000000000
40
1.0000000000
40
1.0000000000
40
1.0000000000
10
-39.6405066353
20
-16.0572701191
30
0.0000000000
10
-39.6340818704
20
-16.0504185244
30
0.0000000000
10
-39.6276370114
20
-16.0435857377
30
0.0000000000
10
-39.6211882962
20
-16.0367568998
30
0.0000000000
11
-39.6405066353
21
-16.0572701191
31
0.0000000000
11
-39.6211882962
21
-16.0367568998
31
0.0000000000
0
SPLINE
5
55C
100
AcDbEntity
8
0
100
AcDbSpline
62
9
6
CONTINUOUS
70
0
71
3
72
11
73
7
74
5
42
0.0000001000
43
0.0000001000
44
0.0000000001
12
-0.1226552086
22
-0.0023410373
32
0.0000000000
13
0.0004869789
23
0.1226765809
33
0.0000000000
40
0.0000000000
40
0.0000000000
40
0.0000000000
40
0.0000000000
40
0.1247137414
40
0.3055929599
40
0.5907099952
40
1.0000000000
40
1.0000000000
40
1.0000000000
40
1.0000000000
10
-39.6211883304
20
-16.1594315789
30
0.0000000000
10
-39.6262872604
20
-16.1595288988
30
0.0000000000
10
-39.6181037640
20
-16.1383361062
30
0.0000000000
10
-39.6231072851
20
-16.1194492460
30
0.0000000000
10
-39.6205240877
20
-16.0810117474
30
0.0000000000
10
-39.6212547933
20
-16.0534926455
30
0.0000000000
10
-39.6211883548
20
-16.0367558793
30
0.0000000000
11
-39.6211883304
21
-16.1594315789
31
0.0000000000
11
-39.6214018849
21
-16.1441334935
31
0.0000000000
11
-39.6214224503
21
-16.1219436841
31
0.0000000000
11
-39.6213592335
21
-16.0869662826
31
0.0000000000
11
-39.6211883548
21
-16.0367558793
31
0.0000000000
0
SPLINE
5
55D
100
AcDbEntity
8
0
100
AcDbSpline
62
7
6
CONTINUOUS
70
0
71
3
72
10
73
6
74
4
42
0.0000001000
43
0.0000001000
44
0.0000000001
12
-0.0718704769
22
0.0761115844
32
0.0000000000
13
-0.0689895073
23
0.0787389396
33
0.0000000000
40
0.0000000000
40
0.0000000000
40
0.0000000000
40
0.0000000000
40
0.4326752294
40
0.8590573577
40
1.0000000000
40
1.0000000000
40
1.0000000000
40
1.0000000000
10
-39.6211882950
20
26.1110335464
30
0.0000000000
10
-39.6315538200
20
26.1220107454
30
0.0000000000
10
-39.6521428794
20
26.1437978544
30
0.0000000000
10
-39.6756955090
20
26.1695469237
30
0.0000000000
10
-39.6888168422
20
26.1843716682
30
0.0000000000
10
-39.6920580300
20
26.1880708930
30
0.0000000000
11
-39.6211882950
21
26.1110335464
31
0.0000000000
11
-39.6522033978
21
26.1440418859
31
0.0000000000
11
-39.6822824240
21
26.1770191054
31
0.0000000000
11
-39.6920580300
21
26.1880708930
31
0.0000000000
0
SPLINE
5
55E
100
AcDbEntity
8
0
100
AcDbSpline
62
7
6
CONTINUOUS
70
0
71
3
72
9
73
5
74
3
42
0.0000001000
43
0.0000001000
44
0.0000000001
12
-0.0479398985
22
0.0547146504
32
0.0000000000
13
-0.0438329503
23
0.0580656785
33
0.0000000000
40
0.0000000000
40
0.0000000000
40
0.0000000000
40
0.0000000000
40
0.4029322357
40
1.0000000000
40
1.0000000000
40
1.0000000000
40
1.0000000000
10
-39.6920580300
20
26.1880708930
30
0.0000000000
10
-39.6984968735
20
26.1954196584
30
0.0000000000
10
-39.7142947169
20
26.2138171046
30
0.0000000000
10
-39.7294598949
20
26.2327490498
30
0.0000000000
10
-39.7381836421
20
26.2443054314
30
0.0000000000
11
-39.6920580300
21
26.1880708930
31
0.0000000000
11
-39.7111250782
21
26.2103322850
31
0.0000000000
11
-39.7381836421
21
26.2443054314
31
0.0000000000
0
SPLINE
5
55F
100
AcDbEntity
8
0
100
AcDbSpline
62
7
6
CONTINUOUS
70
0
71
3
72
11
73
7
74
5
42
0.0000001000
43
0.0000001000
44
0.0000000001
12
-0.0857319990
22
0.1135695102
32
0.0000000000
13
-0.0434630397
23
0.1357484233
33
0.0000000000
40
0.0000000000
40
0.0000000000
40
0.0000000000
40
0.0000000000
40
0.3010672295
40
0.5998171620
40
0.8995037888
40
1.0000000000
40
1.0000000000
40
1.0000000000
40
1.0000000000
10
-39.7381836421
20
26.2443054314
30
0.0000000000
10
-39.7467873405
20
26.2557027840
30
0.0000000000
10
-39.7632872976
20
26.2788995117
30
0.0000000000
10
-39.7852512173
20
26.3155409506
30
0.0000000000
10
-39.7992198546
20
26.3456797780
30
0.0000000000
10
-39.8055089265
20
26.3636340126
30
0.0000000000
10
-39.8069648834
20
26.3681814133
30
0.0000000000
11
-39.7381836421
21
26.2443054314
31
0.0000000000
11
-39.7628840221
21
26.2793007539
31
0.0000000000
11
-39.7845673291
21
26.3158586512
31
0.0000000000
11
-39.8022424638
21
26.3546604820
31
0.0000000000
11
-39.8069648834
21
26.3681814133
31
0.0000000000
0
SPLINE
5
560
100
AcDbEntity
8
0
100
AcDbSpline
62
7
6
CONTINUOUS
70
0
71
3
72
8
73
4
74
2
42
0.0000001000
43
0.0000001000
44
0.0000000001
12
-0.0088505175
22
0.0276428847
32
0.0000000000
13
-0.0054208616
23
0.0284602578
33
0.0000000000
40
0.0000000000
40
0.0000000000
40
0.0000000000
40
0.0000000000
40
1.0000000000
40
1.0000000000
40
1.0000000000
40
1.0000000000
10
-39.8069648834
20
26.3681814133
30
0.0000000000
10
-39.8099150559
20
26.3773957082
30
0.0000000000
10
-39.8123586102
20
26.3867686114
30
0.0000000000
10
-39.8141655640
20
26.3962553640
30
0.0000000000
11
-39.8069648834
21
26.3681814133
31
0.0000000000
11
-39.8141655640
21
26.3962553640
31
0.0000000000
0
SPLINE
5
561
100
AcDbEntity
8
0
100
AcDbSpline
62
9
6
CONTINUOUS
70
0
71
3
72
11
73
7
74
5
42
0.0000001000
43
0.0000001000
44
0.0000000001
12
-0.0004869966
22
0.1226766136
32
0.0000000000
13
0.1226551816
23
-0.0023441701
33
0.0000000000
40
0.0000000000
40
0.0000000000
40
0.0000000000
40
0.0000000000
40
0.4092907420
40
0.6944074777
40
0.8752871174
40
1.0000000000
40
1.0000000000
40
1.0000000000
40
1.0000000000
10
-39.6211883556
20
26.1110324920
30
0.0000000000
10
-39.6212547967
20
26.1277692928
30
0.0000000000
10
-39.6205240835
20
26.1552883945
30
0.0000000000
10
-39.6231072877
20
26.1937260118
30
0.0000000000
10
-39.6181037560
20
26.2126127013
30
0.0000000000
10
-39.6262872242
20
26.2338056738
30
0.0000000000
10
-39.6211883304
20
26.2337082244
30
0.0000000000
11
-39.6211883556
21
26.1110324920
31
0.0000000000
11
-39.6213592335
21
26.1612429991
31
0.0000000000
11
-39.6214224502
21
26.1962203732
31
0.0000000000
11
-39.6214018847
21
26.2184102402
31
0.0000000000
11
-39.6211883304
21
26.2337082244
31
0.0000000000
0
SPLINE
5
562
100
AcDbEntity
8
0
100
AcDbSpline
62
9
6
CONTINUOUS
70
0
71
3
72
10
73
6
74
4
42
0.0000001000
43
0.0000001000
44
0.0000000001
12
0.1517489923
22
0.0026487885
32
0.0000000000
13
0.0139152625
23
-0.1511328496
33
0.0000000000
40
0.0000000000
40
0.0000000000
40
0.0000000000
40
0.0000000000
40
0.1197415736
40
0.4600609008
40
1.0000000000
40
1.0000000000
40
1.0000000000
40
1.0000000000
10
-32.6264240521
20
24.6324827340
30
0.0000000000
10
-32.6203671644
20
24.6325884574
30
0.0000000000
10
-32.6218637917
20
24.5968901875
30
0.0000000000
10
-32.6111276576
20
24.5586033471
30
0.0000000000
10
-32.6114761105
20
24.5093827460
30
0.0000000000
10
-32.6089716457
20
24.4821819011
30
0.0000000000
11
-32.6264240521
21
24.6324827340
31
0.0000000000
11
-32.6207102465
21
24.6152308929
31
0.0000000000
11
-32.6147354585
21
24.5639266454
31
0.0000000000
11
-32.6089716457
21
24.4821819011
31
0.0000000000
0
SPLINE
5
563
100
AcDbEntity
8
0
100
AcDbSpline
62
9
6
CONTINUOUS
70
0
71
3
72
11
73
7
74
5
42
0.0000001000
43
0.0000001000
44
0.0000000001
12
-0.0000000005
22
0.6328953804
32
0.0000000000
13
-0.6328580775
23
0.0068714083
33
0.0000000000
40
0.0000000000
40
0.0000000000
40
0.0000000000
40
0.0000000000
40
0.1951515903
40
0.4258186589
40
0.6992796764
40
1.0000000000
40
1.0000000000
40
1.0000000000
40
1.0000000000
10
-32.1176978489
20
22.0216037035
30
0.0000000000
10
-32.1176978489
20
22.0627738835
30
0.0000000000
10
-32.1495722003
20
22.1532883854
30
0.0000000000
10
-32.2645673078
20
22.2521331032
30
0.0000000000
10
-32.4239240689
20
22.3164505346
30
0.0000000000
10
-32.5455338837
20
22.3318879019
30
0.0000000000
10
-32.6089716457
20
22.3325766926
30
0.0000000000
11
-32.1176978489
21
22.0216037035
31
0.0000000000
11
-32.1549267450
21
22.1393698395
31
0.0000000000
11
-32.2610706993
21
22.2395995395
31
0.0000000000
11
-32.4203242516
21
22.3073660324
31
0.0000000000
11
-32.6089716457
21
22.3325766926
31
0.0000000000
0
SPLINE
5
564
100
AcDbEntity
8
0
100
AcDbSpline
62
9
6
CONTINUOUS
70
0
71
3
72
11
73
7
74
5
42
0.0000001000
43
0.0000001000
44
0.0000000001
12
0.0024186183
22
-1.2438817956
32
0.0000000000
13
-0.0018926208
23
-1.2438827072
33
0.0000000000
40
0.0000000000
40
0.0000000000
40
0.0000000000
40
0.0000000000
40
0.2243715334
40
0.4704478699
40
0.7313847233
40
1.0000000000
40
1.0000000000
40
1.0000000000
40
1.0000000000
10
-32.6089718800
20
22.3325683420
30
0.0000000000
10
-32.6087909903
20
22.2395377867
30
0.0000000000
10
-32.6085324017
20
22.0444770319
30
0.0000000000
10
-32.6084136243
20
21.7412244008
30
0.0000000000
10
-32.6085472422
20
21.4196270790
30
0.0000000000
10
-32.6088024972
20
21.2000600379
30
0.0000000000
10
-32.6089719595
20
21.0886847387
30
0.0000000000
11
-32.6089718800
21
22.3325683420
31
0.0000000000
11
-32.6085857731
21
22.0534764156
31
0.0000000000
11
-32.6084560081
21
21.7473859892
31
0.0000000000
11
-32.6085857461
21
21.4228107998
31
0.0000000000
11
-32.6089719595
21
21.0886847387
31
0.0000000000
0
SPLINE
5
565
100
AcDbEntity
8
0
100
AcDbSpline
62
9
6
CONTINUOUS
70
0
71
3
72
14
73
10
74
8
42
0.0000001000
43
0.0000001000
44
0.0000000001
12
-0.0000223261
22
-1.5500901613
32
0.0000000000
13
1.5498539382
23
-0.0270606540
33
0.0000000000
40
0.0000000000
40
0.0000000000
40
0.0000000000
40
0.0000000000
40
0.1273578543
40
0.2705521359
40
0.4230538758
40
0.5785595642
40
0.7310300424
40
0.8737713831
40
1.0000000000
40
1.0000000000
40
1.0000000000
40
1.0000000000
10
-32.6089716457
20
14.8784869548
30
0.0000000000
10
-32.6089725935
20
14.8126815692
30
0.0000000000
10
-32.5950835299
20
14.6725203351
30
0.0000000000
10
-32.5280834541
20
14.4626054568
30
0.0000000000
10
-32.4073685329
20
14.2605709792
30
0.0000000000
10
-32.2387570398
20
14.0894217039
30
0.0000000000
10
-32.0387666648
20
13.9658307308
30
0.0000000000
10
-31.8307098911
20
13.8958896157
30
0.0000000000
10
-31.6916360251
20
13.8797778693
30
0.0000000000
10
-31.6264240521
20
13.8786392597
30
0.0000000000
11
-32.6089716457
21
14.8784869548
31
0.0000000000
11
-32.5894795066
21
14.6820354454
31
0.0000000000
11
-32.5219873727
21
14.4705813131
31
0.0000000000
11
-32.4007252849
21
14.2676615702
31
0.0000000000
11
-32.2315565477
21
14.0959466949
31
0.0000000000
11
-32.0305151007
21
13.9716875116
31
0.0000000000
11
-31.8207867362
21
13.9011831662
31
0.0000000000
11
-31.6264240521
21
13.8786392597
31
0.0000000000
0
SPLINE
5
566
100
AcDbEntity
8
0
100
AcDbSpline
62
9
6
CONTINUOUS
70
0
71
3
72
9
73
5
74
3
42
0.0000001000
43
0.0000001000
44
0.0000000001
12
-0.1006279277
22
0.1006279668
32
0.0000000000
13
-0.1417217164
23
0.0194083480
33
0.0000000000
40
0.0000000000
40
0.0000000000
40
0.0000000000
40
0.0000000000
40
0.7352833128
40
1.0000000000
40
1.0000000000
40
1.0000000000
40
1.0000000000
10
-35.5020158636
20
26.0214563380
30
0.0000000000
10
-35.5266792090
20
26.0461196929
30
0.0000000000
10
-35.5704549477
20
26.0700914097
30
0.0000000000
10
-35.6172564012
20
26.0798346042
30
0.0000000000
10
-35.6297617690
20
26.0815471754
30
0.0000000000
11
-35.5020158636
21
26.0214563380
31
0.0000000000
11
-35.5926901765
21
26.0736791692
31
0.0000000000
11
-35.6297617690
21
26.0815471754
31
0.0000000000
0
SPLINE
5
567
100
AcDbEntity
8
0
100
AcDbSpline
62
9
6
CONTINUOUS
70
0
71
3
72
8
73
4
74
2
42
0.0000001000
43
0.0000001000
44
0.0000000001
12
-0.0397806290
22
0.0054478333
32
0.0000000000
13
-0.0402222270
23
0.0000680496
33
0.0000000000
40
0.0000000000
40
0.0000000000
40
0.0000000000
40
0.0000000000
40
1.0000000000
40
1.0000000000
40
1.0000000000
40
1.0000000000
10
-35.6297617690
20
26.0815471754
30
0.0000000000
10
-35.6430219786
20
26.0833631198
30
0.0000000000
10
-35.6564128869
20
26.0842046715
30
0.0000000000
10
-35.6698202959
20
26.0842273547
30
0.0000000000
11
-35.6297617690
21
26.0815471754
31
0.0000000000
11
-35.6698202959
21
26.0842273547
31
0.0000000000
0
SPLINE
5
568
100
AcDbEntity
8
0
100
AcDbSpline
62
9
6
CONTINUOUS
70
0
71
3
72
9
73
5
74
3
42
0.0000001000
43
0.0000001000
44
0.0000000001
12
-0.1410314589
22
0.0002386027
32
0.0000000000
13
-0.1329976897
23
-0.0451819473
33
0.0000000000
40
0.0000000000
40
0.0000000000
40
0.0000000000
40
0.0000000000
40
0.2993193607
40
1.0000000000
40
1.0000000000
40
1.0000000000
40
1.0000000000
10
-35.6698202959
20
26.0842273547
30
0.0000000000
10
-35.6838914446
20
26.0842511609
30
0.0000000000
10
-35.7309626518
20
26.0813173508
30
0.0000000000
10
-35.7767632482
20
26.0703229193
30
0.0000000000
10
-35.8078262169
20
26.0597702140
30
0.0000000000
11
-35.6698202959
21
26.0842273547
31
0.0000000000
11
-35.7119562553
21
26.0817727007
31
0.0000000000
11
-35.8078262169
21
26.0597702140
31
0.0000000000
0
SPLINE
5
569
100
AcDbEntity
8
0
100
AcDbSpline
62
9
6
CONTINUOUS
70
0
71
3
72
8
73
4
74
2
42
0.0000001000
43
0.0000001000
44
0.0000000001
12
-0.0396052947
22
-0.0134547024
32
0.0000000000
13
-0.0383972977
23
-0.0162872065
33
0.0000000000
40
0.0000000000
40
0.0000000000
40
0.0000000000
40
0.0000000000
40
1.0000000000
40
1.0000000000
40
1.0000000000
40
1.0000000000
10
-35.8078262169
20
26.0597702140
30
0.0000000000
10
-35.8210279818
20
26.0552853132
30
0.0000000000
10
-35.8340439517
20
26.0502857899
30
0.0000000000
10
-35.8468430510
20
26.0448567210
30
0.0000000000
11
-35.8078262169
21
26.0597702140
31
0.0000000000
11
-35.8468430510
21
26.0448567210
31
0.0000000000
0
SPLINE
5
56A
100
AcDbEntity
8
0
100
AcDbSpline
62
9
6
CONTINUOUS
70
0
71
3
72
8
73
4
74
2
42
0.0000001000
43
0.0000001000
44
0.0000000001
12
-0.2130155607
22
-0.2176425265
32
0.0000000000
13
-0.2130160730
23
-0.2176420251
33
0.0000000000
40
0.0000000000
40
0.0000000000
40
0.0000000000
40
0.0000000000
40
1.0000000000
40
1.0000000000
40
1.0000000000
40
1.0000000000
10
-35.6992537960
20
-15.7540849816
30
0.0000000000
10
-35.7702589829
20
-15.8266324904
30
0.0000000000
10
-35.8412642611
20
-15.8991799099
30
0.0000000000
10
-35.9122696188
20
-15.9717272516
30
0.0000000000
11
-35.6992537960
21
-15.7540849816
31
0.0000000000
11
-35.9122696188
21
-15.9717272516
31
0.0000000000
0
SPLINE
5
56B
100
AcDbEntity
8
0
100
AcDbSpline
62
9
6
CONTINUOUS
70
0
71
3
72
10
73
6
74
4
42
0.0000001000
43
0.0000001000
44
0.0000000001
12
-0.3092602758
22
-0.3092602250
32
0.0000000000
13
-0.3914185306
23
0.1951290314
33
0.0000000000
40
0.0000000000
40
0.0000000000
40
0.0000000000
40
0.0000000000
40
0.2741647266
40
0.6024485989
40
1.0000000000
40
1.0000000000
40
1.0000000000
40
1.0000000000
10
-34.1176806278
20
-14.5628444556
30
0.0000000000
10
-34.1459433807
20
-14.5911072039
30
0.0000000000
10
-34.2300965767
20
-14.6319318166
30
0.0000000000
10
-34.3792366316
20
-14.6240867108
30
0.0000000000
10
-34.4796035912
20
-14.5867776553
30
0.0000000000
10
-34.5314732530
20
-14.5609197154
30
0.0000000000
11
-34.1176806278
21
-14.5628444556
31
0.0000000000
11
-34.2237165835
21
-14.6188308062
31
0.0000000000
11
-34.3672932779
21
-14.6181629648
31
0.0000000000
11
-34.5314732530
21
-14.5609197154
31
0.0000000000
0
SPLINE
5
56C
100
AcDbEntity
8
0
100
AcDbSpline
62
9
6
CONTINUOUS
70
0
71
3
72
10
73
6
74
4
42
0.0000001000
43
0.0000001000
44
0.0000000001
12
0.1229631136
22
-0.0021463291
32
0.0000000000
13
-0.0004143186
23
-0.1229811464
33
0.0000000000
40
0.0000000000
40
0.0000000000
40
0.0000000000
40
0.0000000000
40
0.1154847084
40
0.4552180529
40
1.0000000000
40
1.0000000000
40
1.0000000000
40
1.0000000000
10
-35.8468430510
20
26.1678267950
30
0.0000000000
10
-35.8421095979
20
26.1677441722
30
0.0000000000
10
-35.8522659124
20
26.1378910458
30
0.0000000000
10
-35.8423284403
20
26.1076982174
30
0.0000000000
10
-35.8467678132
20
26.0671893572
30
0.0000000000
10
-35.8468430510
20
26.0448567210
30
0.0000000000
11
-35.8468430510
21
26.1678267950
31
0.0000000000
11
-35.8463179347
21
26.1536339835
31
0.0000000000
11
-35.8463177457
21
26.1118529503
31
0.0000000000
11
-35.8468430510
21
26.0448567210
31
0.0000000000
0
SPLINE
5
56D
100
AcDbEntity
8
0
100
AcDbSpline
62
9
6
CONTINUOUS
70
0
71
3
72
8
73
4
74
2
42
0.0000001000
43
0.0000001000
44
0.0000000001
12
-0.0657210813
22
-0.0011544048
32
0.0000000000
13
-0.0656319857
23
-0.0045602683
33
0.0000000000
40
0.0000000000
40
0.0000000000
40
0.0000000000
40
0.0000000000
40
1.0000000000
40
1.0000000000
40
1.0000000000
40
1.0000000000
10
-33.6349225654
20
-14.1722127255
30
0.0000000000
10
-33.6568295925
20
-14.1725975271
30
0.0000000000
10
-33.6787393685
20
-14.1735518698
30
0.0000000000
10
-33.7006166971
20
-14.1750719592
30
0.0000000000
11
-33.6349225654
21
-14.1722127255
31
0.0000000000
11
-33.7006166971
21
-14.1750719592
31
0.0000000000
0
SPLINE
5
56E
100
AcDbEntity
8
0
100
AcDbSpline
62
9
6
CONTINUOUS
70
0
71
3
72
10
73
6
74
4
42
0.0000001000
43
0.0000001000
44
0.0000000001
12
0.1857034163
22
0.0032340081
32
0.0000000000
13
-0.0019175554
23
0.1857216752
33
0.0000000000
40
0.0000000000
40
0.0000000000
40
0.0000000000
40
0.0000000000
40
0.1168063832
40
0.4583262497
40
1.0000000000
40
1.0000000000
40
1.0000000000
40
1.0000000000
10
-33.6349225672
20
-14.3579257171
30
0.0000000000
10
-33.6276921190
20
-14.3577997995
30
0.0000000000
10
-33.6431150992
20
-14.3123904436
30
0.0000000000
10
-33.6281982430
20
-14.2667975336
30
0.0000000000
10
-33.6345763348
20
-14.2057462773
30
0.0000000000
10
-33.6349225646
20
-14.1722127585
30
0.0000000000
11
-33.6349225672
21
-14.3579257171
31
0.0000000000
11
-33.6341075555
21
-14.3362463980
31
0.0000000000
11
-33.6341075491
21
-14.2728153756
31
0.0000000000
11
-33.6349225646
21
-14.1722127585
31
0.0000000000
0
SPLINE
5
56F
100
AcDbEntity
8
0
100
AcDbSpline
62
9
6
CONTINUOUS
70
0
71
3
72
9
73
5
74
3
42
0.0000001000
43
0.0000001000
44
0.0000000001
12
-0.2032227991
22
-0.0130960972
32
0.0000000000
13
-0.1963062703
23
0.0528941305
33
0.0000000000
40
0.0000000000
40
0.0000000000
40
0.0000000000
40
0.0000000000
40
0.5712547247
40
1.0000000000
40
1.0000000000
40
1.0000000000
40
1.0000000000
10
-35.6664473666
20
-16.0098323541
30
0.0000000000
10
-35.7051446947
20
-16.0123260899
30
0.0000000000
10
-35.7732589449
20
-16.0073802435
30
0.0000000000
10
-35.8393645374
20
-15.9922254240
30
0.0000000000
10
-35.8674196660
20
-15.9846660545
30
0.0000000000
11
-35.6664473666
21
-16.0098323541
31
0.0000000000
11
-35.7823103800
21
-16.0033438995
31
0.0000000000
11
-35.8674196660
21
-15.9846660545
31
0.0000000000
0
SPLINE
5
570
100
AcDbEntity
8
0
100
AcDbSpline
62
9
6
CONTINUOUS
70
0
71
3
72
8
73
4
74
2
42
0.0000001000
43
0.0000001000
44
0.0000000001
12
-0.0450846239
22
0.0121479155
32
0.0000000000
13
-0.0446277106
23
0.0136002426
33
0.0000000000
40
0.0000000000
40
0.0000000000
40
0.0000000000
40
0.0000000000
40
1.0000000000
40
1.0000000000
40
1.0000000000
40
1.0000000000
10
-35.8674196660
20
-15.9846660545
30
0.0000000000
10
-35.8824478740
20
-15.9806167493
30
0.0000000000
10
-35.8973936352
20
-15.9762627686
30
0.0000000000
10
-35.9122695387
20
-15.9717293544
30
0.0000000000
11
-35.8674196660
21
-15.9846660545
31
0.0000000000
11
-35.9122695387
21
-15.9717293544
31
0.0000000000
0
SPLINE
5
571
100
AcDbEntity
8
0
100
AcDbSpline
62
9
6
CONTINUOUS
70
0
71
3
72
10
73
6
74
4
42
0.0000001000
43
0.0000001000
44
0.0000000001
12
-10.4259507719
22
-0.1832439360
32
0.0000000000
13
-10.4259510665
23
-0.1832271737
33
0.0000000000
40
0.0000000000
40
0.0000000000
40
0.0000000000
40
0.0000000000
40
0.3336979928
40
0.6670313315
40
1.0000000000
40
1.0000000000
40
1.0000000000
40
1.0000000000
10
-23.2089716457
20
-13.9889771988
30
0.0000000000
10
-24.3686779277
20
-14.0093599100
30
0.0000000000
10
-26.6868232139
20
-14.0501024307
30
0.0000000000
10
-30.1621401873
20
-14.1111809314
30
0.0000000000
10
-32.4777508839
20
-14.1518764228
30
0.0000000000
10
-33.6349225654
20
-14.1722127255
30
0.0000000000
11
-23.2089716457
21
-13.9889771988
31
0.0000000000
11
-26.6880905081
21
-14.0501243918
31
0.0000000000
11
-30.1634075371
21
-14.1112028955
31
0.0000000000
11
-33.6349225654
21
-14.1722127255
31
0.0000000000
0
SPLINE
5
572
100
AcDbEntity
8
0
100
AcDbSpline
62
9
6
CONTINUOUS
70
0
71
3
72
11
73
7
74
5
42
0.0000001000
43
0.0000001000
44
0.0000000001
12
-0.0000000004
22
-0.6334871461
32
0.0000000000
13
-0.6334495985
23
-0.0068971257
33
0.0000000000
40
0.0000000000
40
0.0000000000
40
0.0000000000
40
0.0000000000
40
0.1954686554
40
0.4262261650
40
0.6995484654
40
1.0000000000
40
1.0000000000
40
1.0000000000
40
1.0000000000
10
-22.7176978489
20
-11.8925975116
30
0.0000000000
10
-22.7176978489
20
-11.9338731385
30
0.0000000000
10
-22.7495209509
20
-12.0245713918
30
0.0000000000
10
-22.8645040114
20
-12.1237441370
30
0.0000000000
10
-23.0238930573
20
-12.1882642206
30
0.0000000000
10
-23.1455313444
20
-12.2037516277
30
0.0000000000
10
-23.2089716457
20
-12.2044423784
30
0.0000000000
11
-22.7176978489
21
-11.8925975116
31
0.0000000000
11
-22.7549275870
21
-12.0106951109
31
0.0000000000
11
-22.8610726022
21
-12.1112057490
31
0.0000000000
11
-23.0203259020
21
-12.1791614746
31
0.0000000000
11
-23.2089716457
21
-12.2044423784
31
0.0000000000
0
SPLINE
5
573
100
AcDbEntity
8
0
100
AcDbSpline
62
9
6
CONTINUOUS
70
0
71
3
72
10
73
6
74
4
42
0.0000001000
43
0.0000001000
44
0.0000000001
12
0.0016099428
22
-0.1869472130
32
0.0000000000
13
-0.1869534959
23
-0.0004926854
33
0.0000000000
40
0.0000000000
40
0.0000000000
40
0.0000000000
40
0.0000000000
40
0.5416924424
40
0.8831589242
40
1.0000000000
40
1.0000000000
40
1.0000000000
40
1.0000000000
10
-23.2089718277
20
-13.9889700242
30
0.0000000000
10
-23.2086811298
20
-14.0227259883
30
0.0000000000
10
-23.2022408574
20
-14.0842780297
30
0.0000000000
10
-23.2175416613
20
-14.1299148012
30
0.0000000000
10
-23.2016908704
20
-14.1758919162
30
0.0000000000
10
-23.2089721529
20
-14.1759111049
30
0.0000000000
11
-23.2089718277
21
-13.9889700242
31
0.0000000000
11
-23.2082873397
21
-14.0902393584
31
0.0000000000
11
-23.2082868938
21
-14.1540779326
31
0.0000000000
11
-23.2089721529
21
-14.1759111049
31
0.0000000000
0
SPLINE
5
574
100
AcDbEntity
8
0
100
AcDbSpline
62
9
6
CONTINUOUS
70
0
71
3
72
8
73
4
74
2
42
0.0000001000
43
0.0000001000
44
0.0000000001
12
-0.0000000000
22
-0.0892795871
32
0.0000000000
13
-0.0323619463
23
-0.0848247842
33
0.0000000000
40
0.0000000000
40
0.0000000000
40
0.0000000000
40
0.0000000000
40
1.0000000000
40
1.0000000000
40
1.0000000000
40
1.0000000000
10
-22.7176978489
20
-13.6448558235
30
0.0000000000
10
-22.7176978489
20
-13.6746156859
30
0.0000000000
10
-22.7238216366
20
-13.7045964552
30
0.0000000000
10
-22.7346089521
20
-13.7328713833
30
0.0000000000
11
-22.7176978489
21
-13.6448558235
31
0.0000000000
11
-22.7346089521
21
-13.7328713833
31
0.0000000000
0
SPLINE
5
575
100
AcDbEntity
8
0
100
AcDbSpline
62
9
6
CONTINUOUS
70
0
71
3
72
9
73
5
74
3
42
0.0000001000
43
0.0000001000
44
0.0000000001
12
-0.0529631554
22
-0.1388231777
32
0.0000000000
13
-0.1091387136
23
-0.0989043436
33
0.0000000000
40
0.0000000000
40
0.0000000000
40
0.0000000000
40
0.0000000000
40
0.3165590854
40
1.0000000000
40
1.0000000000
40
1.0000000000
40
1.0000000000
10
-22.7346089521
20
-13.7328713833
30
0.0000000000
10
-22.7401976081
20
-13.7475199627
30
0.0000000000
10
-22.7618060944
20
-13.7923480104
30
0.0000000000
10
-22.7938791649
20
-13.8299334950
30
0.0000000000
10
-22.8187424523
20
-13.8524652534
30
0.0000000000
11
-22.7346089521
21
-13.7328713833
31
0.0000000000
11
-22.7549269858
21
-13.7751756395
31
0.0000000000
11
-22.8187424523
21
-13.8524652534
31
0.0000000000
0
SPLINE
5
576
100
AcDbEntity
8
0
100
AcDbSpline
62
9
6
CONTINUOUS
70
0
71
3
72
9
73
5
74
3
42
0.0000001000
43
0.0000001000
44
0.0000000001
12
-0.0821933208
22
-0.0744857272
32
0.0000000000
13
-0.0971714896
23
-0.0524950493
33
0.0000000000
40
0.0000000000
40
0.0000000000
40
0.0000000000
40
0.0000000000
40
0.4876414487
40
1.0000000000
40
1.0000000000
40
1.0000000000
40
1.0000000000
10
-22.8187424523
20
-13.8524652534
30
0.0000000000
10
-22.8321027423
20
-13.8645726960
30
0.0000000000
10
-22.8612432839
20
-13.8875327003
30
0.0000000000
10
-22.8926888221
20
-13.9068091199
30
0.0000000000
10
-22.9092843700
20
-13.9157745491
30
0.0000000000
11
-22.8187424523
21
-13.8524652534
31
0.0000000000
11
-22.8610711289
21
-13.8860892605
31
0.0000000000
11
-22.9092843700
21
-13.9157745491
31
0.0000000000
0
SPLINE
5
577
100
AcDbEntity
8
0
100
AcDbSpline
62
9
6
CONTINUOUS
70
0
71
3
72
10
73
6
74
4
42
0.0000001000
43
0.0000001000
44
0.0000000001
12
0.0768298871
22
0.0013446276
32
0.0000000000
13
-0.0001581811
23
0.0764288925
33
0.0000000000
40
0.0000000000
40
0.0000000000
40
0.0000000000
40
0.0000000000
40
0.1849754990
40
0.7286769383
40
1.0000000000
40
1.0000000000
40
1.0000000000
40
1.0000000000
10
-35.9122694890
20
-16.0946921711
30
0.0000000000
10
-35.9075322734
20
-16.0946092634
30
0.0000000000
10
-35.9176891956
20
-16.0647503543
30
0.0000000000
10
-35.9115102045
20
-16.0458840296
30
0.0000000000
10
-35.9107822062
20
-16.0259321822
30
0.0000000000
10
-35.9107965122
20
-16.0190198752
30
0.0000000000
11
-35.9122694890
21
-16.0946921711
31
0.0000000000
11
-35.9117443082
21
-16.0804880537
31
0.0000000000
11
-35.9117443413
21
-16.0387091366
31
0.0000000000
11
-35.9107965122
21
-16.0190198752
31
0.0000000000
0
SPLINE
5
578
100
AcDbEntity
8
0
100
AcDbSpline
62
9
6
CONTINUOUS
70
0
71
3
72
8
73
4
74
2
42
0.0000001000
43
0.0000001000
44
0.0000000001
12
-0.0000450729
22
0.0217780443
32
0.0000000000
13
-0.0009763622
23
0.0227441048
33
0.0000000000
40
0.0000000000
40
0.0000000000
40
0.0000000000
40
0.0000000000
40
1.0000000000
40
1.0000000000
40
1.0000000000
40
1.0000000000
10
-35.9107965122
20
-16.0190198752
30
0.0000000000
10
-35.9108115365
20
-16.0117605271
30
0.0000000000
10
-35.9111096374
20
-16.0042030532
30
0.0000000000
10
-35.9114350915
20
-15.9966216850
30
0.0000000000
11
-35.9107965122
21
-16.0190198752
31
0.0000000000
11
-35.9114350915
21
-15.9966216850
31
0.0000000000
0
SPLINE
5
579
100
AcDbEntity
8
0
100
AcDbSpline
62
9
6
CONTINUOUS
70
0
71
3
72
8
73
4
74
2
42
0.0000001000
43
0.0000001000
44
0.0000000001
12
-0.0010808722
22
0.0251786385
32
0.0000000000
13
-0.0002411714
23
0.0242381743
33
0.0000000000
40
0.0000000000
40
0.0000000000
40
0.0000000000
40
0.0000000000
40
1.0000000000
40
1.0000000000
40
1.0000000000
40
1.0000000000
10
-35.9114350915
20
-15.9966216850
30
0.0000000000
10
-35.9117953822
20
-15.9882288055
30
0.0000000000
10
-35.9121891954
20
-15.9798066424
30
0.0000000000
10
-35.9122695858
20
-15.9717272510
30
0.0000000000
11
-35.9114350915
21
-15.9966216850
31
0.0000000000
11
-35.9122695858
21
-15.9717272510
31
0.0000000000
0
SPLINE
5
57A
100
AcDbEntity
8
0
100
AcDbSpline
62
9
6
CONTINUOUS
70
0
71
3
72
11
73
7
74
5
42
0.0000001000
43
0.0000001000
44
0.0000000001
12
0.0019060089
22
-1.2473672353
32
0.0000000000
13
-0.0024368520
23
-1.2473663113
33
0.0000000000
40
0.0000000000
40
0.0000000000
40
0.0000000000
40
0.0000000000
40
0.2687412823
40
0.5297681142
40
0.7758028123
40
1.0000000000
40
1.0000000000
40
1.0000000000
40
1.0000000000
10
-23.2089718814
20
-10.9570629094
30
0.0000000000
10
-23.2088011404
20
-11.0688025995
30
0.0000000000
10
-23.2085444308
20
-11.2890745262
30
0.0000000000
10
-23.2084097430
20
-11.6116452429
30
0.0000000000
10
-23.2085291383
20
-11.9156949968
30
0.0000000000
10
-23.2087898509
20
-12.1112123780
30
0.0000000000
10
-23.2089719627
20
-12.2044310510
30
0.0000000000
11
-23.2089718814
21
-10.9570629094
31
0.0000000000
11
-23.2085830848
21
-11.2922821455
31
0.0000000000
11
-23.2084524081
21
-11.6178788171
31
0.0000000000
11
-23.2085830580
21
-11.9247747687
31
0.0000000000
11
-23.2089719627
21
-12.2044310510
31
0.0000000000
0
SPLINE
5
57B
100
AcDbEntity
8
0
100
AcDbSpline
62
9
6
CONTINUOUS
70
0
71
3
72
11
73
7
74
5
42
0.0000001000
43
0.0000001000
44
0.0000000001
12
0.0000000000
22
0.6596484715
32
0.0000000000
13
-0.6595993271
23
0.0080519358
33
0.0000000000
40
0.0000000000
40
0.0000000000
40
0.0000000000
40
0.0000000000
40
0.2085035462
40
0.4431841000
40
0.7108109530
40
1.0000000000
40
1.0000000000
40
1.0000000000
40
1.0000000000
10
-32.1176978489
20
24.1325588865
30
0.0000000000
10
-32.1176978489
20
24.1784052350
30
0.0000000000
10
-32.1475377841
20
24.2769866720
30
0.0000000000
10
-32.2617170341
20
24.3901681500
30
0.0000000000
10
-32.4224087091
20
24.4637025460
30
0.0000000000
10
-32.5453886788
20
24.4814057239
30
0.0000000000
10
-32.6089716457
20
24.4821819011
30
0.0000000000
11
-32.1176978489
21
24.1325588865
31
0.0000000000
11
-32.1549275969
21
24.2649633234
31
0.0000000000
11
-32.2610726243
21
24.3776502250
31
0.0000000000
11
-32.4203259207
21
24.4538383716
31
0.0000000000
11
-32.6089716457
21
24.4821819011
31
0.0000000000
0
SPLINE
5
57C
100
AcDbEntity
8
0
100
AcDbSpline
62
9
6
CONTINUOUS
70
0
71
3
72
9
73
5
74
3
42
0.0000001000
43
0.0000001000
44
0.0000000001
12
-3.7089186650
22
-0.0650303544
32
0.0000000000
13
-3.7089186890
23
-0.0650289829
33
0.0000000000
40
0.0000000000
40
0.0000000000
40
0.0000000000
40
0.0000000000
40
0.5001458146
40
1.0000000000
40
1.0000000000
40
1.0000000000
40
1.0000000000
10
-35.9122696188
20
-15.9717272516
30
0.0000000000
10
-36.5306030011
20
-15.9825688048
30
0.0000000000
10
-37.7669092253
20
-16.0042454454
30
0.0000000000
10
-39.0032154528
20
-16.0259218967
30
0.0000000000
10
-39.6211882962
20
-16.0367568998
30
0.0000000000
11
-35.9122696188
21
-15.9717272516
31
0.0000000000
11
-37.7672697691
21
-16.0042517196
31
0.0000000000
11
-39.6211882962
21
-16.0367568998
31
0.0000000000
0
SPLINE
5
57D
100
AcDbEntity
8
CURVE
100
AcDbSpline
62
9
6
CONTINUOUS
70
0
71
3
72
22
73
18
74
16
42
0.0000001000
43
0.0000001000
44
0.0000000001
12
-0.3182088904
22
-8.1103073191
32
0.0055543568
13
0.2567170423
23
8.0020548696
33
-0.0044810126
40
0.0000000000
40
0.0000000000
40
0.0000000000
40
0.0000000000
40
0.0681818182
40
0.1363636364
40
0.2045454545
40
0.2727272727
40
0.3409090909
40
0.4090909091
40
0.4772727273
40
0.5454545455
40
0.6136363636
40
0.6818181818
40
0.7500000000
40
0.8181818182
40
0.8863636364
40
0.9545454545
40
1.0000000000
40
1.0000000000
40
1.0000000000
40
1.0000000000
10
-42.3810093833
20
13.5546973233
30
22.2999225096
10
-42.3882414036
20
13.3703721569
30
22.3000487449
10
-42.3632038244
20
13.0093234656
30
22.2996117124
10
-42.2111190472
20
12.4808332166
30
22.2969570627
10
-41.9480150916
20
11.9951800919
30
22.2923645661
10
-41.5898923719
20
11.5792415666
30
22.2861135108
10
-41.1475938862
20
11.2466945638
30
22.2783931620
10
-40.6501820362
20
11.0181405642
30
22.2697108058
10
-40.1081985232
20
10.8998158342
30
22.2602504484
10
-39.5615104840
20
10.8995384349
30
22.2507079732
10
-39.0189406230
20
11.0176051589
30
22.2412373810
10
-38.5216938599
20
11.2456009480
30
22.2325579065
10
-38.0784139913
20
11.5784392000
30
22.2248204276
10
-37.7204997281
20
11.9938221222
30
22.2185730109
10
-37.4569444239
20
12.4791729927
30
22.2139726360
10
-37.3211034813
20
12.9507787876
30
22.2116015235
10
-37.2896900892
20
13.2504999981
30
22.2110532007
10
-37.2858004371
20
13.3717432537
30
22.2109853066
11
-42.3810093833
21
13.5546973233
31
22.2999225096
11
-42.3441157563
21
13.0115039303
31
22.2992785289
11
-42.1926158508
21
12.4879727373
31
22.2966340882
11
-41.9321786309
21
12.0067991918
31
22.2920881396
11
-41.5758630776
21
11.5931401537
31
22.2858686285
11
-41.1384083255
21
11.2640267310
31
22.2782328274
11
-40.6427534257
21
11.0365121091
31
22.2695811389
11
-40.1074144355
21
10.9194903893
31
22.2602367621
11
-39.5621968470
21
10.9192624554
31
22.2507199537
11
-39.0264944726
21
11.0359266698
31
22.2413692340
11
-38.5306883423
21
11.2630746918
31
22.2327149058
11
-38.0926415922
21
11.5921966450
31
22.2250687713
11
-37.7362262212
21
12.0054834469
31
22.2188475179
11
-37.4754001312
21
12.4867072675
31
22.2142947815
11
-37.3233787544
21
13.0115178439
31
22.2116412385
11
-37.2858004371
21
13.3717432537
31
22.2109853066
0
SPLINE
5
57E
100
AcDbEntity
8
CURVE
100
AcDbSpline
62
9
6
CONTINUOUS
70
0
71
3
72
14
73
10
74
8
42
0.0000001000
43
0.0000001000
44
0.0000000001
12
-2.5239368032
22
0.5377796493
32
0.0440554808
13
0.1431046109
23
2.5726882945
33
-0.0024979003
40
0.0000000000
40
0.0000000000
40
0.0000000000
40
0.0000000000
40
0.1428571429
40
0.2857142857
40
0.4285714286
40
0.5714285714
40
0.7142857143
40
0.8571428571
40
1.0000000000
40
1.0000000000
40
1.0000000000
40
1.0000000000
10
-40.2086337350
20
11.6941900992
30
22.2620035516
10
-40.3288212018
20
11.7197986539
30
22.2641014316
10
-40.5586248716
20
11.7940327144
30
22.2681126696
10
-40.8788401618
20
11.9741169517
30
22.2737020483
10
-41.1548797613
20
12.2146160680
30
22.2785203374
10
-41.3772674848
20
12.5057700050
30
22.2824021295
10
-41.5367234338
20
12.8358052105
30
22.2851854435
10
-41.6259457163
20
13.1912551261
30
22.2867428242
10
-41.6372355773
20
13.4321853569
30
22.2869398895
10
-41.6304210720
20
13.5546943233
30
22.2868209418
11
-40.2086337350
21
11.6941900992
31
22.2620035516
11
-40.5545431692
21
11.8054882388
31
22.2680414232
11
-40.8714775467
21
11.9841860982
31
22.2735735333
11
-41.1459377820
21
12.2230585382
31
22.2783642546
11
-41.3667788557
21
12.5122502164
31
22.2822190498
11
-41.5250178227
21
12.8400409955
31
22.2849811213
11
-41.6138978011
21
13.1922460312
31
22.2865325271
11
-41.6304210720
21
13.5546943233
31
22.2868209418
0
SPLINE
5
57F
100
AcDbEntity
8
CURVE
100
AcDbSpline
62
9
6
CONTINUOUS
70
0
71
3
72
14
73
10
74
8
42
0.0000001000
43
0.0000001000
44
0.0000000001
12
0.1432886936
22
-2.5759218292
32
-0.0025011135
13
-2.5174756958
23
-0.5364047049
33
0.0439427017
40
0.0000000000
40
0.0000000000
40
0.0000000000
40
0.0000000000
40
0.1428571429
40
0.2857142857
40
0.4285714286
40
0.5714285714
40
0.7142857143
40
0.8571428571
40
1.0000000000
40
1.0000000000
40
1.0000000000
40
1.0000000000
10
-38.0370790913
20
13.5546970894
30
22.2240989243
10
-38.0302558202
20
13.4320341452
30
22.2239798236
10
-38.0415583153
20
13.1908561020
30
22.2241771094
10
-38.1311836397
20
12.8346590908
30
22.2257415253
10
-38.2906353805
20
12.5051640770
30
22.2285247658
10
-38.5131303787
20
12.2140742692
30
22.2324084304
10
-38.7891692621
20
11.9737528416
30
22.2372267070
10
-39.1095969954
20
11.7937308734
30
22.2428197939
10
-39.3389829059
20
11.7197364045
30
22.2468237399
10
-39.4588627009
20
11.6941933233
30
22.2489162495
11
-38.0370790913
21
13.5546970894
31
22.2240989243
11
-38.0536702456
21
13.1917844443
31
22.2243885239
11
-38.1428213758
21
12.8391094237
31
22.2259446627
11
-38.3011425901
21
12.5115649447
31
22.2287081698
11
-38.5220543596
21
12.2225356659
31
22.2325641991
11
-38.7965674037
21
11.9838027515
31
22.2373558421
11
-39.1135388508
21
11.8052359175
31
22.2428885993
11
-39.4588627009
21
11.6941933233
31
22.2489162495
0
SPLINE
5
580
100
AcDbEntity
8
CURVE
100
AcDbSpline
62
9
6
CONTINUOUS
70
0
71
3
72
22
73
18
74
16
42
0.0000001000
43
0.0000001000
44
0.0000000001
12
-0.3181992323
22
-8.1103044631
32
0.0055541883
13
0.2567167317
23
8.0020516164
33
-0.0044810072
40
0.0000000000
40
0.0000000000
40
0.0000000000
40
0.0000000000
40
0.0681818182
40
0.1363636364
40
0.2045454545
40
0.2727272727
40
0.3409090909
40
0.4090909091
40
0.4772727273
40
0.5454545455
40
0.6136363636
40
0.6818181818
40
0.7500000000
40
0.8181818182
40
0.8863636364
40
0.9545454545
40
1.0000000000
40
1.0000000000
40
1.0000000000
40
1.0000000000
10
-42.3810093833
20
9.1695843233
30
22.2999225096
10
-42.3882411841
20
8.9852592218
30
22.3000487411
10
-42.3632032018
20
8.6242107011
30
22.2996117015
10
-42.2111179412
20
8.0957208689
30
22.2969570434
10
-41.9480136185
20
7.6100681889
30
22.2923645404
10
-41.5898906743
20
7.1941301585
30
22.2861134811
10
-41.1475921009
20
6.8615836550
30
22.2783931308
10
-40.6501802849
20
6.6330301174
30
22.2697107753
10
-40.1081969202
20
6.5147057954
30
22.2602504204
10
-39.5615091039
20
6.5144287155
30
22.2507079491
10
-39.0189395296
20
6.6324956650
30
22.2412373620
10
-38.5216930670
20
6.8604915736
30
22.2325578927
10
-38.0784135001
20
7.1933298419
30
22.2248204190
10
-37.7204994962
20
7.6087126912
30
22.2185730069
10
-37.4569443961
20
8.0940634114
30
22.2139726355
10
-37.3211035637
20
8.5656690266
30
22.2116015249
10
-37.2896902000
20
8.8653901181
30
22.2110532026
10
-37.2858005526
20
8.9866333244
30
22.2109853086
11
-42.3810093833
21
9.1695843233
31
22.2999225096
11
-42.3441151540
21
8.6263911926
31
22.2992785184
11
-42.1926147642
21
8.1028603943
31
22.2966340692
11
-41.9321771816
21
7.6216872972
31
22.2920881143
11
-41.5758614027
21
7.2080287463
31
22.2858685993
11
-41.1384065605
21
6.8789158160
31
22.2782327966
11
-40.6427516935
21
6.6514016533
31
22.2695811087
11
-40.1074128450
21
6.5343803358
31
22.2602367344
11
-39.5621954776
21
6.5341527204
31
22.2507199298
11
-39.0264933815
21
6.6508171582
31
22.2413692149
11
-38.5306875496
21
6.8779653002
31
22.2327148919
11
-38.0926410939
21
7.2070872721
31
22.2250687626
11
-37.7362259802
21
7.6203740030
31
22.2188475137
11
-37.4754000901
21
8.1015976775
31
22.2142947808
11
-37.3233788360
21
8.6264080580
31
22.2116412400
11
-37.2858005526
21
8.9866333244
31
22.2109853086
0
SPLINE
5
581
100
AcDbEntity
8
CURVE
100
AcDbSpline
62
9
6
CONTINUOUS
70
0
71
3
72
21
73
17
74
15
42
0.0000001000
43
0.0000001000
44
0.0000000001
12
0.3016905807
22
-5.4237014737
32
-0.0052660287
13
-0.2974714752
23
5.3364721605
33
0.0051923839
40
0.0000000000
40
0.0000000000
40
0.0000000000
40
0.0000000000
40
0.0740740741
40
0.1481481481
40
0.2222222222
40
0.2962962963
40
0.3703703704
40
0.4444444444
40
0.5185185185
40
0.5925925926
40
0.6666666667
40
0.7407407407
40
0.8148148148
40
0.8888888889
40
0.9629629630
40
1.0000000000
40
1.0000000000
40
1.0000000000
40
1.0000000000
10
-38.0370758837
20
9.1695842123
30
22.2240988683
10
-38.0296267336
20
9.0356656574
30
22.2239688429
10
-38.0445278680
20
8.7736718035
30
22.2242289431
10
-38.1508213670
20
8.3928039818
30
22.2260843031
10
-38.3385729515
20
8.0412915840
30
22.2293615192
10
-38.6107576131
20
7.7263303032
30
22.2341125201
10
-38.9718012354
20
7.4678814135
30
22.2404145600
10
-39.3983320160
20
7.3039543508
30
22.2478596824
10
-39.8371070468
20
7.2518681408
30
22.2555185291
10
-40.2813827304
20
7.3066048970
30
22.2632733900
10
-40.7059571242
20
7.4738715379
30
22.2706843636
10
-41.0605516917
20
7.7305615626
30
22.2768738348
10
-41.3288255458
20
8.0414785996
30
22.2815565724
10
-41.5164827394
20
8.3925077446
30
22.2848321408
10
-41.6048814564
20
8.7083330815
30
22.2863751462
10
-41.6267819010
20
8.9037742903
30
22.2867574199
10
-41.6304543884
20
8.9696566627
30
22.2868215234
11
-38.0370758837
21
9.1695842123
31
22.2240988683
11
-38.0585181676
21
8.7756922967
31
22.2244731447
11
-38.1643977146
21
8.3976965524
31
22.2263212791
11
-38.3526451310
21
8.0473834368
31
22.2296071500
11
-38.6255674399
21
7.7357490350
31
22.2343710266
11
-38.9827157618
21
7.4836350513
31
22.2406050737
11
-39.4003727244
21
7.3225944929
31
22.2478953031
11
-39.8380238223
21
7.2696719685
31
22.2555345315
11
-40.2780991821
21
7.3253598778
31
22.2632160755
11
-40.6942938198
21
7.4887754352
31
22.2704807799
11
-41.0461649061
21
7.7395993980
31
22.2766227125
11
-41.3153894357
21
8.0481639510
31
22.2813220442
11
-41.5028862839
21
8.3971679545
31
22.2845948138
11
-41.6087217396
21
8.7741408185
31
22.2864421786
11
-41.6304543884
21
8.9696566627
31
22.2868215234
0
SPLINE
5
582
100
AcDbEntity
8
CURVE
100
AcDbSpline
62
9
6
CONTINUOUS
70
0
71
3
72
14
73
10
74
8
42
0.0000001000
43
0.0000001000
44
0.0000000001
12
1.8329450061
22
1.4232362397
32
-0.0319941741
13
1.4962283312
23
-1.7635681661
33
-0.0261167627
40
0.0000000000
40
0.0000000000
40
0.0000000000
40
0.0000000000
40
0.1428571429
40
0.2857142857
40
0.4285714286
40
0.5714285714
40
0.7142857143
40
0.8571428571
40
1.0000000000
40
1.0000000000
40
1.0000000000
40
1.0000000000
10
-40.7518602267
20
4.4202686475
30
22.2714856052
10
-40.6645771312
20
4.4880418017
30
22.2699620731
10
-40.4799228607
20
4.6011032105
30
22.2667389209
10
-40.1683724808
20
4.7093648763
30
22.2613007888
10
-39.8419655963
20
4.7467065770
30
22.2556033354
10
-39.5148588650
20
4.7126325231
30
22.2498936662
10
-39.2031699882
20
4.6088796837
30
22.2444531166
10
-38.9203902055
20
4.4385669371
30
22.2395171771
10
-38.7634042689
20
4.2902467598
30
22.2367769774
10
-38.6921553008
20
4.2062673233
30
22.2355333220
11
-40.7518602267
21
4.4202686475
31
22.2714856052
11
-40.4741613650
21
4.5908814693
31
22.2666383536
11
-40.1658963967
21
4.6975448821
31
22.2612575685
11
-39.8418489552
21
4.7348039512
31
22.2556012994
11
-39.5174285074
21
4.7010193922
31
22.2499385194
11
-39.2079881705
21
4.5977863658
31
22.2445372183
11
-38.9282736851
21
4.4298723505
31
22.2396547838
11
-38.6921553008
21
4.2062673233
31
22.2355333220
0
SPLINE
5
583
100
AcDbEntity
8
CURVE
100
AcDbSpline
62
9
6
CONTINUOUS
70
0
71
3
72
14
73
10
74
8
42
0.0000001000
43
0.0000001000
44
0.0000000001
12
-1.5013807705
22
-1.7696412216
32
0.0262066988
13
-1.8266157591
23
1.4183217368
33
0.0318836967
40
0.0000000000
40
0.0000000000
40
0.0000000000
40
0.0000000000
40
0.1428571429
40
0.2857142857
40
0.4285714286
40
0.5714285714
40
0.7142857143
40
0.8571428571
40
1.0000000000
40
1.0000000000
40
1.0000000000
40
1.0000000000
10
-38.6921546487
20
2.2680087697
30
22.2355333106
10
-38.7636489711
20
2.1837401401
30
22.2367812487
10
-38.9211299760
20
2.0351325912
30
22.2395300899
10
-39.2037846561
20
1.8651329745
30
22.2444638456
10
-39.5155519714
20
1.7614838653
30
22.2499057644
10
-39.8426790526
20
1.7275824133
30
22.2556157888
10
-40.1690337985
20
1.7650430749
30
22.2613123321
10
-40.4807714685
20
1.8735872714
30
22.2667537334
10
-40.6648790484
20
1.9864681930
30
22.2699673431
10
-40.7518607512
20
2.0540073233
30
22.2714856144
11
-38.6921546487
21
2.2680087697
31
22.2355333106
11
-38.9288688382
21
2.0439512090
31
22.2396651722
11
-39.2086367620
21
1.8761913924
31
22.2445485395
11
-39.5181119324
21
1.7731084748
31
22.2499504487
11
-39.8425503301
21
1.7394760989
31
22.2556135420
11
-40.1665976192
21
1.7768903307
31
22.2612698084
11
-40.4748420851
21
1.8837168024
31
22.2666502356
11
-40.7518607512
21
2.0540073233
31
22.2714856144
0
SPLINE
5
584
100
AcDbEntity
8
CURVE
100
AcDbSpline
62
9
6
CONTINUOUS
70
0
71
3
72
12
73
8
74
6
42
0.0000001000
43
0.0000001000
44
0.0000000001
12
0.0000000000
22
0.7192036468
32
0.0000000000
13
0.5205562781
23
0.4963912927
33
-0.0090863436
40
0.0000000000
40
0.0000000000
40
0.0000000000
40
0.0000000000
40
0.2000000000
40
0.4000000000
40
0.6000000000
40
0.8000000000
40
1.0000000000
40
1.0000000000
40
1.0000000000
40
1.0000000000
10
-37.8344274909
20
3.7128923233
30
22.2205616274
10
-37.8344274909
20
3.7608392331
30
22.2205616274
10
-37.8267022306
20
3.8553028727
30
22.2204267825
10
-37.7923260499
20
3.9944137480
30
22.2198267440
10
-37.7360648220
20
4.1258234088
30
22.2188447006
10
-37.6591294748
20
4.2467049399
30
22.2175017892
10
-37.5960955729
20
4.3174955704
30
22.2164015283
10
-37.5613918210
20
4.3505883233
30
22.2157957721
11
-37.8344274909
21
3.7128923233
31
22.2205616274
11
-37.8229041822
21
3.8548721087
31
22.2203604873
11
-37.7886785420
21
3.9931302123
31
22.2197630765
11
-37.7326191354
21
4.1240687205
31
22.2187845560
11
-37.6561935572
21
4.2442556757
31
22.2174505425
11
-37.5613918210
21
4.3505883233
31
22.2157957721
0
SPLINE
5
585
100
AcDbEntity
8
CURVE
100
AcDbSpline
62
9
6
CONTINUOUS
70
0
71
3
72
21
73
17
74
15
42
0.0000001000
43
0.0000001000
44
0.0000000001
12
6.0456030379
22
0.0000000000
32
-0.1055263936
13
-6.0874314014
23
0.0000000000
33
0.1062565104
40
0.0000000000
40
0.0000000000
40
0.0000000000
40
0.0000000000
40
0.0714285714
40
0.1428571429
40
0.2142857143
40
0.2857142857
40
0.3571428571
40
0.4285714286
40
0.5000000000
40
0.5714285714
40
0.6428571429
40
0.7142857143
40
0.7857142857
40
0.8571428571
40
0.9285714286
40
1.0000000000
40
1.0000000000
40
1.0000000000
40
1.0000000000
10
-39.8337484810
20
5.2370693233
30
22.2554599051
10
-39.6898055515
20
5.2370693233
30
22.2529473719
10
-39.4095397923
20
5.2064426281
30
22.2480553149
10
-39.0071946085
20
5.0745211195
30
22.2410323536
10
-38.6372850677
20
4.8588600379
30
22.2345755585
10
-38.3086949695
20
4.5571312059
30
22.2288399970
10
-38.0405934692
20
4.1650923223
30
22.2241602680
10
-37.8705133730
20
3.7065381320
30
22.2211915088
10
-37.8160242899
20
3.2349086396
30
22.2202403983
10
-37.8724407257
20
2.7583028764
30
22.2212251509
10
-38.0450162734
20
2.3014244622
30
22.2242374683
10
-38.3110991900
20
1.9150926594
30
22.2288819629
10
-38.6358428545
20
1.6167753074
30
22.2345503846
10
-39.0041316768
20
1.4011331541
30
22.2409788899
10
-39.4071318429
20
1.2682416077
30
22.2480132840
10
-39.6888096381
20
1.2372073233
30
22.2529299882
10
-39.8337484810
20
1.2372073233
30
22.2554599051
11
-39.8337484810
21
5.2370693233
31
22.2554599051
11
-39.4125487014
21
5.1921123838
31
22.2481078356
11
-39.0126005490
21
5.0605645240
31
22.2411267146
11
-38.6441716415
21
4.8445154128
31
22.2346957641
11
-38.3187764025
21
4.5420795306
31
22.2290159691
11
-38.0569303699
21
4.1540064378
31
22.2244454296
11
-37.8897785418
21
3.7043589150
31
22.2215277836
11
-37.8345085430
21
3.2340792612
31
22.2205630422
11
-37.8918005776
21
2.7615907679
31
22.2215630784
11
-38.0606008349
21
2.3131822307
31
22.2245094978
11
-38.3208759813
21
1.9297617346
31
22.2290526174
11
-38.6431003808
21
1.6305545072
31
22.2346770652
11
-39.0099169008
21
1.4149249219
31
22.2410798714
11
-39.4103845973
21
1.2826316276
31
22.2480700610
11
-39.8337484810
21
1.2372073233
31
22.2554599051
0
SPLINE
5
586
100
AcDbEntity
8
CURVE
100
AcDbSpline
62
9
6
CONTINUOUS
70
0
71
3
72
21
73
17
74
15
42
0.0000001000
43
0.0000001000
44
0.0000000001
12
-6.0456030379
22
0.0000000000
32
0.1055263936
13
6.0874314014
23
-0.0000000000
33
-0.1062565104
40
0.0000000000
40
0.0000000000
40
0.0000000000
40
0.0000000000
40
0.0714285714
40
0.1428571429
40
0.2142857143
40
0.2857142857
40
0.3571428571
40
0.4285714286
40
0.5000000000
40
0.5714285714
40
0.6428571429
40
0.7142857143
40
0.7857142857
40
0.8571428571
40
0.9285714286
40
1.0000000000
40
1.0000000000
40
1.0000000000
40
1.0000000000
10
-39.8337484810
20
1.2372073233
30
22.2554599051
10
-39.9776914105
20
1.2372073233
30
22.2579724383
10
-40.2579571697
20
1.2678340184
30
22.2628644953
10
-40.6603023535
20
1.3997555270
30
22.2698874566
10
-41.0302118942
20
1.6154166087
30
22.2763442517
10
-41.3588019925
20
1.9171454407
30
22.2820798132
10
-41.6269034927
20
2.3091843242
30
22.2867595423
10
-41.7969835890
20
2.7677385146
30
22.2897283014
10
-41.8514726721
20
3.2393680069
30
22.2906794119
10
-41.7950562363
20
3.7159737702
30
22.2896946593
10
-41.6224806886
20
4.1728521844
30
22.2866823419
10
-41.3563977719
20
4.5591839871
30
22.2820378473
10
-41.0316541075
20
4.8575013392
30
22.2763694256
10
-40.6633652852
20
5.0731434924
30
22.2699409203
10
-40.2603651190
20
5.2060350389
30
22.2629065262
10
-39.9786873239
20
5.2370693233
30
22.2579898220
10
-39.8337484810
20
5.2370693233
30
22.2554599051
11
-39.8337484810
21
1.2372073233
31
22.2554599051
11
-40.2549482605
21
1.2821642627
31
22.2628119746
11
-40.6548964130
21
1.4137121225
31
22.2697930956
11
-41.0233253205
21
1.6297612337
31
22.2762240461
11
-41.3487205595
21
1.9321971159
31
22.2819038411
11
-41.6105665921
21
2.3202702087
31
22.2864743806
11
-41.7777184201
21
2.7699177316
31
22.2893920266
11
-41.8329884189
21
3.2401973854
31
22.2903567680
11
-41.7756963843
21
3.7126858787
31
22.2893567319
11
-41.6068961271
21
4.1610944158
31
22.2864103124
11
-41.3466209806
21
4.5445149120
31
22.2818671928
11
-41.0243965811
21
4.8437221394
31
22.2762427450
11
-40.6575800612
21
5.0593517246
31
22.2698399388
11
-40.2571123646
21
5.1916450189
31
22.2628497492
11
-39.8337484810
21
5.2370693233
31
22.2554599051
0
SPLINE
5
587
100
AcDbEntity
8
CURVE
100
AcDbSpline
62
9
6
CONTINUOUS
70
0
71
3
72
8
73
4
74
2
42
0.0000001000
43
0.0000001000
44
0.0000000001
12
0.0058344782
22
0.1818648834
32
-0.0001018412
13
-0.0072232362
23
0.1841070245
33
0.0001260821
40
0.0000000000
40
0.0000000000
40
0.0000000000
40
0.0000000000
40
1.0000000000
40
1.0000000000
40
1.0000000000
40
1.0000000000
10
-37.2858004371
20
13.3717432537
30
22.2109853066
10
-37.2838556110
20
13.4323648815
30
22.2109513595
10
-37.2840797111
20
13.4933252022
30
22.2109552712
10
-37.2864874565
20
13.5546942103
30
22.2109972985
11
-37.2858004371
21
13.3717432537
31
22.2109853066
11
-37.2864874565
21
13.5546942103
31
22.2109972985
0
SPLINE
5
588
100
AcDbEntity
8
CURVE
100
AcDbSpline
62
9
6
CONTINUOUS
70
0
71
3
72
8
73
4
74
2
42
0.0000001000
43
0.0000001000
44
0.0000000001
12
0.0058344712
22
0.1818648095
32
-0.0001018411
13
-0.0072232332
23
0.1841069478
33
0.0001260820
40
0.0000000000
40
0.0000000000
40
0.0000000000
40
0.0000000000
40
1.0000000000
40
1.0000000000
40
1.0000000000
40
1.0000000000
10
-37.2858005526
20
8.9866333244
30
22.2109853086
10
-37.2838557288
20
9.0472549275
30
22.2109513616
10
-37.2840798296
20
9.1082152231
30
22.2109552733
10
-37.2864875740
20
9.1695842057
30
22.2109973006
11
-37.2858005526
21
8.9866333244
31
22.2109853086
11
-37.2864875740
21
9.1695842057
31
22.2109973006
0
SPLINE
5
589
100
AcDbEntity
8
CURVE
100
AcDbSpline
62
9
6
CONTINUOUS
70
0
71
3
72
8
73
4
74
2
42
0.0000001000
43
0.0000001000
44
0.0000000001
12
-0.0110174620
22
0.1976471171
32
0.0001923105
13
0.0112518905
23
0.2022828395
33
-0.0001964025
40
0.0000000000
40
0.0000000000
40
0.0000000000
40
0.0000000000
40
1.0000000000
40
1.0000000000
40
1.0000000000
40
1.0000000000
10
-41.6304543884
20
8.9696566627
30
22.2868215234
10
-41.6341268757
20
9.0355390350
30
22.2868856269
10
-41.6341717022
20
9.1021567101
30
22.2868864093
10
-41.6304210720
20
9.1695843233
30
22.2868209418
11
-41.6304543884
21
8.9696566627
31
22.2868215234
11
-41.6304210720
21
9.1695843233
31
22.2868209418
0
SPLINE
5
58A
100
AcDbEntity
8
0
100
AcDbSpline
62
6
6
CONTINUOUS
70
0
71
3
72
10
73
6
74
4
42
0.0000001000
43
0.0000001000
44
0.0000000001
12
-0.1444144255
22
-0.0184070312
32
0.0000000000
13
-0.1444144255
23
0.0184070312
33
0.0000000000
40
0.0000000000
40
0.0000000000
40
0.0000000000
40
0.0000000000
40
0.3341228435
40
0.6658799625
40
1.0000000000
40
1.0000000000
40
1.0000000000
40
1.0000000000
10
-28.3450806102
20
-9.9628616767
30
0.0000000000
10
-28.3611646630
20
-9.9649117466
30
0.0000000000
10
-28.3934079479
20
-9.9676550427
30
0.0000000000
10
-28.4419880227
20
-9.9676550252
30
0.0000000000
10
-28.4742311699
20
-9.9649117294
30
0.0000000000
10
-28.4903150876
20
-9.9628616767
30
0.0000000000
11
-28.3450806102
21
-9.9628616767
31
0.0000000000
11
-28.3935489918
21
-9.9669740803
31
0.0000000000
11
-28.4418471146
21
-9.9669740630
31
0.0000000000
11
-28.4903150876
21
-9.9628616767
31
0.0000000000
0
SPLINE
5
58B
100
AcDbEntity
8
0
100
AcDbSpline
62
6
6
CONTINUOUS
70
0
71
3
72
10
73
6
74
4
42
0.0000001000
43
0.0000001000
44
0.0000000001
12
0.0730813542
22
0.8174270512
32
0.0000000000
13
0.0729910245
23
0.8174351220
33
0.0000000000
40
0.0000000000
40
0.0000000000
40
0.0000000000
40
0.0000000000
40
0.3318014206
40
0.6651349907
40
1.0000000000
40
1.0000000000
40
1.0000000000
40
1.0000000000
10
-26.0412436123
20
-11.6802928253
30
0.0000000000
10
-26.0331607799
20
-11.5898850063
30
0.0000000000
10
-26.0169612673
20
-11.4086515842
30
0.0000000000
10
-25.9926162043
20
-11.1361745250
30
0.0000000000
10
-25.9763554862
20
-10.9541051500
30
0.0000000000
10
-25.9682081061
20
-10.8628616767
30
0.0000000000
11
-26.0412436123
21
-11.6802928253
31
0.0000000000
11
-26.0170002652
21
-11.4090689080
31
0.0000000000
11
-25.9926551343
21
-11.1365916599
31
0.0000000000
11
-25.9682081061
21
-10.8628616767
31
0.0000000000
0
SPLINE
5
58C
100
AcDbEntity
8
0
100
AcDbSpline
62
6
6
CONTINUOUS
70
0
71
3
72
10
73
6
74
4
42
0.0000001000
43
0.0000001000
44
0.0000000001
12
0.0729910245
22
-0.8174351220
32
0.0000000000
13
0.0730813542
23
-0.8174270512
33
0.0000000000
40
0.0000000000
40
0.0000000000
40
0.0000000000
40
0.0000000000
40
0.3348560004
40
0.6681895866
40
1.0000000000
40
1.0000000000
40
1.0000000000
40
1.0000000000
10
-30.8671875917
20
-10.8628616767
30
0.0000000000
10
-30.8590404309
20
-10.9541026952
30
0.0000000000
10
-30.8427799316
20
-11.1361696200
30
0.0000000000
10
-30.8184348689
20
-11.4086466791
30
0.0000000000
10
-30.8022351370
20
-11.5898825560
30
0.0000000000
10
-30.7941520855
20
-11.6802928253
30
0.0000000000
11
-30.8671875917
21
-10.8628616767
31
0.0000000000
11
-30.8427412214
21
-11.1365842958
31
0.0000000000
11
-30.8183960895
21
-11.4090615571
31
0.0000000000
11
-30.7941520855
21
-11.6802928253
31
0.0000000000
0
SPLINE
5
58D
100
AcDbEntity
8
0
100
AcDbSpline
62
6
6
CONTINUOUS
70
0
71
3
72
13
73
9
74
7
42
0.0000001000
43
0.0000001000
44
0.0000000001
12
-0.2997588982
22
0.0000000000
32
0.0000000000
13
-0.0266932150
23
0.2985680313
33
0.0000000000
40
0.0000000000
40
0.0000000000
40
0.0000000000
40
0.0000000000
40
0.1685365238
40
0.3393730266
40
0.5063576095
40
0.6722318972
40
0.8387144259
40
1.0000000000
40
1.0000000000
40
1.0000000000
40
1.0000000000
10
-30.5901466339
20
-11.8628616767
30
0.0000000000
10
-30.6069867414
20
-11.8628616767
30
0.0000000000
10
-30.6410378425
20
-11.8587587467
30
0.0000000000
10
-30.6887807015
20
-11.8405610695
30
0.0000000000
10
-30.7304463705
20
-11.8114294304
30
0.0000000000
10
-30.7634454359
20
-11.7733189551
30
0.0000000000
10
-30.7857187723
20
-11.7287403142
30
0.0000000000
10
-30.7927170087
20
-11.6963443974
30
0.0000000000
10
-30.7941520855
20
-11.6802928253
30
0.0000000000
11
-30.5901466339
21
-11.8628616767
31
0.0000000000
11
-30.6403008328
21
-11.8567904881
31
0.0000000000
11
-30.6881445998
21
-11.8385308696
31
0.0000000000
11
-30.7291447039
21
-11.8098166578
31
0.0000000000
11
-30.7616696625
21
-11.7722077019
31
0.0000000000
11
-30.7839433106
21
-11.7275494928
31
0.0000000000
11
-30.7941520855
21
-11.6802928253
31
0.0000000000
0
SPLINE
5
58E
100
AcDbEntity
8
0
100
AcDbSpline
62
6
6
CONTINUOUS
70
0
71
3
72
13
73
9
74
7
42
0.0000001000
43
0.0000001000
44
0.0000000001
12
-0.0266932150
22
-0.2985680313
32
0.0000000000
13
-0.2997588982
23
0.0000000000
33
0.0000000000
40
0.0000000000
40
0.0000000000
40
0.0000000000
40
0.0000000000
40
0.1612855741
40
0.3277681028
40
0.4936423905
40
0.6606269734
40
0.8314634762
40
1.0000000000
40
1.0000000000
40
1.0000000000
40
1.0000000000
10
-26.0412436123
20
-11.6802928253
30
0.0000000000
10
-26.0426786891
20
-11.6963443974
30
0.0000000000
10
-26.0496769255
20
-11.7287403142
30
0.0000000000
10
-26.0719502619
20
-11.7733189551
30
0.0000000000
10
-26.1049493274
20
-11.8114294304
30
0.0000000000
10
-26.1466149963
20
-11.8405610695
30
0.0000000000
10
-26.1943578553
20
-11.8587587467
30
0.0000000000
10
-26.2284089564
20
-11.8628616767
30
0.0000000000
10
-26.2452490639
20
-11.8628616767
30
0.0000000000
11
-26.0412436123
21
-11.6802928253
31
0.0000000000
11
-26.0514523872
21
-11.7275494928
31
0.0000000000
11
-26.0737260354
21
-11.7722077019
31
0.0000000000
11
-26.1062509939
21
-11.8098166578
31
0.0000000000
11
-26.1472510980
21
-11.8385308696
31
0.0000000000
11
-26.1950948650
21
-11.8567904881
31
0.0000000000
11
-26.2452490639
21
-11.8628616767
31
0.0000000000
0
SPLINE
5
58F
100
AcDbEntity
8
0
100
AcDbSpline
62
6
6
CONTINUOUS
70
0
71
3
72
10
73
6
74
4
42
0.0000001000
43
0.0000001000
44
0.0000000001
12
0.1444144255
22
-0.0184070312
32
0.0000000000
13
0.1444144255
23
0.0184070312
33
0.0000000000
40
0.0000000000
40
0.0000000000
40
0.0000000000
40
0.0000000000
40
0.3341228435
40
0.6658799625
40
1.0000000000
40
1.0000000000
40
1.0000000000
40
1.0000000000
10
-28.2903150876
20
-9.0878616767
30
0.0000000000
10
-28.2742310348
20
-9.0899117466
30
0.0000000000
10
-28.2419877500
20
-9.0926550427
30
0.0000000000
10
-28.1934076751
20
-9.0926550252
30
0.0000000000
10
-28.1611645279
20
-9.0899117294
30
0.0000000000
10
-28.1450806102
20
-9.0878616767
30
0.0000000000
11
-28.2903150876
21
-9.0878616767
31
0.0000000000
11
-28.2418467061
21
-9.0919740803
31
0.0000000000
11
-28.1935485833
21
-9.0919740630
31
0.0000000000
11
-28.1450806102
21
-9.0878616767
31
0.0000000000
0
SPLINE
5
590
100
AcDbEntity
8
0
100
AcDbSpline
62
6
6
CONTINUOUS
70
0
71
3
72
10
73
6
74
4
42
0.0000001000
43
0.0000001000
44
0.0000000001
12
-0.0730813542
22
0.8174270512
32
0.0000000000
13
-0.0729910245
23
0.8174351220
33
0.0000000000
40
0.0000000000
40
0.0000000000
40
0.0000000000
40
0.0000000000
40
0.3318014206
40
0.6651349907
40
1.0000000000
40
1.0000000000
40
1.0000000000
40
1.0000000000
10
-30.5941520855
20
-10.8052928253
30
0.0000000000
10
-30.6022349179
20
-10.7148850063
30
0.0000000000
10
-30.6184344305
20
-10.5336515842
30
0.0000000000
10
-30.6427794935
20
-10.2611745250
30
0.0000000000
10
-30.6590402117
20
-10.0791051500
30
0.0000000000
10
-30.6671875917
20
-9.9878616767
30
0.0000000000
11
-30.5941520855
21
-10.8052928253
31
0.0000000000
11
-30.6183954326
21
-10.5340689080
31
0.0000000000
11
-30.6427405635
21
-10.2615916599
31
0.0000000000
11
-30.6671875917
21
-9.9878616767
31
0.0000000000
0
SPLINE
5
591
100
AcDbEntity
8
0
100
AcDbSpline
62
6
6
CONTINUOUS
70
0
71
3
72
10
73
6
74
4
42
0.0000001000
43
0.0000001000
44
0.0000000001
12
-0.0729910245
22
-0.8174351220
32
0.0000000000
13
-0.0730813542
23
-0.8174270512
33
0.0000000000
40
0.0000000000
40
0.0000000000
40
0.0000000000
40
0.0000000000
40
0.3348560004
40
0.6681895866
40
1.0000000000
40
1.0000000000
40
1.0000000000
40
1.0000000000
10
-25.7682081061
20
-9.9878616767
30
0.0000000000
10
-25.7763552670
20
-10.0791026952
30
0.0000000000
10
-25.7926157662
20
-10.2611696200
30
0.0000000000
10
-25.8169608290
20
-10.5336466791
30
0.0000000000
10
-25.8331605608
20
-10.7148825560
30
0.0000000000
10
-25.8412436123
20
-10.8052928253
30
0.0000000000
11
-25.7682081061
21
-9.9878616767
31
0.0000000000
11
-25.7926544765
21
-10.2615842958
31
0.0000000000
11
-25.8169996083
21
-10.5340615571
31
0.0000000000
11
-25.8412436123
21
-10.8052928253
31
0.0000000000
0
SPLINE
5
592
100
AcDbEntity
8
0
100
AcDbSpline
62
6
6
CONTINUOUS
70
0
71
3
72
13
73
9
74
7
42
0.0000001000
43
0.0000001000
44
0.0000000001
12
0.2997588982
22
0.0000000000
32
0.0000000000
13
0.0266932150
23
0.2985680313
33
0.0000000000
40
0.0000000000
40
0.0000000000
40
0.0000000000
40
0.0000000000
40
0.1685365238
40
0.3393730266
40
0.5063576095
40
0.6722318972
40
0.8387144259
40
1.0000000000
40
1.0000000000
40
1.0000000000
40
1.0000000000
10
-26.0452490639
20
-10.9878616767
30
0.0000000000
10
-26.0284089564
20
-10.9878616767
30
0.0000000000
10
-25.9943578553
20
-10.9837587467
30
0.0000000000
10
-25.9466149963
20
-10.9655610695
30
0.0000000000
10
-25.9049493274
20
-10.9364294304
30
0.0000000000
10
-25.8719502619
20
-10.8983189551
30
0.0000000000
10
-25.8496769255
20
-10.8537403142
30
0.0000000000
10
-25.8426786891
20
-10.8213443974
30
0.0000000000
10
-25.8412436123
20
-10.8052928253
30
0.0000000000
11
-26.0452490639
21
-10.9878616767
31
0.0000000000
11
-25.9950948650
21
-10.9817904881
31
0.0000000000
11
-25.9472510980
21
-10.9635308696
31
0.0000000000
11
-25.9062509939
21
-10.9348166578
31
0.0000000000
11
-25.8737260354
21
-10.8972077019
31
0.0000000000
11
-25.8514523872
21
-10.8525494928
31
0.0000000000
11
-25.8412436123
21
-10.8052928253
31
0.0000000000
0
SPLINE
5
593
100
AcDbEntity
8
0
100
AcDbSpline
62
6
6
CONTINUOUS
70
0
71
3
72
13
73
9
74
7
42
0.0000001000
43
0.0000001000
44
0.0000000001
12
0.0266932150
22
-0.2985680313
32
0.0000000000
13
0.2997588982
23
-0.0000000000
33
0.0000000000
40
0.0000000000
40
0.0000000000
40
0.0000000000
40
0.0000000000
40
0.1612855741
40
0.3277681028
40
0.4936423905
40
0.6606269734
40
0.8314634762
40
1.0000000000
40
1.0000000000
40
1.0000000000
40
1.0000000000
10
-30.5941520855
20
-10.8052928253
30
0.0000000000
10
-30.5927170087
20
-10.8213443974
30
0.0000000000
10
-30.5857187723
20
-10.8537403142
30
0.0000000000
10
-30.5634454359
20
-10.8983189551
30
0.0000000000
10
-30.5304463705
20
-10.9364294304
30
0.0000000000
10
-30.4887807015
20
-10.9655610695
30
0.0000000000
10
-30.4410378425
20
-10.9837587467
30
0.0000000000
10
-30.4069867414
20
-10.9878616767
30
0.0000000000
10
-30.3901466339
20
-10.9878616767
30
0.0000000000
11
-30.5941520855
21
-10.8052928253
31
0.0000000000
11
-30.5839433106
21
-10.8525494928
31
0.0000000000
11
-30.5616696625
21
-10.8972077019
31
0.0000000000
11
-30.5291447039
21
-10.9348166578
31
0.0000000000
11
-30.4881445998
21
-10.9635308696
31
0.0000000000
11
-30.4403008328
21
-10.9817904881
31
0.0000000000
11
-30.3901466339
21
-10.9878616767
31
0.0000000000
0
ENDSEC
0
SECTION
2
OBJECTS
0
DICTIONARY
5
C
100
AcDbDictionary
280
0
281
1
3
ACAD_GROUP
350
D
3
ACAD_MLINESTYLE
350
17
3
ACAD_LAYOUT
350
1A
3
ACAD_PLOTSETTINGS
350
19
3
ACAD_PLOTSTYLENAME
350
E
0
DICTIONARY
5
D
102
{ACAD_REACTORS
330
C
102
}
100
AcDbDictionary
280
0
281
1
0
ACDBDICTIONARYWDFLT
5
E
102
{ACAD_REACTORS
330
C
102
}
100
AcDbDictionary
281
1
3
Normal
350
F
100
AcDbDictionaryWithDefault
340
F
0
DICTIONARY
5
17
102
{ACAD_REACTORS
330
C
102
}
100
AcDbDictionary
280
0
281
1
3
Standard
350
18
0
DICTIONARY
5
19
102
{ACAD_REACTORS
330
C
102
}
100
AcDbDictionary
281
1
0
DICTIONARY
5
1A
102
{ACAD_REACTORS
330
C
102
}
100
AcDbDictionary
281
1
3
Layout1
350
1E
3
Model
350
22
0
ACDBPLACEHOLDER
5
F
102
{ACAD_REACTORS
330
E
102
}
0
MLINESTYLE
5
18
102
{ACAD_REACTORS
330
17
102
}
100
AcDbMlineStyle
2
STANDARD
70
0
3

62
256
51
90.0
52
90.0
71
2
49
0.5
62
256
6
BYLAYER
49
-0.5
62
256
6
BYLAYER
0
LAYOUT
5
1E
102
{ACAD_REACTORS
330
1A
102
}
100
AcDbPlotSettings
1

2

4

6

40
0.0
41
0.0
42
0.0
43
0.0
44
0.0
45
0.0
46
0.0
47
0.0
48
0.0
49
0.0
140
0.0
141
0.0
142
1.0
143
1.0
70
0
72
0
73
0
74
0
7

75
0
147
1.0
148
0.0
149
0.0
100
AcDbLayout
1
Layout1
70
0
71
0
10
0.0
20
0.0
11
0.0
21
0.0
12
0.0
22
0.0
32
0.0
14
0.0
24
0.0
34
0.0
15
0.0
25
0.0
35
0.0
146
0.0
13
0.0
23
0.0
33
0.0
16
0.0
26
0.0
36
0.0
17
0.0
27
0.0
37
0.0
76
0
330
1B
331
0
345
0
346
0
0
LAYOUT
5
22
102
{ACAD_REACTORS
330
1A
102
}
100
AcDbPlotSettings
1

2

4

6

40
0.0
41
0.0
42
0.0
43
0.0
44
0.0
45
0.0
46
0.0
47
0.0
48
0.0
49
0.0
140
0.0
141
0.0
142
1.0
143
1.0
70
0
72
0
73
0
74
0
7

75
0
147
1.0
148
0.0
149
0.0
100
AcDbLayout
1
Model
70
0
71
0
10
0.0
20
0.0
11
0.0
21
0.0
12
0.0
22
0.0
32
0.0
14
0.0
24
0.0
34
0.0
15
0.0
25
0.0
35
0.0
146
0.0
13
0.0
23
0.0
33
0.0
16
0.0
26
0.0
36
0.0
17
0.0
27
0.0
37
0.0
76
0
330
1F
331
0
345
0
346
0
0
ENDSEC
0
EOF
