  0
SECTION
  2
HEADER
  9
$ACADVER
  1
AC1024
  9
$DWGCODEPAGE
  3
ANSI_1252
  9
$EXTMAX
 10
297.0
 20
210.0
 30
0.0
  9
$EXTMIN
 10
0.0
 20
0.0
 30
0.0
  9
$LIMMIN
 10
0.0
 20
0.0
  9
$LIMMAX
 10
297.0
 20
210.0
  9
$VIEWCTR
 10
148.5
 20
105.0
  9
$VIEWSIZE
 40
210.0
  9
$CLAYER
  8
0
  9
$LTSCALE
 40
16.335
  9
$CELTYPE
  6
BYLAYER
  9
$DIMSCALE
 40
1.0
  9
$DIMASZ
 40
3.0
  9
$DIMEXO
 40
0.5
  9
$DIMDLI
 40
11.286
  9
$DIMEXE
 40
1.5
  9
$DIMCEN
 40
2.673
  9
$DIMLFAC
 40
1.0
  9
$DIMBLK
  1
_FILLED
  9
$DIMALT
 70
0
  9
$DIMALTF
 40
0.0393700787
  9
$DIMTXT
 40
3.0
  9
$DIMTOL
 70
1
  9
$DIMLIM
 70
0
  9
$DIMTFAC
 40
1.0
  9
$DIMTP
 40
0.01
  9
$DIMTM
 40
0.01
  9
$DIMGAP
 40
0.625
  9
$DIMDSEP
 70
44
  9
$AUNITS
 70
0
  9
$PDMODE
 70
3
  9
$PDSIZE
 40
3.0
  9
$HANDSEED
  5
778
  9
$TILEMODE
 70
1
  9
$MEASUREMENT
 70
1
  9
$INSUNITS
 70
4
  0
ENDSEC
  0
SECTION
  2
CLASSES
  0
CLASS
  1
ACDBDICTIONARYWDFLT
  2
AcDbDictionaryWithDefault
  3
AutoCAD 2000
 90
0
 91
1
280
0
281
0
  0
CLASS
  1
ACDBPLACEHOLDER
  2
AcDbPlaceHolder
  3
AutoCAD 2000
 90
0
 91
1
280
0
281
0
  0
CLASS
  1
LAYOUT
  2
AcDbLayout
  3
AutoCAD 2000
 90
0
 91
0
280
0
281
0
  0
ENDSEC
  0
SECTION
  2
TABLES
  0
TABLE
  2
VPORT
  5
8
100
AcDbSymbolTable
 70
2
  0
VPORT
  5
1F4
100
AcDbSymbolTableRecord
100
AcDbViewportTableRecord
  2
*ACTIVE
 70
0
 10
0.0
 20
0.0
 11
1.0
 21
1.0
 12
148.5
 22
105.0
 13
0.0
 23
0.0
 14
1.0
 24
1.0
 15
0.0
 25
0.0
 16
0.0
 26
0.0
 36
1.0
 17
0.0
 27
0.0
 37
0.0
 40
210.0
 41
1.4142857143
 42
50.0
 43
0.0
 44
0.0
 50
0.0
 51
0.0
 71
0
 72
100
 73
1
 74
1
 75
0
 76
0
 77
0
 78
0
  0
ENDTAB
  0
TABLE
  2
LTYPE
  5
5
100
AcDbSymbolTable
 70
6
  0
LTYPE
  5
14
100
AcDbSymbolTableRecord
100
AcDbLinetypeTableRecord
  2
BYBLOCK
 70
0
  3

 72
65
 73
0
 40
0.0
  0
LTYPE
  5
15
100
AcDbSymbolTableRecord
100
AcDbLinetypeTableRecord
  2
BYLAYER
 70
0
  3

 72
65
 73
0
 40
0.0
  0
LTYPE
  5
16
100
AcDbSymbolTableRecord
100
AcDbLinetypeTableRecord
  2
CONTINUOUS
 70
64
  3
Solid line
 72
65
 73
0
 40
0.0
  0
LTYPE
  5
1F5
100
AcDbSymbolTableRecord
100
AcDbLinetypeTableRecord
  2
CENTER
 70
64
  3
____ _ ____ _ ____ _ ____ _ ____ _ ____ _ ____
 72
65
 73
4
 40
0.6
 49
0.375
 74
0
 49
-0.075
 74
0
 49
0.075
 74
0
 49
-0.075
 74
0
  0
LTYPE
  5
1F6
100
AcDbSymbolTableRecord
100
AcDbLinetypeTableRecord
  2
HIDDEN
 70
64
  3
- - - - - - - - - - - - - - - - - - - -
 72
65
 73
2
 40
0.2
 49
0.1
 74
0
 49
-0.1
 74
0
  0
LTYPE
  5
1F7
100
AcDbSymbolTableRecord
100
AcDbLinetypeTableRecord
  2
PHANTOM
 70
64
  3
_____ _ _ _____ _ _ _____ _ _ _____
 72
65
 73
6
 40
0.8
 49
0.45
 74
0
 49
-0.05
 74
0
 49
0.1
 74
0
 49
-0.05
 74
0
 49
0.1
 74
0
 49
-0.05
 74
0
  0
LTYPE
  5
1F8
100
AcDbSymbolTableRecord
100
AcDbLinetypeTableRecord
  2
DOT
 70
64
  3
. . . . . . . . . . . . . . . . . . . .
 72
65
 73
2
 40
0.2
 49
0.1
 74
0
 49
-0.1
 74
0
  0
LTYPE
  5
1F9
100
AcDbSymbolTableRecord
100
AcDbLinetypeTableRecord
  2
DASHED
 70
64
  3
- - - - - - - - - - - - - - - - - - - -
 72
65
 73
2
 40
0.2
 49
0.1
 74
0
 49
-0.1
 74
0
  0
ENDTAB
  0
TABLE
  2
LAYER
  5
2
100
AcDbSymbolTable
 70
36
  0
LAYER
  5
10
100
AcDbSymbolTableRecord
100
AcDbLayerTableRecord
  2
0
 70
0
 62
7
  6
CONTINUOUS
370
-3
390
F
  0
LAYER
  5
1FA
100
AcDbSymbolTableRecord
100
AcDbLayerTableRecord
  2
DEFAULT_1
 70
0
 62
7
  6
CENTER
370
-3
390
F
  0
LAYER
  5
1FB
100
AcDbSymbolTableRecord
100
AcDbLayerTableRecord
  2
DEFAULT_2
 70
0
 62
7
  6
HIDDEN
370
-3
390
F
  0
LAYER
  5
1FC
100
AcDbSymbolTableRecord
100
AcDbLayerTableRecord
  2
DEFAULT_3
 70
0
 62
7
  6
PHANTOM
370
-3
390
F
  0
LAYER
  5
1FD
100
AcDbSymbolTableRecord
100
AcDbLayerTableRecord
  2
ASSI
 70
0
 62
7
  6
CONTINUOUS
370
-3
390
F
  0
LAYER
  5
1FE
100
AcDbSymbolTableRecord
100
AcDbLayerTableRecord
  2
COORDINATE
 70
0
 62
7
  6
CONTINUOUS
370
-3
390
F
  0
LAYER
  5
1FF
100
AcDbSymbolTableRecord
100
AcDbLayerTableRecord
  2
COORD_ORIGINE
 70
0
 62
7
  6
CONTINUOUS
370
-3
390
F
  0
LAYER
  5
200
100
AcDbSymbolTableRecord
100
AcDbLayerTableRecord
  2
COPY_PUBLISH
 70
0
 62
7
  6
CONTINUOUS
370
-3
390
F
  0
LAYER
  5
201
100
AcDbSymbolTableRecord
100
AcDbLayerTableRecord
  2
COSMETIC
 70
0
 62
7
  6
CONTINUOUS
370
-3
390
F
  0
LAYER
  5
202
100
AcDbSymbolTableRecord
100
AcDbLayerTableRecord
  2
COSMETICHE
 70
0
 62
7
  6
CONTINUOUS
370
-3
390
F
  0
LAYER
  5
203
100
AcDbSymbolTableRecord
100
AcDbLayerTableRecord
  2
COSMETICI
 70
0
 62
7
  6
CONTINUOUS
370
-3
390
F
  0
LAYER
  5
204
100
AcDbSymbolTableRecord
100
AcDbLayerTableRecord
  2
CURVE
 70
0
 62
7
  6
CONTINUOUS
370
-3
390
F
  0
LAYER
  5
205
100
AcDbSymbolTableRecord
100
AcDbLayerTableRecord
  2
DRAFT
 70
0
 62
7
  6
CONTINUOUS
370
-3
390
F
  0
LAYER
  5
206
100
AcDbSymbolTableRecord
100
AcDbLayerTableRecord
  2
ESTENSIONE
 70
0
 62
7
  6
CONTINUOUS
370
-3
390
F
  0
LAYER
  5
207
100
AcDbSymbolTableRecord
100
AcDbLayerTableRecord
  2
ESTETICA
 70
0
 62
7
  6
CONTINUOUS
370
-3
390
F
  0
LAYER
  5
208
100
AcDbSymbolTableRecord
100
AcDbLayerTableRecord
  2
IMPORT_IGES
 70
0
 62
7
  6
CONTINUOUS
370
-3
390
F
  0
LAYER
  5
209
100
AcDbSymbolTableRecord
100
AcDbLayerTableRecord
  2
INTFCLR_1
 70
0
 62
7
  6
CONTINUOUS
370
-3
390
F
  0
LAYER
  5
20A
100
AcDbSymbolTableRecord
100
AcDbLayerTableRecord
  2
INTF_1
 70
0
 62
7
  6
CONTINUOUS
370
-3
390
F
  0
LAYER
  5
20B
100
AcDbSymbolTableRecord
100
AcDbLayerTableRecord
  2
INTF_11
 70
0
 62
7
  6
CONTINUOUS
370
-3
390
F
  0
LAYER
  5
20C
100
AcDbSymbolTableRecord
100
AcDbLayerTableRecord
  2
INTF_13
 70
0
 62
7
  6
CONTINUOUS
370
-3
390
F
  0
LAYER
  5
20D
100
AcDbSymbolTableRecord
100
AcDbLayerTableRecord
  2
INTF_2
 70
0
 62
7
  6
CONTINUOUS
370
-3
390
F
  0
LAYER
  5
20E
100
AcDbSymbolTableRecord
100
AcDbLayerTableRecord
  2
INTF_YELLOW
 70
0
 62
7
  6
CONTINUOUS
370
-3
390
F
  0
LAYER
  5
20F
100
AcDbSymbolTableRecord
100
AcDbLayerTableRecord
  2
NOTE
 70
0
 62
7
  6
CONTINUOUS
370
-3
390
F
  0
LAYER
  5
210
100
AcDbSymbolTableRecord
100
AcDbLayerTableRecord
  2
PIANI
 70
0
 62
7
  6
CONTINUOUS
370
-3
390
F
  0
LAYER
  5
211
100
AcDbSymbolTableRecord
100
AcDbLayerTableRecord
  2
PIANI_ORIGINE
 70
0
 62
7
  6
CONTINUOUS
370
-3
390
F
  0
LAYER
  5
212
100
AcDbSymbolTableRecord
100
AcDbLayerTableRecord
  2
PUNTI
 70
0
 62
7
  6
CONTINUOUS
370
-3
390
F
  0
LAYER
  5
213
100
AcDbSymbolTableRecord
100
AcDbLayerTableRecord
  2
RACCORDO
 70
0
 62
7
  6
CONTINUOUS
370
-3
390
F
  0
LAYER
  5
214
100
AcDbSymbolTableRecord
100
AcDbLayerTableRecord
  2
RGB__255__255__255__
 70
0
 62
7
  6
CONTINUOUS
370
-3
390
F
  0
LAYER
  5
215
100
AcDbSymbolTableRecord
100
AcDbLayerTableRecord
  2
RGB____0____0____0__
 70
0
 62
7
  6
CONTINUOUS
370
-3
390
F
  0
LAYER
  5
216
100
AcDbSymbolTableRecord
100
AcDbLayerTableRecord
  2
SMUSSO
 70
0
 62
7
  6
CONTINUOUS
370
-3
390
F
  0
LAYER
  5
217
100
AcDbSymbolTableRecord
100
AcDbLayerTableRecord
  2
SNAPLINE
 70
0
 62
7
  6
CONTINUOUS
370
-3
390
F
  0
LAYER
  5
218
100
AcDbSymbolTableRecord
100
AcDbLayerTableRecord
  2
SUPERFICI
 70
0
 62
7
  6
CONTINUOUS
370
-3
390
F
  0
LAYER
  5
219
100
AcDbSymbolTableRecord
100
AcDbLayerTableRecord
  2
SUP_ASS_ANCORINA
 70
0
 62
7
  6
CONTINUOUS
370
-3
390
F
  0
LAYER
  5
21A
100
AcDbSymbolTableRecord
100
AcDbLayerTableRecord
  2
TRASH
 70
0
 62
7
  6
CONTINUOUS
370
-3
390
F
  0
LAYER
  5
21B
100
AcDbSymbolTableRecord
100
AcDbLayerTableRecord
  2
XSEC_DATUMS
 70
0
 62
7
  6
CONTINUOUS
370
-3
390
F
  0
ENDTAB
  0
TABLE
  2
STYLE
  5
3
100
AcDbSymbolTable
 70
1
  0
STYLE
  5
11
100
AcDbSymbolTableRecord
100
AcDbTextStyleTableRecord
  2
STANDARD
 70
0
 40
0.0
 41
0.8
 50
0.0
 71
0
 42
0.2
  3
txt
  4

  0
STYLE
  5
21C
100
AcDbSymbolTableRecord
100
AcDbTextStyleTableRecord
  2
TEXTSTYLE_1
 70
0
 40
0.0
 41
0.8
 50
0.0
 71
0
 42
0.2
  3
gdt
  4

  0
ENDTAB
  0
TABLE
  2
VIEW
  5
6
100
AcDbSymbolTable
 70
0
  0
ENDTAB
  0
TABLE
  2
UCS
  5
7
100
AcDbSymbolTable
 70
0
  0
ENDTAB
  0
TABLE
  2
APPID
  5
9
100
AcDbSymbolTable
 70
1
  0
APPID
  5
21D
100
AcDbSymbolTableRecord
100
AcDbRegAppTableRecord
  2
ACAD
 70
0
  0
ENDTAB
  0
TABLE
  2
BLOCK_RECORD
  5
1
100
AcDbSymbolTable
 70
0
  0
BLOCK_RECORD
  5
21E
100
AcDbSymbolTableRecord
100
AcDbBlockTableRecord
  2
*Model_Space
  0
BLOCK_RECORD
  5
21F
100
AcDbSymbolTableRecord
100
AcDbBlockTableRecord
  2
*Paper_Space
  0
BLOCK_RECORD
  5
220
100
AcDbSymbolTableRecord
100
AcDbBlockTableRecord
  2
_FILLED
  0
BLOCK_RECORD
  5
221
100
AcDbSymbolTableRecord
100
AcDbBlockTableRecord
  2
*D0
  0
BLOCK_RECORD
  5
222
100
AcDbSymbolTableRecord
100
AcDbBlockTableRecord
  2
*D1
  0
BLOCK_RECORD
  5
223
100
AcDbSymbolTableRecord
100
AcDbBlockTableRecord
  2
*D2
  0
BLOCK_RECORD
  5
224
100
AcDbSymbolTableRecord
100
AcDbBlockTableRecord
  2
*D3
  0
ENDTAB
  0
TABLE
  2
DIMSTYLE
  5
A
100
AcDbSymbolTable
 70
1
100
AcDbDimStyleTable
 71
0
  0
DIMSTYLE
105
225
100
AcDbSymbolTableRecord
100
AcDbDimStyleTableRecord
  2
STANDARD
 70
0
  3

  4

 40
1.0
 41
3.0
 42
0.5
 43
0.38
 44
1.5
 45
0.0
 46
0.0
 47
0.01
 48
0.01
140
3.0
141
0.09
142
0.0
143
25.4
144
1.0
145
0.0
146
1.0
147
0.625
 71
1
 72
0
 73
0
 74
0
 75
0
 76
0
 77
1
 78
8
 79
2
170
0
171
1
172
0
173
0
174
0
175
0
176
0
177
0
178
0
270
2
179
2
271
2
272
2
273
2
274
2
275
0
280
0
281
0
282
0
283
1
284
8
285
0
286
0
287
3
288
0
340
11
278
44
341
220
342
220
343
220
344
220
  0
DIMSTYLE
105
226
100
AcDbSymbolTableRecord
100
AcDbDimStyleTableRecord
  2
DIMSTYLE_1
 70
0
  3

  4

 40
1.0
 41
3.0
 42
0.5
 43
0.38
 44
1.5
 45
0.0
 46
0.0
 47
0.0
 48
0.0
140
3.0
141
0.09
142
0.0
143
25.4
144
1.0
145
0.0
146
1.0
147
0.75
 71
0
 72
0
 73
0
 74
0
 75
0
 76
0
 77
1
 78
8
 79
2
170
0
171
1
172
0
173
0
174
0
175
0
176
0
177
0
178
0
270
2
179
2
271
2
272
2
273
2
274
2
275
0
280
0
281
0
282
0
283
1
284
8
285
0
286
0
287
3
288
0
340
11
278
44
341
220
342
220
343
220
344
220
  0
DIMSTYLE
105
227
100
AcDbSymbolTableRecord
100
AcDbDimStyleTableRecord
  2
DIMSTYLE_2
 70
0
  3

  4

 40
1.0
 41
3.0
 42
0.5
 43
0.38
 44
1.5
 45
0.0
 46
0.0
 47
0.0
 48
0.0
140
3.0
141
0.09
142
0.0
143
25.4
144
1.0
145
0.0
146
1.0
147
0.75
 71
0
 72
0
 73
0
 74
0
 75
0
 76
0
 77
1
 78
8
 79
2
170
0
171
1
172
0
173
0
174
0
175
0
176
0
177
0
178
0
270
2
179
2
271
1
272
1
273
2
274
2
275
0
280
0
281
0
282
0
283
1
284
8
285
0
286
0
287
3
288
0
340
11
278
44
341
220
342
220
343
220
344
220
  0
ENDTAB
  0
ENDSEC
  0
SECTION
  2
BLOCKS
  0
BLOCK
  5
20
100
AcDbEntity
  8
0
100
AcDbBlockBegin
  2
*Model_Space
 70
0
 10
0.0
 20
0.0
 30
0.0
  3
*Model_Space
  1

  0
ENDBLK
  5
21
100
AcDbEntity
  8
0
100
AcDbBlockEnd
  0
BLOCK
  5
1C
100
AcDbEntity
  8
0
100
AcDbBlockBegin
  2
*Paper_Space
 70
0
 10
0.0
 20
0.0
 30
0.0
  3
*Paper_Space
  1

  0
ENDBLK
  5
1D
100
AcDbEntity
  8
0
100
AcDbBlockEnd
  0
BLOCK
  5
228
100
AcDbEntity
  8
0
100
AcDbBlockBegin
  2
_FILLED
 70
64
 10
0.0
 20
0.0
  3
_FILLED
  1

  0
SOLID
  5
229
100
AcDbEntity
  8
0
  6
BYBLOCK
 62
0
100
AcDbTrace
 10
0.0
 20
0.0
 11
-1.0
 21
0.3166666667
 12
-1.0
 22
-0.3166666667
 13
-1.0
 23
-0.3166666667
  0
ENDBLK
  5
22A
100
AcDbEntity
  8
0
  6
BYBLOCK
 62
0
100
AcDbBlockEnd
  0
BLOCK
  5
22B
100
AcDbEntity
  8
0
100
AcDbBlockBegin
 62
7
  6
CONTINUOUS
  2
*D0
 70
65
 10
0.0
 20
0.0
  3
*D0
  1

  0
MTEXT
  5
22C
100
AcDbEntity
  8
0
100
AcDbMText
 62
7
  6
CONTINUOUS
  7
STANDARD
 71
2
 72
1
 10
85.3646474642
 20
134.1873106881
 30
0.0
 11
1.0
 21
0.0
 31
0.0
 73
2
 44
0.9
  1
{\ftxt;\W0.0001;\H0.0001;\~}{\ftxt;\W2.8571428571;\H3.0; }{\ftxt;\W0.0001;\H0.0001;\~}
 40
3.0
 41
12.8571428571
  0
LINE
  5
22D
100
AcDbEntity
  8
0
100
AcDbLine
 62
7
  6
CONTINUOUS
 10
65.5668817733
 20
58.3097262612
 11
65.5668817733
 21
131.9373106881
  0
LINE
  5
22E
100
AcDbEntity
  8
0
100
AcDbLine
 62
7
  6
CONTINUOUS
 10
105.162413155
 20
84.7009462032
 11
105.162413155
 21
131.9373106881
  0
LINE
  5
22F
100
AcDbEntity
  8
0
100
AcDbLine
 62
7
  6
CONTINUOUS
 10
65.5668817733
 20
130.4373106881
 11
85.3646474642
 21
130.4373106881
  0
LINE
  5
230
100
AcDbEntity
  8
0
100
AcDbLine
 62
7
  6
CONTINUOUS
 10
105.162413155
 20
130.4373106881
 11
85.3646474642
 21
130.4373106881
  0
INSERT
  5
231
100
AcDbEntity
  8
0
100
AcDbBlockReference
 62
7
  6
CONTINUOUS
  2
_FILLED
 10
65.5668817733
 20
130.4373106881
 41
3.0
 42
3.0
 43
3.0
 50
180.0
  0
INSERT
  5
232
100
AcDbEntity
  8
0
100
AcDbBlockReference
 62
7
  6
CONTINUOUS
  2
_FILLED
 10
105.162413155
 20
130.4373106881
 41
3.0
 42
3.0
 43
3.0
  0
ENDBLK
  5
233
100
AcDbEntity
  8
0
  6
BYBLOCK
 62
0
100
AcDbBlockEnd
  0
BLOCK
  5
234
100
AcDbEntity
  8
0
100
AcDbBlockBegin
 62
7
  6
CONTINUOUS
  2
*D1
 70
65
 10
0.0
 20
0.0
  3
*D1
  1

  0
MTEXT
  5
235
100
AcDbEntity
  8
0
100
AcDbMText
 62
7
  6
CONTINUOUS
  7
STANDARD
 71
2
 72
1
 10
91.747413155
 20
124.1873106881
 30
0.0
 11
1.0
 21
0.0
 31
0.0
 73
2
 44
0.9
  1
{\ftxt;\W0.0001;\H0.0001;\~}{\ftxt;\W2.9285714286;\H3.0; }{\ftxt;\W0.0001;\H0.0001;\~}
 40
3.0
 41
13.1785714286
  0
LINE
  5
236
100
AcDbEntity
  8
0
100
AcDbLine
 62
7
  6
CONTINUOUS
 10
105.162413155
 20
84.2204383967
 11
105.162413155
 21
121.9373106881
  0
LINE
  5
237
100
AcDbEntity
  8
0
100
AcDbLine
 62
7
  6
CONTINUOUS
 10
78.332413155
 20
99.7215122032
 11
78.332413155
 21
121.9373106881
  0
LINE
  5
238
100
AcDbEntity
  8
0
100
AcDbLine
 62
7
  6
CONTINUOUS
 10
105.162413155
 20
120.4373106881
 11
91.747413155
 21
120.4373106881
  0
LINE
  5
239
100
AcDbEntity
  8
0
100
AcDbLine
 62
7
  6
CONTINUOUS
 10
78.332413155
 20
120.4373106881
 11
91.747413155
 21
120.4373106881
  0
INSERT
  5
23A
100
AcDbEntity
  8
0
100
AcDbBlockReference
 62
7
  6
CONTINUOUS
  2
_FILLED
 10
105.162413155
 20
120.4373106881
 41
3.0
 42
3.0
 43
3.0
  0
INSERT
  5
23B
100
AcDbEntity
  8
0
100
AcDbBlockReference
 62
7
  6
CONTINUOUS
  2
_FILLED
 10
78.332413155
 20
120.4373106881
 41
3.0
 42
3.0
 43
3.0
 50
180.0
  0
ENDBLK
  5
23C
100
AcDbEntity
  8
0
  6
BYBLOCK
 62
0
100
AcDbBlockEnd
  0
BLOCK
  5
23D
100
AcDbEntity
  8
0
100
AcDbBlockBegin
 62
7
  6
CONTINUOUS
  2
*D2
 70
65
 10
0.0
 20
0.0
  3
*D2
  1

  0
MTEXT
  5
23E
100
AcDbEntity
  8
0
100
AcDbMText
 62
7
  6
CONTINUOUS
  7
STANDARD
 71
2
 72
1
 10
161.5105507864
 20
78.2215122032
 30
0.0
 11
0.0
 21
1.0
 31
0.0
 73
2
 44
0.9
  1
{\ftxt;\W0.0001;\H0.0001;\~}{\ftxt;\W1.5714285714;\H3.0; }{\ftxt;\W0.0001;\H0.0001;\~}
 40
3.0
 41
7.0714285714
  0
LINE
  5
23F
100
AcDbEntity
  8
0
100
AcDbLine
 62
7
  6
CONTINUOUS
 10
140.8098583291
 20
101.7215122032
 11
166.7605507864
 21
101.7215122032
  0
LINE
  5
240
100
AcDbEntity
  8
0
100
AcDbLine
 62
7
  6
CONTINUOUS
 10
140.8098583291
 20
54.7215122032
 11
166.7605507864
 21
54.7215122032
  0
LINE
  5
241
100
AcDbEntity
  8
0
100
AcDbLine
 62
7
  6
CONTINUOUS
 10
165.2605507864
 20
101.7215122032
 11
165.2605507864
 21
78.2215122032
  0
LINE
  5
242
100
AcDbEntity
  8
0
100
AcDbLine
 62
7
  6
CONTINUOUS
 10
165.2605507864
 20
54.7215122032
 11
165.2605507864
 21
78.2215122032
  0
INSERT
  5
243
100
AcDbEntity
  8
0
100
AcDbBlockReference
 62
7
  6
CONTINUOUS
  2
_FILLED
 10
165.2605507864
 20
101.7215122032
 41
3.0
 42
3.0
 43
3.0
 50
90.0
  0
INSERT
  5
244
100
AcDbEntity
  8
0
100
AcDbBlockReference
 62
7
  6
CONTINUOUS
  2
_FILLED
 10
165.2605507864
 20
54.7215122032
 41
3.0
 42
3.0
 43
3.0
 50
270.0
  0
ENDBLK
  5
245
100
AcDbEntity
  8
0
  6
BYBLOCK
 62
0
100
AcDbBlockEnd
  0
BLOCK
  5
246
100
AcDbEntity
  8
0
100
AcDbBlockBegin
 62
7
  6
CONTINUOUS
  2
*D3
 70
65
 10
0.0
 20
0.0
  3
*D3
  1

  0
MTEXT
  5
247
100
AcDbEntity
  8
0
100
AcDbMText
 62
7
  6
CONTINUOUS
  7
STANDARD
 71
2
 72
1
 10
136.6350008509
 20
124.1873106881
 30
0.0
 11
1.0
 21
0.0
 31
0.0
 73
2
 44
0.9
  1
{\ftxt;\W0.0001;\H0.0001;\~}{\ftxt;\W2.8571428571;\H3.0; }{\ftxt;\W0.0001;\H0.0001;\~}
 40
3.0
 41
12.8571428571
  0
LINE
  5
248
100
AcDbEntity
  8
0
100
AcDbLine
 62
7
  6
CONTINUOUS
 10
125.4850008509
 20
100.6212833511
 11
125.4850008509
 21
121.9373106881
  0
LINE
  5
249
100
AcDbEntity
  8
0
100
AcDbLine
 62
7
  6
CONTINUOUS
 10
147.7850008509
 20
100.6212833511
 11
147.7850008509
 21
121.9373106881
  0
LINE
  5
24A
100
AcDbEntity
  8
0
100
AcDbLine
 62
7
  6
CONTINUOUS
 10
125.4850008509
 20
120.4373106881
 11
136.6350008509
 21
120.4373106881
  0
LINE
  5
24B
100
AcDbEntity
  8
0
100
AcDbLine
 62
7
  6
CONTINUOUS
 10
147.7850008509
 20
120.4373106881
 11
136.6350008509
 21
120.4373106881
  0
INSERT
  5
24C
100
AcDbEntity
  8
0
100
AcDbBlockReference
 62
7
  6
CONTINUOUS
  2
_FILLED
 10
125.4850008509
 20
120.4373106881
 41
3.0
 42
3.0
 43
3.0
 50
180.0
  0
INSERT
  5
24D
100
AcDbEntity
  8
0
100
AcDbBlockReference
 62
7
  6
CONTINUOUS
  2
_FILLED
 10
147.7850008509
 20
120.4373106881
 41
3.0
 42
3.0
 43
3.0
  0
ENDBLK
  5
24E
100
AcDbEntity
  8
0
  6
BYBLOCK
 62
0
100
AcDbBlockEnd
  0
ENDSEC
  0
SECTION
  2
ENTITIES
  0
DIMENSION
  5
24F
100
AcDbEntity
  8
0
100
AcDbDimension
 62
7
  6
CONTINUOUS
  2
*D0
 10
105.162413155
 20
130.4373106881
 11
84.9360768585
 21
130.4373106881
 70
160
 71
2
 72
2
 41
0.9
 42
39.5955313817
  1
{\ftxt;\W0.0001;\H0.0001;\~}{\ftxt;\W2.8571428571;\H3.0; }{\ftxt;\W0.0001;\H0.0001;\~}
  3
DIMSTYLE_1
100
AcDbAlignedDimension
 13
65.5668817733
 23
57.8097262612
 14
105.162413155
 24
84.2009462032
100
AcDbRotatedDimension
  0
DIMENSION
  5
250
100
AcDbEntity
  8
0
100
AcDbDimension
 62
7
  6
CONTINUOUS
  2
*D1
 10
78.332413155
 20
120.4373106881
 11
91.3188396149
 21
120.4373106881
 70
160
 71
2
 72
2
 41
0.9
 42
26.83
  1
{\ftxt;\W0.0001;\H0.0001;\~}{\ftxt;\W2.9285714286;\H3.0; }{\ftxt;\W0.0001;\H0.0001;\~}
  3
DIMSTYLE_2
100
AcDbAlignedDimension
 13
105.162413155
 23
83.7204383967
 14
78.332413155
 24
99.2215122032
 50
180.0
100
AcDbRotatedDimension
  0
DIMENSION
  5
251
100
AcDbEntity
  8
0
100
AcDbDimension
 62
7
  6
CONTINUOUS
  2
*D2
 10
165.2605507864
 20
54.7215122032
 11
165.2605507864
 21
77.7929430409
 70
160
 71
2
 72
2
 41
0.9
 42
47.0
  1
{\ftxt;\W0.0001;\H0.0001;\~}{\ftxt;\W1.5714285714;\H3.0; }{\ftxt;\W0.0001;\H0.0001;\~}
  3
DIMSTYLE_1
100
AcDbAlignedDimension
 13
140.3098583291
 23
101.7215122032
 14
140.3098583291
 24
54.7215122032
 50
270.0
100
AcDbRotatedDimension
  0
DIMENSION
  5
252
100
AcDbEntity
  8
0
100
AcDbDimension
 62
7
  6
CONTINUOUS
  2
*D3
 10
147.7850008509
 20
120.4373106881
 11
136.2064269562
 21
120.4373106881
 70
160
 71
2
 72
2
 41
0.9
 42
22.3
  1
{\ftxt;\W0.0001;\H0.0001;\~}{\ftxt;\W2.8571428571;\H3.0; }{\ftxt;\W0.0001;\H0.0001;\~}
  3
DIMSTYLE_1
100
AcDbAlignedDimension
 13
125.4850008509
 23
100.1212833511
 14
147.7850008509
 24
100.1212833511
100
AcDbRotatedDimension
  0
LWPOLYLINE
  5
253
100
AcDbEntity
  8
0
100
AcDbPolyline
 62
7
  6
CONTINUOUS
 90
5
 70
0
 43
0.3500000006
 10
81.9360804749
 20
132.9015946655
 10
82.2932182617
 20
133.1158791504
 10
82.2932182617
 20
133.758732605
 10
81.9360804749
 20
134.1873197021
 10
81.0789334717
 20
134.1873197021
  0
LWPOLYLINE
  5
254
100
AcDbEntity
  8
0
100
AcDbPolyline
 62
7
  6
CONTINUOUS
 90
10
 70
0
 43
0.3500000006
 10
83.6503654175
 20
131.1873097229
 10
84.5075033569
 20
132.0444567261
 10
84.7217878418
 20
132.9015946655
 10
84.7217878418
 20
133.758732605
 10
84.2932188721
 20
134.1873197021
 10
83.6503654175
 20
134.1873197021
 10
83.221787384
 20
133.758732605
 10
83.221787384
 20
132.9015946655
 10
83.6503654175
 20
132.4730256958
 10
84.5789345398
 20
132.4730256958
  0
LWPOLYLINE
  5
255
100
AcDbEntity
  8
0
100
AcDbPolyline
 62
7
  6
CONTINUOUS
 90
10
 70
0
 43
0.3500000006
 10
88.3646512756
 20
134.1873197021
 10
87.7217887573
 20
133.5444481201
 10
87.2932197876
 20
132.6873101807
 10
87.2932197876
 20
131.6158786926
 10
87.7217887573
 20
131.1873097229
 10
88.3646512756
 20
131.1873097229
 10
88.7932202454
 20
131.6158786926
 10
88.7932202454
 20
132.4730256958
 10
88.3646512756
 20
132.9015946655
 10
87.4360730896
 20
132.9015946655
  0
LWPOLYLINE
  5
256
100
AcDbEntity
  8
0
100
AcDbPolyline
 62
7
  6
CONTINUOUS
 90
10
 70
0
 43
0.3500000006
 10
90.7831238708
 20
124.1873075867
 10
90.1402704163
 20
123.5444541321
 10
89.7117014465
 20
122.6873071289
 10
89.7117014465
 20
121.6158847046
 10
90.1402704163
 20
121.1873066711
 10
90.7831238708
 20
121.1873066711
 10
91.2117019043
 20
121.6158847046
 10
91.2117019043
 20
122.473022644
 10
90.7831238708
 20
122.9016006775
 10
89.8545547485
 20
122.9016006775
  0
LWPOLYLINE
  5
257
100
AcDbEntity
  8
RACCORDO
100
AcDbPolyline
 62
250
  6
CONTINUOUS
 90
19
 70
0
 10
66.0587105763
 20
57.8333237896
 10
66.0586139711
 20
57.7911409406
 10
66.0619212051
 20
57.7496433368
 10
66.0686322781
 20
57.7088309781
 10
66.0788435833
 20
57.6684198786
 10
66.0924587277
 20
57.6286940243
 10
66.1091885318
 20
57.5905053735
 10
66.1290930646
 20
57.5538999207
 10
66.1521122572
 20
57.5188316715
 10
66.1777767229
 20
57.4860146014
 10
66.2061445529
 20
57.4554911328
 10
66.2371576561
 20
57.4272188433
 10
66.2701723724
 20
57.4017844415
 10
66.3052489653
 20
57.379244468
 10
66.3423271712
 20
57.3595423821
 10
66.3805825396
 20
57.3430952709
 10
66.4197402537
 20
57.3300421633
 10
66.4600751301
 20
57.3202440304
 10
66.5015871691
 20
57.3137008721
  0
LWPOLYLINE
  5
258
100
AcDbEntity
  8
RACCORDO
100
AcDbPolyline
 62
250
  6
CONTINUOUS
 90
15
 70
0
 10
70.2040623825
 20
99.6331862119
 10
70.2105974401
 20
99.7368990538
 10
70.2139184832
 20
99.7873222588
 10
70.2172268049
 20
99.836049656
 10
70.22048618
 20
99.8825476729
 10
70.2236609179
 20
99.9263071294
 10
70.2267162551
 20
99.9668488401
 10
70.2296187343
 20
100.0037288316
 10
70.2323365696
 20
100.0365432022
 10
70.234839999
 20
100.0649325934
 10
70.2371016071
 20
100.0885860876
 10
70.2390966245
 20
100.1072446077
 10
70.2408032029
 20
100.1207037977
 10
70.2422026531
 20
100.1288162439
 10
70.2432796483
 20
100.1314930724
  0
LWPOLYLINE
  5
259
100
AcDbEntity
  8
RACCORDO
100
AcDbPolyline
 62
250
  6
CONTINUOUS
 90
14
 70
0
 10
66.4900130827
 20
57.2104261768
 10
66.4845276745
 20
57.1601914231
 10
66.4793242519
 20
57.1116292459
 10
66.4744597917
 20
57.0652713936
 10
66.4699875591
 20
57.0216254772
 10
66.4659565241
 20
56.9811694128
 10
66.462410826
 20
56.9443461878
 10
66.4593892897
 20
56.9115590109
 10
66.4569250005
 20
56.8831668964
 10
66.4550449419
 20
56.8594807335
 10
66.4537697005
 20
56.8407598821
 10
66.45311324
 20
56.8272093325
 10
66.4530827483
 20
56.818977461
 10
66.4536785596
 20
56.8161544055
  0
LINE
  5
25A
100
AcDbEntity
  8
RACCORDO
100
AcDbLine
 62
250
  6
CONTINUOUS
 10
66.5015871691
 20
57.3137008721
 11
66.4900130827
 21
57.2104261768
  0
LWPOLYLINE
  5
25B
100
AcDbEntity
  8
RACCORDO
100
AcDbPolyline
 62
250
  6
CONTINUOUS
 90
10
 70
0
 10
69.6776825077
 20
99.1983622473
 10
69.1057992831
 20
94.6183069891
 10
68.5763337619
 20
90.0339386162
 10
68.089285944
 20
85.4452571285
 10
67.6446210232
 20
80.8518650817
 10
67.2423738058
 20
76.2541599202
 10
66.8826487105
 20
71.6533339769
 10
66.5654805437
 20
67.0497846962
 10
66.2908344989
 20
62.4431146338
 10
66.0587105763
 20
57.8333237896
  0
LWPOLYLINE
  5
25C
100
AcDbEntity
  8
0
100
AcDbPolyline
 62
7
  6
CONTINUOUS
 90
3
 70
0
 43
0.3500000006
 10
86.2932194824
 20
131.4730253906
 10
86.2217882996
 20
131.2587409058
 10
86.0789349976
 20
130.973025238
  0
LWPOLYLINE
  5
25D
100
AcDbEntity
  8
RACCORDO
100
AcDbPolyline
 62
250
  6
CONTINUOUS
 90
9
 70
0
 10
77.3446938489
 20
100.3112657841
 10
77.3519506513
 20
100.3429253762
 10
77.3656521377
 20
100.3729227713
 10
77.3854317279
 20
100.4004553957
 10
77.4107602232
 20
100.4247866199
 10
77.4409599654
 20
100.4452654674
 10
77.4752229668
 20
100.4613440312
 10
77.5126325285
 20
100.4725921327
 10
77.5521877657
 20
100.4787088315
  0
LWPOLYLINE
  5
25E
100
AcDbEntity
  8
RACCORDO
100
AcDbPolyline
 62
250
  6
CONTINUOUS
 90
10
 70
0
 10
76.7525039172
 20
95.4882658286
 10
76.7590351135
 20
95.513213413
 10
76.7722176303
 20
95.5366353418
 10
76.7916885563
 20
95.5578868155
 10
76.8169118619
 20
95.5763827865
 10
76.847193156
 20
95.5916140654
 10
76.8816988026
 20
95.6031613392
 10
76.9194788701
 20
95.6107067144
 10
76.959493283
 20
95.6140424688
 10
77.000640455
 20
95.6130767698
  0
LWPOLYLINE
  5
25F
100
AcDbEntity
  8
RACCORDO
100
AcDbPolyline
 62
250
  6
CONTINUOUS
 90
10
 70
0
 10
76.7525039257
 20
60.9547585787
 10
76.7590433287
 20
60.9298170566
 10
76.7722317596
 20
60.906401592
 10
76.7917062503
 20
60.8851566201
 10
76.8169308295
 20
60.8666668408
 10
76.8472112739
 20
60.8514411251
 10
76.8817142145
 20
60.8398985091
 10
76.9194900719
 20
60.8323566657
 10
76.9594991897
 20
60.8290231614
 10
77.0006404488
 20
60.8299897412
  0
LWPOLYLINE
  5
260
100
AcDbEntity
  8
RACCORDO
100
AcDbPolyline
 62
250
  6
CONTINUOUS
 90
9
 70
0
 10
77.344693849
 20
56.1317586223
 10
77.3519514596
 20
56.1000996551
 10
77.365653528
 20
56.0701029447
 10
77.3854334691
 20
56.0425710229
 10
77.4107620903
 20
56.0182404788
 10
77.4409617499
 20
55.9977622514
 10
77.4752244863
 20
55.9816842153
 10
77.5126336345
 20
55.9704365222
 10
77.5521883502
 20
55.9643200927
  0
LWPOLYLINE
  5
261
100
AcDbEntity
  8
RACCORDO
100
AcDbPolyline
 62
250
  6
CONTINUOUS
 90
7
 70
0
 10
74.898632102
 20
78.0691755239
 10
74.8949492666
 20
78.1030218309
 10
74.892187432
 20
78.136876104
 10
74.8903465983
 20
78.1707383433
 10
74.8894271547
 20
78.204617074
 10
74.8894287119
 20
78.2385037708
 10
74.8903501021
 20
78.2723728577
  0
LWPOLYLINE
  5
262
100
AcDbEntity
  8
0
100
AcDbPolyline
 62
250
  6
CONTINUOUS
 90
3
 70
0
 10
77.774179898
 20
55.863153547
 10
77.7742515184
 20
55.8564156128
 10
77.7743763221
 20
55.8522065231
  0
LINE
  5
263
100
AcDbEntity
  8
RACCORDO
100
AcDbLine
 62
7
  6
CONTINUOUS
 10
76.332413155
 20
99.5284332979
 11
76.332413155
 21
99.3145911084
  0
LINE
  5
264
100
AcDbEntity
  8
RACCORDO
100
AcDbLine
 62
7
  6
CONTINUOUS
 10
76.332413155
 20
57.1284332979
 11
76.332413155
 21
56.9145911084
  0
LINE
  5
265
100
AcDbEntity
  8
RACCORDO
100
AcDbLine
 62
250
  6
CONTINUOUS
 10
76.7254320114
 20
56.5146520335
 11
76.7254320119
 21
57.5283723728
  0
LINE
  5
266
100
AcDbEntity
  8
RACCORDO
100
AcDbLine
 62
250
  6
CONTINUOUS
 10
76.7254320119
 20
98.9146520335
 11
76.7254320114
 21
99.9283723728
  0
LWPOLYLINE
  5
267
100
AcDbEntity
  8
RACCORDO
100
AcDbPolyline
 62
250
  6
CONTINUOUS
 90
3
 70
0
 10
74.8903501021
 20
78.2723728577
 10
74.8921909358
 20
78.3062158092
 10
74.8949516025
 20
78.3400411508
  0
LINE
  5
268
100
AcDbEntity
  8
RACCORDO
100
AcDbLine
 62
7
  6
CONTINUOUS
 10
76.3289469551
 20
99.7592777146
 11
72.5115254227
 21
56.1259499382
  0
LINE
  5
269
100
AcDbEntity
  8
RACCORDO
100
AcDbLine
 62
250
  6
CONTINUOUS
 10
74.8949516025
 20
78.3400411508
 11
74.898632102
 21
78.3738488824
  0
LINE
  5
26A
100
AcDbEntity
  8
RACCORDO
100
AcDbLine
 62
250
  6
CONTINUOUS
 10
76.8630913893
 20
94.3730858615
 11
76.9161895787
 21
94.8539082852
  0
LINE
  5
26B
100
AcDbEntity
  8
RACCORDO
100
AcDbLine
 62
250
  6
CONTINUOUS
 10
76.9161895787
 20
94.8539082852
 11
76.9477517674
 21
95.1386234962
  0
LINE
  5
26C
100
AcDbEntity
  8
RACCORDO
100
AcDbLine
 62
250
  6
CONTINUOUS
 10
76.9477517674
 20
95.1386234962
 11
76.9887605415
 21
95.5068503804
  0
LINE
  5
26D
100
AcDbEntity
  8
RACCORDO
100
AcDbLine
 62
250
  6
CONTINUOUS
 10
76.9887605415
 20
95.5068503804
 11
77.0006483538
 21
95.6131461325
  0
LWPOLYLINE
  5
26E
100
AcDbEntity
  8
RACCORDO
100
AcDbPolyline
 62
250
  6
CONTINUOUS
 90
4
 70
0
 10
77.0737808824
 20
96.213417888
 10
77.2824456691
 20
97.9290292772
 10
77.3484391212
 20
98.4710771816
 10
77.4124889501
 20
98.9975347634
  0
LINE
  5
26F
100
AcDbEntity
  8
RACCORDO
100
AcDbLine
 62
250
  6
CONTINUOUS
 10
77.4124889501
 20
98.9975347634
 11
77.5753274229
 21
100.3358856146
  0
LINE
  5
270
100
AcDbEntity
  8
RACCORDO
100
AcDbLine
 62
250
  6
CONTINUOUS
 10
77.5753274229
 20
100.3358856146
 11
77.5928301011
 21
100.4795285275
  0
LINE
  5
271
100
AcDbEntity
  8
RACCORDO
100
AcDbLine
 62
250
  6
CONTINUOUS
 10
77.0006481882
 20
95.6131461375
 11
77.0737808824
 21
96.213417888
  0
LINE
  5
272
100
AcDbEntity
  8
RACCORDO
100
AcDbLine
 62
7
  6
CONTINUOUS
 10
74.6548586657
 20
78.4043162183
 11
77.3510718975
 21
100.3632108214
  0
LINE
  5
273
100
AcDbEntity
  8
RACCORDO
100
AcDbLine
 62
250
  6
CONTINUOUS
 10
74.898632102
 20
78.3738488824
 11
76.8630913893
 21
94.3730858615
  0
LINE
  5
274
100
AcDbEntity
  8
0
100
AcDbLine
 62
250
  6
CONTINUOUS
 10
77.7743622022
 20
100.5906484262
 11
77.7745627616
 21
100.5922765029
  0
LINE
  5
275
100
AcDbEntity
  8
0
100
AcDbLine
 62
7
  6
CONTINUOUS
 10
80.1331296242
 20
94.0505462868
 11
80.210717411
 21
94.1281340736
  0
LINE
  5
276
100
AcDbEntity
  8
0
100
AcDbLine
 62
7
  6
CONTINUOUS
 10
80.0325443023
 20
93.7399502509
 11
80.1573324673
 21
93.864738416
  0
LINE
  5
277
100
AcDbEntity
  8
0
100
AcDbLine
 62
7
  6
CONTINUOUS
 10
80.379000736
 20
94.0864066847
 11
80.5143079963
 21
94.2217139449
  0
LINE
  5
278
100
AcDbEntity
  8
0
100
AcDbLine
 62
7
  6
CONTINUOUS
 10
80.0312724045
 20
93.5286676391
 11
80.1272280293
 21
93.6246232639
  0
LINE
  5
279
100
AcDbEntity
  8
0
100
AcDbLine
 62
7
  6
CONTINUOUS
 10
80.6065790889
 20
94.1039743235
 11
80.6986884898
 21
94.1960837244
  0
LINE
  5
27A
100
AcDbEntity
  8
0
100
AcDbLine
 62
7
  6
CONTINUOUS
 10
80.0312724045
 20
93.3186569251
 11
80.1272280293
 21
93.4146125499
  0
LINE
  5
27B
100
AcDbEntity
  8
0
100
AcDbLine
 62
7
  6
CONTINUOUS
 10
80.7598022166
 20
94.0471867372
 11
80.8395911564
 21
94.126975677
  0
LINE
  5
27C
100
AcDbEntity
  8
0
100
AcDbLine
 62
7
  6
CONTINUOUS
 10
80.0312724045
 20
93.1086462111
 11
80.1272280293
 21
93.2046018359
  0
LINE
  5
27D
100
AcDbEntity
  8
0
100
AcDbLine
 62
7
  6
CONTINUOUS
 10
80.8652654603
 20
93.9426392669
 11
80.9434148148
 21
94.0207886214
  0
LINE
  5
27E
100
AcDbEntity
  8
0
100
AcDbLine
 62
7
  6
CONTINUOUS
 10
80.0618346303
 20
92.9291977229
 11
80.1730243843
 21
93.0403874768
  0
LINE
  5
27F
100
AcDbEntity
  8
0
100
AcDbLine
 62
7
  6
CONTINUOUS
 10
80.9233283434
 20
93.790691436
 11
81.0058258107
 21
93.8731889033
  0
LINE
  5
280
100
AcDbEntity
  8
0
100
AcDbLine
 62
7
  6
CONTINUOUS
 10
80.2718453443
 20
92.9291977229
 11
80.3830350983
 21
93.0403874768
  0
LINE
  5
281
100
AcDbEntity
  8
0
100
AcDbLine
 62
7
  6
CONTINUOUS
 10
80.9351825113
 20
93.5925348899
 11
81.0304781893
 21
93.6878305679
  0
LINE
  5
282
100
AcDbEntity
  8
0
100
AcDbLine
 62
7
  6
CONTINUOUS
 10
80.052664379
 20
92.5000060435
 11
80.1637843522
 21
92.6111260168
  0
LINE
  5
283
100
AcDbEntity
  8
0
100
AcDbLine
 62
7
  6
CONTINUOUS
 10
80.4818560584
 20
92.9291977229
 11
80.5930458123
 21
93.0403874768
  0
LINE
  5
284
100
AcDbEntity
  8
0
100
AcDbLine
 62
7
  6
CONTINUOUS
 10
80.9351825113
 20
93.3825241759
 11
81.0311381361
 21
93.4784798007
  0
LINE
  5
285
100
AcDbEntity
  8
0
100
AcDbLine
 62
7
  6
CONTINUOUS
 10
80.262675093
 20
92.5000060435
 11
80.3737950662
 21
92.6111260168
  0
LINE
  5
286
100
AcDbEntity
  8
0
100
AcDbLine
 62
7
  6
CONTINUOUS
 10
80.6918667724
 20
92.9291977229
 11
80.8030565263
 21
93.0403874768
  0
LINE
  5
287
100
AcDbEntity
  8
0
100
AcDbLine
 62
7
  6
CONTINUOUS
 10
80.9351825113
 20
93.1725134619
 11
81.0311381361
 21
93.2684690867
  0
LINE
  5
288
100
AcDbEntity
  8
0
100
AcDbLine
 62
7
  6
CONTINUOUS
 10
80.472685807
 20
92.5000060435
 11
80.5838057802
 21
92.6111260168
  0
LINE
  5
289
100
AcDbEntity
  8
0
100
AcDbLine
 62
7
  6
CONTINUOUS
 10
80.9018774864
 20
92.9291977229
 11
81.0311381361
 21
93.0584583727
  0
LINE
  5
28A
100
AcDbEntity
  8
0
100
AcDbLine
 62
7
  6
CONTINUOUS
 10
80.682696521
 20
92.5000060435
 11
80.7938164943
 21
92.6111260168
  0
LINE
  5
28B
100
AcDbEntity
  8
0
100
AcDbLine
 62
7
  6
CONTINUOUS
 10
81.1118882004
 20
92.9291977229
 11
81.2230779543
 21
93.0403874768
  0
LINE
  5
28C
100
AcDbEntity
  8
0
100
AcDbLine
 62
7
  6
CONTINUOUS
 10
80.892707235
 20
92.5000060435
 11
81.0038272083
 21
92.6111260168
  0
LINE
  5
28D
100
AcDbEntity
  8
0
100
AcDbLine
 62
7
  6
CONTINUOUS
 10
81.3218989144
 20
92.9291977229
 11
81.4330886683
 21
93.0403874768
  0
LINE
  5
28E
100
AcDbEntity
  8
0
100
AcDbLine
 62
7
  6
CONTINUOUS
 10
81.102717949
 20
92.5000060435
 11
81.2103474971
 21
92.6076355916
  0
LINE
  5
28F
100
AcDbEntity
  8
0
100
AcDbLine
 62
7
  6
CONTINUOUS
 10
81.5319096284
 20
92.9291977229
 11
81.6430993823
 21
93.0403874768
  0
LINE
  5
290
100
AcDbEntity
  8
0
100
AcDbLine
 62
7
  6
CONTINUOUS
 10
80.0448578086
 20
91.2321351891
 11
80.1559788234
 21
91.3432562039
  0
LINE
  5
291
100
AcDbEntity
  8
0
100
AcDbLine
 62
7
  6
CONTINUOUS
 10
81.3002675429
 20
92.4875449234
 11
81.3937409914
 21
92.5810183719
  0
LINE
  5
292
100
AcDbEntity
  8
0
100
AcDbLine
 62
7
  6
CONTINUOUS
 10
81.7419203424
 20
92.9291977229
 11
81.8340267317
 21
93.0213041122
  0
LINE
  5
293
100
AcDbEntity
  8
0
100
AcDbLine
 62
7
  6
CONTINUOUS
 10
80.2548685226
 20
91.2321351891
 11
80.3659895374
 21
91.3432562039
  0
LINE
  5
294
100
AcDbEntity
  8
0
100
AcDbLine
 62
7
  6
CONTINUOUS
 10
81.4681896658
 20
92.4454563323
 11
81.549838001
 21
92.5271046674
  0
LINE
  5
295
100
AcDbEntity
  8
0
100
AcDbLine
 62
7
  6
CONTINUOUS
 10
80.4648792366
 20
91.2321351891
 11
80.5760002514
 21
91.3432562039
  0
LINE
  5
296
100
AcDbEntity
  8
0
100
AcDbLine
 62
7
  6
CONTINUOUS
 10
81.6015687884
 20
92.3688247409
 11
81.6767760141
 21
92.4440319666
  0
LINE
  5
297
100
AcDbEntity
  8
0
100
AcDbLine
 62
7
  6
CONTINUOUS
 10
80.032950414
 20
90.5901956525
 11
80.0507769647
 21
90.6080222032
  0
LINE
  5
298
100
AcDbEntity
  8
0
100
AcDbLine
 62
7
  6
CONTINUOUS
 10
80.6748899507
 20
91.2321351891
 11
80.7860109654
 21
91.3432562039
  0
LINE
  5
299
100
AcDbEntity
  8
0
100
AcDbLine
 62
7
  6
CONTINUOUS
 10
81.6985328296
 20
92.2557780681
 11
81.7725142293
 21
92.3297594678
  0
LINE
  5
29A
100
AcDbEntity
  8
0
100
AcDbLine
 62
250
  6
CONTINUOUS
 10
83.4752702596
 20
93.9429406213
 11
83.6895560058
 21
94.1572265911
  0
LINE
  5
29B
100
AcDbEntity
  8
0
100
AcDbLine
 62
7
  6
CONTINUOUS
 10
80.032950414
 20
90.3801849385
 11
80.234568985
 21
90.5818035095
  0
LINE
  5
29C
100
AcDbEntity
  8
0
100
AcDbLine
 62
7
  6
CONTINUOUS
 10
80.8849006647
 20
91.2321351891
 11
80.9960216794
 21
91.3432562039
  0
LINE
  5
29D
100
AcDbEntity
  8
0
100
AcDbLine
 62
7
  6
CONTINUOUS
 10
81.7602204039
 20
92.1074549283
 11
81.8389745616
 21
92.1862090861
  0
LINE
  5
29E
100
AcDbEntity
  8
0
100
AcDbLine
 62
7
  6
CONTINUOUS
 10
80.032950414
 20
90.1701742245
 11
80.234568985
 21
90.3717927955
  0
LINE
  5
29F
100
AcDbEntity
  8
0
100
AcDbLine
 62
7
  6
CONTINUOUS
 10
81.0949113787
 20
91.2321351891
 11
81.2096895579
 21
91.3469133683
  0
LINE
  5
2A0
100
AcDbEntity
  8
0
100
AcDbLine
 62
7
  6
CONTINUOUS
 10
81.7808375714
 20
91.9180613818
 11
81.8726568179
 21
92.0098806283
  0
LINE
  5
2A1
100
AcDbEntity
  8
0
100
AcDbLine
 62
7
  6
CONTINUOUS
 10
80.032950414
 20
89.9601635105
 11
80.234568985
 21
90.1617820815
  0
LINE
  5
2A2
100
AcDbEntity
  8
0
100
AcDbLine
 62
7
  6
CONTINUOUS
 10
81.3200156826
 20
91.247228779
 11
81.4816085277
 21
91.4088216242
  0
LINE
  5
2A3
100
AcDbEntity
  8
0
100
AcDbLine
 62
7
  6
CONTINUOUS
 10
81.7389422735
 20
91.6661553699
 11
81.8708534555
 21
91.7980665519
  0
LINE
  5
2A4
100
AcDbEntity
  8
0
100
AcDbLine
 62
7
  6
CONTINUOUS
 10
80.032950414
 20
89.7501527965
 11
80.234568985
 21
89.9517713675
  0
LINE
  5
2A5
100
AcDbEntity
  8
0
100
AcDbLine
 62
7
  6
CONTINUOUS
 10
80.8066696778
 20
90.5238720602
 11
80.8228028208
 21
90.5400052032
  0
LINE
  5
2A6
100
AcDbEntity
  8
0
100
AcDbLine
 62
7
  6
CONTINUOUS
 10
81.7007184641
 20
91.4179208465
 11
81.7241590346
 21
91.441361417
  0
LINE
  5
2A7
100
AcDbEntity
  8
0
100
AcDbLine
 62
250
  6
CONTINUOUS
 10
82.832413155
 20
93.9429406213
 11
83.0466988565
 21
94.121512084
  0
LINE
  5
2A8
100
AcDbEntity
  8
RACCORDO
100
AcDbLine
 62
250
  6
CONTINUOUS
 10
86.3484226771
 20
99.2467511451
 11
86.3032679529
 21
99.2292306013
  0
LINE
  5
2A9
100
AcDbEntity
  8
ASSI
100
AcDbLine
 62
250
  6
CONTINUOUS
 10
86.3484226771
 20
99.2467511451
 11
86.3032679529
 21
99.2292306013
  0
LWPOLYLINE
  5
2AA
100
AcDbEntity
  8
SUPERFICI
100
AcDbPolyline
 62
7
  6
CONTINUOUS
 90
6
 70
0
 10
82.332413155
 20
55.1216217284
 10
81.8933558118
 20
55.1124215375
 10
81.4529491532
 20
55.1032958823
 10
81.011193179
 20
55.0942476983
 10
80.5680845025
 20
55.0852845871
 10
80.1236265104
 20
55.076404378
  0
LWPOLYLINE
  5
2AB
100
AcDbEntity
  8
ASSI
100
AcDbPolyline
 62
7
  6
CONTINUOUS
 90
6
 70
0
 10
82.332413155
 20
55.1216217284
 10
81.8933558118
 20
55.1124215375
 10
81.4529491532
 20
55.1032958823
 10
81.011193179
 20
55.0942476983
 10
80.5680845025
 20
55.0852845871
 10
80.1236265104
 20
55.076404378
  0
LWPOLYLINE
  5
2AC
100
AcDbEntity
  8
SUPERFICI
100
AcDbPolyline
 62
7
  6
CONTINUOUS
 90
4
 70
0
 10
80.1236265104
 20
55.076404378
 10
79.2306964489
 20
55.0588547297
 10
78.7822243793
 20
55.0501901274
 10
78.332413155
 20
55.0416036414
  0
LWPOLYLINE
  5
2AD
100
AcDbEntity
  8
ASSI
100
AcDbPolyline
 62
7
  6
CONTINUOUS
 90
4
 70
0
 10
80.1236265104
 20
55.076404378
 10
79.2306964489
 20
55.0588547297
 10
78.7822243793
 20
55.0501901274
 10
78.332413155
 20
55.0416036414
  0
LINE
  5
2AE
100
AcDbEntity
  8
SUPERFICI
100
AcDbLine
 62
7
  6
CONTINUOUS
 10
82.332413155
 20
54.7913324629
 11
78.332413155
 21
54.7215122032
  0
LINE
  5
2AF
100
AcDbEntity
  8
ASSI
100
AcDbLine
 62
7
  6
CONTINUOUS
 10
78.332413155
 20
54.7215122032
 11
82.332413155
 21
54.7913324629
  0
LINE
  5
2B0
100
AcDbEntity
  8
SUPERFICI
100
AcDbLine
 62
250
  6
CONTINUOUS
 10
78.332413155
 20
54.8881525457
 11
82.332413155
 21
54.9584048414
  0
LINE
  5
2B1
100
AcDbEntity
  8
ASSI
100
AcDbLine
 62
250
  6
CONTINUOUS
 10
78.332413155
 20
54.8881525457
 11
82.332413155
 21
54.9584048414
  0
LWPOLYLINE
  5
2B2
100
AcDbEntity
  8
SUPERFICI
100
AcDbPolyline
 62
7
  6
CONTINUOUS
 90
9
 70
0
 10
82.332413155
 20
55.5916456005
 10
81.8933558118
 20
55.5884339139
 10
81.4529491532
 20
55.5850909227
 10
81.011193179
 20
55.5816213857
 10
80.5680845025
 20
55.5780319972
 10
80.1236265104
 20
55.5743256408
 10
79.6778293636
 20
55.5705006041
 10
79.2306964489
 20
55.5665586209
 10
78.332413155
 20
55.5583455812
  0
LWPOLYLINE
  5
2B3
100
AcDbEntity
  8
ASSI
100
AcDbPolyline
 62
7
  6
CONTINUOUS
 90
9
 70
0
 10
82.332413155
 20
55.5916456005
 10
81.8933558118
 20
55.5884339139
 10
81.4529491532
 20
55.5850909227
 10
81.011193179
 20
55.5816213857
 10
80.5680845025
 20
55.5780319972
 10
80.1236265104
 20
55.5743256408
 10
79.6778293636
 20
55.5705006041
 10
79.2306964489
 20
55.5665586209
 10
78.332413155
 20
55.5583455812
  0
LINE
  5
2B4
100
AcDbEntity
  8
SUPERFICI
100
AcDbLine
 62
7
  6
CONTINUOUS
 10
84.4819086389
 20
56.0215122032
 11
83.932413155
 21
56.0215122032
  0
LINE
  5
2B5
100
AcDbEntity
  8
ASSI
100
AcDbLine
 62
7
  6
CONTINUOUS
 10
84.4819086389
 20
56.0215122032
 11
83.932413155
 21
56.0215122032
  0
LINE
  5
2B6
100
AcDbEntity
  8
0
100
AcDbLine
 62
250
  6
CONTINUOUS
 10
77.779795294
 20
56.3507025301
 11
77.632413155
 21
56.3507025301
  0
LINE
  5
2B7
100
AcDbEntity
  8
DRAFT
100
AcDbLine
 62
7
  6
CONTINUOUS
 10
76.7254321924
 20
56.5146520303
 11
77.2989095337
 21
56.5046419461
  0
LINE
  5
2B8
100
AcDbEntity
  8
RACCORDO
100
AcDbLine
 62
250
  6
CONTINUOUS
 10
77.5521883502
 20
55.9643200927
 11
77.5928303868
 21
55.9634985658
  0
LINE
  5
2B9
100
AcDbEntity
  8
RACCORDO
100
AcDbLine
 62
250
  6
CONTINUOUS
 10
65.6935328231
 20
57.8498980744
 11
65.5706175023
 21
57.8553146947
  0
LINE
  5
2BA
100
AcDbEntity
  8
RACCORDO
100
AcDbLine
 62
250
  6
CONTINUOUS
 10
66.0587105763
 20
57.8333237896
 11
65.6935328231
 21
57.8498980744
  0
LINE
  5
2BB
100
AcDbEntity
  8
0
100
AcDbLine
 62
7
  6
CONTINUOUS
 10
77.5861244463
 20
55.8606235371
 11
78.332413155
 21
55.8215122032
  0
LINE
  5
2BC
100
AcDbEntity
  8
0
100
AcDbLine
 62
250
  6
CONTINUOUS
 10
77.779795294
 20
56.3507025301
 11
78.332413155
 21
56.3217410552
  0
LINE
  5
2BD
100
AcDbEntity
  8
0
100
AcDbLine
 62
250
  6
CONTINUOUS
 10
77.6376917368
 20
55.9610998334
 11
77.5928300837
 21
55.9634960152
  0
LINE
  5
2BE
100
AcDbEntity
  8
RACCORDO
100
AcDbLine
 62
7
  6
CONTINUOUS
 10
66.4536785596
 20
56.8161544055
 11
72.5115254227
 21
56.1259499382
  0
LINE
  5
2BF
100
AcDbEntity
  8
RACCORDO
100
AcDbLine
 62
250
  6
CONTINUOUS
 10
66.5015871691
 20
57.3137008721
 11
72.5550983169
 21
56.6239903971
  0
LWPOLYLINE
  5
2C0
100
AcDbEntity
  8
RACCORDO
100
AcDbPolyline
 62
250
  6
CONTINUOUS
 90
9
 70
0
 10
86.3032679527
 20
57.2137938089
 10
86.3493055902
 20
57.1971807218
 10
86.3944149169
 20
57.1846996418
 10
86.4381573029
 20
57.1768840405
 10
86.4802936977
 20
57.1744353302
 10
86.520322194
 20
57.1773298008
 10
86.5574237823
 20
57.1849763688
 10
86.5911331349
 20
57.1973398409
 10
86.6214020142
 20
57.2147642192
  0
LWPOLYLINE
  5
2C1
100
AcDbEntity
  8
ASSI
100
AcDbPolyline
 62
250
  6
CONTINUOUS
 90
9
 70
0
 10
86.3032679527
 20
57.2137938089
 10
86.3493055902
 20
57.1971807218
 10
86.3944149169
 20
57.1846996418
 10
86.4381573029
 20
57.1768840405
 10
86.4802936977
 20
57.1744353302
 10
86.520322194
 20
57.1773298008
 10
86.5574237823
 20
57.1849763688
 10
86.5911331349
 20
57.1973398409
 10
86.6214020142
 20
57.2147642192
  0
LINE
  5
2C2
100
AcDbEntity
  8
0
100
AcDbLine
 62
250
  6
CONTINUOUS
 10
81.5716713411
 20
63.5165362032
 11
82.0000718163
 21
63.0408662032
  0
LINE
  5
2C3
100
AcDbEntity
  8
0
100
AcDbLine
 62
250
  6
CONTINUOUS
 10
77.7743763221
 20
55.8522065231
 11
77.7745627616
 21
55.8507479035
  0
LINE
  5
2C4
100
AcDbEntity
  8
RACCORDO
100
AcDbLine
 62
7
  6
CONTINUOUS
 10
77.3510718975
 20
56.0798135849
 11
74.6548586657
 21
78.0387081881
  0
LINE
  5
2C5
100
AcDbEntity
  8
RACCORDO
100
AcDbLine
 62
250
  6
CONTINUOUS
 10
76.8630913893
 20
62.0699385448
 11
74.898632102
 21
78.0691755239
  0
LINE
  5
2C6
100
AcDbEntity
  8
RACCORDO
100
AcDbLine
 62
250
  6
CONTINUOUS
 10
77.0737774641
 20
60.2296343645
 11
77.0006418091
 21
60.8299325358
  0
LINE
  5
2C7
100
AcDbEntity
  8
RACCORDO
100
AcDbLine
 62
250
  6
CONTINUOUS
 10
77.5928300837
 20
55.9634960152
 11
77.5235791806
 21
56.5319748511
  0
LWPOLYLINE
  5
2C8
100
AcDbEntity
  8
RACCORDO
100
AcDbPolyline
 62
250
  6
CONTINUOUS
 90
4
 70
0
 10
77.4124893592
 20
57.4454871259
 10
77.2146554981
 20
59.071229139
 10
77.1451153604
 20
59.6432540524
 10
77.0737774641
 20
60.2296343645
  0
LINE
  5
2C9
100
AcDbEntity
  8
RACCORDO
100
AcDbLine
 62
250
  6
CONTINUOUS
 10
77.5235791806
 20
56.5319748511
 11
77.4124893592
 21
57.4454871259
  0
LWPOLYLINE
  5
2CA
100
AcDbEntity
  8
RACCORDO
100
AcDbPolyline
 62
250
  6
CONTINUOUS
 90
3
 70
0
 10
77.000641854
 20
60.8299325369
 10
76.9854333286
 20
60.9641326473
 10
76.970104563
 20
61.102018955
  0
LINE
  5
2CB
100
AcDbEntity
  8
RACCORDO
100
AcDbLine
 62
250
  6
CONTINUOUS
 10
76.9391081754
 20
61.3828313981
 11
76.9234768807
 21
61.5231801001
  0
LWPOLYLINE
  5
2CC
100
AcDbEntity
  8
RACCORDO
100
AcDbPolyline
 62
250
  6
CONTINUOUS
 90
5
 70
0
 10
76.9234768807
 20
61.5231801001
 10
76.908028273
 20
61.6628550066
 10
76.8928487488
 20
61.8011955938
 10
76.8778686043
 20
61.9371288934
 10
76.8630913893
 20
62.0699385448
  0
LINE
  5
2CD
100
AcDbEntity
  8
RACCORDO
100
AcDbLine
 62
250
  6
CONTINUOUS
 10
76.970104563
 20
61.102018955
 11
76.9391081754
 21
61.3828313981
  0
LWPOLYLINE
  5
2CE
100
AcDbEntity
  8
RACCORDO
100
AcDbPolyline
 62
250
  6
CONTINUOUS
 90
4
 70
0
 10
82.479795294
 20
57.024084768
 10
82.4797561381
 20
57.0244590444
 10
82.479723891
 20
57.0256292763
 10
82.4796971081
 20
57.0276647903
  0
LWPOLYLINE
  5
2CF
100
AcDbEntity
  8
ASSI
100
AcDbPolyline
 62
250
  6
CONTINUOUS
 90
4
 70
0
 10
82.479795294
 20
57.024084768
 10
82.4797561381
 20
57.0244590444
 10
82.479723891
 20
57.0256292763
 10
82.4796971081
 20
57.0276647903
  0
LWPOLYLINE
  5
2D0
100
AcDbEntity
  8
0
100
AcDbPolyline
 62
250
  6
CONTINUOUS
 90
12
 70
0
 10
80.5338352772
 20
77.7096962974
 10
80.5335090475
 20
77.7228530472
 10
80.5332821349
 20
77.736003901
 10
80.5331547296
 20
77.7491480221
 10
80.5331270216
 20
77.7622845738
 10
80.5331992011
 20
77.7754127192
 10
80.5333714582
 20
77.7885316216
 10
80.5336439832
 20
77.8016404444
 10
80.5340169661
 20
77.8147383506
 10
80.5344905971
 20
77.8278245037
 10
80.5350650663
 20
77.8408980668
 10
80.5357405639
 20
77.8539582032
  0
LINE
  5
2D1
100
AcDbEntity
  8
0
100
AcDbLine
 62
250
  6
CONTINUOUS
 10
77.779795294
 20
100.0923218762
 11
77.7790339926
 21
100.1421040438
  0
LINE
  5
2D2
100
AcDbEntity
  8
0
100
AcDbLine
 62
250
  6
CONTINUOUS
 10
77.7790339926
 20
100.1421040438
 11
77.7770699253
 21
100.2778779366
  0
LINE
  5
2D3
100
AcDbEntity
  8
0
100
AcDbLine
 62
250
  6
CONTINUOUS
 10
77.7770699253
 20
100.2778779366
 11
77.7756013034
 21
100.3928609015
  0
LWPOLYLINE
  5
2D4
100
AcDbEntity
  8
RACCORDO
100
AcDbPolyline
 62
250
  6
CONTINUOUS
 90
9
 70
0
 10
77.5928304202
 20
100.4795285445
 10
77.5926970463
 20
100.4931714514
 10
77.5924837954
 20
100.5063065968
 10
77.5921959211
 20
100.518820221
 10
77.5918523809
 20
100.530582789
 10
77.5914472649
 20
100.5414828439
 10
77.5909500747
 20
100.5514158613
 10
77.5903734918
 20
100.5602361009
 10
77.5897243124
 20
100.5677983167
  0
LINE
  5
2D5
100
AcDbEntity
  8
0
100
AcDbLine
 62
250
  6
CONTINUOUS
 10
77.7756013034
 20
100.3928609015
 11
77.7745766773
 21
100.4909673744
  0
LWPOLYLINE
  5
2D6
100
AcDbEntity
  8
0
100
AcDbPolyline
 62
250
  6
CONTINUOUS
 90
59
 70
0
 10
81.0311381361
 20
93.6566184049
 10
81.0310461791
 20
93.6710759816
 10
81.0307638538
 20
93.685632399
 10
81.030281479
 20
93.7002717952
 10
81.0295893734
 20
93.7149783083
 10
81.0286778559
 20
93.7297360764
 10
81.0275372451
 20
93.7445292377
 10
81.0261578598
 20
93.7593419302
 10
81.0245300187
 20
93.774158292
 10
81.0226440407
 20
93.7889624614
 10
81.0204902445
 20
93.8037385763
 10
81.0180589487
 20
93.8184707749
 10
81.0153404722
 20
93.8331431954
 10
81.0123251338
 20
93.8477399757
 10
81.0090032521
 20
93.8622452542
 10
81.005365146
 20
93.8766431688
 10
81.0014011341
 20
93.8909178577
 10
80.9971015353
 20
93.905053459
 10
80.9924566682
 20
93.9190341108
 10
80.9874568517
 20
93.9328439512
 10
80.9820924045
 20
93.9464671184
 10
80.9763536453
 20
93.9598877504
 10
80.9702308929
 20
93.9730899854
 10
80.9637144661
 20
93.9860579615
 10
80.9567946836
 20
93.9987758168
 10
80.9494618641
 20
94.0112276894
 10
80.9417063264
 20
94.0233977175
 10
80.9335183893
 20
94.0352700391
 10
80.9248883715
 20
94.0468287923
 10
80.9158065917
 20
94.0580581154
 10
80.9063623732
 20
94.0688410392
 10
80.896484791
 20
94.0792826058
 10
80.8861930709
 20
94.0893801246
 10
80.8755064384
 20
94.0991309049
 10
80.8644441191
 20
94.1085322564
 10
80.8530253387
 20
94.1175814884
 10
80.8412693227
 20
94.1262759105
 10
80.8291952967
 20
94.134612832
 10
80.8168224863
 20
94.1425895625
 10
80.8041701172
 20
94.1502034114
 10
80.7912574149
 20
94.1574516883
 10
80.778103605
 20
94.1643317025
 10
80.7647279132
 20
94.1708407635
 10
80.751149565
 20
94.1769761808
 10
80.7373877861
 20
94.1827352639
 10
80.723461802
 20
94.1881153221
 10
80.7093908384
 20
94.1931136651
 10
80.6951941208
 20
94.1977276023
 10
80.6808908748
 20
94.2019544431
 10
80.6665003262
 20
94.2057914969
 10
80.6520417003
 20
94.2092360734
 10
80.6375342229
 20
94.2122854818
 10
80.6229971196
 20
94.2149370318
 10
80.608449616
 20
94.2171880327
 10
80.5939109376
 20
94.219035794
 10
80.5794003101
 20
94.2204776252
 10
80.564936959
 20
94.2215108358
 10
80.55054011
 20
94.2221327352
 10
80.5362289887
 20
94.2223406329
  0
LINE
  5
2D7
100
AcDbEntity
  8
0
100
AcDbLine
 62
250
  6
CONTINUOUS
 10
77.7745766773
 20
100.4909673744
 11
77.7742032301
 21
100.5435597191
  0
LWPOLYLINE
  5
2D8
100
AcDbEntity
  8
0
100
AcDbPolyline
 62
250
  6
CONTINUOUS
 90
5
 70
0
 10
77.7742032301
 20
100.5435597191
 10
77.7741475782
 20
100.5689959547
 10
77.7741716377
 20
100.5786490486
 10
77.7742362367
 20
100.5859996217
 10
77.7743622022
 20
100.5906484262
  0
LINE
  5
2D9
100
AcDbEntity
  8
0
100
AcDbLine
 62
7
  6
CONTINUOUS
 10
77.632413155
 20
61.3331230207
 11
77.632413155
 21
56.0005423337
  0
LINE
  5
2DA
100
AcDbEntity
  8
0
100
AcDbLine
 62
7
  6
CONTINUOUS
 10
77.632413155
 20
95.1099013856
 11
77.632413155
 21
100.4424820727
  0
LINE
  5
2DB
100
AcDbEntity
  8
0
100
AcDbLine
 62
250
  6
CONTINUOUS
 10
77.779795294
 20
62.0901439824
 11
77.779795294
 21
56.3507025301
  0
LINE
  5
2DC
100
AcDbEntity
  8
0
100
AcDbLine
 62
250
  6
CONTINUOUS
 10
77.779795294
 20
94.3528804239
 11
77.779795294
 21
100.0923218762
  0
LINE
  5
2DD
100
AcDbEntity
  8
0
100
AcDbLine
 62
7
  6
CONTINUOUS
 10
78.332413155
 20
100.6215122032
 11
78.332413155
 21
55.8215122032
  0
LINE
  5
2DE
100
AcDbEntity
  8
SUPERFICI
100
AcDbLine
 62
7
  6
CONTINUOUS
 10
78.332413155
 20
55.8215122032
 11
78.332413155
 21
55.5583455812
  0
LINE
  5
2DF
100
AcDbEntity
  8
ASSI
100
AcDbLine
 62
7
  6
CONTINUOUS
 10
78.332413155
 20
55.8215122032
 11
78.332413155
 21
55.5583455812
  0
LINE
  5
2E0
100
AcDbEntity
  8
SUPERFICI
100
AcDbLine
 62
7
  6
CONTINUOUS
 10
78.332413155
 20
55.2527597751
 11
78.332413155
 21
54.7215122032
  0
LINE
  5
2E1
100
AcDbEntity
  8
ASSI
100
AcDbLine
 62
7
  6
CONTINUOUS
 10
78.332413155
 20
55.2527597751
 11
78.332413155
 21
54.7215122032
  0
LINE
  5
2E2
100
AcDbEntity
  8
SUPERFICI
100
AcDbLine
 62
7
  6
CONTINUOUS
 10
78.332413155
 20
61.5165274941
 11
78.332413155
 21
95.5809417723
  0
LINE
  5
2E3
100
AcDbEntity
  8
ASSI
100
AcDbLine
 62
7
  6
CONTINUOUS
 10
78.332413155
 20
61.5165274941
 11
78.332413155
 21
95.5809417723
  0
LINE
  5
2E4
100
AcDbEntity
  8
SUPERFICI
100
AcDbLine
 62
7
  6
CONTINUOUS
 10
78.332413155
 20
100.3717996407
 11
78.332413155
 21
101.7215122032
  0
LINE
  5
2E5
100
AcDbEntity
  8
ASSI
100
AcDbLine
 62
7
  6
CONTINUOUS
 10
78.332413155
 20
100.3717996407
 11
78.332413155
 21
101.7215122032
  0
LINE
  5
2E6
100
AcDbEntity
  8
0
100
AcDbLine
 62
250
  6
CONTINUOUS
 10
79.6256472543
 20
72.3222022032
 11
79.6256472543
 21
71.8422472032
  0
LINE
  5
2E7
100
AcDbEntity
  8
0
100
AcDbLine
 62
250
  6
CONTINUOUS
 10
80.0312671986
 20
91.2321351891
 11
80.0312671986
 21
91.3432562039
  0
LINE
  5
2E8
100
AcDbEntity
  8
0
100
AcDbLine
 62
250
  6
CONTINUOUS
 10
80.0312671986
 20
92.5000060435
 11
80.0312671986
 21
92.6111260168
  0
LINE
  5
2E9
100
AcDbEntity
  8
0
100
AcDbLine
 62
250
  6
CONTINUOUS
 10
80.0312724045
 20
92.9291977229
 11
80.0312724045
 21
93.6970089092
  0
LINE
  5
2EA
100
AcDbEntity
  8
0
100
AcDbLine
 62
250
  6
CONTINUOUS
 10
80.032950414
 20
84.1215122032
 11
80.032950414
 21
84.3761412032
  0
LINE
  5
2EB
100
AcDbEntity
  8
0
100
AcDbLine
 62
250
  6
CONTINUOUS
 10
80.032950414
 20
85.3290952032
 11
80.032950414
 21
85.5559952032
  0
LINE
  5
2EC
100
AcDbEntity
  8
0
100
AcDbLine
 62
250
  6
CONTINUOUS
 10
80.032950414
 20
86.0576232032
 11
80.032950414
 21
87.3004942032
  0
LINE
  5
2ED
100
AcDbEntity
  8
0
100
AcDbLine
 62
250
  6
CONTINUOUS
 10
80.032950414
 20
89.3651672032
 11
80.032950414
 21
90.6080222032
  0
LINE
  5
2EE
100
AcDbEntity
  8
0
100
AcDbLine
 62
250
  6
CONTINUOUS
 10
80.0329564122
 20
87.5122282032
 11
80.0329564122
 21
87.7718562032
  0
LINE
  5
2EF
100
AcDbEntity
  8
0
100
AcDbLine
 62
250
  6
CONTINUOUS
 10
80.0329564122
 20
88.8105402032
 11
80.0329564122
 21
89.0601352032
  0
LINE
  5
2F0
100
AcDbEntity
  8
0
100
AcDbLine
 62
250
  6
CONTINUOUS
 10
80.1272280293
 20
93.6894153152
 11
80.1272280293
 21
93.0403874768
  0
LINE
  5
2F1
100
AcDbEntity
  8
0
100
AcDbLine
 62
250
  6
CONTINUOUS
 10
80.234568985
 20
90.6080222032
 11
80.234568985
 21
89.6046602032
  0
LINE
  5
2F2
100
AcDbEntity
  8
0
100
AcDbLine
 62
250
  6
CONTINUOUS
 10
80.234568985
 20
87.3004942032
 11
80.234568985
 21
86.2971332032
  0
LINE
  5
2F3
100
AcDbEntity
  8
0
100
AcDbLine
 62
250
  6
CONTINUOUS
 10
80.3675552103
 20
71.2972402032
 11
80.3675552103
 21
68.9290402032
  0
LINE
  5
2F4
100
AcDbEntity
  8
0
100
AcDbLine
 62
250
  6
CONTINUOUS
 10
80.8066696778
 20
86.2971332032
 11
80.8066696778
 21
87.2324262032
  0
LINE
  5
2F5
100
AcDbEntity
  8
0
100
AcDbLine
 62
250
  6
CONTINUOUS
 10
80.8066696778
 20
89.6046602032
 11
80.8066696778
 21
90.5400052032
  0
LINE
  5
2F6
100
AcDbEntity
  8
0
100
AcDbLine
 62
250
  6
CONTINUOUS
 10
80.9351825113
 20
93.0403874768
 11
80.9351825113
 21
93.674279161
  0
LINE
  5
2F7
100
AcDbEntity
  8
0
100
AcDbLine
 62
250
  6
CONTINUOUS
 10
81.0083042439
 20
90.5400052032
 11
81.0083042439
 21
89.6046602032
  0
LINE
  5
2F8
100
AcDbEntity
  8
0
100
AcDbLine
 62
250
  6
CONTINUOUS
 10
81.0083042439
 20
87.2324262032
 11
81.0083042439
 21
86.2971332032
  0
LINE
  5
2F9
100
AcDbEntity
  8
0
100
AcDbLine
 62
250
  6
CONTINUOUS
 10
81.0311381361
 20
93.6566184049
 11
81.0311381361
 21
93.0403874768
  0
LINE
  5
2FA
100
AcDbEntity
  8
0
100
AcDbLine
 62
250
  6
CONTINUOUS
 10
81.1250504172
 20
71.8422472032
 11
81.1250504172
 21
72.4421912032
  0
LINE
  5
2FB
100
AcDbEntity
  8
0
100
AcDbLine
 62
250
  6
CONTINUOUS
 10
77.7741501818
 20
55.883089835
 11
77.774179898
 21
55.863153547
  0
LINE
  5
2FC
100
AcDbEntity
  8
0
100
AcDbLine
 62
250
  6
CONTINUOUS
 10
77.7743915628
 20
55.9290562761
 11
77.7741501818
 21
55.883089835
  0
LINE
  5
2FD
100
AcDbEntity
  8
0
100
AcDbLine
 62
250
  6
CONTINUOUS
 10
77.775291313
 20
56.0228101069
 11
77.7743915628
 21
55.9290562761
  0
LINE
  5
2FE
100
AcDbEntity
  8
0
100
AcDbLine
 62
250
  6
CONTINUOUS
 10
77.7766778482
 20
56.1354975953
 11
77.775291313
 21
56.0228101069
  0
LWPOLYLINE
  5
2FF
100
AcDbEntity
  8
0
100
AcDbPolyline
 62
250
  6
CONTINUOUS
 90
89
 70
0
 10
80.1272280293
 20
93.6894153152
 10
80.1274348309
 20
93.7042773964
 10
80.1280582392
 20
93.7192481046
 10
80.1291027597
 20
93.734298319
 10
80.1305728979
 20
93.7493989189
 10
80.1324731591
 20
93.7645207832
 10
80.1348080488
 20
93.7796347913
 10
80.1375820726
 20
93.7947118221
 10
80.1407997357
 20
93.809722755
 10
80.1444655437
 20
93.8246384691
 10
80.1485840019
 20
93.8394298435
 10
80.153159616
 20
93.8540677574
 10
80.1581968911
 20
93.8685230899
 10
80.1637003329
 20
93.8827667202
 10
80.1696744468
 20
93.8967695275
 10
80.1761237381
 20
93.9105023909
 10
80.1830527125
 20
93.9239361896
 10
80.1904658751
 20
93.9370418027
 10
80.1983677317
 20
93.9497901094
 10
80.2067627875
 20
93.9621519888
 10
80.215655548
 20
93.9740983202
 10
80.2250505186
 20
93.9855999826
 10
80.2349522049
 20
93.9966278553
 10
80.2453007816
 20
94.0071000901
 10
80.2561313273
 20
94.0170744958
 10
80.2674202918
 20
94.026550544
 10
80.2791441255
 20
94.0355277068
 10
80.2912792783
 20
94.0440054557
 10
80.3038022005
 20
94.0519832628
 10
80.3166893422
 20
94.0594605997
 10
80.3299171535
 20
94.0664369383
 10
80.3434620844
 20
94.0729117504
 10
80.3573005852
 20
94.0788845078
 10
80.3714091059
 20
94.0843546823
 10
80.3857640967
 20
94.0893217457
 10
80.4003420077
 20
94.0937851699
 10
80.415119289
 20
94.0977444267
 10
80.4300723908
 20
94.1011989878
 10
80.4451777631
 20
94.104148325
 10
80.4604118561
 20
94.1065919103
 10
80.4757511199
 20
94.1085292154
 10
80.4911720046
 20
94.109959712
 10
80.5066509605
 20
94.1108828721
 10
80.5221644374
 20
94.1112981675
 10
80.5376888857
 20
94.1112050698
 10
80.5531500585
 20
94.1106062572
 10
80.5685758624
 20
94.1095037445
 10
80.5839434247
 20
94.1078994236
 10
80.5992298729
 20
94.1057951864
 10
80.6144123344
 20
94.103192925
 10
80.6294679365
 20
94.1000945313
 10
80.6443738066
 20
94.0965018972
 10
80.6591070721
 20
94.0924169147
 10
80.6736448604
 20
94.0878414758
 10
80.6879642988
 20
94.0827774725
 10
80.7020425149
 20
94.0772267967
 10
80.7158566359
 20
94.0711913403
 10
80.7293837892
 20
94.0646729954
 10
80.7426011022
 20
94.0576736538
 10
80.7554857023
 20
94.0501952076
 10
80.7680147169
 20
94.0422395488
 10
80.7801652734
 20
94.0338085692
 10
80.7919144992
 20
94.0249041608
 10
80.8032395215
 20
94.0155282157
 10
80.814117468
 20
94.0056826257
 10
80.8245254658
 20
93.9953692828
 10
80.8344406424
 20
93.984590079
 10
80.8439467153
 20
93.9732237821
 10
80.8529331413
 20
93.9614110028
 10
80.8614074832
 20
93.9491795886
 10
80.8693773037
 20
93.9365573868
 10
80.8768501656
 20
93.923572245
 10
80.8838336318
 20
93.9102520105
 10
80.8903352651
 20
93.8966245309
 10
80.8963626282
 20
93.8827176534
 10
80.9019232839
 20
93.8685592255
 10
80.9070247951
 20
93.8541770947
 10
80.9116747245
 20
93.8395991084
 10
80.9158806349
 20
93.8248531141
 10
80.9196500892
 20
93.809966959
 10
80.9229906501
 20
93.7949684908
 10
80.9259098804
 20
93.7798855568
 10
80.928415343
 20
93.7647460045
 10
80.9305146005
 20
93.7495776812
 10
80.9322152159
 20
93.7344084344
 10
80.9335247518
 20
93.7192661116
 10
80.9344507712
 20
93.7041785601
 10
80.9350008368
 20
93.6891736274
 10
80.9351825113
 20
93.674279161
  0
LINE
  5
300
100
AcDbEntity
  8
0
100
AcDbLine
 62
250
  6
CONTINUOUS
 10
77.7778258902
 20
56.2190197137
 11
77.7766778482
 21
56.1354975953
  0
LWPOLYLINE
  5
301
100
AcDbEntity
  8
0
100
AcDbPolyline
 62
250
  6
CONTINUOUS
 90
3
 70
0
 10
77.779795294
 20
56.3507025301
 10
77.7794007076
 20
56.3249096596
 10
77.7778258902
 20
56.2190197137
  0
LWPOLYLINE
  5
302
100
AcDbEntity
  8
0
100
AcDbPolyline
 62
250
  6
CONTINUOUS
 90
80
 70
0
 10
79.7851522527
 20
82.2390712032
 10
79.7833184095
 20
82.1380431741
 10
79.78569572
 20
82.0366797305
 10
79.7922381264
 20
81.935171604
 10
79.802899571
 20
81.8337095261
 10
79.8176339961
 20
81.7324842283
 10
79.8363953442
 20
81.6316864424
 10
79.8591375573
 20
81.5315068999
 10
79.885814578
 20
81.4321363324
 10
79.9163803484
 20
81.3337654715
 10
79.950788811
 20
81.2365850487
 10
79.9889939079
 20
81.1407857956
 10
80.0309495816
 20
81.0465584439
 10
80.0766097744
 20
80.9540937251
 10
80.1259284285
 20
80.8635823708
 10
80.1788594863
 20
80.7752151126
 10
80.2353568901
 20
80.6891826821
 10
80.295359667
 20
80.6056597696
 10
80.3587471834
 20
80.5247569006
 10
80.4253838904
 20
80.4465685593
 10
80.4951342393
 20
80.3711892297
 10
80.5678626812
 20
80.2987133962
 10
80.6434336673
 20
80.2292355428
 10
80.7217116487
 20
80.1628501538
 10
80.8025610767
 20
80.0996517134
 10
80.8858464025
 20
80.0397347057
 10
80.9714320771
 20
79.983193615
 10
81.0591825518
 20
79.9301229253
 10
81.1489622778
 20
79.880617121
 10
81.2406357062
 20
79.8347706861
 10
81.3340672882
 20
79.7926781048
 10
81.429121475
 20
79.7544338614
 10
81.5256627177
 20
79.72013244
 10
81.6235499028
 20
79.6898525775
 10
81.7226196569
 20
79.6636100213
 10
81.8227030419
 20
79.6414047715
 10
81.9236311199
 20
79.6232368282
 10
82.0252349527
 20
79.6091061915
 10
82.1273456022
 20
79.5990128615
 10
82.2297941303
 20
79.5929568384
 10
82.332411599
 20
79.5909381222
 10
82.4350290701
 20
79.592956713
 10
82.5374776056
 20
79.5990126109
 10
82.6395882674
 20
79.6091058161
 10
82.7411921175
 20
79.6232363286
 10
82.8421202176
 20
79.6414041486
 10
82.9422036298
 20
79.6636092761
 10
83.041273416
 20
79.6898517112
 10
83.139160638
 20
79.7201314541
 10
83.2357019226
 20
79.7544327575
 10
83.3307561561
 20
79.7926768848
 10
83.4241877896
 20
79.8347693518
 10
83.515861274
 20
79.8806156747
 10
83.6056410604
 20
79.9301213694
 10
83.6933915999
 20
79.9831919518
 10
83.7789773436
 20
80.0397329379
 10
83.8622627425
 20
80.0996498438
 10
83.9431122477
 20
80.1628481855
 10
84.0213903102
 20
80.2292334788
 10
84.0969613812
 20
80.2987112398
 10
84.1696899116
 20
80.3711869844
 10
84.2394403525
 20
80.4465662287
 10
84.306077155
 20
80.5247544887
 10
84.3694647702
 20
80.6056572802
 10
84.4294676491
 20
80.6891801193
 10
84.485965158
 20
80.7752124808
 10
84.5388963237
 20
80.8635796743
 10
84.5882150884
 20
80.9540909683
 10
84.6338753941
 20
81.0465556313
 10
84.6758311829
 20
81.1407829318
 10
84.7140363968
 20
81.2365821381
 10
84.7484449781
 20
81.3337625189
 10
84.7790108687
 20
81.4321333425
 10
84.8056880107
 20
81.5315038774
 10
84.8284303462
 20
81.6316833921
 10
84.8471918173
 20
81.7324811551
 10
84.8619263661
 20
81.8337064348
 10
84.8725879346
 20
81.9351684997
 10
84.879130465
 20
82.0366766182
 10
84.8815078992
 20
82.1380400589
  0
LWPOLYLINE
  5
303
100
AcDbEntity
  8
0
100
AcDbPolyline
 62
250
  6
CONTINUOUS
 90
80
 70
0
 10
79.7851522527
 20
77.8539582032
 10
79.7833185281
 20
77.7529302124
 10
79.7856959543
 20
77.6515668123
 10
79.7922384733
 20
77.5500587342
 10
79.8029000272
 20
77.4485967095
 10
79.8176345583
 20
77.3473714695
 10
79.8363960087
 20
77.2465737455
 10
79.8591383206
 20
77.1463942688
 10
79.885815436
 20
77.0470237708
 10
79.9163812973
 20
76.9486529827
 10
79.9507898466
 20
76.8514726359
 10
79.9889950259
 20
76.7556734617
 10
80.0309507775
 20
76.6614461915
 10
80.0766110436
 20
76.5689815565
 10
80.1259297662
 20
76.4784702881
 10
80.1788608876
 20
76.3901031175
 10
80.23535835
 20
76.3040707762
 10
80.2953611803
 20
76.2205479542
 10
80.3587487449
 20
76.1396451767
 10
80.4253854951
 20
76.0614569276
 10
80.4951358821
 20
75.986077691
 10
80.5678643573
 20
75.9136019507
 10
80.6434353719
 20
75.8441241908
 10
80.7217133771
 20
75.7777388952
 10
80.8025628242
 20
75.7145405479
 10
80.8858481645
 20
75.6546236328
 10
80.9714338492
 20
75.5980826339
 10
81.0591843296
 20
75.5450120352
 10
81.1489640569
 20
75.4955063205
 10
81.2406374824
 20
75.449659974
 10
81.3340690573
 20
75.4075674795
 10
81.429123233
 20
75.369323321
 10
81.5256644606
 20
75.3350219824
 10
81.6235516266
 20
75.3047422005
 10
81.722621358
 20
75.2784997225
 10
81.8227047168
 20
75.2562945484
 10
81.9236327651
 20
75.2381266783
 10
82.0252365651
 20
75.2239961121
 10
82.1273471789
 20
75.2139028498
 10
82.2297956686
 20
75.2078468915
 10
82.3324130963
 20
75.2058282372
 10
82.435030524
 20
75.2078468868
 10
82.5374790139
 20
75.2139028403
 10
82.6395896282
 20
75.2239960979
 10
82.7411934289
 20
75.2381266594
 10
82.8421214781
 20
75.2562945249
 10
82.9422048379
 20
75.2784996943
 10
83.0412745704
 20
75.3047421678
 10
83.1391617379
 20
75.3350219452
 10
83.2357029671
 20
75.3693232793
 10
83.3307571445
 20
75.4075674334
 10
83.4241887214
 20
75.4496599236
 10
83.515862149
 20
75.4955062659
 10
83.6056418786
 20
75.5450119764
 10
83.6933923614
 20
75.5980825711
 10
83.7789780487
 20
75.6546235661
 10
83.8622633917
 20
75.7145404773
 10
83.9431128417
 20
75.7777388209
 10
84.02139085
 20
75.8441241129
 10
84.0969618678
 20
75.9136018693
 10
84.1696903463
 20
75.9860776062
 10
84.2394407369
 20
76.0614568396
 10
84.3060774907
 20
76.1396450856
 10
84.3694650591
 20
76.2205478602
 10
84.4294678932
 20
76.3040706794
 10
84.4859653595
 20
76.3901030181
 10
84.538896485
 20
76.4784701862
 10
84.5882152118
 20
76.5689814524
 10
84.6338754821
 20
76.6614460853
 10
84.6758312381
 20
76.7556733536
 10
84.7140364218
 20
76.851472526
 10
84.7484449756
 20
76.9486528712
 10
84.7790108414
 20
77.0470236579
 10
84.8056879614
 20
77.1463941547
 10
84.8284302779
 20
77.2465736303
 10
84.847191733
 20
77.3473713535
 10
84.8619262687
 20
77.4485965928
 10
84.8725878274
 20
77.550058617
 10
84.879130351
 20
77.6515666947
 10
84.8815077818
 20
77.7529300947
  0
LWPOLYLINE
  5
304
100
AcDbEntity
  8
0
100
AcDbPolyline
 62
7
  6
CONTINUOUS
 90
10
 70
0
 10
77.632413155
 20
61.3331230207
 10
77.6350306156
 20
61.407419007
 10
77.642530047
 20
61.4842280055
 10
77.6542887247
 20
61.5635500163
 10
77.6694418712
 20
61.6454632378
 10
77.6873366543
 20
61.7298894715
 10
77.7078434386
 20
61.8165941224
 10
77.7306141081
 20
61.905498992
 10
77.7548248505
 20
61.9966822786
 10
77.779795294
 20
62.0901439824
  0
LWPOLYLINE
  5
305
100
AcDbEntity
  8
0
100
AcDbPolyline
 62
7
  6
CONTINUOUS
 90
3
 70
0
 43
0.3500000006
 10
92.7831244812
 20
121.4730223389
 10
92.7117023621
 20
121.258737854
 10
92.5688399963
 20
120.9730221863
  0
LWPOLYLINE
  5
306
100
AcDbEntity
  8
0
100
AcDbPolyline
 62
250
  6
CONTINUOUS
 90
37
 70
0
 10
85.9884919221
 20
92.3250550941
 10
85.9753500822
 20
92.311620117
 10
85.9626096847
 20
92.2978091119
 10
85.9502650325
 20
92.2836364902
 10
85.9383104284
 20
92.2691166634
 10
85.9267401752
 20
92.2542640429
 10
85.9155485757
 20
92.2390930401
 10
85.9047299326
 20
92.2236180666
 10
85.8942785489
 20
92.2078535336
 10
85.8841887272
 20
92.1918138527
 10
85.8744547705
 20
92.1755134353
 10
85.8650709815
 20
92.1589666929
 10
85.856031663
 20
92.1421880368
 10
85.8473311178
 20
92.1251918785
 10
85.8389636488
 20
92.1079926294
 10
85.8309235587
 20
92.090604701
 10
85.8232051503
 20
92.0730425048
 10
85.8158027265
 20
92.055320452
 10
85.80871059
 20
92.0374529543
 10
85.8019230437
 20
92.019454423
 10
85.7954343903
 20
92.0013392695
 10
85.7892389328
 20
91.9831219054
 10
85.7833309738
 20
91.9648167419
 10
85.7777048161
 20
91.9464381907
 10
85.7723547627
 20
91.928000663
 10
85.7672751163
 20
91.9095185704
 10
85.7624601796
 20
91.8910063243
 10
85.7579042555
 20
91.872478336
 10
85.7536016469
 20
91.8539490172
 10
85.7477572631
 20
91.8269224286
 10
85.7423785903
 20
91.7999126596
 10
85.737403832
 20
91.7729086635
 10
85.7327711916
 20
91.7458993936
 10
85.7284188727
 20
91.7188738031
 10
85.7242850787
 20
91.6918208454
 10
85.720308013
 20
91.6647294737
 10
85.7164258792
 20
91.6375886413
  0
LINE
  5
307
100
AcDbEntity
  8
0
100
AcDbLine
 62
7
  6
CONTINUOUS
 10
80.032950414
 20
89.5401420824
 11
80.234568985
 21
89.7417606534
  0
LINE
  5
308
100
AcDbEntity
  8
0
100
AcDbLine
 62
7
  6
CONTINUOUS
 10
80.8066696778
 20
90.3138613462
 11
81.0083042439
 21
90.5154959123
  0
LINE
  5
309
100
AcDbEntity
  8
0
100
AcDbLine
 62
7
  6
CONTINUOUS
 10
80.0679862488
 20
89.3651672032
 11
80.3074792488
 21
89.6046602032
  0
LINE
  5
30A
100
AcDbEntity
  8
0
100
AcDbLine
 62
7
  6
CONTINUOUS
 10
80.8066696778
 20
90.1038506322
 11
81.0083042439
 21
90.3054851983
  0
LINE
  5
30B
100
AcDbEntity
  8
0
100
AcDbLine
 62
7
  6
CONTINUOUS
 10
80.2779969628
 20
89.3651672032
 11
80.5174899628
 21
89.6046602032
  0
LINE
  5
30C
100
AcDbEntity
  8
0
100
AcDbLine
 62
7
  6
CONTINUOUS
 10
80.8066696778
 20
89.8938399182
 11
81.0083042439
 21
90.0954744843
  0
LINE
  5
30D
100
AcDbEntity
  8
0
100
AcDbLine
 62
250
  6
CONTINUOUS
 10
83.0466988565
 20
92.1215122032
 11
82.832413155
 21
91.9072264122
  0
LINE
  5
30E
100
AcDbEntity
  8
0
100
AcDbLine
 62
7
  6
CONTINUOUS
 10
80.0329564122
 20
88.9101159386
 11
80.143601351
 21
89.0207608773
  0
LINE
  5
30F
100
AcDbEntity
  8
0
100
AcDbLine
 62
7
  6
CONTINUOUS
 10
80.4880076768
 20
89.3651672032
 11
80.7275006768
 21
89.6046602032
  0
LINE
  5
310
100
AcDbEntity
  8
0
100
AcDbLine
 62
7
  6
CONTINUOUS
 10
80.8066696778
 20
89.6838292042
 11
81.0083042439
 21
89.8854637703
  0
LINE
  5
311
100
AcDbEntity
  8
0
100
AcDbLine
 62
7
  6
CONTINUOUS
 10
81.6307955837
 20
90.5079551101
 11
81.7384556768
 21
90.6156152032
  0
LINE
  5
312
100
AcDbEntity
  8
0
100
AcDbLine
 62
7
  6
CONTINUOUS
 10
80.1157102542
 20
88.7828590666
 11
80.2984922755
 21
88.9656410878
  0
LINE
  5
313
100
AcDbEntity
  8
0
100
AcDbLine
 62
7
  6
CONTINUOUS
 10
80.6980183908
 20
89.3651672032
 11
81.0083042439
 21
89.6754530563
  0
LINE
  5
314
100
AcDbEntity
  8
0
100
AcDbLine
 62
7
  6
CONTINUOUS
 10
81.6307955837
 20
90.2979443961
 11
81.832413155
 21
90.4995619674
  0
LINE
  5
315
100
AcDbEntity
  8
0
100
AcDbLine
 62
7
  6
CONTINUOUS
 10
80.2730806243
 20
88.7302187226
 11
80.4533832
 21
88.9105212983
  0
LINE
  5
316
100
AcDbEntity
  8
0
100
AcDbLine
 62
7
  6
CONTINUOUS
 10
80.9080291048
 20
89.3651672032
 11
81.1475221048
 21
89.6046602032
  0
LINE
  5
317
100
AcDbEntity
  8
0
100
AcDbLine
 62
7
  6
CONTINUOUS
 10
81.6307955837
 20
90.087933682
 11
81.832413155
 21
90.2895512533
  0
LINE
  5
318
100
AcDbEntity
  8
0
100
AcDbLine
 62
7
  6
CONTINUOUS
 10
80.4304509944
 20
88.6775783787
 11
80.6082741245
 21
88.8554015088
  0
LINE
  5
319
100
AcDbEntity
  8
0
100
AcDbLine
 62
7
  6
CONTINUOUS
 10
81.1180398188
 20
89.3651672032
 11
81.3575328188
 21
89.6046602032
  0
LINE
  5
31A
100
AcDbEntity
  8
0
100
AcDbLine
 62
7
  6
CONTINUOUS
 10
81.6307955837
 20
89.877922968
 11
81.832413155
 21
90.0795405393
  0
LINE
  5
31B
100
AcDbEntity
  8
0
100
AcDbLine
 62
7
  6
CONTINUOUS
 10
80.5878213644
 20
88.6249380347
 11
80.763165049
 21
88.8002817193
  0
LINE
  5
31C
100
AcDbEntity
  8
0
100
AcDbLine
 62
7
  6
CONTINUOUS
 10
81.3280505329
 20
89.3651672032
 11
81.5675435329
 21
89.6046602032
  0
LINE
  5
31D
100
AcDbEntity
  8
0
100
AcDbLine
 62
7
  6
CONTINUOUS
 10
81.6307955837
 20
89.667912254
 11
81.832413155
 21
89.8695298253
  0
LINE
  5
31E
100
AcDbEntity
  8
0
100
AcDbLine
 62
250
  6
CONTINUOUS
 10
82.832413155
 20
90.8357979941
 11
83.0466988565
 21
91.0500836062
  0
LINE
  5
31F
100
AcDbEntity
  8
0
100
AcDbLine
 62
7
  6
CONTINUOUS
 10
80.7451917345
 20
88.5722976908
 11
80.9180559735
 21
88.7451619298
  0
LINE
  5
320
100
AcDbEntity
  8
0
100
AcDbLine
 62
7
  6
CONTINUOUS
 10
81.5380612469
 20
89.3651672032
 11
81.832413155
 21
89.6595191113
  0
LINE
  5
321
100
AcDbEntity
  8
0
100
AcDbLine
 62
7
  6
CONTINUOUS
 10
80.0329564122
 20
87.6500516545
 11
80.215109191
 21
87.8322044333
  0
LINE
  5
322
100
AcDbEntity
  8
0
100
AcDbLine
 62
7
  6
CONTINUOUS
 10
80.9025621046
 20
88.5196573469
 11
81.072946898
 21
88.6900421402
  0
LINE
  5
323
100
AcDbEntity
  8
0
100
AcDbLine
 62
7
  6
CONTINUOUS
 10
81.7480719609
 20
89.3651672032
 11
81.832413155
 21
89.4495083973
  0
LINE
  5
324
100
AcDbEntity
  8
0
100
AcDbLine
 62
250
  6
CONTINUOUS
 10
84.1181274311
 20
91.5857979941
 11
84.332413155
 21
91.8000836062
  0
LINE
  5
325
100
AcDbEntity
  8
0
100
AcDbLine
 62
7
  6
CONTINUOUS
 10
80.1445365476
 20
87.5516210759
 11
80.5291700004
 21
87.9362545287
  0
LINE
  5
326
100
AcDbEntity
  8
0
100
AcDbLine
 62
7
  6
CONTINUOUS
 10
81.0599324746
 20
88.4670170029
 11
81.2278378225
 21
88.6349223507
  0
LINE
  5
327
100
AcDbEntity
  8
0
100
AcDbLine
 62
7
  6
CONTINUOUS
 10
80.032950414
 20
87.2300242283
 11
80.1034203889
 21
87.3004942032
  0
LINE
  5
328
100
AcDbEntity
  8
0
100
AcDbLine
 62
7
  6
CONTINUOUS
 10
80.4691509331
 20
87.6662247474
 11
80.8432308098
 21
88.040304624
  0
LINE
  5
329
100
AcDbEntity
  8
0
100
AcDbLine
 62
7
  6
CONTINUOUS
 10
81.2173028447
 20
88.414376659
 11
81.382728747
 21
88.5798025612
  0
LINE
  5
32A
100
AcDbEntity
  8
0
100
AcDbLine
 62
7
  6
CONTINUOUS
 10
80.032950414
 20
87.0200135143
 11
80.234568985
 21
87.2216320853
  0
LINE
  5
32B
100
AcDbEntity
  8
0
100
AcDbLine
 62
7
  6
CONTINUOUS
 10
80.7937653185
 20
87.7808284188
 11
81.1572916191
 21
88.1443547194
  0
LINE
  5
32C
100
AcDbEntity
  8
0
100
AcDbLine
 62
7
  6
CONTINUOUS
 10
81.3746732148
 20
88.361736315
 11
81.5376196715
 21
88.5246827717
  0
LINE
  5
32D
100
AcDbEntity
  8
0
100
AcDbLine
 62
250
  6
CONTINUOUS
 10
83.6895560058
 20
90.5143693077
 11
83.4752702596
 21
90.3000836062
  0
LINE
  5
32E
100
AcDbEntity
  8
0
100
AcDbLine
 62
7
  6
CONTINUOUS
 10
80.032950414
 20
86.8100028003
 11
80.234568985
 21
87.0116213713
  0
LINE
  5
32F
100
AcDbEntity
  8
0
100
AcDbLine
 62
7
  6
CONTINUOUS
 10
81.118379704
 20
87.8954320902
 11
81.4713524285
 21
88.2484048147
  0
LINE
  5
330
100
AcDbEntity
  8
0
100
AcDbLine
 62
7
  6
CONTINUOUS
 10
81.5320435848
 20
88.3090959711
 11
81.692510596
 21
88.4695629822
  0
LINE
  5
331
100
AcDbEntity
  8
0
100
AcDbLine
 62
250
  6
CONTINUOUS
 10
83.0466988565
 20
89.7643693524
 11
82.832413155
 21
89.5500836509
  0
LINE
  5
332
100
AcDbEntity
  8
0
100
AcDbLine
 62
7
  6
CONTINUOUS
 10
80.032950414
 20
86.5999920863
 11
80.234568985
 21
86.8016106573
  0
LINE
  5
333
100
AcDbEntity
  8
0
100
AcDbLine
 62
7
  6
CONTINUOUS
 10
81.4429940894
 20
88.0100357617
 11
81.8324181535
 21
88.3994598257
  0
LINE
  5
334
100
AcDbEntity
  8
0
100
AcDbLine
 62
7
  6
CONTINUOUS
 10
80.032950414
 20
86.3899813723
 11
80.234568985
 21
86.5915999433
  0
LINE
  5
335
100
AcDbEntity
  8
0
100
AcDbLine
 62
7
  6
CONTINUOUS
 10
80.8066696778
 20
87.163700636
 11
80.875395245
 21
87.2324262032
  0
LINE
  5
336
100
AcDbEntity
  8
0
100
AcDbLine
 62
7
  6
CONTINUOUS
 10
81.7676084749
 20
88.1246394331
 11
81.8324181535
 21
88.1894491117
  0
LINE
  5
337
100
AcDbEntity
  8
0
100
AcDbLine
 62
7
  6
CONTINUOUS
 10
80.032950414
 20
86.1799706582
 11
80.234568985
 21
86.3815892292
  0
LINE
  5
338
100
AcDbEntity
  8
0
100
AcDbLine
 62
7
  6
CONTINUOUS
 10
80.8066696778
 20
86.953689922
 11
81.0083042439
 21
87.1553244881
  0
LINE
  5
339
100
AcDbEntity
  8
0
100
AcDbLine
 62
7
  6
CONTINUOUS
 10
80.120613673
 20
86.0576232032
 11
80.360123673
 21
86.2971332032
  0
LINE
  5
33A
100
AcDbEntity
  8
0
100
AcDbLine
 62
7
  6
CONTINUOUS
 10
80.8066696778
 20
86.743679208
 11
81.0083042439
 21
86.9453137741
  0
LINE
  5
33B
100
AcDbEntity
  8
0
100
AcDbLine
 62
7
  6
CONTINUOUS
 10
80.330624387
 20
86.0576232032
 11
80.570134387
 21
86.2971332032
  0
LINE
  5
33C
100
AcDbEntity
  8
0
100
AcDbLine
 62
7
  6
CONTINUOUS
 10
80.8066696778
 20
86.533668494
 11
81.0083042439
 21
86.7353030601
  0
LINE
  5
33D
100
AcDbEntity
  8
0
100
AcDbLine
 62
7
  6
CONTINUOUS
 10
80.032950414
 20
85.5499385162
 11
80.039007101
 21
85.5559952032
  0
LINE
  5
33E
100
AcDbEntity
  8
0
100
AcDbLine
 62
7
  6
CONTINUOUS
 10
80.540635101
 20
86.0576232032
 11
80.780145101
 21
86.2971332032
  0
LINE
  5
33F
100
AcDbEntity
  8
0
100
AcDbLine
 62
7
  6
CONTINUOUS
 10
80.8066696778
 20
86.32365778
 11
81.0083042439
 21
86.5252923461
  0
LINE
  5
340
100
AcDbEntity
  8
0
100
AcDbLine
 62
7
  6
CONTINUOUS
 10
81.6307955837
 20
87.1477836859
 11
81.791066101
 21
87.3080542032
  0
LINE
  5
341
100
AcDbEntity
  8
0
100
AcDbLine
 62
7
  6
CONTINUOUS
 10
80.032950414
 20
85.3399278022
 11
80.249017815
 21
85.5559952032
  0
LINE
  5
342
100
AcDbEntity
  8
0
100
AcDbLine
 62
7
  6
CONTINUOUS
 10
80.750645815
 20
86.0576232032
 11
81.0083042439
 21
86.3152816321
  0
LINE
  5
343
100
AcDbEntity
  8
0
100
AcDbLine
 62
7
  6
CONTINUOUS
 10
81.6307955837
 20
86.9377729719
 11
81.832413155
 21
87.1393905432
  0
LINE
  5
344
100
AcDbEntity
  8
0
100
AcDbLine
 62
250
  6
CONTINUOUS
 10
84.1181274311
 20
89.2286550651
 11
84.332413155
 21
89.4429407778
  0
LINE
  5
345
100
AcDbEntity
  8
0
100
AcDbLine
 62
7
  6
CONTINUOUS
 10
80.232128529
 20
85.3290952032
 11
80.459028529
 21
85.5559952032
  0
LINE
  5
346
100
AcDbEntity
  8
0
100
AcDbLine
 62
7
  6
CONTINUOUS
 10
80.960656529
 20
86.0576232032
 11
81.200166529
 21
86.2971332032
  0
LINE
  5
347
100
AcDbEntity
  8
0
100
AcDbLine
 62
7
  6
CONTINUOUS
 10
81.6307955837
 20
86.7277622578
 11
81.832413155
 21
86.9293798291
  0
LINE
  5
348
100
AcDbEntity
  8
0
100
AcDbLine
 62
7
  6
CONTINUOUS
 10
80.442139243
 20
85.3290952032
 11
80.669039243
 21
85.5559952032
  0
LINE
  5
349
100
AcDbEntity
  8
0
100
AcDbLine
 62
7
  6
CONTINUOUS
 10
81.170667243
 20
86.0576232032
 11
81.410177243
 21
86.2971332032
  0
LINE
  5
34A
100
AcDbEntity
  8
0
100
AcDbLine
 62
7
  6
CONTINUOUS
 10
81.6307955837
 20
86.5177515438
 11
81.832413155
 21
86.7193691151
  0
LINE
  5
34B
100
AcDbEntity
  8
0
100
AcDbLine
 62
7
  6
CONTINUOUS
 10
80.6521499571
 20
85.3290952032
 11
80.8790499571
 21
85.5559952032
  0
LINE
  5
34C
100
AcDbEntity
  8
0
100
AcDbLine
 62
7
  6
CONTINUOUS
 10
81.3806779571
 20
86.0576232032
 11
81.6201879571
 21
86.2971332032
  0
LINE
  5
34D
100
AcDbEntity
  8
0
100
AcDbLine
 62
7
  6
CONTINUOUS
 10
81.6307955837
 20
86.3077408298
 11
81.832413155
 21
86.5093584011
  0
LINE
  5
34E
100
AcDbEntity
  8
0
100
AcDbLine
 62
7
  6
CONTINUOUS
 10
80.8621606711
 20
85.3290952032
 11
81.0890606711
 21
85.5559952032
  0
LINE
  5
34F
100
AcDbEntity
  8
0
100
AcDbLine
 62
7
  6
CONTINUOUS
 10
81.5906886711
 20
86.0576232032
 11
81.832413155
 21
86.2993476871
  0
LWPOLYLINE
  5
350
100
AcDbEntity
  8
RACCORDO
100
AcDbPolyline
 62
250
  6
CONTINUOUS
 90
10
 70
0
 10
89.6447411531
 20
95.8273797484
 10
89.6923578187
 20
95.8534107343
 10
89.7391448759
 20
95.8743972235
 10
89.7844134407
 20
95.8900302172
 10
89.8274969793
 20
95.9000795397
 10
89.8677611492
 20
95.9043972337
 10
89.9046131327
 20
95.9029197271
 10
89.9375103305
 20
95.8956687651
 10
89.9659683574
 20
95.8827511023
 10
89.9895681973
 20
95.8643569295
  0
LWPOLYLINE
  5
351
100
AcDbEntity
  8
ASSI
100
AcDbPolyline
 62
250
  6
CONTINUOUS
 90
10
 70
0
 10
89.6447411531
 20
95.8273797484
 10
89.6923578187
 20
95.8534107343
 10
89.7391448759
 20
95.8743972235
 10
89.7844134407
 20
95.8900302172
 10
89.8274969793
 20
95.9000795397
 10
89.8677611492
 20
95.9043972337
 10
89.9046131327
 20
95.9029197271
 10
89.9375103305
 20
95.8956687651
 10
89.9659683574
 20
95.8827511023
 10
89.9895681973
 20
95.8643569295
  0
LINE
  5
352
100
AcDbEntity
  8
0
100
AcDbLine
 62
250
  6
CONTINUOUS
 10
83.260984558
 20
92.2286550092
 11
83.0466988565
 21
92.1215122032
  0
LINE
  5
353
100
AcDbEntity
  8
0
100
AcDbLine
 62
250
  6
CONTINUOUS
 10
83.9038417073
 20
91.4786550092
 11
84.1181274311
 21
91.5857979941
  0
LWPOLYLINE
  5
354
100
AcDbEntity
  8
0
100
AcDbPolyline
 62
7
  6
CONTINUOUS
 90
10
 70
0
 10
99.0411393582
 20
59.004142289
 10
99.1306311228
 20
59.0125761782
 10
99.21267254
 20
59.0297448068
 10
99.2872636096
 20
59.0556481748
 10
99.3561057974
 20
59.0914890293
 10
99.4174976378
 20
59.1360646232
 10
99.4663347334
 20
59.1857667149
 10
99.5009156187
 20
59.2393925573
 10
99.5229417592
 20
59.2981448976
 10
99.532413155
 20
59.3620237358
  0
LWPOLYLINE
  5
355
100
AcDbEntity
  8
ASSI
100
AcDbPolyline
 62
7
  6
CONTINUOUS
 90
10
 70
0
 10
99.0411393582
 20
59.004142289
 10
99.1306311228
 20
59.0125761782
 10
99.21267254
 20
59.0297448068
 10
99.2872636096
 20
59.0556481748
 10
99.3561057974
 20
59.0914890293
 10
99.4174976378
 20
59.1360646232
 10
99.4663347334
 20
59.1857667149
 10
99.5009156187
 20
59.2393925573
 10
99.5229417592
 20
59.2981448976
 10
99.532413155
 20
59.3620237358
  0
LINE
  5
356
100
AcDbEntity
  8
0
100
AcDbLine
 62
7
  6
CONTINUOUS
 10
99.0411393582
 20
59.004142289
 11
97.6047512591
 21
58.9736741096
  0
LINE
  5
357
100
AcDbEntity
  8
ASSI
100
AcDbLine
 62
7
  6
CONTINUOUS
 10
99.0411393582
 20
59.004142289
 11
97.6047512591
 21
58.9736741096
  0
LINE
  5
358
100
AcDbEntity
  8
RACCORDO
100
AcDbLine
 62
7
  6
CONTINUOUS
 10
86.3032679529
 20
57.0908237315
 11
82.479795294
 21
57.024084768
  0
LINE
  5
359
100
AcDbEntity
  8
ASSI
100
AcDbLine
 62
7
  6
CONTINUOUS
 10
86.3032679529
 20
57.0908237315
 11
82.479795294
 21
57.024084768
  0
LINE
  5
35A
100
AcDbEntity
  8
RACCORDO
100
AcDbLine
 62
250
  6
CONTINUOUS
 10
86.3033426282
 20
57.2137951603
 11
82.479795294
 21
57.1467556225
  0
LINE
  5
35B
100
AcDbEntity
  8
ASSI
100
AcDbLine
 62
250
  6
CONTINUOUS
 10
86.3033426282
 20
57.2137951603
 11
82.479795294
 21
57.1467556225
  0
LINE
  5
35C
100
AcDbEntity
  8
DRAFT
100
AcDbLine
 62
7
  6
CONTINUOUS
 10
76.7254321924
 20
57.528372376
 11
77.1722536092
 21
57.5361716728
  0
LWPOLYLINE
  5
35D
100
AcDbEntity
  8
0
100
AcDbPolyline
 62
7
  6
CONTINUOUS
 90
19
 70
0
 10
92.0606480163
 20
58.8215122032
 10
92.1213128913
 20
58.822511044
 10
92.184317543
 20
58.824368517
 10
92.2496301913
 20
58.8270846221
 10
92.317285293
 20
58.8308143674
 10
92.3871626363
 20
58.8354027449
 10
92.45901471
 20
58.8403847302
 10
92.5328794964
 20
58.8457392466
 10
92.6086578944
 20
58.8514873709
 10
92.6859353903
 20
58.8572273081
 10
92.764283611
 20
58.8629185756
 10
92.8440848762
 20
58.8686016562
 10
92.92618266
 20
58.8739962032
 10
93.0108394112
 20
58.8791224693
 10
93.0977752008
 20
58.8839602019
 10
93.1870631105
 20
58.8881682971
 10
93.2787385745
 20
58.8916330536
 10
93.372771053
 20
58.8944681726
 10
93.4691509994
 20
58.8966736543
  0
LWPOLYLINE
  5
35E
100
AcDbEntity
  8
ASSI
100
AcDbPolyline
 62
7
  6
CONTINUOUS
 90
19
 70
0
 10
92.0606480163
 20
58.8215122032
 10
92.1213128913
 20
58.822511044
 10
92.184317543
 20
58.824368517
 10
92.2496301913
 20
58.8270846221
 10
92.317285293
 20
58.8308143674
 10
92.3871626363
 20
58.8354027449
 10
92.45901471
 20
58.8403847302
 10
92.5328794964
 20
58.8457392466
 10
92.6086578944
 20
58.8514873709
 10
92.6859353903
 20
58.8572273081
 10
92.764283611
 20
58.8629185756
 10
92.8440848762
 20
58.8686016562
 10
92.92618266
 20
58.8739962032
 10
93.0108394112
 20
58.8791224693
 10
93.0977752008
 20
58.8839602019
 10
93.1870631105
 20
58.8881682971
 10
93.2787385745
 20
58.8916330536
 10
93.372771053
 20
58.8944681726
 10
93.4691509994
 20
58.8966736543
  0
LWPOLYLINE
  5
35F
100
AcDbEntity
  8
0
100
AcDbPolyline
 62
7
  6
CONTINUOUS
 90
7
 70
0
 10
93.4691509994
 20
58.8966736543
 10
94.1535072873
 20
58.9079152394
 10
94.8398277441
 20
58.9197935542
 10
95.5281123697
 20
58.9323085986
 10
96.218361164
 20
58.9454603726
 10
96.9105741272
 20
58.9592488763
 10
97.6047512591
 20
58.9736741096
  0
LWPOLYLINE
  5
360
100
AcDbEntity
  8
ASSI
100
AcDbPolyline
 62
7
  6
CONTINUOUS
 90
7
 70
0
 10
93.4691509994
 20
58.8966736543
 10
94.1535072873
 20
58.9079152394
 10
94.8398277441
 20
58.9197935542
 10
95.5281123697
 20
58.9323085986
 10
96.218361164
 20
58.9454603726
 10
96.9105741272
 20
58.9592488763
 10
97.6047512591
 20
58.9736741096
  0
LWPOLYLINE
  5
361
100
AcDbEntity
  8
RACCORDO
100
AcDbPolyline
 62
250
  6
CONTINUOUS
 90
9
 70
0
 10
88.4482451488
 20
58.9757087349
 10
88.4101781934
 20
58.9751356797
 10
88.3714809877
 20
58.9728461259
 10
88.3321535315
 20
58.9688403924
 10
88.2920768004
 20
58.9631986423
 10
88.2513698189
 20
58.955842542
 10
88.2103896603
 20
58.9465355128
 10
88.169081521
 20
58.9352324195
 10
88.1275002046
 20
58.9219836213
  0
LWPOLYLINE
  5
362
100
AcDbEntity
  8
ASSI
100
AcDbPolyline
 62
250
  6
CONTINUOUS
 90
9
 70
0
 10
88.4482451488
 20
58.9757087349
 10
88.4101781934
 20
58.9751356797
 10
88.3714809877
 20
58.9728461259
 10
88.3321535315
 20
58.9688403924
 10
88.2920768004
 20
58.9631986423
 10
88.2513698189
 20
58.955842542
 10
88.2103896603
 20
58.9465355128
 10
88.169081521
 20
58.9352324195
 10
88.1275002046
 20
58.9219836213
  0
LINE
  5
363
100
AcDbEntity
  8
0
100
AcDbLine
 62
7
  6
CONTINUOUS
 10
92.0606480163
 20
58.8215122032
 11
88.4395199362
 21
58.8215122032
  0
LINE
  5
364
100
AcDbEntity
  8
ASSI
100
AcDbLine
 62
7
  6
CONTINUOUS
 10
92.0606480163
 20
58.8215122032
 11
88.4395199362
 21
58.8215122032
  0
LINE
  5
365
100
AcDbEntity
  8
0
100
AcDbLine
 62
7
  6
CONTINUOUS
 10
92.5085892139
 20
58.8215122032
 11
99.032413155
 21
58.8215122032
  0
LINE
  5
366
100
AcDbEntity
  8
ASSI
100
AcDbLine
 62
7
  6
CONTINUOUS
 10
92.5085892139
 20
58.8215122032
 11
99.032413155
 21
58.8215122032
  0
LINE
  5
367
100
AcDbEntity
  8
0
100
AcDbLine
 62
250
  6
CONTINUOUS
 10
97.6047521232
 20
58.9736741279
 11
88.4482451488
 21
58.9757087349
  0
LINE
  5
368
100
AcDbEntity
  8
ASSI
100
AcDbLine
 62
250
  6
CONTINUOUS
 10
97.6047521232
 20
58.9736741279
 11
88.4482451488
 21
58.9757087349
  0
LINE
  5
369
100
AcDbEntity
  8
RACCORDO
100
AcDbLine
 62
7
  6
CONTINUOUS
 10
76.8732313915
 20
59.9715122032
 11
72.8541062135
 21
60.0416662941
  0
LINE
  5
36A
100
AcDbEntity
  8
RACCORDO
100
AcDbLine
 62
250
  6
CONTINUOUS
 10
65.5706175023
 20
57.8553146947
 11
65.5679400838
 21
57.8553995637
  0
LINE
  5
36B
100
AcDbEntity
  8
0
100
AcDbLine
 62
250
  6
CONTINUOUS
 10
84.5271718613
 20
62.9312402032
 11
84.2058707551
 21
63.1690742032
  0
LINE
  5
36C
100
AcDbEntity
  8
0
100
AcDbLine
 62
250
  6
CONTINUOUS
 10
84.63427223
 20
63.7636622032
 11
85.705273918
 21
62.9312402032
  0
LINE
  5
36D
100
AcDbEntity
  8
CURVE
100
AcDbLine
 62
250
  6
CONTINUOUS
 10
86.8149918837
 20
63.6500836509
 11
87.2434327497
 21
63.2215122032
  0
LINE
  5
36E
100
AcDbEntity
  8
CURVE
100
AcDbLine
 62
250
  6
CONTINUOUS
 10
87.1363225779
 20
64.2929408001
 11
86.8149918837
 21
64.6143693077
  0
LINE
  5
36F
100
AcDbEntity
  8
0
100
AcDbLine
 62
250
  6
CONTINUOUS
 10
82.3404541089
 20
66.5608402032
 11
80.7457789734
 21
69.3237402032
  0
LINE
  5
370
100
AcDbEntity
  8
0
100
AcDbLine
 62
250
  6
CONTINUOUS
 10
85.1025125669
 20
66.5608402032
 11
83.5078374314
 21
69.3237402032
  0
LINE
  5
371
100
AcDbEntity
  8
0
100
AcDbLine
 62
250
  6
CONTINUOUS
 10
80.2682494667
 20
72.3222022032
 11
80.1611480983
 21
72.5221832032
  0
LWPOLYLINE
  5
372
100
AcDbEntity
  8
RACCORDO
100
AcDbPolyline
 62
250
  6
CONTINUOUS
 90
5
 70
0
 10
77.5897243124
 20
100.5677983167
 10
77.5889656072
 20
100.5739666763
 10
77.5880946257
 20
100.5785745245
 10
77.5871422319
 20
100.5814432061
 10
77.5861244463
 20
100.5824008692
  0
LINE
  5
373
100
AcDbEntity
  8
RACCORDO
100
AcDbLine
 62
7
  6
CONTINUOUS
 10
82.3349485495
 20
99.5450071544
 11
82.332413155
 21
99.5750439227
  0
LINE
  5
374
100
AcDbEntity
  8
ASSI
100
AcDbLine
 62
7
  6
CONTINUOUS
 10
82.3349485495
 20
99.5450071544
 11
82.332413155
 21
99.5750439227
  0
LWPOLYLINE
  5
375
100
AcDbEntity
  8
0
100
AcDbPolyline
 62
250
  6
CONTINUOUS
 90
46
 70
0
 10
84.1290825447
 20
82.2390709693
 10
84.1312963416
 20
82.1829235255
 10
84.1317091747
 20
82.1266226525
 10
84.1303315448
 20
82.0702342166
 10
84.1271739531
 20
82.0138240838
 10
84.1222469004
 20
81.9574581204
 10
84.1155608879
 20
81.9012021926
 10
84.1071264166
 20
81.8451221666
 10
84.0969539874
 20
81.7892839085
 10
84.0850541013
 20
81.7337532845
 10
84.0714372594
 20
81.6785961608
 10
84.0561139628
 20
81.6238784036
 10
84.0390947123
 20
81.5696658791
 10
84.020390009
 20
81.5160244535
 10
84.0000103539
 20
81.4630199929
 10
83.9779662481
 20
81.4107183636
 10
83.9542717589
 20
81.359181411
 10
83.9289552192
 20
81.3084548984
 10
83.9020485285
 20
81.2585805681
 10
83.8735835859
 20
81.2096001628
 10
83.8435922908
 20
81.1615554249
 10
83.8121065426
 20
81.114488097
 10
83.7791582405
 20
81.0684399214
 10
83.7447792839
 20
81.0234526408
 10
83.7090015721
 20
80.9795679976
 10
83.6718570045
 20
80.9368277344
 10
83.6333774802
 20
80.8952735935
 10
83.5935948987
 20
80.8549473176
 10
83.5525411593
 20
80.8158906492
 10
83.5102481613
 20
80.7781453306
 10
83.4667478039
 20
80.7417531045
 10
83.4220768009
 20
80.7067533256
 10
83.3762911226
 20
80.673175798
 10
83.329451554
 20
80.6410479378
 10
83.2816188797
 20
80.6103971614
 10
83.2328538845
 20
80.581250885
 10
83.1832173532
 20
80.5536365249
 10
83.1327700706
 20
80.5275814974
 10
83.0815728215
 20
80.5031132187
 10
83.0296863905
 20
80.4802591052
 10
82.9771715626
 20
80.4590465731
 10
82.9240891225
 20
80.4395030386
 10
82.8704998549
 20
80.4216559182
 10
82.8164645446
 20
80.4055326279
 10
82.7620439764
 20
80.3911605841
 10
82.7072989351
 20
80.3785672032
  0
LWPOLYLINE
  5
376
100
AcDbEntity
  8
0
100
AcDbPolyline
 62
250
  6
CONTINUOUS
 90
79
 70
0
 10
84.1290857523
 20
77.8539580922
 10
84.1315535037
 20
77.781973267
 10
84.1309910301
 20
77.7096961863
 10
84.1274299669
 20
77.6372660641
 10
84.1209019493
 20
77.5648221145
 10
84.1114386127
 20
77.4925035515
 10
84.0990715923
 20
77.420449589
 10
84.0838325236
 20
77.3487994411
 10
84.0657530417
 20
77.2776923218
 10
84.044864782
 20
77.2072674451
 10
84.0211993798
 20
77.137664025
 10
83.9947884705
 20
77.0690212755
 10
83.9656636894
 20
77.0014784107
 10
83.9338566717
 20
76.9351746445
 10
83.8993990528
 20
76.8702491909
 10
83.862322468
 20
76.806841264
 10
83.8226585527
 20
76.7450900778
 10
83.7804500483
 20
76.6851232152
 10
83.7357841215
 20
76.6270217351
 10
83.6887590453
 20
76.5708550651
 10
83.6394730925
 20
76.516692633
 10
83.588024536
 20
76.4646038666
 10
83.5345116487
 20
76.4146581935
 10
83.4790327035
 20
76.3669250415
 10
83.4216859732
 20
76.3214738384
 10
83.3625697309
 20
76.2783740119
 10
83.3017822493
 20
76.2376949898
 10
83.2394218014
 20
76.1995061997
 10
83.1755866601
 20
76.1638770694
 10
83.1103750982
 20
76.1308770267
 10
83.0438853887
 20
76.1005754992
 10
82.9762158045
 20
76.0730419148
 10
82.9074646184
 20
76.0483457012
 10
82.8377342105
 20
76.0265447147
 10
82.7671433898
 20
76.0076505268
 10
82.6958150724
 20
75.9916631374
 10
82.6238721744
 20
75.9785825465
 10
82.551437612
 20
75.968408754
 10
82.4786343013
 20
75.9611417601
 10
82.4055851584
 20
75.9567815646
 10
82.3324130995
 20
75.9553281677
 10
82.2592410407
 20
75.9567815692
 10
82.1861918981
 20
75.9611417691
 10
82.1133885878
 20
75.9684087676
 10
82.040954026
 20
75.9785825645
 10
81.9690111289
 20
75.9916631598
 10
81.8976828125
 20
76.0076505537
 10
81.8270919929
 20
76.026544746
 10
81.7573615864
 20
76.0483457367
 10
81.6886104018
 20
76.0730419546
 10
81.6209408193
 20
76.1005755432
 10
81.5544511116
 20
76.1308770747
 10
81.4892395518
 20
76.1638771215
 10
81.4254044127
 20
76.1995062557
 10
81.3630439671
 20
76.2376950496
 10
81.3022564881
 20
76.2783740756
 10
81.2431402484
 20
76.3214739057
 10
81.185793521
 20
76.3669251123
 10
81.1303145787
 20
76.4146582677
 10
81.0768016945
 20
76.4646039441
 10
81.0253531412
 20
76.5166927137
 10
80.9760671917
 20
76.5708551489
 10
80.9290421189
 20
76.6270218217
 10
80.8843761958
 20
76.6851233047
 10
80.8421676951
 20
76.7450901698
 10
80.8025037835
 20
76.8068413585
 10
80.7654272027
 20
76.8702492877
 10
80.7309695878
 20
76.9351747433
 10
80.6991625742
 20
77.0014785115
 10
80.6700377972
 20
77.0690213782
 10
80.6436268921
 20
77.1376641293
 10
80.6199614943
 20
77.2072675508
 10
80.599073239
 20
77.2776924288
 10
80.5809937615
 20
77.3487995492
 10
80.5657546971
 20
77.4204496981
 10
80.5533876812
 20
77.4925036613
 10
80.543924349
 20
77.564822225
 10
80.5373963359
 20
77.637266175
 10
80.5338352772
 20
77.7096962974
  0
LWPOLYLINE
  5
377
100
AcDbEntity
  8
0
100
AcDbPolyline
 62
250
  6
CONTINUOUS
 90
63
 70
0
 10
83.8324124385
 20
86.2215122024
 10
83.8329993282
 20
86.1723668702
 10
83.8347459384
 20
86.1243348878
 10
83.8376311806
 20
86.077128429
 10
83.8416339662
 20
86.0304596679
 10
83.846733207
 20
85.9840407783
 10
83.8546201108
 20
85.9260544775
 10
83.8641646245
 20
85.8681931985
 10
83.875344098
 20
85.8106412668
 10
83.8881358809
 20
85.7535830082
 10
83.9025168825
 20
85.6971732178
 10
83.9184622501
 20
85.6414485694
 10
83.9359466907
 20
85.5864162061
 10
83.9549449113
 20
85.5320832712
 10
83.9754433718
 20
85.4784464116
 10
83.9974755442
 20
85.4254602887
 10
84.0210866533
 20
85.3730690675
 10
84.046321924
 20
85.321216913
 10
84.0771860237
 20
85.2625814362
 10
84.1101600933
 20
85.2047078031
 10
84.1451736795
 20
85.1477266978
 10
84.1821563292
 20
85.0917688041
 10
84.2210375891
 20
85.036964806
 10
84.2617470059
 20
84.9834453873
 10
84.3042141264
 20
84.931341232
 10
84.3483701161
 20
84.8807672045
 10
84.3941526147
 20
84.8317748906
 10
84.4415008811
 20
84.7844000569
 10
84.4903541738
 20
84.7386784698
 10
84.5406517513
 20
84.6946458957
 10
84.5923328724
 20
84.652338101
 10
84.6453367956
 20
84.6117908522
 10
84.6996064335
 20
84.5730407104
 10
84.7550993143
 20
84.5361274166
 10
84.8117766203
 20
84.5010915062
 10
84.8695995338
 20
84.4679735149
 10
84.9285292368
 20
84.4368139783
 10
84.9885269117
 20
84.407653432
 10
85.0495537407
 20
84.3805324115
 10
85.111554073
 20
84.3554877325
 10
85.1744049255
 20
84.33254133
 10
85.2379664825
 20
84.3117114192
 10
85.3020989279
 20
84.2930162151
 10
85.3666624458
 20
84.2764739327
 10
85.4315172201
 20
84.2621027872
 10
85.4965234351
 20
84.2499209937
 10
85.5534434527
 20
84.2410668428
 10
85.6104302935
 20
84.2338829409
 10
85.667541881
 20
84.2283493684
 10
85.7248361382
 20
84.2244462057
 10
85.7823596418
 20
84.2221623808
 10
85.8401135819
 20
84.2215222117
 10
85.898087802
 20
84.2225588639
 10
85.9562721456
 20
84.2253055029
 10
86.014629012
 20
84.229784492
 10
86.0730110243
 20
84.2359749863
 10
86.1312433616
 20
84.2438453387
 10
86.1891512027
 20
84.2533639021
 10
86.2351836759
 20
84.2621634951
 10
86.2811509806
 20
84.2720972689
 10
86.3273075113
 20
84.2832648032
 10
86.3739076626
 20
84.2957656778
 10
86.421205829
 20
84.3096994725
  0
LINE
  5
378
100
AcDbEntity
  8
RACCORDO
100
AcDbLine
 62
250
  6
CONTINUOUS
 10
82.4796971081
 20
57.0276647903
 11
82.4796497914
 21
57.0346033157
  0
LINE
  5
379
100
AcDbEntity
  8
ASSI
100
AcDbLine
 62
250
  6
CONTINUOUS
 10
82.4796971081
 20
57.0276647903
 11
82.4796497914
 21
57.0346033157
  0
LINE
  5
37A
100
AcDbEntity
  8
RACCORDO
100
AcDbLine
 62
250
  6
CONTINUOUS
 10
82.479795294
 20
99.2962687839
 11
82.4796244018
 21
99.3754203139
  0
LINE
  5
37B
100
AcDbEntity
  8
ASSI
100
AcDbLine
 62
250
  6
CONTINUOUS
 10
82.479795294
 20
99.2962687839
 11
82.4796244018
 21
99.3754203139
  0
LINE
  5
37C
100
AcDbEntity
  8
0
100
AcDbLine
 62
250
  6
CONTINUOUS
 10
81.6307955837
 20
86.2971332032
 11
81.6307955837
 21
87.3080542032
  0
LINE
  5
37D
100
AcDbEntity
  8
0
100
AcDbLine
 62
250
  6
CONTINUOUS
 10
81.6307955837
 20
89.6046602032
 11
81.6307955837
 21
90.6156152032
  0
LINE
  5
37E
100
AcDbEntity
  8
0
100
AcDbLine
 62
250
  6
CONTINUOUS
 10
81.832413155
 20
90.6156152032
 11
81.832413155
 21
89.3651672032
  0
LINE
  5
37F
100
AcDbEntity
  8
0
100
AcDbLine
 62
250
  6
CONTINUOUS
 10
81.832413155
 20
87.3080542032
 11
81.832413155
 21
86.0576232032
  0
LINE
  5
380
100
AcDbEntity
  8
0
100
AcDbLine
 62
250
  6
CONTINUOUS
 10
81.832413155
 20
85.5559952032
 11
81.832413155
 21
85.2938072032
  0
LINE
  5
381
100
AcDbEntity
  8
0
100
AcDbLine
 62
250
  6
CONTINUOUS
 10
81.832413155
 20
84.3483942032
 11
81.832413155
 21
84.1215122032
  0
LINE
  5
382
100
AcDbEntity
  8
0
100
AcDbLine
 62
250
  6
CONTINUOUS
 10
81.8324181535
 20
88.4197752032
 11
81.8324181535
 21
88.1475202032
  0
LINE
  5
383
100
AcDbEntity
  8
0
100
AcDbLine
 62
250
  6
CONTINUOUS
 10
81.8340267317
 20
93.0403874768
 11
81.8340267317
 21
92.9291977229
  0
LINE
  5
384
100
AcDbEntity
  8
0
100
AcDbLine
 62
250
  6
CONTINUOUS
 10
81.9575273749
 20
80.3785682032
 11
81.9575273749
 21
81.8390682032
  0
LINE
  5
385
100
AcDbEntity
  8
SUPERFICI
100
AcDbLine
 62
7
  6
CONTINUOUS
 10
82.332413155
 20
54.7913324629
 11
82.332413155
 21
55.6198738973
  0
LINE
  5
386
100
AcDbEntity
  8
RACCORDO
100
AcDbLine
 62
7
  6
CONTINUOUS
 10
82.332413155
 20
55.5916456005
 11
82.332413155
 21
56.8741076137
  0
LINE
  5
387
100
AcDbEntity
  8
ASSI
100
AcDbLine
 62
7
  6
CONTINUOUS
 10
82.332413155
 20
54.7913324629
 11
82.332413155
 21
56.8741076137
  0
LINE
  5
388
100
AcDbEntity
  8
RACCORDO
100
AcDbLine
 62
7
  6
CONTINUOUS
 10
82.332413155
 20
99.5689167926
 11
82.332413155
 21
100.8513788058
  0
LINE
  5
389
100
AcDbEntity
  8
SUPERFICI
100
AcDbLine
 62
7
  6
CONTINUOUS
 10
82.332413155
 20
100.8513788058
 11
82.332413155
 21
101.6516919435
  0
LINE
  5
38A
100
AcDbEntity
  8
ASSI
100
AcDbLine
 62
7
  6
CONTINUOUS
 10
82.332413155
 20
99.5689167926
 11
82.332413155
 21
101.6516919435
  0
LINE
  5
38B
100
AcDbEntity
  8
0
100
AcDbLine
 62
250
  6
CONTINUOUS
 10
82.3404541089
 20
69.7184402032
 11
82.3404541089
 21
68.9290402032
  0
LINE
  5
38C
100
AcDbEntity
  8
0
100
AcDbLine
 62
250
  6
CONTINUOUS
 10
82.3404541089
 20
64.1926402032
 11
82.3404541089
 21
66.5608402032
  0
LINE
  5
38D
100
AcDbEntity
  8
0
100
AcDbLine
 62
250
  6
CONTINUOUS
 10
82.7072989351
 20
81.8390682032
 11
82.7072989351
 21
80.3785682032
  0
LINE
  5
38E
100
AcDbEntity
  8
0
100
AcDbLine
 62
250
  6
CONTINUOUS
 10
82.832413155
 20
91.9072264122
 11
82.832413155
 21
91.8000836062
  0
LINE
  5
38F
100
AcDbEntity
  8
0
100
AcDbLine
 62
250
  6
CONTINUOUS
 10
82.832413155
 20
89.5500836509
 11
82.832413155
 21
89.4429407778
  0
LINE
  5
390
100
AcDbEntity
  8
0
100
AcDbLine
 62
250
  6
CONTINUOUS
 10
82.832413155
 20
90.5143693077
 11
82.832413155
 21
90.8357979941
  0
LINE
  5
391
100
AcDbEntity
  8
0
100
AcDbLine
 62
250
  6
CONTINUOUS
 10
82.832413155
 20
93.5143693971
 11
82.832413155
 21
93.9429406213
  0
LINE
  5
392
100
AcDbEntity
  8
0
100
AcDbLine
 62
250
  6
CONTINUOUS
 10
83.1296136683
 20
71.2972402032
 11
83.1296136683
 21
68.9290402032
  0
LINE
  5
393
100
AcDbEntity
  8
0
100
AcDbLine
 62
250
  6
CONTINUOUS
 10
83.4752702596
 20
93.7286550092
 11
83.4752702596
 21
93.9429406213
  0
LINE
  5
394
100
AcDbEntity
  8
0
100
AcDbLine
 62
250
  6
CONTINUOUS
 10
83.4864969334
 20
71.8284952032
 11
83.4864969334
 21
72.6684172032
  0
LINE
  5
395
100
AcDbEntity
  8
0
100
AcDbLine
 62
250
  6
CONTINUOUS
 10
83.6895560058
 20
90.9786551284
 11
83.6895560058
 21
90.5143693077
  0
LINE
  5
396
100
AcDbEntity
  8
SUPERFICI
100
AcDbLine
 62
7
  6
CONTINUOUS
 10
83.932413155
 20
100.4215122032
 11
83.932413155
 21
99.3935840993
  0
LINE
  5
397
100
AcDbEntity
  8
ASSI
100
AcDbLine
 62
7
  6
CONTINUOUS
 10
83.932413155
 20
100.4215122032
 11
83.932413155
 21
99.3935840993
  0
LINE
  5
398
100
AcDbEntity
  8
SUPERFICI
100
AcDbLine
 62
7
  6
CONTINUOUS
 10
83.932413155
 20
56.0215122032
 11
83.932413155
 21
57.0494403071
  0
LINE
  5
399
100
AcDbEntity
  8
ASSI
100
AcDbLine
 62
7
  6
CONTINUOUS
 10
83.932413155
 20
56.0215122032
 11
83.932413155
 21
57.0494403071
  0
LINE
  5
39A
100
AcDbEntity
  8
0
100
AcDbLine
 62
250
  6
CONTINUOUS
 10
84.2058707551
 20
63.1690742032
 11
84.2058707551
 21
63.5258272032
  0
LINE
  5
39B
100
AcDbEntity
  8
0
100
AcDbLine
 62
250
  6
CONTINUOUS
 10
84.332413155
 20
94.050083785
 11
84.332413155
 21
93.5143693971
  0
LINE
  5
39C
100
AcDbEntity
  8
0
100
AcDbLine
 62
250
  6
CONTINUOUS
 10
84.332413155
 20
89.4429407778
 11
84.332413155
 21
89.5500836509
  0
LINE
  5
39D
100
AcDbEntity
  8
0
100
AcDbLine
 62
250
  6
CONTINUOUS
 10
84.332413155
 20
91.8000836062
 11
84.332413155
 21
91.9072264122
  0
LWPOLYLINE
  5
39E
100
AcDbEntity
  8
0
100
AcDbPolyline
 62
250
  6
CONTINUOUS
 90
9
 70
0
 10
84.8815078992
 20
82.1380400589
 10
84.8815099263
 20
82.150690817
 10
84.8814460641
 20
82.1633359618
 10
84.8813162228
 20
82.1759751208
 10
84.8811203122
 20
82.1886079215
 10
84.8808582426
 20
82.2012339913
 10
84.8805299239
 20
82.2138529577
 10
84.8801352662
 20
82.2264644482
 10
84.8796741795
 20
82.2390680902
  0
LWPOLYLINE
  5
39F
100
AcDbEntity
  8
0
100
AcDbPolyline
 62
250
  6
CONTINUOUS
 90
9
 70
0
 10
84.8815077818
 20
77.7529300947
 10
84.8815098087
 20
77.7655808477
 10
84.8814459464
 20
77.7782259875
 10
84.8813161049
 20
77.7908651414
 10
84.8811201944
 20
77.803497937
 10
84.8808581247
 20
77.8161240017
 10
84.8805298061
 20
77.8287429631
 10
84.8801351485
 20
77.8413544486
 10
84.879674062
 20
77.8539580856
  0
LINE
  5
3A0
100
AcDbEntity
  8
RACCORDO
100
AcDbLine
 62
250
  6
CONTINUOUS
 10
82.4796497914
 20
57.0346033157
 11
82.4796432249
 21
57.0838662878
  0
LINE
  5
3A1
100
AcDbEntity
  8
ASSI
100
AcDbLine
 62
250
  6
CONTINUOUS
 10
82.4796497914
 20
57.0346033157
 11
82.4796432249
 21
57.0838662878
  0
LWPOLYLINE
  5
3A2
100
AcDbEntity
  8
RACCORDO
100
AcDbPolyline
 62
250
  6
CONTINUOUS
 90
6
 70
0
 10
82.4796244018
 20
99.3754203139
 10
82.4796428633
 20
99.4066230031
 10
82.4796678355
 20
99.4117982891
 10
82.4797042138
 20
99.415672425
 10
82.4797473502
 20
99.4180998402
 10
82.479795294
 20
99.4189396384
  0
LWPOLYLINE
  5
3A3
100
AcDbEntity
  8
ASSI
100
AcDbPolyline
 62
250
  6
CONTINUOUS
 90
6
 70
0
 10
82.4796244018
 20
99.3754203139
 10
82.4796428633
 20
99.4066230031
 10
82.4796678355
 20
99.4117982891
 10
82.4797042138
 20
99.415672425
 10
82.4797473502
 20
99.4180998402
 10
82.479795294
 20
99.4189396384
  0
LWPOLYLINE
  5
3A4
100
AcDbEntity
  8
RACCORDO
100
AcDbPolyline
 62
250
  6
CONTINUOUS
 90
3
 70
0
 10
82.4796432249
 20
57.0838662878
 10
82.4797474258
 20
57.1284550184
 10
82.479795294
 20
57.1467556225
  0
LWPOLYLINE
  5
3A5
100
AcDbEntity
  8
ASSI
100
AcDbPolyline
 62
250
  6
CONTINUOUS
 90
3
 70
0
 10
82.4796432249
 20
57.0838662878
 10
82.4797474258
 20
57.1284550184
 10
82.479795294
 20
57.1467556225
  0
LWPOLYLINE
  5
3A6
100
AcDbEntity
  8
0
100
AcDbPolyline
 62
250
  6
CONTINUOUS
 90
59
 70
0
 10
81.7810202553
 20
91.909028424
 10
81.7808765948
 20
91.8923910451
 10
81.780432064
 20
91.8757126163
 10
81.7796663392
 20
91.8590117081
 10
81.7785590965
 20
91.8423068908
 10
81.7770900121
 20
91.8256167346
 10
81.7752387621
 20
91.80895981
 10
81.7729850227
 20
91.7923546872
 10
81.77030847
 20
91.7758199366
 10
81.7671887803
 20
91.7593741285
 10
81.7636056296
 20
91.7430358333
 10
81.7595386942
 20
91.7268236212
 10
81.7549676502
 20
91.7107560626
 10
81.7498721738
 20
91.6948517278
 10
81.7442319411
 20
91.6791291872
 10
81.7380266283
 20
91.6636070111
 10
81.7313215029
 20
91.6484743866
 10
81.7240604696
 20
91.6335740933
 10
81.7162599508
 20
91.618924417
 10
81.7079363689
 20
91.6045436436
 10
81.6991061464
 20
91.5904500589
 10
81.6897857057
 20
91.5766619487
 10
81.6799914692
 20
91.5631975987
 10
81.6697398595
 20
91.5500752948
 10
81.6590472989
 20
91.5373133228
 10
81.6479302099
 20
91.5249299685
 10
81.6364050149
 20
91.5129435177
 10
81.6244881364
 20
91.5013722561
 10
81.6121959968
 20
91.4902344697
 10
81.5995450185
 20
91.4795484442
 10
81.586551624
 20
91.4693324653
 10
81.5723148979
 20
91.4589558523
 10
81.5577240161
 20
91.4491236191
 10
81.542796649
 20
91.4398231567
 10
81.5275504671
 20
91.4310418564
 10
81.5120031408
 20
91.4227671093
 10
81.4961723407
 20
91.4149863064
 10
81.4800757372
 20
91.407686839
 10
81.4637310007
 20
91.4008560981
 10
81.4471558018
 20
91.3944814749
 10
81.4303678108
 20
91.3885503606
 10
81.4133846984
 20
91.3830501462
 10
81.3962241348
 20
91.3779682229
 10
81.3789037906
 20
91.3732919818
 10
81.3614413363
 20
91.3690088141
 10
81.3438544424
 20
91.3651061109
 10
81.3261607792
 20
91.3615712634
 10
81.3083780172
 20
91.3583916625
 10
81.290523827
 20
91.3555546996
 10
81.272615879
 20
91.3530477657
 10
81.2546718437
 20
91.350858252
 10
81.2367093915
 20
91.3489735495
 10
81.2187461928
 20
91.3473810495
 10
81.2007999183
 20
91.3460681431
 10
81.1828882382
 20
91.3450222213
 10
81.1650288232
 20
91.3442306754
 10
81.1472393436
 20
91.3436808964
 10
81.1295374699
 20
91.3433602755
 10
81.1119408726
 20
91.3432562039
  0
LWPOLYLINE
  5
3A7
100
AcDbEntity
  8
0
100
AcDbPolyline
 62
250
  6
CONTINUOUS
 90
88
 70
0
 10
84.3324131561
 20
86.2215122024
 10
84.3328766438
 20
86.2592756484
 10
84.3342539805
 20
86.2956566701
 10
84.3365254763
 20
86.3315123533
 10
84.3415676384
 20
86.3855617991
 10
84.3485195506
 20
86.4395066715
 10
84.3573252447
 20
86.4926657458
 10
84.3679361057
 20
86.5450369173
 10
84.3803067311
 20
86.5967440562
 10
84.3943972174
 20
86.6477358097
 10
84.410171775
 20
86.6979293085
 10
84.4276055729
 20
86.7472908393
 10
84.4466765195
 20
86.7957989776
 10
84.4673625234
 20
86.8434322992
 10
84.4896346704
 20
86.890163808
 10
84.5134367551
 20
86.9359442216
 10
84.5387315373
 20
86.9807541672
 10
84.5655849279
 20
87.0247161968
 10
84.5940723411
 20
87.0679500596
 10
84.6242040529
 20
87.1104223683
 10
84.6559740549
 20
87.1520614517
 10
84.6893763386
 20
87.1927956387
 10
84.7243900342
 20
87.2325452909
 10
84.7609348269
 20
87.2711989024
 10
84.7989155401
 20
87.3086370002
 10
84.8382369977
 20
87.3447401114
 10
84.8788015535
 20
87.3793987737
 10
84.9205016822
 20
87.4125435675
 10
84.9632273887
 20
87.4441150839
 10
85.0068686779
 20
87.474053914
 10
85.051298789
 20
87.5022976026
 10
85.0963238978
 20
87.5287715084
 10
85.1418081725
 20
87.5534348284
 10
85.1879148136
 20
87.5763942977
 10
85.2348449688
 20
87.5977652757
 10
85.2826525419
 20
87.6175500804
 10
85.3313546257
 20
87.6357227694
 10
85.380968313
 20
87.6522574003
 10
85.4314726789
 20
87.6671242245
 10
85.4826947264
 20
87.6802782672
 10
85.5344234408
 20
87.6916707471
 10
85.5864478071
 20
87.701252883
 10
85.6460410754
 20
87.709938674
 10
85.7057030049
 20
87.7162080203
 10
85.7653917102
 20
87.7200727226
 10
85.8250653059
 20
87.7215445812
 10
85.8846819066
 20
87.7206353967
 10
85.9441996271
 20
87.7173569697
 10
86.0035765819
 20
87.7117211006
 10
86.0627596346
 20
87.7037392792
 10
86.1216506444
 20
87.6934217518
 10
86.1801402195
 20
87.6807784542
 10
86.2381189681
 20
87.6658193217
 10
86.2954774982
 20
87.6485542902
 10
86.3521064181
 20
87.6289932951
 10
86.4078963358
 20
87.6071462721
 10
86.462741928
 20
87.5830337253
 10
86.5165541455
 20
87.556718433
 10
86.5692480072
 20
87.5282737422
 10
86.6207385324
 20
87.4977729999
 10
86.6709407402
 20
87.4652895529
 10
86.7197696498
 20
87.4308967482
 10
86.7671402804
 20
87.3946679327
 10
86.812976116
 20
87.3566672264
 10
86.8572345007
 20
87.316921842
 10
86.8998812437
 20
87.2754497651
 10
86.940882154
 20
87.2322689815
 10
86.9802030408
 20
87.1873974768
 10
87.017809713
 20
87.1408532368
 10
87.0536679799
 20
87.0926542472
 10
87.0835667517
 20
87.0491662009
 10
87.1119812523
 20
87.00461311
 10
87.138792011
 20
86.9591830771
 10
87.1638795568
 20
86.9130642049
 10
87.1871523795
 20
86.86640692
 10
87.2086308112
 20
86.8192109438
 10
87.2283631448
 20
86.771438322
 10
87.2463976729
 20
86.7230510998
 10
87.2627723493
 20
86.6740129151
 10
87.2774837709
 20
86.6242937756
 10
87.2905181956
 20
86.5738652813
 10
87.3018618815
 20
86.5226990322
 10
87.31149446
 20
86.470799158
 10
87.3193690568
 20
86.4182999063
 10
87.3254321712
 20
86.365368054
 10
87.3296303026
 20
86.3121703783
 10
87.3319219497
 20
86.2588685617
 10
87.3323136082
 20
86.2056039082
  0
LINE
  5
3A8
100
AcDbEntity
  8
RACCORDO
100
AcDbLine
 62
7
  6
CONTINUOUS
 10
82.332413155
 20
56.8679809086
 11
82.334953501
 21
56.8980420107
  0
LINE
  5
3A9
100
AcDbEntity
  8
ASSI
100
AcDbLine
 62
7
  6
CONTINUOUS
 10
82.332413155
 20
56.8679809086
 11
82.334953501
 21
56.8980420107
  0
LINE
  5
3AA
100
AcDbEntity
  8
0
100
AcDbLine
 62
7
  6
CONTINUOUS
 10
80.032950414
 20
84.2898742321
 11
80.2815921408
 21
84.5385159589
  0
LINE
  5
3AB
100
AcDbEntity
  8
0
100
AcDbLine
 62
7
  6
CONTINUOUS
 10
81.0721713851
 20
85.3290952032
 11
81.2990713851
 21
85.5559952032
  0
LINE
  5
3AC
100
AcDbEntity
  8
0
100
AcDbLine
 62
7
  6
CONTINUOUS
 10
81.8006993851
 20
86.0576232032
 11
81.832413155
 21
86.0893369731
  0
LINE
  5
3AD
100
AcDbEntity
  8
0
100
AcDbLine
 62
7
  6
CONTINUOUS
 10
80.0745990991
 20
84.1215122032
 11
80.8868924769
 21
84.933805581
  0
LINE
  5
3AE
100
AcDbEntity
  8
0
100
AcDbLine
 62
7
  6
CONTINUOUS
 10
81.2821820991
 20
85.3290952032
 11
81.5090820991
 21
85.5559952032
  0
LINE
  5
3AF
100
AcDbEntity
  8
0
100
AcDbLine
 62
7
  6
CONTINUOUS
 10
80.2846098131
 20
84.1215122032
 11
80.5161113307
 21
84.3530137207
  0
LINE
  5
3B0
100
AcDbEntity
  8
0
100
AcDbLine
 62
7
  6
CONTINUOUS
 10
80.7559458402
 20
84.5928482303
 11
81.7190928131
 21
85.5559952032
  0
LINE
  5
3B1
100
AcDbEntity
  8
0
100
AcDbLine
 62
7
  6
CONTINUOUS
 10
80.4946205271
 20
84.1215122032
 11
80.7253875966
 21
84.3522792726
  0
LINE
  5
3B2
100
AcDbEntity
  8
0
100
AcDbLine
 62
7
  6
CONTINUOUS
 10
81.3579821844
 20
84.9848738605
 11
81.832413155
 21
85.4593048311
  0
LINE
  5
3B3
100
AcDbEntity
  8
0
100
AcDbLine
 62
7
  6
CONTINUOUS
 10
80.7046312411
 20
84.1215122032
 11
80.9346638625
 21
84.3515448245
  0
LINE
  5
3B4
100
AcDbEntity
  8
0
100
AcDbLine
 62
7
  6
CONTINUOUS
 10
80.9146419551
 20
84.1215122032
 11
81.1439401284
 21
84.3508103764
  0
LINE
  5
3B5
100
AcDbEntity
  8
0
100
AcDbLine
 62
7
  6
CONTINUOUS
 10
81.1246526692
 20
84.1215122032
 11
81.3532163943
 21
84.3500759283
  0
LINE
  5
3B6
100
AcDbEntity
  8
0
100
AcDbLine
 62
7
  6
CONTINUOUS
 10
81.3346633832
 20
84.1215122032
 11
81.5624926602
 21
84.3493414802
  0
LINE
  5
3B7
100
AcDbEntity
  8
0
100
AcDbLine
 62
7
  6
CONTINUOUS
 10
81.5446740972
 20
84.1215122032
 11
81.7717689261
 21
84.3486070321
  0
LINE
  5
3B8
100
AcDbEntity
  8
0
100
AcDbLine
 62
7
  6
CONTINUOUS
 10
81.7546848112
 20
84.1215122032
 11
81.832413155
 21
84.199240547
  0
LINE
  5
3B9
100
AcDbEntity
  8
0
100
AcDbLine
 62
7
  6
CONTINUOUS
 10
79.7883699372
 20
82.1217297184
 11
79.9057109401
 21
82.2390707213
  0
LINE
  5
3BA
100
AcDbEntity
  8
0
100
AcDbLine
 62
7
  6
CONTINUOUS
 10
79.7939750539
 20
81.9173241211
 11
80.1157208147
 21
82.2390698819
  0
LINE
  5
3BB
100
AcDbEntity
  8
0
100
AcDbLine
 62
7
  6
CONTINUOUS
 10
79.8222985106
 20
81.7356368638
 11
80.3257306893
 21
82.2390690425
  0
LINE
  5
3BC
100
AcDbEntity
  8
0
100
AcDbLine
 62
7
  6
CONTINUOUS
 10
91.3135563555
 20
93.1350602597
 11
91.492370299
 21
93.3138742032
  0
LINE
  5
3BD
100
AcDbEntity
  8
0
100
AcDbLine
 62
7
  6
CONTINUOUS
 10
79.854712568
 20
81.5580402072
 11
80.5357405639
 21
82.2390682032
  0
LINE
  5
3BE
100
AcDbEntity
  8
0
100
AcDbLine
 62
7
  6
CONTINUOUS
 10
79.9018620552
 20
81.3951789804
 11
80.5379010247
 21
82.0312179499
  0
LINE
  5
3BF
100
AcDbEntity
  8
0
100
AcDbLine
 62
7
  6
CONTINUOUS
 10
91.3135563555
 20
92.7150388317
 11
91.912391727
 21
93.3138742032
  0
LINE
  5
3C0
100
AcDbEntity
  8
0
100
AcDbLine
 62
7
  6
CONTINUOUS
 10
79.9532689668
 20
81.236575178
 11
80.5598393702
 21
81.8431455814
  0
LINE
  5
3C1
100
AcDbEntity
  8
0
100
AcDbLine
 62
7
  6
CONTINUOUS
 10
80.0165491729
 20
81.0898446701
 11
80.5974241671
 21
81.6707196643
  0
LINE
  5
3C2
100
AcDbEntity
  8
0
100
AcDbLine
 62
7
  6
CONTINUOUS
 10
91.3135563555
 20
92.2950174036
 11
92.332413155
 21
93.3138742032
  0
LINE
  5
3C3
100
AcDbEntity
  8
0
100
AcDbLine
 62
7
  6
CONTINUOUS
 10
80.0828182679
 20
80.9461030511
 11
80.6481304868
 21
81.51141527
  0
LINE
  5
3C4
100
AcDbEntity
  8
0
100
AcDbLine
 62
7
  6
CONTINUOUS
 10
80.1610550283
 20
80.8143290974
 11
80.7103546483
 21
81.3636287175
  0
LINE
  5
3C5
100
AcDbEntity
  8
0
100
AcDbLine
 62
7
  6
CONTINUOUS
 10
91.3135563555
 20
91.8749959756
 11
92.332413155
 21
92.8938527751
  0
LINE
  5
3C6
100
AcDbEntity
  8
0
100
AcDbLine
 62
7
  6
CONTINUOUS
 10
80.2400182342
 20
80.6832815893
 11
80.7829670072
 21
81.2262303623
  0
LINE
  5
3C7
100
AcDbEntity
  8
0
100
AcDbLine
 62
7
  6
CONTINUOUS
 10
80.3326987597
 20
80.5659514009
 11
80.8650696431
 21
81.0983222843
  0
LINE
  5
3C8
100
AcDbEntity
  8
0
100
AcDbLine
 62
7
  6
CONTINUOUS
 10
91.3135563555
 20
91.4549745476
 11
92.332413155
 21
92.4738313471
  0
LINE
  5
3C9
100
AcDbEntity
  8
0
100
AcDbLine
 62
7
  6
CONTINUOUS
 10
80.4253792853
 20
80.4486212124
 11
80.956063564
 21
80.9793054911
  0
LINE
  5
3CA
100
AcDbEntity
  8
0
100
AcDbLine
 62
7
  6
CONTINUOUS
 10
80.5297906267
 20
80.3430218398
 11
81.0570381605
 21
80.8702693737
  0
LINE
  5
3CB
100
AcDbEntity
  8
0
100
AcDbLine
 62
7
  6
CONTINUOUS
 10
81.9575273996
 20
81.7707586127
 11
82.0258369901
 21
81.8390682032
  0
LINE
  5
3CC
100
AcDbEntity
  8
0
100
AcDbLine
 62
7
  6
CONTINUOUS
 10
91.3135563555
 20
91.0349531196
 11
92.332413155
 21
92.0538099191
  0
LINE
  5
3CD
100
AcDbEntity
  8
0
100
AcDbLine
 62
7
  6
CONTINUOUS
 10
80.6362385305
 20
80.2394590295
 11
81.1666100279
 21
80.769830527
  0
LINE
  5
3CE
100
AcDbEntity
  8
0
100
AcDbLine
 62
7
  6
CONTINUOUS
 10
81.9575274752
 20
81.5607479743
 11
82.2358477041
 21
81.8390682032
  0
LINE
  5
3CF
100
AcDbEntity
  8
0
100
AcDbLine
 62
7
  6
CONTINUOUS
 10
80.7513756729
 20
80.1445854579
 11
81.2848752144
 21
80.6780849995
  0
LINE
  5
3D0
100
AcDbEntity
  8
0
100
AcDbLine
 62
7
  6
CONTINUOUS
 10
81.9575275508
 20
81.3507373359
 11
82.4458584181
 21
81.8390682032
  0
LINE
  5
3D1
100
AcDbEntity
  8
0
100
AcDbLine
 62
7
  6
CONTINUOUS
 10
91.3135563555
 20
90.6149316915
 11
92.332413155
 21
91.6337884911
  0
LINE
  5
3D2
100
AcDbEntity
  8
0
100
AcDbLine
 62
250
  6
CONTINUOUS
 10
85.2571659136
 20
88.7213822032
 11
90.2336938488
 21
93.4530682032
  0
LINE
  5
3D3
100
AcDbEntity
  8
0
100
AcDbLine
 62
250
  6
CONTINUOUS
 10
80.032950414
 20
84.3761412032
 11
81.4921928131
 21
85.3290952032
  0
LINE
  5
3D4
100
AcDbEntity
  8
0
100
AcDbLine
 62
250
  6
CONTINUOUS
 10
81.832413155
 20
85.2938072032
 11
80.3883191406
 21
84.3534622032
  0
LINE
  5
3D5
100
AcDbEntity
  8
0
100
AcDbLine
 62
250
  6
CONTINUOUS
 10
83.260984558
 20
89.8715122032
 11
83.0466988565
 21
89.7643693524
  0
LINE
  5
3D6
100
AcDbEntity
  8
0
100
AcDbLine
 62
250
  6
CONTINUOUS
 10
83.9038417073
 20
89.1215122032
 11
84.1181274311
 21
89.2286550651
  0
LINE
  5
3D7
100
AcDbEntity
  8
0
100
AcDbLine
 62
250
  6
CONTINUOUS
 10
81.8324181535
 20
88.1475202032
 11
80.0329564122
 21
87.5122282032
  0
LINE
  5
3D8
100
AcDbEntity
  8
0
100
AcDbLine
 62
250
  6
CONTINUOUS
 10
80.0329564122
 20
87.7718562032
 11
81.5929980998
 21
88.2887067032
  0
LWPOLYLINE
  5
3D9
100
AcDbEntity
  8
RACCORDO
100
AcDbPolyline
 62
250
  6
CONTINUOUS
 90
10
 70
0
 10
99.0411393582
 20
60.980505407
 10
99.1268845535
 20
60.986075936
 10
99.2098173121
 20
61.0007506659
 10
99.287473057
 20
61.0240920781
 10
99.3575451914
 20
61.0554054653
 10
99.4179518109
 20
61.0937589496
 10
99.4668983405
 20
61.1380107127
 10
99.5029329285
 20
61.1868443655
 10
99.5249885151
 20
61.2388086631
 10
99.532413155
 20
61.2923595875
  0
LWPOLYLINE
  5
3DA
100
AcDbEntity
  8
ASSI
100
AcDbPolyline
 62
250
  6
CONTINUOUS
 90
10
 70
0
 10
99.0411393582
 20
60.980505407
 10
99.1268845535
 20
60.986075936
 10
99.2098173121
 20
61.0007506659
 10
99.287473057
 20
61.0240920781
 10
99.3575451914
 20
61.0554054653
 10
99.4179518109
 20
61.0937589496
 10
99.4668983405
 20
61.1380107127
 10
99.5029329285
 20
61.1868443655
 10
99.5249885151
 20
61.2388086631
 10
99.532413155
 20
61.2923595875
  0
LINE
  5
3DB
100
AcDbEntity
  8
0
100
AcDbLine
 62
250
  6
CONTINUOUS
 10
77.3165526601
 20
60.8374395335
 11
77.632413155
 21
60.8449390465
  0
LINE
  5
3DC
100
AcDbEntity
  8
0
100
AcDbLine
 62
250
  6
CONTINUOUS
 10
77.0006418091
 20
60.8299325358
 11
77.3165526601
 21
60.8374395335
  0
LINE
  5
3DD
100
AcDbEntity
  8
0
100
AcDbLine
 62
250
  6
CONTINUOUS
 10
76.8630913893
 20
62.0699385448
 11
77.779795294
 21
62.0901439824
  0
LINE
  5
3DE
100
AcDbEntity
  8
DRAFT
100
AcDbLine
 62
7
  6
CONTINUOUS
 10
101.3359036363
 20
62.3529922466
 11
99.532413155
 21
62.3215122032
  0
LINE
  5
3DF
100
AcDbEntity
  8
ASSI
100
AcDbLine
 62
7
  6
CONTINUOUS
 10
101.3359036363
 20
62.3529922466
 11
99.532413155
 21
62.3215122032
  0
LINE
  5
3E0
100
AcDbEntity
  8
RACCORDO
100
AcDbLine
 62
250
  6
CONTINUOUS
 10
92.1230032159
 20
62.1856964175
 11
78.332413155
 21
62.1018530372
  0
LINE
  5
3E1
100
AcDbEntity
  8
ASSI
100
AcDbLine
 62
250
  6
CONTINUOUS
 10
92.1230032159
 20
62.1856964175
 11
78.332413155
 21
62.1018530372
  0
LINE
  5
3E2
100
AcDbEntity
  8
RACCORDO
100
AcDbLine
 62
250
  6
CONTINUOUS
 10
99.0411393582
 20
62.2279221293
 11
92.1230032159
 21
62.1856964175
  0
LINE
  5
3E3
100
AcDbEntity
  8
ASSI
100
AcDbLine
 62
250
  6
CONTINUOUS
 10
99.0411393582
 20
62.2279221293
 11
92.1230032159
 21
62.1856964175
  0
LINE
  5
3E4
100
AcDbEntity
  8
RACCORDO
100
AcDbLine
 62
250
  6
CONTINUOUS
 10
99.0411393582
 20
60.9805054068
 11
85.2200943682
 21
60.9013761346
  0
LINE
  5
3E5
100
AcDbEntity
  8
ASSI
100
AcDbLine
 62
250
  6
CONTINUOUS
 10
99.0411393582
 20
60.9805054068
 11
85.2200943682
 21
60.9013761346
  0
LINE
  5
3E6
100
AcDbEntity
  8
RACCORDO
100
AcDbLine
 62
250
  6
CONTINUOUS
 10
85.2200943682
 20
60.9013761346
 11
78.332413155
 21
60.862082634
  0
LINE
  5
3E7
100
AcDbEntity
  8
ASSI
100
AcDbLine
 62
250
  6
CONTINUOUS
 10
85.2200943682
 20
60.9013761346
 11
78.332413155
 21
60.862082634
  0
LINE
  5
3E8
100
AcDbEntity
  8
0
100
AcDbLine
 62
7
  6
CONTINUOUS
 10
99.532413155
 20
60.9231722032
 11
99.732413155
 21
60.9231722032
  0
LINE
  5
3E9
100
AcDbEntity
  8
ASSI
100
AcDbLine
 62
7
  6
CONTINUOUS
 10
99.532413155
 20
60.9231722032
 11
99.732413155
 21
60.9231722032
  0
LINE
  5
3EA
100
AcDbEntity
  8
0
100
AcDbLine
 62
7
  6
CONTINUOUS
 10
99.532413155
 20
61.2525922032
 11
99.732413155
 21
61.2525922032
  0
LINE
  5
3EB
100
AcDbEntity
  8
ASSI
100
AcDbLine
 62
7
  6
CONTINUOUS
 10
99.532413155
 20
61.2525922032
 11
99.732413155
 21
61.2525922032
  0
LINE
  5
3EC
100
AcDbEntity
  8
0
100
AcDbLine
 62
7
  6
CONTINUOUS
 10
99.532413155
 20
61.4972322032
 11
99.732413155
 21
61.4972322032
  0
LINE
  5
3ED
100
AcDbEntity
  8
ASSI
100
AcDbLine
 62
7
  6
CONTINUOUS
 10
99.532413155
 20
61.4972322032
 11
99.732413155
 21
61.4972322032
  0
LINE
  5
3EE
100
AcDbEntity
  8
0
100
AcDbLine
 62
7
  6
CONTINUOUS
 10
99.532413155
 20
61.9865122032
 11
99.732413155
 21
61.9865122032
  0
LINE
  5
3EF
100
AcDbEntity
  8
ASSI
100
AcDbLine
 62
7
  6
CONTINUOUS
 10
99.532413155
 20
61.9865122032
 11
99.732413155
 21
61.9865122032
  0
LINE
  5
3F0
100
AcDbEntity
  8
0
100
AcDbLine
 62
250
  6
CONTINUOUS
 10
94.532413155
 20
62.2215122032
 11
95.832413155
 21
62.2215122032
  0
LINE
  5
3F1
100
AcDbEntity
  8
RACCORDO
100
AcDbLine
 62
250
  6
CONTINUOUS
 10
99.0411393582
 20
62.2279221293
 11
99.532413155
 21
62.2279221293
  0
LINE
  5
3F2
100
AcDbEntity
  8
ASSI
100
AcDbLine
 62
250
  6
CONTINUOUS
 10
99.0411393582
 20
62.2279221293
 11
99.532413155
 21
62.2279221293
  0
LINE
  5
3F3
100
AcDbEntity
  8
0
100
AcDbLine
 62
7
  6
CONTINUOUS
 10
99.532413155
 20
62.2408922032
 11
99.732413155
 21
62.2408922032
  0
LINE
  5
3F4
100
AcDbEntity
  8
ASSI
100
AcDbLine
 62
7
  6
CONTINUOUS
 10
99.532413155
 20
62.2408922032
 11
99.732413155
 21
62.2408922032
  0
LINE
  5
3F5
100
AcDbEntity
  8
0
100
AcDbLine
 62
250
  6
CONTINUOUS
 10
96.532413155
 20
62.5929407912
 11
97.832413155
 21
62.5929407912
  0
LINE
  5
3F6
100
AcDbEntity
  8
0
100
AcDbLine
 62
250
  6
CONTINUOUS
 10
95.832413155
 20
62.9643693792
 11
94.532413155
 21
62.9643693792
  0
LINE
  5
3F7
100
AcDbEntity
  8
0
100
AcDbLine
 62
250
  6
CONTINUOUS
 10
97.646698861
 20
63.3357979285
 11
96.532413155
 21
63.3357979285
  0
LINE
  5
3F8
100
AcDbEntity
  8
0
100
AcDbLine
 62
250
  6
CONTINUOUS
 10
83.071074504
 20
63.5165362032
 11
81.5716713411
 21
63.5165362032
  0
LINE
  5
3F9
100
AcDbEntity
  8
CURVE
100
AcDbLine
 62
250
  6
CONTINUOUS
 10
88.314535004
 20
63.6500836509
 11
86.8149918837
 21
63.6500836509
  0
LINE
  5
3FA
100
AcDbEntity
  8
0
100
AcDbLine
 62
250
  6
CONTINUOUS
 10
84.4200724922
 20
63.7636622032
 11
84.63427223
 21
63.7636622032
  0
LINE
  5
3FB
100
AcDbEntity
  8
0
100
AcDbLine
 62
250
  6
CONTINUOUS
 10
96.532413155
 20
63.985797851
 11
97.646698861
 21
63.985797851
  0
LINE
  5
3FC
100
AcDbEntity
  8
RACCORDO
100
AcDbLine
 62
250
  6
CONTINUOUS
 10
76.7502018528
 20
60.9735073869
 11
72.941446154
 21
61.0399663826
  0
LINE
  5
3FD
100
AcDbEntity
  8
CURVE
100
AcDbLine
 62
250
  6
CONTINUOUS
 10
86.8149918837
 20
65.6857979941
 11
88.314535004
 21
65.2572264122
  0
LINE
  5
3FE
100
AcDbEntity
  8
0
100
AcDbLine
 62
250
  6
CONTINUOUS
 10
94.532413155
 20
63.7072265553
 11
95.832413155
 21
63.3357979285
  0
LINE
  5
3FF
100
AcDbEntity
  8
CURVE
100
AcDbLine
 62
250
  6
CONTINUOUS
 10
87.5647634439
 20
64.0786550986
 11
87.1363225779
 21
64.2929408001
  0
LINE
  5
400
100
AcDbEntity
  8
0
100
AcDbLine
 62
250
  6
CONTINUOUS
 10
94.532413155
 20
62.9643693792
 11
95.2752702923
 21
62.5929407912
  0
LINE
  5
401
100
AcDbEntity
  8
CURVE
100
AcDbLine
 62
250
  6
CONTINUOUS
 10
86.8149918837
 20
67.400083785
 11
88.314535004
 21
66.5429406213
  0
LINE
  5
402
100
AcDbEntity
  8
CURVE
100
AcDbLine
 62
250
  6
CONTINUOUS
 10
87.1363225779
 20
69.0072265911
 11
86.8149918837
 21
69.2215122032
  0
LINE
  5
403
100
AcDbEntity
  8
CURVE
100
AcDbLine
 62
250
  6
CONTINUOUS
 10
88.1003145487
 20
64.8286550092
 11
88.314535004
 21
64.6143693077
  0
LINE
  5
404
100
AcDbEntity
  8
0
100
AcDbLine
 62
250
  6
CONTINUOUS
 10
81.1250504172
 20
72.4421912032
 11
81.0179510482
 21
72.5621802032
  0
LWPOLYLINE
  5
405
100
AcDbEntity
  8
0
100
AcDbPolyline
 62
7
  6
CONTINUOUS
 90
10
 70
0
 10
77.779795294
 20
94.3528804239
 10
77.7547151683
 20
94.4467486946
 10
77.7304293041
 20
94.5382334909
 10
77.7076213219
 20
94.6273348127
 10
77.6871115392
 20
94.7141263042
 10
77.6692445928
 20
94.7985343212
 10
77.6541452967
 20
94.8803379311
 10
77.6424518183
 20
94.9594634897
 10
77.6350074156
 20
95.0359846412
 10
77.632413155
 20
95.1099013856
  0
LWPOLYLINE
  5
406
100
AcDbEntity
  8
0
100
AcDbPolyline
 62
250
  6
CONTINUOUS
 90
57
 70
0
 10
85.7106669654
 20
90.9617750989
 10
85.711798903
 20
90.9408477742
 10
85.7130491552
 20
90.9198323607
 10
85.7144313172
 20
90.8987433019
 10
85.7159589843
 20
90.8775950411
 10
85.7176457516
 20
90.8564020218
 10
85.7195052143
 20
90.8351786873
 10
85.7215509676
 20
90.813939481
 10
85.7237966067
 20
90.7926988463
 10
85.7262557269
 20
90.7714712266
 10
85.7289419233
 20
90.7502710652
 10
85.7318687911
 20
90.7291128055
 10
85.7350499255
 20
90.708010891
 10
85.7384989217
 20
90.686979765
 10
85.742229375
 20
90.6660338709
 10
85.7462548804
 20
90.645187652
 10
85.7505890333
 20
90.6244555518
 10
85.7552454288
 20
90.6038520137
 10
85.7602376621
 20
90.5833914809
 10
85.7655793284
 20
90.563088397
 10
85.7712840229
 20
90.5429572053
 10
85.7773653408
 20
90.5230123491
 10
85.7838368773
 20
90.5032682719
 10
85.7907122276
 20
90.4837394171
 10
85.798004987
 20
90.4644402279
 10
85.8057287505
 20
90.4453851479
 10
85.8138971134
 20
90.4265886204
 10
85.822523671
 20
90.4080650888
 10
85.8316220183
 20
90.3898289964
 10
85.8412057506
 20
90.3718947867
 10
85.8512884632
 20
90.354276903
 10
85.8618837511
 20
90.3369897887
 10
85.8730052096
 20
90.3200478872
 10
85.8846664339
 20
90.3034656419
 10
85.8968810192
 20
90.2872574962
 10
85.9096625607
 20
90.2714378934
 10
85.9230246536
 20
90.2560212769
 10
85.9369808931
 20
90.2410220902
 10
85.9515448744
 20
90.2264547765
 10
85.9667301927
 20
90.2123337794
 10
85.9825504431
 20
90.1986735421
 10
85.9913549101
 20
90.1915044972
 10
86.0003417199
 20
90.1845131421
 10
86.0095043516
 20
90.1777387781
 10
86.0188362842
 20
90.1712207066
 10
86.0283309969
 20
90.1649982289
 10
86.0379819687
 20
90.1591106465
 10
86.0477826787
 20
90.1535972606
 10
86.057726606
 20
90.1484973726
 10
86.0678072297
 20
90.143850284
 10
86.0780180289
 20
90.1396952961
 10
86.0883524827
 20
90.1360717103
 10
86.0988040701
 20
90.1330188279
 10
86.1093662703
 20
90.1305759503
 10
86.1200325623
 20
90.1287823789
 10
86.1307964252
 20
90.1276774151
 10
86.1416513382
 20
90.1273003601
  0
LINE
  5
407
100
AcDbEntity
  8
0
100
AcDbLine
 62
250
  6
CONTINUOUS
 10
85.7087036533
 20
91.0033077088
 11
85.7106669654
 21
90.9617750989
  0
LWPOLYLINE
  5
408
100
AcDbEntity
  8
0
100
AcDbPolyline
 62
250
  6
CONTINUOUS
 90
3
 70
0
 10
85.7063061649
 20
91.0645848736
 10
85.7070504573
 20
91.0443146432
 10
85.7087036533
 20
91.0033077088
  0
LWPOLYLINE
  5
409
100
AcDbEntity
  8
RACCORDO
100
AcDbPolyline
 62
250
  6
CONTINUOUS
 90
3
 70
0
 10
86.3037941962
 20
57.1468091662
 10
86.3034069249
 20
57.188828361
 10
86.3032679527
 20
57.2137938089
  0
LWPOLYLINE
  5
40A
100
AcDbEntity
  8
ASSI
100
AcDbPolyline
 62
250
  6
CONTINUOUS
 90
3
 70
0
 10
86.3037941962
 20
57.1468091662
 10
86.3034069249
 20
57.188828361
 10
86.3032679527
 20
57.2137938089
  0
LWPOLYLINE
  5
40B
100
AcDbEntity
  8
RACCORDO
100
AcDbPolyline
 62
250
  6
CONTINUOUS
 90
5
 70
0
 10
86.3038521062
 20
99.3270472117
 10
86.3037931324
 20
99.3379959627
 10
86.3036755583
 20
99.3458677334
 10
86.3035001282
 20
99.350612657
 10
86.3032679529
 20
99.3522006748
  0
LWPOLYLINE
  5
40C
100
AcDbEntity
  8
ASSI
100
AcDbPolyline
 62
250
  6
CONTINUOUS
 90
5
 70
0
 10
86.3038521062
 20
99.3270472117
 10
86.3037931324
 20
99.3379959627
 10
86.3036755583
 20
99.3458677334
 10
86.3035001282
 20
99.350612657
 10
86.3032679529
 20
99.3522006748
  0
LINE
  5
40D
100
AcDbEntity
  8
RACCORDO
100
AcDbLine
 62
250
  6
CONTINUOUS
 10
86.3038837459
 20
57.1299354009
 11
86.3037941962
 21
57.1468091662
  0
LINE
  5
40E
100
AcDbEntity
  8
ASSI
100
AcDbLine
 62
250
  6
CONTINUOUS
 10
86.3038837459
 20
57.1299354009
 11
86.3037941962
 21
57.1468091662
  0
LINE
  5
40F
100
AcDbEntity
  8
0
100
AcDbLine
 62
250
  6
CONTINUOUS
 10
85.1025125669
 20
70.5078402032
 11
85.1025125669
 21
68.9290402032
  0
LINE
  5
410
100
AcDbEntity
  8
0
100
AcDbLine
 62
250
  6
CONTINUOUS
 10
85.1025125669
 20
64.1926402032
 11
85.1025125669
 21
66.5608402032
  0
LINE
  5
411
100
AcDbEntity
  8
0
100
AcDbLine
 62
250
  6
CONTINUOUS
 10
85.705273918
 20
62.9312402032
 11
85.705273918
 21
63.7636622032
  0
LINE
  5
412
100
AcDbEntity
  8
0
100
AcDbLine
 62
250
  6
CONTINUOUS
 10
85.7470932839
 20
90.4397282032
 11
85.7470932839
 21
90.5391022032
  0
LINE
  5
413
100
AcDbEntity
  8
0
100
AcDbLine
 62
250
  6
CONTINUOUS
 10
86.1416511817
 20
89.9115392032
 11
86.1416511817
 21
92.3494462032
  0
LINE
  5
414
100
AcDbEntity
  8
0
100
AcDbLine
 62
250
  6
CONTINUOUS
 10
86.5045059087
 20
92.2893992032
 11
86.5045059087
 21
92.6394592032
  0
LINE
  5
415
100
AcDbEntity
  8
CURVE
100
AcDbLine
 62
250
  6
CONTINUOUS
 10
86.8149918837
 20
71.6857978153
 11
86.8149918837
 21
71.5786553668
  0
LINE
  5
416
100
AcDbEntity
  8
CURVE
100
AcDbLine
 62
250
  6
CONTINUOUS
 10
86.8149918837
 20
70.8286553668
 11
86.8149918837
 21
70.1857978153
  0
LINE
  5
417
100
AcDbEntity
  8
CURVE
100
AcDbLine
 62
250
  6
CONTINUOUS
 10
86.8149918837
 20
69.2215122032
 11
86.8149918837
 21
69.542940979
  0
LINE
  5
418
100
AcDbEntity
  8
0
100
AcDbLine
 62
250
  6
CONTINUOUS
 10
86.8769131807
 20
92.6394592032
 11
86.8769131807
 21
92.2893992032
  0
LINE
  5
419
100
AcDbEntity
  8
0
100
AcDbLine
 62
250
  6
CONTINUOUS
 10
86.9693151052
 20
91.0095822032
 11
86.9693151052
 21
91.8329222032
  0
LINE
  5
41A
100
AcDbEntity
  8
0
100
AcDbLine
 62
250
  6
CONTINUOUS
 10
87.1849182628
 20
91.8329222032
 11
87.1849182628
 21
91.0095822032
  0
LINE
  5
41B
100
AcDbEntity
  8
CURVE
100
AcDbLine
 62
250
  6
CONTINUOUS
 10
87.4576531827
 20
64.1500836658
 11
87.4576531827
 21
64.6143693077
  0
LINE
  5
41C
100
AcDbEntity
  8
CURVE
100
AcDbLine
 62
250
  6
CONTINUOUS
 10
87.4576531827
 20
70.1857978153
 11
87.4576531827
 21
70.6143690395
  0
LINE
  5
41D
100
AcDbEntity
  8
CURVE
100
AcDbLine
 62
250
  6
CONTINUOUS
 10
87.8860940934
 20
65.9715122628
 11
87.8860940934
 21
65.4000835466
  0
LINE
  5
41E
100
AcDbEntity
  8
CURVE
100
AcDbLine
 62
250
  6
CONTINUOUS
 10
88.314535004
 20
70.6143690395
 11
88.314535004
 21
70.1857978153
  0
LINE
  5
41F
100
AcDbEntity
  8
CURVE
100
AcDbLine
 62
250
  6
CONTINUOUS
 10
88.314535004
 20
64.6143693077
 11
88.314535004
 21
64.2929408001
  0
LINE
  5
420
100
AcDbEntity
  8
CURVE
100
AcDbLine
 62
250
  6
CONTINUOUS
 10
88.314535004
 20
69.0072265911
 11
88.314535004
 21
69.7572265911
  0
LINE
  5
421
100
AcDbEntity
  8
CURVE
100
AcDbLine
 62
250
  6
CONTINUOUS
 10
88.314535004
 20
71.5786553668
 11
88.314535004
 21
71.6857978153
  0
LINE
  5
422
100
AcDbEntity
  8
0
100
AcDbLine
 62
250
  6
CONTINUOUS
 10
85.6541334443
 20
91.0645852032
 11
85.6546913593
 21
91.6375882032
  0
LINE
  5
423
100
AcDbEntity
  8
0
100
AcDbLine
 62
250
  6
CONTINUOUS
 10
85.8721522339
 20
91.6375882032
 11
85.8715943189
 21
91.0645852032
  0
LINE
  5
424
100
AcDbEntity
  8
RACCORDO
100
AcDbLine
 62
250
  6
CONTINUOUS
 10
86.3037931324
 20
99.2962152587
 11
86.3038521062
 21
99.3270472117
  0
LINE
  5
425
100
AcDbEntity
  8
ASSI
100
AcDbLine
 62
250
  6
CONTINUOUS
 10
86.3037931324
 20
99.2962152587
 11
86.3038521062
 21
99.3270472117
  0
LINE
  5
426
100
AcDbEntity
  8
RACCORDO
100
AcDbLine
 62
250
  6
CONTINUOUS
 10
86.3032679529
 20
99.2292306013
 11
86.3037931324
 21
99.2962152587
  0
LINE
  5
427
100
AcDbEntity
  8
ASSI
100
AcDbLine
 62
250
  6
CONTINUOUS
 10
86.3032679529
 20
99.2292306013
 11
86.3037931324
 21
99.2962152587
  0
LWPOLYLINE
  5
428
100
AcDbEntity
  8
0
100
AcDbPolyline
 62
250
  6
CONTINUOUS
 90
38
 70
0
 10
87.3323136082
 20
86.2056039082
 10
87.3315282981
 20
86.1701820493
 10
87.3299122488
 20
86.1348776033
 10
87.3274709402
 20
86.0997309285
 10
87.324211098
 20
86.0647783555
 10
87.3201444292
 20
86.0300401041
 10
87.3152838865
 20
85.9955323662
 10
87.3096424224
 20
85.9612713336
 10
87.3032329897
 20
85.9272731982
 10
87.2960685409
 20
85.8935541521
 10
87.2881576059
 20
85.8601188834
 10
87.279491024
 20
85.8269260655
 10
87.2700552118
 20
85.7939228683
 10
87.2598385149
 20
85.7610689189
 10
87.2488369953
 20
85.7283736733
 10
87.2370486441
 20
85.695859045
 10
87.2244716867
 20
85.6635448847
 10
87.2111052852
 20
85.6314427924
 10
87.1969488364
 20
85.5995623053
 10
87.1820017366
 20
85.5679129606
 10
87.1662633826
 20
85.5365042956
 10
87.1497331708
 20
85.5053458474
 10
87.1324126743
 20
85.4744504157
 10
87.1143121719
 20
85.4438438501
 10
87.0954441192
 20
85.4135552626
 10
87.080792893
 20
85.391061324
 10
87.0656983342
 20
85.3687528025
 10
87.0501418507
 20
85.3466198771
 10
87.0341048509
 20
85.3246527269
 10
87.0175832743
 20
85.3028564185
 10
87.0006311853
 20
85.2812955701
 10
86.9833171801
 20
85.2600496877
 10
86.9657098544
 20
85.2391982769
 10
86.9514311901
 20
85.2228270409
 10
86.9368775671
 20
85.2066345269
 10
86.9219178499
 20
85.1904961114
 10
86.9064209035
 20
85.1742871708
 10
86.8902555926
 20
85.1578830816
  0
LWPOLYLINE
  5
429
100
AcDbEntity
  8
RACCORDO
100
AcDbPolyline
 62
7
  6
CONTINUOUS
 90
8
 70
0
 10
82.334953501
 20
56.8980420107
 10
82.3413966208
 20
56.9283854069
 10
82.3517425143
 20
56.959011803
 10
82.3665830641
 20
56.9899952746
 10
82.3853263877
 20
57.0212633923
 10
82.4061968373
 20
57.0525960365
 10
82.4286025302
 20
57.0839191193
 10
82.4531353492
 20
57.1153057684
  0
LWPOLYLINE
  5
42A
100
AcDbEntity
  8
ASSI
100
AcDbPolyline
 62
7
  6
CONTINUOUS
 90
8
 70
0
 10
82.334953501
 20
56.8980420107
 10
82.3413966208
 20
56.9283854069
 10
82.3517425143
 20
56.959011803
 10
82.3665830641
 20
56.9899952746
 10
82.3853263877
 20
57.0212633923
 10
82.4061968373
 20
57.0525960365
 10
82.4286025302
 20
57.0839191193
 10
82.4531353492
 20
57.1153057684
  0
LWPOLYLINE
  5
42B
100
AcDbEntity
  8
0
100
AcDbPolyline
 62
250
  6
CONTINUOUS
 90
35
 70
0
 10
87.3605289262
 20
84.931149825
 10
87.3856553061
 20
84.9614712799
 10
87.4100358266
 20
84.9920951849
 10
87.4336988572
 20
85.0230456727
 10
87.4566727671
 20
85.0543468759
 10
87.4789859259
 20
85.0860229269
 10
87.500666703
 20
85.1180979584
 10
87.5258782271
 20
85.1571400458
 10
87.5502053442
 20
85.1967816171
 10
87.573633425
 20
85.2370128736
 10
87.5961478401
 20
85.2778240165
 10
87.6177339604
 20
85.319205247
 10
87.6350018673
 20
85.3541157543
 10
87.6516013498
 20
85.3893960861
 10
87.6675187921
 20
85.4250269773
 10
87.6827405784
 20
85.4609891629
 10
87.6972530929
 20
85.4972633779
 10
87.7110427195
 20
85.5338303572
 10
87.7240978081
 20
85.5706701103
 10
87.7364145705
 20
85.607759744
 10
87.7479911842
 20
85.6450756395
 10
87.7588258265
 20
85.6825941781
 10
87.7689166748
 20
85.720291741
 10
87.7782619067
 20
85.7581447094
 10
87.7884905495
 20
85.8037440538
 10
87.7976465976
 20
85.8495157712
 10
87.8057337688
 20
85.8954424614
 10
87.8127557807
 20
85.9415067246
 10
87.818716351
 20
85.9876911605
 10
87.8228738936
 20
86.0262653308
 10
87.8262903099
 20
86.0649481701
 10
87.8289590041
 20
86.1037769778
 10
87.8308733804
 20
86.142789053
 10
87.8320268431
 20
86.1820216948
 10
87.8324127964
 20
86.2215122024
  0
LINE
  5
42C
100
AcDbEntity
  8
0
100
AcDbLine
 62
7
  6
CONTINUOUS
 10
80.871374224
 20
80.054573295
 11
81.4120266784
 21
80.5952257495
  0
LINE
  5
42D
100
AcDbEntity
  8
0
100
AcDbLine
 62
7
  6
CONTINUOUS
 10
81.9575276265
 20
81.1407266976
 11
82.6558691321
 21
81.8390682032
  0
LINE
  5
42E
100
AcDbEntity
  8
0
100
AcDbLine
 62
7
  6
CONTINUOUS
 10
80.9977300571
 20
79.9709184141
 11
81.5484833478
 21
80.5216717049
  0
LINE
  5
42F
100
AcDbEntity
  8
0
100
AcDbLine
 62
7
  6
CONTINUOUS
 10
81.9575277021
 20
80.9307160592
 11
82.7072989351
 21
81.6804872921
  0
LINE
  5
430
100
AcDbEntity
  8
0
100
AcDbLine
 62
7
  6
CONTINUOUS
 10
91.3135563555
 20
90.1949102635
 11
92.332413155
 21
91.213767063
  0
LINE
  5
431
100
AcDbEntity
  8
0
100
AcDbLine
 62
7
  6
CONTINUOUS
 10
81.1317409505
 20
79.8949185935
 11
81.6950301273
 21
80.4582077704
  0
LINE
  5
432
100
AcDbEntity
  8
0
100
AcDbLine
 62
7
  6
CONTINUOUS
 10
81.9575277778
 20
80.7207054208
 11
82.7072989351
 21
81.4704765781
  0
LINE
  5
433
100
AcDbEntity
  8
0
100
AcDbLine
 62
7
  6
CONTINUOUS
 10
81.2707149817
 20
79.8238819108
 11
81.8529957994
 21
80.4061627284
  0
LINE
  5
434
100
AcDbEntity
  8
0
100
AcDbLine
 62
7
  6
CONTINUOUS
 10
81.9575278534
 20
80.5106947825
 11
82.7072989351
 21
81.2604658641
  0
LINE
  5
435
100
AcDbEntity
  8
0
100
AcDbLine
 62
7
  6
CONTINUOUS
 10
91.3135563555
 20
89.7748888355
 11
92.332413155
 21
90.793745635
  0
LINE
  5
436
100
AcDbEntity
  8
0
100
AcDbLine
 62
7
  6
CONTINUOUS
 10
81.4199822608
 20
79.7631384759
 11
82.7072989351
 21
81.0504551501
  0
LINE
  5
437
100
AcDbEntity
  8
0
100
AcDbLine
 62
7
  6
CONTINUOUS
 10
81.5743057537
 20
79.7074512547
 11
82.7072989351
 21
80.8404444361
  0
LINE
  5
438
100
AcDbEntity
  8
0
100
AcDbLine
 62
7
  6
CONTINUOUS
 10
91.3135563555
 20
89.3548674075
 11
92.332413155
 21
90.373724207
  0
LINE
  5
439
100
AcDbEntity
  8
0
100
AcDbLine
 62
7
  6
CONTINUOUS
 10
79.7890403267
 20
77.7121751137
 11
79.9308234162
 21
77.8539582032
  0
LINE
  5
43A
100
AcDbEntity
  8
0
100
AcDbLine
 62
7
  6
CONTINUOUS
 10
81.7408885248
 20
79.6640233118
 11
82.7072989351
 21
80.6304337221
  0
LINE
  5
43B
100
AcDbEntity
  8
0
100
AcDbLine
 62
7
  6
CONTINUOUS
 10
84.1287260056
 20
82.0518607926
 11
84.3159354937
 21
82.2390702807
  0
LINE
  5
43C
100
AcDbEntity
  8
0
100
AcDbLine
 62
7
  6
CONTINUOUS
 10
79.7971190606
 20
77.5102431336
 11
80.1408341302
 21
77.8539582032
  0
LINE
  5
43D
100
AcDbEntity
  8
0
100
AcDbLine
 62
7
  6
CONTINUOUS
 10
81.9151387253
 20
79.6282627983
 11
82.7072989351
 21
80.4204230081
  0
LINE
  5
43E
100
AcDbEntity
  8
0
100
AcDbLine
 62
7
  6
CONTINUOUS
 10
84.0994061235
 20
81.8125301965
 11
84.5259454338
 21
82.2390695068
  0
LINE
  5
43F
100
AcDbEntity
  8
0
100
AcDbLine
 62
7
  6
CONTINUOUS
 10
91.5078605792
 20
89.1291502032
 11
92.332413155
 21
89.953702779
  0
LINE
  5
440
100
AcDbEntity
  8
0
100
AcDbLine
 62
7
  6
CONTINUOUS
 10
79.8257188365
 20
77.3288321955
 11
80.3508448442
 21
77.8539582032
  0
LINE
  5
441
100
AcDbEntity
  8
0
100
AcDbLine
 62
7
  6
CONTINUOUS
 10
82.1014796438
 20
79.6045930027
 11
82.9465338284
 21
80.4496471873
  0
LINE
  5
442
100
AcDbEntity
  8
0
100
AcDbLine
 62
7
  6
CONTINUOUS
 10
84.0219359523
 20
81.5250493113
 11
84.7359553739
 21
82.2390687328
  0
LINE
  5
443
100
AcDbEntity
  8
0
100
AcDbLine
 62
7
  6
CONTINUOUS
 10
79.8603511269
 20
77.1534537719
 11
80.5360331524
 21
77.8291357973
  0
LINE
  5
444
100
AcDbEntity
  8
0
100
AcDbLine
 62
7
  6
CONTINUOUS
 10
82.3030032482
 20
79.5961058931
 11
83.3988433502
 21
80.6919459952
  0
LINE
  5
445
100
AcDbEntity
  8
0
100
AcDbLine
 62
7
  6
CONTINUOUS
 10
83.7820358902
 20
81.0751385352
 11
84.8778073662
 21
82.1709100112
  0
LINE
  5
446
100
AcDbEntity
  8
0
100
AcDbLine
 62
7
  6
CONTINUOUS
 10
91.9278820072
 20
89.1291502032
 11
92.332413155
 21
89.5336813509
  0
LINE
  5
447
100
AcDbEntity
  8
0
100
AcDbLine
 62
7
  6
CONTINUOUS
 10
79.9075007591
 20
76.99059269
 11
80.5386178037
 21
77.6217097346
  0
LINE
  5
448
100
AcDbEntity
  8
0
100
AcDbLine
 62
7
  6
CONTINUOUS
 10
82.515412438
 20
79.5985043689
 11
84.871883941
 21
81.954975872
  0
LINE
  5
449
100
AcDbEntity
  8
0
100
AcDbLine
 62
7
  6
CONTINUOUS
 10
79.960836601
 20
76.833917818
 11
80.5648942257
 21
77.4379754427
  0
LINE
  5
44A
100
AcDbEntity
  8
0
100
AcDbLine
 62
7
  6
CONTINUOUS
 10
82.7559808497
 20
79.6290620667
 11
84.8387794205
 21
81.7118606375
  0
LINE
  5
44B
100
AcDbEntity
  8
0
100
AcDbLine
 62
7
  6
CONTINUOUS
 10
80.0241169306
 20
76.6871874336
 11
80.6054378044
 21
77.2685083073
  0
LINE
  5
44C
100
AcDbEntity
  8
0
100
AcDbLine
 62
7
  6
CONTINUOUS
 10
83.0281104308
 20
79.6911809337
 11
84.7755371842
 21
81.4386076871
  0
LINE
  5
44D
100
AcDbEntity
  8
0
100
AcDbLine
 62
7
  6
CONTINUOUS
 10
80.0921745402
 20
76.5452343291
 11
80.6569420067
 21
77.1100017956
  0
LINE
  5
44E
100
AcDbEntity
  8
0
100
AcDbLine
 62
7
  6
CONTINUOUS
 10
83.3548413432
 20
79.8079011322
 11
84.6569916374
 21
81.1100514263
  0
LINE
  5
44F
100
AcDbEntity
  8
0
100
AcDbLine
 62
7
  6
CONTINUOUS
 10
80.1704114089
 20
76.4134604838
 11
80.7187679246
 21
76.9618169995
  0
LINE
  5
450
100
AcDbEntity
  8
0
100
AcDbLine
 62
7
  6
CONTINUOUS
 10
83.8657725076
 20
80.1088215825
 11
84.3668140257
 21
80.6098631006
  0
LINE
  5
451
100
AcDbEntity
  8
0
100
AcDbLine
 62
7
  6
CONTINUOUS
 10
80.2511018068
 20
76.2841401677
 11
80.7944309183
 21
76.8274692792
  0
LINE
  5
452
100
AcDbEntity
  8
0
100
AcDbLine
 62
7
  6
CONTINUOUS
 10
80.34378243
 20
76.1668100769
 11
80.8770548647
 21
76.7000825115
  0
LINE
  5
453
100
AcDbEntity
  8
0
100
AcDbLine
 62
7
  6
CONTINUOUS
 10
80.4364630532
 20
76.049479986
 11
80.968758916
 21
76.5817758488
  0
LINE
  5
454
100
AcDbEntity
  8
0
100
AcDbLine
 62
7
  6
CONTINUOUS
 10
80.542520703
 20
75.9455269218
 11
81.0718079135
 21
76.4748141323
  0
LINE
  5
455
100
AcDbEntity
  8
0
100
AcDbLine
 62
7
  6
CONTINUOUS
 10
80.6489686979
 20
75.8419642027
 11
81.1806928604
 21
76.3736883652
  0
LINE
  5
456
100
AcDbEntity
  8
0
100
AcDbLine
 62
7
  6
CONTINUOUS
 10
80.7657262435
 20
75.7487110344
 11
81.2999927225
 21
76.2829775133
  0
LINE
  5
457
100
AcDbEntity
  8
0
100
AcDbLine
 62
7
  6
CONTINUOUS
 10
80.8857248828
 20
75.6586989596
 11
81.4288488417
 21
76.2018229185
  0
LINE
  5
458
100
AcDbEntity
  8
0
100
AcDbLine
 62
7
  6
CONTINUOUS
 10
81.0137563414
 20
75.5767197042
 11
81.5646796725
 21
76.1276430353
  0
LINE
  5
459
100
AcDbEntity
  8
0
100
AcDbLine
 62
7
  6
CONTINUOUS
 10
81.1477673226
 20
75.5007199714
 11
81.7134604045
 21
76.0664130532
  0
LINE
  5
45A
100
AcDbEntity
  8
0
100
AcDbLine
 62
7
  6
CONTINUOUS
 10
81.2885657583
 20
75.4315076931
 11
81.8745372805
 21
76.0174792153
  0
LWPOLYLINE
  5
45B
100
AcDbEntity
  8
0
100
AcDbPolyline
 62
250
  6
CONTINUOUS
 90
63
 70
0
 10
87.5833571474
 20
83.7852159679
 10
87.5120384636
 20
83.7353886145
 10
87.4409204046
 20
83.6887016772
 10
87.3695014006
 20
83.6447299926
 10
87.2972798818
 20
83.6030483977
 10
87.1991465726
 20
83.5505128073
 10
87.0991698826
 20
83.5015589941
 10
86.9978248038
 20
83.4564533105
 10
86.8955197626
 20
83.4154077041
 10
86.7923969224
 20
83.3784165027
 10
86.6885318813
 20
83.3454196292
 10
86.5839522808
 20
83.3163609425
 10
86.4784939371
 20
83.2912000467
 10
86.3719447099
 20
83.2699004817
 10
86.2641725641
 20
83.2524386244
 10
86.1553658858
 20
83.2388421991
 10
86.0457931658
 20
83.2291517665
 10
85.9357228954
 20
83.2234078878
 10
85.8254235657
 20
83.2216511238
 10
85.7151636676
 20
83.2239220356
 10
85.6051910265
 20
83.2302464631
 10
85.4956708041
 20
83.2405913624
 10
85.3867474962
 20
83.2549089685
 10
85.2785655989
 20
83.2731515164
 10
85.1712696079
 20
83.2952712412
 10
85.0650040192
 20
83.3212203779
 10
84.9599084813
 20
83.3509528866
 10
84.8561032532
 20
83.3844296277
 10
84.7537037465
 20
83.4216131866
 10
84.6528253728
 20
83.4624661487
 10
84.5535835439
 20
83.5069510996
 10
84.4560936713
 20
83.5550306246
 10
84.3604685667
 20
83.6066589244
 10
84.2668106419
 20
83.6617566605
 10
84.1752197087
 20
83.7202361096
 10
84.0857955789
 20
83.7820095484
 10
83.9986380644
 20
83.8469892536
 10
83.9138469769
 20
83.9150875019
 10
83.8315217697
 20
83.986219574
 10
83.7517604611
 20
84.0603127658
 10
83.6746607109
 20
84.1372973776
 10
83.600320179
 20
84.2171037092
 10
83.528836525
 20
84.2996620608
 10
83.4603074089
 20
84.3849027324
 10
83.3948367631
 20
84.4727296962
 10
83.3325536111
 20
84.5629416135
 10
83.273593249
 20
84.6553108176
 10
83.2180909731
 20
84.749609642
 10
83.1661820795
 20
84.8456104201
 10
83.1180018645
 20
84.9430854855
 10
83.0736449132
 20
85.0418672323
 10
83.0330429671
 20
85.1420282988
 10
82.9960870567
 20
85.243701384
 10
82.962699346
 20
85.3469947539
 10
82.9329265338
 20
85.4519189434
 10
82.9068464525
 20
85.5584600543
 10
82.8845365439
 20
85.6665147782
 10
82.8660726877
 20
85.7756221662
 10
82.8515303729
 20
85.8852318595
 10
82.8432460846
 20
85.9675930203
 10
82.8372631218
 20
86.0506269389
 10
82.8336344805
 20
86.1350334036
 10
82.8324131565
 20
86.2215122024
  0
LINE
  5
45C
100
AcDbEntity
  8
RACCORDO
100
AcDbLine
 62
250
  6
CONTINUOUS
 10
76.619317953
 20
62.039471209
 11
76.6229940892
 21
62.0400146069
  0
LINE
  5
45D
100
AcDbEntity
  8
RACCORDO
100
AcDbLine
 62
250
  6
CONTINUOUS
 10
76.6229940892
 20
62.0400146069
 11
76.6518170319
 21
62.0437268107
  0
LINE
  5
45E
100
AcDbEntity
  8
RACCORDO
100
AcDbLine
 62
250
  6
CONTINUOUS
 10
76.6518170319
 20
62.0437268107
 11
76.7408570517
 21
62.0548552257
  0
LINE
  5
45F
100
AcDbEntity
  8
RACCORDO
100
AcDbLine
 62
250
  6
CONTINUOUS
 10
76.7408570517
 20
62.0548552257
 11
76.8630913893
 21
62.0699385448
  0
LINE
  5
460
100
AcDbEntity
  8
CURVE
100
AcDbLine
 62
250
  6
CONTINUOUS
 10
88.1003145487
 20
64.0786550986
 11
87.5647634439
 21
64.0786550986
  0
LINE
  5
461
100
AcDbEntity
  8
0
100
AcDbLine
 62
250
  6
CONTINUOUS
 10
96.532413155
 20
64.3572265553
 11
97.832413155
 21
64.3572265553
  0
LINE
  5
462
100
AcDbEntity
  8
0
100
AcDbLine
 62
250
  6
CONTINUOUS
 10
94.532413155
 20
64.4500836539
 11
95.832413155
 21
64.4500836539
  0
LINE
  5
463
100
AcDbEntity
  8
CURVE
100
AcDbLine
 62
250
  6
CONTINUOUS
 10
87.6718736604
 20
64.8286550092
 11
88.1003145487
 21
64.8286550092
  0
LINE
  5
464
100
AcDbEntity
  8
0
100
AcDbLine
 62
250
  6
CONTINUOUS
 10
96.532413155
 20
65.0072264003
 11
97.832413155
 21
65.0072264003
  0
LINE
  5
465
100
AcDbEntity
  8
0
100
AcDbLine
 62
250
  6
CONTINUOUS
 10
95.646698861
 20
65.1000834989
 11
94.7181274297
 21
65.1000834989
  0
LINE
  5
466
100
AcDbEntity
  8
RACCORDO
100
AcDbLine
 62
250
  6
CONTINUOUS
 10
99.532413155
 20
65.1215122032
 11
101.532413155
 21
65.1215122032
  0
LINE
  5
467
100
AcDbEntity
  8
ASSI
100
AcDbLine
 62
250
  6
CONTINUOUS
 10
99.532413155
 20
65.1215122032
 11
101.532413155
 21
65.1215122032
  0
LINE
  5
468
100
AcDbEntity
  8
0
100
AcDbLine
 62
250
  6
CONTINUOUS
 10
94.532413155
 20
65.6262741374
 11
95.832413155
 21
65.6262741374
  0
LINE
  5
469
100
AcDbEntity
  8
0
100
AcDbLine
 62
250
  6
CONTINUOUS
 10
96.532413155
 20
65.6262741374
 11
97.832413155
 21
65.6262741374
  0
LINE
  5
46A
100
AcDbEntity
  8
0
100
AcDbLine
 62
250
  6
CONTINUOUS
 10
96.7181274297
 20
66.2143693017
 11
96.9038417043
 21
66.2143693017
  0
LINE
  5
46B
100
AcDbEntity
  8
0
100
AcDbLine
 62
250
  6
CONTINUOUS
 10
97.460984567
 20
66.8643693017
 11
97.646698861
 21
66.8643693017
  0
LINE
  5
46C
100
AcDbEntity
  8
RACCORDO
100
AcDbLine
 62
250
  6
CONTINUOUS
 10
99.532413155
 20
66.9215122032
 11
101.532413155
 21
66.9215122032
  0
LINE
  5
46D
100
AcDbEntity
  8
ASSI
100
AcDbLine
 62
250
  6
CONTINUOUS
 10
99.532413155
 20
66.9215122032
 11
101.532413155
 21
66.9215122032
  0
LINE
  5
46E
100
AcDbEntity
  8
0
100
AcDbLine
 62
250
  6
CONTINUOUS
 10
96.532413155
 20
67.4834167289
 11
97.832413155
 21
67.4834167289
  0
LINE
  5
46F
100
AcDbEntity
  8
0
100
AcDbLine
 62
250
  6
CONTINUOUS
 10
82.308393877
 20
72.1884622032
 11
83.4864969334
 21
71.8284952032
  0
LINE
  5
470
100
AcDbEntity
  8
CURVE
100
AcDbLine
 62
250
  6
CONTINUOUS
 10
87.0292123167
 20
71.3643690395
 11
87.2434327497
 21
71.2572265911
  0
LINE
  5
471
100
AcDbEntity
  8
CURVE
100
AcDbLine
 62
250
  6
CONTINUOUS
 10
88.1003145487
 20
71.9000834274
 11
87.8860940934
 21
72.0072265911
  0
LINE
  5
472
100
AcDbEntity
  8
CURVE
100
AcDbLine
 62
250
  6
CONTINUOUS
 10
87.2434327497
 20
69.7572265911
 11
88.314535004
 21
69.0072265911
  0
LINE
  5
473
100
AcDbEntity
  8
0
100
AcDbLine
 62
250
  6
CONTINUOUS
 10
95.832413155
 20
64.9143693017
 11
95.646698861
 21
65.1000834989
  0
LINE
  5
474
100
AcDbEntity
  8
0
100
AcDbLine
 62
250
  6
CONTINUOUS
 10
97.646698861
 20
63.985797851
 11
97.832413155
 21
63.8000836539
  0
LINE
  5
475
100
AcDbEntity
  8
CURVE
100
AcDbLine
 62
250
  6
CONTINUOUS
 10
86.8149918837
 20
71.5786553668
 11
87.0292123167
 21
71.3643690395
  0
LINE
  5
476
100
AcDbEntity
  8
CURVE
100
AcDbLine
 62
250
  6
CONTINUOUS
 10
88.1003145487
 20
70.8286553668
 11
88.314535004
 21
70.6143690395
  0
LINE
  5
477
100
AcDbEntity
  8
CURVE
100
AcDbLine
 62
250
  6
CONTINUOUS
 10
88.314535004
 20
71.6857978153
 11
88.1003145487
 21
71.9000834274
  0
LINE
  5
478
100
AcDbEntity
  8
CURVE
100
AcDbLine
 62
250
  6
CONTINUOUS
 10
87.7432804714
 20
73.9715119647
 11
87.8503906879
 21
73.7215122032
  0
LINE
  5
479
100
AcDbEntity
  8
CURVE
100
AcDbLine
 62
250
  6
CONTINUOUS
 10
87.8503906879
 20
74.5429405021
 11
87.9575009267
 21
74.2572265911
  0
LWPOLYLINE
  5
47A
100
AcDbEntity
  8
RACCORDO
100
AcDbPolyline
 62
250
  6
CONTINUOUS
 90
5
 70
0
 10
91.7698374111
 20
95.6535611504
 10
91.7697409939
 20
95.6706576033
 10
91.76954912
 20
95.6829946489
 10
91.7692637016
 20
95.6904493539
 10
91.7688875827
 20
95.6929474358
  0
LWPOLYLINE
  5
47B
100
AcDbEntity
  8
ASSI
100
AcDbPolyline
 62
250
  6
CONTINUOUS
 90
5
 70
0
 10
91.7698374111
 20
95.6535611504
 10
91.7697409939
 20
95.6706576033
 10
91.76954912
 20
95.6829946489
 10
91.7692637016
 20
95.6904493539
 10
91.7688875827
 20
95.6929474358
  0
LINE
  5
47C
100
AcDbEntity
  8
0
100
AcDbLine
 62
250
  6
CONTINUOUS
 10
88.832413155
 20
84.2215114852
 11
88.832413155
 21
83.2215122032
  0
LINE
  5
47D
100
AcDbEntity
  8
0
100
AcDbLine
 62
250
  6
CONTINUOUS
 10
89.5033600991
 20
90.4466862032
 11
89.5033600991
 21
91.7925532032
  0
LINE
  5
47E
100
AcDbEntity
  8
0
100
AcDbLine
 62
250
  6
CONTINUOUS
 10
89.6997781791
 20
90.6210152032
 11
89.6997781791
 21
90.5033952032
  0
LINE
  5
47F
100
AcDbEntity
  8
0
100
AcDbLine
 62
250
  6
CONTINUOUS
 10
91.3135563555
 20
89.1291502032
 11
91.3135563555
 21
93.3138742032
  0
LINE
  5
480
100
AcDbEntity
  8
RACCORDO
100
AcDbLine
 62
250
  6
CONTINUOUS
 10
90.3353443074
 20
95.6786385997
 11
90.335247995
 21
95.6309395901
  0
LINE
  5
481
100
AcDbEntity
  8
ASSI
100
AcDbLine
 62
250
  6
CONTINUOUS
 10
90.3353443074
 20
95.6786385997
 11
90.335247995
 21
95.6309395901
  0
LINE
  5
482
100
AcDbEntity
  8
RACCORDO
100
AcDbLine
 62
250
  6
CONTINUOUS
 10
91.7697409939
 20
95.6058171838
 11
91.7698374111
 21
95.6535611504
  0
LINE
  5
483
100
AcDbEntity
  8
ASSI
100
AcDbLine
 62
250
  6
CONTINUOUS
 10
91.7697409939
 20
95.6058171838
 11
91.7698374111
 21
95.6535611504
  0
LWPOLYLINE
  5
484
100
AcDbEntity
  8
RACCORDO
100
AcDbPolyline
 62
250
  6
CONTINUOUS
 90
3
 70
0
 10
90.335247995
 20
95.6309395901
 10
90.3347712175
 20
95.5668411337
 10
90.3343954985
 20
95.5294148886
  0
LWPOLYLINE
  5
485
100
AcDbEntity
  8
ASSI
100
AcDbPolyline
 62
250
  6
CONTINUOUS
 90
3
 70
0
 10
90.335247995
 20
95.6309395901
 10
90.3347712175
 20
95.5668411337
 10
90.3343954985
 20
95.5294148886
  0
LWPOLYLINE
  5
486
100
AcDbEntity
  8
RACCORDO
100
AcDbPolyline
 62
250
  6
CONTINUOUS
 90
3
 70
0
 10
91.7688875827
 20
95.5042025623
 10
91.7692637016
 20
95.541660997
 10
91.7697409939
 20
95.6058171838
  0
LWPOLYLINE
  5
487
100
AcDbEntity
  8
ASSI
100
AcDbPolyline
 62
250
  6
CONTINUOUS
 90
3
 70
0
 10
91.7688875827
 20
95.5042025623
 10
91.7692637016
 20
95.541660997
 10
91.7697409939
 20
95.6058171838
  0
LWPOLYLINE
  5
488
100
AcDbEntity
  8
0
100
AcDbPolyline
 62
250
  6
CONTINUOUS
 90
31
 70
0
 10
88.832413155
 20
86.2215122024
 10
88.8317709289
 20
86.1590591604
 10
88.8298511969
 20
86.0969908621
 10
88.8266643784
 20
86.0352413552
 10
88.8222208927
 20
85.9737446875
 10
88.8165311591
 20
85.9124349067
 10
88.8096034534
 20
85.8512603026
 10
88.801437477
 20
85.7902261336
 10
88.7920307875
 20
85.7293519005
 10
88.7813809428
 20
85.6686571037
 10
88.7694855004
 20
85.608161244
 10
88.7563428643
 20
85.5478869582
 10
88.741954822
 20
85.4878694286
 10
88.7263240076
 20
85.4281469736
 10
88.7094530546
 20
85.3687579118
 10
88.6913445969
 20
85.3097405618
 10
88.6720042407
 20
85.2511323148
 10
88.6514494809
 20
85.1929668532
 10
88.6297007852
 20
85.135276932
 10
88.6067786209
 20
85.0780953062
 10
88.5827034554
 20
85.0214547311
 10
88.5574947448
 20
84.9653846914
 10
88.5311678992
 20
84.909901591
 10
88.5037373172
 20
84.8550185635
 10
88.4752173975
 20
84.8007487427
 10
88.4456225388
 20
84.7471052622
 10
88.4149572163
 20
84.6940910457
 10
88.3831862112
 20
84.6416681774
 10
88.3502643816
 20
84.5897885316
 10
88.3161465853
 20
84.5384039826
 10
88.2807876801
 20
84.4874664046
  0
LWPOLYLINE
  5
489
100
AcDbEntity
  8
RACCORDO
100
AcDbPolyline
 62
250
  6
CONTINUOUS
 90
10
 70
0
 10
88.4482460223
 20
58.9757134601
 10
88.4474626556
 20
58.9447598759
 10
88.4466154604
 20
58.9168341413
 10
88.4457112452
 20
58.892160679
 10
88.4447572767
 20
58.8709377723
 10
88.4437612215
 20
58.8533359744
 10
88.4427310845
 20
58.8394967361
 10
88.4416751442
 20
58.8295312673
 10
88.4406018865
 20
58.8235196445
 10
88.4395199363
 20
58.8215101686
  0
LWPOLYLINE
  5
48A
100
AcDbEntity
  8
ASSI
100
AcDbPolyline
 62
250
  6
CONTINUOUS
 90
10
 70
0
 10
88.4482460223
 20
58.9757134601
 10
88.4474626556
 20
58.9447598759
 10
88.4466154604
 20
58.9168341413
 10
88.4457112452
 20
58.892160679
 10
88.4447572767
 20
58.8709377723
 10
88.4437612215
 20
58.8533359744
 10
88.4427310845
 20
58.8394967361
 10
88.4416751442
 20
58.8295312673
 10
88.4406018865
 20
58.8235196445
 10
88.4395199363
 20
58.8215101686
  0
LWPOLYLINE
  5
48B
100
AcDbEntity
  8
RACCORDO
100
AcDbPolyline
 62
250
  6
CONTINUOUS
 90
5
 70
0
 10
86.3032679529
 20
57.0908237315
 10
86.3035483753
 20
57.0924220826
 10
86.3037151785
 20
57.0971723475
 10
86.3037941962
 20
57.1050284622
 10
86.3038837459
 20
57.1299354009
  0
LWPOLYLINE
  5
48C
100
AcDbEntity
  8
ASSI
100
AcDbPolyline
 62
250
  6
CONTINUOUS
 90
5
 70
0
 10
86.3032679529
 20
57.0908237315
 10
86.3035483753
 20
57.0924220826
 10
86.3037151785
 20
57.0971723475
 10
86.3037941962
 20
57.1050284622
 10
86.3038837459
 20
57.1299354009
  0
LINE
  5
48D
100
AcDbEntity
  8
0
100
AcDbLine
 62
250
  6
CONTINUOUS
 10
80.4824492045
 20
72.5621802032
 11
80.2682494667
 21
72.3222022032
  0
LINE
  5
48E
100
AcDbEntity
  8
0
100
AcDbLine
 62
7
  6
CONTINUOUS
 10
81.4378331276
 20
75.3707643484
 11
82.0476370413
 21
75.9805682621
  0
LINE
  5
48F
100
AcDbEntity
  8
0
100
AcDbLine
 62
7
  6
CONTINUOUS
 10
81.5942272759
 20
75.3171477826
 11
82.2361283659
 21
75.9590488727
  0
LINE
  5
490
100
AcDbEntity
  8
0
100
AcDbLine
 62
7
  6
CONTINUOUS
 10
84.1290624634
 20
77.8519829702
 11
84.1310376961
 21
77.8539582029
  0
LINE
  5
491
100
AcDbEntity
  8
0
100
AcDbLine
 62
7
  6
CONTINUOUS
 10
81.7608101428
 20
75.2737199356
 11
82.4461390735
 21
75.9590488662
  0
LINE
  5
492
100
AcDbEntity
  8
0
100
AcDbLine
 62
7
  6
CONTINUOUS
 10
84.1265574769
 20
77.6394672696
 11
84.3410483772
 21
77.85395817
  0
LINE
  5
493
100
AcDbEntity
  8
0
100
AcDbLine
 62
7
  6
CONTINUOUS
 10
81.9374231271
 20
75.2403222058
 11
82.6875045743
 21
75.990403653
  0
LINE
  5
494
100
AcDbEntity
  8
0
100
AcDbLine
 62
7
  6
CONTINUOUS
 10
84.0940672322
 20
77.396966311
 11
84.5510590584
 21
77.8539581371
  0
LINE
  5
495
100
AcDbEntity
  8
0
100
AcDbLine
 62
7
  6
CONTINUOUS
 10
82.1237641518
 20
75.2166525165
 11
82.9890217821
 21
76.0819101469
  0
LINE
  5
496
100
AcDbEntity
  8
0
100
AcDbLine
 62
7
  6
CONTINUOUS
 10
84.0012770041
 20
77.0941653688
 11
84.7610697395
 21
77.8539581042
  0
LINE
  5
497
100
AcDbEntity
  8
0
100
AcDbLine
 62
7
  6
CONTINUOUS
 10
82.3281183356
 20
75.2109959863
 11
83.511997153
 21
76.3948748037
  0
LINE
  5
498
100
AcDbEntity
  8
0
100
AcDbLine
 62
7
  6
CONTINUOUS
 10
83.6863090593
 20
76.56918671
 11
84.8770967726
 21
77.7599744233
  0
LINE
  5
499
100
AcDbEntity
  8
0
100
AcDbLine
 62
7
  6
CONTINUOUS
 10
82.5441818604
 20
75.2170487971
 11
84.8711753213
 21
77.5440422579
  0
LINE
  5
49A
100
AcDbEntity
  8
0
100
AcDbLine
 62
7
  6
CONTINUOUS
 10
82.7847504243
 20
75.247606647
 11
84.8340788252
 21
77.2969350479
  0
LINE
  5
49B
100
AcDbEntity
  8
0
100
AcDbLine
 62
7
  6
CONTINUOUS
 10
83.0620818572
 20
75.3149273659
 11
84.7653032636
 21
77.0181487722
  0
LINE
  5
49C
100
AcDbEntity
  8
0
100
AcDbLine
 62
7
  6
CONTINUOUS
 10
83.3971899829
 20
75.4400247776
 11
84.6379466827
 21
76.6807814773
  0
LINE
  5
49D
100
AcDbEntity
  8
0
100
AcDbLine
 62
7
  6
CONTINUOUS
 10
83.9662769082
 20
75.7991009888
 11
84.2723822199
 21
76.1052063005
  0
LINE
  5
49E
100
AcDbEntity
  8
0
100
AcDbLine
 62
250
  6
CONTINUOUS
 10
79.8398479918
 20
72.5221832032
 11
79.6256472543
 21
72.3222022032
  0
LINE
  5
49F
100
AcDbEntity
  8
RACCORDO
100
AcDbLine
 62
7
  6
CONTINUOUS
 10
104.5411393582
 20
70.5089398443
 11
99.532413155
 21
70.4215122032
  0
LINE
  5
4A0
100
AcDbEntity
  8
ASSI
100
AcDbLine
 62
7
  6
CONTINUOUS
 10
104.5411393582
 20
70.5089398443
 11
99.532413155
 21
70.4215122032
  0
LINE
  5
4A1
100
AcDbEntity
  8
RACCORDO
100
AcDbLine
 62
250
  6
CONTINUOUS
 10
104.5411393582
 20
71.0088636918
 11
99.0411393582
 21
70.9128608347
  0
LINE
  5
4A2
100
AcDbEntity
  8
ASSI
100
AcDbLine
 62
250
  6
CONTINUOUS
 10
104.5411393582
 20
71.0088636918
 11
99.0411393582
 21
70.9128608347
  0
LINE
  5
4A3
100
AcDbEntity
  8
0
100
AcDbLine
 62
250
  6
CONTINUOUS
 10
94.532413155
 20
67.8238928604
 11
95.832413155
 21
67.8238928604
  0
LINE
  5
4A4
100
AcDbEntity
  8
0
100
AcDbLine
 62
250
  6
CONTINUOUS
 10
84.3051744993
 20
67.9422902032
 11
83.1296136683
 21
67.9422902032
  0
LINE
  5
4A5
100
AcDbEntity
  8
0
100
AcDbLine
 62
250
  6
CONTINUOUS
 10
81.5431160413
 20
67.9422902032
 11
82.3404541089
 21
67.9422902032
  0
LINE
  5
4A6
100
AcDbEntity
  8
0
100
AcDbLine
 62
250
  6
CONTINUOUS
 10
94.532413155
 20
68.4119883346
 11
95.832413155
 21
68.4119883346
  0
LINE
  5
4A7
100
AcDbEntity
  8
0
100
AcDbLine
 62
250
  6
CONTINUOUS
 10
80.3675552103
 20
68.9290402032
 11
81.5512945495
 21
68.9290402032
  0
LINE
  5
4A8
100
AcDbEntity
  8
0
100
AcDbLine
 62
250
  6
CONTINUOUS
 10
83.1296136683
 20
68.9290402032
 11
84.3133530074
 21
68.9290402032
  0
LINE
  5
4A9
100
AcDbEntity
  8
0
100
AcDbLine
 62
250
  6
CONTINUOUS
 10
94.532413155
 20
69.0619883346
 11
95.832413155
 21
69.0619883346
  0
LINE
  5
4AA
100
AcDbEntity
  8
0
100
AcDbLine
 62
250
  6
CONTINUOUS
 10
83.1296136683
 20
69.7184402032
 11
82.3404541089
 21
69.7184402032
  0
LINE
  5
4AB
100
AcDbEntity
  8
CURVE
100
AcDbLine
 62
250
  6
CONTINUOUS
 10
87.0292123167
 20
69.7572265911
 11
87.2434327497
 21
69.7572265911
  0
LINE
  5
4AC
100
AcDbEntity
  8
CURVE
100
AcDbLine
 62
250
  6
CONTINUOUS
 10
86.8149918837
 20
70.1857978153
 11
87.4576531827
 21
70.1857978153
  0
LINE
  5
4AD
100
AcDbEntity
  8
0
100
AcDbLine
 62
250
  6
CONTINUOUS
 10
80.3675552103
 20
70.5078402032
 11
85.1025125669
 21
70.5078402032
  0
LINE
  5
4AE
100
AcDbEntity
  8
CURVE
100
AcDbLine
 62
250
  6
CONTINUOUS
 10
87.6718736604
 20
70.8286553668
 11
88.1003145487
 21
70.8286553668
  0
LINE
  5
4AF
100
AcDbEntity
  8
RACCORDO
100
AcDbLine
 62
250
  6
CONTINUOUS
 10
104.5411393582
 20
71.0088636918
 11
105.032413155
 21
71.0088636918
  0
LINE
  5
4B0
100
AcDbEntity
  8
ASSI
100
AcDbLine
 62
250
  6
CONTINUOUS
 10
104.5411393582
 20
71.0088636918
 11
105.032413155
 21
71.0088636918
  0
LINE
  5
4B1
100
AcDbEntity
  8
CURVE
100
AcDbLine
 62
250
  6
CONTINUOUS
 10
87.2434327497
 20
71.2572265911
 11
87.8860940934
 21
71.2572265911
  0
LINE
  5
4B2
100
AcDbEntity
  8
DRAFT
100
AcDbLine
 62
7
  6
CONTINUOUS
 10
101.3359036363
 20
69.6900321597
 11
99.532413155
 21
69.7215122032
  0
LINE
  5
4B3
100
AcDbEntity
  8
ASSI
100
AcDbLine
 62
7
  6
CONTINUOUS
 10
101.3359036363
 20
69.6900321597
 11
99.532413155
 21
69.7215122032
  0
LINE
  5
4B4
100
AcDbEntity
  8
0
100
AcDbLine
 62
250
  6
CONTINUOUS
 10
96.532413155
 20
68.4429405975
 11
97.832413155
 21
68.0715122032
  0
LINE
  5
4B5
100
AcDbEntity
  8
CURVE
100
AcDbLine
 62
250
  6
CONTINUOUS
 10
86.8149918837
 20
73.292940979
 11
88.314535004
 21
72.8643690395
  0
LINE
  5
4B6
100
AcDbEntity
  8
0
100
AcDbLine
 62
250
  6
CONTINUOUS
 10
96.532413155
 20
66.4000834989
 11
96.7181274297
 21
66.2143693017
  0
LINE
  5
4B7
100
AcDbEntity
  8
0
100
AcDbLine
 62
250
  6
CONTINUOUS
 10
97.646698861
 20
66.8643693017
 11
97.832413155
 21
66.6786551046
  0
LINE
  5
4B8
100
AcDbEntity
  8
0
100
AcDbLine
 62
250
  6
CONTINUOUS
 10
92.332413155
 20
93.3138742032
 11
92.332413155
 21
89.1291502032
  0
LINE
  5
4B9
100
AcDbEntity
  8
0
100
AcDbLine
 62
250
  6
CONTINUOUS
 10
93.328950155
 20
93.2228212032
 11
93.328950155
 21
92.1117772032
  0
LINE
  5
4BA
100
AcDbEntity
  8
0
100
AcDbLine
 62
250
  6
CONTINUOUS
 10
93.328950155
 20
89.3339972032
 11
93.328950155
 21
88.2229542032
  0
LINE
  5
4BB
100
AcDbEntity
  8
0
100
AcDbLine
 62
250
  6
CONTINUOUS
 10
93.328950155
 20
89.8893462032
 11
93.328950155
 21
91.5560832032
  0
LWPOLYLINE
  5
4BC
100
AcDbEntity
  8
0
100
AcDbPolyline
 62
7
  6
CONTINUOUS
 90
4
 70
0
 43
0.3500000006
 10
93.7831247864
 20
121.6158847046
 10
93.7831247864
 20
122.473022644
 10
94.2117028198
 20
122.9016006775
 10
94.8545562744
 20
122.9016006775
  0
LINE
  5
4BD
100
AcDbEntity
  8
0
100
AcDbLine
 62
250
  6
CONTINUOUS
 10
93.884472155
 20
88.7783032032
 11
93.884472155
 21
89.3339972032
  0
LINE
  5
4BE
100
AcDbEntity
  8
0
100
AcDbLine
 62
250
  6
CONTINUOUS
 10
93.884472155
 20
90.4450402032
 11
93.884472155
 21
91.0007342032
  0
LINE
  5
4BF
100
AcDbEntity
  8
0
100
AcDbLine
 62
250
  6
CONTINUOUS
 10
93.884472155
 20
92.6671272032
 11
93.884472155
 21
93.2228212032
  0
LINE
  5
4C0
100
AcDbEntity
  8
0
100
AcDbLine
 62
250
  6
CONTINUOUS
 10
94.532413155
 20
66.1834170389
 11
94.532413155
 21
65.6262741374
  0
LINE
  5
4C1
100
AcDbEntity
  8
0
100
AcDbLine
 62
250
  6
CONTINUOUS
 10
94.532413155
 20
64.9143693017
 11
94.532413155
 21
64.4500836539
  0
LINE
  5
4C2
100
AcDbEntity
  8
0
100
AcDbLine
 62
250
  6
CONTINUOUS
 10
95.0895559789
 20
65.6262741374
 11
95.0895559789
 21
65.9977025318
  0
LINE
  5
4C3
100
AcDbEntity
  8
0
100
AcDbLine
 62
250
  6
CONTINUOUS
 10
95.460984567
 20
63.9548455882
 11
95.460984567
 21
63.459607445
  0
LINE
  5
4C4
100
AcDbEntity
  8
0
100
AcDbLine
 62
250
  6
CONTINUOUS
 10
95.551037155
 20
91.0007342032
 11
95.551037155
 21
90.4450402032
  0
LINE
  5
4C5
100
AcDbEntity
  8
0
100
AcDbLine
 62
250
  6
CONTINUOUS
 10
95.551037155
 20
89.3339972032
 11
95.551037155
 21
88.7783032032
  0
LINE
  5
4C6
100
AcDbEntity
  8
0
100
AcDbLine
 62
250
  6
CONTINUOUS
 10
95.832413155
 20
64.4500836539
 11
95.832413155
 21
64.9143693017
  0
LINE
  5
4C7
100
AcDbEntity
  8
0
100
AcDbLine
 62
250
  6
CONTINUOUS
 10
95.832413155
 20
65.6262741374
 11
95.832413155
 21
66.1834170389
  0
LINE
  5
4C8
100
AcDbEntity
  8
0
100
AcDbLine
 62
250
  6
CONTINUOUS
 10
93.4678392512
 20
58.8215122032
 11
93.4691509994
 21
58.8966736543
  0
LINE
  5
4C9
100
AcDbEntity
  8
ASSI
100
AcDbLine
 62
250
  6
CONTINUOUS
 10
93.4678392512
 20
58.8215122032
 11
93.4691509994
 21
58.8966736543
  0
LINE
  5
4CA
100
AcDbEntity
  8
CURVE
100
AcDbLine
 62
250
  6
CONTINUOUS
 10
87.9575009267
 20
74.2572265911
 11
87.7432804714
 21
73.9715119647
  0
LINE
  5
4CB
100
AcDbEntity
  8
CURVE
100
AcDbLine
 62
250
  6
CONTINUOUS
 10
87.0292123167
 20
71.9000834274
 11
86.8149918837
 21
71.6857978153
  0
LWPOLYLINE
  5
4CC
100
AcDbEntity
  8
RACCORDO
100
AcDbPolyline
 62
7
  6
CONTINUOUS
 90
10
 70
0
 10
99.0411393582
 20
85.5301635716
 10
99.126896901
 20
85.611008921
 10
99.2062349548
 20
85.69007788
 10
99.2791206367
 20
85.7651073668
 10
99.3471948132
 20
85.8330824401
 10
99.4087834749
 20
85.8929792156
 10
99.458857199
 20
85.9446891757
 10
99.4957033178
 20
85.9856573749
 10
99.5209715483
 20
86.0121768346
 10
99.5346601585
 20
86.0214729816
  0
LWPOLYLINE
  5
4CD
100
AcDbEntity
  8
ASSI
100
AcDbPolyline
 62
7
  6
CONTINUOUS
 90
10
 70
0
 10
99.0411393582
 20
85.5301635716
 10
99.126896901
 20
85.611008921
 10
99.2062349548
 20
85.69007788
 10
99.2791206367
 20
85.7651073668
 10
99.3471948132
 20
85.8330824401
 10
99.4087834749
 20
85.8929792156
 10
99.458857199
 20
85.9446891757
 10
99.4957033178
 20
85.9856573749
 10
99.5209715483
 20
86.0121768346
 10
99.5346601585
 20
86.0214729816
  0
LINE
  5
4CE
100
AcDbEntity
  8
ASSI
100
AcDbLine
 62
7
  6
CONTINUOUS
 10
105.032413155
 20
71.5964612032
 11
105.162413155
 21
71.5964612032
  0
LINE
  5
4CF
100
AcDbEntity
  8
CURVE
100
AcDbLine
 62
250
  6
CONTINUOUS
 10
87.8860940934
 20
72.0072265911
 11
87.2434327497
 21
72.0072265911
  0
LINE
  5
4D0
100
AcDbEntity
  8
0
100
AcDbLine
 62
250
  6
CONTINUOUS
 10
83.8077970399
 20
72.3884432032
 11
83.0580954584
 21
72.3884432032
  0
LINE
  5
4D1
100
AcDbEntity
  8
0
100
AcDbLine
 62
250
  6
CONTINUOUS
 10
80.1611480983
 20
72.5221832032
 11
79.8398479918
 21
72.5221832032
  0
LINE
  5
4D2
100
AcDbEntity
  8
0
100
AcDbLine
 62
250
  6
CONTINUOUS
 10
81.0179510482
 20
72.5621802032
 11
80.4824492045
 21
72.5621802032
  0
LINE
  5
4D3
100
AcDbEntity
  8
ASSI
100
AcDbLine
 62
7
  6
CONTINUOUS
 10
105.032413155
 20
72.9224302202
 11
105.162413155
 21
72.9224312032
  0
LINE
  5
4D4
100
AcDbEntity
  8
ASSI
100
AcDbLine
 62
7
  6
CONTINUOUS
 10
105.032413155
 20
73.8465572032
 11
105.162413155
 21
73.8465572032
  0
LINE
  5
4D5
100
AcDbEntity
  8
0
100
AcDbLine
 62
7
  6
CONTINUOUS
 10
105.067917446
 20
74.7554332811
 11
105.162413155
 21
74.755433281
  0
LINE
  5
4D6
100
AcDbEntity
  8
ASSI
100
AcDbLine
 62
7
  6
CONTINUOUS
 10
105.0679180241
 20
74.7554332811
 11
105.162413155
 21
74.755433281
  0
LINE
  5
4D7
100
AcDbEntity
  8
0
100
AcDbLine
 62
7
  6
CONTINUOUS
 10
105.032413155
 20
74.7691763689
 11
105.162413155
 21
74.7691763689
  0
LINE
  5
4D8
100
AcDbEntity
  8
ASSI
100
AcDbLine
 62
7
  6
CONTINUOUS
 10
105.032413155
 20
74.7691763689
 11
105.162413155
 21
74.7691763689
  0
LINE
  5
4D9
100
AcDbEntity
  8
RACCORDO
100
AcDbLine
 62
7
  6
CONTINUOUS
 10
74.0081466476
 20
73.2324088156
 11
75.2476545526
 21
73.2107731246
  0
LINE
  5
4DA
100
AcDbEntity
  8
RACCORDO
100
AcDbLine
 62
250
  6
CONTINUOUS
 10
74.0299821368
 20
73.4819895995
 11
75.2168971679
 21
73.4612719206
  0
LWPOLYLINE
  5
4DB
100
AcDbEntity
  8
RACCORDO
100
AcDbPolyline
 62
250
  6
CONTINUOUS
 90
3
 70
0
 10
74.6548586657
 20
78.4043162183
 10
74.658534802
 20
78.4037728203
 10
74.6873577447
 20
78.4000606161
  0
LINE
  5
4DC
100
AcDbEntity
  8
DRAFT
100
AcDbLine
 62
7
  6
CONTINUOUS
 10
74.873321996
 20
76.2594671448
 11
74.2821004801
 21
76.3637154496
  0
LWPOLYLINE
  5
4DD
100
AcDbEntity
  8
RACCORDO
100
AcDbPolyline
 62
7
  6
CONTINUOUS
 90
10
 70
0
 10
99.5346565781
 20
70.4215513623
 10
99.5210641942
 20
70.4308078343
 10
99.4958777488
 20
70.4572325305
 10
99.4590983341
 20
70.4980915403
 10
99.4090860128
 20
70.549719694
 10
99.3475420029
 20
70.6095854727
 10
99.2794634363
 20
70.6775768836
 10
99.2065133873
 20
70.7526686469
 10
99.1270611532
 20
70.8318529831
 10
99.0411393582
 20
70.9128608347
  0
LWPOLYLINE
  5
4DE
100
AcDbEntity
  8
ASSI
100
AcDbPolyline
 62
7
  6
CONTINUOUS
 90
10
 70
0
 10
99.5346565781
 20
70.4215513623
 10
99.5210641942
 20
70.4308078343
 10
99.4958777488
 20
70.4572325305
 10
99.4590983341
 20
70.4980915403
 10
99.4090860128
 20
70.549719694
 10
99.3475420029
 20
70.6095854727
 10
99.2794634363
 20
70.6775768836
 10
99.2065133873
 20
70.7526686469
 10
99.1270611532
 20
70.8318529831
 10
99.0411393582
 20
70.9128608347
  0
LINE
  5
4DF
100
AcDbEntity
  8
0
100
AcDbLine
 62
250
  6
CONTINUOUS
 10
82.832413155
 20
89.4429407778
 11
83.0466988565
 21
89.2286550651
  0
LINE
  5
4E0
100
AcDbEntity
  8
0
100
AcDbLine
 62
250
  6
CONTINUOUS
 10
83.3681274535
 20
94.121512084
 11
83.4752702596
 21
93.9429406213
  0
LWPOLYLINE
  5
4E1
100
AcDbEntity
  8
RACCORDO
100
AcDbPolyline
 62
250
  6
CONTINUOUS
 90
5
 70
0
 10
90.3343955004
 20
95.7179865882
 10
90.3347712186
 20
95.7154909677
 10
90.3350563296
 20
95.7080435805
 10
90.3352479952
 20
95.6957185611
 10
90.3353443074
 20
95.6786385997
  0
LWPOLYLINE
  5
4E2
100
AcDbEntity
  8
ASSI
100
AcDbPolyline
 62
250
  6
CONTINUOUS
 90
5
 70
0
 10
90.3343955004
 20
95.7179865882
 10
90.3347712186
 20
95.7154909677
 10
90.3350563296
 20
95.7080435805
 10
90.3352479952
 20
95.6957185611
 10
90.3353443074
 20
95.6786385997
  0
LWPOLYLINE
  5
4E3
100
AcDbEntity
  8
RACCORDO
100
AcDbPolyline
 62
250
  6
CONTINUOUS
 90
3
 70
0
 10
99.0413322904
 20
95.3497301166
 10
99.0415865508
 20
95.1650516761
 10
99.0416812307
 20
94.9750042746
  0
LWPOLYLINE
  5
4E4
100
AcDbEntity
  8
ASSI
100
AcDbPolyline
 62
250
  6
CONTINUOUS
 90
3
 70
0
 10
99.0413322904
 20
95.3497301166
 10
99.0415865508
 20
95.1650516761
 10
99.0416812307
 20
94.9750042746
  0
LINE
  5
4E5
100
AcDbEntity
  8
0
100
AcDbLine
 62
250
  6
CONTINUOUS
 10
96.106731155
 20
91.0007342032
 11
96.106731155
 21
90.4450402032
  0
LINE
  5
4E6
100
AcDbEntity
  8
0
100
AcDbLine
 62
250
  6
CONTINUOUS
 10
96.106731155
 20
88.7783032032
 11
96.106731155
 21
89.3339972032
  0
LINE
  5
4E7
100
AcDbEntity
  8
0
100
AcDbLine
 62
250
  6
CONTINUOUS
 10
96.532413155
 20
66.7715122032
 11
96.532413155
 21
66.4000834989
  0
LINE
  5
4E8
100
AcDbEntity
  8
0
100
AcDbLine
 62
250
  6
CONTINUOUS
 10
96.532413155
 20
62.9643693792
 11
96.532413155
 21
62.2125968371
  0
LINE
  5
4E9
100
AcDbEntity
  8
0
100
AcDbLine
 62
250
  6
CONTINUOUS
 10
97.460984567
 20
68.6905599403
 11
97.460984567
 21
68.1953218746
  0
LINE
  5
4EA
100
AcDbEntity
  8
0
100
AcDbLine
 62
250
  6
CONTINUOUS
 10
97.773296155
 20
93.2228212032
 11
97.773296155
 21
92.6671272032
  0
LINE
  5
4EB
100
AcDbEntity
  8
0
100
AcDbLine
 62
250
  6
CONTINUOUS
 10
97.773296155
 20
89.3339972032
 11
97.773296155
 21
88.7783032032
  0
LINE
  5
4EC
100
AcDbEntity
  8
0
100
AcDbLine
 62
250
  6
CONTINUOUS
 10
97.832413155
 20
66.6786551046
 11
97.832413155
 21
66.3072264003
  0
LINE
  5
4ED
100
AcDbEntity
  8
0
100
AcDbLine
 62
250
  6
CONTINUOUS
 10
97.832413155
 20
63.8000836539
 11
97.832413155
 21
63.5215122032
  0
LINE
  5
4EE
100
AcDbEntity
  8
0
100
AcDbLine
 62
250
  6
CONTINUOUS
 10
98.328990155
 20
91.5560832032
 11
98.328990155
 21
91.0007342032
  0
LINE
  5
4EF
100
AcDbEntity
  8
0
100
AcDbLine
 62
250
  6
CONTINUOUS
 10
98.328990155
 20
90.4450402032
 11
98.328990155
 21
89.8893462032
  0
LINE
  5
4F0
100
AcDbEntity
  8
0
100
AcDbLine
 62
250
  6
CONTINUOUS
 10
98.328990155
 20
88.2229542032
 11
98.328990155
 21
89.3339972032
  0
LINE
  5
4F1
100
AcDbEntity
  8
0
100
AcDbLine
 62
250
  6
CONTINUOUS
 10
98.328990155
 20
92.1117772032
 11
98.328990155
 21
93.2228212032
  0
LINE
  5
4F2
100
AcDbEntity
  8
0
100
AcDbLine
 62
250
  6
CONTINUOUS
 10
99.0411393582
 20
59.004142289
 11
99.0411393582
 21
60.9805054068
  0
LINE
  5
4F3
100
AcDbEntity
  8
ASSI
100
AcDbLine
 62
250
  6
CONTINUOUS
 10
99.0411393582
 20
59.004142289
 11
99.0411393582
 21
60.9805054068
  0
LINE
  5
4F4
100
AcDbEntity
  8
RACCORDO
100
AcDbLine
 62
250
  6
CONTINUOUS
 10
99.0411393582
 20
62.2279221293
 11
99.0411393582
 21
70.9128608347
  0
LINE
  5
4F5
100
AcDbEntity
  8
ASSI
100
AcDbLine
 62
250
  6
CONTINUOUS
 10
99.0411393582
 20
62.2279221293
 11
99.0411393582
 21
70.9128608347
  0
LINE
  5
4F6
100
AcDbEntity
  8
RACCORDO
100
AcDbLine
 62
250
  6
CONTINUOUS
 10
99.0411393582
 20
85.5301635716
 11
99.0411393582
 21
94.2153247681
  0
LINE
  5
4F7
100
AcDbEntity
  8
ASSI
100
AcDbLine
 62
250
  6
CONTINUOUS
 10
99.0411393582
 20
85.5301635716
 11
99.0411393582
 21
94.2153247681
  0
LINE
  5
4F8
100
AcDbEntity
  8
RACCORDO
100
AcDbLine
 62
7
  6
CONTINUOUS
 10
99.532413155
 20
95.0660859613
 11
99.532413155
 21
86.0215122032
  0
LINE
  5
4F9
100
AcDbEntity
  8
ASSI
100
AcDbLine
 62
7
  6
CONTINUOUS
 10
99.532413155
 20
95.0660859613
 11
99.532413155
 21
86.0215122032
  0
LINE
  5
4FA
100
AcDbEntity
  8
0
100
AcDbLine
 62
7
  6
CONTINUOUS
 10
99.532413155
 20
59.3215122032
 11
99.532413155
 21
61.2923595875
  0
LINE
  5
4FB
100
AcDbEntity
  8
RACCORDO
100
AcDbLine
 62
7
  6
CONTINUOUS
 10
99.532413155
 20
61.2923595875
 11
99.532413155
 21
70.4215122032
  0
LINE
  5
4FC
100
AcDbEntity
  8
ASSI
100
AcDbLine
 62
7
  6
CONTINUOUS
 10
99.532413155
 20
59.3215122032
 11
99.532413155
 21
70.4215122032
  0
LWPOLYLINE
  5
4FD
100
AcDbEntity
  8
RACCORDO
100
AcDbPolyline
 62
250
  6
CONTINUOUS
 90
4
 70
0
 10
99.0416812307
 20
94.9750042746
 10
99.0415212893
 20
94.5902663753
 10
99.0413391619
 20
94.4005330185
 10
99.041140128
 20
94.2153247634
  0
LWPOLYLINE
  5
4FE
100
AcDbEntity
  8
ASSI
100
AcDbPolyline
 62
250
  6
CONTINUOUS
 90
4
 70
0
 10
99.0416812307
 20
94.9750042746
 10
99.0415212893
 20
94.5902663753
 10
99.0413391619
 20
94.4005330185
 10
99.041140128
 20
94.2153247634
  0
LWPOLYLINE
  5
4FF
100
AcDbEntity
  8
RACCORDO
100
AcDbPolyline
 62
250
  6
CONTINUOUS
 90
6
 70
0
 10
99.0411393582
 20
60.9805054066
 10
99.0414348494
 20
61.1659499781
 10
99.0416083104
 20
61.3640536145
 10
99.0416581339
 20
61.5720916154
 10
99.0415888032
 20
61.7872810947
 10
99.0411393582
 20
62.2279221293
  0
LWPOLYLINE
  5
500
100
AcDbEntity
  8
ASSI
100
AcDbPolyline
 62
250
  6
CONTINUOUS
 90
6
 70
0
 10
99.0411393582
 20
60.9805054066
 10
99.0414348494
 20
61.1659499781
 10
99.0416083104
 20
61.3640536145
 10
99.0416581339
 20
61.5720916154
 10
99.0415888032
 20
61.7872810947
 10
99.0411393582
 20
62.2279221293
  0
LWPOLYLINE
  5
501
100
AcDbEntity
  8
RACCORDO
100
AcDbPolyline
 62
250
  6
CONTINUOUS
 90
3
 70
0
 10
99.0423251041
 20
95.4754234962
 10
99.0418099329
 20
95.3979391508
 10
99.041332226
 20
95.3497460013
  0
LWPOLYLINE
  5
502
100
AcDbEntity
  8
ASSI
100
AcDbPolyline
 62
250
  6
CONTINUOUS
 90
3
 70
0
 10
99.0423251041
 20
95.4754234962
 10
99.0418099329
 20
95.3979391508
 10
99.041332226
 20
95.3497460013
  0
LINE
  5
503
100
AcDbEntity
  8
0
100
AcDbLine
 62
250
  6
CONTINUOUS
 10
84.2058707551
 20
63.5258272032
 11
84.4200724922
 21
63.7636622032
  0
LINE
  5
504
100
AcDbEntity
  8
CURVE
100
AcDbLine
 62
250
  6
CONTINUOUS
 10
88.1003145487
 20
71.3643690395
 11
88.314535004
 21
71.5786553668
  0
LINE
  5
505
100
AcDbEntity
  8
CURVE
100
AcDbLine
 62
250
  6
CONTINUOUS
 10
87.4576531827
 20
70.6143690395
 11
87.6718736604
 21
70.8286553668
  0
LINE
  5
506
100
AcDbEntity
  8
CURVE
100
AcDbLine
 62
250
  6
CONTINUOUS
 10
86.8149918837
 20
69.542940979
 11
87.0292123167
 21
69.7572265911
  0
LINE
  5
507
100
AcDbEntity
  8
CURVE
100
AcDbLine
 62
250
  6
CONTINUOUS
 10
87.2434327497
 20
72.0072265911
 11
87.0292123167
 21
71.9000834274
  0
LINE
  5
508
100
AcDbEntity
  8
0
100
AcDbLine
 62
7
  6
CONTINUOUS
 10
105.032413155
 20
75.4907862237
 11
105.162413155
 21
75.4907862237
  0
LINE
  5
509
100
AcDbEntity
  8
ASSI
100
AcDbLine
 62
7
  6
CONTINUOUS
 10
105.032413155
 20
75.4907862237
 11
105.162413155
 21
75.4907862237
  0
LINE
  5
50A
100
AcDbEntity
  8
0
100
AcDbLine
 62
7
  6
CONTINUOUS
 10
105.032413155
 20
75.5324592032
 11
105.162413155
 21
75.5324592032
  0
LINE
  5
50B
100
AcDbEntity
  8
ASSI
100
AcDbLine
 62
7
  6
CONTINUOUS
 10
105.032413155
 20
75.5324592032
 11
105.162413155
 21
75.5324592032
  0
LINE
  5
50C
100
AcDbEntity
  8
0
100
AcDbLine
 62
7
  6
CONTINUOUS
 10
105.032413155
 20
75.5572450273
 11
105.162413155
 21
75.5572452032
  0
LINE
  5
50D
100
AcDbEntity
  8
ASSI
100
AcDbLine
 62
7
  6
CONTINUOUS
 10
105.032413155
 20
75.5572450273
 11
105.162413155
 21
75.5572452032
  0
LINE
  5
50E
100
AcDbEntity
  8
0
100
AcDbLine
 62
7
  6
CONTINUOUS
 10
105.032413155
 20
75.6183970864
 11
105.162413155
 21
75.6183972032
  0
LINE
  5
50F
100
AcDbEntity
  8
ASSI
100
AcDbLine
 62
7
  6
CONTINUOUS
 10
105.032413155
 20
75.6183970864
 11
105.162413155
 21
75.6183972032
  0
LINE
  5
510
100
AcDbEntity
  8
0
100
AcDbLine
 62
7
  6
CONTINUOUS
 10
105.162413155
 20
76.0830496722
 11
105.032413155
 21
76.0830496722
  0
LINE
  5
511
100
AcDbEntity
  8
ASSI
100
AcDbLine
 62
7
  6
CONTINUOUS
 10
105.162413155
 20
76.0830496722
 11
105.032413155
 21
76.0830496722
  0
LINE
  5
512
100
AcDbEntity
  8
0
100
AcDbLine
 62
7
  6
CONTINUOUS
 10
105.032413155
 20
76.8436903171
 11
105.162413155
 21
76.8436903171
  0
LINE
  5
513
100
AcDbEntity
  8
ASSI
100
AcDbLine
 62
7
  6
CONTINUOUS
 10
105.032413155
 20
76.8436903171
 11
105.162413155
 21
76.8436903171
  0
LINE
  5
514
100
AcDbEntity
  8
0
100
AcDbLine
 62
250
  6
CONTINUOUS
 10
79.7851492536
 20
77.8539582032
 11
80.5357405639
 21
77.8539582032
  0
LINE
  5
515
100
AcDbEntity
  8
0
100
AcDbLine
 62
250
  6
CONTINUOUS
 10
84.1290857461
 20
77.8539582032
 11
84.8796770565
 21
77.8539582032
  0
LWPOLYLINE
  5
516
100
AcDbEntity
  8
0
100
AcDbPolyline
 62
250
  6
CONTINUOUS
 90
87
 70
0
 10
87.3359888097
 20
78.2787554284
 10
87.3076392762
 20
78.2790018279
 10
87.2802207914
 20
78.2799183837
 10
87.2530729752
 20
78.2814970475
 10
87.2118922102
 20
78.2850917413
 10
87.1704740337
 20
78.290148018
 10
87.1293304487
 20
78.2966564502
 10
87.0884637141
 20
78.3046101041
 10
87.0477795768
 20
78.31400532
 10
87.0073074794
 20
78.3248490434
 10
86.9537675466
 20
78.3415618198
 10
86.9007871014
 20
78.3607974801
 10
86.8484413529
 20
78.3824867235
 10
86.7967766905
 20
78.4065925405
 10
86.7457242252
 20
78.4332070854
 10
86.6951862487
 20
78.4624548035
 10
86.6451104424
 20
78.4944206217
 10
86.5956260485
 20
78.5290313918
 10
86.5469076991
 20
78.5661744472
 10
86.4991300264
 20
78.6057371214
 10
86.4524676627
 20
78.6476067476
 10
86.4070952402
 20
78.6916706592
 10
86.3631626553
 20
78.7378255959
 10
86.3207208615
 20
78.7860059227
 10
86.2797960765
 20
78.8361554108
 10
86.240414518
 20
78.8882178315
 10
86.2026024039
 20
78.9421369561
 10
86.1663859517
 20
78.9978565559
 10
86.1317951663
 20
79.0553127772
 10
86.0988751996
 20
79.1144112673
 10
86.0676749909
 20
79.1750500482
 10
86.0382434793
 20
79.2371271424
 10
86.0106296037
 20
79.3005405719
 10
85.9848823034
 20
79.3651883591
 10
85.9565097573
 20
79.4442697922
 10
85.9309286909
 20
79.5249155614
 10
85.9081722432
 20
79.6070593757
 10
85.8882735534
 20
79.6906349442
 10
85.8712657604
 20
79.7755759758
 10
85.8571855434
 20
79.8617844784
 10
85.8460837407
 20
79.9490356546
 10
85.8380147309
 20
80.037073006
 10
85.8330328923
 20
80.1256400339
 10
85.8311926035
 20
80.2144802399
 10
85.8325308797
 20
80.3033384208
 10
85.8370152837
 20
80.3919645557
 10
85.8445960152
 20
80.4801099194
 10
85.8552232739
 20
80.5675257864
 10
85.8688472594
 20
80.6539634312
 10
85.8854212207
 20
80.739202671
 10
85.9049106043
 20
80.8231374919
 10
85.9272839059
 20
80.9056904227
 10
85.9525096212
 20
80.986783992
 10
85.9805562461
 20
81.0663407283
 10
86.0060547354
 20
81.1313977032
 10
86.0334370954
 20
81.1952261353
 10
86.0626501097
 20
81.2577185267
 10
86.093640562
 20
81.3187673791
 10
86.126355236
 20
81.3782651946
 10
86.1607409152
 20
81.436104475
 10
86.1967492019
 20
81.4921871836
 10
86.2343509715
 20
81.5464531289
 10
86.2735219183
 20
81.5988515809
 10
86.3142377362
 20
81.6493318095
 10
86.3564741193
 20
81.6978430846
 10
86.4002067617
 20
81.7443346761
 10
86.4453866427
 20
81.7887453606
 10
86.491865883
 20
81.8309719418
 10
86.5394718888
 20
81.8709007298
 10
86.588032066
 20
81.9084180349
 10
86.6373738208
 20
81.9434101674
 10
86.6873245592
 20
81.9757634374
 10
86.737756401
 20
82.005403694
 10
86.7887203216
 20
82.0324149412
 10
86.8403120102
 20
82.0569207216
 10
86.892598744
 20
82.0790124407
 10
86.9455341532
 20
82.0986529549
 10
86.9990434559
 20
82.1157729833
 10
87.0395025335
 20
82.1269232665
 10
87.0801836261
 20
82.1366236222
 10
87.1210583922
 20
82.1448790577
 10
87.1622200656
 20
82.151687345
 10
87.2036654522
 20
82.1570427709
 10
87.2448840713
 20
82.160932919
 10
87.2720635747
 20
82.1627055207
 10
87.2995169556
 20
82.1638174816
 10
87.3279021228
 20
82.1642656588
  0
LINE
  5
517
100
AcDbEntity
  8
RACCORDO
100
AcDbLine
 62
250
  6
CONTINUOUS
 10
74.6873577447
 20
78.4000606161
 11
74.898632102
 21
78.3738488824
  0
LWPOLYLINE
  5
518
100
AcDbEntity
  8
0
100
AcDbPolyline
 62
250
  6
CONTINUOUS
 90
46
 70
0
 10
81.957527901
 20
80.3785639791
 10
81.9027827957
 20
80.3911573361
 10
81.8483621625
 20
80.4055293566
 10
81.7943267861
 20
80.4216526245
 10
81.7407374514
 20
80.4394997234
 10
81.687654943
 20
80.4590432372
 10
81.6351400459
 20
80.4802557496
 10
81.5832535447
 20
80.5031098445
 10
81.5320562242
 20
80.5275781056
 10
81.4816088692
 20
80.5536331167
 10
81.4319722645
 20
80.5812474616
 10
81.3832071949
 20
80.6103937241
 10
81.335374445
 20
80.6410444879
 10
81.2885347998
 20
80.6731723369
 10
81.242749044
 20
80.7067498548
 10
81.1980779623
 20
80.7417496254
 10
81.1545775252
 20
80.7781418448
 10
81.1122844465
 20
80.8158871582
 10
81.0712306254
 20
80.8549438233
 10
81.0314479613
 20
80.8952700975
 10
80.9929683535
 20
80.9368242384
 10
80.9558237014
 20
80.9795645036
 10
80.9200459044
 20
81.0234491506
 10
80.8856668617
 20
81.0684364369
 10
80.8527184728
 20
81.1144846202
 10
80.821232637
 20
81.1615519579
 10
80.7912412537
 20
81.2095967077
 10
80.7627762222
 20
81.258577127
 10
80.7358694419
 20
81.3084514735
 10
80.7105528121
 20
81.3591780047
 10
80.6868582321
 20
81.410714978
 10
80.664814035
 20
81.4630166306
 10
80.6444342883
 20
81.5160211168
 10
80.625729493
 20
81.5696625705
 10
80.6087101502
 20
81.6238751256
 10
80.5933867611
 20
81.6785929159
 10
80.5797698268
 20
81.7337500752
 10
80.5678698483
 20
81.7892807374
 10
80.5576973268
 20
81.8451190365
 10
80.5492627633
 20
81.9011991061
 10
80.542576659
 20
81.9574550803
 10
80.537649515
 20
82.0138210928
 10
80.5344918324
 20
82.0702312774
 10
80.5331141123
 20
82.1266197682
 10
80.5335268558
 20
82.1829206988
 10
80.5357405639
 20
82.2390682032
  0
LINE
  5
519
100
AcDbEntity
  8
0
100
AcDbLine
 62
250
  6
CONTINUOUS
 10
86.421205829
 20
84.3096994725
 11
85.2160484912
 21
84.8535918072
  0
LINE
  5
51A
100
AcDbEntity
  8
0
100
AcDbLine
 62
250
  6
CONTINUOUS
 10
88.832413155
 20
83.2215122032
 11
87.5833571474
 21
83.7852159679
  0
LWPOLYLINE
  5
51B
100
AcDbEntity
  8
0
100
AcDbPolyline
 62
250
  6
CONTINUOUS
 90
45
 70
0
 10
85.2160487606
 20
84.8535924042
 10
85.1827729724
 20
84.8691007594
 10
85.1502737193
 20
84.8852296282
 10
85.1184993217
 20
84.9019862084
 10
85.0873980999
 20
84.9193776978
 10
85.0569183743
 20
84.9374112943
 10
85.0270084652
 20
84.9560941956
 10
84.9976166929
 20
84.9754335995
 10
84.9686913779
 20
84.9954367038
 10
84.9361544619
 20
85.0191187323
 10
84.9041764106
 20
85.0436842407
 10
84.8727743379
 20
85.0691404337
 10
84.8419653583
 20
85.0954945159
 10
84.811766586
 20
85.122753692
 10
84.7821951352
 20
85.1509251666
 10
84.7532681202
 20
85.1800161444
 10
84.7250086716
 20
85.210026458
 10
84.6974639852
 20
85.2409264509
 10
84.6706872736
 20
85.2726790947
 10
84.6447317488
 20
85.3052473609
 10
84.6196506233
 20
85.338594221
 10
84.5954971094
 20
85.3726826466
 10
84.5723244194
 20
85.4074756091
 10
84.5501787176
 20
85.4429314833
 10
84.5290779768
 20
85.478990257
 10
84.509033122
 20
85.5155873213
 10
84.4900550779
 20
85.5526580672
 10
84.4721547694
 20
85.5901378858
 10
84.4553431214
 20
85.627962168
 10
84.4396310588
 20
85.666066305
 10
84.4250255568
 20
85.704394338
 10
84.4115177929
 20
85.7429249088
 10
84.3990949948
 20
85.7816453095
 10
84.3877443904
 20
85.8205428321
 10
84.3774532075
 20
85.8596047687
 10
84.3682086738
 20
85.8988184114
 10
84.3599980173
 20
85.9381710521
 10
84.3536556883
 20
85.9727185041
 10
84.3481101883
 20
86.0074132922
 10
84.3433765631
 20
86.0423060613
 10
84.3394698583
 20
86.0774474566
 10
84.3364051196
 20
86.1128881233
 10
84.3341973925
 20
86.1486787064
 10
84.3328617228
 20
86.1848698511
 10
84.3324131561
 20
86.2215122024
  0
LINE
  5
51C
100
AcDbEntity
  8
0
100
AcDbLine
 62
250
  6
CONTINUOUS
 10
83.0466988565
 20
90.3000836062
 11
82.832413155
 21
90.5143693077
  0
LINE
  5
51D
100
AcDbEntity
  8
0
100
AcDbLine
 62
250
  6
CONTINUOUS
 10
84.332413155
 20
89.5500836509
 11
84.1181274311
 21
89.7643693524
  0
LINE
  5
51E
100
AcDbEntity
  8
0
100
AcDbLine
 62
250
  6
CONTINUOUS
 10
82.832413155
 20
91.8000836062
 11
83.0466988565
 21
91.5857979941
  0
LINE
  5
51F
100
AcDbEntity
  8
0
100
AcDbLine
 62
250
  6
CONTINUOUS
 10
83.9038417073
 20
90.9429408001
 11
84.332413155
 21
90.5143693077
  0
LINE
  5
520
100
AcDbEntity
  8
0
100
AcDbLine
 62
250
  6
CONTINUOUS
 10
82.832413155
 20
93.0857978153
 11
83.260984558
 21
92.6572265911
  0
LINE
  5
521
100
AcDbEntity
  8
0
100
AcDbLine
 62
250
  6
CONTINUOUS
 10
84.332413155
 20
91.9072264122
 11
84.1181274311
 21
92.1215122032
  0
LINE
  5
522
100
AcDbEntity
  8
0
100
AcDbLine
 62
7
  6
CONTINUOUS
 10
99.732413155
 20
93.9453522032
 11
99.732413155
 21
92.5057273044
  0
LINE
  5
523
100
AcDbEntity
  8
ASSI
100
AcDbLine
 62
7
  6
CONTINUOUS
 10
99.732413155
 20
93.9453522032
 11
99.732413155
 21
92.5057273044
  0
LINE
  5
524
100
AcDbEntity
  8
0
100
AcDbLine
 62
7
  6
CONTINUOUS
 10
99.732413155
 20
62.2408922032
 11
99.732413155
 21
61.5430274956
  0
LINE
  5
525
100
AcDbEntity
  8
ASSI
100
AcDbLine
 62
7
  6
CONTINUOUS
 10
99.732413155
 20
62.2408922032
 11
99.732413155
 21
61.5430274956
  0
LINE
  5
526
100
AcDbEntity
  8
0
100
AcDbLine
 62
7
  6
CONTINUOUS
 10
99.732413155
 20
61.4972322032
 11
99.732413155
 21
60.9231722032
  0
LINE
  5
527
100
AcDbEntity
  8
ASSI
100
AcDbLine
 62
7
  6
CONTINUOUS
 10
99.732413155
 20
61.4972322032
 11
99.732413155
 21
60.9231722032
  0
LINE
  5
528
100
AcDbEntity
  8
RACCORDO
100
AcDbLine
 62
250
  6
CONTINUOUS
 10
101.3359074768
 20
62.3561760716
 11
101.3359076325
 21
62.3529923164
  0
LINE
  5
529
100
AcDbEntity
  8
ASSI
100
AcDbLine
 62
250
  6
CONTINUOUS
 10
101.3359074768
 20
62.3561760716
 11
101.3359076325
 21
62.3529923164
  0
LINE
  5
52A
100
AcDbEntity
  8
RACCORDO
100
AcDbLine
 62
250
  6
CONTINUOUS
 10
101.3359038908
 20
69.6900321553
 11
101.3359074768
 21
62.3561760716
  0
LINE
  5
52B
100
AcDbEntity
  8
ASSI
100
AcDbLine
 62
250
  6
CONTINUOUS
 10
101.3359038908
 20
69.6900321553
 11
101.3359074768
 21
62.3561760716
  0
LINE
  5
52C
100
AcDbEntity
  8
RACCORDO
100
AcDbLine
 62
250
  6
CONTINUOUS
 10
101.3359038908
 20
92.3900321553
 11
101.3359036363
 21
85.9900321597
  0
LINE
  5
52D
100
AcDbEntity
  8
ASSI
100
AcDbLine
 62
250
  6
CONTINUOUS
 10
101.3359038908
 20
92.3900321553
 11
101.3359036363
 21
85.9900321597
  0
LINE
  5
52E
100
AcDbEntity
  8
RACCORDO
100
AcDbLine
 62
7
  6
CONTINUOUS
 10
101.532413155
 20
92.1913597201
 11
101.532413155
 21
85.9866020733
  0
LINE
  5
52F
100
AcDbEntity
  8
ASSI
100
AcDbLine
 62
7
  6
CONTINUOUS
 10
101.532413155
 20
92.1913597201
 11
101.532413155
 21
85.9866020733
  0
LINE
  5
530
100
AcDbEntity
  8
RACCORDO
100
AcDbLine
 62
7
  6
CONTINUOUS
 10
101.532413155
 20
62.5533510768
 11
101.532413155
 21
69.4913597201
  0
LINE
  5
531
100
AcDbEntity
  8
ASSI
100
AcDbLine
 62
7
  6
CONTINUOUS
 10
101.532413155
 20
62.5533510768
 11
101.532413155
 21
69.4913597201
  0
LINE
  5
532
100
AcDbEntity
  8
RACCORDO
100
AcDbLine
 62
7
  6
CONTINUOUS
 10
82.4531353492
 20
57.1153057684
 11
82.479795294
 21
57.1467556225
  0
LINE
  5
533
100
AcDbEntity
  8
ASSI
100
AcDbLine
 62
7
  6
CONTINUOUS
 10
82.4531353492
 20
57.1153057684
 11
82.479795294
 21
57.1467556225
  0
LINE
  5
534
100
AcDbEntity
  8
CURVE
100
AcDbLine
 62
250
  6
CONTINUOUS
 10
87.4576531827
 20
64.6143693077
 11
87.6718736604
 21
64.8286550092
  0
LINE
  5
535
100
AcDbEntity
  8
CURVE
100
AcDbLine
 62
250
  6
CONTINUOUS
 10
88.314535004
 20
64.2929408001
 11
88.1003145487
 21
64.0786550986
  0
LINE
  5
536
100
AcDbEntity
  8
CURVE
100
AcDbLine
 62
250
  6
CONTINUOUS
 10
88.314535004
 20
67.400083785
 11
86.8149918837
 21
66.5429406213
  0
LINE
  5
537
100
AcDbEntity
  8
CURVE
100
AcDbLine
 62
250
  6
CONTINUOUS
 10
87.8860940934
 20
71.2572265911
 11
88.1003145487
 21
71.3643690395
  0
LINE
  5
538
100
AcDbEntity
  8
CURVE
100
AcDbLine
 62
250
  6
CONTINUOUS
 10
88.314535004
 20
72.8643690395
 11
86.8149918837
 21
72.4357978153
  0
LINE
  5
539
100
AcDbEntity
  8
RACCORDO
100
AcDbLine
 62
250
  6
CONTINUOUS
 10
74.6548586657
 20
78.0387081881
 11
74.6585348063
 21
78.0392515866
  0
LINE
  5
53A
100
AcDbEntity
  8
RACCORDO
100
AcDbLine
 62
250
  6
CONTINUOUS
 10
74.6585348063
 20
78.0392515866
 11
74.6873577741
 21
78.0429637939
  0
LINE
  5
53B
100
AcDbEntity
  8
RACCORDO
100
AcDbLine
 62
250
  6
CONTINUOUS
 10
74.6873577741
 20
78.0429637939
 11
74.7763978236
 21
78.0540922135
  0
LINE
  5
53C
100
AcDbEntity
  8
RACCORDO
100
AcDbLine
 62
250
  6
CONTINUOUS
 10
74.7763978236
 20
78.0540922135
 11
74.898632102
 21
78.0691755239
  0
LINE
  5
53D
100
AcDbEntity
  8
0
100
AcDbLine
 62
250
  6
CONTINUOUS
 10
81.9575273749
 20
81.8390682032
 11
82.7072989351
 21
81.8390682032
  0
LINE
  5
53E
100
AcDbEntity
  8
0
100
AcDbLine
 62
250
  6
CONTINUOUS
 10
79.7851492536
 20
82.2390682032
 11
80.5357405639
 21
82.2390682032
  0
LINE
  5
53F
100
AcDbEntity
  8
0
100
AcDbLine
 62
250
  6
CONTINUOUS
 10
84.1290857461
 20
82.2390682032
 11
84.8796770565
 21
82.2390682032
  0
LWPOLYLINE
  5
540
100
AcDbEntity
  8
0
100
AcDbPolyline
 62
250
  6
CONTINUOUS
 90
87
 70
0
 10
87.3288375003
 20
82.1642689779
 10
87.3571871029
 20
82.1640225769
 10
87.3846056617
 20
82.1631060159
 10
87.4117535505
 20
82.161527344
 10
87.452934412
 20
82.1579326325
 10
87.4943526719
 20
82.1528763328
 10
87.5354963307
 20
82.1463678733
 10
87.5763631289
 20
82.138414189
 10
87.6170473178
 20
82.1290189403
 10
87.6575194537
 20
82.1181751843
 10
87.7110594165
 20
82.1014623673
 10
87.7640398707
 20
82.0822266705
 10
87.8163856118
 20
82.0605373943
 10
87.8680502517
 20
82.0364315504
 10
87.9191026688
 20
82.0098169964
 10
87.9696405583
 20
81.9805693012
 10
88.0197162298
 20
81.9486035494
 10
88.0692004498
 20
81.9139928878
 10
88.1179185992
 20
81.8768499787
 10
88.1656960591
 20
81.8372874847
 10
88.2123582103
 20
81.7954180681
 10
88.2577304338
 20
81.7513543913
 10
88.3016628451
 20
81.7051997075
 10
88.3441044978
 20
81.6570196328
 10
88.3850291802
 20
81.6068703739
 10
88.4244106803
 20
81.5548081377
 10
88.4622227864
 20
81.500889131
 10
88.4984392867
 20
81.4451695605
 10
88.5330301787
 20
81.3877132643
 10
88.5659502978
 20
81.3286146054
 10
88.5971506886
 20
81.2679755779
 10
88.626582396
 20
81.2058981759
 10
88.6541964645
 20
81.1424843937
 10
88.679943939
 20
81.0778362255
 10
88.7083166516
 20
80.9987543204
 10
88.7338978376
 20
80.9181080894
 10
88.7566543612
 20
80.8359638509
 10
88.7765530868
 20
80.7523879231
 10
88.7935608788
 20
80.6674466244
 10
88.8076410625
 20
80.5812379663
 10
88.8187428073
 20
80.493986732
 10
88.8268117435
 20
80.405949398
 10
88.8317935015
 20
80.3173824404
 10
88.8336337116
 20
80.2285423356
 10
88.8322953664
 20
80.1396842697
 10
88.8278109069
 20
80.0510582674
 10
88.8202301366
 20
79.9629130634
 10
88.8096028587
 20
79.8754973923
 10
88.7959788766
 20
79.7890599885
 10
88.7794049441
 20
79.7038210404
 10
88.7599156174
 20
79.6198865517
 10
88.7375424032
 20
79.5373339795
 10
88.7123168081
 20
79.4562407813
 10
88.6842703387
 20
79.3766844143
 10
88.6587720054
 20
79.3116277352
 10
88.6313898157
 20
79.2477995754
 10
88.6021769737
 20
79.1853074207
 10
88.5711866839
 20
79.1242587565
 10
88.5384721505
 20
79.0647610686
 10
88.5040865779
 20
79.0069218426
 10
88.4680783547
 20
78.9508391075
 10
88.4304766063
 20
78.8965730662
 10
88.3913056428
 20
78.8441744652
 10
88.3505897739
 20
78.7936940507
 10
88.3083533096
 20
78.7451825691
 10
88.2646205596
 20
78.6986907669
 10
88.2194405494
 20
78.6542798814
 10
88.1729611664
 20
78.6120531148
 10
88.1253550137
 20
78.5721241603
 10
88.0767946941
 20
78.5346067112
 10
88.0274528108
 20
78.4996144606
 10
87.9775019665
 20
78.4672611018
 10
87.9270700475
 20
78.4376207871
 10
87.8761060716
 20
78.4106095049
 10
87.8245143399
 20
78.3861037028
 10
87.7722275674
 20
78.3640119673
 10
87.7192921252
 20
78.3443714413
 10
87.6657827982
 20
78.3272514065
 10
87.6253237098
 20
78.3161011226
 10
87.5846426124
 20
78.3064007684
 10
87.5437678468
 20
78.2981453355
 10
87.5026061782
 20
78.2913370516
 10
87.4611608005
 20
78.2859816291
 10
87.4199421973
 20
78.2820914842
 10
87.3927627091
 20
78.2803188841
 10
87.3653093435
 20
78.2792069244
 10
87.3369241872
 20
78.2787587475
  0
LINE
  5
541
100
AcDbEntity
  8
0
100
AcDbLine
 62
250
  6
CONTINUOUS
 10
81.5929980998
 20
88.2887067032
 11
80.0329564122
 21
88.8105402032
  0
LINE
  5
542
100
AcDbEntity
  8
0
100
AcDbLine
 62
250
  6
CONTINUOUS
 10
80.0329564122
 20
89.0601352032
 11
81.8324181535
 21
88.4197752032
  0
LINE
  5
543
100
AcDbEntity
  8
0
100
AcDbLine
 62
250
  6
CONTINUOUS
 10
86.8902555926
 20
85.1578830816
 11
87.3605289262
 21
84.931149825
  0
LINE
  5
544
100
AcDbEntity
  8
0
100
AcDbLine
 62
250
  6
CONTINUOUS
 10
88.2807876801
 20
84.4874664046
 11
88.832413155
 21
84.2215114852
  0
LINE
  5
545
100
AcDbEntity
  8
0
100
AcDbLine
 62
250
  6
CONTINUOUS
 10
83.0466988565
 20
89.2286550651
 11
83.260984558
 21
89.1215122032
  0
LINE
  5
546
100
AcDbEntity
  8
0
100
AcDbLine
 62
250
  6
CONTINUOUS
 10
84.1181274311
 20
89.7643693524
 11
83.9038417073
 21
89.8715122032
  0
LINE
  5
547
100
AcDbEntity
  8
0
100
AcDbLine
 62
250
  6
CONTINUOUS
 10
90.2430094298
 20
88.8458902032
 11
85.2334945194
 21
93.7825222032
  0
LINE
  5
548
100
AcDbEntity
  8
0
100
AcDbLine
 62
250
  6
CONTINUOUS
 10
84.2252702931
 20
94.1572265911
 11
84.332413155
 21
94.050083785
  0
LWPOLYLINE
  5
549
100
AcDbEntity
  8
RACCORDO
100
AcDbPolyline
 62
7
  6
CONTINUOUS
 90
9
 70
0
 10
82.479795294
 20
99.2962687838
 10
82.453072371
 20
99.3278037106
 10
82.4284995718
 20
99.3592463669
 10
82.4060768964
 20
99.3905965557
 10
82.3852221334
 20
99.4219175761
 10
82.3665174943
 20
99.4531455393
 10
82.3517096134
 20
99.4840903586
 10
82.3413807023
 20
99.5146895324
 10
82.3349485495
 20
99.5450071544
  0
LWPOLYLINE
  5
54A
100
AcDbEntity
  8
ASSI
100
AcDbPolyline
 62
7
  6
CONTINUOUS
 90
9
 70
0
 10
82.479795294
 20
99.2962687838
 10
82.453072371
 20
99.3278037106
 10
82.4284995718
 20
99.3592463669
 10
82.4060768964
 20
99.3905965557
 10
82.3852221334
 20
99.4219175761
 10
82.3665174943
 20
99.4531455393
 10
82.3517096134
 20
99.4840903586
 10
82.3413807023
 20
99.5146895324
 10
82.3349485495
 20
99.5450071544
  0
LWPOLYLINE
  5
54B
100
AcDbEntity
  8
RACCORDO
100
AcDbPolyline
 62
250
  6
CONTINUOUS
 90
7
 70
0
 10
99.0411393582
 20
95.5660098089
 10
99.0415503622
 20
95.5638235256
 10
99.0418924059
 20
95.5569807864
 10
99.0421531351
 20
95.5450591025
 10
99.0423201131
 20
95.5277156119
 10
99.0423815883
 20
95.5046258522
 10
99.0423251041
 20
95.4754234962
  0
LWPOLYLINE
  5
54C
100
AcDbEntity
  8
ASSI
100
AcDbPolyline
 62
250
  6
CONTINUOUS
 90
7
 70
0
 10
99.0411393582
 20
95.5660098089
 10
99.0415503622
 20
95.5638235256
 10
99.0418924059
 20
95.5569807864
 10
99.0421531351
 20
95.5450591025
 10
99.0423201131
 20
95.5277156119
 10
99.0423815883
 20
95.5046258522
 10
99.0423251041
 20
95.4754234962
  0
LWPOLYLINE
  5
54D
100
AcDbEntity
  8
RACCORDO
100
AcDbPolyline
 62
250
  6
CONTINUOUS
 90
10
 70
0
 10
99.5324131009
 20
95.0663186009
 10
99.525035671
 20
95.1129983954
 10
99.5030124468
 20
95.1606093768
 10
99.4669018334
 20
95.2064778147
 10
99.4176899743
 20
95.2473848079
 10
99.3571350233
 20
95.2817439118
 10
99.2875405936
 20
95.3100788274
 10
99.2107197939
 20
95.3319906999
 10
99.1281328232
 20
95.3455918938
 10
99.041332226
 20
95.3497460013
  0
LWPOLYLINE
  5
54E
100
AcDbEntity
  8
ASSI
100
AcDbPolyline
 62
250
  6
CONTINUOUS
 90
10
 70
0
 10
99.5324131009
 20
95.0663186009
 10
99.525035671
 20
95.1129983954
 10
99.5030124468
 20
95.1606093768
 10
99.4669018334
 20
95.2064778147
 10
99.4176899743
 20
95.2473848079
 10
99.3571350233
 20
95.2817439118
 10
99.2875405936
 20
95.3100788274
 10
99.2107197939
 20
95.3319906999
 10
99.1281328232
 20
95.3455918938
 10
99.041332226
 20
95.3497460013
  0
LINE
  5
54F
100
AcDbEntity
  8
RACCORDO
100
AcDbLine
 62
250
  6
CONTINUOUS
 10
104.5411393582
 20
71.0088636918
 11
104.5411393582
 21
85.4341607145
  0
LINE
  5
550
100
AcDbEntity
  8
ASSI
100
AcDbLine
 62
250
  6
CONTINUOUS
 10
104.5411393582
 20
71.0088636918
 11
104.5411393582
 21
85.4341607145
  0
LINE
  5
551
100
AcDbEntity
  8
RACCORDO
100
AcDbLine
 62
7
  6
CONTINUOUS
 10
105.032413155
 20
71.0088636918
 11
105.032413155
 21
85.4341607145
  0
LINE
  5
552
100
AcDbEntity
  8
ASSI
100
AcDbLine
 62
7
  6
CONTINUOUS
 10
105.032413155
 20
71.0088636918
 11
105.032413155
 21
85.4341607145
  0
LINE
  5
553
100
AcDbEntity
  8
0
100
AcDbLine
 62
7
  6
CONTINUOUS
 10
105.162413155
 20
84.3454382032
 11
105.162413155
 21
83.0954382032
  0
LINE
  5
554
100
AcDbEntity
  8
ASSI
100
AcDbLine
 62
7
  6
CONTINUOUS
 10
105.162413155
 20
84.3454382032
 11
105.162413155
 21
83.0954382032
  0
LINE
  5
555
100
AcDbEntity
  8
0
100
AcDbLine
 62
7
  6
CONTINUOUS
 10
105.162413155
 20
76.8436903171
 11
105.162413155
 21
75.5572449627
  0
LINE
  5
556
100
AcDbEntity
  8
ASSI
100
AcDbLine
 62
7
  6
CONTINUOUS
 10
105.162413155
 20
76.8436903171
 11
105.162413155
 21
75.5572449627
  0
LINE
  5
557
100
AcDbEntity
  8
0
100
AcDbLine
 62
7
  6
CONTINUOUS
 10
105.162413155
 20
75.532460577
 11
105.162413155
 21
74.7558457126
  0
LINE
  5
558
100
AcDbEntity
  8
ASSI
100
AcDbLine
 62
7
  6
CONTINUOUS
 10
105.162413155
 20
75.532460577
 11
105.162413155
 21
74.7558457126
  0
LINE
  5
559
100
AcDbEntity
  8
ASSI
100
AcDbLine
 62
7
  6
CONTINUOUS
 10
105.162413155
 20
73.8465572032
 11
105.162413155
 21
71.5964612032
  0
LWPOLYLINE
  5
55A
100
AcDbEntity
  8
RACCORDO
100
AcDbPolyline
 62
250
  6
CONTINUOUS
 90
10
 70
0
 10
104.5411393582
 20
85.4341607145
 10
104.5425213759
 20
85.5209549217
 10
104.5435963793
 20
85.6051129509
 10
104.5443317174
 20
85.684078692
 10
104.5447050562
 20
85.755453739
 10
104.5447050562
 20
85.8170702359
 10
104.5443317174
 20
85.8670567209
 10
104.5435963793
 20
85.9038949674
 10
104.5425213759
 20
85.9264660968
 10
104.5411393582
 20
85.9340845621
  0
LWPOLYLINE
  5
55B
100
AcDbEntity
  8
ASSI
100
AcDbPolyline
 62
250
  6
CONTINUOUS
 90
10
 70
0
 10
104.5411393582
 20
85.4341607145
 10
104.5425213759
 20
85.5209549217
 10
104.5435963793
 20
85.6051129509
 10
104.5443317174
 20
85.684078692
 10
104.5447050562
 20
85.755453739
 10
104.5447050562
 20
85.8170702359
 10
104.5443317174
 20
85.8670567209
 10
104.5435963793
 20
85.9038949674
 10
104.5425213759
 20
85.9264660968
 10
104.5411393582
 20
85.9340845621
  0
LWPOLYLINE
  5
55C
100
AcDbEntity
  8
RACCORDO
100
AcDbPolyline
 62
250
  6
CONTINUOUS
 90
10
 70
0
 10
104.5411393582
 20
70.5089398443
 10
104.5424793049
 20
70.5160521843
 10
104.5435443075
 20
70.5374614776
 10
104.5442929212
 20
70.5730259317
 10
104.5446921267
 20
70.6223479902
 10
104.5447139904
 20
70.6842328787
 10
104.5443511329
 20
70.7562870515
 10
104.5436179049
 20
70.835964656
 10
104.5425361899
 20
70.9210374203
 10
104.5411393582
 20
71.0088636918
  0
LWPOLYLINE
  5
55D
100
AcDbEntity
  8
ASSI
100
AcDbPolyline
 62
250
  6
CONTINUOUS
 90
10
 70
0
 10
104.5411393582
 20
70.5089398443
 10
104.5424793049
 20
70.5160521843
 10
104.5435443075
 20
70.5374614776
 10
104.5442929212
 20
70.5730259317
 10
104.5446921267
 20
70.6223479902
 10
104.5447139904
 20
70.6842328787
 10
104.5443511329
 20
70.7562870515
 10
104.5436179049
 20
70.835964656
 10
104.5425361899
 20
70.9210374203
 10
104.5411393582
 20
71.0088636918
  0
LINE
  5
55E
100
AcDbEntity
  8
0
100
AcDbLine
 62
250
  6
CONTINUOUS
 10
96.9038417043
 20
66.2143693017
 11
97.460984567
 21
66.8643693017
  0
LINE
  5
55F
100
AcDbEntity
  8
RACCORDO
100
AcDbLine
 62
250
  6
CONTINUOUS
 10
87.004963174
 20
57.9281768259
 11
86.3033426282
 21
57.2137951603
  0
LINE
  5
560
100
AcDbEntity
  8
ASSI
100
AcDbLine
 62
250
  6
CONTINUOUS
 10
87.004963174
 20
57.9281768259
 11
86.3033426282
 21
57.2137951603
  0
LINE
  5
561
100
AcDbEntity
  8
RACCORDO
100
AcDbLine
 62
250
  6
CONTINUOUS
 10
87.7433068853
 20
58.6795253191
 11
87.004963174
 21
57.9281768259
  0
LINE
  5
562
100
AcDbEntity
  8
ASSI
100
AcDbLine
 62
250
  6
CONTINUOUS
 10
87.7433068853
 20
58.6795253191
 11
87.004963174
 21
57.9281768259
  0
LINE
  5
563
100
AcDbEntity
  8
RACCORDO
100
AcDbLine
 62
7
  6
CONTINUOUS
 10
88.0859665456
 20
58.6750655938
 11
85.9763426533
 21
56.5654417015
  0
LINE
  5
564
100
AcDbEntity
  8
ASSI
100
AcDbLine
 62
7
  6
CONTINUOUS
 10
88.0859665456
 20
58.6750655938
 11
85.9763426533
 21
56.5654417015
  0
LINE
  5
565
100
AcDbEntity
  8
0
100
AcDbLine
 62
250
  6
CONTINUOUS
 10
94.7181274297
 20
65.1000834989
 11
94.532413155
 21
64.9143693017
  0
LINE
  5
566
100
AcDbEntity
  8
0
100
AcDbLine
 62
250
  6
CONTINUOUS
 10
96.6252703311
 20
66.8643693017
 11
96.532413155
 21
66.7715122032
  0
LINE
  5
567
100
AcDbEntity
  8
0
100
AcDbLine
 62
250
  6
CONTINUOUS
 10
97.832413155
 20
66.3072264003
 11
97.739556008
 21
66.2143693017
  0
LINE
  5
568
100
AcDbEntity
  8
RACCORDO
100
AcDbLine
 62
250
  6
CONTINUOUS
 10
87.7769653125
 20
58.7121318098
 11
87.7433068853
 21
58.6795253191
  0
LINE
  5
569
100
AcDbEntity
  8
ASSI
100
AcDbLine
 62
250
  6
CONTINUOUS
 10
87.7769653125
 20
58.7121318098
 11
87.7433068853
 21
58.6795253191
  0
LWPOLYLINE
  5
56A
100
AcDbEntity
  8
RACCORDO
100
AcDbPolyline
 62
250
  6
CONTINUOUS
 90
13
 70
0
 10
77.5861244463
 20
55.8606235371
 10
77.5868967331
 20
55.8611056223
 10
77.5876400905
 20
55.8627027193
 10
77.5883557993
 20
55.8655176776
 10
77.5890496714
 20
55.8696478089
 10
77.5897160965
 20
55.8751973266
 10
77.5903384502
 20
55.8822897183
 10
77.5909135747
 20
55.89103266
 10
77.5914398823
 20
55.9015306895
 10
77.5919021117
 20
55.9139216502
 10
77.5922911619
 20
55.9283244954
 10
77.5926035814
 20
55.9448218632
 10
77.5928304271
 20
55.9634959969
  0
LINE
  5
56B
100
AcDbEntity
  8
0
100
AcDbLine
 62
250
  6
CONTINUOUS
 10
95.832413155
 20
69.0619883346
 11
94.532413155
 21
68.4119883346
  0
LINE
  5
56C
100
AcDbEntity
  8
DRAFT
100
AcDbLine
 62
7
  6
CONTINUOUS
 10
74.873321996
 20
80.1835572616
 11
74.6122661275
 21
80.1375260685
  0
LINE
  5
56D
100
AcDbEntity
  8
RACCORDO
100
AcDbLine
 62
250
  6
CONTINUOUS
 10
75.2168971679
 20
82.9817524858
 11
74.8605595251
 21
82.9755325891
  0
LINE
  5
56E
100
AcDbEntity
  8
RACCORDO
100
AcDbLine
 62
7
  6
CONTINUOUS
 10
75.2476545526
 20
83.2322512817
 11
74.8824618072
 21
83.2258768186
  0
LINE
  5
56F
100
AcDbEntity
  8
0
100
AcDbLine
 62
7
  6
CONTINUOUS
 10
105.032413155
 20
83.0954382032
 11
105.162413155
 21
83.0954382032
  0
LINE
  5
570
100
AcDbEntity
  8
ASSI
100
AcDbLine
 62
7
  6
CONTINUOUS
 10
105.032413155
 20
83.0954382032
 11
105.162413155
 21
83.0954382032
  0
LINE
  5
571
100
AcDbEntity
  8
0
100
AcDbLine
 62
250
  6
CONTINUOUS
 10
105.032413155
 20
83.7204383967
 11
105.162413155
 21
83.7204383967
  0
LINE
  5
572
100
AcDbEntity
  8
ASSI
100
AcDbLine
 62
250
  6
CONTINUOUS
 10
105.032413155
 20
83.7204383967
 11
105.162413155
 21
83.7204383967
  0
LINE
  5
573
100
AcDbEntity
  8
0
100
AcDbLine
 62
250
  6
CONTINUOUS
 10
81.832413155
 20
84.1215122032
 11
80.032950414
 21
84.1215122032
  0
LINE
  5
574
100
AcDbEntity
  8
0
100
AcDbLine
 62
7
  6
CONTINUOUS
 10
105.032413155
 20
84.3454382032
 11
105.162413155
 21
84.3454382032
  0
LINE
  5
575
100
AcDbEntity
  8
ASSI
100
AcDbLine
 62
7
  6
CONTINUOUS
 10
105.032413155
 20
84.3454382032
 11
105.162413155
 21
84.3454382032
  0
LINE
  5
576
100
AcDbEntity
  8
0
100
AcDbLine
 62
250
  6
CONTINUOUS
 10
81.4921928131
 20
85.3290952032
 11
80.032950414
 21
85.3290952032
  0
LINE
  5
577
100
AcDbEntity
  8
RACCORDO
100
AcDbLine
 62
250
  6
CONTINUOUS
 10
105.032413155
 20
85.4341607145
 11
104.5411393582
 21
85.4341607145
  0
LINE
  5
578
100
AcDbEntity
  8
ASSI
100
AcDbLine
 62
250
  6
CONTINUOUS
 10
105.032413155
 20
85.4341607145
 11
104.5411393582
 21
85.4341607145
  0
LINE
  5
579
100
AcDbEntity
  8
0
100
AcDbLine
 62
250
  6
CONTINUOUS
 10
80.032950414
 20
85.5559952032
 11
81.832413155
 21
85.5559952032
  0
LINE
  5
57A
100
AcDbEntity
  8
0
100
AcDbLine
 62
250
  6
CONTINUOUS
 10
80.3883191406
 20
84.3534622032
 11
81.832413155
 21
84.3483942032
  0
LINE
  5
57B
100
AcDbEntity
  8
RACCORDO
100
AcDbLine
 62
250
  6
CONTINUOUS
 10
99.0411393582
 20
85.5301635716
 11
104.5411393582
 21
85.4341607145
  0
LINE
  5
57C
100
AcDbEntity
  8
ASSI
100
AcDbLine
 62
250
  6
CONTINUOUS
 10
99.0411393582
 20
85.5301635716
 11
104.5411393582
 21
85.4341607145
  0
LINE
  5
57D
100
AcDbEntity
  8
RACCORDO
100
AcDbLine
 62
7
  6
CONTINUOUS
 10
99.532413155
 20
86.0215122032
 11
104.5411393582
 21
85.9340845621
  0
LINE
  5
57E
100
AcDbEntity
  8
ASSI
100
AcDbLine
 62
7
  6
CONTINUOUS
 10
99.532413155
 20
86.0215122032
 11
104.5411393582
 21
85.9340845621
  0
LINE
  5
57F
100
AcDbEntity
  8
0
100
AcDbLine
 62
250
  6
CONTINUOUS
 10
83.0466988565
 20
91.5857979941
 11
83.260984558
 21
91.4786550092
  0
LINE
  5
580
100
AcDbEntity
  8
0
100
AcDbLine
 62
250
  6
CONTINUOUS
 10
84.1181274311
 20
92.1215122032
 11
83.9038417073
 21
92.2286550092
  0
LWPOLYLINE
  5
581
100
AcDbEntity
  8
RACCORDO
100
AcDbPolyline
 62
250
  6
CONTINUOUS
 90
18
 70
0
 10
89.6434696442
 20
95.828518197
 10
89.6749295837
 20
95.7980795866
 10
89.7067638104
 20
95.7695061387
 10
89.7389723242
 20
95.7428038963
 10
89.7714487741
 20
95.718124959
 10
89.8042995111
 20
95.6953282591
 10
89.8378435884
 20
95.6739783846
 10
89.8720215917
 20
95.6539923259
 10
89.9068929352
 20
95.6354595502
 10
89.9429549154
 20
95.6182015898
 10
89.9802297295
 20
95.6021008886
 10
90.0186951801
 20
95.5872794749
 10
90.0587819716
 20
95.5739179236
 10
90.1006242435
 20
95.5622238024
 10
90.1440878563
 20
95.551993533
 10
90.1892010949
 20
95.5427904401
 10
90.2359733877
 20
95.5344693689
 10
90.2843953063
 20
95.5271771721
  0
LWPOLYLINE
  5
582
100
AcDbEntity
  8
ASSI
100
AcDbPolyline
 62
250
  6
CONTINUOUS
 90
18
 70
0
 10
89.6434696442
 20
95.828518197
 10
89.6749295837
 20
95.7980795866
 10
89.7067638104
 20
95.7695061387
 10
89.7389723242
 20
95.7428038963
 10
89.7714487741
 20
95.718124959
 10
89.8042995111
 20
95.6953282591
 10
89.8378435884
 20
95.6739783846
 10
89.8720215917
 20
95.6539923259
 10
89.9068929352
 20
95.6354595502
 10
89.9429549154
 20
95.6182015898
 10
89.9802297295
 20
95.6021008886
 10
90.0186951801
 20
95.5872794749
 10
90.0587819716
 20
95.5739179236
 10
90.1006242435
 20
95.5622238024
 10
90.1440878563
 20
95.551993533
 10
90.1892010949
 20
95.5427904401
 10
90.2359733877
 20
95.5344693689
 10
90.2843953063
 20
95.5271771721
  0
LINE
  5
583
100
AcDbEntity
  8
RACCORDO
100
AcDbLine
 62
7
  6
CONTINUOUS
 10
85.9763426533
 20
99.8775827048
 11
89.989568313
 21
95.8643570452
  0
LINE
  5
584
100
AcDbEntity
  8
ASSI
100
AcDbLine
 62
7
  6
CONTINUOUS
 10
85.9763426533
 20
99.8775827048
 11
89.989568313
 21
95.8643570452
  0
LWPOLYLINE
  5
585
100
AcDbEntity
  8
RACCORDO
100
AcDbPolyline
 62
250
  6
CONTINUOUS
 90
3
 70
0
 10
86.9884129475
 20
98.5318073272
 10
87.3432880231
 20
98.1704379159
 10
87.7064823213
 20
97.800675052
  0
LWPOLYLINE
  5
586
100
AcDbEntity
  8
ASSI
100
AcDbPolyline
 62
250
  6
CONTINUOUS
 90
3
 70
0
 10
86.9884129475
 20
98.5318073272
 10
87.3432880231
 20
98.1704379159
 10
87.7064823213
 20
97.800675052
  0
LINE
  5
587
100
AcDbEntity
  8
RACCORDO
100
AcDbLine
 62
250
  6
CONTINUOUS
 10
86.3033846824
 20
99.2292285057
 11
86.9884129475
 21
98.5318073272
  0
LINE
  5
588
100
AcDbEntity
  8
ASSI
100
AcDbLine
 62
250
  6
CONTINUOUS
 10
86.3033846824
 20
99.2292285057
 11
86.9884129475
 21
98.5318073272
  0
LWPOLYLINE
  5
589
100
AcDbEntity
  8
RACCORDO
100
AcDbPolyline
 62
250
  6
CONTINUOUS
 90
4
 70
0
 10
87.7064823213
 20
97.800675052
 10
88.457357022
 20
97.0362482111
 10
88.844723049
 20
96.6417531403
 10
89.6434696442
 20
95.828518197
  0
LWPOLYLINE
  5
58A
100
AcDbEntity
  8
ASSI
100
AcDbPolyline
 62
250
  6
CONTINUOUS
 90
4
 70
0
 10
87.7064823213
 20
97.800675052
 10
88.457357022
 20
97.0362482111
 10
88.844723049
 20
96.6417531403
 10
89.6434696442
 20
95.828518197
  0
LINE
  5
58B
100
AcDbEntity
  8
0
100
AcDbLine
 62
250
  6
CONTINUOUS
 10
97.832413155
 20
63.5215122032
 11
97.646698861
 21
63.3357979285
  0
LINE
  5
58C
100
AcDbEntity
  8
RACCORDO
100
AcDbLine
 62
250
  6
CONTINUOUS
 10
86.6214020142
 20
57.2147642192
 11
86.6480951362
 21
57.2371941843
  0
LINE
  5
58D
100
AcDbEntity
  8
ASSI
100
AcDbLine
 62
250
  6
CONTINUOUS
 10
86.6214020142
 20
57.2147642192
 11
86.6480951362
 21
57.2371941843
  0
LWPOLYLINE
  5
58E
100
AcDbEntity
  8
RACCORDO
100
AcDbPolyline
 62
250
  6
CONTINUOUS
 90
10
 70
0
 10
88.0859665456
 20
58.6750655938
 10
88.0607580491
 20
58.6545464895
 10
88.0311943576
 20
58.638988791
 10
87.9976674761
 20
58.6285987541
 10
87.9606218925
 20
58.6235140884
 10
87.9205489246
 20
58.6238021698
 10
87.8779802653
 20
58.6294590282
 10
87.8334805602
 20
58.6404094045
 10
87.7876398573
 20
58.6565078693
 10
87.7410660645
 20
58.6775407116
  0
LWPOLYLINE
  5
58F
100
AcDbEntity
  8
ASSI
100
AcDbPolyline
 62
250
  6
CONTINUOUS
 90
10
 70
0
 10
88.0859665456
 20
58.6750655938
 10
88.0607580491
 20
58.6545464895
 10
88.0311943576
 20
58.638988791
 10
87.9976674761
 20
58.6285987541
 10
87.9606218925
 20
58.6235140884
 10
87.9205489246
 20
58.6238021698
 10
87.8779802653
 20
58.6294590282
 10
87.8334805602
 20
58.6404094045
 10
87.7876398573
 20
58.6565078693
 10
87.7410660645
 20
58.6775407116
  0
LINE
  5
590
100
AcDbEntity
  8
0
100
AcDbLine
 62
250
  6
CONTINUOUS
 10
97.832413155
 20
65.0072264003
 11
96.532413155
 21
64.3572265553
  0
LINE
  5
591
100
AcDbEntity
  8
CURVE
100
AcDbLine
 62
250
  6
CONTINUOUS
 10
88.314535004
 20
66.1143693971
 11
86.8149918837
 21
65.6857979941
  0
LINE
  5
592
100
AcDbEntity
  8
0
100
AcDbLine
 62
250
  6
CONTINUOUS
 10
97.832413155
 20
68.8143696117
 11
96.532413155
 21
68.4429405975
  0
LINE
  5
593
100
AcDbEntity
  8
0
100
AcDbLine
 62
250
  6
CONTINUOUS
 10
81.832413155
 20
86.0576232032
 11
80.032950414
 21
86.0576232032
  0
LINE
  5
594
100
AcDbEntity
  8
0
100
AcDbLine
 62
250
  6
CONTINUOUS
 10
82.8324131565
 20
86.2215122024
 11
83.8324124385
 21
86.2215122024
  0
LINE
  5
595
100
AcDbEntity
  8
0
100
AcDbLine
 62
250
  6
CONTINUOUS
 10
87.8324127964
 20
86.2215122024
 11
88.832413155
 21
86.2215122024
  0
LINE
  5
596
100
AcDbEntity
  8
0
100
AcDbLine
 62
250
  6
CONTINUOUS
 10
80.234568985
 20
86.2971332032
 11
80.8066696778
 21
86.2971332032
  0
LINE
  5
597
100
AcDbEntity
  8
0
100
AcDbLine
 62
250
  6
CONTINUOUS
 10
81.0083042439
 20
86.2971332032
 11
81.6307955837
 21
86.2971332032
  0
LINE
  5
598
100
AcDbEntity
  8
0
100
AcDbLine
 62
250
  6
CONTINUOUS
 10
80.8066696778
 20
87.2324262032
 11
81.0083042439
 21
87.2324262032
  0
LINE
  5
599
100
AcDbEntity
  8
0
100
AcDbLine
 62
250
  6
CONTINUOUS
 10
80.032950414
 20
87.3004942032
 11
80.234568985
 21
87.3004942032
  0
LINE
  5
59A
100
AcDbEntity
  8
0
100
AcDbLine
 62
250
  6
CONTINUOUS
 10
81.6307955837
 20
87.3080542032
 11
81.832413155
 21
87.3080542032
  0
LINE
  5
59B
100
AcDbEntity
  8
0
100
AcDbLine
 62
250
  6
CONTINUOUS
 10
93.328950155
 20
88.2229542032
 11
98.328990155
 21
88.2229542032
  0
LINE
  5
59C
100
AcDbEntity
  8
0
100
AcDbLine
 62
250
  6
CONTINUOUS
 10
97.773296155
 20
88.7783032032
 11
96.106731155
 21
88.7783032032
  0
LINE
  5
59D
100
AcDbEntity
  8
0
100
AcDbLine
 62
250
  6
CONTINUOUS
 10
95.551037155
 20
88.7783032032
 11
93.884472155
 21
88.7783032032
  0
LINE
  5
59E
100
AcDbEntity
  8
0
100
AcDbLine
 62
250
  6
CONTINUOUS
 10
83.260984558
 20
89.1215122032
 11
83.9038417073
 21
89.1215122032
  0
LINE
  5
59F
100
AcDbEntity
  8
0
100
AcDbLine
 62
250
  6
CONTINUOUS
 10
92.332413155
 20
89.1291502032
 11
91.3135563555
 21
89.1291502032
  0
LINE
  5
5A0
100
AcDbEntity
  8
0
100
AcDbLine
 62
250
  6
CONTINUOUS
 10
98.328990155
 20
89.3339972032
 11
97.773296155
 21
89.3339972032
  0
LINE
  5
5A1
100
AcDbEntity
  8
0
100
AcDbLine
 62
250
  6
CONTINUOUS
 10
96.106731155
 20
89.3339972032
 11
95.551037155
 21
89.3339972032
  0
LINE
  5
5A2
100
AcDbEntity
  8
0
100
AcDbLine
 62
250
  6
CONTINUOUS
 10
93.884472155
 20
89.3339972032
 11
93.328950155
 21
89.3339972032
  0
LINE
  5
5A3
100
AcDbEntity
  8
0
100
AcDbLine
 62
250
  6
CONTINUOUS
 10
81.832413155
 20
89.3651672032
 11
80.032950414
 21
89.3651672032
  0
LINE
  5
5A4
100
AcDbEntity
  8
0
100
AcDbLine
 62
250
  6
CONTINUOUS
 10
80.234568985
 20
89.6046602032
 11
80.8066696778
 21
89.6046602032
  0
LINE
  5
5A5
100
AcDbEntity
  8
0
100
AcDbLine
 62
250
  6
CONTINUOUS
 10
81.0083042439
 20
89.6046602032
 11
81.6307955837
 21
89.6046602032
  0
LINE
  5
5A6
100
AcDbEntity
  8
RACCORDO
100
AcDbLine
 62
250
  6
CONTINUOUS
 10
99.532413155
 20
89.6215122032
 11
101.532413155
 21
89.6215122032
  0
LINE
  5
5A7
100
AcDbEntity
  8
ASSI
100
AcDbLine
 62
250
  6
CONTINUOUS
 10
99.532413155
 20
89.6215122032
 11
101.532413155
 21
89.6215122032
  0
LINE
  5
5A8
100
AcDbEntity
  8
0
100
AcDbLine
 62
250
  6
CONTINUOUS
 10
83.4752702596
 20
91.0500836062
 11
83.9038417073
 21
90.9429408001
  0
LWPOLYLINE
  5
5A9
100
AcDbEntity
  8
RACCORDO
100
AcDbPolyline
 62
250
  6
CONTINUOUS
 90
9
 70
0
 10
86.6480951407
 20
99.2058302175
 10
86.6223035865
 20
99.2273558521
 10
86.591860126
 20
99.2449544614
 10
86.5574288979
 20
99.2580451421
 10
86.5201411645
 20
99.265878018
 10
86.4804743537
 20
99.2684057936
 10
86.4381628502
 20
99.2661387694
 10
86.3937072271
 20
99.2590523244
 10
86.3484226771
 20
99.2467511451
  0
LWPOLYLINE
  5
5AA
100
AcDbEntity
  8
ASSI
100
AcDbPolyline
 62
250
  6
CONTINUOUS
 90
9
 70
0
 10
86.6480951407
 20
99.2058302175
 10
86.6223035865
 20
99.2273558521
 10
86.591860126
 20
99.2449544614
 10
86.5574288979
 20
99.2580451421
 10
86.5201411645
 20
99.265878018
 10
86.4804743537
 20
99.2684057936
 10
86.4381628502
 20
99.2661387694
 10
86.3937072271
 20
99.2590523244
 10
86.3484226771
 20
99.2467511451
  0
LINE
  5
5AB
100
AcDbEntity
  8
0
100
AcDbLine
 62
250
  6
CONTINUOUS
 10
95.2752702923
 20
62.5929407912
 11
94.532413155
 21
62.2215122032
  0
LWPOLYLINE
  5
5AC
100
AcDbEntity
  8
RACCORDO
100
AcDbPolyline
 62
250
  6
CONTINUOUS
 90
10
 70
0
 10
88.1275002046
 20
58.9219836213
 10
88.0861671958
 20
58.9066970202
 10
88.0451215075
 20
58.8893534801
 10
88.0043241268
 20
58.8699812438
 10
87.9641794989
 20
58.8485604915
 10
87.924619533
 20
58.8250082834
 10
87.8857123199
 20
58.7994208193
 10
87.8480665769
 20
58.772047238
 10
87.8118852097
 20
58.7429752027
 10
87.7769653125
 20
58.7121318098
  0
LWPOLYLINE
  5
5AD
100
AcDbEntity
  8
ASSI
100
AcDbPolyline
 62
250
  6
CONTINUOUS
 90
10
 70
0
 10
88.1275002046
 20
58.9219836213
 10
88.0861671958
 20
58.9066970202
 10
88.0451215075
 20
58.8893534801
 10
88.0043241268
 20
58.8699812438
 10
87.9641794989
 20
58.8485604915
 10
87.924619533
 20
58.8250082834
 10
87.8857123199
 20
58.7994208193
 10
87.8480665769
 20
58.772047238
 10
87.8118852097
 20
58.7429752027
 10
87.7769653125
 20
58.7121318098
  0
LINE
  5
5AE
100
AcDbEntity
  8
0
100
AcDbLine
 62
250
  6
CONTINUOUS
 10
95.832413155
 20
64.0786551046
 11
94.532413155
 21
63.7072265553
  0
LWPOLYLINE
  5
5AF
100
AcDbEntity
  8
0
100
AcDbPolyline
 62
250
  6
CONTINUOUS
 90
17
 70
0
 10
89.3822345499
 20
91.7686202032
 10
89.4439124308
 20
91.7746686935
 10
89.5032410202
 20
91.7925837793
 10
89.5579605109
 20
91.8216830805
 10
89.6067718035
 20
91.8616407463
 10
89.6461083741
 20
91.909537166
 10
89.6753940728
 20
91.9641630831
 10
89.6935134163
 20
92.0234378131
 10
89.6997781791
 20
92.0862122032
 10
89.6937306101
 20
92.1478994792
 10
89.6758182528
 20
92.2072371061
 10
89.6467233836
 20
92.2619649321
 10
89.6067718035
 20
92.31078366
 10
89.5588826786
 20
92.3501262227
 10
89.5042650814
 20
92.3794163824
 10
89.4449993792
 20
92.3975384861
 10
89.3822345222
 20
92.4038042032
  0
LWPOLYLINE
  5
5B0
100
AcDbEntity
  8
0
100
AcDbPolyline
 62
250
  6
CONTINUOUS
 90
17
 70
0
 10
89.3822345499
 20
91.9457022032
 10
89.409522262
 20
91.9483781943
 10
89.4357705935
 20
91.95630424
 10
89.4599797538
 20
91.9691784396
 10
89.4815749914
 20
91.9868566293
 10
89.4989783944
 20
92.0080471062
 10
89.5119350605
 20
92.0322148674
 10
89.5199514745
 20
92.0584393703
 10
89.5227231496
 20
92.0862122032
 10
89.520047566
 20
92.1135040719
 10
89.5121227275
 20
92.1397564017
 10
89.4992504887
 20
92.1639692498
 10
89.4815749914
 20
92.185567777
 10
89.460387742
 20
92.2029738309
 10
89.4362236617
 20
92.2159324708
 10
89.4100031529
 20
92.2239501059
 10
89.3822345377
 20
92.2267222032
  0
LWPOLYLINE
  5
5B1
100
AcDbEntity
  8
0
100
AcDbPolyline
 62
250
  6
CONTINUOUS
 90
17
 70
0
 10
89.3822345499
 20
92.2267222032
 10
89.3549468379
 20
92.224046212
 10
89.3286985064
 20
92.2161201663
 10
89.3044893461
 20
92.2032459667
 10
89.2828941085
 20
92.185567777
 10
89.2654907055
 20
92.1643773001
 10
89.2525340394
 20
92.140209539
 10
89.2445176254
 20
92.1139850361
 10
89.2417459503
 20
92.0862122032
 10
89.2444215339
 20
92.0589203345
 10
89.2523463724
 20
92.0326680046
 10
89.2652186112
 20
92.0084551566
 10
89.2828941085
 20
91.9868566293
 10
89.3040813579
 20
91.9694505754
 10
89.3282454382
 20
91.9564919356
 10
89.354465947
 20
91.9484743004
 10
89.3822345622
 20
91.9457022032
  0
LWPOLYLINE
  5
5B2
100
AcDbEntity
  8
0
100
AcDbPolyline
 62
250
  6
CONTINUOUS
 90
17
 70
0
 10
89.3822345499
 20
92.4038042032
 10
89.3205566691
 20
92.3977557129
 10
89.2612280797
 20
92.3798406271
 10
89.206508589
 20
92.3507413258
 10
89.1576972964
 20
92.31078366
 10
89.1183607258
 20
92.2628872403
 10
89.0890750271
 20
92.2082613233
 10
89.0709556836
 20
92.1489865932
 10
89.0646909207
 20
92.0862122032
 10
89.0707384898
 20
92.0245249271
 10
89.0886508471
 20
91.9651873002
 10
89.1177457163
 20
91.9104594743
 10
89.1576972964
 20
91.8616407463
 10
89.2055864213
 20
91.8222981836
 10
89.2602040185
 20
91.7930080239
 10
89.3194697207
 20
91.7748859203
 10
89.3822345777
 20
91.7686202032
  0
LINE
  5
5B3
100
AcDbEntity
  8
0
100
AcDbLine
 62
250
  6
CONTINUOUS
 10
86.1416511817
 20
90.1526362032
 11
89.5033600991
 21
90.4466862032
  0
LWPOLYLINE
  5
5B4
100
AcDbEntity
  8
0
100
AcDbPolyline
 62
250
  6
CONTINUOUS
 90
95
 70
0
 10
81.1119408726
 20
91.2321351891
 10
81.1361884942
 20
91.2323032818
 10
81.1606453463
 20
91.2328253159
 10
81.1852709749
 20
91.2337279253
 10
81.2100249257
 20
91.2350377438
 10
81.2348667448
 20
91.2367814054
 10
81.2597559782
 20
91.2389855438
 10
81.2846521716
 20
91.241676793
 10
81.3095148712
 20
91.2448817869
 10
81.3343036227
 20
91.2486271593
 10
81.3589779721
 20
91.2529395441
 10
81.3834974654
 20
91.2578455753
 10
81.4078216485
 20
91.2633718866
 10
81.4319100673
 20
91.269545112
 10
81.4557222678
 20
91.2763918854
 10
81.4792177958
 20
91.2839388405
 10
81.5023561973
 20
91.2922126114
 10
81.5250970183
 20
91.3012398318
 10
81.5473998046
 20
91.3110471358
 10
81.5692241023
 20
91.321661157
 10
81.5905294571
 20
91.3331085295
 10
81.6112754152
 20
91.3454158871
 10
81.6314215223
 20
91.3586098637
 10
81.6509273244
 20
91.3727170932
 10
81.6697523675
 20
91.3877642094
 10
81.6879947427
 20
91.4038890469
 10
81.7054840027
 20
91.4209345698
 10
81.7221992822
 20
91.438840152
 10
81.7381197161
 20
91.4575451675
 10
81.7532244393
 20
91.4769889899
 10
81.7674925866
 20
91.4971109932
 10
81.7809032927
 20
91.5178505511
 10
81.7934356927
 20
91.5391470376
 10
81.8050689212
 20
91.5609398265
 10
81.8157821132
 20
91.5831682916
 10
81.8255544034
 20
91.6057718067
 10
81.8343649268
 20
91.6286897457
 10
81.8429161039
 20
91.6541359563
 10
81.8503457581
 20
91.6798591127
 10
81.8567155217
 20
91.705830571
 10
81.8620870271
 20
91.7320216875
 10
81.8665219067
 20
91.7584038183
 10
81.8700817928
 20
91.7849483195
 10
81.8728283177
 20
91.8116265475
 10
81.8748231139
 20
91.8384098583
 10
81.8761278136
 20
91.8652696081
 10
81.8768040492
 20
91.8921771532
 10
81.8769134532
 20
91.9191038496
 10
81.8764977886
 20
91.9460288145
 10
81.8755201244
 20
91.9729192835
 10
81.8739239288
 20
91.999750258
 10
81.8716526699
 20
92.0264967397
 10
81.868649816
 20
92.05313373
 10
81.8648588354
 20
92.0796362305
 10
81.8602231962
 20
92.1059792428
 10
81.8546863667
 20
92.1321377682
 10
81.8481918152
 20
92.1580868084
 10
81.8406830099
 20
92.1838013649
 10
81.8321034189
 20
92.2092564393
 10
81.8233186163
 20
92.2321887242
 10
81.8136139904
 20
92.254823851
 10
81.8030050345
 20
92.2771006906
 10
81.7915072422
 20
92.2989581137
 10
81.7791361067
 20
92.3203349912
 10
81.7659071214
 20
92.3411701939
 10
81.7518357797
 20
92.3614025926
 10
81.736937575
 20
92.3809710582
 10
81.7212280006
 20
92.3998144615
 10
81.7047225499
 20
92.4178716732
 10
81.6874367164
 20
92.4350815643
 10
81.6693859933
 20
92.4513830055
 10
81.6507055443
 20
92.466639863
 10
81.6313260961
 20
92.4809639771
 10
81.6112890565
 20
92.4943805531
 10
81.5906358334
 20
92.5069147963
 10
81.5694078345
 20
92.518591912
 10
81.5476464677
 20
92.5294371058
 10
81.5253931408
 20
92.5394755828
 10
81.5026892616
 20
92.5487325484
 10
81.4795762381
 20
92.557233208
 10
81.4560954778
 20
92.565002767
 10
81.4322883889
 20
92.5720664306
 10
81.4081963789
 20
92.5784494042
 10
81.3838608558
 20
92.5841768933
 10
81.3593232274
 20
92.589274103
 10
81.3346249015
 20
92.5937662388
 10
81.3098072859
 20
92.5976785061
 10
81.2849117885
 20
92.6010361101
 10
81.2599798171
 20
92.6038642562
 10
81.2350527795
 20
92.6061881498
 10
81.2101720836
 20
92.6080329962
 10
81.1853791371
 20
92.6094240007
 10
81.1607153479
 20
92.6103863688
 10
81.1362221238
 20
92.6109453057
 10
81.1119408726
 20
92.6111260168
  0
LINE
  5
5B5
100
AcDbEntity
  8
0
100
AcDbLine
 62
250
  6
CONTINUOUS
 10
83.9038417073
 20
89.8715122032
 11
83.260984558
 21
89.8715122032
  0
LINE
  5
5B6
100
AcDbEntity
  8
0
100
AcDbLine
 62
250
  6
CONTINUOUS
 10
98.328990155
 20
89.8893462032
 11
93.328950155
 21
89.8893462032
  0
LINE
  5
5B7
100
AcDbEntity
  8
0
100
AcDbLine
 62
250
  6
CONTINUOUS
 10
83.4752702596
 20
90.3000836062
 11
83.0466988565
 21
90.3000836062
  0
LINE
  5
5B8
100
AcDbEntity
  8
0
100
AcDbLine
 62
250
  6
CONTINUOUS
 10
86.1416511817
 20
90.4397282032
 11
85.7470932839
 21
90.4397282032
  0
LINE
  5
5B9
100
AcDbEntity
  8
0
100
AcDbLine
 62
250
  6
CONTINUOUS
 10
95.551037155
 20
90.4450402032
 11
93.884472155
 21
90.4450402032
  0
LINE
  5
5BA
100
AcDbEntity
  8
0
100
AcDbLine
 62
250
  6
CONTINUOUS
 10
96.106731155
 20
90.4450402032
 11
98.328990155
 21
90.4450402032
  0
LINE
  5
5BB
100
AcDbEntity
  8
0
100
AcDbLine
 62
250
  6
CONTINUOUS
 10
89.6997781791
 20
90.5033952032
 11
89.5033600991
 21
90.5033952032
  0
LINE
  5
5BC
100
AcDbEntity
  8
0
100
AcDbLine
 62
250
  6
CONTINUOUS
 10
85.7470932839
 20
90.5391022032
 11
86.1416511817
 21
90.5391022032
  0
LINE
  5
5BD
100
AcDbEntity
  8
0
100
AcDbLine
 62
250
  6
CONTINUOUS
 10
80.8066696778
 20
90.5400052032
 11
81.0083042439
 21
90.5400052032
  0
LINE
  5
5BE
100
AcDbEntity
  8
0
100
AcDbLine
 62
250
  6
CONTINUOUS
 10
80.032950414
 20
90.6080222032
 11
80.234568985
 21
90.6080222032
  0
LINE
  5
5BF
100
AcDbEntity
  8
0
100
AcDbLine
 62
250
  6
CONTINUOUS
 10
81.6307955837
 20
90.6156152032
 11
81.832413155
 21
90.6156152032
  0
LINE
  5
5C0
100
AcDbEntity
  8
0
100
AcDbLine
 62
250
  6
CONTINUOUS
 10
89.5033600991
 20
90.6210152032
 11
89.6997781791
 21
90.6210152032
  0
LINE
  5
5C1
100
AcDbEntity
  8
0
100
AcDbLine
 62
250
  6
CONTINUOUS
 10
98.328990155
 20
91.0007342032
 11
96.106731155
 21
91.0007342032
  0
LINE
  5
5C2
100
AcDbEntity
  8
0
100
AcDbLine
 62
250
  6
CONTINUOUS
 10
93.884472155
 20
91.0007342032
 11
95.551037155
 21
91.0007342032
  0
LINE
  5
5C3
100
AcDbEntity
  8
0
100
AcDbLine
 62
250
  6
CONTINUOUS
 10
87.1849182628
 20
91.0095822032
 11
86.9693151052
 21
91.0095822032
  0
LINE
  5
5C4
100
AcDbEntity
  8
0
100
AcDbLine
 62
250
  6
CONTINUOUS
 10
83.0466988565
 20
91.0500836062
 11
83.4752702596
 21
91.0500836062
  0
LINE
  5
5C5
100
AcDbEntity
  8
0
100
AcDbLine
 62
250
  6
CONTINUOUS
 10
85.8715943189
 20
91.0645852032
 11
85.6541334443
 21
91.0645852032
  0
LINE
  5
5C6
100
AcDbEntity
  8
0
100
AcDbLine
 62
250
  6
CONTINUOUS
 10
81.1119408726
 20
91.2321351891
 11
80.0312671986
 21
91.2321351891
  0
LINE
  5
5C7
100
AcDbEntity
  8
0
100
AcDbLine
 62
250
  6
CONTINUOUS
 10
80.0312671986
 20
91.3432562039
 11
81.1119408726
 21
91.3432562039
  0
LINE
  5
5C8
100
AcDbEntity
  8
0
100
AcDbLine
 62
250
  6
CONTINUOUS
 10
83.260984558
 20
91.4786550092
 11
83.9038417073
 21
91.4786550092
  0
LINE
  5
5C9
100
AcDbEntity
  8
0
100
AcDbLine
 62
250
  6
CONTINUOUS
 10
93.328950155
 20
91.5560832032
 11
98.328990155
 21
91.5560832032
  0
LINE
  5
5CA
100
AcDbEntity
  8
0
100
AcDbLine
 62
250
  6
CONTINUOUS
 10
85.6546913593
 20
91.6375882032
 11
85.8721522339
 21
91.6375882032
  0
LINE
  5
5CB
100
AcDbEntity
  8
0
100
AcDbLine
 62
250
  6
CONTINUOUS
 10
86.9693151052
 20
91.8329222032
 11
87.1849182628
 21
91.8329222032
  0
LINE
  5
5CC
100
AcDbEntity
  8
0
100
AcDbLine
 62
250
  6
CONTINUOUS
 10
93.328950155
 20
92.1117772032
 11
98.328990155
 21
92.1117772032
  0
LINE
  5
5CD
100
AcDbEntity
  8
0
100
AcDbLine
 62
250
  6
CONTINUOUS
 10
83.9038417073
 20
92.2286550092
 11
83.260984558
 21
92.2286550092
  0
LINE
  5
5CE
100
AcDbEntity
  8
0
100
AcDbLine
 62
250
  6
CONTINUOUS
 10
86.8769131807
 20
92.2893992032
 11
86.5045059087
 21
92.2893992032
  0
LINE
  5
5CF
100
AcDbEntity
  8
0
100
AcDbLine
 62
250
  6
CONTINUOUS
 10
81.1119408726
 20
92.5000060435
 11
80.0312671986
 21
92.5000060435
  0
LINE
  5
5D0
100
AcDbEntity
  8
0
100
AcDbLine
 62
7
  6
CONTINUOUS
 10
99.532413155
 20
92.5055948032
 11
99.732413155
 21
92.5055948032
  0
LINE
  5
5D1
100
AcDbEntity
  8
ASSI
100
AcDbLine
 62
7
  6
CONTINUOUS
 10
99.532413155
 20
92.5055948032
 11
99.732413155
 21
92.5055948032
  0
LINE
  5
5D2
100
AcDbEntity
  8
0
100
AcDbLine
 62
250
  6
CONTINUOUS
 10
80.0312671986
 20
92.6111260168
 11
81.1119408726
 21
92.6111260168
  0
LINE
  5
5D3
100
AcDbEntity
  8
0
100
AcDbLine
 62
250
  6
CONTINUOUS
 10
86.5045059087
 20
92.6394592032
 11
86.8769131807
 21
92.6394592032
  0
LINE
  5
5D4
100
AcDbEntity
  8
0
100
AcDbLine
 62
250
  6
CONTINUOUS
 10
97.773296155
 20
92.6671272032
 11
93.884472155
 21
92.6671272032
  0
LINE
  5
5D5
100
AcDbEntity
  8
0
100
AcDbLine
 62
250
  6
CONTINUOUS
 10
81.8340267317
 20
92.9291977229
 11
80.0312724045
 21
92.9291977229
  0
LINE
  5
5D6
100
AcDbEntity
  8
0
100
AcDbLine
 62
250
  6
CONTINUOUS
 10
80.1272280293
 20
93.0403874768
 11
80.9351825113
 21
93.0403874768
  0
LINE
  5
5D7
100
AcDbEntity
  8
0
100
AcDbLine
 62
250
  6
CONTINUOUS
 10
81.0311381361
 20
93.0403874768
 11
81.8340267317
 21
93.0403874768
  0
LINE
  5
5D8
100
AcDbEntity
  8
0
100
AcDbLine
 62
250
  6
CONTINUOUS
 10
84.332413155
 20
93.0857978153
 11
82.832413155
 21
93.0857978153
  0
LINE
  5
5D9
100
AcDbEntity
  8
0
100
AcDbLine
 62
250
  6
CONTINUOUS
 10
98.328990155
 20
93.2228212032
 11
97.773296155
 21
93.2228212032
  0
LINE
  5
5DA
100
AcDbEntity
  8
0
100
AcDbLine
 62
250
  6
CONTINUOUS
 10
93.884472155
 20
93.2228212032
 11
93.328950155
 21
93.2228212032
  0
LINE
  5
5DB
100
AcDbEntity
  8
0
100
AcDbLine
 62
250
  6
CONTINUOUS
 10
91.3135563555
 20
93.3138742032
 11
92.332413155
 21
93.3138742032
  0
LWPOLYLINE
  5
5DC
100
AcDbEntity
  8
0
100
AcDbPolyline
 62
250
  6
CONTINUOUS
 90
60
 70
0
 10
81.1119408726
 20
92.5000060435
 10
81.1289027848
 20
92.4999255428
 10
81.1459919692
 20
92.4996750547
 10
81.1631900273
 20
92.4992411007
 10
81.1804785606
 20
92.498610202
 10
81.1978391706
 20
92.4977688799
 10
81.2152534587
 20
92.4967036558
 10
81.2327030265
 20
92.4954010509
 10
81.2501694753
 20
92.4938475867
 10
81.2676344067
 20
92.4920297843
 10
81.2850794221
 20
92.4899341651
 10
81.302486123
 20
92.4875472505
 10
81.3198361109
 20
92.4848555617
 10
81.3371109872
 20
92.4818456201
 10
81.3542923535
 20
92.4785039469
 10
81.3713618111
 20
92.4748170636
 10
81.3883009615
 20
92.4707714913
 10
81.4050914063
 20
92.4663537514
 10
81.4217147469
 20
92.4615503653
 10
81.4381525848
 20
92.4563478542
 10
81.4543865213
 20
92.4507327394
 10
81.4703981581
 20
92.4446915423
 10
81.4861690966
 20
92.4382107843
 10
81.5016809382
 20
92.4312769865
 10
81.5169152845
 20
92.4238766703
 10
81.5318537368
 20
92.415996357
 10
81.5464778967
 20
92.407622568
 10
81.5607693657
 20
92.3987418245
 10
81.5747097451
 20
92.3893406479
 10
81.5882806366
 20
92.3794055595
 10
81.6014636415
 20
92.3689230806
 10
81.6142167115
 20
92.3579090514
 10
81.626554873
 20
92.3463637438
 10
81.638467888
 20
92.33431452
 10
81.649945519
 20
92.3217887424
 10
81.6609775281
 20
92.3088137732
 10
81.6715536777
 20
92.2954169748
 10
81.6816637298
 20
92.2816257095
 10
81.6912974469
 20
92.2674673396
 10
81.7004445911
 20
92.2529692275
 10
81.7090949248
 20
92.2381587354
 10
81.71723821
 20
92.2230632256
 10
81.7248642092
 20
92.2077100605
 10
81.7319626846
 20
92.1921266024
 10
81.7385233984
 20
92.1763402136
 10
81.7445361128
 20
92.1603782565
 10
81.7503887898
 20
92.1430361066
 10
81.7556245642
 20
92.1255378847
 10
81.7602727898
 20
92.107899093
 10
81.7643628205
 20
92.0901352338
 10
81.7679240102
 20
92.0722618094
 10
81.7709857126
 20
92.0542943219
 10
81.7735772817
 20
92.0362482736
 10
81.7757280713
 20
92.0181391669
 10
81.7774674352
 20
91.9999825039
 10
81.7788247274
 20
91.9817937869
 10
81.7798293016
 20
91.9635885181
 10
81.7805105118
 20
91.9453821999
 10
81.7808977117
 20
91.9271903344
 10
81.7810202553
 20
91.909028424
  0
LINE
  5
5DD
100
AcDbEntity
  8
DRAFT
100
AcDbLine
 62
7
  6
CONTINUOUS
 10
101.3359036363
 20
92.3900321597
 11
99.532413155
 21
92.4215122032
  0
LINE
  5
5DE
100
AcDbEntity
  8
ASSI
100
AcDbLine
 62
7
  6
CONTINUOUS
 10
101.3359036363
 20
92.3900321597
 11
99.532413155
 21
92.4215122032
  0
LINE
  5
5DF
100
AcDbEntity
  8
0
100
AcDbLine
 62
250
  6
CONTINUOUS
 10
89.0652828306
 20
92.1021052032
 11
86.1691989854
 21
92.3713512032
  0
LINE
  5
5E0
100
AcDbEntity
  8
RACCORDO
100
AcDbLine
 62
250
  6
CONTINUOUS
 10
76.6518039672
 20
94.3992992266
 11
76.86309139
 21
94.3730858787
  0
LWPOLYLINE
  5
5E1
100
AcDbEntity
  8
RACCORDO
100
AcDbPolyline
 62
250
  6
CONTINUOUS
 90
3
 70
0
 10
76.619317953
 20
94.4035531974
 10
76.6229920031
 20
94.4030100703
 10
76.6518039672
 20
94.3992992266
  0
LWPOLYLINE
  5
5E2
100
AcDbEntity
  8
0
100
AcDbPolyline
 62
7
  6
CONTINUOUS
 90
10
 70
0
 43
0.3500000006
 10
86.2217882996
 20
131.6873098755
 10
86.2932194824
 20
131.5444565735
 10
86.2932194824
 20
131.4730253906
 10
86.1503661804
 20
131.3301720886
 10
86.0789349976
 20
131.3301720886
 10
86.0075038147
 20
131.4015942078
 10
86.0075038147
 20
131.4730253906
 10
86.0789349976
 20
131.6158786926
 10
86.1503661804
 20
131.6873098755
 10
86.2217882996
 20
131.6873098755
  0
LWPOLYLINE
  5
5E3
100
AcDbEntity
  8
0
100
AcDbPolyline
 62
7
  6
CONTINUOUS
 90
10
 70
0
 43
0.3500000006
 10
92.7117023621
 20
121.6873068237
 10
92.7831244812
 20
121.5444535217
 10
92.7831244812
 20
121.4730223389
 10
92.6402711792
 20
121.3301690369
 10
92.5688399963
 20
121.3301690369
 10
92.4974088135
 20
121.4016002197
 10
92.4974088135
 20
121.4730223389
 10
92.5688399963
 20
121.6158847046
 10
92.6402711792
 20
121.6873068237
 10
92.7117023621
 20
121.6873068237
  0
LINE
  5
5E4
100
AcDbEntity
  8
SUPERFICI
100
AcDbLine
 62
7
  6
CONTINUOUS
 10
85.9763426533
 20
56.5654417015
 11
84.4819086389
 21
56.0215122032
  0
LINE
  5
5E5
100
AcDbEntity
  8
ASSI
100
AcDbLine
 62
7
  6
CONTINUOUS
 10
85.9763426533
 20
56.5654417015
 11
84.4819086389
 21
56.0215122032
  0
LWPOLYLINE
  5
5E6
100
AcDbEntity
  8
0
100
AcDbPolyline
 62
250
  6
CONTINUOUS
 90
17
 70
0
 10
86.037190094
 20
92.3188432032
 10
86.0745904367
 20
92.3225108974
 10
86.110566212
 20
92.3333742789
 10
86.1437471137
 20
92.3510195648
 10
86.1733453919
 20
92.375249165
 10
86.1971983713
 20
92.4042926809
 10
86.2149566852
 20
92.4374168413
 10
86.2259439249
 20
92.4733599572
 10
86.2297427629
 20
92.5114252032
 10
86.2260756272
 20
92.548831243
 10
86.2152139003
 20
92.5848124984
 10
86.1975713019
 20
92.6179984545
 10
86.1733453919
 20
92.6476012413
 10
86.1443062995
 20
92.6714578542
 10
86.111187184
 20
92.6892188732
 10
86.0752495424
 20
92.7002077865
 10
86.0371900772
 20
92.7040072032
  0
LWPOLYLINE
  5
5E7
100
AcDbEntity
  8
0
100
AcDbPolyline
 62
250
  6
CONTINUOUS
 90
17
 70
0
 10
86.037190094
 20
92.7040072032
 10
85.9997897513
 20
92.7003395089
 10
85.9638139761
 20
92.6894761274
 10
85.9306330743
 20
92.6718308415
 10
85.9010347962
 20
92.6476012413
 10
85.8771818167
 20
92.6185577254
 10
85.8594235028
 20
92.585433565
 10
85.8484362632
 20
92.5494904491
 10
85.8446374252
 20
92.5114252032
 10
85.8483045609
 20
92.4740191633
 10
85.8591662878
 20
92.4380379079
 10
85.8768088862
 20
92.4048519518
 10
85.9010347962
 20
92.375249165
 10
85.9300738886
 20
92.3513925521
 10
85.963193004
 20
92.3336315331
 10
85.9991306456
 20
92.3226426198
 10
86.0371901109
 20
92.3188432032
  0
LINE
  5
5E8
100
AcDbEntity
  8
RACCORDO
100
AcDbLine
 62
250
  6
CONTINUOUS
 10
76.7502018528
 20
95.4695170194
 11
75.9524232211
 21
95.4555917416
  0
LINE
  5
5E9
100
AcDbEntity
  8
RACCORDO
100
AcDbLine
 62
7
  6
CONTINUOUS
 10
76.8732313915
 20
96.4715122032
 11
76.0400323493
 21
96.4569686598
  0
LWPOLYLINE
  5
5EA
100
AcDbEntity
  8
0
100
AcDbPolyline
 62
250
  6
CONTINUOUS
 90
57
 70
0
 10
80.5362289887
 20
94.2223406329
 10
80.5203517138
 20
94.222209091
 10
80.5044526796
 20
94.2217997473
 10
80.488546041
 20
94.2210905251
 10
80.4726459534
 20
94.2200593476
 10
80.4567665719
 20
94.2186841378
 10
80.4409220516
 20
94.2169428191
 10
80.4251265477
 20
94.2148133145
 10
80.4093942154
 20
94.2122735473
 10
80.3937392097
 20
94.2093014406
 10
80.378175686
 20
94.2058749177
 10
80.3627177993
 20
94.2019719016
 10
80.3473797048
 20
94.1975703157
 10
80.3321755577
 20
94.192648083
 10
80.3192019564
 20
94.1879781113
 10
80.3063565192
 20
94.1829095925
 10
80.2936575758
 20
94.1774464683
 10
80.2811234562
 20
94.17159268
 10
80.2687724901
 20
94.1653521692
 10
80.2566230074
 20
94.1587288776
 10
80.244693338
 20
94.1517267465
 10
80.2330018117
 20
94.1443497176
 10
80.2215667584
 20
94.1366017324
 10
80.2104065079
 20
94.1284867324
 10
80.1995393901
 20
94.1200086591
 10
80.1889837349
 20
94.1111714541
 10
80.1787578721
 20
94.1019790589
 10
80.1688801316
 20
94.0924354151
 10
80.1593688431
 20
94.0825444641
 10
80.1496844294
 20
94.0716659842
 10
80.1404282929
 20
94.0604181138
 10
80.1315946884
 20
94.0488187683
 10
80.1231778706
 20
94.0368858636
 10
80.1151720941
 20
94.0246373151
 10
80.1075716136
 20
94.0120910384
 10
80.1003706838
 20
93.9992649492
 10
80.0935635594
 20
93.986176963
 10
80.087144495
 20
93.9728449955
 10
80.0811077453
 20
93.9592869623
 10
80.0754475651
 20
93.9455207789
 10
80.0701582089
 20
93.931564361
 10
80.0652339315
 20
93.9174356242
 10
80.0606689876
 20
93.903152484
 10
80.0564576317
 20
93.8887328561
 10
80.0525941187
 20
93.8741946561
 10
80.0490727032
 20
93.8595557996
 10
80.0458876398
 20
93.8448342021
 10
80.0430331833
 20
93.8300477793
 10
80.0405035883
 20
93.8152144468
 10
80.0382931095
 20
93.8003521202
 10
80.0363960015
 20
93.7854787151
 10
80.0348065192
 20
93.770612147
 10
80.033518917
 20
93.7557703317
 10
80.0325274498
 20
93.7409711846
 10
80.0318263722
 20
93.7262326214
 10
80.0314099389
 20
93.7115725577
 10
80.0312724045
 20
93.6970089092
  0
LINE
  5
5EB
100
AcDbEntity
  8
0
100
AcDbLine
 62
7
  6
CONTINUOUS
 10
99.532413155
 20
93.8189122032
 11
99.732413155
 21
93.8189122032
  0
LINE
  5
5EC
100
AcDbEntity
  8
ASSI
100
AcDbLine
 62
7
  6
CONTINUOUS
 10
99.532413155
 20
93.8189122032
 11
99.732413155
 21
93.8189122032
  0
LINE
  5
5ED
100
AcDbEntity
  8
0
100
AcDbLine
 62
7
  6
CONTINUOUS
 10
99.532413155
 20
93.9453522032
 11
99.732413155
 21
93.9453522032
  0
LINE
  5
5EE
100
AcDbEntity
  8
ASSI
100
AcDbLine
 62
7
  6
CONTINUOUS
 10
99.532413155
 20
93.9453522032
 11
99.732413155
 21
93.9453522032
  0
LINE
  5
5EF
100
AcDbEntity
  8
0
100
AcDbLine
 62
250
  6
CONTINUOUS
 10
83.0466988565
 20
94.121512084
 11
83.3681274535
 21
94.121512084
  0
LINE
  5
5F0
100
AcDbEntity
  8
0
100
AcDbLine
 62
250
  6
CONTINUOUS
 10
83.6895560058
 20
94.1572265911
 11
84.2252702931
 21
94.1572265911
  0
LINE
  5
5F1
100
AcDbEntity
  8
RACCORDO
100
AcDbLine
 62
250
  6
CONTINUOUS
 10
99.532413155
 20
94.215102277
 11
99.0411393582
 21
94.215102277
  0
LINE
  5
5F2
100
AcDbEntity
  8
ASSI
100
AcDbLine
 62
250
  6
CONTINUOUS
 10
99.532413155
 20
94.215102277
 11
99.0411393582
 21
94.215102277
  0
LWPOLYLINE
  5
5F3
100
AcDbEntity
  8
RACCORDO
100
AcDbPolyline
 62
250
  6
CONTINUOUS
 90
7
 70
0
 10
90.3344668508
 20
95.520914555
 10
88.3309385178
 20
95.5286035443
 10
86.328684605
 20
95.5372120801
 10
84.3277051123
 20
95.5467452446
 10
82.3280000398
 20
95.557208016
 10
80.3295693873
 20
95.5686052686
 10
78.332413155
 20
95.5809417723
  0
LWPOLYLINE
  5
5F4
100
AcDbEntity
  8
ASSI
100
AcDbPolyline
 62
250
  6
CONTINUOUS
 90
7
 70
0
 10
90.3344668508
 20
95.520914555
 10
88.3309385178
 20
95.5286035443
 10
86.328684605
 20
95.5372120801
 10
84.3277051123
 20
95.5467452446
 10
82.3280000398
 20
95.557208016
 10
80.3295693873
 20
95.5686052686
 10
78.332413155
 20
95.5809417723
  0
LINE
  5
5F5
100
AcDbEntity
  8
RACCORDO
100
AcDbLine
 62
250
  6
CONTINUOUS
 10
99.0411393582
 20
94.2153247681
 11
78.332413155
 21
94.3411713692
  0
LINE
  5
5F6
100
AcDbEntity
  8
ASSI
100
AcDbLine
 62
250
  6
CONTINUOUS
 10
99.0411393582
 20
94.2153247681
 11
78.332413155
 21
94.3411713692
  0
LINE
  5
5F7
100
AcDbEntity
  8
RACCORDO
100
AcDbLine
 62
250
  6
CONTINUOUS
 10
91.7688875827
 20
95.5042025624
 11
90.3344664112
 21
95.5208970376
  0
LINE
  5
5F8
100
AcDbEntity
  8
ASSI
100
AcDbLine
 62
250
  6
CONTINUOUS
 10
91.7688875827
 20
95.5042025624
 11
90.3344664112
 21
95.5208970376
  0
LINE
  5
5F9
100
AcDbEntity
  8
RACCORDO
100
AcDbLine
 62
7
  6
CONTINUOUS
 10
99.0411393582
 20
95.5660098089
 11
90.3343955004
 21
95.7179865882
  0
LINE
  5
5FA
100
AcDbEntity
  8
ASSI
100
AcDbLine
 62
7
  6
CONTINUOUS
 10
99.0411393582
 20
95.5660098089
 11
90.3343955004
 21
95.7179865882
  0
LINE
  5
5FB
100
AcDbEntity
  8
RACCORDO
100
AcDbLine
 62
250
  6
CONTINUOUS
 10
99.0413322904
 20
95.3497301166
 11
91.7688875827
 21
95.5042025624
  0
LINE
  5
5FC
100
AcDbEntity
  8
ASSI
100
AcDbLine
 62
250
  6
CONTINUOUS
 10
99.0413322904
 20
95.3497301166
 11
91.7688875827
 21
95.5042025624
  0
LINE
  5
5FD
100
AcDbEntity
  8
0
100
AcDbLine
 62
250
  6
CONTINUOUS
 10
77.779795294
 20
94.3528804239
 11
76.8630913893
 21
94.3730858615
  0
LINE
  5
5FE
100
AcDbEntity
  8
0
100
AcDbLine
 62
250
  6
CONTINUOUS
 10
77.632413155
 20
95.5980853599
 11
77.0006481882
 21
95.6131461375
  0
LINE
  5
5FF
100
AcDbEntity
  8
RACCORDO
100
AcDbLine
 62
250
  6
CONTINUOUS
 10
90.2843953063
 20
95.5271771721
 11
90.3344668508
 21
95.520914555
  0
LINE
  5
600
100
AcDbEntity
  8
ASSI
100
AcDbLine
 62
250
  6
CONTINUOUS
 10
90.2843953063
 20
95.5271771721
 11
90.3344668508
 21
95.520914555
  0
LINE
  5
601
100
AcDbEntity
  8
RACCORDO
100
AcDbLine
 62
250
  6
CONTINUOUS
 10
69.6776825077
 20
99.1983622473
 11
69.3511362851
 21
99.2407660156
  0
LWPOLYLINE
  5
602
100
AcDbEntity
  8
RACCORDO
100
AcDbPolyline
 62
250
  6
CONTINUOUS
 90
4
 70
0
 10
69.3511362851
 20
99.2407660156
 10
69.2011075713
 20
99.2603981783
 10
69.1931715219
 20
99.2614637855
 10
69.1905199139
 20
99.2618451414
  0
LINE
  5
603
100
AcDbEntity
  8
SUPERFICI
100
AcDbLine
 62
7
  6
CONTINUOUS
 10
85.9763426533
 20
99.8775827048
 11
84.4819086389
 21
100.4215122032
  0
LINE
  5
604
100
AcDbEntity
  8
ASSI
100
AcDbLine
 62
7
  6
CONTINUOUS
 10
85.9763426533
 20
99.8775827048
 11
84.4819086389
 21
100.4215122032
  0
LINE
  5
605
100
AcDbEntity
  8
DRAFT
100
AcDbLine
 62
7
  6
CONTINUOUS
 10
76.7254321924
 20
99.928372376
 11
77.2989095337
 21
99.9383824602
  0
LINE
  5
606
100
AcDbEntity
  8
0
100
AcDbLine
 62
250
  6
CONTINUOUS
 10
77.632413155
 20
100.0923218762
 11
77.779795294
 21
100.0923218762
  0
LINE
  5
607
100
AcDbEntity
  8
SUPERFICI
100
AcDbLine
 62
7
  6
CONTINUOUS
 10
84.4819086389
 20
100.4215122032
 11
83.932413155
 21
100.4215122032
  0
LINE
  5
608
100
AcDbEntity
  8
ASSI
100
AcDbLine
 62
7
  6
CONTINUOUS
 10
84.4819086389
 20
100.4215122032
 11
83.932413155
 21
100.4215122032
  0
LINE
  5
609
100
AcDbEntity
  8
SUPERFICI
100
AcDbLine
 62
7
  6
CONTINUOUS
 10
79.2306964489
 20
100.8764657854
 11
78.332413155
 21
100.8846788251
  0
LINE
  5
60A
100
AcDbEntity
  8
ASSI
100
AcDbLine
 62
7
  6
CONTINUOUS
 10
79.2306964489
 20
100.8764657854
 11
78.332413155
 21
100.8846788251
  0
LINE
  5
60B
100
AcDbEntity
  8
DRAFT
100
AcDbLine
 62
7
  6
CONTINUOUS
 10
76.7254321924
 20
98.9146520303
 11
77.1722536092
 21
98.9068527335
  0
LINE
  5
60C
100
AcDbEntity
  8
RACCORDO
100
AcDbLine
 62
7
  6
CONTINUOUS
 10
82.479795294
 20
99.4189396384
 11
86.3032679529
 21
99.3522006748
  0
LINE
  5
60D
100
AcDbEntity
  8
ASSI
100
AcDbLine
 62
7
  6
CONTINUOUS
 10
82.479795294
 20
99.4189396384
 11
86.3032679529
 21
99.3522006748
  0
LINE
  5
60E
100
AcDbEntity
  8
RACCORDO
100
AcDbLine
 62
250
  6
CONTINUOUS
 10
82.479795294
 20
99.2962687838
 11
86.3033846824
 21
99.2292285057
  0
LINE
  5
60F
100
AcDbEntity
  8
ASSI
100
AcDbLine
 62
250
  6
CONTINUOUS
 10
82.479795294
 20
99.2962687838
 11
86.3033846824
 21
99.2292285057
  0
LWPOLYLINE
  5
610
100
AcDbEntity
  8
RACCORDO
100
AcDbPolyline
 62
250
  6
CONTINUOUS
 90
19
 70
0
 10
70.2040623825
 20
99.6331862119
 10
70.1620447973
 20
99.6339509486
 10
70.1206212703
 20
99.631305749
 10
70.0797918016
 20
99.6252506131
 10
70.0392616072
 20
99.6156963456
 10
69.9993254712
 20
99.6027321419
 10
69.9608677452
 20
99.5866255877
 10
69.9239379591
 20
99.567310537
 10
69.8884865832
 20
99.5448531358
 10
69.8552493796
 20
99.5197194092
 10
69.8242761904
 20
99.4918574917
 10
69.7955171736
 20
99.4613192488
 10
69.7695585652
 20
99.4287263009
 10
69.7464515347
 20
99.3940229216
 10
69.7261449126
 20
99.3572648374
 10
69.7090714261
 20
99.3192408479
 10
69.6953753177
 20
99.2802138863
 10
69.6849123449
 20
99.2399210194
 10
69.6776825077
 20
99.1983622473
  0
LINE
  5
611
100
AcDbEntity
  8
RACCORDO
100
AcDbLine
 62
250
  6
CONTINUOUS
 10
76.2853740609
 20
99.2612372557
 11
70.2040623825
 21
99.6331862119
  0
LINE
  5
612
100
AcDbEntity
  8
RACCORDO
100
AcDbLine
 62
7
  6
CONTINUOUS
 10
76.3289469551
 20
99.7592777146
 11
70.2432796497
 21
100.1314930723
  0
LINE
  5
613
100
AcDbEntity
  8
0
100
AcDbLine
 62
250
  6
CONTINUOUS
 10
77.5928301011
 20
100.4795285275
 11
77.6376917368
 21
100.4819245729
  0
LINE
  5
614
100
AcDbEntity
  8
0
100
AcDbLine
 62
250
  6
CONTINUOUS
 10
78.332413155
 20
100.1212833511
 11
77.779795294
 21
100.0923218762
  0
LINE
  5
615
100
AcDbEntity
  8
0
100
AcDbLine
 62
7
  6
CONTINUOUS
 10
78.332413155
 20
100.6215122032
 11
77.5861244463
 21
100.5824008692
  0
LINE
  5
616
100
AcDbEntity
  8
RACCORDO
100
AcDbLine
 62
250
  6
CONTINUOUS
 10
77.5521877657
 20
100.4787088315
 11
77.5928303868
 21
100.4795304768
  0
LWPOLYLINE
  5
617
100
AcDbEntity
  8
SUPERFICI
100
AcDbPolyline
 62
7
  6
CONTINUOUS
 90
8
 70
0
 10
82.332413155
 20
100.8513788058
 10
81.8933558118
 20
100.8545904924
 10
81.4529491532
 20
100.8579334836
 10
81.011193179
 20
100.8614030206
 10
80.5680845025
 20
100.8649924091
 10
80.1236265104
 20
100.8686987656
 10
79.6778293636
 20
100.8725238022
 10
79.2306964489
 20
100.8764657854
  0
LWPOLYLINE
  5
618
100
AcDbEntity
  8
ASSI
100
AcDbPolyline
 62
7
  6
CONTINUOUS
 90
8
 70
0
 10
82.332413155
 20
100.8513788058
 10
81.8933558118
 20
100.8545904924
 10
81.4529491532
 20
100.8579334836
 10
81.011193179
 20
100.8614030206
 10
80.5680845025
 20
100.8649924091
 10
80.1236265104
 20
100.8686987656
 10
79.6778293636
 20
100.8725238022
 10
79.2306964489
 20
100.8764657854
  0
LINE
  5
619
100
AcDbEntity
  8
SUPERFICI
100
AcDbLine
 62
7
  6
CONTINUOUS
 10
82.332413155
 20
101.6516919435
 11
78.332413155
 21
101.7215122032
  0
LINE
  5
61A
100
AcDbEntity
  8
ASSI
100
AcDbLine
 62
7
  6
CONTINUOUS
 10
78.332413155
 20
101.7215122032
 11
82.332413155
 21
101.6516919435
  0
LINE
  5
61B
100
AcDbEntity
  8
SUPERFICI
100
AcDbLine
 62
250
  6
CONTINUOUS
 10
78.332413155
 20
101.5548718606
 11
82.332413155
 21
101.484619565
  0
LINE
  5
61C
100
AcDbEntity
  8
ASSI
100
AcDbLine
 62
250
  6
CONTINUOUS
 10
78.332413155
 20
101.5548718606
 11
82.332413155
 21
101.484619565
  0
LWPOLYLINE
  5
61D
100
AcDbEntity
  8
SUPERFICI
100
AcDbPolyline
 62
7
  6
CONTINUOUS
 90
3
 70
0
 10
79.2306964489
 20
101.3841696767
 10
78.7822243793
 20
101.392834279
 10
78.332413155
 20
101.4014207649
  0
LWPOLYLINE
  5
61E
100
AcDbEntity
  8
ASSI
100
AcDbPolyline
 62
7
  6
CONTINUOUS
 90
3
 70
0
 10
79.2306964489
 20
101.3841696767
 10
78.7822243793
 20
101.392834279
 10
78.332413155
 20
101.4014207649
  0
LWPOLYLINE
  5
61F
100
AcDbEntity
  8
SUPERFICI
100
AcDbPolyline
 62
7
  6
CONTINUOUS
 90
7
 70
0
 10
82.332413155
 20
101.321402678
 10
81.8933558118
 20
101.3306028688
 10
81.4529491532
 20
101.339728524
 10
81.011193179
 20
101.348776708
 10
80.5680845025
 20
101.3577398192
 10
80.1236265104
 20
101.3666200284
 10
79.2306964489
 20
101.3841696767
  0
LWPOLYLINE
  5
620
100
AcDbEntity
  8
ASSI
100
AcDbPolyline
 62
7
  6
CONTINUOUS
 90
7
 70
0
 10
82.332413155
 20
101.321402678
 10
81.8933558118
 20
101.3306028688
 10
81.4529491532
 20
101.339728524
 10
81.011193179
 20
101.348776708
 10
80.5680845025
 20
101.3577398192
 10
80.1236265104
 20
101.3666200284
 10
79.2306964489
 20
101.3841696767
  0
LWPOLYLINE
  5
621
100
AcDbEntity
  8
0
100
AcDbPolyline
 62
7
  6
CONTINUOUS
 90
13
 70
0
 43
0.3500000006
 10
94.2117028198
 20
122.9016006775
 10
93.9259871521
 20
123.1158851624
 10
93.9259871521
 20
123.7587386169
 10
94.2117028198
 20
124.1873075867
 10
94.8545562744
 20
124.1873075867
 10
95.1402719421
 20
123.7587386169
 10
95.1402719421
 20
123.1158851624
 10
94.8545562744
 20
122.9016006775
 10
95.2831252441
 20
122.473022644
 10
95.2831252441
 20
121.6158847046
 10
94.8545562744
 20
121.1873066711
 10
94.2117028198
 20
121.1873066711
 10
93.7831247864
 20
121.6158847046
  0
LWPOLYLINE
  5
622
100
AcDbEntity
  8
0
100
AcDbPolyline
 62
7
  6
CONTINUOUS
 90
7
 70
0
 43
0.3500000006
 10
88.8545544434
 20
121.1873066711
 10
87.3545539856
 20
121.1873066711
 10
88.8545544434
 20
123.3301696472
 10
88.8545544434
 20
123.7587386169
 10
88.4259854736
 20
124.1873075867
 10
87.7831229553
 20
124.1873075867
 10
87.3545539856
 20
123.5444541321
  0
LWPOLYLINE
  5
623
100
AcDbEntity
  8
0
100
AcDbPolyline
 62
7
  6
CONTINUOUS
 90
6
 70
0
 43
0.3500000006
 10
81.0789334717
 20
131.1873097229
 10
82.1503649597
 20
131.1873097229
 10
82.3646494446
 20
131.4015942078
 10
82.3646494446
 20
132.4730256958
 10
81.9360804749
 20
132.9015946655
 10
81.5075024414
 20
132.9015946655
  0
LWPOLYLINE
  5
624
100
AcDbEntity
  8
0
100
AcDbPolyline
 62
7
  6
CONTINUOUS
 90
5
 70
0
 43
0.3500000006
 10
139.6350013733
 20
122.9016006775
 10
139.9921482239
 20
123.1158851624
 10
139.9921482239
 20
123.7587386169
 10
139.6350013733
 20
124.1873075867
 10
138.7778543701
 20
124.1873075867
  0
LWPOLYLINE
  5
625
100
AcDbEntity
  8
RACCORDO
100
AcDbPolyline
 62
250
  6
CONTINUOUS
 90
9
 70
0
 10
125.6913124589
 20
99.6331862119
 10
125.6920453145
 20
99.6339447596
 10
125.6927624315
 20
99.6312901779
 10
125.6934638101
 20
99.6252224666
 10
125.6941543978
 20
99.6156513416
 10
125.6948292469
 20
99.602667087
 10
125.6954735146
 20
99.5865405554
 10
125.6960862469
 20
99.5672079422
 10
125.6966683978
 20
99.5447330519
  0
LINE
  5
626
100
AcDbEntity
  8
RACCORDO
100
AcDbLine
 62
250
  6
CONTINUOUS
 10
131.0490158676
 20
100.3112657841
 11
130.8224755291
 21
100.1333582739
  0
LINE
  5
627
100
AcDbEntity
  8
0
100
AcDbLine
 62
7
  6
CONTINUOUS
 10
130.9004772742
 20
100.4819245729
 11
130.8973372277
 21
100.4795283911
  0
LINE
  5
628
100
AcDbEntity
  8
0
100
AcDbLine
 62
250
  6
CONTINUOUS
 10
131.214976995
 20
100.5922765029
 11
131.2020278943
 21
100.5824008692
  0
LINE
  5
629
100
AcDbEntity
  8
0
100
AcDbLine
 62
7
  6
CONTINUOUS
 10
130.9303784958
 20
100.5027359983
 11
130.9004772934
 21
100.4819245876
  0
LWPOLYLINE
  5
62A
100
AcDbEntity
  8
SUPERFICI
100
AcDbPolyline
 62
7
  6
CONTINUOUS
 90
5
 70
0
 10
140.5670979188
 20
54.7551972295
 10
140.5038198555
 20
54.7405057732
 10
140.4399850926
 20
54.7300340052
 10
140.3753312504
 20
54.7237028151
 10
140.3098583291
 20
54.7215122032
  0
LWPOLYLINE
  5
62B
100
AcDbEntity
  8
ASSI
100
AcDbPolyline
 62
7
  6
CONTINUOUS
 90
5
 70
0
 10
140.5670979188
 20
54.7551972295
 10
140.5038198555
 20
54.7405057732
 10
140.4399850926
 20
54.7300340052
 10
140.3753312504
 20
54.7237028151
 10
140.3098583291
 20
54.7215122032
  0
LWPOLYLINE
  5
62C
100
AcDbEntity
  8
0
100
AcDbPolyline
 62
7
  6
CONTINUOUS
 90
5
 70
0
 10
142.0550247068
 20
55.8507479035
 10
142.1141207338
 20
55.8553443391
 10
142.1705449967
 20
55.8660027775
 10
142.2242974957
 20
55.8825298733
 10
142.2753782306
 20
55.9044470666
  0
LWPOLYLINE
  5
62D
100
AcDbEntity
  8
RACCORDO
100
AcDbPolyline
 62
7
  6
CONTINUOUS
 90
13
 70
0
 10
142.0679738076
 20
55.8606235371
 10
142.090814211
 20
55.8611056223
 10
142.1143653769
 20
55.8627027193
 10
142.1385675442
 20
55.8655176776
 10
142.1633239849
 20
55.8696478089
 10
142.1885807221
 20
55.8751973266
 10
142.214323042
 20
55.8822897183
 10
142.2404402788
 20
55.89103266
 10
142.2668122254
 20
55.9015306895
 10
142.2933808765
 20
55.9139216502
 10
142.3200127973
 20
55.9283244954
 10
142.3465049635
 20
55.9448218632
 10
142.3726644502
 20
55.9634959969
  0
LWPOLYLINE
  5
62E
100
AcDbEntity
  8
RACCORDO
100
AcDbPolyline
 62
250
  6
CONTINUOUS
 90
13
 70
0
 10
142.0679738076
 20
56.0798135849
 10
142.0794935701
 20
56.0799921452
 10
142.0913015939
 20
56.0808342508
 10
142.103397879
 20
56.0823399018
 10
142.1158160286
 20
56.0844539263
 10
142.1285224394
 20
56.0872314962
 10
142.1414163017
 20
56.0908381271
 10
142.1545206233
 20
56.0952719764
 10
142.1678123963
 20
56.1005348868
 10
142.1811217872
 20
56.1067979022
 10
142.194392185
 20
56.1141180372
 10
142.2076802006
 20
56.1224382772
 10
142.2209858343
 20
56.1317586223
  0
LWPOLYLINE
  5
62F
100
AcDbEntity
  8
RACCORDO
100
AcDbPolyline
 62
250
  6
CONTINUOUS
 90
15
 70
0
 10
126.1480425843
 20
57.8553142994
 10
126.096911094
 20
57.8549856665
 10
126.0468811967
 20
57.8544167889
 10
125.9984889211
 20
57.8536137618
 10
125.95225275
 20
57.8525851889
 10
125.9086680653
 20
57.8513420903
 10
125.8682018404
 20
57.8498977847
 10
125.8312876373
 20
57.8482677468
 10
125.7983209607
 20
57.8464694409
 10
125.769655021
 20
57.8445221343
 10
125.7455969499
 20
57.842446691
 10
125.7264045095
 20
57.8402653474
 10
125.7122833307
 20
57.8380014749
 10
125.7033847101
 20
57.835679329
 10
125.6998039891
 20
57.8333237896
  0
LINE
  5
630
100
AcDbEntity
  8
SUPERFICI
100
AcDbLine
 62
7
  6
CONTINUOUS
 10
132.9601433728
 20
54.7215122032
 11
140.3098583291
 21
54.7215122032
  0
LINE
  5
631
100
AcDbEntity
  8
ASSI
100
AcDbLine
 62
7
  6
CONTINUOUS
 10
132.9601433728
 20
54.7215122032
 11
140.3098583291
 21
54.7215122032
  0
LINE
  5
632
100
AcDbEntity
  8
SUPERFICI
100
AcDbLine
 62
7
  6
CONTINUOUS
 10
140.1048211106
 20
55.7215122032
 11
133.1651805912
 21
55.7215122032
  0
LINE
  5
633
100
AcDbEntity
  8
ASSI
100
AcDbLine
 62
7
  6
CONTINUOUS
 10
140.1048211106
 20
55.7215122032
 11
133.1651805912
 21
55.7215122032
  0
LINE
  5
634
100
AcDbEntity
  8
0
100
AcDbLine
 62
7
  6
CONTINUOUS
 10
147.2853814507
 20
55.8215122032
 11
139.9350008509
 21
55.8215122032
  0
LINE
  5
635
100
AcDbEntity
  8
0
100
AcDbLine
 62
7
  6
CONTINUOUS
 10
133.3350008509
 20
55.8215122032
 11
125.9846202512
 21
55.8215122032
  0
LINE
  5
636
100
AcDbEntity
  8
ASSI
100
AcDbLine
 62
7
  6
CONTINUOUS
 10
134.0350008509
 20
55.8215122032
 11
134.6350008509
 21
55.8215122032
  0
LINE
  5
637
100
AcDbEntity
  8
ASSI
100
AcDbLine
 62
7
  6
CONTINUOUS
 10
138.6350008509
 20
55.8215122032
 11
139.2350008509
 21
55.8215122032
  0
LINE
  5
638
100
AcDbEntity
  8
0
100
AcDbLine
 62
250
  6
CONTINUOUS
 10
147.2756441358
 20
55.8507479035
 11
142.0550247068
 21
55.8507479035
  0
LINE
  5
639
100
AcDbEntity
  8
0
100
AcDbLine
 62
250
  6
CONTINUOUS
 10
131.214976995
 20
55.8507479035
 11
125.994357566
 21
55.8507479035
  0
LINE
  5
63A
100
AcDbEntity
  8
RACCORDO
100
AcDbLine
 62
250
  6
CONTINUOUS
 10
131.2020278943
 20
55.8606235371
 11
142.0679738076
 21
55.8606235371
  0
LINE
  5
63B
100
AcDbEntity
  8
0
100
AcDbLine
 62
250
  6
CONTINUOUS
 10
147.2756441358
 20
56.0005423337
 11
142.4210948299
 21
56.0005423337
  0
LINE
  5
63C
100
AcDbEntity
  8
0
100
AcDbLine
 62
250
  6
CONTINUOUS
 10
130.848906872
 20
56.0005423337
 11
125.994357566
 21
56.0005423337
  0
LINE
  5
63D
100
AcDbEntity
  8
RACCORDO
100
AcDbLine
 62
250
  6
CONTINUOUS
 10
131.2020278943
 20
56.0798135849
 11
142.0679738076
 21
56.0798135849
  0
LINE
  5
63E
100
AcDbEntity
  8
RACCORDO
100
AcDbLine
 62
7
  6
CONTINUOUS
 10
147.1851531471
 20
56.1259499382
 11
126.0848485548
 21
56.1259499382
  0
LINE
  5
63F
100
AcDbEntity
  8
0
100
AcDbLine
 62
250
  6
CONTINUOUS
 10
147.7753548703
 20
56.3507025301
 11
147.625377716
 21
56.3507025301
  0
LINE
  5
640
100
AcDbEntity
  8
0
100
AcDbLine
 62
250
  6
CONTINUOUS
 10
125.4946468316
 20
56.3507025301
 11
125.6446239858
 21
56.3507025301
  0
LINE
  5
641
100
AcDbEntity
  8
RACCORDO
100
AcDbLine
 62
250
  6
CONTINUOUS
 10
147.0787653954
 20
56.8161544055
 11
126.1912363064
 21
56.8161544055
  0
LINE
  5
642
100
AcDbEntity
  8
RACCORDO
100
AcDbLine
 62
250
  6
CONTINUOUS
 10
147.0702738653
 20
57.8554002406
 11
126.1480425843
 21
57.8553142994
  0
LWPOLYLINE
  5
643
100
AcDbEntity
  8
0
100
AcDbPolyline
 62
250
  6
CONTINUOUS
 90
13
 70
0
 10
125.994357566
 20
56.0005423337
 10
125.9745920553
 20
56.0010607707
 10
125.9548514639
 20
56.0027450602
 10
125.9351357918
 20
56.0055952022
 10
125.9155613709
 20
56.0094868895
 10
125.8960118693
 20
56.0145444294
 10
125.8761382914
 20
56.0211407431
 10
125.855676441
 20
56.0292849985
 10
125.8348905143
 20
56.0389680277
 10
125.814224105
 20
56.0505352493
 10
125.7936068217
 20
56.0640228393
 10
125.7731090558
 20
56.0793946217
 10
125.7533855748
 20
56.0968874862
  0
LWPOLYLINE
  5
644
100
AcDbEntity
  8
0
100
AcDbPolyline
 62
250
  6
CONTINUOUS
 90
22
 70
0
 10
125.994357566
 20
55.8507479035
 10
125.9662875508
 20
55.8515442946
 10
125.9380572045
 20
55.8539445782
 10
125.9097607658
 20
55.8579835036
 10
125.8818045475
 20
55.8636187793
 10
125.8539740945
 20
55.8709102877
 10
125.8254802267
 20
55.8801962366
 10
125.7962224583
 20
55.8917639209
 10
125.7666818937
 20
55.9056951261
 10
125.73702796
 20
55.9221780931
 10
125.7075184443
 20
55.9413642909
 10
125.6784495827
 20
55.9633798262
 10
125.6501055748
 20
55.9883649552
 10
125.6228574003
 20
56.0163876305
 10
125.5970794642
 20
56.0475022646
 10
125.573129922
 20
56.0817977576
 10
125.5514989945
 20
56.1191800942
 10
125.5326269003
 20
56.1596061634
 10
125.5169194975
 20
56.2032019757
 10
125.5049411158
 20
56.2498529871
 10
125.4973222001
 20
56.2991572047
 10
125.4946468348
 20
56.35070254
  0
LWPOLYLINE
  5
645
100
AcDbEntity
  8
SUPERFICI
100
AcDbPolyline
 62
7
  6
CONTINUOUS
 90
10
 70
0
 10
132.9601433728
 20
54.7215122032
 10
132.8946704514
 20
54.7237028151
 10
132.8300166093
 20
54.7300340052
 10
132.7661818463
 20
54.7405057732
 10
132.702903783
 20
54.7551972295
 10
132.6404447989
 20
54.7740292639
 10
132.5795920328
 20
54.7967645457
 10
132.5206078643
 20
54.8233239649
 10
132.4632299137
 20
54.8537866315
 10
132.4074581811
 20
54.8881525457
  0
LWPOLYLINE
  5
646
100
AcDbEntity
  8
ASSI
100
AcDbPolyline
 62
7
  6
CONTINUOUS
 90
10
 70
0
 10
132.9601433728
 20
54.7215122032
 10
132.8946704514
 20
54.7237028151
 10
132.8300166093
 20
54.7300340052
 10
132.7661818463
 20
54.7405057732
 10
132.702903783
 20
54.7551972295
 10
132.6404447989
 20
54.7740292639
 10
132.5795920328
 20
54.7967645457
 10
132.5206078643
 20
54.8233239649
 10
132.4632299137
 20
54.8537866315
 10
132.4074581811
 20
54.8881525457
  0
LWPOLYLINE
  5
647
100
AcDbEntity
  8
RACCORDO
100
AcDbPolyline
 62
250
  6
CONTINUOUS
 90
16
 70
0
 10
126.1912363064
 20
56.8161544055
 10
126.138995172
 20
56.8189774611
 10
126.0873260698
 20
56.8272093325
 10
126.0367947685
 20
56.8407598821
 10
125.9879545777
 20
56.8594807335
 10
125.9413402899
 20
56.8831668963
 10
125.8974623243
 20
56.9115590108
 10
125.8568011377
 20
56.9443461878
 10
125.8198019637
 20
56.9811694127
 10
125.7868699375
 20
57.0216254771
 10
125.7583656595
 20
57.0652713935
 10
125.7346012471
 20
57.1116292459
 10
125.7158369169
 20
57.160191423
 10
125.7022781354
 20
57.2104261768
 10
125.6940733691
 20
57.2617834445
 10
125.6913124589
 20
57.3137008721
  0
LWPOLYLINE
  5
648
100
AcDbEntity
  8
RACCORDO
100
AcDbPolyline
 62
250
  6
CONTINUOUS
 90
5
 70
0
 10
131.1415454694
 20
56.0872131884
 10
131.155812001
 20
56.0841292228
 10
131.1706427995
 20
56.0819051948
 10
131.1860480972
 20
56.0804666489
 10
131.2020278943
 20
56.0798135849
  0
LWPOLYLINE
  5
649
100
AcDbEntity
  8
0
100
AcDbPolyline
 62
7
  6
CONTINUOUS
 90
6
 70
0
 10
130.9459911789
 20
55.9311006063
 10
130.994266157
 20
55.9046059136
 10
131.0453022277
 20
55.8826735922
 10
131.0990993909
 20
55.8660943264
 10
131.1556576467
 20
55.8553768279
 10
131.214976995
 20
55.8507479035
  0
LINE
  5
64A
100
AcDbEntity
  8
0
100
AcDbLine
 62
7
  6
CONTINUOUS
 10
130.9004772934
 20
55.9610998187
 11
130.9459911789
 21
55.9311006063
  0
LWPOLYLINE
  5
64B
100
AcDbEntity
  8
RACCORDO
100
AcDbPolyline
 62
7
  6
CONTINUOUS
 90
13
 70
0
 10
130.8973374286
 20
55.9634958619
 10
130.9160936695
 20
55.9498529549
 10
130.9360527649
 20
55.9367178096
 10
130.9572249939
 20
55.9242041853
 10
130.9795909574
 20
55.9124416173
 10
131.0031639021
 20
55.9015415624
 10
131.0279941841
 20
55.891608545
 10
131.0540511388
 20
55.8827883054
 10
131.0813038387
 20
55.8752260896
 10
131.1097918276
 20
55.86905773
 10
131.1394817385
 20
55.8644498818
 10
131.1702611289
 20
55.8615812003
 10
131.2020278943
 20
55.8606235371
  0
LWPOLYLINE
  5
64C
100
AcDbEntity
  8
RACCORDO
100
AcDbPolyline
 62
250
  6
CONTINUOUS
 90
9
 70
0
 10
131.0490158676
 20
56.1317586223
 10
131.058461401
 20
56.1247855505
 10
131.0685121033
 20
56.1181854125
 10
131.0791679745
 20
56.1119582083
 10
131.0904290053
 20
56.1060408775
 10
131.102295205
 20
56.1004964806
 10
131.1147666016
 20
56.0955141985
 10
131.127853437
 20
56.091082636
 10
131.1415454694
 20
56.0872131884
  0
LINE
  5
64D
100
AcDbEntity
  8
0
100
AcDbLine
 62
250
  6
CONTINUOUS
 10
131.2020278943
 20
55.8606235371
 11
131.214976995
 21
55.8507479035
  0
LINE
  5
64E
100
AcDbEntity
  8
0
100
AcDbLine
 62
7
  6
CONTINUOUS
 10
130.8973374063
 20
55.9634958789
 11
130.9004772742
 21
55.9610998334
  0
LWPOLYLINE
  5
64F
100
AcDbEntity
  8
0
100
AcDbPolyline
 62
250
  6
CONTINUOUS
 90
10
 70
0
 10
125.7533855748
 20
56.0968874862
 10
125.7343741233
 20
56.1165614942
 10
125.7161369568
 20
56.1383565843
 10
125.699515609
 20
56.1623294621
 10
125.6844490648
 20
56.1885475906
 10
125.6709983392
 20
56.2169435068
 10
125.6601880107
 20
56.2473715273
 10
125.6523596054
 20
56.2797830907
 10
125.6471715971
 20
56.3142267583
 10
125.6446239858
 20
56.3507025301
  0
LWPOLYLINE
  5
650
100
AcDbEntity
  8
RACCORDO
100
AcDbPolyline
 62
250
  6
CONTINUOUS
 90
4
 70
0
 10
125.7103054063
 20
99.7691936062
 10
125.7022776517
 20
99.7368994852
 10
125.6940732368
 20
99.6853323983
 10
125.6913124589
 20
99.6331862119
  0
LINE
  5
651
100
AcDbEntity
  8
RACCORDO
100
AcDbLine
 62
7
  6
CONTINUOUS
 10
125.6041198219
 20
99.3976871874
 11
125.7104881544
 21
99.7698346041
  0
LINE
  5
652
100
AcDbEntity
  8
RACCORDO
100
AcDbLine
 62
250
  6
CONTINUOUS
 10
125.5850008509
 20
99.2612372557
 11
125.6913124588
 21
99.6331862119
  0
LINE
  5
653
100
AcDbEntity
  8
RACCORDO
100
AcDbLine
 62
250
  6
CONTINUOUS
 10
125.5151061357
 20
94.3783194825
 11
125.5106479577
 21
94.3730858615
  0
LWPOLYLINE
  5
654
100
AcDbEntity
  8
RACCORDO
100
AcDbPolyline
 62
250
  6
CONTINUOUS
 90
5
 70
0
 10
147.6850008509
 20
62.0487832431
 10
147.6993471104
 20
62.0505318785
 10
147.7244396798
 20
62.0548552257
 10
147.7431410984
 20
62.0596268445
 10
147.7548955661
 20
62.0647049238
  0
LWPOLYLINE
  5
655
100
AcDbEntity
  8
RACCORDO
100
AcDbPolyline
 62
250
  6
CONTINUOUS
 90
5
 70
0
 10
125.5850008509
 20
62.048783249
 10
125.570671867
 20
62.0505294004
 10
125.5455736309
 20
62.054852828
 10
125.5268667315
 20
62.059624868
 10
125.5151079654
 20
62.0647037554
  0
LINE
  5
656
100
AcDbEntity
  8
RACCORDO
100
AcDbLine
 62
250
  6
CONTINUOUS
 10
125.5151079654
 20
62.0647037554
 11
125.5106479577
 21
62.0699385277
  0
LWPOLYLINE
  5
657
100
AcDbEntity
  8
RACCORDO
100
AcDbPolyline
 62
7
  6
CONTINUOUS
 90
5
 70
0
 10
125.5155112138
 20
61.9269708736
 10
125.5172844406
 20
61.9036308972
 10
125.5370333533
 20
61.7430502503
 10
125.5686431812
 20
61.5891161211
 10
125.5850008509
 20
61.5322952669
  0
LINE
  5
658
100
AcDbEntity
  8
RACCORDO
100
AcDbLine
 62
250
  6
CONTINUOUS
 10
125.5106479577
 20
62.0699385448
 11
125.5155112138
 21
61.9269708736
  0
LINE
  5
659
100
AcDbEntity
  8
RACCORDO
100
AcDbLine
 62
250
  6
CONTINUOUS
 10
125.5154326275
 20
94.5149423903
 11
125.5106479577
 21
94.3730858615
  0
LWPOLYLINE
  5
65A
100
AcDbEntity
  8
RACCORDO
100
AcDbPolyline
 62
7
  6
CONTINUOUS
 90
4
 70
0
 10
125.5850008509
 20
94.915253553
 10
125.5519194628
 20
94.7801693997
 10
125.5283483955
 20
94.6418288125
 10
125.5154326275
 20
94.5149423903
  0
LWPOLYLINE
  5
65B
100
AcDbEntity
  8
0
100
AcDbPolyline
 62
7
  6
CONTINUOUS
 90
8
 70
0
 10
125.5850008509
 20
94.9406186411
 10
125.5668456306
 20
94.8802882108
 10
125.5461585866
 20
94.7984785347
 10
125.5287790588
 20
94.7140697955
 10
125.5145929629
 20
94.6272834674
 10
125.5039158936
 20
94.5381933751
 10
125.4972022607
 20
94.446725694
 10
125.4946468316
 20
94.3528804239
  0
LWPOLYLINE
  5
65C
100
AcDbEntity
  8
0
100
AcDbPolyline
 62
7
  6
CONTINUOUS
 90
3
 70
0
 43
0.3500000006
 10
137.7778540649
 20
121.4730223389
 10
137.7064319458
 20
121.258737854
 10
137.5635695801
 20
120.9730221863
  0
LINE
  5
65D
100
AcDbEntity
  8
SUPERFICI
100
AcDbLine
 62
7
  6
CONTINUOUS
 10
133.4016336485
 20
100.7215122032
 11
133.3350008509
 21
100.6215122032
  0
LINE
  5
65E
100
AcDbEntity
  8
SUPERFICI
100
AcDbLine
 62
7
  6
CONTINUOUS
 10
133.3350008509
 20
55.8215122032
 11
133.4016336485
 21
55.7215122032
  0
LWPOLYLINE
  5
65F
100
AcDbEntity
  8
0
100
AcDbPolyline
 62
7
  6
CONTINUOUS
 90
8
 70
0
 10
125.4946468316
 20
62.0901439824
 10
125.4971434421
 20
61.997456849
 10
125.5037257695
 20
61.9068053088
 10
125.5142488236
 20
61.8181893618
 10
125.5283148298
 20
61.7314652344
 10
125.5456440588
 20
61.6467767001
 10
125.5663488878
 20
61.5645550796
 10
125.5850008509
 20
61.5024281098
  0
LINE
  5
660
100
AcDbEntity
  8
RACCORDO
100
AcDbLine
 62
250
  6
CONTINUOUS
 10
125.6966683978
 20
99.5447330519
 11
125.6977041386
 21
99.4916868281
  0
LINE
  5
661
100
AcDbEntity
  8
RACCORDO
100
AcDbLine
 62
250
  6
CONTINUOUS
 10
125.6977041386
 20
99.4916868281
 11
125.6985593947
 21
99.428495648
  0
LINE
  5
662
100
AcDbEntity
  8
RACCORDO
100
AcDbLine
 62
250
  6
CONTINUOUS
 10
126.1965924326
 20
99.9547491562
 11
126.1976269186
 21
99.8485319576
  0
LINE
  5
663
100
AcDbEntity
  8
RACCORDO
100
AcDbLine
 62
250
  6
CONTINUOUS
 10
125.6985593947
 20
99.428495648
 11
125.6992048842
 21
99.356987602
  0
LINE
  5
664
100
AcDbEntity
  8
RACCORDO
100
AcDbLine
 62
250
  6
CONTINUOUS
 10
126.1976269186
 20
99.8485319576
 11
126.1984813689
 21
99.7224112271
  0
LINE
  5
665
100
AcDbEntity
  8
RACCORDO
100
AcDbLine
 62
250
  6
CONTINUOUS
 10
125.6992048842
 20
99.356987602
 11
125.6996218334
 21
99.2800045625
  0
LINE
  5
666
100
AcDbEntity
  8
RACCORDO
100
AcDbLine
 62
250
  6
CONTINUOUS
 10
126.1984813689
 20
99.7224112271
 11
126.1991268179
 21
99.5798705007
  0
LINE
  5
667
100
AcDbEntity
  8
RACCORDO
100
AcDbLine
 62
250
  6
CONTINUOUS
 10
126.1991268179
 20
99.5798705007
 11
126.1995443952
 21
99.4249074462
  0
LINE
  5
668
100
AcDbEntity
  8
RACCORDO
100
AcDbLine
 62
250
  6
CONTINUOUS
 10
125.6996218334
 20
99.2800045625
 11
125.699803989
 21
99.1983622473
  0
LINE
  5
669
100
AcDbEntity
  8
RACCORDO
100
AcDbLine
 62
250
  6
CONTINUOUS
 10
125.5106479577
 20
94.3730858615
 11
125.545082285
 21
78.272372864
  0
LWPOLYLINE
  5
66A
100
AcDbEntity
  8
RACCORDO
100
AcDbPolyline
 62
250
  6
CONTINUOUS
 90
9
 70
0
 10
125.699803989
 20
99.1983622473
 10
125.7027805849
 20
94.6182981488
 10
125.7050130317
 20
90.0339237845
 10
125.7065013295
 20
85.4452391545
 10
125.707245478
 20
80.8518476662
 10
125.7072454775
 20
76.2541459121
 10
125.7065013284
 20
71.6533236696
 10
125.7050130306
 20
67.0497775313
 10
125.7027805841
 20
62.4431109046
  0
LWPOLYLINE
  5
66B
100
AcDbEntity
  8
RACCORDO
100
AcDbPolyline
 62
250
  6
CONTINUOUS
 90
9
 70
0
 10
126.1995443952
 20
99.4249074462
 10
126.2027044341
 20
94.6778383473
 10
126.2049368823
 20
90.0887389148
 10
126.2064251811
 20
85.4949385852
 10
126.2071693305
 20
80.8968295463
 10
126.2071693305
 20
76.2948042595
 10
126.2064251811
 20
71.6892554263
 10
126.2049368823
 20
67.0805761425
 10
126.2027044342
 20
62.469159866
  0
LINE
  5
66C
100
AcDbEntity
  8
SUPERFICI
100
AcDbLine
 62
7
  6
CONTINUOUS
 10
125.4850008509
 20
94.3411713692
 11
125.4850008509
 21
62.1018530372
  0
LINE
  5
66D
100
AcDbEntity
  8
ASSI
100
AcDbLine
 62
7
  6
CONTINUOUS
 10
125.4850008509
 20
94.3411713692
 11
125.4850008509
 21
62.1018530372
  0
LINE
  5
66E
100
AcDbEntity
  8
0
100
AcDbLine
 62
7
  6
CONTINUOUS
 10
125.4850008509
 20
94.5149423903
 11
125.4850008509
 21
61.9269708736
  0
LINE
  5
66F
100
AcDbEntity
  8
0
100
AcDbLine
 62
250
  6
CONTINUOUS
 10
125.4946468316
 20
100.0923218762
 11
125.4946468316
 21
94.3528804239
  0
LINE
  5
670
100
AcDbEntity
  8
0
100
AcDbLine
 62
250
  6
CONTINUOUS
 10
125.4946468316
 20
56.3507025301
 11
125.4946468316
 21
62.0901439824
  0
LINE
  5
671
100
AcDbEntity
  8
RACCORDO
100
AcDbLine
 62
7
  6
CONTINUOUS
 10
125.5850008509
 20
99.2612372557
 11
125.5850008509
 21
56.6239903971
  0
LINE
  5
672
100
AcDbEntity
  8
0
100
AcDbLine
 62
250
  6
CONTINUOUS
 10
125.6446239858
 20
100.0923218762
 11
125.6446239858
 21
99.5393977852
  0
LINE
  5
673
100
AcDbEntity
  8
0
100
AcDbLine
 62
250
  6
CONTINUOUS
 10
125.6446239858
 20
56.3507025301
 11
125.6446239858
 21
56.3886616875
  0
LINE
  5
674
100
AcDbEntity
  8
0
100
AcDbLine
 62
250
  6
CONTINUOUS
 10
125.994357566
 20
55.8507479035
 11
125.994357566
 21
56.0005423337
  0
LINE
  5
675
100
AcDbEntity
  8
0
100
AcDbLine
 62
250
  6
CONTINUOUS
 10
125.994357566
 20
100.4424820727
 11
125.9943575661
 21
100.5922765029
  0
LINE
  5
676
100
AcDbEntity
  8
RACCORDO
100
AcDbLine
 62
250
  6
CONTINUOUS
 10
125.545082285
 20
78.272372864
 11
125.5450823462
 21
78.170738348
  0
LINE
  5
677
100
AcDbEntity
  8
RACCORDO
100
AcDbLine
 62
250
  6
CONTINUOUS
 10
125.7027805841
 20
62.4431109046
 11
125.6997419999
 21
57.7912671925
  0
LINE
  5
678
100
AcDbEntity
  8
RACCORDO
100
AcDbLine
 62
250
  6
CONTINUOUS
 10
126.2027044342
 20
62.469159866
 11
126.1995443952
 21
57.6887105548
  0
LINE
  5
679
100
AcDbEntity
  8
RACCORDO
100
AcDbLine
 62
250
  6
CONTINUOUS
 10
125.5450823462
 20
78.170738348
 11
125.5106479577
 21
62.0699385448
  0
LINE
  5
67A
100
AcDbEntity
  8
RACCORDO
100
AcDbLine
 62
250
  6
CONTINUOUS
 10
126.1995443952
 20
57.6887105548
 11
126.1991268179
 21
57.5253740463
  0
LINE
  5
67B
100
AcDbEntity
  8
RACCORDO
100
AcDbLine
 62
250
  6
CONTINUOUS
 10
125.6997419999
 20
57.7912671925
 11
125.6994434897
 21
57.7091094567
  0
LINE
  5
67C
100
AcDbEntity
  8
RACCORDO
100
AcDbLine
 62
250
  6
CONTINUOUS
 10
126.1991268179
 20
57.5253740463
 11
126.1984813689
 21
57.3699464722
  0
LINE
  5
67D
100
AcDbEntity
  8
RACCORDO
100
AcDbLine
 62
250
  6
CONTINUOUS
 10
126.1984813689
 20
57.3699464722
 11
126.1976269186
 21
57.2267885074
  0
LINE
  5
67E
100
AcDbEntity
  8
RACCORDO
100
AcDbLine
 62
250
  6
CONTINUOUS
 10
125.6994434897
 20
57.7091094567
 11
125.6989081013
 21
57.628973554
  0
LINE
  5
67F
100
AcDbEntity
  8
RACCORDO
100
AcDbLine
 62
250
  6
CONTINUOUS
 10
126.1976269186
 20
57.2267885074
 11
126.1965924326
 21
57.0998571145
  0
LINE
  5
680
100
AcDbEntity
  8
RACCORDO
100
AcDbLine
 62
250
  6
CONTINUOUS
 10
125.6989081013
 20
57.628973554
 11
125.6981577285
 21
57.5541304944
  0
LWPOLYLINE
  5
681
100
AcDbEntity
  8
RACCORDO
100
AcDbPolyline
 62
250
  6
CONTINUOUS
 90
8
 70
0
 10
126.1965924326
 20
57.0998571145
 10
126.195399118
 20
56.9926690027
 10
126.1947559496
 20
56.9474233357
 10
126.1940822405
 20
56.9081837171
 10
126.1933920188
 20
56.8752309886
 10
126.1926899606
 20
56.8487951924
 10
126.1919713898
 20
56.8290574969
 10
126.1912363064
 20
56.8161544055
  0
LINE
  5
682
100
AcDbEntity
  8
RACCORDO
100
AcDbLine
 62
250
  6
CONTINUOUS
 10
125.6981577285
 20
57.5541304944
 11
125.6972079861
 21
57.4861834271
  0
LWPOLYLINE
  5
683
100
AcDbEntity
  8
RACCORDO
100
AcDbPolyline
 62
250
  6
CONTINUOUS
 90
9
 70
0
 10
125.6972079861
 20
57.4861834271
 10
125.6960862469
 20
57.4273516137
 10
125.6954735146
 20
57.4019000729
 10
125.6948292469
 20
57.3793396917
 10
125.6941543978
 20
57.3596161921
 10
125.6934638101
 20
57.3431486525
 10
125.6927624315
 20
57.3300767657
 10
125.6920453145
 20
57.3202608389
 10
125.6913124589
 20
57.3137008721
  0
LINE
  5
684
100
AcDbEntity
  8
RACCORDO
100
AcDbLine
 62
250
  6
CONTINUOUS
 10
125.6913124589
 20
57.3137008721
 11
125.5850008509
 21
56.6239903971
  0
LINE
  5
685
100
AcDbEntity
  8
SUPERFICI
100
AcDbLine
 62
7
  6
CONTINUOUS
 10
133.2501285739
 20
100.6215122032
 11
133.2669404174
 21
100.6996054359
  0
LINE
  5
686
100
AcDbEntity
  8
ASSI
100
AcDbLine
 62
7
  6
CONTINUOUS
 10
133.2501285739
 20
100.6215122032
 11
133.2669404174
 21
100.6996054359
  0
LWPOLYLINE
  5
687
100
AcDbEntity
  8
RACCORDO
100
AcDbPolyline
 62
250
  6
CONTINUOUS
 90
10
 70
0
 10
142.2209858343
 20
100.3112657841
 10
142.2458289539
 20
100.3429253762
 10
142.2700073994
 20
100.3729227713
 10
142.2928742817
 20
100.4004553957
 10
142.3138178023
 20
100.4247866199
 10
142.3322776221
 20
100.4452654674
 10
142.3477598526
 20
100.4613440312
 10
142.3598502699
 20
100.4725921327
 10
142.3682253977
 20
100.4787088315
 10
142.3726611611
 20
100.4795304768
  0
LWPOLYLINE
  5
688
100
AcDbEntity
  8
RACCORDO
100
AcDbPolyline
 62
250
  6
CONTINUOUS
 90
16
 70
0
 10
147.5701977128
 20
57.8333237896
 10
147.5666174642
 20
57.8356793654
 10
147.5577192434
 20
57.8380015491
 10
147.5435983887
 20
57.84026546
 10
147.5244061951
 20
57.8424468419
 10
147.5003482935
 20
57.8445223228
 10
147.4716824474
 20
57.8464696654
 10
147.4387157914
 20
57.8482680052
 10
147.4018015399
 20
57.8498980744
 10
147.3613352034
 20
57.8513424079
 10
147.3177503502
 20
57.8525855307
 10
147.2715139615
 20
57.8536141237
 10
147.2231214278
 20
57.8544171665
 10
147.1730912411
 20
57.8549860552
 10
147.1219594398
 20
57.8553146947
 10
147.0702738653
 20
57.8553995637
  0
LWPOLYLINE
  5
689
100
AcDbEntity
  8
RACCORDO
100
AcDbPolyline
 62
250
  6
CONTINUOUS
 90
10
 70
0
 10
142.2209858343
 20
56.1317586223
 10
142.2458285609
 20
56.1000996551
 10
142.2700065446
 20
56.0701029447
 10
142.2928729278
 20
56.0425710229
 10
142.3138159434
 20
56.0182404788
 10
142.332275282
 20
55.9977622514
 10
142.3477570825
 20
55.9816842153
 10
142.3598471451
 20
55.9704365222
 10
142.3682220121
 20
55.9643200927
 10
142.3726576225
 20
55.9634985658
  0
LINE
  5
68A
100
AcDbEntity
  8
SUPERFICI
100
AcDbLine
 62
7
  6
CONTINUOUS
 10
133.2501285739
 20
55.8215122032
 11
133.2669404174
 21
55.7434189704
  0
LINE
  5
68B
100
AcDbEntity
  8
ASSI
100
AcDbLine
 62
7
  6
CONTINUOUS
 10
133.2501285739
 20
55.8215122032
 11
133.2669404174
 21
55.7434189704
  0
LINE
  5
68C
100
AcDbEntity
  8
RACCORDO
100
AcDbLine
 62
250
  6
CONTINUOUS
 10
131.2020278943
 20
56.0798135849
 11
131.2020278943
 21
55.8606235371
  0
LINE
  5
68D
100
AcDbEntity
  8
RACCORDO
100
AcDbLine
 62
250
  6
CONTINUOUS
 10
131.2020278943
 20
100.3632108214
 11
131.2020278943
 21
100.5824008692
  0
LINE
  5
68E
100
AcDbEntity
  8
RACCORDO
100
AcDbLine
 62
250
  6
CONTINUOUS
 10
126.1912363064
 20
56.8161544055
 11
126.0848485548
 21
56.1259499382
  0
LWPOLYLINE
  5
68F
100
AcDbEntity
  8
RACCORDO
100
AcDbPolyline
 62
250
  6
CONTINUOUS
 90
10
 70
0
 10
147.0782234646
 20
100.1333582312
 10
147.0780302877
 20
100.1331069552
 10
147.077311729
 20
100.1277531352
 10
147.0766097194
 20
100.1154685533
 10
147.0759196223
 20
100.0963379818
 10
147.0752460743
 20
100.0704945915
 10
147.0746029848
 20
100.0381204413
 10
147.0739909607
 20
99.9994419788
 10
147.0734093951
 20
99.9547296739
 10
147.0723748924
 20
99.8485129731
  0
LINE
  5
690
100
AcDbEntity
  8
RACCORDO
100
AcDbLine
 62
7
  6
CONTINUOUS
 10
133.1651805912
 20
55.7215122032
 11
133.1651805912
 21
55.8215122032
  0
LINE
  5
691
100
AcDbEntity
  8
ASSI
100
AcDbLine
 62
7
  6
CONTINUOUS
 10
133.1651805912
 20
55.7215122032
 11
133.1651805912
 21
55.8215122032
  0
LINE
  5
692
100
AcDbEntity
  8
RACCORDO
100
AcDbLine
 62
7
  6
CONTINUOUS
 10
133.1651805912
 20
100.6215122032
 11
133.1651805912
 21
100.7215122032
  0
LINE
  5
693
100
AcDbEntity
  8
ASSI
100
AcDbLine
 62
7
  6
CONTINUOUS
 10
133.1651805912
 20
100.6215122032
 11
133.1651805912
 21
100.7215122032
  0
LINE
  5
694
100
AcDbEntity
  8
SUPERFICI
100
AcDbLine
 62
7
  6
CONTINUOUS
 10
140.0501285739
 20
100.6215122032
 11
140.0635010096
 21
100.6836289328
  0
LINE
  5
695
100
AcDbEntity
  8
ASSI
100
AcDbLine
 62
7
  6
CONTINUOUS
 10
140.0501285739
 20
100.6215122032
 11
140.0635010096
 21
100.6836289328
  0
LWPOLYLINE
  5
696
100
AcDbEntity
  8
RACCORDO
100
AcDbPolyline
 62
250
  6
CONTINUOUS
 90
5
 70
0
 10
147.6850008509
 20
78.053205044
 10
147.6901499508
 20
78.0540922135
 10
147.7088513535
 20
78.058863831
 10
147.7206058077
 20
78.0639419074
 10
147.7250639797
 20
78.0691755239
  0
LWPOLYLINE
  5
697
100
AcDbEntity
  8
0
100
AcDbPolyline
 62
7
  6
CONTINUOUS
 90
2
 70
0
 43
0.3500000006
 10
164.5105550537
 20
76.8643710022
 10
163.0105455322
 20
76.8643710022
  0
LWPOLYLINE
  5
698
100
AcDbEntity
  8
0
100
AcDbPolyline
 62
7
  6
CONTINUOUS
 90
4
 70
0
 43
0.3500000006
 10
162.1534075928
 20
78.2215090942
 10
161.5105541382
 20
78.2215090942
 10
161.5105541382
 20
79.721509552
 10
164.5105550537
 20
78.8643716125
  0
LWPOLYLINE
  5
699
100
AcDbEntity
  8
RACCORDO
100
AcDbPolyline
 62
250
  6
CONTINUOUS
 90
5
 70
0
 10
125.5850008509
 20
78.0532050434
 10
125.5798517863
 20
78.0540922062
 10
125.5611503678
 20
78.0588638248
 10
125.5493959001
 20
78.0639419036
 10
125.5449377222
 20
78.0691755239
  0
LINE
  5
69A
100
AcDbEntity
  8
SUPERFICI
100
AcDbLine
 62
7
  6
CONTINUOUS
 10
140.0501285739
 20
55.8215122032
 11
140.0635010096
 21
55.7593954735
  0
LINE
  5
69B
100
AcDbEntity
  8
ASSI
100
AcDbLine
 62
7
  6
CONTINUOUS
 10
140.0501285739
 20
55.8215122032
 11
140.0635010096
 21
55.7593954735
  0
LINE
  5
69C
100
AcDbEntity
  8
RACCORDO
100
AcDbLine
 62
7
  6
CONTINUOUS
 10
140.1048211106
 20
100.7215122032
 11
140.1048211106
 21
100.6215122032
  0
LINE
  5
69D
100
AcDbEntity
  8
ASSI
100
AcDbLine
 62
7
  6
CONTINUOUS
 10
140.1048211106
 20
100.7215122032
 11
140.1048211106
 21
100.6215122032
  0
LINE
  5
69E
100
AcDbEntity
  8
RACCORDO
100
AcDbLine
 62
7
  6
CONTINUOUS
 10
140.1048211106
 20
55.8215122032
 11
140.1048211106
 21
55.7215122032
  0
LINE
  5
69F
100
AcDbEntity
  8
ASSI
100
AcDbLine
 62
7
  6
CONTINUOUS
 10
140.1048211106
 20
55.8215122032
 11
140.1048211106
 21
55.7215122032
  0
LINE
  5
6A0
100
AcDbEntity
  8
SUPERFICI
100
AcDbLine
 62
7
  6
CONTINUOUS
 10
133.219873128
 20
55.8215122032
 11
133.2065006922
 21
55.7593954735
  0
LINE
  5
6A1
100
AcDbEntity
  8
ASSI
100
AcDbLine
 62
7
  6
CONTINUOUS
 10
133.219873128
 20
55.8215122032
 11
133.2065006922
 21
55.7593954735
  0
LWPOLYLINE
  5
6A2
100
AcDbEntity
  8
RACCORDO
100
AcDbPolyline
 62
250
  6
CONTINUOUS
 90
5
 70
0
 10
125.5850008509
 20
78.3898193626
 10
125.5798517676
 20
78.3889321963
 10
125.5611503575
 20
78.3841605783
 10
125.549395897
 20
78.3790825007
 10
125.5449377222
 20
78.3738488824
  0
LWPOLYLINE
  5
6A3
100
AcDbEntity
  8
RACCORDO
100
AcDbPolyline
 62
250
  6
CONTINUOUS
 90
5
 70
0
 10
147.6850008509
 20
78.389819363
 10
147.6901499156
 20
78.3889322001
 10
147.708851334
 20
78.3841605816
 10
147.7206058017
 20
78.3790825027
 10
147.7250639797
 20
78.3738488824
  0
LINE
  5
6A4
100
AcDbEntity
  8
SUPERFICI
100
AcDbLine
 62
7
  6
CONTINUOUS
 10
133.219873128
 20
100.6215122032
 11
133.2065006922
 21
100.6836289328
  0
LINE
  5
6A5
100
AcDbEntity
  8
ASSI
100
AcDbLine
 62
7
  6
CONTINUOUS
 10
133.219873128
 20
100.6215122032
 11
133.2065006922
 21
100.6836289328
  0
LINE
  5
6A6
100
AcDbEntity
  8
RACCORDO
100
AcDbLine
 62
250
  6
CONTINUOUS
 10
142.0679738076
 20
56.0798135849
 11
142.0679738076
 21
55.8606235371
  0
LINE
  5
6A7
100
AcDbEntity
  8
RACCORDO
100
AcDbLine
 62
250
  6
CONTINUOUS
 10
142.0679738076
 20
100.3632108214
 11
142.0679738076
 21
100.5824008692
  0
LINE
  5
6A8
100
AcDbEntity
  8
SUPERFICI
100
AcDbLine
 62
7
  6
CONTINUOUS
 10
140.019873128
 20
55.8215122032
 11
140.0030612845
 21
55.7434189704
  0
LINE
  5
6A9
100
AcDbEntity
  8
ASSI
100
AcDbLine
 62
7
  6
CONTINUOUS
 10
140.019873128
 20
55.8215122032
 11
140.0030612845
 21
55.7434189704
  0
LWPOLYLINE
  5
6AA
100
AcDbEntity
  8
RACCORDO
100
AcDbPolyline
 62
250
  6
CONTINUOUS
 90
9
 70
0
 10
126.1917780952
 20
100.1333582366
 10
126.1919713898
 20
100.133107114
 10
126.1926899606
 20
100.127754336
 10
126.1933920188
 20
100.1154709675
 10
126.1940822405
 20
100.0963402723
 10
126.1947559496
 20
100.0704950668
 10
126.195399118
 20
100.0381205881
 10
126.1960110457
 20
99.9994490732
 10
126.1965924326
 20
99.9547491562
  0
LINE
  5
6AB
100
AcDbEntity
  8
SUPERFICI
100
AcDbLine
 62
7
  6
CONTINUOUS
 10
140.019873128
 20
100.6215122032
 11
140.0030612845
 21
100.6996054359
  0
LINE
  5
6AC
100
AcDbEntity
  8
ASSI
100
AcDbLine
 62
7
  6
CONTINUOUS
 10
140.019873128
 20
100.6215122032
 11
140.0030612845
 21
100.6996054359
  0
LINE
  5
6AD
100
AcDbEntity
  8
RACCORDO
100
AcDbLine
 62
250
  6
CONTINUOUS
 10
147.0787653954
 20
56.8161544055
 11
147.1851531471
 21
56.1259499382
  0
LINE
  5
6AE
100
AcDbEntity
  8
RACCORDO
100
AcDbLine
 62
250
  6
CONTINUOUS
 10
147.578689243
 20
57.3137008721
 11
147.6850008509
 21
56.6239903971
  0
LWPOLYLINE
  5
6AF
100
AcDbEntity
  8
RACCORDO
100
AcDbPolyline
 62
7
  6
CONTINUOUS
 90
5
 70
0
 10
147.754490488
 20
94.5160535327
 10
147.7527172613
 20
94.5393935092
 10
147.7329683486
 20
94.6999741561
 10
147.7013585207
 20
94.8539082852
 10
147.6850008509
 20
94.9107291394
  0
LWPOLYLINE
  5
6B0
100
AcDbEntity
  8
RACCORDO
100
AcDbPolyline
 62
250
  6
CONTINUOUS
 90
4
 70
0
 10
147.578689243
 20
99.6331862119
 10
147.5759284903
 20
99.6853321603
 10
147.5677241422
 20
99.7368990538
 10
147.5595529757
 20
99.7696965825
  0
LINE
  5
6B1
100
AcDbEntity
  8
RACCORDO
100
AcDbLine
 62
250
  6
CONTINUOUS
 10
147.7593537441
 20
94.3730858615
 11
147.754490488
 21
94.5160535327
  0
LWPOLYLINE
  5
6B2
100
AcDbEntity
  8
RACCORDO
100
AcDbPolyline
 62
250
  6
CONTINUOUS
 90
7
 70
0
 10
147.5745312513
 20
57.4017844415
 10
147.575175476
 20
57.379244468
 10
147.5758501886
 20
57.3595423821
 10
147.5765404187
 20
57.3430952709
 10
147.577241176
 20
57.3300421633
 10
147.5779574508
 20
57.3202440304
 10
147.578689243
 20
57.3137008721
  0
LWPOLYLINE
  5
6B3
100
AcDbEntity
  8
0
100
AcDbPolyline
 62
7
  6
CONTINUOUS
 90
8
 70
0
 10
147.7753548703
 20
94.3528804239
 10
147.7727982761
 20
94.4467486946
 10
147.7660819421
 20
94.5382334909
 10
147.7554014896
 20
94.6273348127
 10
147.7412120893
 20
94.7141263042
 10
147.7238301235
 20
94.7985343212
 10
147.7031424671
 20
94.8803379311
 10
147.6850008509
 20
94.9406194507
  0
LWPOLYLINE
  5
6B4
100
AcDbEntity
  8
0
100
AcDbPolyline
 62
250
  6
CONTINUOUS
 90
25
 70
0
 10
147.7753548703
 20
100.0923218762
 10
147.7747492061
 20
100.1168038381
 10
147.7728593773
 20
100.1421040438
 10
147.7695566088
 20
100.1681474822
 10
147.7647205668
 20
100.1948071538
 10
147.7582206566
 20
100.2220178875
 10
147.7498963597
 20
100.2497705183
 10
147.7396274622
 20
100.2778779366
 10
147.7272702102
 20
100.3062242209
 10
147.7125756175
 20
100.3348537397
 10
147.6951023501
 20
100.3639802819
 10
147.674937199
 20
100.3928609015
 10
147.6528307214
 20
100.4202017463
 10
147.6291647641
 20
100.445613053
 10
147.6038398628
 20
100.4692783252
 10
147.5771528049
 20
100.4909673744
 10
147.5495280837
 20
100.5104486784
 10
147.5208864178
 20
100.5278845079
 10
147.4907219226
 20
100.5435597191
 10
147.4591489659
 20
100.5573113764
 10
147.426262004
 20
100.5689959547
 10
147.3914166871
 20
100.5786490486
 10
147.3544616551
 20
100.5859996217
 10
147.31580419
 20
100.5906484262
 10
147.2756441358
 20
100.5922765029
  0
LINE
  5
6B5
100
AcDbEntity
  8
RACCORDO
100
AcDbLine
 62
250
  6
CONTINUOUS
 10
147.57333619
 20
57.4554911328
 11
147.5745312513
 21
57.4017844415
  0
LWPOLYLINE
  5
6B6
100
AcDbEntity
  8
0
100
AcDbPolyline
 62
250
  6
CONTINUOUS
 90
25
 70
0
 10
147.625377716
 20
100.0923218762
 10
147.625107639
 20
100.1095777072
 10
147.6237594328
 20
100.127284525
 10
147.6213330974
 20
100.1454423298
 10
147.6179271383
 20
100.1641117937
 10
147.6134430499
 20
100.1832322444
 10
147.6075853159
 20
100.2026216657
 10
147.6003789671
 20
100.2223023312
 10
147.5917989727
 20
100.2422519672
 10
147.5814747238
 20
100.2622217367
 10
147.5691144854
 20
100.2825138908
 10
147.5550099925
 20
100.3028261783
 10
147.5396658414
 20
100.3220030092
 10
147.5231159463
 20
100.3397523243
 10
147.5053263929
 20
100.3563661827
 10
147.4867000342
 20
100.3715651721
 10
147.4674261537
 20
100.3852387784
 10
147.4473154679
 20
100.3974975156
 10
147.4262029795
 20
100.4083935136
 10
147.4041268767
 20
100.4180468962
 10
147.3810489713
 20
100.4263375397
 10
147.3566897008
 20
100.4329572032
 10
147.3309558776
 20
100.4378031397
 10
147.3039406893
 20
100.4409780962
 10
147.2756441358
 20
100.4424820727
  0
LINE
  5
6B7
100
AcDbEntity
  8
RACCORDO
100
AcDbLine
 62
250
  6
CONTINUOUS
 10
147.5723002811
 20
57.5188316715
 11
147.57333619
 21
57.4554911328
  0
LWPOLYLINE
  5
6B8
100
AcDbEntity
  8
RACCORDO
100
AcDbPolyline
 62
250
  6
CONTINUOUS
 90
7
 70
0
 10
147.0746029848
 20
56.9926692015
 10
147.0752460743
 20
56.9474240254
 10
147.0759196223
 20
56.9081873937
 10
147.0766097193
 20
56.8752355526
 10
147.077311729
 20
56.8487983362
 10
147.0780302877
 20
56.8290588832
 10
147.0787653954
 20
56.8161544055
  0
LINE
  5
6B9
100
AcDbEntity
  8
RACCORDO
100
AcDbLine
 62
250
  6
CONTINUOUS
 10
147.5714448579
 20
57.5905053735
 11
147.5723002811
 21
57.5188316715
  0
LINE
  5
6BA
100
AcDbEntity
  8
RACCORDO
100
AcDbLine
 62
250
  6
CONTINUOUS
 10
147.0734093951
 20
57.0998811726
 11
147.0746029848
 21
56.9926692015
  0
LINE
  5
6BB
100
AcDbEntity
  8
RACCORDO
100
AcDbLine
 62
250
  6
CONTINUOUS
 10
147.0723748924
 20
57.2268105767
 11
147.0734093951
 21
57.0998811726
  0
LINE
  5
6BC
100
AcDbEntity
  8
RACCORDO
100
AcDbLine
 62
250
  6
CONTINUOUS
 10
147.5707986684
 20
57.6684198786
 11
147.5714448579
 21
57.5905053735
  0
LINE
  5
6BD
100
AcDbEntity
  8
RACCORDO
100
AcDbLine
 62
250
  6
CONTINUOUS
 10
147.071520687
 20
57.369932783
 11
147.0723748924
 21
57.2268105767
  0
LINE
  5
6BE
100
AcDbEntity
  8
RACCORDO
100
AcDbLine
 62
250
  6
CONTINUOUS
 10
147.5703808452
 20
57.7496433368
 11
147.5707986684
 21
57.6684198786
  0
LINE
  5
6BF
100
AcDbEntity
  8
RACCORDO
100
AcDbLine
 62
250
  6
CONTINUOUS
 10
147.0708749803
 20
57.5253901988
 11
147.071520687
 21
57.369932783
  0
LINE
  5
6C0
100
AcDbEntity
  8
RACCORDO
100
AcDbLine
 62
250
  6
CONTINUOUS
 10
147.0704572437
 20
57.688738917
 11
147.0708749803
 21
57.5253901988
  0
LINE
  5
6C1
100
AcDbEntity
  8
RACCORDO
100
AcDbLine
 62
250
  6
CONTINUOUS
 10
147.5701977129
 20
57.8333237896
 11
147.5703808452
 21
57.7496433368
  0
LINE
  5
6C2
100
AcDbEntity
  8
RACCORDO
100
AcDbLine
 62
250
  6
CONTINUOUS
 10
147.7593537441
 20
62.0699385448
 11
147.7249193557
 21
78.1707383433
  0
LINE
  5
6C3
100
AcDbEntity
  8
0
100
AcDbLine
 62
250
  6
CONTINUOUS
 10
147.2756441358
 20
55.8507479035
 11
147.2756441358
 21
56.0005423337
  0
LINE
  5
6C4
100
AcDbEntity
  8
0
100
AcDbLine
 62
250
  6
CONTINUOUS
 10
147.2756441358
 20
100.4424820727
 11
147.2756441358
 21
100.5922765029
  0
LINE
  5
6C5
100
AcDbEntity
  8
0
100
AcDbLine
 62
250
  6
CONTINUOUS
 10
147.625377716
 20
56.3886617078
 11
147.625377716
 21
56.3507025301
  0
LINE
  5
6C6
100
AcDbEntity
  8
0
100
AcDbLine
 62
250
  6
CONTINUOUS
 10
147.625377716
 20
99.5393977852
 11
147.625377716
 21
100.0923218762
  0
LINE
  5
6C7
100
AcDbEntity
  8
RACCORDO
100
AcDbLine
 62
7
  6
CONTINUOUS
 10
147.6850008509
 20
99.2612372557
 11
147.6850008509
 21
56.6239903971
  0
LINE
  5
6C8
100
AcDbEntity
  8
0
100
AcDbLine
 62
250
  6
CONTINUOUS
 10
147.7753548703
 20
62.0901439824
 11
147.7753548703
 21
56.3507025301
  0
LINE
  5
6C9
100
AcDbEntity
  8
0
100
AcDbLine
 62
250
  6
CONTINUOUS
 10
147.7753548703
 20
94.3528804239
 11
147.7753548703
 21
100.0923218762
  0
LINE
  5
6CA
100
AcDbEntity
  8
0
100
AcDbLine
 62
7
  6
CONTINUOUS
 10
147.7850008509
 20
94.5160535327
 11
147.7850008509
 21
61.928082016
  0
LINE
  5
6CB
100
AcDbEntity
  8
SUPERFICI
100
AcDbLine
 62
7
  6
CONTINUOUS
 10
147.7850008509
 20
62.1018530372
 11
147.7850008509
 21
94.3411713692
  0
LINE
  5
6CC
100
AcDbEntity
  8
ASSI
100
AcDbLine
 62
7
  6
CONTINUOUS
 10
147.7850008509
 20
62.1018530372
 11
147.7850008509
 21
94.3411713692
  0
LWPOLYLINE
  5
6CD
100
AcDbEntity
  8
RACCORDO
100
AcDbPolyline
 62
250
  6
CONTINUOUS
 90
9
 70
0
 10
147.0672972676
 20
94.6778383458
 10
147.0650648193
 20
90.0887389123
 10
147.0635765205
 20
85.4949385821
 10
147.0628323712
 20
80.8968295432
 10
147.0628323714
 20
76.2948042568
 10
147.0635765208
 20
71.6892554241
 10
147.0650648196
 20
67.080576141
 10
147.0672972678
 20
62.4691598651
 10
147.0704572437
 20
57.688738917
  0
LWPOLYLINE
  5
6CE
100
AcDbEntity
  8
RACCORDO
100
AcDbPolyline
 62
250
  6
CONTINUOUS
 90
9
 70
0
 10
147.5672211195
 20
94.6183069891
 10
147.5649886741
 20
90.0339386162
 10
147.5635003765
 20
85.4452571285
 10
147.5627562262
 20
80.8518650817
 10
147.5627562238
 20
76.2541599202
 10
147.5635003711
 20
71.6533339769
 10
147.5649886687
 20
67.0497846962
 10
147.5672211159
 20
62.4431146338
 10
147.5701977129
 20
57.8333237896
  0
LINE
  5
6CF
100
AcDbEntity
  8
RACCORDO
100
AcDbLine
 62
250
  6
CONTINUOUS
 10
147.7249193557
 20
78.1707383433
 11
147.7249515487
 21
78.3062158092
  0
LINE
  5
6D0
100
AcDbEntity
  8
RACCORDO
100
AcDbLine
 62
250
  6
CONTINUOUS
 10
147.0704572436
 20
99.4248801153
 11
147.0672972676
 21
94.6778383458
  0
LINE
  5
6D1
100
AcDbEntity
  8
RACCORDO
100
AcDbLine
 62
250
  6
CONTINUOUS
 10
147.7249515487
 20
78.3062158092
 11
147.7593537441
 21
94.3730858615
  0
LINE
  5
6D2
100
AcDbEntity
  8
RACCORDO
100
AcDbLine
 62
250
  6
CONTINUOUS
 10
147.5703808452
 20
99.2802138863
 11
147.5672211195
 21
94.6183069891
  0
LINE
  5
6D3
100
AcDbEntity
  8
RACCORDO
100
AcDbLine
 62
250
  6
CONTINUOUS
 10
147.0708749803
 20
99.5798554254
 11
147.0704572436
 21
99.4248801153
  0
LINE
  5
6D4
100
AcDbEntity
  8
RACCORDO
100
AcDbLine
 62
250
  6
CONTINUOUS
 10
147.071520687
 20
99.7224235444
 11
147.0708749803
 21
99.5798554254
  0
LINE
  5
6D5
100
AcDbEntity
  8
RACCORDO
100
AcDbLine
 62
250
  6
CONTINUOUS
 10
147.5707986684
 20
99.3572648374
 11
147.5703808452
 21
99.2802138863
  0
LINE
  5
6D6
100
AcDbEntity
  8
RACCORDO
100
AcDbLine
 62
250
  6
CONTINUOUS
 10
147.0723748924
 20
99.8485129731
 11
147.071520687
 21
99.7224235444
  0
LINE
  5
6D7
100
AcDbEntity
  8
RACCORDO
100
AcDbLine
 62
250
  6
CONTINUOUS
 10
147.5714448579
 20
99.4287263009
 11
147.5707986684
 21
99.3572648374
  0
LINE
  5
6D8
100
AcDbEntity
  8
RACCORDO
100
AcDbLine
 62
250
  6
CONTINUOUS
 10
147.5723002811
 20
99.4918574917
 11
147.5714448579
 21
99.4287263009
  0
LWPOLYLINE
  5
6D9
100
AcDbEntity
  8
0
100
AcDbPolyline
 62
250
  6
CONTINUOUS
 90
14
 70
0
 10
147.625377716
 20
56.3507025301
 10
147.6249863678
 20
56.3325332154
 10
147.6235415214
 20
56.3142066257
 10
147.621043177
 20
56.295722761
 10
147.6175985121
 20
56.2771373209
 10
147.6131003492
 20
56.2583946058
 10
147.607227155
 20
56.2393275171
 10
147.5999758652
 20
56.2197605899
 10
147.5913495441
 20
56.1998692891
 10
147.5810358521
 20
56.1800129105
 10
147.5689082954
 20
56.1600562537
 10
147.5550933677
 20
56.1401345191
 10
147.5396582105
 20
56.1210126035
 10
147.5223192961
 20
56.1026572053
  0
LWPOLYLINE
  5
6DA
100
AcDbEntity
  8
0
100
AcDbPolyline
 62
250
  6
CONTINUOUS
 90
25
 70
0
 10
147.7753548703
 20
56.3507025301
 10
147.7746828931
 20
56.3249096596
 10
147.7726342718
 20
56.2987238353
 10
147.7691417485
 20
56.2722228273
 10
147.7641848376
 20
56.2456925101
 10
147.7576825649
 20
56.2190197137
 10
147.7493843269
 20
56.1917189769
 10
147.7390728398
 20
56.1637646801
 10
147.7266514233
 20
56.1354975953
 10
147.7119484075
 20
56.1070431934
 10
147.6947267877
 20
56.0784643148
 10
147.674945604
 20
56.0501742997
 10
147.6528198162
 20
56.0228101069
 10
147.6281574349
 20
55.9964056963
 10
147.601143659
 20
55.9714135251
 10
147.5728644159
 20
55.9488462596
 10
147.5440841315
 20
55.9290562761
 10
147.5145377658
 20
55.9116219947
 10
147.4838834873
 20
55.8962646326
 10
147.4523665069
 20
55.883089835
 10
147.4200423395
 20
55.8721049835
 10
147.3861672493
 20
55.863153547
 10
147.3505568884
 20
55.8564156128
 10
147.3136554609
 20
55.8522065231
 10
147.2756441358
 20
55.8507479035
  0
LINE
  5
6DB
100
AcDbEntity
  8
RACCORDO
100
AcDbLine
 62
250
  6
CONTINUOUS
 10
147.7545690743
 20
61.928082016
 11
147.7593537441
 21
62.0699385448
  0
LWPOLYLINE
  5
6DC
100
AcDbEntity
  8
RACCORDO
100
AcDbPolyline
 62
250
  6
CONTINUOUS
 90
16
 70
0
 10
147.578689243
 20
57.3137008721
 10
147.5759283328
 20
57.2617834445
 10
147.5677235665
 20
57.2104261768
 10
147.5541647849
 20
57.1601914231
 10
147.5354004548
 20
57.1116292459
 10
147.5116360424
 20
57.0652713936
 10
147.4831317644
 20
57.0216254772
 10
147.4501997382
 20
56.9811694128
 10
147.4132005642
 20
56.9443461878
 10
147.3725393776
 20
56.9115590109
 10
147.328661412
 20
56.8831668964
 10
147.2820471243
 20
56.8594807335
 10
147.2332069335
 20
56.8407598821
 10
147.1826756321
 20
56.8272093325
 10
147.1310065299
 20
56.818977461
 10
147.0787653954
 20
56.8161544055
  0
LWPOLYLINE
  5
6DD
100
AcDbEntity
  8
RACCORDO
100
AcDbPolyline
 62
250
  6
CONTINUOUS
 90
10
 70
0
 10
131.0490158676
 20
56.1317586223
 10
131.0241727479
 20
56.1000990301
 10
130.9999943025
 20
56.070101635
 10
130.9771274202
 20
56.0425690106
 10
130.9561838995
 20
56.0182377864
 10
130.9377240797
 20
55.9977589389
 10
130.9222418493
 20
55.9816803752
 10
130.9101514319
 20
55.9704322737
 10
130.9017763041
 20
55.9643155748
 10
130.8973405408
 20
55.9634939295
  0
LWPOLYLINE
  5
6DE
100
AcDbEntity
  8
RACCORDO
100
AcDbPolyline
 62
250
  6
CONTINUOUS
 90
10
 70
0
 10
131.0490158676
 20
100.311265784
 10
131.024173141
 20
100.3429247513
 10
130.9999951572
 20
100.3729214617
 10
130.977128774
 20
100.4004533834
 10
130.9561857585
 20
100.4247839276
 10
130.9377264199
 20
100.4452621549
 10
130.9222446193
 20
100.461340191
 10
130.9101545568
 20
100.4725878842
 10
130.9017796897
 20
100.4787043137
 10
130.8973440794
 20
100.4795258406
  0
LWPOLYLINE
  5
6DF
100
AcDbEntity
  8
RACCORDO
100
AcDbPolyline
 62
7
  6
CONTINUOUS
 90
4
 70
0
 10
147.6850008509
 20
61.5277708534
 10
147.718082239
 20
61.6628550066
 10
147.7416533063
 20
61.8011955938
 10
147.7545690743
 20
61.928082016
  0
LWPOLYLINE
  5
6E0
100
AcDbEntity
  8
0
100
AcDbPolyline
 62
7
  6
CONTINUOUS
 90
8
 70
0
 10
147.6850008509
 20
61.5024186241
 10
147.7033785517
 20
61.5635500163
 10
147.7240564322
 20
61.6454632378
 10
147.7413969343
 20
61.7298894715
 10
147.7555290026
 20
61.8165941224
 10
147.766150081
 20
61.905498992
 10
147.7728188414
 20
61.9966822786
 10
147.7753548703
 20
62.0901439824
  0
LINE
  5
6E1
100
AcDbEntity
  8
SUPERFICI
100
AcDbLine
 62
7
  6
CONTINUOUS
 10
139.9350008509
 20
55.8215122032
 11
139.8683680533
 21
55.7215122032
  0
LINE
  5
6E2
100
AcDbEntity
  8
SUPERFICI
100
AcDbLine
 62
7
  6
CONTINUOUS
 10
139.8683680533
 20
100.7215122032
 11
139.9350008509
 21
100.6215122032
  0
LINE
  5
6E3
100
AcDbEntity
  8
RACCORDO
100
AcDbLine
 62
250
  6
CONTINUOUS
 10
147.6850008509
 20
99.2612372557
 11
147.578689243
 21
99.6331862119
  0
LINE
  5
6E4
100
AcDbEntity
  8
RACCORDO
100
AcDbLine
 62
7
  6
CONTINUOUS
 10
147.66588188
 20
99.3976871874
 11
147.5595135475
 21
99.7698346041
  0
LINE
  5
6E5
100
AcDbEntity
  8
RACCORDO
100
AcDbLine
 62
250
  6
CONTINUOUS
 10
147.7548955661
 20
62.0647049238
 11
147.7593537441
 21
62.0699385448
  0
LWPOLYLINE
  5
6E6
100
AcDbEntity
  8
RACCORDO
100
AcDbPolyline
 62
250
  6
CONTINUOUS
 90
5
 70
0
 10
125.5850008509
 20
94.3942411632
 10
125.5706545915
 20
94.3924925278
 10
125.545562022
 20
94.3881691806
 10
125.5268606035
 20
94.3833975618
 10
125.5151061357
 20
94.3783194825
  0
LWPOLYLINE
  5
6E7
100
AcDbEntity
  8
RACCORDO
100
AcDbPolyline
 62
250
  6
CONTINUOUS
 90
5
 70
0
 10
147.6850008509
 20
94.3942411573
 10
147.6993298348
 20
94.3924950059
 10
147.724428071
 20
94.3881715784
 10
147.7431349703
 20
94.3833995383
 10
147.7548937364
 20
94.3783206509
  0
LINE
  5
6E8
100
AcDbEntity
  8
RACCORDO
100
AcDbLine
 62
250
  6
CONTINUOUS
 10
147.7548937364
 20
94.3783206509
 11
147.7593537441
 21
94.3730858787
  0
LWPOLYLINE
  5
6E9
100
AcDbEntity
  8
RACCORDO
100
AcDbPolyline
 62
250
  6
CONTINUOUS
 90
16
 70
0
 10
147.5701977129
 20
99.1983622473
 10
147.5666182236
 20
99.2049987976
 10
147.5577206455
 20
99.2115560917
 10
147.5436003118
 20
99.2179638714
 10
147.5244085151
 20
99.2241534804
 10
147.500350886
 20
99.2300586001
 10
147.4716851905
 20
99.23561596
 10
147.4387185676
 20
99.2407660156
 10
147.4018042385
 20
99.2454535867
 10
147.3613377224
 20
99.2496284481
 10
147.3177525984
 20
99.2532458683
 10
147.27151586
 20
99.2562670884
 10
147.2231229112
 20
99.2586597371
 10
147.1730922592
 20
99.2603981783
 10
147.1219599579
 20
99.2614637855
 10
147.0702738653
 20
99.2618451414
  0
LWPOLYLINE
  5
6EA
100
AcDbEntity
  8
0
100
AcDbPolyline
 62
7
  6
CONTINUOUS
 90
10
 70
0
 43
0.3500000006
 10
137.7064319458
 20
121.6873068237
 10
137.7778540649
 20
121.5444535217
 10
137.7778540649
 20
121.4730223389
 10
137.6350007629
 20
121.3301690369
 10
137.5635695801
 20
121.3301690369
 10
137.4921474609
 20
121.4016002197
 10
137.4921474609
 20
121.4730223389
 10
137.5635695801
 20
121.6158847046
 10
137.6350007629
 20
121.6873068237
 10
137.7064319458
 20
121.6873068237
  0
LWPOLYLINE
  5
6EB
100
AcDbEntity
  8
RACCORDO
100
AcDbPolyline
 62
7
  6
CONTINUOUS
 90
28
 70
0
 10
147.5595481887
 20
99.7696952364
 10
147.5533333348
 20
99.7898586823
 10
147.5463798999
 20
99.8094849995
 10
147.5384030764
 20
99.8293180661
 10
147.5294002769
 20
99.8491900684
 10
147.5193214608
 20
99.8690652404
 10
147.5081420689
 20
99.8888556243
 10
147.4959448724
 20
99.9083190126
 10
147.4827733997
 20
99.9273332082
 10
147.4685868667
 20
99.9459074282
 10
147.4533686938
 20
99.9640036425
 10
147.437119939
 20
99.9815598068
 10
147.419851413
 20
99.9985059729
 10
147.4015624986
 20
100.0147853423
 10
147.3822676326
 20
100.0303277821
 10
147.3619877641
 20
100.0450608253
 10
147.340736452
 20
100.0589193108
 10
147.3185429136
 20
100.0718288781
 10
147.2954421293
 20
100.0837149464
 10
147.2714625167
 20
100.0945083979
 10
147.2466503624
 20
100.1041335332
 10
147.2210570373
 20
100.1125161179
 10
147.1947261946
 20
100.1195866114
 10
147.1677219211
 20
100.1252715158
 10
147.1401151638
 20
100.1294996682
 10
147.1119688204
 20
100.1322038493
 10
147.083367196
 20
100.1333168157
 10
147.0782256368
 20
100.1333432177
  0
LWPOLYLINE
  5
6EC
100
AcDbEntity
  8
0
100
AcDbPolyline
 62
250
  6
CONTINUOUS
 90
12
 70
0
 10
147.5223192961
 20
56.1026572053
 10
147.5033601521
 20
56.0851016262
 10
147.4836985033
 20
56.0692106683
 10
147.4636327192
 20
56.0553222037
 10
147.4428644302
 20
56.0430983602
 10
147.4214162516
 20
56.0323903234
 10
147.3994012993
 20
56.0231164174
 10
147.3767064574
 20
56.015358318
 10
147.3530149934
 20
56.0092122386
 10
147.3282213297
 20
56.0047102503
 10
147.3024310438
 20
56.001820282
 10
147.2756441358
 20
56.0005423337
  0
LINE
  5
6ED
100
AcDbEntity
  8
0
100
AcDbLine
 62
7
  6
CONTINUOUS
 10
142.3695244277
 20
55.9610998334
 11
142.3726644742
 21
55.9634960152
  0
LINE
  5
6EE
100
AcDbEntity
  8
0
100
AcDbLine
 62
250
  6
CONTINUOUS
 10
142.0550247068
 20
55.8507479035
 11
142.0679738076
 21
55.8606235371
  0
LINE
  5
6EF
100
AcDbEntity
  8
0
100
AcDbLine
 62
7
  6
CONTINUOUS
 10
142.3237872015
 20
55.9309860916
 11
142.3695244084
 21
55.9610998187
  0
LWPOLYLINE
  5
6F0
100
AcDbEntity
  8
SUPERFICI
100
AcDbPolyline
 62
7
  6
CONTINUOUS
 90
3
 70
0
 10
140.8625435207
 20
54.8881525457
 10
140.8067717881
 20
54.8537866315
 10
140.7493938376
 20
54.8233239649
  0
LWPOLYLINE
  5
6F1
100
AcDbEntity
  8
ASSI
100
AcDbPolyline
 62
7
  6
CONTINUOUS
 90
3
 70
0
 10
140.8625435207
 20
54.8881525457
 10
140.8067717881
 20
54.8537866315
 10
140.7493938376
 20
54.8233239649
  0
LINE
  5
6F2
100
AcDbEntity
  8
0
100
AcDbLine
 62
7
  6
CONTINUOUS
 10
142.2753782306
 20
55.9044470666
 11
142.3237872015
 21
55.9309860916
  0
LWPOLYLINE
  5
6F3
100
AcDbEntity
  8
SUPERFICI
100
AcDbPolyline
 62
7
  6
CONTINUOUS
 90
4
 70
0
 10
140.7493938376
 20
54.8233239649
 10
140.690409669
 20
54.7967645457
 10
140.6295569029
 20
54.7740292639
 10
140.5670979188
 20
54.7551972295
  0
LWPOLYLINE
  5
6F4
100
AcDbEntity
  8
ASSI
100
AcDbPolyline
 62
7
  6
CONTINUOUS
 90
4
 70
0
 10
140.7493938376
 20
54.8233239649
 10
140.690409669
 20
54.7967645457
 10
140.6295569029
 20
54.7740292639
 10
140.5670979188
 20
54.7551972295
  0
LWPOLYLINE
  5
6F5
100
AcDbEntity
  8
0
100
AcDbPolyline
 62
7
  6
CONTINUOUS
 90
9
 70
0
 10
131.214976995
 20
100.5922765029
 10
131.1759184259
 20
100.5898464142
 10
131.1377722648
 20
100.5847007072
 10
131.1005385118
 20
100.5769107382
 10
131.0640623251
 20
100.5666595634
 10
131.0284985464
 20
100.5540804884
 10
130.9943117014
 20
100.539137603
 10
130.9616566318
 20
100.521914772
 10
130.9303784958
 20
100.5027359983
  0
LWPOLYLINE
  5
6F6
100
AcDbEntity
  8
SUPERFICI
100
AcDbPolyline
 62
7
  6
CONTINUOUS
 90
10
 70
0
 10
132.9601433728
 20
101.7215122032
 10
132.8946704514
 20
101.7193215912
 10
132.8300166093
 20
101.7129904012
 10
132.7661818463
 20
101.7025186331
 10
132.702903783
 20
101.6878271768
 10
132.6404447989
 20
101.6689951425
 10
132.5795920328
 20
101.6462598606
 10
132.5206078643
 20
101.6197004415
 10
132.4632299137
 20
101.5892377748
 10
132.4074581811
 20
101.5548718606
  0
LWPOLYLINE
  5
6F7
100
AcDbEntity
  8
ASSI
100
AcDbPolyline
 62
7
  6
CONTINUOUS
 90
10
 70
0
 10
132.9601433728
 20
101.7215122032
 10
132.8946704514
 20
101.7193215912
 10
132.8300166093
 20
101.7129904012
 10
132.7661818463
 20
101.7025186331
 10
132.702903783
 20
101.6878271768
 10
132.6404447989
 20
101.6689951425
 10
132.5795920328
 20
101.6462598606
 10
132.5206078643
 20
101.6197004415
 10
132.4632299137
 20
101.5892377748
 10
132.4074581811
 20
101.5548718606
  0
LWPOLYLINE
  5
6F8
100
AcDbEntity
  8
0
100
AcDbPolyline
 62
250
  6
CONTINUOUS
 90
22
 70
0
 10
125.994357566
 20
100.5922765029
 10
125.9619503731
 20
100.5912164013
 10
125.9289495322
 20
100.5879602144
 10
125.8955146221
 20
100.5823766823
 10
125.8620661197
 20
100.5744111216
 10
125.8285485462
 20
100.5639200539
 10
125.7944831074
 20
100.5505049047
 10
125.75949831
 20
100.5335750341
 10
125.7246775153
 20
100.513174441
 10
125.6916520687
 20
100.4900584085
 10
125.6607422466
 20
100.4644854217
 10
125.6320134993
 20
100.4365482278
 10
125.6063265477
 20
100.4072806199
 10
125.5840693851
 20
100.3776544191
 10
125.5646441853
 20
100.3474349883
 10
125.5474182269
 20
100.3158587142
 10
125.5325167669
 20
100.2831523789
 10
125.5199881532
 20
100.2494171883
 10
125.509565327
 20
100.2134692374
 10
125.5015394667
 20
100.1749609417
 10
125.4964390277
 20
100.1345034875
 10
125.4946468316
 20
100.0923218762
  0
LWPOLYLINE
  5
6F9
100
AcDbEntity
  8
0
100
AcDbPolyline
 62
250
  6
CONTINUOUS
 90
22
 70
0
 10
125.994357566
 20
100.4424820727
 10
125.9714625112
 20
100.4418868192
 10
125.9483976867
 20
100.4395812774
 10
125.9251630925
 20
100.4355654472
 10
125.9017485943
 20
100.4300106549
 10
125.8781643265
 20
100.4227455742
 10
125.8544406914
 20
100.4132562265
 10
125.8300873208
 20
100.401209423
 10
125.805594583
 20
100.3869383526
 10
125.7824639854
 20
100.3709286026
 10
125.7609650632
 20
100.3529869543
 10
125.7408282812
 20
100.3333066265
 10
125.7227465415
 20
100.3129528634
 10
125.7070898162
 20
100.292340996
 10
125.6934881333
 20
100.2710556933
 10
125.6815244784
 20
100.2489162063
 10
125.6710110739
 20
100.2260644349
 10
125.6621356975
 20
100.2023584791
 10
125.6550446685
 20
100.1771918903
 10
125.6497867602
 20
100.1503625187
 10
125.6463131993
 20
100.122072514
 10
125.6446239858
 20
100.0923218762
  0
LWPOLYLINE
  5
6FA
100
AcDbEntity
  8
RACCORDO
100
AcDbPolyline
 62
7
  6
CONTINUOUS
 90
13
 70
0
 10
131.2020278943
 20
100.5824008692
 10
131.1791874908
 20
100.581918784
 10
131.155636325
 20
100.580321687
 10
131.1314341576
 20
100.5775067288
 10
131.106677717
 20
100.5733765975
 10
131.0814209798
 20
100.5678270797
 10
131.0556786598
 20
100.560734688
 10
131.0295614231
 20
100.5519917463
 10
131.0031894764
 20
100.5414937168
 10
130.9766208254
 20
100.5291027562
 10
130.9499889046
 20
100.514699911
 10
130.9234967383
 20
100.4982025431
 10
130.8973372517
 20
100.4795284094
  0
LWPOLYLINE
  5
6FB
100
AcDbEntity
  8
RACCORDO
100
AcDbPolyline
 62
250
  6
CONTINUOUS
 90
13
 70
0
 10
131.2020278943
 20
100.3632108214
 10
131.1905081317
 20
100.3630322612
 10
131.1787001079
 20
100.3621901555
 10
131.1666038229
 20
100.3606845045
 10
131.1541856733
 20
100.35857048
 10
131.1414792624
 20
100.3557929102
 10
131.1285854001
 20
100.3521862792
 10
131.1154810786
 20
100.3477524299
 10
131.1021893056
 20
100.3424895195
 10
131.0888799146
 20
100.3362265042
 10
131.0756095169
 20
100.3289063691
 10
131.0623215012
 20
100.3205861291
 10
131.0490158676
 20
100.3112657841
  0
LWPOLYLINE
  5
6FC
100
AcDbEntity
  8
RACCORDO
100
AcDbPolyline
 62
7
  6
CONTINUOUS
 90
26
 70
0
 10
126.1917755716
 20
100.133348889
 10
126.1824088307
 20
100.1332612166
 10
126.150592046
 20
100.1316506444
 10
126.1193504797
 20
100.1280776987
 10
126.0887986994
 20
100.122633694
 10
126.0590305343
 20
100.1154122356
 10
126.0301400128
 20
100.1065119738
 10
126.0022115338
 20
100.0960350271
 10
125.9753102524
 20
100.084081595
 10
125.9495008589
 20
100.0707560157
 10
125.924839511
 20
100.0561640026
 10
125.9013658561
 20
100.0404063629
 10
125.8791187121
 20
100.0235873951
 10
125.8581284032
 20
100.005810364
 10
125.8384110116
 20
99.9871707423
 10
125.8199762843
 20
99.9677604729
 10
125.8028402035
 20
99.9476824924
 10
125.7870160484
 20
99.9270458267
 10
125.7724702577
 20
99.9059009983
 10
125.7592221723
 20
99.8843758791
 10
125.7473308072
 20
99.8627036288
 10
125.7367373876
 20
99.8409441688
 10
125.7274091682
 20
99.8192095633
 10
125.7193780407
 20
99.7978202283
 10
125.7124935847
 20
99.7766538395
 10
125.7103094013
 20
99.7691924882
  0
LWPOLYLINE
  5
6FD
100
AcDbEntity
  8
RACCORDO
100
AcDbPolyline
 62
250
  6
CONTINUOUS
 90
16
 70
0
 10
126.1997278366
 20
99.2618451421
 10
126.1480417435
 20
99.2614637856
 10
126.0969094418
 20
99.2603981778
 10
126.0468787894
 20
99.2586597363
 10
125.9984858404
 20
99.2562670876
 10
125.9522491016
 20
99.2532458677
 10
125.9086639775
 20
99.2496284477
 10
125.8681974613
 20
99.2454535864
 10
125.8312831322
 20
99.2407660155
 10
125.7983165093
 20
99.2356159599
 10
125.7696508139
 20
99.2300586001
 10
125.7455931851
 20
99.2241534805
 10
125.7264013886
 20
99.2179638715
 10
125.7122810553
 20
99.2115560918
 10
125.7033834777
 20
99.2049987976
 10
125.699803989
 20
99.1983622473
  0
LINE
  5
6FE
100
AcDbEntity
  8
RACCORDO
100
AcDbLine
 62
250
  6
CONTINUOUS
 10
126.1997278366
 20
99.2618451432
 11
147.0702738653
 21
99.2618451432
  0
LINE
  5
6FF
100
AcDbEntity
  8
0
100
AcDbLine
 62
250
  6
CONTINUOUS
 10
125.6446239858
 20
100.0923218762
 11
125.4946468316
 21
100.0923218762
  0
LINE
  5
700
100
AcDbEntity
  8
0
100
AcDbLine
 62
250
  6
CONTINUOUS
 10
147.625377716
 20
100.0923218762
 11
147.7753548703
 21
100.0923218762
  0
LINE
  5
701
100
AcDbEntity
  8
RACCORDO
100
AcDbLine
 62
7
  6
CONTINUOUS
 10
126.1917708549
 20
100.1333582739
 11
147.0782307018
 21
100.1333582739
  0
LINE
  5
702
100
AcDbEntity
  8
RACCORDO
100
AcDbLine
 62
250
  6
CONTINUOUS
 10
142.0679738076
 20
100.3632108214
 11
131.2020278943
 21
100.3632108214
  0
LINE
  5
703
100
AcDbEntity
  8
0
100
AcDbLine
 62
250
  6
CONTINUOUS
 10
147.2756441358
 20
100.4424820727
 11
142.4210948299
 21
100.4424820727
  0
LINE
  5
704
100
AcDbEntity
  8
0
100
AcDbLine
 62
250
  6
CONTINUOUS
 10
130.848906872
 20
100.4424820727
 11
125.994357566
 21
100.4424820727
  0
LINE
  5
705
100
AcDbEntity
  8
RACCORDO
100
AcDbLine
 62
250
  6
CONTINUOUS
 10
142.0679738076
 20
100.5824008692
 11
131.2020278943
 21
100.5824008692
  0
LINE
  5
706
100
AcDbEntity
  8
0
100
AcDbLine
 62
250
  6
CONTINUOUS
 10
147.2756441358
 20
100.5922765029
 11
142.0550247068
 21
100.5922765029
  0
LINE
  5
707
100
AcDbEntity
  8
0
100
AcDbLine
 62
250
  6
CONTINUOUS
 10
131.214976995
 20
100.5922765029
 11
125.994357566
 21
100.5922765029
  0
LINE
  5
708
100
AcDbEntity
  8
0
100
AcDbLine
 62
7
  6
CONTINUOUS
 10
125.9846202512
 20
100.6215122032
 11
133.3350008509
 21
100.6215122032
  0
LINE
  5
709
100
AcDbEntity
  8
ASSI
100
AcDbLine
 62
7
  6
CONTINUOUS
 10
134.0350008509
 20
100.6215122032
 11
134.6350008509
 21
100.6215122032
  0
LINE
  5
70A
100
AcDbEntity
  8
ASSI
100
AcDbLine
 62
7
  6
CONTINUOUS
 10
138.6350008509
 20
100.6215122032
 11
139.2350008509
 21
100.6215122032
  0
LINE
  5
70B
100
AcDbEntity
  8
0
100
AcDbLine
 62
7
  6
CONTINUOUS
 10
139.9350008509
 20
100.6215122032
 11
147.2853814507
 21
100.6215122032
  0
LINE
  5
70C
100
AcDbEntity
  8
SUPERFICI
100
AcDbLine
 62
7
  6
CONTINUOUS
 10
140.1048211106
 20
100.7215122032
 11
133.1651805912
 21
100.7215122032
  0
LINE
  5
70D
100
AcDbEntity
  8
ASSI
100
AcDbLine
 62
7
  6
CONTINUOUS
 10
140.1048211106
 20
100.7215122032
 11
133.1651805912
 21
100.7215122032
  0
LINE
  5
70E
100
AcDbEntity
  8
SUPERFICI
100
AcDbLine
 62
7
  6
CONTINUOUS
 10
132.9601433728
 20
101.7215122032
 11
140.3098583291
 21
101.7215122032
  0
LINE
  5
70F
100
AcDbEntity
  8
ASSI
100
AcDbLine
 62
7
  6
CONTINUOUS
 10
132.9601433728
 20
101.7215122032
 11
140.3098583291
 21
101.7215122032
  0
LWPOLYLINE
  5
710
100
AcDbEntity
  8
RACCORDO
100
AcDbPolyline
 62
250
  6
CONTINUOUS
 90
5
 70
0
 10
142.1284562325
 20
100.3558112179
 10
142.1141897008
 20
100.3588951836
 10
142.0993589024
 20
100.3611192115
 10
142.0839536046
 20
100.3625577574
 10
142.0679738076
 20
100.3632108214
  0
LWPOLYLINE
  5
711
100
AcDbEntity
  8
SUPERFICI
100
AcDbPolyline
 62
7
  6
CONTINUOUS
 90
5
 70
0
 10
140.5670979188
 20
101.6878271768
 10
140.5038198555
 20
101.7025186331
 10
140.4399850926
 20
101.7129904012
 10
140.3753312504
 20
101.7193215912
 10
140.3098583291
 20
101.7215122032
  0
LWPOLYLINE
  5
712
100
AcDbEntity
  8
ASSI
100
AcDbPolyline
 62
7
  6
CONTINUOUS
 90
5
 70
0
 10
140.5670979188
 20
101.6878271768
 10
140.5038198555
 20
101.7025186331
 10
140.4399850926
 20
101.7129904012
 10
140.3753312504
 20
101.7193215912
 10
140.3098583291
 20
101.7215122032
  0
LWPOLYLINE
  5
713
100
AcDbEntity
  8
SUPERFICI
100
AcDbPolyline
 62
7
  6
CONTINUOUS
 90
4
 70
0
 10
140.7493938376
 20
101.6197004415
 10
140.690409669
 20
101.6462598606
 10
140.6295569029
 20
101.6689951425
 10
140.5670979188
 20
101.6878271768
  0
LWPOLYLINE
  5
714
100
AcDbEntity
  8
ASSI
100
AcDbPolyline
 62
7
  6
CONTINUOUS
 90
4
 70
0
 10
140.7493938376
 20
101.6197004415
 10
140.690409669
 20
101.6462598606
 10
140.6295569029
 20
101.6689951425
 10
140.5670979188
 20
101.6878271768
  0
LWPOLYLINE
  5
715
100
AcDbEntity
  8
SUPERFICI
100
AcDbPolyline
 62
7
  6
CONTINUOUS
 90
3
 70
0
 10
140.8625435207
 20
101.5548718606
 10
140.8067717881
 20
101.5892377748
 10
140.7493938376
 20
101.6197004415
  0
LWPOLYLINE
  5
716
100
AcDbEntity
  8
ASSI
100
AcDbPolyline
 62
7
  6
CONTINUOUS
 90
3
 70
0
 10
140.8625435207
 20
101.5548718606
 10
140.8067717881
 20
101.5892377748
 10
140.7493938376
 20
101.6197004415
  0
LWPOLYLINE
  5
717
100
AcDbEntity
  8
0
100
AcDbPolyline
 62
7
  6
CONTINUOUS
 90
10
 70
0
 10
142.3695244084
 20
100.4819245876
 10
142.3395365909
 20
100.5027820051
 10
142.3082367409
 20
100.5219688675
 10
142.2756248586
 20
100.5391686564
 10
142.2416037651
 20
100.5540461032
 10
142.2062706392
 20
100.5665583807
 10
142.1699170169
 20
100.5768000289
 10
142.1326400767
 20
100.5846287173
 10
142.09434264
 20
100.5898196752
 10
142.0550247068
 20
100.5922765029
  0
LWPOLYLINE
  5
718
100
AcDbEntity
  8
RACCORDO
100
AcDbPolyline
 62
7
  6
CONTINUOUS
 90
13
 70
0
 10
142.3726642732
 20
100.4795285445
 10
142.3539080324
 20
100.4931714514
 10
142.333948937
 20
100.5063065968
 10
142.3127767079
 20
100.518820221
 10
142.2904107444
 20
100.530582789
 10
142.2668377998
 20
100.5414828439
 10
142.2420075177
 20
100.5514158613
 10
142.215950563
 20
100.5602361009
 10
142.1886978631
 20
100.5677983167
 10
142.1602098743
 20
100.5739666763
 10
142.1305199633
 20
100.5785745245
 10
142.099740573
 20
100.5814432061
 10
142.0679738076
 20
100.5824008692
  0
LWPOLYLINE
  5
719
100
AcDbEntity
  8
RACCORDO
100
AcDbPolyline
 62
250
  6
CONTINUOUS
 90
9
 70
0
 10
142.2209858343
 20
100.3112657841
 10
142.2115403009
 20
100.3182388558
 10
142.2014895985
 20
100.3248389938
 10
142.1908337273
 20
100.331066198
 10
142.1795726965
 20
100.3369835288
 10
142.1677064969
 20
100.3425279258
 10
142.1552351002
 20
100.3475102078
 10
142.1421482648
 20
100.3519417703
 10
142.1284562325
 20
100.3558112179
  0
LINE
  5
71A
100
AcDbEntity
  8
0
100
AcDbLine
 62
250
  6
CONTINUOUS
 10
142.0679738076
 20
100.5824008692
 11
142.0550247068
 21
100.5922765029
  0
LINE
  5
71B
100
AcDbEntity
  8
0
100
AcDbLine
 62
7
  6
CONTINUOUS
 10
142.3726642955
 20
100.4795285275
 11
142.3695244277
 21
100.4819245729
  0
LINE
  5
71C
100
AcDbEntity
  8
RACCORDO
100
AcDbLine
 62
250
  6
CONTINUOUS
 10
142.4475239666
 20
100.1333582739
 11
142.2209858343
 21
100.3112657841
  0
LWPOLYLINE
  5
71D
100
AcDbEntity
  8
RACCORDO
100
AcDbPolyline
 62
250
  6
CONTINUOUS
 90
10
 70
0
 10
147.578689243
 20
99.6331862119
 10
147.5779574508
 20
99.6339509486
 10
147.577241176
 20
99.631305749
 10
147.5765404187
 20
99.6252506131
 10
147.5758501886
 20
99.6156963456
 10
147.575175476
 20
99.6027321419
 10
147.5745312513
 20
99.5866255877
 10
147.5739184766
 20
99.567310537
 10
147.57333619
 20
99.5448531358
 10
147.5723002811
 20
99.4918574917
  0
LWPOLYLINE
  5
71E
100
AcDbEntity
  8
0
100
AcDbPolyline
 62
7
  6
CONTINUOUS
 90
3
 70
0
 43
0.3500000006
 10
163.8677015991
 20
77.3643711548
 10
163.8677015991
 20
75.864370697
 10
161.5105541382
 20
76.5072241516
  0
LWPOLYLINE
  5
71F
100
AcDbEntity
  8
0
100
AcDbPolyline
 62
7
  6
CONTINUOUS
 90
7
 70
0
 43
0.3500000006
 10
136.206431488
 20
121.1873066711
 10
134.7064310303
 20
121.1873066711
 10
136.206431488
 20
123.3301696472
 10
136.206431488
 20
123.7587386169
 10
135.7778625183
 20
124.1873075867
 10
135.135
 20
124.1873075867
 10
134.7064310303
 20
123.5444541321
  0
LWPOLYLINE
  5
720
100
AcDbEntity
  8
0
100
AcDbPolyline
 62
7
  6
CONTINUOUS
 90
7
 70
0
 43
0.3500000006
 10
133.8492840271
 20
121.1873066711
 10
132.3492835693
 20
121.1873066711
 10
133.8492840271
 20
123.3301696472
 10
133.8492840271
 20
123.7587386169
 10
133.4207150574
 20
124.1873075867
 10
132.7778616028
 20
124.1873075867
 10
132.3492835693
 20
123.5444541321
  0
LWPOLYLINE
  5
721
100
AcDbEntity
  8
0
100
AcDbPolyline
 62
7
  6
CONTINUOUS
 90
6
 70
0
 43
0.3500000006
 10
138.7778543701
 20
121.1873066711
 10
139.8492858582
 20
121.1873066711
 10
140.063570343
 20
121.4016002197
 10
140.063570343
 20
122.473022644
 10
139.6350013733
 20
122.9016006775
 10
139.2064324036
 20
122.9016006775
  0
ARC
  5
722
100
AcDbEntity
  8
RACCORDO
100
AcDbCircle
 62
7
  6
CONTINUOUS
 10
66.5668817733
 20
57.8097262612
 40
1.0
100
AcDbArc
 50
177.3821630225
 51
263.5
  0
ARC
  5
723
100
AcDbEntity
  8
0
100
AcDbCircle
 62
7
  6
CONTINUOUS
 10
99.032413155
 20
59.3215122032
 40
0.5
100
AcDbArc
 50
270.0
 51
360.0
  0
ARC
  5
724
100
AcDbEntity
  8
RACCORDO
100
AcDbCircle
 62
7
  6
CONTINUOUS
 10
86.2945417497
 20
57.5907475791
 40
0.5
100
AcDbArc
 50
271.0
 51
315.0
  0
ARC
  5
725
100
AcDbEntity
  8
RACCORDO
100
AcDbCircle
 62
7
  6
CONTINUOUS
 10
88.4395199362
 20
58.3215122032
 40
0.5
100
AcDbArc
 50
90.0
 51
135.0
  0
ARC
  5
726
100
AcDbEntity
  8
ASSI
100
AcDbCircle
 62
7
  6
CONTINUOUS
 10
99.032413155
 20
59.3215122032
 40
0.5
100
AcDbArc
 50
270.0
 51
360.0
  0
ARC
  5
727
100
AcDbEntity
  8
ASSI
100
AcDbCircle
 62
7
  6
CONTINUOUS
 10
86.2945417497
 20
57.5907475791
 40
0.5
100
AcDbArc
 50
271.0
 51
315.0
  0
ARC
  5
728
100
AcDbEntity
  8
ASSI
100
AcDbCircle
 62
7
  6
CONTINUOUS
 10
88.4395199362
 20
58.3215122032
 40
0.5
100
AcDbArc
 50
90.0
 51
135.0
  0
ARC
  5
729
100
AcDbEntity
  8
RACCORDO
100
AcDbCircle
 62
7
  6
CONTINUOUS
 10
76.732413155
 20
57.1284332979
 40
0.4
100
AcDbArc
 50
91.0
 51
180.0
  0
ARC
  5
72A
100
AcDbEntity
  8
RACCORDO
100
AcDbCircle
 62
7
  6
CONTINUOUS
 10
76.732413155
 20
56.9145911084
 40
0.4
100
AcDbArc
 50
180.0
 51
269.0
  0
ARC
  5
72B
100
AcDbEntity
  8
RACCORDO
100
AcDbCircle
 62
7
  6
CONTINUOUS
 10
77.5992084354
 20
56.1102809208
 40
0.25
100
AcDbArc
 50
187.0
 51
267.0000041485
  0
ARC
  5
72C
100
AcDbEntity
  8
RACCORDO
100
AcDbCircle
 62
7
  6
CONTINUOUS
 10
101.332413155
 20
62.5529617856
 40
0.2
100
AcDbArc
 50
271.0
 51
360.0
  0
ARC
  5
72D
100
AcDbEntity
  8
ASSI
100
AcDbCircle
 62
7
  6
CONTINUOUS
 10
101.332413155
 20
62.5529617856
 40
0.2
100
AcDbArc
 50
271.0
 51
360.0
  0
ARC
  5
72E
100
AcDbEntity
  8
0
100
AcDbCircle
 62
7
  6
CONTINUOUS
 10
77.782413155
 20
56.0005423337
 40
0.15
100
AcDbArc
 50
180.0
 51
267.0
  0
ARC
  5
72F
100
AcDbEntity
  8
RACCORDO
100
AcDbCircle
 62
7
  6
CONTINUOUS
 10
82.482413155
 20
56.8741076137
 40
0.15
100
AcDbArc
 50
91.0
 51
110.7115813547
  0
ARC
  5
730
100
AcDbEntity
  8
ASSI
100
AcDbCircle
 62
7
  6
CONTINUOUS
 10
82.482413155
 20
56.8741076137
 40
0.15
100
AcDbArc
 50
91.0
 51
110.7115813547
  0
ARC
  5
731
100
AcDbEntity
  8
RACCORDO
100
AcDbCircle
 62
7
  6
CONTINUOUS
 10
76.1436778932
 20
78.2215122032
 40
1.5
100
AcDbArc
 50
173.0
 51
187.0
  0
ARC
  5
732
100
AcDbEntity
  8
RACCORDO
100
AcDbCircle
 62
7
  6
CONTINUOUS
 10
70.1822311102
 20
99.1333582739
 40
1.0
100
AcDbArc
 50
86.5
 51
172.6178369774
  0
ARC
  5
733
100
AcDbEntity
  8
RACCORDO
100
AcDbCircle
 62
7
  6
CONTINUOUS
 10
86.2945417497
 20
98.8522768273
 40
0.5
100
AcDbArc
 50
45.0
 51
89.0
  0
ARC
  5
734
100
AcDbEntity
  8
ASSI
100
AcDbCircle
 62
7
  6
CONTINUOUS
 10
86.2945417497
 20
98.8522768273
 40
0.5
100
AcDbArc
 50
45.0
 51
89.0
  0
ARC
  5
735
100
AcDbEntity
  8
RACCORDO
100
AcDbCircle
 62
7
  6
CONTINUOUS
 10
76.732413155
 20
99.3145911084
 40
0.4
100
AcDbArc
 50
180.0
 51
269.0
  0
ARC
  5
736
100
AcDbEntity
  8
RACCORDO
100
AcDbCircle
 62
7
  6
CONTINUOUS
 10
76.732413155
 20
99.5284332979
 40
0.4
100
AcDbArc
 50
91.0
 51
180.0
  0
ARC
  5
737
100
AcDbEntity
  8
RACCORDO
100
AcDbCircle
 62
7
  6
CONTINUOUS
 10
77.5992084354
 20
100.3327434856
 40
0.25
100
AcDbArc
 50
93.0
 51
173.0
  0
ARC
  5
738
100
AcDbEntity
  8
0
100
AcDbCircle
 62
7
  6
CONTINUOUS
 10
77.782413155
 20
100.4424820727
 40
0.15
100
AcDbArc
 50
93.0
 51
180.0
  0
ARC
  5
739
100
AcDbEntity
  8
RACCORDO
100
AcDbCircle
 62
7
  6
CONTINUOUS
 10
82.482413155
 20
99.5689167926
 40
0.15
100
AcDbArc
 50
249.2883508191
 51
269.0
  0
ARC
  5
73A
100
AcDbEntity
  8
ASSI
100
AcDbCircle
 62
7
  6
CONTINUOUS
 10
82.482413155
 20
99.5689167926
 40
0.15
100
AcDbArc
 50
249.2883508191
 51
269.0
  0
ARC
  5
73B
100
AcDbEntity
  8
RACCORDO
100
AcDbCircle
 62
7
  6
CONTINUOUS
 10
104.532413155
 20
71.0088636918
 40
0.5
100
AcDbArc
 50
271.0
 51
360.0
  0
ARC
  5
73C
100
AcDbEntity
  8
ASSI
100
AcDbCircle
 62
7
  6
CONTINUOUS
 10
104.532413155
 20
71.0088636918
 40
0.5
100
AcDbArc
 50
271.0
 51
360.0
  0
ARC
  5
73D
100
AcDbEntity
  8
RACCORDO
100
AcDbCircle
 62
7
  6
CONTINUOUS
 10
101.332413155
 20
69.4900626207
 40
0.2
100
AcDbArc
 50
0.0
 51
89.0
  0
ARC
  5
73E
100
AcDbEntity
  8
ASSI
100
AcDbCircle
 62
7
  6
CONTINUOUS
 10
101.332413155
 20
69.4900626207
 40
0.2
100
AcDbArc
 50
0.0
 51
89.0
  0
ARC
  5
73F
100
AcDbEntity
  8
RACCORDO
100
AcDbCircle
 62
7
  6
CONTINUOUS
 10
104.532413155
 20
85.4341607145
 40
0.5
100
AcDbArc
 50
0.0
 51
89.0
  0
ARC
  5
740
100
AcDbEntity
  8
RACCORDO
100
AcDbCircle
 62
7
  6
CONTINUOUS
 10
99.032413155
 20
95.0660859613
 40
0.5
100
AcDbArc
 50
0.0
 51
89.0
  0
ARC
  5
741
100
AcDbEntity
  8
0
100
AcDbCircle
 62
7
  6
CONTINUOUS
 10
99.032413155
 20
95.0660859613
 40
0.5
100
AcDbArc
 50
6.3644598434
 51
41.8377935009
  0
ARC
  5
742
100
AcDbEntity
  8
0
100
AcDbCircle
 62
7
  6
CONTINUOUS
 10
99.032413155
 20
95.0660859613
 40
0.5
100
AcDbArc
 50
51.0799537357
 51
78.8652198298
  0
ARC
  5
743
100
AcDbEntity
  8
RACCORDO
100
AcDbCircle
 62
7
  6
CONTINUOUS
 10
90.3431217036
 20
96.2179104358
 40
0.5
100
AcDbArc
 50
225.0
 51
269.0
  0
ARC
  5
744
100
AcDbEntity
  8
ASSI
100
AcDbCircle
 62
7
  6
CONTINUOUS
 10
104.532413155
 20
85.4341607145
 40
0.5
100
AcDbArc
 50
0.0
 51
89.0
  0
ARC
  5
745
100
AcDbEntity
  8
ASSI
100
AcDbCircle
 62
7
  6
CONTINUOUS
 10
99.032413155
 20
95.0660859613
 40
0.5
100
AcDbArc
 50
0.0
 51
89.0
  0
ARC
  5
746
100
AcDbEntity
  8
ASSI
100
AcDbCircle
 62
7
  6
CONTINUOUS
 10
90.3431217036
 20
96.2179104358
 40
0.5
100
AcDbArc
 50
225.0
 51
269.0
  0
ARC
  5
747
100
AcDbEntity
  8
RACCORDO
100
AcDbCircle
 62
7
  6
CONTINUOUS
 10
101.332413155
 20
92.1900626207
 40
0.2
100
AcDbArc
 50
0.0
 51
89.0
  0
ARC
  5
748
100
AcDbEntity
  8
ASSI
100
AcDbCircle
 62
7
  6
CONTINUOUS
 10
101.332413155
 20
92.1900626207
 40
0.2
100
AcDbArc
 50
0.0
 51
89.0
  0
ARC
  5
749
100
AcDbEntity
  8
RACCORDO
100
AcDbCircle
 62
7
  6
CONTINUOUS
 10
565.0461249991
 20
35.0184105232
 40
500.0
100
AcDbArc
 50
172.6178369774
 51
177.3821630226
  0
ARC
  5
74A
100
AcDbEntity
  8
SUPERFICI
100
AcDbCircle
 62
7
  6
CONTINUOUS
 10
131.6850008509
 20
55.1215122032
 40
0.5
100
AcDbArc
 50
350.803718421
 51
119.112422776
  0
ARC
  5
74B
100
AcDbEntity
  8
ASSI
100
AcDbCircle
 62
7
  6
CONTINUOUS
 10
131.6850008509
 20
55.1215122032
 40
0.5
100
AcDbArc
 50
350.803718421
 51
119.112422776
  0
ARC
  5
74C
100
AcDbEntity
  8
ASSI
100
AcDbCircle
 62
7
  6
CONTINUOUS
 10
134.3350008509
 20
56.2215122032
 40
0.5
100
AcDbArc
 50
233.1301023542
 51
306.8698976458
  0
ARC
  5
74D
100
AcDbEntity
  8
SUPERFICI
100
AcDbCircle
 62
7
  6
CONTINUOUS
 10
125.3850008509
 20
78.2215122032
 40
28.0
100
AcDbArc
 50
305.9627651514
 51
306.8614108051
  0
ARC
  5
74E
100
AcDbEntity
  8
SUPERFICI
100
AcDbCircle
 62
7
  6
CONTINUOUS
 10
125.3850008509
 20
78.2215122032
 40
28.0
100
AcDbArc
 50
303.5572123136
 51
304.1210936517
  0
ARC
  5
74F
100
AcDbEntity
  8
SUPERFICI
100
AcDbCircle
 62
7
  6
CONTINUOUS
 10
125.3850008509
 20
78.2215122032
 40
28.0
100
AcDbArc
 50
55.8789063483
 51
56.4427876864
  0
ARC
  5
750
100
AcDbEntity
  8
SUPERFICI
100
AcDbCircle
 62
7
  6
CONTINUOUS
 10
125.3850008509
 20
78.2215122032
 40
28.0
100
AcDbArc
 50
53.1385891949
 51
54.0372348486
  0
ARC
  5
751
100
AcDbEntity
  8
ASSI
100
AcDbCircle
 62
7
  6
CONTINUOUS
 10
125.3850008509
 20
78.2215122032
 40
28.0
100
AcDbArc
 50
305.9627651514
 51
306.8614108051
  0
ARC
  5
752
100
AcDbEntity
  8
ASSI
100
AcDbCircle
 62
7
  6
CONTINUOUS
 10
125.3850008509
 20
78.2215122032
 40
28.0
100
AcDbArc
 50
303.5572123136
 51
304.1210936517
  0
ARC
  5
753
100
AcDbEntity
  8
ASSI
100
AcDbCircle
 62
7
  6
CONTINUOUS
 10
125.3850008509
 20
78.2215122032
 40
28.0
100
AcDbArc
 50
55.8789063483
 51
56.4427876864
  0
ARC
  5
754
100
AcDbEntity
  8
ASSI
100
AcDbCircle
 62
7
  6
CONTINUOUS
 10
125.3850008509
 20
78.2215122032
 40
28.0
100
AcDbArc
 50
53.1385891949
 51
54.0372348486
  0
ARC
  5
755
100
AcDbEntity
  8
RACCORDO
100
AcDbCircle
 62
7
  6
CONTINUOUS
 10
125.3850008509
 20
78.2215122032
 40
28.0
100
AcDbArc
 50
51.5016415962
 51
52.6485646173
  0
ARC
  5
756
100
AcDbEntity
  8
RACCORDO
100
AcDbCircle
 62
7
  6
CONTINUOUS
 10
125.3850008509
 20
78.2215122032
 40
28.0
100
AcDbArc
 50
307.3514358425
 51
307.8896486685
  0
ARC
  5
757
100
AcDbEntity
  8
SUPERFICI
100
AcDbCircle
 62
7
  6
CONTINUOUS
 10
131.6850008509
 20
101.3215122032
 40
0.5
100
AcDbArc
 50
240.887577224
 51
9.196281579
  0
ARC
  5
758
100
AcDbEntity
  8
ASSI
100
AcDbCircle
 62
7
  6
CONTINUOUS
 10
131.6850008509
 20
101.3215122032
 40
0.5
100
AcDbArc
 50
240.887577224
 51
9.196281579
  0
ARC
  5
759
100
AcDbEntity
  8
ASSI
100
AcDbCircle
 62
7
  6
CONTINUOUS
 10
134.3350008509
 20
100.2215122032
 40
0.5
100
AcDbArc
 50
53.1301023542
 51
126.8698976458
  0
ARC
  5
75A
100
AcDbEntity
  8
SUPERFICI
100
AcDbCircle
 62
7
  6
CONTINUOUS
 10
141.5850008509
 20
55.1215122032
 40
0.5
100
AcDbArc
 50
60.887577224
 51
189.196281579
  0
ARC
  5
75B
100
AcDbEntity
  8
ASSI
100
AcDbCircle
 62
7
  6
CONTINUOUS
 10
141.5850008509
 20
55.1215122032
 40
0.5
100
AcDbArc
 50
60.887577224
 51
189.196281579
  0
ARC
  5
75C
100
AcDbEntity
  8
ASSI
100
AcDbCircle
 62
7
  6
CONTINUOUS
 10
138.9350008509
 20
56.2215122032
 40
0.5
100
AcDbArc
 50
233.1301023542
 51
306.8698976458
  0
ARC
  5
75D
100
AcDbEntity
  8
SUPERFICI
100
AcDbCircle
 62
7
  6
CONTINUOUS
 10
147.8850008509
 20
78.2215122032
 40
28.0
100
AcDbArc
 50
235.8789063483
 51
236.4427876864
  0
ARC
  5
75E
100
AcDbEntity
  8
SUPERFICI
100
AcDbCircle
 62
7
  6
CONTINUOUS
 10
147.8850008509
 20
78.2215122032
 40
28.0
100
AcDbArc
 50
233.1385891949
 51
234.0372348486
  0
ARC
  5
75F
100
AcDbEntity
  8
SUPERFICI
100
AcDbCircle
 62
7
  6
CONTINUOUS
 10
147.8850008509
 20
78.2215122032
 40
28.0
100
AcDbArc
 50
125.9627651514
 51
126.8614108051
  0
ARC
  5
760
100
AcDbEntity
  8
SUPERFICI
100
AcDbCircle
 62
7
  6
CONTINUOUS
 10
147.8850008509
 20
78.2215122032
 40
28.0
100
AcDbArc
 50
123.5572123136
 51
124.1210936517
  0
ARC
  5
761
100
AcDbEntity
  8
ASSI
100
AcDbCircle
 62
7
  6
CONTINUOUS
 10
147.8850008509
 20
78.2215122032
 40
28.0
100
AcDbArc
 50
235.8789063483
 51
236.4427876864
  0
ARC
  5
762
100
AcDbEntity
  8
ASSI
100
AcDbCircle
 62
7
  6
CONTINUOUS
 10
147.8850008509
 20
78.2215122032
 40
28.0
100
AcDbArc
 50
233.1385891949
 51
234.0372348486
  0
ARC
  5
763
100
AcDbEntity
  8
ASSI
100
AcDbCircle
 62
7
  6
CONTINUOUS
 10
147.8850008509
 20
78.2215122032
 40
28.0
100
AcDbArc
 50
125.9627651514
 51
126.8614108051
  0
ARC
  5
764
100
AcDbEntity
  8
ASSI
100
AcDbCircle
 62
7
  6
CONTINUOUS
 10
147.8850008509
 20
78.2215122032
 40
28.0
100
AcDbArc
 50
123.5572123136
 51
124.1210936517
  0
ARC
  5
765
100
AcDbEntity
  8
RACCORDO
100
AcDbCircle
 62
7
  6
CONTINUOUS
 10
147.8850008509
 20
78.2215122032
 40
28.0
100
AcDbArc
 50
127.3514358425
 51
128.4983583724
  0
ARC
  5
766
100
AcDbEntity
  8
RACCORDO
100
AcDbCircle
 62
7
  6
CONTINUOUS
 10
147.8850008509
 20
78.2215122032
 40
28.0
100
AcDbArc
 50
232.1103512741
 51
232.6485646174
  0
ARC
  5
767
100
AcDbEntity
  8
SUPERFICI
100
AcDbCircle
 62
7
  6
CONTINUOUS
 10
141.5850008509
 20
101.3215122032
 40
0.5
100
AcDbArc
 50
170.803718421
 51
299.112422776
  0
ARC
  5
768
100
AcDbEntity
  8
ASSI
100
AcDbCircle
 62
7
  6
CONTINUOUS
 10
141.5850008509
 20
101.3215122032
 40
0.5
100
AcDbArc
 50
170.803718421
 51
299.112422776
  0
ARC
  5
769
100
AcDbEntity
  8
ASSI
100
AcDbCircle
 62
7
  6
CONTINUOUS
 10
138.9350008509
 20
100.2215122032
 40
0.5
100
AcDbArc
 50
53.1301023542
 51
126.8698976458
  0
ELLIPSE
  5
76A
100
AcDbEntity
  8
0
100
AcDbEllipse
 62
250
  6
CONTINUOUS
 10
87.332413155
 20
81.1651702032
 30
0.0
 11
0.0
 21
0.735176
 31
0.0
 40
1.0
 41
-4.7123889804
 42
-1.5707963268
  0
ELLIPSE
  5
76B
100
AcDbEntity
  8
0
100
AcDbEllipse
 62
250
  6
CONTINUOUS
 10
87.332413155
 20
80.5360652032
 30
0.0
 11
0.0
 21
0.735176
 31
0.0
 40
1.0
 41
-4.7123889804
 42
-1.5707963268
  0
ELLIPSE
  5
76C
100
AcDbEntity
  8
0
100
AcDbEllipse
 62
250
  6
CONTINUOUS
 10
87.332413155
 20
79.9069592032
 30
0.0
 11
0.0
 21
0.735176
 31
0.0
 40
1.0
 41
-4.7123889804
 42
-1.5707963268
  0
ELLIPSE
  5
76D
100
AcDbEntity
  8
0
100
AcDbEllipse
 62
250
  6
CONTINUOUS
 10
85.832419155
 20
86.2215062032
 30
0.0
 11
-0.0
 21
0.499999
 31
0.0
 40
1.0
 41
0.0
 42
6.2831853072
  0
ELLIPSE
  5
76E
100
AcDbEntity
  8
RACCORDO
100
AcDbEllipse
 62
7
  6
CONTINUOUS
 10
147.1849246869
 20
99.2610096215
 30
0.0
 11
0.4990996396
 21
0.0313507587
 31
0.0
 40
0.9963558159
 41
-0.0625041969
 42
0.2149061361
  0
ELLIPSE
  5
76F
100
AcDbEntity
  8
RACCORDO
100
AcDbEllipse
 62
7
  6
CONTINUOUS
 10
147.1849246869
 20
56.6242180312
 30
0.0
 11
0.4990996396
 21
-0.0313507587
 31
0.0
 40
0.9963558159
 41
-1.5078352791
 42
0.0625041969
  0
ELLIPSE
  5
770
100
AcDbEntity
  8
RACCORDO
100
AcDbEllipse
 62
7
  6
CONTINUOUS
 10
126.0850770149
 20
56.6242180312
 30
0.0
 11
0.4990996396
 21
0.0313507587
 31
0.0
 40
0.9963558159
 41
3.0790884566
 42
4.6494279327
  0
ELLIPSE
  5
771
100
AcDbEntity
  8
RACCORDO
100
AcDbEllipse
 62
7
  6
CONTINUOUS
 10
126.0850770149
 20
99.2610096215
 30
0.0
 11
0.4990996396
 21
-0.0313507587
 31
0.0
 40
0.9963558159
 41
2.9266865175
 42
3.2040968505
  0
ELLIPSE
  5
772
100
AcDbEntity
  8
0
100
AcDbEllipse
 62
7
  6
CONTINUOUS
 10
125.9850770149
 20
100.1208260302
 30
0.0
 11
-0.1582391023
 21
0.4751033573
 31
0.0
 40
0.9984778551
 41
-0.3210503505
 42
1.2488325878
  0
ELLIPSE
  5
773
100
AcDbEntity
  8
0
100
AcDbEllipse
 62
7
  6
CONTINUOUS
 10
125.9850770149
 20
56.3221983762
 30
0.0
 11
0.1582391023
 21
0.4751033573
 31
0.0
 40
0.9984778551
 41
-4.3904252414
 42
-2.8205423031
  0
ELLIPSE
  5
774
100
AcDbEntity
  8
0
100
AcDbEllipse
 62
7
  6
CONTINUOUS
 10
147.2849246869
 20
56.3221983762
 30
0.0
 11
-0.1582391023
 21
0.4751033573
 31
0.0
 40
0.9984778551
 41
-3.4626430041
 42
-1.8927600658
  0
ELLIPSE
  5
775
100
AcDbEntity
  8
0
100
AcDbEllipse
 62
7
  6
CONTINUOUS
 10
147.2849246869
 20
100.1208260302
 30
0.0
 11
0.1582391023
 21
0.4751033573
 31
0.0
 40
0.9984778551
 41
-1.2488325878
 42
0.3210503505
  0
ENDSEC
  0
SECTION
  2
OBJECTS
  0
DICTIONARY
  5
C
100
AcDbDictionary
280
0
281
1
  3
ACAD_GROUP
350
D
  3
ACAD_MLINESTYLE
350
17
  3
ACAD_LAYOUT
350
1A
  3
ACAD_PLOTSETTINGS
350
19
  3
ACAD_PLOTSTYLENAME
350
E
  0
DICTIONARY
  5
D
102
{ACAD_REACTORS
330
C
102
}
100
AcDbDictionary
280
0
281
1
  0
ACDBDICTIONARYWDFLT
  5
E
102
{ACAD_REACTORS
330
C
102
}
100
AcDbDictionary
281
1
  3
Normal
350
F
100
AcDbDictionaryWithDefault
340
F
  0
DICTIONARY
  5
17
102
{ACAD_REACTORS
330
C
102
}
100
AcDbDictionary
280
0
281
1
  3
Standard
350
18
  0
DICTIONARY
  5
19
102
{ACAD_REACTORS
330
C
102
}
100
AcDbDictionary
281
1
  0
DICTIONARY
  5
1A
102
{ACAD_REACTORS
330
C
102
}
100
AcDbDictionary
281
1
  3
Model
350
776
  3
Layout1
350
777
  0
ACDBPLACEHOLDER
  5
F
102
{ACAD_REACTORS
330
E
102
}
  0
MLINESTYLE
  5
18
102
{ACAD_REACTORS
330
17
102
}
100
AcDbMlineStyle
  2
STANDARD
 70
0
  3

 62
256
 51
90.0
 52
90.0
 71
2
 49
0.5
 62
256
  6
BYLAYER
 49
-0.5
 62
256
  6
BYLAYER
  0
LAYOUT
  5
776
102
{ACAD_REACTORS
330
1A
102
}
100
AcDbPlotSettings
  1

  2
none_device
  4
ISO_A4_(297.00_x_210.00_MM)
  6

 40
0.0
 41
0.0
 42
0.0
 43
0.0
 44
297.0
 45
210.0
 46
0.0
 47
0.0
 48
0.0
 49
0.0
140
0.0
141
0.0
142
1.0
143
1.0
 70
1024
 72
1
 73
0
 74
0
  7

 75
0
147
1.0
148
0.0
149
0.0
100
AcDbLayout
  1
Model
 70
0
 71
0
 10
0.0
 20
0.0
 11
297.0
 21
210.0
 12
0.0
 22
0.0
 32
0.0
 14
0.0
 24
0.0
 34
0.0
 15
0.0
 25
0.0
 35
0.0
146
0.0
 13
0.0
 23
0.0
 33
0.0
 16
1.0
 26
0.0
 36
0.0
 17
0.0
 27
1.0
 37
0.0
 76
0
330
21E
345
0
346
0
  0
LAYOUT
  5
777
102
{ACAD_REACTORS
330
1A
102
}
100
AcDbPlotSettings
  1

  2
none_device
  4
ISO_A4_(297.00_x_210.00_MM)
  6

 40
0.0
 41
0.0
 42
0.0
 43
0.0
 44
297.0
 45
210.0
 46
0.0
 47
0.0
 48
0.0
 49
0.0
140
0.0
141
0.0
142
1.0
143
1.0
 70
0
 72
1
 73
0
 74
0
  7

 75
0
147
1.0
148
0.0
149
0.0
100
AcDbLayout
  1
Layout1
 70
0
 71
1
 10
0.0
 20
0.0
 11
297.0
 21
210.0
 12
0.0
 22
0.0
 32
0.0
 14
0.0
 24
0.0
 34
0.0
 15
0.0
 25
0.0
 35
0.0
146
0.0
 13
0.0
 23
0.0
 33
0.0
 16
1.0
 26
0.0
 36
0.0
 17
0.0
 27
1.0
 37
0.0
 76
0
330
21F
345
0
346
0
  0
ENDSEC
  0
EOF
