  0
SECTION
  2
HEADER
  9
$ACADVER
  1
AC1024
  9
$DWGCODEPAGE
  3
ANSI_1252
  9
$EXTMAX
 10
297.0
 20
210.0
 30
0.0
  9
$EXTMIN
 10
0.0
 20
0.0
 30
0.0
  9
$LIMMIN
 10
0.0
 20
0.0
  9
$LIMMAX
 10
297.0
 20
210.0
  9
$VIEWCTR
 10
148.5
 20
105.0
  9
$VIEWSIZE
 40
210.0
  9
$CLAYER
  8
0
  9
$LTSCALE
 40
16.335
  9
$CELTYPE
  6
BYLAYER
  9
$DIMSCALE
 40
1.0
  9
$DIMASZ
 40
3.0
  9
$DIMEXO
 40
0.5
  9
$DIMDLI
 40
11.286
  9
$DIMEXE
 40
1.5
  9
$DIMCEN
 40
2.673
  9
$DIMLFAC
 40
1.0
  9
$DIMBLK
  1
_FILLED
  9
$DIMALT
 70
0
  9
$DIMALTF
 40
0.0393700787
  9
$DIMTXT
 40
3.0
  9
$DIMTOL
 70
1
  9
$DIMLIM
 70
0
  9
$DIMTFAC
 40
1.0
  9
$DIMTP
 40
0.01
  9
$DIMTM
 40
0.01
  9
$DIMGAP
 40
0.625
  9
$DIMDSEP
 70
44
  9
$AUNITS
 70
0
  9
$PDMODE
 70
3
  9
$PDSIZE
 40
3.0
  9
$HANDSEED
  5
6A7
  9
$TILEMODE
 70
1
  9
$MEASUREMENT
 70
1
  9
$INSUNITS
 70
4
  0
ENDSEC
  0
SECTION
  2
CLASSES
  0
CLASS
  1
ACDBDICTIONARYWDFLT
  2
AcDbDictionaryWithDefault
  3
AutoCAD 2000
 90
0
 91
1
280
0
281
0
  0
CLASS
  1
ACDBPLACEHOLDER
  2
AcDbPlaceHolder
  3
AutoCAD 2000
 90
0
 91
1
280
0
281
0
  0
CLASS
  1
LAYOUT
  2
AcDbLayout
  3
AutoCAD 2000
 90
0
 91
0
280
0
281
0
  0
ENDSEC
  0
SECTION
  2
TABLES
  0
TABLE
  2
VPORT
  5
8
100
AcDbSymbolTable
 70
2
  0
VPORT
  5
1F4
100
AcDbSymbolTableRecord
100
AcDbViewportTableRecord
  2
*ACTIVE
 70
0
 10
0.0
 20
0.0
 11
1.0
 21
1.0
 12
148.5
 22
105.0
 13
0.0
 23
0.0
 14
1.0
 24
1.0
 15
0.0
 25
0.0
 16
0.0
 26
0.0
 36
1.0
 17
0.0
 27
0.0
 37
0.0
 40
210.0
 41
1.4142857143
 42
50.0
 43
0.0
 44
0.0
 50
0.0
 51
0.0
 71
0
 72
100
 73
1
 74
1
 75
0
 76
0
 77
0
 78
0
  0
ENDTAB
  0
TABLE
  2
LTYPE
  5
5
100
AcDbSymbolTable
 70
6
  0
LTYPE
  5
14
100
AcDbSymbolTableRecord
100
AcDbLinetypeTableRecord
  2
BYBLOCK
 70
0
  3

 72
65
 73
0
 40
0.0
  0
LTYPE
  5
15
100
AcDbSymbolTableRecord
100
AcDbLinetypeTableRecord
  2
BYLAYER
 70
0
  3

 72
65
 73
0
 40
0.0
  0
LTYPE
  5
16
100
AcDbSymbolTableRecord
100
AcDbLinetypeTableRecord
  2
CONTINUOUS
 70
64
  3
Solid line
 72
65
 73
0
 40
0.0
  0
LTYPE
  5
1F5
100
AcDbSymbolTableRecord
100
AcDbLinetypeTableRecord
  2
CENTER
 70
64
  3
____ _ ____ _ ____ _ ____ _ ____ _ ____ _ ____
 72
65
 73
4
 40
0.6
 49
0.375
 74
0
 49
-0.075
 74
0
 49
0.075
 74
0
 49
-0.075
 74
0
  0
LTYPE
  5
1F6
100
AcDbSymbolTableRecord
100
AcDbLinetypeTableRecord
  2
HIDDEN
 70
64
  3
- - - - - - - - - - - - - - - - - - - -
 72
65
 73
2
 40
0.2
 49
0.1
 74
0
 49
-0.1
 74
0
  0
LTYPE
  5
1F7
100
AcDbSymbolTableRecord
100
AcDbLinetypeTableRecord
  2
PHANTOM
 70
64
  3
_____ _ _ _____ _ _ _____ _ _ _____
 72
65
 73
6
 40
0.8
 49
0.45
 74
0
 49
-0.05
 74
0
 49
0.1
 74
0
 49
-0.05
 74
0
 49
0.1
 74
0
 49
-0.05
 74
0
  0
LTYPE
  5
1F8
100
AcDbSymbolTableRecord
100
AcDbLinetypeTableRecord
  2
DOT
 70
64
  3
. . . . . . . . . . . . . . . . . . . .
 72
65
 73
2
 40
0.2
 49
0.1
 74
0
 49
-0.1
 74
0
  0
LTYPE
  5
1F9
100
AcDbSymbolTableRecord
100
AcDbLinetypeTableRecord
  2
DASHED
 70
64
  3
- - - - - - - - - - - - - - - - - - - -
 72
65
 73
2
 40
0.2
 49
0.1
 74
0
 49
-0.1
 74
0
  0
ENDTAB
  0
TABLE
  2
LAYER
  5
2
100
AcDbSymbolTable
 70
36
  0
LAYER
  5
10
100
AcDbSymbolTableRecord
100
AcDbLayerTableRecord
  2
0
 70
0
 62
7
  6
CONTINUOUS
370
-3
390
F
  0
LAYER
  5
1FA
100
AcDbSymbolTableRecord
100
AcDbLayerTableRecord
  2
DEFAULT_1
 70
0
 62
7
  6
CENTER
370
-3
390
F
  0
LAYER
  5
1FB
100
AcDbSymbolTableRecord
100
AcDbLayerTableRecord
  2
DEFAULT_2
 70
0
 62
7
  6
HIDDEN
370
-3
390
F
  0
LAYER
  5
1FC
100
AcDbSymbolTableRecord
100
AcDbLayerTableRecord
  2
DEFAULT_3
 70
0
 62
7
  6
PHANTOM
370
-3
390
F
  0
LAYER
  5
1FD
100
AcDbSymbolTableRecord
100
AcDbLayerTableRecord
  2
ASSI
 70
0
 62
7
  6
CONTINUOUS
370
-3
390
F
  0
LAYER
  5
1FE
100
AcDbSymbolTableRecord
100
AcDbLayerTableRecord
  2
COORDINATE
 70
0
 62
7
  6
CONTINUOUS
370
-3
390
F
  0
LAYER
  5
1FF
100
AcDbSymbolTableRecord
100
AcDbLayerTableRecord
  2
COORD_ORIGINE
 70
0
 62
7
  6
CONTINUOUS
370
-3
390
F
  0
LAYER
  5
200
100
AcDbSymbolTableRecord
100
AcDbLayerTableRecord
  2
COPY_PUBLISH
 70
0
 62
7
  6
CONTINUOUS
370
-3
390
F
  0
LAYER
  5
201
100
AcDbSymbolTableRecord
100
AcDbLayerTableRecord
  2
COSMETIC
 70
0
 62
7
  6
CONTINUOUS
370
-3
390
F
  0
LAYER
  5
202
100
AcDbSymbolTableRecord
100
AcDbLayerTableRecord
  2
COSMETICHE
 70
0
 62
7
  6
CONTINUOUS
370
-3
390
F
  0
LAYER
  5
203
100
AcDbSymbolTableRecord
100
AcDbLayerTableRecord
  2
COSMETICI
 70
0
 62
7
  6
CONTINUOUS
370
-3
390
F
  0
LAYER
  5
204
100
AcDbSymbolTableRecord
100
AcDbLayerTableRecord
  2
CURVE
 70
0
 62
7
  6
CONTINUOUS
370
-3
390
F
  0
LAYER
  5
205
100
AcDbSymbolTableRecord
100
AcDbLayerTableRecord
  2
DRAFT
 70
0
 62
7
  6
CONTINUOUS
370
-3
390
F
  0
LAYER
  5
206
100
AcDbSymbolTableRecord
100
AcDbLayerTableRecord
  2
ESTENSIONE
 70
0
 62
7
  6
CONTINUOUS
370
-3
390
F
  0
LAYER
  5
207
100
AcDbSymbolTableRecord
100
AcDbLayerTableRecord
  2
ESTETICA
 70
0
 62
7
  6
CONTINUOUS
370
-3
390
F
  0
LAYER
  5
208
100
AcDbSymbolTableRecord
100
AcDbLayerTableRecord
  2
IMPORT_IGES
 70
0
 62
7
  6
CONTINUOUS
370
-3
390
F
  0
LAYER
  5
209
100
AcDbSymbolTableRecord
100
AcDbLayerTableRecord
  2
INTFCLR_1
 70
0
 62
7
  6
CONTINUOUS
370
-3
390
F
  0
LAYER
  5
20A
100
AcDbSymbolTableRecord
100
AcDbLayerTableRecord
  2
INTF_1
 70
0
 62
7
  6
CONTINUOUS
370
-3
390
F
  0
LAYER
  5
20B
100
AcDbSymbolTableRecord
100
AcDbLayerTableRecord
  2
INTF_11
 70
0
 62
7
  6
CONTINUOUS
370
-3
390
F
  0
LAYER
  5
20C
100
AcDbSymbolTableRecord
100
AcDbLayerTableRecord
  2
INTF_2
 70
0
 62
7
  6
CONTINUOUS
370
-3
390
F
  0
LAYER
  5
20D
100
AcDbSymbolTableRecord
100
AcDbLayerTableRecord
  2
INTF_YELLOW
 70
0
 62
7
  6
CONTINUOUS
370
-3
390
F
  0
LAYER
  5
20E
100
AcDbSymbolTableRecord
100
AcDbLayerTableRecord
  2
NOTE
 70
0
 62
7
  6
CONTINUOUS
370
-3
390
F
  0
LAYER
  5
20F
100
AcDbSymbolTableRecord
100
AcDbLayerTableRecord
  2
PIANI
 70
0
 62
7
  6
CONTINUOUS
370
-3
390
F
  0
LAYER
  5
210
100
AcDbSymbolTableRecord
100
AcDbLayerTableRecord
  2
PIANI_ORIGINE
 70
0
 62
7
  6
CONTINUOUS
370
-3
390
F
  0
LAYER
  5
211
100
AcDbSymbolTableRecord
100
AcDbLayerTableRecord
  2
PUNTI
 70
0
 62
7
  6
CONTINUOUS
370
-3
390
F
  0
LAYER
  5
212
100
AcDbSymbolTableRecord
100
AcDbLayerTableRecord
  2
RACCORDO
 70
0
 62
7
  6
CONTINUOUS
370
-3
390
F
  0
LAYER
  5
213
100
AcDbSymbolTableRecord
100
AcDbLayerTableRecord
  2
RGB__255__255__255__
 70
0
 62
7
  6
CONTINUOUS
370
-3
390
F
  0
LAYER
  5
214
100
AcDbSymbolTableRecord
100
AcDbLayerTableRecord
  2
RGB____0____0____0__
 70
0
 62
7
  6
CONTINUOUS
370
-3
390
F
  0
LAYER
  5
215
100
AcDbSymbolTableRecord
100
AcDbLayerTableRecord
  2
SMUSSO
 70
0
 62
7
  6
CONTINUOUS
370
-3
390
F
  0
LAYER
  5
216
100
AcDbSymbolTableRecord
100
AcDbLayerTableRecord
  2
SNAPLINE
 70
0
 62
7
  6
CONTINUOUS
370
-3
390
F
  0
LAYER
  5
217
100
AcDbSymbolTableRecord
100
AcDbLayerTableRecord
  2
SUPERFICI
 70
0
 62
7
  6
CONTINUOUS
370
-3
390
F
  0
LAYER
  5
218
100
AcDbSymbolTableRecord
100
AcDbLayerTableRecord
  2
SUP_ASS_ANCORINA
 70
0
 62
7
  6
CONTINUOUS
370
-3
390
F
  0
LAYER
  5
219
100
AcDbSymbolTableRecord
100
AcDbLayerTableRecord
  2
TRASH
 70
0
 62
7
  6
CONTINUOUS
370
-3
390
F
  0
LAYER
  5
21A
100
AcDbSymbolTableRecord
100
AcDbLayerTableRecord
  2
XSEC_DATUMS
 70
0
 62
7
  6
CONTINUOUS
370
-3
390
F
  0
ENDTAB
  0
TABLE
  2
STYLE
  5
3
100
AcDbSymbolTable
 70
1
  0
STYLE
  5
11
100
AcDbSymbolTableRecord
100
AcDbTextStyleTableRecord
  2
STANDARD
 70
0
 40
0.0
 41
0.8
 50
0.0
 71
0
 42
0.2
  3
txt
  4

  0
STYLE
  5
21B
100
AcDbSymbolTableRecord
100
AcDbTextStyleTableRecord
  2
TEXTSTYLE_1
 70
0
 40
0.0
 41
0.8
 50
0.0
 71
0
 42
0.2
  3
gdt
  4

  0
ENDTAB
  0
TABLE
  2
VIEW
  5
6
100
AcDbSymbolTable
 70
0
  0
ENDTAB
  0
TABLE
  2
UCS
  5
7
100
AcDbSymbolTable
 70
0
  0
ENDTAB
  0
TABLE
  2
APPID
  5
9
100
AcDbSymbolTable
 70
1
  0
APPID
  5
21C
100
AcDbSymbolTableRecord
100
AcDbRegAppTableRecord
  2
ACAD
 70
0
  0
ENDTAB
  0
TABLE
  2
BLOCK_RECORD
  5
1
100
AcDbSymbolTable
 70
0
  0
BLOCK_RECORD
  5
21D
100
AcDbSymbolTableRecord
100
AcDbBlockTableRecord
  2
*Model_Space
  0
BLOCK_RECORD
  5
21E
100
AcDbSymbolTableRecord
100
AcDbBlockTableRecord
  2
*Paper_Space
  0
BLOCK_RECORD
  5
21F
100
AcDbSymbolTableRecord
100
AcDbBlockTableRecord
  2
_FILLED
  0
BLOCK_RECORD
  5
220
100
AcDbSymbolTableRecord
100
AcDbBlockTableRecord
  2
*D0
  0
BLOCK_RECORD
  5
221
100
AcDbSymbolTableRecord
100
AcDbBlockTableRecord
  2
*D1
  0
BLOCK_RECORD
  5
222
100
AcDbSymbolTableRecord
100
AcDbBlockTableRecord
  2
*D2
  0
BLOCK_RECORD
  5
223
100
AcDbSymbolTableRecord
100
AcDbBlockTableRecord
  2
*D3
  0
ENDTAB
  0
TABLE
  2
DIMSTYLE
  5
A
100
AcDbSymbolTable
 70
1
100
AcDbDimStyleTable
 71
0
  0
DIMSTYLE
105
224
100
AcDbSymbolTableRecord
100
AcDbDimStyleTableRecord
  2
STANDARD
 70
0
  3

  4

 40
1.0
 41
3.0
 42
0.5
 43
0.38
 44
1.5
 45
0.0
 46
0.0
 47
0.01
 48
0.01
140
3.0
141
0.09
142
0.0
143
25.4
144
1.0
145
0.0
146
1.0
147
0.625
 71
1.0
 72
0.0
 73
0
 74
0
 75
0
 76
0
 77
1
 78
8
 79
2
170
0
171
1
172
0
173
0
174
0
175
0
176
0
177
0
178
0
270
2
179
2
271
2
272
2
273
2
274
2
275
0
280
0
281
0
282
0
283
1
284
8
285
0
286
0
287
3
288
0
340
11
278
44
341
21F
342
21F
343
21F
344
21F
  0
DIMSTYLE
105
225
100
AcDbSymbolTableRecord
100
AcDbDimStyleTableRecord
  2
DIMSTYLE_1
 70
0
  3

  4

 40
1.0
 41
3.0
 42
0.5
 43
0.38
 44
1.5
 45
0.0
 46
0.0
 47
0.0
 48
0.0
140
3.0
141
0.09
142
0.0
143
25.4
144
1.0
145
0.0
146
1.0
147
0.75
 71
0.0
 72
0.0
 73
0
 74
0
 75
0
 76
0
 77
1
 78
8
 79
2
170
0
171
1
172
0
173
0
174
0
175
0
176
0
177
0
178
0
270
2
179
2
271
2
272
2
273
2
274
2
275
0
280
0
281
0
282
0
283
1
284
8
285
0
286
0
287
3
288
0
340
11
278
44
341
21F
342
21F
343
21F
344
21F
  0
DIMSTYLE
105
226
100
AcDbSymbolTableRecord
100
AcDbDimStyleTableRecord
  2
DIMSTYLE_2
 70
0
  3

  4

 40
1.0
 41
3.0
 42
0.5
 43
0.38
 44
1.5
 45
0.0
 46
0.0
 47
0.0
 48
0.0
140
3.0
141
0.09
142
0.0
143
25.4
144
1.0
145
0.0
146
1.0
147
0.75
 71
0.0
 72
0.0
 73
0
 74
0
 75
0
 76
0
 77
1
 78
8
 79
2
170
0
171
1
172
0
173
0
174
0
175
0
176
0
177
0
178
0
270
2
179
2
271
1
272
1
273
2
274
2
275
0
280
0
281
0
282
0
283
1
284
8
285
0
286
0
287
3
288
0
340
11
278
44
341
21F
342
21F
343
21F
344
21F
  0
ENDTAB
  0
ENDSEC
  0
SECTION
  2
BLOCKS
  0
BLOCK
  5
20
100
AcDbEntity
  8
0
100
AcDbBlockBegin
  2
*Model_Space
 70
0
 10
0.0
 20
0.0
 30
0.0
  3
*Model_Space
  1

  0
ENDBLK
  5
21
100
AcDbEntity
  8
0
100
AcDbBlockEnd
  0
BLOCK
  5
1C
100
AcDbEntity
  8
0
100
AcDbBlockBegin
  2
*Paper_Space
 70
0
 10
0.0
 20
0.0
 30
0.0
  3
*Paper_Space
  1

  0
ENDBLK
  5
1D
100
AcDbEntity
  8
0
100
AcDbBlockEnd
  0
BLOCK
  5
227
100
AcDbEntity
  8
0
100
AcDbBlockBegin
  2
_FILLED
 70
64
 10
0.0
 20
0.0
  3
_FILLED
  1

  0
SOLID
  5
228
100
AcDbEntity
  8
0
  6
BYBLOCK
 62
0
100
AcDbTrace
 10
0.0
 20
0.0
 11
-1.0
 21
0.3166666667
 12
-1.0
 22
-0.3166666667
 13
-1.0
 23
-0.3166666667
  0
ENDBLK
  5
229
100
AcDbEntity
  8
0
  6
BYBLOCK
 62
0
100
AcDbBlockEnd
  0
BLOCK
  5
22A
100
AcDbEntity
  8
0
100
AcDbBlockBegin
 62
7
  6
CONTINUOUS
  2
*D0
 70
65
 10
0.0
 20
0.0
  3
*D0
  1

  0
LINE
  5
22B
100
AcDbEntity
  8
0
100
AcDbLine
 62
7
  6
CONTINUOUS
 10
65.5668817733
 20
58.3097262612
 11
65.5668817733
 21
140.7187841898
  0
LINE
  5
22C
100
AcDbEntity
  8
0
100
AcDbLine
 62
7
  6
CONTINUOUS
 10
105.162413155
 20
84.7009462032
 11
105.162413155
 21
140.7187841898
  0
LINE
  5
22D
100
AcDbEntity
  8
0
100
AcDbLine
 62
7
  6
CONTINUOUS
 10
65.5668817733
 20
139.2187841898
 11
85.3646474642
 21
139.2187841898
  0
LINE
  5
22E
100
AcDbEntity
  8
0
100
AcDbLine
 62
7
  6
CONTINUOUS
 10
105.162413155
 20
139.2187841898
 11
85.3646474642
 21
139.2187841898
  0
INSERT
  5
22F
100
AcDbEntity
  8
0
100
AcDbBlockReference
 62
7
  6
CONTINUOUS
  2
_FILLED
 10
65.5668817733
 20
139.2187841898
 41
3.0
 42
3.0
 43
3.0
 50
180.0
  0
INSERT
  5
230
100
AcDbEntity
  8
0
100
AcDbBlockReference
 62
7
  6
CONTINUOUS
  2
_FILLED
 10
105.162413155
 20
139.2187841898
 41
3.0
 42
3.0
 43
3.0
  0
ENDBLK
  5
231
100
AcDbEntity
  8
0
  6
BYBLOCK
 62
0
100
AcDbBlockEnd
  0
BLOCK
  5
232
100
AcDbEntity
  8
0
100
AcDbBlockBegin
 62
7
  6
CONTINUOUS
  2
*D1
 70
65
 10
0.0
 20
0.0
  3
*D1
  1

  0
LINE
  5
233
100
AcDbEntity
  8
0
100
AcDbLine
 62
7
  6
CONTINUOUS
 10
105.162413155
 20
84.2204383967
 11
105.162413155
 21
130.7187841898
  0
LINE
  5
234
100
AcDbEntity
  8
0
100
AcDbLine
 62
7
  6
CONTINUOUS
 10
78.332413155
 20
99.7215122032
 11
78.332413155
 21
130.7187841898
  0
LINE
  5
235
100
AcDbEntity
  8
0
100
AcDbLine
 62
7
  6
CONTINUOUS
 10
105.162413155
 20
129.2187841898
 11
91.747413155
 21
129.2187841898
  0
LINE
  5
236
100
AcDbEntity
  8
0
100
AcDbLine
 62
7
  6
CONTINUOUS
 10
78.332413155
 20
129.2187841898
 11
91.747413155
 21
129.2187841898
  0
INSERT
  5
237
100
AcDbEntity
  8
0
100
AcDbBlockReference
 62
7
  6
CONTINUOUS
  2
_FILLED
 10
105.162413155
 20
129.2187841898
 41
3.0
 42
3.0
 43
3.0
  0
INSERT
  5
238
100
AcDbEntity
  8
0
100
AcDbBlockReference
 62
7
  6
CONTINUOUS
  2
_FILLED
 10
78.332413155
 20
129.2187841898
 41
3.0
 42
3.0
 43
3.0
 50
180.0
  0
ENDBLK
  5
239
100
AcDbEntity
  8
0
  6
BYBLOCK
 62
0
100
AcDbBlockEnd
  0
BLOCK
  5
23A
100
AcDbEntity
  8
0
100
AcDbBlockBegin
 62
7
  6
CONTINUOUS
  2
*D2
 70
65
 10
0.0
 20
0.0
  3
*D2
  1

  0
LINE
  5
23B
100
AcDbEntity
  8
0
100
AcDbLine
 62
7
  6
CONTINUOUS
 10
140.8098583291
 20
101.7215122032
 11
189.1350008509
 21
101.7215122032
  0
LINE
  5
23C
100
AcDbEntity
  8
0
100
AcDbLine
 62
7
  6
CONTINUOUS
 10
140.8098583291
 20
54.7215122032
 11
189.1350008509
 21
54.7215122032
  0
LINE
  5
23D
100
AcDbEntity
  8
0
100
AcDbLine
 62
7
  6
CONTINUOUS
 10
187.6350008509
 20
101.7215122032
 11
187.6350008509
 21
78.2215122032
  0
LINE
  5
23E
100
AcDbEntity
  8
0
100
AcDbLine
 62
7
  6
CONTINUOUS
 10
187.6350008509
 20
54.7215122032
 11
187.6350008509
 21
78.2215122032
  0
INSERT
  5
23F
100
AcDbEntity
  8
0
100
AcDbBlockReference
 62
7
  6
CONTINUOUS
  2
_FILLED
 10
187.6350008509
 20
101.7215122032
 41
3.0
 42
3.0
 43
3.0
 50
90.0
  0
INSERT
  5
240
100
AcDbEntity
  8
0
100
AcDbBlockReference
 62
7
  6
CONTINUOUS
  2
_FILLED
 10
187.6350008509
 20
54.7215122032
 41
3.0
 42
3.0
 43
3.0
 50
270.0
  0
ENDBLK
  5
241
100
AcDbEntity
  8
0
  6
BYBLOCK
 62
0
100
AcDbBlockEnd
  0
BLOCK
  5
242
100
AcDbEntity
  8
0
100
AcDbBlockBegin
 62
7
  6
CONTINUOUS
  2
*D3
 70
65
 10
0.0
 20
0.0
  3
*D3
  1

  0
LINE
  5
243
100
AcDbEntity
  8
0
100
AcDbLine
 62
7
  6
CONTINUOUS
 10
125.4850008509
 20
94.8406800425
 11
125.4850008509
 21
130.7187841898
  0
LINE
  5
244
100
AcDbEntity
  8
0
100
AcDbLine
 62
7
  6
CONTINUOUS
 10
147.7850008509
 20
94.8406800425
 11
147.7850008509
 21
130.7187841898
  0
LINE
  5
245
100
AcDbEntity
  8
0
100
AcDbLine
 62
7
  6
CONTINUOUS
 10
125.4850008509
 20
129.2187841898
 11
136.6350008509
 21
129.2187841898
  0
LINE
  5
246
100
AcDbEntity
  8
0
100
AcDbLine
 62
7
  6
CONTINUOUS
 10
147.7850008509
 20
129.2187841898
 11
136.6350008509
 21
129.2187841898
  0
INSERT
  5
247
100
AcDbEntity
  8
0
100
AcDbBlockReference
 62
7
  6
CONTINUOUS
  2
_FILLED
 10
125.4850008509
 20
129.2187841898
 41
3.0
 42
3.0
 43
3.0
 50
180.0
  0
INSERT
  5
248
100
AcDbEntity
  8
0
100
AcDbBlockReference
 62
7
  6
CONTINUOUS
  2
_FILLED
 10
147.7850008509
 20
129.2187841898
 41
3.0
 42
3.0
 43
3.0
  0
ENDBLK
  5
249
100
AcDbEntity
  8
0
  6
BYBLOCK
 62
0
100
AcDbBlockEnd
  0
ENDSEC
  0
SECTION
  2
ENTITIES
  0
DIMENSION
  5
24A
100
AcDbEntity
  8
0
100
AcDbDimension
 62
7
  6
CONTINUOUS
  2
*D0
 10
105.162413155
 20
139.2187841898
 11
81.0789331785
 21
139.2187841898
 70
160
 71
2
 72
2
 41
0.9
 42
39.5955313817
  3
DIMSTYLE_1
100
AcDbAlignedDimension
 13
65.5668817733
 23
57.8097262612
 14
105.162413155
 24
84.2009462032
100
AcDbRotatedDimension
  0
DIMENSION
  5
24B
100
AcDbEntity
  8
0
100
AcDbDimension
 62
7
  6
CONTINUOUS
  2
*D1
 10
78.332413155
 20
129.2187841898
 11
87.3545560122
 21
129.2187841898
 70
160
 71
2
 72
2
 41
0.9
 42
26.83
  3
DIMSTYLE_2
100
AcDbAlignedDimension
 13
105.162413155
 23
83.7204383967
 14
78.332413155
 24
99.2215122032
 50
180.0
100
AcDbRotatedDimension
  0
DIMENSION
  5
24C
100
AcDbEntity
  8
0
100
AcDbDimension
 62
7
  6
CONTINUOUS
  2
*D2
 10
187.6350008509
 20
54.7215122032
 11
187.6350008509
 21
75.864369346
 70
160
 71
2
 72
2
 41
0.9
 42
47.0
  3
DIMSTYLE_1
100
AcDbAlignedDimension
 13
140.3098583291
 23
101.7215122032
 14
140.3098583291
 24
54.7215122032
 50
270.0
100
AcDbRotatedDimension
  0
DIMENSION
  5
24D
100
AcDbEntity
  8
0
100
AcDbDimension
 62
7
  6
CONTINUOUS
  2
*D3
 10
147.7850008509
 20
129.2187841898
 11
132.3492865652
 21
129.2187841898
 70
160
 71
2
 72
2
 41
0.9
 42
22.3
  3
DIMSTYLE_1
100
AcDbAlignedDimension
 13
125.4850008509
 23
94.3406800425
 14
147.7850008509
 24
94.3406800425
100
AcDbRotatedDimension
  0
LWPOLYLINE
  5
24E
100
AcDbEntity
  8
0
100
AcDbPolyline
 62
7
  6
CONTINUOUS
 90
10
 70
0
 43
0.3500000006
 10
83.6503654175
 20
139.9687770996
 10
84.5075033569
 20
140.8259331665
 10
84.7217878418
 20
141.683071106
 10
84.7217878418
 20
142.5402090454
 10
84.2932188721
 20
142.9687780151
 10
83.6503654175
 20
142.9687780151
 10
83.221787384
 20
142.5402090454
 10
83.221787384
 20
141.683071106
 10
83.6503654175
 20
141.2545021362
 10
84.5789345398
 20
141.2545021362
  0
LWPOLYLINE
  5
24F
100
AcDbEntity
  8
0
100
AcDbPolyline
 62
7
  6
CONTINUOUS
 90
5
 70
0
 43
0.3500000006
 10
81.9360804749
 20
141.683071106
 10
82.2932182617
 20
141.8973555908
 10
82.2932182617
 20
142.5402090454
 10
81.9360804749
 20
142.9687780151
 10
81.0789334717
 20
142.9687780151
  0
LWPOLYLINE
  5
250
100
AcDbEntity
  8
0
100
AcDbPolyline
 62
7
  6
CONTINUOUS
 90
10
 70
0
 43
0.3500000006
 10
88.3646512756
 20
142.9687780151
 10
87.7217887573
 20
142.3259245605
 10
87.2932197876
 20
141.4687866211
 10
87.2932197876
 20
140.3973641968
 10
87.7217887573
 20
139.9687770996
 10
88.3646512756
 20
139.9687770996
 10
88.7932202454
 20
140.3973641968
 10
88.7932202454
 20
141.2545021362
 10
88.3646512756
 20
141.683071106
 10
87.4360730896
 20
141.683071106
  0
LWPOLYLINE
  5
251
100
AcDbEntity
  8
0
100
AcDbPolyline
 62
7
  6
CONTINUOUS
 90
10
 70
0
 43
0.3500000006
 10
90.7831238708
 20
132.9687930908
 10
90.1402704163
 20
132.3259215088
 10
89.7117014465
 20
131.4687835693
 10
89.7117014465
 20
130.3973520813
 10
90.1402704163
 20
129.9687831116
 10
90.7831238708
 20
129.9687831116
 10
91.2117019043
 20
130.3973520813
 10
91.2117019043
 20
131.2544990845
 10
90.7831238708
 20
131.6830680542
 10
89.8545547485
 20
131.6830680542
  0
LWPOLYLINE
  5
252
100
AcDbEntity
  8
0
100
AcDbPolyline
 62
7
  6
CONTINUOUS
 90
3
 70
0
 43
0.3500000006
 10
86.2932194824
 20
140.2545018311
 10
86.2217882996
 20
140.0402173462
 10
86.0789349976
 20
139.7544926147
  0
LINE
  5
253
100
AcDbEntity
  8
RACCORDO
100
AcDbLine
 62
7
  6
CONTINUOUS
 10
76.332413155
 20
56.9145911084
 11
76.332413155
 21
57.128285968
  0
LINE
  5
254
100
AcDbEntity
  8
RACCORDO
100
AcDbLine
 62
7
  6
CONTINUOUS
 10
76.332413155
 20
99.3145911084
 11
76.332413155
 21
99.5282858211
  0
LINE
  5
255
100
AcDbEntity
  8
RACCORDO
100
AcDbLine
 62
250
  6
CONTINUOUS
 10
76.7254320114
 20
56.5146520335
 11
76.7254320119
 21
57.5283723728
  0
LINE
  5
256
100
AcDbEntity
  8
RACCORDO
100
AcDbLine
 62
250
  6
CONTINUOUS
 10
76.7254320119
 20
98.9146520335
 11
76.7254320114
 21
99.9283723728
  0
LINE
  5
257
100
AcDbEntity
  8
RACCORDO
100
AcDbLine
 62
7
  6
CONTINUOUS
 10
76.3289469551
 20
99.7592777146
 11
72.5115254227
 21
56.1259499382
  0
LINE
  5
258
100
AcDbEntity
  8
RACCORDO
100
AcDbLine
 62
250
  6
CONTINUOUS
 10
77.0006481882
 20
95.6131461375
 11
77.5928301011
 21
100.4795285275
  0
LINE
  5
259
100
AcDbEntity
  8
RACCORDO
100
AcDbLine
 62
250
  6
CONTINUOUS
 10
77.0737808824
 20
96.213417888
 11
77.1451165497
 21
96.799779133
  0
LWPOLYLINE
  5
25A
100
AcDbEntity
  8
RACCORDO
100
AcDbPolyline
 62
250
  6
CONTINUOUS
 90
4
 70
0
 10
77.2146551901
 20
97.3717919265
 10
77.2824456691
 20
97.9290292772
 10
77.3484391212
 20
98.4710771816
 10
77.3981133132
 20
98.8793742131
  0
LINE
  5
25B
100
AcDbEntity
  8
RACCORDO
100
AcDbLine
 62
250
  6
CONTINUOUS
 10
77.3981133132
 20
98.8793742131
 11
77.5346600073
 21
100.0021317763
  0
LINE
  5
25C
100
AcDbEntity
  8
RACCORDO
100
AcDbLine
 62
7
  6
CONTINUOUS
 10
74.6548586657
 20
78.4043162183
 11
77.3510718975
 21
100.3632108214
  0
LINE
  5
25D
100
AcDbEntity
  8
RACCORDO
100
AcDbLine
 62
250
  6
CONTINUOUS
 10
74.898632102
 20
78.3738488824
 11
76.8630913893
 21
94.3730858615
  0
LWPOLYLINE
  5
25E
100
AcDbEntity
  8
0
100
AcDbPolyline
 62
7
  6
CONTINUOUS
 90
3
 70
0
 43
0.3500000006
 10
92.7831244812
 20
130.2544987793
 10
92.7117023621
 20
130.0402142944
 10
92.5688399963
 20
129.7544986267
  0
LINE
  5
25F
100
AcDbEntity
  8
0
100
AcDbLine
 62
7
  6
CONTINUOUS
 10
80.0326874103
 20
93.6761348999
 11
80.061275859
 21
93.7047233486
  0
LINE
  5
260
100
AcDbEntity
  8
0
100
AcDbLine
 62
7
  6
CONTINUOUS
 10
80.0326874103
 20
93.4661241859
 11
80.2343057146
 21
93.6677424902
  0
LINE
  5
261
100
AcDbEntity
  8
0
100
AcDbLine
 62
7
  6
CONTINUOUS
 10
80.0326874103
 20
93.2561134718
 11
80.2343057146
 21
93.4577317762
  0
LINE
  5
262
100
AcDbEntity
  8
0
100
AcDbLine
 62
7
  6
CONTINUOUS
 10
80.0326874103
 20
93.0461027578
 11
80.2343057146
 21
93.2477210622
  0
LINE
  5
263
100
AcDbEntity
  8
0
100
AcDbLine
 62
7
  6
CONTINUOUS
 10
80.0326874103
 20
92.8360920438
 11
80.2343057146
 21
93.0377103481
  0
LINE
  5
264
100
AcDbEntity
  8
0
100
AcDbLine
 62
7
  6
CONTINUOUS
 10
80.8064097853
 20
93.6098144188
 11
80.8333047822
 21
93.6367094157
  0
LINE
  5
265
100
AcDbEntity
  8
0
100
AcDbLine
 62
7
  6
CONTINUOUS
 10
80.0326874103
 20
92.6260813298
 11
80.2343057146
 21
92.8276996341
  0
LINE
  5
266
100
AcDbEntity
  8
0
100
AcDbLine
 62
7
  6
CONTINUOUS
 10
80.8064097853
 20
93.3998037048
 11
81.0080280896
 21
93.6014220092
  0
LINE
  5
267
100
AcDbEntity
  8
0
100
AcDbLine
 62
7
  6
CONTINUOUS
 10
80.0785030404
 20
92.4618862459
 11
80.3179980545
 21
92.70138126
  0
LINE
  5
268
100
AcDbEntity
  8
0
100
AcDbLine
 62
7
  6
CONTINUOUS
 10
80.8064097853
 20
93.1897929908
 11
81.0080280896
 21
93.3914112951
  0
LINE
  5
269
100
AcDbEntity
  8
0
100
AcDbLine
 62
7
  6
CONTINUOUS
 10
80.2885137544
 20
92.4618862459
 11
80.5280087685
 21
92.70138126
  0
LINE
  5
26A
100
AcDbEntity
  8
0
100
AcDbLine
 62
7
  6
CONTINUOUS
 10
80.8064097853
 20
92.9797822768
 11
81.0080280896
 21
93.1814005811
  0
LINE
  5
26B
100
AcDbEntity
  8
0
100
AcDbLine
 62
7
  6
CONTINUOUS
 10
80.0326874103
 20
91.9960491878
 11
80.1513008141
 21
92.1146625916
  0
LINE
  5
26C
100
AcDbEntity
  8
0
100
AcDbLine
 62
7
  6
CONTINUOUS
 10
80.4985244684
 20
92.4618862459
 11
80.7380194825
 21
92.70138126
  0
LINE
  5
26D
100
AcDbEntity
  8
0
100
AcDbLine
 62
7
  6
CONTINUOUS
 10
80.8064097853
 20
92.7697715628
 11
81.0080280896
 21
92.9713898671
  0
LINE
  5
26E
100
AcDbEntity
  8
0
100
AcDbLine
 62
7
  6
CONTINUOUS
 10
81.6305205954
 20
93.5938823729
 11
81.7489771412
 21
93.7123389187
  0
LINE
  5
26F
100
AcDbEntity
  8
0
100
AcDbLine
 62
7
  6
CONTINUOUS
 10
80.1234199429
 20
91.8767710063
 11
80.3061915697
 21
92.0595426332
  0
LINE
  5
270
100
AcDbEntity
  8
0
100
AcDbLine
 62
7
  6
CONTINUOUS
 10
80.7085351824
 20
92.4618862459
 11
81.0080280896
 21
92.7613791531
  0
LINE
  5
271
100
AcDbEntity
  8
0
100
AcDbLine
 62
7
  6
CONTINUOUS
 10
81.6305205954
 20
93.3838716589
 11
81.8321388997
 21
93.5854899632
  0
LINE
  5
272
100
AcDbEntity
  8
0
100
AcDbLine
 62
7
  6
CONTINUOUS
 10
80.2805997994
 20
91.8239401488
 11
80.4610823252
 21
92.0044226747
  0
LINE
  5
273
100
AcDbEntity
  8
0
100
AcDbLine
 62
7
  6
CONTINUOUS
 10
80.9185458965
 20
92.4618862459
 11
81.1580409105
 21
92.70138126
  0
LINE
  5
274
100
AcDbEntity
  8
0
100
AcDbLine
 62
7
  6
CONTINUOUS
 10
81.6305205954
 20
93.1738609449
 11
81.8321388997
 21
93.3754792492
  0
LINE
  5
275
100
AcDbEntity
  8
0
100
AcDbLine
 62
7
  6
CONTINUOUS
 10
80.4377796559
 20
91.7711092913
 11
80.6159730808
 21
91.9493027162
  0
LINE
  5
276
100
AcDbEntity
  8
0
100
AcDbLine
 62
7
  6
CONTINUOUS
 10
81.1285566105
 20
92.4618862459
 11
81.3680516246
 21
92.70138126
  0
LINE
  5
277
100
AcDbEntity
  8
0
100
AcDbLine
 62
7
  6
CONTINUOUS
 10
81.6305205954
 20
92.9638502309
 11
81.8321388997
 21
93.1654685352
  0
LINE
  5
278
100
AcDbEntity
  8
0
100
AcDbLine
 62
7
  6
CONTINUOUS
 10
80.5949595124
 20
91.7182784338
 11
80.7708638363
 21
91.8941827578
  0
LINE
  5
279
100
AcDbEntity
  8
0
100
AcDbLine
 62
7
  6
CONTINUOUS
 10
81.3385673245
 20
92.4618862459
 11
81.5780623386
 21
92.70138126
  0
LINE
  5
27A
100
AcDbEntity
  8
0
100
AcDbLine
 62
7
  6
CONTINUOUS
 10
81.6305205954
 20
92.7538395169
 11
81.8321388997
 21
92.9554578212
  0
LINE
  5
27B
100
AcDbEntity
  8
0
100
AcDbLine
 62
7
  6
CONTINUOUS
 10
80.7521393689
 20
91.6654475763
 11
80.9257545919
 21
91.8390627993
  0
LINE
  5
27C
100
AcDbEntity
  8
0
100
AcDbLine
 62
7
  6
CONTINUOUS
 10
81.5485780385
 20
92.4618862459
 11
81.8321388997
 21
92.7454471072
  0
LINE
  5
27D
100
AcDbEntity
  8
0
100
AcDbLine
 62
7
  6
CONTINUOUS
 10
80.0326874103
 20
90.7359849037
 11
80.2305328893
 21
90.9338303827
  0
LINE
  5
27E
100
AcDbEntity
  8
0
100
AcDbLine
 62
7
  6
CONTINUOUS
 10
80.9093192254
 20
91.6126167188
 11
81.0806453475
 21
91.7839428409
  0
LINE
  5
27F
100
AcDbEntity
  8
0
100
AcDbLine
 62
7
  6
CONTINUOUS
 10
81.7585887525
 20
92.4618862459
 11
81.8321388997
 21
92.5354363932
  0
LINE
  5
280
100
AcDbEntity
  8
0
100
AcDbLine
 62
7
  6
CONTINUOUS
 10
80.1609779048
 20
90.6542646842
 11
80.5438317789
 21
91.0371185583
  0
LINE
  5
281
100
AcDbEntity
  8
0
100
AcDbLine
 62
7
  6
CONTINUOUS
 10
81.0664990819
 20
91.5597858613
 11
81.235536103
 21
91.7288228824
  0
LINE
  5
282
100
AcDbEntity
  8
0
100
AcDbLine
 62
7
  6
CONTINUOUS
 10
80.0326874103
 20
90.3159634757
 11
80.1139722882
 21
90.3972483536
  0
LINE
  5
283
100
AcDbEntity
  8
0
100
AcDbLine
 62
7
  6
CONTINUOUS
 10
80.4855917809
 20
90.7688678463
 11
80.8571306685
 21
91.1404067339
  0
LINE
  5
284
100
AcDbEntity
  8
0
100
AcDbLine
 62
7
  6
CONTINUOUS
 10
81.2236789384
 20
91.5069550038
 11
81.3904268586
 21
91.673702924
  0
LINE
  5
285
100
AcDbEntity
  8
0
100
AcDbLine
 62
7
  6
CONTINUOUS
 10
80.0326874103
 20
90.1059527617
 11
80.2343057146
 21
90.307571066
  0
LINE
  5
286
100
AcDbEntity
  8
0
100
AcDbLine
 62
7
  6
CONTINUOUS
 10
80.8102056571
 20
90.8834710085
 11
81.1704295581
 21
91.2436949095
  0
LINE
  5
287
100
AcDbEntity
  8
0
100
AcDbLine
 62
7
  6
CONTINUOUS
 10
81.3808587949
 20
91.4541241463
 11
81.5453176141
 21
91.6185829655
  0
LINE
  5
288
100
AcDbEntity
  8
0
100
AcDbLine
 62
7
  6
CONTINUOUS
 10
80.0326874103
 20
89.8959420477
 11
80.2343057146
 21
90.097560352
  0
LINE
  5
289
100
AcDbEntity
  8
0
100
AcDbLine
 62
7
  6
CONTINUOUS
 10
81.1348195332
 20
90.9980741706
 11
81.4837284477
 21
91.3469830851
  0
LINE
  5
28A
100
AcDbEntity
  8
0
100
AcDbLine
 62
7
  6
CONTINUOUS
 10
81.5380386514
 20
91.4012932888
 11
81.7002083697
 21
91.563463007
  0
LINE
  5
28B
100
AcDbEntity
  8
0
100
AcDbLine
 62
7
  6
CONTINUOUS
 10
80.0326874103
 20
89.6859313336
 11
80.2343057146
 21
89.887549638
  0
LINE
  5
28C
100
AcDbEntity
  8
0
100
AcDbLine
 62
7
  6
CONTINUOUS
 10
81.4594334094
 20
91.1126773328
 11
81.8321388997
 21
91.4853828231
  0
LINE
  5
28D
100
AcDbEntity
  8
SUPERFICI
100
AcDbLine
 62
7
  6
CONTINUOUS
 10
82.332413155
 20
54.7913324629
 11
78.332413155
 21
54.7215122032
  0
LINE
  5
28E
100
AcDbEntity
  8
ASSI
100
AcDbLine
 62
7
  6
CONTINUOUS
 10
78.332413155
 20
54.7215122032
 11
82.332413155
 21
54.7913324629
  0
LINE
  5
28F
100
AcDbEntity
  8
SUPERFICI
100
AcDbLine
 62
250
  6
CONTINUOUS
 10
78.332413155
 20
54.8881525457
 11
82.332413155
 21
54.9584048414
  0
LINE
  5
290
100
AcDbEntity
  8
ASSI
100
AcDbLine
 62
250
  6
CONTINUOUS
 10
78.332413155
 20
54.8881525457
 11
82.332413155
 21
54.9584048414
  0
LINE
  5
291
100
AcDbEntity
  8
SUPERFICI
100
AcDbLine
 62
7
  6
CONTINUOUS
 10
84.4819086389
 20
56.0215122032
 11
83.932413155
 21
56.0215122032
  0
LINE
  5
292
100
AcDbEntity
  8
ASSI
100
AcDbLine
 62
7
  6
CONTINUOUS
 10
84.4819086389
 20
56.0215122032
 11
83.932413155
 21
56.0215122032
  0
LINE
  5
293
100
AcDbEntity
  8
DRAFT
100
AcDbLine
 62
7
  6
CONTINUOUS
 10
76.7254321924
 20
56.5146520303
 11
77.2989095337
 21
56.5046419461
  0
LINE
  5
294
100
AcDbEntity
  8
RACCORDO
100
AcDbLine
 62
250
  6
CONTINUOUS
 10
66.0587105763
 20
57.8333237896
 11
65.5679400838
 21
57.8553995637
  0
LINE
  5
295
100
AcDbEntity
  8
RACCORDO
100
AcDbLine
 62
7
  6
CONTINUOUS
 10
78.332413155
 20
55.8215122032
 11
77.5861244463
 21
55.8606235371
  0
LINE
  5
296
100
AcDbEntity
  8
RACCORDO
100
AcDbLine
 62
250
  6
CONTINUOUS
 10
78.332413155
 20
55.9240290339
 11
77.5928300837
 21
55.9634960152
  0
LINE
  5
297
100
AcDbEntity
  8
RACCORDO
100
AcDbLine
 62
7
  6
CONTINUOUS
 10
66.4536785596
 20
56.8161544055
 11
72.5115254227
 21
56.1259499382
  0
LINE
  5
298
100
AcDbEntity
  8
RACCORDO
100
AcDbLine
 62
250
  6
CONTINUOUS
 10
66.5015871691
 20
57.3137008721
 11
72.5550983169
 21
56.6239903971
  0
LINE
  5
299
100
AcDbEntity
  8
0
100
AcDbLine
 62
250
  6
CONTINUOUS
 10
81.5716713411
 20
63.5165362032
 11
82.0000718163
 21
63.0408662032
  0
LINE
  5
29A
100
AcDbEntity
  8
RACCORDO
100
AcDbLine
 62
7
  6
CONTINUOUS
 10
77.3510718975
 20
56.0798135849
 11
74.6548586657
 21
78.0387081881
  0
LINE
  5
29B
100
AcDbEntity
  8
RACCORDO
100
AcDbLine
 62
250
  6
CONTINUOUS
 10
76.8630913893
 20
62.0699385448
 11
74.898632102
 21
78.0691755239
  0
LINE
  5
29C
100
AcDbEntity
  8
RACCORDO
100
AcDbLine
 62
250
  6
CONTINUOUS
 10
77.0737774641
 20
60.2296343645
 11
77.0006418091
 21
60.8299325358
  0
LINE
  5
29D
100
AcDbEntity
  8
RACCORDO
100
AcDbLine
 62
250
  6
CONTINUOUS
 10
77.5928300837
 20
55.9634960152
 11
77.0006418091
 21
60.8299325358
  0
LINE
  5
29E
100
AcDbEntity
  8
RACCORDO
100
AcDbLine
 62
7
  6
CONTINUOUS
 10
78.332413155
 20
100.5498349325
 11
78.332413155
 21
55.8215122032
  0
LINE
  5
29F
100
AcDbEntity
  8
SUPERFICI
100
AcDbLine
 62
7
  6
CONTINUOUS
 10
78.332413155
 20
55.2527597751
 11
78.332413155
 21
54.7215122032
  0
LINE
  5
2A0
100
AcDbEntity
  8
ASSI
100
AcDbLine
 62
7
  6
CONTINUOUS
 10
78.332413155
 20
55.2527597751
 11
78.332413155
 21
54.7215122032
  0
LINE
  5
2A1
100
AcDbEntity
  8
SUPERFICI
100
AcDbLine
 62
7
  6
CONTINUOUS
 10
78.332413155
 20
55.5583455812
 11
78.332413155
 21
101.7215122032
  0
LINE
  5
2A2
100
AcDbEntity
  8
ASSI
100
AcDbLine
 62
7
  6
CONTINUOUS
 10
78.332413155
 20
55.5583455812
 11
78.332413155
 21
101.7215122032
  0
LINE
  5
2A3
100
AcDbEntity
  8
0
100
AcDbLine
 62
250
  6
CONTINUOUS
 10
79.6256472543
 20
72.3222022032
 11
79.6256472543
 21
71.8422472032
  0
LINE
  5
2A4
100
AcDbEntity
  8
0
100
AcDbLine
 62
250
  6
CONTINUOUS
 10
80.0326874103
 20
87.2183010577
 11
80.0326874103
 21
87.4729276896
  0
LINE
  5
2A5
100
AcDbEntity
  8
0
100
AcDbLine
 62
250
  6
CONTINUOUS
 10
80.0326874103
 20
88.4258670496
 11
80.0326874103
 21
88.6527724983
  0
LINE
  5
2A6
100
AcDbEntity
  8
0
100
AcDbLine
 62
250
  6
CONTINUOUS
 10
80.0326874103
 20
89.1543953696
 11
80.0326874103
 21
90.3972483536
  0
LINE
  5
2A7
100
AcDbEntity
  8
0
100
AcDbLine
 62
250
  6
CONTINUOUS
 10
80.0326874103
 20
90.6089724234
 11
80.0326874103
 21
90.868604813
  0
LINE
  5
2A8
100
AcDbEntity
  8
0
100
AcDbLine
 62
250
  6
CONTINUOUS
 10
80.0326874103
 20
91.9072677736
 11
80.0326874103
 21
92.1568727666
  0
LINE
  5
2A9
100
AcDbEntity
  8
0
100
AcDbLine
 62
250
  6
CONTINUOUS
 10
80.0326874103
 20
92.4618862459
 11
80.0326874103
 21
93.7047233486
  0
LINE
  5
2AA
100
AcDbEntity
  8
0
100
AcDbLine
 62
250
  6
CONTINUOUS
 10
80.2343057146
 20
93.7047233486
 11
80.2343057146
 21
92.70138126
  0
LINE
  5
2AB
100
AcDbEntity
  8
0
100
AcDbLine
 62
250
  6
CONTINUOUS
 10
80.2343057146
 20
90.3972483536
 11
80.2343057146
 21
89.393889325
  0
LINE
  5
2AC
100
AcDbEntity
  8
0
100
AcDbLine
 62
250
  6
CONTINUOUS
 10
80.3675552103
 20
71.2972402032
 11
80.3675552103
 21
68.9290402032
  0
LINE
  5
2AD
100
AcDbEntity
  8
0
100
AcDbLine
 62
250
  6
CONTINUOUS
 10
80.8064097853
 20
89.393889325
 11
80.8064097853
 21
90.3291846595
  0
LINE
  5
2AE
100
AcDbEntity
  8
0
100
AcDbLine
 62
250
  6
CONTINUOUS
 10
80.8064097853
 20
92.70138126
 11
80.8064097853
 21
93.6367094157
  0
LINE
  5
2AF
100
AcDbEntity
  8
0
100
AcDbLine
 62
250
  6
CONTINUOUS
 10
80.878719155
 20
75.4417692032
 11
80.878719155
 21
75.0012552032
  0
LINE
  5
2B0
100
AcDbEntity
  8
0
100
AcDbLine
 62
250
  6
CONTINUOUS
 10
81.0080280896
 20
93.6367094157
 11
81.0080280896
 21
92.70138126
  0
LINE
  5
2B1
100
AcDbEntity
  8
0
100
AcDbLine
 62
250
  6
CONTINUOUS
 10
81.0080280896
 20
90.3291846595
 11
81.0080280896
 21
89.393889325
  0
LINE
  5
2B2
100
AcDbEntity
  8
0
100
AcDbLine
 62
250
  6
CONTINUOUS
 10
81.1250504172
 20
71.8422472032
 11
81.1250504172
 21
72.4421912032
  0
LINE
  5
2B3
100
AcDbEntity
  8
0
100
AcDbLine
 62
7
  6
CONTINUOUS
 10
80.0326874103
 20
89.4759206196
 11
80.2343057146
 21
89.6775389239
  0
LINE
  5
2B4
100
AcDbEntity
  8
0
100
AcDbLine
 62
7
  6
CONTINUOUS
 10
80.8064097853
 20
90.2496429946
 11
80.8859514502
 21
90.3291846595
  0
LINE
  5
2B5
100
AcDbEntity
  8
0
100
AcDbLine
 62
7
  6
CONTINUOUS
 10
81.7840472856
 20
91.2272804949
 11
81.8321388997
 21
91.2753721091
  0
LINE
  5
2B6
100
AcDbEntity
  8
0
100
AcDbLine
 62
7
  6
CONTINUOUS
 10
80.0326874103
 20
89.2659099056
 11
80.2343057146
 21
89.4675282099
  0
LINE
  5
2B7
100
AcDbEntity
  8
0
100
AcDbLine
 62
7
  6
CONTINUOUS
 10
80.8064097853
 20
90.0396322806
 11
81.0080280896
 21
90.241250585
  0
LINE
  5
2B8
100
AcDbEntity
  8
0
100
AcDbLine
 62
7
  6
CONTINUOUS
 10
80.1311835883
 20
89.1543953696
 11
80.3706775437
 21
89.393889325
  0
LINE
  5
2B9
100
AcDbEntity
  8
0
100
AcDbLine
 62
7
  6
CONTINUOUS
 10
80.8064097853
 20
89.8296215666
 11
81.0080280896
 21
90.0312398709
  0
LINE
  5
2BA
100
AcDbEntity
  8
0
100
AcDbLine
 62
7
  6
CONTINUOUS
 10
80.3411943023
 20
89.1543953696
 11
80.5806882577
 21
89.393889325
  0
LINE
  5
2BB
100
AcDbEntity
  8
0
100
AcDbLine
 62
7
  6
CONTINUOUS
 10
80.8064097853
 20
89.6196108526
 11
81.0080280896
 21
89.8212291569
  0
LINE
  5
2BC
100
AcDbEntity
  8
0
100
AcDbLine
 62
7
  6
CONTINUOUS
 10
80.0326874103
 20
88.6358777636
 11
80.049582145
 21
88.6527724983
  0
LINE
  5
2BD
100
AcDbEntity
  8
0
100
AcDbLine
 62
7
  6
CONTINUOUS
 10
80.5512050163
 20
89.1543953696
 11
80.7906989717
 21
89.393889325
  0
LINE
  5
2BE
100
AcDbEntity
  8
0
100
AcDbLine
 62
7
  6
CONTINUOUS
 10
80.8064097853
 20
89.4096001386
 11
81.0080280896
 21
89.6112184429
  0
LINE
  5
2BF
100
AcDbEntity
  8
0
100
AcDbLine
 62
7
  6
CONTINUOUS
 10
81.6305205954
 20
90.2337109487
 11
81.8016238092
 21
90.4048141625
  0
LINE
  5
2C0
100
AcDbEntity
  8
0
100
AcDbLine
 62
250
  6
CONTINUOUS
 10
83.4752702596
 20
92.0429406213
 11
83.6895560058
 21
92.2572265911
  0
LINE
  5
2C1
100
AcDbEntity
  8
0
100
AcDbLine
 62
7
  6
CONTINUOUS
 10
80.0326874103
 20
88.4258670496
 11
80.259592859
 21
88.6527724983
  0
LINE
  5
2C2
100
AcDbEntity
  8
0
100
AcDbLine
 62
7
  6
CONTINUOUS
 10
80.7612157304
 20
89.1543953696
 11
81.0080280896
 21
89.4012077289
  0
LINE
  5
2C3
100
AcDbEntity
  8
0
100
AcDbLine
 62
7
  6
CONTINUOUS
 10
81.6305205954
 20
90.0237002347
 11
81.8321388997
 21
90.225318539
  0
LINE
  5
2C4
100
AcDbEntity
  8
0
100
AcDbLine
 62
7
  6
CONTINUOUS
 10
80.2419754685
 20
88.4251443938
 11
80.4696035731
 21
88.6527724983
  0
LINE
  5
2C5
100
AcDbEntity
  8
0
100
AcDbLine
 62
7
  6
CONTINUOUS
 10
80.9712264444
 20
89.1543953696
 11
81.2107203997
 21
89.393889325
  0
LINE
  5
2C6
100
AcDbEntity
  8
0
100
AcDbLine
 62
7
  6
CONTINUOUS
 10
81.6305205954
 20
89.8136895207
 11
81.8321388997
 21
90.015307825
  0
LINE
  5
2C7
100
AcDbEntity
  8
0
100
AcDbLine
 62
7
  6
CONTINUOUS
 10
80.4512635267
 20
88.4244217379
 11
80.6796142871
 21
88.6527724983
  0
LINE
  5
2C8
100
AcDbEntity
  8
0
100
AcDbLine
 62
7
  6
CONTINUOUS
 10
81.1812371584
 20
89.1543953696
 11
81.4207311137
 21
89.393889325
  0
LINE
  5
2C9
100
AcDbEntity
  8
0
100
AcDbLine
 62
7
  6
CONTINUOUS
 10
81.6305205954
 20
89.6036788067
 11
81.8321388997
 21
89.805297111
  0
LINE
  5
2CA
100
AcDbEntity
  8
0
100
AcDbLine
 62
7
  6
CONTINUOUS
 10
80.6605515849
 20
88.4236990821
 11
80.8896250011
 21
88.6527724983
  0
LINE
  5
2CB
100
AcDbEntity
  8
0
100
AcDbLine
 62
7
  6
CONTINUOUS
 10
81.3912478724
 20
89.1543953696
 11
81.8321388997
 21
89.595286397
  0
LINE
  5
2CC
100
AcDbEntity
  8
0
100
AcDbLine
 62
7
  6
CONTINUOUS
 10
80.8698396431
 20
88.4229764263
 11
81.0996357151
 21
88.6527724983
  0
LINE
  5
2CD
100
AcDbEntity
  8
0
100
AcDbLine
 62
7
  6
CONTINUOUS
 10
81.6012585864
 20
89.1543953696
 11
81.8321388997
 21
89.385275683
  0
LINE
  5
2CE
100
AcDbEntity
  8
0
100
AcDbLine
 62
7
  6
CONTINUOUS
 10
80.0326874103
 20
87.3758134795
 11
80.3098349309
 21
87.6529610001
  0
LINE
  5
2CF
100
AcDbEntity
  8
0
100
AcDbLine
 62
7
  6
CONTINUOUS
 10
81.0791277013
 20
88.4222537705
 11
81.3096464291
 21
88.6527724983
  0
LINE
  5
2D0
100
AcDbEntity
  8
0
100
AcDbLine
 62
7
  6
CONTINUOUS
 10
81.8112693004
 20
89.1543953696
 11
81.8321388997
 21
89.175264969
  0
LINE
  5
2D1
100
AcDbEntity
  8
0
100
AcDbLine
 62
250
  6
CONTINUOUS
 10
83.0466988565
 20
90.2215122032
 11
82.832413155
 21
90.0072264122
  0
LINE
  5
2D2
100
AcDbEntity
  8
0
100
AcDbLine
 62
7
  6
CONTINUOUS
 10
80.0851857025
 20
87.2183010577
 11
80.9091699677
 21
88.0422853229
  0
LINE
  5
2D3
100
AcDbEntity
  8
0
100
AcDbLine
 62
7
  6
CONTINUOUS
 10
81.2884157595
 20
88.4215311147
 11
81.5196571431
 21
88.6527724983
  0
LINE
  5
2D4
100
AcDbEntity
  8
0
100
AcDbLine
 62
7
  6
CONTINUOUS
 10
80.2951964165
 20
87.2183010577
 11
80.526656253
 21
87.4497608941
  0
LINE
  5
2D5
100
AcDbEntity
  8
0
100
AcDbLine
 62
7
  6
CONTINUOUS
 10
80.7867817435
 20
87.7098863847
 11
81.7296678571
 21
88.6527724983
  0
LINE
  5
2D6
100
AcDbEntity
  8
0
100
AcDbLine
 62
7
  6
CONTINUOUS
 10
80.5052071305
 20
87.2183010577
 11
80.7359343207
 21
87.4490282478
  0
LINE
  5
2D7
100
AcDbEntity
  8
0
100
AcDbLine
 62
7
  6
CONTINUOUS
 10
81.3888058363
 20
88.1018997634
 11
81.8321388997
 21
88.5452328269
  0
LINE
  5
2D8
100
AcDbEntity
  8
0
100
AcDbLine
 62
7
  6
CONTINUOUS
 10
80.7152178445
 20
87.2183010577
 11
80.9452123884
 21
87.4482956015
  0
LINE
  5
2D9
100
AcDbEntity
  8
0
100
AcDbLine
 62
7
  6
CONTINUOUS
 10
80.9252285585
 20
87.2183010577
 11
81.1544904561
 21
87.4475629552
  0
LINE
  5
2DA
100
AcDbEntity
  8
0
100
AcDbLine
 62
250
  6
CONTINUOUS
 10
82.832413155
 20
88.9357979941
 11
83.0466988565
 21
89.1500836062
  0
LINE
  5
2DB
100
AcDbEntity
  8
0
100
AcDbLine
 62
7
  6
CONTINUOUS
 10
81.1352392726
 20
87.2183010577
 11
81.3637685238
 21
87.4468303089
  0
LINE
  5
2DC
100
AcDbEntity
  8
0
100
AcDbLine
 62
7
  6
CONTINUOUS
 10
81.3452499866
 20
87.2183010577
 11
81.5730465915
 21
87.4460976626
  0
LINE
  5
2DD
100
AcDbEntity
  8
0
100
AcDbLine
 62
7
  6
CONTINUOUS
 10
79.7883699372
 20
85.6217297184
 11
79.9057109401
 21
85.7390707213
  0
LINE
  5
2DE
100
AcDbEntity
  8
0
100
AcDbLine
 62
7
  6
CONTINUOUS
 10
81.5552607006
 20
87.2183010577
 11
81.7823246592
 21
87.4453650163
  0
LINE
  5
2DF
100
AcDbEntity
  8
0
100
AcDbLine
 62
7
  6
CONTINUOUS
 10
79.7939750539
 20
85.4173241211
 11
80.1157208147
 21
85.7390698819
  0
LINE
  5
2E0
100
AcDbEntity
  8
0
100
AcDbLine
 62
250
  6
CONTINUOUS
 10
84.1181274311
 20
89.6857979941
 11
84.332413155
 21
89.9000836062
  0
LINE
  5
2E1
100
AcDbEntity
  8
0
100
AcDbLine
 62
7
  6
CONTINUOUS
 10
81.7652714146
 20
87.2183010577
 11
81.8321388997
 21
87.2851685428
  0
LINE
  5
2E2
100
AcDbEntity
  8
0
100
AcDbLine
 62
7
  6
CONTINUOUS
 10
79.8222985106
 20
85.2356368638
 11
80.3257306893
 21
85.7390690425
  0
LINE
  5
2E3
100
AcDbEntity
  8
0
100
AcDbLine
 62
7
  6
CONTINUOUS
 10
79.854712568
 20
85.0580402072
 11
80.5357405639
 21
85.7390682032
  0
LINE
  5
2E4
100
AcDbEntity
  8
0
100
AcDbLine
 62
7
  6
CONTINUOUS
 10
79.9018620552
 20
84.8951789804
 11
80.5379010247
 21
85.5312179499
  0
LINE
  5
2E5
100
AcDbEntity
  8
0
100
AcDbLine
 62
250
  6
CONTINUOUS
 10
83.6895560058
 20
88.6143693077
 11
83.4752702596
 21
88.4000836062
  0
LINE
  5
2E6
100
AcDbEntity
  8
0
100
AcDbLine
 62
250
  6
CONTINUOUS
 10
83.0466988565
 20
87.8643693524
 11
82.832413155
 21
87.6500836509
  0
LINE
  5
2E7
100
AcDbEntity
  8
0
100
AcDbLine
 62
7
  6
CONTINUOUS
 10
79.9532689668
 20
84.736575178
 11
80.5598393702
 21
85.3431455814
  0
LINE
  5
2E8
100
AcDbEntity
  8
0
100
AcDbLine
 62
7
  6
CONTINUOUS
 10
80.0165491729
 20
84.5898446701
 11
80.5974241671
 21
85.1707196643
  0
LINE
  5
2E9
100
AcDbEntity
  8
0
100
AcDbLine
 62
250
  6
CONTINUOUS
 10
82.832413155
 20
92.0429406213
 11
83.0466988565
 21
92.221512084
  0
LINE
  5
2EA
100
AcDbEntity
  8
0
100
AcDbLine
 62
250
  6
CONTINUOUS
 10
81.8321388997
 20
88.3905800575
 11
80.3880461677
 21
87.4502461441
  0
LINE
  5
2EB
100
AcDbEntity
  8
0
100
AcDbLine
 62
250
  6
CONTINUOUS
 10
80.0326874103
 20
87.4729276896
 11
81.4919082097
 21
88.4208284707
  0
LINE
  5
2EC
100
AcDbEntity
  8
0
100
AcDbLine
 62
250
  6
CONTINUOUS
 10
83.260984558
 20
90.3286550092
 11
83.0466988565
 21
90.2215122032
  0
LINE
  5
2ED
100
AcDbEntity
  8
0
100
AcDbLine
 62
250
  6
CONTINUOUS
 10
81.8321388997
 20
91.2442589775
 11
80.0326874103
 21
90.6089724234
  0
LINE
  5
2EE
100
AcDbEntity
  8
0
100
AcDbLine
 62
250
  6
CONTINUOUS
 10
80.0326874103
 20
90.868604813
 11
81.592717891
 21
91.3829146544
  0
LINE
  5
2EF
100
AcDbEntity
  8
RACCORDO
100
AcDbLine
 62
7
  6
CONTINUOUS
 10
86.3032679529
 20
57.0908237315
 11
82.479795294
 21
57.024084768
  0
LINE
  5
2F0
100
AcDbEntity
  8
ASSI
100
AcDbLine
 62
7
  6
CONTINUOUS
 10
86.3032679529
 20
57.0908237315
 11
82.479795294
 21
57.024084768
  0
LINE
  5
2F1
100
AcDbEntity
  8
RACCORDO
100
AcDbLine
 62
250
  6
CONTINUOUS
 10
86.3033426282
 20
57.2137951603
 11
82.479795294
 21
57.1467556225
  0
LINE
  5
2F2
100
AcDbEntity
  8
ASSI
100
AcDbLine
 62
250
  6
CONTINUOUS
 10
86.3033426282
 20
57.2137951603
 11
82.479795294
 21
57.1467556225
  0
LINE
  5
2F3
100
AcDbEntity
  8
DRAFT
100
AcDbLine
 62
7
  6
CONTINUOUS
 10
76.7254321924
 20
57.528372376
 11
77.1722536092
 21
57.5361716728
  0
LINE
  5
2F4
100
AcDbEntity
  8
0
100
AcDbLine
 62
7
  6
CONTINUOUS
 10
92.0606480163
 20
58.8215122032
 11
88.4395199362
 21
58.8215122032
  0
LINE
  5
2F5
100
AcDbEntity
  8
ASSI
100
AcDbLine
 62
7
  6
CONTINUOUS
 10
92.0606480163
 20
58.8215122032
 11
88.4395199362
 21
58.8215122032
  0
LINE
  5
2F6
100
AcDbEntity
  8
0
100
AcDbLine
 62
7
  6
CONTINUOUS
 10
92.5085892139
 20
58.8215122032
 11
99.032413155
 21
58.8215122032
  0
LINE
  5
2F7
100
AcDbEntity
  8
ASSI
100
AcDbLine
 62
7
  6
CONTINUOUS
 10
92.5085892139
 20
58.8215122032
 11
99.032413155
 21
58.8215122032
  0
LINE
  5
2F8
100
AcDbEntity
  8
0
100
AcDbLine
 62
250
  6
CONTINUOUS
 10
97.6047521232
 20
58.9736741279
 11
88.4482451488
 21
58.9757087349
  0
LINE
  5
2F9
100
AcDbEntity
  8
ASSI
100
AcDbLine
 62
250
  6
CONTINUOUS
 10
97.6047521232
 20
58.9736741279
 11
88.4482451488
 21
58.9757087349
  0
LINE
  5
2FA
100
AcDbEntity
  8
RACCORDO
100
AcDbLine
 62
7
  6
CONTINUOUS
 10
76.8732313915
 20
59.9715122032
 11
72.8541062135
 21
60.0416662941
  0
LINE
  5
2FB
100
AcDbEntity
  8
0
100
AcDbLine
 62
250
  6
CONTINUOUS
 10
84.5271718613
 20
62.9312402032
 11
84.2058707551
 21
63.1690742032
  0
LINE
  5
2FC
100
AcDbEntity
  8
0
100
AcDbLine
 62
250
  6
CONTINUOUS
 10
84.63427223
 20
63.7636622032
 11
85.705273918
 21
62.9312402032
  0
LINE
  5
2FD
100
AcDbEntity
  8
CURVE
100
AcDbLine
 62
7
420
4080451
  6
CONTINUOUS
 10
86.8149918837
 20
63.6500836509
 11
87.2434327497
 21
63.2215122032
  0
LINE
  5
2FE
100
AcDbEntity
  8
CURVE
100
AcDbLine
 62
7
420
4080451
  6
CONTINUOUS
 10
87.1363225779
 20
64.2929408001
 11
86.8149918837
 21
64.6143693077
  0
LINE
  5
2FF
100
AcDbEntity
  8
0
100
AcDbLine
 62
250
  6
CONTINUOUS
 10
82.3404541089
 20
66.5608402032
 11
80.7457789734
 21
69.3237402032
  0
LINE
  5
300
100
AcDbEntity
  8
0
100
AcDbLine
 62
250
  6
CONTINUOUS
 10
85.1025125669
 20
66.5608402032
 11
83.5078374314
 21
69.3237402032
  0
LINE
  5
301
100
AcDbEntity
  8
0
100
AcDbLine
 62
250
  6
CONTINUOUS
 10
80.2682494667
 20
72.3222022032
 11
80.1611480983
 21
72.5221832032
  0
LINE
  5
302
100
AcDbEntity
  8
0
100
AcDbLine
 62
250
  6
CONTINUOUS
 10
81.6305205954
 20
89.393889325
 11
81.6305205954
 21
90.4048141625
  0
LINE
  5
303
100
AcDbEntity
  8
0
100
AcDbLine
 62
250
  6
CONTINUOUS
 10
81.6305205954
 20
92.70138126
 11
81.6305205954
 21
93.7123389187
  0
LINE
  5
304
100
AcDbEntity
  8
0
100
AcDbLine
 62
250
  6
CONTINUOUS
 10
81.8321388997
 20
93.7123389187
 11
81.8321388997
 21
92.4618862459
  0
LINE
  5
305
100
AcDbEntity
  8
0
100
AcDbLine
 62
250
  6
CONTINUOUS
 10
81.8321388997
 20
91.5165137536
 11
81.8321388997
 21
91.2442589775
  0
LINE
  5
306
100
AcDbEntity
  8
0
100
AcDbLine
 62
250
  6
CONTINUOUS
 10
81.8321388997
 20
90.4048141625
 11
81.8321388997
 21
89.1543953696
  0
LINE
  5
307
100
AcDbEntity
  8
0
100
AcDbLine
 62
250
  6
CONTINUOUS
 10
81.8321388997
 20
88.6527724983
 11
81.8321388997
 21
88.3905800575
  0
LINE
  5
308
100
AcDbEntity
  8
0
100
AcDbLine
 62
250
  6
CONTINUOUS
 10
81.8321388997
 20
87.4451906252
 11
81.8321388997
 21
87.2183010577
  0
LINE
  5
309
100
AcDbEntity
  8
0
100
AcDbLine
 62
250
  6
CONTINUOUS
 10
81.9575273749
 20
83.8785682032
 11
81.9575273749
 21
85.3390682032
  0
LINE
  5
30A
100
AcDbEntity
  8
SUPERFICI
100
AcDbLine
 62
7
  6
CONTINUOUS
 10
82.332413155
 20
54.7913324629
 11
82.332413155
 21
55.6198738973
  0
LINE
  5
30B
100
AcDbEntity
  8
RACCORDO
100
AcDbLine
 62
7
  6
CONTINUOUS
 10
82.332413155
 20
55.5916456005
 11
82.332413155
 21
56.8741076137
  0
LINE
  5
30C
100
AcDbEntity
  8
ASSI
100
AcDbLine
 62
7
  6
CONTINUOUS
 10
82.332413155
 20
54.7913324629
 11
82.332413155
 21
56.8741076137
  0
LINE
  5
30D
100
AcDbEntity
  8
RACCORDO
100
AcDbLine
 62
7
  6
CONTINUOUS
 10
82.332413155
 20
99.5689167926
 11
82.332413155
 21
100.8513788058
  0
LINE
  5
30E
100
AcDbEntity
  8
SUPERFICI
100
AcDbLine
 62
7
  6
CONTINUOUS
 10
82.332413155
 20
100.8513788058
 11
82.332413155
 21
101.6516919435
  0
LINE
  5
30F
100
AcDbEntity
  8
ASSI
100
AcDbLine
 62
7
  6
CONTINUOUS
 10
82.332413155
 20
99.5689167926
 11
82.332413155
 21
101.6516919435
  0
LINE
  5
310
100
AcDbEntity
  8
0
100
AcDbLine
 62
250
  6
CONTINUOUS
 10
82.3404541089
 20
69.7184402032
 11
82.3404541089
 21
68.9290402032
  0
LINE
  5
311
100
AcDbEntity
  8
0
100
AcDbLine
 62
250
  6
CONTINUOUS
 10
82.3404541089
 20
64.1926402032
 11
82.3404541089
 21
66.5608402032
  0
LINE
  5
312
100
AcDbEntity
  8
0
100
AcDbLine
 62
250
  6
CONTINUOUS
 10
82.7072989351
 20
85.3390682032
 11
82.7072989351
 21
83.8785682032
  0
LINE
  5
313
100
AcDbEntity
  8
0
100
AcDbLine
 62
250
  6
CONTINUOUS
 10
82.832413155
 20
90.0072264122
 11
82.832413155
 21
89.9000836062
  0
LINE
  5
314
100
AcDbEntity
  8
0
100
AcDbLine
 62
250
  6
CONTINUOUS
 10
82.832413155
 20
87.6500836509
 11
82.832413155
 21
87.5429407778
  0
LINE
  5
315
100
AcDbEntity
  8
0
100
AcDbLine
 62
250
  6
CONTINUOUS
 10
82.832413155
 20
88.6143693077
 11
82.832413155
 21
88.9357979941
  0
LINE
  5
316
100
AcDbEntity
  8
0
100
AcDbLine
 62
250
  6
CONTINUOUS
 10
82.832413155
 20
91.6143693971
 11
82.832413155
 21
92.0429406213
  0
LINE
  5
317
100
AcDbEntity
  8
0
100
AcDbLine
 62
250
  6
CONTINUOUS
 10
83.1296136683
 20
71.2972402032
 11
83.1296136683
 21
68.9290402032
  0
LINE
  5
318
100
AcDbEntity
  8
0
100
AcDbLine
 62
250
  6
CONTINUOUS
 10
83.4752702596
 20
91.8286550092
 11
83.4752702596
 21
92.0429406213
  0
LINE
  5
319
100
AcDbEntity
  8
0
100
AcDbLine
 62
250
  6
CONTINUOUS
 10
83.4864969334
 20
71.8284952032
 11
83.4864969334
 21
72.6684172032
  0
LINE
  5
31A
100
AcDbEntity
  8
0
100
AcDbLine
 62
250
  6
CONTINUOUS
 10
83.6895560058
 20
89.0786551284
 11
83.6895560058
 21
88.6143693077
  0
LINE
  5
31B
100
AcDbEntity
  8
0
100
AcDbLine
 62
250
  6
CONTINUOUS
 10
83.786107155
 20
75.4417692032
 11
83.786107155
 21
75.0012552032
  0
LINE
  5
31C
100
AcDbEntity
  8
SUPERFICI
100
AcDbLine
 62
7
  6
CONTINUOUS
 10
83.932413155
 20
100.4215122032
 11
83.932413155
 21
99.3935840993
  0
LINE
  5
31D
100
AcDbEntity
  8
ASSI
100
AcDbLine
 62
7
  6
CONTINUOUS
 10
83.932413155
 20
100.4215122032
 11
83.932413155
 21
99.3935840993
  0
LINE
  5
31E
100
AcDbEntity
  8
SUPERFICI
100
AcDbLine
 62
7
  6
CONTINUOUS
 10
83.932413155
 20
56.0215122032
 11
83.932413155
 21
57.0494403071
  0
LINE
  5
31F
100
AcDbEntity
  8
ASSI
100
AcDbLine
 62
7
  6
CONTINUOUS
 10
83.932413155
 20
56.0215122032
 11
83.932413155
 21
57.0494403071
  0
LINE
  5
320
100
AcDbEntity
  8
0
100
AcDbLine
 62
250
  6
CONTINUOUS
 10
84.2058707551
 20
63.1690742032
 11
84.2058707551
 21
63.5258272032
  0
LINE
  5
321
100
AcDbEntity
  8
0
100
AcDbLine
 62
250
  6
CONTINUOUS
 10
84.332344155
 20
75.2215122032
 11
84.332344155
 21
75.6972662032
  0
LINE
  5
322
100
AcDbEntity
  8
0
100
AcDbLine
 62
250
  6
CONTINUOUS
 10
84.332413155
 20
92.150083785
 11
84.332413155
 21
91.6143693971
  0
LINE
  5
323
100
AcDbEntity
  8
0
100
AcDbLine
 62
250
  6
CONTINUOUS
 10
84.332413155
 20
87.5429407778
 11
84.332413155
 21
87.6500836509
  0
LINE
  5
324
100
AcDbEntity
  8
0
100
AcDbLine
 62
250
  6
CONTINUOUS
 10
84.332413155
 20
89.9000836062
 11
84.332413155
 21
90.0072264122
  0
LINE
  5
325
100
AcDbEntity
  8
0
100
AcDbLine
 62
7
  6
CONTINUOUS
 10
80.0828182679
 20
84.4461030511
 11
80.6481304868
 21
85.01141527
  0
LINE
  5
326
100
AcDbEntity
  8
0
100
AcDbLine
 62
7
  6
CONTINUOUS
 10
80.1610550283
 20
84.3143290974
 11
80.7103546483
 21
84.8636287175
  0
LINE
  5
327
100
AcDbEntity
  8
0
100
AcDbLine
 62
7
  6
CONTINUOUS
 10
80.2400182342
 20
84.1832815893
 11
80.7829670072
 21
84.7262303623
  0
LINE
  5
328
100
AcDbEntity
  8
0
100
AcDbLine
 62
7
  6
CONTINUOUS
 10
80.3326987597
 20
84.0659514009
 11
80.8650696431
 21
84.5983222843
  0
LINE
  5
329
100
AcDbEntity
  8
0
100
AcDbLine
 62
7
  6
CONTINUOUS
 10
80.4253792853
 20
83.9486212124
 11
80.956063564
 21
84.4793054911
  0
LINE
  5
32A
100
AcDbEntity
  8
0
100
AcDbLine
 62
7
  6
CONTINUOUS
 10
80.5297906267
 20
83.8430218398
 11
81.0570381605
 21
84.3702693737
  0
LINE
  5
32B
100
AcDbEntity
  8
0
100
AcDbLine
 62
7
  6
CONTINUOUS
 10
81.9575273996
 20
85.2707586127
 11
82.0258369901
 21
85.3390682032
  0
LINE
  5
32C
100
AcDbEntity
  8
0
100
AcDbLine
 62
250
  6
CONTINUOUS
 10
84.1181274311
 20
87.3286550651
 11
84.332413155
 21
87.5429407778
  0
LINE
  5
32D
100
AcDbEntity
  8
0
100
AcDbLine
 62
7
  6
CONTINUOUS
 10
80.6362385305
 20
83.7394590295
 11
81.1666100279
 21
84.269830527
  0
LINE
  5
32E
100
AcDbEntity
  8
0
100
AcDbLine
 62
7
  6
CONTINUOUS
 10
81.9575274752
 20
85.0607479743
 11
82.2358477041
 21
85.3390682032
  0
LINE
  5
32F
100
AcDbEntity
  8
0
100
AcDbLine
 62
7
  6
CONTINUOUS
 10
80.7513756729
 20
83.6445854579
 11
81.2848752144
 21
84.1780849995
  0
LINE
  5
330
100
AcDbEntity
  8
0
100
AcDbLine
 62
7
  6
CONTINUOUS
 10
81.9575275508
 20
84.8507373359
 11
82.4458584181
 21
85.3390682032
  0
LINE
  5
331
100
AcDbEntity
  8
0
100
AcDbLine
 62
7
  6
CONTINUOUS
 10
80.871374224
 20
83.554573295
 11
81.4120266784
 21
84.0952257495
  0
LINE
  5
332
100
AcDbEntity
  8
0
100
AcDbLine
 62
7
  6
CONTINUOUS
 10
81.9575276265
 20
84.6407266976
 11
82.6558691321
 21
85.3390682032
  0
LINE
  5
333
100
AcDbEntity
  8
0
100
AcDbLine
 62
7
  6
CONTINUOUS
 10
80.9977300571
 20
83.4709184141
 11
81.5484833478
 21
84.0216717049
  0
LINE
  5
334
100
AcDbEntity
  8
0
100
AcDbLine
 62
7
  6
CONTINUOUS
 10
81.9575277021
 20
84.4307160592
 11
82.7072989351
 21
85.1804872921
  0
LINE
  5
335
100
AcDbEntity
  8
0
100
AcDbLine
 62
7
  6
CONTINUOUS
 10
81.1317409505
 20
83.3949185935
 11
81.6950301273
 21
83.9582077704
  0
LINE
  5
336
100
AcDbEntity
  8
0
100
AcDbLine
 62
7
  6
CONTINUOUS
 10
81.9575277778
 20
84.2207054208
 11
82.7072989351
 21
84.9704765781
  0
LINE
  5
337
100
AcDbEntity
  8
0
100
AcDbLine
 62
7
  6
CONTINUOUS
 10
81.2707149817
 20
83.3238819108
 11
81.8529957994
 21
83.9061627284
  0
LINE
  5
338
100
AcDbEntity
  8
0
100
AcDbLine
 62
7
  6
CONTINUOUS
 10
81.9575278534
 20
84.0106947825
 11
82.7072989351
 21
84.7604658641
  0
LINE
  5
339
100
AcDbEntity
  8
0
100
AcDbLine
 62
7
  6
CONTINUOUS
 10
81.4199822608
 20
83.2631384759
 11
82.7072989351
 21
84.5504551501
  0
LINE
  5
33A
100
AcDbEntity
  8
0
100
AcDbLine
 62
7
  6
CONTINUOUS
 10
81.5743057537
 20
83.2074512547
 11
82.7072989351
 21
84.3404444361
  0
LINE
  5
33B
100
AcDbEntity
  8
0
100
AcDbLine
 62
7
  6
CONTINUOUS
 10
79.7890403267
 20
81.2121751137
 11
79.9308234162
 21
81.3539582032
  0
LINE
  5
33C
100
AcDbEntity
  8
0
100
AcDbLine
 62
7
  6
CONTINUOUS
 10
81.7408885248
 20
83.1640233118
 11
82.7072989351
 21
84.1304337221
  0
LINE
  5
33D
100
AcDbEntity
  8
0
100
AcDbLine
 62
7
  6
CONTINUOUS
 10
84.1287260056
 20
85.5518607926
 11
84.3159354937
 21
85.7390702807
  0
LINE
  5
33E
100
AcDbEntity
  8
0
100
AcDbLine
 62
7
  6
CONTINUOUS
 10
79.7971190606
 20
81.0102431336
 11
80.1408341302
 21
81.3539582032
  0
LINE
  5
33F
100
AcDbEntity
  8
0
100
AcDbLine
 62
7
  6
CONTINUOUS
 10
81.9151387253
 20
83.1282627983
 11
82.7072989351
 21
83.9204230081
  0
LINE
  5
340
100
AcDbEntity
  8
0
100
AcDbLine
 62
7
  6
CONTINUOUS
 10
84.0994061235
 20
85.3125301965
 11
84.5259454338
 21
85.7390695068
  0
LINE
  5
341
100
AcDbEntity
  8
0
100
AcDbLine
 62
7
  6
CONTINUOUS
 10
79.8257188365
 20
80.8288321955
 11
80.3508448442
 21
81.3539582032
  0
LINE
  5
342
100
AcDbEntity
  8
0
100
AcDbLine
 62
7
  6
CONTINUOUS
 10
82.1014796438
 20
83.1045930027
 11
82.9465338284
 21
83.9496471873
  0
LINE
  5
343
100
AcDbEntity
  8
0
100
AcDbLine
 62
7
  6
CONTINUOUS
 10
84.0219359523
 20
85.0250493113
 11
84.7359553739
 21
85.7390687328
  0
LINE
  5
344
100
AcDbEntity
  8
0
100
AcDbLine
 62
7
  6
CONTINUOUS
 10
79.8603511269
 20
80.6534537719
 11
80.5360331524
 21
81.3291357973
  0
LINE
  5
345
100
AcDbEntity
  8
0
100
AcDbLine
 62
7
  6
CONTINUOUS
 10
82.3030032482
 20
83.0961058931
 11
83.3988433502
 21
84.1919459952
  0
LINE
  5
346
100
AcDbEntity
  8
0
100
AcDbLine
 62
7
  6
CONTINUOUS
 10
83.7820358902
 20
84.5751385352
 11
84.8778073662
 21
85.6709100112
  0
LINE
  5
347
100
AcDbEntity
  8
0
100
AcDbLine
 62
7
  6
CONTINUOUS
 10
79.9075007591
 20
80.49059269
 11
80.5386178037
 21
81.1217097346
  0
LINE
  5
348
100
AcDbEntity
  8
0
100
AcDbLine
 62
7
  6
CONTINUOUS
 10
82.515412438
 20
83.0985043689
 11
84.871883941
 21
85.454975872
  0
LINE
  5
349
100
AcDbEntity
  8
0
100
AcDbLine
 62
7
  6
CONTINUOUS
 10
79.960836601
 20
80.333917818
 11
80.5648942257
 21
80.9379754427
  0
LINE
  5
34A
100
AcDbEntity
  8
0
100
AcDbLine
 62
7
  6
CONTINUOUS
 10
82.7559808497
 20
83.1290620667
 11
84.8387794205
 21
85.2118606375
  0
LINE
  5
34B
100
AcDbEntity
  8
0
100
AcDbLine
 62
7
  6
CONTINUOUS
 10
80.0241169306
 20
80.1871874336
 11
80.6054378044
 21
80.7685083073
  0
LINE
  5
34C
100
AcDbEntity
  8
0
100
AcDbLine
 62
7
  6
CONTINUOUS
 10
83.0281104308
 20
83.1911809337
 11
84.7755371842
 21
84.9386076871
  0
LINE
  5
34D
100
AcDbEntity
  8
0
100
AcDbLine
 62
7
  6
CONTINUOUS
 10
80.0921745402
 20
80.0452343291
 11
80.6569420067
 21
80.6100017956
  0
LINE
  5
34E
100
AcDbEntity
  8
0
100
AcDbLine
 62
7
  6
CONTINUOUS
 10
83.3548413432
 20
83.3079011322
 11
84.6569916374
 21
84.6100514263
  0
LINE
  5
34F
100
AcDbEntity
  8
0
100
AcDbLine
 62
7
  6
CONTINUOUS
 10
80.1704114089
 20
79.9134604838
 11
80.7187679246
 21
80.4618169995
  0
LINE
  5
350
100
AcDbEntity
  8
0
100
AcDbLine
 62
7
  6
CONTINUOUS
 10
83.8657725076
 20
83.6088215825
 11
84.3668140257
 21
84.1098631006
  0
LINE
  5
351
100
AcDbEntity
  8
0
100
AcDbLine
 62
7
  6
CONTINUOUS
 10
80.2511018068
 20
79.7841401677
 11
80.7944309183
 21
80.3274692792
  0
LINE
  5
352
100
AcDbEntity
  8
0
100
AcDbLine
 62
7
  6
CONTINUOUS
 10
80.34378243
 20
79.6668100769
 11
80.8770548647
 21
80.2000825115
  0
LINE
  5
353
100
AcDbEntity
  8
0
100
AcDbLine
 62
250
  6
CONTINUOUS
 10
83.9038417073
 20
89.5786550092
 11
84.1181274311
 21
89.6857979941
  0
LINE
  5
354
100
AcDbEntity
  8
0
100
AcDbLine
 62
250
  6
CONTINUOUS
 10
83.260984558
 20
87.9715122032
 11
83.0466988565
 21
87.8643693524
  0
LINE
  5
355
100
AcDbEntity
  8
0
100
AcDbLine
 62
250
  6
CONTINUOUS
 10
83.9038417073
 20
87.2215122032
 11
84.1181274311
 21
87.3286550651
  0
LINE
  5
356
100
AcDbEntity
  8
RACCORDO
100
AcDbLine
 62
250
  6
CONTINUOUS
 10
77.0006418091
 20
60.8299325358
 11
78.332413155
 21
60.861578012
  0
LINE
  5
357
100
AcDbEntity
  8
DRAFT
100
AcDbLine
 62
7
  6
CONTINUOUS
 10
101.3359036363
 20
62.3529922466
 11
99.532413155
 21
62.3215122032
  0
LINE
  5
358
100
AcDbEntity
  8
ASSI
100
AcDbLine
 62
7
  6
CONTINUOUS
 10
101.3359036363
 20
62.3529922466
 11
99.532413155
 21
62.3215122032
  0
LINE
  5
359
100
AcDbEntity
  8
0
100
AcDbLine
 62
7
  6
CONTINUOUS
 10
99.532413155
 20
60.9231722032
 11
99.732413155
 21
60.9231722032
  0
LINE
  5
35A
100
AcDbEntity
  8
ASSI
100
AcDbLine
 62
7
  6
CONTINUOUS
 10
99.532413155
 20
60.9231722032
 11
99.732413155
 21
60.9231722032
  0
LINE
  5
35B
100
AcDbEntity
  8
0
100
AcDbLine
 62
7
  6
CONTINUOUS
 10
99.532413155
 20
61.2525922032
 11
99.732413155
 21
61.2525922032
  0
LINE
  5
35C
100
AcDbEntity
  8
ASSI
100
AcDbLine
 62
7
  6
CONTINUOUS
 10
99.532413155
 20
61.2525922032
 11
99.732413155
 21
61.2525922032
  0
LINE
  5
35D
100
AcDbEntity
  8
0
100
AcDbLine
 62
7
  6
CONTINUOUS
 10
99.532413155
 20
61.4972322032
 11
99.732413155
 21
61.4972322032
  0
LINE
  5
35E
100
AcDbEntity
  8
ASSI
100
AcDbLine
 62
7
  6
CONTINUOUS
 10
99.532413155
 20
61.4972322032
 11
99.732413155
 21
61.4972322032
  0
LINE
  5
35F
100
AcDbEntity
  8
0
100
AcDbLine
 62
7
  6
CONTINUOUS
 10
99.532413155
 20
61.9865122032
 11
99.732413155
 21
61.9865122032
  0
LINE
  5
360
100
AcDbEntity
  8
ASSI
100
AcDbLine
 62
7
  6
CONTINUOUS
 10
99.532413155
 20
61.9865122032
 11
99.732413155
 21
61.9865122032
  0
LINE
  5
361
100
AcDbEntity
  8
RACCORDO
100
AcDbLine
 62
250
  6
CONTINUOUS
 10
99.0411393582
 20
62.2279221293
 11
99.532413155
 21
62.2279221293
  0
LINE
  5
362
100
AcDbEntity
  8
ASSI
100
AcDbLine
 62
250
  6
CONTINUOUS
 10
99.0411393582
 20
62.2279221293
 11
99.532413155
 21
62.2279221293
  0
LINE
  5
363
100
AcDbEntity
  8
0
100
AcDbLine
 62
7
  6
CONTINUOUS
 10
99.532413155
 20
62.2408922032
 11
99.732413155
 21
62.2408922032
  0
LINE
  5
364
100
AcDbEntity
  8
ASSI
100
AcDbLine
 62
7
  6
CONTINUOUS
 10
99.532413155
 20
62.2408922032
 11
99.732413155
 21
62.2408922032
  0
LINE
  5
365
100
AcDbEntity
  8
0
100
AcDbLine
 62
250
  6
CONTINUOUS
 10
83.071074504
 20
63.5165362032
 11
81.5716713411
 21
63.5165362032
  0
LINE
  5
366
100
AcDbEntity
  8
CURVE
100
AcDbLine
 62
7
420
4080451
  6
CONTINUOUS
 10
88.314535004
 20
63.6500836509
 11
86.8149918837
 21
63.6500836509
  0
LINE
  5
367
100
AcDbEntity
  8
0
100
AcDbLine
 62
250
  6
CONTINUOUS
 10
84.4200724922
 20
63.7636622032
 11
84.63427223
 21
63.7636622032
  0
LINE
  5
368
100
AcDbEntity
  8
RACCORDO
100
AcDbLine
 62
250
  6
CONTINUOUS
 10
76.7502018528
 20
60.9735073869
 11
72.941446154
 21
61.0399663826
  0
LINE
  5
369
100
AcDbEntity
  8
CURVE
100
AcDbLine
 62
7
420
4080451
  6
CONTINUOUS
 10
86.8149918837
 20
65.6857979941
 11
88.314535004
 21
65.2572264122
  0
LINE
  5
36A
100
AcDbEntity
  8
CURVE
100
AcDbLine
 62
7
420
4080451
  6
CONTINUOUS
 10
87.5647634439
 20
64.0786550986
 11
87.1363225779
 21
64.2929408001
  0
LINE
  5
36B
100
AcDbEntity
  8
CURVE
100
AcDbLine
 62
7
420
4080451
  6
CONTINUOUS
 10
86.8149918837
 20
67.400083785
 11
88.314535004
 21
66.5429406213
  0
LINE
  5
36C
100
AcDbEntity
  8
CURVE
100
AcDbLine
 62
7
420
4080451
  6
CONTINUOUS
 10
87.1363225779
 20
69.0072265911
 11
86.8149918837
 21
69.2215122032
  0
LINE
  5
36D
100
AcDbEntity
  8
CURVE
100
AcDbLine
 62
7
420
4080451
  6
CONTINUOUS
 10
88.1003145487
 20
64.8286550092
 11
88.314535004
 21
64.6143693077
  0
LINE
  5
36E
100
AcDbEntity
  8
0
100
AcDbLine
 62
250
  6
CONTINUOUS
 10
81.1250504172
 20
72.4421912032
 11
81.0179510482
 21
72.5621802032
  0
LINE
  5
36F
100
AcDbEntity
  8
0
100
AcDbLine
 62
250
  6
CONTINUOUS
 10
82.332413155
 20
75.2215122032
 11
81.4140216796
 21
76.4046425274
  0
LINE
  5
370
100
AcDbEntity
  8
0
100
AcDbLine
 62
250
  6
CONTINUOUS
 10
85.1025125669
 20
70.5078402032
 11
85.1025125669
 21
68.9290402032
  0
LINE
  5
371
100
AcDbEntity
  8
0
100
AcDbLine
 62
250
  6
CONTINUOUS
 10
85.1025125669
 20
64.1926402032
 11
85.1025125669
 21
66.5608402032
  0
LINE
  5
372
100
AcDbEntity
  8
0
100
AcDbLine
 62
250
  6
CONTINUOUS
 10
85.705273918
 20
62.9312402032
 11
85.705273918
 21
63.7636622032
  0
LINE
  5
373
100
AcDbEntity
  8
CURVE
100
AcDbLine
 62
7
420
4080451
  6
CONTINUOUS
 10
86.8149918837
 20
71.6857978153
 11
86.8149918837
 21
71.5786553668
  0
LINE
  5
374
100
AcDbEntity
  8
CURVE
100
AcDbLine
 62
7
420
4080451
  6
CONTINUOUS
 10
86.8149918837
 20
70.8286553668
 11
86.8149918837
 21
70.1857978153
  0
LINE
  5
375
100
AcDbEntity
  8
CURVE
100
AcDbLine
 62
7
420
4080451
  6
CONTINUOUS
 10
86.8149918837
 20
69.2215122032
 11
86.8149918837
 21
69.542940979
  0
LINE
  5
376
100
AcDbEntity
  8
CURVE
100
AcDbLine
 62
7
420
4080451
  6
CONTINUOUS
 10
87.4576531827
 20
64.1500836658
 11
87.4576531827
 21
64.6143693077
  0
LINE
  5
377
100
AcDbEntity
  8
CURVE
100
AcDbLine
 62
7
420
4080451
  6
CONTINUOUS
 10
87.4576531827
 20
70.1857978153
 11
87.4576531827
 21
70.6143690395
  0
LINE
  5
378
100
AcDbEntity
  8
0
100
AcDbLine
 62
250
  6
CONTINUOUS
 10
87.7470932839
 20
82.4397282032
 11
87.7470932839
 21
82.5391022032
  0
LINE
  5
379
100
AcDbEntity
  8
CURVE
100
AcDbLine
 62
7
420
4080451
  6
CONTINUOUS
 10
87.8860940934
 20
65.9715122628
 11
87.8860940934
 21
65.4000835466
  0
LINE
  5
37A
100
AcDbEntity
  8
0
100
AcDbLine
 62
250
  6
CONTINUOUS
 10
88.1416511817
 20
81.9115392032
 11
88.1416511817
 21
84.3494462032
  0
LINE
  5
37B
100
AcDbEntity
  8
CURVE
100
AcDbLine
 62
7
420
4080451
  6
CONTINUOUS
 10
88.314535004
 20
70.6143690395
 11
88.314535004
 21
70.1857978153
  0
LINE
  5
37C
100
AcDbEntity
  8
CURVE
100
AcDbLine
 62
7
420
4080451
  6
CONTINUOUS
 10
88.314535004
 20
64.6143693077
 11
88.314535004
 21
64.2929408001
  0
LINE
  5
37D
100
AcDbEntity
  8
CURVE
100
AcDbLine
 62
7
420
4080451
  6
CONTINUOUS
 10
88.314535004
 20
69.0072265911
 11
88.314535004
 21
69.7572265911
  0
LINE
  5
37E
100
AcDbEntity
  8
CURVE
100
AcDbLine
 62
7
420
4080451
  6
CONTINUOUS
 10
88.314535004
 20
71.5786553668
 11
88.314535004
 21
71.6857978153
  0
LINE
  5
37F
100
AcDbEntity
  8
0
100
AcDbLine
 62
250
  6
CONTINUOUS
 10
88.5045059087
 20
84.2893992032
 11
88.5045059087
 21
84.6394592032
  0
LINE
  5
380
100
AcDbEntity
  8
0
100
AcDbLine
 62
250
  6
CONTINUOUS
 10
87.6541334443
 20
83.0645852032
 11
87.6546913593
 21
83.6375882032
  0
LINE
  5
381
100
AcDbEntity
  8
0
100
AcDbLine
 62
250
  6
CONTINUOUS
 10
87.8721522339
 20
83.6375882032
 11
87.8715943189
 21
83.0645852032
  0
LINE
  5
382
100
AcDbEntity
  8
0
100
AcDbLine
 62
250
  6
CONTINUOUS
 10
81.414021155
 20
74.0383812032
 11
82.332413155
 21
75.2215122032
  0
LINE
  5
383
100
AcDbEntity
  8
0
100
AcDbLine
 62
7
  6
CONTINUOUS
 10
80.4364630532
 20
79.549479986
 11
80.968758916
 21
80.0817758488
  0
LINE
  5
384
100
AcDbEntity
  8
0
100
AcDbLine
 62
7
  6
CONTINUOUS
 10
80.542520703
 20
79.4455269218
 11
81.0718079135
 21
79.9748141323
  0
LINE
  5
385
100
AcDbEntity
  8
0
100
AcDbLine
 62
7
  6
CONTINUOUS
 10
80.6489686979
 20
79.3419642027
 11
81.1806928604
 21
79.8736883652
  0
LINE
  5
386
100
AcDbEntity
  8
0
100
AcDbLine
 62
7
  6
CONTINUOUS
 10
80.7657262435
 20
79.2487110344
 11
81.2999927225
 21
79.7829775133
  0
LINE
  5
387
100
AcDbEntity
  8
0
100
AcDbLine
 62
7
  6
CONTINUOUS
 10
80.8857248828
 20
79.1586989596
 11
81.4288488417
 21
79.7018229185
  0
LINE
  5
388
100
AcDbEntity
  8
0
100
AcDbLine
 62
7
  6
CONTINUOUS
 10
81.0137563414
 20
79.0767197042
 11
81.5646796725
 21
79.6276430353
  0
LINE
  5
389
100
AcDbEntity
  8
0
100
AcDbLine
 62
7
  6
CONTINUOUS
 10
81.1477673226
 20
79.0007199714
 11
81.7134604045
 21
79.5664130532
  0
LINE
  5
38A
100
AcDbEntity
  8
0
100
AcDbLine
 62
7
  6
CONTINUOUS
 10
81.2885657583
 20
78.9315076931
 11
81.8745372805
 21
79.5174792153
  0
LINE
  5
38B
100
AcDbEntity
  8
0
100
AcDbLine
 62
7
  6
CONTINUOUS
 10
81.4378331276
 20
78.8707643484
 11
82.0476370413
 21
79.4805682621
  0
LINE
  5
38C
100
AcDbEntity
  8
0
100
AcDbLine
 62
7
  6
CONTINUOUS
 10
81.5942272759
 20
78.8171477826
 11
82.2361283659
 21
79.4590488727
  0
LINE
  5
38D
100
AcDbEntity
  8
0
100
AcDbLine
 62
7
  6
CONTINUOUS
 10
84.1290624634
 20
81.3519829702
 11
84.1310376961
 21
81.3539582029
  0
LINE
  5
38E
100
AcDbEntity
  8
0
100
AcDbLine
 62
7
  6
CONTINUOUS
 10
81.7608101428
 20
78.7737199356
 11
82.4461390735
 21
79.4590488662
  0
LINE
  5
38F
100
AcDbEntity
  8
0
100
AcDbLine
 62
7
  6
CONTINUOUS
 10
84.1265574769
 20
81.1394672696
 11
84.3410483772
 21
81.35395817
  0
LINE
  5
390
100
AcDbEntity
  8
0
100
AcDbLine
 62
7
  6
CONTINUOUS
 10
81.9374231271
 20
78.7403222058
 11
82.6875045743
 21
79.490403653
  0
LINE
  5
391
100
AcDbEntity
  8
0
100
AcDbLine
 62
7
  6
CONTINUOUS
 10
84.0940672322
 20
80.896966311
 11
84.5510590584
 21
81.3539581371
  0
LINE
  5
392
100
AcDbEntity
  8
0
100
AcDbLine
 62
7
  6
CONTINUOUS
 10
82.1237641518
 20
78.7166525165
 11
82.9890217821
 21
79.5819101469
  0
LINE
  5
393
100
AcDbEntity
  8
0
100
AcDbLine
 62
7
  6
CONTINUOUS
 10
84.0012770041
 20
80.5941653688
 11
84.7610697395
 21
81.3539581042
  0
LINE
  5
394
100
AcDbEntity
  8
0
100
AcDbLine
 62
7
  6
CONTINUOUS
 10
82.3281183356
 20
78.7109959863
 11
83.511997153
 21
79.8948748037
  0
LINE
  5
395
100
AcDbEntity
  8
0
100
AcDbLine
 62
7
  6
CONTINUOUS
 10
83.6863090593
 20
80.06918671
 11
84.8770967726
 21
81.2599744233
  0
LINE
  5
396
100
AcDbEntity
  8
0
100
AcDbLine
 62
7
  6
CONTINUOUS
 10
82.5441818604
 20
78.7170487971
 11
84.8711753213
 21
81.0440422579
  0
LINE
  5
397
100
AcDbEntity
  8
0
100
AcDbLine
 62
7
  6
CONTINUOUS
 10
82.7847504243
 20
78.747606647
 11
84.8340788252
 21
80.7969350479
  0
LINE
  5
398
100
AcDbEntity
  8
0
100
AcDbLine
 62
7
  6
CONTINUOUS
 10
83.0620818572
 20
78.8149273659
 11
84.7653032636
 21
80.5181487722
  0
LINE
  5
399
100
AcDbEntity
  8
0
100
AcDbLine
 62
7
  6
CONTINUOUS
 10
83.3971899829
 20
78.9400247776
 11
84.6379466827
 21
80.1807814773
  0
LINE
  5
39A
100
AcDbEntity
  8
0
100
AcDbLine
 62
7
  6
CONTINUOUS
 10
83.9662769082
 20
79.2991009888
 11
84.2723822199
 21
79.6052063005
  0
LINE
  5
39B
100
AcDbEntity
  8
CURVE
100
AcDbLine
 62
7
420
4080451
  6
CONTINUOUS
 10
88.1003145487
 20
64.0786550986
 11
87.5647634439
 21
64.0786550986
  0
LINE
  5
39C
100
AcDbEntity
  8
CURVE
100
AcDbLine
 62
7
420
4080451
  6
CONTINUOUS
 10
87.6718736604
 20
64.8286550092
 11
88.1003145487
 21
64.8286550092
  0
LINE
  5
39D
100
AcDbEntity
  8
RACCORDO
100
AcDbLine
 62
250
  6
CONTINUOUS
 10
99.532413155
 20
65.1215122032
 11
101.532413155
 21
65.1215122032
  0
LINE
  5
39E
100
AcDbEntity
  8
ASSI
100
AcDbLine
 62
250
  6
CONTINUOUS
 10
99.532413155
 20
65.1215122032
 11
101.532413155
 21
65.1215122032
  0
LINE
  5
39F
100
AcDbEntity
  8
0
100
AcDbLine
 62
250
  6
CONTINUOUS
 10
95.1788932945
 20
66.5432005753
 11
95.1198141795
 21
66.5432005753
  0
LINE
  5
3A0
100
AcDbEntity
  8
RACCORDO
100
AcDbLine
 62
250
  6
CONTINUOUS
 10
99.532413155
 20
66.9215122032
 11
101.532413155
 21
66.9215122032
  0
LINE
  5
3A1
100
AcDbEntity
  8
ASSI
100
AcDbLine
 62
250
  6
CONTINUOUS
 10
99.532413155
 20
66.9215122032
 11
101.532413155
 21
66.9215122032
  0
LINE
  5
3A2
100
AcDbEntity
  8
0
100
AcDbLine
 62
250
  6
CONTINUOUS
 10
96.6659786789
 20
64.8958186043
 11
95.6488213869
 21
64.9695607285
  0
LINE
  5
3A3
100
AcDbEntity
  8
0
100
AcDbLine
 62
250
  6
CONTINUOUS
 10
96.4937239101
 20
65.92464936
 11
95.2611769774
 21
66.0231620046
  0
LINE
  5
3A4
100
AcDbEntity
  8
0
100
AcDbLine
 62
250
  6
CONTINUOUS
 10
95.6482519497
 20
66.5036246863
 11
95.1788932945
 21
66.5432005753
  0
LINE
  5
3A5
100
AcDbEntity
  8
0
100
AcDbLine
 62
250
  6
CONTINUOUS
 10
96.4196970673
 20
66.437997043
 11
95.6482519497
 21
66.5036246863
  0
LINE
  5
3A6
100
AcDbEntity
  8
0
100
AcDbLine
 62
250
  6
CONTINUOUS
 10
82.308393877
 20
72.1884622032
 11
83.4864969334
 21
71.8284952032
  0
LINE
  5
3A7
100
AcDbEntity
  8
CURVE
100
AcDbLine
 62
7
420
4080451
  6
CONTINUOUS
 10
87.0292123167
 20
71.3643690395
 11
87.2434327497
 21
71.2572265911
  0
LINE
  5
3A8
100
AcDbEntity
  8
CURVE
100
AcDbLine
 62
7
420
4080451
  6
CONTINUOUS
 10
88.1003145487
 20
71.9000834274
 11
87.8860940934
 21
72.0072265911
  0
LINE
  5
3A9
100
AcDbEntity
  8
CURVE
100
AcDbLine
 62
7
420
4080451
  6
CONTINUOUS
 10
87.2434327497
 20
69.7572265911
 11
88.314535004
 21
69.0072265911
  0
LINE
  5
3AA
100
AcDbEntity
  8
CURVE
100
AcDbLine
 62
7
420
4080451
  6
CONTINUOUS
 10
86.8149918837
 20
71.5786553668
 11
87.0292123167
 21
71.3643690395
  0
LINE
  5
3AB
100
AcDbEntity
  8
CURVE
100
AcDbLine
 62
7
420
4080451
  6
CONTINUOUS
 10
88.1003145487
 20
70.8286553668
 11
88.314535004
 21
70.6143690395
  0
LINE
  5
3AC
100
AcDbEntity
  8
CURVE
100
AcDbLine
 62
7
420
4080451
  6
CONTINUOUS
 10
88.314535004
 20
71.6857978153
 11
88.1003145487
 21
71.9000834274
  0
LINE
  5
3AD
100
AcDbEntity
  8
CURVE
100
AcDbLine
 62
7
420
4080451
  6
CONTINUOUS
 10
87.7432804714
 20
73.9715119647
 11
87.8503906879
 21
73.7215122032
  0
LINE
  5
3AE
100
AcDbEntity
  8
CURVE
100
AcDbLine
 62
7
420
4080451
  6
CONTINUOUS
 10
87.8503906879
 20
74.5429405021
 11
87.9575009267
 21
74.2572265911
  0
LINE
  5
3AF
100
AcDbEntity
  8
0
100
AcDbLine
 62
250
  6
CONTINUOUS
 10
88.8769131807
 20
84.6394592032
 11
88.8769131807
 21
84.2893992032
  0
LINE
  5
3B0
100
AcDbEntity
  8
0
100
AcDbLine
 62
250
  6
CONTINUOUS
 10
88.9693151052
 20
83.0095822032
 11
88.9693151052
 21
83.8329222032
  0
LINE
  5
3B1
100
AcDbEntity
  8
0
100
AcDbLine
 62
250
  6
CONTINUOUS
 10
89.1849182628
 20
83.8329222032
 11
89.1849182628
 21
83.0095822032
  0
LINE
  5
3B2
100
AcDbEntity
  8
0
100
AcDbLine
 62
250
  6
CONTINUOUS
 10
89.328950155
 20
79.2228212032
 11
89.328950155
 21
78.1117772032
  0
LINE
  5
3B3
100
AcDbEntity
  8
0
100
AcDbLine
 62
250
  6
CONTINUOUS
 10
89.328950155
 20
75.3339972032
 11
89.328950155
 21
74.2229542032
  0
LINE
  5
3B4
100
AcDbEntity
  8
0
100
AcDbLine
 62
250
  6
CONTINUOUS
 10
89.328950155
 20
75.8893462032
 11
89.328950155
 21
77.5560832032
  0
LINE
  5
3B5
100
AcDbEntity
  8
0
100
AcDbLine
 62
250
  6
CONTINUOUS
 10
89.884472155
 20
74.7783032032
 11
89.884472155
 21
75.3339972032
  0
LINE
  5
3B6
100
AcDbEntity
  8
0
100
AcDbLine
 62
250
  6
CONTINUOUS
 10
89.884472155
 20
76.4450402032
 11
89.884472155
 21
77.0007342032
  0
LINE
  5
3B7
100
AcDbEntity
  8
0
100
AcDbLine
 62
250
  6
CONTINUOUS
 10
89.884472155
 20
78.6671272032
 11
89.884472155
 21
79.2228212032
  0
LINE
  5
3B8
100
AcDbEntity
  8
0
100
AcDbLine
 62
250
  6
CONTINUOUS
 10
91.5033600991
 20
82.4466862032
 11
91.5033600991
 21
83.7925532032
  0
LINE
  5
3B9
100
AcDbEntity
  8
0
100
AcDbLine
 62
250
  6
CONTINUOUS
 10
91.551037155
 20
77.0007342032
 11
91.551037155
 21
76.4450402032
  0
LINE
  5
3BA
100
AcDbEntity
  8
0
100
AcDbLine
 62
250
  6
CONTINUOUS
 10
91.551037155
 20
75.3339972032
 11
91.551037155
 21
74.7783032032
  0
LINE
  5
3BB
100
AcDbEntity
  8
0
100
AcDbLine
 62
250
  6
CONTINUOUS
 10
91.6997781791
 20
82.6210152032
 11
91.6997781791
 21
82.5033952032
  0
LINE
  5
3BC
100
AcDbEntity
  8
0
100
AcDbLine
 62
250
  6
CONTINUOUS
 10
92.106731155
 20
77.0007342032
 11
92.106731155
 21
76.4450402032
  0
LINE
  5
3BD
100
AcDbEntity
  8
0
100
AcDbLine
 62
250
  6
CONTINUOUS
 10
92.106731155
 20
74.7783032032
 11
92.106731155
 21
75.3339972032
  0
LINE
  5
3BE
100
AcDbEntity
  8
0
100
AcDbLine
 62
250
  6
CONTINUOUS
 10
80.4824492045
 20
72.5621802032
 11
80.2682494667
 21
72.3222022032
  0
LINE
  5
3BF
100
AcDbEntity
  8
0
100
AcDbLine
 62
7
  6
CONTINUOUS
 10
93.3135563555
 20
85.1350602597
 11
93.492370299
 21
85.3138742032
  0
LINE
  5
3C0
100
AcDbEntity
  8
0
100
AcDbLine
 62
7
  6
CONTINUOUS
 10
93.3135563555
 20
84.7150388317
 11
93.912391727
 21
85.3138742032
  0
LINE
  5
3C1
100
AcDbEntity
  8
0
100
AcDbLine
 62
7
  6
CONTINUOUS
 10
93.3135563555
 20
84.2950174036
 11
94.332413155
 21
85.3138742032
  0
LINE
  5
3C2
100
AcDbEntity
  8
0
100
AcDbLine
 62
7
  6
CONTINUOUS
 10
93.3135563555
 20
83.8749959756
 11
94.332413155
 21
84.8938527751
  0
LINE
  5
3C3
100
AcDbEntity
  8
0
100
AcDbLine
 62
7
  6
CONTINUOUS
 10
93.3135563555
 20
83.4549745476
 11
94.332413155
 21
84.4738313471
  0
LINE
  5
3C4
100
AcDbEntity
  8
0
100
AcDbLine
 62
7
  6
CONTINUOUS
 10
93.3135563555
 20
83.0349531196
 11
94.332413155
 21
84.0538099191
  0
LINE
  5
3C5
100
AcDbEntity
  8
0
100
AcDbLine
 62
7
  6
CONTINUOUS
 10
93.3135563555
 20
82.6149316915
 11
94.332413155
 21
83.6337884911
  0
LINE
  5
3C6
100
AcDbEntity
  8
0
100
AcDbLine
 62
7
  6
CONTINUOUS
 10
93.3135563555
 20
82.1949102635
 11
94.332413155
 21
83.213767063
  0
LINE
  5
3C7
100
AcDbEntity
  8
0
100
AcDbLine
 62
250
  6
CONTINUOUS
 10
87.2571659136
 20
80.7213822032
 11
92.2336938488
 21
85.4530682032
  0
LINE
  5
3C8
100
AcDbEntity
  8
0
100
AcDbLine
 62
250
  6
CONTINUOUS
 10
79.8398479918
 20
72.5221832032
 11
79.6256472543
 21
72.3222022032
  0
LINE
  5
3C9
100
AcDbEntity
  8
RACCORDO
100
AcDbLine
 62
7
  6
CONTINUOUS
 10
104.5411393582
 20
70.5089398443
 11
99.532413155
 21
70.4215122032
  0
LINE
  5
3CA
100
AcDbEntity
  8
ASSI
100
AcDbLine
 62
7
  6
CONTINUOUS
 10
104.5411393582
 20
70.5089398443
 11
99.532413155
 21
70.4215122032
  0
LINE
  5
3CB
100
AcDbEntity
  8
RACCORDO
100
AcDbLine
 62
250
  6
CONTINUOUS
 10
104.5411393582
 20
71.0088636918
 11
99.0411393582
 21
70.9128608347
  0
LINE
  5
3CC
100
AcDbEntity
  8
ASSI
100
AcDbLine
 62
250
  6
CONTINUOUS
 10
104.5411393582
 20
71.0088636918
 11
99.0411393582
 21
70.9128608347
  0
LINE
  5
3CD
100
AcDbEntity
  8
0
100
AcDbLine
 62
250
  6
CONTINUOUS
 10
84.3051744993
 20
67.9422902032
 11
83.1296136683
 21
67.9422902032
  0
LINE
  5
3CE
100
AcDbEntity
  8
0
100
AcDbLine
 62
250
  6
CONTINUOUS
 10
81.5431160413
 20
67.9422902032
 11
82.3404541089
 21
67.9422902032
  0
LINE
  5
3CF
100
AcDbEntity
  8
0
100
AcDbLine
 62
250
  6
CONTINUOUS
 10
80.3675552103
 20
68.9290402032
 11
81.5512945495
 21
68.9290402032
  0
LINE
  5
3D0
100
AcDbEntity
  8
0
100
AcDbLine
 62
250
  6
CONTINUOUS
 10
83.1296136683
 20
68.9290402032
 11
84.3133530074
 21
68.9290402032
  0
LINE
  5
3D1
100
AcDbEntity
  8
0
100
AcDbLine
 62
250
  6
CONTINUOUS
 10
83.1296136683
 20
69.7184402032
 11
82.3404541089
 21
69.7184402032
  0
LINE
  5
3D2
100
AcDbEntity
  8
CURVE
100
AcDbLine
 62
7
420
4080451
  6
CONTINUOUS
 10
87.0292123167
 20
69.7572265911
 11
87.2434327497
 21
69.7572265911
  0
LINE
  5
3D3
100
AcDbEntity
  8
CURVE
100
AcDbLine
 62
7
420
4080451
  6
CONTINUOUS
 10
86.8149918837
 20
70.1857978153
 11
87.4576531827
 21
70.1857978153
  0
LINE
  5
3D4
100
AcDbEntity
  8
0
100
AcDbLine
 62
250
  6
CONTINUOUS
 10
80.3675552103
 20
70.5078402032
 11
85.1025125669
 21
70.5078402032
  0
LINE
  5
3D5
100
AcDbEntity
  8
CURVE
100
AcDbLine
 62
7
420
4080451
  6
CONTINUOUS
 10
87.6718736604
 20
70.8286553668
 11
88.1003145487
 21
70.8286553668
  0
LINE
  5
3D6
100
AcDbEntity
  8
RACCORDO
100
AcDbLine
 62
250
  6
CONTINUOUS
 10
104.5411393582
 20
71.0088636918
 11
105.032413155
 21
71.0088636918
  0
LINE
  5
3D7
100
AcDbEntity
  8
ASSI
100
AcDbLine
 62
250
  6
CONTINUOUS
 10
104.5411393582
 20
71.0088636918
 11
105.032413155
 21
71.0088636918
  0
LINE
  5
3D8
100
AcDbEntity
  8
CURVE
100
AcDbLine
 62
7
420
4080451
  6
CONTINUOUS
 10
87.2434327497
 20
71.2572265911
 11
87.8860940934
 21
71.2572265911
  0
LINE
  5
3D9
100
AcDbEntity
  8
DRAFT
100
AcDbLine
 62
7
  6
CONTINUOUS
 10
101.3359036363
 20
69.6900321597
 11
99.532413155
 21
69.7215122032
  0
LINE
  5
3DA
100
AcDbEntity
  8
ASSI
100
AcDbLine
 62
7
  6
CONTINUOUS
 10
101.3359036363
 20
69.6900321597
 11
99.532413155
 21
69.7215122032
  0
LINE
  5
3DB
100
AcDbEntity
  8
CURVE
100
AcDbLine
 62
7
420
4080451
  6
CONTINUOUS
 10
86.8149918837
 20
73.292940979
 11
88.314535004
 21
72.8643690395
  0
LINE
  5
3DC
100
AcDbEntity
  8
0
100
AcDbLine
 62
250
  6
CONTINUOUS
 10
95.7402160659
 20
66.4957949241
 11
95.6865466049
 21
66.5604260522
  0
LINE
  5
3DD
100
AcDbEntity
  8
0
100
AcDbLine
 62
250
  6
CONTINUOUS
 10
95.1198141795
 20
66.5432005753
 11
95.0709849351
 21
66.6674802557
  0
LINE
  5
3DE
100
AcDbEntity
  8
0
100
AcDbLine
 62
250
  6
CONTINUOUS
 10
95.599280346
 20
66.8067076639
 11
95.578353527
 21
67.2901598911
  0
LINE
  5
3DF
100
AcDbEntity
  8
0
100
AcDbLine
 62
250
  6
CONTINUOUS
 10
95.0709849351
 20
66.8209435952
 11
95.0607350646
 21
67.5600731487
  0
LINE
  5
3E0
100
AcDbEntity
  8
0
100
AcDbLine
 62
250
  6
CONTINUOUS
 10
93.3135563555
 20
81.1291502032
 11
93.3135563555
 21
85.3138742032
  0
LINE
  5
3E1
100
AcDbEntity
  8
0
100
AcDbLine
 62
250
  6
CONTINUOUS
 10
93.773296155
 20
79.2228212032
 11
93.773296155
 21
78.6671272032
  0
LINE
  5
3E2
100
AcDbEntity
  8
0
100
AcDbLine
 62
250
  6
CONTINUOUS
 10
93.773296155
 20
75.3339972032
 11
93.773296155
 21
74.7783032032
  0
LWPOLYLINE
  5
3E3
100
AcDbEntity
  8
0
100
AcDbPolyline
 62
7
  6
CONTINUOUS
 90
4
 70
0
 43
0.3500000006
 10
93.7831247864
 20
130.3973520813
 10
93.7831247864
 20
131.2544990845
 10
94.2117028198
 20
131.6830680542
 10
94.8545562744
 20
131.6830680542
  0
LINE
  5
3E4
100
AcDbEntity
  8
0
100
AcDbLine
 62
250
  6
CONTINUOUS
 10
94.328990155
 20
77.5560832032
 11
94.328990155
 21
77.0007342032
  0
LINE
  5
3E5
100
AcDbEntity
  8
0
100
AcDbLine
 62
250
  6
CONTINUOUS
 10
94.328990155
 20
76.4450402032
 11
94.328990155
 21
75.8893462032
  0
LINE
  5
3E6
100
AcDbEntity
  8
0
100
AcDbLine
 62
250
  6
CONTINUOUS
 10
94.328990155
 20
74.2229542032
 11
94.328990155
 21
75.3339972032
  0
LINE
  5
3E7
100
AcDbEntity
  8
0
100
AcDbLine
 62
250
  6
CONTINUOUS
 10
94.328990155
 20
78.1117772032
 11
94.328990155
 21
79.2228212032
  0
LINE
  5
3E8
100
AcDbEntity
  8
0
100
AcDbLine
 62
250
  6
CONTINUOUS
 10
94.332413155
 20
85.3138742032
 11
94.332413155
 21
81.1291502032
  0
LINE
  5
3E9
100
AcDbEntity
  8
0
100
AcDbLine
 62
250
  6
CONTINUOUS
 10
95.0709849351
 20
66.6674802557
 11
95.0709849351
 21
66.8209435952
  0
LINE
  5
3EA
100
AcDbEntity
  8
0
100
AcDbLine
 62
250
  6
CONTINUOUS
 10
93.4678392512
 20
58.8215122032
 11
93.4691509994
 21
58.8966736543
  0
LINE
  5
3EB
100
AcDbEntity
  8
ASSI
100
AcDbLine
 62
250
  6
CONTINUOUS
 10
93.4678392512
 20
58.8215122032
 11
93.4691509994
 21
58.8966736543
  0
LINE
  5
3EC
100
AcDbEntity
  8
CURVE
100
AcDbLine
 62
7
420
4080451
  6
CONTINUOUS
 10
87.9575009267
 20
74.2572265911
 11
87.7432804714
 21
73.9715119647
  0
LINE
  5
3ED
100
AcDbEntity
  8
CURVE
100
AcDbLine
 62
7
420
4080451
  6
CONTINUOUS
 10
87.0292123167
 20
71.9000834274
 11
86.8149918837
 21
71.6857978153
  0
LINE
  5
3EE
100
AcDbEntity
  8
0
100
AcDbLine
 62
7
  6
CONTINUOUS
 10
93.3135563555
 20
81.7748888355
 11
94.332413155
 21
82.793745635
  0
LINE
  5
3EF
100
AcDbEntity
  8
0
100
AcDbLine
 62
7
  6
CONTINUOUS
 10
93.3135563555
 20
81.3548674075
 11
94.332413155
 21
82.373724207
  0
LINE
  5
3F0
100
AcDbEntity
  8
0
100
AcDbLine
 62
7
  6
CONTINUOUS
 10
93.5078605792
 20
81.1291502032
 11
94.332413155
 21
81.953702779
  0
LINE
  5
3F1
100
AcDbEntity
  8
0
100
AcDbLine
 62
7
  6
CONTINUOUS
 10
93.9278820072
 20
81.1291502032
 11
94.332413155
 21
81.5336813509
  0
LINE
  5
3F2
100
AcDbEntity
  8
ASSI
100
AcDbLine
 62
7
  6
CONTINUOUS
 10
105.032413155
 20
71.5964612032
 11
105.162413155
 21
71.5964612032
  0
LINE
  5
3F3
100
AcDbEntity
  8
CURVE
100
AcDbLine
 62
7
420
4080451
  6
CONTINUOUS
 10
87.8860940934
 20
72.0072265911
 11
87.2434327497
 21
72.0072265911
  0
LINE
  5
3F4
100
AcDbEntity
  8
0
100
AcDbLine
 62
250
  6
CONTINUOUS
 10
83.8077970399
 20
72.3884432032
 11
83.0580954584
 21
72.3884432032
  0
LINE
  5
3F5
100
AcDbEntity
  8
0
100
AcDbLine
 62
250
  6
CONTINUOUS
 10
80.1611480983
 20
72.5221832032
 11
79.8398479918
 21
72.5221832032
  0
LINE
  5
3F6
100
AcDbEntity
  8
0
100
AcDbLine
 62
250
  6
CONTINUOUS
 10
81.0179510482
 20
72.5621802032
 11
80.4824492045
 21
72.5621802032
  0
LINE
  5
3F7
100
AcDbEntity
  8
ASSI
100
AcDbLine
 62
7
  6
CONTINUOUS
 10
105.032413155
 20
72.9224302202
 11
105.162413155
 21
72.9224312032
  0
LINE
  5
3F8
100
AcDbEntity
  8
ASSI
100
AcDbLine
 62
7
  6
CONTINUOUS
 10
105.032413155
 20
73.8465572032
 11
105.162413155
 21
73.8465572032
  0
LINE
  5
3F9
100
AcDbEntity
  8
CURVE
100
AcDbLine
 62
7
420
4080451
  6
CONTINUOUS
 10
98.9540973497
 20
73.9119082032
 11
97.6688809285
 21
73.9119082032
  0
LINE
  5
3FA
100
AcDbEntity
  8
0
100
AcDbLine
 62
250
  6
CONTINUOUS
 10
89.328950155
 20
74.2229542032
 11
94.328990155
 21
74.2229542032
  0
LINE
  5
3FB
100
AcDbEntity
  8
CURVE
100
AcDbLine
 62
7
420
4080451
  6
CONTINUOUS
 10
97.4951348653
 20
74.4211662032
 11
99.1278434129
 21
74.4211662032
  0
LINE
  5
3FC
100
AcDbEntity
  8
0
100
AcDbLine
 62
7
  6
CONTINUOUS
 10
105.067917446
 20
74.7554332811
 11
105.162413155
 21
74.755433281
  0
LINE
  5
3FD
100
AcDbEntity
  8
ASSI
100
AcDbLine
 62
7
  6
CONTINUOUS
 10
105.0679180241
 20
74.7554332811
 11
105.162413155
 21
74.755433281
  0
LINE
  5
3FE
100
AcDbEntity
  8
0
100
AcDbLine
 62
7
  6
CONTINUOUS
 10
105.032413155
 20
74.7691763689
 11
105.162413155
 21
74.7691763689
  0
LINE
  5
3FF
100
AcDbEntity
  8
ASSI
100
AcDbLine
 62
7
  6
CONTINUOUS
 10
105.032413155
 20
74.7691763689
 11
105.162413155
 21
74.7691763689
  0
LINE
  5
400
100
AcDbEntity
  8
0
100
AcDbLine
 62
250
  6
CONTINUOUS
 10
93.773296155
 20
74.7783032032
 11
92.106731155
 21
74.7783032032
  0
LINE
  5
401
100
AcDbEntity
  8
0
100
AcDbLine
 62
250
  6
CONTINUOUS
 10
91.551037155
 20
74.7783032032
 11
89.884472155
 21
74.7783032032
  0
LINE
  5
402
100
AcDbEntity
  8
RACCORDO
100
AcDbLine
 62
7
  6
CONTINUOUS
 10
74.0081466476
 20
73.2324088156
 11
75.2476545526
 21
73.2107731246
  0
LINE
  5
403
100
AcDbEntity
  8
RACCORDO
100
AcDbLine
 62
250
  6
CONTINUOUS
 10
74.0299821368
 20
73.4819895995
 11
75.2168971679
 21
73.4612719206
  0
LINE
  5
404
100
AcDbEntity
  8
DRAFT
100
AcDbLine
 62
7
  6
CONTINUOUS
 10
74.873321996
 20
76.2594671448
 11
74.2821004801
 21
76.3637154496
  0
LINE
  5
405
100
AcDbEntity
  8
0
100
AcDbLine
 62
250
  6
CONTINUOUS
 10
82.832413155
 20
87.5429407778
 11
83.0466988565
 21
87.3286550651
  0
LINE
  5
406
100
AcDbEntity
  8
0
100
AcDbLine
 62
250
  6
CONTINUOUS
 10
83.0466988565
 20
88.4000836062
 11
82.832413155
 21
88.6143693077
  0
LINE
  5
407
100
AcDbEntity
  8
0
100
AcDbLine
 62
250
  6
CONTINUOUS
 10
84.332413155
 20
87.6500836509
 11
84.1181274311
 21
87.8643693524
  0
LINE
  5
408
100
AcDbEntity
  8
0
100
AcDbLine
 62
250
  6
CONTINUOUS
 10
82.832413155
 20
89.9000836062
 11
83.0466988565
 21
89.6857979941
  0
LINE
  5
409
100
AcDbEntity
  8
0
100
AcDbLine
 62
250
  6
CONTINUOUS
 10
83.3681274535
 20
92.221512084
 11
83.4752702596
 21
92.0429406213
  0
LINE
  5
40A
100
AcDbEntity
  8
CURVE
100
AcDbLine
 62
7
420
4080451
  6
CONTINUOUS
 10
98.4870126607
 20
74.4211662032
 11
98.4870126607
 21
75.1194422032
  0
LINE
  5
40B
100
AcDbEntity
  8
CURVE
100
AcDbLine
 62
7
420
4080451
  6
CONTINUOUS
 10
98.923979526
 20
76.9550372032
 11
98.923979526
 21
75.9430492032
  0
LINE
  5
40C
100
AcDbEntity
  8
0
100
AcDbLine
 62
250
  6
CONTINUOUS
 10
99.0411393582
 20
59.004142289
 11
99.0411393582
 21
60.9805054068
  0
LINE
  5
40D
100
AcDbEntity
  8
ASSI
100
AcDbLine
 62
250
  6
CONTINUOUS
 10
99.0411393582
 20
59.004142289
 11
99.0411393582
 21
60.9805054068
  0
LINE
  5
40E
100
AcDbEntity
  8
RACCORDO
100
AcDbLine
 62
250
  6
CONTINUOUS
 10
99.0411393582
 20
62.2279221293
 11
99.0411393582
 21
70.9128608347
  0
LINE
  5
40F
100
AcDbEntity
  8
ASSI
100
AcDbLine
 62
250
  6
CONTINUOUS
 10
99.0411393582
 20
62.2279221293
 11
99.0411393582
 21
70.9128608347
  0
LINE
  5
410
100
AcDbEntity
  8
RACCORDO
100
AcDbLine
 62
250
  6
CONTINUOUS
 10
99.0411393582
 20
85.5301635716
 11
99.0411393582
 21
94.2153247681
  0
LINE
  5
411
100
AcDbEntity
  8
ASSI
100
AcDbLine
 62
250
  6
CONTINUOUS
 10
99.0411393582
 20
85.5301635716
 11
99.0411393582
 21
94.2153247681
  0
LINE
  5
412
100
AcDbEntity
  8
RACCORDO
100
AcDbLine
 62
7
  6
CONTINUOUS
 10
99.532413155
 20
95.0660859613
 11
99.532413155
 21
86.0215122032
  0
LINE
  5
413
100
AcDbEntity
  8
ASSI
100
AcDbLine
 62
7
  6
CONTINUOUS
 10
99.532413155
 20
95.0660859613
 11
99.532413155
 21
86.0215122032
  0
LINE
  5
414
100
AcDbEntity
  8
0
100
AcDbLine
 62
7
  6
CONTINUOUS
 10
99.532413155
 20
59.3215122032
 11
99.532413155
 21
61.2923595875
  0
LINE
  5
415
100
AcDbEntity
  8
RACCORDO
100
AcDbLine
 62
7
  6
CONTINUOUS
 10
99.532413155
 20
61.2923595875
 11
99.532413155
 21
70.4215122032
  0
LINE
  5
416
100
AcDbEntity
  8
ASSI
100
AcDbLine
 62
7
  6
CONTINUOUS
 10
99.532413155
 20
59.3215122032
 11
99.532413155
 21
70.4215122032
  0
LINE
  5
417
100
AcDbEntity
  8
0
100
AcDbLine
 62
250
  6
CONTINUOUS
 10
84.2058707551
 20
63.5258272032
 11
84.4200724922
 21
63.7636622032
  0
LINE
  5
418
100
AcDbEntity
  8
CURVE
100
AcDbLine
 62
7
420
4080451
  6
CONTINUOUS
 10
88.1003145487
 20
71.3643690395
 11
88.314535004
 21
71.5786553668
  0
LINE
  5
419
100
AcDbEntity
  8
CURVE
100
AcDbLine
 62
7
420
4080451
  6
CONTINUOUS
 10
87.4576531827
 20
70.6143690395
 11
87.6718736604
 21
70.8286553668
  0
LINE
  5
41A
100
AcDbEntity
  8
CURVE
100
AcDbLine
 62
7
420
4080451
  6
CONTINUOUS
 10
86.8149918837
 20
69.542940979
 11
87.0292123167
 21
69.7572265911
  0
LINE
  5
41B
100
AcDbEntity
  8
CURVE
100
AcDbLine
 62
7
420
4080451
  6
CONTINUOUS
 10
98.4013627565
 20
78.1658472032
 11
97.3898169535
 21
77.5367582032
  0
LINE
  5
41C
100
AcDbEntity
  8
CURVE
100
AcDbLine
 62
7
420
4080451
  6
CONTINUOUS
 10
87.2434327497
 20
72.0072265911
 11
87.0292123167
 21
71.9000834274
  0
LINE
  5
41D
100
AcDbEntity
  8
CURVE
100
AcDbLine
 62
7
420
4080451
  6
CONTINUOUS
 10
99.2985943886
 20
77.0573412032
 11
97.2872612001
 21
76.5080672032
  0
LINE
  5
41E
100
AcDbEntity
  8
0
100
AcDbLine
 62
250
  6
CONTINUOUS
 10
83.786107155
 20
75.2215122032
 11
80.878719155
 21
75.2215122032
  0
LINE
  5
41F
100
AcDbEntity
  8
0
100
AcDbLine
 62
250
  6
CONTINUOUS
 10
94.328990155
 20
75.3339972032
 11
93.773296155
 21
75.3339972032
  0
LINE
  5
420
100
AcDbEntity
  8
0
100
AcDbLine
 62
250
  6
CONTINUOUS
 10
92.106731155
 20
75.3339972032
 11
91.551037155
 21
75.3339972032
  0
LINE
  5
421
100
AcDbEntity
  8
0
100
AcDbLine
 62
250
  6
CONTINUOUS
 10
89.884472155
 20
75.3339972032
 11
89.328950155
 21
75.3339972032
  0
LINE
  5
422
100
AcDbEntity
  8
CURVE
100
AcDbLine
 62
7
420
4080451
  6
CONTINUOUS
 10
98.2566668423
 20
75.3498582032
 11
97.6781571023
 21
75.3498582032
  0
LINE
  5
423
100
AcDbEntity
  8
0
100
AcDbLine
 62
7
  6
CONTINUOUS
 10
105.032413155
 20
75.4907862237
 11
105.162413155
 21
75.4907862237
  0
LINE
  5
424
100
AcDbEntity
  8
ASSI
100
AcDbLine
 62
7
  6
CONTINUOUS
 10
105.032413155
 20
75.4907862237
 11
105.162413155
 21
75.4907862237
  0
LINE
  5
425
100
AcDbEntity
  8
0
100
AcDbLine
 62
7
  6
CONTINUOUS
 10
105.032413155
 20
75.5324592032
 11
105.162413155
 21
75.5324592032
  0
LINE
  5
426
100
AcDbEntity
  8
ASSI
100
AcDbLine
 62
7
  6
CONTINUOUS
 10
105.032413155
 20
75.5324592032
 11
105.162413155
 21
75.5324592032
  0
LINE
  5
427
100
AcDbEntity
  8
0
100
AcDbLine
 62
7
  6
CONTINUOUS
 10
105.032413155
 20
75.5572450273
 11
105.162413155
 21
75.5572452032
  0
LINE
  5
428
100
AcDbEntity
  8
ASSI
100
AcDbLine
 62
7
  6
CONTINUOUS
 10
105.032413155
 20
75.5572450273
 11
105.162413155
 21
75.5572452032
  0
LINE
  5
429
100
AcDbEntity
  8
0
100
AcDbLine
 62
7
  6
CONTINUOUS
 10
105.032413155
 20
75.6183970864
 11
105.162413155
 21
75.6183972032
  0
LINE
  5
42A
100
AcDbEntity
  8
ASSI
100
AcDbLine
 62
7
  6
CONTINUOUS
 10
105.032413155
 20
75.6183970864
 11
105.162413155
 21
75.6183972032
  0
LINE
  5
42B
100
AcDbEntity
  8
0
100
AcDbLine
 62
250
  6
CONTINUOUS
 10
94.328990155
 20
75.8893462032
 11
89.328950155
 21
75.8893462032
  0
LINE
  5
42C
100
AcDbEntity
  8
0
100
AcDbLine
 62
7
  6
CONTINUOUS
 10
105.162413155
 20
76.0830496722
 11
105.032413155
 21
76.0830496722
  0
LINE
  5
42D
100
AcDbEntity
  8
ASSI
100
AcDbLine
 62
7
  6
CONTINUOUS
 10
105.162413155
 20
76.0830496722
 11
105.032413155
 21
76.0830496722
  0
LINE
  5
42E
100
AcDbEntity
  8
0
100
AcDbLine
 62
250
  6
CONTINUOUS
 10
91.551037155
 20
76.4450402032
 11
89.884472155
 21
76.4450402032
  0
LINE
  5
42F
100
AcDbEntity
  8
0
100
AcDbLine
 62
250
  6
CONTINUOUS
 10
92.106731155
 20
76.4450402032
 11
94.328990155
 21
76.4450402032
  0
LINE
  5
430
100
AcDbEntity
  8
0
100
AcDbLine
 62
7
  6
CONTINUOUS
 10
105.032413155
 20
76.8436903171
 11
105.162413155
 21
76.8436903171
  0
LINE
  5
431
100
AcDbEntity
  8
ASSI
100
AcDbLine
 62
7
  6
CONTINUOUS
 10
105.032413155
 20
76.8436903171
 11
105.162413155
 21
76.8436903171
  0
LINE
  5
432
100
AcDbEntity
  8
0
100
AcDbLine
 62
250
  6
CONTINUOUS
 10
94.328990155
 20
77.0007342032
 11
92.106731155
 21
77.0007342032
  0
LINE
  5
433
100
AcDbEntity
  8
0
100
AcDbLine
 62
250
  6
CONTINUOUS
 10
89.884472155
 20
77.0007342032
 11
91.551037155
 21
77.0007342032
  0
LINE
  5
434
100
AcDbEntity
  8
CURVE
100
AcDbLine
 62
7
420
4080451
  6
CONTINUOUS
 10
97.3898169535
 20
77.5367582032
 11
99.2331613247
 21
77.5367582032
  0
LINE
  5
435
100
AcDbEntity
  8
0
100
AcDbLine
 62
250
  6
CONTINUOUS
 10
89.328950155
 20
77.5560832032
 11
94.328990155
 21
77.5560832032
  0
LINE
  5
436
100
AcDbEntity
  8
0
100
AcDbLine
 62
250
  6
CONTINUOUS
 10
89.328950155
 20
78.1117772032
 11
94.328990155
 21
78.1117772032
  0
LINE
  5
437
100
AcDbEntity
  8
0
100
AcDbLine
 62
250
  6
CONTINUOUS
 10
93.773296155
 20
78.6671272032
 11
89.884472155
 21
78.6671272032
  0
LINE
  5
438
100
AcDbEntity
  8
CURVE
100
AcDbLine
 62
7
420
4080451
  6
CONTINUOUS
 10
97.2872612001
 20
76.5080672032
 11
99.3301917615
 21
75.8028192032
  0
LINE
  5
439
100
AcDbEntity
  8
CURVE
100
AcDbLine
 62
7
420
4080451
  6
CONTINUOUS
 10
97.7277190018
 20
78.6566852032
 11
98.4013627565
 21
78.1658472032
  0
LINE
  5
43A
100
AcDbEntity
  8
0
100
AcDbLine
 62
250
  6
CONTINUOUS
 10
92.2430094298
 20
80.8458902032
 11
87.2334945194
 21
85.7825222032
  0
LINE
  5
43B
100
AcDbEntity
  8
0
100
AcDbLine
 62
250
  6
CONTINUOUS
 10
83.9038417073
 20
89.0429408001
 11
84.332413155
 21
88.6143693077
  0
LINE
  5
43C
100
AcDbEntity
  8
0
100
AcDbLine
 62
250
  6
CONTINUOUS
 10
82.832413155
 20
91.1857978153
 11
83.260984558
 21
90.7572265911
  0
LINE
  5
43D
100
AcDbEntity
  8
0
100
AcDbLine
 62
250
  6
CONTINUOUS
 10
84.332413155
 20
90.0072264122
 11
84.1181274311
 21
90.2215122032
  0
LINE
  5
43E
100
AcDbEntity
  8
0
100
AcDbLine
 62
250
  6
CONTINUOUS
 10
84.2252702931
 20
92.2572265911
 11
84.332413155
 21
92.150083785
  0
LINE
  5
43F
100
AcDbEntity
  8
CURVE
100
AcDbLine
 62
7
420
4080451
  6
CONTINUOUS
 10
97.3776216692
 20
74.9793242032
 11
97.4951348653
 21
74.4211662032
  0
LINE
  5
440
100
AcDbEntity
  8
0
100
AcDbLine
 62
7
  6
CONTINUOUS
 10
99.732413155
 20
93.9453522032
 11
99.732413155
 21
92.5057273044
  0
LINE
  5
441
100
AcDbEntity
  8
ASSI
100
AcDbLine
 62
7
  6
CONTINUOUS
 10
99.732413155
 20
93.9453522032
 11
99.732413155
 21
92.5057273044
  0
LINE
  5
442
100
AcDbEntity
  8
0
100
AcDbLine
 62
7
  6
CONTINUOUS
 10
99.732413155
 20
62.2408922032
 11
99.732413155
 21
61.5430274956
  0
LINE
  5
443
100
AcDbEntity
  8
ASSI
100
AcDbLine
 62
7
  6
CONTINUOUS
 10
99.732413155
 20
62.2408922032
 11
99.732413155
 21
61.5430274956
  0
LINE
  5
444
100
AcDbEntity
  8
0
100
AcDbLine
 62
7
  6
CONTINUOUS
 10
99.732413155
 20
61.4972322032
 11
99.732413155
 21
60.9231722032
  0
LINE
  5
445
100
AcDbEntity
  8
ASSI
100
AcDbLine
 62
7
  6
CONTINUOUS
 10
99.732413155
 20
61.4972322032
 11
99.732413155
 21
60.9231722032
  0
LINE
  5
446
100
AcDbEntity
  8
RACCORDO
100
AcDbLine
 62
250
  6
CONTINUOUS
 10
101.3359074768
 20
62.3561760716
 11
101.3359076325
 21
62.3529923164
  0
LINE
  5
447
100
AcDbEntity
  8
ASSI
100
AcDbLine
 62
250
  6
CONTINUOUS
 10
101.3359074768
 20
62.3561760716
 11
101.3359076325
 21
62.3529923164
  0
LINE
  5
448
100
AcDbEntity
  8
RACCORDO
100
AcDbLine
 62
250
  6
CONTINUOUS
 10
101.3359038908
 20
69.6900321553
 11
101.3359074768
 21
62.3561760716
  0
LINE
  5
449
100
AcDbEntity
  8
ASSI
100
AcDbLine
 62
250
  6
CONTINUOUS
 10
101.3359038908
 20
69.6900321553
 11
101.3359074768
 21
62.3561760716
  0
LINE
  5
44A
100
AcDbEntity
  8
RACCORDO
100
AcDbLine
 62
250
  6
CONTINUOUS
 10
101.3359038908
 20
92.3900321553
 11
101.3359036363
 21
85.9900321597
  0
LINE
  5
44B
100
AcDbEntity
  8
ASSI
100
AcDbLine
 62
250
  6
CONTINUOUS
 10
101.3359038908
 20
92.3900321553
 11
101.3359036363
 21
85.9900321597
  0
LINE
  5
44C
100
AcDbEntity
  8
RACCORDO
100
AcDbLine
 62
7
  6
CONTINUOUS
 10
101.532413155
 20
92.1913597201
 11
101.532413155
 21
85.9866020733
  0
LINE
  5
44D
100
AcDbEntity
  8
ASSI
100
AcDbLine
 62
7
  6
CONTINUOUS
 10
101.532413155
 20
92.1913597201
 11
101.532413155
 21
85.9866020733
  0
LINE
  5
44E
100
AcDbEntity
  8
RACCORDO
100
AcDbLine
 62
7
  6
CONTINUOUS
 10
101.532413155
 20
62.5533510768
 11
101.532413155
 21
69.4913597201
  0
LINE
  5
44F
100
AcDbEntity
  8
ASSI
100
AcDbLine
 62
7
  6
CONTINUOUS
 10
101.532413155
 20
62.5533510768
 11
101.532413155
 21
69.4913597201
  0
LINE
  5
450
100
AcDbEntity
  8
CURVE
100
AcDbLine
 62
7
420
4080451
  6
CONTINUOUS
 10
87.4576531827
 20
64.6143693077
 11
87.6718736604
 21
64.8286550092
  0
LINE
  5
451
100
AcDbEntity
  8
CURVE
100
AcDbLine
 62
7
420
4080451
  6
CONTINUOUS
 10
88.314535004
 20
64.2929408001
 11
88.1003145487
 21
64.0786550986
  0
LINE
  5
452
100
AcDbEntity
  8
CURVE
100
AcDbLine
 62
7
420
4080451
  6
CONTINUOUS
 10
88.314535004
 20
67.400083785
 11
86.8149918837
 21
66.5429406213
  0
LINE
  5
453
100
AcDbEntity
  8
CURVE
100
AcDbLine
 62
7
420
4080451
  6
CONTINUOUS
 10
87.8860940934
 20
71.2572265911
 11
88.1003145487
 21
71.3643690395
  0
LINE
  5
454
100
AcDbEntity
  8
CURVE
100
AcDbLine
 62
7
420
4080451
  6
CONTINUOUS
 10
98.4870126607
 20
74.9937502032
 11
99.2947915472
 21
75.3494582032
  0
LINE
  5
455
100
AcDbEntity
  8
CURVE
100
AcDbLine
 62
7
420
4080451
  6
CONTINUOUS
 10
88.314535004
 20
72.8643690395
 11
86.8149918837
 21
72.4357978153
  0
LINE
  5
456
100
AcDbEntity
  8
0
100
AcDbLine
 62
250
  6
CONTINUOUS
 10
94.328990155
 20
79.2228212032
 11
93.773296155
 21
79.2228212032
  0
LINE
  5
457
100
AcDbEntity
  8
0
100
AcDbLine
 62
250
  6
CONTINUOUS
 10
89.884472155
 20
79.2228212032
 11
89.328950155
 21
79.2228212032
  0
LINE
  5
458
100
AcDbEntity
  8
0
100
AcDbLine
 62
250
  6
CONTINUOUS
 10
94.332413155
 20
81.1291502032
 11
93.3135563555
 21
81.1291502032
  0
LINE
  5
459
100
AcDbEntity
  8
0
100
AcDbLine
 62
250
  6
CONTINUOUS
 10
79.7851492536
 20
81.3539582032
 11
80.5357405639
 21
81.3539582032
  0
LINE
  5
45A
100
AcDbEntity
  8
0
100
AcDbLine
 62
250
  6
CONTINUOUS
 10
84.1290857461
 20
81.3539582032
 11
84.8796770565
 21
81.3539582032
  0
LINE
  5
45B
100
AcDbEntity
  8
0
100
AcDbLine
 62
250
  6
CONTINUOUS
 10
83.0466988565
 20
87.3286550651
 11
83.260984558
 21
87.2215122032
  0
LINE
  5
45C
100
AcDbEntity
  8
0
100
AcDbLine
 62
250
  6
CONTINUOUS
 10
84.1181274311
 20
87.8643693524
 11
83.9038417073
 21
87.9715122032
  0
LINE
  5
45D
100
AcDbEntity
  8
0
100
AcDbLine
 62
250
  6
CONTINUOUS
 10
83.0466988565
 20
89.6857979941
 11
83.260984558
 21
89.5786550092
  0
LINE
  5
45E
100
AcDbEntity
  8
0
100
AcDbLine
 62
250
  6
CONTINUOUS
 10
84.1181274311
 20
90.2215122032
 11
83.9038417073
 21
90.3286550092
  0
LINE
  5
45F
100
AcDbEntity
  8
RACCORDO
100
AcDbLine
 62
250
  6
CONTINUOUS
 10
104.5411393582
 20
71.0088636918
 11
104.5411393582
 21
85.4341607145
  0
LINE
  5
460
100
AcDbEntity
  8
ASSI
100
AcDbLine
 62
250
  6
CONTINUOUS
 10
104.5411393582
 20
71.0088636918
 11
104.5411393582
 21
85.4341607145
  0
LINE
  5
461
100
AcDbEntity
  8
RACCORDO
100
AcDbLine
 62
7
  6
CONTINUOUS
 10
105.032413155
 20
71.0088636918
 11
105.032413155
 21
85.4341607145
  0
LINE
  5
462
100
AcDbEntity
  8
ASSI
100
AcDbLine
 62
7
  6
CONTINUOUS
 10
105.032413155
 20
71.0088636918
 11
105.032413155
 21
85.4341607145
  0
LINE
  5
463
100
AcDbEntity
  8
0
100
AcDbLine
 62
7
  6
CONTINUOUS
 10
105.162413155
 20
84.3454382032
 11
105.162413155
 21
83.0954382032
  0
LINE
  5
464
100
AcDbEntity
  8
ASSI
100
AcDbLine
 62
7
  6
CONTINUOUS
 10
105.162413155
 20
84.3454382032
 11
105.162413155
 21
83.0954382032
  0
LINE
  5
465
100
AcDbEntity
  8
0
100
AcDbLine
 62
7
  6
CONTINUOUS
 10
105.162413155
 20
76.8436903171
 11
105.162413155
 21
75.5572449627
  0
LINE
  5
466
100
AcDbEntity
  8
ASSI
100
AcDbLine
 62
7
  6
CONTINUOUS
 10
105.162413155
 20
76.8436903171
 11
105.162413155
 21
75.5572449627
  0
LINE
  5
467
100
AcDbEntity
  8
0
100
AcDbLine
 62
7
  6
CONTINUOUS
 10
105.162413155
 20
75.532460577
 11
105.162413155
 21
74.7558457126
  0
LINE
  5
468
100
AcDbEntity
  8
ASSI
100
AcDbLine
 62
7
  6
CONTINUOUS
 10
105.162413155
 20
75.532460577
 11
105.162413155
 21
74.7558457126
  0
LINE
  5
469
100
AcDbEntity
  8
ASSI
100
AcDbLine
 62
7
  6
CONTINUOUS
 10
105.162413155
 20
73.8465572032
 11
105.162413155
 21
71.5964612032
  0
LINE
  5
46A
100
AcDbEntity
  8
RACCORDO
100
AcDbLine
 62
7
  6
CONTINUOUS
 10
88.0859665456
 20
58.6750655938
 11
85.9763426533
 21
56.5654417015
  0
LINE
  5
46B
100
AcDbEntity
  8
ASSI
100
AcDbLine
 62
7
  6
CONTINUOUS
 10
88.0859665456
 20
58.6750655938
 11
85.9763426533
 21
56.5654417015
  0
LINE
  5
46C
100
AcDbEntity
  8
DRAFT
100
AcDbLine
 62
7
  6
CONTINUOUS
 10
74.873321996
 20
80.1835572616
 11
74.6122661275
 21
80.1375260685
  0
LINE
  5
46D
100
AcDbEntity
  8
0
100
AcDbLine
 62
250
  6
CONTINUOUS
 10
88.1416511817
 20
82.1526362032
 11
91.5033600991
 21
82.4466862032
  0
LINE
  5
46E
100
AcDbEntity
  8
RACCORDO
100
AcDbLine
 62
250
  6
CONTINUOUS
 10
75.2168971679
 20
82.9817524858
 11
74.8605595251
 21
82.9755325891
  0
LINE
  5
46F
100
AcDbEntity
  8
RACCORDO
100
AcDbLine
 62
7
  6
CONTINUOUS
 10
75.2476545526
 20
83.2322512817
 11
74.8824618072
 21
83.2258768186
  0
LINE
  5
470
100
AcDbEntity
  8
0
100
AcDbLine
 62
250
  6
CONTINUOUS
 10
88.1416511817
 20
82.4397282032
 11
87.7470932839
 21
82.4397282032
  0
LINE
  5
471
100
AcDbEntity
  8
0
100
AcDbLine
 62
250
  6
CONTINUOUS
 10
91.6997781791
 20
82.5033952032
 11
91.5033600991
 21
82.5033952032
  0
LINE
  5
472
100
AcDbEntity
  8
0
100
AcDbLine
 62
250
  6
CONTINUOUS
 10
87.7470932839
 20
82.5391022032
 11
88.1416511817
 21
82.5391022032
  0
LINE
  5
473
100
AcDbEntity
  8
0
100
AcDbLine
 62
250
  6
CONTINUOUS
 10
91.5033600991
 20
82.6210152032
 11
91.6997781791
 21
82.6210152032
  0
LINE
  5
474
100
AcDbEntity
  8
0
100
AcDbLine
 62
250
  6
CONTINUOUS
 10
89.1849182628
 20
83.0095822032
 11
88.9693151052
 21
83.0095822032
  0
LINE
  5
475
100
AcDbEntity
  8
0
100
AcDbLine
 62
250
  6
CONTINUOUS
 10
87.8715943189
 20
83.0645852032
 11
87.6541334443
 21
83.0645852032
  0
LINE
  5
476
100
AcDbEntity
  8
0
100
AcDbLine
 62
7
  6
CONTINUOUS
 10
105.032413155
 20
83.0954382032
 11
105.162413155
 21
83.0954382032
  0
LINE
  5
477
100
AcDbEntity
  8
ASSI
100
AcDbLine
 62
7
  6
CONTINUOUS
 10
105.032413155
 20
83.0954382032
 11
105.162413155
 21
83.0954382032
  0
LINE
  5
478
100
AcDbEntity
  8
0
100
AcDbLine
 62
250
  6
CONTINUOUS
 10
87.6546913593
 20
83.6375882032
 11
87.8721522339
 21
83.6375882032
  0
LINE
  5
479
100
AcDbEntity
  8
0
100
AcDbLine
 62
250
  6
CONTINUOUS
 10
105.032413155
 20
83.7204383967
 11
105.162413155
 21
83.7204383967
  0
LINE
  5
47A
100
AcDbEntity
  8
ASSI
100
AcDbLine
 62
250
  6
CONTINUOUS
 10
105.032413155
 20
83.7204383967
 11
105.162413155
 21
83.7204383967
  0
LINE
  5
47B
100
AcDbEntity
  8
0
100
AcDbLine
 62
250
  6
CONTINUOUS
 10
88.9693151052
 20
83.8329222032
 11
89.1849182628
 21
83.8329222032
  0
LINE
  5
47C
100
AcDbEntity
  8
0
100
AcDbLine
 62
250
  6
CONTINUOUS
 10
88.8769131807
 20
84.2893992032
 11
88.5045059087
 21
84.2893992032
  0
LINE
  5
47D
100
AcDbEntity
  8
0
100
AcDbLine
 62
7
  6
CONTINUOUS
 10
105.032413155
 20
84.3454382032
 11
105.162413155
 21
84.3454382032
  0
LINE
  5
47E
100
AcDbEntity
  8
ASSI
100
AcDbLine
 62
7
  6
CONTINUOUS
 10
105.032413155
 20
84.3454382032
 11
105.162413155
 21
84.3454382032
  0
LINE
  5
47F
100
AcDbEntity
  8
0
100
AcDbLine
 62
250
  6
CONTINUOUS
 10
88.5045059087
 20
84.6394592032
 11
88.8769131807
 21
84.6394592032
  0
LINE
  5
480
100
AcDbEntity
  8
0
100
AcDbLine
 62
250
  6
CONTINUOUS
 10
93.3135563555
 20
85.3138742032
 11
94.332413155
 21
85.3138742032
  0
LINE
  5
481
100
AcDbEntity
  8
0
100
AcDbLine
 62
250
  6
CONTINUOUS
 10
81.9575273749
 20
85.3390682032
 11
82.7072989351
 21
85.3390682032
  0
LINE
  5
482
100
AcDbEntity
  8
RACCORDO
100
AcDbLine
 62
250
  6
CONTINUOUS
 10
105.032413155
 20
85.4341607145
 11
104.5411393582
 21
85.4341607145
  0
LINE
  5
483
100
AcDbEntity
  8
ASSI
100
AcDbLine
 62
250
  6
CONTINUOUS
 10
105.032413155
 20
85.4341607145
 11
104.5411393582
 21
85.4341607145
  0
LINE
  5
484
100
AcDbEntity
  8
0
100
AcDbLine
 62
250
  6
CONTINUOUS
 10
79.7851492536
 20
85.7390682032
 11
80.5357405639
 21
85.7390682032
  0
LINE
  5
485
100
AcDbEntity
  8
0
100
AcDbLine
 62
250
  6
CONTINUOUS
 10
84.1290857461
 20
85.7390682032
 11
84.8796770565
 21
85.7390682032
  0
LINE
  5
486
100
AcDbEntity
  8
RACCORDO
100
AcDbLine
 62
250
  6
CONTINUOUS
 10
99.0411393582
 20
85.5301635716
 11
104.5411393582
 21
85.4341607145
  0
LINE
  5
487
100
AcDbEntity
  8
ASSI
100
AcDbLine
 62
250
  6
CONTINUOUS
 10
99.0411393582
 20
85.5301635716
 11
104.5411393582
 21
85.4341607145
  0
LINE
  5
488
100
AcDbEntity
  8
RACCORDO
100
AcDbLine
 62
7
  6
CONTINUOUS
 10
99.532413155
 20
86.0215122032
 11
104.5411393582
 21
85.9340845621
  0
LINE
  5
489
100
AcDbEntity
  8
ASSI
100
AcDbLine
 62
7
  6
CONTINUOUS
 10
99.532413155
 20
86.0215122032
 11
104.5411393582
 21
85.9340845621
  0
LINE
  5
48A
100
AcDbEntity
  8
0
100
AcDbLine
 62
250
  6
CONTINUOUS
 10
91.0652828306
 20
84.1021052032
 11
88.1691989854
 21
84.3713512032
  0
LINE
  5
48B
100
AcDbEntity
  8
0
100
AcDbLine
 62
250
  6
CONTINUOUS
 10
83.4752702596
 20
89.1500836062
 11
83.9038417073
 21
89.0429408001
  0
LINE
  5
48C
100
AcDbEntity
  8
0
100
AcDbLine
 62
250
  6
CONTINUOUS
 10
81.592717891
 20
91.3879691144
 11
80.0326874103
 21
91.9072677736
  0
LINE
  5
48D
100
AcDbEntity
  8
0
100
AcDbLine
 62
250
  6
CONTINUOUS
 10
80.0326874103
 20
92.1568727666
 11
81.8321388997
 21
91.5165137536
  0
LINE
  5
48E
100
AcDbEntity
  8
RACCORDO
100
AcDbLine
 62
7
  6
CONTINUOUS
 10
85.9763426533
 20
99.8775827048
 11
89.989568313
 21
95.8643570452
  0
LINE
  5
48F
100
AcDbEntity
  8
ASSI
100
AcDbLine
 62
7
  6
CONTINUOUS
 10
85.9763426533
 20
99.8775827048
 11
89.989568313
 21
95.8643570452
  0
LWPOLYLINE
  5
490
100
AcDbEntity
  8
RACCORDO
100
AcDbPolyline
 62
250
  6
CONTINUOUS
 90
3
 70
0
 10
88.457357022
 20
97.0362482111
 10
88.844723049
 20
96.6417531403
 10
89.6434696442
 20
95.828518197
  0
LWPOLYLINE
  5
491
100
AcDbEntity
  8
ASSI
100
AcDbPolyline
 62
250
  6
CONTINUOUS
 90
3
 70
0
 10
88.457357022
 20
97.0362482111
 10
88.844723049
 20
96.6417531403
 10
89.6434696442
 20
95.828518197
  0
LWPOLYLINE
  5
492
100
AcDbEntity
  8
RACCORDO
100
AcDbPolyline
 62
250
  6
CONTINUOUS
 90
3
 70
0
 10
86.9884129475
 20
98.5318073272
 10
87.3432880231
 20
98.1704379159
 10
87.7064823213
 20
97.800675052
  0
LWPOLYLINE
  5
493
100
AcDbEntity
  8
ASSI
100
AcDbPolyline
 62
250
  6
CONTINUOUS
 90
3
 70
0
 10
86.9884129475
 20
98.5318073272
 10
87.3432880231
 20
98.1704379159
 10
87.7064823213
 20
97.800675052
  0
LINE
  5
494
100
AcDbEntity
  8
RACCORDO
100
AcDbLine
 62
250
  6
CONTINUOUS
 10
86.6417473175
 20
98.8847367746
 11
86.9883821817
 21
98.5317927553
  0
LINE
  5
495
100
AcDbEntity
  8
ASSI
100
AcDbLine
 62
250
  6
CONTINUOUS
 10
86.6417473175
 20
98.8847367746
 11
86.9883821817
 21
98.5317927553
  0
LINE
  5
496
100
AcDbEntity
  8
RACCORDO
100
AcDbLine
 62
250
  6
CONTINUOUS
 10
86.9883821817
 20
98.5317927553
 11
89.6434696442
 21
95.828518197
  0
LINE
  5
497
100
AcDbEntity
  8
ASSI
100
AcDbLine
 62
250
  6
CONTINUOUS
 10
86.9883821817
 20
98.5317927553
 11
89.6434696442
 21
95.828518197
  0
LINE
  5
498
100
AcDbEntity
  8
0
100
AcDbLine
 62
250
  6
CONTINUOUS
 10
95.7264072126
 20
65.174842858
 11
96.4194123487
 21
65.725488681
  0
LINE
  5
499
100
AcDbEntity
  8
CURVE
100
AcDbLine
 62
7
420
4080451
  6
CONTINUOUS
 10
88.314535004
 20
66.1143693971
 11
86.8149918837
 21
65.6857979941
  0
LINE
  5
49A
100
AcDbEntity
  8
0
100
AcDbLine
 62
250
  6
CONTINUOUS
 10
81.8321388997
 20
87.2183010577
 11
80.0326874103
 21
87.2183010577
  0
LINE
  5
49B
100
AcDbEntity
  8
0
100
AcDbLine
 62
250
  6
CONTINUOUS
 10
83.260984558
 20
87.2215122032
 11
83.9038417073
 21
87.2215122032
  0
LINE
  5
49C
100
AcDbEntity
  8
0
100
AcDbLine
 62
250
  6
CONTINUOUS
 10
80.3880461677
 20
87.4451906252
 11
81.8321388997
 21
87.4451906252
  0
LINE
  5
49D
100
AcDbEntity
  8
0
100
AcDbLine
 62
250
  6
CONTINUOUS
 10
83.9038417073
 20
87.9715122032
 11
83.260984558
 21
87.9715122032
  0
LINE
  5
49E
100
AcDbEntity
  8
0
100
AcDbLine
 62
250
  6
CONTINUOUS
 10
83.4752702596
 20
88.4000836062
 11
83.0466988565
 21
88.4000836062
  0
LINE
  5
49F
100
AcDbEntity
  8
0
100
AcDbLine
 62
250
  6
CONTINUOUS
 10
81.4919082097
 20
88.4258670496
 11
80.0326874103
 21
88.4258670496
  0
LINE
  5
4A0
100
AcDbEntity
  8
0
100
AcDbLine
 62
250
  6
CONTINUOUS
 10
80.0326874103
 20
88.6527724983
 11
81.8321388997
 21
88.6527724983
  0
LINE
  5
4A1
100
AcDbEntity
  8
0
100
AcDbLine
 62
250
  6
CONTINUOUS
 10
83.0466988565
 20
89.1500836062
 11
83.4752702596
 21
89.1500836062
  0
LINE
  5
4A2
100
AcDbEntity
  8
0
100
AcDbLine
 62
250
  6
CONTINUOUS
 10
81.8321388997
 20
89.1543953696
 11
80.0326874103
 21
89.1543953696
  0
LINE
  5
4A3
100
AcDbEntity
  8
0
100
AcDbLine
 62
250
  6
CONTINUOUS
 10
80.2343057146
 20
89.393889325
 11
80.8064097853
 21
89.393889325
  0
LINE
  5
4A4
100
AcDbEntity
  8
0
100
AcDbLine
 62
250
  6
CONTINUOUS
 10
81.0080280896
 20
89.393889325
 11
81.6305205954
 21
89.393889325
  0
LINE
  5
4A5
100
AcDbEntity
  8
0
100
AcDbLine
 62
250
  6
CONTINUOUS
 10
83.260984558
 20
89.5786550092
 11
83.9038417073
 21
89.5786550092
  0
LINE
  5
4A6
100
AcDbEntity
  8
RACCORDO
100
AcDbLine
 62
250
  6
CONTINUOUS
 10
99.532413155
 20
89.6215122032
 11
101.532413155
 21
89.6215122032
  0
LINE
  5
4A7
100
AcDbEntity
  8
ASSI
100
AcDbLine
 62
250
  6
CONTINUOUS
 10
99.532413155
 20
89.6215122032
 11
101.532413155
 21
89.6215122032
  0
LINE
  5
4A8
100
AcDbEntity
  8
0
100
AcDbLine
 62
250
  6
CONTINUOUS
 10
83.9038417073
 20
90.3286550092
 11
83.260984558
 21
90.3286550092
  0
LINE
  5
4A9
100
AcDbEntity
  8
0
100
AcDbLine
 62
250
  6
CONTINUOUS
 10
80.8064097853
 20
90.3291846595
 11
81.0080280896
 21
90.3291846595
  0
LINE
  5
4AA
100
AcDbEntity
  8
0
100
AcDbLine
 62
250
  6
CONTINUOUS
 10
80.0326874103
 20
90.3972483536
 11
80.2343057146
 21
90.3972483536
  0
LINE
  5
4AB
100
AcDbEntity
  8
0
100
AcDbLine
 62
250
  6
CONTINUOUS
 10
81.6305205954
 20
90.4048141625
 11
81.8321388997
 21
90.4048141625
  0
LINE
  5
4AC
100
AcDbEntity
  8
0
100
AcDbLine
 62
250
  6
CONTINUOUS
 10
84.332413155
 20
91.1857978153
 11
82.832413155
 21
91.1857978153
  0
LINE
  5
4AD
100
AcDbEntity
  8
0
100
AcDbLine
 62
250
  6
CONTINUOUS
 10
83.0466988565
 20
92.221512084
 11
83.3681274535
 21
92.221512084
  0
LINE
  5
4AE
100
AcDbEntity
  8
0
100
AcDbLine
 62
250
  6
CONTINUOUS
 10
83.6895560058
 20
92.2572265911
 11
84.2252702931
 21
92.2572265911
  0
LINE
  5
4AF
100
AcDbEntity
  8
0
100
AcDbLine
 62
250
  6
CONTINUOUS
 10
81.8321388997
 20
92.4618862459
 11
80.0326874103
 21
92.4618862459
  0
LINE
  5
4B0
100
AcDbEntity
  8
0
100
AcDbLine
 62
7
  6
CONTINUOUS
 10
99.532413155
 20
92.5055948032
 11
99.732413155
 21
92.5055948032
  0
LINE
  5
4B1
100
AcDbEntity
  8
ASSI
100
AcDbLine
 62
7
  6
CONTINUOUS
 10
99.532413155
 20
92.5055948032
 11
99.732413155
 21
92.5055948032
  0
LINE
  5
4B2
100
AcDbEntity
  8
0
100
AcDbLine
 62
250
  6
CONTINUOUS
 10
80.2343057146
 20
92.70138126
 11
80.8064097853
 21
92.70138126
  0
LINE
  5
4B3
100
AcDbEntity
  8
0
100
AcDbLine
 62
250
  6
CONTINUOUS
 10
81.0080280896
 20
92.70138126
 11
81.6305205954
 21
92.70138126
  0
LINE
  5
4B4
100
AcDbEntity
  8
DRAFT
100
AcDbLine
 62
7
  6
CONTINUOUS
 10
101.3359036363
 20
92.3900321597
 11
99.532413155
 21
92.4215122032
  0
LINE
  5
4B5
100
AcDbEntity
  8
ASSI
100
AcDbLine
 62
7
  6
CONTINUOUS
 10
101.3359036363
 20
92.3900321597
 11
99.532413155
 21
92.4215122032
  0
LINE
  5
4B6
100
AcDbEntity
  8
SUPERFICI
100
AcDbLine
 62
7
  6
CONTINUOUS
 10
85.9763426533
 20
56.5654417015
 11
84.4819086389
 21
56.0215122032
  0
LINE
  5
4B7
100
AcDbEntity
  8
ASSI
100
AcDbLine
 62
7
  6
CONTINUOUS
 10
85.9763426533
 20
56.5654417015
 11
84.4819086389
 21
56.0215122032
  0
LINE
  5
4B8
100
AcDbEntity
  8
RACCORDO
100
AcDbLine
 62
250
  6
CONTINUOUS
 10
76.7502018528
 20
95.4695170194
 11
75.9524232211
 21
95.4555917416
  0
LINE
  5
4B9
100
AcDbEntity
  8
RACCORDO
100
AcDbLine
 62
7
  6
CONTINUOUS
 10
76.8732313915
 20
96.4715122032
 11
76.0400323493
 21
96.4569686598
  0
LINE
  5
4BA
100
AcDbEntity
  8
0
100
AcDbLine
 62
250
  6
CONTINUOUS
 10
80.8064097853
 20
93.6367094157
 11
81.0080280896
 21
93.6367094157
  0
LINE
  5
4BB
100
AcDbEntity
  8
0
100
AcDbLine
 62
250
  6
CONTINUOUS
 10
80.0326874103
 20
93.7047233486
 11
80.2343057146
 21
93.7047233486
  0
LINE
  5
4BC
100
AcDbEntity
  8
0
100
AcDbLine
 62
250
  6
CONTINUOUS
 10
81.6305205954
 20
93.7123389187
 11
81.8321388997
 21
93.7123389187
  0
LINE
  5
4BD
100
AcDbEntity
  8
0
100
AcDbLine
 62
7
  6
CONTINUOUS
 10
99.532413155
 20
93.8189122032
 11
99.732413155
 21
93.8189122032
  0
LINE
  5
4BE
100
AcDbEntity
  8
ASSI
100
AcDbLine
 62
7
  6
CONTINUOUS
 10
99.532413155
 20
93.8189122032
 11
99.732413155
 21
93.8189122032
  0
LINE
  5
4BF
100
AcDbEntity
  8
0
100
AcDbLine
 62
7
  6
CONTINUOUS
 10
99.532413155
 20
93.9453522032
 11
99.732413155
 21
93.9453522032
  0
LINE
  5
4C0
100
AcDbEntity
  8
ASSI
100
AcDbLine
 62
7
  6
CONTINUOUS
 10
99.532413155
 20
93.9453522032
 11
99.732413155
 21
93.9453522032
  0
LINE
  5
4C1
100
AcDbEntity
  8
RACCORDO
100
AcDbLine
 62
250
  6
CONTINUOUS
 10
99.532413155
 20
94.215102277
 11
99.0411393582
 21
94.215102277
  0
LINE
  5
4C2
100
AcDbEntity
  8
ASSI
100
AcDbLine
 62
250
  6
CONTINUOUS
 10
99.532413155
 20
94.215102277
 11
99.0411393582
 21
94.215102277
  0
LINE
  5
4C3
100
AcDbEntity
  8
RACCORDO
100
AcDbLine
 62
250
  6
CONTINUOUS
 10
90.3344668508
 20
95.520914555
 11
89.9882553744
 21
95.5222432192
  0
LINE
  5
4C4
100
AcDbEntity
  8
ASSI
100
AcDbLine
 62
250
  6
CONTINUOUS
 10
90.3344668508
 20
95.520914555
 11
89.9882553744
 21
95.5222432192
  0
LINE
  5
4C5
100
AcDbEntity
  8
RACCORDO
100
AcDbLine
 62
250
  6
CONTINUOUS
 10
90.3344668508
 20
95.520914555
 11
89.9882501008
 21
95.5228333984
  0
LINE
  5
4C6
100
AcDbEntity
  8
ASSI
100
AcDbLine
 62
250
  6
CONTINUOUS
 10
90.3344668508
 20
95.520914555
 11
89.9882501008
 21
95.5228333984
  0
LINE
  5
4C7
100
AcDbEntity
  8
RACCORDO
100
AcDbLine
 62
250
  6
CONTINUOUS
 10
91.7688875827
 20
95.5042025624
 11
90.3344664112
 21
95.5208970376
  0
LINE
  5
4C8
100
AcDbEntity
  8
ASSI
100
AcDbLine
 62
250
  6
CONTINUOUS
 10
91.7688875827
 20
95.5042025624
 11
90.3344664112
 21
95.5208970376
  0
LINE
  5
4C9
100
AcDbEntity
  8
0
100
AcDbLine
 62
7
  6
CONTINUOUS
 10
99.0411393582
 20
95.5660098089
 11
93.4749658449
 21
95.6631677289
  0
LINE
  5
4CA
100
AcDbEntity
  8
RACCORDO
100
AcDbLine
 62
7
  6
CONTINUOUS
 10
99.0411393582
 20
95.5660098089
 11
90.3343955004
 21
95.7179865882
  0
LINE
  5
4CB
100
AcDbEntity
  8
ASSI
100
AcDbLine
 62
7
  6
CONTINUOUS
 10
99.0411393582
 20
95.5660098089
 11
90.3343955004
 21
95.7179865882
  0
LINE
  5
4CC
100
AcDbEntity
  8
RACCORDO
100
AcDbLine
 62
250
  6
CONTINUOUS
 10
78.332413155
 20
95.5814463943
 11
77.0006481882
 21
95.6131461375
  0
LINE
  5
4CD
100
AcDbEntity
  8
RACCORDO
100
AcDbLine
 62
250
  6
CONTINUOUS
 10
69.6776825077
 20
99.1983622473
 11
69.1905199139
 21
99.2618451414
  0
LINE
  5
4CE
100
AcDbEntity
  8
SUPERFICI
100
AcDbLine
 62
7
  6
CONTINUOUS
 10
85.9763426533
 20
99.8775827048
 11
84.4819086389
 21
100.4215122032
  0
LINE
  5
4CF
100
AcDbEntity
  8
ASSI
100
AcDbLine
 62
7
  6
CONTINUOUS
 10
85.9763426533
 20
99.8775827048
 11
84.4819086389
 21
100.4215122032
  0
LWPOLYLINE
  5
4D0
100
AcDbEntity
  8
0
100
AcDbPolyline
 62
7
  6
CONTINUOUS
 90
10
 70
0
 43
0.3500000006
 10
86.2217882996
 20
140.4687863159
 10
86.2932194824
 20
140.3259239502
 10
86.2932194824
 20
140.2545018311
 10
86.1503661804
 20
140.1116394653
 10
86.0789349976
 20
140.1116394653
 10
86.0075038147
 20
140.1830615845
 10
86.0075038147
 20
140.2545018311
 10
86.0789349976
 20
140.3973641968
 10
86.1503661804
 20
140.4687863159
 10
86.2217882996
 20
140.4687863159
  0
LWPOLYLINE
  5
4D1
100
AcDbEntity
  8
0
100
AcDbPolyline
 62
7
  6
CONTINUOUS
 90
10
 70
0
 43
0.3500000006
 10
92.7117023621
 20
130.4687832642
 10
92.7831244812
 20
130.3259299622
 10
92.7831244812
 20
130.2544987793
 10
92.6402711792
 20
130.1116454773
 10
92.5688399963
 20
130.1116454773
 10
92.4974088135
 20
130.1830675964
 10
92.4974088135
 20
130.2544987793
 10
92.5688399963
 20
130.3973520813
 10
92.6402711792
 20
130.4687832642
 10
92.7117023621
 20
130.4687832642
  0
LINE
  5
4D2
100
AcDbEntity
  8
DRAFT
100
AcDbLine
 62
7
  6
CONTINUOUS
 10
76.7254321924
 20
99.928372376
 11
77.2989095337
 21
99.9383824602
  0
LINE
  5
4D3
100
AcDbEntity
  8
SUPERFICI
100
AcDbLine
 62
7
  6
CONTINUOUS
 10
84.4819086389
 20
100.4215122032
 11
83.932413155
 21
100.4215122032
  0
LINE
  5
4D4
100
AcDbEntity
  8
ASSI
100
AcDbLine
 62
7
  6
CONTINUOUS
 10
84.4819086389
 20
100.4215122032
 11
83.932413155
 21
100.4215122032
  0
LINE
  5
4D5
100
AcDbEntity
  8
DRAFT
100
AcDbLine
 62
7
  6
CONTINUOUS
 10
76.7254321924
 20
98.9146520303
 11
77.1722536092
 21
98.9068527335
  0
LINE
  5
4D6
100
AcDbEntity
  8
RACCORDO
100
AcDbLine
 62
7
  6
CONTINUOUS
 10
82.479795294
 20
99.4189396384
 11
86.3032679529
 21
99.3522006748
  0
LINE
  5
4D7
100
AcDbEntity
  8
ASSI
100
AcDbLine
 62
7
  6
CONTINUOUS
 10
82.479795294
 20
99.4189396384
 11
86.3032679529
 21
99.3522006748
  0
LINE
  5
4D8
100
AcDbEntity
  8
RACCORDO
100
AcDbLine
 62
250
  6
CONTINUOUS
 10
82.479795294
 20
99.2962687838
 11
86.3033846824
 21
99.2292285057
  0
LINE
  5
4D9
100
AcDbEntity
  8
ASSI
100
AcDbLine
 62
250
  6
CONTINUOUS
 10
82.479795294
 20
99.2962687838
 11
86.3033846824
 21
99.2292285057
  0
LINE
  5
4DA
100
AcDbEntity
  8
RACCORDO
100
AcDbLine
 62
250
  6
CONTINUOUS
 10
76.2853740609
 20
99.2612372557
 11
70.2040623825
 21
99.6331862119
  0
LINE
  5
4DB
100
AcDbEntity
  8
RACCORDO
100
AcDbLine
 62
7
  6
CONTINUOUS
 10
76.3289469551
 20
99.7592777146
 11
70.2432796497
 21
100.1314930723
  0
LINE
  5
4DC
100
AcDbEntity
  8
RACCORDO
100
AcDbLine
 62
250
  6
CONTINUOUS
 10
78.0859790966
 20
100.5058457425
 11
78.332413155
 21
100.5189953725
  0
LINE
  5
4DD
100
AcDbEntity
  8
RACCORDO
100
AcDbLine
 62
250
  6
CONTINUOUS
 10
77.5928301011
 20
100.4795285275
 11
77.8394514119
 21
100.4926901173
  0
LINE
  5
4DE
100
AcDbEntity
  8
RACCORDO
100
AcDbLine
 62
7
  6
CONTINUOUS
 10
78.332413155
 20
100.6215122032
 11
77.5861244463
 21
100.5824008692
  0
LINE
  5
4DF
100
AcDbEntity
  8
SUPERFICI
100
AcDbLine
 62
7
  6
CONTINUOUS
 10
82.332413155
 20
101.6516919435
 11
78.332413155
 21
101.7215122032
  0
LINE
  5
4E0
100
AcDbEntity
  8
ASSI
100
AcDbLine
 62
7
  6
CONTINUOUS
 10
78.332413155
 20
101.7215122032
 11
82.332413155
 21
101.6516919435
  0
LINE
  5
4E1
100
AcDbEntity
  8
SUPERFICI
100
AcDbLine
 62
250
  6
CONTINUOUS
 10
78.332413155
 20
101.5548718606
 11
82.332413155
 21
101.484619565
  0
LINE
  5
4E2
100
AcDbEntity
  8
ASSI
100
AcDbLine
 62
250
  6
CONTINUOUS
 10
78.332413155
 20
101.5548718606
 11
82.332413155
 21
101.484619565
  0
LWPOLYLINE
  5
4E3
100
AcDbEntity
  8
0
100
AcDbPolyline
 62
7
  6
CONTINUOUS
 90
13
 70
0
 43
0.3500000006
 10
94.2117028198
 20
131.6830680542
 10
93.9259871521
 20
131.8973525391
 10
93.9259871521
 20
132.5402059937
 10
94.2117028198
 20
132.9687930908
 10
94.8545562744
 20
132.9687930908
 10
95.1402719421
 20
132.5402059937
 10
95.1402719421
 20
131.8973525391
 10
94.8545562744
 20
131.6830680542
 10
95.2831252441
 20
131.2544990845
 10
95.2831252441
 20
130.3973520813
 10
94.8545562744
 20
129.9687831116
 10
94.2117028198
 20
129.9687831116
 10
93.7831247864
 20
130.3973520813
  0
LWPOLYLINE
  5
4E4
100
AcDbEntity
  8
0
100
AcDbPolyline
 62
7
  6
CONTINUOUS
 90
7
 70
0
 43
0.3500000006
 10
88.8545544434
 20
129.9687831116
 10
87.3545539856
 20
129.9687831116
 10
88.8545544434
 20
132.1116370239
 10
88.8545544434
 20
132.5402059937
 10
88.4259854736
 20
132.9687930908
 10
87.7831229553
 20
132.9687930908
 10
87.3545539856
 20
132.3259215088
  0
LWPOLYLINE
  5
4E5
100
AcDbEntity
  8
0
100
AcDbPolyline
 62
7
  6
CONTINUOUS
 90
6
 70
0
 43
0.3500000006
 10
81.0789334717
 20
139.9687770996
 10
82.1503649597
 20
139.9687770996
 10
82.3646494446
 20
140.1830615845
 10
82.3646494446
 20
141.2545021362
 10
81.9360804749
 20
141.683071106
 10
81.5075024414
 20
141.683071106
  0
LWPOLYLINE
  5
4E6
100
AcDbEntity
  8
0
100
AcDbPolyline
 62
7
  6
CONTINUOUS
 90
5
 70
0
 43
0.3500000006
 10
139.6350013733
 20
131.6830680542
 10
139.9921482239
 20
131.8973525391
 10
139.9921482239
 20
132.5402059937
 10
139.6350013733
 20
132.9687930908
 10
138.7778543701
 20
132.9687930908
  0
LINE
  5
4E7
100
AcDbEntity
  8
SUPERFICI
100
AcDbLine
 62
7
  6
CONTINUOUS
 10
132.9601433728
 20
54.7215122032
 11
140.3098583291
 21
54.7215122032
  0
LINE
  5
4E8
100
AcDbEntity
  8
ASSI
100
AcDbLine
 62
7
  6
CONTINUOUS
 10
132.9601433728
 20
54.7215122032
 11
140.3098583291
 21
54.7215122032
  0
LINE
  5
4E9
100
AcDbEntity
  8
SUPERFICI
100
AcDbLine
 62
7
  6
CONTINUOUS
 10
140.1048211106
 20
55.7215122032
 11
133.1651805912
 21
55.7215122032
  0
LINE
  5
4EA
100
AcDbEntity
  8
ASSI
100
AcDbLine
 62
7
  6
CONTINUOUS
 10
140.1048211106
 20
55.7215122032
 11
133.1651805912
 21
55.7215122032
  0
LINE
  5
4EB
100
AcDbEntity
  8
RACCORDO
100
AcDbLine
 62
7
  6
CONTINUOUS
 10
142.016596876
 20
55.8215122032
 11
139.9350008509
 21
55.8215122032
  0
LINE
  5
4EC
100
AcDbEntity
  8
RACCORDO
100
AcDbLine
 62
7
  6
CONTINUOUS
 10
133.3350008509
 20
55.8215122032
 11
131.2534048258
 21
55.8215122032
  0
LINE
  5
4ED
100
AcDbEntity
  8
ASSI
100
AcDbLine
 62
7
  6
CONTINUOUS
 10
134.0350008509
 20
55.8215122032
 11
134.6350008509
 21
55.8215122032
  0
LINE
  5
4EE
100
AcDbEntity
  8
ASSI
100
AcDbLine
 62
7
  6
CONTINUOUS
 10
138.6350008509
 20
55.8215122032
 11
139.2350008509
 21
55.8215122032
  0
LINE
  5
4EF
100
AcDbEntity
  8
RACCORDO
100
AcDbLine
 62
250
  6
CONTINUOUS
 10
131.2020278943
 20
55.8606235371
 11
142.0679738076
 21
55.8606235371
  0
LINE
  5
4F0
100
AcDbEntity
  8
RACCORDO
100
AcDbLine
 62
250
  6
CONTINUOUS
 10
131.2020278943
 20
56.0798135849
 11
142.0679738076
 21
56.0798135849
  0
LINE
  5
4F1
100
AcDbEntity
  8
RACCORDO
100
AcDbLine
 62
7
  6
CONTINUOUS
 10
147.1851531471
 20
56.1259499382
 11
126.0848485548
 21
56.1259499382
  0
LINE
  5
4F2
100
AcDbEntity
  8
RACCORDO
100
AcDbLine
 62
250
  6
CONTINUOUS
 10
147.0787653954
 20
56.8161544055
 11
126.1912363064
 21
56.8161544055
  0
LINE
  5
4F3
100
AcDbEntity
  8
RACCORDO
100
AcDbLine
 62
250
  6
CONTINUOUS
 10
147.0702738653
 20
57.8554002406
 11
126.1997278366
 21
57.8554002406
  0
LINE
  5
4F4
100
AcDbEntity
  8
RACCORDO
100
AcDbLine
 62
7
  6
CONTINUOUS
 10
125.6041198219
 20
99.3976871874
 11
125.7104881544
 21
99.7698346041
  0
LINE
  5
4F5
100
AcDbEntity
  8
RACCORDO
100
AcDbLine
 62
250
  6
CONTINUOUS
 10
125.5850008509
 20
99.2612372557
 11
125.6913124588
 21
99.6331862119
  0
LINE
  5
4F6
100
AcDbEntity
  8
RACCORDO
100
AcDbLine
 62
250
  6
CONTINUOUS
 10
125.4878495483
 20
94.3442846781
 11
125.4850008509
 21
94.3406800425
  0
LINE
  5
4F7
100
AcDbEntity
  8
RACCORDO
100
AcDbLine
 62
250
  6
CONTINUOUS
 10
125.5106479577
 20
62.0699385448
 11
125.5155112139
 21
61.9269708727
  0
LINE
  5
4F8
100
AcDbEntity
  8
RACCORDO
100
AcDbLine
 62
250
  6
CONTINUOUS
 10
125.5154326276
 20
94.5149423913
 11
125.5106479577
 21
94.3730858615
  0
LWPOLYLINE
  5
4F9
100
AcDbEntity
  8
0
100
AcDbPolyline
 62
7
  6
CONTINUOUS
 90
3
 70
0
 43
0.3500000006
 10
137.7778540649
 20
130.2544987793
 10
137.7064319458
 20
130.0402142944
 10
137.5635695801
 20
129.7544986267
  0
LINE
  5
4FA
100
AcDbEntity
  8
SUPERFICI
100
AcDbLine
 62
7
  6
CONTINUOUS
 10
133.4016336485
 20
100.7215122032
 11
133.3350008509
 21
100.6215122032
  0
LINE
  5
4FB
100
AcDbEntity
  8
SUPERFICI
100
AcDbLine
 62
7
  6
CONTINUOUS
 10
133.3350008509
 20
55.8215122032
 11
133.4016336485
 21
55.7215122032
  0
LINE
  5
4FC
100
AcDbEntity
  8
RACCORDO
100
AcDbLine
 62
250
  6
CONTINUOUS
 10
125.5106479577
 20
94.3730858615
 11
125.5449377222
 21
78.3738488824
  0
LINE
  5
4FD
100
AcDbEntity
  8
SUPERFICI
100
AcDbLine
 62
7
  6
CONTINUOUS
 10
125.4850008509
 20
94.3411713692
 11
125.4850008509
 21
62.1018530372
  0
LINE
  5
4FE
100
AcDbEntity
  8
ASSI
100
AcDbLine
 62
7
  6
CONTINUOUS
 10
125.4850008509
 20
94.3411713692
 11
125.4850008509
 21
62.1018530372
  0
LINE
  5
4FF
100
AcDbEntity
  8
RACCORDO
100
AcDbLine
 62
7
  6
CONTINUOUS
 10
125.4850008509
 20
62.1023443639
 11
125.4850008509
 21
94.3406800425
  0
LINE
  5
500
100
AcDbEntity
  8
RACCORDO
100
AcDbLine
 62
7
  6
CONTINUOUS
 10
125.5850008509
 20
99.2612372557
 11
125.5850008509
 21
56.6239903971
  0
LINE
  5
501
100
AcDbEntity
  8
RACCORDO
100
AcDbLine
 62
250
  6
CONTINUOUS
 10
126.1997278366
 20
99.2618451432
 11
126.1997278366
 21
57.8554002406
  0
LINE
  5
502
100
AcDbEntity
  8
RACCORDO
100
AcDbLine
 62
250
  6
CONTINUOUS
 10
125.5449377222
 20
78.0691755239
 11
125.5106479577
 21
62.0699385448
  0
LINE
  5
503
100
AcDbEntity
  8
RACCORDO
100
AcDbLine
 62
250
  6
CONTINUOUS
 10
125.6913124589
 20
57.3137008721
 11
125.5850008509
 21
56.6239903971
  0
LINE
  5
504
100
AcDbEntity
  8
SUPERFICI
100
AcDbLine
 62
7
  6
CONTINUOUS
 10
133.2501285739
 20
100.6215122032
 11
133.2669404174
 21
100.6996054359
  0
LINE
  5
505
100
AcDbEntity
  8
ASSI
100
AcDbLine
 62
7
  6
CONTINUOUS
 10
133.2501285739
 20
100.6215122032
 11
133.2669404174
 21
100.6996054359
  0
LINE
  5
506
100
AcDbEntity
  8
SUPERFICI
100
AcDbLine
 62
7
  6
CONTINUOUS
 10
133.2501285739
 20
55.8215122032
 11
133.2669404174
 21
55.7434189704
  0
LINE
  5
507
100
AcDbEntity
  8
ASSI
100
AcDbLine
 62
7
  6
CONTINUOUS
 10
133.2501285739
 20
55.8215122032
 11
133.2669404174
 21
55.7434189704
  0
LINE
  5
508
100
AcDbEntity
  8
RACCORDO
100
AcDbLine
 62
250
  6
CONTINUOUS
 10
131.2020278943
 20
56.0798135849
 11
131.2020278943
 21
55.8606235371
  0
LINE
  5
509
100
AcDbEntity
  8
RACCORDO
100
AcDbLine
 62
250
  6
CONTINUOUS
 10
131.2020278943
 20
100.3632108214
 11
131.2020278943
 21
100.5824008692
  0
LINE
  5
50A
100
AcDbEntity
  8
RACCORDO
100
AcDbLine
 62
250
  6
CONTINUOUS
 10
126.1912363064
 20
56.8161544055
 11
126.0848485548
 21
56.1259499382
  0
LINE
  5
50B
100
AcDbEntity
  8
RACCORDO
100
AcDbLine
 62
7
  6
CONTINUOUS
 10
133.1651805912
 20
55.7215122032
 11
133.1651805912
 21
55.8215122032
  0
LINE
  5
50C
100
AcDbEntity
  8
ASSI
100
AcDbLine
 62
7
  6
CONTINUOUS
 10
133.1651805912
 20
55.7215122032
 11
133.1651805912
 21
55.8215122032
  0
LINE
  5
50D
100
AcDbEntity
  8
RACCORDO
100
AcDbLine
 62
7
  6
CONTINUOUS
 10
133.1651805912
 20
100.6215122032
 11
133.1651805912
 21
100.7215122032
  0
LINE
  5
50E
100
AcDbEntity
  8
ASSI
100
AcDbLine
 62
7
  6
CONTINUOUS
 10
133.1651805912
 20
100.6215122032
 11
133.1651805912
 21
100.7215122032
  0
LINE
  5
50F
100
AcDbEntity
  8
SUPERFICI
100
AcDbLine
 62
7
  6
CONTINUOUS
 10
140.0501285739
 20
100.6215122032
 11
140.0635010096
 21
100.6836289328
  0
LINE
  5
510
100
AcDbEntity
  8
ASSI
100
AcDbLine
 62
7
  6
CONTINUOUS
 10
140.0501285739
 20
100.6215122032
 11
140.0635010096
 21
100.6836289328
  0
LWPOLYLINE
  5
511
100
AcDbEntity
  8
0
100
AcDbPolyline
 62
7
  6
CONTINUOUS
 90
2
 70
0
 43
0.3500000006
 10
186.8850021973
 20
76.8643710022
 10
185.3849926758
 20
76.8643710022
  0
LWPOLYLINE
  5
512
100
AcDbEntity
  8
0
100
AcDbPolyline
 62
7
  6
CONTINUOUS
 90
4
 70
0
 43
0.3500000006
 10
184.5278547363
 20
78.2215090942
 10
183.8850012817
 20
78.2215090942
 10
183.8850012817
 20
79.721509552
 10
186.8850021973
 20
78.8643716125
  0
LINE
  5
513
100
AcDbEntity
  8
SUPERFICI
100
AcDbLine
 62
7
  6
CONTINUOUS
 10
140.0501285739
 20
55.8215122032
 11
140.0635010096
 21
55.7593954735
  0
LINE
  5
514
100
AcDbEntity
  8
ASSI
100
AcDbLine
 62
7
  6
CONTINUOUS
 10
140.0501285739
 20
55.8215122032
 11
140.0635010096
 21
55.7593954735
  0
LINE
  5
515
100
AcDbEntity
  8
RACCORDO
100
AcDbLine
 62
7
  6
CONTINUOUS
 10
140.1048211106
 20
100.7215122032
 11
140.1048211106
 21
100.6215122032
  0
LINE
  5
516
100
AcDbEntity
  8
ASSI
100
AcDbLine
 62
7
  6
CONTINUOUS
 10
140.1048211106
 20
100.7215122032
 11
140.1048211106
 21
100.6215122032
  0
LINE
  5
517
100
AcDbEntity
  8
RACCORDO
100
AcDbLine
 62
7
  6
CONTINUOUS
 10
140.1048211106
 20
55.8215122032
 11
140.1048211106
 21
55.7215122032
  0
LINE
  5
518
100
AcDbEntity
  8
ASSI
100
AcDbLine
 62
7
  6
CONTINUOUS
 10
140.1048211106
 20
55.8215122032
 11
140.1048211106
 21
55.7215122032
  0
LINE
  5
519
100
AcDbEntity
  8
SUPERFICI
100
AcDbLine
 62
7
  6
CONTINUOUS
 10
133.219873128
 20
55.8215122032
 11
133.2065006922
 21
55.7593954735
  0
LINE
  5
51A
100
AcDbEntity
  8
ASSI
100
AcDbLine
 62
7
  6
CONTINUOUS
 10
133.219873128
 20
55.8215122032
 11
133.2065006922
 21
55.7593954735
  0
LINE
  5
51B
100
AcDbEntity
  8
SUPERFICI
100
AcDbLine
 62
7
  6
CONTINUOUS
 10
133.219873128
 20
100.6215122032
 11
133.2065006922
 21
100.6836289328
  0
LINE
  5
51C
100
AcDbEntity
  8
ASSI
100
AcDbLine
 62
7
  6
CONTINUOUS
 10
133.219873128
 20
100.6215122032
 11
133.2065006922
 21
100.6836289328
  0
LINE
  5
51D
100
AcDbEntity
  8
RACCORDO
100
AcDbLine
 62
250
  6
CONTINUOUS
 10
142.0679738076
 20
56.0798135849
 11
142.0679738076
 21
55.8606235371
  0
LINE
  5
51E
100
AcDbEntity
  8
RACCORDO
100
AcDbLine
 62
250
  6
CONTINUOUS
 10
142.0679738076
 20
100.3632108214
 11
142.0679738076
 21
100.5824008692
  0
LINE
  5
51F
100
AcDbEntity
  8
SUPERFICI
100
AcDbLine
 62
7
  6
CONTINUOUS
 10
140.019873128
 20
55.8215122032
 11
140.0030612845
 21
55.7434189704
  0
LINE
  5
520
100
AcDbEntity
  8
ASSI
100
AcDbLine
 62
7
  6
CONTINUOUS
 10
140.019873128
 20
55.8215122032
 11
140.0030612845
 21
55.7434189704
  0
LINE
  5
521
100
AcDbEntity
  8
SUPERFICI
100
AcDbLine
 62
7
  6
CONTINUOUS
 10
140.019873128
 20
100.6215122032
 11
140.0030612845
 21
100.6996054359
  0
LINE
  5
522
100
AcDbEntity
  8
ASSI
100
AcDbLine
 62
7
  6
CONTINUOUS
 10
140.019873128
 20
100.6215122032
 11
140.0030612845
 21
100.6996054359
  0
LINE
  5
523
100
AcDbEntity
  8
RACCORDO
100
AcDbLine
 62
250
  6
CONTINUOUS
 10
147.0787653954
 20
56.8161544055
 11
147.1851531471
 21
56.1259499382
  0
LINE
  5
524
100
AcDbEntity
  8
RACCORDO
100
AcDbLine
 62
250
  6
CONTINUOUS
 10
147.578689243
 20
57.3137008721
 11
147.6850008509
 21
56.6239903971
  0
LINE
  5
525
100
AcDbEntity
  8
RACCORDO
100
AcDbLine
 62
250
  6
CONTINUOUS
 10
147.7593537441
 20
94.3730858615
 11
147.7544904879
 21
94.5160535336
  0
LINE
  5
526
100
AcDbEntity
  8
RACCORDO
100
AcDbLine
 62
250
  6
CONTINUOUS
 10
147.7593537441
 20
62.0699385448
 11
147.7250639797
 21
78.0691755239
  0
LINE
  5
527
100
AcDbEntity
  8
RACCORDO
100
AcDbLine
 62
250
  6
CONTINUOUS
 10
147.0702738653
 20
99.2618451432
 11
147.0702738653
 21
57.8554002406
  0
LINE
  5
528
100
AcDbEntity
  8
RACCORDO
100
AcDbLine
 62
7
  6
CONTINUOUS
 10
147.6850008509
 20
99.2612372557
 11
147.6850008509
 21
56.6239903971
  0
LINE
  5
529
100
AcDbEntity
  8
RACCORDO
100
AcDbLine
 62
7
  6
CONTINUOUS
 10
147.7850008509
 20
94.3406800425
 11
147.7850008509
 21
62.1023443639
  0
LINE
  5
52A
100
AcDbEntity
  8
SUPERFICI
100
AcDbLine
 62
7
  6
CONTINUOUS
 10
147.7850008509
 20
62.1018530372
 11
147.7850008509
 21
94.3411713692
  0
LINE
  5
52B
100
AcDbEntity
  8
ASSI
100
AcDbLine
 62
7
  6
CONTINUOUS
 10
147.7850008509
 20
62.1018530372
 11
147.7850008509
 21
94.3411713692
  0
LINE
  5
52C
100
AcDbEntity
  8
RACCORDO
100
AcDbLine
 62
250
  6
CONTINUOUS
 10
147.7250639797
 20
78.3738488824
 11
147.7593537441
 21
94.3730858615
  0
LINE
  5
52D
100
AcDbEntity
  8
RACCORDO
100
AcDbLine
 62
250
  6
CONTINUOUS
 10
147.7545690742
 20
61.9280820151
 11
147.7593537441
 21
62.0699385448
  0
LINE
  5
52E
100
AcDbEntity
  8
SUPERFICI
100
AcDbLine
 62
7
  6
CONTINUOUS
 10
139.9350008509
 20
55.8215122032
 11
139.8683680533
 21
55.7215122032
  0
LINE
  5
52F
100
AcDbEntity
  8
SUPERFICI
100
AcDbLine
 62
7
  6
CONTINUOUS
 10
139.8683680533
 20
100.7215122032
 11
139.9350008509
 21
100.6215122032
  0
LINE
  5
530
100
AcDbEntity
  8
RACCORDO
100
AcDbLine
 62
250
  6
CONTINUOUS
 10
147.6850008509
 20
99.2612372557
 11
147.578689243
 21
99.6331862119
  0
LINE
  5
531
100
AcDbEntity
  8
RACCORDO
100
AcDbLine
 62
7
  6
CONTINUOUS
 10
147.66588188
 20
99.3976871874
 11
147.5595135475
 21
99.7698346041
  0
LINE
  5
532
100
AcDbEntity
  8
RACCORDO
100
AcDbLine
 62
250
  6
CONTINUOUS
 10
147.7821521535
 20
62.0987397273
 11
147.7850008509
 21
62.1023443639
  0
LWPOLYLINE
  5
533
100
AcDbEntity
  8
RACCORDO
100
AcDbPolyline
 62
7
  6
CONTINUOUS
 90
28
 70
0
 10
147.5595481887
 20
99.7696952364
 10
147.5533333348
 20
99.7898586823
 10
147.5463798999
 20
99.8094849995
 10
147.5384030764
 20
99.8293180661
 10
147.5294002769
 20
99.8491900684
 10
147.5193214608
 20
99.8690652404
 10
147.5081420689
 20
99.8888556243
 10
147.4959448724
 20
99.9083190126
 10
147.4827733997
 20
99.9273332082
 10
147.4685868667
 20
99.9459074282
 10
147.4533686938
 20
99.9640036425
 10
147.437119939
 20
99.9815598068
 10
147.419851413
 20
99.9985059729
 10
147.4015624986
 20
100.0147853423
 10
147.3822676326
 20
100.0303277821
 10
147.3619877641
 20
100.0450608253
 10
147.340736452
 20
100.0589193108
 10
147.3185429136
 20
100.0718288781
 10
147.2954421293
 20
100.0837149464
 10
147.2714625167
 20
100.0945083979
 10
147.2466503624
 20
100.1041335332
 10
147.2210570373
 20
100.1125161179
 10
147.1947261946
 20
100.1195866114
 10
147.1677219211
 20
100.1252715158
 10
147.1401151638
 20
100.1294996682
 10
147.1119688204
 20
100.1322038493
 10
147.083367196
 20
100.1333168157
 10
147.0782256368
 20
100.1333432177
  0
LWPOLYLINE
  5
534
100
AcDbEntity
  8
RACCORDO
100
AcDbPolyline
 62
7
  6
CONTINUOUS
 90
26
 70
0
 10
126.1917755716
 20
100.133348889
 10
126.1824088307
 20
100.1332612166
 10
126.150592046
 20
100.1316506444
 10
126.1193504797
 20
100.1280776987
 10
126.0887986994
 20
100.122633694
 10
126.0590305343
 20
100.1154122356
 10
126.0301400128
 20
100.1065119738
 10
126.0022115338
 20
100.0960350271
 10
125.9753102524
 20
100.084081595
 10
125.9495008589
 20
100.0707560157
 10
125.924839511
 20
100.0561640026
 10
125.9013658561
 20
100.0404063629
 10
125.8791187121
 20
100.0235873951
 10
125.8581284032
 20
100.005810364
 10
125.8384110116
 20
99.9871707423
 10
125.8199762843
 20
99.9677604729
 10
125.8028402035
 20
99.9476824924
 10
125.7870160484
 20
99.9270458267
 10
125.7724702577
 20
99.9059009983
 10
125.7592221723
 20
99.8843758791
 10
125.7473308072
 20
99.8627036288
 10
125.7367373876
 20
99.8409441688
 10
125.7274091682
 20
99.8192095633
 10
125.7193780407
 20
99.7978202283
 10
125.7124935847
 20
99.7766538395
 10
125.7103094013
 20
99.7691924882
  0
LINE
  5
535
100
AcDbEntity
  8
RACCORDO
100
AcDbLine
 62
250
  6
CONTINUOUS
 10
126.1997278366
 20
99.2618451432
 11
147.0702738653
 21
99.2618451432
  0
LINE
  5
536
100
AcDbEntity
  8
RACCORDO
100
AcDbLine
 62
7
  6
CONTINUOUS
 10
126.1917708549
 20
100.1333582739
 11
147.0782307018
 21
100.1333582739
  0
LINE
  5
537
100
AcDbEntity
  8
RACCORDO
100
AcDbLine
 62
250
  6
CONTINUOUS
 10
142.0679738076
 20
100.3632108214
 11
131.2020278943
 21
100.3632108214
  0
LINE
  5
538
100
AcDbEntity
  8
RACCORDO
100
AcDbLine
 62
250
  6
CONTINUOUS
 10
142.0679738076
 20
100.5824008692
 11
131.2020278943
 21
100.5824008692
  0
LINE
  5
539
100
AcDbEntity
  8
RACCORDO
100
AcDbLine
 62
7
  6
CONTINUOUS
 10
131.2534048258
 20
100.6215122032
 11
133.3350008509
 21
100.6215122032
  0
LINE
  5
53A
100
AcDbEntity
  8
ASSI
100
AcDbLine
 62
7
  6
CONTINUOUS
 10
134.0350008509
 20
100.6215122032
 11
134.6350008509
 21
100.6215122032
  0
LINE
  5
53B
100
AcDbEntity
  8
ASSI
100
AcDbLine
 62
7
  6
CONTINUOUS
 10
138.6350008509
 20
100.6215122032
 11
139.2350008509
 21
100.6215122032
  0
LINE
  5
53C
100
AcDbEntity
  8
RACCORDO
100
AcDbLine
 62
7
  6
CONTINUOUS
 10
139.9350008509
 20
100.6215122032
 11
142.016596876
 21
100.6215122032
  0
LINE
  5
53D
100
AcDbEntity
  8
SUPERFICI
100
AcDbLine
 62
7
  6
CONTINUOUS
 10
140.1048211106
 20
100.7215122032
 11
133.1651805912
 21
100.7215122032
  0
LINE
  5
53E
100
AcDbEntity
  8
ASSI
100
AcDbLine
 62
7
  6
CONTINUOUS
 10
140.1048211106
 20
100.7215122032
 11
133.1651805912
 21
100.7215122032
  0
LINE
  5
53F
100
AcDbEntity
  8
SUPERFICI
100
AcDbLine
 62
7
  6
CONTINUOUS
 10
132.9601433728
 20
101.7215122032
 11
140.3098583291
 21
101.7215122032
  0
LINE
  5
540
100
AcDbEntity
  8
ASSI
100
AcDbLine
 62
7
  6
CONTINUOUS
 10
132.9601433728
 20
101.7215122032
 11
140.3098583291
 21
101.7215122032
  0
LWPOLYLINE
  5
541
100
AcDbEntity
  8
0
100
AcDbPolyline
 62
7
  6
CONTINUOUS
 90
10
 70
0
 43
0.3500000006
 10
137.7064319458
 20
130.4687832642
 10
137.7778540649
 20
130.3259299622
 10
137.7778540649
 20
130.2544987793
 10
137.6350007629
 20
130.1116454773
 10
137.5635695801
 20
130.1116454773
 10
137.4921474609
 20
130.1830675964
 10
137.4921474609
 20
130.2544987793
 10
137.5635695801
 20
130.3973520813
 10
137.6350007629
 20
130.4687832642
 10
137.7064319458
 20
130.4687832642
  0
LWPOLYLINE
  5
542
100
AcDbEntity
  8
0
100
AcDbPolyline
 62
7
  6
CONTINUOUS
 90
3
 70
0
 43
0.3500000006
 10
186.2421487427
 20
77.3643711548
 10
186.2421487427
 20
75.864370697
 10
183.8850012817
 20
76.5072241516
  0
LWPOLYLINE
  5
543
100
AcDbEntity
  8
0
100
AcDbPolyline
 62
7
  6
CONTINUOUS
 90
7
 70
0
 43
0.3500000006
 10
136.206431488
 20
129.9687831116
 10
134.7064310303
 20
129.9687831116
 10
136.206431488
 20
132.1116370239
 10
136.206431488
 20
132.5402059937
 10
135.7778625183
 20
132.9687930908
 10
135.135
 20
132.9687930908
 10
134.7064310303
 20
132.3259215088
  0
LWPOLYLINE
  5
544
100
AcDbEntity
  8
0
100
AcDbPolyline
 62
7
  6
CONTINUOUS
 90
7
 70
0
 43
0.3500000006
 10
133.8492840271
 20
129.9687831116
 10
132.3492835693
 20
129.9687831116
 10
133.8492840271
 20
132.1116370239
 10
133.8492840271
 20
132.5402059937
 10
133.4207150574
 20
132.9687930908
 10
132.7778616028
 20
132.9687930908
 10
132.3492835693
 20
132.3259215088
  0
LWPOLYLINE
  5
545
100
AcDbEntity
  8
0
100
AcDbPolyline
 62
7
  6
CONTINUOUS
 90
6
 70
0
 43
0.3500000006
 10
138.7778543701
 20
129.9687831116
 10
139.8492858582
 20
129.9687831116
 10
140.063570343
 20
130.1830675964
 10
140.063570343
 20
131.2544990845
 10
139.6350013733
 20
131.6830680542
 10
139.2064324036
 20
131.6830680542
  0
ARC
  5
546
100
AcDbEntity
  8
SUPERFICI
100
AcDbCircle
 62
7
  6
CONTINUOUS
 10
42.353671179
 20
-1797.1464594602
 40
1898.8887601388
100
AcDbArc
 50
88.7936194629
 51
88.9143369151
  0
ARC
  5
547
100
AcDbEntity
  8
ASSI
100
AcDbCircle
 62
7
  6
CONTINUOUS
 10
42.353671179
 20
-1797.1464594602
 40
1898.8887601388
100
AcDbArc
 50
88.7936194629
 51
88.9143369151
  0
ARC
  5
548
100
AcDbEntity
  8
RACCORDO
100
AcDbCircle
 62
7
  6
CONTINUOUS
 10
66.5668817733
 20
57.8097262612
 40
1.0
100
AcDbArc
 50
177.3821630226
 51
263.5
  0
ARC
  5
549
100
AcDbEntity
  8
RACCORDO
100
AcDbCircle
 62
250
  6
CONTINUOUS
 10
66.5582025209
 20
57.8104985148
 40
0.5000120989
100
AcDbArc
 50
177.3835759501
 51
263.4985870723
  0
ARC
  5
54A
100
AcDbEntity
  8
SUPERFICI
100
AcDbCircle
 62
7
  6
CONTINUOUS
 10
95.6192494416
 20
-1780.6805496921
 40
1836.320264884
100
AcDbArc
 50
90.4145716298
 51
90.539381615
  0
ARC
  5
54B
100
AcDbEntity
  8
ASSI
100
AcDbCircle
 62
7
  6
CONTINUOUS
 10
95.6192494416
 20
-1780.6805496921
 40
1836.320264884
100
AcDbArc
 50
90.4145716298
 51
90.539381615
  0
ARC
  5
54C
100
AcDbEntity
  8
RACCORDO
100
AcDbCircle
 62
7
  6
CONTINUOUS
 10
86.1920273654
 20
54.099346041
 40
4.802850415
100
AcDbArc
 50
140.6170744115
 51
141.1051109809
  0
ARC
  5
54D
100
AcDbEntity
  8
ASSI
100
AcDbCircle
 62
7
  6
CONTINUOUS
 10
86.1920273654
 20
54.099346041
 40
4.802850415
100
AcDbArc
 50
140.6170744115
 51
141.1051109809
  0
ARC
  5
54E
100
AcDbEntity
  8
RACCORDO
100
AcDbCircle
 62
250
  6
CONTINUOUS
 10
88.4438988774
 20
57.9915717915
 40
0.981890623
100
AcDbArc
 50
132.7877488069
 51
135.5214886162
  0
ARC
  5
54F
100
AcDbEntity
  8
ASSI
100
AcDbCircle
 62
250
  6
CONTINUOUS
 10
88.4438988774
 20
57.9915717915
 40
0.981890623
100
AcDbArc
 50
132.7877488069
 51
135.5214886162
  0
ARC
  5
550
100
AcDbEntity
  8
RACCORDO
100
AcDbCircle
 62
7
  6
CONTINUOUS
 10
86.2945417497
 20
57.5907475791
 40
0.5
100
AcDbArc
 50
271.0
 51
315.0
  0
ARC
  5
551
100
AcDbEntity
  8
RACCORDO
100
AcDbCircle
 62
7
  6
CONTINUOUS
 10
88.4395199362
 20
58.3215122032
 40
0.5
100
AcDbArc
 50
90.0
 51
135.0
  0
ARC
  5
552
100
AcDbEntity
  8
ASSI
100
AcDbCircle
 62
7
  6
CONTINUOUS
 10
86.2945417497
 20
57.5907475791
 40
0.5
100
AcDbArc
 50
271.0
 51
315.0
  0
ARC
  5
553
100
AcDbEntity
  8
ASSI
100
AcDbCircle
 62
7
  6
CONTINUOUS
 10
88.4395199362
 20
58.3215122032
 40
0.5
100
AcDbArc
 50
90.0
 51
135.0
  0
ARC
  5
554
100
AcDbEntity
  8
RACCORDO
100
AcDbCircle
 62
7
  6
CONTINUOUS
 10
76.732413155
 20
56.9145911084
 40
0.4
100
AcDbArc
 50
180.0
 51
269.0
  0
ARC
  5
555
100
AcDbEntity
  8
RACCORDO
100
AcDbCircle
 62
7
  6
CONTINUOUS
 10
76.732413155
 20
57.1284332979
 40
0.4
100
AcDbArc
 50
91.0
 51
180.0
  0
ARC
  5
556
100
AcDbEntity
  8
RACCORDO
100
AcDbCircle
 62
250
  6
CONTINUOUS
 10
77.5791073815
 20
56.269291601
 40
0.3061008024
100
AcDbArc
 50
264.9569652078
 51
272.5695258032
  0
ARC
  5
557
100
AcDbEntity
  8
RACCORDO
100
AcDbCircle
 62
7
  6
CONTINUOUS
 10
77.5992084354
 20
56.1102809208
 40
0.25
100
AcDbArc
 50
187.0
 51
267.0
  0
ARC
  5
558
100
AcDbEntity
  8
RACCORDO
100
AcDbCircle
 62
250
  6
CONTINUOUS
 10
86.5080666195
 20
57.377128999
 40
0.1979639812
100
AcDbArc
 50
304.9388499741
 51
315.0191765382
  0
ARC
  5
559
100
AcDbEntity
  8
ASSI
100
AcDbCircle
 62
250
  6
CONTINUOUS
 10
86.5080666195
 20
57.377128999
 40
0.1979639812
100
AcDbArc
 50
304.9388499741
 51
315.0191765382
  0
ARC
  5
55A
100
AcDbEntity
  8
RACCORDO
100
AcDbCircle
 62
7
  6
CONTINUOUS
 10
82.482413155
 20
56.8741076137
 40
0.15
100
AcDbArc
 50
91.0
 51
110.7115813548
  0
ARC
  5
55B
100
AcDbEntity
  8
ASSI
100
AcDbCircle
 62
7
  6
CONTINUOUS
 10
82.482413155
 20
56.8741076137
 40
0.15
100
AcDbArc
 50
91.0
 51
110.7115813548
  0
ARC
  5
55C
100
AcDbEntity
  8
RACCORDO
100
AcDbCircle
 62
250
  6
CONTINUOUS
 10
76.1395429506
 20
78.2214930609
 40
1.2502285897
100
AcDbArc
 50
176.1143193262
 51
177.6676241979
  0
ARC
  5
55D
100
AcDbEntity
  8
RACCORDO
100
AcDbCircle
 62
250
  6
CONTINUOUS
 10
76.1394022214
 20
78.221510194
 40
1.250087023
100
AcDbArc
 50
173.0003969568
 51
176.1146656946
  0
ARC
  5
55E
100
AcDbEntity
  8
0
100
AcDbCircle
 62
7
  6
CONTINUOUS
 10
99.032413155
 20
59.3215122032
 40
0.5
100
AcDbArc
 50
270.0
 51
360.0
  0
ARC
  5
55F
100
AcDbEntity
  8
ASSI
100
AcDbCircle
 62
7
  6
CONTINUOUS
 10
99.032413155
 20
59.3215122032
 40
0.5
100
AcDbArc
 50
270.0
 51
360.0
  0
ARC
  5
560
100
AcDbEntity
  8
RACCORDO
100
AcDbCircle
 62
7
  6
CONTINUOUS
 10
101.332413155
 20
62.5529617856
 40
0.2
100
AcDbArc
 50
271.0
 51
360.0
  0
ARC
  5
561
100
AcDbEntity
  8
ASSI
100
AcDbCircle
 62
7
  6
CONTINUOUS
 10
101.332413155
 20
62.5529617856
 40
0.2
100
AcDbArc
 50
271.0
 51
360.0
  0
ARC
  5
562
100
AcDbEntity
  8
0
100
AcDbCircle
 62
250
  6
CONTINUOUS
 10
96.4177307978
 20
66.9504183975
 40
0.8309715305
100
AcDbArc
 50
189.9589755925
 51
199.9694130996
  0
ARC
  5
563
100
AcDbEntity
  8
RACCORDO
100
AcDbCircle
 62
7
  6
CONTINUOUS
 10
104.532413155
 20
71.0088636918
 40
0.5
100
AcDbArc
 50
271.0
 51
360.0
  0
ARC
  5
564
100
AcDbEntity
  8
ASSI
100
AcDbCircle
 62
7
  6
CONTINUOUS
 10
104.532413155
 20
71.0088636918
 40
0.5
100
AcDbArc
 50
271.0
 51
360.0
  0
ARC
  5
565
100
AcDbEntity
  8
0
100
AcDbCircle
 62
250
  6
CONTINUOUS
 10
95.9878961771
 20
66.7666114294
 40
0.3651304392
100
AcDbArc
 50
195.8925153724
 51
214.3801929163
  0
ARC
  5
566
100
AcDbEntity
  8
RACCORDO
100
AcDbCircle
 62
7
  6
CONTINUOUS
 10
101.332413155
 20
69.4900626207
 40
0.2
100
AcDbArc
 50
0.0
 51
89.0
  0
ARC
  5
567
100
AcDbEntity
  8
ASSI
100
AcDbCircle
 62
7
  6
CONTINUOUS
 10
101.332413155
 20
69.4900626207
 40
0.2
100
AcDbArc
 50
0.0
 51
89.0
  0
ARC
  5
568
100
AcDbEntity
  8
RACCORDO
100
AcDbCircle
 62
7
  6
CONTINUOUS
 10
70.1822311102
 20
99.1333582739
 40
1.0
100
AcDbArc
 50
86.5
 51
172.6178369774
  0
ARC
  5
569
100
AcDbEntity
  8
RACCORDO
100
AcDbCircle
 62
250
  6
CONTINUOUS
 10
70.1735496147
 20
99.1341048889
 40
0.500012099
100
AcDbArc
 50
86.5014129351
 51
172.6164240425
  0
ARC
  5
56A
100
AcDbEntity
  8
SUPERFICI
100
AcDbCircle
 62
7
  6
CONTINUOUS
 10
42.3536711796
 20
1953.5894838361
 40
1898.8887601084
100
AcDbArc
 50
271.0856630849
 51
271.2063805371
  0
ARC
  5
56B
100
AcDbEntity
  8
ASSI
100
AcDbCircle
 62
7
  6
CONTINUOUS
 10
42.3536711796
 20
1953.5894838361
 40
1898.8887601084
100
AcDbArc
 50
271.0856630849
 51
271.2063805371
  0
ARC
  5
56C
100
AcDbEntity
  8
0
100
AcDbCircle
 62
250
  6
CONTINUOUS
 10
82.4739693531
 20
85.6448724386
 40
2.4075482409
100
AcDbArc
 50
359.8374001244
 51
2.2422774674
  0
ARC
  5
56D
100
AcDbEntity
  8
0
100
AcDbCircle
 62
250
  6
CONTINUOUS
 10
82.473969245
 20
81.2597624342
 40
2.4075482316
100
AcDbArc
 50
359.8374010813
 51
2.2422774723
  0
ARC
  5
56E
100
AcDbEntity
  8
0
100
AcDbCircle
 62
250
  6
CONTINUOUS
 10
82.3328629291
 20
85.6388900845
 40
1.7999040018
100
AcDbArc
 50
176.8094274529
 51
257.9636889154
  0
ARC
  5
56F
100
AcDbEntity
  8
0
100
AcDbCircle
 62
250
  6
CONTINUOUS
 10
82.3319633804
 20
85.6388900857
 40
1.7999009597
100
AcDbArc
 50
282.0363488752
 51
3.1906660985
  0
ARC
  5
570
100
AcDbEntity
  8
0
100
AcDbCircle
 62
250
  6
CONTINUOUS
 10
82.2491318703
 20
81.2591856744
 40
1.7160103732
100
AcDbArc
 50
176.8340341996
 51
181.652627334
  0
ARC
  5
571
100
AcDbEntity
  8
RACCORDO
100
AcDbCircle
 62
7
  6
CONTINUOUS
 10
76.1436778932
 20
78.2215122032
 40
1.5
100
AcDbArc
 50
173.0
 51
187.0
  0
ARC
  5
572
100
AcDbEntity
  8
RACCORDO
100
AcDbCircle
 62
250
  6
CONTINUOUS
 10
76.1413342159
 20
78.221593532
 40
1.2520142942
100
AcDbArc
 50
177.6755542608
 51
186.9924315846
  0
ARC
  5
573
100
AcDbEntity
  8
RACCORDO
100
AcDbCircle
 62
7
  6
CONTINUOUS
 10
86.2945417497
 20
98.8522768273
 40
0.5
100
AcDbArc
 50
45.0
 51
89.0
  0
ARC
  5
574
100
AcDbEntity
  8
ASSI
100
AcDbCircle
 62
7
  6
CONTINUOUS
 10
86.2945417497
 20
98.8522768273
 40
0.5
100
AcDbArc
 50
45.0
 51
89.0
  0
ARC
  5
575
100
AcDbEntity
  8
RACCORDO
100
AcDbCircle
 62
250
  6
CONTINUOUS
 10
86.4887463961
 20
98.8157995619
 40
0.4531307507
100
AcDbArc
 50
108.5243127091
 51
114.1625362315
  0
ARC
  5
576
100
AcDbEntity
  8
ASSI
100
AcDbCircle
 62
250
  6
CONTINUOUS
 10
86.4887463961
 20
98.8157995619
 40
0.4531307507
100
AcDbArc
 50
108.5243127091
 51
114.1625362315
  0
ARC
  5
577
100
AcDbEntity
  8
RACCORDO
100
AcDbCircle
 62
7
  6
CONTINUOUS
 10
76.732413155
 20
99.5284332979
 40
0.4
100
AcDbArc
 50
91.0
 51
180.0
  0
ARC
  5
578
100
AcDbEntity
  8
RACCORDO
100
AcDbCircle
 62
7
  6
CONTINUOUS
 10
76.732413155
 20
99.3145911084
 40
0.4
100
AcDbArc
 50
180.0
 51
269.0
  0
ARC
  5
579
100
AcDbEntity
  8
RACCORDO
100
AcDbCircle
 62
250
  6
CONTINUOUS
 10
77.5791079028
 20
100.1737376194
 40
0.3061006014
100
AcDbArc
 50
87.4305701743
 51
95.0432457103
  0
ARC
  5
57A
100
AcDbEntity
  8
RACCORDO
100
AcDbCircle
 62
7
  6
CONTINUOUS
 10
77.5992084354
 20
100.3327434856
 40
0.25
100
AcDbArc
 50
93.0
 51
173.0
  0
ARC
  5
57B
100
AcDbEntity
  8
RACCORDO
100
AcDbCircle
 62
7
  6
CONTINUOUS
 10
82.482413155
 20
99.5689167926
 40
0.15
100
AcDbArc
 50
249.2883508191
 51
269.0
  0
ARC
  5
57C
100
AcDbEntity
  8
ASSI
100
AcDbCircle
 62
7
  6
CONTINUOUS
 10
82.482413155
 20
99.5689167926
 40
0.15
100
AcDbArc
 50
249.2883508191
 51
269.0
  0
ARC
  5
57D
100
AcDbEntity
  8
0
100
AcDbCircle
 62
7
  6
CONTINUOUS
 10
80.851146911
 20
847.6917533089
 40
788.895995499
100
AcDbArc
 50
270.9164569384
 51
271.2168688829
  0
ARC
  5
57E
100
AcDbEntity
  8
ASSI
100
AcDbCircle
 62
7
  6
CONTINUOUS
 10
80.851146911
 20
847.6917533089
 40
788.895995499
100
AcDbArc
 50
270.9164569384
 51
271.2168688829
  0
ARC
  5
57F
100
AcDbEntity
  8
RACCORDO
100
AcDbCircle
 62
7
  6
CONTINUOUS
 10
104.532413155
 20
85.4341607145
 40
0.5
100
AcDbArc
 50
0.0
 51
89.0
  0
ARC
  5
580
100
AcDbEntity
  8
RACCORDO
100
AcDbCircle
 62
7
  6
CONTINUOUS
 10
99.032413155
 20
95.0660859613
 40
0.5
100
AcDbArc
 50
0.0
 51
89.0
  0
ARC
  5
581
100
AcDbEntity
  8
0
100
AcDbCircle
 62
7
  6
CONTINUOUS
 10
99.032413155
 20
95.0660859613
 40
0.5
100
AcDbArc
 50
6.3644598434
 51
41.8377935008
  0
ARC
  5
582
100
AcDbEntity
  8
0
100
AcDbCircle
 62
7
  6
CONTINUOUS
 10
99.032413155
 20
95.0660859613
 40
0.5
100
AcDbArc
 50
51.0799537357
 51
78.8652198298
  0
ARC
  5
583
100
AcDbEntity
  8
RACCORDO
100
AcDbCircle
 62
7
  6
CONTINUOUS
 10
90.3431217036
 20
96.2179104358
 40
0.5
100
AcDbArc
 50
225.0
 51
269.0
  0
ARC
  5
584
100
AcDbEntity
  8
ASSI
100
AcDbCircle
 62
7
  6
CONTINUOUS
 10
104.532413155
 20
85.4341607145
 40
0.5
100
AcDbArc
 50
0.0
 51
89.0
  0
ARC
  5
585
100
AcDbEntity
  8
ASSI
100
AcDbCircle
 62
7
  6
CONTINUOUS
 10
99.032413155
 20
95.0660859613
 40
0.5
100
AcDbArc
 50
0.0
 51
89.0
  0
ARC
  5
586
100
AcDbEntity
  8
ASSI
100
AcDbCircle
 62
7
  6
CONTINUOUS
 10
90.3431217036
 20
96.2179104358
 40
0.5
100
AcDbArc
 50
225.0
 51
269.0
  0
ARC
  5
587
100
AcDbEntity
  8
RACCORDO
100
AcDbCircle
 62
7
  6
CONTINUOUS
 10
101.332413155
 20
92.1900626207
 40
0.2
100
AcDbArc
 50
0.0
 51
89.0
  0
ARC
  5
588
100
AcDbEntity
  8
ASSI
100
AcDbCircle
 62
7
  6
CONTINUOUS
 10
101.332413155
 20
92.1900626207
 40
0.2
100
AcDbArc
 50
0.0
 51
89.0
  0
ARC
  5
589
100
AcDbEntity
  8
SUPERFICI
100
AcDbCircle
 62
7
  6
CONTINUOUS
 10
95.6192494416
 20
1937.1235740985
 40
1836.320264884
100
AcDbArc
 50
269.460618385
 51
269.5854283702
  0
ARC
  5
58A
100
AcDbEntity
  8
ASSI
100
AcDbCircle
 62
7
  6
CONTINUOUS
 10
95.6192494416
 20
1937.1235740985
 40
1836.320264884
100
AcDbArc
 50
269.460618385
 51
269.5854283702
  0
ARC
  5
58B
100
AcDbEntity
  8
RACCORDO
100
AcDbCircle
 62
7
  6
CONTINUOUS
 10
565.0461249991
 20
35.0184105232
 40
500.0
100
AcDbArc
 50
172.6178369774
 51
177.3821630226
  0
ARC
  5
58C
100
AcDbEntity
  8
RACCORDO
100
AcDbCircle
 62
7
  6
CONTINUOUS
 10
127.4964468402
 20
62.1042396249
 40
2.0115101883
100
AcDbArc
 50
186.8549455636
 51
197.9863300448
  0
ARC
  5
58D
100
AcDbEntity
  8
SUPERFICI
100
AcDbCircle
 62
7
  6
CONTINUOUS
 10
127.4898929611
 20
62.10278454
 40
2.0049327586
100
AcDbArc
 50
186.8359954832
 51
198.4432222664
  0
ARC
  5
58E
100
AcDbEntity
  8
ASSI
100
AcDbCircle
 62
7
  6
CONTINUOUS
 10
127.4898929611
 20
62.10278454
 40
2.0049327586
100
AcDbArc
 50
186.8359954832
 51
198.4432222664
  0
ARC
  5
58F
100
AcDbEntity
  8
SUPERFICI
100
AcDbCircle
 62
7
  6
CONTINUOUS
 10
127.486336417
 20
62.1022308835
 40
2.0013356017
100
AcDbArc
 50
180.0108172758
 51
186.8323770051
  0
ARC
  5
590
100
AcDbEntity
  8
ASSI
100
AcDbCircle
 62
7
  6
CONTINUOUS
 10
127.486336417
 20
62.1022308835
 40
2.0013356017
100
AcDbArc
 50
180.0108172758
 51
186.8323770051
  0
ARC
  5
591
100
AcDbEntity
  8
RACCORDO
100
AcDbCircle
 62
7
  6
CONTINUOUS
 10
127.5090865674
 20
62.0673316588
 40
1.9984841175
100
AcDbArc
 50
184.0275787363
 51
195.5396901412
  0
ARC
  5
592
100
AcDbEntity
  8
RACCORDO
100
AcDbCircle
 62
7
  6
CONTINUOUS
 10
127.4822531925
 20
62.1028519891
 40
1.9972524061
100
AcDbArc
 50
180.0145623972
 51
186.8640217328
  0
ARC
  5
593
100
AcDbEntity
  8
RACCORDO
100
AcDbCircle
 62
7
  6
CONTINUOUS
 10
131.2531963269
 20
56.3244649617
 40
0.5027710656
100
AcDbArc
 50
232.7931644768
 51
239.0495786272
  0
ARC
  5
594
100
AcDbEntity
  8
SUPERFICI
100
AcDbCircle
 62
7
  6
CONTINUOUS
 10
131.6850008509
 20
55.1215122032
 40
0.5
100
AcDbArc
 50
350.803718421
 51
119.112422776
  0
ARC
  5
595
100
AcDbEntity
  8
ASSI
100
AcDbCircle
 62
7
  6
CONTINUOUS
 10
131.6850008509
 20
55.1215122032
 40
0.5
100
AcDbArc
 50
350.803718421
 51
119.112422776
  0
ARC
  5
596
100
AcDbEntity
  8
ASSI
100
AcDbCircle
 62
7
  6
CONTINUOUS
 10
134.3350008509
 20
56.2215122032
 40
0.5
100
AcDbArc
 50
233.1301023542
 51
306.8698976458
  0
ARC
  5
597
100
AcDbEntity
  8
RACCORDO
100
AcDbCircle
 62
250
  6
CONTINUOUS
 10
131.2023308637
 20
56.3319457862
 40
0.2521323833
100
AcDbArc
 50
252.8178207569
 51
269.9311517621
  0
ARC
  5
598
100
AcDbEntity
  8
RACCORDO
100
AcDbCircle
 62
250
  6
CONTINUOUS
 10
54.4689911243
 20
78.2215122032
 40
71.0761098489
100
AcDbArc
 50
359.8771984639
 51
0.1228015361
  0
ARC
  5
599
100
AcDbEntity
  8
SUPERFICI
100
AcDbCircle
 62
7
  6
CONTINUOUS
 10
125.3850008509
 20
78.2215122032
 40
28.0
100
AcDbArc
 50
305.9627651514
 51
307.2516081111
  0
ARC
  5
59A
100
AcDbEntity
  8
SUPERFICI
100
AcDbCircle
 62
7
  6
CONTINUOUS
 10
125.3850008509
 20
78.2215122032
 40
28.0
100
AcDbArc
 50
303.5572123136
 51
304.1210936517
  0
ARC
  5
59B
100
AcDbEntity
  8
SUPERFICI
100
AcDbCircle
 62
7
  6
CONTINUOUS
 10
125.3850008509
 20
78.2215122032
 40
28.0
100
AcDbArc
 50
55.8789063483
 51
56.4427876864
  0
ARC
  5
59C
100
AcDbEntity
  8
SUPERFICI
100
AcDbCircle
 62
7
  6
CONTINUOUS
 10
125.3850008509
 20
78.2215122032
 40
28.0
100
AcDbArc
 50
52.7520764812
 51
54.0372348486
  0
ARC
  5
59D
100
AcDbEntity
  8
ASSI
100
AcDbCircle
 62
7
  6
CONTINUOUS
 10
125.3850008509
 20
78.2215122032
 40
28.0
100
AcDbArc
 50
305.9627651514
 51
307.2516081111
  0
ARC
  5
59E
100
AcDbEntity
  8
ASSI
100
AcDbCircle
 62
7
  6
CONTINUOUS
 10
125.3850008509
 20
78.2215122032
 40
28.0
100
AcDbArc
 50
303.5572123136
 51
304.1210936517
  0
ARC
  5
59F
100
AcDbEntity
  8
ASSI
100
AcDbCircle
 62
7
  6
CONTINUOUS
 10
125.3850008509
 20
78.2215122032
 40
28.0
100
AcDbArc
 50
55.8789063483
 51
56.4427876864
  0
ARC
  5
5A0
100
AcDbEntity
  8
ASSI
100
AcDbCircle
 62
7
  6
CONTINUOUS
 10
125.3850008509
 20
78.2215122032
 40
28.0
100
AcDbArc
 50
52.7520764812
 51
54.0372348486
  0
ARC
  5
5A1
100
AcDbEntity
  8
RACCORDO
100
AcDbCircle
 62
7
  6
CONTINUOUS
 10
125.3850008509
 20
78.2215122032
 40
28.0
100
AcDbArc
 50
51.5016415962
 51
52.7818812416
  0
ARC
  5
5A2
100
AcDbEntity
  8
RACCORDO
100
AcDbCircle
 62
7
  6
CONTINUOUS
 10
125.3850008509
 20
78.2215122032
 40
28.0
100
AcDbArc
 50
307.2181187584
 51
307.8896486685
  0
ARC
  5
5A3
100
AcDbEntity
  8
RACCORDO
100
AcDbCircle
 62
250
  6
CONTINUOUS
 10
125.3901109197
 20
78.2593458658
 40
27.7410440047
100
AcDbArc
 50
52.0527623498
 51
52.6477314785
  0
ARC
  5
5A4
100
AcDbEntity
  8
RACCORDO
100
AcDbCircle
 62
7
  6
CONTINUOUS
 10
127.4972397966
 20
94.3386136549
 40
2.012317237
100
AcDbArc
 50
162.0160073645
 51
173.7965512053
  0
ARC
  5
5A5
100
AcDbEntity
  8
SUPERFICI
100
AcDbCircle
 62
7
  6
CONTINUOUS
 10
127.4909548043
 20
94.3400229703
 40
2.0060086855
100
AcDbArc
 50
161.5604957744
 51
173.817191119
  0
ARC
  5
5A6
100
AcDbEntity
  8
ASSI
100
AcDbCircle
 62
7
  6
CONTINUOUS
 10
127.4909548043
 20
94.3400229703
 40
2.0060086855
100
AcDbArc
 50
161.5604957744
 51
173.817191119
  0
ARC
  5
5A7
100
AcDbEntity
  8
SUPERFICI
100
AcDbCircle
 62
7
  6
CONTINUOUS
 10
127.4850262952
 20
94.3408511819
 40
2.0000254699
100
AcDbArc
 50
173.8224876867
 51
179.990827427
  0
ARC
  5
5A8
100
AcDbEntity
  8
ASSI
100
AcDbCircle
 62
7
  6
CONTINUOUS
 10
127.4850262952
 20
94.3408511819
 40
2.0000254699
100
AcDbArc
 50
173.8224876867
 51
179.990827427
  0
ARC
  5
5A9
100
AcDbEntity
  8
RACCORDO
100
AcDbCircle
 62
7
  6
CONTINUOUS
 10
127.5070496527
 20
94.3759474706
 40
1.9964487124
100
AcDbArc
 50
164.32650776
 51
176.0073666069
  0
ARC
  5
5AA
100
AcDbEntity
  8
RACCORDO
100
AcDbCircle
 62
7
  6
CONTINUOUS
 10
127.4802897592
 20
94.3402563455
 40
1.9952889532
100
AcDbArc
 50
173.7908501468
 51
179.9878333154
  0
ARC
  5
5AB
100
AcDbEntity
  8
RACCORDO
100
AcDbCircle
 62
7
  6
CONTINUOUS
 10
131.2546491527
 20
100.1162851662
 40
0.505468696
100
AcDbArc
 50
108.7891775768
 51
120.933279505
  0
ARC
  5
5AC
100
AcDbEntity
  8
RACCORDO
100
AcDbCircle
 62
7
  6
CONTINUOUS
 10
131.2539461495
 20
100.1163801896
 40
0.5051527073
100
AcDbArc
 50
96.1552008025
 51
108.717161575
  0
ARC
  5
5AD
100
AcDbEntity
  8
RACCORDO
100
AcDbCircle
 62
7
  6
CONTINUOUS
 10
131.2532064596
 20
100.1185448926
 40
0.5027887828
100
AcDbArc
 50
120.9246296722
 51
127.2067524146
  0
ARC
  5
5AE
100
AcDbEntity
  8
RACCORDO
100
AcDbCircle
 62
250
  6
CONTINUOUS
 10
126.1927370774
 20
99.6324600958
 40
0.5014251443
100
AcDbArc
 50
164.1759101671
 51
179.917029688
  0
ARC
  5
5AF
100
AcDbEntity
  8
RACCORDO
100
AcDbCircle
 62
7
  6
CONTINUOUS
 10
131.2535123505
 20
100.1208604539
 40
0.5006517609
100
AcDbArc
 50
90.0123053763
 51
96.1608181778
  0
ARC
  5
5B0
100
AcDbEntity
  8
SUPERFICI
100
AcDbCircle
 62
7
  6
CONTINUOUS
 10
131.6850008509
 20
101.3215122032
 40
0.5
100
AcDbArc
 50
240.887577224
 51
9.196281579
  0
ARC
  5
5B1
100
AcDbEntity
  8
ASSI
100
AcDbCircle
 62
7
  6
CONTINUOUS
 10
131.6850008509
 20
101.3215122032
 40
0.5
100
AcDbArc
 50
240.887577224
 51
9.196281579
  0
ARC
  5
5B2
100
AcDbEntity
  8
ASSI
100
AcDbCircle
 62
7
  6
CONTINUOUS
 10
134.3350008509
 20
100.2215122032
 40
0.5
100
AcDbArc
 50
53.1301023542
 51
126.8698976458
  0
ARC
  5
5B3
100
AcDbEntity
  8
RACCORDO
100
AcDbCircle
 62
7
  6
CONTINUOUS
 10
145.7727619052
 20
62.1044107514
 40
2.012317237
100
AcDbArc
 50
342.0160073645
 51
353.7965512053
  0
ARC
  5
5B4
100
AcDbEntity
  8
SUPERFICI
100
AcDbCircle
 62
7
  6
CONTINUOUS
 10
145.7790468975
 20
62.103001436
 40
2.0060086855
100
AcDbArc
 50
341.5604957744
 51
353.817191119
  0
ARC
  5
5B5
100
AcDbEntity
  8
ASSI
100
AcDbCircle
 62
7
  6
CONTINUOUS
 10
145.7790468975
 20
62.103001436
 40
2.0060086855
100
AcDbArc
 50
341.5604957744
 51
353.817191119
  0
ARC
  5
5B6
100
AcDbEntity
  8
SUPERFICI
100
AcDbCircle
 62
7
  6
CONTINUOUS
 10
145.7849754066
 20
62.1021732244
 40
2.0000254699
100
AcDbArc
 50
353.8224876867
 51
359.990827427
  0
ARC
  5
5B7
100
AcDbEntity
  8
ASSI
100
AcDbCircle
 62
7
  6
CONTINUOUS
 10
145.7849754066
 20
62.1021732244
 40
2.0000254699
100
AcDbArc
 50
353.8224876867
 51
359.990827427
  0
ARC
  5
5B8
100
AcDbEntity
  8
RACCORDO
100
AcDbCircle
 62
7
  6
CONTINUOUS
 10
145.7629520492
 20
62.0670769357
 40
1.9964487124
100
AcDbArc
 50
344.32650776
 51
356.0073666069
  0
ARC
  5
5B9
100
AcDbEntity
  8
RACCORDO
100
AcDbCircle
 62
7
  6
CONTINUOUS
 10
145.7897119427
 20
62.1027680609
 40
1.9952889532
100
AcDbArc
 50
353.7908501468
 51
359.9878333154
  0
ARC
  5
5BA
100
AcDbEntity
  8
SUPERFICI
100
AcDbCircle
 62
7
  6
CONTINUOUS
 10
140.3093158568
 20
55.7256167277
 40
1.0041046711
100
AcDbArc
 50
270.0309543195
 51
284.8764761851
  0
ARC
  5
5BB
100
AcDbEntity
  8
ASSI
100
AcDbCircle
 62
7
  6
CONTINUOUS
 10
140.3093158568
 20
55.7256167277
 40
1.0041046711
100
AcDbArc
 50
270.0309543195
 51
284.8764761851
  0
ARC
  5
5BC
100
AcDbEntity
  8
SUPERFICI
100
AcDbCircle
 62
7
  6
CONTINUOUS
 10
140.3091414108
 20
55.723095066
 40
1.0017126504
100
AcDbArc
 50
284.9231496214
 51
296.072217057
  0
ARC
  5
5BD
100
AcDbEntity
  8
ASSI
100
AcDbCircle
 62
7
  6
CONTINUOUS
 10
140.3091414108
 20
55.723095066
 40
1.0017126504
100
AcDbArc
 50
284.9231496214
 51
296.072217057
  0
ARC
  5
5BE
100
AcDbEntity
  8
SUPERFICI
100
AcDbCircle
 62
7
  6
CONTINUOUS
 10
140.3090607132
 20
55.7228863462
 40
1.0015606501
100
AcDbArc
 50
296.0816114514
 51
303.5469670316
  0
ARC
  5
5BF
100
AcDbEntity
  8
ASSI
100
AcDbCircle
 62
7
  6
CONTINUOUS
 10
140.3090607132
 20
55.7228863462
 40
1.0015606501
100
AcDbArc
 50
296.0816114514
 51
303.5469670316
  0
ARC
  5
5C0
100
AcDbEntity
  8
RACCORDO
100
AcDbCircle
 62
7
  6
CONTINUOUS
 10
142.0153525491
 20
56.3267392401
 40
0.505468696
100
AcDbArc
 50
288.789177577
 51
300.9332795052
  0
ARC
  5
5C1
100
AcDbEntity
  8
RACCORDO
100
AcDbCircle
 62
7
  6
CONTINUOUS
 10
142.0160555524
 20
56.3266442168
 40
0.5051527073
100
AcDbArc
 50
276.1552008017
 51
288.717161575
  0
ARC
  5
5C2
100
AcDbEntity
  8
RACCORDO
100
AcDbCircle
 62
7
  6
CONTINUOUS
 10
142.0167952423
 20
56.3244795137
 40
0.5027887828
100
AcDbArc
 50
300.9246296722
 51
307.2067524146
  0
ARC
  5
5C3
100
AcDbEntity
  8
RACCORDO
100
AcDbCircle
 62
7
  6
CONTINUOUS
 10
142.0164893514
 20
56.3221639525
 40
0.5006517609
100
AcDbArc
 50
270.0123053759
 51
276.160818177
  0
ARC
  5
5C4
100
AcDbEntity
  8
SUPERFICI
100
AcDbCircle
 62
7
  6
CONTINUOUS
 10
141.5850008509
 20
55.1215122032
 40
0.5
100
AcDbArc
 50
60.887577224
 51
189.196281579
  0
ARC
  5
5C5
100
AcDbEntity
  8
ASSI
100
AcDbCircle
 62
7
  6
CONTINUOUS
 10
141.5850008509
 20
55.1215122032
 40
0.5
100
AcDbArc
 50
60.887577224
 51
189.196281579
  0
ARC
  5
5C6
100
AcDbEntity
  8
ASSI
100
AcDbCircle
 62
7
  6
CONTINUOUS
 10
138.9350008509
 20
56.2215122032
 40
0.5
100
AcDbArc
 50
233.1301023542
 51
306.8698976458
  0
ARC
  5
5C7
100
AcDbEntity
  8
SUPERFICI
100
AcDbCircle
 62
7
  6
CONTINUOUS
 10
147.8850008509
 20
78.2215122032
 40
28.0
100
AcDbArc
 50
235.8789063483
 51
236.4427876864
  0
ARC
  5
5C8
100
AcDbEntity
  8
SUPERFICI
100
AcDbCircle
 62
7
  6
CONTINUOUS
 10
147.8850008509
 20
78.2215122032
 40
28.0
100
AcDbArc
 50
232.7520764812
 51
234.0372348486
  0
ARC
  5
5C9
100
AcDbEntity
  8
SUPERFICI
100
AcDbCircle
 62
7
  6
CONTINUOUS
 10
147.8850008509
 20
78.2215122032
 40
28.0
100
AcDbArc
 50
125.9627651514
 51
127.251608111
  0
ARC
  5
5CA
100
AcDbEntity
  8
SUPERFICI
100
AcDbCircle
 62
7
  6
CONTINUOUS
 10
147.8850008509
 20
78.2215122032
 40
28.0
100
AcDbArc
 50
123.5572123136
 51
124.1210936517
  0
ARC
  5
5CB
100
AcDbEntity
  8
ASSI
100
AcDbCircle
 62
7
  6
CONTINUOUS
 10
147.8850008509
 20
78.2215122032
 40
28.0
100
AcDbArc
 50
235.8789063483
 51
236.4427876864
  0
ARC
  5
5CC
100
AcDbEntity
  8
ASSI
100
AcDbCircle
 62
7
  6
CONTINUOUS
 10
147.8850008509
 20
78.2215122032
 40
28.0
100
AcDbArc
 50
232.7520764812
 51
234.0372348486
  0
ARC
  5
5CD
100
AcDbEntity
  8
ASSI
100
AcDbCircle
 62
7
  6
CONTINUOUS
 10
147.8850008509
 20
78.2215122032
 40
28.0
100
AcDbArc
 50
125.9627651514
 51
127.251608111
  0
ARC
  5
5CE
100
AcDbEntity
  8
ASSI
100
AcDbCircle
 62
7
  6
CONTINUOUS
 10
147.8850008509
 20
78.2215122032
 40
28.0
100
AcDbArc
 50
123.5572123136
 51
124.1210936517
  0
ARC
  5
5CF
100
AcDbEntity
  8
RACCORDO
100
AcDbCircle
 62
7
  6
CONTINUOUS
 10
147.8850008509
 20
78.2215122032
 40
28.0
100
AcDbArc
 50
127.2181187584
 51
128.4983583724
  0
ARC
  5
5D0
100
AcDbEntity
  8
RACCORDO
100
AcDbCircle
 62
7
  6
CONTINUOUS
 10
147.8850008509
 20
78.2215122032
 40
28.0
100
AcDbArc
 50
232.1103512741
 51
232.7818812416
  0
ARC
  5
5D1
100
AcDbEntity
  8
RACCORDO
100
AcDbCircle
 62
250
  6
CONTINUOUS
 10
147.8810604158
 20
78.257849145
 40
27.7429434114
100
AcDbArc
 50
127.3523133047
 51
127.9472452689
  0
ARC
  5
5D2
100
AcDbEntity
  8
RACCORDO
100
AcDbCircle
 62
7
  6
CONTINUOUS
 10
145.7735548617
 20
94.3387847815
 40
2.0115101883
100
AcDbArc
 50
6.8549455635
 51
17.9863300448
  0
ARC
  5
5D3
100
AcDbEntity
  8
SUPERFICI
100
AcDbCircle
 62
7
  6
CONTINUOUS
 10
145.7801087407
 20
94.3402398663
 40
2.0049327586
100
AcDbArc
 50
6.8359954832
 51
18.4432222664
  0
ARC
  5
5D4
100
AcDbEntity
  8
ASSI
100
AcDbCircle
 62
7
  6
CONTINUOUS
 10
145.7801087407
 20
94.3402398663
 40
2.0049327586
100
AcDbArc
 50
6.8359954832
 51
18.4432222664
  0
ARC
  5
5D5
100
AcDbEntity
  8
SUPERFICI
100
AcDbCircle
 62
7
  6
CONTINUOUS
 10
145.7836652849
 20
94.3407935229
 40
2.0013356017
100
AcDbArc
 50
0.0108172758
 51
6.8323770051
  0
ARC
  5
5D6
100
AcDbEntity
  8
ASSI
100
AcDbCircle
 62
7
  6
CONTINUOUS
 10
145.7836652849
 20
94.3407935229
 40
2.0013356017
100
AcDbArc
 50
0.0108172758
 51
6.8323770051
  0
ARC
  5
5D7
100
AcDbEntity
  8
RACCORDO
100
AcDbCircle
 62
7
  6
CONTINUOUS
 10
145.7609151344
 20
94.3756927475
 40
1.9984841175
100
AcDbArc
 50
4.0275787363
 51
15.5396901412
  0
ARC
  5
5D8
100
AcDbEntity
  8
RACCORDO
100
AcDbCircle
 62
7
  6
CONTINUOUS
 10
145.7877485094
 20
94.3401724173
 40
1.9972524061
100
AcDbArc
 50
0.0145623972
 51
6.8640217329
  0
ARC
  5
5D9
100
AcDbEntity
  8
SUPERFICI
100
AcDbCircle
 62
7
  6
CONTINUOUS
 10
140.3093158568
 20
100.7174076786
 40
1.0041046711
100
AcDbArc
 50
75.1235238149
 51
89.9690456805
  0
ARC
  5
5DA
100
AcDbEntity
  8
ASSI
100
AcDbCircle
 62
7
  6
CONTINUOUS
 10
140.3093158568
 20
100.7174076786
 40
1.0041046711
100
AcDbArc
 50
75.1235238149
 51
89.9690456805
  0
ARC
  5
5DB
100
AcDbEntity
  8
SUPERFICI
100
AcDbCircle
 62
7
  6
CONTINUOUS
 10
140.3091414108
 20
100.7199293403
 40
1.0017126504
100
AcDbArc
 50
63.927782943
 51
75.0768503786
  0
ARC
  5
5DC
100
AcDbEntity
  8
ASSI
100
AcDbCircle
 62
7
  6
CONTINUOUS
 10
140.3091414108
 20
100.7199293403
 40
1.0017126504
100
AcDbArc
 50
63.927782943
 51
75.0768503786
  0
ARC
  5
5DD
100
AcDbEntity
  8
SUPERFICI
100
AcDbCircle
 62
7
  6
CONTINUOUS
 10
140.3090607132
 20
100.7201380602
 40
1.0015606501
100
AcDbArc
 50
56.4530329684
 51
63.9183885486
  0
ARC
  5
5DE
100
AcDbEntity
  8
ASSI
100
AcDbCircle
 62
7
  6
CONTINUOUS
 10
140.3090607132
 20
100.7201380602
 40
1.0015606501
100
AcDbArc
 50
56.4530329684
 51
63.9183885486
  0
ARC
  5
5DF
100
AcDbEntity
  8
RACCORDO
100
AcDbCircle
 62
7
  6
CONTINUOUS
 10
142.0168053749
 20
100.1185594446
 40
0.5027710655
100
AcDbArc
 50
52.7931644767
 51
59.0495786276
  0
ARC
  5
5E0
100
AcDbEntity
  8
RACCORDO
100
AcDbCircle
 62
250
  6
CONTINUOUS
 10
147.0772538544
 20
99.6324579676
 40
0.5014359174
100
AcDbArc
 50
0.0832117031
 51
15.8837465189
  0
ARC
  5
5E1
100
AcDbEntity
  8
SUPERFICI
100
AcDbCircle
 62
7
  6
CONTINUOUS
 10
141.5850008509
 20
101.3215122032
 40
0.5
100
AcDbArc
 50
170.803718421
 51
299.112422776
  0
ARC
  5
5E2
100
AcDbEntity
  8
ASSI
100
AcDbCircle
 62
7
  6
CONTINUOUS
 10
141.5850008509
 20
101.3215122032
 40
0.5
100
AcDbArc
 50
170.803718421
 51
299.112422776
  0
ARC
  5
5E3
100
AcDbEntity
  8
ASSI
100
AcDbCircle
 62
7
  6
CONTINUOUS
 10
138.9350008509
 20
100.2215122032
 40
0.5
100
AcDbArc
 50
53.1301023542
 51
126.8698976458
  0
ARC
  5
5E4
100
AcDbEntity
  8
RACCORDO
100
AcDbCircle
 62
250
  6
CONTINUOUS
 10
142.0676708382
 20
100.1110786201
 40
0.2521323833
100
AcDbArc
 50
72.817820757
 51
89.9311517621
  0
ARC
  5
5E5
100
AcDbEntity
  8
RACCORDO
100
AcDbCircle
 62
250
  6
CONTINUOUS
 10
218.8010094604
 20
78.2215122032
 40
71.0761087317
100
AcDbArc
 50
179.877198462
 51
180.122801538
  0
SPLINE
  5
5E6
100
AcDbEntity
  8
RACCORDO
100
AcDbSpline
 62
250
  6
CONTINUOUS
 70
0
 71
3
 72
9
 73
5
 74
0
 42
0.0000001
 43
0.0000001
 44
0.0000000001
 40
0.0
 40
0.0
 40
0.0
 40
0.0
 40
0.2500261948
 40
1.0
 40
1.0
 40
1.0
 40
1.0
 10
69.6776825077
 20
99.1983622473
 30
0.0
 10
69.2329669815
 20
95.7658738586
 30
0.0
 10
67.596980264
 20
82.0192469617
 30
0.0
 10
66.5329023486
 20
68.2045704771
 30
0.0
 10
66.0587105763
 20
57.8333237896
 30
0.0
  0
SPLINE
  5
5E7
100
AcDbEntity
  8
RACCORDO
100
AcDbSpline
 62
250
  6
CONTINUOUS
 70
0
 71
3
 72
18
 73
14
 74
0
 42
0.0000001
 43
0.0000001
 44
0.0000000001
 40
0.0
 40
0.0
 40
0.0
 40
0.0
 40
0.194834782
 40
0.3825382303
 40
0.5552978045
 40
0.7067084132
 40
0.8310461732
 40
0.8814686078
 40
0.9234342114
 40
0.9565195247
 40
0.9803838908
 40
0.9948767059
 40
1.0
 40
1.0
 40
1.0
 40
1.0
 10
70.2040623825
 20
99.6331862119
 30
0.0
 10
70.2060453141
 20
99.6656025006
 30
0.0
 10
70.210046478
 20
99.7292424608
 30
0.0
 10
70.2161764278
 20
99.821599873
 30
0.0
 10
70.2221581489
 20
99.9067198926
 30
0.0
 10
70.2277677978
 20
99.9812533459
 30
0.0
 10
70.2321683041
 20
100.0354877943
 30
0.0
 10
70.2354267283
 20
100.0713986808
 30
0.0
 10
70.2374014956
 20
100.0923677438
 30
0.0
 10
70.2393142325
 20
100.1083602497
 30
0.0
 10
70.2404983137
 20
100.1210938935
 30
0.0
 10
70.2422217034
 20
100.1266090913
 30
0.0
 10
70.2424272427
 20
100.1315452078
 30
0.0
 10
70.2432796483
 20
100.1314930724
 30
0.0
  0
SPLINE
  5
5E8
100
AcDbEntity
  8
RACCORDO
100
AcDbSpline
 62
250
  6
CONTINUOUS
 70
0
 71
3
 72
18
 73
14
 74
0
 42
0.0000001
 43
0.0000001
 44
0.0000000001
 40
0.0
 40
0.0
 40
0.0
 40
0.0
 40
0.1948348021
 40
0.3825382941
 40
0.5552978752
 40
0.706708468
 40
0.8310462112
 40
0.8814686344
 40
0.9234342245
 40
0.9565195306
 40
0.9803838913
 40
0.994876702
 40
1.0
 40
1.0
 40
1.0
 40
1.0
 10
66.5015871691
 20
57.3137008721
 30
0.0
 10
66.4979109385
 20
57.2814327242
 30
0.0
 10
66.4908003394
 20
57.2180647934
 30
0.0
 10
66.4807994501
 20
57.1260460319
 30
0.0
 10
66.4719093501
 20
57.0411804559
 30
0.0
 10
66.4644911747
 20
56.9668052316
 30
0.0
 10
66.4594071176
 20
56.9126305931
 30
0.0
 10
66.4563801842
 20
56.87669946
 30
0.0
 10
66.4546837175
 20
56.8557060547
 30
0.0
 10
66.453790329
 20
56.83962437
 30
0.0
 10
66.4527452622
 20
56.8268785707
 30
0.0
 10
66.4534847591
 20
56.8211478932
 30
0.0
 10
66.45283005
 20
56.816251081
 30
0.0
 10
66.4536785596
 20
56.8161544055
 30
0.0
  0
SPLINE
  5
5E9
100
AcDbEntity
  8
RACCORDO
100
AcDbSpline
 62
250
  6
CONTINUOUS
 70
0
 71
3
 72
11
 73
7
 74
0
 42
0.0000001
 43
0.0000001
 44
0.0000000001
 40
0.0
 40
0.0
 40
0.0
 40
0.0
 40
0.1956409407
 40
0.4257123444
 40
0.6986021517
 40
1.0
 40
1.0
 40
1.0
 40
1.0
 10
76.7525039172
 20
95.4882658286
 30
0.0
 10
76.7548998818
 20
95.507773397
 30
0.0
 10
76.7747631871
 20
95.5487221562
 30
0.0
 10
76.8336619017
 20
95.5902440501
 30
0.0
 10
76.9121675221
 20
95.6132111097
 30
0.0
 10
76.9704476619
 20
95.6153537735
 30
0.0
 10
77.000640455
 20
95.6130767698
 30
0.0
  0
SPLINE
  5
5EA
100
AcDbEntity
  8
RACCORDO
100
AcDbSpline
 62
250
  6
CONTINUOUS
 70
0
 71
3
 72
16
 73
12
 74
0
 42
0.0000001
 43
0.0000001
 44
0.0000000001
 40
0.0
 40
0.0
 40
0.0
 40
0.0
 40
0.0048794956
 40
0.0193355127
 40
0.0431144617
 40
0.0759607415
 40
0.1678140911
 40
0.2917646547
 40
0.4430313518
 40
0.6165114145
 40
1.0
 40
1.0
 40
1.0
 40
1.0
 10
76.619317953
 20
94.4035531974
 30
0.0
 10
76.6192692559
 20
94.4031565913
 30
0.0
 10
76.6219000681
 20
94.4036873886
 30
0.0
 10
76.6243832545
 20
94.4024891537
 30
0.0
 10
76.6307211804
 20
94.4021377029
 30
0.0
 10
76.6424448211
 20
94.4003459739
 30
0.0
 10
76.6628888451
 20
94.3979630924
 30
0.0
 10
76.6926031817
 20
94.3941444597
 30
0.0
 10
76.7291060016
 20
94.3896324215
 30
0.0
 10
76.7866463307
 20
94.3824869898
 30
0.0
 10
76.8319215228
 20
94.3769142139
 30
0.0
 10
76.86309139
 20
94.3730858787
 30
0.0
  0
SPLINE
  5
5EB
100
AcDbEntity
  8
RACCORDO
100
AcDbSpline
 62
250
  6
CONTINUOUS
 70
0
 71
3
 72
16
 73
12
 74
0
 42
0.0000001
 43
0.0000001
 44
0.0000000001
 40
0.0
 40
0.0
 40
0.0
 40
0.0
 40
0.0048796017
 40
0.0193358835
 40
0.04311517
 40
0.0759617745
 40
0.1678154788
 40
0.2917664612
 40
0.4430331535
 40
0.6165123708
 40
1.0
 40
1.0
 40
1.0
 40
1.0
 10
74.6548586657
 20
78.4043162183
 30
0.0
 10
74.6548099676
 20
78.4039196036
 30
0.0
 10
74.6574408338
 20
78.4044504291
 30
0.0
 10
74.6599240596
 20
78.4032521675
 30
0.0
 10
74.6662620691
 20
78.4029007226
 30
0.0
 10
74.677985791
 20
78.4011089828
 30
0.0
 10
74.6984299048
 20
78.3987260934
 30
0.0
 10
74.7281443037
 20
78.3949074496
 30
0.0
 10
74.7646470877
 20
78.3903954102
 30
0.0
 10
74.8221872691
 20
78.3832499853
 30
0.0
 10
74.8674623136
 20
78.3776772173
 30
0.0
 10
74.898632102
 20
78.3738488824
 30
0.0
  0
SPLINE
  5
5EC
100
AcDbEntity
  8
RACCORDO
100
AcDbSpline
 62
250
  6
CONTINUOUS
 70
0
 71
3
 72
16
 73
12
 74
0
 42
0.0000001
 43
0.0000001
 44
0.0000000001
 40
0.0
 40
0.0
 40
0.0
 40
0.0
 40
0.0048796019
 40
0.0193358842
 40
0.0431151714
 40
0.0759617766
 40
0.1678154821
 40
0.2917664663
 40
0.4430331589
 40
0.6165123738
 40
1.0
 40
1.0
 40
1.0
 40
1.0
 10
74.6548586657
 20
78.0387081881
 30
0.0
 10
74.6548099676
 20
78.0391048028
 30
0.0
 10
74.6574408339
 20
78.0385739772
 30
0.0
 10
74.6599240597
 20
78.0397722388
 30
0.0
 10
74.6662620694
 20
78.0401236837
 30
0.0
 10
74.6779857916
 20
78.0419154236
 30
0.0
 10
74.6984299056
 20
78.044298313
 30
0.0
 10
74.7281443048
 20
78.0481169568
 30
0.0
 10
74.7646470888
 20
78.0526289962
 30
0.0
 10
74.8221872698
 20
78.0597744211
 30
0.0
 10
74.8674623138
 20
78.0653471891
 30
0.0
 10
74.898632102
 20
78.0691755239
 30
0.0
  0
SPLINE
  5
5ED
100
AcDbEntity
  8
RACCORDO
100
AcDbSpline
 62
250
  6
CONTINUOUS
 70
0
 71
3
 72
16
 73
12
 74
0
 42
0.0000001
 43
0.0000001
 44
0.0000000001
 40
0.0
 40
0.0
 40
0.0
 40
0.0
 40
0.0048796016
 40
0.0193358835
 40
0.04311517
 40
0.0759617744
 40
0.1678154787
 40
0.2917664612
 40
0.4430331535
 40
0.6165123708
 40
1.0
 40
1.0
 40
1.0
 40
1.0
 10
76.619317953
 20
62.039471209
 30
0.0
 10
76.6192692548
 20
62.0398678237
 30
0.0
 10
76.621900121
 20
62.039336998
 30
0.0
 10
76.6243833468
 20
62.0405352597
 30
0.0
 10
76.6307213563
 20
62.0408867045
 30
0.0
 10
76.6424450783
 20
62.0426784442
 30
0.0
 10
76.6628891921
 20
62.0450613332
 30
0.0
 10
76.6926035911
 20
62.0488799765
 30
0.0
 10
76.7291063752
 20
62.0533920156
 30
0.0
 10
76.7866465565
 20
62.0605374407
 30
0.0
 10
76.8319216009
 20
62.0661102094
 30
0.0
 10
76.8630913893
 20
62.0699385448
 30
0.0
  0
SPLINE
  5
5EE
100
AcDbEntity
  8
RACCORDO
100
AcDbSpline
 62
250
  6
CONTINUOUS
 70
0
 71
3
 72
11
 73
7
 74
0
 42
0.0000001
 43
0.0000001
 44
0.0000000001
 40
0.0
 40
0.0
 40
0.0
 40
0.0
 40
0.195643803
 40
0.4257245515
 40
0.6986138563
 40
1.0
 40
1.0
 40
1.0
 40
1.0
 10
76.7525039257
 20
60.9547585787
 30
0.0
 10
76.7549072029
 20
60.9352538612
 30
0.0
 10
76.7747827364
 20
60.8943166735
 30
0.0
 10
76.8336820776
 20
60.8528103282
 30
0.0
 10
76.9121801583
 20
60.8298528524
 30
0.0
 10
76.97045228
 20
60.8277126174
 30
0.0
 10
77.0006404488
 20
60.8299897412
 30
0.0
  0
LINE
  5
5EF
100
AcDbEntity
  8
RACCORDO
100
AcDbLine
 62
250
  6
CONTINUOUS
 10
78.332413155
 20
94.3406800425
 11
76.8630913893
 21
94.3730858615
  0
LINE
  5
5F0
100
AcDbEntity
  8
RACCORDO
100
AcDbLine
 62
250
  6
CONTINUOUS
 10
76.8630913893
 20
62.0699385448
 11
78.332413155
 21
62.1023443639
  0
SPLINE
  5
5F1
100
AcDbEntity
  8
RACCORDO
100
AcDbSpline
 62
250
  6
CONTINUOUS
 70
0
 71
3
 72
9
 73
5
 74
0
 42
0.0000001
 43
0.0000001
 44
0.0000000001
 40
0.0
 40
0.0
 40
0.0
 40
0.0
 40
0.4643512999
 40
1.0
 40
1.0
 40
1.0
 40
1.0
 10
77.344693849
 20
56.1317586223
 30
0.0
 10
77.3500280582
 20
56.0883261617
 30
0.0
 10
77.4061226089
 20
55.9993114793
 30
0.0
 10
77.5019169341
 20
55.9688042086
 30
0.0
 10
77.5521999092
 20
55.9643757287
 30
0.0
  0
SPLINE
  5
5F2
100
AcDbEntity
  8
RACCORDO
100
AcDbSpline
 62
250
  6
CONTINUOUS
 70
0
 71
3
 72
11
 73
7
 74
0
 42
0.0000001
 43
0.0000001
 44
0.0000000001
 40
0.0
 40
0.0
 40
0.0
 40
0.0
 40
0.4267197467
 40
0.7401199813
 40
0.9320525724
 40
1.0
 40
1.0
 40
1.0
 40
1.0
 10
77.5928304202
 20
100.4795285445
 30
0.0
 10
77.5926991194
 20
100.4942477581
 30
0.0
 10
77.5920759739
 20
100.518962832
 30
0.0
 10
77.5916157107
 20
100.5536269932
 30
0.0
 10
77.5887102593
 20
100.5688692186
 30
0.0
 10
77.5884650664
 20
100.5825241166
 30
0.0
 10
77.5861244463
 20
100.5824008692
 30
0.0
  0
SPLINE
  5
5F3
100
AcDbEntity
  8
RACCORDO
100
AcDbSpline
 62
250
  6
CONTINUOUS
 70
0
 71
3
 72
9
 73
5
 74
0
 42
0.0000001
 43
0.0000001
 44
0.0000000001
 40
0.0
 40
0.0
 40
0.0
 40
0.0
 40
0.3020605514
 40
1.0
 40
1.0
 40
1.0
 40
1.0
 10
77.5861244463
 20
55.8606235371
 30
0.0
 10
77.5866792885
 20
55.8605942131
 30
0.0
 10
77.5878155793
 20
55.8627017387
 30
0.0
 10
77.5880970162
 20
55.8642602257
 30
0.0
 10
77.5883557993
 20
55.8655176776
 30
0.0
  0
SPLINE
  5
5F4
100
AcDbEntity
  8
RACCORDO
100
AcDbSpline
 62
250
  6
CONTINUOUS
 70
0
 71
3
 72
9
 73
5
 74
0
 42
0.0000001
 43
0.0000001
 44
0.0000000001
 40
0.0
 40
0.0
 40
0.0
 40
0.0
 40
0.3469798912
 40
1.0
 40
1.0
 40
1.0
 40
1.0
 10
77.5883557993
 20
55.8655176776
 30
0.0
 10
77.5906435512
 20
55.8766340854
 30
0.0
 10
77.5916629365
 20
55.9095442555
 30
0.0
 10
77.592643376
 20
55.9421371613
 30
0.0
 10
77.5928304271
 20
55.9634959969
 30
0.0
  0
LINE
  5
5F5
100
AcDbEntity
  8
RACCORDO
100
AcDbLine
 62
250
  6
CONTINUOUS
 10
76.8630913893
 20
94.3730858615
 11
76.932401433
 21
95.0002347072
  0
LINE
  5
5F6
100
AcDbEntity
  8
RACCORDO
100
AcDbLine
 62
250
  6
CONTINUOUS
 10
76.932401433
 20
95.0002347072
 11
76.9887643872
 21
95.5068386125
  0
LINE
  5
5F7
100
AcDbEntity
  8
RACCORDO
100
AcDbLine
 62
250
  6
CONTINUOUS
 10
76.9887643872
 20
95.5068386125
 11
77.0006483538
 21
95.6131461325
  0
LINE
  5
5F8
100
AcDbEntity
  8
RACCORDO
100
AcDbLine
 62
250
  6
CONTINUOUS
 10
77.000641854
 20
60.8299325369
 11
76.9702685641
 21
61.1020451916
  0
LINE
  5
5F9
100
AcDbEntity
  8
RACCORDO
100
AcDbLine
 62
250
  6
CONTINUOUS
 10
76.9702685641
 20
61.1020451916
 11
76.9390529535
 21
61.3828235098
  0
LINE
  5
5FA
100
AcDbEntity
  8
RACCORDO
100
AcDbLine
 62
250
  6
CONTINUOUS
 10
76.9390529535
 20
61.3828235098
 11
76.8630913893
 21
62.0699385448
  0
SPLINE
  5
5FB
100
AcDbEntity
  8
RACCORDO
100
AcDbSpline
 62
250
  6
CONTINUOUS
 70
0
 71
3
 72
9
 73
5
 74
0
 42
0.0000001
 43
0.0000001
 44
0.0000000001
 40
0.0
 40
0.0
 40
0.0
 40
0.0
 40
0.4643509547
 40
1.0
 40
1.0
 40
1.0
 40
1.0
 10
77.3446938489
 20
100.3112657841
 30
0.0
 10
77.3500268022
 20
100.3546988709
 30
0.0
 10
77.4061202204
 20
100.4437162327
 30
0.0
 10
77.5019157587
 20
100.474224474
 30
0.0
 10
77.5521993256
 20
100.4786531925
 30
0.0
  0
LINE
  5
5FC
100
AcDbEntity
  8
RACCORDO
100
AcDbLine
 62
250
  6
CONTINUOUS
 10
77.8394514583
 20
100.4926897975
 11
78.0859790974
 21
100.5058457371
  0
LINE
  5
5FD
100
AcDbEntity
  8
0
100
AcDbLine
 62
7
  6
CONTINUOUS
 10
99.0411393582
 20
59.004142289
 11
97.6047512591
 21
58.9736741096
  0
SPLINE
  5
5FE
100
AcDbEntity
  8
0
100
AcDbSpline
 62
7
  6
CONTINUOUS
 70
0
 71
3
 72
11
 73
7
 74
0
 42
0.0000001
 43
0.0000001
 44
0.0000000001
 40
0.0
 40
0.0
 40
0.0
 40
0.0
 40
0.2873357966
 40
0.554925506
 40
0.7904985702
 40
1.0
 40
1.0
 40
1.0
 40
1.0
 10
99.0411393582
 20
59.004142289
 30
0.0
 10
99.1047409988
 20
59.0054915718
 30
0.0
 10
99.2278860948
 20
59.0248264188
 30
0.0
 10
99.388877013
 20
59.1002864749
 30
0.0
 10
99.5023800049
 20
59.2161215656
 30
0.0
 10
99.532413155
 20
59.3156402608
 30
0.0
 10
99.532413155
 20
59.3620237358
 30
0.0
  0
SPLINE
  5
5FF
100
AcDbEntity
  8
0
100
AcDbSpline
 62
7
  6
CONTINUOUS
 70
0
 71
3
 72
10
 73
6
 74
0
 42
0.0000001
 43
0.0000001
 44
0.0000000001
 40
0.0
 40
0.0
 40
0.0
 40
0.0
 40
0.2417796443
 40
0.4919289368
 40
1.0
 40
1.0
 40
1.0
 40
1.0
 10
92.0606480163
 20
58.8215122032
 30
0.0
 10
92.1743330618
 20
58.8215122032
 30
0.0
 10
92.4054619309
 20
58.8355795696
 30
0.0
 10
92.8740540199
 20
58.8725276779
 30
0.0
 10
93.2302858803
 20
58.8928604769
 30
0.0
 10
93.4691509994
 20
58.8966736543
 30
0.0
  0
SPLINE
  5
600
100
AcDbEntity
  8
RACCORDO
100
AcDbSpline
 62
250
  6
CONTINUOUS
 70
0
 71
3
 72
9
 73
5
 74
0
 42
0.0000001
 43
0.0000001
 44
0.0000000001
 40
0.0
 40
0.0
 40
0.0
 40
0.0
 40
0.4265286924
 40
1.0
 40
1.0
 40
1.0
 40
1.0
 10
88.0859665456
 20
58.6750655938
 30
0.0
 10
88.0496449265
 20
58.6387439747
 30
0.0
 10
87.919227524
 20
58.6035802032
 30
0.0
 10
87.802813923
 20
58.6466075514
 30
0.0
 10
87.7410660645
 20
58.6775407116
 30
0.0
  0
SPLINE
  5
601
100
AcDbEntity
  8
RACCORDO
100
AcDbSpline
 62
250
  6
CONTINUOUS
 70
0
 71
3
 72
13
 73
9
 74
0
 42
0.0000001
 43
0.0000001
 44
0.0000000001
 40
0.0
 40
0.0
 40
0.0
 40
0.0
 40
0.0162897418
 40
0.0650234809
 40
0.1458281601
 40
0.2580734389
 40
0.5730474161
 40
1.0
 40
1.0
 40
1.0
 40
1.0
 10
82.479795294
 20
57.024084768
 30
0.0
 10
82.479129334
 20
57.024070968
 30
0.0
 10
82.4805672517
 20
57.028379121
 30
0.0
 10
82.4790952284
 20
57.0327545911
 30
0.0
 10
82.4798720456
 20
57.0435344439
 30
0.0
 10
82.4793785708
 20
57.0637730793
 30
0.0
 10
82.4797893304
 20
57.0990988327
 30
0.0
 10
82.47974328
 20
57.1292972036
 30
0.0
 10
82.479795294
 20
57.1467556225
 30
0.0
  0
SPLINE
  5
602
100
AcDbEntity
  8
RACCORDO
100
AcDbSpline
 62
250
  6
CONTINUOUS
 70
0
 71
3
 72
9
 73
5
 74
0
 42
0.0000001
 43
0.0000001
 44
0.0000000001
 40
0.0
 40
0.0
 40
0.0
 40
0.0
 40
0.2237825014
 40
1.0
 40
1.0
 40
1.0
 40
1.0
 10
99.0411393582
 20
60.9805054066
 30
0.0
 10
99.0413198622
 20
61.0735552687
 30
0.0
 10
99.0418676969
 20
61.489360663
 30
0.0
 10
99.0416293267
 20
61.9051668494
 30
0.0
 10
99.0411393582
 20
62.2279221293
 30
0.0
  0
SPLINE
  5
603
100
AcDbEntity
  8
RACCORDO
100
AcDbSpline
 62
250
  6
CONTINUOUS
 70
0
 71
3
 72
8
 73
4
 74
0
 42
0.0000001
 43
0.0000001
 44
0.0000000001
 40
0.0
 40
0.0
 40
0.0
 40
0.0
 40
1.0
 40
1.0
 40
1.0
 40
1.0
 10
99.0411393582
 20
60.9805054068
 30
0.0
 10
92.1382314407
 20
60.9408885485
 30
0.0
 10
85.2353226973
 20
60.901415365
 30
0.0
 10
78.332413155
 20
60.862082634
 30
0.0
  0
SPLINE
  5
604
100
AcDbEntity
  8
RACCORDO
100
AcDbSpline
 62
250
  6
CONTINUOUS
 70
0
 71
3
 72
8
 73
4
 74
0
 42
0.0000001
 43
0.0000001
 44
0.0000000001
 40
0.0
 40
0.0
 40
0.0
 40
0.0
 40
1.0
 40
1.0
 40
1.0
 40
1.0
 10
99.0411393582
 20
62.2279221293
 30
0.0
 10
92.138231634
 20
62.1857334818
 30
0.0
 10
85.2353228878
 20
62.1437117467
 30
0.0
 10
78.332413155
 20
62.1018530372
 30
0.0
  0
LINE
  5
605
100
AcDbEntity
  8
RACCORDO
100
AcDbLine
 62
250
  6
CONTINUOUS
 10
86.3033846824
 20
99.2292285057
 11
86.6417473175
 21
98.8847367746
  0
SPLINE
  5
606
100
AcDbEntity
  8
RACCORDO
100
AcDbSpline
 62
250
  6
CONTINUOUS
 70
0
 71
3
 72
9
 73
5
 74
0
 42
0.0000001
 43
0.0000001
 44
0.0000000001
 40
0.0
 40
0.0
 40
0.0
 40
0.0
 40
0.48096859
 40
1.0
 40
1.0
 40
1.0
 40
1.0
 10
89.6434696442
 20
95.828518197
 30
0.0
 10
89.7243001741
 20
95.746221276
 30
0.0
 10
89.9234961523
 20
95.6020157248
 30
0.0
 10
90.1605443855
 20
95.5412954126
 30
0.0
 10
90.2839433494
 20
95.5249106142
 30
0.0
  0
SPLINE
  5
607
100
AcDbEntity
  8
RACCORDO
100
AcDbSpline
 62
250
  6
CONTINUOUS
 70
0
 71
3
 72
8
 73
4
 74
0
 42
0.0000001
 43
0.0000001
 44
0.0000000001
 40
0.0
 40
0.0
 40
0.0
 40
0.0
 40
1.0
 40
1.0
 40
1.0
 40
1.0
 10
90.2839433494
 20
95.5249106142
 30
0.0
 10
90.3006901309
 20
95.5226869923
 30
0.0
 10
90.3175757244
 20
95.5212129449
 30
0.0
 10
90.3344668508
 20
95.520914555
 30
0.0
  0
SPLINE
  5
608
100
AcDbEntity
  8
RACCORDO
100
AcDbSpline
 62
250
  6
CONTINUOUS
 70
0
 71
3
 72
16
 73
12
 74
0
 42
0.0000001
 43
0.0000001
 44
0.0000000001
 40
0.0
 40
0.0
 40
0.0
 40
0.0
 40
0.3819876227
 40
0.5553875357
 40
0.7068284441
 40
0.8310878679
 40
0.9232745919
 40
0.9562774838
 40
0.980205542
 40
0.9948181213
 40
1.0
 40
1.0
 40
1.0
 40
1.0
 10
104.5411393582
 20
85.4341607145
 30
0.0
 10
104.5422504309
 20
85.497833419
 30
0.0
 10
104.5435705537
 20
85.5904265781
 30
0.0
 10
104.5445535485
 20
85.7082336523
 30
0.0
 10
104.5448491219
 20
85.7831677081
 30
0.0
 10
104.5445895771
 20
85.8443244962
 30
0.0
 10
104.5442364083
 20
85.8862897895
 30
0.0
 10
104.5432666331
 20
85.9106135368
 30
0.0
 10
104.543093593
 20
85.9234175521
 30
0.0
 10
104.5417853237
 20
85.9290747429
 30
0.0
 10
104.5420031145
 20
85.9340694852
 30
0.0
 10
104.5411393582
 20
85.9340845621
 30
0.0
  0
SPLINE
  5
609
100
AcDbEntity
  8
RACCORDO
100
AcDbSpline
 62
250
  6
CONTINUOUS
 70
0
 71
3
 72
16
 73
12
 74
0
 42
0.0000001
 43
0.0000001
 44
0.0000000001
 40
0.0
 40
0.0
 40
0.0
 40
0.0
 40
0.0051683981
 40
0.01974703
 40
0.0436338123
 40
0.0766008835
 40
0.168771221
 40
0.2930264606
 40
0.4444890401
 40
0.6179545525
 40
1.0
 40
1.0
 40
1.0
 40
1.0
 10
104.5411393582
 20
70.5089398443
 30
0.0
 10
104.5420008683
 20
70.508954882
 30
0.0
 10
104.541788396
 20
70.5139359771
 30
0.0
 10
104.5430922189
 20
70.5195829703
 30
0.0
 10
104.5432674634
 20
70.5323665227
 30
0.0
 10
104.5442361829
 20
70.5566752447
 30
0.0
 10
104.5445885289
 20
70.5986310821
 30
0.0
 10
104.544848806
 20
70.6597881013
 30
0.0
 10
104.544553916
 20
70.7347361009
 30
0.0
 10
104.5435706825
 20
70.8525674608
 30
0.0
 10
104.5422506001
 20
70.9451812893
 30
0.0
 10
104.5411393582
 20
71.0088636918
 30
0.0
  0
SPLINE
  5
60A
100
AcDbEntity
  8
RACCORDO
100
AcDbSpline
 62
7
  6
CONTINUOUS
 70
0
 71
3
 72
9
 73
5
 74
0
 42
0.0000001
 43
0.0000001
 44
0.0000000001
 40
0.0
 40
0.0
 40
0.0
 40
0.0
 40
0.1055372934
 40
1.0
 40
1.0
 40
1.0
 40
1.0
 10
99.5346565781
 20
70.4215513623
 30
0.0
 10
99.5174904608
 20
70.4390296093
 30
0.0
 10
99.3545556818
 20
70.6043643119
 30
0.0
 10
99.1892199831
 20
70.7673198566
 30
0.0
 10
99.0411393582
 20
70.9128608347
 30
0.0
  0
SPLINE
  5
60B
100
AcDbEntity
  8
RACCORDO
100
AcDbSpline
 62
7
  6
CONTINUOUS
 70
0
 71
3
 72
9
 73
5
 74
0
 42
0.0000001
 43
0.0000001
 44
0.0000000001
 40
0.0
 40
0.0
 40
0.0
 40
0.0
 40
0.3345982609
 40
1.0
 40
1.0
 40
1.0
 40
1.0
 10
99.0411393582
 20
85.5301635716
 30
0.0
 10
99.0965332108
 20
85.5846073957
 30
0.0
 10
99.261912495
 20
85.7474994546
 30
0.0
 10
99.4262433969
 20
85.9114492961
 30
0.0
 10
99.5346601585
 20
86.0214729816
 30
0.0
  0
SPLINE
  5
60C
100
AcDbEntity
  8
RACCORDO
100
AcDbSpline
 62
250
  6
CONTINUOUS
 70
0
 71
3
 72
9
 73
5
 74
0
 42
0.0000001
 43
0.0000001
 44
0.0000000001
 40
0.0
 40
0.0
 40
0.0
 40
0.0
 40
0.253517617
 40
1.0
 40
1.0
 40
1.0
 40
1.0
 10
88.4482451488
 20
58.9757087349
 30
0.0
 10
88.420691134
 20
58.9757119947
 30
0.0
 10
88.3120453409
 20
58.9711696458
 30
0.0
 10
88.2042103743
 20
58.9484087429
 30
0.0
 10
88.1275031328
 20
58.9219791073
 30
0.0
  0
SPLINE
  5
60D
100
AcDbEntity
  8
RACCORDO
100
AcDbSpline
 62
250
  6
CONTINUOUS
 70
0
 71
3
 72
9
 73
5
 74
0
 42
0.0000001
 43
0.0000001
 44
0.0000000001
 40
0.0
 40
0.0
 40
0.0
 40
0.0
 40
0.2635045053
 40
1.0
 40
1.0
 40
1.0
 40
1.0
 10
88.1275031328
 20
58.9219791073
 30
0.0
 10
88.0934315123
 20
58.9102396614
 30
0.0
 10
87.9666283643
 20
58.858663828
 30
0.0
 10
87.8508337304
 20
58.780578845
 30
0.0
 10
87.7769158948
 20
58.7121568985
 30
0.0
  0
SPLINE
  5
60E
100
AcDbEntity
  8
RACCORDO
100
AcDbSpline
 62
250
  6
CONTINUOUS
 70
0
 71
3
 72
11
 73
7
 74
0
 42
0.0000001
 43
0.0000001
 44
0.0000000001
 40
0.0
 40
0.0
 40
0.0
 40
0.0
 40
0.1835599004
 40
0.4125490597
 40
0.6911360334
 40
1.0
 40
1.0
 40
1.0
 40
1.0
 10
99.5324131009
 20
95.0663186009
 30
0.0
 10
99.5323949946
 20
95.1038924208
 30
0.0
 10
99.497921298
 20
95.1879797303
 30
0.0
 10
99.3839996374
 20
95.2777213062
 30
0.0
 10
99.2251759613
 20
95.334950805
 30
0.0
 10
99.1045513609
 20
95.3504415375
 30
0.0
 10
99.041332226
 20
95.3497460013
 30
0.0
  0
LINE
  5
60F
100
AcDbEntity
  8
RACCORDO
100
AcDbLine
 62
250
  6
CONTINUOUS
 10
87.7433068853
 20
58.6795253191
 11
87.4931815865
 21
58.4249514201
  0
LINE
  5
610
100
AcDbEntity
  8
RACCORDO
100
AcDbLine
 62
250
  6
CONTINUOUS
 10
87.4931815865
 20
58.4249514201
 11
87.004963174
 21
57.9281768259
  0
LINE
  5
611
100
AcDbEntity
  8
RACCORDO
100
AcDbLine
 62
250
  6
CONTINUOUS
 10
87.004963174
 20
57.9281768259
 11
86.4841146015
 21
57.3978543538
  0
LINE
  5
612
100
AcDbEntity
  8
RACCORDO
100
AcDbLine
 62
250
  6
CONTINUOUS
 10
86.4841146015
 20
57.3978543538
 11
86.3033426282
 21
57.2137951603
  0
SPLINE
  5
613
100
AcDbEntity
  8
RACCORDO
100
AcDbSpline
 62
250
  6
CONTINUOUS
 70
0
 71
3
 72
11
 73
7
 74
0
 42
0.0000001
 43
0.0000001
 44
0.0000000001
 40
0.0
 40
0.0
 40
0.0
 40
0.0
 40
0.3001235811
 40
0.5738515838
 40
0.8046873674
 40
1.0
 40
1.0
 40
1.0
 40
1.0
 10
99.0411393582
 20
60.980505407
 30
0.0
 10
99.1045021636
 20
60.9811954119
 30
0.0
 10
99.2260602313
 20
60.996911286
 30
0.0
 10
99.3857097839
 20
61.0610017395
 30
0.0
 10
99.5003587333
 20
61.1605774266
 30
0.0
 10
99.532413155
 20
61.2511222743
 30
0.0
 10
99.532413155
 20
61.2923595875
 30
0.0
  0
SPLINE
  5
614
100
AcDbEntity
  8
RACCORDO
100
AcDbSpline
 62
7
  6
CONTINUOUS
 70
0
 71
3
 72
8
 73
4
 74
0
 42
0.0000001
 43
0.0000001
 44
0.0000000001
 40
0.0
 40
0.0
 40
0.0
 40
0.0
 40
1.0
 40
1.0
 40
1.0
 40
1.0
 10
82.332413155
 20
56.8679809086
 30
0.0
 10
82.3317980475
 20
56.8844571594
 30
0.0
 10
82.333862747
 20
56.9011271734
 30
0.0
 10
82.3377107101
 20
56.9171595899
 30
0.0
  0
SPLINE
  5
615
100
AcDbEntity
  8
RACCORDO
100
AcDbSpline
 62
7
  6
CONTINUOUS
 70
0
 71
3
 72
9
 73
5
 74
0
 42
0.0000001
 43
0.0000001
 44
0.0000000001
 40
0.0
 40
0.0
 40
0.0
 40
0.0
 40
0.2374303722
 40
1.0
 40
1.0
 40
1.0
 40
1.0
 10
82.3377107101
 20
56.9171595899
 30
0.0
 10
82.341973396
 20
56.934919936
 30
0.0
 10
82.3691835169
 20
57.0075235579
 30
0.0
 10
82.4171935804
 20
57.0693250711
 30
0.0
 10
82.4539729127
 20
57.1150252377
 30
0.0
  0
SPLINE
  5
616
100
AcDbEntity
  8
RACCORDO
100
AcDbSpline
 62
7
  6
CONTINUOUS
 70
0
 71
3
 72
9
 73
5
 74
0
 42
0.0000001
 43
0.0000001
 44
0.0000000001
 40
0.0
 40
0.0
 40
0.0
 40
0.0
 40
0.5207768721
 40
1.0
 40
1.0
 40
1.0
 40
1.0
 10
82.479795294
 20
99.2962687838
 30
0.0
 10
82.4478675006
 20
99.3353061704
 30
0.0
 10
82.3867601315
 20
99.4094842619
 30
0.0
 10
82.3405455296
 20
99.499014837
 30
0.0
 10
82.3340536001
 20
99.544965675
 30
0.0
  0
SPLINE
  5
617
100
AcDbEntity
  8
RACCORDO
100
AcDbSpline
 62
7
  6
CONTINUOUS
 70
0
 71
3
 72
8
 73
4
 74
0
 42
0.0000001
 43
0.0000001
 44
0.0000000001
 40
0.0
 40
0.0
 40
0.0
 40
0.0
 40
1.0
 40
1.0
 40
1.0
 40
1.0
 10
82.3340536001
 20
99.544965675
 30
0.0
 10
82.3326489602
 20
99.5549079245
 30
0.0
 10
82.3320387365
 20
99.565009923
 30
0.0
 10
82.332413155
 20
99.5750439227
 30
0.0
  0
SPLINE
  5
618
100
AcDbEntity
  8
RACCORDO
100
AcDbSpline
 62
250
  6
CONTINUOUS
 70
0
 71
3
 72
13
 73
9
 74
0
 42
0.0000001
 43
0.0000001
 44
0.0000000001
 40
0.0
 40
0.0
 40
0.0
 40
0.0
 40
0.4265333925
 40
0.7416340747
 40
0.8538776059
 40
0.9346893464
 40
0.9834944927
 40
1.0
 40
1.0
 40
1.0
 40
1.0
 10
86.3032679529
 20
99.2292306013
 30
0.0
 10
86.3034419144
 20
99.2467164796
 30
0.0
 10
86.3036076998
 20
99.2769888619
 30
0.0
 10
86.3040686377
 20
99.312370515
 30
0.0
 10
86.3036461627
 20
99.3326991963
 30
0.0
 10
86.3041943333
 20
99.3434568485
 30
0.0
 10
86.3029110276
 20
99.3479454659
 30
0.0
 10
86.3039445321
 20
99.3521888651
 30
0.0
 10
86.3032679529
 20
99.3522006748
 30
0.0
  0
SPLINE
  5
619
100
AcDbEntity
  8
RACCORDO
100
AcDbSpline
 62
250
  6
CONTINUOUS
 70
0
 71
3
 72
9
 73
5
 74
0
 42
0.0000001
 43
0.0000001
 44
0.0000000001
 40
0.0
 40
0.0
 40
0.0
 40
0.0
 40
0.4492649664
 40
1.0
 40
1.0
 40
1.0
 40
1.0
 10
86.6480951407
 20
99.2058302175
 30
0.0
 10
86.6144375819
 20
99.2394877763
 30
0.0
 10
86.5082226161
 20
99.2831632321
 30
0.0
 10
86.4001064266
 20
99.2640018478
 30
0.0
 10
86.3447835682
 20
99.2454531216
 30
0.0
  0
SPLINE
  5
61A
100
AcDbEntity
  8
RACCORDO
100
AcDbSpline
 62
250
  6
CONTINUOUS
 70
0
 71
3
 72
10
 73
6
 74
0
 42
0.0000001
 43
0.0000001
 44
0.0000000001
 40
0.0
 40
0.0
 40
0.0
 40
0.0
 40
0.3208421745
 40
0.7106592383
 40
1.0
 40
1.0
 40
1.0
 40
1.0
 10
89.6447411531
 20
95.8273797484
 30
0.0
 10
89.6784438807
 20
95.8474268278
 30
0.0
 10
89.7565708007
 20
95.8857287279
 30
0.0
 10
89.8774115735
 20
95.9172246765
 30
0.0
 10
89.9645620232
 20
95.8893631143
 30
0.0
 10
89.9895681973
 20
95.8643569295
 30
0.0
  0
LINE
  5
61B
100
AcDbEntity
  8
RACCORDO
100
AcDbLine
 62
250
  6
CONTINUOUS
 10
99.0413322904
 20
95.3497301166
 11
99.0416456294
 21
94.9749720953
  0
SPLINE
  5
61C
100
AcDbEntity
  8
RACCORDO
100
AcDbSpline
 62
250
  6
CONTINUOUS
 70
0
 71
3
 72
9
 73
5
 74
0
 42
0.0000001
 43
0.0000001
 44
0.0000000001
 40
0.0
 40
0.0
 40
0.0
 40
0.0
 40
0.2419498836
 40
1.0
 40
1.0
 40
1.0
 40
1.0
 10
99.0416456294
 20
94.9749720953
 30
0.0
 10
99.0416619403
 20
94.9137065514
 30
0.0
 10
99.0416651892
 20
94.6604906932
 30
0.0
 10
99.041433124
 20
94.4072748462
 30
0.0
 10
99.041140128
 20
94.2153247634
 30
0.0
  0
SPLINE
  5
61D
100
AcDbEntity
  8
RACCORDO
100
AcDbSpline
 62
250
  6
CONTINUOUS
 70
0
 71
3
 72
14
 73
10
 74
0
 42
0.0000001
 43
0.0000001
 44
0.0000000001
 40
0.0
 40
0.0
 40
0.0
 40
0.0
 40
0.0169435125
 40
0.0668741045
 40
0.1492736975
 40
0.2632145734
 40
0.4072540479
 40
0.5798240388
 40
1.0
 40
1.0
 40
1.0
 40
1.0
 10
90.3343955004
 20
95.7179865882
 30
0.0
 10
90.335460569
 20
95.7179679974
 30
0.0
 10
90.3338622624
 20
95.711307026
 30
0.0
 10
90.3358660232
 20
95.7042734046
 30
0.0
 10
90.3350198426
 20
95.6874692218
 30
0.0
 10
90.3354967295
 20
95.6666440143
 30
0.0
 10
90.3352613995
 20
95.6393577898
 30
0.0
 10
90.3350666173
 20
95.5931385188
 30
0.0
 10
90.3346795661
 20
95.5558296326
 30
0.0
 10
90.3343954985
 20
95.5294148886
 30
0.0
  0
SPLINE
  5
61E
100
AcDbEntity
  8
RACCORDO
100
AcDbSpline
 62
250
  6
CONTINUOUS
 70
0
 71
3
 72
14
 73
10
 74
0
 42
0.0000001
 43
0.0000001
 44
0.0000000001
 40
0.0
 40
0.0
 40
0.0
 40
0.0
 40
0.4201585865
 40
0.5927292027
 40
0.7367721206
 40
0.850717646
 40
0.9331215969
 40
0.9830552816
 40
1.0
 40
1.0
 40
1.0
 40
1.0
 10
91.7688875827
 20
95.5042025623
 30
0.0
 10
91.76917196
 20
95.5306404715
 30
0.0
 10
91.7695594179
 20
95.5679825642
 30
0.0
 10
91.7697544236
 20
95.6142434493
 30
0.0
 10
91.7699899772
 20
95.6415552824
 30
0.0
 10
91.7695126427
 20
95.6624003844
 30
0.0
 10
91.7703595932
 20
95.6792208173
 30
0.0
 10
91.7683538971
 20
95.6862613156
 30
0.0
 10
91.7699537054
 20
95.6929288265
 30
0.0
 10
91.7688875827
 20
95.6929474358
 30
0.0
  0
SPLINE
  5
61F
100
AcDbEntity
  8
RACCORDO
100
AcDbSpline
 62
250
  6
CONTINUOUS
 70
0
 71
3
 72
14
 73
10
 74
0
 42
0.0000001
 43
0.0000001
 44
0.0000000001
 40
0.0
 40
0.0
 40
0.0
 40
0.0
 40
0.0171059222
 40
0.0674385153
 40
0.1504464062
 40
0.2650092354
 40
0.4096277347
 40
0.5825049168
 40
1.0
 40
1.0
 40
1.0
 40
1.0
 10
99.0411393582
 20
95.5660098089
 30
0.0
 10
99.0423725794
 20
95.5659882829
 30
0.0
 10
99.0406037375
 20
95.5582950584
 30
0.0
 10
99.042895401
 20
95.5501554909
 30
0.0
 10
99.0419772987
 20
95.5307612889
 30
0.0
 10
99.0425411281
 20
95.5067471911
 30
0.0
 10
99.0422976002
 20
95.475344581
 30
0.0
 10
99.042094166
 20
95.4224647011
 30
0.0
 10
99.0416576612
 20
95.3798473967
 30
0.0
 10
99.041332226
 20
95.3497460013
 30
0.0
  0
SPLINE
  5
620
100
AcDbEntity
  8
RACCORDO
100
AcDbSpline
 62
250
  6
CONTINUOUS
 70
0
 71
3
 72
13
 73
9
 74
0
 42
0.0000001
 43
0.0000001
 44
0.0000000001
 40
0.0
 40
0.0
 40
0.0
 40
0.0
 40
0.4267411109
 40
0.7417391733
 40
0.854035079
 40
0.934906079
 40
0.9836753452
 40
1.0
 40
1.0
 40
1.0
 40
1.0
 10
82.479795294
 20
99.2962687839
 30
0.0
 10
82.4797432227
 20
99.3137185548
 30
0.0
 10
82.4797893673
 20
99.34391328
 30
0.0
 10
82.4793785493
 20
99.3792221594
 30
0.0
 10
82.4798721413
 20
99.3994814702
 30
0.0
 10
82.4790945771
 20
99.4102431046
 30
0.0
 10
82.4805682403
 20
99.4146673103
 30
0.0
 10
82.4791277827
 20
99.4189345705
 30
0.0
 10
82.479795294
 20
99.4189396384
 30
0.0
  0
SPLINE
  5
621
100
AcDbEntity
  8
RACCORDO
100
AcDbSpline
 62
250
  6
CONTINUOUS
 70
0
 71
3
 72
8
 73
4
 74
0
 42
0.0000001
 43
0.0000001
 44
0.0000000001
 40
0.0
 40
0.0
 40
0.0
 40
0.0
 40
1.0
 40
1.0
 40
1.0
 40
1.0
 10
99.0411393582
 20
94.2153247681
 30
0.0
 10
92.1382320851
 20
94.2575134128
 30
0.0
 10
85.2353224367
 20
94.2993126624
 30
0.0
 10
78.332413155
 20
94.3411713692
 30
0.0
  0
SPLINE
  5
622
100
AcDbEntity
  8
RACCORDO
100
AcDbSpline
 62
250
  6
CONTINUOUS
 70
0
 71
3
 72
9
 73
5
 74
0
 42
0.0000001
 43
0.0000001
 44
0.0000000001
 40
0.0
 40
0.0
 40
0.0
 40
0.0
 40
0.499994518
 40
1.0
 40
1.0
 40
1.0
 40
1.0
 10
89.9882501008
 20
95.5228333984
 30
0.0
 10
88.0456352381
 20
95.5332657323
 30
0.0
 10
84.1603112735
 20
95.543497269
 30
0.0
 10
80.2750670922
 20
95.5698725436
 30
0.0
 10
78.332413155
 20
95.5809417723
 30
0.0
  0
SPLINE
  5
623
100
AcDbEntity
  8
RACCORDO
100
AcDbSpline
 62
250
  6
CONTINUOUS
 70
0
 71
3
 72
11
 73
7
 74
0
 42
0.0000001
 43
0.0000001
 44
0.0000000001
 40
0.0
 40
0.0
 40
0.0
 40
0.0
 40
0.064137322
 40
0.2539815394
 40
0.5673933996
 40
1.0
 40
1.0
 40
1.0
 40
1.0
 10
86.3032679529
 20
57.0908237315
 30
0.0
 10
86.3044651143
 20
57.090844628
 30
0.0
 10
86.3024302751
 20
57.0983839611
 30
0.0
 10
86.3046418092
 20
57.1062948293
 30
0.0
 10
86.303506902
 20
57.125308205
 30
0.0
 10
86.3038510673
 20
57.1387332765
 30
0.0
 10
86.3037941962
 20
57.1468091662
 30
0.0
  0
LINE
  5
624
100
AcDbEntity
  8
RACCORDO
100
AcDbLine
 62
250
  6
CONTINUOUS
 10
86.3037941962
 20
57.1468091662
 11
86.3032679527
 21
57.2137938089
  0
SPLINE
  5
625
100
AcDbEntity
  8
RACCORDO
100
AcDbSpline
 62
250
  6
CONTINUOUS
 70
0
 71
3
 72
9
 73
5
 74
0
 42
0.0000001
 43
0.0000001
 44
0.0000000001
 40
0.0
 40
0.0
 40
0.0
 40
0.0
 40
0.5528738275
 40
1.0
 40
1.0
 40
1.0
 40
1.0
 10
86.3032679527
 20
57.2137938089
 30
0.0
 10
86.3594439101
 20
57.1914007228
 30
0.0
 10
86.4668711736
 20
57.1599747904
 30
0.0
 10
86.5813292173
 20
57.1868628691
 30
0.0
 10
86.6214409585
 20
57.2148453058
 30
0.0
  0
SPLINE
  5
626
100
AcDbEntity
  8
RACCORDO
100
AcDbSpline
 62
250
  6
CONTINUOUS
 70
0
 71
3
 72
13
 73
9
 74
0
 42
0.0000001
 43
0.0000001
 44
0.0000000001
 40
0.0
 40
0.0
 40
0.0
 40
0.0
 40
0.4223851743
 40
0.7374822342
 40
0.8503858407
 40
0.9320090642
 40
0.9817421991
 40
1.0
 40
1.0
 40
1.0
 40
1.0
 10
88.4482460223
 20
58.9757134601
 30
0.0
 10
88.4477420973
 20
58.953932876
 30
0.0
 10
88.4466732469
 20
58.9160339841
 30
0.0
 10
88.4450089165
 20
58.8718407078
 30
0.0
 10
88.4432445841
 20
58.8460952745
 30
0.0
 10
88.4423421376
 20
58.8327165858
 30
0.0
 10
88.4409516986
 20
58.8265615241
 30
0.0
 10
88.4404616644
 20
58.8215104574
 30
0.0
 10
88.4395199363
 20
58.8215101686
 30
0.0
  0
LINE
  5
627
100
AcDbEntity
  8
RACCORDO
100
AcDbLine
 62
250
  6
CONTINUOUS
 10
99.0413322904
 20
95.3497301166
 11
91.7688875827
 21
95.5042025624
  0
LINE
  5
628
100
AcDbEntity
  8
ASSI
100
AcDbLine
 62
7
  6
CONTINUOUS
 10
99.0411393582
 20
59.004142289
 11
97.6047512591
 21
58.9736741096
  0
SPLINE
  5
629
100
AcDbEntity
  8
ASSI
100
AcDbSpline
 62
7
  6
CONTINUOUS
 70
0
 71
3
 72
11
 73
7
 74
0
 42
0.0000001
 43
0.0000001
 44
0.0000000001
 40
0.0
 40
0.0
 40
0.0
 40
0.0
 40
0.2873357966
 40
0.554925506
 40
0.7904985702
 40
1.0
 40
1.0
 40
1.0
 40
1.0
 10
99.0411393582
 20
59.004142289
 30
0.0
 10
99.1047409988
 20
59.0054915718
 30
0.0
 10
99.2278860948
 20
59.0248264188
 30
0.0
 10
99.388877013
 20
59.1002864749
 30
0.0
 10
99.5023800049
 20
59.2161215656
 30
0.0
 10
99.532413155
 20
59.3156402608
 30
0.0
 10
99.532413155
 20
59.3620237358
 30
0.0
  0
SPLINE
  5
62A
100
AcDbEntity
  8
ASSI
100
AcDbSpline
 62
7
  6
CONTINUOUS
 70
0
 71
3
 72
10
 73
6
 74
0
 42
0.0000001
 43
0.0000001
 44
0.0000000001
 40
0.0
 40
0.0
 40
0.0
 40
0.0
 40
0.2417796443
 40
0.4919289368
 40
1.0
 40
1.0
 40
1.0
 40
1.0
 10
92.0606480163
 20
58.8215122032
 30
0.0
 10
92.1743330618
 20
58.8215122032
 30
0.0
 10
92.4054619309
 20
58.8355795696
 30
0.0
 10
92.8740540199
 20
58.8725276779
 30
0.0
 10
93.2302858803
 20
58.8928604769
 30
0.0
 10
93.4691509994
 20
58.8966736543
 30
0.0
  0
LINE
  5
62B
100
AcDbEntity
  8
ASSI
100
AcDbLine
 62
250
  6
CONTINUOUS
 10
99.0413322904
 20
95.3497301166
 11
99.0416456294
 21
94.9749720953
  0
SPLINE
  5
62C
100
AcDbEntity
  8
ASSI
100
AcDbSpline
 62
250
  6
CONTINUOUS
 70
0
 71
3
 72
9
 73
5
 74
0
 42
0.0000001
 43
0.0000001
 44
0.0000000001
 40
0.0
 40
0.0
 40
0.0
 40
0.0
 40
0.2419498836
 40
1.0
 40
1.0
 40
1.0
 40
1.0
 10
99.0416456294
 20
94.9749720953
 30
0.0
 10
99.0416619403
 20
94.9137065514
 30
0.0
 10
99.0416651892
 20
94.6604906932
 30
0.0
 10
99.041433124
 20
94.4072748462
 30
0.0
 10
99.041140128
 20
94.2153247634
 30
0.0
  0
SPLINE
  5
62D
100
AcDbEntity
  8
ASSI
100
AcDbSpline
 62
250
  6
CONTINUOUS
 70
0
 71
3
 72
8
 73
4
 74
0
 42
0.0000001
 43
0.0000001
 44
0.0000000001
 40
0.0
 40
0.0
 40
0.0
 40
0.0
 40
1.0
 40
1.0
 40
1.0
 40
1.0
 10
99.0411393582
 20
94.2153247681
 30
0.0
 10
92.1382320851
 20
94.2575134128
 30
0.0
 10
85.2353224367
 20
94.2993126624
 30
0.0
 10
78.332413155
 20
94.3411713692
 30
0.0
  0
SPLINE
  5
62E
100
AcDbEntity
  8
ASSI
100
AcDbSpline
 62
250
  6
CONTINUOUS
 70
0
 71
3
 72
9
 73
5
 74
0
 42
0.0000001
 43
0.0000001
 44
0.0000000001
 40
0.0
 40
0.0
 40
0.0
 40
0.0
 40
0.253517617
 40
1.0
 40
1.0
 40
1.0
 40
1.0
 10
88.4482451488
 20
58.9757087349
 30
0.0
 10
88.420691134
 20
58.9757119947
 30
0.0
 10
88.3120453409
 20
58.9711696458
 30
0.0
 10
88.2042103743
 20
58.9484087429
 30
0.0
 10
88.1275031328
 20
58.9219791073
 30
0.0
  0
SPLINE
  5
62F
100
AcDbEntity
  8
ASSI
100
AcDbSpline
 62
250
  6
CONTINUOUS
 70
0
 71
3
 72
9
 73
5
 74
0
 42
0.0000001
 43
0.0000001
 44
0.0000000001
 40
0.0
 40
0.0
 40
0.0
 40
0.0
 40
0.2635045053
 40
1.0
 40
1.0
 40
1.0
 40
1.0
 10
88.1275031328
 20
58.9219791073
 30
0.0
 10
88.0934315123
 20
58.9102396614
 30
0.0
 10
87.9666283643
 20
58.858663828
 30
0.0
 10
87.8508337304
 20
58.780578845
 30
0.0
 10
87.7769158948
 20
58.7121568985
 30
0.0
  0
LINE
  5
630
100
AcDbEntity
  8
ASSI
100
AcDbLine
 62
250
  6
CONTINUOUS
 10
87.7433068853
 20
58.6795253191
 11
87.4931815865
 21
58.4249514201
  0
LINE
  5
631
100
AcDbEntity
  8
ASSI
100
AcDbLine
 62
250
  6
CONTINUOUS
 10
87.4931815865
 20
58.4249514201
 11
87.004963174
 21
57.9281768259
  0
LINE
  5
632
100
AcDbEntity
  8
ASSI
100
AcDbLine
 62
250
  6
CONTINUOUS
 10
87.004963174
 20
57.9281768259
 11
86.4841146015
 21
57.3978543538
  0
LINE
  5
633
100
AcDbEntity
  8
ASSI
100
AcDbLine
 62
250
  6
CONTINUOUS
 10
86.4841146015
 20
57.3978543538
 11
86.3033426282
 21
57.2137951603
  0
SPLINE
  5
634
100
AcDbEntity
  8
ASSI
100
AcDbSpline
 62
250
  6
CONTINUOUS
 70
0
 71
3
 72
16
 73
12
 74
0
 42
0.0000001
 43
0.0000001
 44
0.0000000001
 40
0.0
 40
0.0
 40
0.0
 40
0.0
 40
0.3819876227
 40
0.5553875357
 40
0.7068284441
 40
0.8310878679
 40
0.9232745919
 40
0.9562774838
 40
0.980205542
 40
0.9948181213
 40
1.0
 40
1.0
 40
1.0
 40
1.0
 10
104.5411393582
 20
85.4341607145
 30
0.0
 10
104.5422504309
 20
85.497833419
 30
0.0
 10
104.5435705537
 20
85.5904265781
 30
0.0
 10
104.5445535485
 20
85.7082336523
 30
0.0
 10
104.5448491219
 20
85.7831677081
 30
0.0
 10
104.5445895771
 20
85.8443244962
 30
0.0
 10
104.5442364083
 20
85.8862897895
 30
0.0
 10
104.5432666331
 20
85.9106135368
 30
0.0
 10
104.543093593
 20
85.9234175521
 30
0.0
 10
104.5417853237
 20
85.9290747429
 30
0.0
 10
104.5420031145
 20
85.9340694852
 30
0.0
 10
104.5411393582
 20
85.9340845621
 30
0.0
  0
SPLINE
  5
635
100
AcDbEntity
  8
ASSI
100
AcDbSpline
 62
250
  6
CONTINUOUS
 70
0
 71
3
 72
16
 73
12
 74
0
 42
0.0000001
 43
0.0000001
 44
0.0000000001
 40
0.0
 40
0.0
 40
0.0
 40
0.0
 40
0.0051683981
 40
0.01974703
 40
0.0436338123
 40
0.0766008835
 40
0.168771221
 40
0.2930264606
 40
0.4444890401
 40
0.6179545525
 40
1.0
 40
1.0
 40
1.0
 40
1.0
 10
104.5411393582
 20
70.5089398443
 30
0.0
 10
104.5420008683
 20
70.508954882
 30
0.0
 10
104.541788396
 20
70.5139359771
 30
0.0
 10
104.5430922189
 20
70.5195829703
 30
0.0
 10
104.5432674634
 20
70.5323665227
 30
0.0
 10
104.5442361829
 20
70.5566752447
 30
0.0
 10
104.5445885289
 20
70.5986310821
 30
0.0
 10
104.544848806
 20
70.6597881013
 30
0.0
 10
104.544553916
 20
70.7347361009
 30
0.0
 10
104.5435706825
 20
70.8525674608
 30
0.0
 10
104.5422506001
 20
70.9451812893
 30
0.0
 10
104.5411393582
 20
71.0088636918
 30
0.0
  0
SPLINE
  5
636
100
AcDbEntity
  8
ASSI
100
AcDbSpline
 62
7
  6
CONTINUOUS
 70
0
 71
3
 72
9
 73
5
 74
0
 42
0.0000001
 43
0.0000001
 44
0.0000000001
 40
0.0
 40
0.0
 40
0.0
 40
0.0
 40
0.1055372934
 40
1.0
 40
1.0
 40
1.0
 40
1.0
 10
99.5346565781
 20
70.4215513623
 30
0.0
 10
99.5174904608
 20
70.4390296093
 30
0.0
 10
99.3545556818
 20
70.6043643119
 30
0.0
 10
99.1892199831
 20
70.7673198566
 30
0.0
 10
99.0411393582
 20
70.9128608347
 30
0.0
  0
SPLINE
  5
637
100
AcDbEntity
  8
ASSI
100
AcDbSpline
 62
7
  6
CONTINUOUS
 70
0
 71
3
 72
9
 73
5
 74
0
 42
0.0000001
 43
0.0000001
 44
0.0000000001
 40
0.0
 40
0.0
 40
0.0
 40
0.0
 40
0.3345982609
 40
1.0
 40
1.0
 40
1.0
 40
1.0
 10
99.0411393582
 20
85.5301635716
 30
0.0
 10
99.0965332108
 20
85.5846073957
 30
0.0
 10
99.261912495
 20
85.7474994546
 30
0.0
 10
99.4262433969
 20
85.9114492961
 30
0.0
 10
99.5346601585
 20
86.0214729816
 30
0.0
  0
SPLINE
  5
638
100
AcDbEntity
  8
ASSI
100
AcDbSpline
 62
250
  6
CONTINUOUS
 70
0
 71
3
 72
11
 73
7
 74
0
 42
0.0000001
 43
0.0000001
 44
0.0000000001
 40
0.0
 40
0.0
 40
0.0
 40
0.0
 40
0.1835599004
 40
0.4125490597
 40
0.6911360334
 40
1.0
 40
1.0
 40
1.0
 40
1.0
 10
99.5324131009
 20
95.0663186009
 30
0.0
 10
99.5323949946
 20
95.1038924208
 30
0.0
 10
99.497921298
 20
95.1879797303
 30
0.0
 10
99.3839996374
 20
95.2777213062
 30
0.0
 10
99.2251759613
 20
95.334950805
 30
0.0
 10
99.1045513609
 20
95.3504415375
 30
0.0
 10
99.041332226
 20
95.3497460013
 30
0.0
  0
SPLINE
  5
639
100
AcDbEntity
  8
ASSI
100
AcDbSpline
 62
250
  6
CONTINUOUS
 70
0
 71
3
 72
9
 73
5
 74
0
 42
0.0000001
 43
0.0000001
 44
0.0000000001
 40
0.0
 40
0.0
 40
0.0
 40
0.0
 40
0.2237825014
 40
1.0
 40
1.0
 40
1.0
 40
1.0
 10
99.0411393582
 20
60.9805054066
 30
0.0
 10
99.0413198622
 20
61.0735552687
 30
0.0
 10
99.0418676969
 20
61.489360663
 30
0.0
 10
99.0416293267
 20
61.9051668494
 30
0.0
 10
99.0411393582
 20
62.2279221293
 30
0.0
  0
SPLINE
  5
63A
100
AcDbEntity
  8
ASSI
100
AcDbSpline
 62
250
  6
CONTINUOUS
 70
0
 71
3
 72
8
 73
4
 74
0
 42
0.0000001
 43
0.0000001
 44
0.0000000001
 40
0.0
 40
0.0
 40
0.0
 40
0.0
 40
1.0
 40
1.0
 40
1.0
 40
1.0
 10
99.0411393582
 20
60.9805054068
 30
0.0
 10
92.1382314407
 20
60.9408885485
 30
0.0
 10
85.2353226973
 20
60.901415365
 30
0.0
 10
78.332413155
 20
60.862082634
 30
0.0
  0
SPLINE
  5
63B
100
AcDbEntity
  8
ASSI
100
AcDbSpline
 62
250
  6
CONTINUOUS
 70
0
 71
3
 72
11
 73
7
 74
0
 42
0.0000001
 43
0.0000001
 44
0.0000000001
 40
0.0
 40
0.0
 40
0.0
 40
0.0
 40
0.3001235811
 40
0.5738515838
 40
0.8046873674
 40
1.0
 40
1.0
 40
1.0
 40
1.0
 10
99.0411393582
 20
60.980505407
 30
0.0
 10
99.1045021636
 20
60.9811954119
 30
0.0
 10
99.2260602313
 20
60.996911286
 30
0.0
 10
99.3857097839
 20
61.0610017395
 30
0.0
 10
99.5003587333
 20
61.1605774266
 30
0.0
 10
99.532413155
 20
61.2511222743
 30
0.0
 10
99.532413155
 20
61.2923595875
 30
0.0
  0
SPLINE
  5
63C
100
AcDbEntity
  8
ASSI
100
AcDbSpline
 62
7
  6
CONTINUOUS
 70
0
 71
3
 72
8
 73
4
 74
0
 42
0.0000001
 43
0.0000001
 44
0.0000000001
 40
0.0
 40
0.0
 40
0.0
 40
0.0
 40
1.0
 40
1.0
 40
1.0
 40
1.0
 10
82.332413155
 20
56.8679809086
 30
0.0
 10
82.3317980475
 20
56.8844571594
 30
0.0
 10
82.333862747
 20
56.9011271734
 30
0.0
 10
82.3377107101
 20
56.9171595899
 30
0.0
  0
SPLINE
  5
63D
100
AcDbEntity
  8
ASSI
100
AcDbSpline
 62
7
  6
CONTINUOUS
 70
0
 71
3
 72
9
 73
5
 74
0
 42
0.0000001
 43
0.0000001
 44
0.0000000001
 40
0.0
 40
0.0
 40
0.0
 40
0.0
 40
0.2374303722
 40
1.0
 40
1.0
 40
1.0
 40
1.0
 10
82.3377107101
 20
56.9171595899
 30
0.0
 10
82.341973396
 20
56.934919936
 30
0.0
 10
82.3691835169
 20
57.0075235579
 30
0.0
 10
82.4171935804
 20
57.0693250711
 30
0.0
 10
82.4539729127
 20
57.1150252377
 30
0.0
  0
SPLINE
  5
63E
100
AcDbEntity
  8
ASSI
100
AcDbSpline
 62
7
  6
CONTINUOUS
 70
0
 71
3
 72
9
 73
5
 74
0
 42
0.0000001
 43
0.0000001
 44
0.0000000001
 40
0.0
 40
0.0
 40
0.0
 40
0.0
 40
0.5207768721
 40
1.0
 40
1.0
 40
1.0
 40
1.0
 10
82.479795294
 20
99.2962687838
 30
0.0
 10
82.4478675006
 20
99.3353061704
 30
0.0
 10
82.3867601315
 20
99.4094842619
 30
0.0
 10
82.3405455296
 20
99.499014837
 30
0.0
 10
82.3340536001
 20
99.544965675
 30
0.0
  0
SPLINE
  5
63F
100
AcDbEntity
  8
ASSI
100
AcDbSpline
 62
7
  6
CONTINUOUS
 70
0
 71
3
 72
8
 73
4
 74
0
 42
0.0000001
 43
0.0000001
 44
0.0000000001
 40
0.0
 40
0.0
 40
0.0
 40
0.0
 40
1.0
 40
1.0
 40
1.0
 40
1.0
 10
82.3340536001
 20
99.544965675
 30
0.0
 10
82.3326489602
 20
99.5549079245
 30
0.0
 10
82.3320387365
 20
99.565009923
 30
0.0
 10
82.332413155
 20
99.5750439227
 30
0.0
  0
SPLINE
  5
640
100
AcDbEntity
  8
ASSI
100
AcDbSpline
 62
250
  6
CONTINUOUS
 70
0
 71
3
 72
8
 73
4
 74
0
 42
0.0000001
 43
0.0000001
 44
0.0000000001
 40
0.0
 40
0.0
 40
0.0
 40
0.0
 40
1.0
 40
1.0
 40
1.0
 40
1.0
 10
99.0411393582
 20
62.2279221293
 30
0.0
 10
92.138231634
 20
62.1857334818
 30
0.0
 10
85.2353228878
 20
62.1437117467
 30
0.0
 10
78.332413155
 20
62.1018530372
 30
0.0
  0
SPLINE
  5
641
100
AcDbEntity
  8
ASSI
100
AcDbSpline
 62
250
  6
CONTINUOUS
 70
0
 71
3
 72
13
 73
9
 74
0
 42
0.0000001
 43
0.0000001
 44
0.0000000001
 40
0.0
 40
0.0
 40
0.0
 40
0.0
 40
0.4265333925
 40
0.7416340747
 40
0.8538776059
 40
0.9346893464
 40
0.9834944927
 40
1.0
 40
1.0
 40
1.0
 40
1.0
 10
86.3032679529
 20
99.2292306013
 30
0.0
 10
86.3034419144
 20
99.2467164796
 30
0.0
 10
86.3036076998
 20
99.2769888619
 30
0.0
 10
86.3040686377
 20
99.312370515
 30
0.0
 10
86.3036461627
 20
99.3326991963
 30
0.0
 10
86.3041943333
 20
99.3434568485
 30
0.0
 10
86.3029110276
 20
99.3479454659
 30
0.0
 10
86.3039445321
 20
99.3521888651
 30
0.0
 10
86.3032679529
 20
99.3522006748
 30
0.0
  0
SPLINE
  5
642
100
AcDbEntity
  8
ASSI
100
AcDbSpline
 62
250
  6
CONTINUOUS
 70
0
 71
3
 72
9
 73
5
 74
0
 42
0.0000001
 43
0.0000001
 44
0.0000000001
 40
0.0
 40
0.0
 40
0.0
 40
0.0
 40
0.4492649664
 40
1.0
 40
1.0
 40
1.0
 40
1.0
 10
86.6480951407
 20
99.2058302175
 30
0.0
 10
86.6144375819
 20
99.2394877763
 30
0.0
 10
86.5082226161
 20
99.2831632321
 30
0.0
 10
86.4001064266
 20
99.2640018478
 30
0.0
 10
86.3447835682
 20
99.2454531216
 30
0.0
  0
SPLINE
  5
643
100
AcDbEntity
  8
ASSI
100
AcDbSpline
 62
250
  6
CONTINUOUS
 70
0
 71
3
 72
10
 73
6
 74
0
 42
0.0000001
 43
0.0000001
 44
0.0000000001
 40
0.0
 40
0.0
 40
0.0
 40
0.0
 40
0.3208421745
 40
0.7106592383
 40
1.0
 40
1.0
 40
1.0
 40
1.0
 10
89.6447411531
 20
95.8273797484
 30
0.0
 10
89.6784438807
 20
95.8474268278
 30
0.0
 10
89.7565708007
 20
95.8857287279
 30
0.0
 10
89.8774115735
 20
95.9172246765
 30
0.0
 10
89.9645620232
 20
95.8893631143
 30
0.0
 10
89.9895681973
 20
95.8643569295
 30
0.0
  0
SPLINE
  5
644
100
AcDbEntity
  8
ASSI
100
AcDbSpline
 62
250
  6
CONTINUOUS
 70
0
 71
3
 72
14
 73
10
 74
0
 42
0.0000001
 43
0.0000001
 44
0.0000000001
 40
0.0
 40
0.0
 40
0.0
 40
0.0
 40
0.0169435125
 40
0.0668741045
 40
0.1492736975
 40
0.2632145734
 40
0.4072540479
 40
0.5798240388
 40
1.0
 40
1.0
 40
1.0
 40
1.0
 10
90.3343955004
 20
95.7179865882
 30
0.0
 10
90.335460569
 20
95.7179679974
 30
0.0
 10
90.3338622624
 20
95.711307026
 30
0.0
 10
90.3358660232
 20
95.7042734046
 30
0.0
 10
90.3350198426
 20
95.6874692218
 30
0.0
 10
90.3354967295
 20
95.6666440143
 30
0.0
 10
90.3352613995
 20
95.6393577898
 30
0.0
 10
90.3350666173
 20
95.5931385188
 30
0.0
 10
90.3346795661
 20
95.5558296326
 30
0.0
 10
90.3343954985
 20
95.5294148886
 30
0.0
  0
SPLINE
  5
645
100
AcDbEntity
  8
ASSI
100
AcDbSpline
 62
250
  6
CONTINUOUS
 70
0
 71
3
 72
14
 73
10
 74
0
 42
0.0000001
 43
0.0000001
 44
0.0000000001
 40
0.0
 40
0.0
 40
0.0
 40
0.0
 40
0.4201585865
 40
0.5927292027
 40
0.7367721206
 40
0.850717646
 40
0.9331215969
 40
0.9830552816
 40
1.0
 40
1.0
 40
1.0
 40
1.0
 10
91.7688875827
 20
95.5042025623
 30
0.0
 10
91.76917196
 20
95.5306404715
 30
0.0
 10
91.7695594179
 20
95.5679825642
 30
0.0
 10
91.7697544236
 20
95.6142434493
 30
0.0
 10
91.7699899772
 20
95.6415552824
 30
0.0
 10
91.7695126427
 20
95.6624003844
 30
0.0
 10
91.7703595932
 20
95.6792208173
 30
0.0
 10
91.7683538971
 20
95.6862613156
 30
0.0
 10
91.7699537054
 20
95.6929288265
 30
0.0
 10
91.7688875827
 20
95.6929474358
 30
0.0
  0
SPLINE
  5
646
100
AcDbEntity
  8
ASSI
100
AcDbSpline
 62
250
  6
CONTINUOUS
 70
0
 71
3
 72
14
 73
10
 74
0
 42
0.0000001
 43
0.0000001
 44
0.0000000001
 40
0.0
 40
0.0
 40
0.0
 40
0.0
 40
0.0171059222
 40
0.0674385153
 40
0.1504464062
 40
0.2650092354
 40
0.4096277347
 40
0.5825049168
 40
1.0
 40
1.0
 40
1.0
 40
1.0
 10
99.0411393582
 20
95.5660098089
 30
0.0
 10
99.0423725794
 20
95.5659882829
 30
0.0
 10
99.0406037375
 20
95.5582950584
 30
0.0
 10
99.042895401
 20
95.5501554909
 30
0.0
 10
99.0419772987
 20
95.5307612889
 30
0.0
 10
99.0425411281
 20
95.5067471911
 30
0.0
 10
99.0422976002
 20
95.475344581
 30
0.0
 10
99.042094166
 20
95.4224647011
 30
0.0
 10
99.0416576612
 20
95.3798473967
 30
0.0
 10
99.041332226
 20
95.3497460013
 30
0.0
  0
SPLINE
  5
647
100
AcDbEntity
  8
ASSI
100
AcDbSpline
 62
250
  6
CONTINUOUS
 70
0
 71
3
 72
13
 73
9
 74
0
 42
0.0000001
 43
0.0000001
 44
0.0000000001
 40
0.0
 40
0.0
 40
0.0
 40
0.0
 40
0.4267411109
 40
0.7417391733
 40
0.854035079
 40
0.934906079
 40
0.9836753452
 40
1.0
 40
1.0
 40
1.0
 40
1.0
 10
82.479795294
 20
99.2962687839
 30
0.0
 10
82.4797432227
 20
99.3137185548
 30
0.0
 10
82.4797893673
 20
99.34391328
 30
0.0
 10
82.4793785493
 20
99.3792221594
 30
0.0
 10
82.4798721413
 20
99.3994814702
 30
0.0
 10
82.4790945771
 20
99.4102431046
 30
0.0
 10
82.4805682403
 20
99.4146673103
 30
0.0
 10
82.4791277827
 20
99.4189345705
 30
0.0
 10
82.479795294
 20
99.4189396384
 30
0.0
  0
SPLINE
  5
648
100
AcDbEntity
  8
ASSI
100
AcDbSpline
 62
250
  6
CONTINUOUS
 70
0
 71
3
 72
11
 73
7
 74
0
 42
0.0000001
 43
0.0000001
 44
0.0000000001
 40
0.0
 40
0.0
 40
0.0
 40
0.0
 40
0.064137322
 40
0.2539815394
 40
0.5673933996
 40
1.0
 40
1.0
 40
1.0
 40
1.0
 10
86.3032679529
 20
57.0908237315
 30
0.0
 10
86.3044651143
 20
57.090844628
 30
0.0
 10
86.3024302751
 20
57.0983839611
 30
0.0
 10
86.3046418092
 20
57.1062948293
 30
0.0
 10
86.303506902
 20
57.125308205
 30
0.0
 10
86.3038510673
 20
57.1387332765
 30
0.0
 10
86.3037941962
 20
57.1468091662
 30
0.0
  0
LINE
  5
649
100
AcDbEntity
  8
ASSI
100
AcDbLine
 62
250
  6
CONTINUOUS
 10
86.3037941962
 20
57.1468091662
 11
86.3032679527
 21
57.2137938089
  0
SPLINE
  5
64A
100
AcDbEntity
  8
ASSI
100
AcDbSpline
 62
250
  6
CONTINUOUS
 70
0
 71
3
 72
9
 73
5
 74
0
 42
0.0000001
 43
0.0000001
 44
0.0000000001
 40
0.0
 40
0.0
 40
0.0
 40
0.0
 40
0.5528738275
 40
1.0
 40
1.0
 40
1.0
 40
1.0
 10
86.3032679527
 20
57.2137938089
 30
0.0
 10
86.3594439101
 20
57.1914007228
 30
0.0
 10
86.4668711736
 20
57.1599747904
 30
0.0
 10
86.5813292173
 20
57.1868628691
 30
0.0
 10
86.6214409585
 20
57.2148453058
 30
0.0
  0
SPLINE
  5
64B
100
AcDbEntity
  8
ASSI
100
AcDbSpline
 62
250
  6
CONTINUOUS
 70
0
 71
3
 72
13
 73
9
 74
0
 42
0.0000001
 43
0.0000001
 44
0.0000000001
 40
0.0
 40
0.0
 40
0.0
 40
0.0
 40
0.4223851743
 40
0.7374822342
 40
0.8503858407
 40
0.9320090642
 40
0.9817421991
 40
1.0
 40
1.0
 40
1.0
 40
1.0
 10
88.4482460223
 20
58.9757134601
 30
0.0
 10
88.4477420973
 20
58.953932876
 30
0.0
 10
88.4466732469
 20
58.9160339841
 30
0.0
 10
88.4450089165
 20
58.8718407078
 30
0.0
 10
88.4432445841
 20
58.8460952745
 30
0.0
 10
88.4423421376
 20
58.8327165858
 30
0.0
 10
88.4409516986
 20
58.8265615241
 30
0.0
 10
88.4404616644
 20
58.8215104574
 30
0.0
 10
88.4395199363
 20
58.8215101686
 30
0.0
  0
SPLINE
  5
64C
100
AcDbEntity
  8
ASSI
100
AcDbSpline
 62
250
  6
CONTINUOUS
 70
0
 71
3
 72
9
 73
5
 74
0
 42
0.0000001
 43
0.0000001
 44
0.0000000001
 40
0.0
 40
0.0
 40
0.0
 40
0.0
 40
0.4265286924
 40
1.0
 40
1.0
 40
1.0
 40
1.0
 10
88.0859665456
 20
58.6750655938
 30
0.0
 10
88.0496449265
 20
58.6387439747
 30
0.0
 10
87.919227524
 20
58.6035802032
 30
0.0
 10
87.802813923
 20
58.6466075514
 30
0.0
 10
87.7410660645
 20
58.6775407116
 30
0.0
  0
SPLINE
  5
64D
100
AcDbEntity
  8
ASSI
100
AcDbSpline
 62
250
  6
CONTINUOUS
 70
0
 71
3
 72
13
 73
9
 74
0
 42
0.0000001
 43
0.0000001
 44
0.0000000001
 40
0.0
 40
0.0
 40
0.0
 40
0.0
 40
0.0162897418
 40
0.0650234809
 40
0.1458281601
 40
0.2580734389
 40
0.5730474161
 40
1.0
 40
1.0
 40
1.0
 40
1.0
 10
82.479795294
 20
57.024084768
 30
0.0
 10
82.479129334
 20
57.024070968
 30
0.0
 10
82.4805672517
 20
57.028379121
 30
0.0
 10
82.4790952284
 20
57.0327545911
 30
0.0
 10
82.4798720456
 20
57.0435344439
 30
0.0
 10
82.4793785708
 20
57.0637730793
 30
0.0
 10
82.4797893304
 20
57.0990988327
 30
0.0
 10
82.47974328
 20
57.1292972036
 30
0.0
 10
82.479795294
 20
57.1467556225
 30
0.0
  0
SPLINE
  5
64E
100
AcDbEntity
  8
ASSI
100
AcDbSpline
 62
250
  6
CONTINUOUS
 70
0
 71
3
 72
9
 73
5
 74
0
 42
0.0000001
 43
0.0000001
 44
0.0000000001
 40
0.0
 40
0.0
 40
0.0
 40
0.0
 40
0.499994518
 40
1.0
 40
1.0
 40
1.0
 40
1.0
 10
89.9882501008
 20
95.5228333984
 30
0.0
 10
88.0456352381
 20
95.5332657323
 30
0.0
 10
84.1603112735
 20
95.543497269
 30
0.0
 10
80.2750670922
 20
95.5698725436
 30
0.0
 10
78.332413155
 20
95.5809417723
 30
0.0
  0
LINE
  5
64F
100
AcDbEntity
  8
ASSI
100
AcDbLine
 62
250
  6
CONTINUOUS
 10
86.3033846824
 20
99.2292285057
 11
86.6417473175
 21
98.8847367746
  0
LINE
  5
650
100
AcDbEntity
  8
ASSI
100
AcDbLine
 62
250
  6
CONTINUOUS
 10
99.0413322904
 20
95.3497301166
 11
91.7688875827
 21
95.5042025624
  0
SPLINE
  5
651
100
AcDbEntity
  8
ASSI
100
AcDbSpline
 62
250
  6
CONTINUOUS
 70
0
 71
3
 72
9
 73
5
 74
0
 42
0.0000001
 43
0.0000001
 44
0.0000000001
 40
0.0
 40
0.0
 40
0.0
 40
0.0
 40
0.48096859
 40
1.0
 40
1.0
 40
1.0
 40
1.0
 10
89.6434696442
 20
95.828518197
 30
0.0
 10
89.7243001741
 20
95.746221276
 30
0.0
 10
89.9234961523
 20
95.6020157248
 30
0.0
 10
90.1605443855
 20
95.5412954126
 30
0.0
 10
90.2839433494
 20
95.5249106142
 30
0.0
  0
SPLINE
  5
652
100
AcDbEntity
  8
ASSI
100
AcDbSpline
 62
250
  6
CONTINUOUS
 70
0
 71
3
 72
8
 73
4
 74
0
 42
0.0000001
 43
0.0000001
 44
0.0000000001
 40
0.0
 40
0.0
 40
0.0
 40
0.0
 40
1.0
 40
1.0
 40
1.0
 40
1.0
 10
90.2839433494
 20
95.5249106142
 30
0.0
 10
90.3006901309
 20
95.5226869923
 30
0.0
 10
90.3175757244
 20
95.5212129449
 30
0.0
 10
90.3344668508
 20
95.520914555
 30
0.0
  0
SPLINE
  5
653
100
AcDbEntity
  8
0
100
AcDbSpline
 62
250
  6
CONTINUOUS
 70
0
 71
3
 72
9
 73
5
 74
0
 42
0.0000001
 43
0.0000001
 44
0.0000000001
 40
0.0
 40
0.0
 40
0.0
 40
0.0
 40
0.7057072392
 40
1.0
 40
1.0
 40
1.0
 40
1.0
 10
87.9884919221
 20
84.3250550941
 30
0.0
 10
87.8639436267
 20
84.2014616072
 30
0.0
 10
87.7628412019
 20
83.9540347753
 30
0.0
 10
87.7267065906
 20
83.7100399613
 30
0.0
 10
87.7164258792
 20
83.6375886413
 30
0.0
  0
SPLINE
  5
654
100
AcDbEntity
  8
0
100
AcDbSpline
 62
250
  6
CONTINUOUS
 70
0
 71
3
 72
9
 73
5
 74
0
 42
0.0000001
 43
0.0000001
 44
0.0000000001
 40
0.0
 40
0.0
 40
0.0
 40
0.0
 40
0.839014423
 40
1.0
 40
1.0
 40
1.0
 40
1.0
 10
87.7063061649
 20
83.0645848736
 30
0.0
 10
87.7171609878
 20
82.7618059264
 30
0.0
 10
87.7448789036
 20
82.3306372468
 30
0.0
 10
88.0835272618
 20
82.1273003601
 30
0.0
 10
88.1416513382
 20
82.1273003601
 30
0.0
  0
SPLINE
  5
655
100
AcDbEntity
  8
0
100
AcDbSpline
 62
250
  6
CONTINUOUS
 70
0
 71
3
 72
132
 73
128
 74
0
 42
0.0000001
 43
0.0000001
 44
0.0000000001
 40
0.0
 40
0.0
 40
0.0
 40
0.0
 40
0.015625
 40
0.03125
 40
0.046875
 40
0.0546875
 40
0.05859375
 40
0.0625
 40
0.06640625
 40
0.0703125
 40
0.078125
 40
0.09375
 40
0.109375
 40
0.1171875
 40
0.12109375
 40
0.125
 40
0.12890625
 40
0.1328125
 40
0.140625
 40
0.15625
 40
0.171875
 40
0.1796875
 40
0.18359375
 40
0.1875
 40
0.19140625
 40
0.1953125
 40
0.203125
 40
0.21875
 40
0.234375
 40
0.2421875
 40
0.24609375
 40
0.25
 40
0.25390625
 40
0.2578125
 40
0.265625
 40
0.28125
 40
0.296875
 40
0.3046875
 40
0.30859375
 40
0.3125
 40
0.31640625
 40
0.3203125
 40
0.328125
 40
0.34375
 40
0.359375
 40
0.3671875
 40
0.37109375
 40
0.375
 40
0.37890625
 40
0.3828125
 40
0.390625
 40
0.40625
 40
0.421875
 40
0.4296875
 40
0.43359375
 40
0.4375
 40
0.44140625
 40
0.4453125
 40
0.453125
 40
0.46875
 40
0.484375
 40
0.4921875
 40
0.49609375
 40
0.5
 40
0.50390625
 40
0.5078125
 40
0.515625
 40
0.53125
 40
0.546875
 40
0.5546875
 40
0.55859375
 40
0.5625
 40
0.56640625
 40
0.5703125
 40
0.578125
 40
0.59375
 40
0.609375
 40
0.6171875
 40
0.62109375
 40
0.625
 40
0.62890625
 40
0.6328125
 40
0.640625
 40
0.65625
 40
0.671875
 40
0.6796875
 40
0.68359375
 40
0.6875
 40
0.69140625
 40
0.6953125
 40
0.703125
 40
0.71875
 40
0.734375
 40
0.7421875
 40
0.74609375
 40
0.75
 40
0.75390625
 40
0.7578125
 40
0.765625
 40
0.78125
 40
0.796875
 40
0.8046875
 40
0.80859375
 40
0.8125
 40
0.81640625
 40
0.8203125
 40
0.828125
 40
0.84375
 40
0.859375
 40
0.8671875
 40
0.87109375
 40
0.875
 40
0.87890625
 40
0.8828125
 40
0.890625
 40
0.90625
 40
0.921875
 40
0.9296875
 40
0.93359375
 40
0.9375
 40
0.94140625
 40
0.9453125
 40
0.953125
 40
0.9609375
 40
0.96875
 40
0.984375
 40
1.0
 40
1.0
 40
1.0
 40
1.0
 10
91.3822345499
 20
84.2267222032
 30
0.0
 10
91.3799605739
 20
84.2264992039
 30
0.0
 10
91.3754128175
 20
84.2260522178
 30
0.0
 10
91.3685900096
 20
84.2253876643
 30
0.0
 10
91.3629077581
 20
84.2248165864
 30
0.0
 10
91.3589235097
 20
84.2244505343
 30
0.0
 10
91.3566572081
 20
84.2241887711
 30
0.0
 10
91.3549281529
 20
84.224140591
 30
0.0
 10
91.3533112081
 20
84.2235261373
 30
0.0
 10
91.3511161549
 20
84.2229044409
 30
0.0
 10
91.3472932562
 20
84.2217238902
 30
0.0
 10
91.3418206033
 20
84.2200900428
 30
0.0
 10
91.3363582948
 20
84.2184219276
 30
0.0
 10
91.3325209138
 20
84.2172893517
 30
0.0
 10
91.3303486187
 20
84.2165922662
 30
0.0
 10
91.3286618481
 20
84.2162091201
 30
0.0
 10
91.3271950275
 20
84.2152922514
 30
0.0
 10
91.325162518
 20
84.2142559793
 30
0.0
 10
91.3216416621
 20
84.2123552278
 30
0.0
 10
91.3165907992
 20
84.2096896204
 30
0.0
 10
91.3115555717
 20
84.2069912438
 30
0.0
 10
91.3080128262
 20
84.2051363691
 30
0.0
 10
91.3060147147
 20
84.2040280047
 30
0.0
 10
91.3044423549
 20
84.2033323283
 30
0.0
 10
91.3031519426
 20
84.2021184822
 30
0.0
 10
91.3013330024
 20
84.2006808018
 30
0.0
 10
91.2981961411
 20
84.1980802539
 30
0.0
 10
91.2936871535
 20
84.1944124607
 30
0.0
 10
91.2892010347
 20
84.1907167231
 30
0.0
 10
91.2860321572
 20
84.1881552975
 30
0.0
 10
91.2842635283
 20
84.1866561392
 30
0.0
 10
91.2828187517
 20
84.1856309182
 30
0.0
 10
91.2818261156
 20
84.1842268499
 30
0.0
 10
91.280344842
 20
84.1824869369
 30
0.0
 10
91.2778265891
 20
84.1793801861
 30
0.0
 10
91.2741866015
 20
84.1749768998
 30
0.0
 10
91.2705756413
 20
84.1705518072
 30
0.0
 10
91.2680167501
 20
84.1674755853
 30
0.0
 10
91.2665993367
 20
84.1656876982
 30
0.0
 10
91.2654107658
 20
84.164430823
 30
0.0
 10
91.2647018333
 20
84.1628528102
 30
0.0
 10
91.2635892345
 20
84.1608608316
 30
0.0
 10
91.2617206856
 20
84.1573224465
 30
0.0
 10
91.259006064
 20
84.1522968026
 30
0.0
 10
91.2563229847
 20
84.1472542433
 30
0.0
 10
91.2544102766
 20
84.1437395398
 30
0.0
 10
91.2533670708
 20
84.1417103473
 30
0.0
 10
91.2524452278
 20
84.1402465135
 30
0.0
 10
91.2520562543
 20
84.1385608326
 30
0.0
 10
91.2513516965
 20
84.1363906575
 30
0.0
 10
91.250205905
 20
84.1325566227
 30
0.0
 10
91.2485189876
 20
84.1270997103
 30
0.0
 10
91.2468662939
 20
84.121630684
 30
0.0
 10
91.2456725892
 20
84.1178136086
 30
0.0
 10
91.2450433237
 20
84.1156167832
 30
0.0
 10
91.2444233399
 20
84.1140128701
 30
0.0
 10
91.2443690687
 20
84.112241953
 30
0.0
 10
91.2440993225
 20
84.1099389785
 30
0.0
 10
91.2437198116
 20
84.1058816797
 30
0.0
 10
91.2431246024
 20
84.1000993369
 30
0.0
 10
91.2425653204
 20
84.0943134075
 30
0.0
 10
91.2421355113
 20
84.09026113
 30
0.0
 10
91.2419448052
 20
84.0879502651
 30
0.0
 10
91.2416480243
 20
84.0862035573
 30
0.0
 10
91.2419387995
 20
84.0845087246
 30
0.0
 10
91.2421214979
 20
84.0822308421
 30
0.0
 10
91.2425372941
 20
84.0782530926
 30
0.0
 10
91.2430765536
 20
84.072565247
 30
0.0
 10
91.2436517556
 20
84.0668825106
 30
0.0
 10
91.2440172322
 20
84.0628976083
 30
0.0
 10
91.2442790042
 20
84.0606309659
 30
0.0
 10
91.2443271673
 20
84.0589016464
 30
0.0
 10
91.2449415299
 20
84.0572844555
 30
0.0
 10
91.2455631308
 20
84.0550890679
 30
0.0
 10
91.2467435023
 20
84.0512655869
 30
0.0
 10
91.2483771005
 20
84.0457921003
 30
0.0
 10
91.2500449618
 20
84.0403289598
 30
0.0
 10
91.2511773651
 20
84.0364909942
 30
0.0
 10
91.2518743444
 20
84.0343183682
 30
0.0
 10
91.2522574322
 20
84.0326313407
 30
0.0
 10
91.2531741612
 20
84.0311642966
 30
0.0
 10
91.2542102755
 20
84.0291314776
 30
0.0
 10
91.2561107376
 20
84.0256100853
 30
0.0
 10
91.258775939
 20
84.020558453
 30
0.0
 10
91.2614739046
 20
84.0155224586
 30
0.0
 10
91.2633284968
 20
84.0119791733
 30
0.0
 10
91.2644366923
 20
84.0099807575
 30
0.0
 10
91.2651322628
 20
84.0084081582
 30
0.0
 10
91.266345924
 20
84.0071175493
 30
0.0
 10
91.2677833854
 20
84.005298332
 30
0.0
 10
91.2703835373
 20
84.002160993
 30
0.0
 10
91.2740507718
 20
83.9976513185
 30
0.0
 10
91.2777459465
 20
83.9931645163
 30
0.0
 10
91.2803069821
 20
83.9899951561
 30
0.0
 10
91.281805912
 20
83.9882262578
 30
0.0
 10
91.2828309769
 20
83.9867812611
 30
0.0
 10
91.2842348313
 20
83.9857884738
 30
0.0
 10
91.2859744794
 20
83.9843069746
 30
0.0
 10
91.289080757
 20
83.9817883381
 30
0.0
 10
91.2934833726
 20
83.978147796
 30
0.0
 10
91.2979077913
 20
83.9745362857
 30
0.0
 10
91.3009835446
 20
83.9719770047
 30
0.0
 10
91.3027711594
 20
83.9705593754
 30
0.0
 10
91.3040278431
 20
83.9693706235
 30
0.0
 10
91.3056056156
 20
83.968661583
 30
0.0
 10
91.3075972908
 20
83.9675488147
 30
0.0
 10
91.311135137
 20
83.9656799812
 30
0.0
 10
91.3161600155
 20
83.9629649461
 30
0.0
 10
91.3212018068
 20
83.960281458
 30
0.0
 10
91.324715975
 20
83.9583684586
 30
0.0
 10
91.3267448585
 20
83.9573250939
 30
0.0
 10
91.3282084693
 20
83.9564031104
 30
0.0
 10
91.3298938935
 20
83.9560140777
 30
0.0
 10
91.3320637381
 20
83.9553094126
 30
0.0
 10
91.3358971889
 20
83.9541634466
 30
0.0
 10
91.3413532701
 20
83.9524762719
 30
0.0
 10
91.3468214639
 20
83.9508233276
 30
0.0
 10
91.3506379571
 20
83.949629439
 30
0.0
 10
91.3528344493
 20
83.9490000809
 30
0.0
 10
91.3544381138
 20
83.9483799925
 30
0.0
 10
91.3562087773
 20
83.9483257516
 30
0.0
 10
91.358511327
 20
83.9480557724
 30
0.0
 10
91.3614095286
 20
83.9477861141
 30
0.0
 10
91.3648788035
 20
83.9474334961
 30
0.0
 10
91.3695074969
 20
83.9469734818
 30
0.0
 10
91.3752923296
 20
83.9463949606
 30
0.0
 10
91.379920511
 20
83.9459332113
 30
0.0
 10
91.3822345622
 20
83.9457022032
 30
0.0
  0
SPLINE
  5
656
100
AcDbEntity
  8
0
100
AcDbSpline
 62
250
  6
CONTINUOUS
 70
0
 71
3
 72
132
 73
128
 74
0
 42
0.0000001
 43
0.0000001
 44
0.0000000001
 40
0.0
 40
0.0
 40
0.0
 40
0.0
 40
0.015625
 40
0.03125
 40
0.046875
 40
0.0546875
 40
0.05859375
 40
0.0625
 40
0.06640625
 40
0.0703125
 40
0.078125
 40
0.09375
 40
0.109375
 40
0.1171875
 40
0.12109375
 40
0.125
 40
0.12890625
 40
0.1328125
 40
0.140625
 40
0.15625
 40
0.171875
 40
0.1796875
 40
0.18359375
 40
0.1875
 40
0.19140625
 40
0.1953125
 40
0.203125
 40
0.21875
 40
0.234375
 40
0.2421875
 40
0.24609375
 40
0.25
 40
0.25390625
 40
0.2578125
 40
0.265625
 40
0.28125
 40
0.296875
 40
0.3046875
 40
0.30859375
 40
0.3125
 40
0.31640625
 40
0.3203125
 40
0.328125
 40
0.34375
 40
0.359375
 40
0.3671875
 40
0.37109375
 40
0.375
 40
0.37890625
 40
0.3828125
 40
0.390625
 40
0.40625
 40
0.421875
 40
0.4296875
 40
0.43359375
 40
0.4375
 40
0.44140625
 40
0.4453125
 40
0.453125
 40
0.46875
 40
0.484375
 40
0.4921875
 40
0.49609375
 40
0.5
 40
0.50390625
 40
0.5078125
 40
0.515625
 40
0.53125
 40
0.546875
 40
0.5546875
 40
0.55859375
 40
0.5625
 40
0.56640625
 40
0.5703125
 40
0.578125
 40
0.59375
 40
0.609375
 40
0.6171875
 40
0.62109375
 40
0.625
 40
0.62890625
 40
0.6328125
 40
0.640625
 40
0.65625
 40
0.671875
 40
0.6796875
 40
0.68359375
 40
0.6875
 40
0.69140625
 40
0.6953125
 40
0.703125
 40
0.71875
 40
0.734375
 40
0.7421875
 40
0.74609375
 40
0.75
 40
0.75390625
 40
0.7578125
 40
0.765625
 40
0.78125
 40
0.796875
 40
0.8046875
 40
0.80859375
 40
0.8125
 40
0.81640625
 40
0.8203125
 40
0.828125
 40
0.84375
 40
0.859375
 40
0.8671875
 40
0.87109375
 40
0.875
 40
0.87890625
 40
0.8828125
 40
0.890625
 40
0.90625
 40
0.921875
 40
0.9296875
 40
0.93359375
 40
0.9375
 40
0.94140625
 40
0.9453125
 40
0.953125
 40
0.9609375
 40
0.96875
 40
0.984375
 40
1.0
 40
1.0
 40
1.0
 40
1.0
 10
91.3822345499
 20
83.9457022032
 30
0.0
 10
91.384508526
 20
83.9459252024
 30
0.0
 10
91.3890562824
 20
83.9463721886
 30
0.0
 10
91.3958790903
 20
83.9470367421
 30
0.0
 10
91.4015613418
 20
83.9476078199
 30
0.0
 10
91.4055455902
 20
83.9479738721
 30
0.0
 10
91.4078118918
 20
83.9482356352
 30
0.0
 10
91.409540947
 20
83.9482838154
 30
0.0
 10
91.4111578918
 20
83.948898269
 30
0.0
 10
91.413352945
 20
83.9495199654
 30
0.0
 10
91.4171758437
 20
83.9507005162
 30
0.0
 10
91.4226484966
 20
83.9523343636
 30
0.0
 10
91.4281108051
 20
83.9540024788
 30
0.0
 10
91.4319481861
 20
83.9551350546
 30
0.0
 10
91.4341204812
 20
83.9558321401
 30
0.0
 10
91.4358072518
 20
83.9562152862
 30
0.0
 10
91.4372740724
 20
83.9571321549
 30
0.0
 10
91.4393065819
 20
83.958168427
 30
0.0
 10
91.4428274378
 20
83.9600691786
 30
0.0
 10
91.4478783007
 20
83.962734786
 30
0.0
 10
91.4529135282
 20
83.9654331626
 30
0.0
 10
91.4564562737
 20
83.9672880372
 30
0.0
 10
91.4584543852
 20
83.9683964016
 30
0.0
 10
91.460026745
 20
83.969092078
 30
0.0
 10
91.4613171573
 20
83.9703059241
 30
0.0
 10
91.4631360975
 20
83.9717436045
 30
0.0
 10
91.4662729588
 20
83.9743441524
 30
0.0
 10
91.4707819464
 20
83.9780119456
 30
0.0
 10
91.4752680652
 20
83.9817076832
 30
0.0
 10
91.4784369427
 20
83.9842691089
 30
0.0
 10
91.4802055716
 20
83.9857682671
 30
0.0
 10
91.4816503482
 20
83.9867934881
 30
0.0
 10
91.4826429843
 20
83.9881975564
 30
0.0
 10
91.4841242579
 20
83.9899374695
 30
0.0
 10
91.4866425108
 20
83.9930442203
 30
0.0
 10
91.4902824984
 20
83.9974475065
 30
0.0
 10
91.4938934586
 20
84.0018725991
 30
0.0
 10
91.4964523498
 20
84.004948821
 30
0.0
 10
91.4978697632
 20
84.0067367081
 30
0.0
 10
91.4990583341
 20
84.0079935833
 30
0.0
 10
91.4997672666
 20
84.0095715961
 30
0.0
 10
91.5008798654
 20
84.0115635747
 30
0.0
 10
91.5027484143
 20
84.0151019598
 30
0.0
 10
91.5054630359
 20
84.0201276037
 30
0.0
 10
91.5081461152
 20
84.025170163
 30
0.0
 10
91.5100588233
 20
84.0286848666
 30
0.0
 10
91.5111020291
 20
84.0307140591
 30
0.0
 10
91.5120238721
 20
84.0321778929
 30
0.0
 10
91.5124128456
 20
84.0338635737
 30
0.0
 10
91.5131174034
 20
84.0360337489
 30
0.0
 10
91.5142631949
 20
84.0398677836
 30
0.0
 10
91.5159501123
 20
84.0453246961
 30
0.0
 10
91.517602806
 20
84.0507937223
 30
0.0
 10
91.5187965107
 20
84.0546107978
 30
0.0
 10
91.5194257762
 20
84.0568076232
 30
0.0
 10
91.52004576
 20
84.0584115363
 30
0.0
 10
91.5201000312
 20
84.0601824534
 30
0.0
 10
91.5203697774
 20
84.0624854278
 30
0.0
 10
91.5207492883
 20
84.0665427266
 30
0.0
 10
91.5213444975
 20
84.0723250694
 30
0.0
 10
91.5219037795
 20
84.0781109988
 30
0.0
 10
91.5223335886
 20
84.0821632763
 30
0.0
 10
91.5225242947
 20
84.0844741413
 30
0.0
 10
91.5228210756
 20
84.086220849
 30
0.0
 10
91.5225303004
 20
84.0879156818
 30
0.0
 10
91.522347602
 20
84.0901935643
 30
0.0
 10
91.5219318058
 20
84.0941713138
 30
0.0
 10
91.5213925463
 20
84.0998591593
 30
0.0
 10
91.5208173443
 20
84.1055418958
 30
0.0
 10
91.5204518677
 20
84.1095267981
 30
0.0
 10
91.5201900957
 20
84.1117934404
 30
0.0
 10
91.5201419326
 20
84.11352276
 30
0.0
 10
91.51952757
 20
84.1151399508
 30
0.0
 10
91.5189059691
 20
84.1173353384
 30
0.0
 10
91.5177255976
 20
84.1211588194
 30
0.0
 10
91.5160919994
 20
84.126632306
 30
0.0
 10
91.5144241381
 20
84.1320954465
 30
0.0
 10
91.5132917348
 20
84.1359334121
 30
0.0
 10
91.5125947555
 20
84.1381060381
 30
0.0
 10
91.5122116677
 20
84.1397930657
 30
0.0
 10
91.5112949387
 20
84.1412601097
 30
0.0
 10
91.5102588244
 20
84.1432929287
 30
0.0
 10
91.5083583623
 20
84.146814321
 30
0.0
 10
91.5056931609
 20
84.1518659533
 30
0.0
 10
91.5029951953
 20
84.1569019478
 30
0.0
 10
91.5011406031
 20
84.160445233
 30
0.0
 10
91.5000324076
 20
84.1624436488
 30
0.0
 10
91.4993368371
 20
84.1640162482
 30
0.0
 10
91.4981231759
 20
84.165306857
 30
0.0
 10
91.4966857145
 20
84.1671260743
 30
0.0
 10
91.4940855626
 20
84.1702634134
 30
0.0
 10
91.4904183281
 20
84.1747730878
 30
0.0
 10
91.4867231533
 20
84.17925989
 30
0.0
 10
91.4841621178
 20
84.1824292502
 30
0.0
 10
91.4826631879
 20
84.1841981485
 30
0.0
 10
91.481638123
 20
84.1856431452
 30
0.0
 10
91.4802342686
 20
84.1866359325
 30
0.0
 10
91.4784946205
 20
84.1881174317
 30
0.0
 10
91.4753883429
 20
84.1906360682
 30
0.0
 10
91.4709857273
 20
84.1942766103
 30
0.0
 10
91.4665613086
 20
84.1978881206
 30
0.0
 10
91.4634855553
 20
84.2004474016
 30
0.0
 10
91.4616979405
 20
84.2018650309
 30
0.0
 10
91.4604412568
 20
84.2030537829
 30
0.0
 10
91.4588634843
 20
84.2037628233
 30
0.0
 10
91.4568718091
 20
84.2048755916
 30
0.0
 10
91.4533339629
 20
84.2067444251
 30
0.0
 10
91.4483090844
 20
84.2094594603
 30
0.0
 10
91.4432672931
 20
84.2121429483
 30
0.0
 10
91.4397531249
 20
84.2140559478
 30
0.0
 10
91.4377242414
 20
84.2150993125
 30
0.0
 10
91.4362606306
 20
84.2160212959
 30
0.0
 10
91.4345752064
 20
84.2164103286
 30
0.0
 10
91.4324053618
 20
84.2171149937
 30
0.0
 10
91.428571911
 20
84.2182609597
 30
0.0
 10
91.4231158298
 20
84.2199481344
 30
0.0
 10
91.417647636
 20
84.2216010787
 30
0.0
 10
91.4138311428
 20
84.2227949673
 30
0.0
 10
91.4116346506
 20
84.2234243254
 30
0.0
 10
91.4100309861
 20
84.2240444138
 30
0.0
 10
91.4082603226
 20
84.2240986548
 30
0.0
 10
91.4059577729
 20
84.2243686339
 30
0.0
 10
91.4030595713
 20
84.2246382922
 30
0.0
 10
91.3995902964
 20
84.2249909103
 30
0.0
 10
91.394961603
 20
84.2254509245
 30
0.0
 10
91.3891767703
 20
84.2260294458
 30
0.0
 10
91.3845485889
 20
84.2264911951
 30
0.0
 10
91.3822345377
 20
84.2267222032
 30
0.0
  0
SPLINE
  5
657
100
AcDbEntity
  8
0
100
AcDbSpline
 62
250
  6
CONTINUOUS
 70
0
 71
3
 72
251
 73
247
 74
0
 42
0.0000001
 43
0.0000001
 44
0.0000000001
 40
0.0
 40
0.0
 40
0.0
 40
0.0
 40
0.015625
 40
0.03125
 40
0.0390625
 40
0.046875
 40
0.05078125
 40
0.0546875
 40
0.05859375
 40
0.060546875
 40
0.0615234375
 40
0.0625
 40
0.0634765625
 40
0.064453125
 40
0.06640625
 40
0.0703125
 40
0.07421875
 40
0.078125
 40
0.0859375
 40
0.09375
 40
0.1015625
 40
0.109375
 40
0.11328125
 40
0.1171875
 40
0.12109375
 40
0.123046875
 40
0.1240234375
 40
0.125
 40
0.1259765625
 40
0.126953125
 40
0.12890625
 40
0.1328125
 40
0.13671875
 40
0.140625
 40
0.1484375
 40
0.15625
 40
0.1640625
 40
0.171875
 40
0.17578125
 40
0.1796875
 40
0.18359375
 40
0.185546875
 40
0.1865234375
 40
0.1875
 40
0.1884765625
 40
0.189453125
 40
0.19140625
 40
0.1953125
 40
0.19921875
 40
0.203125
 40
0.2109375
 40
0.21875
 40
0.2265625
 40
0.234375
 40
0.23828125
 40
0.2421875
 40
0.24609375
 40
0.248046875
 40
0.2490234375
 40
0.25
 40
0.2509765625
 40
0.251953125
 40
0.25390625
 40
0.2578125
 40
0.26171875
 40
0.265625
 40
0.2734375
 40
0.28125
 40
0.2890625
 40
0.296875
 40
0.30078125
 40
0.3046875
 40
0.30859375
 40
0.310546875
 40
0.3115234375
 40
0.3125
 40
0.3134765625
 40
0.314453125
 40
0.31640625
 40
0.3203125
 40
0.32421875
 40
0.328125
 40
0.3359375
 40
0.34375
 40
0.3515625
 40
0.359375
 40
0.36328125
 40
0.3671875
 40
0.37109375
 40
0.373046875
 40
0.3740234375
 40
0.375
 40
0.3759765625
 40
0.376953125
 40
0.37890625
 40
0.3828125
 40
0.38671875
 40
0.390625
 40
0.3984375
 40
0.40625
 40
0.4140625
 40
0.421875
 40
0.42578125
 40
0.4296875
 40
0.43359375
 40
0.435546875
 40
0.4365234375
 40
0.4375
 40
0.4384765625
 40
0.439453125
 40
0.44140625
 40
0.4453125
 40
0.44921875
 40
0.453125
 40
0.4609375
 40
0.46875
 40
0.4765625
 40
0.484375
 40
0.48828125
 40
0.4921875
 40
0.49609375
 40
0.498046875
 40
0.4990234375
 40
0.5
 40
0.5009765625
 40
0.501953125
 40
0.50390625
 40
0.5078125
 40
0.51171875
 40
0.515625
 40
0.5234375
 40
0.53125
 40
0.5390625
 40
0.546875
 40
0.55078125
 40
0.5546875
 40
0.55859375
 40
0.560546875
 40
0.5615234375
 40
0.5625
 40
0.5634765625
 40
0.564453125
 40
0.56640625
 40
0.5703125
 40
0.57421875
 40
0.578125
 40
0.5859375
 40
0.59375
 40
0.6015625
 40
0.609375
 40
0.61328125
 40
0.6171875
 40
0.62109375
 40
0.623046875
 40
0.6240234375
 40
0.625
 40
0.6259765625
 40
0.626953125
 40
0.62890625
 40
0.6328125
 40
0.63671875
 40
0.640625
 40
0.6484375
 40
0.65625
 40
0.6640625
 40
0.671875
 40
0.67578125
 40
0.6796875
 40
0.68359375
 40
0.685546875
 40
0.6865234375
 40
0.6875
 40
0.6884765625
 40
0.689453125
 40
0.69140625
 40
0.6953125
 40
0.69921875
 40
0.703125
 40
0.7109375
 40
0.71875
 40
0.7265625
 40
0.734375
 40
0.73828125
 40
0.7421875
 40
0.74609375
 40
0.748046875
 40
0.7490234375
 40
0.75
 40
0.7509765625
 40
0.751953125
 40
0.75390625
 40
0.7578125
 40
0.76171875
 40
0.765625
 40
0.7734375
 40
0.78125
 40
0.7890625
 40
0.796875
 40
0.80078125
 40
0.8046875
 40
0.80859375
 40
0.810546875
 40
0.8115234375
 40
0.8125
 40
0.8134765625
 40
0.814453125
 40
0.81640625
 40
0.8203125
 40
0.82421875
 40
0.828125
 40
0.8359375
 40
0.84375
 40
0.8515625
 40
0.859375
 40
0.86328125
 40
0.8671875
 40
0.87109375
 40
0.873046875
 40
0.8740234375
 40
0.875
 40
0.8759765625
 40
0.876953125
 40
0.87890625
 40
0.8828125
 40
0.88671875
 40
0.890625
 40
0.8984375
 40
0.90625
 40
0.9140625
 40
0.921875
 40
0.92578125
 40
0.9296875
 40
0.93359375
 40
0.935546875
 40
0.9365234375
 40
0.9375
 40
0.9384765625
 40
0.939453125
 40
0.94140625
 40
0.9453125
 40
0.94921875
 40
0.953125
 40
0.9609375
 40
0.96875
 40
0.984375
 40
1.0
 40
1.0
 40
1.0
 40
1.0
 10
91.3822345499
 20
83.7686202032
 30
0.0
 10
91.3873743733
 20
83.769124244
 30
0.0
 10
91.3976540161
 20
83.7701323462
 30
0.0
 10
91.4105035898
 20
83.7713923716
 30
0.0
 10
91.4207832062
 20
83.7724006069
 30
0.0
 10
91.4272080627
 20
83.7730302676
 30
0.0
 10
91.4323477275
 20
83.7735351096
 30
0.0
 10
91.4362030796
 20
83.7739106927
 30
0.0
 10
91.4394139532
 20
83.7742333761
 30
0.0
 10
91.4416653324
 20
83.7744402234
 30
0.0
 10
91.4429459518
 20
83.7745881373
 30
0.0
 10
91.4439229887
 20
83.7746153638
 30
0.0
 10
91.4448366779
 20
83.7749625682
 30
0.0
 10
91.4460770266
 20
83.7753138954
 30
0.0
 10
91.4482373416
 20
83.7759807202
 30
0.0
 10
91.4513288884
 20
83.7769061396
 30
0.0
 10
91.4550364406
 20
83.7780282803
 30
0.0
 10
91.4599806488
 20
83.7795204016
 30
0.0
 10
91.4661606292
 20
83.7813869572
 30
0.0
 10
91.4735767412
 20
83.7836261844
 30
0.0
 10
91.480992759
 20
83.7858657234
 30
0.0
 10
91.4871729747
 20
83.7877314994
 30
0.0
 10
91.4921167123
 20
83.7892251798
 30
0.0
 10
91.4958256999
 20
83.7903425655
 30
0.0
 10
91.4989127562
 20
83.7912828605
 30
0.0
 10
91.5010810875
 20
83.7919231302
 30
0.0
 10
91.5023085921
 20
83.7923170053
 30
0.0
 10
91.503261734
 20
83.7925335163
 30
0.0
 10
91.5040905934
 20
83.793051605
 30
0.0
 10
91.5052390904
 20
83.7936371964
 30
0.0
 10
91.507228762
 20
83.7947109928
 30
0.0
 10
91.5100817099
 20
83.7962193639
 30
0.0
 10
91.5135007273
 20
83.7980403773
 30
0.0
 10
91.5180609967
 20
83.8004645627
 30
0.0
 10
91.5237607869
 20
83.8034961179
 30
0.0
 10
91.5306007893
 20
83.8071333802
 30
0.0
 10
91.5374406494
 20
83.8107709406
 30
0.0
 10
91.5431407952
 20
83.8138017504
 30
0.0
 10
91.5477003533
 20
83.8162274266
 30
0.0
 10
91.5511215402
 20
83.8180438931
 30
0.0
 10
91.5539677009
 20
83.819566489
 30
0.0
 10
91.5559694887
 20
83.8206148919
 30
0.0
 10
91.5570985726
 20
83.82124117
 30
0.0
 10
91.5579870629
 20
83.8216342819
 30
0.0
 10
91.5587162411
 20
83.8223201851
 30
0.0
 10
91.5597440485
 20
83.8231325938
 30
0.0
 10
91.5615168205
 20
83.8246018928
 30
0.0
 10
91.5640628881
 20
83.826676014
 30
0.0
 10
91.5671123751
 20
83.8291756079
 30
0.0
 10
91.5711803827
 20
83.8325046793
 30
0.0
 10
91.5762646901
 20
83.8366673013
 30
0.0
 10
91.5823661919
 20
83.841661871
 30
0.0
 10
91.5884674855
 20
83.846656695
 30
0.0
 10
91.5935523131
 20
83.8508186814
 30
0.0
 10
91.5976192803
 20
83.8541490241
 30
0.0
 10
91.6006719405
 20
83.8566447405
 30
0.0
 10
91.603208081
 20
83.8587309921
 30
0.0
 10
91.6049985744
 20
83.8601786364
 30
0.0
 10
91.6059979877
 20
83.8610257413
 30
0.0
 10
91.6068143838
 20
83.8616050688
 30
0.0
 10
91.607375298
 20
83.8623984614
 30
0.0
 10
91.6082122986
 20
83.8633816499
 30
0.0
 10
91.6096355293
 20
83.8651370192
 30
0.0
 10
91.6116904234
 20
83.8676265012
 30
0.0
 10
91.6141470046
 20
83.8706216651
 30
0.0
 10
91.617425693
 20
83.8746124965
 30
0.0
 10
91.6215229317
 20
83.8796019746
 30
0.0
 10
91.6264401328
 20
83.8855889231
 30
0.0
 10
91.6313570699
 20
83.8915760701
 30
0.0
 10
91.6354549688
 20
83.8965650521
 30
0.0
 10
91.6387323366
 20
83.9005568756
 30
0.0
 10
91.6411929456
 20
83.9035490137
 30
0.0
 10
91.6432352391
 20
83.9060479616
 30
0.0
 10
91.6446809638
 20
83.9077864327
 30
0.0
 10
91.6454819235
 20
83.9087966963
 30
0.0
 10
91.6461535437
 20
83.909506923
 30
0.0
 10
91.6465541464
 20
83.9103986078
 30
0.0
 10
91.6471828173
 20
83.9115242263
 30
0.0
 10
91.6482389463
 20
83.9135235487
 30
0.0
 10
91.6497707293
 20
83.9163643058
 30
0.0
 10
91.6515990121
 20
83.9197798137
 30
0.0
 10
91.6540401669
 20
83.9243315185
 30
0.0
 10
91.6570904198
 20
83.9300219443
 30
0.0
 10
91.6607512713
 20
83.9368500989
 30
0.0
 10
91.6644118358
 20
83.9436784074
 30
0.0
 10
91.6674628062
 20
83.9493684484
 30
0.0
 10
91.669902526
 20
83.9539209228
 30
0.0
 10
91.6717351856
 20
83.9573340836
 30
0.0
 10
91.6732532763
 20
83.9601821835
 30
0.0
 10
91.674333848
 20
83.9621683978
 30
0.0
 10
91.6749233556
 20
83.9633150187
 30
0.0
 10
91.6754442555
 20
83.9641421908
 30
0.0
 10
91.6756640593
 20
83.9650947163
 30
0.0
 10
91.6760621568
 20
83.9663210256
 30
0.0
 10
91.676709894
 20
83.968487439
 30
0.0
 10
91.6776608159
 20
83.9715716645
 30
0.0
 10
91.6787909714
 20
83.9752772941
 30
0.0
 10
91.680301672
 20
83.9802165406
 30
0.0
 10
91.6821887255
 20
83.986391148
 30
0.0
 10
91.6844537965
 20
83.9938004297
 30
0.0
 10
91.686718556
 20
84.0012098216
 30
0.0
 10
91.6886063881
 20
84.0073841535
 30
0.0
 10
91.6901155317
 20
84.0123239512
 30
0.0
 10
91.691250436
 20
84.0160278998
 30
0.0
 10
91.6921865016
 20
84.0191173838
 30
0.0
 10
91.6928607594
 20
84.02127441
 30
0.0
 10
91.6932163642
 20
84.02251576
 30
0.0
 10
91.693566692
 20
84.0234220853
 30
0.0
 10
91.6935973659
 20
84.0244227775
 30
0.0
 10
91.6937497633
 20
84.0257241175
 30
0.0
 10
91.6939645094
 20
84.0280167988
 30
0.0
 10
91.6942984493
 20
84.0312840399
 30
0.0
 10
91.6946875516
 20
84.0352081611
 30
0.0
 10
91.6952104169
 20
84.040439124
 30
0.0
 10
91.6958625952
 20
84.0469782381
 30
0.0
 10
91.6966458522
 20
84.0548250027
 30
0.0
 10
91.6974287823
 20
84.0626717999
 30
0.0
 10
91.6980817779
 20
84.0692108325
 30
0.0
 10
91.6986030087
 20
84.0744419585
 30
0.0
 10
91.6989970962
 20
84.0783655821
 30
0.0
 10
91.6993154404
 20
84.08163438
 30
0.0
 10
91.6995580273
 20
84.083924282
 30
0.0
 10
91.6996658167
 20
84.0852300752
 30
0.0
 10
91.699833512
 20
84.0862170888
 30
0.0
 10
91.6996692104
 20
84.0871747887
 30
0.0
 10
91.6995659458
 20
84.088461947
 30
0.0
 10
91.6993312774
 20
84.0907097098
 30
0.0
 10
91.6990242454
 20
84.0939232904
 30
0.0
 10
91.6986437326
 20
84.0977785208
 30
0.0
 10
91.6981406012
 20
84.1029192008
 30
0.0
 10
91.69751023
 20
84.1093449211
 30
0.0
 10
91.6967544491
 20
84.117055849
 30
0.0
 10
91.6959983412
 20
84.1247667303
 30
0.0
 10
91.6953687876
 20
84.1311925668
 30
0.0
 10
91.694864021
 20
84.1363330143
 30
0.0
 10
91.6944884955
 20
84.1401889538
 30
0.0
 10
91.6941658611
 20
84.1434003164
 30
0.0
 10
91.6939590453
 20
84.1456520385
 30
0.0
 10
91.693811154
 20
84.1469328531
 30
0.0
 10
91.6937839316
 20
84.1479100388
 30
0.0
 10
91.6934367801
 20
84.1488238672
 30
0.0
 10
91.6930855064
 20
84.1500644048
 30
0.0
 10
91.6924187832
 20
84.1522250489
 30
0.0
 10
91.6914935047
 20
84.1553170667
 30
0.0
 10
91.6903715349
 20
84.1590251836
 30
0.0
 10
91.6888796408
 20
84.163970145
 30
0.0
 10
91.6870133695
 20
84.1701510667
 30
0.0
 10
91.6847744834
 20
84.1775683084
 30
0.0
 10
91.6825352855
 20
84.1849854559
 30
0.0
 10
91.6806697936
 20
84.191166613
 30
0.0
 10
91.6791763408
 20
84.1961111037
 30
0.0
 10
91.6780591252
 20
84.1998206562
 30
0.0
 10
91.6771189735
 20
84.2029081828
 30
0.0
 10
91.6764788013
 20
84.2050768443
 30
0.0
 10
91.6760849862
 20
84.206304536
 30
0.0
 10
91.6758685081
 20
84.207257823
 30
0.0
 10
91.6753504983
 20
84.2080868087
 30
0.0
 10
91.6747649962
 20
84.2092354806
 30
0.0
 10
91.6736913632
 20
84.2112254554
 30
0.0
 10
91.6721832219
 20
84.2140788378
 30
0.0
 10
91.6703624858
 20
84.217498376
 30
0.0
 10
91.6679386697
 20
84.2220593401
 30
0.0
 10
91.6649075762
 20
84.2277599985
 30
0.0
 10
91.6612708679
 20
84.2346010428
 30
0.0
 10
91.6576338614
 20
84.2414419449
 30
0.0
 10
91.6546035132
 20
84.247142959
 30
0.0
 10
91.6521782065
 20
84.2517032116
 30
0.0
 10
91.6503620167
 20
84.2551249197
 30
0.0
 10
91.6488396527
 20
84.2579715139
 30
0.0
 10
91.6477914095
 20
84.2599736066
 30
0.0
 10
91.6471652267
 20
84.2611028625
 30
0.0
 10
91.6467721747
 20
84.2619914881
 30
0.0
 10
91.646086376
 20
84.2627207774
 30
0.0
 10
91.645274091
 20
84.2637487414
 30
0.0
 10
91.6438050158
 20
84.2655217835
 30
0.0
 10
91.6417312105
 20
84.2680682389
 30
0.0
 10
91.6392319973
 20
84.2711181904
 30
0.0
 10
91.635903433
 20
84.2751868177
 30
0.0
 10
91.6317414449
 20
84.2802718996
 30
0.0
 10
91.6267476359
 20
84.2863743307
 30
0.0
 10
91.6217535726
 20
84.2924765538
 30
0.0
 10
91.6175922202
 20
84.2975621559
 30
0.0
 10
91.6142623847
 20
84.3016297427
 30
0.0
 10
91.6117670484
 20
84.3046828679
 30
0.0
 10
91.6096811145
 20
84.3072193947
 30
0.0
 10
91.6082336907
 20
84.3090101609
 30
0.0
 10
91.6073867148
 20
84.3100097263
 30
0.0
 10
91.6068074756
 20
84.3108262468
 30
0.0
 10
91.6060142038
 20
84.3113872465
 30
0.0
 10
91.605031165
 20
84.3122243746
 30
0.0
 10
91.6032760631
 20
84.3136478221
 30
0.0
 10
91.6007869602
 20
84.3157030292
 30
0.0
 10
91.5977922526
 20
84.3181599846
 30
0.0
 10
91.5938020289
 20
84.3214391725
 30
0.0
 10
91.5888133108
 20
84.3255370352
 30
0.0
 10
91.5828272741
 20
84.3304549854
 30
0.0
 10
91.576841039
 20
84.3353726714
 30
0.0
 10
91.5718528169
 20
84.3394711946
 30
0.0
 10
91.5678616013
 20
84.3427490616
 30
0.0
 10
91.564869919
 20
84.3452100454
 30
0.0
 10
91.5623713516
 20
84.3472526501
 30
0.0
 10
91.5606331453
 20
84.3486985949
 30
0.0
 10
91.5596230356
 20
84.3494996766
 30
0.0
 10
91.558912917
 20
84.3501713992
 30
0.0
 10
91.558021368
 20
84.3505720629
 30
0.0
 10
91.556895921
 20
84.3512008296
 30
0.0
 10
91.5548969031
 20
84.3522571194
 30
0.0
 10
91.5520565787
 20
84.3537891357
 30
0.0
 10
91.5486415909
 20
84.3556176971
 30
0.0
 10
91.5440905794
 20
84.3580592237
 30
0.0
 10
91.5384010203
 20
84.3611099413
 30
0.0
 10
91.5315739056
 20
84.3647713504
 30
0.0
 10
91.5247466371
 20
84.3684324725
 30
0.0
 10
91.5190574627
 20
84.3714839077
 30
0.0
 10
91.5145056817
 20
84.3739239991
 30
0.0
 10
91.5110930408
 20
84.3757569379
 30
0.0
 10
91.5082453747
 20
84.3772752599
 30
0.0
 10
91.5062594628
 20
84.3783559961
 30
0.0
 10
91.5051130166
 20
84.3789455935
 30
0.0
 10
91.5042859704
 20
84.3794665728
 30
0.0
 10
91.50333359
 20
84.3796864101
 30
0.0
 10
91.5021074675
 20
84.3800845682
 30
0.0
 10
91.4999413841
 20
84.3807324041
 30
0.0
 10
91.4968576283
 20
84.3816834708
 30
0.0
 10
91.4931525631
 20
84.3828137985
 30
0.0
 10
91.4882140689
 20
84.3843247292
 30
0.0
 10
91.4820404018
 20
84.3862120702
 30
0.0
 10
91.4746322486
 20
84.3884774862
 30
0.0
 10
91.4672239852
 20
84.3907425907
 30
0.0
 10
91.4610505937
 20
84.3926307103
 30
0.0
 10
91.4561115484
 20
84.3941400838
 30
0.0
 10
91.4524081639
 20
84.395275161
 30
0.0
 10
91.4493191504
 20
84.3962113692
 30
0.0
 10
91.4471624528
 20
84.3968857297
 30
0.0
 10
91.4459212918
 20
84.3972413887
 30
0.0
 10
91.4450151047
 20
84.3975917698
 30
0.0
 10
91.4440145643
 20
84.3976224484
 30
0.0
 10
91.442713422
 20
84.397774869
 30
0.0
 10
91.4404210888
 20
84.3979896478
 30
0.0
 10
91.4371543439
 20
84.3983236385
 30
0.0
 10
91.4332308187
 20
84.3987128004
 30
0.0
 10
91.4280006501
 20
84.3992357439
 30
0.0
 10
91.4214625291
 20
84.3998880328
 30
0.0
 10
91.4110017649
 20
84.4009324724
 30
0.0
 10
91.3979257304
 20
84.4022377534
 30
0.0
 10
91.3874649269
 20
84.4032820601
 30
0.0
 10
91.3822345222
 20
84.4038042032
 30
0.0
  0
SPLINE
  5
658
100
AcDbEntity
  8
0
100
AcDbSpline
 62
250
  6
CONTINUOUS
 70
0
 71
3
 72
251
 73
247
 74
0
 42
0.0000001
 43
0.0000001
 44
0.0000000001
 40
0.0
 40
0.0
 40
0.0
 40
0.0
 40
0.015625
 40
0.03125
 40
0.0390625
 40
0.046875
 40
0.05078125
 40
0.0546875
 40
0.05859375
 40
0.060546875
 40
0.0615234375
 40
0.0625
 40
0.0634765625
 40
0.064453125
 40
0.06640625
 40
0.0703125
 40
0.07421875
 40
0.078125
 40
0.0859375
 40
0.09375
 40
0.1015625
 40
0.109375
 40
0.11328125
 40
0.1171875
 40
0.12109375
 40
0.123046875
 40
0.1240234375
 40
0.125
 40
0.1259765625
 40
0.126953125
 40
0.12890625
 40
0.1328125
 40
0.13671875
 40
0.140625
 40
0.1484375
 40
0.15625
 40
0.1640625
 40
0.171875
 40
0.17578125
 40
0.1796875
 40
0.18359375
 40
0.185546875
 40
0.1865234375
 40
0.1875
 40
0.1884765625
 40
0.189453125
 40
0.19140625
 40
0.1953125
 40
0.19921875
 40
0.203125
 40
0.2109375
 40
0.21875
 40
0.2265625
 40
0.234375
 40
0.23828125
 40
0.2421875
 40
0.24609375
 40
0.248046875
 40
0.2490234375
 40
0.25
 40
0.2509765625
 40
0.251953125
 40
0.25390625
 40
0.2578125
 40
0.26171875
 40
0.265625
 40
0.2734375
 40
0.28125
 40
0.2890625
 40
0.296875
 40
0.30078125
 40
0.3046875
 40
0.30859375
 40
0.310546875
 40
0.3115234375
 40
0.3125
 40
0.3134765625
 40
0.314453125
 40
0.31640625
 40
0.3203125
 40
0.32421875
 40
0.328125
 40
0.3359375
 40
0.34375
 40
0.3515625
 40
0.359375
 40
0.36328125
 40
0.3671875
 40
0.37109375
 40
0.373046875
 40
0.3740234375
 40
0.375
 40
0.3759765625
 40
0.376953125
 40
0.37890625
 40
0.3828125
 40
0.38671875
 40
0.390625
 40
0.3984375
 40
0.40625
 40
0.4140625
 40
0.421875
 40
0.42578125
 40
0.4296875
 40
0.43359375
 40
0.435546875
 40
0.4365234375
 40
0.4375
 40
0.4384765625
 40
0.439453125
 40
0.44140625
 40
0.4453125
 40
0.44921875
 40
0.453125
 40
0.4609375
 40
0.46875
 40
0.4765625
 40
0.484375
 40
0.48828125
 40
0.4921875
 40
0.49609375
 40
0.498046875
 40
0.4990234375
 40
0.5
 40
0.5009765625
 40
0.501953125
 40
0.50390625
 40
0.5078125
 40
0.51171875
 40
0.515625
 40
0.5234375
 40
0.53125
 40
0.5390625
 40
0.546875
 40
0.55078125
 40
0.5546875
 40
0.55859375
 40
0.560546875
 40
0.5615234375
 40
0.5625
 40
0.5634765625
 40
0.564453125
 40
0.56640625
 40
0.5703125
 40
0.57421875
 40
0.578125
 40
0.5859375
 40
0.59375
 40
0.6015625
 40
0.609375
 40
0.61328125
 40
0.6171875
 40
0.62109375
 40
0.623046875
 40
0.6240234375
 40
0.625
 40
0.6259765625
 40
0.626953125
 40
0.62890625
 40
0.6328125
 40
0.63671875
 40
0.640625
 40
0.6484375
 40
0.65625
 40
0.6640625
 40
0.671875
 40
0.67578125
 40
0.6796875
 40
0.68359375
 40
0.685546875
 40
0.6865234375
 40
0.6875
 40
0.6884765625
 40
0.689453125
 40
0.69140625
 40
0.6953125
 40
0.69921875
 40
0.703125
 40
0.7109375
 40
0.71875
 40
0.7265625
 40
0.734375
 40
0.73828125
 40
0.7421875
 40
0.74609375
 40
0.748046875
 40
0.7490234375
 40
0.75
 40
0.7509765625
 40
0.751953125
 40
0.75390625
 40
0.7578125
 40
0.76171875
 40
0.765625
 40
0.7734375
 40
0.78125
 40
0.7890625
 40
0.796875
 40
0.80078125
 40
0.8046875
 40
0.80859375
 40
0.810546875
 40
0.8115234375
 40
0.8125
 40
0.8134765625
 40
0.814453125
 40
0.81640625
 40
0.8203125
 40
0.82421875
 40
0.828125
 40
0.8359375
 40
0.84375
 40
0.8515625
 40
0.859375
 40
0.86328125
 40
0.8671875
 40
0.87109375
 40
0.873046875
 40
0.8740234375
 40
0.875
 40
0.8759765625
 40
0.876953125
 40
0.87890625
 40
0.8828125
 40
0.88671875
 40
0.890625
 40
0.8984375
 40
0.90625
 40
0.9140625
 40
0.921875
 40
0.92578125
 40
0.9296875
 40
0.93359375
 40
0.935546875
 40
0.9365234375
 40
0.9375
 40
0.9384765625
 40
0.939453125
 40
0.94140625
 40
0.9453125
 40
0.94921875
 40
0.953125
 40
0.9609375
 40
0.96875
 40
0.984375
 40
1.0
 40
1.0
 40
1.0
 40
1.0
 10
91.3822345499
 20
84.4038042032
 30
0.0
 10
91.3770947265
 20
84.4033001623
 30
0.0
 10
91.3668150838
 20
84.4022920601
 30
0.0
 10
91.3539655101
 20
84.4010320348
 30
0.0
 10
91.3436858937
 20
84.4000237995
 30
0.0
 10
91.3372610372
 20
84.3993941387
 30
0.0
 10
91.3321213724
 20
84.3988892967
 30
0.0
 10
91.3282660203
 20
84.3985137137
 30
0.0
 10
91.3250551467
 20
84.3981910303
 30
0.0
 10
91.3228037675
 20
84.3979841829
 30
0.0
 10
91.3215231481
 20
84.397836269
 30
0.0
 10
91.3205461112
 20
84.3978090425
 30
0.0
 10
91.319632422
 20
84.3974618382
 30
0.0
 10
91.3183920733
 20
84.3971105109
 30
0.0
 10
91.3162317583
 20
84.3964436862
 30
0.0
 10
91.3131402115
 20
84.3955182667
 30
0.0
 10
91.3094326593
 20
84.394396126
 30
0.0
 10
91.3044884511
 20
84.3929040047
 30
0.0
 10
91.2983084707
 20
84.3910374491
 30
0.0
 10
91.2908923587
 20
84.3887982219
 30
0.0
 10
91.2834763409
 20
84.386558683
 30
0.0
 10
91.2772961252
 20
84.3846929069
 30
0.0
 10
91.2723523876
 20
84.3831992266
 30
0.0
 10
91.2686434
 20
84.3820818408
 30
0.0
 10
91.2655563437
 20
84.3811415459
 30
0.0
 10
91.2633880124
 20
84.3805012762
 30
0.0
 10
91.2621605078
 20
84.3801074011
 30
0.0
 10
91.2612073659
 20
84.37989089
 30
0.0
 10
91.2603785065
 20
84.3793728013
 30
0.0
 10
91.2592300095
 20
84.37878721
 30
0.0
 10
91.2572403379
 20
84.3777134135
 30
0.0
 10
91.25438739
 20
84.3762050424
 30
0.0
 10
91.2509683726
 20
84.374384029
 30
0.0
 10
91.2464081032
 20
84.3719598437
 30
0.0
 10
91.240708313
 20
84.3689282885
 30
0.0
 10
91.2338683106
 20
84.3652910262
 30
0.0
 10
91.2270284505
 20
84.3616534657
 30
0.0
 10
91.2213283047
 20
84.3586226559
 30
0.0
 10
91.2167687466
 20
84.3561969797
 30
0.0
 10
91.2133475597
 20
84.3543805133
 30
0.0
 10
91.210501399
 20
84.3528579174
 30
0.0
 10
91.2084996112
 20
84.3518095144
 30
0.0
 10
91.2073705273
 20
84.3511832363
 30
0.0
 10
91.206482037
 20
84.3507901244
 30
0.0
 10
91.2057528588
 20
84.3501042212
 30
0.0
 10
91.2047250514
 20
84.3492918125
 30
0.0
 10
91.2029522794
 20
84.3478225135
 30
0.0
 10
91.2004062118
 20
84.3457483924
 30
0.0
 10
91.1973567248
 20
84.3432487984
 30
0.0
 10
91.1932887172
 20
84.3399197271
 30
0.0
 10
91.1882044098
 20
84.335757105
 30
0.0
 10
91.182102908
 20
84.3307625353
 30
0.0
 10
91.1760016144
 20
84.3257677113
 30
0.0
 10
91.1709167868
 20
84.3216057249
 30
0.0
 10
91.1668498196
 20
84.3182753823
 30
0.0
 10
91.1637971594
 20
84.3157796658
 30
0.0
 10
91.1612610189
 20
84.3136934142
 30
0.0
 10
91.1594705255
 20
84.3122457699
 30
0.0
 10
91.1584711122
 20
84.311398665
 30
0.0
 10
91.1576547161
 20
84.3108193375
 30
0.0
 10
91.1570938019
 20
84.3100259449
 30
0.0
 10
91.1562568013
 20
84.3090427564
 30
0.0
 10
91.1548335706
 20
84.3072873872
 30
0.0
 10
91.1527786765
 20
84.3047979051
 30
0.0
 10
91.1503220953
 20
84.3018027413
 30
0.0
 10
91.1470434069
 20
84.2978119098
 30
0.0
 10
91.1429461682
 20
84.2928224318
 30
0.0
 10
91.1380289671
 20
84.2868354832
 30
0.0
 10
91.13311203
 20
84.2808483363
 30
0.0
 10
91.1290141311
 20
84.2758593543
 30
0.0
 10
91.1257367633
 20
84.2718675307
 30
0.0
 10
91.1232761543
 20
84.2688753927
 30
0.0
 10
91.1212338608
 20
84.2663764447
 30
0.0
 10
91.1197881361
 20
84.2646379736
 30
0.0
 10
91.1189871764
 20
84.26362771
 30
0.0
 10
91.1183155562
 20
84.2629174833
 30
0.0
 10
91.1179149535
 20
84.2620257985
 30
0.0
 10
91.1172862826
 20
84.2609001801
 30
0.0
 10
91.1162301536
 20
84.2589008576
 30
0.0
 10
91.1146983706
 20
84.2560601006
 30
0.0
 10
91.1128700878
 20
84.2526445926
 30
0.0
 10
91.110428933
 20
84.2480928878
 30
0.0
 10
91.1073786801
 20
84.242402462
 30
0.0
 10
91.1037178286
 20
84.2355743074
 30
0.0
 10
91.1000572641
 20
84.228745999
 30
0.0
 10
91.0970062937
 20
84.2230559579
 30
0.0
 10
91.0945665739
 20
84.2185034836
 30
0.0
 10
91.0927339143
 20
84.2150903228
 30
0.0
 10
91.0912158236
 20
84.2122422229
 30
0.0
 10
91.0901352519
 20
84.2102560085
 30
0.0
 10
91.0895457443
 20
84.2091093877
 30
0.0
 10
91.0890248444
 20
84.2082822155
 30
0.0
 10
91.0888050406
 20
84.20732969
 30
0.0
 10
91.0884069431
 20
84.2061033807
 30
0.0
 10
91.0877592059
 20
84.2039369673
 30
0.0
 10
91.086808284
 20
84.2008527419
 30
0.0
 10
91.0856781285
 20
84.1971471123
 30
0.0
 10
91.0841674279
 20
84.1922078658
 30
0.0
 10
91.0822803744
 20
84.1860332583
 30
0.0
 10
91.0800153034
 20
84.1786239766
 30
0.0
 10
91.0777505439
 20
84.1712145847
 30
0.0
 10
91.0758627118
 20
84.1650402528
 30
0.0
 10
91.0743535682
 20
84.1601004552
 30
0.0
 10
91.0732186639
 20
84.1563965065
 30
0.0
 10
91.0722825983
 20
84.1533070225
 30
0.0
 10
91.0716083405
 20
84.1511499963
 30
0.0
 10
91.0712527357
 20
84.1499086463
 30
0.0
 10
91.0709024079
 20
84.149002321
 30
0.0
 10
91.070871734
 20
84.1480016288
 30
0.0
 10
91.0707193366
 20
84.1467002888
 30
0.0
 10
91.0705045905
 20
84.1444076075
 30
0.0
 10
91.0701706506
 20
84.1411403664
 30
0.0
 10
91.0697815483
 20
84.1372162452
 30
0.0
 10
91.0692586829
 20
84.1319852823
 30
0.0
 10
91.0686065047
 20
84.1254461682
 30
0.0
 10
91.0678232477
 20
84.1175994036
 30
0.0
 10
91.0670403176
 20
84.1097526064
 30
0.0
 10
91.066387322
 20
84.1032135739
 30
0.0
 10
91.0658660912
 20
84.0979824478
 30
0.0
 10
91.0654720037
 20
84.0940588243
 30
0.0
 10
91.0651536595
 20
84.0907900263
 30
0.0
 10
91.0649110726
 20
84.0885001243
 30
0.0
 10
91.0648032832
 20
84.0871943311
 30
0.0
 10
91.0646355879
 20
84.0862073176
 30
0.0
 10
91.0647998895
 20
84.0852496176
 30
0.0
 10
91.0649031541
 20
84.0839624594
 30
0.0
 10
91.0651378225
 20
84.0817146965
 30
0.0
 10
91.0654448545
 20
84.078501116
 30
0.0
 10
91.0658253673
 20
84.0746458855
 30
0.0
 10
91.0663284987
 20
84.0695052055
 30
0.0
 10
91.0669588699
 20
84.0630794852
 30
0.0
 10
91.0677146508
 20
84.0553685574
 30
0.0
 10
91.0684707587
 20
84.047657676
 30
0.0
 10
91.0691003123
 20
84.0412318395
 30
0.0
 10
91.0696050789
 20
84.036091392
 30
0.0
 10
91.0699806044
 20
84.0322354526
 30
0.0
 10
91.0703032388
 20
84.0290240899
 30
0.0
 10
91.0705100545
 20
84.0267723678
 30
0.0
 10
91.0706579459
 20
84.0254915532
 30
0.0
 10
91.0706851683
 20
84.0245143675
 30
0.0
 10
91.0710323198
 20
84.0236005391
 30
0.0
 10
91.0713835935
 20
84.0223600015
 30
0.0
 10
91.0720503167
 20
84.0201993574
 30
0.0
 10
91.0729755952
 20
84.0171073397
 30
0.0
 10
91.074097565
 20
84.0133992227
 30
0.0
 10
91.0755894591
 20
84.0084542614
 30
0.0
 10
91.0774557304
 20
84.0022733396
 30
0.0
 10
91.0796946165
 20
83.994856098
 30
0.0
 10
91.0819338144
 20
83.9874389505
 30
0.0
 10
91.0837993063
 20
83.9812577933
 30
0.0
 10
91.0852927591
 20
83.9763133027
 30
0.0
 10
91.0864099747
 20
83.9726037501
 30
0.0
 10
91.0873501264
 20
83.9695162236
 30
0.0
 10
91.0879902986
 20
83.967347562
 30
0.0
 10
91.0883841137
 20
83.9661198703
 30
0.0
 10
91.0886005918
 20
83.9651665833
 30
0.0
 10
91.0891186016
 20
83.9643375976
 30
0.0
 10
91.0897041037
 20
83.9631889257
 30
0.0
 10
91.0907777367
 20
83.961198951
 30
0.0
 10
91.092285878
 20
83.9583455685
 30
0.0
 10
91.0941066141
 20
83.9549260303
 30
0.0
 10
91.0965304302
 20
83.9503650663
 30
0.0
 10
91.0995615237
 20
83.9446644078
 30
0.0
 10
91.103198232
 20
83.9378233635
 30
0.0
 10
91.1068352385
 20
83.9309824615
 30
0.0
 10
91.1098655867
 20
83.9252814473
 30
0.0
 10
91.1122908934
 20
83.9207211947
 30
0.0
 10
91.1141070832
 20
83.9172994867
 30
0.0
 10
91.1156294472
 20
83.9144528924
 30
0.0
 10
91.1166776904
 20
83.9124507997
 30
0.0
 10
91.1173038732
 20
83.9113215438
 30
0.0
 10
91.1176969252
 20
83.9104329182
 30
0.0
 10
91.1183827239
 20
83.9097036289
 30
0.0
 10
91.1191950089
 20
83.9086756649
 30
0.0
 10
91.1206640841
 20
83.9069026229
 30
0.0
 10
91.1227378894
 20
83.9043561674
 30
0.0
 10
91.1252371026
 20
83.9013062159
 30
0.0
 10
91.1285656669
 20
83.8972375886
 30
0.0
 10
91.132727655
 20
83.8921525068
 30
0.0
 10
91.137721464
 20
83.8860500756
 30
0.0
 10
91.1427155273
 20
83.8799478525
 30
0.0
 10
91.1468768797
 20
83.8748622504
 30
0.0
 10
91.1502067152
 20
83.8707946637
 30
0.0
 10
91.1527020515
 20
83.8677415385
 30
0.0
 10
91.1547879854
 20
83.8652050117
 30
0.0
 10
91.1562354092
 20
83.8634142455
 30
0.0
 10
91.1570823851
 20
83.86241468
 30
0.0
 10
91.1576616243
 20
83.8615981595
 30
0.0
 10
91.1584548961
 20
83.8610371598
 30
0.0
 10
91.1594379349
 20
83.8602000317
 30
0.0
 10
91.1611930368
 20
83.8587765842
 30
0.0
 10
91.1636821397
 20
83.8567213771
 30
0.0
 10
91.1666768473
 20
83.8542644217
 30
0.0
 10
91.170667071
 20
83.8509852339
 30
0.0
 10
91.1756557891
 20
83.8468873711
 30
0.0
 10
91.1816418258
 20
83.8419694209
 30
0.0
 10
91.1876280609
 20
83.8370517349
 30
0.0
 10
91.192616283
 20
83.8329532118
 30
0.0
 10
91.1966074986
 20
83.8296753447
 30
0.0
 10
91.1995991809
 20
83.8272143609
 30
0.0
 10
91.2020977483
 20
83.8251717563
 30
0.0
 10
91.2038359546
 20
83.8237258114
 30
0.0
 10
91.2048460643
 20
83.8229247297
 30
0.0
 10
91.2055561829
 20
83.8222530071
 30
0.0
 10
91.2064477319
 20
83.8218523434
 30
0.0
 10
91.2075731789
 20
83.8212235767
 30
0.0
 10
91.2095721968
 20
83.8201672869
 30
0.0
 10
91.2124125212
 20
83.8186352706
 30
0.0
 10
91.215827509
 20
83.8168067093
 30
0.0
 10
91.2203785205
 20
83.8143651826
 30
0.0
 10
91.2260680796
 20
83.811314465
 30
0.0
 10
91.2328951943
 20
83.8076530559
 30
0.0
 10
91.2397224628
 20
83.8039919338
 30
0.0
 10
91.2454116372
 20
83.8009404986
 30
0.0
 10
91.2499634182
 20
83.7985004072
 30
0.0
 10
91.2533760591
 20
83.7966674685
 30
0.0
 10
91.2562237252
 20
83.7951491465
 30
0.0
 10
91.2582096371
 20
83.7940684102
 30
0.0
 10
91.2593560833
 20
83.7934788128
 30
0.0
 10
91.2601831295
 20
83.7929578336
 30
0.0
 10
91.2611355099
 20
83.7927379962
 30
0.0
 10
91.2623616324
 20
83.7923398381
 30
0.0
 10
91.2645277158
 20
83.7916920023
 30
0.0
 10
91.2676114716
 20
83.7907409355
 30
0.0
 10
91.2713165368
 20
83.7896106079
 30
0.0
 10
91.276255031
 20
83.7880996772
 30
0.0
 10
91.2824286981
 20
83.7862123362
 30
0.0
 10
91.2898368513
 20
83.7839469202
 30
0.0
 10
91.2972451147
 20
83.7816818156
 30
0.0
 10
91.3034185062
 20
83.779793696
 30
0.0
 10
91.3083575515
 20
83.7782843226
 30
0.0
 10
91.312060936
 20
83.7771492453
 30
0.0
 10
91.3151499495
 20
83.7762130371
 30
0.0
 10
91.3173066471
 20
83.7755386766
 30
0.0
 10
91.3185478081
 20
83.7751830176
 30
0.0
 10
91.3194539952
 20
83.7748326365
 30
0.0
 10
91.3204545356
 20
83.7748019579
 30
0.0
 10
91.3217556779
 20
83.7746495373
 30
0.0
 10
91.3240480111
 20
83.7744347585
 30
0.0
 10
91.327314756
 20
83.7741007678
 30
0.0
 10
91.3312382812
 20
83.773711606
 30
0.0
 10
91.3364684498
 20
83.7731886624
 30
0.0
 10
91.3430065708
 20
83.7725363735
 30
0.0
 10
91.353467335
 20
83.7714919339
 30
0.0
 10
91.3665433695
 20
83.7701866529
 30
0.0
 10
91.377004173
 20
83.7691423463
 30
0.0
 10
91.3822345777
 20
83.7686202032
 30
0.0
  0
SPLINE
  5
659
100
AcDbEntity
  8
0
100
AcDbSpline
 62
250
  6
CONTINUOUS
 70
0
 71
3
 72
183
 73
179
 74
0
 42
0.0000001
 43
0.0000001
 44
0.0000000001
 40
0.0
 40
0.0
 40
0.0
 40
0.0
 40
0.015625
 40
0.03125
 40
0.0390625
 40
0.046875
 40
0.0546875
 40
0.05859375
 40
0.060546875
 40
0.0625
 40
0.064453125
 40
0.06640625
 40
0.0703125
 40
0.078125
 40
0.09375
 40
0.1015625
 40
0.109375
 40
0.1171875
 40
0.12109375
 40
0.123046875
 40
0.125
 40
0.126953125
 40
0.12890625
 40
0.1328125
 40
0.140625
 40
0.15625
 40
0.1640625
 40
0.171875
 40
0.1796875
 40
0.18359375
 40
0.185546875
 40
0.1875
 40
0.189453125
 40
0.19140625
 40
0.1953125
 40
0.203125
 40
0.2109375
 40
0.21875
 40
0.2265625
 40
0.234375
 40
0.2421875
 40
0.24609375
 40
0.248046875
 40
0.25
 40
0.251953125
 40
0.25390625
 40
0.2578125
 40
0.265625
 40
0.2734375
 40
0.28125
 40
0.296875
 40
0.3046875
 40
0.30859375
 40
0.310546875
 40
0.3125
 40
0.314453125
 40
0.31640625
 40
0.3203125
 40
0.328125
 40
0.3359375
 40
0.34375
 40
0.3515625
 40
0.359375
 40
0.3671875
 40
0.37109375
 40
0.373046875
 40
0.375
 40
0.376953125
 40
0.37890625
 40
0.3828125
 40
0.390625
 40
0.40625
 40
0.4140625
 40
0.421875
 40
0.4296875
 40
0.43359375
 40
0.435546875
 40
0.4375
 40
0.439453125
 40
0.44140625
 40
0.4453125
 40
0.453125
 40
0.4609375
 40
0.46875
 40
0.4765625
 40
0.484375
 40
0.4921875
 40
0.49609375
 40
0.498046875
 40
0.5
 40
0.501953125
 40
0.50390625
 40
0.5078125
 40
0.515625
 40
0.5234375
 40
0.53125
 40
0.546875
 40
0.5546875
 40
0.55859375
 40
0.560546875
 40
0.5625
 40
0.564453125
 40
0.56640625
 40
0.5703125
 40
0.578125
 40
0.5859375
 40
0.59375
 40
0.6015625
 40
0.609375
 40
0.6171875
 40
0.62109375
 40
0.623046875
 40
0.625
 40
0.626953125
 40
0.62890625
 40
0.6328125
 40
0.640625
 40
0.65625
 40
0.6640625
 40
0.671875
 40
0.6796875
 40
0.68359375
 40
0.685546875
 40
0.6875
 40
0.689453125
 40
0.69140625
 40
0.6953125
 40
0.703125
 40
0.7109375
 40
0.71875
 40
0.7265625
 40
0.734375
 40
0.7421875
 40
0.74609375
 40
0.748046875
 40
0.75
 40
0.751953125
 40
0.75390625
 40
0.7578125
 40
0.765625
 40
0.7734375
 40
0.78125
 40
0.796875
 40
0.8046875
 40
0.80859375
 40
0.810546875
 40
0.8125
 40
0.814453125
 40
0.81640625
 40
0.8203125
 40
0.828125
 40
0.8359375
 40
0.84375
 40
0.8515625
 40
0.859375
 40
0.8671875
 40
0.87109375
 40
0.873046875
 40
0.875
 40
0.876953125
 40
0.87890625
 40
0.8828125
 40
0.890625
 40
0.90625
 40
0.9140625
 40
0.921875
 40
0.9296875
 40
0.93359375
 40
0.935546875
 40
0.9375
 40
0.939453125
 40
0.94140625
 40
0.9453125
 40
0.953125
 40
0.9609375
 40
0.96875
 40
0.984375
 40
1.0
 40
1.0
 40
1.0
 40
1.0
 10
88.037190094
 20
84.3188432032
 30
0.0
 10
88.0403067893
 20
84.3191488444
 30
0.0
 10
88.046540154
 20
84.3197602565
 30
0.0
 10
88.0543319884
 20
84.3205238728
 30
0.0
 10
88.0605651862
 20
84.3211361285
 30
0.0
 10
88.0652408167
 20
84.3215916217
 30
0.0
 10
88.0691348471
 20
84.3219829603
 30
0.0
 10
88.0718652377
 20
84.3222338173
 30
0.0
 10
88.0734183263
 20
84.3224132017
 30
0.0
 10
88.0746032409
 20
84.3224462216
 30
0.0
 10
88.0757113303
 20
84.3228672963
 30
0.0
 10
88.0772155779
 20
84.3232933834
 30
0.0
 10
88.0798355519
 20
84.3241019752
 30
0.0
 10
88.0850843354
 20
84.3256744522
 30
0.0
 10
88.0910793159
 20
84.3274904054
 30
0.0
 10
88.0970750864
 20
84.329300942
 30
0.0
 10
88.1015731737
 20
84.3306562577
 30
0.0
 10
88.1053170522
 20
84.3317965667
 30
0.0
 10
88.1079467242
 20
84.3325730683
 30
0.0
 10
88.1094353973
 20
84.3330507449
 30
0.0
 10
88.1105913327
 20
84.3333133223
 30
0.0
 10
88.111596544
 20
84.3339416395
 30
0.0
 10
88.1129893952
 20
84.3346518329
 30
0.0
 10
88.1154024396
 20
84.3359539913
 30
0.0
 10
88.1202458825
 20
84.3385161743
 30
0.0
 10
88.125773995
 20
84.3414621237
 30
0.0
 10
88.1313040268
 20
84.3444030054
 30
0.0
 10
88.1354530435
 20
84.3466061297
 30
0.0
 10
88.1389047814
 20
84.3484526348
 30
0.0
 10
88.1413324745
 20
84.349724105
 30
0.0
 10
88.1427017865
 20
84.3504836318
 30
0.0
 10
88.1437793151
 20
84.3509603837
 30
0.0
 10
88.1446636358
 20
84.3517922221
 30
0.0
 10
88.1459101233
 20
84.3527774816
 30
0.0
 10
88.1480600749
 20
84.3545593955
 30
0.0
 10
88.1511478664
 20
84.3570748004
 30
0.0
 10
88.1548461174
 20
84.360106273
 30
0.0
 10
88.1585464722
 20
84.3631340969
 30
0.0
 10
88.1622455109
 20
84.3661635289
 30
0.0
 10
88.1659477099
 20
84.3691901772
 30
0.0
 10
88.1690234379
 20
84.371720323
 30
0.0
 10
88.1711948845
 20
84.3734759713
 30
0.0
 10
88.1724069363
 20
84.3745033094
 30
0.0
 10
88.1733970317
 20
84.3752058966
 30
0.0
 10
88.1740772882
 20
84.3761680942
 30
0.0
 10
88.1750923715
 20
84.3773604697
 30
0.0
 10
88.1768184187
 20
84.3794893143
 30
0.0
 10
88.17931048
 20
84.3825084936
 30
0.0
 10
88.1822898939
 20
84.386140811
 30
0.0
 10
88.1862653678
 20
84.3909812807
 30
0.0
 10
88.1902454292
 20
84.3958188669
 30
0.0
 10
88.193714023
 20
84.4000610434
 30
0.0
 10
88.1954672528
 20
84.4021694603
 30
0.0
 10
88.1964386362
 20
84.4033946653
 30
0.0
 10
88.197253151
 20
84.4042560036
 30
0.0
 10
88.1977389878
 20
84.4053374061
 30
0.0
 10
88.198501417
 20
84.4067025151
 30
0.0
 10
88.1997822497
 20
84.4091272214
 30
0.0
 10
88.2016399573
 20
84.4125723799
 30
0.0
 10
88.2038571615
 20
84.4167146169
 30
0.0
 10
88.2060778308
 20
84.4208545989
 30
0.0
 10
88.2082966849
 20
84.4249955543
 30
0.0
 10
88.2105193346
 20
84.4291348711
 30
0.0
 10
88.2123604035
 20
84.4325889525
 30
0.0
 10
88.2136708833
 20
84.4349977597
 30
0.0
 10
88.2143858166
 20
84.4363883398
 30
0.0
 10
88.2150175445
 20
84.4373915042
 30
0.0
 10
88.2152841166
 20
84.4385466915
 30
0.0
 10
88.215766905
 20
84.4400339187
 30
0.0
 10
88.2165525602
 20
84.4426612237
 30
0.0
 10
88.2181659305
 20
84.4478983138
 30
0.0
 10
88.2199921128
 20
84.4538909758
 30
0.0
 10
88.2218232351
 20
84.4598814118
 30
0.0
 10
88.2231994262
 20
84.4643735007
 30
0.0
 10
88.224334696
 20
84.468120296
 30
0.0
 10
88.2251524059
 20
84.470736261
 30
0.0
 10
88.225583671
 20
84.4722417248
 30
0.0
 10
88.2260085356
 20
84.4733408831
 30
0.0
 10
88.2260457358
 20
84.4745544861
 30
0.0
 10
88.226230558
 20
84.4761327039
 30
0.0
 10
88.2264909919
 20
84.4789131842
 30
0.0
 10
88.2268960012
 20
84.4828755749
 30
0.0
 10
88.2273678113
 20
84.4876346065
 30
0.0
 10
88.2278436884
 20
84.4923925458
 30
0.0
 10
88.2283174981
 20
84.4971506915
 30
0.0
 10
88.2287955106
 20
84.5019091039
 30
0.0
 10
88.229181568
 20
84.5058733866
 30
0.0
 10
88.2294757708
 20
84.5086504958
 30
0.0
 10
88.2296064937
 20
84.5102341142
 30
0.0
 10
88.2298098685
 20
84.5114311282
 30
0.0
 10
88.2296106096
 20
84.5125925919
 30
0.0
 10
88.2294853735
 20
84.5141536103
 30
0.0
 10
88.229200782
 20
84.5168796164
 30
0.0
 10
88.2288283784
 20
84.5207769205
 30
0.0
 10
88.2283670972
 20
84.5254524414
 30
0.0
 10
88.227755974
 20
84.531686683
 30
0.0
 10
88.2271501334
 20
84.5379221302
 30
0.0
 10
88.2266035847
 20
84.5433748417
 30
0.0
 10
88.2263526565
 20
84.5461056272
 30
0.0
 10
88.2261733095
 20
84.5476589543
 30
0.0
 10
88.2261402931
 20
84.5488440492
 30
0.0
 10
88.225719281
 20
84.549952307
 30
0.0
 10
88.2252932691
 20
84.5514567858
 30
0.0
 10
88.2244846894
 20
84.5540771355
 30
0.0
 10
88.2233625631
 20
84.5578270282
 30
0.0
 10
88.2220018055
 20
84.5623240711
 30
0.0
 10
88.2206450923
 20
84.5668219699
 30
0.0
 10
88.2192864075
 20
84.5713192734
 30
0.0
 10
88.2179315649
 20
84.5758181024
 30
0.0
 10
88.2167913648
 20
84.5795625374
 30
0.0
 10
88.2160149895
 20
84.5821926116
 30
0.0
 10
88.2155373848
 20
84.5836815114
 30
0.0
 10
88.2152748476
 20
84.5848376229
 30
0.0
 10
88.2146466261
 20
84.5858429873
 30
0.0
 10
88.2139365409
 20
84.5872360507
 30
0.0
 10
88.2126345808
 20
84.5896494626
 30
0.0
 10
88.210072788
 20
84.5944936434
 30
0.0
 10
88.2071272872
 20
84.6000225979
 30
0.0
 10
88.2041868535
 20
84.6055534721
 30
0.0
 10
88.2019840648
 20
84.6097031209
 30
0.0
 10
88.2001378409
 20
84.6131553846
 30
0.0
 10
88.1988665643
 20
84.6155834474
 30
0.0
 10
88.1981071532
 20
84.616952968
 30
0.0
 10
88.1976304739
 20
84.6180306607
 30
0.0
 10
88.1967987622
 20
84.6189151162
 30
0.0
 10
88.1958136528
 20
84.6201617936
 30
0.0
 10
88.1940320103
 20
84.6223120727
 30
0.0
 10
88.1915169885
 20
84.6254003345
 30
0.0
 10
88.1884859776
 20
84.6290991489
 30
0.0
 10
88.1854586148
 20
84.6328000673
 30
0.0
 10
88.1824296442
 20
84.6364996694
 30
0.0
 10
88.1794034569
 20
84.6402024325
 30
0.0
 10
88.1768736965
 20
84.643278629
 30
0.0
 10
88.1751183156
 20
84.6454504063
 30
0.0
 10
88.1740911339
 20
84.6466626427
 30
0.0
 10
88.1733886537
 20
84.647652889
 30
0.0
 10
88.1724266026
 20
84.648333249
 30
0.0
 10
88.1712344088
 20
84.649348487
 30
0.0
 10
88.1691058884
 20
84.6510747971
 30
0.0
 10
88.1660871689
 20
84.6535672381
 30
0.0
 10
88.1624554048
 20
84.6565471058
 30
0.0
 10
88.1576156723
 20
84.6605231853
 30
0.0
 10
88.1527788229
 20
84.664503853
 30
0.0
 10
88.1485372925
 20
84.6679729751
 30
0.0
 10
88.1464291967
 20
84.669726472
 30
0.0
 10
88.1452041783
 20
84.6706980033
 30
0.0
 10
88.1443429712
 20
84.6715126422
 30
0.0
 10
88.1432617334
 20
84.671998553
 30
0.0
 10
88.1418968323
 20
84.6727610984
 30
0.0
 10
88.1394724953
 20
84.6740421261
 30
0.0
 10
88.1360278615
 20
84.6759001168
 30
0.0
 10
88.1318862554
 20
84.6781176588
 30
0.0
 10
88.1277469039
 20
84.6803386663
 30
0.0
 10
88.1236065793
 20
84.6825578584
 30
0.0
 10
88.1194678929
 20
84.6847808466
 30
0.0
 10
88.1160143375
 20
84.686622196
 30
0.0
 10
88.1136058972
 20
84.6879328754
 30
0.0
 10
88.112215529
 20
84.6886479176
 30
0.0
 10
88.1112125173
 20
84.6892797418
 30
0.0
 10
88.1100575059
 20
84.6895463544
 30
0.0
 10
88.1085705052
 20
84.6900292164
 30
0.0
 10
88.1059436005
 20
84.6908149913
 30
0.0
 10
88.100707308
 20
84.6924286074
 30
0.0
 10
88.0947155587
 20
84.6942550678
 30
0.0
 10
88.088726035
 20
84.6960864691
 30
0.0
 10
88.0842346303
 20
84.6974628697
 30
0.0
 10
88.0804884056
 20
84.6985983126
 30
0.0
 10
88.0778728391
 20
84.699416147
 30
0.0
 10
88.0763676045
 20
84.6998474778
 30
0.0
 10
88.0752686138
 20
84.7002724071
 30
0.0
 10
88.0740551949
 20
84.700309613
 30
0.0
 10
88.0724772169
 20
84.7004944632
 30
0.0
 10
88.0696971588
 20
84.7007549391
 30
0.0
 10
88.0657353697
 20
84.7011599909
 30
0.0
 10
88.0609770612
 20
84.7016319518
 30
0.0
 10
88.054634104
 20
84.7022661605
 30
0.0
 10
88.0467049052
 20
84.7030572193
 30
0.0
 10
88.0403616993
 20
84.7036905851
 30
0.0
 10
88.0371900772
 20
84.7040072032
 30
0.0
  0
SPLINE
  5
65A
100
AcDbEntity
  8
0
100
AcDbSpline
 62
250
  6
CONTINUOUS
 70
0
 71
3
 72
183
 73
179
 74
0
 42
0.0000001
 43
0.0000001
 44
0.0000000001
 40
0.0
 40
0.0
 40
0.0
 40
0.0
 40
0.015625
 40
0.03125
 40
0.0390625
 40
0.046875
 40
0.0546875
 40
0.05859375
 40
0.060546875
 40
0.0625
 40
0.064453125
 40
0.06640625
 40
0.0703125
 40
0.078125
 40
0.09375
 40
0.1015625
 40
0.109375
 40
0.1171875
 40
0.12109375
 40
0.123046875
 40
0.125
 40
0.126953125
 40
0.12890625
 40
0.1328125
 40
0.140625
 40
0.15625
 40
0.1640625
 40
0.171875
 40
0.1796875
 40
0.18359375
 40
0.185546875
 40
0.1875
 40
0.189453125
 40
0.19140625
 40
0.1953125
 40
0.203125
 40
0.2109375
 40
0.21875
 40
0.2265625
 40
0.234375
 40
0.2421875
 40
0.24609375
 40
0.248046875
 40
0.25
 40
0.251953125
 40
0.25390625
 40
0.2578125
 40
0.265625
 40
0.2734375
 40
0.28125
 40
0.296875
 40
0.3046875
 40
0.30859375
 40
0.310546875
 40
0.3125
 40
0.314453125
 40
0.31640625
 40
0.3203125
 40
0.328125
 40
0.3359375
 40
0.34375
 40
0.3515625
 40
0.359375
 40
0.3671875
 40
0.37109375
 40
0.373046875
 40
0.375
 40
0.376953125
 40
0.37890625
 40
0.3828125
 40
0.390625
 40
0.40625
 40
0.4140625
 40
0.421875
 40
0.4296875
 40
0.43359375
 40
0.435546875
 40
0.4375
 40
0.439453125
 40
0.44140625
 40
0.4453125
 40
0.453125
 40
0.4609375
 40
0.46875
 40
0.4765625
 40
0.484375
 40
0.4921875
 40
0.49609375
 40
0.498046875
 40
0.5
 40
0.501953125
 40
0.50390625
 40
0.5078125
 40
0.515625
 40
0.5234375
 40
0.53125
 40
0.546875
 40
0.5546875
 40
0.55859375
 40
0.560546875
 40
0.5625
 40
0.564453125
 40
0.56640625
 40
0.5703125
 40
0.578125
 40
0.5859375
 40
0.59375
 40
0.6015625
 40
0.609375
 40
0.6171875
 40
0.62109375
 40
0.623046875
 40
0.625
 40
0.626953125
 40
0.62890625
 40
0.6328125
 40
0.640625
 40
0.65625
 40
0.6640625
 40
0.671875
 40
0.6796875
 40
0.68359375
 40
0.685546875
 40
0.6875
 40
0.689453125
 40
0.69140625
 40
0.6953125
 40
0.703125
 40
0.7109375
 40
0.71875
 40
0.7265625
 40
0.734375
 40
0.7421875
 40
0.74609375
 40
0.748046875
 40
0.75
 40
0.751953125
 40
0.75390625
 40
0.7578125
 40
0.765625
 40
0.7734375
 40
0.78125
 40
0.796875
 40
0.8046875
 40
0.80859375
 40
0.810546875
 40
0.8125
 40
0.814453125
 40
0.81640625
 40
0.8203125
 40
0.828125
 40
0.8359375
 40
0.84375
 40
0.8515625
 40
0.859375
 40
0.8671875
 40
0.87109375
 40
0.873046875
 40
0.875
 40
0.876953125
 40
0.87890625
 40
0.8828125
 40
0.890625
 40
0.90625
 40
0.9140625
 40
0.921875
 40
0.9296875
 40
0.93359375
 40
0.935546875
 40
0.9375
 40
0.939453125
 40
0.94140625
 40
0.9453125
 40
0.953125
 40
0.9609375
 40
0.96875
 40
0.984375
 40
1.0
 40
1.0
 40
1.0
 40
1.0
 10
88.037190094
 20
84.7040072032
 30
0.0
 10
88.0340733988
 20
84.703701562
 30
0.0
 10
88.027840034
 20
84.7030901498
 30
0.0
 10
88.0200481996
 20
84.7023265335
 30
0.0
 10
88.0138150019
 20
84.7017142778
 30
0.0
 10
88.0091393713
 20
84.7012587847
 30
0.0
 10
88.0052453409
 20
84.700867446
 30
0.0
 10
88.0025149504
 20
84.700616589
 30
0.0
 10
88.0009618617
 20
84.7004372046
 30
0.0
 10
87.9997769471
 20
84.7004041847
 30
0.0
 10
87.9986688577
 20
84.69998311
 30
0.0
 10
87.9971646102
 20
84.6995570229
 30
0.0
 10
87.9945446361
 20
84.6987484311
 30
0.0
 10
87.9892958527
 20
84.6971759541
 30
0.0
 10
87.9833008721
 20
84.6953600009
 30
0.0
 10
87.9773051017
 20
84.6935494644
 30
0.0
 10
87.9728070143
 20
84.6921941486
 30
0.0
 10
87.9690631359
 20
84.6910538396
 30
0.0
 10
87.9664334639
 20
84.690277338
 30
0.0
 10
87.9649447908
 20
84.6897996614
 30
0.0
 10
87.9637888554
 20
84.689537084
 30
0.0
 10
87.9627836441
 20
84.6889087669
 30
0.0
 10
87.9613907928
 20
84.6881985734
 30
0.0
 10
87.9589777485
 20
84.6868964151
 30
0.0
 10
87.9541343055
 20
84.684334232
 30
0.0
 10
87.9486061931
 20
84.6813882826
 30
0.0
 10
87.9430761613
 20
84.6784474009
 30
0.0
 10
87.9389271445
 20
84.6762442767
 30
0.0
 10
87.9354754066
 20
84.6743977716
 30
0.0
 10
87.9330477136
 20
84.6731263013
 30
0.0
 10
87.9316784016
 20
84.6723667745
 30
0.0
 10
87.930600873
 20
84.6718900226
 30
0.0
 10
87.9297165523
 20
84.6710581842
 30
0.0
 10
87.9284700647
 20
84.6700729247
 30
0.0
 10
87.9263201131
 20
84.6682910108
 30
0.0
 10
87.9232323217
 20
84.6657756059
 30
0.0
 10
87.9195340706
 20
84.6627441333
 30
0.0
 10
87.9158337159
 20
84.6597163094
 30
0.0
 10
87.9121346772
 20
84.6566868774
 30
0.0
 10
87.9084324781
 20
84.6536602291
 30
0.0
 10
87.9053567501
 20
84.6511300833
 30
0.0
 10
87.9031853036
 20
84.6493744351
 30
0.0
 10
87.9019732518
 20
84.6483470969
 30
0.0
 10
87.9009831563
 20
84.6476445097
 30
0.0
 10
87.9003028999
 20
84.6466823121
 30
0.0
 10
87.8992878166
 20
84.6454899366
 30
0.0
 10
87.8975617694
 20
84.643361092
 30
0.0
 10
87.895069708
 20
84.6403419127
 30
0.0
 10
87.8920902941
 20
84.6367095953
 30
0.0
 10
87.8881148203
 20
84.6318691256
 30
0.0
 10
87.8841347588
 20
84.6270315394
 30
0.0
 10
87.8806661651
 20
84.6227893629
 30
0.0
 10
87.8789129353
 20
84.620680946
 30
0.0
 10
87.8779415519
 20
84.619455741
 30
0.0
 10
87.877127037
 20
84.6185944028
 30
0.0
 10
87.8766412003
 20
84.6175130003
 30
0.0
 10
87.8758787711
 20
84.6161478912
 30
0.0
 10
87.8745979384
 20
84.6137231849
 30
0.0
 10
87.8727402308
 20
84.6102780264
 30
0.0
 10
87.8705230265
 20
84.6061357894
 30
0.0
 10
87.8683023573
 20
84.6019958074
 30
0.0
 10
87.8660835031
 20
84.597854852
 30
0.0
 10
87.8638608535
 20
84.5937155353
 30
0.0
 10
87.8620197845
 20
84.5902614538
 30
0.0
 10
87.8607093047
 20
84.5878526466
 30
0.0
 10
87.8599943715
 20
84.5864620666
 30
0.0
 10
87.8593626435
 20
84.5854589021
 30
0.0
 10
87.8590960715
 20
84.5843037148
 30
0.0
 10
87.858613283
 20
84.5828164876
 30
0.0
 10
87.8578276278
 20
84.5801891827
 30
0.0
 10
87.8562142575
 20
84.5749520926
 30
0.0
 10
87.8543880753
 20
84.5689594305
 30
0.0
 10
87.8525569529
 20
84.5629689945
 30
0.0
 10
87.8511807619
 20
84.5584769057
 30
0.0
 10
87.850045492
 20
84.5547301103
 30
0.0
 10
87.8492277821
 20
84.5521141453
 30
0.0
 10
87.8487965171
 20
84.5506086815
 30
0.0
 10
87.8483716524
 20
84.5495095232
 30
0.0
 10
87.8483344522
 20
84.5482959202
 30
0.0
 10
87.84814963
 20
84.5467177025
 30
0.0
 10
87.8478891962
 20
84.5439372221
 30
0.0
 10
87.8474841868
 20
84.5399748314
 30
0.0
 10
87.8470123768
 20
84.5352157998
 30
0.0
 10
87.8465364996
 20
84.5304578605
 30
0.0
 10
87.8460626899
 20
84.5256997148
 30
0.0
 10
87.8455846774
 20
84.5209413025
 30
0.0
 10
87.8451986201
 20
84.5169770198
 30
0.0
 10
87.8449044172
 20
84.5141999105
 30
0.0
 10
87.8447736943
 20
84.5126162921
 30
0.0
 10
87.8445703196
 20
84.5114192781
 30
0.0
 10
87.8447695785
 20
84.5102578145
 30
0.0
 10
87.8448948146
 20
84.508696796
 30
0.0
 10
87.8451794061
 20
84.50597079
 30
0.0
 10
87.8455518096
 20
84.5020734859
 30
0.0
 10
87.8460130909
 20
84.4973979649
 30
0.0
 10
87.846624214
 20
84.4911637233
 30
0.0
 10
87.8472300546
 20
84.4849282761
 30
0.0
 10
87.8477766034
 20
84.4794755646
 30
0.0
 10
87.8480275315
 20
84.4767447791
 30
0.0
 10
87.8482068785
 20
84.475191452
 30
0.0
 10
87.8482398949
 20
84.4740063572
 30
0.0
 10
87.848660907
 20
84.4728980993
 30
0.0
 10
87.849086919
 20
84.4713936205
 30
0.0
 10
87.8498954987
 20
84.4687732708
 30
0.0
 10
87.8510176249
 20
84.4650233781
 30
0.0
 10
87.8523783825
 20
84.4605263352
 30
0.0
 10
87.8537350957
 20
84.4560284364
 30
0.0
 10
87.8550937806
 20
84.451531133
 30
0.0
 10
87.8564486231
 20
84.447032304
 30
0.0
 10
87.8575888232
 20
84.4432878689
 30
0.0
 10
87.8583651986
 20
84.4406577947
 30
0.0
 10
87.8588428032
 20
84.439168895
 30
0.0
 10
87.8591053404
 20
84.4380127834
 30
0.0
 10
87.8597335619
 20
84.437007419
 30
0.0
 10
87.8604436472
 20
84.4356143556
 30
0.0
 10
87.8617456073
 20
84.4332009437
 30
0.0
 10
87.8643074001
 20
84.4283567629
 30
0.0
 10
87.8672529008
 20
84.4228278084
 30
0.0
 10
87.8701933346
 20
84.4172969342
 30
0.0
 10
87.8723961233
 20
84.4131472855
 30
0.0
 10
87.8742423471
 20
84.4096950218
 30
0.0
 10
87.8755136238
 20
84.4072669589
 30
0.0
 10
87.8762730348
 20
84.4058974383
 30
0.0
 10
87.8767497141
 20
84.4048197456
 30
0.0
 10
87.8775814258
 20
84.4039352902
 30
0.0
 10
87.8785665353
 20
84.4026886128
 30
0.0
 10
87.8803481778
 20
84.4005383337
 30
0.0
 10
87.8828631996
 20
84.3974500718
 30
0.0
 10
87.8858942105
 20
84.3937512574
 30
0.0
 10
87.8889215732
 20
84.3900503391
 30
0.0
 10
87.8919505438
 20
84.3863507369
 30
0.0
 10
87.8949767311
 20
84.3826479739
 30
0.0
 10
87.8975064916
 20
84.3795717773
 30
0.0
 10
87.8992618725
 20
84.3774000001
 30
0.0
 10
87.9002890542
 20
84.3761877636
 30
0.0
 10
87.9009915344
 20
84.3751975173
 30
0.0
 10
87.9019535854
 20
84.3745171573
 30
0.0
 10
87.9031457793
 20
84.3735019193
 30
0.0
 10
87.9052742997
 20
84.3717756092
 30
0.0
 10
87.9082930191
 20
84.3692831682
 30
0.0
 10
87.9119247833
 20
84.3663033005
 30
0.0
 10
87.9167645157
 20
84.3623272211
 30
0.0
 10
87.9216013652
 20
84.3583465533
 30
0.0
 10
87.9258428956
 20
84.3548774313
 30
0.0
 10
87.9279509914
 20
84.3531239343
 30
0.0
 10
87.9291760098
 20
84.352152403
 30
0.0
 10
87.9300372168
 20
84.3513377641
 30
0.0
 10
87.9311184546
 20
84.3508518533
 30
0.0
 10
87.9324833557
 20
84.350089308
 30
0.0
 10
87.9349076927
 20
84.3488082802
 30
0.0
 10
87.9383523265
 20
84.3469502896
 30
0.0
 10
87.9424939327
 20
84.3447327476
 30
0.0
 10
87.9466332841
 20
84.3425117401
 30
0.0
 10
87.9507736088
 20
84.3402925479
 30
0.0
 10
87.9549122952
 20
84.3380695597
 30
0.0
 10
87.9583658506
 20
84.3362282103
 30
0.0
 10
87.9607742909
 20
84.3349175309
 30
0.0
 10
87.9621646591
 20
84.3342024887
 30
0.0
 10
87.9631676707
 20
84.3335706645
 30
0.0
 10
87.9643226822
 20
84.3333040519
 30
0.0
 10
87.9658096828
 20
84.3328211899
 30
0.0
 10
87.9684365876
 20
84.332035415
 30
0.0
 10
87.9736728801
 20
84.330421799
 30
0.0
 10
87.9796646294
 20
84.3285953385
 30
0.0
 10
87.985654153
 20
84.3267639373
 30
0.0
 10
87.9901455577
 20
84.3253875366
 30
0.0
 10
87.9938917825
 20
84.3242520938
 30
0.0
 10
87.996507349
 20
84.3234342593
 30
0.0
 10
87.9980125835
 20
84.3230029286
 30
0.0
 10
87.9991115743
 20
84.3225779992
 30
0.0
 10
88.0003249931
 20
84.3225407933
 30
0.0
 10
88.0019029712
 20
84.3223559432
 30
0.0
 10
88.0046830293
 20
84.3220954673
 30
0.0
 10
88.0086448183
 20
84.3216904154
 30
0.0
 10
88.0134031269
 20
84.3212184545
 30
0.0
 10
88.0197460841
 20
84.3205842459
 30
0.0
 10
88.0276752828
 20
84.319793187
 30
0.0
 10
88.0340184888
 20
84.3191598212
 30
0.0
 10
88.0371901109
 20
84.3188432032
 30
0.0
  0
SPLINE
  5
65B
100
AcDbEntity
  8
CURVE
100
AcDbSpline
 62
7
420
4080451
  6
CONTINUOUS
 70
0
 71
3
 72
17
 73
13
 74
0
 42
0.0000001
 43
0.0000001
 44
0.0000000001
 40
0.0
 40
0.0
 40
0.0
 40
0.0
 40
0.1428571429
 40
0.2857142857
 40
0.4285714286
 40
0.5714285714
 40
0.6428571429
 40
0.7142857143
 40
0.7857142857
 40
0.8571428571
 40
0.9285714286
 40
1.0
 40
1.0
 40
1.0
 40
1.0
 10
96.6617727996
 20
76.2215122032
 30
0.0
 10
96.6617727996
 20
76.4836544703
 30
0.0
 10
96.6886568476
 20
76.9861984745
 30
0.0
 10
96.7952234954
 20
77.6750809957
 30
0.0
 10
96.9622426144
 20
78.2982930852
 30
0.0
 10
97.1510626756
 20
78.7570672855
 30
0.0
 10
97.3357754934
 20
79.0817550909
 30
0.0
 10
97.4913760902
 20
79.2989225101
 30
0.0
 10
97.6689993048
 20
79.4882442074
 30
0.0
 10
97.8663955235
 20
79.6369761573
 30
0.0
 10
98.0818595457
 20
79.7340143171
 30
0.0
 10
98.232038098
 20
79.7576957186
 30
0.0
 10
98.3114891391
 20
79.7576957186
 30
0.0
  0
SPLINE
  5
65C
100
AcDbEntity
  8
CURVE
100
AcDbSpline
 62
7
420
4080451
  6
CONTINUOUS
 70
0
 71
3
 72
21
 73
17
 74
0
 42
0.0000001
 43
0.0000001
 44
0.0000000001
 40
0.0
 40
0.0
 40
0.0
 40
0.0
 40
0.0178571429
 40
0.0357142857
 40
0.0535714286
 40
0.0714285714
 40
0.1071428571
 40
0.1428571429
 40
0.2142857143
 40
0.2857142857
 40
0.3571428571
 40
0.4285714286
 40
0.5714285714
 40
0.7142857143
 40
0.8571428571
 40
1.0
 40
1.0
 40
1.0
 40
1.0
 10
98.3114891391
 20
72.6853286877
 30
0.0
 10
98.2919570011
 20
72.6853286877
 30
0.0
 10
98.2551103081
 20
72.6867436773
 30
0.0
 10
98.1981797627
 20
72.6930048277
 30
0.0
 10
98.1421461273
 20
72.7033216046
 30
0.0
 10
98.0681759472
 20
72.7224149434
 30
0.0
 10
97.977752163
 20
72.755846691
 30
0.0
 10
97.8388473791
 20
72.8275711268
 30
0.0
 10
97.673425632
 20
72.950664794
 30
0.0
 10
97.4949905836
 20
73.1395604923
 30
0.0
 10
97.3369477075
 20
73.3591291195
 30
0.0
 10
97.1501696855
 20
73.6876149829
 30
0.0
 10
96.9627295085
 20
74.1438122081
 30
0.0
 10
96.7955919473
 20
74.7660286109
 30
0.0
 10
96.6887716695
 20
75.4554543524
 30
0.0
 10
96.6617727996
 20
75.9588060555
 30
0.0
 10
96.6617727996
 20
76.2215122032
 30
0.0
  0
SPLINE
  5
65D
100
AcDbEntity
  8
CURVE
100
AcDbSpline
 62
7
420
4080451
  6
CONTINUOUS
 70
0
 71
3
 72
17
 73
13
 74
0
 42
0.0000001
 43
0.0000001
 44
0.0000000001
 40
0.0
 40
0.0
 40
0.0
 40
0.0
 40
0.1428571429
 40
0.2857142857
 40
0.4285714286
 40
0.5714285714
 40
0.6428571429
 40
0.7142857143
 40
0.7857142857
 40
0.8571428571
 40
0.9285714286
 40
1.0
 40
1.0
 40
1.0
 40
1.0
 10
99.9612054786
 20
76.2215122032
 30
0.0
 10
99.9612054786
 20
75.959369936
 30
0.0
 10
99.9343214306
 20
75.4568259318
 30
0.0
 10
99.8277547828
 20
74.7679434106
 30
0.0
 10
99.6607356638
 20
74.1447313211
 30
0.0
 10
99.4719156026
 20
73.6859571208
 30
0.0
 10
99.2872027848
 20
73.3612693154
 30
0.0
 10
99.131602188
 20
73.1441018962
 30
0.0
 10
98.9539789734
 20
72.9547801989
 30
0.0
 10
98.7565827547
 20
72.806048249
 30
0.0
 10
98.5411187325
 20
72.7090100892
 30
0.0
 10
98.3909401802
 20
72.6853286877
 30
0.0
 10
98.3114891391
 20
72.6853286877
 30
0.0
  0
SPLINE
  5
65E
100
AcDbEntity
  8
CURVE
100
AcDbSpline
 62
7
420
4080451
  6
CONTINUOUS
 70
0
 71
3
 72
21
 73
17
 74
0
 42
0.0000001
 43
0.0000001
 44
0.0000000001
 40
0.0
 40
0.0
 40
0.0
 40
0.0
 40
0.0178571429
 40
0.0357142857
 40
0.0535714286
 40
0.0714285714
 40
0.1071428571
 40
0.1428571429
 40
0.2142857143
 40
0.2857142857
 40
0.3571428571
 40
0.4285714286
 40
0.5714285714
 40
0.7142857143
 40
0.8571428571
 40
1.0
 40
1.0
 40
1.0
 40
1.0
 10
98.3114891391
 20
79.7576957186
 30
0.0
 10
98.3310212771
 20
79.7576957186
 30
0.0
 10
98.3678679701
 20
79.756280729
 30
0.0
 10
98.4247985155
 20
79.7500195786
 30
0.0
 10
98.480832151
 20
79.7397028017
 30
0.0
 10
98.554802331
 20
79.720609463
 30
0.0
 10
98.6452261152
 20
79.6871777154
 30
0.0
 10
98.7841308991
 20
79.6154532796
 30
0.0
 10
98.9495526462
 20
79.4923596123
 30
0.0
 10
99.1279876946
 20
79.3034639141
 30
0.0
 10
99.2860305707
 20
79.0838952868
 30
0.0
 10
99.4728085927
 20
78.7554094234
 30
0.0
 10
99.6602487697
 20
78.2992121982
 30
0.0
 10
99.8273863309
 20
77.6769957954
 30
0.0
 10
99.9342066087
 20
76.9875700539
 30
0.0
 10
99.9612054786
 20
76.4842183508
 30
0.0
 10
99.9612054786
 20
76.2215122032
 30
0.0
  0
SPLINE
  5
65F
100
AcDbEntity
  8
CURVE
100
AcDbSpline
 62
7
420
4080451
  6
CONTINUOUS
 70
0
 71
3
 72
28
 73
24
 74
0
 42
0.0000001
 43
0.0000001
 44
0.0000000001
 40
0.0
 40
0.0
 40
0.0
 40
0.0
 40
0.0714285714
 40
0.1428571429
 40
0.2142857143
 40
0.25
 40
0.2857142857
 40
0.3214285714
 40
0.3571428571
 40
0.3928571429
 40
0.4285714286
 40
0.4642857143
 40
0.5
 40
0.5357142857
 40
0.5714285714
 40
0.6071428571
 40
0.6428571429
 40
0.6785714286
 40
0.7142857143
 40
0.7857142857
 40
0.8571428571
 40
0.9285714286
 40
1.0
 40
1.0
 40
1.0
 40
1.0
 10
98.809228522
 20
78.8096210572
 30
0.0
 10
98.7914677565
 20
78.8378240747
 30
0.0
 10
98.754760727
 20
78.8922664235
 30
0.0
 10
98.6929711527
 20
78.97033892
 30
0.0
 10
98.6348094397
 20
79.0305692857
 30
0.0
 10
98.5833528899
 20
79.0742909514
 30
0.0
 10
98.5421359943
 20
79.1042268383
 30
0.0
 10
98.4966613156
 20
79.1313776401
 30
0.0
 10
98.4468962939
 20
79.154065084
 30
0.0
 10
98.3942440377
 20
79.1702727686
 30
0.0
 10
98.340886158
 20
79.1786643915
 30
0.0
 10
98.2848367738
 20
79.1790845947
 30
0.0
 10
98.2261708958
 20
79.1699408304
 30
0.0
 10
98.1698125826
 20
79.1517379217
 30
0.0
 10
98.1194619148
 20
79.1276551614
 30
0.0
 10
98.0754807031
 20
79.1005967101
 30
0.0
 10
98.0346195788
 20
79.0702986836
 30
0.0
 10
97.9964594792
 20
79.0373030195
 30
0.0
 10
97.9481494645
 20
78.9897296057
 30
0.0
 10
97.8924868704
 20
78.9247606708
 30
0.0
 10
97.8321989038
 20
78.8404330376
 30
0.0
 10
97.7773488903
 20
78.7510350191
 30
0.0
 10
97.7439002161
 20
78.688713157
 30
0.0
 10
97.7277193637
 20
78.6566853215
 30
0.0
  0
SPLINE
  5
660
100
AcDbEntity
  8
CURVE
100
AcDbSpline
 62
7
420
4080451
  6
CONTINUOUS
 70
0
 71
3
 72
22
 73
18
 74
0
 42
0.0000001
 43
0.0000001
 44
0.0000000001
 40
0.0
 40
0.0
 40
0.0
 40
0.0
 40
0.0416666667
 40
0.0833333333
 40
0.125
 40
0.1666666667
 40
0.25
 40
0.3333333333
 40
0.5
 40
0.5833333333
 40
0.6666666667
 40
0.75
 40
0.8333333333
 40
0.875
 40
0.9166666667
 40
0.9583333333
 40
1.0
 40
1.0
 40
1.0
 40
1.0
 10
97.6781571023
 20
75.3498582032
 30
0.0
 10
97.6695629513
 20
75.3498582032
 30
0.0
 10
97.6539395453
 20
75.3491849186
 30
0.0
 10
97.6299094227
 20
75.3462982105
 30
0.0
 10
97.6068445552
 20
75.341664488
 30
0.0
 10
97.5769783192
 20
75.3333173678
 30
0.0
 10
97.541614007
 20
75.3189892247
 30
0.0
 10
97.4901646887
 20
75.2888871747
 30
0.0
 10
97.4443396272
 20
75.2459148702
 30
0.0
 10
97.4095092887
 20
75.193784763
 30
0.0
 10
97.3903919334
 20
75.1530262245
 30
0.0
 10
97.3778662702
 20
75.1114740975
 30
0.0
 10
97.3722819275
 20
75.0754638925
 30
0.0
 10
97.3708799164
 20
75.0461554545
 30
0.0
 10
97.3713728436
 20
75.0240405736
 30
0.0
 10
97.3735492304
 20
75.00149208
 30
0.0
 10
97.375970853
 20
74.9871681569
 30
0.0
 10
97.3776222841
 20
74.9793243327
 30
0.0
  0
SPLINE
  5
661
100
AcDbEntity
  8
CURVE
100
AcDbSpline
 62
7
420
4080451
  6
CONTINUOUS
 70
0
 71
3
 72
9
 73
5
 74
0
 42
0.0000001
 43
0.0000001
 44
0.0000000001
 40
0.0
 40
0.0
 40
0.0
 40
0.0
 40
0.5
 40
1.0
 40
1.0
 40
1.0
 40
1.0
 10
98.4870126607
 20
75.1194422032
 30
0.0
 10
98.4870126607
 20
75.1897136872
 30
0.0
 10
98.432459885
 20
75.2942448589
 30
0.0
 10
98.3273801988
 20
75.3498582032
 30
0.0
 10
98.2566668423
 20
75.3498582032
 30
0.0
  0
SPLINE
  5
662
100
AcDbEntity
  8
0
100
AcDbSpline
 62
250
  6
CONTINUOUS
 70
0
 71
3
 72
19
 73
15
 74
0
 42
0.0000001
 43
0.0000001
 44
0.0000000001
 40
0.0
 40
0.0
 40
0.0
 40
0.0
 40
0.0833333333
 40
0.1666666667
 40
0.25
 40
0.3333333333
 40
0.4166666667
 40
0.5
 40
0.5833333333
 40
0.6666666667
 40
0.75
 40
0.8333333333
 40
0.9166666667
 40
1.0
 40
1.0
 40
1.0
 40
1.0
 10
96.4194123487
 20
65.725488681
 30
0.0
 10
96.4237416104
 20
65.7292921822
 30
0.0
 10
96.4318515904
 20
65.73721557
 30
0.0
 10
96.4429854153
 20
65.750502338
 30
0.0
 10
96.4528552504
 20
65.7648750801
 30
0.0
 10
96.4613406438
 20
65.7802396611
 30
0.0
 10
96.4690201355
 20
65.7963722104
 30
0.0
 10
96.4766604561
 20
65.8129109443
 30
0.0
 10
96.4832867976
 20
65.8301026119
 30
0.0
 10
96.4881328043
 20
65.8480417039
 30
0.0
 10
96.4914545841
 20
65.8664941589
 30
0.0
 10
96.4934159804
 20
65.8854256702
 30
0.0
 10
96.4941635662
 20
65.9048579829
 30
0.0
 10
96.4939711526
 20
65.9179012004
 30
0.0
 10
96.4937239101
 20
65.92464936
 30
0.0
  0
SPLINE
  5
663
100
AcDbEntity
  8
0
100
AcDbSpline
 62
250
  6
CONTINUOUS
 70
0
 71
3
 72
18
 73
14
 74
0
 42
0.0000001
 43
0.0000001
 44
0.0000000001
 40
0.0
 40
0.0
 40
0.0
 40
0.0
 40
0.1666666667
 40
0.25
 40
0.3333333333
 40
0.4166666667
 40
0.5
 40
0.5833333333
 40
0.6666666667
 40
0.75
 40
0.8333333333
 40
0.9166666667
 40
1.0
 40
1.0
 40
1.0
 40
1.0
 10
95.6488213869
 20
64.9695607285
 30
0.0
 10
95.6484184642
 20
64.9831021846
 30
0.0
 10
95.6490695057
 20
65.0026904656
 30
0.0
 10
95.6524515935
 20
65.0283404252
 30
0.0
 10
95.6562699523
 20
65.0470652003
 30
0.0
 10
95.6614119357
 20
65.0653627268
 30
0.0
 10
95.6679718396
 20
65.0831037527
 30
0.0
 10
95.6755556221
 20
65.1002567799
 30
0.0
 10
95.6835762181
 20
65.1169037435
 30
0.0
 10
95.6924934037
 20
65.1328044423
 30
0.0
 10
95.7026798889
 20
65.1478107175
 30
0.0
 10
95.7139826872
 20
65.1619212845
 30
0.0
 10
95.7221056254
 20
65.1705927058
 30
0.0
 10
95.7264072126
 20
65.174842858
 30
0.0
  0
SPLINE
  5
664
100
AcDbEntity
  8
0
100
AcDbSpline
 62
250
  6
CONTINUOUS
 70
0
 71
3
 72
31
 73
27
 74
0
 42
0.0000001
 43
0.0000001
 44
0.0000000001
 40
0.0
 40
0.0
 40
0.0
 40
0.0
 40
0.015625
 40
0.03125
 40
0.046875
 40
0.0625
 40
0.09375
 40
0.125
 40
0.1875
 40
0.25
 40
0.3125
 40
0.375
 40
0.4375
 40
0.5
 40
0.5625
 40
0.625
 40
0.6875
 40
0.75
 40
0.8125
 40
0.875
 40
0.90625
 40
0.9375
 40
0.953125
 40
0.96875
 40
0.984375
 40
1.0
 40
1.0
 40
1.0
 40
1.0
 10
95.1946505464
 20
68.1856173843
 30
0.0
 10
95.1708178071
 20
68.1785174816
 30
0.0
 10
95.1272315856
 20
68.1637118986
 30
0.0
 10
95.0608259582
 20
68.1358281173
 30
0.0
 10
94.9972155287
 20
68.1034524119
 30
0.0
 10
94.9151554394
 20
68.0540304905
 30
0.0
 10
94.8188685747
 20
67.980595443
 30
0.0
 10
94.6794951932
 20
67.8414654305
 30
0.0
 10
94.5302112408
 20
67.6212487365
 30
0.0
 10
94.406703996
 20
67.308227755
 30
0.0
 10
94.3382845352
 20
66.9626720305
 30
0.0
 10
94.3263210885
 20
66.5959282042
 30
0.0
 10
94.365928714
 20
66.2244013973
 30
0.0
 10
94.45531731
 20
65.8542946241
 30
0.0
 10
94.5934151346
 20
65.4910908768
 30
0.0
 10
94.7766613183
 20
65.1515746186
 30
0.0
 10
94.9983049504
 20
64.8478748914
 30
0.0
 10
95.2553825958
 20
64.5895600777
 30
0.0
 10
95.5459010125
 20
64.3837665252
 30
0.0
 10
95.8067205154
 20
64.2717806793
 30
0.0
 10
96.0119648796
 20
64.2258261164
 30
0.0
 10
96.1413236828
 20
64.214340894
 30
0.0
 10
96.244214214
 20
64.2166293307
 30
0.0
 10
96.3206412718
 20
64.2240076929
 30
0.0
 10
96.3969494537
 20
64.2373635887
 30
0.0
 10
96.4450836035
 20
64.2495741582
 30
0.0
 10
96.4706617014
 20
64.2571947258
 30
0.0
  0
SPLINE
  5
665
100
AcDbEntity
  8
0
100
AcDbSpline
 62
250
  6
CONTINUOUS
 70
0
 71
3
 72
31
 73
27
 74
0
 42
0.0000001
 43
0.0000001
 44
0.0000000001
 40
0.0
 40
0.0
 40
0.0
 40
0.0
 40
0.015625
 40
0.03125
 40
0.046875
 40
0.0625
 40
0.09375
 40
0.125
 40
0.1875
 40
0.25
 40
0.3125
 40
0.375
 40
0.4375
 40
0.5
 40
0.5625
 40
0.625
 40
0.6875
 40
0.75
 40
0.8125
 40
0.875
 40
0.90625
 40
0.9375
 40
0.953125
 40
0.96875
 40
0.984375
 40
1.0
 40
1.0
 40
1.0
 40
1.0
 10
96.4706617014
 20
64.2571947258
 30
0.0
 10
96.4944178197
 20
64.264272465
 30
0.0
 10
96.5378699142
 20
64.2790457579
 30
0.0
 10
96.6040629211
 20
64.3068795673
 30
0.0
 10
96.6674740017
 20
64.3391930509
 30
0.0
 10
96.7492920863
 20
64.3884915901
 30
0.0
 10
96.8453418239
 20
64.4616684784
 30
0.0
 10
96.98446746
 20
64.6002769605
 30
0.0
 10
97.1335854817
 20
64.819637012
 30
0.0
 10
97.2571940298
 20
65.1316144893
 30
0.0
 10
97.3260309731
 20
65.4761364136
 30
0.0
 10
97.3386637435
 20
65.8420207
 30
0.0
 10
97.2998824518
 20
66.2132379303
 30
0.0
 10
97.2112045626
 20
66.5832905577
 30
0.0
 10
97.0742957102
 20
66.9470571769
 30
0.0
 10
96.8917874389
 20
67.2873153401
 30
0.0
 10
96.6703108086
 20
67.59202557
 30
0.0
 10
96.4130793827
 20
67.8514056811
 30
0.0
 10
96.1219363311
 20
68.0582211317
 30
0.0
 10
95.8603368138
 20
68.1708521641
 30
0.0
 10
95.6545666956
 20
68.2171163449
 30
0.0
 10
95.5248536966
 20
68.2287013384
 30
0.0
 10
95.4216894654
 20
68.2263842284
 30
0.0
 10
95.3450645147
 20
68.2189461197
 30
0.0
 10
95.2685585316
 20
68.2055139422
 30
0.0
 10
95.2203017079
 20
68.1932590049
 30
0.0
 10
95.1946505464
 20
68.1856173843
 30
0.0
  0
SPLINE
  5
666
100
AcDbEntity
  8
0
100
AcDbSpline
 62
250
  6
CONTINUOUS
 70
0
 71
3
 72
12
 73
8
 74
0
 42
0.0000001
 43
0.0000001
 44
0.0000000001
 40
0.0
 40
0.0
 40
0.0
 40
0.0
 40
0.2051282051
 40
0.4102564103
 40
0.6153846154
 40
0.8205128205
 40
1.0
 40
1.0
 40
1.0
 40
1.0
 10
84.1290857523
 20
81.3539580922
 30
0.0
 10
84.1503839338
 20
80.9710658638
 30
0.0
 10
83.9317015508
 20
80.168462678
 30
0.0
 10
82.9494199874
 20
79.4243222982
 30
0.0
 10
81.7154062097
 20
79.4243223363
 30
0.0
 10
80.7740530888
 20
80.1374569251
 30
0.0
 10
80.5434814474
 20
80.8719378792
 30
0.0
 10
80.5338352772
 20
81.2096962974
 30
0.0
  0
SPLINE
  5
667
100
AcDbEntity
  8
0
100
AcDbSpline
 62
250
  6
CONTINUOUS
 70
0
 71
3
 72
12
 73
8
 74
0
 42
0.0000001
 43
0.0000001
 44
0.0000000001
 40
0.0
 40
0.0
 40
0.0
 40
0.0
 40
0.2025316456
 40
0.4050632911
 40
0.6075949367
 40
0.8101265823
 40
1.0
 40
1.0
 40
1.0
 40
1.0
 10
79.7851522527
 20
81.3539582032
 30
0.0
 10
79.7640607729
 20
80.8163757549
 30
0.0
 10
80.0851596051
 20
79.6963135267
 30
0.0
 10
81.4680003227
 20
78.6627636816
 30
0.0
 10
83.1968258678
 20
78.6627636417
 30
0.0
 10
84.5508574505
 20
79.6747811359
 30
0.0
 10
84.8801101229
 20
80.7467926748
 30
0.0
 10
84.8815077818
 20
81.2529300947
 30
0.0
  0
SPLINE
  5
668
100
AcDbEntity
  8
0
100
AcDbSpline
 62
250
  6
CONTINUOUS
 70
0
 71
3
 72
12
 73
8
 74
0
 42
0.0000001
 43
0.0000001
 44
0.0000000001
 40
0.0
 40
0.0
 40
0.0
 40
0.0
 40
0.2025316456
 40
0.4050632911
 40
0.6075949367
 40
0.8101265823
 40
1.0
 40
1.0
 40
1.0
 40
1.0
 10
79.7851522527
 20
85.7390712032
 30
0.0
 10
79.7640601327
 20
85.2014885654
 30
0.0
 10
80.0851579225
 20
84.0814254864
 30
0.0
 10
81.4679984129
 20
83.047874042
 30
0.0
 10
83.1968247324
 20
83.0478729857
 30
0.0
 10
84.550857282
 20
84.0598904535
 30
0.0
 10
84.8801102313
 20
85.1319024361
 30
0.0
 10
84.8815078992
 20
85.6380400589
 30
0.0
  0
SPLINE
  5
669
100
AcDbEntity
  8
SUPERFICI
100
AcDbSpline
 62
7
  6
CONTINUOUS
 70
0
 71
3
 72
8
 73
4
 74
0
 42
0.0000001
 43
0.0000001
 44
0.0000000001
 40
0.0
 40
0.0
 40
0.0
 40
0.0
 40
1.0
 40
1.0
 40
1.0
 40
1.0
 10
132.9601433728
 20
101.7215122032
 30
0.0
 10
132.7677231368
 20
101.7215122032
 30
0.0
 10
132.5678085587
 20
101.6612358754
 30
0.0
 10
132.4074581811
 20
101.5548718606
 30
0.0
  0
SPLINE
  5
66A
100
AcDbEntity
  8
SUPERFICI
100
AcDbSpline
 62
7
  6
CONTINUOUS
 70
0
 71
3
 72
8
 73
4
 74
0
 42
0.0000001
 43
0.0000001
 44
0.0000000001
 40
0.0
 40
0.0
 40
0.0
 40
0.0
 40
1.0
 40
1.0
 40
1.0
 40
1.0
 10
132.9601433728
 20
54.7215122032
 30
0.0
 10
132.7677231368
 20
54.7215122032
 30
0.0
 10
132.5678085587
 20
54.781788531
 30
0.0
 10
132.4074581811
 20
54.8881525457
 30
0.0
  0
SPLINE
  5
66B
100
AcDbEntity
  8
ASSI
100
AcDbSpline
 62
7
  6
CONTINUOUS
 70
0
 71
3
 72
8
 73
4
 74
0
 42
0.0000001
 43
0.0000001
 44
0.0000000001
 40
0.0
 40
0.0
 40
0.0
 40
0.0
 40
1.0
 40
1.0
 40
1.0
 40
1.0
 10
132.9601433728
 20
101.7215122032
 30
0.0
 10
132.7677231368
 20
101.7215122032
 30
0.0
 10
132.5678085587
 20
101.6612358754
 30
0.0
 10
132.4074581811
 20
101.5548718606
 30
0.0
  0
SPLINE
  5
66C
100
AcDbEntity
  8
ASSI
100
AcDbSpline
 62
7
  6
CONTINUOUS
 70
0
 71
3
 72
8
 73
4
 74
0
 42
0.0000001
 43
0.0000001
 44
0.0000000001
 40
0.0
 40
0.0
 40
0.0
 40
0.0
 40
1.0
 40
1.0
 40
1.0
 40
1.0
 10
132.9601433728
 20
54.7215122032
 30
0.0
 10
132.7677231368
 20
54.7215122032
 30
0.0
 10
132.5678085587
 20
54.781788531
 30
0.0
 10
132.4074581811
 20
54.8881525457
 30
0.0
  0
SPLINE
  5
66D
100
AcDbEntity
  8
RACCORDO
100
AcDbSpline
 62
250
  6
CONTINUOUS
 70
0
 71
3
 72
9
 73
5
 74
0
 42
0.0000001
 43
0.0000001
 44
0.0000000001
 40
0.0
 40
0.0
 40
0.0
 40
0.0
 40
0.2492630837
 40
1.0
 40
1.0
 40
1.0
 40
1.0
 10
147.5701977129
 20
99.1983622473
 30
0.0
 10
147.5676833436
 20
95.7614373146
 30
0.0
 10
147.5601338696
 20
81.9730924179
 30
0.0
 10
147.5626797927
 20
68.1847420473
 30
0.0
 10
147.5701977129
 20
57.8333237896
 30
0.0
  0
SPLINE
  5
66E
100
AcDbEntity
  8
RACCORDO
100
AcDbSpline
 62
250
  6
CONTINUOUS
 70
0
 71
3
 72
16
 73
12
 74
0
 42
0.0000001
 43
0.0000001
 44
0.0000000001
 40
0.0
 40
0.0
 40
0.0
 40
0.0
 40
0.008376003
 40
0.0123843461
 40
0.0243154222
 40
0.0454727083
 40
0.0759773539
 40
0.1158421022
 40
0.2232789329
 40
0.5451529564
 40
1.0
 40
1.0
 40
1.0
 40
1.0
 10
147.578689243
 20
99.6331862119
 30
0.0
 10
147.5786005195
 20
99.6334969928
 30
0.0
 10
147.5785019701
 20
99.6343049785
 30
0.0
 10
147.5775084527
 20
99.6336407696
 30
0.0
 10
147.5775056941
 20
99.6321333509
 30
0.0
 10
147.5769288972
 20
99.6297752332
 30
0.0
 10
147.5766416024
 20
99.6262321722
 30
0.0
 10
147.5760234241
 20
99.6194112426
 30
0.0
 10
147.5750319079
 20
99.6013187419
 30
0.0
 10
147.5738150557
 20
99.5672348389
 30
0.0
 10
147.5731394465
 20
99.5372668446
 30
0.0
 10
147.5727964763
 20
99.5197194092
 30
0.0
  0
SPLINE
  5
66F
100
AcDbEntity
  8
RACCORDO
100
AcDbSpline
 62
250
  6
CONTINUOUS
 70
0
 71
3
 72
9
 73
5
 74
0
 42
0.0000001
 43
0.0000001
 44
0.0000000001
 40
0.0
 40
0.0
 40
0.0
 40
0.0
 40
0.2062529406
 40
1.0
 40
1.0
 40
1.0
 40
1.0
 10
147.5727964763
 20
99.5197194092
 30
0.0
 10
147.5723647142
 20
99.4976291102
 30
0.0
 10
147.5707360893
 20
99.3905172931
 30
0.0
 10
147.5702594323
 20
99.2833911154
 30
0.0
 10
147.5701977129
 20
99.1983622473
 30
0.0
  0
SPLINE
  5
670
100
AcDbEntity
  8
RACCORDO
100
AcDbSpline
 62
250
  6
CONTINUOUS
 70
0
 71
3
 72
11
 73
7
 74
0
 42
0.0000001
 43
0.0000001
 44
0.0000000001
 40
0.0
 40
0.0
 40
0.0
 40
0.0
 40
0.2506904444
 40
0.5010269615
 40
0.7507626121
 40
1.0
 40
1.0
 40
1.0
 40
1.0
 10
126.1912363064
 20
56.8161544055
 30
0.0
 10
126.12621825
 20
56.8162828353
 30
0.0
 10
125.9949133242
 20
56.842334764
 30
0.0
 10
125.8288869536
 20
56.9530654841
 30
0.0
 10
125.7174722191
 20
57.1182301418
 30
0.0
 10
125.6913421768
 20
57.2490595552
 30
0.0
 10
125.6913124589
 20
57.3137008721
 30
0.0
  0
SPLINE
  5
671
100
AcDbEntity
  8
RACCORDO
100
AcDbSpline
 62
250
  6
CONTINUOUS
 70
0
 71
3
 72
18
 73
14
 74
0
 42
0.0000001
 43
0.0000001
 44
0.0000000001
 40
0.0
 40
0.0
 40
0.0
 40
0.0
 40
0.1921959913
 40
0.3775378162
 40
0.5484922868
 40
0.6988767616
 40
0.8231534145
 40
0.87396072
 40
0.9166103155
 40
0.9507025321
 40
0.9759344583
 40
0.9922394626
 40
1.0
 40
1.0
 40
1.0
 40
1.0
 10
126.1997278365
 20
57.8553991668
 30
0.0
 10
126.1675963438
 20
57.855422461
 30
0.0
 10
126.1044785493
 20
57.8551907274
 30
0.0
 10
126.0127877084
 20
57.8540294133
 30
0.0
 10
125.9280988508
 20
57.8520995193
 30
0.0
 10
125.8536494785
 20
57.849478288
 30
0.0
 10
125.7992924828
 20
57.8466924749
 30
0.0
 10
125.7630029999
 20
57.8440693423
 30
0.0
 10
125.7417244814
 20
57.8421455521
 30
0.0
 10
125.7248975556
 20
57.8401555838
 30
0.0
 10
125.7121510043
 20
57.8381520819
 30
0.0
 10
125.7046353863
 20
57.8361857745
 30
0.0
 10
125.7002675155
 20
57.8345355758
 30
0.0
 10
125.6998039891
 20
57.8333237896
 30
0.0
  0
SPLINE
  5
672
100
AcDbEntity
  8
RACCORDO
100
AcDbSpline
 62
250
  6
CONTINUOUS
 70
0
 71
3
 72
13
 73
9
 74
0
 42
0.0000001
 43
0.0000001
 44
0.0000000001
 40
0.0
 40
0.0
 40
0.0
 40
0.0
 40
0.3557599012
 40
0.6679744143
 40
0.7937483956
 40
0.8931462226
 40
0.9627174203
 40
1.0
 40
1.0
 40
1.0
 40
1.0
 10
125.699803989
 20
57.8333237896
 30
0.0
 10
125.6997592889
 20
57.7716861092
 30
0.0
 10
125.6992994892
 20
57.6559571162
 30
0.0
 10
125.6978846558
 20
57.518435095
 30
0.0
 10
125.6960937441
 20
57.4253540442
 30
0.0
 10
125.6948265857
 20
57.3742876019
 30
0.0
 10
125.6932337657
 20
57.3386176174
 30
0.0
 10
125.6922975668
 20
57.3200847598
 30
0.0
 10
125.6913124589
 20
57.3137008721
 30
0.0
  0
SPLINE
  5
673
100
AcDbEntity
  8
RACCORDO
100
AcDbSpline
 62
250
  6
CONTINUOUS
 70
0
 71
3
 72
13
 73
9
 74
0
 42
0.0000001
 43
0.0000001
 44
0.0000000001
 40
0.0
 40
0.0
 40
0.0
 40
0.0
 40
0.3558237523
 40
0.6680841306
 40
0.7938761996
 40
0.8932692578
 40
0.9628028368
 40
1.0
 40
1.0
 40
1.0
 40
1.0
 10
126.1997278366
 20
57.8554002406
 30
0.0
 10
126.1996830588
 20
57.7321287737
 30
0.0
 10
126.1992229286
 20
57.5006788741
 30
0.0
 10
126.1978090954
 20
57.2256485522
 30
0.0
 10
126.1960171875
 20
57.0394685261
 30
0.0
 10
126.194753217
 20
56.9373658234
 30
0.0
 10
126.1931533691
 20
56.8659891902
 30
0.0
 10
126.1922292667
 20
56.829002667
 30
0.0
 10
126.1912363064
 20
56.8161544055
 30
0.0
  0
SPLINE
  5
674
100
AcDbEntity
  8
RACCORDO
100
AcDbSpline
 62
250
  6
CONTINUOUS
 70
0
 71
3
 72
14
 73
10
 74
0
 42
0.0000001
 43
0.0000001
 44
0.0000000001
 40
0.0
 40
0.0
 40
0.0
 40
0.0
 40
0.371076048
 40
0.5394015558
 40
0.6878747144
 40
0.8112474961
 40
0.9052376586
 40
0.9674560483
 40
1.0
 40
1.0
 40
1.0
 40
1.0
 10
126.1997278366
 20
99.2618451421
 30
0.0
 10
126.1365907067
 20
99.2617997153
 30
0.0
 10
126.0447692205
 20
99.2595948986
 30
0.0
 10
125.92801023
 20
99.2518210282
 30
0.0
 10
125.853399047
 20
99.2441676052
 30
0.0
 10
125.7920277021
 20
99.2352697753
 30
0.0
 10
125.7449190879
 20
99.2245658443
 30
0.0
 10
125.7156844476
 20
99.2149480246
 30
0.0
 10
125.7005486761
 20
99.20384917
 30
0.0
 10
125.699803989
 20
99.1983622473
 30
0.0
  0
SPLINE
  5
675
100
AcDbEntity
  8
RACCORDO
100
AcDbSpline
 62
250
  6
CONTINUOUS
 70
0
 71
3
 72
9
 73
5
 74
0
 42
0.0000001
 43
0.0000001
 44
0.0000000001
 40
0.0
 40
0.0
 40
0.0
 40
0.0
 40
0.2492630837
 40
1.0
 40
1.0
 40
1.0
 40
1.0
 10
125.699803989
 20
99.1983622473
 30
0.0
 10
125.7023183592
 20
95.7614373148
 30
0.0
 10
125.7098678311
 20
81.973092418
 30
0.0
 10
125.7073219089
 20
68.1847420474
 30
0.0
 10
125.699803989
 20
57.8333237896
 30
0.0
  0
SPLINE
  5
676
100
AcDbEntity
  8
RACCORDO
100
AcDbSpline
 62
250
  6
CONTINUOUS
 70
0
 71
3
 72
16
 73
12
 74
0
 42
0.0000001
 43
0.0000001
 44
0.0000000001
 40
0.0
 40
0.0
 40
0.0
 40
0.0
 40
0.0083747997
 40
0.0123837423
 40
0.024322321
 40
0.0454887428
 40
0.0760017816
 40
0.1158722787
 40
0.2233127886
 40
0.5451785578
 40
1.0
 40
1.0
 40
1.0
 40
1.0
 10
125.6913124589
 20
99.6331862119
 30
0.0
 10
125.6914012065
 20
99.6334973528
 30
0.0
 10
125.6914999594
 20
99.6343067784
 30
0.0
 10
125.6924941623
 20
99.633639816
 30
0.0
 10
125.6924965353
 20
99.6321306671
 30
0.0
 10
125.6930738571
 20
99.6297680903
 30
0.0
 10
125.6933612498
 20
99.6262199723
 30
0.0
 10
125.6939797869
 20
99.6193897555
 30
0.0
 10
125.6949718067
 20
99.6012749593
 30
0.0
 10
125.6961891907
 20
99.5671499632
 30
0.0
 10
125.6968649585
 20
99.5371462826
 30
0.0
 10
125.6972079861
 20
99.5195781507
 30
0.0
  0
SPLINE
  5
677
100
AcDbEntity
  8
RACCORDO
100
AcDbSpline
 62
250
  6
CONTINUOUS
 70
0
 71
3
 72
9
 73
5
 74
0
 42
0.0000001
 43
0.0000001
 44
0.0000000001
 40
0.0
 40
0.0
 40
0.0
 40
0.0
 40
0.2063056657
 40
1.0
 40
1.0
 40
1.0
 40
1.0
 10
125.6972079861
 20
99.5195781507
 30
0.0
 10
125.6976392323
 20
99.4974919101
 30
0.0
 10
125.6992658987
 20
99.3904271649
 30
0.0
 10
125.6997419069
 20
99.2833480887
 30
0.0
 10
125.699803989
 20
99.1983622473
 30
0.0
  0
SPLINE
  5
678
100
AcDbEntity
  8
RACCORDO
100
AcDbSpline
 62
250
  6
CONTINUOUS
 70
0
 71
3
 72
11
 73
7
 74
0
 42
0.0000001
 43
0.0000001
 44
0.0000000001
 40
0.0
 40
0.0
 40
0.0
 40
0.0
 40
0.2492373879
 40
0.4989730385
 40
0.7493095556
 40
1.0
 40
1.0
 40
1.0
 40
1.0
 10
147.578689243
 20
57.3137008721
 30
0.0
 10
147.5786595251
 20
57.2490595552
 30
0.0
 10
147.5525294827
 20
57.1182301418
 30
0.0
 10
147.4411147483
 20
56.9530654841
 30
0.0
 10
147.2750883777
 20
56.8423347639
 30
0.0
 10
147.1437834518
 20
56.8162828352
 30
0.0
 10
147.0787653954
 20
56.8161544055
 30
0.0
  0
SPLINE
  5
679
100
AcDbEntity
  8
RACCORDO
100
AcDbSpline
 62
250
  6
CONTINUOUS
 70
0
 71
3
 72
22
 73
18
 74
0
 42
0.0000001
 43
0.0000001
 44
0.0000000001
 40
0.0
 40
0.0
 40
0.0
 40
0.0
 40
0.0012701297
 40
0.0048052073
 40
0.0106414054
 40
0.0187792384
 40
0.0292126283
 40
0.0419173166
 40
0.074011176
 40
0.1148003812
 40
0.1639800525
 40
0.2211245102
 40
0.285785811
 40
0.4355012444
 40
0.6082281318
 40
0.7985499273
 40
1.0
 40
1.0
 40
1.0
 40
1.0
 10
126.1917716381
 20
100.133348518
 30
0.0
 10
126.1921400101
 20
100.1333262315
 30
0.0
 10
126.1921484804
 20
100.131285759
 30
0.0
 10
126.1927343091
 20
100.128829965
 30
0.0
 10
126.192952279
 20
100.1234075407
 30
0.0
 10
126.193381472
 20
100.1164776326
 30
0.0
 10
126.1937248618
 20
100.1073386434
 30
0.0
 10
126.1942645249
 20
100.0913270504
 30
0.0
 10
126.1948721634
 20
100.0664480967
 30
0.0
 10
126.1955496233
 20
100.0309959889
 30
0.0
 10
126.1961902242
 20
99.9882530806
 30
0.0
 10
126.1967955201
 20
99.938576561
 30
0.0
 10
126.197580796
 20
99.8596875489
 30
0.0
 10
126.1983947218
 20
99.7472147077
 30
0.0
 10
126.199111046
 20
99.5982288413
 30
0.0
 10
126.1995761848
 20
99.4342101491
 30
0.0
 10
126.1997064195
 20
99.3203779472
 30
0.0
 10
126.1997278366
 20
99.2618451432
 30
0.0
  0
SPLINE
  5
67A
100
AcDbEntity
  8
RACCORDO
100
AcDbSpline
 62
250
  6
CONTINUOUS
 70
0
 71
3
 72
18
 73
14
 74
0
 42
0.0000001
 43
0.0000001
 44
0.0000000001
 40
0.0
 40
0.0
 40
0.0
 40
0.0
 40
0.0077598001
 40
0.024063977
 40
0.0492951239
 40
0.083386644
 40
0.1260356514
 40
0.1768424988
 40
0.3011187033
 40
0.451503423
 40
0.6224588355
 40
0.8078021763
 40
1.0
 40
1.0
 40
1.0
 40
1.0
 10
147.5701977128
 20
57.8333237896
 30
0.0
 10
147.5697344632
 20
57.8345355501
 30
0.0
 10
147.5653667299
 20
57.8361859072
 30
0.0
 10
147.5578516456
 20
57.8381521202
 30
0.0
 10
147.5451054094
 20
57.8401556966
 30
0.0
 10
147.5282788612
 20
57.8421456693
 30
0.0
 10
147.5070006189
 20
57.8440694976
 30
0.0
 10
147.4707113849
 20
57.8466926766
 30
0.0
 10
147.4163544823
 20
57.8494785475
 30
0.0
 10
147.3419049675
 20
57.8520998348
 30
0.0
 10
147.2572156328
 20
57.8540297749
 30
0.0
 10
147.1655240475
 20
57.8551911186
 30
0.0
 10
147.1024056741
 20
57.8554228585
 30
0.0
 10
147.0702738653
 20
57.8553995637
 30
0.0
  0
SPLINE
  5
67B
100
AcDbEntity
  8
RACCORDO
100
AcDbSpline
 62
250
  6
CONTINUOUS
 70
0
 71
3
 72
13
 73
9
 74
0
 42
0.0000001
 43
0.0000001
 44
0.0000000001
 40
0.0
 40
0.0
 40
0.0
 40
0.0
 40
0.3558237741
 40
0.6680839718
 40
0.7938760816
 40
0.893269548
 40
0.9628022747
 40
1.0
 40
1.0
 40
1.0
 40
1.0
 10
147.0702738653
 20
57.8554002406
 30
0.0
 10
147.0703179018
 20
57.7321287667
 30
0.0
 10
147.0707794382
 20
57.5006789252
 30
0.0
 10
147.0721927744
 20
57.2256486444
 30
0.0
 10
147.0739849273
 20
57.0394685293
 30
0.0
 10
147.0752489005
 20
56.9373659658
 30
0.0
 10
147.0768484178
 20
56.8659892907
 30
0.0
 10
147.0777723567
 20
56.8290028562
 30
0.0
 10
147.0787653954
 20
56.8161544055
 30
0.0
  0
SPLINE
  5
67C
100
AcDbEntity
  8
RACCORDO
100
AcDbSpline
 62
250
  6
CONTINUOUS
 70
0
 71
3
 72
13
 73
9
 74
0
 42
0.0000001
 43
0.0000001
 44
0.0000000001
 40
0.0
 40
0.0
 40
0.0
 40
0.0
 40
0.3557634737
 40
0.6679755262
 40
0.7937475173
 40
0.8931463759
 40
0.9627167657
 40
1.0
 40
1.0
 40
1.0
 40
1.0
 10
147.5701977129
 20
57.8333237896
 30
0.0
 10
147.5702421319
 20
57.7716854902
 30
0.0
 10
147.5707023386
 20
57.6559563017
 30
0.0
 10
147.5721170628
 20
57.5184344448
 30
0.0
 10
147.5739079422
 20
57.4253539683
 30
0.0
 10
147.5751752992
 20
57.3742878713
 30
0.0
 10
147.576767582
 20
57.338617646
 30
0.0
 10
147.5777045786
 20
57.3200849429
 30
0.0
 10
147.578689243
 20
57.3137008721
 30
0.0
  0
SPLINE
  5
67D
100
AcDbEntity
  8
RACCORDO
100
AcDbSpline
 62
250
  6
CONTINUOUS
 70
0
 71
3
 72
22
 73
18
 74
0
 42
0.0000001
 43
0.0000001
 44
0.0000000001
 40
0.0
 40
0.0
 40
0.0
 40
0.0
 40
0.0012711473
 40
0.0048068501
 40
0.0106434144
 40
0.0187815421
 40
0.0292153243
 40
0.0419205215
 40
0.0740155663
 40
0.1148058754
 40
0.1639862767
 40
0.221131051
 40
0.2857922738
 40
0.4355068775
 40
0.608232769
 40
0.7985519636
 40
1.0
 40
1.0
 40
1.0
 40
1.0
 10
147.0782298067
 20
100.1333474962
 30
0.0
 10
147.0778612101
 20
100.1333240618
 30
0.0
 10
147.0778533332
 20
100.1312851807
 30
0.0
 10
147.0772670687
 20
100.1288266514
 30
0.0
 10
147.077049405
 20
100.123405118
 30
0.0
 10
147.0766201986
 20
100.1164743461
 30
0.0
 10
147.0762769315
 20
100.1073352345
 30
0.0
 10
147.0757373573
 20
100.0913229494
 30
0.0
 10
147.0751298224
 20
100.0664432792
 30
0.0
 10
147.0744523983
 20
100.03099031
 30
0.0
 10
147.0738117718
 20
99.9882468425
 30
0.0
 10
147.0732064266
 20
99.9385701024
 30
0.0
 10
147.0724211163
 20
99.8596813652
 30
0.0
 10
147.0716072405
 20
99.7472092204
 30
0.0
 10
147.0708909382
 20
99.5982248321
 30
0.0
 10
147.0704253386
 20
99.4342079891
 30
0.0
 10
147.070294927
 20
99.3203772804
 30
0.0
 10
147.0702738653
 20
99.2618451432
 30
0.0
  0
SPLINE
  5
67E
100
AcDbEntity
  8
RACCORDO
100
AcDbSpline
 62
250
  6
CONTINUOUS
 70
0
 71
3
 72
14
 73
10
 74
0
 42
0.0000001
 43
0.0000001
 44
0.0000000001
 40
0.0
 40
0.0
 40
0.0
 40
0.0
 40
0.0325439528
 40
0.0947623438
 40
0.1887525071
 40
0.312125289
 40
0.4605984472
 40
0.6289239543
 40
1.0
 40
1.0
 40
1.0
 40
1.0
 10
147.5701977129
 20
99.1983622473
 30
0.0
 10
147.5694530252
 20
99.2038491702
 30
0.0
 10
147.5543172532
 20
99.2149480242
 30
0.0
 10
147.5250826124
 20
99.2245658443
 30
0.0
 10
147.477973998
 20
99.2352697753
 30
0.0
 10
147.4166026529
 20
99.2441676054
 30
0.0
 10
147.3419914702
 20
99.2518210287
 30
0.0
 10
147.2252324803
 20
99.2595948997
 30
0.0
 10
147.1334109947
 20
99.2617997155
 30
0.0
 10
147.0702738653
 20
99.2618451414
 30
0.0
  0
SPLINE
  5
67F
100
AcDbEntity
  8
RACCORDO
100
AcDbSpline
 62
7
  6
CONTINUOUS
 70
0
 71
3
 72
9
 73
5
 74
0
 42
0.0000001
 43
0.0000001
 44
0.0000000001
 40
0.0
 40
0.0
 40
0.0
 40
0.0
 40
0.7483279702
 40
1.0
 40
1.0
 40
1.0
 40
1.0
 10
142.3726642732
 20
100.4795285445
 30
0.0
 10
142.3082493596
 20
100.5286891046
 30
0.0
 10
142.203405157
 20
100.5739546776
 30
0.0
 10
142.0952255384
 20
100.5824498942
 30
0.0
 10
142.0679738076
 20
100.5824008692
 30
0.0
  0
SPLINE
  5
680
100
AcDbEntity
  8
RACCORDO
100
AcDbSpline
 62
7
  6
CONTINUOUS
 70
0
 71
3
 72
9
 73
5
 74
0
 42
0.0000001
 43
0.0000001
 44
0.0000000001
 40
0.0
 40
0.0
 40
0.0
 40
0.0
 40
0.7482056648
 40
1.0
 40
1.0
 40
1.0
 40
1.0
 10
131.2020278943
 20
100.5824008692
 30
0.0
 10
131.1210126112
 20
100.5825471974
 30
0.0
 10
131.0102025394
 20
100.5548476718
 30
0.0
 10
130.9190093538
 20
100.4960709647
 30
0.0
 10
130.8973372517
 20
100.4795284094
 30
0.0
  0
SPLINE
  5
681
100
AcDbEntity
  8
RACCORDO
100
AcDbSpline
 62
7
  6
CONTINUOUS
 70
0
 71
3
 72
8
 73
4
 74
0
 42
0.0000001
 43
0.0000001
 44
0.0000000001
 40
0.0
 40
0.0
 40
0.0
 40
0.0
 40
1.0
 40
1.0
 40
1.0
 40
1.0
 10
131.2534048258
 20
55.8215122032
 30
0.0
 10
131.1638882802
 20
55.8215122032
 30
0.0
 10
131.0713883022
 20
55.8472352594
 30
0.0
 10
130.9946230953
 20
55.8932821371
 30
0.0
  0
SPLINE
  5
682
100
AcDbEntity
  8
RACCORDO
100
AcDbSpline
 62
7
  6
CONTINUOUS
 70
0
 71
3
 72
9
 73
5
 74
0
 42
0.0000001
 43
0.0000001
 44
0.0000000001
 40
0.0
 40
0.0
 40
0.0
 40
0.0
 40
0.7482056648
 40
1.0
 40
1.0
 40
1.0
 40
1.0
 10
142.0679738076
 20
55.8606235371
 30
0.0
 10
142.1489890906
 20
55.860477209
 30
0.0
 10
142.2597991625
 20
55.8881767345
 30
0.0
 10
142.3509923481
 20
55.9469534417
 30
0.0
 10
142.3726644502
 20
55.9634959969
 30
0.0
  0
SPLINE
  5
683
100
AcDbEntity
  8
RACCORDO
100
AcDbSpline
 62
7
  6
CONTINUOUS
 70
0
 71
3
 72
9
 73
5
 74
0
 42
0.0000001
 43
0.0000001
 44
0.0000000001
 40
0.0
 40
0.0
 40
0.0
 40
0.0
 40
0.7483279702
 40
1.0
 40
1.0
 40
1.0
 40
1.0
 10
130.8973374286
 20
55.9634958619
 30
0.0
 10
130.9617523422
 20
55.9143353017
 30
0.0
 10
131.0665965449
 20
55.8690697287
 30
0.0
 10
131.1747761634
 20
55.8605745121
 30
0.0
 10
131.2020278943
 20
55.8606235371
 30
0.0
  0
SPLINE
  5
684
100
AcDbEntity
  8
RACCORDO
100
AcDbSpline
 62
7
  6
CONTINUOUS
 70
0
 71
3
 72
8
 73
4
 74
0
 42
0.0000001
 43
0.0000001
 44
0.0000000001
 40
0.0
 40
0.0
 40
0.0
 40
0.0
 40
1.0
 40
1.0
 40
1.0
 40
1.0
 10
142.016596876
 20
100.6215122032
 30
0.0
 10
142.1061134216
 20
100.6215122032
 30
0.0
 10
142.1986133996
 20
100.595789147
 30
0.0
 10
142.2753786066
 20
100.5497422692
 30
0.0
  0
SPLINE
  5
685
100
AcDbEntity
  8
RACCORDO
100
AcDbSpline
 62
250
  6
CONTINUOUS
 70
0
 71
3
 72
9
 73
5
 74
0
 42
0.0000001
 43
0.0000001
 44
0.0000000001
 40
0.0
 40
0.0
 40
0.0
 40
0.0
 40
0.6312302962
 40
1.0
 40
1.0
 40
1.0
 40
1.0
 10
125.5843258311
 20
94.3943224821
 30
0.0
 10
125.5694568005
 20
94.3924895112
 30
0.0
 10
125.546266977
 20
94.3887193985
 30
0.0
 10
125.5226013812
 20
94.3829751298
 30
0.0
 10
125.5151911425
 20
94.3783176465
 30
0.0
  0
SPLINE
  5
686
100
AcDbEntity
  8
RACCORDO
100
AcDbSpline
 62
250
  6
CONTINUOUS
 70
0
 71
3
 72
9
 73
5
 74
0
 42
0.0000001
 43
0.0000001
 44
0.0000000001
 40
0.0
 40
0.0
 40
0.0
 40
0.0
 40
0.5850627067
 40
1.0
 40
1.0
 40
1.0
 40
1.0
 10
125.5151911425
 20
94.3783176465
 30
0.0
 10
125.5140223028
 20
94.3775830074
 30
0.0
 10
125.5120927615
 20
94.3762021317
 30
0.0
 10
125.5107857203
 20
94.3740552232
 30
0.0
 10
125.5106479577
 20
94.3730858615
 30
0.0
  0
SPLINE
  5
687
100
AcDbEntity
  8
RACCORDO
100
AcDbSpline
 62
250
  6
CONTINUOUS
 70
0
 71
3
 72
11
 73
7
 74
0
 42
0.0000001
 43
0.0000001
 44
0.0000000001
 40
0.0
 40
0.0
 40
0.0
 40
0.0
 40
0.3518814046
 40
0.6565303542
 40
0.879797274
 40
1.0
 40
1.0
 40
1.0
 40
1.0
 10
131.0490158676
 20
100.311265784
 30
0.0
 10
131.0329742443
 20
100.3319720125
 30
0.0
 10
131.0025524182
 20
100.3701647866
 30
0.0
 10
130.9605975517
 20
100.4206852839
 30
0.0
 10
130.92785351
 20
100.4556623394
 30
0.0
 10
130.9096701186
 20
100.4743531322
 30
0.0
 10
130.9018210688
 20
100.4786486777
 30
0.0
  0
SPLINE
  5
688
100
AcDbEntity
  8
RACCORDO
100
AcDbSpline
 62
250
  6
CONTINUOUS
 70
0
 71
3
 72
9
 73
5
 74
0
 42
0.0000001
 43
0.0000001
 44
0.0000000001
 40
0.0
 40
0.0
 40
0.0
 40
0.0
 40
0.6301658443
 40
1.0
 40
1.0
 40
1.0
 40
1.0
 10
130.9018210688
 20
100.4786486777
 30
0.0
 10
130.9009532295
 20
100.4791236197
 30
0.0
 10
130.8995942273
 20
100.4798500585
 30
0.0
 10
130.8978056073
 20
100.4798781095
 30
0.0
 10
130.8973440794
 20
100.4795258406
 30
0.0
  0
SPLINE
  5
689
100
AcDbEntity
  8
RACCORDO
100
AcDbSpline
 62
250
  6
CONTINUOUS
 70
0
 71
3
 72
11
 73
7
 74
0
 42
0.0000001
 43
0.0000001
 44
0.0000000001
 40
0.0
 40
0.0
 40
0.0
 40
0.0
 40
0.3518795418
 40
0.6565284832
 40
0.8797962751
 40
1.0
 40
1.0
 40
1.0
 40
1.0
 10
142.2209858343
 20
100.3112657841
 30
0.0
 10
142.237027736
 20
100.3319724562
 30
0.0
 10
142.2674501734
 20
100.370166142
 30
0.0
 10
142.309405963
 20
100.4206879143
 30
0.0
 10
142.3421508468
 20
100.4556660495
 30
0.0
 10
142.360334746
 20
100.4743574256
 30
0.0
 10
142.3681840164
 20
100.4786531925
 30
0.0
  0
SPLINE
  5
68A
100
AcDbEntity
  8
RACCORDO
100
AcDbSpline
 62
250
  6
CONTINUOUS
 70
0
 71
3
 72
9
 73
5
 74
0
 42
0.0000001
 43
0.0000001
 44
0.0000000001
 40
0.0
 40
0.0
 40
0.0
 40
0.0
 40
0.6301673399
 40
1.0
 40
1.0
 40
1.0
 40
1.0
 10
142.3681840164
 20
100.4786531925
 30
0.0
 10
142.369051885
 20
100.4791281616
 30
0.0
 10
142.3704109265
 20
100.4798546349
 30
0.0
 10
142.3721996076
 20
100.4798827435
 30
0.0
 10
142.3726611611
 20
100.4795304768
 30
0.0
  0
SPLINE
  5
68B
100
AcDbEntity
  8
RACCORDO
100
AcDbSpline
 62
250
  6
CONTINUOUS
 70
0
 71
3
 72
9
 73
5
 74
0
 42
0.0000001
 43
0.0000001
 44
0.0000000001
 40
0.0
 40
0.0
 40
0.0
 40
0.0
 40
0.6312158329
 40
1.0
 40
1.0
 40
1.0
 40
1.0
 10
147.6856757962
 20
94.3943224671
 30
0.0
 10
147.700544045
 20
94.3924895979
 30
0.0
 10
147.7237333824
 20
94.3887197601
 30
0.0
 10
147.7473979076
 20
94.3829756275
 30
0.0
 10
147.7548086652
 20
94.3783188132
 30
0.0
  0
SPLINE
  5
68C
100
AcDbEntity
  8
RACCORDO
100
AcDbSpline
 62
250
  6
CONTINUOUS
 70
0
 71
3
 72
9
 73
5
 74
0
 42
0.0000001
 43
0.0000001
 44
0.0000000001
 40
0.0
 40
0.0
 40
0.0
 40
0.0
 40
0.5850842602
 40
1.0
 40
1.0
 40
1.0
 40
1.0
 10
147.7548086652
 20
94.3783188132
 30
0.0
 10
147.7559779781
 20
94.3775840336
 30
0.0
 10
147.7579082557
 20
94.3762029671
 30
0.0
 10
147.759215946
 20
94.374055488
 30
0.0
 10
147.7593537441
 20
94.3730858787
 30
0.0
  0
SPLINE
  5
68D
100
AcDbEntity
  8
RACCORDO
100
AcDbSpline
 62
250
  6
CONTINUOUS
 70
0
 71
3
 72
9
 73
5
 74
0
 42
0.0000001
 43
0.0000001
 44
0.0000000001
 40
0.0
 40
0.0
 40
0.0
 40
0.0
 40
0.687293937
 40
1.0
 40
1.0
 40
1.0
 40
1.0
 10
147.6855240472
 20
78.3898590548
 30
0.0
 10
147.6952842583
 20
78.3879793957
 30
0.0
 10
147.7075585732
 20
78.3850073986
 30
0.0
 10
147.7244276763
 20
78.3783262099
 30
0.0
 10
147.7250639797
 20
78.3738488824
 30
0.0
  0
SPLINE
  5
68E
100
AcDbEntity
  8
RACCORDO
100
AcDbSpline
 62
250
  6
CONTINUOUS
 70
0
 71
3
 72
9
 73
5
 74
0
 42
0.0000001
 43
0.0000001
 44
0.0000000001
 40
0.0
 40
0.0
 40
0.0
 40
0.0
 40
0.6872939376
 40
1.0
 40
1.0
 40
1.0
 40
1.0
 10
147.6855240499
 20
78.0531653519
 30
0.0
 10
147.6952842604
 20
78.0550450111
 30
0.0
 10
147.7075585748
 20
78.0580170078
 30
0.0
 10
147.7244276763
 20
78.0646981967
 30
0.0
 10
147.7250639797
 20
78.0691755239
 30
0.0
  0
SPLINE
  5
68F
100
AcDbEntity
  8
RACCORDO
100
AcDbSpline
 62
250
  6
CONTINUOUS
 70
0
 71
3
 72
9
 73
5
 74
0
 42
0.0000001
 43
0.0000001
 44
0.0000000001
 40
0.0
 40
0.0
 40
0.0
 40
0.0
 40
0.6312302962
 40
1.0
 40
1.0
 40
1.0
 40
1.0
 10
147.6856758708
 20
62.0487019242
 30
0.0
 10
147.7005449013
 20
62.0505348951
 30
0.0
 10
147.7237347249
 20
62.0543050078
 30
0.0
 10
147.7474003206
 20
62.0600492765
 30
0.0
 10
147.7548105594
 20
62.0647067598
 30
0.0
  0
SPLINE
  5
690
100
AcDbEntity
  8
RACCORDO
100
AcDbSpline
 62
250
  6
CONTINUOUS
 70
0
 71
3
 72
9
 73
5
 74
0
 42
0.0000001
 43
0.0000001
 44
0.0000000001
 40
0.0
 40
0.0
 40
0.0
 40
0.0
 40
0.5850627067
 40
1.0
 40
1.0
 40
1.0
 40
1.0
 10
147.7548105594
 20
62.0647067598
 30
0.0
 10
147.7559793991
 20
62.0654413989
 30
0.0
 10
147.7579089404
 20
62.0668222746
 30
0.0
 10
147.7592159815
 20
62.0689691831
 30
0.0
 10
147.7593537441
 20
62.0699385448
 30
0.0
  0
SPLINE
  5
691
100
AcDbEntity
  8
RACCORDO
100
AcDbSpline
 62
250
  6
CONTINUOUS
 70
0
 71
3
 72
8
 73
4
 74
0
 42
0.0000001
 43
0.0000001
 44
0.0000000001
 40
0.0
 40
0.0
 40
0.0
 40
0.0
 40
1.0
 40
1.0
 40
1.0
 40
1.0
 10
131.2020278943
 20
100.3632108214
 30
0.0
 10
131.1481649332
 20
100.3632122577
 30
0.0
 10
131.0918291728
 20
100.3439497171
 30
0.0
 10
131.0490158676
 20
100.3112657841
 30
0.0
  0
SPLINE
  5
692
100
AcDbEntity
  8
RACCORDO
100
AcDbSpline
 62
250
  6
CONTINUOUS
 70
0
 71
3
 72
8
 73
4
 74
0
 42
0.0000001
 43
0.0000001
 44
0.0000000001
 40
0.0
 40
0.0
 40
0.0
 40
0.0
 40
1.0
 40
1.0
 40
1.0
 40
1.0
 10
142.2209858343
 20
100.3112657841
 30
0.0
 10
142.1974774949
 20
100.3292059594
 30
0.0
 10
142.1704012207
 20
100.3432086671
 30
0.0
 10
142.1421534962
 20
100.3519584083
 30
0.0
  0
SPLINE
  5
693
100
AcDbEntity
  8
RACCORDO
100
AcDbSpline
 62
250
  6
CONTINUOUS
 70
0
 71
3
 72
11
 73
7
 74
0
 42
0.0000001
 43
0.0000001
 44
0.0000000001
 40
0.0
 40
0.0
 40
0.0
 40
0.0
 40
0.3518814046
 40
0.6565303542
 40
0.879797274
 40
1.0
 40
1.0
 40
1.0
 40
1.0
 10
142.2209858343
 20
56.1317586223
 30
0.0
 10
142.2370274575
 20
56.1110523938
 30
0.0
 10
142.2674492836
 20
56.0728596197
 30
0.0
 10
142.3094041502
 20
56.0223391224
 30
0.0
 10
142.3421481919
 20
55.9873620669
 30
0.0
 10
142.3603315833
 20
55.9686712742
 30
0.0
 10
142.3681806331
 20
55.9643757287
 30
0.0
  0
SPLINE
  5
694
100
AcDbEntity
  8
RACCORDO
100
AcDbSpline
 62
250
  6
CONTINUOUS
 70
0
 71
3
 72
9
 73
5
 74
0
 42
0.0000001
 43
0.0000001
 44
0.0000000001
 40
0.0
 40
0.0
 40
0.0
 40
0.0
 40
0.6301658443
 40
1.0
 40
1.0
 40
1.0
 40
1.0
 10
142.3681806331
 20
55.9643757287
 30
0.0
 10
142.3690484724
 20
55.9639007867
 30
0.0
 10
142.3704074746
 20
55.9631743478
 30
0.0
 10
142.3721960946
 20
55.9631462968
 30
0.0
 10
142.3726576225
 20
55.9634985658
 30
0.0
  0
SPLINE
  5
695
100
AcDbEntity
  8
RACCORDO
100
AcDbSpline
 62
250
  6
CONTINUOUS
 70
0
 71
3
 72
8
 73
4
 74
0
 42
0.0000001
 43
0.0000001
 44
0.0000000001
 40
0.0
 40
0.0
 40
0.0
 40
0.0
 40
1.0
 40
1.0
 40
1.0
 40
1.0
 10
142.0679738076
 20
56.0798135849
 30
0.0
 10
142.1218367687
 20
56.0798121486
 30
0.0
 10
142.1781725291
 20
56.0990746892
 30
0.0
 10
142.2209858343
 20
56.1317586223
 30
0.0
  0
SPLINE
  5
696
100
AcDbEntity
  8
RACCORDO
100
AcDbSpline
 62
250
  6
CONTINUOUS
 70
0
 71
3
 72
11
 73
7
 74
0
 42
0.0000001
 43
0.0000001
 44
0.0000000001
 40
0.0
 40
0.0
 40
0.0
 40
0.0
 40
0.3518795418
 40
0.6565284832
 40
0.8797962751
 40
1.0
 40
1.0
 40
1.0
 40
1.0
 10
131.0490158676
 20
56.1317586223
 30
0.0
 10
131.0329739659
 20
56.1110519501
 30
0.0
 10
131.0025515285
 20
56.0728582643
 30
0.0
 10
130.9605957389
 20
56.022336492
 30
0.0
 10
130.927850855
 20
55.9873583569
 30
0.0
 10
130.9096669558
 20
55.9686669807
 30
0.0
 10
130.9018176854
 20
55.9643712139
 30
0.0
  0
SPLINE
  5
697
100
AcDbEntity
  8
RACCORDO
100
AcDbSpline
 62
250
  6
CONTINUOUS
 70
0
 71
3
 72
9
 73
5
 74
0
 42
0.0000001
 43
0.0000001
 44
0.0000000001
 40
0.0
 40
0.0
 40
0.0
 40
0.0
 40
0.6301673399
 40
1.0
 40
1.0
 40
1.0
 40
1.0
 10
130.9018176854
 20
55.9643712139
 30
0.0
 10
130.9009498169
 20
55.9638962448
 30
0.0
 10
130.8995907753
 20
55.9631697715
 30
0.0
 10
130.8978020942
 20
55.9631416628
 30
0.0
 10
130.8973405408
 20
55.9634939295
 30
0.0
  0
SPLINE
  5
698
100
AcDbEntity
  8
RACCORDO
100
AcDbSpline
 62
250
  6
CONTINUOUS
 70
0
 71
3
 72
9
 73
5
 74
0
 42
0.0000001
 43
0.0000001
 44
0.0000000001
 40
0.0
 40
0.0
 40
0.0
 40
0.0
 40
0.6312158329
 40
1.0
 40
1.0
 40
1.0
 40
1.0
 10
125.5843259056
 20
62.0487019393
 30
0.0
 10
125.5694576568
 20
62.0505348084
 30
0.0
 10
125.5462683194
 20
62.0543046462
 30
0.0
 10
125.5226037942
 20
62.0600487789
 30
0.0
 10
125.5151930367
 20
62.0647055932
 30
0.0
  0
SPLINE
  5
699
100
AcDbEntity
  8
RACCORDO
100
AcDbSpline
 62
250
  6
CONTINUOUS
 70
0
 71
3
 72
9
 73
5
 74
0
 42
0.0000001
 43
0.0000001
 44
0.0000000001
 40
0.0
 40
0.0
 40
0.0
 40
0.0
 40
0.5850842602
 40
1.0
 40
1.0
 40
1.0
 40
1.0
 10
125.5151930367
 20
62.0647055932
 30
0.0
 10
125.5140237237
 20
62.0654403727
 30
0.0
 10
125.5120934461
 20
62.0668214393
 30
0.0
 10
125.5107857559
 20
62.0689689183
 30
0.0
 10
125.5106479577
 20
62.0699385277
 30
0.0
  0
SPLINE
  5
69A
100
AcDbEntity
  8
RACCORDO
100
AcDbSpline
 62
250
  6
CONTINUOUS
 70
0
 71
3
 72
9
 73
5
 74
0
 42
0.0000001
 43
0.0000001
 44
0.0000000001
 40
0.0
 40
0.0
 40
0.0
 40
0.0
 40
0.687293937
 40
1.0
 40
1.0
 40
1.0
 40
1.0
 10
125.5844776547
 20
78.0531653515
 30
0.0
 10
125.5747174436
 20
78.0550450107
 30
0.0
 10
125.5624431286
 20
78.0580170078
 30
0.0
 10
125.5455740256
 20
78.0646981964
 30
0.0
 10
125.5449377222
 20
78.0691755239
 30
0.0
  0
SPLINE
  5
69B
100
AcDbEntity
  8
RACCORDO
100
AcDbSpline
 62
250
  6
CONTINUOUS
 70
0
 71
3
 72
9
 73
5
 74
0
 42
0.0000001
 43
0.0000001
 44
0.0000000001
 40
0.0
 40
0.0
 40
0.0
 40
0.0
 40
0.6872939373
 40
1.0
 40
1.0
 40
1.0
 40
1.0
 10
125.5844776532
 20
78.3898590546
 30
0.0
 10
125.5747174424
 20
78.3879793955
 30
0.0
 10
125.5624431278
 20
78.3850073985
 30
0.0
 10
125.5455740256
 20
78.3783262097
 30
0.0
 10
125.5449377222
 20
78.3738488824
 30
0.0
  0
SPLINE
  5
69C
100
AcDbEntity
  8
RACCORDO
100
AcDbSpline
 62
250
  6
CONTINUOUS
 70
0
 71
3
 72
8
 73
4
 74
0
 42
0.0000001
 43
0.0000001
 44
0.0000000001
 40
0.0
 40
0.0
 40
0.0
 40
0.0
 40
1.0
 40
1.0
 40
1.0
 40
1.0
 10
131.0490158676
 20
56.1317586223
 30
0.0
 10
131.072524207
 20
56.1138184469
 30
0.0
 10
131.0996004812
 20
56.0998157392
 30
0.0
 10
131.1278482057
 20
56.091065998
 30
0.0
  0
ELLIPSE
  5
69D
100
AcDbEntity
  8
0
100
AcDbEllipse
 62
250
  6
CONTINUOUS
 10
85.213370155
 20
75.6972662032
 30
0.0
 11
0.0
 21
0.8810268582
 31
0.0
 40
1.0
 41
0.7614882182
 42
1.5707963268
  0
ELLIPSE
  5
69E
100
AcDbEntity
  8
0
100
AcDbEllipse
 62
250
  6
CONTINUOUS
 10
82.332413155
 20
75.2215122032
 30
0.0
 11
-0.0
 21
1.4977450605
 31
0.0
 40
1.0
 41
-0.867075956
 42
0.6600834529
  0
ELLIPSE
  5
69F
100
AcDbEntity
  8
0
100
AcDbEllipse
 62
250
  6
CONTINUOUS
 10
82.332413155
 20
75.2215122032
 30
0.0
 11
0.0
 21
1.497745916
 31
0.0
 40
1.0
 41
-3.8016761065
 42
-2.2745166976
  0
ELLIPSE
  5
6A0
100
AcDbEntity
  8
0
100
AcDbEllipse
 62
250
  6
CONTINUOUS
 10
82.332413155
 20
75.2215122032
 30
0.0
 11
1.999931
 21
-0.0
 31
0.0
 40
1.0
 41
0.0
 42
6.2831853072
  0
ELLIPSE
  5
6A1
100
AcDbEntity
  8
RACCORDO
100
AcDbEllipse
 62
7
  6
CONTINUOUS
 10
147.1849246869
 20
99.2610096215
 30
0.0
 11
0.4990996396
 21
0.0313507587
 31
0.0
 40
0.9963558159
 41
-0.0625041969
 42
0.2149061361
  0
ELLIPSE
  5
6A2
100
AcDbEntity
  8
RACCORDO
100
AcDbEllipse
 62
7
  6
CONTINUOUS
 10
147.1849246869
 20
56.6242180312
 30
0.0
 11
0.4990996396
 21
-0.0313507587
 31
0.0
 40
0.9963558159
 41
-1.5078352791
 42
0.0625041969
  0
ELLIPSE
  5
6A3
100
AcDbEntity
  8
RACCORDO
100
AcDbEllipse
 62
7
  6
CONTINUOUS
 10
126.0850770149
 20
56.6242180312
 30
0.0
 11
0.4990996396
 21
0.0313507587
 31
0.0
 40
0.9963558159
 41
3.0790884566
 42
4.6494279327
  0
ELLIPSE
  5
6A4
100
AcDbEntity
  8
RACCORDO
100
AcDbEllipse
 62
7
  6
CONTINUOUS
 10
126.0850770149
 20
99.2610096215
 30
0.0
 11
0.4990996396
 21
-0.0313507587
 31
0.0
 40
0.9963558159
 41
2.9266865175
 42
3.2040968505
  0
ENDSEC
  0
SECTION
  2
OBJECTS
  0
DICTIONARY
  5
C
100
AcDbDictionary
280
0
281
1
  3
ACAD_GROUP
350
D
  3
ACAD_MLINESTYLE
350
17
  3
ACAD_LAYOUT
350
1A
  3
ACAD_PLOTSETTINGS
350
19
  3
ACAD_PLOTSTYLENAME
350
E
  0
DICTIONARY
  5
D
102
{ACAD_REACTORS
330
C
102
}
100
AcDbDictionary
280
0
281
1
  0
ACDBDICTIONARYWDFLT
  5
E
102
{ACAD_REACTORS
330
C
102
}
100
AcDbDictionary
281
1
  3
Normal
350
F
100
AcDbDictionaryWithDefault
340
F
  0
DICTIONARY
  5
17
102
{ACAD_REACTORS
330
C
102
}
100
AcDbDictionary
280
0
281
1
  3
Standard
350
18
  0
DICTIONARY
  5
19
102
{ACAD_REACTORS
330
C
102
}
100
AcDbDictionary
281
1
  0
DICTIONARY
  5
1A
102
{ACAD_REACTORS
330
C
102
}
100
AcDbDictionary
281
1
  3
Model
350
6A5
  3
Layout1
350
6A6
  0
ACDBPLACEHOLDER
  5
F
102
{ACAD_REACTORS
330
E
102
}
  0
MLINESTYLE
  5
18
102
{ACAD_REACTORS
330
17
102
}
100
AcDbMlineStyle
  2
STANDARD
 70
0
  3

 62
256
 51
90.0
 52
90.0
 71
2
 49
0.5
 62
256
  6
BYLAYER
 49
-0.5
 62
256
  6
BYLAYER
  0
LAYOUT
  5
6A5
102
{ACAD_REACTORS
330
1A
102
}
100
AcDbPlotSettings
  1

  2
none_device
  4
ISO_A4_(297.00_x_210.00_MM)
  6

 40
0.0
 41
0.0
 42
0.0
 43
0.0
 44
297.0
 45
210.0
 46
0.0
 47
0.0
 48
0.0
 49
0.0
140
0.0
141
0.0
142
1.0
143
1.0
 70
1024
 72
1
 73
0
 74
0
  7

 75
0
147
1.0
148
0.0
149
0.0
100
AcDbLayout
  1
Model
 70
0
 71
0
 10
0.0
 20
0.0
 11
297.0
 21
210.0
 12
0.0
 22
0.0
 32
0.0
 14
0.0
 24
0.0
 34
0.0
 15
0.0
 25
0.0
 35
0.0
146
0.0
 13
0.0
 23
0.0
 33
0.0
 16
1.0
 26
0.0
 36
0.0
 17
0.0
 27
1.0
 37
0.0
 76
0
330
21D
345
0
346
0
  0
LAYOUT
  5
6A6
102
{ACAD_REACTORS
330
1A
102
}
100
AcDbPlotSettings
  1

  2
none_device
  4
ISO_A4_(297.00_x_210.00_MM)
  6

 40
0.0
 41
0.0
 42
0.0
 43
0.0
 44
297.0
 45
210.0
 46
0.0
 47
0.0
 48
0.0
 49
0.0
140
0.0
141
0.0
142
1.0
143
1.0
 70
0
 72
1
 73
0
 74
0
  7

 75
0
147
1.0
148
0.0
149
0.0
100
AcDbLayout
  1
Layout1
 70
0
 71
1
 10
0.0
 20
0.0
 11
297.0
 21
210.0
 12
0.0
 22
0.0
 32
0.0
 14
0.0
 24
0.0
 34
0.0
 15
0.0
 25
0.0
 35
0.0
146
0.0
 13
0.0
 23
0.0
 33
0.0
 16
1.0
 26
0.0
 36
0.0
 17
0.0
 27
1.0
 37
0.0
 76
0
330
21E
345
0
346
0
  0
ENDSEC
  0
EOF
