  0
SECTION
  2
HEADER
  9
$ACADVER
  1
AC1024
  9
$DWGCODEPAGE
  3
ANSI_1252
  9
$EXTMAX
 10
297.0
 20
210.0
 30
0.0
  9
$EXTMIN
 10
0.0
 20
0.0
 30
0.0
  9
$LIMMIN
 10
0.0
 20
0.0
  9
$LIMMAX
 10
297.0
 20
210.0
  9
$VIEWCTR
 10
148.5
 20
105.0
  9
$VIEWSIZE
 40
210.0
  9
$CLAYER
  8
0
  9
$LTSCALE
 40
16.335
  9
$CELTYPE
  6
BYLAYER
  9
$DIMSCALE
 40
1.0
  9
$DIMASZ
 40
3.0
  9
$DIMEXO
 40
0.5
  9
$DIMDLI
 40
11.286
  9
$DIMEXE
 40
1.5
  9
$DIMCEN
 40
2.673
  9
$DIMLFAC
 40
1.0
  9
$DIMBLK
  1
_FILLED
  9
$DIMALT
 70
0
  9
$DIMALTF
 40
0.0393700787
  9
$DIMTXT
 40
3.0
  9
$DIMTOL
 70
1
  9
$DIMLIM
 70
0
  9
$DIMTFAC
 40
1.0
  9
$DIMTP
 40
0.01
  9
$DIMTM
 40
0.01
  9
$DIMGAP
 40
0.625
  9
$DIMDSEP
 70
44
  9
$AUNITS
 70
0
  9
$PDMODE
 70
3
  9
$PDSIZE
 40
3.0
  9
$HANDSEED
  5
6B0
  9
$TILEMODE
 70
1
  9
$MEASUREMENT
 70
1
  9
$INSUNITS
 70
4
  0
ENDSEC
  0
SECTION
  2
CLASSES
  0
CLASS
  1
ACDBDICTIONARYWDFLT
  2
AcDbDictionaryWithDefault
  3
AutoCAD 2000
 90
0
 91
1
280
0
281
0
  0
CLASS
  1
ACDBPLACEHOLDER
  2
AcDbPlaceHolder
  3
AutoCAD 2000
 90
0
 91
1
280
0
281
0
  0
CLASS
  1
LAYOUT
  2
AcDbLayout
  3
AutoCAD 2000
 90
0
 91
0
280
0
281
0
  0
ENDSEC
  0
SECTION
  2
TABLES
  0
TABLE
  2
VPORT
  5
8
100
AcDbSymbolTable
 70
2
  0
VPORT
  5
1F4
100
AcDbSymbolTableRecord
100
AcDbViewportTableRecord
  2
*ACTIVE
 70
0
 10
0.0
 20
0.0
 11
1.0
 21
1.0
 12
148.5
 22
105.0
 13
0.0
 23
0.0
 14
1.0
 24
1.0
 15
0.0
 25
0.0
 16
0.0
 26
0.0
 36
1.0
 17
0.0
 27
0.0
 37
0.0
 40
210.0
 41
1.4142857143
 42
50.0
 43
0.0
 44
0.0
 50
0.0
 51
0.0
 71
0
 72
100
 73
1
 74
1
 75
0
 76
0
 77
0
 78
0
  0
ENDTAB
  0
TABLE
  2
LTYPE
  5
5
100
AcDbSymbolTable
 70
6
  0
LTYPE
  5
14
100
AcDbSymbolTableRecord
100
AcDbLinetypeTableRecord
  2
BYBLOCK
 70
0
  3

 72
65
 73
0
 40
0.0
  0
LTYPE
  5
15
100
AcDbSymbolTableRecord
100
AcDbLinetypeTableRecord
  2
BYLAYER
 70
0
  3

 72
65
 73
0
 40
0.0
  0
LTYPE
  5
16
100
AcDbSymbolTableRecord
100
AcDbLinetypeTableRecord
  2
CONTINUOUS
 70
64
  3
Solid line
 72
65
 73
0
 40
0.0
  0
LTYPE
  5
1F5
100
AcDbSymbolTableRecord
100
AcDbLinetypeTableRecord
  2
CENTER
 70
64
  3
____ _ ____ _ ____ _ ____ _ ____ _ ____ _ ____
 72
65
 73
4
 40
0.6
 49
0.375
 74
0
 49
-0.075
 74
0
 49
0.075
 74
0
 49
-0.075
 74
0
  0
LTYPE
  5
1F6
100
AcDbSymbolTableRecord
100
AcDbLinetypeTableRecord
  2
HIDDEN
 70
64
  3
- - - - - - - - - - - - - - - - - - - -
 72
65
 73
2
 40
0.2
 49
0.1
 74
0
 49
-0.1
 74
0
  0
LTYPE
  5
1F7
100
AcDbSymbolTableRecord
100
AcDbLinetypeTableRecord
  2
PHANTOM
 70
64
  3
_____ _ _ _____ _ _ _____ _ _ _____
 72
65
 73
6
 40
0.8
 49
0.45
 74
0
 49
-0.05
 74
0
 49
0.1
 74
0
 49
-0.05
 74
0
 49
0.1
 74
0
 49
-0.05
 74
0
  0
LTYPE
  5
1F8
100
AcDbSymbolTableRecord
100
AcDbLinetypeTableRecord
  2
DOT
 70
64
  3
. . . . . . . . . . . . . . . . . . . .
 72
65
 73
2
 40
0.2
 49
0.1
 74
0
 49
-0.1
 74
0
  0
LTYPE
  5
1F9
100
AcDbSymbolTableRecord
100
AcDbLinetypeTableRecord
  2
DASHED
 70
64
  3
- - - - - - - - - - - - - - - - - - - -
 72
65
 73
2
 40
0.2
 49
0.1
 74
0
 49
-0.1
 74
0
  0
ENDTAB
  0
TABLE
  2
LAYER
  5
2
100
AcDbSymbolTable
 70
36
  0
LAYER
  5
10
100
AcDbSymbolTableRecord
100
AcDbLayerTableRecord
  2
0
 70
0
 62
7
  6
CONTINUOUS
370
-3
390
F
  0
LAYER
  5
1FA
100
AcDbSymbolTableRecord
100
AcDbLayerTableRecord
  2
DEFAULT_1
 70
0
 62
7
  6
CENTER
370
-3
390
F
  0
LAYER
  5
1FB
100
AcDbSymbolTableRecord
100
AcDbLayerTableRecord
  2
DEFAULT_2
 70
0
 62
7
  6
HIDDEN
370
-3
390
F
  0
LAYER
  5
1FC
100
AcDbSymbolTableRecord
100
AcDbLayerTableRecord
  2
DEFAULT_3
 70
0
 62
7
  6
PHANTOM
370
-3
390
F
  0
LAYER
  5
1FD
100
AcDbSymbolTableRecord
100
AcDbLayerTableRecord
  2
ASSI
 70
0
 62
7
  6
CONTINUOUS
370
-3
390
F
  0
LAYER
  5
1FE
100
AcDbSymbolTableRecord
100
AcDbLayerTableRecord
  2
COORDINATE
 70
0
 62
7
  6
CONTINUOUS
370
-3
390
F
  0
LAYER
  5
1FF
100
AcDbSymbolTableRecord
100
AcDbLayerTableRecord
  2
COORD_ORIGINE
 70
0
 62
7
  6
CONTINUOUS
370
-3
390
F
  0
LAYER
  5
200
100
AcDbSymbolTableRecord
100
AcDbLayerTableRecord
  2
COPY_PUBLISH
 70
0
 62
7
  6
CONTINUOUS
370
-3
390
F
  0
LAYER
  5
201
100
AcDbSymbolTableRecord
100
AcDbLayerTableRecord
  2
COSMETIC
 70
0
 62
7
  6
CONTINUOUS
370
-3
390
F
  0
LAYER
  5
202
100
AcDbSymbolTableRecord
100
AcDbLayerTableRecord
  2
COSMETICHE
 70
0
 62
7
  6
CONTINUOUS
370
-3
390
F
  0
LAYER
  5
203
100
AcDbSymbolTableRecord
100
AcDbLayerTableRecord
  2
CURVE
 70
0
 62
7
  6
CONTINUOUS
370
-3
390
F
  0
LAYER
  5
204
100
AcDbSymbolTableRecord
100
AcDbLayerTableRecord
  2
DRAFT
 70
0
 62
7
  6
CONTINUOUS
370
-3
390
F
  0
LAYER
  5
205
100
AcDbSymbolTableRecord
100
AcDbLayerTableRecord
  2
ESTENSIONE
 70
0
 62
7
  6
CONTINUOUS
370
-3
390
F
  0
LAYER
  5
206
100
AcDbSymbolTableRecord
100
AcDbLayerTableRecord
  2
IMPORT_IGES
 70
0
 62
7
  6
CONTINUOUS
370
-3
390
F
  0
LAYER
  5
207
100
AcDbSymbolTableRecord
100
AcDbLayerTableRecord
  2
INTFCLR_1
 70
0
 62
7
  6
CONTINUOUS
370
-3
390
F
  0
LAYER
  5
208
100
AcDbSymbolTableRecord
100
AcDbLayerTableRecord
  2
INTF_1
 70
0
 62
7
  6
CONTINUOUS
370
-3
390
F
  0
LAYER
  5
209
100
AcDbSymbolTableRecord
100
AcDbLayerTableRecord
  2
INTF_11
 70
0
 62
7
  6
CONTINUOUS
370
-3
390
F
  0
LAYER
  5
20A
100
AcDbSymbolTableRecord
100
AcDbLayerTableRecord
  2
INTF_13
 70
0
 62
7
  6
CONTINUOUS
370
-3
390
F
  0
LAYER
  5
20B
100
AcDbSymbolTableRecord
100
AcDbLayerTableRecord
  2
INTF_2
 70
0
 62
7
  6
CONTINUOUS
370
-3
390
F
  0
LAYER
  5
20C
100
AcDbSymbolTableRecord
100
AcDbLayerTableRecord
  2
INTF_YELLOW
 70
0
 62
7
  6
CONTINUOUS
370
-3
390
F
  0
LAYER
  5
20D
100
AcDbSymbolTableRecord
100
AcDbLayerTableRecord
  2
NOTE
 70
0
 62
7
  6
CONTINUOUS
370
-3
390
F
  0
LAYER
  5
20E
100
AcDbSymbolTableRecord
100
AcDbLayerTableRecord
  2
PIANI
 70
0
 62
7
  6
CONTINUOUS
370
-3
390
F
  0
LAYER
  5
20F
100
AcDbSymbolTableRecord
100
AcDbLayerTableRecord
  2
PIANI_ORIGINE
 70
0
 62
7
  6
CONTINUOUS
370
-3
390
F
  0
LAYER
  5
210
100
AcDbSymbolTableRecord
100
AcDbLayerTableRecord
  2
PUNTI
 70
0
 62
7
  6
CONTINUOUS
370
-3
390
F
  0
LAYER
  5
211
100
AcDbSymbolTableRecord
100
AcDbLayerTableRecord
  2
RACCORDO
 70
0
 62
7
  6
CONTINUOUS
370
-3
390
F
  0
LAYER
  5
212
100
AcDbSymbolTableRecord
100
AcDbLayerTableRecord
  2
RGB__255__255__255__
 70
0
 62
7
  6
CONTINUOUS
370
-3
390
F
  0
LAYER
  5
213
100
AcDbSymbolTableRecord
100
AcDbLayerTableRecord
  2
RGB____0____0____0__
 70
0
 62
7
  6
CONTINUOUS
370
-3
390
F
  0
LAYER
  5
214
100
AcDbSymbolTableRecord
100
AcDbLayerTableRecord
  2
SMUSSO
 70
0
 62
7
  6
CONTINUOUS
370
-3
390
F
  0
LAYER
  5
215
100
AcDbSymbolTableRecord
100
AcDbLayerTableRecord
  2
SNAPLINE
 70
0
 62
7
  6
CONTINUOUS
370
-3
390
F
  0
LAYER
  5
216
100
AcDbSymbolTableRecord
100
AcDbLayerTableRecord
  2
SUPERFICI
 70
0
 62
7
  6
CONTINUOUS
370
-3
390
F
  0
LAYER
  5
217
100
AcDbSymbolTableRecord
100
AcDbLayerTableRecord
  2
SUP_ASS_ANCORINA
 70
0
 62
7
  6
CONTINUOUS
370
-3
390
F
  0
LAYER
  5
218
100
AcDbSymbolTableRecord
100
AcDbLayerTableRecord
  2
TRASH
 70
0
 62
7
  6
CONTINUOUS
370
-3
390
F
  0
LAYER
  5
219
100
AcDbSymbolTableRecord
100
AcDbLayerTableRecord
  2
XSEC_DATUMS
 70
0
 62
7
  6
CONTINUOUS
370
-3
390
F
  0
ENDTAB
  0
TABLE
  2
STYLE
  5
3
100
AcDbSymbolTable
 70
1
  0
STYLE
  5
11
100
AcDbSymbolTableRecord
100
AcDbTextStyleTableRecord
  2
STANDARD
 70
0
 40
0.0
 41
0.8
 50
0.0
 71
0
 42
0.2
  3
txt
  4

  0
STYLE
  5
21A
100
AcDbSymbolTableRecord
100
AcDbTextStyleTableRecord
  2
TEXTSTYLE_1
 70
0
 40
0.0
 41
0.8
 50
0.0
 71
0
 42
0.2
  3
gdt
  4

  0
ENDTAB
  0
TABLE
  2
VIEW
  5
6
100
AcDbSymbolTable
 70
0
  0
ENDTAB
  0
TABLE
  2
UCS
  5
7
100
AcDbSymbolTable
 70
0
  0
ENDTAB
  0
TABLE
  2
APPID
  5
9
100
AcDbSymbolTable
 70
1
  0
APPID
  5
21B
100
AcDbSymbolTableRecord
100
AcDbRegAppTableRecord
  2
ACAD
 70
0
  0
ENDTAB
  0
TABLE
  2
BLOCK_RECORD
  5
1
100
AcDbSymbolTable
 70
0
  0
BLOCK_RECORD
  5
21C
100
AcDbSymbolTableRecord
100
AcDbBlockTableRecord
  2
*Model_Space
  0
BLOCK_RECORD
  5
21D
100
AcDbSymbolTableRecord
100
AcDbBlockTableRecord
  2
*Paper_Space
  0
BLOCK_RECORD
  5
21E
100
AcDbSymbolTableRecord
100
AcDbBlockTableRecord
  2
_FILLED
  0
BLOCK_RECORD
  5
21F
100
AcDbSymbolTableRecord
100
AcDbBlockTableRecord
  2
*D0
  0
BLOCK_RECORD
  5
220
100
AcDbSymbolTableRecord
100
AcDbBlockTableRecord
  2
*D1
  0
BLOCK_RECORD
  5
221
100
AcDbSymbolTableRecord
100
AcDbBlockTableRecord
  2
*D2
  0
BLOCK_RECORD
  5
222
100
AcDbSymbolTableRecord
100
AcDbBlockTableRecord
  2
*D3
  0
ENDTAB
  0
TABLE
  2
DIMSTYLE
  5
A
100
AcDbSymbolTable
 70
1
100
AcDbDimStyleTable
 71
0
  0
DIMSTYLE
105
223
100
AcDbSymbolTableRecord
100
AcDbDimStyleTableRecord
  2
STANDARD
 70
0
  3

  4

 40
1.0
 41
3.0
 42
0.5
 43
0.38
 44
1.5
 45
0.0
 46
0.0
 47
0.01
 48
0.01
140
3.0
141
0.09
142
0.0
143
25.4
144
1.0
145
0.0
146
1.0
147
0.625
 71
1
 72
0
 73
0
 74
0
 75
0
 76
0
 77
1
 78
8
 79
2
170
0
171
1
172
0
173
0
174
0
175
0
176
0
177
0
178
0
270
2
179
2
271
2
272
2
273
2
274
2
275
0
280
0
281
0
282
0
283
1
284
8
285
0
286
0
287
3
288
0
340
11
278
44
341
21E
342
21E
343
21E
344
21E
  0
DIMSTYLE
105
224
100
AcDbSymbolTableRecord
100
AcDbDimStyleTableRecord
  2
DIMSTYLE_1
 70
0
  3

  4

 40
1.0
 41
3.0
 42
0.5
 43
0.38
 44
1.5
 45
0.0
 46
0.0
 47
0.0
 48
0.0
140
3.0
141
0.09
142
0.0
143
25.4
144
1.0
145
0.0
146
1.0
147
0.75
 71
0
 72
0
 73
0
 74
0
 75
0
 76
0
 77
1
 78
8
 79
2
170
0
171
1
172
0
173
0
174
0
175
0
176
0
177
0
178
0
270
2
179
2
271
2
272
2
273
2
274
2
275
0
280
0
281
0
282
0
283
1
284
8
285
0
286
0
287
3
288
0
340
11
278
44
341
21E
342
21E
343
21E
344
21E
  0
ENDTAB
  0
ENDSEC
  0
SECTION
  2
BLOCKS
  0
BLOCK
  5
20
100
AcDbEntity
  8
0
100
AcDbBlockBegin
  2
*Model_Space
 70
0
 10
0.0
 20
0.0
 30
0.0
  3
*Model_Space
  1

  0
ENDBLK
  5
21
100
AcDbEntity
  8
0
100
AcDbBlockEnd
  0
BLOCK
  5
1C
100
AcDbEntity
  8
0
100
AcDbBlockBegin
  2
*Paper_Space
 70
0
 10
0.0
 20
0.0
 30
0.0
  3
*Paper_Space
  1

  0
ENDBLK
  5
1D
100
AcDbEntity
  8
0
100
AcDbBlockEnd
  0
BLOCK
  5
225
100
AcDbEntity
  8
0
100
AcDbBlockBegin
  2
_FILLED
 70
64
 10
0.0
 20
0.0
  3
_FILLED
  1

  0
SOLID
  5
226
100
AcDbEntity
  8
0
  6
BYBLOCK
 62
0
100
AcDbTrace
 10
0.0
 20
0.0
 11
-1.0
 21
0.3166666667
 12
-1.0
 22
-0.3166666667
 13
-1.0
 23
-0.3166666667
  0
ENDBLK
  5
227
100
AcDbEntity
  8
0
  6
BYBLOCK
 62
0
100
AcDbBlockEnd
  0
BLOCK
  5
228
100
AcDbEntity
  8
0
100
AcDbBlockBegin
 62
7
  6
CONTINUOUS
  2
*D0
 70
65
 10
0.0
 20
0.0
  3
*D0
  1

  0
LINE
  5
229
100
AcDbEntity
  8
0
100
AcDbLine
 62
7
  6
CONTINUOUS
 10
21.975
 20
16.6191678393
 11
21.975
 21
33.0
  0
LINE
  5
22A
100
AcDbEntity
  8
0
100
AcDbLine
 62
7
  6
CONTINUOUS
 10
-22.825
 20
16.6196590187
 11
-22.825
 21
33.0
  0
LINE
  5
22B
100
AcDbEntity
  8
0
100
AcDbLine
 62
7
  6
CONTINUOUS
 10
21.975
 20
31.5
 11
-0.425
 21
31.5
  0
LINE
  5
22C
100
AcDbEntity
  8
0
100
AcDbLine
 62
7
  6
CONTINUOUS
 10
-22.825
 20
31.5
 11
-0.425
 21
31.5
  0
INSERT
  5
22D
100
AcDbEntity
  8
0
100
AcDbBlockReference
 62
7
  6
CONTINUOUS
  2
_FILLED
 10
21.975
 20
31.5
 41
3.0
 42
3.0
 43
3.0
  0
INSERT
  5
22E
100
AcDbEntity
  8
0
100
AcDbBlockReference
 62
7
  6
CONTINUOUS
  2
_FILLED
 10
-22.825
 20
31.5
 41
3.0
 42
3.0
 43
3.0
 50
180.0
  0
ENDBLK
  5
22F
100
AcDbEntity
  8
0
  6
BYBLOCK
 62
0
100
AcDbBlockEnd
  0
BLOCK
  5
230
100
AcDbEntity
  8
0
100
AcDbBlockBegin
 62
7
  6
CONTINUOUS
  2
*D1
 70
65
 10
0.0
 20
0.0
  3
*D1
  1

  0
LINE
  5
231
100
AcDbEntity
  8
0
100
AcDbLine
 62
7
  6
CONTINUOUS
 10
14.9998574782
 20
23.5
 11
32.325
 21
23.5
  0
LINE
  5
232
100
AcDbEntity
  8
0
100
AcDbLine
 62
7
  6
CONTINUOUS
 10
14.9998574782
 20
-23.5
 11
32.325
 21
-23.5
  0
LINE
  5
233
100
AcDbEntity
  8
0
100
AcDbLine
 62
7
  6
CONTINUOUS
 10
30.825
 20
23.5
 11
30.825
 21
0.0
  0
LINE
  5
234
100
AcDbEntity
  8
0
100
AcDbLine
 62
7
  6
CONTINUOUS
 10
30.825
 20
-23.5
 11
30.825
 21
0.0
  0
INSERT
  5
235
100
AcDbEntity
  8
0
100
AcDbBlockReference
 62
7
  6
CONTINUOUS
  2
_FILLED
 10
30.825
 20
23.5
 41
3.0
 42
3.0
 43
3.0
 50
90.0
  0
INSERT
  5
236
100
AcDbEntity
  8
0
100
AcDbBlockReference
 62
7
  6
CONTINUOUS
  2
_FILLED
 10
30.825
 20
-23.5
 41
3.0
 42
3.0
 43
3.0
 50
270.0
  0
ENDBLK
  5
237
100
AcDbEntity
  8
0
  6
BYBLOCK
 62
0
100
AcDbBlockEnd
  0
BLOCK
  5
238
100
AcDbEntity
  8
0
100
AcDbBlockBegin
 62
7
  6
CONTINUOUS
  2
*D2
 70
65
 10
0.0
 20
0.0
  3
*D2
  1

  0
LINE
  5
239
100
AcDbEntity
  8
0
100
AcDbLine
 62
7
  6
CONTINUOUS
 10
-58.1112868727
 20
22.7974831693
 11
-58.1112868727
 21
33.0
  0
LINE
  5
23A
100
AcDbEntity
  8
0
100
AcDbLine
 62
7
  6
CONTINUOUS
 10
-31.4112868727
 20
7.7126485113
 11
-31.4112868727
 21
33.0
  0
LINE
  5
23B
100
AcDbEntity
  8
0
100
AcDbLine
 62
7
  6
CONTINUOUS
 10
-58.1112868727
 20
31.5
 11
-44.7612868727
 21
31.5
  0
LINE
  5
23C
100
AcDbEntity
  8
0
100
AcDbLine
 62
7
  6
CONTINUOUS
 10
-31.4112868727
 20
31.5
 11
-44.7612868727
 21
31.5
  0
INSERT
  5
23D
100
AcDbEntity
  8
0
100
AcDbBlockReference
 62
7
  6
CONTINUOUS
  2
_FILLED
 10
-58.1112868727
 20
31.5
 41
3.0
 42
3.0
 43
3.0
 50
180.0
  0
INSERT
  5
23E
100
AcDbEntity
  8
0
100
AcDbBlockReference
 62
7
  6
CONTINUOUS
  2
_FILLED
 10
-31.4112868727
 20
31.5
 41
3.0
 42
3.0
 43
3.0
  0
ENDBLK
  5
23F
100
AcDbEntity
  8
0
  6
BYBLOCK
 62
0
100
AcDbBlockEnd
  0
BLOCK
  5
240
100
AcDbEntity
  8
0
100
AcDbBlockBegin
 62
7
  6
CONTINUOUS
  2
*D3
 70
65
 10
0.0
 20
0.0
  3
*D3
  1

  0
LINE
  5
241
100
AcDbEntity
  8
0
100
AcDbLine
 62
7
  6
CONTINUOUS
 10
-31.4112868727
 20
7.7126485113
 11
-31.4112868727
 21
43.0
  0
LINE
  5
242
100
AcDbEntity
  8
0
100
AcDbLine
 62
7
  6
CONTINUOUS
 10
-70.9153871416
 20
-20.7496194547
 11
-70.9153871416
 21
43.0
  0
LINE
  5
243
100
AcDbEntity
  8
0
100
AcDbLine
 62
7
  6
CONTINUOUS
 10
-31.4112868727
 20
41.5
 11
-51.1633370071
 21
41.5
  0
LINE
  5
244
100
AcDbEntity
  8
0
100
AcDbLine
 62
7
  6
CONTINUOUS
 10
-70.9153871416
 20
41.5
 11
-51.1633370071
 21
41.5
  0
INSERT
  5
245
100
AcDbEntity
  8
0
100
AcDbBlockReference
 62
7
  6
CONTINUOUS
  2
_FILLED
 10
-31.4112868727
 20
41.5
 41
3.0
 42
3.0
 43
3.0
 50
0.0
  0
INSERT
  5
246
100
AcDbEntity
  8
0
100
AcDbBlockReference
 62
7
  6
CONTINUOUS
  2
_FILLED
 10
-70.9153871416
 20
41.5
 41
3.0
 42
3.0
 43
3.0
 50
180.0
  0
ENDBLK
  5
247
100
AcDbEntity
  8
0
  6
BYBLOCK
 62
0
100
AcDbBlockEnd
  0
ENDSEC
  0
SECTION
  2
ENTITIES
  0
DIMENSION
  5
248
100
AcDbEntity
  8
0
100
AcDbDimension
 62
7
  6
CONTINUOUS
  2
*D0
 10
-22.825
 20
31.5
 11
-4.8178571429
 21
31.5
 70
160
 71
2
 72
2
 41
0.9
 42
44.8
  3
DIMSTYLE_1
100
AcDbAlignedDimension
 13
21.975
 23
16.1191678393
 14
-22.825
 24
16.1196590187
 50
180.0
100
AcDbRotatedDimension
  0
DIMENSION
  5
249
100
AcDbEntity
  8
0
100
AcDbDimension
 62
7
  6
CONTINUOUS
  2
*D1
 10
30.825
 20
-23.5
 11
30.825
 21
-2.3571428571
 70
160
 71
2
 72
2
 41
0.9
 42
47.0
  3
DIMSTYLE_1
100
AcDbAlignedDimension
 13
14.4998574782
 23
23.5
 14
14.4998574782
 24
-23.5
 50
270.0
100
AcDbRotatedDimension
  0
DIMENSION
  5
24A
100
AcDbEntity
  8
0
100
AcDbDimension
 62
7
  6
CONTINUOUS
  2
*D2
 10
-31.4112868727
 20
31.5
 11
-49.1541440155
 21
31.5
 70
160
 71
2
 72
2
 41
0.9
 42
26.7
  3
DIMSTYLE_1
100
AcDbAlignedDimension
 13
-58.1112868727
 23
22.2974831693
 14
-31.4112868727
 24
7.2126485113
100
AcDbRotatedDimension
  0
DIMENSION
  5
24B
100
AcDbEntity
  8
0
100
AcDbDimension
 62
7
  6
CONTINUOUS
  2
*D3
 10
-70.9153871416
 20
41.5
 11
-55.3419084357
 21
41.5
 70
160
 71
2
 72
2
 41
0.9
 42
39.5041002689
  3
DIMSTYLE_1
100
AcDbAlignedDimension
 13
-31.4112868727
 23
7.2126485113
 14
-70.9153871416
 24
-21.2496194547
 50
180.0
100
AcDbRotatedDimension
  0
LWPOLYLINE
  5
24C
100
AcDbEntity
  8
RACCORDO
100
AcDbPolyline
 62
250
  6
CONTINUOUS
 90
9
 70
0
 10
-22.4686520894
 20
21.3619912846
 10
-22.4679191845
 20
21.3627497573
 10
-22.467202021
 20
21.3600946564
 10
-22.4665005989
 20
21.3540259819
 10
-22.4658099698
 20
21.3444534247
 10
-22.4651350821
 20
21.331467294
 10
-22.4644907817
 20
21.3153385171
 10
-22.4638780229
 20
21.2960032732
 10
-22.4632958513
 20
21.2735253832
  0
LINE
  5
24D
100
AcDbEntity
  8
RACCORDO
100
AcDbLine
 62
7
  6
CONTINUOUS
 10
-17.3926118548
 20
22.2559941819
 11
-17.8932007512
 21
21.8621633467
  0
LWPOLYLINE
  5
24E
100
AcDbEntity
  8
RACCORDO
100
AcDbPolyline
 62
7
  6
CONTINUOUS
 90
7
 70
0
 10
-17.3602955243
 20
22.2978870308
 10
-17.3143156787
 20
22.3287225274
 10
-17.2665709887
 20
22.3540235025
 10
-17.2170614544
 20
22.3737899561
 10
-17.1657870756
 20
22.3880218881
 10
-17.1127478524
 20
22.3967192986
 10
-17.0579437848
 20
22.3998821875
  0
LWPOLYLINE
  5
24F
100
AcDbEntity
  8
RACCORDO
100
AcDbPolyline
 62
250
  6
CONTINUOUS
 90
10
 70
0
 10
-17.3926118548
 20
-22.2559941819
 10
-17.3629017124
 20
-22.2770044255
 10
-17.3317792777
 20
-22.2957903848
 10
-17.2994099497
 20
-22.31225793
 10
-17.2659697441
 20
-22.3263239958
 10
-17.2316311159
 20
-22.3379216326
 10
-17.1965607996
 20
-22.3469967245
 10
-17.1609375559
 20
-22.3535035507
 10
-17.1249524194
 20
-22.3574086055
 10
-17.0887936198
 20
-22.358692912
  0
LINE
  5
250
100
AcDbEntity
  8
RACCORDO
100
AcDbLine
 62
7
  6
CONTINUOUS
 10
-17.6598449782
 20
-22.0457525301
 11
-17.3926118548
 21
-22.2559941819
  0
LWPOLYLINE
  5
251
100
AcDbEntity
  8
RACCORDO
100
AcDbPolyline
 62
7
  6
CONTINUOUS
 90
10
 70
0
 10
-22.575
 20
-17.0874682035
 10
-22.5783923677
 20
-17.081671278
 10
-22.6292191393
 20
-16.9824822155
 10
-22.6746901186
 20
-16.8801722418
 10
-22.7142811968
 20
-16.7758247651
 10
-22.7479029126
 20
-16.6694105511
 10
-22.7756447272
 20
-16.5609588341
 10
-22.7972509158
 20
-16.4516407259
 10
-22.8126362366
 20
-16.3418465971
 10
-22.8218859314
 20
-16.2311860772
  0
LWPOLYLINE
  5
252
100
AcDbEntity
  8
RACCORDO
100
AcDbPolyline
 62
250
  6
CONTINUOUS
 90
4
 70
0
 10
-22.4498187192
 20
21.4974362755
 10
-22.4515690723
 20
21.4910940757
 10
-22.464348055
 20
21.4271057489
 10
-22.4686520894
 20
21.3619912846
  0
LINE
  5
253
100
AcDbEntity
  8
RACCORDO
100
AcDbLine
 62
7
  6
CONTINUOUS
 10
-22.555880044
 20
21.1263686956
 11
-22.4494763939
 21
21.498639677
  0
LINE
  5
254
100
AcDbEntity
  8
RACCORDO
100
AcDbLine
 62
250
  6
CONTINUOUS
 10
-22.575
 20
20.9899153176
 11
-22.4686520894
 21
21.3619912846
  0
LWPOLYLINE
  5
255
100
AcDbEntity
  8
RACCORDO
100
AcDbPolyline
 62
7
  6
CONTINUOUS
 90
10
 70
0
 10
-22.575
 20
17.0312655498
 10
-22.6041682287
 20
16.974180674
 10
-22.6492404681
 20
16.872324595
 10
-22.6885841001
 20
16.7680645587
 10
-22.7220705539
 20
16.6617186338
 10
-22.7495873447
 20
16.5536177516
 10
-22.7710435249
 20
16.4440959288
 10
-22.7863652915
 20
16.3334923225
 10
-22.7954964227
 20
16.2221502252
 10
-22.7984006074
 20
16.1104158367
  0
LINE
  5
256
100
AcDbEntity
  8
RACCORDO
100
AcDbLine
 62
250
  6
CONTINUOUS
 10
-17.0572253295
 20
22.4
 11
-17.0887936197
 21
22.358692912
  0
LINE
  5
257
100
AcDbEntity
  8
RACCORDO
100
AcDbLine
 62
250
  6
CONTINUOUS
 10
-17.3602954701
 20
22.29788706
 11
-17.3926118548
 21
22.2559941819
  0
LINE
  5
258
100
AcDbEntity
  8
RACCORDO
100
AcDbLine
 62
250
  6
CONTINUOUS
 10
-17.2713734675
 20
22.1213426753
 11
-17.6007700705
 21
21.8621633467
  0
LWPOLYLINE
  5
259
100
AcDbEntity
  8
RACCORDO
100
AcDbPolyline
 62
7
  6
CONTINUOUS
 90
3
 70
0
 10
16.3681565333
 20
-22.3733052903
 10
16.3164018974
 20
-22.3876621281
 10
16.2625483946
 20
-22.3965603647
  0
LWPOLYLINE
  5
25A
100
AcDbEntity
  8
RACCORDO
100
AcDbPolyline
 62
250
  6
CONTINUOUS
 90
10
 70
0
 10
-17.2713734675
 20
-22.1213426753
 10
-17.2532909673
 20
-22.1341146593
 10
-17.2345706305
 20
-22.1454407683
 10
-17.2152124569
 20
-22.1553210022
 10
-17.1951007143
 20
-22.163788626
 10
-17.1743511351
 20
-22.1708103748
 10
-17.1533109163
 20
-22.1762864534
 10
-17.1320957903
 20
-22.1801835969
 10
-17.1105900248
 20
-22.1825350704
 10
-17.0887936198
 20
-22.1833408737
  0
LINE
  5
25B
100
AcDbEntity
  8
RACCORDO
100
AcDbLine
 62
250
  6
CONTINUOUS
 10
-17.367443266
 20
-22.0457525301
 11
-17.2713734675
 21
-22.1213426753
  0
LINE
  5
25C
100
AcDbEntity
  8
RACCORDO
100
AcDbLine
 62
250
  6
CONTINUOUS
 10
-17.3926118548
 20
-22.2559941819
 11
-17.3602954704
 21
-22.2978870598
  0
LINE
  5
25D
100
AcDbEntity
  8
RACCORDO
100
AcDbLine
 62
250
  6
CONTINUOUS
 10
-17.0887936197
 20
-22.358692912
 11
-17.0572253298
 21
-22.4
  0
LWPOLYLINE
  5
25E
100
AcDbEntity
  8
RACCORDO
100
AcDbPolyline
 62
7
  6
CONTINUOUS
 90
10
 70
0
 10
-22.8218859314
 20
16.2311860772
 10
-22.8126362366
 20
16.3418465971
 10
-22.7972509158
 20
16.4516407259
 10
-22.7756447272
 20
16.5609588341
 10
-22.7479029126
 20
16.6694105511
 10
-22.7142811968
 20
16.7758247651
 10
-22.674690118
 20
16.8801722426
 10
-22.6292191382
 20
16.9824822171
 10
-22.5783923677
 20
17.081671278
 10
-22.575
 20
17.0874682035
  0
LWPOLYLINE
  5
25F
100
AcDbEntity
  8
RACCORDO
100
AcDbPolyline
 62
250
  6
CONTINUOUS
 90
4
 70
0
 10
-22.575
 20
16.4270924077
 10
-22.5876447895
 20
16.3355702384
 10
-22.5958044533
 20
16.2356077373
 10
-22.5984310684
 20
16.1347897054
  0
LINE
  5
260
100
AcDbEntity
  8
RACCORDO
100
AcDbLine
 62
7
  6
CONTINUOUS
 10
-22.8218859314
 20
-16.2311860772
 11
-22.825
 21
-16.119659166
  0
LWPOLYLINE
  5
261
100
AcDbEntity
  8
RACCORDO
100
AcDbPolyline
 62
7
  6
CONTINUOUS
 90
10
 70
0
 10
-22.7984006074
 20
-16.1104158367
 10
-22.7954964233
 20
-16.2221502136
 10
-22.7863652935
 20
-16.333492305
 10
-22.7710435279
 20
-16.4440959109
 10
-22.7495873473
 20
-16.55361774
 10
-22.7220705539
 20
-16.6617186338
 10
-22.6885840957
 20
-16.7680645713
 10
-22.6492404562
 20
-16.8723246239
 10
-22.6041682069
 20
-16.9741807198
 10
-22.575
 20
-17.0312655491
  0
LWPOLYLINE
  5
262
100
AcDbEntity
  8
RACCORDO
100
AcDbPolyline
 62
250
  6
CONTINUOUS
 90
4
 70
0
 10
-22.5984310684
 20
-16.1347897054
 10
-22.5958044533
 20
-16.2356077373
 10
-22.5876447894
 20
-16.3355702384
 10
-22.575
 20
-16.427092407
  0
LINE
  5
263
100
AcDbEntity
  8
RACCORDO
100
AcDbLine
 62
250
  6
CONTINUOUS
 10
-22.4632958513
 20
21.2735253832
 11
-22.4622600928
 21
21.2204724084
  0
LINE
  5
264
100
AcDbEntity
  8
RACCORDO
100
AcDbLine
 62
250
  6
CONTINUOUS
 10
-22.4622600928
 20
21.2204724084
 11
-22.4614048518
 21
21.1572736408
  0
LINE
  5
265
100
AcDbEntity
  8
RACCORDO
100
AcDbLine
 62
250
  6
CONTINUOUS
 10
-21.9633718163
 20
21.6835287762
 11
-21.9623373129
 21
21.5772980482
  0
LINE
  5
266
100
AcDbEntity
  8
RACCORDO
100
AcDbLine
 62
250
  6
CONTINUOUS
 10
-22.4614048518
 20
21.1572736408
 11
-22.4607594143
 21
21.0857576418
  0
LINE
  5
267
100
AcDbEntity
  8
RACCORDO
100
AcDbLine
 62
250
  6
CONTINUOUS
 10
-21.9623373129
 20
21.5772980482
 11
-21.9614828779
 21
21.4511622196
  0
LINE
  5
268
100
AcDbEntity
  8
RACCORDO
100
AcDbLine
 62
250
  6
CONTINUOUS
 10
-22.4607594143
 20
21.0857576418
 11
-22.4603425535
 21
21.0087669689
  0
LINE
  5
269
100
AcDbEntity
  8
RACCORDO
100
AcDbLine
 62
250
  6
CONTINUOUS
 10
-21.9614828779
 20
21.4511622196
 11
-21.9608374806
 21
21.3086057086
  0
LINE
  5
26A
100
AcDbEntity
  8
RACCORDO
100
AcDbLine
 62
250
  6
CONTINUOUS
 10
-21.9608374806
 20
21.3086057086
 11
-21.9604199917
 21
21.1536271569
  0
LINE
  5
26B
100
AcDbEntity
  8
RACCORDO
100
AcDbLine
 62
250
  6
CONTINUOUS
 10
-22.5984310684
 20
16.1347897054
 11
-22.575
 21
5.2021040512
  0
LINE
  5
26C
100
AcDbEntity
  8
RACCORDO
100
AcDbLine
 62
250
  6
CONTINUOUS
 10
-22.4603425535
 20
21.0087669689
 11
-22.4601605229
 21
20.9271175378
  0
LWPOLYLINE
  5
26D
100
AcDbEntity
  8
RACCORDO
100
AcDbPolyline
 62
250
  6
CONTINUOUS
 90
9
 70
0
 10
-22.4601605229
 20
20.9271175378
 10
-22.4571982827
 20
16.3580651868
 10
-22.4549766027
 20
11.7847247723
 10
-22.4534954827
 20
7.2070962942
 10
-22.4527549231
 20
2.6247860159
 10
-22.4527549236
 20
-1.9618123259
 10
-22.4534954838
 20
-6.5515175209
 10
-22.4549766038
 20
-11.1439358324
 10
-22.4571982835
 20
-15.7394609971
  0
LWPOLYLINE
  5
26E
100
AcDbEntity
  8
RACCORDO
100
AcDbPolyline
 62
250
  6
CONTINUOUS
 90
9
 70
0
 10
-21.9604199917
 20
21.1536271569
 10
-21.9572744335
 20
16.4175619618
 10
-21.9550527521
 20
11.8395084933
 10
-21.9535716312
 20
7.2567791574
 10
-21.9528310707
 20
2.6697633096
 10
-21.9528310706
 20
-1.9211494242
 10
-21.9535716311
 20
-6.5155691803
 10
-21.955052752
 20
-11.1131057041
 10
-21.9572744335
 20
-15.7133683828
  0
LINE
  5
26F
100
AcDbEntity
  8
RACCORDO
100
AcDbLine
 62
250
  6
CONTINUOUS
 10
-22.7984006074
 20
16.1104158367
 11
-22.7639778926
 21
0.0065204141
  0
LINE
  5
270
100
AcDbEntity
  8
RACCORDO
100
AcDbLine
 62
7
  6
CONTINUOUS
 10
-22.825
 20
16.1196590187
 11
-22.825
 21
-16.1196590187
  0
LINE
  5
271
100
AcDbEntity
  8
RACCORDO
100
AcDbLine
 62
7
  6
CONTINUOUS
 10
-22.575
 20
20.9899153176
 11
-22.575
 21
-21.5477120712
  0
LINE
  5
272
100
AcDbEntity
  8
RACCORDO
100
AcDbLine
 62
250
  6
CONTINUOUS
 10
-22.4571982835
 20
-15.7394609971
 11
-22.460222445
 21
-20.3801524439
  0
LINE
  5
273
100
AcDbEntity
  8
RACCORDO
100
AcDbLine
 62
250
  6
CONTINUOUS
 10
-21.9572744335
 20
-15.7133683828
 11
-21.9604199917
 21
-20.4826678128
  0
LINE
  5
274
100
AcDbEntity
  8
RACCORDO
100
AcDbLine
 62
250
  6
CONTINUOUS
 10
-22.7639778926
 20
0.0065204141
 11
-22.7640555859
 21
-0.0845135024
  0
LINE
  5
275
100
AcDbEntity
  8
RACCORDO
100
AcDbLine
 62
250
  6
CONTINUOUS
 10
-22.7640555859
 20
-0.0845135024
 11
-22.7984006074
 21
-16.1104158367
  0
LINE
  5
276
100
AcDbEntity
  8
RACCORDO
100
AcDbLine
 62
250
  6
CONTINUOUS
 10
-22.575
 20
-5.2021040512
 11
-22.5984310684
 21
-16.1347897054
  0
LINE
  5
277
100
AcDbEntity
  8
RACCORDO
100
AcDbLine
 62
250
  6
CONTINUOUS
 10
-21.9604199917
 20
-20.4826678128
 11
-21.9608374806
 21
-20.6460180469
  0
LINE
  5
278
100
AcDbEntity
  8
RACCORDO
100
AcDbLine
 62
250
  6
CONTINUOUS
 10
-22.460222445
 20
-20.3801524439
 11
-22.4605208484
 21
-20.4623164556
  0
LINE
  5
279
100
AcDbEntity
  8
RACCORDO
100
AcDbLine
 62
250
  6
CONTINUOUS
 10
-21.9608374806
 20
-20.6460180469
 11
-21.9614828778
 21
-20.8014603743
  0
LINE
  5
27A
100
AcDbEntity
  8
RACCORDO
100
AcDbLine
 62
250
  6
CONTINUOUS
 10
-21.9614828778
 20
-20.8014603743
 11
-21.9623373129
 21
-20.9446331267
  0
LINE
  5
27B
100
AcDbEntity
  8
RACCORDO
100
AcDbLine
 62
250
  6
CONTINUOUS
 10
-22.4605208484
 20
-20.4623164556
 11
-22.4610561667
 21
-20.5424595835
  0
LINE
  5
27C
100
AcDbEntity
  8
RACCORDO
100
AcDbLine
 62
250
  6
CONTINUOUS
 10
-21.9623373129
 20
-20.9446331267
 11
-21.9633718163
 21
-21.0715784048
  0
LINE
  5
27D
100
AcDbEntity
  8
RACCORDO
100
AcDbLine
 62
250
  6
CONTINUOUS
 10
-22.4610561667
 20
-20.5424595835
 11
-22.4618065059
 21
-20.6173100782
  0
LWPOLYLINE
  5
27E
100
AcDbEntity
  8
RACCORDO
100
AcDbPolyline
 62
250
  6
CONTINUOUS
 90
8
 70
0
 10
-21.9633718163
 20
-21.0715784048
 10
-21.9645651778
 20
-21.1787786461
 10
-21.9652083787
 20
-21.2240294871
 10
-21.9658821259
 20
-21.2632735766
 10
-21.966572389
 20
-21.2962300038
 10
-21.9672744909
 20
-21.3226686696
 10
-21.9679931085
 20
-21.3424083617
 10
-21.9687282419
 20
-21.3553125446
  0
LINE
  5
27F
100
AcDbEntity
  8
RACCORDO
100
AcDbLine
 62
250
  6
CONTINUOUS
 10
-22.4618065059
 20
-20.6173100782
 11
-22.4627562501
 21
-20.6852644186
  0
LWPOLYLINE
  5
280
100
AcDbEntity
  8
RACCORDO
100
AcDbPolyline
 62
250
  6
CONTINUOUS
 90
9
 70
0
 10
-22.4627562501
 20
-20.6852644186
 10
-22.4638780229
 20
-20.7441028136
 10
-22.4644907817
 20
-20.7695572503
 10
-22.4651350821
 20
-20.7921202033
 10
-22.4658099698
 20
-20.8118459637
 10
-22.4665005989
 20
-20.8283153496
 10
-22.467202021
 20
-20.8413886336
 10
-22.4679191845
 20
-20.8512055431
 10
-22.4686520894
 20
-20.8577660781
  0
LINE
  5
281
100
AcDbEntity
  8
RACCORDO
100
AcDbLine
 62
7
  6
CONTINUOUS
 10
-22.825
 20
16.119659166
 11
-22.8218859314
 21
16.2311860772
  0
LINE
  5
282
100
AcDbEntity
  8
DRAFT
100
AcDbLine
 62
7
  6
CONTINUOUS
 10
-8.5470718961
 20
23.4301797403
 11
-8.4772516364
 21
23.5
  0
LINE
  5
283
100
AcDbEntity
  8
RACCORDO
100
AcDbLine
 62
250
  6
CONTINUOUS
 10
5.0917754532
 20
-22.2571966284
 11
5.0873396899
 21
-22.2580182737
  0
LINE
  5
284
100
AcDbEntity
  8
RACCORDO
100
AcDbLine
 62
7
  6
CONTINUOUS
 10
16.2625483946
 20
-22.3965603647
 11
16.2065960251
 21
-22.4
  0
LWPOLYLINE
  5
285
100
AcDbEntity
  8
RACCORDO
100
AcDbPolyline
 62
7
  6
CONTINUOUS
 90
10
 70
0
 10
16.2579729566
 20
-22.3608886661
 10
16.2808133601
 20
-22.3604065809
 10
16.304364526
 20
-22.3588094838
 10
16.3285666933
 20
-22.3559945256
 10
16.3533231339
 20
-22.3518643943
 10
16.3785798712
 20
-22.3463148765
 10
16.4043221911
 20
-22.3392224849
 10
16.4304394278
 20
-22.3304795432
 10
16.4568113745
 20
-22.3199815137
 10
16.4833800255
 20
-22.307590553
  0
LWPOLYLINE
  5
286
100
AcDbEntity
  8
RACCORDO
100
AcDbPolyline
 62
250
  6
CONTINUOUS
 90
13
 70
0
 10
16.2579729566
 20
-22.1416986182
 10
16.2694927192
 20
-22.141520058
 10
16.281300743
 20
-22.1406779524
 10
16.293397028
 20
-22.1391723014
 10
16.3058151776
 20
-22.1370582769
 10
16.3185215885
 20
-22.134280707
 10
16.3314154508
 20
-22.130674076
 10
16.3445197724
 20
-22.1262402267
 10
16.3578115454
 20
-22.1209773164
 10
16.3711209363
 20
-22.114714301
 10
16.384391334
 20
-22.107394166
 10
16.3976793497
 20
-22.0990739259
 10
16.4109849834
 20
-22.0897535809
  0
LINE
  5
287
100
AcDbEntity
  8
DRAFT
100
AcDbLine
 62
7
  6
CONTINUOUS
 10
-15.4636169577
 20
-23.5
 11
-14.8727483636
 21
-23.5
  0
LINE
  5
288
100
AcDbEntity
  8
DRAFT
100
AcDbLine
 62
7
  6
CONTINUOUS
 10
-8.4772516364
 20
-23.5
 11
-7.8863830423
 21
-23.5
  0
LINE
  5
289
100
AcDbEntity
  8
ASSI
100
AcDbLine
 62
7
  6
CONTINUOUS
 10
7.1501425218
 20
-23.5
 11
14.4998574782
 21
-23.5
  0
LINE
  5
28A
100
AcDbEntity
  8
ASSI
100
AcDbLine
 62
7
  6
CONTINUOUS
 10
14.2948202597
 20
-22.5
 11
7.3551797403
 21
-22.5
  0
LINE
  5
28B
100
AcDbEntity
  8
RACCORDO
100
AcDbLine
 62
7
  6
CONTINUOUS
 10
16.2065960251
 20
-22.4
 11
14.125
 21
-22.4
  0
LINE
  5
28C
100
AcDbEntity
  8
RACCORDO
100
AcDbLine
 62
7
  6
CONTINUOUS
 10
7.525
 20
-22.4
 11
5.4434039749
 21
-22.4
  0
LINE
  5
28D
100
AcDbEntity
  8
ASSI
100
AcDbLine
 62
7
  6
CONTINUOUS
 10
8.225
 20
-22.4
 11
8.825
 21
-22.4
  0
LINE
  5
28E
100
AcDbEntity
  8
RACCORDO
100
AcDbLine
 62
7
  6
CONTINUOUS
 10
-6.2927746705
 20
-22.4
 11
-8.4772516364
 21
-22.4
  0
LINE
  5
28F
100
AcDbEntity
  8
ASSI
100
AcDbLine
 62
7
  6
CONTINUOUS
 10
12.825
 20
-22.4
 11
13.425
 21
-22.4
  0
LINE
  5
290
100
AcDbEntity
  8
RACCORDO
100
AcDbLine
 62
7
  6
CONTINUOUS
 10
-14.8727483636
 20
-22.4
 11
-17.0572253298
 21
-22.4
  0
LINE
  5
291
100
AcDbEntity
  8
RACCORDO
100
AcDbLine
 62
250
  6
CONTINUOUS
 10
5.3920270434
 20
-22.3608886661
 11
16.2579729566
 21
-22.3608886661
  0
LINE
  5
292
100
AcDbEntity
  8
RACCORDO
100
AcDbLine
 62
250
  6
CONTINUOUS
 10
-17.0887936197
 20
-22.358692912
 11
-14.8865062048
 21
-22.358692912
  0
LINE
  5
293
100
AcDbEntity
  8
RACCORDO
100
AcDbLine
 62
250
  6
CONTINUOUS
 10
-6.2612063804
 20
-22.358692912
 11
-8.4634937952
 21
-22.358692912
  0
LINE
  5
294
100
AcDbEntity
  8
0
100
AcDbLine
 62
7
  6
CONTINUOUS
 10
-8.575
 20
-22.2
 11
-14.775
 21
-22.2
  0
LINE
  5
295
100
AcDbEntity
  8
RACCORDO
100
AcDbLine
 62
250
  6
CONTINUOUS
 10
-17.0887936198
 20
-22.1833408737
 11
-14.8897884908
 21
-22.1833408737
  0
LINE
  5
296
100
AcDbEntity
  8
RACCORDO
100
AcDbLine
 62
250
  6
CONTINUOUS
 10
-6.2612063802
 20
-22.1833408737
 11
-8.4602115092
 21
-22.1833408737
  0
LINE
  5
297
100
AcDbEntity
  8
RACCORDO
100
AcDbLine
 62
250
  6
CONTINUOUS
 10
5.3920270434
 20
-22.1416986182
 11
16.2579729566
 21
-22.1416986182
  0
LINE
  5
298
100
AcDbEntity
  8
RACCORDO
100
AcDbLine
 62
7
  6
CONTINUOUS
 10
21.2251522961
 20
-22.0457525301
 11
-22.0751522961
 21
-22.0457525301
  0
LWPOLYLINE
  5
299
100
AcDbEntity
  8
ASSI
100
AcDbPolyline
 62
7
  6
CONTINUOUS
 90
10
 70
0
 10
7.1501425218
 20
-23.5
 10
7.0846696005
 20
-23.497809388
 10
7.0200157583
 20
-23.491478198
 10
6.9561809954
 20
-23.4810064299
 10
6.8929029321
 20
-23.4663149736
 10
6.830443948
 20
-23.4474829393
 10
6.7695911819
 20
-23.4247476575
 10
6.7106070134
 20
-23.3981882383
 10
6.6532290628
 20
-23.3677255716
 10
6.5974573302
 20
-23.3333596575
  0
LWPOLYLINE
  5
29A
100
AcDbEntity
  8
RACCORDO
100
AcDbPolyline
 62
7
  6
CONTINUOUS
 90
7
 70
0
 10
-17.0579437848
 20
-22.3998821875
 10
-17.1127478581
 20
-22.3967192955
 10
-17.1657870813
 20
-22.388021885
 10
-17.2170614544
 20
-22.3737899561
 10
-17.2665709772
 20
-22.3540235087
 10
-17.3143156498
 20
-22.3287225427
 10
-17.3602954723
 20
-22.2978870583
  0
LWPOLYLINE
  5
29B
100
AcDbEntity
  8
RACCORDO
100
AcDbPolyline
 62
7
  6
CONTINUOUS
 90
6
 70
0
 10
5.4434039749
 20
-22.4
 10
5.3874516054
 20
-22.3965603647
 10
5.3335981026
 20
-22.3876621281
 10
5.2818434667
 20
-22.3733052903
 10
5.2321876975
 20
-22.3534898512
 10
5.1846307952
 20
-22.3282158109
  0
LWPOLYLINE
  5
29C
100
AcDbEntity
  8
RACCORDO
100
AcDbPolyline
 62
250
  6
CONTINUOUS
 90
13
 70
0
 10
-21.9687282419
 20
-21.3553125446
 10
-22.0339625352
 20
-21.3509360836
 10
-22.0980812999
 20
-21.3381392531
 10
-22.1599880833
 20
-21.3171408834
 10
-22.2186242584
 20
-21.2883000538
 10
-22.2729871265
 20
-21.2521099522
 10
-22.3221470641
 20
-21.2091894417
 10
-22.3652634197
 20
-21.1602724776
 10
-22.4015988888
 20
-21.1061955566
 10
-22.4305321226
 20
-21.0478834126
 10
-22.451568353
 20
-20.9863332029
 10
-22.4643478532
 20
-20.9225974571
 10
-22.4686520894
 20
-20.8577660781
  0
LWPOLYLINE
  5
29D
100
AcDbEntity
  8
RACCORDO
100
AcDbPolyline
 62
250
  6
CONTINUOUS
 90
10
 70
0
 10
-5.9574076991
 20
-22.2559685277
 10
-5.9612365331
 20
-22.2548991852
 10
-5.9681322969
 20
-22.2497036991
 10
-5.9779148492
 20
-22.2405177924
 10
-5.9903286362
 20
-22.2275814315
 10
-6.005049368
 20
-22.2112325575
 10
-6.0216924898
 20
-22.1918982583
 10
-6.0398232286
 20
-22.1700836112
 10
-6.0589679501
 20
-22.1463584896
 10
-6.0786265325
 20
-22.1213426751
  0
LINE
  5
29E
100
AcDbEntity
  8
DRAFT
100
AcDbLine
 62
7
  6
CONTINUOUS
 10
-8.5470718961
 20
-23.4301797403
 11
-8.4772516364
 21
-23.5
  0
LINE
  5
29F
100
AcDbEntity
  8
RACCORDO
100
AcDbLine
 62
7
  6
CONTINUOUS
 10
-14.8865062048
 20
22.358692912
 11
-14.8727483636
 21
22.4
  0
LWPOLYLINE
  5
2A0
100
AcDbEntity
  8
RACCORDO
100
AcDbPolyline
 62
250
  6
CONTINUOUS
 90
13
 70
0
 10
-21.9602366754
 20
-20.3159674949
 10
-22.0247782587
 20
-20.3161122931
 10
-22.088239906
 20
-20.3166376199
 10
-22.1495597474
 20
-20.3175346852
 10
-22.2077117508
 20
-20.318788479
 10
-22.2617228898
 20
-20.3203780224
 10
-22.3106894249
 20
-20.3222767185
 10
-22.3537920253
 20
-20.3244527975
 10
-22.390309478
 20
-20.3268698482
 10
-22.4196307562
 20
-20.3294874275
 10
-22.4412652426
 20
-20.3322617367
 10
-22.4548509389
 20
-20.3351463548
 10
-22.4601605228
 20
-20.338093015
  0
LINE
  5
2A1
100
AcDbEntity
  8
RACCORDO
100
AcDbLine
 62
250
  6
CONTINUOUS
 10
21.1187282419
 20
-21.3553125446
 11
-21.9687282419
 21
-21.3553125446
  0
LINE
  5
2A2
100
AcDbEntity
  8
RACCORDO
100
AcDbLine
 62
250
  6
CONTINUOUS
 10
21.1102366754
 20
-20.3159664184
 11
-21.9602366754
 21
-20.3159664184
  0
LWPOLYLINE
  5
2A3
100
AcDbEntity
  8
RACCORDO
100
AcDbPolyline
 62
250
  6
CONTINUOUS
 90
6
 70
0
 10
5.3178525861
 20
-22.1304295672
 10
5.3315446184
 20
-22.1342990148
 10
5.3458111501
 20
-22.1373829804
 10
5.3606419485
 20
-22.1396070083
 10
5.3760472463
 20
-22.1410455543
 10
5.3920270434
 20
-22.1416986182
  0
LINE
  5
2A4
100
AcDbEntity
  8
RACCORDO
100
AcDbLine
 62
7
  6
CONTINUOUS
 10
-14.8727483636
 20
-22.4
 11
-14.8865062048
 21
-22.358692912
  0
LINE
  5
2A5
100
AcDbEntity
  8
RACCORDO
100
AcDbLine
 62
250
  6
CONTINUOUS
 10
-22.4686520894
 20
-20.8577660781
 11
-22.575
 21
-21.5477120712
  0
LINE
  5
2A6
100
AcDbEntity
  8
RACCORDO
100
AcDbLine
 62
250
  6
CONTINUOUS
 10
-21.9687282419
 20
-21.3553125446
 11
-22.0751522961
 21
-22.0457525301
  0
LWPOLYLINE
  5
2A7
100
AcDbEntity
  8
RACCORDO
100
AcDbPolyline
 62
7
  6
CONTINUOUS
 90
3
 70
0
 10
5.1848319782
 20
22.3283227293
 10
5.2321876975
 20
22.3534898512
 10
5.2818434667
 20
22.3733052903
  0
LINE
  5
2A8
100
AcDbEntity
  8
RACCORDO
100
AcDbLine
 62
250
  6
CONTINUOUS
 10
16.5582211612
 20
-22.2571921105
 11
16.5626567715
 21
-22.2580136374
  0
LWPOLYLINE
  5
2A9
100
AcDbEntity
  8
RACCORDO
100
AcDbPolyline
 62
7
  6
CONTINUOUS
 90
8
 70
0
 10
5.1931630512
 20
-22.3199706407
 10
5.2179933332
 20
-22.3299036582
 10
5.2440502879
 20
-22.3387238977
 10
5.2713029878
 20
-22.3462861135
 10
5.2997909766
 20
-22.3524544732
 10
5.3294808876
 20
-22.3570623213
 10
5.3602602779
 20
-22.3599310029
 10
5.3920270434
 20
-22.3608886661
  0
LINE
  5
2AA
100
AcDbEntity
  8
RACCORDO
100
AcDbLine
 62
250
  6
CONTINUOUS
 10
-17.0887936198
 20
-22.1833408737
 11
-17.0887936198
 21
-22.358692912
  0
LINE
  5
2AB
100
AcDbEntity
  8
RACCORDO
100
AcDbLine
 62
250
  6
CONTINUOUS
 10
-17.0887936198
 20
22.1833408737
 11
-17.0887936223
 21
22.358692912
  0
LINE
  5
2AC
100
AcDbEntity
  8
RACCORDO
100
AcDbLine
 62
7
  6
CONTINUOUS
 10
5.1391727597
 20
22.2974831693
 11
5.1848319782
 21
22.3283227293
  0
LWPOLYLINE
  5
2AD
100
AcDbEntity
  8
RACCORDO
100
AcDbPolyline
 62
7
  6
CONTINUOUS
 90
4
 70
0
 10
5.1666199745
 20
22.307590553
 10
5.1399880536
 20
22.2931877078
 10
5.1134958874
 20
22.2766903399
 10
5.0873364007
 20
22.2580162062
  0
LWPOLYLINE
  5
2AE
100
AcDbEntity
  8
RACCORDO
100
AcDbPolyline
 62
250
  6
CONTINUOUS
 90
10
 70
0
 10
21.6993909694
 20
-16.1820409942
 10
21.7423289473
 20
-16.1814975963
 10
21.7839908229
 20
-16.180064869
 10
21.8231384189
 20
-16.1777853924
 10
21.858608282
 20
-16.174726912
 10
21.8893462594
 20
-16.1709803247
 10
21.9144388289
 20
-16.1666569774
 10
21.9331402474
 20
-16.1618853587
 10
21.9448947152
 20
-16.1568072794
 10
21.9493528932
 20
-16.1515736583
  0
LWPOLYLINE
  5
2AF
100
AcDbEntity
  8
RACCORDO
100
AcDbPolyline
 62
250
  6
CONTINUOUS
 90
13
 70
0
 10
-22.5984310684
 20
-16.1347897054
 10
-22.6242493722
 20
-16.1345312496
 10
-22.6496357369
 20
-16.1338692249
 10
-22.6741653155
 20
-16.1328147045
 10
-22.6974275971
 20
-16.1313853295
 10
-22.719033252
 20
-16.1296050159
 10
-22.7386206551
 20
-16.1275035554
 10
-22.755861979
 20
-16.1251161129
 10
-22.7704686469
 20
-16.1224826411
 10
-22.7821961564
 20
-16.1196472156
 10
-22.7908482143
 20
-16.11665729
 10
-22.7962800073
 20
-16.113562901
 10
-22.7984006074
 20
-16.1104158357
  0
LINE
  5
2B0
100
AcDbEntity
  8
RACCORDO
100
AcDbLine
 62
7
  6
CONTINUOUS
 10
5.1846307952
 20
-22.3282158109
 11
5.1391727597
 21
-22.2974831693
  0
LWPOLYLINE
  5
2B1
100
AcDbEntity
  8
RACCORDO
100
AcDbPolyline
 62
7
  6
CONTINUOUS
 90
6
 70
0
 10
5.0873365777
 20
-22.2580163413
 10
5.1060928186
 20
-22.2716592483
 10
5.1260519139
 20
-22.2847943936
 10
5.147224143
 20
-22.2973080178
 10
5.1695901065
 20
-22.3090705858
 10
5.1931630512
 20
-22.3199706407
  0
LINE
  5
2B2
100
AcDbEntity
  8
RACCORDO
100
AcDbLine
 62
7
  6
CONTINUOUS
 10
-14.8897884908
 20
-22.1833408737
 11
-14.8900833718
 21
-22.0457525301
  0
LINE
  5
2B3
100
AcDbEntity
  8
DRAFT
100
AcDbLine
 62
7
  6
CONTINUOUS
 10
-14.8727483636
 20
23.5
 11
-14.8727483636
 21
22.4
  0
LINE
  5
2B4
100
AcDbEntity
  8
DRAFT
100
AcDbLine
 62
7
  6
CONTINUOUS
 10
-14.8727483636
 20
-23.5
 11
-14.8727483636
 21
-22.4
  0
LINE
  5
2B5
100
AcDbEntity
  8
DRAFT
100
AcDbLine
 62
7
  6
CONTINUOUS
 10
-14.8029281039
 20
23.4301797403
 11
-14.8029281039
 21
21.8621633467
  0
LINE
  5
2B6
100
AcDbEntity
  8
DRAFT
100
AcDbLine
 62
7
  6
CONTINUOUS
 10
-14.8029281039
 20
-23.4301797403
 11
-14.8029281039
 21
-22.0457525301
  0
LINE
  5
2B7
100
AcDbEntity
  8
DRAFT
100
AcDbLine
 62
7
  6
CONTINUOUS
 10
-14.775
 20
-22.0457525301
 11
-14.775
 21
-22.2
  0
LINE
  5
2B8
100
AcDbEntity
  8
DRAFT
100
AcDbLine
 62
7
  6
CONTINUOUS
 10
-14.775
 20
21.8621633467
 11
-14.775
 21
22.2
  0
LINE
  5
2B9
100
AcDbEntity
  8
RACCORDO
100
AcDbLine
 62
7
  6
CONTINUOUS
 10
-14.8897884908
 20
22.1833408737
 11
-14.8904768424
 21
21.8621633467
  0
LINE
  5
2BA
100
AcDbEntity
  8
RACCORDO
100
AcDbLine
 62
250
  6
CONTINUOUS
 10
5.2390150166
 20
22.0897535809
 11
4.949210676
 21
21.8621633467
  0
LWPOLYLINE
  5
2BB
100
AcDbEntity
  8
RACCORDO
100
AcDbPolyline
 62
250
  6
CONTINUOUS
 90
8
 70
0
 10
5.2390150166
 20
-22.0897535809
 10
5.2484605501
 20
-22.0967266527
 10
5.2585112524
 20
-22.1033267907
 10
5.2691671236
 20
-22.1095539949
 10
5.2804281544
 20
-22.1154713256
 10
5.2922943541
 20
-22.1210157226
 10
5.3047657507
 20
-22.1259980047
 10
5.3178525861
 20
-22.1304295672
  0
LINE
  5
2BC
100
AcDbEntity
  8
RACCORDO
100
AcDbLine
 62
250
  6
CONTINUOUS
 10
5.3920270434
 20
-22.3608886661
 11
5.4434039749
 21
-22.4
  0
LINE
  5
2BD
100
AcDbEntity
  8
RACCORDO
100
AcDbLine
 62
250
  6
CONTINUOUS
 10
5.1829863765
 20
-22.0457525301
 11
5.2390150166
 21
-22.0897535809
  0
LINE
  5
2BE
100
AcDbEntity
  8
DRAFT
100
AcDbLine
 62
7
  6
CONTINUOUS
 10
-8.575
 20
-22.0457525301
 11
-8.575
 21
-22.2
  0
LINE
  5
2BF
100
AcDbEntity
  8
DRAFT
100
AcDbLine
 62
7
  6
CONTINUOUS
 10
-8.575
 20
21.8621633467
 11
-8.575
 21
22.2
  0
LINE
  5
2C0
100
AcDbEntity
  8
DRAFT
100
AcDbLine
 62
7
  6
CONTINUOUS
 10
-8.5470718961
 20
23.4301797403
 11
-8.5470718961
 21
21.8621633467
  0
LINE
  5
2C1
100
AcDbEntity
  8
DRAFT
100
AcDbLine
 62
7
  6
CONTINUOUS
 10
-8.5470718961
 20
-23.4301797403
 11
-8.5470718961
 21
-22.0457525301
  0
LINE
  5
2C2
100
AcDbEntity
  8
DRAFT
100
AcDbLine
 62
7
  6
CONTINUOUS
 10
-8.4772516364
 20
23.5
 11
-8.4772516364
 21
22.4
  0
LINE
  5
2C3
100
AcDbEntity
  8
DRAFT
100
AcDbLine
 62
7
  6
CONTINUOUS
 10
-8.4772516364
 20
-23.5
 11
-8.4772516364
 21
-22.4
  0
LWPOLYLINE
  5
2C4
100
AcDbEntity
  8
0
100
AcDbPolyline
 62
7
  6
CONTINUOUS
 90
3
 70
0
 43
0.3500000006
 10
0.6107142799
 20
32.5357161255
 10
0.539285717
 20
32.3214271088
 10
0.3964285558
 20
32.0357159729
  0
LINE
  5
2C5
100
AcDbEntity
  8
RACCORDO
100
AcDbLine
 62
7
  6
CONTINUOUS
 10
-8.4602115092
 20
22.1833408737
 11
-8.4595231576
 21
21.8621633467
  0
LINE
  5
2C6
100
AcDbEntity
  8
RACCORDO
100
AcDbLine
 62
250
  6
CONTINUOUS
 10
-6.2612063802
 20
22.358692912
 11
-6.2612063802
 21
22.1833408737
  0
LINE
  5
2C7
100
AcDbEntity
  8
RACCORDO
100
AcDbLine
 62
250
  6
CONTINUOUS
 10
-6.2612063802
 20
-22.358692912
 11
-6.2612063802
 21
-22.1833408737
  0
LINE
  5
2C8
100
AcDbEntity
  8
RACCORDO
100
AcDbLine
 62
7
  6
CONTINUOUS
 10
-8.4602115092
 20
-22.1833408737
 11
-8.4599166282
 21
-22.0457525301
  0
LWPOLYLINE
  5
2C9
100
AcDbEntity
  8
RACCORDO
100
AcDbPolyline
 62
250
  6
CONTINUOUS
 90
13
 70
0
 10
21.6101605229
 20
-20.338093015
 10
21.6048515182
 20
-20.335146309
 10
21.5912662864
 20
-20.3322616432
 10
21.5696321448
 20
-20.3294872858
 10
21.5403110905
 20
-20.3268696594
 10
21.5037937432
 20
-20.3244525638
 10
21.4606911357
 20
-20.3222764435
 10
21.41172449
 20
-20.3203777109
 10
21.357713149
 20
-20.3187881366
 10
21.299560867
 20
-20.3175343181
 10
21.2382406871
 20
-20.3166372351
 10
21.1747786601
 20
-20.316111898
 10
21.1102366754
 20
-20.3159670971
  0
LINE
  5
2CA
100
AcDbEntity
  8
SUPERFICI
100
AcDbLine
 62
7
  6
CONTINUOUS
 10
7.5916327976
 20
22.5
 11
7.525
 21
22.4
  0
LWPOLYLINE
  5
2CB
100
AcDbEntity
  8
RACCORDO
100
AcDbPolyline
 62
250
  6
CONTINUOUS
 90
9
 70
0
 10
-21.9681864338
 20
21.8621633088
 10
-21.9679931085
 20
21.8619120617
 10
-21.9672744908
 20
21.8565582293
 10
-21.966572389
 20
21.8442728888
 10
-21.9658821259
 20
21.825139329
 10
-21.9652083787
 20
21.799290404
 10
-21.9645651778
 20
21.7669114023
 10
-21.9639532238
 20
21.7282346242
 10
-21.9633718163
 20
21.6835287762
  0
LINE
  5
2CC
100
AcDbEntity
  8
SUPERFICI
100
AcDbLine
 62
7
  6
CONTINUOUS
 10
7.525
 20
-22.4
 11
7.551667959
 21
-22.4400222712
  0
LWPOLYLINE
  5
2CD
100
AcDbEntity
  8
0
100
AcDbPolyline
 62
7
  6
CONTINUOUS
 90
2
 70
0
 43
0.3500000006
 10
-3.8178572559
 20
32.2500004578
 10
-3.8178572559
 20
33.7500009155
  0
LWPOLYLINE
  5
2CE
100
AcDbEntity
  8
0
100
AcDbPolyline
 62
7
  6
CONTINUOUS
 90
2
 70
0
 43
0.3500000006
 10
-1.4607143269
 20
32.2500004578
 10
-1.4607143269
 20
33.7500009155
  0
LINE
  5
2CF
100
AcDbEntity
  8
RACCORDO
100
AcDbLine
 62
7
  6
CONTINUOUS
 10
-8.4772516364
 20
-22.4
 11
-8.4634937952
 21
-22.358692912
  0
LWPOLYLINE
  5
2D0
100
AcDbEntity
  8
RACCORDO
100
AcDbPolyline
 62
250
  6
CONTINUOUS
 90
9
 70
0
 10
16.4109849834
 20
22.0897535809
 10
16.435828103
 20
22.121413173
 10
16.4600065484
 20
22.1514105682
 10
16.4828734307
 20
22.1789431925
 10
16.5038169514
 20
22.2032744167
 10
16.5222767712
 20
22.2237532643
 10
16.5377590017
 20
22.239831828
 10
16.549849419
 20
22.2510799295
 10
16.5582245468
 20
22.2571966284
  0
LWPOLYLINE
  5
2D1
100
AcDbEntity
  8
RACCORDO
100
AcDbPolyline
 62
250
  6
CONTINUOUS
 90
10
 70
0
 10
-17.2713734675
 20
-22.1213426753
 10
-17.2910344845
 20
-22.1463616214
 10
-17.3101818038
 20
-22.1700900793
 10
-17.3283151768
 20
-22.1919081124
 10
-17.3449608456
 20
-22.2112456961
 10
-17.3596839206
 20
-22.2275976109
 10
-17.3720997423
 20
-22.240536642
 10
-17.3818839314
 20
-22.2497247403
 10
-17.3887808632
 20
-22.2549218548
 10
-17.3926103463
 20
-22.2559922042
  0
LWPOLYLINE
  5
2D2
100
AcDbEntity
  8
RACCORDO
100
AcDbPolyline
 62
250
  6
CONTINUOUS
 90
9
 70
0
 10
21.725
 20
-0.1816773446
 10
21.7497011015
 20
-0.1808278877
 10
21.7888487068
 20
-0.1785484092
 10
21.8243185715
 20
-0.1754899267
 10
21.8550565432
 20
-0.1717433375
 10
21.8801490999
 20
-0.1674199897
 10
21.8988505026
 20
-0.1626483722
 10
21.9106049568
 20
-0.1575702958
 10
21.9150631288
 20
-0.1523366793
  0
LWPOLYLINE
  5
2D3
100
AcDbEntity
  8
0
100
AcDbPolyline
 62
7
  6
CONTINUOUS
 90
2
 70
0
 43
0.3500000006
 10
30.0750001144
 20
-1.3571429443
 10
28.5749996567
 20
-1.3571429443
  0
LWPOLYLINE
  5
2D4
100
AcDbEntity
  8
0
100
AcDbPolyline
 62
7
  6
CONTINUOUS
 90
4
 70
0
 43
0.3500000006
 10
27.7178571854
 20
-0.0000003204
 10
27.0749991989
 20
-0.0000003204
 10
27.0749991989
 20
1.5000001373
 10
30.0750001144
 20
0.642857666
  0
LWPOLYLINE
  5
2D5
100
AcDbEntity
  8
RACCORDO
100
AcDbPolyline
 62
250
  6
CONTINUOUS
 90
13
 70
0
 10
-22.575
 20
-0.1217603456
 10
-22.5899308808
 20
-0.1216108756
 10
-22.615317692
 20
-0.1209488247
 10
-22.6398475506
 20
-0.1198942706
 10
-22.6631099374
 20
-0.1184648616
 10
-22.6847155449
 20
-0.1166845198
 10
-22.7043027928
 20
-0.1145830399
 10
-22.721543879
 20
-0.1121955912
 10
-22.7361502653
 20
-0.1095621289
 10
-22.7478775068
 20
-0.1067267252
 10
-22.7565293424
 20
-0.1037368321
 10
-22.7619609793
 20
-0.1006424868
 10
-22.7640815166
 20
-0.0974954747
  0
LWPOLYLINE
  5
2D6
100
AcDbEntity
  8
RACCORDO
100
AcDbPolyline
 62
250
  6
CONTINUOUS
 90
10
 70
0
 10
-17.2713734675
 20
22.1213426753
 10
-17.2910346372
 20
22.1463618377
 10
-17.3101821214
 20
22.1700905234
 10
-17.3283156638
 20
22.1919087851
 10
-17.3449614986
 20
22.2112465886
 10
-17.3596847287
 20
22.2275987049
 10
-17.3721006879
 20
22.2405379107
 10
-17.3818849909
 20
22.2497261502
 10
-17.3887820083
 20
22.2549233668
 10
-17.3926115451
 20
22.2559937756
  0
LWPOLYLINE
  5
2D7
100
AcDbEntity
  8
RACCORDO
100
AcDbPolyline
 62
250
  6
CONTINUOUS
 90
9
 70
0
 10
16.4109849834
 20
-22.0897535809
 10
16.43582771
 20
-22.1214125481
 10
16.4600056937
 20
-22.1514092585
 10
16.4828720769
 20
-22.1789411802
 10
16.5038150924
 20
-22.2032717244
 10
16.5222744311
 20
-22.2237499517
 10
16.5377562316
 20
-22.2398279878
 10
16.5498462942
 20
-22.251075681
 10
16.5582211612
 20
-22.2571921105
  0
LINE
  5
2D8
100
AcDbEntity
  8
RACCORDO
100
AcDbLine
 62
7
  6
CONTINUOUS
 10
-8.4634937952
 20
22.358692912
 11
-8.4772516364
 21
22.4
  0
LWPOLYLINE
  5
2D9
100
AcDbEntity
  8
0
100
AcDbPolyline
 62
7
  6
CONTINUOUS
 90
4
 70
0
 43
0.3500000006
 10
1.610714231
 20
32.6785694275
 10
1.610714231
 20
33.5357164307
 10
2.0392857499
 20
33.9642854004
 10
2.682142745
 20
33.9642854004
  0
LWPOLYLINE
  5
2DA
100
AcDbEntity
  8
RACCORDO
100
AcDbPolyline
 62
250
  6
CONTINUOUS
 90
13
 70
0
 10
-22.575
 20
0.1217603456
 10
-22.589930881
 20
0.1216108755
 10
-22.6153176925
 20
0.1209488247
 10
-22.6398475512
 20
0.1198942705
 10
-22.6631099381
 20
0.1184648616
 10
-22.6847155456
 20
0.1166845197
 10
-22.7043027935
 20
0.1145830398
 10
-22.7215438795
 20
0.1121955911
 10
-22.7361502657
 20
0.1095621288
 10
-22.7478775071
 20
0.1067267252
 10
-22.7565293425
 20
0.103736832
 10
-22.7619609794
 20
0.1006424868
 10
-22.7640815166
 20
0.0974954747
  0
LWPOLYLINE
  5
2DB
100
AcDbEntity
  8
RACCORDO
100
AcDbPolyline
 62
250
  6
CONTINUOUS
 90
9
 70
0
 10
21.725
 20
0.1816773446
 10
21.7497010587
 20
0.1808278897
 10
21.7888486548
 20
0.1785484129
 10
21.8243185178
 20
0.1754899321
 10
21.8550564952
 20
0.1717433444
 10
21.8801490646
 20
0.167419997
 10
21.8988504831
 20
0.1626483784
 10
21.9106049508
 20
0.1575702996
 10
21.9150631288
 20
0.1523366793
  0
LINE
  5
2DC
100
AcDbEntity
  8
ASSI
100
AcDbLine
 62
7
  6
CONTINUOUS
 10
7.4401277229
 20
22.4
 11
7.4569395665
 21
22.4780932327
  0
LWPOLYLINE
  5
2DD
100
AcDbEntity
  8
RACCORDO
100
AcDbPolyline
 62
250
  6
CONTINUOUS
 90
10
 70
0
 10
21.1181862968
 20
21.8621633035
 10
21.1179930841
 20
21.8619119028
 10
21.1172744786
 20
21.8565570279
 10
21.1165724253
 20
21.8442704737
 10
21.1158822869
 20
21.8251370376
 10
21.1152087008
 20
21.7992899284
 10
21.1145655788
 20
21.7669112553
 10
21.1139535284
 20
21.7282275276
 10
21.1133719422
 20
21.683509288
 10
21.112337422
 20
21.5772790578
  0
LINE
  5
2DE
100
AcDbEntity
  8
ASSI
100
AcDbLine
 62
7
  6
CONTINUOUS
 10
7.4401277229
 20
-22.4
 11
7.4569395665
 21
-22.4780932327
  0
LINE
  5
2DF
100
AcDbEntity
  8
RACCORDO
100
AcDbLine
 62
250
  6
CONTINUOUS
 10
5.3920270434
 20
-22.1416986182
 11
5.3920270434
 21
-22.3608886661
  0
LINE
  5
2E0
100
AcDbEntity
  8
RACCORDO
100
AcDbLine
 62
250
  6
CONTINUOUS
 10
5.3920270434
 20
22.1416986182
 11
5.3920270434
 21
22.3608886661
  0
LINE
  5
2E1
100
AcDbEntity
  8
DRAFT
100
AcDbLine
 62
7
  6
CONTINUOUS
 10
-14.8029281039
 20
-23.4301797403
 11
-14.8727483636
 21
-23.5
  0
LINE
  5
2E2
100
AcDbEntity
  8
DRAFT
100
AcDbLine
 62
7
  6
CONTINUOUS
 10
-14.8029281039
 20
23.4301797403
 11
-14.8727483636
 21
23.5
  0
LINE
  5
2E3
100
AcDbEntity
  8
ASSI
100
AcDbLine
 62
7
  6
CONTINUOUS
 10
7.3551797403
 20
-22.5
 11
7.3551797403
 21
-22.4
  0
LINE
  5
2E4
100
AcDbEntity
  8
ASSI
100
AcDbLine
 62
7
  6
CONTINUOUS
 10
7.3551797403
 20
22.4
 11
7.3551797403
 21
22.5
  0
LINE
  5
2E5
100
AcDbEntity
  8
RACCORDO
100
AcDbLine
 62
250
  6
CONTINUOUS
 10
-6.2927746705
 20
-22.4
 11
-6.2612063804
 21
-22.358692912
  0
LINE
  5
2E6
100
AcDbEntity
  8
RACCORDO
100
AcDbLine
 62
250
  6
CONTINUOUS
 10
-5.9897045299
 20
-22.29788706
 11
-5.9573881452
 21
-22.2559941819
  0
LINE
  5
2E7
100
AcDbEntity
  8
RACCORDO
100
AcDbLine
 62
250
  6
CONTINUOUS
 10
-22.825
 20
-16.1196590187
 11
-22.7984006074
 21
-16.1104158367
  0
LINE
  5
2E8
100
AcDbEntity
  8
RACCORDO
100
AcDbLine
 62
250
  6
CONTINUOUS
 10
-22.7984006074
 20
16.1104158367
 11
-22.825
 21
16.1196590187
  0
LINE
  5
2E9
100
AcDbEntity
  8
RACCORDO
100
AcDbLine
 62
250
  6
CONTINUOUS
 10
-5.9573881452
 20
22.2559941819
 11
-5.9897045296
 21
22.2978870598
  0
LINE
  5
2EA
100
AcDbEntity
  8
RACCORDO
100
AcDbLine
 62
250
  6
CONTINUOUS
 10
-6.2612063804
 20
22.358692912
 11
-6.2927746702
 21
22.4
  0
LINE
  5
2EB
100
AcDbEntity
  8
ASSI
100
AcDbLine
 62
7
  6
CONTINUOUS
 10
14.2401277229
 20
22.4
 11
14.2535001587
 21
22.4621167296
  0
LINE
  5
2EC
100
AcDbEntity
  8
ASSI
100
AcDbLine
 62
7
  6
CONTINUOUS
 10
14.2401277229
 20
-22.4
 11
14.2535001587
 21
-22.4621167296
  0
LINE
  5
2ED
100
AcDbEntity
  8
ASSI
100
AcDbLine
 62
7
  6
CONTINUOUS
 10
7.4098722771
 20
-22.4
 11
7.3964998413
 21
-22.4621167296
  0
LINE
  5
2EE
100
AcDbEntity
  8
ASSI
100
AcDbLine
 62
7
  6
CONTINUOUS
 10
7.4098722771
 20
22.4
 11
7.3964998413
 21
22.4621167296
  0
LINE
  5
2EF
100
AcDbEntity
  8
ASSI
100
AcDbLine
 62
7
  6
CONTINUOUS
 10
14.2948202597
 20
22.5
 11
14.2948202597
 21
22.4
  0
LINE
  5
2F0
100
AcDbEntity
  8
ASSI
100
AcDbLine
 62
7
  6
CONTINUOUS
 10
14.2948202597
 20
-22.4
 11
14.2948202597
 21
-22.5
  0
LINE
  5
2F1
100
AcDbEntity
  8
RACCORDO
100
AcDbLine
 62
250
  6
CONTINUOUS
 10
-5.9825572412
 20
-22.0457525301
 11
-6.0786265325
 21
-22.1213426753
  0
LINE
  5
2F2
100
AcDbEntity
  8
RACCORDO
100
AcDbLine
 62
7
  6
CONTINUOUS
 10
-5.6901550175
 20
-22.0457525301
 11
-5.9573881452
 21
-22.2559941819
  0
LWPOLYLINE
  5
2F3
100
AcDbEntity
  8
RACCORDO
100
AcDbPolyline
 62
250
  6
CONTINUOUS
 90
7
 70
0
 10
-5.9573881452
 20
-22.2559941819
 10
-6.002483824
 20
-22.2866771848
 10
-6.0505819097
 20
-22.3122558251
 10
-6.1011110624
 20
-22.3324396173
 10
-6.1534727194
 20
-22.3470022264
 10
-6.2070482619
 20
-22.3557838682
 10
-6.2612063802
 20
-22.358692912
  0
LWPOLYLINE
  5
2F4
100
AcDbEntity
  8
RACCORDO
100
AcDbPolyline
 62
250
  6
CONTINUOUS
 90
7
 70
0
 10
-6.0786265325
 20
-22.1213426753
 10
-6.106333994
 20
-22.1400665781
 10
-6.1351304608
 20
-22.155434133
 10
-6.1650159328
 20
-22.1674453401
 10
-6.19599041
 20
-22.1761001992
 10
-6.2280538925
 20
-22.1813987104
 10
-6.2612063802
 20
-22.1833408737
  0
LWPOLYLINE
  5
2F5
100
AcDbEntity
  8
RACCORDO
100
AcDbPolyline
 62
7
  6
CONTINUOUS
 90
7
 70
0
 10
-5.9897044757
 20
-22.2978870308
 10
-6.0356843213
 20
-22.3287225274
 10
-6.0834290112
 20
-22.3540235025
 10
-6.1329385456
 20
-22.3737899561
 10
-6.1842129244
 20
-22.3880218881
 10
-6.2372521476
 20
-22.3967192986
 10
-6.2920562152
 20
-22.3998821875
  0
LINE
  5
2F6
100
AcDbEntity
  8
RACCORDO
100
AcDbLine
 62
250
  6
CONTINUOUS
 10
-6.0786265325
 20
22.1213426753
 11
-5.7492298999
 21
21.8621633467
  0
LINE
  5
2F7
100
AcDbEntity
  8
RACCORDO
100
AcDbLine
 62
7
  6
CONTINUOUS
 10
-5.9573881452
 20
22.2559941819
 11
-5.4567992114
 21
21.8621633467
  0
LWPOLYLINE
  5
2F8
100
AcDbEntity
  8
0
100
AcDbPolyline
 62
7
  6
CONTINUOUS
 90
10
 70
0
 43
0.3500000006
 10
0.539285717
 20
32.7500006104
 10
0.6107142799
 20
32.6071427765
 10
0.6107142799
 20
32.5357161255
 10
0.4678571541
 20
32.3928582916
 10
0.3964285558
 20
32.3928582916
 10
0.324999993
 20
32.4642849426
 10
0.324999993
 20
32.5357161255
 10
0.3964285558
 20
32.6785694275
 10
0.4678571541
 20
32.7500006104
 10
0.539285717
 20
32.7500006104
  0
LINE
  5
2F9
100
AcDbEntity
  8
RACCORDO
100
AcDbLine
 62
250
  6
CONTINUOUS
 10
16.2579729566
 20
-22.1416986182
 11
16.2579729566
 21
-22.3608886661
  0
LINE
  5
2FA
100
AcDbEntity
  8
RACCORDO
100
AcDbLine
 62
250
  6
CONTINUOUS
 10
16.2579729566
 20
22.1416986182
 11
16.2579729566
 21
22.3608886661
  0
LWPOLYLINE
  5
2FB
100
AcDbEntity
  8
RACCORDO
100
AcDbPolyline
 62
250
  6
CONTINUOUS
 90
9
 70
0
 10
5.2390150166
 20
-22.0897535809
 10
5.214171897
 20
-22.121413173
 10
5.1899934516
 20
-22.1514105682
 10
5.1671265693
 20
-22.1789431925
 10
5.1461830486
 20
-22.2032744167
 10
5.1277232288
 20
-22.2237532643
 10
5.1122409983
 20
-22.239831828
 10
5.100150581
 20
-22.2510799295
 10
5.0917754532
 20
-22.2571966284
  0
LWPOLYLINE
  5
2FC
100
AcDbEntity
  8
RACCORDO
100
AcDbPolyline
 62
250
  6
CONTINUOUS
 90
13
 70
0
 10
-22.5984310684
 20
16.1347897054
 10
-22.6242499715
 20
16.1345312375
 10
-22.6496367828
 20
16.1338691866
 10
-22.6741666414
 20
16.1328146325
 10
-22.6974290281
 20
16.1313852235
 10
-22.7190346357
 20
16.1296048816
 10
-22.7386218836
 20
16.1275034016
 10
-22.7558629697
 20
16.1251159529
 10
-22.770469356
 20
16.1224824905
 10
-22.7821965976
 20
16.1196470868
 10
-22.7908484332
 20
16.1166571938
 10
-22.7962800701
 20
16.1135628486
 10
-22.7984006074
 20
16.1104158367
  0
LWPOLYLINE
  5
2FD
100
AcDbEntity
  8
RACCORDO
100
AcDbPolyline
 62
250
  6
CONTINUOUS
 90
10
 70
0
 10
21.6993909694
 20
16.1820409942
 10
21.74231688
 20
16.1814978671
 10
21.7839709521
 20
16.1800657632
 10
21.8231153046
 20
16.1777870234
 10
21.8585864802
 20
16.1747291303
 10
21.8893289839
 20
16.1709828027
 10
21.91442722
 20
16.1666593752
 10
21.9331341194
 20
16.1618873351
 10
21.9448928855
 20
16.1568084477
 10
21.9493528932
 20
16.1515736755
  0
LWPOLYLINE
  5
2FE
100
AcDbEntity
  8
RACCORDO
100
AcDbPolyline
 62
250
  6
CONTINUOUS
 90
9
 70
0
 10
5.2390150166
 20
22.0897535809
 10
5.21417229
 20
22.1214125481
 10
5.1899943063
 20
22.1514092585
 10
5.1671279231
 20
22.1789411802
 10
5.1461849075
 20
22.2032717244
 10
5.1277255689
 20
22.2237499517
 10
5.1122437684
 20
22.2398279878
 10
5.1001537058
 20
22.251075681
 10
5.0917788388
 20
22.2571921105
  0
LINE
  5
2FF
100
AcDbEntity
  8
RACCORDO
100
AcDbLine
 62
250
  6
CONTINUOUS
 10
21.1187282419
 20
-21.3553125446
 11
21.2251522961
 21
-22.0457525301
  0
LINE
  5
300
100
AcDbEntity
  8
ASSI
100
AcDbLine
 62
7
  6
CONTINUOUS
 10
14.2098722771
 20
-22.4
 11
14.1930604335
 21
-22.4780932327
  0
LINE
  5
301
100
AcDbEntity
  8
RACCORDO
100
AcDbLine
 62
250
  6
CONTINUOUS
 10
16.5582245468
 20
22.2571966284
 11
16.5626603102
 21
22.2580182737
  0
LINE
  5
302
100
AcDbEntity
  8
ASSI
100
AcDbLine
 62
7
  6
CONTINUOUS
 10
14.2098722771
 20
22.4
 11
14.1930604335
 21
22.4780932327
  0
LINE
  5
303
100
AcDbEntity
  8
RACCORDO
100
AcDbLine
 62
250
  6
CONTINUOUS
 10
21.6186520894
 20
-20.8577660781
 11
21.725
 21
-21.5477120712
  0
LWPOLYLINE
  5
304
100
AcDbEntity
  8
RACCORDO
100
AcDbPolyline
 62
250
  6
CONTINUOUS
 90
7
 70
0
 10
21.6144938459
 20
-20.7696728928
 10
21.6151381033
 20
-20.7922154366
 10
21.6158128545
 20
-20.8119197813
 10
21.616503126
 20
-20.8283687367
 10
21.6172039268
 20
-20.8414232397
 10
21.6179202479
 20
-20.8512223535
 10
21.6186520894
 20
-20.8577660781
  0
LINE
  5
305
100
AcDbEntity
  8
RACCORDO
100
AcDbLine
 62
250
  6
CONTINUOUS
 10
21.6132987371
 20
-20.7159600983
 11
21.6144938459
 21
-20.7696728928
  0
LINE
  5
306
100
AcDbEntity
  8
RACCORDO
100
AcDbLine
 62
250
  6
CONTINUOUS
 10
21.6122628106
 20
-20.6526126358
 11
21.6132987371
 21
-20.7159600983
  0
LWPOLYLINE
  5
307
100
AcDbEntity
  8
RACCORDO
100
AcDbPolyline
 62
250
  6
CONTINUOUS
 90
7
 70
0
 10
21.1145655789
 20
-21.1787784471
 10
21.1152087008
 20
-21.2240287969
 10
21.1158822869
 20
-21.2632698987
 10
21.1165724253
 20
-21.2962254382
 10
21.1172744786
 20
-21.3226655247
 10
21.1179930841
 20
-21.342406975
 10
21.1187282419
 20
-21.3553125446
  0
LINE
  5
308
100
AcDbEntity
  8
RACCORDO
100
AcDbLine
 62
250
  6
CONTINUOUS
 10
21.6114074025
 20
-20.5809315048
 11
21.6122628106
 21
-20.6526126358
  0
LINE
  5
309
100
AcDbEntity
  8
RACCORDO
100
AcDbLine
 62
250
  6
CONTINUOUS
 10
21.1133719422
 20
-21.0715543399
 11
21.1145655789
 21
-21.1787784471
  0
LINE
  5
30A
100
AcDbEntity
  8
RACCORDO
100
AcDbLine
 62
250
  6
CONTINUOUS
 10
21.112337422
 20
-20.9446110511
 11
21.1133719422
 21
-21.0715543399
  0
LINE
  5
30B
100
AcDbEntity
  8
RACCORDO
100
AcDbLine
 62
250
  6
CONTINUOUS
 10
21.6107612648
 20
-20.5030095669
 11
21.6114074025
 21
-20.5809315048
  0
LINE
  5
30C
100
AcDbEntity
  8
RACCORDO
100
AcDbLine
 62
250
  6
CONTINUOUS
 10
21.111483232
 20
-20.8014740662
 11
21.112337422
 21
-20.9446110511
  0
LINE
  5
30D
100
AcDbEntity
  8
RACCORDO
100
AcDbLine
 62
250
  6
CONTINUOUS
 10
21.61034353
 20
-20.4217793514
 11
21.6107612648
 21
-20.5030095669
  0
LINE
  5
30E
100
AcDbEntity
  8
RACCORDO
100
AcDbLine
 62
250
  6
CONTINUOUS
 10
21.110837577
 20
-20.6460018888
 11
21.111483232
 21
-20.8014740662
  0
LINE
  5
30F
100
AcDbEntity
  8
RACCORDO
100
AcDbLine
 62
250
  6
CONTINUOUS
 10
21.1104199287
 20
-20.4826394426
 11
21.110837577
 21
-20.6460018888
  0
LINE
  5
310
100
AcDbEntity
  8
RACCORDO
100
AcDbLine
 62
250
  6
CONTINUOUS
 10
21.6101605229
 20
-20.338093015
 11
21.61034353
 21
-20.4217793514
  0
LINE
  5
311
100
AcDbEntity
  8
RACCORDO
100
AcDbLine
 62
250
  6
CONTINUOUS
 10
21.9493528932
 20
-16.1515736583
 11
21.9149185048
 21
-0.0507738599
  0
LINE
  5
312
100
AcDbEntity
  8
RACCORDO
100
AcDbLine
 62
7
  6
CONTINUOUS
 10
21.725
 20
20.9899153176
 11
21.725
 21
-21.5477120712
  0
LINE
  5
313
100
AcDbEntity
  8
RACCORDO
100
AcDbLine
 62
7
  6
CONTINUOUS
 10
21.975
 20
16.1191678393
 11
21.975
 21
-16.1191678393
  0
LINE
  5
314
100
AcDbEntity
  8
ASSI
100
AcDbLine
 62
7
  6
CONTINUOUS
 10
21.975
 20
-16.119659166
 11
21.975
 21
16.119659166
  0
LWPOLYLINE
  5
315
100
AcDbEntity
  8
RACCORDO
100
AcDbPolyline
 62
250
  6
CONTINUOUS
 90
9
 70
0
 10
21.1072744333
 20
16.4175619603
 10
21.1050527519
 20
11.8395084908
 10
21.1035716309
 20
7.2567791543
 10
21.1028310705
 20
2.6697633064
 10
21.1028310707
 20
-1.9211494269
 10
21.1035716312
 20
-6.5155691824
 10
21.1050527522
 20
-11.1131057057
 10
21.1072744336
 20
-15.7133683837
 10
21.1104199287
 20
-20.4826394426
  0
LWPOLYLINE
  5
316
100
AcDbEntity
  8
RACCORDO
100
AcDbPolyline
 62
250
  6
CONTINUOUS
 90
9
 70
0
 10
21.6071982853
 20
16.3580739842
 10
21.6049766066
 20
11.7847395319
 10
21.6034954868
 20
7.2071141809
 10
21.6027549255
 20
2.6248033468
 10
21.6027549231
 20
-1.961798386
 10
21.6034954815
 20
-6.5515072639
 10
21.6049766012
 20
-11.1439287025
 10
21.6071982817
 20
-15.7394572861
 10
21.6101605229
 20
-20.338093015
  0
LINE
  5
317
100
AcDbEntity
  8
RACCORDO
100
AcDbLine
 62
250
  6
CONTINUOUS
 10
21.9149185048
 20
-0.0507738599
 11
21.9149506978
 21
0.0847036061
  0
LINE
  5
318
100
AcDbEntity
  8
RACCORDO
100
AcDbLine
 62
250
  6
CONTINUOUS
 10
21.1104199286
 20
21.1535998177
 11
21.1072744333
 21
16.4175619603
  0
LINE
  5
319
100
AcDbEntity
  8
RACCORDO
100
AcDbLine
 62
250
  6
CONTINUOUS
 10
21.9149506978
 20
0.0847036061
 11
21.9493528932
 21
16.1515736583
  0
LINE
  5
31A
100
AcDbEntity
  8
RACCORDO
100
AcDbLine
 62
250
  6
CONTINUOUS
 10
21.61034353
 20
21.0089763111
 11
21.6071982853
 21
16.3580739842
  0
LINE
  5
31B
100
AcDbEntity
  8
RACCORDO
100
AcDbLine
 62
250
  6
CONTINUOUS
 10
21.110837577
 20
21.3085906279
 11
21.1104199286
 21
21.1535998177
  0
LINE
  5
31C
100
AcDbEntity
  8
RACCORDO
100
AcDbLine
 62
250
  6
CONTINUOUS
 10
21.111483232
 20
21.4511745395
 11
21.110837577
 21
21.3085906279
  0
LINE
  5
31D
100
AcDbEntity
  8
RACCORDO
100
AcDbLine
 62
250
  6
CONTINUOUS
 10
21.6107612647
 20
21.0860349028
 11
21.61034353
 21
21.0089763111
  0
LINE
  5
31E
100
AcDbEntity
  8
RACCORDO
100
AcDbLine
 62
250
  6
CONTINUOUS
 10
21.112337422
 20
21.5772790578
 11
21.111483232
 21
21.4511745395
  0
LINE
  5
31F
100
AcDbEntity
  8
RACCORDO
100
AcDbLine
 62
250
  6
CONTINUOUS
 10
21.6114074025
 20
21.1575043166
 11
21.6107612647
 21
21.0860349028
  0
LINE
  5
320
100
AcDbEntity
  8
RACCORDO
100
AcDbLine
 62
250
  6
CONTINUOUS
 10
21.6122628106
 20
21.2206430873
 11
21.6114074025
 21
21.1575043166
  0
LINE
  5
321
100
AcDbEntity
  8
RACCORDO
100
AcDbLine
 62
250
  6
CONTINUOUS
 10
21.6132987371
 20
21.2736454779
 11
21.6122628106
 21
21.2206430873
  0
LWPOLYLINE
  5
322
100
AcDbEntity
  8
RACCORDO
100
AcDbPolyline
 62
7
  6
CONTINUOUS
 90
3
 70
0
 10
5.2818434667
 20
22.3733052903
 10
5.3335981026
 20
22.3876621281
 10
5.3874516054
 20
22.3965603647
  0
LINE
  5
323
100
AcDbEntity
  8
RACCORDO
100
AcDbLine
 62
7
  6
CONTINUOUS
 10
5.3874516054
 20
22.3965603647
 11
5.4434039749
 21
22.4
  0
LWPOLYLINE
  5
324
100
AcDbEntity
  8
RACCORDO
100
AcDbPolyline
 62
250
  6
CONTINUOUS
 90
13
 70
0
 10
5.3920270434
 20
22.1416986182
 10
5.3805072808
 20
22.141520058
 10
5.368699257
 20
22.1406779524
 10
5.356602972
 20
22.1391723014
 10
5.3441848224
 20
22.1370582769
 10
5.3314784115
 20
22.134280707
 10
5.3185845492
 20
22.130674076
 10
5.3054802276
 20
22.1262402267
 10
5.2921884546
 20
22.1209773164
 10
5.2788790637
 20
22.114714301
 10
5.265608666
 20
22.107394166
 10
5.2523206503
 20
22.0990739259
 10
5.2390150166
 20
22.0897535809
  0
LWPOLYLINE
  5
325
100
AcDbEntity
  8
RACCORDO
100
AcDbPolyline
 62
250
  6
CONTINUOUS
 90
13
 70
0
 10
-21.9602366754
 20
20.9905506503
 10
-22.0247793064
 20
20.989967247
 10
-22.0882419449
 20
20.9883194526
 10
-22.1495626695
 20
20.9856348396
 10
-22.2077154001
 20
20.9819583297
 10
-22.2617270661
 20
20.977351442
 10
-22.3106938898
 20
20.9718912637
 10
-22.3537965087
 20
20.96566916
 10
-22.3903136862
 20
20.9587892454
 10
-22.4196343799
 20
20.9513666416
 10
-22.4412679664
 20
20.9435255512
 10
-22.4548524505
 20
20.9353971792
 10
-22.4601605229
 20
20.9271175378
  0
LINE
  5
326
100
AcDbEntity
  8
RACCORDO
100
AcDbLine
 62
250
  6
CONTINUOUS
 10
-21.9602366754
 20
20.9905506514
 11
21.1102366754
 21
20.9905506514
  0
LINE
  5
327
100
AcDbEntity
  8
RACCORDO
100
AcDbLine
 62
7
  6
CONTINUOUS
 10
-21.9682025781
 20
21.8621633467
 11
21.1182026138
 21
21.8621633467
  0
LWPOLYLINE
  5
328
100
AcDbEntity
  8
RACCORDO
100
AcDbPolyline
 62
250
  6
CONTINUOUS
 90
7
 70
0
 10
-6.2612063802
 20
22.358692912
 10
-6.2070482897
 20
22.3557838714
 10
-6.153472763
 20
22.3470022363
 10
-6.1011111101
 20
22.3324396336
 10
-6.0505819503
 20
22.3122558441
 10
-6.002483848
 20
22.2866771993
 10
-5.9573881452
 20
22.2559941819
  0
LWPOLYLINE
  5
329
100
AcDbEntity
  8
RACCORDO
100
AcDbPolyline
 62
7
  6
CONTINUOUS
 90
7
 70
0
 10
-6.2920562152
 20
22.3998821875
 10
-6.2372521419
 20
22.3967192955
 10
-6.1842129187
 20
22.388021885
 10
-6.1329385456
 20
22.3737899561
 10
-6.0834290228
 20
22.3540235087
 10
-6.0356843502
 20
22.3287225427
 10
-5.9897045277
 20
22.2978870583
  0
LWPOLYLINE
  5
32A
100
AcDbEntity
  8
RACCORDO
100
AcDbPolyline
 62
250
  6
CONTINUOUS
 90
7
 70
0
 10
-6.2612063802
 20
22.1833408737
 10
-6.2280538898
 20
22.1813987183
 10
-6.1959904057
 20
22.1761002118
 10
-6.1650159279
 20
22.1674453542
 10
-6.1351304564
 20
22.1554341456
 10
-6.1063339913
 20
22.140066586
 10
-6.0786265325
 20
22.1213426753
  0
LWPOLYLINE
  5
32B
100
AcDbEntity
  8
RACCORDO
100
AcDbPolyline
 62
250
  6
CONTINUOUS
 90
4
 70
0
 10
21.6186520894
 20
21.3619912846
 10
21.6143480934
 20
21.4271054588
 10
21.6015692091
 20
21.4910935668
 10
21.5998034626
 20
21.4974901539
  0
LWPOLYLINE
  5
32C
100
AcDbEntity
  8
RACCORDO
100
AcDbPolyline
 62
7
  6
CONTINUOUS
 90
8
 70
0
 10
21.9493528932
 20
16.1515736583
 10
21.9427164103
 20
16.317881306
 10
21.9229674976
 20
16.4784619529
 10
21.8913576698
 20
16.6323960821
 10
21.849233611
 20
16.7787204081
 10
21.7978238133
 20
16.917111293
 10
21.7380544104
 20
17.0478102546
 10
21.725
 20
17.0716934718
  0
LINE
  5
32D
100
AcDbEntity
  8
ASSI
100
AcDbLine
 62
7
  6
CONTINUOUS
 10
21.975
 20
16.119659166
 11
21.9692307992
 21
16.2694450745
  0
LINE
  5
32E
100
AcDbEntity
  8
ASSI
100
AcDbLine
 62
7
  6
CONTINUOUS
 10
21.975
 20
-16.119659166
 11
21.9692307992
 21
-16.2694450745
  0
LWPOLYLINE
  5
32F
100
AcDbEntity
  8
RACCORDO
100
AcDbPolyline
 62
7
  6
CONTINUOUS
 90
3
 70
0
 10
21.975
 20
-16.1191678393
 10
21.9612340451
 20
-16.3464004764
 10
21.9242346507
 20
-16.5654578155
  0
LWPOLYLINE
  5
330
100
AcDbEntity
  8
RACCORDO
100
AcDbPolyline
 62
250
  6
CONTINUOUS
 90
13
 70
0
 10
21.6186520894
 20
-20.8577660781
 10
21.6143478532
 20
-20.922597457
 10
21.601568353
 20
-20.9863332028
 10
21.5805321226
 20
-21.0478834125
 10
21.5515988888
 20
-21.1061955566
 10
21.5152634197
 20
-21.1602724775
 10
21.4721470642
 20
-21.2091894416
 10
21.4229871266
 20
-21.2521099522
 10
21.3686242585
 20
-21.2883000538
 10
21.3099880834
 20
-21.3171408835
 10
21.2480813
 20
-21.3381392531
 10
21.1839625353
 20
-21.3509360836
 10
21.1187282419
 20
-21.3553125446
  0
LWPOLYLINE
  5
331
100
AcDbEntity
  8
ASSI
100
AcDbPolyline
 62
7
  6
CONTINUOUS
 90
4
 70
0
 10
21.9692307992
 20
-16.2694450745
 10
21.9527395492
 20
-16.4167997141
 10
21.92552625
 20
-16.561723085
 10
21.8873235681
 20
-16.7049847091
  0
LINE
  5
332
100
AcDbEntity
  8
SUPERFICI
100
AcDbLine
 62
7
  6
CONTINUOUS
 10
14.125
 20
-22.4
 11
14.098332041
 21
-22.4400222712
  0
LWPOLYLINE
  5
333
100
AcDbEntity
  8
RACCORDO
100
AcDbPolyline
 62
250
  6
CONTINUOUS
 90
10
 70
0
 10
-5.9573884397
 20
22.2559937955
 10
-5.9612179768
 20
22.2549233855
 10
-5.9681149951
 20
22.2497261672
 10
-5.9778992997
 20
22.2405379257
 10
-5.990315261
 20
22.2275987175
 10
-6.0050384935
 20
22.2112465988
 10
-6.0216843306
 20
22.1919087928
 10
-6.0398178751
 20
22.1700905283
 10
-6.0589653613
 20
22.1463618401
 10
-6.0786265325
 20
22.1213426753
  0
LWPOLYLINE
  5
334
100
AcDbEntity
  8
RACCORDO
100
AcDbPolyline
 62
250
  6
CONTINUOUS
 90
10
 70
0
 10
-17.0887936198
 20
22.1833408737
 10
-17.1105900248
 20
22.1825350704
 10
-17.1320957903
 20
22.1801835971
 10
-17.1533109163
 20
22.1762864536
 10
-17.1743511353
 20
22.1708103753
 10
-17.1951007147
 20
22.1637886268
 10
-17.2152124574
 20
22.1553210031
 10
-17.2345706309
 20
22.1454407691
 10
-17.2532909676
 20
22.1341146598
 10
-17.2713734675
 20
22.1213426753
  0
LWPOLYLINE
  5
335
100
AcDbEntity
  8
RACCORDO
100
AcDbPolyline
 62
250
  6
CONTINUOUS
 90
10
 70
0
 10
-17.0887936198
 20
22.358692912
 10
-17.1249524385
 20
22.3574086041
 10
-17.1609375855
 20
22.3535035464
 10
-17.1965608313
 20
22.3469967175
 10
-17.2316311368
 20
22.3379216264
 10
-17.2659697466
 20
22.3263239948
 10
-17.2994099403
 20
22.3122579344
 10
-17.3317792665
 20
22.295790391
 10
-17.3629017045
 20
22.2770044306
 10
-17.3926118548
 20
22.2559941819
  0
LWPOLYLINE
  5
336
100
AcDbEntity
  8
ASSI
100
AcDbPolyline
 62
7
  6
CONTINUOUS
 90
10
 70
0
 10
7.1501425218
 20
23.5
 10
7.0846696005
 20
23.497809388
 10
7.0200157583
 20
23.491478198
 10
6.9561809954
 20
23.4810064299
 10
6.8929029321
 20
23.4663149736
 10
6.830443948
 20
23.4474829393
 10
6.7695911819
 20
23.4247476575
 10
6.7106070134
 20
23.3981882383
 10
6.6532290628
 20
23.3677255716
 10
6.5974573302
 20
23.3333596575
  0
LWPOLYLINE
  5
337
100
AcDbEntity
  8
RACCORDO
100
AcDbPolyline
 62
7
  6
CONTINUOUS
 90
25
 70
0
 10
-21.9681889499
 20
21.8621539564
 10
-22.001255953
 20
21.8610598299
 10
-22.0320645578
 20
21.8580586743
 10
-22.0624337871
 20
21.8531948639
 10
-22.0922033927
 20
21.8465359855
 10
-22.1212726435
 20
21.8381516214
 10
-22.1495478139
 20
21.828116206
 10
-22.1768943126
 20
21.8165304445
 10
-22.2032367016
 20
21.8034850826
 10
-22.2285079533
 20
21.7890731048
 10
-22.252605925
 20
21.773418997
 10
-22.2754860237
 20
21.7566247197
 10
-22.297108982
 20
21.7387940947
 10
-22.3174038955
 20
21.7200693908
 10
-22.33635613
 20
21.7005572283
 10
-22.3539576428
 20
21.6803626479
 10
-22.3701727957
 20
21.6596349081
 10
-22.3850178835
 20
21.6384739808
 10
-22.3985117049
 20
21.6169803284
 10
-22.4106492565
 20
21.5953070065
 10
-22.4214902756
 20
21.5735058816
 10
-22.4310593917
 20
21.5516975618
 10
-22.439343585
 20
21.530136747
 10
-22.4464851705
 20
21.5086939089
 10
-22.4498147277
 20
21.4974352154
  0
LWPOLYLINE
  5
338
100
AcDbEntity
  8
RACCORDO
100
AcDbPolyline
 62
7
  6
CONTINUOUS
 90
10
 70
0
 10
5.3920270434
 20
22.3608886661
 10
5.3691866399
 20
22.3604065809
 10
5.345635474
 20
22.3588094838
 10
5.3214333067
 20
22.3559945256
 10
5.296676866
 20
22.3518643943
 10
5.2714201288
 20
22.3463148765
 10
5.2456778089
 20
22.3392224849
 10
5.2195605722
 20
22.3304795432
 10
5.1931886255
 20
22.3199815137
 10
5.1666199745
 20
22.307590553
  0
LINE
  5
339
100
AcDbEntity
  8
RACCORDO
100
AcDbLine
 62
250
  6
CONTINUOUS
 10
16.2579729566
 20
22.1416986182
 11
5.3920270434
 21
22.1416986182
  0
LINE
  5
33A
100
AcDbEntity
  8
RACCORDO
100
AcDbLine
 62
250
  6
CONTINUOUS
 10
-8.4602115092
 20
22.1833408737
 11
-6.2612063802
 21
22.1833408737
  0
LINE
  5
33B
100
AcDbEntity
  8
RACCORDO
100
AcDbLine
 62
250
  6
CONTINUOUS
 10
-14.8897884908
 20
22.1833408737
 11
-17.0887936198
 21
22.1833408737
  0
LINE
  5
33C
100
AcDbEntity
  8
0
100
AcDbLine
 62
7
  6
CONTINUOUS
 10
-8.575
 20
22.2
 11
-14.775
 21
22.2
  0
LINE
  5
33D
100
AcDbEntity
  8
RACCORDO
100
AcDbLine
 62
250
  6
CONTINUOUS
 10
-8.4634937952
 20
22.358692912
 11
-6.2612063804
 21
22.358692912
  0
LINE
  5
33E
100
AcDbEntity
  8
RACCORDO
100
AcDbLine
 62
250
  6
CONTINUOUS
 10
-14.8865062048
 20
22.358692912
 11
-17.0887936197
 21
22.358692912
  0
LINE
  5
33F
100
AcDbEntity
  8
RACCORDO
100
AcDbLine
 62
250
  6
CONTINUOUS
 10
16.2579729566
 20
22.3608886661
 11
5.3920270434
 21
22.3608886661
  0
LINE
  5
340
100
AcDbEntity
  8
RACCORDO
100
AcDbLine
 62
7
  6
CONTINUOUS
 10
5.4434039749
 20
22.4
 11
7.525
 21
22.4
  0
LINE
  5
341
100
AcDbEntity
  8
ASSI
100
AcDbLine
 62
7
  6
CONTINUOUS
 10
8.225
 20
22.4
 11
8.825
 21
22.4
  0
LINE
  5
342
100
AcDbEntity
  8
RACCORDO
100
AcDbLine
 62
7
  6
CONTINUOUS
 10
-6.2927746702
 20
22.4
 11
-8.4772516364
 21
22.4
  0
LINE
  5
343
100
AcDbEntity
  8
ASSI
100
AcDbLine
 62
7
  6
CONTINUOUS
 10
12.825
 20
22.4
 11
13.425
 21
22.4
  0
LINE
  5
344
100
AcDbEntity
  8
RACCORDO
100
AcDbLine
 62
7
  6
CONTINUOUS
 10
14.125
 20
22.4
 11
16.2065960251
 21
22.4
  0
LINE
  5
345
100
AcDbEntity
  8
RACCORDO
100
AcDbLine
 62
7
  6
CONTINUOUS
 10
-14.8727483636
 20
22.4
 11
-17.0572253295
 21
22.4
  0
LINE
  5
346
100
AcDbEntity
  8
ASSI
100
AcDbLine
 62
7
  6
CONTINUOUS
 10
14.2948202597
 20
22.5
 11
7.3551797403
 21
22.5
  0
LINE
  5
347
100
AcDbEntity
  8
ASSI
100
AcDbLine
 62
7
  6
CONTINUOUS
 10
7.1501425218
 20
23.5
 11
14.4998574782
 21
23.5
  0
LINE
  5
348
100
AcDbEntity
  8
DRAFT
100
AcDbLine
 62
7
  6
CONTINUOUS
 10
-7.8863830423
 20
23.5
 11
-8.4772516364
 21
23.5
  0
LINE
  5
349
100
AcDbEntity
  8
DRAFT
100
AcDbLine
 62
7
  6
CONTINUOUS
 10
-14.8727483636
 20
23.5
 11
-15.4636169577
 21
23.5
  0
LWPOLYLINE
  5
34A
100
AcDbEntity
  8
RACCORDO
100
AcDbPolyline
 62
7
  6
CONTINUOUS
 90
6
 70
0
 10
16.2065960251
 20
22.4
 10
16.2625483946
 20
22.3965603647
 10
16.3164018974
 20
22.3876621281
 10
16.3681565333
 20
22.3733052903
 10
16.4178123025
 20
22.3534898512
 10
16.4653692048
 20
22.3282158109
  0
LINE
  5
34B
100
AcDbEntity
  8
RACCORDO
100
AcDbLine
 62
250
  6
CONTINUOUS
 10
5.0917788388
 20
22.2571921105
 11
5.0873432285
 21
22.2580136374
  0
LINE
  5
34C
100
AcDbEntity
  8
SUPERFICI
100
AcDbLine
 62
7
  6
CONTINUOUS
 10
14.0583672024
 20
22.5
 11
14.125
 21
22.4
  0
LWPOLYLINE
  5
34D
100
AcDbEntity
  8
ASSI
100
AcDbPolyline
 62
7
  6
CONTINUOUS
 90
4
 70
0
 10
21.9692307992
 20
16.2694450745
 10
21.9527395492
 20
16.4167997141
 10
21.92552625
 20
16.561723085
 10
21.8873235681
 20
16.7049847091
  0
LINE
  5
34E
100
AcDbEntity
  8
RACCORDO
100
AcDbLine
 62
7
  6
CONTINUOUS
 10
21.9242346507
 20
-16.5654578155
 11
21.8640018168
 21
-16.7763398565
  0
LINE
  5
34F
100
AcDbEntity
  8
ASSI
100
AcDbLine
 62
7
  6
CONTINUOUS
 10
21.8873235681
 20
-16.7049847091
 11
21.838398837
 21
-16.8458150645
  0
LWPOLYLINE
  5
350
100
AcDbEntity
  8
RACCORDO
100
AcDbPolyline
 62
250
  6
CONTINUOUS
 90
6
 70
0
 10
16.3321474139
 20
22.1304295672
 10
16.3184553816
 20
22.1342990148
 10
16.3041888499
 20
22.1373829804
 10
16.2893580515
 20
22.1396070083
 10
16.2739527537
 20
22.1410455543
 10
16.2579729566
 20
22.1416986182
  0
LINE
  5
351
100
AcDbEntity
  8
ASSI
100
AcDbLine
 62
7
  6
CONTINUOUS
 10
21.8873235681
 20
16.7049847091
 11
21.838398837
 21
16.8458150645
  0
LINE
  5
352
100
AcDbEntity
  8
RACCORDO
100
AcDbLine
 62
7
  6
CONTINUOUS
 10
21.8640018168
 20
16.7763398565
 11
21.9242346507
 21
16.5654578155
  0
LWPOLYLINE
  5
353
100
AcDbEntity
  8
RACCORDO
100
AcDbPolyline
 62
7
  6
CONTINUOUS
 90
3
 70
0
 10
21.9242346507
 20
16.5654578155
 10
21.9612340451
 20
16.3464004764
 10
21.975
 20
16.1191678393
  0
LINE
  5
354
100
AcDbEntity
  8
RACCORDO
100
AcDbLine
 62
7
  6
CONTINUOUS
 10
21.8640018168
 20
-16.7763398565
 11
21.7805355434
 21
-16.9790465995
  0
LWPOLYLINE
  5
355
100
AcDbEntity
  8
ASSI
100
AcDbPolyline
 62
7
  6
CONTINUOUS
 90
3
 70
0
 10
21.838398837
 20
-16.8458150645
 10
21.779554057
 20
-16.9819055848
 10
21.725
 20
-17.0859054778
  0
LWPOLYLINE
  5
356
100
AcDbEntity
  8
RACCORDO
100
AcDbPolyline
 62
7
  6
CONTINUOUS
 90
8
 70
0
 10
21.725
 20
-17.0703087789
 10
21.7707638707
 20
-16.9793952835
 10
21.8283925439
 20
-16.838680805
 10
21.873875749
 20
-16.6983321031
 10
21.9080813881
 20
-16.5586571966
 10
21.9316524554
 20
-16.4203166093
 10
21.945176266
 20
-16.2843833098
 10
21.9493528932
 20
-16.1515736583
  0
LINE
  5
357
100
AcDbEntity
  8
RACCORDO
100
AcDbLine
 62
7
  6
CONTINUOUS
 10
21.7805355434
 20
-16.9790465995
 11
21.725
 21
-17.0802971952
  0
LINE
  5
358
100
AcDbEntity
  8
RACCORDO
100
AcDbLine
 62
250
  6
CONTINUOUS
 10
16.4109849834
 20
-22.0897535809
 11
16.4670141691
 21
-22.0457525301
  0
LINE
  5
359
100
AcDbEntity
  8
RACCORDO
100
AcDbLine
 62
7
  6
CONTINUOUS
 10
16.5108272403
 20
-22.2974831693
 11
16.4651680218
 21
-22.3283227293
  0
LWPOLYLINE
  5
35A
100
AcDbEntity
  8
ASSI
100
AcDbPolyline
 62
7
  6
CONTINUOUS
 90
10
 70
0
 10
15.0525426698
 20
-23.3333596575
 10
14.9967709372
 20
-23.3677255716
 10
14.9393929866
 20
-23.3981882383
 10
14.8804088181
 20
-23.4247476575
 10
14.819556052
 20
-23.4474829393
 10
14.7570970679
 20
-23.4663149736
 10
14.6938190046
 20
-23.4810064299
 10
14.6299842417
 20
-23.491478198
 10
14.5653303995
 20
-23.497809388
 10
14.4998574782
 20
-23.5
  0
LWPOLYLINE
  5
35B
100
AcDbEntity
  8
RACCORDO
100
AcDbPolyline
 62
7
  6
CONTINUOUS
 90
4
 70
0
 10
16.4833800255
 20
-22.307590553
 10
16.5100119464
 20
-22.2931877078
 10
16.5365041126
 20
-22.2766903399
 10
16.5626635993
 20
-22.2580162062
  0
LWPOLYLINE
  5
35C
100
AcDbEntity
  8
RACCORDO
100
AcDbPolyline
 62
7
  6
CONTINUOUS
 90
3
 70
0
 10
16.4651680218
 20
-22.3283227293
 10
16.4178123025
 20
-22.3534898512
 10
16.3681565333
 20
-22.3733052903
  0
LWPOLYLINE
  5
35D
100
AcDbEntity
  8
RACCORDO
100
AcDbPolyline
 62
7
  6
CONTINUOUS
 90
8
 70
0
 10
16.4568369488
 20
22.3199706407
 10
16.4320066668
 20
22.3299036582
 10
16.4059497121
 20
22.3387238977
 10
16.3786970122
 20
22.3462861135
 10
16.3502090234
 20
22.3524544732
 10
16.3205191124
 20
22.3570623213
 10
16.2897397221
 20
22.3599310029
 10
16.2579729566
 20
22.3608886661
  0
LWPOLYLINE
  5
35E
100
AcDbEntity
  8
ASSI
100
AcDbPolyline
 62
7
  6
CONTINUOUS
 90
10
 70
0
 10
15.0525426698
 20
23.3333596575
 10
14.9967709372
 20
23.3677255716
 10
14.9393929866
 20
23.3981882383
 10
14.8804088181
 20
23.4247476575
 10
14.819556052
 20
23.4474829393
 10
14.7570970679
 20
23.4663149736
 10
14.6938190046
 20
23.4810064299
 10
14.6299842417
 20
23.491478198
 10
14.5653303995
 20
23.497809388
 10
14.4998574782
 20
23.5
  0
LINE
  5
35F
100
AcDbEntity
  8
RACCORDO
100
AcDbLine
 62
7
  6
CONTINUOUS
 10
16.4653692048
 20
22.3282158109
 11
16.5108272403
 21
22.2974831693
  0
LWPOLYLINE
  5
360
100
AcDbEntity
  8
RACCORDO
100
AcDbPolyline
 62
7
  6
CONTINUOUS
 90
6
 70
0
 10
16.5626634223
 20
22.2580163413
 10
16.5439071814
 20
22.2716592483
 10
16.5239480861
 20
22.2847943936
 10
16.502775857
 20
22.2973080178
 10
16.4804098935
 20
22.3090705858
 10
16.4568369488
 20
22.3199706407
  0
LWPOLYLINE
  5
361
100
AcDbEntity
  8
RACCORDO
100
AcDbPolyline
 62
250
  6
CONTINUOUS
 90
8
 70
0
 10
16.4109849834
 20
22.0897535809
 10
16.4015394499
 20
22.0967266527
 10
16.3914887476
 20
22.1033267907
 10
16.3808328764
 20
22.1095539949
 10
16.3695718456
 20
22.1154713256
 10
16.3577056459
 20
22.1210157226
 10
16.3452342493
 20
22.1259980047
 10
16.3321474139
 20
22.1304295672
  0
LWPOLYLINE
  5
362
100
AcDbEntity
  8
0
100
AcDbPolyline
 62
7
  6
CONTINUOUS
 90
13
 70
0
 43
0.3500000006
 10
2.0392857499
 20
33.9642854004
 10
1.7535714984
 20
34.1785698853
 10
1.7535714984
 20
34.8214278717
 10
2.0392857499
 20
35.2500013733
 10
2.682142745
 20
35.2500013733
 10
2.9678572798
 20
34.8214278717
 10
2.9678572798
 20
34.1785698853
 10
2.682142745
 20
33.9642854004
 10
3.1107142639
 20
33.5357164307
 10
3.1107142639
 20
32.6785694275
 10
2.682142745
 20
32.2500004578
 10
2.0392857499
 20
32.2500004578
 10
1.610714231
 20
32.6785694275
  0
LINE
  5
363
100
AcDbEntity
  8
RACCORDO
100
AcDbLine
 62
250
  6
CONTINUOUS
 10
16.2579729566
 20
22.3608886661
 11
16.2065960251
 21
22.4
  0
LINE
  5
364
100
AcDbEntity
  8
RACCORDO
100
AcDbLine
 62
250
  6
CONTINUOUS
 10
16.7007865018
 20
21.8621633467
 11
16.4109849834
 21
22.0897535809
  0
LINE
  5
365
100
AcDbEntity
  8
RACCORDO
100
AcDbLine
 62
7
  6
CONTINUOUS
 10
21.725
 20
17.0802971952
 11
21.7805355434
 21
16.9790465995
  0
LWPOLYLINE
  5
366
100
AcDbEntity
  8
ASSI
100
AcDbPolyline
 62
7
  6
CONTINUOUS
 90
3
 70
0
 10
21.838398837
 20
16.8458150645
 10
21.779554057
 20
16.9819055848
 10
21.725
 20
17.0859054778
  0
LINE
  5
367
100
AcDbEntity
  8
RACCORDO
100
AcDbLine
 62
7
  6
CONTINUOUS
 10
21.7805355434
 20
16.9790465995
 11
21.8640018168
 21
16.7763398565
  0
LWPOLYLINE
  5
368
100
AcDbEntity
  8
RACCORDO
100
AcDbPolyline
 62
7
  6
CONTINUOUS
 90
28
 70
0
 10
21.5997986971
 20
21.4974888866
 10
21.5967079143
 20
21.5079665698
 10
21.5900632307
 20
21.5281102731
 10
21.5825715795
 20
21.5479705993
 10
21.5741023855
 20
21.5678209754
 10
21.5645693026
 20
21.5877218672
 10
21.5538943261
 20
21.6076738543
 10
21.5420699882
 20
21.6275386856
 10
21.5291215798
 20
21.6471544958
 10
21.5150177695
 20
21.6664662832
 10
21.4997571301
 20
21.6853786517
 10
21.4834491063
 20
21.7036857477
 10
21.4661291703
 20
21.7213028988
 10
21.4477980943
 20
21.7381864081
 10
21.4285481239
 20
21.7542161493
 10
21.4084562314
 20
21.7693076914
 10
21.3875232417
 20
21.7834407896
 10
21.3657359235
 20
21.7965948768
 10
21.3431118023
 20
21.8087225599
 10
21.319718643
 20
21.8197514782
 10
21.2956205294
 20
21.8296196172
 10
21.2708715667
 20
21.8382747545
 10
21.245531172
 20
21.8456664376
 10
21.219679158
 20
21.8517435187
 10
21.1933825477
 20
21.85646402
 10
21.1667118556
 20
21.8597891962
 10
21.1397584309
 20
21.8616830613
 10
21.1181884543
 20
21.862148284
  0
LINE
  5
369
100
AcDbEntity
  8
RACCORDO
100
AcDbLine
 62
250
  6
CONTINUOUS
 10
21.725
 20
20.9899153176
 11
21.6186520894
 21
21.3619912846
  0
LINE
  5
36A
100
AcDbEntity
  8
RACCORDO
100
AcDbLine
 62
7
  6
CONTINUOUS
 10
21.705880044
 20
21.1263686956
 11
21.5994763939
 21
21.498639677
  0
LWPOLYLINE
  5
36B
100
AcDbEntity
  8
0
100
AcDbPolyline
 62
7
  6
CONTINUOUS
 90
3
 70
0
 43
0.3500000006
 10
29.432142128
 20
-0.8571427917
 10
29.432142128
 20
-2.3571432495
 10
27.0749991989
 20
-1.7142852631
  0
LWPOLYLINE
  5
36C
100
AcDbEntity
  8
0
100
AcDbPolyline
 62
7
  6
CONTINUOUS
 90
3
 70
0
 43
0.3500000006
 10
-0.9607143159
 20
32.8928584442
 10
-2.4607143488
 20
32.8928584442
 10
-1.8178572121
 20
35.2500013733
  0
LWPOLYLINE
  5
36D
100
AcDbEntity
  8
0
100
AcDbPolyline
 62
7
  6
CONTINUOUS
 90
3
 70
0
 43
0.3500000006
 10
-3.3178571033
 20
32.8928584442
 10
-4.8178569946
 20
32.8928584442
 10
-4.1750001411
 20
35.2500013733
  0
LWPOLYLINE
  5
36E
100
AcDbEntity
  8
RACCORDO
100
AcDbPolyline
 62
250
  6
CONTINUOUS
 90
9
 70
0
 10
21.6186520894
 20
21.3619912846
 10
21.6179202479
 20
21.3627559474
 10
21.6172039268
 20
21.3601102301
 10
21.616503126
 20
21.3540541326
 10
21.6158128545
 20
21.344498435
 10
21.6151381033
 20
21.3315323573
 10
21.6144938459
 20
21.3154235595
 10
21.6138810446
 20
21.2961058787
 10
21.6132987371
 20
21.2736454779
  0
LWPOLYLINE
  5
36F
100
AcDbEntity
  8
RACCORDO
100
AcDbPolyline
 62
250
  6
CONTINUOUS
 90
13
 70
0
 10
21.6101605229
 20
20.9271175378
 10
21.6048524498
 20
20.9353971792
 10
21.5912679652
 20
20.9435255512
 10
21.5696343783
 20
20.9513666416
 10
21.5403136843
 20
20.9587892454
 10
21.5037965067
 20
20.9656691601
 10
21.4606938877
 20
20.971891264
 10
21.4117270641
 20
20.9773514425
 10
21.3577153983
 20
20.9819583304
 10
21.2995626681
 20
20.9856348403
 10
21.2382419438
 20
20.988319453
 10
21.1747793059
 20
20.989967247
 10
21.1102366754
 20
20.9905506496
  0
LWPOLYLINE
  5
370
100
AcDbEntity
  8
0
100
AcDbPolyline
 62
7
  6
CONTINUOUS
 90
5
 70
0
 43
0.3500000006
 10
-54.484766922
 20
43.9642839203
 10
-54.1276246033
 20
44.178572937
 10
-54.1276246033
 20
44.8214263916
 10
-54.484766922
 20
45.2499998932
 10
-55.3419093933
 20
45.2499998932
  0
LWPOLYLINE
  5
371
100
AcDbEntity
  8
0
100
AcDbPolyline
 62
7
  6
CONTINUOUS
 90
10
 70
0
 43
0.3500000006
 10
-52.7704819794
 20
42.2499989777
 10
-51.9133349762
 20
43.107141449
 10
-51.6990504913
 20
43.9642839203
 10
-51.6990504913
 20
44.8214263916
 10
-52.1276239929
 20
45.2499998932
 10
-52.7704819794
 20
45.2499998932
 10
-53.1990509491
 20
44.8214263916
 10
-53.1990509491
 20
43.9642839203
 10
-52.7704819794
 20
43.5357149506
 10
-51.8419083252
 20
43.5357149506
  0
LWPOLYLINE
  5
372
100
AcDbEntity
  8
RACCORDO
100
AcDbPolyline
 62
250
  6
CONTINUOUS
 90
19
 70
0
 10
-70.3826964849
 20
-20.338093015
 10
-70.3827972041
 20
-20.3802787049
 10
-70.3794935736
 20
-20.4217793514
 10
-70.3727855934
 20
-20.4625949547
 10
-70.3625768728
 20
-20.5030095669
 10
-70.3489638025
 20
-20.5427391358
 10
-70.3322355546
 20
-20.5809315048
 10
-70.3123320403
 20
-20.6175406703
 10
-70.2893133483
 20
-20.6526126358
 10
-70.263648917
 20
-20.6854332555
 10
-70.2352806377
 20
-20.7159600983
 10
-70.204266619
 20
-20.7442355952
 10
-70.1712506254
 20
-20.7696728928
 10
-70.1361723759
 20
-20.7922154366
 10
-70.0990921514
 20
-20.8119197813
 10
-70.0608345596
 20
-20.8283687367
 10
-70.0216744696
 20
-20.8414232397
 10
-69.9813370122
 20
-20.8512223535
 10
-69.9398221874
 20
-20.8577660781
  0
LWPOLYLINE
  5
373
100
AcDbEntity
  8
RACCORDO
100
AcDbPolyline
 62
250
  6
CONTINUOUS
 90
10
 70
0
 10
-66.7724583635
 20
20.9271175378
 10
-67.3425526117
 20
16.3580739842
 10
-67.870433607
 20
11.7847395319
 10
-68.3561013493
 20
7.2071141809
 10
-68.7995903945
 20
2.6248033468
 10
-69.2008661868
 20
-1.961798386
 10
-69.5598250587
 20
-6.5515072639
 10
-69.8764324545
 20
-11.1439287025
 10
-70.1507229299
 20
-15.7394572861
 10
-70.3826964849
 20
-20.338093015
  0
LWPOLYLINE
  5
374
100
AcDbEntity
  8
0
100
AcDbPolyline
 62
7
  6
CONTINUOUS
 90
10
 70
0
 43
0.3500000006
 10
-45.7255736389
 20
35.2500013733
 10
-46.3684316254
 20
34.6071433868
 10
-46.7970005951
 20
33.7500009155
 10
-46.7970005951
 20
32.6785694275
 10
-46.3684316254
 20
32.2500004578
 10
-45.7255736389
 20
32.2500004578
 10
-45.2970001373
 20
32.6785694275
 10
-45.2970001373
 20
33.5357164307
 10
-45.7255736389
 20
33.9642854004
 10
-46.6541427612
 20
33.9642854004
  0
LWPOLYLINE
  5
375
100
AcDbEntity
  8
RACCORDO
100
AcDbPolyline
 62
250
  6
CONTINUOUS
 90
13
 70
0
 10
-66.2460720413
 20
21.3619912846
 10
-66.2420142335
 20
21.4271054588
 10
-66.2378771458
 20
21.4910935668
 10
-66.2337315198
 20
21.5528614114
 10
-66.2296482441
 20
21.611352744
 10
-66.225697145
 20
21.6655672882
 10
-66.2219457922
 20
21.7145778574
 10
-66.2184583378
 20
21.7575462826
 10
-66.2152944241
 20
21.7937376762
 10
-66.2125081646
 20
21.8225330025
 10
-66.2101472117
 20
21.8434397514
 10
-66.2082519433
 20
21.8561003308
 10
-66.2068547756
 20
21.8602981452
  0
LWPOLYLINE
  5
376
100
AcDbEntity
  8
RACCORDO
100
AcDbPolyline
 62
250
  6
CONTINUOUS
 90
13
 70
0
 10
-69.9398221874
 20
-20.8577660781
 10
-69.9471331991
 20
-20.922597457
 10
-69.9541705369
 20
-20.9863332028
 10
-69.9608138598
 20
-21.0478834125
 10
-69.9669495647
 20
-21.1061955566
 10
-69.9724727291
 20
-21.1602724775
 10
-69.9772889049
 20
-21.2091894416
 10
-69.9813157339
 20
-21.2521099522
 10
-69.984484356
 20
-21.2883000538
 10
-69.9867405865
 20
-21.3171408835
 10
-69.9880458431
 20
-21.3381392531
 10
-69.9883778054
 20
-21.3509360836
 10
-69.9877307969
 20
-21.3553125446
  0
LWPOLYLINE
  5
377
100
AcDbEntity
  8
RACCORDO
100
AcDbPolyline
 62
250
  6
CONTINUOUS
 90
9
 70
0
 10
-59.0990061788
 20
22.0897535809
 10
-59.0917493764
 20
22.121413173
 10
-59.07804789
 20
22.1514105682
 10
-59.0582682998
 20
22.1789431925
 10
-59.0329398044
 20
22.2032744167
 10
-59.0027400623
 20
22.2237532643
 10
-58.9684770609
 20
22.239831828
 10
-58.9310674992
 20
22.2510799295
 10
-58.891512262
 20
22.2571966284
  0
LWPOLYLINE
  5
378
100
AcDbEntity
  8
RACCORDO
100
AcDbPolyline
 62
250
  6
CONTINUOUS
 90
9
 70
0
 10
-59.6911961105
 20
17.2667536255
 10
-59.6846649141
 20
17.2917012098
 10
-59.6714823974
 20
17.3151231386
 10
-59.6520114714
 20
17.3363746123
 10
-59.6267881658
 20
17.3548705833
 10
-59.5965068716
 20
17.3701018623
 10
-59.5620012251
 20
17.3816491361
 10
-59.5242211576
 20
17.3891945113
 10
-59.4842067446
 20
17.3925302656
  0
LINE
  5
379
100
AcDbEntity
  8
RACCORDO
100
AcDbLine
 62
7
  6
CONTINUOUS
 10
-69.9877307969
 20
-21.3553125446
 11
-63.9278168178
 21
-22.0457525301
  0
LINE
  5
37A
100
AcDbEntity
  8
RACCORDO
100
AcDbLine
 62
250
  6
CONTINUOUS
 10
-69.9398221874
 20
-20.8577660781
 11
-63.8842439237
 21
-21.5477120712
  0
LWPOLYLINE
  5
37B
100
AcDbEntity
  8
RACCORDO
100
AcDbPolyline
 62
250
  6
CONTINUOUS
 90
10
 70
0
 10
-59.691196102
 20
-17.2667536244
 10
-59.684656699
 20
-17.2916951466
 10
-59.6714682681
 20
-17.3151106111
 10
-59.6519937773
 20
-17.3363555831
 10
-59.6267691981
 20
-17.3548453623
 10
-59.5964887538
 20
-17.3700710781
 10
-59.5619858132
 20
-17.3816136941
 10
-59.5242099558
 20
-17.3891555375
 10
-59.4842008379
 20
-17.3924890417
 10
-58.1112868727
 20
-17.3599341912
  0
LWPOLYLINE
  5
37C
100
AcDbEntity
  8
RACCORDO
100
AcDbPolyline
 62
250
  6
CONTINUOUS
 90
9
 70
0
 10
-59.0990061787
 20
-22.0897535809
 10
-59.091748568
 20
-22.1214125481
 10
-59.0780464996
 20
-22.1514092585
 10
-59.0582665586
 20
-22.1789411802
 10
-59.0329379374
 20
-22.2032717244
 10
-59.0027382778
 20
-22.2237499517
 10
-58.9684755414
 20
-22.2398279878
 10
-58.9310663932
 20
-22.251075681
 10
-58.8915116775
 20
-22.2571921105
  0
LWPOLYLINE
  5
37D
100
AcDbEntity
  8
RACCORDO
100
AcDbPolyline
 62
250
  6
CONTINUOUS
 90
7
 70
0
 10
-61.5450679256
 20
-0.1523366793
 10
-61.548750761
 20
-0.1184903723
 10
-61.5515125956
 20
-0.0846360991
 10
-61.5533534294
 20
-0.0507738599
 10
-61.554272873
 20
-0.0168951292
 10
-61.5542713157
 20
0.0169915677
 10
-61.5533499256
 20
0.0508606545
  0
LINE
  5
37E
100
AcDbEntity
  8
RACCORDO
100
AcDbLine
 62
250
  6
CONTINUOUS
 10
-61.5533499256
 20
0.0508606545
 11
-61.5515090919
 21
0.0847036061
  0
LWPOLYLINE
  5
37F
100
AcDbEntity
  8
RACCORDO
100
AcDbPolyline
 62
250
  6
CONTINUOUS
 90
3
 70
0
 10
-61.5515090919
 20
0.0847036061
 10
-61.5487484252
 20
0.1185289476
 10
-61.5450679256
 20
0.1523366793
  0
LINE
  5
380
100
AcDbEntity
  8
RACCORDO
100
AcDbLine
 62
7
  6
CONTINUOUS
 10
-60.1191108597
 20
21.4879557765
 11
-63.9278168178
 21
-22.0457525301
  0
LINE
  5
381
100
AcDbEntity
  8
RACCORDO
100
AcDbLine
 62
250
  6
CONTINUOUS
 10
-59.5806086384
 20
16.1515736583
 11
-59.527510449
 21
16.6323960821
  0
LINE
  5
382
100
AcDbEntity
  8
RACCORDO
100
AcDbLine
 62
250
  6
CONTINUOUS
 10
-59.527510449
 20
16.6323960821
 11
-59.4959482602
 21
16.917111293
  0
LINE
  5
383
100
AcDbEntity
  8
RACCORDO
100
AcDbLine
 62
250
  6
CONTINUOUS
 10
-59.4959482602
 20
16.917111293
 11
-59.4549394862
 21
17.2853381773
  0
LINE
  5
384
100
AcDbEntity
  8
RACCORDO
100
AcDbLine
 62
250
  6
CONTINUOUS
 10
-59.4549394862
 20
17.2853381773
 11
-59.4430516738
 21
17.3916339293
  0
LWPOLYLINE
  5
385
100
AcDbEntity
  8
RACCORDO
100
AcDbPolyline
 62
250
  6
CONTINUOUS
 90
4
 70
0
 10
-59.3699191453
 20
17.9919056848
 10
-59.1612543586
 20
19.707517074
 10
-59.0952609065
 20
20.2495649784
 10
-59.0455498304
 20
20.6581651787
  0
LINE
  5
386
100
AcDbEntity
  8
RACCORDO
100
AcDbLine
 62
250
  6
CONTINUOUS
 10
-59.0455498304
 20
20.6581651787
 11
-58.8683726047
 21
22.1143734114
  0
LINE
  5
387
100
AcDbEntity
  8
RACCORDO
100
AcDbLine
 62
250
  6
CONTINUOUS
 10
-58.8683726047
 20
22.1143734114
 11
-58.8508699265
 21
22.2580163243
  0
LINE
  5
388
100
AcDbEntity
  8
RACCORDO
100
AcDbLine
 62
250
  6
CONTINUOUS
 10
-59.4430518394
 20
17.3916339343
 11
-59.3699191453
 21
17.9919056848
  0
LINE
  5
389
100
AcDbEntity
  8
RACCORDO
100
AcDbLine
 62
7
  6
CONTINUOUS
 10
-61.7888413619
 20
0.1828040151
 11
-59.0875151041
 21
22.1833408737
  0
LINE
  5
38A
100
AcDbEntity
  8
RACCORDO
100
AcDbLine
 62
250
  6
CONTINUOUS
 10
-61.5450679256
 20
0.1523366793
 11
-59.5806086384
 21
16.1515736583
  0
LWPOLYLINE
  5
38B
100
AcDbEntity
  8
0
100
AcDbPolyline
 62
7
  6
CONTINUOUS
 90
3
 70
0
 43
0.3500000006
 10
-50.1276233826
 20
42.5357146454
 10
-50.1990500336
 20
42.3214301605
 10
-50.3419078674
 20
42.0357144928
  0
LINE
  5
38C
100
AcDbEntity
  8
0
100
AcDbLine
 62
250
  6
CONTINUOUS
 10
-53.6112868727
 20
15.7214284182
 11
-53.3970011711
 21
15.8999998808
  0
LINE
  5
38D
100
AcDbEntity
  8
ASSI
100
AcDbLine
 62
250
  6
CONTINUOUS
 10
-50.0952773506
 20
21.0252389419
 11
-50.1404320747
 21
21.0077183981
  0
LWPOLYLINE
  5
38E
100
AcDbEntity
  8
ASSI
100
AcDbPolyline
 62
7
  6
CONTINUOUS
 90
6
 70
0
 10
-54.1112868727
 20
-23.0998904748
 10
-54.5503442158
 20
-23.1090906657
 10
-54.9907508745
 20
-23.1182163208
 10
-55.4325068486
 20
-23.1272645049
 10
-55.8756155252
 20
-23.136227616
 10
-56.3200735172
 20
-23.1451078252
  0
LWPOLYLINE
  5
38F
100
AcDbEntity
  8
ASSI
100
AcDbPolyline
 62
7
  6
CONTINUOUS
 90
4
 70
0
 10
-56.3200735172
 20
-23.1451078252
 10
-57.2130035788
 20
-23.1626574735
 10
-57.6614756483
 20
-23.1713220758
 10
-58.1112868727
 20
-23.1799085618
  0
LINE
  5
390
100
AcDbEntity
  8
ASSI
100
AcDbLine
 62
7
  6
CONTINUOUS
 10
-58.1112868727
 20
-23.5
 11
-54.1112868727
 21
-23.4301797403
  0
LINE
  5
391
100
AcDbEntity
  8
DRAFT
100
AcDbLine
 62
7
  6
CONTINUOUS
 10
-56.2112868727
 20
-23.4668353766
 11
-58.1112868727
 21
-23.5
  0
LINE
  5
392
100
AcDbEntity
  8
ASSI
100
AcDbLine
 62
250
  6
CONTINUOUS
 10
-58.1112868727
 20
-23.3333596575
 11
-54.1112868727
 21
-23.2631073618
  0
LINE
  5
393
100
AcDbEntity
  8
ASSI
100
AcDbLine
 62
7
  6
CONTINUOUS
 10
-50.1404320747
 20
-21.1306884717
 11
-53.9639047336
 21
-21.1974274352
  0
LINE
  5
394
100
AcDbEntity
  8
ASSI
100
AcDbLine
 62
250
  6
CONTINUOUS
 10
-50.1403573995
 20
-21.0077170429
 11
-53.9639047336
 21
-21.0747565807
  0
LWPOLYLINE
  5
395
100
AcDbEntity
  8
ASSI
100
AcDbPolyline
 62
7
  6
CONTINUOUS
 90
9
 70
0
 10
-54.1112868727
 20
-22.6298666026
 10
-54.5503442158
 20
-22.6330782892
 10
-54.9907508745
 20
-22.6364212804
 10
-55.4325068486
 20
-22.6398908175
 10
-55.8756155252
 20
-22.6434802059
 10
-56.3200735172
 20
-22.6471865624
 10
-56.7658706641
 20
-22.651011599
 10
-57.2130035788
 20
-22.6549535822
 10
-58.1112868727
 20
-22.663166622
  0
LINE
  5
396
100
AcDbEntity
  8
ASSI
100
AcDbLine
 62
7
  6
CONTINUOUS
 10
-51.9617913888
 20
-22.2
 11
-52.5112868727
 21
-22.2
  0
LINE
  5
397
100
AcDbEntity
  8
DRAFT
100
AcDbLine
 62
7
  6
CONTINUOUS
 10
-59.718268009
 20
-21.7068601698
 11
-59.1477583306
 21
-21.7168184533
  0
LINE
  5
398
100
AcDbEntity
  8
RACCORDO
100
AcDbLine
 62
250
  6
CONTINUOUS
 10
-58.8915116775
 20
-22.2571921105
 11
-58.8508696409
 21
-22.2580136374
  0
LINE
  5
399
100
AcDbEntity
  8
RACCORDO
100
AcDbLine
 62
250
  6
CONTINUOUS
 10
-70.8692838564
 20
-20.316111898
 11
-70.8734646757
 21
-20.3159670971
  0
LINE
  5
39A
100
AcDbEntity
  8
RACCORDO
100
AcDbLine
 62
250
  6
CONTINUOUS
 10
-70.7302308507
 20
-20.3222764435
 11
-70.8692838564
 21
-20.316111898
  0
LWPOLYLINE
  5
39B
100
AcDbEntity
  8
RACCORDO
100
AcDbPolyline
 62
250
  6
CONTINUOUS
 90
3
 70
0
 10
-70.3826964849
 20
-20.338093015
 10
-70.4470873967
 20
-20.335146309
 10
-70.7302308507
 20
-20.3222764435
  0
LINE
  5
39C
100
AcDbEntity
  8
RACCORDO
100
AcDbLine
 62
7
  6
CONTINUOUS
 10
-58.1112868727
 20
-22.4
 11
-58.899473065
 21
-22.358692912
  0
LINE
  5
39D
100
AcDbEntity
  8
RACCORDO
100
AcDbLine
 62
250
  6
CONTINUOUS
 10
-58.1112868727
 20
-22.2974831693
 11
-58.850869944
 21
-22.2580161879
  0
LWPOLYLINE
  5
39E
100
AcDbEntity
  8
ASSI
100
AcDbPolyline
 62
250
  6
CONTINUOUS
 90
9
 70
0
 10
-50.140432075
 20
-21.0077183942
 10
-50.0943944375
 20
-21.0243314813
 10
-50.0492851107
 20
-21.0368125614
 10
-50.0055427248
 20
-21.0446281627
 10
-49.96340633
 20
-21.0470768729
 10
-49.9233778337
 20
-21.0441824024
 10
-49.8862762454
 20
-21.0365358344
 10
-49.8525668928
 20
-21.0241723623
 10
-49.8222980135
 20
-21.006747984
  0
LINE
  5
39F
100
AcDbEntity
  8
0
100
AcDbLine
 62
250
  6
CONTINUOUS
 10
-54.8720286866
 20
-14.704976
 11
-54.4436282113
 21
-15.180646
  0
LINE
  5
3A0
100
AcDbEntity
  8
RACCORDO
100
AcDbLine
 62
7
  6
CONTINUOUS
 10
-59.0875151041
 20
-22.1833408737
 11
-61.7888413619
 21
-0.1828040151
  0
LINE
  5
3A1
100
AcDbEntity
  8
RACCORDO
100
AcDbLine
 62
250
  6
CONTINUOUS
 10
-59.5806086384
 20
-16.1515736583
 11
-61.5450679256
 21
-0.1523366793
  0
LINE
  5
3A2
100
AcDbEntity
  8
RACCORDO
100
AcDbLine
 62
250
  6
CONTINUOUS
 10
-59.3699225635
 20
-17.9918778386
 11
-59.4430582185
 21
-17.3915796673
  0
LINE
  5
3A3
100
AcDbEntity
  8
RACCORDO
100
AcDbLine
 62
250
  6
CONTINUOUS
 10
-58.850869944
 20
-22.2580161879
 11
-58.920170343
 21
-21.6891305082
  0
LWPOLYLINE
  5
3A4
100
AcDbEntity
  8
RACCORDO
100
AcDbPolyline
 62
250
  6
CONTINUOUS
 90
4
 70
0
 10
-59.0455497384
 20
-20.6581651527
 10
-59.2290445295
 20
-19.1502830642
 10
-59.2985846672
 20
-18.5782581508
 10
-59.3699225635
 20
-17.9918778386
  0
LINE
  5
3A5
100
AcDbEntity
  8
RACCORDO
100
AcDbLine
 62
250
  6
CONTINUOUS
 10
-58.920170343
 20
-21.6891305082
 11
-59.0455497384
 21
-20.6581651527
  0
LWPOLYLINE
  5
3A6
100
AcDbEntity
  8
RACCORDO
100
AcDbPolyline
 62
250
  6
CONTINUOUS
 90
3
 70
0
 10
-59.4430581736
 20
-17.3915796663
 10
-59.458266699
 20
-17.2573795559
 10
-59.4735954647
 20
-17.1194932482
  0
LWPOLYLINE
  5
3A7
100
AcDbEntity
  8
RACCORDO
100
AcDbPolyline
 62
250
  6
CONTINUOUS
 90
6
 70
0
 10
-59.5045918522
 20
-16.838680805
 10
-59.520223147
 20
-16.6983321031
 10
-59.5356717547
 20
-16.5586571966
 10
-59.5508512788
 20
-16.4203166093
 10
-59.5658314234
 20
-16.2843833098
 10
-59.5806086384
 20
-16.1515736583
  0
LINE
  5
3A8
100
AcDbEntity
  8
RACCORDO
100
AcDbLine
 62
250
  6
CONTINUOUS
 10
-59.4735954647
 20
-17.1194932482
 11
-59.5045918522
 21
-16.838680805
  0
LWPOLYLINE
  5
3A9
100
AcDbEntity
  8
RACCORDO
100
AcDbPolyline
 62
250
  6
CONTINUOUS
 90
13
 70
0
 10
-58.8508696075
 20
22.2580163413
 10
-58.8510029813
 20
22.2716592483
 10
-58.8512162323
 20
22.2847943936
 10
-58.8515041066
 20
22.2973080178
 10
-58.8518476468
 20
22.3090705858
 10
-58.8522527627
 20
22.3199706407
 10
-58.852749953
 20
22.3299036582
 10
-58.8533265358
 20
22.3387238977
 10
-58.8539757152
 20
22.3462861135
 10
-58.8547344205
 20
22.3524544732
 10
-58.855605402
 20
22.3570623213
 10
-58.8565577958
 20
22.3599310029
 10
-58.8575755813
 20
22.3608886661
  0
LINE
  5
3AA
100
AcDbEntity
  8
RACCORDO
100
AcDbLine
 62
7
  6
CONTINUOUS
 10
-60.1112868727
 20
21.3069210948
 11
-60.1112868727
 21
21.0930789052
  0
LINE
  5
3AB
100
AcDbEntity
  8
RACCORDO
100
AcDbLine
 62
7
  6
CONTINUOUS
 10
-60.1112868727
 20
-21.3069199777
 11
-60.1112868727
 21
-21.093080019
  0
LINE
  5
3AC
100
AcDbEntity
  8
RACCORDO
100
AcDbLine
 62
250
  6
CONTINUOUS
 10
-59.7182680159
 20
-21.7068596353
 11
-59.7182680153
 21
-20.693140363
  0
LINE
  5
3AD
100
AcDbEntity
  8
RACCORDO
100
AcDbLine
 62
250
  6
CONTINUOUS
 10
-59.7182680153
 20
20.693140363
 11
-59.7182680159
 21
21.7068596353
  0
LINE
  5
3AE
100
AcDbEntity
  8
RACCORDO
100
AcDbLine
 62
7
  6
CONTINUOUS
 10
-58.1112868727
 20
22.4
 11
-58.1112868727
 21
-22.4
  0
LINE
  5
3AF
100
AcDbEntity
  8
ASSI
100
AcDbLine
 62
7
  6
CONTINUOUS
 10
-58.1112868727
 20
-23.5
 11
-58.1112868727
 21
23.5
  0
LINE
  5
3B0
100
AcDbEntity
  8
0
100
AcDbLine
 62
250
  6
CONTINUOUS
 10
-52.9684297681
 20
15.7214284182
 11
-52.7541440219
 21
15.9357143879
  0
LINE
  5
3B1
100
AcDbEntity
  8
0
100
AcDbLine
 62
250
  6
CONTINUOUS
 10
-53.3970011711
 20
13.9
 11
-53.6112868727
 21
13.6857142091
  0
LINE
  5
3B2
100
AcDbEntity
  8
0
100
AcDbLine
 62
250
  6
CONTINUOUS
 10
-53.6112868727
 20
12.6142857909
 11
-53.3970011711
 21
12.828571403
  0
LINE
  5
3B3
100
AcDbEntity
  8
0
100
AcDbLine
 62
250
  6
CONTINUOUS
 10
-52.3255725965
 20
13.3642857909
 11
-52.1112868727
 21
13.578571403
  0
LWPOLYLINE
  5
3B4
100
AcDbEntity
  8
ASSI
100
AcDbPolyline
 62
250
  6
CONTINUOUS
 90
10
 70
0
 10
-46.7989588746
 20
17.6058675452
 10
-46.751342209
 20
17.6318985311
 10
-46.7045551518
 20
17.6528850203
 10
-46.659286587
 20
17.668518014
 10
-46.6162030484
 20
17.6785673365
 10
-46.5759388784
 20
17.6828850305
 10
-46.5390868949
 20
17.6814075239
 10
-46.5061896972
 20
17.6741565619
 10
-46.4777316702
 20
17.6612388991
 10
-46.4541318303
 20
17.6428447264
  0
LINE
  5
3B5
100
AcDbEntity
  8
0
100
AcDbLine
 62
250
  6
CONTINUOUS
 10
-53.1827154696
 20
14.0071428061
 11
-53.3970011711
 21
13.9
  0
LWPOLYLINE
  5
3B6
100
AcDbEntity
  8
ASSI
100
AcDbPolyline
 62
7
  6
CONTINUOUS
 90
10
 70
0
 10
-37.4025606694
 20
-19.2173699142
 10
-37.3130689048
 20
-19.208936025
 10
-37.2310274877
 20
-19.1917673963
 10
-37.1564364181
 20
-19.1658640284
 10
-37.0875942302
 20
-19.1300231739
 10
-37.0262023899
 20
-19.08544758
 10
-36.9773652942
 20
-19.0357454883
 10
-36.942784409
 20
-18.9821196458
 10
-36.9207582685
 20
-18.9233673055
 10
-36.9112868727
 20
-18.8594884673
  0
LINE
  5
3B7
100
AcDbEntity
  8
ASSI
100
AcDbLine
 62
7
  6
CONTINUOUS
 10
-37.4025606694
 20
-19.2173699142
 11
-38.8389487685
 21
-19.2478380935
  0
LINE
  5
3B8
100
AcDbEntity
  8
DRAFT
100
AcDbLine
 62
7
  6
CONTINUOUS
 10
-59.7182680085
 20
-20.6931398302
 11
-59.2684940585
 21
-20.6852889967
  0
LWPOLYLINE
  5
3B9
100
AcDbEntity
  8
ASSI
100
AcDbPolyline
 62
7
  6
CONTINUOUS
 90
19
 70
0
 10
-44.3830520114
 20
-19.4
 10
-44.3223871364
 20
-19.3990011592
 10
-44.2593824847
 20
-19.3971436862
 10
-44.1940698364
 20
-19.3944275811
 10
-44.1264147347
 20
-19.3906978357
 10
-44.0565373914
 20
-19.3861094582
 10
-43.9846853177
 20
-19.381127473
 10
-43.9108205312
 20
-19.3757729565
 10
-43.8350421333
 20
-19.3700248323
 10
-43.7577646374
 20
-19.364284895
 10
-43.6794164167
 20
-19.3585936275
 10
-43.5996151515
 20
-19.352910547
 10
-43.5175173677
 20
-19.347516
 10
-43.4328606165
 20
-19.3423897339
 10
-43.3459248269
 20
-19.3375520013
 10
-43.2566369171
 20
-19.3333439061
 10
-43.1649614532
 20
-19.3298791496
 10
-43.0709289747
 20
-19.3270440305
 10
-42.9745490283
 20
-19.3248385488
  0
LWPOLYLINE
  5
3BA
100
AcDbEntity
  8
ASSI
100
AcDbPolyline
 62
7
  6
CONTINUOUS
 90
7
 70
0
 10
-42.9745490283
 20
-19.3248385488
 10
-42.2901927403
 20
-19.3135969637
 10
-41.6038722836
 20
-19.301718649
 10
-40.915587658
 20
-19.2892036046
 10
-40.2253388637
 20
-19.2760518306
 10
-39.5331259005
 20
-19.2622633269
 10
-38.8389487685
 20
-19.2478380935
  0
LWPOLYLINE
  5
3BB
100
AcDbEntity
  8
ASSI
100
AcDbPolyline
 62
250
  6
CONTINUOUS
 90
9
 70
0
 10
-47.9954548789
 20
-19.2458034683
 10
-48.0335218342
 20
-19.2463765235
 10
-48.07221904
 20
-19.2486660773
 10
-48.1115464962
 20
-19.2526718108
 10
-48.1516232273
 20
-19.2583135609
 10
-48.1923302088
 20
-19.2656696612
 10
-48.2333103673
 20
-19.2749766903
 10
-48.2746185067
 20
-19.2862797837
 10
-48.316199823
 20
-19.2995285818
  0
LINE
  5
3BC
100
AcDbEntity
  8
ASSI
100
AcDbLine
 62
7
  6
CONTINUOUS
 10
-37.4112868727
 20
-19.4
 11
-43.9351108137
 21
-19.4
  0
LINE
  5
3BD
100
AcDbEntity
  8
ASSI
100
AcDbLine
 62
7
  6
CONTINUOUS
 10
-44.3830520114
 20
-19.4
 11
-48.0041800915
 21
-19.4
  0
LINE
  5
3BE
100
AcDbEntity
  8
ASSI
100
AcDbLine
 62
250
  6
CONTINUOUS
 10
-38.8389479045
 20
-19.2478380752
 11
-47.9954548789
 21
-19.2458034683
  0
LINE
  5
3BF
100
AcDbEntity
  8
RACCORDO
100
AcDbLine
 62
7
  6
CONTINUOUS
 10
-59.5704686362
 20
-18.25
 11
-63.5895938142
 21
-18.1798459091
  0
LINE
  5
3C0
100
AcDbEntity
  8
0
100
AcDbLine
 62
250
  6
CONTINUOUS
 10
-51.9165281664
 20
-15.290272
 11
-52.2378292726
 21
-15.052438
  0
LINE
  5
3C1
100
AcDbEntity
  8
0
100
AcDbLine
 62
250
  6
CONTINUOUS
 10
-51.8094277977
 20
-14.45785
 11
-50.7384261097
 21
-15.290272
  0
LINE
  5
3C2
100
AcDbEntity
  8
0
100
AcDbLine
 62
250
  6
CONTINUOUS
 10
-54.1032459188
 20
-11.660672
 11
-55.6979210543
 21
-8.897772
  0
LWPOLYLINE
  5
3C3
100
AcDbEntity
  8
ASSI
100
AcDbPolyline
 62
250
  6
CONTINUOUS
 90
4
 70
0
 10
-53.9639047336
 20
-21.1974274352
 10
-53.9639438896
 20
-21.1970531587
 10
-53.9639761366
 20
-21.1958829268
 10
-53.9640029195
 20
-21.1938474128
  0
LWPOLYLINE
  5
3C4
100
AcDbEntity
  8
0
100
AcDbPolyline
 62
250
  6
CONTINUOUS
 90
12
 70
0
 10
-55.9098647505
 20
-0.5118159058
 10
-55.9101909802
 20
-0.498659156
 10
-55.9104178928
 20
-0.4855083022
 10
-55.9105452981
 20
-0.472364181
 10
-55.9105730061
 20
-0.4592276294
 10
-55.9105008266
 20
-0.446099484
 10
-55.9103285694
 20
-0.4329805815
 10
-55.9100560445
 20
-0.4198717588
 10
-55.9096830616
 20
-0.4067738525
 10
-55.9092094306
 20
-0.3936876995
 10
-55.9086349613
 20
-0.3806141364
 10
-55.9079594637
 20
-0.367554
  0
LINE
  5
3C5
100
AcDbEntity
  8
0
100
AcDbLine
 62
250
  6
CONTINUOUS
 10
-56.8180527734
 20
-5.89931
 11
-56.8180527734
 21
-6.379265
  0
LINE
  5
3C6
100
AcDbEntity
  8
0
100
AcDbLine
 62
250
  6
CONTINUOUS
 10
-56.4124328291
 20
13.0106229859
 11
-56.4124328291
 21
13.1217440007
  0
LINE
  5
3C7
100
AcDbEntity
  8
0
100
AcDbLine
 62
250
  6
CONTINUOUS
 10
-56.4124328291
 20
14.2784938404
 11
-56.4124328291
 21
14.3896138136
  0
LINE
  5
3C8
100
AcDbEntity
  8
0
100
AcDbLine
 62
250
  6
CONTINUOUS
 10
-56.4124276232
 20
14.7076855198
 11
-56.4124276232
 21
15.475496706
  0
LINE
  5
3C9
100
AcDbEntity
  8
0
100
AcDbLine
 62
250
  6
CONTINUOUS
 10
-56.4107496136
 20
5.9
 11
-56.4107496136
 21
6.154629
  0
LINE
  5
3CA
100
AcDbEntity
  8
0
100
AcDbLine
 62
250
  6
CONTINUOUS
 10
-56.4107496136
 20
7.107583
 11
-56.4107496136
 21
7.334483
  0
LINE
  5
3CB
100
AcDbEntity
  8
0
100
AcDbLine
 62
250
  6
CONTINUOUS
 10
-56.4107496136
 20
7.836111
 11
-56.4107496136
 21
9.078982
  0
LINE
  5
3CC
100
AcDbEntity
  8
0
100
AcDbLine
 62
250
  6
CONTINUOUS
 10
-56.4107496136
 20
11.143655
 11
-56.4107496136
 21
12.38651
  0
LINE
  5
3CD
100
AcDbEntity
  8
0
100
AcDbLine
 62
250
  6
CONTINUOUS
 10
-56.4107436154
 20
9.290716
 11
-56.4107436154
 21
9.550344
  0
LINE
  5
3CE
100
AcDbEntity
  8
0
100
AcDbLine
 62
250
  6
CONTINUOUS
 10
-56.4107436154
 20
10.589028
 11
-56.4107436154
 21
10.838623
  0
LINE
  5
3CF
100
AcDbEntity
  8
0
100
AcDbLine
 62
250
  6
CONTINUOUS
 10
-56.3164719984
 20
15.4679031121
 11
-56.3164719984
 21
14.8188752737
  0
LINE
  5
3D0
100
AcDbEntity
  8
0
100
AcDbLine
 62
250
  6
CONTINUOUS
 10
-56.2091310426
 20
12.38651
 11
-56.2091310426
 21
11.383148
  0
LINE
  5
3D1
100
AcDbEntity
  8
0
100
AcDbLine
 62
250
  6
CONTINUOUS
 10
-56.2091310426
 20
9.078982
 11
-56.2091310426
 21
8.075621
  0
LINE
  5
3D2
100
AcDbEntity
  8
0
100
AcDbLine
 62
250
  6
CONTINUOUS
 10
-56.0761448173
 20
-6.924272
 11
-56.0761448173
 21
-9.292472
  0
LINE
  5
3D3
100
AcDbEntity
  8
0
100
AcDbLine
 62
250
  6
CONTINUOUS
 10
-55.6370303499
 20
8.075621
 11
-55.6370303499
 21
9.010914
  0
LINE
  5
3D4
100
AcDbEntity
  8
0
100
AcDbLine
 62
250
  6
CONTINUOUS
 10
-55.6370303499
 20
11.383148
 11
-55.6370303499
 21
12.318493
  0
LINE
  5
3D5
100
AcDbEntity
  8
0
100
AcDbLine
 62
250
  6
CONTINUOUS
 10
-55.5085175163
 20
14.8188752737
 11
-55.5085175163
 21
15.4527669578
  0
LINE
  5
3D6
100
AcDbEntity
  8
0
100
AcDbLine
 62
250
  6
CONTINUOUS
 10
-55.4353957837
 20
12.318493
 11
-55.4353957837
 21
11.383148
  0
LINE
  5
3D7
100
AcDbEntity
  8
0
100
AcDbLine
 62
250
  6
CONTINUOUS
 10
-55.4353957837
 20
9.010914
 11
-55.4353957837
 21
8.075621
  0
LINE
  5
3D8
100
AcDbEntity
  8
0
100
AcDbLine
 62
250
  6
CONTINUOUS
 10
-55.4125618915
 20
15.4351062017
 11
-55.4125618915
 21
14.8188752737
  0
LWPOLYLINE
  5
3D9
100
AcDbEntity
  8
0
100
AcDbPolyline
 62
250
  6
CONTINUOUS
 90
89
 70
0
 10
-56.3164719984
 20
15.4679031121
 10
-56.3162651968
 20
15.4827651932
 10
-56.3156417885
 20
15.4977359014
 10
-56.314597268
 20
15.5127861159
 10
-56.3131271298
 20
15.5278867157
 10
-56.3112268686
 20
15.54300858
 10
-56.3088919788
 20
15.5581225881
 10
-56.3061179551
 20
15.573199619
 10
-56.302900292
 20
15.5882105519
 10
-56.299234484
 20
15.6031262659
 10
-56.2951160257
 20
15.6179176403
 10
-56.2905404117
 20
15.6325555542
 10
-56.2855031365
 20
15.6470108867
 10
-56.2799996947
 20
15.6612545171
 10
-56.2740255809
 20
15.6752573243
 10
-56.2675762895
 20
15.6889901877
 10
-56.2606473152
 20
15.7024239864
 10
-56.2532341525
 20
15.7155295995
 10
-56.245332296
 20
15.7282779062
 10
-56.2369372402
 20
15.7406397857
 10
-56.2280444797
 20
15.752586117
 10
-56.218649509
 20
15.7640877795
 10
-56.2087478228
 20
15.7751156521
 10
-56.198399246
 20
15.7855878869
 10
-56.1875687004
 20
15.7955622926
 10
-56.1762797359
 20
15.8050383409
 10
-56.1645559022
 20
15.8140155036
 10
-56.1524207493
 20
15.8224932526
 10
-56.1398978271
 20
15.8304710596
 10
-56.1270106855
 20
15.8379483965
 10
-56.1137828742
 20
15.8449247351
 10
-56.1002379433
 20
15.8513995472
 10
-56.0863994425
 20
15.8573723046
 10
-56.0722909218
 20
15.8628424791
 10
-56.057935931
 20
15.8678095426
 10
-56.04335802
 20
15.8722729667
 10
-56.0285807387
 20
15.8762322235
 10
-56.0136276369
 20
15.8796867846
 10
-55.9985222646
 20
15.8826361219
 10
-55.9832881716
 20
15.8850797071
 10
-55.9679489078
 20
15.8870170122
 10
-55.952528023
 20
15.8884475089
 10
-55.9370490672
 20
15.889370669
 10
-55.9215355902
 20
15.8897859643
 10
-55.9060111419
 20
15.8896928667
 10
-55.8905499692
 20
15.8890940541
 10
-55.8751241653
 20
15.8879915413
 10
-55.859756603
 20
15.8863872204
 10
-55.8444701548
 20
15.8842829832
 10
-55.8292876933
 20
15.8816807218
 10
-55.8142320912
 20
15.8785823281
 10
-55.7993262211
 20
15.874989694
 10
-55.7845929556
 20
15.8709047116
 10
-55.7700551673
 20
15.8663292727
 10
-55.7557357288
 20
15.8612652693
 10
-55.7416575128
 20
15.8557145935
 10
-55.7278433918
 20
15.8496791371
 10
-55.7143162385
 20
15.8431607922
 10
-55.7010989255
 20
15.8361614507
 10
-55.6882143254
 20
15.8286830045
 10
-55.6756853107
 20
15.8207273456
 10
-55.6635347543
 20
15.812296366
 10
-55.6517855285
 20
15.8033919576
 10
-55.6404605061
 20
15.7940160125
 10
-55.6295825597
 20
15.7841704225
 10
-55.6191745619
 20
15.7738570796
 10
-55.6092593853
 20
15.7630778758
 10
-55.5997533123
 20
15.7517115789
 10
-55.5907668864
 20
15.7398987997
 10
-55.5822925445
 20
15.7276673854
 10
-55.574322724
 20
15.7150451837
 10
-55.5668498621
 20
15.7020600419
 10
-55.5598663958
 20
15.6887398074
 10
-55.5533647626
 20
15.6751123277
 10
-55.5473373995
 20
15.6612054502
 10
-55.5417767438
 20
15.6470470223
 10
-55.5366752326
 20
15.6326648915
 10
-55.5320253032
 20
15.6180869053
 10
-55.5278193927
 20
15.6033409109
 10
-55.5240499385
 20
15.5884547559
 10
-55.5207093776
 20
15.5734562877
 10
-55.5177901472
 20
15.5583733537
 10
-55.5152846847
 20
15.5432338013
 10
-55.5131854272
 20
15.528065478
 10
-55.5114848118
 20
15.5128962312
 10
-55.5101752758
 20
15.4977539084
 10
-55.5092492565
 20
15.4826663569
 10
-55.5086991909
 20
15.4676614242
 10
-55.5085175163
 20
15.4527669578
  0
LWPOLYLINE
  5
3DA
100
AcDbEntity
  8
0
100
AcDbPolyline
 62
250
  6
CONTINUOUS
 90
80
 70
0
 10
-56.658547775
 20
4.017559
 10
-56.6603816181
 20
3.916530971
 10
-56.6580043077
 20
3.8151675274
 10
-56.6514619013
 20
3.7136594008
 10
-56.6408004567
 20
3.6121973229
 10
-56.6260660315
 20
3.5109720252
 10
-56.6073046835
 20
3.4101742393
 10
-56.5845624703
 20
3.3099946968
 10
-56.5578854497
 20
3.2106241292
 10
-56.5273196793
 20
3.1122532683
 10
-56.4929112167
 20
3.0150728455
 10
-56.4547061197
 20
2.9192735924
 10
-56.412750446
 20
2.8250462407
 10
-56.3670902533
 20
2.7325815219
 10
-56.3177715992
 20
2.6420701676
 10
-56.2648405414
 20
2.5537029094
 10
-56.2083431376
 20
2.4676704789
 10
-56.1483403607
 20
2.3841475665
 10
-56.0849528443
 20
2.3032446975
 10
-56.0183161372
 20
2.2250563561
 10
-55.9485657884
 20
2.1496770265
 10
-55.8758373465
 20
2.077201193
 10
-55.8002663604
 20
2.0077233397
 10
-55.7219883789
 20
1.9413379507
 10
-55.6411389509
 20
1.8781395103
 10
-55.5578536252
 20
1.8182225026
 10
-55.4722679506
 20
1.7616814118
 10
-55.3845174759
 20
1.7086107222
 10
-55.2947377499
 20
1.6591049178
 10
-55.2030643215
 20
1.6132584829
 10
-55.1096327395
 20
1.5711659017
 10
-55.0145785527
 20
1.5329216583
 10
-54.9180373099
 20
1.4986202369
 10
-54.8201501249
 20
1.4683403743
 10
-54.7210803708
 20
1.4420978181
 10
-54.6209969857
 20
1.4198925683
 10
-54.5200689078
 20
1.401724625
 10
-54.418465075
 20
1.3875939883
 10
-54.3163544255
 20
1.3775006584
 10
-54.2139058974
 20
1.3714446352
 10
-54.1112884287
 20
1.369425919
 10
-54.0086709576
 20
1.3714445098
 10
-53.9062224221
 20
1.3775004077
 10
-53.8041117602
 20
1.3875936129
 10
-53.7025079102
 20
1.4017241254
 10
-53.6015798101
 20
1.4198919454
 10
-53.5014963979
 20
1.4420970729
 10
-53.4024266117
 20
1.4683395081
 10
-53.3045393897
 20
1.498619251
 10
-53.207998105
 20
1.5329205544
 10
-53.1129438715
 20
1.5711646816
 10
-53.0195122381
 20
1.6132571487
 10
-52.9278387537
 20
1.6591034715
 10
-52.8380589673
 20
1.7086091662
 10
-52.7503084278
 20
1.7616797486
 10
-52.6647226841
 20
1.8182207348
 10
-52.5814372852
 20
1.8781376407
 10
-52.50058778
 20
1.9413359823
 10
-52.4223097175
 20
2.0077212756
 10
-52.3467386465
 20
2.0771990366
 10
-52.2740101161
 20
2.1496747813
 10
-52.2042596752
 20
2.2250540256
 10
-52.1376228726
 20
2.3032422855
 10
-52.0742352574
 20
2.384145077
 10
-52.0142323785
 20
2.4676679162
 10
-51.9577348697
 20
2.5537002776
 10
-51.9048037039
 20
2.6420674711
 10
-51.8554849393
 20
2.7325787652
 10
-51.8098246336
 20
2.8250434282
 10
-51.7678688448
 20
2.9192707286
 10
-51.7296636308
 20
3.015069935
 10
-51.6952550496
 20
3.1122503157
 10
-51.664689159
 20
3.2106211393
 10
-51.638012017
 20
3.3099916742
 10
-51.6152696815
 20
3.410171189
 10
-51.5965082104
 20
3.5109689519
 10
-51.5817736616
 20
3.6121942316
 10
-51.5711120931
 20
3.7136562965
 10
-51.5645695627
 20
3.8151644151
 10
-51.5621921284
 20
3.9165278558
  0
LWPOLYLINE
  5
3DB
100
AcDbEntity
  8
0
100
AcDbPolyline
 62
250
  6
CONTINUOUS
 90
80
 70
0
 10
-56.658547775
 20
-0.367554
 10
-56.6603814995
 20
-0.4685819908
 10
-56.6580040734
 20
-0.5699453909
 10
-56.6514615544
 20
-0.6714534689
 10
-56.6408000005
 20
-0.7729154936
 10
-56.6260654694
 20
-0.8741407337
 10
-56.607304019
 20
-0.9749384577
 10
-56.5845617071
 20
-1.0751179343
 10
-56.5578845916
 20
-1.1744884324
 10
-56.5273187303
 20
-1.2728592205
 10
-56.4929101811
 20
-1.3700395673
 10
-56.4547050018
 20
-1.4658387414
 10
-56.4127492501
 20
-1.5600660117
 10
-56.3670889841
 20
-1.6525306467
 10
-56.3177702614
 20
-1.7430419151
 10
-56.26483914
 20
-1.8314090856
 10
-56.2083416777
 20
-1.917441427
 10
-56.1483388474
 20
-2.000964249
 10
-56.0849512828
 20
-2.0818670265
 10
-56.0183145326
 20
-2.1600552755
 10
-55.9485641455
 20
-2.2354345122
 10
-55.8758356703
 20
-2.3079102524
 10
-55.8002646558
 20
-2.3773880123
 10
-55.7219866505
 20
-2.4437733079
 10
-55.6411372034
 20
-2.5069716552
 10
-55.5578518632
 20
-2.5668885703
 10
-55.4722661785
 20
-2.6234295692
 10
-55.3845156981
 20
-2.676500168
 10
-55.2947359708
 20
-2.7260058826
 10
-55.2030625453
 20
-2.7718522292
 10
-55.1096309704
 20
-2.8139447237
 10
-55.0145767947
 20
-2.8521888822
 10
-54.9180355671
 20
-2.8864902207
 10
-54.820148401
 20
-2.9167700027
 10
-54.7210786697
 20
-2.9430124807
 10
-54.6209953109
 20
-2.9652176548
 10
-54.5200672625
 20
-2.9833855249
 10
-54.4184634625
 20
-2.9975160911
 10
-54.3163528487
 20
-3.0076093534
 10
-54.2139043591
 20
-3.0136653117
 10
-54.1112869314
 20
-3.015683966
 10
-54.0086695037
 20
-3.0136653164
 10
-53.9062210137
 20
-3.0076093628
 10
-53.8041103995
 20
-2.9975161053
 10
-53.7025065988
 20
-2.9833855438
 10
-53.6015785496
 20
-2.9652176783
 10
-53.5014951898
 20
-2.9430125088
 10
-53.4024254572
 20
-2.9167700354
 10
-53.3045382898
 20
-2.886490258
 10
-53.2079970606
 20
-2.8521889239
 10
-53.1129428832
 20
-2.8139447698
 10
-53.0195113063
 20
-2.7718522796
 10
-52.9278378787
 20
-2.7260059372
 10
-52.8380581491
 20
-2.6765002268
 10
-52.7503076663
 20
-2.6234296321
 10
-52.664721979
 20
-2.5668886371
 10
-52.5814366359
 20
-2.5069717258
 10
-52.5005871859
 20
-2.4437733823
 10
-52.4223091776
 20
-2.3773880903
 10
-52.3467381599
 20
-2.3079103339
 10
-52.2740096813
 20
-2.235434597
 10
-52.2042592908
 20
-2.1600553635
 10
-52.137622537
 20
-2.0818671176
 10
-52.0742349686
 20
-2.000964343
 10
-52.0142321345
 20
-1.9174415237
 10
-51.9577346682
 20
-1.831409185
 10
-51.9048035427
 20
-1.7430420169
 10
-51.8554848159
 20
-1.6525307508
 10
-51.8098245456
 20
-1.5600661179
 10
-51.7678687896
 20
-1.4658388496
 10
-51.7296636058
 20
-1.3700396772
 10
-51.6952550521
 20
-1.272859332
 10
-51.6646891863
 20
-1.1744885453
 10
-51.6380120662
 20
-1.0751180485
 10
-51.6152697497
 20
-0.9749385729
 10
-51.5965082947
 20
-0.8741408497
 10
-51.5817737589
 20
-0.7729156104
 10
-51.5711122003
 20
-0.6714535862
 10
-51.5645696767
 20
-0.5699455084
 10
-51.5621922458
 20
-0.4685821084
  0
LWPOLYLINE
  5
3DC
100
AcDbEntity
  8
0
100
AcDbPolyline
 62
250
  6
CONTINUOUS
 90
37
 70
0
 10
-50.4552081056
 20
14.103542891
 10
-50.4683499455
 20
14.0901079138
 10
-50.481090343
 20
14.0762969087
 10
-50.4934349951
 20
14.062124287
 10
-50.5053895992
 20
14.0476044602
 10
-50.5169598525
 20
14.0327518397
 10
-50.528151452
 20
14.017580837
 10
-50.5389700951
 20
14.0021058634
 10
-50.5494214788
 20
13.9863413305
 10
-50.5595113004
 20
13.9703016496
 10
-50.5692452572
 20
13.9540012322
 10
-50.5786290462
 20
13.9374544897
 10
-50.5876683647
 20
13.9206758336
 10
-50.5963689099
 20
13.9036796753
 10
-50.6047363789
 20
13.8864804262
 10
-50.612776469
 20
13.8690924979
 10
-50.6204948774
 20
13.8515303016
 10
-50.6278973012
 20
13.8338082489
 10
-50.6349894377
 20
13.8159407511
 10
-50.641776984
 20
13.7979422198
 10
-50.6482656373
 20
13.7798270664
 10
-50.6544610949
 20
13.7616097022
 10
-50.6603690539
 20
13.7433045388
 10
-50.6659952115
 20
13.7249259875
 10
-50.671345265
 20
13.7064884599
 10
-50.6764249114
 20
13.6880063672
 10
-50.6812398481
 20
13.6694941211
 10
-50.6857957721
 20
13.6509661329
 10
-50.6900983808
 20
13.632436814
 10
-50.6959427646
 20
13.6054102254
 10
-50.7013214374
 20
13.5784004564
 10
-50.7062961957
 20
13.5513964603
 10
-50.710928836
 20
13.5243871904
 10
-50.715281155
 20
13.4973615999
 10
-50.719414949
 20
13.4703086422
 10
-50.7233920146
 20
13.4432172705
 10
-50.7272741485
 20
13.4160764381
  0
LINE
  5
3DD
100
AcDbEntity
  8
0
100
AcDbLine
 62
250
  6
CONTINUOUS
 10
-52.7541440219
 20
12.2928571045
 11
-52.9684297681
 21
12.078571403
  0
LINE
  5
3DE
100
AcDbEntity
  8
0
100
AcDbLine
 62
250
  6
CONTINUOUS
 10
-53.3970011711
 20
11.5428571492
 11
-53.6112868727
 21
11.3285714477
  0
LINE
  5
3DF
100
AcDbEntity
  8
0
100
AcDbLine
 62
250
  6
CONTINUOUS
 10
-52.3255725965
 20
11.0071428619
 11
-52.1112868727
 21
11.2214285746
  0
LINE
  5
3E0
100
AcDbEntity
  8
0
100
AcDbLine
 62
250
  6
CONTINUOUS
 10
-52.5398583204
 20
13.2571428061
 11
-52.3255725965
 21
13.3642857909
  0
LINE
  5
3E1
100
AcDbEntity
  8
0
100
AcDbLine
 62
250
  6
CONTINUOUS
 10
-53.1827154696
 20
11.65
 11
-53.3970011711
 21
11.5428571492
  0
LWPOLYLINE
  5
3E2
100
AcDbEntity
  8
ASSI
100
AcDbPolyline
 62
250
  6
CONTINUOUS
 90
10
 70
0
 10
-37.4025606695
 20
-17.2410067962
 10
-37.3168154742
 20
-17.2354362672
 10
-37.2338827156
 20
-17.2207615372
 10
-37.1562269706
 20
-17.1974201251
 10
-37.0861548363
 20
-17.1661067379
 10
-37.0257482168
 20
-17.1277532536
 10
-36.9768016872
 20
-17.0835014905
 10
-36.9407670991
 20
-17.0346678377
 10
-36.9187115126
 20
-16.9827035401
 10
-36.9112868727
 20
-16.9291526157
  0
LINE
  5
3E3
100
AcDbEntity
  8
RACCORDO
100
AcDbLine
 62
250
  6
CONTINUOUS
 10
-59.5806086384
 20
-16.1515736583
 11
-58.1112868727
 21
-16.1191678393
  0
LINE
  5
3E4
100
AcDbEntity
  8
ASSI
100
AcDbLine
 62
7
  6
CONTINUOUS
 10
-35.1077925703
 20
-15.8685198899
 11
-36.9112868727
 21
-15.9
  0
LINE
  5
3E5
100
AcDbEntity
  8
ASSI
100
AcDbLine
 62
250
  6
CONTINUOUS
 10
-44.3206968118
 20
-16.0358157857
 11
-58.1112868727
 21
-16.119659166
  0
LINE
  5
3E6
100
AcDbEntity
  8
ASSI
100
AcDbLine
 62
250
  6
CONTINUOUS
 10
-37.4025606694
 20
-15.9935900738
 11
-44.3206968118
 21
-16.0358157857
  0
LINE
  5
3E7
100
AcDbEntity
  8
ASSI
100
AcDbLine
 62
250
  6
CONTINUOUS
 10
-37.4025606695
 20
-17.2410067964
 11
-51.2236056595
 21
-17.3201360685
  0
LINE
  5
3E8
100
AcDbEntity
  8
ASSI
100
AcDbLine
 62
250
  6
CONTINUOUS
 10
-51.2236056595
 20
-17.3201360685
 11
-58.1112868727
 21
-17.3594295692
  0
LINE
  5
3E9
100
AcDbEntity
  8
ASSI
100
AcDbLine
 62
7
  6
CONTINUOUS
 10
-36.9112868727
 20
-17.29834
 11
-36.7112868727
 21
-17.29834
  0
LINE
  5
3EA
100
AcDbEntity
  8
ASSI
100
AcDbLine
 62
7
  6
CONTINUOUS
 10
-36.9112868727
 20
-16.96892
 11
-36.7112868727
 21
-16.96892
  0
LINE
  5
3EB
100
AcDbEntity
  8
ASSI
100
AcDbLine
 62
7
  6
CONTINUOUS
 10
-36.9112868727
 20
-16.72428
 11
-36.7112868727
 21
-16.72428
  0
LINE
  5
3EC
100
AcDbEntity
  8
ASSI
100
AcDbLine
 62
7
  6
CONTINUOUS
 10
-36.9112868727
 20
-16.235
 11
-36.7112868727
 21
-16.235
  0
LINE
  5
3ED
100
AcDbEntity
  8
0
100
AcDbLine
 62
250
  6
CONTINUOUS
 10
-41.9112868727
 20
-16.0
 11
-40.6112868727
 21
-16.0
  0
LINE
  5
3EE
100
AcDbEntity
  8
ASSI
100
AcDbLine
 62
250
  6
CONTINUOUS
 10
-37.4025606694
 20
-15.9935900739
 11
-36.9112868727
 21
-15.9935900739
  0
LINE
  5
3EF
100
AcDbEntity
  8
ASSI
100
AcDbLine
 62
7
  6
CONTINUOUS
 10
-36.9112868727
 20
-15.98062
 11
-36.7112868727
 21
-15.98062
  0
LINE
  5
3F0
100
AcDbEntity
  8
0
100
AcDbLine
 62
250
  6
CONTINUOUS
 10
-39.9112868727
 20
-15.628571412
 11
-38.6112868727
 21
-15.628571412
  0
LINE
  5
3F1
100
AcDbEntity
  8
RACCORDO
100
AcDbLine
 62
250
  6
CONTINUOUS
 10
-59.6934981748
 20
-17.2480048163
 11
-63.5022538737
 21
-17.1815458205
  0
LWPOLYLINE
  5
3F2
100
AcDbEntity
  8
CURVE
100
AcDbPolyline
 62
7
420
4080451
  6
CONTINUOUS
 90
56
 70
0
 10
-45.1300787831
 20
-15.5361835155
 10
-45.1587185893
 20
-15.535655109
 10
-45.1867343651
 20
-15.5340787482
 10
-45.2149387951
 20
-15.5314672362
 10
-45.2432386745
 20
-15.5278314377
 10
-45.2713747083
 20
-15.5231810942
 10
-45.2993291282
 20
-15.517523394
 10
-45.327132038
 20
-15.510867487
 10
-45.3547635006
 20
-15.5032329229
 10
-45.3912889023
 20
-15.4915707363
 10
-45.427412283
 20
-15.4782684214
 10
-45.4630941004
 20
-15.4633863072
 10
-45.4983078607
 20
-15.44697652
 10
-45.5330792654
 20
-15.4290583732
 10
-45.567447065
 20
-15.4096429772
 10
-45.6081898177
 20
-15.3843970003
 10
-45.6483516893
 20
-15.3571095252
 10
-45.6878771897
 20
-15.3278790934
 10
-45.7267108284
 20
-15.2968042466
 10
-45.7647971155
 20
-15.2639835262
 10
-45.8112867021
 20
-15.2206479066
 10
-45.8565168307
 20
-15.1749025553
 10
-45.9004824836
 20
-15.126911697
 10
-45.9431786433
 20
-15.0768395561
 10
-45.9846074639
 20
-15.0248330831
 10
-46.0247997864
 20
-14.9709701327
 10
-46.0637936236
 20
-14.9153112855
 10
-46.1016269881
 20
-14.8579171219
 10
-46.138330376
 20
-14.7988604172
 10
-46.1739042167
 20
-14.7382627239
 10
-46.2083414231
 20
-14.676257789
 10
-46.2416349079
 20
-14.6129793597
 10
-46.2842498874
 20
-14.5268040421
 10
-46.3248924157
 20
-14.4385940073
 10
-46.3636359239
 20
-14.3483407559
 10
-46.4005538431
 20
-14.2560357883
 10
-46.4357196043
 20
-14.1616706049
 10
-46.4692066385
 20
-14.0652367063
 10
-46.5010741888
 20
-13.9667328508
 10
-46.5313247459
 20
-13.8661868287
 10
-46.5599466123
 20
-13.763633688
 10
-46.5869280908
 20
-13.6591084769
 10
-46.612257484
 20
-13.5526462434
 10
-46.6359230944
 20
-13.4442820358
 10
-46.657910541
 20
-13.3340463011
 10
-46.678194708
 20
-13.2219510826
 10
-46.696747796
 20
-13.1080038225
 10
-46.7135420054
 20
-12.9922119631
 10
-46.7285495368
 20
-12.8745829466
 10
-46.7417425906
 20
-12.7551242152
 10
-46.7530866776
 20
-12.6338415234
 10
-46.7625205494
 20
-12.510733874
 10
-46.769976268
 20
-12.385798582
 10
-46.7753858951
 20
-12.2590329623
 10
-46.7786814927
 20
-12.13043433
 10
-46.7797951226
 20
-12.0
  0
LINE
  5
3F3
100
AcDbEntity
  8
CURVE
100
AcDbLine
 62
7
420
4080451
  6
CONTINUOUS
 10
-48.8789365838
 20
-14.1428571045
 11
-49.3073774498
 21
-13.928571403
  0
LINE
  5
3F4
100
AcDbEntity
  8
CURVE
100
AcDbLine
 62
7
420
4080451
  6
CONTINUOUS
 10
-49.6287081439
 20
-14.5714285523
 11
-49.200267278
 21
-15.0
  0
LINE
  5
3F5
100
AcDbEntity
  8
CURVE
100
AcDbLine
 62
7
420
4080451
  6
CONTINUOUS
 10
-49.3073774498
 20
-13.928571403
 11
-49.6287081439
 21
-13.6071428955
  0
LINE
  5
3F6
100
AcDbEntity
  8
CURVE
100
AcDbLine
 62
7
420
4080451
  6
CONTINUOUS
 10
-48.343385479
 20
-13.3928571939
 11
-48.1291650237
 21
-13.6071428955
  0
LINE
  5
3F7
100
AcDbEntity
  8
0
100
AcDbLine
 62
250
  6
CONTINUOUS
 10
-51.3411874608
 20
-11.660672
 11
-52.9358625963
 21
-8.897772
  0
LINE
  5
3F8
100
AcDbEntity
  8
0
100
AcDbLine
 62
250
  6
CONTINUOUS
 10
-56.1754505609
 20
-5.89931
 11
-56.2825519294
 21
-5.699329
  0
LWPOLYLINE
  5
3F9
100
AcDbEntity
  8
0
100
AcDbPolyline
 62
250
  6
CONTINUOUS
 90
59
 70
0
 10
-55.4125618915
 20
15.4351062017
 10
-55.4126538486
 20
15.4495637785
 10
-55.4129361739
 20
15.4641201959
 10
-55.4134185487
 20
15.4787595921
 10
-55.4141106543
 20
15.4934661052
 10
-55.4150221718
 20
15.5082238733
 10
-55.4161627826
 20
15.5230170345
 10
-55.4175421679
 20
15.537829727
 10
-55.4191700089
 20
15.5526460889
 10
-55.421055987
 20
15.5674502582
 10
-55.4232097832
 20
15.5822263731
 10
-55.425641079
 20
15.5969585717
 10
-55.4283595554
 20
15.6116309922
 10
-55.4313748939
 20
15.6262277726
 10
-55.4346967756
 20
15.640733051
 10
-55.4383348817
 20
15.6551309656
 10
-55.4422988936
 20
15.6694056545
 10
-55.4465984924
 20
15.6835412558
 10
-55.4512433595
 20
15.6975219076
 10
-55.456243176
 20
15.711331748
 10
-55.4616076232
 20
15.7249549152
 10
-55.4673463824
 20
15.7383755473
 10
-55.4734691347
 20
15.7515777823
 10
-55.4799855616
 20
15.7645457584
 10
-55.4869053441
 20
15.7772636136
 10
-55.4942381636
 20
15.7897154863
 10
-55.5019937013
 20
15.8018855143
 10
-55.5101816384
 20
15.8137578359
 10
-55.5188116562
 20
15.8253165892
 10
-55.5278934359
 20
15.8365459122
 10
-55.5373376545
 20
15.8473288361
 10
-55.5472152366
 20
15.8577704027
 10
-55.5575069567
 20
15.8678679214
 10
-55.5681935892
 20
15.8776187018
 10
-55.5792559085
 20
15.8870200532
 10
-55.590674689
 20
15.8960692852
 10
-55.602430705
 20
15.9047637073
 10
-55.614504731
 20
15.9131006288
 10
-55.6268775414
 20
15.9210773593
 10
-55.6395299105
 20
15.9286912083
 10
-55.6524426128
 20
15.9359394851
 10
-55.6655964226
 20
15.9428194993
 10
-55.6789721145
 20
15.9493285603
 10
-55.6925504626
 20
15.9554639776
 10
-55.7063122416
 20
15.9612230607
 10
-55.7202382257
 20
15.966603119
 10
-55.7343091893
 20
15.971601462
 10
-55.7485059069
 20
15.9762153991
 10
-55.7628091528
 20
15.9804422399
 10
-55.7771997015
 20
15.9842792938
 10
-55.7916583273
 20
15.9877238702
 10
-55.8061658047
 20
15.9907732786
 10
-55.820702908
 20
15.9934248286
 10
-55.8352504117
 20
15.9956758295
 10
-55.8497890901
 20
15.9975235908
 10
-55.8642997176
 20
15.9989654221
 10
-55.8787630686
 20
15.9999986326
 10
-55.8931599176
 20
16.000620532
 10
-55.9074710389
 20
16.0008284297
  0
LINE
  5
3FA
100
AcDbEntity
  8
ASSI
100
AcDbLine
 62
250
  6
CONTINUOUS
 10
-53.9640029195
 20
-21.1938474128
 11
-53.9640502363
 21
-21.1869088874
  0
LINE
  5
3FB
100
AcDbEntity
  8
ASSI
100
AcDbLine
 62
250
  6
CONTINUOUS
 10
-53.9639047336
 20
21.0747565807
 11
-53.9640756259
 21
21.1539081107
  0
LINE
  5
3FC
100
AcDbEntity
  8
0
100
AcDbLine
 62
250
  6
CONTINUOUS
 10
-55.3186496104
 20
-6.379265
 11
-55.3186496104
 21
-5.779321
  0
LINE
  5
3FD
100
AcDbEntity
  8
0
100
AcDbLine
 62
250
  6
CONTINUOUS
 10
-54.812904444
 20
8.075621
 11
-54.812904444
 21
9.086542
  0
LINE
  5
3FE
100
AcDbEntity
  8
0
100
AcDbLine
 62
250
  6
CONTINUOUS
 10
-54.812904444
 20
11.383148
 11
-54.812904444
 21
12.394103
  0
LINE
  5
3FF
100
AcDbEntity
  8
0
100
AcDbLine
 62
250
  6
CONTINUOUS
 10
-54.6112868727
 20
12.394103
 11
-54.6112868727
 21
11.143655
  0
LINE
  5
400
100
AcDbEntity
  8
0
100
AcDbLine
 62
250
  6
CONTINUOUS
 10
-54.6112868727
 20
9.086542
 11
-54.6112868727
 21
7.836111
  0
LINE
  5
401
100
AcDbEntity
  8
0
100
AcDbLine
 62
250
  6
CONTINUOUS
 10
-54.6112868727
 20
7.334483
 11
-54.6112868727
 21
7.072295
  0
LINE
  5
402
100
AcDbEntity
  8
0
100
AcDbLine
 62
250
  6
CONTINUOUS
 10
-54.6112868727
 20
6.126882
 11
-54.6112868727
 21
5.9
  0
LINE
  5
403
100
AcDbEntity
  8
0
100
AcDbLine
 62
250
  6
CONTINUOUS
 10
-54.6112818742
 20
10.198263
 11
-54.6112818742
 21
9.926008
  0
LINE
  5
404
100
AcDbEntity
  8
0
100
AcDbLine
 62
250
  6
CONTINUOUS
 10
-54.6096732959
 20
14.8188752737
 11
-54.6096732959
 21
14.7076855198
  0
LINE
  5
405
100
AcDbEntity
  8
0
100
AcDbLine
 62
250
  6
CONTINUOUS
 10
-54.4861726527
 20
2.157056
 11
-54.4861726527
 21
3.617556
  0
LINE
  5
406
100
AcDbEntity
  8
ASSI
100
AcDbLine
 62
7
  6
CONTINUOUS
 10
-54.1112868727
 20
-21.3474045895
 11
-54.1112868727
 21
-23.4301797403
  0
LINE
  5
407
100
AcDbEntity
  8
ASSI
100
AcDbLine
 62
7
  6
CONTINUOUS
 10
-54.1112868727
 20
21.3474045895
 11
-54.1112868727
 21
23.4301797403
  0
LINE
  5
408
100
AcDbEntity
  8
0
100
AcDbLine
 62
250
  6
CONTINUOUS
 10
-54.1032459188
 20
-8.503072
 11
-54.1032459188
 21
-9.292472
  0
LINE
  5
409
100
AcDbEntity
  8
0
100
AcDbLine
 62
250
  6
CONTINUOUS
 10
-54.1032459188
 20
-14.028872
 11
-54.1032459188
 21
-11.660672
  0
LINE
  5
40A
100
AcDbEntity
  8
0
100
AcDbLine
 62
250
  6
CONTINUOUS
 10
-53.7364010926
 20
3.617556
 11
-53.7364010926
 21
2.157056
  0
LINE
  5
40B
100
AcDbEntity
  8
0
100
AcDbLine
 62
250
  6
CONTINUOUS
 10
-53.6112868727
 20
13.6857142091
 11
-53.6112868727
 21
13.578571403
  0
LINE
  5
40C
100
AcDbEntity
  8
0
100
AcDbLine
 62
250
  6
CONTINUOUS
 10
-53.6112868727
 20
11.3285714477
 11
-53.6112868727
 21
11.2214285746
  0
LINE
  5
40D
100
AcDbEntity
  8
0
100
AcDbLine
 62
250
  6
CONTINUOUS
 10
-53.6112868727
 20
12.2928571045
 11
-53.6112868727
 21
12.6142857909
  0
LINE
  5
40E
100
AcDbEntity
  8
0
100
AcDbLine
 62
250
  6
CONTINUOUS
 10
-53.6112868727
 20
15.2928571939
 11
-53.6112868727
 21
15.7214284182
  0
LINE
  5
40F
100
AcDbEntity
  8
0
100
AcDbLine
 62
250
  6
CONTINUOUS
 10
-53.3140863594
 20
-6.924272
 11
-53.3140863594
 21
-9.292472
  0
LINE
  5
410
100
AcDbEntity
  8
0
100
AcDbLine
 62
250
  6
CONTINUOUS
 10
-52.9684297681
 20
15.5071428061
 11
-52.9684297681
 21
15.7214284182
  0
LINE
  5
411
100
AcDbEntity
  8
0
100
AcDbLine
 62
250
  6
CONTINUOUS
 10
-52.9572030943
 20
-6.393017
 11
-52.9572030943
 21
-5.553095
  0
LINE
  5
412
100
AcDbEntity
  8
0
100
AcDbLine
 62
250
  6
CONTINUOUS
 10
-52.7541440219
 20
12.7571429253
 11
-52.7541440219
 21
12.2928571045
  0
LINE
  5
413
100
AcDbEntity
  8
ASSI
100
AcDbLine
 62
250
  6
CONTINUOUS
 10
-53.9640502363
 20
-21.1869088874
 11
-53.9640568028
 21
-21.1376459154
  0
LWPOLYLINE
  5
414
100
AcDbEntity
  8
ASSI
100
AcDbPolyline
 62
250
  6
CONTINUOUS
 90
6
 70
0
 10
-53.9640756259
 20
21.1539081107
 10
-53.9640571644
 20
21.1851107999
 10
-53.9640321922
 20
21.1902860859
 10
-53.9639958138
 20
21.1941602218
 10
-53.9639526775
 20
21.1965876371
 10
-53.9639047336
 20
21.1974274352
  0
LWPOLYLINE
  5
415
100
AcDbEntity
  8
ASSI
100
AcDbPolyline
 62
250
  6
CONTINUOUS
 90
3
 70
0
 10
-53.9640568028
 20
-21.1376459154
 10
-53.9639526019
 20
-21.0930571848
 10
-53.9639047336
 20
-21.0747565807
  0
LWPOLYLINE
  5
416
100
AcDbEntity
  8
0
100
AcDbPolyline
 62
250
  6
CONTINUOUS
 90
59
 70
0
 10
-54.6626797724
 20
13.6875162208
 10
-54.6628234329
 20
13.6708788419
 10
-54.6632679636
 20
13.6542004132
 10
-54.6640336884
 20
13.637499505
 10
-54.6651409311
 20
13.6207946876
 10
-54.6666100156
 20
13.6041045315
 10
-54.6684612656
 20
13.5874476068
 10
-54.670715005
 20
13.5708424841
 10
-54.6733915576
 20
13.5543077335
 10
-54.6765112474
 20
13.5378619254
 10
-54.680094398
 20
13.5215236301
 10
-54.6841613335
 20
13.505311418
 10
-54.6887323775
 20
13.4892438594
 10
-54.6938278539
 20
13.4733395247
 10
-54.6994680866
 20
13.4576169841
 10
-54.7056733993
 20
13.442094808
 10
-54.7123785247
 20
13.4269621834
 10
-54.7196395581
 20
13.4120618901
 10
-54.7274400769
 20
13.3974122138
 10
-54.7357636588
 20
13.3830314405
 10
-54.7445938813
 20
13.3689378557
 10
-54.753914322
 20
13.3551497455
 10
-54.7637085584
 20
13.3416853955
 10
-54.7739601682
 20
13.3285630916
 10
-54.7846527288
 20
13.3158011196
 10
-54.7957698178
 20
13.3034177653
 10
-54.8072950128
 20
13.2914313145
 10
-54.8192118913
 20
13.279860053
 10
-54.8315040309
 20
13.2687222665
 10
-54.8441550092
 20
13.258036241
 10
-54.8571484037
 20
13.2478202622
 10
-54.8713851298
 20
13.2374436491
 10
-54.8859760116
 20
13.2276114159
 10
-54.9009033787
 20
13.2183109536
 10
-54.9161495606
 20
13.2095296532
 10
-54.9316968868
 20
13.2012549061
 10
-54.9475276869
 20
13.1934741032
 10
-54.9636242905
 20
13.1861746358
 10
-54.9799690269
 20
13.1793438949
 10
-54.9965442259
 20
13.1729692718
 10
-55.0133322168
 20
13.1670381574
 10
-55.0303153293
 20
13.161537943
 10
-55.0474758929
 20
13.1564560197
 10
-55.064796237
 20
13.1517797787
 10
-55.0822586913
 20
13.147496611
 10
-55.0998455853
 20
13.1435939078
 10
-55.1175392485
 20
13.1400590602
 10
-55.1353220104
 20
13.1368794594
 10
-55.1531762006
 20
13.1340424965
 10
-55.1710841486
 20
13.1315355626
 10
-55.189028184
 20
13.1293460488
 10
-55.2069906362
 20
13.1274613464
 10
-55.2249538348
 20
13.1258688464
 10
-55.2429001094
 20
13.1245559399
 10
-55.2608117894
 20
13.1235100182
 10
-55.2786712045
 20
13.1227184722
 10
-55.2964606841
 20
13.1221686932
 10
-55.3141625578
 20
13.1218480724
 10
-55.331759155
 20
13.1217440007
  0
LWPOLYLINE
  5
417
100
AcDbEntity
  8
RACCORDO
100
AcDbPolyline
 62
250
  6
CONTINUOUS
 90
10
 70
0
 10
-58.8553442284
 20
-22.3559945256
 10
-58.8546503563
 20
-22.3518643943
 10
-58.8539839312
 20
-22.3463148765
 10
-58.8533615774
 20
-22.3392224849
 10
-58.852786453
 20
-22.3304795432
 10
-58.8522601453
 20
-22.3199815137
 10
-58.8517979159
 20
-22.307590553
 10
-58.8514088657
 20
-22.2931877078
 10
-58.8510964462
 20
-22.2766903399
 10
-58.8508696006
 20
-22.2580162062
  0
LINE
  5
418
100
AcDbEntity
  8
RACCORDO
100
AcDbLine
 62
250
  6
CONTINUOUS
 10
-58.8988199949
 20
-22.3557838682
 11
-58.899473065
 21
-22.358692912
  0
LWPOLYLINE
  5
419
100
AcDbEntity
  8
0
100
AcDbPolyline
 62
7
  6
CONTINUOUS
 90
3
 70
0
 43
0.3500000006
 10
-43.7255730286
 20
32.5357161255
 10
-43.7969996796
 20
32.3214271088
 10
-43.9398575134
 20
32.0357159729
  0
LINE
  5
41A
100
AcDbEntity
  8
0
100
AcDbLine
 62
7
  6
CONTINUOUS
 10
-56.6392049262
 20
3.9180449686
 11
-56.5396913698
 21
4.0175585249
  0
LINE
  5
41B
100
AcDbEntity
  8
0
100
AcDbLine
 62
7
  6
CONTINUOUS
 10
-56.605027641
 20
3.7422115398
 11
-56.3296814952
 21
4.0175576856
  0
LINE
  5
41C
100
AcDbEntity
  8
0
100
AcDbLine
 62
7
  6
CONTINUOUS
 10
-56.5708503557
 20
3.566378111
 11
-56.1196716206
 21
4.0175568462
  0
LINE
  5
41D
100
AcDbEntity
  8
0
100
AcDbLine
 62
7
  6
CONTINUOUS
 10
-56.5366730705
 20
3.3905446822
 11
-55.9096617459
 21
4.0175560068
  0
LINE
  5
41E
100
AcDbEntity
  8
0
100
AcDbLine
 62
7
  6
CONTINUOUS
 10
-45.1301436722
 20
14.7970740805
 11
-44.8348557527
 21
15.092362
  0
LINE
  5
41F
100
AcDbEntity
  8
0
100
AcDbLine
 62
7
  6
CONTINUOUS
 10
-56.5024957853
 20
3.2147112534
 11
-55.8758205981
 21
3.8413864407
  0
LINE
  5
420
100
AcDbEntity
  8
0
100
AcDbLine
 62
7
  6
CONTINUOUS
 10
-56.4683185001
 20
3.0388778246
 11
-55.8434190948
 21
3.66377723
  0
LINE
  5
421
100
AcDbEntity
  8
0
100
AcDbLine
 62
7
  6
CONTINUOUS
 10
-45.1301436722
 20
14.3770526525
 11
-44.4148343247
 21
15.092362
  0
LINE
  5
422
100
AcDbEntity
  8
0
100
AcDbLine
 62
7
  6
CONTINUOUS
 10
-56.4291236507
 20
2.86806196
 11
-55.8110175914
 21
3.4861680193
  0
LINE
  5
423
100
AcDbEntity
  8
0
100
AcDbLine
 62
7
  6
CONTINUOUS
 10
-56.3385449897
 20
2.748629907
 11
-55.7786160881
 21
3.3085588086
  0
LINE
  5
424
100
AcDbEntity
  8
0
100
AcDbLine
 62
7
  6
CONTINUOUS
 10
-45.1301436722
 20
13.9570312245
 11
-44.1112868727
 21
14.975888024
  0
LINE
  5
425
100
AcDbEntity
  8
0
100
AcDbLine
 62
7
  6
CONTINUOUS
 10
-56.2479663287
 20
2.629197854
 11
-55.7270049388
 21
3.1501592439
  0
LINE
  5
426
100
AcDbEntity
  8
0
100
AcDbLine
 62
7
  6
CONTINUOUS
 10
-56.1573876677
 20
2.509765801
 11
-55.6360347833
 21
3.0311186854
  0
LINE
  5
427
100
AcDbEntity
  8
0
100
AcDbLine
 62
7
  6
CONTINUOUS
 10
-45.1301436722
 20
13.5370097965
 11
-44.1112868727
 21
14.555866596
  0
LINE
  5
428
100
AcDbEntity
  8
0
100
AcDbLine
 62
7
  6
CONTINUOUS
 10
-56.0668090067
 20
2.390333748
 11
-55.5450646277
 21
2.9120781269
  0
LINE
  5
429
100
AcDbEntity
  8
0
100
AcDbLine
 62
7
  6
CONTINUOUS
 10
-55.9762303457
 20
2.270901695
 11
-55.4540944722
 21
2.7930375684
  0
LINE
  5
42A
100
AcDbEntity
  8
0
100
AcDbLine
 62
7
  6
CONTINUOUS
 10
-45.1301436722
 20
13.1169883684
 11
-44.1112868727
 21
14.135845168
  0
LINE
  5
42B
100
AcDbEntity
  8
0
100
AcDbLine
 62
7
  6
CONTINUOUS
 10
-55.8856516847
 20
2.151469642
 11
-55.3631243167
 21
2.67399701
  0
LINE
  5
42C
100
AcDbEntity
  8
0
100
AcDbLine
 62
7
  6
CONTINUOUS
 10
-54.4861726287
 20
3.5509486979
 11
-54.4195653266
 21
3.617556
  0
LINE
  5
42D
100
AcDbEntity
  8
0
100
AcDbLine
 62
250
  6
CONTINUOUS
 10
-51.1865341141
 20
10.49987
 11
-46.2100061788
 21
15.231556
  0
LINE
  5
42E
100
AcDbEntity
  8
0
100
AcDbLine
 62
250
  6
CONTINUOUS
 10
-54.6112868727
 20
7.072295
 11
-56.0553808871
 21
6.13195
  0
LINE
  5
42F
100
AcDbEntity
  8
0
100
AcDbLine
 62
250
  6
CONTINUOUS
 10
-56.4107496136
 20
6.154629
 11
-54.9515072146
 21
7.102549
  0
LINE
  5
430
100
AcDbEntity
  8
0
100
AcDbLine
 62
250
  6
CONTINUOUS
 10
-52.5398583204
 20
10.9
 11
-52.3255725965
 21
11.0071428619
  0
LINE
  5
431
100
AcDbEntity
  8
0
100
AcDbLine
 62
250
  6
CONTINUOUS
 10
-54.6112818742
 20
9.926008
 11
-56.4107436154
 21
9.290716
  0
LINE
  5
432
100
AcDbEntity
  8
0
100
AcDbLine
 62
250
  6
CONTINUOUS
 10
-56.4107436154
 20
9.550344
 11
-54.8507019278
 21
10.064669
  0
LINE
  5
433
100
AcDbEntity
  8
RACCORDO
100
AcDbLine
 62
250
  6
CONTINUOUS
 10
-59.8243820747
 20
-16.1820409942
 11
-59.8207059384
 21
-16.1814975963
  0
LINE
  5
434
100
AcDbEntity
  8
RACCORDO
100
AcDbLine
 62
250
  6
CONTINUOUS
 10
-59.8207059384
 20
-16.1814975963
 11
-59.7918829958
 21
-16.1777853924
  0
LINE
  5
435
100
AcDbEntity
  8
RACCORDO
100
AcDbLine
 62
250
  6
CONTINUOUS
 10
-59.7918829958
 20
-16.1777853924
 11
-59.702842976
 21
-16.1666569774
  0
LINE
  5
436
100
AcDbEntity
  8
RACCORDO
100
AcDbLine
 62
250
  6
CONTINUOUS
 10
-59.702842976
 20
-16.1666569774
 11
-59.5806086384
 21
-16.1515736583
  0
LINE
  5
437
100
AcDbEntity
  8
0
100
AcDbLine
 62
250
  6
CONTINUOUS
 10
-40.6112868727
 20
-15.2571428239
 11
-41.9112868727
 21
-15.2571428239
  0
LINE
  5
438
100
AcDbEntity
  8
0
100
AcDbLine
 62
250
  6
CONTINUOUS
 10
-38.7970011667
 20
-14.8857142746
 11
-39.9112868727
 21
-14.8857142746
  0
LINE
  5
439
100
AcDbEntity
  8
0
100
AcDbLine
 62
250
  6
CONTINUOUS
 10
-53.3726255237
 20
-14.704976
 11
-54.8720286866
 21
-14.704976
  0
LINE
  5
43A
100
AcDbEntity
  8
CURVE
100
AcDbLine
 62
7
420
4080451
  6
CONTINUOUS
 10
-48.1291650237
 20
-14.5714285523
 11
-49.6287081439
 21
-14.5714285523
  0
LINE
  5
43B
100
AcDbEntity
  8
0
100
AcDbLine
 62
250
  6
CONTINUOUS
 10
-52.0236275354
 20
-14.45785
 11
-51.8094277977
 21
-14.45785
  0
LINE
  5
43C
100
AcDbEntity
  8
CURVE
100
AcDbLine
 62
7
420
4080451
  6
CONTINUOUS
 10
-44.4874705725
 20
-14.309604
 11
-45.7726869937
 21
-14.309604
  0
LINE
  5
43D
100
AcDbEntity
  8
0
100
AcDbLine
 62
250
  6
CONTINUOUS
 10
-39.9112868727
 20
-14.2357143521
 11
-38.7970011667
 21
-14.2357143521
  0
LINE
  5
43E
100
AcDbEntity
  8
CURVE
100
AcDbLine
 62
7
420
4080451
  6
CONTINUOUS
 10
-48.343385479
 20
-14.1428571045
 11
-48.8789365838
 21
-14.1428571045
  0
LINE
  5
43F
100
AcDbEntity
  8
0
100
AcDbLine
 62
250
  6
CONTINUOUS
 10
-39.9112868727
 20
-13.8642856479
 11
-38.6112868727
 21
-13.8642856479
  0
LINE
  5
440
100
AcDbEntity
  8
CURVE
100
AcDbLine
 62
7
420
4080451
  6
CONTINUOUS
 10
-45.9464330569
 20
-13.800346
 11
-44.3137245094
 21
-13.800346
  0
LINE
  5
441
100
AcDbEntity
  8
0
100
AcDbLine
 62
250
  6
CONTINUOUS
 10
-41.9112868727
 20
-13.7714285493
 11
-40.6112868727
 21
-13.7714285493
  0
LINE
  5
442
100
AcDbEntity
  8
CURVE
100
AcDbLine
 62
7
420
4080451
  6
CONTINUOUS
 10
-48.7718263673
 20
-13.3928571939
 11
-48.343385479
 21
-13.3928571939
  0
LINE
  5
443
100
AcDbEntity
  8
0
100
AcDbLine
 62
250
  6
CONTINUOUS
 10
-39.9112868727
 20
-13.2142858028
 11
-38.6112868727
 21
-13.2142858028
  0
LINE
  5
444
100
AcDbEntity
  8
0
100
AcDbLine
 62
250
  6
CONTINUOUS
 10
-40.7970011667
 20
-13.1214287043
 11
-41.725572598
 21
-13.1214287043
  0
LINE
  5
445
100
AcDbEntity
  8
ASSI
100
AcDbLine
 62
250
  6
CONTINUOUS
 10
-34.9112868727
 20
-13.1
 11
-36.9112868727
 21
-13.1
  0
LINE
  5
446
100
AcDbEntity
  8
CURVE
100
AcDbLine
 62
7
420
4080451
  6
CONTINUOUS
 10
-45.1849010799
 20
-12.871654
 11
-45.76341082
 21
-12.871654
  0
LINE
  5
447
100
AcDbEntity
  8
CURVE
100
AcDbLine
 62
7
420
4080451
  6
CONTINUOUS
 10
-49.6287081439
 20
-12.5357142091
 11
-48.1291650237
 21
-12.9642857909
  0
LINE
  5
448
100
AcDbEntity
  8
0
100
AcDbLine
 62
250
  6
CONTINUOUS
 10
-41.9112868727
 20
-14.5142856479
 11
-40.6112868727
 21
-14.8857142746
  0
LINE
  5
449
100
AcDbEntity
  8
CURVE
100
AcDbLine
 62
7
420
4080451
  6
CONTINUOUS
 10
-46.1543067221
 20
-11.713445
 11
-44.1113761607
 21
-12.418693
  0
LINE
  5
44A
100
AcDbEntity
  8
0
100
AcDbLine
 62
250
  6
CONTINUOUS
 10
-41.9112868727
 20
-15.2571428239
 11
-41.1684297353
 21
-15.628571412
  0
LINE
  5
44B
100
AcDbEntity
  8
CURVE
100
AcDbLine
 62
7
420
4080451
  6
CONTINUOUS
 10
-49.6287081439
 20
-10.8214284182
 11
-48.1291650237
 21
-11.6785715818
  0
LINE
  5
44C
100
AcDbEntity
  8
CURVE
100
AcDbLine
 62
7
420
4080451
  6
CONTINUOUS
 10
-49.3073774498
 20
-9.2142856121
 11
-49.6287081439
 21
-9.0
  0
LINE
  5
44D
100
AcDbEntity
  8
0
100
AcDbLine
 62
250
  6
CONTINUOUS
 10
-55.3186496104
 20
-5.779321
 11
-55.4257489795
 21
-5.659332
  0
LWPOLYLINE
  5
44E
100
AcDbEntity
  8
RACCORDO
100
AcDbPolyline
 62
250
  6
CONTINUOUS
 90
3
 70
0
 10
-58.899473065
 20
22.358692912
 10
-58.8988199907
 20
22.3557838714
 10
-58.8987872097
 20
22.3550503174
  0
LINE
  5
44F
100
AcDbEntity
  8
ASSI
100
AcDbLine
 62
7
  6
CONTINUOUS
 10
-54.1087514781
 20
21.3234949512
 11
-54.1112868727
 21
21.3535317195
  0
LINE
  5
450
100
AcDbEntity
  8
0
100
AcDbLine
 62
250
  6
CONTINUOUS
 10
-50.7349963744
 20
12.7817955056
 11
-50.7330330623
 21
12.7402628958
  0
LWPOLYLINE
  5
451
100
AcDbEntity
  8
0
100
AcDbPolyline
 62
250
  6
CONTINUOUS
 90
46
 70
0
 10
-52.314617483
 20
4.0175587662
 10
-52.312403686
 20
3.9614113224
 10
-52.311990853
 20
3.9051104494
 10
-52.3133684829
 20
3.8487220134
 10
-52.3165260746
 20
3.7923118806
 10
-52.3214531273
 20
3.7359459173
 10
-52.3281391398
 20
3.6796899895
 10
-52.3365736111
 20
3.6236099634
 10
-52.3467460403
 20
3.5677717053
 10
-52.3586459264
 20
3.5122410813
 10
-52.3722627682
 20
3.4570839577
 10
-52.3875860649
 20
3.4023662005
 10
-52.4046053154
 20
3.348153676
 10
-52.4233100187
 20
3.2945122503
 10
-52.4436896737
 20
3.2415077897
 10
-52.4657337796
 20
3.1892061604
 10
-52.4894282688
 20
3.1376692078
 10
-52.5147448084
 20
3.0869426952
 10
-52.5416514992
 20
3.037068365
 10
-52.5701164418
 20
2.9880879597
 10
-52.6001077368
 20
2.9400432218
 10
-52.6315934851
 20
2.8929758938
 10
-52.6645417871
 20
2.8469277183
 10
-52.6989207437
 20
2.8019404377
 10
-52.7346984555
 20
2.7580557945
 10
-52.7718430232
 20
2.7153155312
 10
-52.8103225475
 20
2.6737613904
 10
-52.850105129
 20
2.6334351145
 10
-52.8911588684
 20
2.594378446
 10
-52.9334518664
 20
2.5566331275
 10
-52.9769522237
 20
2.5202409013
 10
-53.0216232268
 20
2.4852411225
 10
-53.067408905
 20
2.4516635948
 10
-53.1142484737
 20
2.4195357346
 10
-53.162081148
 20
2.3888849582
 10
-53.2108461432
 20
2.3597386818
 10
-53.2604826744
 20
2.3321243217
 10
-53.310929957
 20
2.3060692942
 10
-53.3621272062
 20
2.2816010155
 10
-53.4140136371
 20
2.258746902
 10
-53.466528465
 20
2.2375343699
 10
-53.5196109052
 20
2.2179908355
 10
-53.5732001728
 20
2.200143715
 10
-53.6272354831
 20
2.1840204247
 10
-53.6816560513
 20
2.169648381
 10
-53.7364010926
 20
2.157055
  0
LWPOLYLINE
  5
452
100
AcDbEntity
  8
0
100
AcDbPolyline
 62
250
  6
CONTINUOUS
 90
3
 70
0
 10
-50.7373938628
 20
12.8430726704
 10
-50.7366495704
 20
12.82280244
 10
-50.7349963744
 20
12.7817955056
  0
LWPOLYLINE
  5
453
100
AcDbEntity
  8
0
100
AcDbPolyline
 62
250
  6
CONTINUOUS
 90
79
 70
0
 10
-52.3146142754
 20
-0.3675541109
 10
-52.312146524
 20
-0.4395389362
 10
-52.3127089975
 20
-0.5118160169
 10
-52.3162700607
 20
-0.584246139
 10
-52.3227980783
 20
-0.6566900886
 10
-52.332261415
 20
-0.7290086517
 10
-52.3446284353
 20
-0.8010626142
 10
-52.3598675041
 20
-0.8727127621
 10
-52.377946986
 20
-0.9438198814
 10
-52.3988352457
 20
-1.0142447581
 10
-52.4225006478
 20
-1.0838481782
 10
-52.4489115571
 20
-1.1524909277
 10
-52.4780363383
 20
-1.2200337925
 10
-52.5098433559
 20
-1.2863375587
 10
-52.5443009748
 20
-1.3512630123
 10
-52.5813775596
 20
-1.4146709391
 10
-52.621041475
 20
-1.4764221253
 10
-52.6632499794
 20
-1.5363889879
 10
-52.7079159061
 20
-1.5944904681
 10
-52.7549409824
 20
-1.6506571381
 10
-52.8042269352
 20
-1.7048195701
 10
-52.8556754917
 20
-1.7569083366
 10
-52.909188379
 20
-1.8068540097
 10
-52.9646673242
 20
-1.8545871616
 10
-53.0220140544
 20
-1.9000383647
 10
-53.0811302968
 20
-1.9431381912
 10
-53.1419177783
 20
-1.9838172134
 10
-53.2042782262
 20
-2.0220060035
 10
-53.2681133676
 20
-2.0576351338
 10
-53.3333249294
 20
-2.0906351765
 10
-53.3998146389
 20
-2.1209367039
 10
-53.4674842232
 20
-2.1484702883
 10
-53.5362354093
 20
-2.173166502
 10
-53.6059658172
 20
-2.1949674884
 10
-53.6765566379
 20
-2.2138616763
 10
-53.7478849553
 20
-2.2298490658
 10
-53.8198278532
 20
-2.2429296567
 10
-53.8922624156
 20
-2.2531034491
 10
-53.9650657263
 20
-2.2603704431
 10
-54.0381148692
 20
-2.2647306385
 10
-54.1112869282
 20
-2.2661840355
 10
-54.184458987
 20
-2.264730634
 10
-54.2575081296
 20
-2.260370434
 10
-54.3303114399
 20
-2.2531034356
 10
-54.4027460016
 20
-2.2429296387
 10
-54.4746888988
 20
-2.2298490433
 10
-54.5460172152
 20
-2.2138616495
 10
-54.6166080347
 20
-2.1949674572
 10
-54.6863384413
 20
-2.1731664665
 10
-54.7550896259
 20
-2.1484702486
 10
-54.8227592084
 20
-2.12093666
 10
-54.889248916
 20
-2.0906351285
 10
-54.9544604759
 20
-2.0576350817
 10
-55.018295615
 20
-2.0220059475
 10
-55.0806560605
 20
-1.9838171535
 10
-55.1414435396
 20
-1.9431381276
 10
-55.2005597793
 20
-1.9000382975
 10
-55.2579065067
 20
-1.8545870908
 10
-55.313385449
 20
-1.8068539354
 10
-55.3668983332
 20
-1.7569082591
 10
-55.4183468865
 20
-1.7048194894
 10
-55.467632836
 20
-1.6506570543
 10
-55.5146579087
 20
-1.5944903814
 10
-55.5593238319
 20
-1.5363888985
 10
-55.6015323326
 20
-1.4764220333
 10
-55.6411962441
 20
-1.4146708447
 10
-55.678272825
 20
-1.3512629155
 10
-55.7127304399
 20
-1.2863374598
 10
-55.7445374535
 20
-1.2200336917
 10
-55.7736622305
 20
-1.152490825
 10
-55.8000731355
 20
-1.0838480739
 10
-55.8237385334
 20
-1.0142446524
 10
-55.8446267887
 20
-0.9438197744
 10
-55.8627062662
 20
-0.8727126539
 10
-55.8779453306
 20
-0.8010625051
 10
-55.8903123465
 20
-0.7290085418
 10
-55.8997756786
 20
-0.6566899782
 10
-55.9063036918
 20
-0.5842460282
 10
-55.9098647505
 20
-0.5118159058
  0
LWPOLYLINE
  5
454
100
AcDbEntity
  8
0
100
AcDbPolyline
 62
250
  6
CONTINUOUS
 90
63
 70
0
 10
-52.6112875891
 20
7.9999999992
 10
-52.6107006994
 20
7.9508546671
 10
-52.6089540893
 20
7.9028226846
 10
-52.6060688471
 20
7.8556162259
 10
-52.6020660614
 20
7.8089474647
 10
-52.5969668206
 20
7.7625285752
 10
-52.5890799169
 20
7.7045422744
 10
-52.5795354031
 20
7.6466809953
 10
-52.5683559296
 20
7.5891290636
 10
-52.5555641467
 20
7.532070805
 10
-52.5411831452
 20
7.4756610146
 10
-52.5252377776
 20
7.4199363662
 10
-52.507753337
 20
7.3649040029
 10
-52.4887551164
 20
7.3105710681
 10
-52.4682566558
 20
7.2569342085
 10
-52.4462244835
 20
7.2039480855
 10
-52.4226133744
 20
7.1515568643
 10
-52.3973781036
 20
7.0997047098
 10
-52.366514004
 20
7.041069233
 10
-52.3335399344
 20
6.9831956
 10
-52.2985263482
 20
6.9262144946
 10
-52.2615436985
 20
6.870256601
 10
-52.2226624386
 20
6.8154526028
 10
-52.1819530218
 20
6.7619331842
 10
-52.1394859012
 20
6.7098290289
 10
-52.0953299116
 20
6.6592550013
 10
-52.0495474129
 20
6.6102626875
 10
-52.0021991466
 20
6.5628878538
 10
-51.9533458539
 20
6.5171662667
 10
-51.9030482763
 20
6.4731336925
 10
-51.8513671553
 20
6.4308258978
 10
-51.7983632321
 20
6.390278649
 10
-51.7440935942
 20
6.3515285073
 10
-51.6886007133
 20
6.3146152134
 10
-51.6319234073
 20
6.279579303
 10
-51.5741004939
 20
6.2464613117
 10
-51.5151707908
 20
6.2153017751
 10
-51.4551731159
 20
6.1861412288
 10
-51.394146287
 20
6.1590202084
 10
-51.3321459547
 20
6.1339755293
 10
-51.2692951021
 20
6.1110291268
 10
-51.2057335452
 20
6.090199216
 10
-51.1416010998
 20
6.0715040119
 10
-51.0770375819
 20
6.0549617295
 10
-51.0121828075
 20
6.0405905841
 10
-50.9471765926
 20
6.0284087905
 10
-50.890256575
 20
6.0195546397
 10
-50.8332697341
 20
6.0123707377
 10
-50.7761581467
 20
6.0068371652
 10
-50.7188638895
 20
6.0029340025
 10
-50.6613403858
 20
6.0006501777
 10
-50.6035864457
 20
6.0000100086
 10
-50.5456122256
 20
6.0010466607
 10
-50.4874278821
 20
6.0037932997
 10
-50.4290710157
 20
6.0082722888
 10
-50.3706890033
 20
6.0144627831
 10
-50.3124566661
 20
6.0223331355
 10
-50.2545488249
 20
6.0318516989
 10
-50.2085163518
 20
6.0406512919
 10
-50.1625490471
 20
6.0505850657
 10
-50.1163925163
 20
6.0617526
 10
-50.069792365
 20
6.0742534746
 10
-50.0224941986
 20
6.0881872694
  0
LWPOLYLINE
  5
455
100
AcDbEntity
  8
ASSI
100
AcDbPolyline
 62
250
  6
CONTINUOUS
 90
3
 70
0
 10
-50.1399058314
 20
-21.074703037
 10
-50.1402931028
 20
-21.0326838421
 10
-50.140432075
 20
-21.0077183942
  0
LINE
  5
456
100
AcDbEntity
  8
ASSI
100
AcDbLine
 62
7
  6
CONTINUOUS
 10
-52.5112868727
 20
22.2
 11
-52.5112868727
 21
21.1720718961
  0
LINE
  5
457
100
AcDbEntity
  8
ASSI
100
AcDbLine
 62
7
  6
CONTINUOUS
 10
-52.5112868727
 20
-22.2
 11
-52.5112868727
 21
-21.1720718961
  0
LINE
  5
458
100
AcDbEntity
  8
0
100
AcDbLine
 62
250
  6
CONTINUOUS
 10
-52.2378292726
 20
-15.052438
 11
-52.2378292726
 21
-14.695685
  0
LINE
  5
459
100
AcDbEntity
  8
0
100
AcDbLine
 62
250
  6
CONTINUOUS
 10
-52.1112868727
 20
15.8285715818
 11
-52.1112868727
 21
15.2928571939
  0
LINE
  5
45A
100
AcDbEntity
  8
0
100
AcDbLine
 62
250
  6
CONTINUOUS
 10
-52.1112868727
 20
11.2214285746
 11
-52.1112868727
 21
11.3285714477
  0
LINE
  5
45B
100
AcDbEntity
  8
0
100
AcDbLine
 62
250
  6
CONTINUOUS
 10
-52.1112868727
 20
13.578571403
 11
-52.1112868727
 21
13.6857142091
  0
LINE
  5
45C
100
AcDbEntity
  8
0
100
AcDbLine
 62
250
  6
CONTINUOUS
 10
-51.3411874608
 20
-7.713672
 11
-51.3411874608
 21
-9.292472
  0
LINE
  5
45D
100
AcDbEntity
  8
0
100
AcDbLine
 62
250
  6
CONTINUOUS
 10
-51.3411874608
 20
-14.028872
 11
-51.3411874608
 21
-11.660672
  0
LINE
  5
45E
100
AcDbEntity
  8
0
100
AcDbLine
 62
250
  6
CONTINUOUS
 10
-50.7384261097
 20
-15.290272
 11
-50.7384261097
 21
-14.45785
  0
LINE
  5
45F
100
AcDbEntity
  8
0
100
AcDbLine
 62
250
  6
CONTINUOUS
 10
-50.6966067438
 20
12.218216
 11
-50.6966067438
 21
12.31759
  0
LINE
  5
460
100
AcDbEntity
  8
0
100
AcDbLine
 62
250
  6
CONTINUOUS
 10
-50.302048846
 20
11.690027
 11
-50.302048846
 21
14.127934
  0
LWPOLYLINE
  5
461
100
AcDbEntity
  8
0
100
AcDbPolyline
 62
250
  6
CONTINUOUS
 90
9
 70
0
 10
-51.5621921284
 20
3.9165278558
 10
-51.5621901014
 20
3.9291786139
 10
-51.5622539635
 20
3.9418237587
 10
-51.5623838049
 20
3.9544629177
 10
-51.5625797154
 20
3.9670957183
 10
-51.5628417851
 20
3.9797217881
 10
-51.5631701038
 20
3.9923407545
 10
-51.5635647615
 20
4.004952245
 10
-51.5640258482
 20
4.0175558871
  0
LWPOLYLINE
  5
462
100
AcDbEntity
  8
0
100
AcDbPolyline
 62
250
  6
CONTINUOUS
 90
9
 70
0
 10
-51.5621922458
 20
-0.4685821084
 10
-51.562190219
 20
-0.4559313554
 10
-51.5622540813
 20
-0.4432862157
 10
-51.5623839228
 20
-0.4306470618
 10
-51.5625798333
 20
-0.4180142662
 10
-51.5628419029
 20
-0.4053882014
 10
-51.5631702216
 20
-0.3927692401
 10
-51.5635648792
 20
-0.3801577546
 10
-51.5640259657
 20
-0.3675541176
  0
LINE
  5
463
100
AcDbEntity
  8
0
100
AcDbLine
 62
250
  6
CONTINUOUS
 10
-50.7895665834
 20
12.843073
 11
-50.7890086684
 21
13.416076
  0
LINE
  5
464
100
AcDbEntity
  8
0
100
AcDbLine
 62
250
  6
CONTINUOUS
 10
-50.5715477937
 20
13.416076
 11
-50.5721057088
 21
12.843073
  0
LINE
  5
465
100
AcDbEntity
  8
ASSI
100
AcDbLine
 62
250
  6
CONTINUOUS
 10
-50.1399068953
 20
21.0747030555
 11
-50.1398479215
 21
21.1055350086
  0
LINE
  5
466
100
AcDbEntity
  8
ASSI
100
AcDbLine
 62
250
  6
CONTINUOUS
 10
-50.1404320747
 20
21.0077183981
 11
-50.1399068953
 21
21.0747030555
  0
LWPOLYLINE
  5
467
100
AcDbEntity
  8
0
100
AcDbPolyline
 62
250
  6
CONTINUOUS
 90
88
 70
0
 10
-52.1112868715
 20
7.9999999992
 10
-52.1108233838
 20
8.0377634452
 10
-52.1094460472
 20
8.0741444669
 10
-52.1071745513
 20
8.1100001502
 10
-52.1021323892
 20
8.1640495959
 10
-52.0951804771
 20
8.2179944684
 10
-52.0863747829
 20
8.2711535426
 10
-52.075763922
 20
8.3235247142
 10
-52.0633932965
 20
8.375231853
 10
-52.0493028103
 20
8.4262236065
 10
-52.0335282527
 20
8.4764171053
 10
-52.0160944548
 20
8.5257786361
 10
-51.9970235082
 20
8.5742867745
 10
-51.9763375042
 20
8.621920096
 10
-51.9540653573
 20
8.6686516048
 10
-51.9302632726
 20
8.7144320184
 10
-51.9049684903
 20
8.759241964
 10
-51.8781150997
 20
8.8032039937
 10
-51.8496276866
 20
8.8464378564
 10
-51.8194959748
 20
8.8889101651
 10
-51.7877259728
 20
8.9305492486
 10
-51.7543236891
 20
8.9712834355
 10
-51.7193099934
 20
9.0110330877
 10
-51.6827652008
 20
9.0496866992
 10
-51.6447844876
 20
9.087124797
 10
-51.60546303
 20
9.1232279082
 10
-51.5648984742
 20
9.1578865705
 10
-51.5231983455
 20
9.1910313643
 10
-51.480472639
 20
9.2226028807
 10
-51.4368313497
 20
9.2525417109
 10
-51.3924012387
 20
9.2807853994
 10
-51.3473761299
 20
9.3072593052
 10
-51.3018918552
 20
9.3319226252
 10
-51.255785214
 20
9.3548820946
 10
-51.2088550588
 20
9.3762530726
 10
-51.1610474858
 20
9.3960378772
 10
-51.112345402
 20
9.4142105662
 10
-51.0627317146
 20
9.4307451972
 10
-51.0122273488
 20
9.4456120214
 10
-50.9610053012
 20
9.458766064
 10
-50.9092765869
 20
9.4701585439
 10
-50.8572522206
 20
9.4797406798
 10
-50.7976589522
 20
9.4884264708
 10
-50.7379970227
 20
9.4946958172
 10
-50.6783083175
 20
9.4985605194
 10
-50.6186347218
 20
9.500032378
 10
-50.559018121
 20
9.4991231935
 10
-50.4995004006
 20
9.4958447665
 10
-50.4401234458
 20
9.4902088974
 10
-50.3809403931
 20
9.482227076
 10
-50.3220493833
 20
9.4719095487
 10
-50.2635598082
 20
9.459266251
 10
-50.2055810596
 20
9.4443071186
 10
-50.1482225295
 20
9.427042087
 10
-50.0915936096
 20
9.4074810919
 10
-50.0358036919
 20
9.3856340689
 10
-49.9809580996
 20
9.3615215221
 10
-49.9271458822
 20
9.3352062298
 10
-49.8744520205
 20
9.3067615391
 10
-49.8229614953
 20
9.2762607967
 10
-49.7727592874
 20
9.2437773498
 10
-49.7239303778
 20
9.209384545
 10
-49.6765597473
 20
9.1731557295
 10
-49.6307239117
 20
9.1351550233
 10
-49.5864655269
 20
9.0954096388
 10
-49.543818784
 20
9.0539375619
 10
-49.5028178736
 20
9.0107567783
 10
-49.4634969869
 20
8.9658852736
 10
-49.4258903146
 20
8.9193410336
 10
-49.3900320478
 20
8.871142044
 10
-49.360133276
 20
8.8276539977
 10
-49.3317187753
 20
8.7831009068
 10
-49.3049080167
 20
8.7376708739
 10
-49.2798204709
 20
8.6915520017
 10
-49.2565476482
 20
8.6448947168
 10
-49.2350692165
 20
8.5976987407
 10
-49.2153368829
 20
8.5499261188
 10
-49.1973023547
 20
8.5015388966
 10
-49.1809276784
 20
8.4525007119
 10
-49.1662162568
 20
8.4027815724
 10
-49.153181832
 20
8.3523530781
 10
-49.1418381462
 20
8.301186829
 10
-49.1322055677
 20
8.2492869549
 10
-49.1243309709
 20
8.1967877031
 10
-49.1182678565
 20
8.1438558509
 10
-49.114069725
 20
8.0906581752
 10
-49.111778078
 20
8.0373563585
 10
-49.1113864195
 20
7.984091705
  0
LWPOLYLINE
  5
468
100
AcDbEntity
  8
ASSI
100
AcDbPolyline
 62
7
  6
CONTINUOUS
 90
9
 70
0
 10
-54.1112868727
 20
-21.3535312945
 10
-54.1087465266
 20
-21.3234701924
 10
-54.1023034069
 20
-21.2931267962
 10
-54.0919575134
 20
-21.2625004002
 10
-54.0771169635
 20
-21.2315169285
 10
-54.0583736399
 20
-21.2002488109
 10
-54.0375031904
 20
-21.1689161666
 10
-54.0150974974
 20
-21.1375930839
 10
-53.9905646785
 20
-21.1062064348
  0
LWPOLYLINE
  5
469
100
AcDbEntity
  8
0
100
AcDbPolyline
 62
250
  6
CONTINUOUS
 90
35
 70
0
 10
-49.0831711015
 20
6.7096376218
 10
-49.0580447216
 20
6.7399590767
 10
-49.033664201
 20
6.7705829817
 10
-49.0100011705
 20
6.8015334696
 10
-48.9870272606
 20
6.8328346727
 10
-48.9647141017
 20
6.8645107237
 10
-48.9430333247
 20
6.8965857552
 10
-48.9178218006
 20
6.9356278426
 10
-48.8934946835
 20
6.9752694139
 10
-48.8700666027
 20
7.0155006704
 10
-48.8475521875
 20
7.0563118133
 10
-48.8259660672
 20
7.0976930439
 10
-48.8086981604
 20
7.1326035512
 10
-48.7920986779
 20
7.1678838829
 10
-48.7761812356
 20
7.2035147741
 10
-48.7609594492
 20
7.2394769597
 10
-48.7464469348
 20
7.2757511747
 10
-48.7326573081
 20
7.3123181541
 10
-48.7196022195
 20
7.3491579071
 10
-48.7072854571
 20
7.3862475408
 10
-48.6957088435
 20
7.4235634363
 10
-48.6848742012
 20
7.4610819749
 10
-48.6747833528
 20
7.4987795378
 10
-48.665438121
 20
7.5366325062
 10
-48.6552094782
 20
7.5822318507
 10
-48.64605343
 20
7.628003568
 10
-48.6379662588
 20
7.6739302583
 10
-48.630944247
 20
7.7199945214
 10
-48.6249836767
 20
7.7661789574
 10
-48.6208261341
 20
7.8047531276
 10
-48.6174097178
 20
7.843435967
 10
-48.6147410236
 20
7.8822647747
 10
-48.6128266473
 20
7.9212768499
 10
-48.6116731846
 20
7.9605094917
 10
-48.6112872313
 20
7.9999999992
  0
LINE
  5
46A
100
AcDbEntity
  8
0
100
AcDbLine
 62
7
  6
CONTINUOUS
 10
-55.7950730237
 20
2.0320375889
 11
-55.2721541611
 21
2.5549564515
  0
LINE
  5
46B
100
AcDbEntity
  8
0
100
AcDbLine
 62
7
  6
CONTINUOUS
 10
-54.4861725531
 20
3.3409380595
 11
-54.2095546126
 21
3.617556
  0
LINE
  5
46C
100
AcDbEntity
  8
0
100
AcDbLine
 62
7
  6
CONTINUOUS
 10
-45.1301436722
 20
12.6969669404
 11
-44.1112868727
 21
13.71582374
  0
LINE
  5
46D
100
AcDbEntity
  8
0
100
AcDbLine
 62
7
  6
CONTINUOUS
 10
-55.6886122568
 20
1.9284876418
 11
-55.1449879306
 21
2.472111968
  0
LINE
  5
46E
100
AcDbEntity
  8
0
100
AcDbLine
 62
7
  6
CONTINUOUS
 10
-54.4861724774
 20
3.1309274212
 11
-53.9995438986
 21
3.617556
  0
LINE
  5
46F
100
AcDbEntity
  8
0
100
AcDbLine
 62
7
  6
CONTINUOUS
 10
-55.5481473108
 20
1.8589418738
 11
-55.002918121
 21
2.4041710636
  0
LINE
  5
470
100
AcDbEntity
  8
0
100
AcDbLine
 62
7
  6
CONTINUOUS
 10
-54.4861724018
 20
2.9209167828
 11
-53.7895331846
 21
3.617556
  0
LINE
  5
471
100
AcDbEntity
  8
0
100
AcDbLine
 62
7
  6
CONTINUOUS
 10
-45.1301436722
 20
12.2769455124
 11
-44.1112868727
 21
13.2958023119
  0
LINE
  5
472
100
AcDbEntity
  8
0
100
AcDbLine
 62
7
  6
CONTINUOUS
 10
-55.4076823648
 20
1.7893961058
 11
-54.8608483113
 21
2.3362301593
  0
LINE
  5
473
100
AcDbEntity
  8
0
100
AcDbLine
 62
7
  6
CONTINUOUS
 10
-54.4861723261
 20
2.7109061444
 11
-53.7364010926
 21
3.460677378
  0
LINE
  5
474
100
AcDbEntity
  8
0
100
AcDbLine
 62
7
  6
CONTINUOUS
 10
-55.2672174187
 20
1.7198503378
 11
-54.7187785016
 21
2.2682892549
  0
LINE
  5
475
100
AcDbEntity
  8
0
100
AcDbLine
 62
7
  6
CONTINUOUS
 10
-54.4861722505
 20
2.5008955061
 11
-53.7364010926
 21
3.250666664
  0
LINE
  5
476
100
AcDbEntity
  8
0
100
AcDbLine
 62
7
  6
CONTINUOUS
 10
-45.1301436722
 20
11.8569240844
 11
-44.1112868727
 21
12.8757808839
  0
LINE
  5
477
100
AcDbEntity
  8
0
100
AcDbLine
 62
7
  6
CONTINUOUS
 10
-55.1267524727
 20
1.6503045698
 11
-54.576708692
 21
2.2003483506
  0
LINE
  5
478
100
AcDbEntity
  8
0
100
AcDbLine
 62
7
  6
CONTINUOUS
 10
-54.4861721748
 20
2.2908848677
 11
-53.7364010926
 21
3.04065595
  0
LINE
  5
479
100
AcDbEntity
  8
0
100
AcDbLine
 62
7
  6
CONTINUOUS
 10
-54.9862875267
 20
1.5807588018
 11
-53.7364010926
 21
2.830645236
  0
LINE
  5
47A
100
AcDbEntity
  8
0
100
AcDbLine
 62
7
  6
CONTINUOUS
 10
-45.1301436722
 20
11.4369026563
 11
-44.1112868727
 21
12.4557594559
  0
LINE
  5
47B
100
AcDbEntity
  8
0
100
AcDbLine
 62
7
  6
CONTINUOUS
 10
-54.8458225807
 20
1.5112130338
 11
-53.7364010926
 21
2.6206345219
  0
LINE
  5
47C
100
AcDbEntity
  8
0
100
AcDbLine
 62
7
  6
CONTINUOUS
 10
-56.6351180691
 20
-0.4880931686
 11
-56.5145789005
 21
-0.367554
  0
LINE
  5
47D
100
AcDbEntity
  8
0
100
AcDbLine
 62
7
  6
CONTINUOUS
 10
-54.7053576347
 20
1.4416672658
 11
-53.7364010926
 21
2.4106238079
  0
LINE
  5
47E
100
AcDbEntity
  8
0
100
AcDbLine
 62
7
  6
CONTINUOUS
 10
-52.3559315498
 20
3.7910933508
 11
-52.1294668167
 21
4.0175580838
  0
LINE
  5
47F
100
AcDbEntity
  8
0
100
AcDbLine
 62
7
  6
CONTINUOUS
 10
-45.1301436722
 20
11.0168812283
 11
-44.1112868727
 21
12.0357380279
  0
LINE
  5
480
100
AcDbEntity
  8
0
100
AcDbLine
 62
7
  6
CONTINUOUS
 10
-56.6009406174
 20
-0.6639264309
 11
-56.3045681865
 21
-0.367554
  0
LINE
  5
481
100
AcDbEntity
  8
0
100
AcDbLine
 62
7
  6
CONTINUOUS
 10
-54.5016728122
 20
1.4353413743
 11
-53.7364010926
 21
2.2006130939
  0
LINE
  5
482
100
AcDbEntity
  8
0
100
AcDbLine
 62
7
  6
CONTINUOUS
 10
-52.4027926541
 20
3.5342215324
 11
-51.9194568766
 21
4.0175573099
  0
LINE
  5
483
100
AcDbEntity
  8
0
100
AcDbLine
 62
7
  6
CONTINUOUS
 10
-56.5667631657
 20
-0.8397596932
 11
-56.0945574725
 21
-0.367554
  0
LINE
  5
484
100
AcDbEntity
  8
0
100
AcDbLine
 62
7
  6
CONTINUOUS
 10
-54.2916622265
 20
1.435341246
 11
-53.4173889596
 21
2.3096145129
  0
LINE
  5
485
100
AcDbEntity
  8
0
100
AcDbLine
 62
7
  6
CONTINUOUS
 10
-52.4496537584
 20
3.2773497141
 11
-51.7094469366
 21
4.0175565359
  0
LINE
  5
486
100
AcDbEntity
  8
0
100
AcDbLine
 62
7
  6
CONTINUOUS
 10
-44.8193654725
 20
10.907638
 11
-44.1112868727
 21
11.6157165998
  0
LINE
  5
487
100
AcDbEntity
  8
0
100
AcDbLine
 62
7
  6
CONTINUOUS
 10
-56.532585714
 20
-1.0155929555
 11
-55.9043896034
 21
-0.3873968449
  0
LINE
  5
488
100
AcDbEntity
  8
0
100
AcDbLine
 62
7
  6
CONTINUOUS
 10
-54.0816516408
 20
1.4353411177
 11
-53.0148986696
 21
2.5020940889
  0
LINE
  5
489
100
AcDbEntity
  8
0
100
AcDbLine
 62
7
  6
CONTINUOUS
 10
-52.9127865048
 20
2.6042062536
 11
-51.5796060202
 21
3.9373867383
  0
LINE
  5
48A
100
AcDbEntity
  8
0
100
AcDbLine
 62
7
  6
CONTINUOUS
 10
-56.4984082622
 20
-1.1914262178
 11
-55.8723681475
 21
-0.565386103
  0
LINE
  5
48B
100
AcDbEntity
  8
0
100
AcDbLine
 62
7
  6
CONTINUOUS
 10
-53.8716410551
 20
1.4353409894
 11
-51.6302763892
 21
3.6767056552
  0
LINE
  5
48C
100
AcDbEntity
  8
0
100
AcDbLine
 62
7
  6
CONTINUOUS
 10
-44.3993440445
 20
10.907638
 11
-44.1112868727
 21
11.1956951718
  0
LINE
  5
48D
100
AcDbEntity
  8
0
100
AcDbLine
 62
7
  6
CONTINUOUS
 10
-56.4642308105
 20
-1.36725948
 11
-55.8403466915
 21
-0.743375361
  0
LINE
  5
48E
100
AcDbEntity
  8
0
100
AcDbLine
 62
7
  6
CONTINUOUS
 10
-53.6616304694
 20
1.435340861
 11
-51.6809467583
 21
3.4160245722
  0
LINE
  5
48F
100
AcDbEntity
  8
0
100
AcDbLine
 62
7
  6
CONTINUOUS
 10
-56.4182917452
 20
-1.5313311288
 11
-55.8083252355
 21
-0.9213646191
  0
LINE
  5
490
100
AcDbEntity
  8
0
100
AcDbLine
 62
7
  6
CONTINUOUS
 10
-53.3747623377
 20
1.5121982787
 11
-51.7316171273
 21
3.1553434891
  0
LINE
  5
491
100
AcDbEntity
  8
0
100
AcDbLine
 62
7
  6
CONTINUOUS
 10
-56.3277129852
 20
-1.6507630828
 11
-55.7763037796
 21
-1.0993538772
  0
LINE
  5
492
100
AcDbEntity
  8
0
100
AcDbLine
 62
7
  6
CONTINUOUS
 10
-52.9588091987
 20
1.7181407037
 11
-51.7822874964
 21
2.894662406
  0
LINE
  5
493
100
AcDbEntity
  8
0
100
AcDbLine
 62
7
  6
CONTINUOUS
 10
-56.2371342252
 20
-1.7701950368
 11
-55.7133183886
 21
-1.2463792002
  0
LINE
  5
494
100
AcDbEntity
  8
0
100
AcDbLine
 62
7
  6
CONTINUOUS
 10
-52.5428560598
 20
1.9240831286
 11
-52.4042701776
 21
2.0626690109
  0
LWPOLYLINE
  5
495
100
AcDbEntity
  8
CURVE
100
AcDbPolyline
 62
7
420
4080451
  6
CONTINUOUS
 90
66
 70
0
 10
-45.76341082
 20
-12.871654
 10
-45.7697234995
 20
-12.8717167478
 10
-45.7758254126
 20
-12.871903501
 10
-45.7817992109
 20
-12.8722120241
 10
-45.7877275459
 20
-12.8726400814
 10
-45.7956618429
 20
-12.8733929852
 10
-45.8036044647
 20
-12.874349614
 10
-45.8114976237
 20
-12.8755051617
 10
-45.8192950157
 20
-12.87685488
 10
-45.8269962706
 20
-12.8783942518
 10
-45.8346125019
 20
-12.8801188181
 10
-45.8421522166
 20
-12.8820244374
 10
-45.8496134953
 20
-12.8841082394
 10
-45.8569918118
 20
-12.8863676715
 10
-45.8657302784
 20
-12.8893068321
 10
-45.8743371572
 20
-12.89248844
 10
-45.8828068433
 20
-12.8959057111
 10
-45.8911337317
 20
-12.8995518612
 10
-45.8993122176
 20
-12.9034201061
 10
-45.9073390143
 20
-12.9075061955
 10
-45.915220108
 20
-12.9118160144
 10
-45.9229638032
 20
-12.9163579817
 10
-45.9305784044
 20
-12.9211405163
 10
-45.9380722159
 20
-12.9261720371
 10
-45.9462627527
 20
-12.9320612541
 10
-45.9542996851
 20
-12.9382580701
 10
-45.9621682794
 20
-12.9447523001
 10
-45.9698538019
 20
-12.951533759
 10
-45.9773415186
 20
-12.9585922617
 10
-45.9846166958
 20
-12.9659176232
 10
-45.9916645998
 20
-12.9734996584
 10
-45.9984704967
 20
-12.9813281824
 10
-46.0050196527
 20
-12.98939301
 10
-46.0106819817
 20
-12.9968423234
 10
-46.016112352
 20
-13.0044514492
 10
-46.0212986991
 20
-13.0121970441
 10
-46.0262289589
 20
-13.0200557644
 10
-46.0308910671
 20
-13.0280042665
 10
-46.0352755217
 20
-13.0360219411
 10
-46.0393830699
 20
-13.044099115
 10
-46.0432170216
 20
-13.0522288494
 10
-46.0467806862
 20
-13.0604042051
 10
-46.0500773735
 20
-13.0686182434
 10
-46.0531108645
 20
-13.0768663371
 10
-46.0558868257
 20
-13.0851531066
 10
-46.0584113951
 20
-13.0934854841
 10
-46.0606907106
 20
-13.1018704019
 10
-46.06273091
 20
-13.1103147922
 10
-46.0645366998
 20
-13.1188235524
 10
-46.0661070597
 20
-13.1273934409
 10
-46.0674395379
 20
-13.1360191809
 10
-46.0685316827
 20
-13.1446954961
 10
-46.0693810422
 20
-13.1534171097
 10
-46.0699017763
 20
-13.1607157065
 10
-46.0702517733
 20
-13.1680377784
 10
-46.0704305999
 20
-13.1753790074
 10
-46.0704370366
 20
-13.1827376474
 10
-46.0702667204
 20
-13.19012224
 10
-46.0699145021
 20
-13.1975438983
 10
-46.0693774946
 20
-13.2050026477
 10
-46.0686618588
 20
-13.2124541607
 10
-46.0677760173
 20
-13.2198430216
 10
-46.0670013204
 20
-13.2253275337
 10
-46.0661170631
 20
-13.2308261606
 10
-46.0651046881
 20
-13.2364194302
 10
-46.0639456381
 20
-13.2421878705
  0
LINE
  5
496
100
AcDbEntity
  8
0
100
AcDbLine
 62
250
  6
CONTINUOUS
 10
-41.9112868727
 20
-12.5952380657
 11
-40.6112868727
 21
-12.5952380657
  0
LINE
  5
497
100
AcDbEntity
  8
0
100
AcDbLine
 62
250
  6
CONTINUOUS
 10
-39.9112868727
 20
-12.5952380657
 11
-38.6112868727
 21
-12.5952380657
  0
LINE
  5
498
100
AcDbEntity
  8
0
100
AcDbLine
 62
250
  6
CONTINUOUS
 10
-39.725572598
 20
-12.0071429014
 11
-39.5398583234
 21
-12.0071429014
  0
LINE
  5
499
100
AcDbEntity
  8
0
100
AcDbLine
 62
250
  6
CONTINUOUS
 10
-38.9827154607
 20
-11.3571429014
 11
-38.7970011667
 21
-11.3571429014
  0
LINE
  5
49A
100
AcDbEntity
  8
ASSI
100
AcDbLine
 62
250
  6
CONTINUOUS
 10
-34.9112868727
 20
-11.3
 11
-36.9112868727
 21
-11.3
  0
LINE
  5
49B
100
AcDbEntity
  8
0
100
AcDbLine
 62
250
  6
CONTINUOUS
 10
-39.9112868727
 20
-10.7380954742
 11
-38.6112868727
 21
-10.7380954742
  0
LINE
  5
49C
100
AcDbEntity
  8
CURVE
100
AcDbLine
 62
7
420
4080451
  6
CONTINUOUS
 10
-46.0517509687
 20
-10.684754
 11
-44.2084065976
 21
-10.684754
  0
LINE
  5
49D
100
AcDbEntity
  8
0
100
AcDbLine
 62
250
  6
CONTINUOUS
 10
-41.9112868727
 20
-10.3976193428
 11
-40.6112868727
 21
-10.3976193428
  0
LINE
  5
49E
100
AcDbEntity
  8
0
100
AcDbLine
 62
250
  6
CONTINUOUS
 10
-54.9005839864
 20
-10.279222
 11
-54.1032459188
 21
-10.279222
  0
LINE
  5
49F
100
AcDbEntity
  8
0
100
AcDbLine
 62
250
  6
CONTINUOUS
 10
-52.1385255284
 20
-10.279222
 11
-53.3140863594
 21
-10.279222
  0
LINE
  5
4A0
100
AcDbEntity
  8
CURVE
100
AcDbLine
 62
7
420
4080451
  6
CONTINUOUS
 10
-49.4144877109
 20
-6.8571431637
 11
-49.200267278
 21
-6.9642856121
  0
LINE
  5
4A1
100
AcDbEntity
  8
CURVE
100
AcDbLine
 62
7
420
4080451
  6
CONTINUOUS
 10
-49.200267278
 20
-8.4642856121
 11
-48.1291650237
 21
-9.2142856121
  0
LINE
  5
4A2
100
AcDbEntity
  8
CURVE
100
AcDbLine
 62
7
420
4080451
  6
CONTINUOUS
 10
-45.7138489205
 20
-9.564827
 11
-45.0402051658
 21
-10.055665
  0
LINE
  5
4A3
100
AcDbEntity
  8
CURVE
100
AcDbLine
 62
7
420
4080451
  6
CONTINUOUS
 10
-49.6287081439
 20
-6.6428568363
 11
-49.4144877109
 21
-6.8571431637
  0
LINE
  5
4A4
100
AcDbEntity
  8
CURVE
100
AcDbLine
 62
7
420
4080451
  6
CONTINUOUS
 10
-48.343385479
 20
-7.3928568363
 11
-48.1291650237
 21
-7.6071431637
  0
LINE
  5
4A5
100
AcDbEntity
  8
CURVE
100
AcDbLine
 62
7
420
4080451
  6
CONTINUOUS
 10
-48.1291650237
 20
-6.5357143879
 11
-48.343385479
 21
-6.3214287758
  0
LWPOLYLINE
  5
4A6
100
AcDbEntity
  8
0
100
AcDbPolyline
 62
250
  6
CONTINUOUS
 90
57
 70
0
 10
-50.7330330623
 20
12.7402628958
 10
-50.7319011247
 20
12.719335571
 10
-50.7306508725
 20
12.6983201575
 10
-50.7292687104
 20
12.6772310987
 10
-50.7277410434
 20
12.656082838
 10
-50.7260542761
 20
12.6348898187
 10
-50.7241948134
 20
12.6136664842
 10
-50.7221490601
 20
12.5924272779
 10
-50.7199034209
 20
12.5711866431
 10
-50.7174443008
 20
12.5499590234
 10
-50.7147581044
 20
12.528758862
 10
-50.7118312366
 20
12.5076006024
 10
-50.7086501022
 20
12.4864986878
 10
-50.7052011059
 20
12.4654675618
 10
-50.7014706527
 20
12.4445216677
 10
-50.6974451472
 20
12.4236754488
 10
-50.6931109944
 20
12.4029433486
 10
-50.6884545989
 20
12.3823398105
 10
-50.6834623656
 20
12.3618792778
 10
-50.6781206993
 20
12.3415761938
 10
-50.6724160048
 20
12.3214450021
 10
-50.6663346869
 20
12.3015001459
 10
-50.6598631503
 20
12.2817560688
 10
-50.6529878
 20
12.2622272139
 10
-50.6456950407
 20
12.2429280248
 10
-50.6379712772
 20
12.2238729448
 10
-50.6298029142
 20
12.2050764173
 10
-50.6211763567
 20
12.1865528856
 10
-50.6120780094
 20
12.1683167932
 10
-50.602494277
 20
12.1503825835
 10
-50.5924115645
 20
12.1327646998
 10
-50.5818162766
 20
12.1154775855
 10
-50.5706948181
 20
12.098535684
 10
-50.5590335937
 20
12.0819534387
 10
-50.5468190084
 20
12.065745293
 10
-50.5340374669
 20
12.0499256902
 10
-50.520675374
 20
12.0345090737
 10
-50.5067191346
 20
12.019509887
 10
-50.4921551533
 20
12.0049425733
 10
-50.476969835
 20
11.9908215762
 10
-50.4611495846
 20
11.9771613389
 10
-50.4523451175
 20
11.9699922941
 10
-50.4433583077
 20
11.963000939
 10
-50.4341956761
 20
11.956226575
 10
-50.4248637435
 20
11.9497085035
 10
-50.4153690308
 20
11.9434860258
 10
-50.405718059
 20
11.9375984433
 10
-50.395917349
 20
11.9320850574
 10
-50.3859734217
 20
11.9269851695
 10
-50.375892798
 20
11.9223380809
 10
-50.3656819988
 20
11.918183093
 10
-50.355347545
 20
11.9145595071
 10
-50.3448959576
 20
11.9115066247
 10
-50.3343337574
 20
11.9090637471
 10
-50.3236674654
 20
11.9072701757
 10
-50.3129036025
 20
11.9061652119
 10
-50.3020486895
 20
11.905788157
  0
LWPOLYLINE
  5
4A7
100
AcDbEntity
  8
ASSI
100
AcDbPolyline
 62
250
  6
CONTINUOUS
 90
5
 70
0
 10
-50.1398479215
 20
21.1055350086
 10
-50.1399068953
 20
21.1164837596
 10
-50.1400244694
 20
21.1243555302
 10
-50.1401998994
 20
21.1291004538
 10
-50.1404320747
 20
21.1306884717
  0
LINE
  5
4A8
100
AcDbEntity
  8
0
100
AcDbLine
 62
250
  6
CONTINUOUS
 10
-49.9391941189
 20
14.067887
 11
-49.9391941189
 21
14.417947
  0
LINE
  5
4A9
100
AcDbEntity
  8
CURVE
100
AcDbLine
 62
7
420
4080451
  6
CONTINUOUS
 10
-49.6287081439
 20
-6.5357143879
 11
-49.6287081439
 21
-6.6428568363
  0
LINE
  5
4AA
100
AcDbEntity
  8
CURVE
100
AcDbLine
 62
7
420
4080451
  6
CONTINUOUS
 10
-49.6287081439
 20
-7.3928568363
 11
-49.6287081439
 21
-8.0357143879
  0
LINE
  5
4AB
100
AcDbEntity
  8
CURVE
100
AcDbLine
 62
7
420
4080451
  6
CONTINUOUS
 10
-49.6287081439
 20
-9.0
 11
-49.6287081439
 21
-8.6785712242
  0
LINE
  5
4AC
100
AcDbEntity
  8
0
100
AcDbLine
 62
250
  6
CONTINUOUS
 10
-49.566786847
 20
14.417947
 11
-49.566786847
 21
14.067887
  0
LINE
  5
4AD
100
AcDbEntity
  8
0
100
AcDbLine
 62
250
  6
CONTINUOUS
 10
-49.4743849224
 20
12.78807
 11
-49.4743849224
 21
13.61141
  0
LINE
  5
4AE
100
AcDbEntity
  8
0
100
AcDbLine
 62
250
  6
CONTINUOUS
 10
-49.2587817648
 20
13.61141
 11
-49.2587817648
 21
12.78807
  0
LINE
  5
4AF
100
AcDbEntity
  8
CURVE
100
AcDbLine
 62
7
420
4080451
  6
CONTINUOUS
 10
-48.986046845
 20
-14.0714285374
 11
-48.986046845
 21
-13.6071428955
  0
LINE
  5
4B0
100
AcDbEntity
  8
CURVE
100
AcDbLine
 62
7
420
4080451
  6
CONTINUOUS
 10
-48.986046845
 20
-8.0357143879
 11
-48.986046845
 21
-7.6071431637
  0
LINE
  5
4B1
100
AcDbEntity
  8
CURVE
100
AcDbLine
 62
7
420
4080451
  6
CONTINUOUS
 10
-48.5576059343
 20
-12.2499999404
 11
-48.5576059343
 21
-12.8214286566
  0
LINE
  5
4B2
100
AcDbEntity
  8
CURVE
100
AcDbLine
 62
7
420
4080451
  6
CONTINUOUS
 10
-48.1291650237
 20
-7.6071431637
 11
-48.1291650237
 21
-8.0357143879
  0
LINE
  5
4B3
100
AcDbEntity
  8
CURVE
100
AcDbLine
 62
7
420
4080451
  6
CONTINUOUS
 10
-48.1291650237
 20
-13.6071428955
 11
-48.1291650237
 21
-13.928571403
  0
LINE
  5
4B4
100
AcDbEntity
  8
CURVE
100
AcDbLine
 62
7
420
4080451
  6
CONTINUOUS
 10
-48.1291650237
 20
-9.2142856121
 11
-48.1291650237
 21
-8.4642856121
  0
LINE
  5
4B5
100
AcDbEntity
  8
CURVE
100
AcDbLine
 62
7
420
4080451
  6
CONTINUOUS
 10
-48.1291650237
 20
-6.6428568363
 11
-48.1291650237
 21
-6.5357143879
  0
LINE
  5
4B6
100
AcDbEntity
  8
0
100
AcDbLine
 62
250
  6
CONTINUOUS
 10
-47.6112868727
 20
5.999999282
 11
-47.6112868727
 21
5.0
  0
LWPOLYLINE
  5
4B7
100
AcDbEntity
  8
0
100
AcDbPolyline
 62
250
  6
CONTINUOUS
 90
31
 70
0
 10
-47.6112868727
 20
7.9999999992
 10
-47.6119290987
 20
7.9375469572
 10
-47.6138488307
 20
7.8754786589
 10
-47.6170356493
 20
7.813729152
 10
-47.621479135
 20
7.7522324843
 10
-47.6271688686
 20
7.6909227035
 10
-47.6340965743
 20
7.6297480994
 10
-47.6422625507
 20
7.5687139305
 10
-47.6516692401
 20
7.5078396973
 10
-47.6623190849
 20
7.4471449006
 10
-47.6742145272
 20
7.3866490408
 10
-47.6873571634
 20
7.3263747551
 10
-47.7017452056
 20
7.2663572254
 10
-47.7173760201
 20
7.2066347704
 10
-47.7342469731
 20
7.1472457087
 10
-47.7523554307
 20
7.0882283586
 10
-47.771695787
 20
7.0296201117
 10
-47.7922505467
 20
6.97145465
 10
-47.8139992425
 20
6.9137647288
 10
-47.8369214068
 20
6.8565831031
 10
-47.8609965722
 20
6.7999425279
 10
-47.8862052828
 20
6.7438724882
 10
-47.9125321285
 20
6.6883893878
 10
-47.9399627104
 20
6.6335063604
 10
-47.9684826301
 20
6.5792365396
 10
-47.9980774889
 20
6.525593059
 10
-48.0287428114
 20
6.4725788425
 10
-48.0605138164
 20
6.4201559742
 10
-48.0934356461
 20
6.3682763284
 10
-48.1275534424
 20
6.3168917794
 10
-48.1629123476
 20
6.2659542014
  0
LWPOLYLINE
  5
4B8
100
AcDbEntity
  8
0
100
AcDbPolyline
 62
250
  6
CONTINUOUS
 90
38
 70
0
 10
-49.1113864195
 20
7.984091705
 10
-49.1121717296
 20
7.9486698461
 10
-49.1137877789
 20
7.9133654001
 10
-49.1162290875
 20
7.8782187253
 10
-49.1194889297
 20
7.8432661524
 10
-49.1235555985
 20
7.808527901
 10
-49.1284161412
 20
7.774020163
 10
-49.1340576052
 20
7.7397591304
 10
-49.140467038
 20
7.7057609951
 10
-49.1476314868
 20
7.6720419489
 10
-49.1555424218
 20
7.6386066802
 10
-49.1642090036
 20
7.6054138624
 10
-49.1736448159
 20
7.5724106652
 10
-49.1838615128
 20
7.5395567157
 10
-49.1948630323
 20
7.5068614701
 10
-49.2066513835
 20
7.4743468418
 10
-49.219228341
 20
7.4420326816
 10
-49.2325947424
 20
7.4099305893
 10
-49.2467511913
 20
7.3780501022
 10
-49.261698291
 20
7.3464007575
 10
-49.2774366451
 20
7.3149920924
 10
-49.2939668569
 20
7.2838336442
 10
-49.3112873534
 20
7.2529382126
 10
-49.3293878558
 20
7.222331647
 10
-49.3482559085
 20
7.1920430595
 10
-49.3629071346
 20
7.1695491208
 10
-49.3780016935
 20
7.1472405993
 10
-49.3935581769
 20
7.125107674
 10
-49.4095951767
 20
7.1031405237
 10
-49.4261167534
 20
7.0813442154
 10
-49.4430688423
 20
7.059783367
 10
-49.4603828476
 20
7.0385374845
 10
-49.4779901733
 20
7.0176860738
 10
-49.4922688375
 20
7.0013148377
 10
-49.5068224606
 20
6.9851223237
 10
-49.5217821778
 20
6.9689839082
 10
-49.5372791242
 20
6.9527749677
 10
-49.5534444351
 20
6.9363708784
  0
LWPOLYLINE
  5
4B9
100
AcDbEntity
  8
ASSI
100
AcDbPolyline
 62
250
  6
CONTINUOUS
 90
10
 70
0
 10
-47.9954540053
 20
-19.2457987431
 10
-47.9962373721
 20
-19.2767523272
 10
-47.9970845673
 20
-19.3046780618
 10
-47.9979887825
 20
-19.3293515242
 10
-47.998942751
 20
-19.3505744308
 10
-47.9999388062
 20
-19.3681762288
 10
-48.0009689432
 20
-19.3820154671
 10
-48.0020248834
 20
-19.3919809359
 10
-48.0030981411
 20
-19.3979925587
 10
-48.0041800913
 20
-19.4000020345
  0
LINE
  5
4BA
100
AcDbEntity
  8
0
100
AcDbLine
 62
250
  6
CONTINUOUS
 10
-55.9612508232
 20
-5.659332
 11
-56.1754505609
 21
-5.89931
  0
LINE
  5
4BB
100
AcDbEntity
  8
0
100
AcDbLine
 62
7
  6
CONTINUOUS
 10
-56.1465554653
 20
-1.8896269909
 11
-55.623745764
 21
-1.3668172896
  0
LINE
  5
4BC
100
AcDbEntity
  8
0
100
AcDbLine
 62
7
  6
CONTINUOUS
 10
-56.0559767053
 20
-2.0090589449
 11
-55.5341731394
 21
-1.487255379
  0
LINE
  5
4BD
100
AcDbEntity
  8
0
100
AcDbLine
 62
7
  6
CONTINUOUS
 10
-55.9653979453
 20
-2.1284908989
 11
-55.4446005148
 21
-1.6076934684
  0
LINE
  5
4BE
100
AcDbEntity
  8
0
100
AcDbLine
 62
7
  6
CONTINUOUS
 10
-55.8748191853
 20
-2.2479228529
 11
-55.3550278901
 21
-1.7281315578
  0
LINE
  5
4BF
100
AcDbEntity
  8
0
100
AcDbLine
 62
7
  6
CONTINUOUS
 10
-55.7842404253
 20
-2.367354807
 11
-55.2651779101
 21
-1.8482922917
  0
LINE
  5
4C0
100
AcDbEntity
  8
0
100
AcDbLine
 62
7
  6
CONTINUOUS
 10
-55.6718144197
 20
-2.4649395153
 11
-55.1252588949
 21
-1.9183839906
  0
LINE
  5
4C1
100
AcDbEntity
  8
0
100
AcDbLine
 62
7
  6
CONTINUOUS
 10
-55.5313493852
 20
-2.5344851949
 11
-54.9853398798
 21
-1.9884756895
  0
LINE
  5
4C2
100
AcDbEntity
  8
0
100
AcDbLine
 62
7
  6
CONTINUOUS
 10
-55.3908843508
 20
-2.6040308745
 11
-54.8454208647
 21
-2.0585673883
  0
LINE
  5
4C3
100
AcDbEntity
  8
0
100
AcDbLine
 62
7
  6
CONTINUOUS
 10
-55.2504193164
 20
-2.673576554
 11
-54.7055018495
 21
-2.1286590872
  0
LINE
  5
4C4
100
AcDbEntity
  8
0
100
AcDbLine
 62
7
  6
CONTINUOUS
 10
-55.1099542819
 20
-2.7431222336
 11
-54.5655828344
 21
-2.1987507861
  0
LINE
  5
4C5
100
AcDbEntity
  8
0
100
AcDbLine
 62
7
  6
CONTINUOUS
 10
-54.9694892475
 20
-2.8126679132
 11
-54.3755474273
 21
-2.218726093
  0
LINE
  5
4C6
100
AcDbEntity
  8
0
100
AcDbLine
 62
7
  6
CONTINUOUS
 10
-54.829024213
 20
-2.8822135928
 11
-54.1655367198
 21
-2.2187260995
  0
LINE
  5
4C7
100
AcDbEntity
  8
0
100
AcDbLine
 62
7
  6
CONTINUOUS
 10
-52.3146690507
 20
-0.3678584304
 11
-52.3143646203
 21
-0.367554
  0
LINE
  5
4C8
100
AcDbEntity
  8
0
100
AcDbLine
 62
7
  6
CONTINUOUS
 10
-54.6865686923
 20
-2.9497687861
 11
-53.9555260122
 21
-2.218726106
  0
LINE
  5
4C9
100
AcDbEntity
  8
0
100
AcDbLine
 62
7
  6
CONTINUOUS
 10
-52.3607398291
 20
-0.6239399229
 11
-52.1043539392
 21
-0.3675540329
  0
LINE
  5
4CA
100
AcDbEntity
  8
0
100
AcDbLine
 62
7
  6
CONTINUOUS
 10
-54.4765579832
 20
-2.9497687909
 11
-53.7455153047
 21
-2.2187261125
  0
LINE
  5
4CB
100
AcDbEntity
  8
0
100
AcDbLine
 62
7
  6
CONTINUOUS
 10
-52.4068106076
 20
-0.8800214153
 11
-51.8943432581
 21
-0.3675540658
  0
LINE
  5
4CC
100
AcDbEntity
  8
0
100
AcDbLine
 62
7
  6
CONTINUOUS
 10
-54.266547274
 20
-2.9497687958
 11
-53.3735320036
 21
-2.0567535253
  0
LINE
  5
4CD
100
AcDbEntity
  8
0
100
AcDbLine
 62
7
  6
CONTINUOUS
 10
-52.452881386
 20
-1.1361029078
 11
-51.6843325769
 21
-0.3675540987
  0
LINE
  5
4CE
100
AcDbEntity
  8
0
100
AcDbLine
 62
7
  6
CONTINUOUS
 10
-54.0565365648
 20
-2.9497688006
 11
-51.5856689744
 21
-0.4789012101
  0
LINE
  5
4CF
100
AcDbEntity
  8
0
100
AcDbLine
 62
7
  6
CONTINUOUS
 10
-53.8465258557
 20
-2.9497688055
 11
-51.6363385036
 21
-0.7395814534
  0
LINE
  5
4D0
100
AcDbEntity
  8
0
100
AcDbLine
 62
7
  6
CONTINUOUS
 10
-53.6365151465
 20
-2.9497688103
 11
-51.6870080328
 21
-1.0002616966
  0
LWPOLYLINE
  5
4D1
100
AcDbEntity
  8
0
100
AcDbPolyline
 62
250
  6
CONTINUOUS
 90
63
 70
0
 10
-48.8603428803
 20
5.5637037647
 10
-48.9316615641
 20
5.5138764114
 10
-49.002779623
 20
5.467189474
 10
-49.074198627
 20
5.4232177895
 10
-49.1464201459
 20
5.3815361945
 10
-49.2445534551
 20
5.3290006041
 10
-49.3445301451
 20
5.2800467909
 10
-49.4458752238
 20
5.2349411074
 10
-49.5481802651
 20
5.193895501
 10
-49.6513031053
 20
5.1569042995
 10
-49.7551681464
 20
5.123907426
 10
-49.8597477469
 20
5.0948487394
 10
-49.9652060906
 20
5.0696878435
 10
-50.0717553178
 20
5.0483882785
 10
-50.1795274635
 20
5.0309264213
 10
-50.2883341419
 20
5.0173299959
 10
-50.3979068618
 20
5.0076395633
 10
-50.5079771322
 20
5.0018956846
 10
-50.618276462
 20
5.0001389206
 10
-50.7285363601
 20
5.0024098324
 10
-50.8385090012
 20
5.00873426
 10
-50.9480292236
 20
5.0190791592
 10
-51.0569525314
 20
5.0333967653
 10
-51.1651344288
 20
5.0516393133
 10
-51.2724304198
 20
5.073759038
 10
-51.3786960085
 20
5.0997081747
 10
-51.4837915464
 20
5.1294406834
 10
-51.5875967745
 20
5.1629174245
 10
-51.6899962812
 20
5.2001009834
 10
-51.7908746548
 20
5.2409539456
 10
-51.8901164838
 20
5.2854388964
 10
-51.9876063563
 20
5.3335184214
 10
-52.0832314609
 20
5.3851467213
 10
-52.1768893857
 20
5.4402444573
 10
-52.2684803189
 20
5.4987239064
 10
-52.3579044487
 20
5.5604973452
 10
-52.4450619633
 20
5.6254770504
 10
-52.5298530507
 20
5.6935752988
 10
-52.612178258
 20
5.7647073708
 10
-52.6919395666
 20
5.8388005627
 10
-52.7690393168
 20
5.9157851744
 10
-52.8433798487
 20
5.9955915061
 10
-52.9148635026
 20
6.0781498577
 10
-52.9833926187
 20
6.1633905292
 10
-53.0488632646
 20
6.2512174931
 10
-53.1111464166
 20
6.3414294103
 10
-53.1701067787
 20
6.4337986144
 10
-53.2256090546
 20
6.5280974388
 10
-53.2775179481
 20
6.624098217
 10
-53.3256981632
 20
6.7215732823
 10
-53.3700551144
 20
6.8203550292
 10
-53.4106570605
 20
6.9205160957
 10
-53.447612971
 20
7.0221891808
 10
-53.4810006817
 20
7.1254825508
 10
-53.5107734939
 20
7.2304067402
 10
-53.5368535752
 20
7.3369478511
 10
-53.5591634838
 20
7.445002575
 10
-53.57762734
 20
7.5541099631
 10
-53.5921696548
 20
7.6637196563
 10
-53.6004539431
 20
7.7460808171
 10
-53.6064369059
 20
7.8291147358
 10
-53.6100655472
 20
7.9135212004
 10
-53.6112868712
 20
7.9999999992
  0
LINE
  5
4D2
100
AcDbEntity
  8
CURVE
100
AcDbLine
 62
7
420
4080451
  6
CONTINUOUS
 10
-44.1429735337
 20
-11.164171
 11
-46.1543067221
 21
-11.713445
  0
LINE
  5
4D3
100
AcDbEntity
  8
ASSI
100
AcDbLine
 62
7
  6
CONTINUOUS
 10
-31.9025606694
 20
-7.7125723589
 11
-36.9112868727
 21
-7.8
  0
LINE
  5
4D4
100
AcDbEntity
  8
0
100
AcDbLine
 62
250
  6
CONTINUOUS
 10
-41.9112868727
 20
-9.8095238686
 11
-40.6112868727
 21
-9.8095238686
  0
LINE
  5
4D5
100
AcDbEntity
  8
0
100
AcDbLine
 62
250
  6
CONTINUOUS
 10
-56.0761448173
 20
-9.292472
 11
-54.8924054782
 21
-9.292472
  0
LINE
  5
4D6
100
AcDbEntity
  8
0
100
AcDbLine
 62
250
  6
CONTINUOUS
 10
-53.3140863594
 20
-9.292472
 11
-52.1303470202
 21
-9.292472
  0
LINE
  5
4D7
100
AcDbEntity
  8
0
100
AcDbLine
 62
250
  6
CONTINUOUS
 10
-41.9112868727
 20
-9.1595238686
 11
-40.6112868727
 21
-9.1595238686
  0
LINE
  5
4D8
100
AcDbEntity
  8
0
100
AcDbLine
 62
250
  6
CONTINUOUS
 10
-53.3140863594
 20
-8.503072
 11
-54.1032459188
 21
-8.503072
  0
LINE
  5
4D9
100
AcDbEntity
  8
CURVE
100
AcDbLine
 62
7
420
4080451
  6
CONTINUOUS
 10
-49.4144877109
 20
-8.4642856121
 11
-49.200267278
 21
-8.4642856121
  0
LINE
  5
4DA
100
AcDbEntity
  8
CURVE
100
AcDbLine
 62
7
420
4080451
  6
CONTINUOUS
 10
-49.6287081439
 20
-8.0357143879
 11
-48.986046845
 21
-8.0357143879
  0
LINE
  5
4DB
100
AcDbEntity
  8
0
100
AcDbLine
 62
250
  6
CONTINUOUS
 10
-56.0761448173
 20
-7.713672
 11
-51.3411874608
 21
-7.713672
  0
LINE
  5
4DC
100
AcDbEntity
  8
ASSI
100
AcDbLine
 62
7
  6
CONTINUOUS
 10
-35.1077961259
 20
-8.5314800481
 11
-36.9112868727
 21
-8.5
  0
LWPOLYLINE
  5
4DD
100
AcDbEntity
  8
CURVE
100
AcDbPolyline
 62
7
420
4080451
  6
CONTINUOUS
 90
56
 70
0
 10
-45.1300787831
 20
-8.4638164845
 10
-45.1014389769
 20
-8.464344891
 10
-45.0734232011
 20
-8.4659212518
 10
-45.0452187712
 20
-8.4685327638
 10
-45.0169188917
 20
-8.4721685623
 10
-44.988782858
 20
-8.4768189058
 10
-44.960828438
 20
-8.482476606
 10
-44.9330255283
 20
-8.489132513
 10
-44.9053940656
 20
-8.4967670771
 10
-44.868868664
 20
-8.5084292637
 10
-44.8327452832
 20
-8.5217315786
 10
-44.7970634659
 20
-8.5366136928
 10
-44.7618497056
 20
-8.55302348
 10
-44.7270783009
 20
-8.5709416268
 10
-44.6927105013
 20
-8.5903570228
 10
-44.6519677485
 20
-8.6156029997
 10
-44.6118058769
 20
-8.6428904748
 10
-44.5722803766
 20
-8.6721209066
 10
-44.5334467378
 20
-8.7031957534
 10
-44.4953604507
 20
-8.7360164738
 10
-44.4488708641
 20
-8.7793520934
 10
-44.4036407356
 20
-8.8250974447
 10
-44.3596750827
 20
-8.873088303
 10
-44.316978923
 20
-8.9231604439
 10
-44.2755501024
 20
-8.9751669169
 10
-44.2353577798
 20
-9.0290298673
 10
-44.1963639426
 20
-9.0846887145
 10
-44.1585305781
 20
-9.1420828781
 10
-44.1218271902
 20
-9.2011395828
 10
-44.0862533495
 20
-9.2617372761
 10
-44.0518161432
 20
-9.323742211
 10
-44.0185226584
 20
-9.3870206403
 10
-43.9759076789
 20
-9.4731959579
 10
-43.9352651505
 20
-9.5614059927
 10
-43.8965216423
 20
-9.6516592441
 10
-43.8596037232
 20
-9.7439642117
 10
-43.824437962
 20
-9.8383293951
 10
-43.7909509277
 20
-9.9347632937
 10
-43.7590833774
 20
-10.0332671492
 10
-43.7288328204
 20
-10.1338131713
 10
-43.7002109539
 20
-10.236366312
 10
-43.6732294754
 20
-10.3408915231
 10
-43.6479000823
 20
-10.4473537566
 10
-43.6242344719
 20
-10.5557179642
 10
-43.6022470253
 20
-10.6659536989
 10
-43.5819628582
 20
-10.7780489174
 10
-43.5634097703
 20
-10.8919961775
 10
-43.5466155609
 20
-11.0077880369
 10
-43.5316080295
 20
-11.1254170534
 10
-43.5184149757
 20
-11.2448757848
 10
-43.5070708887
 20
-11.3661584766
 10
-43.4976370168
 20
-11.489266126
 10
-43.4901812983
 20
-11.614201418
 10
-43.4847716711
 20
-11.7409670377
 10
-43.4814760735
 20
-11.86956567
 10
-43.4803624437
 20
-12.0
  0
LINE
  5
4DE
100
AcDbEntity
  8
0
100
AcDbLine
 62
250
  6
CONTINUOUS
 10
-39.9112868727
 20
-9.7785716057
 11
-38.6112868727
 21
-10.15
  0
LINE
  5
4DF
100
AcDbEntity
  8
0
100
AcDbLine
 62
250
  6
CONTINUOUS
 10
-54.1353061507
 20
-6.03305
 11
-52.9572030943
 21
-6.393017
  0
LINE
  5
4E0
100
AcDbEntity
  8
CURVE
100
AcDbLine
 62
7
420
4080451
  6
CONTINUOUS
 10
-48.343385479
 20
-6.3214287758
 11
-48.5576059343
 21
-6.2142856121
  0
LINE
  5
4E1
100
AcDbEntity
  8
0
100
AcDbLine
 62
250
  6
CONTINUOUS
 10
-40.6112868727
 20
-13.3071429014
 11
-40.7970011667
 21
-13.1214287043
  0
LINE
  5
4E2
100
AcDbEntity
  8
0
100
AcDbLine
 62
250
  6
CONTINUOUS
 10
-38.7970011667
 20
-14.2357143521
 11
-38.6112868727
 21
-14.4214285493
  0
LINE
  5
4E3
100
AcDbEntity
  8
0
100
AcDbLine
 62
250
  6
CONTINUOUS
 10
-39.9112868727
 20
-11.8214287043
 11
-39.725572598
 21
-12.0071429014
  0
LWPOLYLINE
  5
4E4
100
AcDbEntity
  8
CURVE
100
AcDbPolyline
 62
7
420
4080451
  6
CONTINUOUS
 90
69
 70
0
 10
-44.6323394002
 20
-9.411891146
 10
-44.6503173324
 20
-9.3840012118
 10
-44.668807932
 20
-9.3566806533
 10
-44.6879287003
 20
-9.3298442841
 10
-44.7027485688
 20
-9.3099952435
 10
-44.7180089306
 20
-9.2904050957
 10
-44.7337297146
 20
-9.2711082942
 10
-44.7499308498
 20
-9.2521392928
 10
-44.7666337609
 20
-9.2335349516
 10
-44.7838658565
 20
-9.2153417577
 10
-44.8016560408
 20
-9.1976086048
 10
-44.8200332182
 20
-9.1803843866
 10
-44.8326246167
 20
-9.1692098986
 10
-44.8454957063
 20
-9.1583064473
 10
-44.8586524462
 20
-9.1476971455
 10
-44.8721098842
 20
-9.1374008202
 10
-44.8859194241
 20
-9.1274191546
 10
-44.9001415584
 20
-9.1177495457
 10
-44.9148268986
 20
-9.1084001843
 10
-44.9299865318
 20
-9.099422435
 10
-44.9456216638
 20
-9.0908784561
 10
-44.9617246384
 20
-9.082832493
 10
-44.9782523508
 20
-9.0753571402
 10
-44.9951528341
 20
-9.0685270791
 10
-45.0123693156
 20
-9.0624127931
 10
-45.0298258005
 20
-9.057067973
 10
-45.0474414884
 20
-9.0525421115
 10
-45.0651613042
 20
-9.0488774116
 10
-45.0830330738
 20
-9.0460869169
 10
-45.1011303483
 20
-9.0441763816
 10
-45.1148901705
 20
-9.0433281575
 10
-45.1288170396
 20
-9.0430030306
 10
-45.1429097837
 20
-9.0432258846
 10
-45.1571672307
 20
-9.0440216031
 10
-45.1715755809
 20
-9.0454096075
 10
-45.1860705234
 20
-9.0473874721
 10
-45.2005751201
 20
-9.0499473089
 10
-45.2150124323
 20
-9.0530812302
 10
-45.2293087092
 20
-9.0567743831
 10
-45.2434029495
 20
-9.0609840562
 10
-45.2572373395
 20
-9.0656605729
 10
-45.2707540654
 20
-9.0707542567
 10
-45.2882029041
 20
-9.0781105997
 10
-45.3049708263
 20
-9.0860126981
 10
-45.3210444315
 20
-9.0943529903
 10
-45.3364326105
 20
-9.1030434706
 10
-45.3512334193
 20
-9.1120743568
 10
-45.3655672046
 20
-9.1214554222
 10
-45.3795368425
 20
-9.1311914663
 10
-45.3931753249
 20
-9.1412673914
 10
-45.4064981726
 20
-9.1516631258
 10
-45.4259319638
 20
-9.1678234773
 10
-45.4447871783
 20
-9.184656583
 10
-45.4631451661
 20
-9.2021509901
 10
-45.4810259591
 20
-9.2202560552
 10
-45.4984362175
 20
-9.2389150601
 10
-45.5153904323
 20
-9.2580861793
 10
-45.5319050527
 20
-9.2777313104
 10
-45.5479965274
 20
-9.2978123509
 10
-45.5636813484
 20
-9.3182941776
 10
-45.5789761789
 20
-9.3391535843
 10
-45.593897725
 20
-9.360370344
 10
-45.6084626929
 20
-9.3819242298
 10
-45.627354945
 20
-9.4111541091
 10
-45.6456711634
 20
-9.4409108605
 10
-45.6634395316
 20
-9.4711579798
 10
-45.6806922769
 20
-9.50187194
 10
-45.6974778033
 20
-9.5330811214
 10
-45.7138485585
 20
-9.5648268816
  0
LINE
  5
4E5
100
AcDbEntity
  8
CURVE
100
AcDbLine
 62
7
420
4080451
  6
CONTINUOUS
 10
-48.7004195563
 20
-4.2500002384
 11
-48.5933093398
 21
-4.5
  0
LINE
  5
4E6
100
AcDbEntity
  8
CURVE
100
AcDbLine
 62
7
420
4080451
  6
CONTINUOUS
 10
-48.5933093398
 20
-3.678571701
 11
-48.486199101
 21
-3.9642856121
  0
LINE
  5
4E7
100
AcDbEntity
  8
CURVE
100
AcDbLine
 62
7
420
4080451
  6
CONTINUOUS
 10
-46.0639462531
 20
-13.242188
 11
-45.9464330569
 21
-13.800346
  0
LWPOLYLINE
  5
4E8
100
AcDbEntity
  8
CURVE
100
AcDbPolyline
 62
7
420
4080451
  6
CONTINUOUS
 90
55
 70
0
 10
-44.9545552615
 20
-13.10207
 10
-44.9546589683
 20
-13.0946095494
 10
-44.9549674203
 20
-13.0872853202
 10
-44.9554766146
 20
-13.0800957336
 10
-44.9561825486
 20
-13.0730392107
 10
-44.9570812196
 20
-13.0661141727
 10
-44.9581686248
 20
-13.0593190407
 10
-44.9594407614
 20
-13.052652236
 10
-44.9608936268
 20
-13.0461121796
 10
-44.9625232182
 20
-13.0396972928
 10
-44.9643255329
 20
-13.0334059966
 10
-44.9662965682
 20
-13.0272367124
 10
-44.9684323212
 20
-13.0211878612
 10
-44.9707287894
 20
-13.0152578641
 10
-44.9731819699
 20
-13.0094451424
 10
-44.9759945236
 20
-13.0033146314
 10
-44.978979185
 20
-12.997316329
 10
-44.9821309548
 20
-12.9914482634
 10
-44.9854448336
 20
-12.9857084625
 10
-44.9889158223
 20
-12.9800949545
 10
-44.9925389213
 20
-12.9746057674
 10
-44.9963091315
 20
-12.9692389292
 10
-45.0002214535
 20
-12.9639924682
 10
-45.0042708881
 20
-12.9588644122
 10
-45.0084524358
 20
-12.9538527895
 10
-45.0127610974
 20
-12.948955628
 10
-45.0171918735
 20
-12.9441709559
 10
-45.0217397649
 20
-12.9394968011
 10
-45.0264009207
 20
-12.9349324068
 10
-45.0311760842
 20
-12.9304818756
 10
-45.0360671474
 20
-12.9261505252
 10
-45.0410760019
 20
-12.9219436733
 10
-45.0462045397
 20
-12.9178666375
 10
-45.0514546525
 20
-12.9139247356
 10
-45.0568282322
 20
-12.9101232851
 10
-45.0623271706
 20
-12.9064676037
 10
-45.0679533596
 20
-12.9029630091
 10
-45.0737086908
 20
-12.899614819
 10
-45.0795950563
 20
-12.8964283511
 10
-45.0856143477
 20
-12.8934089229
 10
-45.091768457
 20
-12.8905618522
 10
-45.0976053576
 20
-12.8880771221
 10
-45.1035616502
 20
-12.885749849
 10
-45.1096388493
 20
-12.8835842907
 10
-45.1158384698
 20
-12.8815847048
 10
-45.1221620262
 20
-12.8797553487
 10
-45.1286110333
 20
-12.8781004803
 10
-45.1351870059
 20
-12.876624357
 10
-45.1418914585
 20
-12.8753312366
 10
-45.148725906
 20
-12.8742253766
 10
-45.155691863
 20
-12.8733110347
 10
-45.1627908441
 20
-12.8725924684
 10
-45.1700243642
 20
-12.8720739355
 10
-45.1773939379
 20
-12.8717596935
 10
-45.1849010799
 20
-12.871654
  0
LINE
  5
4E9
100
AcDbEntity
  8
0
100
AcDbLine
 62
250
  6
CONTINUOUS
 10
-46.9403399285
 20
12.225174
 11
-46.9403399285
 21
13.571041
  0
LINE
  5
4EA
100
AcDbEntity
  8
0
100
AcDbLine
 62
250
  6
CONTINUOUS
 10
-46.7439218485
 20
12.399503
 11
-46.7439218485
 21
12.281883
  0
LINE
  5
4EB
100
AcDbEntity
  8
0
100
AcDbLine
 62
250
  6
CONTINUOUS
 10
-45.1301436722
 20
10.907638
 11
-45.1301436722
 21
15.092362
  0
LINE
  5
4EC
100
AcDbEntity
  8
CURVE
100
AcDbLine
 62
7
420
4080451
  6
CONTINUOUS
 10
-44.9545552615
 20
-13.800346
 11
-44.9545552615
 21
-13.10207
  0
LINE
  5
4ED
100
AcDbEntity
  8
ASSI
100
AcDbLine
 62
250
  6
CONTINUOUS
 10
-46.1083557202
 20
17.4571263965
 11
-46.1084520326
 21
17.4094273869
  0
LWPOLYLINE
  5
4EE
100
AcDbEntity
  8
ASSI
100
AcDbPolyline
 62
250
  6
CONTINUOUS
 90
3
 70
0
 10
-46.1084520326
 20
17.4094273869
 10
-46.1089288101
 20
17.3453289305
 10
-46.1093045292
 20
17.3079026854
  0
LWPOLYLINE
  5
4EF
100
AcDbEntity
  8
CURVE
100
AcDbPolyline
 62
7
420
4080451
  6
CONTINUOUS
 90
52
 70
0
 10
-46.7797951226
 20
-12.0
 10
-46.778686074
 20
-11.8698344995
 10
-46.7754034082
 20
-11.7414793761
 10
-46.7700138456
 20
-11.6149332959
 10
-46.7625841063
 20
-11.490194925
 10
-46.7531809106
 20
-11.3672629297
 10
-46.7418709787
 20
-11.2461359762
 10
-46.7287143768
 20
-11.1268135215
 10
-46.7137445558
 20
-11.0092981865
 10
-46.6969883123
 20
-10.893593383
 10
-46.6784724431
 20
-10.7797025228
 10
-46.6582237451
 20
-10.6676290177
 10
-46.636269015
 20
-10.5573762794
 10
-46.6126312682
 20
-10.4489525621
 10
-46.587318395
 20
-10.3423854894
 10
-46.5603345043
 20
-10.2377075269
 10
-46.5316837049
 20
-10.1349511405
 10
-46.5013701056
 20
-10.0341487961
 10
-46.4693978154
 20
-9.9353329595
 10
-46.4357642795
 20
-9.8385399293
 10
-46.4004402884
 20
-9.743821336
 10
-46.3633899692
 20
-9.6512326427
 10
-46.3245774486
 20
-9.5608293128
 10
-46.2839668537
 20
-9.4726668094
 10
-46.2415223114
 20
-9.3868005959
 10
-46.2084657004
 20
-9.3239508372
 10
-46.1743536028
 20
-9.2625049187
 10
-46.1391823063
 20
-9.2025438193
 10
-46.1029480982
 20
-9.1441485181
 10
-46.0656349771
 20
-9.0873903967
 10
-46.0271777846
 20
-9.0323024476
 10
-45.9874990732
 20
-8.9789080659
 10
-45.9465213957
 20
-8.9272306467
 10
-45.9041860709
 20
-8.8773228735
 10
-45.8605094826
 20
-8.8293545834
 10
-45.8155267812
 20
-8.7835249016
 10
-45.7692731168
 20
-8.7400329537
 10
-45.7313779869
 20
-8.7070541893
 10
-45.6927055786
 20
-8.6757878472
 10
-45.6532695332
 20
-8.6463227596
 10
-45.6130834926
 20
-8.6187477589
 10
-45.5721610981
 20
-8.5931516776
 10
-45.5305247366
 20
-8.5696216387
 10
-45.488231775
 20
-8.5482379297
 10
-45.4453483251
 20
-8.5290791285
 10
-45.4019404991
 20
-8.5122238133
 10
-45.3580744088
 20
-8.4977505623
 10
-45.3137833253
 20
-8.4857375614
 10
-45.2689691552
 20
-8.4762614281
 10
-45.2235009643
 20
-8.4693983873
 10
-45.1772478184
 20
-8.4652246644
 10
-45.1300787831
 20
-8.4638164845
  0
LINE
  5
4F0
100
AcDbEntity
  8
ASSI
100
AcDbLine
 62
250
  6
CONTINUOUS
 10
-44.674812445
 20
17.2826903591
 11
-44.6741509076
 21
17.3541332142
  0
LWPOLYLINE
  5
4F1
100
AcDbEntity
  8
ASSI
100
AcDbPolyline
 62
250
  6
CONTINUOUS
 90
7
 70
0
 10
-50.1404320747
 20
-21.1306884717
 10
-50.1401516524
 20
-21.1290901205
 10
-50.1399848492
 20
-21.1243398557
 10
-50.1399058314
 20
-21.116483741
 10
-50.1398442522
 20
-21.1055459602
 10
-50.1398162818
 20
-21.0915768023
 10
-50.1399058314
 20
-21.074703037
  0
LINE
  5
4F2
100
AcDbEntity
  8
0
100
AcDbLine
 62
7
  6
CONTINUOUS
 10
-53.325019054
 20
-2.8482834319
 11
-51.7376775621
 21
-1.2609419399
  0
LINE
  5
4F3
100
AcDbEntity
  8
0
100
AcDbLine
 62
7
  6
CONTINUOUS
 10
-52.9090654843
 20
-2.6423405762
 11
-51.8238270274
 21
-1.5571021192
  0
LINE
  5
4F4
100
AcDbEntity
  8
0
100
AcDbLine
 62
7
  6
CONTINUOUS
 10
-52.4931119146
 20
-2.4363977204
 11
-52.4831133986
 21
-2.4263992045
  0
LINE
  5
4F5
100
AcDbEntity
  8
0
100
AcDbLine
 62
250
  6
CONTINUOUS
 10
-56.6038520359
 20
-5.699329
 11
-56.8180527734
 21
-5.89931
  0
LWPOLYLINE
  5
4F6
100
AcDbEntity
  8
0
100
AcDbPolyline
 62
250
  6
CONTINUOUS
 90
17
 70
0
 10
-45.1112868727
 20
-7.556155191
 10
-44.8090741142
 20
-7.5265184572
 10
-44.5183725458
 20
-7.4387371096
 10
-44.2502548999
 20
-7.2961547125
 10
-44.0110865758
 20
-7.1003678882
 10
-43.8183430287
 20
-6.8656823098
 10
-43.6748473109
 20
-6.5980231613
 10
-43.5860651297
 20
-6.3075854963
 10
-43.5553686916
 20
-6.0
 10
-43.5850009116
 20
-5.6977412061
 10
-43.6727688897
 20
-5.4069953557
 10
-43.8153295708
 20
-5.138836868
 10
-44.0110865758
 20
-4.8996321118
 10
-44.2457364104
 20
-4.7068592045
 10
-44.5133547932
 20
-4.5633416282
 10
-44.8037482231
 20
-4.474545923
 10
-45.1112870087
 20
-4.443844809
  0
LWPOLYLINE
  5
4F7
100
AcDbEntity
  8
0
100
AcDbPolyline
 62
250
  6
CONTINUOUS
 90
17
 70
0
 10
-45.1112868727
 20
-6.9826316932
 10
-44.9204551123
 20
-6.9639176252
 10
-44.7368920744
 20
-6.9084882344
 10
-44.567589618
 20
-6.818454809
 10
-44.4165671643
 20
-6.6948255336
 10
-44.2948595614
 20
-6.5466337026
 10
-44.2042494211
 20
-6.3776207636
 10
-44.1481880555
 20
-6.194224367
 10
-44.1288048391
 20
-6.0
 10
-44.1475160568
 20
-5.8091391706
 10
-44.2029370054
 20
-5.6255481709
 10
-44.2929567183
 20
-5.456219925
 10
-44.4165671643
 20
-5.3051744664
 10
-44.5647364251
 20
-5.183448324
 10
-44.7337236226
 20
-5.0928243812
 10
-44.9170920869
 20
-5.0367544759
 10
-45.1112869585
 20
-5.0173683068
  0
LINE
  5
4F8
100
AcDbEntity
  8
ASSI
100
AcDbLine
 62
250
  6
CONTINUOUS
 10
-31.9025606694
 20
-7.2126485113
 11
-37.4025606694
 21
-7.3086513684
  0
LINE
  5
4F9
100
AcDbEntity
  8
CURVE
100
AcDbLine
 62
7
420
4080451
  6
CONTINUOUS
 10
-48.7718263673
 20
-7.3928568363
 11
-48.343385479
 21
-7.3928568363
  0
LINE
  5
4FA
100
AcDbEntity
  8
ASSI
100
AcDbLine
 62
250
  6
CONTINUOUS
 10
-31.9025606694
 20
-7.2126485113
 11
-31.4112868727
 21
-7.2126485113
  0
LINE
  5
4FB
100
AcDbEntity
  8
0
100
AcDbLine
 62
250
  6
CONTINUOUS
 10
-46.5602284102
 20
-6.982804
 11
-46.3182131472
 21
-6.982804
  0
LINE
  5
4FC
100
AcDbEntity
  8
0
100
AcDbLine
 62
250
  6
CONTINUOUS
 10
-43.9060340882
 20
-6.982804
 11
-43.6640188253
 21
-6.982804
  0
LINE
  5
4FD
100
AcDbEntity
  8
CURVE
100
AcDbLine
 62
7
420
4080451
  6
CONTINUOUS
 10
-49.200267278
 20
-6.9642856121
 11
-48.5576059343
 21
-6.9642856121
  0
LINE
  5
4FE
100
AcDbEntity
  8
ASSI
100
AcDbLine
 62
7
  6
CONTINUOUS
 10
-31.4112868727
 20
-6.625051
 11
-31.2812868727
 21
-6.625051
  0
LINE
  5
4FF
100
AcDbEntity
  8
CURVE
100
AcDbLine
 62
7
420
4080451
  6
CONTINUOUS
 10
-48.5576059343
 20
-6.2142856121
 11
-49.200267278
 21
-6.2142856121
  0
LINE
  5
500
100
AcDbEntity
  8
0
100
AcDbLine
 62
250
  6
CONTINUOUS
 10
-52.6359029878
 20
-5.833069
 11
-53.3856045692
 21
-5.833069
  0
LINE
  5
501
100
AcDbEntity
  8
0
100
AcDbLine
 62
250
  6
CONTINUOUS
 10
-56.2825519294
 20
-5.699329
 11
-56.6038520359
 21
-5.699329
  0
LINE
  5
502
100
AcDbEntity
  8
0
100
AcDbLine
 62
250
  6
CONTINUOUS
 10
-55.4257489795
 20
-5.659332
 11
-55.9612508232
 21
-5.659332
  0
LINE
  5
503
100
AcDbEntity
  8
ASSI
100
AcDbLine
 62
7
  6
CONTINUOUS
 10
-31.4112868727
 20
-5.299081983
 11
-31.2812868727
 21
-5.299081
  0
LINE
  5
504
100
AcDbEntity
  8
0
100
AcDbLine
 62
250
  6
CONTINUOUS
 10
-46.122755699
 20
-5.297618
 11
-45.7971268761
 21
-5.297618
  0
LINE
  5
505
100
AcDbEntity
  8
0
100
AcDbLine
 62
250
  6
CONTINUOUS
 10
-44.4271203593
 20
-5.297618
 11
-44.1014915364
 21
-5.297618
  0
LINE
  5
506
100
AcDbEntity
  8
0
100
AcDbLine
 62
250
  6
CONTINUOUS
 10
-46.5602284102
 20
-5.018915
 11
-46.3182139611
 21
-5.018915
  0
LINE
  5
507
100
AcDbEntity
  8
0
100
AcDbLine
 62
250
  6
CONTINUOUS
 10
-43.9060332743
 20
-5.018915
 11
-43.6640188253
 21
-5.018915
  0
LINE
  5
508
100
AcDbEntity
  8
RACCORDO
100
AcDbLine
 62
7
  6
CONTINUOUS
 10
-62.4355533801
 20
-4.9891033876
 11
-61.2311646324
 21
-5.0101260714
  0
LINE
  5
509
100
AcDbEntity
  8
RACCORDO
100
AcDbLine
 62
250
  6
CONTINUOUS
 10
-62.4137178909
 20
-4.7395226037
 11
-61.2268028598
 21
-4.7602402826
  0
LINE
  5
50A
100
AcDbEntity
  8
DRAFT
100
AcDbLine
 62
7
  6
CONTINUOUS
 10
-61.5703780317
 20
-1.9620450584
 11
-62.1615995476
 21
-1.8577967536
  0
LINE
  5
50B
100
AcDbEntity
  8
CURVE
100
AcDbLine
 62
7
420
4080451
  6
CONTINUOUS
 10
-49.6287081439
 20
-4.9285712242
 11
-48.1291650237
 21
-5.3571431637
  0
LINE
  5
50C
100
AcDbEntity
  8
0
100
AcDbLine
 62
250
  6
CONTINUOUS
 10
-38.7970011667
 20
-11.3571429014
 11
-38.6112868727
 21
-11.5428570986
  0
LINE
  5
50D
100
AcDbEntity
  8
0
100
AcDbLine
 62
7
  6
CONTINUOUS
 10
-56.1147473919
 20
5.9
 11
-56.3856437981
 21
6.1709376713
  0
LINE
  5
50E
100
AcDbEntity
  8
0
100
AcDbLine
 62
7
  6
CONTINUOUS
 10
-55.6013423127
 20
5.9
 11
-55.8324748234
 21
6.1311677186
  0
LINE
  5
50F
100
AcDbEntity
  8
0
100
AcDbLine
 62
7
  6
CONTINUOUS
 10
-55.9208473291
 20
6.219553686
 11
-56.074394588
 21
6.3731243344
  0
LINE
  5
510
100
AcDbEntity
  8
0
100
AcDbLine
 62
7
  6
CONTINUOUS
 10
-55.0879372335
 20
5.9
 11
-55.3172618969
 21
6.1293595959
  0
LINE
  5
511
100
AcDbEntity
  8
0
100
AcDbLine
 62
7
  6
CONTINUOUS
 10
-55.6098937959
 20
6.422036071
 11
-55.7631453778
 21
6.5753109974
  0
LINE
  5
512
100
AcDbEntity
  8
0
100
AcDbLine
 62
7
  6
CONTINUOUS
 10
-56.2953363128
 20
7.107583
 11
-56.4107496136
 21
7.2230138815
  0
LINE
  5
513
100
AcDbEntity
  8
0
100
AcDbLine
 62
7
  6
CONTINUOUS
 10
-54.6112868727
 20
5.9367603171
 11
-54.8020489704
 21
6.1275514732
  0
LINE
  5
514
100
AcDbEntity
  8
0
100
AcDbLine
 62
7
  6
CONTINUOUS
 10
-55.2989402627
 20
6.624518456
 11
-55.4518961677
 21
6.7774976605
  0
LINE
  5
515
100
AcDbEntity
  8
0
100
AcDbLine
 62
7
  6
CONTINUOUS
 10
-55.7819312336
 20
7.107583
 11
-56.0087966756
 21
7.334483
  0
LINE
  5
516
100
AcDbEntity
  8
0
100
AcDbLine
 62
7
  6
CONTINUOUS
 10
-54.9879867294
 20
6.827000841
 11
-55.1406469576
 21
6.9796843236
  0
LINE
  5
517
100
AcDbEntity
  8
0
100
AcDbLine
 62
7
  6
CONTINUOUS
 10
-55.2685261544
 20
7.107583
 11
-55.4953915964
 21
7.334483
  0
LINE
  5
518
100
AcDbEntity
  8
0
100
AcDbLine
 62
7
  6
CONTINUOUS
 10
-55.9969431961
 20
7.836111
 11
-56.4107496136
 21
8.2499804519
  0
LINE
  5
519
100
AcDbEntity
  8
0
100
AcDbLine
 62
7
  6
CONTINUOUS
 10
-54.6770331962
 20
7.029483226
 11
-54.9819865172
 21
7.334483
  0
LINE
  5
51A
100
AcDbEntity
  8
0
100
AcDbLine
 62
7
  6
CONTINUOUS
 10
-55.4835381169
 20
7.836111
 11
-55.7230116383
 21
8.075621
  0
LINE
  5
51B
100
AcDbEntity
  8
0
100
AcDbLine
 62
7
  6
CONTINUOUS
 10
-56.2091310426
 20
8.5618144539
 11
-56.4107496136
 21
8.7634637371
  0
LINE
  5
51C
100
AcDbEntity
  8
0
100
AcDbLine
 62
7
  6
CONTINUOUS
 10
-54.9701330377
 20
7.836111
 11
-55.2096065591
 21
8.075621
  0
LINE
  5
51D
100
AcDbEntity
  8
0
100
AcDbLine
 62
7
  6
CONTINUOUS
 10
-55.4353957837
 20
8.3014446186
 11
-55.6370303499
 21
8.5031098994
  0
LINE
  5
51E
100
AcDbEntity
  8
0
100
AcDbLine
 62
7
  6
CONTINUOUS
 10
-56.2091310426
 20
9.0752977391
 11
-56.2128147424
 21
9.078982
  0
LWPOLYLINE
  5
51F
100
AcDbEntity
  8
ASSI
100
AcDbPolyline
 62
250
  6
CONTINUOUS
 90
5
 70
0
 10
-44.6738626165
 20
17.4320489472
 10
-44.6739590338
 20
17.4491454001
 10
-44.6741509076
 20
17.4614824457
 10
-44.6744363261
 20
17.4689371508
 10
-44.674812445
 20
17.4714352326
  0
LINE
  5
520
100
AcDbEntity
  8
CURVE
100
AcDbLine
 62
7
420
4080451
  6
CONTINUOUS
 10
-44.5175883963
 20
-11.266475
 11
-44.5175883963
 21
-12.278463
  0
LINE
  5
521
100
AcDbEntity
  8
0
100
AcDbLine
 62
250
  6
CONTINUOUS
 10
-44.1112868727
 20
15.092362
 11
-44.1112868727
 21
10.907638
  0
LINE
  5
522
100
AcDbEntity
  8
0
100
AcDbLine
 62
250
  6
CONTINUOUS
 10
-43.1147498727
 20
15.001309
 11
-43.1147498727
 21
13.890265
  0
LINE
  5
523
100
AcDbEntity
  8
0
100
AcDbLine
 62
250
  6
CONTINUOUS
 10
-43.1147498727
 20
11.112485
 11
-43.1147498727
 21
10.001442
  0
LINE
  5
524
100
AcDbEntity
  8
0
100
AcDbLine
 62
250
  6
CONTINUOUS
 10
-43.1147498727
 20
11.667834
 11
-43.1147498727
 21
13.334571
  0
LWPOLYLINE
  5
525
100
AcDbEntity
  8
0
100
AcDbPolyline
 62
7
  6
CONTINUOUS
 90
4
 70
0
 43
0.3500000006
 10
-42.7255727234
 20
34.6071433868
 10
-42.7255727234
 20
35.2500013733
 10
-41.2255722656
 20
35.2500013733
 10
-42.0827147369
 20
32.2500004578
  0
LINE
  5
526
100
AcDbEntity
  8
0
100
AcDbLine
 62
250
  6
CONTINUOUS
 10
-42.5592278727
 20
10.556791
 11
-42.5592278727
 21
11.112485
  0
LINE
  5
527
100
AcDbEntity
  8
0
100
AcDbLine
 62
250
  6
CONTINUOUS
 10
-42.5592278727
 20
12.223528
 11
-42.5592278727
 21
12.779222
  0
LINE
  5
528
100
AcDbEntity
  8
0
100
AcDbLine
 62
250
  6
CONTINUOUS
 10
-42.5592278727
 20
14.445615
 11
-42.5592278727
 21
15.001309
  0
LWPOLYLINE
  5
529
100
AcDbEntity
  8
ASSI
100
AcDbPolyline
 62
250
  6
CONTINUOUS
 90
3
 70
0
 10
-44.6741509076
 20
17.3541332142
 10
-44.6739590338
 20
17.3843049807
 10
-44.6738626165
 20
17.4320489472
  0
LWPOLYLINE
  5
52A
100
AcDbEntity
  8
CURVE
100
AcDbPolyline
 62
7
420
4080451
  6
CONTINUOUS
 90
56
 70
0
 10
-43.4803624437
 20
-12.0
 10
-43.481479682
 20
-12.1304864843
 10
-43.4847827212
 20
-12.2591191098
 10
-43.4901985477
 20
-12.3858875695
 10
-43.4976541478
 20
-12.5107815566
 10
-43.5070765078
 20
-12.633790764
 10
-43.5183926142
 20
-12.7549048847
 10
-43.5315384352
 20
-12.8741205911
 10
-43.5464858673
 20
-12.9914624725
 10
-43.5632157886
 20
-13.1069620973
 10
-43.5817090777
 20
-13.2206510343
 10
-43.6019466127
 20
-13.3325608519
 10
-43.6239092721
 20
-13.4427231187
 10
-43.647577817
 20
-13.5511512125
 10
-43.6729325394
 20
-13.6577857477
 10
-43.6999536145
 20
-13.762549148
 10
-43.7286212171
 20
-13.865363837
 10
-43.7589155222
 20
-13.9661522382
 10
-43.7908167047
 20
-14.0648367755
 10
-43.8243185487
 20
-14.1613544225
 10
-43.859469275
 20
-14.2557003541
 10
-43.8963307136
 20
-14.3478842953
 10
-43.9349646943
 20
-14.4379159709
 10
-43.9754330471
 20
-14.5258051061
 10
-44.0177976019
 20
-14.6115614258
 10
-44.0508479217
 20
-14.6744652782
 10
-44.0849976784
 20
-14.7360615312
 10
-44.1202449161
 20
-14.7962368239
 10
-44.1565876787
 20
-14.8548777951
 10
-44.1940342288
 20
-14.9118836944
 10
-44.2326337041
 20
-14.9672042135
 10
-44.2724454609
 20
-15.0208016545
 10
-44.3135288552
 20
-15.0726383196
 10
-44.3559315081
 20
-15.1226524684
 10
-44.3996540982
 20
-15.1706861903
 10
-44.444685569
 20
-15.2165575322
 10
-44.4910148638
 20
-15.2600845409
 10
-44.5289985233
 20
-15.2930950301
 10
-44.5677593758
 20
-15.3243899836
 10
-44.607251083
 20
-15.3538706889
 10
-44.6474273067
 20
-15.3814384336
 10
-44.6882417089
 20
-15.406994505
 10
-44.7227188506
 20
-15.426689738
 10
-44.757646616
 20
-15.4449008062
 10
-44.7930646285
 20
-15.4616090904
 10
-44.8289994702
 20
-15.4767879911
 10
-44.8654255576
 20
-15.4903789863
 10
-44.9023042656
 20
-15.5023155736
 10
-44.9302342942
 20
-15.5101425969
 10
-44.9583641044
 20
-15.5169753131
 10
-44.9866728657
 20
-15.5227902158
 10
-45.0151887877
 20
-15.5275749532
 10
-45.043892055
 20
-15.5313194379
 10
-45.0725217101
 20
-15.5340114861
 10
-45.1009819565
 20
-15.5356378993
 10
-45.1300787831
 20
-15.5361835155
  0
LINE
  5
52B
100
AcDbEntity
  8
ASSI
100
AcDbLine
 62
250
  6
CONTINUOUS
 10
-42.9758607765
 20
-19.4
 11
-42.9745490283
 21
-19.3248385488
  0
LWPOLYLINE
  5
52C
100
AcDbEntity
  8
0
100
AcDbPolyline
 62
250
  6
CONTINUOUS
 90
86
 70
0
 10
-45.1111320178
 20
-5.9969064549
 10
-45.1096845648
 20
-5.9806128259
 10
-45.1081250944
 20
-5.9642019823
 10
-45.1064110299
 20
-5.9476749972
 10
-45.104499794
 20
-5.9310329441
 10
-45.1029296132
 20
-5.9186096243
 10
-45.1012166594
 20
-5.9061435377
 10
-45.099350251
 20
-5.8936547239
 10
-45.0973197061
 20
-5.8811632224
 10
-45.0951143429
 20
-5.8686890727
 10
-45.0927234796
 20
-5.8562523143
 10
-45.0901364345
 20
-5.8438729868
 10
-45.0873425258
 20
-5.8315711298
 10
-45.0843310717
 20
-5.8193667827
 10
-45.0810913904
 20
-5.8072799851
 10
-45.0776128001
 20
-5.7953307765
 10
-45.073884619
 20
-5.7835391964
 10
-45.0698961654
 20
-5.7719252843
 10
-45.0656367575
 20
-5.7605090799
 10
-45.0610957134
 20
-5.7493106226
 10
-45.0562623514
 20
-5.738349952
 10
-45.0511259897
 20
-5.7276471075
 10
-45.0456759465
 20
-5.7172221288
 10
-45.0399015401
 20
-5.7070950553
 10
-45.0337920886
 20
-5.6972859266
 10
-45.0273369102
 20
-5.6878147821
 10
-45.0205253233
 20
-5.6787016616
 10
-45.0133466459
 20
-5.6699666043
 10
-45.0057901964
 20
-5.66162965
 10
-44.9978452928
 20
-5.6537108381
 10
-44.9895012535
 20
-5.6462302082
 10
-44.9807473966
 20
-5.6392077997
 10
-44.9715730404
 20
-5.6326636523
 10
-44.9619675031
 20
-5.6266178054
 10
-44.952170987
 20
-5.6212129571
 10
-44.9419946565
 20
-5.6163108303
 10
-44.9314799476
 20
-5.6119199864
 10
-44.9206682964
 20
-5.6080489867
 10
-44.909601139
 20
-5.6047063927
 10
-44.8983199114
 20
-5.6019007658
 10
-44.8868660498
 20
-5.5996406672
 10
-44.8752809902
 20
-5.5979346585
 10
-44.8636061687
 20
-5.5967913009
 10
-44.8518830213
 20
-5.5962191559
 10
-44.8401529842
 20
-5.5962267848
 10
-44.8284574935
 20
-5.5968227491
 10
-44.8168379851
 20
-5.5980156101
 10
-44.8053358952
 20
-5.5998139291
 10
-44.7939926598
 20
-5.6022262676
 10
-44.7830110298
 20
-5.6052052426
 10
-44.7722344507
 20
-5.6087628905
 10
-44.76167367
 20
-5.6128739141
 10
-44.7513394355
 20
-5.6175130162
 10
-44.7412424945
 20
-5.6226548995
 10
-44.7313935948
 20
-5.6282742669
 10
-44.7218034838
 20
-5.6343458211
 10
-44.7124829091
 20
-5.640844265
 10
-44.7034426184
 20
-5.6477443012
 10
-44.694693359
 20
-5.6550206326
 10
-44.6862458787
 20
-5.6626479619
 10
-44.6781109249
 20
-5.670600992
 10
-44.6702992453
 20
-5.6788544257
 10
-44.6628215873
 20
-5.6873829656
 10
-44.6556886987
 20
-5.6961613147
 10
-44.6469249021
 20
-5.7079337318
 10
-44.6387437879
 20
-5.7200612131
 10
-44.6311248233
 20
-5.7325178874
 10
-44.6240474754
 20
-5.7452778833
 10
-44.6174912112
 20
-5.7583153294
 10
-44.6114354979
 20
-5.7716043545
 10
-44.6058598027
 20
-5.7851190872
 10
-44.6007435926
 20
-5.7988336562
 10
-44.5960663348
 20
-5.8127221902
 10
-44.5918074964
 20
-5.8267588179
 10
-44.5879465446
 20
-5.8409176679
 10
-44.5844629463
 20
-5.8551728689
 10
-44.5808867336
 20
-5.8717425217
 10
-44.577801088
 20
-5.8883911307
 10
-44.5752197232
 20
-5.9051034629
 10
-44.5731563529
 20
-5.921864286
 10
-44.5716246908
 20
-5.9386583671
 10
-44.5706384506
 20
-5.9554704736
 10
-44.570211346
 20
-5.9722853729
 10
-44.5703570907
 20
-5.9890878323
 10
-44.5710893984
 20
-6.0058626192
 10
-44.5724219829
 20
-6.0225945008
  0
LWPOLYLINE
  5
52D
100
AcDbEntity
  8
0
100
AcDbPolyline
 62
250
  6
CONTINUOUS
 90
35
 70
0
 10
-44.5724219829
 20
-6.0225945008
 10
-44.5739233335
 20
-6.0361353365
 10
-44.5757645483
 20
-6.0496393831
 10
-44.5779378741
 20
-6.0631033365
 10
-44.580435558
 20
-6.0765238925
 10
-44.5832498469
 20
-6.0898977469
 10
-44.5863729878
 20
-6.1032215956
 10
-44.5897972277
 20
-6.1164921346
 10
-44.5935148136
 20
-6.1297060596
 10
-44.5975179924
 20
-6.1428600665
 10
-44.6017990112
 20
-6.1559508511
 10
-44.6063501169
 20
-6.1689751094
 10
-44.6111635566
 20
-6.1819295371
 10
-44.616231577
 20
-6.1948108302
 10
-44.6215464254
 20
-6.2076156844
 10
-44.6271003486
 20
-6.2203407957
 10
-44.6328855936
 20
-6.2329828599
 10
-44.6388944075
 20
-6.2455385728
 10
-44.6451190371
 20
-6.2580046304
 10
-44.6515517295
 20
-6.2703777285
 10
-44.6581847316
 20
-6.2826545628
 10
-44.6650102904
 20
-6.2948318294
 10
-44.672020653
 20
-6.306906224
 10
-44.6792080663
 20
-6.3188744425
 10
-44.6865647772
 20
-6.3307331808
 10
-44.6940830328
 20
-6.3424791347
 10
-44.70175508
 20
-6.3541090001
 10
-44.7095731659
 20
-6.3656194728
 10
-44.7175295373
 20
-6.3770072487
 10
-44.7256164413
 20
-6.3882690237
 10
-44.7338261248
 20
-6.3994014935
 10
-44.7421508349
 20
-6.4104013541
 10
-44.7505828186
 20
-6.4212653014
 10
-44.7591143227
 20
-6.4319900311
 10
-44.7677375943
 20
-6.4425722392
  0
LWPOLYLINE
  5
52E
100
AcDbEntity
  8
0
100
AcDbPolyline
 62
250
  6
CONTINUOUS
 90
83
 70
0
 10
-45.5394469149
 20
-5.5970629799
 10
-45.5507324695
 20
-5.6179897488
 10
-45.5618502373
 20
-5.6390174185
 10
-45.5727570326
 20
-5.6601609883
 10
-45.5834096696
 20
-5.6814354576
 10
-45.5937649624
 20
-5.7028558254
 10
-45.6037797253
 20
-5.724437091
 10
-45.6134107724
 20
-5.7461942538
 10
-45.622614918
 20
-5.7681423128
 10
-45.6313489762
 20
-5.7902962675
 10
-45.6395697613
 20
-5.8126711169
 10
-45.6472340873
 20
-5.8352818604
 10
-45.6542987686
 20
-5.8581434972
 10
-45.6607206194
 20
-5.8812710265
 10
-45.664543256
 20
-5.8965133431
 10
-45.6680531305
 20
-5.9118622538
 10
-45.6712297082
 20
-5.9273046994
 10
-45.6740524546
 20
-5.9428276203
 10
-45.6765008351
 20
-5.9584179573
 10
-45.678554315
 20
-5.9740626509
 10
-45.6801923598
 20
-5.9897486418
 10
-45.6813944349
 20
-6.0054628705
 10
-45.6821400056
 20
-6.0211922777
 10
-45.6824085373
 20
-6.036923804
 10
-45.6821794956
 20
-6.05264439
 10
-45.6814323456
 20
-6.0683409762
 10
-45.6801465529
 20
-6.0840005035
 10
-45.6783015829
 20
-6.0996099122
 10
-45.6758769009
 20
-6.1151561431
 10
-45.6728519724
 20
-6.1306261368
 10
-45.6692062627
 20
-6.1460068338
 10
-45.6649192373
 20
-6.1612851749
 10
-45.6599703615
 20
-6.1764481005
 10
-45.6543391007
 20
-6.1914825513
 10
-45.6492164113
 20
-6.2036697019
 10
-45.64363631
 20
-6.2157362626
 10
-45.6376114739
 20
-6.2276562969
 10
-45.6311545799
 20
-6.2394038682
 10
-45.6242783051
 20
-6.2509530398
 10
-45.6169953264
 20
-6.2622778754
 10
-45.6093183208
 20
-6.2733524381
 10
-45.6012599654
 20
-6.2841507915
 10
-45.5928329371
 20
-6.294646999
 10
-45.5840499129
 20
-6.3048151241
 10
-45.5749235697
 20
-6.31462923
 10
-45.5654665847
 20
-6.3240633803
 10
-45.5556916347
 20
-6.3330916383
 10
-45.5456113968
 20
-6.3416880675
 10
-45.535238548
 20
-6.3498267313
 10
-45.5245857652
 20
-6.3574816932
 10
-45.5136657255
 20
-6.3646270165
 10
-45.5024911058
 20
-6.3712367646
 10
-45.4910745831
 20
-6.377285001
 10
-45.4794288344
 20
-6.3827457891
 10
-45.4675665368
 20
-6.3875931923
 10
-45.4555003671
 20
-6.3918012741
 10
-45.4432430025
 20
-6.3953440978
 10
-45.4308071198
 20
-6.3981957269
 10
-45.4189026316
 20
-6.4002370746
 10
-45.4068826159
 20
-6.4016436597
 10
-45.3947797348
 20
-6.4024215227
 10
-45.3826266504
 20
-6.4025767036
 10
-45.3704560249
 20
-6.4021152428
 10
-45.3583005204
 20
-6.4010431805
 10
-45.3461927988
 20
-6.399366557
 10
-45.3341655225
 20
-6.3970914125
 10
-45.3222513535
 20
-6.3942237873
 10
-45.3104829538
 20
-6.3907697217
 10
-45.2988929857
 20
-6.3867352558
 10
-45.2875141111
 20
-6.38212643
 10
-45.2763789923
 20
-6.3769492846
 10
-45.2647651199
 20
-6.3707882558
 10
-45.2534982278
 20
-6.364012427
 10
-45.2426085693
 20
-6.3566512726
 10
-45.2321263981
 20
-6.348734267
 10
-45.2220819676
 20
-6.3402908845
 10
-45.2125055314
 20
-6.3313505996
 10
-45.2034273429
 20
-6.3219428866
 10
-45.1948776555
 20
-6.3120972199
 10
-45.186886723
 20
-6.3018430739
 10
-45.1794847986
 20
-6.2912099229
 10
-45.1727021359
 20
-6.2802272414
 10
-45.1665689885
 20
-6.2689245037
  0
LWPOLYLINE
  5
52F
100
AcDbEntity
  8
0
100
AcDbPolyline
 62
250
  6
CONTINUOUS
 90
7
 70
0
 10
-46.3182139611
 20
-5.018915
 10
-46.5081576393
 20
-5.3154347838
 10
-46.6265407945
 20
-5.6470893241
 10
-46.6672951214
 20
-5.9968780522
 10
-46.6283315585
 20
-6.3468708431
 10
-46.5092716098
 20
-6.6840089733
 10
-46.3182130925
 20
-6.9828040672
  0
LINE
  5
530
100
AcDbEntity
  8
CURVE
100
AcDbLine
 62
7
420
4080451
  6
CONTINUOUS
 10
-48.486199101
 20
-3.9642856121
 11
-48.7004195563
 21
-4.2500002384
  0
LWPOLYLINE
  5
531
100
AcDbEntity
  8
ASSI
100
AcDbPolyline
 62
7
  6
CONTINUOUS
 90
10
 70
0
 10
-37.4025606694
 20
7.3086513684
 10
-37.3168031267
 20
7.3894967179
 10
-37.2374650729
 20
7.4685656769
 10
-37.1645793909
 20
7.5435951636
 10
-37.0965052145
 20
7.611570237
 10
-37.0349165528
 20
7.6714670125
 10
-36.9848428287
 20
7.7231769726
 10
-36.9479967099
 20
7.7641451717
 10
-36.9227284794
 20
7.7906646314
 10
-36.9090398692
 20
7.7999607784
  0
LWPOLYLINE
  5
532
100
AcDbEntity
  8
0
100
AcDbPolyline
 62
250
  6
CONTINUOUS
 90
17
 70
0
 10
-45.1112868727
 20
-5.0173683068
 10
-45.302118633
 20
-5.0360823748
 10
-45.485681671
 20
-5.0915117656
 10
-45.6549841273
 20
-5.181545191
 10
-45.806006581
 20
-5.3051744664
 10
-45.9277141839
 20
-5.4533662974
 10
-46.0183243242
 20
-5.6223792364
 10
-46.0743856898
 20
-5.805775633
 10
-46.0937689062
 20
-6.0
 10
-46.0750576885
 20
-6.1908608294
 10
-46.0196367399
 20
-6.3744518291
 10
-45.929617027
 20
-6.543780075
 10
-45.806006581
 20
-6.6948255336
 10
-45.6578373202
 20
-6.816551676
 10
-45.4888501228
 20
-6.9071756188
 10
-45.3054816584
 20
-6.9632455241
 10
-45.1112867868
 20
-6.9826316932
  0
LWPOLYLINE
  5
533
100
AcDbEntity
  8
0
100
AcDbPolyline
 62
250
  6
CONTINUOUS
 90
17
 70
0
 10
-45.1112868727
 20
-4.443844809
 10
-45.4134996311
 20
-4.4734815428
 10
-45.7042011995
 20
-4.5612628904
 10
-45.9723188454
 20
-4.7038452875
 10
-46.2114871695
 20
-4.8996321118
 10
-46.4042307166
 20
-5.1343176902
 10
-46.5477264344
 20
-5.4019768387
 10
-46.6365086156
 20
-5.6924145037
 10
-46.6672050537
 20
-6.0
 10
-46.6375728337
 20
-6.3022587939
 10
-46.5498048556
 20
-6.5930046443
 10
-46.4072441745
 20
-6.861163132
 10
-46.2114871695
 20
-7.1003678882
 10
-45.9768373349
 20
-7.2931407955
 10
-45.7092189521
 20
-7.4366583718
 10
-45.4188255222
 20
-7.525454077
 10
-45.1112867366
 20
-7.556155191
  0
LINE
  5
534
100
AcDbEntity
  8
ASSI
100
AcDbLine
 62
7
  6
CONTINUOUS
 10
-31.4112868727
 20
-4.374955
 11
-31.2812868727
 21
-4.374955
  0
LINE
  5
535
100
AcDbEntity
  8
ASSI
100
AcDbLine
 62
7
  6
CONTINUOUS
 10
-31.4112868727
 20
-3.4660789222
 11
-31.2812868727
 21
-3.4660789222
  0
LINE
  5
536
100
AcDbEntity
  8
ASSI
100
AcDbLine
 62
7
  6
CONTINUOUS
 10
-31.4112868727
 20
-3.4523358343
 11
-31.2812868727
 21
-3.4523358343
  0
LINE
  5
537
100
AcDbEntity
  8
ASSI
100
AcDbLine
 62
7
  6
CONTINUOUS
 10
-31.4112868727
 20
-2.7307259795
 11
-31.2812868727
 21
-2.7307259795
  0
LINE
  5
538
100
AcDbEntity
  8
ASSI
100
AcDbLine
 62
7
  6
CONTINUOUS
 10
-31.4112868727
 20
-2.689053
 11
-31.2812868727
 21
-2.689053
  0
LINE
  5
539
100
AcDbEntity
  8
ASSI
100
AcDbLine
 62
7
  6
CONTINUOUS
 10
-31.4112868727
 20
-2.6642671758
 11
-31.2812868727
 21
-2.664267
  0
LINE
  5
53A
100
AcDbEntity
  8
ASSI
100
AcDbLine
 62
7
  6
CONTINUOUS
 10
-31.4112868727
 20
-2.6031151167
 11
-31.2812868727
 21
-2.603115
  0
LINE
  5
53B
100
AcDbEntity
  8
RACCORDO
100
AcDbLine
 62
250
  6
CONTINUOUS
 10
-61.7563422829
 20
0.1785484129
 11
-61.5450679256
 21
0.1523366793
  0
LWPOLYLINE
  5
53C
100
AcDbEntity
  8
RACCORDO
100
AcDbPolyline
 62
250
  6
CONTINUOUS
 90
3
 70
0
 10
-61.7888413619
 20
0.1828040151
 10
-61.7851652257
 20
0.1822606171
 10
-61.7563422829
 20
0.1785484129
  0
LWPOLYLINE
  5
53D
100
AcDbEntity
  8
ASSI
100
AcDbPolyline
 62
7
  6
CONTINUOUS
 90
10
 70
0
 10
-36.9090434496
 20
-7.7999608409
 10
-36.9226358334
 20
-7.7907043689
 10
-36.9478222789
 20
-7.7642796726
 10
-36.9846016935
 20
-7.7234206628
 10
-37.0346140149
 20
-7.6717925092
 10
-37.0961580247
 20
-7.6119267304
 10
-37.1642365914
 20
-7.5439353196
 10
-37.2371866404
 20
-7.4688435563
 10
-37.3166388745
 20
-7.38965922
 10
-37.4025606694
 20
-7.3086513684
  0
LINE
  5
53E
100
AcDbEntity
  8
0
100
AcDbLine
 62
7
  6
CONTINUOUS
 10
-54.6112868727
 20
7.9906934579
 11
-54.812904444
 21
8.1923417412
  0
LINE
  5
53F
100
AcDbEntity
  8
0
100
AcDbLine
 62
7
  6
CONTINUOUS
 10
-55.4353957837
 20
8.8149279038
 11
-55.6313520303
 21
9.010914
  0
LINE
  5
540
100
AcDbEntity
  8
0
100
AcDbLine
 62
7
  6
CONTINUOUS
 10
-56.0414640679
 20
9.4210885092
 11
-56.2302102555
 21
9.6098634482
  0
LINE
  5
541
100
AcDbEntity
  8
0
100
AcDbLine
 62
7
  6
CONTINUOUS
 10
-54.6112868727
 20
8.5041767431
 11
-54.812904444
 21
8.7058250264
  0
LINE
  5
542
100
AcDbEntity
  8
0
100
AcDbLine
 62
7
  6
CONTINUOUS
 10
-55.6620049473
 20
9.5550548715
 11
-55.844085865
 21
9.7371635253
  0
LINE
  5
543
100
AcDbEntity
  8
0
100
AcDbLine
 62
7
  6
CONTINUOUS
 10
-54.6112868727
 20
9.0176600282
 11
-54.6801583534
 21
9.086542
  0
LINE
  5
544
100
AcDbEntity
  8
0
100
AcDbLine
 62
7
  6
CONTINUOUS
 10
-55.2825458267
 20
9.6890212338
 11
-55.4579614745
 21
9.8644636024
  0
LINE
  5
545
100
AcDbEntity
  8
0
100
AcDbLine
 62
7
  6
CONTINUOUS
 10
-56.0685097787
 20
10.4751049102
 11
-56.4107436154
 21
10.8173908788
  0
LINE
  5
546
100
AcDbEntity
  8
0
100
AcDbLine
 62
7
  6
CONTINUOUS
 10
-54.9030867061
 20
9.8229875962
 11
-55.071837084
 21
9.9917636795
  0
LINE
  5
547
100
AcDbEntity
  8
0
100
AcDbLine
 62
7
  6
CONTINUOUS
 10
-55.2989829809
 20
10.2189441771
 11
-55.6467229255
 21
10.5667370922
  0
LINE
  5
548
100
AcDbEntity
  8
0
100
AcDbLine
 62
7
  6
CONTINUOUS
 10
-56.2235529659
 20
11.143655
 11
-56.4107496136
 21
11.330880163
  0
LINE
  5
549
100
AcDbEntity
  8
0
100
AcDbLine
 62
7
  6
CONTINUOUS
 10
-54.6112818742
 20
10.0446215994
 11
-54.8497479612
 21
10.2831240115
  0
LINE
  5
54A
100
AcDbEntity
  8
0
100
AcDbLine
 62
7
  6
CONTINUOUS
 10
-55.7101478867
 20
11.143655
 11
-55.9496044107
 21
11.383148
  0
LINE
  5
54B
100
AcDbEntity
  8
0
100
AcDbLine
 62
7
  6
CONTINUOUS
 10
-56.2091310426
 20
11.6427141651
 11
-56.4107496136
 21
11.8443634482
  0
LINE
  5
54C
100
AcDbEntity
  8
0
100
AcDbLine
 62
7
  6
CONTINUOUS
 10
-55.1967428075
 20
11.143655
 11
-55.6370303499
 21
11.5840096105
  0
LINE
  5
54D
100
AcDbEntity
  8
0
100
AcDbLine
 62
7
  6
CONTINUOUS
 10
-56.2091310426
 20
12.1561974503
 11
-56.4107496136
 21
12.3578467334
  0
LINE
  5
54E
100
AcDbEntity
  8
0
100
AcDbLine
 62
7
  6
CONTINUOUS
 10
-54.6833377283
 20
11.143655
 11
-54.9227942523
 21
11.383148
  0
LINE
  5
54F
100
AcDbEntity
  8
0
100
AcDbLine
 62
7
  6
CONTINUOUS
 10
-55.4353957837
 20
11.895827615
 11
-55.6370303499
 21
12.0974928957
  0
LINE
  5
550
100
AcDbEntity
  8
0
100
AcDbLine
 62
250
  6
CONTINUOUS
 10
-53.0755725742
 20
15.8999998808
 11
-52.9684297681
 21
15.7214284182
  0
LWPOLYLINE
  5
551
100
AcDbEntity
  8
ASSI
100
AcDbPolyline
 62
250
  6
CONTINUOUS
 90
5
 70
0
 10
-46.1093045273
 20
17.496474385
 10
-46.1089288091
 20
17.4939787645
 10
-46.1086436981
 20
17.4865313773
 10
-46.1084520324
 20
17.474206358
 10
-46.1083557202
 20
17.4571263965
  0
LINE
  5
552
100
AcDbEntity
  8
0
100
AcDbLine
 62
250
  6
CONTINUOUS
 10
-41.9112868727
 20
-12.0380951643
 11
-41.9112868727
 21
-12.5952380657
  0
LINE
  5
553
100
AcDbEntity
  8
0
100
AcDbLine
 62
250
  6
CONTINUOUS
 10
-41.9112868727
 20
-13.3071429014
 11
-41.9112868727
 21
-13.7714285493
  0
LINE
  5
554
100
AcDbEntity
  8
0
100
AcDbLine
 62
250
  6
CONTINUOUS
 10
-41.3541440487
 20
-12.5952380657
 11
-41.3541440487
 21
-12.2238096714
  0
LINE
  5
555
100
AcDbEntity
  8
0
100
AcDbLine
 62
250
  6
CONTINUOUS
 10
-40.9827154607
 20
-14.266666615
 11
-40.9827154607
 21
-14.7619047582
  0
LINE
  5
556
100
AcDbEntity
  8
0
100
AcDbLine
 62
250
  6
CONTINUOUS
 10
-40.8926628727
 20
12.779222
 11
-40.8926628727
 21
12.223528
  0
LINE
  5
557
100
AcDbEntity
  8
0
100
AcDbLine
 62
250
  6
CONTINUOUS
 10
-40.8926628727
 20
11.112485
 11
-40.8926628727
 21
10.556791
  0
LINE
  5
558
100
AcDbEntity
  8
0
100
AcDbLine
 62
250
  6
CONTINUOUS
 10
-40.6112868727
 20
-13.7714285493
 11
-40.6112868727
 21
-13.3071429014
  0
LINE
  5
559
100
AcDbEntity
  8
0
100
AcDbLine
 62
250
  6
CONTINUOUS
 10
-40.6112868727
 20
-12.5952380657
 11
-40.6112868727
 21
-12.0380951643
  0
LINE
  5
55A
100
AcDbEntity
  8
0
100
AcDbLine
 62
250
  6
CONTINUOUS
 10
-40.3369688727
 20
12.779222
 11
-40.3369688727
 21
12.223528
  0
LINE
  5
55B
100
AcDbEntity
  8
0
100
AcDbLine
 62
250
  6
CONTINUOUS
 10
-40.3369688727
 20
10.556791
 11
-40.3369688727
 21
11.112485
  0
LINE
  5
55C
100
AcDbEntity
  8
0
100
AcDbLine
 62
250
  6
CONTINUOUS
 10
-39.9112868727
 20
-11.45
 11
-39.9112868727
 21
-11.8214287043
  0
LINE
  5
55D
100
AcDbEntity
  8
0
100
AcDbLine
 62
250
  6
CONTINUOUS
 10
-39.9112868727
 20
-15.2571428239
 11
-39.9112868727
 21
-16.0089153661
  0
LWPOLYLINE
  5
55E
100
AcDbEntity
  8
0
100
AcDbPolyline
 62
250
  6
CONTINUOUS
 90
17
 70
0
 10
-45.1665689885
 20
-6.2689245037
 10
-45.1598571809
 20
-6.2549242733
 10
-45.1537997418
 20
-6.2407875088
 10
-45.1483540943
 20
-6.2265152835
 10
-45.1434776615
 20
-6.2121086708
 10
-45.1391278662
 20
-6.1975687439
 10
-45.1352621315
 20
-6.1828965761
 10
-45.1318378804
 20
-6.1680932407
 10
-45.128812536
 20
-6.153159811
 10
-45.1261435212
 20
-6.1380973604
 10
-45.1237882591
 20
-6.122906962
 10
-45.1217041725
 20
-6.1075896893
 10
-45.1198486847
 20
-6.0921466156
 10
-45.1181792185
 20
-6.076578814
 10
-45.116653197
 20
-6.0608873579
 10
-45.1152280431
 20
-6.0450733207
 10
-45.1111320178
 20
-5.9969064549
  0
LWPOLYLINE
  5
55F
100
AcDbEntity
  8
0
100
AcDbPolyline
 62
250
  6
CONTINUOUS
 90
17
 70
0
 10
-45.7971268761
 20
-5.297618
 10
-45.920653851
 20
-5.4440825465
 10
-46.0133841605
 20
-5.6117545351
 10
-46.0717857359
 20
-5.7942473919
 10
-46.0936848107
 20
-5.9880367524
 10
-46.0774812719
 20
-6.1789628934
 10
-46.0245075599
 20
-6.3631051124
 10
-45.9349175984
 20
-6.5363252763
 10
-45.8152575107
 20
-6.6859666036
 10
-45.6688152715
 20
-6.8095123951
 10
-45.5011688201
 20
-6.90225683
 10
-45.3153526534
 20
-6.9613826633
 10
-45.1249439124
 20
-6.9825697122
 10
-44.9340468504
 20
-6.9663637052
 10
-44.7467500694
 20
-6.9121118896
 10
-44.5767388955
 20
-6.8237783153
 10
-44.4255567402
 20
-6.7025730709
  0
LINE
  5
560
100
AcDbEntity
  8
CURVE
100
AcDbLine
 62
7
420
4080451
  6
CONTINUOUS
 10
-49.4144877109
 20
-6.3214287758
 11
-49.6287081439
 21
-6.5357143879
  0
LINE
  5
561
100
AcDbEntity
  8
CURVE
100
AcDbLine
 62
7
420
4080451
  6
CONTINUOUS
 10
-48.343385479
 20
-6.8571431637
 11
-48.1291650237
 21
-6.6428568363
  0
LINE
  5
562
100
AcDbEntity
  8
CURVE
100
AcDbLine
 62
7
420
4080451
  6
CONTINUOUS
 10
-48.986046845
 20
-7.6071431637
 11
-48.7718263673
 21
-7.3928568363
  0
LINE
  5
563
100
AcDbEntity
  8
CURVE
100
AcDbLine
 62
7
420
4080451
  6
CONTINUOUS
 10
-49.6287081439
 20
-8.6785712242
 11
-49.4144877109
 21
-8.4642856121
  0
LINE
  5
564
100
AcDbEntity
  8
0
100
AcDbLine
 62
7
  6
CONTINUOUS
 10
-46.8272107954
 20
-6.2209787318
 11
-46.6271420704
 21
-6.0209100068
  0
LINE
  5
565
100
AcDbEntity
  8
0
100
AcDbLine
 62
7
  6
CONTINUOUS
 10
-46.239871097
 20
-5.6336390334
 11
-45.9038500636
 21
-5.297618
  0
LINE
  5
566
100
AcDbEntity
  8
ASSI
100
AcDbLine
 62
7
  6
CONTINUOUS
 10
-31.2812868727
 20
-2.138462531
 11
-31.4112868727
 21
-2.138462531
  0
LINE
  5
567
100
AcDbEntity
  8
ASSI
100
AcDbLine
 62
7
  6
CONTINUOUS
 10
-31.4112868727
 20
-1.3778218861
 11
-31.2812868727
 21
-1.3778218861
  0
LINE
  5
568
100
AcDbEntity
  8
0
100
AcDbLine
 62
250
  6
CONTINUOUS
 10
-56.6585507741
 20
-0.367554
 11
-55.9079594637
 21
-0.367554
  0
LINE
  5
569
100
AcDbEntity
  8
0
100
AcDbLine
 62
250
  6
CONTINUOUS
 10
-52.3146142816
 20
-0.367554
 11
-51.5640229712
 21
-0.367554
  0
LWPOLYLINE
  5
56A
100
AcDbEntity
  8
0
100
AcDbPolyline
 62
250
  6
CONTINUOUS
 90
46
 70
0
 10
-54.4861721266
 20
2.1570517759
 10
-54.5409172319
 20
2.1696451329
 10
-54.5953378652
 20
2.1840171535
 10
-54.6493732416
 20
2.2001404213
 10
-54.7029625763
 20
2.2179875202
 10
-54.7560450846
 20
2.237531034
 10
-54.8085599818
 20
2.2587435465
 10
-54.860446483
 20
2.2815976413
 10
-54.9116438035
 20
2.3060659024
 10
-54.9620911585
 20
2.3321209135
 10
-55.0117277632
 20
2.3597352584
 10
-55.0604928328
 20
2.3888815209
 10
-55.1083255826
 20
2.4195322847
 10
-55.1551652279
 20
2.4516601337
 10
-55.2009509837
 20
2.4852376516
 10
-55.2456220654
 20
2.5202374222
 10
-55.2891225024
 20
2.5566296416
 10
-55.3314155812
 20
2.5943749551
 10
-55.3724694023
 20
2.6334316201
 10
-55.4122520664
 20
2.6737578943
 10
-55.4507316742
 20
2.7153120352
 10
-55.4878763263
 20
2.7580523004
 10
-55.5236541233
 20
2.8019369474
 10
-55.558033166
 20
2.8469242337
 10
-55.5909815548
 20
2.892972417
 10
-55.6224673906
 20
2.9400397548
 10
-55.652458774
 20
2.9880845045
 10
-55.6809238055
 20
3.0370649239
 10
-55.7078305858
 20
3.0869392703
 10
-55.7331472156
 20
3.1376658015
 10
-55.7568417955
 20
3.1892027749
 10
-55.7788859926
 20
3.2415044274
 10
-55.7992657394
 20
3.2945089137
 10
-55.8179705347
 20
3.3481503674
 10
-55.8349898774
 20
3.4023629224
 10
-55.8503132665
 20
3.4570807127
 10
-55.8639302009
 20
3.512237872
 10
-55.8758301794
 20
3.5677685343
 10
-55.8860027009
 20
3.6236068333
 10
-55.8944372643
 20
3.679686903
 10
-55.9011233686
 20
3.7359428771
 10
-55.9060505126
 20
3.7923088896
 10
-55.9092081952
 20
3.8487190743
 10
-55.9105859154
 20
3.905107565
 10
-55.9101731719
 20
3.9614084956
 10
-55.9079594637
 20
4.017556
  0
LINE
  5
56B
100
AcDbEntity
  8
0
100
AcDbLine
 62
250
  6
CONTINUOUS
 10
-53.6112868727
 20
11.2214285746
 11
-53.3970011711
 21
11.0071428619
  0
LINE
  5
56C
100
AcDbEntity
  8
0
100
AcDbLine
 62
250
  6
CONTINUOUS
 10
-53.3970011711
 20
12.078571403
 11
-53.6112868727
 21
12.2928571045
  0
LINE
  5
56D
100
AcDbEntity
  8
0
100
AcDbLine
 62
250
  6
CONTINUOUS
 10
-52.1112868727
 20
11.3285714477
 11
-52.3255725965
 21
11.5428571492
  0
LINE
  5
56E
100
AcDbEntity
  8
0
100
AcDbLine
 62
250
  6
CONTINUOUS
 10
-53.6112868727
 20
13.578571403
 11
-53.3970011711
 21
13.3642857909
  0
LINE
  5
56F
100
AcDbEntity
  8
0
100
AcDbLine
 62
250
  6
CONTINUOUS
 10
-52.5398583204
 20
12.721428597
 11
-52.1112868727
 21
12.2928571045
  0
LINE
  5
570
100
AcDbEntity
  8
0
100
AcDbLine
 62
7
  6
CONTINUOUS
 10
-54.6112868727
 20
11.5850764542
 11
-54.812904444
 21
11.7867247375
  0
LINE
  5
571
100
AcDbEntity
  8
0
100
AcDbLine
 62
7
  6
CONTINUOUS
 10
-56.0366162867
 20
13.0106229859
 11
-56.1477203772
 21
13.1217440007
  0
LINE
  5
572
100
AcDbEntity
  8
0
100
AcDbLine
 62
7
  6
CONTINUOUS
 10
-54.6112868727
 20
12.0985597394
 11
-54.812904444
 21
12.3002080227
  0
LINE
  5
573
100
AcDbEntity
  8
0
100
AcDbLine
 62
7
  6
CONTINUOUS
 10
-55.5232112075
 20
13.0106229859
 11
-55.634315298
 21
13.1217440007
  0
LINE
  5
574
100
AcDbEntity
  8
0
100
AcDbLine
 62
7
  6
CONTINUOUS
 10
-55.0445479259
 20
13.0453700756
 11
-55.1379357349
 21
13.1387721102
  0
LINE
  5
575
100
AcDbEntity
  8
0
100
AcDbLine
 62
7
  6
CONTINUOUS
 10
-56.2774838799
 20
14.2784938404
 11
-56.388586929
 21
14.3896138136
  0
LINE
  5
576
100
AcDbEntity
  8
0
100
AcDbLine
 62
7
  6
CONTINUOUS
 10
-54.7163895943
 20
13.2306450416
 11
-54.794960021
 21
13.3092274367
  0
LINE
  5
577
100
AcDbEntity
  8
0
100
AcDbLine
 62
7
  6
CONTINUOUS
 10
-55.7640788007
 20
14.2784938404
 11
-55.8751818498
 21
14.3896138136
  0
LINE
  5
578
100
AcDbEntity
  8
0
100
AcDbLine
 62
7
  6
CONTINUOUS
 10
-56.1932051121
 20
14.7076855198
 11
-56.3043779313
 21
14.8188752737
  0
LINE
  5
579
100
AcDbEntity
  8
0
100
AcDbLine
 62
7
  6
CONTINUOUS
 10
-56.3164719984
 20
14.830971183
 11
-56.4124276232
 21
14.9269414245
  0
LINE
  5
57A
100
AcDbEntity
  8
0
100
AcDbLine
 62
7
  6
CONTINUOUS
 10
-54.5724092991
 20
13.6001260993
 11
-54.6628596146
 21
13.6905901928
  0
LINE
  5
57B
100
AcDbEntity
  8
0
100
AcDbLine
 62
7
  6
CONTINUOUS
 10
-55.245666257
 20
14.2734856131
 11
-55.3617767706
 21
14.3896138136
  0
LINE
  5
57C
100
AcDbEntity
  8
0
100
AcDbLine
 62
7
  6
CONTINUOUS
 10
-55.6798000329
 20
14.7076855198
 11
-55.7909728521
 21
14.8188752737
  0
LINE
  5
57D
100
AcDbEntity
  8
0
100
AcDbLine
 62
7
  6
CONTINUOUS
 10
-56.3164719984
 20
15.3444544682
 11
-56.4124276232
 21
15.4404247097
  0
LINE
  5
57E
100
AcDbEntity
  8
0
100
AcDbLine
 62
7
  6
CONTINUOUS
 10
-55.1663949537
 20
14.7076855198
 11
-55.2775677729
 21
14.8188752737
  0
LINE
  5
57F
100
AcDbEntity
  8
0
100
AcDbLine
 62
7
  6
CONTINUOUS
 10
-55.4125618915
 20
14.9538899557
 11
-55.5085175163
 21
15.0498601972
  0
LINE
  5
580
100
AcDbEntity
  8
0
100
AcDbLine
 62
7
  6
CONTINUOUS
 10
-56.2187721362
 20
15.7602230088
 11
-56.2982187892
 21
15.8396817638
  0
LINE
  5
581
100
AcDbEntity
  8
0
100
AcDbLine
 62
7
  6
CONTINUOUS
 10
-54.6529898745
 20
14.7076855198
 11
-54.7641626937
 21
14.8188752737
  0
LINE
  5
582
100
AcDbEntity
  8
0
100
AcDbLine
 62
7
  6
CONTINUOUS
 10
-55.4149763759
 20
15.469788093
 11
-55.5231498898
 21
15.5779780848
  0
LINE
  5
583
100
AcDbEntity
  8
0
100
AcDbLine
 62
7
  6
CONTINUOUS
 10
-55.8228971592
 20
15.8777710141
 11
-55.9436860919
 21
15.9985783464
  0
LWPOLYLINE
  5
584
100
AcDbEntity
  8
ASSI
100
AcDbPolyline
 62
250
  6
CONTINUOUS
 90
3
 70
0
 10
-37.4023677372
 20
17.1282179135
 10
-37.4021134769
 20
16.943539473
 10
-37.402018797
 20
16.7534920715
  0
LINE
  5
585
100
AcDbEntity
  8
0
100
AcDbLine
 62
250
  6
CONTINUOUS
 10
-38.9827154607
 20
-9.5309522629
 11
-38.9827154607
 21
-10.0261903286
  0
LINE
  5
586
100
AcDbEntity
  8
0
100
AcDbLine
 62
250
  6
CONTINUOUS
 10
-38.6704038727
 20
15.001309
 11
-38.6704038727
 21
14.445615
  0
LINE
  5
587
100
AcDbEntity
  8
0
100
AcDbLine
 62
250
  6
CONTINUOUS
 10
-38.6704038727
 20
11.112485
 11
-38.6704038727
 21
10.556791
  0
LINE
  5
588
100
AcDbEntity
  8
0
100
AcDbLine
 62
250
  6
CONTINUOUS
 10
-38.6112868727
 20
-11.5428570986
 11
-38.6112868727
 21
-11.9142858028
  0
LINE
  5
589
100
AcDbEntity
  8
0
100
AcDbLine
 62
250
  6
CONTINUOUS
 10
-38.6112868727
 20
-14.4214285493
 11
-38.6112868727
 21
-14.7
  0
LINE
  5
58A
100
AcDbEntity
  8
0
100
AcDbLine
 62
250
  6
CONTINUOUS
 10
-38.1147098727
 20
13.334571
 11
-38.1147098727
 21
12.779222
  0
LINE
  5
58B
100
AcDbEntity
  8
0
100
AcDbLine
 62
250
  6
CONTINUOUS
 10
-38.1147098727
 20
12.223528
 11
-38.1147098727
 21
11.667834
  0
LINE
  5
58C
100
AcDbEntity
  8
0
100
AcDbLine
 62
250
  6
CONTINUOUS
 10
-38.1147098727
 20
10.001442
 11
-38.1147098727
 21
11.112485
  0
LINE
  5
58D
100
AcDbEntity
  8
0
100
AcDbLine
 62
250
  6
CONTINUOUS
 10
-38.1147098727
 20
13.890265
 11
-38.1147098727
 21
15.001309
  0
LINE
  5
58E
100
AcDbEntity
  8
ASSI
100
AcDbLine
 62
250
  6
CONTINUOUS
 10
-37.4025606694
 20
-19.2173699142
 11
-37.4025606695
 21
-17.2410067964
  0
LINE
  5
58F
100
AcDbEntity
  8
ASSI
100
AcDbLine
 62
250
  6
CONTINUOUS
 10
-37.4025606694
 20
-15.9935900738
 11
-37.4025606694
 21
-7.3086513684
  0
LINE
  5
590
100
AcDbEntity
  8
ASSI
100
AcDbLine
 62
250
  6
CONTINUOUS
 10
-37.4025606694
 20
7.3086513684
 11
-37.4025606694
 21
15.9938125649
  0
LINE
  5
591
100
AcDbEntity
  8
ASSI
100
AcDbLine
 62
7
  6
CONTINUOUS
 10
-36.9112868727
 20
16.8445737581
 11
-36.9112868727
 21
7.8
  0
LINE
  5
592
100
AcDbEntity
  8
ASSI
100
AcDbLine
 62
7
  6
CONTINUOUS
 10
-36.9112868727
 20
-18.8594884673
 11
-36.9112868727
 21
-7.8
  0
LWPOLYLINE
  5
593
100
AcDbEntity
  8
ASSI
100
AcDbPolyline
 62
250
  6
CONTINUOUS
 90
4
 70
0
 10
-37.402018797
 20
16.7534920715
 10
-37.4021787383
 20
16.3687541721
 10
-37.4023608658
 20
16.1790208153
 10
-37.4025598997
 20
15.9938125602
  0
LWPOLYLINE
  5
594
100
AcDbEntity
  8
ASSI
100
AcDbPolyline
 62
250
  6
CONTINUOUS
 90
6
 70
0
 10
-37.4025606695
 20
-17.2410067966
 10
-37.4022651783
 20
-17.055562225
 10
-37.4020917172
 20
-16.8574585887
 10
-37.4020418937
 20
-16.6494205877
 10
-37.4021112244
 20
-16.4342311085
 10
-37.4025606694
 20
-15.9935900739
  0
LWPOLYLINE
  5
595
100
AcDbEntity
  8
ASSI
100
AcDbPolyline
 62
250
  6
CONTINUOUS
 90
3
 70
0
 10
-37.4013749235
 20
17.253911293
 10
-37.4018900947
 20
17.1764269476
 10
-37.4023678017
 20
17.1282337982
  0
LWPOLYLINE
  5
596
100
AcDbEntity
  8
0
100
AcDbPolyline
 62
250
  6
CONTINUOUS
 90
7
 70
0
 10
-43.9060340882
 20
-6.982804
 10
-43.7160901642
 20
-6.6862843737
 10
-43.5977067342
 20
-6.3546299315
 10
-43.5569521173
 20
-6.0048412372
 10
-43.5959153901
 20
-5.654848414
 10
-43.7149750594
 20
-5.3177101851
 10
-43.906033329
 20
-5.0189149328
  0
LWPOLYLINE
  5
597
100
AcDbEntity
  8
0
100
AcDbPolyline
 62
250
  6
CONTINUOUS
 90
9
 70
0
 10
-44.4255566617
 20
-6.7025729941
 10
-44.300424024
 20
-6.553003331
 10
-44.2073191454
 20
-6.3816473498
 10
-44.1499157257
 20
-6.1952663548
 10
-44.1304787689
 20
-6.0012145024
 10
-44.1497752118
 20
-5.8071486226
 10
-44.207043662
 20
-5.6207260993
 10
-44.3000244409
 20
-5.4493027272
 10
-44.4271203729
 20
-5.2976179868
  0
LINE
  5
598
100
AcDbEntity
  8
ASSI
100
AcDbLine
 62
7
  6
CONTINUOUS
 10
-53.9905646785
 20
-21.1062064348
 11
-53.9639047336
 21
-21.0747565807
  0
LINE
  5
599
100
AcDbEntity
  8
0
100
AcDbLine
 62
250
  6
CONTINUOUS
 10
-52.2378292726
 20
-14.695685
 11
-52.0236275354
 21
-14.45785
  0
LINE
  5
59A
100
AcDbEntity
  8
0
100
AcDbLine
 62
7
  6
CONTINUOUS
 10
-45.6017036789
 20
-7.0955787554
 11
-45.4330767157
 21
-6.9269517922
  0
LINE
  5
59B
100
AcDbEntity
  8
0
100
AcDbLine
 62
7
  6
CONTINUOUS
 10
-44.2206159359
 20
-5.7144910124
 11
-44.0245369045
 21
-5.518411981
  0
LINE
  5
59C
100
AcDbEntity
  8
0
100
AcDbLine
 62
7
  6
CONTINUOUS
 10
-43.7807793359
 20
-5.2746544124
 11
-43.6229594301
 21
-5.1168345067
  0
LINE
  5
59D
100
AcDbEntity
  8
CURVE
100
AcDbLine
 62
7
420
4080451
  6
CONTINUOUS
 10
-49.200267278
 20
-6.2142856121
 11
-49.4144877109
 21
-6.3214287758
  0
LINE
  5
59E
100
AcDbEntity
  8
CURVE
100
AcDbLine
 62
7
420
4080451
  6
CONTINUOUS
 10
-48.5576059343
 20
-6.9642856121
 11
-48.343385479
 21
-6.8571431637
  0
LINE
  5
59F
100
AcDbEntity
  8
CURVE
100
AcDbLine
 62
7
420
4080451
  6
CONTINUOUS
 10
-48.1291650237
 20
-5.3571431637
 11
-49.6287081439
 21
-5.7857143879
  0
LINE
  5
5A0
100
AcDbEntity
  8
RACCORDO
100
AcDbLine
 62
250
  6
CONTINUOUS
 10
-61.7851652213
 20
-0.1822606166
 11
-61.7563422535
 21
-0.1785484092
  0
LINE
  5
5A1
100
AcDbEntity
  8
RACCORDO
100
AcDbLine
 62
250
  6
CONTINUOUS
 10
-61.7563422535
 20
-0.1785484092
 11
-61.6673022041
 21
-0.1674199897
  0
LINE
  5
5A2
100
AcDbEntity
  8
RACCORDO
100
AcDbLine
 62
250
  6
CONTINUOUS
 10
-61.6673022041
 20
-0.1674199897
 11
-61.5450679256
 21
-0.1523366793
  0
LINE
  5
5A3
100
AcDbEntity
  8
0
100
AcDbLine
 62
250
  6
CONTINUOUS
 10
-50.0224941986
 20
6.0881872694
 11
-51.2276515364
 21
6.6320796041
  0
LINE
  5
5A4
100
AcDbEntity
  8
0
100
AcDbLine
 62
250
  6
CONTINUOUS
 10
-47.6112868727
 20
5.0
 11
-48.8603428803
 21
5.5637037647
  0
LWPOLYLINE
  5
5A5
100
AcDbEntity
  8
0
100
AcDbPolyline
 62
250
  6
CONTINUOUS
 90
45
 70
0
 10
-51.2276512671
 20
6.6320802011
 10
-51.2609270553
 20
6.6475885563
 10
-51.2934263083
 20
6.663717425
 10
-51.3252007059
 20
6.6804740052
 10
-51.3563019277
 20
6.6978654947
 10
-51.3867816534
 20
6.7158990911
 10
-51.4166915625
 20
6.7345819924
 10
-51.4460833347
 20
6.7539213963
 10
-51.4750086498
 20
6.7739245007
 10
-51.5075455657
 20
6.7976065292
 10
-51.5395236171
 20
6.8221720376
 10
-51.5709256897
 20
6.8476282305
 10
-51.6017346693
 20
6.8739823127
 10
-51.6319334416
 20
6.9012414888
 10
-51.6615048924
 20
6.9294129634
 10
-51.6904319075
 20
6.9585039413
 10
-51.7186913561
 20
6.9885142548
 10
-51.7462360424
 20
7.0194142477
 10
-51.7730127541
 20
7.0511668915
 10
-51.7989682788
 20
7.0837351577
 10
-51.8240494043
 20
7.1170820179
 10
-51.8482029183
 20
7.1511704434
 10
-51.8713756083
 20
7.1859634059
 10
-51.8935213101
 20
7.2214192802
 10
-51.9146220508
 20
7.2574780539
 10
-51.9346669057
 20
7.2940751182
 10
-51.9536449498
 20
7.3311458641
 10
-51.9715452583
 20
7.3686256826
 10
-51.9883569063
 20
7.4064499648
 10
-52.0040689689
 20
7.4445541018
 10
-52.0186744708
 20
7.4828821348
 10
-52.0321822348
 20
7.5214127056
 10
-52.0446050329
 20
7.5601331063
 10
-52.0559556373
 20
7.599030629
 10
-52.0662468202
 20
7.6380925656
 10
-52.0754913538
 20
7.6773062082
 10
-52.0837020103
 20
7.7166588489
 10
-52.0900443394
 20
7.751206301
 10
-52.0955898394
 20
7.785901089
 10
-52.1003234646
 20
7.8207938581
 10
-52.1042301694
 20
7.8559352535
 10
-52.1072949081
 20
7.8913759201
 10
-52.1095026351
 20
7.9271665032
 10
-52.1108383048
 20
7.9633576479
 10
-52.1112868715
 20
7.9999999992
  0
LINE
  5
5A6
100
AcDbEntity
  8
0
100
AcDbLine
 62
250
  6
CONTINUOUS
 10
-49.5534444351
 20
6.9363708784
 11
-49.0831711015
 21
6.7096376218
  0
LINE
  5
5A7
100
AcDbEntity
  8
0
100
AcDbLine
 62
250
  6
CONTINUOUS
 10
-48.1629123476
 20
6.2659542014
 11
-47.6112868727
 21
5.999999282
  0
LINE
  5
5A8
100
AcDbEntity
  8
0
100
AcDbLine
 62
250
  6
CONTINUOUS
 10
-53.6112868727
 20
14.8642856121
 11
-53.1827154696
 21
14.4357143879
  0
LINE
  5
5A9
100
AcDbEntity
  8
0
100
AcDbLine
 62
250
  6
CONTINUOUS
 10
-52.1112868727
 20
13.6857142091
 11
-52.3255725965
 21
13.9
  0
LINE
  5
5AA
100
AcDbEntity
  8
0
100
AcDbLine
 62
250
  6
CONTINUOUS
 10
-52.2184297346
 20
15.9357143879
 11
-52.1112868727
 21
15.8285715818
  0
LWPOLYLINE
  5
5AB
100
AcDbEntity
  8
ASSI
100
AcDbPolyline
 62
7
  6
CONTINUOUS
 90
9
 70
0
 10
-53.9639047336
 20
21.0747565807
 10
-53.9906276567
 20
21.1062915074
 10
-54.0152004559
 20
21.1377341637
 10
-54.0376231313
 20
21.1690843525
 10
-54.0584778943
 20
21.2004053729
 10
-54.0771825334
 20
21.2316333361
 10
-54.0919904143
 20
21.2625781554
 10
-54.1023193254
 20
21.2931773293
 10
-54.1087514781
 20
21.3234949512
  0
LINE
  5
5AC
100
AcDbEntity
  8
ASSI
100
AcDbLine
 62
7
  6
CONTINUOUS
 10
-36.7112868727
 20
15.72384
 11
-36.7112868727
 21
14.2842151012
  0
LINE
  5
5AD
100
AcDbEntity
  8
ASSI
100
AcDbLine
 62
7
  6
CONTINUOUS
 10
-36.7112868727
 20
-15.98062
 11
-36.7112868727
 21
-16.6784847075
  0
LINE
  5
5AE
100
AcDbEntity
  8
ASSI
100
AcDbLine
 62
7
  6
CONTINUOUS
 10
-36.7112868727
 20
-16.72428
 11
-36.7112868727
 21
-17.29834
  0
LINE
  5
5AF
100
AcDbEntity
  8
ASSI
100
AcDbLine
 62
250
  6
CONTINUOUS
 10
-35.1077961402
 20
-8.5314905751
 11
-35.107792399
 21
-15.868517178
  0
LINE
  5
5B0
100
AcDbEntity
  8
ASSI
100
AcDbLine
 62
250
  6
CONTINUOUS
 10
-35.1077961402
 20
14.1685094249
 11
-35.1077963914
 21
7.7685199566
  0
LINE
  5
5B1
100
AcDbEntity
  8
ASSI
100
AcDbLine
 62
7
  6
CONTINUOUS
 10
-34.9112868727
 20
13.9698427392
 11
-34.9112868727
 21
7.7650898701
  0
LINE
  5
5B2
100
AcDbEntity
  8
ASSI
100
AcDbLine
 62
7
  6
CONTINUOUS
 10
-34.9112868727
 20
-8.7301572608
 11
-34.9112868727
 21
-15.6698225996
  0
LINE
  5
5B3
100
AcDbEntity
  8
CURVE
100
AcDbLine
 62
7
420
4080451
  6
CONTINUOUS
 10
-48.986046845
 20
-13.6071428955
 11
-48.7718263673
 21
-13.3928571939
  0
LINE
  5
5B4
100
AcDbEntity
  8
CURVE
100
AcDbLine
 62
7
420
4080451
  6
CONTINUOUS
 10
-48.1291650237
 20
-13.928571403
 11
-48.343385479
 21
-14.1428571045
  0
LINE
  5
5B5
100
AcDbEntity
  8
CURVE
100
AcDbLine
 62
7
420
4080451
  6
CONTINUOUS
 10
-48.1291650237
 20
-10.8214284182
 11
-49.6287081439
 21
-11.6785715818
  0
LINE
  5
5B6
100
AcDbEntity
  8
RACCORDO
100
AcDbLine
 62
250
  6
CONTINUOUS
 10
-61.7888413619
 20
-0.1828040151
 11
-61.7851652213
 21
-0.1822606166
  0
LINE
  5
5B7
100
AcDbEntity
  8
RACCORDO
100
AcDbLine
 62
250
  6
CONTINUOUS
 10
-61.2268028598
 20
4.7602402826
 11
-61.5831405026
 21
4.7540203859
  0
LINE
  5
5B8
100
AcDbEntity
  8
RACCORDO
100
AcDbLine
 62
7
  6
CONTINUOUS
 10
-61.2311646324
 20
5.0101260714
 11
-61.5612382205
 21
5.0043646155
  0
LINE
  5
5B9
100
AcDbEntity
  8
0
100
AcDbLine
 62
250
  6
CONTINUOUS
 10
-54.4861726527
 20
3.617556
 11
-53.7364010926
 21
3.617556
  0
LINE
  5
5BA
100
AcDbEntity
  8
0
100
AcDbLine
 62
250
  6
CONTINUOUS
 10
-56.6585507741
 20
4.017556
 11
-55.9079594637
 21
4.017556
  0
LINE
  5
5BB
100
AcDbEntity
  8
0
100
AcDbLine
 62
250
  6
CONTINUOUS
 10
-52.3146142816
 20
4.017556
 11
-51.5640229712
 21
4.017556
  0
LINE
  5
5BC
100
AcDbEntity
  8
ASSI
100
AcDbLine
 62
7
  6
CONTINUOUS
 10
-31.4112868727
 20
4.873926
 11
-31.2812868727
 21
4.873926
  0
LINE
  5
5BD
100
AcDbEntity
  8
ASSI
100
AcDbLine
 62
250
  6
CONTINUOUS
 10
-31.4112868727
 20
5.4989261935
 11
-31.2812868727
 21
5.4989261935
  0
LINE
  5
5BE
100
AcDbEntity
  8
0
100
AcDbLine
 62
250
  6
CONTINUOUS
 10
-54.8507019278
 20
10.06972
 11
-56.4107436154
 21
10.589028
  0
LINE
  5
5BF
100
AcDbEntity
  8
0
100
AcDbLine
 62
250
  6
CONTINUOUS
 10
-56.4107436154
 20
10.838623
 11
-54.6112818742
 21
10.198263
  0
LINE
  5
5C0
100
AcDbEntity
  8
0
100
AcDbLine
 62
250
  6
CONTINUOUS
 10
-53.3970011711
 20
11.0071428619
 11
-53.1827154696
 21
10.9
  0
LINE
  5
5C1
100
AcDbEntity
  8
0
100
AcDbLine
 62
250
  6
CONTINUOUS
 10
-52.3255725965
 20
11.5428571492
 11
-52.5398583204
 21
11.65
  0
LINE
  5
5C2
100
AcDbEntity
  8
0
100
AcDbLine
 62
250
  6
CONTINUOUS
 10
-46.2006905979
 20
10.624378
 11
-51.2102055083
 21
15.56101
  0
LWPOLYLINE
  5
5C3
100
AcDbEntity
  8
ASSI
100
AcDbPolyline
 62
250
  6
CONTINUOUS
 90
10
 70
0
 10
-36.9112869268
 20
16.8448063977
 10
-36.9186643567
 20
16.8914861922
 10
-36.9406875809
 20
16.9390971736
 10
-36.9767981943
 20
16.9849656115
 10
-37.0260100534
 20
17.0258726047
 10
-37.0865650044
 20
17.0602317086
 10
-37.1561594341
 20
17.0885666242
 10
-37.2329802338
 20
17.1104784968
 10
-37.3155672045
 20
17.1240796906
 10
-37.4023678017
 20
17.1282337982
  0
LINE
  5
5C4
100
AcDbEntity
  8
ASSI
100
AcDbLine
 62
250
  6
CONTINUOUS
 10
-31.9025606694
 20
-7.2126485113
 11
-31.9025606694
 21
7.2126485113
  0
LWPOLYLINE
  5
5C5
100
AcDbEntity
  8
ASSI
100
AcDbPolyline
 62
250
  6
CONTINUOUS
 90
10
 70
0
 10
-31.9025606694
 20
7.2126485113
 10
-31.9011786517
 20
7.2994427186
 10
-31.9001036484
 20
7.3836007478
 10
-31.8993683102
 20
7.4625664889
 10
-31.8989949715
 20
7.5339415358
 10
-31.8989949715
 20
7.5955580328
 10
-31.8993683102
 20
7.6455445178
 10
-31.9001036484
 20
7.6823827642
 10
-31.9011786517
 20
7.7049538937
 10
-31.9025606694
 20
7.7125723589
  0
LINE
  5
5C6
100
AcDbEntity
  8
0
100
AcDbLine
 62
250
  6
CONTINUOUS
 10
-39.5398583234
 20
-12.0071429014
 11
-38.9827154607
 21
-11.3571429014
  0
LINE
  5
5C7
100
AcDbEntity
  8
ASSI
100
AcDbLine
 62
250
  6
CONTINUOUS
 10
-49.4387368537
 20
-20.2933353773
 11
-50.1403573995
 21
-21.0077170429
  0
LINE
  5
5C8
100
AcDbEntity
  8
ASSI
100
AcDbLine
 62
250
  6
CONTINUOUS
 10
-48.7003931423
 20
-19.5419868841
 11
-49.4387368537
 21
-20.2933353773
  0
LINE
  5
5C9
100
AcDbEntity
  8
ASSI
100
AcDbLine
 62
7
  6
CONTINUOUS
 10
-48.3577334821
 20
-19.5464466094
 11
-50.4673573743
 21
-21.6560705017
  0
LINE
  5
5CA
100
AcDbEntity
  8
0
100
AcDbLine
 62
250
  6
CONTINUOUS
 10
-41.725572598
 20
-13.1214287043
 11
-41.9112868727
 21
-13.3071429014
  0
LINE
  5
5CB
100
AcDbEntity
  8
0
100
AcDbLine
 62
250
  6
CONTINUOUS
 10
-39.8184296966
 20
-11.3571429014
 11
-39.9112868727
 21
-11.45
  0
LINE
  5
5CC
100
AcDbEntity
  8
ASSI
100
AcDbLine
 62
250
  6
CONTINUOUS
 10
-48.6667347152
 20
-19.5093803933
 11
-48.7003931423
 21
-19.5419868841
  0
LINE
  5
5CD
100
AcDbEntity
  8
CURVE
100
AcDbLine
 62
7
420
4080451
  6
CONTINUOUS
 10
-45.0402051658
 20
-10.055665
 11
-46.0517509687
 21
-10.684754
  0
LINE
  5
5CE
100
AcDbEntity
  8
0
100
AcDbLine
 62
250
  6
CONTINUOUS
 10
-40.6112868727
 20
-9.1595238686
 11
-41.9112868727
 21
-9.8095238686
  0
LINE
  5
5CF
100
AcDbEntity
  8
DRAFT
100
AcDbLine
 62
7
  6
CONTINUOUS
 10
-61.5703780317
 20
1.9620450584
 11
-61.8314339001
 21
1.9160138653
  0
LINE
  5
5D0
100
AcDbEntity
  8
0
100
AcDbLine
 62
250
  6
CONTINUOUS
 10
-54.6112868727
 20
5.9
 11
-56.4107496136
 21
5.9
  0
LINE
  5
5D1
100
AcDbEntity
  8
ASSI
100
AcDbLine
 62
7
  6
CONTINUOUS
 10
-31.4112868727
 20
6.123926
 11
-31.2812868727
 21
6.123926
  0
LINE
  5
5D2
100
AcDbEntity
  8
0
100
AcDbLine
 62
250
  6
CONTINUOUS
 10
-54.9515072146
 20
7.107583
 11
-56.4107496136
 21
7.107583
  0
LINE
  5
5D3
100
AcDbEntity
  8
ASSI
100
AcDbLine
 62
250
  6
CONTINUOUS
 10
-31.4112868727
 20
7.2126485113
 11
-31.9025606694
 21
7.2126485113
  0
LINE
  5
5D4
100
AcDbEntity
  8
0
100
AcDbLine
 62
250
  6
CONTINUOUS
 10
-56.4107496136
 20
7.334483
 11
-54.6112868727
 21
7.334483
  0
LINE
  5
5D5
100
AcDbEntity
  8
0
100
AcDbLine
 62
250
  6
CONTINUOUS
 10
-54.6112868727
 20
7.836111
 11
-56.4107496136
 21
7.836111
  0
LINE
  5
5D6
100
AcDbEntity
  8
0
100
AcDbLine
 62
250
  6
CONTINUOUS
 10
-53.6112868712
 20
7.9999999992
 11
-52.6112875891
 21
7.9999999992
  0
LINE
  5
5D7
100
AcDbEntity
  8
0
100
AcDbLine
 62
250
  6
CONTINUOUS
 10
-48.6112872313
 20
7.9999999992
 11
-47.6112868727
 21
7.9999999992
  0
LINE
  5
5D8
100
AcDbEntity
  8
0
100
AcDbLine
 62
250
  6
CONTINUOUS
 10
-56.2091310426
 20
8.075621
 11
-55.6370303499
 21
8.075621
  0
LINE
  5
5D9
100
AcDbEntity
  8
0
100
AcDbLine
 62
250
  6
CONTINUOUS
 10
-55.4353957837
 20
8.075621
 11
-54.812904444
 21
8.075621
  0
LINE
  5
5DA
100
AcDbEntity
  8
0
100
AcDbLine
 62
250
  6
CONTINUOUS
 10
-56.0553808871
 20
6.13195
 11
-54.6112868727
 21
6.126882
  0
LINE
  5
5DB
100
AcDbEntity
  8
ASSI
100
AcDbLine
 62
250
  6
CONTINUOUS
 10
-37.4025606694
 20
7.3086513684
 11
-31.9025606694
 21
7.2126485113
  0
LINE
  5
5DC
100
AcDbEntity
  8
ASSI
100
AcDbLine
 62
7
  6
CONTINUOUS
 10
-36.9112868727
 20
7.8
 11
-31.9025606694
 21
7.7125723589
  0
LINE
  5
5DD
100
AcDbEntity
  8
0
100
AcDbLine
 62
250
  6
CONTINUOUS
 10
-53.3970011711
 20
13.3642857909
 11
-53.1827154696
 21
13.2571428061
  0
LINE
  5
5DE
100
AcDbEntity
  8
0
100
AcDbLine
 62
250
  6
CONTINUOUS
 10
-52.3255725965
 20
13.9
 11
-52.5398583204
 21
14.0071428061
  0
LWPOLYLINE
  5
5DF
100
AcDbEntity
  8
ASSI
100
AcDbPolyline
 62
250
  6
CONTINUOUS
 90
18
 70
0
 10
-46.8002303834
 20
17.6070059939
 10
-46.7687704439
 20
17.5765673834
 10
-46.7369362173
 20
17.5479939355
 10
-46.7047277035
 20
17.5212916931
 10
-46.6722512536
 20
17.4966127559
 10
-46.6394005166
 20
17.473816056
 10
-46.6058564392
 20
17.4524661814
 10
-46.571678436
 20
17.4324801227
 10
-46.5368070924
 20
17.413947347
 10
-46.5007451123
 20
17.3966893867
 10
-46.4634702982
 20
17.3805886854
 10
-46.4250048476
 20
17.3657672717
 10
-46.3849180561
 20
17.3524057204
 10
-46.3430757841
 20
17.3407115993
 10
-46.2996121714
 20
17.3304813298
 10
-46.2544989328
 20
17.3212782369
 10
-46.20772664
 20
17.3129571657
 10
-46.1593047213
 20
17.3056649689
  0
LINE
  5
5E0
100
AcDbEntity
  8
ASSI
100
AcDbLine
 62
7
  6
CONTINUOUS
 10
-50.4673573743
 20
21.6560705017
 11
-46.4541317147
 21
17.642844842
  0
LWPOLYLINE
  5
5E1
100
AcDbEntity
  8
ASSI
100
AcDbPolyline
 62
250
  6
CONTINUOUS
 90
3
 70
0
 10
-49.4552870802
 20
20.3102951241
 10
-49.1004120046
 20
19.9489257127
 10
-48.7372177064
 20
19.5791628488
  0
LINE
  5
5E2
100
AcDbEntity
  8
ASSI
100
AcDbLine
 62
250
  6
CONTINUOUS
 10
-50.1403153453
 20
21.0077163026
 11
-49.4552870802
 21
20.3102951241
  0
LWPOLYLINE
  5
5E3
100
AcDbEntity
  8
ASSI
100
AcDbPolyline
 62
250
  6
CONTINUOUS
 90
4
 70
0
 10
-48.7372177064
 20
19.5791628488
 10
-47.9863430057
 20
18.8147360079
 10
-47.5989769787
 20
18.4202409371
 10
-46.8002303834
 20
17.6070059939
  0
LWPOLYLINE
  5
5E4
100
AcDbEntity
  8
ASSI
100
AcDbPolyline
 62
250
  6
CONTINUOUS
 90
7
 70
0
 10
-37.4025606694
 20
17.3444976057
 10
-37.4021496654
 20
17.3423113224
 10
-37.4018076218
 20
17.3354685832
 10
-37.4015468926
 20
17.3235468993
 10
-37.4013799145
 20
17.3062034087
 10
-37.4013184393
 20
17.283113649
 10
-37.4013749235
 20
17.253911293
  0
LINE
  5
5E5
100
AcDbEntity
  8
ASSI
100
AcDbLine
 62
7
  6
CONTINUOUS
 10
-31.4112868727
 20
-7.2126485113
 11
-31.4112868727
 21
7.2126485113
  0
LINE
  5
5E6
100
AcDbEntity
  8
ASSI
100
AcDbLine
 62
7
  6
CONTINUOUS
 10
-31.2812868727
 20
6.123926
 11
-31.2812868727
 21
4.873926
  0
LINE
  5
5E7
100
AcDbEntity
  8
ASSI
100
AcDbLine
 62
7
  6
CONTINUOUS
 10
-31.2812868727
 20
-1.3778218861
 11
-31.2812868727
 21
-2.6642672405
  0
LINE
  5
5E8
100
AcDbEntity
  8
ASSI
100
AcDbLine
 62
7
  6
CONTINUOUS
 10
-31.2812868727
 20
-2.6890516262
 11
-31.2812868727
 21
-3.4656664905
  0
LINE
  5
5E9
100
AcDbEntity
  8
ASSI
100
AcDbLine
 62
7
  6
CONTINUOUS
 10
-31.2812868727
 20
-4.374955
 11
-31.2812868727
 21
-6.625051
  0
LWPOLYLINE
  5
5EA
100
AcDbEntity
  8
ASSI
100
AcDbPolyline
 62
250
  6
CONTINUOUS
 90
10
 70
0
 10
-31.9025606694
 20
-7.7125723589
 10
-31.9012207228
 20
-7.7054600189
 10
-31.9001557202
 20
-7.6840507256
 10
-31.8994071065
 20
-7.6484862715
 10
-31.899007901
 20
-7.5991642129
 10
-31.8989860372
 20
-7.5372793244
 10
-31.8993488948
 20
-7.4652251516
 10
-31.9000821227
 20
-7.3855475472
 10
-31.9011638378
 20
-7.3004747829
 10
-31.9025606694
 20
-7.2126485113
  0
LINE
  5
5EB
100
AcDbEntity
  8
0
100
AcDbLine
 62
250
  6
CONTINUOUS
 10
-38.6112868727
 20
-11.9142858028
 11
-38.7041440197
 21
-12.0071429014
  0
LINE
  5
5EC
100
AcDbEntity
  8
ASSI
100
AcDbLine
 62
250
  6
CONTINUOUS
 10
-49.8222980135
 20
-21.006747984
 11
-49.7956048915
 21
-20.9843180189
  0
LWPOLYLINE
  5
5ED
100
AcDbEntity
  8
ASSI
100
AcDbPolyline
 62
250
  6
CONTINUOUS
 90
10
 70
0
 10
-48.3577334821
 20
-19.5464466094
 10
-48.3829419786
 20
-19.5669657137
 10
-48.41250567
 20
-19.5825234121
 10
-48.4460325516
 20
-19.592913449
 10
-48.4830781352
 20
-19.5979981147
 10
-48.5231511031
 20
-19.5977100334
 10
-48.5657197623
 20
-19.592053175
 10
-48.6102194674
 20
-19.5811027987
 10
-48.6560601704
 20
-19.5650043338
 10
-48.7026339632
 20
-19.5439714915
  0
LWPOLYLINE
  5
5EE
100
AcDbEntity
  8
RACCORDO
100
AcDbPolyline
 62
250
  6
CONTINUOUS
 90
4
 70
0
 10
-58.8575755813
 20
-22.3608886661
 10
-58.8568032946
 20
-22.3604065809
 10
-58.8560599372
 20
-22.3588094838
 10
-58.8553442284
 20
-22.3559945256
  0
LINE
  5
5EF
100
AcDbEntity
  8
CURVE
100
AcDbLine
 62
7
420
4080451
  6
CONTINUOUS
 10
-44.9545552615
 20
-13.227762
 11
-44.146776375
 21
-12.872054
  0
LINE
  5
5F0
100
AcDbEntity
  8
CURVE
100
AcDbLine
 62
7
420
4080451
  6
CONTINUOUS
 10
-48.1291650237
 20
-12.1071428061
 11
-49.6287081439
 21
-12.5357142091
  0
LINE
  5
5F1
100
AcDbEntity
  8
0
100
AcDbLine
 62
250
  6
CONTINUOUS
 10
-38.6112868727
 20
-9.4071425915
 11
-39.9112868727
 21
-9.7785716057
  0
LINE
  5
5F2
100
AcDbEntity
  8
0
100
AcDbLine
 62
250
  6
CONTINUOUS
 10
-55.6370303499
 20
9.010914
 11
-55.4353957837
 21
9.010914
  0
LINE
  5
5F3
100
AcDbEntity
  8
0
100
AcDbLine
 62
250
  6
CONTINUOUS
 10
-56.4107496136
 20
9.078982
 11
-56.2091310426
 21
9.078982
  0
LINE
  5
5F4
100
AcDbEntity
  8
0
100
AcDbLine
 62
250
  6
CONTINUOUS
 10
-54.812904444
 20
9.086542
 11
-54.6112868727
 21
9.086542
  0
LINE
  5
5F5
100
AcDbEntity
  8
0
100
AcDbLine
 62
250
  6
CONTINUOUS
 10
-43.1147498727
 20
10.001442
 11
-38.1147098727
 21
10.001442
  0
LINE
  5
5F6
100
AcDbEntity
  8
0
100
AcDbLine
 62
250
  6
CONTINUOUS
 10
-38.6704038727
 20
10.556791
 11
-40.3369688727
 21
10.556791
  0
LINE
  5
5F7
100
AcDbEntity
  8
0
100
AcDbLine
 62
250
  6
CONTINUOUS
 10
-40.8926628727
 20
10.556791
 11
-42.5592278727
 21
10.556791
  0
LINE
  5
5F8
100
AcDbEntity
  8
0
100
AcDbLine
 62
250
  6
CONTINUOUS
 10
-52.9684297681
 20
12.828571403
 11
-52.5398583204
 21
12.721428597
  0
LWPOLYLINE
  5
5F9
100
AcDbEntity
  8
ASSI
100
AcDbPolyline
 62
250
  6
CONTINUOUS
 90
9
 70
0
 10
-49.795604887
 20
20.9843180143
 10
-49.8213964412
 20
21.0058436489
 10
-49.8518399017
 20
21.0234422582
 10
-49.8862711298
 20
21.0365329389
 10
-49.9235588631
 20
21.0443658148
 10
-49.9632256739
 20
21.0468935905
 10
-50.0055371775
 20
21.0446265662
 10
-50.0499928006
 20
21.0375401212
 10
-50.0952773506
 20
21.0252389419
  0
LWPOLYLINE
  5
5FA
100
AcDbEntity
  8
0
100
AcDbPolyline
 62
7
  6
CONTINUOUS
 90
10
 70
0
 43
0.3500000006
 10
-50.1990500336
 20
42.7499991302
 10
-50.1276233826
 20
42.6071412964
 10
-50.1276233826
 20
42.5357146454
 10
-50.2704812164
 20
42.3928568115
 10
-50.3419078674
 20
42.3928568115
 10
-50.4133390503
 20
42.4642834625
 10
-50.4133390503
 20
42.5357146454
 10
-50.3419078674
 20
42.6785724792
 10
-50.2704812164
 20
42.7499991302
 10
-50.1990500336
 20
42.7499991302
  0
LINE
  5
5FB
100
AcDbEntity
  8
0
100
AcDbLine
 62
250
  6
CONTINUOUS
 10
-38.6112868727
 20
-14.7
 11
-38.7970011667
 21
-14.8857142746
  0
LINE
  5
5FC
100
AcDbEntity
  8
0
100
AcDbLine
 62
250
  6
CONTINUOUS
 10
-38.6112868727
 20
-13.2142858028
 11
-39.9112868727
 21
-13.8642856479
  0
LINE
  5
5FD
100
AcDbEntity
  8
0
100
AcDbLine
 62
250
  6
CONTINUOUS
 10
-41.1684297353
 20
-15.628571412
 11
-41.9112868727
 21
-16.0
  0
LINE
  5
5FE
100
AcDbEntity
  8
0
100
AcDbLine
 62
250
  6
CONTINUOUS
 10
-40.6112868727
 20
-14.1428570986
 11
-41.9112868727
 21
-14.5142856479
  0
LINE
  5
5FF
100
AcDbEntity
  8
0
100
AcDbLine
 62
250
  6
CONTINUOUS
 10
-50.302048846
 20
11.931124
 11
-46.9403399285
 21
12.225174
  0
LWPOLYLINE
  5
600
100
AcDbEntity
  8
0
100
AcDbPolyline
 62
250
  6
CONTINUOUS
 90
95
 70
0
 10
-55.331759155
 20
13.0106229859
 10
-55.3075115334
 20
13.0107910787
 10
-55.2830546813
 20
13.0113131128
 10
-55.2584290528
 20
13.0122157222
 10
-55.233675102
 20
13.0135255407
 10
-55.2088332828
 20
13.0152692022
 10
-55.1839440495
 20
13.0174733406
 10
-55.159047856
 20
13.0201645898
 10
-55.1341851565
 20
13.0233695837
 10
-55.109396405
 20
13.0271149561
 10
-55.0847220555
 20
13.031427341
 10
-55.0602025622
 20
13.0363333721
 10
-55.0358783791
 20
13.0418596835
 10
-55.0117899603
 20
13.0480329089
 10
-54.9879777599
 20
13.0548796822
 10
-54.9644822319
 20
13.0624266374
 10
-54.9413438303
 20
13.0707004082
 10
-54.9186030094
 20
13.0797276287
 10
-54.896300223
 20
13.0895349326
 10
-54.8744759254
 20
13.1001489539
 10
-54.8531705705
 20
13.1115963264
 10
-54.8324246125
 20
13.123903684
 10
-54.8122785054
 20
13.1370976606
 10
-54.7927727032
 20
13.15120489
 10
-54.7739476602
 20
13.1662520062
 10
-54.7557052849
 20
13.1823768437
 10
-54.738216025
 20
13.1994223666
 10
-54.7215007455
 20
13.2173279489
 10
-54.7055803115
 20
13.2360329643
 10
-54.6904755884
 20
13.2554767867
 10
-54.6762074411
 20
13.27559879
 10
-54.6627967349
 20
13.296338348
 10
-54.650264335
 20
13.3176348345
 10
-54.6386311065
 20
13.3394276233
 10
-54.6279179145
 20
13.3616560884
 10
-54.6181456242
 20
13.3842596035
 10
-54.6093351009
 20
13.4071775425
 10
-54.6007839238
 20
13.4326237531
 10
-54.5933542696
 20
13.4583469095
 10
-54.586984506
 20
13.4843183679
 10
-54.5816130005
 20
13.5105094843
 10
-54.577178121
 20
13.5368916151
 10
-54.5736182349
 20
13.5634361164
 10
-54.5708717099
 20
13.5901143443
 10
-54.5688769138
 20
13.6168976551
 10
-54.5675722141
 20
13.6437574049
 10
-54.5668959784
 20
13.67066495
 10
-54.5667865745
 20
13.6975916464
 10
-54.567202239
 20
13.7245166113
 10
-54.5681799032
 20
13.7514070803
 10
-54.5697760989
 20
13.7782380549
 10
-54.5720473578
 20
13.8049845365
 10
-54.5750502117
 20
13.8316215269
 10
-54.5788411923
 20
13.8581240274
 10
-54.5834768315
 20
13.8844670396
 10
-54.5890136609
 20
13.910625565
 10
-54.5955082125
 20
13.9365746053
 10
-54.6030170178
 20
13.9622891618
 10
-54.6115966088
 20
13.9877442361
 10
-54.6203814114
 20
14.010676521
 10
-54.6300860373
 20
14.0333116478
 10
-54.6406949931
 20
14.0555884874
 10
-54.6521927855
 20
14.0774459105
 10
-54.664563921
 20
14.098822788
 10
-54.6777929063
 20
14.1196579907
 10
-54.691864248
 20
14.1398903894
 10
-54.7067624527
 20
14.159458855
 10
-54.7224720271
 20
14.1783022583
 10
-54.7389774777
 20
14.1963594701
 10
-54.7562633113
 20
14.2135693611
 10
-54.7743140343
 20
14.2298708024
 10
-54.7929944833
 20
14.2451276599
 10
-54.8123739315
 20
14.2594517739
 10
-54.8324109711
 20
14.2728683499
 10
-54.8530641943
 20
14.2854025931
 10
-54.8742921932
 20
14.2970797089
 10
-54.89605356
 20
14.3079249026
 10
-54.9183068869
 20
14.3179633796
 10
-54.941010766
 20
14.3272203452
 10
-54.9641237896
 20
14.3357210049
 10
-54.9876045498
 20
14.3434905638
 10
-55.0114116388
 20
14.3505542274
 10
-55.0355036488
 20
14.3569372011
 10
-55.0598391719
 20
14.3626646901
 10
-55.0843768003
 20
14.3677618998
 10
-55.1090751262
 20
14.3722540357
 10
-55.1338927417
 20
14.3761663029
 10
-55.1587882391
 20
14.3795239069
 10
-55.1837202105
 20
14.382352053
 10
-55.2086472481
 20
14.3846759466
 10
-55.2335279441
 20
14.386520793
 10
-55.2583208906
 20
14.3879117975
 10
-55.2829846798
 20
14.3888741656
 10
-55.3074779039
 20
14.3894331025
 10
-55.331759155
 20
14.3896138136
  0
LINE
  5
601
100
AcDbEntity
  8
0
100
AcDbLine
 62
250
  6
CONTINUOUS
 10
-53.1827154696
 20
10.9
 11
-52.5398583204
 21
10.9
  0
LINE
  5
602
100
AcDbEntity
  8
0
100
AcDbLine
 62
250
  6
CONTINUOUS
 10
-44.1112868727
 20
10.907638
 11
-45.1301436722
 21
10.907638
  0
LINE
  5
603
100
AcDbEntity
  8
0
100
AcDbLine
 62
250
  6
CONTINUOUS
 10
-38.1147098727
 20
11.112485
 11
-38.6704038727
 21
11.112485
  0
LINE
  5
604
100
AcDbEntity
  8
0
100
AcDbLine
 62
250
  6
CONTINUOUS
 10
-40.3369688727
 20
11.112485
 11
-40.8926628727
 21
11.112485
  0
LINE
  5
605
100
AcDbEntity
  8
0
100
AcDbLine
 62
250
  6
CONTINUOUS
 10
-42.5592278727
 20
11.112485
 11
-43.1147498727
 21
11.112485
  0
LINE
  5
606
100
AcDbEntity
  8
0
100
AcDbLine
 62
250
  6
CONTINUOUS
 10
-54.6112868727
 20
11.143655
 11
-56.4107496136
 21
11.143655
  0
LINE
  5
607
100
AcDbEntity
  8
0
100
AcDbLine
 62
250
  6
CONTINUOUS
 10
-56.2091310426
 20
11.383148
 11
-55.6370303499
 21
11.383148
  0
LINE
  5
608
100
AcDbEntity
  8
0
100
AcDbLine
 62
250
  6
CONTINUOUS
 10
-55.4353957837
 20
11.383148
 11
-54.812904444
 21
11.383148
  0
LINE
  5
609
100
AcDbEntity
  8
ASSI
100
AcDbLine
 62
250
  6
CONTINUOUS
 10
-34.9112868727
 20
11.4
 11
-36.9112868727
 21
11.4
  0
LINE
  5
60A
100
AcDbEntity
  8
0
100
AcDbLine
 62
250
  6
CONTINUOUS
 10
-52.5398583204
 20
11.65
 11
-53.1827154696
 21
11.65
  0
LINE
  5
60B
100
AcDbEntity
  8
0
100
AcDbLine
 62
250
  6
CONTINUOUS
 10
-38.1147098727
 20
11.667834
 11
-43.1147498727
 21
11.667834
  0
LINE
  5
60C
100
AcDbEntity
  8
0
100
AcDbLine
 62
250
  6
CONTINUOUS
 10
-52.9684297681
 20
12.078571403
 11
-53.3970011711
 21
12.078571403
  0
LINE
  5
60D
100
AcDbEntity
  8
0
100
AcDbLine
 62
250
  6
CONTINUOUS
 10
-50.302048846
 20
12.218216
 11
-50.6966067438
 21
12.218216
  0
LINE
  5
60E
100
AcDbEntity
  8
0
100
AcDbLine
 62
250
  6
CONTINUOUS
 10
-40.3369688727
 20
12.223528
 11
-38.1147098727
 21
12.223528
  0
LINE
  5
60F
100
AcDbEntity
  8
0
100
AcDbLine
 62
250
  6
CONTINUOUS
 10
-40.8926628727
 20
12.223528
 11
-42.5592278727
 21
12.223528
  0
LINE
  5
610
100
AcDbEntity
  8
0
100
AcDbLine
 62
250
  6
CONTINUOUS
 10
-46.7439218485
 20
12.281883
 11
-46.9403399285
 21
12.281883
  0
LINE
  5
611
100
AcDbEntity
  8
0
100
AcDbLine
 62
250
  6
CONTINUOUS
 10
-50.6966067438
 20
12.31759
 11
-50.302048846
 21
12.31759
  0
LINE
  5
612
100
AcDbEntity
  8
0
100
AcDbLine
 62
250
  6
CONTINUOUS
 10
-55.6370303499
 20
12.318493
 11
-55.4353957837
 21
12.318493
  0
LINE
  5
613
100
AcDbEntity
  8
0
100
AcDbLine
 62
250
  6
CONTINUOUS
 10
-56.4107496136
 20
12.38651
 11
-56.2091310426
 21
12.38651
  0
LINE
  5
614
100
AcDbEntity
  8
0
100
AcDbLine
 62
250
  6
CONTINUOUS
 10
-54.812904444
 20
12.394103
 11
-54.6112868727
 21
12.394103
  0
LINE
  5
615
100
AcDbEntity
  8
0
100
AcDbLine
 62
250
  6
CONTINUOUS
 10
-46.9403399285
 20
12.399503
 11
-46.7439218485
 21
12.399503
  0
LINE
  5
616
100
AcDbEntity
  8
0
100
AcDbLine
 62
250
  6
CONTINUOUS
 10
-42.5592278727
 20
12.779222
 11
-40.8926628727
 21
12.779222
  0
LINE
  5
617
100
AcDbEntity
  8
0
100
AcDbLine
 62
250
  6
CONTINUOUS
 10
-38.1147098727
 20
12.779222
 11
-40.3369688727
 21
12.779222
  0
LINE
  5
618
100
AcDbEntity
  8
0
100
AcDbLine
 62
250
  6
CONTINUOUS
 10
-49.2587817648
 20
12.78807
 11
-49.4743849224
 21
12.78807
  0
LINE
  5
619
100
AcDbEntity
  8
0
100
AcDbLine
 62
250
  6
CONTINUOUS
 10
-53.3970011711
 20
12.828571403
 11
-52.9684297681
 21
12.828571403
  0
LINE
  5
61A
100
AcDbEntity
  8
0
100
AcDbLine
 62
250
  6
CONTINUOUS
 10
-50.5721057088
 20
12.843073
 11
-50.7895665834
 21
12.843073
  0
LINE
  5
61B
100
AcDbEntity
  8
0
100
AcDbLine
 62
250
  6
CONTINUOUS
 10
-55.331759155
 20
13.0106229859
 11
-56.4124328291
 21
13.0106229859
  0
LINE
  5
61C
100
AcDbEntity
  8
0
100
AcDbLine
 62
250
  6
CONTINUOUS
 10
-56.4124328291
 20
13.1217440007
 11
-55.331759155
 21
13.1217440007
  0
LINE
  5
61D
100
AcDbEntity
  8
0
100
AcDbLine
 62
250
  6
CONTINUOUS
 10
-53.1827154696
 20
13.2571428061
 11
-52.5398583204
 21
13.2571428061
  0
LINE
  5
61E
100
AcDbEntity
  8
0
100
AcDbLine
 62
250
  6
CONTINUOUS
 10
-43.1147498727
 20
13.334571
 11
-38.1147098727
 21
13.334571
  0
LINE
  5
61F
100
AcDbEntity
  8
0
100
AcDbLine
 62
250
  6
CONTINUOUS
 10
-50.7890086684
 20
13.416076
 11
-50.5715477937
 21
13.416076
  0
LINE
  5
620
100
AcDbEntity
  8
0
100
AcDbLine
 62
250
  6
CONTINUOUS
 10
-47.3784171971
 20
13.880593
 11
-50.2745010423
 21
14.149839
  0
LWPOLYLINE
  5
621
100
AcDbEntity
  8
RACCORDO
100
AcDbPolyline
 62
250
  6
CONTINUOUS
 90
5
 70
0
 10
-59.8243820747
 20
16.1820409942
 10
-59.8207080245
 20
16.1814978671
 10
-59.8097716091
 20
16.1800657632
 10
-59.7918960604
 20
16.1777870234
 10
-59.5806086377
 20
16.1515736755
  0
LWPOLYLINE
  5
622
100
AcDbEntity
  8
0
100
AcDbPolyline
 62
7
  6
CONTINUOUS
 90
10
 70
0
 43
0.3500000006
 10
-43.7969996796
 20
32.7500006104
 10
-43.7255730286
 20
32.6071427765
 10
-43.7255730286
 20
32.5357161255
 10
-43.8684308624
 20
32.3928582916
 10
-43.9398575134
 20
32.3928582916
 10
-44.0112886963
 20
32.4642849426
 10
-44.0112886963
 20
32.5357161255
 10
-43.9398575134
 20
32.6785694275
 10
-43.8684308624
 20
32.7500006104
 10
-43.7969996796
 20
32.7500006104
  0
LWPOLYLINE
  5
623
100
AcDbEntity
  8
ASSI
100
AcDbPolyline
 62
250
  6
CONTINUOUS
 90
10
 70
0
 10
-48.316199823
 20
-19.2995285818
 10
-48.3575328319
 20
-19.3148151829
 10
-48.3985785201
 20
-19.3321587231
 10
-48.4393759008
 20
-19.3515309594
 10
-48.4795205288
 20
-19.3729517116
 10
-48.5190804946
 20
-19.3965039197
 10
-48.5579877077
 20
-19.4220913839
 10
-48.5956334508
 20
-19.4494649652
 10
-48.631814818
 20
-19.4785370005
 10
-48.6667347152
 20
-19.5093803933
  0
LWPOLYLINE
  5
624
100
AcDbEntity
  8
0
100
AcDbPolyline
 62
250
  6
CONTINUOUS
 90
17
 70
0
 10
-47.0614654777
 20
13.547108
 10
-46.9997875969
 20
13.5531564903
 10
-46.9404590074
 20
13.5710715761
 10
-46.8857395168
 20
13.6001708773
 10
-46.8369282242
 20
13.6401285431
 10
-46.7975916535
 20
13.6880249629
 10
-46.7683059549
 20
13.7426508799
 10
-46.7501866113
 20
13.80192561
 10
-46.7439218485
 20
13.8647
 10
-46.7499694176
 20
13.9263872761
 10
-46.7678817748
 20
13.985724903
 10
-46.7969766441
 20
14.0404527289
 10
-46.8369282242
 20
14.0892714569
 10
-46.8848173491
 20
14.1286140196
 10
-46.9394349463
 20
14.1579041793
 10
-46.9987006485
 20
14.1760262829
 10
-47.0614655055
 20
14.182292
  0
LWPOLYLINE
  5
625
100
AcDbEntity
  8
0
100
AcDbPolyline
 62
250
  6
CONTINUOUS
 90
17
 70
0
 10
-47.0614654777
 20
13.72419
 10
-47.0341777657
 20
13.7268659911
 10
-47.0079294342
 20
13.7347920368
 10
-46.9837202739
 20
13.7476662365
 10
-46.9621250362
 20
13.7653444262
 10
-46.9447216333
 20
13.7865349031
 10
-46.9317649671
 20
13.8107026642
 10
-46.9237485531
 20
13.8369271671
 10
-46.9209768781
 20
13.8647
 10
-46.9236524616
 20
13.8919918687
 10
-46.9315773001
 20
13.9182441986
 10
-46.944449539
 20
13.9424570466
 10
-46.9621250362
 20
13.9640555738
 10
-46.9833122857
 20
13.9814616278
 10
-47.007476366
 20
13.9944202676
 10
-47.0336968748
 20
14.0024379027
 10
-47.06146549
 20
14.00521
  0
LWPOLYLINE
  5
626
100
AcDbEntity
  8
0
100
AcDbPolyline
 62
250
  6
CONTINUOUS
 90
17
 70
0
 10
-47.0614654777
 20
14.00521
 10
-47.0887531897
 20
14.0025340089
 10
-47.1150015213
 20
13.9946079632
 10
-47.1392106815
 20
13.9817337635
 10
-47.1608059192
 20
13.9640555738
 10
-47.1782093221
 20
13.9428650969
 10
-47.1911659883
 20
13.9186973358
 10
-47.1991824023
 20
13.8924728329
 10
-47.2019540774
 20
13.8647
 10
-47.1992784938
 20
13.8374081313
 10
-47.1913536553
 20
13.8111558014
 10
-47.1784814164
 20
13.7869429534
 10
-47.1608059192
 20
13.7653444262
 10
-47.1396186697
 20
13.7479383722
 10
-47.1154545895
 20
13.7349797324
 10
-47.0892340807
 20
13.7269620973
 10
-47.0614654654
 20
13.72419
  0
LWPOLYLINE
  5
627
100
AcDbEntity
  8
0
100
AcDbPolyline
 62
250
  6
CONTINUOUS
 90
17
 70
0
 10
-47.0614654777
 20
14.182292
 10
-47.1231433585
 20
14.1762435097
 10
-47.182471948
 20
14.1583284239
 10
-47.2371914386
 20
14.1292291227
 10
-47.2860027312
 20
14.0892714569
 10
-47.3253393019
 20
14.0413750371
 10
-47.3546250006
 20
13.9867491201
 10
-47.3727443441
 20
13.92747439
 10
-47.3790091069
 20
13.8647
 10
-47.3729615378
 20
13.8030127239
 10
-47.3550491806
 20
13.743675097
 10
-47.3259543113
 20
13.6889472711
 10
-47.2860027312
 20
13.6401285431
 10
-47.2381136064
 20
13.6007859804
 10
-47.1834960092
 20
13.5714958207
 10
-47.1242303069
 20
13.5533737171
 10
-47.06146545
 20
13.547108
  0
LWPOLYLINE
  5
628
100
AcDbEntity
  8
0
100
AcDbPolyline
 62
250
  6
CONTINUOUS
 90
17
 70
0
 10
-50.4065099336
 20
14.097331
 10
-50.3691095909
 20
14.1009986943
 10
-50.3331338157
 20
14.1118620758
 10
-50.2999529139
 20
14.1295073616
 10
-50.2703546358
 20
14.1537369619
 10
-50.2465016563
 20
14.1827804778
 10
-50.2287433424
 20
14.2159046382
 10
-50.2177561028
 20
14.2518477541
 10
-50.2139572648
 20
14.289913
 10
-50.2176244005
 20
14.3273190398
 10
-50.2284861274
 20
14.3633002952
 10
-50.2461287258
 20
14.3964862513
 10
-50.2703546358
 20
14.4260890381
 10
-50.2993937282
 20
14.4499456511
 10
-50.3325128436
 20
14.46770667
 10
-50.3684504852
 20
14.4786955834
 10
-50.4065099505
 20
14.482495
  0
LWPOLYLINE
  5
629
100
AcDbEntity
  8
0
100
AcDbPolyline
 62
250
  6
CONTINUOUS
 90
17
 70
0
 10
-50.4065099336
 20
14.482495
 10
-50.4439102763
 20
14.4788273057
 10
-50.4798860516
 20
14.4679639242
 10
-50.5130669534
 20
14.4503186384
 10
-50.5426652315
 20
14.4260890381
 10
-50.566518211
 20
14.3970455222
 10
-50.5842765248
 20
14.3639213618
 10
-50.5952637645
 20
14.3279782459
 10
-50.5990626025
 20
14.289913
 10
-50.5953954668
 20
14.2525069602
 10
-50.5845337399
 20
14.2165257048
 10
-50.5668911415
 20
14.1833397487
 10
-50.5426652315
 20
14.1537369619
 10
-50.5136261391
 20
14.1298803489
 10
-50.4805070236
 20
14.11211933
 10
-50.444569382
 20
14.1011304166
 10
-50.4065099168
 20
14.097331
  0
LWPOLYLINE
  5
62A
100
AcDbEntity
  8
0
100
AcDbPolyline
 62
250
  6
CONTINUOUS
 90
57
 70
0
 10
-55.9074710389
 20
16.0008284297
 10
-55.9233483138
 20
16.0006968878
 10
-55.9392473481
 20
16.0002875442
 10
-55.9551539867
 20
15.999578322
 10
-55.9710540743
 20
15.9985471444
 10
-55.9869334558
 20
15.9971719347
 10
-56.0027779761
 20
15.9954306159
 10
-56.01857348
 20
15.9933011113
 10
-56.0343058123
 20
15.9907613441
 10
-56.0499608179
 20
15.9877892374
 10
-56.0655243417
 20
15.9843627145
 10
-56.0809822284
 20
15.9804596985
 10
-56.0963203229
 20
15.9760581125
 10
-56.11152447
 20
15.9711358798
 10
-56.1244980712
 20
15.9664659081
 10
-56.1373435084
 20
15.9613973894
 10
-56.1500424518
 20
15.9559342651
 10
-56.1625765715
 20
15.9500804768
 10
-56.1749275376
 20
15.9438399661
 10
-56.1870770203
 20
15.9372166744
 10
-56.1990066897
 20
15.9302145434
 10
-56.210698216
 20
15.9228375144
 10
-56.2221332693
 20
15.9150895292
 10
-56.2332935198
 20
15.9069745292
 10
-56.2441606375
 20
15.8984964559
 10
-56.2547162927
 20
15.8896592509
 10
-56.2649421556
 20
15.8804668557
 10
-56.2748198961
 20
15.8709232119
 10
-56.2843311845
 20
15.861032261
 10
-56.2940155983
 20
15.8501537811
 10
-56.3032717347
 20
15.8389059106
 10
-56.3121053392
 20
15.8273065652
 10
-56.3205221571
 20
15.8153736604
 10
-56.3285279336
 20
15.8031251119
 10
-56.3361284141
 20
15.7905788352
 10
-56.3433293439
 20
15.777752746
 10
-56.3501364683
 20
15.7646647599
 10
-56.3565555327
 20
15.7513327924
 10
-56.3625922823
 20
15.7377747591
 10
-56.3682524626
 20
15.7240085758
 10
-56.3735418188
 20
15.7100521579
 10
-56.3784660962
 20
15.695923421
 10
-56.3830310401
 20
15.6816402809
 10
-56.3872423959
 20
15.667220653
 10
-56.391105909
 20
15.652682453
 10
-56.3946273245
 20
15.6380435964
 10
-56.3978123879
 20
15.6233219989
 10
-56.4006668444
 20
15.6085355762
 10
-56.4031964394
 20
15.5937022437
 10
-56.4054069182
 20
15.578839917
 10
-56.4073040261
 20
15.5639665119
 10
-56.4088935085
 20
15.5490999439
 10
-56.4101811106
 20
15.5342581285
 10
-56.4111725778
 20
15.5194589814
 10
-56.4118736555
 20
15.5047204183
 10
-56.4122900888
 20
15.4900603546
 10
-56.4124276232
 20
15.475496706
  0
LINE
  5
62B
100
AcDbEntity
  8
0
100
AcDbLine
 62
250
  6
CONTINUOUS
 10
-49.4743849224
 20
13.61141
 11
-49.2587817648
 21
13.61141
  0
LINE
  5
62C
100
AcDbEntity
  8
0
100
AcDbLine
 62
250
  6
CONTINUOUS
 10
-43.1147498727
 20
13.890265
 11
-38.1147098727
 21
13.890265
  0
LINE
  5
62D
100
AcDbEntity
  8
0
100
AcDbLine
 62
250
  6
CONTINUOUS
 10
-52.5398583204
 20
14.0071428061
 11
-53.1827154696
 21
14.0071428061
  0
LINE
  5
62E
100
AcDbEntity
  8
0
100
AcDbLine
 62
250
  6
CONTINUOUS
 10
-49.566786847
 20
14.067887
 11
-49.9391941189
 21
14.067887
  0
LINE
  5
62F
100
AcDbEntity
  8
0
100
AcDbLine
 62
250
  6
CONTINUOUS
 10
-55.331759155
 20
14.2784938404
 11
-56.4124328291
 21
14.2784938404
  0
LINE
  5
630
100
AcDbEntity
  8
ASSI
100
AcDbLine
 62
7
  6
CONTINUOUS
 10
-36.9112868727
 20
14.2840826001
 11
-36.7112868727
 21
14.2840826001
  0
LINE
  5
631
100
AcDbEntity
  8
0
100
AcDbLine
 62
250
  6
CONTINUOUS
 10
-56.4124328291
 20
14.3896138136
 11
-55.331759155
 21
14.3896138136
  0
LINE
  5
632
100
AcDbEntity
  8
0
100
AcDbLine
 62
250
  6
CONTINUOUS
 10
-49.9391941189
 20
14.417947
 11
-49.566786847
 21
14.417947
  0
LINE
  5
633
100
AcDbEntity
  8
0
100
AcDbLine
 62
250
  6
CONTINUOUS
 10
-38.6704038727
 20
14.445615
 11
-42.5592278727
 21
14.445615
  0
LINE
  5
634
100
AcDbEntity
  8
0
100
AcDbLine
 62
250
  6
CONTINUOUS
 10
-54.6096732959
 20
14.7076855198
 11
-56.4124276232
 21
14.7076855198
  0
LINE
  5
635
100
AcDbEntity
  8
0
100
AcDbLine
 62
250
  6
CONTINUOUS
 10
-56.3164719984
 20
14.8188752737
 11
-55.5085175163
 21
14.8188752737
  0
LINE
  5
636
100
AcDbEntity
  8
0
100
AcDbLine
 62
250
  6
CONTINUOUS
 10
-55.4125618915
 20
14.8188752737
 11
-54.6096732959
 21
14.8188752737
  0
LINE
  5
637
100
AcDbEntity
  8
0
100
AcDbLine
 62
250
  6
CONTINUOUS
 10
-52.1112868727
 20
14.8642856121
 11
-53.6112868727
 21
14.8642856121
  0
LINE
  5
638
100
AcDbEntity
  8
0
100
AcDbLine
 62
250
  6
CONTINUOUS
 10
-38.1147098727
 20
15.001309
 11
-38.6704038727
 21
15.001309
  0
LINE
  5
639
100
AcDbEntity
  8
0
100
AcDbLine
 62
250
  6
CONTINUOUS
 10
-42.5592278727
 20
15.001309
 11
-43.1147498727
 21
15.001309
  0
LINE
  5
63A
100
AcDbEntity
  8
0
100
AcDbLine
 62
250
  6
CONTINUOUS
 10
-45.1301436722
 20
15.092362
 11
-44.1112868727
 21
15.092362
  0
LINE
  5
63B
100
AcDbEntity
  8
ASSI
100
AcDbLine
 62
7
  6
CONTINUOUS
 10
-36.9112868727
 20
15.5974
 11
-36.7112868727
 21
15.5974
  0
LINE
  5
63C
100
AcDbEntity
  8
ASSI
100
AcDbLine
 62
7
  6
CONTINUOUS
 10
-36.9112868727
 20
15.72384
 11
-36.7112868727
 21
15.72384
  0
LINE
  5
63D
100
AcDbEntity
  8
0
100
AcDbLine
 62
250
  6
CONTINUOUS
 10
-53.3970011711
 20
15.8999998808
 11
-53.0755725742
 21
15.8999998808
  0
LINE
  5
63E
100
AcDbEntity
  8
0
100
AcDbLine
 62
250
  6
CONTINUOUS
 10
-52.7541440219
 20
15.9357143879
 11
-52.2184297346
 21
15.9357143879
  0
LINE
  5
63F
100
AcDbEntity
  8
ASSI
100
AcDbLine
 62
250
  6
CONTINUOUS
 10
-36.9112868727
 20
15.9935900739
 11
-37.4025606694
 21
15.9935900739
  0
LWPOLYLINE
  5
640
100
AcDbEntity
  8
0
100
AcDbPolyline
 62
250
  6
CONTINUOUS
 90
60
 70
0
 10
-55.331759155
 20
14.2784938404
 10
-55.3147972429
 20
14.2784133396
 10
-55.2977080585
 20
14.2781628516
 10
-55.2805100004
 20
14.2777288975
 10
-55.2632214671
 20
14.2770979988
 10
-55.2458608571
 20
14.2762566767
 10
-55.2284465689
 20
14.2751914526
 10
-55.2109970012
 20
14.2738888478
 10
-55.1935305523
 20
14.2723353835
 10
-55.176065621
 20
14.2705175811
 10
-55.1586206055
 20
14.268421962
 10
-55.1412139046
 20
14.2660350474
 10
-55.1238639168
 20
14.2633433586
 10
-55.1065890404
 20
14.2603334169
 10
-55.0894076742
 20
14.2569917438
 10
-55.0723382166
 20
14.2533048604
 10
-55.0553990661
 20
14.2492592881
 10
-55.0386086213
 20
14.2448415483
 10
-55.0219852808
 20
14.2400381621
 10
-55.0055474429
 20
14.234835651
 10
-54.9893135063
 20
14.2292205363
 10
-54.9733018695
 20
14.2231793392
 10
-54.9575309311
 20
14.2166985811
 10
-54.9420190894
 20
14.2097647833
 10
-54.9267847432
 20
14.2023644671
 10
-54.9118462908
 20
14.1944841538
 10
-54.8972221309
 20
14.1861103648
 10
-54.882930662
 20
14.1772296213
 10
-54.8689902825
 20
14.1678284447
 10
-54.8554193911
 20
14.1578933563
 10
-54.8422363862
 20
14.1474108774
 10
-54.8294833162
 20
14.1363968482
 10
-54.8171451547
 20
14.1248515406
 10
-54.8052321396
 20
14.1128023168
 10
-54.7937545086
 20
14.1002765392
 10
-54.7827224995
 20
14.08730157
 10
-54.77214635
 20
14.0739047716
 10
-54.7620362978
 20
14.0601135063
 10
-54.7524025808
 20
14.0459551365
 10
-54.7432554365
 20
14.0314570243
 10
-54.7346051029
 20
14.0166465322
 10
-54.7264618176
 20
14.0015510224
 10
-54.7188358184
 20
13.9861978574
 10
-54.7117373431
 20
13.9706143993
 10
-54.7051766293
 20
13.9548280105
 10
-54.6991639149
 20
13.9388660533
 10
-54.6933112379
 20
13.9215239034
 10
-54.6880754635
 20
13.9040256815
 10
-54.6834272379
 20
13.8863868899
 10
-54.6793372072
 20
13.8686230307
 10
-54.6757760175
 20
13.8507496062
 10
-54.6727143151
 20
13.8327821187
 10
-54.670122746
 20
13.8147360705
 10
-54.6679719564
 20
13.7966269637
 10
-54.6662325924
 20
13.7784703007
 10
-54.6648753003
 20
13.7602815837
 10
-54.663870726
 20
13.742076315
 10
-54.6631895159
 20
13.7238699967
 10
-54.662802316
 20
13.7056781313
 10
-54.6626797724
 20
13.6875162208
  0
LINE
  5
641
100
AcDbEntity
  8
ASSI
100
AcDbLine
 62
250
  6
CONTINUOUS
 10
-37.4025606694
 20
15.9938125649
 11
-58.1112868727
 21
16.119659166
  0
LINE
  5
642
100
AcDbEntity
  8
ASSI
100
AcDbLine
 62
7
  6
CONTINUOUS
 10
-35.1077961259
 20
14.1685199519
 11
-36.9112868727
 21
14.2
  0
LINE
  5
643
100
AcDbEntity
  8
RACCORDO
100
AcDbLine
 62
250
  6
CONTINUOUS
 10
-58.1112868727
 20
16.1191678393
 11
-59.5806086384
 21
16.1515736583
  0
LINE
  5
644
100
AcDbEntity
  8
ASSI
100
AcDbLine
 62
7
  6
CONTINUOUS
 10
-50.4673573743
 20
-21.6560705017
 11
-51.9617913888
 21
-22.2
  0
LINE
  5
645
100
AcDbEntity
  8
RACCORDO
100
AcDbLine
 62
250
  6
CONTINUOUS
 10
-59.6934981748
 20
17.2480048163
 11
-60.4912768066
 21
17.2340795384
  0
LINE
  5
646
100
AcDbEntity
  8
RACCORDO
100
AcDbLine
 62
7
  6
CONTINUOUS
 10
-59.5704686362
 20
18.25
 11
-60.4036676783
 21
18.2354564566
  0
LWPOLYLINE
  5
647
100
AcDbEntity
  8
ASSI
100
AcDbPolyline
 62
250
  6
CONTINUOUS
 90
7
 70
0
 10
-46.1092331769
 20
17.2994023518
 10
-48.1127615098
 20
17.3070913411
 10
-50.1150154227
 20
17.315699877
 10
-52.1159949154
 20
17.3252330414
 10
-54.1156999879
 20
17.3356958128
 10
-56.1141306403
 20
17.3470930654
 10
-58.1112868727
 20
17.3594295692
  0
LINE
  5
648
100
AcDbEntity
  8
ASSI
100
AcDbLine
 62
250
  6
CONTINUOUS
 10
-44.674812445
 20
17.2826903593
 11
-46.1092336164
 21
17.2993848345
  0
LINE
  5
649
100
AcDbEntity
  8
ASSI
100
AcDbLine
 62
7
  6
CONTINUOUS
 10
-37.4025606694
 20
17.3444976057
 11
-46.1093045273
 21
17.496474385
  0
LINE
  5
64A
100
AcDbEntity
  8
ASSI
100
AcDbLine
 62
250
  6
CONTINUOUS
 10
-37.4023677372
 20
17.1282179135
 11
-44.674812445
 21
17.2826903593
  0
LINE
  5
64B
100
AcDbEntity
  8
RACCORDO
100
AcDbLine
 62
250
  6
CONTINUOUS
 10
-58.1112868727
 20
17.3599341912
 11
-59.4842067446
 21
17.3925302656
  0
LINE
  5
64C
100
AcDbEntity
  8
ASSI
100
AcDbLine
 62
250
  6
CONTINUOUS
 10
-46.1593047213
 20
17.3056649689
 11
-46.1092331769
 21
17.2994023518
  0
LINE
  5
64D
100
AcDbEntity
  8
RACCORDO
100
AcDbLine
 62
250
  6
CONTINUOUS
 10
-66.7724583635
 20
20.9271175378
 11
-67.117469145
 21
20.971891264
  0
LWPOLYLINE
  5
64E
100
AcDbEntity
  8
RACCORDO
100
AcDbPolyline
 62
250
  6
CONTINUOUS
 90
3
 70
0
 10
-67.117469145
 20
20.971891264
 10
-67.2554847692
 20
20.989967247
 10
-67.2596274047
 20
20.9905506496
  0
LINE
  5
64F
100
AcDbEntity
  8
ASSI
100
AcDbLine
 62
7
  6
CONTINUOUS
 10
-50.4673573743
 20
21.6560705017
 11
-51.9617913888
 21
22.2
  0
LINE
  5
650
100
AcDbEntity
  8
DRAFT
100
AcDbLine
 62
7
  6
CONTINUOUS
 10
-60.2502814012
 20
19.9886696272
 11
-59.3550682176
 21
20.0042956314
  0
LINE
  5
651
100
AcDbEntity
  8
DRAFT
100
AcDbLine
 62
7
  6
CONTINUOUS
 10
-59.7182680085
 20
20.6931398302
 11
-59.2684940585
 21
20.6852889967
  0
LINE
  5
652
100
AcDbEntity
  8
ASSI
100
AcDbLine
 62
7
  6
CONTINUOUS
 10
-53.9639047336
 20
21.1974274352
 11
-50.1404320747
 21
21.1306884717
  0
LINE
  5
653
100
AcDbEntity
  8
ASSI
100
AcDbLine
 62
250
  6
CONTINUOUS
 10
-53.9639047336
 20
21.0747565807
 11
-50.1403153453
 21
21.0077163026
  0
LWPOLYLINE
  5
654
100
AcDbEntity
  8
RACCORDO
100
AcDbPolyline
 62
250
  6
CONTINUOUS
 90
19
 70
0
 10
-66.2460720413
 20
21.3619912846
 10
-66.2880924685
 20
21.3627559474
 10
-66.3295187075
 20
21.3601102301
 10
-66.3703507584
 20
21.3540541326
 10
-66.4108834626
 20
21.344498435
 10
-66.4508219788
 20
21.3315323573
 10
-66.4892817826
 20
21.3154235595
 10
-66.5262133294
 20
21.2961058787
 10
-66.5616661639
 20
21.2736454779
 10
-66.5949043959
 20
21.2485085063
 10
-66.6258781675
 20
21.2206430873
 10
-66.6546373367
 20
21.1901010976
 10
-66.6805955868
 20
21.1575043166
 10
-66.7037017304
 20
21.1227970053
 10
-66.724006955
 20
21.0860349028
 10
-66.741078506
 20
21.0480070051
 10
-66.754772132
 20
21.0089763111
 10
-66.7652320845
 20
20.968679822
 10
-66.7724583635
 20
20.9271175378
  0
LINE
  5
655
100
AcDbEntity
  8
RACCORDO
100
AcDbLine
 62
250
  6
CONTINUOUS
 10
-60.1626837539
 20
20.9899153176
 11
-66.2460720413
 21
21.3619912846
  0
LINE
  5
656
100
AcDbEntity
  8
RACCORDO
100
AcDbLine
 62
7
  6
CONTINUOUS
 10
-60.1191108597
 20
21.4879557765
 11
-66.2068547742
 21
21.8602981451
  0
LINE
  5
657
100
AcDbEntity
  8
RACCORDO
100
AcDbLine
 62
250
  6
CONTINUOUS
 10
-58.8508699265
 20
22.2580163243
 11
-58.1112868727
 21
22.2974831693
  0
LINE
  5
658
100
AcDbEntity
  8
RACCORDO
100
AcDbLine
 62
7
  6
CONTINUOUS
 10
-58.899473065
 20
22.358692912
 11
-58.1112868727
 21
22.4
  0
LINE
  5
659
100
AcDbEntity
  8
RACCORDO
100
AcDbLine
 62
250
  6
CONTINUOUS
 10
-58.891512262
 20
22.2571966284
 11
-58.8508696408
 21
22.2580182737
  0
LINE
  5
65A
100
AcDbEntity
  8
DRAFT
100
AcDbLine
 62
7
  6
CONTINUOUS
 10
-59.718268009
 20
21.7068601698
 11
-59.1477583306
 21
21.7168184533
  0
LINE
  5
65B
100
AcDbEntity
  8
ASSI
100
AcDbLine
 62
7
  6
CONTINUOUS
 10
-51.9617913888
 20
22.2
 11
-52.5112868727
 21
22.2
  0
LWPOLYLINE
  5
65C
100
AcDbEntity
  8
ASSI
100
AcDbPolyline
 62
7
  6
CONTINUOUS
 90
8
 70
0
 10
-54.1112868727
 20
22.6298666026
 10
-54.5503442158
 20
22.6330782892
 10
-54.9907508745
 20
22.6364212804
 10
-55.4325068486
 20
22.6398908175
 10
-55.8756155252
 20
22.6434802059
 10
-56.3200735172
 20
22.6471865624
 10
-56.7658706641
 20
22.651011599
 10
-57.2130035788
 20
22.6549535822
  0
LINE
  5
65D
100
AcDbEntity
  8
ASSI
100
AcDbLine
 62
7
  6
CONTINUOUS
 10
-57.2130035788
 20
22.6549535822
 11
-58.1112868727
 21
22.663166622
  0
LINE
  5
65E
100
AcDbEntity
  8
ASSI
100
AcDbLine
 62
7
  6
CONTINUOUS
 10
-58.1112868727
 20
23.5
 11
-54.1112868727
 21
23.4301797403
  0
LINE
  5
65F
100
AcDbEntity
  8
DRAFT
100
AcDbLine
 62
7
  6
CONTINUOUS
 10
-56.2112868727
 20
23.4668353766
 11
-58.1112868727
 21
23.5
  0
LINE
  5
660
100
AcDbEntity
  8
ASSI
100
AcDbLine
 62
250
  6
CONTINUOUS
 10
-58.1112868727
 20
23.3333596575
 11
-54.1112868727
 21
23.2631073618
  0
LWPOLYLINE
  5
661
100
AcDbEntity
  8
ASSI
100
AcDbPolyline
 62
7
  6
CONTINUOUS
 90
3
 70
0
 10
-57.2130035788
 20
23.1626574735
 10
-57.6614756483
 20
23.1713220758
 10
-58.1112868727
 20
23.1799085618
  0
LWPOLYLINE
  5
662
100
AcDbEntity
  8
ASSI
100
AcDbPolyline
 62
7
  6
CONTINUOUS
 90
7
 70
0
 10
-54.1112868727
 20
23.0998904748
 10
-54.5503442158
 20
23.1090906657
 10
-54.9907508745
 20
23.1182163208
 10
-55.4325068486
 20
23.1272645049
 10
-55.8756155252
 20
23.136227616
 10
-56.3200735172
 20
23.1451078252
 10
-57.2130035788
 20
23.1626574735
  0
LWPOLYLINE
  5
663
100
AcDbEntity
  8
0
100
AcDbPolyline
 62
7
  6
CONTINUOUS
 90
7
 70
0
 43
0.3500000006
 10
-47.6541430664
 20
32.2500004578
 10
-49.1541435242
 20
32.2500004578
 10
-47.6541430664
 20
34.392858902
 10
-47.6541430664
 20
34.8214278717
 10
-48.082716568
 20
35.2500013733
 10
-48.7255745544
 20
35.2500013733
 10
-49.1541435242
 20
34.6071433868
  0
LWPOLYLINE
  5
664
100
AcDbEntity
  8
0
100
AcDbPolyline
 62
7
  6
CONTINUOUS
 90
6
 70
0
 43
0.3500000006
 10
-55.3419093933
 20
42.2499989777
 10
-54.2704779053
 20
42.2499989777
 10
-54.0561934204
 20
42.4642834625
 10
-54.0561934204
 20
43.5357149506
 10
-54.484766922
 20
43.9642839203
 10
-54.9133358917
 20
43.9642839203
  0
LWPOLYLINE
  5
665
100
AcDbEntity
  8
0
100
AcDbPolyline
 62
7
  6
CONTINUOUS
 90
8
 70
0
 43
0.3500000006
 10
-49.1276230774
 20
42.2499989777
 10
-48.2704806061
 20
42.2499989777
 10
-47.8419071045
 20
42.6785724792
 10
-47.8419071045
 20
43.5357149506
 10
-48.2704806061
 20
43.9642839203
 10
-49.1276230774
 20
43.9642839203
 10
-49.1276230774
 20
45.2499998932
 10
-47.8419071045
 20
45.2499998932
  0
ARC
  5
666
100
AcDbEntity
  8
DRAFT
100
AcDbCircle
 62
7
  6
CONTINUOUS
 10
-6.725
 20
-23.1
 40
0.5
100
AcDbArc
 50
74.3932919591
 51
175.690566844
  0
ARC
  5
667
100
AcDbEntity
  8
DRAFT
100
AcDbCircle
 62
7
  6
CONTINUOUS
 10
-16.625
 20
-23.1
 40
0.5
100
AcDbArc
 50
4.309433156
 51
105.6067080409
  0
ARC
  5
668
100
AcDbEntity
  8
RACCORDO
100
AcDbCircle
 62
7
  6
CONTINUOUS
 10
-22.925
 20
0.0
 40
28.0
100
AcDbArc
 50
307.2167524546
 51
308.0547272489
  0
ARC
  5
669
100
AcDbEntity
  8
RACCORDO
100
AcDbCircle
 62
7
  6
CONTINUOUS
 10
-22.925
 20
0.0
 40
28.0
100
AcDbArc
 50
51.3356446726
 51
52.7832476643
  0
ARC
  5
66A
100
AcDbEntity
  8
DRAFT
100
AcDbCircle
 62
7
  6
CONTINUOUS
 10
-22.925
 20
0.0
 40
27.9
100
AcDbArc
 50
55.7520965189
 51
57.3831491754
  0
ARC
  5
66B
100
AcDbEntity
  8
DRAFT
100
AcDbCircle
 62
7
  6
CONTINUOUS
 10
-22.925
 20
0.0
 40
27.9
100
AcDbArc
 50
53.4047963402
 51
54.164044678
  0
ARC
  5
66C
100
AcDbEntity
  8
DRAFT
100
AcDbCircle
 62
7
  6
CONTINUOUS
 10
-22.925
 20
0.0
 40
27.9
100
AcDbArc
 50
305.835955322
 51
306.5952036598
  0
ARC
  5
66D
100
AcDbEntity
  8
DRAFT
100
AcDbCircle
 62
7
  6
CONTINUOUS
 10
-22.925
 20
0.0
 40
27.9
100
AcDbArc
 50
302.6168508246
 51
304.2479034811
  0
ARC
  5
66E
100
AcDbEntity
  8
DRAFT
100
AcDbCircle
 62
7
  6
CONTINUOUS
 10
-6.725
 20
23.1
 40
0.5
100
AcDbArc
 50
184.309433156
 51
285.6067080409
  0
ARC
  5
66F
100
AcDbEntity
  8
DRAFT
100
AcDbCircle
 62
7
  6
CONTINUOUS
 10
-16.625
 20
23.1
 40
0.5
100
AcDbArc
 50
254.3932919591
 51
355.690566844
  0
ARC
  5
670
100
AcDbEntity
  8
ASSI
100
AcDbCircle
 62
7
  6
CONTINUOUS
 10
15.775
 20
-23.1
 40
0.5
100
AcDbArc
 50
60.887577224
 51
189.196281579
  0
ARC
  5
671
100
AcDbEntity
  8
ASSI
100
AcDbCircle
 62
7
  6
CONTINUOUS
 10
5.875
 20
-23.1
 40
0.5
100
AcDbArc
 50
350.803718421
 51
119.112422776
  0
ARC
  5
672
100
AcDbEntity
  8
ASSI
100
AcDbCircle
 62
7
  6
CONTINUOUS
 10
8.525
 20
-22.0
 40
0.5
100
AcDbArc
 50
233.1301023542
 51
306.8698976458
  0
ARC
  5
673
100
AcDbEntity
  8
ASSI
100
AcDbCircle
 62
7
  6
CONTINUOUS
 10
13.125
 20
-22.0
 40
0.5
100
AcDbArc
 50
233.1301023542
 51
306.8698976458
  0
ARC
  5
674
100
AcDbEntity
  8
ASSI
100
AcDbCircle
 62
7
  6
CONTINUOUS
 10
-0.425
 20
0.0
 40
28.0
100
AcDbArc
 50
305.9627651514
 51
307.2516081111
  0
ARC
  5
675
100
AcDbEntity
  8
ASSI
100
AcDbCircle
 62
7
  6
CONTINUOUS
 10
-0.425
 20
0.0
 40
28.0
100
AcDbArc
 50
303.5572123136
 51
304.1210936517
  0
ARC
  5
676
100
AcDbEntity
  8
ASSI
100
AcDbCircle
 62
7
  6
CONTINUOUS
 10
-0.425
 20
0.0
 40
28.0
100
AcDbArc
 50
55.8789063483
 51
56.4427876864
  0
ARC
  5
677
100
AcDbEntity
  8
ASSI
100
AcDbCircle
 62
7
  6
CONTINUOUS
 10
-0.425
 20
0.0
 40
28.0
100
AcDbArc
 50
52.7520764812
 51
54.0372348486
  0
ARC
  5
678
100
AcDbEntity
  8
RACCORDO
100
AcDbCircle
 62
7
  6
CONTINUOUS
 10
-0.425
 20
0.0
 40
28.0
100
AcDbArc
 50
127.2167524544
 51
128.6643553326
  0
ARC
  5
679
100
AcDbEntity
  8
RACCORDO
100
AcDbCircle
 62
7
  6
CONTINUOUS
 10
-0.425
 20
0.0
 40
28.0
100
AcDbArc
 50
231.9452727704
 51
232.7832476643
  0
ARC
  5
67A
100
AcDbEntity
  8
RACCORDO
100
AcDbCircle
 62
7
  6
CONTINUOUS
 10
-0.425
 20
-0.0
 40
28.0
100
AcDbArc
 50
51.3370171323
 51
52.7818812416
  0
ARC
  5
67B
100
AcDbEntity
  8
RACCORDO
100
AcDbCircle
 62
7
  6
CONTINUOUS
 10
-0.425
 20
-0.0
 40
28.0
100
AcDbArc
 50
307.2181187584
 51
308.0546783079
  0
ARC
  5
67C
100
AcDbEntity
  8
DRAFT
100
AcDbCircle
 62
7
  6
CONTINUOUS
 10
-0.425
 20
0.0
 40
27.9
100
AcDbArc
 50
125.835955322
 51
126.5952036598
  0
ARC
  5
67D
100
AcDbEntity
  8
DRAFT
100
AcDbCircle
 62
7
  6
CONTINUOUS
 10
-0.425
 20
0.0
 40
27.9
100
AcDbArc
 50
122.6168508246
 51
124.2479034811
  0
ARC
  5
67E
100
AcDbEntity
  8
DRAFT
100
AcDbCircle
 62
7
  6
CONTINUOUS
 10
-0.425
 20
0.0
 40
27.9
100
AcDbArc
 50
235.7520965189
 51
237.3831491754
  0
ARC
  5
67F
100
AcDbEntity
  8
DRAFT
100
AcDbCircle
 62
7
  6
CONTINUOUS
 10
-0.425
 20
0.0
 40
27.9
100
AcDbArc
 50
233.4047963402
 51
234.164044678
  0
ARC
  5
680
100
AcDbEntity
  8
ASSI
100
AcDbCircle
 62
7
  6
CONTINUOUS
 10
5.875
 20
23.1
 40
0.5
100
AcDbArc
 50
240.887577224
 51
9.196281579
  0
ARC
  5
681
100
AcDbEntity
  8
ASSI
100
AcDbCircle
 62
7
  6
CONTINUOUS
 10
8.525
 20
22.0
 40
0.5
100
AcDbArc
 50
53.1301023542
 51
126.8698976458
  0
ARC
  5
682
100
AcDbEntity
  8
ASSI
100
AcDbCircle
 62
7
  6
CONTINUOUS
 10
22.075
 20
0.0
 40
28.0
100
AcDbArc
 50
235.8789063483
 51
236.4427876864
  0
ARC
  5
683
100
AcDbEntity
  8
ASSI
100
AcDbCircle
 62
7
  6
CONTINUOUS
 10
22.075
 20
0.0
 40
28.0
100
AcDbArc
 50
232.7520764812
 51
234.0372348486
  0
ARC
  5
684
100
AcDbEntity
  8
ASSI
100
AcDbCircle
 62
7
  6
CONTINUOUS
 10
22.075
 20
0.0
 40
28.0
100
AcDbArc
 50
125.9627651514
 51
127.251608111
  0
ARC
  5
685
100
AcDbEntity
  8
ASSI
100
AcDbCircle
 62
7
  6
CONTINUOUS
 10
22.075
 20
0.0
 40
28.0
100
AcDbArc
 50
123.5572123136
 51
124.1210936517
  0
ARC
  5
686
100
AcDbEntity
  8
RACCORDO
100
AcDbCircle
 62
7
  6
CONTINUOUS
 10
22.075
 20
-0.0
 40
28.0
100
AcDbArc
 50
127.2181187584
 51
128.6629828617
  0
ARC
  5
687
100
AcDbEntity
  8
RACCORDO
100
AcDbCircle
 62
7
  6
CONTINUOUS
 10
22.075
 20
-0.0
 40
28.0
100
AcDbArc
 50
231.9453216311
 51
232.7818812416
  0
ARC
  5
688
100
AcDbEntity
  8
ASSI
100
AcDbCircle
 62
7
  6
CONTINUOUS
 10
15.775
 20
23.1
 40
0.5
100
AcDbArc
 50
170.803718421
 51
299.112422776
  0
ARC
  5
689
100
AcDbEntity
  8
ASSI
100
AcDbCircle
 62
7
  6
CONTINUOUS
 10
13.125
 20
22.0
 40
0.5
100
AcDbArc
 50
53.1301023542
 51
126.8698976458
  0
ARC
  5
68A
100
AcDbEntity
  8
RACCORDO
100
AcDbCircle
 62
7
  6
CONTINUOUS
 10
-69.8745275831
 20
-20.361740689
 40
1.0
100
AcDbArc
 50
177.3764107502
 51
263.5
  0
ARC
  5
68B
100
AcDbEntity
  8
ASSI
100
AcDbCircle
 62
7
  6
CONTINUOUS
 10
-37.4112868727
 20
-18.9
 40
0.5
100
AcDbArc
 50
270.0
 51
360.0
  0
ARC
  5
68C
100
AcDbEntity
  8
ASSI
100
AcDbCircle
 62
7
  6
CONTINUOUS
 10
-50.1491582779
 20
-20.6307646241
 40
0.5
100
AcDbArc
 50
271.0
 51
315.0
  0
ARC
  5
68D
100
AcDbEntity
  8
ASSI
100
AcDbCircle
 62
7
  6
CONTINUOUS
 10
-48.0041800915
 20
-19.9
 40
0.5
100
AcDbArc
 50
90.0
 51
135.0
  0
ARC
  5
68E
100
AcDbEntity
  8
RACCORDO
100
AcDbCircle
 62
7
  6
CONTINUOUS
 10
-59.7112868727
 20
-21.3069210948
 40
0.4
100
AcDbArc
 50
179.9998399994
 51
268.9999751098
  0
ARC
  5
68F
100
AcDbEntity
  8
RACCORDO
100
AcDbCircle
 62
7
  6
CONTINUOUS
 10
-59.7112868727
 20
-21.0930789052
 40
0.4
100
AcDbArc
 50
91.0000248176
 51
180.0001595257
  0
ARC
  5
690
100
AcDbEntity
  8
RACCORDO
100
AcDbCircle
 62
7
  6
CONTINUOUS
 10
-58.8444915923
 20
-22.1112312824
 40
0.25
100
AcDbArc
 50
187.0
 51
267.0000041485
  0
ARC
  5
691
100
AcDbEntity
  8
RACCORDO
100
AcDbCircle
 62
7
  6
CONTINUOUS
 10
-58.8890058738
 20
-22.158967005
 40
0.2
100
AcDbArc
 50
187.0
 51
267.0
  0
ARC
  5
692
100
AcDbEntity
  8
ASSI
100
AcDbCircle
 62
7
  6
CONTINUOUS
 10
-35.1112868727
 20
-15.6685504175
 40
0.2
100
AcDbArc
 50
271.0010959499
 51
0.0535504936
  0
ARC
  5
693
100
AcDbEntity
  8
RACCORDO
100
AcDbCircle
 62
7
  6
CONTINUOUS
 10
-60.3000221345
 20
-0.0
 40
1.5
100
AcDbArc
 50
173.0
 51
187.0
  0
ARC
  5
694
100
AcDbEntity
  8
RACCORDO
100
AcDbCircle
 62
7
  6
CONTINUOUS
 10
-66.2679033137
 20
20.8621633467
 40
1.0
100
AcDbArc
 50
86.5
 51
172.6235892498
  0
ARC
  5
695
100
AcDbEntity
  8
ASSI
100
AcDbCircle
 62
7
  6
CONTINUOUS
 10
-50.1491582779
 20
20.6307646241
 40
0.5
100
AcDbArc
 50
45.0
 51
89.0
  0
ARC
  5
696
100
AcDbEntity
  8
RACCORDO
100
AcDbCircle
 62
7
  6
CONTINUOUS
 10
-59.7112868727
 20
21.3069210948
 40
0.4
100
AcDbArc
 50
91.0000248902
 51
180.0001600006
  0
ARC
  5
697
100
AcDbEntity
  8
RACCORDO
100
AcDbCircle
 62
7
  6
CONTINUOUS
 10
-59.7112868727
 20
21.0930789052
 40
0.4
100
AcDbArc
 50
179.9998404743
 51
268.9999751824
  0
ARC
  5
698
100
AcDbEntity
  8
RACCORDO
100
AcDbCircle
 62
7
  6
CONTINUOUS
 10
-58.8444915923
 20
22.1112312824
 40
0.25
100
AcDbArc
 50
93.0
 51
173.0
  0
ARC
  5
699
100
AcDbEntity
  8
RACCORDO
100
AcDbCircle
 62
7
  6
CONTINUOUS
 10
-58.8890087039
 20
22.1589439559
 40
0.2
100
AcDbArc
 50
92.9988449074
 51
172.9933473259
  0
ARC
  5
69A
100
AcDbEntity
  8
ASSI
100
AcDbCircle
 62
7
  6
CONTINUOUS
 10
-53.9612868727
 20
21.3474045895
 40
0.15
100
AcDbArc
 50
249.2883508192
 51
269.0
  0
ARC
  5
69B
100
AcDbEntity
  8
ASSI
100
AcDbCircle
 62
7
  6
CONTINUOUS
 10
-31.9112868727
 20
-7.2126485113
 40
0.5
100
AcDbArc
 50
271.0
 51
360.0
  0
ARC
  5
69C
100
AcDbEntity
  8
ASSI
100
AcDbCircle
 62
7
  6
CONTINUOUS
 10
-35.1112868727
 20
-8.7314495825
 40
0.2
100
AcDbArc
 50
359.9963568207
 51
88.9999239301
  0
ARC
  5
69D
100
AcDbEntity
  8
ASSI
100
AcDbCircle
 62
7
  6
CONTINUOUS
 10
-31.9112868727
 20
7.2126485113
 40
0.5
100
AcDbArc
 50
0.0
 51
89.0
  0
ARC
  5
69E
100
AcDbEntity
  8
ASSI
100
AcDbCircle
 62
7
  6
CONTINUOUS
 10
-37.4112868727
 20
16.8445737581
 40
0.5
100
AcDbArc
 50
0.0
 51
89.0
  0
ARC
  5
69F
100
AcDbEntity
  8
ASSI
100
AcDbCircle
 62
7
  6
CONTINUOUS
 10
-46.1005783241
 20
17.9963982326
 40
0.5
100
AcDbArc
 50
225.0
 51
269.0
  0
ARC
  5
6A0
100
AcDbEntity
  8
ASSI
100
AcDbCircle
 62
7
  6
CONTINUOUS
 10
-35.1112868727
 20
13.9685504175
 40
0.2
100
AcDbArc
 50
359.9963568207
 51
88.9999239301
  0
ARC
  5
6A1
100
AcDbEntity
  8
RACCORDO
100
AcDbCircle
 62
7
  6
CONTINUOUS
 10
428.6024249714
 20
-43.20310168
 40
500.0
100
AcDbArc
 50
172.6235892498
 51
177.3764107502
  0
ELLIPSE
  5
6A2
100
AcDbEntity
  8
RACCORDO
100
AcDbEllipse
 62
7
  6
CONTINUOUS
 10
-8.4636765007
 20
-22.158967005
 30
0.0
 11
0.0
 21
0.2
 31
0.0
 40
0.0174550649
 41
-3.089232776
 42
-1.6929693744
  0
ELLIPSE
  5
6A3
100
AcDbEntity
  8
RACCORDO
100
AcDbEllipse
 62
7
  6
CONTINUOUS
 10
-14.8863234993
 20
-22.158967005
 30
0.0
 11
0.0
 21
0.2
 31
0.0
 40
0.0174550649
 41
-4.5902159327
 42
-3.1939525311
  0
ELLIPSE
  5
6A4
100
AcDbEntity
  8
RACCORDO
100
AcDbEllipse
 62
7
  6
CONTINUOUS
 10
-14.8863234993
 20
22.158967005
 30
0.0
 11
0.0
 21
0.2
 31
0.0
 40
0.0174550649
 41
0.0523598776
 42
1.4486232792
  0
ELLIPSE
  5
6A5
100
AcDbEntity
  8
RACCORDO
100
AcDbEllipse
 62
7
  6
CONTINUOUS
 10
-8.4636765007
 20
22.158967005
 30
0.0
 11
0.0
 21
0.2
 31
0.0
 40
0.0174550649
 41
-1.4486232792
 42
-0.0523598776
  0
ELLIPSE
  5
6A6
100
AcDbEntity
  8
RACCORDO
100
AcDbEllipse
 62
7
  6
CONTINUOUS
 10
21.224923836
 20
20.9896876834
 30
0.0
 11
0.4990996396
 21
0.0313507587
 31
0.0
 40
0.9963558159
 41
-0.0625041969
 42
0.2148510514
  0
ELLIPSE
  5
6A7
100
AcDbEntity
  8
RACCORDO
100
AcDbEllipse
 62
7
  6
CONTINUOUS
 10
21.224923836
 20
-21.547484437
 30
0.0
 11
0.4990996396
 21
-0.0313507587
 31
0.0
 40
0.9963558159
 41
-1.5078352791
 42
0.0625041969
  0
ELLIPSE
  5
6A8
100
AcDbEntity
  8
RACCORDO
100
AcDbEllipse
 62
7
  6
CONTINUOUS
 10
-22.074923836
 20
-21.547484437
 30
0.0
 11
0.4990996396
 21
0.0313507587
 31
0.0
 40
0.9963558159
 41
3.0790884567
 42
4.6494279327
  0
ELLIPSE
  5
6A9
100
AcDbEntity
  8
RACCORDO
100
AcDbEllipse
 62
7
  6
CONTINUOUS
 10
-22.074923836
 20
20.9896876834
 30
0.0
 11
0.4990996396
 21
-0.0313507587
 31
0.0
 40
0.9963558159
 41
2.9267416428
 42
3.2040968505
  0
ELLIPSE
  5
6AA
100
AcDbEntity
  8
0
100
AcDbEllipse
 62
250
  6
CONTINUOUS
 10
-45.1121236177
 20
-6.000859
 30
0.0
 11
0.0
 21
1.7500004278
 31
0.0
 40
0.9996954135
 41
-2.1665240772
 42
-0.9750690494
  0
ELLIPSE
  5
6AB
100
AcDbEntity
  8
0
100
AcDbEllipse
 62
250
  6
CONTINUOUS
 10
-45.1121236177
 20
-6.000859
 30
0.0
 11
0.0
 21
1.7499998666
 31
0.0
 40
0.9996954135
 41
0.9750690494
 42
2.1665240772
  0
ELLIPSE
  5
6AC
100
AcDbEntity
  8
0
100
AcDbEllipse
 62
250
  6
CONTINUOUS
 10
-50.6112808727
 20
7.999994
 30
0.0
 11
0.0
 21
0.499999
 31
0.0
 40
1.0
 41
0.0
 42
6.2831853072
  0
ELLIPSE
  5
6AD
100
AcDbEntity
  8
0
100
AcDbEllipse
 62
250
  6
CONTINUOUS
 10
-45.1121236177
 20
-6.000859
 30
0.0
 11
-0.0
 21
1.2314818666
 31
0.0
 40
0.9996954135
 41
0.963008735
 42
5.3201765722
  0
ENDSEC
  0
SECTION
  2
OBJECTS
  0
DICTIONARY
  5
C
100
AcDbDictionary
280
0
281
1
  3
ACAD_GROUP
350
D
  3
ACAD_MLINESTYLE
350
17
  3
ACAD_LAYOUT
350
1A
  3
ACAD_PLOTSETTINGS
350
19
  3
ACAD_PLOTSTYLENAME
350
E
  0
DICTIONARY
  5
D
102
{ACAD_REACTORS
330
C
102
}
100
AcDbDictionary
280
0
281
1
  0
ACDBDICTIONARYWDFLT
  5
E
102
{ACAD_REACTORS
330
C
102
}
100
AcDbDictionary
281
1
  3
Normal
350
F
100
AcDbDictionaryWithDefault
340
F
  0
DICTIONARY
  5
17
102
{ACAD_REACTORS
330
C
102
}
100
AcDbDictionary
280
0
281
1
  3
Standard
350
18
  0
DICTIONARY
  5
19
102
{ACAD_REACTORS
330
C
102
}
100
AcDbDictionary
281
1
  0
DICTIONARY
  5
1A
102
{ACAD_REACTORS
330
C
102
}
100
AcDbDictionary
281
1
  3
Model
350
6AE
  3
Layout1
350
6AF
  0
ACDBPLACEHOLDER
  5
F
102
{ACAD_REACTORS
330
E
102
}
  0
MLINESTYLE
  5
18
102
{ACAD_REACTORS
330
17
102
}
100
AcDbMlineStyle
  2
STANDARD
 70
0
  3

 62
256
 51
90.0
 52
90.0
 71
2
 49
0.5
 62
256
  6
BYLAYER
 49
-0.5
 62
256
  6
BYLAYER
  0
LAYOUT
  5
6AE
102
{ACAD_REACTORS
330
1A
102
}
100
AcDbPlotSettings
  1

  2
none_device
  4
ISO_A4_(297.00_x_210.00_MM)
  6

 40
0.0
 41
0.0
 42
0.0
 43
0.0
 44
297.0
 45
210.0
 46
0.0
 47
0.0
 48
0.0
 49
0.0
140
0.0
141
0.0
142
1.0
143
1.0
 70
1024
 72
1
 73
0
 74
0
  7

 75
0
147
1.0
148
0.0
149
0.0
100
AcDbLayout
  1
Model
 70
0
 71
0
 10
0.0
 20
0.0
 11
297.0
 21
210.0
 12
0.0
 22
0.0
 32
0.0
 14
0.0
 24
0.0
 34
0.0
 15
0.0
 25
0.0
 35
0.0
146
0.0
 13
0.0
 23
0.0
 33
0.0
 16
1.0
 26
0.0
 36
0.0
 17
0.0
 27
1.0
 37
0.0
 76
0
330
21C
345
0
346
0
  0
LAYOUT
  5
6AF
102
{ACAD_REACTORS
330
1A
102
}
100
AcDbPlotSettings
  1

  2
none_device
  4
ISO_A4_(297.00_x_210.00_MM)
  6

 40
0.0
 41
0.0
 42
0.0
 43
0.0
 44
297.0
 45
210.0
 46
0.0
 47
0.0
 48
0.0
 49
0.0
140
0.0
141
0.0
142
1.0
143
1.0
 70
0
 72
1
 73
0
 74
0
  7

 75
0
147
1.0
148
0.0
149
0.0
100
AcDbLayout
  1
Layout1
 70
0
 71
1
 10
0.0
 20
0.0
 11
297.0
 21
210.0
 12
0.0
 22
0.0
 32
0.0
 14
0.0
 24
0.0
 34
0.0
 15
0.0
 25
0.0
 35
0.0
146
0.0
 13
0.0
 23
0.0
 33
0.0
 16
1.0
 26
0.0
 36
0.0
 17
0.0
 27
1.0
 37
0.0
 76
0
330
21D
345
0
346
0
  0
ENDSEC
  0
EOF
