  0
SECTION
  2
HEADER
  9
$ACADVER
  1
AC1015
  9
$DWGCODEPAGE
  3
ANSI_1252
  9
$EXTMAX
 10
558.8
 20
431.8
 30
0.0
  9
$EXTMIN
 10
0.0
 20
0.0
 30
0.0
  9
$LIMMIN
 10
0.0
 20
0.0
  9
$LIMMAX
 10
558.8
 20
431.8
  9
$VIEWCTR
 10
279.4
 20
215.9
  9
$VIEWSIZE
 40
431.8
  9
$CLAYER
  8
0
  9
$LTSCALE
 40
30.734
  9
$CELTYPE
  6
BYLAYER
  9
$DIMSCALE
 40
1.0
  9
$DIMASZ
 40
3.0
  9
$DIMEXO
 40
0.5
  9
$DIMDLI
 40
21.2344
  9
$DIMEXE
 40
1.5
  9
$DIMCEN
 40
5.0292
  9
$DIMLFAC
 40
1.0
  9
$DIMBLK
  1
_FILLED
  9
$DIMTXT
 40
3.0
  9
$DIMTOL
 70
1
  9
$DIMLIM
 70
0
  9
$DIMTFAC
 40
1.0
  9
$DIMTP
 40
0.01
  9
$DIMTM
 40
0.01
  9
$DIMGAP
 40
0.625
  9
$DIMDSEP
 70
44
  9
$PDMODE
 70
3
  9
$PDSIZE
 40
3.0
  9
$HANDSEED
  5
721
  9
$TILEMODE
 70
1
  9
$MEASUREMENT
 70
1
  9
$INSUNITS
 70
4
  0
ENDSEC
  0
SECTION
  2
CLASSES
  0
CLASS
  1
ACDBDICTIONARYWDFLT
  2
AcDbDictionaryWithDefault
  3
AutoCAD 2000
 90
0
280
0
281
0
  0
CLASS
  1
ACDBPLACEHOLDER
  2
AcDbPlaceHolder
  3
AutoCAD 2000
 90
0
280
0
281
0
  0
CLASS
  1
LAYOUT
  2
AcDbLayout
  3
AutoCAD 2000
 90
0
280
0
281
0
  0
ENDSEC
  0
SECTION
  2
TABLES
  0
TABLE
  2
VPORT
  5
8
100
AcDbSymbolTable
 70
2
  0
VPORT
  5
1F4
100
AcDbSymbolTableRecord
100
AcDbViewportTableRecord
  2
*ACTIVE
 70
0
 10
0.0
 20
0.0
 11
1.0
 21
1.0
 12
279.4
 22
215.9
 13
0.0
 23
0.0
 14
1.0
 24
1.0
 15
0.0
 25
0.0
 16
0.0
 26
0.0
 36
1.0
 17
0.0
 27
0.0
 37
0.0
 40
431.8
 41
1.2941176471
 42
50.0
 43
0.0
 44
0.0
 50
0.0
 51
0.0
 71
0
 72
100
 73
1
 74
1
 75
0
 76
0
 77
0
 78
0
  0
ENDTAB
  0
TABLE
  2
LTYPE
  5
5
100
AcDbSymbolTable
 70
6
  0
LTYPE
  5
14
100
AcDbSymbolTableRecord
100
AcDbLinetypeTableRecord
  2
BYBLOCK
 70
0
  3

 72
65
 73
0
 40
0.0
  0
LTYPE
  5
15
100
AcDbSymbolTableRecord
100
AcDbLinetypeTableRecord
  2
BYLAYER
 70
0
  3

 72
65
 73
0
 40
0.0
  0
LTYPE
  5
16
100
AcDbSymbolTableRecord
100
AcDbLinetypeTableRecord
  2
CONTINUOUS
 70
64
  3
Solid line
 72
65
 73
0
 40
0.0
  0
LTYPE
  5
1F5
100
AcDbSymbolTableRecord
100
AcDbLinetypeTableRecord
  2
CENTER
 70
64
  3
____ _ ____ _ ____ _ ____ _ ____ _ ____ _ ____
 72
65
 73
4
 40
0.6
 49
0.375
 74
0
 49
-0.075
 74
0
 49
0.075
 74
0
 49
-0.075
 74
0
  0
LTYPE
  5
1F6
100
AcDbSymbolTableRecord
100
AcDbLinetypeTableRecord
  2
HIDDEN
 70
64
  3
- - - - - - - - - - - - - - - - - - - -
 72
65
 73
2
 40
0.2
 49
0.1
 74
0
 49
-0.1
 74
0
  0
LTYPE
  5
1F7
100
AcDbSymbolTableRecord
100
AcDbLinetypeTableRecord
  2
PHANTOM
 70
64
  3
_____ _ _ _____ _ _ _____ _ _ _____
 72
65
 73
6
 40
0.8
 49
0.45
 74
0
 49
-0.05
 74
0
 49
0.1
 74
0
 49
-0.05
 74
0
 49
0.1
 74
0
 49
-0.05
 74
0
  0
LTYPE
  5
1F8
100
AcDbSymbolTableRecord
100
AcDbLinetypeTableRecord
  2
DOT
 70
64
  3
. . . . . . . . . . . . . . . . . . . .
 72
65
 73
2
 40
0.2
 49
0.1
 74
0
 49
-0.1
 74
0
  0
LTYPE
  5
1F9
100
AcDbSymbolTableRecord
100
AcDbLinetypeTableRecord
  2
DASHED
 70
64
  3
- - - - - - - - - - - - - - - - - - - -
 72
65
 73
2
 40
0.2
 49
0.1
 74
0
 49
-0.1
 74
0
  0
ENDTAB
  0
TABLE
  2
LAYER
  5
2
100
AcDbSymbolTable
 70
36
  0
LAYER
  5
10
100
AcDbSymbolTableRecord
100
AcDbLayerTableRecord
  2
0
 70
0
 62
7
  6
CONTINUOUS
370
-3
390
F
  0
LAYER
  5
1FA
100
AcDbSymbolTableRecord
100
AcDbLayerTableRecord
  2
DEFAULT_1
 70
0
 62
7
  6
CENTER
370
-3
390
F
  0
LAYER
  5
1FB
100
AcDbSymbolTableRecord
100
AcDbLayerTableRecord
  2
DEFAULT_2
 70
0
 62
7
  6
HIDDEN
370
-3
390
F
  0
LAYER
  5
1FC
100
AcDbSymbolTableRecord
100
AcDbLayerTableRecord
  2
DEFAULT_3
 70
0
 62
7
  6
PHANTOM
370
-3
390
F
  0
LAYER
  5
1FD
100
AcDbSymbolTableRecord
100
AcDbLayerTableRecord
  2
ASSI
 70
0
 62
7
  6
CONTINUOUS
370
-3
390
F
  0
LAYER
  5
1FE
100
AcDbSymbolTableRecord
100
AcDbLayerTableRecord
  2
COORDINATE
 70
0
 62
7
  6
CONTINUOUS
370
-3
390
F
  0
LAYER
  5
1FF
100
AcDbSymbolTableRecord
100
AcDbLayerTableRecord
  2
COORD_ORIGINE
 70
0
 62
7
  6
CONTINUOUS
370
-3
390
F
  0
LAYER
  5
200
100
AcDbSymbolTableRecord
100
AcDbLayerTableRecord
  2
COPY_PUBLISH
 70
0
 62
7
  6
CONTINUOUS
370
-3
390
F
  0
LAYER
  5
201
100
AcDbSymbolTableRecord
100
AcDbLayerTableRecord
  2
COSMETIC
 70
0
 62
7
  6
CONTINUOUS
370
-3
390
F
  0
LAYER
  5
202
100
AcDbSymbolTableRecord
100
AcDbLayerTableRecord
  2
COSMETICHE
 70
0
 62
7
  6
CONTINUOUS
370
-3
390
F
  0
LAYER
  5
203
100
AcDbSymbolTableRecord
100
AcDbLayerTableRecord
  2
COSMETICI
 70
0
 62
7
  6
CONTINUOUS
370
-3
390
F
  0
LAYER
  5
204
100
AcDbSymbolTableRecord
100
AcDbLayerTableRecord
  2
CURVE
 70
0
 62
7
  6
CONTINUOUS
370
-3
390
F
  0
LAYER
  5
205
100
AcDbSymbolTableRecord
100
AcDbLayerTableRecord
  2
DRAFT
 70
0
 62
7
  6
CONTINUOUS
370
-3
390
F
  0
LAYER
  5
206
100
AcDbSymbolTableRecord
100
AcDbLayerTableRecord
  2
ESTENSIONE
 70
0
 62
7
  6
CONTINUOUS
370
-3
390
F
  0
LAYER
  5
207
100
AcDbSymbolTableRecord
100
AcDbLayerTableRecord
  2
IMPORT_IGES
 70
0
 62
7
  6
CONTINUOUS
370
-3
390
F
  0
LAYER
  5
208
100
AcDbSymbolTableRecord
100
AcDbLayerTableRecord
  2
INTFCLR_1
 70
0
 62
7
  6
CONTINUOUS
370
-3
390
F
  0
LAYER
  5
209
100
AcDbSymbolTableRecord
100
AcDbLayerTableRecord
  2
INTF_2
 70
0
 62
7
  6
CONTINUOUS
370
-3
390
F
  0
LAYER
  5
20A
100
AcDbSymbolTableRecord
100
AcDbLayerTableRecord
  2
NOTE
 70
0
 62
7
  6
CONTINUOUS
370
-3
390
F
  0
LAYER
  5
20B
100
AcDbSymbolTableRecord
100
AcDbLayerTableRecord
  2
PIANI
 70
0
 62
7
  6
CONTINUOUS
370
-3
390
F
  0
LAYER
  5
20C
100
AcDbSymbolTableRecord
100
AcDbLayerTableRecord
  2
PIANI_ORIGINE
 70
0
 62
7
  6
CONTINUOUS
370
-3
390
F
  0
LAYER
  5
20D
100
AcDbSymbolTableRecord
100
AcDbLayerTableRecord
  2
PUNTI
 70
0
 62
7
  6
CONTINUOUS
370
-3
390
F
  0
LAYER
  5
20E
100
AcDbSymbolTableRecord
100
AcDbLayerTableRecord
  2
RACCORDO
 70
0
 62
7
  6
CONTINUOUS
370
-3
390
F
  0
LAYER
  5
20F
100
AcDbSymbolTableRecord
100
AcDbLayerTableRecord
  2
RIFERIMENTI
 70
0
 62
7
  6
CONTINUOUS
370
-3
390
F
  0
LAYER
  5
210
100
AcDbSymbolTableRecord
100
AcDbLayerTableRecord
  2
SIMBOLI
 70
0
 62
7
  6
CONTINUOUS
370
-3
390
F
  0
LAYER
  5
211
100
AcDbSymbolTableRecord
100
AcDbLayerTableRecord
  2
SMUSSO
 70
0
 62
7
  6
CONTINUOUS
370
-3
390
F
  0
LAYER
  5
212
100
AcDbSymbolTableRecord
100
AcDbLayerTableRecord
  2
SNAPLINE
 70
0
 62
7
  6
CONTINUOUS
370
-3
390
F
  0
LAYER
  5
213
100
AcDbSymbolTableRecord
100
AcDbLayerTableRecord
  2
SUPERFICI
 70
0
 62
7
  6
CONTINUOUS
370
-3
390
F
  0
LAYER
  5
214
100
AcDbSymbolTableRecord
100
AcDbLayerTableRecord
  2
SUP_ASS_ANCORINA
 70
0
 62
7
  6
CONTINUOUS
370
-3
390
F
  0
LAYER
  5
215
100
AcDbSymbolTableRecord
100
AcDbLayerTableRecord
  2
TRASH
 70
0
 62
7
  6
CONTINUOUS
370
-3
390
F
  0
LAYER
  5
216
100
AcDbSymbolTableRecord
100
AcDbLayerTableRecord
  2
XSEC_DATUMS
 70
0
 62
7
  6
CONTINUOUS
370
-3
390
F
  0
ENDTAB
  0
TABLE
  2
STYLE
  5
3
100
AcDbSymbolTable
 70
1
  0
STYLE
  5
11
100
AcDbSymbolTableRecord
100
AcDbTextStyleTableRecord
  2
STANDARD
 70
0
 40
0.0
 41
0.8
 50
0.0
 71
0
 42
0.2
  3
txt
  4

  0
STYLE
  5
217
100
AcDbSymbolTableRecord
100
AcDbTextStyleTableRecord
  2
TEXTSTYLE_1
 70
0
 40
0.0
 41
0.8
 50
0.0
 71
0
 42
0.2
  3
gdt
  4

  0
ENDTAB
  0
TABLE
  2
VIEW
  5
6
100
AcDbSymbolTable
 70
0
  0
ENDTAB
  0
TABLE
  2
UCS
  5
7
100
AcDbSymbolTable
 70
0
  0
ENDTAB
  0
TABLE
  2
APPID
  5
9
100
AcDbSymbolTable
 70
1
  0
APPID
  5
218
100
AcDbSymbolTableRecord
100
AcDbRegAppTableRecord
  2
ACAD
 70
0
  0
ENDTAB
  0
TABLE
  2
BLOCK_RECORD
  5
1
100
AcDbSymbolTable
 70
0
  0
BLOCK_RECORD
  5
219
100
AcDbSymbolTableRecord
100
AcDbBlockTableRecord
  2
*Model_Space
  0
BLOCK_RECORD
  5
21A
100
AcDbSymbolTableRecord
100
AcDbBlockTableRecord
  2
*Paper_Space
  0
BLOCK_RECORD
  5
21B
100
AcDbSymbolTableRecord
100
AcDbBlockTableRecord
  2
_FILLED
  0
BLOCK_RECORD
  5
21C
100
AcDbSymbolTableRecord
100
AcDbBlockTableRecord
  2
*D0
  0
BLOCK_RECORD
  5
21D
100
AcDbSymbolTableRecord
100
AcDbBlockTableRecord
  2
*D1
  0
BLOCK_RECORD
  5
21E
100
AcDbSymbolTableRecord
100
AcDbBlockTableRecord
  2
*D2
  0
BLOCK_RECORD
  5
21F
100
AcDbSymbolTableRecord
100
AcDbBlockTableRecord
  2
*D3
  0
ENDTAB
  0
TABLE
  2
DIMSTYLE
  5
A
100
AcDbSymbolTable
 70
1
100
AcDbDimStyleTable
 71
0
  0
DIMSTYLE
105
220
100
AcDbSymbolTableRecord
100
AcDbDimStyleTableRecord
  2
STANDARD
 70
0
  3

  4

 40
1.0
 41
3.0
 42
0.5
 43
0.38
 44
1.5
 45
0.0
 46
0.0
 47
0.01
 48
0.01
140
3.0
141
0.09
142
0.0
143
25.4
144
1.0
145
0.0
146
1.0
147
0.625
 71
1.0
 72
0.0
 73
0
 74
0
 75
0
 76
0
 77
1
 78
8
170
0
171
2
172
0
173
0
174
0
175
0
176
0
177
0
178
0
270
2
271
2
272
2
273
2
274
2
275
0
280
0
281
0
282
0
283
1
284
8
285
0
286
0
287
3
288
0
340
11
278
44
341
21B
342
21B
343
21B
344
21B
  0
DIMSTYLE
105
221
100
AcDbSymbolTableRecord
100
AcDbDimStyleTableRecord
  2
DIMSTYLE_1
 70
0
  3

  4

 40
1.0
 41
3.0
 42
0.5
 43
0.38
 44
1.5
 45
0.0
 46
0.0
 47
0.0
 48
0.0
140
3.0
141
0.09
142
0.0
143
25.4
144
1.0
145
0.0
146
1.0
147
0.75
 71
0.0
 72
0.0
 73
0
 74
0
 75
0
 76
0
 77
1
 78
8
170
0
171
2
172
0
173
0
174
0
175
0
176
0
177
0
178
0
270
2
271
2
272
2
273
2
274
2
275
0
280
0
281
0
282
0
283
1
284
8
285
0
286
0
287
3
288
0
340
11
278
44
341
21B
342
21B
343
21B
344
21B
  0
DIMSTYLE
105
222
100
AcDbSymbolTableRecord
100
AcDbDimStyleTableRecord
  2
DIMSTYLE_2
 70
0
  3

  4

 40
1.0
 41
3.0
 42
0.5
 43
0.38
 44
1.5
 45
0.0
 46
0.0
 47
0.0
 48
0.0
140
3.0
141
0.09
142
0.0
143
25.4
144
1.0
145
0.0
146
1.0
147
0.75
 71
0.0
 72
0.0
 73
0
 74
0
 75
0
 76
0
 77
1
 78
8
170
0
171
2
172
0
173
0
174
0
175
0
176
0
177
0
178
0
270
2
271
1
272
1
273
2
274
2
275
0
280
0
281
0
282
0
283
1
284
8
285
0
286
0
287
3
288
0
340
11
278
44
341
21B
342
21B
343
21B
344
21B
  0
ENDTAB
  0
ENDSEC
  0
SECTION
  2
BLOCKS
  0
BLOCK
  5
20
100
AcDbEntity
  8
0
100
AcDbBlockBegin
  2
*Model_Space
 70
0
 10
0.0
 20
0.0
 30
0.0
  3
*Model_Space
  1

  0
ENDBLK
  5
21
100
AcDbEntity
  8
0
100
AcDbBlockEnd
  0
BLOCK
  5
1C
100
AcDbEntity
  8
0
100
AcDbBlockBegin
  2
*Paper_Space
 70
0
 10
0.0
 20
0.0
 30
0.0
  3
*Paper_Space
  1

  0
ENDBLK
  5
1D
100
AcDbEntity
  8
0
100
AcDbBlockEnd
  0
BLOCK
  5
223
100
AcDbEntity
  8
0
100
AcDbBlockBegin
  2
_FILLED
 70
64
 10
0.0
 20
0.0
  3
_FILLED
  1

  0
SOLID
  5
224
100
AcDbEntity
  8
0
  6
BYBLOCK
 62
0
100
AcDbTrace
 10
0.0
 20
0.0
 11
-1.0
 21
0.3166666667
 12
-1.0
 22
-0.3166666667
 13
-1.0
 23
-0.3166666667
  0
ENDBLK
  5
225
100
AcDbEntity
  8
0
  6
BYBLOCK
 62
0
100
AcDbBlockEnd
  0
BLOCK
  5
226
100
AcDbEntity
  8
0
100
AcDbBlockBegin
 62
7
  6
CONTINUOUS
  2
*D0
 70
65
 10
0.0
 20
0.0
  3
*D0
  1

  0
MTEXT
  5
227
100
AcDbEntity
  8
0
100
AcDbMText
 62
7
  6
CONTINUOUS
  7
STANDARD
 71
2
 72
1
 10
-20.6326083471
 20
35.9058080931
 30
0.0
 11
1.0
 21
0.0
 31
0.0
 44
0.9
  1
32,7
 40
3.0
 41
8.5714285714
  0
LINE
  5
228
100
AcDbEntity
  8
0
100
AcDbLine
 62
7
  6
CONTINUOUS
 10
-36.9826083471
 20
23.4025742558
 11
-36.9826083471
 21
33.6558080931
  0
LINE
  5
229
100
AcDbEntity
  8
0
100
AcDbLine
 62
7
  6
CONTINUOUS
 10
-4.2826083471
 20
8.982650101
 11
-4.2826083471
 21
33.6558080931
  0
LINE
  5
22A
100
AcDbEntity
  8
0
100
AcDbLine
 62
7
  6
CONTINUOUS
 10
-36.9826083471
 20
32.1558080931
 11
-20.6326083471
 21
32.1558080931
  0
LINE
  5
22B
100
AcDbEntity
  8
0
100
AcDbLine
 62
7
  6
CONTINUOUS
 10
-4.2826083471
 20
32.1558080931
 11
-20.6326083471
 21
32.1558080931
  0
INSERT
  5
22C
100
AcDbEntity
  8
0
100
AcDbBlockReference
 62
7
  6
CONTINUOUS
  2
_FILLED
 10
-36.9826083471
 20
32.1558080931
 41
3.0
 42
3.0
 43
3.0
 50
180.0
  0
INSERT
  5
22D
100
AcDbEntity
  8
0
100
AcDbBlockReference
 62
7
  6
CONTINUOUS
  2
_FILLED
 10
-4.2826083471
 20
32.1558080931
 41
3.0
 42
3.0
 43
3.0
  0
ENDBLK
  5
22E
100
AcDbEntity
  8
0
  6
BYBLOCK
 62
0
100
AcDbBlockEnd
  0
BLOCK
  5
22F
100
AcDbEntity
  8
0
100
AcDbBlockBegin
 62
7
  6
CONTINUOUS
  2
*D1
 70
65
 10
0.0
 20
0.0
  3
*D1
  1

  0
MTEXT
  5
230
100
AcDbEntity
  8
0
100
AcDbMText
 62
7
  6
CONTINUOUS
  7
STANDARD
 71
2
 72
1
 10
-27.015374038
 20
45.8550910865
 30
0.0
 11
1.0
 21
0.0
 31
0.0
 44
0.9
  1
45,5
 40
3.0
 41
8.3571428571
  0
LINE
  5
231
100
AcDbEntity
  8
0
100
AcDbLine
 62
7
  6
CONTINUOUS
 10
-4.2826083471
 20
5.5655861579
 11
-4.2826083471
 21
43.6050910865
  0
LINE
  5
232
100
AcDbEntity
  8
0
100
AcDbLine
 62
7
  6
CONTINUOUS
 10
-49.7481397288
 20
21.5168770284
 11
-49.7481397288
 21
43.6050910865
  0
LINE
  5
233
100
AcDbEntity
  8
0
100
AcDbLine
 62
7
  6
CONTINUOUS
 10
-4.2826083471
 20
42.1050910865
 11
-27.015374038
 21
42.1050910865
  0
LINE
  5
234
100
AcDbEntity
  8
0
100
AcDbLine
 62
7
  6
CONTINUOUS
 10
-49.7481397288
 20
42.1050910865
 11
-27.015374038
 21
42.1050910865
  0
INSERT
  5
235
100
AcDbEntity
  8
0
100
AcDbBlockReference
 62
7
  6
CONTINUOUS
  2
_FILLED
 10
-4.2826083471
 20
42.1050910865
 41
3.0
 42
3.0
 43
3.0
  0
INSERT
  5
236
100
AcDbEntity
  8
0
100
AcDbBlockReference
 62
7
  6
CONTINUOUS
  2
_FILLED
 10
-49.7481397288
 20
42.1050910865
 41
3.0
 42
3.0
 43
3.0
 50
180.0
  0
ENDBLK
  5
237
100
AcDbEntity
  8
0
  6
BYBLOCK
 62
0
100
AcDbBlockEnd
  0
BLOCK
  5
238
100
AcDbEntity
  8
0
100
AcDbBlockBegin
 62
7
  6
CONTINUOUS
  2
*D2
 70
65
 10
0.0
 20
0.0
  3
*D2
  1

  0
MTEXT
  5
239
100
AcDbEntity
  8
0
100
AcDbMText
 62
7
  6
CONTINUOUS
  7
STANDARD
 71
2
 72
1
 10
45.6144364497
 20
0.6050910865
 30
0.0
 11
0.0
 21
1.0
 31
0.0
 44
0.9
  1
47
 40
3.0
 41
4.7142857143
  0
LINE
  5
23A
100
AcDbEntity
  8
0
100
AcDbLine
 62
7
  6
CONTINUOUS
 10
34.3892939278
 20
24.1050910865
 11
50.8644364497
 21
24.1050910865
  0
LINE
  5
23B
100
AcDbEntity
  8
0
100
AcDbLine
 62
7
  6
CONTINUOUS
 10
34.3892939278
 20
-22.8949089135
 11
50.8644364497
 21
-22.8949089135
  0
LINE
  5
23C
100
AcDbEntity
  8
0
100
AcDbLine
 62
7
  6
CONTINUOUS
 10
49.3644364497
 20
24.1050910865
 11
49.3644364497
 21
0.6050910865
  0
LINE
  5
23D
100
AcDbEntity
  8
0
100
AcDbLine
 62
7
  6
CONTINUOUS
 10
49.3644364497
 20
-22.8949089135
 11
49.3644364497
 21
0.6050910865
  0
INSERT
  5
23E
100
AcDbEntity
  8
0
100
AcDbBlockReference
 62
7
  6
CONTINUOUS
  2
_FILLED
 10
49.3644364497
 20
24.1050910865
 41
3.0
 42
3.0
 43
3.0
 50
90.0
  0
INSERT
  5
23F
100
AcDbEntity
  8
0
100
AcDbBlockReference
 62
7
  6
CONTINUOUS
  2
_FILLED
 10
49.3644364497
 20
-22.8949089135
 41
3.0
 42
3.0
 43
3.0
 50
270.0
  0
ENDBLK
  5
240
100
AcDbEntity
  8
0
  6
BYBLOCK
 62
0
100
AcDbBlockEnd
  0
BLOCK
  5
241
100
AcDbEntity
  8
0
100
AcDbBlockBegin
 62
7
  6
CONTINUOUS
  2
*D3
 70
65
 10
0.0
 20
0.0
  3
*D3
  1

  0
MTEXT
  5
242
100
AcDbEntity
  8
0
100
AcDbMText
 62
7
  6
CONTINUOUS
  7
STANDARD
 71
2
 72
1
 10
30.2144364497
 20
35.8550910865
 30
0.0
 11
1.0
 21
0.0
 31
0.0
 44
0.9
  1
22,3
 40
3.0
 41
8.5714285714
  0
LINE
  5
243
100
AcDbEntity
  8
0
100
AcDbLine
 62
7
  6
CONTINUOUS
 10
41.3644364497
 20
23.2751362629
 11
41.3644364497
 21
33.6050910865
  0
LINE
  5
244
100
AcDbEntity
  8
0
100
AcDbLine
 62
7
  6
CONTINUOUS
 10
19.0644364497
 20
22.3966547087
 11
19.0644364497
 21
33.6050910865
  0
LINE
  5
245
100
AcDbEntity
  8
0
100
AcDbLine
 62
7
  6
CONTINUOUS
 10
41.3644364497
 20
32.1050910865
 11
30.2144364497
 21
32.1050910865
  0
LINE
  5
246
100
AcDbEntity
  8
0
100
AcDbLine
 62
7
  6
CONTINUOUS
 10
19.0644364497
 20
32.1050910865
 11
30.2144364497
 21
32.1050910865
  0
INSERT
  5
247
100
AcDbEntity
  8
0
100
AcDbBlockReference
 62
7
  6
CONTINUOUS
  2
_FILLED
 10
41.3644364497
 20
32.1050910865
 41
3.0
 42
3.0
 43
3.0
  0
INSERT
  5
248
100
AcDbEntity
  8
0
100
AcDbBlockReference
 62
7
  6
CONTINUOUS
  2
_FILLED
 10
19.0644364497
 20
32.1050910865
 41
3.0
 42
3.0
 43
3.0
 50
180.0
  0
ENDBLK
  5
249
100
AcDbEntity
  8
0
  6
BYBLOCK
 62
0
100
AcDbBlockEnd
  0
ENDSEC
  0
SECTION
  2
ENTITIES
  0
DIMENSION
  5
24A
100
AcDbEntity
  8
0
100
AcDbDimension
 62
7
  6
CONTINUOUS
  2
*D0
 10
-4.2826083471
 20
32.1558080931
 11
-20.6326083471
 21
32.1558080931
 70
160
 71
2
 42
32.7
  3
DIMSTYLE_1
100
AcDbAlignedDimension
 13
-36.9826083471
 23
22.9025742558
 14
-4.2826083471
 24
8.482650101
100
AcDbRotatedDimension
  0
DIMENSION
  5
24B
100
AcDbEntity
  8
0
100
AcDbDimension
 62
7
  6
CONTINUOUS
  2
*D1
 10
-49.7481397288
 20
42.1050910865
 11
-27.015374038
 21
42.1050910865
 70
160
 71
2
 42
45.4655313817
  3
DIMSTYLE_2
100
AcDbAlignedDimension
 13
-4.2826083471
 23
5.0655861579
 14
-49.7481397288
 24
21.0168770284
 50
180.0
100
AcDbRotatedDimension
  0
DIMENSION
  5
24C
100
AcDbEntity
  8
0
100
AcDbDimension
 62
7
  6
CONTINUOUS
  2
*D2
 10
49.3644364497
 20
-22.8949089135
 11
49.3644364497
 21
0.6050910865
 70
160
 71
2
 42
47.0
  3
DIMSTYLE_1
100
AcDbAlignedDimension
 13
33.8892939278
 23
24.1050910865
 14
33.8892939278
 24
-22.8949089135
 50
270.0
100
AcDbRotatedDimension
  0
DIMENSION
  5
24D
100
AcDbEntity
  8
0
100
AcDbDimension
 62
7
  6
CONTINUOUS
  2
*D3
 10
19.0644364497
 20
32.1050910865
 11
30.2144364497
 21
32.1050910865
 70
160
 71
2
 42
22.3
  3
DIMSTYLE_1
100
AcDbAlignedDimension
 13
41.3644364497
 23
22.7751362629
 14
19.0644364497
 24
21.8966547087
 50
180.0
100
AcDbRotatedDimension
  0
LINE
  5
24E
100
AcDbEntity
  8
0
100
AcDbLine
 62
253
  6
CONTINUOUS
 10
-48.8254349084
 20
5.8427072993
 11
-48.7963548251
 21
5.462745854
  0
LINE
  5
24F
100
AcDbEntity
  8
0
100
AcDbLine
 62
253
  6
CONTINUOUS
 10
-48.8534166491
 20
6.2119657113
 11
-48.8254211721
 21
5.8425269115
  0
LINE
  5
250
100
AcDbEntity
  8
0
100
AcDbLine
 62
253
  6
CONTINUOUS
 10
-48.8792235532
 20
6.555787132
 11
-48.8533968526
 21
6.2117031813
  0
LINE
  5
251
100
AcDbEntity
  8
0
100
AcDbLine
 62
253
  6
CONTINUOUS
 10
-48.912400549
 20
7.0025440988
 11
-48.8791995018
 21
6.5554652103
  0
LINE
  5
252
100
AcDbEntity
  8
0
100
AcDbLine
 62
253
  6
CONTINUOUS
 10
-48.9503466667
 20
7.5203004208
 11
-48.912392613
 21
7.0024365827
  0
LINE
  5
253
100
AcDbEntity
  8
0
100
AcDbLine
 62
253
  6
CONTINUOUS
 10
-48.9832305551
 20
7.9750686677
 11
-48.950314555
 21
7.5198591248
  0
LINE
  5
254
100
AcDbEntity
  8
0
100
AcDbLine
 62
253
  6
CONTINUOUS
 10
-49.0161622343
 20
8.4363862528
 11
-48.9831969665
 21
7.9746011995
  0
LINE
  5
255
100
AcDbEntity
  8
0
100
AcDbLine
 62
253
  6
CONTINUOUS
 10
-49.0376816511
 20
8.7411289887
 11
-49.0161290845
 21
8.4359188354
  0
LINE
  5
256
100
AcDbEntity
  8
0
100
AcDbLine
 62
253
  6
CONTINUOUS
 10
-49.0736123933
 20
9.2559800205
 11
-49.0376498079
 21
8.7406760774
  0
LINE
  5
257
100
AcDbEntity
  8
0
100
AcDbLine
 62
253
  6
CONTINUOUS
 10
-49.0973313697
 20
9.6001168765
 11
-49.0735843968
 21
9.2555758583
  0
LINE
  5
258
100
AcDbEntity
  8
0
100
AcDbLine
 62
253
  6
CONTINUOUS
 10
-49.1214164502
 20
9.9531595993
 11
-49.0973066028
 21
9.5997557194
  0
LINE
  5
259
100
AcDbEntity
  8
0
100
AcDbLine
 62
253
  6
CONTINUOUS
 10
-49.1494786349
 20
10.3692219008
 11
-49.1214116731
 21
9.9530892121
  0
LINE
  5
25A
100
AcDbEntity
  8
0
100
AcDbLine
 62
253
  6
CONTINUOUS
 10
-49.1725011486
 20
10.7144882414
 11
-49.1494631409
 21
10.3689907411
  0
LWPOLYLINE
  5
25B
100
AcDbEntity
  8
0
100
AcDbPolyline
 62
253
  6
CONTINUOUS
 90
3
 70
0
 10
-49.1880337267
 20
10.9494874969
 10
-49.1879796149
 20
10.9486653689
 10
-49.1724918448
 20
10.7143479855
  0
LWPOLYLINE
  5
25C
100
AcDbEntity
  8
RACCORDO
100
AcDbPolyline
 62
253
  6
CONTINUOUS
 90
10
 70
0
 10
-49.2563109258
 20
20.9932795
 10
-49.02418771
 20
16.3834990927
 10
-48.7495422466
 20
11.7768368535
 10
-48.4323745355
 20
7.1732927823
 10
-48.0726498387
 20
2.5724694288
 10
-47.6704028943
 20
-2.0252357566
 10
-47.2257379162
 20
-6.618630423
 10
-46.7386896426
 20
-11.2073171202
 10
-46.2092233353
 20
-15.7916932984
 10
-45.6373389945
 20
-20.3717589576
  0
LWPOLYLINE
  5
25D
100
AcDbEntity
  8
ASSI
100
AcDbPolyline
 62
253
  6
CONTINUOUS
 90
16
 70
0
 10
-49.2563109258
 20
20.9932795
 10
-49.1221929534
 20
18.2278729395
 10
-48.9727462823
 20
15.4632607583
 10
-48.8079709126
 20
12.6994429563
 10
-48.627860161
 20
9.9362969399
 10
-48.4324207107
 20
7.1739453028
 10
-48.2216726119
 20
4.4127558262
 10
-47.9956122887
 20
1.6527338519
 10
-47.7542433169
 20
-1.1061259619
 10
-47.497596474
 20
-3.8634718584
 10
-47.2256673038
 20
-6.6193085301
 10
-46.9384602626
 20
-9.3736312845
 10
-46.6360194964
 20
-12.1260742879
 10
-46.3183597207
 20
-14.8765155956
 10
-45.98546622
 20
-17.6250771521
 10
-45.6373389945
 20
-20.3717589576
  0
LWPOLYLINE
  5
25E
100
AcDbEntity
  8
RACCORDO
100
AcDbPolyline
 62
253
  6
CONTINUOUS
 90
19
 70
0
 10
-45.6373389945
 20
-20.3717589576
 10
-45.6301091571
 20
-20.4133177297
 10
-45.6196461842
 20
-20.4536105966
 10
-45.6059500758
 20
-20.4926375582
 10
-45.5888765894
 20
-20.5306615477
 10
-45.5685699675
 20
-20.5674196321
 10
-45.5454629371
 20
-20.6021230114
 10
-45.5195043287
 20
-20.6347159593
 10
-45.4907453118
 20
-20.6652542022
 10
-45.4597721226
 20
-20.6931161196
 10
-45.4265349189
 20
-20.7182498461
 10
-45.3910835429
 20
-20.7407072471
 10
-45.3541537568
 20
-20.7600222979
 10
-45.3156960309
 20
-20.7761288521
 10
-45.2757598949
 20
-20.7890930561
 10
-45.2352297006
 20
-20.7986473237
 10
-45.1944002319
 20
-20.8047024596
 10
-45.1529767049
 20
-20.8073476591
 10
-45.1109591196
 20
-20.8065829222
  0
LWPOLYLINE
  5
25F
100
AcDbEntity
  8
ASSI
100
AcDbPolyline
 62
253
  6
CONTINUOUS
 90
25
 70
0
 10
-45.6373389945
 20
-20.3717589576
 10
-45.6324247991
 20
-20.4023906192
 10
-45.6256241207
 20
-20.432554271
 10
-45.6169369592
 20
-20.4622499129
 10
-45.6063144178
 20
-20.4916294688
 10
-45.5938053933
 20
-20.5205410148
 10
-45.5795565763
 20
-20.5485287795
 10
-45.5635366249
 20
-20.5755595987
 10
-45.5457768812
 20
-20.6016666366
 10
-45.5265180615
 20
-20.6264936145
 10
-45.5057579619
 20
-20.6499998574
 10
-45.4834987865
 20
-20.6722260403
 10
-45.4599878642
 20
-20.692937909
 10
-45.4352164649
 20
-20.7121227915
 10
-45.4091933187
 20
-20.7297933599
 10
-45.382191945
 20
-20.745753375
 10
-45.3541722427
 20
-20.7599956905
 10
-45.3251743127
 20
-20.7725274528
 10
-45.2955919772
 20
-20.7831738627
 10
-45.2653955459
 20
-20.7918961873
 10
-45.2346147091
 20
-20.7987331595
 10
-45.2037323588
 20
-20.8036261791
 10
-45.1729094591
 20
-20.8065557127
 10
-45.1419850461
 20
-20.8075412938
 10
-45.1109591196
 20
-20.8065829222
  0
LINE
  5
260
100
AcDbEntity
  8
ASSI
100
AcDbLine
 62
253
  6
CONTINUOUS
 10
-48.8243056057
 20
21.6098051018
 11
-48.8311605231
 21
21.6725816965
  0
LINE
  5
261
100
AcDbEntity
  8
ASSI
100
AcDbLine
 62
253
  6
CONTINUOUS
 10
-48.8311605231
 20
21.6725816965
 11
-48.8375637218
 21
21.7326412225
  0
LINE
  5
262
100
AcDbEntity
  8
ASSI
100
AcDbLine
 62
253
  6
CONTINUOUS
 10
-48.8375637218
 20
21.7326412225
 11
-48.8434056893
 21
21.788956526
  0
LINE
  5
263
100
AcDbEntity
  8
ASSI
100
AcDbLine
 62
253
  6
CONTINUOUS
 10
-48.8434056893
 20
21.788956526
 11
-48.8485865064
 21
21.8405644355
  0
LINE
  5
264
100
AcDbEntity
  8
ASSI
100
AcDbLine
 62
253
  6
CONTINUOUS
 10
-48.8485865064
 20
21.8405644355
 11
-48.8530175592
 21
21.8865822559
  0
LWPOLYLINE
  5
265
100
AcDbEntity
  8
ASSI
100
AcDbPolyline
 62
253
  6
CONTINUOUS
 90
9
 70
0
 10
-45.0801814158
 20
-21.2383306773
 10
-45.0787379514
 20
-21.2536864791
 10
-45.0773951813
 20
-21.2671255434
 10
-45.0761588521
 20
-21.278590355
 10
-45.075034255
 20
-21.2880318491
 10
-45.0740262025
 20
-21.2954096216
 10
-45.0731390087
 20
-21.3006920971
 10
-45.0723764709
 20
-21.3038566657
 10
-45.0717418525
 20
-21.3048897827
  0
LWPOLYLINE
  5
266
100
AcDbEntity
  8
ASSI
100
AcDbPolyline
 62
253
  6
CONTINUOUS
 90
11
 70
0
 10
-48.8530175592
 20
21.8865822559
 10
-48.8566230648
 20
21.9262229688
 10
-48.8580963848
 20
21.9434354496
 10
-48.8593413597
 20
21.9588086165
 10
-48.8603526619
 20
21.9722766806
 10
-48.8611259632
 20
21.9837820029
 10
-48.8616579543
 20
21.9932753443
 10
-48.8619463583
 20
22.000716078
 10
-48.8619899409
 20
22.0060723592
 10
-48.8617885155
 20
22.009321263
 10
-48.861342944
 20
22.0104488839
  0
LINE
  5
267
100
AcDbEntity
  8
ASSI
100
AcDbLine
 62
253
  6
CONTINUOUS
 10
-45.0833453142
 20
-21.202139637
 11
-45.0801814158
 21
-21.2383306773
  0
LINE
  5
268
100
AcDbEntity
  8
ASSI
100
AcDbLine
 62
253
  6
CONTINUOUS
 10
-45.0868327709
 20
-21.1591713177
 11
-45.0833453142
 21
-21.202139637
  0
LINE
  5
269
100
AcDbEntity
  8
ASSI
100
AcDbLine
 62
253
  6
CONTINUOUS
 10
-45.0905841419
 20
-21.1101605874
 11
-45.0868327709
 21
-21.1591713177
  0
LINE
  5
26A
100
AcDbEntity
  8
ASSI
100
AcDbLine
 62
253
  6
CONTINUOUS
 10
-45.0945352659
 20
-21.0559457173
 11
-45.0905841419
 21
-21.1101605874
  0
LINE
  5
26B
100
AcDbEntity
  8
ASSI
100
AcDbLine
 62
253
  6
CONTINUOUS
 10
-45.0986185699
 20
-20.9974539374
 11
-45.0945352659
 21
-21.0559457173
  0
LINE
  5
26C
100
AcDbEntity
  8
ASSI
100
AcDbLine
 62
253
  6
CONTINUOUS
 10
-45.1027642201
 20
-20.935685631
 11
-45.0986185699
 21
-20.9974539374
  0
LINE
  5
26D
100
AcDbEntity
  8
ASSI
100
AcDbLine
 62
253
  6
CONTINUOUS
 10
-45.1069013181
 20
-20.8716972052
 11
-45.1027642201
 21
-20.935685631
  0
LWPOLYLINE
  5
26E
100
AcDbEntity
  8
RACCORDO
100
AcDbPolyline
 62
253
  6
CONTINUOUS
 90
16
 70
0
 10
-45.1109591196
 20
-20.8065829222
 10
-45.1077213804
 20
-20.858730359
 10
-45.1044239069
 20
-20.9102984618
 10
-45.1011028061
 20
-20.9607225679
 10
-45.0977944434
 20
-21.0094505413
 10
-45.0945350449
 20
-21.0559488184
 10
-45.0913603005
 20
-21.0997082503
 10
-45.0883049731
 20
-21.1402496781
 10
-45.0854025181
 20
-21.1771291795
 10
-45.082684717
 20
-21.2099429298
 10
-45.0801813292
 20
-21.2383316236
 10
-45.0779197664
 20
-21.2619844092
 10
-45.0759247923
 20
-21.2806422922
 10
-45.0742182515
 20
-21.2941009717
 10
-45.0728188304
 20
-21.3022130773
 10
-45.0717418525
 20
-21.3048897827
  0
LINE
  5
26F
100
AcDbEntity
  8
ASSI
100
AcDbLine
 62
253
  6
CONTINUOUS
 10
-45.1109591196
 20
-20.8065829222
 11
-45.1069013181
 21
-20.8716972052
  0
LWPOLYLINE
  5
270
100
AcDbEntity
  8
RACCORDO
100
AcDbPolyline
 62
253
  6
CONTINUOUS
 90
16
 70
0
 10
-48.8134343331
 20
21.5129024175
 10
-48.8193009131
 20
21.5648183649
 10
-48.8250081037
 20
21.6161744292
 10
-48.8304934124
 20
21.6664082855
 10
-48.8356967753
 20
21.714969888
 10
-48.8405612133
 20
21.7613274801
 10
-48.8450334567
 20
21.8049734196
 10
-48.8490645311
 20
21.8454297644
 10
-48.8526102904
 20
21.8822534762
 10
-48.8556319008
 20
21.9150412699
 10
-48.8580962701
 20
21.9434340785
 10
-48.8599764071
 20
21.967120947
 10
-48.8612517165
 20
21.9858424334
 10
-48.8619082287
 20
21.9993934923
 10
-48.8619387508
 20
22.0076257042
 10
-48.861342944
 20
22.0104488839
  0
LWPOLYLINE
  5
271
100
AcDbEntity
  8
ASSI
100
AcDbPolyline
 62
253
  6
CONTINUOUS
 90
3
 70
0
 10
-48.8134343331
 20
21.5129024175
 10
-48.8207451431
 20
21.5777321067
 10
-48.8243056057
 20
21.6098051018
  0
LWPOLYLINE
  5
272
100
AcDbEntity
  8
RACCORDO
100
AcDbPolyline
 62
253
  6
CONTINUOUS
 90
9
 70
0
 10
-37.9703276533
 20
22.6948446673
 10
-37.9630708509
 20
22.7265042595
 10
-37.9493693644
 20
22.7565016546
 10
-37.9295897743
 20
22.784034279
 10
-37.9042612789
 20
22.8083655032
 10
-37.8740615368
 20
22.8288443507
 10
-37.8397985353
 20
22.8449229144
 10
-37.8023889737
 20
22.856171016
 10
-37.7628337364
 20
22.8622877148
  0
LWPOLYLINE
  5
273
100
AcDbEntity
  8
RACCORDO
100
AcDbPolyline
 62
253
  6
CONTINUOUS
 90
10
 70
0
 10
-38.5625175849
 20
17.8718447119
 10
-38.5559863886
 20
17.8967922963
 10
-38.5428038718
 20
17.9202142251
 10
-38.5233329459
 20
17.9414656988
 10
-38.4981096403
 20
17.9599616697
 10
-38.4678283461
 20
17.9751929487
 10
-38.4333226995
 20
17.9867402225
 10
-38.395542632
 20
17.9942855977
 10
-38.3555282191
 20
17.9976213521
 10
-38.3143810471
 20
17.9966556531
  0
LWPOLYLINE
  5
274
100
AcDbEntity
  8
RACCORDO
100
AcDbPolyline
 62
253
  6
CONTINUOUS
 90
10
 70
0
 10
-28.9915553147
 20
21.624954356
 10
-28.9509240684
 20
21.6406949672
 10
-28.9101760035
 20
21.6517394451
 10
-28.8701728316
 20
21.6580920225
 10
-28.8320964465
 20
21.6601079138
 10
-28.7963969919
 20
21.6578094827
 10
-28.7628363869
 20
21.6507387254
 10
-28.7318439916
 20
21.6389384889
 10
-28.704436463
 20
21.6230827082
 10
-28.681210846
 20
21.6036935854
  0
LWPOLYLINE
  5
275
100
AcDbEntity
  8
ASSI
100
AcDbPolyline
 62
253
  6
CONTINUOUS
 90
10
 70
0
 10
-28.9915553147
 20
21.624954356
 10
-28.9509240684
 20
21.6406949672
 10
-28.9101760035
 20
21.6517394451
 10
-28.8701728316
 20
21.6580920225
 10
-28.8320964465
 20
21.6601079138
 10
-28.7963969919
 20
21.6578094827
 10
-28.7628363869
 20
21.6507387254
 10
-28.7318439916
 20
21.6389384889
 10
-28.704436463
 20
21.6230827082
 10
-28.681210846
 20
21.6036935854
  0
LWPOLYLINE
  5
276
100
AcDbEntity
  8
SUPERFICI
100
AcDbPolyline
 62
7
  6
CONTINUOUS
 90
10
 70
0
 10
-32.9826083471
 20
-22.4947993884
 10
-33.4216656903
 20
-22.5039995792
 10
-33.862072349
 20
-22.5131252344
 10
-34.3038283231
 20
-22.5221734184
 10
-34.7469369997
 20
-22.5311365296
 10
-35.1913949917
 20
-22.5400167387
 10
-35.6371921385
 20
-22.5488259172
 10
-36.0843250533
 20
-22.557566387
 10
-36.5327971228
 20
-22.5662309893
 10
-36.9826083471
 20
-22.5748174753
  0
LWPOLYLINE
  5
277
100
AcDbEntity
  8
ASSI
100
AcDbPolyline
 62
7
  6
CONTINUOUS
 90
10
 70
0
 10
-32.9826083471
 20
-22.4947993884
 10
-33.4216656903
 20
-22.5039995792
 10
-33.862072349
 20
-22.5131252344
 10
-34.3038283231
 20
-22.5221734184
 10
-34.7469369997
 20
-22.5311365296
 10
-35.1913949917
 20
-22.5400167387
 10
-35.6371921385
 20
-22.5488259172
 10
-36.0843250533
 20
-22.557566387
 10
-36.5327971228
 20
-22.5662309893
 10
-36.9826083471
 20
-22.5748174753
  0
LINE
  5
278
100
AcDbEntity
  8
SUPERFICI
100
AcDbLine
 62
7
  6
CONTINUOUS
 10
-36.9826083471
 20
-22.8949089135
 11
-32.9826083471
 21
-22.8250886538
  0
LINE
  5
279
100
AcDbEntity
  8
ASSI
100
AcDbLine
 62
7
  6
CONTINUOUS
 10
-36.9826083471
 20
-22.8949089135
 11
-32.9826083471
 21
-22.8250886538
  0
LINE
  5
27A
100
AcDbEntity
  8
SUPERFICI
100
AcDbLine
 62
253
  6
CONTINUOUS
 10
-36.9826083471
 20
-22.728268571
 11
-32.9826083471
 21
-22.6580162753
  0
LINE
  5
27B
100
AcDbEntity
  8
ASSI
100
AcDbLine
 62
253
  6
CONTINUOUS
 10
-36.9826083471
 20
-22.728268571
 11
-32.9826083471
 21
-22.6580162753
  0
LWPOLYLINE
  5
27C
100
AcDbEntity
  8
SUPERFICI
100
AcDbPolyline
 62
7
  6
CONTINUOUS
 90
10
 70
0
 10
-32.9826083471
 20
-22.0247755162
 10
-33.4216656903
 20
-22.0279872028
 10
-33.862072349
 20
-22.031330194
 10
-34.3038283231
 20
-22.034799731
 10
-34.7469369997
 20
-22.0383891195
 10
-35.1913949917
 20
-22.0420954759
 10
-35.6371921385
 20
-22.0459205126
 10
-36.0843250533
 20
-22.0498624958
 10
-36.5327971228
 20
-22.053915467
 10
-36.9826083471
 20
-22.0580755355
  0
LWPOLYLINE
  5
27D
100
AcDbEntity
  8
ASSI
100
AcDbPolyline
 62
7
  6
CONTINUOUS
 90
10
 70
0
 10
-32.9826083471
 20
-22.0247755162
 10
-33.4216656903
 20
-22.0279872028
 10
-33.862072349
 20
-22.031330194
 10
-34.3038283231
 20
-22.034799731
 10
-34.7469369997
 20
-22.0383891195
 10
-35.1913949917
 20
-22.0420954759
 10
-35.6371921385
 20
-22.0459205126
 10
-36.0843250533
 20
-22.0498624958
 10
-36.5327971228
 20
-22.053915467
 10
-36.9826083471
 20
-22.0580755355
  0
LINE
  5
27E
100
AcDbEntity
  8
SUPERFICI
100
AcDbLine
 62
7
  6
CONTINUOUS
 10
-30.8331128632
 20
-21.5949089135
 11
-31.3826083471
 21
-21.5949089135
  0
LINE
  5
27F
100
AcDbEntity
  8
ASSI
100
AcDbLine
 62
7
  6
CONTINUOUS
 10
-30.8331128632
 20
-21.5949089135
 11
-31.3826083471
 21
-21.5949089135
  0
LINE
  5
280
100
AcDbEntity
  8
DRAFT
100
AcDbLine
 62
7
  6
CONTINUOUS
 10
-38.5895894834
 20
-21.1017690833
 11
-38.0190798051
 21
-21.1117273668
  0
LINE
  5
281
100
AcDbEntity
  8
RACCORDO
100
AcDbLine
 62
253
  6
CONTINUOUS
 10
-37.762833152
 20
-21.652101024
 11
-37.7221911153
 21
-21.6529225509
  0
LINE
  5
282
100
AcDbEntity
  8
RACCORDO
100
AcDbLine
 62
7
  6
CONTINUOUS
 10
-37.7288970558
 20
-21.7557975796
 11
-36.9826083471
 21
-21.7949089135
  0
LINE
  5
283
100
AcDbEntity
  8
RACCORDO
100
AcDbLine
 62
253
  6
CONTINUOUS
 10
-36.9826083471
 20
-21.6923920829
 11
-37.7221914185
 21
-21.6529251015
  0
LWPOLYLINE
  5
284
100
AcDbEntity
  8
RACCORDO
100
AcDbPolyline
 62
253
  6
CONTINUOUS
 90
10
 70
0
 10
-38.5625175765
 20
-16.661662538
 10
-38.5559781735
 20
-16.6866040601
 10
-38.5427897425
 20
-16.7100195247
 10
-38.5233152518
 20
-16.7312644966
 10
-38.4980906726
 20
-16.7497542759
 10
-38.4678102283
 20
-16.7649799917
 10
-38.4333072876
 20
-16.7765226077
 10
-38.3955314303
 20
-16.784064451
 10
-38.3555223124
 20
-16.7873979553
 10
-38.3143810533
 20
-16.7864313755
  0
LWPOLYLINE
  5
285
100
AcDbEntity
  8
RACCORDO
100
AcDbPolyline
 62
253
  6
CONTINUOUS
 90
9
 70
0
 10
-37.9703276532
 20
-21.4846624944
 10
-37.9630700425
 20
-21.5163214616
 10
-37.9493679741
 20
-21.546318172
 10
-37.9295880331
 20
-21.5738500938
 10
-37.9042594119
 20
-21.5981806379
 10
-37.8740597523
 20
-21.6186588653
 10
-37.8397970159
 20
-21.6347369014
 10
-37.8023878677
 20
-21.6459845946
 10
-37.762833152
 20
-21.652101024
  0
LWPOLYLINE
  5
286
100
AcDbEntity
  8
RACCORDO
100
AcDbPolyline
 62
253
  6
CONTINUOUS
 90
7
 70
0
 10
-40.4163894001
 20
0.4527544072
 10
-40.4200722355
 20
0.4866007142
 10
-40.4228340701
 20
0.5204549873
 10
-40.4246749039
 20
0.5543172265
 10
-40.4255943475
 20
0.5881959573
 10
-40.4255927902
 20
0.6220826541
 10
-40.4246714001
 20
0.655951741
  0
LINE
  5
287
100
AcDbEntity
  8
ASSI
100
AcDbLine
 62
7
  6
CONTINUOUS
 10
-42.8034960794
 20
22.7006533515
 11
-38.9860745471
 21
-20.932674425
  0
LINE
  5
288
100
AcDbEntity
  8
RACCORDO
100
AcDbLine
 62
7
  6
CONTINUOUS
 10
-42.8034960794
 20
22.7006533515
 11
-38.9860745471
 21
-20.932674425
  0
LINE
  5
289
100
AcDbEntity
  8
RACCORDO
100
AcDbLine
 62
253
  6
CONTINUOUS
 10
-40.4246714001
 20
0.655951741
 11
-40.4228305663
 21
0.6897946925
  0
LWPOLYLINE
  5
28A
100
AcDbEntity
  8
RACCORDO
100
AcDbPolyline
 62
253
  6
CONTINUOUS
 90
3
 70
0
 10
-40.4228305663
 20
0.6897946925
 10
-40.4200698997
 20
0.7236200341
 10
-40.4163894001
 20
0.7574277657
  0
LINE
  5
28B
100
AcDbEntity
  8
RACCORDO
100
AcDbLine
 62
253
  6
CONTINUOUS
 10
-38.4519301128
 20
16.7566647448
 11
-38.3826432878
 21
17.3838114946
  0
LINE
  5
28C
100
AcDbEntity
  8
RACCORDO
100
AcDbLine
 62
253
  6
CONTINUOUS
 10
-38.3826432878
 20
17.3838114946
 11
-38.3143731483
 21
17.9967250158
  0
LINE
  5
28D
100
AcDbEntity
  8
RACCORDO
100
AcDbLine
 62
253
  6
CONTINUOUS
 10
-38.2412406197
 20
18.5969967713
 11
-37.9168713049
 21
21.2632562651
  0
LINE
  5
28E
100
AcDbEntity
  8
RACCORDO
100
AcDbLine
 62
253
  6
CONTINUOUS
 10
-37.9168713049
 20
21.2632562651
 11
-37.7460242172
 21
22.6675136227
  0
LINE
  5
28F
100
AcDbEntity
  8
RACCORDO
100
AcDbLine
 62
253
  6
CONTINUOUS
 10
-37.7460242172
 20
22.6675136227
 11
-37.722191401
 21
22.8631074107
  0
LINE
  5
290
100
AcDbEntity
  8
RACCORDO
100
AcDbLine
 62
253
  6
CONTINUOUS
 10
-38.3143733139
 20
17.9967250207
 11
-38.2412406197
 21
18.5969967713
  0
LINE
  5
291
100
AcDbEntity
  8
RACCORDO
100
AcDbLine
 62
7
  6
CONTINUOUS
 10
-40.6601628364
 20
0.7878951016
 11
-37.9639496047
 21
22.7467897047
  0
LINE
  5
292
100
AcDbEntity
  8
RACCORDO
100
AcDbLine
 62
253
  6
CONTINUOUS
 10
-40.4163894001
 20
0.7574277657
 11
-38.4519301129
 21
16.7566647448
  0
LINE
  5
293
100
AcDbEntity
  8
CURVE
100
AcDbLine
 62
7
  6
CONTINUOUS
 10
-33.9822883827
 20
15.3219337496
 11
-33.7470670276
 21
15.5571551046
  0
LINE
  5
294
100
AcDbEntity
  8
CURVE
100
AcDbLine
 62
7
  6
CONTINUOUS
 10
-33.9822883827
 20
14.9268024803
 11
-33.7470670276
 21
15.1620238353
  0
LINE
  5
295
100
AcDbEntity
  8
CURVE
100
AcDbLine
 62
7
  6
CONTINUOUS
 10
-33.9822883827
 20
14.5316712109
 11
-33.7470670276
 21
14.766892566
  0
LINE
  5
296
100
AcDbEntity
  8
CURVE
100
AcDbLine
 62
7
  6
CONTINUOUS
 10
-33.0796122785
 20
15.4343473151
 11
-32.9844717591
 21
15.5294878345
  0
LINE
  5
297
100
AcDbEntity
  8
CURVE
100
AcDbLine
 62
7
  6
CONTINUOUS
 10
-33.9599675212
 20
14.158860803
 11
-33.6805566715
 21
14.4382716528
  0
LINE
  5
298
100
AcDbEntity
  8
CURVE
100
AcDbLine
 62
7
  6
CONTINUOUS
 10
-33.0796122785
 20
15.0392160458
 11
-32.8443909234
 21
15.2744374008
  0
LINE
  5
299
100
AcDbEntity
  8
ASSI
100
AcDbLine
 62
7
  6
CONTINUOUS
 10
-45.0717418525
 20
-21.3048897827
 11
-38.9860745471
 21
-20.932674425
  0
LINE
  5
29A
100
AcDbEntity
  8
RACCORDO
100
AcDbLine
 62
7
  6
CONTINUOUS
 10
-45.0717418525
 20
-21.3048897827
 11
-38.9860745471
 21
-20.932674425
  0
LINE
  5
29B
100
AcDbEntity
  8
ASSI
100
AcDbLine
 62
253
  6
CONTINUOUS
 10
-45.1109591196
 20
-20.8065829222
 11
-39.0296474412
 21
-20.434633966
  0
LINE
  5
29C
100
AcDbEntity
  8
RACCORDO
100
AcDbLine
 62
253
  6
CONTINUOUS
 10
-45.1109591196
 20
-20.8065829222
 11
-39.0296474412
 21
-20.434633966
  0
LINE
  5
29D
100
AcDbEntity
  8
0
100
AcDbLine
 62
7
  6
CONTINUOUS
 10
-31.3826083471
 20
-20.5669808097
 11
-32.9826083471
 21
-20.5949089135
  0
LINE
  5
29E
100
AcDbEntity
  8
RACCORDO
100
AcDbLine
 62
7
  6
CONTINUOUS
 10
-29.0117535492
 20
-20.5255973852
 11
-32.9826083471
 21
-20.5949089135
  0
LINE
  5
29F
100
AcDbEntity
  8
ASSI
100
AcDbLine
 62
7
  6
CONTINUOUS
 10
-29.0117535492
 20
-20.5255973852
 11
-32.9826083471
 21
-20.5949089135
  0
LINE
  5
2A0
100
AcDbEntity
  8
RACCORDO
100
AcDbLine
 62
253
  6
CONTINUOUS
 10
-29.0117926071
 20
-20.4026279972
 11
-32.9826083471
 21
-20.4722495638
  0
LINE
  5
2A1
100
AcDbEntity
  8
ASSI
100
AcDbLine
 62
253
  6
CONTINUOUS
 10
-29.0117926071
 20
-20.4026279972
 11
-32.9826083471
 21
-20.4722495638
  0
LINE
  5
2A2
100
AcDbEntity
  8
DRAFT
100
AcDbLine
 62
7
  6
CONTINUOUS
 10
-38.5895894829
 20
-20.0880487438
 11
-38.139815533
 21
-20.0801979103
  0
LINE
  5
2A3
100
AcDbEntity
  8
RACCORDO
100
AcDbLine
 62
7
  6
CONTINUOUS
 10
-26.7520172604
 20
-18.4452476974
 11
-16.2738821439
 21
-18.2623511686
  0
LINE
  5
2A4
100
AcDbEntity
  8
ASSI
100
AcDbLine
 62
7
  6
CONTINUOUS
 10
-26.7520172604
 20
-18.4452476974
 11
-16.2738821439
 21
-18.2623511686
  0
LINE
  5
2A5
100
AcDbEntity
  8
RACCORDO
100
AcDbLine
 62
7
  6
CONTINUOUS
 10
-37.9639496047
 20
-21.5366075318
 11
-40.6601628364
 21
0.4222870713
  0
LINE
  5
2A6
100
AcDbEntity
  8
RACCORDO
100
AcDbLine
 62
253
  6
CONTINUOUS
 10
-38.4519301128
 20
-15.5464825719
 11
-40.4163894001
 21
0.4527544072
  0
LINE
  5
2A7
100
AcDbEntity
  8
RACCORDO
100
AcDbLine
 62
253
  6
CONTINUOUS
 10
-38.241244038
 20
-17.3867867522
 11
-38.314379693
 21
-16.7864885809
  0
LINE
  5
2A8
100
AcDbEntity
  8
RACCORDO
100
AcDbLine
 62
253
  6
CONTINUOUS
 10
-37.7221914185
 20
-21.6529251015
 11
-37.7914918175
 21
-21.0840394218
  0
LINE
  5
2A9
100
AcDbEntity
  8
RACCORDO
100
AcDbLine
 62
253
  6
CONTINUOUS
 10
-37.9168712129
 20
-20.0530740662
 11
-38.241244038
 21
-17.3867867522
  0
LINE
  5
2AA
100
AcDbEntity
  8
RACCORDO
100
AcDbLine
 62
253
  6
CONTINUOUS
 10
-37.7914918175
 20
-21.0840394218
 11
-37.9168712129
 21
-20.0530740662
  0
LWPOLYLINE
  5
2AB
100
AcDbEntity
  8
RACCORDO
100
AcDbPolyline
 62
253
  6
CONTINUOUS
 90
3
 70
0
 10
-38.3143796481
 20
-16.7864885798
 10
-38.3295881735
 20
-16.6522884694
 10
-38.3449169392
 20
-16.5144021617
  0
LWPOLYLINE
  5
2AC
100
AcDbEntity
  8
RACCORDO
100
AcDbPolyline
 62
253
  6
CONTINUOUS
 90
6
 70
0
 10
-38.3759133267
 20
-16.2335897186
 10
-38.3915446214
 20
-16.0932410166
 10
-38.4069932292
 20
-15.9535661101
 10
-38.4221727533
 20
-15.8152255229
 10
-38.4371528979
 20
-15.6792922233
 10
-38.4519301128
 20
-15.5464825719
  0
LINE
  5
2AD
100
AcDbEntity
  8
RACCORDO
100
AcDbLine
 62
253
  6
CONTINUOUS
 10
-38.3449169392
 20
-16.5144021617
 11
-38.3759133267
 21
-16.2335897186
  0
LWPOLYLINE
  5
2AE
100
AcDbEntity
  8
RACCORDO
100
AcDbPolyline
 62
253
  6
CONTINUOUS
 90
13
 70
0
 10
-37.722191082
 20
22.8631074278
 10
-37.7223244558
 20
22.8767503347
 10
-37.7225377067
 20
22.88988548
 10
-37.7228255811
 20
22.9023991043
 10
-37.7231691213
 20
22.9141616723
 10
-37.7235742372
 20
22.9250617272
 10
-37.7240714275
 20
22.9349947446
 10
-37.7246480103
 20
22.9438149842
 10
-37.7252971897
 20
22.9513772
 10
-37.726055895
 20
22.9575455596
 10
-37.7269268765
 20
22.9621534078
 10
-37.7278792703
 20
22.9650220894
 10
-37.7288970558
 20
22.9659797525
  0
LINE
  5
2AF
100
AcDbEntity
  8
RACCORDO
100
AcDbLine
 62
7
  6
CONTINUOUS
 10
-38.9826083471
 20
21.9120121812
 11
-38.9826083471
 21
21.6981699917
  0
LINE
  5
2B0
100
AcDbEntity
  8
RACCORDO
100
AcDbLine
 62
7
  6
CONTINUOUS
 10
-38.9826083471
 20
-20.7018288913
 11
-38.9826083471
 21
-20.4879889325
  0
LINE
  5
2B1
100
AcDbEntity
  8
RACCORDO
100
AcDbLine
 62
253
  6
CONTINUOUS
 10
-38.5895894904
 20
-21.1017685489
 11
-38.5895894898
 21
-20.0880492766
  0
LINE
  5
2B2
100
AcDbEntity
  8
RACCORDO
100
AcDbLine
 62
253
  6
CONTINUOUS
 10
-38.5895894898
 20
21.2982314495
 11
-38.5895894904
 21
22.3119507218
  0
LINE
  5
2B3
100
AcDbEntity
  8
RACCORDO
100
AcDbLine
 62
7
  6
CONTINUOUS
 10
-36.9826083471
 20
22.9334138158
 11
-36.9826083471
 21
-21.7949089135
  0
LINE
  5
2B4
100
AcDbEntity
  8
SUPERFICI
100
AcDbLine
 62
7
  6
CONTINUOUS
 10
-36.9826083471
 20
-22.101979487
 11
-36.9826083471
 21
-22.8949089135
  0
LINE
  5
2B5
100
AcDbEntity
  8
ASSI
100
AcDbLine
 62
7
  6
CONTINUOUS
 10
-36.9826083471
 20
-22.101979487
 11
-36.9826083471
 21
-22.8949089135
  0
LINE
  5
2B6
100
AcDbEntity
  8
SUPERFICI
100
AcDbLine
 62
7
  6
CONTINUOUS
 10
-36.9826083471
 20
-22.0580755355
 11
-36.9826083471
 21
24.1050910865
  0
LINE
  5
2B7
100
AcDbEntity
  8
ASSI
100
AcDbLine
 62
7
  6
CONTINUOUS
 10
-36.9826083471
 20
-22.0580755355
 11
-36.9826083471
 21
24.1050910865
  0
LWPOLYLINE
  5
2B8
100
AcDbEntity
  8
ASSI
100
AcDbPolyline
 62
7
  6
CONTINUOUS
 90
10
 70
0
 10
-26.9143924572
 20
19.5141003582
 10
-26.8943117712
 20
19.5421839758
 10
-26.8741607592
 20
19.5675141259
 10
-26.8542015481
 20
19.5899435978
 10
-26.8348261739
 20
19.6094218186
 10
-26.8161694778
 20
19.6257726159
 10
-26.7981242645
 20
19.638657021
 10
-26.7808499924
 20
19.6478905698
 10
-26.7647524342
 20
19.6534844509
 10
-26.7501080102
 20
19.6553965442
  0
LINE
  5
2B9
100
AcDbEntity
  8
CURVE
100
AcDbLine
 62
7
  6
CONTINUOUS
 10
-33.9822883827
 20
13.7414086723
 11
-33.9368538136
 21
13.7868432413
  0
LINE
  5
2BA
100
AcDbEntity
  8
CURVE
100
AcDbLine
 62
7
  6
CONTINUOUS
 10
-33.5648362519
 20
14.158860803
 11
-33.2854254022
 21
14.4382716528
  0
LINE
  5
2BB
100
AcDbEntity
  8
CURVE
100
AcDbLine
 62
7
  6
CONTINUOUS
 10
-33.0796122785
 20
14.6440847765
 11
-32.8443909234
 21
14.8793061315
  0
LINE
  5
2BC
100
AcDbEntity
  8
CURVE
100
AcDbLine
 62
7
  6
CONTINUOUS
 10
-32.1181496667
 20
15.6055473883
 11
-32.1059748004
 21
15.6177222545
  0
LINE
  5
2BD
100
AcDbEntity
  8
CURVE
100
AcDbLine
 62
7
  6
CONTINUOUS
 10
-33.8580995157
 20
13.4704662699
 11
-33.6454297254
 21
13.6831360602
  0
LINE
  5
2BE
100
AcDbEntity
  8
CURVE
100
AcDbLine
 62
7
  6
CONTINUOUS
 10
-33.1697049826
 20
14.158860803
 11
-32.8443909234
 21
14.4841748622
  0
LINE
  5
2BF
100
AcDbEntity
  8
CURVE
100
AcDbLine
 62
7
  6
CONTINUOUS
 10
-32.1181496667
 20
15.2104161189
 11
-31.8829283116
 21
15.445637474
  0
LINE
  5
2C0
100
AcDbEntity
  8
CURVE
100
AcDbLine
 62
7
  6
CONTINUOUS
 10
-33.5616496597
 20
13.3717848565
 11
-33.3540056371
 21
13.5794288791
  0
LINE
  5
2C1
100
AcDbEntity
  8
CURVE
100
AcDbLine
 62
7
  6
CONTINUOUS
 10
-32.7745737133
 20
14.158860803
 11
-32.4951628635
 21
14.4382716528
  0
LINE
  5
2C2
100
AcDbEntity
  8
CURVE
100
AcDbLine
 62
7
  6
CONTINUOUS
 10
-32.1181496667
 20
14.8152848496
 11
-31.8829283116
 21
15.0505062047
  0
LINE
  5
2C3
100
AcDbEntity
  8
CURVE
100
AcDbLine
 62
7
  6
CONTINUOUS
 10
-33.2651998038
 20
13.2731034432
 11
-33.0625815489
 21
13.475721698
  0
LINE
  5
2C4
100
AcDbEntity
  8
CURVE
100
AcDbLine
 62
7
  6
CONTINUOUS
 10
-32.3794424439
 20
14.158860803
 11
-31.8829283116
 21
14.6553749353
  0
LINE
  5
2C5
100
AcDbEntity
  8
CURVE
100
AcDbLine
 62
7
  6
CONTINUOUS
 10
-33.9822883827
 20
12.160883595
 11
-33.7747028481
 21
12.3684691295
  0
LINE
  5
2C6
100
AcDbEntity
  8
CURVE
100
AcDbLine
 62
7
  6
CONTINUOUS
 10
-32.9687499478
 20
13.1744220298
 11
-32.7711574607
 21
13.3720145169
  0
LINE
  5
2C7
100
AcDbEntity
  8
CURVE
100
AcDbLine
 62
7
  6
CONTINUOUS
 10
-31.9843111746
 20
14.158860803
 11
-31.8829283116
 21
14.260243666
  0
LINE
  5
2C8
100
AcDbEntity
  8
CURVE
100
AcDbLine
 62
7
  6
CONTINUOUS
 10
-33.6246506397
 20
12.1233900686
 11
-33.1852367891
 21
12.5628039192
  0
LINE
  5
2C9
100
AcDbEntity
  8
CURVE
100
AcDbLine
 62
7
  6
CONTINUOUS
 10
-32.6723000918
 20
13.0757406165
 11
-32.4797333724
 21
13.2683073358
  0
LINE
  5
2CA
100
AcDbEntity
  8
CURVE
100
AcDbLine
 62
7
  6
CONTINUOUS
 10
-33.9822883827
 20
11.3706210563
 11
-33.7470670276
 21
11.6058424113
  0
LINE
  5
2CB
100
AcDbEntity
  8
CURVE
100
AcDbLine
 62
7
  6
CONTINUOUS
 10
-33.0138956431
 20
12.3390137959
 11
-32.5957707302
 21
12.7571387088
  0
LINE
  5
2CC
100
AcDbEntity
  8
CURVE
100
AcDbLine
 62
7
  6
CONTINUOUS
 10
-32.3758502358
 20
12.9770592031
 11
-32.1883092842
 21
13.1646001548
  0
LINE
  5
2CD
100
AcDbEntity
  8
CURVE
100
AcDbLine
 62
253
  6
CONTINUOUS
 10
-29.7979884886
 20
15.3836626445
 11
-30.0693757606
 21
15.1122337495
  0
LINE
  5
2CE
100
AcDbEntity
  8
CURVE
100
AcDbLine
 62
7
  6
CONTINUOUS
 10
-33.9822883827
 20
10.975489787
 11
-33.7470670276
 21
11.210711142
  0
LINE
  5
2CF
100
AcDbEntity
  8
CURVE
100
AcDbLine
 62
7
  6
CONTINUOUS
 10
-32.4031406465
 20
12.5546375232
 11
-31.896885196
 21
13.0608929737
  0
LINE
  5
2D0
100
AcDbEntity
  8
CURVE
100
AcDbLine
 62
7
  6
CONTINUOUS
 10
-33.9822883827
 20
10.5803585177
 11
-33.7470670276
 21
10.8155798727
  0
LINE
  5
2D1
100
AcDbEntity
  8
CURVE
100
AcDbLine
 62
7
  6
CONTINUOUS
 10
-33.0796122785
 20
11.4830346218
 11
-32.8919379481
 21
11.6707089522
  0
LINE
  5
2D2
100
AcDbEntity
  8
CURVE
100
AcDbLine
 62
7
  6
CONTINUOUS
 10
-33.8673941836
 20
10.3001214473
 11
-33.5879845691
 21
10.5795310619
  0
LINE
  5
2D3
100
AcDbEntity
  8
CURVE
100
AcDbLine
 62
7
  6
CONTINUOUS
 10
-33.0796122785
 20
11.0879033525
 11
-32.8443909234
 21
11.3231247076
  0
LINE
  5
2D4
100
AcDbEntity
  8
ASSI
100
AcDbLine
 62
253
  6
CONTINUOUS
 10
-46.1234518718
 20
-20.4350821915
 11
-46.1244869984
 21
-20.4352399658
  0
LINE
  5
2D5
100
AcDbEntity
  8
RACCORDO
100
AcDbLine
 62
253
  6
CONTINUOUS
 10
-46.1218355185
 20
-20.4348586167
 11
-46.1244869984
 21
-20.4352399658
  0
LINE
  5
2D6
100
AcDbEntity
  8
ASSI
100
AcDbLine
 62
253
  6
CONTINUOUS
 10
-46.1079751391
 20
-20.4330070135
 11
-46.1234518718
 21
-20.4350821915
  0
LINE
  5
2D7
100
AcDbEntity
  8
RACCORDO
100
AcDbLine
 62
253
  6
CONTINUOUS
 10
-46.0595142217
 20
-20.4266409563
 11
-46.1218355185
 21
-20.4348586167
  0
LINE
  5
2D8
100
AcDbEntity
  8
ASSI
100
AcDbLine
 62
253
  6
CONTINUOUS
 10
-45.9823377608
 20
-20.4165665737
 11
-46.1079751391
 21
-20.4330070135
  0
LINE
  5
2D9
100
AcDbEntity
  8
RACCORDO
100
AcDbLine
 62
253
  6
CONTINUOUS
 10
-45.8361418671
 20
-20.3975494779
 11
-46.0595142217
 21
-20.4266409563
  0
LWPOLYLINE
  5
2DA
100
AcDbEntity
  8
ASSI
100
AcDbPolyline
 62
253
  6
CONTINUOUS
 90
3
 70
0
 10
-45.6373389945
 20
-20.3717589576
 10
-45.6693862979
 20
-20.375912203
 10
-45.9823377608
 20
-20.4165665737
  0
LINE
  5
2DB
100
AcDbEntity
  8
RACCORDO
100
AcDbLine
 62
253
  6
CONTINUOUS
 10
-45.6373389945
 20
-20.3717589576
 11
-45.8361418671
 21
-20.3975494779
  0
LINE
  5
2DC
100
AcDbEntity
  8
DRAFT
100
AcDbLine
 62
7
  6
CONTINUOUS
 10
-15.7826083471
 20
-15.5449089135
 11
-14.0669075603
 21
-15.4549928454
  0
LINE
  5
2DD
100
AcDbEntity
  8
ASSI
100
AcDbLine
 62
7
  6
CONTINUOUS
 10
-15.7826083471
 20
-15.5449089135
 11
-14.0669075603
 21
-15.4549928454
  0
LWPOLYLINE
  5
2DE
100
AcDbEntity
  8
RACCORDO
100
AcDbPolyline
 62
253
  6
CONTINUOUS
 90
16
 70
0
 10
-16.2738821439
 20
-16.6359157098
 10
-16.2222507943
 20
-16.6336823373
 10
-16.1712661776
 20
-16.6281315506
 10
-16.1214745636
 20
-16.61932283
 10
-16.0734094302
 20
-16.60735056
 10
-16.0275857716
 20
-16.5923430242
 10
-15.9844945769
 20
-16.5744610351
 10
-15.9445975338
 20
-16.5538961986
 10
-15.9083220976
 20
-16.5308688614
 10
-15.8760569298
 20
-16.5056257611
 10
-15.8481477129
 20
-16.4784373711
 10
-15.824893451
 20
-16.4495950006
 10
-15.8065432752
 20
-16.4194076802
 10
-15.7932937712
 20
-16.388198848
 10
-15.7852868738
 20
-16.3563028844
 10
-15.7826083471
 20
-16.3240615292
  0
LWPOLYLINE
  5
2DF
100
AcDbEntity
  8
ASSI
100
AcDbPolyline
 62
253
  6
CONTINUOUS
 90
16
 70
0
 10
-16.2738821439
 20
-16.6359157098
 10
-16.2222507943
 20
-16.6336823373
 10
-16.1712661776
 20
-16.6281315506
 10
-16.1214745636
 20
-16.61932283
 10
-16.0734094302
 20
-16.60735056
 10
-16.0275857716
 20
-16.5923430242
 10
-15.9844945769
 20
-16.5744610351
 10
-15.9445975338
 20
-16.5538961986
 10
-15.9083220976
 20
-16.5308688614
 10
-15.8760569298
 20
-16.5056257611
 10
-15.8481477129
 20
-16.4784373711
 10
-15.824893451
 20
-16.4495950006
 10
-15.8065432752
 20
-16.4194076802
 10
-15.7932937712
 20
-16.388198848
 10
-15.7852868738
 20
-16.3563028844
 10
-15.7826083471
 20
-16.3240615292
  0
LINE
  5
2E0
100
AcDbEntity
  8
RACCORDO
100
AcDbLine
 62
253
  6
CONTINUOUS
 10
-38.314379693
 20
-16.7864885809
 11
-36.9826083471
 21
-16.7548431047
  0
LINE
  5
2E1
100
AcDbEntity
  8
RACCORDO
100
AcDbLine
 62
253
  6
CONTINUOUS
 10
-16.273882109
 20
-18.1007778294
 11
-26.9345906925
 21
-18.2879615175
  0
LINE
  5
2E2
100
AcDbEntity
  8
ASSI
100
AcDbLine
 62
253
  6
CONTINUOUS
 10
-16.273882109
 20
-18.1007778294
 11
-26.9345906925
 21
-18.2879615175
  0
LWPOLYLINE
  5
2E3
100
AcDbEntity
  8
RACCORDO
100
AcDbPolyline
 62
253
  6
CONTINUOUS
 90
3
 70
0
 10
-16.2738821439
 20
-16.6359157099
 10
-19.7348540695
 20
-16.6557677492
 10
-30.0949277061
 20
-16.7150449853
  0
LWPOLYLINE
  5
2E4
100
AcDbEntity
  8
ASSI
100
AcDbPolyline
 62
253
  6
CONTINUOUS
 90
3
 70
0
 10
-16.2738821439
 20
-16.6359157099
 10
-19.7348540695
 20
-16.6557677492
 10
-30.0949277061
 20
-16.7150449853
  0
LINE
  5
2E5
100
AcDbEntity
  8
RACCORDO
100
AcDbLine
 62
253
  6
CONTINUOUS
 10
-30.0949277061
 20
-16.7150449853
 11
-36.9826083471
 21
-16.7543384827
  0
LINE
  5
2E6
100
AcDbEntity
  8
ASSI
100
AcDbLine
 62
253
  6
CONTINUOUS
 10
-30.0949277061
 20
-16.7150449853
 11
-36.9826083471
 21
-16.7543384827
  0
LINE
  5
2E7
100
AcDbEntity
  8
RACCORDO
100
AcDbLine
 62
7
  6
CONTINUOUS
 10
-38.4417901107
 20
-17.6449089135
 11
-39.2749891528
 21
-17.6303653702
  0
LINE
  5
2E8
100
AcDbEntity
  8
RACCORDO
100
AcDbLine
 62
253
  6
CONTINUOUS
 10
-38.5648196493
 20
-16.6429137298
 11
-39.3625978574
 21
-16.6289932942
  0
LINE
  5
2E9
100
AcDbEntity
  8
CURVE
100
AcDbLine
 62
253
  6
CONTINUOUS
 10
-33.8806589936
 20
-12.4365519135
 11
-33.3379673405
 21
-13.0391229135
  0
LWPOLYLINE
  5
2EA
100
AcDbEntity
  8
RACCORDO
100
AcDbPolyline
 62
7
  6
CONTINUOUS
 90
10
 70
0
 10
-26.9345906925
 20
-18.2879615175
 10
-26.9117876985
 20
-18.3190361694
 10
-26.8894880331
 20
-18.3472689729
 10
-26.8676946146
 20
-18.3723854944
 10
-26.8462486861
 20
-18.3941014663
 10
-26.8253129005
 20
-18.4122257681
 10
-26.8053723402
 20
-18.4266126171
 10
-26.7865898308
 20
-18.4370506825
 10
-26.768804834
 20
-18.4433174627
 10
-26.7520172604
 20
-18.4452476974
  0
LWPOLYLINE
  5
2EB
100
AcDbEntity
  8
ASSI
100
AcDbPolyline
 62
7
  6
CONTINUOUS
 90
10
 70
0
 10
-26.9345906925
 20
-18.2879615175
 10
-26.9117876985
 20
-18.3190361694
 10
-26.8894880331
 20
-18.3472689729
 10
-26.8676946146
 20
-18.3723854944
 10
-26.8462486861
 20
-18.3941014663
 10
-26.8253129005
 20
-18.4122257681
 10
-26.8053723402
 20
-18.4266126171
 10
-26.7865898308
 20
-18.4370506825
 10
-26.768804834
 20
-18.4433174627
 10
-26.7520172604
 20
-18.4452476974
  0
LINE
  5
2EC
100
AcDbEntity
  8
CURVE
100
AcDbLine
 62
253
  6
CONTINUOUS
 10
-33.9822883827
 20
8.0413447501
 11
-33.9822883827
 21
8.338409154
  0
LINE
  5
2ED
100
AcDbEntity
  8
CURVE
100
AcDbLine
 62
253
  6
CONTINUOUS
 10
-33.9822883827
 20
9.4501717406
 11
-33.9822883827
 21
9.7148947641
  0
LINE
  5
2EE
100
AcDbEntity
  8
CURVE
100
AcDbLine
 62
253
  6
CONTINUOUS
 10
-33.9822883827
 20
10.3001214473
 11
-33.9822883827
 21
11.7501165952
  0
LINE
  5
2EF
100
AcDbEntity
  8
CURVE
100
AcDbLine
 62
253
  6
CONTINUOUS
 10
-33.9822883827
 20
11.99712801
 11
-33.9822883827
 21
12.3000324646
  0
LINE
  5
2F0
100
AcDbEntity
  8
CURVE
100
AcDbLine
 62
253
  6
CONTINUOUS
 10
-33.9822883827
 20
13.5118059186
 11
-33.9822883827
 21
13.8030117438
  0
LINE
  5
2F1
100
AcDbEntity
  8
CURVE
100
AcDbLine
 62
253
  6
CONTINUOUS
 10
-33.9822883827
 20
14.158860803
 11
-33.9822883827
 21
15.6088374228
  0
LINE
  5
2F2
100
AcDbEntity
  8
CURVE
100
AcDbLine
 62
7
  6
CONTINUOUS
 10
-33.4722629143
 20
10.3001214473
 11
-33.1928532998
 21
10.5795310619
  0
LINE
  5
2F3
100
AcDbEntity
  8
CURVE
100
AcDbLine
 62
7
  6
CONTINUOUS
 10
-33.0796122785
 20
10.6927720832
 11
-32.8443909234
 21
10.9279934382
  0
LINE
  5
2F4
100
AcDbEntity
  8
CURVE
100
AcDbLine
 62
7
  6
CONTINUOUS
 10
-32.1181496667
 20
11.654234695
 11
-32.0134409893
 21
11.7589433723
  0
LINE
  5
2F5
100
AcDbEntity
  8
CURVE
100
AcDbLine
 62
253
  6
CONTINUOUS
 10
-30.8835374067
 20
12.533662418
 11
-30.6121501913
 21
12.8050910865
  0
LINE
  5
2F6
100
AcDbEntity
  8
CURVE
100
AcDbLine
 62
7
  6
CONTINUOUS
 10
-33.9270813517
 20
9.4501717406
 11
-33.6623583282
 21
9.7148947641
  0
LINE
  5
2F7
100
AcDbEntity
  8
CURVE
100
AcDbLine
 62
7
  6
CONTINUOUS
 10
-33.077131645
 20
10.3001214473
 11
-32.7977220304
 21
10.5795310619
  0
LINE
  5
2F8
100
AcDbEntity
  8
CURVE
100
AcDbLine
 62
7
  6
CONTINUOUS
 10
-32.1181496667
 20
11.2591034257
 11
-31.8829283116
 21
11.4943247807
  0
LINE
  5
2F9
100
AcDbEntity
  8
CURVE
100
AcDbLine
 62
7
  6
CONTINUOUS
 10
-33.5319500824
 20
9.4501717406
 11
-33.2672270589
 21
9.7148947641
  0
LINE
  5
2FA
100
AcDbEntity
  8
CURVE
100
AcDbLine
 62
7
  6
CONTINUOUS
 10
-32.6820003757
 20
10.3001214473
 11
-32.4025907611
 21
10.5795310619
  0
LINE
  5
2FB
100
AcDbEntity
  8
CURVE
100
AcDbLine
 62
7
  6
CONTINUOUS
 10
-32.1181496667
 20
10.8639721563
 11
-31.8829283116
 21
11.0991935114
  0
LINE
  5
2FC
100
AcDbEntity
  8
CURVE
100
AcDbLine
 62
7
  6
CONTINUOUS
 10
-28.0767145274
 20
14.9054072956
 11
-27.8594726174
 21
15.1226492056
  0
LINE
  5
2FD
100
AcDbEntity
  8
CURVE
100
AcDbLine
 62
7
  6
CONTINUOUS
 10
-33.1368188131
 20
9.4501717406
 11
-32.8720957895
 21
9.7148947641
  0
LINE
  5
2FE
100
AcDbEntity
  8
CURVE
100
AcDbLine
 62
7
  6
CONTINUOUS
 10
-32.2868691063
 20
10.3001214473
 11
-31.8829283116
 21
10.7040622421
  0
LINE
  5
2FF
100
AcDbEntity
  8
CURVE
100
AcDbLine
 62
7
  6
CONTINUOUS
 10
-28.0364084297
 20
14.550582124
 11
-27.4643429274
 21
15.1226476263
  0
LINE
  5
300
100
AcDbEntity
  8
CURVE
100
AcDbLine
 62
7
  6
CONTINUOUS
 10
-33.9822883827
 20
8.2095709017
 11
-33.6146058145
 21
8.5772534698
  0
LINE
  5
301
100
AcDbEntity
  8
CURVE
100
AcDbLine
 62
7
  6
CONTINUOUS
 10
-32.7416875438
 20
9.4501717406
 11
-32.4769645202
 21
9.7148947641
  0
LINE
  5
302
100
AcDbEntity
  8
CURVE
100
AcDbLine
 62
7
  6
CONTINUOUS
 10
-31.891737837
 20
10.3001214473
 11
-31.8829283116
 21
10.3089309727
  0
LINE
  5
303
100
AcDbEntity
  8
CURVE
100
AcDbLine
 62
7
  6
CONTINUOUS
 10
-27.9547165122
 20
14.2371427722
 11
-27.3233761955
 21
14.8684830888
  0
LINE
  5
304
100
AcDbEntity
  8
CURVE
100
AcDbLine
 62
253
  6
CONTINUOUS
 10
-30.6121501913
 20
11.447948197
 11
-30.8835374067
 21
11.176519755
  0
LINE
  5
305
100
AcDbEntity
  8
CURVE
100
AcDbLine
 62
7
  6
CONTINUOUS
 10
-33.7553832649
 20
8.0413447501
 11
-33.4906787695
 21
8.3060492455
  0
LINE
  5
306
100
AcDbEntity
  8
CURVE
100
AcDbLine
 62
7
  6
CONTINUOUS
 10
-33.3299946089
 20
8.4667334061
 11
-32.4869680416
 21
9.3097599735
  0
LINE
  5
307
100
AcDbEntity
  8
CURVE
100
AcDbLine
 62
7
  6
CONTINUOUS
 10
-32.3465562744
 20
9.4501717406
 11
-32.0818332509
 21
9.7148947641
  0
LINE
  5
308
100
AcDbEntity
  8
CURVE
100
AcDbLine
 62
7
  6
CONTINUOUS
 10
-27.8431053994
 20
13.9536226156
 11
-27.2624743484
 21
14.5342536666
  0
LINE
  5
309
100
AcDbEntity
  8
CURVE
100
AcDbLine
 62
7
  6
CONTINUOUS
 10
-33.3602519956
 20
8.0413447501
 11
-33.0955475001
 21
8.3060492455
  0
LINE
  5
30A
100
AcDbEntity
  8
CURVE
100
AcDbLine
 62
7
  6
CONTINUOUS
 10
-32.1972974269
 20
9.2042993188
 11
-31.8829283116
 21
9.5186684341
  0
LINE
  5
30B
100
AcDbEntity
  8
CURVE
100
AcDbLine
 62
7
  6
CONTINUOUS
 10
-27.7054599241
 20
13.6961368216
 11
-27.1545446555
 21
14.2470520902
  0
LINE
  5
30C
100
AcDbEntity
  8
CURVE
100
AcDbLine
 62
253
  6
CONTINUOUS
 10
-28.9838267859
 20
12.397948197
 11
-29.2552140296
 21
12.126519755
  0
LINE
  5
30D
100
AcDbEntity
  8
CURVE
100
AcDbLine
 62
7
  6
CONTINUOUS
 10
-32.9651207263
 20
8.0413447501
 11
-32.7004162308
 21
8.3060492455
  0
LINE
  5
30E
100
AcDbEntity
  8
CURVE
100
AcDbLine
 62
7
  6
CONTINUOUS
 10
-27.544200225
 20
13.4622652514
 11
-27.0104589409
 21
13.9960065355
  0
LINE
  5
30F
100
AcDbEntity
  8
CURVE
100
AcDbLine
 62
7
  6
CONTINUOUS
 10
-32.569989457
 20
8.0413447501
 11
-32.3052849615
 21
8.3060492455
  0
LINE
  5
310
100
AcDbEntity
  8
CURVE
100
AcDbLine
 62
7
  6
CONTINUOUS
 10
-27.3606815186
 20
13.2506526884
 11
-26.8316636585
 21
13.7796705486
  0
LINE
  5
311
100
AcDbEntity
  8
CURVE
100
AcDbLine
 62
7
  6
CONTINUOUS
 10
-25.9074941204
 20
14.7038400866
 11
-25.8886871206
 21
14.7226470865
  0
LINE
  5
312
100
AcDbEntity
  8
CURVE
100
AcDbLine
 62
253
  6
CONTINUOUS
 10
-30.0693757606
 20
10.497948197
 11
-29.7979884886
 21
10.7693767522
  0
LINE
  5
313
100
AcDbEntity
  8
CURVE
100
AcDbLine
 62
253
  6
CONTINUOUS
 10
-30.8835374067
 20
9.5479482536
 11
-30.6121501913
 21
9.8193768088
  0
LINE
  5
314
100
AcDbEntity
  8
CURVE
100
AcDbLine
 62
7
  6
CONTINUOUS
 10
-32.1748581876
 20
8.0413447501
 11
-31.9101536922
 21
8.3060492455
  0
LINE
  5
315
100
AcDbEntity
  8
CURVE
100
AcDbLine
 62
7
  6
CONTINUOUS
 10
-27.1554164956
 20
13.0607864421
 11
-26.6231468009
 21
13.5930561369
  0
LINE
  5
316
100
AcDbEntity
  8
CURVE
100
AcDbLine
 62
7
  6
CONTINUOUS
 10
-25.9074939781
 20
14.3087089596
 11
-25.4935558513
 21
14.7226470865
  0
LINE
  5
317
100
AcDbEntity
  8
CURVE
100
AcDbLine
 62
253
  6
CONTINUOUS
 10
-31.8829283116
 20
9.4090035832
 11
-33.5677031656
 21
8.3119473509
  0
LINE
  5
318
100
AcDbEntity
  8
CURVE
100
AcDbLine
 62
253
  6
CONTINUOUS
 10
-33.9822883827
 20
8.338409154
 11
-32.2798641167
 21
9.4442933986
  0
LINE
  5
319
100
AcDbEntity
  8
CURVE
100
AcDbLine
 62
253
  6
CONTINUOUS
 10
-30.6121501913
 20
12.8050910865
 11
-30.3407629759
 21
12.9408053075
  0
LINE
  5
31A
100
AcDbEntity
  8
CURVE
100
AcDbLine
 62
253
  6
CONTINUOUS
 10
-29.2552140296
 20
12.126519755
 11
-29.5266012732
 21
11.9908053075
  0
LINE
  5
31B
100
AcDbEntity
  8
CURVE
100
AcDbLine
 62
253
  6
CONTINUOUS
 10
-31.8829283116
 20
12.7382956565
 11
-33.9822883827
 21
11.99712801
  0
LINE
  5
31C
100
AcDbEntity
  8
CURVE
100
AcDbLine
 62
253
  6
CONTINUOUS
 10
-33.9822883827
 20
12.3000324646
 11
-32.1622528218
 21
12.9000606129
  0
LINE
  5
31D
100
AcDbEntity
  8
RACCORDO
100
AcDbLine
 62
253
  6
CONTINUOUS
 10
-38.6957035492
 20
-15.5769499077
 11
-38.6920274129
 21
-15.5764065099
  0
LINE
  5
31E
100
AcDbEntity
  8
RACCORDO
100
AcDbLine
 62
253
  6
CONTINUOUS
 10
-38.6920274129
 20
-15.5764065099
 11
-38.6632044702
 21
-15.572694306
  0
LINE
  5
31F
100
AcDbEntity
  8
RACCORDO
100
AcDbLine
 62
253
  6
CONTINUOUS
 10
-38.6632044702
 20
-15.572694306
 11
-38.5741644504
 21
-15.561565891
  0
LINE
  5
320
100
AcDbEntity
  8
RACCORDO
100
AcDbLine
 62
253
  6
CONTINUOUS
 10
-38.5741644504
 20
-15.561565891
 11
-38.4519301128
 21
-15.5464825719
  0
LINE
  5
321
100
AcDbEntity
  8
RACCORDO
100
AcDbLine
 62
253
  6
CONTINUOUS
 10
-38.4519301128
 20
-15.5464825719
 11
-36.9826083471
 21
-15.5140767529
  0
LINE
  5
322
100
AcDbEntity
  8
RACCORDO
100
AcDbLine
 62
253
  6
CONTINUOUS
 10
-26.6453768344
 20
-15.4517615543
 11
-36.9826083471
 21
-15.5145680796
  0
LINE
  5
323
100
AcDbEntity
  8
ASSI
100
AcDbLine
 62
253
  6
CONTINUOUS
 10
-26.6453768344
 20
-15.4517615543
 11
-36.9826083471
 21
-15.5145680796
  0
LINE
  5
324
100
AcDbEntity
  8
RACCORDO
100
AcDbLine
 62
253
  6
CONTINUOUS
 10
-16.2738821439
 20
-15.3884989874
 11
-26.6453768344
 21
-15.4517615543
  0
LINE
  5
325
100
AcDbEntity
  8
ASSI
100
AcDbLine
 62
253
  6
CONTINUOUS
 10
-16.2738821439
 20
-15.3884989874
 11
-26.6453768344
 21
-15.4517615543
  0
LINE
  5
326
100
AcDbEntity
  8
RACCORDO
100
AcDbLine
 62
253
  6
CONTINUOUS
 10
-16.2738821439
 20
-15.3884989874
 11
-15.7826083471
 21
-15.3884989874
  0
LINE
  5
327
100
AcDbEntity
  8
ASSI
100
AcDbLine
 62
253
  6
CONTINUOUS
 10
-16.2738821439
 20
-15.3884989874
 11
-15.7826083471
 21
-15.3884989874
  0
LINE
  5
328
100
AcDbEntity
  8
CURVE
100
AcDbLine
 62
253
  6
CONTINUOUS
 10
-33.8806589936
 20
-14.3949089135
 11
-31.9812377079
 21
-14.3949089135
  0
LINE
  5
329
100
AcDbEntity
  8
CURVE
100
AcDbLine
 62
253
  6
CONTINUOUS
 10
-29.3820296328
 20
-14.3949089135
 11
-27.4826083471
 21
-14.3949089135
  0
LINE
  5
32A
100
AcDbEntity
  8
CURVE
100
AcDbLine
 62
253
  6
CONTINUOUS
 10
-18.9853498343
 20
-14.1667325421
 11
-20.4851213771
 21
-14.1667325421
  0
LINE
  5
32B
100
AcDbEntity
  8
CURVE
100
AcDbLine
 62
253
  6
CONTINUOUS
 10
-24.8844512357
 20
-13.8520517464
 11
-22.9847406149
 21
-13.8520517464
  0
LINE
  5
32C
100
AcDbEntity
  8
CURVE
100
AcDbLine
 62
253
  6
CONTINUOUS
 10
-20.4851213771
 20
-13.3095896466
 11
-18.9853498343
 21
-13.3095896466
  0
LINE
  5
32D
100
AcDbEntity
  8
CURVE
100
AcDbLine
 62
253
  6
CONTINUOUS
 10
-23.9345959253
 20
-13.3091945793
 11
-23.2561278586
 21
-13.3091945793
  0
LINE
  5
32E
100
AcDbEntity
  8
RACCORDO
100
AcDbLine
 62
253
  6
CONTINUOUS
 10
-13.7826083471
 20
-12.7949089135
 11
-15.7826083471
 21
-12.7949089135
  0
LINE
  5
32F
100
AcDbEntity
  8
ASSI
100
AcDbLine
 62
253
  6
CONTINUOUS
 10
-13.7826083471
 20
-12.7949089135
 11
-15.7826083471
 21
-12.7949089135
  0
LINE
  5
330
100
AcDbEntity
  8
CURVE
100
AcDbLine
 62
253
  6
CONTINUOUS
 10
-24.4773703561
 20
-13.037766024
 11
-23.9345959253
 21
-13.3091945793
  0
LINE
  5
331
100
AcDbEntity
  8
CURVE
100
AcDbLine
 62
253
  6
CONTINUOUS
 10
-28.9750106431
 20
-13.0391229135
 11
-29.3820296328
 21
-12.7378379135
  0
LINE
  5
332
100
AcDbEntity
  8
CURVE
100
AcDbLine
 62
253
  6
CONTINUOUS
 10
-28.8393379797
 20
-11.9846229135
 11
-27.4826083471
 21
-13.0391229135
  0
LINE
  5
333
100
AcDbEntity
  8
CURVE
100
AcDbLine
 62
253
  6
CONTINUOUS
 10
-31.9812377079
 20
-8.3949089135
 11
-34.0013482221
 21
-4.8949089135
  0
LINE
  5
334
100
AcDbEntity
  8
CURVE
100
AcDbLine
 62
253
  6
CONTINUOUS
 10
-33.7470670276
 20
15.6088374228
 11
-33.7470670276
 21
14.4382716528
  0
LINE
  5
335
100
AcDbEntity
  8
CURVE
100
AcDbLine
 62
253
  6
CONTINUOUS
 10
-33.7470670276
 20
11.7501165952
 11
-33.7470670276
 21
10.5795310619
  0
LINE
  5
336
100
AcDbEntity
  8
CURVE
100
AcDbLine
 62
253
  6
CONTINUOUS
 10
-33.5677031656
 20
8.3119473509
 11
-33.5677031656
 21
8.3060492455
  0
LINE
  5
337
100
AcDbEntity
  8
CURVE
100
AcDbLine
 62
253
  6
CONTINUOUS
 10
-33.0796122785
 20
10.5795310619
 11
-33.0796122785
 21
11.6707089522
  0
LINE
  5
338
100
AcDbEntity
  8
CURVE
100
AcDbLine
 62
253
  6
CONTINUOUS
 10
-33.0796122785
 20
14.4382716528
 11
-33.0796122785
 21
15.5294878345
  0
LINE
  5
339
100
AcDbEntity
  8
RACCORDO
100
AcDbLine
 62
7
  6
CONTINUOUS
 10
-32.9826083471
 20
-22.0247755162
 11
-32.9826083471
 21
-20.4722495638
  0
LINE
  5
33A
100
AcDbEntity
  8
SUPERFICI
100
AcDbLine
 62
7
  6
CONTINUOUS
 10
-32.9826083471
 20
-21.9965472194
 11
-32.9826083471
 21
-22.8250886538
  0
LINE
  5
33B
100
AcDbEntity
  8
ASSI
100
AcDbLine
 62
7
  6
CONTINUOUS
 10
-32.9826083471
 20
-20.4722495638
 11
-32.9826083471
 21
-22.8250886538
  0
LINE
  5
33C
100
AcDbEntity
  8
RACCORDO
100
AcDbLine
 62
7
  6
CONTINUOUS
 10
-32.9826083471
 20
21.6948985007
 11
-32.9826083471
 21
23.2349576891
  0
LINE
  5
33D
100
AcDbEntity
  8
SUPERFICI
100
AcDbLine
 62
7
  6
CONTINUOUS
 10
-32.9826083471
 20
23.2349576891
 11
-32.9826083471
 21
24.0352708267
  0
LINE
  5
33E
100
AcDbEntity
  8
ASSI
100
AcDbLine
 62
7
  6
CONTINUOUS
 10
-32.9826083471
 20
21.6948985007
 11
-32.9826083471
 21
24.0352708267
  0
LINE
  5
33F
100
AcDbEntity
  8
CURVE
100
AcDbLine
 62
253
  6
CONTINUOUS
 10
-32.8443909234
 20
15.5294878345
 11
-32.8443909234
 21
14.4382716528
  0
LINE
  5
340
100
AcDbEntity
  8
CURVE
100
AcDbLine
 62
253
  6
CONTINUOUS
 10
-32.8443909234
 20
11.6707089522
 11
-32.8443909234
 21
10.5795310619
  0
LINE
  5
341
100
AcDbEntity
  8
CURVE
100
AcDbLine
 62
253
  6
CONTINUOUS
 10
-32.2798641167
 20
9.4442933986
 11
-32.2798641167
 21
9.4501717406
  0
LINE
  5
342
100
AcDbEntity
  8
CURVE
100
AcDbLine
 62
253
  6
CONTINUOUS
 10
-32.1622528218
 20
12.9000606129
 11
-32.1622528218
 21
12.9059574829
  0
LINE
  5
343
100
AcDbEntity
  8
CURVE
100
AcDbLine
 62
253
  6
CONTINUOUS
 10
-32.1181496667
 20
10.5795310619
 11
-32.1181496667
 21
11.7589433723
  0
LINE
  5
344
100
AcDbEntity
  8
CURVE
100
AcDbLine
 62
253
  6
CONTINUOUS
 10
-32.1181496667
 20
14.4382716528
 11
-32.1181496667
 21
15.6177222545
  0
LINE
  5
345
100
AcDbEntity
  8
CURVE
100
AcDbLine
 62
253
  6
CONTINUOUS
 10
-31.9812377079
 20
-14.3949089135
 11
-31.9812377079
 21
-13.6416949135
  0
LINE
  5
346
100
AcDbEntity
  8
CURVE
100
AcDbLine
 62
253
  6
CONTINUOUS
 10
-31.9812377079
 20
-11.3949089135
 11
-31.9812377079
 21
-8.3949089135
  0
LINE
  5
347
100
AcDbEntity
  8
CURVE
100
AcDbLine
 62
253
  6
CONTINUOUS
 10
-31.9812377079
 20
-5.3949089135
 11
-31.9812377079
 21
-2.3949089135
  0
LINE
  5
348
100
AcDbEntity
  8
CURVE
100
AcDbLine
 62
253
  6
CONTINUOUS
 10
-31.8829283116
 20
15.6177222545
 11
-31.8829283116
 21
14.158860803
  0
LINE
  5
349
100
AcDbEntity
  8
CURVE
100
AcDbLine
 62
253
  6
CONTINUOUS
 10
-31.8829283116
 20
13.0559262287
 11
-31.8829283116
 21
12.7382956565
  0
LINE
  5
34A
100
AcDbEntity
  8
CURVE
100
AcDbLine
 62
253
  6
CONTINUOUS
 10
-31.8829283116
 20
11.7589433723
 11
-31.8829283116
 21
10.3001214473
  0
LINE
  5
34B
100
AcDbEntity
  8
CURVE
100
AcDbLine
 62
253
  6
CONTINUOUS
 10
-31.8829283116
 20
9.7148947641
 11
-31.8829283116
 21
9.4090035832
  0
LINE
  5
34C
100
AcDbEntity
  8
CURVE
100
AcDbLine
 62
253
  6
CONTINUOUS
 10
-31.8829283116
 20
8.3060492455
 11
-31.8829283116
 21
8.0413447501
  0
LINE
  5
34D
100
AcDbEntity
  8
0
100
AcDbLine
 62
7
  6
CONTINUOUS
 10
-31.3826083471
 20
22.8050910865
 11
-31.3826083471
 21
21.7771629826
  0
LINE
  5
34E
100
AcDbEntity
  8
ASSI
100
AcDbLine
 62
7
  6
CONTINUOUS
 10
-31.3826083471
 20
22.8050910865
 11
-31.3826083471
 21
21.7771629826
  0
LINE
  5
34F
100
AcDbEntity
  8
0
100
AcDbLine
 62
7
  6
CONTINUOUS
 10
-31.3826083471
 20
-21.5949089135
 11
-31.3826083471
 21
-20.5669808097
  0
LINE
  5
350
100
AcDbEntity
  8
ASSI
100
AcDbLine
 62
7
  6
CONTINUOUS
 10
-31.3826083471
 20
-21.5949089135
 11
-31.3826083471
 21
-20.5669808097
  0
LWPOLYLINE
  5
351
100
AcDbEntity
  8
RACCORDO
100
AcDbPolyline
 62
253
  6
CONTINUOUS
 90
10
 70
0
 10
-37.7266657029
 20
-21.7509034391
 10
-37.7259718307
 20
-21.7467733078
 10
-37.7253054056
 20
-21.7412237901
 10
-37.7246830519
 20
-21.7341313984
 10
-37.7241079275
 20
-21.7253884567
 10
-37.7235816198
 20
-21.7148904272
 10
-37.7231193904
 20
-21.7024994665
 10
-37.7227303402
 20
-21.6880966213
 10
-37.7224179207
 20
-21.6715992535
 10
-37.7221910751
 20
-21.6529251198
  0
LINE
  5
352
100
AcDbEntity
  8
CURVE
100
AcDbLine
 62
7
  6
CONTINUOUS
 10
-26.9281448661
 20
12.8929268023
 11
-26.3841161547
 21
13.4369555137
  0
LINE
  5
353
100
AcDbEntity
  8
CURVE
100
AcDbLine
 62
7
  6
CONTINUOUS
 10
-25.9074938358
 20
13.9135778326
 11
-25.1577225671
 21
14.6633491013
  0
LINE
  5
354
100
AcDbEntity
  8
CURVE
100
AcDbLine
 62
7
  6
CONTINUOUS
 10
-26.6777777266
 20
12.7481626725
 11
-26.1074427225
 21
13.3184976765
  0
LINE
  5
355
100
AcDbEntity
  8
CURVE
100
AcDbLine
 62
7
  6
CONTINUOUS
 10
-25.9074936934
 20
13.5184467056
 11
-25.1577225671
 21
14.268217832
  0
LINE
  5
356
100
AcDbEntity
  8
CURVE
100
AcDbLine
 62
7
  6
CONTINUOUS
 10
-26.4022729475
 20
12.6285361822
 11
-25.1577225671
 21
13.8730865627
  0
LINE
  5
357
100
AcDbEntity
  8
CURVE
100
AcDbLine
 62
7
  6
CONTINUOUS
 10
-28.0772678236
 20
10.5584100368
 11
-27.8981407739
 21
10.7375370865
  0
LINE
  5
358
100
AcDbEntity
  8
CURVE
100
AcDbLine
 62
7
  6
CONTINUOUS
 10
-26.0982662317
 20
12.5374116287
 11
-25.1577225671
 21
13.4779552933
  0
LINE
  5
359
100
AcDbEntity
  8
CURVE
100
AcDbLine
 62
7
  6
CONTINUOUS
 10
-23.7394527715
 20
14.8962250889
 11
-23.5130307739
 21
15.1226470865
  0
LINE
  5
35A
100
AcDbEntity
  8
CURVE
100
AcDbLine
 62
253
  6
CONTINUOUS
 10
-28.9838267859
 20
9.4122339476
 11
-29.2552140296
 21
9.1408053782
  0
LINE
  5
35B
100
AcDbEntity
  8
CURVE
100
AcDbLine
 62
7
  6
CONTINUOUS
 10
-28.0432857183
 20
10.1972608728
 11
-27.5030095046
 21
10.7375370865
  0
LINE
  5
35C
100
AcDbEntity
  8
CURVE
100
AcDbLine
 62
7
  6
CONTINUOUS
 10
-25.7558970135
 20
12.4846495776
 11
-24.9013504945
 21
13.3391960966
  0
LINE
  5
35D
100
AcDbEntity
  8
CURVE
100
AcDbLine
 62
7
  6
CONTINUOUS
 10
-23.849670558
 20
14.3908760331
 11
-23.1178995046
 21
15.1226470865
  0
LINE
  5
35E
100
AcDbEntity
  8
CURVE
100
AcDbLine
 62
7
  6
CONTINUOUS
 10
-27.9647334641
 20
9.8806818576
 11
-27.3274582419
 21
10.5179570798
  0
LINE
  5
35F
100
AcDbEntity
  8
CURVE
100
AcDbLine
 62
7
  6
CONTINUOUS
 10
-25.3636842864
 20
12.4817310353
 11
-22.989216845
 21
14.8561984768
  0
LINE
  5
360
100
AcDbEntity
  8
CURVE
100
AcDbLine
 62
7
  6
CONTINUOUS
 10
-27.8555633511
 20
9.5947207013
 11
-27.2702884297
 21
10.1799956227
  0
LINE
  5
361
100
AcDbEntity
  8
CURVE
100
AcDbLine
 62
7
  6
CONTINUOUS
 10
-24.8923603248
 20
12.5579237277
 11
-23.0680599153
 21
14.3822241371
  0
LINE
  5
362
100
AcDbEntity
  8
CURVE
100
AcDbLine
 62
7
  6
CONTINUOUS
 10
-27.7201744112
 20
9.3349783719
 11
-27.1668233171
 21
9.888329466
  0
LINE
  5
363
100
AcDbEntity
  8
CURVE
100
AcDbLine
 62
7
  6
CONTINUOUS
 10
-24.2133734474
 20
12.8417793357
 11
-23.3609368647
 21
13.6942159184
  0
LINE
  5
364
100
AcDbEntity
  8
CURVE
100
AcDbLine
 62
7
  6
CONTINUOUS
 10
-27.5610635875
 20
9.0989579263
 11
-27.0241227551
 21
9.6358987586
  0
LINE
  5
365
100
AcDbEntity
  8
CURVE
100
AcDbLine
 62
7
  6
CONTINUOUS
 10
-27.3796314364
 20
8.8852588081
 11
-26.8510221618
 21
9.4138680827
  0
LINE
  5
366
100
AcDbEntity
  8
CURVE
100
AcDbLine
 62
253
  6
CONTINUOUS
 10
-30.6121501913
 20
9.8193768088
 11
-30.3407629759
 21
9.9550910865
  0
LINE
  5
367
100
AcDbEntity
  8
CURVE
100
AcDbLine
 62
253
  6
CONTINUOUS
 10
-29.2552140296
 20
9.1408053782
 11
-29.5266012732
 21
9.0050910865
  0
LINE
  5
368
100
AcDbEntity
  8
CURVE
100
AcDbLine
 62
253
  6
CONTINUOUS
 10
-31.9812377079
 20
-12.4365519135
 11
-33.8806589936
 21
-12.4365519135
  0
LINE
  5
369
100
AcDbEntity
  8
CURVE
100
AcDbLine
 62
253
  6
CONTINUOUS
 10
-23.2561278586
 20
-12.3591946925
 11
-23.7989023177
 21
-12.3591946925
  0
LINE
  5
36A
100
AcDbEntity
  8
CURVE
100
AcDbLine
 62
253
  6
CONTINUOUS
 10
-29.1106833064
 20
-11.9846229135
 11
-28.8393379797
 21
-11.9846229135
  0
LINE
  5
36B
100
AcDbEntity
  8
CURVE
100
AcDbLine
 62
253
  6
CONTINUOUS
 10
-18.9853498343
 20
-11.5953039451
 11
-20.4851213771
 21
-11.5953039451
  0
LINE
  5
36C
100
AcDbEntity
  8
CURVE
100
AcDbLine
 62
253
  6
CONTINUOUS
 10
-20.2708683123
 20
-10.8453041239
 11
-19.1996029214
 21
-10.8453041239
  0
LINE
  5
36D
100
AcDbEntity
  8
RACCORDO
100
AcDbLine
 62
253
  6
CONTINUOUS
 10
-13.7826083471
 20
-10.6949089135
 11
-15.7826083471
 21
-10.6949089135
  0
LINE
  5
36E
100
AcDbEntity
  8
ASSI
100
AcDbLine
 62
253
  6
CONTINUOUS
 10
-13.7826083471
 20
-10.6949089135
 11
-15.7826083471
 21
-10.6949089135
  0
LINE
  5
36F
100
AcDbEntity
  8
CURVE
100
AcDbLine
 62
253
  6
CONTINUOUS
 10
-18.9853498343
 20
-10.2381610794
 11
-20.4851213771
 21
-10.2381610794
  0
LINE
  5
370
100
AcDbEntity
  8
CURVE
100
AcDbLine
 62
253
  6
CONTINUOUS
 10
-22.9847406149
 20
-11.816337582
 11
-24.8844512357
 21
-11.273480245
  0
LINE
  5
371
100
AcDbEntity
  8
CURVE
100
AcDbLine
 62
253
  6
CONTINUOUS
 10
-18.9853498343
 20
-12.8810182436
 11
-20.4851213771
 21
-12.4524467511
  0
LINE
  5
372
100
AcDbEntity
  8
CURVE
100
AcDbLine
 62
253
  6
CONTINUOUS
 10
-19.6281090733
 20
-13.7381610943
 11
-20.4851213771
 21
-13.3095896466
  0
LINE
  5
373
100
AcDbEntity
  8
CURVE
100
AcDbLine
 62
253
  6
CONTINUOUS
 10
-24.341676805
 20
-14.3949089135
 11
-24.8844512357
 21
-13.8520517464
  0
LINE
  5
374
100
AcDbEntity
  8
CURVE
100
AcDbLine
 62
253
  6
CONTINUOUS
 10
-24.8844512357
 20
-12.6306232478
 11
-24.4773703561
 21
-13.037766024
  0
LINE
  5
375
100
AcDbEntity
  8
CURVE
100
AcDbLine
 62
253
  6
CONTINUOUS
 10
-22.9847406149
 20
-12.6306232478
 11
-23.2561278586
 21
-12.3591946925
  0
LINE
  5
376
100
AcDbEntity
  8
CURVE
100
AcDbLine
 62
253
  6
CONTINUOUS
 10
-33.8806589936
 20
-0.7923379135
 11
-33.3379673405
 21
-1.3949089135
  0
LWPOLYLINE
  5
377
100
AcDbEntity
  8
RACCORDO
100
AcDbPolyline
 62
253
  6
CONTINUOUS
 90
3
 70
0
 10
-29.0117535492
 20
-20.4026273113
 10
-29.0116150238
 20
-20.4275927725
 10
-29.0112283096
 20
-20.469611968
  0
LWPOLYLINE
  5
378
100
AcDbEntity
  8
ASSI
100
AcDbPolyline
 62
253
  6
CONTINUOUS
 90
3
 70
0
 10
-29.0117535492
 20
-20.4026273113
 10
-29.0116150238
 20
-20.4275927725
 10
-29.0112283096
 20
-20.469611968
  0
LINE
  5
379
100
AcDbEntity
  8
RACCORDO
100
AcDbLine
 62
253
  6
CONTINUOUS
 10
-29.0112283096
 20
-20.469611968
 11
-29.0111388704
 21
-20.4864857346
  0
LINE
  5
37A
100
AcDbEntity
  8
ASSI
100
AcDbLine
 62
253
  6
CONTINUOUS
 10
-29.0112283096
 20
-20.469611968
 11
-29.0111388704
 21
-20.4864857346
  0
LINE
  5
37B
100
AcDbEntity
  8
CURVE
100
AcDbLine
 62
253
  6
CONTINUOUS
 10
-30.8835374067
 20
11.176519755
 11
-30.8835374067
 21
10.7693767522
  0
LINE
  5
37C
100
AcDbEntity
  8
CURVE
100
AcDbLine
 62
253
  6
CONTINUOUS
 10
-30.8835374067
 20
9.4122339476
 11
-30.8835374067
 21
9.5479482536
  0
LINE
  5
37D
100
AcDbEntity
  8
CURVE
100
AcDbLine
 62
253
  6
CONTINUOUS
 10
-30.8835374067
 20
12.397948197
 11
-30.8835374067
 21
12.533662418
  0
LINE
  5
37E
100
AcDbEntity
  8
CURVE
100
AcDbLine
 62
253
  6
CONTINUOUS
 10
-30.8835374067
 20
14.5693768655
 11
-30.8835374067
 21
15.3836626445
  0
LINE
  5
37F
100
AcDbEntity
  8
CURVE
100
AcDbLine
 62
253
  6
CONTINUOUS
 10
-30.0693757606
 20
15.1122337495
 11
-30.0693757606
 21
14.5693768655
  0
LINE
  5
380
100
AcDbEntity
  8
CURVE
100
AcDbLine
 62
253
  6
CONTINUOUS
 10
-29.7979884886
 20
10.7693767522
 11
-29.7979884886
 21
11.3574721251
  0
LINE
  5
381
100
AcDbEntity
  8
CURVE
100
AcDbLine
 62
253
  6
CONTINUOUS
 10
-29.3820296328
 20
-12.7378379135
 11
-29.3820296328
 21
-12.2859089135
  0
LINE
  5
382
100
AcDbEntity
  8
CURVE
100
AcDbLine
 62
253
  6
CONTINUOUS
 10
-29.3820296328
 20
-1.0936229135
 11
-29.3820296328
 21
-0.6416949135
  0
LINE
  5
383
100
AcDbEntity
  8
CURVE
100
AcDbLine
 62
253
  6
CONTINUOUS
 10
-28.9838267859
 20
12.533662418
 11
-28.9838267859
 21
12.397948197
  0
LINE
  5
384
100
AcDbEntity
  8
CURVE
100
AcDbLine
 62
253
  6
CONTINUOUS
 10
-28.9838267859
 20
9.5479482536
 11
-28.9838267859
 21
9.4122339476
  0
LINE
  5
385
100
AcDbEntity
  8
CURVE
100
AcDbLine
 62
253
  6
CONTINUOUS
 10
-28.9838267859
 20
14.5693768655
 11
-28.9838267859
 21
15.1122337495
  0
LINE
  5
386
100
AcDbEntity
  8
RACCORDO
100
AcDbLine
 62
253
  6
CONTINUOUS
 10
-28.9910305683
 20
21.7128313603
 11
-28.9910835439
 21
21.6851336623
  0
LINE
  5
387
100
AcDbEntity
  8
ASSI
100
AcDbLine
 62
253
  6
CONTINUOUS
 10
-28.9910305683
 20
21.7128313603
 11
-28.9910835439
 21
21.6851336623
  0
LWPOLYLINE
  5
388
100
AcDbEntity
  8
RACCORDO
100
AcDbPolyline
 62
253
  6
CONTINUOUS
 90
5
 70
0
 10
-29.0111388704
 20
-20.4864857346
 10
-29.0112283096
 20
-20.5113926721
 10
-29.0113071046
 20
-20.5192487806
 10
-29.011473573
 20
-20.5239990405
 10
-29.0117535492
 20
-20.5255973852
  0
LWPOLYLINE
  5
389
100
AcDbEntity
  8
ASSI
100
AcDbPolyline
 62
253
  6
CONTINUOUS
 90
5
 70
0
 10
-29.0111388704
 20
-20.4864857346
 10
-29.0112283096
 20
-20.5113926721
 10
-29.0113071046
 20
-20.5192487806
 10
-29.011473573
 20
-20.5239990405
 10
-29.0117535492
 20
-20.5255973852
  0
LWPOLYLINE
  5
38A
100
AcDbEntity
  8
RACCORDO
100
AcDbPolyline
 62
253
  6
CONTINUOUS
 90
3
 70
0
 10
-28.9910835439
 20
21.6851336623
 10
-28.9913467492
 20
21.6473444321
 10
-28.9915553147
 20
21.624954356
  0
LWPOLYLINE
  5
38B
100
AcDbEntity
  8
ASSI
100
AcDbPolyline
 62
253
  6
CONTINUOUS
 90
3
 70
0
 10
-28.9910835439
 20
21.6851336623
 10
-28.9913467492
 20
21.6473444321
 10
-28.9915553147
 20
21.624954356
  0
LINE
  5
38C
100
AcDbEntity
  8
CURVE
100
AcDbLine
 62
7
  6
CONTINUOUS
 10
-27.1764478566
 20
8.6933111186
 11
-26.6445087422
 21
9.225250233
  0
LINE
  5
38D
100
AcDbEntity
  8
CURVE
100
AcDbLine
 62
7
  6
CONTINUOUS
 10
-26.9512934578
 20
8.523334248
 11
-26.4070191305
 21
9.0676085753
  0
LINE
  5
38E
100
AcDbEntity
  8
CURVE
100
AcDbLine
 62
7
  6
CONTINUOUS
 10
-26.7031401676
 20
8.3763562689
 11
-26.1368145445
 21
8.942681892
  0
LINE
  5
38F
100
AcDbEntity
  8
CURVE
100
AcDbLine
 62
7
  6
CONTINUOUS
 10
-26.4299987146
 20
8.2543664525
 11
-25.8206865981
 21
8.8636785691
  0
LINE
  5
390
100
AcDbEntity
  8
CURVE
100
AcDbLine
 62
7
  6
CONTINUOUS
 10
-26.1285924713
 20
8.1606414265
 11
-25.4466935089
 21
8.8425403889
  0
LINE
  5
391
100
AcDbEntity
  8
CURVE
100
AcDbLine
 62
7
  6
CONTINUOUS
 10
-23.7364173921
 20
10.5528165057
 11
-23.5516968114
 21
10.7375370865
  0
LINE
  5
392
100
AcDbEntity
  8
CURVE
100
AcDbLine
 62
7
  6
CONTINUOUS
 10
-25.7925930272
 20
8.1015096013
 11
-24.9612407176
 21
8.9328619109
  0
LINE
  5
393
100
AcDbEntity
  8
CURVE
100
AcDbLine
 62
7
  6
CONTINUOUS
 10
-23.8291404061
 20
10.0649622224
 11
-23.156565542
 21
10.7375370865
  0
LINE
  5
394
100
AcDbEntity
  8
CURVE
100
AcDbLine
 62
7
  6
CONTINUOUS
 10
-25.4045436524
 20
8.0944277068
 11
-22.9886467038
 21
10.5103246554
  0
LINE
  5
395
100
AcDbEntity
  8
CURVE
100
AcDbLine
 62
7
  6
CONTINUOUS
 10
-24.945692362
 20
8.1581477278
 11
-23.0563045429
 21
10.0475355469
  0
LINE
  5
396
100
AcDbEntity
  8
CURVE
100
AcDbLine
 62
7
  6
CONTINUOUS
 10
-24.2995612397
 20
8.4091475808
 11
-23.2993414849
 21
9.4093673356
  0
LWPOLYLINE
  5
397
100
AcDbEntity
  8
CURVE
100
AcDbPolyline
 62
253
  6
CONTINUOUS
 90
49
 70
0
 10
-20.765484765
 20
12.9361132333
 10
-20.7227233068
 20
12.9682325204
 10
-20.678916296
 20
12.9990016035
 10
-20.6341183443
 20
13.0283867985
 10
-20.588384063
 20
13.0563544216
 10
-20.5417680637
 20
13.0828707889
 10
-20.4943249577
 20
13.1079022163
 10
-20.4461093566
 20
13.1314150199
 10
-20.3971758717
 20
13.1533755159
 10
-20.3475783883
 20
13.1737534189
 10
-20.2973678867
 20
13.1925320382
 10
-20.2465946209
 20
13.2096980818
 10
-20.1953088449
 20
13.2252382576
 10
-20.1435608128
 20
13.2391392735
 10
-20.0914007786
 20
13.2513878375
 10
-20.0388789964
 20
13.2619706575
 10
-19.9860457202
 20
13.2708744415
 10
-19.9329519642
 20
13.2780878009
 10
-19.8796517829
 20
13.2836069615
 10
-19.8261999911
 20
13.2874300527
 10
-19.7726514034
 20
13.2895552037
 10
-19.7190608347
 20
13.289980544
 10
-19.6654830995
 20
13.2887042028
 10
-19.6119730127
 20
13.2857243095
 10
-19.5585853889
 20
13.2810389934
 10
-19.5053747838
 20
13.2746488788
 10
-19.4523947167
 20
13.2665645704
 10
-19.3996984479
 20
13.2567991675
 10
-19.3473392376
 20
13.2453657698
 10
-19.2953703462
 20
13.2322774768
 10
-19.2438450338
 20
13.2175473879
 10
-19.1928165609
 20
13.2011886028
 10
-19.1423381876
 20
13.183214221
 10
-19.0924620392
 20
13.1636390486
 10
-19.0432357012
 20
13.1424847185
 10
-18.9947056238
 20
13.1197745703
 10
-18.9469182575
 20
13.0955319436
 10
-18.8999200527
 20
13.0697801777
 10
-18.8537574596
 20
13.0425426124
 10
-18.8084769287
 20
13.0138425871
 10
-18.7641249105
 20
12.9837034413
 10
-18.7207478676
 20
12.9521519901
 10
-18.6783923128
 20
12.9192289498
 10
-18.6371047714
 20
12.8849785125
 10
-18.5969317684
 20
12.84944487
 10
-18.557919829
 20
12.8126722143
 10
-18.5201154785
 20
12.7747047371
 10
-18.4835652419
 20
12.7355866306
 10
-18.4483156445
 20
12.6953620865
  0
LINE
  5
398
100
AcDbEntity
  8
CURVE
100
AcDbLine
 62
253
  6
CONTINUOUS
 10
-18.9853498343
 20
-7.7024471684
 11
-20.4851213771
 21
-7.7024471684
  0
LINE
  5
399
100
AcDbEntity
  8
0
100
AcDbLine
 62
7
  6
CONTINUOUS
 10
-15.7826083471
 20
-7.4949089135
 11
-15.5826083471
 21
-7.4949089135
  0
LINE
  5
39A
100
AcDbEntity
  8
ASSI
100
AcDbLine
 62
7
  6
CONTINUOUS
 10
-15.7826083471
 20
-7.4949089135
 11
-15.5826083471
 21
-7.4949089135
  0
LINE
  5
39B
100
AcDbEntity
  8
DRAFT
100
AcDbLine
 62
7
  6
CONTINUOUS
 10
-15.7826083471
 20
-7.9449089135
 11
-14.0669075603
 21
-8.0348249817
  0
LINE
  5
39C
100
AcDbEntity
  8
ASSI
100
AcDbLine
 62
7
  6
CONTINUOUS
 10
-15.7826083471
 20
-7.9449089135
 11
-14.0669075603
 21
-8.0348249817
  0
LINE
  5
39D
100
AcDbEntity
  8
CURVE
100
AcDbLine
 62
253
  6
CONTINUOUS
 10
-22.9847406149
 20
-10.1877662505
 11
-24.8844512357
 21
-9.1020515765
  0
LINE
  5
39E
100
AcDbEntity
  8
CURVE
100
AcDbLine
 62
253
  6
CONTINUOUS
 10
-24.8844512357
 20
-6.7949089135
 11
-24.4773703561
 21
-7.0663373555
  0
LINE
  5
39F
100
AcDbEntity
  8
CURVE
100
AcDbLine
 62
253
  6
CONTINUOUS
 10
-27.4826083471
 20
-8.3949089135
 11
-29.5027188613
 21
-4.8949089135
  0
LWPOLYLINE
  5
3A0
100
AcDbEntity
  8
CURVE
100
AcDbPolyline
 62
253
  6
CONTINUOUS
 90
11
 70
0
 10
-27.3316103752
 20
10.5983453133
 10
-27.3318624529
 20
10.6122795821
 10
-27.3320068608
 20
10.6262131321
 10
-27.3320435567
 20
10.6401449752
 10
-27.3319724982
 20
10.6540741233
 10
-27.3317936432
 20
10.6679995885
 10
-27.3315069492
 20
10.6819203825
 10
-27.331112374
 20
10.6958355174
 10
-27.3306098753
 20
10.709744005
 10
-27.3299994108
 20
10.7236448574
 10
-27.3292809382
 20
10.7375370865
  0
LINE
  5
3A1
100
AcDbEntity
  8
CURVE
100
AcDbLine
 62
253
  6
CONTINUOUS
 10
-27.4826083471
 20
-14.3949089135
 11
-27.4826083471
 21
-13.6416949135
  0
LINE
  5
3A2
100
AcDbEntity
  8
CURVE
100
AcDbLine
 62
253
  6
CONTINUOUS
 10
-27.4826083471
 20
-13.0391229135
 11
-27.4826083471
 21
-11.9846229135
  0
LINE
  5
3A3
100
AcDbEntity
  8
CURVE
100
AcDbLine
 62
253
  6
CONTINUOUS
 10
-27.4826083471
 20
-11.3949089135
 11
-27.4826083471
 21
-8.3949089135
  0
LINE
  5
3A4
100
AcDbEntity
  8
CURVE
100
AcDbLine
 62
253
  6
CONTINUOUS
 10
-27.4826083471
 20
-5.3949089135
 11
-27.4826083471
 21
-2.3949089135
  0
LINE
  5
3A5
100
AcDbEntity
  8
CURVE
100
AcDbLine
 62
253
  6
CONTINUOUS
 10
-27.4826083471
 20
-1.3949089135
 11
-27.4826083471
 21
-0.3404089135
  0
LINE
  5
3A6
100
AcDbEntity
  8
CURVE
100
AcDbLine
 62
253
  6
CONTINUOUS
 10
-25.9074941272
 20
13.2621470865
 11
-25.9074941272
 21
14.7226470865
  0
LWPOLYLINE
  5
3A7
100
AcDbEntity
  8
CURVE
100
AcDbPolyline
 62
253
  6
CONTINUOUS
 90
89
 70
0
 10
-28.0798692495
 20
15.1226500865
 10
-28.0818057621
 20
15.0315691978
 10
-28.0804800892
 20
14.9403973774
 10
-28.0758993592
 20
14.8492725792
 10
-28.0680707008
 20
14.7583327571
 10
-28.0570012425
 20
14.6677158651
 10
-28.0426981129
 20
14.5775598572
 10
-28.0251727296
 20
14.4879974751
 10
-28.0044536658
 20
14.399140612
 10
-27.980573784
 20
14.3110959489
 10
-27.9535659463
 20
14.2239701668
 10
-27.923463015
 20
14.1378699466
 10
-27.8902978526
 20
14.0529019695
 10
-27.8541071373
 20
13.9691725284
 10
-27.8149428127
 20
13.8867863651
 10
-27.7728606383
 20
13.8058478333
 10
-27.7279163737
 20
13.7264612869
 10
-27.6801657784
 20
13.6487310797
 10
-27.6296646121
 20
13.5727615654
 10
-27.5764720831
 20
13.4986544002
 10
-27.5206611956
 20
13.4265004495
 10
-27.4623084025
 20
13.3563878814
 10
-27.4014901567
 20
13.2884048637
 10
-27.3382829112
 20
13.2226395641
 10
-27.2727631188
 20
13.1591801507
 10
-27.2050100807
 20
13.098111824
 10
-27.13511449
 20
13.0395079156
 10
-27.0631698879
 20
12.9834387897
 10
-26.9892698159
 20
12.9299748105
 10
-26.9135078151
 20
12.8791863422
 10
-26.8359774269
 20
12.8311437493
 10
-26.7567743292
 20
12.7859137817
 10
-26.6760027463
 20
12.7435487333
 10
-26.5937690393
 20
12.7040972836
 10
-26.5101795694
 20
12.6676081123
 10
-26.4253406974
 20
12.634129899
 10
-26.3393587844
 20
12.6037113233
 10
-26.2523415133
 20
12.5763971073
 10
-26.1644018535
 20
12.5522161424
 10
-26.0756540963
 20
12.5311933625
 10
-25.986212533
 20
12.5133537014
 10
-25.8961914549
 20
12.4987220931
 10
-25.8057051532
 20
12.4873234712
 10
-25.7148683669
 20
12.4791786142
 10
-25.623797625
 20
12.4742916776
 10
-25.5326099043
 20
12.4726626616
 10
-25.4414221817
 20
12.4742915662
 10
-25.3503514338
 20
12.4791783915
 10
-25.2595146375
 20
12.4873231375
 10
-25.1690283219
 20
12.4987216487
 10
-25.0790072259
 20
12.5133531471
 10
-24.9895656409
 20
12.5311926989
 10
-24.900817858
 20
12.5522153703
 10
-24.8128781687
 20
12.5763962277
 10
-24.7258608642
 20
12.6037103374
 10
-24.6398789141
 20
12.634128808
 10
-24.5550400012
 20
12.6676069176
 10
-24.4714504866
 20
12.7040959868
 10
-24.3892167315
 20
12.743547336
 10
-24.3084450969
 20
12.7859122857
 10
-24.2292419439
 20
12.8311421565
 10
-24.151711497
 20
12.8791846547
 10
-24.0759494342
 20
12.9299730303
 10
-24.0020492969
 20
12.9834369192
 10
-23.9301046264
 20
13.0395059572
 10
-23.8602089641
 20
13.0981097802
 10
-23.7924558513
 20
13.1591780241
 10
-23.7269359815
 20
13.2226373575
 10
-23.6637286557
 20
13.2884025797
 10
-23.6029103268
 20
13.3563855232
 10
-23.5445574481
 20
13.42649802
 10
-23.4887464725
 20
13.4986519024
 10
-23.435553853
 20
13.5727590026
 10
-23.3850525939
 20
13.6487284552
 10
-23.3373019037
 20
13.7264586041
 10
-23.2923575421
 20
13.8058450956
 10
-23.2502752688
 20
13.8867835759
 10
-23.2111108436
 20
13.9691696913
 10
-23.1749200261
 20
14.0528990882
 10
-23.1417547598
 20
14.1378670248
 10
-23.1116517234
 20
14.2239672082
 10
-23.0846437793
 20
14.3110929573
 10
-23.0607637899
 20
14.3991375912
 10
-23.0400446177
 20
14.487994429
 10
-23.022519125
 20
14.5775567897
 10
-23.0082158853
 20
14.6677127801
 10
-22.9971463163
 20
14.7583296586
 10
-22.9893175468
 20
14.8492694711
 10
-22.9847367056
 20
14.9403942638
  0
LWPOLYLINE
  5
3A8
100
AcDbEntity
  8
CURVE
100
AcDbPolyline
 62
253
  6
CONTINUOUS
 90
89
 70
0
 10
-28.0798692495
 20
10.7375370865
 10
-28.0818056549
 20
10.6464562329
 10
-28.0804798771
 20
10.5552844515
 10
-28.0758990449
 20
10.464159696
 10
-28.068070287
 20
10.3732199202
 10
-28.0570007321
 20
10.2826030779
 10
-28.0426975089
 20
10.1924471228
 10
-28.0251720351
 20
10.1028847967
 10
-28.0044528842
 20
10.0140279925
 10
-27.9805729184
 20
9.925983391
 10
-27.9535650003
 20
9.8388576731
 10
-27.923461992
 20
9.7527575196
 10
-27.8902967561
 20
9.6677896114
 10
-27.854105971
 20
9.5840602414
 10
-27.8149415802
 20
9.5016741511
 10
-27.7728593433
 20
9.4207356942
 10
-27.7279150199
 20
9.3413492241
 10
-27.6801643697
 20
9.2636190947
 10
-27.6296631522
 20
9.1876496595
 10
-27.5764705759
 20
9.1135425744
 10
-27.5206596449
 20
9.0413887049
 10
-27.4623068122
 20
8.9712762186
 10
-27.4014885306
 20
8.9032932832
 10
-27.3382812531
 20
8.8375280665
 10
-27.2727614326
 20
8.7740687361
 10
-27.2050083701
 20
8.7130004925
 10
-27.1351127587
 20
8.654396667
 10
-27.0631681398
 20
8.5983276238
 10
-26.9892680545
 20
8.544863727
 10
-26.9135060441
 20
8.4940753405
 10
-26.8359756498
 20
8.4460328286
 10
-26.7567725495
 20
8.4008029412
 10
-26.6760009675
 20
8.3584379719
 10
-26.5937672647
 20
8.3189866002
 10
-26.5101778022
 20
8.2824975056
 10
-26.4253389408
 20
8.2490193676
 10
-26.3393570415
 20
8.2186008657
 10
-26.2523397871
 20
8.1912867218
 10
-26.1644001469
 20
8.1671058271
 10
-26.075652412
 20
8.1460831156
 10
-25.9862108738
 20
8.1282435209
 10
-25.8961898232
 20
8.1136119767
 10
-25.8057035516
 20
8.1022134169
 10
-25.7148667975
 20
8.0940686196
 10
-25.6237960901
 20
8.0891817404
 10
-25.5326084059
 20
8.0875527792
 10
-25.4414207217
 20
8.0891817362
 10
-25.3503500141
 20
8.0940686112
 10
-25.2595132596
 20
8.1022134043
 10
-25.1690269874
 20
8.11361196
 10
-25.0790059362
 20
8.1282434999
 10
-24.9895643971
 20
8.1460830905
 10
-24.9008166613
 20
8.167105798
 10
-24.81287702
 20
8.1912866885
 10
-24.7258597643
 20
8.2186008285
 10
-24.6398778636
 20
8.2490193264
 10
-24.5550390007
 20
8.2824974605
 10
-24.4714495365
 20
8.3189865513
 10
-24.3892158319
 20
8.3584379192
 10
-24.3084442479
 20
8.4008028847
 10
-24.2292411455
 20
8.4460327685
 10
-24.151710749
 20
8.4940752768
 10
-24.0759487363
 20
8.5448636597
 10
-24.0020486485
 20
8.5983275532
 10
-23.930104027
 20
8.6543965931
 10
-23.860208413
 20
8.7130004153
 10
-23.7924553476
 20
8.7740686558
 10
-23.7269355242
 20
8.8375279831
 10
-23.6637282437
 20
8.903293197
 10
-23.6029099589
 20
8.9712761295
 10
-23.544557123
 20
9.0413886131
 10
-23.4887461887
 20
9.1135424801
 10
-23.435553609
 20
9.1876495627
 10
-23.385052388
 20
9.2636189956
 10
-23.3373017341
 20
9.3413491228
 10
-23.2923574071
 20
9.4207355908
 10
-23.2502751664
 20
9.5016740458
 10
-23.2111107719
 20
9.5840601343
 10
-23.1749199829
 20
9.6677895026
 10
-23.141754743
 20
9.7527574093
 10
-23.1116517308
 20
9.8388575614
 10
-23.0846438086
 20
9.925983278
 10
-23.0607638388
 20
10.0140278784
 10
-23.0400446838
 20
10.1028846816
 10
-23.0225192059
 20
10.192447007
 10
-23.0082159786
 20
10.2826029614
 10
-22.9971464195
 20
10.3732198032
 10
-22.9893176574
 20
10.4641595786
 10
-22.9847368209
 20
10.5552843339
  0
LINE
  5
3A9
100
AcDbEntity
  8
CURVE
100
AcDbLine
 62
253
  6
CONTINUOUS
 10
-20.7654846511
 20
10.2740690865
 11
-19.7326083471
 21
11.6050910865
  0
LINE
  5
3AA
100
AcDbEntity
  8
CURVE
100
AcDbLine
 62
253
  6
CONTINUOUS
 10
-29.3820296328
 20
-0.6416949135
 11
-29.1106833064
 21
-0.3404089135
  0
LWPOLYLINE
  5
3AB
100
AcDbEntity
  8
CURVE
100
AcDbPolyline
 62
253
  6
CONTINUOUS
 90
34
 70
0
 10
-17.1762072296
 20
12.8577220865
 10
-17.1935422184
 20
12.8407775272
 10
-17.2104690593
 20
12.8233956449
 10
-17.2269766795
 20
12.8055899639
 10
-17.2430540062
 20
12.7873740085
 10
-17.2586899666
 20
12.768761303
 10
-17.2738734878
 20
12.7497653716
 10
-17.2885934972
 20
12.7303997387
 10
-17.3028389217
 20
12.7106779285
 10
-17.3165986888
 20
12.6906134653
 10
-17.3298617255
 20
12.6702198735
 10
-17.3426169591
 20
12.6495106773
 10
-17.3548542874
 20
12.6284991899
 10
-17.3665674916
 20
12.60719788
 10
-17.3777513234
 20
12.5856190052
 10
-17.3884005347
 20
12.5637748232
 10
-17.3985098771
 20
12.5416775916
 10
-17.4080741026
 20
12.5193395679
 10
-17.4170879628
 20
12.4967730099
 10
-17.4255462096
 20
12.4739901751
 10
-17.4334435948
 20
12.4510033211
 10
-17.4407748701
 20
12.4278247056
 10
-17.4475347874
 20
12.4044665862
 10
-17.4537186155
 20
12.3809420689
 10
-17.4593236916
 20
12.3572676542
 10
-17.4643478699
 20
12.3334606908
 10
-17.4687890045
 20
12.3095385274
 10
-17.4726449497
 20
12.285518513
 10
-17.4759135598
 20
12.2614179963
 10
-17.4785926889
 20
12.2372543261
 10
-17.4806801912
 20
12.2130448512
 10
-17.4821739209
 20
12.1888069204
 10
-17.4830717324
 20
12.1645578826
 10
-17.4833714797
 20
12.1403150865
  0
LINE
  5
3AC
100
AcDbEntity
  8
RACCORDO
100
AcDbLine
 62
7
  6
CONTINUOUS
 10
-6.7247547642
 20
-4.7368034911
 11
-15.7843291793
 21
-4.8949389508
  0
LINE
  5
3AD
100
AcDbEntity
  8
ASSI
100
AcDbLine
 62
7
  6
CONTINUOUS
 10
-6.7247547642
 20
-4.7368034911
 11
-15.7843291793
 21
-4.8949389508
  0
LINE
  5
3AE
100
AcDbEntity
  8
RACCORDO
100
AcDbLine
 62
253
  6
CONTINUOUS
 10
-6.7247547642
 20
-4.2868720283
 11
-16.2738821439
 21
-4.4535526667
  0
LINE
  5
3AF
100
AcDbEntity
  8
ASSI
100
AcDbLine
 62
253
  6
CONTINUOUS
 10
-6.7247547642
 20
-4.2868720283
 11
-16.2738821439
 21
-4.4535526667
  0
LINE
  5
3B0
100
AcDbEntity
  8
CURVE
100
AcDbLine
 62
253
  6
CONTINUOUS
 10
-18.9853498343
 20
-7.0238754673
 11
-20.4851213771
 21
-7.0238754673
  0
LINE
  5
3B1
100
AcDbEntity
  8
CURVE
100
AcDbLine
 62
253
  6
CONTINUOUS
 10
-28.4926636042
 20
-6.6449089135
 11
-29.9922067245
 21
-6.6449089135
  0
LINE
  5
3B2
100
AcDbEntity
  8
CURVE
100
AcDbLine
 62
253
  6
CONTINUOUS
 10
-30.4816945877
 20
-6.6449089135
 11
-31.9812377079
 21
-6.6449089135
  0
LINE
  5
3B3
100
AcDbEntity
  8
CURVE
100
AcDbLine
 62
253
  6
CONTINUOUS
 10
-18.9853498343
 20
-6.2738754673
 11
-20.4851213771
 21
-6.2738754673
  0
LINE
  5
3B4
100
AcDbEntity
  8
CURVE
100
AcDbLine
 62
253
  6
CONTINUOUS
 10
-24.341676805
 20
-6.1163373555
 11
-24.6130640204
 21
-6.1163373555
  0
LINE
  5
3B5
100
AcDbEntity
  8
0
100
AcDbLine
 62
7
  6
CONTINUOUS
 10
-15.7826083471
 20
-5.9949089135
 11
-15.5826083471
 21
-5.9949089135
  0
LINE
  5
3B6
100
AcDbEntity
  8
ASSI
100
AcDbLine
 62
7
  6
CONTINUOUS
 10
-15.7826083471
 20
-5.9949089135
 11
-15.5826083471
 21
-5.9949089135
  0
LINE
  5
3B7
100
AcDbEntity
  8
CURVE
100
AcDbLine
 62
253
  6
CONTINUOUS
 10
-24.0702895896
 20
-5.5734804715
 11
-24.8844512357
 21
-5.5734804715
  0
LINE
  5
3B8
100
AcDbEntity
  8
CURVE
100
AcDbLine
 62
253
  6
CONTINUOUS
 10
-23.2561278586
 20
-4.7591942395
 11
-23.7989023177
 21
-4.7591942395
  0
LINE
  5
3B9
100
AcDbEntity
  8
CURVE
100
AcDbLine
 62
253
  6
CONTINUOUS
 10
-18.9853498343
 20
-4.6667323036
 11
-20.4851213771
 21
-4.6667323036
  0
LINE
  5
3BA
100
AcDbEntity
  8
RACCORDO
100
AcDbLine
 62
7
  6
CONTINUOUS
 10
-40.432559695
 20
-4.399273529
 11
-40.1024861069
 21
-4.4050349849
  0
LINE
  5
3BB
100
AcDbEntity
  8
DRAFT
100
AcDbLine
 62
7
  6
CONTINUOUS
 10
-40.4416995062
 20
-1.356953972
 11
-40.7027553746
 21
-1.3109227789
  0
LINE
  5
3BC
100
AcDbEntity
  8
CURVE
100
AcDbLine
 62
253
  6
CONTINUOUS
 10
-24.341676805
 20
-4.2163373555
 11
-24.6130640204
 21
-4.0806235875
  0
LINE
  5
3BD
100
AcDbEntity
  8
CURVE
100
AcDbLine
 62
253
  6
CONTINUOUS
 10
-22.9847406149
 20
-7.0663373555
 11
-24.341676805
 21
-6.1163373555
  0
LINE
  5
3BE
100
AcDbEntity
  8
CURVE
100
AcDbLine
 62
253
  6
CONTINUOUS
 10
-28.9750106431
 20
-1.3949089135
 11
-29.3820296328
 21
-1.0936229135
  0
LINE
  5
3BF
100
AcDbEntity
  8
CURVE
100
AcDbLine
 62
253
  6
CONTINUOUS
 10
-28.8393379797
 20
-0.3404089135
 11
-27.4826083471
 21
-1.3949089135
  0
LINE
  5
3C0
100
AcDbEntity
  8
CURVE
100
AcDbLine
 62
253
  6
CONTINUOUS
 10
-19.1996029214
 20
-10.8453041239
 11
-18.9853498343
 21
-11.059589736
  0
LINE
  5
3C1
100
AcDbEntity
  8
CURVE
100
AcDbLine
 62
253
  6
CONTINUOUS
 10
-24.6130640204
 20
-4.0806235875
 11
-24.8844512357
 21
-3.8091942395
  0
LINE
  5
3C2
100
AcDbEntity
  8
CURVE
100
AcDbLine
 62
253
  6
CONTINUOUS
 10
-22.9847406149
 20
-5.0306235875
 11
-23.2561278586
 21
-4.7591942395
  0
LWPOLYLINE
  5
3C3
100
AcDbEntity
  8
RACCORDO
100
AcDbPolyline
 62
253
  6
CONTINUOUS
 90
5
 70
0
 10
-28.9915553147
 20
21.7354269966
 10
-28.9913467492
 20
21.7340004839
 10
-28.9911891601
 20
21.7297381131
 10
-28.9910835439
 20
21.7226668349
 10
-28.9910305683
 20
21.7128313603
  0
LWPOLYLINE
  5
3C4
100
AcDbEntity
  8
ASSI
100
AcDbPolyline
 62
253
  6
CONTINUOUS
 90
5
 70
0
 10
-28.9915553147
 20
21.7354269966
 10
-28.9913467492
 20
21.7340004839
 10
-28.9911891601
 20
21.7297381131
 10
-28.9910835439
 20
21.7226668349
 10
-28.9910305683
 20
21.7128313603
  0
LWPOLYLINE
  5
3C5
100
AcDbEntity
  8
CURVE
100
AcDbPolyline
 62
253
  6
CONTINUOUS
 90
46
 70
0
 10
-23.7359389574
 20
15.1226498526
 10
-23.7336960109
 20
15.0661911832
 10
-23.733237112
 20
15.0096270327
 10
-23.7345579192
 20
14.9530236749
 10
-23.7376540909
 20
14.8964473835
 10
-23.7425212854
 20
14.8399644324
 10
-23.7491551611
 20
14.7836410952
 10
-23.7575513766
 20
14.7275436458
 10
-23.7677055901
 20
14.6717383579
 10
-23.7796134601
 20
14.6162915054
 10
-23.7932679874
 20
14.5612666118
 10
-23.8086515426
 20
14.5067162004
 10
-23.8257438386
 20
14.4526900445
 10
-23.8445245884
 20
14.3992379171
 10
-23.864973505
 20
14.3464095913
 10
-23.8870703014
 20
14.2942548405
 10
-23.9107946906
 20
14.2428234376
 10
-23.9361263855
 20
14.1921651559
 10
-23.9630450991
 20
14.1423297685
 10
-23.9915281134
 20
14.0933663587
 10
-24.0215429866
 20
14.0453212499
 10
-24.0530548458
 20
13.9982400757
 10
-24.0860288181
 20
13.9521684698
 10
-24.1204300307
 20
13.9071520656
 10
-24.1562236107
 20
13.8632364968
 10
-24.1933746853
 20
13.820467397
 10
-24.2318483816
 20
13.7788903997
 10
-24.2716098268
 20
13.7385511385
 10
-24.3126228447
 20
13.6994930814
 10
-24.3548460458
 20
13.6617510344
 10
-24.3982367374
 20
13.6253576378
 10
-24.4427522265
 20
13.5903455321
 10
-24.4883498203
 20
13.5567473575
 10
-24.5349868262
 20
13.5245957545
 10
-24.5826205512
 20
13.4939233635
 10
-24.6312083026
 20
13.4647628248
 10
-24.6807073875
 20
13.4371467788
 10
-24.731071763
 20
13.4111060221
 10
-24.7822419854
 20
13.3866639761
 10
-24.8341552607
 20
13.3638422188
 10
-24.8867487951
 20
13.3426623277
 10
-24.9399597946
 20
13.3231458805
 10
-24.9937254655
 20
13.3053144551
 10
-25.0479830138
 20
13.2891896292
 10
-25.1026696456
 20
13.2747929804
 10
-25.1577225671
 20
13.2621460865
  0
LWPOLYLINE
  5
3C6
100
AcDbEntity
  8
CURVE
100
AcDbPolyline
 62
253
  6
CONTINUOUS
 90
83
 70
0
 10
-23.7359357499
 20
10.7375369755
 10
-23.7334230492
 20
10.6679994774
 10
-23.7336063215
 20
10.5983452023
 10
-23.7364802799
 20
10.5286976584
 10
-23.7420396375
 20
10.4591803538
 10
-23.7502791077
 20
10.3899167969
 10
-23.7611934036
 20
10.3210304956
 10
-23.7747730327
 20
10.2526402426
 10
-23.7909916795
 20
10.1848459674
 10
-23.8098188229
 20
10.1177428839
 10
-23.8312239419
 20
10.0514262062
 10
-23.8551765152
 20
9.9859911481
 10
-23.8816460218
 20
9.9215329236
 10
-23.910598288
 20
9.8581462096
 10
-23.9419845303
 20
9.7959235349
 10
-23.9757523127
 20
9.734956891
 10
-24.0118491992
 20
9.6753382698
 10
-24.0502227536
 20
9.6171596628
 10
-24.0908205401
 20
9.5605130619
 10
-24.1335868648
 20
9.5054877494
 10
-24.1784530024
 20
9.4521621715
 10
-24.2253469701
 20
9.4006120647
 10
-24.2741967848
 20
9.350913166
 10
-24.3249304635
 20
9.3031412119
 10
-24.3774760234
 20
9.2573719394
 10
-24.4317588883
 20
9.2136780589
 10
-24.4876941102
 20
9.172120176
 10
-24.5451941482
 20
9.1327558703
 10
-24.604171461
 20
9.0956427212
 10
-24.6645385078
 20
9.0608383081
 10
-24.7262077473
 20
9.0284002104
 10
-24.7890898243
 20
8.9983823688
 10
-24.8530881261
 20
8.9708241683
 10
-24.9181042256
 20
8.9457613551
 10
-24.984039696
 20
8.9232296757
 10
-25.0507961103
 20
8.9032648761
 10
-25.1182750414
 20
8.8859027027
 10
-25.186377131
 20
8.8711749691
 10
-25.2549992955
 20
8.8590977587
 10
-25.32403752
 20
8.849683222
 10
-25.3933877893
 20
8.8429435099
 10
-25.4629460885
 20
8.8388907729
 10
-25.5326084027
 20
8.8375371619
 10
-25.6022707167
 20
8.8388907772
 10
-25.6718290157
 20
8.8429435185
 10
-25.7411792846
 20
8.8496832349
 10
-25.8102175085
 20
8.8590977758
 10
-25.8788396723
 20
8.8711749905
 10
-25.946941761
 20
8.8859027283
 10
-26.014420691
 20
8.9032649059
 10
-26.081177104
 20
8.9232297095
 10
-26.147112573
 20
8.9457613931
 10
-26.212128671
 20
8.9708242102
 10
-26.2761269711
 20
8.9983824147
 10
-26.3390090463
 20
9.0284002602
 10
-26.4006782838
 20
9.0608383617
 10
-26.4610453284
 20
9.0956427785
 10
-26.520022639
 20
9.1327559313
 10
-26.5775226745
 20
9.1721202406
 10
-26.6334578939
 20
9.2136781268
 10
-26.6877407561
 20
9.2573720107
 10
-26.7402863131
 20
9.3031412865
 10
-26.7910199889
 20
9.3509132437
 10
-26.8398698005
 20
9.4006121455
 10
-26.886763765
 20
9.4521622551
 10
-26.9316298994
 20
9.5054878358
 10
-26.9743962206
 20
9.5605131509
 10
-27.0149940036
 20
9.6171597543
 10
-27.0533675545
 20
9.6753383637
 10
-27.0894644373
 20
9.7349569871
 10
-27.1232322159
 20
9.7959236331
 10
-27.1546184544
 20
9.8581463098
 10
-27.1835707167
 20
9.9215330256
 10
-27.2100402193
 20
9.9859912517
 10
-27.2339927886
 20
10.0514263113
 10
-27.2553979034
 20
10.1177429903
 10
-27.2742250427
 20
10.1848460749
 10
-27.2904436854
 20
10.2526403511
 10
-27.3040233102
 20
10.321030605
 10
-27.3149376018
 20
10.3899169069
 10
-27.3231770677
 20
10.4591804644
 10
-27.3287364211
 20
10.5286977693
 10
-27.3316103752
 20
10.5983453133
  0
LINE
  5
3C7
100
AcDbEntity
  8
CURVE
100
AcDbLine
 62
253
  6
CONTINUOUS
 10
-25.1577225671
 20
14.7226470865
 11
-25.1577225671
 21
13.2621470865
  0
LINE
  5
3C8
100
AcDbEntity
  8
CURVE
100
AcDbLine
 62
253
  6
CONTINUOUS
 10
-24.8844512357
 20
-6.3877657975
 11
-24.8844512357
 21
-6.7949089135
  0
LINE
  5
3C9
100
AcDbEntity
  8
CURVE
100
AcDbLine
 62
253
  6
CONTINUOUS
 10
-24.8844512357
 20
-5.5734804715
 11
-24.8844512357
 21
-4.7591942395
  0
LINE
  5
3CA
100
AcDbEntity
  8
CURVE
100
AcDbLine
 62
253
  6
CONTINUOUS
 10
-24.8844512357
 20
-3.8091942395
 11
-24.8844512357
 21
-3.6734804715
  0
LINE
  5
3CB
100
AcDbEntity
  8
CURVE
100
AcDbLine
 62
253
  6
CONTINUOUS
 10
-24.0702895896
 20
-5.0306235875
 11
-24.0702895896
 21
-5.5734804715
  0
LINE
  5
3CC
100
AcDbEntity
  8
CURVE
100
AcDbLine
 62
253
  6
CONTINUOUS
 10
-24.0702895896
 20
-12.6306232478
 11
-24.0702895896
 21
-13.2187183942
  0
LINE
  5
3CD
100
AcDbEntity
  8
CURVE
100
AcDbLine
 62
253
  6
CONTINUOUS
 10
-23.5275151023
 20
-11.6353852119
 11
-23.5275151023
 21
-10.9115755047
  0
LWPOLYLINE
  5
3CE
100
AcDbEntity
  8
CURVE
100
AcDbPolyline
 62
253
  6
CONTINUOUS
 90
11
 70
0
 10
-22.9847367056
 20
14.9403942638
 10
-22.984210916
 20
14.9586292799
 10
-22.9838153858
 20
14.9768650735
 10
-22.9835501719
 20
14.9951005409
 10
-22.9834153314
 20
15.0133345785
 10
-22.9834109213
 20
15.0315660825
 10
-22.9835369986
 20
15.0497939495
 10
-22.9837936203
 20
15.0680170757
 10
-22.9841808436
 20
15.0862343575
 10
-22.9846987253
 20
15.1044446913
 10
-22.9853473226
 20
15.1226469735
  0
LWPOLYLINE
  5
3CF
100
AcDbEntity
  8
CURVE
100
AcDbPolyline
 62
253
  6
CONTINUOUS
 90
11
 70
0
 10
-22.9847368209
 20
10.5552843339
 10
-22.9842110321
 20
10.5735193426
 10
-22.9838155024
 20
10.5917551288
 10
-22.983550289
 20
10.6099905887
 10
-22.9834154488
 20
10.6282246187
 10
-22.983411039
 20
10.6464561153
 10
-22.9835371164
 20
10.6646839748
 10
-22.9837937383
 20
10.6829070935
 10
-22.9841809615
 20
10.7011243678
 10
-22.9846988431
 20
10.7193346942
 10
-22.9853474402
 20
10.7375369689
  0
LWPOLYLINE
  5
3D0
100
AcDbEntity
  8
CURVE
100
AcDbPolyline
 62
253
  6
CONTINUOUS
 90
49
 70
0
 10
-18.4483157862
 20
10.5148202067
 10
-18.4835653797
 20
10.474595667
 10
-18.5201156122
 20
10.4354775648
 10
-18.5579199586
 20
10.3975100919
 10
-18.5969318937
 20
10.3607374401
 10
-18.6371048922
 20
10.3252038016
 10
-18.6783924291
 20
10.290953368
 10
-18.7207479792
 20
10.2580303314
 10
-18.7641250173
 20
10.2264788836
 10
-18.8084770307
 20
10.1963397412
 10
-18.8537575565
 20
10.1676397191
 10
-18.8999201445
 20
10.1404021567
 10
-18.9469183442
 20
10.1146503937
 10
-18.9947057052
 20
10.0904077696
 10
-19.0432357772
 20
10.067697624
 10
-19.0924621098
 20
10.0465432962
 10
-19.1423382527
 20
10.026968126
 10
-19.1928166204
 20
10.0089937462
 10
-19.2438450877
 20
9.9926349628
 10
-19.2953703944
 20
9.9779048756
 10
-19.3473392801
 20
9.964816584
 10
-19.3996984846
 20
9.9533831876
 10
-19.4523947476
 20
9.9436177858
 10
-19.5053748089
 20
9.9355334782
 10
-19.5585854081
 20
9.9291433644
 10
-19.611973026
 20
9.9244580488
 10
-19.6654831069
 20
9.9214781558
 10
-19.7190608362
 20
9.9202018148
 10
-19.772651399
 20
9.920627155
 10
-19.8261999807
 20
9.9227523058
 10
-19.8796517667
 20
9.9265753966
 10
-19.9329519421
 20
9.9320945566
 10
-19.9860456923
 20
9.9393079152
 10
-20.0388789626
 20
9.9482116982
 10
-20.091400739
 20
9.958794517
 10
-20.1435607675
 20
9.9710430796
 10
-20.1953087938
 20
9.984944094
 10
-20.2465945642
 20
10.0004842681
 10
-20.2973678244
 20
10.0176503098
 10
-20.3475783205
 20
10.0364289271
 10
-20.3971757984
 20
10.0568068278
 10
-20.4461092779
 20
10.0787673214
 10
-20.4943248737
 20
10.1022801224
 10
-20.5417679744
 20
10.1273115471
 10
-20.5883839686
 20
10.1538279113
 10
-20.6341182449
 20
10.1817955314
 10
-20.6789161916
 20
10.2111807232
 10
-20.7227231975
 20
10.2419498028
 10
-20.7654846511
 20
10.2740690865
  0
LINE
  5
3D1
100
AcDbEntity
  8
DRAFT
100
AcDbLine
 62
7
  6
CONTINUOUS
 10
-6.2826083471
 20
-2.1449089135
 11
-4.5669075603
 21
-2.0549928454
  0
LINE
  5
3D2
100
AcDbEntity
  8
ASSI
100
AcDbLine
 62
7
  6
CONTINUOUS
 10
-6.2826083471
 20
-2.1449089135
 11
-4.5669075603
 21
-2.0549928454
  0
LINE
  5
3D3
100
AcDbEntity
  8
RACCORDO
100
AcDbLine
 62
253
  6
CONTINUOUS
 10
-6.2826083471
 20
-4.2868720283
 11
-6.7247547642
 21
-4.2868720283
  0
LINE
  5
3D4
100
AcDbEntity
  8
ASSI
100
AcDbLine
 62
253
  6
CONTINUOUS
 10
-6.2826083471
 20
-4.2868720283
 11
-6.7247547642
 21
-4.2868720283
  0
LINE
  5
3D5
100
AcDbEntity
  8
CURVE
100
AcDbLine
 62
253
  6
CONTINUOUS
 10
-23.5275151023
 20
-4.2163373555
 11
-24.341676805
 21
-4.2163373555
  0
LINE
  5
3D6
100
AcDbEntity
  8
CURVE
100
AcDbLine
 62
253
  6
CONTINUOUS
 10
-20.2708683123
 20
-3.9167323036
 11
-19.8423621828
 21
-3.9167323036
  0
LINE
  5
3D7
100
AcDbEntity
  8
0
100
AcDbLine
 62
7
  6
CONTINUOUS
 10
-6.2826083471
 20
-3.8949089135
 11
-6.0826083471
 21
-3.8949089135
  0
LINE
  5
3D8
100
AcDbEntity
  8
ASSI
100
AcDbLine
 62
7
  6
CONTINUOUS
 10
-6.2826083471
 20
-3.8949089135
 11
-6.0826083471
 21
-3.8949089135
  0
LINE
  5
3D9
100
AcDbEntity
  8
0
100
AcDbLine
 62
7
  6
CONTINUOUS
 10
-6.2826083471
 20
-3.8629940237
 11
-6.0826083471
 21
-3.8629940237
  0
LINE
  5
3DA
100
AcDbEntity
  8
ASSI
100
AcDbLine
 62
7
  6
CONTINUOUS
 10
-6.2826083471
 20
-3.8629940237
 11
-6.0826083471
 21
-3.8629940237
  0
LINE
  5
3DB
100
AcDbEntity
  8
0
100
AcDbLine
 62
7
  6
CONTINUOUS
 10
-6.2826083471
 20
-3.7991642441
 11
-6.0826083471
 21
-3.7991642441
  0
LINE
  5
3DC
100
AcDbEntity
  8
ASSI
100
AcDbLine
 62
7
  6
CONTINUOUS
 10
-6.2826083471
 20
-3.7991642441
 11
-6.0826083471
 21
-3.7991642441
  0
LINE
  5
3DD
100
AcDbEntity
  8
0
100
AcDbLine
 62
7
  6
CONTINUOUS
 10
-6.2826083471
 20
-3.6715046849
 11
-6.0826083471
 21
-3.6715046849
  0
LINE
  5
3DE
100
AcDbEntity
  8
ASSI
100
AcDbLine
 62
7
  6
CONTINUOUS
 10
-6.2826083471
 20
-3.6715046849
 11
-6.0826083471
 21
-3.6715046849
  0
LINE
  5
3DF
100
AcDbEntity
  8
0
100
AcDbLine
 62
7
  6
CONTINUOUS
 10
-6.2826083471
 20
-3.5438451256
 11
-6.0826083471
 21
-3.5438451256
  0
LINE
  5
3E0
100
AcDbEntity
  8
ASSI
100
AcDbLine
 62
7
  6
CONTINUOUS
 10
-6.2826083471
 20
-3.5438451256
 11
-6.0826083471
 21
-3.5438451256
  0
LINE
  5
3E1
100
AcDbEntity
  8
CURVE
100
AcDbLine
 62
253
  6
CONTINUOUS
 10
-19.1996029214
 20
-3.4881610794
 11
-20.2708683123
 21
-3.4881610794
  0
LINE
  5
3E2
100
AcDbEntity
  8
0
100
AcDbLine
 62
7
  6
CONTINUOUS
 10
-6.2826083471
 20
-3.4800152566
 11
-6.0826083471
 21
-3.4800152566
  0
LINE
  5
3E3
100
AcDbEntity
  8
ASSI
100
AcDbLine
 62
7
  6
CONTINUOUS
 10
-6.2826083471
 20
-3.4800152566
 11
-6.0826083471
 21
-3.4800152566
  0
LINE
  5
3E4
100
AcDbEntity
  8
0
100
AcDbLine
 62
7
  6
CONTINUOUS
 10
-6.2826083471
 20
-3.3523556973
 11
-6.0826083471
 21
-3.3523556973
  0
LINE
  5
3E5
100
AcDbEntity
  8
ASSI
100
AcDbLine
 62
7
  6
CONTINUOUS
 10
-6.2826083471
 20
-3.3523556973
 11
-6.0826083471
 21
-3.3523556973
  0
LINE
  5
3E6
100
AcDbEntity
  8
CURVE
100
AcDbLine
 62
253
  6
CONTINUOUS
 10
-24.341676805
 20
-3.2663373555
 11
-23.5275151023
 21
-3.2663373555
  0
LINE
  5
3E7
100
AcDbEntity
  8
0
100
AcDbLine
 62
7
  6
CONTINUOUS
 10
-6.2826083471
 20
-3.2566110279
 11
-6.0826083471
 21
-3.2566110279
  0
LINE
  5
3E8
100
AcDbEntity
  8
ASSI
100
AcDbLine
 62
7
  6
CONTINUOUS
 10
-6.2826083471
 20
-3.2566110279
 11
-6.0826083471
 21
-3.2566110279
  0
LINE
  5
3E9
100
AcDbEntity
  8
CURVE
100
AcDbLine
 62
253
  6
CONTINUOUS
 10
-20.2708683123
 20
-2.7381610794
 11
-19.1996029214
 21
-2.7381610794
  0
LINE
  5
3EA
100
AcDbEntity
  8
0
100
AcDbLine
 62
7
  6
CONTINUOUS
 10
-6.2826083471
 20
-2.554483385
 11
-6.0826083471
 21
-2.554483385
  0
LINE
  5
3EB
100
AcDbEntity
  8
ASSI
100
AcDbLine
 62
7
  6
CONTINUOUS
 10
-6.2826083471
 20
-2.554483385
 11
-6.0826083471
 21
-2.554483385
  0
LINE
  5
3EC
100
AcDbEntity
  8
0
100
AcDbLine
 62
7
  6
CONTINUOUS
 10
-6.2826083471
 20
-2.3949089135
 11
-6.0826083471
 21
-2.3949089135
  0
LINE
  5
3ED
100
AcDbEntity
  8
ASSI
100
AcDbLine
 62
7
  6
CONTINUOUS
 10
-6.2826083471
 20
-2.3949089135
 11
-6.0826083471
 21
-2.3949089135
  0
LINE
  5
3EE
100
AcDbEntity
  8
CURVE
100
AcDbLine
 62
253
  6
CONTINUOUS
 10
-18.9853498343
 20
-2.3095898552
 11
-20.4851213771
 21
-2.3095898552
  0
LINE
  5
3EF
100
AcDbEntity
  8
RACCORDO
100
AcDbLine
 62
253
  6
CONTINUOUS
 10
-40.4544619771
 20
-4.1489292995
 11
-40.0981243342
 21
-4.1551491962
  0
LWPOLYLINE
  5
3F0
100
AcDbEntity
  8
RACCORDO
100
AcDbPolyline
 62
253
  6
CONTINUOUS
 90
4
 70
0
 10
-40.6601628364
 20
0.7878951016
 10
-40.6564867002
 20
0.7873517036
 10
-40.6455452821
 20
0.7859189761
 10
-40.6033735592
 20
0.7805810186
  0
LINE
  5
3F1
100
AcDbEntity
  8
CURVE
100
AcDbLine
 62
253
  6
CONTINUOUS
 10
-22.9847406149
 20
-2.1806235875
 11
-24.8844512357
 21
-1.6377657975
  0
LWPOLYLINE
  5
3F2
100
AcDbEntity
  8
RACCORDO
100
AcDbPolyline
 62
7
  6
CONTINUOUS
 90
10
 70
0
 10
-15.7843291793
 20
-4.8949389508
 10
-15.7876221553
 20
-4.8939923539
 10
-15.7930268661
 20
-4.8910153166
 10
-15.8005473544
 20
-4.8859258509
 10
-15.8101801265
 20
-4.8786325832
 10
-15.8219370564
 20
-4.8690849282
 10
-15.8358442339
 20
-4.8573230109
 10
-15.8519966265
 20
-4.8433589753
 10
-15.870304842
 20
-4.8272143432
 10
-15.8905160439
 20
-4.809047136
  0
LWPOLYLINE
  5
3F3
100
AcDbEntity
  8
ASSI
100
AcDbPolyline
 62
7
  6
CONTINUOUS
 90
10
 70
0
 10
-15.7843291793
 20
-4.8949389508
 10
-15.7876221553
 20
-4.8939923539
 10
-15.7930268661
 20
-4.8910153166
 10
-15.8005473544
 20
-4.8859258509
 10
-15.8101801265
 20
-4.8786325832
 10
-15.8219370564
 20
-4.8690849282
 10
-15.8358442339
 20
-4.8573230109
 10
-15.8519966265
 20
-4.8433589753
 10
-15.870304842
 20
-4.8272143432
 10
-15.8905160439
 20
-4.809047136
  0
LINE
  5
3F4
100
AcDbEntity
  8
CURVE
100
AcDbLine
 62
253
  6
CONTINUOUS
 10
-23.5275151023
 20
-3.2663373555
 11
-23.2561278586
 21
-3.4020520295
  0
LINE
  5
3F5
100
AcDbEntity
  8
CURVE
100
AcDbLine
 62
253
  6
CONTINUOUS
 10
-23.2561278586
 20
-3.4020520295
 11
-22.9847406149
 21
-3.6734804715
  0
LINE
  5
3F6
100
AcDbEntity
  8
CURVE
100
AcDbLine
 62
253
  6
CONTINUOUS
 10
-19.8423621828
 20
-3.9167323036
 11
-19.6281090733
 21
-4.1310179157
  0
LINE
  5
3F7
100
AcDbEntity
  8
CURVE
100
AcDbLine
 62
253
  6
CONTINUOUS
 10
-20.2708683123
 20
-3.4881610794
 11
-20.4851213771
 21
-3.2738754673
  0
LINE
  5
3F8
100
AcDbEntity
  8
CURVE
100
AcDbLine
 62
253
  6
CONTINUOUS
 10
-23.5727463049
 20
-1.0949089135
 11
-23.7084399125
 21
-0.7782425489
  0
LINE
  5
3F9
100
AcDbEntity
  8
CURVE
100
AcDbLine
 62
253
  6
CONTINUOUS
 10
-23.4370526689
 20
-0.4163373555
 11
-23.5727463049
 21
-0.0544330682
  0
LINE
  5
3FA
100
AcDbEntity
  8
CURVE
100
AcDbLine
 62
253
  6
CONTINUOUS
 10
-22.9847406149
 20
-3.6734804715
 11
-22.9847406149
 21
-3.8091942395
  0
LINE
  5
3FB
100
AcDbEntity
  8
CURVE
100
AcDbLine
 62
253
  6
CONTINUOUS
 10
-22.9847406149
 20
-6.1163373555
 11
-22.9847406149
 21
-7.0663373555
  0
LINE
  5
3FC
100
AcDbEntity
  8
CURVE
100
AcDbLine
 62
253
  6
CONTINUOUS
 10
-22.9847406149
 20
-13.037766024
 11
-22.9847406149
 21
-12.6306232478
  0
LINE
  5
3FD
100
AcDbEntity
  8
CURVE
100
AcDbLine
 62
253
  6
CONTINUOUS
 10
-22.9847406149
 20
-5.5734804715
 11
-22.9847406149
 21
-5.0306235875
  0
LINE
  5
3FE
100
AcDbEntity
  8
CURVE
100
AcDbLine
 62
253
  6
CONTINUOUS
 10
-21.3675162246
 20
11.3573020865
 11
-21.3675162246
 21
11.8528800865
  0
LINE
  5
3FF
100
AcDbEntity
  8
CURVE
100
AcDbLine
 62
253
  6
CONTINUOUS
 10
-20.4851213771
 20
-11.5953039451
 11
-20.4851213771
 21
-11.059589736
  0
LINE
  5
400
100
AcDbEntity
  8
CURVE
100
AcDbLine
 62
253
  6
CONTINUOUS
 10
-20.4851213771
 20
-10.2381610794
 11
-20.4851213771
 21
-9.5953038855
  0
LINE
  5
401
100
AcDbEntity
  8
CURVE
100
AcDbLine
 62
253
  6
CONTINUOUS
 10
-20.4851213771
 20
-4.6667323036
 11
-20.4851213771
 21
-4.1310179157
  0
LINE
  5
402
100
AcDbEntity
  8
CURVE
100
AcDbLine
 62
253
  6
CONTINUOUS
 10
-20.4851213771
 20
-3.2738754673
 11
-20.4851213771
 21
-2.9524466915
  0
LINE
  5
403
100
AcDbEntity
  8
CURVE
100
AcDbLine
 62
253
  6
CONTINUOUS
 10
-23.7084399125
 20
-0.7782425489
 11
-23.4370526689
 21
-0.4163373555
  0
LINE
  5
404
100
AcDbEntity
  8
CURVE
100
AcDbLine
 62
253
  6
CONTINUOUS
 10
-24.8844512357
 20
-3.6734804715
 11
-24.6130640204
 21
-3.4020520295
  0
LWPOLYLINE
  5
405
100
AcDbEntity
  8
RACCORDO
100
AcDbPolyline
 62
7
  6
CONTINUOUS
 90
3
 70
0
 10
-15.9527492467
 20
7.431774651
 10
-16.0041189838
 20
7.3808072731
 10
-16.0308039058
 20
7.3542274314
  0
LWPOLYLINE
  5
406
100
AcDbEntity
  8
ASSI
100
AcDbPolyline
 62
7
  6
CONTINUOUS
 90
3
 70
0
 10
-15.9527492467
 20
7.431774651
 10
-16.0041189838
 20
7.3808072731
 10
-16.0308039058
 20
7.3542274314
  0
LINE
  5
407
100
AcDbEntity
  8
RACCORDO
100
AcDbLine
 62
7
  6
CONTINUOUS
 10
-16.1972123523
 20
7.1901631825
 11
-16.2247547642
 21
7.1628773181
  0
LINE
  5
408
100
AcDbEntity
  8
ASSI
100
AcDbLine
 62
7
  6
CONTINUOUS
 10
-16.1972123523
 20
7.1901631825
 11
-16.2247547642
 21
7.1628773181
  0
LWPOLYLINE
  5
409
100
AcDbEntity
  8
RACCORDO
100
AcDbPolyline
 62
7
  6
CONTINUOUS
 90
5
 70
0
 10
-16.0308039058
 20
7.3542274314
 10
-16.0856445782
 20
7.3000416915
 10
-16.1134970906
 20
7.2724357933
 10
-16.14146002
 20
7.244877387
 10
-16.1972123523
 20
7.1901631825
  0
LWPOLYLINE
  5
40A
100
AcDbEntity
  8
ASSI
100
AcDbPolyline
 62
7
  6
CONTINUOUS
 90
5
 70
0
 10
-16.0308039058
 20
7.3542274314
 10
-16.0856445782
 20
7.3000416915
 10
-16.1134970906
 20
7.2724357933
 10
-16.14146002
 20
7.244877387
 10
-16.1972123523
 20
7.1901631825
  0
LINE
  5
40B
100
AcDbEntity
  8
CURVE
100
AcDbLine
 62
253
  6
CONTINUOUS
 10
-20.4851213771
 20
0.2618382053
 11
-18.9853498343
 21
1.0118382053
  0
LINE
  5
40C
100
AcDbEntity
  8
CURVE
100
AcDbLine
 62
253
  6
CONTINUOUS
 10
-20.4851213771
 20
2.8332669811
 11
-18.9853498343
 21
3.2618382053
  0
LINE
  5
40D
100
AcDbEntity
  8
CURVE
100
AcDbLine
 62
253
  6
CONTINUOUS
 10
-20.4851213771
 20
-1.4524466915
 11
-18.9853498343
 21
-1.4524466915
  0
LINE
  5
40E
100
AcDbEntity
  8
CURVE
100
AcDbLine
 62
253
  6
CONTINUOUS
 10
-31.9812377079
 20
-0.7923379135
 11
-33.8806589936
 21
-0.7923379135
  0
LINE
  5
40F
100
AcDbEntity
  8
CURVE
100
AcDbLine
 62
253
  6
CONTINUOUS
 10
-29.1106833064
 20
-0.3404089135
 11
-28.8393379797
 21
-0.3404089135
  0
LINE
  5
410
100
AcDbEntity
  8
CURVE
100
AcDbLine
 62
253
  6
CONTINUOUS
 10
-18.9853498343
 20
0.2618382053
 11
-20.4851213771
 21
0.2618382053
  0
LINE
  5
411
100
AcDbEntity
  8
RACCORDO
100
AcDbLine
 62
253
  6
CONTINUOUS
 10
-4.2826083471
 20
0.6050910865
 11
-6.2826083471
 21
0.6050910865
  0
LINE
  5
412
100
AcDbEntity
  8
ASSI
100
AcDbLine
 62
253
  6
CONTINUOUS
 10
-4.2826083471
 20
0.6050910865
 11
-6.2826083471
 21
0.6050910865
  0
LINE
  5
413
100
AcDbEntity
  8
RACCORDO
100
AcDbLine
 62
253
  6
CONTINUOUS
 10
-40.6033735592
 20
0.7805810186
 11
-40.4163894001
 21
0.7574277657
  0
LINE
  5
414
100
AcDbEntity
  8
CURVE
100
AcDbLine
 62
253
  6
CONTINUOUS
 10
-18.9853498343
 20
-1.0238754673
 11
-20.4851213771
 21
-0.5953042431
  0
LINE
  5
415
100
AcDbEntity
  8
CURVE
100
AcDbLine
 62
253
  6
CONTINUOUS
 10
-19.6281090733
 20
-1.8810179157
 11
-20.4851213771
 21
-1.4524466915
  0
LWPOLYLINE
  5
416
100
AcDbEntity
  8
RACCORDO
100
AcDbPolyline
 62
7
  6
CONTINUOUS
 90
3
 70
0
 10
-15.8905160439
 20
-4.809047136
 10
-15.9365623703
 20
-4.767202515
 10
-15.9623203781
 20
-4.7435138516
  0
LWPOLYLINE
  5
417
100
AcDbEntity
  8
ASSI
100
AcDbPolyline
 62
7
  6
CONTINUOUS
 90
3
 70
0
 10
-15.8905160439
 20
-4.809047136
 10
-15.9365623703
 20
-4.767202515
 10
-15.9623203781
 20
-4.7435138516
  0
LINE
  5
418
100
AcDbEntity
  8
RACCORDO
100
AcDbLine
 62
7
  6
CONTINUOUS
 10
-15.9623203781
 20
-4.7435138516
 11
-16.0190513442
 21
-4.6910793826
  0
LINE
  5
419
100
AcDbEntity
  8
ASSI
100
AcDbLine
 62
7
  6
CONTINUOUS
 10
-15.9623203781
 20
-4.7435138516
 11
-16.0190513442
 21
-4.6910793826
  0
LINE
  5
41A
100
AcDbEntity
  8
RACCORDO
100
AcDbLine
 62
7
  6
CONTINUOUS
 10
-16.0190513442
 20
-4.6910793826
 11
-16.1183108997
 21
-4.5987505764
  0
LINE
  5
41B
100
AcDbEntity
  8
ASSI
100
AcDbLine
 62
7
  6
CONTINUOUS
 10
-16.0190513442
 20
-4.6910793826
 11
-16.1183108997
 21
-4.5987505764
  0
LWPOLYLINE
  5
41C
100
AcDbEntity
  8
RACCORDO
100
AcDbPolyline
 62
7
  6
CONTINUOUS
 90
5
 70
0
 10
-16.1183108997
 20
-4.5987505764
 10
-16.1548981288
 20
-4.564530841
 10
-16.1929732276
 20
-4.5287583436
 10
-16.2326346061
 20
-4.4916841793
 10
-16.2738821439
 20
-4.4535526667
  0
LWPOLYLINE
  5
41D
100
AcDbEntity
  8
ASSI
100
AcDbPolyline
 62
7
  6
CONTINUOUS
 90
5
 70
0
 10
-16.1183108997
 20
-4.5987505764
 10
-16.1548981288
 20
-4.564530841
 10
-16.1929732276
 20
-4.5287583436
 10
-16.2326346061
 20
-4.4916841793
 10
-16.2738821439
 20
-4.4535526667
  0
LINE
  5
41E
100
AcDbEntity
  8
CURVE
100
AcDbLine
 62
253
  6
CONTINUOUS
 10
-19.1996029214
 20
-2.7381610794
 11
-18.9853498343
 21
-2.9524466915
  0
LINE
  5
41F
100
AcDbEntity
  8
CURVE
100
AcDbLine
 62
253
  6
CONTINUOUS
 10
-30.6121501913
 20
9.1408053782
 11
-30.8835374067
 21
9.4122339476
  0
LINE
  5
420
100
AcDbEntity
  8
CURVE
100
AcDbLine
 62
253
  6
CONTINUOUS
 10
-30.8835374067
 20
10.7693767522
 11
-30.6121501913
 21
10.497948197
  0
LINE
  5
421
100
AcDbEntity
  8
CURVE
100
AcDbLine
 62
253
  6
CONTINUOUS
 10
-19.8423621828
 20
-9.8095898552
 11
-19.8423621828
 21
-10.2381610794
  0
LINE
  5
422
100
AcDbEntity
  8
CURVE
100
AcDbLine
 62
253
  6
CONTINUOUS
 10
-19.6281090733
 20
-4.1310179157
 11
-19.6281090733
 21
-4.6667323036
  0
LINE
  5
423
100
AcDbEntity
  8
CURVE
100
AcDbLine
 62
253
  6
CONTINUOUS
 10
-19.4138560085
 20
-12.7381611092
 11
-19.4138560085
 21
-12.1667324825
  0
LINE
  5
424
100
AcDbEntity
  8
CURVE
100
AcDbLine
 62
253
  6
CONTINUOUS
 10
-19.4138560085
 20
-0.8810188694
 11
-19.4138560085
 21
-0.3095896168
  0
LINE
  5
425
100
AcDbEntity
  8
CURVE
100
AcDbLine
 62
253
  6
CONTINUOUS
 10
-19.4138560085
 20
2.5475537853
 11
-19.4138560085
 21
3.1189816074
  0
LINE
  5
426
100
AcDbEntity
  8
CURVE
100
AcDbLine
 62
253
  6
CONTINUOUS
 10
-18.9853498343
 20
-2.9524466915
 11
-18.9853498343
 21
-3.2738754673
  0
LINE
  5
427
100
AcDbEntity
  8
CURVE
100
AcDbLine
 62
253
  6
CONTINUOUS
 10
-18.9853498343
 20
-11.059589736
 11
-18.9853498343
 21
-11.5953039451
  0
LINE
  5
428
100
AcDbEntity
  8
CURVE
100
AcDbLine
 62
253
  6
CONTINUOUS
 10
-18.9853498343
 20
-10.2381610794
 11
-18.9853498343
 21
-9.5953038855
  0
LINE
  5
429
100
AcDbEntity
  8
CURVE
100
AcDbLine
 62
253
  6
CONTINUOUS
 10
-18.0977004697
 20
11.3573020865
 11
-18.0977004697
 21
11.8528800865
  0
LWPOLYLINE
  5
42A
100
AcDbEntity
  8
RACCORDO
100
AcDbPolyline
 62
7
  6
CONTINUOUS
 90
12
 70
0
 10
-15.7826083471
 20
7.6050249104
 10
-15.7846527885
 20
7.6015831418
 10
-15.7905131495
 20
7.595258867
 10
-15.7997696156
 20
7.5860520862
 10
-15.8119622085
 20
7.5736272244
 10
-15.826687604
 20
7.5583198564
 10
-15.8436802094
 20
7.541136707
 10
-15.8625983411
 20
7.5221915668
 10
-15.8831179843
 20
7.5013706452
 10
-15.9051386309
 20
7.4793392944
 10
-15.9284351517
 20
7.4561621873
 10
-15.9527492467
 20
7.431774651
  0
LWPOLYLINE
  5
42B
100
AcDbEntity
  8
ASSI
100
AcDbPolyline
 62
7
  6
CONTINUOUS
 90
12
 70
0
 10
-15.7826083471
 20
7.6050249104
 10
-15.7846527885
 20
7.6015831418
 10
-15.7905131495
 20
7.595258867
 10
-15.7997696156
 20
7.5860520862
 10
-15.8119622085
 20
7.5736272244
 10
-15.826687604
 20
7.5583198564
 10
-15.8436802094
 20
7.541136707
 10
-15.8625983411
 20
7.5221915668
 10
-15.8831179843
 20
7.5013706452
 10
-15.9051386309
 20
7.4793392944
 10
-15.9284351517
 20
7.4561621873
 10
-15.9527492467
 20
7.431774651
  0
LINE
  5
42C
100
AcDbEntity
  8
CURVE
100
AcDbLine
 62
253
  6
CONTINUOUS
 10
-29.3820296328
 20
-12.2859089135
 11
-29.1106833064
 21
-11.9846229135
  0
LINE
  5
42D
100
AcDbEntity
  8
CURVE
100
AcDbLine
 62
253
  6
CONTINUOUS
 10
-22.9847406149
 20
-3.8091942395
 11
-23.2561278586
 21
-4.0806235875
  0
LINE
  5
42E
100
AcDbEntity
  8
CURVE
100
AcDbLine
 62
253
  6
CONTINUOUS
 10
-23.7989023177
 20
-4.7591942395
 11
-24.0702895896
 21
-5.0306235875
  0
LINE
  5
42F
100
AcDbEntity
  8
CURVE
100
AcDbLine
 62
253
  6
CONTINUOUS
 10
-24.6130640204
 20
-6.1163373555
 11
-24.8844512357
 21
-6.3877657975
  0
LINE
  5
430
100
AcDbEntity
  8
CURVE
100
AcDbLine
 62
253
  6
CONTINUOUS
 10
-20.4851213771
 20
-2.9524466915
 11
-20.2708683123
 21
-2.7381610794
  0
LINE
  5
431
100
AcDbEntity
  8
CURVE
100
AcDbLine
 62
253
  6
CONTINUOUS
 10
-24.6130640204
 20
-3.4020520295
 11
-24.341676805
 21
-3.2663373555
  0
LINE
  5
432
100
AcDbEntity
  8
CURVE
100
AcDbLine
 62
253
  6
CONTINUOUS
 10
-20.4851213771
 20
-2.3095898552
 11
-19.6281090733
 21
-1.8810179157
  0
LINE
  5
433
100
AcDbEntity
  8
CURVE
100
AcDbLine
 62
253
  6
CONTINUOUS
 10
-23.2561278586
 20
-4.0806235875
 11
-23.5275151023
 21
-4.2163373555
  0
LINE
  5
434
100
AcDbEntity
  8
CURVE
100
AcDbLine
 62
253
  6
CONTINUOUS
 10
-20.4851213771
 20
-0.5953042431
 11
-18.9853498343
 21
-0.1667330189
  0
LINE
  5
435
100
AcDbEntity
  8
CURVE
100
AcDbLine
 62
253
  6
CONTINUOUS
 10
-24.8844512357
 20
-2.7234804715
 11
-22.9847406149
 21
-2.1806235875
  0
LINE
  5
436
100
AcDbEntity
  8
RACCORDO
100
AcDbLine
 62
253
  6
CONTINUOUS
 10
-40.6601628364
 20
0.4222870713
 11
-40.6564866958
 21
0.4228304699
  0
LINE
  5
437
100
AcDbEntity
  8
RACCORDO
100
AcDbLine
 62
253
  6
CONTINUOUS
 10
-40.6564866958
 20
0.4228304699
 11
-40.627663728
 21
0.4265426772
  0
LINE
  5
438
100
AcDbEntity
  8
RACCORDO
100
AcDbLine
 62
253
  6
CONTINUOUS
 10
-40.627663728
 20
0.4265426772
 11
-40.5386236786
 21
0.4376710967
  0
LINE
  5
439
100
AcDbEntity
  8
RACCORDO
100
AcDbLine
 62
253
  6
CONTINUOUS
 10
-40.5386236786
 20
0.4376710967
 11
-40.4163894001
 21
0.4527544072
  0
LINE
  5
43A
100
AcDbEntity
  8
CURVE
100
AcDbLine
 62
253
  6
CONTINUOUS
 10
-18.9853498343
 20
1.0118382053
 11
-20.4851213771
 21
1.0118382053
  0
LINE
  5
43B
100
AcDbEntity
  8
CURVE
100
AcDbLine
 62
253
  6
CONTINUOUS
 10
-18.9853498343
 20
1.7261240558
 11
-20.4851213771
 21
1.7261240558
  0
LINE
  5
43C
100
AcDbEntity
  8
RACCORDO
100
AcDbLine
 62
253
  6
CONTINUOUS
 10
-4.2826083471
 20
2.7050910865
 11
-6.2826083471
 21
2.7050910865
  0
LINE
  5
43D
100
AcDbEntity
  8
ASSI
100
AcDbLine
 62
253
  6
CONTINUOUS
 10
-4.2826083471
 20
2.7050910865
 11
-6.2826083471
 21
2.7050910865
  0
LINE
  5
43E
100
AcDbEntity
  8
CURVE
100
AcDbLine
 62
253
  6
CONTINUOUS
 10
-18.9853498343
 20
2.4046957569
 11
-20.4851213771
 21
2.8332669811
  0
LINE
  5
43F
100
AcDbEntity
  8
CURVE
100
AcDbLine
 62
253
  6
CONTINUOUS
 10
-29.2552140296
 20
9.8193768088
 11
-28.9838267859
 21
9.5479482536
  0
LINE
  5
440
100
AcDbEntity
  8
CURVE
100
AcDbLine
 62
253
  6
CONTINUOUS
 10
-30.6121501913
 20
12.126519755
 11
-30.8835374067
 21
12.397948197
  0
LINE
  5
441
100
AcDbEntity
  8
CURVE
100
AcDbLine
 62
253
  6
CONTINUOUS
 10
-28.9838267859
 20
10.7693767522
 11
-29.5266012732
 21
11.312233976
  0
LINE
  5
442
100
AcDbEntity
  8
CURVE
100
AcDbLine
 62
253
  6
CONTINUOUS
 10
-30.3407629759
 20
13.4836626445
 11
-30.8835374067
 21
14.0265195285
  0
LINE
  5
443
100
AcDbEntity
  8
CURVE
100
AcDbLine
 62
253
  6
CONTINUOUS
 10
-29.2552140296
 20
12.8050910865
 11
-28.9838267859
 21
12.533662418
  0
LINE
  5
444
100
AcDbEntity
  8
RACCORDO
100
AcDbLine
 62
253
  6
CONTINUOUS
 10
-16.2738821439
 20
-18.2623511686
 11
-16.2741768684
 21
-18.2602313863
  0
LINE
  5
445
100
AcDbEntity
  8
ASSI
100
AcDbLine
 62
253
  6
CONTINUOUS
 10
-16.2738821439
 20
-18.2623511686
 11
-16.2741768684
 21
-18.2602313863
  0
LINE
  5
446
100
AcDbEntity
  8
RACCORDO
100
AcDbLine
 62
253
  6
CONTINUOUS
 10
-16.2734935936
 20
-15.7237034603
 11
-16.2738821439
 21
-15.3884989874
  0
LINE
  5
447
100
AcDbEntity
  8
ASSI
100
AcDbLine
 62
253
  6
CONTINUOUS
 10
-16.2734935936
 20
-15.7237034603
 11
-16.2738821439
 21
-15.3884989874
  0
LINE
  5
448
100
AcDbEntity
  8
RACCORDO
100
AcDbLine
 62
253
  6
CONTINUOUS
 10
-16.2244050581
 20
17.5661686502
 11
-16.2247547643
 21
17.845815931
  0
LINE
  5
449
100
AcDbEntity
  8
ASSI
100
AcDbLine
 62
253
  6
CONTINUOUS
 10
-16.2244050581
 20
17.5661686502
 11
-16.2247547643
 21
17.845815931
  0
LINE
  5
44A
100
AcDbEntity
  8
RACCORDO
100
AcDbLine
 62
253
  6
CONTINUOUS
 10
-16.2733628692
 20
-16.0493316683
 11
-16.2734935936
 21
-15.7237034603
  0
LINE
  5
44B
100
AcDbEntity
  8
ASSI
100
AcDbLine
 62
253
  6
CONTINUOUS
 10
-16.2733628692
 20
-16.0493316683
 11
-16.2734935936
 21
-15.7237034603
  0
LINE
  5
44C
100
AcDbEntity
  8
CURVE
100
AcDbLine
 62
253
  6
CONTINUOUS
 10
-17.483371643
 20
12.1403150865
 11
-17.483371643
 21
11.6050910865
  0
LINE
  5
44D
100
AcDbEntity
  8
RACCORDO
100
AcDbLine
 62
253
  6
CONTINUOUS
 10
-16.273882109
 20
-18.1007778294
 11
-16.2738821439
 21
-16.6359157099
  0
LINE
  5
44E
100
AcDbEntity
  8
ASSI
100
AcDbLine
 62
253
  6
CONTINUOUS
 10
-16.273882109
 20
-18.1007778294
 11
-16.2738821439
 21
-16.6359157099
  0
LINE
  5
44F
100
AcDbEntity
  8
RACCORDO
100
AcDbLine
 62
253
  6
CONTINUOUS
 10
-16.2738821439
 20
-15.3884989874
 11
-16.2738821439
 21
-4.4535526667
  0
LINE
  5
450
100
AcDbEntity
  8
ASSI
100
AcDbLine
 62
253
  6
CONTINUOUS
 10
-16.2738821439
 20
-15.3884989874
 11
-16.2738821439
 21
-4.4535526667
  0
LINE
  5
451
100
AcDbEntity
  8
RACCORDO
100
AcDbLine
 62
253
  6
CONTINUOUS
 10
-16.2247547642
 20
7.1628773181
 11
-16.2247547642
 21
16.5983809047
  0
LINE
  5
452
100
AcDbEntity
  8
ASSI
100
AcDbLine
 62
253
  6
CONTINUOUS
 10
-16.2247547642
 20
7.1628773181
 11
-16.2247547642
 21
16.5983809047
  0
LINE
  5
453
100
AcDbEntity
  8
RACCORDO
100
AcDbLine
 62
253
  6
CONTINUOUS
 10
-16.2247547643
 20
17.8458159307
 11
-16.2247547642
 21
19.3265226663
  0
LINE
  5
454
100
AcDbEntity
  8
ASSI
100
AcDbLine
 62
253
  6
CONTINUOUS
 10
-16.2247547643
 20
17.8458159307
 11
-16.2247547642
 21
19.3265226663
  0
LINE
  5
455
100
AcDbEntity
  8
RACCORDO
100
AcDbLine
 62
253
  6
CONTINUOUS
 10
-16.2242874
 20
17.2592260531
 11
-16.2244050581
 21
17.5661686502
  0
LINE
  5
456
100
AcDbEntity
  8
ASSI
100
AcDbLine
 62
253
  6
CONTINUOUS
 10
-16.2242874
 20
17.2592260531
 11
-16.2244050581
 21
17.5661686502
  0
LINE
  5
457
100
AcDbEntity
  8
RACCORDO
100
AcDbLine
 62
7
  6
CONTINUOUS
 10
-15.7826083471
 20
-17.762427321
 11
-15.7826083471
 21
-4.8949089135
  0
LINE
  5
458
100
AcDbEntity
  8
ASSI
100
AcDbLine
 62
7
  6
CONTINUOUS
 10
-15.7826083471
 20
-17.762427321
 11
-15.7826083471
 21
-4.8949089135
  0
LINE
  5
459
100
AcDbEntity
  8
RACCORDO
100
AcDbLine
 62
7
  6
CONTINUOUS
 10
-15.7826083471
 20
7.6050249104
 11
-15.7826083471
 21
19.0217443571
  0
LINE
  5
45A
100
AcDbEntity
  8
ASSI
100
AcDbLine
 62
7
  6
CONTINUOUS
 10
-15.7826083471
 20
7.6050249104
 11
-15.7826083471
 21
19.0217443571
  0
LINE
  5
45B
100
AcDbEntity
  8
0
100
AcDbLine
 62
7
  6
CONTINUOUS
 10
-15.5826083471
 20
17.2557046369
 11
-15.5826083471
 21
15.8719756892
  0
LINE
  5
45C
100
AcDbEntity
  8
ASSI
100
AcDbLine
 62
7
  6
CONTINUOUS
 10
-15.5826083471
 20
17.2557046369
 11
-15.5826083471
 21
15.8719756892
  0
LINE
  5
45D
100
AcDbEntity
  8
0
100
AcDbLine
 62
7
  6
CONTINUOUS
 10
-15.5826083471
 20
15.7555230865
 11
-15.5826083471
 21
14.1930540865
  0
LINE
  5
45E
100
AcDbEntity
  8
ASSI
100
AcDbLine
 62
7
  6
CONTINUOUS
 10
-15.5826083471
 20
15.7555230865
 11
-15.5826083471
 21
14.1930540865
  0
LINE
  5
45F
100
AcDbEntity
  8
0
100
AcDbLine
 62
7
  6
CONTINUOUS
 10
-15.5826083471
 20
14.1307820865
 11
-15.5826083471
 21
12.2040100865
  0
LINE
  5
460
100
AcDbEntity
  8
ASSI
100
AcDbLine
 62
7
  6
CONTINUOUS
 10
-15.5826083471
 20
14.1307820865
 11
-15.5826083471
 21
12.2040100865
  0
LINE
  5
461
100
AcDbEntity
  8
0
100
AcDbLine
 62
7
  6
CONTINUOUS
 10
-15.5826083471
 20
11.9905220865
 11
-15.5826083471
 21
11.5939500865
  0
LINE
  5
462
100
AcDbEntity
  8
ASSI
100
AcDbLine
 62
7
  6
CONTINUOUS
 10
-15.5826083471
 20
11.9905220865
 11
-15.5826083471
 21
11.5939500865
  0
LINE
  5
463
100
AcDbEntity
  8
0
100
AcDbLine
 62
7
  6
CONTINUOUS
 10
-15.5826083471
 20
11.4467810865
 11
-15.5826083471
 21
9.8843270865
  0
LINE
  5
464
100
AcDbEntity
  8
ASSI
100
AcDbLine
 62
7
  6
CONTINUOUS
 10
-15.5826083471
 20
11.4467810865
 11
-15.5826083471
 21
9.8843270865
  0
LINE
  5
465
100
AcDbEntity
  8
0
100
AcDbLine
 62
7
  6
CONTINUOUS
 10
-15.5826083471
 20
-5.9949089135
 11
-15.5826083471
 21
-7.4949089135
  0
LINE
  5
466
100
AcDbEntity
  8
ASSI
100
AcDbLine
 62
7
  6
CONTINUOUS
 10
-15.5826083471
 20
-5.9949089135
 11
-15.5826083471
 21
-7.4949089135
  0
LINE
  5
467
100
AcDbEntity
  8
RACCORDO
100
AcDbLine
 62
253
  6
CONTINUOUS
 10
-16.2734935874
 20
-16.3562683054
 11
-16.2733628692
 21
-16.0493316683
  0
LINE
  5
468
100
AcDbEntity
  8
ASSI
100
AcDbLine
 62
253
  6
CONTINUOUS
 10
-16.2734935874
 20
-16.3562683054
 11
-16.2733628692
 21
-16.0493316683
  0
LINE
  5
469
100
AcDbEntity
  8
RACCORDO
100
AcDbLine
 62
253
  6
CONTINUOUS
 10
-16.2244050523
 20
16.9335952913
 11
-16.2242874
 21
17.2592260531
  0
LINE
  5
46A
100
AcDbEntity
  8
ASSI
100
AcDbLine
 62
253
  6
CONTINUOUS
 10
-16.2244050523
 20
16.9335952913
 11
-16.2242874
 21
17.2592260531
  0
LINE
  5
46B
100
AcDbEntity
  8
RACCORDO
100
AcDbLine
 62
253
  6
CONTINUOUS
 10
-16.2247547642
 20
16.5983809047
 11
-16.2244050523
 21
16.9335952913
  0
LINE
  5
46C
100
AcDbEntity
  8
ASSI
100
AcDbLine
 62
253
  6
CONTINUOUS
 10
-16.2247547642
 20
16.5983809047
 11
-16.2244050523
 21
16.9335952913
  0
LINE
  5
46D
100
AcDbEntity
  8
RACCORDO
100
AcDbLine
 62
253
  6
CONTINUOUS
 10
-16.273882144
 20
-16.6359157101
 11
-16.2734935874
 21
-16.3562683054
  0
LINE
  5
46E
100
AcDbEntity
  8
ASSI
100
AcDbLine
 62
253
  6
CONTINUOUS
 10
-16.273882144
 20
-16.6359157101
 11
-16.2734935874
 21
-16.3562683054
  0
LINE
  5
46F
100
AcDbEntity
  8
RACCORDO
100
AcDbLine
 62
253
  6
CONTINUOUS
 10
-16.2240420057
 20
19.44164169
 11
-16.2241141903
 21
19.4050619773
  0
LINE
  5
470
100
AcDbEntity
  8
ASSI
100
AcDbLine
 62
253
  6
CONTINUOUS
 10
-16.2240420057
 20
19.44164169
 11
-16.2241141903
 21
19.4050619773
  0
LWPOLYLINE
  5
471
100
AcDbEntity
  8
RACCORDO
100
AcDbPolyline
 62
253
  6
CONTINUOUS
 90
3
 70
0
 10
-16.2241141903
 20
19.4050619773
 10
-16.2244720775
 20
19.3555893064
 10
-16.2247547642
 20
19.3265226173
  0
LWPOLYLINE
  5
472
100
AcDbEntity
  8
ASSI
100
AcDbPolyline
 62
253
  6
CONTINUOUS
 90
3
 70
0
 10
-16.2241141903
 20
19.4050619773
 10
-16.2244720775
 20
19.3555893064
 10
-16.2247547642
 20
19.3265226173
  0
LWPOLYLINE
  5
473
100
AcDbEntity
  8
RACCORDO
100
AcDbPolyline
 62
253
  6
CONTINUOUS
 90
8
 70
0
 10
-16.2741768684
 20
-18.2602313863
 10
-16.2731689266
 20
-18.2434464772
 10
-16.2728749763
 20
-18.228863152
 10
-16.2730633241
 20
-18.2103016864
 10
-16.2731689352
 20
-18.1881972043
 10
-16.2730374831
 20
-18.1627266504
 10
-16.273173259
 20
-18.1336687909
 10
-16.2738821716
 20
-18.1007778469
  0
LWPOLYLINE
  5
474
100
AcDbEntity
  8
ASSI
100
AcDbPolyline
 62
253
  6
CONTINUOUS
 90
8
 70
0
 10
-16.2741768684
 20
-18.2602313863
 10
-16.2731689266
 20
-18.2434464772
 10
-16.2728749763
 20
-18.228863152
 10
-16.2730633241
 20
-18.2103016864
 10
-16.2731689352
 20
-18.1881972043
 10
-16.2730374831
 20
-18.1627266504
 10
-16.273173259
 20
-18.1336687909
 10
-16.2738821716
 20
-18.1007778469
  0
LINE
  5
475
100
AcDbEntity
  8
CURVE
100
AcDbLine
 62
253
  6
CONTINUOUS
 10
-20.4851213771
 20
-4.1310179157
 11
-20.2708683123
 21
-3.9167323036
  0
LINE
  5
476
100
AcDbEntity
  8
CURVE
100
AcDbLine
 62
253
  6
CONTINUOUS
 10
-18.9853498343
 20
-3.2738754673
 11
-19.1996029214
 21
-3.4881610794
  0
LINE
  5
477
100
AcDbEntity
  8
CURVE
100
AcDbLine
 62
253
  6
CONTINUOUS
 10
-19.6281090733
 20
-4.3453042431
 11
-18.9853498343
 21
-3.9167323036
  0
LINE
  5
478
100
AcDbEntity
  8
DRAFT
100
AcDbLine
 62
7
  6
CONTINUOUS
 10
-40.4416995062
 20
2.5671361449
 11
-41.0329210221
 21
2.46288784
  0
LINE
  5
479
100
AcDbEntity
  8
RACCORDO
100
AcDbLine
 62
253
  6
CONTINUOUS
 10
-40.0981243342
 20
5.3653313691
 11
-41.2850393653
 21
5.3446136901
  0
LINE
  5
47A
100
AcDbEntity
  8
RACCORDO
100
AcDbLine
 62
7
  6
CONTINUOUS
 10
-40.1024861069
 20
5.6152171578
 11
-41.3068748546
 21
5.594194474
  0
LINE
  5
47B
100
AcDbEntity
  8
DRAFT
100
AcDbLine
 62
7
  6
CONTINUOUS
 10
-6.2826083471
 20
5.4550910865
 11
-4.5669075603
 21
5.3651750183
  0
LINE
  5
47C
100
AcDbEntity
  8
ASSI
100
AcDbLine
 62
7
  6
CONTINUOUS
 10
-6.2826083471
 20
5.4550910865
 11
-4.5669075603
 21
5.3651750183
  0
LINE
  5
47D
100
AcDbEntity
  8
CURVE
100
AcDbLine
 62
253
  6
CONTINUOUS
 10
-30.3407629759
 20
9.0050910865
 11
-30.6121501913
 21
9.1408053782
  0
LINE
  5
47E
100
AcDbEntity
  8
CURVE
100
AcDbLine
 62
253
  6
CONTINUOUS
 10
-29.5266012732
 20
9.9550910865
 11
-29.2552140296
 21
9.8193768088
  0
LINE
  5
47F
100
AcDbEntity
  8
CURVE
100
AcDbLine
 62
253
  6
CONTINUOUS
 10
-30.3407629759
 20
11.9908053075
 11
-30.6121501913
 21
12.126519755
  0
LINE
  5
480
100
AcDbEntity
  8
CURVE
100
AcDbLine
 62
253
  6
CONTINUOUS
 10
-28.9838267859
 20
15.1122337495
 11
-29.2552140296
 21
15.3836626445
  0
LINE
  5
481
100
AcDbEntity
  8
RACCORDO
100
AcDbLine
 62
253
  6
CONTINUOUS
 10
-14.0669075603
 20
-8.0348249817
 11
-14.0669075603
 21
-15.4549928454
  0
LINE
  5
482
100
AcDbEntity
  8
ASSI
100
AcDbLine
 62
253
  6
CONTINUOUS
 10
-14.0669075603
 20
-8.0348249817
 11
-14.0669075603
 21
-15.4549928454
  0
LINE
  5
483
100
AcDbEntity
  8
RACCORDO
100
AcDbLine
 62
7
  6
CONTINUOUS
 10
-13.7826083471
 20
-8.3344195568
 11
-13.7826083471
 21
-15.1553983204
  0
LINE
  5
484
100
AcDbEntity
  8
ASSI
100
AcDbLine
 62
7
  6
CONTINUOUS
 10
-13.7826083471
 20
-8.3344195568
 11
-13.7826083471
 21
-15.1553983204
  0
LWPOLYLINE
  5
485
100
AcDbEntity
  8
RACCORDO
100
AcDbPolyline
 62
253
  6
CONTINUOUS
 90
19
 70
0
 10
-15.7826083471
 20
-17.762427321
 10
-15.7844689167
 20
-17.7915936347
 10
-15.7900368419
 20
-17.8205431307
 10
-15.7992707785
 20
-17.8490603468
 10
-15.8121021533
 20
-17.8769331371
 10
-15.8284355276
 20
-17.9039539198
 10
-15.8481491706
 20
-17.929921259
 10
-15.8710962599
 20
-17.9546418322
 10
-15.8971060243
 20
-17.9779317353
 10
-15.9259847373
 20
-17.9996175645
 10
-15.9575172406
 20
-18.0195378602
 10
-15.9914689446
 20
-18.0375445227
 10
-16.0275875525
 20
-18.0535037561
 10
-16.0656045145
 20
-18.0672968329
 10
-16.1052367061
 20
-18.0788209682
 10
-16.1461889262
 20
-18.0879903126
 10
-16.1881562936
 20
-18.0947366237
 10
-16.2308265458
 20
-18.099009726
 10
-16.273882109
 20
-18.1007778296
  0
LWPOLYLINE
  5
486
100
AcDbEntity
  8
ASSI
100
AcDbPolyline
 62
253
  6
CONTINUOUS
 90
19
 70
0
 10
-15.7826083471
 20
-17.762427321
 10
-15.7844689167
 20
-17.7915936347
 10
-15.7900368419
 20
-17.8205431307
 10
-15.7992707785
 20
-17.8490603468
 10
-15.8121021533
 20
-17.8769331371
 10
-15.8284355276
 20
-17.9039539198
 10
-15.8481491706
 20
-17.929921259
 10
-15.8710962599
 20
-17.9546418322
 10
-15.8971060243
 20
-17.9779317353
 10
-15.9259847373
 20
-17.9996175645
 10
-15.9575172406
 20
-18.0195378602
 10
-15.9914689446
 20
-18.0375445227
 10
-16.0275875525
 20
-18.0535037561
 10
-16.0656045145
 20
-18.0672968329
 10
-16.1052367061
 20
-18.0788209682
 10
-16.1461889262
 20
-18.0879903126
 10
-16.1881562936
 20
-18.0947366237
 10
-16.2308265458
 20
-18.099009726
 10
-16.273882109
 20
-18.1007778296
  0
LINE
  5
487
100
AcDbEntity
  8
CURVE
100
AcDbLine
 62
253
  6
CONTINUOUS
 10
-23.7989023177
 20
-12.3591946925
 11
-24.0702895896
 21
-12.6306232478
  0
LINE
  5
488
100
AcDbEntity
  8
CURVE
100
AcDbLine
 62
253
  6
CONTINUOUS
 10
-23.2561278586
 20
-13.3091945793
 11
-22.9847406149
 21
-13.037766024
  0
LINE
  5
489
100
AcDbEntity
  8
CURVE
100
AcDbLine
 62
253
  6
CONTINUOUS
 10
-20.4851213771
 20
-11.059589736
 11
-20.2708683123
 21
-10.8453041239
  0
LINE
  5
48A
100
AcDbEntity
  8
CURVE
100
AcDbLine
 62
253
  6
CONTINUOUS
 10
-24.8844512357
 20
-10.1877662505
 11
-22.9847406149
 21
-9.1020515765
  0
LINE
  5
48B
100
AcDbEntity
  8
CURVE
100
AcDbLine
 62
253
  6
CONTINUOUS
 10
-20.4851213771
 20
-7.0238754673
 11
-18.9853498343
 21
-6.2738754673
  0
LINE
  5
48C
100
AcDbEntity
  8
RACCORDO
100
AcDbLine
 62
253
  6
CONTINUOUS
 10
-6.7247547642
 20
6.9970542012
 11
-6.2826083471
 21
6.9970542012
  0
LINE
  5
48D
100
AcDbEntity
  8
ASSI
100
AcDbLine
 62
253
  6
CONTINUOUS
 10
-6.7247547642
 20
6.9970542012
 11
-6.2826083471
 21
6.9970542012
  0
LINE
  5
48E
100
AcDbEntity
  8
CURVE
100
AcDbLine
 62
253
  6
CONTINUOUS
 10
-31.8829283116
 20
8.0413447501
 11
-33.9822883827
 21
8.0413447501
  0
LINE
  5
48F
100
AcDbEntity
  8
CURVE
100
AcDbLine
 62
253
  6
CONTINUOUS
 10
-33.5677031656
 20
8.3060492455
 11
-31.8829283116
 21
8.3060492455
  0
LINE
  5
490
100
AcDbEntity
  8
CURVE
100
AcDbLine
 62
253
  6
CONTINUOUS
 10
-29.5266012732
 20
9.0050910865
 11
-30.3407629759
 21
9.0050910865
  0
LINE
  5
491
100
AcDbEntity
  8
RACCORDO
100
AcDbLine
 62
253
  6
CONTINUOUS
 10
-6.7247547642
 20
6.9970542012
 11
-16.2247547642
 21
7.1628773181
  0
LINE
  5
492
100
AcDbEntity
  8
ASSI
100
AcDbLine
 62
253
  6
CONTINUOUS
 10
-6.7247547642
 20
6.9970542012
 11
-16.2247547642
 21
7.1628773181
  0
LINE
  5
493
100
AcDbEntity
  8
RACCORDO
100
AcDbLine
 62
7
  6
CONTINUOUS
 10
-6.7247547642
 20
7.4469856641
 11
-15.7826307225
 21
7.605091477
  0
LINE
  5
494
100
AcDbEntity
  8
ASSI
100
AcDbLine
 62
7
  6
CONTINUOUS
 10
-6.7247547642
 20
7.4469856641
 11
-15.7826307225
 21
7.605091477
  0
LINE
  5
495
100
AcDbEntity
  8
CURVE
100
AcDbLine
 62
253
  6
CONTINUOUS
 10
-29.5266012732
 20
11.312233976
 11
-30.0693757606
 21
11.447948197
  0
LINE
  5
496
100
AcDbEntity
  8
CURVE
100
AcDbLine
 62
253
  6
CONTINUOUS
 10
-32.1622528218
 20
12.9059574829
 11
-33.9822883827
 21
13.5118059186
  0
LINE
  5
497
100
AcDbEntity
  8
CURVE
100
AcDbLine
 62
253
  6
CONTINUOUS
 10
-33.9822883827
 20
13.8030117438
 11
-31.8829283116
 21
13.0559262287
  0
LINE
  5
498
100
AcDbEntity
  8
CURVE
100
AcDbLine
 62
253
  6
CONTINUOUS
 10
-29.5266012732
 20
12.9408053075
 11
-29.2552140296
 21
12.8050910865
  0
LINE
  5
499
100
AcDbEntity
  8
CURVE
100
AcDbLine
 62
253
  6
CONTINUOUS
 10
-19.7326083471
 20
11.6050910865
 11
-20.7654846511
 21
12.9361130865
  0
LWPOLYLINE
  5
49A
100
AcDbEntity
  8
RACCORDO
100
AcDbPolyline
 62
253
  6
CONTINUOUS
 90
5
 70
0
 10
-16.2247547642
 20
19.4716758199
 10
-16.2244720775
 20
19.4697746236
 10
-16.2242579514
 20
19.4640980791
 10
-16.2241141903
 20
19.4546940199
 10
-16.2240420057
 20
19.44164169
  0
LWPOLYLINE
  5
49B
100
AcDbEntity
  8
ASSI
100
AcDbPolyline
 62
253
  6
CONTINUOUS
 90
5
 70
0
 10
-16.2247547642
 20
19.4716758199
 10
-16.2244720775
 20
19.4697746236
 10
-16.2242579514
 20
19.4640980791
 10
-16.2241141903
 20
19.4546940199
 10
-16.2240420057
 20
19.44164169
  0
LWPOLYLINE
  5
49C
100
AcDbEntity
  8
RACCORDO
100
AcDbPolyline
 62
253
  6
CONTINUOUS
 90
7
 70
0
 10
-27.7623309752
 20
-19.1305999775
 10
-28.105231651
 20
-19.4797629386
 10
-28.2800382212
 20
-19.6576308579
 10
-28.4580056884
 20
-19.8388912536
 10
-28.6394404309
 20
-20.0238196614
 10
-28.8240360705
 20
-20.2117920853
 10
-29.0117926071
 20
-20.4026279972
  0
LWPOLYLINE
  5
49D
100
AcDbEntity
  8
ASSI
100
AcDbPolyline
 62
253
  6
CONTINUOUS
 90
7
 70
0
 10
-27.7623309752
 20
-19.1305999775
 10
-28.105231651
 20
-19.4797629386
 10
-28.2800382212
 20
-19.6576308579
 10
-28.4580056884
 20
-19.8388912536
 10
-28.6394404309
 20
-20.0238196614
 10
-28.8240360705
 20
-20.2117920853
 10
-29.0117926071
 20
-20.4026279972
  0
LINE
  5
49E
100
AcDbEntity
  8
RACCORDO
100
AcDbLine
 62
253
  6
CONTINUOUS
 10
-27.4275038556
 20
-18.7897831465
 11
-27.7623309752
 21
-19.1305999775
  0
LINE
  5
49F
100
AcDbEntity
  8
ASSI
100
AcDbLine
 62
253
  6
CONTINUOUS
 10
-27.4275038556
 20
-18.7897831465
 11
-27.7623309752
 21
-19.1305999775
  0
LWPOLYLINE
  5
4A0
100
AcDbEntity
  8
RACCORDO
100
AcDbPolyline
 62
253
  6
CONTINUOUS
 90
3
 70
0
 10
-26.9345906925
 20
-18.2879615175
 10
-27.0975339886
 20
-18.4537238742
 10
-27.4275038556
 20
-18.7897831465
  0
LWPOLYLINE
  5
4A1
100
AcDbEntity
  8
ASSI
100
AcDbPolyline
 62
253
  6
CONTINUOUS
 90
3
 70
0
 10
-26.9345906925
 20
-18.2879615175
 10
-27.0975339886
 20
-18.4537238742
 10
-27.4275038556
 20
-18.7897831465
  0
LINE
  5
4A2
100
AcDbEntity
  8
RACCORDO
100
AcDbLine
 62
7
  6
CONTINUOUS
 10
-26.7326083471
 20
-18.4449089135
 11
-29.3386788488
 21
-21.0509794152
  0
LINE
  5
4A3
100
AcDbEntity
  8
ASSI
100
AcDbLine
 62
7
  6
CONTINUOUS
 10
-26.7326083471
 20
-18.4449089135
 11
-29.3386788488
 21
-21.0509794152
  0
LWPOLYLINE
  5
4A4
100
AcDbEntity
  8
RACCORDO
100
AcDbPolyline
 62
253
  6
CONTINUOUS
 90
10
 70
0
 10
-28.6669263618
 20
-20.3792269282
 10
-28.6936210556
 20
-20.4016587779
 10
-28.7238910159
 20
-20.4190850108
 10
-28.7576009907
 20
-20.4314500814
 10
-28.7947027994
 20
-20.4390977554
 10
-28.8347311562
 20
-20.4419926584
 10
-28.8768670683
 20
-20.4395436164
 10
-28.9206086783
 20
-20.4317268246
 10
-28.9657170228
 20
-20.4192435834
 10
-29.0117535492
 20
-20.4026273113
  0
LWPOLYLINE
  5
4A5
100
AcDbEntity
  8
ASSI
100
AcDbPolyline
 62
253
  6
CONTINUOUS
 90
10
 70
0
 10
-28.6669263618
 20
-20.3792269282
 10
-28.6936210556
 20
-20.4016587779
 10
-28.7238910159
 20
-20.4190850108
 10
-28.7576009907
 20
-20.4314500814
 10
-28.7947027994
 20
-20.4390977554
 10
-28.8347311562
 20
-20.4419926584
 10
-28.8768670683
 20
-20.4395436164
 10
-28.9206086783
 20
-20.4317268246
 10
-28.9657170228
 20
-20.4192435834
 10
-29.0117535492
 20
-20.4026273113
  0
LWPOLYLINE
  5
4A6
100
AcDbEntity
  8
RACCORDO
100
AcDbPolyline
 62
253
  6
CONTINUOUS
 90
4
 70
0
 10
-37.7288970558
 20
-21.7557975796
 10
-37.728124769
 20
-21.7553154944
 10
-37.7273814117
 20
-21.7537183974
 10
-37.7266657029
 20
-21.7509034391
  0
LINE
  5
4A7
100
AcDbEntity
  8
CURVE
100
AcDbLine
 62
253
  6
CONTINUOUS
 10
-24.8844512357
 20
-11.273480245
 11
-22.9847406149
 21
-10.7306231345
  0
LWPOLYLINE
  5
4A8
100
AcDbEntity
  8
CURVE
100
AcDbPolyline
 62
253
  6
CONTINUOUS
 90
17
 70
0
 10
-19.7326083471
 20
9.3555117605
 10
-19.2957293152
 20
9.3983546493
 10
-18.8754908698
 20
9.5252514433
 10
-18.4878997628
 20
9.7313686832
 10
-18.1421578211
 20
10.0143982902
 10
-17.8635275783
 20
10.3536599707
 10
-17.6560900412
 20
10.7405882735
 10
-17.5277464412
 20
11.1604452199
 10
-17.483371643
 20
11.6050910865
 10
-17.5262080066
 20
12.0420366674
 10
-17.6530854737
 20
12.4623391268
 10
-17.8591713209
 20
12.8499892748
 10
-18.1421578211
 20
13.1957838827
 10
-18.4813678304
 20
13.4744565687
 10
-18.8682372022
 20
13.6819257044
 10
-19.2880302023
 20
13.8102888547
 10
-19.7326085438
 20
13.8546704124
  0
LINE
  5
4A9
100
AcDbEntity
  8
CURVE
100
AcDbLine
 62
253
  6
CONTINUOUS
 10
-32.2798641167
 20
9.4501717406
 11
-33.9822883827
 21
9.4501717406
  0
LINE
  5
4AA
100
AcDbEntity
  8
CURVE
100
AcDbLine
 62
253
  6
CONTINUOUS
 10
-33.9822883827
 20
9.7148947641
 11
-31.8829283116
 21
9.7148947641
  0
LINE
  5
4AB
100
AcDbEntity
  8
0
100
AcDbLine
 62
7
  6
CONTINUOUS
 10
-15.7826083471
 20
9.8843270865
 11
-15.5826083471
 21
9.8843270865
  0
LINE
  5
4AC
100
AcDbEntity
  8
ASSI
100
AcDbLine
 62
7
  6
CONTINUOUS
 10
-15.7826083471
 20
9.8843270865
 11
-15.5826083471
 21
9.8843270865
  0
LINE
  5
4AD
100
AcDbEntity
  8
CURVE
100
AcDbLine
 62
253
  6
CONTINUOUS
 10
-30.3407629759
 20
9.9550910865
 11
-29.5266012732
 21
9.9550910865
  0
LINE
  5
4AE
100
AcDbEntity
  8
CURVE
100
AcDbLine
 62
253
  6
CONTINUOUS
 10
-31.8829283116
 20
10.3001214473
 11
-33.9822883827
 21
10.3001214473
  0
LINE
  5
4AF
100
AcDbEntity
  8
0
100
AcDbLine
 62
7
  6
CONTINUOUS
 10
-15.7826083471
 20
10.3151270865
 11
-15.5826083471
 21
10.3151270865
  0
LINE
  5
4B0
100
AcDbEntity
  8
ASSI
100
AcDbLine
 62
7
  6
CONTINUOUS
 10
-15.7826083471
 20
10.3151270865
 11
-15.5826083471
 21
10.3151270865
  0
LINE
  5
4B1
100
AcDbEntity
  8
CURVE
100
AcDbLine
 62
253
  6
CONTINUOUS
 10
-30.6121501913
 20
10.497948197
 11
-30.0693757606
 21
10.497948197
  0
LINE
  5
4B2
100
AcDbEntity
  8
CURVE
100
AcDbLine
 62
253
  6
CONTINUOUS
 10
-33.7470670276
 20
10.5795310619
 11
-33.0796122785
 21
10.5795310619
  0
LINE
  5
4B3
100
AcDbEntity
  8
CURVE
100
AcDbLine
 62
253
  6
CONTINUOUS
 10
-32.8443909234
 20
10.5795310619
 11
-32.1181496667
 21
10.5795310619
  0
LINE
  5
4B4
100
AcDbEntity
  8
0
100
AcDbLine
 62
7
  6
CONTINUOUS
 10
-15.7826083471
 20
10.6772720865
 11
-15.5826083471
 21
10.6772720865
  0
LINE
  5
4B5
100
AcDbEntity
  8
ASSI
100
AcDbLine
 62
7
  6
CONTINUOUS
 10
-15.7826083471
 20
10.6772720865
 11
-15.5826083471
 21
10.6772720865
  0
LINE
  5
4B6
100
AcDbEntity
  8
CURVE
100
AcDbLine
 62
253
  6
CONTINUOUS
 10
-28.0798722486
 20
10.7375370865
 11
-27.3292809382
 21
10.7375370865
  0
LINE
  5
4B7
100
AcDbEntity
  8
CURVE
100
AcDbLine
 62
253
  6
CONTINUOUS
 10
-23.7359357561
 20
10.7375370865
 11
-22.9853444457
 21
10.7375370865
  0
LINE
  5
4B8
100
AcDbEntity
  8
0
100
AcDbLine
 62
7
  6
CONTINUOUS
 10
-15.7826083471
 20
11.0504800865
 11
-15.5826083471
 21
11.0504800865
  0
LINE
  5
4B9
100
AcDbEntity
  8
ASSI
100
AcDbLine
 62
7
  6
CONTINUOUS
 10
-15.7826083471
 20
11.0504800865
 11
-15.5826083471
 21
11.0504800865
  0
LINE
  5
4BA
100
AcDbEntity
  8
0
100
AcDbLine
 62
7
  6
CONTINUOUS
 10
-15.7826083471
 20
11.4467810865
 11
-15.5826083471
 21
11.4467810865
  0
LINE
  5
4BB
100
AcDbEntity
  8
ASSI
100
AcDbLine
 62
7
  6
CONTINUOUS
 10
-15.7826083471
 20
11.4467810865
 11
-15.5826083471
 21
11.4467810865
  0
LINE
  5
4BC
100
AcDbEntity
  8
CURVE
100
AcDbLine
 62
253
  6
CONTINUOUS
 10
-30.0693757606
 20
11.447948197
 11
-30.6121501913
 21
11.447948197
  0
LINE
  5
4BD
100
AcDbEntity
  8
0
100
AcDbLine
 62
7
  6
CONTINUOUS
 10
-15.7826083471
 20
11.5939500865
 11
-15.5826083471
 21
11.5939500865
  0
LINE
  5
4BE
100
AcDbEntity
  8
ASSI
100
AcDbLine
 62
7
  6
CONTINUOUS
 10
-15.7826083471
 20
11.5939500865
 11
-15.5826083471
 21
11.5939500865
  0
LINE
  5
4BF
100
AcDbEntity
  8
CURVE
100
AcDbLine
 62
253
  6
CONTINUOUS
 10
-21.3675162246
 20
11.6050910865
 11
-18.0977004697
 21
11.6050910865
  0
LINE
  5
4C0
100
AcDbEntity
  8
CURVE
100
AcDbLine
 62
253
  6
CONTINUOUS
 10
-33.0796122785
 20
11.6707089522
 11
-32.8443909234
 21
11.6707089522
  0
LINE
  5
4C1
100
AcDbEntity
  8
CURVE
100
AcDbLine
 62
253
  6
CONTINUOUS
 10
-33.9822883827
 20
11.7501165952
 11
-33.7470670276
 21
11.7501165952
  0
LINE
  5
4C2
100
AcDbEntity
  8
CURVE
100
AcDbLine
 62
253
  6
CONTINUOUS
 10
-32.1181496667
 20
11.7589433723
 11
-31.8829283116
 21
11.7589433723
  0
LWPOLYLINE
  5
4C3
100
AcDbEntity
  8
CURVE
100
AcDbPolyline
 62
253
  6
CONTINUOUS
 90
46
 70
0
 10
-25.9074936011
 20
13.2621428624
 10
-25.9625465865
 20
13.2747897321
 10
-26.0172332833
 20
13.2891863575
 10
-26.0714908975
 20
13.3053111609
 10
-26.1252566355
 20
13.3231425647
 10
-26.1784677031
 20
13.3426589911
 10
-26.2310613067
 20
13.3638388626
 10
-26.2829746522
 20
13.3866606013
 10
-26.3341449459
 20
13.4111026297
 10
-26.3845093938
 20
13.4371433701
 10
-26.4340085522
 20
13.464759401
 10
-26.4825963781
 20
13.4939199258
 10
-26.5302301788
 20
13.5245923044
 10
-26.5768672613
 20
13.5567438962
 10
-26.6224649329
 20
13.5903420611
 10
-26.6669805008
 20
13.6253541587
 10
-26.710371272
 20
13.6617475486
 10
-26.7525945538
 20
13.6994895906
 10
-26.7936076534
 20
13.7385476442
 10
-26.8333691813
 20
13.7788869038
 10
-26.8718429612
 20
13.8204639012
 10
-26.9089941202
 20
13.8632330029
 10
-26.9447877856
 20
13.9071485755
 10
-26.9791890843
 20
13.9521649854
 10
-27.0121631434
 20
13.998236599
 10
-27.0436750902
 20
14.0453177829
 10
-27.0736900516
 20
14.0933629036
 10
-27.1021731548
 20
14.1423263275
 10
-27.129091958
 20
14.1921617311
 10
-27.1544237429
 20
14.2428200313
 10
-27.1781482226
 20
14.294251455
 10
-27.20024511
 20
14.346406229
 10
-27.2206941179
 20
14.3992345803
 10
-27.2394749594
 20
14.4526867358
 10
-27.2565673473
 20
14.5067129223
 10
-27.2719509946
 20
14.5612633667
 10
-27.2856056141
 20
14.616288296
 10
-27.2975135764
 20
14.6717351868
 10
-27.3076678822
 20
14.7275405156
 10
-27.3160641898
 20
14.7836380087
 10
-27.3226981575
 20
14.8399613922
 10
-27.3275654436
 20
14.8964443925
 10
-27.3306617064
 20
14.9530207359
 10
-27.3319826043
 20
15.0096241484
 10
-27.3315237954
 20
15.0661883565
 10
-27.3292809382
 20
15.1226470865
  0
LINE
  5
4C4
100
AcDbEntity
  8
RACCORDO
100
AcDbLine
 62
7
  6
CONTINUOUS
 10
-29.3386788488
 20
22.2611615881
 11
-26.7326083471
 21
19.6550910865
  0
LINE
  5
4C5
100
AcDbEntity
  8
ASSI
100
AcDbLine
 62
7
  6
CONTINUOUS
 10
-29.3386788488
 20
22.2611615881
 11
-26.7326083471
 21
19.6550910865
  0
LWPOLYLINE
  5
4C6
100
AcDbEntity
  8
RACCORDO
100
AcDbPolyline
 62
253
  6
CONTINUOUS
 90
4
 70
0
 10
-28.991615955
 20
21.6249553744
 10
-28.6719978581
 20
21.3002492948
 10
-28.5110317262
 20
21.1366446592
 10
-28.350400563
 20
20.973354726
  0
LWPOLYLINE
  5
4C7
100
AcDbEntity
  8
ASSI
100
AcDbPolyline
 62
253
  6
CONTINUOUS
 90
4
 70
0
 10
-28.991615955
 20
21.6249553744
 10
-28.6719978581
 20
21.3002492948
 10
-28.5110317262
 20
21.1366446592
 10
-28.350400563
 20
20.973354726
  0
LWPOLYLINE
  5
4C8
100
AcDbEntity
  8
RACCORDO
100
AcDbPolyline
 62
253
  6
CONTINUOUS
 90
3
 70
0
 10
-27.3109547495
 20
19.9172603135
 10
-27.1160308678
 20
19.7192117774
 10
-26.9143924579
 20
19.5141003275
  0
LWPOLYLINE
  5
4C9
100
AcDbEntity
  8
ASSI
100
AcDbPolyline
 62
253
  6
CONTINUOUS
 90
3
 70
0
 10
-27.3109547495
 20
19.9172603135
 10
-27.1160308678
 20
19.7192117774
 10
-26.9143924579
 20
19.5141003275
  0
LWPOLYLINE
  5
4CA
100
AcDbEntity
  8
RACCORDO
100
AcDbPolyline
 62
253
  6
CONTINUOUS
 90
4
 70
0
 10
-28.350400563
 20
20.973354726
 10
-27.8536898494
 20
20.4686273027
 10
-27.6797842403
 20
20.2918421873
 10
-27.3109547495
 20
19.9172603135
  0
LWPOLYLINE
  5
4CB
100
AcDbEntity
  8
ASSI
100
AcDbPolyline
 62
253
  6
CONTINUOUS
 90
4
 70
0
 10
-28.350400563
 20
20.973354726
 10
-27.8536898494
 20
20.4686273027
 10
-27.6797842403
 20
20.2918421873
 10
-27.3109547495
 20
19.9172603135
  0
LINE
  5
4CC
100
AcDbEntity
  8
RACCORDO
100
AcDbLine
 62
253
  6
CONTINUOUS
 10
-6.7247547642
 20
-4.2868720283
 11
-6.723507671
 21
-4.3652149103
  0
LINE
  5
4CD
100
AcDbEntity
  8
ASSI
100
AcDbLine
 62
253
  6
CONTINUOUS
 10
-6.7247547642
 20
-4.2868720283
 11
-6.723507671
 21
-4.3652149103
  0
LINE
  5
4CE
100
AcDbEntity
  8
RACCORDO
100
AcDbLine
 62
253
  6
CONTINUOUS
 10
-6.723507671
 20
-4.3652149103
 11
-6.722538276
 21
-4.4411952902
  0
LINE
  5
4CF
100
AcDbEntity
  8
ASSI
100
AcDbLine
 62
253
  6
CONTINUOUS
 10
-6.723507671
 20
-4.3652149103
 11
-6.722538276
 21
-4.4411952902
  0
LWPOLYLINE
  5
4D0
100
AcDbEntity
  8
RACCORDO
100
AcDbPolyline
 62
253
  6
CONTINUOUS
 90
14
 70
0
 10
-6.722538276
 20
-4.4411952902
 10
-6.7218767517
 20
-4.5124630038
 10
-6.7216684045
 20
-4.5455965441
 10
-6.7215436857
 20
-4.5767381231
 10
-6.7215034222
 20
-4.605680163
 10
-6.7215481229
 20
-4.6322222684
 10
-6.7216776423
 20
-4.6561289323
 10
-6.7218906267
 20
-4.6771761965
 10
-6.7221851052
 20
-4.6952158275
 10
-6.7225584861
 20
-4.7101226023
 10
-6.7230066448
 20
-4.7217768722
 10
-6.723525078
 20
-4.7301191238
 10
-6.7241094572
 20
-4.7351291088
 10
-6.7247547642
 20
-4.7368034911
  0
LWPOLYLINE
  5
4D1
100
AcDbEntity
  8
ASSI
100
AcDbPolyline
 62
253
  6
CONTINUOUS
 90
14
 70
0
 10
-6.722538276
 20
-4.4411952902
 10
-6.7218767517
 20
-4.5124630038
 10
-6.7216684045
 20
-4.5455965441
 10
-6.7215436857
 20
-4.5767381231
 10
-6.7215034222
 20
-4.605680163
 10
-6.7215481229
 20
-4.6322222684
 10
-6.7216776423
 20
-4.6561289323
 10
-6.7218906267
 20
-4.6771761965
 10
-6.7221851052
 20
-4.6952158275
 10
-6.7225584861
 20
-4.7101226023
 10
-6.7230066448
 20
-4.7217768722
 10
-6.723525078
 20
-4.7301191238
 10
-6.7241094572
 20
-4.7351291088
 10
-6.7247547642
 20
-4.7368034911
  0
LINE
  5
4D2
100
AcDbEntity
  8
RACCORDO
100
AcDbLine
 62
253
  6
CONTINUOUS
 10
-6.7247547642
 20
-4.2868720283
 11
-6.7247547642
 21
6.9970542012
  0
LINE
  5
4D3
100
AcDbEntity
  8
ASSI
100
AcDbLine
 62
253
  6
CONTINUOUS
 10
-6.7247547642
 20
-4.2868720283
 11
-6.7247547642
 21
6.9970542012
  0
LINE
  5
4D4
100
AcDbEntity
  8
CURVE
100
AcDbLine
 62
253
  6
CONTINUOUS
 10
-20.4851213771
 20
-14.1667325421
 11
-19.6281090733
 21
-13.7381610943
  0
LINE
  5
4D5
100
AcDbEntity
  8
CURVE
100
AcDbLine
 62
253
  6
CONTINUOUS
 10
-20.4851213771
 20
-12.4524467511
 11
-18.9853498343
 21
-12.0238753481
  0
LWPOLYLINE
  5
4D6
100
AcDbEntity
  8
CURVE
100
AcDbPolyline
 62
253
  6
CONTINUOUS
 90
17
 70
0
 10
-19.7326083471
 20
13.8546704124
 10
-20.1694873791
 20
13.8118275236
 10
-20.5897258245
 20
13.6849307296
 10
-20.9773169315
 20
13.4788134897
 10
-21.3230588731
 20
13.1957838827
 10
-21.601689116
 20
12.8565222022
 10
-21.8091266531
 20
12.4695938994
 10
-21.9374702531
 20
12.049736953
 10
-21.9818450513
 20
11.6050910865
 10
-21.9390086877
 20
11.1681455056
 10
-21.8121312206
 20
10.7478430461
 10
-21.6060453734
 20
10.3601928981
 10
-21.3230588731
 20
10.0143982902
 10
-20.9838488639
 20
9.7357256042
 10
-20.5969794921
 20
9.5282564685
 10
-20.177186492
 20
9.3998933182
 10
-19.7326081505
 20
9.3555117605
  0
LINE
  5
4D7
100
AcDbEntity
  8
0
100
AcDbLine
 62
7
  6
CONTINUOUS
 10
-15.7826083471
 20
11.9905220865
 11
-15.5826083471
 21
11.9905220865
  0
LINE
  5
4D8
100
AcDbEntity
  8
ASSI
100
AcDbLine
 62
7
  6
CONTINUOUS
 10
-15.7826083471
 20
11.9905220865
 11
-15.5826083471
 21
11.9905220865
  0
LINE
  5
4D9
100
AcDbEntity
  8
CURVE
100
AcDbLine
 62
253
  6
CONTINUOUS
 10
-29.5266012732
 20
11.9908053075
 11
-30.3407629759
 21
11.9908053075
  0
LINE
  5
4DA
100
AcDbEntity
  8
0
100
AcDbLine
 62
7
  6
CONTINUOUS
 10
-15.7826083471
 20
12.2040100865
 11
-15.5826083471
 21
12.2040100865
  0
LINE
  5
4DB
100
AcDbEntity
  8
ASSI
100
AcDbLine
 62
7
  6
CONTINUOUS
 10
-15.7826083471
 20
12.2040100865
 11
-15.5826083471
 21
12.2040100865
  0
LINE
  5
4DC
100
AcDbEntity
  8
0
100
AcDbLine
 62
7
  6
CONTINUOUS
 10
-15.7826083471
 20
12.3755550865
 11
-15.5826083471
 21
12.3755550865
  0
LINE
  5
4DD
100
AcDbEntity
  8
ASSI
100
AcDbLine
 62
7
  6
CONTINUOUS
 10
-15.7826083471
 20
12.3755550865
 11
-15.5826083471
 21
12.3755550865
  0
LINE
  5
4DE
100
AcDbEntity
  8
0
100
AcDbLine
 62
7
  6
CONTINUOUS
 10
-15.7826083471
 20
12.7717990865
 11
-15.5826083471
 21
12.7717990865
  0
LINE
  5
4DF
100
AcDbEntity
  8
ASSI
100
AcDbLine
 62
7
  6
CONTINUOUS
 10
-15.7826083471
 20
12.7717990865
 11
-15.5826083471
 21
12.7717990865
  0
LINE
  5
4E0
100
AcDbEntity
  8
CURVE
100
AcDbLine
 62
253
  6
CONTINUOUS
 10
-30.3407629759
 20
12.9408053075
 11
-29.5266012732
 21
12.9408053075
  0
LINE
  5
4E1
100
AcDbEntity
  8
0
100
AcDbLine
 62
7
  6
CONTINUOUS
 10
-15.7826083471
 20
13.1641830865
 11
-15.5826083471
 21
13.1641830865
  0
LINE
  5
4E2
100
AcDbEntity
  8
ASSI
100
AcDbLine
 62
7
  6
CONTINUOUS
 10
-15.7826083471
 20
13.1641830865
 11
-15.5826083471
 21
13.1641830865
  0
LINE
  5
4E3
100
AcDbEntity
  8
0
100
AcDbLine
 62
7
  6
CONTINUOUS
 10
-15.7826083471
 20
13.5607550865
 11
-15.5826083471
 21
13.5607550865
  0
LINE
  5
4E4
100
AcDbEntity
  8
ASSI
100
AcDbLine
 62
7
  6
CONTINUOUS
 10
-15.7826083471
 20
13.5607550865
 11
-15.5826083471
 21
13.5607550865
  0
LINE
  5
4E5
100
AcDbEntity
  8
0
100
AcDbLine
 62
7
  6
CONTINUOUS
 10
-15.7826083471
 20
13.9531250865
 11
-15.5826083471
 21
13.9531250865
  0
LINE
  5
4E6
100
AcDbEntity
  8
ASSI
100
AcDbLine
 62
7
  6
CONTINUOUS
 10
-15.7826083471
 20
13.9531250865
 11
-15.5826083471
 21
13.9531250865
  0
LINE
  5
4E7
100
AcDbEntity
  8
CURVE
100
AcDbLine
 62
253
  6
CONTINUOUS
 10
-30.8835374067
 20
14.0265195285
 11
-28.9838267859
 21
14.0265195285
  0
LINE
  5
4E8
100
AcDbEntity
  8
0
100
AcDbLine
 62
7
  6
CONTINUOUS
 10
-15.7826083471
 20
14.1307820865
 11
-15.5826083471
 21
14.1307820865
  0
LINE
  5
4E9
100
AcDbEntity
  8
ASSI
100
AcDbLine
 62
7
  6
CONTINUOUS
 10
-15.7826083471
 20
14.1307820865
 11
-15.5826083471
 21
14.1307820865
  0
LINE
  5
4EA
100
AcDbEntity
  8
CURVE
100
AcDbLine
 62
253
  6
CONTINUOUS
 10
-31.8829283116
 20
14.158860803
 11
-33.9822883827
 21
14.158860803
  0
LINE
  5
4EB
100
AcDbEntity
  8
0
100
AcDbLine
 62
7
  6
CONTINUOUS
 10
-15.7826083471
 20
14.1930540865
 11
-15.5826083471
 21
14.1930540865
  0
LINE
  5
4EC
100
AcDbEntity
  8
ASSI
100
AcDbLine
 62
7
  6
CONTINUOUS
 10
-15.7826083471
 20
14.1930540865
 11
-15.5826083471
 21
14.1930540865
  0
LINE
  5
4ED
100
AcDbEntity
  8
CURVE
100
AcDbLine
 62
253
  6
CONTINUOUS
 10
-33.7470670276
 20
14.4382716528
 11
-33.0796122785
 21
14.4382716528
  0
LINE
  5
4EE
100
AcDbEntity
  8
CURVE
100
AcDbLine
 62
253
  6
CONTINUOUS
 10
-32.8443909234
 20
14.4382716528
 11
-32.1181496667
 21
14.4382716528
  0
LINE
  5
4EF
100
AcDbEntity
  8
CURVE
100
AcDbLine
 62
253
  6
CONTINUOUS
 10
-30.0693757606
 20
14.5693768655
 11
-30.8835374067
 21
14.5693768655
  0
LINE
  5
4F0
100
AcDbEntity
  8
RACCORDO
100
AcDbLine
 62
253
  6
CONTINUOUS
 10
-38.6389321425
 20
16.7798202168
 11
-38.4519301122
 21
16.7566647619
  0
LWPOLYLINE
  5
4F1
100
AcDbEntity
  8
RACCORDO
100
AcDbPolyline
 62
253
  6
CONTINUOUS
 90
4
 70
0
 10
-38.6957035492
 20
16.7871320807
 10
-38.692029499
 20
16.7865889536
 10
-38.6810930836
 20
16.7851568497
 10
-38.6389321425
 20
16.7798202168
  0
LINE
  5
4F2
100
AcDbEntity
  8
RACCORDO
100
AcDbLine
 62
7
  6
CONTINUOUS
 10
-6.2826083471
 20
-4.2868720283
 11
-6.2826083471
 21
6.9970542012
  0
LINE
  5
4F3
100
AcDbEntity
  8
ASSI
100
AcDbLine
 62
7
  6
CONTINUOUS
 10
-6.2826083471
 20
-4.2868720283
 11
-6.2826083471
 21
6.9970542012
  0
LINE
  5
4F4
100
AcDbEntity
  8
0
100
AcDbLine
 62
7
  6
CONTINUOUS
 10
-6.0826083471
 20
-2.3949089135
 11
-6.0826083471
 21
-3.8949089135
  0
LINE
  5
4F5
100
AcDbEntity
  8
ASSI
100
AcDbLine
 62
7
  6
CONTINUOUS
 10
-6.0826083471
 20
-2.3949089135
 11
-6.0826083471
 21
-3.8949089135
  0
LINE
  5
4F6
100
AcDbEntity
  8
RACCORDO
100
AcDbLine
 62
253
  6
CONTINUOUS
 10
-4.5669075603
 20
5.3651750183
 11
-4.5669075603
 21
-2.0549928454
  0
LINE
  5
4F7
100
AcDbEntity
  8
ASSI
100
AcDbLine
 62
253
  6
CONTINUOUS
 10
-4.5669075603
 20
5.3651750183
 11
-4.5669075603
 21
-2.0549928454
  0
LINE
  5
4F8
100
AcDbEntity
  8
RACCORDO
100
AcDbLine
 62
7
  6
CONTINUOUS
 10
-4.2826083471
 20
5.0655804432
 11
-4.2826083471
 21
-1.7553983204
  0
LINE
  5
4F9
100
AcDbEntity
  8
ASSI
100
AcDbLine
 62
7
  6
CONTINUOUS
 10
-4.2826083471
 20
5.0655804432
 11
-4.2826083471
 21
-1.7553983204
  0
LINE
  5
4FA
100
AcDbEntity
  8
CURVE
100
AcDbLine
 62
253
  6
CONTINUOUS
 10
-25.9074941272
 20
14.7226470865
 11
-25.1577225671
 21
14.7226470865
  0
LINE
  5
4FB
100
AcDbEntity
  8
0
100
AcDbLine
 62
7
  6
CONTINUOUS
 10
-15.7826083471
 20
14.7889670865
 11
-15.5826083471
 21
14.7889670865
  0
LINE
  5
4FC
100
AcDbEntity
  8
ASSI
100
AcDbLine
 62
7
  6
CONTINUOUS
 10
-15.7826083471
 20
14.7889670865
 11
-15.5826083471
 21
14.7889670865
  0
LINE
  5
4FD
100
AcDbEntity
  8
CURVE
100
AcDbLine
 62
253
  6
CONTINUOUS
 10
-28.0798722486
 20
15.1226470865
 11
-27.3292809382
 21
15.1226470865
  0
LINE
  5
4FE
100
AcDbEntity
  8
CURVE
100
AcDbLine
 62
253
  6
CONTINUOUS
 10
-23.7359357561
 20
15.1226470865
 11
-22.9853444457
 21
15.1226470865
  0
LINE
  5
4FF
100
AcDbEntity
  8
0
100
AcDbLine
 62
7
  6
CONTINUOUS
 10
-15.7826083471
 20
15.1726030865
 11
-15.5826083471
 21
15.1726030865
  0
LINE
  5
500
100
AcDbEntity
  8
ASSI
100
AcDbLine
 62
7
  6
CONTINUOUS
 10
-15.7826083471
 20
15.1726030865
 11
-15.5826083471
 21
15.1726030865
  0
LINE
  5
501
100
AcDbEntity
  8
CURVE
100
AcDbLine
 62
253
  6
CONTINUOUS
 10
-29.2552140296
 20
15.3836626445
 11
-29.7979884886
 21
15.3836626445
  0
LINE
  5
502
100
AcDbEntity
  8
CURVE
100
AcDbLine
 62
253
  6
CONTINUOUS
 10
-33.0796122785
 20
15.5294878345
 11
-32.8443909234
 21
15.5294878345
  0
LINE
  5
503
100
AcDbEntity
  8
CURVE
100
AcDbLine
 62
253
  6
CONTINUOUS
 10
-33.9822883827
 20
15.6088374228
 11
-33.7470670276
 21
15.6088374228
  0
LINE
  5
504
100
AcDbEntity
  8
CURVE
100
AcDbLine
 62
253
  6
CONTINUOUS
 10
-32.1181496667
 20
15.6177222545
 11
-31.8829283116
 21
15.6177222545
  0
LINE
  5
505
100
AcDbEntity
  8
0
100
AcDbLine
 62
7
  6
CONTINUOUS
 10
-15.7826083471
 20
15.7555230865
 11
-15.5826083471
 21
15.7555230865
  0
LINE
  5
506
100
AcDbEntity
  8
ASSI
100
AcDbLine
 62
7
  6
CONTINUOUS
 10
-15.7826083471
 20
15.7555230865
 11
-15.5826083471
 21
15.7555230865
  0
LINE
  5
507
100
AcDbEntity
  8
0
100
AcDbLine
 62
7
  6
CONTINUOUS
 10
-15.7826083471
 20
15.8719756892
 11
-15.5826083471
 21
15.8719756892
  0
LINE
  5
508
100
AcDbEntity
  8
ASSI
100
AcDbLine
 62
7
  6
CONTINUOUS
 10
-15.7826083471
 20
15.8719756892
 11
-15.5826083471
 21
15.8719756892
  0
LINE
  5
509
100
AcDbEntity
  8
RACCORDO
100
AcDbLine
 62
253
  6
CONTINUOUS
 10
-16.2247547642
 20
16.5983809047
 11
-15.7826083471
 21
16.5983809047
  0
LINE
  5
50A
100
AcDbEntity
  8
ASSI
100
AcDbLine
 62
253
  6
CONTINUOUS
 10
-16.2247547642
 20
16.5983809047
 11
-15.7826083471
 21
16.5983809047
  0
LINE
  5
50B
100
AcDbEntity
  8
0
100
AcDbLine
 62
253
  6
CONTINUOUS
 10
-15.7826083471
 20
16.850655549
 11
-15.5826083471
 21
16.850655549
  0
LINE
  5
50C
100
AcDbEntity
  8
ASSI
100
AcDbLine
 62
253
  6
CONTINUOUS
 10
-15.7826083471
 20
16.850655549
 11
-15.5826083471
 21
16.850655549
  0
LINE
  5
50D
100
AcDbEntity
  8
0
100
AcDbLine
 62
7
  6
CONTINUOUS
 10
-15.5826083471
 20
17.1604293866
 11
-15.7826083471
 21
17.1604293866
  0
LINE
  5
50E
100
AcDbEntity
  8
ASSI
100
AcDbLine
 62
7
  6
CONTINUOUS
 10
-15.5826083471
 20
17.1604293866
 11
-15.7826083471
 21
17.1604293866
  0
LINE
  5
50F
100
AcDbEntity
  8
0
100
AcDbLine
 62
7
  6
CONTINUOUS
 10
-15.7826083471
 20
17.2557046369
 11
-15.5826083471
 21
17.2557046369
  0
LINE
  5
510
100
AcDbEntity
  8
ASSI
100
AcDbLine
 62
7
  6
CONTINUOUS
 10
-15.7826083471
 20
17.2557046369
 11
-15.5826083471
 21
17.2557046369
  0
LINE
  5
511
100
AcDbEntity
  8
RACCORDO
100
AcDbLine
 62
253
  6
CONTINUOUS
 10
-16.2247547642
 20
16.5983809047
 11
-30.0786240008
 21
16.682830787
  0
LINE
  5
512
100
AcDbEntity
  8
ASSI
100
AcDbLine
 62
253
  6
CONTINUOUS
 10
-16.2247547642
 20
16.5983809047
 11
-30.0786240008
 21
16.682830787
  0
LINE
  5
513
100
AcDbEntity
  8
RACCORDO
100
AcDbLine
 62
253
  6
CONTINUOUS
 10
-30.0786240008
 20
16.682830787
 11
-36.9826083471
 21
16.7247502525
  0
LINE
  5
514
100
AcDbEntity
  8
ASSI
100
AcDbLine
 62
253
  6
CONTINUOUS
 10
-30.0786240008
 20
16.682830787
 11
-36.9826083471
 21
16.7247502525
  0
LINE
  5
515
100
AcDbEntity
  8
RACCORDO
100
AcDbLine
 62
253
  6
CONTINUOUS
 10
-36.9826083471
 20
16.7242589258
 11
-38.4519301129
 21
16.7566647448
  0
LWPOLYLINE
  5
516
100
AcDbEntity
  8
RACCORDO
100
AcDbPolyline
 62
253
  6
CONTINUOUS
 90
16
 70
0
 10
-6.7247547642
 20
7.4469856641
 10
-6.7239772559
 20
7.4445075252
 10
-6.723294275
 20
7.4371288934
 10
-6.7227133015
 20
7.4249305791
 10
-6.7222406982
 20
7.4080461778
 10
-6.721881641
 20
7.386660607
 10
-6.7216400623
 20
7.3610080806
 10
-6.7215186078
 20
7.3313695442
 10
-6.7215186078
 20
7.298069598
 10
-6.7216400623
 20
7.2614729419
 10
-6.721881641
 20
7.221980381
 10
-6.7222406982
 20
7.1800244366
 10
-6.7227133015
 20
7.1360646086
 10
-6.723294275
 20
7.0905823436
 10
-6.7239772559
 20
7.0440757616
 10
-6.7247547642
 20
6.9970542012
  0
LWPOLYLINE
  5
517
100
AcDbEntity
  8
ASSI
100
AcDbPolyline
 62
253
  6
CONTINUOUS
 90
16
 70
0
 10
-6.7247547642
 20
7.4469856641
 10
-6.7239772559
 20
7.4445075252
 10
-6.723294275
 20
7.4371288934
 10
-6.7227133015
 20
7.4249305791
 10
-6.7222406982
 20
7.4080461778
 10
-6.721881641
 20
7.386660607
 10
-6.7216400623
 20
7.3610080806
 10
-6.7215186078
 20
7.3313695442
 10
-6.7215186078
 20
7.298069598
 10
-6.7216400623
 20
7.2614729419
 10
-6.721881641
 20
7.221980381
 10
-6.7222406982
 20
7.1800244366
 10
-6.7227133015
 20
7.1360646086
 10
-6.723294275
 20
7.0905823436
 10
-6.7239772559
 20
7.0440757616
 10
-6.7247547642
 20
6.9970542012
  0
LINE
  5
518
100
AcDbEntity
  8
SUPERFICI
100
AcDbLine
 62
7
  6
CONTINUOUS
 10
-29.3386788488
 20
-21.0509794152
 11
-30.8331128632
 21
-21.5949089135
  0
LINE
  5
519
100
AcDbEntity
  8
ASSI
100
AcDbLine
 62
7
  6
CONTINUOUS
 10
-29.3386788488
 20
-21.0509794152
 11
-30.8331128632
 21
-21.5949089135
  0
LINE
  5
51A
100
AcDbEntity
  8
RACCORDO
100
AcDbLine
 62
253
  6
CONTINUOUS
 10
-38.5648196493
 20
17.8530959027
 11
-42.3735733318
 21
17.7866138599
  0
LINE
  5
51B
100
AcDbEntity
  8
RACCORDO
100
AcDbLine
 62
7
  6
CONTINUOUS
 10
-38.4417901107
 20
18.8550910865
 11
-42.4609152887
 21
18.7849369955
  0
LINE
  5
51C
100
AcDbEntity
  8
RACCORDO
100
AcDbLine
 62
253
  6
CONTINUOUS
 10
-16.2247547643
 20
17.8458159307
 11
-30.0786240211
 21
17.9251340324
  0
LINE
  5
51D
100
AcDbEntity
  8
ASSI
100
AcDbLine
 62
253
  6
CONTINUOUS
 10
-16.2247547643
 20
17.8458159307
 11
-30.0786240211
 21
17.9251340324
  0
LINE
  5
51E
100
AcDbEntity
  8
RACCORDO
100
AcDbLine
 62
253
  6
CONTINUOUS
 10
-30.0786240211
 20
17.9251340324
 11
-36.9826083471
 21
17.9645206556
  0
LINE
  5
51F
100
AcDbEntity
  8
ASSI
100
AcDbLine
 62
253
  6
CONTINUOUS
 10
-30.0786240211
 20
17.9251340324
 11
-36.9826083471
 21
17.9645206556
  0
LINE
  5
520
100
AcDbEntity
  8
RACCORDO
100
AcDbLine
 62
7
  6
CONTINUOUS
 10
-16.2247547642
 20
19.4716758199
 11
-26.7501080102
 21
19.6553965442
  0
LINE
  5
521
100
AcDbEntity
  8
ASSI
100
AcDbLine
 62
7
  6
CONTINUOUS
 10
-16.2247547642
 20
19.4716758199
 11
-26.7501080102
 21
19.6553965442
  0
LINE
  5
522
100
AcDbEntity
  8
RACCORDO
100
AcDbLine
 62
253
  6
CONTINUOUS
 10
-16.2247547642
 20
19.3265226663
 11
-26.9143924579
 21
19.5141003275
  0
LINE
  5
523
100
AcDbEntity
  8
ASSI
100
AcDbLine
 62
253
  6
CONTINUOUS
 10
-16.2247547642
 20
19.3265226663
 11
-26.9143924579
 21
19.5141003275
  0
LINE
  5
524
100
AcDbEntity
  8
RACCORDO
100
AcDbLine
 62
253
  6
CONTINUOUS
 10
-36.9826083471
 20
17.9650252776
 11
-38.3143733139
 21
17.9967250207
  0
LWPOLYLINE
  5
525
100
AcDbEntity
  8
RACCORDO
100
AcDbPolyline
 62
253
  6
CONTINUOUS
 90
16
 70
0
 10
-16.2247547643
 20
17.8458159306
 10
-16.1782868711
 20
17.8438058903
 10
-16.1324009954
 20
17.8388101702
 10
-16.0875887725
 20
17.8308822961
 10
-16.0443303345
 20
17.8201072096
 10
-16.0030891655
 20
17.8066003586
 10
-15.9643071364
 20
17.7905064597
 10
-15.9283997696
 20
17.7719979482
 10
-15.8957517877
 20
17.7512731299
 10
-15.866712991
 20
17.7285540573
 10
-15.84159451
 20
17.7040841496
 10
-15.8206654714
 20
17.6781255849
 10
-15.8041501153
 20
17.6509564915
 10
-15.7922253917
 20
17.6228679674
 10
-15.7850190655
 20
17.5941609616
 10
-15.7826083471
 20
17.5651430498
  0
LWPOLYLINE
  5
526
100
AcDbEntity
  8
ASSI
100
AcDbPolyline
 62
253
  6
CONTINUOUS
 90
16
 70
0
 10
-16.2247547643
 20
17.8458159306
 10
-16.1782868711
 20
17.8438058903
 10
-16.1324009954
 20
17.8388101702
 10
-16.0875887725
 20
17.8308822961
 10
-16.0443303345
 20
17.8201072096
 10
-16.0030891655
 20
17.8066003586
 10
-15.9643071364
 20
17.7905064597
 10
-15.9283997696
 20
17.7719979482
 10
-15.8957517877
 20
17.7512731299
 10
-15.866712991
 20
17.7285540573
 10
-15.84159451
 20
17.7040841496
 10
-15.8206654714
 20
17.6781255849
 10
-15.8041501153
 20
17.6509564915
 10
-15.7922253917
 20
17.6228679674
 10
-15.7850190655
 20
17.5941609616
 10
-15.7826083471
 20
17.5651430498
  0
LWPOLYLINE
  5
527
100
AcDbEntity
  8
RACCORDO
100
AcDbPolyline
 62
253
  6
CONTINUOUS
 90
16
 70
0
 10
-16.2247547642
 20
19.3265226173
 10
-16.1781285217
 20
19.3244193495
 10
-16.1323598602
 20
19.3189839492
 10
-16.0877705057
 20
19.310348297
 10
-16.0445858598
 20
19.2986910919
 10
-16.0032490684
 20
19.2840638402
 10
-15.9644201417
 20
19.266519765
 10
-15.9285322558
 20
19.2464240463
 10
-15.8958478486
 20
19.2239926938
 10
-15.8667649548
 20
19.1992389521
 10
-15.8416395812
 20
19.1726302438
 10
-15.8207046699
 20
19.1445464898
 10
-15.8041637644
 20
19.114956614
 10
-15.7922167422
 20
19.0841931026
 10
-15.7850112091
 20
19.052944046
 10
-15.7826083471
 20
19.0217443571
  0
LWPOLYLINE
  5
528
100
AcDbEntity
  8
ASSI
100
AcDbPolyline
 62
253
  6
CONTINUOUS
 90
16
 70
0
 10
-16.2247547642
 20
19.3265226173
 10
-16.1781285217
 20
19.3244193495
 10
-16.1323598602
 20
19.3189839492
 10
-16.0877705057
 20
19.310348297
 10
-16.0445858598
 20
19.2986910919
 10
-16.0032490684
 20
19.2840638402
 10
-15.9644201417
 20
19.266519765
 10
-15.9285322558
 20
19.2464240463
 10
-15.8958478486
 20
19.2239926938
 10
-15.8667649548
 20
19.1992389521
 10
-15.8416395812
 20
19.1726302438
 10
-15.8207046699
 20
19.1445464898
 10
-15.8041637644
 20
19.114956614
 10
-15.7922167422
 20
19.0841931026
 10
-15.7850112091
 20
19.052944046
 10
-15.7826083471
 20
19.0217443571
  0
LINE
  5
529
100
AcDbEntity
  8
SUPERFICI
100
AcDbLine
 62
7
  6
CONTINUOUS
 10
-29.3386788488
 20
22.2611615881
 11
-30.8331128632
 21
22.8050910865
  0
LINE
  5
52A
100
AcDbEntity
  8
ASSI
100
AcDbLine
 62
7
  6
CONTINUOUS
 10
-29.3386788488
 20
22.2611615881
 11
-30.8331128632
 21
22.8050910865
  0
LWPOLYLINE
  5
52B
100
AcDbEntity
  8
RACCORDO
100
AcDbPolyline
 62
7
  6
CONTINUOUS
 90
10
 70
0
 10
-26.7501080102
 20
19.6553965442
 10
-26.7647524342
 20
19.6534844509
 10
-26.7808499924
 20
19.6478905698
 10
-26.7981242645
 20
19.638657021
 10
-26.8161694778
 20
19.6257726159
 10
-26.8348261739
 20
19.6094218186
 10
-26.8542015481
 20
19.5899435978
 10
-26.8741607592
 20
19.5675141259
 10
-26.8943117712
 20
19.5421839758
 10
-26.9143924572
 20
19.5141003582
  0
LINE
  5
52C
100
AcDbEntity
  8
RACCORDO
100
AcDbLine
 62
253
  6
CONTINUOUS
 10
-49.2563109258
 20
20.9932795
 11
-49.502354505
 21
20.9820806987
  0
LINE
  5
52D
100
AcDbEntity
  8
ASSI
100
AcDbLine
 62
253
  6
CONTINUOUS
 10
-49.2563109258
 20
20.9932795
 11
-49.5804654592
 21
20.9785509396
  0
LINE
  5
52E
100
AcDbEntity
  8
RACCORDO
100
AcDbLine
 62
253
  6
CONTINUOUS
 10
-49.502354505
 20
20.9820806987
 11
-49.6816148773
 21
20.9740172277
  0
LINE
  5
52F
100
AcDbEntity
  8
ASSI
100
AcDbLine
 62
253
  6
CONTINUOUS
 10
-49.5804654592
 20
20.9785509396
 11
-49.7211635446
 21
20.9722732561
  0
LWPOLYLINE
  5
530
100
AcDbEntity
  8
ASSI
100
AcDbPolyline
 62
253
  6
CONTINUOUS
 90
4
 70
0
 10
-49.7211635446
 20
20.9722732561
 10
-49.7429150511
 20
20.9713473405
 10
-49.7460492164
 20
20.9712274293
 10
-49.747096114
 20
20.9712030496
  0
LWPOLYLINE
  5
531
100
AcDbEntity
  8
RACCORDO
100
AcDbPolyline
 62
253
  6
CONTINUOUS
 90
3
 70
0
 10
-49.6816148773
 20
20.9740172277
 10
-49.7444185681
 20
20.9712879344
 10
-49.747096114
 20
20.9712030496
  0
LINE
  5
532
100
AcDbEntity
  8
DRAFT
100
AcDbLine
 62
7
  6
CONTINUOUS
 10
-38.5895894834
 20
22.3119512562
 11
-38.0190798051
 21
22.3219095397
  0
LINE
  5
533
100
AcDbEntity
  8
SUPERFICI
100
AcDbLine
 62
7
  6
CONTINUOUS
 10
-30.8331128632
 20
22.8050910865
 11
-31.3826083471
 21
22.8050910865
  0
LINE
  5
534
100
AcDbEntity
  8
ASSI
100
AcDbLine
 62
7
  6
CONTINUOUS
 10
-30.8331128632
 20
22.8050910865
 11
-31.3826083471
 21
22.8050910865
  0
LINE
  5
535
100
AcDbEntity
  8
DRAFT
100
AcDbLine
 62
7
  6
CONTINUOUS
 10
-38.5895894829
 20
21.2982309167
 11
-38.139815533
 21
21.2903800832
  0
LINE
  5
536
100
AcDbEntity
  8
0
100
AcDbLine
 62
7
  6
CONTINUOUS
 10
-32.9826083471
 20
21.8050910865
 11
-31.3826083471
 21
21.7771629826
  0
LINE
  5
537
100
AcDbEntity
  8
RACCORDO
100
AcDbLine
 62
7
  6
CONTINUOUS
 10
-32.9826083471
 20
21.8050910865
 11
-28.9915553147
 21
21.7354269966
  0
LINE
  5
538
100
AcDbEntity
  8
ASSI
100
AcDbLine
 62
7
  6
CONTINUOUS
 10
-32.9826083471
 20
21.8050910865
 11
-28.9915553147
 21
21.7354269966
  0
LINE
  5
539
100
AcDbEntity
  8
RACCORDO
100
AcDbLine
 62
253
  6
CONTINUOUS
 10
-32.9826083471
 20
21.6948985007
 11
-28.991615955
 21
21.6249553744
  0
LINE
  5
53A
100
AcDbEntity
  8
ASSI
100
AcDbLine
 62
253
  6
CONTINUOUS
 10
-32.9826083471
 20
21.6948985007
 11
-28.991615955
 21
21.6249553744
  0
LWPOLYLINE
  5
53B
100
AcDbEntity
  8
ASSI
100
AcDbPolyline
 62
253
  6
CONTINUOUS
 90
25
 70
0
 10
-48.8134343331
 20
21.5129024175
 10
-48.8441553282
 20
21.5084586331
 10
-48.874438788
 20
21.5021180566
 10
-48.9042847125
 20
21.4938806878
 10
-48.9338482286
 20
21.4836993389
 10
-48.9629742094
 20
21.4716211979
 10
-48.9911972743
 20
21.4577878285
 10
-49.018481458
 20
21.442166242
 10
-49.0448627257
 20
21.4247894272
 10
-49.0699835927
 20
21.4058979139
 10
-49.0938033264
 20
21.3854916277
 10
-49.1163626593
 20
21.3635706431
 10
-49.1374263045
 20
21.3403757135
 10
-49.1569834642
 20
21.3158958754
 10
-49.1750449362
 20
21.2901420923
 10
-49.1914078265
 20
21.263388008
 10
-49.2060629013
 20
21.2355939481
 10
-49.2190193944
 20
21.2067995871
 10
-49.2301021135
 20
21.1773975915
 10
-49.2392744336
 20
21.1473607441
 10
-49.2465729797
 20
21.1167162623
 10
-49.2519324338
 20
21.085938465
 10
-49.2553310232
 20
21.0551854587
 10
-49.2567905205
 20
21.024299137
 10
-49.2563109258
 20
20.9932795
  0
LINE
  5
53C
100
AcDbEntity
  8
ASSI
100
AcDbLine
 62
253
  6
CONTINUOUS
 10
-42.7599231853
 20
22.2026128925
 11
-48.8134343331
 21
21.5129024175
  0
LINE
  5
53D
100
AcDbEntity
  8
RACCORDO
100
AcDbLine
 62
253
  6
CONTINUOUS
 10
-42.7599231853
 20
22.2026128925
 11
-48.8134343331
 21
21.5129024175
  0
LINE
  5
53E
100
AcDbEntity
  8
ASSI
100
AcDbLine
 62
7
  6
CONTINUOUS
 10
-42.8034960794
 20
22.7006533515
 11
-48.861342944
 21
22.0104488839
  0
LINE
  5
53F
100
AcDbEntity
  8
RACCORDO
100
AcDbLine
 62
7
  6
CONTINUOUS
 10
-42.8034960794
 20
22.7006533515
 11
-48.861342944
 21
22.0104488839
  0
LINE
  5
540
100
AcDbEntity
  8
RACCORDO
100
AcDbLine
 62
253
  6
CONTINUOUS
 10
-37.722191401
 20
22.8631074107
 11
-36.9826083471
 21
22.9025742558
  0
LINE
  5
541
100
AcDbEntity
  8
RACCORDO
100
AcDbLine
 62
7
  6
CONTINUOUS
 10
-37.7288970558
 20
22.9659797525
 11
-36.9826083471
 21
23.0050910865
  0
LINE
  5
542
100
AcDbEntity
  8
RACCORDO
100
AcDbLine
 62
253
  6
CONTINUOUS
 10
-37.7628337364
 20
22.8622877148
 11
-37.7221911153
 21
22.8631093601
  0
LWPOLYLINE
  5
543
100
AcDbEntity
  8
SUPERFICI
100
AcDbPolyline
 62
7
  6
CONTINUOUS
 90
10
 70
0
 10
-32.9826083471
 20
23.2349576891
 10
-33.4216656903
 20
23.2381693757
 10
-33.862072349
 20
23.2415123669
 10
-34.3038283231
 20
23.2449819039
 10
-34.7469369997
 20
23.2485712924
 10
-35.1913949917
 20
23.2522776488
 10
-35.6371921385
 20
23.2561026855
 10
-36.0843250533
 20
23.2600446687
 10
-36.5327971228
 20
23.2640976399
 10
-36.9826083471
 20
23.2682577084
  0
LWPOLYLINE
  5
544
100
AcDbEntity
  8
ASSI
100
AcDbPolyline
 62
7
  6
CONTINUOUS
 90
10
 70
0
 10
-32.9826083471
 20
23.2349576891
 10
-33.4216656903
 20
23.2381693757
 10
-33.862072349
 20
23.2415123669
 10
-34.3038283231
 20
23.2449819039
 10
-34.7469369997
 20
23.2485712924
 10
-35.1913949917
 20
23.2522776488
 10
-35.6371921385
 20
23.2561026855
 10
-36.0843250533
 20
23.2600446687
 10
-36.5327971228
 20
23.2640976399
 10
-36.9826083471
 20
23.2682577084
  0
LINE
  5
545
100
AcDbEntity
  8
SUPERFICI
100
AcDbLine
 62
7
  6
CONTINUOUS
 10
-36.9826083471
 20
24.1050910865
 11
-32.9826083471
 21
24.0352708267
  0
LINE
  5
546
100
AcDbEntity
  8
ASSI
100
AcDbLine
 62
7
  6
CONTINUOUS
 10
-36.9826083471
 20
24.1050910865
 11
-32.9826083471
 21
24.0352708267
  0
LINE
  5
547
100
AcDbEntity
  8
SUPERFICI
100
AcDbLine
 62
253
  6
CONTINUOUS
 10
-36.9826083471
 20
23.9384507439
 11
-32.9826083471
 21
23.8681984483
  0
LINE
  5
548
100
AcDbEntity
  8
ASSI
100
AcDbLine
 62
253
  6
CONTINUOUS
 10
-36.9826083471
 20
23.9384507439
 11
-32.9826083471
 21
23.8681984483
  0
LWPOLYLINE
  5
549
100
AcDbEntity
  8
SUPERFICI
100
AcDbPolyline
 62
7
  6
CONTINUOUS
 90
10
 70
0
 10
-32.9826083471
 20
23.7049815613
 10
-33.4216656903
 20
23.7141817521
 10
-33.862072349
 20
23.7233074073
 10
-34.3038283231
 20
23.7323555913
 10
-34.7469369997
 20
23.7413187025
 10
-35.1913949917
 20
23.7501989116
 10
-35.6371921385
 20
23.7590080902
 10
-36.0843250533
 20
23.7677485599
 10
-36.5327971228
 20
23.7764131622
 10
-36.9826083471
 20
23.7849996482
  0
LWPOLYLINE
  5
54A
100
AcDbEntity
  8
ASSI
100
AcDbPolyline
 62
7
  6
CONTINUOUS
 90
10
 70
0
 10
-32.9826083471
 20
23.7049815613
 10
-33.4216656903
 20
23.7141817521
 10
-33.862072349
 20
23.7233074073
 10
-34.3038283231
 20
23.7323555913
 10
-34.7469369997
 20
23.7413187025
 10
-35.1913949917
 20
23.7501989116
 10
-35.6371921385
 20
23.7590080902
 10
-36.0843250533
 20
23.7677485599
 10
-36.5327971228
 20
23.7764131622
 10
-36.9826083471
 20
23.7849996482
  0
LWPOLYLINE
  5
54B
100
AcDbEntity
  8
RACCORDO
100
AcDbPolyline
 62
253
  6
CONTINUOUS
 90
19
 70
0
 10
-48.8134343331
 20
21.5129024175
 10
-48.854946372
 20
21.5063592591
 10
-48.8952812484
 20
21.496561126
 10
-48.9344389624
 20
21.4835080185
 10
-48.9726943309
 20
21.4670609074
 10
-49.009772537
 20
21.4473588217
 10
-49.0448491299
 20
21.4248188483
 10
-49.0778638462
 20
21.3993844465
 10
-49.1088769493
 20
21.3711121569
 10
-49.1372447793
 20
21.3405886882
 10
-49.1629092449
 20
21.3077716181
 10
-49.1859284374
 20
21.2727033688
 10
-49.2058329702
 20
21.236097916
 10
-49.2225627744
 20
21.1979092653
 10
-49.2361779189
 20
21.158183411
 10
-49.2463892243
 20
21.1177723115
 10
-49.2531002973
 20
21.0769599529
 10
-49.2564075312
 20
21.0354623491
 10
-49.2563109258
 20
20.9932795
  0
LWPOLYLINE
  5
54C
100
AcDbEntity
  8
RACCORDO
100
AcDbPolyline
 62
7
  6
CONTINUOUS
 90
4
 70
0
 10
24.5560564241
 20
22.9126816395
 10
24.5294245033
 20
22.8982787942
 10
24.5029323371
 20
22.8817814264
 10
24.4767728504
 20
22.8631072927
  0
LWPOLYLINE
  5
54D
100
AcDbEntity
  8
RACCORDO
100
AcDbPolyline
 62
7
  6
CONTINUOUS
 90
3
 70
0
 10
24.5742684279
 20
22.9334138158
 10
24.6216241472
 20
22.9585809377
 10
24.6712799163
 20
22.9783963768
  0
LWPOLYLINE
  5
54E
100
AcDbEntity
  8
RACCORDO
100
AcDbPolyline
 62
7
  6
CONTINUOUS
 90
3
 70
0
 10
35.757592983
 20
-21.7682142039
 10
35.7058383471
 20
-21.7825710417
 10
35.6519848443
 20
-21.7914692782
  0
LINE
  5
54F
100
AcDbEntity
  8
RACCORDO
100
AcDbLine
 62
7
  6
CONTINUOUS
 10
35.6519848443
 20
-21.7914692782
 11
35.5960324748
 21
-21.7949089135
  0
LWPOLYLINE
  5
550
100
AcDbEntity
  8
ASSI
100
AcDbPolyline
 62
7
  6
CONTINUOUS
 90
28
 70
0
 10
40.6696103035
 20
-21.3065279743
 10
40.6939984971
 20
-21.3054183877
 10
40.72080808
 20
-21.302737982
 10
40.7471348387
 20
-21.29867235
 10
40.7729114545
 20
-21.2932810886
 10
40.7980763454
 20
-21.2866261909
 10
40.8225760561
 20
-21.2787707272
 10
40.8463599355
 20
-21.2697798272
 10
40.8693828278
 20
-21.2597197515
 10
40.8916073658
 20
-21.2486562141
 10
40.9129992817
 20
-21.236655929
 10
40.9335280054
 20
-21.2237864035
 10
40.9531690119
 20
-21.2101142283
 10
40.9719017064
 20
-21.1957059214
 10
40.9897102701
 20
-21.1806270091
 10
41.0065839343
 20
-21.1649411991
 10
41.0225150705
 20
-21.1487116038
 10
41.0374996757
 20
-21.1320001196
 10
41.0515381264
 20
-21.1148661237
 10
41.0646391081
 20
-21.0973600735
 10
41.0768027359
 20
-21.0795455406
 10
41.0880245198
 20
-21.061500076
 10
41.0983317603
 20
-21.0432546658
 10
41.1077284155
 20
-21.0248814734
 10
41.1161940911
 20
-21.0065216676
 10
41.1237731911
 20
-20.9881975056
 10
41.1304894984
 20
-20.9699784668
 10
41.1357476934
 20
-20.9538561922
  0
LWPOLYLINE
  5
551
100
AcDbEntity
  8
RACCORDO
100
AcDbPolyline
 62
7
  6
CONTINUOUS
 90
10
 70
0
 10
35.6474094063
 20
-21.7557975796
 10
35.6702498098
 20
-21.7553154944
 10
35.6938009757
 20
-21.7537183974
 10
35.718003143
 20
-21.7509034391
 10
35.7427595836
 20
-21.7467733078
 10
35.7680163208
 20
-21.7412237901
 10
35.7937586408
 20
-21.7341313984
 10
35.8198758775
 20
-21.7253884567
 10
35.8462478242
 20
-21.7148904272
 10
35.8728164752
 20
-21.7024994665
  0
LINE
  5
552
100
AcDbEntity
  8
ASSI
100
AcDbLine
 62
7
  6
CONTINUOUS
 10
26.5395789715
 20
-22.8949089135
 11
33.8892939278
 21
-22.8949089135
  0
LINE
  5
553
100
AcDbEntity
  8
SUPERFICI
100
AcDbLine
 62
7
  6
CONTINUOUS
 10
26.5395789715
 20
-22.8949089135
 11
33.8892939278
 21
-22.8949089135
  0
LINE
  5
554
100
AcDbEntity
  8
ASSI
100
AcDbLine
 62
7
  6
CONTINUOUS
 10
33.6842567094
 20
-21.8949089135
 11
26.74461619
 21
-21.8949089135
  0
LINE
  5
555
100
AcDbEntity
  8
SUPERFICI
100
AcDbLine
 62
7
  6
CONTINUOUS
 10
33.6842567094
 20
-21.8949089135
 11
26.74461619
 21
-21.8949089135
  0
LINE
  5
556
100
AcDbEntity
  8
RACCORDO
100
AcDbLine
 62
7
  6
CONTINUOUS
 10
35.5960324748
 20
-21.7949089135
 11
33.5144364497
 21
-21.7949089135
  0
LINE
  5
557
100
AcDbEntity
  8
RACCORDO
100
AcDbLine
 62
7
  6
CONTINUOUS
 10
26.9144364497
 20
-21.7949089135
 11
24.8328404246
 21
-21.7949089135
  0
LINE
  5
558
100
AcDbEntity
  8
ASSI
100
AcDbLine
 62
7
  6
CONTINUOUS
 10
27.6144364497
 20
-21.7949089135
 11
28.2144364497
 21
-21.7949089135
  0
LINE
  5
559
100
AcDbEntity
  8
ASSI
100
AcDbLine
 62
7
  6
CONTINUOUS
 10
32.2144364497
 20
-21.7949089135
 11
32.8144364497
 21
-21.7949089135
  0
LINE
  5
55A
100
AcDbEntity
  8
RACCORDO
100
AcDbLine
 62
253
  6
CONTINUOUS
 10
24.781463493
 20
-21.7557975796
 11
35.6474094063
 21
-21.7557975796
  0
LWPOLYLINE
  5
55B
100
AcDbEntity
  8
ASSI
100
AcDbPolyline
 62
7
  6
CONTINUOUS
 90
10
 70
0
 10
26.5395789715
 20
-22.8949089135
 10
26.4741060502
 20
-22.8927183016
 10
26.409452208
 20
-22.8863871115
 10
26.3456174451
 20
-22.8759153435
 10
26.2823393818
 20
-22.8612238872
 10
26.2198803977
 20
-22.8423918529
 10
26.1590276316
 20
-22.819656571
 10
26.100043463
 20
-22.7930971519
 10
26.0426655125
 20
-22.7626344852
 10
25.9868937799
 20
-22.728268571
  0
LWPOLYLINE
  5
55C
100
AcDbEntity
  8
SUPERFICI
100
AcDbPolyline
 62
7
  6
CONTINUOUS
 90
10
 70
0
 10
26.5395789715
 20
-22.8949089135
 10
26.4741060502
 20
-22.8927183016
 10
26.409452208
 20
-22.8863871115
 10
26.3456174451
 20
-22.8759153435
 10
26.2823393818
 20
-22.8612238872
 10
26.2198803977
 20
-22.8423918529
 10
26.1590276316
 20
-22.819656571
 10
26.100043463
 20
-22.7930971519
 10
26.0426655125
 20
-22.7626344852
 10
25.9868937799
 20
-22.728268571
  0
LWPOLYLINE
  5
55D
100
AcDbEntity
  8
RACCORDO
100
AcDbPolyline
 62
7
  6
CONTINUOUS
 90
6
 70
0
 10
24.8328404246
 20
-21.7949089135
 10
24.776888055
 20
-21.7914692782
 10
24.7230345523
 20
-21.7825710417
 10
24.6712799163
 20
-21.7682142039
 10
24.6216241472
 20
-21.7483987648
 10
24.5740672449
 20
-21.7231247244
  0
LWPOLYLINE
  5
55E
100
AcDbEntity
  8
RACCORDO
100
AcDbPolyline
 62
253
  6
CONTINUOUS
 90
6
 70
0
 10
24.7072890358
 20
-21.5253384807
 10
24.7209810681
 20
-21.5292079283
 10
24.7352475998
 20
-21.5322918939
 10
24.7500783982
 20
-21.5345159219
 10
24.765483696
 20
-21.5359544678
 10
24.781463493
 20
-21.5366075318
  0
LWPOLYLINE
  5
55F
100
AcDbEntity
  8
RACCORDO
100
AcDbPolyline
 62
7
  6
CONTINUOUS
 90
8
 70
0
 10
24.5825995008
 20
-21.7148795543
 10
24.6074297829
 20
-21.7248125717
 10
24.6334867376
 20
-21.7336328113
 10
24.6607394375
 20
-21.7411950271
 10
24.6892274263
 20
-21.7473633867
 10
24.7189173373
 20
-21.7519712349
 10
24.7496967276
 20
-21.7548399164
 10
24.781463493
 20
-21.7557975796
  0
LINE
  5
560
100
AcDbEntity
  8
RACCORDO
100
AcDbLine
 62
7
  6
CONTINUOUS
 10
24.5286092094
 20
22.9025742558
 11
24.5742684279
 21
22.9334138158
  0
LINE
  5
561
100
AcDbEntity
  8
RACCORDO
100
AcDbLine
 62
253
  6
CONTINUOUS
 10
24.4812119029
 20
-21.6521055419
 11
24.4767761395
 21
-21.6529271872
  0
LWPOLYLINE
  5
562
100
AcDbEntity
  8
RACCORDO
100
AcDbPolyline
 62
7
  6
CONTINUOUS
 90
25
 70
0
 10
40.6576612618
 20
-21.3067399276
 10
40.6754044019
 20
-21.306425198
 10
40.7063408036
 20
-21.3043655906
 10
40.736698514
 20
-21.3004559543
 10
40.7663732131
 20
-21.2947830586
 10
40.7952805943
 20
-21.287435111
 10
40.8233350369
 20
-21.2785049735
 10
40.8504597426
 20
-21.2680884787
 10
40.8765964829
 20
-21.2562789793
 10
40.901686364
 20
-21.2431738512
 10
40.9256780584
 20
-21.2288717149
 10
40.9485360837
 20
-21.2134660579
 10
40.9702248202
 20
-21.1970539766
 10
40.9907164536
 20
-21.1797315198
 10
41.0099968684
 20
-21.1615868909
 10
41.0280554634
 20
-21.1427072615
 10
41.0448788066
 20
-21.1231869156
 10
41.0604585867
 20
-21.1031212145
 10
41.0748256456
 20
-21.0825557095
 10
41.0879593163
 20
-21.0616100272
 10
41.0998031319
 20
-21.0404975229
 10
41.1104082039
 20
-21.0192766769
 10
41.1198034072
 20
-20.9980498455
 10
41.1279570161
 20
-20.9771055411
 10
41.1349963555
 20
-20.9563654933
  0
LWPOLYLINE
  5
563
100
AcDbEntity
  8
RACCORDO
100
AcDbPolyline
 62
253
  6
CONTINUOUS
 90
13
 70
0
 10
35.6474094063
 20
-21.5366075318
 10
35.6589291689
 20
-21.5364289715
 10
35.6707371927
 20
-21.5355868659
 10
35.6828334777
 20
-21.5340812149
 10
35.6952516273
 20
-21.5319671904
 10
35.7079580382
 20
-21.5291896205
 10
35.7208519005
 20
-21.5255829896
 10
35.733956222
 20
-21.5211491403
 10
35.747247995
 20
-21.5158862299
 10
35.760557386
 20
-21.5096232145
 10
35.7738277837
 20
-21.5023030795
 10
35.7871157994
 20
-21.4939828395
 10
35.800421433
 20
-21.4846624944
  0
LINE
  5
564
100
AcDbEntity
  8
RACCORDO
100
AcDbLine
 62
253
  6
CONTINUOUS
 10
24.781463493
 20
-21.5366075318
 11
35.6474094063
 21
-21.5366075318
  0
LINE
  5
565
100
AcDbEntity
  8
ASSI
100
AcDbLine
 62
7
  6
CONTINUOUS
 10
40.6576717534
 20
-21.3067549843
 11
19.7712011179
 21
-21.3067549843
  0
LINE
  5
566
100
AcDbEntity
  8
RACCORDO
100
AcDbLine
 62
7
  6
CONTINUOUS
 10
40.6576753653
 20
-21.3067549843
 11
19.7711975698
 21
-21.3067549843
  0
LINE
  5
567
100
AcDbEntity
  8
ASSI
100
AcDbLine
 62
253
  6
CONTINUOUS
 10
40.6497094641
 20
-20.4352418535
 11
19.7791634353
 21
-20.4352418535
  0
LINE
  5
568
100
AcDbEntity
  8
RACCORDO
100
AcDbLine
 62
253
  6
CONTINUOUS
 10
40.6497094641
 20
-20.4352418535
 11
19.7791634353
 21
-20.4352418535
  0
LWPOLYLINE
  5
569
100
AcDbEntity
  8
ASSI
100
AcDbPolyline
 62
253
  6
CONTINUOUS
 90
25
 70
0
 10
19.7791634353
 20
-20.4352388365
 10
19.7468257117
 20
-20.4350810694
 10
19.7146233535
 20
-20.4346549615
 10
19.6826912026
 20
-20.433962296
 10
19.6511629851
 20
-20.4330059727
 10
19.6201707069
 20
-20.4317899949
 10
19.5898441033
 20
-20.4303194512
 10
19.5603101643
 20
-20.428600497
 10
19.5316925714
 20
-20.4266403284
 10
19.5041111405
 20
-20.4244471493
 10
19.4776813662
 20
-20.4220301399
 10
19.4525139496
 20
-20.4193994199
 10
19.4287143066
 20
-20.4165660049
 10
19.4063821066
 20
-20.4135417573
 10
19.3856108869
 20
-20.4103393402
 10
19.3664876675
 20
-20.406972167
 10
19.3490925377
 20
-20.4034543372
 10
19.333498351
 20
-20.3998005813
 10
19.3197704366
 20
-20.3960262043
 10
19.3079662836
 20
-20.3921470114
 10
19.2981353274
 20
-20.3881792474
 10
19.2903187502
 20
-20.3841395343
 10
19.2845492804
 20
-20.3800447914
 10
19.2808510665
 20
-20.3759121639
 10
19.2792395879
 20
-20.3717589576
  0
LWPOLYLINE
  5
56A
100
AcDbEntity
  8
RACCORDO
100
AcDbPolyline
 62
253
  6
CONTINUOUS
 90
16
 70
0
 10
19.7791634353
 20
-20.4352388365
 10
19.7274781831
 20
-20.434857499
 10
19.6763466927
 20
-20.4337919473
 10
19.6263167955
 20
-20.4320535981
 10
19.5779245199
 20
-20.4296610763
 10
19.5316883487
 20
-20.4266400159
 10
19.488103664
 20
-20.4230227852
 10
19.4476374392
 20
-20.4188481396
 10
19.4107232361
 20
-20.4141608072
 10
19.3777565595
 20
-20.4090110088
 10
19.3490906198
 20
-20.4034539201
 10
19.3250325487
 20
-20.3975490808
 10
19.3058401082
 20
-20.3913597563
 10
19.2917189294
 20
-20.38495226
 10
19.2828203089
 20
-20.3783952428
 10
19.2792395879
 20
-20.3717589576
  0
LINE
  5
56B
100
AcDbEntity
  8
ASSI
100
AcDbLine
 62
7
  6
CONTINUOUS
 10
19.7635139974
 20
-21.3065788166
 11
19.7712112533
 21
-21.306745599
  0
LINE
  5
56C
100
AcDbEntity
  8
RACCORDO
100
AcDbLine
 62
253
  6
CONTINUOUS
 10
35.9476576109
 20
-21.652101024
 11
35.9520932212
 21
-21.6529225509
  0
LINE
  5
56D
100
AcDbEntity
  8
RACCORDO
100
AcDbLine
 62
7
  6
CONTINUOUS
 10
24.5740672449
 20
-21.7231247244
 11
24.5286092094
 21
-21.6923920829
  0
LWPOLYLINE
  5
56E
100
AcDbEntity
  8
RACCORDO
100
AcDbPolyline
 62
7
  6
CONTINUOUS
 90
6
 70
0
 10
24.4767730274
 20
-21.6529252548
 10
24.4955292683
 20
-21.6665681618
 10
24.5154883636
 20
-21.6797033071
 10
24.5366605927
 20
-21.6922169314
 10
24.5590265562
 20
-21.7039794994
 10
24.5825995008
 20
-21.7148795543
  0
LWPOLYLINE
  5
56F
100
AcDbEntity
  8
RACCORDO
100
AcDbPolyline
 62
253
  6
CONTINUOUS
 90
8
 70
0
 10
24.6284514663
 20
-21.4846624944
 10
24.6378969997
 20
-21.4916355662
 10
24.6479477021
 20
-21.4982357042
 10
24.6586035733
 20
-21.5044629084
 10
24.6698646041
 20
-21.5103802392
 10
24.6817308037
 20
-21.5159246362
 10
24.6942022004
 20
-21.5209069182
 10
24.7072890358
 20
-21.5253384807
  0
LINE
  5
570
100
AcDbEntity
  8
RACCORDO
100
AcDbLine
 62
253
  6
CONTINUOUS
 10
24.781463493
 20
-21.7557975796
 11
24.8328404246
 21
-21.7949089135
  0
LINE
  5
571
100
AcDbEntity
  8
RACCORDO
100
AcDbLine
 62
253
  6
CONTINUOUS
 10
24.401913334
 20
-21.3067549843
 11
24.6284514663
 21
-21.4846624944
  0
LWPOLYLINE
  5
572
100
AcDbEntity
  8
RACCORDO
100
AcDbPolyline
 62
253
  6
CONTINUOUS
 90
6
 70
0
 10
41.2644364497
 20
-15.5676378736
 10
41.2787827091
 20
-15.5658892382
 10
41.3038752786
 20
-15.561565891
 10
41.3225766971
 20
-15.5567942722
 10
41.3343311649
 20
-15.5517161929
 10
41.3387893429
 20
-15.5464825719
  0
LWPOLYLINE
  5
573
100
AcDbEntity
  8
RACCORDO
100
AcDbPolyline
 62
253
  6
CONTINUOUS
 90
6
 70
0
 10
19.1644364497
 20
-15.5676378677
 10
19.1501074658
 20
-15.5658917163
 10
19.1250092296
 20
-15.5615682887
 10
19.1063023303
 20
-15.5567962487
 10
19.0945435642
 20
-15.5517173613
 10
19.0900835565
 20
-15.546482589
  0
LWPOLYLINE
  5
574
100
AcDbEntity
  8
ASSI
100
AcDbPolyline
 62
7
  6
CONTINUOUS
 90
4
 70
0
 10
19.1644364497
 20
17.3455493165
 10
19.1521128816
 20
17.3100757956
 10
19.1139101997
 20
17.1668141714
 10
19.0866969005
 20
17.0218908006
  0
LWPOLYLINE
  5
575
100
AcDbEntity
  8
SUPERFICI
100
AcDbPolyline
 62
7
  6
CONTINUOUS
 90
4
 70
0
 10
19.1644364497
 20
17.3455493165
 10
19.1521128816
 20
17.3100757956
 10
19.1139101997
 20
17.1668141714
 10
19.0866969005
 20
17.0218908006
  0
LWPOLYLINE
  5
576
100
AcDbEntity
  8
ASSI
100
AcDbPolyline
 62
7
  6
CONTINUOUS
 90
4
 70
0
 10
19.1644364497
 20
-16.1353671436
 10
19.1521128816
 20
-16.0998936227
 10
19.1139101997
 20
-15.9566319985
 10
19.0866969005
 20
-15.8117086277
  0
LWPOLYLINE
  5
577
100
AcDbEntity
  8
SUPERFICI
100
AcDbPolyline
 62
7
  6
CONTINUOUS
 90
4
 70
0
 10
19.1644364497
 20
-16.1353671436
 10
19.1521128816
 20
-16.0998936227
 10
19.1139101997
 20
-15.9566319985
 10
19.0866969005
 20
-15.8117086277
  0
LWPOLYLINE
  5
578
100
AcDbEntity
  8
ASSI
100
AcDbPolyline
 62
7
  6
CONTINUOUS
 90
29
 70
0
 10
19.2899816297
 20
-20.9434184621
 10
19.2932790414
 20
-20.9544610388
 10
19.2993271222
 20
-20.9726775976
 10
19.3062851647
 20
-20.9912068094
 10
19.3141381883
 20
-21.0098332918
 10
19.3229199532
 20
-21.028503592
 10
19.3326679508
 20
-21.0471727228
 10
19.3433272835
 20
-21.0656404013
 10
19.354879034
 20
-21.083812657
 10
19.3673571018
 20
-21.1016850999
 10
19.3807611242
 20
-21.1191974029
 10
19.3950873008
 20
-21.1362894089
 10
19.4103383207
 20
-21.1529114976
 10
19.4265188974
 20
-21.1690158912
 10
19.4436218611
 20
-21.1845430429
 10
19.4616359018
 20
-21.1994319174
 10
19.4805562764
 20
-21.2136281273
 10
19.5003650273
 20
-21.2270678537
 10
19.5210395822
 20
-21.239686537
 10
19.5425637344
 20
-21.251424957
 10
19.564905971
 20
-21.2622164405
 10
19.588031089
 20
-21.2719951573
 10
19.6119116447
 20
-21.2806999723
 10
19.6365022024
 20
-21.2882640251
 10
19.6617517043
 20
-21.2946215688
 10
19.6876173709
 20
-21.2997107849
 10
19.7140372647
 20
-21.3034672877
 10
19.7409434169
 20
-21.3058290492
 10
19.7635139974
 20
-21.3065788166
  0
LWPOLYLINE
  5
579
100
AcDbEntity
  8
RACCORDO
100
AcDbPolyline
 62
7
  6
CONTINUOUS
 90
28
 70
0
 10
19.2896277002
 20
-20.9421760952
 10
19.2924871199
 20
-20.9518909933
 10
19.298935252
 20
-20.9715641849
 10
19.3062936321
 20
-20.9912280501
 10
19.3146705587
 20
-21.011024118
 10
19.3240634024
 20
-21.0307955544
 10
19.3345038871
 20
-21.050486094
 10
19.3460191458
 20
-21.0700320045
 10
19.3585646812
 20
-21.0892663144
 10
19.3721204914
 20
-21.1080930301
 10
19.3867128093
 20
-21.1264867835
 10
19.4023471148
 20
-21.14438966
 10
19.4190193923
 20
-21.1617340831
 10
19.4367216414
 20
-21.1784512224
 10
19.455448646
 20
-21.1944767895
 10
19.4751840473
 20
-21.2097383406
 10
19.4959061791
 20
-21.2241623067
 10
19.5175959679
 20
-21.2376791842
 10
19.5402219843
 20
-21.2502135413
 10
19.5637469033
 20
-21.2616898671
 10
19.5881355628
 20
-21.2720362622
 10
19.6133387148
 20
-21.2811770597
 10
19.6393018856
 20
-21.2890382255
 10
19.6659737063
 20
-21.2955493395
 10
19.6932866824
 20
-21.3006383531
 10
19.7211664478
 20
-21.3042358432
 10
19.7495419868
 20
-21.3062760726
 10
19.7712112103
 20
-21.306745599
  0
LINE
  5
57A
100
AcDbEntity
  8
ASSI
100
AcDbLine
 62
7
  6
CONTINUOUS
 10
19.2899776139
 20
-20.9434196152
 11
19.1835564058
 21
-20.5710873445
  0
LINE
  5
57B
100
AcDbEntity
  8
RACCORDO
100
AcDbLine
 62
7
  6
CONTINUOUS
 10
19.2899237536
 20
-20.943231316
 11
19.1835564056
 21
-20.571087344
  0
LINE
  5
57C
100
AcDbEntity
  8
ASSI
100
AcDbLine
 62
253
  6
CONTINUOUS
 10
19.2707480576
 20
-20.8065829222
 11
19.1644364497
 21
-20.434633966
  0
LINE
  5
57D
100
AcDbEntity
  8
RACCORDO
100
AcDbLine
 62
253
  6
CONTINUOUS
 10
19.2707480576
 20
-20.8065829222
 11
19.1644364497
 21
-20.434633966
  0
LWPOLYLINE
  5
57E
100
AcDbEntity
  8
ASSI
100
AcDbPolyline
 62
253
  6
CONTINUOUS
 90
6
 70
0
 10
19.2899237209
 20
-20.9432312017
 10
19.2878311672
 20
-20.935686057
 10
19.2803925384
 20
-20.9039015692
 10
19.2750521036
 20
-20.871697473
 10
19.271832692
 20
-20.8392115822
 10
19.2707480576
 20
-20.8065829222
  0
LWPOLYLINE
  5
57F
100
AcDbEntity
  8
RACCORDO
100
AcDbPolyline
 62
253
  6
CONTINUOUS
 90
4
 70
0
 10
19.2896237187
 20
-20.9421772053
 10
19.2817137342
 20
-20.9102984618
 10
19.2735089678
 20
-20.8587303591
 10
19.2707480576
 20
-20.8065829222
  0
LWPOLYLINE
  5
580
100
AcDbEntity
  8
RACCORDO
100
AcDbPolyline
 62
7
  6
CONTINUOUS
 90
4
 70
0
 10
19.1655607007
 20
17.3034231896
 10
19.1313550616
 20
17.163748283
 10
19.1077839943
 20
17.0254076958
 10
19.0942601837
 20
16.8894743962
  0
LINE
  5
581
100
AcDbEntity
  8
RACCORDO
100
AcDbLine
 62
7
  6
CONTINUOUS
 10
19.115201799
 20
17.170548902
 11
19.1644364497
 21
17.3429250455
  0
LINE
  5
582
100
AcDbEntity
  8
SUPERFICI
100
AcDbLine
 62
7
  6
CONTINUOUS
 10
26.9810692473
 20
23.1050910865
 11
26.9144364497
 21
23.0050910865
  0
LINE
  5
583
100
AcDbEntity
  8
SUPERFICI
100
AcDbLine
 62
7
  6
CONTINUOUS
 10
26.9144364497
 20
-21.7949089135
 11
26.9810692473
 21
-21.8949089135
  0
LINE
  5
584
100
AcDbEntity
  8
RACCORDO
100
AcDbLine
 62
7
  6
CONTINUOUS
 10
19.1480787799
 20
-16.0273049956
 11
19.1644364497
 21
-16.0841258498
  0
LINE
  5
585
100
AcDbEntity
  8
RACCORDO
100
AcDbLine
 62
7
  6
CONTINUOUS
 10
19.1644364497
 20
-16.1327428726
 11
19.115201799
 21
-15.9603667291
  0
LWPOLYLINE
  5
586
100
AcDbEntity
  8
RACCORDO
100
AcDbPolyline
 62
7
  6
CONTINUOUS
 90
3
 70
0
 10
19.115201799
 20
-15.9603667291
 10
19.0782024046
 20
-15.74130939
 10
19.0644364497
 20
-15.5140767529
  0
LWPOLYLINE
  5
587
100
AcDbEntity
  8
RACCORDO
100
AcDbPolyline
 62
7
  6
CONTINUOUS
 90
3
 70
0
 10
19.0644364497
 20
16.7242589258
 10
19.0782024046
 20
16.9514915629
 10
19.115201799
 20
17.170548902
  0
LWPOLYLINE
  5
588
100
AcDbEntity
  8
ASSI
100
AcDbPolyline
 62
7
  6
CONTINUOUS
 90
3
 70
0
 10
19.0866969005
 20
17.0218908006
 10
19.0702056505
 20
16.8745361609
 10
19.0644364497
 20
16.7247502525
  0
LWPOLYLINE
  5
589
100
AcDbEntity
  8
SUPERFICI
100
AcDbPolyline
 62
7
  6
CONTINUOUS
 90
3
 70
0
 10
19.0866969005
 20
17.0218908006
 10
19.0702056505
 20
16.8745361609
 10
19.0644364497
 20
16.7247502525
  0
LWPOLYLINE
  5
58A
100
AcDbEntity
  8
RACCORDO
100
AcDbPolyline
 62
7
  6
CONTINUOUS
 90
3
 70
0
 10
19.0967200393
 20
-15.7127902196
 10
19.1164689521
 20
-15.8733708664
 10
19.1480787799
 20
-16.0273049956
  0
LWPOLYLINE
  5
58B
100
AcDbEntity
  8
ASSI
100
AcDbPolyline
 62
7
  6
CONTINUOUS
 90
3
 70
0
 10
19.0866969005
 20
-15.8117086277
 10
19.0702056505
 20
-15.664353988
 10
19.0644364497
 20
-15.5145680796
  0
LWPOLYLINE
  5
58C
100
AcDbEntity
  8
SUPERFICI
100
AcDbPolyline
 62
7
  6
CONTINUOUS
 90
3
 70
0
 10
19.0866969005
 20
-15.8117086277
 10
19.0702056505
 20
-15.664353988
 10
19.0644364497
 20
-15.5145680796
  0
LINE
  5
58D
100
AcDbEntity
  8
RACCORDO
100
AcDbLine
 62
7
  6
CONTINUOUS
 10
19.0900835565
 20
-15.5464825719
 11
19.0967200393
 21
-15.7127902196
  0
LINE
  5
58E
100
AcDbEntity
  8
ASSI
100
AcDbLine
 62
253
  6
CONTINUOUS
 10
19.2739223589
 20
21.457804091
 11
19.2749055922
 21
21.4248202441
  0
LINE
  5
58F
100
AcDbEntity
  8
ASSI
100
AcDbLine
 62
253
  6
CONTINUOUS
 10
19.2749055922
 20
21.4248202441
 11
19.2758162919
 21
21.3855356146
  0
LINE
  5
590
100
AcDbEntity
  8
ASSI
100
AcDbLine
 62
253
  6
CONTINUOUS
 10
19.2758162919
 20
21.3855356146
 11
19.2766434061
 21
21.340430801
  0
LINE
  5
591
100
AcDbEntity
  8
ASSI
100
AcDbLine
 62
253
  6
CONTINUOUS
 10
19.2766434061
 20
21.340430801
 11
19.2773739089
 21
21.2902118961
  0
LINE
  5
592
100
AcDbEntity
  8
ASSI
100
AcDbLine
 62
253
  6
CONTINUOUS
 10
19.7748344239
 20
21.8339566363
 11
19.7756452464
 21
21.7648400758
  0
LINE
  5
593
100
AcDbEntity
  8
ASSI
100
AcDbLine
 62
253
  6
CONTINUOUS
 10
19.2773739089
 20
21.2902118961
 11
19.2779964175
 21
21.2356697893
  0
LINE
  5
594
100
AcDbEntity
  8
RACCORDO
100
AcDbLine
 62
253
  6
CONTINUOUS
 10
19.2775933273
 20
21.2724727952
 11
19.2783437001
 21
21.1976297356
  0
LINE
  5
595
100
AcDbEntity
  8
ASSI
100
AcDbLine
 62
253
  6
CONTINUOUS
 10
19.7756452464
 20
21.7648400758
 11
19.7763909945
 21
21.6864638549
  0
LINE
  5
596
100
AcDbEntity
  8
ASSI
100
AcDbLine
 62
253
  6
CONTINUOUS
 10
19.2779964175
 20
21.2356697893
 11
19.278503319
 21
21.1774664858
  0
LINE
  5
597
100
AcDbEntity
  8
ASSI
100
AcDbLine
 62
253
  6
CONTINUOUS
 10
19.7763909945
 20
21.6864638549
 11
19.7770646775
 21
21.5997984897
  0
LINE
  5
598
100
AcDbEntity
  8
RACCORDO
100
AcDbLine
 62
253
  6
CONTINUOUS
 10
19.2783437001
 20
21.1976297356
 11
19.2788790885
 21
21.1174938329
  0
LINE
  5
599
100
AcDbEntity
  8
ASSI
100
AcDbLine
 62
253
  6
CONTINUOUS
 10
19.7770646775
 20
21.5997984897
 11
19.777655196
 21
21.5059117648
  0
LINE
  5
59A
100
AcDbEntity
  8
ASSI
100
AcDbLine
 62
253
  6
CONTINUOUS
 10
19.278503319
 20
21.1774664858
 11
19.2788823017
 21
21.1167573964
  0
LINE
  5
59B
100
AcDbEntity
  8
ASSI
100
AcDbLine
 62
253
  6
CONTINUOUS
 10
19.777655196
 20
21.5059117648
 11
19.7781560029
 21
21.4059680879
  0
LINE
  5
59C
100
AcDbEntity
  8
RACCORDO
100
AcDbLine
 62
253
  6
CONTINUOUS
 10
19.7775156164
 20
21.5300262301
 11
19.7782655661
 21
21.3802123799
  0
LINE
  5
59D
100
AcDbEntity
  8
ASSI
100
AcDbLine
 62
253
  6
CONTINUOUS
 10
19.7781560029
 20
21.4059680879
 11
19.7785625845
 21
21.3012069267
  0
LINE
  5
59E
100
AcDbEntity
  8
ASSI
100
AcDbLine
 62
253
  6
CONTINUOUS
 10
19.2788823017
 20
21.1167573964
 11
19.279128349
 21
21.0552017227
  0
LINE
  5
59F
100
AcDbEntity
  8
RACCORDO
100
AcDbLine
 62
253
  6
CONTINUOUS
 10
19.7782655661
 20
21.3802123799
 11
19.7788012553
 21
21.220266806
  0
LINE
  5
5A0
100
AcDbEntity
  8
RACCORDO
100
AcDbLine
 62
253
  6
CONTINUOUS
 10
19.2788790885
 20
21.1174938329
 11
19.2791775986
 21
21.0353360972
  0
LINE
  5
5A1
100
AcDbEntity
  8
ASSI
100
AcDbLine
 62
253
  6
CONTINUOUS
 10
19.7785625845
 20
21.3012069267
 11
19.7788681099
 21
21.1929332721
  0
LINE
  5
5A2
100
AcDbEntity
  8
ASSI
100
AcDbLine
 62
253
  6
CONTINUOUS
 10
19.7788681099
 20
21.1929332721
 11
19.7790688243
 21
21.0824769918
  0
LINE
  5
5A3
100
AcDbEntity
  8
RACCORDO
100
AcDbLine
 62
253
  6
CONTINUOUS
 10
19.0900835565
 20
16.7566647448
 11
19.1244857519
 21
0.6897946976
  0
LINE
  5
5A4
100
AcDbEntity
  8
RACCORDO
100
AcDbLine
 62
253
  6
CONTINUOUS
 10
19.7788012553
 20
21.220266806
 11
19.7791007206
 21
21.0546781647
  0
LINE
  5
5A5
100
AcDbEntity
  8
ASSI
100
AcDbLine
 62
253
  6
CONTINUOUS
 10
19.279128349
 20
21.0552017227
 11
19.2792395877
 21
20.9932795
  0
LWPOLYLINE
  5
5A6
100
AcDbEntity
  8
ASSI
100
AcDbPolyline
 62
253
  6
CONTINUOUS
 90
15
 70
0
 10
19.2792395877
 20
20.9932795
 10
19.2811144961
 20
18.2278737368
 10
19.2827216508
 20
15.4632622016
 10
19.2840610519
 20
12.6994448943
 10
19.2851327696
 20
9.9362991894
 10
19.2859367337
 20
7.1739477125
 10
19.2864727332
 20
4.4127583398
 10
19.2867406978
 20
1.6527364487
 10
19.2867406979
 20
-1.1061233382
 10
19.2864727334
 20
-3.8634692764
 10
19.2859367339
 20
-6.61930603
 10
19.2851327699
 20
-9.3736289349
 10
19.2840610522
 20
-12.1260722538
 10
19.2827216511
 20
-14.8765140744
 10
19.2811144962
 20
-17.625076309
  0
LWPOLYLINE
  5
5A7
100
AcDbEntity
  8
RACCORDO
100
AcDbPolyline
 62
253
  6
CONTINUOUS
 90
9
 70
0
 10
19.2791775986
 20
21.0353360972
 10
19.2822161836
 20
16.3834902269
 10
19.2844486305
 20
11.7768219826
 10
19.2859369282
 20
7.1732747671
 10
19.2866810768
 20
2.5724519891
 10
19.2866810763
 20
-2.0252497601
 10
19.2859369271
 20
-6.6186407067
 10
19.2844486294
 20
-11.2073242595
 10
19.2822161829
 20
-15.7916970099
  0
LWPOLYLINE
  5
5A8
100
AcDbEntity
  8
ASSI
100
AcDbPolyline
 62
253
  6
CONTINUOUS
 90
14
 70
0
 10
19.7810385676
 20
18.2026920983
 10
19.7826458614
 20
15.4349657805
 10
19.7839853165
 20
12.6681091518
 10
19.7850569621
 20
9.9022050453
 10
19.7858607691
 20
7.1373406608
 10
19.7863966502
 20
4.3736075536
 10
19.7866645763
 20
1.6110957763
 10
19.7866645765
 20
-1.1501149138
 10
19.7863966507
 20
-3.909948456
 10
19.7858607699
 20
-6.6683251391
 10
19.7850569631
 20
-9.4251550759
 10
19.7839853175
 20
-12.1803470066
 10
19.7826458622
 20
-14.9338140893
 10
19.7810385681
 20
-17.6854738905
  0
LINE
  5
5A9
100
AcDbEntity
  8
ASSI
100
AcDbLine
 62
253
  6
CONTINUOUS
 10
19.7790688243
 20
21.0824769918
 11
19.7810385676
 21
18.2026920983
  0
LWPOLYLINE
  5
5AA
100
AcDbEntity
  8
RACCORDO
100
AcDbPolyline
 62
253
  6
CONTINUOUS
 90
9
 70
0
 10
19.7791007206
 20
21.0546781647
 10
19.7821400329
 20
16.3574434241
 10
19.784372481
 20
11.7460271478
 10
19.7858607798
 20
7.1373478643
 10
19.7866049292
 20
2.5317990311
 10
19.7866049293
 20
-2.0702262557
 10
19.7858607799
 20
-6.6683352947
 10
19.7843724811
 20
-11.2621356245
 10
19.7821400329
 20
-15.8512350572
  0
LINE
  5
5AB
100
AcDbEntity
  8
ASSI
100
AcDbLine
 62
7
  6
CONTINUOUS
 10
19.0644364497
 20
16.7247502525
 11
19.0644364497
 21
-15.5145680796
  0
LINE
  5
5AC
100
AcDbEntity
  8
SUPERFICI
100
AcDbLine
 62
7
  6
CONTINUOUS
 10
19.0644364497
 20
16.7247502525
 11
19.0644364497
 21
-15.5145680796
  0
LINE
  5
5AD
100
AcDbEntity
  8
RACCORDO
100
AcDbLine
 62
7
  6
CONTINUOUS
 10
19.0644364497
 20
-15.5140767529
 11
19.0644364497
 21
16.7242589258
  0
LINE
  5
5AE
100
AcDbEntity
  8
RACCORDO
100
AcDbLine
 62
253
  6
CONTINUOUS
 10
19.1244857519
 20
0.6897946976
 11
19.1245339939
 21
0.5881959631
  0
LINE
  5
5AF
100
AcDbEntity
  8
ASSI
100
AcDbLine
 62
7
  6
CONTINUOUS
 10
19.1644364497
 20
22.2026128925
 11
19.1644364497
 21
-20.434633966
  0
LINE
  5
5B0
100
AcDbEntity
  8
RACCORDO
100
AcDbLine
 62
7
  6
CONTINUOUS
 10
19.1644364497
 20
22.2026128925
 11
19.1644364497
 21
-20.434633966
  0
LINE
  5
5B1
100
AcDbEntity
  8
RACCORDO
100
AcDbLine
 62
253
  6
CONTINUOUS
 10
19.7821400329
 20
-15.8512350572
 11
19.7791007206
 21
-20.5175059045
  0
LINE
  5
5B2
100
AcDbEntity
  8
ASSI
100
AcDbLine
 62
253
  6
CONTINUOUS
 10
19.2811144962
 20
-17.625076309
 11
19.2792007414
 21
-20.4023979602
  0
LINE
  5
5B3
100
AcDbEntity
  8
ASSI
100
AcDbLine
 62
253
  6
CONTINUOUS
 10
19.7810385681
 20
-17.6854738905
 11
19.7790688243
 21
-20.544632476
  0
LINE
  5
5B4
100
AcDbEntity
  8
RACCORDO
100
AcDbLine
 62
253
  6
CONTINUOUS
 10
19.1245339939
 20
0.5881959631
 11
19.124437605
 21
0.4866007161
  0
LINE
  5
5B5
100
AcDbEntity
  8
RACCORDO
100
AcDbLine
 62
253
  6
CONTINUOUS
 10
19.2822161829
 20
-15.7916970099
 11
19.2791775986
 21
-20.4131965129
  0
LINE
  5
5B6
100
AcDbEntity
  8
RACCORDO
100
AcDbLine
 62
253
  6
CONTINUOUS
 10
19.124437605
 20
0.4866007161
 11
19.0900835565
 21
-15.5464825719
  0
LINE
  5
5B7
100
AcDbEntity
  8
ASSI
100
AcDbLine
 62
253
  6
CONTINUOUS
 10
19.7790688243
 20
-20.544632476
 11
19.7788681099
 21
-20.6510723499
  0
LINE
  5
5B8
100
AcDbEntity
  8
RACCORDO
100
AcDbLine
 62
253
  6
CONTINUOUS
 10
19.7791007206
 20
-20.5175059045
 11
19.7788012553
 21
-20.6770733715
  0
LINE
  5
5B9
100
AcDbEntity
  8
ASSI
100
AcDbLine
 62
253
  6
CONTINUOUS
 10
19.7788681099
 20
-20.6510723499
 11
19.7785625844
 21
-20.7532463837
  0
LINE
  5
5BA
100
AcDbEntity
  8
ASSI
100
AcDbLine
 62
253
  6
CONTINUOUS
 10
19.2792007414
 20
-20.4023979602
 11
19.2790224106
 21
-20.4622760417
  0
LWPOLYLINE
  5
5BB
100
AcDbEntity
  8
RACCORDO
100
AcDbPolyline
 62
253
  6
CONTINUOUS
 90
15
 70
0
 10
19.7788012553
 20
-20.6770733715
 10
19.7782655661
 20
-20.8263512432
 10
19.7779169677
 20
-20.8958079375
 10
19.7775156164
 20
-20.961150427
 10
19.7770625174
 20
-21.021928668
 10
19.7765669499
 20
-21.077723681
 10
19.7760280314
 20
-21.1281458666
 10
19.7754466444
 20
-21.1728457836
 10
19.7748347168
 20
-21.2115172985
 10
19.7741915484
 20
-21.2438917771
 10
19.7735178393
 20
-21.2697369827
 10
19.7728276176
 20
-21.2888676778
 10
19.7721255594
 20
-21.3011510464
 10
19.7714069886
 20
-21.3065038243
 10
19.7712137136
 20
-21.3067549464
  0
LINE
  5
5BC
100
AcDbEntity
  8
RACCORDO
100
AcDbLine
 62
253
  6
CONTINUOUS
 10
19.2791775986
 20
-20.4131965129
 11
19.2788790885
 21
-20.4923732374
  0
LINE
  5
5BD
100
AcDbEntity
  8
ASSI
100
AcDbLine
 62
253
  6
CONTINUOUS
 10
19.7785625844
 20
-20.7532463837
 11
19.7781560029
 21
-20.8498994561
  0
LINE
  5
5BE
100
AcDbEntity
  8
ASSI
100
AcDbLine
 62
253
  6
CONTINUOUS
 10
19.7781560029
 20
-20.8498994561
 11
19.777655196
 21
-20.939827292
  0
LINE
  5
5BF
100
AcDbEntity
  8
ASSI
100
AcDbLine
 62
253
  6
CONTINUOUS
 10
19.2790224106
 20
-20.4622760417
 11
19.2787086467
 21
-20.5205951107
  0
LINE
  5
5C0
100
AcDbEntity
  8
ASSI
100
AcDbLine
 62
253
  6
CONTINUOUS
 10
19.777655196
 20
-20.939827292
 11
19.7770646775
 21
-21.0219146527
  0
LWPOLYLINE
  5
5C1
100
AcDbEntity
  8
RACCORDO
100
AcDbPolyline
 62
253
  6
CONTINUOUS
 90
5
 70
0
 10
19.2788790885
 20
-20.4923732374
 10
19.2783437001
 20
-20.567162592
 10
19.2779949935
 20
-20.6018923585
 10
19.2775933273
 20
-20.6345122051
 10
19.2771397373
 20
-20.6650835385
  0
LINE
  5
5C2
100
AcDbEntity
  8
ASSI
100
AcDbLine
 62
253
  6
CONTINUOUS
 10
19.2787086467
 20
-20.5205951107
 11
19.2782657046
 21
-20.5756279564
  0
LWPOLYLINE
  5
5C3
100
AcDbEntity
  8
ASSI
100
AcDbPolyline
 62
253
  6
CONTINUOUS
 90
3
 70
0
 10
19.7770646775
 20
-21.0219146527
 10
19.7763909945
 20
-21.0951436512
 10
19.7760267022
 20
-21.1281498081
  0
LINE
  5
5C4
100
AcDbEntity
  8
ASSI
100
AcDbLine
 62
253
  6
CONTINUOUS
 10
19.2782657046
 20
-20.5756279564
 11
19.2776991725
 21
-20.6265589415
  0
LINE
  5
5C5
100
AcDbEntity
  8
ASSI
100
AcDbLine
 62
253
  6
CONTINUOUS
 10
19.2776991725
 20
-20.6265589415
 11
19.2770206873
 21
-20.672279054
  0
LINE
  5
5C6
100
AcDbEntity
  8
RACCORDO
100
AcDbLine
 62
253
  6
CONTINUOUS
 10
19.2771397373
 20
-20.6650835385
 11
19.2766435849
 21
-20.6929748611
  0
LINE
  5
5C7
100
AcDbEntity
  8
ASSI
100
AcDbLine
 62
253
  6
CONTINUOUS
 10
19.2770206873
 20
-20.672279054
 11
19.2762418788
 21
-20.7121634978
  0
LWPOLYLINE
  5
5C8
100
AcDbEntity
  8
RACCORDO
100
AcDbPolyline
 62
253
  6
CONTINUOUS
 90
10
 70
0
 10
19.2766435849
 20
-20.6929748611
 10
19.2761039965
 20
-20.7181297622
 10
19.2755218457
 20
-20.7406046524
 10
19.2749091134
 20
-20.7599372657
 10
19.2742648457
 20
-20.7760637974
 10
19.2735899965
 20
-20.7890480521
 10
19.2728994089
 20
-20.7986191772
 10
19.2721980303
 20
-20.8046868885
 10
19.2714809132
 20
-20.8073414701
 10
19.2707480576
 20
-20.8065829222
  0
LWPOLYLINE
  5
5C9
100
AcDbEntity
  8
ASSI
100
AcDbPolyline
 62
253
  6
CONTINUOUS
 90
11
 70
0
 10
19.2762418788
 20
-20.7121634978
 10
19.2753711006
 20
-20.7457835549
 10
19.274905592
 20
-20.7600191342
 10
19.2744204793
 20
-20.7725437169
 10
19.2739223587
 20
-20.7831841191
 10
19.2734106735
 20
-20.7919022223
 10
19.2728859804
 20
-20.798736145
 10
19.2723565457
 20
-20.8036270592
 10
19.2718251246
 20
-20.8065553554
 10
19.271288962
 20
-20.8075406431
 10
19.2707480576
 20
-20.8065829222
  0
LINE
  5
5CA
100
AcDbEntity
  8
RACCORDO
100
AcDbLine
 62
7
  6
CONTINUOUS
 10
19.0942601837
 20
16.8894743962
 11
19.0900835565
 21
16.7566647448
  0
LWPOLYLINE
  5
5CB
100
AcDbEntity
  8
0
100
AcDbPolyline
 62
7
  6
CONTINUOUS
 90
51
 70
0
 10
23.2007283949
 20
13.8285411221
 10
23.2099732046
 20
13.8601454347
 10
23.221804434
 20
13.8926191996
 10
23.2364438418
 20
13.9259924917
 10
23.2540800993
 20
13.9602007834
 10
23.2747739806
 20
13.9949927562
 10
23.298686379
 20
14.0303570201
 10
23.325967748
 20
14.0662636603
 10
23.356548303
 20
14.1024364042
 10
23.3905116472
 20
14.1388466327
 10
23.4279530883
 20
14.1754802428
 10
23.4686976029
 20
14.2120884156
 10
23.5127198253
 20
14.2486104189
 10
23.5600881723
 20
14.2850684775
 10
23.610681056
 20
14.3213437859
 10
23.6644425051
 20
14.3573868305
 10
23.721405534
 20
14.3932118223
 10
23.7815545812
 20
14.428797443
 10
23.844876154
 20
14.4641173703
 10
23.9113811769
 20
14.4991588842
 10
23.9811009993
 20
14.5339195202
 10
24.0539977103
 20
14.5683624122
 10
24.1301002141
 20
14.6024842989
 10
24.2095575471
 20
14.6363300892
 10
24.292352401
 20
14.6698674773
 10
24.378510704
 20
14.7030831491
 10
24.4682832982
 20
14.7360437101
 10
24.5617180734
 20
14.768730899
 10
24.6588062684
 20
14.8011070621
 10
24.7597485521
 20
14.8332019363
 10
24.8646238096
 20
14.864999794
 10
24.9733992284
 20
14.8964511454
 10
25.0861191839
 20
14.9275306725
 10
25.2027917724
 20
14.9582036385
 10
25.3234247016
 20
14.9884361891
 10
25.4480671084
 20
15.0181998165
 10
25.5766614848
 20
15.0474381606
 10
25.7092802789
 20
15.0761261178
 10
25.8461836959
 20
15.1042740067
 10
25.9873317558
 20
15.1318253476
 10
26.1327729824
 20
15.1587420929
 10
26.2829288519
 20
15.1850484567
 10
26.437824582
 20
15.2106898711
 10
26.5974418114
 20
15.2356049505
 10
26.7621647376
 20
15.259790504
 10
26.9320102602
 20
15.2831816682
 10
27.1069392647
 20
15.3057063113
 10
27.2872664181
 20
15.327334026
 10
27.4728136713
 20
15.3479715769
 10
27.6636749705
 20
15.3675578716
 10
27.8606002544
 20
15.3860795401
  0
LWPOLYLINE
  5
5CC
100
AcDbEntity
  8
RACCORDO
100
AcDbPolyline
 62
253
  6
CONTINUOUS
 90
16
 70
0
 10
41.1496333116
 20
20.9932795
 10
41.1460538224
 20
20.9909238764
 10
41.1371562443
 20
20.988601641
 10
41.1230359106
 20
20.9863376754
 10
41.1038441138
 20
20.984156237
 10
41.0797864848
 20
20.9820806987
 10
41.0511207893
 20
20.980133299
 10
41.0181541663
 20
20.9783349034
 10
40.9812398373
 20
20.9767047806
 10
40.9407733212
 20
20.9752603967
 10
40.8971881972
 20
20.9740172277
 10
40.8509514587
 20
20.9729885934
 10
40.80255851
 20
20.9721855149
 10
40.7525278579
 20
20.9716165966
 10
40.7013955567
 20
20.9712879344
 10
40.6497094641
 20
20.9712030496
  0
LWPOLYLINE
  5
5CD
100
AcDbEntity
  8
ASSI
100
AcDbPolyline
 62
253
  6
CONTINUOUS
 90
5
 70
0
 10
19.7706719052
 20
22.0104488841
 10
19.771159326
 20
22.0026104636
 10
19.7716416217
 20
21.9917179811
 10
19.7721187923
 20
21.9778054567
 10
19.7725923103
 20
21.9609166148
  0
LWPOLYLINE
  5
5CE
100
AcDbEntity
  8
RACCORDO
100
AcDbPolyline
 62
253
  6
CONTINUOUS
 90
12
 70
0
 10
19.7706719052
 20
22.0104488841
 10
19.7714069886
 20
21.9975457927
 10
19.7721255594
 20
21.9778080973
 10
19.7728276176
 20
21.9513723011
 10
19.7735178393
 20
21.9184195725
 10
19.7741915484
 20
21.8791799539
 10
19.7748347168
 20
21.8339342869
 10
19.7754466444
 20
21.7830055454
 10
19.7760280314
 20
21.7267461751
 10
19.77656695
 20
21.6655411355
 10
19.7770625174
 20
21.5998147822
 10
19.7775156164
 20
21.5300262301
  0
LINE
  5
5CF
100
AcDbEntity
  8
ASSI
100
AcDbLine
 62
253
  6
CONTINUOUS
 10
19.7725923103
 20
21.9609166148
 11
19.7735195528
 21
21.9184272586
  0
LWPOLYLINE
  5
5D0
100
AcDbEntity
  8
ASSI
100
AcDbPolyline
 62
253
  6
CONTINUOUS
 90
3
 70
0
 10
19.7735195528
 20
21.9184272586
 10
19.7744083956
 20
21.8647698639
 10
19.7748344239
 20
21.8339566363
  0
LINE
  5
5D1
100
AcDbEntity
  8
ASSI
100
AcDbLine
 62
253
  6
CONTINUOUS
 10
19.7760267022
 20
-21.1281498081
 11
19.7752466459
 21
-21.1864356064
  0
LWPOLYLINE
  5
5D2
100
AcDbEntity
  8
ASSI
100
AcDbPolyline
 62
253
  6
CONTINUOUS
 90
9
 70
0
 10
19.7752466459
 20
-21.1864356064
 10
19.7744083956
 20
-21.2338290692
 10
19.7739687458
 20
-21.2532519893
 10
19.7735195528
 20
-21.2697417714
 10
19.7730607032
 20
-21.2832471975
 10
19.7725923103
 20
-21.293727243
 10
19.7721187923
 20
-21.3011500377
 10
19.7716416218
 20
-21.3054923666
 10
19.7712088378
 20
-21.3067549467
  0
LWPOLYLINE
  5
5D3
100
AcDbEntity
  8
ASSI
100
AcDbPolyline
 62
7
  6
CONTINUOUS
 90
3
 70
0
 10
23.1884752682
 20
13.7615683997
 10
23.1901924472
 20
13.7753971974
 10
23.1958496791
 20
13.8076981223
  0
LINE
  5
5D4
100
AcDbEntity
  8
0
100
AcDbLine
 62
7
  6
CONTINUOUS
 10
23.1884931501
 20
13.7617322864
 11
23.1895151397
 21
13.7699426996
  0
LINE
  5
5D5
100
AcDbEntity
  8
ASSI
100
AcDbLine
 62
7
  6
CONTINUOUS
 10
23.1884747019
 20
13.7615595055
 11
23.1917135897
 21
13.7854784196
  0
LINE
  5
5D6
100
AcDbEntity
  8
0
100
AcDbLine
 62
7
  6
CONTINUOUS
 10
23.1884925988
 20
13.7617234537
 11
23.1931784469
 21
13.7940274492
  0
LINE
  5
5D7
100
AcDbEntity
  8
0
100
AcDbLine
 62
7
  6
CONTINUOUS
 10
23.1895151397
 20
13.7699426996
 11
23.1938924426
 21
13.7979152303
  0
LINE
  5
5D8
100
AcDbEntity
  8
0
100
AcDbLine
 62
7
  6
CONTINUOUS
 10
23.1938924426
 20
13.7979152303
 11
23.2007283949
 21
13.8285411221
  0
LWPOLYLINE
  5
5D9
100
AcDbEntity
  8
ASSI
100
AcDbPolyline
 62
7
  6
CONTINUOUS
 90
59
 70
0
 10
23.1917135897
 20
13.7854784196
 10
23.2047421114
 20
13.8431205514
 10
23.2249677946
 20
13.9001801989
 10
23.2521014867
 20
13.9563800796
 10
23.2856052557
 20
14.0112667489
 10
23.3246174123
 20
14.0642504402
 10
23.3682447819
 20
14.1150017018
 10
23.4158805018
 20
14.1636197779
 10
23.4671331094
 20
14.2103113803
 10
23.5215055449
 20
14.255125861
 10
23.5785222715
 20
14.2981105556
 10
23.6380781056
 20
14.3395184946
 10
23.699889238
 20
14.3794421286
 10
23.7636898797
 20
14.4179422539
 10
23.8294832933
 20
14.4551959177
 10
23.8971526949
 20
14.4912966681
 10
23.9665145891
 20
14.526269136
 10
24.0374853922
 20
14.5601773767
 10
24.1099708976
 20
14.5930839563
 10
24.1838854259
 20
14.6250336333
 10
24.2591569297
 20
14.6560665932
 10
24.3357140499
 20
14.6862284744
 10
24.4135054567
 20
14.7155616909
 10
24.4924943836
 20
14.7441003402
 10
24.572635375
 20
14.7718782395
 10
24.653891168
 20
14.7989314651
 10
24.7362479904
 20
14.8252897788
 10
24.8196791334
 20
14.8509770372
 10
24.9041577656
 20
14.8760197321
 10
24.9896762708
 20
14.9004458476
 10
25.076209711
 20
14.9242695915
 10
25.1637475243
 20
14.9475102247
 10
25.2523100037
 20
14.9701963604
 10
25.3418629469
 20
14.9923375324
 10
25.4324137333
 20
15.0139463248
 10
25.524046187
 20
15.0350527194
 10
25.6167476258
 20
15.0556640234
 10
25.7105087674
 20
15.0757872504
 10
25.8054219674
 20
15.0954458519
 10
25.9014805091
 20
15.1146414479
 10
25.9986778248
 20
15.1333769991
 10
26.0971075336
 20
15.1516742882
 10
26.1967718793
 20
15.1695329323
 10
26.2976591972
 20
15.1869494001
 10
26.3998441661
 20
15.2039355124
 10
26.5033337442
 20
15.2204915705
 10
26.6081109865
 20
15.2366128624
 10
26.7142156746
 20
15.2523008288
 10
26.8216452673
 20
15.2675506431
 10
26.9303950672
 20
15.2823581135
 10
27.0405014454
 20
15.2967250227
 10
27.1519601474
 20
15.3106452685
 10
27.2647689766
 20
15.3241119066
 10
27.3789677644
 20
15.3371233552
 10
27.4945142132
 20
15.3496691718
 10
27.611442876
 20
15.3617476155
 10
27.7299100225
 20
15.3733642155
 10
27.8498518943
 20
15.3845000964
 10
27.9713271561
 20
15.3951485174
  0
LWPOLYLINE
  5
5DA
100
AcDbEntity
  8
ASSI
100
AcDbPolyline
 62
7
  6
CONTINUOUS
 90
52
 70
0
 10
23.1958496791
 20
13.8076981223
 10
23.203931828
 20
13.8403858515
 10
23.2145473076
 20
13.8734878704
 10
23.2278510195
 20
13.907110223
 10
23.2440351762
 20
13.9413587631
 10
23.2631870132
 20
13.9760945448
 10
23.2852740452
 20
14.011056102
 10
23.3103577187
 20
14.046212096
 10
23.3385174946
 20
14.0815597961
 10
23.3696407835
 20
14.1168844316
 10
23.4037039885
 20
14.1521277651
 10
23.4407601074
 20
14.1873166165
 10
23.4807439594
 20
14.2223672267
 10
23.5236203129
 20
14.2572398904
 10
23.5694105516
 20
14.2919443841
 10
23.6181162678
 20
14.3264721435
 10
23.6697129935
 20
14.3607975942
 10
23.7242039262
 20
14.3949158353
 10
23.7816424479
 20
14.4288479043
 10
23.8420300503
 20
14.4625728031
 10
23.9053794315
 20
14.4960757512
 10
23.9717870323
 20
14.529383701
 10
24.0412510407
 20
14.5624698163
 10
24.1137969557
 20
14.5953215092
 10
24.1895859893
 20
14.627983126
 10
24.2686262296
 20
14.6604264431
 10
24.3509497648
 20
14.6926341178
 10
24.4367862396
 20
14.724660637
 10
24.5261663161
 20
14.756478105
 10
24.6191212211
 20
14.7880595259
 10
24.7159170639
 20
14.8194527141
 10
24.8165907777
 20
14.8506235273
 10
24.9211833827
 20
14.8815397554
 10
25.0300020464
 20
14.9122425544
 10
25.1430900031
 20
14.9426910143
 10
25.2604920823
 20
14.9728455394
 10
25.3825551814
 20
15.0027368139
 10
25.5093381716
 20
15.0323111488
 10
25.6409031202
 20
15.0615149725
 10
25.7776436188
 20
15.0903625797
 10
25.9196093546
 20
15.1187870261
 10
26.0668680318
 20
15.1467250049
 10
26.2198714474
 20
15.174179434
 10
26.3786558473
 20
15.2010693252
 10
26.5432829347
 20
15.2273180447
 10
26.7142720154
 20
15.2529140382
 10
26.8916347603
 20
15.2777595388
 10
27.0754162839
 20
15.3017616484
 10
27.2662110143
 20
15.3248898036
 10
27.4640002191
 20
15.3470273227
 10
27.6687864066
 20
15.3680600464
 10
27.8812222639
 20
15.387922143
  0
LWPOLYLINE
  5
5DB
100
AcDbEntity
  8
0
100
AcDbPolyline
 62
7
  6
CONTINUOUS
 90
56
 70
0
 10
23.1931784469
 20
13.7940274492
 10
23.2079500037
 20
13.853730208
 10
23.2304255159
 20
13.9127851811
 10
23.2602750524
 20
13.9708761472
 10
23.2968595789
 20
14.0275072788
 10
23.339212129
 20
14.0820448404
 10
23.3863203896
 20
14.1341533722
 10
23.4375422341
 20
14.1839646868
 10
23.4925383992
 20
14.2317770628
 10
23.5507950815
 20
14.2776615548
 10
23.6118327061
 20
14.3216629224
 10
23.6755153882
 20
14.3640321871
 10
23.7415605696
 20
14.4048728748
 10
23.8097163251
 20
14.4442418844
 10
23.8799140053
 20
14.4822958302
 10
23.9520411119
 20
14.5191289295
 10
24.0259323399
 20
14.5547770895
 10
24.1014586272
 20
14.5893035158
 10
24.17852227
 20
14.6227664629
 10
24.2570521355
 20
14.6552180689
 10
24.3369677838
 20
14.6867114353
 10
24.4182012398
 20
14.717292332
 10
24.500710628
 20
14.7470009886
 10
24.5844580958
 20
14.7758819818
 10
24.6693952384
 20
14.8039729505
 10
24.7554947605
 20
14.8313035586
 10
24.8427479345
 20
14.8579090591
 10
24.9311242749
 20
14.8838198203
 10
25.0205980444
 20
14.9090593019
 10
25.1111683721
 20
14.9336515923
 10
25.2027896788
 20
14.9576106366
 10
25.295465289
 20
14.9809640539
 10
25.3892739002
 20
15.0037469518
 10
25.4841976954
 20
15.0259657744
 10
25.580229471
 20
15.0476312099
 10
25.6774677225
 20
15.0687771071
 10
25.7759033732
 20
15.0894069226
 10
25.8755298049
 20
15.1095234645
 10
25.9764532131
 20
15.1291524997
 10
26.0786703877
 20
15.1482975657
 10
26.1821703477
 20
15.1669576614
 10
26.2870482274
 20
15.1851482125
 10
26.3933160858
 20
15.2028695876
 10
26.5009503346
 20
15.2201174275
 10
26.6099936463
 20
15.2368967549
 10
26.7204455617
 20
15.2532024088
 10
26.8322989764
 20
15.2690289327
 10
26.9455881642
 20
15.284377516
 10
27.0603079867
 20
15.2992440419
 10
27.1764551156
 20
15.3136220222
 10
27.294066117
 20
15.3275088669
 10
27.4131029099
 20
15.340893746
 10
27.5335951538
 20
15.353774528
 10
27.6556813939
 20
15.366158047
 10
27.779279311
 20
15.3780234085
 10
27.9044654721
 20
15.3893652121
  0
LWPOLYLINE
  5
5DC
100
AcDbEntity
  8
RACCORDO
100
AcDbPolyline
 62
253
  6
CONTINUOUS
 90
9
 70
0
 10
35.800421433
 20
22.6948446673
 10
35.8252645527
 20
22.7265042595
 10
35.8494429981
 20
22.7565016546
 10
35.8723098804
 20
22.784034279
 10
35.8932534011
 20
22.8083655032
 10
35.9117132209
 20
22.8288443507
 10
35.9271954513
 20
22.8449229144
 10
35.9392858687
 20
22.856171016
 10
35.9476609965
 20
22.8622877148
  0
LWPOLYLINE
  5
5DD
100
AcDbEntity
  8
RACCORDO
100
AcDbPolyline
 62
253
  6
CONTINUOUS
 90
9
 70
0
 10
35.800421433
 20
-21.4846624944
 10
35.8252641596
 20
-21.5163214616
 10
35.8494421434
 20
-21.546318172
 10
35.8723085266
 20
-21.5738500938
 10
35.8932515421
 20
-21.5981806379
 10
35.9117108807
 20
-21.6186588653
 10
35.9271926813
 20
-21.6347369014
 10
35.9392827438
 20
-21.6459845946
 10
35.9476576109
 20
-21.652101024
  0
LWPOLYLINE
  5
5DE
100
AcDbEntity
  8
RACCORDO
100
AcDbPolyline
 62
253
  6
CONTINUOUS
 90
12
 70
0
 10
19.2707480576
 20
21.5129024175
 10
19.2714809132
 20
21.5063424506
 10
19.2721980303
 20
21.4965265237
 10
19.2728994089
 20
21.4834546369
 10
19.2735899965
 20
21.4669870974
 10
19.2742648457
 20
21.447263598
 10
19.2749091134
 20
21.4247032169
 10
19.2755218457
 20
21.3992516761
 10
19.2761039965
 20
21.3709632537
 10
19.2766435849
 20
21.3404198625
 10
19.2771397373
 20
21.3075738132
 10
19.2775933273
 20
21.2724727952
  0
LWPOLYLINE
  5
5DF
100
AcDbEntity
  8
RACCORDO
100
AcDbPolyline
 62
7
  6
CONTINUOUS
 90
136
 70
0
 10
23.2144365203
 20
13.7035542392
 10
23.2147710297
 20
13.6864666224
 10
23.2186194015
 20
13.643134375
 10
23.2267742307
 20
13.5998179357
 10
23.2390416166
 20
13.5571230009
 10
23.2551199859
 20
13.5153727547
 10
23.2747331309
 20
13.4746235216
 10
23.2975339537
 20
13.4350259484
 10
23.3231937606
 20
13.3966384916
 10
23.3515539609
 20
13.359293165
 10
23.3824482236
 20
13.3229080794
 10
23.415633869
 20
13.287514193
 10
23.4509112218
 20
13.2530943313
 10
23.4881313326
 20
13.2195998597
 10
23.5271941678
 20
13.1869581778
 10
23.5680064518
 20
13.1551095826
 10
23.6104867835
 20
13.1240072767
 10
23.654571505
 20
13.093598664
 10
23.7002238076
 20
13.0638310599
 10
23.7473747682
 20
13.0346787708
 10
23.7960046191
 20
13.0060962342
 10
23.8461580331
 20
12.9780088924
 10
23.8977983277
 20
12.9504010564
 10
23.9509082353
 20
12.9232468462
 10
24.0055776911
 20
12.8964779268
 10
24.0617798502
 20
12.8700857796
 10
24.1195080928
 20
12.8440602143
 10
24.1788825345
 20
12.8183340937
 10
24.2398771076
 20
12.7929142073
 10
24.3024975439
 20
12.7677929091
 10
24.3669196677
 20
12.7428988069
 10
24.4331272397
 20
12.7182445924
 10
24.501123963
 20
12.69383106
 10
24.5711253745
 20
12.6695914965
 10
24.6431038241
 20
12.6455474425
 10
24.7170795117
 20
12.6217030694
 10
24.7933451383
 20
12.5979828069
 10
24.8718739881
 20
12.5744138657
 10
24.9526900336
 20
12.5510098003
 10
25.036164573
 20
12.527688864
 10
25.1222601581
 20
12.5044890039
 10
25.2110153875
 20
12.4814297216
 10
25.3029178852
 20
12.4584181345
 10
25.3979127172
 20
12.4355065487
 10
25.4960593457
 20
12.412720237
 10
25.5980207343
 20
12.3899500325
 10
25.7037202072
 20
12.3672661251
 10
25.8132421364
 20
12.3447023884
 10
25.9274970631
 20
12.3221317649
 10
26.0463612821
 20
12.2996509692
 10
26.1699691755
 20
12.2773035122
 10
26.2996272456
 20
12.2549378095
 10
26.435126406
 20
12.2326896031
 10
26.5766895176
 20
12.21061734
 10
26.7262829083
 20
12.1885376688
 10
26.8835231334
 20
12.1666495245
 10
27.0488110558
 20
12.1450364404
 10
27.2253042634
 20
12.1234742473
 10
27.4122293189
 20
12.1022744263
 10
27.6103817963
 20
12.0815684002
 10
27.8252903613
 20
12.0610897477
 10
28.0551296832
 20
12.0413807097
 10
28.301751708
 20
12.022666988
 10
28.5762270877
 20
12.004700514
 10
28.8796788013
 20
11.9882398265
 10
29.2110099161
 20
11.9742273605
 10
29.5779782435
 20
11.9634229323
 10
30.0073548923
 20
11.9569500683
 10
30.4722881478
 20
11.9573720276
 10
30.9000606093
 20
11.964586507
 10
31.2630744738
 20
11.975899844
 10
31.588859187
 20
11.9901923399
 10
31.8874329155
 20
12.0068140911
 10
32.1585629962
 20
12.0249157152
 10
32.4025079866
 20
12.043725985
 10
32.6300022322
 20
12.0634989424
 10
32.8428356668
 20
12.0840166926
 10
33.0392446853
 20
12.1047504142
 10
33.2246073845
 20
12.1259645377
 10
33.3996928421
 20
12.1475304268
 10
33.5637538954
 20
12.1691434675
 10
33.719876904
 20
12.1910255647
 10
33.8684516602
 20
12.2130946795
 10
34.0091056394
 20
12.2351553839
 10
34.1437668964
 20
12.2573894347
 10
34.2726530205
 20
12.2797389726
 10
34.3955601182
 20
12.3020704655
 10
34.5137724162
 20
12.3245342739
 10
34.6274216687
 20
12.3470870772
 10
34.7363866869
 20
12.3696338602
 10
34.8415640535
 20
12.3923004671
 10
34.9430366028
 20
12.4150531157
 10
35.0407290178
 20
12.4378230036
 10
35.1352952556
 20
12.4607181361
 10
35.2267936149
 20
12.4837133779
 10
35.3151701011
 20
12.5067575109
 10
35.4009068973
 20
12.5299424937
 10
35.4840422599
 20
12.5532493554
 10
35.5645388348
 20
12.5766406777
 10
35.6427631221
 20
12.6001971336
 10
35.7187380931
 20
12.6239056551
 10
35.7924378334
 20
12.6477393128
 10
35.8641523886
 20
12.6717732857
 10
35.9339017373
 20
12.6960040622
 10
36.0016583598
 20
12.7204099031
 10
36.0676347781
 20
12.7450573706
 10
36.1318342533
 20
12.7699456158
 10
36.1942410206
 20
12.7950621236
 10
36.2550291455
 20
12.8204785988
 10
36.3142047103
 20
12.8462024933
 10
36.3717410723
 20
12.8722276523
 10
36.4277566454
 20
12.8986204936
 10
36.4822442225
 20
12.9253913488
 10
36.5351770895
 20
12.9525492414
 10
36.5866445029
 20
12.9801622769
 10
36.6366289354
 20
13.0082572199
 10
36.6850935323
 20
13.0368493666
 10
36.7320805743
 20
13.0660132922
 10
36.7775701353
 20
13.0957941507
 10
36.8214926846
 20
13.126218505
 10
36.8638105578
 20
13.1573384543
 10
36.9044594696
 20
13.1892071641
 10
36.943356923
 20
13.2218715612
 10
36.9804081236
 20
13.2553902103
 10
37.0155108731
 20
13.2898354051
 10
37.0485159181
 20
13.3252556718
 10
37.0792230245
 20
13.3616679844
 10
37.1073872104
 20
13.3990390537
 10
37.1328411574
 20
13.4374496925
 10
37.155426691
 20
13.477069229
 10
37.1748139777
 20
13.5178357667
 10
37.1906556877
 20
13.5595925965
 10
37.2026779128
 20
13.6022800135
 10
37.2105840062
 20
13.6455695724
 10
37.2141886532
 20
13.6888507035
 10
37.2144363872
 20
13.7035541726
  0
LINE
  5
5E0
100
AcDbEntity
  8
RACCORDO
100
AcDbLine
 62
7
  6
CONTINUOUS
 10
23.2144364497
 20
13.7486744111
 11
23.2144364497
 21
13.7035556004
  0
LWPOLYLINE
  5
5E1
100
AcDbEntity
  8
RACCORDO
100
AcDbPolyline
 62
253
  6
CONTINUOUS
 90
200
 70
0
 10
23.3144364497
 20
13.6975334685
 10
23.3144804749
 20
13.7049470329
 10
23.3147467216
 20
13.7126780837
 10
23.3152351896
 20
13.7207266219
 10
23.3159215819
 20
13.7290916459
 10
23.3168301956
 20
13.7377741591
 10
23.3180339224
 20
13.7467771698
 10
23.3195310946
 20
13.7561030308
 10
23.32132338
 20
13.7657493914
 10
23.3234886726
 20
13.7757122052
 10
23.326027214
 20
13.7859952106
 10
23.3289387628
 20
13.7965946715
 10
23.3323004882
 20
13.8074953302
 10
23.3361155279
 20
13.8187023645
 10
23.3403807442
 20
13.8302105989
 10
23.3451638943
 20
13.8419892454
 10
23.3504692602
 20
13.854040524
 10
23.3562925598
 20
13.8663622169
 10
23.3626887033
 20
13.878916879
 10
23.3696526534
 20
13.8916923013
 10
23.3771894474
 20
13.9047006948
 10
23.3853691065
 20
13.9179412438
 10
23.3941866627
 20
13.9314099052
 10
23.4036470839
 20
13.9451107243
 10
23.4138352954
 20
13.9590550183
 10
23.4247522263
 20
13.9732476334
 10
23.4363969476
 20
13.9876837258
 10
23.4488515972
 20
14.0023600779
 10
23.4621193774
 20
14.0172813584
 10
23.476197086
 20
14.0324429011
 10
23.4911572538
 20
14.0478274857
 10
23.5070014568
 20
14.0634363073
 10
23.523728119
 20
14.0792681732
 10
23.5414050441
 20
14.0953022811
 10
23.5600217329
 20
14.1115307526
 10
23.5795886845
 20
14.1279614684
 10
23.6002051999
 20
14.1445972644
 10
23.6218663211
 20
14.1614377543
 10
23.644577006
 20
14.1784833269
 10
23.6684514291
 20
14.1957379815
 10
23.6934871648
 20
14.2132034861
 10
23.7196866387
 20
14.2308780753
 10
23.7471713029
 20
14.2487604477
 10
23.7759422374
 20
14.2668540008
 10
23.8059983622
 20
14.2851553398
 10
23.8374578895
 20
14.3036529747
 10
23.8703390287
 20
14.3223575253
 10
23.9046235703
 20
14.3412583745
 10
23.9403750991
 20
14.3603121767
 10
23.9776005485
 20
14.3795203831
 10
24.016292985
 20
14.3988815445
 10
24.0564951922
 20
14.4183479647
 10
24.0982049685
 20
14.4379166993
 10
24.1414245154
 20
14.4575906939
 10
24.1862032216
 20
14.4773310864
 10
24.2325216163
 20
14.4971297282
 10
24.2803991702
 20
14.5169947687
 10
24.3299436837
 20
14.5369117921
 10
24.3811297925
 20
14.5568741778
 10
24.4339828609
 20
14.5768885469
 10
24.4886867823
 20
14.5969603468
 10
24.5452362867
 20
14.6170925011
 10
24.603636644
 20
14.6372820867
 10
24.664087558
 20
14.6575257813
 10
24.7265895914
 20
14.6778281958
 10
24.7911421814
 20
14.6981847199
 10
24.8579433436
 20
14.7185781987
 10
24.9270035866
 20
14.739015153
 10
24.9983124017
 20
14.7594890624
 10
25.0720362784
 20
14.7799632096
 10
25.1481724347
 20
14.8004395934
 10
25.2267236526
 20
14.820916215
 10
25.3078647672
 20
14.8413503599
 10
25.3915772047
 20
14.8617411842
 10
25.477879539
 20
14.8820895311
 10
25.5670023272
 20
14.9023552175
 10
25.6589243311
 20
14.9225390523
 10
25.7536667888
 20
14.9426402252
 10
25.851523972
 20
14.9626161235
 10
25.9524884866
 20
14.9824720505
 10
26.0565677265
 20
15.0022027011
 10
26.1640781453
 20
15.0217495489
 10
26.275010982
 20
15.0411186109
 10
26.3893749975
 20
15.0603038677
 10
26.5075129288
 20
15.0792287378
 10
26.6294152176
 20
15.0979004442
 10
26.7550914221
 20
15.1163117606
 10
26.884912955
 20
15.1343644295
 10
27.018841836
 20
15.1520647395
 10
27.1569160453
 20
15.1694063976
 10
27.2996209356
 20
15.1862722735
 10
27.4469379499
 20
15.2026753448
 10
27.598885645
 20
15.2186026285
 10
27.7560050448
 20
15.233898052
 10
27.9183426096
 20
15.2485821561
 10
28.085851879
 20
15.2626343936
 10
28.2589344947
 20
15.2758370574
 10
28.4375022486
 20
15.2882053444
 10
28.6216433489
 20
15.2997240503
 10
28.8120240622
 20
15.310129865
 10
29.0083177798
 20
15.3194531154
 10
29.2108511106
 20
15.3276634671
 10
29.4212701474
 20
15.3344066168
 10
29.6413807855
 20
15.3397196074
 10
29.8693771298
 20
15.34356539
 10
30.1014875874
 20
15.3454785231
 10
30.3391305628
 20
15.3452896117
 10
30.5808876517
 20
15.3431680496
 10
30.818732048
 20
15.3391565799
 10
31.0516514539
 20
15.3330780399
 10
31.2806581674
 20
15.325109599
 10
31.5007622768
 20
15.315825499
 10
31.7101012989
 20
15.3052591438
 10
31.9105377169
 20
15.2933771384
 10
32.1026690694
 20
15.2806535234
 10
32.2859304167
 20
15.2671833279
 10
32.4608866985
 20
15.2528715303
 10
32.6298302727
 20
15.2379070919
 10
32.7932729752
 20
15.2222919862
 10
32.9507029701
 20
15.2060242467
 10
33.1028771075
 20
15.1892869238
 10
33.2498681148
 20
15.1720914062
 10
33.3916032645
 20
15.1544263107
 10
33.5286212248
 20
15.1364405288
 10
33.6609011582
 20
15.1181524787
 10
33.7884639023
 20
15.0995437461
 10
33.9119106379
 20
15.0807079724
 10
34.0312594202
 20
15.0616571605
 10
34.1464921941
 20
15.0423793104
 10
34.2581559752
 20
15.0229320579
 10
34.366306006
 20
15.0033169433
 10
34.470887044
 20
14.9835324287
 10
34.5722803767
 20
14.9636315313
 10
34.670503501
 20
14.9436189357
 10
34.76553892
 20
14.923489959
 10
34.8577154304
 20
14.9032835666
 10
34.9470589665
 20
14.8830003218
 10
35.033543594
 20
14.8626396625
 10
35.117420307
 20
14.8422388657
 10
35.1987115064
 20
14.8217965897
 10
35.2773947914
 20
14.8013141767
 10
35.3536539539
 20
14.7808329289
 10
35.4274925421
 20
14.7603548901
 10
35.4989070079
 20
14.7398780166
 10
35.5680704989
 20
14.719437478
 10
35.6349744147
 20
14.6990393522
 10
35.6996273557
 20
14.6786775609
 10
35.7622282705
 20
14.6583690396
 10
35.8227772572
 20
14.6381181759
 10
35.8812742177
 20
14.6179205815
 10
35.9379178059
 20
14.5977800282
 10
35.9927131228
 20
14.5776994618
 10
36.0456550674
 20
14.5576759356
 10
36.0969269914
 20
14.5377043827
 10
36.1465537878
 20
14.5177783808
 10
36.1945105636
 20
14.4979043516
 10
36.2409059912
 20
14.4780964942
 10
36.2857596689
 20
14.4583466463
 10
36.3290519985
 20
14.4386629693
 10
36.3708328581
 20
14.4190841482
 10
36.4111047136
 20
14.399607118
 10
36.4498650992
 20
14.3802349424
 10
36.4871564953
 20
14.3610154983
 10
36.5229720887
 20
14.3419501313
 10
36.5573186927
 20
14.3230374938
 10
36.5902592274
 20
14.3043214228
 10
36.6217753263
 20
14.2858125659
 10
36.651885356
 20
14.2675002729
 10
36.6807073371
 20
14.2493964339
 10
36.708239847
 20
14.2315046643
 10
36.7344843083
 20
14.213821346
 10
36.7595630087
 20
14.1963475187
 10
36.7834783818
 20
14.1790850016
 10
36.806227994
 20
14.1620319729
 10
36.8279268317
 20
14.1451840103
 10
36.8485798451
 20
14.1285408227
 10
36.8681820841
 20
14.1121026989
 10
36.8868336839
 20
14.095866087
 10
36.9045453579
 20
14.079823018
 10
36.9213063927
 20
14.0639814585
 10
36.9371847844
 20
14.0483617598
 10
36.9521792304
 20
14.0329648372
 10
36.9662910332
 20
14.0177897729
 10
36.9795920958
 20
14.0028541675
 10
36.99207916
 20
13.9881626625
 10
37.0037554841
 20
13.9737106138
 10
37.0147027462
 20
13.9595016939
 10
37.0249199206
 20
13.9455407916
 10
37.034408033
 20
13.9318230157
 10
37.0432518392
 20
13.918337368
 10
37.0514561776
 20
13.9050800226
 10
37.0590162097
 20
13.8920548032
 10
37.0660021766
 20
13.879262187
 10
37.0724191686
 20
13.866689973
 10
37.0782620954
 20
13.8543503601
 10
37.0835859271
 20
13.842280425
 10
37.0883864849
 20
13.8304820852
 10
37.0926679476
 20
13.8189534209
 10
37.0964978213
 20
13.8077257527
 10
37.0998728814
 20
13.7968042995
  0
LWPOLYLINE
  5
5E2
100
AcDbEntity
  8
RACCORDO
100
AcDbPolyline
 62
253
  6
CONTINUOUS
 90
12
 70
0
 10
37.0998728814
 20
13.7968042995
 10
37.1027963526
 20
13.7861838401
 10
37.1053454155
 20
13.7758800342
 10
37.107519773
 20
13.7658966587
 10
37.1093197221
 20
13.7562299345
 10
37.1108233346
 20
13.7468841876
 10
37.1120322505
 20
13.7378617982
 10
37.1129448297
 20
13.7291603839
 10
37.113634224
 20
13.7207771265
 10
37.1141248174
 20
13.7127110858
 10
37.114392226
 20
13.7049632002
 10
37.1144364497
 20
13.6975334685
  0
LWPOLYLINE
  5
5E3
100
AcDbEntity
  8
RACCORDO
100
AcDbPolyline
 62
253
  6
CONTINUOUS
 90
200
 70
0
 10
23.2144365094
 20
13.7035556004
 10
23.2145422872
 20
13.7131529558
 10
23.2148777766
 20
13.7231663894
 10
23.2154713827
 20
13.7335863303
 10
23.2163504598
 20
13.744393362
 10
23.2175430727
 20
13.7555833096
 10
23.2190808155
 20
13.7671662486
 10
23.2209922056
 20
13.7791248026
 10
23.2233043414
 20
13.7914408499
 10
23.2260495668
 20
13.8041190837
 10
23.2292543342
 20
13.8171373286
 10
23.2329422467
 20
13.8304716169
 10
23.2371427905
 20
13.8441196449
 10
23.2418781647
 20
13.8580575576
 10
23.2471658228
 20
13.8722567825
 10
23.2530273675
 20
13.8867045524
 10
23.259477105
 20
13.9013739985
 10
23.2665266299
 20
13.9162397742
 10
23.27419113
 20
13.9312894636
 10
23.2824688426
 20
13.9464817497
 10
23.2913743492
 20
13.9618115515
 10
23.3009482675
 20
13.9773170173
 10
23.3111911627
 20
13.9929665101
 10
23.3221130324
 20
14.0087465217
 10
23.3337737286
 20
14.024714817
 10
23.34618094
 20
14.0408497883
 10
23.3593384722
 20
14.0571266524
 10
23.3733048171
 20
14.0735906271
 10
23.3880880472
 20
14.0902216305
 10
23.4036906395
 20
14.1069940561
 10
23.420164662
 20
14.1239392918
 10
23.4375144896
 20
14.1410359534
 10
23.4557441987
 20
14.1582623684
 10
23.4749058326
 20
14.175645771
 10
23.4949908185
 20
14.1931560573
 10
23.5160141849
 20
14.2107834519
 10
23.5380645439
 20
14.228580729
 10
23.5611412865
 20
14.2465237883
 10
23.5852527952
 20
14.2645947626
 10
23.6105033062
 20
14.2828489516
 10
23.6368953365
 20
14.3012632508
 10
23.6644351862
 20
14.3198161966
 10
23.6932345094
 20
14.3385589608
 10
23.7232992394
 20
14.3574695466
 10
23.754632708
 20
14.3765231077
 10
23.7873436348
 20
14.3957610934
 10
23.8214543638
 20
14.4151703054
 10
23.8569516249
 20
14.4347156113
 10
23.8938899593
 20
14.4544037355
 10
23.9322776819
 20
14.4742161842
 10
23.9721128867
 20
14.4941274774
 10
24.0134326282
 20
14.5141355821
 10
24.0562349594
 20
14.5342199551
 10
24.1005258305
 20
14.5543619795
 10
24.1463520605
 20
14.5745646008
 10
24.1936943323
 20
14.5948019521
 10
24.2425744405
 20
14.6150640873
 10
24.2930998181
 20
14.6353775133
 10
24.3452464723
 20
14.6557145265
 10
24.3990410369
 20
14.6760656285
 10
24.4546672056
 20
14.6964802413
 10
24.5121225036
 20
14.7169359593
 10
24.5714133968
 20
14.7374119332
 10
24.6327378304
 20
14.7579534937
 10
24.6960992966
 20
14.7785374071
 10
24.7614990711
 20
14.7991381085
 10
24.8291323275
 20
14.8197914691
 10
24.8990122498
 20
14.8404747295
 10
24.9711306559
 20
14.8611571111
 10
25.045650695
 20
14.881858037
 10
25.1225715328
 20
14.9025495458
 10
25.2018984504
 20
14.9232036847
 10
25.2838034577
 20
14.9438365011
 10
25.3682696457
 20
14.9644148204
 10
25.4553178036
 20
14.9849130742
 10
25.5451763581
 20
15.0053541127
 10
25.6378259008
 20
15.0257018437
 10
25.7332895565
 20
15.0459278938
 10
25.8318597671
 20
15.0660596827
 10
25.9335311232
 20
15.0860600457
 10
26.0383128065
 20
15.1058928744
 10
26.1465194465
 20
15.1255786198
 10
26.258143965
 20
15.1450752338
 10
26.3731969471
 20
15.1643417944
 10
26.4920197046
 20
15.1833911122
 10
26.6146039159
 20
15.2021755883
 10
26.7409608691
 20
15.2206484331
 10
26.8714613582
 20
15.2388132718
 10
27.0060679612
 20
15.256612297
 10
27.1448201497
 20
15.2739955139
 10
27.2882041708
 20
15.2909647697
 10
27.4362014666
 20
15.3074551531
 10
27.5888316843
 20
15.323402976
 10
27.7466384705
 20
15.3387944267
 10
27.9096670164
 20
15.3535579212
 10
28.0778715462
 20
15.3676092723
 10
28.2516587444
 20
15.3808989747
 10
28.4309361439
 20
15.3933331973
 10
28.6157921212
 20
15.4048259749
 10
28.8069037429
 20
15.4153182729
 10
29.0039364492
 20
15.4246856972
 10
29.2072162616
 20
15.4328302833
 10
29.4184106099
 20
15.4396801064
 10
29.6393191068
 20
15.4451103742
 10
29.8681275226
 20
15.4488794799
 10
30.1010787221
 20
15.4507897031
 10
30.33957825
 20
15.4507407432
 10
30.5821910187
 20
15.4486062531
 10
30.8208968486
 20
15.4444465125
 10
31.0546728212
 20
15.4383819737
 10
31.2845142391
 20
15.4304757126
 10
31.5054360493
 20
15.42103458
 10
31.7155730056
 20
15.4103544746
 10
31.9167819716
 20
15.3985433016
 10
32.1096687201
 20
15.3857341618
 10
32.2936683366
 20
15.3721302182
 10
32.4693468741
 20
15.3578467243
 10
32.6390058628
 20
15.3428203822
 10
32.8031588486
 20
15.3270990707
 10
32.9612924424
 20
15.3108206316
 10
33.114165312
 20
15.2939934532
 10
33.2618523742
 20
15.2766882453
 10
33.4042812771
 20
15.2589889168
 10
33.5419894651
 20
15.2409001953
 10
33.6749582757
 20
15.222492498
 10
33.8032107064
 20
15.2038278744
 10
33.9273461013
 20
15.1848790601
 10
34.0473843938
 20
15.165698668
 10
34.1633102548
 20
15.1463425905
 10
34.2756689621
 20
15.1267690059
 10
34.3845176539
 20
15.1070131427
 10
34.4898033626
 20
15.0871278662
 10
34.5919051975
 20
15.0670827505
 10
34.6908425114
 20
15.0469133675
 10
34.7866001817
 20
15.0266604195
 10
34.8795049311
 20
15.0062903968
 10
34.9695846042
 20
14.985831437
 10
35.0568153717
 20
14.9653215374
 10
35.1414459621
 20
14.9447336299
 10
35.2235009984
 20
14.9240927081
 10
35.3029599098
 20
14.9034333387
 10
35.3800035651
 20
14.8827373807
 10
35.4546379914
 20
14.8620327695
 10
35.5268617282
 20
14.8413479595
 10
35.5968445598
 20
14.8206616481
 10
35.6645801911
 20
14.80000404
 10
35.7300799648
 20
14.779398595
 10
35.7935399555
 20
14.7588090897
 10
35.8549620972
 20
14.7382608455
 10
35.9143492649
 20
14.7177774335
 10
35.971898285
 20
14.6973138438
 10
36.0276154607
 20
14.6768909961
 10
36.0814985501
 20
14.6565313986
 10
36.1337306104
 20
14.6361858291
 10
36.1843377963
 20
14.6158640202
 10
36.2332966936
 20
14.5955936707
 10
36.2807155317
 20
14.5753478644
 10
36.326616211
 20
14.5551365043
 10
36.3709794001
 20
14.5349856722
 10
36.4138523403
 20
14.5148920886
 10
36.4552412248
 20
14.4948742159
 10
36.4951439489
 20
14.4749528848
 10
36.533597172
 20
14.4551301641
 10
36.5705991029
 20
14.4354314346
 10
36.6061580445
 20
14.4158754467
 10
36.6403277293
 20
14.3964557946
 10
36.6730947342
 20
14.3772076887
 10
36.704481701
 20
14.358144479
 10
36.7345969724
 20
14.3392249016
 10
36.7634435197
 20
14.3204740652
 10
36.7910278255
 20
14.3019139822
 10
36.8174622294
 20
14.2834929949
 10
36.8427529878
 20
14.2652325844
 10
36.8669028346
 20
14.2471560354
 10
36.8900167135
 20
14.2292074617
 10
36.9121028988
 20
14.2114047469
 10
36.9331610348
 20
14.19377208
 10
36.9532805617
 20
14.1762558685
 10
36.972476582
 20
14.1588656534
 10
36.9907405168
 20
14.1416317262
 10
37.0081246573
 20
14.1245263797
 10
37.0246332256
 20
14.1075708656
 10
37.0402704394
 20
14.0907868368
 10
37.0550877369
 20
14.0741433379
 10
37.0690874363
 20
14.0576659188
 10
37.0822777783
 20
14.0413746179
 10
37.0947167441
 20
14.0252246976
 10
37.1064079501
 20
14.0092410095
 10
37.1173593056
 20
13.9934450408
 10
37.1276304195
 20
13.9777793364
 10
37.1372310313
 20
13.9622576997
 10
37.146162004
 20
13.9469114489
 10
37.1544641949
 20
13.9317019846
 10
37.1621520648
 20
13.9166344283
 10
37.1692238765
 20
13.9017499693
 10
37.1756949646
 20
13.8870605403
 10
37.1815769042
 20
13.8725911926
 10
37.1868837697
 20
13.8583690085
 10
37.1916369041
 20
13.8444073647
 10
37.1958536688
 20
13.830735038
  0
LWPOLYLINE
  5
5E4
100
AcDbEntity
  8
RACCORDO
100
AcDbPolyline
 62
253
  6
CONTINUOUS
 90
12
 70
0
 10
37.1958536688
 20
13.830735038
 10
37.1995562193
 20
13.817375767
 10
37.2027739804
 20
13.8043323101
 10
37.2055305711
 20
13.7916288417
 10
37.2078524212
 20
13.7792875087
 10
37.2097719369
 20
13.7673039303
 10
37.2113163134
 20
13.7556963992
 10
37.2125140905
 20
13.7444823315
 10
37.213396985
 20
13.7336518528
 10
37.2139931984
 20
13.723209268
 10
37.2143301495
 20
13.713173984
 10
37.2144363816
 20
13.7035556004
  0
LWPOLYLINE
  5
5E5
100
AcDbEntity
  8
0
100
AcDbPolyline
 62
253
  6
CONTINUOUS
 90
133
 70
0
 10
22.9857841117
 20
13.7002311705
 10
22.9866226542
 20
13.740099947
 10
22.9904785101
 20
13.7809858409
 10
22.9973516795
 20
13.8228888672
 10
23.0071014937
 20
13.8660277975
 10
23.0198686213
 20
13.910183893
 10
23.0360750687
 20
13.9547008925
 10
23.0558465884
 20
13.9995547756
 10
23.0790574279
 20
14.0447695733
 10
23.1057523349
 20
14.089761082
 10
23.1360004061
 20
14.1344391664
 10
23.1697325448
 20
14.178893953
 10
23.2067862096
 20
14.2228116156
 10
23.2471864974
 20
14.2661298644
 10
23.2909083111
 20
14.3089109712
 10
23.3377138187
 20
14.3510279454
 10
23.3875703663
 20
14.3924277493
 10
23.4405106077
 20
14.4331633999
 10
23.4963946716
 20
14.4732669871
 10
23.5551705733
 20
14.5127194455
 10
23.6168902976
 20
14.5515398222
 10
23.6815699268
 20
14.5898173778
 10
23.7491924972
 20
14.6275650069
 10
23.8197749725
 20
14.6647698002
 10
23.893384327
 20
14.7014823152
 10
23.969981149
 20
14.7376997133
 10
24.0496048502
 20
14.7734248201
 10
24.1324406387
 20
14.8087166911
 10
24.2184479259
 20
14.843576489
 10
24.3076673005
 20
14.8780030401
 10
24.4004057365
 20
14.9120518971
 10
24.496677653
 20
14.9457432661
 10
24.5964686309
 20
14.9790569318
 10
24.7000423866
 20
15.0119878151
 10
24.8074555371
 20
15.0445590196
 10
24.9186514655
 20
15.0767474328
 10
25.0337240367
 20
15.1084786506
 10
25.1526760641
 20
15.1397581982
 10
25.2755047344
 20
15.1705805401
 10
25.4022954731
 20
15.20085468
 10
25.5329808902
 20
15.2305736586
 10
25.6676283758
 20
15.2597444235
 10
25.8065255251
 20
15.2882968365
 10
25.9496215834
 20
15.3162328145
 10
26.0969673053
 20
15.3435504284
 10
26.2490025499
 20
15.37017377
 10
26.405746026
 20
15.3961193812
 10
26.5671790246
 20
15.4213707076
 10
26.7336852786
 20
15.4458021951
 10
26.9053016134
 20
15.4694301694
 10
27.0819912035
 20
15.4922382913
 10
27.264027305
 20
15.5140520079
 10
27.4512772573
 20
15.5348792037
 10
27.643873721
 20
15.5547119798
 10
27.8424879341
 20
15.5733521057
 10
28.046935871
 20
15.5908259095
 10
28.2574015572
 20
15.6071070485
 10
28.4751083075
 20
15.6219182848
 10
28.7005390122
 20
15.6353194303
 10
28.9332107809
 20
15.6472506592
 10
29.1728982574
 20
15.6572552741
 10
29.4204676219
 20
15.6653303431
 10
29.6750526941
 20
15.6714787863
 10
29.9338295766
 20
15.6752526831
 10
30.1980163229
 20
15.6765261841
 10
30.4663948795
 20
15.6754251345
 10
30.7324871887
 20
15.6718791571
 10
30.996019071
 20
15.6656961423
 10
31.2572647058
 20
15.6570682079
 10
31.5105685744
 20
15.6465013202
 10
31.7543583036
 20
15.6339640442
 10
31.9902062666
 20
15.6194878301
 10
32.2171740633
 20
15.6036729695
 10
32.4345691166
 20
15.5865882296
 10
32.6430840038
 20
15.568164858
 10
32.8438580563
 20
15.5487968618
 10
33.0368610882
 20
15.5285390555
 10
33.2221232856
 20
15.5073366372
 10
33.4008745383
 20
15.4854191856
 10
33.5731847874
 20
15.4628186117
 10
33.7389840918
 20
15.4395030153
 10
33.8992925193
 20
15.4156062564
 10
34.0542266968
 20
15.3911366103
 10
34.2036699973
 20
15.3660858115
 10
34.3482926075
 20
15.3405629064
 10
34.4881414164
 20
15.3145771442
 10
34.623169535
 20
15.2881192843
 10
34.7539064826
 20
15.2612706369
 10
34.8803762437
 20
15.2340410737
 10
35.0025548338
 20
15.2064207305
 10
35.1208998199
 20
15.1784613119
 10
35.2354349039
 20
15.1501738901
 10
35.3461363838
 20
15.1215473997
 10
35.4533907205
 20
15.0926003385
 10
35.5572199347
 20
15.0633414754
 10
35.6576020057
 20
15.0337620482
 10
35.7548573318
 20
15.003854258
 10
35.8490157098
 20
14.9736197628
 10
35.9400473428
 20
14.9430569117
 10
36.028183239
 20
14.912152943
 10
36.1134468985
 20
14.8809088056
 10
36.1958148211
 20
14.8493235581
 10
36.2754475144
 20
14.8173816036
 10
36.352356753
 20
14.785087202
 10
36.4265307621
 20
14.7524361017
 10
36.4980947248
 20
14.7193999383
 10
36.5670505157
 20
14.6859891462
 10
36.6333962601
 20
14.6521933004
 10
36.6972515173
 20
14.6179527479
 10
36.7586292319
 20
14.5832823088
 10
36.8175164592
 20
14.5481671741
 10
36.8739939247
 20
14.5125032497
 10
36.9281392414
 20
14.4762544209
 10
36.9798747963
 20
14.439456817
 10
37.0290484751
 20
14.4021147117
 10
37.075681192
 20
14.3641906506
 10
37.1197520329
 20
14.3257221034
 10
37.1610461417
 20
14.2868257285
 10
37.1995252697
 20
14.2474915453
 10
37.2352276656
 20
14.2077295469
 10
37.2680532188
 20
14.1676863486
 10
37.2979804741
 20
14.1273031549
 10
37.3250308866
 20
14.0866387705
 10
37.3491687118
 20
14.0460162041
 10
37.3703313636
 20
14.0053795503
 10
37.388581428
 20
13.9647847143
 10
37.4040709183
 20
13.9247224092
 10
37.4167116554
 20
13.8852184743
 10
37.4265918185
 20
13.8462470552
 10
37.4341279582
 20
13.8082213118
 10
37.4394589247
 20
13.7712789529
 10
37.4424458679
 20
13.7352822432
 10
37.4430887876
 20
13.7002311705
  0
LWPOLYLINE
  5
5E6
100
AcDbEntity
  8
ASSI
100
AcDbPolyline
 62
253
  6
CONTINUOUS
 90
118
 70
0
 10
22.9857841117
 20
13.7002311705
 10
22.9868257833
 20
13.7403421892
 10
22.9906229132
 20
13.7809160977
 10
22.9971755013
 20
13.8219529026
 10
23.0063537777
 20
13.8634820985
 10
23.0182875125
 20
13.9054742042
 10
23.0333660153
 20
13.9478407612
 10
23.051530422
 20
13.9905343551
 10
23.0728395969
 20
14.0336024106
 10
23.0978594428
 20
14.0770987267
 10
23.1267018468
 20
14.1211757575
 10
23.1592549218
 20
14.1656810632
 10
23.1957489092
 20
14.2102110972
 10
23.2362505427
 20
14.2547270547
 10
23.2806930887
 20
14.2992677402
 10
23.3291065881
 20
14.3435460101
 10
23.3815042349
 20
14.3875085354
 10
23.4378728353
 20
14.4312086357
 10
23.4982028483
 20
14.4745191343
 10
23.5624783815
 20
14.5174149083
 10
23.6307153275
 20
14.5599210679
 10
23.7029518223
 20
14.6019857835
 10
23.7791638771
 20
14.6436011619
 10
23.8593754809
 20
14.6847750826
 10
23.9436967362
 20
14.7254793742
 10
24.0321068651
 20
14.7657106626
 10
24.1246266457
 20
14.805472308
 10
24.2214285152
 20
14.8447462401
 10
24.3224927947
 20
14.8835341546
 10
24.4278391632
 20
14.921834342
 10
24.5376990947
 20
14.9596236234
 10
24.6520520099
 20
14.9969064313
 10
24.7709184882
 20
15.0336783195
 10
24.8945917416
 20
15.0699027898
 10
25.0230484226
 20
15.1055895901
 10
25.1563118788
 20
15.1407289585
 10
25.2947453649
 20
15.1752551314
 10
25.4383251627
 20
15.2091837272
 10
25.5870749904
 20
15.2424991127
 10
25.7414292575
 20
15.2750886455
 10
25.9013666118
 20
15.3069644289
 10
26.0669084055
 20
15.3381143432
 10
26.2385531043
 20
15.3683894085
 10
26.4162765202
 20
15.3978040288
 10
26.6001028412
 20
15.4263437821
 10
26.7906030963
 20
15.4538164463
 10
26.987746085
 20
15.4802425634
 10
27.1915630079
 20
15.5056015717
 10
27.4027184963
 20
15.5296395903
 10
27.6211692956
 20
15.5523943832
 10
27.8469586606
 20
15.5738281653
 10
28.0808809862
 20
15.5935737283
 10
28.3229028866
 20
15.6116782841
 10
28.5730577477
 20
15.6280945992
 10
28.8322401232
 20
15.6423137918
 10
29.1006804178
 20
15.6543959344
 10
29.3781482266
 20
15.6642809352
 10
29.6648468894
 20
15.671279663
 10
29.9645095173
 20
15.6752874486
 10
30.273402999
 20
15.6764089504
 10
30.5805313403
 20
15.6742690312
 10
30.8856140894
 20
15.6684733783
 10
31.188931698
 20
15.6594163135
 10
31.480329527
 20
15.6479056543
 10
31.7558322322
 20
15.6339759367
 10
32.0194151577
 20
15.6175926458
 10
32.2728496966
 20
15.5994600191
 10
32.516181236
 20
15.5796660643
 10
32.7493643888
 20
15.5581227959
 10
32.9740343867
 20
15.5352704559
 10
33.1903107441
 20
15.5111694426
 10
33.3980739466
 20
15.4857593783
 10
33.5986006827
 20
15.4592993365
 10
33.7920093187
 20
15.4318180466
 10
33.9781814883
 20
15.4032867984
 10
34.1580387803
 20
15.3738785026
 10
34.3316765141
 20
15.3436056251
 10
34.4989993704
 20
15.312455718
 10
34.6606429798
 20
15.2805643185
 10
34.8166706059
 20
15.2479382754
 10
34.9670189851
 20
15.2145707565
 10
35.1121339585
 20
15.1805767756
 10
35.2520419809
 20
15.1459713264
 10
35.3867165973
 20
15.1107394301
 10
35.5165242836
 20
15.07495114
 10
35.6414881841
 20
15.0386169174
 10
35.7615851545
 20
15.001726315
 10
35.8771122378
 20
14.9643180218
 10
35.9880897596
 20
14.9263968939
 10
36.0944973943
 20
14.887958089
 10
36.1965712076
 20
14.8490257477
 10
36.2943315563
 20
14.8096017012
 10
36.3877580836
 20
14.7696841322
 10
36.4770257849
 20
14.729291707
 10
36.5621552958
 20
14.6884204382
 10
36.6431259806
 20
14.6470743274
 10
36.7200509274
 20
14.6052840242
 10
36.7929544353
 20
14.5630421185
 10
36.8618122051
 20
14.5203560343
 10
36.9266644275
 20
14.4772786714
 10
36.9875278019
 20
14.4337832799
 10
37.0443856289
 20
14.3898966226
 10
37.0972280005
 20
14.3457518662
 10
37.1460373315
 20
14.3013010673
 10
37.1908312071
 20
14.2565921787
 10
37.2316524754
 20
14.2119022053
 10
37.2684415257
 20
14.1671814574
 10
37.3012579687
 20
14.1224796254
 10
37.3303234852
 20
14.0782227737
 10
37.3555198857
 20
14.0345628029
 10
37.3769653596
 20
13.9913477974
 10
37.3952361561
 20
13.9485480911
 10
37.4103857069
 20
13.9061604699
 10
37.4223605801
 20
13.864188136
 10
37.4315767295
 20
13.8226110481
 10
37.4381728061
 20
13.7814225225
 10
37.4420101588
 20
13.7406292318
 10
37.4430887876
 20
13.7002311705
  0
LINE
  5
5E7
100
AcDbEntity
  8
0
100
AcDbLine
 62
7
  6
CONTINUOUS
 10
23.1857764964
 20
13.7121222416
 11
23.1866201127
 21
13.7397114023
  0
LWPOLYLINE
  5
5E8
100
AcDbEntity
  8
ASSI
100
AcDbPolyline
 62
7
  6
CONTINUOUS
 90
3
 70
0
 10
23.1857764964
 20
13.7121222416
 10
23.1868688221
 20
13.743534933
 10
23.1881078388
 20
13.7580717079
  0
LINE
  5
5E9
100
AcDbEntity
  8
0
100
AcDbLine
 62
7
  6
CONTINUOUS
 10
23.1866201127
 20
13.7397114023
 11
23.1881078333
 21
13.7580716534
  0
LINE
  5
5EA
100
AcDbEntity
  8
ASSI
100
AcDbLine
 62
7
  6
CONTINUOUS
 10
23.1881078388
 20
13.7580717079
 11
23.1884752682
 21
13.7615683997
  0
LINE
  5
5EB
100
AcDbEntity
  8
0
100
AcDbLine
 62
7
  6
CONTINUOUS
 10
23.1881078333
 20
13.7580716534
 11
23.1884931501
 21
13.7617322864
  0
LINE
  5
5EC
100
AcDbEntity
  8
ASSI
100
AcDbLine
 62
7
  6
CONTINUOUS
 10
26.8295641726
 20
23.0050910865
 11
26.851092086
 21
23.1050910865
  0
LINE
  5
5ED
100
AcDbEntity
  8
SUPERFICI
100
AcDbLine
 62
7
  6
CONTINUOUS
 10
26.8295641726
 20
23.0050910865
 11
26.851092086
 21
23.1050910865
  0
LWPOLYLINE
  5
5EE
100
AcDbEntity
  8
ASSI
100
AcDbPolyline
 62
253
  6
CONTINUOUS
 90
24
 70
0
 10
41.1496333116
 20
20.9932795
 10
41.1480226974
 20
20.9918046968
 10
41.1443253836
 20
20.9903392506
 10
41.1385568375
 20
20.988889298
 10
41.1307411985
 20
20.9874609107
 10
41.120911181
 20
20.9860600706
 10
41.1091079414
 20
20.9846926447
 10
41.0953808959
 20
20.9833643594
 10
41.0797875173
 20
20.9820807775
 10
41.0623931052
 20
20.980847275
 10
41.0432704927
 20
20.9796690176
 10
41.0224997535
 20
20.9785509396
 10
41.0001678817
 20
20.9774977243
 10
40.9763683954
 20
20.9765137825
 10
40.9512009558
 20
20.9756032346
 10
40.9247709713
 20
20.9747698942
 10
40.8971891297
 20
20.9740172513
 10
40.868570929
 20
20.9733484574
 10
40.8390362104
 20
20.972766313
 10
40.808708657
 20
20.9722732561
 10
40.7777152698
 20
20.9718713511
 10
40.7461858328
 20
20.9715622812
 10
40.7142523786
 20
20.9713473405
 10
40.6820486362
 20
20.9712274293
  0
LINE
  5
5EF
100
AcDbEntity
  8
ASSI
100
AcDbLine
 62
7
  6
CONTINUOUS
 10
26.8295641726
 20
-21.7949089135
 11
26.851092086
 21
-21.8949089135
  0
LINE
  5
5F0
100
AcDbEntity
  8
SUPERFICI
100
AcDbLine
 62
7
  6
CONTINUOUS
 10
26.8295641726
 20
-21.7949089135
 11
26.851092086
 21
-21.8949089135
  0
LINE
  5
5F1
100
AcDbEntity
  8
ASSI
100
AcDbLine
 62
253
  6
CONTINUOUS
 10
19.1644364497
 20
22.2026128925
 11
19.2707480576
 21
21.5129024175
  0
LINE
  5
5F2
100
AcDbEntity
  8
RACCORDO
100
AcDbLine
 62
253
  6
CONTINUOUS
 10
19.1644364497
 20
22.2026128925
 11
19.2707480576
 21
21.5129024175
  0
LINE
  5
5F3
100
AcDbEntity
  8
ASSI
100
AcDbLine
 62
253
  6
CONTINUOUS
 10
19.6642841535
 20
22.7006533515
 11
19.7706719052
 21
22.0104488841
  0
LINE
  5
5F4
100
AcDbEntity
  8
RACCORDO
100
AcDbLine
 62
253
  6
CONTINUOUS
 10
19.6642841535
 20
22.7006533515
 11
19.7706719052
 21
22.0104488841
  0
LWPOLYLINE
  5
5F5
100
AcDbEntity
  8
ASSI
100
AcDbPolyline
 62
253
  6
CONTINUOUS
 90
7
 70
0
 10
19.2707480576
 20
21.5129024175
 10
19.271288962
 20
21.5084585058
 10
19.2718251247
 20
21.502118937
 10
19.2723565458
 20
21.4938837112
 10
19.2728859806
 20
21.4837057023
 10
19.2734106737
 20
21.4716320363
 10
19.2739223589
 20
21.457804091
  0
LINE
  5
5F6
100
AcDbEntity
  8
ASSI
100
AcDbLine
 62
253
  6
CONTINUOUS
 10
23.1901423173
 20
13.6489062303
 11
23.1868461439
 21
13.6807330956
  0
LWPOLYLINE
  5
5F7
100
AcDbEntity
  8
0
100
AcDbPolyline
 62
253
  6
CONTINUOUS
 90
3
 70
0
 10
23.1884532552
 20
13.6625767751
 10
23.1864177287
 20
13.6877810216
 10
23.1857764964
 20
13.7121222416
  0
LINE
  5
5F8
100
AcDbEntity
  8
ASSI
100
AcDbLine
 62
253
  6
CONTINUOUS
 10
23.1868461439
 20
13.6807330956
 11
23.1857764964
 21
13.7121222416
  0
LINE
  5
5F9
100
AcDbEntity
  8
RACCORDO
100
AcDbLine
 62
253
  6
CONTINUOUS
 10
24.781463493
 20
-21.5366075318
 11
24.781463493
 21
-21.7557975796
  0
LINE
  5
5FA
100
AcDbEntity
  8
RACCORDO
100
AcDbLine
 62
253
  6
CONTINUOUS
 10
24.781463493
 20
22.7467897047
 11
24.781463493
 21
22.9659797525
  0
LINE
  5
5FB
100
AcDbEntity
  8
0
100
AcDbLine
 62
253
  6
CONTINUOUS
 10
23.192029825
 20
13.6365158823
 11
23.1884532552
 21
13.6625767751
  0
LINE
  5
5FC
100
AcDbEntity
  8
ASSI
100
AcDbLine
 62
7
  6
CONTINUOUS
 10
26.74461619
 20
23.1050910865
 11
26.74461619
 21
23.0050910865
  0
LINE
  5
5FD
100
AcDbEntity
  8
SUPERFICI
100
AcDbLine
 62
7
  6
CONTINUOUS
 10
26.74461619
 20
23.1050910865
 11
26.74461619
 21
23.0050910865
  0
LINE
  5
5FE
100
AcDbEntity
  8
ASSI
100
AcDbLine
 62
7
  6
CONTINUOUS
 10
26.74461619
 20
-21.8949089135
 11
26.74461619
 21
-21.7949089135
  0
LINE
  5
5FF
100
AcDbEntity
  8
SUPERFICI
100
AcDbLine
 62
7
  6
CONTINUOUS
 10
26.74461619
 20
-21.8949089135
 11
26.74461619
 21
-21.7949089135
  0
LWPOLYLINE
  5
600
100
AcDbEntity
  8
RACCORDO
100
AcDbPolyline
 62
253
  6
CONTINUOUS
 90
5
 70
0
 10
41.2644364497
 20
0.4367839273
 10
41.2695855496
 20
0.4376710967
 10
41.2882869522
 20
0.4424427143
 10
41.3000414065
 20
0.4475207907
 10
41.3044995785
 20
0.4527544072
  0
LWPOLYLINE
  5
601
100
AcDbEntity
  8
RACCORDO
100
AcDbPolyline
 62
253
  6
CONTINUOUS
 90
5
 70
0
 10
19.1644364497
 20
0.4367839266
 10
19.1592873851
 20
0.4376710895
 10
19.1405859666
 20
0.4424427081
 10
19.1288314989
 20
0.4475207869
 10
19.1243733209
 20
0.4527544072
  0
LINE
  5
602
100
AcDbEntity
  8
0
100
AcDbLine
 62
253
  6
CONTINUOUS
 10
30.2144364497
 20
-14.8916969011
 11
30.2144364497
 21
-9.9217961152
  0
LINE
  5
603
100
AcDbEntity
  8
ASSI
100
AcDbLine
 62
7
  6
CONTINUOUS
 10
33.6295641726
 20
23.0050910865
 11
33.651092086
 21
23.1050910865
  0
LINE
  5
604
100
AcDbEntity
  8
SUPERFICI
100
AcDbLine
 62
7
  6
CONTINUOUS
 10
33.6295641726
 20
23.0050910865
 11
33.651092086
 21
23.1050910865
  0
LINE
  5
605
100
AcDbEntity
  8
ASSI
100
AcDbLine
 62
7
  6
CONTINUOUS
 10
33.6295641726
 20
-21.7949089135
 11
33.651092086
 21
-21.8949089135
  0
LINE
  5
606
100
AcDbEntity
  8
SUPERFICI
100
AcDbLine
 62
7
  6
CONTINUOUS
 10
33.6295641726
 20
-21.7949089135
 11
33.651092086
 21
-21.8949089135
  0
LINE
  5
607
100
AcDbEntity
  8
ASSI
100
AcDbLine
 62
7
  6
CONTINUOUS
 10
26.7993087267
 20
-21.7949089135
 11
26.7777808133
 21
-21.8949089135
  0
LINE
  5
608
100
AcDbEntity
  8
SUPERFICI
100
AcDbLine
 62
7
  6
CONTINUOUS
 10
26.7993087267
 20
-21.7949089135
 11
26.7777808133
 21
-21.8949089135
  0
LINE
  5
609
100
AcDbEntity
  8
ASSI
100
AcDbLine
 62
7
  6
CONTINUOUS
 10
26.7993087267
 20
23.0050910865
 11
26.7777808133
 21
23.1050910865
  0
LINE
  5
60A
100
AcDbEntity
  8
SUPERFICI
100
AcDbLine
 62
7
  6
CONTINUOUS
 10
26.7993087267
 20
23.0050910865
 11
26.7777808133
 21
23.1050910865
  0
LINE
  5
60B
100
AcDbEntity
  8
ASSI
100
AcDbLine
 62
7
  6
CONTINUOUS
 10
33.6842567094
 20
-21.7949089135
 11
33.6842567094
 21
-21.8949089135
  0
LINE
  5
60C
100
AcDbEntity
  8
SUPERFICI
100
AcDbLine
 62
7
  6
CONTINUOUS
 10
33.6842567094
 20
-21.7949089135
 11
33.6842567094
 21
-21.8949089135
  0
LINE
  5
60D
100
AcDbEntity
  8
ASSI
100
AcDbLine
 62
7
  6
CONTINUOUS
 10
33.6842567094
 20
23.0050910865
 11
33.6842567094
 21
23.1050910865
  0
LINE
  5
60E
100
AcDbEntity
  8
SUPERFICI
100
AcDbLine
 62
7
  6
CONTINUOUS
 10
33.6842567094
 20
23.0050910865
 11
33.6842567094
 21
23.1050910865
  0
LWPOLYLINE
  5
60F
100
AcDbEntity
  8
RACCORDO
100
AcDbPolyline
 62
253
  6
CONTINUOUS
 90
5
 70
0
 10
19.1644364497
 20
0.7733982459
 10
19.1592873664
 20
0.7725110796
 10
19.1405859563
 20
0.7677394616
 10
19.1288314957
 20
0.762661384
 10
19.1243733209
 20
0.7574277657
  0
LWPOLYLINE
  5
610
100
AcDbEntity
  8
RACCORDO
100
AcDbPolyline
 62
253
  6
CONTINUOUS
 90
5
 70
0
 10
41.2644364497
 20
0.7733982463
 10
41.2695855143
 20
0.7725110834
 10
41.2882869328
 20
0.7677394649
 10
41.3000414005
 20
0.762661386
 10
41.3044995785
 20
0.7574277657
  0
LINE
  5
611
100
AcDbEntity
  8
RACCORDO
100
AcDbLine
 62
253
  6
CONTINUOUS
 10
35.6474094063
 20
-21.5366075318
 11
35.6474094063
 21
-21.7557975796
  0
LINE
  5
612
100
AcDbEntity
  8
RACCORDO
100
AcDbLine
 62
253
  6
CONTINUOUS
 10
35.6474094063
 20
22.7467897047
 11
35.6474094063
 21
22.9659797525
  0
LINE
  5
613
100
AcDbEntity
  8
0
100
AcDbLine
 62
253
  6
CONTINUOUS
 10
37.2396489685
 20
13.6559225295
 11
37.2350336577
 21
13.626310316
  0
LWPOLYLINE
  5
614
100
AcDbEntity
  8
ASSI
100
AcDbPolyline
 62
253
  6
CONTINUOUS
 90
123
 70
0
 10
37.2387237973
 20
13.6488573024
 10
37.2330888188
 20
13.616556702
 10
37.2250293088
 20
13.5838656243
 10
37.2144367958
 20
13.5507574729
 10
37.2011566028
 20
13.5171285843
 10
37.1849970094
 20
13.4828743103
 10
37.1658704443
 20
13.4481327198
 10
37.1438082609
 20
13.4131646049
 10
37.1187481541
 20
13.3780012279
 10
37.0906106522
 20
13.342645847
 10
37.0595082909
 20
13.3073135173
 10
37.0254644555
 20
13.2720628584
 10
36.9884259706
 20
13.2368670461
 10
36.9484582829
 20
13.2018095144
 10
36.9055968907
 20
13.1669302879
 10
36.8598204352
 20
13.1322195059
 10
36.81112741
 20
13.097684758
 10
36.7595428557
 20
13.0633515072
 10
36.7050640247
 20
13.0292248603
 10
36.6476373854
 20
12.9952832659
 10
36.5872611102
 20
12.9615473019
 10
36.5239226236
 20
12.928032348
 10
36.4575254828
 20
12.8947125134
 10
36.3880709872
 20
12.8616147913
 10
36.3155334452
 20
12.8287518038
 10
36.2397521894
 20
12.7960800617
 10
36.1607189572
 20
12.7636280471
 10
36.0784012419
 20
12.7314129629
 10
35.9925697443
 20
12.699380546
 10
35.9031937948
 20
12.66755887
 10
35.8102419202
 20
12.6359747418
 10
35.7134481657
 20
12.6045799736
 10
35.6127760397
 20
12.5734088214
 10
35.5081845056
 20
12.5424931476
 10
35.3993660379
 20
12.511790674
 10
35.2862780033
 20
12.4813418842
 10
35.1688764945
 20
12.4511862206
 10
35.0468145856
 20
12.4212923392
 10
34.9200323517
 20
12.3917136468
 10
34.7884675646
 20
12.3625043813
 10
34.6517269183
 20
12.3336513637
 10
34.5097600718
 20
12.3052218999
 10
34.362498644
 20
12.2772794044
 10
34.2094912621
 20
12.2498216463
 10
34.0507014756
 20
12.2229299917
 10
33.8860671177
 20
12.1966809385
 10
33.7150692132
 20
12.1710858433
 10
33.5376969903
 20
12.1462426775
 10
33.3539052584
 20
12.1222437419
 10
33.1630989
 20
12.0991179987
 10
32.9652980202
 20
12.0769811308
 10
32.7605019552
 20
12.0559467799
 10
32.5480565898
 20
12.0360808087
 10
32.3280544945
 20
12.0175387114
 10
32.1004978264
 20
12.0004691589
 10
31.8645849525
 20
11.9849761763
 10
31.6205754259
 20
11.9712511694
 10
31.3684830189
 20
11.9594703594
 10
31.1071518561
 20
11.9497792614
 10
30.8350286214
 20
11.942366776
 10
30.5542080557
 20
11.9375387612
 10
30.2691133472
 20
11.9355340648
 10
29.9779039986
 20
11.9364775395
 10
29.6833903566
 20
11.9405180067
 10
29.3969861544
 20
11.9474575206
 10
29.1220661154
 20
11.9569537894
 10
28.8559379689
 20
11.9688398274
 10
28.6006964062
 20
11.9827811894
 10
28.3579793665
 20
11.9984029854
 10
28.1263218885
 20
12.0155200036
 10
27.9031064208
 20
12.0341091287
 10
27.6879070377
 20
12.0540377939
 10
27.4812140265
 20
12.0750950823
 10
27.2818599008
 20
12.0972490463
 10
27.0897666309
 20
12.120385981
 10
26.9050144767
 20
12.1443749712
 10
26.7267309736
 20
12.1692175697
 10
26.5547886408
 20
12.1948329612
 10
26.3892625034
 20
12.2211104287
 10
26.2296209132
 20
12.2480392699
 10
26.0757983212
 20
12.275542762
 10
25.9277622792
 20
12.3035380308
 10
25.7850602323
 20
12.3320264312
 10
25.6476236317
 20
12.3609437484
 10
25.5154017614
 20
12.3902219203
 10
25.3879997574
 20
12.4198734494
 10
25.2653549033
 20
12.4498434116
 10
25.1474063032
 20
12.4800776782
 10
25.0338048675
 20
12.5106070081
 10
24.9245062607
 20
12.5413914117
 10
24.8194670858
 20
12.5723899557
 10
24.7183777871
 20
12.6036447439
 10
24.6211971283
 20
12.6351233342
 10
24.5278873665
 20
12.6667912187
 10
24.4381792476
 20
12.698697018
 10
24.3520399737
 20
12.7308138776
 10
24.269438994
 20
12.7631131417
 10
24.1901461335
 20
12.79564879
 10
24.1141278343
 20
12.8284034987
 10
24.0413755084
 20
12.8613483614
 10
23.9717286318
 20
12.8945261474
 10
23.9051610163
 20
12.9279237872
 10
23.8416726614
 20
12.9615142266
 10
23.7811659943
 20
12.9953232314
 10
23.7236265346
 20
13.02933581
 10
23.6690526714
 20
13.0635305862
 10
23.6173925854
 20
13.097927192
 10
23.5686422892
 20
13.1325202715
 10
23.5228254287
 20
13.1672841928
 10
23.4799411086
 20
13.2022095095
 10
23.4399661844
 20
13.2373058861
 10
23.4029343036
 20
13.2725331044
 10
23.3689105514
 20
13.307805842
 10
23.3378371883
 20
13.3431535145
 10
23.3097379828
 20
13.3785146139
 10
23.2847296694
 20
13.4136638562
 10
23.2627328361
 20
13.448589749
 10
23.2436745587
 20
13.4832688523
 10
23.2275754229
 20
13.5174543101
 10
23.2143474949
 20
13.5510058417
 10
23.2037969995
 20
13.5840304011
 10
23.1957639266
 20
13.6166526256
 10
23.1901423173
 20
13.6489062303
  0
LWPOLYLINE
  5
615
100
AcDbEntity
  8
0
100
AcDbPolyline
 62
253
  6
CONTINUOUS
 90
127
 70
0
 10
37.2350336577
 20
13.626310316
 10
37.2282142649
 20
13.5956718864
 10
37.2189852288
 20
13.5640521489
 10
37.2071686813
 20
13.5315616475
 10
37.1925427167
 20
13.4981706452
 10
37.1749184312
 20
13.4639435524
 10
37.1542346968
 20
13.4291327149
 10
37.1303303865
 20
13.3937500732
 10
37.1030547641
 20
13.3578253844
 10
37.0724772672
 20
13.3216349649
 10
37.0385140366
 20
13.2852078245
 10
37.0010696286
 20
13.2485580861
 10
36.9603190548
 20
13.2119340614
 10
36.9162881196
 20
13.1753970258
 10
36.8689082876
 20
13.1389245111
 10
36.8183003265
 20
13.1026336173
 10
36.7645200511
 20
13.0665733457
 10
36.707535419
 20
13.0307301778
 10
36.6473627988
 20
12.9951255187
 10
36.5840142044
 20
12.9597846307
 10
36.5174798828
 20
12.9247215449
 10
36.4477334182
 20
12.8899423256
 10
36.3748136016
 20
12.8554843265
 10
36.2986912212
 20
12.8213503769
 10
36.2192214206
 20
12.7874976251
 10
36.1364229085
 20
12.7539587623
 10
36.050269676
 20
12.720746527
 10
35.9605134843
 20
12.6877947983
 10
35.8671085552
 20
12.65512217
 10
35.7700634802
 20
12.6227654879
 10
35.6691769262
 20
12.590693721
 10
35.5643729496
 20
12.5589229242
 10
35.4556837504
 20
12.5275014926
 10
35.3430584347
 20
12.4964513789
 10
35.2264894821
 20
12.4658065263
 10
35.1059707286
 20
12.4356006763
 10
34.9814461341
 20
12.4058604966
 10
34.8529696484
 20
12.3766417828
 10
34.7204702528
 20
12.3479706569
 10
34.5836871107
 20
12.3198377117
 10
34.4426581472
 20
12.2922995762
 10
34.2973349935
 20
12.2653945739
 10
34.1472991888
 20
12.2390994824
 10
33.992525973
 20
12.2134692417
 10
33.8330324282
 20
12.1885648957
 10
33.6684352327
 20
12.1643893669
 10
33.498718538
 20
12.1410076109
 10
33.323920842
 20
12.1184911027
 10
33.1437262032
 20
12.0968686779
 10
32.9583120034
 20
12.076232488
 10
32.7675869918
 20
12.0566433274
 10
32.5708039195
 20
12.0381148023
 10
32.3682050311
 20
12.0207712937
 10
32.159655299
 20
12.0047035944
 10
31.9437992863
 20
11.9899319592
 10
31.7203020622
 20
11.9765816659
 10
31.4896767957
 20
11.9648328471
 10
31.2518455246
 20
11.9548308186
 10
31.006253034
 20
11.946714559
 10
30.7538530021
 20
11.9406783188
 10
30.4969101655
 20
11.9369023867
 10
30.234617548
 20
11.9354879856
 10
29.9684606549
 20
11.9365582505
 10
29.7042016527
 20
11.9401295282
 10
29.4423812226
 20
11.946158223
 10
29.1831785045
 20
11.9546006677
 10
28.9317117934
 20
11.9651822281
 10
28.6895700684
 20
11.9776405969
 10
28.4555240645
 20
11.9918444377
 10
28.2303073028
 20
12.0075662698
 10
28.014562741
 20
12.0245658099
 10
27.8077098529
 20
12.0426967501
 10
27.6086076138
 20
12.0618915761
 10
27.4172578686
 20
12.0820013181
 10
27.2336183951
 20
12.1028910525
 10
27.0565253723
 20
12.1245741899
 10
26.8858933085
 20
12.1469582227
 10
26.7217458178
 20
12.1699369965
 10
26.5631390327
 20
12.1935501038
 10
26.4099329844
 20
12.2177392132
 10
26.2621956941
 20
12.2424138508
 10
26.1193441471
 20
12.2675967372
 10
25.9813006907
 20
12.2932348762
 10
25.848060214
 20
12.3192619225
 10
25.7191844821
 20
12.3457002677
 10
25.5946189317
 20
12.3725038425
 10
25.4743331317
 20
12.3996213157
 10
25.357957466
 20
12.427081801
 10
25.2454490099
 20
12.4548462232
 10
25.136774393
 20
12.4828745907
 10
25.0316184607
 20
12.5112088756
 10
24.9299578625
 20
12.5398213862
 10
24.8317756824
 20
12.5686820155
 10
24.7368005293
 20
12.5978393925
 10
24.6450014026
 20
12.627276043
 10
24.5563838943
 20
12.6569621246
 10
24.4707600861
 20
12.6869350606
 10
24.3881071173
 20
12.7171806381
 10
24.3084330445
 20
12.7476726589
 10
24.2316175459
 20
12.7784354267
 10
24.1576506445
 20
12.8094534481
 10
24.0865326043
 20
12.8407060612
 10
24.0181745218
 20
12.872213078
 10
23.9525770851
 20
12.9039567575
 10
23.8897338064
 20
12.9359216896
 10
23.8295608856
 20
12.9681338588
 10
23.7720575827
 20
13.0005796523
 10
23.7172274875
 20
13.0332422465
 10
23.665012753
 20
13.0661453775
 10
23.6153676101
 20
13.0993203616
 10
23.5683826304
 20
13.1327105802
 10
23.5241973329
 20
13.166207561
 10
23.4827645529
 20
13.1998296055
 10
23.4441194083
 20
13.2335289552
 10
23.4084531517
 20
13.2670926965
 10
23.3757145149
 20
13.3004941321
 10
23.3458317016
 20
13.33372534
 10
23.318877052
 20
13.3665966432
 10
23.2947436732
 20
13.3990954853
 10
23.2733316082
 20
13.4312002864
 10
23.2546423651
 20
13.4627050949
 10
23.2385372947
 20
13.4935826918
 10
23.2248666066
 20
13.523829531
 10
23.2135446404
 20
13.5532742568
 10
23.2044174704
 20
13.5818526148
 10
23.1972991679
 20
13.6096044885
 10
23.192029825
 20
13.6365158823
  0
LWPOLYLINE
  5
616
100
AcDbEntity
  8
0
100
AcDbPolyline
 62
253
  6
CONTINUOUS
 90
81
 70
0
 10
30.2144364497
 20
5.462745854
 10
30.1059034636
 20
5.4648480051
 10
29.998192301
 20
5.4711500141
 10
29.891221638
 20
5.4816452143
 10
29.7849101505
 20
5.4963269393
 10
29.6791765143
 20
5.5151885225
 10
29.5739936134
 20
5.5382159539
 10
29.4695511637
 20
5.5653658498
 10
29.3660930893
 20
5.596587483
 10
29.2638633141
 20
5.6318301265
 10
29.1631057621
 20
5.6710430531
 10
29.0640444758
 20
5.7141710631
 10
28.9668239723
 20
5.7611410668
 10
28.871568887
 20
5.8118755019
 10
28.7784038554
 20
5.8662968061
 10
28.687453513
 20
5.9243274171
 10
28.5988442451
 20
5.9858851093
 10
28.5127094356
 20
6.0508690034
 10
28.4291842182
 20
6.1191735571
 10
28.3484037266
 20
6.1906932278
 10
28.2705030944
 20
6.2653224729
 10
28.1956123382
 20
6.3429519194
 10
28.1238410054
 20
6.4234568714
 10
28.0552935262
 20
6.5067088026
 10
27.990074331
 20
6.5925791867
 10
27.9282878498
 20
6.6809394971
 10
27.8700343101
 20
6.7716581584
 10
27.8153971266
 20
6.8645913981
 10
27.7644555114
 20
6.9595923946
 10
27.7172886764
 20
7.0565143261
 10
27.6739758334
 20
7.1552103711
 10
27.6345910509
 20
7.2555316485
 10
27.5991878231
 20
7.3573210399
 10
27.5678145008
 20
7.4604193673
 10
27.5405194347
 20
7.5646674528
 10
27.5173509755
 20
7.6699061186
 10
27.4983521652
 20
7.7759751128
 10
27.4835448104
 20
7.8827098874
 10
27.472945409
 20
7.9899448204
 10
27.4665704587
 20
8.0975142897
 10
27.4644364573
 20
8.2052526734
 10
27.4665544352
 20
8.3129943057
 10
27.4729135518
 20
8.4205733464
 10
27.4834974992
 20
8.5278239112
 10
27.4982899695
 20
8.6345801163
 10
27.5172746545
 20
8.7406760774
 10
27.5404299
 20
8.8459469472
 10
27.5677126668
 20
8.9502320246
 10
27.5990745694
 20
9.0533716452
 10
27.6344672221
 20
9.1552061446
 10
27.6738422396
 20
9.2555758583
 10
27.7171460792
 20
9.3543231985
 10
27.7643045708
 20
9.4512988843
 10
27.8152383874
 20
9.5463557112
 10
27.8698682017
 20
9.6393464748
 10
27.9281146866
 20
9.7301239707
 10
27.989894305
 20
9.8185440629
 10
28.0551066796
 20
9.904474889
 10
28.1236472231
 20
9.9877876549
 10
28.1954113485
 20
10.0683535666
 10
28.2702944682
 20
10.1460438301
 10
28.3481869574
 20
10.2207334984
 10
28.4289590398
 20
10.2923130136
 10
28.5124759014
 20
10.360676665
 10
28.5986027282
 20
10.4257187417
 10
28.687204706
 20
10.4873335329
 10
28.7781485645
 20
10.5454199654
 10
28.8713072065
 20
10.5998955157
 10
28.9665550786
 20
10.6506822975
 10
29.0637666273
 20
10.697702425
 10
29.1628162989
 20
10.740878012
 10
29.2635595325
 20
10.7801357449
 10
29.3657757372
 20
10.8154206003
 10
29.4692253149
 20
10.8466821271
 10
29.5736686673
 20
10.8738698742
 10
29.6788661961
 20
10.8969333906
 10
29.7846315503
 20
10.9158291514
 10
29.8909913677
 20
10.9305413365
 10
29.9980255333
 20
10.9410610518
 10
30.1058139323
 20
10.9473794032
 10
30.2144364497
 20
10.9494874969
  0
LINE
  5
617
100
AcDbEntity
  8
RACCORDO
100
AcDbLine
 62
7
  6
CONTINUOUS
 10
37.2144364497
 20
13.7486744111
 11
37.2144364497
 21
13.7035556004
  0
LWPOLYLINE
  5
618
100
AcDbEntity
  8
RACCORDO
100
AcDbPolyline
 62
253
  6
CONTINUOUS
 90
200
 70
0
 10
37.1144364497
 20
13.6975334685
 10
37.1143924269
 20
13.6901199442
 10
37.1141261814
 20
13.682388941
 10
37.1136377132
 20
13.6743404599
 10
37.1129513206
 20
13.6659755029
 10
37.1120427052
 20
13.6572930697
 10
37.1108389722
 20
13.6482901585
 10
37.1093417889
 20
13.6389644184
 10
37.107549488
 20
13.6293182024
 10
37.1053841718
 20
13.6193555636
 10
37.1028455985
 20
13.6090727657
 10
37.0999340099
 20
13.5984735473
 10
37.0965722336
 20
13.5875731739
 10
37.0927571317
 20
13.5763664698
 10
37.0884918421
 20
13.564858613
 10
37.0837086064
 20
13.5530803995
 10
37.0784031417
 20
13.5410296116
 10
37.0725797308
 20
13.5287084694
 10
37.0661834636
 20
13.516154425
 10
37.0592193767
 20
13.5033796887
 10
37.0516824336
 20
13.4903720523
 10
37.0435026143
 20
13.4771323406
 10
37.0346848859
 20
13.4636645976
 10
37.0252242814
 20
13.4499647814
 10
37.0150358806
 20
13.4360215873
 10
37.0041187534
 20
13.4218301721
 10
36.9924738298
 20
13.4073953815
 10
36.9800189797
 20
13.3927204449
 10
36.9667509998
 20
13.3778006965
 10
36.9526730934
 20
13.3626408047
 10
36.9377127402
 20
13.3472579992
 10
36.9218683656
 20
13.3316510893
 10
36.9051415442
 20
13.3158212683
 10
36.8874644791
 20
13.299789341
 10
36.868847675
 20
13.283563191
 10
36.8492806272
 20
13.2671349372
 10
36.8286640247
 20
13.2505017368
 10
36.8070028267
 20
13.2336639781
 10
36.7842920738
 20
13.2166212755
 10
36.760417577
 20
13.1993696252
 10
36.7353817624
 20
13.1819072609
 10
36.7091822039
 20
13.1642359518
 10
36.6816974332
 20
13.1463569972
 10
36.6529263688
 20
13.128267001
 10
36.6228700923
 20
13.1099693622
 10
36.5914103809
 20
13.0914755727
 10
36.5585290187
 20
13.0727750144
 10
36.5242442218
 20
13.0538783082
 10
36.488492415
 20
13.0348288043
 10
36.4512666633
 20
13.0156250547
 10
36.4125739019
 20
12.9962685096
 10
36.3723713609
 20
12.9768068663
 10
36.3306612424
 20
12.957243071
 10
36.2874413443
 20
12.937574179
 10
36.2426622912
 20
12.9178390504
 10
36.196343558
 20
12.8980458347
 10
36.1484656697
 20
12.8781863834
 10
36.0989208259
 20
12.8582751091
 10
36.0477343937
 20
12.8383186319
 10
35.9948810059
 20
12.8183103325
 10
35.9401767604
 20
12.7982447634
 10
35.8836269272
 20
12.7781190026
 10
35.8252262363
 20
12.7579359731
 10
35.7647749756
 20
12.737698996
 10
35.7022725789
 20
12.7174034614
 10
35.6377196125
 20
12.6970539802
 10
35.5709180633
 20
12.6766677044
 10
35.5018574164
 20
12.6562381148
 10
35.4305481868
 20
12.6357717314
 10
35.3568239054
 20
12.615305264
 10
35.2806873542
 20
12.5948367159
 10
35.2021357512
 20
12.574368084
 10
35.1209942815
 20
12.5539420688
 10
35.0372815221
 20
12.5335595151
 10
34.950978896
 20
12.5132195776
 10
34.8618558572
 20
12.4929624209
 10
34.7699336453
 20
12.4727872362
 10
34.6751910208
 20
12.4526948312
 10
34.5773337192
 20
12.4327277954
 10
34.4763691337
 20
12.4128808265
 10
34.372289871
 20
12.393159225
 10
34.2647794867
 20
12.3736214841
 10
34.1538467376
 20
12.3542615874
 10
34.0394828668
 20
12.3350855486
 10
33.9213451592
 20
12.3161699056
 10
33.7994431725
 20
12.2975074361
 10
33.6737673489
 20
12.2791053588
 10
33.5439462995
 20
12.2610618708
 10
33.410018008
 20
12.243370684
 10
33.2719444909
 20
12.2260380819
 10
33.1292404086
 20
12.2091811178
 10
32.9819243157
 20
12.1927868162
 10
32.8299776578
 20
12.1768681467
 10
32.672859432
 20
12.1615810789
 10
32.5105231539
 20
12.1469050763
 10
32.3430153081
 20
12.1328606682
 10
32.1699343455
 20
12.1196654212
 10
31.9913684888
 20
12.1073041428
 10
31.8072295154
 20
12.0957920173
 10
31.6168512084
 20
12.0853921736
 10
31.4205602873
 20
12.076074297
 10
31.2180300326
 20
12.0678686939
 10
31.0076140696
 20
12.0611294237
 10
30.7875065893
 20
12.0558194449
 10
30.5595134006
 20
12.0519757923
 10
30.3274055549
 20
12.0500636381
 10
30.0897644898
 20
12.0502522609
 10
29.8480087678
 20
12.0523723808
 10
29.610165127
 20
12.0563813345
 10
29.377245669
 20
12.0624561989
 10
29.1482382924
 20
12.0704199046
 10
28.9281334313
 20
12.0796985689
 10
28.7187936603
 20
12.0902588259
 10
28.5183564049
 20
12.1021340514
 10
28.3262243755
 20
12.1148504725
 10
28.1429626422
 20
12.1283131139
 10
27.9680061349
 20
12.1426169591
 10
27.799062354
 20
12.1575731707
 10
27.635619426
 20
12.1731797848
 10
27.4781892244
 20
12.189438773
 10
27.3260148696
 20
12.2061671992
 10
27.179023619
 20
12.223353689
 10
27.0372882153
 20
12.2410096227
 10
26.9002700063
 20
12.2589861949
 10
26.7679898346
 20
12.277265001
 10
26.6404268576
 20
12.2958644498
 10
26.5169798959
 20
12.3146909538
 10
26.3976308978
 20
12.3337325186
 10
26.2823979149
 20
12.3530011418
 10
26.1707339218
 20
12.3724392224
 10
26.0625836769
 20
12.392045223
 10
25.9580024217
 20
12.4118206835
 10
25.8566088568
 20
12.4317126179
 10
25.7583854837
 20
12.4517163457
 10
25.6633498008
 20
12.4718365492
 10
25.5711730031
 20
12.4920342859
 10
25.4818291536
 20
12.5123089947
 10
25.3953441893
 20
12.5326612378
 10
25.3114671173
 20
12.553053757
 10
25.2301755317
 20
12.5734878958
 10
25.1514918383
 20
12.5939623113
 10
25.0752322608
 20
12.6144357154
 10
25.0013932508
 20
12.6349060659
 10
24.9299783566
 20
12.6553754048
 10
24.8608144478
 20
12.6758085701
 10
24.7939101296
 20
12.6961994846
 10
24.7292567968
 20
12.7165542248
 10
24.6666555025
 20
12.7368558581
 10
24.6061061516
 20
12.7570999967
 10
24.5476088393
 20
12.7772910276
 10
24.4909649039
 20
12.7974251805
 10
24.4361692449
 20
12.8174995093
 10
24.3832269629
 20
12.8375169591
 10
24.3319546981
 20
12.857482597
 10
24.282327555
 20
12.8774028435
 10
24.2343704293
 20
12.8972712771
 10
24.1879746481
 20
12.9170737021
 10
24.1431206089
 20
12.93681828
 10
24.0998279143
 20
12.9564968481
 10
24.0580466987
 20
12.976070724
 10
24.0177744958
 20
12.9955429715
 10
23.9790137719
 20
13.0149105252
 10
23.9417220602
 20
13.0341255074
 10
23.9059061752
 20
13.0531865714
 10
23.8715593026
 20
13.0720950616
 10
23.8386185316
 20
13.0908071364
 10
23.8071022358
 20
13.1093121444
 10
23.7769920417
 20
13.1276207342
 10
23.7481699187
 20
13.1457210135
 10
23.7206372912
 20
13.1636093627
 10
23.6943927347
 20
13.1812893986
 10
23.6693139456
 20
13.1987600831
 10
23.6453984896
 20
13.2160195936
 10
23.622648801
 20
13.23306975
 10
23.6009498787
 20
13.2499149788
 10
23.5802967708
 20
13.2665555681
 10
23.5606944292
 20
13.2829912272
 10
23.5420427079
 20
13.2992255146
 10
23.524330888
 20
13.3152664
 10
23.5075696884
 20
13.3311059113
 10
23.4916911195
 20
13.3467236953
 10
23.4766964824
 20
13.362118836
 10
23.462584476
 20
13.3772922469
 10
23.449283208
 20
13.3922263179
 10
23.4367959377
 20
13.4069164056
 10
23.4251194057
 20
13.4213671508
 10
23.4141719417
 20
13.4355748696
 10
23.4039545727
 20
13.4495346709
 10
23.3944662718
 20
13.4632514433
 10
23.3856222883
 20
13.4767361722
 10
23.377417785
 20
13.4899926804
 10
23.3698575991
 20
13.5030171428
 10
23.3628714911
 20
13.5158090735
 10
23.3564543712
 20
13.5283806707
 10
23.3506113292
 20
13.5407197339
 10
23.345287395
 20
13.5527891796
 10
23.3404867481
 20
13.5645870881
 10
23.336205209
 20
13.5761153766
 10
23.3323752701
 20
13.5873427167
 10
23.3290001565
 20
13.598263887
  0
LWPOLYLINE
  5
619
100
AcDbEntity
  8
RACCORDO
100
AcDbPolyline
 62
253
  6
CONTINUOUS
 90
12
 70
0
 10
23.3290001565
 20
13.598263887
 10
23.3260766431
 20
13.6088841063
 10
23.3235275463
 20
13.6191877074
 10
23.3213531635
 20
13.6291709106
 10
23.3195531973
 20
13.6388374932
 10
23.3180495726
 20
13.6481831222
 10
23.3168406494
 20
13.6572054152
 10
23.3159280678
 20
13.6659067525
 10
23.3152386725
 20
13.6742899462
 10
23.3147480786
 20
13.6823559328
 10
23.3144806709
 20
13.6901037739
 10
23.3144364497
 20
13.6975334685
  0
LWPOLYLINE
  5
61A
100
AcDbEntity
  8
0
100
AcDbPolyline
 62
253
  6
CONTINUOUS
 90
133
 70
0
 10
37.4430887876
 20
13.7002311705
 10
37.4422678273
 20
13.6603545767
 10
37.4384288689
 20
13.6194599416
 10
37.4315719125
 20
13.5775472806
 10
37.4218377443
 20
13.5343980245
 10
37.4090855781
 20
13.4902307769
 10
37.392893055
 20
13.4457013029
 10
37.3731346945
 20
13.4008333936
 10
37.3499359771
 20
13.3556032702
 10
37.3232509848
 20
13.3105953228
 10
37.2930105206
 20
13.2658994488
 10
37.2592837814
 20
13.2214257433
 10
37.2222324398
 20
13.1774888779
 10
37.1818309913
 20
13.1341510837
 10
37.1381049403
 20
13.0913501122
 10
37.0912924726
 20
13.049213909
 10
37.041426361
 20
13.0077959953
 10
36.9884738327
 20
12.9670428292
 10
36.9325747553
 20
12.9269217598
 10
36.8737809761
 20
12.8874516477
 10
36.8120406478
 20
12.848613614
 10
36.7473380968
 20
12.8103183997
 10
36.6796887161
 20
12.7725521918
 10
36.6090771127
 20
12.7353287885
 10
36.5354414335
 20
12.6986003508
 10
36.4588209912
 20
12.6623700082
 10
36.3791764731
 20
12.6266346179
 10
36.2963280877
 20
12.5913369336
 10
36.2103167557
 20
12.5564763007
 10
36.1211015563
 20
12.5220533626
 10
36.0283799356
 20
12.4880128217
 10
35.9321383942
 20
12.4543350199
 10
35.8323904315
 20
12.4210396059
 10
35.7288739921
 20
12.3881302433
 10
35.6215345814
 20
12.3555845338
 10
35.510426694
 20
12.3234248665
 10
35.3954517574
 20
12.2917220857
 10
35.2766079531
 20
12.2604702357
 10
35.1538970995
 20
12.2296752615
 10
35.0272260802
 20
12.1994258567
 10
34.8966605583
 20
12.1697279795
 10
34.7621348706
 20
12.1405756593
 10
34.6233589105
 20
12.1120396942
 10
34.4803818792
 20
12.0841180037
 10
34.3331545754
 20
12.056812655
 10
34.1812392888
 20
12.0302006667
 10
34.0246176441
 20
12.0042659255
 10
33.8633080165
 20
11.9790245309
 10
33.696927822
 20
11.9546018185
 10
33.5254407112
 20
11.9309819539
 10
33.3488830335
 20
11.9081807566
 10
33.1669812525
 20
11.886371041
 10
32.9798673254
 20
11.865544357
 10
32.7874092951
 20
11.8457091385
 10
32.5889377544
 20
11.8270635234
 10
32.3846375875
 20
11.809580771
 10
32.1743239102
 20
11.7932876055
 10
31.9567726633
 20
11.7784623602
 10
31.7315041305
 20
11.7650457782
 10
31.4989980282
 20
11.7530971005
 10
31.2594694461
 20
11.7430724044
 10
31.0120554636
 20
11.7349750649
 10
30.7576190014
 20
11.7288016935
 10
30.4989639111
 20
11.7249982218
 10
30.2348700248
 20
11.7236884981
 10
29.9665575105
 20
11.7247486694
 10
29.7004907234
 20
11.7282531171
 10
29.4369315259
 20
11.7343937383
 10
29.1756180558
 20
11.7429786453
 10
28.922229081
 20
11.7535065452
 10
28.6783371166
 20
11.7660111394
 10
28.4423696477
 20
11.7804587438
 10
28.2152878974
 20
11.7962469847
 10
27.9977913051
 20
11.8133072587
 10
27.7891804314
 20
11.8317081858
 10
27.5883181821
 20
11.8510532221
 10
27.3952358998
 20
11.8712866433
 10
27.2099022418
 20
11.8924641877
 10
27.0310860862
 20
11.9143565011
 10
26.85871779
 20
11.9369314833
 10
26.692866996
 20
11.9602212466
 10
26.5325115108
 20
11.9840927528
 10
26.3775339047
 20
12.0085382234
 10
26.2280516073
 20
12.0335654476
 10
26.0833947136
 20
12.0590647373
 10
25.9435165226
 20
12.0850270142
 10
25.8084637353
 20
12.1114613658
 10
25.6777065499
 20
12.1382853501
 10
25.5512227968
 20
12.1654886662
 10
25.4290346454
 20
12.1930816229
 10
25.3106788022
 20
12.2210126915
 10
25.1961322224
 20
12.2492699871
 10
25.0854179506
 20
12.2778654015
 10
24.9781418274
 20
12.3067830704
 10
24.8742802805
 20
12.3360141857
 10
24.7738568821
 20
12.3655675623
 10
24.676548189
 20
12.3954537705
 10
24.5823224109
 20
12.4256718566
 10
24.491211338
 20
12.4562227816
 10
24.4029868973
 20
12.4871199878
 10
24.3176249369
 20
12.5183630096
 10
24.2351496088
 20
12.5499523206
 10
24.1554052956
 20
12.5819027727
 10
24.0783805163
 20
12.6142102722
 10
24.0040867519
 20
12.6468789212
 10
23.9324028286
 20
12.6799358661
 10
23.8633271502
 20
12.7133708204
 10
23.7968613128
 20
12.7471940799
 10
23.7328889307
 20
12.7814636653
 10
23.6713974403
 20
12.8161645536
 10
23.6123994051
 20
12.8513117789
 10
23.5558161302
 20
12.8870084488
 10
23.5015706888
 20
12.92329009
 10
23.4497400077
 20
12.9601211904
 10
23.4004761724
 20
12.9974983017
 10
23.3537581628
 20
13.035458945
 10
23.3096069989
 20
13.0739656142
 10
23.268237827
 20
13.1129023182
 10
23.2296886534
 20
13.1522795638
 10
23.1939214717
 20
13.1920868561
 10
23.1610374092
 20
13.2321766977
 10
23.1310582697
 20
13.2726077551
 10
23.1039622494
 20
13.3133213701
 10
23.0797850651
 20
13.3539940513
 10
23.0585893402
 20
13.3946818493
 10
23.0403124513
 20
13.4353287124
 10
23.024802245
 20
13.4754429838
 10
23.0121470006
 20
13.5149988858
 10
23.0022584388
 20
13.5540221799
 10
22.9947195682
 20
13.5920985044
 10
22.9893913916
 20
13.6290897277
 10
22.9864129061
 20
13.6651339539
 10
22.9857841117
 20
13.7002311705
  0
LWPOLYLINE
  5
61B
100
AcDbEntity
  8
ASSI
100
AcDbPolyline
 62
253
  6
CONTINUOUS
 90
118
 70
0
 10
37.4430887876
 20
13.7002311705
 10
37.4420661187
 20
13.6601303574
 10
37.4382889236
 20
13.6195646594
 10
37.4317572023
 20
13.5785340837
 10
37.4226009912
 20
13.5370094695
 10
37.4106902538
 20
13.4950199925
 10
37.3956348807
 20
13.4526531625
 10
37.3774935085
 20
13.4099554666
 10
37.3562075006
 20
13.3668804297
 10
37.3312108374
 20
13.3233761184
 10
37.3023920168
 20
13.2792906372
 10
37.269862541
 20
13.2347758977
 10
37.2333908969
 20
13.1902356709
 10
37.1929101213
 20
13.145708622
 10
37.1484871774
 20
13.1011560869
 10
37.1000914416
 20
13.0568658309
 10
37.0477093894
 20
13.0128913781
 10
36.9913545452
 20
12.9691791959
 10
36.9310368587
 20
12.9258564586
 10
36.8667722887
 20
12.8829483174
 10
36.7985448764
 20
12.8404296089
 10
36.7263166952
 20
12.798352032
 10
36.6501119873
 20
12.7567231867
 10
36.5699065105
 20
12.7155354597
 10
36.4855896122
 20
12.6748177283
 10
36.3971820397
 20
12.6345733265
 10
36.3046630457
 20
12.5947989065
 10
36.2078597355
 20
12.5555133231
 10
36.1067915478
 20
12.5167150538
 10
36.0014390438
 20
12.4784056072
 10
35.8915710131
 20
12.4406083846
 10
35.7772078
 20
12.4033192924
 10
35.6583290601
 20
12.3665424102
 10
35.5346425502
 20
12.3303133982
 10
35.4061718634
 20
12.2946225347
 10
35.2728934065
 20
12.2594795271
 10
35.1344441559
 20
12.2249491775
 10
34.9908482199
 20
12.191015183
 10
34.8420814903
 20
12.1576938311
 10
34.6877086191
 20
12.1250988079
 10
34.5277507858
 20
12.0932180334
 10
34.362186811
 20
12.0620635701
 10
34.1905178078
 20
12.0317853144
 10
34.0127675558
 20
12.0023692722
 10
33.8289122754
 20
11.9738294178
 10
33.6383817416
 20
11.9463575969
 10
33.44120715
 20
11.9199337663
 10
33.237357305
 20
11.8945779475
 10
33.0261683944
 20
11.8705420791
 10
32.8076849288
 20
11.8477872852
 10
32.5818623976
 20
11.8263524183
 10
32.3479034573
 20
11.8066060057
 10
32.1058387807
 20
11.7885005482
 10
31.8556376949
 20
11.7720835206
 10
31.5964108379
 20
11.7578659067
 10
31.3279356788
 20
11.7457891345
 10
31.0504347484
 20
11.7359117538
 10
30.7636862773
 20
11.7289204282
 10
30.463939966
 20
11.7249193211
 10
30.154946114
 20
11.7238042566
 10
29.8477338502
 20
11.7259493907
 10
29.5425928228
 20
11.7317481879
 10
29.2392333836
 20
11.7408071942
 10
28.9478157163
 20
11.752320191
 10
28.6723267392
 20
11.7662533156
 10
28.408779534
 20
11.7826404548
 10
28.1553735298
 20
11.8007770101
 10
27.912051302
 20
11.8205754967
 10
27.6788702753
 20
11.8421234246
 10
27.454202153
 20
11.8649786809
 10
27.23792994
 20
11.8890795389
 10
27.0301706314
 20
11.9144877484
 10
26.8296469168
 20
11.9409464069
 10
26.6362398861
 20
11.9684272933
 10
26.4500684493
 20
11.9969586501
 10
26.2702120266
 20
12.0263682657
 10
26.0965754489
 20
12.0566442296
 10
25.9292538851
 20
12.0877984721
 10
25.7676122628
 20
12.1196945396
 10
25.611587721
 20
12.1523256668
 10
25.4612431205
 20
12.1856986369
 10
25.3161319717
 20
12.2196973165
 10
25.176227526
 20
12.2543060485
 10
25.041556532
 20
12.2895405059
 10
24.9117527455
 20
12.3253315471
 10
24.786792754
 20
12.3616687236
 10
24.6666999701
 20
12.3985624988
 10
24.5511783873
 20
12.4359750975
 10
24.4402079327
 20
12.4739020297
 10
24.3338086791
 20
12.5123477998
 10
24.2317448391
 20
12.5512881235
 10
24.1339962854
 20
12.5907213827
 10
24.0405831452
 20
12.6306492096
 10
23.951330012
 20
12.6710521952
 10
23.8662163195
 20
12.7119343652
 10
23.785262634
 20
12.7532917079
 10
23.7083552477
 20
12.795092758
 10
23.6354695835
 20
12.8373445937
 10
23.5666302184
 20
12.8800401502
 10
23.5017971754
 20
12.9231267463
 10
23.4409536841
 20
12.966631233
 10
23.3841165149
 20
13.0105267715
 10
23.3312960025
 20
13.0546801425
 10
23.2825100823
 20
13.0991394362
 10
23.2377408189
 20
13.1438565706
 10
23.1969447405
 20
13.1885540612
 10
23.160181679
 20
13.2332813978
 10
23.1273918024
 20
13.2779890896
 10
23.098352144
 20
13.3222511703
 10
23.0731804923
 20
13.3659158815
 10
23.0517590587
 20
13.4091349648
 10
23.03351151
 20
13.4519376967
 10
23.0183842915
 20
13.4943278221
 10
23.006430958
 20
13.5363015826
 10
22.9972358401
 20
13.577877001
 10
22.9906603816
 20
13.6190600808
 10
22.9868431388
 20
13.6598448061
 10
22.9857841117
 20
13.7002311705
  0
LINE
  5
61C
100
AcDbEntity
  8
0
100
AcDbLine
 62
253
  6
CONTINUOUS
 10
37.243096403
 20
13.7121222416
 11
37.2422711044
 21
13.6845295991
  0
LINE
  5
61D
100
AcDbEntity
  8
ASSI
100
AcDbLine
 62
253
  6
CONTINUOUS
 10
37.243096403
 20
13.7121222416
 11
37.2420255958
 21
13.6807161651
  0
LINE
  5
61E
100
AcDbEntity
  8
0
100
AcDbLine
 62
253
  6
CONTINUOUS
 10
37.2422711044
 20
13.6845295991
 11
37.2396489685
 21
13.6559225295
  0
LINE
  5
61F
100
AcDbEntity
  8
ASSI
100
AcDbLine
 62
253
  6
CONTINUOUS
 10
37.2420255958
 20
13.6807161651
 11
37.2387237973
 21
13.6488573024
  0
LINE
  5
620
100
AcDbEntity
  8
ASSI
100
AcDbLine
 62
253
  6
CONTINUOUS
 10
40.7645887458
 20
22.7006533515
 11
40.6582009942
 21
22.0104488841
  0
LINE
  5
621
100
AcDbEntity
  8
RACCORDO
100
AcDbLine
 62
253
  6
CONTINUOUS
 10
40.7645887458
 20
22.7006533515
 11
40.6582009942
 21
22.0104488841
  0
LINE
  5
622
100
AcDbEntity
  8
0
100
AcDbLine
 62
7
  6
CONTINUOUS
 10
37.2405497645
 20
13.7601514818
 11
37.2407650744
 21
13.7580715712
  0
LINE
  5
623
100
AcDbEntity
  8
ASSI
100
AcDbLine
 62
7
  6
CONTINUOUS
 10
37.2406059424
 20
13.7596175846
 11
37.2407650612
 21
13.7580717015
  0
LINE
  5
624
100
AcDbEntity
  8
ASSI
100
AcDbLine
 62
7
  6
CONTINUOUS
 10
37.2407650612
 20
13.7580717015
 11
37.2420052874
 21
13.7435174546
  0
LWPOLYLINE
  5
625
100
AcDbEntity
  8
0
100
AcDbPolyline
 62
7
  6
CONTINUOUS
 90
3
 70
0
 10
37.2407650744
 20
13.7580715712
 10
37.2424404362
 20
13.7364335987
 10
37.243096403
 20
13.7121222416
  0
LINE
  5
626
100
AcDbEntity
  8
ASSI
100
AcDbLine
 62
7
  6
CONTINUOUS
 10
37.2420052874
 20
13.7435174546
 11
37.243096403
 21
13.7121222416
  0
LWPOLYLINE
  5
627
100
AcDbEntity
  8
RACCORDO
100
AcDbPolyline
 62
253
  6
CONTINUOUS
 90
13
 70
0
 10
41.1581248418
 20
21.5129024175
 10
41.1573930496
 20
21.5063592591
 10
41.1566767748
 20
21.496561126
 10
41.1559760175
 20
21.4835080185
 10
41.1552857874
 20
21.4670609074
 10
41.1546110747
 20
21.4473588217
 10
41.1539668501
 20
21.4248188483
 10
41.1533540754
 20
21.3993844465
 10
41.1527717887
 20
21.3711121569
 10
41.152232075
 20
21.3405886882
 10
41.1517358799
 20
21.3077716181
 10
41.1512822577
 20
21.2727033688
 10
41.1505314513
 20
21.1979092653
  0
LWPOLYLINE
  5
628
100
AcDbEntity
  8
ASSI
100
AcDbPolyline
 62
253
  6
CONTINUOUS
 90
9
 70
0
 10
41.1581248418
 20
21.5129024175
 10
41.157583885
 20
21.5084586331
 10
41.1570476507
 20
21.5021180566
 10
41.156516139
 20
21.4938806878
 10
41.1559865806
 20
21.4836993389
 10
41.1554617447
 20
21.4716211979
 10
41.1549499391
 20
21.4577878285
 10
41.1544517389
 20
21.442166242
 10
41.1535010113
 20
21.4058979139
  0
LINE
  5
629
100
AcDbEntity
  8
ASSI
100
AcDbLine
 62
253
  6
CONTINUOUS
 10
41.2644364497
 20
22.2026128925
 11
41.1581248418
 21
21.5129024175
  0
LINE
  5
62A
100
AcDbEntity
  8
RACCORDO
100
AcDbLine
 62
253
  6
CONTINUOUS
 10
41.2644364497
 20
22.2026128925
 11
41.1581248418
 21
21.5129024175
  0
LINE
  5
62B
100
AcDbEntity
  8
ASSI
100
AcDbLine
 62
7
  6
CONTINUOUS
 10
33.5993087267
 20
-21.7949089135
 11
33.5777808133
 21
-21.8949089135
  0
LINE
  5
62C
100
AcDbEntity
  8
SUPERFICI
100
AcDbLine
 62
7
  6
CONTINUOUS
 10
33.5993087267
 20
-21.7949089135
 11
33.5777808133
 21
-21.8949089135
  0
LINE
  5
62D
100
AcDbEntity
  8
ASSI
100
AcDbLine
 62
7
  6
CONTINUOUS
 10
33.5993087267
 20
23.0050910865
 11
33.5777808133
 21
23.1050910865
  0
LINE
  5
62E
100
AcDbEntity
  8
SUPERFICI
100
AcDbLine
 62
7
  6
CONTINUOUS
 10
33.5993087267
 20
23.0050910865
 11
33.5777808133
 21
23.1050910865
  0
LINE
  5
62F
100
AcDbEntity
  8
0
100
AcDbLine
 62
7
  6
CONTINUOUS
 10
37.2355050583
 20
13.7950687131
 11
37.2405503038
 21
13.7601456969
  0
LINE
  5
630
100
AcDbEntity
  8
0
100
AcDbLine
 62
7
  6
CONTINUOUS
 10
37.2368097998
 20
13.7876285967
 11
37.2405497645
 21
13.7601514818
  0
LINE
  5
631
100
AcDbEntity
  8
ASSI
100
AcDbLine
 62
7
  6
CONTINUOUS
 10
37.2379189566
 20
13.7806261918
 11
37.2406064875
 21
13.7596118925
  0
LINE
  5
632
100
AcDbEntity
  8
ASSI
100
AcDbLine
 62
7
  6
CONTINUOUS
 10
37.2386874467
 20
13.7753470103
 11
37.2406059424
 21
13.7596175846
  0
LWPOLYLINE
  5
633
100
AcDbEntity
  8
ASSI
100
AcDbPolyline
 62
253
  6
CONTINUOUS
 90
10
 70
0
 10
41.1535010115
 20
-20.745753375
 10
41.1539665691
 20
-20.7599956905
 10
41.1544517391
 20
-20.7725274528
 10
41.1549499393
 20
-20.7831738627
 10
41.1554617449
 20
-20.7918961873
 10
41.1559865808
 20
-20.7987331595
 10
41.1565161391
 20
-20.8036261791
 10
41.1570476508
 20
-20.8065557127
 10
41.157583885
 20
-20.8075412938
 10
41.1581248418
 20
-20.8065829222
  0
LINE
  5
634
100
AcDbEntity
  8
ASSI
100
AcDbLine
 62
253
  6
CONTINUOUS
 10
41.1526301496
 20
-20.7121227915
 11
41.1535010115
 21
-20.745753375
  0
LWPOLYLINE
  5
635
100
AcDbEntity
  8
ASSI
100
AcDbPolyline
 62
253
  6
CONTINUOUS
 90
8
 70
0
 10
40.6544647822
 20
-21.2338289618
 10
40.6549041666
 20
-21.2532516775
 10
40.6553531716
 20
-21.2697414645
 10
40.6558120107
 20
-21.2832471558
 10
40.6562804703
 20
-21.2937274455
 10
40.6567540487
 20
-21.3011502612
 10
40.6572312451
 20
-21.3054924673
 10
40.6576638561
 20
-21.3067549409
  0
LWPOLYLINE
  5
636
100
AcDbEntity
  8
RACCORDO
100
AcDbPolyline
 62
253
  6
CONTINUOUS
 90
10
 70
0
 10
41.152232075
 20
-20.6931161196
 10
41.1527717887
 20
-20.7182498461
 10
41.1533540754
 20
-20.7407072471
 10
41.1539668501
 20
-20.7600222979
 10
41.1546110747
 20
-20.7761288521
 10
41.1552857874
 20
-20.7890930561
 10
41.1559760175
 20
-20.7986473237
 10
41.1566767748
 20
-20.8047024596
 10
41.1573930496
 20
-20.8073476591
 10
41.1581248418
 20
-20.8065829222
  0
LINE
  5
637
100
AcDbEntity
  8
RACCORDO
100
AcDbLine
 62
253
  6
CONTINUOUS
 10
41.1517358799
 20
-20.6652542022
 11
41.152232075
 21
-20.6931161196
  0
LINE
  5
638
100
AcDbEntity
  8
ASSI
100
AcDbLine
 62
253
  6
CONTINUOUS
 10
40.6536264908
 20
-21.1864356528
 11
40.6544647822
 21
-21.2338289618
  0
LWPOLYLINE
  5
639
100
AcDbEntity
  8
ASSI
100
AcDbPolyline
 62
253
  6
CONTINUOUS
 90
3
 70
0
 10
41.1514980368
 20
-20.6499998574
 10
41.1518512808
 20
-20.6722260403
 10
41.1526301496
 20
-20.7121227915
  0
LINE
  5
63A
100
AcDbEntity
  8
ASSI
100
AcDbLine
 62
253
  6
CONTINUOUS
 10
40.6528459321
 20
-21.1281495449
 11
40.6536264908
 21
-21.1864356528
  0
LINE
  5
63B
100
AcDbEntity
  8
ASSI
100
AcDbLine
 62
253
  6
CONTINUOUS
 10
40.652134679
 20
-21.059695119
 11
40.6528459321
 21
-21.1281495449
  0
LINE
  5
63C
100
AcDbEntity
  8
ASSI
100
AcDbLine
 62
253
  6
CONTINUOUS
 10
40.6515028275
 20
-20.9819167562
 11
40.652134679
 21
-21.059695119
  0
LWPOLYLINE
  5
63D
100
AcDbEntity
  8
RACCORDO
100
AcDbPolyline
 62
253
  6
CONTINUOUS
 90
13
 70
0
 10
40.6509562858
 20
-20.8958202548
 10
40.651357554
 20
-20.9611502749
 10
40.6518104911
 20
-21.0219096834
 10
40.6523059749
 20
-21.0776963413
 10
40.6528449939
 20
-21.1281263843
 10
40.6534265595
 20
-21.1728386892
 10
40.6540385836
 20
-21.2115171517
 10
40.6546816731
 20
-21.2438913019
 10
40.6553552211
 20
-21.2697346922
 10
40.6560453181
 20
-21.2888652637
 10
40.6567473277
 20
-21.3011498456
 10
40.6574658864
 20
-21.3065036656
 10
40.6576590838
 20
-21.3067549422
  0
LINE
  5
63E
100
AcDbEntity
  8
ASSI
100
AcDbLine
 62
253
  6
CONTINUOUS
 10
40.65095604
 20
-20.8957762053
 11
40.6515028275
 21
-20.9819167562
  0
LINE
  5
63F
100
AcDbEntity
  8
RACCORDO
100
AcDbLine
 62
253
  6
CONTINUOUS
 10
40.6503105791
 20
-20.7532521358
 11
40.6509562858
 21
-20.8958202548
  0
LINE
  5
640
100
AcDbEntity
  8
ASSI
100
AcDbLine
 62
253
  6
CONTINUOUS
 10
40.6503100599
 20
-20.7532450097
 11
40.65095604
 21
-20.8957762053
  0
LINE
  5
641
100
AcDbEntity
  8
RACCORDO
100
AcDbLine
 62
253
  6
CONTINUOUS
 10
40.6498928424
 20
-20.5982768257
 11
40.6503105791
 21
-20.7532521358
  0
LINE
  5
642
100
AcDbEntity
  8
ASSI
100
AcDbLine
 62
253
  6
CONTINUOUS
 10
40.6498911158
 20
-20.5983087548
 11
40.6503100599
 21
-20.7532450097
  0
LINE
  5
643
100
AcDbEntity
  8
RACCORDO
100
AcDbLine
 62
253
  6
CONTINUOUS
 10
40.6497094641
 20
-20.4352418535
 11
40.6498928424
 21
-20.5982768257
  0
LINE
  5
644
100
AcDbEntity
  8
ASSI
100
AcDbLine
 62
253
  6
CONTINUOUS
 10
40.6497094641
 20
-20.4352418535
 11
40.6498911158
 21
-20.5983087548
  0
LWPOLYLINE
  5
645
100
AcDbEntity
  8
RACCORDO
100
AcDbPolyline
 62
253
  6
CONTINUOUS
 90
9
 70
0
 10
40.6467328663
 20
16.3574434226
 10
40.6445004181
 20
11.7460271452
 10
40.6430121193
 20
7.1373478611
 10
40.64226797
 20
2.531799028
 10
40.6422679701
 20
-2.0702262584
 10
40.6430121196
 20
-6.6683352969
 10
40.6445004184
 20
-11.262135626
 10
40.6467328666
 20
-15.8512350581
 10
40.6497094641
 20
-20.4352418535
  0
LWPOLYLINE
  5
646
100
AcDbEntity
  8
ASSI
100
AcDbPolyline
 62
253
  6
CONTINUOUS
 90
16
 70
0
 10
40.6497094641
 20
20.971203049
 10
40.64783433
 20
18.2026886869
 10
40.6462270351
 20
15.4349596486
 10
40.6448875794
 20
12.66810099
 10
40.643815934
 20
9.9021956394
 10
40.6430121278
 20
7.1373307001
 10
40.6424762476
 20
4.3735974403
 10
40.6422083224
 20
1.6110858764
 10
40.6422083233
 20
-1.1501241992
 10
40.6424762499
 20
-3.9099569055
 10
40.6430121313
 20
-6.6683325601
 10
40.6438159386
 20
-9.4251612477
 10
40.6448875842
 20
-12.1803518019
 10
40.6462270391
 20
-14.9338174125
 10
40.6478343324
 20
-17.6854756151
 10
40.6497094641
 20
-20.4352418535
  0
LINE
  5
647
100
AcDbEntity
  8
ASSI
100
AcDbLine
 62
253
  6
CONTINUOUS
 10
40.6498911157
 20
21.1378975085
 11
40.6497094641
 21
20.971203049
  0
LINE
  5
648
100
AcDbEntity
  8
RACCORDO
100
AcDbLine
 62
253
  6
CONTINUOUS
 10
40.6498928424
 20
21.1378643726
 11
40.6467328663
 21
16.3574434226
  0
LINE
  5
649
100
AcDbEntity
  8
RACCORDO
100
AcDbLine
 62
253
  6
CONTINUOUS
 10
40.6503105791
 20
21.3012130908
 11
40.6498928424
 21
21.1378643726
  0
LINE
  5
64A
100
AcDbEntity
  8
ASSI
100
AcDbLine
 62
253
  6
CONTINUOUS
 10
40.6503100598
 20
21.3012054541
 11
40.6498911157
 21
21.1378975085
  0
LINE
  5
64B
100
AcDbEntity
  8
ASSI
100
AcDbLine
 62
253
  6
CONTINUOUS
 10
40.65095604
 20
21.4566215508
 11
40.6503100598
 21
21.3012054541
  0
LINE
  5
64C
100
AcDbEntity
  8
ASSI
100
AcDbLine
 62
253
  6
CONTINUOUS
 10
40.6518082812
 20
21.5997978289
 11
40.65095604
 21
21.4566215508
  0
LINE
  5
64D
100
AcDbEntity
  8
ASSI
100
AcDbLine
 62
253
  6
CONTINUOUS
 10
40.6528459321
 20
21.7267507177
 11
40.6518082812
 21
21.5997978289
  0
LINE
  5
64E
100
AcDbEntity
  8
ASSI
100
AcDbLine
 62
253
  6
CONTINUOUS
 10
40.6536264908
 20
21.8006124025
 11
40.6528459321
 21
21.7267507177
  0
LINE
  5
64F
100
AcDbEntity
  8
ASSI
100
AcDbLine
 62
253
  6
CONTINUOUS
 10
40.6544647822
 20
21.8647697119
 11
40.6536264908
 21
21.8006124025
  0
LINE
  5
650
100
AcDbEntity
  8
ASSI
100
AcDbLine
 62
253
  6
CONTINUOUS
 10
41.1526301494
 20
21.3635706431
 11
41.1518512807
 21
21.3158958754
  0
LINE
  5
651
100
AcDbEntity
  8
ASSI
100
AcDbLine
 62
253
  6
CONTINUOUS
 10
40.6553531716
 20
21.9184267661
 11
40.6544647822
 21
21.8647697119
  0
LINE
  5
652
100
AcDbEntity
  8
ASSI
100
AcDbLine
 62
253
  6
CONTINUOUS
 10
41.1535010113
 20
21.4058979139
 11
41.1526301494
 21
21.3635706431
  0
LWPOLYLINE
  5
653
100
AcDbEntity
  8
RACCORDO
100
AcDbPolyline
 62
253
  6
CONTINUOUS
 90
14
 70
0
 10
40.6582009942
 20
22.0104488841
 10
40.6574658864
 20
21.9975444064
 10
40.6567473278
 20
21.9778049534
 10
40.6560453181
 20
21.951367737
 10
40.6553552211
 20
21.9184158959
 10
40.6546816731
 20
21.8791792643
 10
40.6540385835
 20
21.8339340882
 10
40.6534265595
 20
21.7829964244
 10
40.6528449939
 20
21.726722117
 10
40.6523059749
 20
21.6655084643
 10
40.6518104911
 20
21.5997927129
 10
40.651357554
 20
21.5300260575
 10
40.6509562858
 20
21.4566705066
 10
40.6503105791
 20
21.3012130908
  0
LWPOLYLINE
  5
654
100
AcDbEntity
  8
ASSI
100
AcDbPolyline
 62
253
  6
CONTINUOUS
 90
6
 70
0
 10
40.6582009942
 20
22.0104488841
 10
40.6577135604
 20
22.0026106825
 10
40.6572312452
 20
21.991718428
 10
40.6567540488
 20
21.9778060417
 10
40.6562804704
 20
21.9609170297
 10
40.6553531716
 20
21.9184267661
  0
LWPOLYLINE
  5
655
100
AcDbEntity
  8
RACCORDO
100
AcDbPolyline
 62
253
  6
CONTINUOUS
 90
9
 70
0
 10
24.6284514663
 20
-21.4846624944
 10
24.6036083467
 20
-21.5163220866
 10
24.5794299012
 20
-21.5463194817
 10
24.556563019
 20
-21.5738521061
 10
24.5356194983
 20
-21.5981833303
 10
24.5171596785
 20
-21.6186621778
 10
24.501677448
 20
-21.6347407415
 10
24.4895870307
 20
-21.645988843
 10
24.4812119029
 20
-21.6521055419
  0
LWPOLYLINE
  5
656
100
AcDbEntity
  8
0
100
AcDbPolyline
 62
253
  6
CONTINUOUS
 90
81
 70
0
 10
30.2144364497
 20
10.9494874969
 10
30.3229700343
 20
10.9473832763
 10
30.4306810488
 20
10.9410751696
 10
30.5376507655
 20
10.930570009
 10
30.6439604567
 20
10.915874627
 10
30.7496913947
 20
10.896995856
 10
30.8548706783
 20
10.8739478837
 10
30.959308713
 20
10.8467743201
 10
31.0627617307
 20
10.8155261303
 10
31.1649859636
 20
10.7802542796
 10
31.2657376437
 20
10.7410097334
 10
31.364792893
 20
10.6978479139
 10
31.4620073947
 20
10.6508420711
 10
31.5572567218
 20
10.6000699121
 10
31.6504164476
 20
10.545609144
 10
31.741362145
 20
10.4875374737
 10
31.8299676045
 20
10.4259372786
 10
31.9160994847
 20
10.3609096174
 10
31.9996226616
 20
10.2925602192
 10
32.080402011
 20
10.2209948129
 10
32.1583024089
 20
10.1463191277
 10
32.2331938329
 20
10.0686427311
 10
32.3049666673
 20
9.9880905459
 10
32.3735163981
 20
9.9047913331
 10
32.4387385115
 20
9.8188738542
 10
32.5005284934
 20
9.7304668703
 10
32.5587860249
 20
9.6397022148
 10
32.6134275664
 20
9.5467240088
 10
32.6643737733
 20
9.4516794456
 10
32.7115453011
 20
9.3547157184
 10
32.7548628052
 20
9.2559800205
 10
32.794252101
 20
9.1556215872
 10
32.8296596439
 20
9.0537978219
 10
32.8610370491
 20
8.95066817
 10
32.8883359321
 20
8.8463920771
 10
32.9115079083
 20
8.7411289887
 10
32.9305099186
 20
8.6350394235
 10
32.9453202071
 20
8.5282881937
 10
32.9559223432
 20
8.4210411849
 10
32.9622998965
 20
8.3134642826
 10
32.9644364367
 20
8.2057233724
 10
32.9623210005
 20
8.0979842945
 10
32.955964493
 20
7.9904127077
 10
32.9453832864
 20
7.8831742256
 10
32.930593753
 20
7.7764344617
 10
32.911612265
 20
7.6703590297
 10
32.8884605239
 20
7.5651125072
 10
32.8611815479
 20
7.460855329
 10
32.8298236842
 20
7.3577468941
 10
32.7944352801
 20
7.2559466015
 10
32.7550646831
 20
7.1556138502
 10
32.7117653818
 20
7.056905946
 10
32.6646114301
 20
6.9599718223
 10
32.6136820236
 20
6.8649583194
 10
32.5590563574
 20
6.7720122776
 10
32.500813627
 20
6.6812805372
 10
32.439037247
 20
6.5929068925
 10
32.3738275088
 20
6.5070229546
 10
32.3052889228
 20
6.4237572887
 10
32.2335259998
 20
6.34323846
 10
32.1586432504
 20
6.2655950337
 10
32.0807502387
 20
6.1909517348
 10
31.9999767427
 20
6.1194179275
 10
31.9164575943
 20
6.0510991359
 10
31.830327625
 20
5.9861008842
 10
31.7417216666
 20
5.9245286964
 10
31.6507730402
 20
5.866483465
 10
31.5576090251
 20
5.8120475562
 10
31.4623553902
 20
5.7612987046
 10
31.3651379044
 20
5.7143146447
 10
31.2660823364
 20
5.6711731111
 10
31.16533345
 20
5.6319472501
 10
31.063111989
 20
5.5966918545
 10
30.9596576918
 20
5.5654571286
 10
30.8552102973
 20
5.538293277
 10
30.7500095439
 20
5.515250504
 10
30.6442418919
 20
5.4963721011
 10
30.5378806881
 20
5.481673708
 10
30.4308460009
 20
5.4711640514
 10
30.3230578986
 20
5.4648518578
 10
30.2144364497
 20
5.462745854
  0
LWPOLYLINE
  5
657
100
AcDbEntity
  8
RACCORDO
100
AcDbPolyline
 62
253
  6
CONTINUOUS
 90
9
 70
0
 10
24.6284514663
 20
22.6948446673
 10
24.6036087397
 20
22.7265036345
 10
24.579430756
 20
22.7565003449
 10
24.5565643728
 20
22.7840322667
 10
24.5356213572
 20
22.8083628109
 10
24.5171620186
 20
22.8288410382
 10
24.5016802181
 20
22.8449190743
 10
24.4895901555
 20
22.8561667675
 10
24.4812152885
 20
22.862283197
  0
LINE
  5
658
100
AcDbEntity
  8
0
100
AcDbLine
 62
7
  6
CONTINUOUS
 10
37.2315374259
 20
13.8144991751
 11
37.2368097998
 21
13.7876285967
  0
LINE
  5
659
100
AcDbEntity
  8
ASSI
100
AcDbLine
 62
7
  6
CONTINUOUS
 10
37.2330438903
 20
13.807600069
 11
37.2386874467
 21
13.7753470103
  0
LWPOLYLINE
  5
65A
100
AcDbEntity
  8
RACCORDO
100
AcDbPolyline
 62
253
  6
CONTINUOUS
 90
16
 70
0
 10
41.1581248418
 20
21.5129024175
 10
41.155364089
 20
21.5648183649
 10
41.1471597409
 20
21.6161744292
 10
41.1336015568
 20
21.6664082855
 10
41.1148379178
 20
21.714969888
 10
41.0910742089
 20
21.7613274801
 10
41.0625705763
 20
21.8049734196
 10
41.0296390635
 20
21.8454297644
 10
40.992640214
 20
21.8822534762
 10
40.9519791413
 20
21.9150412699
 10
40.9081010412
 20
21.9434340785
 10
40.861486354
 20
21.967120947
 10
40.8126455415
 20
21.9858424334
 10
40.7621134224
 20
21.9993934923
 10
40.710443308
 20
22.0076257042
 10
40.6582009942
 20
22.0104488839
  0
LINE
  5
65B
100
AcDbEntity
  8
RACCORDO
100
AcDbLine
 62
7
  6
CONTINUOUS
 10
41.3387893429
 20
16.7566647448
 11
41.33215286
 21
16.9229723925
  0
LINE
  5
65C
100
AcDbEntity
  8
ASSI
100
AcDbLine
 62
7
  6
CONTINUOUS
 10
41.3644364497
 20
16.7247502525
 11
41.3586672489
 21
16.8745361609
  0
LINE
  5
65D
100
AcDbEntity
  8
SUPERFICI
100
AcDbLine
 62
7
  6
CONTINUOUS
 10
41.3644364497
 20
16.7247502525
 11
41.3586672489
 21
16.8745361609
  0
LWPOLYLINE
  5
65E
100
AcDbEntity
  8
ASSI
100
AcDbPolyline
 62
253
  6
CONTINUOUS
 90
25
 70
0
 10
41.1581248418
 20
21.5129024175
 10
41.1570402169
 20
21.5453850685
 10
41.1538208305
 20
21.5777321067
 10
41.148480432
 20
21.6098051018
 10
41.1410418458
 20
21.641466803
 10
41.1315368797
 20
21.6725816965
 10
41.1200061961
 20
21.703016588
 10
41.1064991203
 20
21.7326412225
 10
41.0910734385
 20
21.7613288066
 10
41.0737951691
 20
21.788956526
 10
41.0547382429
 20
21.8154061383
 10
41.0339842081
 20
21.8405644355
 10
41.0116219088
 20
21.8643237045
 10
40.987747049
 20
21.8865822559
 10
40.9624618004
 20
21.9072448285
 10
40.9358744036
 20
21.9262229688
 10
40.9080986586
 20
21.9434354496
 10
40.8792534282
 20
21.9588086165
 10
40.8494621566
 20
21.9722766806
 10
40.8188523428
 20
21.9837820029
 10
40.7875549884
 20
21.9932753443
 10
40.75570403
 20
22.000716078
 10
40.7234357784
 20
22.0060723592
 10
40.6908883351
 20
22.009321263
 10
40.6582009942
 20
22.0104488839
  0
LINE
  5
65F
100
AcDbEntity
  8
ASSI
100
AcDbLine
 62
253
  6
CONTINUOUS
 10
41.1508756919
 20
-20.6016666366
 11
41.1514980368
 21
-20.6499998574
  0
LWPOLYLINE
  5
660
100
AcDbEntity
  8
RACCORDO
100
AcDbPolyline
 62
253
  6
CONTINUOUS
 90
4
 70
0
 10
41.1505314513
 20
-20.5674196321
 10
41.1508804567
 20
-20.6021230114
 10
41.1512822577
 20
-20.6347159593
 10
41.1517358799
 20
-20.6652542022
  0
LINE
  5
661
100
AcDbEntity
  8
ASSI
100
AcDbLine
 62
253
  6
CONTINUOUS
 10
41.1503691479
 20
-20.5485287795
 11
41.1508756919
 21
-20.6016666366
  0
LINE
  5
662
100
AcDbEntity
  8
RACCORDO
100
AcDbLine
 62
253
  6
CONTINUOUS
 10
41.1499952286
 20
-20.4926375582
 11
41.1505314513
 21
-20.5674196321
  0
LINE
  5
663
100
AcDbEntity
  8
ASSI
100
AcDbLine
 62
253
  6
CONTINUOUS
 10
41.1499904268
 20
-20.4916294688
 11
41.1503691479
 21
-20.5485287795
  0
LINE
  5
664
100
AcDbEntity
  8
ASSI
100
AcDbLine
 62
253
  6
CONTINUOUS
 10
41.1497445289
 20
-20.432554271
 11
41.1499904268
 21
-20.4916294688
  0
LINE
  5
665
100
AcDbEntity
  8
RACCORDO
100
AcDbLine
 62
253
  6
CONTINUOUS
 10
41.149695805
 20
-20.4133177297
 11
41.1499952286
 21
-20.4926375582
  0
LINE
  5
666
100
AcDbEntity
  8
RACCORDO
100
AcDbLine
 62
253
  6
CONTINUOUS
 10
41.3387893429
 20
-15.5464825719
 11
41.3043870863
 21
0.5204549873
  0
LINE
  5
667
100
AcDbEntity
  8
ASSI
100
AcDbLine
 62
253
  6
CONTINUOUS
 10
41.1496333116
 20
-20.3717589576
 11
41.1497445289
 21
-20.432554271
  0
LINE
  5
668
100
AcDbEntity
  8
ASSI
100
AcDbLine
 62
7
  6
CONTINUOUS
 10
41.2644364497
 20
22.2026128925
 11
41.2644364497
 21
-20.434633966
  0
LINE
  5
669
100
AcDbEntity
  8
RACCORDO
100
AcDbLine
 62
7
  6
CONTINUOUS
 10
41.2644364497
 20
22.2026128925
 11
41.2644364497
 21
-20.434633966
  0
LINE
  5
66A
100
AcDbEntity
  8
RACCORDO
100
AcDbLine
 62
253
  6
CONTINUOUS
 10
41.3043870863
 20
0.5204549873
 11
41.3043389327
 21
0.6220826541
  0
LINE
  5
66B
100
AcDbEntity
  8
RACCORDO
100
AcDbLine
 62
7
  6
CONTINUOUS
 10
41.3644364497
 20
16.7242589258
 11
41.3644364497
 21
-15.5140767529
  0
LINE
  5
66C
100
AcDbEntity
  8
ASSI
100
AcDbLine
 62
7
  6
CONTINUOUS
 10
41.3644364497
 20
-15.5145680796
 11
41.3644364497
 21
16.7247502525
  0
LINE
  5
66D
100
AcDbEntity
  8
SUPERFICI
100
AcDbLine
 62
7
  6
CONTINUOUS
 10
41.3644364497
 20
-15.5145680796
 11
41.3644364497
 21
16.7247502525
  0
LWPOLYLINE
  5
66E
100
AcDbEntity
  8
RACCORDO
100
AcDbPolyline
 62
253
  6
CONTINUOUS
 90
9
 70
0
 10
41.1466567183
 20
16.3834990927
 10
41.1444242728
 20
11.7768368535
 10
41.1429359753
 20
7.1732927823
 10
41.142191825
 20
2.5724694288
 10
41.1421918226
 20
-2.0252357566
 10
41.1429359699
 20
-6.618630423
 10
41.1444242675
 20
-11.2073171202
 10
41.1466567147
 20
-15.7916932984
 10
41.149695805
 20
-20.4133177297
  0
LWPOLYLINE
  5
66F
100
AcDbEntity
  8
ASSI
100
AcDbPolyline
 62
253
  6
CONTINUOUS
 90
15
 70
0
 10
41.1477584029
 20
18.2278729395
 10
41.1461512479
 20
15.4632607583
 10
41.1448118467
 20
12.6994429563
 10
41.143740129
 20
9.9362969399
 10
41.142936165
 20
7.1739453028
 10
41.1424001657
 20
4.4127558262
 10
41.1421322013
 20
1.6527338519
 10
41.1421322015
 20
-1.1061259619
 10
41.1424001664
 20
-3.8634718584
 10
41.1429361661
 20
-6.6193085301
 10
41.1437401305
 20
-9.3736312845
 10
41.1448118483
 20
-12.1260742879
 10
41.1461512493
 20
-14.8765155956
 10
41.1477584037
 20
-17.6250771521
 10
41.1496333116
 20
-20.3717589576
  0
LINE
  5
670
100
AcDbEntity
  8
RACCORDO
100
AcDbLine
 62
253
  6
CONTINUOUS
 10
41.3043389327
 20
0.6220826541
 11
41.3044353351
 21
0.7236200341
  0
LINE
  5
671
100
AcDbEntity
  8
RACCORDO
100
AcDbLine
 62
253
  6
CONTINUOUS
 10
41.149695805
 20
21.0354623491
 11
41.1466567183
 21
16.3834990927
  0
LINE
  5
672
100
AcDbEntity
  8
RACCORDO
100
AcDbLine
 62
253
  6
CONTINUOUS
 10
41.3044353351
 20
0.7236200341
 11
41.3387893429
 21
16.7566647448
  0
LINE
  5
673
100
AcDbEntity
  8
ASSI
100
AcDbLine
 62
253
  6
CONTINUOUS
 10
41.1497445289
 20
21.0551854587
 11
41.1477584029
 21
18.2278729395
  0
LINE
  5
674
100
AcDbEntity
  8
RACCORDO
100
AcDbLine
 62
253
  6
CONTINUOUS
 10
41.1499952286
 20
21.1177723115
 11
41.149695805
 21
21.0354623491
  0
LINE
  5
675
100
AcDbEntity
  8
ASSI
100
AcDbLine
 62
253
  6
CONTINUOUS
 10
41.1501639583
 20
21.1473607441
 11
41.1497445289
 21
21.0551854587
  0
LINE
  5
676
100
AcDbEntity
  8
RACCORDO
100
AcDbLine
 62
253
  6
CONTINUOUS
 10
41.1505314513
 20
21.1979092653
 11
41.1499952286
 21
21.1177723115
  0
LINE
  5
677
100
AcDbEntity
  8
ASSI
100
AcDbLine
 62
253
  6
CONTINUOUS
 10
41.1506065908
 20
21.2067995871
 11
41.1501639583
 21
21.1473607441
  0
LINE
  5
678
100
AcDbEntity
  8
ASSI
100
AcDbLine
 62
253
  6
CONTINUOUS
 10
41.151172807
 20
21.263388008
 11
41.1506065908
 21
21.2067995871
  0
LINE
  5
679
100
AcDbEntity
  8
ASSI
100
AcDbLine
 62
253
  6
CONTINUOUS
 10
41.1518512807
 20
21.3158958754
 11
41.151172807
 21
21.263388008
  0
LINE
  5
67A
100
AcDbEntity
  8
RACCORDO
100
AcDbLine
 62
7
  6
CONTINUOUS
 10
41.3346127156
 20
-15.6792922233
 11
41.3387893429
 21
-15.5464825719
  0
LWPOLYLINE
  5
67B
100
AcDbEntity
  8
ASSI
100
AcDbPolyline
 62
253
  6
CONTINUOUS
 90
6
 70
0
 10
41.1581248418
 20
-20.8065829222
 10
41.1570402171
 20
-20.8392114355
 10
41.1538208312
 20
-20.8716972052
 10
41.1484804332
 20
-20.9039012072
 10
41.1410418467
 20
-20.935685631
 10
41.1389491846
 20
-20.9432311802
  0
LINE
  5
67C
100
AcDbEntity
  8
ASSI
100
AcDbLine
 62
7
  6
CONTINUOUS
 10
41.3644364497
 20
-15.5145680796
 11
41.3586672489
 21
-15.664353988
  0
LINE
  5
67D
100
AcDbEntity
  8
SUPERFICI
100
AcDbLine
 62
7
  6
CONTINUOUS
 10
41.3644364497
 20
-15.5145680796
 11
41.3586672489
 21
-15.664353988
  0
LWPOLYLINE
  5
67E
100
AcDbEntity
  8
RACCORDO
100
AcDbPolyline
 62
253
  6
CONTINUOUS
 90
4
 70
0
 10
41.1581248418
 20
-20.8065829222
 10
41.1553639315
 20
-20.858730359
 10
41.1471591652
 20
-20.9102984618
 10
41.1392385275
 20
-20.9422147843
  0
LWPOLYLINE
  5
67F
100
AcDbEntity
  8
RACCORDO
100
AcDbPolyline
 62
7
  6
CONTINUOUS
 90
3
 70
0
 10
41.3644364497
 20
-15.5140767529
 10
41.3506704948
 20
-15.74130939
 10
41.3136711004
 20
-15.9603667291
  0
LINE
  5
680
100
AcDbEntity
  8
ASSI
100
AcDbLine
 62
7
  6
CONTINUOUS
 10
41.3586672489
 20
-15.664353988
 11
41.3421759989
 21
-15.8117086277
  0
LINE
  5
681
100
AcDbEntity
  8
SUPERFICI
100
AcDbLine
 62
7
  6
CONTINUOUS
 10
41.3586672489
 20
-15.664353988
 11
41.3421759989
 21
-15.8117086277
  0
LWPOLYLINE
  5
682
100
AcDbEntity
  8
ASSI
100
AcDbPolyline
 62
7
  6
CONTINUOUS
 90
4
 70
0
 10
41.3421759989
 20
-15.8117086277
 10
41.3149626997
 20
-15.9566319985
 10
41.2767600178
 20
-16.0998936227
 10
41.2644364497
 20
-16.1353671436
  0
LWPOLYLINE
  5
683
100
AcDbEntity
  8
SUPERFICI
100
AcDbPolyline
 62
7
  6
CONTINUOUS
 90
4
 70
0
 10
41.3421759989
 20
-15.8117086277
 10
41.3149626997
 20
-15.9566319985
 10
41.2767600178
 20
-16.0998936227
 10
41.2644364497
 20
-16.1353671436
  0
LWPOLYLINE
  5
684
100
AcDbEntity
  8
ASSI
100
AcDbPolyline
 62
7
  6
CONTINUOUS
 90
4
 70
0
 10
41.3421759989
 20
17.0218908006
 10
41.3149626997
 20
17.1668141714
 10
41.2767600178
 20
17.3100757956
 10
41.2644364497
 20
17.3455493165
  0
LWPOLYLINE
  5
685
100
AcDbEntity
  8
SUPERFICI
100
AcDbPolyline
 62
7
  6
CONTINUOUS
 90
4
 70
0
 10
41.3421759989
 20
17.0218908006
 10
41.3149626997
 20
17.1668141714
 10
41.2767600178
 20
17.3100757956
 10
41.2644364497
 20
17.3455493165
  0
LWPOLYLINE
  5
686
100
AcDbEntity
  8
RACCORDO
100
AcDbPolyline
 62
7
  6
CONTINUOUS
 90
3
 70
0
 10
41.3136711004
 20
17.170548902
 10
41.3506704948
 20
16.9514915629
 10
41.3644364497
 20
16.7242589258
  0
LWPOLYLINE
  5
687
100
AcDbEntity
  8
RACCORDO
100
AcDbPolyline
 62
7
  6
CONTINUOUS
 90
3
 70
0
 10
41.33215286
 20
16.9229723925
 10
41.3124039473
 20
17.0835530393
 10
41.2807941194
 20
17.2374871685
  0
LINE
  5
688
100
AcDbEntity
  8
ASSI
100
AcDbLine
 62
7
  6
CONTINUOUS
 10
41.3586672489
 20
16.8745361609
 11
41.3421759989
 21
17.0218908006
  0
LINE
  5
689
100
AcDbEntity
  8
SUPERFICI
100
AcDbLine
 62
7
  6
CONTINUOUS
 10
41.3586672489
 20
16.8745361609
 11
41.3421759989
 21
17.0218908006
  0
LWPOLYLINE
  5
68A
100
AcDbEntity
  8
RACCORDO
100
AcDbPolyline
 62
7
  6
CONTINUOUS
 90
4
 70
0
 10
41.2633121987
 20
-16.0932410166
 10
41.2975178378
 20
-15.9535661101
 10
41.3210889051
 20
-15.8152255229
 10
41.3346127156
 20
-15.6792922233
  0
LINE
  5
68B
100
AcDbEntity
  8
RACCORDO
100
AcDbLine
 62
7
  6
CONTINUOUS
 10
41.3136711004
 20
-15.9603667291
 11
41.2644364497
 21
-16.1327428726
  0
LINE
  5
68C
100
AcDbEntity
  8
SUPERFICI
100
AcDbLine
 62
7
  6
CONTINUOUS
 10
33.5144364497
 20
-21.7949089135
 11
33.4478036521
 21
-21.8949089135
  0
LWPOLYLINE
  5
68D
100
AcDbEntity
  8
0
100
AcDbPolyline
 62
7
  6
CONTINUOUS
 90
19
 70
0
 10
27.8606002544
 20
15.3860795401
 10
28.0633463176
 20
15.4034125708
 10
28.2720468635
 20
15.4194669111
 10
28.4880586088
 20
15.4342235086
 10
28.7117189599
 20
15.447557833
 10
28.942510234
 20
15.4592894241
 10
29.1805011249
 20
15.4692724559
 10
29.4262490414
 20
15.4773682324
 10
29.6787962645
 20
15.4833815046
 10
29.9358594355
 20
15.4871297103
 10
30.198243578
 20
15.4885099382
 10
30.4644644686
 20
15.4873988016
 10
30.7287468745
 20
15.4837830527
 10
30.990539571
 20
15.4777091864
 10
31.2496755405
 20
15.4692233052
 10
31.5010579578
 20
15.4586027919
 10
31.7430982194
 20
15.4461112934
 10
31.9770265379
 20
15.4318796167
 10
32.2021309281
 20
15.4161333317
  0
LWPOLYLINE
  5
68E
100
AcDbEntity
  8
0
100
AcDbPolyline
 62
7
  6
CONTINUOUS
 90
32
 70
0
 10
27.9044654721
 20
15.3893652121
 10
28.0316185837
 20
15.4002018109
 10
28.1607240875
 20
15.4105135584
 10
28.2917906209
 20
15.4202817625
 10
28.4252329594
 20
15.4295128469
 10
28.5610990828
 20
15.4381820823
 10
28.6993365929
 20
15.446258435
 10
28.8402099658
 20
15.4537282063
 10
28.9840138175
 20
15.4605715936
 10
29.1304483782
 20
15.4667370657
 10
29.278885801
 20
15.4721684877
 10
29.4294308956
 20
15.4768444135
 10
29.5819701789
 20
15.4807360573
 10
29.7355467388
 20
15.483800127
 10
29.8901571892
 20
15.4860236319
 10
30.0457933922
 20
15.4873934939
 10
30.2014903093
 20
15.4878963132
 10
30.3572518113
 20
15.487534854
 10
30.5130614543
 20
15.4863071847
 10
30.6679237241
 20
15.4842235458
 10
30.8218357123
 20
15.4812945351
 10
30.9747889011
 20
15.4775309293
 10
31.1257803707
 20
15.4729763855
 10
31.2746987838
 20
15.4676606099
 10
31.4216463023
 20
15.461603964
 10
31.5659418947
 20
15.4548633064
 10
31.7072709931
 20
15.447490415
 10
31.845942946
 20
15.4395062844
 10
31.9822133726
 20
15.4309276269
 10
32.1160232527
 20
15.4217857496
 10
32.2474266895
 20
15.4121046562
 10
32.3768481952
 20
15.4018773055
  0
LWPOLYLINE
  5
68F
100
AcDbEntity
  8
ASSI
100
AcDbPolyline
 62
7
  6
CONTINUOUS
 90
18
 70
0
 10
27.8812222639
 20
15.387922143
 10
28.1012127168
 20
15.4064586494
 10
28.3287559639
 20
15.423522204
 10
28.5646554499
 20
15.4390105967
 10
28.8086539609
 20
15.4527335922
 10
29.0607342137
 20
15.4645146797
 10
29.3220453188
 20
15.4742077293
 10
29.5941404208
 20
15.481623977
 10
29.8749249367
 20
15.4864562459
 10
30.1599697417
 20
15.488462369
 10
30.4511063561
 20
15.4875148282
 10
30.7455353182
 20
15.483467416
 10
31.0318668049
 20
15.4765216949
 10
31.3067357421
 20
15.4670210426
 10
31.5728251798
 20
15.4551326715
 10
31.8280352182
 20
15.4411917129
 10
32.0707268638
 20
15.4255730124
 10
32.3023646513
 20
15.4084604464
  0
LWPOLYLINE
  5
690
100
AcDbEntity
  8
ASSI
100
AcDbPolyline
 62
7
  6
CONTINUOUS
 90
32
 70
0
 10
27.9713271561
 20
15.3951485174
 10
28.0946766345
 20
15.4053244935
 10
28.2198920087
 20
15.4150099879
 10
28.3469768238
 20
15.42418614
 10
28.4762902004
 20
15.432856412
 10
28.6078794482
 20
15.4409986287
 10
28.7416930599
 20
15.4485845726
 10
28.8779420888
 20
15.4555999074
 10
29.0168752172
 20
15.4620254108
 10
29.1582391332
 20
15.4678163741
 10
29.3014914902
 20
15.4729239008
 10
29.4467079272
 20
15.4773278067
 10
29.5938049797
 20
15.4810025946
 10
29.7420003163
 20
15.4839101892
 10
29.8913008794
 20
15.4860368708
 10
30.0416894476
 20
15.4873685208
 10
30.1923465831
 20
15.4878906944
 10
30.3433220565
 20
15.4876023565
 10
30.4945546763
 20
15.4864985042
 10
30.6450585072
 20
15.4845855633
 10
30.7948441753
 20
15.4818702904
 10
30.9438904061
 20
15.4783600107
 10
31.0911643009
 20
15.4740945224
 10
31.2365754109
 20
15.4690998855
 10
31.3802055465
 20
15.4633941329
 10
31.5212818468
 20
15.4570341144
 10
31.6594800551
 20
15.4500694855
 10
31.7951194293
 20
15.4425192383
 10
31.9283934243
 20
15.4344032832
 10
32.0592250224
 20
15.4257538549
 10
32.1876868006
 20
15.4165931103
 10
32.3141960037
 20
15.4069147691
  0
LWPOLYLINE
  5
691
100
AcDbEntity
  8
0
100
AcDbPolyline
 62
7
  6
CONTINUOUS
 90
57
 70
0
 10
32.2021309281
 20
15.4161333317
 10
32.4177738206
 20
15.399111626
 10
32.624529521
 20
15.3809600316
 10
32.8235422405
 20
15.3617438354
 10
33.01481147
 20
15.3416103564
 10
33.1983777615
 20
15.3206950123
 10
33.3754037465
 20
15.2989856427
 10
33.5459763178
 20
15.2765750636
 10
33.7100721354
 20
15.2535696651
 10
33.8686317467
 20
15.2299308773
 10
34.0217938575
 20
15.2057174263
 10
34.1694918093
 20
15.1810193482
 10
34.3123089747
 20
15.1558136357
 10
34.4503223456
 20
15.1301532566
 10
34.5835367125
 20
15.1041041803
 10
34.7123908809
 20
15.0776431318
 10
34.836940252
 20
15.0508156396
 10
34.9572128224
 20
15.0236730374
 10
35.0735739259
 20
14.996186184
 10
35.1860675339
 20
14.9683933191
 10
35.2947248698
 20
14.9403349497
 10
35.3998536096
 20
14.911971598
 10
35.5014778087
 20
14.8833313581
 10
35.5996159377
 20
14.8544446531
 10
35.6945342725
 20
14.8252654861
 10
35.7862631633
 20
14.7958123157
 10
35.8748000293
 20
14.7661145944
 10
35.9603334575
 20
14.7361355027
 10
36.0428863106
 20
14.7058898724
 10
36.1224524127
 20
14.6754036321
 10
36.199155268
 20
14.6446516695
 10
36.2730053548
 20
14.6136496805
 10
36.3440030668
 20
14.5824182239
 10
36.4122402021
 20
14.5509361168
 10
36.4777163029
 20
14.519221259
 10
36.5404382923
 20
14.4872888317
 10
36.6004926442
 20
14.4551108088
 10
36.6578803903
 20
14.4227005004
 10
36.7125979742
 20
14.3900748512
 10
36.7647050605
 20
14.3572086513
 10
36.8142487335
 20
14.3240695652
 10
36.8611381154
 20
14.2907150737
 10
36.9052333125
 20
14.257255005
 10
36.9465818946
 20
14.2236709602
 10
36.9851491195
 20
14.1900105605
 10
37.0207434055
 20
14.1564880035
 10
37.0534158071
 20
14.1231304225
 10
37.0832388011
 20
14.0899449852
 10
37.1101408367
 20
14.0571208474
 10
37.1342287137
 20
14.0246704687
 10
37.1556021245
 20
13.9926151395
 10
37.174259662
 20
13.9611600046
 10
37.1903395954
 20
13.9303324188
 10
37.2039914311
 20
13.9001354632
 10
37.2153007008
 20
13.8707388476
 10
37.2244208797
 20
13.8422067398
 10
37.2315374259
 20
13.8144991751
  0
LWPOLYLINE
  5
692
100
AcDbEntity
  8
ASSI
100
AcDbPolyline
 62
7
  6
CONTINUOUS
 90
60
 70
0
 10
32.3141960037
 20
15.4069147691
 10
32.438756695
 20
15.3967390442
 10
32.5613613768
 20
15.3860872308
 10
32.6824081125
 20
15.3749403085
 10
32.801965402
 20
15.3633026407
 10
32.9199578357
 20
15.3511927749
 10
33.0365662981
 20
15.3386030066
 10
33.1518365043
 20
15.3255376091
 10
33.265716123
 20
15.3120085607
 10
33.3782388342
 20
15.2980162742
 10
33.4894022036
 20
15.2835659519
 10
33.5992018716
 20
15.2686638848
 10
33.7076686995
 20
15.2533114043
 10
33.8147973155
 20
15.2375120893
 10
33.9205842929
 20
15.2212693461
 10
34.0250624857
 20
15.2045816977
 10
34.1282155385
 20
15.1874559436
 10
34.2300515365
 20
15.1698929469
 10
34.3306395377
 20
15.151880389
 10
34.4299668963
 20
15.1334205505
 10
34.5280358872
 20
15.1145141713
 10
34.6249367719
 20
15.0951427534
 10
34.7206623006
 20
15.0753026366
 10
34.8152048244
 20
15.0549912258
 10
34.908651768
 20
15.0341857955
 10
35.000995823
 20
15.0128813334
 10
35.0922232857
 20
14.9910702937
 10
35.1824114363
 20
14.9687233193
 10
35.2715634996
 20
14.9458286038
 10
35.3596493652
 20
14.9223773004
 10
35.4466940138
 20
14.8983396375
 10
35.5326793763
 20
14.8736984187
 10
35.6175869747
 20
14.8484368806
 10
35.7014345625
 20
14.8225181465
 10
35.7841957285
 20
14.7959164271
 10
35.8658443296
 20
14.7686081408
 10
35.9463877226
 20
14.7405495951
 10
36.0257877934
 20
14.7117035493
 10
36.1040018398
 20
14.6820373129
 10
36.1810124707
 20
14.6515005328
 10
36.2567615362
 20
14.6200434695
 10
36.3311833021
 20
14.587622254
 10
36.4042195784
 20
14.5541785075
 10
36.4757834558
 20
14.5196461849
 10
36.5457707443
 20
14.4839703362
 10
36.6140452805
 20
14.4470925979
 10
36.6804263116
 20
14.4089634798
 10
36.7447889437
 20
14.3694998718
 10
36.8069809889
 20
14.3285757221
 10
36.8667662442
 20
14.2860994477
 10
36.9238084718
 20
14.2420152648
 10
36.9777469124
 20
14.1962481036
 10
37.0281612187
 20
14.1487650452
 10
37.0745352136
 20
14.0995859931
 10
37.1163495525
 20
14.0487539318
 10
37.1531325744
 20
13.9962466595
 10
37.1841629006
 20
13.9424640807
 10
37.2087248573
 20
13.8882931266
 10
37.2266076526
 20
13.8342932462
 10
37.2379189566
 20
13.7806261918
  0
LWPOLYLINE
  5
693
100
AcDbEntity
  8
ASSI
100
AcDbPolyline
 62
7
  6
CONTINUOUS
 90
53
 70
0
 10
32.3023646513
 20
15.4084604464
 10
32.525561683
 20
15.3898756687
 10
32.7407417322
 20
15.3699501936
 10
32.9474146435
 20
15.3488941638
 10
33.1467478617
 20
15.3267391366
 10
33.3388220194
 20
15.3035991722
 10
33.5235574697
 20
15.2796063001
 10
33.701825191
 20
15.254760687
 10
33.8737524241
 20
15.2291437834
 10
34.0392652843
 20
15.2028660791
 10
34.1988955941
 20
15.1759385188
 10
34.3527083882
 20
15.1484379787
 10
34.5007359996
 20
15.1204469387
 10
34.643431457
 20
15.0919633503
 10
34.7808626434
 20
15.0630513175
 10
34.9130796101
 20
15.0337785333
 10
35.0404775141
 20
15.004131363
 10
35.1631189168
 20
14.9741640594
 10
35.2810636044
 20
14.9439310143
 10
35.394660568
 20
14.9134020977
 10
35.5039550789
 20
14.8826174502
 10
35.6089911594
 20
14.8516184408
 10
35.710078012
 20
14.8203640962
 10
35.8072568905
 20
14.7888871985
 10
35.9005659557
 20
14.7572221499
 10
35.9902745379
 20
14.7253207348
 10
36.0764151339
 20
14.693210022
 10
36.159018358
 20
14.6609184647
 10
36.2383148352
 20
14.6283918149
 10
36.3143377248
 20
14.5956475219
 10
36.3870954022
 20
14.5627142426
 10
36.4567489401
 20
14.5295483389
 10
36.5233243972
 20
14.4961628071
 10
36.586821171
 20
14.4625845769
 10
36.6473366297
 20
14.4287869196
 10
36.7048853168
 20
14.394784271
 10
36.7594686073
 20
14.3605983859
 10
36.8111382318
 20
14.3262101195
 10
36.8598986763
 20
14.2916245967
 10
36.9057268398
 20
14.256867585
 10
36.9486236569
 20
14.2219495536
 10
36.9886123064
 20
14.1868609336
 10
37.0256594422
 20
14.1516416132
 10
37.0597002499
 20
14.1163772573
 10
37.0907923232
 20
14.0810384505
 10
37.1189116983
 20
14.0456863227
 10
37.1439415806
 20
14.0105459056
 10
37.1659613208
 20
13.9756282932
 10
37.1850431205
 20
13.9409568785
 10
37.2011654575
 20
13.9067788409
 10
37.2144159238
 20
13.8732352015
 10
37.224988671
 20
13.840217935
 10
37.2330438903
 20
13.807600069
  0
LWPOLYLINE
  5
694
100
AcDbEntity
  8
0
100
AcDbPolyline
 62
7
  6
CONTINUOUS
 90
57
 70
0
 10
32.3768481952
 20
15.4018773055
 10
32.5042966591
 20
15.3911241137
 10
32.629758992
 20
15.3798664752
 10
32.7536248377
 20
15.3680840745
 10
32.8759709142
 20
15.3557806
 10
32.9967131941
 20
15.3429761078
 10
33.1159996022
 20
15.3296664801
 10
33.2338630459
 20
15.3158560079
 10
33.3502624988
 20
15.3015541088
 10
33.4652349491
 20
15.2867614031
 10
33.5787772167
 20
15.2714840415
 10
33.6908854165
 20
15.2557287681
 10
33.801594409
 20
15.2394941325
 10
33.9108966118
 20
15.2227838694
 10
34.018790281
 20
15.2056019989
 10
34.1253187159
 20
15.1879458873
 10
34.2304611356
 20
15.1698209558
 10
34.3342266676
 20
15.1512255155
 10
34.4367029546
 20
15.1321438312
 10
34.5378800155
 20
15.1125780442
 10
34.6377556799
 20
15.0925271278
 10
34.7364278573
 20
15.0719658649
 10
34.8338890269
 20
15.0508902509
 10
34.9301311512
 20
15.0292977595
 10
35.0252475084
 20
15.0071588362
 10
35.1192292694
 20
14.9844622431
 10
35.212058041
 20
14.96120061
 10
35.3038080503
 20
14.9373426251
 10
35.3944786415
 20
14.9128651222
 10
35.4840300014
 20
14.8877526624
 10
35.5724731145
 20
14.8619778636
 10
35.6597794832
 20
14.8355197442
 10
35.7459240439
 20
14.8083484312
 10
35.8309227288
 20
14.7804223408
 10
35.9147469586
 20
14.7517110176
 10
35.9973493978
 20
14.7221768714
 10
36.0787199899
 20
14.691768817
 10
36.1588152111
 20
14.6604453376
 10
36.2375643539
 20
14.6281568825
 10
36.3149204778
 20
14.5948430581
 10
36.3908162918
 20
14.5604457028
 10
36.4651389323
 20
14.5249015082
 10
36.5377787128
 20
14.4881473767
 10
36.6085596769
 20
14.4501386556
 10
36.6773640395
 20
14.410776705
 10
36.7441428159
 20
14.3699097304
 10
36.8085958169
 20
14.3274715965
 10
36.8704714235
 20
14.2833504749
 10
36.929616497
 20
14.2372962247
 10
36.9855378807
 20
14.1892421531
 10
37.0377346994
 20
14.1391060859
 10
37.0857999455
 20
14.0866042426
 10
37.1290877888
 20
14.0315871186
 10
37.1665433761
 20
13.9743948863
 10
37.197177791
 20
13.9156045391
 10
37.2202952347
 20
13.8557171916
 10
37.2355050583
 20
13.7950687131
  0
LINE
  5
695
100
AcDbEntity
  8
SUPERFICI
100
AcDbLine
 62
7
  6
CONTINUOUS
 10
33.4478036521
 20
23.1050910865
 11
33.5144364497
 21
23.0050910865
  0
LINE
  5
696
100
AcDbEntity
  8
RACCORDO
100
AcDbLine
 62
7
  6
CONTINUOUS
 10
41.2807941194
 20
17.2374871685
 11
41.2644364497
 21
17.2943080227
  0
LINE
  5
697
100
AcDbEntity
  8
RACCORDO
100
AcDbLine
 62
7
  6
CONTINUOUS
 10
41.2644364497
 20
17.3429250455
 11
41.3136711004
 21
17.170548902
  0
LINE
  5
698
100
AcDbEntity
  8
ASSI
100
AcDbLine
 62
253
  6
CONTINUOUS
 10
41.1581248418
 20
-20.8065829222
 11
41.2644364497
 21
-20.434633966
  0
LINE
  5
699
100
AcDbEntity
  8
RACCORDO
100
AcDbLine
 62
253
  6
CONTINUOUS
 10
41.1581248418
 20
-20.8065829222
 11
41.2644364497
 21
-20.434633966
  0
LINE
  5
69A
100
AcDbEntity
  8
RACCORDO
100
AcDbLine
 62
7
  6
CONTINUOUS
 10
41.1389491458
 20
-20.943231316
 11
41.2453164937
 21
-20.571087344
  0
LINE
  5
69B
100
AcDbEntity
  8
ASSI
100
AcDbLine
 62
7
  6
CONTINUOUS
 10
41.2453164936
 20
-20.5710873445
 11
41.1388588056
 21
-20.9435469923
  0
LINE
  5
69C
100
AcDbEntity
  8
RACCORDO
100
AcDbLine
 62
7
  6
CONTINUOUS
 10
41.1349963555
 20
-20.9563654933
 11
41.1392337745
 21
-20.9422134584
  0
LINE
  5
69D
100
AcDbEntity
  8
ASSI
100
AcDbLine
 62
7
  6
CONTINUOUS
 10
41.1357476934
 20
-20.9538561922
 11
41.1388540082
 21
-20.9435456134
  0
LWPOLYLINE
  5
69E
100
AcDbEntity
  8
RACCORDO
100
AcDbPolyline
 62
253
  6
CONTINUOUS
 90
6
 70
0
 10
19.1644364497
 20
16.7778200465
 10
19.1500901902
 20
16.7760714111
 10
19.1249976208
 20
16.7717480639
 10
19.1062962022
 20
16.7669764451
 10
19.0945417345
 20
16.7618983658
 10
19.0900835565
 20
16.7566647448
  0
LWPOLYLINE
  5
69F
100
AcDbEntity
  8
RACCORDO
100
AcDbPolyline
 62
253
  6
CONTINUOUS
 90
6
 70
0
 10
41.2644364497
 20
16.7778200406
 10
41.2787654336
 20
16.7760738892
 10
41.3038636697
 20
16.7717504616
 10
41.3225705691
 20
16.7669784216
 10
41.3343293352
 20
16.7618995342
 10
41.3387893429
 20
16.7566647619
  0
LWPOLYLINE
  5
6A0
100
AcDbEntity
  8
ASSI
100
AcDbPolyline
 62
253
  6
CONTINUOUS
 90
25
 70
0
 10
41.1496333116
 20
-20.3717589576
 10
41.1480221484
 20
-20.375912203
 10
41.1443242426
 20
-20.3800448706
 10
41.1385550748
 20
-20.3841396543
 10
41.1307387965
 20
-20.3881794081
 10
41.1209081363
 20
-20.3921472134
 10
41.1091042698
 20
-20.3960264503
 10
41.0953766297
 20
-20.399800874
 10
41.079782703
 20
-20.4034546788
 10
41.0623878079
 20
-20.4069725611
 10
41.0432647934
 20
-20.4103397899
 10
41.0224937447
 20
-20.4135422649
 10
41.0001616678
 20
-20.4165665737
 10
40.9763620928
 20
-20.4194000521
 10
40.951194687
 20
-20.4220308365
 10
40.924764858
 20
-20.4244479106
 10
40.8971832992
 20
-20.4266411536
 10
40.8685655079
 20
-20.4286013838
 10
40.8390313099
 20
-20.4303203951
 10
40.8087043864
 20
-20.4317909906
 10
40.7777117312
 20
-20.4330070135
 10
40.7461830992
 20
-20.4339633734
 10
40.7142505064
 20
-20.4346560661
 10
40.6820476788
 20
-20.4350821915
 10
40.6497094641
 20
-20.4352399658
  0
LWPOLYLINE
  5
6A1
100
AcDbEntity
  8
RACCORDO
100
AcDbPolyline
 62
253
  6
CONTINUOUS
 90
16
 70
0
 10
41.1496333116
 20
-20.3717589576
 10
41.1460530629
 20
-20.3783953362
 10
41.1371548422
 20
-20.384952452
 10
41.1230339874
 20
-20.3913600502
 10
41.1038417938
 20
-20.3975494779
 10
41.0797838922
 20
-20.4034544198
 10
41.0511180462
 20
-20.4090116085
 10
41.0181513901
 20
-20.4141615027
 10
40.9812371387
 20
-20.4188489249
 10
40.9407708021
 20
-20.4230236525
 10
40.897185949
 20
-20.4266409563
 10
40.8509495602
 20
-20.4296620794
 10
40.8025570265
 20
-20.4320546522
 10
40.7525268398
 20
-20.4337930398
 10
40.7013950385
 20
-20.4348586167
 10
40.6497094641
 20
-20.4352399658
  0
LINE
  5
6A2
100
AcDbEntity
  8
RACCORDO
100
AcDbLine
 62
253
  6
CONTINUOUS
 10
35.800421433
 20
-21.4846624944
 11
36.0269617715
 21
-21.3067549843
  0
LINE
  5
6A3
100
AcDbEntity
  8
RACCORDO
100
AcDbLine
 62
253
  6
CONTINUOUS
 10
35.9476609965
 20
22.8622877148
 11
35.9520967598
 21
22.8631093601
  0
LINE
  5
6A4
100
AcDbEntity
  8
RACCORDO
100
AcDbLine
 62
253
  6
CONTINUOUS
 10
19.7791634353
 20
20.971203049
 11
40.6497094641
 21
20.971203049
  0
LWPOLYLINE
  5
6A5
100
AcDbEntity
  8
ASSI
100
AcDbPolyline
 62
253
  6
CONTINUOUS
 90
25
 70
0
 10
40.6820486362
 20
20.9712274293
 10
19.7468241842
 20
20.9712274287
 10
19.7146203656
 20
20.9713473401
 10
19.6826868393
 20
20.9715622816
 10
19.6511573358
 20
20.9718713528
 10
19.6201638877
 20
20.9722732595
 10
19.5898362765
 20
20.9727663188
 10
19.5603015038
 20
20.9733484658
 10
19.5316832538
 20
20.9740172629
 10
19.5041013674
 20
20.9747699094
 10
19.4776713404
 20
20.9756032538
 10
19.4525038652
 20
20.9765138062
 10
19.4287043591
 20
20.9774977525
 10
19.4063724818
 20
20.9785509722
 10
19.3856017518
 20
20.9796690545
 10
19.3664791707
 20
20.9808473156
 10
19.3490848096
 20
20.9820808206
 10
19.3334914966
 20
20.9833644041
 10
19.3197645319
 20
20.9846926892
 10
19.3079613818
 20
20.9860601133
 10
19.2981314557
 20
20.9874609497
 10
19.2903159052
 20
20.988889331
 10
19.2845474361
 20
20.9903392749
 10
19.2808501776
 20
20.9918047101
 10
19.2792395877
 20
20.9932795
  0
LWPOLYLINE
  5
6A6
100
AcDbEntity
  8
RACCORDO
100
AcDbPolyline
 62
253
  6
CONTINUOUS
 90
16
 70
0
 10
19.7791634353
 20
20.9712030494
 10
19.7274773422
 20
20.9712879334
 10
19.6763450406
 20
20.9716165952
 10
19.6263143882
 20
20.9721855132
 10
19.5779214391
 20
20.9729885918
 10
19.5316847004
 20
20.9740172263
 10
19.4880995762
 20
20.9752603956
 10
19.44763306
 20
20.9767047796
 10
19.4107187309
 20
20.9783349026
 10
19.377752108
 20
20.9801332985
 10
19.3490864127
 20
20.9820806983
 10
19.3250287838
 20
20.9841562367
 10
19.3058369874
 20
20.9863376753
 10
19.2917166541
 20
20.9886016409
 10
19.2828190765
 20
20.9909238764
 10
19.2792395877
 20
20.9932795
  0
LINE
  5
6A7
100
AcDbEntity
  8
RACCORDO
100
AcDbLine
 62
253
  6
CONTINUOUS
 10
24.4812152885
 20
22.862283197
 11
24.4767796781
 21
22.8631047238
  0
LINE
  5
6A8
100
AcDbEntity
  8
RACCORDO
100
AcDbLine
 62
7
  6
CONTINUOUS
 10
35.90026369
 20
-21.6923920829
 11
35.8546044715
 21
-21.7232316429
  0
LWPOLYLINE
  5
6A9
100
AcDbEntity
  8
ASSI
100
AcDbPolyline
 62
7
  6
CONTINUOUS
 90
10
 70
0
 10
34.4419791195
 20
-22.728268571
 10
34.3862073869
 20
-22.7626344852
 10
34.3288294363
 20
-22.7930971519
 10
34.2698452678
 20
-22.819656571
 10
34.2089925017
 20
-22.8423918529
 10
34.1465335176
 20
-22.8612238872
 10
34.0832554543
 20
-22.8759153435
 10
34.0194206913
 20
-22.8863871115
 10
33.9547668492
 20
-22.8927183016
 10
33.8892939278
 20
-22.8949089135
  0
LWPOLYLINE
  5
6AA
100
AcDbEntity
  8
SUPERFICI
100
AcDbPolyline
 62
7
  6
CONTINUOUS
 90
10
 70
0
 10
34.4419791195
 20
-22.728268571
 10
34.3862073869
 20
-22.7626344852
 10
34.3288294363
 20
-22.7930971519
 10
34.2698452678
 20
-22.819656571
 10
34.2089925017
 20
-22.8423918529
 10
34.1465335176
 20
-22.8612238872
 10
34.0832554543
 20
-22.8759153435
 10
34.0194206913
 20
-22.8863871115
 10
33.9547668492
 20
-22.8927183016
 10
33.8892939278
 20
-22.8949089135
  0
LWPOLYLINE
  5
6AB
100
AcDbEntity
  8
RACCORDO
100
AcDbPolyline
 62
7
  6
CONTINUOUS
 90
4
 70
0
 10
35.8728164752
 20
-21.7024994665
 10
35.899448396
 20
-21.6880966213
 10
35.9259405623
 20
-21.6715992535
 10
35.9521000489
 20
-21.6529251198
  0
LWPOLYLINE
  5
6AC
100
AcDbEntity
  8
RACCORDO
100
AcDbPolyline
 62
7
  6
CONTINUOUS
 90
3
 70
0
 10
35.8546044715
 20
-21.7232316429
 10
35.8072487522
 20
-21.7483987648
 10
35.757592983
 20
-21.7682142039
  0
LINE
  5
6AD
100
AcDbEntity
  8
RACCORDO
100
AcDbLine
 62
7
  6
CONTINUOUS
 10
24.776888055
 20
23.0016514511
 11
24.8328404246
 21
23.0050910865
  0
LWPOLYLINE
  5
6AE
100
AcDbEntity
  8
RACCORDO
100
AcDbPolyline
 62
253
  6
CONTINUOUS
 90
16
 70
0
 10
19.7706719052
 20
22.0104488841
 10
19.7184297789
 20
22.0076257241
 10
19.6667598256
 20
21.9993935664
 10
19.6162278368
 20
21.9858425887
 10
19.5673871236
 20
21.9671212036
 10
19.5207725004
 20
21.9434344478
 10
19.4768944221
 20
21.9150417502
 10
19.4362333315
 20
21.8822540552
 10
19.3992344306
 20
21.8454304214
 10
19.3663028361
 20
21.8049741217
 10
19.3377991007
 20
21.7613281862
 10
19.3140352795
 20
21.7149705528
 10
19.2952715301
 20
21.6664088586
 10
19.2817132505
 20
21.6161748588
 10
19.2735088355
 20
21.5648186019
 10
19.2707480576
 20
21.5129024175
  0
LWPOLYLINE
  5
6AF
100
AcDbEntity
  8
ASSI
100
AcDbPolyline
 62
253
  6
CONTINUOUS
 90
25
 70
0
 10
19.7706719052
 20
22.0104488841
 10
19.7379846021
 20
22.0093212655
 10
19.7054371954
 20
22.006072369
 10
19.6731689788
 20
22.0007160996
 10
19.641318053
 20
21.9932753821
 10
19.6100207288
 20
21.983782061
 10
19.5794109434
 20
21.9722767632
 10
19.5496196979
 20
21.9588087277
 10
19.520774491
 20
21.9434355933
 10
19.4929987673
 20
21.9262231492
 10
19.4664113905
 20
21.9072450511
 10
19.4411261587
 20
21.8865825247
 10
19.4172513079
 20
21.86432402
 10
19.3948890106
 20
21.8405647976
 10
19.3741349707
 20
21.8154065454
 10
19.3550780287
 20
21.7889569699
 10
19.3377997341
 20
21.761329277
 10
19.3223740201
 20
21.7326417082
 10
19.3088669048
 20
21.7030170711
 10
19.2973361774
 20
21.6725821579
 10
19.2878311669
 20
21.6414672228
 10
19.2803925382
 20
21.6098054549
 10
19.2750521034
 20
21.5777323663
 10
19.2718326919
 20
21.54538521
 10
19.2707480576
 20
21.5129024175
  0
LWPOLYLINE
  5
6B0
100
AcDbEntity
  8
RACCORDO
100
AcDbPolyline
 62
7
  6
CONTINUOUS
 90
10
 70
0
 10
24.781463493
 20
22.9659797525
 10
24.7586230896
 20
22.9654976673
 10
24.7350719237
 20
22.9639005703
 10
24.7108697564
 20
22.961085612
 10
24.6861133157
 20
22.9569554808
 10
24.6608565785
 20
22.951405963
 10
24.6351142586
 20
22.9443135713
 10
24.6089970219
 20
22.9355706296
 10
24.5826250752
 20
22.9250726001
 10
24.5560564241
 20
22.9126816395
  0
LWPOLYLINE
  5
6B1
100
AcDbEntity
  8
RACCORDO
100
AcDbPolyline
 62
253
  6
CONTINUOUS
 90
13
 70
0
 10
24.781463493
 20
22.7467897047
 10
24.7699437305
 20
22.7466111445
 10
24.7581357067
 20
22.7457690388
 10
24.7460394216
 20
22.7442633878
 10
24.733621272
 20
22.7421493633
 10
24.7209148612
 20
22.7393717934
 10
24.7080209989
 20
22.7357651625
 10
24.6949166773
 20
22.7313313132
 10
24.6816249043
 20
22.7260684028
 10
24.6683155134
 20
22.7198053874
 10
24.6550451156
 20
22.7124852524
 10
24.6417571
 20
22.7041650124
 10
24.6284514663
 20
22.6948446673
  0
LINE
  5
6B2
100
AcDbEntity
  8
ASSI
100
AcDbLine
 62
253
  6
CONTINUOUS
 10
19.7706719052
 20
22.0104488841
 11
40.6582009942
 21
22.0104488841
  0
LINE
  5
6B3
100
AcDbEntity
  8
RACCORDO
100
AcDbLine
 62
253
  6
CONTINUOUS
 10
19.7706719052
 20
22.0104488841
 11
40.6582009942
 21
22.0104488841
  0
LINE
  5
6B4
100
AcDbEntity
  8
ASSI
100
AcDbLine
 62
7
  6
CONTINUOUS
 10
40.7645887458
 20
22.7006533515
 11
19.6642841535
 21
22.7006533515
  0
LINE
  5
6B5
100
AcDbEntity
  8
RACCORDO
100
AcDbLine
 62
7
  6
CONTINUOUS
 10
40.7645887458
 20
22.7006533515
 11
19.6642841535
 21
22.7006533515
  0
LINE
  5
6B6
100
AcDbEntity
  8
RACCORDO
100
AcDbLine
 62
253
  6
CONTINUOUS
 10
35.6474094063
 20
22.7467897047
 11
24.781463493
 21
22.7467897047
  0
LINE
  5
6B7
100
AcDbEntity
  8
RACCORDO
100
AcDbLine
 62
253
  6
CONTINUOUS
 10
35.6474094063
 20
22.9659797525
 11
24.781463493
 21
22.9659797525
  0
LINE
  5
6B8
100
AcDbEntity
  8
RACCORDO
100
AcDbLine
 62
7
  6
CONTINUOUS
 10
24.8328404246
 20
23.0050910865
 11
26.9144364497
 21
23.0050910865
  0
LINE
  5
6B9
100
AcDbEntity
  8
ASSI
100
AcDbLine
 62
7
  6
CONTINUOUS
 10
27.6144364497
 20
23.0050910865
 11
28.2144364497
 21
23.0050910865
  0
LINE
  5
6BA
100
AcDbEntity
  8
ASSI
100
AcDbLine
 62
7
  6
CONTINUOUS
 10
32.2144364497
 20
23.0050910865
 11
32.8144364497
 21
23.0050910865
  0
LINE
  5
6BB
100
AcDbEntity
  8
RACCORDO
100
AcDbLine
 62
7
  6
CONTINUOUS
 10
33.5144364497
 20
23.0050910865
 11
35.5960324748
 21
23.0050910865
  0
LINE
  5
6BC
100
AcDbEntity
  8
ASSI
100
AcDbLine
 62
7
  6
CONTINUOUS
 10
33.6842567094
 20
23.1050910865
 11
26.74461619
 21
23.1050910865
  0
LINE
  5
6BD
100
AcDbEntity
  8
SUPERFICI
100
AcDbLine
 62
7
  6
CONTINUOUS
 10
33.6842567094
 20
23.1050910865
 11
26.74461619
 21
23.1050910865
  0
LWPOLYLINE
  5
6BE
100
AcDbEntity
  8
RACCORDO
100
AcDbPolyline
 62
7
  6
CONTINUOUS
 90
6
 70
0
 10
35.5960324748
 20
23.0050910865
 10
35.6519848443
 20
23.0016514511
 10
35.7058383471
 20
22.9927532146
 10
35.757592983
 20
22.9783963768
 10
35.8072487522
 20
22.9585809377
 10
35.8548056545
 20
22.9333068974
  0
LWPOLYLINE
  5
6BF
100
AcDbEntity
  8
ASSI
100
AcDbPolyline
 62
7
  6
CONTINUOUS
 90
10
 70
0
 10
34.4419791195
 20
23.9384507439
 10
34.3862073869
 20
23.9728166581
 10
34.3288294363
 20
24.0032793248
 10
34.2698452678
 20
24.0298387439
 10
34.2089925017
 20
24.0525740258
 10
34.1465335176
 20
24.0714060601
 10
34.0832554543
 20
24.0860975164
 10
34.0194206913
 20
24.0965692845
 10
33.9547668492
 20
24.1029004745
 10
33.8892939278
 20
24.1050910865
  0
LWPOLYLINE
  5
6C0
100
AcDbEntity
  8
SUPERFICI
100
AcDbPolyline
 62
7
  6
CONTINUOUS
 90
10
 70
0
 10
34.4419791195
 20
23.9384507439
 10
34.3862073869
 20
23.9728166581
 10
34.3288294363
 20
24.0032793248
 10
34.2698452678
 20
24.0298387439
 10
34.2089925017
 20
24.0525740258
 10
34.1465335176
 20
24.0714060601
 10
34.0832554543
 20
24.0860975164
 10
34.0194206913
 20
24.0965692845
 10
33.9547668492
 20
24.1029004745
 10
33.8892939278
 20
24.1050910865
  0
LINE
  5
6C1
100
AcDbEntity
  8
RACCORDO
100
AcDbLine
 62
7
  6
CONTINUOUS
 10
35.8548056545
 20
22.9333068974
 11
35.90026369
 21
22.9025742558
  0
LWPOLYLINE
  5
6C2
100
AcDbEntity
  8
RACCORDO
100
AcDbPolyline
 62
7
  6
CONTINUOUS
 90
6
 70
0
 10
35.952099872
 20
22.8631074278
 10
35.9333436311
 20
22.8767503347
 10
35.9133845358
 20
22.88988548
 10
35.8922123067
 20
22.9023991043
 10
35.8698463432
 20
22.9141616723
 10
35.8462733985
 20
22.9250617272
  0
LWPOLYLINE
  5
6C3
100
AcDbEntity
  8
RACCORDO
100
AcDbPolyline
 62
253
  6
CONTINUOUS
 90
8
 70
0
 10
35.800421433
 20
22.6948446673
 10
35.7909758996
 20
22.7018177391
 10
35.7809251973
 20
22.7084178771
 10
35.7702693261
 20
22.7146450813
 10
35.7590082953
 20
22.7205624121
 10
35.7471420956
 20
22.7261068091
 10
35.734670699
 20
22.7310890911
 10
35.7215838636
 20
22.7355206536
  0
LINE
  5
6C4
100
AcDbEntity
  8
RACCORDO
100
AcDbLine
 62
253
  6
CONTINUOUS
 10
35.6474094063
 20
22.9659797525
 11
35.5960324748
 21
23.0050910865
  0
LWPOLYLINE
  5
6C5
100
AcDbEntity
  8
RACCORDO
100
AcDbPolyline
 62
7
  6
CONTINUOUS
 90
3
 70
0
 10
24.6712799163
 20
22.9783963768
 10
24.7230345523
 20
22.9927532146
 10
24.776888055
 20
23.0016514511
  0
LWPOLYLINE
  5
6C6
100
AcDbEntity
  8
ASSI
100
AcDbPolyline
 62
7
  6
CONTINUOUS
 90
10
 70
0
 10
26.5395789715
 20
24.1050910865
 10
26.4741060502
 20
24.1029004745
 10
26.409452208
 20
24.0965692845
 10
26.3456174451
 20
24.0860975164
 10
26.2823393818
 20
24.0714060601
 10
26.2198803977
 20
24.0525740258
 10
26.1590276316
 20
24.0298387439
 10
26.100043463
 20
24.0032793248
 10
26.0426655125
 20
23.9728166581
 10
25.9868937799
 20
23.9384507439
  0
LWPOLYLINE
  5
6C7
100
AcDbEntity
  8
SUPERFICI
100
AcDbPolyline
 62
7
  6
CONTINUOUS
 90
10
 70
0
 10
26.5395789715
 20
24.1050910865
 10
26.4741060502
 20
24.1029004745
 10
26.409452208
 20
24.0965692845
 10
26.3456174451
 20
24.0860975164
 10
26.2823393818
 20
24.0714060601
 10
26.2198803977
 20
24.0525740258
 10
26.1590276316
 20
24.0298387439
 10
26.100043463
 20
24.0032793248
 10
26.0426655125
 20
23.9728166581
 10
25.9868937799
 20
23.9384507439
  0
LINE
  5
6C8
100
AcDbEntity
  8
ASSI
100
AcDbLine
 62
7
  6
CONTINUOUS
 10
26.5395789715
 20
24.1050910865
 11
33.8892939278
 21
24.1050910865
  0
LINE
  5
6C9
100
AcDbEntity
  8
SUPERFICI
100
AcDbLine
 62
7
  6
CONTINUOUS
 10
26.5395789715
 20
24.1050910865
 11
33.8892939278
 21
24.1050910865
  0
LWPOLYLINE
  5
6CA
100
AcDbEntity
  8
RACCORDO
100
AcDbPolyline
 62
253
  6
CONTINUOUS
 90
6
 70
0
 10
35.7215838636
 20
22.7355206536
 10
35.7078918313
 20
22.7393901012
 10
35.6936252996
 20
22.7424740668
 10
35.6787945012
 20
22.7446980948
 10
35.6633892034
 20
22.7461366407
 10
35.6474094063
 20
22.7467897047
  0
LWPOLYLINE
  5
6CB
100
AcDbEntity
  8
RACCORDO
100
AcDbPolyline
 62
7
  6
CONTINUOUS
 90
8
 70
0
 10
35.8462733985
 20
22.9250617272
 10
35.8214431165
 20
22.9349947446
 10
35.7953861618
 20
22.9438149842
 10
35.7681334619
 20
22.9513772
 10
35.7396454731
 20
22.9575455596
 10
35.7099555621
 20
22.9621534078
 10
35.6791761718
 20
22.9650220894
 10
35.6474094063
 20
22.9659797525
  0
ARC
  5
6CC
100
AcDbEntity
  8
ASSI
100
AcDbCircle
 62
7
  6
CONTINUOUS
 10
-45.132790392
 20
-20.3067549843
 40
1.0
100
AcDbArc
 50
187.3821630226
 51
273.5
  0
ARC
  5
6CD
100
AcDbEntity
  8
RACCORDO
100
AcDbCircle
 62
7
  6
CONTINUOUS
 10
-45.132790392
 20
-20.3067549843
 40
1.0
100
AcDbArc
 50
187.3821630226
 51
273.5
  0
ARC
  5
6CE
100
AcDbEntity
  8
RACCORDO
100
AcDbCircle
 62
7
  6
CONTINUOUS
 10
-29.0204797524
 20
-20.0256735376
 40
0.5
100
AcDbArc
 50
271.0
 51
315.0
  0
ARC
  5
6CF
100
AcDbEntity
  8
ASSI
100
AcDbCircle
 62
7
  6
CONTINUOUS
 10
-29.0204797524
 20
-20.0256735376
 40
0.5
100
AcDbArc
 50
271.0
 51
315.0
  0
ARC
  5
6D0
100
AcDbEntity
  8
RACCORDO
100
AcDbCircle
 62
7
  6
CONTINUOUS
 10
-38.5826083471
 20
-20.7018300083
 40
0.4
100
AcDbArc
 50
179.9998399994
 51
268.9999751098
  0
ARC
  5
6D1
100
AcDbEntity
  8
RACCORDO
100
AcDbCircle
 62
7
  6
CONTINUOUS
 10
-38.5826083471
 20
-20.4879878188
 40
0.4
100
AcDbArc
 50
91.0000248176
 51
180.0001595257
  0
ARC
  5
6D2
100
AcDbEntity
  8
RACCORDO
100
AcDbCircle
 62
7
  6
CONTINUOUS
 10
-37.7158130667
 20
-21.5061401959
 40
0.25
100
AcDbArc
 50
187.0
 51
267.0
  0
ARC
  5
6D3
100
AcDbEntity
  8
RACCORDO
100
AcDbCircle
 62
7
  6
CONTINUOUS
 10
-39.1713436089
 20
0.6050910865
 40
1.5
100
AcDbArc
 50
173.0
 51
187.0
  0
ARC
  5
6D4
100
AcDbEntity
  8
RACCORDO
100
AcDbCircle
 62
7
  6
CONTINUOUS
 10
-16.2826083471
 20
-17.762427321
 40
0.5
100
AcDbArc
 50
271.0
 51
360.0
  0
ARC
  5
6D5
100
AcDbEntity
  8
ASSI
100
AcDbCircle
 62
7
  6
CONTINUOUS
 10
-16.2826083471
 20
-17.762427321
 40
0.5
100
AcDbArc
 50
271.0
 51
360.0
  0
ARC
  5
6D6
100
AcDbEntity
  8
RACCORDO
100
AcDbCircle
 62
7
  6
CONTINUOUS
 10
-14.0826083471
 20
-15.155403985
 40
0.3
100
AcDbArc
 50
273.0
 51
360.0
  0
ARC
  5
6D7
100
AcDbEntity
  8
RACCORDO
100
AcDbCircle
 62
7
  6
CONTINUOUS
 10
-14.0826083471
 20
-8.3344138421
 40
0.3
100
AcDbArc
 50
0.0
 51
87.0
  0
ARC
  5
6D8
100
AcDbEntity
  8
ASSI
100
AcDbCircle
 62
7
  6
CONTINUOUS
 10
-14.0826083471
 20
-15.155403985
 40
0.3
100
AcDbArc
 50
273.0
 51
360.0
  0
ARC
  5
6D9
100
AcDbEntity
  8
ASSI
100
AcDbCircle
 62
7
  6
CONTINUOUS
 10
-14.0826083471
 20
-8.3344138421
 40
0.3
100
AcDbArc
 50
0.0
 51
87.0
  0
ARC
  5
6DA
100
AcDbEntity
  8
RACCORDO
100
AcDbCircle
 62
7
  6
CONTINUOUS
 10
-6.7326083471
 20
-4.2868720283
 40
0.45
100
AcDbArc
 50
271.0
 51
360.0
  0
ARC
  5
6DB
100
AcDbEntity
  8
RACCORDO
100
AcDbCircle
 62
7
  6
CONTINUOUS
 10
-6.7326083471
 20
6.9970542012
 40
0.45
100
AcDbArc
 50
0.0
 51
89.0
  0
ARC
  5
6DC
100
AcDbEntity
  8
ASSI
100
AcDbCircle
 62
7
  6
CONTINUOUS
 10
-6.7326083471
 20
-4.2868720283
 40
0.45
100
AcDbArc
 50
271.0
 51
360.0
  0
ARC
  5
6DD
100
AcDbEntity
  8
ASSI
100
AcDbCircle
 62
7
  6
CONTINUOUS
 10
-6.7326083471
 20
6.9970542012
 40
0.45
100
AcDbArc
 50
0.0
 51
89.0
  0
ARC
  5
6DE
100
AcDbEntity
  8
RACCORDO
100
AcDbCircle
 62
7
  6
CONTINUOUS
 10
-4.5826083471
 20
-1.755403985
 40
0.3
100
AcDbArc
 50
273.0
 51
360.0
  0
ARC
  5
6DF
100
AcDbEntity
  8
RACCORDO
100
AcDbCircle
 62
7
  6
CONTINUOUS
 10
-4.5826083471
 20
5.0655861579
 40
0.3
100
AcDbArc
 50
0.0
 51
87.0
  0
ARC
  5
6E0
100
AcDbEntity
  8
ASSI
100
AcDbCircle
 62
7
  6
CONTINUOUS
 10
-4.5826083471
 20
-1.755403985
 40
0.3
100
AcDbArc
 50
273.0
 51
360.0
  0
ARC
  5
6E1
100
AcDbEntity
  8
ASSI
100
AcDbCircle
 62
7
  6
CONTINUOUS
 10
-4.5826083471
 20
5.0655861579
 40
0.3
100
AcDbArc
 50
0.0
 51
87.0
  0
ARC
  5
6E2
100
AcDbEntity
  8
ASSI
100
AcDbCircle
 62
7
  6
CONTINUOUS
 10
-48.7481397288
 20
21.0168770284
 40
1.0
100
AcDbArc
 50
96.5
 51
182.6178369774
  0
ARC
  5
6E3
100
AcDbEntity
  8
RACCORDO
100
AcDbCircle
 62
7
  6
CONTINUOUS
 10
-48.7481397288
 20
21.0168770284
 40
1.0
100
AcDbArc
 50
96.5
 51
182.6178369774
  0
ARC
  5
6E4
100
AcDbEntity
  8
RACCORDO
100
AcDbCircle
 62
7
  6
CONTINUOUS
 10
-28.9994088976
 20
21.2854955338
 40
0.45
100
AcDbArc
 50
45.0
 51
89.0
  0
ARC
  5
6E5
100
AcDbEntity
  8
RACCORDO
100
AcDbCircle
 62
7
  6
CONTINUOUS
 10
-16.2326083471
 20
19.0217443571
 40
0.45
100
AcDbArc
 50
0.0
 51
89.0
  0
ARC
  5
6E6
100
AcDbEntity
  8
ASSI
100
AcDbCircle
 62
7
  6
CONTINUOUS
 10
-28.9994088976
 20
21.2854955338
 40
0.45
100
AcDbArc
 50
45.0
 51
89.0
  0
ARC
  5
6E7
100
AcDbEntity
  8
ASSI
100
AcDbCircle
 62
7
  6
CONTINUOUS
 10
-16.2326083471
 20
19.0217443571
 40
0.45
100
AcDbArc
 50
0.0
 51
89.0
  0
ARC
  5
6E8
100
AcDbEntity
  8
RACCORDO
100
AcDbCircle
 62
7
  6
CONTINUOUS
 10
-38.5826083471
 20
21.9120121812
 40
0.4
100
AcDbArc
 50
91.0000248902
 51
180.0001600006
  0
ARC
  5
6E9
100
AcDbEntity
  8
RACCORDO
100
AcDbCircle
 62
7
  6
CONTINUOUS
 10
-38.5826083471
 20
21.6981699917
 40
0.4
100
AcDbArc
 50
179.9998404743
 51
268.9999751824
  0
ARC
  5
6EA
100
AcDbEntity
  8
RACCORDO
100
AcDbCircle
 62
7
  6
CONTINUOUS
 10
-37.7158130667
 20
22.7163223688
 40
0.25
100
AcDbArc
 50
93.0
 51
173.0
  0
ARC
  5
6EB
100
AcDbEntity
  8
ASSI
100
AcDbCircle
 62
7
  6
CONTINUOUS
 10
449.7311034969
 20
43.8081927665
 40
500.0
100
AcDbArc
 50
182.6178369774
 51
187.3821630226
  0
ARC
  5
6EC
100
AcDbEntity
  8
0
100
AcDbCircle
 62
253
  6
CONTINUOUS
 10
449.7311034969
 20
43.8081927665
 40
500.0
100
AcDbArc
 50
186.1689149876
 51
186.7420600912
  0
ARC
  5
6ED
100
AcDbEntity
  8
0
100
AcDbCircle
 62
7
  6
CONTINUOUS
 10
449.7311034969
 20
43.8081927665
 40
500.0
100
AcDbArc
 50
183.2253560668
 51
183.6791416404
  0
ARC
  5
6EE
100
AcDbEntity
  8
RACCORDO
100
AcDbCircle
 62
7
  6
CONTINUOUS
 10
449.7311034969
 20
43.8081927665
 40
500.0
100
AcDbArc
 50
182.6178369774
 51
187.3821630226
  0
ARC
  5
6EF
100
AcDbEntity
  8
ASSI
100
AcDbCircle
 62
7
  6
CONTINUOUS
 10
25.2644364497
 20
-22.4949089135
 40
0.5
100
AcDbArc
 50
350.803718421
 51
119.112422776
  0
ARC
  5
6F0
100
AcDbEntity
  8
SUPERFICI
100
AcDbCircle
 62
7
  6
CONTINUOUS
 10
25.2644364497
 20
-22.4949089135
 40
0.5
100
AcDbArc
 50
350.803718421
 51
119.112422776
  0
ARC
  5
6F1
100
AcDbEntity
  8
ASSI
100
AcDbCircle
 62
7
  6
CONTINUOUS
 10
27.9144364497
 20
-21.3949089135
 40
0.5
100
AcDbArc
 50
233.1301023542
 51
306.8698976458
  0
ARC
  5
6F2
100
AcDbEntity
  8
ASSI
100
AcDbCircle
 62
7
  6
CONTINUOUS
 10
18.9644364497
 20
0.6050910865
 40
28.0
100
AcDbArc
 50
305.9627651514
 51
307.218538294
  0
ARC
  5
6F3
100
AcDbEntity
  8
ASSI
100
AcDbCircle
 62
7
  6
CONTINUOUS
 10
18.9644364497
 20
0.6050910865
 40
28.0
100
AcDbArc
 50
303.5572123136
 51
304.1210936517
  0
ARC
  5
6F4
100
AcDbEntity
  8
ASSI
100
AcDbCircle
 62
7
  6
CONTINUOUS
 10
18.9644364497
 20
0.6050910865
 40
28.0
100
AcDbArc
 50
55.8789063483
 51
56.4427876864
  0
ARC
  5
6F5
100
AcDbEntity
  8
ASSI
100
AcDbCircle
 62
7
  6
CONTINUOUS
 10
18.9644364497
 20
0.6050910865
 40
28.0
100
AcDbArc
 50
52.781461706
 51
54.0372348486
  0
ARC
  5
6F6
100
AcDbEntity
  8
SUPERFICI
100
AcDbCircle
 62
7
  6
CONTINUOUS
 10
18.9644364497
 20
0.6050910865
 40
28.0
100
AcDbArc
 50
305.9627651514
 51
307.218538294
  0
ARC
  5
6F7
100
AcDbEntity
  8
SUPERFICI
100
AcDbCircle
 62
7
  6
CONTINUOUS
 10
18.9644364497
 20
0.6050910865
 40
28.0
100
AcDbArc
 50
303.5572123136
 51
304.1210936517
  0
ARC
  5
6F8
100
AcDbEntity
  8
SUPERFICI
100
AcDbCircle
 62
7
  6
CONTINUOUS
 10
18.9644364497
 20
0.6050910865
 40
28.0
100
AcDbArc
 50
55.8789063483
 51
56.4427876864
  0
ARC
  5
6F9
100
AcDbEntity
  8
SUPERFICI
100
AcDbCircle
 62
7
  6
CONTINUOUS
 10
18.9644364497
 20
0.6050910865
 40
28.0
100
AcDbArc
 50
52.781461706
 51
54.0372348486
  0
ARC
  5
6FA
100
AcDbEntity
  8
RACCORDO
100
AcDbCircle
 62
7
  6
CONTINUOUS
 10
18.9644364497
 20
0.6050910865
 40
28.0
100
AcDbArc
 50
52.1103512741
 51
52.7818812416
  0
ARC
  5
6FB
100
AcDbEntity
  8
RACCORDO
100
AcDbCircle
 62
7
  6
CONTINUOUS
 10
18.9644364497
 20
0.6050910865
 40
28.0
100
AcDbArc
 50
307.2181187584
 51
308.4983583724
  0
ARC
  5
6FC
100
AcDbEntity
  8
ASSI
100
AcDbCircle
 62
7
  6
CONTINUOUS
 10
25.2644364497
 20
23.7050910865
 40
0.5
100
AcDbArc
 50
240.887577224
 51
9.196281579
  0
ARC
  5
6FD
100
AcDbEntity
  8
SUPERFICI
100
AcDbCircle
 62
7
  6
CONTINUOUS
 10
25.2644364497
 20
23.7050910865
 40
0.5
100
AcDbArc
 50
240.887577224
 51
9.196281579
  0
ARC
  5
6FE
100
AcDbEntity
  8
ASSI
100
AcDbCircle
 62
7
  6
CONTINUOUS
 10
27.9144364497
 20
22.6050910865
 40
0.5
100
AcDbArc
 50
53.1301023542
 51
126.8698976458
  0
ARC
  5
6FF
100
AcDbEntity
  8
ASSI
100
AcDbCircle
 62
7
  6
CONTINUOUS
 10
35.1644364497
 20
-22.4949089135
 40
0.5
100
AcDbArc
 50
60.887577224
 51
189.196281579
  0
ARC
  5
700
100
AcDbEntity
  8
SUPERFICI
100
AcDbCircle
 62
7
  6
CONTINUOUS
 10
35.1644364497
 20
-22.4949089135
 40
0.5
100
AcDbArc
 50
60.887577224
 51
189.196281579
  0
ARC
  5
701
100
AcDbEntity
  8
ASSI
100
AcDbCircle
 62
7
  6
CONTINUOUS
 10
32.5144364497
 20
-21.3949089135
 40
0.5
100
AcDbArc
 50
233.1301023542
 51
306.8698976458
  0
ARC
  5
702
100
AcDbEntity
  8
ASSI
100
AcDbCircle
 62
7
  6
CONTINUOUS
 10
41.4644364497
 20
0.6050910865
 40
28.0
100
AcDbArc
 50
235.8789063483
 51
236.4427876864
  0
ARC
  5
703
100
AcDbEntity
  8
ASSI
100
AcDbCircle
 62
7
  6
CONTINUOUS
 10
41.4644364497
 20
0.6050910865
 40
28.0
100
AcDbArc
 50
232.781461706
 51
234.0372348486
  0
ARC
  5
704
100
AcDbEntity
  8
ASSI
100
AcDbCircle
 62
7
  6
CONTINUOUS
 10
41.4644364497
 20
0.6050910865
 40
28.0
100
AcDbArc
 50
125.9627651514
 51
127.218538294
  0
ARC
  5
705
100
AcDbEntity
  8
ASSI
100
AcDbCircle
 62
7
  6
CONTINUOUS
 10
41.4644364497
 20
0.6050910865
 40
28.0
100
AcDbArc
 50
123.5572123136
 51
124.1210936517
  0
ARC
  5
706
100
AcDbEntity
  8
SUPERFICI
100
AcDbCircle
 62
7
  6
CONTINUOUS
 10
41.4644364497
 20
0.6050910865
 40
28.0
100
AcDbArc
 50
235.8789063483
 51
236.4427876864
  0
ARC
  5
707
100
AcDbEntity
  8
SUPERFICI
100
AcDbCircle
 62
7
  6
CONTINUOUS
 10
41.4644364497
 20
0.6050910865
 40
28.0
100
AcDbArc
 50
232.781461706
 51
234.0372348486
  0
ARC
  5
708
100
AcDbEntity
  8
SUPERFICI
100
AcDbCircle
 62
7
  6
CONTINUOUS
 10
41.4644364497
 20
0.6050910865
 40
28.0
100
AcDbArc
 50
125.9627651514
 51
127.218538294
  0
ARC
  5
709
100
AcDbEntity
  8
SUPERFICI
100
AcDbCircle
 62
7
  6
CONTINUOUS
 10
41.4644364497
 20
0.6050910865
 40
28.0
100
AcDbArc
 50
123.5572123136
 51
124.1210936517
  0
ARC
  5
70A
100
AcDbEntity
  8
RACCORDO
100
AcDbCircle
 62
7
  6
CONTINUOUS
 10
41.4644364497
 20
0.6050910865
 40
28.0
100
AcDbArc
 50
127.2181187584
 51
127.8896486685
  0
ARC
  5
70B
100
AcDbEntity
  8
RACCORDO
100
AcDbCircle
 62
7
  6
CONTINUOUS
 10
41.4644364497
 20
0.6050910865
 40
28.0
100
AcDbArc
 50
231.5016415962
 51
232.7818812416
  0
ARC
  5
70C
100
AcDbEntity
  8
ASSI
100
AcDbCircle
 62
7
  6
CONTINUOUS
 10
35.1644364497
 20
23.7050910865
 40
0.5
100
AcDbArc
 50
170.803718421
 51
299.112422776
  0
ARC
  5
70D
100
AcDbEntity
  8
SUPERFICI
100
AcDbCircle
 62
7
  6
CONTINUOUS
 10
35.1644364497
 20
23.7050910865
 40
0.5
100
AcDbArc
 50
170.803718421
 51
299.112422776
  0
ARC
  5
70E
100
AcDbEntity
  8
ASSI
100
AcDbCircle
 62
7
  6
CONTINUOUS
 10
32.5144364497
 20
22.6050910865
 40
0.5
100
AcDbArc
 50
53.1301023542
 51
126.8698976458
  0
ELLIPSE
  5
70F
100
AcDbEntity
  8
DRAFT
100
AcDbEllipse
 62
7
  6
CONTINUOUS
 10
30.2144364497
 20
13.7486744111
 30
0.0
 11
7.0
 21
0.0
 31
0.0
 40
0.2490486745
 41
2.9067543819
 42
3.1415926536
  0
ELLIPSE
  5
710
100
AcDbEntity
  8
DRAFT
100
AcDbEllipse
 62
7
  6
CONTINUOUS
 10
30.2144364497
 20
13.7486744111
 30
0.0
 11
7.0
 21
0.0
 31
0.0
 40
0.2490486745
 41
0.0
 42
0.2355274805
  0
ELLIPSE
  5
711
100
AcDbEntity
  8
ASSI
100
AcDbEllipse
 62
7
  6
CONTINUOUS
 10
19.6645126137
 20
-20.4344063319
 30
0.0
 11
0.4990996396
 21
0.0313507587
 31
0.0
 40
0.9963558159
 41
3.0790884567
 42
3.3407467704
  0
ELLIPSE
  5
712
100
AcDbEntity
  8
ASSI
100
AcDbEllipse
 62
7
  6
CONTINUOUS
 10
40.7643602857
 20
-20.4344063319
 30
0.0
 11
0.4990996396
 21
-0.0313507587
 31
0.0
 40
0.9963558159
 41
-0.1991540146
 42
0.0625041969
  0
ELLIPSE
  5
713
100
AcDbEntity
  8
ASSI
100
AcDbEllipse
 62
7
  6
CONTINUOUS
 10
40.7643602857
 20
22.2023852584
 30
0.0
 11
0.4990996396
 21
0.0313507587
 31
0.0
 40
0.9963558159
 41
-0.0625041969
 42
1.5078352791
  0
ELLIPSE
  5
714
100
AcDbEntity
  8
ASSI
100
AcDbEllipse
 62
7
  6
CONTINUOUS
 10
19.6645126137
 20
22.2023852584
 30
0.0
 11
0.4990996396
 21
-0.0313507587
 31
0.0
 40
0.9963558159
 41
1.6337573745
 42
3.2040968505
  0
ELLIPSE
  5
715
100
AcDbEntity
  8
ASSI
100
AcDbEllipse
 62
7
  6
CONTINUOUS
 10
30.2144364497
 20
13.7486744111
 30
0.0
 11
7.025
 21
0.0
 31
0.0
 40
0.2517075572
 41
3.1342271502
 42
3.2986053442
  0
ELLIPSE
  5
716
100
AcDbEntity
  8
ASSI
100
AcDbEllipse
 62
7
  6
CONTINUOUS
 10
30.2144364497
 20
13.7486744111
 30
0.0
 11
7.025
 21
0.0
 31
0.0
 40
0.2517075572
 41
6.1254380077
 42
6.2831853072
  0
ELLIPSE
  5
717
100
AcDbEntity
  8
RACCORDO
100
AcDbEllipse
 62
7
  6
CONTINUOUS
 10
19.6645126137
 20
-20.4344063319
 30
0.0
 11
0.4990996396
 21
0.0313507587
 31
0.0
 40
0.9963558159
 41
3.0790884567
 42
3.3407467704
  0
ELLIPSE
  5
718
100
AcDbEntity
  8
RACCORDO
100
AcDbEllipse
 62
7
  6
CONTINUOUS
 10
40.7643602857
 20
-20.4344063319
 30
0.0
 11
0.4990996396
 21
-0.0313507587
 31
0.0
 40
0.9963558159
 41
-0.1991540146
 42
0.0625041969
  0
ELLIPSE
  5
719
100
AcDbEntity
  8
RACCORDO
100
AcDbEllipse
 62
7
  6
CONTINUOUS
 10
40.7643602857
 20
22.2023852584
 30
0.0
 11
0.4990996396
 21
0.0313507587
 31
0.0
 40
0.9963558159
 41
-0.0625041969
 42
1.5078352791
  0
ELLIPSE
  5
71A
100
AcDbEntity
  8
RACCORDO
100
AcDbEllipse
 62
7
  6
CONTINUOUS
 10
19.6645126137
 20
22.2023852584
 30
0.0
 11
0.4990996396
 21
-0.0313507587
 31
0.0
 40
0.9963558159
 41
1.6337573745
 42
3.2040968505
  0
ELLIPSE
  5
71B
100
AcDbEntity
  8
0
100
AcDbEllipse
 62
7
  6
CONTINUOUS
 10
30.2144364497
 20
13.7486744111
 30
0.0
 11
7.025
 21
0.0
 31
0.0
 40
0.2517075572
 41
3.1704720325
 42
3.2955281738
  0
ELLIPSE
  5
71C
100
AcDbEntity
  8
0
100
AcDbEllipse
 62
7
  6
CONTINUOUS
 10
30.2144364497
 20
13.7486744111
 30
0.0
 11
7.025
 21
-0.0
 31
0.0
 40
0.2517075572
 41
3.136317629
 42
3.1415926536
  0
ELLIPSE
  5
71D
100
AcDbEntity
  8
0
100
AcDbEllipse
 62
7
  6
CONTINUOUS
 10
30.2144364497
 20
13.7486744111
 30
0.0
 11
7.025
 21
-0.0
 31
0.0
 40
0.2517075572
 41
-0.1535780227
 42
-0.0580655482
  0
ELLIPSE
  5
71E
100
AcDbEntity
  8
0
100
AcDbEllipse
 62
7
  6
CONTINUOUS
 10
30.2144364497
 20
13.7486744111
 30
0.0
 11
7.025
 21
0.0
 31
0.0
 40
0.2517075572
 41
6.262653238
 42
6.2896410698
  0
ENDSEC
  0
SECTION
  2
OBJECTS
  0
DICTIONARY
  5
C
100
AcDbDictionary
280
0
281
1
  3
ACAD_GROUP
350
D
  3
ACAD_MLINESTYLE
350
17
  3
ACAD_LAYOUT
350
1A
  3
ACAD_PLOTSETTINGS
350
19
  3
ACAD_PLOTSTYLENAME
350
E
  0
DICTIONARY
  5
D
102
{ACAD_REACTORS
330
C
102
}
100
AcDbDictionary
280
0
281
1
  0
ACDBDICTIONARYWDFLT
  5
E
102
{ACAD_REACTORS
330
C
102
}
100
AcDbDictionary
281
1
  3
Normal
350
F
100
AcDbDictionaryWithDefault
340
F
  0
DICTIONARY
  5
17
102
{ACAD_REACTORS
330
C
102
}
100
AcDbDictionary
280
0
281
1
  3
Standard
350
18
  0
DICTIONARY
  5
19
102
{ACAD_REACTORS
330
C
102
}
100
AcDbDictionary
281
1
  0
DICTIONARY
  5
1A
102
{ACAD_REACTORS
330
C
102
}
100
AcDbDictionary
281
1
  3
Model
350
71F
  3
Layout1
350
720
  0
ACDBPLACEHOLDER
  5
F
102
{ACAD_REACTORS
330
E
102
}
  0
MLINESTYLE
  5
18
102
{ACAD_REACTORS
330
17
102
}
100
AcDbMlineStyle
  2
STANDARD
 70
0
  3

 62
256
 51
90.0
 52
90.0
 71
2
 49
0.5
 62
256
  6
BYLAYER
 49
-0.5
 62
256
  6
BYLAYER
  0
LAYOUT
  5
71F
102
{ACAD_REACTORS
330
1A
102
}
100
AcDbPlotSettings
  1

  2
none_device
  4
ANSI_C_(22.00_x_17.00_Inches)
  6

 40
0.0
 41
0.0
 42
0.0
 43
0.0
 44
558.8
 45
431.8
 46
0.0
 47
0.0
 48
0.0
 49
0.0
140
0.0
141
0.0
142
1.0
143
1.0
 70
1024
 72
1
 73
0
 74
0
  7

 75
0
147
1.0
148
0.0
149
0.0
100
AcDbLayout
  1
Model
 70
0
 71
0
 10
0.0
 20
0.0
 11
558.8
 21
431.8
 12
0.0
 22
0.0
 32
0.0
 14
0.0
 24
0.0
 34
0.0
 15
0.0
 25
0.0
 35
0.0
146
0.0
 13
0.0
 23
0.0
 33
0.0
 16
1.0
 26
0.0
 36
0.0
 17
0.0
 27
1.0
 37
0.0
 76
0
330
219
345
0
346
0
  0
LAYOUT
  5
720
102
{ACAD_REACTORS
330
1A
102
}
100
AcDbPlotSettings
  1

  2
none_device
  4
ANSI_C_(22.00_x_17.00_Inches)
  6

 40
0.0
 41
0.0
 42
0.0
 43
0.0
 44
558.8
 45
431.8
 46
0.0
 47
0.0
 48
0.0
 49
0.0
140
0.0
141
0.0
142
1.0
143
1.0
 70
0
 72
1
 73
0
 74
0
  7

 75
0
147
1.0
148
0.0
149
0.0
100
AcDbLayout
  1
Layout1
 70
0
 71
1
 10
0.0
 20
0.0
 11
558.8
 21
431.8
 12
0.0
 22
0.0
 32
0.0
 14
0.0
 24
0.0
 34
0.0
 15
0.0
 25
0.0
 35
0.0
146
0.0
 13
0.0
 23
0.0
 33
0.0
 16
1.0
 26
0.0
 36
0.0
 17
0.0
 27
1.0
 37
0.0
 76
0
330
21A
345
0
346
0
  0
ENDSEC
  0
EOF
